  0
SECTION
  2
HEADER
  9
$ACADVER
  1
AC1015
  9
$ACADMAINTVER
 70
    18
  9
$DWGCODEPAGE
  3
ANSI_1252
  9
$INSBASE
 10
0.0
 20
0.0
 30
0.0
  9
$EXTMIN
 10
0.0
 20
0.0
 30
0.0
  9
$EXTMAX
 10
103.030303030303
 20
66.66666666666667
 30
0.0
  9
$LIMMIN
 10
0.0
 20
0.0
  9
$LIMMAX
 10
103.030303030303
 20
66.66666666666667
  9
$ORTHOMODE
 70
     0
  9
$REGENMODE
 70
     1
  9
$FILLMODE
 70
     1
  9
$QTEXTMODE
 70
     0
  9
$MIRRTEXT
 70
     0
  9
$LTSCALE
 40
6.06060606060606
  9
$ATTMODE
 70
     1
  9
$TEXTSIZE
 40
0.2
  9
$TRACEWID
 40
0.05
  9
$TEXTSTYLE
  7
Standard
  9
$CLAYER
  8
0
  9
$CELTYPE
  6
ByLayer
  9
$CECOLOR
 62
   256
  9
$CELTSCALE
 40
1.0
  9
$DISPSILH
 70
     0
  9
$DIMSCALE
 40
1.0
  9
$DIMASZ
 40
0.0708661417322835
  9
$DIMEXO
 40
0.0625
  9
$DIMDLI
 40
0.38
  9
$DIMRND
 40
0.0
  9
$DIMDLE
 40
0.0
  9
$DIMEXE
 40
0.18
  9
$DIMTP
 40
0.0
  9
$DIMTM
 40
0.0
  9
$DIMTXT
 40
0.0708661417322835
  9
$DIMCEN
 40
0.09
  9
$DIMTSZ
 40
0.0
  9
$DIMTOL
 70
     0
  9
$DIMLIM
 70
     0
  9
$DIMTIH
 70
     1
  9
$DIMTOH
 70
     1
  9
$DIMSE1
 70
     0
  9
$DIMSE2
 70
     0
  9
$DIMTAD
 70
     0
  9
$DIMZIN
 70
     0
  9
$DIMBLK
  1

  9
$DIMASO
 70
     1
  9
$DIMSHO
 70
     1
  9
$DIMPOST
  1

  9
$DIMAPOST
  1

  9
$DIMALT
 70
     0
  9
$DIMALTD
 70
     2
  9
$DIMALTF
 40
25.4
  9
$DIMLFAC
 40
1.0
  9
$DIMTOFL
 70
     0
  9
$DIMTVP
 40
0.0
  9
$DIMTIX
 70
     0
  9
$DIMSOXD
 70
     0
  9
$DIMSAH
 70
     0
  9
$DIMBLK1
  1

  9
$DIMBLK2
  1

  9
$DIMSTYLE
  2
Standard
  9
$DIMCLRD
 70
     0
  9
$DIMCLRE
 70
     0
  9
$DIMCLRT
 70
     0
  9
$DIMTFAC
 40
1.0
  9
$DIMGAP
 40
0.09
  9
$DIMJUST
 70
     0
  9
$DIMSD1
 70
     0
  9
$DIMSD2
 70
     0
  9
$DIMTOLJ
 70
     1
  9
$DIMTZIN
 70
     0
  9
$DIMALTZ
 70
     0
  9
$DIMALTTZ
 70
     0
  9
$DIMUPT
 70
     0
  9
$DIMDEC
 70
     4
  9
$DIMTDEC
 70
     4
  9
$DIMALTU
 70
     2
  9
$DIMALTTD
 70
     2
  9
$DIMTXSTY
  7
Standard
  9
$DIMAUNIT
 70
     0
  9
$DIMADEC
 70
     0
  9
$DIMALTRND
 40
0.0
  9
$DIMAZIN
 70
     0
  9
$DIMDSEP
 70
    46
  9
$DIMATFIT
 70
     3
  9
$DIMFRAC
 70
     0
  9
$DIMLDRBLK
  1

  9
$DIMLUNIT
 70
     2
  9
$DIMLWD
 70
    -2
  9
$DIMLWE
 70
    -2
  9
$DIMTMOVE
 70
     0
  9
$LUNITS
 70
     2
  9
$LUPREC
 70
     4
  9
$SKETCHINC
 40
0.1
  9
$FILLETRAD
 40
0.0
  9
$AUNITS
 70
     0
  9
$AUPREC
 70
     0
  9
$MENU
  1
.
  9
$ELEVATION
 40
0.0
  9
$PELEVATION
 40
0.0
  9
$THICKNESS
 40
0.0
  9
$LIMCHECK
 70
     0
  9
$CHAMFERA
 40
0.0
  9
$CHAMFERB
 40
0.0
  9
$CHAMFERC
 40
0.0
  9
$CHAMFERD
 40
0.0
  9
$SKPOLY
 70
     0
  9
$TDCREATE
 40
2455950.341524167
  9
$TDUCREATE
 40
2455950.591524167
  9
$TDUPDATE
 40
2455950.341524167
  9
$TDUUPDATE
 40
2455950.591524167
  9
$TDINDWG
 40
0.0000620255
  9
$TDUSRTIMER
 40
0.0000620255
  9
$USRTIMER
 70
     1
  9
$ANGBASE
 50
0.0
  9
$ANGDIR
 70
     0
  9
$PDMODE
 70
     0
  9
$PDSIZE
 40
0.0
  9
$PLINEWID
 40
0.0
  9
$SPLFRAME
 70
     0
  9
$SPLINETYPE
 70
     6
  9
$SPLINESEGS
 70
     8
  9
$HANDSEED
  5
F80
  9
$SURFTAB1
 70
     6
  9
$SURFTAB2
 70
     6
  9
$SURFTYPE
 70
     6
  9
$SURFU
 70
     6
  9
$SURFV
 70
     6
  9
$UCSBASE
  2

  9
$UCSNAME
  2

  9
$UCSORG
 10
0.0
 20
0.0
 30
0.0
  9
$UCSXDIR
 10
1.0
 20
0.0
 30
0.0
  9
$UCSYDIR
 10
0.0
 20
1.0
 30
0.0
  9
$UCSORTHOREF
  2

  9
$UCSORTHOVIEW
 70
     0
  9
$UCSORGTOP
 10
0.0
 20
0.0
 30
0.0
  9
$UCSORGBOTTOM
 10
0.0
 20
0.0
 30
0.0
  9
$UCSORGLEFT
 10
0.0
 20
0.0
 30
0.0
  9
$UCSORGRIGHT
 10
0.0
 20
0.0
 30
0.0
  9
$UCSORGFRONT
 10
0.0
 20
0.0
 30
0.0
  9
$UCSORGBACK
 10
0.0
 20
0.0
 30
0.0
  9
$PUCSBASE
  2

  9
$PUCSNAME
  2

  9
$PUCSORG
 10
0.0
 20
0.0
 30
0.0
  9
$PUCSXDIR
 10
1.0
 20
0.0
 30
0.0
  9
$PUCSYDIR
 10
0.0
 20
1.0
 30
0.0
  9
$PUCSORTHOREF
  2

  9
$PUCSORTHOVIEW
 70
     0
  9
$PUCSORGTOP
 10
0.0
 20
0.0
 30
0.0
  9
$PUCSORGBOTTOM
 10
0.0
 20
0.0
 30
0.0
  9
$PUCSORGLEFT
 10
0.0
 20
0.0
 30
0.0
  9
$PUCSORGRIGHT
 10
0.0
 20
0.0
 30
0.0
  9
$PUCSORGFRONT
 10
0.0
 20
0.0
 30
0.0
  9
$PUCSORGBACK
 10
0.0
 20
0.0
 30
0.0
  9
$USERI1
 70
     0
  9
$USERI2
 70
     0
  9
$USERI3
 70
     0
  9
$USERI4
 70
     0
  9
$USERI5
 70
     0
  9
$USERR1
 40
0.0
  9
$USERR2
 40
0.0
  9
$USERR3
 40
0.0
  9
$USERR4
 40
0.0
  9
$USERR5
 40
0.0
  9
$WORLDVIEW
 70
     1
  9
$SHADEDGE
 70
     3
  9
$SHADEDIF
 70
    70
  9
$TILEMODE
 70
     1
  9
$MAXACTVP
 70
    64
  9
$PINSBASE
 10
0.0
 20
0.0
 30
0.0
  9
$PLIMCHECK
 70
     0
  9
$PEXTMIN
 10
0.0
 20
0.0
 30
0.0
  9
$PEXTMAX
 10
103.030303030303
 20
66.66666666666667
 30
0.0
  9
$PLIMMIN
 10
0.0
 20
0.0
  9
$PLIMMAX
 10
103.030303030303
 20
66.66666666666667
  9
$UNITMODE
 70
     0
  9
$VISRETAIN
 70
     1
  9
$PLINEGEN
 70
     0
  9
$PSLTSCALE
 70
     1
  9
$TREEDEPTH
 70
  3020
  9
$CMLSTYLE
  2
Standard
  9
$CMLJUST
 70
     0
  9
$CMLSCALE
 40
1.0
  9
$PROXYGRAPHICS
 70
     1
  9
$MEASUREMENT
 70
     0
  9
$CELWEIGHT
370
    -1
  9
$ENDCAPS
280
     0
  9
$JOINSTYLE
280
     0
  9
$LWDISPLAY
290
     0
  9
$INSUNITS
 70
     1
  9
$HYPERLINKBASE
  1

  9
$STYLESHEET
  1

  9
$XEDIT
290
     1
  9
$CEPSNTYPE
380
     0
  9
$PSTYLEMODE
290
     1
  9
$FINGERPRINTGUID
  2
{91DFC45E-541A-4599-90CC-1968CA7F895D}
  9
$VERSIONGUID
  2
{C259DCD6-5F1D-4885-8650-45F846AA9B92}
  9
$EXTNAMES
290
     1
  9
$PSVPSCALE
 40
0.0
  9
$OLESTARTUP
290
     0
  0
ENDSEC
  0
SECTION
  2
CLASSES
  0
CLASS
  1
ACDBDICTIONARYWDFLT
  2
AcDbDictionaryWithDefault
  3
ObjectDBX Classes
 90
        0
280
     0
281
     0
  0
CLASS
  1
MATERIAL
  2
AcDbMaterial
  3
ObjectDBX Classes
 90
     1153
280
     0
281
     0
  0
CLASS
  1
VISUALSTYLE
  2
AcDbVisualStyle
  3
ObjectDBX Classes
 90
     4095
280
     0
281
     0
  0
CLASS
  1
SCALE
  2
AcDbScale
  3
ObjectDBX Classes
 90
     1153
280
     0
281
     0
  0
CLASS
  1
TABLESTYLE
  2
AcDbTableStyle
  3
ObjectDBX Classes
 90
     4095
280
     0
281
     0
  0
CLASS
  1
MLEADERSTYLE
  2
AcDbMLeaderStyle
  3
ACDB_MLEADERSTYLE_CLASS
 90
     4095
280
     0
281
     0
  0
CLASS
  1
DICTIONARYVAR
  2
AcDbDictionaryVar
  3
ObjectDBX Classes
 90
        0
280
     0
281
     0
  0
CLASS
  1
CELLSTYLEMAP
  2
AcDbCellStyleMap
  3
ObjectDBX Classes
 90
     1152
280
     0
281
     0
  0
CLASS
  1
ACDBPLACEHOLDER
  2
AcDbPlaceHolder
  3
ObjectDBX Classes
 90
        0
280
     0
281
     0
  0
CLASS
  1
LAYOUT
  2
AcDbLayout
  3
ObjectDBX Classes
 90
        0
280
     0
281
     0
  0
ENDSEC
  0
SECTION
  2
TABLES
  0
TABLE
  2
VPORT
  5
8
330
0
100
AcDbSymbolTable
 70
     1
  0
VPORT
  5
57
330
8
100
AcDbSymbolTableRecord
100
AcDbViewportTableRecord
  2
*Active
 70
     0
 10
0.0
 20
0.0
 11
1.0
 21
1.0
 12
51.51515151515152
 22
33.33333333333334
 13
0.0
 23
0.0
 14
1.0
 24
1.0
 15
0.0
 25
0.0
 16
0.0
 26
0.0
 36
1.0
 17
0.0
 27
0.0
 37
0.0
 40
66.66666666666667
 41
1.545454545454545
 42
50.0
 43
0.0
 44
0.0
 50
0.0
 51
0.0
 71
     0
 72
   100
 73
     1
 74
     1
 75
     0
 76
     0
 77
     0
 78
     0
281
     0
 65
     1
110
0.0
120
0.0
130
0.0
111
1.0
121
0.0
131
0.0
112
0.0
122
1.0
132
0.0
 79
     0
146
0.0
  0
ENDTAB
  0
TABLE
  2
LTYPE
  5
5
330
0
100
AcDbSymbolTable
 70
    59
  0
LTYPE
  5
5B
330
5
100
AcDbSymbolTableRecord
100
AcDbLinetypeTableRecord
  2
ByBlock
 70
     0
  3

 72
    65
 73
     0
 40
0.0
  0
LTYPE
  5
5C
330
5
100
AcDbSymbolTableRecord
100
AcDbLinetypeTableRecord
  2
ByLayer
 70
     0
  3

 72
    65
 73
     0
 40
0.0
  0
LTYPE
  5
5D
330
5
100
AcDbSymbolTableRecord
100
AcDbLinetypeTableRecord
  2
Continuous
 70
     0
  3
Solid line
 72
    65
 73
     0
 40
0.0
  0
LTYPE
  5
7C
330
5
100
AcDbSymbolTableRecord
100
AcDbLinetypeTableRecord
  2
BY_STANDARD
 70
     0
  3
By Standard ____________    ____    ____   _
 72
    65
 73
     6
 40
1.240299999999999
 49
0.6614
 74
     0
 49
-0.0827
 74
     0
 49
0.1654
 74
     0
 49
-0.0827
 74
     0
 49
0.1654
 74
     0
 49
-0.0827
 74
     0
  0
LTYPE
  5
7D
330
5
100
AcDbSymbolTableRecord
100
AcDbLinetypeTableRecord
  2
CHAIN
 70
     0
  3
Chain ____ _ ____ _ ____ _ ____ _ ____ _ ____
 72
    65
 73
     4
 40
0.7087
 49
0.4724000000000001
 74
     0
 49
-0.0591
 74
     0
 49
0.1181
 74
     0
 49
-0.0591
 74
     0
  0
LTYPE
  5
7E
330
5
100
AcDbSymbolTableRecord
100
AcDbLinetypeTableRecord
  2
DASH_DOT
 70
     0
  3
Dash dot __ . __ . __ . __ . __ . __ . __ . __
 72
    65
 73
     4
 40
0.37
 49
0.24
 74
     0
 49
-0.06
 74
     0
 49
0.01
 74
     0
 49
-0.06
 74
     0
  0
LTYPE
  5
7F
330
5
100
AcDbSymbolTableRecord
100
AcDbLinetypeTableRecord
  2
DOUBLE_DASH_DOT
 70
     0
  3
Double-Dash Dot __ __ . __ __ . __ __ . __ _
 72
    65
 73
     6
 40
0.4398
 49
0.24
 74
     0
 49
-0.06
 74
     0
 49
0.0098
 74
     0
 49
-0.06
 74
     0
 49
0.01
 74
     0
 49
-0.06
 74
     0
  0
LTYPE
  5
80
330
5
100
AcDbSymbolTableRecord
100
AcDbLinetypeTableRecord
  2
DASH_TRIPLE_DOT
 70
     0
  3
Dash Triple-Dot _ . . . _ . . . _ . . . _
 72
    65
 73
     8
 40
0.51
 49
0.24
 74
     0
 49
-0.06
 74
     0
 49
0.01
 74
     0
 49
-0.06
 74
     0
 49
0.01
 74
     0
 49
-0.06
 74
     0
 49
0.01
 74
     0
 49
-0.06
 74
     0
  0
LTYPE
  5
81
330
5
100
AcDbSymbolTableRecord
100
AcDbLinetypeTableRecord
  2
DASHED
 70
     0
  3
Dashed __ __ __ __ __ __ __ __ __ __ __ __ __ _
 72
    65
 73
     2
 40
0.2067
 49
0.1654
 74
     0
 49
-0.0413
 74
     0
  0
LTYPE
  5
82
330
5
100
AcDbSymbolTableRecord
100
AcDbLinetypeTableRecord
  2
DASH_DOUBLE_DOT
 70
     0
  3
Dash Double-Dot __ . . __ . . __ . . __ . .
 72
    65
 73
     6
 40
0.4398
 49
0.24
 74
     0
 49
-0.06
 74
     0
 49
0.0098
 74
     0
 49
-0.06
 74
     0
 49
0.01
 74
     0
 49
-0.06
 74
     0
  0
LTYPE
  5
83
330
5
100
AcDbSymbolTableRecord
100
AcDbLinetypeTableRecord
  2
DASHED_SPACE
 70
     0
  3
Dashed Space __ __ __ __ __ __ __ __ __ __ __ _
 72
    65
 73
     2
 40
0.2067
 49
0.1654
 74
     0
 49
-0.0413
 74
     0
  0
LTYPE
  5
84
330
5
100
AcDbSymbolTableRecord
100
AcDbLinetypeTableRecord
  2
DOTTED
 70
     0
  3
Dotted . . . . . . . . . . . . . . . . . . . . 
 72
    65
 73
     2
 40
0.0482
 49
0.0069
 74
     0
 49
-0.0413
 74
     0
  0
LTYPE
  5
85
330
5
100
AcDbSymbolTableRecord
100
AcDbLinetypeTableRecord
  2
DOUBLE_DASH_CHAIN
 70
     0
  3
Double-Dash Chain ______  __  __  ______  __  _
 72
    65
 73
     6
 40
1.240299999999999
 49
0.6614
 74
     0
 49
-0.0827
 74
     0
 49
0.1654
 74
     0
 49
-0.0827
 74
     0
 49
0.1654
 74
     0
 49
-0.0827
 74
     0
  0
LTYPE
  5
87
330
5
100
AcDbSymbolTableRecord
100
AcDbLinetypeTableRecord
  2
DOUBLE_DASH_DOUBLE_DOT
 70
     0
  3
Double-Dash Double-dot _ _ . . _ _ . . _
 72
    65
 73
     8
 40
0.7400000000000001
 49
0.24
 74
     0
 49
-0.06
 74
     0
 49
0.24
 74
     0
 49
-0.06
 74
     0
 49
0.01
 74
     0
 49
-0.06
 74
     0
 49
0.01
 74
     0
 49
-0.06
 74
     0
  0
LTYPE
  5
88
330
5
100
AcDbSymbolTableRecord
100
AcDbLinetypeTableRecord
  2
DOUBLE_DASH_TRIPLE_DOT
 70
     0
  3
Double Dash Triple Dot __ __ . . . __ __ . .
 72
    65
 73
    10
 40
0.8100000000000001
 49
0.24
 74
     0
 49
-0.06
 74
     0
 49
0.24
 74
     0
 49
-0.06
 74
     0
 49
0.01
 74
     0
 49
-0.06
 74
     0
 49
0.01
 74
     0
 49
-0.06
 74
     0
 49
0.01
 74
     0
 49
-0.06
 74
     0
  0
LTYPE
  5
89
330
5
100
AcDbSymbolTableRecord
100
AcDbLinetypeTableRecord
  2
LONG_DASH_DOTTED
 70
     0
  3
Long Dash Dotted ____ . ____ . ____ . ____ . _
 72
    65
 73
     4
 40
0.3543
 49
0.2362
 74
     0
 49
-0.0295
 74
     0
 49
0.0591
 74
     0
 49
-0.0295
 74
     0
  0
LTYPE
  5
8A
330
5
100
AcDbSymbolTableRecord
100
AcDbLinetypeTableRecord
  2
LONG_DASH_DOUBLE_DOT
 70
     0
  3
Long Dash Double Dot ________  .  .  ________  
 72
    65
 73
     6
 40
0.6799999999999999
 49
0.48
 74
     0
 49
-0.06
 74
     0
 49
0.01
 74
     0
 49
-0.06
 74
     0
 49
0.01
 74
     0
 49
-0.06
 74
     0
  0
LTYPE
  5
8B
330
5
100
AcDbSymbolTableRecord
100
AcDbLinetypeTableRecord
  2
LONG_DASH_TRIPLE_DOT
 70
     0
  3
Long Dash Triple Dot ____ ... ____ ... ____
 72
    65
 73
     8
 40
0.3689
 49
0.2362
 74
     0
 49
-0.0295
 74
     0
 49
0.0049
 74
     0
 49
-0.0295
 74
     0
 49
0.0049
 74
     0
 49
-0.0295
 74
     0
 49
0.0049
 74
     0
 49
-0.0295
 74
     0
  0
LTYPE
  5
8C
330
5
100
AcDbSymbolTableRecord
100
AcDbLinetypeTableRecord
  2
BORDER
 70
     0
  3
Border __ __ . __ __ . __ __ . __ __ . __ __ .
 72
    65
 73
     6
 40
1.75
 49
0.5
 74
     0
 49
-0.25
 74
     0
 49
0.5
 74
     0
 49
-0.25
 74
     0
 49
0.0
 74
     0
 49
-0.25
 74
     0
  0
LTYPE
  5
8D
330
5
100
AcDbSymbolTableRecord
100
AcDbLinetypeTableRecord
  2
BORDER2
 70
     0
  3
Border (.5x) __.__.__.__.__.__.__.__.__.__.__.
 72
    65
 73
     6
 40
0.875
 49
0.25
 74
     0
 49
-0.125
 74
     0
 49
0.25
 74
     0
 49
-0.125
 74
     0
 49
0.0
 74
     0
 49
-0.125
 74
     0
  0
LTYPE
  5
8E
330
5
100
AcDbSymbolTableRecord
100
AcDbLinetypeTableRecord
  2
BORDERX2
 70
     0
  3
Border (2x) ____  ____  .  ____  ____  .  ___
 72
    65
 73
     6
 40
3.5
 49
1.0
 74
     0
 49
-0.5
 74
     0
 49
1.0
 74
     0
 49
-0.5
 74
     0
 49
0.0
 74
     0
 49
-0.5
 74
     0
  0
LTYPE
  5
8F
330
5
100
AcDbSymbolTableRecord
100
AcDbLinetypeTableRecord
  2
CENTER
 70
     0
  3
Center ____ _ ____ _ ____ _ ____ _ ____ _ ____
 72
    65
 73
     4
 40
2.0
 49
1.25
 74
     0
 49
-0.25
 74
     0
 49
0.25
 74
     0
 49
-0.25
 74
     0
  0
LTYPE
  5
90
330
5
100
AcDbSymbolTableRecord
100
AcDbLinetypeTableRecord
  2
CENTER2
 70
     0
  3
Center (.5x) ___ _ ___ _ ___ _ ___ _ ___ _ ___
 72
    65
 73
     4
 40
1.125
 49
0.75
 74
     0
 49
-0.125
 74
     0
 49
0.125
 74
     0
 49
-0.125
 74
     0
  0
LTYPE
  5
91
330
5
100
AcDbSymbolTableRecord
100
AcDbLinetypeTableRecord
  2
CENTERX2
 70
     0
  3
Center (2x) ________  __  ________  __  _____
 72
    65
 73
     4
 40
4.0
 49
2.5
 74
     0
 49
-0.5
 74
     0
 49
0.5
 74
     0
 49
-0.5
 74
     0
  0
LTYPE
  5
92
330
5
100
AcDbSymbolTableRecord
100
AcDbLinetypeTableRecord
  2
DASHDOT2
 70
     0
  3
Dash dot (.5x) _._._._._._._._._._._._._._._.
 72
    65
 73
     4
 40
0.5
 49
0.25
 74
     0
 49
-0.125
 74
     0
 49
0.0
 74
     0
 49
-0.125
 74
     0
  0
LTYPE
  5
93
330
5
100
AcDbSymbolTableRecord
100
AcDbLinetypeTableRecord
  2
DASHDOTX2
 70
     0
  3
Dash dot (2x) ____  .  ____  .  ____  .  ___
 72
    65
 73
     4
 40
2.0
 49
1.0
 74
     0
 49
-0.5
 74
     0
 49
0.0
 74
     0
 49
-0.5
 74
     0
  0
LTYPE
  5
95
330
5
100
AcDbSymbolTableRecord
100
AcDbLinetypeTableRecord
  2
DASHED2
 70
     0
  3
Dashed (.5x) _ _ _ _ _ _ _ _ _ _ _ _ _ _ _ _ _
 72
    65
 73
     2
 40
0.375
 49
0.25
 74
     0
 49
-0.125
 74
     0
  0
LTYPE
  5
96
330
5
100
AcDbSymbolTableRecord
100
AcDbLinetypeTableRecord
  2
DASHEDX2
 70
     0
  3
Dashed (2x) ____  ____  ____  ____  ____  ___
 72
    65
 73
     2
 40
1.5
 49
1.0
 74
     0
 49
-0.5
 74
     0
  0
LTYPE
  5
97
330
5
100
AcDbSymbolTableRecord
100
AcDbLinetypeTableRecord
  2
DIVIDE
 70
     0
  3
Divide ____ . . ____ . . ____ . . ____ . . ____
 72
    65
 73
     6
 40
1.25
 49
0.5
 74
     0
 49
-0.25
 74
     0
 49
0.0
 74
     0
 49
-0.25
 74
     0
 49
0.0
 74
     0
 49
-0.25
 74
     0
  0
LTYPE
  5
98
330
5
100
AcDbSymbolTableRecord
100
AcDbLinetypeTableRecord
  2
DIVIDE2
 70
     0
  3
Divide (.5x) __..__..__..__..__..__..__..__.._
 72
    65
 73
     6
 40
0.625
 49
0.25
 74
     0
 49
-0.125
 74
     0
 49
0.0
 74
     0
 49
-0.125
 74
     0
 49
0.0
 74
     0
 49
-0.125
 74
     0
  0
LTYPE
  5
99
330
5
100
AcDbSymbolTableRecord
100
AcDbLinetypeTableRecord
  2
DIVIDEX2
 70
     0
  3
Divide (2x) ________  .  .  ________  .  .  _
 72
    65
 73
     6
 40
2.5
 49
1.0
 74
     0
 49
-0.5
 74
     0
 49
0.0
 74
     0
 49
-0.5
 74
     0
 49
0.0
 74
     0
 49
-0.5
 74
     0
  0
LTYPE
  5
9A
330
5
100
AcDbSymbolTableRecord
100
AcDbLinetypeTableRecord
  2
DOT
 70
     0
  3
Dot . . . . . . . . . . . . . . . . . . . . . .
 72
    65
 73
     2
 40
0.25
 49
0.0
 74
     0
 49
-0.25
 74
     0
  0
LTYPE
  5
9B
330
5
100
AcDbSymbolTableRecord
100
AcDbLinetypeTableRecord
  2
DOT2
 70
     0
  3
Dot (.5x) .....................................
 72
    65
 73
     2
 40
0.125
 49
0.0
 74
     0
 49
-0.125
 74
     0
  0
LTYPE
  5
9C
330
5
100
AcDbSymbolTableRecord
100
AcDbLinetypeTableRecord
  2
DOTX2
 70
     0
  3
Dot (2x) .  .  .  .  .  .  .  .  .  .  .  .  . 
 72
    65
 73
     2
 40
0.5
 49
0.0
 74
     0
 49
-0.5
 74
     0
  0
LTYPE
  5
9D
330
5
100
AcDbSymbolTableRecord
100
AcDbLinetypeTableRecord
  2
HIDDEN
 70
     0
  3
Hidden __ __ __ __ __ __ __ __ __ __ __ __ __ _
 72
    65
 73
     2
 40
0.375
 49
0.25
 74
     0
 49
-0.125
 74
     0
  0
LTYPE
  5
9E
330
5
100
AcDbSymbolTableRecord
100
AcDbLinetypeTableRecord
  2
HIDDEN2
 70
     0
  3
Hidden (.5x) _ _ _ _ _ _ _ _ _ _ _ _ _ _ _ _ _
 72
    65
 73
     2
 40
0.1875
 49
0.125
 74
     0
 49
-0.0625
 74
     0
  0
LTYPE
  5
9F
330
5
100
AcDbSymbolTableRecord
100
AcDbLinetypeTableRecord
  2
HIDDENX2
 70
     0
  3
Hidden (2x) ____ ____ ____ ____ ____ ____ ____
 72
    65
 73
     2
 40
0.75
 49
0.5
 74
     0
 49
-0.25
 74
     0
  0
LTYPE
  5
A0
330
5
100
AcDbSymbolTableRecord
100
AcDbLinetypeTableRecord
  2
PHANTOM
 70
     0
  3
Phantom ______  __  __  ______  __  __  ______
 72
    65
 73
     6
 40
2.5
 49
1.25
 74
     0
 49
-0.25
 74
     0
 49
0.25
 74
     0
 49
-0.25
 74
     0
 49
0.25
 74
     0
 49
-0.25
 74
     0
  0
LTYPE
  5
A1
330
5
100
AcDbSymbolTableRecord
100
AcDbLinetypeTableRecord
  2
PHANTOM2
 70
     0
  3
Phantom (.5x) ___ _ _ ___ _ _ ___ _ _ ___ _ _
 72
    65
 73
     6
 40
1.25
 49
0.625
 74
     0
 49
-0.125
 74
     0
 49
0.125
 74
     0
 49
-0.125
 74
     0
 49
0.125
 74
     0
 49
-0.125
 74
     0
  0
LTYPE
  5
A2
330
5
100
AcDbSymbolTableRecord
100
AcDbLinetypeTableRecord
  2
PHANTOMX2
 70
     0
  3
Phantom (2x) ____________    ____    ____   _
 72
    65
 73
     6
 40
5.0
 49
2.5
 74
     0
 49
-0.5
 74
     0
 49
0.5
 74
     0
 49
-0.5
 74
     0
 49
0.5
 74
     0
 49
-0.5
 74
     0
  0
LTYPE
  5
A3
330
5
100
AcDbSymbolTableRecord
100
AcDbLinetypeTableRecord
  2
ACAD_ISO02W100
 70
     0
  3
ISO dash __ __ __ __ __ __ __ __ __ __ __ __ __
 72
    65
 73
     2
 40
0.59
 49
0.47
 74
     0
 49
-0.12
 74
     0
  0
LTYPE
  5
A4
330
5
100
AcDbSymbolTableRecord
100
AcDbLinetypeTableRecord
  2
ACAD_ISO03W100
 70
     0
  3
ISO dash space __    __    __    __    __    __
 72
    65
 73
     2
 40
1.179999999999999
 49
0.47
 74
     0
 49
-0.71
 74
     0
  0
LTYPE
  5
A5
330
5
100
AcDbSymbolTableRecord
100
AcDbLinetypeTableRecord
  2
ACAD_ISO04W100
 70
     0
  3
ISO long-dash dot ____ . ____ . ____ . ____ . _
 72
    65
 73
     4
 40
1.179999999999999
 49
0.9399999999999998
 74
     0
 49
-0.12
 74
     0
 49
0.0
 74
     0
 49
-0.12
 74
     0
  0
LTYPE
  5
A6
330
5
100
AcDbSymbolTableRecord
100
AcDbLinetypeTableRecord
  2
ACAD_ISO05W100
 70
     0
  3
ISO long-dash double-dot ____ .. ____ .. ____ .
 72
    65
 73
     6
 40
1.299999999999999
 49
0.9399999999999998
 74
     0
 49
-0.12
 74
     0
 49
0.0
 74
     0
 49
-0.12
 74
     0
 49
0.0
 74
     0
 49
-0.12
 74
     0
  0
LTYPE
  5
A7
330
5
100
AcDbSymbolTableRecord
100
AcDbLinetypeTableRecord
  2
ACAD_ISO06W100
 70
     0
  3
ISO long-dash triple-dot ____ ... ____ ... ____
 72
    65
 73
     8
 40
1.419999999999999
 49
0.9399999999999998
 74
     0
 49
-0.12
 74
     0
 49
0.0
 74
     0
 49
-0.12
 74
     0
 49
0.0
 74
     0
 49
-0.12
 74
     0
 49
0.0
 74
     0
 49
-0.12
 74
     0
  0
LTYPE
  5
A8
330
5
100
AcDbSymbolTableRecord
100
AcDbLinetypeTableRecord
  2
ACAD_ISO07W100
 70
     0
  3
ISO dot . . . . . . . . . . . . . . . . . . . .
 72
    65
 73
     2
 40
0.12
 49
0.0
 74
     0
 49
-0.12
 74
     0
  0
LTYPE
  5
A9
330
5
100
AcDbSymbolTableRecord
100
AcDbLinetypeTableRecord
  2
ACAD_ISO08W100
 70
     0
  3
ISO long-dash short-dash ____ __ ____ __ ____ _
 72
    65
 73
     4
 40
0.95
 49
0.47
 74
     0
 49
-0.12
 74
     0
 49
0.24
 74
     0
 49
-0.12
 74
     0
  0
LTYPE
  5
AA
330
5
100
AcDbSymbolTableRecord
100
AcDbLinetypeTableRecord
  2
ACAD_ISO09W100
 70
     0
  3
ISO long-dash double-short-dash ____ __ __ ____
 72
    65
 73
     6
 40
1.31
 49
0.47
 74
     0
 49
-0.12
 74
     0
 49
0.24
 74
     0
 49
-0.12
 74
     0
 49
0.24
 74
     0
 49
-0.12
 74
     0
  0
LTYPE
  5
AB
330
5
100
AcDbSymbolTableRecord
100
AcDbLinetypeTableRecord
  2
ACAD_ISO10W100
 70
     0
  3
ISO dash dot __ . __ . __ . __ . __ . __ . __ .
 72
    65
 73
     4
 40
0.71
 49
0.47
 74
     0
 49
-0.12
 74
     0
 49
0.0
 74
     0
 49
-0.12
 74
     0
  0
LTYPE
  5
AC
330
5
100
AcDbSymbolTableRecord
100
AcDbLinetypeTableRecord
  2
ACAD_ISO11W100
 70
     0
  3
ISO double-dash dot __ __ . __ __ . __ __ . __ 
 72
    65
 73
     6
 40
1.299999999999999
 49
0.47
 74
     0
 49
-0.12
 74
     0
 49
0.47
 74
     0
 49
-0.12
 74
     0
 49
0.0
 74
     0
 49
-0.12
 74
     0
  0
LTYPE
  5
AD
330
5
100
AcDbSymbolTableRecord
100
AcDbLinetypeTableRecord
  2
ACAD_ISO12W100
 70
     0
  3
ISO dash double-dot __ . . __ . . __ . . __ . .
 72
    65
 73
     6
 40
0.8299999999999998
 49
0.47
 74
     0
 49
-0.12
 74
     0
 49
0.0
 74
     0
 49
-0.12
 74
     0
 49
0.0
 74
     0
 49
-0.12
 74
     0
  0
LTYPE
  5
AE
330
5
100
AcDbSymbolTableRecord
100
AcDbLinetypeTableRecord
  2
ACAD_ISO13W100
 70
     0
  3
ISO double-dash double-dot __ __ . . __ __ . . 
 72
    65
 73
     8
 40
1.419999999999999
 49
0.47
 74
     0
 49
-0.12
 74
     0
 49
0.47
 74
     0
 49
-0.12
 74
     0
 49
0.0
 74
     0
 49
-0.12
 74
     0
 49
0.0
 74
     0
 49
-0.12
 74
     0
  0
LTYPE
  5
AF
330
5
100
AcDbSymbolTableRecord
100
AcDbLinetypeTableRecord
  2
ACAD_ISO14W100
 70
     0
  3
ISO dash triple-dot __ . . . __ . . . __ . . . 
 72
    65
 73
     8
 40
0.95
 49
0.47
 74
     0
 49
-0.12
 74
     0
 49
0.0
 74
     0
 49
-0.12
 74
     0
 49
0.0
 74
     0
 49
-0.12
 74
     0
 49
0.0
 74
     0
 49
-0.12
 74
     0
  0
LTYPE
  5
B0
330
5
100
AcDbSymbolTableRecord
100
AcDbLinetypeTableRecord
  2
ACAD_ISO15W100
 70
     0
  3
ISO double-dash triple-dot __ __ . . . __ __ . 
 72
    65
 73
    10
 40
1.539999999999999
 49
0.47
 74
     0
 49
-0.12
 74
     0
 49
0.47
 74
     0
 49
-0.12
 74
     0
 49
0.0
 74
     0
 49
-0.12
 74
     0
 49
0.0
 74
     0
 49
-0.12
 74
     0
 49
0.0
 74
     0
 49
-0.12
 74
     0
  0
LTYPE
  5
B3
330
5
100
AcDbSymbolTableRecord
100
AcDbLinetypeTableRecord
  2
FENCELINE1
 70
     0
  3
Fenceline circle ----0-----0----0-----0----0---
 72
    65
 73
     4
 40
1.45
 49
0.25
 74
     0
 49
-0.1
 74
     4
 75
   133
340
B2
 46
0.1
 50
0.0
 44
-0.1
 45
0.0
 49
-0.1
 74
     0
 49
1.0
 74
     0
  0
LTYPE
  5
B4
330
5
100
AcDbSymbolTableRecord
100
AcDbLinetypeTableRecord
  2
FENCELINE2
 70
     0
  3
Fenceline square ----[]-----[]----[]-----[]----
 72
    65
 73
     4
 40
1.45
 49
0.25
 74
     0
 49
-0.1
 74
     4
 75
   132
340
B2
 46
0.1
 50
0.0
 44
-0.1
 45
0.0
 49
-0.1
 74
     0
 49
1.0
 74
     0
  0
LTYPE
  5
B5
330
5
100
AcDbSymbolTableRecord
100
AcDbLinetypeTableRecord
  2
TRACKS
 70
     0
  3
Tracks -|-|-|-|-|-|-|-|-|-|-|-|-|-|-|-|-|-|-|-|
 72
    65
 73
     2
 40
0.3
 49
0.15
 74
     4
 75
   130
340
B2
 46
0.25
 50
0.0
 44
0.0
 45
0.0
 49
0.15
 74
     0
  0
LTYPE
  5
B6
330
5
100
AcDbSymbolTableRecord
100
AcDbLinetypeTableRecord
  2
BATTING
 70
     0
  3
Batting SSSSSSSSSSSSSSSSSSSSSSSSSSSSSSSSSSSSSSS
 72
    65
 73
     4
 40
0.4001000000000001
 49
0.0001
 74
     0
 49
-0.1
 74
     4
 75
   134
340
B2
 46
0.1
 50
0.0
 44
-0.1
 45
0.0
 49
-0.2
 74
     4
 75
   134
340
B2
 46
0.1
 50
180.0
 44
0.1
 45
0.0
 49
-0.1
 74
     0
  0
LTYPE
  5
B7
330
5
100
AcDbSymbolTableRecord
100
AcDbLinetypeTableRecord
  2
HOT_WATER_SUPPLY
 70
     0
  3
Hot water supply ---- HW ---- HW ---- HW ----
 72
    65
 73
     3
 40
0.9
 49
0.5
 74
     0
 49
-0.2
 74
     2
 75
     0
340
55
 46
0.1
 50
0.0
 44
-0.1
 45
-0.05
  9
HW
 49
-0.2
 74
     0
  0
LTYPE
  5
B8
330
5
100
AcDbSymbolTableRecord
100
AcDbLinetypeTableRecord
  2
GAS_LINE
 70
     0
  3
Gas line ----GAS----GAS----GAS----GAS----GAS---
 72
    65
 73
     3
 40
0.95
 49
0.5
 74
     0
 49
-0.2
 74
     2
 75
     0
340
55
 46
0.1
 50
0.0
 44
-0.1
 45
-0.05
  9
GAS
 49
-0.25
 74
     0
  0
LTYPE
  5
B9
330
5
100
AcDbSymbolTableRecord
100
AcDbLinetypeTableRecord
  2
ZIGZAG
 70
     0
  3
Zig zag /\/\/\/\/\/\/\/\/\/\/\/\/\/\/\/\/\/\/\/
 72
    65
 73
     4
 40
0.8001000000000001
 49
0.0001
 74
     0
 49
-0.2
 74
     4
 75
   131
340
B2
 46
0.2
 50
0.0
 44
-0.2
 45
0.0
 49
-0.4
 74
     4
 75
   131
340
B2
 46
0.2
 50
180.0
 44
0.2
 45
0.0
 49
-0.2
 74
     0
  0
ENDTAB
  0
TABLE
  2
LAYER
  5
2
330
0
100
AcDbSymbolTable
 70
    27
  0
LAYER
  5
54
330
2
100
AcDbSymbolTableRecord
100
AcDbLayerTableRecord
  2
0
 70
     0
 62
     7
  6
Continuous
370
     0
390
F
  0
LAYER
  5
C0
330
2
100
AcDbSymbolTableRecord
100
AcDbLayerTableRecord
  2
Center Mark (ANSI)
 70
     0
 62
     7
  6
Continuous
370
     5
390
F
  0
LAYER
  5
C1
330
2
100
AcDbSymbolTableRecord
100
AcDbLayerTableRecord
  2
Centerline (ANSI)
 70
     0
 62
     7
  6
Continuous
370
     5
390
F
  0
LAYER
  5
C3
330
2
100
AcDbSymbolTableRecord
100
AcDbLayerTableRecord
  2
Dimension (ANSI)
 70
     0
 62
     7
  6
Continuous
370
     5
390
F
  0
LAYER
  5
C5
330
2
100
AcDbSymbolTableRecord
100
AcDbLayerTableRecord
  2
Hidden (ANSI)
 70
     0
 62
     7
  6
DASHED
370
     5
390
F
  0
LAYER
  5
CC
330
2
100
AcDbSymbolTableRecord
100
AcDbLayerTableRecord
  2
Symbol (ANSI)
 70
     0
 62
     7
  6
Continuous
370
     5
390
F
  0
LAYER
  5
CF
330
2
100
AcDbSymbolTableRecord
100
AcDbLayerTableRecord
  2
Visible (ANSI)
 70
     0
 62
     7
  6
Continuous
370
     5
390
F
  0
LAYER
  5
D0
330
2
100
AcDbSymbolTableRecord
100
AcDbLayerTableRecord
  2
Visible Narrow (ANSI)
 70
     0
 62
     7
  6
Continuous
370
     5
390
F
  0
LAYER
  5
1EB
330
2
100
AcDbSymbolTableRecord
100
AcDbLayerTableRecord
  2
Defpoints
 70
     0
 62
     7
  6
Continuous
290
     0
370
    -3
390
F
  0
ENDTAB
  0
TABLE
  2
STYLE
  5
3
330
0
100
AcDbSymbolTable
 70
    10
  0
STYLE
  5
55
330
3
100
AcDbSymbolTableRecord
100
AcDbTextStyleTableRecord
  2
Standard
 70
     0
 40
0.0
 41
1.0
 50
0.0
 71
     0
 42
0.2
  3
txt
  4

  0
STYLE
  5
5A
330
3
100
AcDbSymbolTableRecord
100
AcDbTextStyleTableRecord
  2
Annotative
 70
     0
 40
0.0
 41
1.0
 50
0.0
 71
     0
 42
0.2
  3
txt
  4

1001
AcadAnnotative
1000
AnnotativeData
1002
{
1070
     1
1070
     1
1002
}
  0
STYLE
  5
B2
330
3
100
AcDbSymbolTableRecord
100
AcDbTextStyleTableRecord
  2

 70
     1
 40
0.0
 41
1.0
 50
0.0
 71
     0
 42
0.2
  3
ltypeshp.shx
  4

  0
STYLE
  5
D4
330
3
100
AcDbSymbolTableRecord
100
AcDbTextStyleTableRecord
  2
ITALICC_120
 70
     0
 40
0.0
 41
1.0
 50
0.0
 71
     0
 42
0.2
  3
italicc.shx
  4

  0
STYLE
  5
D5
330
3
100
AcDbSymbolTableRecord
100
AcDbTextStyleTableRecord
  2
Label Text (ANSI)
 70
     0
 40
0.0
 41
1.0
 50
0.0
 71
     0
 42
0.2
  3
TAHOMA.TTF
  4

1001
ACAD
1000
Tahoma
1071
      256
  0
STYLE
  5
D6
330
3
100
AcDbSymbolTableRecord
100
AcDbTextStyleTableRecord
  2
Note Text (ANSI)
 70
     0
 40
0.0
 41
1.0
 50
0.0
 71
     0
 42
0.2
  3
RomanS.shx
  4

  0
STYLE
  5
D7
330
3
100
AcDbSymbolTableRecord
100
AcDbTextStyleTableRecord
  2
ROMANS
 70
     0
 40
0.0
 41
1.0
 50
0.0
 71
     0
 42
0.2
  3
romans.shx
  4

  0
STYLE
  5
D8
330
3
100
AcDbSymbolTableRecord
100
AcDbTextStyleTableRecord
  2
SANSSERIF_114
 70
     0
 40
0.0
 41
1.0
 50
0.0
 71
     0
 42
0.2
  3
TAHOMA.TTF
  4

1001
ACAD
1000
Tahoma
1071
      256
  0
STYLE
  5
D9
330
3
100
AcDbSymbolTableRecord
100
AcDbTextStyleTableRecord
  2
SANSSERIF_117
 70
     0
 40
0.0
 41
1.0
 50
0.0
 71
     0
 42
0.2
  3
TAHOMA.TTF
  4

1001
ACAD
1000
Tahoma
1071
      256
  0
STYLE
  5
145
330
3
100
AcDbSymbolTableRecord
100
AcDbTextStyleTableRecord
  2
Text Style168
 70
     0
 40
0.0
 41
1.0
 50
0.0
 71
     0
 42
0.2
  3
TAHOMA.TTF
  4

1001
ACAD
1000
Tahoma
1071
      256
  0
ENDTAB
  0
TABLE
  2
VIEW
  5
6
330
0
100
AcDbSymbolTable
 70
     0
  0
ENDTAB
  0
TABLE
  2
UCS
  5
7
330
0
100
AcDbSymbolTable
 70
     0
  0
ENDTAB
  0
TABLE
  2
APPID
  5
9
330
0
100
AcDbSymbolTable
 70
     4
  0
APPID
  5
56
330
9
100
AcDbSymbolTableRecord
100
AcDbRegAppTableRecord
  2
ACAD
 70
     0
  0
APPID
  5
5E
330
9
100
AcDbSymbolTableRecord
100
AcDbRegAppTableRecord
  2
AcadAnnotative
 70
     0
  0
APPID
  5
855
330
9
100
AcDbSymbolTableRecord
100
AcDbRegAppTableRecord
  2
ACAD_DSTYLE_DIMRADIAL_EXTENSION
 70
     0
  0
APPID
  5
F75
330
9
100
AcDbSymbolTableRecord
100
AcDbRegAppTableRecord
  2
ACAD_MLEADERVER
 70
     0
  0
ENDTAB
  0
TABLE
  2
DIMSTYLE
  5
A
330
0
100
AcDbSymbolTable
 70
    15
100
AcDbDimStyleTable
 71
     2
340
E2
340
58
  0
DIMSTYLE
105
58
330
A
100
AcDbSymbolTableRecord
100
AcDbDimStyleTableRecord
  2
Standard
 70
     0
340
55
  0
DIMSTYLE
105
59
330
A
100
AcDbSymbolTableRecord
100
AcDbDimStyleTableRecord
  2
Annotative
 70
     0
340
55
1001
AcadAnnotative
1000
AnnotativeData
1002
{
1070
     1
1070
     1
1002
}
  0
DIMSTYLE
105
DA
330
A
100
AcDbSymbolTableRecord
100
AcDbDimStyleTableRecord
  2
Architectural (ANSI)
 70
     0
 40
6.06060606060606
 41
0.0984251946210861
 43
0.2362204724409449
 44
0.125
 45
0.00000001
 46
0.3937007874015748
 78
     3
 79
     3
140
0.1000000014901161
146
1.200000029802321
147
0.031496062992126
171
     1
176
   256
177
   256
178
   256
272
     2
274
     1
276
     2
277
     4
284
    12
285
     4
286
    12
340
D6
371
    -1
372
    -1
  0
DIMSTYLE
105
DB
330
A
100
AcDbSymbolTableRecord
100
AcDbDimStyleTableRecord
  2
Architectural (ANSI)$7
 70
     0
 40
6.06060606060606
 41
0.0984251946210861
 43
0.2362204724409449
 44
0.125
 45
0.00000001
 46
0.3937007874015748
 78
     3
 79
     3
140
0.1000000014901161
146
1.200000029802321
147
0.031496062992126
171
     1
176
   256
177
   256
178
   256
272
     2
274
     1
276
     2
277
     4
284
    12
285
     4
286
    12
340
D6
371
    -1
372
    -1
  0
DIMSTYLE
105
DC
330
A
100
AcDbSymbolTableRecord
100
AcDbDimStyleTableRecord
  2
Default - Fraction (ANSI)
 70
     0
 40
6.06060606060606
 41
0.0984251946210861
 43
0.2362204724409449
 44
0.125
 45
0.00000001
 46
0.3937007874015748
 79
     3
140
0.1000000014901161
146
1.200000029802321
147
0.031496062992126
171
     1
176
   256
177
   256
178
   256
272
     2
274
     1
276
     2
277
     5
284
    12
285
     4
286
    12
340
D6
371
    -1
372
    -1
  0
DIMSTYLE
105
DD
330
A
100
AcDbSymbolTableRecord
100
AcDbDimStyleTableRecord
  2
Default - Fraction (ANSI)$7
 70
     0
 40
6.06060606060606
 41
0.0984251946210861
 43
0.2362204724409449
 44
0.125
 45
0.00000001
 46
0.3937007874015748
 79
     3
140
0.1000000014901161
146
1.200000029802321
147
0.031496062992126
171
     1
176
   256
177
   256
178
   256
272
     2
274
     1
276
     2
277
     5
284
    12
285
     4
286
    12
340
D6
371
    -1
372
    -1
  0
DIMSTYLE
105
DE
330
A
100
AcDbSymbolTableRecord
100
AcDbDimStyleTableRecord
  2
Default - mm (ANSI)
 70
     0
 40
6.06060606060606
 41
0.0984251946210861
 42
0.063
 43
0.2362204724409449
 44
0.125
 45
0.00000001
 46
0.3937007874015748
 73
     0
 78
     4
 79
     1
140
0.1000000014901161
143
1.0
144
25.4
146
1.200000029802321
147
0.031496062992126
171
     1
176
   256
177
   256
178
   256
179
     1
271
     2
272
     2
274
     1
284
     4
285
     4
340
D6
371
    -1
372
    -1
  0
DIMSTYLE
105
DF
330
A
100
AcDbSymbolTableRecord
100
AcDbDimStyleTableRecord
  2
Default - mm (ANSI)$7
 70
     0
 40
6.06060606060606
 41
0.0984251946210861
 42
0.063
 43
0.2362204724409449
 44
0.125
 45
0.00000001
 46
0.3937007874015748
 73
     0
 78
     4
 79
     1
140
0.1000000014901161
143
1.0
144
25.4
146
1.200000029802321
147
0.031496062992126
171
     1
176
   256
177
   256
178
   256
179
     1
271
     2
272
     2
274
     1
284
     4
285
     4
340
D6
371
    -1
372
    -1
  0
DIMSTYLE
105
E0
330
A
100
AcDbSymbolTableRecord
100
AcDbDimStyleTableRecord
  2
Default - mm [in] (ANSI)
 70
     0
  4
 in
 40
6.06060606060606
 41
0.0984251946210861
 42
0.063
 43
0.25
 44
0.125
 45
0.00000001
 46
0.3937007874015748
 73
     0
 78
     4
 79
     1
140
0.1000000014901161
143
0.03937
144
25.4
146
1.200000029802321
147
0.031496062992126
170
     1
171
     3
176
   256
177
   256
178
   256
179
     1
271
     2
272
     2
274
     3
284
     4
285
     4
286
     4
340
D6
371
    -1
372
    -1
  0
DIMSTYLE
105
E1
330
A
100
AcDbSymbolTableRecord
100
AcDbDimStyleTableRecord
  2
Default - mm [in] (ANSI)$7
 70
     0
  4
 in
 40
6.06060606060606
 41
0.0984251946210861
 42
0.063
 43
0.25
 44
0.125
 45
0.00000001
 46
0.3937007874015748
 73
     0
 78
     4
 79
     1
140
0.1000000014901161
143
0.03937
144
25.4
146
1.200000029802321
147
0.031496062992126
170
     1
171
     3
176
   256
177
   256
178
   256
179
     1
271
     2
272
     2
274
     3
284
     4
285
     4
286
     4
340
D6
371
    -1
372
    -1
  0
DIMSTYLE
105
E2
102
{ACAD_REACTORS
330
1E9
330
2D6
330
3C0
330
4BE
330
5A8
330
6A6
330
7BC
330
866
330
90F
330
A25
330
B33
330
C31
330
D49
330
E31
102
}
330
A
100
AcDbSymbolTableRecord
100
AcDbDimStyleTableRecord
  2
Default (ANSI)
 70
     0
 40
6.06060606060606
 41
0.0984251946210861
 43
0.2362204724409449
 44
0.125
 45
0.00000001
 46
0.3937007874015748
140
0.1000000014901161
147
0.031496062992126
176
   256
177
   256
178
   256
271
     2
272
     2
340
D7
371
    -1
372
    -1
  0
DIMSTYLE
105
E3
330
A
100
AcDbSymbolTableRecord
100
AcDbDimStyleTableRecord
  2
Default (ANSI)$7
 70
     0
 40
6.06060606060606
 41
0.0984251946210861
 43
0.2362204724409449
 44
0.125
 45
0.00000001
 46
0.3937007874015748
140
0.1000000014901161
147
0.031496062992126
176
   256
177
   256
178
   256
271
     2
272
     2
340
D7
371
    -1
372
    -1
  0
DIMSTYLE
105
E4
330
A
100
AcDbSymbolTableRecord
100
AcDbDimStyleTableRecord
  2
Alternate (ANSI)
 70
     0
 40
6.06060606060606
 41
0.0979999974370003
340
55
342
E5
  0
DIMSTYLE
105
F7
330
A
100
AcDbSymbolTableRecord
100
AcDbDimStyleTableRecord
  2
Datum (ANSI)
 70
     0
 40
6.06060606060606
 41
0.0979999974370003
340
55
342
E5
  0
DIMSTYLE
105
106
330
A
100
AcDbSymbolTableRecord
100
AcDbDimStyleTableRecord
  2
Large (ANSI)
 70
     0
 40
6.06060606060606
 41
0.1959999948740005
340
55
342
E5
  0
ENDTAB
  0
TABLE
  2
BLOCK_RECORD
  5
1
330
0
100
AcDbSymbolTable
 70
    18
  0
BLOCK_RECORD
  5
6C
330
1
100
AcDbSymbolTableRecord
100
AcDbBlockTableRecord
  2
*Model_Space
340
6F
  0
BLOCK_RECORD
  5
68
330
1
100
AcDbSymbolTableRecord
100
AcDbBlockTableRecord
  2
*Paper_Space
340
6B
  0
BLOCK_RECORD
  5
70
330
1
100
AcDbSymbolTableRecord
100
AcDbBlockTableRecord
  2
*Paper_Space0
340
73
  0
BLOCK_RECORD
  5
E5
330
1
100
AcDbSymbolTableRecord
100
AcDbBlockTableRecord
  2
_Closed
340
0
  0
BLOCK_RECORD
  5
EC
330
1
100
AcDbSymbolTableRecord
100
AcDbBlockTableRecord
  2
DatumFilled45
340
0
  0
BLOCK_RECORD
  5
F8
330
1
100
AcDbSymbolTableRecord
100
AcDbBlockTableRecord
  2
Filled-1
340
0
  0
BLOCK_RECORD
  5
1EC
330
1
100
AcDbSymbolTableRecord
100
AcDbBlockTableRecord
  2
*D4
340
0
  0
BLOCK_RECORD
  5
2D7
330
1
100
AcDbSymbolTableRecord
100
AcDbBlockTableRecord
  2
*D5
340
0
  0
BLOCK_RECORD
  5
3C1
330
1
100
AcDbSymbolTableRecord
100
AcDbBlockTableRecord
  2
*D6
340
0
  0
BLOCK_RECORD
  5
4BF
330
1
100
AcDbSymbolTableRecord
100
AcDbBlockTableRecord
  2
*D7
340
0
  0
BLOCK_RECORD
  5
5A9
330
1
100
AcDbSymbolTableRecord
100
AcDbBlockTableRecord
  2
*D8
340
0
  0
BLOCK_RECORD
  5
6A7
330
1
100
AcDbSymbolTableRecord
100
AcDbBlockTableRecord
  2
*D9
340
0
  0
BLOCK_RECORD
  5
7BD
330
1
100
AcDbSymbolTableRecord
100
AcDbBlockTableRecord
  2
*D10
340
0
  0
BLOCK_RECORD
  5
867
330
1
100
AcDbSymbolTableRecord
100
AcDbBlockTableRecord
  2
*D11
340
0
  0
BLOCK_RECORD
  5
910
330
1
100
AcDbSymbolTableRecord
100
AcDbBlockTableRecord
  2
*D12
340
0
  0
BLOCK_RECORD
  5
A26
330
1
100
AcDbSymbolTableRecord
100
AcDbBlockTableRecord
  2
*D13
340
0
  0
BLOCK_RECORD
  5
B34
330
1
100
AcDbSymbolTableRecord
100
AcDbBlockTableRecord
  2
*D14
340
0
  0
BLOCK_RECORD
  5
C32
330
1
100
AcDbSymbolTableRecord
100
AcDbBlockTableRecord
  2
*D15
340
0
  0
BLOCK_RECORD
  5
D4A
330
1
100
AcDbSymbolTableRecord
100
AcDbBlockTableRecord
  2
*D16
340
0
  0
BLOCK_RECORD
  5
E32
330
1
100
AcDbSymbolTableRecord
100
AcDbBlockTableRecord
  2
*D17
340
0
  0
ENDTAB
  0
ENDSEC
  0
SECTION
  2
BLOCKS
  0
BLOCK
  5
6D
330
6C
100
AcDbEntity
  8
0
100
AcDbBlockBegin
  2
*Model_Space
 70
     0
 10
0.0
 20
0.0
 30
0.0
  3
*Model_Space
  1

  0
ENDBLK
  5
6E
330
6C
100
AcDbEntity
  8
0
100
AcDbBlockEnd
  0
BLOCK
  5
69
330
68
100
AcDbEntity
 67
     1
  8
0
100
AcDbBlockBegin
  2
*Paper_Space
 70
     0
 10
0.0
 20
0.0
 30
0.0
  3
*Paper_Space
  1

  0
ENDBLK
  5
6A
330
68
100
AcDbEntity
 67
     1
  8
0
100
AcDbBlockEnd
  0
BLOCK
  5
71
330
70
100
AcDbEntity
 67
     1
  8
0
100
AcDbBlockBegin
  2
*Paper_Space0
 70
     0
 10
0.0
 20
0.0
 30
0.0
  3
*Paper_Space0
  1

  0
ENDBLK
  5
72
330
70
100
AcDbEntity
 67
     1
  8
0
100
AcDbBlockEnd
  0
BLOCK
  5
EA
330
E5
100
AcDbEntity
  8
0
100
AcDbBlockBegin
  2
_Closed
 70
     0
 10
0.0
 20
0.0
 30
0.0
  3
_Closed
  1

  0
LINE
  5
E6
330
E5
100
AcDbEntity
  8
0
  6
ByBlock
 62
     0
370
    -2
100
AcDbLine
 10
-1.0
 20
0.1666666666666666
 30
0.0
 11
0.0
 21
0.0
 31
0.0
  0
LINE
  5
E7
330
E5
100
AcDbEntity
  8
0
  6
ByBlock
 62
     0
370
    -2
100
AcDbLine
 10
0.0
 20
0.0
 30
0.0
 11
-1.0
 21
-0.1666666666666666
 31
0.0
  0
LINE
  5
E8
330
E5
100
AcDbEntity
  8
0
  6
ByBlock
 62
     0
370
    -2
100
AcDbLine
 10
-1.0
 20
0.1666666666666666
 30
0.0
 11
-1.0
 21
-0.1666666666666666
 31
0.0
  0
LINE
  5
E9
330
E5
100
AcDbEntity
  8
0
  6
ByBlock
 62
     0
370
    -2
100
AcDbLine
 10
0.0
 20
0.0
 30
0.0
 11
-1.0
 21
0.0
 31
0.0
  0
ENDBLK
  5
EB
330
E5
100
AcDbEntity
  8
0
100
AcDbBlockEnd
  0
BLOCK
  5
ED
330
EC
100
AcDbEntity
  8
0
100
AcDbBlockBegin
  2
DatumFilled45
 70
     0
 10
0.0
 20
0.0
 30
0.0
  3
DatumFilled45
  1

  0
POLYLINE
  5
EF
330
EC
100
AcDbEntity
  8
0
 62
     0
100
AcDb2dPolyline
 66
     1
 10
0.0
 20
0.0
 30
0.0
 70
   128
  0
VERTEX
  5
F0
330
EF
100
AcDbEntity
  8
0
 62
     0
100
AcDbVertex
100
AcDb2dVertex
 10
0.0
 20
0.9999999999999998
 30
0.0
  0
VERTEX
  5
F1
330
EF
100
AcDbEntity
  8
0
 62
     0
100
AcDbVertex
100
AcDb2dVertex
 10
0.0
 20
-0.9999999999999998
 30
0.0
  0
VERTEX
  5
F3
330
EF
100
AcDbEntity
  8
0
 62
     0
100
AcDbVertex
100
AcDb2dVertex
 10
-0.9999999999999998
 20
0.0
 30
0.0
  0
VERTEX
  5
F4
330
EF
100
AcDbEntity
  8
0
 62
     0
100
AcDbVertex
100
AcDb2dVertex
 10
0.0
 20
0.9999999999999998
 30
0.0
  0
SEQEND
  5
F2
330
EF
100
AcDbEntity
  8
0
 62
     0
  0
SOLID
  5
F6
330
EC
100
AcDbEntity
  8
0
 62
     0
100
AcDbTrace
 10
0.0
 20
0.9999999999999998
 30
0.0
 11
0.0
 21
-0.9999999999999998
 31
0.0
 12
-0.9999999999999998
 22
0.0
 32
0.0
 13
0.0
 23
0.9999999999999998
 33
0.0
  0
ENDBLK
  5
EE
330
EC
100
AcDbEntity
  8
0
100
AcDbBlockEnd
  0
BLOCK
  5
F9
330
F8
100
AcDbEntity
  8
0
100
AcDbBlockBegin
  2
Filled-1
 70
     0
 10
0.0
 20
0.0
 30
0.0
  3
Filled-1
  1

  0
LINE
  5
FB
330
F8
100
AcDbEntity
  8
0
 62
     0
100
AcDbLine
 10
-0.9999999999999998
 20
0.0
 30
0.0
 11
0.0
 21
0.0
 31
0.0
  0
POLYLINE
  5
FC
330
F8
100
AcDbEntity
  8
0
 62
     0
100
AcDb2dPolyline
 66
     1
 10
0.0
 20
0.0
 30
0.0
 70
   128
  0
VERTEX
  5
FD
330
FC
100
AcDbEntity
  8
0
 62
     0
100
AcDbVertex
100
AcDb2dVertex
 10
-0.9999999999999998
 20
-0.0994897959183674
 30
0.0
  0
VERTEX
  5
FE
330
FC
100
AcDbEntity
  8
0
 62
     0
100
AcDbVertex
100
AcDb2dVertex
 10
0.0
 20
0.0
 30
0.0
  0
VERTEX
  5
100
330
FC
100
AcDbEntity
  8
0
 62
     0
100
AcDbVertex
100
AcDb2dVertex
 10
-0.9999999999999998
 20
0.0994897959183674
 30
0.0
  0
VERTEX
  5
101
330
FC
100
AcDbEntity
  8
0
 62
     0
100
AcDbVertex
100
AcDb2dVertex
 10
-0.9999999999999998
 20
-0.0994897959183674
 30
0.0
  0
SEQEND
  5
FF
330
FC
100
AcDbEntity
  8
0
 62
     0
  0
SOLID
  5
102
330
F8
100
AcDbEntity
  8
0
 62
     0
100
AcDbTrace
 10
-0.9999999999999998
 20
-0.0994897959183674
 30
0.0
 11
0.0
 21
0.0
 31
0.0
 12
-0.9999999999999998
 22
0.0994897959183674
 32
0.0
 13
-0.9999999999999998
 23
-0.0994897959183674
 33
0.0
  0
LINE
  5
103
330
F8
100
AcDbEntity
  8
0
 62
     0
100
AcDbLine
 10
-0.9999999999999998
 20
-0.0994897959183674
 30
0.0
 11
0.0
 21
0.0
 31
0.0
  0
LINE
  5
104
330
F8
100
AcDbEntity
  8
0
 62
     0
100
AcDbLine
 10
0.0
 20
0.0
 30
0.0
 11
-0.9999999999999998
 21
0.0994897959183674
 31
0.0
  0
LINE
  5
105
330
F8
100
AcDbEntity
  8
0
 62
     0
100
AcDbLine
 10
-0.9999999999999998
 20
0.0994897959183674
 30
0.0
 11
-0.9999999999999998
 21
-0.0994897959183674
 31
0.0
  0
ENDBLK
  5
FA
330
F8
100
AcDbEntity
  8
0
100
AcDbBlockEnd
  0
BLOCK
  5
1ED
330
1EC
100
AcDbEntity
  8
0
100
AcDbBlockBegin
  2
*D4
 70
     1
 10
0.0
 20
0.0
 30
0.0
  3
*D4
  1

  0
LINE
  5
2CC
330
1EC
100
AcDbEntity
  8
Dimension (ANSI)
100
AcDbLine
 10
18.81393547393208
 20
54.0911766836345
 30
0.0
 11
18.81393547393208
 21
61.60907217397093
 31
0.0
  0
LINE
  5
2CD
330
1EC
100
AcDbEntity
  8
Dimension (ANSI)
100
AcDbLine
 10
47.01393547393208
 20
54.0911766836345
 30
0.0
 11
47.01393547393208
 21
61.60907217397093
 31
0.0
  0
LINE
  5
2CE
330
1EC
100
AcDbEntity
  8
Dimension (ANSI)
100
AcDbLine
 10
19.41045180496897
 20
60.85149641639517
 30
0.0
 11
31.51092901349355
 21
60.85149641639517
 31
0.0
  0
LINE
  5
2CF
330
1EC
100
AcDbEntity
  8
Dimension (ANSI)
100
AcDbLine
 10
46.4174191428952
 20
60.85149641639517
 30
0.0
 11
34.31694193437062
 21
60.85149641639517
 31
0.0
  0
SOLID
  5
2D0
330
1EC
100
AcDbEntity
  8
Dimension (ANSI)
100
AcDbTrace
 10
19.41045180496897
 20
60.95091580490132
 30
0.0
 11
19.41045180496897
 21
60.75207702788902
 31
0.0
 12
18.81393547393208
 22
60.85149641639517
 32
0.0
 13
18.81393547393208
 23
60.85149641639517
 33
0.0
  0
SOLID
  5
2D1
330
1EC
100
AcDbEntity
  8
Dimension (ANSI)
100
AcDbTrace
 10
46.4174191428952
 20
60.95091580490132
 30
0.0
 11
46.4174191428952
 21
60.75207702788902
 31
0.0
 12
47.01393547393208
 22
60.85149641639517
 32
0.0
 13
47.01393547393208
 23
60.85149641639517
 33
0.0
  0
MTEXT
  5
2D2
330
1EC
100
AcDbEntity
  8
Dimension (ANSI)
100
AcDbMText
 10
31.70181424374886
 20
61.15452672394098
 30
0.0
 40
0.6060606150916128
 41
0.0
 71
     1
 72
     1
  1
\A1;28.20
  7
ROMANS
 73
     1
 44
1.0
1001
ACAD
1000
MTEXTBEGIN
1070
    73
1070
     1
1070
    44
1040
1.0
1070
    74
1070
     0
1000
MTEXTEND
  0
POINT
  5
2D3
330
1EC
100
AcDbEntity
  8
Defpoints
 62
     0
100
AcDbPoint
 10
18.81393547393208
 20
53.71238880484662
 30
0.0
  0
POINT
  5
2D4
330
1EC
100
AcDbEntity
  8
Defpoints
 62
     0
100
AcDbPoint
 10
47.01393547393208
 20
53.71238880484662
 30
0.0
  0
POINT
  5
2D5
330
1EC
100
AcDbEntity
  8
Defpoints
 62
     0
100
AcDbPoint
 10
47.01393547393208
 20
60.85149641639517
 30
0.0
  0
ENDBLK
  5
1EE
330
1EC
100
AcDbEntity
  8
0
100
AcDbBlockEnd
  0
BLOCK
  5
2D8
330
2D7
100
AcDbEntity
  8
0
100
AcDbBlockBegin
  2
*D5
 70
     1
 10
0.0
 20
0.0
 30
0.0
  3
*D5
  1

  0
LINE
  5
3B6
330
2D7
100
AcDbEntity
  8
Dimension (ANSI)
100
AcDbLine
 10
19.31393547393208
 20
54.59117668363448
 30
0.0
 11
19.31393547393208
 21
59.58938713460084
 31
0.0
  0
LINE
  5
3B7
330
2D7
100
AcDbEntity
  8
Dimension (ANSI)
100
AcDbLine
 10
46.51393547393208
 20
54.59117668363449
 30
0.0
 11
46.51393547393208
 21
59.58938713460084
 31
0.0
  0
LINE
  5
3B8
330
2D7
100
AcDbEntity
  8
Dimension (ANSI)
100
AcDbLine
 10
19.91045180496897
 20
58.83181137702508
 30
0.0
 11
30.28437776866529
 21
58.83181137702508
 31
0.0
  0
LINE
  5
3B9
330
2D7
100
AcDbEntity
  8
Dimension (ANSI)
100
AcDbLine
 10
45.9174191428952
 20
58.83181137702508
 30
0.0
 11
35.54349317919888
 21
58.83181137702508
 31
0.0
  0
SOLID
  5
3BA
330
2D7
100
AcDbEntity
  8
Dimension (ANSI)
100
AcDbTrace
 10
19.91045180496897
 20
58.93123076553123
 30
0.0
 11
19.91045180496897
 21
58.73239198851893
 31
0.0
 12
19.31393547393208
 22
58.83181137702508
 32
0.0
 13
19.31393547393208
 23
58.83181137702508
 33
0.0
  0
SOLID
  5
3BB
330
2D7
100
AcDbEntity
  8
Dimension (ANSI)
100
AcDbTrace
 10
45.9174191428952
 20
58.93123076553123
 30
0.0
 11
45.9174191428952
 21
58.73239198851893
 31
0.0
 12
46.51393547393208
 22
58.83181137702508
 32
0.0
 13
46.51393547393208
 23
58.83181137702508
 33
0.0
  0
MTEXT
  5
3BC
330
2D7
100
AcDbEntity
  8
Dimension (ANSI)
100
AcDbMText
 10
32.91393547393209
 20
58.83181137702508
 30
0.0
 40
0.6060606150916128
 41
0.0
 71
     5
 72
     1
  1
\A1;27.20{ TYP.}
  7
ROMANS
 73
     1
 44
1.0
1001
ACAD
1000
MTEXTBEGIN
1070
    73
1070
     1
1070
    44
1040
1.0
1070
    74
1070
     0
1000
MTEXTEND
  0
POINT
  5
3BD
330
2D7
100
AcDbEntity
  8
Defpoints
 62
     0
100
AcDbPoint
 10
19.31393547393208
 20
54.2123888048466
 30
0.0
  0
POINT
  5
3BE
330
2D7
100
AcDbEntity
  8
Defpoints
 62
     0
100
AcDbPoint
 10
46.51393547393208
 20
54.21238880484661
 30
0.0
  0
POINT
  5
3BF
330
2D7
100
AcDbEntity
  8
Defpoints
 62
     0
100
AcDbPoint
 10
46.51393547393208
 20
58.83181137702508
 30
0.0
  0
ENDBLK
  5
2D9
330
2D7
100
AcDbEntity
  8
0
100
AcDbBlockEnd
  0
BLOCK
  5
3C2
330
3C1
100
AcDbEntity
  8
0
100
AcDbBlockBegin
  2
*D6
 70
     1
 10
0.0
 20
0.0
 30
0.0
  3
*D6
  1

  0
LINE
  5
4B4
330
3C1
100
AcDbEntity
  8
Dimension (ANSI)
100
AcDbLine
 10
18.81393547393208
 20
54.09117668363449
 30
0.0
 11
18.81393547393208
 21
59.58938713460084
 31
0.0
  0
LINE
  5
4B5
330
3C1
100
AcDbEntity
  8
Dimension (ANSI)
100
AcDbLine
 10
19.31393547393208
 20
54.59117668363448
 30
0.0
 11
19.31393547393208
 21
59.58938713460084
 31
0.0
  0
LINE
  5
4B6
330
3C1
100
AcDbEntity
  8
Dimension (ANSI)
100
AcDbLine
 10
19.91045180496897
 20
58.83181137702508
 30
0.0
 11
20.50696813600586
 21
58.83181137702508
 31
0.0
  0
LINE
  5
4B7
330
3C1
100
AcDbEntity
  8
Dimension (ANSI)
100
AcDbLine
 10
18.2174191428952
 20
58.83181137702508
 30
0.0
 11
17.62090281185831
 21
58.83181137702508
 31
0.0
  0
SOLID
  5
4B8
330
3C1
100
AcDbEntity
  8
Dimension (ANSI)
100
AcDbTrace
 10
19.91045180496897
 20
58.93123076553123
 30
0.0
 11
19.91045180496897
 21
58.73239198851893
 31
0.0
 12
19.31393547393208
 22
58.83181137702508
 32
0.0
 13
19.31393547393208
 23
58.83181137702508
 33
0.0
  0
SOLID
  5
4B9
330
3C1
100
AcDbEntity
  8
Dimension (ANSI)
100
AcDbTrace
 10
18.2174191428952
 20
58.93123076553123
 30
0.0
 11
18.2174191428952
 21
58.73239198851893
 31
0.0
 12
18.81393547393208
 22
58.83181137702508
 32
0.0
 13
18.81393547393208
 23
58.83181137702508
 33
0.0
  0
MTEXT
  5
4BA
330
3C1
100
AcDbEntity
  8
Dimension (ANSI)
100
AcDbMText
 10
16.50649664432054
 20
58.83181137702508
 30
0.0
 40
0.6060606150916128
 41
0.0
 71
     5
 72
     1
  1
\A1;0.50{\PTYP.}
  7
ROMANS
 73
     1
 44
1.0
1001
ACAD
1000
MTEXTBEGIN
1070
    73
1070
     1
1070
    44
1040
1.0
1070
    74
1070
     0
1000
MTEXTEND
  0
POINT
  5
4BB
330
3C1
100
AcDbEntity
  8
Defpoints
 62
     0
100
AcDbPoint
 10
18.81393547393208
 20
53.71238880484661
 30
0.0
  0
POINT
  5
4BC
330
3C1
100
AcDbEntity
  8
Defpoints
 62
     0
100
AcDbPoint
 10
19.31393547393208
 20
54.2123888048466
 30
0.0
  0
POINT
  5
4BD
330
3C1
100
AcDbEntity
  8
Defpoints
 62
     0
100
AcDbPoint
 10
19.31393547393208
 20
58.83181137702508
 30
0.0
  0
ENDBLK
  5
3C3
330
3C1
100
AcDbEntity
  8
0
100
AcDbBlockEnd
  0
BLOCK
  5
4C0
330
4BF
100
AcDbEntity
  8
0
100
AcDbBlockBegin
  2
*D7
 70
     1
 10
0.0
 20
0.0
 30
0.0
  3
*D7
  1

  0
LINE
  5
59E
330
4BF
100
AcDbEntity
  8
Dimension (ANSI)
100
AcDbLine
 10
18.9351475951442
 20
54.2123888048466
 30
0.0
 11
12.259515113985
 21
54.21238880484661
 31
0.0
  0
LINE
  5
59F
330
4BF
100
AcDbEntity
  8
Dimension (ANSI)
100
AcDbLine
 10
18.93514759514421
 20
14.01238880484661
 30
0.0
 11
12.25951511398499
 21
14.01238880484661
 31
0.0
  0
LINE
  5
5A0
330
4BF
100
AcDbEntity
  8
Dimension (ANSI)
100
AcDbLine
 10
13.01709087156076
 20
53.61587247380972
 30
0.0
 11
13.01709087156075
 21
34.60630434264773
 31
0.0
  0
LINE
  5
5A1
330
4BF
100
AcDbEntity
  8
Dimension (ANSI)
100
AcDbLine
 10
13.01709087156075
 20
14.6089051358835
 30
0.0
 11
13.01709087156075
 21
33.6184732670455
 31
0.0
  0
SOLID
  5
5A2
330
4BF
100
AcDbEntity
  8
Dimension (ANSI)
100
AcDbTrace
 10
12.91767148305461
 20
53.61587247380972
 30
0.0
 11
13.11651026006691
 21
53.61587247380972
 31
0.0
 12
13.01709087156076
 22
54.21238880484661
 32
0.0
 13
13.01709087156076
 23
54.21238880484661
 33
0.0
  0
SOLID
  5
5A3
330
4BF
100
AcDbEntity
  8
Dimension (ANSI)
100
AcDbTrace
 10
12.9176714830546
 20
14.6089051358835
 30
0.0
 11
13.1165102600669
 21
14.6089051358835
 31
0.0
 12
13.01709087156075
 22
14.01238880484661
 32
0.0
 13
13.01709087156075
 23
14.01238880484661
 33
0.0
  0
MTEXT
  5
5A4
330
4BF
100
AcDbEntity
  8
Dimension (ANSI)
100
AcDbMText
 10
11.80496964137752
 20
34.41541911239241
 30
0.0
 40
0.6060606150916128
 41
0.0
 71
     1
 72
     1
  1
\A1;40.20
  7
ROMANS
 73
     1
 44
1.0
1001
ACAD
1000
MTEXTBEGIN
1070
    73
1070
     1
1070
    44
1040
1.0
1070
    74
1070
     0
1000
MTEXTEND
  0
POINT
  5
5A5
330
4BF
100
AcDbEntity
  8
Defpoints
 62
     0
100
AcDbPoint
 10
19.31393547393208
 20
54.2123888048466
 30
0.0
  0
POINT
  5
5A6
330
4BF
100
AcDbEntity
  8
Defpoints
 62
     0
100
AcDbPoint
 10
19.31393547393209
 20
14.01238880484661
 30
0.0
  0
POINT
  5
5A7
330
4BF
100
AcDbEntity
  8
Defpoints
 62
     0
100
AcDbPoint
 10
13.01709087156075
 20
14.01238880484661
 30
0.0
  0
ENDBLK
  5
4C1
330
4BF
100
AcDbEntity
  8
0
100
AcDbBlockEnd
  0
BLOCK
  5
5AA
330
5A9
100
AcDbEntity
  8
0
100
AcDbBlockBegin
  2
*D8
 70
     1
 10
0.0
 20
0.0
 30
0.0
  3
*D8
  1

  0
LINE
  5
69C
330
5A9
100
AcDbEntity
  8
Dimension (ANSI)
100
AcDbLine
 10
18.43514759514421
 20
14.51238880484661
 30
0.0
 11
16.08785577934845
 21
14.51238880484661
 31
0.0
  0
LINE
  5
69D
330
5A9
100
AcDbEntity
  8
Dimension (ANSI)
100
AcDbLine
 10
18.4351475951442
 20
53.71238880484662
 30
0.0
 11
16.08785577934846
 21
53.71238880484662
 31
0.0
  0
LINE
  5
69E
330
5A9
100
AcDbEntity
  8
Dimension (ANSI)
100
AcDbLine
 10
16.84543153692421
 20
15.10890513588349
 30
0.0
 11
16.84543153692422
 21
33.11342275446915
 31
0.0
  0
LINE
  5
69F
330
5A9
100
AcDbEntity
  8
Dimension (ANSI)
100
AcDbLine
 10
16.84543153692422
 20
53.11587247380973
 30
0.0
 11
16.84543153692422
 21
35.11135485522407
 31
0.0
  0
SOLID
  5
6A0
330
5A9
100
AcDbEntity
  8
Dimension (ANSI)
100
AcDbTrace
 10
16.74601214841806
 20
15.10890513588349
 30
0.0
 11
16.94485092543036
 21
15.10890513588349
 31
0.0
 12
16.84543153692421
 22
14.51238880484661
 32
0.0
 13
16.84543153692421
 23
14.51238880484661
 33
0.0
  0
SOLID
  5
6A1
330
5A9
100
AcDbEntity
  8
Dimension (ANSI)
100
AcDbTrace
 10
16.74601214841807
 20
53.11587247380973
 30
0.0
 11
16.94485092543037
 21
53.11587247380973
 31
0.0
 12
16.84543153692422
 22
53.71238880484662
 32
0.0
 13
16.84543153692422
 23
53.71238880484662
 33
0.0
  0
MTEXT
  5
6A2
330
5A9
100
AcDbEntity
  8
Dimension (ANSI)
100
AcDbMText
 10
16.84543153692421
 20
34.11238880484662
 30
0.0
 40
0.6060606150916128
 41
0.0
 71
     5
 72
     1
  1
\A1;39.20{\PTYP.}
  7
ROMANS
 73
     1
 44
1.0
1001
ACAD
1000
MTEXTBEGIN
1070
    73
1070
     1
1070
    44
1040
1.0
1070
    74
1070
     0
1000
MTEXTEND
  0
POINT
  5
6A3
330
5A9
100
AcDbEntity
  8
Defpoints
 62
     0
100
AcDbPoint
 10
18.81393547393209
 20
14.51238880484661
 30
0.0
  0
POINT
  5
6A4
330
5A9
100
AcDbEntity
  8
Defpoints
 62
     0
100
AcDbPoint
 10
18.81393547393208
 20
53.71238880484662
 30
0.0
  0
POINT
  5
6A5
330
5A9
100
AcDbEntity
  8
Defpoints
 62
     0
100
AcDbPoint
 10
16.84543153692422
 20
53.71238880484662
 30
0.0
  0
ENDBLK
  5
5AB
330
5A9
100
AcDbEntity
  8
0
100
AcDbBlockEnd
  0
BLOCK
  5
6A8
330
6A7
100
AcDbEntity
  8
0
100
AcDbBlockBegin
  2
*D9
 70
     1
 10
0.0
 20
0.0
 30
0.0
  3
*D9
  1

  0
LINE
  5
7B1
330
6A7
100
AcDbEntity
  8
Dimension (ANSI)
100
AcDbLine
 10
18.9351475951442
 20
54.2123888048466
 30
0.0
 11
14.37693328077381
 21
54.21238880484661
 31
0.0
  0
LINE
  5
7B2
330
6A7
100
AcDbEntity
  8
Dimension (ANSI)
100
AcDbLine
 10
18.4351475951442
 20
53.71238880484661
 30
0.0
 11
14.37693328077381
 21
53.71238880484662
 31
0.0
  0
LINE
  5
7B3
330
6A7
100
AcDbEntity
  8
Dimension (ANSI)
100
AcDbLine
 10
15.13450903834957
 20
53.11587247380973
 30
0.0
 11
15.13450903834957
 21
52.51935614277285
 31
0.0
  0
LINE
  5
7B4
330
6A7
100
AcDbEntity
  8
Dimension (ANSI)
100
AcDbLine
 10
15.13450903834957
 20
54.8089051358835
 30
0.0
 11
15.13450903834957
 21
56.54515370136135
 31
0.0
  0
LINE
  5
7B5
330
6A7
100
AcDbEntity
  8
Dimension (ANSI)
100
AcDbLine
 10
15.13450903834957
 20
56.54515370136135
 30
0.0
 11
15.73102536938645
 21
56.54515370136135
 31
0.0
  0
SOLID
  5
7B6
330
6A7
100
AcDbEntity
  8
Dimension (ANSI)
100
AcDbTrace
 10
15.03508964984342
 20
53.11587247380973
 30
0.0
 11
15.23392842685572
 21
53.11587247380973
 31
0.0
 12
15.13450903834957
 22
53.71238880484662
 32
0.0
 13
15.13450903834957
 23
53.71238880484662
 33
0.0
  0
SOLID
  5
7B7
330
6A7
100
AcDbEntity
  8
Dimension (ANSI)
100
AcDbTrace
 10
15.03508964984342
 20
54.8089051358835
 30
0.0
 11
15.23392842685572
 21
54.8089051358835
 31
0.0
 12
15.13450903834957
 22
54.21238880484661
 32
0.0
 13
15.13450903834957
 23
54.21238880484661
 33
0.0
  0
MTEXT
  5
7B8
330
6A7
100
AcDbEntity
  8
Dimension (ANSI)
100
AcDbMText
 10
16.84543153692421
 20
56.54515370136135
 30
0.0
 40
0.6060606150916128
 41
0.0
 71
     5
 72
     1
  1
\A1;0.50{\PTYP.}
  7
ROMANS
 73
     1
 44
1.0
1001
ACAD
1000
MTEXTBEGIN
1070
    73
1070
     1
1070
    44
1040
1.0
1070
    74
1070
     0
1000
MTEXTEND
  0
POINT
  5
7B9
330
6A7
100
AcDbEntity
  8
Defpoints
 62
     0
100
AcDbPoint
 10
19.31393547393208
 20
54.2123888048466
 30
0.0
  0
POINT
  5
7BA
330
6A7
100
AcDbEntity
  8
Defpoints
 62
     0
100
AcDbPoint
 10
18.81393547393208
 20
53.71238880484661
 30
0.0
  0
POINT
  5
7BB
330
6A7
100
AcDbEntity
  8
Defpoints
 62
     0
100
AcDbPoint
 10
15.13450903834957
 20
53.71238880484662
 30
0.0
  0
ENDBLK
  5
6A9
330
6A7
100
AcDbEntity
  8
0
100
AcDbBlockEnd
  0
BLOCK
  5
7BE
330
7BD
100
AcDbEntity
  8
0
100
AcDbBlockBegin
  2
*D10
 70
     1
 10
0.0
 20
0.0
 30
0.0
  3
*D10
  1

  0
LINE
  5
85E
330
7BD
100
AcDbEntity
  8
Dimension (ANSI)
100
AcDbLine
 10
23.54974999943554
 20
11.29225310696196
 30
0.0
 11
22.57407117181763
 21
11.29225310696196
 31
0.0
  0
LINE
  5
85F
330
7BD
100
AcDbEntity
  8
Dimension (ANSI)
100
AcDbLine
 10
22.57407117181763
 20
11.29225310696196
 30
0.0
 11
19.93251291199351
 21
13.93381136678536
 31
0.0
  0
MTEXT
  5
860
102
{ACAD_XDICTIONARY
360
F7C
102
}
330
7BD
100
AcDbEntity
  8
Dimension (ANSI)
100
AcDbMText
 10
23.74063522969085
 20
11.75401357560319
 30
0.0
 40
0.6060606150916128
 41
0.0
 71
     1
 72
     1
  1
\A1;\U+22050.50{ TYP. (8 PL.)}
  7
ROMANS
 73
     1
 44
1.0
1001
ACAD
1000
MTEXTBEGIN
1070
    73
1070
     1
1070
    44
1040
1.0
1070
    74
1070
     0
1000
MTEXTEND
  0
SOLID
  5
861
330
7BD
100
AcDbEntity
  8
Dimension (ANSI)
100
AcDbTrace
 10
20.00281303578762
 20
14.00411149057948
 30
0.0
 11
19.8622127881994
 21
13.86351124299123
 31
0.0
 12
19.51071216922875
 22
14.35561210955
 32
0.0
 13
19.51071216922875
 23
14.35561210955
 33
0.0
  0
LINE
  5
862
330
7BD
100
AcDbEntity
  8
Dimension (ANSI)
100
AcDbLine
 10
18.78848092847754
 20
14.53238880484661
 30
0.0
 11
19.87939001938664
 21
14.53238880484661
 31
0.0
  0
LINE
  5
863
330
7BD
100
AcDbEntity
  8
Dimension (ANSI)
100
AcDbLine
 10
19.33393547393209
 20
13.98693425939207
 30
0.0
 11
19.33393547393209
 21
15.07784335030116
 31
0.0
  0
POINT
  5
864
330
7BD
100
AcDbEntity
  8
Defpoints
 62
     0
100
AcDbPoint
 10
19.51071216922875
 20
14.35561210955
 30
0.0
  0
POINT
  5
865
330
7BD
100
AcDbEntity
  8
Defpoints
 62
     0
100
AcDbPoint
 10
19.15715877863543
 20
14.70916550014323
 30
0.0
  0
ENDBLK
  5
7BF
330
7BD
100
AcDbEntity
  8
0
100
AcDbBlockEnd
  0
BLOCK
  5
868
330
867
100
AcDbEntity
  8
0
100
AcDbBlockBegin
  2
*D11
 70
     1
 10
0.0
 20
0.0
 30
0.0
  3
*D11
  1

  0
LINE
  5
907
330
867
100
AcDbEntity
  8
Dimension (ANSI)
100
AcDbLine
 10
23.30175515620313
 20
12.29024795019423
 30
0.0
 11
22.32607632858535
 21
12.29024795019422
 31
0.0
  0
LINE
  5
908
330
867
100
AcDbEntity
  8
Dimension (ANSI)
100
AcDbLine
 10
22.32607632858535
 20
12.29024795019422
 30
0.0
 11
19.86622165125728
 21
14.75010262752159
 31
0.0
  0
MTEXT
  5
909
102
{ACAD_XDICTIONARY
360
F7E
102
}
330
867
100
AcDbEntity
  8
Dimension (ANSI)
100
AcDbMText
 10
23.49264038645844
 20
12.75200841883546
 30
0.0
 40
0.6060606150916128
 41
0.0
 71
     1
 72
     1
  1
\A1;\U+22050.31{ TYP. (4 PL.)}
  7
ROMANS
 73
     1
 44
1.0
1001
ACAD
1000
MTEXTBEGIN
1070
    73
1070
     1
1070
    44
1040
1.0
1070
    74
1070
     0
1000
MTEXTEND
  0
SOLID
  5
90A
330
867
100
AcDbEntity
  8
Dimension (ANSI)
100
AcDbTrace
 10
19.93652177505138
 20
14.82040275131572
 30
0.0
 11
19.79592152746317
 21
14.67980250372746
 31
0.0
 12
19.44442090849251
 22
15.17190337028623
 32
0.0
 13
19.44442090849251
 23
15.17190337028623
 33
0.0
  0
LINE
  5
90B
330
867
100
AcDbEntity
  8
Dimension (ANSI)
100
AcDbLine
 10
18.78848092847755
 20
15.28238880484661
 30
0.0
 11
19.87939001938665
 21
15.28238880484661
 31
0.0
  0
LINE
  5
90C
330
867
100
AcDbEntity
  8
Dimension (ANSI)
100
AcDbLine
 10
19.3339354739321
 20
14.73693425939206
 30
0.0
 11
19.3339354739321
 21
15.82784335030115
 31
0.0
  0
POINT
  5
90D
330
867
100
AcDbEntity
  8
Defpoints
 62
     0
100
AcDbPoint
 10
19.44442090849251
 20
15.17190337028623
 30
0.0
  0
POINT
  5
90E
330
867
100
AcDbEntity
  8
Defpoints
 62
     0
100
AcDbPoint
 10
19.22345003937168
 20
15.39287423940699
 30
0.0
  0
ENDBLK
  5
869
330
867
100
AcDbEntity
  8
0
100
AcDbBlockEnd
  0
BLOCK
  5
911
330
910
100
AcDbEntity
  8
0
100
AcDbBlockBegin
  2
*D12
 70
     1
 10
0.0
 20
0.0
 30
0.0
  3
*D12
  1

  0
LINE
  5
A1A
330
910
100
AcDbEntity
  8
Dimension (ANSI)
100
AcDbLine
 10
46.89272335271996
 20
14.01238880484661
 30
0.0
 11
52.78013833518869
 21
14.01238880484661
 31
0.0
  0
LINE
  5
A1B
330
910
100
AcDbEntity
  8
Dimension (ANSI)
100
AcDbLine
 10
46.87272335271996
 20
14.53238880484661
 30
0.0
 11
52.78013833518869
 21
14.53238880484661
 31
0.0
  0
LINE
  5
A1C
330
910
100
AcDbEntity
  8
Dimension (ANSI)
100
AcDbLine
 10
52.02256257761293
 20
15.12890513588349
 30
0.0
 11
52.02256257761293
 21
15.72542146692038
 31
0.0
  0
LINE
  5
A1D
330
910
100
AcDbEntity
  8
Dimension (ANSI)
100
AcDbLine
 10
52.02256257761293
 20
13.41587247380972
 30
0.0
 11
52.02256257761293
 21
12.26312827578251
 31
0.0
  0
LINE
  5
A1E
330
910
100
AcDbEntity
  8
Dimension (ANSI)
100
AcDbLine
 10
52.02256257761293
 20
12.26312827578251
 30
0.0
 11
51.42604624657604
 21
12.26312827578251
 31
0.0
  0
SOLID
  5
A1F
330
910
100
AcDbEntity
  8
Dimension (ANSI)
100
AcDbTrace
 10
51.92314318910678
 20
15.1289051358835
 30
0.0
 11
52.12198196611907
 21
15.12890513588349
 31
0.0
 12
52.02256257761293
 22
14.53238880484661
 32
0.0
 13
52.02256257761293
 23
14.53238880484661
 33
0.0
  0
SOLID
  5
A20
330
910
100
AcDbEntity
  8
Dimension (ANSI)
100
AcDbTrace
 10
51.92314318910678
 20
13.41587247380973
 30
0.0
 11
52.12198196611907
 21
13.41587247380972
 31
0.0
 12
52.02256257761293
 22
14.01238880484661
 32
0.0
 13
52.02256257761293
 23
14.01238880484661
 33
0.0
  0
MTEXT
  5
A21
330
910
100
AcDbEntity
  8
Dimension (ANSI)
100
AcDbMText
 10
50.31164007903828
 20
12.26312827578252
 30
0.0
 40
0.6060606150916128
 41
0.0
 71
     5
 72
     1
  1
\A1;0.52{ \PTYP.}
  7
ROMANS
 73
     1
 44
1.0
1001
ACAD
1000
MTEXTBEGIN
1070
    73
1070
     1
1070
    44
1040
1.0
1070
    74
1070
     0
1000
MTEXTEND
  0
POINT
  5
A22
330
910
100
AcDbEntity
  8
Defpoints
 62
     0
100
AcDbPoint
 10
46.51393547393209
 20
14.01238880484661
 30
0.0
  0
POINT
  5
A23
330
910
100
AcDbEntity
  8
Defpoints
 62
     0
100
AcDbPoint
 10
46.49393547393208
 20
14.53238880484661
 30
0.0
  0
POINT
  5
A24
330
910
100
AcDbEntity
  8
Defpoints
 62
     0
100
AcDbPoint
 10
52.02256257761293
 20
14.53238880484661
 30
0.0
  0
ENDBLK
  5
912
330
910
100
AcDbEntity
  8
0
100
AcDbBlockEnd
  0
BLOCK
  5
A27
330
A26
100
AcDbEntity
  8
0
100
AcDbBlockBegin
  2
*D13
 70
     1
 10
0.0
 20
0.0
 30
0.0
  3
*D13
  1

  0
LINE
  5
B29
330
A26
100
AcDbEntity
  8
Dimension (ANSI)
100
AcDbLine
 10
46.13514759514422
 20
14.01238880484661
 30
0.0
 11
42.47461084366179
 21
14.01238880484661
 31
0.0
  0
LINE
  5
B2A
330
A26
100
AcDbEntity
  8
Dimension (ANSI)
100
AcDbLine
 10
43.23218660123755
 20
15.8789051358835
 30
0.0
 11
43.23218660123756
 21
16.47542146692038
 31
0.0
  0
LINE
  5
B2B
330
A26
100
AcDbEntity
  8
Dimension (ANSI)
100
AcDbLine
 10
43.23218660123755
 20
13.41587247380973
 30
0.0
 11
43.23218660123755
 21
12.20751287923649
 31
0.0
  0
LINE
  5
B2C
330
A26
100
AcDbEntity
  8
Dimension (ANSI)
100
AcDbLine
 10
43.23218660123755
 20
12.20751287923649
 30
0.0
 11
42.63567027020066
 21
12.20751287923649
 31
0.0
  0
SOLID
  5
B2D
330
A26
100
AcDbEntity
  8
Dimension (ANSI)
100
AcDbTrace
 10
43.13276721273139
 20
15.8789051358835
 30
0.0
 11
43.3316059897437
 21
15.8789051358835
 31
0.0
 12
43.23218660123755
 22
15.28238880484661
 32
0.0
 13
43.23218660123755
 23
15.28238880484661
 33
0.0
  0
SOLID
  5
B2E
330
A26
100
AcDbEntity
  8
Dimension (ANSI)
100
AcDbTrace
 10
43.13276721273139
 20
13.41587247380973
 30
0.0
 11
43.3316059897437
 21
13.41587247380973
 31
0.0
 12
43.23218660123755
 22
14.01238880484661
 32
0.0
 13
43.23218660123755
 23
14.01238880484661
 33
0.0
  0
MTEXT
  5
B2F
330
A26
100
AcDbEntity
  8
Dimension (ANSI)
100
AcDbMText
 10
41.56455414659801
 20
12.2075128792365
 30
0.0
 40
0.6060606150916128
 41
0.0
 71
     5
 72
     1
  1
\A1;1.27{\PTYP.}
  7
ROMANS
 73
     1
 44
1.0
1001
ACAD
1000
MTEXTBEGIN
1070
    73
1070
     1
1070
    44
1040
1.0
1070
    74
1070
     0
1000
MTEXTEND
  0
POINT
  5
B30
330
A26
100
AcDbEntity
  8
Defpoints
 62
     0
100
AcDbPoint
 10
46.51393547393209
 20
14.01238880484661
 30
0.0
  0
POINT
  5
B31
330
A26
100
AcDbEntity
  8
Defpoints
 62
     0
100
AcDbPoint
 10
46.49393547393208
 20
15.28238880484661
 30
0.0
  0
POINT
  5
B32
330
A26
100
AcDbEntity
  8
Defpoints
 62
     0
100
AcDbPoint
 10
43.23218660123755
 20
15.28238880484661
 30
0.0
  0
ENDBLK
  5
A28
330
A26
100
AcDbEntity
  8
0
100
AcDbBlockEnd
  0
BLOCK
  5
B35
330
B34
100
AcDbEntity
  8
0
100
AcDbBlockBegin
  2
*D14
 70
     1
 10
0.0
 20
0.0
 30
0.0
  3
*D14
  1

  0
LINE
  5
C27
330
B34
100
AcDbEntity
  8
Dimension (ANSI)
100
AcDbLine
 10
46.49393547393208
 20
14.90360092605873
 30
0.0
 11
46.49393547393208
 21
11.50509426211899
 31
0.0
  0
LINE
  5
C28
330
B34
100
AcDbEntity
  8
Dimension (ANSI)
100
AcDbLine
 10
47.01393547393209
 20
14.13360092605873
 30
0.0
 11
47.01393547393209
 21
11.50509426211899
 31
0.0
  0
LINE
  5
C29
330
B34
100
AcDbEntity
  8
Dimension (ANSI)
100
AcDbLine
 10
47.61045180496898
 20
12.26267001969475
 30
0.0
 11
48.20696813600586
 21
12.26267001969475
 31
0.0
  0
LINE
  5
C2A
330
B34
100
AcDbEntity
  8
Dimension (ANSI)
100
AcDbLine
 10
45.8974191428952
 20
12.26267001969475
 30
0.0
 11
45.30090281185832
 21
12.26267001969475
 31
0.0
  0
SOLID
  5
C2B
330
B34
100
AcDbEntity
  8
Dimension (ANSI)
100
AcDbTrace
 10
47.61045180496898
 20
12.3620894082009
 30
0.0
 11
47.61045180496898
 21
12.1632506311886
 31
0.0
 12
47.01393547393209
 22
12.26267001969475
 32
0.0
 13
47.01393547393209
 23
12.26267001969475
 33
0.0
  0
SOLID
  5
C2C
330
B34
100
AcDbEntity
  8
Dimension (ANSI)
100
AcDbTrace
 10
45.8974191428952
 20
12.3620894082009
 30
0.0
 11
45.8974191428952
 21
12.1632506311886
 31
0.0
 12
46.49393547393208
 22
12.26267001969475
 32
0.0
 13
46.49393547393208
 23
12.26267001969475
 33
0.0
  0
MTEXT
  5
C2D
330
B34
100
AcDbEntity
  8
Dimension (ANSI)
100
AcDbMText
 10
44.18649664432055
 20
12.26267001969475
 30
0.0
 40
0.6060606150916128
 41
0.0
 71
     5
 72
     1
  1
\A1;0.52{\PTYP.}
  7
ROMANS
 73
     1
 44
1.0
1001
ACAD
1000
MTEXTBEGIN
1070
    73
1070
     1
1070
    44
1040
1.0
1070
    74
1070
     0
1000
MTEXTEND
  0
POINT
  5
C2E
330
B34
100
AcDbEntity
  8
Defpoints
 62
     0
100
AcDbPoint
 10
46.49393547393208
 20
15.28238880484661
 30
0.0
  0
POINT
  5
C2F
330
B34
100
AcDbEntity
  8
Defpoints
 62
     0
100
AcDbPoint
 10
47.01393547393209
 20
14.51238880484661
 30
0.0
  0
POINT
  5
C30
330
B34
100
AcDbEntity
  8
Defpoints
 62
     0
100
AcDbPoint
 10
47.01393547393209
 20
12.26267001969475
 30
0.0
  0
ENDBLK
  5
B36
330
B34
100
AcDbEntity
  8
0
100
AcDbBlockEnd
  0
BLOCK
  5
C33
330
C32
100
AcDbEntity
  8
0
100
AcDbBlockBegin
  2
*D15
 70
     1
 10
0.0
 20
0.0
 30
0.0
  3
*D15
  1

  0
LINE
  5
D2F
330
C32
100
AcDbEntity
  8
Dimension (ANSI)
100
AcDbLine
 10
64.9747994170431
 20
37.18968202063255
 30
0.0
 11
64.9747994170431
 21
53.8947510077503
 31
0.0
  0
LINE
  5
D30
330
C32
100
AcDbEntity
  8
Dimension (ANSI)
100
AcDbLine
 10
64.8810494170431
 20
37.18968202063255
 30
0.0
 11
64.8810494170431
 21
53.8947510077503
 31
0.0
  0
LINE
  5
D31
330
C32
100
AcDbEntity
  8
Dimension (ANSI)
100
AcDbLine
 10
64.28453308600622
 20
53.13717525017454
 30
0.0
 11
63.68801675496933
 21
53.13717525017454
 31
0.0
  0
LINE
  5
D32
330
C32
100
AcDbEntity
  8
Dimension (ANSI)
100
AcDbLine
 10
65.57131574807998
 20
53.13717525017454
 30
0.0
 11
66.42540530565717
 21
53.13717525017454
 31
0.0
  0
SOLID
  5
D33
330
C32
100
AcDbEntity
  8
Dimension (ANSI)
100
AcDbTrace
 10
64.28453308600622
 20
53.23659463868069
 30
0.0
 11
64.28453308600622
 21
53.03775586166839
 31
0.0
 12
64.8810494170431
 22
53.13717525017454
 32
0.0
 13
64.8810494170431
 23
53.13717525017454
 33
0.0
  0
SOLID
  5
D34
330
C32
100
AcDbEntity
  8
Dimension (ANSI)
100
AcDbTrace
 10
65.57131574807998
 20
53.23659463868069
 30
0.0
 11
65.57131574807998
 21
53.03775586166839
 31
0.0
 12
64.9747994170431
 22
53.13717525017454
 32
0.0
 13
64.9747994170431
 23
53.13717525017454
 33
0.0
  0
MTEXT
  5
D35
330
C32
100
AcDbEntity
  8
Dimension (ANSI)
100
AcDbMText
 10
68.2035921468667
 20
53.13717525017454
 30
0.0
 40
0.6060606150916128
 41
0.0
 71
     5
 72
     1
  1
\A1;(0.094){\P12 GA.\PGALV.}
  7
ROMANS
 73
     1
 44
1.0
1001
ACAD
1000
MTEXTBEGIN
1070
    73
1070
     1
1070
    44
1040
1.0
1070
    74
1070
     0
1000
MTEXTEND
  0
POINT
  5
D36
330
C32
100
AcDbEntity
  8
Defpoints
 62
     0
100
AcDbPoint
 10
64.9747994170431
 20
36.81089414184467
 30
0.0
  0
POINT
  5
D37
330
C32
100
AcDbEntity
  8
Defpoints
 62
     0
100
AcDbPoint
 10
64.8810494170431
 20
36.81089414184467
 30
0.0
  0
POINT
  5
D38
330
C32
100
AcDbEntity
  8
Defpoints
 62
     0
100
AcDbPoint
 10
64.8810494170431
 20
53.13717525017454
 30
0.0
  0
ENDBLK
  5
C34
330
C32
100
AcDbEntity
  8
0
100
AcDbBlockEnd
  0
BLOCK
  5
D4B
330
D4A
100
AcDbEntity
  8
0
100
AcDbBlockBegin
  2
*D16
 70
     1
 10
0.0
 20
0.0
 30
0.0
  3
*D16
  1

  0
LINE
  5
E25
330
D4A
100
AcDbEntity
  8
Dimension (ANSI)
100
AcDbLine
 10
64.8810494170431
 20
53.33360092605874
 30
0.0
 11
64.8810494170431
 21
48.58720674805827
 31
0.0
  0
LINE
  5
E26
330
D4A
100
AcDbEntity
  8
Dimension (ANSI)
100
AcDbLine
 10
64.28453308600622
 20
49.34478250563402
 30
0.0
 11
63.68801675496933
 21
49.34478250563402
 31
0.0
  0
LINE
  5
E27
330
D4A
100
AcDbEntity
  8
Dimension (ANSI)
100
AcDbLine
 10
66.25156574807999
 20
49.34478250563402
 30
0.0
 11
66.84808207911688
 21
49.34478250563402
 31
0.0
  0
SOLID
  5
E28
330
D4A
100
AcDbEntity
  8
Dimension (ANSI)
100
AcDbTrace
 10
64.28453308600622
 20
49.44420189414017
 30
0.0
 11
64.28453308600622
 21
49.24536311712787
 31
0.0
 12
64.8810494170431
 22
49.34478250563402
 32
0.0
 13
64.8810494170431
 23
49.34478250563402
 33
0.0
  0
SOLID
  5
E29
330
D4A
100
AcDbEntity
  8
Dimension (ANSI)
100
AcDbTrace
 10
66.25156574807999
 20
49.44420189414017
 30
0.0
 11
66.25156574807999
 21
49.24536311712787
 31
0.0
 12
65.6550494170431
 22
49.34478250563402
 32
0.0
 13
65.6550494170431
 23
49.34478250563402
 33
0.0
  0
MTEXT
  5
E2A
330
D4A
100
AcDbEntity
  8
Dimension (ANSI)
100
AcDbMText
 10
67.03896730937218
 20
49.64781281317982
 30
0.0
 40
0.6060606150916128
 41
0.0
 71
     1
 72
     1
  1
\A1;0.77
  7
ROMANS
 73
     1
 44
1.0
1001
ACAD
1000
MTEXTBEGIN
1070
    73
1070
     1
1070
    44
1040
1.0
1070
    74
1070
     0
1000
MTEXTEND
  0
POINT
  5
E2B
330
D4A
100
AcDbEntity
  8
Defpoints
 62
     0
100
AcDbPoint
 10
64.8810494170431
 20
53.71238880484662
 30
0.0
  0
POINT
  5
E2C
330
D4A
100
AcDbEntity
  8
Defpoints
 62
     0
100
AcDbPoint
 10
65.6550494170431
 20
52.49438880484661
 30
0.0
  0
POINT
  5
E2D
330
D4A
100
AcDbEntity
  8
Defpoints
 62
     0
100
AcDbPoint
 10
65.6550494170431
 20
49.34478250563402
 30
0.0
  0
ENDBLK
  5
D4C
330
D4A
100
AcDbEntity
  8
0
100
AcDbBlockEnd
  0
BLOCK
  5
E33
330
E32
100
AcDbEntity
  8
0
100
AcDbBlockBegin
  2
*D17
 70
     1
 10
0.0
 20
0.0
 30
0.0
  3
*D17
  1

  0
LINE
  5
F25
330
E32
100
AcDbEntity
  8
Dimension (ANSI)
100
AcDbLine
 10
46.87272335271996
 20
34.1123888048466
 30
0.0
 11
51.06921583661404
 21
34.1123888048466
 31
0.0
  0
LINE
  5
F26
330
E32
100
AcDbEntity
  8
Dimension (ANSI)
100
AcDbLine
 10
46.87272335271996
 20
14.53238880484661
 30
0.0
 11
51.06921583661403
 21
14.53238880484661
 31
0.0
  0
LINE
  5
F27
330
E32
100
AcDbEntity
  8
Dimension (ANSI)
100
AcDbLine
 10
50.31164007903829
 20
33.51587247380971
 30
0.0
 11
50.31164007903829
 21
25.32135485522406
 31
0.0
  0
LINE
  5
F28
330
E32
100
AcDbEntity
  8
Dimension (ANSI)
100
AcDbLine
 10
50.31164007903828
 20
15.1289051358835
 30
0.0
 11
50.31164007903829
 21
23.32342275446914
 31
0.0
  0
SOLID
  5
F29
330
E32
100
AcDbEntity
  8
Dimension (ANSI)
100
AcDbTrace
 10
50.21222069053213
 20
33.51587247380971
 30
0.0
 11
50.41105946754443
 21
33.51587247380971
 31
0.0
 12
50.31164007903829
 22
34.1123888048466
 32
0.0
 13
50.31164007903829
 23
34.1123888048466
 33
0.0
  0
SOLID
  5
F2A
330
E32
100
AcDbEntity
  8
Dimension (ANSI)
100
AcDbTrace
 10
50.21222069053212
 20
15.1289051358835
 30
0.0
 11
50.41105946754442
 21
15.1289051358835
 31
0.0
 12
50.31164007903828
 22
14.53238880484661
 32
0.0
 13
50.31164007903828
 23
14.53238880484661
 33
0.0
  0
MTEXT
  5
F2B
330
E32
100
AcDbEntity
  8
Dimension (ANSI)
100
AcDbMText
 10
50.31164007903828
 20
24.32238880484661
 30
0.0
 40
0.6060606150916128
 41
0.0
 71
     5
 72
     1
  1
\A1;19.58{\PTYP.}
  7
ROMANS
 73
     1
 44
1.0
1001
ACAD
1000
MTEXTBEGIN
1070
    73
1070
     1
1070
    44
1040
1.0
1070
    74
1070
     0
1000
MTEXTEND
  0
POINT
  5
F2C
330
E32
100
AcDbEntity
  8
Defpoints
 62
     0
100
AcDbPoint
 10
46.49393547393208
 20
34.1123888048466
 30
0.0
  0
POINT
  5
F2D
330
E32
100
AcDbEntity
  8
Defpoints
 62
     0
100
AcDbPoint
 10
46.49393547393208
 20
14.53238880484661
 30
0.0
  0
POINT
  5
F2E
330
E32
100
AcDbEntity
  8
Defpoints
 62
     0
100
AcDbPoint
 10
50.31164007903828
 20
14.53238880484661
 30
0.0
  0
ENDBLK
  5
E34
330
E32
100
AcDbEntity
  8
0
100
AcDbBlockEnd
  0
ENDSEC
  0
SECTION
  2
ENTITIES
  0
CIRCLE
  5
107
330
6C
100
AcDbEntity
  8
Visible (ANSI)
100
AcDbCircle
 10
46.49393547393208
 20
34.1123888048466
 30
0.0
 40
0.2500000000000005
  0
CIRCLE
  5
108
330
6C
100
AcDbEntity
  8
Visible (ANSI)
100
AcDbCircle
 10
19.33393547393209
 20
34.11238880484661
 30
0.0
 40
0.2500000000000005
  0
LINE
  5
109
330
6C
100
AcDbEntity
  8
Visible (ANSI)
100
AcDbLine
 10
20.53193547393209
 20
14.01238880484661
 30
0.0
 11
45.29593547393209
 21
14.01238880484661
 31
0.0
  0
LINE
  5
10A
330
6C
100
AcDbEntity
  8
Visible (ANSI)
100
AcDbLine
 10
20.53193547393209
 20
14.01238880484661
 30
0.0
 11
20.53193547393209
 21
14.12173880484661
 31
0.0
  0
LINE
  5
10B
330
6C
100
AcDbEntity
  8
Visible (ANSI)
100
AcDbLine
 10
45.29593547393209
 20
14.01238880484661
 30
0.0
 11
45.29593547393209
 21
14.12173880484661
 31
0.0
  0
LINE
  5
10C
330
6C
100
AcDbEntity
  8
Visible (ANSI)
100
AcDbLine
 10
45.29613547393208
 20
14.12193880484661
 30
0.0
 11
45.29613547393208
 21
14.01238880484661
 31
0.0
  0
LINE
  5
10D
330
6C
100
AcDbEntity
  8
Visible (ANSI)
100
AcDbLine
 10
45.29593547393209
 20
14.12193880484661
 30
0.0
 11
45.29613547393208
 21
14.12193880484661
 31
0.0
  0
LINE
  5
10E
330
6C
100
AcDbEntity
  8
Visible (ANSI)
100
AcDbLine
 10
20.53173547393209
 20
14.12193880484661
 30
0.0
 11
20.53193547393209
 21
14.12193880484661
 31
0.0
  0
LINE
  5
10F
330
6C
100
AcDbEntity
  8
Visible (ANSI)
100
AcDbLine
 10
20.53173547393209
 20
14.01238880484661
 30
0.0
 11
20.53173547393209
 21
14.12193880484661
 31
0.0
  0
LINE
  5
110
330
6C
100
AcDbEntity
  8
Hidden (ANSI)
 48
1.098226070404052
100
AcDbLine
 10
45.29593547393209
 20
14.10613880484661
 30
0.0
 11
20.53193547393209
 21
14.10613880484661
 31
0.0
  0
LINE
  5
111
330
6C
100
AcDbEntity
  8
Visible (ANSI)
100
AcDbLine
 10
20.53193547393209
 20
14.12193880484661
 30
0.0
 11
20.53193547393209
 21
14.12173880484661
 31
0.0
  0
LINE
  5
112
330
6C
100
AcDbEntity
  8
Visible (ANSI)
100
AcDbLine
 10
45.29593547393209
 20
14.12173880484661
 30
0.0
 11
45.29593547393209
 21
14.12193880484661
 31
0.0
  0
LINE
  5
113
330
6C
100
AcDbEntity
  8
Visible (ANSI)
100
AcDbLine
 10
20.53173547393209
 20
14.01238880484661
 30
0.0
 11
19.31393547393209
 21
14.01238880484661
 31
0.0
  0
LINE
  5
114
330
6C
100
AcDbEntity
  8
Visible (ANSI)
100
AcDbLine
 10
46.51393547393209
 20
14.01238880484661
 30
0.0
 11
45.29613547393208
 21
14.01238880484661
 31
0.0
  0
LINE
  5
115
330
6C
100
AcDbEntity
  8
Visible (ANSI)
100
AcDbLine
 10
47.01393547393209
 20
15.73018880484662
 30
0.0
 11
47.01393547393209
 21
14.51238880484661
 31
0.0
  0
LINE
  5
116
330
6C
100
AcDbEntity
  8
Visible (ANSI)
100
AcDbLine
 10
47.01393547393208
 20
53.71238880484662
 30
0.0
 11
47.01393547393208
 21
52.49458880484661
 31
0.0
  0
LINE
  5
117
330
6C
100
AcDbEntity
  8
Visible (ANSI)
100
AcDbLine
 10
45.29613547393208
 20
54.21238880484661
 30
0.0
 11
46.51393547393208
 21
54.21238880484661
 31
0.0
  0
LINE
  5
118
330
6C
100
AcDbEntity
  8
Visible (ANSI)
100
AcDbLine
 10
19.31393547393208
 20
54.21238880484661
 30
0.0
 11
20.53173547393208
 21
54.21238880484661
 31
0.0
  0
LINE
  5
119
330
6C
100
AcDbEntity
  8
Visible (ANSI)
100
AcDbLine
 10
18.81393547393208
 20
52.49458880484661
 30
0.0
 11
18.81393547393208
 21
53.71238880484661
 31
0.0
  0
LINE
  5
11A
330
6C
100
AcDbEntity
  8
Visible (ANSI)
100
AcDbLine
 10
18.81393547393209
 20
14.51238880484661
 30
0.0
 11
18.81393547393209
 21
15.73018880484661
 31
0.0
  0
LINE
  5
11B
330
6C
100
AcDbEntity
  8
Visible (ANSI)
100
AcDbLine
 10
47.01393547393209
 20
14.51238880484661
 30
0.0
 11
46.51393547393209
 21
14.01238880484661
 31
0.0
  0
LINE
  5
11C
330
6C
100
AcDbEntity
  8
Visible (ANSI)
100
AcDbLine
 10
47.01393547393209
 20
15.73018880484662
 30
0.0
 11
46.90438547393209
 21
15.73018880484662
 31
0.0
  0
LINE
  5
11D
330
6C
100
AcDbEntity
  8
Visible (ANSI)
100
AcDbLine
 10
46.90438547393209
 20
15.73018880484662
 30
0.0
 11
46.90438547393209
 21
15.73038880484662
 31
0.0
  0
LINE
  5
11E
330
6C
100
AcDbEntity
  8
Visible (ANSI)
100
AcDbLine
 10
46.90438547393209
 20
52.49438880484661
 30
0.0
 11
46.90438547393209
 21
52.49458880484661
 31
0.0
  0
LINE
  5
11F
330
6C
100
AcDbEntity
  8
Visible (ANSI)
100
AcDbLine
 10
46.90438547393209
 20
52.49458880484661
 30
0.0
 11
47.01393547393208
 21
52.49458880484661
 31
0.0
  0
LINE
  5
120
330
6C
100
AcDbEntity
  8
Visible (ANSI)
100
AcDbLine
 10
47.01393547393208
 20
15.73038880484662
 30
0.0
 11
47.01393547393208
 21
52.49438880484661
 31
0.0
  0
LINE
  5
121
330
6C
100
AcDbEntity
  8
Visible (ANSI)
100
AcDbLine
 10
47.01393547393208
 20
15.73038880484662
 30
0.0
 11
46.90458547393209
 21
15.73038880484662
 31
0.0
  0
LINE
  5
122
330
6C
100
AcDbEntity
  8
Visible (ANSI)
100
AcDbLine
 10
47.01393547393208
 20
52.49438880484661
 30
0.0
 11
46.90458547393208
 21
52.49438880484661
 31
0.0
  0
LINE
  5
123
330
6C
100
AcDbEntity
  8
Hidden (ANSI)
 48
1.086932182312011
100
AcDbLine
 10
46.92018547393208
 20
52.49438880484661
 30
0.0
 11
46.92018547393208
 21
15.73038880484662
 31
0.0
  0
LINE
  5
124
330
6C
100
AcDbEntity
  8
Visible (ANSI)
100
AcDbLine
 10
46.90438547393209
 20
15.73038880484662
 30
0.0
 11
46.90458547393209
 21
15.73038880484662
 31
0.0
  0
LINE
  5
125
330
6C
100
AcDbEntity
  8
Visible (ANSI)
100
AcDbLine
 10
46.90458547393208
 20
52.49438880484661
 30
0.0
 11
46.90438547393209
 21
52.49438880484661
 31
0.0
  0
LINE
  5
126
330
6C
100
AcDbEntity
  8
Visible (ANSI)
100
AcDbLine
 10
46.51393547393208
 20
54.21238880484661
 30
0.0
 11
47.01393547393208
 21
53.71238880484662
 31
0.0
  0
LINE
  5
127
330
6C
100
AcDbEntity
  8
Visible (ANSI)
100
AcDbLine
 10
45.29613547393208
 20
54.21238880484661
 30
0.0
 11
45.29613547393208
 21
54.10283880484662
 31
0.0
  0
LINE
  5
128
330
6C
100
AcDbEntity
  8
Visible (ANSI)
100
AcDbLine
 10
45.29613547393208
 20
54.10283880484662
 30
0.0
 11
45.29593547393208
 21
54.10283880484662
 31
0.0
  0
LINE
  5
129
330
6C
100
AcDbEntity
  8
Visible (ANSI)
100
AcDbLine
 10
20.53193547393208
 20
54.10283880484661
 30
0.0
 11
20.53173547393208
 21
54.10283880484661
 31
0.0
  0
LINE
  5
12A
330
6C
100
AcDbEntity
  8
Visible (ANSI)
100
AcDbLine
 10
20.53173547393208
 20
54.10283880484661
 30
0.0
 11
20.53173547393208
 21
54.21238880484661
 31
0.0
  0
LINE
  5
12B
330
6C
100
AcDbEntity
  8
Visible (ANSI)
100
AcDbLine
 10
45.29593547393208
 20
54.2123888048466
 30
0.0
 11
20.53193547393208
 21
54.2123888048466
 31
0.0
  0
LINE
  5
12C
330
6C
100
AcDbEntity
  8
Visible (ANSI)
100
AcDbLine
 10
45.29593547393208
 20
54.2123888048466
 30
0.0
 11
45.29593547393208
 21
54.10303880484661
 31
0.0
  0
LINE
  5
12D
330
6C
100
AcDbEntity
  8
Visible (ANSI)
100
AcDbLine
 10
20.53193547393208
 20
54.2123888048466
 30
0.0
 11
20.53193547393208
 21
54.10303880484661
 31
0.0
  0
LINE
  5
12E
330
6C
100
AcDbEntity
  8
Hidden (ANSI)
 48
1.098226070404052
100
AcDbLine
 10
20.53193547393208
 20
54.1186388048466
 30
0.0
 11
45.29593547393208
 21
54.1186388048466
 31
0.0
  0
LINE
  5
12F
330
6C
100
AcDbEntity
  8
Visible (ANSI)
100
AcDbLine
 10
45.29593547393208
 20
54.10283880484662
 30
0.0
 11
45.29593547393208
 21
54.10303880484662
 31
0.0
  0
LINE
  5
130
330
6C
100
AcDbEntity
  8
Visible (ANSI)
100
AcDbLine
 10
20.53193547393208
 20
54.10303880484661
 30
0.0
 11
20.53193547393208
 21
54.10283880484661
 31
0.0
  0
LINE
  5
131
330
6C
100
AcDbEntity
  8
Visible (ANSI)
100
AcDbLine
 10
18.81393547393208
 20
53.71238880484661
 30
0.0
 11
19.31393547393208
 21
54.21238880484661
 31
0.0
  0
LINE
  5
132
330
6C
100
AcDbEntity
  8
Visible (ANSI)
100
AcDbLine
 10
18.81393547393208
 20
52.49458880484661
 30
0.0
 11
18.92348547393207
 21
52.49458880484661
 31
0.0
  0
LINE
  5
133
330
6C
100
AcDbEntity
  8
Visible (ANSI)
100
AcDbLine
 10
18.92348547393207
 20
52.49458880484661
 30
0.0
 11
18.92348547393207
 21
52.49438880484661
 31
0.0
  0
LINE
  5
134
330
6C
100
AcDbEntity
  8
Visible (ANSI)
100
AcDbLine
 10
18.92348547393208
 20
15.73038880484661
 30
0.0
 11
18.92348547393208
 21
15.73018880484661
 31
0.0
  0
LINE
  5
135
330
6C
100
AcDbEntity
  8
Visible (ANSI)
100
AcDbLine
 10
18.92348547393208
 20
15.73018880484661
 30
0.0
 11
18.81393547393209
 21
15.73018880484661
 31
0.0
  0
LINE
  5
136
330
6C
100
AcDbEntity
  8
Visible (ANSI)
100
AcDbLine
 10
18.81393547393209
 20
52.49438880484661
 30
0.0
 11
18.8139354739321
 21
15.73038880484662
 31
0.0
  0
LINE
  5
137
330
6C
100
AcDbEntity
  8
Visible (ANSI)
100
AcDbLine
 10
18.81393547393209
 20
52.49438880484661
 30
0.0
 11
18.92328547393207
 21
52.49438880484661
 31
0.0
  0
LINE
  5
138
330
6C
100
AcDbEntity
  8
Visible (ANSI)
100
AcDbLine
 10
18.8139354739321
 20
15.73038880484662
 30
0.0
 11
18.92328547393208
 21
15.73038880484661
 31
0.0
  0
LINE
  5
139
330
6C
100
AcDbEntity
  8
Hidden (ANSI)
 48
1.086932182312011
100
AcDbLine
 10
18.9076854739321
 20
15.73038880484662
 30
0.0
 11
18.90768547393209
 21
52.49438880484661
 31
0.0
  0
LINE
  5
13A
330
6C
100
AcDbEntity
  8
Visible (ANSI)
100
AcDbLine
 10
18.92348547393207
 20
52.49438880484661
 30
0.0
 11
18.92328547393207
 21
52.49438880484661
 31
0.0
  0
LINE
  5
13B
330
6C
100
AcDbEntity
  8
Visible (ANSI)
100
AcDbLine
 10
18.92328547393208
 20
15.73038880484661
 30
0.0
 11
18.92348547393208
 21
15.73038880484661
 31
0.0
  0
LINE
  5
13C
330
6C
100
AcDbEntity
  8
Visible (ANSI)
100
AcDbLine
 10
19.31393547393209
 20
14.01238880484661
 30
0.0
 11
18.81393547393209
 21
14.51238880484661
 31
0.0
  0
CIRCLE
  5
13D
330
6C
100
AcDbEntity
  8
Visible (ANSI)
100
AcDbCircle
 10
46.49393547393208
 20
53.69238880484662
 30
0.0
 40
0.25
  0
CIRCLE
  5
13E
330
6C
100
AcDbEntity
  8
Visible (ANSI)
100
AcDbCircle
 10
19.33393547393209
 20
53.6923888048466
 30
0.0
 40
0.25
  0
CIRCLE
  5
13F
330
6C
100
AcDbEntity
  8
Visible (ANSI)
100
AcDbCircle
 10
19.33393547393209
 20
14.53238880484661
 30
0.0
 40
0.25
  0
CIRCLE
  5
140
330
6C
100
AcDbEntity
  8
Visible (ANSI)
100
AcDbCircle
 10
46.49393547393208
 20
14.53238880484661
 30
0.0
 40
0.25
  0
CIRCLE
  5
141
330
6C
100
AcDbEntity
  8
Visible (ANSI)
100
AcDbCircle
 10
46.49393547393208
 20
52.94238880484662
 30
0.0
 40
0.15625
  0
CIRCLE
  5
142
330
6C
100
AcDbEntity
  8
Visible (ANSI)
100
AcDbCircle
 10
19.33393547393209
 20
52.9423888048466
 30
0.0
 40
0.15625
  0
CIRCLE
  5
143
330
6C
100
AcDbEntity
  8
Visible (ANSI)
100
AcDbCircle
 10
19.33393547393209
 20
15.28238880484661
 30
0.0
 40
0.15625
  0
CIRCLE
  5
144
330
6C
100
AcDbEntity
  8
Visible (ANSI)
100
AcDbCircle
 10
46.49393547393208
 20
15.28238880484661
 30
0.0
 40
0.15625
  0
MTEXT
  5
146
330
6C
100
AcDbEntity
  8
Symbol (ANSI)
100
AcDbMText
 10
29.21018943106127
 20
8.327317891931503
 30
0.0
 40
0.7272727362610678
 41
0.0
 71
     7
 72
     1
  1
FRONT VIEW
  7
Text Style168
 73
     1
 44
1.0
1001
ACAD
1000
MTEXTBEGIN
1070
    73
1070
     1
1070
    44
1040
1.0
1070
    74
1070
     0
1000
MTEXTEND
  0
LINE
  5
148
330
6C
100
AcDbEntity
  8
Symbol (ANSI)
370
    30
100
AcDbLine
 10
29.13746197125286
 20
8.179004938144291
 30
0.0
 11
34.98452260328727
 21
8.179004938144291
 31
0.0
  0
LINE
  5
149
330
6C
100
AcDbEntity
  8
Visible (ANSI)
100
AcDbLine
 10
65.65504941704259
 20
14.01238880484661
 30
0.0
 11
64.9903994170426
 21
14.01238880484661
 31
0.0
  0
LINE
  5
14A
330
6C
100
AcDbEntity
  8
Visible (ANSI)
100
AcDbLine
 10
65.65504941704259
 20
14.10613880484661
 30
0.0
 11
65.65504941704259
 21
14.01238880484661
 31
0.0
  0
LINE
  5
14B
330
6C
100
AcDbEntity
  8
Visible (ANSI)
100
AcDbLine
 10
64.9903994170426
 20
14.10613880484661
 30
0.0
 11
65.65504941704259
 21
14.10613880484661
 31
0.0
  0
ARC
  5
14C
330
6C
100
AcDbEntity
  8
Visible (ANSI)
100
AcDbCircle
 10
64.9903994170426
 20
14.12173880484661
 30
0.0
 40
0.0156
100
AcDbArc
 50
180.0
 51
270.0
  0
ARC
  5
14D
330
6C
100
AcDbEntity
  8
Visible (ANSI)
100
AcDbCircle
 10
64.9903994170426
 20
14.12173880484661
 30
0.0
 40
0.1093499999999973
100
AcDbArc
 50
261.7981333521992
 51
270.0
  0
ARC
  5
14E
330
6C
100
AcDbEntity
  8
Hidden (ANSI)
 48
0.0489624589681625
100
AcDbCircle
 10
64.9903994170426
 20
14.12173880484661
 30
0.0
 40
0.10935
100
AcDbArc
 50
180.0
 51
261.7981333521993
  0
LINE
  5
14F
330
6C
100
AcDbEntity
  8
Hidden (ANSI)
 48
0.0293632764369249
100
AcDbLine
 10
64.88104941704261
 20
14.12193880484661
 30
0.0
 11
64.9747994170426
 21
14.12193880484661
 31
0.0
  0
LINE
  5
150
330
6C
100
AcDbEntity
  8
Visible (ANSI)
100
AcDbLine
 10
64.9747994170431
 20
53.71238880484662
 30
0.0
 11
64.97479941704296
 21
54.21238880484661
 31
0.0
  0
LINE
  5
151
330
6C
100
AcDbEntity
  8
Visible (ANSI)
100
AcDbLine
 10
64.88104941704296
 20
54.21238880484661
 30
0.0
 11
64.8810494170431
 21
53.71238880484662
 31
0.0
  0
LINE
  5
152
330
6C
100
AcDbEntity
  8
Visible (ANSI)
100
AcDbLine
 10
64.97479941704296
 20
54.21238880484661
 30
0.0
 11
64.88104941704296
 21
54.21238880484661
 31
0.0
  0
LINE
  5
153
330
6C
100
AcDbEntity
  8
Visible (ANSI)
100
AcDbLine
 10
64.8810494170431
 20
53.71238880484662
 30
0.0
 11
64.9747994170431
 21
53.71238880484662
 31
0.0
  0
LINE
  5
154
330
6C
100
AcDbEntity
  8
Visible (ANSI)
100
AcDbLine
 10
64.9747994170431
 20
52.49458880484661
 30
0.0
 11
64.9747994170431
 21
53.71238880484662
 31
0.0
  0
LINE
  5
155
330
6C
100
AcDbEntity
  8
Visible (ANSI)
100
AcDbLine
 10
64.9747994170431
 20
14.51238880484661
 30
0.0
 11
64.9747994170431
 21
15.73018880484662
 31
0.0
  0
LINE
  5
156
330
6C
100
AcDbEntity
  8
Visible (ANSI)
100
AcDbLine
 10
64.8810494170431
 20
15.73018880484662
 30
0.0
 11
64.8810494170431
 21
14.51238880484661
 31
0.0
  0
LINE
  5
157
330
6C
100
AcDbEntity
  8
Visible (ANSI)
100
AcDbLine
 10
64.8810494170431
 20
53.71238880484662
 30
0.0
 11
64.8810494170431
 21
52.49458880484661
 31
0.0
  0
LINE
  5
158
330
6C
100
AcDbEntity
  8
Visible (ANSI)
100
AcDbLine
 10
64.97479941704307
 20
52.49458880484661
 30
0.0
 11
64.97479941704307
 21
52.49438880484661
 31
0.0
  0
LINE
  5
159
330
6C
100
AcDbEntity
  8
Visible (ANSI)
100
AcDbLine
 10
64.97479941704307
 20
15.73038880484662
 30
0.0
 11
64.97479941704307
 21
15.73018880484662
 31
0.0
  0
LINE
  5
15A
330
6C
100
AcDbEntity
  8
Visible (ANSI)
100
AcDbLine
 10
64.88104941704307
 20
15.73018880484662
 30
0.0
 11
64.88104941704307
 21
15.73038880484662
 31
0.0
  0
LINE
  5
15B
330
6C
100
AcDbEntity
  8
Visible (ANSI)
100
AcDbLine
 10
64.88104941704307
 20
15.73038880484662
 30
0.0
 11
64.88104941704307
 21
52.49438880484661
 31
0.0
  0
LINE
  5
15C
330
6C
100
AcDbEntity
  8
Visible (ANSI)
100
AcDbLine
 10
64.88104941704307
 20
52.49438880484661
 30
0.0
 11
64.88104941704307
 21
52.49458880484661
 31
0.0
  0
LINE
  5
15D
330
6C
100
AcDbEntity
  8
Visible (ANSI)
100
AcDbLine
 10
64.99039941704314
 20
15.73038880484662
 30
0.0
 11
64.88104941704307
 21
15.73038880484662
 31
0.0
  0
LINE
  5
15E
330
6C
100
AcDbEntity
  8
Visible (ANSI)
100
AcDbLine
 10
64.99039941704314
 20
52.49438880484661
 30
0.0
 11
64.88104941704307
 21
52.49438880484661
 31
0.0
  0
LINE
  5
15F
330
6C
100
AcDbEntity
  8
Visible (ANSI)
100
AcDbLine
 10
64.8810494170431
 20
52.49458880484661
 30
0.0
 11
64.9747994170431
 21
52.49458880484661
 31
0.0
  0
LINE
  5
160
330
6C
100
AcDbEntity
  8
Visible (ANSI)
100
AcDbLine
 10
64.9747994170431
 20
15.73018880484662
 30
0.0
 11
64.8810494170431
 21
15.73018880484662
 31
0.0
  0
LINE
  5
161
330
6C
100
AcDbEntity
  8
Hidden (ANSI)
 48
1.086932182312011
100
AcDbLine
 10
64.97479941704307
 20
52.49438880484661
 30
0.0
 11
64.97479941704307
 21
15.73038880484662
 31
0.0
  0
LINE
  5
162
330
6C
100
AcDbEntity
  8
Visible (ANSI)
100
AcDbLine
 10
64.97479941704296
 20
14.01238880484661
 30
0.0
 11
64.9747994170431
 21
14.51238880484661
 31
0.0
  0
LINE
  5
163
330
6C
100
AcDbEntity
  8
Visible (ANSI)
100
AcDbLine
 10
64.8810494170431
 20
14.51238880484661
 30
0.0
 11
64.88104941704296
 21
14.01238880484661
 31
0.0
  0
LINE
  5
164
330
6C
100
AcDbEntity
  8
Visible (ANSI)
100
AcDbLine
 10
64.88104941704296
 20
14.01238880484661
 30
0.0
 11
64.97479941704296
 21
14.01238880484661
 31
0.0
  0
LINE
  5
165
330
6C
100
AcDbEntity
  8
Visible (ANSI)
100
AcDbLine
 10
64.9747994170431
 20
14.51238880484661
 30
0.0
 11
64.8810494170431
 21
14.51238880484661
 31
0.0
  0
LINE
  5
166
330
6C
100
AcDbEntity
  8
Visible (ANSI)
100
AcDbLine
 10
64.99039941704253
 20
54.2123888048466
 30
0.0
 11
65.65504941704259
 21
54.21238880484661
 31
0.0
  0
LINE
  5
167
330
6C
100
AcDbEntity
  8
Visible (ANSI)
100
AcDbLine
 10
65.65504941704259
 20
54.11863880484661
 30
0.0
 11
64.99039941704253
 21
54.1186388048466
 31
0.0
  0
LINE
  5
168
330
6C
100
AcDbEntity
  8
Visible (ANSI)
100
AcDbLine
 10
65.65504941704259
 20
54.21238880484661
 30
0.0
 11
65.65504941704259
 21
54.11863880484661
 31
0.0
  0
ARC
  5
169
330
6C
100
AcDbEntity
  8
Hidden (ANSI)
 48
0.0489624589681625
100
AcDbCircle
 10
64.9903994170426
 20
54.10303880484661
 30
0.0
 40
0.1093499999999962
100
AcDbArc
 50
98.20186664780118
 51
180.0
  0
LINE
  5
16A
330
6C
100
AcDbEntity
  8
Hidden (ANSI)
 48
0.0293632764369249
100
AcDbLine
 10
64.88104941704261
 20
54.10283880484662
 30
0.0
 11
64.9747994170426
 21
54.10283880484662
 31
0.0
  0
ARC
  5
16B
330
6C
100
AcDbEntity
  8
Visible (ANSI)
100
AcDbCircle
 10
64.99039941704262
 20
54.10303880484609
 30
0.0
 40
0.1093500000005147
100
AcDbArc
 50
90.00000000004439
 51
98.20186664777509
  0
ARC
  5
16C
330
6C
100
AcDbEntity
  8
Visible (ANSI)
100
AcDbCircle
 10
64.9903994170426
 20
54.10303880484661
 30
0.0
 40
0.0156000000000014
100
AcDbArc
 50
90.00000000018678
 51
180.0
  0
LINE
  5
16D
330
6C
100
AcDbEntity
  8
Visible (ANSI)
100
AcDbLine
 10
64.99039941704314
 20
15.73038880484662
 30
0.0
 11
65.6550494170431
 21
15.73038880484662
 31
0.0
  0
LINE
  5
16E
330
6C
100
AcDbEntity
  8
Visible (ANSI)
100
AcDbLine
 10
65.6550494170431
 20
52.49438880484661
 30
0.0
 11
65.6550494170431
 21
15.73038880484662
 31
0.0
  0
LINE
  5
16F
330
6C
100
AcDbEntity
  8
Visible (ANSI)
100
AcDbLine
 10
65.6550494170431
 20
52.49438880484661
 30
0.0
 11
64.99039941704314
 21
52.49438880484661
 31
0.0
  0
LINE
  5
170
330
6C
100
AcDbEntity
  8
Hidden (ANSI)
 48
0.0293632764369249
100
AcDbLine
 10
64.88104941704296
 20
34.36238880484661
 30
0.0
 11
64.97479941704296
 21
34.36238880484661
 31
0.0
  0
LINE
  5
171
330
6C
100
AcDbEntity
  8
Hidden (ANSI)
 48
0.0293632764369249
100
AcDbLine
 10
64.88104941704296
 20
33.8623888048466
 30
0.0
 11
64.97479941704296
 21
33.8623888048466
 31
0.0
  0
LINE
  5
172
330
6C
100
AcDbEntity
  8
Hidden (ANSI)
 48
0.0293632764369249
100
AcDbLine
 10
64.88104941704296
 20
53.94238880484662
 30
0.0
 11
64.97479941704296
 21
53.94238880484662
 31
0.0
  0
LINE
  5
173
330
6C
100
AcDbEntity
  8
Hidden (ANSI)
 48
0.0293632764369249
100
AcDbLine
 10
64.88104941704296
 20
53.44238880484662
 30
0.0
 11
64.97479941704296
 21
53.44238880484662
 31
0.0
  0
LINE
  5
174
330
6C
100
AcDbEntity
  8
Hidden (ANSI)
 48
0.0293632764369249
100
AcDbLine
 10
64.88104941704296
 20
14.78238880484661
 30
0.0
 11
64.97479941704296
 21
14.78238880484661
 31
0.0
  0
LINE
  5
175
330
6C
100
AcDbEntity
  8
Hidden (ANSI)
 48
0.0293632764369249
100
AcDbLine
 10
64.88104941704296
 20
14.28238880484661
 30
0.0
 11
64.97479941704296
 21
14.28238880484661
 31
0.0
  0
LINE
  5
176
330
6C
100
AcDbEntity
  8
Hidden (ANSI)
 48
0.0293632764369249
100
AcDbLine
 10
64.88104941704296
 20
53.09863880484662
 30
0.0
 11
64.97479941704296
 21
53.09863880484662
 31
0.0
  0
LINE
  5
177
330
6C
100
AcDbEntity
  8
Hidden (ANSI)
 48
0.0293632764369249
100
AcDbLine
 10
64.88104941704296
 20
52.78613880484662
 30
0.0
 11
64.97479941704296
 21
52.78613880484662
 31
0.0
  0
LINE
  5
178
330
6C
100
AcDbEntity
  8
Hidden (ANSI)
 48
0.0293632764369249
100
AcDbLine
 10
64.88104941704296
 20
15.43863880484661
 30
0.0
 11
64.97479941704296
 21
15.43863880484661
 31
0.0
  0
LINE
  5
179
330
6C
100
AcDbEntity
  8
Hidden (ANSI)
 48
0.0293632764369249
100
AcDbLine
 10
64.88104941704296
 20
15.12613880484661
 30
0.0
 11
64.97479941704296
 21
15.12613880484661
 31
0.0
  0
MTEXT
  5
17A
330
6C
100
AcDbEntity
  8
Symbol (ANSI)
100
AcDbMText
 10
62.49321952671389
 20
12.57373345438823
 30
0.0
 40
0.7272727362610678
 41
0.0
 71
     7
 72
     1
  1
SIDE VIEW
  7
Text Style168
 73
     1
 44
1.0
1001
ACAD
1000
MTEXTBEGIN
1070
    73
1070
     1
1070
    44
1040
1.0
1070
    74
1070
     0
1000
MTEXTEND
  0
LINE
  5
17B
330
6C
100
AcDbEntity
  8
Symbol (ANSI)
370
    30
100
AcDbLine
 10
62.45598306729198
 20
12.42306305339001
 30
0.0
 11
67.37067288793134
 21
12.42306305339001
 31
0.0
  0
ELLIPSE
  5
17C
330
6C
100
AcDbEntity
  8
Visible (ANSI)
100
AcDbEllipse
 10
95.94876050316846
 20
37.36092601708659
 30
0.0
 11
-0.0907331293789832
 21
0.1575606247536695
 31
0.0
210
0.0
220
0.0
230
1.0
 40
0.5780931159158128
 41
0.2678448778124958
 42
2.873747775777192
  0
ELLIPSE
  5
17D
330
6C
100
AcDbEntity
  8
Visible (ANSI)
100
AcDbEllipse
 10
95.90054867717849
 20
37.33316267296439
 30
0.0
 11
-0.0907331293789827
 21
0.1575606247536686
 31
0.0
210
0.0
220
0.0
230
1.0
 40
0.5780931159158129
 41
0.0
 42
6.283185307179586
  0
ELLIPSE
  5
17E
330
6C
100
AcDbEntity
  8
Visible (ANSI)
100
AcDbEllipse
 10
81.98147310169247
 20
45.40415189824885
 30
0.0
 11
-0.0907331293789827
 21
0.1575606247536685
 31
0.0
210
0.0
220
0.0
230
1.0
 40
0.5780931159158129
 41
0.2678448778125444
 42
2.873747775777192
  0
ELLIPSE
  5
17F
330
6C
100
AcDbEntity
  8
Visible (ANSI)
100
AcDbEllipse
 10
81.93326127570248
 20
45.37638855412664
 30
0.0
 11
-0.0907331293789827
 21
0.1575606247536686
 31
0.0
210
0.0
220
0.0
230
1.0
 40
0.5780931159158129
 41
0.0
 42
6.283185307179586
  0
ELLIPSE
  5
180
330
6C
100
AcDbEntity
  8
Visible (ANSI)
100
AcDbEllipse
 10
82.60557840325473
 20
33.16795797590592
 30
0.0
 11
-0.0396866707903491
 21
-0.0689170172672647
 31
0.0
210
0.0
220
0.0
230
1.0
 40
0.5780931159156393
 41
5.49585343535903
 42
6.28318530717969
  0
ELLIPSE
  5
181
330
6C
100
AcDbEntity
  8
Visible (ANSI)
100
AcDbEllipse
 10
95.34070009729566
 20
25.83428913492277
 30
0.0
 11
-0.0396866707903462
 21
-0.0689170172672597
 31
0.0
210
0.0
220
0.0
230
0.9999999999999998
 40
0.5780931159156392
 41
5.495853435359117
 42
5.556343885665553
  0
LINE
  5
182
330
6C
100
AcDbEntity
  8
Visible Narrow (ANSI)
100
AcDbLine
 10
82.54934412942001
 20
33.13557481132177
 30
0.0
 11
95.28446582346095
 21
25.80190597033863
 31
0.0
  0
LINE
  5
183
330
6C
100
AcDbEntity
  8
Visible (ANSI)
100
AcDbLine
 10
95.28456867535638
 20
25.8019656578166
 30
0.0
 11
95.28456867535638
 21
25.73682944870642
 31
0.0
  0
LINE
  5
184
330
6C
100
AcDbEntity
  8
Visible (ANSI)
100
AcDbLine
 10
95.28446582346095
 20
25.80202488628406
 30
0.0
 11
95.28456867535638
 21
25.8019656578166
 31
0.0
  0
LINE
  5
185
330
6C
100
AcDbEntity
  8
Visible (ANSI)
100
AcDbLine
 10
82.54924127752456
 20
33.13575295573467
 30
0.0
 11
82.54934412942001
 21
33.1356937272672
 31
0.0
  0
LINE
  5
186
330
6C
100
AcDbEntity
  8
Visible (ANSI)
100
AcDbLine
 10
82.54924127752456
 20
33.07061674662448
 30
0.0
 11
82.54924127752456
 21
33.13575295573467
 31
0.0
  0
LINE
  5
187
330
6C
100
AcDbEntity
  8
Visible (ANSI)
100
AcDbLine
 10
82.58224622580724
 20
33.08962303228348
 30
0.0
 11
82.54924127752456
 21
33.07061674662448
 31
0.0
  0
LINE
  5
188
330
6C
100
AcDbEntity
  8
Visible (ANSI)
100
AcDbLine
 10
82.56589173246437
 20
33.09904095863866
 30
0.0
 11
95.28456867535638
 21
25.77484202002441
 31
0.0
  0
LINE
  5
189
330
6C
100
AcDbEntity
  8
Visible (ANSI)
100
AcDbLine
 10
82.54934412942001
 20
33.1356937272672
 30
0.0
 11
82.54934412942001
 21
33.13557481132177
 31
0.0
  0
LINE
  5
18A
330
6C
100
AcDbEntity
  8
Visible (ANSI)
100
AcDbLine
 10
95.28446582346095
 20
25.80190597033863
 30
0.0
 11
95.28446582346095
 21
25.80202488628406
 31
0.0
  0
ELLIPSE
  5
18B
330
6C
100
AcDbEntity
  8
Visible (ANSI)
100
AcDbEllipse
 10
95.94876050316846
 20
49.00279707484439
 30
0.0
 11
-0.0907331293789832
 21
0.1575606247536695
 31
0.0
210
0.0
220
0.0
230
1.0
 40
0.5780931159158128
 41
0.2678448778125448
 42
2.873747775777192
  0
ELLIPSE
  5
18C
330
6C
100
AcDbEntity
  8
Visible (ANSI)
100
AcDbEllipse
 10
81.98147310169249
 20
57.04602295600664
 30
0.0
 11
-0.0907331293789827
 21
0.1575606247536687
 31
0.0
210
0.0
220
0.0
230
1.0
 40
0.5780931159158129
 41
0.2678448778125446
 42
2.873747775777192
  0
ELLIPSE
  5
18D
330
6C
100
AcDbEntity
  8
Visible (ANSI)
100
AcDbEllipse
 10
81.98147310169245
 20
33.76228084049105
 30
0.0
 11
-0.0907331293789825
 21
0.1575606247536683
 31
0.0
210
0.0
220
0.0
230
1.0
 40
0.578093115915813
 41
0.2678448778124949
 42
2.873747775777192
  0
ELLIPSE
  5
18E
330
6C
100
AcDbEntity
  8
Visible (ANSI)
100
AcDbEllipse
 10
95.94876050316846
 20
25.7190549593288
 30
0.0
 11
-0.0907331293789831
 21
0.1575606247536692
 31
0.0
210
0.0
220
0.0
230
0.9999999999999998
 40
0.5780931159158128
 41
0.2678448778124949
 42
2.873747775777191
  0
ELLIPSE
  5
18F
330
6C
100
AcDbEntity
  8
Visible (ANSI)
100
AcDbEllipse
 10
95.94876050316846
 20
48.55686227947573
 30
0.0
 11
0.0567082058618701
 21
-0.0984753904710396
 31
0.0
210
0.0
220
0.0
230
0.9999999999999998
 40
0.5780931159158129
 41
3.578838513251604
 42
5.845939447516819
  0
ELLIPSE
  5
190
330
6C
100
AcDbEntity
  8
Visible (ANSI)
100
AcDbEllipse
 10
81.98147310169249
 20
56.60008816063798
 30
0.0
 11
0.0567082058618701
 21
-0.0984753904710396
 31
0.0
210
0.0
220
0.0
230
1.0
 40
0.5780931159158129
 41
3.578838513251518
 42
5.845939447516819
  0
ELLIPSE
  5
191
330
6C
100
AcDbEntity
  8
Visible (ANSI)
100
AcDbEllipse
 10
81.98147310169245
 20
34.20821563585972
 30
0.0
 11
0.05670820586187
 21
-0.0984753904710393
 31
0.0
210
0.0
220
0.0
230
1.0
 40
0.5780931159158128
 41
3.578838513251604
 42
5.845939447516835
  0
ELLIPSE
  5
192
330
6C
100
AcDbEntity
  8
Visible (ANSI)
100
AcDbEllipse
 10
95.94876050316846
 20
26.16498975469746
 30
0.0
 11
0.0567082058618703
 21
-0.0984753904710399
 31
0.0
210
0.0
220
0.0
230
0.9999999999999998
 40
0.5780931159158129
 41
3.578838513251604
 42
5.84593944751682
  0
ELLIPSE
  5
193
330
6C
100
AcDbEntity
  8
Visible (ANSI)
100
AcDbEllipse
 10
95.90054867717849
 20
48.97503373072218
 30
0.0
 11
-0.0907331293789825
 21
0.1575606247536682
 31
0.0
210
0.0
220
0.0
230
0.9999999999999998
 40
0.578093115915813
 41
0.0
 42
6.283185307179586
  0
ELLIPSE
  5
194
330
6C
100
AcDbEntity
  8
Visible (ANSI)
100
AcDbEllipse
 10
81.9332612757025
 20
57.01825961188442
 30
0.0
 11
-0.0907331293789825
 21
0.1575606247536682
 31
0.0
210
0.0
220
0.0
230
0.9999999999999998
 40
0.578093115915813
 41
0.0
 42
6.283185307179586
  0
ELLIPSE
  5
195
330
6C
100
AcDbEntity
  8
Visible (ANSI)
100
AcDbEllipse
 10
81.93326127570248
 20
33.73451749636885
 30
0.0
 11
-0.0907331293789825
 21
0.1575606247536682
 31
0.0
210
0.0
220
0.0
230
0.9999999999999998
 40
0.578093115915813
 41
0.0
 42
6.283185307179586
  0
ELLIPSE
  5
196
330
6C
100
AcDbEntity
  8
Visible (ANSI)
100
AcDbEllipse
 10
95.90054867717846
 20
25.69129161520659
 30
0.0
 11
-0.0907331293789825
 21
0.1575606247536682
 31
0.0
210
0.0
220
0.0
230
0.9999999999999998
 40
0.578093115915813
 41
0.0
 42
6.283185307179586
  0
ELLIPSE
  5
197
330
6C
100
AcDbEntity
  8
Visible (ANSI)
100
AcDbEllipse
 10
95.90054867717849
 20
48.52909893535351
 30
0.0
 11
-0.0567082058618641
 21
0.0984753904710427
 31
0.0
210
0.0
220
0.0
230
0.9999999999999998
 40
0.578093115915813
 41
0.0
 42
6.283185307179586
  0
ELLIPSE
  5
198
330
6C
100
AcDbEntity
  8
Visible (ANSI)
100
AcDbEllipse
 10
81.9332612757025
 20
56.57232481651576
 30
0.0
 11
-0.0567082058618641
 21
0.0984753904710427
 31
0.0
210
0.0
220
0.0
230
0.9999999999999998
 40
0.578093115915813
 41
0.0
 42
6.283185307179586
  0
ELLIPSE
  5
199
330
6C
100
AcDbEntity
  8
Visible (ANSI)
100
AcDbEllipse
 10
81.93326127570248
 20
34.18045229173751
 30
0.0
 11
-0.0567082058618641
 21
0.0984753904710427
 31
0.0
210
0.0
220
0.0
230
0.9999999999999998
 40
0.578093115915813
 41
0.0
 42
6.283185307179586
  0
ELLIPSE
  5
19A
330
6C
100
AcDbEntity
  8
Visible (ANSI)
100
AcDbEllipse
 10
95.90054867717846
 20
26.13722641057525
 30
0.0
 11
-0.0567082058618641
 21
0.0984753904710427
 31
0.0
210
0.0
220
0.0
230
0.9999999999999998
 40
0.578093115915813
 41
0.0
 42
6.283185307179586
  0
LINE
  5
19B
330
6C
100
AcDbEntity
  8
Visible (ANSI)
100
AcDbLine
 10
82.59745310351457
 20
57.00048512250681
 30
0.0
 11
81.97118791214794
 21
57.36112726087498
 31
0.0
  0
LINE
  5
19C
330
6C
100
AcDbEntity
  8
Visible (ANSI)
100
AcDbLine
 10
95.95904569271302
 20
49.30605568622059
 30
0.0
 11
95.33278050134638
 21
49.66669782458875
 31
0.0
  0
LINE
  5
19D
330
6C
100
AcDbEntity
  8
Visible (ANSI)
100
AcDbLine
 10
96.21617543132636
 20
48.13661546225649
 30
0.0
 11
96.21617543132636
 21
48.86069465398975
 31
0.0
  0
LINE
  5
19E
330
6C
100
AcDbEntity
  8
Visible (ANSI)
100
AcDbLine
 10
96.21617543132632
 20
25.55316934938784
 30
0.0
 11
96.21617543132632
 21
26.2772485411211
 31
0.0
  0
LINE
  5
19F
330
6C
100
AcDbEntity
  8
Visible (ANSI)
100
AcDbLine
 10
82.54924127752456
 20
33.07061674662448
 30
0.0
 11
81.92297608615794
 21
33.43125888499264
 31
0.0
  0
LINE
  5
1A0
330
6C
100
AcDbEntity
  8
Visible (ANSI)
100
AcDbLine
 10
95.910833866723
 20
25.37618731033826
 30
0.0
 11
95.28456867535638
 21
25.73682944870642
 31
0.0
  0
LINE
  5
1A1
330
6C
100
AcDbEntity
  8
Visible (ANSI)
100
AcDbLine
 10
96.16796360533633
 20
26.2494851969989
 30
0.0
 11
96.16796360533633
 21
25.52540600526562
 31
0.0
  0
LINE
  5
1A2
330
6C
100
AcDbEntity
  8
Visible (ANSI)
100
AcDbLine
 10
96.16796360533635
 20
48.83293130986753
 30
0.0
 11
96.16796360533635
 21
48.10885211813427
 31
0.0
  0
LINE
  5
1A3
330
6C
100
AcDbEntity
  8
Visible (ANSI)
100
AcDbLine
 10
95.2845686753564
 20
49.63893448046654
 30
0.0
 11
95.91083386672304
 21
49.27829234209838
 31
0.0
  0
LINE
  5
1A4
330
6C
100
AcDbEntity
  8
Visible (ANSI)
100
AcDbLine
 10
81.92297608615794
 20
57.33336391675278
 30
0.0
 11
82.54924127752458
 21
56.97272177838462
 31
0.0
  0
LINE
  5
1A5
330
6C
100
AcDbEntity
  8
Visible (ANSI)
100
AcDbLine
 10
81.66584634754462
 20
56.46006603009213
 30
0.0
 11
81.66584634754462
 21
57.1841452218254
 31
0.0
  0
LINE
  5
1A6
330
6C
100
AcDbEntity
  8
Visible (ANSI)
100
AcDbLine
 10
81.66584634754462
 20
33.87661991722349
 30
0.0
 11
81.66584634754462
 21
34.60069910895676
 31
0.0
  0
LINE
  5
1A7
330
6C
100
AcDbEntity
  8
Visible (ANSI)
100
AcDbLine
 10
82.59745310351457
 20
57.00048512250681
 30
0.0
 11
82.59745310351457
 21
56.9996843894391
 31
0.0
  0
LINE
  5
1A8
330
6C
100
AcDbEntity
  8
Visible (ANSI)
100
AcDbLine
 10
95.2845686753564
 20
49.63893448046654
 30
0.0
 11
95.2845686753564
 21
49.57379827135637
 31
0.0
  0
LINE
  5
1A9
330
6C
100
AcDbEntity
  8
Visible (ANSI)
100
AcDbLine
 10
95.2845686753564
 20
49.57379827135637
 30
0.0
 11
95.28446582346097
 21
49.57385749982384
 31
0.0
  0
LINE
  5
1AA
330
6C
100
AcDbEntity
  8
Visible Narrow (ANSI)
100
AcDbLine
 10
95.28446582346097
 20
49.57397641576926
 30
0.0
 11
82.54934412942002
 21
56.9076452567524
 31
0.0
  0
LINE
  5
1AB
330
6C
100
AcDbEntity
  8
Visible (ANSI)
100
AcDbLine
 10
82.54934412942002
 20
56.90752634080697
 30
0.0
 11
82.54924127752458
 21
56.90758556927443
 31
0.0
  0
LINE
  5
1AC
330
6C
100
AcDbEntity
  8
Visible (ANSI)
100
AcDbLine
 10
82.54924127752458
 20
56.90758556927443
 30
0.0
 11
82.54924127752458
 21
56.97272177838462
 31
0.0
  0
LINE
  5
1AD
330
6C
100
AcDbEntity
  8
Visible Narrow (ANSI)
100
AcDbLine
 10
95.34070009729566
 20
49.67137687351813
 30
0.0
 11
82.60557840325475
 21
57.0050457145013
 31
0.0
  0
ELLIPSE
  5
1AE
330
6C
100
AcDbEntity
  8
Visible (ANSI)
100
AcDbEllipse
 10
95.34070009729578
 20
49.60635958035346
 30
0.0
 11
0.0396866707904218
 21
0.0689170172673814
 31
0.0
210
0.0
220
0.0
230
1.0
 40
0.5780931159156394
 41
2.293770331463081
 42
2.354260781769395
  0
ELLIPSE
  5
1AF
330
6C
100
AcDbEntity
  8
Visible (ANSI)
100
AcDbEllipse
 10
95.34070009729569
 20
49.60635958035313
 30
0.0
 11
0.0396866707905218
 21
0.0689170172675645
 31
0.0
210
0.0
220
0.0
230
1.0
 40
0.5780931159156393
 41
0.7834644549750145
 42
0.9175200251376764
  0
LINE
  5
1B0
330
6C
100
AcDbEntity
  8
Visible (ANSI)
100
AcDbLine
 10
95.28446582346097
 20
49.57385749982384
 30
0.0
 11
95.2845686753564
 21
49.57391672829129
 31
0.0
  0
ELLIPSE
  5
1B1
330
6C
100
AcDbEntity
  8
Visible (ANSI)
100
AcDbEllipse
 10
82.60557840325473
 20
56.94002842133653
 30
0.0
 11
0.0396866707903547
 21
0.0689170172672643
 31
0.0
210
0.0
220
0.0
230
1.0
 40
0.5780931159156444
 41
0.7834644549745838
 42
2.354260781769504
  0
LINE
  5
1B2
330
6C
100
AcDbEntity
  8
Visible (ANSI)
100
AcDbLine
 10
82.54924127752458
 20
56.97272177838462
 30
0.0
 11
82.59745310351457
 21
57.00048512250681
 31
0.0
  0
LINE
  5
1B3
330
6C
100
AcDbEntity
  8
Visible (ANSI)
100
AcDbLine
 10
82.54924127752458
 20
56.90758556927443
 30
0.0
 11
82.54934412942002
 21
56.90764479774189
 31
0.0
  0
LINE
  5
1B4
330
6C
100
AcDbEntity
  8
Visible (ANSI)
100
AcDbLine
 10
95.33278050134638
 20
49.66669782458875
 30
0.0
 11
95.2845686753564
 21
49.63893448046654
 31
0.0
  0
LINE
  5
1B5
330
6C
100
AcDbEntity
  8
Visible (ANSI)
100
AcDbLine
 10
96.21617543132636
 20
48.86069465398975
 30
0.0
 11
95.95904569271302
 21
49.30605568622059
 31
0.0
  0
LINE
  5
1B6
330
6C
100
AcDbEntity
  8
Visible (ANSI)
100
AcDbLine
 10
95.91083386672304
 20
49.27829234209838
 30
0.0
 11
96.16796360533635
 21
48.83293130986753
 31
0.0
  0
LINE
  5
1B7
330
6C
100
AcDbEntity
  8
Visible (ANSI)
100
AcDbLine
 10
95.95904569271302
 20
49.30605568622059
 30
0.0
 11
95.91083386672304
 21
49.27829234209838
 31
0.0
  0
LINE
  5
1B8
330
6C
100
AcDbEntity
  8
Visible (ANSI)
100
AcDbLine
 10
96.16796360533635
 20
48.83293130986753
 30
0.0
 11
96.21617543132636
 21
48.86069465398975
 31
0.0
  0
LINE
  5
1B9
330
6C
100
AcDbEntity
  8
Visible (ANSI)
100
AcDbLine
 10
96.21548201349055
 20
26.27764785389551
 30
0.0
 11
96.21617543132632
 21
26.2772485411211
 31
0.0
  0
LINE
  5
1BA
330
6C
100
AcDbEntity
  8
Visible (ANSI)
100
AcDbLine
 10
96.16796360533633
 20
26.2494851969989
 30
0.0
 11
96.11162647960616
 21
26.28192759005049
 31
0.0
  0
LINE
  5
1BB
330
6C
100
AcDbEntity
  8
Visible (ANSI)
100
AcDbLine
 10
96.11162647960616
 20
26.28192759005049
 30
0.0
 11
96.11162647960616
 21
26.28204650599592
 31
0.0
  0
LINE
  5
1BC
330
6C
100
AcDbEntity
  8
Visible Narrow (ANSI)
100
AcDbLine
 10
96.11172933150161
 20
26.28198727752846
 30
0.0
 11
96.11172933150163
 21
48.14111636677298
 31
0.0
  0
LINE
  5
1BD
330
6C
100
AcDbEntity
  8
Visible (ANSI)
100
AcDbLine
 10
96.11162647960618
 20
48.14117559524043
 30
0.0
 11
96.11162647960618
 21
48.14129451118586
 31
0.0
  0
LINE
  5
1BE
330
6C
100
AcDbEntity
  8
Visible (ANSI)
100
AcDbLine
 10
96.11162647960618
 20
48.14129451118586
 30
0.0
 11
96.16796360533635
 21
48.10885211813427
 31
0.0
  0
LINE
  5
1BF
330
6C
100
AcDbEntity
  8
Visible Narrow (ANSI)
100
AcDbLine
 10
96.22419787917106
 20
26.28198727752848
 30
0.0
 11
96.22419787917108
 21
48.14111636677299
 31
0.0
  0
ELLIPSE
  5
1C0
330
6C
100
AcDbEntity
  8
Visible (ANSI)
100
AcDbEllipse
 10
96.16796360533632
 20
26.31437044211261
 30
0.0
 11
0.0795272727272756
 21
0.0000000000000046
 31
0.0
210
0.0
220
0.0
230
1.0
 40
0.5758617009853095
 41
3.9269908169873
 42
5.497787143782147
  0
LINE
  5
1C1
330
6C
100
AcDbEntity
  8
Visible (ANSI)
100
AcDbLine
 10
96.11162647960618
 20
48.14117559524043
 30
0.0
 11
96.11172973004395
 21
48.14123505321315
 31
0.0
  0
ELLIPSE
  5
1C2
330
6C
100
AcDbEntity
  8
Visible (ANSI)
100
AcDbEllipse
 10
96.16796360533641
 20
48.17349953135716
 30
0.0
 11
0.0795272727273599
 21
0.0000000000000047
 31
0.0
210
0.0
220
0.0
230
1.0
 40
0.5758617009853095
 41
3.926990816987155
 42
3.987598387465313
  0
ELLIPSE
  5
1C3
330
6C
100
AcDbEntity
  8
Visible (ANSI)
100
AcDbEllipse
 10
96.16796360533649
 20
48.17349953135702
 30
0.0
 11
0.0795272727270286
 21
-0.0000000000000001
 31
0.0
210
0.0
220
0.0
230
1.0
 40
0.5758617009853095
 41
5.363700662383056
 42
5.497787143782599
  0
LINE
  5
1C4
330
6C
100
AcDbEntity
  8
Visible (ANSI)
100
AcDbLine
 10
96.16796360533635
 20
48.10885211813427
 30
0.0
 11
96.21617543132636
 21
48.13661546225649
 31
0.0
  0
LINE
  5
1C5
330
6C
100
AcDbEntity
  8
Visible (ANSI)
100
AcDbLine
 10
96.11162647960616
 20
26.28192759005049
 30
0.0
 11
96.11172973004535
 21
26.28198704802402
 31
0.0
  0
LINE
  5
1C6
330
6C
100
AcDbEntity
  8
Visible (ANSI)
100
AcDbLine
 10
96.21617543132632
 20
26.2772485411211
 30
0.0
 11
96.16796360533633
 21
26.2494851969989
 31
0.0
  0
LINE
  5
1C7
330
6C
100
AcDbEntity
  8
Visible (ANSI)
100
AcDbLine
 10
95.95904569271299
 20
25.40395065446046
 30
0.0
 11
96.21617543132632
 21
25.55316934938784
 31
0.0
  0
LINE
  5
1C8
330
6C
100
AcDbEntity
  8
Visible (ANSI)
100
AcDbLine
 10
96.16796360533633
 20
25.52540600526562
 30
0.0
 11
95.910833866723
 21
25.37618731033826
 31
0.0
  0
LINE
  5
1C9
330
6C
100
AcDbEntity
  8
Visible (ANSI)
100
AcDbLine
 10
95.910833866723
 20
25.37618731033826
 30
0.0
 11
95.95904569271299
 21
25.40395065446046
 31
0.0
  0
LINE
  5
1CA
330
6C
100
AcDbEntity
  8
Visible (ANSI)
100
AcDbLine
 10
96.21617543132632
 20
25.55316934938784
 30
0.0
 11
96.16796360533633
 21
25.52540600526562
 31
0.0
  0
LINE
  5
1CB
330
6C
100
AcDbEntity
  8
Visible (ANSI)
100
AcDbLine
 10
96.11162647960616
 20
26.28204650599592
 30
0.0
 11
96.11172933150161
 21
26.28198727752846
 31
0.0
  0
LINE
  5
1CC
330
6C
100
AcDbEntity
  8
Visible (ANSI)
100
AcDbLine
 10
96.11172933150163
 20
48.14111636677298
 30
0.0
 11
96.11162647960618
 21
48.14117559524043
 31
0.0
  0
LINE
  5
1CD
330
6C
100
AcDbEntity
  8
Visible (ANSI)
100
AcDbLine
 10
96.22419787917106
 20
26.28198727752848
 30
0.0
 11
96.56600044070966
 21
26.47881828201728
 31
0.0
  0
LINE
  5
1CE
330
6C
100
AcDbEntity
  8
Visible (ANSI)
100
AcDbLine
 10
96.56600044070968
 20
48.33794737126179
 30
0.0
 11
96.56600044070966
 21
26.47881828201728
 31
0.0
  0
LINE
  5
1CF
330
6C
100
AcDbEntity
  8
Visible (ANSI)
100
AcDbLine
 10
96.56600044070968
 20
48.33794737126179
 30
0.0
 11
96.22419787917108
 21
48.14111636677299
 31
0.0
  0
LINE
  5
1D0
330
6C
100
AcDbEntity
  8
Visible (ANSI)
100
AcDbLine
 10
96.51778861471967
 20
48.36571071538399
 30
0.0
 11
96.56600044070968
 21
48.33794737126179
 31
0.0
  0
LINE
  5
1D1
330
6C
100
AcDbEntity
  8
Visible (ANSI)
100
AcDbLine
 10
96.21617543132632
 20
48.19202323455546
 30
0.0
 11
96.51778861471967
 21
48.36571071538399
 31
0.0
  0
LINE
  5
1D2
330
6C
100
AcDbEntity
  8
Visible (ANSI)
100
AcDbLine
 10
95.28446582346097
 20
49.57385749982384
 30
0.0
 11
95.28446582346097
 21
49.57397641576926
 31
0.0
  0
LINE
  5
1D3
330
6C
100
AcDbEntity
  8
Visible (ANSI)
100
AcDbLine
 10
82.54934412942002
 20
56.9076452567524
 30
0.0
 11
82.54934412942002
 21
56.90752634080697
 31
0.0
  0
LINE
  5
1D4
330
6C
100
AcDbEntity
  8
Visible (ANSI)
100
AcDbLine
 10
95.34070009729566
 20
49.67137687351813
 30
0.0
 11
95.68250265883426
 21
49.86820787800696
 31
0.0
  0
LINE
  5
1D5
330
6C
100
AcDbEntity
  8
Visible (ANSI)
100
AcDbLine
 10
82.94738096479333
 20
57.20187671899012
 30
0.0
 11
95.68250265883426
 21
49.86820787800696
 31
0.0
  0
LINE
  5
1D6
330
6C
100
AcDbEntity
  8
Visible (ANSI)
100
AcDbLine
 10
82.94738096479333
 20
57.20187671899012
 30
0.0
 11
82.60557840325475
 21
57.0050457145013
 31
0.0
  0
LINE
  5
1D7
330
6C
100
AcDbEntity
  8
Visible (ANSI)
100
AcDbLine
 10
95.68250265883426
 20
49.81246602858588
 30
0.0
 11
95.38107629215083
 21
49.63888612834569
 31
0.0
  0
LINE
  5
1D8
330
6C
100
AcDbEntity
  8
Visible (ANSI)
100
AcDbLine
 10
95.68250265883426
 20
49.86820787800696
 30
0.0
 11
95.68250265883426
 21
49.81246602858588
 31
0.0
  0
LINE
  5
1D9
330
6C
100
AcDbEntity
  8
Visible (ANSI)
100
AcDbLine
 10
81.66584634754462
 20
57.1841452218254
 30
0.0
 11
81.92297608615794
 21
57.33336391675278
 31
0.0
  0
LINE
  5
1DA
330
6C
100
AcDbEntity
  8
Visible (ANSI)
100
AcDbLine
 10
81.92297608615794
 20
57.33336391675278
 30
0.0
 11
81.97118791214794
 21
57.36112726087498
 31
0.0
  0
LINE
  5
1DB
330
6C
100
AcDbEntity
  8
Visible (ANSI)
100
AcDbLine
 10
81.66584634754462
 20
56.46006603009213
 30
0.0
 11
81.72218347327479
 21
56.42762363704054
 31
0.0
  0
LINE
  5
1DC
330
6C
100
AcDbEntity
  8
Visible (ANSI)
100
AcDbLine
 10
81.72218347327479
 20
56.42762363704054
 30
0.0
 11
81.72218347327479
 21
56.42750472109511
 31
0.0
  0
LINE
  5
1DD
330
6C
100
AcDbEntity
  8
Visible Narrow (ANSI)
100
AcDbLine
 10
81.72208062137936
 20
56.42756394956258
 30
0.0
 11
81.72208062137933
 21
34.56843486031806
 31
0.0
  0
LINE
  5
1DE
330
6C
100
AcDbEntity
  8
Visible (ANSI)
100
AcDbLine
 10
81.72218347327477
 20
34.5683756318506
 30
0.0
 11
81.72218347327477
 21
34.56825671590517
 31
0.0
  0
LINE
  5
1DF
330
6C
100
AcDbEntity
  8
Visible (ANSI)
100
AcDbLine
 10
81.72218347327477
 20
34.56825671590517
 30
0.0
 11
81.66584634754462
 21
34.60069910895676
 31
0.0
  0
ELLIPSE
  5
1E0
330
6C
100
AcDbEntity
  8
Visible (ANSI)
100
AcDbEllipse
 10
81.77831489521409
 20
56.45994711414672
 30
0.0
 11
-0.0795272727272714
 21
0.0000000000000001
 31
0.0
210
0.0
220
0.0
230
1.0
 40
0.5758617009853094
 41
0.7247905929201668
 42
0.7853981633973337
  0
ELLIPSE
  5
1E1
330
6C
100
AcDbEntity
  8
Visible (ANSI)
100
AcDbEllipse
 10
81.77831489521407
 20
34.60081802490221
 30
0.0
 11
-0.0795272727272726
 21
-0.0000000000000033
 31
0.0
210
0.0
220
0.0
230
1.0
 40
0.5758617009853287
 41
0.0
 42
0.7853981633973329
  0
LINE
  5
1E2
330
6C
100
AcDbEntity
  8
Visible (ANSI)
100
AcDbLine
 10
81.66584634754462
 20
34.60069910895676
 30
0.0
 11
81.69878762248679
 21
34.6196687275776
 31
0.0
  0
LINE
  5
1E3
330
6C
100
AcDbEntity
  8
Visible (ANSI)
100
AcDbLine
 10
81.6987876224868
 20
56.44109641147131
 30
0.0
 11
81.69878762248679
 21
34.6008180249022
 31
0.0
  0
LINE
  5
1E4
330
6C
100
AcDbEntity
  8
Visible (ANSI)
100
AcDbLine
 10
81.72218347327479
 20
56.42750472109511
 30
0.0
 11
81.72208062137936
 21
56.42756394956258
 31
0.0
  0
LINE
  5
1E5
330
6C
100
AcDbEntity
  8
Visible (ANSI)
100
AcDbLine
 10
81.72208062137933
 20
34.56843486031806
 30
0.0
 11
81.72218347327477
 21
34.5683756318506
 31
0.0
  0
LINE
  5
1E6
330
6C
100
AcDbEntity
  8
Visible (ANSI)
100
AcDbLine
 10
81.90949099956865
 20
56.60025273789726
 30
0.0
 11
81.96924917493955
 21
56.63466518241414
 31
0.0
  0
LINE
  5
1E7
330
6C
100
AcDbEntity
  8
Visible (ANSI)
100
AcDbLine
 10
81.99588359725323
 20
56.59447623790805
 30
0.0
 11
81.93088194848176
 21
56.55704427787966
 31
0.0
  0
LINE
  5
1E8
330
6C
100
AcDbEntity
  8
Visible (ANSI)
100
AcDbLine
 10
81.92297608615794
 20
33.43125888499264
 30
0.0
 11
81.66584634754462
 21
33.87661991722349
 31
0.0
  0
DIMENSION
  5
1E9
330
6C
100
AcDbEntity
  8
Dimension (ANSI)
100
AcDbDimension
  2
*D4
 10
47.01393547393208
 20
60.85149641639517
 30
0.0
 11
32.91393547393209
 21
60.85149641639517
 31
0.0
 70
   160
  1
<>
 42
28.2
  3
Default (ANSI)
100
AcDbAlignedDimension
 13
18.81393547393208
 23
53.71238880484662
 33
0.0
 14
47.01393547393208
 24
53.71238880484662
 34
0.0
100
AcDbRotatedDimension
1001
ACAD
1000
DSTYLE
1002
{
1070
   289
1070
     1
1070
    73
1070
     0
1070
    74
1070
     0
1070
   271
1070
     2
1070
   272
1070
     2
1070
    48
1040
0.0
1070
    47
1040
0.0
1002
}
  0
DIMENSION
  5
2D6
330
6C
100
AcDbEntity
  8
Dimension (ANSI)
100
AcDbDimension
  2
*D5
 10
46.51393547393208
 20
58.83181137702508
 30
0.0
 11
32.91393547393209
 21
58.83181137702508
 31
0.0
 70
   160
  1
<>{ TYP.}
 71
     5
 42
27.20000000000001
  3
Default (ANSI)
100
AcDbAlignedDimension
 13
19.31393547393208
 23
54.2123888048466
 33
0.0
 14
46.51393547393208
 24
54.21238880484661
 34
0.0
 50
180.0
100
AcDbRotatedDimension
1001
ACAD
1000
DSTYLE
1002
{
1070
   289
1070
     1
1070
    73
1070
     0
1070
    74
1070
     0
1070
   271
1070
     2
1070
   272
1070
     2
1070
    48
1040
0.0
1070
    47
1040
0.0
1002
}
  0
DIMENSION
  5
3C0
330
6C
100
AcDbEntity
  8
Dimension (ANSI)
100
AcDbDimension
  2
*D6
 10
19.31393547393208
 20
58.83181137702508
 30
0.0
 11
16.50649664432054
 21
58.83181137702508
 31
0.0
 70
   160
  1
<>{\PTYP.}
 71
     5
 42
0.5
  3
Default (ANSI)
100
AcDbAlignedDimension
 13
18.81393547393208
 23
53.71238880484661
 33
0.0
 14
19.31393547393208
 24
54.2123888048466
 34
0.0
 50
180.0
100
AcDbRotatedDimension
1001
ACAD
1000
DSTYLE
1002
{
1070
   289
1070
     1
1070
    73
1070
     0
1070
    74
1070
     0
1070
   271
1070
     2
1070
   272
1070
     2
1070
    48
1040
0.0
1070
    47
1040
0.0
1002
}
  0
DIMENSION
  5
4BE
330
6C
100
AcDbEntity
  8
Dimension (ANSI)
100
AcDbDimension
  2
*D7
 10
13.01709087156075
 20
14.01238880484661
 30
0.0
 11
13.01709087156075
 21
34.11238880484661
 31
0.0
 70
   160
  1
<>
 42
40.19999999999999
  3
Default (ANSI)
100
AcDbAlignedDimension
 13
19.31393547393208
 23
54.2123888048466
 33
0.0
 14
19.31393547393209
 24
14.01238880484661
 34
0.0
 50
270.0
100
AcDbRotatedDimension
1001
ACAD
1000
DSTYLE
1002
{
1070
   289
1070
     1
1070
   271
1070
     2
1070
   272
1070
     2
1070
    48
1040
0.0
1070
    47
1040
0.0
1002
}
  0
DIMENSION
  5
5A8
330
6C
100
AcDbEntity
  8
Dimension (ANSI)
100
AcDbDimension
  2
*D8
 10
16.84543153692422
 20
53.71238880484662
 30
0.0
 11
16.84543153692421
 21
34.11238880484662
 31
0.0
 70
   160
  1
<>{\PTYP.}
 71
     5
 42
39.20000000000001
  3
Default (ANSI)
100
AcDbAlignedDimension
 13
18.81393547393209
 23
14.51238880484661
 33
0.0
 14
18.81393547393208
 24
53.71238880484662
 34
0.0
 50
90.0
100
AcDbRotatedDimension
1001
ACAD
1000
DSTYLE
1002
{
1070
   289
1070
     1
1070
   271
1070
     2
1070
   272
1070
     2
1070
    48
1040
0.0
1070
    47
1040
0.0
1002
}
  0
DIMENSION
  5
6A6
330
6C
100
AcDbEntity
  8
Dimension (ANSI)
100
AcDbDimension
  2
*D9
 10
15.13450903834957
 20
53.71238880484662
 30
0.0
 11
16.84543153692421
 21
56.54515370136135
 31
0.0
 70
   160
  1
<>{\PTYP.}
 71
     5
 42
0.4999999999999929
  3
Default (ANSI)
100
AcDbAlignedDimension
 13
19.31393547393208
 23
54.2123888048466
 33
0.0
 14
18.81393547393208
 24
53.71238880484661
 34
0.0
 50
90.0
100
AcDbRotatedDimension
1001
ACAD
1000
DSTYLE
1002
{
1070
   289
1070
     1
1070
   271
1070
     2
1070
   272
1070
     2
1070
    48
1040
0.0
1070
    47
1040
0.0
1002
}
  0
DIMENSION
  5
7BC
330
6C
100
AcDbEntity
  8
Dimension (ANSI)
100
AcDbDimension
  2
*D10
 10
19.15715877863543
 20
14.70916550014323
 30
0.0
 11
28.1562197110726
 21
11.29225310696196
 31
0.0
 70
   163
  1
<>{ TYP. (8 PL.)}
 42
0.5
  3
Default (ANSI)
100
AcDbDiametricDimension
 15
19.51071216922875
 25
14.35561210955
 35
0.0
 40
0.0
1001
ACAD
1000
DSTYLE
1002
{
1070
   144
1040
0.9999999999999928
1070
   271
1070
     2
1070
   272
1070
     2
1070
    48
1040
0.0
1070
    47
1040
0.0
1002
}
1001
ACAD_DSTYLE_DIMRADIAL_EXTENSION
1070
   387
1070
     1
1070
   388
1040
0.0
1070
   390
1040
0.0
  0
DIMENSION
  5
866
330
6C
100
AcDbEntity
  8
Dimension (ANSI)
100
AcDbDimension
  2
*D11
 10
19.22345003937168
 20
15.39287423940699
 30
0.0
 11
27.90822486784019
 21
12.29024795019423
 31
0.0
 70
   163
  1
<>{ TYP. (4 PL.)}
 42
0.3125
  3
Default (ANSI)
100
AcDbDiametricDimension
 15
19.44442090849251
 25
15.17190337028623
 35
0.0
 40
0.0
1001
ACAD
1000
DSTYLE
1002
{
1070
   144
1040
1.000000000000005
1070
   271
1070
     2
1070
   272
1070
     2
1070
    48
1040
0.0
1070
    47
1040
0.0
1002
}
1001
ACAD_DSTYLE_DIMRADIAL_EXTENSION
1070
   387
1070
     1
1070
   388
1040
0.0
1070
   390
1040
0.0
  0
DIMENSION
  5
90F
330
6C
100
AcDbEntity
  8
Dimension (ANSI)
100
AcDbDimension
  2
*D12
 10
52.02256257761293
 20
14.53238880484661
 30
0.0
 11
50.31164007903828
 21
12.26312827578252
 31
0.0
 70
   160
  1
<>{ \PTYP.}
 71
     5
 42
0.5199999999999978
  3
Default (ANSI)
100
AcDbAlignedDimension
 13
46.51393547393209
 23
14.01238880484661
 33
0.0
 14
46.49393547393208
 24
14.53238880484661
 34
0.0
 50
90.0
100
AcDbRotatedDimension
1001
ACAD
1000
DSTYLE
1002
{
1070
   289
1070
     1
1070
   271
1070
     2
1070
   272
1070
     2
1070
    48
1040
0.0
1070
    47
1040
0.0
1002
}
  0
DIMENSION
  5
A25
330
6C
100
AcDbEntity
  8
Dimension (ANSI)
100
AcDbDimension
  2
*D13
 10
43.23218660123755
 20
15.28238880484661
 30
0.0
 11
41.56455414659801
 21
12.2075128792365
 31
0.0
 70
   160
  1
<>{\PTYP.}
 71
     5
 42
1.269999999999997
  3
Default (ANSI)
100
AcDbAlignedDimension
 13
46.51393547393209
 23
14.01238880484661
 33
0.0
 14
46.49393547393208
 24
15.28238880484661
 34
0.0
 50
90.0
100
AcDbRotatedDimension
1001
ACAD
1000
DSTYLE
1002
{
1070
   289
1070
     1
1070
   271
1070
     2
1070
    76
1070
     1
1070
   272
1070
     2
1070
    48
1040
0.0
1070
    47
1040
0.0
1002
}
  0
DIMENSION
  5
B33
330
6C
100
AcDbEntity
  8
Dimension (ANSI)
100
AcDbDimension
  2
*D14
 10
47.01393547393209
 20
12.26267001969475
 30
0.0
 11
44.18649664432055
 21
12.26267001969475
 31
0.0
 70
   160
  1
<>{\PTYP.}
 71
     5
 42
0.5200000000000032
  3
Default (ANSI)
100
AcDbAlignedDimension
 13
46.49393547393208
 23
15.28238880484661
 33
0.0
 14
47.01393547393209
 24
14.51238880484661
 34
0.0
 50
180.0
100
AcDbRotatedDimension
1001
ACAD
1000
DSTYLE
1002
{
1070
   289
1070
     1
1070
    73
1070
     0
1070
    74
1070
     0
1070
   271
1070
     2
1070
   272
1070
     2
1070
    48
1040
0.0
1070
    47
1040
0.0
1002
}
  0
DIMENSION
  5
C31
330
6C
100
AcDbEntity
  8
Dimension (ANSI)
100
AcDbDimension
  2
*D15
 10
64.8810494170431
 20
53.13717525017454
 30
0.0
 11
68.2035921468667
 21
53.13717525017454
 31
0.0
 70
   160
  1
(<>){\P12 GA.\PGALV.}
 71
     5
 42
0.09375
  3
Default (ANSI)
100
AcDbAlignedDimension
 13
64.9747994170431
 23
36.81089414184467
 33
0.0
 14
64.8810494170431
 24
36.81089414184467
 34
0.0
100
AcDbRotatedDimension
1001
ACAD
1000
DSTYLE
1002
{
1070
   289
1070
     1
1070
    73
1070
     0
1070
    74
1070
     0
1070
   271
1070
     3
1070
   147
1040
0.031496062992126
1070
    72
1070
     0
1070
    71
1070
     0
1070
   272
1070
     3
1070
    48
1040
0.0
1070
    47
1040
0.0
1002
}
  0
MTEXT
  5
D39
102
{ACAD_XDICTIONARY
360
F3D
102
}
330
6C
100
AcDbEntity
  8
Symbol (ANSI)
100
AcDbMText
 10
73.03043138939823
 20
11.00131347828464
 30
0.0
 40
0.6060606254026048
 41
28.03601560999971
 71
     4
 72
     1
  3
{\fRomanS|b0|i0|c0|p2;\H2.0001x;PART#: NP4230CG\P(DATA SUBJECT TO CHANGE \H1.6509x; \H0.60572x;WITHOUT NOTICE) \H1.5852x; \H0.63084x;\P\H0.59998x;THIS DRAWING IS PROPERTY OF HUBBELL INC. \H1.67x; \H0.59879x;WIEGMANN\H1.279x; \H0.78184x;\PALL INFORMAT
  1
ION IS PROPRIETARY AND NOT TO \H1.2955x; \H0.77188x;BE DUPLICATED\H1.2948x; \H0.77229x;\P\H1.2949x; }
  7
Note Text (ANSI)
 73
     1
 44
0.7816644310951233
1001
ACAD
1000
MTEXTBEGIN
1070
    73
1070
     1
1070
    44
1040
0.7816644310951233
1070
    74
1070
     0
1000
MTEXTEND
  0
LINE
  5
D3B
330
6C
100
AcDbEntity
  8
Center Mark (ANSI)
  6
CHAIN
 48
0.1846121698617935
100
AcDbLine
 10
18.32635971635633
 20
53.6923888048466
 30
0.0
 11
20.34151123150785
 21
53.6923888048466
 31
0.0
  0
LINE
  5
D3C
330
6C
100
AcDbEntity
  8
Center Mark (ANSI)
  6
CHAIN
 48
0.1846121698617935
100
AcDbLine
 10
47.50151123150785
 20
53.69238880484662
 30
0.0
 11
45.48635971635633
 21
53.69238880484662
 31
0.0
  0
LINE
  5
D3D
330
6C
100
AcDbEntity
  8
Centerline (ANSI)
  6
CHAIN
 48
0.9524481296539306
100
AcDbLine
 10
18.32635971635633
 20
53.6923888048466
 30
0.0
 11
47.50151123150785
 21
53.69238880484662
 31
0.0
  0
LINE
  5
D3E
330
6C
100
AcDbEntity
  8
Center Mark (ANSI)
  6
CHAIN
 48
0.1846121698617935
100
AcDbLine
 10
46.49393547393208
 20
13.52481304727085
 30
0.0
 11
46.49393547393208
 21
15.53996456242237
 31
0.0
  0
LINE
  5
D3F
330
6C
100
AcDbEntity
  8
Centerline (ANSI)
  6
CHAIN
 48
0.9524481296539306
100
AcDbLine
 10
46.49393547393208
 20
54.69996456242237
 30
0.0
 11
46.49393547393208
 21
13.52481304727085
 31
0.0
  0
LINE
  5
D40
330
6C
100
AcDbEntity
  8
Center Mark (ANSI)
  6
CHAIN
 48
0.1846121698617935
100
AcDbLine
 10
18.32635971635633
 20
14.53238880484661
 30
0.0
 11
20.34151123150785
 21
14.53238880484661
 31
0.0
  0
LINE
  5
D41
330
6C
100
AcDbEntity
  8
Centerline (ANSI)
  6
CHAIN
 48
0.9524481296539306
100
AcDbLine
 10
47.50151123150785
 20
14.53238880484661
 30
0.0
 11
18.32635971635634
 21
14.53238880484661
 31
0.0
  0
LINE
  5
D42
330
6C
100
AcDbEntity
  8
Centerline (ANSI)
  6
CHAIN
 48
0.9524481296539306
100
AcDbLine
 10
19.33393547393209
 20
13.52481304727085
 30
0.0
 11
19.33393547393209
 21
54.69996456242236
 31
0.0
  0
LINE
  5
D43
330
6C
100
AcDbEntity
  8
Center Mark (ANSI)
  6
CHAIN
 48
0.1674256026744842
100
AcDbLine
 10
19.33393547393209
 20
53.85621456242236
 30
0.0
 11
19.33393547393209
 21
52.02856304727085
 31
0.0
  0
LINE
  5
D44
330
6C
100
AcDbEntity
  8
Center Mark (ANSI)
  6
CHAIN
 48
0.1674256026744842
100
AcDbLine
 10
46.49393547393208
 20
53.85621456242237
 30
0.0
 11
46.49393547393208
 21
52.02856304727086
 31
0.0
  0
LINE
  5
D45
330
6C
100
AcDbEntity
  8
Centerline (ANSI)
  6
CHAIN
 48
0.9524481296539306
100
AcDbLine
 10
18.42010971635633
 20
52.9423888048466
 30
0.0
 11
47.40776123150785
 21
52.94238880484662
 31
0.0
  0
LINE
  5
D46
330
6C
100
AcDbEntity
  8
Center Mark (ANSI)
  6
CHAIN
 48
0.1674256026744842
100
AcDbLine
 10
19.33393547393209
 20
16.19621456242237
 30
0.0
 11
19.33393547393209
 21
14.36856304727085
 31
0.0
  0
LINE
  5
D47
330
6C
100
AcDbEntity
  8
Center Mark (ANSI)
  6
CHAIN
 48
0.1674256026744842
100
AcDbLine
 10
46.49393547393208
 20
16.19621456242237
 30
0.0
 11
46.49393547393208
 21
14.36856304727085
 31
0.0
  0
LINE
  5
D48
330
6C
100
AcDbEntity
  8
Centerline (ANSI)
  6
CHAIN
 48
0.9524481296539306
100
AcDbLine
 10
18.42010971635633
 20
15.28238880484661
 30
0.0
 11
47.40776123150785
 21
15.28238880484661
 31
0.0
  0
DIMENSION
  5
D49
330
6C
100
AcDbEntity
  8
Dimension (ANSI)
100
AcDbDimension
  2
*D16
 10
65.6550494170431
 20
49.34478250563402
 30
0.0
 11
67.96248824665465
 21
49.34478250563402
 31
0.0
 70
   160
  1
<>
 42
0.7740000000000009
  3
Default (ANSI)
100
AcDbAlignedDimension
 13
64.8810494170431
 23
53.71238880484662
 33
0.0
 14
65.6550494170431
 24
52.49438880484661
 34
0.0
 50
180.0
100
AcDbRotatedDimension
1001
ACAD
1000
DSTYLE
1002
{
1070
   289
1070
     1
1070
    73
1070
     0
1070
    74
1070
     0
1070
   271
1070
     2
1070
    76
1070
     1
1070
   272
1070
     2
1070
    48
1040
0.0
1070
    47
1040
0.0
1002
}
  0
LINE
  5
E2E
330
6C
100
AcDbEntity
  8
Center Mark (ANSI)
  6
CHAIN
 48
0.1846121698617935
100
AcDbLine
 10
19.33393547393209
 20
35.11996456242237
 30
0.0
 11
19.33393547393209
 21
33.10481304727086
 31
0.0
  0
LINE
  5
E2F
330
6C
100
AcDbEntity
  8
Center Mark (ANSI)
  6
CHAIN
 48
0.1846121698617935
100
AcDbLine
 10
46.49393547393208
 20
35.11996456242237
 30
0.0
 11
46.49393547393208
 21
33.10481304727085
 31
0.0
  0
LINE
  5
E30
330
6C
100
AcDbEntity
  8
Centerline (ANSI)
  6
CHAIN
 48
0.9524481296539306
100
AcDbLine
 10
18.32635971635633
 20
34.11238880484661
 30
0.0
 11
47.50151123150785
 21
34.1123888048466
 31
0.0
  0
DIMENSION
  5
E31
330
6C
100
AcDbEntity
  8
Dimension (ANSI)
100
AcDbDimension
  2
*D17
 10
50.31164007903828
 20
14.53238880484661
 30
0.0
 11
50.31164007903828
 21
24.32238880484661
 31
0.0
 70
   160
  1
<>{\PTYP.}
 71
     5
 42
19.57999999999999
  3
Default (ANSI)
100
AcDbAlignedDimension
 13
46.49393547393208
 23
34.1123888048466
 33
0.0
 14
46.49393547393208
 24
14.53238880484661
 34
0.0
 50
90.0
100
AcDbRotatedDimension
1001
ACAD
1000
DSTYLE
1002
{
1070
   289
1070
     1
1070
   271
1070
     2
1070
   272
1070
     2
1070
    48
1040
0.0
1070
    47
1040
0.0
1002
}
  0
ENDSEC
  0
SECTION
  2
OBJECTS
  0
DICTIONARY
  5
C
330
0
100
AcDbDictionary
281
     1
  3
ACAD_CIP_PREVIOUS_PRODUCT_INFO
350
F2F
  3
ACAD_COLOR
350
63
  3
ACAD_GROUP
350
D
  3
ACAD_LAYOUT
350
62
  3
ACAD_MATERIAL
350
10
  3
ACAD_MLEADERSTYLE
350
66
  3
ACAD_MLINESTYLE
350
5F
  3
ACAD_PLOTSETTINGS
350
61
  3
ACAD_PLOTSTYLENAME
350
E
  3
ACAD_SCALELIST
350
42
  3
ACAD_TABLESTYLE
350
64
  3
ACAD_VISUALSTYLE
350
29
  3
ACDB_RECOMPOSE_DATA
350
F3F
  3
AcDbVariableDictionary
350
76
  3
DWGPROPS
350
F40
  0
DICTIONARY
  5
F7C
330
860
100
AcDbDictionary
280
     1
281
     1
  3
ACAD_MTEXT_RT
360
F7D
  0
DICTIONARY
  5
F7E
330
909
100
AcDbDictionary
280
     1
281
     1
  3
ACAD_MTEXT_RT
360
F7F
  0
DICTIONARY
  5
F3D
330
D39
100
AcDbDictionary
280
     1
281
     1
  3
ACAD_MTEXT_2008_RT
360
F3E
  0
XRECORD
  5
F2F
102
{ACAD_REACTORS
330
C
102
}
330
C
100
AcDbXrecord
280
     1
300
INVNTOR
300
2012
300
85795PDSP_2012_0F
  0
DICTIONARY
  5
63
102
{ACAD_REACTORS
330
C
102
}
330
C
100
AcDbDictionary
281
     1
  0
DICTIONARY
  5
D
102
{ACAD_REACTORS
330
C
102
}
330
C
100
AcDbDictionary
281
     1
  0
DICTIONARY
  5
62
102
{ACAD_REACTORS
330
C
102
}
330
C
100
AcDbDictionary
281
     1
  3
Layout1
350
6B
  3
Layout2
350
73
  3
Model
350
6F
  0
DICTIONARY
  5
10
102
{ACAD_REACTORS
330
C
102
}
330
C
100
AcDbDictionary
281
     1
  3
ByBlock
350
19
  3
ByLayer
350
11
  3
Global
350
21
  0
DICTIONARY
  5
66
102
{ACAD_REACTORS
330
C
102
}
330
C
100
AcDbDictionary
281
     1
  3
Standard
350
67
  0
DICTIONARY
  5
5F
102
{ACAD_REACTORS
330
C
102
}
330
C
100
AcDbDictionary
281
     1
  3
Standard
350
60
  0
DICTIONARY
  5
61
102
{ACAD_REACTORS
330
C
102
}
330
C
100
AcDbDictionary
281
     1
  0
ACDBDICTIONARYWDFLT
  5
E
102
{ACAD_REACTORS
330
C
102
}
330
C
100
AcDbDictionary
281
     1
  3
Normal
350
F
100
AcDbDictionaryWithDefault
340
F
  0
DICTIONARY
  5
42
102
{ACAD_REACTORS
330
C
102
}
330
C
100
AcDbDictionary
281
     1
  3
A0
350
43
  3
A1
350
44
  3
A2
350
45
  3
A3
350
46
  3
A4
350
47
  3
A5
350
48
  3
A6
350
49
  3
A7
350
4A
  3
A8
350
4B
  3
A9
350
4C
  3
B0
350
4D
  3
B1
350
4E
  3
B2
350
4F
  3
B3
350
50
  3
B4
350
51
  3
B5
350
52
  3
B6
350
53
  0
DICTIONARY
  5
64
102
{ACAD_REACTORS
330
C
102
}
330
C
100
AcDbDictionary
281
     1
  3
Standard
350
65
  0
DICTIONARY
  5
29
102
{ACAD_REACTORS
330
C
102
}
330
C
100
AcDbDictionary
281
     1
  3
2dWireframe
350
2F
  3
Basic
350
2E
  3
Brighten
350
35
  3
ColorChange
350
39
  3
Conceptual
350
32
  3
Dim
350
34
  3
EdgeColorOff
350
41
  3
Facepattern
350
38
  3
Flat
350
2A
  3
FlatWithEdges
350
2B
  3
Gouraud
350
2C
  3
GouraudWithEdges
350
2D
  3
Hidden
350
31
  3
JitterOff
350
3F
  3
Linepattern
350
37
  3
OverhangOff
350
40
  3
Realistic
350
33
  3
Shaded
350
3E
  3
Shaded with edges
350
3D
  3
Shades of Gray
350
3A
  3
Sketchy
350
3B
  3
Thicken
350
36
  3
Wireframe
350
30
  3
X-Ray
350
3C
  0
XRECORD
  5
F3F
102
{ACAD_REACTORS
330
C
102
}
330
C
100
AcDbXrecord
280
     1
 90
        1
330
65
330
D39
  0
DICTIONARY
  5
76
102
{ACAD_REACTORS
330
C
102
}
330
C
100
AcDbDictionary
281
     1
  3
CANNOSCALE
350
79
  3
CMLEADERSTYLE
350
78
  3
CTABLESTYLE
350
77
  3
DIMASSOC
350
F37
  3
HIDETEXT
350
F36
  3
INDEXCTL
350
F35
  3
LAYEREVAL
350
F32
  3
LAYERNOTIFY
350
F33
  3
LIGHTINGUNITS
350
F31
  3
MSLTSCALE
350
F30
  3
SORTENTS
350
F34
  3
XCLIPFRAME
350
F38
  0
XRECORD
  5
F40
102
{ACAD_REACTORS
330
C
102
}
330
C
100
AcDbXrecord
280
     1
  1
DWGPROPS COOKIE
  2

  3

  4
JF
  6

  7

  8

  9
-
300
Manager=
301
Company=
302
Category=
303
Part Number=NP4230CG-S
304
Description=
305
Project=
306
Designer=JF
307
Engineer=
308
Authority=
309
Cost Center=
 40
0.0000616666666667
 41
2455950.341524167
 42
2455950.341524167
  1

 90
       22
300
Vendor=
300
User Status=
300
Design Status=WorkInProgress
300
Checked by=DN
300
Date Checked=01/18/2012
300
Engr Approved by=
300
Date Eng Approved=01/18/2012
300
Mfg Approved by=
300
Date Mfg Approved=01/18/2012
300
DWG. NO=
300
NUMBER OF SHEETS=1
300
DRAWING #=
  0
XRECORD
  5
F7D
102
{ACAD_REACTORS
330
F7C
102
}
330
F7C
100
AcDbXrecord
280
     1
 40
28833.0
  1
\A1;\U+22050.50{ TYP. (8 PL.)}
  0
XRECORD
  5
F7F
102
{ACAD_REACTORS
330
F7E
102
}
330
F7E
100
AcDbXrecord
280
     1
 40
28724.0
  1
\A1;\U+22050.31{ TYP. (4 PL.)}
  0
XRECORD
  5
F3E
102
{ACAD_REACTORS
330
F3D
102
}
330
F3D
100
AcDbXrecord
280
     1
 40
4126572.0
  1
\pxsm0.94;{\fRomanS|b0|i0;\H1.2122;PART#: NP4230CG\P(DATA SUBJECT TO CHANGE WITHOUT NOTICE) \P\fRomanS|b0|i0;\H0.7273;THIS DRAWING IS PROPERTY OF HUBBELL INC. WIEGMANN\PALL INFORMATION IS PROPRIETARY AND NOT TO BE DUPLICATED\P}
  0
LAYOUT
  5
6B
102
{ACAD_XDICTIONARY
360
F76
102
}
102
{ACAD_REACTORS
330
62
102
}
330
62
100
AcDbPlotSettings
  1

  2

  4

  6

 40
0.0
 41
0.0
 42
0.0
 43
0.0
 44
0.0
 45
0.0
 46
0.0
 47
0.0
 48
0.0
 49
0.0
140
0.0
141
0.0
142
1.0
143
1.0
 70
   688
 72
     0
 73
     0
 74
     5
  7

 75
    16
147
1.0
148
0.0
149
0.0
100
AcDbLayout
  1
Layout1
 70
     1
 71
     1
 10
0.0
 20
0.0
 11
12.0
 21
9.0
 12
0.0
 22
0.0
 32
0.0
 14
0.0
 24
0.0
 34
0.0
 15
0.0
 25
0.0
 35
0.0
146
0.0
 13
0.0
 23
0.0
 33
0.0
 16
1.0
 26
0.0
 36
0.0
 17
0.0
 27
1.0
 37
0.0
 76
     0
330
68
  0
LAYOUT
  5
73
102
{ACAD_XDICTIONARY
360
F7A
102
}
102
{ACAD_REACTORS
330
62
102
}
330
62
100
AcDbPlotSettings
  1

  2

  4

  6

 40
0.0
 41
0.0
 42
0.0
 43
0.0
 44
0.0
 45
0.0
 46
0.0
 47
0.0
 48
0.0
 49
0.0
140
0.0
141
0.0
142
1.0
143
1.0
 70
   688
 72
     0
 73
     0
 74
     5
  7

 75
    16
147
1.0
148
0.0
149
0.0
100
AcDbLayout
  1
Layout2
 70
     1
 71
     2
 10
0.0
 20
0.0
 11
12.0
 21
9.0
 12
0.0
 22
0.0
 32
0.0
 14
0.0
 24
0.0
 34
0.0
 15
0.0
 25
0.0
 35
0.0
146
0.0
 13
0.0
 23
0.0
 33
0.0
 16
1.0
 26
0.0
 36
0.0
 17
0.0
 27
1.0
 37
0.0
 76
     0
330
70
  0
LAYOUT
  5
6F
102
{ACAD_XDICTIONARY
360
F78
102
}
102
{ACAD_REACTORS
330
62
102
}
330
62
100
AcDbPlotSettings
  1

  2

  4

  6

 40
0.0
 41
0.0
 42
0.0
 43
0.0
 44
0.0
 45
0.0
 46
0.0
 47
0.0
 48
0.0
 49
0.0
140
0.0
141
0.0
142
1.0
143
1.0
 70
  1712
 72
     0
 73
     0
 74
     0
  7

 75
     0
147
1.0
148
0.0
149
0.0
100
AcDbLayout
  1
Model
 70
     1
 71
     0
 10
0.0
 20
0.0
 11
12.0
 21
9.0
 12
0.0
 22
0.0
 32
0.0
 14
0.0
 24
0.0
 34
0.0
 15
0.0
 25
0.0
 35
0.0
146
0.0
 13
0.0
 23
0.0
 33
0.0
 16
1.0
 26
0.0
 36
0.0
 17
0.0
 27
1.0
 37
0.0
 76
     0
330
6C
  0
MATERIAL
  5
19
102
{ACAD_XDICTIONARY
360
1A
102
}
102
{ACAD_REACTORS
330
10
102
}
330
10
100
AcDbMaterial
  1
ByBlock
 72
     0
 43
0.0208333333333333
 43
0.0
 43
0.0
 43
0.0
 43
0.0
 43
0.0208333333333333
 43
0.0
 43
0.0
 43
0.0
 43
0.0
 43
1.0
 43
0.0
 43
0.0
 43
0.0
 43
0.0
 43
1.0
 77
     0
 47
0.0208333333333333
 47
0.0
 47
0.0
 47
0.0
 47
0.0
 47
0.0208333333333333
 47
0.0
 47
0.0
 47
0.0
 47
0.0
 47
1.0
 47
0.0
 47
0.0
 47
0.0
 47
0.0
 47
1.0
171
     0
 49
0.0208333333333333
 49
0.0
 49
0.0
 49
0.0
 49
0.0
 49
0.0208333333333333
 49
0.0
 49
0.0
 49
0.0
 49
0.0
 49
1.0
 49
0.0
 49
0.0
 49
0.0
 49
0.0
 49
1.0
175
     0
142
0.0208333333333333
142
0.0
142
0.0
142
0.0
142
0.0
142
0.0208333333333333
142
0.0
142
0.0
142
0.0
142
0.0
142
1.0
142
0.0
142
0.0
142
0.0
142
0.0
142
1.0
179
     0
144
0.0208333333333333
144
0.0
144
0.0
144
0.0
144
0.0
144
0.0208333333333333
144
0.0
144
0.0
144
0.0
144
0.0
144
1.0
144
0.0
144
0.0
144
0.0
144
0.0
144
1.0
147
0.0208333333333333
147
0.0
147
0.0
147
0.0
147
0.0
147
0.0208333333333333
147
0.0
147
0.0
147
0.0
147
0.0
147
1.0
147
0.0
147
0.0
147
0.0
147
0.0
147
1.0
  0
MATERIAL
  5
11
102
{ACAD_XDICTIONARY
360
12
102
}
102
{ACAD_REACTORS
330
10
102
}
330
10
100
AcDbMaterial
  1
ByLayer
 72
     0
 43
0.0208333333333333
 43
0.0
 43
0.0
 43
0.0
 43
0.0
 43
0.0208333333333333
 43
0.0
 43
0.0
 43
0.0
 43
0.0
 43
1.0
 43
0.0
 43
0.0
 43
0.0
 43
0.0
 43
1.0
 77
     0
 47
0.0208333333333333
 47
0.0
 47
0.0
 47
0.0
 47
0.0
 47
0.0208333333333333
 47
0.0
 47
0.0
 47
0.0
 47
0.0
 47
1.0
 47
0.0
 47
0.0
 47
0.0
 47
0.0
 47
1.0
171
     0
 49
0.0208333333333333
 49
0.0
 49
0.0
 49
0.0
 49
0.0
 49
0.0208333333333333
 49
0.0
 49
0.0
 49
0.0
 49
0.0
 49
1.0
 49
0.0
 49
0.0
 49
0.0
 49
0.0
 49
1.0
175
     0
142
0.0208333333333333
142
0.0
142
0.0
142
0.0
142
0.0
142
0.0208333333333333
142
0.0
142
0.0
142
0.0
142
0.0
142
1.0
142
0.0
142
0.0
142
0.0
142
0.0
142
1.0
179
     0
144
0.0208333333333333
144
0.0
144
0.0
144
0.0
144
0.0
144
0.0208333333333333
144
0.0
144
0.0
144
0.0
144
0.0
144
1.0
144
0.0
144
0.0
144
0.0
144
0.0
144
1.0
147
0.0208333333333333
147
0.0
147
0.0
147
0.0
147
0.0
147
0.0208333333333333
147
0.0
147
0.0
147
0.0
147
0.0
147
1.0
147
0.0
147
0.0
147
0.0
147
0.0
147
1.0
  0
MATERIAL
  5
21
102
{ACAD_XDICTIONARY
360
22
102
}
102
{ACAD_REACTORS
330
10
102
}
330
10
100
AcDbMaterial
  1
Global
 72
     0
 43
0.0208333333333333
 43
0.0
 43
0.0
 43
0.0
 43
0.0
 43
0.0208333333333333
 43
0.0
 43
0.0
 43
0.0
 43
0.0
 43
1.0
 43
0.0
 43
0.0
 43
0.0
 43
0.0
 43
1.0
 77
     0
 47
0.0208333333333333
 47
0.0
 47
0.0
 47
0.0
 47
0.0
 47
0.0208333333333333
 47
0.0
 47
0.0
 47
0.0
 47
0.0
 47
1.0
 47
0.0
 47
0.0
 47
0.0
 47
0.0
 47
1.0
171
     0
 49
0.0208333333333333
 49
0.0
 49
0.0
 49
0.0
 49
0.0
 49
0.0208333333333333
 49
0.0
 49
0.0
 49
0.0
 49
0.0
 49
1.0
 49
0.0
 49
0.0
 49
0.0
 49
0.0
 49
1.0
175
     0
142
0.0208333333333333
142
0.0
142
0.0
142
0.0
142
0.0
142
0.0208333333333333
142
0.0
142
0.0
142
0.0
142
0.0
142
1.0
142
0.0
142
0.0
142
0.0
142
0.0
142
1.0
179
     0
144
0.0208333333333333
144
0.0
144
0.0
144
0.0
144
0.0
144
0.0208333333333333
144
0.0
144
0.0
144
0.0
144
0.0
144
1.0
144
0.0
144
0.0
144
0.0
144
0.0
144
1.0
147
0.0208333333333333
147
0.0
147
0.0
147
0.0
147
0.0
147
0.0208333333333333
147
0.0
147
0.0
147
0.0
147
0.0
147
1.0
147
0.0
147
0.0
147
0.0
147
0.0
147
1.0
  0
MLEADERSTYLE
  5
67
102
{ACAD_XDICTIONARY
360
F3B
102
}
102
{ACAD_REACTORS
330
66
102
}
330
66
100
AcDbMLeaderStyle
170
     2
171
     1
172
     0
 90
        2
 40
0.0
 41
0.0
173
     1
 91
-1056964608
340
5B
 92
       -2
290
     1
 42
0.09
291
     1
 43
0.36
  3
Standard
 44
0.18
300

342
55
174
     1
178
     6
175
     1
176
     0
 93
-1056964608
 45
0.18
292
     0
297
     0
 46
0.18
 94
-1056964608
 47
1.0
 49
1.0
140
1.0
293
     1
141
0.0
294
     1
177
     0
142
1.0
295
     0
296
     0
143
0.125
1001
ACAD_MLEADERVER
1070
     2
  0
MLINESTYLE
  5
60
102
{ACAD_REACTORS
330
5F
102
}
330
5F
100
AcDbMlineStyle
  2
STANDARD
 70
     0
  3

 62
   256
 51
90.0
 52
90.0
 71
     2
 49
0.5
 62
   256
  6
BYLAYER
 49
-0.5
 62
   256
  6
BYLAYER
  0
ACDBPLACEHOLDER
  5
F
102
{ACAD_REACTORS
330
E
102
}
330
E
  0
SCALE
  5
43
102
{ACAD_REACTORS
330
42
102
}
330
42
100
AcDbScale
 70
     0
300
1:1
140
1.0
141
1.0
290
     1
  0
SCALE
  5
44
102
{ACAD_REACTORS
330
42
102
}
330
42
100
AcDbScale
 70
     0
300
1/128" = 1'-0"
140
0.0078125
141
12.0
290
     0
  0
SCALE
  5
45
102
{ACAD_REACTORS
330
42
102
}
330
42
100
AcDbScale
 70
     0
300
1/64" = 1'-0"
140
0.015625
141
12.0
290
     0
  0
SCALE
  5
46
102
{ACAD_REACTORS
330
42
102
}
330
42
100
AcDbScale
 70
     0
300
1/32" = 1'-0"
140
0.03125
141
12.0
290
     0
  0
SCALE
  5
47
102
{ACAD_REACTORS
330
42
102
}
330
42
100
AcDbScale
 70
     0
300
1/16" = 1'-0"
140
0.0625
141
12.0
290
     0
  0
SCALE
  5
48
102
{ACAD_REACTORS
330
42
102
}
330
42
100
AcDbScale
 70
     0
300
3/32" = 1'-0"
140
0.09375
141
12.0
290
     0
  0
SCALE
  5
49
102
{ACAD_REACTORS
330
42
102
}
330
42
100
AcDbScale
 70
     0
300
1/8" = 1'-0"
140
0.125
141
12.0
290
     0
  0
SCALE
  5
4A
102
{ACAD_REACTORS
330
42
102
}
330
42
100
AcDbScale
 70
     0
300
3/16" = 1'-0"
140
0.1875
141
12.0
290
     0
  0
SCALE
  5
4B
102
{ACAD_REACTORS
330
42
102
}
330
42
100
AcDbScale
 70
     0
300
1/4" = 1'-0"
140
0.25
141
12.0
290
     0
  0
SCALE
  5
4C
102
{ACAD_REACTORS
330
42
102
}
330
42
100
AcDbScale
 70
     0
300
3/8" = 1'-0"
140
0.375
141
12.0
290
     0
  0
SCALE
  5
4D
102
{ACAD_REACTORS
330
42
102
}
330
42
100
AcDbScale
 70
     0
300
1/2" = 1'-0"
140
0.5
141
12.0
290
     0
  0
SCALE
  5
4E
102
{ACAD_REACTORS
330
42
102
}
330
42
100
AcDbScale
 70
     0
300
3/4" = 1'-0"
140
0.75
141
12.0
290
     0
  0
SCALE
  5
4F
102
{ACAD_REACTORS
330
42
102
}
330
42
100
AcDbScale
 70
     0
300
1" = 1'-0"
140
1.0
141
12.0
290
     0
  0
SCALE
  5
50
102
{ACAD_REACTORS
330
42
102
}
330
42
100
AcDbScale
 70
     0
300
1-1/2" = 1'-0"
140
1.5
141
12.0
290
     0
  0
SCALE
  5
51
102
{ACAD_REACTORS
330
42
102
}
330
42
100
AcDbScale
 70
     0
300
3" = 1'-0"
140
3.0
141
12.0
290
     0
  0
SCALE
  5
52
102
{ACAD_REACTORS
330
42
102
}
330
42
100
AcDbScale
 70
     0
300
6" = 1'-0"
140
6.0
141
12.0
290
     0
  0
SCALE
  5
53
102
{ACAD_REACTORS
330
42
102
}
330
42
100
AcDbScale
 70
     0
300
1'-0" = 1'-0"
140
12.0
141
12.0
290
     0
  0
TABLESTYLE
  5
65
102
{ACAD_XDICTIONARY
360
F39
102
}
102
{ACAD_REACTORS
330
64
102
}
330
64
100
AcDbTableStyle
  3
Standard
 70
     0
 71
     0
 40
0.06
 41
0.06
280
     0
281
     0
  7
Standard
140
0.18
170
     2
 62
     0
 63
     7
283
     0
274
    -2
284
     1
 64
     0
275
    -2
285
     1
 65
     0
276
    -2
286
     1
 66
     0
277
    -2
287
     1
 67
     0
278
    -2
288
     1
 68
     0
279
    -2
289
     1
 69
     0
  7
Standard
140
0.25
170
     5
 62
     0
 63
     7
283
     0
274
    -2
284
     1
 64
     0
275
    -2
285
     1
 65
     0
276
    -2
286
     1
 66
     0
277
    -2
287
     1
 67
     0
278
    -2
288
     1
 68
     0
279
    -2
289
     1
 69
     0
  7
Standard
140
0.18
170
     5
 62
     0
 63
     7
283
     0
274
    -2
284
     1
 64
     0
275
    -2
285
     1
 65
     0
276
    -2
286
     1
 66
     0
277
    -2
287
     1
 67
     0
278
    -2
288
     1
 68
     0
279
    -2
289
     1
 69
     0
  0
VISUALSTYLE
  5
2F
102
{ACAD_XDICTIONARY
360
F4E
102
}
102
{ACAD_REACTORS
330
29
102
}
330
29
100
AcDbVisualStyle
  2
2dWireframe
 70
     4
 71
     0
 72
     2
 73
     0
 90
        0
 40
-0.6
 41
-30.0
 62
     5
 63
     7
 74
     1
 91
        4
 64
     7
 65
   257
 75
     1
175
     1
 42
1.0
 92
        0
 66
   257
 43
1.0
 76
     1
 77
     6
 78
     2
 67
     7
 79
     5
170
     0
171
     0
290
     0
174
     0
 93
        1
 44
0.0
173
     0
291
     0
 45
0.0
1001
ACAD
1000
AcDbSavedByObjectVersion
1070
     0
  0
VISUALSTYLE
  5
2E
102
{ACAD_XDICTIONARY
360
F4C
102
}
102
{ACAD_REACTORS
330
29
102
}
330
29
100
AcDbVisualStyle
  2
Basic
 70
     7
 71
     1
 72
     0
 73
     1
 90
        0
 40
-0.6
 41
-30.0
 62
     5
 63
     7
 74
     0
 91
        4
 64
     7
 65
   257
 75
     1
175
     1
 42
1.0
 92
        8
 66
     7
 43
1.0
 76
     1
 77
     6
 78
     2
 67
     7
 79
     5
170
     0
171
     0
290
     0
174
     0
 93
        1
 44
0.0
173
     0
291
     1
 45
0.0
1001
ACAD
1000
AcDbSavedByObjectVersion
1070
     0
  0
VISUALSTYLE
  5
35
102
{ACAD_XDICTIONARY
360
F5A
102
}
102
{ACAD_REACTORS
330
29
102
}
330
29
100
AcDbVisualStyle
  2
Brighten
 70
    12
 71
     2
 72
     2
 73
     0
 90
        0
 40
-0.6
 41
-30.0
 62
     5
 63
     7
 74
     1
 91
        4
 64
     7
 65
   257
 75
     1
175
     1
 42
1.0
 92
        8
 66
     7
 43
1.0
 76
     1
 77
     6
 78
     2
 67
     7
 79
     5
170
     0
171
     0
290
     0
174
     0
 93
        1
 44
50.0
173
     0
291
     1
 45
0.0
1001
ACAD
1000
AcDbSavedByObjectVersion
1070
     0
  0
VISUALSTYLE
  5
39
102
{ACAD_XDICTIONARY
360
F62
102
}
102
{ACAD_REACTORS
330
29
102
}
330
29
100
AcDbVisualStyle
  2
ColorChange
 70
    16
 71
     2
 72
     2
 73
     3
 90
        0
 40
-0.6
 41
-30.0
 62
     5
 63
     8
 74
     1
 91
        4
 64
     7
 65
   257
 75
     1
175
     1
 42
1.0
 92
        8
 66
     8
 43
1.0
 76
     1
 77
     6
 78
     2
 67
     7
 79
     5
170
     0
171
     0
290
     0
174
     0
 93
        1
 44
0.0
173
     0
291
     1
 45
0.0
1001
ACAD
1000
AcDbSavedByObjectVersion
1070
     0
  0
VISUALSTYLE
  5
32
102
{ACAD_XDICTIONARY
360
F54
102
}
102
{ACAD_REACTORS
330
29
102
}
330
29
100
AcDbVisualStyle
  2
Conceptual
 70
     9
 71
     3
 72
     2
 73
     0
 90
        0
 40
-0.6
 41
-30.0
 62
     5
 63
     7
 74
     2
 91
        2
 64
     7
 65
   257
 75
     1
175
     1
 42
179.0
 92
        8
 66
     7
 43
1.0
 76
     1
 77
     6
 78
     2
 67
     7
 79
     3
170
     0
171
     0
290
     0
174
     0
 93
        1
 44
0.0
173
     0
291
     0
 45
0.0
1001
ACAD
1000
AcDbSavedByObjectVersion
1070
     0
  0
VISUALSTYLE
  5
34
102
{ACAD_XDICTIONARY
360
F58
102
}
102
{ACAD_REACTORS
330
29
102
}
330
29
100
AcDbVisualStyle
  2
Dim
 70
    11
 71
     2
 72
     2
 73
     0
 90
        0
 40
-0.6
 41
-30.0
 62
     5
 63
     7
 74
     1
 91
        4
 64
     7
 65
   257
 75
     1
175
     1
 42
1.0
 92
        8
 66
     7
 43
1.0
 76
     1
 77
     6
 78
     2
 67
     7
 79
     5
170
     0
171
     0
290
     0
174
     0
 93
        1
 44
-50.0
173
     0
291
     1
 45
0.0
1001
ACAD
1000
AcDbSavedByObjectVersion
1070
     0
  0
VISUALSTYLE
  5
41
102
{ACAD_XDICTIONARY
360
F72
102
}
102
{ACAD_REACTORS
330
29
102
}
330
29
100
AcDbVisualStyle
  2
EdgeColorOff
 70
    22
 71
     2
 72
     2
 73
     0
 90
        0
 40
-0.6
 41
-30.0
 62
     5
 63
     7
 74
     1
 91
        4
 64
     7
 65
   257
 75
     1
175
     1
 42
1.0
 92
        8
 66
     7
 43
1.0
 76
     1
 77
     6
 78
     2
 67
     7
 79
     5
170
     0
171
     0
290
     0
174
     0
 93
        1
 44
0.0
173
     0
291
     1
 45
0.0
1001
ACAD
1000
AcDbSavedByObjectVersion
1070
     0
  0
VISUALSTYLE
  5
38
102
{ACAD_XDICTIONARY
360
F60
102
}
102
{ACAD_REACTORS
330
29
102
}
330
29
100
AcDbVisualStyle
  2
Facepattern
 70
    15
 71
     2
 72
     2
 73
     0
 90
        0
 40
-0.6
 41
-30.0
 62
     5
 63
     7
 74
     1
 91
        4
 64
     7
 65
   257
 75
     1
175
     1
 42
1.0
 92
        8
 66
     7
 43
1.0
 76
     1
 77
     6
 78
     2
 67
     7
 79
     5
170
     0
171
     0
290
     0
174
     0
 93
        1
 44
0.0
173
     0
291
     1
 45
0.0
1001
ACAD
1000
AcDbSavedByObjectVersion
1070
     0
  0
VISUALSTYLE
  5
2A
102
{ACAD_XDICTIONARY
360
F44
102
}
102
{ACAD_REACTORS
330
29
102
}
330
29
100
AcDbVisualStyle
  2
Flat
 70
     0
 71
     2
 72
     1
 73
     1
 90
        2
 40
-0.6
 41
30.0
 62
     5
 63
     7
 74
     0
 91
        0
 64
     7
 65
   257
 75
     1
175
     1
 42
1.0
 92
        8
 66
     7
 43
1.0
 76
     1
 77
     6
 78
     2
 67
     7
 79
     5
170
     0
171
     0
290
     0
174
     0
 93
       13
 44
0.0
173
     0
291
     1
 45
0.0
1001
ACAD
1000
AcDbSavedByObjectVersion
1070
     0
  0
VISUALSTYLE
  5
2B
102
{ACAD_XDICTIONARY
360
F46
102
}
102
{ACAD_REACTORS
330
29
102
}
330
29
100
AcDbVisualStyle
  2
FlatWithEdges
 70
     1
 71
     2
 72
     1
 73
     1
 90
        2
 40
-0.6
 41
30.0
 62
     5
 63
     7
 74
     1
 91
        0
 64
     7
 65
   257
 75
     1
175
     1
 42
1.0
 92
        0
 66
   257
 43
1.0
 76
     1
 77
     6
 78
     2
 67
     7
 79
     5
170
     0
171
     0
290
     0
174
     0
 93
       13
 44
0.0
173
     0
291
     1
 45
0.0
1001
ACAD
1000
AcDbSavedByObjectVersion
1070
     0
  0
VISUALSTYLE
  5
2C
102
{ACAD_XDICTIONARY
360
F48
102
}
102
{ACAD_REACTORS
330
29
102
}
330
29
100
AcDbVisualStyle
  2
Gouraud
 70
     2
 71
     2
 72
     2
 73
     1
 90
        2
 40
-0.6
 41
30.0
 62
     5
 63
     7
 74
     0
 91
        0
 64
     7
 65
   257
 75
     1
175
     1
 42
1.0
 92
        0
 66
     7
 43
1.0
 76
     1
 77
     6
 78
     2
 67
     7
 79
     5
170
     0
171
     0
290
     0
174
     0
 93
       13
 44
0.0
173
     0
291
     1
 45
0.0
1001
ACAD
1000
AcDbSavedByObjectVersion
1070
     0
  0
VISUALSTYLE
  5
2D
102
{ACAD_XDICTIONARY
360
F4A
102
}
102
{ACAD_REACTORS
330
29
102
}
330
29
100
AcDbVisualStyle
  2
GouraudWithEdges
 70
     3
 71
     2
 72
     2
 73
     1
 90
        2
 40
-0.6
 41
30.0
 62
     5
 63
     7
 74
     1
 91
        0
 64
     7
 65
   257
 75
     1
175
     1
 42
1.0
 92
        0
 66
   257
 43
1.0
 76
     1
 77
     6
 78
     2
 67
     7
 79
     5
170
     0
171
     0
290
     0
174
     0
 93
       13
 44
0.0
173
     0
291
     1
 45
0.0
1001
ACAD
1000
AcDbSavedByObjectVersion
1070
     0
  0
VISUALSTYLE
  5
31
102
{ACAD_XDICTIONARY
360
F52
102
}
102
{ACAD_REACTORS
330
29
102
}
330
29
100
AcDbVisualStyle
  2
Hidden
 70
     6
 71
     1
 72
     2
 73
     2
 90
        0
 40
-0.6
 41
-30.0
 62
     5
 63
     7
 74
     2
 91
        2
 64
     7
 65
   257
 75
     2
175
     1
 42
40.0
 92
        0
 66
   257
 43
1.0
 76
     1
 77
     6
 78
     2
 67
     7
 79
     3
170
     0
171
     0
290
     0
174
     0
 93
        1
 44
0.0
173
     0
291
     0
 45
0.0
1001
ACAD
1000
AcDbSavedByObjectVersion
1070
     0
  0
VISUALSTYLE
  5
3F
102
{ACAD_XDICTIONARY
360
F6E
102
}
102
{ACAD_REACTORS
330
29
102
}
330
29
100
AcDbVisualStyle
  2
JitterOff
 70
    20
 71
     2
 72
     2
 73
     0
 90
        0
 40
-0.6
 41
-30.0
 62
     5
 63
     7
 74
     1
 91
        4
 64
     7
 65
   257
 75
     1
175
     1
 42
1.0
 92
       10
 66
     7
 43
1.0
 76
     1
 77
     6
 78
     2
 67
     7
 79
     5
170
     0
171
     0
290
     0
174
     0
 93
        1
 44
0.0
173
     0
291
     1
 45
0.0
1001
ACAD
1000
AcDbSavedByObjectVersion
1070
     0
  0
VISUALSTYLE
  5
37
102
{ACAD_XDICTIONARY
360
F5E
102
}
102
{ACAD_REACTORS
330
29
102
}
330
29
100
AcDbVisualStyle
  2
Linepattern
 70
    14
 71
     2
 72
     2
 73
     0
 90
        0
 40
-0.6
 41
-30.0
 62
     5
 63
     7
 74
     1
 91
        4
 64
     7
 65
   257
 75
     7
175
     7
 42
1.0
 92
        8
 66
     7
 43
1.0
 76
     1
 77
     6
 78
     2
 67
     7
 79
     5
170
     0
171
     0
290
     0
174
     0
 93
        1
 44
0.0
173
     0
291
     1
 45
0.0
1001
ACAD
1000
AcDbSavedByObjectVersion
1070
     0
  0
VISUALSTYLE
  5
40
102
{ACAD_XDICTIONARY
360
F70
102
}
102
{ACAD_REACTORS
330
29
102
}
330
29
100
AcDbVisualStyle
  2
OverhangOff
 70
    21
 71
     2
 72
     2
 73
     0
 90
        0
 40
-0.6
 41
-30.0
 62
     5
 63
     7
 74
     1
 91
        4
 64
     7
 65
   257
 75
     1
175
     1
 42
1.0
 92
        9
 66
     7
 43
1.0
 76
     1
 77
     6
 78
     2
 67
     7
 79
     5
170
     0
171
     0
290
     0
174
     0
 93
        1
 44
0.0
173
     0
291
     1
 45
0.0
1001
ACAD
1000
AcDbSavedByObjectVersion
1070
     0
  0
VISUALSTYLE
  5
33
102
{ACAD_XDICTIONARY
360
F56
102
}
102
{ACAD_REACTORS
330
29
102
}
330
29
100
AcDbVisualStyle
  2
Realistic
 70
     8
 71
     2
 72
     3
 73
     0
 90
        2
 40
-0.6
 41
30.0
 62
     5
 63
     7
 74
     0
 91
        0
 64
     7
 65
   257
 75
     1
175
     1
 42
1.0
 92
        8
 66
   257
 43
1.0
 76
     1
 77
     6
 78
     2
 67
     7
 79
     3
170
     0
171
     0
290
     0
174
     0
 93
       13
 44
0.0
173
     0
291
     0
 45
0.0
1001
ACAD
1000
AcDbSavedByObjectVersion
1070
     0
  0
VISUALSTYLE
  5
3E
102
{ACAD_XDICTIONARY
360
F6C
102
}
102
{ACAD_REACTORS
330
29
102
}
330
29
100
AcDbVisualStyle
  2
Shaded
 70
    27
 71
     2
 72
     2
 73
     1
 90
        2
 40
-0.6
 41
30.0
 62
     5
 63
     7
 74
     0
 91
        4
 64
     7
 65
   257
 75
     1
175
     1
 42
1.0
 92
        8
 66
   257
 43
1.0
 76
     1
 77
     6
 78
     2
 67
     8
 79
     3
170
     0
171
     0
290
     0
174
     0
 93
        5
 44
0.0
173
     0
291
     0
 45
0.0
1001
ACAD
1000
AcDbSavedByObjectVersion
1070
     0
  0
VISUALSTYLE
  5
3D
102
{ACAD_XDICTIONARY
360
F6A
102
}
102
{ACAD_REACTORS
330
29
102
}
330
29
100
AcDbVisualStyle
  2
Shaded with edges
 70
    26
 71
     2
 72
     2
 73
     1
 90
        2
 40
-0.6
 41
30.0
 62
     5
 63
     7
 74
     1
 91
       10
 64
     7
 65
   257
 75
     2
175
     1
 42
1.0
 92
        8
 66
   257
 43
1.0
 76
     1
 77
     6
 78
     2
 67
     7
 79
     3
170
     0
171
     0
290
     0
174
     0
 93
        5
 44
0.0
173
     0
291
     0
 45
0.0
1001
ACAD
1000
AcDbSavedByObjectVersion
1070
     0
  0
VISUALSTYLE
  5
3A
102
{ACAD_XDICTIONARY
360
F64
102
}
102
{ACAD_REACTORS
330
29
102
}
330
29
100
AcDbVisualStyle
  2
Shades of Gray
 70
    23
 71
     2
 72
     2
 73
     3
 90
        0
 40
-0.6
 41
-30.0
 62
     5
 63
     7
 74
     2
 91
        2
 64
     7
 65
     7
 75
     1
175
     1
 42
40.0
 92
        8
 66
     7
 43
1.0
 76
     1
 77
     6
 78
     2
 67
     7
 79
     3
170
     0
171
     0
290
     0
174
     0
 93
        1
 44
0.0
173
     0
291
     0
 45
0.0
1001
ACAD
1000
AcDbSavedByObjectVersion
1070
     0
  0
VISUALSTYLE
  5
3B
102
{ACAD_XDICTIONARY
360
F66
102
}
102
{ACAD_REACTORS
330
29
102
}
330
29
100
AcDbVisualStyle
  2
Sketchy
 70
    24
 71
     1
 72
     2
 73
     2
 90
        0
 40
-0.6
 41
-30.0
 62
     5
 63
     7
 74
     2
 91
        2
 64
     7
 65
     7
 75
     1
175
     1
 42
40.0
 92
       11
 66
     7
 43
1.0
 76
     1
 77
     6
 78
     2
 67
     7
 79
     6
170
     0
171
     0
290
     0
174
     0
 93
        1
 44
0.0
173
     0
291
     0
 45
0.0
1001
ACAD
1000
AcDbSavedByObjectVersion
1070
     0
  0
VISUALSTYLE
  5
36
102
{ACAD_XDICTIONARY
360
F5C
102
}
102
{ACAD_REACTORS
330
29
102
}
330
29
100
AcDbVisualStyle
  2
Thicken
 70
    13
 71
     2
 72
     2
 73
     0
 90
        0
 40
-0.6
 41
-30.0
 62
     5
 63
     7
 74
     1
 91
        4
 64
     7
 65
   257
 75
     1
175
     1
 42
1.0
 92
       12
 66
     7
 43
1.0
 76
     1
 77
     6
 78
     2
 67
     7
 79
     5
170
     0
171
     0
290
     0
174
     0
 93
        1
 44
0.0
173
     0
291
     1
 45
0.0
1001
ACAD
1000
AcDbSavedByObjectVersion
1070
     0
  0
VISUALSTYLE
  5
30
102
{ACAD_XDICTIONARY
360
F50
102
}
102
{ACAD_REACTORS
330
29
102
}
330
29
100
AcDbVisualStyle
  2
Wireframe
 70
     5
 71
     0
 72
     2
 73
     0
 90
        0
 40
-0.6
 41
-30.0
 62
     5
 63
     7
 74
     1
 91
        4
 64
     7
 65
   257
 75
     1
175
     1
 42
1.0
 92
        0
 66
   257
 43
1.0
 76
     1
 77
     6
 78
     2
 67
     7
 79
     3
170
     0
171
     0
290
     0
174
     0
 93
        1
 44
0.0
173
     0
291
     0
 45
0.0
1001
ACAD
1000
AcDbSavedByObjectVersion
1070
     0
  0
VISUALSTYLE
  5
3C
102
{ACAD_XDICTIONARY
360
F68
102
}
102
{ACAD_REACTORS
330
29
102
}
330
29
100
AcDbVisualStyle
  2
X-Ray
 70
    25
 71
     2
 72
     2
 73
     1
 90
        1
 40
0.5
 41
-30.0
 62
     5
 63
     7
 74
     1
 91
        0
 64
     7
 65
   257
 75
     1
175
     1
 42
1.0
 92
        8
 66
     7
 43
1.0
 76
     1
 77
     6
 78
     2
 67
     7
 79
     3
170
     0
171
     0
290
     0
174
     0
 93
       13
 44
0.0
173
     0
291
     0
 45
0.0
1001
ACAD
1000
AcDbSavedByObjectVersion
1070
     0
  0
DICTIONARYVAR
  5
79
102
{ACAD_REACTORS
330
76
102
}
330
76
100
DictionaryVariables
280
     0
  1
1:1
  0
DICTIONARYVAR
  5
78
102
{ACAD_REACTORS
330
76
102
}
330
76
100
DictionaryVariables
280
     0
  1
STANDARD
  0
DICTIONARYVAR
  5
77
102
{ACAD_REACTORS
330
76
102
}
330
76
100
DictionaryVariables
280
     0
  1
STANDARD
  0
DICTIONARYVAR
  5
F37
102
{ACAD_REACTORS
330
76
102
}
330
76
100
DictionaryVariables
280
     0
  1
1
  0
DICTIONARYVAR
  5
F36
102
{ACAD_REACTORS
330
76
102
}
330
76
100
DictionaryVariables
280
     0
  1
1
  0
DICTIONARYVAR
  5
F35
102
{ACAD_REACTORS
330
76
102
}
330
76
100
DictionaryVariables
280
     0
  1
0
  0
DICTIONARYVAR
  5
F32
102
{ACAD_REACTORS
330
76
102
}
330
76
100
DictionaryVariables
280
     0
  1
0
  0
DICTIONARYVAR
  5
F33
102
{ACAD_REACTORS
330
76
102
}
330
76
100
DictionaryVariables
280
     0
  1
0
  0
DICTIONARYVAR
  5
F31
102
{ACAD_REACTORS
330
76
102
}
330
76
100
DictionaryVariables
280
     0
  1
2
  0
DICTIONARYVAR
  5
F30
102
{ACAD_REACTORS
330
76
102
}
330
76
100
DictionaryVariables
280
     0
  1
1
  0
DICTIONARYVAR
  5
F34
102
{ACAD_REACTORS
330
76
102
}
330
76
100
DictionaryVariables
280
     0
  1
127
  0
DICTIONARYVAR
  5
F38
102
{ACAD_REACTORS
330
76
102
}
330
76
100
DictionaryVariables
280
     0
  1
2
  0
DICTIONARY
  5
F76
330
6B
100
AcDbDictionary
280
     1
281
     1
  3
ACAD_XREC_ROUNDTRIP
360
F77
  0
DICTIONARY
  5
F7A
330
73
100
AcDbDictionary
280
     1
281
     1
  3
ACAD_XREC_ROUNDTRIP
360
F7B
  0
DICTIONARY
  5
F78
330
6F
100
AcDbDictionary
280
     1
281
     1
  3
ACAD_XREC_ROUNDTRIP
360
F79
  0
DICTIONARY
  5
1A
330
19
100
AcDbDictionary
280
     1
281
     1
  3
ACAD_XREC_ROUNDTRIP
360
F42
  3
BUMPTILE
360
1C
  3
DIFFUSETILE
360
1B
  3
OPACITYTILE
360
1F
  3
REFLECTIONTILE
360
1E
  3
REFRACTIONTILE
360
20
  3
SPECULARTILE
360
1D
  0
DICTIONARY
  5
12
330
11
100
AcDbDictionary
280
     1
281
     1
  3
ACAD_XREC_ROUNDTRIP
360
F41
  3
BUMPTILE
360
14
  3
DIFFUSETILE
360
13
  3
FBXASSET
360
F5
  3
OPACITYTILE
360
17
  3
REFLECTIONTILE
360
16
  3
REFRACTIONTILE
360
18
  3
SPECULARTILE
360
15
  0
DICTIONARY
  5
22
330
21
100
AcDbDictionary
280
     1
281
     1
  3
ACAD_XREC_ROUNDTRIP
360
F43
  3
BUMPTILE
360
24
  3
DIFFUSETILE
360
23
  3
FBXASSET
360
BA
  3
OPACITYTILE
360
27
  3
REFLECTIONTILE
360
26
  3
REFRACTIONTILE
360
28
  3
SPECULARTILE
360
25
  0
DICTIONARY
  5
F3B
330
67
100
AcDbDictionary
280
     1
281
     1
  3
ACAD_XREC_ROUNDTRIP
360
F3C
  0
DICTIONARY
  5
F39
330
65
100
AcDbDictionary
280
     1
281
     1
  3
ACAD_ROUNDTRIP_2008_TABLESTYLE_CELLSTYLEMAP
360
F3A
  3
ACAD_XREC_ROUNDTRIP
360
F74
  0
DICTIONARY
  5
F4E
330
2F
100
AcDbDictionary
280
     1
281
     1
  3
ACAD_XREC_ROUNDTRIP
360
F4F
  0
DICTIONARY
  5
F4C
330
2E
100
AcDbDictionary
280
     1
281
     1
  3
ACAD_XREC_ROUNDTRIP
360
F4D
  0
DICTIONARY
  5
F5A
330
35
100
AcDbDictionary
280
     1
281
     1
  3
ACAD_XREC_ROUNDTRIP
360
F5B
  0
DICTIONARY
  5
F62
330
39
100
AcDbDictionary
280
     1
281
     1
  3
ACAD_XREC_ROUNDTRIP
360
F63
  0
DICTIONARY
  5
F54
330
32
100
AcDbDictionary
280
     1
281
     1
  3
ACAD_XREC_ROUNDTRIP
360
F55
  0
DICTIONARY
  5
F58
330
34
100
AcDbDictionary
280
     1
281
     1
  3
ACAD_XREC_ROUNDTRIP
360
F59
  0
DICTIONARY
  5
F72
330
41
100
AcDbDictionary
280
     1
281
     1
  3
ACAD_XREC_ROUNDTRIP
360
F73
  0
DICTIONARY
  5
F60
330
38
100
AcDbDictionary
280
     1
281
     1
  3
ACAD_XREC_ROUNDTRIP
360
F61
  0
DICTIONARY
  5
F44
330
2A
100
AcDbDictionary
280
     1
281
     1
  3
ACAD_XREC_ROUNDTRIP
360
F45
  0
DICTIONARY
  5
F46
330
2B
100
AcDbDictionary
280
     1
281
     1
  3
ACAD_XREC_ROUNDTRIP
360
F47
  0
DICTIONARY
  5
F48
330
2C
100
AcDbDictionary
280
     1
281
     1
  3
ACAD_XREC_ROUNDTRIP
360
F49
  0
DICTIONARY
  5
F4A
330
2D
100
AcDbDictionary
280
     1
281
     1
  3
ACAD_XREC_ROUNDTRIP
360
F4B
  0
DICTIONARY
  5
F52
330
31
100
AcDbDictionary
280
     1
281
     1
  3
ACAD_XREC_ROUNDTRIP
360
F53
  0
DICTIONARY
  5
F6E
330
3F
100
AcDbDictionary
280
     1
281
     1
  3
ACAD_XREC_ROUNDTRIP
360
F6F
  0
DICTIONARY
  5
F5E
330
37
100
AcDbDictionary
280
     1
281
     1
  3
ACAD_XREC_ROUNDTRIP
360
F5F
  0
DICTIONARY
  5
F70
330
40
100
AcDbDictionary
280
     1
281
     1
  3
ACAD_XREC_ROUNDTRIP
360
F71
  0
DICTIONARY
  5
F56
330
33
100
AcDbDictionary
280
     1
281
     1
  3
ACAD_XREC_ROUNDTRIP
360
F57
  0
DICTIONARY
  5
F6C
330
3E
100
AcDbDictionary
280
     1
281
     1
  3
ACAD_XREC_ROUNDTRIP
360
F6D
  0
DICTIONARY
  5
F6A
330
3D
100
AcDbDictionary
280
     1
281
     1
  3
ACAD_XREC_ROUNDTRIP
360
F6B
  0
DICTIONARY
  5
F64
330
3A
100
AcDbDictionary
280
     1
281
     1
  3
ACAD_XREC_ROUNDTRIP
360
F65
  0
DICTIONARY
  5
F66
330
3B
100
AcDbDictionary
280
     1
281
     1
  3
ACAD_XREC_ROUNDTRIP
360
F67
  0
DICTIONARY
  5
F5C
330
36
100
AcDbDictionary
280
     1
281
     1
  3
ACAD_XREC_ROUNDTRIP
360
F5D
  0
DICTIONARY
  5
F50
330
30
100
AcDbDictionary
280
     1
281
     1
  3
ACAD_XREC_ROUNDTRIP
360
F51
  0
DICTIONARY
  5
F68
330
3C
100
AcDbDictionary
280
     1
281
     1
  3
ACAD_XREC_ROUNDTRIP
360
F69
  0
XRECORD
  5
F77
102
{ACAD_REACTORS
330
F76
102
}
330
F76
100
AcDbXrecord
280
     1
102
SHADEPLOT
 70
     0
102
SHADEPLOTRESLEVEL
 70
     2
102
SHADEPLOTCUSTOMDPI
 70
   300
  0
XRECORD
  5
F7B
102
{ACAD_REACTORS
330
F7A
102
}
330
F7A
100
AcDbXrecord
280
     1
102
SHADEPLOT
 70
     0
102
SHADEPLOTRESLEVEL
 70
     2
102
SHADEPLOTCUSTOMDPI
 70
   300
  0
XRECORD
  5
F79
102
{ACAD_REACTORS
330
F78
102
}
330
F78
100
AcDbXrecord
280
     1
102
SHADEPLOT
 70
     0
102
SHADEPLOTRESLEVEL
 70
     2
102
SHADEPLOTCUSTOMDPI
 70
   300
  0
XRECORD
  5
F42
102
{ACAD_REACTORS
330
1A
102
}
330
1A
100
AcDbXrecord
280
     1
102
MATERIAL
148
0.0
149
0.0
149
0.0
 93
        0
 94
      127
282
     0
 72
     0
 77
     0
171
     0
175
     0
179
     0
273
     0
  0
XRECORD
  5
1C
102
{ACAD_REACTORS
330
1A
102
}
330
1A
100
AcDbXrecord
280
     1
270
     1
271
     1
  0
XRECORD
  5
1B
102
{ACAD_REACTORS
330
1A
102
}
330
1A
100
AcDbXrecord
280
     1
270
     1
271
     1
  0
XRECORD
  5
1F
102
{ACAD_REACTORS
330
1A
102
}
330
1A
100
AcDbXrecord
280
     1
270
     1
271
     1
  0
XRECORD
  5
1E
102
{ACAD_REACTORS
330
1A
102
}
330
1A
100
AcDbXrecord
280
     1
270
     1
271
     1
  0
XRECORD
  5
20
102
{ACAD_REACTORS
330
1A
102
}
330
1A
100
AcDbXrecord
280
     1
270
     1
271
     1
  0
XRECORD
  5
1D
102
{ACAD_REACTORS
330
1A
102
}
330
1A
100
AcDbXrecord
280
     1
270
     1
271
     1
  0
XRECORD
  5
F41
102
{ACAD_REACTORS
330
12
102
}
330
12
100
AcDbXrecord
280
     1
102
MATERIAL
148
0.0
149
0.0
149
0.0
 93
        0
 94
      127
282
     0
 72
     0
 77
     0
171
     0
175
     0
179
     0
273
     0
  0
XRECORD
  5
14
102
{ACAD_REACTORS
330
12
102
}
330
12
100
AcDbXrecord
280
     1
270
     1
271
     1
  0
XRECORD
  5
13
102
{ACAD_REACTORS
330
12
102
}
330
12
100
AcDbXrecord
280
     1
270
     1
271
     1
  0
XRECORD
  5
F5
102
{ACAD_REACTORS
330
12
102
}
330
12
100
AcDbXrecord
280
     1
 70
     1
 90
1959938040
 71
     1
  1
41ED3047-FF2D-4E2B-B72F-23EE3A9DA63D
311
504B03040A00000800007A4137403DEE336E79000000790000001B0000006175746F6465736B2D64657369676E2D7061636B6167652E786D6C3C3F786D6C2076657273696F6E3D22312E302220656E636F64696E673D227574662D3822203F3E3C666F726D6174733E3C666F726D61743E687474703A2F2F736368656D612E
311
6175746F6465736B2E636F6D2F64657369676E2D7061636B6167652F323030393C2F666F726D61743E3C2F666F726D6174733E504B03041400060808007A413740D486FD9CA0000000F4000000130000005B436F6E74656E745F54797065735D2E786D6C7D8EC10E82300C865F65E91D8A1E8C310C0EEA1BF002731658846E
311
D98AC1B77784ABF1D8FE5FBFBF75BBCE937A534CCEB38643598122B6FEE978D0B0485F9C41B54DDD7D022595594E1A469170414C76A4D9A4D207E29CF43ECE46F218070CC6BECC4078ACAA135ACF422C856C0E68EA1BF5669944DDD7BCDE7B1F8E415D77AECB980613C2E4AC91FC167A2B244592486606FC29C8FD7F045B9A
311
EF7053A7E60B504B03041400060808007A413740966611A7E90000007C01000008000000636F72652E786D6C8D90416EC3201045AF82668F0D769C3A1626B292F604BD00828983128365A0EAF18B13476A775DCDF0F96F66F4C5F17BBA932F5C82F5AE075E3020E8B437D68D3DA478A12D90A3148BF7F1970D885313F6B0CA
311
20C5B8F8346F92F62EA28B5975DEE026AA103002D1F7DCF410F4152755A814B323DC8A59E99B1AB1E0AF2EC32959439E4BACC9F3ECC5E202B21E381BEAF64CDF87E644776FEC440756D574387FEC9A961F1AB63F887285A588767AEDD70BAA880664C5784519A755FDC9DA8EF3AEC9CF7DC7982857FB1F28CDE69F50B22ED6
311
D576EE130B20793EE4F12145B96691CB23A85CD7DCE40F504B03041400060808007A41374055019EA25F0000007C00000007000000636E782E786D6C4DCB3B0E80201045D1AD90E915ED2CF8AC45050C11660C8261F98AB1B07AC9C97D42D718D865D3E909258CFD00CCE24AC6E326A164D74DC0B4128928FF326038472BA1
311
3128B1252AC747C6BAB984FC68F0B87FE8960A5C09FE86CFB69FBA01504B03041400060808007A413740A973660D65010000020300000C0000006662782F636F72652E786D6C8D52ED8E8230107C95A6FFA12D8887A6D410BD7B827B810A9523424B4A4B7CFC5B3E0CE7C51843026567676776801F6E6D830665FBDAE80CB3
311
9062A47461CA5A5719F6EE12A4181D04B7C6B83F6D1869D9AA0C8F652C78658DEF965261B453DA41559B522D45D9F7CA61543470C8705FFCA85686D23BE8E8AF61278BABAC54C84280A14FF0DE5930806691F18EC5E57CE364AE0BEE7D5D2E685D825A7DA995C522CE19CDE3F4147CE6C931D87CD06390D3280EF2D3D72649
311
D92EA1DB1D2723597057B777778555D2A9128B88B228A02C88E26F9AEE19DB27F0BADD53CAC9D8FE40F25DF926C9D7DAC5D16277A6F55830303201FFB685881CEAE5007E88E0640C111E53C28F41432010B293E7E6BEC7154A832A9CB11B404AE35768908D57A04AD1747132A330791A009B3D9D13BD98F37A067C40A92BB0
311
261D1CCFDE8DEA7C565DA2E8940D067743DAD85636ABB9D9E27A5F859ED20BD318FB0E9B2CAB92254C32FEBDE217504B03041400060808007A41374024D3C1C27D0000009D0000000B0000006662782F636E782E786D6C4DCCD10AC2201886E15B91FFDCE62F5606EA7094F7319A1B23A7611A5D7E5BECA0A30F1E3E5ED57E
311
9640DE3EBFE61435E08101F1F19E86394E1A6A19A904D21A95532A7F3720B15FBC868DC1A829A7FADC69F0635F435935CCF1B1A39578E69DBB51E78E48C555726AED0929E3172B503094AE83C6A8E6575A770B9B2F504B03041400060808007A413740F830F3702A01000014020000310000006662782F4138313732424645
311
2D464635312D344438322D414136312D3032394134313430313846422F636F72652E786D6C8D514B6EC32014BC0A62952EB08138AE13612247AD4FD00B5020294A0C169F2AC72FD48ED4EEB2E1C130336FF41E3BDEA71BF8D63E18677B482A0C81B6D229632F3D4CF18C3A088E9C79E7E21F1A04564CBA8705869C5DBC4BF3
311
0A4967A3B631A3D629BD8222041D2190B77CE961905F7A1295483133C2B59A85BC8A8BAE4895BF338FB3107D0E009626E5847CE8C82B3D8DEF681C7704356F1D45C3D01284E97E68488349379E58BD08394BC9A8556E548E63CE46FB674D8A98B368A6477CE9B5885A414E31A1081344B71FB83B1072D8E5677BC098D585FE
311
4F9466F5A428191BB7748DBBC802E484D5CB0767CAA5CFDB238CBECFCE4750FA6D82962F90E30A534CE9BED9B27AA1E60164CFB6593D43743E0F7873FDCC6CB25B8CDB86B3BAEC2897DF05E65AF6C97F00504B03041400060808007A4137406B03FBF64C01000033030000300000006662782F41383137324246452D464635
311
312D344438322D414136312D3032394134313430313846422F636E782E786D6CD593CD6EC23010845FC5F23D3F068A10728CD4439FA0875E1D7B0117C78EFC5395B7EF1A0CE5C2A1C75EAC64F6F3CC6A94F0DDF764C9178468BC1B286B7B4AC029AF8D3B0C34A77DB3A1642778F03E3D60943839C1408B4C053F049FE72A69
311
D8CB6C13AAD6B8531503449F83828872B949AC57D2A201B826A308D3085A832677109FF610701514C7334947206FAF1FC48F9FA052E45D7111BC2B198297B3263D4094282B631C68544798642B73F21AE2A9D532C996B5B7AC273BFD3A9172E116998321257CA0E5A4A26ED4628FBCC3A1E031056CAF42E93C0315729EAD51
311
3261C9DD05BC328267E3D27A555983C507A4D97AB95AA1D96526783213544205900934158B9E2D9A9E358BE57BBFD932B67DC1D7F5B6EF795770C147EF6DBD843610FC4C9477095CA282F1AE8C9FD55739A24DC0AE7D38FFA1482CA0A65EDBB97BFCE77EBACBF78D7505FC0BC40F504B03041400060808007A4137406353AA
311
C39C0500007B100000340000006662782F41383137324246452D464635312D344438322D414136312D3032394134313430313846422F6F626A656374732E786D6CAD575B8F9B3814FE2B887D868424D376560C552E932AEA4E5B356AB50F2345060CE31D73916DA699FEFAFD0C86409ACC64577D016CECE373BEF39D8BFDF7
311
FB8C5B4F544856E437B6E78E6D8BE65111B33CBDB12B9538EF6CEB7DE08BA250BD65B695938CDED87ADA0EFC54145569A6629A908AABA3D9F5E26F4B4634A7B6157122E58D2DA3079A119754AA88A97C7463A2889B267BD7739B8543B1A920E5C391D092089A2B688AF91C52AC46296F381CDBA3C01FE9FF81AF9F66D5F4FC
311
AA516DCFF07C964B45F2E897C38EC44CBDD9EA767275ED5CCD665367F666E2398BF562E5786FA7E3E59BE5F27A7E7B8D83A5129064341134B1830FC046B0C81F35BF02BF62B99A4ECC12E3A091A04F4C7BCA0E2696E78F9A359D75C6C853EA47459ED3A8C60A68D4F619D1312D691EC3E78C4A68D643683C1C7A1AC7DEEFA9
311
1E9B23FBD39721D0DFD113D4EADEBEFB9A16E13F30415EC22021A9666083A531B4E1EAF880705814DCFC63D2CA88A282116E71160A229EED004BF592C01F88D14C163A1AB40576002F34BF87744118BDCEF3535A2615E79AC6765047C10EB14295AC35633FA93868DF47063AC1579A0DEF8C41EAB9A47670DD50E4DD119B1A
311
20AD8493142E87997AE7747264E852C7E96665071FD7E17EAB63F7F4E1A5284A2A94A60FA8D53AAE7D6B948C4EDE459ED31BEC23550EA07C05F29F10EA0755E037C1F6B3FDCC9CA204C96552880CBEB1C69633C6636C79F5537FF7BEFC51B779E8BD7378C2D91AAADF80E7D086BE2F7B7006FE13085F88A9316D1B118EB471
311
C77200A44962F10253C8C349B8B7830DB21CB23276111E783019EA3EE1D31F19314814F549BD770E2C8FD2E205091AB0D58C841A0DF98D82073FFD92CEEA83CDB273F05EFD16BACE57DB8FDB4A2424A27726A65734613953287107DEF4151A603EB0E8913EFF28440C437FC57BDBC73B334749A0AD31D7C0A76D4ED783C3C9
311
830322EC4B0B9D6EFC574E8011BAB0F6E4DF311951CE494E8BAA3DF7C5FA81B2D140AC835D33B92B3087C202D2347F8E6210453A12ACD42076D5AA4B9AEE19EBBE6D3E819176B078FE8B3CF7B35778C8BD51C10BB10B9F774D5A3A09F5F721B70D06232D0574AF83A48D7F03FA2E6649524924C113B87EDF2CFBBED3690129
311
A295DA44CB0CF623B88830A46DE5A25A0B824A5AE43B86BA89B83B79405F3E20350CA8059ED358529EEC18E755B64B184735DA65A43C03C7FFD73FACB27247B2A2CAD519D903D5511D86BA0FD82B7F10153DD8C1B67E3B0BE4DE98C667C8A06BC909AC06AE9D79B7ABE978F6D659AF272B67763B59388BB793B53399DEDE4E
311
E7D7ABF99BE9AAF553A349E0B7A5A61FD1F0124A9B5F0966DCF76D83F83149C00EEE8892F71F9AF06CDFDF362E7A617F843DA897DDC679FC84BE8FC6AF0B38AC3C296893959C66345744C7D09DFEE05F09FA8C8132CDFC262329BD40CAE70FDB23633073C1BE2F3ADEE98FA3BD6676A903F2A410F55065614E183FDA983648
311
BA659E1AFC5A9F74EFA6D0B4433D328E41672A0BCE62E4C1D84A699151856C784111121995A05EBFA78FCDDDE382DD4F4D87A848C869ABC9034193CC25C202D4AA22359CB7FE4053A7FBAA1B1BE5D67DC4C3640ADB02676E6C34E98A4554BA210AB46E856AE1E052BF9347E34FF294A3D76E3675E36E97C6665092BB2597F4
311
4FC6AE26851B0390464AF40D6888E09D5A99C0AF7533FFA3FF6478AB8E45143EC34A75B61C263A63EA6310A28D51E6B68026E6D11CBD47A0BE6C96E7D66B06885C74CB7A91048D54471191D63705AD9F5169BEFA324287626D3E5B25AF52F8F272498EA02073A5031C2C022B8CCC92285075F9E7FD1751E0269B596B060ADC
311
2F8B2C2B7233989B9BB0B57DC0BD36BE475AA0FA4222EF27636F725F5F04CCDD641712495D12CB474CC0A78275100F1C0F4636B74554A0E647B76EA49D70C4CDCDCA32256D06A18628FDACAA6141CB91530BD1A32F933A56FA0BCA17EF02A37A295410E8E2837F01504B03041400060800007A413740000000000000000000
311
000000350000006662782F41383137324246452D464635312D344438322D414136312D3032394134313430313846422F76657274696365732E62696E504B03041400060808007A413740F270F1330600000004000000360000006662782F41383137324246452D464635312D344438322D414136312D303239413431343031
311
3846422F747269616E676C65732E62696E636660600000504B03041400060800007A413740000000000000000000000000370000006662782F41383137324246452D464635312D344438322D414136312D3032394134313430313846422F617474726962757465732E62696E504B03041400060808007A413740D5987DFC8F
311
00000041010000360000006662782F41383137324246452D464635312D344438322D414136312D3032394134313430313846422F6469726563746F72792E786D6C858F410EC2201045AF4266AF15DDB800BA74E7C21B903225242D6328188F2FA5C4183471359997F9FF81E89FF3C41E1816475E02DF1F80A11FC8386F25A4
311
38EECEC07A250251FC3803E6F58C12560C4AD840E95E91C151A72936F496F35732D860FE635F62C8F2DA16B505C545B74125BAA2FA9E05D7CC053D063734D5C7665FD55B6B8D15D5E9BFEAFD8490FFA45E504B03041400060808007A4137404908DB1FFB000000A00100003B0000006662782F41383137324246452D464635
311
312D344438322D414136312D3032394134313430313846422F7265736F75726365732F636F72652E786D6C8D504B6E833010BD0A9ABDC1869012641CA1B43D412F609909B1126CE44FD5E3D70E546A77DD783CEFA3797AFCFCB53C8A4F745E5B33002B291468949DB4990788E14A3A28CE823B6BC32F1914462E38408641F0
311
D9D9B8EE90B226A009093576C21D94DE6380423DD26700AF6EB8C852C69014FE5EAE52DDE58C252B139D7482FBE05280623B925F100EBD8D4EA1E7D5C60A1EA39E768D9ED24D7DD5E8403423A363D35DC8DBD85EC8E1855EC848EB868CAFEF87B663A7961E4FBCCA66C1835E7E322A8732E004A2A6AC269491BAF9A05DCF58
311
DFA6F5D853CAAB2CFF638AEBF44F53D42634F51E77B379102C0579128257B9AF349E65A699BB15DF504B010214000A00000800007A4137403DEE336E79000000790000001B00000000000000000000000000000000006175746F6465736B2D64657369676E2D7061636B6167652E786D6C504B010214001400060808007A41
311
3740D486FD9CA0000000F40000001300000000000000000000000000B20000005B436F6E74656E745F54797065735D2E786D6C504B010214001400060808007A413740966611A7E90000007C010000080000000000000000000000000083010000636F72652E786D6C504B010214001400060808007A41374055019EA25F00
311
00007C000000070000000000000000000000000092020000636E782E786D6C504B010214001400060808007A413740A973660D65010000020300000C00000000000000000000000000160300006662782F636F72652E786D6C504B010214001400060808007A41374024D3C1C27D0000009D0000000B000000000000000000
311
00000000A50400006662782F636E782E786D6C504B010214001400060808007A413740F830F3702A0100001402000031000000000000000000000000004B0500006662782F41383137324246452D464635312D344438322D414136312D3032394134313430313846422F636F72652E786D6C504B010214001400060808007A
311
4137406B03FBF64C010000330300003000000000000000000000000000C40600006662782F41383137324246452D464635312D344438322D414136312D3032394134313430313846422F636E782E786D6C504B010214001400060808007A4137406353AAC39C0500007B10000034000000000000000000000000005E080000
311
6662782F41383137324246452D464635312D344438322D414136312D3032394134313430313846422F6F626A656374732E786D6C504B010214001400060800007A41374000000000000000000000000035000000000000000000000000004C0E00006662782F41383137324246452D464635312D344438322D414136312D30
311
32394134313430313846422F76657274696365732E62696E504B010214001400060808007A413740F270F133060000000400000036000000000000000000000000009F0E00006662782F41383137324246452D464635312D344438322D414136312D3032394134313430313846422F747269616E676C65732E62696E504B01
311
0214001400060800007A4137400000000000000000000000003700000000000000000000000000F90E00006662782F41383137324246452D464635312D344438322D414136312D3032394134313430313846422F617474726962757465732E62696E504B010214001400060808007A413740D5987DFC8F0000004101000036
311
000000000000000000000000004E0F00006662782F41383137324246452D464635312D344438322D414136312D3032394134313430313846422F6469726563746F72792E786D6C504B010214001400060808007A4137404908DB1FFB000000A00100003B00000000000000000000000000311000006662782F413831373242
311
46452D464635312D344438322D414136312D3032394134313430313846422F7265736F75726365732F636F72652E786D6C504B0506000000000E000E0080040000851100000000
310
504B03040A00000800007A4137403DEE336E79000000790000001B0000006175746F6465736B2D64657369676E2D7061636B6167652E786D6C3C3F786D6C2076657273696F6E3D22312E302220656E636F64696E673D227574662D3822203F3E3C666F726D6174733E3C666F726D61743E687474703A2F2F736368656D612E
310
6175746F6465736B2E636F6D2F64657369676E2D7061636B6167652F323030393C2F666F726D61743E3C2F666F726D6174733E504B03041400060808007A413740D486FD9CA0000000F4000000130000005B436F6E74656E745F54797065735D2E786D6C7D8EC10E82300C865F65E91D8A1E8C310C0EEA1BF002731658846E
310
D98AC1B77784ABF1D8FE5FBFBF75BBCE937A534CCEB38643598122B6FEE978D0B0485F9C41B54DDD7D022595594E1A469170414C76A4D9A4D207E29CF43ECE46F218070CC6BECC4078ACAA135ACF422C856C0E68EA1BF5669944DDD7BCDE7B1F8E415D77AECB980613C2E4AC91FC167A2B244592486606FC29C8FD7F045B9A
310
EF7053A7E60B504B03041400060808007A4137403638F2AAE90000007C01000008000000636F72652E786D6C8D90416EC3201045AF82668F0DD8A1A9858952A73D412F80803828315806AA1EBF3871A476D7D50C9FFF66465F1CBEA71BFAB24B74C1F7402B02C87A1D8CF3630F399DF11ED0418A2584F4CB06C8ABC9F6B0CA
310
20C5B8843C6F920E3E599F8AEA83B19BA862B40990BE95A687A82F765295CAA938E2B59A95BEAAD156F4D915386767D0638933659E3B3BBB803C7D0CED5BB37BC5A47DA1B83D0E0C1F9B9663F6CEF8C01BC24F848B7A85A5486E7AEED78B55C91A908C508609C5ACF924FB8ED26E579EBC2344D4ABFD0F9467F34F283B9F1A
310
B69DFBC022485A0EB97F4851AF5994720FAAD43537F903504B03041400060808007A41374055019EA25F0000007C00000007000000636E782E786D6C4DCB3B0E80201045D1AD90E915ED2CF8AC45050C11660C8261F98AB1B07AC9C97D42D718D865D3E909258CFD00CCE24AC6E326A164D74DC0B4128928FF326038472BA1
310
3128B1252AC747C6BAB984FC68F0B87FE8960A5C09FE86CFB69FBA01504B03041400060808007A413740A1C6BB7E66010000020300000C0000006662782F636F72652E786D6C8D525B6E833010BC8AE57F63F3084D23E3284DDA13F4020E3814056CE407CAF1BB3CA23455144548607676766607F8F6D2B56850D635461738
310
8E18464A97A66A745DE0E04F648DD156706B8CFFD38691969D2AF058C682D7D6847E2995467BA53D54B5A9D45294CE298F51D9C2A1C0AEFC519D8C64F0D0E1CE512FCBB3AC55144700439FE0CE5B30806691F18EC5E978E174AE0B1E42532D6853815A736A94C5E2F0B5CF3ED2D53B61D95B4CB2DD3E21BB34CB49F299E4FB
310
3C65F981E59C8E64C17DD35DDD955649AF2A2C12162784C52449BFD97A13C79B15BCE61BC6381DDBEF48A1AF5E248546FB3459ECCE3487450C4626E0DFB61091474E0EE0870A4EC710E131257C1F340402217B796CAF7B9CA134A8D21B9B015299708306D90605AA0C4D17A7330A93A701B0D9C339C99339CF67C00794BA06
310
6BD2C3F118FCA8CE67D5258A5E5932F80BD2C676B2BD999B2DDEEE37A187F4D2B4C6BEC2A6CBAA7409938E7FAFF805504B03041400060808007A41374018BB65A67F0000009D0000000B0000006662782F636E782E786D6C4DCCDF0A83201C86E15B91DFB92B370B076AE49FEE239645643A9C8D5DFE6A74B0A30F1E3E5EDE
310
7C568FDE2EBDE61804904B09C885471CE63009D8F28819A046F21463FEBB010AFDEA041C0C924F296ECF930637F69BCFBBFA392C275E2B436ADA696C5B5D626A4B83595D516C3BA6143177D5EA1B149217BFD2BE47587E01504B03041400060808007A4137400F89A7BF2A01000014020000310000006662782F3235443136
310
3446432D454143302D344530442D383635342D4546384242314439424143332F636F72652E786D6C8D51CB6EC32010FC158B537AC006DBB11C0B13E5F905FD0162488A1283C5A3CAE777A91DA9BDE5C2C230333BDA65DBE7F8C8BE95F3DA9A1ED19CA04C99C14A6D6E3D8AE18A5B946D3973D6863F34941931AA1E25187176
310
73364E0B3458139409801A2BD5020AEF5540D9F0804B8FFCF0A546918B1880E1EFF92486BBB8A99CE6F00D3CCE7C7010209B9BA413F1727DA44D7D3EE0D3EE40707D2247DC36EB1A9FCEED7E4F8F9BFDEE50B162167216A3968B5C4B88A3AF5AB9774D9298B3A0C757FCC1291194043DA125261497D527693B4ABB353C9B8E
310
105624FA3F519CE49BA2A84DA8CA25EE2CF3885356CC1F9C491B2F8F5718F59CAC0B59EAB7F26AF8409CE4A4A4946C5A90CC5418007836F5E2E9837530E0D5FD02EC0A58C9B8A9392BD28EA0FC2E106ADA27FF01504B03041400060808007A4137400DA434E15301000033030000300000006662782F32354431363446432D
310
454143302D344530442D383635342D4546384242314439424143332F636E782E786D6CBD93CD6EC32010845F0571F76F522B8A30917AE813F4D02B864D4A83C1E2A76ADEBE4B42D25C72A854F582ECD96166F5C966BBAFD9904FF0413B3BD2AE6E29012B9DD2F630D214F7D586921D67DEB97867A3C48A19469A65CAD9C1BB
310
B41449C15E24135135DA1E8BE821B8E4250494F34D629C140603C05609459827500A14B919F1690F1E5741713A91F80EE4E5F98DB8E903640CACC9299C35B983B37C96A63B1325D28810461AE43BCCA216293A05E1582B1145DDD5D7AE073BFD24917CE15A99BC26B97CA4F9A4BC6C542347D6E090B3103DD22BA6785A8072
310
B12C464B11117273365E3C9C256DE3B02E5E8DE03DBA57FDB0D960D879C659D4331487F4202228CAFBB6EBABB6ABFAD56BBBD976DDF6095F876DDBB226DB399B9C33E512C680770B91CE46B091F28E3579FC085FF111A53DB276FEF40B9008A0B45EE8DC32FE924F37ACD6EB7FE4D39CBF6FC4E5F12FE0DF504B0304140006
310
0808007A413740D406187559070000941B0000340000006662782F32354431363446432D454143302D344530442D383635342D4546384242314439424143332F6F626A656374732E786D6CED59DD739B3810FF5718EED9D8D84EDADC103A499C743CBDB49DFADAB907CF3032C8441721184924F1FDF5B7FA00033109BEE6DE
310
FA6003425AEDFEF6534BF0E129A3CE03E682E4ECDCF5BD89EB6016E70961E9B95BCAEDE8BDEB7C08039EE7B231CD7518CAF0B9AB86DD3048795E167628C15B5452D919BDB9FCCB113166D875628A843877457C8733E4A152E60916F75E8224F2D2ED93E77B66629B6CCA5171D7215A208E99044E619C0115C730E5B71F27EE
310
380CC6EA7D18A87F3B6B3668D6BC7FD6584BDDE6923021118B9FB1D421331BC4D2CC9F2FAEA72767A393F97C369A9F4EFDD1E5CDE562E4BF9B4DAE4EAFAECE2EAECF80BD4D9E532B53820BCC12D0DFCE0DFD60ACDED4A25B040E711DE78CE15803095069B1BA040916B05503BE49FBD15712355E6B091BCF73F5DEB2D0189E
310
B5A9F4CD1A06448B2E0862B7AB24AEAE4DF9F2CDDF20B81862945C6009DC0AC941BB161E0E5EE18693606C46C360B3D705114E8624E6045187920D471C940253D59430300B2C19E51C1C48394A02AD39F3BA6D5BE099AFBBCE212EB725A5CA33DC503B5604EE87A5D09C917F30DF73DF44067802694BC2E47BCBA5DC15D80D
310
CF82B11E0C0375994DED4B03A4B3A528151A11F3B623E89572FDE5C20D3FDD6C9E562A1C1CDEBCE07981B95446A7F4A8F90243B6578592DDD61FA439B5008431A0DA957B50BE01F29F217AEC5901BD71F2347F9ADBB9922326B639CF4037CEC4194DE06FE2F8FA5FDD37EE8271BDB8ADBD3E3CC14D1554EF7F1ECFB60C1A2B
310
CB7F03CE30780083CFF9CCBE5AC588823DDF120600292371680E4310DAB79B27375C42E084400FAB100D7D1019D87D80DB606CC9ECB552B997F53A0688DA3D66439404B0698B04367AF4F411B20727F15E4D4D11FBE03D791373BD58AC3EAD4ABE4531BEB53EBDC05BC28884AC7998A116E62D89EEF1EE31E70908FA1CEF55
310
13EFCC6E25006D85B9023EAD40500FFB9D5B1BC4B02ECD55B8095ED9018450B9BA41FF968818538A18CECB6ADF3ABA2943AD3DDED60C6E383510CFA61D13E6F881A8AA029C663FA3C528E4FD98934281E8861F8D6475D0F47AA4FBBEFC0C1659CFEF99B564107A19A27FEAA0750087966557485B206A8137FB701EE734E7D1
310
66179948E7422D016CB4BDE5478B28C47AA32445053C48FB5D155252236D9490EDB61410570FB0F86379D534878937F34F9CE67FC719E7106DC17711B77ED7D92322194A71B44549DF76CDDD6ADA4293EC21CDF196825CE481C85D84643449707A0C3447113F7B53EA29CD85200C0BC85707C16FA231F12090186D562C2BAD
310
76802622CAB044F4180414991E7075DAD1356E0CA5C3EB3CD6D6FB92C69A44FF278BE0086AC99C45044A51C821AF32EE7B271043DAE81A943BF882B555B4B518B4841222DE458F98A477F218D40DF91EDC6338929432CA0B1483590F20FBCC5794523BBC6F507CAFF2471497F4AD0C4460BA8D08A56516C18F3038790C71ED
310
3A30BD884283B8897D126750942159F2219B9C9E4C9EED636A866E086C6CB42514C27694A1A207F55640D4F58853836FA9F7287553664584B2BC64830CC59B75BDC992EFAA55911DC8AF2A15A16CAC085B82614098ACB36A15B3C1D475600537D2816A17099415D49CC25E493C7EED4D9A72EF06DCFAE9DB6E9041E1D7A3BD
310
66449D5730581E5B8581784432BE73C395BE8E2EA1FE4E70B24FF555ADD9AC00013115C94B4EAC8ABE2FA1BCB1359A1BDE2229D61F4DD6ADAEDF971E743F8231AC81DAA55EB85440679849A42A935B7543BF2108C12D1A667CA972EA31542E9244578D88DE903E75B6CA88D6A619F18A3BCCF20C7E6C4D584CCB04AF5122EE
310
A35B49A31551AC5B29BD8C5418BF28E0978FAB0E3C303240A4AFAAC0C38F9DB576F44A954B0789C8BB32DB30442008B6444B8D6EBC82A556239596EBAB3A5340DD050666553CFF75B268B6237E9D2C526B183F75B2B8DCFD8176CDBE48239DC7CAAE8F3A06D4F94951798B63806E3BD454EB2C6292B995DF3A530441B18AF2
310
83ABB12A6818827D1CFFE7ACDD9705CD761DFE8FCBDAFEB38AE3A8ACD29AACBA54072AD7652B87F9D78BD964FE6E7473335D8CE6D7D3CBD1E5BBE9CD683ABBBE9E5D9C2D2E4E678B1A4DEDA8615007339DBBE0D904B56A583D590CA02B2B724A1238CD274E8A21E64B38D30F689FF30C0B489ECD6677629BF203563F983EA7
310
441B8A2B4EEE103488A980B40E1895B16C8F3BBF416B52C241FBDC85A691770F7FD62A5D0732CFB90BAD0249622CBC0DB49954434F138794AB73BF2506F82096AA946816D5CFF52A854D2BFCD75386A4012B57AB8701855B01DDAF568742F366798A8F12BC62C741126E37A5846ACDC8B21FA885D1DBECD56F64A384DDDBAD
310
9FC0755F16CBF7F49C1622833E19BC680486EA48229EEA7EB762CCB274B1F83A863E9BB3FCE214B44C4197C3298D3806632E5541055604566169164882A95EFDBEFECA73F8C49339BA2A5A5FE5599633FB7001E7B1043E1139AB3BF8E093ACA16CC0AAAD2ED6D3893F5DEB76B6EDB0471B24B0A7EA2118A8CA082542C7D8C0
310
229FB5A66CE372AC94D099BE5C38367C421BC058D0B3EEAEF9BCE580F7A80F29CA57B4875772BED8D11EEBA9600D1C7AD1E1BF504B03041400060800007A413740000000000000000000000000350000006662782F32354431363446432D454143302D344530442D383635342D4546384242314439424143332F7665727469
310
6365732E62696E504B03041400060808007A413740F270F1330600000004000000360000006662782F32354431363446432D454143302D344530442D383635342D4546384242314439424143332F747269616E676C65732E62696E636660600000504B03041400060800007A41374000000000000000000000000037000000
310
6662782F32354431363446432D454143302D344530442D383635342D4546384242314439424143332F617474726962757465732E62696E504B03041400060808007A413740D5987DFC8F00000041010000360000006662782F32354431363446432D454143302D344530442D383635342D4546384242314439424143332F64
310
69726563746F72792E786D6C858F410EC2201045AF4266AF15DDB800BA74E7C21B903225242D6328188F2FA5C4183471359997F9FF81E89FF3C41E1816475E02DF1F80A11FC8386F25A438EECEC07A250251FC3803E6F58C12560C4AD840E95E91C151A72936F496F35732D860FE635F62C8F2DA16B505C545B74125BAA2FA
310
9E05D7CC053D063734D5C7665FD55B6B8D15D5E9BFEAFD8490FFA45E504B03041400060808007A4137402593DC32FC000000A00100003B0000006662782F32354431363446432D454143302D344530442D383635342D4546384242314439424143332F7265736F75726365732F636F72652E786D6C8D504B6E833010BD0A9A
310
BDC13684A2C8384A497B825EC032136225D8C89FAAC7AF09546A77DD783CEFA3797AE2F4353F8A4FF4C138DB032B291468B51B8D9D7A48F14A3A284E5278E7E22F191456CDD8C30A8314937769D921ED6C441B336ADD883BA842C008857EE44F0F41DF7056A54A312BC2BD5C94BEAB094B56663AEBA408D1E700C576647D41
310
7A0C2E798D41541B2B454A66DC3566CC37CDD5A00779791F9AD7FAD011DABC30D29C074ECE75D312FEC6DBA1AD697BA1ADA856B314D1CC3F19B547157104C929E38432C2EB0FDA1D193B1EF2DA1E2915D52AFF634ACBF84F533236D67C8FBBD9024896833C0929AAB5AF3C9E65E6B9762BBF01504B010214000A0000080000
310
7A4137403DEE336E79000000790000001B00000000000000000000000000000000006175746F6465736B2D64657369676E2D7061636B6167652E786D6C504B010214001400060808007A413740D486FD9CA0000000F40000001300000000000000000000000000B20000005B436F6E74656E745F54797065735D2E786D6C50
310
4B010214001400060808007A4137403638F2AAE90000007C010000080000000000000000000000000083010000636F72652E786D6C504B010214001400060808007A41374055019EA25F0000007C000000070000000000000000000000000092020000636E782E786D6C504B010214001400060808007A413740A1C6BB7E66
310
010000020300000C00000000000000000000000000160300006662782F636F72652E786D6C504B010214001400060808007A41374018BB65A67F0000009D0000000B00000000000000000000000000A60400006662782F636E782E786D6C504B010214001400060808007A4137400F89A7BF2A010000140200003100000000
310
0000000000000000004E0500006662782F32354431363446432D454143302D344530442D383635342D4546384242314439424143332F636F72652E786D6C504B010214001400060808007A4137400DA434E153010000330300003000000000000000000000000000C70600006662782F32354431363446432D454143302D34
310
4530442D383635342D4546384242314439424143332F636E782E786D6C504B010214001400060808007A413740D406187559070000941B00003400000000000000000000000000680800006662782F32354431363446432D454143302D344530442D383635342D4546384242314439424143332F6F626A656374732E786D6C
310
504B010214001400060800007A4137400000000000000000000000003500000000000000000000000000131000006662782F32354431363446432D454143302D344530442D383635342D4546384242314439424143332F76657274696365732E62696E504B010214001400060808007A413740F270F1330600000004000000
310
3600000000000000000000000000661000006662782F32354431363446432D454143302D344530442D383635342D4546384242314439424143332F747269616E676C65732E62696E504B010214001400060800007A4137400000000000000000000000003700000000000000000000000000C01000006662782F3235443136
310
3446432D454143302D344530442D383635342D4546384242314439424143332F617474726962757465732E62696E504B010214001400060808007A413740D5987DFC8F000000410100003600000000000000000000000000151100006662782F32354431363446432D454143302D344530442D383635342D45463842423144
310
39424143332F6469726563746F72792E786D6C504B010214001400060808007A4137402593DC32FC000000A00100003B00000000000000000000000000F81100006662782F32354431363446432D454143302D344530442D383635342D4546384242314439424143332F7265736F75726365732F636F72652E786D6C504B05
310
06000000000E000E00800400004D1300000000
  0
XRECORD
  5
17
102
{ACAD_REACTORS
330
12
102
}
330
12
100
AcDbXrecord
280
     1
270
     1
271
     1
  0
XRECORD
  5
16
102
{ACAD_REACTORS
330
12
102
}
330
12
100
AcDbXrecord
280
     1
270
     1
271
     1
  0
XRECORD
  5
18
102
{ACAD_REACTORS
330
12
102
}
330
12
100
AcDbXrecord
280
     1
270
     1
271
     1
  0
XRECORD
  5
15
102
{ACAD_REACTORS
330
12
102
}
330
12
100
AcDbXrecord
280
     1
270
     1
271
     1
  0
XRECORD
  5
F43
102
{ACAD_REACTORS
330
22
102
}
330
22
100
AcDbXrecord
280
     1
102
MATERIAL
148
0.0
149
0.0
149
0.0
 93
        0
 94
      127
282
     0
 72
     0
 77
     0
171
     0
175
     0
179
     0
273
     0
  0
XRECORD
  5
24
102
{ACAD_REACTORS
330
22
102
}
330
22
100
AcDbXrecord
280
     1
270
     1
271
     1
  0
XRECORD
  5
23
102
{ACAD_REACTORS
330
22
102
}
330
22
100
AcDbXrecord
280
     1
270
     1
271
     1
  0
XRECORD
  5
BA
102
{ACAD_REACTORS
330
22
102
}
330
22
100
AcDbXrecord
280
     1
 70
     1
 90
1959938040
 71
     1
  1
FC6E61B2-E128-480A-856E-94B0B1BE3ECA
311
504B03040A0000080000794137403DEE336E79000000790000001B0000006175746F6465736B2D64657369676E2D7061636B6167652E786D6C3C3F786D6C2076657273696F6E3D22312E302220656E636F64696E673D227574662D3822203F3E3C666F726D6174733E3C666F726D61743E687474703A2F2F736368656D612E
311
6175746F6465736B2E636F6D2F64657369676E2D7061636B6167652F323030393C2F666F726D61743E3C2F666F726D6174733E504B030414000608080079413740D486FD9CA0000000F4000000130000005B436F6E74656E745F54797065735D2E786D6C7D8EC10E82300C865F65E91D8A1E8C310C0EEA1BF002731658846E
311
D98AC1B77784ABF1D8FE5FBFBF75BBCE937A534CCEB38643598122B6FEE978D0B0485F9C41B54DDD7D022595594E1A469170414C76A4D9A4D207E29CF43ECE46F218070CC6BECC4078ACAA135ACF422C856C0E68EA1BF5669944DDD7BCDE7B1F8E415D77AECB980613C2E4AC91FC167A2B244592486606FC29C8FD7F045B9A
311
EF7053A7E60B504B030414000608080079413740956BA1CBEA0000007C01000008000000636F72652E786D6C8D904D6EC3201085AF82668F0DF8278E8589E4263D412F8080B828315806AA1EBF3871A476D7D58CDEBC6F66F4F8E97BBEA32FB306EBDD00B420808C535E5B370D90E21577804E82AFDEC75F36404ECE66804D
311
06C1A7D5A765979477D1B89855E7B5D94519828980D43D370304F5696659C814B323DC8A45AA9B9C4C415F5D8653B21A3D8F589DF7D9AB352B88F7B6A9CF6C6CF15835475CD391E1E35B73C0A4BED4F5E13C5E8E1DE3E5060B1EEDFCBAAF5623A3D12018A10C138A59F541BA9ED2BEA198B43D21BCDCEC7FA0B4E87F42C9BA
311
58B1FDDD271640D0FCC8632078B96591CB23A85CB7DCC40F504B03041400060808007941374055019EA25F0000007C00000007000000636E782E786D6C4DCB3B0E80201045D1AD90E915ED2CF8AC45050C11660C8261F98AB1B07AC9C97D42D718D865D3E909258CFD00CCE24AC6E326A164D74DC0B4128928FF326038472B
311
A13128B1252AC747C6BAB984FC68F0B87FE8960A5C09FE86CFB69FBA01504B03041400060808007941374099C41ADE66010000020300000C0000006662782F636F72652E786D6C8D52ED8E8320107C15C27F04ACF62B4813AFBD27B817A04A3D53058360FAF8B77E34BD5E9AE662826466677776541C6E6D8306EDFADA9A0C
311
F38861A44D61CBDA54190EFE42B6181DA470D6FA5F651819D5EA0C8F3096A27236740B5458E3B5F1801A5BEA05547DAF3D464503970CF7C5B76E55A482878AFE1A75AAB8AA4A473C021AEAA4E8BD0303681E329E585ECE3741675C8A10EA7261EB12A6D5975A3B2C3FD769728CF335C957E98E243C8FC9EE23DD10969C9264
311
73CC4FBB6D2CE82896C2D7EDDD5DE1B4F2BAC432663C268C9378F5C5B67BCEF729276CBD674CD0B1FC4914BAF29FA2501BBF8A17BBB3ACC792839189F8B32D44E451AF06F043A5A06388F09A127E0E1A028190BD3A37F73DAE000DBAF0D625C094363CA8413541C35486A647D09985CE5303D8EC659FF84D9FF73DE0032A53
311
8135E5E17A0E7E9C2EE6A94B149D7664F03764AC6B55F330375B7C9C8F412FE5856DACFB8F9A2EABD2254C3AFEBDF207504B03041400060808007941374070E94B687D0000009D0000000B0000006662782F636E782E786D6C4DCCD10AC2201886E15B91FFDCA656EA401D52761FA3B921390D73D1E5B7C50E3AFAE0E1E355
311
DD678EE8EDCB2BE4A4811E08209FEE790869D2B0D4114B409D5125E7FA770394FAD96BD8188C9A4A5E9E3B0D7EEC9758578D213D766CD991484B09BE3A79C127461CB694732C3839B737478560161AA39A5F69DD2D6CBE504B030414000608080079413740B908CB3B2B01000014020000310000006662782F393233303841
311
31302D444538432D343230452D413136362D3736303539464531373732412F636F72652E786D6C8D51CB6EC32010FC15C4293D60038E891D61A2A84DBFA03F4081A42831583CAA7C7E71ED48ED2D1716CDCECC8E76F9E13EDEC0B709D17A37405261088C535E5B7719604E67D44170103C789FFED020707234039C6128F825
311
F83CAD90F22E19970AEABC362B2863340902752B9F0146F5654659C99C0A235EAB49AAABBC988A54A55D7882C7144A00B00C995F287ADAE0EE48307A3B75AF684BF1091D096368C770DBBF9FC86E478FBC5E8482E76CF52AB7BAC4B1676BC2B326B358F064C7477C158C4C46434131A10813449B0FDCED09D9B70461B6C798
311
D733FD9F284FFA4951B62E35748DBBC8221484D74B4370EDF3E7ED11C6DC271F1298E76DA2512F50E00A93BE657DD3F37AA19605144FB65D3D63F2A12C7873FD2C6CD22EC66C2B783DDFA894DF03963ADF53FC00504B030414000608080079413740683C77644C01000033030000300000006662782F39323330384131302D
311
444538432D343230452D413136362D3736303539464531373732412F636E782E786D6CD593CD6E022114855F85B09F1FD41A63184CBAE81374D12D0357A53230E1A7A96FDF8BA275E3A2CB6EC8E4DCC339375F18BEFB9E2CF982108D7703656D4F0938E5B5718781E6B46F3694EC040FDEA7071B254E4E30D02253C10FC1E7
311
B94A1AF632DB84AA35EE54C500D1E7A020A25C6E12EB95B41800AEC928C23482D6A0C9DD885F7B08B80A8AE399A42390B7D70FE2C74F5029F2AEA408DE950EC1CB599B1E4C94282B631C68544798642B73F21AE2A9D532C996B5B7AE273BFD269172E156998321A57CA0E5A4A26ED42247DEE150F09802D2ABA6749E810A39
311
CFD62899107277315E3D8267E3D27A55BD06C10774B3F572B5C2B0CB4CF06426A80E154026D0542C7AB6687AD62C96EFFD66CBD8F68535FD7ADBF7BC2B76C147EF6DBD843110FC4C9477095CA282F1AE8C9FE1AB3EA24D40D63E9CFF001201D4D62B9D7BC67FE6D35DDE37E20AF817881F504B030414000608080079413740
311
6F1E753E990500007A100000340000006662782F39323330384131302D444538432D343230452D413136362D3736303539464531373732412F6F626A656374732E786D6CAD57DB6EDB3810FD1541FBEC8B6C279B2C1415BEA5308AB4458D16FB10C0A0244AE1861205924A9D7EFD1E4A9425B976EA5DF4C5B2A8E170E6CC99
311
0BFD77FB8C3B2F542A26F23BD71B8E5D87E69188599EDEB9A54E0637AEF32EF0A510BA23E63A39C9E89D6B96DDC04FA5280BBB14D384945C1FADDE2FFE76544473EA3A11274ADDB92A7AA2191992528B98AAE7614C3419A6C97EE80D6BC1BEDA5492E2E948694124CD352CC57A0E2D4E6D94D77F1DBBA3C01F99EF816F7EAD
311
D4F4BCD4A8F2A77F3ECB952679F4D361476AA6DE6CB59E5CDD0EAE66B3E960763DF1068BFBC56AE0FD391D2FAF97CBDBF9FA16072B2DA1C95A2269E206EF818D64913FAA3F057EC9723D9D58111BA091A42FCC44CA0D268EE78F6A998377D6C953E64722CF69546105342AFFACEA9816348F117346152CEB2034EEBF7A06C7
311
CEE7A979B74776972F43A0BBA3A3A8B1BD79762D15E13F70415DC220A9A861608DA575B4E6EAB845381482DB6F4C3919D15432C21DCE4249E4AB1B40D488047E4F8D61B234D9603C700344A1FEDCA70BD2E8D73C3F656552726E68EC065516EC902B54ABCA32F683CAD6FA2E32B009B1326CB8B10EE9D782BAC16D4D919B23
311
36D5403A092729420E37CDCEE9E4C8D1A5C9D3CDCA0D3EDC87FBADC9DDD387175214546A431F50AB095CF33428599BBC8B226736B847A6B4A07C01F21F91EAAD29889B64FBD97E664FD192E42A1132436C9CB13318E367EC78D5AFF9DFF9E78F0E9BFBD13B8727826DA0FA0D78F67DE8C6B20367E0BF80F0424EAD6BDB8870
311
948D079603204312870B2CA10E27E1DE0D36A872A8CAD84578E0C16598FB82BFFEC8AA41A1A84EEA3C73607954162F28D080AD6224CCA8C96F0D6CE3F45339AB0EB662E7E0BDFA2D749DAFB61FB6A54C48441F6C4EAF68C272A6D1E25ADE740DEA61DEF3E899BE7E173286A33FE3BDEDE29DD9A314D036981BE0D3A6A69B97
311
F6E4DE0111F6A5C2941BFF1727C009D3583BFA1F988A28E724A7A26CCE7DB37FA06DD4109B64374C3E3498B6B18034F597A31C44938E242B0C88876E75289AC333DE7DDD7C042321CF4548782B14B6A537125CC85DF8BAABABD249A4BFF5A96D2118192D607B95234DFA5BCC77314B9252A1069E80F5DB66D90D9DA90AA810
311
8DD63A5966701FB945A4E56CA317CD5A12345291EF18DA26D2EEE4015DFD40D412A05278CE624579B2639C97D92E611CCD689791E20C1CFFDFFEB0CC8A1DC94499EB33BA7BA6A339F46DEF91577D273A7A72836DF51C2C507A631AB761EE099B567202AB5E68EF97D7EB6B6F3119ACBDC9CD6076339E0F6EAEAED783DBD962
311
BCF016EBE97A396FE2542B0FFCA6D374131A514267F34BC96CF8BE6E903EB606B8C103D1EAF17D9D9DCDF3EB668851D81F610FDAE561E33C7EC1D847E35F2B68254F2ADA6405A719CD353129F460FEF02F046346CF987A7D9391945EA0E5D3FBED913358B960DF6793EEF4FBD15EBBBA34097952897E2AB330278C1F6D4C6B
311
2487459E5AFC9A981C9E759F695ECD9B0D0C065325388B51066327A522A31AC5F0821E2433AA40BDEE481FDBABC705BB5FEA01519390D3C692278219992BA405A85546BABFEEFC8199CE8C55772EBAEDF0193FB652B80E3873E76246D72CA26A18A23F9B49A8520E2E750779CCFD244F3946ED7AD3E1FDB0CB60D3EBC80791
311
4BC627EB575DC1AD03282305C606CC43884E654CE057B6D9EFD17F72BC31C7211A7FC3521F7C69170ECE54C720456BA7EC650133CCB33D7A8F447DDB2D6F58C9F410B9E892F526096AAD034D645A5D148C7DD6A4F9EAF308038AB3F9E414BC4C11CBCB350D2405994B93E06011586175164483AACBBF1E3F4B818B6CE6DC33
311
50E07129B24CE4F6656E2FC2CEF609D7DAF81165819AFB887A9C8CBDC963750FB057935D48141D92583D63013195EC00712FF060647D59F42064036F6330324138E2E666E5D896366BE5BB55D5C0828923A70EB2C7DC254DAE74058A37AF02A34A14A64A0CF1C1BF504B030414000608000079413740000000000000000000
311
000000350000006662782F39323330384131302D444538432D343230452D413136362D3736303539464531373732412F76657274696365732E62696E504B030414000608080079413740F270F1330600000004000000360000006662782F39323330384131302D444538432D343230452D413136362D373630353946453137
311
3732412F747269616E676C65732E62696E636660600000504B030414000608000079413740000000000000000000000000370000006662782F39323330384131302D444538432D343230452D413136362D3736303539464531373732412F617474726962757465732E62696E504B030414000608080079413740D5987DFC8F
311
00000041010000360000006662782F39323330384131302D444538432D343230452D413136362D3736303539464531373732412F6469726563746F72792E786D6C858F410EC2201045AF4266AF15DDB800BA74E7C21B903225242D6328188F2FA5C4183471359997F9FF81E89FF3C41E1816475E02DF1F80A11FC8386F25A4
311
38EECEC07A250251FC3803E6F58C12560C4AD840E95E91C151A72936F496F35732D860FE635F62C8F2DA16B505C545B74125BAA2FA9E05D7CC053D063734D5C7665FD55B6B8D15D5E9BFEAFD8490FFA45E504B030414000608080079413740FD81FCFAFD000000A00100003B0000006662782F39323330384131302D444538
311
432D343230452D413136362D3736303539464531373732412F7265736F75726365732F636F72652E786D6C8D50596EC32010BD8A35FFD840EC2C1626929BF404BD00C21307258688A5EAF10B892BB57FFD9919BD45F3F4C4F16BB9579FE8837176005653A8D06A37193B0F90E285ECA13A4AE19D8BBF645059B5E000050629
311
66EFD26385B4B3116DCCA87513AEA00A012354FA9E8F0182BEE2A26A956256845BFD50FAA666AC599DE9AC9322449F0354AF276582F4185CF21A83685EAC14299969D59829FF3417831EE4FBB66B4F7CECC8B8E90EA465232787B76E47687B6EDBDD693C1FF65C34C52C4534CB4F46ED51459C4072CA38A18CF0CD07DDF78C
311
F51D2374DB532A9A22FF634A8FE99FA6646CDCF035EECB1640B21CE44948D194BEF27A969977E9567E03504B010214000A0000080000794137403DEE336E79000000790000001B00000000000000000000000000000000006175746F6465736B2D64657369676E2D7061636B6167652E786D6C504B01021400140006080800
311
79413740D486FD9CA0000000F40000001300000000000000000000000000B20000005B436F6E74656E745F54797065735D2E786D6C504B0102140014000608080079413740956BA1CBEA0000007C010000080000000000000000000000000083010000636F72652E786D6C504B010214001400060808007941374055019EA2
311
5F0000007C000000070000000000000000000000000093020000636E782E786D6C504B010214001400060808007941374099C41ADE66010000020300000C00000000000000000000000000170300006662782F636F72652E786D6C504B010214001400060808007941374070E94B687D0000009D0000000B00000000000000
311
000000000000A70400006662782F636E782E786D6C504B0102140014000608080079413740B908CB3B2B0100001402000031000000000000000000000000004D0500006662782F39323330384131302D444538432D343230452D413136362D3736303539464531373732412F636F72652E786D6C504B010214001400060808
311
0079413740683C77644C010000330300003000000000000000000000000000C70600006662782F39323330384131302D444538432D343230452D413136362D3736303539464531373732412F636E782E786D6C504B01021400140006080800794137406F1E753E990500007A10000034000000000000000000000000006108
311
00006662782F39323330384131302D444538432D343230452D413136362D3736303539464531373732412F6F626A656374732E786D6C504B010214001400060800007941374000000000000000000000000035000000000000000000000000004C0E00006662782F39323330384131302D444538432D343230452D41313636
311
2D3736303539464531373732412F76657274696365732E62696E504B0102140014000608080079413740F270F133060000000400000036000000000000000000000000009F0E00006662782F39323330384131302D444538432D343230452D413136362D3736303539464531373732412F747269616E676C65732E62696E50
311
4B01021400140006080000794137400000000000000000000000003700000000000000000000000000F90E00006662782F39323330384131302D444538432D343230452D413136362D3736303539464531373732412F617474726962757465732E62696E504B0102140014000608080079413740D5987DFC8F000000410100
311
0036000000000000000000000000004E0F00006662782F39323330384131302D444538432D343230452D413136362D3736303539464531373732412F6469726563746F72792E786D6C504B0102140014000608080079413740FD81FCFAFD000000A00100003B00000000000000000000000000311000006662782F39323330
311
384131302D444538432D343230452D413136362D3736303539464531373732412F7265736F75726365732F636F72652E786D6C504B0506000000000E000E0080040000871100000000
310
504B03040A0000080000794137403DEE336E79000000790000001B0000006175746F6465736B2D64657369676E2D7061636B6167652E786D6C3C3F786D6C2076657273696F6E3D22312E302220656E636F64696E673D227574662D3822203F3E3C666F726D6174733E3C666F726D61743E687474703A2F2F736368656D612E
310
6175746F6465736B2E636F6D2F64657369676E2D7061636B6167652F323030393C2F666F726D61743E3C2F666F726D6174733E504B030414000608080079413740D486FD9CA0000000F4000000130000005B436F6E74656E745F54797065735D2E786D6C7D8EC10E82300C865F65E91D8A1E8C310C0EEA1BF002731658846E
310
D98AC1B77784ABF1D8FE5FBFBF75BBCE937A534CCEB38643598122B6FEE978D0B0485F9C41B54DDD7D022595594E1A469170414C76A4D9A4D207E29CF43ECE46F218070CC6BECC4078ACAA135ACF422C856C0E68EA1BF5669944DDD7BCDE7B1F8E415D77AECB980613C2E4AC91FC167A2B244592486606FC29C8FD7F045B9A
310
EF7053A7E60B504B0304140006080800794137405BADF8C8EB0000007C01000008000000636F72652E786D6C8D904D6EC3201085AF82668F0DFE4B626122BB8D4FD00B20202E4A0C9681AAC72F4E1CA9DD7535A337EF9B193D76FE9EEFE84BAFDE38DB01CD08206DA553C64E1DC470C5474067CE56E7C22F1B202B66DDC126
310
0367D3EAE2B24BD2D9A06D48AA754AEFA2F05E0740F29E9A0EBCFCD4B3C8440CC9E16FD922E44D4C3AA3AF2EC1311A859E478C4AFBCCD5E815F8D85FEA81F4048FCD50E3AA2EDFF0E974E8717578EF8FCDA5AFC76A60F9067316CCFCBA2F572D8256C00B420B4C282ECA0F726C296D6B8A49D312C2F2CDFE078A8BFA27148D
310
0D65B1BFFBC43C709A1E790C38CBB72C52790495EA961BFF01504B03041400060808007941374055019EA25F0000007C00000007000000636E782E786D6C4DCB3B0E80201045D1AD90E915ED2CF8AC45050C11660C8261F98AB1B07AC9C97D42D718D865D3E909258CFD00CCE24AC6E326A164D74DC0B4128928FF32603847
310
2BA13128B1252AC747C6BAB984FC68F0B87FE8960A5C09FE86CFB69FBA01504B03041400060808007941374022F0CBB967010000020300000C0000006662782F636F72652E786D6C8D52ED8E8230107C95A6FF4B0B827AA6D4E09D3EC1BD4085CA11A125A5253EFE2D1F86F3628C2129CDCCCEEEEC00DFDF9A1AF5CA7695D1
310
290E038691D2B9292A5DA6D8BB0BD962B417DC1AE3FE9461A465A3523CC058F0D21ADFCE506EB453DA01AA4DA16650769D7218E5355C52DCE53FAA9181F40E2ABA6BD0CAFC2A4B158401D0502778E72C1840D390E1C4E272BE713AE1827B5F15335B1530ADBA54CA6271CA8EC981658C9CD68784C4C9EA937C7C6C32126FBE
310
B2EDFA9825A7F8C0E92016DC55CDDD5D6E9574AAC0226261445848A2D537DBEEC270978484AD778C713A943F887C5BBC29F29576AB68B63BC93A2C42303212FFB685881CEA640F7EA8E07408115E63C28F41432010B293E7FABEC715A05EE5CED81898C2F885EA65ED154C65687C389D58E83C3680CD9EF6895EF479DD033E
310
A0D42558930EAE67EF86E97C9A3A47D12A4B7A7743DAD846D68BB9C9E2722E839ECA73531BFB8E9ACEABD2394C3AFCBDE217504B030414000608080079413740110036807E0000009D0000000B0000006662782F636E782E786D6C4DCCD10E82201886E15B61FF391989841BE08CF43E5CA263223482D6E5A7CD838EBEEDD9
310
B757349FD5A1B7892F1BBC04723A0332FE1146EB6709394D98036A948821A4BF1B203FAC46C2CEA0C41C437E1E349A69C82E6DEAAC5F0E647D7D65EC5EE3AABD7498564C63DE6A8ABB96F5FA4649C949098512C5AFB4ED1E565F504B03041400060808007941374093CD90992B01000014020000310000006662782F364639
310
37363644392D354132452D343536432D384143342D4541364643423431333831332F636F72652E786D6C8D51CB6EC32010FC15C4293D60831FD48930519A265FD01F7080242831583CAA7C7EA176A4F6960B8B66676647BB6CFB18EFE05B39AFADE921293004CA082BB5B9F4308633EA20D872E6AC0D7F68109861543DCC30
310
E4ECE26C9C164858139409093556AA051CBC570102714F9F1E7A7155E3500C312486BF15D3206EC34515A448EDC4E3CC0797028079487E21A7C7F53BA59F6BD4EEAA036A5ABA47DD6EDFA0C38E1EF71F0DA93B52B372167216A3968B5CCB14479FB572AF9A643167418FCFF8C2A921280979854985304155FD85BB0D219B96
310
204C3718B332D3FF89E2245F14456D425D2D716799879CB0726E70266D3CDD9F61D463B22E803C6FE59578831C17B8A32DC175CBCA999A16903C69B378FA605D5AF0EA764AEC7A31A60D6765BE512ABF074C35DF93FF00504B0304140006080800794137400E9BB8735401000033030000300000006662782F364639373636
310
44392D354132452D343536432D384143342D4541364643423431333831332F636E782E786D6CBD93CD6EC32010845F0571F70F4E6A451126520F7D821E7AC5B04969305880ABE6EDBB2424CD25874A552FC89A1D66569F30DF7D4D967C4288C6BB81B2BAA5049CF2DAB8C34097B4AF3694EC040FDEA73B1B254E4E30D02C53
310
C10FC12F739134ECE56213AAD6B863110344BF040511E57C9358AFA4C50070D582224C23680D9ADC8CF8B58780ABA0389E487A07F2F2FC46FCF8012A45DEE414C19BDC21783E4BD39D891265658C038DEA1D2659CB25790DF1586B9964CDEA6BD7839D7E9248BE70AD5C8221B97CA0F9A4A26C542347DEE050F09802D22BA6
310
749A810A39CFD62899107273365E3C822FC6A57E5DBC06C10774AFBA7EB3C1B0F34CF06426280E154026D054742DEBAA9655DDEAB5DD6C19DB3EB1AAEDB76DCB9B6C177CF4DE964B1803C1CF447997C0252A186FF2F811BEE223DA0464EDC3E91720114069BDD0B965FC251FD6AFD6EB7FE4D39CDF37E20AF817886F504B03
310
0414000608080079413740BC4A14F358070000931B0000340000006662782F36463937363644392D354132452D343536432D384143342D4541364643423431333831332F6F626A656374732E786D6CED595B6FA33814FE2B887D0E0949DA6D57945193B6A368D499D16467B40F9190030EF5D618649B5EF6D7EFF1050234B4
310
64A7FB360F0960ECE373BE73F521F8F09451E70173417276E1FADEC475308BF384B0F4C22DE56E74E63A1FC280E7B96C4C731D86327CE1AA61370C529E97851D4AF00E955476466F167F3922C60CBB4E4C911017AE88EF70863C54CA3CC1E2DE4B90445EBA7BF27CCF4C6C934D392AEE3A440BC43193C0298C33A0E218A6FC
310
F6E3C41D87C158BD0F03F56F67CD06CD9AF7CF1A6BA9DB5C12262462F10B963A646683589AF9F3ABEBE9C9F9E8643E9F8DE6A7537FB4B8595C8DFCDF6793E5E972797E797D0EEC6DF39C5A99125C609680FE9EDDD00FC6EA4D2DBA45E010D771CE188E3590009516AB4B9060015B35E09BB41F7D2551E3B596B0F13C57EF2D
310
0B8DE1599B4ADFAC6140B4E8822076BB4AE2EADA942FDFFE0D828B2146C90596C0AD901CB46BE1E1E0156E3809C666340CB67B5D10E16448624E107528D972C4412930554D0903B3C09251CEC18194A324D09A33AFDBB6059EF9B6EB1CE2725752AA3CC30DB56345E07E580ACD19F907F33DF74D64802790B6244C9E592EE5
310
7381DDF03C18EBC1305097D9D4BE34403A3B8A52A111316F3B822E95EBAFAEDCF0D3CDF669ADC2C1E1CD0B9E17984B65744A8F9A2F30647B5528D96DFD419A530B401803AA5DB907E51B20FF19A2C79E15D01B274FF3A7B99D2B39626297F30C74E34C9CD104FE268EAFFFD57DE32E18D78BDBDAEBC313DC544175F6F378B6
310
65D05859FE1B7086C103187CCE67F6D53A4614ECF996300048198943731882D0BEDB3EB9E10A0227047A588568E883C8C0EE03DC06634B66AF95CABDACD73140D4EE311BA224804D5B24B0D1A3A78F903D3889F76A6A8AD807EFC9BB98EBE5D5FAD3BAE43B14E35BEBD3577847189190350F33D4C2BC25D13D7E7ECC790282
310
BEC47BDDC43BB35B09405B61AE804F2B10D4C37EE7D60631AC4B73156E823776002154AE6ED0BF2522C6942286F3B2DAB78E6ECA506B8FB735831B4E0DC4B369C784397E20AAAA00A7D9CF68310A793FE6A45020BAE14723591D34BD1EE9BEAF3E8345D6F37B66AD18845E86E89F3A681DC0A165D915D216885AE0ED3E9CC7
310
39CD79B47D8E4CA473A1960036DADEF2A3451462BD5192A2021EA4FDAE0A29A991364AC86E570A88AB0758FCB15A36CD61E2CDFC13A7F9DF71C639445BF05DC4ADDF75F6884886521CED50D2B75D73B79AB6D0247B4873BCA320177920F23942329A24383D069AA3889FBF2BF594E642108605E4AB83E037D1987810488C36
310
2B9695563B4013116558227A0C028A4C0FB83AEDE81A3786D2E16D1E6BEB7D4D634DA2FF93457004B564CE2202A528E4903719F7BD1388216D740DCA1D7CC1DA2ADA5A0C5A4209113F478F98A477F218D40DF91EDC6338929432CA0B1483590F20FBC25794523BBC6F517CAFF2471497F4BD0C4460BA8B08A56516C18F3038
310
790C71ED3A30BD8A4283B8897D126750942159F2219B9C9E4C5EEC636A866E086C6CB42314C27694A1A207F55640D4F58853836FA9F728755B664584B2BC64830CC59B75BDC992EFAA55911DC8AF2A15A16CAC085B82614098ACB36A15B3C1D475600537D281EA3912282BA83985BD9178FCDA9B34E5DE0DB8F5D3F7DD2083
310
C2AF477BCD883AAF60B03CB60A03F188647CE7866B7D1D2DA0FE4E70B24FF555ADD9AC00013115C94B4EAC8ABEAFA0BCB1359A1BDE2229361F4DD6ADAEDF571E743F8231AC81DAA55EB85240679849A42A935B7543BF2108C12D1A667CA572EA31542E9344578D88DE903E75B6CA88D6A619F18A3BCCF20C7E6C43584CCB04
310
6F5022EEA35B49A33551AC5B29BD8C5418BF2AE0978FEB0E3C303240A4AFAAC0C38F9DB57674A9CAA58344E45D996D192210045BA2A546375EC152AB914ACBF5559D29A0EE0203B32A9EFF3A5934DB11BF4E16A9358C9F3B59D07C8BE83EDA34B279ACCCFAA853409D9E1495F73805E8AE434DB54E2226975BF1AD2F451013
310
AB203FB818AB628621D8C7F17F4EDA7D49D06CD7E1FFB8A4EDBF28388E4A2AADC9AA4975A0705D3553D8CDF2F4FAD45F4C47D7FEF46C343F9B5C8ECE4E4EAF47E7F3C564E12FAE67D7CBCB1A4DEDA76150C7329DBAE0D9C4B46A583D590CA0292B724A1238CC274E8A21E44B38D20FE89EF30C0BC89DCD5E77627BF203563F
310
9836A7445B8A2B4EEE10F487A980AC0E1895B16C8F3BBF416752C239FBC2859E91770F7FD62A5D0712CF850B9D0249622CBC2D7499543F4F13878CAB53BF2506F82096AA8C6816D5CFF52A854D2BFAD7538664012B57AB8501755B01CDAF568342F366798A8F12BC62C741126EB7A58462CDC8B21FA885D1DBECD56F64A384
310
DDDBAD9FC0755F17CBF7F49C162283BE18BC6A0486EA48229EEA76B762CCB27479F5750C6D3667F5C5296899822E87531A710CC65CAA7A0AAC08ACC2D22C9004535DFEB1F9CA73F8C29339BA28DA2CF32CCB997DB884E358025F889CF51D7CEF4936503560D555179BE9C49F6E7437DB36D8A32D12D853E5100C54558412A1
310
636C60912F3A53B66F39564AE84C5F5D39367C4217C058D08BE6AEF9BAE580F7A8EF28CA57B4875772BEDAD01EEBA9600D1C5AD1E1BF504B030414000608000079413740000000000000000000000000350000006662782F36463937363644392D354132452D343536432D384143342D4541364643423431333831332F7665
310
7274696365732E62696E504B030414000608080079413740F270F1330600000004000000360000006662782F36463937363644392D354132452D343536432D384143342D4541364643423431333831332F747269616E676C65732E62696E636660600000504B03041400060800007941374000000000000000000000000037
310
0000006662782F36463937363644392D354132452D343536432D384143342D4541364643423431333831332F617474726962757465732E62696E504B030414000608080079413740D5987DFC8F00000041010000360000006662782F36463937363644392D354132452D343536432D384143342D4541364643423431333831
310
332F6469726563746F72792E786D6C858F410EC2201045AF4266AF15DDB800BA74E7C21B903225242D6328188F2FA5C4183471359997F9FF81E89FF3C41E1816475E02DF1F80A11FC8386F25A438EECEC07A250251FC3803E6F58C12560C4AD840E95E91C151A72936F496F35732D860FE635F62C8F2DA16B505C545B74125
310
BAA2FA9E05D7CC053D063734D5C7665FD55B6B8D15D5E9BFEAFD8490FFA45E504B0304140006080800794137405283115EFE000000A00100003B0000006662782F36463937363644392D354132452D343536432D384143342D4541364643423431333831332F7265736F75726365732F636F72652E786D6C8D504B6E833010
310
BD0A9ABDC1268110641C411B4ED00B586692580976E44FD5E3D7042AB5BB6E6646EFA3797AFCF4353FB24F745E5BD301CB296468949DB4B97610C38534909D0477D6865F32C88C9CB1830506C1AFCEC6E706296B029A90506327DC40E93D06C8D4231D1D7875C359E63286A4F0F7FC29D55D5E316779A2934E701F5C0A90AD
310
4F9609C2A1B7D129F4BC5859C163D4D3A6D153FAA92F1A1D88B13F57033D8E64AC878AECABDD1B391E0F3DD91FDEFBA63EF7D5B81F78B198050F7AFEC9A81CCA80138892B2925046CADD076D5AC6DA8A115AB794F26291FF31C5E7F44F53D426ECCA2DEE6AF320580AF222042F96BED27A9599F6D2ADF806504B010214000A
310
0000080000794137403DEE336E79000000790000001B00000000000000000000000000000000006175746F6465736B2D64657369676E2D7061636B6167652E786D6C504B0102140014000608080079413740D486FD9CA0000000F40000001300000000000000000000000000B20000005B436F6E74656E745F54797065735D
310
2E786D6C504B01021400140006080800794137405BADF8C8EB0000007C010000080000000000000000000000000083010000636F72652E786D6C504B010214001400060808007941374055019EA25F0000007C000000070000000000000000000000000094020000636E782E786D6C504B0102140014000608080079413740
310
22F0CBB967010000020300000C00000000000000000000000000180300006662782F636F72652E786D6C504B0102140014000608080079413740110036807E0000009D0000000B00000000000000000000000000A90400006662782F636E782E786D6C504B010214001400060808007941374093CD90992B01000014020000
310
3100000000000000000000000000500500006662782F36463937363644392D354132452D343536432D384143342D4541364643423431333831332F636F72652E786D6C504B01021400140006080800794137400E9BB87354010000330300003000000000000000000000000000CA0600006662782F36463937363644392D35
310
4132452D343536432D384143342D4541364643423431333831332F636E782E786D6C504B0102140014000608080079413740BC4A14F358070000931B000034000000000000000000000000006C0800006662782F36463937363644392D354132452D343536432D384143342D4541364643423431333831332F6F626A656374
310
732E786D6C504B01021400140006080000794137400000000000000000000000003500000000000000000000000000161000006662782F36463937363644392D354132452D343536432D384143342D4541364643423431333831332F76657274696365732E62696E504B0102140014000608080079413740F270F133060000
310
00040000003600000000000000000000000000691000006662782F36463937363644392D354132452D343536432D384143342D4541364643423431333831332F747269616E676C65732E62696E504B01021400140006080000794137400000000000000000000000003700000000000000000000000000C31000006662782F
310
36463937363644392D354132452D343536432D384143342D4541364643423431333831332F617474726962757465732E62696E504B0102140014000608080079413740D5987DFC8F000000410100003600000000000000000000000000181100006662782F36463937363644392D354132452D343536432D384143342D4541
310
364643423431333831332F6469726563746F72792E786D6C504B01021400140006080800794137405283115EFE000000A00100003B00000000000000000000000000FB1100006662782F36463937363644392D354132452D343536432D384143342D4541364643423431333831332F7265736F75726365732F636F72652E78
310
6D6C504B0506000000000E000E0080040000521300000000
  0
XRECORD
  5
27
102
{ACAD_REACTORS
330
22
102
}
330
22
100
AcDbXrecord
280
     1
270
     1
271
     1
  0
XRECORD
  5
26
102
{ACAD_REACTORS
330
22
102
}
330
22
100
AcDbXrecord
280
     1
270
     1
271
     1
  0
XRECORD
  5
28
102
{ACAD_REACTORS
330
22
102
}
330
22
100
AcDbXrecord
280
     1
270
     1
271
     1
  0
XRECORD
  5
25
102
{ACAD_REACTORS
330
22
102
}
330
22
100
AcDbXrecord
280
     1
270
     1
271
     1
  0
XRECORD
  5
F3C
102
{ACAD_REACTORS
330
F3B
102
}
330
F3B
100
AcDbXrecord
280
     1
102
ACAD_ROUNDTRIP_2012_MLEADER_STYLE
298
     1
  0
CELLSTYLEMAP
  5
F3A
102
{ACAD_REACTORS
330
F39
102
}
330
F39
100
AcDbCellStyleMap
 90
        3
300
CELLSTYLE
  1
TABLEFORMAT_BEGIN
 90
        5
170
     1
 91
        0
 92
    32768
 62
   257
 93
        1
300
CONTENTFORMAT
  1
CONTENTFORMAT_BEGIN
 90
        0
 91
        0
 92
      512
 93
        0
300

 40
0.0
140
1.0
 94
        5
 62
     0
340
55
144
0.25
309
CONTENTFORMAT_END
171
     0
 94
        0
309
TABLEFORMAT_END
  1
CELLSTYLE_BEGIN
 90
        1
 91
        1
300
_TITLE
309
CELLSTYLE_END
300
CELLSTYLE
  1
TABLEFORMAT_BEGIN
 90
        5
170
     1
 91
        0
 92
        0
 62
   257
 93
        1
300
CONTENTFORMAT
  1
CONTENTFORMAT_BEGIN
 90
        0
 91
        0
 92
      512
 93
        0
300

 40
0.0
140
1.0
 94
        5
 62
     0
340
55
144
0.18
309
CONTENTFORMAT_END
171
     0
 94
        0
309
TABLEFORMAT_END
  1
CELLSTYLE_BEGIN
 90
        2
 91
        1
300
_HEADER
309
CELLSTYLE_END
300
CELLSTYLE
  1
TABLEFORMAT_BEGIN
 90
        5
170
     1
 91
        0
 92
        0
 62
   257
 93
        1
300
CONTENTFORMAT
  1
CONTENTFORMAT_BEGIN
 90
        0
 91
        0
 92
      512
 93
        0
300

 40
0.0
140
1.0
 94
        2
 62
     0
340
55
144
0.18
309
CONTENTFORMAT_END
171
     0
 94
        0
309
TABLEFORMAT_END
  1
CELLSTYLE_BEGIN
 90
        3
 91
        2
300
_DATA
309
CELLSTYLE_END
  0
XRECORD
  5
F74
102
{ACAD_REACTORS
330
F39
102
}
330
F39
100
AcDbXrecord
280
     1
102
ACAD_ROUNDTRIP_PRE2007_TABLESTYLE
 90
      512
 91
        0
  1

 92
      512
 93
        0
  2

 94
      512
 95
        0
  3

  0
XRECORD
  5
F4F
102
{ACAD_REACTORS
330
F4E
102
}
330
F4E
100
AcDbXrecord
280
     1
102
RTVSPropertyOp0
 70
     1
102
RTVSPropertyOp1
 70
     1
102
RTVSPropertyOp2
 70
     1
102
RTVSPropertyOp3
 70
     1
102
RTVSPropertyOp4
 70
     1
102
RTVSPropertyOp5
 70
     1
102
RTVSPropertyOp6
 70
     1
102
RTVSPropertyOp7
 70
     1
102
RTVSPropertyOp8
 70
     1
102
RTVSPropertyOp9
 70
     1
102
RTVSPropertyOp10
 70
     1
102
RTVSPropertyOp11
 70
     1
102
RTVSPropertyOp12
 70
     1
102
RTVSPropertyOp13
 70
     1
102
RTVSPropertyOp14
 70
     1
102
RTVSPropertyOp15
 70
     1
102
RTVSPropertyOp16
 70
     1
102
RTVSPropertyOp17
 70
     1
102
RTVSPropertyOp18
 70
     1
102
RTVSPropertyOp19
 70
     1
102
RTVSPropertyOp20
 70
     1
102
RTVSPropertyOp21
 70
     1
102
RTVSPropertyOp22
 70
     1
102
RTVSPropertyOp23
 70
     1
102
RTVSPropertyOp24
 70
     1
102
RTVSPropertyOp25
 70
     1
102
RTVSPropertyOp26
 70
     1
102
RTVSPropertyOp27
 70
     1
102
RTVSPropertyOp28
 70
     1
102
RTVSPropertyOp29
 70
     1
102
RTVSPropertyOp30
 70
     1
102
RTVSPropertyOp31
 70
     1
102
RTVSPropertyOp32
 70
     1
  0
XRECORD
  5
F4D
102
{ACAD_REACTORS
330
F4C
102
}
330
F4C
100
AcDbXrecord
280
     1
102
RTVSPropertyOp0
 70
     1
102
RTVSPropertyOp1
 70
     1
102
RTVSPropertyOp2
 70
     1
102
RTVSPropertyOp3
 70
     1
102
RTVSPropertyOp4
 70
     1
102
RTVSPropertyOp5
 70
     1
102
RTVSPropertyOp6
 70
     1
102
RTVSPropertyOp7
 70
     1
102
RTVSPropertyOp8
 70
     1
102
RTVSPropertyOp9
 70
     1
102
RTVSPropertyOp10
 70
     1
102
RTVSPropertyOp11
 70
     1
102
RTVSPropertyOp12
 70
     1
102
RTVSPropertyOp13
 70
     1
102
RTVSPropertyOp14
 70
     1
102
RTVSPropertyOp15
 70
     1
102
RTVSPropertyOp16
 70
     1
102
RTVSPropertyOp17
 70
     1
102
RTVSPropertyOp18
 70
     1
102
RTVSPropertyOp19
 70
     1
102
RTVSPropertyOp20
 70
     1
102
RTVSPropertyOp21
 70
     1
102
RTVSPropertyOp22
 70
     1
102
RTVSPropertyOp23
 70
     1
102
RTVSPropertyOp24
 70
     1
102
RTVSPropertyOp25
 70
     1
102
RTVSPropertyOp26
 70
     1
102
RTVSPropertyOp27
 70
     1
102
RTVSPropertyOp28
 70
     1
102
RTVSPropertyOp29
 70
     1
102
RTVSPropertyOp30
 70
     1
102
RTVSPropertyOp31
 70
     1
102
RTVSPropertyOp32
 70
     1
  0
XRECORD
  5
F5B
102
{ACAD_REACTORS
330
F5A
102
}
330
F5A
100
AcDbXrecord
280
     1
102
RTVSPropertyOp0
 70
     1
102
RTVSPropertyOp1
 70
     1
102
RTVSPropertyOp2
 70
     1
102
RTVSPropertyOp3
 70
     1
102
RTVSPropertyOp4
 70
     1
102
RTVSPropertyOp5
 70
     1
102
RTVSPropertyOp6
 70
     1
102
RTVSPropertyOp7
 70
     1
102
RTVSPropertyOp8
 70
     1
102
RTVSPropertyOp9
 70
     1
102
RTVSPropertyOp10
 70
     1
102
RTVSPropertyOp11
 70
     1
102
RTVSPropertyOp12
 70
     1
102
RTVSPropertyOp13
 70
     1
102
RTVSPropertyOp14
 70
     1
102
RTVSPropertyOp15
 70
     1
102
RTVSPropertyOp16
 70
     1
102
RTVSPropertyOp17
 70
     1
102
RTVSPropertyOp18
 70
     1
102
RTVSPropertyOp19
 70
     1
102
RTVSPropertyOp20
 70
     1
102
RTVSPropertyOp21
 70
     1
102
RTVSPropertyOp22
 70
     1
102
RTVSPropertyOp23
 70
     1
102
RTVSPropertyOp24
 70
     1
102
RTVSPropertyOp25
 70
     1
102
RTVSPropertyOp26
 70
     1
102
RTVSPropertyOp27
 70
     1
102
RTVSPropertyOp28
 70
     1
102
RTVSPropertyOp29
 70
     1
102
RTVSPropertyOp30
 70
     1
102
RTVSPropertyOp31
 70
     1
102
RTVSPropertyOp32
 70
     1
  0
XRECORD
  5
F63
102
{ACAD_REACTORS
330
F62
102
}
330
F62
100
AcDbXrecord
280
     1
102
RTVSPropertyOp0
 70
     1
102
RTVSPropertyOp1
 70
     1
102
RTVSPropertyOp2
 70
     1
102
RTVSPropertyOp3
 70
     1
102
RTVSPropertyOp4
 70
     1
102
RTVSPropertyOp5
 70
     1
102
RTVSPropertyOp6
 70
     1
102
RTVSPropertyOp7
 70
     1
102
RTVSPropertyOp8
 70
     1
102
RTVSPropertyOp9
 70
     1
102
RTVSPropertyOp10
 70
     1
102
RTVSPropertyOp11
 70
     1
102
RTVSPropertyOp12
 70
     1
102
RTVSPropertyOp13
 70
     1
102
RTVSPropertyOp14
 70
     1
102
RTVSPropertyOp15
 70
     1
102
RTVSPropertyOp16
 70
     1
102
RTVSPropertyOp17
 70
     1
102
RTVSPropertyOp18
 70
     1
102
RTVSPropertyOp19
 70
     1
102
RTVSPropertyOp20
 70
     1
102
RTVSPropertyOp21
 70
     1
102
RTVSPropertyOp22
 70
     1
102
RTVSPropertyOp23
 70
     1
102
RTVSPropertyOp24
 70
     1
102
RTVSPropertyOp25
 70
     1
102
RTVSPropertyOp26
 70
     1
102
RTVSPropertyOp27
 70
     1
102
RTVSPropertyOp28
 70
     1
102
RTVSPropertyOp29
 70
     1
102
RTVSPropertyOp30
 70
     1
102
RTVSPropertyOp31
 70
     1
102
RTVSPropertyOp32
 70
     1
  0
XRECORD
  5
F55
102
{ACAD_REACTORS
330
F54
102
}
330
F54
100
AcDbXrecord
280
     1
102
RTVSPropertyOp0
 70
     1
102
RTVSPropertyOp1
 70
     1
102
RTVSPropertyOp2
 70
     1
102
RTVSPropertyOp3
 70
     1
102
RTVSPropertyOp4
 70
     1
102
RTVSPropertyOp5
 70
     1
102
RTVSPropertyOp6
 70
     1
102
RTVSPropertyOp7
 70
     1
102
RTVSPropertyOp8
 70
     1
102
RTVSPropertyOp9
 70
     1
102
RTVSPropertyOp10
 70
     1
102
RTVSPropertyOp11
 70
     1
102
RTVSPropertyOp12
 70
     1
102
RTVSPropertyOp13
 70
     1
102
RTVSPropertyOp14
 70
     1
102
RTVSPropertyOp15
 70
     1
102
RTVSPropertyOp16
 70
     1
102
RTVSPropertyOp17
 70
     1
102
RTVSPropertyOp18
 70
     1
102
RTVSPropertyOp19
 70
     1
102
RTVSPropertyOp20
 70
     1
102
RTVSPropertyOp21
 70
     1
102
RTVSPropertyOp22
 70
     1
102
RTVSPropertyOp23
 70
     1
102
RTVSPropertyOp24
 70
     1
102
RTVSPropertyOp25
 70
     1
102
RTVSPropertyOp26
 70
     1
102
RTVSPropertyOp27
 70
     1
102
RTVSPropertyOp28
 70
     1
102
RTVSPropertyOp29
 70
     1
102
RTVSPropertyOp30
 70
     1
102
RTVSPropertyOp31
 70
     1
102
RTVSPropertyOp32
 70
     1
  0
XRECORD
  5
F59
102
{ACAD_REACTORS
330
F58
102
}
330
F58
100
AcDbXrecord
280
     1
102
RTVSPropertyOp0
 70
     1
102
RTVSPropertyOp1
 70
     1
102
RTVSPropertyOp2
 70
     1
102
RTVSPropertyOp3
 70
     1
102
RTVSPropertyOp4
 70
     1
102
RTVSPropertyOp5
 70
     1
102
RTVSPropertyOp6
 70
     1
102
RTVSPropertyOp7
 70
     1
102
RTVSPropertyOp8
 70
     1
102
RTVSPropertyOp9
 70
     1
102
RTVSPropertyOp10
 70
     1
102
RTVSPropertyOp11
 70
     1
102
RTVSPropertyOp12
 70
     1
102
RTVSPropertyOp13
 70
     1
102
RTVSPropertyOp14
 70
     1
102
RTVSPropertyOp15
 70
     1
102
RTVSPropertyOp16
 70
     1
102
RTVSPropertyOp17
 70
     1
102
RTVSPropertyOp18
 70
     1
102
RTVSPropertyOp19
 70
     1
102
RTVSPropertyOp20
 70
     1
102
RTVSPropertyOp21
 70
     1
102
RTVSPropertyOp22
 70
     1
102
RTVSPropertyOp23
 70
     1
102
RTVSPropertyOp24
 70
     1
102
RTVSPropertyOp25
 70
     1
102
RTVSPropertyOp26
 70
     1
102
RTVSPropertyOp27
 70
     1
102
RTVSPropertyOp28
 70
     1
102
RTVSPropertyOp29
 70
     1
102
RTVSPropertyOp30
 70
     1
102
RTVSPropertyOp31
 70
     1
102
RTVSPropertyOp32
 70
     1
  0
XRECORD
  5
F73
102
{ACAD_REACTORS
330
F72
102
}
330
F72
100
AcDbXrecord
280
     1
102
RTVSPropertyOp0
 70
     0
102
RTVSPropertyOp1
 70
     0
102
RTVSPropertyOp2
 70
     0
102
RTVSPropertyOp3
 70
     0
102
RTVSPropertyOp4
 70
     0
102
RTVSPropertyOp5
 70
     0
102
RTVSPropertyOp6
 70
     0
102
RTVSPropertyOp7
 70
     0
102
RTVSPropertyOp8
 70
     0
102
RTVSPropertyOp9
 70
     0
102
RTVSPropertyOp10
 70
     0
102
RTVSPropertyOp11
 70
     0
102
RTVSPropertyOp12
 70
     0
102
RTVSPropertyOp13
 70
     0
102
RTVSPropertyOp14
 70
     2
102
RTVSPropertyOp15
 70
     0
102
RTVSPropertyOp16
 70
     0
102
RTVSPropertyOp17
 70
     0
102
RTVSPropertyOp18
 70
     0
102
RTVSPropertyOp19
 70
     0
102
RTVSPropertyOp20
 70
     0
102
RTVSPropertyOp21
 70
     0
102
RTVSPropertyOp22
 70
     0
102
RTVSPropertyOp23
 70
     0
102
RTVSPropertyOp24
 70
     0
102
RTVSPropertyOp25
 70
     0
102
RTVSPropertyOp26
 70
     0
102
RTVSPropertyOp27
 70
     0
102
RTVSPropertyOp28
 70
     1
102
RTVSPropertyOp29
 70
     1
102
RTVSPropertyOp30
 70
     1
102
RTVSPropertyOp31
 70
     1
102
RTVSPropertyOp32
 70
     1
  0
XRECORD
  5
F61
102
{ACAD_REACTORS
330
F60
102
}
330
F60
100
AcDbXrecord
280
     1
102
RTVSPropertyOp0
 70
     1
102
RTVSPropertyOp1
 70
     1
102
RTVSPropertyOp2
 70
     1
102
RTVSPropertyOp3
 70
     1
102
RTVSPropertyOp4
 70
     1
102
RTVSPropertyOp5
 70
     1
102
RTVSPropertyOp6
 70
     1
102
RTVSPropertyOp7
 70
     1
102
RTVSPropertyOp8
 70
     1
102
RTVSPropertyOp9
 70
     1
102
RTVSPropertyOp10
 70
     1
102
RTVSPropertyOp11
 70
     1
102
RTVSPropertyOp12
 70
     1
102
RTVSPropertyOp13
 70
     1
102
RTVSPropertyOp14
 70
     1
102
RTVSPropertyOp15
 70
     1
102
RTVSPropertyOp16
 70
     1
102
RTVSPropertyOp17
 70
     1
102
RTVSPropertyOp18
 70
     1
102
RTVSPropertyOp19
 70
     1
102
RTVSPropertyOp20
 70
     1
102
RTVSPropertyOp21
 70
     1
102
RTVSPropertyOp22
 70
     1
102
RTVSPropertyOp23
 70
     1
102
RTVSPropertyOp24
 70
     1
102
RTVSPropertyOp25
 70
     1
102
RTVSPropertyOp26
 70
     1
102
RTVSPropertyOp27
 70
     1
102
RTVSPropertyOp28
 70
     1
102
RTVSPropertyOp29
 70
     1
102
RTVSPropertyOp30
 70
     1
102
RTVSPropertyOp31
 70
     1
102
RTVSPropertyOp32
 70
     1
  0
XRECORD
  5
F45
102
{ACAD_REACTORS
330
F44
102
}
330
F44
100
AcDbXrecord
280
     1
102
RTVSPropertyOp0
 70
     1
102
RTVSPropertyOp1
 70
     1
102
RTVSPropertyOp2
 70
     1
102
RTVSPropertyOp3
 70
     1
102
RTVSPropertyOp4
 70
     1
102
RTVSPropertyOp5
 70
     1
102
RTVSPropertyOp6
 70
     1
102
RTVSPropertyOp7
 70
     1
102
RTVSPropertyOp8
 70
     1
102
RTVSPropertyOp9
 70
     1
102
RTVSPropertyOp10
 70
     1
102
RTVSPropertyOp11
 70
     1
102
RTVSPropertyOp12
 70
     1
102
RTVSPropertyOp13
 70
     1
102
RTVSPropertyOp14
 70
     1
102
RTVSPropertyOp15
 70
     1
102
RTVSPropertyOp16
 70
     1
102
RTVSPropertyOp17
 70
     1
102
RTVSPropertyOp18
 70
     1
102
RTVSPropertyOp19
 70
     1
102
RTVSPropertyOp20
 70
     1
102
RTVSPropertyOp21
 70
     1
102
RTVSPropertyOp22
 70
     1
102
RTVSPropertyOp23
 70
     1
102
RTVSPropertyOp24
 70
     1
102
RTVSPropertyOp25
 70
     1
102
RTVSPropertyOp26
 70
     1
102
RTVSPropertyOp27
 70
     1
102
RTVSPropertyOp28
 70
     1
102
RTVSPropertyOp29
 70
     1
102
RTVSPropertyOp30
 70
     1
102
RTVSPropertyOp31
 70
     1
102
RTVSPropertyOp32
 70
     1
  0
XRECORD
  5
F47
102
{ACAD_REACTORS
330
F46
102
}
330
F46
100
AcDbXrecord
280
     1
102
RTVSPropertyOp0
 70
     1
102
RTVSPropertyOp1
 70
     1
102
RTVSPropertyOp2
 70
     1
102
RTVSPropertyOp3
 70
     1
102
RTVSPropertyOp4
 70
     1
102
RTVSPropertyOp5
 70
     1
102
RTVSPropertyOp6
 70
     1
102
RTVSPropertyOp7
 70
     1
102
RTVSPropertyOp8
 70
     1
102
RTVSPropertyOp9
 70
     1
102
RTVSPropertyOp10
 70
     1
102
RTVSPropertyOp11
 70
     1
102
RTVSPropertyOp12
 70
     1
102
RTVSPropertyOp13
 70
     1
102
RTVSPropertyOp14
 70
     1
102
RTVSPropertyOp15
 70
     1
102
RTVSPropertyOp16
 70
     1
102
RTVSPropertyOp17
 70
     1
102
RTVSPropertyOp18
 70
     1
102
RTVSPropertyOp19
 70
     1
102
RTVSPropertyOp20
 70
     1
102
RTVSPropertyOp21
 70
     1
102
RTVSPropertyOp22
 70
     1
102
RTVSPropertyOp23
 70
     1
102
RTVSPropertyOp24
 70
     1
102
RTVSPropertyOp25
 70
     1
102
RTVSPropertyOp26
 70
     1
102
RTVSPropertyOp27
 70
     1
102
RTVSPropertyOp28
 70
     1
102
RTVSPropertyOp29
 70
     1
102
RTVSPropertyOp30
 70
     1
102
RTVSPropertyOp31
 70
     1
102
RTVSPropertyOp32
 70
     1
  0
XRECORD
  5
F49
102
{ACAD_REACTORS
330
F48
102
}
330
F48
100
AcDbXrecord
280
     1
102
RTVSPropertyOp0
 70
     1
102
RTVSPropertyOp1
 70
     1
102
RTVSPropertyOp2
 70
     1
102
RTVSPropertyOp3
 70
     1
102
RTVSPropertyOp4
 70
     1
102
RTVSPropertyOp5
 70
     1
102
RTVSPropertyOp6
 70
     1
102
RTVSPropertyOp7
 70
     1
102
RTVSPropertyOp8
 70
     1
102
RTVSPropertyOp9
 70
     1
102
RTVSPropertyOp10
 70
     1
102
RTVSPropertyOp11
 70
     1
102
RTVSPropertyOp12
 70
     1
102
RTVSPropertyOp13
 70
     1
102
RTVSPropertyOp14
 70
     1
102
RTVSPropertyOp15
 70
     1
102
RTVSPropertyOp16
 70
     1
102
RTVSPropertyOp17
 70
     1
102
RTVSPropertyOp18
 70
     1
102
RTVSPropertyOp19
 70
     1
102
RTVSPropertyOp20
 70
     1
102
RTVSPropertyOp21
 70
     1
102
RTVSPropertyOp22
 70
     1
102
RTVSPropertyOp23
 70
     1
102
RTVSPropertyOp24
 70
     1
102
RTVSPropertyOp25
 70
     1
102
RTVSPropertyOp26
 70
     1
102
RTVSPropertyOp27
 70
     1
102
RTVSPropertyOp28
 70
     1
102
RTVSPropertyOp29
 70
     1
102
RTVSPropertyOp30
 70
     1
102
RTVSPropertyOp31
 70
     1
102
RTVSPropertyOp32
 70
     1
  0
XRECORD
  5
F4B
102
{ACAD_REACTORS
330
F4A
102
}
330
F4A
100
AcDbXrecord
280
     1
102
RTVSPropertyOp0
 70
     1
102
RTVSPropertyOp1
 70
     1
102
RTVSPropertyOp2
 70
     1
102
RTVSPropertyOp3
 70
     1
102
RTVSPropertyOp4
 70
     1
102
RTVSPropertyOp5
 70
     1
102
RTVSPropertyOp6
 70
     1
102
RTVSPropertyOp7
 70
     1
102
RTVSPropertyOp8
 70
     1
102
RTVSPropertyOp9
 70
     1
102
RTVSPropertyOp10
 70
     1
102
RTVSPropertyOp11
 70
     1
102
RTVSPropertyOp12
 70
     1
102
RTVSPropertyOp13
 70
     1
102
RTVSPropertyOp14
 70
     1
102
RTVSPropertyOp15
 70
     1
102
RTVSPropertyOp16
 70
     1
102
RTVSPropertyOp17
 70
     1
102
RTVSPropertyOp18
 70
     1
102
RTVSPropertyOp19
 70
     1
102
RTVSPropertyOp20
 70
     1
102
RTVSPropertyOp21
 70
     1
102
RTVSPropertyOp22
 70
     1
102
RTVSPropertyOp23
 70
     1
102
RTVSPropertyOp24
 70
     1
102
RTVSPropertyOp25
 70
     1
102
RTVSPropertyOp26
 70
     1
102
RTVSPropertyOp27
 70
     1
102
RTVSPropertyOp28
 70
     1
102
RTVSPropertyOp29
 70
     1
102
RTVSPropertyOp30
 70
     1
102
RTVSPropertyOp31
 70
     1
102
RTVSPropertyOp32
 70
     1
  0
XRECORD
  5
F53
102
{ACAD_REACTORS
330
F52
102
}
330
F52
100
AcDbXrecord
280
     1
102
RTVSPropertyOp0
 70
     1
102
RTVSPropertyOp1
 70
     1
102
RTVSPropertyOp2
 70
     1
102
RTVSPropertyOp3
 70
     1
102
RTVSPropertyOp4
 70
     1
102
RTVSPropertyOp5
 70
     1
102
RTVSPropertyOp6
 70
     1
102
RTVSPropertyOp7
 70
     1
102
RTVSPropertyOp8
 70
     1
102
RTVSPropertyOp9
 70
     1
102
RTVSPropertyOp10
 70
     1
102
RTVSPropertyOp11
 70
     1
102
RTVSPropertyOp12
 70
     1
102
RTVSPropertyOp13
 70
     1
102
RTVSPropertyOp14
 70
     1
102
RTVSPropertyOp15
 70
     1
102
RTVSPropertyOp16
 70
     1
102
RTVSPropertyOp17
 70
     1
102
RTVSPropertyOp18
 70
     1
102
RTVSPropertyOp19
 70
     1
102
RTVSPropertyOp20
 70
     1
102
RTVSPropertyOp21
 70
     1
102
RTVSPropertyOp22
 70
     1
102
RTVSPropertyOp23
 70
     1
102
RTVSPropertyOp24
 70
     1
102
RTVSPropertyOp25
 70
     1
102
RTVSPropertyOp26
 70
     1
102
RTVSPropertyOp27
 70
     1
102
RTVSPropertyOp28
 70
     1
102
RTVSPropertyOp29
 70
     1
102
RTVSPropertyOp30
 70
     1
102
RTVSPropertyOp31
 70
     1
102
RTVSPropertyOp32
 70
     1
  0
XRECORD
  5
F6F
102
{ACAD_REACTORS
330
F6E
102
}
330
F6E
100
AcDbXrecord
280
     1
102
RTVSPropertyOp0
 70
     0
102
RTVSPropertyOp1
 70
     0
102
RTVSPropertyOp2
 70
     0
102
RTVSPropertyOp3
 70
     0
102
RTVSPropertyOp4
 70
     0
102
RTVSPropertyOp5
 70
     0
102
RTVSPropertyOp6
 70
     0
102
RTVSPropertyOp7
 70
     0
102
RTVSPropertyOp8
 70
     0
102
RTVSPropertyOp9
 70
     0
102
RTVSPropertyOp10
 70
     0
102
RTVSPropertyOp11
 70
     0
102
RTVSPropertyOp12
 70
     0
102
RTVSPropertyOp13
 70
     0
102
RTVSPropertyOp14
 70
     2
102
RTVSPropertyOp15
 70
     0
102
RTVSPropertyOp16
 70
     0
102
RTVSPropertyOp17
 70
     0
102
RTVSPropertyOp18
 70
     0
102
RTVSPropertyOp19
 70
     0
102
RTVSPropertyOp20
 70
     0
102
RTVSPropertyOp21
 70
     0
102
RTVSPropertyOp22
 70
     0
102
RTVSPropertyOp23
 70
     0
102
RTVSPropertyOp24
 70
     0
102
RTVSPropertyOp25
 70
     0
102
RTVSPropertyOp26
 70
     0
102
RTVSPropertyOp27
 70
     0
102
RTVSPropertyOp28
 70
     1
102
RTVSPropertyOp29
 70
     1
102
RTVSPropertyOp30
 70
     1
102
RTVSPropertyOp31
 70
     1
102
RTVSPropertyOp32
 70
     1
  0
XRECORD
  5
F5F
102
{ACAD_REACTORS
330
F5E
102
}
330
F5E
100
AcDbXrecord
280
     1
102
RTVSPropertyOp0
 70
     1
102
RTVSPropertyOp1
 70
     1
102
RTVSPropertyOp2
 70
     1
102
RTVSPropertyOp3
 70
     1
102
RTVSPropertyOp4
 70
     1
102
RTVSPropertyOp5
 70
     1
102
RTVSPropertyOp6
 70
     1
102
RTVSPropertyOp7
 70
     1
102
RTVSPropertyOp8
 70
     1
102
RTVSPropertyOp9
 70
     1
102
RTVSPropertyOp10
 70
     1
102
RTVSPropertyOp11
 70
     1
102
RTVSPropertyOp12
 70
     1
102
RTVSPropertyOp13
 70
     1
102
RTVSPropertyOp14
 70
     1
102
RTVSPropertyOp15
 70
     1
102
RTVSPropertyOp16
 70
     1
102
RTVSPropertyOp17
 70
     1
102
RTVSPropertyOp18
 70
     1
102
RTVSPropertyOp19
 70
     1
102
RTVSPropertyOp20
 70
     1
102
RTVSPropertyOp21
 70
     1
102
RTVSPropertyOp22
 70
     1
102
RTVSPropertyOp23
 70
     1
102
RTVSPropertyOp24
 70
     1
102
RTVSPropertyOp25
 70
     1
102
RTVSPropertyOp26
 70
     1
102
RTVSPropertyOp27
 70
     1
102
RTVSPropertyOp28
 70
     1
102
RTVSPropertyOp29
 70
     1
102
RTVSPropertyOp30
 70
     1
102
RTVSPropertyOp31
 70
     1
102
RTVSPropertyOp32
 70
     1
  0
XRECORD
  5
F71
102
{ACAD_REACTORS
330
F70
102
}
330
F70
100
AcDbXrecord
280
     1
102
RTVSPropertyOp0
 70
     0
102
RTVSPropertyOp1
 70
     0
102
RTVSPropertyOp2
 70
     0
102
RTVSPropertyOp3
 70
     0
102
RTVSPropertyOp4
 70
     0
102
RTVSPropertyOp5
 70
     0
102
RTVSPropertyOp6
 70
     0
102
RTVSPropertyOp7
 70
     0
102
RTVSPropertyOp8
 70
     0
102
RTVSPropertyOp9
 70
     0
102
RTVSPropertyOp10
 70
     0
102
RTVSPropertyOp11
 70
     0
102
RTVSPropertyOp12
 70
     0
102
RTVSPropertyOp13
 70
     0
102
RTVSPropertyOp14
 70
     2
102
RTVSPropertyOp15
 70
     0
102
RTVSPropertyOp16
 70
     0
102
RTVSPropertyOp17
 70
     0
102
RTVSPropertyOp18
 70
     0
102
RTVSPropertyOp19
 70
     0
102
RTVSPropertyOp20
 70
     0
102
RTVSPropertyOp21
 70
     0
102
RTVSPropertyOp22
 70
     0
102
RTVSPropertyOp23
 70
     0
102
RTVSPropertyOp24
 70
     0
102
RTVSPropertyOp25
 70
     0
102
RTVSPropertyOp26
 70
     0
102
RTVSPropertyOp27
 70
     0
102
RTVSPropertyOp28
 70
     1
102
RTVSPropertyOp29
 70
     1
102
RTVSPropertyOp30
 70
     1
102
RTVSPropertyOp31
 70
     1
102
RTVSPropertyOp32
 70
     1
  0
XRECORD
  5
F57
102
{ACAD_REACTORS
330
F56
102
}
330
F56
100
AcDbXrecord
280
     1
102
RTVSPropertyOp0
 70
     1
102
RTVSPropertyOp1
 70
     1
102
RTVSPropertyOp2
 70
     1
102
RTVSPropertyOp3
 70
     1
102
RTVSPropertyOp4
 70
     1
102
RTVSPropertyOp5
 70
     1
102
RTVSPropertyOp6
 70
     1
102
RTVSPropertyOp7
 70
     1
102
RTVSPropertyOp8
 70
     1
102
RTVSPropertyOp9
 70
     1
102
RTVSPropertyOp10
 70
     1
102
RTVSPropertyOp11
 70
     1
102
RTVSPropertyOp12
 70
     1
102
RTVSPropertyOp13
 70
     1
102
RTVSPropertyOp14
 70
     1
102
RTVSPropertyOp15
 70
     1
102
RTVSPropertyOp16
 70
     1
102
RTVSPropertyOp17
 70
     1
102
RTVSPropertyOp18
 70
     1
102
RTVSPropertyOp19
 70
     1
102
RTVSPropertyOp20
 70
     1
102
RTVSPropertyOp21
 70
     1
102
RTVSPropertyOp22
 70
     1
102
RTVSPropertyOp23
 70
     1
102
RTVSPropertyOp24
 70
     1
102
RTVSPropertyOp25
 70
     1
102
RTVSPropertyOp26
 70
     1
102
RTVSPropertyOp27
 70
     1
102
RTVSPropertyOp28
 70
     1
102
RTVSPropertyOp29
 70
     1
102
RTVSPropertyOp30
 70
     1
102
RTVSPropertyOp31
 70
     1
102
RTVSPropertyOp32
 70
     1
  0
XRECORD
  5
F6D
102
{ACAD_REACTORS
330
F6C
102
}
330
F6C
100
AcDbXrecord
280
     1
102
RTVSPropertyOp0
 70
     1
102
RTVSPropertyOp1
 70
     1
102
RTVSPropertyOp2
 70
     1
102
RTVSPropertyOp3
 70
     1
102
RTVSPropertyOp4
 70
     1
102
RTVSPropertyOp5
 70
     1
102
RTVSPropertyOp6
 70
     1
102
RTVSPropertyOp7
 70
     1
102
RTVSPropertyOp8
 70
     1
102
RTVSPropertyOp9
 70
     1
102
RTVSPropertyOp10
 70
     1
102
RTVSPropertyOp11
 70
     1
102
RTVSPropertyOp12
 70
     1
102
RTVSPropertyOp13
 70
     1
102
RTVSPropertyOp14
 70
     1
102
RTVSPropertyOp15
 70
     1
102
RTVSPropertyOp16
 70
     1
102
RTVSPropertyOp17
 70
     1
102
RTVSPropertyOp18
 70
     1
102
RTVSPropertyOp19
 70
     1
102
RTVSPropertyOp20
 70
     1
102
RTVSPropertyOp21
 70
     1
102
RTVSPropertyOp22
 70
     1
102
RTVSPropertyOp23
 70
     1
102
RTVSPropertyOp24
 70
     1
102
RTVSPropertyOp25
 70
     1
102
RTVSPropertyOp26
 70
     1
102
RTVSPropertyOp27
 70
     1
102
RTVSPropertyOp28
 70
     1
102
RTVSPropertyOp29
 70
     1
102
RTVSPropertyOp30
 70
     1
102
RTVSPropertyOp31
 70
     1
102
RTVSPropertyOp32
 70
     1
  0
XRECORD
  5
F6B
102
{ACAD_REACTORS
330
F6A
102
}
330
F6A
100
AcDbXrecord
280
     1
102
RTVSPropertyOp0
 70
     1
102
RTVSPropertyOp1
 70
     1
102
RTVSPropertyOp2
 70
     1
102
RTVSPropertyOp3
 70
     1
102
RTVSPropertyOp4
 70
     1
102
RTVSPropertyOp5
 70
     1
102
RTVSPropertyOp6
 70
     1
102
RTVSPropertyOp7
 70
     1
102
RTVSPropertyOp8
 70
     1
102
RTVSPropertyOp9
 70
     1
102
RTVSPropertyOp10
 70
     1
102
RTVSPropertyOp11
 70
     1
102
RTVSPropertyOp12
 70
     1
102
RTVSPropertyOp13
 70
     1
102
RTVSPropertyOp14
 70
     1
102
RTVSPropertyOp15
 70
     1
102
RTVSPropertyOp16
 70
     1
102
RTVSPropertyOp17
 70
     1
102
RTVSPropertyOp18
 70
     1
102
RTVSPropertyOp19
 70
     1
102
RTVSPropertyOp20
 70
     1
102
RTVSPropertyOp21
 70
     1
102
RTVSPropertyOp22
 70
     1
102
RTVSPropertyOp23
 70
     1
102
RTVSPropertyOp24
 70
     1
102
RTVSPropertyOp25
 70
     1
102
RTVSPropertyOp26
 70
     1
102
RTVSPropertyOp27
 70
     1
102
RTVSPropertyOp28
 70
     1
102
RTVSPropertyOp29
 70
     1
102
RTVSPropertyOp30
 70
     1
102
RTVSPropertyOp31
 70
     1
102
RTVSPropertyOp32
 70
     1
  0
XRECORD
  5
F65
102
{ACAD_REACTORS
330
F64
102
}
330
F64
100
AcDbXrecord
280
     1
102
RTVSPropertyOp0
 70
     1
102
RTVSPropertyOp1
 70
     1
102
RTVSPropertyOp2
 70
     1
102
RTVSPropertyOp3
 70
     1
102
RTVSPropertyOp4
 70
     1
102
RTVSPropertyOp5
 70
     1
102
RTVSPropertyOp6
 70
     1
102
RTVSPropertyOp7
 70
     1
102
RTVSPropertyOp8
 70
     1
102
RTVSPropertyOp9
 70
     1
102
RTVSPropertyOp10
 70
     1
102
RTVSPropertyOp11
 70
     1
102
RTVSPropertyOp12
 70
     1
102
RTVSPropertyOp13
 70
     1
102
RTVSPropertyOp14
 70
     1
102
RTVSPropertyOp15
 70
     1
102
RTVSPropertyOp16
 70
     1
102
RTVSPropertyOp17
 70
     1
102
RTVSPropertyOp18
 70
     1
102
RTVSPropertyOp19
 70
     1
102
RTVSPropertyOp20
 70
     1
102
RTVSPropertyOp21
 70
     1
102
RTVSPropertyOp22
 70
     1
102
RTVSPropertyOp23
 70
     1
102
RTVSPropertyOp24
 70
     1
102
RTVSPropertyOp25
 70
     1
102
RTVSPropertyOp26
 70
     1
102
RTVSPropertyOp27
 70
     1
102
RTVSPropertyOp28
 70
     1
102
RTVSPropertyOp29
 70
     1
102
RTVSPropertyOp30
 70
     1
102
RTVSPropertyOp31
 70
     1
102
RTVSPropertyOp32
 70
     1
  0
XRECORD
  5
F67
102
{ACAD_REACTORS
330
F66
102
}
330
F66
100
AcDbXrecord
280
     1
102
RTVSPropertyOp0
 70
     1
102
RTVSPropertyOp1
 70
     1
102
RTVSPropertyOp2
 70
     1
102
RTVSPropertyOp3
 70
     1
102
RTVSPropertyOp4
 70
     1
102
RTVSPropertyOp5
 70
     1
102
RTVSPropertyOp6
 70
     1
102
RTVSPropertyOp7
 70
     1
102
RTVSPropertyOp8
 70
     1
102
RTVSPropertyOp9
 70
     1
102
RTVSPropertyOp10
 70
     1
102
RTVSPropertyOp11
 70
     1
102
RTVSPropertyOp12
 70
     1
102
RTVSPropertyOp13
 70
     1
102
RTVSPropertyOp14
 70
     1
102
RTVSPropertyOp15
 70
     1
102
RTVSPropertyOp16
 70
     1
102
RTVSPropertyOp17
 70
     1
102
RTVSPropertyOp18
 70
     1
102
RTVSPropertyOp19
 70
     1
102
RTVSPropertyOp20
 70
     1
102
RTVSPropertyOp21
 70
     1
102
RTVSPropertyOp22
 70
     1
102
RTVSPropertyOp23
 70
     1
102
RTVSPropertyOp24
 70
     1
102
RTVSPropertyOp25
 70
     1
102
RTVSPropertyOp26
 70
     1
102
RTVSPropertyOp27
 70
     1
102
RTVSPropertyOp28
 70
     1
102
RTVSPropertyOp29
 70
     1
102
RTVSPropertyOp30
 70
     1
102
RTVSPropertyOp31
 70
     1
102
RTVSPropertyOp32
 70
     1
  0
XRECORD
  5
F5D
102
{ACAD_REACTORS
330
F5C
102
}
330
F5C
100
AcDbXrecord
280
     1
102
RTVSPropertyOp0
 70
     1
102
RTVSPropertyOp1
 70
     1
102
RTVSPropertyOp2
 70
     1
102
RTVSPropertyOp3
 70
     1
102
RTVSPropertyOp4
 70
     1
102
RTVSPropertyOp5
 70
     1
102
RTVSPropertyOp6
 70
     1
102
RTVSPropertyOp7
 70
     1
102
RTVSPropertyOp8
 70
     1
102
RTVSPropertyOp9
 70
     1
102
RTVSPropertyOp10
 70
     1
102
RTVSPropertyOp11
 70
     1
102
RTVSPropertyOp12
 70
     1
102
RTVSPropertyOp13
 70
     1
102
RTVSPropertyOp14
 70
     1
102
RTVSPropertyOp15
 70
     1
102
RTVSPropertyOp16
 70
     1
102
RTVSPropertyOp17
 70
     1
102
RTVSPropertyOp18
 70
     1
102
RTVSPropertyOp19
 70
     1
102
RTVSPropertyOp20
 70
     1
102
RTVSPropertyOp21
 70
     1
102
RTVSPropertyOp22
 70
     1
102
RTVSPropertyOp23
 70
     1
102
RTVSPropertyOp24
 70
     1
102
RTVSPropertyOp25
 70
     1
102
RTVSPropertyOp26
 70
     1
102
RTVSPropertyOp27
 70
     1
102
RTVSPropertyOp28
 70
     1
102
RTVSPropertyOp29
 70
     1
102
RTVSPropertyOp30
 70
     1
102
RTVSPropertyOp31
 70
     1
102
RTVSPropertyOp32
 70
     1
  0
XRECORD
  5
F51
102
{ACAD_REACTORS
330
F50
102
}
330
F50
100
AcDbXrecord
280
     1
102
RTVSPropertyOp0
 70
     1
102
RTVSPropertyOp1
 70
     1
102
RTVSPropertyOp2
 70
     1
102
RTVSPropertyOp3
 70
     1
102
RTVSPropertyOp4
 70
     1
102
RTVSPropertyOp5
 70
     1
102
RTVSPropertyOp6
 70
     1
102
RTVSPropertyOp7
 70
     1
102
RTVSPropertyOp8
 70
     1
102
RTVSPropertyOp9
 70
     1
102
RTVSPropertyOp10
 70
     1
102
RTVSPropertyOp11
 70
     1
102
RTVSPropertyOp12
 70
     1
102
RTVSPropertyOp13
 70
     1
102
RTVSPropertyOp14
 70
     1
102
RTVSPropertyOp15
 70
     1
102
RTVSPropertyOp16
 70
     1
102
RTVSPropertyOp17
 70
     1
102
RTVSPropertyOp18
 70
     1
102
RTVSPropertyOp19
 70
     1
102
RTVSPropertyOp20
 70
     1
102
RTVSPropertyOp21
 70
     1
102
RTVSPropertyOp22
 70
     1
102
RTVSPropertyOp23
 70
     1
102
RTVSPropertyOp24
 70
     1
102
RTVSPropertyOp25
 70
     1
102
RTVSPropertyOp26
 70
     1
102
RTVSPropertyOp27
 70
     1
102
RTVSPropertyOp28
 70
     1
102
RTVSPropertyOp29
 70
     1
102
RTVSPropertyOp30
 70
     1
102
RTVSPropertyOp31
 70
     1
102
RTVSPropertyOp32
 70
     1
  0
XRECORD
  5
F69
102
{ACAD_REACTORS
330
F68
102
}
330
F68
100
AcDbXrecord
280
     1
102
RTVSPropertyOp0
 70
     1
102
RTVSPropertyOp1
 70
     1
102
RTVSPropertyOp2
 70
     1
102
RTVSPropertyOp3
 70
     1
102
RTVSPropertyOp4
 70
     1
102
RTVSPropertyOp5
 70
     1
102
RTVSPropertyOp6
 70
     1
102
RTVSPropertyOp7
 70
     1
102
RTVSPropertyOp8
 70
     1
102
RTVSPropertyOp9
 70
     1
102
RTVSPropertyOp10
 70
     1
102
RTVSPropertyOp11
 70
     1
102
RTVSPropertyOp12
 70
     1
102
RTVSPropertyOp13
 70
     1
102
RTVSPropertyOp14
 70
     1
102
RTVSPropertyOp15
 70
     1
102
RTVSPropertyOp16
 70
     1
102
RTVSPropertyOp17
 70
     1
102
RTVSPropertyOp18
 70
     1
102
RTVSPropertyOp19
 70
     1
102
RTVSPropertyOp20
 70
     1
102
RTVSPropertyOp21
 70
     1
102
RTVSPropertyOp22
 70
     1
102
RTVSPropertyOp23
 70
     1
102
RTVSPropertyOp24
 70
     1
102
RTVSPropertyOp25
 70
     1
102
RTVSPropertyOp26
 70
     1
102
RTVSPropertyOp27
 70
     1
102
RTVSPropertyOp28
 70
     1
102
RTVSPropertyOp29
 70
     1
102
RTVSPropertyOp30
 70
     1
102
RTVSPropertyOp31
 70
     1
102
RTVSPropertyOp32
 70
     1
  0
ENDSEC
  0
EOF
