  0
SECTION
  2
HEADER
  9
$ACADVER
  1
AC1015
  9
$ACADMAINTVER
 70
    18
  9
$DWGCODEPAGE
  3
ANSI_1252
  9
$INSBASE
 10
0.0
 20
0.0
 30
0.0
  9
$EXTMIN
 10
0.0
 20
0.0
 30
0.0
  9
$EXTMAX
 10
113.3333333333333
 20
73.33333333333334
 30
0.0
  9
$LIMMIN
 10
0.0
 20
0.0
  9
$LIMMAX
 10
113.3333333333333
 20
73.33333333333334
  9
$ORTHOMODE
 70
     0
  9
$REGENMODE
 70
     1
  9
$FILLMODE
 70
     1
  9
$QTEXTMODE
 70
     0
  9
$MIRRTEXT
 70
     0
  9
$LTSCALE
 40
6.666666666666666
  9
$ATTMODE
 70
     1
  9
$TEXTSIZE
 40
0.2
  9
$TRACEWID
 40
0.05
  9
$TEXTSTYLE
  7
Standard
  9
$CLAYER
  8
0
  9
$CELTYPE
  6
ByLayer
  9
$CECOLOR
 62
   256
  9
$CELTSCALE
 40
1.0
  9
$DISPSILH
 70
     0
  9
$DIMSCALE
 40
1.0
  9
$DIMASZ
 40
0.0708661417322835
  9
$DIMEXO
 40
0.0625
  9
$DIMDLI
 40
0.38
  9
$DIMRND
 40
0.0
  9
$DIMDLE
 40
0.0
  9
$DIMEXE
 40
0.18
  9
$DIMTP
 40
0.0
  9
$DIMTM
 40
0.0
  9
$DIMTXT
 40
0.0708661417322835
  9
$DIMCEN
 40
0.09
  9
$DIMTSZ
 40
0.0
  9
$DIMTOL
 70
     0
  9
$DIMLIM
 70
     0
  9
$DIMTIH
 70
     1
  9
$DIMTOH
 70
     1
  9
$DIMSE1
 70
     0
  9
$DIMSE2
 70
     0
  9
$DIMTAD
 70
     0
  9
$DIMZIN
 70
     0
  9
$DIMBLK
  1

  9
$DIMASO
 70
     1
  9
$DIMSHO
 70
     1
  9
$DIMPOST
  1

  9
$DIMAPOST
  1

  9
$DIMALT
 70
     0
  9
$DIMALTD
 70
     2
  9
$DIMALTF
 40
25.4
  9
$DIMLFAC
 40
1.0
  9
$DIMTOFL
 70
     0
  9
$DIMTVP
 40
0.0
  9
$DIMTIX
 70
     0
  9
$DIMSOXD
 70
     0
  9
$DIMSAH
 70
     0
  9
$DIMBLK1
  1

  9
$DIMBLK2
  1

  9
$DIMSTYLE
  2
STANDARD
  9
$DIMCLRD
 70
     0
  9
$DIMCLRE
 70
     0
  9
$DIMCLRT
 70
     0
  9
$DIMTFAC
 40
1.0
  9
$DIMGAP
 40
0.09
  9
$DIMJUST
 70
     0
  9
$DIMSD1
 70
     0
  9
$DIMSD2
 70
     0
  9
$DIMTOLJ
 70
     1
  9
$DIMTZIN
 70
     0
  9
$DIMALTZ
 70
     0
  9
$DIMALTTZ
 70
     0
  9
$DIMUPT
 70
     0
  9
$DIMDEC
 70
     4
  9
$DIMTDEC
 70
     4
  9
$DIMALTU
 70
     2
  9
$DIMALTTD
 70
     2
  9
$DIMTXSTY
  7
Standard
  9
$DIMAUNIT
 70
     0
  9
$DIMADEC
 70
     0
  9
$DIMALTRND
 40
0.0
  9
$DIMAZIN
 70
     0
  9
$DIMDSEP
 70
    46
  9
$DIMATFIT
 70
     3
  9
$DIMFRAC
 70
     0
  9
$DIMLDRBLK
  1

  9
$DIMLUNIT
 70
     2
  9
$DIMLWD
 70
    -2
  9
$DIMLWE
 70
    -2
  9
$DIMTMOVE
 70
     0
  9
$LUNITS
 70
     2
  9
$LUPREC
 70
     4
  9
$SKETCHINC
 40
0.1
  9
$FILLETRAD
 40
0.0
  9
$AUNITS
 70
     0
  9
$AUPREC
 70
     0
  9
$MENU
  1
.
  9
$ELEVATION
 40
0.0
  9
$PELEVATION
 40
0.0
  9
$THICKNESS
 40
0.0
  9
$LIMCHECK
 70
     0
  9
$CHAMFERA
 40
0.0
  9
$CHAMFERB
 40
0.0
  9
$CHAMFERC
 40
0.0
  9
$CHAMFERD
 40
0.0
  9
$SKPOLY
 70
     0
  9
$TDCREATE
 40
2455944.541606482
  9
$TDUCREATE
 40
2455944.791606482
  9
$TDUPDATE
 40
2455944.541606482
  9
$TDUUPDATE
 40
2455944.791606482
  9
$TDINDWG
 40
0.0000387037
  9
$TDUSRTIMER
 40
0.0000387037
  9
$USRTIMER
 70
     1
  9
$ANGBASE
 50
0.0
  9
$ANGDIR
 70
     0
  9
$PDMODE
 70
     0
  9
$PDSIZE
 40
0.0
  9
$PLINEWID
 40
0.0
  9
$SPLFRAME
 70
     0
  9
$SPLINETYPE
 70
     6
  9
$SPLINESEGS
 70
     8
  9
$HANDSEED
  5
F5F
  9
$SURFTAB1
 70
     6
  9
$SURFTAB2
 70
     6
  9
$SURFTYPE
 70
     6
  9
$SURFU
 70
     6
  9
$SURFV
 70
     6
  9
$UCSBASE
  2

  9
$UCSNAME
  2

  9
$UCSORG
 10
0.0
 20
0.0
 30
0.0
  9
$UCSXDIR
 10
1.0
 20
0.0
 30
0.0
  9
$UCSYDIR
 10
0.0
 20
1.0
 30
0.0
  9
$UCSORTHOREF
  2

  9
$UCSORTHOVIEW
 70
     0
  9
$UCSORGTOP
 10
0.0
 20
0.0
 30
0.0
  9
$UCSORGBOTTOM
 10
0.0
 20
0.0
 30
0.0
  9
$UCSORGLEFT
 10
0.0
 20
0.0
 30
0.0
  9
$UCSORGRIGHT
 10
0.0
 20
0.0
 30
0.0
  9
$UCSORGFRONT
 10
0.0
 20
0.0
 30
0.0
  9
$UCSORGBACK
 10
0.0
 20
0.0
 30
0.0
  9
$PUCSBASE
  2

  9
$PUCSNAME
  2

  9
$PUCSORG
 10
0.0
 20
0.0
 30
0.0
  9
$PUCSXDIR
 10
1.0
 20
0.0
 30
0.0
  9
$PUCSYDIR
 10
0.0
 20
1.0
 30
0.0
  9
$PUCSORTHOREF
  2

  9
$PUCSORTHOVIEW
 70
     0
  9
$PUCSORGTOP
 10
0.0
 20
0.0
 30
0.0
  9
$PUCSORGBOTTOM
 10
0.0
 20
0.0
 30
0.0
  9
$PUCSORGLEFT
 10
0.0
 20
0.0
 30
0.0
  9
$PUCSORGRIGHT
 10
0.0
 20
0.0
 30
0.0
  9
$PUCSORGFRONT
 10
0.0
 20
0.0
 30
0.0
  9
$PUCSORGBACK
 10
0.0
 20
0.0
 30
0.0
  9
$USERI1
 70
     0
  9
$USERI2
 70
     0
  9
$USERI3
 70
     0
  9
$USERI4
 70
     0
  9
$USERI5
 70
     0
  9
$USERR1
 40
0.0
  9
$USERR2
 40
0.0
  9
$USERR3
 40
0.0
  9
$USERR4
 40
0.0
  9
$USERR5
 40
0.0
  9
$WORLDVIEW
 70
     1
  9
$SHADEDGE
 70
     3
  9
$SHADEDIF
 70
    70
  9
$TILEMODE
 70
     1
  9
$MAXACTVP
 70
    64
  9
$PINSBASE
 10
0.0
 20
0.0
 30
0.0
  9
$PLIMCHECK
 70
     0
  9
$PEXTMIN
 10
0.0
 20
0.0
 30
0.0
  9
$PEXTMAX
 10
113.3333333333333
 20
73.33333333333334
 30
0.0
  9
$PLIMMIN
 10
0.0
 20
0.0
  9
$PLIMMAX
 10
113.3333333333333
 20
73.33333333333334
  9
$UNITMODE
 70
     0
  9
$VISRETAIN
 70
     1
  9
$PLINEGEN
 70
     0
  9
$PSLTSCALE
 70
     1
  9
$TREEDEPTH
 70
  3020
  9
$CMLSTYLE
  2
Standard
  9
$CMLJUST
 70
     0
  9
$CMLSCALE
 40
1.0
  9
$PROXYGRAPHICS
 70
     1
  9
$MEASUREMENT
 70
     0
  9
$CELWEIGHT
370
    -1
  9
$ENDCAPS
280
     0
  9
$JOINSTYLE
280
     0
  9
$LWDISPLAY
290
     0
  9
$INSUNITS
 70
     1
  9
$HYPERLINKBASE
  1

  9
$STYLESHEET
  1

  9
$XEDIT
290
     1
  9
$CEPSNTYPE
380
     0
  9
$PSTYLEMODE
290
     1
  9
$FINGERPRINTGUID
  2
{F54C565E-252B-44DB-A71B-EF4BE0D039A1}
  9
$VERSIONGUID
  2
{952D1F5F-E0D0-421F-B090-F618999A92AE}
  9
$EXTNAMES
290
     1
  9
$PSVPSCALE
 40
0.0
  9
$OLESTARTUP
290
     0
  0
ENDSEC
  0
SECTION
  2
CLASSES
  0
CLASS
  1
ACDBDICTIONARYWDFLT
  2
AcDbDictionaryWithDefault
  3
ObjectDBX Classes
 90
        0
280
     0
281
     0
  0
CLASS
  1
MATERIAL
  2
AcDbMaterial
  3
ObjectDBX Classes
 90
     1153
280
     0
281
     0
  0
CLASS
  1
VISUALSTYLE
  2
AcDbVisualStyle
  3
ObjectDBX Classes
 90
     4095
280
     0
281
     0
  0
CLASS
  1
SCALE
  2
AcDbScale
  3
ObjectDBX Classes
 90
     1153
280
     0
281
     0
  0
CLASS
  1
TABLESTYLE
  2
AcDbTableStyle
  3
ObjectDBX Classes
 90
     4095
280
     0
281
     0
  0
CLASS
  1
MLEADERSTYLE
  2
AcDbMLeaderStyle
  3
ACDB_MLEADERSTYLE_CLASS
 90
     4095
280
     0
281
     0
  0
CLASS
  1
DICTIONARYVAR
  2
AcDbDictionaryVar
  3
ObjectDBX Classes
 90
        0
280
     0
281
     0
  0
CLASS
  1
CELLSTYLEMAP
  2
AcDbCellStyleMap
  3
ObjectDBX Classes
 90
     1152
280
     0
281
     0
  0
CLASS
  1
ACDBPLACEHOLDER
  2
AcDbPlaceHolder
  3
ObjectDBX Classes
 90
        0
280
     0
281
     0
  0
CLASS
  1
LAYOUT
  2
AcDbLayout
  3
ObjectDBX Classes
 90
        0
280
     0
281
     0
  0
ENDSEC
  0
SECTION
  2
TABLES
  0
TABLE
  2
VPORT
  5
8
330
0
100
AcDbSymbolTable
 70
     1
  0
VPORT
  5
57
330
8
100
AcDbSymbolTableRecord
100
AcDbViewportTableRecord
  2
*Active
 70
     0
 10
0.0
 20
0.0
 11
1.0
 21
1.0
 12
56.66666666666667
 22
36.66666666666667
 13
0.0
 23
0.0
 14
1.0
 24
1.0
 15
0.0
 25
0.0
 16
0.0
 26
0.0
 36
1.0
 17
0.0
 27
0.0
 37
0.0
 40
73.33333333333334
 41
1.545454545454545
 42
50.0
 43
0.0
 44
0.0
 50
0.0
 51
0.0
 71
     0
 72
   100
 73
     1
 74
     1
 75
     0
 76
     0
 77
     0
 78
     0
281
     0
 65
     1
110
0.0
120
0.0
130
0.0
111
1.0
121
0.0
131
0.0
112
0.0
122
1.0
132
0.0
 79
     0
146
0.0
  0
ENDTAB
  0
TABLE
  2
LTYPE
  5
5
330
0
100
AcDbSymbolTable
 70
    59
  0
LTYPE
  5
5B
330
5
100
AcDbSymbolTableRecord
100
AcDbLinetypeTableRecord
  2
ByBlock
 70
     0
  3

 72
    65
 73
     0
 40
0.0
  0
LTYPE
  5
5C
330
5
100
AcDbSymbolTableRecord
100
AcDbLinetypeTableRecord
  2
ByLayer
 70
     0
  3

 72
    65
 73
     0
 40
0.0
  0
LTYPE
  5
5D
330
5
100
AcDbSymbolTableRecord
100
AcDbLinetypeTableRecord
  2
Continuous
 70
     0
  3
Solid line
 72
    65
 73
     0
 40
0.0
  0
LTYPE
  5
DE
330
5
100
AcDbSymbolTableRecord
100
AcDbLinetypeTableRecord
  2
BY_STANDARD
 70
     0
  3
By Standard ____________    ____    ____   _
 72
    65
 73
     6
 40
1.240299999999999
 49
0.6614
 74
     0
 49
-0.0827
 74
     0
 49
0.1654
 74
     0
 49
-0.0827
 74
     0
 49
0.1654
 74
     0
 49
-0.0827
 74
     0
  0
LTYPE
  5
DF
330
5
100
AcDbSymbolTableRecord
100
AcDbLinetypeTableRecord
  2
CHAIN
 70
     0
  3
Chain ____ _ ____ _ ____ _ ____ _ ____ _ ____
 72
    65
 73
     4
 40
0.7087
 49
0.4724000000000001
 74
     0
 49
-0.0591
 74
     0
 49
0.1181
 74
     0
 49
-0.0591
 74
     0
  0
LTYPE
  5
E0
330
5
100
AcDbSymbolTableRecord
100
AcDbLinetypeTableRecord
  2
DASH_DOT
 70
     0
  3
Dash dot __ . __ . __ . __ . __ . __ . __ . __
 72
    65
 73
     4
 40
0.37
 49
0.24
 74
     0
 49
-0.06
 74
     0
 49
0.01
 74
     0
 49
-0.06
 74
     0
  0
LTYPE
  5
E1
330
5
100
AcDbSymbolTableRecord
100
AcDbLinetypeTableRecord
  2
DOUBLE_DASH_DOT
 70
     0
  3
Double-Dash Dot __ __ . __ __ . __ __ . __ _
 72
    65
 73
     6
 40
0.4398
 49
0.24
 74
     0
 49
-0.06
 74
     0
 49
0.0098
 74
     0
 49
-0.06
 74
     0
 49
0.01
 74
     0
 49
-0.06
 74
     0
  0
LTYPE
  5
E2
330
5
100
AcDbSymbolTableRecord
100
AcDbLinetypeTableRecord
  2
DASH_TRIPLE_DOT
 70
     0
  3
Dash Triple-Dot _ . . . _ . . . _ . . . _
 72
    65
 73
     8
 40
0.51
 49
0.24
 74
     0
 49
-0.06
 74
     0
 49
0.01
 74
     0
 49
-0.06
 74
     0
 49
0.01
 74
     0
 49
-0.06
 74
     0
 49
0.01
 74
     0
 49
-0.06
 74
     0
  0
LTYPE
  5
E3
330
5
100
AcDbSymbolTableRecord
100
AcDbLinetypeTableRecord
  2
DASHED
 70
     0
  3
Dashed __ __ __ __ __ __ __ __ __ __ __ __ __ _
 72
    65
 73
     2
 40
0.2067
 49
0.1654
 74
     0
 49
-0.0413
 74
     0
  0
LTYPE
  5
E4
330
5
100
AcDbSymbolTableRecord
100
AcDbLinetypeTableRecord
  2
DASH_DOUBLE_DOT
 70
     0
  3
Dash Double-Dot __ . . __ . . __ . . __ . .
 72
    65
 73
     6
 40
0.4398
 49
0.24
 74
     0
 49
-0.06
 74
     0
 49
0.0098
 74
     0
 49
-0.06
 74
     0
 49
0.01
 74
     0
 49
-0.06
 74
     0
  0
LTYPE
  5
E5
330
5
100
AcDbSymbolTableRecord
100
AcDbLinetypeTableRecord
  2
DASHED_SPACE
 70
     0
  3
Dashed Space __ __ __ __ __ __ __ __ __ __ __ _
 72
    65
 73
     2
 40
0.2067
 49
0.1654
 74
     0
 49
-0.0413
 74
     0
  0
LTYPE
  5
E6
330
5
100
AcDbSymbolTableRecord
100
AcDbLinetypeTableRecord
  2
DOTTED
 70
     0
  3
Dotted . . . . . . . . . . . . . . . . . . . . 
 72
    65
 73
     2
 40
0.0482
 49
0.0069
 74
     0
 49
-0.0413
 74
     0
  0
LTYPE
  5
E7
330
5
100
AcDbSymbolTableRecord
100
AcDbLinetypeTableRecord
  2
DOUBLE_DASH_CHAIN
 70
     0
  3
Double-Dash Chain ______  __  __  ______  __  _
 72
    65
 73
     6
 40
1.240299999999999
 49
0.6614
 74
     0
 49
-0.0827
 74
     0
 49
0.1654
 74
     0
 49
-0.0827
 74
     0
 49
0.1654
 74
     0
 49
-0.0827
 74
     0
  0
LTYPE
  5
E9
330
5
100
AcDbSymbolTableRecord
100
AcDbLinetypeTableRecord
  2
DOUBLE_DASH_DOUBLE_DOT
 70
     0
  3
Double-Dash Double-dot _ _ . . _ _ . . _
 72
    65
 73
     8
 40
0.7400000000000001
 49
0.24
 74
     0
 49
-0.06
 74
     0
 49
0.24
 74
     0
 49
-0.06
 74
     0
 49
0.01
 74
     0
 49
-0.06
 74
     0
 49
0.01
 74
     0
 49
-0.06
 74
     0
  0
LTYPE
  5
EA
330
5
100
AcDbSymbolTableRecord
100
AcDbLinetypeTableRecord
  2
DOUBLE_DASH_TRIPLE_DOT
 70
     0
  3
Double Dash Triple Dot __ __ . . . __ __ . .
 72
    65
 73
    10
 40
0.8100000000000001
 49
0.24
 74
     0
 49
-0.06
 74
     0
 49
0.24
 74
     0
 49
-0.06
 74
     0
 49
0.01
 74
     0
 49
-0.06
 74
     0
 49
0.01
 74
     0
 49
-0.06
 74
     0
 49
0.01
 74
     0
 49
-0.06
 74
     0
  0
LTYPE
  5
EB
330
5
100
AcDbSymbolTableRecord
100
AcDbLinetypeTableRecord
  2
LONG_DASH_DOTTED
 70
     0
  3
Long Dash Dotted ____ . ____ . ____ . ____ . _
 72
    65
 73
     4
 40
0.3543
 49
0.2362
 74
     0
 49
-0.0295
 74
     0
 49
0.0591
 74
     0
 49
-0.0295
 74
     0
  0
LTYPE
  5
EC
330
5
100
AcDbSymbolTableRecord
100
AcDbLinetypeTableRecord
  2
LONG_DASH_DOUBLE_DOT
 70
     0
  3
Long Dash Double Dot ________  .  .  ________  
 72
    65
 73
     6
 40
0.6799999999999999
 49
0.48
 74
     0
 49
-0.06
 74
     0
 49
0.01
 74
     0
 49
-0.06
 74
     0
 49
0.01
 74
     0
 49
-0.06
 74
     0
  0
LTYPE
  5
ED
330
5
100
AcDbSymbolTableRecord
100
AcDbLinetypeTableRecord
  2
LONG_DASH_TRIPLE_DOT
 70
     0
  3
Long Dash Triple Dot ____ ... ____ ... ____
 72
    65
 73
     8
 40
0.3689
 49
0.2362
 74
     0
 49
-0.0295
 74
     0
 49
0.0049
 74
     0
 49
-0.0295
 74
     0
 49
0.0049
 74
     0
 49
-0.0295
 74
     0
 49
0.0049
 74
     0
 49
-0.0295
 74
     0
  0
LTYPE
  5
EE
330
5
100
AcDbSymbolTableRecord
100
AcDbLinetypeTableRecord
  2
BORDER
 70
     0
  3
Border __ __ . __ __ . __ __ . __ __ . __ __ .
 72
    65
 73
     6
 40
1.75
 49
0.5
 74
     0
 49
-0.25
 74
     0
 49
0.5
 74
     0
 49
-0.25
 74
     0
 49
0.0
 74
     0
 49
-0.25
 74
     0
  0
LTYPE
  5
EF
330
5
100
AcDbSymbolTableRecord
100
AcDbLinetypeTableRecord
  2
BORDER2
 70
     0
  3
Border (.5x) __.__.__.__.__.__.__.__.__.__.__.
 72
    65
 73
     6
 40
0.875
 49
0.25
 74
     0
 49
-0.125
 74
     0
 49
0.25
 74
     0
 49
-0.125
 74
     0
 49
0.0
 74
     0
 49
-0.125
 74
     0
  0
LTYPE
  5
F0
330
5
100
AcDbSymbolTableRecord
100
AcDbLinetypeTableRecord
  2
BORDERX2
 70
     0
  3
Border (2x) ____  ____  .  ____  ____  .  ___
 72
    65
 73
     6
 40
3.5
 49
1.0
 74
     0
 49
-0.5
 74
     0
 49
1.0
 74
     0
 49
-0.5
 74
     0
 49
0.0
 74
     0
 49
-0.5
 74
     0
  0
LTYPE
  5
F1
330
5
100
AcDbSymbolTableRecord
100
AcDbLinetypeTableRecord
  2
CENTER
 70
     0
  3
Center ____ _ ____ _ ____ _ ____ _ ____ _ ____
 72
    65
 73
     4
 40
2.0
 49
1.25
 74
     0
 49
-0.25
 74
     0
 49
0.25
 74
     0
 49
-0.25
 74
     0
  0
LTYPE
  5
F2
330
5
100
AcDbSymbolTableRecord
100
AcDbLinetypeTableRecord
  2
CENTER2
 70
     0
  3
Center (.5x) ___ _ ___ _ ___ _ ___ _ ___ _ ___
 72
    65
 73
     4
 40
1.125
 49
0.75
 74
     0
 49
-0.125
 74
     0
 49
0.125
 74
     0
 49
-0.125
 74
     0
  0
LTYPE
  5
F3
330
5
100
AcDbSymbolTableRecord
100
AcDbLinetypeTableRecord
  2
CENTERX2
 70
     0
  3
Center (2x) ________  __  ________  __  _____
 72
    65
 73
     4
 40
4.0
 49
2.5
 74
     0
 49
-0.5
 74
     0
 49
0.5
 74
     0
 49
-0.5
 74
     0
  0
LTYPE
  5
F4
330
5
100
AcDbSymbolTableRecord
100
AcDbLinetypeTableRecord
  2
DASHDOT2
 70
     0
  3
Dash dot (.5x) _._._._._._._._._._._._._._._.
 72
    65
 73
     4
 40
0.5
 49
0.25
 74
     0
 49
-0.125
 74
     0
 49
0.0
 74
     0
 49
-0.125
 74
     0
  0
LTYPE
  5
F5
330
5
100
AcDbSymbolTableRecord
100
AcDbLinetypeTableRecord
  2
DASHDOTX2
 70
     0
  3
Dash dot (2x) ____  .  ____  .  ____  .  ___
 72
    65
 73
     4
 40
2.0
 49
1.0
 74
     0
 49
-0.5
 74
     0
 49
0.0
 74
     0
 49
-0.5
 74
     0
  0
LTYPE
  5
F7
330
5
100
AcDbSymbolTableRecord
100
AcDbLinetypeTableRecord
  2
DASHED2
 70
     0
  3
Dashed (.5x) _ _ _ _ _ _ _ _ _ _ _ _ _ _ _ _ _
 72
    65
 73
     2
 40
0.375
 49
0.25
 74
     0
 49
-0.125
 74
     0
  0
LTYPE
  5
F8
330
5
100
AcDbSymbolTableRecord
100
AcDbLinetypeTableRecord
  2
DASHEDX2
 70
     0
  3
Dashed (2x) ____  ____  ____  ____  ____  ___
 72
    65
 73
     2
 40
1.5
 49
1.0
 74
     0
 49
-0.5
 74
     0
  0
LTYPE
  5
F9
330
5
100
AcDbSymbolTableRecord
100
AcDbLinetypeTableRecord
  2
DIVIDE
 70
     0
  3
Divide ____ . . ____ . . ____ . . ____ . . ____
 72
    65
 73
     6
 40
1.25
 49
0.5
 74
     0
 49
-0.25
 74
     0
 49
0.0
 74
     0
 49
-0.25
 74
     0
 49
0.0
 74
     0
 49
-0.25
 74
     0
  0
LTYPE
  5
FA
330
5
100
AcDbSymbolTableRecord
100
AcDbLinetypeTableRecord
  2
DIVIDE2
 70
     0
  3
Divide (.5x) __..__..__..__..__..__..__..__.._
 72
    65
 73
     6
 40
0.625
 49
0.25
 74
     0
 49
-0.125
 74
     0
 49
0.0
 74
     0
 49
-0.125
 74
     0
 49
0.0
 74
     0
 49
-0.125
 74
     0
  0
LTYPE
  5
FB
330
5
100
AcDbSymbolTableRecord
100
AcDbLinetypeTableRecord
  2
DIVIDEX2
 70
     0
  3
Divide (2x) ________  .  .  ________  .  .  _
 72
    65
 73
     6
 40
2.5
 49
1.0
 74
     0
 49
-0.5
 74
     0
 49
0.0
 74
     0
 49
-0.5
 74
     0
 49
0.0
 74
     0
 49
-0.5
 74
     0
  0
LTYPE
  5
FC
330
5
100
AcDbSymbolTableRecord
100
AcDbLinetypeTableRecord
  2
DOT
 70
     0
  3
Dot . . . . . . . . . . . . . . . . . . . . . .
 72
    65
 73
     2
 40
0.25
 49
0.0
 74
     0
 49
-0.25
 74
     0
  0
LTYPE
  5
FD
330
5
100
AcDbSymbolTableRecord
100
AcDbLinetypeTableRecord
  2
DOT2
 70
     0
  3
Dot (.5x) .....................................
 72
    65
 73
     2
 40
0.125
 49
0.0
 74
     0
 49
-0.125
 74
     0
  0
LTYPE
  5
FE
330
5
100
AcDbSymbolTableRecord
100
AcDbLinetypeTableRecord
  2
DOTX2
 70
     0
  3
Dot (2x) .  .  .  .  .  .  .  .  .  .  .  .  . 
 72
    65
 73
     2
 40
0.5
 49
0.0
 74
     0
 49
-0.5
 74
     0
  0
LTYPE
  5
FF
330
5
100
AcDbSymbolTableRecord
100
AcDbLinetypeTableRecord
  2
HIDDEN
 70
     0
  3
Hidden __ __ __ __ __ __ __ __ __ __ __ __ __ _
 72
    65
 73
     2
 40
0.375
 49
0.25
 74
     0
 49
-0.125
 74
     0
  0
LTYPE
  5
100
330
5
100
AcDbSymbolTableRecord
100
AcDbLinetypeTableRecord
  2
HIDDEN2
 70
     0
  3
Hidden (.5x) _ _ _ _ _ _ _ _ _ _ _ _ _ _ _ _ _
 72
    65
 73
     2
 40
0.1875
 49
0.125
 74
     0
 49
-0.0625
 74
     0
  0
LTYPE
  5
101
330
5
100
AcDbSymbolTableRecord
100
AcDbLinetypeTableRecord
  2
HIDDENX2
 70
     0
  3
Hidden (2x) ____ ____ ____ ____ ____ ____ ____
 72
    65
 73
     2
 40
0.75
 49
0.5
 74
     0
 49
-0.25
 74
     0
  0
LTYPE
  5
102
330
5
100
AcDbSymbolTableRecord
100
AcDbLinetypeTableRecord
  2
PHANTOM
 70
     0
  3
Phantom ______  __  __  ______  __  __  ______
 72
    65
 73
     6
 40
2.5
 49
1.25
 74
     0
 49
-0.25
 74
     0
 49
0.25
 74
     0
 49
-0.25
 74
     0
 49
0.25
 74
     0
 49
-0.25
 74
     0
  0
LTYPE
  5
103
330
5
100
AcDbSymbolTableRecord
100
AcDbLinetypeTableRecord
  2
PHANTOM2
 70
     0
  3
Phantom (.5x) ___ _ _ ___ _ _ ___ _ _ ___ _ _
 72
    65
 73
     6
 40
1.25
 49
0.625
 74
     0
 49
-0.125
 74
     0
 49
0.125
 74
     0
 49
-0.125
 74
     0
 49
0.125
 74
     0
 49
-0.125
 74
     0
  0
LTYPE
  5
104
330
5
100
AcDbSymbolTableRecord
100
AcDbLinetypeTableRecord
  2
PHANTOMX2
 70
     0
  3
Phantom (2x) ____________    ____    ____   _
 72
    65
 73
     6
 40
5.0
 49
2.5
 74
     0
 49
-0.5
 74
     0
 49
0.5
 74
     0
 49
-0.5
 74
     0
 49
0.5
 74
     0
 49
-0.5
 74
     0
  0
LTYPE
  5
105
330
5
100
AcDbSymbolTableRecord
100
AcDbLinetypeTableRecord
  2
ACAD_ISO02W100
 70
     0
  3
ISO dash __ __ __ __ __ __ __ __ __ __ __ __ __
 72
    65
 73
     2
 40
0.59
 49
0.47
 74
     0
 49
-0.12
 74
     0
  0
LTYPE
  5
106
330
5
100
AcDbSymbolTableRecord
100
AcDbLinetypeTableRecord
  2
ACAD_ISO03W100
 70
     0
  3
ISO dash space __    __    __    __    __    __
 72
    65
 73
     2
 40
1.179999999999999
 49
0.47
 74
     0
 49
-0.71
 74
     0
  0
LTYPE
  5
107
330
5
100
AcDbSymbolTableRecord
100
AcDbLinetypeTableRecord
  2
ACAD_ISO04W100
 70
     0
  3
ISO long-dash dot ____ . ____ . ____ . ____ . _
 72
    65
 73
     4
 40
1.179999999999999
 49
0.9399999999999998
 74
     0
 49
-0.12
 74
     0
 49
0.0
 74
     0
 49
-0.12
 74
     0
  0
LTYPE
  5
108
330
5
100
AcDbSymbolTableRecord
100
AcDbLinetypeTableRecord
  2
ACAD_ISO05W100
 70
     0
  3
ISO long-dash double-dot ____ .. ____ .. ____ .
 72
    65
 73
     6
 40
1.299999999999999
 49
0.9399999999999998
 74
     0
 49
-0.12
 74
     0
 49
0.0
 74
     0
 49
-0.12
 74
     0
 49
0.0
 74
     0
 49
-0.12
 74
     0
  0
LTYPE
  5
109
330
5
100
AcDbSymbolTableRecord
100
AcDbLinetypeTableRecord
  2
ACAD_ISO06W100
 70
     0
  3
ISO long-dash triple-dot ____ ... ____ ... ____
 72
    65
 73
     8
 40
1.419999999999999
 49
0.9399999999999998
 74
     0
 49
-0.12
 74
     0
 49
0.0
 74
     0
 49
-0.12
 74
     0
 49
0.0
 74
     0
 49
-0.12
 74
     0
 49
0.0
 74
     0
 49
-0.12
 74
     0
  0
LTYPE
  5
10A
330
5
100
AcDbSymbolTableRecord
100
AcDbLinetypeTableRecord
  2
ACAD_ISO07W100
 70
     0
  3
ISO dot . . . . . . . . . . . . . . . . . . . .
 72
    65
 73
     2
 40
0.12
 49
0.0
 74
     0
 49
-0.12
 74
     0
  0
LTYPE
  5
10B
330
5
100
AcDbSymbolTableRecord
100
AcDbLinetypeTableRecord
  2
ACAD_ISO08W100
 70
     0
  3
ISO long-dash short-dash ____ __ ____ __ ____ _
 72
    65
 73
     4
 40
0.95
 49
0.47
 74
     0
 49
-0.12
 74
     0
 49
0.24
 74
     0
 49
-0.12
 74
     0
  0
LTYPE
  5
10C
330
5
100
AcDbSymbolTableRecord
100
AcDbLinetypeTableRecord
  2
ACAD_ISO09W100
 70
     0
  3
ISO long-dash double-short-dash ____ __ __ ____
 72
    65
 73
     6
 40
1.31
 49
0.47
 74
     0
 49
-0.12
 74
     0
 49
0.24
 74
     0
 49
-0.12
 74
     0
 49
0.24
 74
     0
 49
-0.12
 74
     0
  0
LTYPE
  5
10D
330
5
100
AcDbSymbolTableRecord
100
AcDbLinetypeTableRecord
  2
ACAD_ISO10W100
 70
     0
  3
ISO dash dot __ . __ . __ . __ . __ . __ . __ .
 72
    65
 73
     4
 40
0.71
 49
0.47
 74
     0
 49
-0.12
 74
     0
 49
0.0
 74
     0
 49
-0.12
 74
     0
  0
LTYPE
  5
10E
330
5
100
AcDbSymbolTableRecord
100
AcDbLinetypeTableRecord
  2
ACAD_ISO11W100
 70
     0
  3
ISO double-dash dot __ __ . __ __ . __ __ . __ 
 72
    65
 73
     6
 40
1.299999999999999
 49
0.47
 74
     0
 49
-0.12
 74
     0
 49
0.47
 74
     0
 49
-0.12
 74
     0
 49
0.0
 74
     0
 49
-0.12
 74
     0
  0
LTYPE
  5
10F
330
5
100
AcDbSymbolTableRecord
100
AcDbLinetypeTableRecord
  2
ACAD_ISO12W100
 70
     0
  3
ISO dash double-dot __ . . __ . . __ . . __ . .
 72
    65
 73
     6
 40
0.8299999999999998
 49
0.47
 74
     0
 49
-0.12
 74
     0
 49
0.0
 74
     0
 49
-0.12
 74
     0
 49
0.0
 74
     0
 49
-0.12
 74
     0
  0
LTYPE
  5
110
330
5
100
AcDbSymbolTableRecord
100
AcDbLinetypeTableRecord
  2
ACAD_ISO13W100
 70
     0
  3
ISO double-dash double-dot __ __ . . __ __ . . 
 72
    65
 73
     8
 40
1.419999999999999
 49
0.47
 74
     0
 49
-0.12
 74
     0
 49
0.47
 74
     0
 49
-0.12
 74
     0
 49
0.0
 74
     0
 49
-0.12
 74
     0
 49
0.0
 74
     0
 49
-0.12
 74
     0
  0
LTYPE
  5
111
330
5
100
AcDbSymbolTableRecord
100
AcDbLinetypeTableRecord
  2
ACAD_ISO14W100
 70
     0
  3
ISO dash triple-dot __ . . . __ . . . __ . . . 
 72
    65
 73
     8
 40
0.95
 49
0.47
 74
     0
 49
-0.12
 74
     0
 49
0.0
 74
     0
 49
-0.12
 74
     0
 49
0.0
 74
     0
 49
-0.12
 74
     0
 49
0.0
 74
     0
 49
-0.12
 74
     0
  0
LTYPE
  5
112
330
5
100
AcDbSymbolTableRecord
100
AcDbLinetypeTableRecord
  2
ACAD_ISO15W100
 70
     0
  3
ISO double-dash triple-dot __ __ . . . __ __ . 
 72
    65
 73
    10
 40
1.539999999999999
 49
0.47
 74
     0
 49
-0.12
 74
     0
 49
0.47
 74
     0
 49
-0.12
 74
     0
 49
0.0
 74
     0
 49
-0.12
 74
     0
 49
0.0
 74
     0
 49
-0.12
 74
     0
 49
0.0
 74
     0
 49
-0.12
 74
     0
  0
LTYPE
  5
115
330
5
100
AcDbSymbolTableRecord
100
AcDbLinetypeTableRecord
  2
FENCELINE1
 70
     0
  3
Fenceline circle ----0-----0----0-----0----0---
 72
    65
 73
     4
 40
1.45
 49
0.25
 74
     0
 49
-0.1
 74
     4
 75
   133
340
114
 46
0.1
 50
0.0
 44
-0.1
 45
0.0
 49
-0.1
 74
     0
 49
1.0
 74
     0
  0
LTYPE
  5
116
330
5
100
AcDbSymbolTableRecord
100
AcDbLinetypeTableRecord
  2
FENCELINE2
 70
     0
  3
Fenceline square ----[]-----[]----[]-----[]----
 72
    65
 73
     4
 40
1.45
 49
0.25
 74
     0
 49
-0.1
 74
     4
 75
   132
340
114
 46
0.1
 50
0.0
 44
-0.1
 45
0.0
 49
-0.1
 74
     0
 49
1.0
 74
     0
  0
LTYPE
  5
117
330
5
100
AcDbSymbolTableRecord
100
AcDbLinetypeTableRecord
  2
TRACKS
 70
     0
  3
Tracks -|-|-|-|-|-|-|-|-|-|-|-|-|-|-|-|-|-|-|-|
 72
    65
 73
     2
 40
0.3
 49
0.15
 74
     4
 75
   130
340
114
 46
0.25
 50
0.0
 44
0.0
 45
0.0
 49
0.15
 74
     0
  0
LTYPE
  5
118
330
5
100
AcDbSymbolTableRecord
100
AcDbLinetypeTableRecord
  2
BATTING
 70
     0
  3
Batting SSSSSSSSSSSSSSSSSSSSSSSSSSSSSSSSSSSSSSS
 72
    65
 73
     4
 40
0.4001000000000001
 49
0.0001
 74
     0
 49
-0.1
 74
     4
 75
   134
340
114
 46
0.1
 50
0.0
 44
-0.1
 45
0.0
 49
-0.2
 74
     4
 75
   134
340
114
 46
0.1
 50
180.0
 44
0.1
 45
0.0
 49
-0.1
 74
     0
  0
LTYPE
  5
119
330
5
100
AcDbSymbolTableRecord
100
AcDbLinetypeTableRecord
  2
HOT_WATER_SUPPLY
 70
     0
  3
Hot water supply ---- HW ---- HW ---- HW ----
 72
    65
 73
     3
 40
0.9
 49
0.5
 74
     0
 49
-0.2
 74
     2
 75
     0
340
55
 46
0.1
 50
0.0
 44
-0.1
 45
-0.05
  9
HW
 49
-0.2
 74
     0
  0
LTYPE
  5
11A
330
5
100
AcDbSymbolTableRecord
100
AcDbLinetypeTableRecord
  2
GAS_LINE
 70
     0
  3
Gas line ----GAS----GAS----GAS----GAS----GAS---
 72
    65
 73
     3
 40
0.95
 49
0.5
 74
     0
 49
-0.2
 74
     2
 75
     0
340
55
 46
0.1
 50
0.0
 44
-0.1
 45
-0.05
  9
GAS
 49
-0.25
 74
     0
  0
LTYPE
  5
11B
330
5
100
AcDbSymbolTableRecord
100
AcDbLinetypeTableRecord
  2
ZIGZAG
 70
     0
  3
Zig zag /\/\/\/\/\/\/\/\/\/\/\/\/\/\/\/\/\/\/\/
 72
    65
 73
     4
 40
0.8001000000000001
 49
0.0001
 74
     0
 49
-0.2
 74
     4
 75
   131
340
114
 46
0.2
 50
0.0
 44
-0.2
 45
0.0
 49
-0.4
 74
     4
 75
   131
340
114
 46
0.2
 50
180.0
 44
0.2
 45
0.0
 49
-0.2
 74
     0
  0
ENDTAB
  0
TABLE
  2
LAYER
  5
2
330
0
100
AcDbSymbolTable
 70
    27
  0
LAYER
  5
54
330
2
100
AcDbSymbolTableRecord
100
AcDbLayerTableRecord
  2
0
 70
     0
 62
     7
  6
Continuous
370
    18
390
F
  0
LAYER
  5
75
330
2
100
AcDbSymbolTableRecord
100
AcDbLayerTableRecord
  2
Symbol (ANSI)
 70
     0
 62
     7
  6
Continuous
370
    18
390
F
  0
LAYER
  5
125
330
2
100
AcDbSymbolTableRecord
100
AcDbLayerTableRecord
  2
Dimension (ANSI)
 70
     0
 62
     7
  6
Continuous
370
    13
390
F
  0
LAYER
  5
127
330
2
100
AcDbSymbolTableRecord
100
AcDbLayerTableRecord
  2
Hidden (ANSI)
 70
     0
 62
     7
  6
DASHED
370
    15
390
F
  0
LAYER
  5
130
330
2
100
AcDbSymbolTableRecord
100
AcDbLayerTableRecord
  2
Visible (ANSI)
 70
     0
 62
     7
  6
Continuous
370
    13
390
F
  0
LAYER
  5
131
330
2
100
AcDbSymbolTableRecord
100
AcDbLayerTableRecord
  2
Visible Narrow (ANSI)
 70
     0
 62
     7
  6
Continuous
370
    18
390
F
  0
LAYER
  5
25F
330
2
100
AcDbSymbolTableRecord
100
AcDbLayerTableRecord
  2
Defpoints
 70
     0
 62
     7
  6
Continuous
290
     0
370
    -3
390
F
  0
ENDTAB
  0
TABLE
  2
STYLE
  5
3
330
0
100
AcDbSymbolTable
 70
    18
  0
STYLE
  5
55
330
3
100
AcDbSymbolTableRecord
100
AcDbTextStyleTableRecord
  2
Standard
 70
     0
 40
0.0
 41
1.0
 50
0.0
 71
     0
 42
0.2
  3
txt
  4

  0
STYLE
  5
5A
330
3
100
AcDbSymbolTableRecord
100
AcDbTextStyleTableRecord
  2
Annotative
 70
     0
 40
0.0
 41
1.0
 50
0.0
 71
     0
 42
0.2
  3
txt
  4

1001
AcadAnnotative
1000
AnnotativeData
1002
{
1070
     1
1070
     1
1002
}
  0
STYLE
  5
76
330
3
100
AcDbSymbolTableRecord
100
AcDbTextStyleTableRecord
  2
Note Text (ANSI)
 70
     0
 40
0.0
 41
1.0
 50
0.0
 71
     0
 42
0.2
  3
TAHOMA.TTF
  4

1001
ACAD
1000
Tahoma
1071
      256
  0
STYLE
  5
78
330
3
100
AcDbSymbolTableRecord
100
AcDbTextStyleTableRecord
  2
SANSSERIF
 70
     0
 40
0.125
 41
1.0
 50
0.0
 71
     0
 42
0.125
  3
sas_____.pfb
  4

  0
STYLE
  5
114
330
3
100
AcDbSymbolTableRecord
100
AcDbTextStyleTableRecord
  2

 70
     1
 40
0.0
 41
1.0
 50
0.0
 71
     0
 42
0.2
  3
ltypeshp.shx
  4

  0
STYLE
  5
135
330
3
100
AcDbSymbolTableRecord
100
AcDbTextStyleTableRecord
  2
ITALICC_120
 70
     0
 40
0.0
 41
1.0
 50
0.0
 71
     0
 42
0.2
  3
italicc.shx
  4

  0
STYLE
  5
136
330
3
100
AcDbSymbolTableRecord
100
AcDbTextStyleTableRecord
  2
Label Text (ANSI)
 70
     0
 40
0.0
 41
1.0
 50
0.0
 71
     0
 42
0.2
  3
TAHOMA.TTF
  4

1001
ACAD
1000
Tahoma
1071
      256
  0
STYLE
  5
137
330
3
100
AcDbSymbolTableRecord
100
AcDbTextStyleTableRecord
  2
ROMANS
 70
     0
 40
0.0
 41
1.0
 50
0.0
 71
     0
 42
0.2
  3
romans.shx
  4

  0
STYLE
  5
138
330
3
100
AcDbSymbolTableRecord
100
AcDbTextStyleTableRecord
  2
SANSSERIF_114
 70
     0
 40
0.0
 41
1.0
 50
0.0
 71
     0
 42
0.2
  3
TAHOMA.TTF
  4

1001
ACAD
1000
Tahoma
1071
      256
  0
STYLE
  5
139
330
3
100
AcDbSymbolTableRecord
100
AcDbTextStyleTableRecord
  2
SANSSERIF_117
 70
     0
 40
0.0
 41
1.0
 50
0.0
 71
     0
 42
0.2
  3
TAHOMA.TTF
  4

1001
ACAD
1000
Tahoma
1071
      256
  0
STYLE
  5
13A
330
3
100
AcDbSymbolTableRecord
100
AcDbTextStyleTableRecord
  2
STANDARDAM_ANSI
 70
     0
 40
0.0
 41
1.0
 50
0.0
 71
     0
 42
0.2
  3
txt.shx
  4

  0
STYLE
  5
13B
330
3
100
AcDbSymbolTableRecord
100
AcDbTextStyleTableRecord
  2
StandardAM_ANSI$0
 70
     0
 40
0.0
 41
1.0
 50
0.0
 71
     0
 42
0.2
  3
txt.shx
  4

  0
STYLE
  5
13C
330
3
100
AcDbSymbolTableRecord
100
AcDbTextStyleTableRecord
  2
STANDARDAM_ANSI$3
 70
     0
 40
0.0
 41
1.0
 50
0.0
 71
     0
 42
0.2
  3
txt.shx
  4

  0
STYLE
  5
13D
330
3
100
AcDbSymbolTableRecord
100
AcDbTextStyleTableRecord
  2
STANDARDAM_ANSI$4
 70
     0
 40
0.0
 41
1.0
 50
0.0
 71
     0
 42
0.2
  3
txt.shx
  4

  0
STYLE
  5
13E
330
3
100
AcDbSymbolTableRecord
100
AcDbTextStyleTableRecord
  2
STANDARDAM_ANSI$7
 70
     0
 40
0.0
 41
1.0
 50
0.0
 71
     0
 42
0.2
  3
txt.shx
  4

  0
STYLE
  5
13F
330
3
100
AcDbSymbolTableRecord
100
AcDbTextStyleTableRecord
  2
STANDARDAM_ANSI$SF
 70
     0
 40
0.0
 41
1.0
 50
0.0
 71
     0
 42
0.2
  3
txt.shx
  4

  0
STYLE
  5
140
330
3
100
AcDbSymbolTableRecord
100
AcDbTextStyleTableRecord
  2
STANDARDAM_ANSI$SH
 70
     0
 40
0.0
 41
1.0
 50
0.0
 71
     0
 42
0.2
  3
txt.shx
  4

  0
STYLE
  5
141
330
3
100
AcDbSymbolTableRecord
100
AcDbTextStyleTableRecord
  2
STANDARDSTANDARD
 70
     0
 40
0.0
 41
1.0
 50
0.0
 71
     0
 42
0.2
  3
txt.shx
  4

  0
ENDTAB
  0
TABLE
  2
VIEW
  5
6
330
0
100
AcDbSymbolTable
 70
     0
  0
ENDTAB
  0
TABLE
  2
UCS
  5
7
330
0
100
AcDbSymbolTable
 70
     0
  0
ENDTAB
  0
TABLE
  2
APPID
  5
9
330
0
100
AcDbSymbolTable
 70
     4
  0
APPID
  5
56
330
9
100
AcDbSymbolTableRecord
100
AcDbRegAppTableRecord
  2
ACAD
 70
     0
  0
APPID
  5
5E
330
9
100
AcDbSymbolTableRecord
100
AcDbRegAppTableRecord
  2
AcadAnnotative
 70
     0
  0
APPID
  5
C61
330
9
100
AcDbSymbolTableRecord
100
AcDbRegAppTableRecord
  2
ACAD_DSTYLE_DIMRADIAL_EXTENSION
 70
     0
  0
APPID
  5
F54
330
9
100
AcDbSymbolTableRecord
100
AcDbRegAppTableRecord
  2
ACAD_MLEADERVER
 70
     0
  0
ENDTAB
  0
TABLE
  2
DIMSTYLE
  5
A
330
0
100
AcDbSymbolTable
 70
    27
100
AcDbDimStyleTable
 71
     2
340
156
340
58
  0
DIMSTYLE
105
58
330
A
100
AcDbSymbolTableRecord
100
AcDbDimStyleTableRecord
  2
STANDARD
 70
     0
 41
0.1800000071525573
 42
0.0625
140
0.1800000071525574
144
1.0
147
0.0900000035762787
176
   256
177
   256
178
   256
274
     3
340
55
371
    -1
372
    -1
  0
DIMSTYLE
105
59
330
A
100
AcDbSymbolTableRecord
100
AcDbDimStyleTableRecord
  2
Annotative
 70
     0
340
55
1001
AcadAnnotative
1000
AnnotativeData
1002
{
1070
     1
1070
     1
1002
}
  0
DIMSTYLE
105
142
330
A
100
AcDbSymbolTableRecord
100
AcDbDimStyleTableRecord
  2
AM_ANSI
 70
     0
  4
 mm
 40
6.666666666666666
 41
0.119999997317791
 42
0.05
 43
0.5
 44
0.1
 45
0.00000001
 78
     4
 79
     2
140
0.1200000047683716
146
0.7099999453624112
147
0.0599999986588955
176
   256
177
   256
178
     2
284
     4
340
13A
371
    -1
372
    -1
  0
DIMSTYLE
105
143
330
A
100
AcDbSymbolTableRecord
100
AcDbDimStyleTableRecord
  2
AM_ANSI$7
 70
     0
  4
 mm
 40
6.666666666666666
 41
0.119999997317791
 42
0.05
 43
0.5
 44
0.1
 45
0.00000001
 78
     4
 79
     2
140
0.1200000047683716
146
0.7099999453624112
147
0.0599999986588955
176
   256
177
   256
178
     2
284
     4
340
13A
371
    -1
372
    -1
  0
DIMSTYLE
105
144
330
A
100
AcDbSymbolTableRecord
100
AcDbDimStyleTableRecord
  2
AM_ANSI$0
 70
     0
  4
 mm
 40
6.666666666666666
 41
0.119999997317791
 42
0.05
 43
0.5
 44
0.1
 45
0.00000001
 78
     4
 79
     2
140
0.1200000047683716
146
0.7099999453624112
147
0.0599999986588955
176
   256
177
   256
178
     2
284
     4
340
13B
371
    -1
372
    -1
  0
DIMSTYLE
105
145
330
A
100
AcDbSymbolTableRecord
100
AcDbDimStyleTableRecord
  2
AM_ANSI$0$7
 70
     0
  4
 mm
 40
6.666666666666666
 41
0.119999997317791
 42
0.05
 43
0.5
 44
0.1
 45
0.00000001
 78
     4
 79
     2
140
0.1200000047683716
146
0.7099999453624112
147
0.0599999986588955
176
   256
177
   256
178
     2
284
     4
340
13B
371
    -1
372
    -1
  0
DIMSTYLE
105
146
330
A
100
AcDbSymbolTableRecord
100
AcDbDimStyleTableRecord
  2
AM_ANSI$3
 70
     0
  4
 mm
 40
6.666666666666666
 41
0.119999997317791
 42
0.05
 43
0.5
 44
0.1
 45
0.00000001
 78
     4
 79
     2
140
0.1200000047683716
146
0.7099999453624112
147
0.0599999986588955
176
   256
177
   256
178
     2
284
     4
340
13C
371
    -1
372
    -1
  0
DIMSTYLE
105
147
330
A
100
AcDbSymbolTableRecord
100
AcDbDimStyleTableRecord
  2
AM_ANSI$3$7
 70
     0
  4
 mm
 40
6.666666666666666
 41
0.119999997317791
 42
0.05
 43
0.5
 44
0.1
 45
0.00000001
 78
     4
 79
     2
140
0.1200000047683716
146
0.7099999453624112
147
0.0599999986588955
176
   256
177
   256
178
     2
284
     4
340
13C
371
    -1
372
    -1
  0
DIMSTYLE
105
148
330
A
100
AcDbSymbolTableRecord
100
AcDbDimStyleTableRecord
  2
AM_ANSI$4
 70
     0
  4
 mm
 40
6.666666666666666
 41
0.119999997317791
 42
0.05
 43
0.5
 44
0.1
 45
0.00000001
 78
     4
 79
     2
140
0.1200000047683716
146
0.7099999453624112
147
0.0599999986588955
176
   256
177
   256
178
     2
284
     4
340
13D
371
    -1
372
    -1
  0
DIMSTYLE
105
149
330
A
100
AcDbSymbolTableRecord
100
AcDbDimStyleTableRecord
  2
AM_ANSI$4$7
 70
     0
  4
 mm
 40
6.666666666666666
 41
0.119999997317791
 42
0.05
 43
0.5
 44
0.1
 45
0.00000001
 78
     4
 79
     2
140
0.1200000047683716
146
0.7099999453624112
147
0.0599999986588955
176
   256
177
   256
178
     2
284
     4
340
13D
371
    -1
372
    -1
  0
DIMSTYLE
105
14A
330
A
100
AcDbSymbolTableRecord
100
AcDbDimStyleTableRecord
  2
AM_ANSI$SF
 70
     0
  4
 mm
 40
6.666666666666666
 41
0.119999997317791
 42
0.05
 43
0.5
 44
0.1
 45
0.00000001
 75
     1
 76
     1
 78
     4
 79
     2
140
0.1200000047683716
146
0.7099999453624112
147
0.0599999986588955
176
   256
177
   256
178
     2
284
     4
340
13F
371
    -1
372
    -1
  0
DIMSTYLE
105
14B
330
A
100
AcDbSymbolTableRecord
100
AcDbDimStyleTableRecord
  2
AM_ANSI$SF$7
 70
     0
  4
 mm
 40
6.666666666666666
 41
0.119999997317791
 42
0.05
 43
0.5
 44
0.1
 45
0.00000001
 75
     1
 76
     1
 78
     4
 79
     2
140
0.1200000047683716
146
0.7099999453624112
147
0.0599999986588955
176
   256
177
   256
178
     2
284
     4
340
13F
371
    -1
372
    -1
  0
DIMSTYLE
105
14C
330
A
100
AcDbSymbolTableRecord
100
AcDbDimStyleTableRecord
  2
AM_ANSI$SH
 70
     0
  4
 mm
 40
6.666666666666666
 41
0.119999997317791
 42
0.05
 43
0.5
 44
0.1
 45
0.00000001
 75
     1
 76
     1
 78
     4
 79
     2
140
0.1200000047683716
146
0.7099999453624112
147
0.0599999986588955
176
   256
177
   256
178
     2
284
     4
340
140
371
    -1
372
    -1
  0
DIMSTYLE
105
14D
330
A
100
AcDbSymbolTableRecord
100
AcDbDimStyleTableRecord
  2
AM_ANSI$SH$7
 70
     0
  4
 mm
 40
6.666666666666666
 41
0.119999997317791
 42
0.05
 43
0.5
 44
0.1
 45
0.00000001
 75
     1
 76
     1
 78
     4
 79
     2
140
0.1200000047683716
146
0.7099999453624112
147
0.0599999986588955
176
   256
177
   256
178
     2
284
     4
340
140
371
    -1
372
    -1
  0
DIMSTYLE
105
14E
330
A
100
AcDbSymbolTableRecord
100
AcDbDimStyleTableRecord
  2
Architectural (ANSI)
 70
     0
 40
6.666666666666666
 41
0.0984251946210861
 43
0.2362204724409449
 44
0.125
 45
0.00000001
 46
0.3937007874015748
 78
     3
 79
     3
140
0.1200000047683716
147
0.031496062992126
171
     1
176
   256
177
   256
178
   256
272
     2
274
     1
276
     2
277
     4
284
    12
285
     4
286
    12
340
76
371
    -1
372
    -1
  0
DIMSTYLE
105
14F
330
A
100
AcDbSymbolTableRecord
100
AcDbDimStyleTableRecord
  2
Architectural (ANSI)$7
 70
     0
 40
6.666666666666666
 41
0.0984251946210861
 43
0.2362204724409449
 44
0.125
 45
0.00000001
 46
0.3937007874015748
 78
     3
 79
     3
140
0.1200000047683716
147
0.031496062992126
171
     1
176
   256
177
   256
178
   256
272
     2
274
     1
276
     2
277
     4
284
    12
285
     4
286
    12
340
76
371
    -1
372
    -1
  0
DIMSTYLE
105
150
330
A
100
AcDbSymbolTableRecord
100
AcDbDimStyleTableRecord
  2
Default - Fraction (ANSI)
 70
     0
 40
6.666666666666666
 41
0.0984251946210861
 43
0.2362204724409449
 44
0.125
 45
0.00000001
 46
0.3937007874015748
 79
     3
140
0.1200000047683716
147
0.031496062992126
171
     1
176
   256
177
   256
178
   256
272
     2
274
     1
276
     2
277
     5
284
    12
285
     4
286
    12
340
76
371
    -1
372
    -1
  0
DIMSTYLE
105
151
330
A
100
AcDbSymbolTableRecord
100
AcDbDimStyleTableRecord
  2
Default - Fraction (ANSI)$7
 70
     0
 40
6.666666666666666
 41
0.0984251946210861
 43
0.2362204724409449
 44
0.125
 45
0.00000001
 46
0.3937007874015748
 79
     3
140
0.1200000047683716
147
0.031496062992126
171
     1
176
   256
177
   256
178
   256
272
     2
274
     1
276
     2
277
     5
284
    12
285
     4
286
    12
340
76
371
    -1
372
    -1
  0
DIMSTYLE
105
152
330
A
100
AcDbSymbolTableRecord
100
AcDbDimStyleTableRecord
  2
Default - mm (ANSI)
 70
     0
 40
6.666666666666666
 41
0.0984251946210861
 42
0.063
 43
0.2362204724409449
 44
0.125
 45
0.00000001
 46
0.3937007874015748
 73
     0
 78
     4
 79
     1
140
0.1200000047683716
143
1.0
144
25.4
147
0.031496062992126
171
     1
176
   256
177
   256
178
   256
179
     1
271
     2
272
     2
274
     1
284
     4
285
     4
340
76
371
    -1
372
    -1
  0
DIMSTYLE
105
153
330
A
100
AcDbSymbolTableRecord
100
AcDbDimStyleTableRecord
  2
Default - mm (ANSI)$7
 70
     0
 40
6.666666666666666
 41
0.0984251946210861
 42
0.063
 43
0.2362204724409449
 44
0.125
 45
0.00000001
 46
0.3937007874015748
 73
     0
 78
     4
 79
     1
140
0.1200000047683716
143
1.0
144
25.4
147
0.031496062992126
171
     1
176
   256
177
   256
178
   256
179
     1
271
     2
272
     2
274
     1
284
     4
285
     4
340
76
371
    -1
372
    -1
  0
DIMSTYLE
105
154
330
A
100
AcDbSymbolTableRecord
100
AcDbDimStyleTableRecord
  2
Default - mm [in] (ANSI)
 70
     0
  4
 in
 40
6.666666666666666
 41
0.0984251946210861
 42
0.063
 43
0.25
 44
0.125
 45
0.00000001
 46
0.3937007874015748
 73
     0
 78
     4
 79
     1
140
0.1200000047683716
143
0.03937
144
25.4
147
0.031496062992126
170
     1
171
     3
176
   256
177
   256
178
   256
179
     1
271
     2
272
     2
274
     3
284
     4
285
     4
286
     4
340
76
371
    -1
372
    -1
  0
DIMSTYLE
105
155
330
A
100
AcDbSymbolTableRecord
100
AcDbDimStyleTableRecord
  2
Default - mm [in] (ANSI)$7
 70
     0
  4
 in
 40
6.666666666666666
 41
0.0984251946210861
 42
0.063
 43
0.25
 44
0.125
 45
0.00000001
 46
0.3937007874015748
 73
     0
 78
     4
 79
     1
140
0.1200000047683716
143
0.03937
144
25.4
147
0.031496062992126
170
     1
171
     3
176
   256
177
   256
178
   256
179
     1
271
     2
272
     2
274
     3
284
     4
285
     4
286
     4
340
76
371
    -1
372
    -1
  0
DIMSTYLE
105
156
102
{ACAD_REACTORS
330
25D
330
34A
330
434
330
534
330
634
330
71E
330
808
330
8F2
330
9DE
330
ADE
330
BC8
330
C82
330
D3B
330
E25
102
}
330
A
100
AcDbSymbolTableRecord
100
AcDbDimStyleTableRecord
  2
Default (ANSI)
 70
     0
 40
6.666666666666666
 41
0.0984251946210861
 43
0.2362204724409449
 44
0.125
 45
0.00000001
 46
0.3937007874015748
 79
     1
140
0.1200000047683716
147
0.031496062992126
171
     1
176
   256
177
   256
178
   256
271
     2
272
     2
274
     1
284
     4
285
     4
340
76
371
    -1
372
    -1
  0
DIMSTYLE
105
157
330
A
100
AcDbSymbolTableRecord
100
AcDbDimStyleTableRecord
  2
Default (ANSI)$7
 70
     0
 40
6.666666666666666
 41
0.0984251946210861
 43
0.2362204724409449
 44
0.125
 45
0.00000001
 46
0.3937007874015748
 79
     1
140
0.1200000047683716
147
0.031496062992126
171
     1
176
   256
177
   256
178
   256
271
     2
272
     2
274
     1
284
     4
285
     4
340
76
371
    -1
372
    -1
  0
DIMSTYLE
105
158
330
A
100
AcDbSymbolTableRecord
100
AcDbDimStyleTableRecord
  2
Alternate (ANSI)
 70
     0
 40
6.666666666666666
 41
0.0979999974370003
340
55
342
159
  0
DIMSTYLE
105
16B
330
A
100
AcDbSymbolTableRecord
100
AcDbDimStyleTableRecord
  2
Datum (ANSI)
 70
     0
 40
6.666666666666666
 41
0.0979999974370003
340
55
342
159
  0
DIMSTYLE
105
17A
330
A
100
AcDbSymbolTableRecord
100
AcDbDimStyleTableRecord
  2
Large (ANSI)
 70
     0
 40
6.666666666666666
 41
0.1959999948740005
340
55
342
159
  0
ENDTAB
  0
TABLE
  2
BLOCK_RECORD
  5
1
330
0
100
AcDbSymbolTable
 70
    18
  0
BLOCK_RECORD
  5
6C
330
1
100
AcDbSymbolTableRecord
100
AcDbBlockTableRecord
  2
*Model_Space
340
6F
  0
BLOCK_RECORD
  5
68
330
1
100
AcDbSymbolTableRecord
100
AcDbBlockTableRecord
  2
*Paper_Space
340
6B
  0
BLOCK_RECORD
  5
70
330
1
100
AcDbSymbolTableRecord
100
AcDbBlockTableRecord
  2
*Paper_Space0
340
73
  0
BLOCK_RECORD
  5
159
330
1
100
AcDbSymbolTableRecord
100
AcDbBlockTableRecord
  2
_Closed
340
0
  0
BLOCK_RECORD
  5
160
330
1
100
AcDbSymbolTableRecord
100
AcDbBlockTableRecord
  2
DatumFilled45
340
0
  0
BLOCK_RECORD
  5
16C
330
1
100
AcDbSymbolTableRecord
100
AcDbBlockTableRecord
  2
Filled-1
340
0
  0
BLOCK_RECORD
  5
260
330
1
100
AcDbSymbolTableRecord
100
AcDbBlockTableRecord
  2
*D4
340
0
  0
BLOCK_RECORD
  5
34B
330
1
100
AcDbSymbolTableRecord
100
AcDbBlockTableRecord
  2
*D5
340
0
  0
BLOCK_RECORD
  5
435
330
1
100
AcDbSymbolTableRecord
100
AcDbBlockTableRecord
  2
*D6
340
0
  0
BLOCK_RECORD
  5
535
330
1
100
AcDbSymbolTableRecord
100
AcDbBlockTableRecord
  2
*D7
340
0
  0
BLOCK_RECORD
  5
635
330
1
100
AcDbSymbolTableRecord
100
AcDbBlockTableRecord
  2
*D8
340
0
  0
BLOCK_RECORD
  5
71F
330
1
100
AcDbSymbolTableRecord
100
AcDbBlockTableRecord
  2
*D9
340
0
  0
BLOCK_RECORD
  5
809
330
1
100
AcDbSymbolTableRecord
100
AcDbBlockTableRecord
  2
*D10
340
0
  0
BLOCK_RECORD
  5
8F3
330
1
100
AcDbSymbolTableRecord
100
AcDbBlockTableRecord
  2
*D11
340
0
  0
BLOCK_RECORD
  5
9DF
330
1
100
AcDbSymbolTableRecord
100
AcDbBlockTableRecord
  2
*D12
340
0
  0
BLOCK_RECORD
  5
ADF
330
1
100
AcDbSymbolTableRecord
100
AcDbBlockTableRecord
  2
*D13
340
0
  0
BLOCK_RECORD
  5
BC9
330
1
100
AcDbSymbolTableRecord
100
AcDbBlockTableRecord
  2
*D14
340
0
  0
BLOCK_RECORD
  5
C83
330
1
100
AcDbSymbolTableRecord
100
AcDbBlockTableRecord
  2
*D15
340
0
  0
BLOCK_RECORD
  5
D3C
330
1
100
AcDbSymbolTableRecord
100
AcDbBlockTableRecord
  2
*D16
340
0
  0
BLOCK_RECORD
  5
E26
330
1
100
AcDbSymbolTableRecord
100
AcDbBlockTableRecord
  2
*D17
340
0
  0
ENDTAB
  0
ENDSEC
  0
SECTION
  2
BLOCKS
  0
BLOCK
  5
6D
330
6C
100
AcDbEntity
  8
0
100
AcDbBlockBegin
  2
*Model_Space
 70
     0
 10
0.0
 20
0.0
 30
0.0
  3
*Model_Space
  1

  0
ENDBLK
  5
6E
330
6C
100
AcDbEntity
  8
0
100
AcDbBlockEnd
  0
BLOCK
  5
69
330
68
100
AcDbEntity
 67
     1
  8
0
100
AcDbBlockBegin
  2
*Paper_Space
 70
     0
 10
0.0
 20
0.0
 30
0.0
  3
*Paper_Space
  1

  0
ENDBLK
  5
6A
330
68
100
AcDbEntity
 67
     1
  8
0
100
AcDbBlockEnd
  0
BLOCK
  5
71
330
70
100
AcDbEntity
 67
     1
  8
0
100
AcDbBlockBegin
  2
*Paper_Space0
 70
     0
 10
0.0
 20
0.0
 30
0.0
  3
*Paper_Space0
  1

  0
ENDBLK
  5
72
330
70
100
AcDbEntity
 67
     1
  8
0
100
AcDbBlockEnd
  0
BLOCK
  5
15E
330
159
100
AcDbEntity
  8
0
100
AcDbBlockBegin
  2
_Closed
 70
     0
 10
0.0
 20
0.0
 30
0.0
  3
_Closed
  1

  0
LINE
  5
15A
330
159
100
AcDbEntity
  8
0
  6
ByBlock
 62
     0
370
    -2
100
AcDbLine
 10
-1.0
 20
0.1666666666666666
 30
0.0
 11
0.0
 21
0.0
 31
0.0
  0
LINE
  5
15B
330
159
100
AcDbEntity
  8
0
  6
ByBlock
 62
     0
370
    -2
100
AcDbLine
 10
0.0
 20
0.0
 30
0.0
 11
-1.0
 21
-0.1666666666666666
 31
0.0
  0
LINE
  5
15C
330
159
100
AcDbEntity
  8
0
  6
ByBlock
 62
     0
370
    -2
100
AcDbLine
 10
-1.0
 20
0.1666666666666666
 30
0.0
 11
-1.0
 21
-0.1666666666666666
 31
0.0
  0
LINE
  5
15D
330
159
100
AcDbEntity
  8
0
  6
ByBlock
 62
     0
370
    -2
100
AcDbLine
 10
0.0
 20
0.0
 30
0.0
 11
-1.0
 21
0.0
 31
0.0
  0
ENDBLK
  5
15F
330
159
100
AcDbEntity
  8
0
100
AcDbBlockEnd
  0
BLOCK
  5
161
330
160
100
AcDbEntity
  8
0
100
AcDbBlockBegin
  2
DatumFilled45
 70
     0
 10
0.0
 20
0.0
 30
0.0
  3
DatumFilled45
  1

  0
POLYLINE
  5
163
330
160
100
AcDbEntity
  8
0
 62
     0
100
AcDb2dPolyline
 66
     1
 10
0.0
 20
0.0
 30
0.0
 70
   128
  0
VERTEX
  5
164
330
163
100
AcDbEntity
  8
0
 62
     0
100
AcDbVertex
100
AcDb2dVertex
 10
0.0
 20
0.9999999999999998
 30
0.0
  0
VERTEX
  5
165
330
163
100
AcDbEntity
  8
0
 62
     0
100
AcDbVertex
100
AcDb2dVertex
 10
0.0
 20
-0.9999999999999998
 30
0.0
  0
VERTEX
  5
167
330
163
100
AcDbEntity
  8
0
 62
     0
100
AcDbVertex
100
AcDb2dVertex
 10
-0.9999999999999998
 20
0.0
 30
0.0
  0
VERTEX
  5
168
330
163
100
AcDbEntity
  8
0
 62
     0
100
AcDbVertex
100
AcDb2dVertex
 10
0.0
 20
0.9999999999999998
 30
0.0
  0
SEQEND
  5
166
330
163
100
AcDbEntity
  8
0
 62
     0
  0
SOLID
  5
16A
330
160
100
AcDbEntity
  8
0
 62
     0
100
AcDbTrace
 10
0.0
 20
0.9999999999999998
 30
0.0
 11
0.0
 21
-0.9999999999999998
 31
0.0
 12
-0.9999999999999998
 22
0.0
 32
0.0
 13
0.0
 23
0.9999999999999998
 33
0.0
  0
ENDBLK
  5
162
330
160
100
AcDbEntity
  8
0
100
AcDbBlockEnd
  0
BLOCK
  5
16D
330
16C
100
AcDbEntity
  8
0
100
AcDbBlockBegin
  2
Filled-1
 70
     0
 10
0.0
 20
0.0
 30
0.0
  3
Filled-1
  1

  0
LINE
  5
16F
330
16C
100
AcDbEntity
  8
0
 62
     0
100
AcDbLine
 10
-0.9999999999999998
 20
0.0
 30
0.0
 11
0.0
 21
0.0
 31
0.0
  0
POLYLINE
  5
170
330
16C
100
AcDbEntity
  8
0
 62
     0
100
AcDb2dPolyline
 66
     1
 10
0.0
 20
0.0
 30
0.0
 70
   128
  0
VERTEX
  5
171
330
170
100
AcDbEntity
  8
0
 62
     0
100
AcDbVertex
100
AcDb2dVertex
 10
-0.9999999999999998
 20
-0.0994897959183674
 30
0.0
  0
VERTEX
  5
172
330
170
100
AcDbEntity
  8
0
 62
     0
100
AcDbVertex
100
AcDb2dVertex
 10
0.0
 20
0.0
 30
0.0
  0
VERTEX
  5
174
330
170
100
AcDbEntity
  8
0
 62
     0
100
AcDbVertex
100
AcDb2dVertex
 10
-0.9999999999999998
 20
0.0994897959183674
 30
0.0
  0
VERTEX
  5
175
330
170
100
AcDbEntity
  8
0
 62
     0
100
AcDbVertex
100
AcDb2dVertex
 10
-0.9999999999999998
 20
-0.0994897959183674
 30
0.0
  0
SEQEND
  5
173
330
170
100
AcDbEntity
  8
0
 62
     0
  0
SOLID
  5
176
330
16C
100
AcDbEntity
  8
0
 62
     0
100
AcDbTrace
 10
-0.9999999999999998
 20
-0.0994897959183674
 30
0.0
 11
0.0
 21
0.0
 31
0.0
 12
-0.9999999999999998
 22
0.0994897959183674
 32
0.0
 13
-0.9999999999999998
 23
-0.0994897959183674
 33
0.0
  0
LINE
  5
177
330
16C
100
AcDbEntity
  8
0
 62
     0
100
AcDbLine
 10
-0.9999999999999998
 20
-0.0994897959183674
 30
0.0
 11
0.0
 21
0.0
 31
0.0
  0
LINE
  5
178
330
16C
100
AcDbEntity
  8
0
 62
     0
100
AcDbLine
 10
0.0
 20
0.0
 30
0.0
 11
-0.9999999999999998
 21
0.0994897959183674
 31
0.0
  0
LINE
  5
179
330
16C
100
AcDbEntity
  8
0
 62
     0
100
AcDbLine
 10
-0.9999999999999998
 20
0.0994897959183674
 30
0.0
 11
-0.9999999999999998
 21
-0.0994897959183674
 31
0.0
  0
ENDBLK
  5
16E
330
16C
100
AcDbEntity
  8
0
100
AcDbBlockEnd
  0
BLOCK
  5
261
330
260
100
AcDbEntity
  8
0
100
AcDbBlockBegin
  2
*D4
 70
     1
 10
0.0
 20
0.0
 30
0.0
  3
*D4
  1

  0
LINE
  5
340
330
260
100
AcDbEntity
  8
Dimension (ANSI)
100
AcDbLine
 10
17.60687911497013
 20
20.33097279584994
 30
0.0
 11
6.166590401059372
 21
20.33097279584995
 31
0.0
  0
LINE
  5
341
330
260
100
AcDbEntity
  8
Dimension (ANSI)
100
AcDbLine
 10
17.60687911497012
 20
60.53097279584996
 30
0.0
 11
6.166590401059381
 21
60.53097279584996
 31
0.0
  0
LINE
  5
342
330
260
100
AcDbEntity
  8
Dimension (ANSI)
100
AcDbLine
 10
6.999923734392705
 20
20.98714075999053
 30
0.0
 11
6.99992373439271
 21
39.80434355254058
 31
0.0
  0
LINE
  5
343
330
260
100
AcDbEntity
  8
Dimension (ANSI)
100
AcDbLine
 10
6.999923734392714
 20
59.87480483170939
 30
0.0
 11
6.99992373439271
 21
41.05760203915931
 31
0.0
  0
SOLID
  5
344
330
260
100
AcDbEntity
  8
Dimension (ANSI)
100
AcDbTrace
 10
6.890562407035943
 20
20.98714075999053
 30
0.0
 11
7.109285061749467
 21
20.98714075999053
 31
0.0
 12
6.999923734392705
 22
20.33097279584995
 32
0.0
 13
6.999923734392705
 23
20.33097279584995
 33
0.0
  0
SOLID
  5
345
330
260
100
AcDbEntity
  8
Dimension (ANSI)
100
AcDbTrace
 10
6.890562407035952
 20
59.87480483170939
 30
0.0
 11
7.109285061749476
 21
59.87480483170939
 31
0.0
 12
6.999923734392714
 22
60.53097279584996
 32
0.0
 13
6.999923734392714
 23
60.53097279584996
 33
0.0
  0
MTEXT
  5
346
330
260
100
AcDbEntity
  8
Dimension (ANSI)
100
AcDbMText
 10
5.665068073559844
 20
40.84762828587847
 30
0.0
 40
0.8000000317891439
 41
0.0
 71
     1
 72
     1
  1
\A1;40.20
  7
Note Text (ANSI)
 73
     1
 44
1.0
1001
ACAD
1000
MTEXTBEGIN
1070
    73
1070
     1
1070
    44
1040
1.0
1070
    74
1070
     0
1000
MTEXTEND
  0
POINT
  5
347
330
260
100
AcDbEntity
  8
Defpoints
 62
     0
100
AcDbPoint
 10
18.0235457816368
 20
20.33097279584994
 30
0.0
  0
POINT
  5
348
330
260
100
AcDbEntity
  8
Defpoints
 62
     0
100
AcDbPoint
 10
18.02354578163679
 20
60.53097279584996
 30
0.0
  0
POINT
  5
349
330
260
100
AcDbEntity
  8
Defpoints
 62
     0
100
AcDbPoint
 10
6.999923734392714
 20
60.53097279584996
 30
0.0
  0
ENDBLK
  5
262
330
260
100
AcDbEntity
  8
0
100
AcDbBlockEnd
  0
BLOCK
  5
34C
330
34B
100
AcDbEntity
  8
0
100
AcDbBlockBegin
  2
*D5
 70
     1
 10
0.0
 20
0.0
 30
0.0
  3
*D5
  1

  0
LINE
  5
42A
330
34B
100
AcDbEntity
  8
Dimension (ANSI)
100
AcDbLine
 10
17.52354578163679
 20
60.44763946251661
 30
0.0
 11
17.52354578163679
 21
69.52572345201793
 31
0.0
  0
LINE
  5
42B
330
34B
100
AcDbEntity
  8
Dimension (ANSI)
100
AcDbLine
 10
51.72354578163679
 20
60.44763946251662
 30
0.0
 11
51.72354578163679
 21
69.52572345201793
 31
0.0
  0
LINE
  5
42C
330
34B
100
AcDbEntity
  8
Dimension (ANSI)
100
AcDbLine
 10
18.17971374577736
 20
68.6923901186846
 30
0.0
 11
33.09402865825914
 21
68.6923901186846
 31
0.0
  0
LINE
  5
42D
330
34B
100
AcDbEntity
  8
Dimension (ANSI)
100
AcDbLine
 10
51.06737781749622
 20
68.6923901186846
 30
0.0
 11
36.15306290501442
 21
68.6923901186846
 31
0.0
  0
SOLID
  5
42E
330
34B
100
AcDbEntity
  8
Dimension (ANSI)
100
AcDbTrace
 10
18.17971374577736
 20
68.80175144604137
 30
0.0
 11
18.17971374577736
 21
68.58302879132783
 31
0.0
 12
17.52354578163679
 22
68.6923901186846
 32
0.0
 13
17.52354578163679
 23
68.6923901186846
 33
0.0
  0
SOLID
  5
42F
330
34B
100
AcDbEntity
  8
Dimension (ANSI)
100
AcDbTrace
 10
51.06737781749622
 20
68.80175144604137
 30
0.0
 11
51.06737781749622
 21
68.58302879132783
 31
0.0
 12
51.72354578163679
 22
68.6923901186846
 32
0.0
 13
51.72354578163679
 23
68.6923901186846
 33
0.0
  0
MTEXT
  5
430
330
34B
100
AcDbEntity
  8
Dimension (ANSI)
100
AcDbMText
 10
33.30400241153998
 20
69.10904560871313
 30
0.0
 40
0.8000000317891439
 41
0.0
 71
     1
 72
     1
  1
\A1;34.20
  7
Note Text (ANSI)
 73
     1
 44
1.0
1001
ACAD
1000
MTEXTBEGIN
1070
    73
1070
     1
1070
    44
1040
1.0
1070
    74
1070
     0
1000
MTEXTEND
  0
POINT
  5
431
330
34B
100
AcDbEntity
  8
Defpoints
 62
     0
100
AcDbPoint
 10
17.52354578163679
 20
60.03097279584995
 30
0.0
  0
POINT
  5
432
330
34B
100
AcDbEntity
  8
Defpoints
 62
     0
100
AcDbPoint
 10
51.72354578163679
 20
60.03097279584995
 30
0.0
  0
POINT
  5
433
330
34B
100
AcDbEntity
  8
Defpoints
 62
     0
100
AcDbPoint
 10
51.72354578163679
 20
68.6923901186846
 30
0.0
  0
ENDBLK
  5
34D
330
34B
100
AcDbEntity
  8
0
100
AcDbBlockEnd
  0
BLOCK
  5
436
330
435
100
AcDbEntity
  8
0
100
AcDbBlockBegin
  2
*D6
 70
     1
 10
0.0
 20
0.0
 30
0.0
  3
*D6
  1

  0
LINE
  5
529
330
435
100
AcDbEntity
  8
Dimension (ANSI)
100
AcDbLine
 10
17.62687911497013
 20
20.85097279584994
 30
0.0
 11
16.07168258648344
 21
20.85097279584994
 31
0.0
  0
LINE
  5
52A
330
435
100
AcDbEntity
  8
Dimension (ANSI)
100
AcDbLine
 10
17.62687911497013
 20
21.60097279584995
 30
0.0
 11
16.07168258648344
 21
21.60097279584995
 31
0.0
  0
LINE
  5
52B
330
435
100
AcDbEntity
  8
Dimension (ANSI)
100
AcDbLine
 10
16.90501591981677
 20
22.25714075999052
 30
0.0
 11
16.90501591981677
 21
22.9133087241311
 31
0.0
  0
LINE
  5
52C
330
435
100
AcDbEntity
  8
Dimension (ANSI)
100
AcDbLine
 10
16.90501591981677
 20
20.19480483170937
 30
0.0
 11
16.90501591981677
 21
18.94008614188452
 31
0.0
  0
LINE
  5
52D
330
435
100
AcDbEntity
  8
Dimension (ANSI)
100
AcDbLine
 10
16.90501591981677
 20
18.94008614188452
 30
0.0
 11
16.2488479556762
 21
18.94008614188452
 31
0.0
  0
SOLID
  5
52E
330
435
100
AcDbEntity
  8
Dimension (ANSI)
100
AcDbTrace
 10
16.79565459246001
 20
22.25714075999052
 30
0.0
 11
17.01437724717354
 21
22.25714075999052
 31
0.0
 12
16.90501591981677
 22
21.60097279584995
 32
0.0
 13
16.90501591981677
 23
21.60097279584995
 33
0.0
  0
SOLID
  5
52F
330
435
100
AcDbEntity
  8
Dimension (ANSI)
100
AcDbTrace
 10
16.79565459246001
 20
20.19480483170937
 30
0.0
 11
17.01437724717354
 21
20.19480483170937
 31
0.0
 12
16.90501591981677
 22
20.85097279584994
 32
0.0
 13
16.90501591981677
 23
20.85097279584994
 33
0.0
  0
MTEXT
  5
530
330
435
100
AcDbEntity
  8
Dimension (ANSI)
100
AcDbMText
 10
14.00583181133416
 20
19.35647299523347
 30
0.0
 40
0.8000000317891439
 41
0.0
 71
     1
 72
     1
  1
\A1;0.75
  7
Note Text (ANSI)
 73
     1
 44
1.0
1001
ACAD
1000
MTEXTBEGIN
1070
    73
1070
     1
1070
    44
1040
1.0
1070
    74
1070
     0
1000
MTEXTEND
  0
POINT
  5
531
330
435
100
AcDbEntity
  8
Defpoints
 62
     0
100
AcDbPoint
 10
18.0435457816368
 20
20.85097279584994
 30
0.0
  0
POINT
  5
532
330
435
100
AcDbEntity
  8
Defpoints
 62
     0
100
AcDbPoint
 10
18.0435457816368
 20
21.60097279584995
 30
0.0
  0
POINT
  5
533
330
435
100
AcDbEntity
  8
Defpoints
 62
     0
100
AcDbPoint
 10
16.90501591981677
 20
21.60097279584995
 30
0.0
  0
ENDBLK
  5
437
330
435
100
AcDbEntity
  8
0
100
AcDbBlockEnd
  0
BLOCK
  5
536
330
535
100
AcDbEntity
  8
0
100
AcDbBlockBegin
  2
*D7
 70
     1
 10
0.0
 20
0.0
 30
0.0
  3
*D7
  1

  0
LINE
  5
629
330
535
100
AcDbEntity
  8
Dimension (ANSI)
100
AcDbLine
 10
51.64021244830346
 20
60.53097279584996
 30
0.0
 11
57.86111672549075
 21
60.53097279584996
 31
0.0
  0
LINE
  5
62A
330
535
100
AcDbEntity
  8
Dimension (ANSI)
100
AcDbLine
 10
51.62021244830345
 20
60.01097279584995
 30
0.0
 11
57.86111672549075
 21
60.01097279584995
 31
0.0
  0
LINE
  5
62B
330
535
100
AcDbEntity
  8
Dimension (ANSI)
100
AcDbLine
 10
57.02778339215742
 20
61.18714075999053
 30
0.0
 11
57.02778339215742
 21
61.8433087241311
 31
0.0
  0
LINE
  5
62C
330
535
100
AcDbEntity
  8
Dimension (ANSI)
100
AcDbLine
 10
57.02778339215742
 20
59.35480483170938
 30
0.0
 11
57.02778339215742
 21
58.09959991816808
 31
0.0
  0
LINE
  5
62D
330
535
100
AcDbEntity
  8
Dimension (ANSI)
100
AcDbLine
 10
57.02778339215742
 20
58.09959991816808
 30
0.0
 11
56.37161542801685
 21
58.09959991816808
 31
0.0
  0
SOLID
  5
62E
330
535
100
AcDbEntity
  8
Dimension (ANSI)
100
AcDbTrace
 10
56.91842206480066
 20
61.18714075999053
 30
0.0
 11
57.13714471951419
 21
61.18714075999053
 31
0.0
 12
57.02778339215742
 22
60.53097279584996
 32
0.0
 13
57.02778339215742
 23
60.53097279584996
 33
0.0
  0
SOLID
  5
62F
330
535
100
AcDbEntity
  8
Dimension (ANSI)
100
AcDbTrace
 10
56.91842206480066
 20
59.35480483170938
 30
0.0
 11
57.13714471951419
 21
59.35480483170938
 31
0.0
 12
57.02778339215742
 22
60.01097279584995
 32
0.0
 13
57.02778339215742
 23
60.01097279584995
 33
0.0
  0
MTEXT
  5
630
330
535
100
AcDbEntity
  8
Dimension (ANSI)
100
AcDbMText
 10
54.11946563656909
 20
58.51625540819663
 30
0.0
 40
0.8000000317891439
 41
0.0
 71
     1
 72
     1
  1
\A1;0.52
  7
Note Text (ANSI)
 73
     1
 44
1.0
1001
ACAD
1000
MTEXTBEGIN
1070
    73
1070
     1
1070
    44
1040
1.0
1070
    74
1070
     0
1000
MTEXTEND
  0
POINT
  5
631
330
535
100
AcDbEntity
  8
Defpoints
 62
     0
100
AcDbPoint
 10
51.2235457816368
 20
60.53097279584996
 30
0.0
  0
POINT
  5
632
330
535
100
AcDbEntity
  8
Defpoints
 62
     0
100
AcDbPoint
 10
51.20354578163679
 20
60.01097279584995
 30
0.0
  0
POINT
  5
633
330
535
100
AcDbEntity
  8
Defpoints
 62
     0
100
AcDbPoint
 10
57.02778339215742
 20
60.01097279584995
 30
0.0
  0
ENDBLK
  5
537
330
535
100
AcDbEntity
  8
0
100
AcDbBlockEnd
  0
BLOCK
  5
636
330
635
100
AcDbEntity
  8
0
100
AcDbBlockBegin
  2
*D8
 70
     1
 10
0.0
 20
0.0
 30
0.0
  3
*D8
  1

  0
LINE
  5
714
330
635
100
AcDbEntity
  8
Dimension (ANSI)
100
AcDbLine
 10
51.72354578163679
 20
60.44763946251662
 30
0.0
 11
51.72354578163679
 21
64.78131400319904
 31
0.0
  0
LINE
  5
715
330
635
100
AcDbEntity
  8
Dimension (ANSI)
100
AcDbLine
 10
51.20354578163679
 20
60.42763946251661
 30
0.0
 11
51.20354578163679
 21
64.78131400319904
 31
0.0
  0
LINE
  5
716
330
635
100
AcDbEntity
  8
Dimension (ANSI)
100
AcDbLine
 10
50.54737781749622
 20
63.9479806698657
 30
0.0
 11
49.89120985335564
 21
63.9479806698657
 31
0.0
  0
LINE
  5
717
330
635
100
AcDbEntity
  8
Dimension (ANSI)
100
AcDbLine
 10
52.37971374577735
 20
63.9479806698657
 30
0.0
 11
53.37922148795924
 21
63.9479806698657
 31
0.0
  0
SOLID
  5
718
330
635
100
AcDbEntity
  8
Dimension (ANSI)
100
AcDbTrace
 10
50.54737781749622
 20
64.05734199722246
 30
0.0
 11
50.54737781749622
 21
63.83861934250894
 31
0.0
 12
51.20354578163679
 22
63.9479806698657
 32
0.0
 13
51.20354578163679
 23
63.9479806698657
 33
0.0
  0
SOLID
  5
719
330
635
100
AcDbEntity
  8
Dimension (ANSI)
100
AcDbTrace
 10
52.37971374577735
 20
64.05734199722246
 30
0.0
 11
52.37971374577735
 21
63.83861934250894
 31
0.0
 12
51.72354578163679
 22
63.9479806698657
 32
0.0
 13
51.72354578163679
 23
63.9479806698657
 33
0.0
  0
MTEXT
  5
71A
330
635
100
AcDbEntity
  8
Dimension (ANSI)
100
AcDbMText
 10
53.58919524124008
 20
64.36463615989423
 30
0.0
 40
0.8000000317891439
 41
0.0
 71
     1
 72
     1
  1
\A1;0.52
  7
Note Text (ANSI)
 73
     1
 44
1.0
1001
ACAD
1000
MTEXTBEGIN
1070
    73
1070
     1
1070
    44
1040
1.0
1070
    74
1070
     0
1000
MTEXTEND
  0
POINT
  5
71B
330
635
100
AcDbEntity
  8
Defpoints
 62
     0
100
AcDbPoint
 10
51.72354578163679
 20
60.03097279584995
 30
0.0
  0
POINT
  5
71C
330
635
100
AcDbEntity
  8
Defpoints
 62
     0
100
AcDbPoint
 10
51.20354578163679
 20
60.01097279584995
 30
0.0
  0
POINT
  5
71D
330
635
100
AcDbEntity
  8
Defpoints
 62
     0
100
AcDbPoint
 10
51.20354578163679
 20
63.9479806698657
 30
0.0
  0
ENDBLK
  5
637
330
635
100
AcDbEntity
  8
0
100
AcDbBlockEnd
  0
BLOCK
  5
720
330
71F
100
AcDbEntity
  8
0
100
AcDbBlockBegin
  2
*D9
 70
     1
 10
0.0
 20
0.0
 30
0.0
  3
*D9
  1

  0
LINE
  5
7FE
330
71F
100
AcDbEntity
  8
Dimension (ANSI)
100
AcDbLine
 10
17.62687911497013
 20
20.85097279584994
 30
0.0
 11
12.59384232398805
 21
20.85097279584994
 31
0.0
  0
LINE
  5
7FF
330
71F
100
AcDbEntity
  8
Dimension (ANSI)
100
AcDbLine
 10
17.62687911497013
 20
40.43097279584994
 30
0.0
 11
12.59384232398805
 21
40.43097279584995
 31
0.0
  0
LINE
  5
800
330
71F
100
AcDbEntity
  8
Dimension (ANSI)
100
AcDbLine
 10
13.42717565732138
 20
21.50714075999052
 30
0.0
 11
13.42717565732138
 21
31.51273173246309
 31
0.0
  0
LINE
  5
801
330
71F
100
AcDbEntity
  8
Dimension (ANSI)
100
AcDbLine
 10
13.42717565732138
 20
39.77480483170938
 30
0.0
 11
13.42717565732138
 21
32.76921385923679
 31
0.0
  0
SOLID
  5
802
330
71F
100
AcDbEntity
  8
Dimension (ANSI)
100
AcDbTrace
 10
13.31781432996462
 20
21.50714075999052
 30
0.0
 11
13.53653698467814
 21
21.50714075999052
 31
0.0
 12
13.42717565732138
 22
20.85097279584994
 32
0.0
 13
13.42717565732138
 23
20.85097279584994
 33
0.0
  0
SOLID
  5
803
330
71F
100
AcDbEntity
  8
Dimension (ANSI)
100
AcDbTrace
 10
13.31781432996462
 20
39.77480483170938
 30
0.0
 11
13.53653698467814
 21
39.77480483170938
 31
0.0
 12
13.42717565732138
 22
40.43097279584995
 32
0.0
 13
13.42717565732138
 23
40.43097279584995
 33
0.0
  0
MTEXT
  5
804
330
71F
100
AcDbEntity
  8
Dimension (ANSI)
100
AcDbMText
 10
11.84195061111998
 20
32.55924010595595
 30
0.0
 40
0.8000000317891439
 41
0.0
 71
     1
 72
     1
  1
\A1;19.580
  7
Note Text (ANSI)
 73
     1
 44
1.0
1001
ACAD
1000
MTEXTBEGIN
1070
    73
1070
     1
1070
    44
1040
1.0
1070
    74
1070
     0
1000
MTEXTEND
  0
POINT
  5
805
330
71F
100
AcDbEntity
  8
Defpoints
 62
     0
100
AcDbPoint
 10
18.0435457816368
 20
20.85097279584994
 30
0.0
  0
POINT
  5
806
330
71F
100
AcDbEntity
  8
Defpoints
 62
     0
100
AcDbPoint
 10
18.0435457816368
 20
40.43097279584994
 30
0.0
  0
POINT
  5
807
330
71F
100
AcDbEntity
  8
Defpoints
 62
     0
100
AcDbPoint
 10
13.42717565732138
 20
40.43097279584995
 30
0.0
  0
ENDBLK
  5
721
330
71F
100
AcDbEntity
  8
0
100
AcDbBlockEnd
  0
BLOCK
  5
80A
330
809
100
AcDbEntity
  8
0
100
AcDbBlockBegin
  2
*D10
 70
     1
 10
0.0
 20
0.0
 30
0.0
  3
*D10
  1

  0
LINE
  5
8E8
330
809
100
AcDbEntity
  8
Dimension (ANSI)
100
AcDbLine
 10
17.62687911497013
 20
20.85097279584994
 30
0.0
 11
9.683968158147834
 21
20.85097279584994
 31
0.0
  0
LINE
  5
8E9
330
809
100
AcDbEntity
  8
Dimension (ANSI)
100
AcDbLine
 10
17.62687911497013
 20
60.01097279584995
 30
0.0
 11
9.683968158147843
 21
60.01097279584996
 31
0.0
  0
LINE
  5
8EA
330
809
100
AcDbEntity
  8
Dimension (ANSI)
100
AcDbLine
 10
10.51730149148117
 20
21.50714075999052
 30
0.0
 11
10.51730149148117
 21
47.30920311606346
 31
0.0
  0
LINE
  5
8EB
330
809
100
AcDbEntity
  8
Dimension (ANSI)
100
AcDbLine
 10
10.51730149148117
 20
59.35480483170938
 30
0.0
 11
10.51730149148117
 21
48.56246160268219
 31
0.0
  0
SOLID
  5
8EC
330
809
100
AcDbEntity
  8
Dimension (ANSI)
100
AcDbTrace
 10
10.4079401641244
 20
21.50714075999052
 30
0.0
 11
10.62666281883793
 21
21.50714075999052
 31
0.0
 12
10.51730149148117
 22
20.85097279584994
 32
0.0
 13
10.51730149148117
 23
20.85097279584994
 33
0.0
  0
SOLID
  5
8ED
330
809
100
AcDbEntity
  8
Dimension (ANSI)
100
AcDbTrace
 10
10.40794016412441
 20
59.35480483170938
 30
0.0
 11
10.62666281883793
 21
59.35480483170938
 31
0.0
 12
10.51730149148117
 22
60.01097279584996
 32
0.0
 13
10.51730149148117
 23
60.01097279584996
 33
0.0
  0
MTEXT
  5
8EE
330
809
100
AcDbEntity
  8
Dimension (ANSI)
100
AcDbMText
 10
8.897422313613962
 20
48.35248784940135
 30
0.0
 40
0.8000000317891439
 41
0.0
 71
     1
 72
     1
  1
\A1;39.160
  7
Note Text (ANSI)
 73
     1
 44
1.0
1001
ACAD
1000
MTEXTBEGIN
1070
    73
1070
     1
1070
    44
1040
1.0
1070
    74
1070
     0
1000
MTEXTEND
  0
POINT
  5
8EF
330
809
100
AcDbEntity
  8
Defpoints
 62
     0
100
AcDbPoint
 10
18.0435457816368
 20
20.85097279584994
 30
0.0
  0
POINT
  5
8F0
330
809
100
AcDbEntity
  8
Defpoints
 62
     0
100
AcDbPoint
 10
18.0435457816368
 20
60.01097279584995
 30
0.0
  0
POINT
  5
8F1
330
809
100
AcDbEntity
  8
Defpoints
 62
     0
100
AcDbPoint
 10
10.51730149148117
 20
60.01097279584996
 30
0.0
  0
ENDBLK
  5
80B
330
809
100
AcDbEntity
  8
0
100
AcDbBlockEnd
  0
BLOCK
  5
8F4
330
8F3
100
AcDbEntity
  8
0
100
AcDbBlockBegin
  2
*D11
 70
     1
 10
0.0
 20
0.0
 30
0.0
  3
*D11
  1

  0
LINE
  5
9D2
330
8F3
100
AcDbEntity
  8
Dimension (ANSI)
100
AcDbLine
 10
67.68455637942977
 20
60.94763946251661
 30
0.0
 11
67.68455637942977
 21
64.37071557800219
 31
0.0
  0
LINE
  5
9D3
330
8F3
100
AcDbEntity
  8
Dimension (ANSI)
100
AcDbLine
 10
68.45855637942992
 20
59.22963946251662
 30
0.0
 11
68.45855637942992
 21
64.37071557800219
 31
0.0
  0
LINE
  5
9D4
330
8F3
100
AcDbEntity
  8
Dimension (ANSI)
100
AcDbLine
 10
69.1147243435705
 20
63.53738224466885
 30
0.0
 11
69.77089230771106
 21
63.53738224466885
 31
0.0
  0
LINE
  5
9D5
330
8F3
100
AcDbEntity
  8
Dimension (ANSI)
100
AcDbLine
 10
67.0283884152892
 20
63.53738224466885
 30
0.0
 11
66.03317885998059
 21
63.53738224466885
 31
0.0
  0
SOLID
  5
9D6
330
8F3
100
AcDbEntity
  8
Dimension (ANSI)
100
AcDbTrace
 10
69.1147243435705
 20
63.64674357202562
 30
0.0
 11
69.1147243435705
 21
63.42802091731209
 31
0.0
 12
68.45855637942992
 22
63.53738224466885
 32
0.0
 13
68.45855637942992
 23
63.53738224466885
 33
0.0
  0
SOLID
  5
9D7
330
8F3
100
AcDbEntity
  8
Dimension (ANSI)
100
AcDbTrace
 10
67.0283884152892
 20
63.64674357202562
 30
0.0
 11
67.0283884152892
 21
63.42802091731209
 31
0.0
 12
67.68455637942977
 22
63.53738224466885
 32
0.0
 13
67.68455637942977
 23
63.53738224466885
 33
0.0
  0
MTEXT
  5
9D8
330
8F3
100
AcDbEntity
  8
Dimension (ANSI)
100
AcDbMText
 10
63.77243269478629
 20
63.95376909801781
 30
0.0
 40
0.8000000317891439
 41
0.0
 71
     1
 72
     1
  1
\A1;0.77
  7
Note Text (ANSI)
 73
     1
 44
1.0
1001
ACAD
1000
MTEXTBEGIN
1070
    73
1070
     1
1070
    44
1040
1.0
1070
    74
1070
     0
1000
MTEXTEND
  0
POINT
  5
9D9
330
8F3
100
AcDbEntity
  8
Defpoints
 62
     0
100
AcDbPoint
 10
67.68455637942977
 20
60.53097279584995
 30
0.0
  0
POINT
  5
9DA
330
8F3
100
AcDbEntity
  8
Defpoints
 62
     0
100
AcDbPoint
 10
68.45855637942992
 20
58.81297279584995
 30
0.0
  0
POINT
  5
9DB
330
8F3
100
AcDbEntity
  8
Defpoints
 62
     0
100
AcDbPoint
 10
68.45855637942992
 20
63.53738224466885
 30
0.0
  0
ENDBLK
  5
8F5
330
8F3
100
AcDbEntity
  8
0
100
AcDbBlockEnd
  0
BLOCK
  5
9E0
330
9DF
100
AcDbEntity
  8
0
100
AcDbBlockBegin
  2
*D12
 70
     1
 10
0.0
 20
0.0
 30
0.0
  3
*D12
  1

  0
LINE
  5
AD3
330
9DF
100
AcDbEntity
  8
Dimension (ANSI)
100
AcDbLine
 10
51.64021244830346
 20
20.33097279584994
 30
0.0
 11
55.1510241428796
 21
20.33097279584994
 31
0.0
  0
LINE
  5
AD4
330
9DF
100
AcDbEntity
  8
Dimension (ANSI)
100
AcDbLine
 10
52.14021244830346
 20
20.83097279584995
 30
0.0
 11
55.1510241428796
 21
20.83097279584995
 31
0.0
  0
LINE
  5
AD5
330
9DF
100
AcDbEntity
  8
Dimension (ANSI)
100
AcDbLine
 10
54.31769080954627
 20
19.67480483170937
 30
0.0
 11
54.31769080954627
 21
19.0186368675688
 31
0.0
  0
LINE
  5
AD6
330
9DF
100
AcDbEntity
  8
Dimension (ANSI)
100
AcDbLine
 10
54.31769080954627
 20
21.48714075999052
 30
0.0
 11
54.31769080954627
 21
22.74185944981536
 31
0.0
  0
LINE
  5
AD7
330
9DF
100
AcDbEntity
  8
Dimension (ANSI)
100
AcDbLine
 10
54.31769080954627
 20
22.74185944981536
 30
0.0
 11
54.97385877368684
 21
22.74185944981536
 31
0.0
  0
SOLID
  5
AD8
330
9DF
100
AcDbEntity
  8
Dimension (ANSI)
100
AcDbTrace
 10
54.20832948218951
 20
19.67480483170937
 30
0.0
 11
54.42705213690303
 21
19.67480483170937
 31
0.0
 12
54.31769080954627
 22
20.33097279584994
 32
0.0
 13
54.31769080954627
 23
20.33097279584994
 33
0.0
  0
SOLID
  5
AD9
330
9DF
100
AcDbEntity
  8
Dimension (ANSI)
100
AcDbTrace
 10
54.20832948218951
 20
21.48714075999052
 30
0.0
 11
54.42705213690303
 21
21.48714075999052
 31
0.0
 12
54.31769080954627
 22
20.83097279584995
 32
0.0
 13
54.31769080954627
 23
20.83097279584995
 33
0.0
  0
MTEXT
  5
ADA
330
9DF
100
AcDbEntity
  8
Dimension (ANSI)
100
AcDbMText
 10
55.18383252696768
 20
23.15824630316432
 30
0.0
 40
0.8000000317891439
 41
0.0
 71
     1
 72
     1
  1
\A1;0.50
  7
Note Text (ANSI)
 73
     1
 44
1.0
1001
ACAD
1000
MTEXTBEGIN
1070
    73
1070
     1
1070
    44
1040
1.0
1070
    74
1070
     0
1000
MTEXTEND
  0
POINT
  5
ADB
330
9DF
100
AcDbEntity
  8
Defpoints
 62
     0
100
AcDbPoint
 10
51.2235457816368
 20
20.33097279584994
 30
0.0
  0
POINT
  5
ADC
330
9DF
100
AcDbEntity
  8
Defpoints
 62
     0
100
AcDbPoint
 10
51.72354578163679
 20
20.83097279584995
 30
0.0
  0
POINT
  5
ADD
330
9DF
100
AcDbEntity
  8
Defpoints
 62
     0
100
AcDbPoint
 10
54.31769080954627
 20
20.83097279584995
 30
0.0
  0
ENDBLK
  5
9E1
330
9DF
100
AcDbEntity
  8
0
100
AcDbBlockEnd
  0
BLOCK
  5
AE0
330
ADF
100
AcDbEntity
  8
0
100
AcDbBlockBegin
  2
*D13
 70
     1
 10
0.0
 20
0.0
 30
0.0
  3
*D13
  1

  0
LINE
  5
BBE
330
ADF
100
AcDbEntity
  8
Dimension (ANSI)
100
AcDbLine
 10
51.72354578163679
 20
20.41430612918328
 30
0.0
 11
51.72354578163679
 21
15.56063158850087
 31
0.0
  0
LINE
  5
BBF
330
ADF
100
AcDbEntity
  8
Dimension (ANSI)
100
AcDbLine
 10
51.2235457816368
 20
19.91430612918328
 30
0.0
 11
51.2235457816368
 21
15.56063158850087
 31
0.0
  0
LINE
  5
BC0
330
ADF
100
AcDbEntity
  8
Dimension (ANSI)
100
AcDbLine
 10
52.37971374577736
 20
16.3939649218342
 30
0.0
 11
53.03588170991794
 21
16.3939649218342
 31
0.0
  0
LINE
  5
BC1
330
ADF
100
AcDbEntity
  8
Dimension (ANSI)
100
AcDbLine
 10
50.56737781749622
 20
16.3939649218342
 30
0.0
 11
49.5697505320714
 21
16.3939649218342
 31
0.0
  0
SOLID
  5
BC2
330
ADF
100
AcDbEntity
  8
Dimension (ANSI)
100
AcDbTrace
 10
52.37971374577736
 20
16.50332624919096
 30
0.0
 11
52.37971374577736
 21
16.28460359447744
 31
0.0
 12
51.72354578163679
 22
16.3939649218342
 32
0.0
 13
51.72354578163679
 23
16.3939649218342
 33
0.0
  0
SOLID
  5
BC3
330
ADF
100
AcDbEntity
  8
Dimension (ANSI)
100
AcDbTrace
 10
50.56737781749622
 20
16.50332624919096
 30
0.0
 11
50.56737781749622
 21
16.28460359447744
 31
0.0
 12
51.2235457816368
 22
16.3939649218342
 32
0.0
 13
51.2235457816368
 23
16.3939649218342
 33
0.0
  0
MTEXT
  5
BC4
330
ADF
100
AcDbEntity
  8
Dimension (ANSI)
100
AcDbMText
 10
47.31383982710953
 20
16.81035177518315
 30
0.0
 40
0.8000000317891439
 41
0.0
 71
     1
 72
     1
  1
\A1;0.50
  7
Note Text (ANSI)
 73
     1
 44
1.0
1001
ACAD
1000
MTEXTBEGIN
1070
    73
1070
     1
1070
    44
1040
1.0
1070
    74
1070
     0
1000
MTEXTEND
  0
POINT
  5
BC5
330
ADF
100
AcDbEntity
  8
Defpoints
 62
     0
100
AcDbPoint
 10
51.72354578163679
 20
20.83097279584995
 30
0.0
  0
POINT
  5
BC6
330
ADF
100
AcDbEntity
  8
Defpoints
 62
     0
100
AcDbPoint
 10
51.2235457816368
 20
20.33097279584994
 30
0.0
  0
POINT
  5
BC7
330
ADF
100
AcDbEntity
  8
Defpoints
 62
     0
100
AcDbPoint
 10
51.2235457816368
 20
16.3939649218342
 30
0.0
  0
ENDBLK
  5
AE1
330
ADF
100
AcDbEntity
  8
0
100
AcDbBlockEnd
  0
BLOCK
  5
BCA
330
BC9
100
AcDbEntity
  8
0
100
AcDbBlockBegin
  2
*D14
 70
     1
 10
0.0
 20
0.0
 30
0.0
  3
*D14
  1

  0
LINE
  5
C7A
330
BC9
100
AcDbEntity
  8
Dimension (ANSI)
100
AcDbLine
 10
13.00747894166586
 20
67.31936726452253
 30
0.0
 11
13.82404226780256
 21
67.31936726452253
 31
0.0
  0
LINE
  5
C7B
330
BC9
100
AcDbEntity
  8
Dimension (ANSI)
100
AcDbLine
 10
13.82404226780256
 20
67.31936726452253
 30
0.0
 11
17.59046179956632
 21
60.79573727289119
 31
0.0
  0
MTEXT
  5
C7C
102
{ACAD_XDICTIONARY
360
F5B
102
}
330
BC9
100
AcDbEntity
  8
Dimension (ANSI)
100
AcDbMText
 10
12.79750518838501
 20
67.92939639106869
 30
0.0
 40
0.8000000317891439
 41
0.0
 71
     3
 72
     1
  1
\A1;\U+22050.50{\PTYP.(8PL.)}
  7
Note Text (ANSI)
 73
     1
 44
1.0
1001
ACAD
1000
MTEXTBEGIN
1070
    73
1070
     1
1070
    44
1040
1.0
1070
    74
1070
     0
1000
MTEXTEND
  0
SOLID
  5
C7D
330
BC9
100
AcDbEntity
  8
Dimension (ANSI)
100
AcDbTrace
 10
17.68517148724886
 20
60.8504179365696
 30
0.0
 11
17.49575211188379
 21
60.74105660921279
 31
0.0
 12
17.91854578163673
 22
60.22747914679602
 32
0.0
 13
17.91854578163673
 23
60.22747914679602
 33
0.0
  0
LINE
  5
C7E
330
BC9
100
AcDbEntity
  8
Dimension (ANSI)
100
AcDbLine
 10
17.44354578163677
 20
60.01097279584993
 30
0.0
 11
18.64354578163678
 21
60.01097279584993
 31
0.0
  0
LINE
  5
C7F
330
BC9
100
AcDbEntity
  8
Dimension (ANSI)
100
AcDbLine
 10
18.04354578163678
 20
59.41097279584993
 30
0.0
 11
18.04354578163678
 21
60.61097279584993
 31
0.0
  0
POINT
  5
C80
330
BC9
100
AcDbEntity
  8
Defpoints
 62
     0
100
AcDbPoint
 10
17.91854578163673
 20
60.22747914679602
 30
0.0
  0
POINT
  5
C81
330
BC9
100
AcDbEntity
  8
Defpoints
 62
     0
100
AcDbPoint
 10
18.16854578163683
 20
59.79446644490384
 30
0.0
  0
ENDBLK
  5
BCB
330
BC9
100
AcDbEntity
  8
0
100
AcDbBlockEnd
  0
BLOCK
  5
C84
330
C83
100
AcDbEntity
  8
0
100
AcDbBlockBegin
  2
*D15
 70
     1
 10
0.0
 20
0.0
 30
0.0
  3
*D15
  1

  0
LINE
  5
D33
330
C83
100
AcDbEntity
  8
Dimension (ANSI)
100
AcDbLine
 10
20.55903577147327
 20
17.47311272737823
 30
0.0
 11
19.74260087379377
 21
17.47311272737823
 31
0.0
  0
LINE
  5
D34
330
C83
100
AcDbEntity
  8
Dimension (ANSI)
100
AcDbLine
 10
19.74260087379377
 20
17.47311272737823
 30
0.0
 11
18.3527723005109
 21
20.84970592683248
 31
0.0
  0
MTEXT
  5
D35
102
{ACAD_XDICTIONARY
360
F5D
102
}
330
C83
100
AcDbEntity
  8
Dimension (ANSI)
100
AcDbMText
 10
20.76900952475411
 20
18.0831418539244
 30
0.0
 40
0.8000000317891439
 41
0.0
 71
     1
 72
     1
  1
\A1;\U+22050.31{\PTYP. (4PL.)}
  7
Note Text (ANSI)
 73
     1
 44
1.0
1001
ACAD
1000
MTEXTBEGIN
1070
    73
1070
     1
1070
    44
1040
1.0
1070
    74
1070
     0
1000
MTEXTEND
  0
SOLID
  5
D36
330
C83
100
AcDbEntity
  8
Dimension (ANSI)
100
AcDbTrace
 10
18.4539019475908
 20
20.89133157280617
 30
0.0
 11
18.25164265343099
 21
20.80808028085879
 31
0.0
 12
18.10301842466874
 22
21.4564838093119
 32
0.0
 13
18.10301842466874
 23
21.4564838093119
 33
0.0
  0
LINE
  5
D37
330
C83
100
AcDbEntity
  8
Dimension (ANSI)
100
AcDbLine
 10
17.44354578163678
 20
21.60097279584994
 30
0.0
 11
18.64354578163679
 21
21.60097279584995
 31
0.0
  0
LINE
  5
D38
330
C83
100
AcDbEntity
  8
Dimension (ANSI)
100
AcDbLine
 10
18.04354578163679
 20
21.00097279584994
 30
0.0
 11
18.04354578163678
 21
22.20097279584994
 31
0.0
  0
POINT
  5
D39
330
C83
100
AcDbEntity
  8
Defpoints
 62
     0
100
AcDbPoint
 10
18.10301842466874
 20
21.4564838093119
 30
0.0
  0
POINT
  5
D3A
330
C83
100
AcDbEntity
  8
Defpoints
 62
     0
100
AcDbPoint
 10
17.98407313860483
 20
21.74546178238799
 30
0.0
  0
ENDBLK
  5
C85
330
C83
100
AcDbEntity
  8
0
100
AcDbBlockEnd
  0
BLOCK
  5
D3D
330
D3C
100
AcDbEntity
  8
0
100
AcDbBlockBegin
  2
*D16
 70
     1
 10
0.0
 20
0.0
 30
0.0
  3
*D16
  1

  0
LINE
  5
E1B
330
D3C
100
AcDbEntity
  8
Dimension (ANSI)
100
AcDbLine
 10
51.20354578163679
 20
60.42763946251661
 30
0.0
 11
51.20354578163679
 21
64.78131400319902
 31
0.0
  0
LINE
  5
E1C
330
D3C
100
AcDbEntity
  8
Dimension (ANSI)
100
AcDbLine
 10
34.62354578163679
 20
60.42763946251661
 30
0.0
 11
34.62354578163679
 21
64.78131400319902
 31
0.0
  0
LINE
  5
E1D
330
D3C
100
AcDbEntity
  8
Dimension (ANSI)
100
AcDbLine
 10
50.54737781749622
 20
63.9479806698657
 30
0.0
 11
44.70874458111899
 21
63.9479806698657
 31
0.0
  0
LINE
  5
E1E
330
D3C
100
AcDbEntity
  8
Dimension (ANSI)
100
AcDbLine
 10
35.27971374577736
 20
63.9479806698657
 30
0.0
 11
41.11834698215454
 21
63.9479806698657
 31
0.0
  0
SOLID
  5
E1F
330
D3C
100
AcDbEntity
  8
Dimension (ANSI)
100
AcDbTrace
 10
50.54737781749622
 20
64.05734199722246
 30
0.0
 11
50.54737781749622
 21
63.83861934250893
 31
0.0
 12
51.20354578163679
 22
63.9479806698657
 32
0.0
 13
51.20354578163679
 23
63.9479806698657
 33
0.0
  0
SOLID
  5
E20
330
D3C
100
AcDbEntity
  8
Dimension (ANSI)
100
AcDbTrace
 10
35.27971374577736
 20
64.05734199722246
 30
0.0
 11
35.27971374577736
 21
63.83861934250893
 31
0.0
 12
34.62354578163679
 22
63.9479806698657
 32
0.0
 13
34.62354578163679
 23
63.9479806698657
 33
0.0
  0
MTEXT
  5
E21
330
D3C
100
AcDbEntity
  8
Dimension (ANSI)
100
AcDbMText
 10
41.32832073543538
 20
64.3662479799717
 30
0.0
 40
0.8000000317891439
 41
0.0
 71
     1
 72
     1
  1
\A1;16.580
  7
Note Text (ANSI)
 73
     1
 44
1.0
1001
ACAD
1000
MTEXTBEGIN
1070
    73
1070
     1
1070
    44
1040
1.0
1070
    74
1070
     0
1000
MTEXTEND
  0
POINT
  5
E22
330
D3C
100
AcDbEntity
  8
Defpoints
 62
     0
100
AcDbPoint
 10
51.20354578163679
 20
60.01097279584995
 30
0.0
  0
POINT
  5
E23
330
D3C
100
AcDbEntity
  8
Defpoints
 62
     0
100
AcDbPoint
 10
34.62354578163679
 20
60.01097279584995
 30
0.0
  0
POINT
  5
E24
330
D3C
100
AcDbEntity
  8
Defpoints
 62
     0
100
AcDbPoint
 10
34.62354578163679
 20
63.9479806698657
 30
0.0
  0
ENDBLK
  5
D3E
330
D3C
100
AcDbEntity
  8
0
100
AcDbBlockEnd
  0
BLOCK
  5
E27
330
E26
100
AcDbEntity
  8
0
100
AcDbBlockBegin
  2
*D17
 70
     1
 10
0.0
 20
0.0
 30
0.0
  3
*D17
  1

  0
LINE
  5
F05
330
E26
100
AcDbEntity
  8
Dimension (ANSI)
100
AcDbLine
 10
51.20354578163679
 20
60.42763946251661
 30
0.0
 11
51.20354578163679
 21
67.14351872760847
 31
0.0
  0
LINE
  5
F06
330
E26
100
AcDbEntity
  8
Dimension (ANSI)
100
AcDbLine
 10
18.0435457816368
 20
60.42763946251661
 30
0.0
 11
18.0435457816368
 21
67.14351872760847
 31
0.0
  0
LINE
  5
F07
330
E26
100
AcDbEntity
  8
Dimension (ANSI)
100
AcDbLine
 10
50.54737781749622
 20
66.31018539427514
 30
0.0
 11
36.45339871278483
 21
66.31018539427514
 31
0.0
  0
LINE
  5
F08
330
E26
100
AcDbEntity
  8
Dimension (ANSI)
100
AcDbLine
 10
18.69971374577737
 20
66.31018539427514
 30
0.0
 11
32.79369285048874
 21
66.31018539427514
 31
0.0
  0
SOLID
  5
F09
330
E26
100
AcDbEntity
  8
Dimension (ANSI)
100
AcDbTrace
 10
50.54737781749622
 20
66.41954672163191
 30
0.0
 11
50.54737781749622
 21
66.20082406691837
 31
0.0
 12
51.20354578163679
 22
66.31018539427514
 32
0.0
 13
51.20354578163679
 23
66.31018539427514
 33
0.0
  0
SOLID
  5
F0A
330
E26
100
AcDbEntity
  8
Dimension (ANSI)
100
AcDbTrace
 10
18.69971374577737
 20
66.41954672163191
 30
0.0
 11
18.69971374577737
 21
66.20082406691837
 31
0.0
 12
18.0435457816368
 22
66.31018539427514
 32
0.0
 13
18.0435457816368
 23
66.31018539427514
 33
0.0
  0
MTEXT
  5
F0B
330
E26
100
AcDbEntity
  8
Dimension (ANSI)
100
AcDbMText
 10
33.00366660376958
 20
66.72684088430367
 30
0.0
 40
0.8000000317891439
 41
0.0
 71
     1
 72
     1
  1
\A1;33.160
  7
Note Text (ANSI)
 73
     1
 44
1.0
1001
ACAD
1000
MTEXTBEGIN
1070
    73
1070
     1
1070
    44
1040
1.0
1070
    74
1070
     0
1000
MTEXTEND
  0
POINT
  5
F0C
330
E26
100
AcDbEntity
  8
Defpoints
 62
     0
100
AcDbPoint
 10
51.20354578163679
 20
60.01097279584995
 30
0.0
  0
POINT
  5
F0D
330
E26
100
AcDbEntity
  8
Defpoints
 62
     0
100
AcDbPoint
 10
18.0435457816368
 20
60.01097279584995
 30
0.0
  0
POINT
  5
F0E
330
E26
100
AcDbEntity
  8
Defpoints
 62
     0
100
AcDbPoint
 10
18.0435457816368
 20
66.31018539427514
 30
0.0
  0
ENDBLK
  5
E28
330
E26
100
AcDbEntity
  8
0
100
AcDbBlockEnd
  0
ENDSEC
  0
SECTION
  2
ENTITIES
  0
MTEXT
  5
74
330
6C
100
AcDbEntity
  8
Symbol (ANSI)
100
AcDbMText
 10
68.69836514180916
 20
17.28356401395748
 30
0.0
 40
0.9450000301590115
 41
34.88650408316785
 71
     1
 72
     1
  1
{\fRomanS|b0|i0|c0|p2;PART#: NP4236C\P(DATA SUBJECT TO CHANGE WITHOUT NOTICE)\PTHIS DRAWING AND COMPONENTS OF ARE\PPROPERTY OF HUBBELL INC. WIEGMANN\P }
  7
Note Text (ANSI)
 73
     2
 44
1.093904256820678
1001
ACAD
1000
MTEXTBEGIN
1070
    73
1070
     2
1070
    44
1040
1.093904256820678
1070
    74
1070
     0
1000
MTEXTEND
  0
TEXT
  5
77
330
6C
100
AcDbEntity
  8
0
100
AcDbText
 10
101.0605253119031
 20
11.87119004499148
 30
0.0
 40
0.6570243161006749
  1
HUBBELL
  7
SANSSERIF
100
AcDbText
  0
POLYLINE
  5
79
330
6C
100
AcDbEntity
  8
0
100
AcDb2dPolyline
 66
     1
 10
0.0
 20
0.0
 30
0.0
  0
VERTEX
  5
7A
330
79
100
AcDbEntity
  8
0
100
AcDbVertex
100
AcDb2dVertex
 10
101.4009250720874
 20
11.54658325038489
 30
0.0
 42
0.0538548888021971
  0
VERTEX
  5
7B
330
79
100
AcDbEntity
  8
0
100
AcDbVertex
100
AcDb2dVertex
 10
101.637530134757
 20
11.36126788020431
 30
0.0
 42
0.0762621633615686
 70
     2
 50
328.0963691854962
  0
VERTEX
  5
7C
330
79
100
AcDbEntity
  8
0
100
AcDbVertex
100
AcDb2dVertex
 10
102.2157797805643
 20
11.11365058022952
 30
0.0
 42
0.0631748622128167
 50
328.0963691854962
  0
VERTEX
  5
7D
330
79
100
AcDbEntity
  8
0
100
AcDbVertex
100
AcDb2dVertex
 10
102.9677236598678
 20
11.01826197634783
 30
0.0
 42
0.0631748622128144
  0
VERTEX
  5
7E
330
79
100
AcDbEntity
  8
0
100
AcDbVertex
100
AcDb2dVertex
 10
103.7196675391714
 20
11.11365058022952
 30
0.0
 42
0.0762621633615716
  0
VERTEX
  5
7F
330
79
100
AcDbEntity
  8
0
100
AcDbVertex
100
AcDb2dVertex
 10
104.2979171849786
 20
11.36126788020431
 30
0.0
 42
0.0538548888021992
 70
     2
 50
31.90363081450366
  0
VERTEX
  5
80
330
79
100
AcDbEntity
  8
0
100
AcDbVertex
100
AcDb2dVertex
 10
104.5345222476483
 20
11.54658325038489
 30
0.0
 42
0.1478388992712208
 50
31.90363081450366
  0
SEQEND
  5
81
330
79
100
AcDbEntity
  8
0
  0
POLYLINE
  5
82
330
6C
100
AcDbEntity
  8
0
100
AcDb2dPolyline
 66
     1
 10
0.0
 20
0.0
 30
0.0
  0
VERTEX
  5
83
330
82
100
AcDbEntity
  8
0
100
AcDbVertex
100
AcDb2dVertex
 10
101.8347259884762
 20
11.61817630846431
 30
0.0
 42
0.0708473647366734
  0
VERTEX
  5
84
330
82
100
AcDbEntity
  8
0
100
AcDbVertex
100
AcDb2dVertex
 10
102.0492181696054
 20
11.36126788020431
 30
0.0
 42
0.0943474025114784
 70
     2
 50
317.9633854595613
  0
VERTEX
  5
85
330
82
100
AcDbEntity
  8
0
100
AcDbVertex
100
AcDb2dVertex
 10
102.4645941311518
 20
11.10914105445431
 30
0.0
 42
0.0895889244631754
 50
317.9633854595613
  0
VERTEX
  5
86
330
82
100
AcDbEntity
  8
0
100
AcDbVertex
100
AcDb2dVertex
 10
102.9677236598678
 20
11.01826197634783
 30
0.0
 42
0.0895889244631755
  0
VERTEX
  5
87
330
82
100
AcDbEntity
  8
0
100
AcDbVertex
100
AcDb2dVertex
 10
103.4708531885838
 20
11.10914105445431
 30
0.0
 42
0.0943474025114826
  0
VERTEX
  5
88
330
82
100
AcDbEntity
  8
0
100
AcDbVertex
100
AcDb2dVertex
 10
103.8862291501303
 20
11.36126788020431
 30
0.0
 42
0.0708473647366705
 70
     2
 50
42.03661454043863
  0
VERTEX
  5
89
330
82
100
AcDbEntity
  8
0
100
AcDbVertex
100
AcDb2dVertex
 10
104.1007213312594
 20
11.61817630846431
 30
0.0
 42
0.1080871028423927
 50
42.03661454043863
  0
SEQEND
  5
8A
330
82
100
AcDbEntity
  8
0
  0
POLYLINE
  5
8B
330
6C
100
AcDbEntity
  8
0
100
AcDb2dPolyline
 66
     1
 10
0.0
 20
0.0
 30
0.0
  0
VERTEX
  5
8C
330
8B
100
AcDbEntity
  8
0
100
AcDbVertex
100
AcDb2dVertex
 10
104.5239038398586
 20
12.84236143434039
 30
0.0
 42
0.0512131062417871
  0
VERTEX
  5
8D
330
8B
100
AcDbEntity
  8
0
100
AcDbVertex
100
AcDb2dVertex
 10
104.2979171849786
 20
13.01744689033302
 30
0.0
 42
0.0762621633615678
 70
     2
 50
148.0963691854963
  0
VERTEX
  5
8E
330
8B
100
AcDbEntity
  8
0
100
AcDbVertex
100
AcDb2dVertex
 10
103.7196675391714
 20
13.26506419030781
 30
0.0
 42
0.0631748622128132
 50
148.0963691854963
  0
VERTEX
  5
8F
330
8B
100
AcDbEntity
  8
0
100
AcDbVertex
100
AcDb2dVertex
 10
102.9677236598678
 20
13.3604527941895
 30
0.0
 42
0.0631748622128155
  0
SEQEND
  5
90
330
8B
100
AcDbEntity
  8
0
  0
POLYLINE
  5
91
330
6C
100
AcDbEntity
  8
0
100
AcDb2dPolyline
 66
     1
 10
0.0
 20
0.0
 30
0.0
  0
VERTEX
  5
92
330
91
100
AcDbEntity
  8
0
100
AcDbVertex
100
AcDb2dVertex
 10
104.0954469000884
 20
12.76898137179539
 30
0.0
 42
0.0687403046083495
  0
VERTEX
  5
93
330
91
100
AcDbEntity
  8
0
100
AcDbVertex
100
AcDb2dVertex
 10
103.8862291501303
 20
13.01744689033302
 30
0.0
 42
0.0943474025114827
 70
     2
 50
137.9633854595613
  0
VERTEX
  5
94
330
91
100
AcDbEntity
  8
0
100
AcDbVertex
100
AcDb2dVertex
 10
103.4708531885838
 20
13.26957371608301
 30
0.0
 42
0.0895889244631755
 50
137.9633854595613
  0
VERTEX
  5
95
330
91
100
AcDbEntity
  8
0
100
AcDbVertex
100
AcDb2dVertex
 10
102.9677236598678
 20
13.3604527941895
 30
0.0
 42
0.0895889244631779
  0
SEQEND
  5
96
330
91
100
AcDbEntity
  8
0
  0
LINE
  5
97
330
6C
100
AcDbEntity
  8
0
100
AcDbLine
 10
105.4640166541714
 20
13.68713318185074
 30
0.0
 11
100.4714306655643
 21
13.68713318185074
 31
0.0
  0
LINE
  5
98
330
6C
100
AcDbEntity
  8
0
100
AcDbLine
 10
100.4714306655643
 20
10.69158158868656
 30
0.0
 11
105.4640166541714
 21
10.69158158868656
 31
0.0
  0
POLYLINE
  5
99
330
6C
100
AcDbEntity
  8
0
100
AcDb2dPolyline
 66
     1
 10
0.0
 20
0.0
 30
0.0
 70
     1
  0
VERTEX
  5
9A
330
99
100
AcDbEntity
  8
0
100
AcDbVertex
100
AcDb2dVertex
 10
100.4714306655643
 20
12.18935738526866
 30
0.0
 42
0.1828233251715505
  0
VERTEX
  5
9B
330
99
100
AcDbEntity
  8
0
100
AcDbVertex
100
AcDb2dVertex
 10
100.619371143591
 20
11.79828129889045
 30
0.0
 42
0.1025674015815553
  0
VERTEX
  5
9C
330
99
100
AcDbEntity
  8
0
100
AcDbVertex
100
AcDb2dVertex
 10
101.2025779557674
 20
11.3612678802044
 30
0.0
 42
0.0617587255956112
 70
     2
 50
334.8671392208401
  0
VERTEX
  5
9D
330
99
100
AcDbEntity
  8
0
100
AcDbVertex
100
AcDb2dVertex
 10
101.9554462489372
 20
11.11570429657356
 30
0.0
 42
0.0480192641995976
 50
334.8671392208401
  0
VERTEX
  5
9E
330
99
100
AcDbEntity
  8
0
100
AcDbVertex
100
AcDb2dVertex
 10
102.9677236598678
 20
11.01826197634783
 30
0.0
 42
0.0480192641995965
  0
VERTEX
  5
9F
330
99
100
AcDbEntity
  8
0
100
AcDbVertex
100
AcDb2dVertex
 10
103.9800010707985
 20
11.11570429657356
 30
0.0
 42
0.0617587255956115
  0
VERTEX
  5
A0
330
99
100
AcDbEntity
  8
0
100
AcDbVertex
100
AcDb2dVertex
 10
104.7328693639683
 20
11.3612678802044
 30
0.0
 42
0.1025674015815654
 70
     2
 50
25.13286077915987
  0
VERTEX
  5
A1
330
99
100
AcDbEntity
  8
0
100
AcDbVertex
100
AcDb2dVertex
 10
105.3160761761445
 20
11.79828129889045
 30
0.0
 42
0.18282332517157
 50
25.13286077915987
  0
VERTEX
  5
A2
330
99
100
AcDbEntity
  8
0
100
AcDbVertex
100
AcDb2dVertex
 10
105.4640166541714
 20
12.18935738526866
 30
0.0
 42
0.1828233251715568
  0
VERTEX
  5
A3
330
99
100
AcDbEntity
  8
0
100
AcDbVertex
100
AcDb2dVertex
 10
105.3160761761445
 20
12.5804334716469
 30
0.0
 42
0.102567401581563
  0
VERTEX
  5
A4
330
99
100
AcDbEntity
  8
0
100
AcDbVertex
100
AcDb2dVertex
 10
104.7328693639683
 20
13.01744689033289
 30
0.0
 42
0.0617587255956141
 70
     2
 50
154.86713922084
  0
VERTEX
  5
A5
330
99
100
AcDbEntity
  8
0
100
AcDbVertex
100
AcDb2dVertex
 10
103.9800010707985
 20
13.26301047396377
 30
0.0
 42
0.0480192641995983
 50
154.86713922084
  0
VERTEX
  5
A6
330
99
100
AcDbEntity
  8
0
100
AcDbVertex
100
AcDb2dVertex
 10
102.9677236598678
 20
13.3604527941895
 30
0.0
 42
0.0480192641995976
  0
VERTEX
  5
A7
330
99
100
AcDbEntity
  8
0
100
AcDbVertex
100
AcDb2dVertex
 10
101.9554462489372
 20
13.26301047396377
 30
0.0
 42
0.0617587255956112
  0
VERTEX
  5
A8
330
99
100
AcDbEntity
  8
0
100
AcDbVertex
100
AcDb2dVertex
 10
101.2025779557674
 20
13.01744689033289
 30
0.0
 42
0.1025674015815593
 70
     2
 50
205.1328607791599
  0
VERTEX
  5
A9
330
99
100
AcDbEntity
  8
0
100
AcDbVertex
100
AcDb2dVertex
 10
100.619371143591
 20
12.5804334716469
 30
0.0
 42
0.1828233251715536
 50
205.1328607791599
  0
SEQEND
  5
AA
330
99
100
AcDbEntity
  8
0
  0
ARC
  5
AB
330
6C
100
AcDbEntity
  8
0
100
AcDbCircle
 10
100.4714306655643
 20
13.18787458299004
 30
0.0
 40
0.4992585988606951
100
AcDbArc
 50
90.0
 51
180.0
  0
LINE
  5
AC
330
6C
100
AcDbEntity
  8
0
100
AcDbLine
 10
99.97217206670368
 20
13.18787458299004
 30
0.0
 11
99.97217206670368
 21
11.19084018754726
 31
0.0
  0
ARC
  5
AD
330
6C
100
AcDbEntity
  8
0
100
AcDbCircle
 10
100.4714306655643
 20
11.19084018754726
 30
0.0
 40
0.4992585988606951
100
AcDbArc
 50
180.0
 51
270.0
  0
POLYLINE
  5
AE
330
6C
100
AcDbEntity
  8
0
100
AcDb2dPolyline
 66
     1
 10
0.0
 20
0.0
 30
0.0
  0
VERTEX
  5
AF
330
AE
100
AcDbEntity
  8
0
100
AcDbVertex
100
AcDb2dVertex
 10
102.448181686781
 20
11.67502345606471
 30
0.0
 42
0.0570538596573184
  0
VERTEX
  5
B0
330
AE
100
AcDbEntity
  8
0
100
AcDbVertex
100
AcDb2dVertex
 10
102.5603119055211
 20
11.36126788020424
 30
0.0
 42
0.1038195938885091
 70
     2
 50
296.1967246921072
  0
VERTEX
  5
B1
330
AE
100
AcDbEntity
  8
0
100
AcDbVertex
100
AcDb2dVertex
 10
102.7732431537924
 20
11.08922880402822
 30
0.0
 42
0.1767522344444316
 50
296.1967246921072
  0
VERTEX
  5
B2
330
AE
100
AcDbEntity
  8
0
100
AcDbVertex
100
AcDb2dVertex
 10
102.9677236598678
 20
11.01826197634783
 30
0.0
 42
0.1767522344444399
  0
VERTEX
  5
B3
330
AE
100
AcDbEntity
  8
0
100
AcDbVertex
100
AcDb2dVertex
 10
103.1622041659434
 20
11.08922880402822
 30
0.0
 42
0.1038195938885123
  0
VERTEX
  5
B4
330
AE
100
AcDbEntity
  8
0
100
AcDbVertex
100
AcDb2dVertex
 10
103.3751354142145
 20
11.36126788020424
 30
0.0
 42
0.0570538596573163
 70
     2
 50
63.8032753078928
  0
VERTEX
  5
B5
330
AE
100
AcDbEntity
  8
0
100
AcDbVertex
100
AcDb2dVertex
 10
103.4872656329546
 20
11.67502345606471
 30
0.0
 42
0.0503013836282066
 50
63.8032753078928
  0
SEQEND
  5
B6
330
AE
100
AcDbEntity
  8
0
  0
POLYLINE
  5
B7
330
6C
100
AcDbEntity
  8
0
100
AcDb2dPolyline
 66
     1
 10
0.0
 20
0.0
 30
0.0
  0
VERTEX
  5
B8
330
B7
100
AcDbEntity
  8
0
100
AcDbVertex
100
AcDb2dVertex
 10
102.9677236598678
 20
13.3604527941895
 30
0.0
 42
0.1767522344444361
  0
VERTEX
  5
B9
330
B7
100
AcDbEntity
  8
0
100
AcDbVertex
100
AcDb2dVertex
 10
102.7732431537924
 20
13.28948596650906
 30
0.0
 42
0.1038195938884991
  0
VERTEX
  5
BA
330
B7
100
AcDbEntity
  8
0
100
AcDbVertex
100
AcDb2dVertex
 10
102.5603119055211
 20
13.01744689033305
 30
0.0
 42
0.0567223889277798
 70
     2
 50
243.8032753078928
  0
VERTEX
  5
BB
330
B7
100
AcDbEntity
  8
0
100
AcDbVertex
100
AcDb2dVertex
 10
102.4486228391647
 20
12.70557617732481
 30
0.0
 42
0.0503013836282199
 50
243.8032753078928
  0
SEQEND
  5
BC
330
B7
100
AcDbEntity
  8
0
  0
POLYLINE
  5
BD
330
6C
100
AcDbEntity
  8
0
100
AcDb2dPolyline
 66
     1
 10
0.0
 20
0.0
 30
0.0
  0
VERTEX
  5
BE
330
BD
100
AcDbEntity
  8
0
100
AcDbVertex
100
AcDb2dVertex
 10
102.9677236598678
 20
13.3604527941895
 30
0.0
 42
0.0895889244631779
  0
VERTEX
  5
BF
330
BD
100
AcDbEntity
  8
0
100
AcDbVertex
100
AcDb2dVertex
 10
102.4645941311518
 20
13.26957371608301
 30
0.0
 42
0.094347402511486
  0
VERTEX
  5
C0
330
BD
100
AcDbEntity
  8
0
100
AcDbVertex
100
AcDb2dVertex
 10
102.0492181696054
 20
13.01744689033302
 30
0.0
 42
0.0687403046083514
 70
     2
 50
222.0366145404387
  0
VERTEX
  5
C1
330
BD
100
AcDbEntity
  8
0
100
AcDbVertex
100
AcDb2dVertex
 10
101.8400004196472
 20
12.76898137179539
 30
0.0
 42
0.1080871028423927
 50
222.0366145404387
  0
SEQEND
  5
C2
330
BD
100
AcDbEntity
  8
0
  0
POLYLINE
  5
C3
330
6C
100
AcDbEntity
  8
0
100
AcDb2dPolyline
 66
     1
 10
0.0
 20
0.0
 30
0.0
  0
VERTEX
  5
C4
330
C3
100
AcDbEntity
  8
0
100
AcDbVertex
100
AcDb2dVertex
 10
102.9677236598678
 20
13.3604527941895
 30
0.0
 42
0.0631748622128155
  0
VERTEX
  5
C5
330
C3
100
AcDbEntity
  8
0
100
AcDbVertex
100
AcDb2dVertex
 10
102.2157797805643
 20
13.26506419030781
 30
0.0
 42
0.0762621633615699
  0
VERTEX
  5
C6
330
C3
100
AcDbEntity
  8
0
100
AcDbVertex
100
AcDb2dVertex
 10
101.637530134757
 20
13.01744689033302
 30
0.0
 42
0.0512131062417906
 70
     2
 50
211.9036308145036
  0
VERTEX
  5
C7
330
C3
100
AcDbEntity
  8
0
100
AcDbVertex
100
AcDb2dVertex
 10
101.4115434798771
 20
12.84236143434039
 30
0.0
 42
0.1478388992712295
 50
211.9036308145036
  0
SEQEND
  5
C8
330
C3
100
AcDbEntity
  8
0
  0
POLYLINE
  5
C9
330
6C
100
AcDbEntity
  8
0
100
AcDb2dPolyline
 66
     1
 10
0.0
 20
0.0
 30
0.0
  0
VERTEX
  5
CA
330
C9
100
AcDbEntity
  8
0
100
AcDbVertex
100
AcDb2dVertex
 10
103.486824480571
 20
12.70557617732481
 30
0.0
 42
0.0567223889277601
  0
VERTEX
  5
CB
330
C9
100
AcDbEntity
  8
0
100
AcDbVertex
100
AcDb2dVertex
 10
103.3751354142145
 20
13.01744689033305
 30
0.0
 42
0.1038195938884991
 70
     2
 50
116.1967246921072
  0
VERTEX
  5
CC
330
C9
100
AcDbEntity
  8
0
100
AcDbVertex
100
AcDb2dVertex
 10
103.1622041659434
 20
13.28948596650906
 30
0.0
 42
0.1767522344444361
 50
116.1967246921072
  0
VERTEX
  5
CD
330
C9
100
AcDbEntity
  8
0
100
AcDbVertex
100
AcDb2dVertex
 10
102.9677236598678
 20
13.3604527941895
 30
0.0
 42
0.1767522344444361
  0
SEQEND
  5
CE
330
C9
100
AcDbEntity
  8
0
  0
ARC
  5
CF
330
6C
100
AcDbEntity
  8
0
100
AcDbCircle
 10
105.4640166541714
 20
13.18787458299004
 30
0.0
 40
0.4992585988606951
100
AcDbArc
 50
0.0
 51
90.0
  0
CIRCLE
  5
D0
330
6C
100
AcDbEntity
  8
0
100
AcDbCircle
 10
106.4341782302015
 20
13.42984638595616
 30
0.0
 40
0.2598233321567377
  0
TEXT
  5
D1
330
6C
100
AcDbEntity
  8
0
100
AcDbText
 10
106.2666267000784
 20
13.25616407769567
 30
0.0
 40
0.3049772414979007
  1
R
  7
SANSSERIF
100
AcDbText
  0
LINE
  5
D2
330
6C
100
AcDbEntity
  8
0
100
AcDbLine
 10
105.9632752530319
 20
11.19084018754726
 30
0.0
 11
105.9632752530319
 21
13.18787458299004
 31
0.0
  0
ARC
  5
D3
330
6C
100
AcDbEntity
  8
0
100
AcDbCircle
 10
105.4640166541714
 20
11.19084018754726
 30
0.0
 40
0.4992585988606951
100
AcDbArc
 50
270.0
 51
0.0
  0
CIRCLE
  5
17B
330
6C
100
AcDbEntity
  8
Visible (ANSI)
100
AcDbCircle
 10
51.20354578163679
 20
40.43097279584994
 30
0.0
 40
0.2500000000000006
  0
CIRCLE
  5
17C
330
6C
100
AcDbEntity
  8
Visible (ANSI)
100
AcDbCircle
 10
18.0435457816368
 20
40.43097279584994
 30
0.0
 40
0.2500000000000006
  0
CIRCLE
  5
17D
330
6C
100
AcDbEntity
  8
Visible (ANSI)
100
AcDbCircle
 10
34.62354578163679
 20
20.85097279584994
 30
0.0
 40
0.2499999999999999
  0
CIRCLE
  5
17E
330
6C
100
AcDbEntity
  8
Visible (ANSI)
100
AcDbCircle
 10
34.62354578163679
 20
60.01097279584995
 30
0.0
 40
0.2499999999999999
  0
LINE
  5
17F
330
6C
100
AcDbEntity
  8
Visible (ANSI)
100
AcDbLine
 10
19.24154578163679
 20
20.33097279584994
 30
0.0
 11
50.00554578163679
 21
20.33097279584994
 31
0.0
  0
LINE
  5
180
330
6C
100
AcDbEntity
  8
Visible (ANSI)
100
AcDbLine
 10
19.24154578163679
 20
20.33097279584994
 30
0.0
 11
19.24154578163679
 21
20.44032279584994
 31
0.0
  0
LINE
  5
181
330
6C
100
AcDbEntity
  8
Visible (ANSI)
100
AcDbLine
 10
50.00554578163679
 20
20.33097279584994
 30
0.0
 11
50.00554578163679
 21
20.44032279584994
 31
0.0
  0
LINE
  5
182
330
6C
100
AcDbEntity
  8
Visible (ANSI)
100
AcDbLine
 10
50.00574578163679
 20
20.44052279584994
 30
0.0
 11
50.00574578163679
 21
20.33097279584994
 31
0.0
  0
LINE
  5
183
330
6C
100
AcDbEntity
  8
Visible (ANSI)
100
AcDbLine
 10
50.00554578163679
 20
20.44052279584994
 30
0.0
 11
50.00574578163679
 21
20.44052279584994
 31
0.0
  0
LINE
  5
184
330
6C
100
AcDbEntity
  8
Visible (ANSI)
100
AcDbLine
 10
19.24134578163679
 20
20.44052279584994
 30
0.0
 11
19.24154578163679
 21
20.44052279584994
 31
0.0
  0
LINE
  5
185
330
6C
100
AcDbEntity
  8
Visible (ANSI)
100
AcDbLine
 10
19.24134578163679
 20
20.33097279584994
 30
0.0
 11
19.24134578163679
 21
20.44052279584994
 31
0.0
  0
LINE
  5
186
330
6C
100
AcDbEntity
  8
Hidden (ANSI)
 48
1.063100457191467
100
AcDbLine
 10
50.00554578163679
 20
20.42472279584995
 30
0.0
 11
19.2415457816368
 21
20.42472279584995
 31
0.0
  0
LINE
  5
187
330
6C
100
AcDbEntity
  8
Visible (ANSI)
100
AcDbLine
 10
19.24154578163679
 20
20.44052279584994
 30
0.0
 11
19.24154578163679
 21
20.44032279584994
 31
0.0
  0
LINE
  5
188
330
6C
100
AcDbEntity
  8
Visible (ANSI)
100
AcDbLine
 10
50.00554578163679
 20
20.44032279584994
 30
0.0
 11
50.00554578163679
 21
20.44052279584994
 31
0.0
  0
LINE
  5
189
330
6C
100
AcDbEntity
  8
Visible (ANSI)
100
AcDbLine
 10
19.24134578163679
 20
20.33097279584994
 30
0.0
 11
18.02354578163679
 21
20.33097279584994
 31
0.0
  0
LINE
  5
18A
330
6C
100
AcDbEntity
  8
Visible (ANSI)
100
AcDbLine
 10
51.2235457816368
 20
20.33097279584994
 30
0.0
 11
50.00574578163679
 21
20.33097279584994
 31
0.0
  0
LINE
  5
18B
330
6C
100
AcDbEntity
  8
Visible (ANSI)
100
AcDbLine
 10
51.72354578163679
 20
22.04877279584995
 30
0.0
 11
51.72354578163679
 21
20.83097279584994
 31
0.0
  0
LINE
  5
18C
330
6C
100
AcDbEntity
  8
Visible (ANSI)
100
AcDbLine
 10
51.72354578163679
 20
60.03097279584995
 30
0.0
 11
51.72354578163679
 21
58.81317279584995
 31
0.0
  0
LINE
  5
18D
330
6C
100
AcDbEntity
  8
Visible (ANSI)
100
AcDbLine
 10
50.00574578163679
 20
60.53097279584996
 30
0.0
 11
51.22354578163679
 21
60.53097279584996
 31
0.0
  0
LINE
  5
18E
330
6C
100
AcDbEntity
  8
Visible (ANSI)
100
AcDbLine
 10
18.02354578163678
 20
60.53097279584995
 30
0.0
 11
19.24134578163678
 21
60.53097279584995
 31
0.0
  0
LINE
  5
18F
330
6C
100
AcDbEntity
  8
Visible (ANSI)
100
AcDbLine
 10
17.52354578163678
 20
58.81317279584994
 30
0.0
 11
17.52354578163678
 21
60.03097279584995
 31
0.0
  0
LINE
  5
190
330
6C
100
AcDbEntity
  8
Visible (ANSI)
100
AcDbLine
 10
17.5235457816368
 20
20.83097279584994
 30
0.0
 11
17.5235457816368
 21
22.04877279584994
 31
0.0
  0
LINE
  5
191
330
6C
100
AcDbEntity
  8
Visible (ANSI)
100
AcDbLine
 10
51.72354578163679
 20
20.83097279584994
 30
0.0
 11
51.2235457816368
 21
20.33097279584994
 31
0.0
  0
LINE
  5
192
330
6C
100
AcDbEntity
  8
Visible (ANSI)
100
AcDbLine
 10
51.72354578163679
 20
22.04877279584995
 30
0.0
 11
51.6139957816368
 21
22.04877279584995
 31
0.0
  0
LINE
  5
193
330
6C
100
AcDbEntity
  8
Visible (ANSI)
100
AcDbLine
 10
51.6139957816368
 20
22.04877279584995
 30
0.0
 11
51.6139957816368
 21
22.04897279584995
 31
0.0
  0
LINE
  5
194
330
6C
100
AcDbEntity
  8
Visible (ANSI)
100
AcDbLine
 10
51.61399578163679
 20
58.81297279584995
 30
0.0
 11
51.61399578163679
 21
58.81317279584995
 31
0.0
  0
LINE
  5
195
330
6C
100
AcDbEntity
  8
Visible (ANSI)
100
AcDbLine
 10
51.61399578163679
 20
58.81317279584995
 30
0.0
 11
51.72354578163679
 21
58.81317279584995
 31
0.0
  0
LINE
  5
196
330
6C
100
AcDbEntity
  8
Visible (ANSI)
100
AcDbLine
 10
51.72354578163679
 20
22.04897279584995
 30
0.0
 11
51.72354578163679
 21
58.81297279584995
 31
0.0
  0
LINE
  5
197
330
6C
100
AcDbEntity
  8
Visible (ANSI)
100
AcDbLine
 10
51.72354578163679
 20
22.04897279584995
 30
0.0
 11
51.6141957816368
 21
22.04897279584995
 31
0.0
  0
LINE
  5
198
330
6C
100
AcDbEntity
  8
Visible (ANSI)
100
AcDbLine
 10
51.72354578163678
 20
58.81297279584995
 30
0.0
 11
51.61419578163679
 21
58.81297279584995
 31
0.0
  0
LINE
  5
199
330
6C
100
AcDbEntity
  8
Hidden (ANSI)
 48
1.067169785499572
100
AcDbLine
 10
51.62979578163678
 20
58.81297279584995
 30
0.0
 11
51.62979578163679
 21
22.04897279584995
 31
0.0
  0
LINE
  5
19A
330
6C
100
AcDbEntity
  8
Visible (ANSI)
100
AcDbLine
 10
51.6139957816368
 20
22.04897279584995
 30
0.0
 11
51.6141957816368
 21
22.04897279584995
 31
0.0
  0
LINE
  5
19B
330
6C
100
AcDbEntity
  8
Visible (ANSI)
100
AcDbLine
 10
51.6141957816368
 20
58.81297279584995
 30
0.0
 11
51.61399578163679
 21
58.81297279584995
 31
0.0
  0
LINE
  5
19C
330
6C
100
AcDbEntity
  8
Visible (ANSI)
100
AcDbLine
 10
51.22354578163679
 20
60.53097279584996
 30
0.0
 11
51.72354578163679
 21
60.03097279584995
 31
0.0
  0
LINE
  5
19D
330
6C
100
AcDbEntity
  8
Visible (ANSI)
100
AcDbLine
 10
50.00574578163679
 20
60.53097279584996
 30
0.0
 11
50.00574578163679
 21
60.42142279584997
 31
0.0
  0
LINE
  5
19E
330
6C
100
AcDbEntity
  8
Visible (ANSI)
100
AcDbLine
 10
50.00574578163679
 20
60.42142279584997
 30
0.0
 11
50.00554578163679
 21
60.42142279584997
 31
0.0
  0
LINE
  5
19F
330
6C
100
AcDbEntity
  8
Visible (ANSI)
100
AcDbLine
 10
19.24154578163678
 20
60.42142279584995
 30
0.0
 11
19.24134578163678
 21
60.42142279584995
 31
0.0
  0
LINE
  5
1A0
330
6C
100
AcDbEntity
  8
Visible (ANSI)
100
AcDbLine
 10
19.24134578163678
 20
60.42142279584995
 30
0.0
 11
19.24134578163678
 21
60.53097279584995
 31
0.0
  0
LINE
  5
1A1
330
6C
100
AcDbEntity
  8
Visible (ANSI)
100
AcDbLine
 10
50.00554578163679
 20
60.53097279584994
 30
0.0
 11
19.24154578163679
 21
60.53097279584994
 31
0.0
  0
LINE
  5
1A2
330
6C
100
AcDbEntity
  8
Visible (ANSI)
100
AcDbLine
 10
50.00554578163679
 20
60.53097279584994
 30
0.0
 11
50.00554578163679
 21
60.42162279584996
 31
0.0
  0
LINE
  5
1A3
330
6C
100
AcDbEntity
  8
Visible (ANSI)
100
AcDbLine
 10
19.24154578163678
 20
60.53097279584992
 30
0.0
 11
19.24154578163679
 21
60.42162279584995
 31
0.0
  0
LINE
  5
1A4
330
6C
100
AcDbEntity
  8
Hidden (ANSI)
 48
1.063100457191467
100
AcDbLine
 10
19.24154578163679
 20
60.43722279584994
 30
0.0
 11
50.00554578163679
 21
60.43722279584994
 31
0.0
  0
LINE
  5
1A5
330
6C
100
AcDbEntity
  8
Visible (ANSI)
100
AcDbLine
 10
50.00554578163679
 20
60.42142279584997
 30
0.0
 11
50.00554578163679
 21
60.42162279584996
 31
0.0
  0
LINE
  5
1A6
330
6C
100
AcDbEntity
  8
Visible (ANSI)
100
AcDbLine
 10
19.24154578163678
 20
60.42162279584995
 30
0.0
 11
19.24154578163678
 21
60.42142279584995
 31
0.0
  0
LINE
  5
1A7
330
6C
100
AcDbEntity
  8
Visible (ANSI)
100
AcDbLine
 10
17.52354578163678
 20
60.03097279584995
 30
0.0
 11
18.02354578163678
 21
60.53097279584995
 31
0.0
  0
LINE
  5
1A8
330
6C
100
AcDbEntity
  8
Visible (ANSI)
100
AcDbLine
 10
17.52354578163678
 20
58.81317279584994
 30
0.0
 11
17.63309578163677
 21
58.81317279584994
 31
0.0
  0
LINE
  5
1A9
330
6C
100
AcDbEntity
  8
Visible (ANSI)
100
AcDbLine
 10
17.63309578163677
 20
58.81317279584994
 30
0.0
 11
17.63309578163677
 21
58.81297279584995
 31
0.0
  0
LINE
  5
1AA
330
6C
100
AcDbEntity
  8
Visible (ANSI)
100
AcDbLine
 10
17.63309578163678
 20
22.04897279584995
 30
0.0
 11
17.63309578163678
 21
22.04877279584994
 31
0.0
  0
LINE
  5
1AB
330
6C
100
AcDbEntity
  8
Visible (ANSI)
100
AcDbLine
 10
17.63309578163678
 20
22.04877279584994
 30
0.0
 11
17.5235457816368
 21
22.04877279584994
 31
0.0
  0
LINE
  5
1AC
330
6C
100
AcDbEntity
  8
Visible (ANSI)
100
AcDbLine
 10
17.5235457816368
 20
58.81297279584995
 30
0.0
 11
17.52354578163681
 21
22.04897279584995
 31
0.0
  0
LINE
  5
1AD
330
6C
100
AcDbEntity
  8
Visible (ANSI)
100
AcDbLine
 10
17.5235457816368
 20
58.81297279584995
 30
0.0
 11
17.63289578163677
 21
58.81297279584995
 31
0.0
  0
LINE
  5
1AE
330
6C
100
AcDbEntity
  8
Visible (ANSI)
100
AcDbLine
 10
17.5235457816368
 20
22.04897279584995
 30
0.0
 11
17.63289578163678
 21
22.04897279584995
 31
0.0
  0
LINE
  5
1AF
330
6C
100
AcDbEntity
  8
Hidden (ANSI)
 48
1.067169785499572
100
AcDbLine
 10
17.61729578163681
 20
22.04897279584995
 30
0.0
 11
17.6172957816368
 21
58.81297279584995
 31
0.0
  0
LINE
  5
1B0
330
6C
100
AcDbEntity
  8
Visible (ANSI)
100
AcDbLine
 10
17.63309578163677
 20
58.81297279584995
 30
0.0
 11
17.63289578163677
 21
58.81297279584995
 31
0.0
  0
LINE
  5
1B1
330
6C
100
AcDbEntity
  8
Visible (ANSI)
100
AcDbLine
 10
17.63289578163679
 20
22.04897279584995
 30
0.0
 11
17.63309578163678
 21
22.04897279584995
 31
0.0
  0
LINE
  5
1B2
330
6C
100
AcDbEntity
  8
Visible (ANSI)
100
AcDbLine
 10
18.02354578163679
 20
20.33097279584994
 30
0.0
 11
17.5235457816368
 21
20.83097279584994
 31
0.0
  0
CIRCLE
  5
1B3
330
6C
100
AcDbEntity
  8
Visible (ANSI)
100
AcDbCircle
 10
51.20354578163679
 20
60.01097279584995
 30
0.0
 40
0.25
  0
CIRCLE
  5
1B4
330
6C
100
AcDbEntity
  8
Visible (ANSI)
100
AcDbCircle
 10
18.0435457816368
 20
60.01097279584995
 30
0.0
 40
0.25
  0
CIRCLE
  5
1B5
330
6C
100
AcDbEntity
  8
Visible (ANSI)
100
AcDbCircle
 10
18.0435457816368
 20
20.85097279584994
 30
0.0
 40
0.25
  0
CIRCLE
  5
1B6
330
6C
100
AcDbEntity
  8
Visible (ANSI)
100
AcDbCircle
 10
51.20354578163679
 20
20.85097279584994
 30
0.0
 40
0.25
  0
CIRCLE
  5
1B7
330
6C
100
AcDbEntity
  8
Visible (ANSI)
100
AcDbCircle
 10
51.20354578163679
 20
59.26097279584994
 30
0.0
 40
0.15625
  0
CIRCLE
  5
1B8
330
6C
100
AcDbEntity
  8
Visible (ANSI)
100
AcDbCircle
 10
18.0435457816368
 20
59.26097279584994
 30
0.0
 40
0.15625
  0
CIRCLE
  5
1B9
330
6C
100
AcDbEntity
  8
Visible (ANSI)
100
AcDbCircle
 10
18.04354578163679
 20
21.60097279584995
 30
0.0
 40
0.15625
  0
CIRCLE
  5
1BA
330
6C
100
AcDbEntity
  8
Visible (ANSI)
100
AcDbCircle
 10
51.20354578163679
 20
21.60097279584995
 30
0.0
 40
0.15625
  0
LINE
  5
1BB
330
6C
100
AcDbEntity
  8
Visible (ANSI)
100
AcDbLine
 10
68.45855637942941
 20
20.33097279584994
 30
0.0
 11
67.79390637942942
 21
20.33097279584994
 31
0.0
  0
LINE
  5
1BC
330
6C
100
AcDbEntity
  8
Visible (ANSI)
100
AcDbLine
 10
68.45855637942941
 20
20.42472279584994
 30
0.0
 11
68.45855637942941
 21
20.33097279584994
 31
0.0
  0
LINE
  5
1BD
330
6C
100
AcDbEntity
  8
Visible (ANSI)
100
AcDbLine
 10
67.79390637942942
 20
20.42472279584994
 30
0.0
 11
68.45855637942941
 21
20.42472279584994
 31
0.0
  0
ARC
  5
1BE
330
6C
100
AcDbEntity
  8
Visible (ANSI)
100
AcDbCircle
 10
67.79390637942942
 20
20.44032279584994
 30
0.0
 40
0.0156
100
AcDbArc
 50
180.0
 51
270.0
  0
ARC
  5
1BF
330
6C
100
AcDbEntity
  8
Visible (ANSI)
100
AcDbCircle
 10
67.79390637942942
 20
20.44032279584994
 30
0.0
 40
0.1093499999999973
100
AcDbArc
 50
261.7981333522005
 51
270.0
  0
ARC
  5
1C0
330
6C
100
AcDbEntity
  8
Hidden (ANSI)
 48
0.0445022359490395
100
AcDbCircle
 10
67.79390637942942
 20
20.44032279584994
 30
0.0
 40
0.10935
100
AcDbArc
 50
180.0
 51
261.7981333522006
  0
LINE
  5
1C1
330
6C
100
AcDbEntity
  8
Hidden (ANSI)
 48
0.0266847964376211
100
AcDbLine
 10
67.68455637942941
 20
20.44052279584994
 30
0.0
 11
67.7783063794294
 21
20.44052279584994
 31
0.0
  0
LINE
  5
1C2
330
6C
100
AcDbEntity
  8
Visible (ANSI)
100
AcDbLine
 10
67.77830637942992
 20
60.03097279584995
 30
0.0
 11
67.77830637942978
 21
60.53097279584995
 31
0.0
  0
LINE
  5
1C3
330
6C
100
AcDbEntity
  8
Visible (ANSI)
100
AcDbLine
 10
67.68455637942977
 20
60.53097279584995
 30
0.0
 11
67.68455637942992
 21
60.03097279584995
 31
0.0
  0
LINE
  5
1C4
330
6C
100
AcDbEntity
  8
Visible (ANSI)
100
AcDbLine
 10
67.77830637942978
 20
60.53097279584995
 30
0.0
 11
67.68455637942977
 21
60.53097279584995
 31
0.0
  0
LINE
  5
1C5
330
6C
100
AcDbEntity
  8
Visible (ANSI)
100
AcDbLine
 10
67.68455637942992
 20
60.03097279584995
 30
0.0
 11
67.77830637942992
 21
60.03097279584995
 31
0.0
  0
LINE
  5
1C6
330
6C
100
AcDbEntity
  8
Visible (ANSI)
100
AcDbLine
 10
67.77830637942992
 20
58.81317279584994
 30
0.0
 11
67.77830637942992
 21
60.03097279584995
 31
0.0
  0
LINE
  5
1C7
330
6C
100
AcDbEntity
  8
Visible (ANSI)
100
AcDbLine
 10
67.77830637942992
 20
20.83097279584994
 30
0.0
 11
67.77830637942992
 21
22.04877279584995
 31
0.0
  0
LINE
  5
1C8
330
6C
100
AcDbEntity
  8
Visible (ANSI)
100
AcDbLine
 10
67.68455637942992
 20
22.04877279584995
 30
0.0
 11
67.68455637942992
 21
20.83097279584994
 31
0.0
  0
LINE
  5
1C9
330
6C
100
AcDbEntity
  8
Visible (ANSI)
100
AcDbLine
 10
67.68455637942992
 20
60.03097279584995
 30
0.0
 11
67.68455637942992
 21
58.81317279584994
 31
0.0
  0
LINE
  5
1CA
330
6C
100
AcDbEntity
  8
Visible (ANSI)
100
AcDbLine
 10
67.77830637942989
 20
58.81317279584994
 30
0.0
 11
67.77830637942989
 21
58.81297279584995
 31
0.0
  0
LINE
  5
1CB
330
6C
100
AcDbEntity
  8
Visible (ANSI)
100
AcDbLine
 10
67.77830637942989
 20
22.04897279584995
 30
0.0
 11
67.77830637942989
 21
22.04877279584995
 31
0.0
  0
LINE
  5
1CC
330
6C
100
AcDbEntity
  8
Visible (ANSI)
100
AcDbLine
 10
67.68455637942989
 20
22.04877279584995
 30
0.0
 11
67.68455637942989
 21
22.04897279584995
 31
0.0
  0
LINE
  5
1CD
330
6C
100
AcDbEntity
  8
Visible (ANSI)
100
AcDbLine
 10
67.68455637942989
 20
22.04897279584995
 30
0.0
 11
67.68455637942989
 21
58.81297279584995
 31
0.0
  0
LINE
  5
1CE
330
6C
100
AcDbEntity
  8
Visible (ANSI)
100
AcDbLine
 10
67.68455637942989
 20
58.81297279584995
 30
0.0
 11
67.68455637942989
 21
58.81317279584994
 31
0.0
  0
LINE
  5
1CF
330
6C
100
AcDbEntity
  8
Visible (ANSI)
100
AcDbLine
 10
67.79390637942994
 20
22.04897279584995
 30
0.0
 11
67.68455637942989
 21
22.04897279584995
 31
0.0
  0
LINE
  5
1D0
330
6C
100
AcDbEntity
  8
Visible (ANSI)
100
AcDbLine
 10
67.79390637942992
 20
58.81297279584995
 30
0.0
 11
67.68455637942989
 21
58.81297279584995
 31
0.0
  0
LINE
  5
1D1
330
6C
100
AcDbEntity
  8
Visible (ANSI)
100
AcDbLine
 10
67.68455637942992
 20
58.81317279584994
 30
0.0
 11
67.77830637942992
 21
58.81317279584994
 31
0.0
  0
LINE
  5
1D2
330
6C
100
AcDbEntity
  8
Visible (ANSI)
100
AcDbLine
 10
67.77830637942992
 20
22.04877279584995
 30
0.0
 11
67.68455637942992
 21
22.04877279584995
 31
0.0
  0
LINE
  5
1D3
330
6C
100
AcDbEntity
  8
Hidden (ANSI)
 48
1.067169785499572
100
AcDbLine
 10
67.77830637942989
 20
58.81297279584995
 30
0.0
 11
67.77830637942989
 21
22.04897279584995
 31
0.0
  0
LINE
  5
1D4
330
6C
100
AcDbEntity
  8
Visible (ANSI)
100
AcDbLine
 10
67.77830637942978
 20
20.33097279584994
 30
0.0
 11
67.77830637942992
 21
20.83097279584994
 31
0.0
  0
LINE
  5
1D5
330
6C
100
AcDbEntity
  8
Visible (ANSI)
100
AcDbLine
 10
67.68455637942992
 20
20.83097279584994
 30
0.0
 11
67.68455637942977
 21
20.33097279584994
 31
0.0
  0
LINE
  5
1D6
330
6C
100
AcDbEntity
  8
Visible (ANSI)
100
AcDbLine
 10
67.68455637942977
 20
20.33097279584994
 30
0.0
 11
67.77830637942978
 21
20.33097279584994
 31
0.0
  0
LINE
  5
1D7
330
6C
100
AcDbEntity
  8
Visible (ANSI)
100
AcDbLine
 10
67.77830637942992
 20
20.83097279584994
 30
0.0
 11
67.68455637942992
 21
20.83097279584994
 31
0.0
  0
LINE
  5
1D8
330
6C
100
AcDbEntity
  8
Visible (ANSI)
100
AcDbLine
 10
67.79390637943013
 20
60.53097279584994
 30
0.0
 11
68.45855637942941
 21
60.53097279584995
 31
0.0
  0
LINE
  5
1D9
330
6C
100
AcDbEntity
  8
Visible (ANSI)
100
AcDbLine
 10
68.45855637942941
 20
60.43722279584995
 30
0.0
 11
67.79390637943013
 21
60.43722279584994
 31
0.0
  0
LINE
  5
1DA
330
6C
100
AcDbEntity
  8
Visible (ANSI)
100
AcDbLine
 10
68.45855637942941
 20
60.53097279584995
 30
0.0
 11
68.45855637942941
 21
60.43722279584995
 31
0.0
  0
ARC
  5
1DB
330
6C
100
AcDbEntity
  8
Hidden (ANSI)
 48
0.0445022359490395
100
AcDbCircle
 10
67.79390637942942
 20
60.42162279584994
 30
0.0
 40
0.1093499999999962
100
AcDbArc
 50
98.20186664780001
 51
180.0
  0
LINE
  5
1DC
330
6C
100
AcDbEntity
  8
Hidden (ANSI)
 48
0.0266847964376211
100
AcDbLine
 10
67.68455637942941
 20
60.42142279584995
 30
0.0
 11
67.7783063794294
 21
60.42142279584995
 31
0.0
  0
ARC
  5
1DD
330
6C
100
AcDbEntity
  8
Visible (ANSI)
100
AcDbCircle
 10
67.79390637942943
 20
60.42162279584967
 30
0.0
 40
0.109350000000263
100
AcDbArc
 50
89.99999999963355
 51
98.20186664778949
  0
ARC
  5
1DE
330
6C
100
AcDbEntity
  8
Visible (ANSI)
100
AcDbCircle
 10
67.79390637942942
 20
60.42162279584992
 30
0.0
 40
0.0156000000000042
100
AcDbArc
 50
89.99999999739715
 51
180.0
  0
LINE
  5
1DF
330
6C
100
AcDbEntity
  8
Visible (ANSI)
100
AcDbLine
 10
67.79390637942992
 20
22.04897279584995
 30
0.0
 11
68.45855637942992
 21
22.04897279584995
 31
0.0
  0
LINE
  5
1E0
330
6C
100
AcDbEntity
  8
Visible (ANSI)
100
AcDbLine
 10
68.45855637942992
 20
58.81297279584995
 30
0.0
 11
68.45855637942992
 21
22.04897279584995
 31
0.0
  0
LINE
  5
1E1
330
6C
100
AcDbEntity
  8
Visible (ANSI)
100
AcDbLine
 10
68.45855637942992
 20
58.81297279584995
 30
0.0
 11
67.79390637942992
 21
58.81297279584995
 31
0.0
  0
LINE
  5
1E2
330
6C
100
AcDbEntity
  8
Hidden (ANSI)
 48
0.0266847964376211
100
AcDbLine
 10
67.68455637942976
 20
40.68097279584995
 30
0.0
 11
67.77830637942976
 21
40.68097279584995
 31
0.0
  0
LINE
  5
1E3
330
6C
100
AcDbEntity
  8
Hidden (ANSI)
 48
0.0266847964376211
100
AcDbLine
 10
67.68455637942976
 20
40.18097279584994
 30
0.0
 11
67.77830637942976
 21
40.18097279584994
 31
0.0
  0
LINE
  5
1E4
330
6C
100
AcDbEntity
  8
Hidden (ANSI)
 48
0.0266847964376211
100
AcDbLine
 10
67.68455637942976
 20
60.26097279584995
 30
0.0
 11
67.77830637942976
 21
60.26097279584995
 31
0.0
  0
LINE
  5
1E5
330
6C
100
AcDbEntity
  8
Hidden (ANSI)
 48
0.0266847964376211
100
AcDbLine
 10
67.68455637942976
 20
59.76097279584994
 30
0.0
 11
67.77830637942976
 21
59.76097279584994
 31
0.0
  0
LINE
  5
1E6
330
6C
100
AcDbEntity
  8
Hidden (ANSI)
 48
0.0266847964376211
100
AcDbLine
 10
67.68455637942976
 20
21.10097279584994
 30
0.0
 11
67.77830637942976
 21
21.10097279584994
 31
0.0
  0
LINE
  5
1E7
330
6C
100
AcDbEntity
  8
Hidden (ANSI)
 48
0.0266847964376211
100
AcDbLine
 10
67.68455637942976
 20
20.60097279584994
 30
0.0
 11
67.77830637942976
 21
20.60097279584994
 31
0.0
  0
LINE
  5
1E8
330
6C
100
AcDbEntity
  8
Hidden (ANSI)
 48
0.0266847964376211
100
AcDbLine
 10
67.68455637942976
 20
59.41722279584994
 30
0.0
 11
67.77830637942976
 21
59.41722279584994
 31
0.0
  0
LINE
  5
1E9
330
6C
100
AcDbEntity
  8
Hidden (ANSI)
 48
0.0266847964376211
100
AcDbLine
 10
67.68455637942976
 20
59.10472279584995
 30
0.0
 11
67.77830637942976
 21
59.10472279584995
 31
0.0
  0
LINE
  5
1EA
330
6C
100
AcDbEntity
  8
Hidden (ANSI)
 48
0.0266847964376211
100
AcDbLine
 10
67.68455637942976
 20
21.75722279584994
 30
0.0
 11
67.77830637942976
 21
21.75722279584994
 31
0.0
  0
LINE
  5
1EB
330
6C
100
AcDbEntity
  8
Hidden (ANSI)
 48
0.0266847964376211
100
AcDbLine
 10
67.68455637942976
 20
21.44472279584994
 30
0.0
 11
67.77830637942976
 21
21.44472279584994
 31
0.0
  0
ELLIPSE
  5
1EC
330
6C
100
AcDbEntity
  8
Visible (ANSI)
100
AcDbEllipse
 10
108.7718045209075
 20
47.45066483633118
 30
0.0
 11
-0.0831720352640673
 21
0.1444305726908641
 31
0.0
210
0.0
220
0.0
230
0.9999999999999998
 40
0.578093115915812
 41
0.2678448778126314
 42
2.873747775777286
  0
ELLIPSE
  5
1ED
330
6C
100
AcDbEntity
  8
Visible (ANSI)
100
AcDbEllipse
 10
108.7276103470833
 20
47.42521510421916
 30
0.0
 11
-0.0831720352640668
 21
0.1444305726908632
 31
0.0
210
0.0
220
0.0
230
0.9999999999999998
 40
0.5780931159158119
 41
0.0
 42
6.283185307179586
  0
ELLIPSE
  5
1EE
330
6C
100
AcDbEntity
  8
Visible (ANSI)
100
AcDbEllipse
 10
93.14003061147458
 20
56.45240474923234
 30
0.0
 11
-0.0831720352640669
 21
0.1444305726908635
 31
0.0
210
0.0
220
0.0
230
1.0
 40
0.5780931159158119
 41
0.2678448778126314
 42
2.873747775777286
  0
ELLIPSE
  5
1EF
330
6C
100
AcDbEntity
  8
Visible (ANSI)
100
AcDbEllipse
 10
93.09583643765044
 20
56.42695501712031
 30
0.0
 11
-0.0831720352640668
 21
0.1444305726908632
 31
0.0
210
0.0
220
0.0
230
0.9999999999999998
 40
0.5780931159158119
 41
0.0
 42
6.283185307179586
  0
ELLIPSE
  5
1F0
330
6C
100
AcDbEntity
  8
Visible (ANSI)
100
AcDbEllipse
 10
100.955917566191
 20
41.27981965650376
 30
0.0
 11
-0.0831720352640664
 21
0.1444305726908626
 31
0.0
210
0.0
220
0.0
230
0.9999999999999998
 40
0.5780931159158121
 41
0.2678448778126016
 42
2.873747775777252
  0
ELLIPSE
  5
1F1
330
6C
100
AcDbEntity
  8
Visible (ANSI)
100
AcDbEllipse
 10
100.9117233923668
 20
41.25436992439174
 30
0.0
 11
-0.0831720352640666
 21
0.144430572690863
 31
0.0
210
0.0
220
0.0
230
1.0
 40
0.5780931159158119
 41
0.0
 42
6.283185307179586
  0
ELLIPSE
  5
1F2
330
6C
100
AcDbEntity
  8
Visible (ANSI)
100
AcDbEllipse
 10
100.955917566191
 20
62.62324992905976
 30
0.0
 11
-0.0831720352640665
 21
0.1444305726908627
 31
0.0
210
0.0
220
0.0
230
1.0
 40
0.5780931159158119
 41
0.2678448778126316
 42
2.873747775777286
  0
ELLIPSE
  5
1F3
330
6C
100
AcDbEntity
  8
Visible (ANSI)
100
AcDbEllipse
 10
100.9117233923669
 20
62.59780019694774
 30
0.0
 11
-0.0831720352640666
 21
0.144430572690863
 31
0.0
210
0.0
220
0.0
230
1.0
 40
0.5780931159158119
 41
0.0
 42
6.283185307179586
  0
ELLIPSE
  5
1F4
330
6C
100
AcDbEntity
  8
Visible (ANSI)
100
AcDbEllipse
 10
93.71212713790667
 20
45.23589365375129
 30
0.0
 11
-0.0363794482244869
 21
-0.0631739324949927
 31
0.0
210
0.0
220
0.0
230
1.0
 40
0.5780931159156426
 41
5.495853435359147
 42
6.283185307179683
  0
ELLIPSE
  5
1F5
330
6C
100
AcDbEntity
  8
Visible (ANSI)
100
AcDbEllipse
 10
108.2144158155241
 20
36.884581027681
 30
0.0
 11
-0.0363794482244892
 21
-0.0631739324949968
 31
0.0
210
0.0
220
0.0
230
1.0
 40
0.5780931159156428
 41
5.495853435359045
 42
5.556343885665661
  0
LINE
  5
1F6
330
6C
100
AcDbEntity
  8
Visible Narrow (ANSI)
100
AcDbLine
 10
93.66057905355816
 20
45.20620908621583
 30
0.0
 11
108.1628677311756
 21
36.85489646014553
 31
0.0
  0
LINE
  5
1F7
330
6C
100
AcDbEntity
  8
Visible (ANSI)
100
AcDbLine
 10
108.1629620120797
 20
36.85495117366701
 30
0.0
 11
108.1629620120797
 21
36.79524298198267
 31
0.0
  0
LINE
  5
1F8
330
6C
100
AcDbEntity
  8
Visible (ANSI)
100
AcDbLine
 10
108.1628677311756
 20
36.85500546642884
 30
0.0
 11
108.1629620120797
 21
36.85495117366701
 31
0.0
  0
LINE
  5
1F9
330
6C
100
AcDbEntity
  8
Visible (ANSI)
100
AcDbLine
 10
93.66048477265401
 20
45.20637238526098
 30
0.0
 11
93.66057905355816
 21
45.20631809249914
 31
0.0
  0
LINE
  5
1FA
330
6C
100
AcDbEntity
  8
Visible (ANSI)
100
AcDbLine
 10
93.66048477265401
 20
45.14666419357665
 30
0.0
 11
93.66048477265401
 21
45.20637238526098
 31
0.0
  0
LINE
  5
1FB
330
6C
100
AcDbEntity
  8
Visible (ANSI)
100
AcDbLine
 10
93.69073930857979
 20
45.16408662209739
 30
0.0
 11
93.66048477265401
 21
45.14666419357665
 31
0.0
  0
LINE
  5
1FC
330
6C
100
AcDbEntity
  8
Visible (ANSI)
100
AcDbLine
 10
93.67574768968218
 20
45.17271972125629
 30
0.0
 11
108.1629620120797
 21
36.83008783902416
 31
0.0
  0
LINE
  5
1FD
330
6C
100
AcDbEntity
  8
Visible (ANSI)
100
AcDbLine
 10
93.66057905355816
 20
45.20631809249914
 30
0.0
 11
93.66057905355816
 21
45.20620908621583
 31
0.0
  0
LINE
  5
1FE
330
6C
100
AcDbEntity
  8
Visible (ANSI)
100
AcDbLine
 10
108.1628677311756
 20
36.85489646014553
 30
0.0
 11
108.1628677311756
 21
36.85500546642884
 31
0.0
  0
ELLIPSE
  5
1FF
330
6C
100
AcDbEntity
  8
Visible (ANSI)
100
AcDbEllipse
 10
108.7718045209075
 20
58.12237997260918
 30
0.0
 11
-0.0831720352640673
 21
0.1444305726908641
 31
0.0
210
0.0
220
0.0
230
0.9999999999999998
 40
0.578093115915812
 41
0.2678448778126314
 42
2.873747775777286
  0
ELLIPSE
  5
200
330
6C
100
AcDbEntity
  8
Visible (ANSI)
100
AcDbEllipse
 10
93.1400306114746
 20
67.12411988551034
 30
0.0
 11
-0.0831720352640667
 21
0.1444305726908631
 31
0.0
210
0.0
220
0.0
230
1.0
 40
0.578093115915812
 41
0.2678448778126318
 42
2.873747775777287
  0
ELLIPSE
  5
201
330
6C
100
AcDbEntity
  8
Visible (ANSI)
100
AcDbEllipse
 10
93.14003061147458
 20
45.78068961295433
 30
0.0
 11
-0.0831720352640666
 21
0.144430572690863
 31
0.0
210
0.0
220
0.0
230
1.0
 40
0.5780931159158121
 41
0.2678448778126313
 42
2.873747775777286
  0
ELLIPSE
  5
202
330
6C
100
AcDbEntity
  8
Visible (ANSI)
100
AcDbEllipse
 10
108.7718045209074
 20
36.77894970005319
 30
0.0
 11
-0.0831720352640672
 21
0.1444305726908639
 31
0.0
210
0.0
220
0.0
230
1.0
 40
0.5780931159158119
 41
0.2678448778125717
 42
2.873747775777252
  0
ELLIPSE
  5
203
330
6C
100
AcDbEntity
  8
Visible (ANSI)
100
AcDbEllipse
 10
108.7718045209075
 20
57.71360641018792
 30
0.0
 11
0.0519825220400472
 21
-0.0902691079317866
 31
0.0
210
0.0
220
0.0
230
1.0
 40
0.5780931159158119
 41
3.57883851325163
 42
5.845939447517054
  0
ELLIPSE
  5
204
330
6C
100
AcDbEntity
  8
Visible (ANSI)
100
AcDbEllipse
 10
93.1400306114746
 20
66.71534632308906
 30
0.0
 11
0.051982522040047
 21
-0.0902691079317862
 31
0.0
210
0.0
220
0.0
230
1.0
 40
0.578093115915812
 41
3.57883851325163
 42
5.845939447517054
  0
ELLIPSE
  5
205
330
6C
100
AcDbEntity
  8
Visible (ANSI)
100
AcDbEllipse
 10
93.14003061147458
 20
46.1894631753756
 30
0.0
 11
0.051982522040047
 21
-0.0902691079317863
 31
0.0
210
0.0
220
0.0
230
1.0
 40
0.578093115915812
 41
3.57883851325163
 42
5.845939447517054
  0
ELLIPSE
  5
206
330
6C
100
AcDbEntity
  8
Visible (ANSI)
100
AcDbEllipse
 10
108.7718045209074
 20
37.18772326247446
 30
0.0
 11
0.0519825220400474
 21
-0.0902691079317869
 31
0.0
210
0.0
220
0.0
230
1.0
 40
0.5780931159158119
 41
3.578838513251579
 42
5.845939447517054
  0
ELLIPSE
  5
207
330
6C
100
AcDbEntity
  8
Visible (ANSI)
100
AcDbEllipse
 10
108.7276103470833
 20
58.09693024049716
 30
0.0
 11
-0.0831720352640666
 21
0.144430572690863
 31
0.0
210
0.0
220
0.0
230
1.0
 40
0.5780931159158117
 41
0.0
 42
6.283185307179586
  0
ELLIPSE
  5
208
330
6C
100
AcDbEntity
  8
Visible (ANSI)
100
AcDbEllipse
 10
93.09583643765044
 20
67.0986701533983
 30
0.0
 11
-0.0831720352640666
 21
0.144430572690863
 31
0.0
210
0.0
220
0.0
230
1.0
 40
0.5780931159158117
 41
0.0
 42
6.283185307179586
  0
ELLIPSE
  5
209
330
6C
100
AcDbEntity
  8
Visible (ANSI)
100
AcDbEllipse
 10
93.09583643765042
 20
45.75523988084231
 30
0.0
 11
-0.0831720352640666
 21
0.144430572690863
 31
0.0
210
0.0
220
0.0
230
1.0
 40
0.5780931159158117
 41
0.0
 42
6.283185307179586
  0
ELLIPSE
  5
20A
330
6C
100
AcDbEntity
  8
Visible (ANSI)
100
AcDbEllipse
 10
108.7276103470833
 20
36.75349996794116
 30
0.0
 11
-0.0831720352640666
 21
0.144430572690863
 31
0.0
210
0.0
220
0.0
230
1.0
 40
0.5780931159158117
 41
0.0
 42
6.283185307179586
  0
ELLIPSE
  5
20B
330
6C
100
AcDbEntity
  8
Visible (ANSI)
100
AcDbEllipse
 10
108.7276103470833
 20
57.68815667807588
 30
0.0
 11
-0.0519825220400416
 21
0.0902691079317894
 31
0.0
210
0.0
220
0.0
230
1.0
 40
0.5780931159158119
 41
0.0
 42
6.283185307179586
  0
ELLIPSE
  5
20C
330
6C
100
AcDbEntity
  8
Visible (ANSI)
100
AcDbEllipse
 10
93.09583643765044
 20
66.68989659097704
 30
0.0
 11
-0.0519825220400416
 21
0.0902691079317894
 31
0.0
210
0.0
220
0.0
230
1.0
 40
0.5780931159158119
 41
0.0
 42
6.283185307179586
  0
ELLIPSE
  5
20D
330
6C
100
AcDbEntity
  8
Visible (ANSI)
100
AcDbEllipse
 10
93.09583643765042
 20
46.16401344326359
 30
0.0
 11
-0.0519825220400416
 21
0.0902691079317894
 31
0.0
210
0.0
220
0.0
230
1.0
 40
0.5780931159158119
 41
0.0
 42
6.283185307179586
  0
ELLIPSE
  5
20E
330
6C
100
AcDbEntity
  8
Visible (ANSI)
100
AcDbEllipse
 10
108.7276103470833
 20
37.16227353036244
 30
0.0
 11
-0.0519825220400416
 21
0.0902691079317894
 31
0.0
210
0.0
220
0.0
230
1.0
 40
0.5780931159158119
 41
0.0
 42
6.283185307179586
  0
LINE
  5
20F
330
6C
100
AcDbEntity
  8
Visible (ANSI)
100
AcDbLine
 10
93.70467894647816
 20
67.08237687146882
 30
0.0
 11
93.13060252105877
 21
67.41296549830632
 31
0.0
  0
LINE
  5
210
330
6C
100
AcDbEntity
  8
Visible (ANSI)
100
AcDbLine
 10
108.7812326113233
 20
58.40036703303738
 30
0.0
 11
108.2071561859039
 21
58.73095565987486
 31
0.0
  0
LINE
  5
211
330
6C
100
AcDbEntity
  8
Visible (ANSI)
100
AcDbLine
 10
109.0169348717188
 20
57.32838016107027
 30
0.0
 11
109.0169348717188
 21
57.99211942015911
 31
0.0
  0
LINE
  5
212
330
6C
100
AcDbEntity
  8
Visible (ANSI)
100
AcDbLine
 10
109.0169348717188
 20
36.62688789094064
 30
0.0
 11
109.0169348717188
 21
37.29062715002946
 31
0.0
  0
LINE
  5
213
330
6C
100
AcDbEntity
  8
Visible (ANSI)
100
AcDbLine
 10
93.66048477265401
 20
45.14666419357665
 30
0.0
 11
93.0864083472346
 21
45.47725282041413
 31
0.0
  0
LINE
  5
214
330
6C
100
AcDbEntity
  8
Visible (ANSI)
100
AcDbLine
 10
108.7370384374991
 20
36.46465435514519
 30
0.0
 11
108.1629620120797
 21
36.79524298198267
 31
0.0
  0
LINE
  5
215
330
6C
100
AcDbEntity
  8
Visible (ANSI)
100
AcDbLine
 10
108.9727406978947
 20
37.26517741791745
 30
0.0
 11
108.9727406978947
 21
36.60143815882861
 31
0.0
  0
LINE
  5
216
330
6C
100
AcDbEntity
  8
Visible (ANSI)
100
AcDbLine
 10
108.9727406978947
 20
57.96666968804708
 30
0.0
 11
108.9727406978947
 21
57.30293042895824
 31
0.0
  0
LINE
  5
217
330
6C
100
AcDbEntity
  8
Visible (ANSI)
100
AcDbLine
 10
108.1629620120797
 20
58.70550592776282
 30
0.0
 11
108.7370384374992
 21
58.37491730092535
 31
0.0
  0
LINE
  5
218
330
6C
100
AcDbEntity
  8
Visible (ANSI)
100
AcDbLine
 10
93.08640834723462
 20
67.3875157661943
 30
0.0
 11
93.66048477265401
 21
67.05692713935682
 31
0.0
  0
LINE
  5
219
330
6C
100
AcDbEntity
  8
Visible (ANSI)
100
AcDbLine
 10
92.85070608683907
 20
66.58699270342204
 30
0.0
 11
92.85070608683907
 21
67.25073196251087
 31
0.0
  0
LINE
  5
21A
330
6C
100
AcDbEntity
  8
Visible (ANSI)
100
AcDbLine
 10
92.85070608683906
 20
45.8855004332924
 30
0.0
 11
92.85070608683906
 21
46.54923969238123
 31
0.0
  0
LINE
  5
21B
330
6C
100
AcDbEntity
  8
Visible (ANSI)
100
AcDbLine
 10
93.70467894647816
 20
67.08237687146882
 30
0.0
 11
93.70467894647816
 21
67.08164286615676
 31
0.0
  0
LINE
  5
21C
330
6C
100
AcDbEntity
  8
Visible (ANSI)
100
AcDbLine
 10
108.1629620120797
 20
58.70550592776282
 30
0.0
 11
108.1629620120797
 21
58.6457977360785
 31
0.0
  0
LINE
  5
21D
330
6C
100
AcDbEntity
  8
Visible (ANSI)
100
AcDbLine
 10
108.1629620120797
 20
58.6457977360785
 30
0.0
 11
108.1628677311756
 21
58.64585202884035
 31
0.0
  0
LINE
  5
21E
330
6C
100
AcDbEntity
  8
Visible Narrow (ANSI)
100
AcDbLine
 10
108.1628677311756
 20
58.64596103512365
 30
0.0
 11
93.66057905355816
 21
66.99727366119394
 31
0.0
  0
LINE
  5
21F
330
6C
100
AcDbEntity
  8
Visible (ANSI)
100
AcDbLine
 10
93.66057905355816
 20
66.99716465491063
 30
0.0
 11
93.66048477265401
 21
66.99721894767247
 31
0.0
  0
LINE
  5
220
330
6C
100
AcDbEntity
  8
Visible (ANSI)
100
AcDbLine
 10
93.66048477265401
 20
66.99721894767247
 30
0.0
 11
93.66048477265401
 21
67.05692713935682
 31
0.0
  0
LINE
  5
221
330
6C
100
AcDbEntity
  8
Visible Narrow (ANSI)
100
AcDbLine
 10
108.2144158155244
 20
58.73524478806032
 30
0.0
 11
93.71212713790667
 21
67.08655741413043
 31
0.0
  0
ELLIPSE
  5
222
330
6C
100
AcDbEntity
  8
Visible (ANSI)
100
AcDbEllipse
 10
108.2144158155242
 20
58.67564560265916
 30
0.0
 11
0.0363794482245534
 21
0.0631739324950996
 31
0.0
210
0.0
220
0.0
230
1.0
 40
0.5780931159156426
 41
2.293770331463138
 42
2.35426078176925
  0
ELLIPSE
  5
223
330
6C
100
AcDbEntity
  8
Visible (ANSI)
100
AcDbEllipse
 10
108.2144158155241
 20
58.67564560265942
 30
0.0
 11
0.036379448224297
 21
0.0631739324946629
 31
0.0
210
0.0
220
0.0
230
1.0
 40
0.5780931159156425
 41
0.7834644549675361
 42
0.9175200251384589
  0
LINE
  5
224
330
6C
100
AcDbEntity
  8
Visible (ANSI)
100
AcDbLine
 10
108.1628677311756
 20
58.64585202884035
 30
0.0
 11
108.1629620120797
 21
58.64590632160218
 31
0.0
  0
ELLIPSE
  5
225
330
6C
100
AcDbEntity
  8
Visible (ANSI)
100
AcDbEllipse
 10
93.71212713790667
 20
67.02695822872941
 30
0.0
 11
0.0363794482244897
 21
0.063173932494992
 31
0.0
210
0.0
220
0.0
230
1.0
 40
0.5780931159156275
 41
0.7834644549742098
 42
2.354260781769152
  0
LINE
  5
226
330
6C
100
AcDbEntity
  8
Visible (ANSI)
100
AcDbLine
 10
93.66048477265401
 20
67.05692713935682
 30
0.0
 11
93.70467894647816
 21
67.08237687146882
 31
0.0
  0
LINE
  5
227
330
6C
100
AcDbEntity
  8
Visible (ANSI)
100
AcDbLine
 10
93.66048477265401
 20
66.99721894767247
 30
0.0
 11
93.66057905355816
 21
66.99727324043431
 31
0.0
  0
LINE
  5
228
330
6C
100
AcDbEntity
  8
Visible (ANSI)
100
AcDbLine
 10
108.2071561859039
 20
58.73095565987486
 30
0.0
 11
108.1629620120797
 21
58.70550592776282
 31
0.0
  0
LINE
  5
229
330
6C
100
AcDbEntity
  8
Visible (ANSI)
100
AcDbLine
 10
109.0169348717188
 20
57.99211942015911
 30
0.0
 11
108.7812326113233
 21
58.40036703303738
 31
0.0
  0
LINE
  5
22A
330
6C
100
AcDbEntity
  8
Visible (ANSI)
100
AcDbLine
 10
108.7370384374992
 20
58.37491730092535
 30
0.0
 11
108.9727406978947
 21
57.96666968804708
 31
0.0
  0
LINE
  5
22B
330
6C
100
AcDbEntity
  8
Visible (ANSI)
100
AcDbLine
 10
108.7812326113233
 20
58.40036703303738
 30
0.0
 11
108.7370384374992
 21
58.37491730092535
 31
0.0
  0
LINE
  5
22C
330
6C
100
AcDbEntity
  8
Visible (ANSI)
100
AcDbLine
 10
108.9727406978947
 20
57.96666968804708
 30
0.0
 11
109.0169348717188
 21
57.99211942015911
 31
0.0
  0
LINE
  5
22D
330
6C
100
AcDbEntity
  8
Visible (ANSI)
100
AcDbLine
 10
109.0162992387027
 20
37.29099318673934
 30
0.0
 11
109.0169348717188
 21
37.29062715002946
 31
0.0
  0
LINE
  5
22E
330
6C
100
AcDbEntity
  8
Visible (ANSI)
100
AcDbLine
 10
108.9727406978947
 20
37.26517741791745
 30
0.0
 11
108.921098332642
 21
37.29491627821474
 31
0.0
  0
LINE
  5
22F
330
6C
100
AcDbEntity
  8
Visible (ANSI)
100
AcDbLine
 10
108.921098332642
 20
37.29491627821474
 30
0.0
 11
108.921098332642
 21
37.29502528449805
 31
0.0
  0
LINE
  5
230
330
6C
100
AcDbEntity
  8
Visible Narrow (ANSI)
100
AcDbLine
 10
108.9211926135462
 20
37.29497099173621
 30
0.0
 11
108.9211926135462
 21
57.33250599021038
 31
0.0
  0
LINE
  5
231
330
6C
100
AcDbEntity
  8
Visible (ANSI)
100
AcDbLine
 10
108.921098332642
 20
57.33256028297223
 30
0.0
 11
108.921098332642
 21
57.33266928925554
 31
0.0
  0
LINE
  5
232
330
6C
100
AcDbEntity
  8
Visible (ANSI)
100
AcDbLine
 10
108.921098332642
 20
57.33266928925554
 30
0.0
 11
108.9727406978947
 21
57.30293042895824
 31
0.0
  0
LINE
  5
233
330
6C
100
AcDbEntity
  8
Visible Narrow (ANSI)
100
AcDbLine
 10
109.0242887822431
 20
37.29497099173622
 30
0.0
 11
109.0242887822432
 21
57.33250599021039
 31
0.0
  0
ELLIPSE
  5
234
330
6C
100
AcDbEntity
  8
Visible (ANSI)
100
AcDbEllipse
 10
108.9727406978947
 20
37.32465555927169
 30
0.0
 11
0.072900000000001
 21
0.0000000000000043
 31
0.0
210
0.0
220
0.0
230
1.0
 40
0.5758617009853071
 41
3.926990816987082
 42
5.49778714378211
  0
LINE
  5
235
330
6C
100
AcDbEntity
  8
Visible (ANSI)
100
AcDbLine
 10
108.921098332642
 20
57.33256028297223
 30
0.0
 11
108.9211929788766
 21
57.33261478611388
 31
0.0
  0
ELLIPSE
  5
236
330
6C
100
AcDbEntity
  8
Visible (ANSI)
100
AcDbEllipse
 10
108.9727406978946
 20
57.3621905577458
 30
0.0
 11
0.0728999999998838
 21
0.0000000000000043
 31
0.0
210
0.0
220
0.0
230
1.0
 40
0.575861700985307
 41
3.926990816987045
 42
3.987598387465313
  0
ELLIPSE
  5
237
330
6C
100
AcDbEntity
  8
Visible (ANSI)
100
AcDbEllipse
 10
108.9727406978949
 20
57.36219055774571
 30
0.0
 11
0.0728999999996606
 21
-0.0000000000000001
 31
0.0
210
0.0
220
0.0
230
1.0
 40
0.5758617009853071
 41
5.363700662382868
 42
5.497787143782625
  0
LINE
  5
238
330
6C
100
AcDbEntity
  8
Visible (ANSI)
100
AcDbLine
 10
108.9727406978947
 20
57.30293042895824
 30
0.0
 11
109.0169348717188
 21
57.32838016107027
 31
0.0
  0
LINE
  5
239
330
6C
100
AcDbEntity
  8
Visible (ANSI)
100
AcDbLine
 10
108.921098332642
 20
37.29491627821474
 30
0.0
 11
108.9211929788779
 21
37.29497078135715
 31
0.0
  0
LINE
  5
23A
330
6C
100
AcDbEntity
  8
Visible (ANSI)
100
AcDbLine
 10
109.0169348717188
 20
37.29062715002946
 30
0.0
 11
108.9727406978947
 21
37.26517741791745
 31
0.0
  0
LINE
  5
23B
330
6C
100
AcDbEntity
  8
Visible (ANSI)
100
AcDbLine
 10
108.7812326113233
 20
36.49010408725721
 30
0.0
 11
109.0169348717188
 21
36.62688789094064
 31
0.0
  0
LINE
  5
23C
330
6C
100
AcDbEntity
  8
Visible (ANSI)
100
AcDbLine
 10
108.9727406978947
 20
36.60143815882861
 30
0.0
 11
108.7370384374991
 21
36.46465435514519
 31
0.0
  0
LINE
  5
23D
330
6C
100
AcDbEntity
  8
Visible (ANSI)
100
AcDbLine
 10
108.7370384374991
 20
36.46465435514519
 30
0.0
 11
108.7812326113233
 21
36.49010408725721
 31
0.0
  0
LINE
  5
23E
330
6C
100
AcDbEntity
  8
Visible (ANSI)
100
AcDbLine
 10
109.0169348717188
 20
36.62688789094064
 30
0.0
 11
108.9727406978947
 21
36.60143815882861
 31
0.0
  0
LINE
  5
23F
330
6C
100
AcDbEntity
  8
Visible (ANSI)
100
AcDbLine
 10
108.921098332642
 20
37.29502528449805
 30
0.0
 11
108.9211926135462
 21
37.29497099173621
 31
0.0
  0
LINE
  5
240
330
6C
100
AcDbEntity
  8
Visible (ANSI)
100
AcDbLine
 10
108.9211926135462
 20
57.33250599021038
 30
0.0
 11
108.921098332642
 21
57.33256028297223
 31
0.0
  0
LINE
  5
241
330
6C
100
AcDbEntity
  8
Visible (ANSI)
100
AcDbLine
 10
109.0242887822431
 20
37.29497099173622
 30
0.0
 11
109.3376077969869
 21
37.47539941251763
 31
0.0
  0
LINE
  5
242
330
6C
100
AcDbEntity
  8
Visible (ANSI)
100
AcDbLine
 10
109.3376077969869
 20
57.5129344109918
 30
0.0
 11
109.3376077969869
 21
37.47539941251763
 31
0.0
  0
LINE
  5
243
330
6C
100
AcDbEntity
  8
Visible (ANSI)
100
AcDbLine
 10
109.3376077969869
 20
57.5129344109918
 30
0.0
 11
109.0242887822432
 21
57.33250599021039
 31
0.0
  0
LINE
  5
244
330
6C
100
AcDbEntity
  8
Visible (ANSI)
100
AcDbLine
 10
109.2934136231627
 20
57.53838414310382
 30
0.0
 11
109.3376077969869
 21
57.5129344109918
 31
0.0
  0
LINE
  5
245
330
6C
100
AcDbEntity
  8
Visible (ANSI)
100
AcDbLine
 10
109.0169348717188
 20
57.379170619011
 30
0.0
 11
109.2934136231627
 21
57.53838414310382
 31
0.0
  0
LINE
  5
246
330
6C
100
AcDbEntity
  8
Visible (ANSI)
100
AcDbLine
 10
108.1628677311756
 20
58.64585202884035
 30
0.0
 11
108.1628677311756
 21
58.64596103512365
 31
0.0
  0
LINE
  5
247
330
6C
100
AcDbEntity
  8
Visible (ANSI)
100
AcDbLine
 10
93.66057905355816
 20
66.99727366119394
 30
0.0
 11
93.66057905355816
 21
66.99716465491063
 31
0.0
  0
LINE
  5
248
330
6C
100
AcDbEntity
  8
Visible (ANSI)
100
AcDbLine
 10
108.2144158155244
 20
58.73524478806032
 30
0.0
 11
108.5277348302678
 21
58.91567320884155
 31
0.0
  0
LINE
  5
249
330
6C
100
AcDbEntity
  8
Visible (ANSI)
100
AcDbLine
 10
94.02544615265037
 20
67.26698583491184
 30
0.0
 11
108.5277348302678
 21
58.91567320884155
 31
0.0
  0
LINE
  5
24A
330
6C
100
AcDbEntity
  8
Visible (ANSI)
100
AcDbLine
 10
94.02544615265037
 20
67.26698583491184
 30
0.0
 11
93.71212713790667
 21
67.08655741413043
 31
0.0
  0
LINE
  5
24B
330
6C
100
AcDbEntity
  8
Visible (ANSI)
100
AcDbLine
 10
108.5277348302678
 20
58.86457651353889
 30
0.0
 11
108.2514273274746
 21
58.70546160498538
 31
0.0
  0
LINE
  5
24C
330
6C
100
AcDbEntity
  8
Visible (ANSI)
100
AcDbLine
 10
108.5277348302678
 20
58.91567320884155
 30
0.0
 11
108.5277348302678
 21
58.86457651353889
 31
0.0
  0
LINE
  5
24D
330
6C
100
AcDbEntity
  8
Visible (ANSI)
100
AcDbLine
 10
92.85070608683907
 20
67.25073196251087
 30
0.0
 11
93.08640834723462
 21
67.3875157661943
 31
0.0
  0
LINE
  5
24E
330
6C
100
AcDbEntity
  8
Visible (ANSI)
100
AcDbLine
 10
93.08640834723462
 20
67.3875157661943
 30
0.0
 11
93.13060252105877
 21
67.41296549830632
 31
0.0
  0
LINE
  5
24F
330
6C
100
AcDbEntity
  8
Visible (ANSI)
100
AcDbLine
 10
92.85070608683907
 20
66.58699270342204
 30
0.0
 11
92.90234845209171
 21
66.55725384312474
 31
0.0
  0
LINE
  5
250
330
6C
100
AcDbEntity
  8
Visible (ANSI)
100
AcDbLine
 10
92.90234845209171
 20
66.55725384312474
 30
0.0
 11
92.90234845209171
 21
66.55714483684143
 31
0.0
  0
LINE
  5
251
330
6C
100
AcDbEntity
  8
Visible Narrow (ANSI)
100
AcDbLine
 10
92.90225417118756
 20
66.55719912960328
 30
0.0
 11
92.90225417118756
 21
46.51966413112909
 31
0.0
  0
LINE
  5
252
330
6C
100
AcDbEntity
  8
Visible (ANSI)
100
AcDbLine
 10
92.90234845209171
 20
46.51960983836725
 30
0.0
 11
92.90234845209171
 21
46.51950083208393
 31
0.0
  0
LINE
  5
253
330
6C
100
AcDbEntity
  8
Visible (ANSI)
100
AcDbLine
 10
92.90234845209171
 20
46.51950083208393
 30
0.0
 11
92.85070608683906
 21
46.54923969238123
 31
0.0
  0
ELLIPSE
  5
254
330
6C
100
AcDbEntity
  8
Visible (ANSI)
100
AcDbEllipse
 10
92.95380225553609
 20
66.58688369713873
 30
0.0
 11
-0.0729000000000127
 21
0.0000000000000001
 31
0.0
210
0.0
220
0.0
230
1.0
 40
0.575861700985307
 41
0.7247905929201952
 42
0.7853981633974616
  0
ELLIPSE
  5
255
330
6C
100
AcDbEntity
  8
Visible (ANSI)
100
AcDbEllipse
 10
92.95380225553605
 20
46.54934869866456
 30
0.0
 11
-0.0729
 21
-0.0000000000000031
 31
0.0
210
0.0
220
0.0
230
1.0
 40
0.5758617009853263
 41
0.0
 42
0.7853981633972387
  0
LINE
  5
256
330
6C
100
AcDbEntity
  8
Visible (ANSI)
100
AcDbLine
 10
92.85070608683906
 20
46.54923969238123
 30
0.0
 11
92.88090225553606
 21
46.56662850945033
 31
0.0
  0
LINE
  5
257
330
6C
100
AcDbEntity
  8
Visible (ANSI)
100
AcDbLine
 10
92.88090225553608
 20
66.56960388635295
 30
0.0
 11
92.88090225553606
 21
46.54934869866456
 31
0.0
  0
LINE
  5
258
330
6C
100
AcDbEntity
  8
Visible (ANSI)
100
AcDbLine
 10
92.90234845209171
 20
66.55714483684143
 30
0.0
 11
92.90225417118756
 21
66.55719912960328
 31
0.0
  0
LINE
  5
259
330
6C
100
AcDbEntity
  8
Visible (ANSI)
100
AcDbLine
 10
92.90225417118756
 20
46.51966413112909
 30
0.0
 11
92.90234845209171
 21
46.51960983836725
 31
0.0
  0
LINE
  5
25A
330
6C
100
AcDbEntity
  8
Visible (ANSI)
100
AcDbLine
 10
93.0740470178611
 20
66.71549718557675
 30
0.0
 11
93.12882534528442
 21
66.74704192638387
 31
0.0
  0
LINE
  5
25B
330
6C
100
AcDbEntity
  8
Visible (ANSI)
100
AcDbLine
 10
93.15324023240528
 20
66.71020206058662
 30
0.0
 11
93.09365538769812
 21
66.6758894305606
 31
0.0
  0
LINE
  5
25C
330
6C
100
AcDbEntity
  8
Visible (ANSI)
100
AcDbLine
 10
93.0864083472346
 20
45.47725282041413
 30
0.0
 11
92.85070608683906
 21
45.8855004332924
 31
0.0
  0
DIMENSION
  5
25D
330
6C
100
AcDbEntity
  8
Dimension (ANSI)
100
AcDbDimension
  2
*D4
 10
6.999923734392714
 20
60.53097279584996
 30
0.0
 11
6.999923734392703
 21
40.43097279584994
 31
0.0
 70
   160
  1
<>
 42
40.20000000000002
  3
Default (ANSI)
100
AcDbAlignedDimension
 13
18.0235457816368
 23
20.33097279584994
 33
0.0
 14
18.02354578163679
 24
60.53097279584996
 34
0.0
 50
90.0
100
AcDbRotatedDimension
1001
ACAD
1000
DSTYLE
1002
{
1070
   289
1070
     1
1070
   271
1070
     2
1070
   272
1070
     2
1070
    48
1040
0.0
1070
    47
1040
0.0
1002
}
  0
DIMENSION
  5
34A
330
6C
100
AcDbEntity
  8
Dimension (ANSI)
100
AcDbDimension
  2
*D5
 10
51.72354578163679
 20
68.6923901186846
 30
0.0
 11
34.62354578163678
 21
68.6923901186846
 31
0.0
 70
   160
  1
<>
 42
34.2
  3
Default (ANSI)
100
AcDbAlignedDimension
 13
17.52354578163679
 23
60.03097279584995
 33
0.0
 14
51.72354578163679
 24
60.03097279584995
 34
0.0
100
AcDbRotatedDimension
1001
ACAD
1000
DSTYLE
1002
{
1070
   289
1070
     1
1070
    73
1070
     0
1070
    74
1070
     0
1070
   271
1070
     2
1070
   272
1070
     2
1070
    48
1040
0.0
1070
    47
1040
0.0
1002
}
  0
DIMENSION
  5
434
330
6C
100
AcDbEntity
  8
Dimension (ANSI)
100
AcDbDimension
  2
*D6
 10
16.90501591981677
 20
21.60097279584995
 30
0.0
 11
15.02235300686476
 21
18.94008614188452
 31
0.0
 70
   160
  1
<>
 42
0.7500000000000036
  3
Default (ANSI)
100
AcDbAlignedDimension
 13
18.0435457816368
 23
20.85097279584994
 33
0.0
 14
18.0435457816368
 24
21.60097279584995
 34
0.0
 50
90.0
100
AcDbRotatedDimension
1001
ACAD
1000
DSTYLE
1002
{
1070
   289
1070
     1
1070
   271
1070
     2
1070
   272
1070
     2
1070
    48
1040
0.0
1070
    47
1040
0.0
1002
}
  0
DIMENSION
  5
534
330
6C
100
AcDbEntity
  8
Dimension (ANSI)
100
AcDbDimension
  2
*D7
 10
57.02778339215742
 20
60.01097279584995
 30
0.0
 11
55.14055365565255
 21
58.0995999181681
 31
0.0
 70
   160
  1
<>
 42
0.5200000000000032
  3
Default (ANSI)
100
AcDbAlignedDimension
 13
51.2235457816368
 23
60.53097279584996
 33
0.0
 14
51.20354578163679
 24
60.01097279584995
 34
0.0
 50
270.0
100
AcDbRotatedDimension
1001
ACAD
1000
DSTYLE
1002
{
1070
   289
1070
     1
1070
   271
1070
     2
1070
   272
1070
     2
1070
    48
1040
0.0
1070
    47
1040
0.0
1002
}
  0
DIMENSION
  5
634
330
6C
100
AcDbEntity
  8
Dimension (ANSI)
100
AcDbDimension
  2
*D8
 10
51.20354578163679
 20
63.9479806698657
 30
0.0
 11
54.61028326032354
 21
63.9479806698657
 31
0.0
 70
   160
  1
<>
 42
0.5199999999999961
  3
Default (ANSI)
100
AcDbAlignedDimension
 13
51.72354578163679
 23
60.03097279584995
 33
0.0
 14
51.20354578163679
 24
60.01097279584995
 34
0.0
 50
180.0
100
AcDbRotatedDimension
1001
ACAD
1000
DSTYLE
1002
{
1070
   289
1070
     1
1070
    73
1070
     0
1070
    74
1070
     0
1070
   271
1070
     2
1070
   272
1070
     2
1070
    48
1040
0.0
1070
    47
1040
0.0
1002
}
  0
DIMENSION
  5
71E
330
6C
100
AcDbEntity
  8
Dimension (ANSI)
100
AcDbDimension
  2
*D9
 10
13.42717565732138
 20
40.43097279584995
 30
0.0
 11
13.42717565732138
 21
32.14097279584994
 31
0.0
 70
   160
  1
<>
 42
19.58
  3
Default (ANSI)
100
AcDbAlignedDimension
 13
18.0435457816368
 23
20.85097279584994
 33
0.0
 14
18.0435457816368
 24
40.43097279584994
 34
0.0
 50
90.0
100
AcDbRotatedDimension
1001
ACAD
1000
DSTYLE
1002
{
1070
   289
1070
     1
1070
   271
1070
     3
1070
   272
1070
     3
1070
    48
1040
0.0
1070
    47
1040
0.0
1002
}
  0
DIMENSION
  5
808
330
6C
100
AcDbEntity
  8
Dimension (ANSI)
100
AcDbDimension
  2
*D10
 10
10.51730149148117
 20
60.01097279584996
 30
0.0
 11
10.51730149148117
 21
47.93583235937282
 31
0.0
 70
   160
  1
<>
 42
39.16000000000001
  3
Default (ANSI)
100
AcDbAlignedDimension
 13
18.0435457816368
 23
20.85097279584994
 33
0.0
 14
18.0435457816368
 24
60.01097279584995
 34
0.0
 50
90.0
100
AcDbRotatedDimension
1001
ACAD
1000
DSTYLE
1002
{
1070
   289
1070
     1
1070
   271
1070
     3
1070
   272
1070
     3
1070
    48
1040
0.0
1070
    47
1040
0.0
1002
}
  0
DIMENSION
  5
8F2
330
6C
100
AcDbEntity
  8
Dimension (ANSI)
100
AcDbDimension
  2
*D11
 10
68.45855637942992
 20
63.53738224466885
 30
0.0
 11
64.79781890074303
 21
63.53738224466885
 31
0.0
 70
   160
  1
<>
 42
0.7740000000001431
  3
Default (ANSI)
100
AcDbAlignedDimension
 13
67.68455637942977
 23
60.53097279584995
 33
0.0
 14
68.45855637942992
 24
58.81297279584995
 34
0.0
 50
180.0
100
AcDbRotatedDimension
1001
ACAD
1000
DSTYLE
1002
{
1070
   289
1070
     1
1070
    73
1070
     0
1070
    74
1070
     0
1070
   271
1070
     2
1070
   272
1070
     2
1070
    48
1040
0.0
1070
    47
1040
0.0
1002
}
  0
MTEXT
  5
9DC
102
{ACAD_REACTORS
330
9DD
102
}
330
6C
100
AcDbEntity
  8
Symbol (ANSI)
100
AcDbMText
 10
73.02615583427478
 20
46.58557012299312
 30
0.0
 40
0.8000000098871746
 41
3.271961149581148
 71
     1
 72
     1
  1
{12 GA.}
  7
Note Text (ANSI)
 73
     1
 44
1.0
1001
ACAD
1000
MTEXTBEGIN
1070
    73
1070
     1
1070
    44
1040
1.0
1070
    74
1070
     0
1000
MTEXTEND
  0
LEADER
  5
9DD
330
6C
100
AcDbEntity
  8
Symbol (ANSI)
100
AcDbLeader
  3
Default (ANSI)$7
 73
     0
 74
     0
 75
     1
 40
0.8322364105542201
 41
3.048488956413585
 76
     3
 10
68.45855637942992
 20
40.43097279584994
 30
0.0
 10
72.16001411685336
 20
46.18557011804954
 30
0.0
 10
72.81618208099394
 20
46.18557011804954
 30
0.0
340
9DC
213
0.0
223
-0.4000000049435874
233
0.0
1001
ACAD
1000
DSTYLE
1002
{
1070
    77
1070
     0
1002
}
  0
DIMENSION
  5
9DE
330
6C
100
AcDbEntity
  8
Dimension (ANSI)
100
AcDbDimension
  2
*D12
 10
54.31769080954627
 20
20.83097279584995
 30
0.0
 11
56.20680100280819
 21
22.74185944981537
 31
0.0
 70
   160
  1
<>
 42
0.5
  3
Default (ANSI)
100
AcDbAlignedDimension
 13
51.2235457816368
 23
20.33097279584994
 33
0.0
 14
51.72354578163679
 24
20.83097279584995
 34
0.0
 50
90.0
100
AcDbRotatedDimension
1001
ACAD
1000
DSTYLE
1002
{
1070
   289
1070
     1
1070
   271
1070
     2
1070
   272
1070
     2
1070
    48
1040
0.0
1070
    47
1040
0.0
1002
}
  0
DIMENSION
  5
ADE
330
6C
100
AcDbEntity
  8
Dimension (ANSI)
100
AcDbDimension
  2
*D13
 10
51.2235457816368
 20
16.3939649218342
 30
0.0
 11
48.33680830295005
 21
16.3939649218342
 31
0.0
 70
   160
  1
<>
 42
0.5
  3
Default (ANSI)
100
AcDbAlignedDimension
 13
51.72354578163679
 23
20.83097279584995
 33
0.0
 14
51.2235457816368
 24
20.33097279584994
 34
0.0
 50
180.0
100
AcDbRotatedDimension
1001
ACAD
1000
DSTYLE
1002
{
1070
   289
1070
     1
1070
    73
1070
     0
1070
    74
1070
     0
1070
   271
1070
     2
1070
   272
1070
     2
1070
    48
1040
0.0
1070
    47
1040
0.0
1002
}
  0
DIMENSION
  5
BC8
330
6C
100
AcDbEntity
  8
Dimension (ANSI)
100
AcDbDimension
  2
*D14
 10
18.16854578163683
 20
59.79446644490384
 30
0.0
 11
10.25324719608314
 21
67.31936726452253
 31
0.0
 70
   163
  1
<>{\PTYP.(8PL.)}
 71
     3
 42
0.5
  3
Default (ANSI)
100
AcDbDiametricDimension
 15
17.91854578163673
 25
60.22747914679602
 35
0.0
 40
0.0
1001
ACAD_DSTYLE_DIMRADIAL_EXTENSION
1070
   387
1070
     1
1070
   388
1040
0.0
1070
   390
1040
0.0
1001
ACAD
1000
DSTYLE
1002
{
1070
   145
1040
-0.25
1070
   144
1040
1.0
1070
   271
1070
     2
1070
   272
1070
     2
1070
    48
1040
0.0
1070
    47
1040
0.0
1002
}
  0
DIMENSION
  5
C82
330
6C
100
AcDbEntity
  8
Dimension (ANSI)
100
AcDbDimension
  2
*D15
 10
17.98407313860483
 20
21.74546178238799
 30
0.0
 11
23.48519499198717
 21
17.47311272737822
 31
0.0
 70
   163
  1
<>{\PTYP. (4PL.)}
 42
0.3125
  3
Default (ANSI)
100
AcDbDiametricDimension
 15
18.10301842466874
 25
21.4564838093119
 35
0.0
 40
0.0
1001
ACAD_DSTYLE_DIMRADIAL_EXTENSION
1070
   387
1070
     1
1070
   388
1040
0.0
1070
   390
1040
0.0
1001
ACAD
1000
DSTYLE
1002
{
1070
   145
1040
-0.25
1070
   144
1040
1.000000000000051
1070
   271
1070
     2
1070
   272
1070
     2
1070
    48
1040
0.0
1070
    47
1040
0.0
1002
}
  0
DIMENSION
  5
D3B
330
6C
100
AcDbEntity
  8
Dimension (ANSI)
100
AcDbDimension
  2
*D16
 10
34.62354578163679
 20
63.9479806698657
 30
0.0
 11
42.91354578163677
 21
63.9479806698657
 31
0.0
 70
   160
  1
<>
 42
16.58
  3
Default (ANSI)
100
AcDbAlignedDimension
 13
51.20354578163679
 23
60.01097279584995
 33
0.0
 14
34.62354578163679
 24
60.01097279584995
 34
0.0
 50
180.0
100
AcDbRotatedDimension
1001
ACAD
1000
DSTYLE
1002
{
1070
   289
1070
     1
1070
    73
1070
     0
1070
    74
1070
     0
1070
   271
1070
     3
1070
   272
1070
     3
1070
    48
1040
0.0
1070
    47
1040
0.0
1002
}
  0
DIMENSION
  5
E25
330
6C
100
AcDbEntity
  8
Dimension (ANSI)
100
AcDbDimension
  2
*D17
 10
18.0435457816368
 20
66.31018539427514
 30
0.0
 11
34.62354578163679
 21
66.31018539427514
 31
0.0
 70
   160
  1
<>
 42
33.16
  3
Default (ANSI)
100
AcDbAlignedDimension
 13
51.20354578163679
 23
60.01097279584995
 33
0.0
 14
18.0435457816368
 24
60.01097279584995
 34
0.0
 50
180.0
100
AcDbRotatedDimension
1001
ACAD
1000
DSTYLE
1002
{
1070
   289
1070
     1
1070
    73
1070
     0
1070
    74
1070
     0
1070
   271
1070
     3
1070
   272
1070
     3
1070
    48
1040
0.0
1070
    47
1040
0.0
1002
}
  0
ENDSEC
  0
SECTION
  2
OBJECTS
  0
DICTIONARY
  5
C
330
0
100
AcDbDictionary
281
     1
  3
ACAD_CIP_PREVIOUS_PRODUCT_INFO
350
F0F
  3
ACAD_COLOR
350
63
  3
ACAD_GROUP
350
D
  3
ACAD_LAYOUT
350
62
  3
ACAD_MATERIAL
350
10
  3
ACAD_MLEADERSTYLE
350
66
  3
ACAD_MLINESTYLE
350
5F
  3
ACAD_PLOTSETTINGS
350
61
  3
ACAD_PLOTSTYLENAME
350
E
  3
ACAD_SCALELIST
350
42
  3
ACAD_TABLESTYLE
350
64
  3
ACAD_VISUALSTYLE
350
29
  3
ACDB_RECOMPOSE_DATA
350
F1E
  3
AcDbVariableDictionary
350
D8
  3
DWGPROPS
350
F1F
  0
DICTIONARY
  5
F5B
330
C7C
100
AcDbDictionary
280
     1
281
     1
  3
ACAD_MTEXT_RT
360
F5C
  0
DICTIONARY
  5
F5D
330
D35
100
AcDbDictionary
280
     1
281
     1
  3
ACAD_MTEXT_RT
360
F5E
  0
XRECORD
  5
F0F
102
{ACAD_REACTORS
330
C
102
}
330
C
100
AcDbXrecord
280
     1
300
INVNTOR
300
2012
300
85795PDSP_2012_0F
  0
DICTIONARY
  5
63
102
{ACAD_REACTORS
330
C
102
}
330
C
100
AcDbDictionary
281
     1
  0
DICTIONARY
  5
D
102
{ACAD_REACTORS
330
C
102
}
330
C
100
AcDbDictionary
281
     1
  0
DICTIONARY
  5
62
102
{ACAD_REACTORS
330
C
102
}
330
C
100
AcDbDictionary
281
     1
  3
Layout1
350
6B
  3
Layout2
350
73
  3
Model
350
6F
  0
DICTIONARY
  5
10
102
{ACAD_REACTORS
330
C
102
}
330
C
100
AcDbDictionary
281
     1
  3
ByBlock
350
19
  3
ByLayer
350
11
  3
Global
350
21
  0
DICTIONARY
  5
66
102
{ACAD_REACTORS
330
C
102
}
330
C
100
AcDbDictionary
281
     1
  3
Standard
350
67
  0
DICTIONARY
  5
5F
102
{ACAD_REACTORS
330
C
102
}
330
C
100
AcDbDictionary
281
     1
  3
Standard
350
60
  0
DICTIONARY
  5
61
102
{ACAD_REACTORS
330
C
102
}
330
C
100
AcDbDictionary
281
     1
  0
ACDBDICTIONARYWDFLT
  5
E
102
{ACAD_REACTORS
330
C
102
}
330
C
100
AcDbDictionary
281
     1
  3
Normal
350
F
100
AcDbDictionaryWithDefault
340
F
  0
DICTIONARY
  5
42
102
{ACAD_REACTORS
330
C
102
}
330
C
100
AcDbDictionary
281
     1
  3
A0
350
43
  3
A1
350
44
  3
A2
350
45
  3
A3
350
46
  3
A4
350
47
  3
A5
350
48
  3
A6
350
49
  3
A7
350
4A
  3
A8
350
4B
  3
A9
350
4C
  3
B0
350
4D
  3
B1
350
4E
  3
B2
350
4F
  3
B3
350
50
  3
B4
350
51
  3
B5
350
52
  3
B6
350
53
  0
DICTIONARY
  5
64
102
{ACAD_REACTORS
330
C
102
}
330
C
100
AcDbDictionary
281
     1
  3
Standard
350
65
  0
DICTIONARY
  5
29
102
{ACAD_REACTORS
330
C
102
}
330
C
100
AcDbDictionary
281
     1
  3
2dWireframe
350
2F
  3
Basic
350
2E
  3
Brighten
350
35
  3
ColorChange
350
39
  3
Conceptual
350
32
  3
Dim
350
34
  3
EdgeColorOff
350
41
  3
Facepattern
350
38
  3
Flat
350
2A
  3
FlatWithEdges
350
2B
  3
Gouraud
350
2C
  3
GouraudWithEdges
350
2D
  3
Hidden
350
31
  3
JitterOff
350
3F
  3
Linepattern
350
37
  3
OverhangOff
350
40
  3
Realistic
350
33
  3
Shaded
350
3E
  3
Shaded with edges
350
3D
  3
Shades of Gray
350
3A
  3
Sketchy
350
3B
  3
Thicken
350
36
  3
Wireframe
350
30
  3
X-Ray
350
3C
  0
XRECORD
  5
F1E
102
{ACAD_REACTORS
330
C
102
}
330
C
100
AcDbXrecord
280
     1
 90
        1
330
65
  0
DICTIONARY
  5
D8
102
{ACAD_REACTORS
330
C
102
}
330
C
100
AcDbDictionary
281
     1
  3
CANNOSCALE
350
DB
  3
CMLEADERSTYLE
350
DA
  3
CTABLESTYLE
350
D9
  3
DIMASSOC
350
F17
  3
HIDETEXT
350
F16
  3
INDEXCTL
350
F15
  3
LAYEREVAL
350
F12
  3
LAYERNOTIFY
350
F13
  3
LIGHTINGUNITS
350
F11
  3
MSLTSCALE
350
F10
  3
SORTENTS
350
F14
  3
XCLIPFRAME
350
F18
  0
XRECORD
  5
F1F
102
{ACAD_REACTORS
330
C
102
}
330
C
100
AcDbXrecord
280
     1
  1
DWGPROPS COOKIE
  2

  3

  4
EC
  6

  7

  8

  9
-
300
Manager=
301
Company=
302
Category=
303
Part Number=NP4236C
304
Description=NPC PANEL MASTER VIEW
305
Project=
306
Designer=EC
307
Engineer=
308
Authority=
309
Cost Center=
 40
0.0000385185185185
 41
2455944.541606482
 42
2455944.541606482
  1

 90
       20
300
Vendor=
300
User Status=
300
Design Status=WorkInProgress
300
Checked by=JG
300
Date Checked=02/19/2009
300
Engr Approved by=
300
Mfg Approved by=
300
DWG. NO=
300
NUMBER OF SHEETS=1
300
DRAWING #=1
  0
XRECORD
  5
F5C
102
{ACAD_REACTORS
330
F5B
102
}
330
F5B
100
AcDbXrecord
280
     1
 40
29720.0
  1
\A1;\U+22050.50{\PTYP.(8PL.)}
  0
XRECORD
  5
F5E
102
{ACAD_REACTORS
330
F5D
102
}
330
F5D
100
AcDbXrecord
280
     1
 40
30807.0
  1
\A1;\U+22050.31{\PTYP. (4PL.)}
  0
LAYOUT
  5
6B
102
{ACAD_XDICTIONARY
360
F55
102
}
102
{ACAD_REACTORS
330
62
102
}
330
62
100
AcDbPlotSettings
  1

  2

  4

  6

 40
0.0
 41
0.0
 42
0.0
 43
0.0
 44
0.0
 45
0.0
 46
0.0
 47
0.0
 48
0.0
 49
0.0
140
0.0
141
0.0
142
1.0
143
1.0
 70
   688
 72
     0
 73
     0
 74
     5
  7

 75
    16
147
1.0
148
0.0
149
0.0
100
AcDbLayout
  1
Layout1
 70
     1
 71
     1
 10
0.0
 20
0.0
 11
12.0
 21
9.0
 12
0.0
 22
0.0
 32
0.0
 14
0.0
 24
0.0
 34
0.0
 15
0.0
 25
0.0
 35
0.0
146
0.0
 13
0.0
 23
0.0
 33
0.0
 16
1.0
 26
0.0
 36
0.0
 17
0.0
 27
1.0
 37
0.0
 76
     0
330
68
  0
LAYOUT
  5
73
102
{ACAD_XDICTIONARY
360
F59
102
}
102
{ACAD_REACTORS
330
62
102
}
330
62
100
AcDbPlotSettings
  1

  2

  4

  6

 40
0.0
 41
0.0
 42
0.0
 43
0.0
 44
0.0
 45
0.0
 46
0.0
 47
0.0
 48
0.0
 49
0.0
140
0.0
141
0.0
142
1.0
143
1.0
 70
   688
 72
     0
 73
     0
 74
     5
  7

 75
    16
147
1.0
148
0.0
149
0.0
100
AcDbLayout
  1
Layout2
 70
     1
 71
     2
 10
0.0
 20
0.0
 11
12.0
 21
9.0
 12
0.0
 22
0.0
 32
0.0
 14
0.0
 24
0.0
 34
0.0
 15
0.0
 25
0.0
 35
0.0
146
0.0
 13
0.0
 23
0.0
 33
0.0
 16
1.0
 26
0.0
 36
0.0
 17
0.0
 27
1.0
 37
0.0
 76
     0
330
70
  0
LAYOUT
  5
6F
102
{ACAD_XDICTIONARY
360
F57
102
}
102
{ACAD_REACTORS
330
62
102
}
330
62
100
AcDbPlotSettings
  1

  2

  4

  6

 40
0.0
 41
0.0
 42
0.0
 43
0.0
 44
0.0
 45
0.0
 46
0.0
 47
0.0
 48
0.0
 49
0.0
140
0.0
141
0.0
142
1.0
143
1.0
 70
  1712
 72
     0
 73
     0
 74
     0
  7

 75
     0
147
1.0
148
0.0
149
0.0
100
AcDbLayout
  1
Model
 70
     1
 71
     0
 10
0.0
 20
0.0
 11
12.0
 21
9.0
 12
0.0
 22
0.0
 32
0.0
 14
0.0
 24
0.0
 34
0.0
 15
0.0
 25
0.0
 35
0.0
146
0.0
 13
0.0
 23
0.0
 33
0.0
 16
1.0
 26
0.0
 36
0.0
 17
0.0
 27
1.0
 37
0.0
 76
     0
330
6C
  0
MATERIAL
  5
19
102
{ACAD_XDICTIONARY
360
1A
102
}
102
{ACAD_REACTORS
330
10
102
}
330
10
100
AcDbMaterial
  1
ByBlock
 72
     0
 43
0.0208333333333333
 43
0.0
 43
0.0
 43
0.0
 43
0.0
 43
0.0208333333333333
 43
0.0
 43
0.0
 43
0.0
 43
0.0
 43
1.0
 43
0.0
 43
0.0
 43
0.0
 43
0.0
 43
1.0
 77
     0
 47
0.0208333333333333
 47
0.0
 47
0.0
 47
0.0
 47
0.0
 47
0.0208333333333333
 47
0.0
 47
0.0
 47
0.0
 47
0.0
 47
1.0
 47
0.0
 47
0.0
 47
0.0
 47
0.0
 47
1.0
171
     0
 49
0.0208333333333333
 49
0.0
 49
0.0
 49
0.0
 49
0.0
 49
0.0208333333333333
 49
0.0
 49
0.0
 49
0.0
 49
0.0
 49
1.0
 49
0.0
 49
0.0
 49
0.0
 49
0.0
 49
1.0
175
     0
142
0.0208333333333333
142
0.0
142
0.0
142
0.0
142
0.0
142
0.0208333333333333
142
0.0
142
0.0
142
0.0
142
0.0
142
1.0
142
0.0
142
0.0
142
0.0
142
0.0
142
1.0
179
     0
144
0.0208333333333333
144
0.0
144
0.0
144
0.0
144
0.0
144
0.0208333333333333
144
0.0
144
0.0
144
0.0
144
0.0
144
1.0
144
0.0
144
0.0
144
0.0
144
0.0
144
1.0
147
0.0208333333333333
147
0.0
147
0.0
147
0.0
147
0.0
147
0.0208333333333333
147
0.0
147
0.0
147
0.0
147
0.0
147
1.0
147
0.0
147
0.0
147
0.0
147
0.0
147
1.0
  0
MATERIAL
  5
11
102
{ACAD_XDICTIONARY
360
12
102
}
102
{ACAD_REACTORS
330
10
102
}
330
10
100
AcDbMaterial
  1
ByLayer
 72
     0
 43
0.0208333333333333
 43
0.0
 43
0.0
 43
0.0
 43
0.0
 43
0.0208333333333333
 43
0.0
 43
0.0
 43
0.0
 43
0.0
 43
1.0
 43
0.0
 43
0.0
 43
0.0
 43
0.0
 43
1.0
 77
     0
 47
0.0208333333333333
 47
0.0
 47
0.0
 47
0.0
 47
0.0
 47
0.0208333333333333
 47
0.0
 47
0.0
 47
0.0
 47
0.0
 47
1.0
 47
0.0
 47
0.0
 47
0.0
 47
0.0
 47
1.0
171
     0
 49
0.0208333333333333
 49
0.0
 49
0.0
 49
0.0
 49
0.0
 49
0.0208333333333333
 49
0.0
 49
0.0
 49
0.0
 49
0.0
 49
1.0
 49
0.0
 49
0.0
 49
0.0
 49
0.0
 49
1.0
175
     0
142
0.0208333333333333
142
0.0
142
0.0
142
0.0
142
0.0
142
0.0208333333333333
142
0.0
142
0.0
142
0.0
142
0.0
142
1.0
142
0.0
142
0.0
142
0.0
142
0.0
142
1.0
179
     0
144
0.0208333333333333
144
0.0
144
0.0
144
0.0
144
0.0
144
0.0208333333333333
144
0.0
144
0.0
144
0.0
144
0.0
144
1.0
144
0.0
144
0.0
144
0.0
144
0.0
144
1.0
147
0.0208333333333333
147
0.0
147
0.0
147
0.0
147
0.0
147
0.0208333333333333
147
0.0
147
0.0
147
0.0
147
0.0
147
1.0
147
0.0
147
0.0
147
0.0
147
0.0
147
1.0
  0
MATERIAL
  5
21
102
{ACAD_XDICTIONARY
360
22
102
}
102
{ACAD_REACTORS
330
10
102
}
330
10
100
AcDbMaterial
  1
Global
 72
     0
 43
0.0208333333333333
 43
0.0
 43
0.0
 43
0.0
 43
0.0
 43
0.0208333333333333
 43
0.0
 43
0.0
 43
0.0
 43
0.0
 43
1.0
 43
0.0
 43
0.0
 43
0.0
 43
0.0
 43
1.0
 77
     0
 47
0.0208333333333333
 47
0.0
 47
0.0
 47
0.0
 47
0.0
 47
0.0208333333333333
 47
0.0
 47
0.0
 47
0.0
 47
0.0
 47
1.0
 47
0.0
 47
0.0
 47
0.0
 47
0.0
 47
1.0
171
     0
 49
0.0208333333333333
 49
0.0
 49
0.0
 49
0.0
 49
0.0
 49
0.0208333333333333
 49
0.0
 49
0.0
 49
0.0
 49
0.0
 49
1.0
 49
0.0
 49
0.0
 49
0.0
 49
0.0
 49
1.0
175
     0
142
0.0208333333333333
142
0.0
142
0.0
142
0.0
142
0.0
142
0.0208333333333333
142
0.0
142
0.0
142
0.0
142
0.0
142
1.0
142
0.0
142
0.0
142
0.0
142
0.0
142
1.0
179
     0
144
0.0208333333333333
144
0.0
144
0.0
144
0.0
144
0.0
144
0.0208333333333333
144
0.0
144
0.0
144
0.0
144
0.0
144
1.0
144
0.0
144
0.0
144
0.0
144
0.0
144
1.0
147
0.0208333333333333
147
0.0
147
0.0
147
0.0
147
0.0
147
0.0208333333333333
147
0.0
147
0.0
147
0.0
147
0.0
147
1.0
147
0.0
147
0.0
147
0.0
147
0.0
147
1.0
  0
MLEADERSTYLE
  5
67
102
{ACAD_XDICTIONARY
360
F1B
102
}
102
{ACAD_REACTORS
330
66
102
}
330
66
100
AcDbMLeaderStyle
170
     2
171
     1
172
     0
 90
        2
 40
0.0
 41
0.0
173
     1
 91
-1056964608
340
5B
 92
       -2
290
     1
 42
0.09
291
     1
 43
0.36
  3
Standard
 44
0.18
300

342
55
174
     1
178
     6
175
     1
176
     0
 93
-1056964608
 45
0.18
292
     0
297
     0
 46
0.18
 94
-1056964608
 47
1.0
 49
1.0
140
1.0
293
     1
141
0.0
294
     1
177
     0
142
1.0
295
     0
296
     0
143
0.125
1001
ACAD_MLEADERVER
1070
     2
  0
MLINESTYLE
  5
60
102
{ACAD_REACTORS
330
5F
102
}
330
5F
100
AcDbMlineStyle
  2
STANDARD
 70
     0
  3

 62
   256
 51
90.0
 52
90.0
 71
     2
 49
0.5
 62
   256
  6
BYLAYER
 49
-0.5
 62
   256
  6
BYLAYER
  0
ACDBPLACEHOLDER
  5
F
102
{ACAD_REACTORS
330
E
102
}
330
E
  0
SCALE
  5
43
102
{ACAD_REACTORS
330
42
102
}
330
42
100
AcDbScale
 70
     0
300
1:1
140
1.0
141
1.0
290
     1
  0
SCALE
  5
44
102
{ACAD_REACTORS
330
42
102
}
330
42
100
AcDbScale
 70
     0
300
1/128" = 1'-0"
140
0.0078125
141
12.0
290
     0
  0
SCALE
  5
45
102
{ACAD_REACTORS
330
42
102
}
330
42
100
AcDbScale
 70
     0
300
1/64" = 1'-0"
140
0.015625
141
12.0
290
     0
  0
SCALE
  5
46
102
{ACAD_REACTORS
330
42
102
}
330
42
100
AcDbScale
 70
     0
300
1/32" = 1'-0"
140
0.03125
141
12.0
290
     0
  0
SCALE
  5
47
102
{ACAD_REACTORS
330
42
102
}
330
42
100
AcDbScale
 70
     0
300
1/16" = 1'-0"
140
0.0625
141
12.0
290
     0
  0
SCALE
  5
48
102
{ACAD_REACTORS
330
42
102
}
330
42
100
AcDbScale
 70
     0
300
3/32" = 1'-0"
140
0.09375
141
12.0
290
     0
  0
SCALE
  5
49
102
{ACAD_REACTORS
330
42
102
}
330
42
100
AcDbScale
 70
     0
300
1/8" = 1'-0"
140
0.125
141
12.0
290
     0
  0
SCALE
  5
4A
102
{ACAD_REACTORS
330
42
102
}
330
42
100
AcDbScale
 70
     0
300
3/16" = 1'-0"
140
0.1875
141
12.0
290
     0
  0
SCALE
  5
4B
102
{ACAD_REACTORS
330
42
102
}
330
42
100
AcDbScale
 70
     0
300
1/4" = 1'-0"
140
0.25
141
12.0
290
     0
  0
SCALE
  5
4C
102
{ACAD_REACTORS
330
42
102
}
330
42
100
AcDbScale
 70
     0
300
3/8" = 1'-0"
140
0.375
141
12.0
290
     0
  0
SCALE
  5
4D
102
{ACAD_REACTORS
330
42
102
}
330
42
100
AcDbScale
 70
     0
300
1/2" = 1'-0"
140
0.5
141
12.0
290
     0
  0
SCALE
  5
4E
102
{ACAD_REACTORS
330
42
102
}
330
42
100
AcDbScale
 70
     0
300
3/4" = 1'-0"
140
0.75
141
12.0
290
     0
  0
SCALE
  5
4F
102
{ACAD_REACTORS
330
42
102
}
330
42
100
AcDbScale
 70
     0
300
1" = 1'-0"
140
1.0
141
12.0
290
     0
  0
SCALE
  5
50
102
{ACAD_REACTORS
330
42
102
}
330
42
100
AcDbScale
 70
     0
300
1-1/2" = 1'-0"
140
1.5
141
12.0
290
     0
  0
SCALE
  5
51
102
{ACAD_REACTORS
330
42
102
}
330
42
100
AcDbScale
 70
     0
300
3" = 1'-0"
140
3.0
141
12.0
290
     0
  0
SCALE
  5
52
102
{ACAD_REACTORS
330
42
102
}
330
42
100
AcDbScale
 70
     0
300
6" = 1'-0"
140
6.0
141
12.0
290
     0
  0
SCALE
  5
53
102
{ACAD_REACTORS
330
42
102
}
330
42
100
AcDbScale
 70
     0
300
1'-0" = 1'-0"
140
12.0
141
12.0
290
     0
  0
TABLESTYLE
  5
65
102
{ACAD_XDICTIONARY
360
F19
102
}
102
{ACAD_REACTORS
330
64
102
}
330
64
100
AcDbTableStyle
  3
Standard
 70
     0
 71
     0
 40
0.06
 41
0.06
280
     0
281
     0
  7
Standard
140
0.18
170
     2
 62
     0
 63
     7
283
     0
274
    -2
284
     1
 64
     0
275
    -2
285
     1
 65
     0
276
    -2
286
     1
 66
     0
277
    -2
287
     1
 67
     0
278
    -2
288
     1
 68
     0
279
    -2
289
     1
 69
     0
  7
Standard
140
0.25
170
     5
 62
     0
 63
     7
283
     0
274
    -2
284
     1
 64
     0
275
    -2
285
     1
 65
     0
276
    -2
286
     1
 66
     0
277
    -2
287
     1
 67
     0
278
    -2
288
     1
 68
     0
279
    -2
289
     1
 69
     0
  7
Standard
140
0.18
170
     5
 62
     0
 63
     7
283
     0
274
    -2
284
     1
 64
     0
275
    -2
285
     1
 65
     0
276
    -2
286
     1
 66
     0
277
    -2
287
     1
 67
     0
278
    -2
288
     1
 68
     0
279
    -2
289
     1
 69
     0
  0
VISUALSTYLE
  5
2F
102
{ACAD_XDICTIONARY
360
F2D
102
}
102
{ACAD_REACTORS
330
29
102
}
330
29
100
AcDbVisualStyle
  2
2dWireframe
 70
     4
 71
     0
 72
     2
 73
     0
 90
        0
 40
-0.6
 41
-30.0
 62
     5
 63
     7
 74
     1
 91
        4
 64
     7
 65
   257
 75
     1
175
     1
 42
1.0
 92
        0
 66
   257
 43
1.0
 76
     1
 77
     6
 78
     2
 67
     7
 79
     5
170
     0
171
     0
290
     0
174
     0
 93
        1
 44
0.0
173
     0
291
     0
 45
0.0
1001
ACAD
1000
AcDbSavedByObjectVersion
1070
     0
  0
VISUALSTYLE
  5
2E
102
{ACAD_XDICTIONARY
360
F2B
102
}
102
{ACAD_REACTORS
330
29
102
}
330
29
100
AcDbVisualStyle
  2
Basic
 70
     7
 71
     1
 72
     0
 73
     1
 90
        0
 40
-0.6
 41
-30.0
 62
     5
 63
     7
 74
     0
 91
        4
 64
     7
 65
   257
 75
     1
175
     1
 42
1.0
 92
        8
 66
     7
 43
1.0
 76
     1
 77
     6
 78
     2
 67
     7
 79
     5
170
     0
171
     0
290
     0
174
     0
 93
        1
 44
0.0
173
     0
291
     1
 45
0.0
1001
ACAD
1000
AcDbSavedByObjectVersion
1070
     0
  0
VISUALSTYLE
  5
35
102
{ACAD_XDICTIONARY
360
F39
102
}
102
{ACAD_REACTORS
330
29
102
}
330
29
100
AcDbVisualStyle
  2
Brighten
 70
    12
 71
     2
 72
     2
 73
     0
 90
        0
 40
-0.6
 41
-30.0
 62
     5
 63
     7
 74
     1
 91
        4
 64
     7
 65
   257
 75
     1
175
     1
 42
1.0
 92
        8
 66
     7
 43
1.0
 76
     1
 77
     6
 78
     2
 67
     7
 79
     5
170
     0
171
     0
290
     0
174
     0
 93
        1
 44
50.0
173
     0
291
     1
 45
0.0
1001
ACAD
1000
AcDbSavedByObjectVersion
1070
     0
  0
VISUALSTYLE
  5
39
102
{ACAD_XDICTIONARY
360
F41
102
}
102
{ACAD_REACTORS
330
29
102
}
330
29
100
AcDbVisualStyle
  2
ColorChange
 70
    16
 71
     2
 72
     2
 73
     3
 90
        0
 40
-0.6
 41
-30.0
 62
     5
 63
     8
 74
     1
 91
        4
 64
     7
 65
   257
 75
     1
175
     1
 42
1.0
 92
        8
 66
     8
 43
1.0
 76
     1
 77
     6
 78
     2
 67
     7
 79
     5
170
     0
171
     0
290
     0
174
     0
 93
        1
 44
0.0
173
     0
291
     1
 45
0.0
1001
ACAD
1000
AcDbSavedByObjectVersion
1070
     0
  0
VISUALSTYLE
  5
32
102
{ACAD_XDICTIONARY
360
F33
102
}
102
{ACAD_REACTORS
330
29
102
}
330
29
100
AcDbVisualStyle
  2
Conceptual
 70
     9
 71
     3
 72
     2
 73
     0
 90
        0
 40
-0.6
 41
-30.0
 62
     5
 63
     7
 74
     2
 91
        2
 64
     7
 65
   257
 75
     1
175
     1
 42
179.0
 92
        8
 66
     7
 43
1.0
 76
     1
 77
     6
 78
     2
 67
     7
 79
     3
170
     0
171
     0
290
     0
174
     0
 93
        1
 44
0.0
173
     0
291
     0
 45
0.0
1001
ACAD
1000
AcDbSavedByObjectVersion
1070
     0
  0
VISUALSTYLE
  5
34
102
{ACAD_XDICTIONARY
360
F37
102
}
102
{ACAD_REACTORS
330
29
102
}
330
29
100
AcDbVisualStyle
  2
Dim
 70
    11
 71
     2
 72
     2
 73
     0
 90
        0
 40
-0.6
 41
-30.0
 62
     5
 63
     7
 74
     1
 91
        4
 64
     7
 65
   257
 75
     1
175
     1
 42
1.0
 92
        8
 66
     7
 43
1.0
 76
     1
 77
     6
 78
     2
 67
     7
 79
     5
170
     0
171
     0
290
     0
174
     0
 93
        1
 44
-50.0
173
     0
291
     1
 45
0.0
1001
ACAD
1000
AcDbSavedByObjectVersion
1070
     0
  0
VISUALSTYLE
  5
41
102
{ACAD_XDICTIONARY
360
F51
102
}
102
{ACAD_REACTORS
330
29
102
}
330
29
100
AcDbVisualStyle
  2
EdgeColorOff
 70
    22
 71
     2
 72
     2
 73
     0
 90
        0
 40
-0.6
 41
-30.0
 62
     5
 63
     7
 74
     1
 91
        4
 64
     7
 65
   257
 75
     1
175
     1
 42
1.0
 92
        8
 66
     7
 43
1.0
 76
     1
 77
     6
 78
     2
 67
     7
 79
     5
170
     0
171
     0
290
     0
174
     0
 93
        1
 44
0.0
173
     0
291
     1
 45
0.0
1001
ACAD
1000
AcDbSavedByObjectVersion
1070
     0
  0
VISUALSTYLE
  5
38
102
{ACAD_XDICTIONARY
360
F3F
102
}
102
{ACAD_REACTORS
330
29
102
}
330
29
100
AcDbVisualStyle
  2
Facepattern
 70
    15
 71
     2
 72
     2
 73
     0
 90
        0
 40
-0.6
 41
-30.0
 62
     5
 63
     7
 74
     1
 91
        4
 64
     7
 65
   257
 75
     1
175
     1
 42
1.0
 92
        8
 66
     7
 43
1.0
 76
     1
 77
     6
 78
     2
 67
     7
 79
     5
170
     0
171
     0
290
     0
174
     0
 93
        1
 44
0.0
173
     0
291
     1
 45
0.0
1001
ACAD
1000
AcDbSavedByObjectVersion
1070
     0
  0
VISUALSTYLE
  5
2A
102
{ACAD_XDICTIONARY
360
F23
102
}
102
{ACAD_REACTORS
330
29
102
}
330
29
100
AcDbVisualStyle
  2
Flat
 70
     0
 71
     2
 72
     1
 73
     1
 90
        2
 40
-0.6
 41
30.0
 62
     5
 63
     7
 74
     0
 91
        0
 64
     7
 65
   257
 75
     1
175
     1
 42
1.0
 92
        8
 66
     7
 43
1.0
 76
     1
 77
     6
 78
     2
 67
     7
 79
     5
170
     0
171
     0
290
     0
174
     0
 93
       13
 44
0.0
173
     0
291
     1
 45
0.0
1001
ACAD
1000
AcDbSavedByObjectVersion
1070
     0
  0
VISUALSTYLE
  5
2B
102
{ACAD_XDICTIONARY
360
F25
102
}
102
{ACAD_REACTORS
330
29
102
}
330
29
100
AcDbVisualStyle
  2
FlatWithEdges
 70
     1
 71
     2
 72
     1
 73
     1
 90
        2
 40
-0.6
 41
30.0
 62
     5
 63
     7
 74
     1
 91
        0
 64
     7
 65
   257
 75
     1
175
     1
 42
1.0
 92
        0
 66
   257
 43
1.0
 76
     1
 77
     6
 78
     2
 67
     7
 79
     5
170
     0
171
     0
290
     0
174
     0
 93
       13
 44
0.0
173
     0
291
     1
 45
0.0
1001
ACAD
1000
AcDbSavedByObjectVersion
1070
     0
  0
VISUALSTYLE
  5
2C
102
{ACAD_XDICTIONARY
360
F27
102
}
102
{ACAD_REACTORS
330
29
102
}
330
29
100
AcDbVisualStyle
  2
Gouraud
 70
     2
 71
     2
 72
     2
 73
     1
 90
        2
 40
-0.6
 41
30.0
 62
     5
 63
     7
 74
     0
 91
        0
 64
     7
 65
   257
 75
     1
175
     1
 42
1.0
 92
        0
 66
     7
 43
1.0
 76
     1
 77
     6
 78
     2
 67
     7
 79
     5
170
     0
171
     0
290
     0
174
     0
 93
       13
 44
0.0
173
     0
291
     1
 45
0.0
1001
ACAD
1000
AcDbSavedByObjectVersion
1070
     0
  0
VISUALSTYLE
  5
2D
102
{ACAD_XDICTIONARY
360
F29
102
}
102
{ACAD_REACTORS
330
29
102
}
330
29
100
AcDbVisualStyle
  2
GouraudWithEdges
 70
     3
 71
     2
 72
     2
 73
     1
 90
        2
 40
-0.6
 41
30.0
 62
     5
 63
     7
 74
     1
 91
        0
 64
     7
 65
   257
 75
     1
175
     1
 42
1.0
 92
        0
 66
   257
 43
1.0
 76
     1
 77
     6
 78
     2
 67
     7
 79
     5
170
     0
171
     0
290
     0
174
     0
 93
       13
 44
0.0
173
     0
291
     1
 45
0.0
1001
ACAD
1000
AcDbSavedByObjectVersion
1070
     0
  0
VISUALSTYLE
  5
31
102
{ACAD_XDICTIONARY
360
F31
102
}
102
{ACAD_REACTORS
330
29
102
}
330
29
100
AcDbVisualStyle
  2
Hidden
 70
     6
 71
     1
 72
     2
 73
     2
 90
        0
 40
-0.6
 41
-30.0
 62
     5
 63
     7
 74
     2
 91
        2
 64
     7
 65
   257
 75
     2
175
     1
 42
40.0
 92
        0
 66
   257
 43
1.0
 76
     1
 77
     6
 78
     2
 67
     7
 79
     3
170
     0
171
     0
290
     0
174
     0
 93
        1
 44
0.0
173
     0
291
     0
 45
0.0
1001
ACAD
1000
AcDbSavedByObjectVersion
1070
     0
  0
VISUALSTYLE
  5
3F
102
{ACAD_XDICTIONARY
360
F4D
102
}
102
{ACAD_REACTORS
330
29
102
}
330
29
100
AcDbVisualStyle
  2
JitterOff
 70
    20
 71
     2
 72
     2
 73
     0
 90
        0
 40
-0.6
 41
-30.0
 62
     5
 63
     7
 74
     1
 91
        4
 64
     7
 65
   257
 75
     1
175
     1
 42
1.0
 92
       10
 66
     7
 43
1.0
 76
     1
 77
     6
 78
     2
 67
     7
 79
     5
170
     0
171
     0
290
     0
174
     0
 93
        1
 44
0.0
173
     0
291
     1
 45
0.0
1001
ACAD
1000
AcDbSavedByObjectVersion
1070
     0
  0
VISUALSTYLE
  5
37
102
{ACAD_XDICTIONARY
360
F3D
102
}
102
{ACAD_REACTORS
330
29
102
}
330
29
100
AcDbVisualStyle
  2
Linepattern
 70
    14
 71
     2
 72
     2
 73
     0
 90
        0
 40
-0.6
 41
-30.0
 62
     5
 63
     7
 74
     1
 91
        4
 64
     7
 65
   257
 75
     7
175
     7
 42
1.0
 92
        8
 66
     7
 43
1.0
 76
     1
 77
     6
 78
     2
 67
     7
 79
     5
170
     0
171
     0
290
     0
174
     0
 93
        1
 44
0.0
173
     0
291
     1
 45
0.0
1001
ACAD
1000
AcDbSavedByObjectVersion
1070
     0
  0
VISUALSTYLE
  5
40
102
{ACAD_XDICTIONARY
360
F4F
102
}
102
{ACAD_REACTORS
330
29
102
}
330
29
100
AcDbVisualStyle
  2
OverhangOff
 70
    21
 71
     2
 72
     2
 73
     0
 90
        0
 40
-0.6
 41
-30.0
 62
     5
 63
     7
 74
     1
 91
        4
 64
     7
 65
   257
 75
     1
175
     1
 42
1.0
 92
        9
 66
     7
 43
1.0
 76
     1
 77
     6
 78
     2
 67
     7
 79
     5
170
     0
171
     0
290
     0
174
     0
 93
        1
 44
0.0
173
     0
291
     1
 45
0.0
1001
ACAD
1000
AcDbSavedByObjectVersion
1070
     0
  0
VISUALSTYLE
  5
33
102
{ACAD_XDICTIONARY
360
F35
102
}
102
{ACAD_REACTORS
330
29
102
}
330
29
100
AcDbVisualStyle
  2
Realistic
 70
     8
 71
     2
 72
     3
 73
     0
 90
        2
 40
-0.6
 41
30.0
 62
     5
 63
     7
 74
     0
 91
        0
 64
     7
 65
   257
 75
     1
175
     1
 42
1.0
 92
        8
 66
   257
 43
1.0
 76
     1
 77
     6
 78
     2
 67
     7
 79
     3
170
     0
171
     0
290
     0
174
     0
 93
       13
 44
0.0
173
     0
291
     0
 45
0.0
1001
ACAD
1000
AcDbSavedByObjectVersion
1070
     0
  0
VISUALSTYLE
  5
3E
102
{ACAD_XDICTIONARY
360
F4B
102
}
102
{ACAD_REACTORS
330
29
102
}
330
29
100
AcDbVisualStyle
  2
Shaded
 70
    27
 71
     2
 72
     2
 73
     1
 90
        2
 40
-0.6
 41
30.0
 62
     5
 63
     7
 74
     0
 91
        4
 64
     7
 65
   257
 75
     1
175
     1
 42
1.0
 92
        8
 66
   257
 43
1.0
 76
     1
 77
     6
 78
     2
 67
     8
 79
     3
170
     0
171
     0
290
     0
174
     0
 93
        5
 44
0.0
173
     0
291
     0
 45
0.0
1001
ACAD
1000
AcDbSavedByObjectVersion
1070
     0
  0
VISUALSTYLE
  5
3D
102
{ACAD_XDICTIONARY
360
F49
102
}
102
{ACAD_REACTORS
330
29
102
}
330
29
100
AcDbVisualStyle
  2
Shaded with edges
 70
    26
 71
     2
 72
     2
 73
     1
 90
        2
 40
-0.6
 41
30.0
 62
     5
 63
     7
 74
     1
 91
       10
 64
     7
 65
   257
 75
     2
175
     1
 42
1.0
 92
        8
 66
   257
 43
1.0
 76
     1
 77
     6
 78
     2
 67
     7
 79
     3
170
     0
171
     0
290
     0
174
     0
 93
        5
 44
0.0
173
     0
291
     0
 45
0.0
1001
ACAD
1000
AcDbSavedByObjectVersion
1070
     0
  0
VISUALSTYLE
  5
3A
102
{ACAD_XDICTIONARY
360
F43
102
}
102
{ACAD_REACTORS
330
29
102
}
330
29
100
AcDbVisualStyle
  2
Shades of Gray
 70
    23
 71
     2
 72
     2
 73
     3
 90
        0
 40
-0.6
 41
-30.0
 62
     5
 63
     7
 74
     2
 91
        2
 64
     7
 65
     7
 75
     1
175
     1
 42
40.0
 92
        8
 66
     7
 43
1.0
 76
     1
 77
     6
 78
     2
 67
     7
 79
     3
170
     0
171
     0
290
     0
174
     0
 93
        1
 44
0.0
173
     0
291
     0
 45
0.0
1001
ACAD
1000
AcDbSavedByObjectVersion
1070
     0
  0
VISUALSTYLE
  5
3B
102
{ACAD_XDICTIONARY
360
F45
102
}
102
{ACAD_REACTORS
330
29
102
}
330
29
100
AcDbVisualStyle
  2
Sketchy
 70
    24
 71
     1
 72
     2
 73
     2
 90
        0
 40
-0.6
 41
-30.0
 62
     5
 63
     7
 74
     2
 91
        2
 64
     7
 65
     7
 75
     1
175
     1
 42
40.0
 92
       11
 66
     7
 43
1.0
 76
     1
 77
     6
 78
     2
 67
     7
 79
     6
170
     0
171
     0
290
     0
174
     0
 93
        1
 44
0.0
173
     0
291
     0
 45
0.0
1001
ACAD
1000
AcDbSavedByObjectVersion
1070
     0
  0
VISUALSTYLE
  5
36
102
{ACAD_XDICTIONARY
360
F3B
102
}
102
{ACAD_REACTORS
330
29
102
}
330
29
100
AcDbVisualStyle
  2
Thicken
 70
    13
 71
     2
 72
     2
 73
     0
 90
        0
 40
-0.6
 41
-30.0
 62
     5
 63
     7
 74
     1
 91
        4
 64
     7
 65
   257
 75
     1
175
     1
 42
1.0
 92
       12
 66
     7
 43
1.0
 76
     1
 77
     6
 78
     2
 67
     7
 79
     5
170
     0
171
     0
290
     0
174
     0
 93
        1
 44
0.0
173
     0
291
     1
 45
0.0
1001
ACAD
1000
AcDbSavedByObjectVersion
1070
     0
  0
VISUALSTYLE
  5
30
102
{ACAD_XDICTIONARY
360
F2F
102
}
102
{ACAD_REACTORS
330
29
102
}
330
29
100
AcDbVisualStyle
  2
Wireframe
 70
     5
 71
     0
 72
     2
 73
     0
 90
        0
 40
-0.6
 41
-30.0
 62
     5
 63
     7
 74
     1
 91
        4
 64
     7
 65
   257
 75
     1
175
     1
 42
1.0
 92
        0
 66
   257
 43
1.0
 76
     1
 77
     6
 78
     2
 67
     7
 79
     3
170
     0
171
     0
290
     0
174
     0
 93
        1
 44
0.0
173
     0
291
     0
 45
0.0
1001
ACAD
1000
AcDbSavedByObjectVersion
1070
     0
  0
VISUALSTYLE
  5
3C
102
{ACAD_XDICTIONARY
360
F47
102
}
102
{ACAD_REACTORS
330
29
102
}
330
29
100
AcDbVisualStyle
  2
X-Ray
 70
    25
 71
     2
 72
     2
 73
     1
 90
        1
 40
0.5
 41
-30.0
 62
     5
 63
     7
 74
     1
 91
        0
 64
     7
 65
   257
 75
     1
175
     1
 42
1.0
 92
        8
 66
     7
 43
1.0
 76
     1
 77
     6
 78
     2
 67
     7
 79
     3
170
     0
171
     0
290
     0
174
     0
 93
       13
 44
0.0
173
     0
291
     0
 45
0.0
1001
ACAD
1000
AcDbSavedByObjectVersion
1070
     0
  0
DICTIONARYVAR
  5
DB
102
{ACAD_REACTORS
330
D8
102
}
330
D8
100
DictionaryVariables
280
     0
  1
1:1
  0
DICTIONARYVAR
  5
DA
102
{ACAD_REACTORS
330
D8
102
}
330
D8
100
DictionaryVariables
280
     0
  1
STANDARD
  0
DICTIONARYVAR
  5
D9
102
{ACAD_REACTORS
330
D8
102
}
330
D8
100
DictionaryVariables
280
     0
  1
STANDARD
  0
DICTIONARYVAR
  5
F17
102
{ACAD_REACTORS
330
D8
102
}
330
D8
100
DictionaryVariables
280
     0
  1
1
  0
DICTIONARYVAR
  5
F16
102
{ACAD_REACTORS
330
D8
102
}
330
D8
100
DictionaryVariables
280
     0
  1
1
  0
DICTIONARYVAR
  5
F15
102
{ACAD_REACTORS
330
D8
102
}
330
D8
100
DictionaryVariables
280
     0
  1
0
  0
DICTIONARYVAR
  5
F12
102
{ACAD_REACTORS
330
D8
102
}
330
D8
100
DictionaryVariables
280
     0
  1
0
  0
DICTIONARYVAR
  5
F13
102
{ACAD_REACTORS
330
D8
102
}
330
D8
100
DictionaryVariables
280
     0
  1
0
  0
DICTIONARYVAR
  5
F11
102
{ACAD_REACTORS
330
D8
102
}
330
D8
100
DictionaryVariables
280
     0
  1
2
  0
DICTIONARYVAR
  5
F10
102
{ACAD_REACTORS
330
D8
102
}
330
D8
100
DictionaryVariables
280
     0
  1
1
  0
DICTIONARYVAR
  5
F14
102
{ACAD_REACTORS
330
D8
102
}
330
D8
100
DictionaryVariables
280
     0
  1
127
  0
DICTIONARYVAR
  5
F18
102
{ACAD_REACTORS
330
D8
102
}
330
D8
100
DictionaryVariables
280
     0
  1
2
  0
DICTIONARY
  5
F55
330
6B
100
AcDbDictionary
280
     1
281
     1
  3
ACAD_XREC_ROUNDTRIP
360
F56
  0
DICTIONARY
  5
F59
330
73
100
AcDbDictionary
280
     1
281
     1
  3
ACAD_XREC_ROUNDTRIP
360
F5A
  0
DICTIONARY
  5
F57
330
6F
100
AcDbDictionary
280
     1
281
     1
  3
ACAD_XREC_ROUNDTRIP
360
F58
  0
DICTIONARY
  5
1A
330
19
100
AcDbDictionary
280
     1
281
     1
  3
ACAD_XREC_ROUNDTRIP
360
F21
  3
BUMPTILE
360
1C
  3
DIFFUSETILE
360
1B
  3
OPACITYTILE
360
1F
  3
REFLECTIONTILE
360
1E
  3
REFRACTIONTILE
360
20
  3
SPECULARTILE
360
1D
  0
DICTIONARY
  5
12
330
11
100
AcDbDictionary
280
     1
281
     1
  3
ACAD_XREC_ROUNDTRIP
360
F20
  3
BUMPTILE
360
14
  3
DIFFUSETILE
360
13
  3
FBXASSET
360
169
  3
OPACITYTILE
360
17
  3
REFLECTIONTILE
360
16
  3
REFRACTIONTILE
360
18
  3
SPECULARTILE
360
15
  0
DICTIONARY
  5
22
330
21
100
AcDbDictionary
280
     1
281
     1
  3
ACAD_XREC_ROUNDTRIP
360
F22
  3
BUMPTILE
360
24
  3
DIFFUSETILE
360
23
  3
FBXASSET
360
11C
  3
OPACITYTILE
360
27
  3
REFLECTIONTILE
360
26
  3
REFRACTIONTILE
360
28
  3
SPECULARTILE
360
25
  0
DICTIONARY
  5
F1B
330
67
100
AcDbDictionary
280
     1
281
     1
  3
ACAD_XREC_ROUNDTRIP
360
F1C
  0
DICTIONARY
  5
F19
330
65
100
AcDbDictionary
280
     1
281
     1
  3
ACAD_ROUNDTRIP_2008_TABLESTYLE_CELLSTYLEMAP
360
F1A
  3
ACAD_XREC_ROUNDTRIP
360
F53
  0
DICTIONARY
  5
F2D
330
2F
100
AcDbDictionary
280
     1
281
     1
  3
ACAD_XREC_ROUNDTRIP
360
F2E
  0
DICTIONARY
  5
F2B
330
2E
100
AcDbDictionary
280
     1
281
     1
  3
ACAD_XREC_ROUNDTRIP
360
F2C
  0
DICTIONARY
  5
F39
330
35
100
AcDbDictionary
280
     1
281
     1
  3
ACAD_XREC_ROUNDTRIP
360
F3A
  0
DICTIONARY
  5
F41
330
39
100
AcDbDictionary
280
     1
281
     1
  3
ACAD_XREC_ROUNDTRIP
360
F42
  0
DICTIONARY
  5
F33
330
32
100
AcDbDictionary
280
     1
281
     1
  3
ACAD_XREC_ROUNDTRIP
360
F34
  0
DICTIONARY
  5
F37
330
34
100
AcDbDictionary
280
     1
281
     1
  3
ACAD_XREC_ROUNDTRIP
360
F38
  0
DICTIONARY
  5
F51
330
41
100
AcDbDictionary
280
     1
281
     1
  3
ACAD_XREC_ROUNDTRIP
360
F52
  0
DICTIONARY
  5
F3F
330
38
100
AcDbDictionary
280
     1
281
     1
  3
ACAD_XREC_ROUNDTRIP
360
F40
  0
DICTIONARY
  5
F23
330
2A
100
AcDbDictionary
280
     1
281
     1
  3
ACAD_XREC_ROUNDTRIP
360
F24
  0
DICTIONARY
  5
F25
330
2B
100
AcDbDictionary
280
     1
281
     1
  3
ACAD_XREC_ROUNDTRIP
360
F26
  0
DICTIONARY
  5
F27
330
2C
100
AcDbDictionary
280
     1
281
     1
  3
ACAD_XREC_ROUNDTRIP
360
F28
  0
DICTIONARY
  5
F29
330
2D
100
AcDbDictionary
280
     1
281
     1
  3
ACAD_XREC_ROUNDTRIP
360
F2A
  0
DICTIONARY
  5
F31
330
31
100
AcDbDictionary
280
     1
281
     1
  3
ACAD_XREC_ROUNDTRIP
360
F32
  0
DICTIONARY
  5
F4D
330
3F
100
AcDbDictionary
280
     1
281
     1
  3
ACAD_XREC_ROUNDTRIP
360
F4E
  0
DICTIONARY
  5
F3D
330
37
100
AcDbDictionary
280
     1
281
     1
  3
ACAD_XREC_ROUNDTRIP
360
F3E
  0
DICTIONARY
  5
F4F
330
40
100
AcDbDictionary
280
     1
281
     1
  3
ACAD_XREC_ROUNDTRIP
360
F50
  0
DICTIONARY
  5
F35
330
33
100
AcDbDictionary
280
     1
281
     1
  3
ACAD_XREC_ROUNDTRIP
360
F36
  0
DICTIONARY
  5
F4B
330
3E
100
AcDbDictionary
280
     1
281
     1
  3
ACAD_XREC_ROUNDTRIP
360
F4C
  0
DICTIONARY
  5
F49
330
3D
100
AcDbDictionary
280
     1
281
     1
  3
ACAD_XREC_ROUNDTRIP
360
F4A
  0
DICTIONARY
  5
F43
330
3A
100
AcDbDictionary
280
     1
281
     1
  3
ACAD_XREC_ROUNDTRIP
360
F44
  0
DICTIONARY
  5
F45
330
3B
100
AcDbDictionary
280
     1
281
     1
  3
ACAD_XREC_ROUNDTRIP
360
F46
  0
DICTIONARY
  5
F3B
330
36
100
AcDbDictionary
280
     1
281
     1
  3
ACAD_XREC_ROUNDTRIP
360
F3C
  0
DICTIONARY
  5
F2F
330
30
100
AcDbDictionary
280
     1
281
     1
  3
ACAD_XREC_ROUNDTRIP
360
F30
  0
DICTIONARY
  5
F47
330
3C
100
AcDbDictionary
280
     1
281
     1
  3
ACAD_XREC_ROUNDTRIP
360
F48
  0
XRECORD
  5
F56
102
{ACAD_REACTORS
330
F55
102
}
330
F55
100
AcDbXrecord
280
     1
102
SHADEPLOT
 70
     0
102
SHADEPLOTRESLEVEL
 70
     2
102
SHADEPLOTCUSTOMDPI
 70
   300
  0
XRECORD
  5
F5A
102
{ACAD_REACTORS
330
F59
102
}
330
F59
100
AcDbXrecord
280
     1
102
SHADEPLOT
 70
     0
102
SHADEPLOTRESLEVEL
 70
     2
102
SHADEPLOTCUSTOMDPI
 70
   300
  0
XRECORD
  5
F58
102
{ACAD_REACTORS
330
F57
102
}
330
F57
100
AcDbXrecord
280
     1
102
SHADEPLOT
 70
     0
102
SHADEPLOTRESLEVEL
 70
     2
102
SHADEPLOTCUSTOMDPI
 70
   300
  0
XRECORD
  5
F21
102
{ACAD_REACTORS
330
1A
102
}
330
1A
100
AcDbXrecord
280
     1
102
MATERIAL
148
0.0
149
0.0
149
0.0
 93
        0
 94
      127
282
     0
 72
     0
 77
     0
171
     0
175
     0
179
     0
273
     0
  0
XRECORD
  5
1C
102
{ACAD_REACTORS
330
1A
102
}
330
1A
100
AcDbXrecord
280
     1
270
     1
271
     1
  0
XRECORD
  5
1B
102
{ACAD_REACTORS
330
1A
102
}
330
1A
100
AcDbXrecord
280
     1
270
     1
271
     1
  0
XRECORD
  5
1F
102
{ACAD_REACTORS
330
1A
102
}
330
1A
100
AcDbXrecord
280
     1
270
     1
271
     1
  0
XRECORD
  5
1E
102
{ACAD_REACTORS
330
1A
102
}
330
1A
100
AcDbXrecord
280
     1
270
     1
271
     1
  0
XRECORD
  5
20
102
{ACAD_REACTORS
330
1A
102
}
330
1A
100
AcDbXrecord
280
     1
270
     1
271
     1
  0
XRECORD
  5
1D
102
{ACAD_REACTORS
330
1A
102
}
330
1A
100
AcDbXrecord
280
     1
270
     1
271
     1
  0
XRECORD
  5
F20
102
{ACAD_REACTORS
330
12
102
}
330
12
100
AcDbXrecord
280
     1
102
MATERIAL
148
0.0
149
0.0
149
0.0
 93
        0
 94
      127
282
     0
 72
     0
 77
     0
171
     0
175
     0
179
     0
273
     0
  0
XRECORD
  5
14
102
{ACAD_REACTORS
330
12
102
}
330
12
100
AcDbXrecord
280
     1
270
     1
271
     1
  0
XRECORD
  5
13
102
{ACAD_REACTORS
330
12
102
}
330
12
100
AcDbXrecord
280
     1
270
     1
271
     1
  0
XRECORD
  5
169
102
{ACAD_REACTORS
330
12
102
}
330
12
100
AcDbXrecord
280
     1
 70
     1
 90
1959938040
 71
     1
  1
361C4837-BC24-4ADF-9280-EAE030583F1A
311
504B03040A00000800007C6731403DEE336E79000000790000001B0000006175746F6465736B2D64657369676E2D7061636B6167652E786D6C3C3F786D6C2076657273696F6E3D22312E302220656E636F64696E673D227574662D3822203F3E3C666F726D6174733E3C666F726D61743E687474703A2F2F736368656D612E
311
6175746F6465736B2E636F6D2F64657369676E2D7061636B6167652F323030393C2F666F726D61743E3C2F666F726D6174733E504B03041400060808007C673140D486FD9CA0000000F4000000130000005B436F6E74656E745F54797065735D2E786D6C7D8EC10E82300C865F65E91D8A1E8C310C0EEA1BF002731658846E
311
D98AC1B77784ABF1D8FE5FBFBF75BBCE937A534CCEB38643598122B6FEE978D0B0485F9C41B54DDD7D022595594E1A469170414C76A4D9A4D207E29CF43ECE46F218070CC6BECC4078ACAA135ACF422C856C0E68EA1BF5669944DDD7BCDE7B1F8E415D77AECB980613C2E4AC91FC167A2B244592486606FC29C8FD7F045B9A
311
EF7053A7E60B504B03041400060808007C6731401BA8AA96EB0000007C01000008000000636F72652E786D6C8D90416EC3201045AF82668F0D38AE630B13257173825E0001715162B00C543D7E71E248EDAEAB19FDF96F66F4F9E17BBAA32FB304EB5D0FB420808C535E5B37F690E215EF011D045FBC8FBF6C809C9C4C0FAB
311
0C828F8B4FF32629EFA27131ABCE6BB38932041301A97B6E7A08EAD34CB290296647B815B35437399A82BEBA0CA764357A1EB13AEFB3576B1610C37021F5509D70BD6F1BBC6BEB161F4FEC8CF7ACAA8E4D73A697DD3B2F5758F068A7D77DB518198D06C1086598504C9B0FCABABAEDEA0693B78E105EAEF63F509AF53FA164
311
5DACD8F6EE130B20687EE43110BC5CB3C8E51154AE6B6EE207504B03041400060808007C67314055019EA25F0000007C00000007000000636E782E786D6C4DCB3B0E80201045D1AD90E915ED2CF8AC45050C11660C8261F98AB1B07AC9C97D42D718D865D3E909258CFD00CCE24AC6E326A164D74DC0B4128928FF32603847
311
2BA13128B1252AC747C6BAB984FC68F0B87FE8960A5C09FE86CFB69FBA01504B03041400060808007C673140AE3A540F68010000020300000C0000006662782F636F72652E786D6C8D525B6E833010BC8AE57F631EA1249171944773825EC001875A011B191BE5F85D1E114D15451592B16676766707D8EEDED4A897B65346
311
E7380A428CA42E4CA9749563EFAE648DD18E336B8CFB558691168DCCF10063CE2A6B7C3B4385D14E6A07A836A59C41D175D26154D470C971577CCB4604C23BA8E86E412B8A9BA864100540431D679DB360004D438613F3EBE5CEE88473E6BD2A675695304D5D95B4989F4EE7303D250792AE3719596DD20DD91FE22359C749
311
B2CFB263745E7D323A883973AA79B82BAC144E9698C7611493302251F615C5DB74B34D33127E6CC390D1A1FC49E4DBF29F22AFB44BE2D9EE24EB308FC0C848FCD9162272A8133DF8A19CD12144788D093F070D8140C84E5CEAC71E37807A59386357C094C62F542F6A2F616A88C687D18985CE6303D8EC659FF84D9FF73DE0
311
030A5D8135E1E07AF16E98CEA6A97314ADB4A47777A48D6D44BD989B2C2EE732E8A5BC30B5B1FF51D379553A874987BF97FF00504B03041400060808007C6731407132A2007D0000009D0000000B0000006662782F636E782E786D6C4DCCD10A83201886E15B91FFDCB55A4D7F508322EF239685CC74388D5DFE6A74B0A30F
311
1E3E5ED17E56473613DF367809E5E50AC4F84798AC5F24E434530EA455228690FE6E40FCB81A090783124B0CF975D264E631BBB4ABB3FE7922EA9E55FCC62962D9D09AA3A65C773D6515364CDFD9A0EB010A258A5F69DF23ACBE504B03041400060808007C67314061D000182B01000014020000310000006662782F394643
311
37323833382D393931352D343839462D384642432D3732393537463637454634452F636F72652E786D6C8D51CB6EC32010FC15C4A93D6083631B136122358ABFA03FE01892A2C460F1A8F2F985DA91DA5B2E2C9A9D991DEDF2C363BE836FE5BCB6A687A4C010283359A9CDB587315C5007C14170676DF84383C08CB3EA6186
311
A1E05767E3B24193354199905063A5DAC0D17B152098EEE9D3433F7DA9792CC61812C3DF8A659C6EE35515A448EDC413DC0797028075487EA160C39156DDAE438C9106D51D1B50377C1C11AD584387969E86FAC4CB5528788C5A6E722D531C7DD1CABD6A92C582073D3FE34F4E8D4149282A4C2A840922F49354FB86ED1B8A
311
70BBC7989799FE4F1417F9A2286A1376D51677957928082FD786E0D2C6F3FD19463D16EB02C8F3DEBC9ADEA1C00526ACA598B5BC5CA96901C9B3AD374F1FAC4B0B7EBB9D139B34AB715B0B5EE61BA5F27BC054F33DC50F504B03041400060808007C673140171248674D01000033030000300000006662782F394643373238
311
33382D393931352D343839462D384642432D3732393537463637454634452F636E782E786D6CD593BB6E032110457F05D1EF03C78FC462B194225F90222D86B14DCCC28A4714FF7D061B3B6E5CA44C8356772EF78E8E58BEF91E2DF982108D7703656D4F0938E5B571FB81E6B46B9E29D9081EBC4F77364A9C1C61A045A682
311
EF83CF539534EC64B609556BDCB18A01A2CF414144B9DC24D62B6931005C935184710B5A832637237EED20E02A286E4F241D80BCBD7E10BFFD049522EF4A8AE05DE910BC9CB5E9CE4489B232C68146758051B63227AF211E5B2D936C597BED7AB0D36F122917AE95391852CA075A4E2AEA462D72E41D0E058F2920BD6A4AA7
311
09A890D3648D9209217767E3C52378362E2DE7D56B107C40375B3ECDE718769E099ECC08D5A102C8049A8A59CF664DCF1AB67A67B3F5E265BD5835FD72DDF7BC2B76C1B7DEDB7A096320F88928EF12B84405E35D193FC2577D449B80AC7D38FD012402A8AD173AB78CFFCCA73BBF6FC415F02F103F504B0304140006080800
311
7C673140F16D72149A0500007B100000340000006662782F39464337323833382D393931352D343839462D384642432D3732393537463637454634452F6F626A656374732E786D6CAD575D739B3814FD2B0CFB0C18DB69931D42C7B1938EA79BB6534F3BFB90198F0041B4111F2389D4E9AFDF2310185C3BF5EEF4059090AE
311
EE3DF7DC0F05EF7639B79EA990AC2CAE6DDF9DD8162DE2326145766DD72A752E6DEB5D1888B2548365B655909C5EDB7ADA0E834C947565A6129A929AAB83D9BB9BBF2D19D382DA56CC8994D7B68C1F694E5C52AB32A1F2C94D88226E96EE5CDF6D178EC56682548F07422B2268A1A029E60B48B15AA5FCF170627B61E0E9FF
311
61A09F66D5ECF42AAFB1677C3E2BA42245FCD361076266FE7C753BBDB8722EE6F399337F33F59D9BBB9B95E3BF9D4D966F96CBABC5ED150E964A4092D144D0D40EDF031BC1E2C06B7F8541CD0A359B9A25C6419EA0CF4C7BCA0EA7961F78ED9ADE3A63E431F5E3B22868DC6005341AFB8CE88456B448E0734625341B203419
311
0F7D8DE3E0F74C8FCD91C3E9F31018EE1808EA74EFDE434DCBE81F9820CF6190905433B0C5D218DA7275B247382A4B6EFE3169E54451C108B7388B04112F7688A57A49188CC468260B1D0DDA023B8417DADF63BA208C7ECDF3635AA635E79AC676D844C116B142956C34633FA8D86B3F44063AC1579A0D97C620F552513BBC
311
6A297279C0A616482BE52483CB61A6DE399B1E18BAD471BA5ED9E187BB68B7D1B17BFCF04A9415154AD307D4EA1CD7BD354A4627FF2CCFE90DF6812A7B50BE00F98F08F5BD2AF09B60BBF96E6E4E518214322D450EDF5813CB99E031B1FCE6A9BF075F81D76F1E7BEF149E70B686EA37E039B661E8CB019C61F00CC2976266
311
4CDBC484236DDCB30200699258BCC414F2701AEDEC708D2C87AC8C5D84873E4C86BACFF80C3C230689A23969F02E80E5415A3C234103B6869150A325BF5170EFA79FD25973B059760ADE8BDF42D7C56AF361538B94C4F4DEC4F48AA6AC600A256ECF9BA14223CC47163DD197EFA54860E8CF786F8678E7E62809B435E61AF8
311
ACCBE97AB03F7974408C7D59A9D34DF08B1360842EAC03F9F74CC6947352D0B2EECE7DB57EA06CB410EB60D74CEE0BCCBEB08034ED9F831844918E05AB34887DB5EA93A67BC2BAAFEB8F60A41DDEBCFC455E86D92BDAE7DEB8E4A5D8462FDB362D1D85FADB98DB06034F4B01DD9B20E9E2DF80BE4D589AD61249F008AEDFD6
311
CBA1EF745A408AE8A4B6D13287FD082E220C693BB9A8D682A09296C596A16E22EE8E1E30940F480D031A81A7349694A75BC6799D6F53C6518DB639A94EC0F1FFF58FEABCDA92BCAC0B7542F648755487B1EE23F6CAEF44C58F76B869DECE0D726F42931364D0B5E4085623D7CEDEF8CBF9E5ECAD73B39CCE9DF96275E75C4D
311
2F27CEEDE276329B5C5CCEEEFC45E7A7569330E84ACD30A2E12594B6A016CCB8EFEB1AF16392801DDE13251FDEB7E1D9BDBFAE5DF4C281873DA897FDC645F28CBE8F26BF16B05F7954D03AAF38CD69A1888EA17BFDC1BF10F4192365DAF9754E327A86944FEF3707C660E68C7D9F75BCD3EF077BCDEC5207E45121EAB1CEA3
311
82307EB0316B9174AB2233F8753EE9DF6DA1E9867A641C83CE54969C25C8838995D132A70AD9F08C2224722A41BD614F9F98BBC719BB9FDB0E519188D34E93478226994B8405A855C76A3C6FFD81A64EF755D736CAADFB8487C914B605CE5CDB68D2158BA974231468DD0A35C2C1A561278FC69F141947AFDD6EEAC7FD2E8D
311
CDA824F74BCEE99F8C5D6D0A3706208D54E81BD010C13B8D3261D0E866FEC7FFC9F04E1D8B287C46B5EA6DD94FF4C634C720445BA3CC6D014DCC93397A87407DDD2CDF6DD68C1039EB96F52A095AA98E22226B6E0A5A3FA3D262F5D9438762AD3F5915AF33F8F27C498EA02073AD031C2C022B8CCC8A285075F9E7C36751E2
311
269B5B770C14785896795E1666B03037616BF3887B6DF280B440F585443E4C27FEF4A1B90898BBC9362292BA24914F98804F05EB211E391E8C6C6F8B3E1619C71B1F78DA0907DC5CAF2C53D2E6FBF5C3ACAA6141CB51500BD1A32F933A56860BAA57EF025EB314AA0A74F1E1BF504B03041400060800007C67314000000000
311
0000000000000000350000006662782F39464337323833382D393931352D343839462D384642432D3732393537463637454634452F76657274696365732E62696E504B03041400060808007C673140F270F1330600000004000000360000006662782F39464337323833382D393931352D343839462D384642432D37323935
311
37463637454634452F747269616E676C65732E62696E636660600000504B03041400060800007C673140000000000000000000000000370000006662782F39464337323833382D393931352D343839462D384642432D3732393537463637454634452F617474726962757465732E62696E504B03041400060808007C673140
311
D5987DFC8F00000041010000360000006662782F39464337323833382D393931352D343839462D384642432D3732393537463637454634452F6469726563746F72792E786D6C858F410EC2201045AF4266AF15DDB800BA74E7C21B903225242D6328188F2FA5C4183471359997F9FF81E89FF3C41E1816475E02DF1F80A11F
311
C8386F25A438EECEC07A250251FC3803E6F58C12560C4AD840E95E91C151A72936F496F35732D860FE635F62C8F2DA16B505C545B74125BAA2FA9E05D7CC053D063734D5C7665FD55B6B8D15D5E9BFEAFD8490FFA45E504B03041400060808007C6731407342F7A7FE000000A00100003B0000006662782F39464337323833
311
382D393931352D343839462D384642432D3732393537463637454634452F7265736F75726365732F636F72652E786D6C8D504B6E833010BD0A9ABDC136A104641CA54973825EC032136A25D8C89FAAC7AF49A8D4EEBA9919BD8FE6E989C3D77C2F3ED107E3EC00ACA450A0D56E34761A20C52BD9437190C23B177FC9A0B06A
311
C6015618A498BC4BCB06696723DA9851EB46DC4015024628F43D1F0304FD81B32A558A59116EE5A2F44D4D58B232D3592745883E07289E4FD609D26370C96B0CA27AB252A464C64D63C6FCD35C0D7A90E7F38536E7FA489A7DD7925DD774E4F8CA4F64CFEBFAD8B62776D9BD896A354B11CDFC93517B541147909C324E2823
311
AC7D67BC6FBABE69097DE92915D52AFF634ACBF84F533236D67C8BFBB405902C07791052546B5F793DCACC7BED567E03504B010214000A00000800007C6731403DEE336E79000000790000001B00000000000000000000000000000000006175746F6465736B2D64657369676E2D7061636B6167652E786D6C504B01021400
311
1400060808007C673140D486FD9CA0000000F40000001300000000000000000000000000B20000005B436F6E74656E745F54797065735D2E786D6C504B010214001400060808007C6731401BA8AA96EB0000007C010000080000000000000000000000000083010000636F72652E786D6C504B010214001400060808007C67
311
314055019EA25F0000007C000000070000000000000000000000000094020000636E782E786D6C504B010214001400060808007C673140AE3A540F68010000020300000C00000000000000000000000000180300006662782F636F72652E786D6C504B010214001400060808007C6731407132A2007D0000009D0000000B00
311
000000000000000000000000AA0400006662782F636E782E786D6C504B010214001400060808007C67314061D000182B010000140200003100000000000000000000000000500500006662782F39464337323833382D393931352D343839462D384642432D3732393537463637454634452F636F72652E786D6C504B010214
311
001400060808007C673140171248674D010000330300003000000000000000000000000000CA0600006662782F39464337323833382D393931352D343839462D384642432D3732393537463637454634452F636E782E786D6C504B010214001400060808007C673140F16D72149A0500007B10000034000000000000000000
311
00000000650800006662782F39464337323833382D393931352D343839462D384642432D3732393537463637454634452F6F626A656374732E786D6C504B010214001400060800007C6731400000000000000000000000003500000000000000000000000000510E00006662782F39464337323833382D393931352D343839
311
462D384642432D3732393537463637454634452F76657274696365732E62696E504B010214001400060808007C673140F270F13306000000040000003600000000000000000000000000A40E00006662782F39464337323833382D393931352D343839462D384642432D3732393537463637454634452F747269616E676C65
311
732E62696E504B010214001400060800007C6731400000000000000000000000003700000000000000000000000000FE0E00006662782F39464337323833382D393931352D343839462D384642432D3732393537463637454634452F617474726962757465732E62696E504B010214001400060808007C673140D5987DFC8F
311
000000410100003600000000000000000000000000530F00006662782F39464337323833382D393931352D343839462D384642432D3732393537463637454634452F6469726563746F72792E786D6C504B010214001400060808007C6731407342F7A7FE000000A00100003B00000000000000000000000000361000006662
311
782F39464337323833382D393931352D343839462D384642432D3732393537463637454634452F7265736F75726365732F636F72652E786D6C504B0506000000000E000E00800400008D1100000000
310
504B03040A00000800007C6731403DEE336E79000000790000001B0000006175746F6465736B2D64657369676E2D7061636B6167652E786D6C3C3F786D6C2076657273696F6E3D22312E302220656E636F64696E673D227574662D3822203F3E3C666F726D6174733E3C666F726D61743E687474703A2F2F736368656D612E
310
6175746F6465736B2E636F6D2F64657369676E2D7061636B6167652F323030393C2F666F726D61743E3C2F666F726D6174733E504B03041400060808007C673140D486FD9CA0000000F4000000130000005B436F6E74656E745F54797065735D2E786D6C7D8EC10E82300C865F65E91D8A1E8C310C0EEA1BF002731658846E
310
D98AC1B77784ABF1D8FE5FBFBF75BBCE937A534CCEB38643598122B6FEE978D0B0485F9C41B54DDD7D022595594E1A469170414C76A4D9A4D207E29CF43ECE46F218070CC6BECC4078ACAA135ACF422C856C0E68EA1BF5669944DDD7BCDE7B1F8E415D77AECB980613C2E4AC91FC167A2B244592486606FC29C8FD7F045B9A
310
EF7053A7E60B504B03041400060808007C6731407B3A45D5EA0000007C01000008000000636F72652E786D6C8D904D6EC3201085AF82668F0D38AE7F84896AC939412F8080B828315806AA1EBF3871A476D7D58CDEBC6F66F4F8F97BB9A32FB305EBDD00B420808C535E5B370F90E215B780CE826FDEC75F36404E2E66805D
310
06C1E7CDA7F5909477D1B89855E7B5394419828980D43D370304F5691659C814B323DC8A55AA9B9C4D415F5D8653B21A3D8F589DF7D9AB351B8891B08A345D8DBB4B53E313A94EB89DDE27CCC6F1324D4DDB51DAF17287058F7679DD579B91D168108C508609C5B4F9A0ACAFBBBE6E3079EB09E1E56EFF03A555FF134AD6C5
310
8A1DEF3EB10082E6471E03C1CB3D8B5C1E41E5BAE7267E00504B03041400060808007C67314055019EA25F0000007C00000007000000636E782E786D6C4DCB3B0E80201045D1AD90E915ED2CF8AC45050C11660C8261F98AB1B07AC9C97D42D718D865D3E909258CFD00CCE24AC6E326A164D74DC0B4128928FF326038472B
310
A13128B1252AC747C6BAB984FC68F0B87FE8960A5C09FE86CFB69FBA01504B03041400060808007C6731409964686666010000020300000C0000006662782F636F72652E786D6C8D52ED8E8320107C15C27F046C3D6B8334D7C43EC1BD0055EA992A1804D3C7BFF5A3E9F5D234171324333BBBB3A3E270EB5A346A3734D6E4
310
98470C236D4A5B35A6CE71F017B2C3E82085B3D6FF2AC3C8A84EE77882B114B5B3A15FA1D21AAF8D07D4D84AAFA01A06ED312A5BB8E47828BF75A722153C540CD7A857E555D53AE211D05027C5E01D1840CB90E9C4F272BE09BAE05284D0542BDB5430ADB934DA617964F186A55942B2539A902DDB6CC9AEF82C487C3C9E8A
310
22DD659C67824E62297CD3DDDD954E2BAF2B2C63C663C238E1E9178FF749B64F52C23EF68C093A953F89425FFD53141AE337F16A77910D58723032137FB685883C1AD4087EA814740A115E73C2CF41432010B257E7F6BEC715A05197DEBA2D30950D0F6A546DD03095A1F9117461A1F3DC00367BD9277ED3E77D0FF880CAD4
310
604D79B89E839FA68B65EA1A45AF1D19FD0D19EB3AD53ECC2D161FE763D04B79695BEBFEA3A6EBAA740D934E7FAFFC01504B03041400060808007C673140C0104C697D0000009D0000000B0000006662782F636E782E786D6C4DCC4B0AC3201804E0ABC8BF3751D43E400DC5B4F7088D0952A3C16AE8F16B4A166516031FC3
310
C8EEB378B4D9F4763128A00D0164C3338E2ECC0A4A9EF00550A7658A31FFCD008561B10A76062DE714CB7AD068A7A1F85CD5BBF03A90B307A7841A4CCEEC8AF949F4F8C685C146D43022782FEED06AD9FE9E6AEFC7FA0B504B03041400060808007C67314028B7ADD42901000014020000310000006662782F343346343130
310
31432D303733392D343635442D413435432D4335433543333035344435452F636F72652E786D6C8D515B6EC32010BC0AE22BFDC0061BEC24C24455D29EA0172086A42831583CAA1CBF50BB52FB1721B168766676C4F2C363BA832FED83717680A4C210683B3A65EC7580295ED0168283E0DEB9F887068195931E6081A1E057
310
EFD2BC42A3B351DB9851EB945E4119828E108CF7FC1860183FF5242B996266845B35CBF126AFBA22556E679EE021FA1C002C43CA0D056DDF29C1E48870DFEE10EDD809BD52764447964F8B193DB1375E2F42C153326A951B95E3988BD1FE599322163C9AE937FEE8B58C5A41D160D2204C10E93F48B367BB3DEB11EEF618F3
310
BAD0FF89D2AC9E14256363DBAC7117598082F07A6908AE5C3ADF7FC3E8C7EC7C0465DE26E8F1050A5CE186E06DBF63BC5EA8F903B2674757CF109DCF1FBCB99D33BB5D8D3B2A785D7694CBCF02732DFB14DF504B03041400060808007C67314071B587705501000033030000300000006662782F34334634313031432D3037
310
33392D343635442D413435432D4335433543333035344435452F636E782E786D6CBD93CD6EC23010845FC5F23DBF40A0C831520F7D821E7A75ECA5B82476E49FAABC7DD76028170E95AA5EAC68763CB3FAE4B0DDD734924F705E5BD3D3A6AC290123ADD2E6BDA731EC8B0D253BCE9CB5E1CE46891113F434C994B37767E39C
310
25057B11C780EAA8CD318B0EBC8D4E824739DD24A39562C40030454411A6019402456E46FCDA83C355501C4E241C80BC3CBF113B7C800C9E552985B32A757096CEDC7467A2448EC2FB9E7A798049942206ABC01F4B2582289BF2DAF560A79F24922E5C2BA3D32495F7349D94E78D4AE4C82A1C72E683437AD9144E33502EE6
310
79D45204845C9D8D170F67519BD02DB357237887EE45DB6D3618769E7116F404D9211D88008AF2B66EDAA26E8A66FDDAB4DBD5D376B52EEA6E5BD7AC4A76CE066BC77C0963C0D999486B02984079C3AA347E842FFB88D20E595B77FA054804905B2F746E197FC9A7E916CBE53FF2A9CEEF1B7139FC0BF837504B0304140006
310
0808007C673140DEE2AEC75A070000941B0000340000006662782F34334634313031432D303733392D343635442D413435432D4335433543333035344435452F6F626A656374732E786D6CED595B739B3814FE2B0CFB6C6C6C274D76089DC4B98CA79BB6536F3BFB9019460699682304238924DE5FBF4717301093E06DF6AD
310
0F3620A4A373BE73D521F8F89C51E71173417276E6FADEC475308BF384B0F4CC2DE56674E23A1FC380E7B96C4C731D86327CE6AA61370C529E97851D4AF00695547646AF2FFE72448C19769D982221CE5C11DFE30C79A8947982C583972089BC74F3ECF99E99D8269B7254DC7788168863268153186740C5314CF9EDC7893B
310
0E83B17A1F06EADFCE9A0D9A35EF9F35D652B7B9244C48C4E2172C75C8CC06B134F3E79757D3A3D3D1D17C3E1BCD8FA7FEE8E2FAE272E47F984D16C78BC5E9F9D529B0B7CE736A654A70815902FADBBAA11F8CD59B5A748BC03EAEE39C311C6B20012A2D569720C102B66AC037693FFA4AA2C66B2D61E379AEDE5B161AC3B3
310
3695BE59C38068D10541EC7695C4D5B5295FBEFE1B0417438C920B2C815B213968D7C2C3C12BDC70128CCD6818AC77BA20C2C990C49C20EA50B2E688835260AA9A1206668125A39C8303294749A035675EB76D0B3CF36DD7D9C7E5A6A45479861B6AC78AC0FDB0149A33F20FE63BEE9BC8004F206D49983CB15CCA6D81DDF0
310
3418EBC1305097D9D4BE34403A1B8A52A111316F3B822E94EB2F2FDDF0D3F5FA79A5C2C1FECD0B9E17984B65744A8F9A2F30647B5528D96DFD419A530B401803AA5DB903E51B20FF19A2C78E15D01B27CFF3E7B99D2B39626293F30C74E34C9CD104FE268EAFFFD57DE32E18D78BDBDAEBC313DC544175F2F378B665D05859
310
FE1B7086C123187CCE67F6D52A4614ECF996300048198943731882D0BE593FBBE1120227047A588568E883C8C0EE23DC06634B66A795CABDACD73140D4EE311BA224804D5B24B0D1A3A71BC81E9CC43B353545EC83F7E85DCCF5FC72F56955F20D8AF1ADF5E94BBC218C48C89AFB196A61DE92E8016F9F729E80A02FF15E35
310
F1CEEC5602D056982BE0D30A04F5B0DBB9B5410CEBD25C859BE08D1D400895AB1BF46F898831A588E1BCACF6ADA39B32D4DAE36DCDE0865303F16CDA31618E1F89AA2AC06976335A8C42DE8F392914886E786324AB83A6D723DDF7E567B0C87A7ECFAC2583D0CB10FD5307AD3D38B42CBB42DA02510BBCDE85F338A7398FD6
310
DBC8443A176A0960A3ED2D3F5A4421D61B25292AE041DAEFAA90921A69A3846C36A580B8BA87C51FCB45D31C26DECC3F729AFF1D679C43B405DF45DCFA5D678F886428C5D106257DDB3577AB690B4DB28734C71B0A72914722B71192D124C1E921D01C44FCF45DA9A7341782302C205FED05BF89C6C4834062B459B1ACB4DA
310
019A8828C312D1431050647AC0D56947D7B831940E6FF3585BEF6B1A6B12FD9F2C8223A82573161128452187BCC9B8EF1D410C69A36B50EEE00BD656D1D662D0124A88781B3D6192DECB435037E47B708FE14852CA282F500C663D80EC0B5F514AEDF0BE46F183CA1F515CD2F7321081E92622949659043FC2E0E431C4B5EB
310
C0F42A0A0DE226F6499C41518664C9876C727C3479B18FA919BA21B0B1D1865008DB51868A1ED45B0151D7234E0DBEA5DEA3D475991511CAF2920D32146FD6F5264BBEAB56457620BFAA5484B2B1226C09860161B2CEAA55CC0653D78115DC4807AA6D24505650730A7B23F1F8B53769CABD1B70EBA7EFBB4106855F8FF69A
310
11755EC160796C1506E209C9F8DE0D57FA3ABA80FA3BC1C92ED557B566B30204C454242F39B12AFABE84F2C6D6686E788BA4B8BB3159B7BA7E5F7AD0FD08C6B0066A977AE152019D612691AA4C6ED50DFD862004B76898F1A5CAA98750394F125D35227A4DFAD4D92A235A9B66C42BEE31CB33F8B13BC2625A26F80E25E221
310
BA95345A11C5BA95D2CB4885F1AB027EB95975E0819101227D55051E7EEAACB5A30B552EED2522EFCB6CCD108120D8122D35BAF10A965A8D545AAEAFEA4C017517189855F1FCD7C9A2D98EF875B248AD61FCD4C9E262FB07DA36FB228D741E2BBB3EE81850E72745E53D8E01BAED5053ADB38849E6567EEB4C1104C52ACA0F
310
AEC6AAA06108F671FC9FB3765F1634DB75F83F2C6BFB2F2A8E83B24A6BB2EA52EDA95C97CD1C363BF617F393D987D1C5623A1FCDCF2FAF47A7D393C9E8EAFC6A329B1C9DCCAEFDF31A4DEDA8615007339DBBE0D904B56A583D590CA02B2B724A1238CD274E8A21E64B38D30F689FF30C0B489ECD6677629BF203563F9A3EA7
310
446B8A2B4EEE113488A980B40E1895B16C8F3BBF416B52C241FBCC85A691F7007FD62A5D0732CF990BAD0249622CBC35B49954434F138794AB73BF2506F82096AA946816D5CFF52A854D2BFCD75386A4012B57AB8701855B01DDAF568742F366798A0F12BC62C741126ED7A5846ACDC8B21BA885D1DBECD46F64A3843DD8AD
310
9FC1755F17CBF7F49C1622833E19BC6A0486EA48229EEA7EB762CCB2747EF9750C7D3667F9C5296899822E87531A710CC65CAA820AAC08ACC2D22C9004535DFC7EF795E7F0892773745574B7C8B32C67F6E11CCE63097C227256F7F0C127B983B201ABB6BAB89B4EFCE99D6E67DB0E7BB446027BAA1E8281AA8C5022748C0D
310
2CF2456BCA362EC74A099DE9CB4BC7864F6803180B7AD1DD359FB71CF01EF52145F98AF6F04ACE573BDA633D15AC81432F3AFC17504B03041400060800007C673140000000000000000000000000350000006662782F34334634313031432D303733392D343635442D413435432D4335433543333035344435452F76657274
310
696365732E62696E504B03041400060808007C673140F270F1330600000004000000360000006662782F34334634313031432D303733392D343635442D413435432D4335433543333035344435452F747269616E676C65732E62696E636660600000504B03041400060800007C673140000000000000000000000000370000
310
006662782F34334634313031432D303733392D343635442D413435432D4335433543333035344435452F617474726962757465732E62696E504B03041400060808007C673140D5987DFC8F00000041010000360000006662782F34334634313031432D303733392D343635442D413435432D4335433543333035344435452F
310
6469726563746F72792E786D6C858F410EC2201045AF4266AF15DDB800BA74E7C21B903225242D6328188F2FA5C4183471359997F9FF81E89FF3C41E1816475E02DF1F80A11FC8386F25A438EECEC07A250251FC3803E6F58C12560C4AD840E95E91C151A72936F496F35732D860FE635F62C8F2DA16B505C545B74125BAA2
310
FA9E05D7CC053D063734D5C7665FD55B6B8D15D5E9BFEAFD8490FFA45E504B03041400060808007C67314068916B4DFC000000A00100003B0000006662782F34334634313031432D303733392D343635442D413435432D4335433543333035344435452F7265736F75726365732F636F72652E786D6C8D50596E833010BD0A
310
9A7F83CD5202328E8A444ED00B586692580936F252F5F835814AED5F7F66466FD13C3D7EFE5A9ED9273AAFAD1980E5143234CACEDADC0688E14A4E909D0577D6865F32C88C5C70800D06C16FCEC6F5809435014D48A8B1331EA0F41E0364EA998E01BCBAE32273194352F847BE4AF59037CC599EE8A413DC07970264FB936D
310
8270E86D740A3D2F7656F018F57C68F49C7EEAAB460762A46545DBAE26DDA56D484DAB9A9CA6F78994E37899A6F6D431D6F162330B1EF4F293513994016710256525A18CB0F683957DD3F54D4BE85B4F292F36F91F535CE77F9AA236A12A8FB8BBCD836029C88B10BCD8FA4AEB5566DA5BB7E21B504B010214000A00000800
310
007C6731403DEE336E79000000790000001B00000000000000000000000000000000006175746F6465736B2D64657369676E2D7061636B6167652E786D6C504B010214001400060808007C673140D486FD9CA0000000F40000001300000000000000000000000000B20000005B436F6E74656E745F54797065735D2E786D6C
310
504B010214001400060808007C6731407B3A45D5EA0000007C010000080000000000000000000000000083010000636F72652E786D6C504B010214001400060808007C67314055019EA25F0000007C000000070000000000000000000000000093020000636E782E786D6C504B010214001400060808007C67314099646866
310
66010000020300000C00000000000000000000000000170300006662782F636F72652E786D6C504B010214001400060808007C673140C0104C697D0000009D0000000B00000000000000000000000000A70400006662782F636E782E786D6C504B010214001400060808007C67314028B7ADD4290100001402000031000000
310
000000000000000000004D0500006662782F34334634313031432D303733392D343635442D413435432D4335433543333035344435452F636F72652E786D6C504B010214001400060808007C67314071B5877055010000330300003000000000000000000000000000C50600006662782F34334634313031432D303733392D
310
343635442D413435432D4335433543333035344435452F636E782E786D6C504B010214001400060808007C673140DEE2AEC75A070000941B00003400000000000000000000000000680800006662782F34334634313031432D303733392D343635442D413435432D4335433543333035344435452F6F626A656374732E786D
310
6C504B010214001400060800007C6731400000000000000000000000003500000000000000000000000000141000006662782F34334634313031432D303733392D343635442D413435432D4335433543333035344435452F76657274696365732E62696E504B010214001400060808007C673140F270F13306000000040000
310
003600000000000000000000000000671000006662782F34334634313031432D303733392D343635442D413435432D4335433543333035344435452F747269616E676C65732E62696E504B010214001400060800007C6731400000000000000000000000003700000000000000000000000000C11000006662782F34334634
310
313031432D303733392D343635442D413435432D4335433543333035344435452F617474726962757465732E62696E504B010214001400060808007C673140D5987DFC8F000000410100003600000000000000000000000000161100006662782F34334634313031432D303733392D343635442D413435432D433543354333
310
3035344435452F6469726563746F72792E786D6C504B010214001400060808007C67314068916B4DFC000000A00100003B00000000000000000000000000F91100006662782F34334634313031432D303733392D343635442D413435432D4335433543333035344435452F7265736F75726365732F636F72652E786D6C504B
310
0506000000000E000E00800400004E1300000000
  0
XRECORD
  5
17
102
{ACAD_REACTORS
330
12
102
}
330
12
100
AcDbXrecord
280
     1
270
     1
271
     1
  0
XRECORD
  5
16
102
{ACAD_REACTORS
330
12
102
}
330
12
100
AcDbXrecord
280
     1
270
     1
271
     1
  0
XRECORD
  5
18
102
{ACAD_REACTORS
330
12
102
}
330
12
100
AcDbXrecord
280
     1
270
     1
271
     1
  0
XRECORD
  5
15
102
{ACAD_REACTORS
330
12
102
}
330
12
100
AcDbXrecord
280
     1
270
     1
271
     1
  0
XRECORD
  5
F22
102
{ACAD_REACTORS
330
22
102
}
330
22
100
AcDbXrecord
280
     1
102
MATERIAL
148
0.0
149
0.0
149
0.0
 93
        0
 94
      127
282
     0
 72
     0
 77
     0
171
     0
175
     0
179
     0
273
     0
  0
XRECORD
  5
24
102
{ACAD_REACTORS
330
22
102
}
330
22
100
AcDbXrecord
280
     1
270
     1
271
     1
  0
XRECORD
  5
23
102
{ACAD_REACTORS
330
22
102
}
330
22
100
AcDbXrecord
280
     1
270
     1
271
     1
  0
XRECORD
  5
11C
102
{ACAD_REACTORS
330
22
102
}
330
22
100
AcDbXrecord
280
     1
 70
     1
 90
1959938040
 71
     1
  1
9691F2FE-5220-4B67-BE3B-2397A7C50696
311
504B03040A00000800007C6731403DEE336E79000000790000001B0000006175746F6465736B2D64657369676E2D7061636B6167652E786D6C3C3F786D6C2076657273696F6E3D22312E302220656E636F64696E673D227574662D3822203F3E3C666F726D6174733E3C666F726D61743E687474703A2F2F736368656D612E
311
6175746F6465736B2E636F6D2F64657369676E2D7061636B6167652F323030393C2F666F726D61743E3C2F666F726D6174733E504B03041400060808007C673140D486FD9CA0000000F4000000130000005B436F6E74656E745F54797065735D2E786D6C7D8EC10E82300C865F65E91D8A1E8C310C0EEA1BF002731658846E
311
D98AC1B77784ABF1D8FE5FBFBF75BBCE937A534CCEB38643598122B6FEE978D0B0485F9C41B54DDD7D022595594E1A469170414C76A4D9A4D207E29CF43ECE46F218070CC6BECC4078ACAA135ACF422C856C0E68EA1BF5669944DDD7BCDE7B1F8E415D77AECB980613C2E4AC91FC167A2B244592486606FC29C8FD7F045B9A
311
EF7053A7E60B504B03041400060808007C6731404D838330EA0000007C01000008000000636F72652E786D6C8D904D6EC3201085AF82D863034E1CC7C2444E529FA0174030715062B00C543D7E717EA476D7D58CDEBC6F66F4C4E17BBAA32F5882F5AEC3ACA01881D3DE58377638C50B69303A48B1781F7FD930726A820EAF
311
3296625C7C9A5F92F62E828B5975DEC04B542140C448DF73D3E1A0AF30A942A5981DE156CC4ADFD408057B77194EC91AF43C624DDE672F16162CF971C7FA66F8204DDFEFC9E6540DE4C8CE1BC2AB53CD58C38773D5887285A588767ADFD70BA80826F39471421961BB4FC6DBEDBEDDD684D62DA5A25CED7FA0349B7F42C9BA
311
58F1D7BB4F2C60C9F2238F8114E59A452E8FA0725D73933F504B03041400060808007C67314055019EA25F0000007C00000007000000636E782E786D6C4DCB3B0E80201045D1AD90E915ED2CF8AC45050C11660C8261F98AB1B07AC9C97D42D718D865D3E909258CFD00CCE24AC6E326A164D74DC0B4128928FF326038472B
311
A13128B1252AC747C6BAB984FC68F0B87FE8960A5C09FE86CFB69FBA01504B03041400060808007C67314091ACF26766010000020300000C0000006662782F636F72652E786D6C8D52ED8E8320107C15C27F44B41FB6419A7E5C9FE05E802AF54C150C82E9E3DFFAD178BD344D6382646667777694EFEE75853A65DBD2E814
311
B320C448E9CCE4A52E52ECDD952418ED04B7C6B83F65186959AB14F73016BCB0C637139419ED9476806A93AB09946DAB1C4659059714B7D98FAA6520BD838AF6163432BBC942052C001AEA046F9D0503681CD29F585C2F774E475C70EFCB7C62CB1CA695D752592CA2C39AED93F31749F6FB0D591CE33339B0D38244F171C5
311
58129D4F71C2692F16DC95F5C35D6695742A077DC8221232C2D6DF2CDA2E37DBE58A84AB6D1872DA973F897C937F28F2A5767134D91D652D160C8C0CC4BF6D2122875AD9811F2A38ED4384D790F073D0100884ECE4A57AEC7103A853993376014C6EFC4C75B2F20AA6866878381D59E83C3480CD5EF689DEF479DF033EA0D4
311
0558930EAE17EFFAE97C9C3A45D1284B3A7747DAD85A56B3B9D1E27CCE835ECA335319FB899A4EABD2294CDAFFBDE217504B03041400060808007C6731403ABF23B07E0000009D0000000B0000006662782F636E782E786D6C4DCCDD0AC22018C6F15B91F7DC7DB8F203D41159F7319A1B92D3701A5D7E5BECA0A3077E3CFC
311
65FF593C7ADBB4BA1814B45503C886471C5D9815943C610EA8D732C598FF6E80C2B058053B8396738AE575D068A7A1F8BCA977E17920379C192308A6A63DE313BD76585CEE04DFB86808618C30DA41AD65FD2B6DBB87F517504B03041400060808007C67314077133ABF2A01000014020000310000006662782F3844383744
311
4439322D364431352D343643332D394146322D4538393032323737323736332F636F72652E786D6C8D51CB6EC32010FC15C4293D6003F133C24455DD7E417F801892A2C460F1A8F2F985DA91DA5B2E2C9A9D991DEDB2E37DBE816FE5BCB66680A4C010283359A9CD6580319C5107C19133676DF84383C088590D30C390B38B
311
B371D9A0C99AA04C48A8B1526DA0F05E0508A65BFA0CD04F5F6A1685882131FCB558C4741517559022B5138F331F5C0A00D621F985BC1BBB761C7B8A9A91D4A86ADEF6A87FFDA0E8BDEB31A56D4BDB66CFCA55C8598C5A6E722D531C7DD6CA3D6B92C59C053D3FE24F4E89A024E414138A3041A4FD24F450F787BA41B83960
311
CCCA4CFF278A8B7C5214B5097BBAC55D651E72C2CAB5C199B4F1747B8451F7C5BA00F2BC9D57D30BE4B8C01457B4AB5A56AED4B480E4D9549BA70FD6A505EFAEA7C426F56ADC549C95F946A9FC1E30D57C4FFE03504B03041400060808007C6731401607CC164E01000033030000300000006662782F38443837444439322D
311
364431352D343643332D394146322D4538393032323737323736332F636E782E786D6CD593BD6E032110845F05D1DF0F8E7D492C0E4B29F20429D26258C7C41C9CF889E2B7CF6263C78D8B9469D0697698597DE2F8E67BB2E40B4234DE8D94B53D25E094D7C67D8C34A75DF344C946F0E07DBAB151E2E404232D3215FC23F8
311
3C5749C34E669B50B5C61DAA1820FA1C144494CB4D62BD921603C035194598B6A035687235E2D70E02AE82E2F648D21EC8EBCB3BF1DB4F5029F2AEA408DE950EC1CB599B6E4C94282B631C69547B98642B73F21AE2A1D532C996B597AE3B3BFD269172E152998321A57CA4E5A4A26ED42247DEE150F09802D2ABA6749C810A
311
39CFD62899107277329E3D8267E3D2B0AC5E83E003BAD9F0B05C62D8692678321354870A2013682A163D5B343D6BD8E31B5BAC57CFEBD5D0F4C3BAEF7957EC826FBDB7F512C640F03351DE2570890AC6BB32BE87AFFA88360159FB70FC034804505BCF74AE19FF994F777ADF882BE05F207E00504B03041400060808007C67
311
3140F07AD3CD9C0500007A100000340000006662782F38443837444439322D364431352D343643332D394146322D4538393032323737323736332F6F626A656374732E786D6CAD575D6FA33814FD2B887DCE0749DA4E56945193B4A368D499D14433DA874A910143BD3518D9A693EEAFDF633004D2A4CDAEE62504737D7DEF
311
B9E77ED8FFB8CBB8F34CA56222BF76BDE1D875681E8998E5E9B55BEA64F0C1753E06BE144277C45C272719BD76CDB21BF8A914656197629A9092EB83D5BBC55F8E8A684E5D27E244A96B57458F342343526A1153F5348C8926C334D90DBD612DD8579B4A523C1E282D88A4B986A558CFA1C5A98DF2FAAF637714F823F33DF0
311
CDAF959A9E961A55FEF4CF67B9D2248F5E1D76A066EACD56B7938BF9E062369B0E6697136FB0B85BAC06DED574BCBC5C2EE737B7731CACB484266B89A4891B7C02369245FEA8FE14F825CBF57462456C8046923E3313293798389E3FAA655AEFAC93C7CC8F449ED3A8C20A6854FE59D5312D681E23E68C2A58D64168DC7FF5
311
0C8E9DCF53F36E8FEC2E9F874077474751637BF3EC5A2AC2BFE1823A87415251C3C01A4BEB68CDD5F11EE150086EBF31E5644453C90877380B25912F6E00512312F83D3586C9D26483F1C00D1085FA739F2E48A3F7797ECCCAA4E4DCD0D80DAA2CD82257A8569565EC1F2AF7D67791814D889561C307EB907E29A81BCC6B8A
311
7C3860530DA493709222E470D3EC9C4E0E1C5D9A3C5DAFDCE0F35DB8DB98DC3D7E78214541A536F401B59AC0354F8392B5C93B2B7266837B60CA1E94EF40FE0B527D6F0AE226D96EB69BD953B424B94A84CC101B67EC0CC6F8193B5EF56BFE77FEF9A376733F7AA7F044B00D54BF01CFBE0FDD5876E00CFC67105EC8A9756D
311
13118EB271CF72006448E2708125D4E124DCB9C11A550E5519BB080F3CB80C739FF1D71F59352814D5499D670E2C0FCAE219051AB0558C841935F9AD81FB38BD2A67D5C156EC14BC17BF85AE37ABCDE74D291312D17B9BD32B9AB09C69B4B83D6FBA06F530EF79F4445F7E0919C3D1D7786FBA7867F62805B40DE606F8B4A9
311
E9E6657F72EF8008FB5261CA8DFFCE0970C234D68EFE7BA622CA39C9A9289B73DFEC1F681B35C426D90D93DB06B36F2C204DFDE52007D1A423C90A0362DBADDAA2393CE1DD8FF5173012F25C8484EF85C27DE98D0417721BBE6CEBAA7414E99F7D6A5B0846460BD85EE54893FE16F36DCC92A454A8814760FDB95E764367AA
311
022A44A3B54E9619DC476E116939DBE845B396048D54E45B86B689B43B7A40573F10B504A8149EB258519E6C19E765B64D184733DA66A43801C7FFB73F2CB3624B3251E6FA84EE9EE9680E7DDB7BE455BF888E1EDD60533D070B94DE98C6FB30F7844D2B3982552FB4F3CBB97737B9BB1D5C4C26E3C16C71793558DC4E1783
311
C9747E7573B5BC185FCE2F9B38D5CA03BFE934DD844694D0D9FC52321BBE1F6BA48FAD016E704FB47AF8546767F3FCB11E6214F647D88376D96EBC899F31F6D1F87D057BC9A38AD659C16946734D4C0ADD9B3FFC3BC198D133A65E5F6724A56768F9FA6973E00C56CED8F7CDA43BFD75B0D7AE2E4D421E55A21FCB2CCC09E3
311
071BD31AC96191A716BF2626EDB3EE33CDAB79B381C160AA046731CA60ECA4546454A3189ED183644615A8D71DE9637BF53863F7733D206A1272DA58F24830237385B400B5CA48F7D79D3F30D399B1EADA45B71D3EE1C7560AD70167AE5DCCE89A45540D43F467330955CAC1A5EE208FB99FE429C7A85D6F6ADFDB5D069B5E
311
476E45CE199FAC5F7505B70EA08C14181B300F213A9531815FD966BF47FFC9F1C61C8768FC0D4BDDFAB25F689DA98E418AD64ED9CB026698277BF40E89FAB65BDEB092E92172D625EB4D12D45A079AC8B4BA2818FBAC4937AB6F230C28CEFAAB53F032452CCFD7349014642E4D8283456085D559100DAA2EFF7CF826052EB2
311
9973C7408187A5C83291DB971B7B1176368FB8D6C60F280BD4DC47D4C364EC4D1EAA7B80BD9A6C43A2E890C4EA090B88A9642DC4BDC08391F565111DA8FED0CA8D4C100EB8B95E39B6A5CDA0D412A55B550D2C983872EA207BCC5DD2E44A57A078F32A30AA446182C4101FFC0B504B03041400060800007C67314000000000
311
0000000000000000350000006662782F38443837444439322D364431352D343643332D394146322D4538393032323737323736332F76657274696365732E62696E504B03041400060808007C673140F270F1330600000004000000360000006662782F38443837444439322D364431352D343643332D394146322D45383930
311
32323737323736332F747269616E676C65732E62696E636660600000504B03041400060800007C673140000000000000000000000000370000006662782F38443837444439322D364431352D343643332D394146322D4538393032323737323736332F617474726962757465732E62696E504B03041400060808007C673140
311
D5987DFC8F00000041010000360000006662782F38443837444439322D364431352D343643332D394146322D4538393032323737323736332F6469726563746F72792E786D6C858F410EC2201045AF4266AF15DDB800BA74E7C21B903225242D6328188F2FA5C4183471359997F9FF81E89FF3C41E1816475E02DF1F80A11F
311
C8386F25A438EECEC07A250251FC3803E6F58C12560C4AD840E95E91C151A72936F496F35732D860FE635F62C8F2DA16B505C545B74125BAA2FA9E05D7CC053D063734D5C7665FD55B6B8D15D5E9BFEAFD8490FFA45E504B03041400060808007C6731405E28ADA8FC000000A00100003B0000006662782F38443837444439
311
322D364431352D343643332D394146322D4538393032323737323736332F7265736F75726365732F636F72652E786D6C8D504B6E833010BD8AE5BD019B8410641C91204ED00B586642AC041BF953F5F835814AEDAE9B99D1FB689E1EBF7CCD2FF409CE6B6B5A4CB3022330CA8EDA4C2D8EE14E6A8C2E823B6BC32F194646CE
311
D0E215C6824FCEC665879435014C48A8B123ECA0F41E0246EA958E167BF58059663286A4F0CF6C91EA2927C86896E8A413DC079702A0EDC93AB170E06D740A3CCF3756F018F5B86BF4987EEABB068705BB9E68570F3DA9BBEE4C0EB7722057DA1F082B6F15A5351BFAB2E6F96A163CE8F927A37220038CC95F50460A4AE8E9
311
83B2E6786E8E1529AAA62878BECAFF98E232FED314B50925DBE36E368F054D41DE84E0F9DA575AEF32D35EBB15DF504B010214000A00000800007C6731403DEE336E79000000790000001B00000000000000000000000000000000006175746F6465736B2D64657369676E2D7061636B6167652E786D6C504B010214001400
311
060808007C673140D486FD9CA0000000F40000001300000000000000000000000000B20000005B436F6E74656E745F54797065735D2E786D6C504B010214001400060808007C6731404D838330EA0000007C010000080000000000000000000000000083010000636F72652E786D6C504B010214001400060808007C673140
311
55019EA25F0000007C000000070000000000000000000000000093020000636E782E786D6C504B010214001400060808007C67314091ACF26766010000020300000C00000000000000000000000000170300006662782F636F72652E786D6C504B010214001400060808007C6731403ABF23B07E0000009D0000000B000000
311
00000000000000000000A70400006662782F636E782E786D6C504B010214001400060808007C67314077133ABF2A0100001402000031000000000000000000000000004E0500006662782F38443837444439322D364431352D343643332D394146322D4538393032323737323736332F636F72652E786D6C504B0102140014
311
00060808007C6731401607CC164E010000330300003000000000000000000000000000C70600006662782F38443837444439322D364431352D343643332D394146322D4538393032323737323736332F636E782E786D6C504B010214001400060808007C673140F07AD3CD9C0500007A100000340000000000000000000000
311
0000630800006662782F38443837444439322D364431352D343643332D394146322D4538393032323737323736332F6F626A656374732E786D6C504B010214001400060800007C6731400000000000000000000000003500000000000000000000000000510E00006662782F38443837444439322D364431352D343643332D
311
394146322D4538393032323737323736332F76657274696365732E62696E504B010214001400060808007C673140F270F13306000000040000003600000000000000000000000000A40E00006662782F38443837444439322D364431352D343643332D394146322D4538393032323737323736332F747269616E676C65732E
311
62696E504B010214001400060800007C6731400000000000000000000000003700000000000000000000000000FE0E00006662782F38443837444439322D364431352D343643332D394146322D4538393032323737323736332F617474726962757465732E62696E504B010214001400060808007C673140D5987DFC8F0000
311
00410100003600000000000000000000000000530F00006662782F38443837444439322D364431352D343643332D394146322D4538393032323737323736332F6469726563746F72792E786D6C504B010214001400060808007C6731405E28ADA8FC000000A00100003B00000000000000000000000000361000006662782F
311
38443837444439322D364431352D343643332D394146322D4538393032323737323736332F7265736F75726365732F636F72652E786D6C504B0506000000000E000E00800400008B1100000000
310
504B03040A00000800007C6731403DEE336E79000000790000001B0000006175746F6465736B2D64657369676E2D7061636B6167652E786D6C3C3F786D6C2076657273696F6E3D22312E302220656E636F64696E673D227574662D3822203F3E3C666F726D6174733E3C666F726D61743E687474703A2F2F736368656D612E
310
6175746F6465736B2E636F6D2F64657369676E2D7061636B6167652F323030393C2F666F726D61743E3C2F666F726D6174733E504B03041400060808007C673140D486FD9CA0000000F4000000130000005B436F6E74656E745F54797065735D2E786D6C7D8EC10E82300C865F65E91D8A1E8C310C0EEA1BF002731658846E
310
D98AC1B77784ABF1D8FE5FBFBF75BBCE937A534CCEB38643598122B6FEE978D0B0485F9C41B54DDD7D022595594E1A469170414C76A4D9A4D207E29CF43ECE46F218070CC6BECC4078ACAA135ACF422C856C0E68EA1BF5669944DDD7BCDE7B1F8E415D77AECB980613C2E4AC91FC167A2B244592486606FC29C8FD7F045B9A
310
EF7053A7E60B504B03041400060808007C673140FDA514CEEA0000007C01000008000000636F72652E786D6C8D90D18E832010457F85CC3B0AA8680DD2C44DFB05FB0344684B5AC1086CF6F3175B9BECBEEDD34CEEDC3333B9E2F83D3FD0975983F56E005A1040C64D5E5B771D20C50BEE001DA558BD8FBF6C809C9ACD009B
310
0C525C579F965D9ABC8BC6C5AC3AAFCD2EAA104C04343D723340986E6656854A313BC2BD58D474575753D07797E194AC46AF2356E77DF662CD0AB21BCF75537D707C1E0F0DAE79CB71379E4EB86164E42DEB2A52B7A2DC6029A29DDFF7A7D5A86834484628C38462DA7E52D63787BEE198F09E10516EF63F505AF43FA1645D
310
ACD8FEEE0B0B20697EE43990A2DCB2C8E51954AE5B6EF207504B03041400060808007C67314055019EA25F0000007C00000007000000636E782E786D6C4DCB3B0E80201045D1AD90E915ED2CF8AC45050C11660C8261F98AB1B07AC9C97D42D718D865D3E909258CFD00CCE24AC6E326A164D74DC0B4128928FF326038472B
310
A13128B1252AC747C6BAB984FC68F0B87FE8960A5C09FE86CFB69FBA01504B03041400060808007C67314038D7A73566010000020300000C0000006662782F636F72652E786D6C8D52ED8E8320107C15C27F04ADDA8F509A78699FE05E802AF548151A04D3C7BFF5A3F17A699AC604C9CCCEEEEC283FDCDB06F5CA75DA9A3D
310
8E23869132A5ADB4A9F738F80BD9607410DC59EBFF94616464ABF67880B1E0B5B3E13643A5355E190FA8B1959A41D975CA63543670D9E3AEFC51AD8C64F050D15DA39B2CAFB256511C010D758277DE8101340D194E2C2EE73BA7132E7808BA9A595DC1347DD1CA61B1294E69B6FACAC9A9D86624CDD739D914C723C91256E4
310
EB64B362E99AD3412CB8D7EDC35DE994F4AAC222617142584CE2F5779CECB2ED2ECB09CB778C713A943F89C2ADFA5014B4F1AB64B63BC93A2C62303212FFB685883CEA640F7EA8E07408115E63C2CF41432010B297E7E6B1C715A05E95DEBA1498CA8685EA6513144C65687C389D58E83C3680CD5EF649DEF479DF033EA034
310
3558931EAEE7E087E97C9A3A4771538EF4FE8E8C75AD6C167393C5E55C06BD9497B6B1EE13359D57A5739874F87BC52F504B03041400060808007C673140FB9883697E0000009D0000000B0000006662782F636E782E786D6C4DCCD10A83201886E15B91FFDC552B9D03351CBAFB886521990EA76397BF1A1DECE883878F97
310
F79FD5A3B74D2F178380E65403B2E11147176601254F9801EA254F31E6BF1BA030AC56C0CE20F99C62791E34DA69283E6FEA5D580EBCB17B7D69AF1A2BA335EE282198A94E616A4C435BADCD9950A824AF7EA56DF7B0FC02504B03041400060808007C67314071465C3B2B01000014020000310000006662782F4238463037
310
3339442D414544442D343635352D384134412D3645453136334444453235362F636F72652E786D6C8D51CB6EC32010FC15C4293D6003B6C943982895DD2FE80F3898A42831583CAA7C7EA176A4F6960B8B66676647BBFCF898EEE05B39AFAD6921293004CA483B6A736D610C17B483E028B8B336FCA141608649B530C350F0
310
ABB3715E21694D502624D4D851ADE0E0BD0A10C87BFAB4D0CB2F350DC5104362F85B310FF2365C55418AD44E3CC17D7029005886E4178AF7DD07DE56FB0E9DFAAE43356B1AB43BD527C4FA9EB0AAEB7ADA305E2E42C163D4E32AD7638AA32F5AB9574DB258F0A0A7677CE9D410D40805C584224C10D97E127A68F6878621CC
310
0E18F332D3FF89E23CBE288ADA848AAE7117998782F07269083EDA78BE3FC3A8C76C5D0079DEC62BF906052E30AD082575C3CB859A16903C59BD7AFA605D5AF0E6764EEC6A3566B5E065BE512ABF074C35DF53FC00504B03041400060808007C67314070A003015501000033030000300000006662782F4238463037333944
310
2D414544442D343635352D384134412D3645453136334444453235362F636E782E786D6CBD93CD6EC32010845F0571F76F12378D30917AE813F4D02B864D4283C1025C356FDF2521692E3954AA7A41D6EC30B3FA84D9F66B34E4137CD0CEF6B4296B4AC04AA7B4DDF7748EBB624DC99633EF5CBCB35162C5083D4D32E56CEF
310
DD3C6549C14ECC26A26AB43D66D14370B39710504E37897152180C005BCC28C2388052A0C8CD885F3BF0B80A8AC389C40390D79777E2860F9031B02AA57056A50ECED2999BEE4C94482342E8699007184529E6E8148463A9441465535EBB1EECF49344D2856BE5EC3549E53D4D27E579A31239B20A879C85E8915E36C5D304
310
948B69325A8A8890ABB3F1E2E16CD63676CBECD508DEA37BD176EB35869D679C453D4276480F2282A2BCAD9BB6A89BA2797A6BDACDEA79B3EA8ABADBD435AB929DB3C139932F610C783711E96C041B296F5895C68FF0651F51DA236BE74FBF00890072EB85CE2DE32FF934DD62B9FC473ED5F97D232E8F7F01FF06504B0304
310
1400060808007C6731408A966C7359070000931B0000340000006662782F42384630373339442D414544442D343635352D384134412D3645453136334444453235362F6F626A656374732E786D6CED595B6FA33814FE2B887D0E0949DA99AC28A336BD285A756634D919ED4324E48043BD3506D9A697FDF57B7C81000D2DD9
310
E9BECD430218FBF89CEF5C7D083E3D65D479C05C909C9DB9BE37711DCCE23C212C3D734BB91B7D749D4F61C0F35C36A6B90E43193E73D5B01B0629CFCBC20E2578874A2A3BA3D7177F3922C60CBB4E4C911067AE88EF70863C54CA3CC1E2DE4B90445EBA7BF27CCF4C6C934D392AEE3A440BC43193C0298C33A0E218A6FCF6
310
E3C41D87C158BD0F03F56F67CD06CD9AF7CF1A6BA9DB5C12262462F10B963A646683589AF9F3CBABE9C96274329FCF46F3D3A93FBAB8BEB81CF91F6693E5E972B938BF5A007BDB3CA756A604179825A0BF6737F483B17A538B6E1138C4759C3386630D2440A5C5EA122458C0560DF826ED475F49D478AD256C3CCFD57BCB42
310
6378D6A6D2376B18102DBA2088DDAE92B8BA36E5CBB77F83E0628851728125702B2407ED5A783878851B4E82B1190D83ED5E17443819929813441D4AB61C71500A4C5553C2C02CB06494737020E52809B4E6CCEBB66D8167BEED3A87B8DC95942ACF7043ED5811B81F96427346FEC17CCF7D1319E009A42D09931F2D97F2B9
310
C06EB808C67A300CD46536B52F0D90CE8EA2546844CCDB8EA04BE5FAAB4B37FCE37AFBB456E1E0F0E605CF0BCCA5323AA547CD1718B2BD2A94ECB6FE20CDA905208C01D5AEDC83F20D90FF0CD163CF0AE88D93A7F9D3DCCE951C31B1CB7906BA7126CE68027F13C7D7FFEABE71178CEBC56DEDF5E1096EAAA0FAF8F378B665
310
D05859FE1B7086C103187CCE67F6D53A4614ECF996300048198943731882D0BEDB3EB9E10A0227047A588568E883C8C0EE03DC06634B66AF95CABDACD73140D4EE311BA224804D5B24B0D1A3A71BC81E9CC47B353545EC83F7E45DCCF5FC72FDC7BAE43B14E35BEBD3977847189190350F33D4C2BC25D13D7E7ECC790282BE
310
C47BDDC43BB35B09405B61AE804F2B10D4C37EE7D60631AC4B73156E823776002154AE6ED0BF2522C6942286F3B2DAB78E6ECA506B8FB735831B4E0DC4B369C784397E20AAAA00A7D9CF68310A793FE6A45020BAE18D91AC0E9A5E8F74DF579FC122EBF93DB3560C422F43F44F1DB40EE0D0B2EC0A690B442DF0761FCEE39C
310
E63CDA3E4726D2B9504B001B6D6FF9D1220AB1DE284951010FD27E578594D4481B2564B72B05C4D5032CFE582D9BE630F166FE89D3FCEF38E31CA22DF82EE2D6EF3A7B442443298E7628E9DBAEB95B4D5B68923DA439DE51908B3C10F91C21194D129C1E03CD51C417EF4A3DA5B910846101F9EA20F84D34261E0412A3CD8A
310
65A5D50ED044441996881E838022D303AE4E3BBAC68DA174789BC7DA7A5FD35893E8FF64111C412D99B38840290A39E44DC67DEF0462481B5D8372075FB0B68AB61683965042C4CFD12326E99D3C067543BE07F7188E24A58CF202C560D603C8BEF015A5D40EEF5B14DFABFC11C5257D2F031198EE2242699945F0230C4E1E
310
435CBB0E4CAFA2D0206E629FC419146548967CC826A7279317FB989AA11B021B1BED0885B01D65A8E841BD1510753DE2D4E05BEA3D4ADD965911A12C2FD92043F1665D6FB2E4BB6A556407F2AB4A45281B2BC29660181026EBAC5AC56C30751D58C18D74A07A8E04CA0A6A4E616F241EBFF6264DB977036EFDF47D37C8A0F0
310
EBD15E33A2CE2B182C8FADC2403C2219DFB9E15A5F4717507F2738D9A7FAAAD66C568080988AE425275645DF5750DED81ACD0D6F91149B1B9375ABEBF79507DD8F600C6BA076A917AE14D0196612A9CAE456DDD06F0842708B86195FA99C7A0C95F324D15523A2D7A44F9DAD32A2B56946BCE20EB33C831FDB1016D332C11B
310
9488FBE856D2684D14EB564A2F2315C6AF0AF8E566DD8107460688F4551578F8B1B3D68E2E55B9749088BC2BB32D430482604BB4D4E8C62B586A355269B9BEAA3305D45D606056C5F35F278B663BE2D7C922B586F173270B9A6F11DD479B46368F95591F750AA8D393A2F21EA700DD75A8A9D649C4E4722BBEF5A508626215
310
E407176355CC3004FB38FECF49BB2F099AED3AFC1F97B4FD1705C75149A5355935A90E14AEAB660A5B9C2EFCEBE9F5D5E8643A9D8CE617A71F461757B38BD174B6F870FE617932395D9CD6686A3F0D833A96E9D405CF26A655C3EAC962004D59915392C0613E71520C215FC2917E40F79C675840EE6CF6BA13DB931FB0FAC1
310
B43925DA525C717287A03F4C056475C0A88C657BDCF90D3A9312CED9672EF48CBC7BF8B356E93A9078CE5CE814481263E16DA1CBA4FA799A38645C9DFA2D31C007B1546544B3A87EAE57296C5AD1BF9E32240B58B95A2D0CA8DB0A687EB51A149A37CB537C94E0153B0E9270BB2D25146B4696FD402D8CDE66AF7E231B25EC
310
DE6EFD04AEFBBA58BEA7E7B41019F4C5E0552330544712F154B7BB156396A5F3CBAF6368B339AB2F4E41CB1474399CD2886330E652D553604560159666812498EAF2F7CD579EC3179ECCD145D166996759CEECC3391CC712F842E4ACEFE07B4FB281AA01ABAEBAD84C27FE74A3BBD9B6C11E6D91C09E2A8760A0AA2294081D
310
63038B7CD199B27DCBB1524267FAEAD2B1E113BA00C6825E3477CDD72D07BC477D4751BEA23DBC92F3D586F6584F056BE0D08A0EFF05504B03041400060800007C673140000000000000000000000000350000006662782F42384630373339442D414544442D343635352D384134412D3645453136334444453235362F7665
310
7274696365732E62696E504B03041400060808007C673140F270F1330600000004000000360000006662782F42384630373339442D414544442D343635352D384134412D3645453136334444453235362F747269616E676C65732E62696E636660600000504B03041400060800007C67314000000000000000000000000037
310
0000006662782F42384630373339442D414544442D343635352D384134412D3645453136334444453235362F617474726962757465732E62696E504B03041400060808007C673140D5987DFC8F00000041010000360000006662782F42384630373339442D414544442D343635352D384134412D3645453136334444453235
310
362F6469726563746F72792E786D6C858F410EC2201045AF4266AF15DDB800BA74E7C21B903225242D6328188F2FA5C4183471359997F9FF81E89FF3C41E1816475E02DF1F80A11FC8386F25A438EECEC07A250251FC3803E6F58C12560C4AD840E95E91C151A72936F496F35732D860FE635F62C8F2DA16B505C545B74125
310
BAA2FA9E05D7CC053D063734D5C7665FD55B6B8D15D5E9BFEAFD8490FFA45E504B03041400060808007C673140954F49FFFC000000A00100003B0000006662782F42384630373339442D414544442D343635352D384134412D3645453136334444453235362F7265736F75726365732F636F72652E786D6C8D50596AC33010
310
BD8A997FD992F718590197E404BD809027A9482C192DA5C7AF1CBBD0FEF56766780BF378FCFCB53CB34F745E5B3302CB296468949DB5B98F10C38DF4909D0577D6865F32C88C5C70840D06C1EFCEC6F5809435014D48A8B1331EA0F41E0364EA998E11BCFAC045E63286A4F08F7C95EA21EF98B33CD14927B80F2E05C8F627
310
DB04E1D0DBE8147A5EECACE031EAF9D0E839FDD4378D0E443F5DEBA67A6BC8753A35A46EBB96F4D3E5429A924E6D57F615AD3B5E6C66C1835E7E322A8732E00CA2A4AC249411D6BDB372684E43D312DA0E94F26293FF31C575FEA7296A13AAF288BBDB3C089682BC08C18BADAFB45E65A6BD752BBE01504B010214000A0000
310
0800007C6731403DEE336E79000000790000001B00000000000000000000000000000000006175746F6465736B2D64657369676E2D7061636B6167652E786D6C504B010214001400060808007C673140D486FD9CA0000000F40000001300000000000000000000000000B20000005B436F6E74656E745F54797065735D2E78
310
6D6C504B010214001400060808007C673140FDA514CEEA0000007C010000080000000000000000000000000083010000636F72652E786D6C504B010214001400060808007C67314055019EA25F0000007C000000070000000000000000000000000093020000636E782E786D6C504B010214001400060808007C67314038D7
310
A73566010000020300000C00000000000000000000000000170300006662782F636F72652E786D6C504B010214001400060808007C673140FB9883697E0000009D0000000B00000000000000000000000000A70400006662782F636E782E786D6C504B010214001400060808007C67314071465C3B2B010000140200003100
310
0000000000000000000000004E0500006662782F42384630373339442D414544442D343635352D384134412D3645453136334444453235362F636F72652E786D6C504B010214001400060808007C67314070A0030155010000330300003000000000000000000000000000C80600006662782F42384630373339442D414544
310
442D343635352D384134412D3645453136334444453235362F636E782E786D6C504B010214001400060808007C6731408A966C7359070000931B000034000000000000000000000000006B0800006662782F42384630373339442D414544442D343635352D384134412D3645453136334444453235362F6F626A656374732E
310
786D6C504B010214001400060800007C6731400000000000000000000000003500000000000000000000000000161000006662782F42384630373339442D414544442D343635352D384134412D3645453136334444453235362F76657274696365732E62696E504B010214001400060808007C673140F270F1330600000004
310
0000003600000000000000000000000000691000006662782F42384630373339442D414544442D343635352D384134412D3645453136334444453235362F747269616E676C65732E62696E504B010214001400060800007C6731400000000000000000000000003700000000000000000000000000C31000006662782F4238
310
4630373339442D414544442D343635352D384134412D3645453136334444453235362F617474726962757465732E62696E504B010214001400060808007C673140D5987DFC8F000000410100003600000000000000000000000000181100006662782F42384630373339442D414544442D343635352D384134412D36454531
310
36334444453235362F6469726563746F72792E786D6C504B010214001400060808007C673140954F49FFFC000000A00100003B00000000000000000000000000FB1100006662782F42384630373339442D414544442D343635352D384134412D3645453136334444453235362F7265736F75726365732F636F72652E786D6C
310
504B0506000000000E000E0080040000501300000000
  0
XRECORD
  5
27
102
{ACAD_REACTORS
330
22
102
}
330
22
100
AcDbXrecord
280
     1
270
     1
271
     1
  0
XRECORD
  5
26
102
{ACAD_REACTORS
330
22
102
}
330
22
100
AcDbXrecord
280
     1
270
     1
271
     1
  0
XRECORD
  5
28
102
{ACAD_REACTORS
330
22
102
}
330
22
100
AcDbXrecord
280
     1
270
     1
271
     1
  0
XRECORD
  5
25
102
{ACAD_REACTORS
330
22
102
}
330
22
100
AcDbXrecord
280
     1
270
     1
271
     1
  0
XRECORD
  5
F1C
102
{ACAD_REACTORS
330
F1B
102
}
330
F1B
100
AcDbXrecord
280
     1
102
ACAD_ROUNDTRIP_2012_MLEADER_STYLE
298
     1
  0
CELLSTYLEMAP
  5
F1A
102
{ACAD_REACTORS
330
F19
102
}
330
F19
100
AcDbCellStyleMap
 90
        3
300
CELLSTYLE
  1
TABLEFORMAT_BEGIN
 90
        5
170
     1
 91
        0
 92
    32768
 62
   257
 93
        1
300
CONTENTFORMAT
  1
CONTENTFORMAT_BEGIN
 90
        0
 91
        0
 92
      512
 93
        0
300

 40
0.0
140
1.0
 94
        5
 62
     0
340
55
144
0.25
309
CONTENTFORMAT_END
171
     0
 94
        0
309
TABLEFORMAT_END
  1
CELLSTYLE_BEGIN
 90
        1
 91
        1
300
_TITLE
309
CELLSTYLE_END
300
CELLSTYLE
  1
TABLEFORMAT_BEGIN
 90
        5
170
     1
 91
        0
 92
        0
 62
   257
 93
        1
300
CONTENTFORMAT
  1
CONTENTFORMAT_BEGIN
 90
        0
 91
        0
 92
      512
 93
        0
300

 40
0.0
140
1.0
 94
        5
 62
     0
340
55
144
0.18
309
CONTENTFORMAT_END
171
     0
 94
        0
309
TABLEFORMAT_END
  1
CELLSTYLE_BEGIN
 90
        2
 91
        1
300
_HEADER
309
CELLSTYLE_END
300
CELLSTYLE
  1
TABLEFORMAT_BEGIN
 90
        5
170
     1
 91
        0
 92
        0
 62
   257
 93
        1
300
CONTENTFORMAT
  1
CONTENTFORMAT_BEGIN
 90
        0
 91
        0
 92
      512
 93
        0
300

 40
0.0
140
1.0
 94
        2
 62
     0
340
55
144
0.18
309
CONTENTFORMAT_END
171
     0
 94
        0
309
TABLEFORMAT_END
  1
CELLSTYLE_BEGIN
 90
        3
 91
        2
300
_DATA
309
CELLSTYLE_END
  0
XRECORD
  5
F53
102
{ACAD_REACTORS
330
F19
102
}
330
F19
100
AcDbXrecord
280
     1
102
ACAD_ROUNDTRIP_PRE2007_TABLESTYLE
 90
      512
 91
        0
  1

 92
      512
 93
        0
  2

 94
      512
 95
        0
  3

  0
XRECORD
  5
F2E
102
{ACAD_REACTORS
330
F2D
102
}
330
F2D
100
AcDbXrecord
280
     1
102
RTVSPropertyOp0
 70
     1
102
RTVSPropertyOp1
 70
     1
102
RTVSPropertyOp2
 70
     1
102
RTVSPropertyOp3
 70
     1
102
RTVSPropertyOp4
 70
     1
102
RTVSPropertyOp5
 70
     1
102
RTVSPropertyOp6
 70
     1
102
RTVSPropertyOp7
 70
     1
102
RTVSPropertyOp8
 70
     1
102
RTVSPropertyOp9
 70
     1
102
RTVSPropertyOp10
 70
     1
102
RTVSPropertyOp11
 70
     1
102
RTVSPropertyOp12
 70
     1
102
RTVSPropertyOp13
 70
     1
102
RTVSPropertyOp14
 70
     1
102
RTVSPropertyOp15
 70
     1
102
RTVSPropertyOp16
 70
     1
102
RTVSPropertyOp17
 70
     1
102
RTVSPropertyOp18
 70
     1
102
RTVSPropertyOp19
 70
     1
102
RTVSPropertyOp20
 70
     1
102
RTVSPropertyOp21
 70
     1
102
RTVSPropertyOp22
 70
     1
102
RTVSPropertyOp23
 70
     1
102
RTVSPropertyOp24
 70
     1
102
RTVSPropertyOp25
 70
     1
102
RTVSPropertyOp26
 70
     1
102
RTVSPropertyOp27
 70
     1
102
RTVSPropertyOp28
 70
     1
102
RTVSPropertyOp29
 70
     1
102
RTVSPropertyOp30
 70
     1
102
RTVSPropertyOp31
 70
     1
102
RTVSPropertyOp32
 70
     1
  0
XRECORD
  5
F2C
102
{ACAD_REACTORS
330
F2B
102
}
330
F2B
100
AcDbXrecord
280
     1
102
RTVSPropertyOp0
 70
     1
102
RTVSPropertyOp1
 70
     1
102
RTVSPropertyOp2
 70
     1
102
RTVSPropertyOp3
 70
     1
102
RTVSPropertyOp4
 70
     1
102
RTVSPropertyOp5
 70
     1
102
RTVSPropertyOp6
 70
     1
102
RTVSPropertyOp7
 70
     1
102
RTVSPropertyOp8
 70
     1
102
RTVSPropertyOp9
 70
     1
102
RTVSPropertyOp10
 70
     1
102
RTVSPropertyOp11
 70
     1
102
RTVSPropertyOp12
 70
     1
102
RTVSPropertyOp13
 70
     1
102
RTVSPropertyOp14
 70
     1
102
RTVSPropertyOp15
 70
     1
102
RTVSPropertyOp16
 70
     1
102
RTVSPropertyOp17
 70
     1
102
RTVSPropertyOp18
 70
     1
102
RTVSPropertyOp19
 70
     1
102
RTVSPropertyOp20
 70
     1
102
RTVSPropertyOp21
 70
     1
102
RTVSPropertyOp22
 70
     1
102
RTVSPropertyOp23
 70
     1
102
RTVSPropertyOp24
 70
     1
102
RTVSPropertyOp25
 70
     1
102
RTVSPropertyOp26
 70
     1
102
RTVSPropertyOp27
 70
     1
102
RTVSPropertyOp28
 70
     1
102
RTVSPropertyOp29
 70
     1
102
RTVSPropertyOp30
 70
     1
102
RTVSPropertyOp31
 70
     1
102
RTVSPropertyOp32
 70
     1
  0
XRECORD
  5
F3A
102
{ACAD_REACTORS
330
F39
102
}
330
F39
100
AcDbXrecord
280
     1
102
RTVSPropertyOp0
 70
     1
102
RTVSPropertyOp1
 70
     1
102
RTVSPropertyOp2
 70
     1
102
RTVSPropertyOp3
 70
     1
102
RTVSPropertyOp4
 70
     1
102
RTVSPropertyOp5
 70
     1
102
RTVSPropertyOp6
 70
     1
102
RTVSPropertyOp7
 70
     1
102
RTVSPropertyOp8
 70
     1
102
RTVSPropertyOp9
 70
     1
102
RTVSPropertyOp10
 70
     1
102
RTVSPropertyOp11
 70
     1
102
RTVSPropertyOp12
 70
     1
102
RTVSPropertyOp13
 70
     1
102
RTVSPropertyOp14
 70
     1
102
RTVSPropertyOp15
 70
     1
102
RTVSPropertyOp16
 70
     1
102
RTVSPropertyOp17
 70
     1
102
RTVSPropertyOp18
 70
     1
102
RTVSPropertyOp19
 70
     1
102
RTVSPropertyOp20
 70
     1
102
RTVSPropertyOp21
 70
     1
102
RTVSPropertyOp22
 70
     1
102
RTVSPropertyOp23
 70
     1
102
RTVSPropertyOp24
 70
     1
102
RTVSPropertyOp25
 70
     1
102
RTVSPropertyOp26
 70
     1
102
RTVSPropertyOp27
 70
     1
102
RTVSPropertyOp28
 70
     1
102
RTVSPropertyOp29
 70
     1
102
RTVSPropertyOp30
 70
     1
102
RTVSPropertyOp31
 70
     1
102
RTVSPropertyOp32
 70
     1
  0
XRECORD
  5
F42
102
{ACAD_REACTORS
330
F41
102
}
330
F41
100
AcDbXrecord
280
     1
102
RTVSPropertyOp0
 70
     1
102
RTVSPropertyOp1
 70
     1
102
RTVSPropertyOp2
 70
     1
102
RTVSPropertyOp3
 70
     1
102
RTVSPropertyOp4
 70
     1
102
RTVSPropertyOp5
 70
     1
102
RTVSPropertyOp6
 70
     1
102
RTVSPropertyOp7
 70
     1
102
RTVSPropertyOp8
 70
     1
102
RTVSPropertyOp9
 70
     1
102
RTVSPropertyOp10
 70
     1
102
RTVSPropertyOp11
 70
     1
102
RTVSPropertyOp12
 70
     1
102
RTVSPropertyOp13
 70
     1
102
RTVSPropertyOp14
 70
     1
102
RTVSPropertyOp15
 70
     1
102
RTVSPropertyOp16
 70
     1
102
RTVSPropertyOp17
 70
     1
102
RTVSPropertyOp18
 70
     1
102
RTVSPropertyOp19
 70
     1
102
RTVSPropertyOp20
 70
     1
102
RTVSPropertyOp21
 70
     1
102
RTVSPropertyOp22
 70
     1
102
RTVSPropertyOp23
 70
     1
102
RTVSPropertyOp24
 70
     1
102
RTVSPropertyOp25
 70
     1
102
RTVSPropertyOp26
 70
     1
102
RTVSPropertyOp27
 70
     1
102
RTVSPropertyOp28
 70
     1
102
RTVSPropertyOp29
 70
     1
102
RTVSPropertyOp30
 70
     1
102
RTVSPropertyOp31
 70
     1
102
RTVSPropertyOp32
 70
     1
  0
XRECORD
  5
F34
102
{ACAD_REACTORS
330
F33
102
}
330
F33
100
AcDbXrecord
280
     1
102
RTVSPropertyOp0
 70
     1
102
RTVSPropertyOp1
 70
     1
102
RTVSPropertyOp2
 70
     1
102
RTVSPropertyOp3
 70
     1
102
RTVSPropertyOp4
 70
     1
102
RTVSPropertyOp5
 70
     1
102
RTVSPropertyOp6
 70
     1
102
RTVSPropertyOp7
 70
     1
102
RTVSPropertyOp8
 70
     1
102
RTVSPropertyOp9
 70
     1
102
RTVSPropertyOp10
 70
     1
102
RTVSPropertyOp11
 70
     1
102
RTVSPropertyOp12
 70
     1
102
RTVSPropertyOp13
 70
     1
102
RTVSPropertyOp14
 70
     1
102
RTVSPropertyOp15
 70
     1
102
RTVSPropertyOp16
 70
     1
102
RTVSPropertyOp17
 70
     1
102
RTVSPropertyOp18
 70
     1
102
RTVSPropertyOp19
 70
     1
102
RTVSPropertyOp20
 70
     1
102
RTVSPropertyOp21
 70
     1
102
RTVSPropertyOp22
 70
     1
102
RTVSPropertyOp23
 70
     1
102
RTVSPropertyOp24
 70
     1
102
RTVSPropertyOp25
 70
     1
102
RTVSPropertyOp26
 70
     1
102
RTVSPropertyOp27
 70
     1
102
RTVSPropertyOp28
 70
     1
102
RTVSPropertyOp29
 70
     1
102
RTVSPropertyOp30
 70
     1
102
RTVSPropertyOp31
 70
     1
102
RTVSPropertyOp32
 70
     1
  0
XRECORD
  5
F38
102
{ACAD_REACTORS
330
F37
102
}
330
F37
100
AcDbXrecord
280
     1
102
RTVSPropertyOp0
 70
     1
102
RTVSPropertyOp1
 70
     1
102
RTVSPropertyOp2
 70
     1
102
RTVSPropertyOp3
 70
     1
102
RTVSPropertyOp4
 70
     1
102
RTVSPropertyOp5
 70
     1
102
RTVSPropertyOp6
 70
     1
102
RTVSPropertyOp7
 70
     1
102
RTVSPropertyOp8
 70
     1
102
RTVSPropertyOp9
 70
     1
102
RTVSPropertyOp10
 70
     1
102
RTVSPropertyOp11
 70
     1
102
RTVSPropertyOp12
 70
     1
102
RTVSPropertyOp13
 70
     1
102
RTVSPropertyOp14
 70
     1
102
RTVSPropertyOp15
 70
     1
102
RTVSPropertyOp16
 70
     1
102
RTVSPropertyOp17
 70
     1
102
RTVSPropertyOp18
 70
     1
102
RTVSPropertyOp19
 70
     1
102
RTVSPropertyOp20
 70
     1
102
RTVSPropertyOp21
 70
     1
102
RTVSPropertyOp22
 70
     1
102
RTVSPropertyOp23
 70
     1
102
RTVSPropertyOp24
 70
     1
102
RTVSPropertyOp25
 70
     1
102
RTVSPropertyOp26
 70
     1
102
RTVSPropertyOp27
 70
     1
102
RTVSPropertyOp28
 70
     1
102
RTVSPropertyOp29
 70
     1
102
RTVSPropertyOp30
 70
     1
102
RTVSPropertyOp31
 70
     1
102
RTVSPropertyOp32
 70
     1
  0
XRECORD
  5
F52
102
{ACAD_REACTORS
330
F51
102
}
330
F51
100
AcDbXrecord
280
     1
102
RTVSPropertyOp0
 70
     0
102
RTVSPropertyOp1
 70
     0
102
RTVSPropertyOp2
 70
     0
102
RTVSPropertyOp3
 70
     0
102
RTVSPropertyOp4
 70
     0
102
RTVSPropertyOp5
 70
     0
102
RTVSPropertyOp6
 70
     0
102
RTVSPropertyOp7
 70
     0
102
RTVSPropertyOp8
 70
     0
102
RTVSPropertyOp9
 70
     0
102
RTVSPropertyOp10
 70
     0
102
RTVSPropertyOp11
 70
     0
102
RTVSPropertyOp12
 70
     0
102
RTVSPropertyOp13
 70
     0
102
RTVSPropertyOp14
 70
     2
102
RTVSPropertyOp15
 70
     0
102
RTVSPropertyOp16
 70
     0
102
RTVSPropertyOp17
 70
     0
102
RTVSPropertyOp18
 70
     0
102
RTVSPropertyOp19
 70
     0
102
RTVSPropertyOp20
 70
     0
102
RTVSPropertyOp21
 70
     0
102
RTVSPropertyOp22
 70
     0
102
RTVSPropertyOp23
 70
     0
102
RTVSPropertyOp24
 70
     0
102
RTVSPropertyOp25
 70
     0
102
RTVSPropertyOp26
 70
     0
102
RTVSPropertyOp27
 70
     0
102
RTVSPropertyOp28
 70
     1
102
RTVSPropertyOp29
 70
     1
102
RTVSPropertyOp30
 70
     1
102
RTVSPropertyOp31
 70
     1
102
RTVSPropertyOp32
 70
     1
  0
XRECORD
  5
F40
102
{ACAD_REACTORS
330
F3F
102
}
330
F3F
100
AcDbXrecord
280
     1
102
RTVSPropertyOp0
 70
     1
102
RTVSPropertyOp1
 70
     1
102
RTVSPropertyOp2
 70
     1
102
RTVSPropertyOp3
 70
     1
102
RTVSPropertyOp4
 70
     1
102
RTVSPropertyOp5
 70
     1
102
RTVSPropertyOp6
 70
     1
102
RTVSPropertyOp7
 70
     1
102
RTVSPropertyOp8
 70
     1
102
RTVSPropertyOp9
 70
     1
102
RTVSPropertyOp10
 70
     1
102
RTVSPropertyOp11
 70
     1
102
RTVSPropertyOp12
 70
     1
102
RTVSPropertyOp13
 70
     1
102
RTVSPropertyOp14
 70
     1
102
RTVSPropertyOp15
 70
     1
102
RTVSPropertyOp16
 70
     1
102
RTVSPropertyOp17
 70
     1
102
RTVSPropertyOp18
 70
     1
102
RTVSPropertyOp19
 70
     1
102
RTVSPropertyOp20
 70
     1
102
RTVSPropertyOp21
 70
     1
102
RTVSPropertyOp22
 70
     1
102
RTVSPropertyOp23
 70
     1
102
RTVSPropertyOp24
 70
     1
102
RTVSPropertyOp25
 70
     1
102
RTVSPropertyOp26
 70
     1
102
RTVSPropertyOp27
 70
     1
102
RTVSPropertyOp28
 70
     1
102
RTVSPropertyOp29
 70
     1
102
RTVSPropertyOp30
 70
     1
102
RTVSPropertyOp31
 70
     1
102
RTVSPropertyOp32
 70
     1
  0
XRECORD
  5
F24
102
{ACAD_REACTORS
330
F23
102
}
330
F23
100
AcDbXrecord
280
     1
102
RTVSPropertyOp0
 70
     1
102
RTVSPropertyOp1
 70
     1
102
RTVSPropertyOp2
 70
     1
102
RTVSPropertyOp3
 70
     1
102
RTVSPropertyOp4
 70
     1
102
RTVSPropertyOp5
 70
     1
102
RTVSPropertyOp6
 70
     1
102
RTVSPropertyOp7
 70
     1
102
RTVSPropertyOp8
 70
     1
102
RTVSPropertyOp9
 70
     1
102
RTVSPropertyOp10
 70
     1
102
RTVSPropertyOp11
 70
     1
102
RTVSPropertyOp12
 70
     1
102
RTVSPropertyOp13
 70
     1
102
RTVSPropertyOp14
 70
     1
102
RTVSPropertyOp15
 70
     1
102
RTVSPropertyOp16
 70
     1
102
RTVSPropertyOp17
 70
     1
102
RTVSPropertyOp18
 70
     1
102
RTVSPropertyOp19
 70
     1
102
RTVSPropertyOp20
 70
     1
102
RTVSPropertyOp21
 70
     1
102
RTVSPropertyOp22
 70
     1
102
RTVSPropertyOp23
 70
     1
102
RTVSPropertyOp24
 70
     1
102
RTVSPropertyOp25
 70
     1
102
RTVSPropertyOp26
 70
     1
102
RTVSPropertyOp27
 70
     1
102
RTVSPropertyOp28
 70
     1
102
RTVSPropertyOp29
 70
     1
102
RTVSPropertyOp30
 70
     1
102
RTVSPropertyOp31
 70
     1
102
RTVSPropertyOp32
 70
     1
  0
XRECORD
  5
F26
102
{ACAD_REACTORS
330
F25
102
}
330
F25
100
AcDbXrecord
280
     1
102
RTVSPropertyOp0
 70
     1
102
RTVSPropertyOp1
 70
     1
102
RTVSPropertyOp2
 70
     1
102
RTVSPropertyOp3
 70
     1
102
RTVSPropertyOp4
 70
     1
102
RTVSPropertyOp5
 70
     1
102
RTVSPropertyOp6
 70
     1
102
RTVSPropertyOp7
 70
     1
102
RTVSPropertyOp8
 70
     1
102
RTVSPropertyOp9
 70
     1
102
RTVSPropertyOp10
 70
     1
102
RTVSPropertyOp11
 70
     1
102
RTVSPropertyOp12
 70
     1
102
RTVSPropertyOp13
 70
     1
102
RTVSPropertyOp14
 70
     1
102
RTVSPropertyOp15
 70
     1
102
RTVSPropertyOp16
 70
     1
102
RTVSPropertyOp17
 70
     1
102
RTVSPropertyOp18
 70
     1
102
RTVSPropertyOp19
 70
     1
102
RTVSPropertyOp20
 70
     1
102
RTVSPropertyOp21
 70
     1
102
RTVSPropertyOp22
 70
     1
102
RTVSPropertyOp23
 70
     1
102
RTVSPropertyOp24
 70
     1
102
RTVSPropertyOp25
 70
     1
102
RTVSPropertyOp26
 70
     1
102
RTVSPropertyOp27
 70
     1
102
RTVSPropertyOp28
 70
     1
102
RTVSPropertyOp29
 70
     1
102
RTVSPropertyOp30
 70
     1
102
RTVSPropertyOp31
 70
     1
102
RTVSPropertyOp32
 70
     1
  0
XRECORD
  5
F28
102
{ACAD_REACTORS
330
F27
102
}
330
F27
100
AcDbXrecord
280
     1
102
RTVSPropertyOp0
 70
     1
102
RTVSPropertyOp1
 70
     1
102
RTVSPropertyOp2
 70
     1
102
RTVSPropertyOp3
 70
     1
102
RTVSPropertyOp4
 70
     1
102
RTVSPropertyOp5
 70
     1
102
RTVSPropertyOp6
 70
     1
102
RTVSPropertyOp7
 70
     1
102
RTVSPropertyOp8
 70
     1
102
RTVSPropertyOp9
 70
     1
102
RTVSPropertyOp10
 70
     1
102
RTVSPropertyOp11
 70
     1
102
RTVSPropertyOp12
 70
     1
102
RTVSPropertyOp13
 70
     1
102
RTVSPropertyOp14
 70
     1
102
RTVSPropertyOp15
 70
     1
102
RTVSPropertyOp16
 70
     1
102
RTVSPropertyOp17
 70
     1
102
RTVSPropertyOp18
 70
     1
102
RTVSPropertyOp19
 70
     1
102
RTVSPropertyOp20
 70
     1
102
RTVSPropertyOp21
 70
     1
102
RTVSPropertyOp22
 70
     1
102
RTVSPropertyOp23
 70
     1
102
RTVSPropertyOp24
 70
     1
102
RTVSPropertyOp25
 70
     1
102
RTVSPropertyOp26
 70
     1
102
RTVSPropertyOp27
 70
     1
102
RTVSPropertyOp28
 70
     1
102
RTVSPropertyOp29
 70
     1
102
RTVSPropertyOp30
 70
     1
102
RTVSPropertyOp31
 70
     1
102
RTVSPropertyOp32
 70
     1
  0
XRECORD
  5
F2A
102
{ACAD_REACTORS
330
F29
102
}
330
F29
100
AcDbXrecord
280
     1
102
RTVSPropertyOp0
 70
     1
102
RTVSPropertyOp1
 70
     1
102
RTVSPropertyOp2
 70
     1
102
RTVSPropertyOp3
 70
     1
102
RTVSPropertyOp4
 70
     1
102
RTVSPropertyOp5
 70
     1
102
RTVSPropertyOp6
 70
     1
102
RTVSPropertyOp7
 70
     1
102
RTVSPropertyOp8
 70
     1
102
RTVSPropertyOp9
 70
     1
102
RTVSPropertyOp10
 70
     1
102
RTVSPropertyOp11
 70
     1
102
RTVSPropertyOp12
 70
     1
102
RTVSPropertyOp13
 70
     1
102
RTVSPropertyOp14
 70
     1
102
RTVSPropertyOp15
 70
     1
102
RTVSPropertyOp16
 70
     1
102
RTVSPropertyOp17
 70
     1
102
RTVSPropertyOp18
 70
     1
102
RTVSPropertyOp19
 70
     1
102
RTVSPropertyOp20
 70
     1
102
RTVSPropertyOp21
 70
     1
102
RTVSPropertyOp22
 70
     1
102
RTVSPropertyOp23
 70
     1
102
RTVSPropertyOp24
 70
     1
102
RTVSPropertyOp25
 70
     1
102
RTVSPropertyOp26
 70
     1
102
RTVSPropertyOp27
 70
     1
102
RTVSPropertyOp28
 70
     1
102
RTVSPropertyOp29
 70
     1
102
RTVSPropertyOp30
 70
     1
102
RTVSPropertyOp31
 70
     1
102
RTVSPropertyOp32
 70
     1
  0
XRECORD
  5
F32
102
{ACAD_REACTORS
330
F31
102
}
330
F31
100
AcDbXrecord
280
     1
102
RTVSPropertyOp0
 70
     1
102
RTVSPropertyOp1
 70
     1
102
RTVSPropertyOp2
 70
     1
102
RTVSPropertyOp3
 70
     1
102
RTVSPropertyOp4
 70
     1
102
RTVSPropertyOp5
 70
     1
102
RTVSPropertyOp6
 70
     1
102
RTVSPropertyOp7
 70
     1
102
RTVSPropertyOp8
 70
     1
102
RTVSPropertyOp9
 70
     1
102
RTVSPropertyOp10
 70
     1
102
RTVSPropertyOp11
 70
     1
102
RTVSPropertyOp12
 70
     1
102
RTVSPropertyOp13
 70
     1
102
RTVSPropertyOp14
 70
     1
102
RTVSPropertyOp15
 70
     1
102
RTVSPropertyOp16
 70
     1
102
RTVSPropertyOp17
 70
     1
102
RTVSPropertyOp18
 70
     1
102
RTVSPropertyOp19
 70
     1
102
RTVSPropertyOp20
 70
     1
102
RTVSPropertyOp21
 70
     1
102
RTVSPropertyOp22
 70
     1
102
RTVSPropertyOp23
 70
     1
102
RTVSPropertyOp24
 70
     1
102
RTVSPropertyOp25
 70
     1
102
RTVSPropertyOp26
 70
     1
102
RTVSPropertyOp27
 70
     1
102
RTVSPropertyOp28
 70
     1
102
RTVSPropertyOp29
 70
     1
102
RTVSPropertyOp30
 70
     1
102
RTVSPropertyOp31
 70
     1
102
RTVSPropertyOp32
 70
     1
  0
XRECORD
  5
F4E
102
{ACAD_REACTORS
330
F4D
102
}
330
F4D
100
AcDbXrecord
280
     1
102
RTVSPropertyOp0
 70
     0
102
RTVSPropertyOp1
 70
     0
102
RTVSPropertyOp2
 70
     0
102
RTVSPropertyOp3
 70
     0
102
RTVSPropertyOp4
 70
     0
102
RTVSPropertyOp5
 70
     0
102
RTVSPropertyOp6
 70
     0
102
RTVSPropertyOp7
 70
     0
102
RTVSPropertyOp8
 70
     0
102
RTVSPropertyOp9
 70
     0
102
RTVSPropertyOp10
 70
     0
102
RTVSPropertyOp11
 70
     0
102
RTVSPropertyOp12
 70
     0
102
RTVSPropertyOp13
 70
     0
102
RTVSPropertyOp14
 70
     2
102
RTVSPropertyOp15
 70
     0
102
RTVSPropertyOp16
 70
     0
102
RTVSPropertyOp17
 70
     0
102
RTVSPropertyOp18
 70
     0
102
RTVSPropertyOp19
 70
     0
102
RTVSPropertyOp20
 70
     0
102
RTVSPropertyOp21
 70
     0
102
RTVSPropertyOp22
 70
     0
102
RTVSPropertyOp23
 70
     0
102
RTVSPropertyOp24
 70
     0
102
RTVSPropertyOp25
 70
     0
102
RTVSPropertyOp26
 70
     0
102
RTVSPropertyOp27
 70
     0
102
RTVSPropertyOp28
 70
     1
102
RTVSPropertyOp29
 70
     1
102
RTVSPropertyOp30
 70
     1
102
RTVSPropertyOp31
 70
     1
102
RTVSPropertyOp32
 70
     1
  0
XRECORD
  5
F3E
102
{ACAD_REACTORS
330
F3D
102
}
330
F3D
100
AcDbXrecord
280
     1
102
RTVSPropertyOp0
 70
     1
102
RTVSPropertyOp1
 70
     1
102
RTVSPropertyOp2
 70
     1
102
RTVSPropertyOp3
 70
     1
102
RTVSPropertyOp4
 70
     1
102
RTVSPropertyOp5
 70
     1
102
RTVSPropertyOp6
 70
     1
102
RTVSPropertyOp7
 70
     1
102
RTVSPropertyOp8
 70
     1
102
RTVSPropertyOp9
 70
     1
102
RTVSPropertyOp10
 70
     1
102
RTVSPropertyOp11
 70
     1
102
RTVSPropertyOp12
 70
     1
102
RTVSPropertyOp13
 70
     1
102
RTVSPropertyOp14
 70
     1
102
RTVSPropertyOp15
 70
     1
102
RTVSPropertyOp16
 70
     1
102
RTVSPropertyOp17
 70
     1
102
RTVSPropertyOp18
 70
     1
102
RTVSPropertyOp19
 70
     1
102
RTVSPropertyOp20
 70
     1
102
RTVSPropertyOp21
 70
     1
102
RTVSPropertyOp22
 70
     1
102
RTVSPropertyOp23
 70
     1
102
RTVSPropertyOp24
 70
     1
102
RTVSPropertyOp25
 70
     1
102
RTVSPropertyOp26
 70
     1
102
RTVSPropertyOp27
 70
     1
102
RTVSPropertyOp28
 70
     1
102
RTVSPropertyOp29
 70
     1
102
RTVSPropertyOp30
 70
     1
102
RTVSPropertyOp31
 70
     1
102
RTVSPropertyOp32
 70
     1
  0
XRECORD
  5
F50
102
{ACAD_REACTORS
330
F4F
102
}
330
F4F
100
AcDbXrecord
280
     1
102
RTVSPropertyOp0
 70
     0
102
RTVSPropertyOp1
 70
     0
102
RTVSPropertyOp2
 70
     0
102
RTVSPropertyOp3
 70
     0
102
RTVSPropertyOp4
 70
     0
102
RTVSPropertyOp5
 70
     0
102
RTVSPropertyOp6
 70
     0
102
RTVSPropertyOp7
 70
     0
102
RTVSPropertyOp8
 70
     0
102
RTVSPropertyOp9
 70
     0
102
RTVSPropertyOp10
 70
     0
102
RTVSPropertyOp11
 70
     0
102
RTVSPropertyOp12
 70
     0
102
RTVSPropertyOp13
 70
     0
102
RTVSPropertyOp14
 70
     2
102
RTVSPropertyOp15
 70
     0
102
RTVSPropertyOp16
 70
     0
102
RTVSPropertyOp17
 70
     0
102
RTVSPropertyOp18
 70
     0
102
RTVSPropertyOp19
 70
     0
102
RTVSPropertyOp20
 70
     0
102
RTVSPropertyOp21
 70
     0
102
RTVSPropertyOp22
 70
     0
102
RTVSPropertyOp23
 70
     0
102
RTVSPropertyOp24
 70
     0
102
RTVSPropertyOp25
 70
     0
102
RTVSPropertyOp26
 70
     0
102
RTVSPropertyOp27
 70
     0
102
RTVSPropertyOp28
 70
     1
102
RTVSPropertyOp29
 70
     1
102
RTVSPropertyOp30
 70
     1
102
RTVSPropertyOp31
 70
     1
102
RTVSPropertyOp32
 70
     1
  0
XRECORD
  5
F36
102
{ACAD_REACTORS
330
F35
102
}
330
F35
100
AcDbXrecord
280
     1
102
RTVSPropertyOp0
 70
     1
102
RTVSPropertyOp1
 70
     1
102
RTVSPropertyOp2
 70
     1
102
RTVSPropertyOp3
 70
     1
102
RTVSPropertyOp4
 70
     1
102
RTVSPropertyOp5
 70
     1
102
RTVSPropertyOp6
 70
     1
102
RTVSPropertyOp7
 70
     1
102
RTVSPropertyOp8
 70
     1
102
RTVSPropertyOp9
 70
     1
102
RTVSPropertyOp10
 70
     1
102
RTVSPropertyOp11
 70
     1
102
RTVSPropertyOp12
 70
     1
102
RTVSPropertyOp13
 70
     1
102
RTVSPropertyOp14
 70
     1
102
RTVSPropertyOp15
 70
     1
102
RTVSPropertyOp16
 70
     1
102
RTVSPropertyOp17
 70
     1
102
RTVSPropertyOp18
 70
     1
102
RTVSPropertyOp19
 70
     1
102
RTVSPropertyOp20
 70
     1
102
RTVSPropertyOp21
 70
     1
102
RTVSPropertyOp22
 70
     1
102
RTVSPropertyOp23
 70
     1
102
RTVSPropertyOp24
 70
     1
102
RTVSPropertyOp25
 70
     1
102
RTVSPropertyOp26
 70
     1
102
RTVSPropertyOp27
 70
     1
102
RTVSPropertyOp28
 70
     1
102
RTVSPropertyOp29
 70
     1
102
RTVSPropertyOp30
 70
     1
102
RTVSPropertyOp31
 70
     1
102
RTVSPropertyOp32
 70
     1
  0
XRECORD
  5
F4C
102
{ACAD_REACTORS
330
F4B
102
}
330
F4B
100
AcDbXrecord
280
     1
102
RTVSPropertyOp0
 70
     1
102
RTVSPropertyOp1
 70
     1
102
RTVSPropertyOp2
 70
     1
102
RTVSPropertyOp3
 70
     1
102
RTVSPropertyOp4
 70
     1
102
RTVSPropertyOp5
 70
     1
102
RTVSPropertyOp6
 70
     1
102
RTVSPropertyOp7
 70
     1
102
RTVSPropertyOp8
 70
     1
102
RTVSPropertyOp9
 70
     1
102
RTVSPropertyOp10
 70
     1
102
RTVSPropertyOp11
 70
     1
102
RTVSPropertyOp12
 70
     1
102
RTVSPropertyOp13
 70
     1
102
RTVSPropertyOp14
 70
     1
102
RTVSPropertyOp15
 70
     1
102
RTVSPropertyOp16
 70
     1
102
RTVSPropertyOp17
 70
     1
102
RTVSPropertyOp18
 70
     1
102
RTVSPropertyOp19
 70
     1
102
RTVSPropertyOp20
 70
     1
102
RTVSPropertyOp21
 70
     1
102
RTVSPropertyOp22
 70
     1
102
RTVSPropertyOp23
 70
     1
102
RTVSPropertyOp24
 70
     1
102
RTVSPropertyOp25
 70
     1
102
RTVSPropertyOp26
 70
     1
102
RTVSPropertyOp27
 70
     1
102
RTVSPropertyOp28
 70
     1
102
RTVSPropertyOp29
 70
     1
102
RTVSPropertyOp30
 70
     1
102
RTVSPropertyOp31
 70
     1
102
RTVSPropertyOp32
 70
     1
  0
XRECORD
  5
F4A
102
{ACAD_REACTORS
330
F49
102
}
330
F49
100
AcDbXrecord
280
     1
102
RTVSPropertyOp0
 70
     1
102
RTVSPropertyOp1
 70
     1
102
RTVSPropertyOp2
 70
     1
102
RTVSPropertyOp3
 70
     1
102
RTVSPropertyOp4
 70
     1
102
RTVSPropertyOp5
 70
     1
102
RTVSPropertyOp6
 70
     1
102
RTVSPropertyOp7
 70
     1
102
RTVSPropertyOp8
 70
     1
102
RTVSPropertyOp9
 70
     1
102
RTVSPropertyOp10
 70
     1
102
RTVSPropertyOp11
 70
     1
102
RTVSPropertyOp12
 70
     1
102
RTVSPropertyOp13
 70
     1
102
RTVSPropertyOp14
 70
     1
102
RTVSPropertyOp15
 70
     1
102
RTVSPropertyOp16
 70
     1
102
RTVSPropertyOp17
 70
     1
102
RTVSPropertyOp18
 70
     1
102
RTVSPropertyOp19
 70
     1
102
RTVSPropertyOp20
 70
     1
102
RTVSPropertyOp21
 70
     1
102
RTVSPropertyOp22
 70
     1
102
RTVSPropertyOp23
 70
     1
102
RTVSPropertyOp24
 70
     1
102
RTVSPropertyOp25
 70
     1
102
RTVSPropertyOp26
 70
     1
102
RTVSPropertyOp27
 70
     1
102
RTVSPropertyOp28
 70
     1
102
RTVSPropertyOp29
 70
     1
102
RTVSPropertyOp30
 70
     1
102
RTVSPropertyOp31
 70
     1
102
RTVSPropertyOp32
 70
     1
  0
XRECORD
  5
F44
102
{ACAD_REACTORS
330
F43
102
}
330
F43
100
AcDbXrecord
280
     1
102
RTVSPropertyOp0
 70
     1
102
RTVSPropertyOp1
 70
     1
102
RTVSPropertyOp2
 70
     1
102
RTVSPropertyOp3
 70
     1
102
RTVSPropertyOp4
 70
     1
102
RTVSPropertyOp5
 70
     1
102
RTVSPropertyOp6
 70
     1
102
RTVSPropertyOp7
 70
     1
102
RTVSPropertyOp8
 70
     1
102
RTVSPropertyOp9
 70
     1
102
RTVSPropertyOp10
 70
     1
102
RTVSPropertyOp11
 70
     1
102
RTVSPropertyOp12
 70
     1
102
RTVSPropertyOp13
 70
     1
102
RTVSPropertyOp14
 70
     1
102
RTVSPropertyOp15
 70
     1
102
RTVSPropertyOp16
 70
     1
102
RTVSPropertyOp17
 70
     1
102
RTVSPropertyOp18
 70
     1
102
RTVSPropertyOp19
 70
     1
102
RTVSPropertyOp20
 70
     1
102
RTVSPropertyOp21
 70
     1
102
RTVSPropertyOp22
 70
     1
102
RTVSPropertyOp23
 70
     1
102
RTVSPropertyOp24
 70
     1
102
RTVSPropertyOp25
 70
     1
102
RTVSPropertyOp26
 70
     1
102
RTVSPropertyOp27
 70
     1
102
RTVSPropertyOp28
 70
     1
102
RTVSPropertyOp29
 70
     1
102
RTVSPropertyOp30
 70
     1
102
RTVSPropertyOp31
 70
     1
102
RTVSPropertyOp32
 70
     1
  0
XRECORD
  5
F46
102
{ACAD_REACTORS
330
F45
102
}
330
F45
100
AcDbXrecord
280
     1
102
RTVSPropertyOp0
 70
     1
102
RTVSPropertyOp1
 70
     1
102
RTVSPropertyOp2
 70
     1
102
RTVSPropertyOp3
 70
     1
102
RTVSPropertyOp4
 70
     1
102
RTVSPropertyOp5
 70
     1
102
RTVSPropertyOp6
 70
     1
102
RTVSPropertyOp7
 70
     1
102
RTVSPropertyOp8
 70
     1
102
RTVSPropertyOp9
 70
     1
102
RTVSPropertyOp10
 70
     1
102
RTVSPropertyOp11
 70
     1
102
RTVSPropertyOp12
 70
     1
102
RTVSPropertyOp13
 70
     1
102
RTVSPropertyOp14
 70
     1
102
RTVSPropertyOp15
 70
     1
102
RTVSPropertyOp16
 70
     1
102
RTVSPropertyOp17
 70
     1
102
RTVSPropertyOp18
 70
     1
102
RTVSPropertyOp19
 70
     1
102
RTVSPropertyOp20
 70
     1
102
RTVSPropertyOp21
 70
     1
102
RTVSPropertyOp22
 70
     1
102
RTVSPropertyOp23
 70
     1
102
RTVSPropertyOp24
 70
     1
102
RTVSPropertyOp25
 70
     1
102
RTVSPropertyOp26
 70
     1
102
RTVSPropertyOp27
 70
     1
102
RTVSPropertyOp28
 70
     1
102
RTVSPropertyOp29
 70
     1
102
RTVSPropertyOp30
 70
     1
102
RTVSPropertyOp31
 70
     1
102
RTVSPropertyOp32
 70
     1
  0
XRECORD
  5
F3C
102
{ACAD_REACTORS
330
F3B
102
}
330
F3B
100
AcDbXrecord
280
     1
102
RTVSPropertyOp0
 70
     1
102
RTVSPropertyOp1
 70
     1
102
RTVSPropertyOp2
 70
     1
102
RTVSPropertyOp3
 70
     1
102
RTVSPropertyOp4
 70
     1
102
RTVSPropertyOp5
 70
     1
102
RTVSPropertyOp6
 70
     1
102
RTVSPropertyOp7
 70
     1
102
RTVSPropertyOp8
 70
     1
102
RTVSPropertyOp9
 70
     1
102
RTVSPropertyOp10
 70
     1
102
RTVSPropertyOp11
 70
     1
102
RTVSPropertyOp12
 70
     1
102
RTVSPropertyOp13
 70
     1
102
RTVSPropertyOp14
 70
     1
102
RTVSPropertyOp15
 70
     1
102
RTVSPropertyOp16
 70
     1
102
RTVSPropertyOp17
 70
     1
102
RTVSPropertyOp18
 70
     1
102
RTVSPropertyOp19
 70
     1
102
RTVSPropertyOp20
 70
     1
102
RTVSPropertyOp21
 70
     1
102
RTVSPropertyOp22
 70
     1
102
RTVSPropertyOp23
 70
     1
102
RTVSPropertyOp24
 70
     1
102
RTVSPropertyOp25
 70
     1
102
RTVSPropertyOp26
 70
     1
102
RTVSPropertyOp27
 70
     1
102
RTVSPropertyOp28
 70
     1
102
RTVSPropertyOp29
 70
     1
102
RTVSPropertyOp30
 70
     1
102
RTVSPropertyOp31
 70
     1
102
RTVSPropertyOp32
 70
     1
  0
XRECORD
  5
F30
102
{ACAD_REACTORS
330
F2F
102
}
330
F2F
100
AcDbXrecord
280
     1
102
RTVSPropertyOp0
 70
     1
102
RTVSPropertyOp1
 70
     1
102
RTVSPropertyOp2
 70
     1
102
RTVSPropertyOp3
 70
     1
102
RTVSPropertyOp4
 70
     1
102
RTVSPropertyOp5
 70
     1
102
RTVSPropertyOp6
 70
     1
102
RTVSPropertyOp7
 70
     1
102
RTVSPropertyOp8
 70
     1
102
RTVSPropertyOp9
 70
     1
102
RTVSPropertyOp10
 70
     1
102
RTVSPropertyOp11
 70
     1
102
RTVSPropertyOp12
 70
     1
102
RTVSPropertyOp13
 70
     1
102
RTVSPropertyOp14
 70
     1
102
RTVSPropertyOp15
 70
     1
102
RTVSPropertyOp16
 70
     1
102
RTVSPropertyOp17
 70
     1
102
RTVSPropertyOp18
 70
     1
102
RTVSPropertyOp19
 70
     1
102
RTVSPropertyOp20
 70
     1
102
RTVSPropertyOp21
 70
     1
102
RTVSPropertyOp22
 70
     1
102
RTVSPropertyOp23
 70
     1
102
RTVSPropertyOp24
 70
     1
102
RTVSPropertyOp25
 70
     1
102
RTVSPropertyOp26
 70
     1
102
RTVSPropertyOp27
 70
     1
102
RTVSPropertyOp28
 70
     1
102
RTVSPropertyOp29
 70
     1
102
RTVSPropertyOp30
 70
     1
102
RTVSPropertyOp31
 70
     1
102
RTVSPropertyOp32
 70
     1
  0
XRECORD
  5
F48
102
{ACAD_REACTORS
330
F47
102
}
330
F47
100
AcDbXrecord
280
     1
102
RTVSPropertyOp0
 70
     1
102
RTVSPropertyOp1
 70
     1
102
RTVSPropertyOp2
 70
     1
102
RTVSPropertyOp3
 70
     1
102
RTVSPropertyOp4
 70
     1
102
RTVSPropertyOp5
 70
     1
102
RTVSPropertyOp6
 70
     1
102
RTVSPropertyOp7
 70
     1
102
RTVSPropertyOp8
 70
     1
102
RTVSPropertyOp9
 70
     1
102
RTVSPropertyOp10
 70
     1
102
RTVSPropertyOp11
 70
     1
102
RTVSPropertyOp12
 70
     1
102
RTVSPropertyOp13
 70
     1
102
RTVSPropertyOp14
 70
     1
102
RTVSPropertyOp15
 70
     1
102
RTVSPropertyOp16
 70
     1
102
RTVSPropertyOp17
 70
     1
102
RTVSPropertyOp18
 70
     1
102
RTVSPropertyOp19
 70
     1
102
RTVSPropertyOp20
 70
     1
102
RTVSPropertyOp21
 70
     1
102
RTVSPropertyOp22
 70
     1
102
RTVSPropertyOp23
 70
     1
102
RTVSPropertyOp24
 70
     1
102
RTVSPropertyOp25
 70
     1
102
RTVSPropertyOp26
 70
     1
102
RTVSPropertyOp27
 70
     1
102
RTVSPropertyOp28
 70
     1
102
RTVSPropertyOp29
 70
     1
102
RTVSPropertyOp30
 70
     1
102
RTVSPropertyOp31
 70
     1
102
RTVSPropertyOp32
 70
     1
  0
ENDSEC
  0
EOF
