  0
SECTION
  2
HEADER
  9
$ACADVER
  1
AC1015
  9
$ACADMAINTVER
 70
    18
  9
$DWGCODEPAGE
  3
ANSI_1252
  9
$INSBASE
 10
0.0
 20
0.0
 30
0.0
  9
$EXTMIN
 10
0.0
 20
0.0
 30
0.0
  9
$EXTMAX
 10
119.0
 20
77.0
 30
0.0
  9
$LIMMIN
 10
0.0
 20
0.0
  9
$LIMMAX
 10
119.0
 20
77.0
  9
$ORTHOMODE
 70
     0
  9
$REGENMODE
 70
     1
  9
$FILLMODE
 70
     1
  9
$QTEXTMODE
 70
     0
  9
$MIRRTEXT
 70
     0
  9
$LTSCALE
 40
7.0
  9
$ATTMODE
 70
     1
  9
$TEXTSIZE
 40
0.2
  9
$TRACEWID
 40
0.05
  9
$TEXTSTYLE
  7
Standard
  9
$CLAYER
  8
0
  9
$CELTYPE
  6
ByLayer
  9
$CECOLOR
 62
   256
  9
$CELTSCALE
 40
1.0
  9
$DISPSILH
 70
     0
  9
$DIMSCALE
 40
1.0
  9
$DIMASZ
 40
0.0708661417322835
  9
$DIMEXO
 40
0.0625
  9
$DIMDLI
 40
0.38
  9
$DIMRND
 40
0.0
  9
$DIMDLE
 40
0.0
  9
$DIMEXE
 40
0.18
  9
$DIMTP
 40
0.0
  9
$DIMTM
 40
0.0
  9
$DIMTXT
 40
0.0708661417322835
  9
$DIMCEN
 40
0.09
  9
$DIMTSZ
 40
0.0
  9
$DIMTOL
 70
     0
  9
$DIMLIM
 70
     0
  9
$DIMTIH
 70
     1
  9
$DIMTOH
 70
     1
  9
$DIMSE1
 70
     0
  9
$DIMSE2
 70
     0
  9
$DIMTAD
 70
     0
  9
$DIMZIN
 70
     0
  9
$DIMBLK
  1

  9
$DIMASO
 70
     1
  9
$DIMSHO
 70
     1
  9
$DIMPOST
  1

  9
$DIMAPOST
  1

  9
$DIMALT
 70
     0
  9
$DIMALTD
 70
     2
  9
$DIMALTF
 40
25.4
  9
$DIMLFAC
 40
1.0
  9
$DIMTOFL
 70
     0
  9
$DIMTVP
 40
0.0
  9
$DIMTIX
 70
     0
  9
$DIMSOXD
 70
     0
  9
$DIMSAH
 70
     0
  9
$DIMBLK1
  1

  9
$DIMBLK2
  1

  9
$DIMSTYLE
  2
STANDARD
  9
$DIMCLRD
 70
     0
  9
$DIMCLRE
 70
     0
  9
$DIMCLRT
 70
     0
  9
$DIMTFAC
 40
1.0
  9
$DIMGAP
 40
0.09
  9
$DIMJUST
 70
     0
  9
$DIMSD1
 70
     0
  9
$DIMSD2
 70
     0
  9
$DIMTOLJ
 70
     1
  9
$DIMTZIN
 70
     0
  9
$DIMALTZ
 70
     0
  9
$DIMALTTZ
 70
     0
  9
$DIMUPT
 70
     0
  9
$DIMDEC
 70
     4
  9
$DIMTDEC
 70
     4
  9
$DIMALTU
 70
     2
  9
$DIMALTTD
 70
     2
  9
$DIMTXSTY
  7
Standard
  9
$DIMAUNIT
 70
     0
  9
$DIMADEC
 70
     0
  9
$DIMALTRND
 40
0.0
  9
$DIMAZIN
 70
     0
  9
$DIMDSEP
 70
    46
  9
$DIMATFIT
 70
     3
  9
$DIMFRAC
 70
     0
  9
$DIMLDRBLK
  1

  9
$DIMLUNIT
 70
     2
  9
$DIMLWD
 70
    -2
  9
$DIMLWE
 70
    -2
  9
$DIMTMOVE
 70
     0
  9
$LUNITS
 70
     2
  9
$LUPREC
 70
     4
  9
$SKETCHINC
 40
0.1
  9
$FILLETRAD
 40
0.0
  9
$AUNITS
 70
     0
  9
$AUPREC
 70
     0
  9
$MENU
  1
.
  9
$ELEVATION
 40
0.0
  9
$PELEVATION
 40
0.0
  9
$THICKNESS
 40
0.0
  9
$LIMCHECK
 70
     0
  9
$CHAMFERA
 40
0.0
  9
$CHAMFERB
 40
0.0
  9
$CHAMFERC
 40
0.0
  9
$CHAMFERD
 40
0.0
  9
$SKPOLY
 70
     0
  9
$TDCREATE
 40
2455945.366806250
  9
$TDUCREATE
 40
2455945.616806250
  9
$TDUPDATE
 40
2455945.366806250
  9
$TDUUPDATE
 40
2455945.616806250
  9
$TDINDWG
 40
0.0000388889
  9
$TDUSRTIMER
 40
0.0000388889
  9
$USRTIMER
 70
     1
  9
$ANGBASE
 50
0.0
  9
$ANGDIR
 70
     0
  9
$PDMODE
 70
     0
  9
$PDSIZE
 40
0.0
  9
$PLINEWID
 40
0.0
  9
$SPLFRAME
 70
     0
  9
$SPLINETYPE
 70
     6
  9
$SPLINESEGS
 70
     8
  9
$HANDSEED
  5
FFE
  9
$SURFTAB1
 70
     6
  9
$SURFTAB2
 70
     6
  9
$SURFTYPE
 70
     6
  9
$SURFU
 70
     6
  9
$SURFV
 70
     6
  9
$UCSBASE
  2

  9
$UCSNAME
  2

  9
$UCSORG
 10
0.0
 20
0.0
 30
0.0
  9
$UCSXDIR
 10
1.0
 20
0.0
 30
0.0
  9
$UCSYDIR
 10
0.0
 20
1.0
 30
0.0
  9
$UCSORTHOREF
  2

  9
$UCSORTHOVIEW
 70
     0
  9
$UCSORGTOP
 10
0.0
 20
0.0
 30
0.0
  9
$UCSORGBOTTOM
 10
0.0
 20
0.0
 30
0.0
  9
$UCSORGLEFT
 10
0.0
 20
0.0
 30
0.0
  9
$UCSORGRIGHT
 10
0.0
 20
0.0
 30
0.0
  9
$UCSORGFRONT
 10
0.0
 20
0.0
 30
0.0
  9
$UCSORGBACK
 10
0.0
 20
0.0
 30
0.0
  9
$PUCSBASE
  2

  9
$PUCSNAME
  2

  9
$PUCSORG
 10
0.0
 20
0.0
 30
0.0
  9
$PUCSXDIR
 10
1.0
 20
0.0
 30
0.0
  9
$PUCSYDIR
 10
0.0
 20
1.0
 30
0.0
  9
$PUCSORTHOREF
  2

  9
$PUCSORTHOVIEW
 70
     0
  9
$PUCSORGTOP
 10
0.0
 20
0.0
 30
0.0
  9
$PUCSORGBOTTOM
 10
0.0
 20
0.0
 30
0.0
  9
$PUCSORGLEFT
 10
0.0
 20
0.0
 30
0.0
  9
$PUCSORGRIGHT
 10
0.0
 20
0.0
 30
0.0
  9
$PUCSORGFRONT
 10
0.0
 20
0.0
 30
0.0
  9
$PUCSORGBACK
 10
0.0
 20
0.0
 30
0.0
  9
$USERI1
 70
     0
  9
$USERI2
 70
     0
  9
$USERI3
 70
     0
  9
$USERI4
 70
     0
  9
$USERI5
 70
     0
  9
$USERR1
 40
0.0
  9
$USERR2
 40
0.0
  9
$USERR3
 40
0.0
  9
$USERR4
 40
0.0
  9
$USERR5
 40
0.0
  9
$WORLDVIEW
 70
     1
  9
$SHADEDGE
 70
     3
  9
$SHADEDIF
 70
    70
  9
$TILEMODE
 70
     1
  9
$MAXACTVP
 70
    64
  9
$PINSBASE
 10
0.0
 20
0.0
 30
0.0
  9
$PLIMCHECK
 70
     0
  9
$PEXTMIN
 10
0.0
 20
0.0
 30
0.0
  9
$PEXTMAX
 10
119.0
 20
77.0
 30
0.0
  9
$PLIMMIN
 10
0.0
 20
0.0
  9
$PLIMMAX
 10
119.0
 20
77.0
  9
$UNITMODE
 70
     0
  9
$VISRETAIN
 70
     1
  9
$PLINEGEN
 70
     0
  9
$PSLTSCALE
 70
     1
  9
$TREEDEPTH
 70
  3020
  9
$CMLSTYLE
  2
Standard
  9
$CMLJUST
 70
     0
  9
$CMLSCALE
 40
1.0
  9
$PROXYGRAPHICS
 70
     1
  9
$MEASUREMENT
 70
     0
  9
$CELWEIGHT
370
    -1
  9
$ENDCAPS
280
     0
  9
$JOINSTYLE
280
     0
  9
$LWDISPLAY
290
     0
  9
$INSUNITS
 70
     1
  9
$HYPERLINKBASE
  1

  9
$STYLESHEET
  1

  9
$XEDIT
290
     1
  9
$CEPSNTYPE
380
     0
  9
$PSTYLEMODE
290
     1
  9
$FINGERPRINTGUID
  2
{AF31656D-B3E4-4906-A6F6-B33BAB46E0C6}
  9
$VERSIONGUID
  2
{341251A0-09A6-4609-9B54-AF44EF6691A5}
  9
$EXTNAMES
290
     1
  9
$PSVPSCALE
 40
0.0
  9
$OLESTARTUP
290
     0
  0
ENDSEC
  0
SECTION
  2
CLASSES
  0
CLASS
  1
ACDBDICTIONARYWDFLT
  2
AcDbDictionaryWithDefault
  3
ObjectDBX Classes
 90
        0
280
     0
281
     0
  0
CLASS
  1
MATERIAL
  2
AcDbMaterial
  3
ObjectDBX Classes
 90
     1153
280
     0
281
     0
  0
CLASS
  1
VISUALSTYLE
  2
AcDbVisualStyle
  3
ObjectDBX Classes
 90
     4095
280
     0
281
     0
  0
CLASS
  1
SCALE
  2
AcDbScale
  3
ObjectDBX Classes
 90
     1153
280
     0
281
     0
  0
CLASS
  1
TABLESTYLE
  2
AcDbTableStyle
  3
ObjectDBX Classes
 90
     4095
280
     0
281
     0
  0
CLASS
  1
MLEADERSTYLE
  2
AcDbMLeaderStyle
  3
ACDB_MLEADERSTYLE_CLASS
 90
     4095
280
     0
281
     0
  0
CLASS
  1
DICTIONARYVAR
  2
AcDbDictionaryVar
  3
ObjectDBX Classes
 90
        0
280
     0
281
     0
  0
CLASS
  1
CELLSTYLEMAP
  2
AcDbCellStyleMap
  3
ObjectDBX Classes
 90
     1152
280
     0
281
     0
  0
CLASS
  1
ACDBPLACEHOLDER
  2
AcDbPlaceHolder
  3
ObjectDBX Classes
 90
        0
280
     0
281
     0
  0
CLASS
  1
LAYOUT
  2
AcDbLayout
  3
ObjectDBX Classes
 90
        0
280
     0
281
     0
  0
ENDSEC
  0
SECTION
  2
TABLES
  0
TABLE
  2
VPORT
  5
8
330
0
100
AcDbSymbolTable
 70
     1
  0
VPORT
  5
57
330
8
100
AcDbSymbolTableRecord
100
AcDbViewportTableRecord
  2
*Active
 70
     0
 10
0.0
 20
0.0
 11
1.0
 21
1.0
 12
59.5
 22
38.5
 13
0.0
 23
0.0
 14
1.0
 24
1.0
 15
0.0
 25
0.0
 16
0.0
 26
0.0
 36
1.0
 17
0.0
 27
0.0
 37
0.0
 40
77.0
 41
1.545454545454545
 42
50.0
 43
0.0
 44
0.0
 50
0.0
 51
0.0
 71
     0
 72
   100
 73
     1
 74
     1
 75
     0
 76
     0
 77
     0
 78
     0
281
     0
 65
     1
110
0.0
120
0.0
130
0.0
111
1.0
121
0.0
131
0.0
112
0.0
122
1.0
132
0.0
 79
     0
146
0.0
  0
ENDTAB
  0
TABLE
  2
LTYPE
  5
5
330
0
100
AcDbSymbolTable
 70
    59
  0
LTYPE
  5
5B
330
5
100
AcDbSymbolTableRecord
100
AcDbLinetypeTableRecord
  2
ByBlock
 70
     0
  3

 72
    65
 73
     0
 40
0.0
  0
LTYPE
  5
5C
330
5
100
AcDbSymbolTableRecord
100
AcDbLinetypeTableRecord
  2
ByLayer
 70
     0
  3

 72
    65
 73
     0
 40
0.0
  0
LTYPE
  5
5D
330
5
100
AcDbSymbolTableRecord
100
AcDbLinetypeTableRecord
  2
Continuous
 70
     0
  3
Solid line
 72
    65
 73
     0
 40
0.0
  0
LTYPE
  5
7C
330
5
100
AcDbSymbolTableRecord
100
AcDbLinetypeTableRecord
  2
BY_STANDARD
 70
     0
  3
By Standard ____________    ____    ____   _
 72
    65
 73
     6
 40
1.240299999999999
 49
0.6614
 74
     0
 49
-0.0827
 74
     0
 49
0.1654
 74
     0
 49
-0.0827
 74
     0
 49
0.1654
 74
     0
 49
-0.0827
 74
     0
  0
LTYPE
  5
7D
330
5
100
AcDbSymbolTableRecord
100
AcDbLinetypeTableRecord
  2
CHAIN
 70
     0
  3
Chain ____ _ ____ _ ____ _ ____ _ ____ _ ____
 72
    65
 73
     4
 40
0.7087
 49
0.4724000000000001
 74
     0
 49
-0.0591
 74
     0
 49
0.1181
 74
     0
 49
-0.0591
 74
     0
  0
LTYPE
  5
7E
330
5
100
AcDbSymbolTableRecord
100
AcDbLinetypeTableRecord
  2
DASH_DOT
 70
     0
  3
Dash dot __ . __ . __ . __ . __ . __ . __ . __
 72
    65
 73
     4
 40
0.37
 49
0.24
 74
     0
 49
-0.06
 74
     0
 49
0.01
 74
     0
 49
-0.06
 74
     0
  0
LTYPE
  5
7F
330
5
100
AcDbSymbolTableRecord
100
AcDbLinetypeTableRecord
  2
DOUBLE_DASH_DOT
 70
     0
  3
Double-Dash Dot __ __ . __ __ . __ __ . __ _
 72
    65
 73
     6
 40
0.4398
 49
0.24
 74
     0
 49
-0.06
 74
     0
 49
0.0098
 74
     0
 49
-0.06
 74
     0
 49
0.01
 74
     0
 49
-0.06
 74
     0
  0
LTYPE
  5
80
330
5
100
AcDbSymbolTableRecord
100
AcDbLinetypeTableRecord
  2
DASH_TRIPLE_DOT
 70
     0
  3
Dash Triple-Dot _ . . . _ . . . _ . . . _
 72
    65
 73
     8
 40
0.51
 49
0.24
 74
     0
 49
-0.06
 74
     0
 49
0.01
 74
     0
 49
-0.06
 74
     0
 49
0.01
 74
     0
 49
-0.06
 74
     0
 49
0.01
 74
     0
 49
-0.06
 74
     0
  0
LTYPE
  5
81
330
5
100
AcDbSymbolTableRecord
100
AcDbLinetypeTableRecord
  2
DASHED
 70
     0
  3
Dashed __ __ __ __ __ __ __ __ __ __ __ __ __ _
 72
    65
 73
     2
 40
0.2067
 49
0.1654
 74
     0
 49
-0.0413
 74
     0
  0
LTYPE
  5
82
330
5
100
AcDbSymbolTableRecord
100
AcDbLinetypeTableRecord
  2
DASH_DOUBLE_DOT
 70
     0
  3
Dash Double-Dot __ . . __ . . __ . . __ . .
 72
    65
 73
     6
 40
0.4398
 49
0.24
 74
     0
 49
-0.06
 74
     0
 49
0.0098
 74
     0
 49
-0.06
 74
     0
 49
0.01
 74
     0
 49
-0.06
 74
     0
  0
LTYPE
  5
83
330
5
100
AcDbSymbolTableRecord
100
AcDbLinetypeTableRecord
  2
DASHED_SPACE
 70
     0
  3
Dashed Space __ __ __ __ __ __ __ __ __ __ __ _
 72
    65
 73
     2
 40
0.2067
 49
0.1654
 74
     0
 49
-0.0413
 74
     0
  0
LTYPE
  5
84
330
5
100
AcDbSymbolTableRecord
100
AcDbLinetypeTableRecord
  2
DOTTED
 70
     0
  3
Dotted . . . . . . . . . . . . . . . . . . . . 
 72
    65
 73
     2
 40
0.0482
 49
0.0069
 74
     0
 49
-0.0413
 74
     0
  0
LTYPE
  5
85
330
5
100
AcDbSymbolTableRecord
100
AcDbLinetypeTableRecord
  2
DOUBLE_DASH_CHAIN
 70
     0
  3
Double-Dash Chain ______  __  __  ______  __  _
 72
    65
 73
     6
 40
1.240299999999999
 49
0.6614
 74
     0
 49
-0.0827
 74
     0
 49
0.1654
 74
     0
 49
-0.0827
 74
     0
 49
0.1654
 74
     0
 49
-0.0827
 74
     0
  0
LTYPE
  5
87
330
5
100
AcDbSymbolTableRecord
100
AcDbLinetypeTableRecord
  2
DOUBLE_DASH_DOUBLE_DOT
 70
     0
  3
Double-Dash Double-dot _ _ . . _ _ . . _
 72
    65
 73
     8
 40
0.7400000000000001
 49
0.24
 74
     0
 49
-0.06
 74
     0
 49
0.24
 74
     0
 49
-0.06
 74
     0
 49
0.01
 74
     0
 49
-0.06
 74
     0
 49
0.01
 74
     0
 49
-0.06
 74
     0
  0
LTYPE
  5
88
330
5
100
AcDbSymbolTableRecord
100
AcDbLinetypeTableRecord
  2
DOUBLE_DASH_TRIPLE_DOT
 70
     0
  3
Double Dash Triple Dot __ __ . . . __ __ . .
 72
    65
 73
    10
 40
0.8100000000000001
 49
0.24
 74
     0
 49
-0.06
 74
     0
 49
0.24
 74
     0
 49
-0.06
 74
     0
 49
0.01
 74
     0
 49
-0.06
 74
     0
 49
0.01
 74
     0
 49
-0.06
 74
     0
 49
0.01
 74
     0
 49
-0.06
 74
     0
  0
LTYPE
  5
89
330
5
100
AcDbSymbolTableRecord
100
AcDbLinetypeTableRecord
  2
LONG_DASH_DOTTED
 70
     0
  3
Long Dash Dotted ____ . ____ . ____ . ____ . _
 72
    65
 73
     4
 40
0.3543
 49
0.2362
 74
     0
 49
-0.0295
 74
     0
 49
0.0591
 74
     0
 49
-0.0295
 74
     0
  0
LTYPE
  5
8A
330
5
100
AcDbSymbolTableRecord
100
AcDbLinetypeTableRecord
  2
LONG_DASH_DOUBLE_DOT
 70
     0
  3
Long Dash Double Dot ________  .  .  ________  
 72
    65
 73
     6
 40
0.6799999999999999
 49
0.48
 74
     0
 49
-0.06
 74
     0
 49
0.01
 74
     0
 49
-0.06
 74
     0
 49
0.01
 74
     0
 49
-0.06
 74
     0
  0
LTYPE
  5
8B
330
5
100
AcDbSymbolTableRecord
100
AcDbLinetypeTableRecord
  2
LONG_DASH_TRIPLE_DOT
 70
     0
  3
Long Dash Triple Dot ____ ... ____ ... ____
 72
    65
 73
     8
 40
0.3689
 49
0.2362
 74
     0
 49
-0.0295
 74
     0
 49
0.0049
 74
     0
 49
-0.0295
 74
     0
 49
0.0049
 74
     0
 49
-0.0295
 74
     0
 49
0.0049
 74
     0
 49
-0.0295
 74
     0
  0
LTYPE
  5
8C
330
5
100
AcDbSymbolTableRecord
100
AcDbLinetypeTableRecord
  2
BORDER
 70
     0
  3
Border __ __ . __ __ . __ __ . __ __ . __ __ .
 72
    65
 73
     6
 40
1.75
 49
0.5
 74
     0
 49
-0.25
 74
     0
 49
0.5
 74
     0
 49
-0.25
 74
     0
 49
0.0
 74
     0
 49
-0.25
 74
     0
  0
LTYPE
  5
8D
330
5
100
AcDbSymbolTableRecord
100
AcDbLinetypeTableRecord
  2
BORDER2
 70
     0
  3
Border (.5x) __.__.__.__.__.__.__.__.__.__.__.
 72
    65
 73
     6
 40
0.875
 49
0.25
 74
     0
 49
-0.125
 74
     0
 49
0.25
 74
     0
 49
-0.125
 74
     0
 49
0.0
 74
     0
 49
-0.125
 74
     0
  0
LTYPE
  5
8E
330
5
100
AcDbSymbolTableRecord
100
AcDbLinetypeTableRecord
  2
BORDERX2
 70
     0
  3
Border (2x) ____  ____  .  ____  ____  .  ___
 72
    65
 73
     6
 40
3.5
 49
1.0
 74
     0
 49
-0.5
 74
     0
 49
1.0
 74
     0
 49
-0.5
 74
     0
 49
0.0
 74
     0
 49
-0.5
 74
     0
  0
LTYPE
  5
8F
330
5
100
AcDbSymbolTableRecord
100
AcDbLinetypeTableRecord
  2
CENTER
 70
     0
  3
Center ____ _ ____ _ ____ _ ____ _ ____ _ ____
 72
    65
 73
     4
 40
2.0
 49
1.25
 74
     0
 49
-0.25
 74
     0
 49
0.25
 74
     0
 49
-0.25
 74
     0
  0
LTYPE
  5
90
330
5
100
AcDbSymbolTableRecord
100
AcDbLinetypeTableRecord
  2
CENTER2
 70
     0
  3
Center (.5x) ___ _ ___ _ ___ _ ___ _ ___ _ ___
 72
    65
 73
     4
 40
1.125
 49
0.75
 74
     0
 49
-0.125
 74
     0
 49
0.125
 74
     0
 49
-0.125
 74
     0
  0
LTYPE
  5
91
330
5
100
AcDbSymbolTableRecord
100
AcDbLinetypeTableRecord
  2
CENTERX2
 70
     0
  3
Center (2x) ________  __  ________  __  _____
 72
    65
 73
     4
 40
4.0
 49
2.5
 74
     0
 49
-0.5
 74
     0
 49
0.5
 74
     0
 49
-0.5
 74
     0
  0
LTYPE
  5
92
330
5
100
AcDbSymbolTableRecord
100
AcDbLinetypeTableRecord
  2
DASHDOT2
 70
     0
  3
Dash dot (.5x) _._._._._._._._._._._._._._._.
 72
    65
 73
     4
 40
0.5
 49
0.25
 74
     0
 49
-0.125
 74
     0
 49
0.0
 74
     0
 49
-0.125
 74
     0
  0
LTYPE
  5
93
330
5
100
AcDbSymbolTableRecord
100
AcDbLinetypeTableRecord
  2
DASHDOTX2
 70
     0
  3
Dash dot (2x) ____  .  ____  .  ____  .  ___
 72
    65
 73
     4
 40
2.0
 49
1.0
 74
     0
 49
-0.5
 74
     0
 49
0.0
 74
     0
 49
-0.5
 74
     0
  0
LTYPE
  5
95
330
5
100
AcDbSymbolTableRecord
100
AcDbLinetypeTableRecord
  2
DASHED2
 70
     0
  3
Dashed (.5x) _ _ _ _ _ _ _ _ _ _ _ _ _ _ _ _ _
 72
    65
 73
     2
 40
0.375
 49
0.25
 74
     0
 49
-0.125
 74
     0
  0
LTYPE
  5
96
330
5
100
AcDbSymbolTableRecord
100
AcDbLinetypeTableRecord
  2
DASHEDX2
 70
     0
  3
Dashed (2x) ____  ____  ____  ____  ____  ___
 72
    65
 73
     2
 40
1.5
 49
1.0
 74
     0
 49
-0.5
 74
     0
  0
LTYPE
  5
97
330
5
100
AcDbSymbolTableRecord
100
AcDbLinetypeTableRecord
  2
DIVIDE
 70
     0
  3
Divide ____ . . ____ . . ____ . . ____ . . ____
 72
    65
 73
     6
 40
1.25
 49
0.5
 74
     0
 49
-0.25
 74
     0
 49
0.0
 74
     0
 49
-0.25
 74
     0
 49
0.0
 74
     0
 49
-0.25
 74
     0
  0
LTYPE
  5
98
330
5
100
AcDbSymbolTableRecord
100
AcDbLinetypeTableRecord
  2
DIVIDE2
 70
     0
  3
Divide (.5x) __..__..__..__..__..__..__..__.._
 72
    65
 73
     6
 40
0.625
 49
0.25
 74
     0
 49
-0.125
 74
     0
 49
0.0
 74
     0
 49
-0.125
 74
     0
 49
0.0
 74
     0
 49
-0.125
 74
     0
  0
LTYPE
  5
99
330
5
100
AcDbSymbolTableRecord
100
AcDbLinetypeTableRecord
  2
DIVIDEX2
 70
     0
  3
Divide (2x) ________  .  .  ________  .  .  _
 72
    65
 73
     6
 40
2.5
 49
1.0
 74
     0
 49
-0.5
 74
     0
 49
0.0
 74
     0
 49
-0.5
 74
     0
 49
0.0
 74
     0
 49
-0.5
 74
     0
  0
LTYPE
  5
9A
330
5
100
AcDbSymbolTableRecord
100
AcDbLinetypeTableRecord
  2
DOT
 70
     0
  3
Dot . . . . . . . . . . . . . . . . . . . . . .
 72
    65
 73
     2
 40
0.25
 49
0.0
 74
     0
 49
-0.25
 74
     0
  0
LTYPE
  5
9B
330
5
100
AcDbSymbolTableRecord
100
AcDbLinetypeTableRecord
  2
DOT2
 70
     0
  3
Dot (.5x) .....................................
 72
    65
 73
     2
 40
0.125
 49
0.0
 74
     0
 49
-0.125
 74
     0
  0
LTYPE
  5
9C
330
5
100
AcDbSymbolTableRecord
100
AcDbLinetypeTableRecord
  2
DOTX2
 70
     0
  3
Dot (2x) .  .  .  .  .  .  .  .  .  .  .  .  . 
 72
    65
 73
     2
 40
0.5
 49
0.0
 74
     0
 49
-0.5
 74
     0
  0
LTYPE
  5
9D
330
5
100
AcDbSymbolTableRecord
100
AcDbLinetypeTableRecord
  2
HIDDEN
 70
     0
  3
Hidden __ __ __ __ __ __ __ __ __ __ __ __ __ _
 72
    65
 73
     2
 40
0.375
 49
0.25
 74
     0
 49
-0.125
 74
     0
  0
LTYPE
  5
9E
330
5
100
AcDbSymbolTableRecord
100
AcDbLinetypeTableRecord
  2
HIDDEN2
 70
     0
  3
Hidden (.5x) _ _ _ _ _ _ _ _ _ _ _ _ _ _ _ _ _
 72
    65
 73
     2
 40
0.1875
 49
0.125
 74
     0
 49
-0.0625
 74
     0
  0
LTYPE
  5
9F
330
5
100
AcDbSymbolTableRecord
100
AcDbLinetypeTableRecord
  2
HIDDENX2
 70
     0
  3
Hidden (2x) ____ ____ ____ ____ ____ ____ ____
 72
    65
 73
     2
 40
0.75
 49
0.5
 74
     0
 49
-0.25
 74
     0
  0
LTYPE
  5
A0
330
5
100
AcDbSymbolTableRecord
100
AcDbLinetypeTableRecord
  2
PHANTOM
 70
     0
  3
Phantom ______  __  __  ______  __  __  ______
 72
    65
 73
     6
 40
2.5
 49
1.25
 74
     0
 49
-0.25
 74
     0
 49
0.25
 74
     0
 49
-0.25
 74
     0
 49
0.25
 74
     0
 49
-0.25
 74
     0
  0
LTYPE
  5
A1
330
5
100
AcDbSymbolTableRecord
100
AcDbLinetypeTableRecord
  2
PHANTOM2
 70
     0
  3
Phantom (.5x) ___ _ _ ___ _ _ ___ _ _ ___ _ _
 72
    65
 73
     6
 40
1.25
 49
0.625
 74
     0
 49
-0.125
 74
     0
 49
0.125
 74
     0
 49
-0.125
 74
     0
 49
0.125
 74
     0
 49
-0.125
 74
     0
  0
LTYPE
  5
A2
330
5
100
AcDbSymbolTableRecord
100
AcDbLinetypeTableRecord
  2
PHANTOMX2
 70
     0
  3
Phantom (2x) ____________    ____    ____   _
 72
    65
 73
     6
 40
5.0
 49
2.5
 74
     0
 49
-0.5
 74
     0
 49
0.5
 74
     0
 49
-0.5
 74
     0
 49
0.5
 74
     0
 49
-0.5
 74
     0
  0
LTYPE
  5
A3
330
5
100
AcDbSymbolTableRecord
100
AcDbLinetypeTableRecord
  2
ACAD_ISO02W100
 70
     0
  3
ISO dash __ __ __ __ __ __ __ __ __ __ __ __ __
 72
    65
 73
     2
 40
0.59
 49
0.47
 74
     0
 49
-0.12
 74
     0
  0
LTYPE
  5
A4
330
5
100
AcDbSymbolTableRecord
100
AcDbLinetypeTableRecord
  2
ACAD_ISO03W100
 70
     0
  3
ISO dash space __    __    __    __    __    __
 72
    65
 73
     2
 40
1.179999999999999
 49
0.47
 74
     0
 49
-0.71
 74
     0
  0
LTYPE
  5
A5
330
5
100
AcDbSymbolTableRecord
100
AcDbLinetypeTableRecord
  2
ACAD_ISO04W100
 70
     0
  3
ISO long-dash dot ____ . ____ . ____ . ____ . _
 72
    65
 73
     4
 40
1.179999999999999
 49
0.9399999999999998
 74
     0
 49
-0.12
 74
     0
 49
0.0
 74
     0
 49
-0.12
 74
     0
  0
LTYPE
  5
A6
330
5
100
AcDbSymbolTableRecord
100
AcDbLinetypeTableRecord
  2
ACAD_ISO05W100
 70
     0
  3
ISO long-dash double-dot ____ .. ____ .. ____ .
 72
    65
 73
     6
 40
1.299999999999999
 49
0.9399999999999998
 74
     0
 49
-0.12
 74
     0
 49
0.0
 74
     0
 49
-0.12
 74
     0
 49
0.0
 74
     0
 49
-0.12
 74
     0
  0
LTYPE
  5
A7
330
5
100
AcDbSymbolTableRecord
100
AcDbLinetypeTableRecord
  2
ACAD_ISO06W100
 70
     0
  3
ISO long-dash triple-dot ____ ... ____ ... ____
 72
    65
 73
     8
 40
1.419999999999999
 49
0.9399999999999998
 74
     0
 49
-0.12
 74
     0
 49
0.0
 74
     0
 49
-0.12
 74
     0
 49
0.0
 74
     0
 49
-0.12
 74
     0
 49
0.0
 74
     0
 49
-0.12
 74
     0
  0
LTYPE
  5
A8
330
5
100
AcDbSymbolTableRecord
100
AcDbLinetypeTableRecord
  2
ACAD_ISO07W100
 70
     0
  3
ISO dot . . . . . . . . . . . . . . . . . . . .
 72
    65
 73
     2
 40
0.12
 49
0.0
 74
     0
 49
-0.12
 74
     0
  0
LTYPE
  5
A9
330
5
100
AcDbSymbolTableRecord
100
AcDbLinetypeTableRecord
  2
ACAD_ISO08W100
 70
     0
  3
ISO long-dash short-dash ____ __ ____ __ ____ _
 72
    65
 73
     4
 40
0.95
 49
0.47
 74
     0
 49
-0.12
 74
     0
 49
0.24
 74
     0
 49
-0.12
 74
     0
  0
LTYPE
  5
AA
330
5
100
AcDbSymbolTableRecord
100
AcDbLinetypeTableRecord
  2
ACAD_ISO09W100
 70
     0
  3
ISO long-dash double-short-dash ____ __ __ ____
 72
    65
 73
     6
 40
1.31
 49
0.47
 74
     0
 49
-0.12
 74
     0
 49
0.24
 74
     0
 49
-0.12
 74
     0
 49
0.24
 74
     0
 49
-0.12
 74
     0
  0
LTYPE
  5
AB
330
5
100
AcDbSymbolTableRecord
100
AcDbLinetypeTableRecord
  2
ACAD_ISO10W100
 70
     0
  3
ISO dash dot __ . __ . __ . __ . __ . __ . __ .
 72
    65
 73
     4
 40
0.71
 49
0.47
 74
     0
 49
-0.12
 74
     0
 49
0.0
 74
     0
 49
-0.12
 74
     0
  0
LTYPE
  5
AC
330
5
100
AcDbSymbolTableRecord
100
AcDbLinetypeTableRecord
  2
ACAD_ISO11W100
 70
     0
  3
ISO double-dash dot __ __ . __ __ . __ __ . __ 
 72
    65
 73
     6
 40
1.299999999999999
 49
0.47
 74
     0
 49
-0.12
 74
     0
 49
0.47
 74
     0
 49
-0.12
 74
     0
 49
0.0
 74
     0
 49
-0.12
 74
     0
  0
LTYPE
  5
AD
330
5
100
AcDbSymbolTableRecord
100
AcDbLinetypeTableRecord
  2
ACAD_ISO12W100
 70
     0
  3
ISO dash double-dot __ . . __ . . __ . . __ . .
 72
    65
 73
     6
 40
0.8299999999999998
 49
0.47
 74
     0
 49
-0.12
 74
     0
 49
0.0
 74
     0
 49
-0.12
 74
     0
 49
0.0
 74
     0
 49
-0.12
 74
     0
  0
LTYPE
  5
AE
330
5
100
AcDbSymbolTableRecord
100
AcDbLinetypeTableRecord
  2
ACAD_ISO13W100
 70
     0
  3
ISO double-dash double-dot __ __ . . __ __ . . 
 72
    65
 73
     8
 40
1.419999999999999
 49
0.47
 74
     0
 49
-0.12
 74
     0
 49
0.47
 74
     0
 49
-0.12
 74
     0
 49
0.0
 74
     0
 49
-0.12
 74
     0
 49
0.0
 74
     0
 49
-0.12
 74
     0
  0
LTYPE
  5
AF
330
5
100
AcDbSymbolTableRecord
100
AcDbLinetypeTableRecord
  2
ACAD_ISO14W100
 70
     0
  3
ISO dash triple-dot __ . . . __ . . . __ . . . 
 72
    65
 73
     8
 40
0.95
 49
0.47
 74
     0
 49
-0.12
 74
     0
 49
0.0
 74
     0
 49
-0.12
 74
     0
 49
0.0
 74
     0
 49
-0.12
 74
     0
 49
0.0
 74
     0
 49
-0.12
 74
     0
  0
LTYPE
  5
B0
330
5
100
AcDbSymbolTableRecord
100
AcDbLinetypeTableRecord
  2
ACAD_ISO15W100
 70
     0
  3
ISO double-dash triple-dot __ __ . . . __ __ . 
 72
    65
 73
    10
 40
1.539999999999999
 49
0.47
 74
     0
 49
-0.12
 74
     0
 49
0.47
 74
     0
 49
-0.12
 74
     0
 49
0.0
 74
     0
 49
-0.12
 74
     0
 49
0.0
 74
     0
 49
-0.12
 74
     0
 49
0.0
 74
     0
 49
-0.12
 74
     0
  0
LTYPE
  5
B3
330
5
100
AcDbSymbolTableRecord
100
AcDbLinetypeTableRecord
  2
FENCELINE1
 70
     0
  3
Fenceline circle ----0-----0----0-----0----0---
 72
    65
 73
     4
 40
1.45
 49
0.25
 74
     0
 49
-0.1
 74
     4
 75
   133
340
B2
 46
0.1
 50
0.0
 44
-0.1
 45
0.0
 49
-0.1
 74
     0
 49
1.0
 74
     0
  0
LTYPE
  5
B4
330
5
100
AcDbSymbolTableRecord
100
AcDbLinetypeTableRecord
  2
FENCELINE2
 70
     0
  3
Fenceline square ----[]-----[]----[]-----[]----
 72
    65
 73
     4
 40
1.45
 49
0.25
 74
     0
 49
-0.1
 74
     4
 75
   132
340
B2
 46
0.1
 50
0.0
 44
-0.1
 45
0.0
 49
-0.1
 74
     0
 49
1.0
 74
     0
  0
LTYPE
  5
B5
330
5
100
AcDbSymbolTableRecord
100
AcDbLinetypeTableRecord
  2
TRACKS
 70
     0
  3
Tracks -|-|-|-|-|-|-|-|-|-|-|-|-|-|-|-|-|-|-|-|
 72
    65
 73
     2
 40
0.3
 49
0.15
 74
     4
 75
   130
340
B2
 46
0.25
 50
0.0
 44
0.0
 45
0.0
 49
0.15
 74
     0
  0
LTYPE
  5
B6
330
5
100
AcDbSymbolTableRecord
100
AcDbLinetypeTableRecord
  2
BATTING
 70
     0
  3
Batting SSSSSSSSSSSSSSSSSSSSSSSSSSSSSSSSSSSSSSS
 72
    65
 73
     4
 40
0.4001000000000001
 49
0.0001
 74
     0
 49
-0.1
 74
     4
 75
   134
340
B2
 46
0.1
 50
0.0
 44
-0.1
 45
0.0
 49
-0.2
 74
     4
 75
   134
340
B2
 46
0.1
 50
180.0
 44
0.1
 45
0.0
 49
-0.1
 74
     0
  0
LTYPE
  5
B7
330
5
100
AcDbSymbolTableRecord
100
AcDbLinetypeTableRecord
  2
HOT_WATER_SUPPLY
 70
     0
  3
Hot water supply ---- HW ---- HW ---- HW ----
 72
    65
 73
     3
 40
0.9
 49
0.5
 74
     0
 49
-0.2
 74
     2
 75
     0
340
55
 46
0.1
 50
0.0
 44
-0.1
 45
-0.05
  9
HW
 49
-0.2
 74
     0
  0
LTYPE
  5
B8
330
5
100
AcDbSymbolTableRecord
100
AcDbLinetypeTableRecord
  2
GAS_LINE
 70
     0
  3
Gas line ----GAS----GAS----GAS----GAS----GAS---
 72
    65
 73
     3
 40
0.95
 49
0.5
 74
     0
 49
-0.2
 74
     2
 75
     0
340
55
 46
0.1
 50
0.0
 44
-0.1
 45
-0.05
  9
GAS
 49
-0.25
 74
     0
  0
LTYPE
  5
B9
330
5
100
AcDbSymbolTableRecord
100
AcDbLinetypeTableRecord
  2
ZIGZAG
 70
     0
  3
Zig zag /\/\/\/\/\/\/\/\/\/\/\/\/\/\/\/\/\/\/\/
 72
    65
 73
     4
 40
0.8001000000000001
 49
0.0001
 74
     0
 49
-0.2
 74
     4
 75
   131
340
B2
 46
0.2
 50
0.0
 44
-0.2
 45
0.0
 49
-0.4
 74
     4
 75
   131
340
B2
 46
0.2
 50
180.0
 44
0.2
 45
0.0
 49
-0.2
 74
     0
  0
ENDTAB
  0
TABLE
  2
LAYER
  5
2
330
0
100
AcDbSymbolTable
 70
    27
  0
LAYER
  5
54
330
2
100
AcDbSymbolTableRecord
100
AcDbLayerTableRecord
  2
0
 70
     0
 62
     7
  6
Continuous
370
    18
390
F
  0
LAYER
  5
C3
330
2
100
AcDbSymbolTableRecord
100
AcDbLayerTableRecord
  2
Dimension (ANSI)
 70
     0
 62
     7
  6
Continuous
370
    13
390
F
  0
LAYER
  5
C5
330
2
100
AcDbSymbolTableRecord
100
AcDbLayerTableRecord
  2
Hidden (ANSI)
 70
     0
 62
     7
  6
DASHED
370
    15
390
F
  0
LAYER
  5
CC
330
2
100
AcDbSymbolTableRecord
100
AcDbLayerTableRecord
  2
Symbol (ANSI)
 70
     0
 62
     7
  6
Continuous
370
    18
390
F
  0
LAYER
  5
CF
330
2
100
AcDbSymbolTableRecord
100
AcDbLayerTableRecord
  2
Visible (ANSI)
 70
     0
 62
     7
  6
Continuous
370
    13
390
F
  0
LAYER
  5
D0
330
2
100
AcDbSymbolTableRecord
100
AcDbLayerTableRecord
  2
Visible Narrow (ANSI)
 70
     0
 62
     7
  6
Continuous
370
    18
390
F
  0
LAYER
  5
1FF
330
2
100
AcDbSymbolTableRecord
100
AcDbLayerTableRecord
  2
Defpoints
 70
     0
 62
     7
  6
Continuous
290
     0
370
    -3
390
F
  0
ENDTAB
  0
TABLE
  2
STYLE
  5
3
330
0
100
AcDbSymbolTable
 70
    17
  0
STYLE
  5
55
330
3
100
AcDbSymbolTableRecord
100
AcDbTextStyleTableRecord
  2
Standard
 70
     0
 40
0.0
 41
1.0
 50
0.0
 71
     0
 42
0.2
  3
txt
  4

  0
STYLE
  5
5A
330
3
100
AcDbSymbolTableRecord
100
AcDbTextStyleTableRecord
  2
Annotative
 70
     0
 40
0.0
 41
1.0
 50
0.0
 71
     0
 42
0.2
  3
txt
  4

1001
AcadAnnotative
1000
AnnotativeData
1002
{
1070
     1
1070
     1
1002
}
  0
STYLE
  5
B2
330
3
100
AcDbSymbolTableRecord
100
AcDbTextStyleTableRecord
  2

 70
     1
 40
0.0
 41
1.0
 50
0.0
 71
     0
 42
0.2
  3
ltypeshp.shx
  4

  0
STYLE
  5
D4
330
3
100
AcDbSymbolTableRecord
100
AcDbTextStyleTableRecord
  2
ITALICC_120
 70
     0
 40
0.0
 41
1.0
 50
0.0
 71
     0
 42
0.2
  3
italicc.shx
  4

  0
STYLE
  5
D5
330
3
100
AcDbSymbolTableRecord
100
AcDbTextStyleTableRecord
  2
Label Text (ANSI)
 70
     0
 40
0.0
 41
1.0
 50
0.0
 71
     0
 42
0.2
  3
RomanS.shx
  4

  0
STYLE
  5
D6
330
3
100
AcDbSymbolTableRecord
100
AcDbTextStyleTableRecord
  2
Note Text (ANSI)
 70
     0
 40
0.0
 41
1.0
 50
0.0
 71
     0
 42
0.2
  3
RomanS.shx
  4

  0
STYLE
  5
D7
330
3
100
AcDbSymbolTableRecord
100
AcDbTextStyleTableRecord
  2
ROMANS
 70
     0
 40
0.0
 41
1.0
 50
0.0
 71
     0
 42
0.2
  3
romans.shx
  4

  0
STYLE
  5
D8
330
3
100
AcDbSymbolTableRecord
100
AcDbTextStyleTableRecord
  2
SANSSERIF_114
 70
     0
 40
0.0
 41
1.0
 50
0.0
 71
     0
 42
0.2
  3
TAHOMA.TTF
  4

1001
ACAD
1000
Tahoma
1071
      256
  0
STYLE
  5
D9
330
3
100
AcDbSymbolTableRecord
100
AcDbTextStyleTableRecord
  2
SANSSERIF_117
 70
     0
 40
0.0
 41
1.0
 50
0.0
 71
     0
 42
0.2
  3
TAHOMA.TTF
  4

1001
ACAD
1000
Tahoma
1071
      256
  0
STYLE
  5
DA
330
3
100
AcDbSymbolTableRecord
100
AcDbTextStyleTableRecord
  2
STANDARDAM_ANSI
 70
     0
 40
0.0
 41
1.0
 50
0.0
 71
     0
 42
0.2
  3
txt.shx
  4

  0
STYLE
  5
DB
330
3
100
AcDbSymbolTableRecord
100
AcDbTextStyleTableRecord
  2
StandardAM_ANSI$0
 70
     0
 40
0.0
 41
1.0
 50
0.0
 71
     0
 42
0.2
  3
txt.shx
  4

  0
STYLE
  5
DC
330
3
100
AcDbSymbolTableRecord
100
AcDbTextStyleTableRecord
  2
STANDARDAM_ANSI$3
 70
     0
 40
0.0
 41
1.0
 50
0.0
 71
     0
 42
0.2
  3
txt.shx
  4

  0
STYLE
  5
DD
330
3
100
AcDbSymbolTableRecord
100
AcDbTextStyleTableRecord
  2
STANDARDAM_ANSI$4
 70
     0
 40
0.0
 41
1.0
 50
0.0
 71
     0
 42
0.2
  3
txt.shx
  4

  0
STYLE
  5
DE
330
3
100
AcDbSymbolTableRecord
100
AcDbTextStyleTableRecord
  2
STANDARDAM_ANSI$7
 70
     0
 40
0.0
 41
1.0
 50
0.0
 71
     0
 42
0.2
  3
txt.shx
  4

  0
STYLE
  5
DF
330
3
100
AcDbSymbolTableRecord
100
AcDbTextStyleTableRecord
  2
STANDARDAM_ANSI$SF
 70
     0
 40
0.0
 41
1.0
 50
0.0
 71
     0
 42
0.2
  3
txt.shx
  4

  0
STYLE
  5
E0
330
3
100
AcDbSymbolTableRecord
100
AcDbTextStyleTableRecord
  2
STANDARDAM_ANSI$SH
 70
     0
 40
0.0
 41
1.0
 50
0.0
 71
     0
 42
0.2
  3
txt.shx
  4

  0
STYLE
  5
E1
330
3
100
AcDbSymbolTableRecord
100
AcDbTextStyleTableRecord
  2
STANDARDSTANDARD
 70
     0
 40
0.0
 41
1.0
 50
0.0
 71
     0
 42
0.2
  3
txt.shx
  4

  0
ENDTAB
  0
TABLE
  2
VIEW
  5
6
330
0
100
AcDbSymbolTable
 70
     0
  0
ENDTAB
  0
TABLE
  2
UCS
  5
7
330
0
100
AcDbSymbolTable
 70
     0
  0
ENDTAB
  0
TABLE
  2
APPID
  5
9
330
0
100
AcDbSymbolTable
 70
     4
  0
APPID
  5
56
330
9
100
AcDbSymbolTableRecord
100
AcDbRegAppTableRecord
  2
ACAD
 70
     0
  0
APPID
  5
5E
330
9
100
AcDbSymbolTableRecord
100
AcDbRegAppTableRecord
  2
AcadAnnotative
 70
     0
  0
APPID
  5
46D
330
9
100
AcDbSymbolTableRecord
100
AcDbRegAppTableRecord
  2
ACAD_DSTYLE_DIMRADIAL_EXTENSION
 70
     0
  0
APPID
  5
FF3
330
9
100
AcDbSymbolTableRecord
100
AcDbRegAppTableRecord
  2
ACAD_MLEADERVER
 70
     0
  0
ENDTAB
  0
TABLE
  2
DIMSTYLE
  5
A
330
0
100
AcDbSymbolTable
 70
    27
100
AcDbDimStyleTable
 71
     2
340
F6
340
58
  0
DIMSTYLE
105
58
330
A
100
AcDbSymbolTableRecord
100
AcDbDimStyleTableRecord
  2
STANDARD
 70
     0
 41
0.1800000071525573
 42
0.0625
140
0.1800000071525574
144
1.0
147
0.0900000035762787
176
   256
177
   256
178
   256
274
     3
340
55
371
    -1
372
    -1
  0
DIMSTYLE
105
59
330
A
100
AcDbSymbolTableRecord
100
AcDbDimStyleTableRecord
  2
Annotative
 70
     0
340
55
1001
AcadAnnotative
1000
AnnotativeData
1002
{
1070
     1
1070
     1
1002
}
  0
DIMSTYLE
105
E2
330
A
100
AcDbSymbolTableRecord
100
AcDbDimStyleTableRecord
  2
AM_ANSI
 70
     0
  4
 mm
 40
7.0
 41
0.119999997317791
 42
0.05
 43
0.5
 44
0.1
 45
0.00000001
 78
     4
 79
     2
140
0.1200000047683716
146
0.7099999453624112
147
0.0599999986588955
176
   256
177
   256
178
     2
284
     4
340
DA
371
    -1
372
    -1
  0
DIMSTYLE
105
E3
330
A
100
AcDbSymbolTableRecord
100
AcDbDimStyleTableRecord
  2
AM_ANSI$7
 70
     0
  4
 mm
 40
7.0
 41
0.119999997317791
 42
0.05
 43
0.5
 44
0.1
 45
0.00000001
 78
     4
 79
     2
140
0.1200000047683716
146
0.7099999453624112
147
0.0599999986588955
176
   256
177
   256
178
     2
284
     4
340
DA
371
    -1
372
    -1
  0
DIMSTYLE
105
E4
330
A
100
AcDbSymbolTableRecord
100
AcDbDimStyleTableRecord
  2
AM_ANSI$0
 70
     0
  4
 mm
 40
7.0
 41
0.119999997317791
 42
0.05
 43
0.5
 44
0.1
 45
0.00000001
 78
     4
 79
     2
140
0.1200000047683716
146
0.7099999453624112
147
0.0599999986588955
176
   256
177
   256
178
     2
284
     4
340
DB
371
    -1
372
    -1
  0
DIMSTYLE
105
E5
330
A
100
AcDbSymbolTableRecord
100
AcDbDimStyleTableRecord
  2
AM_ANSI$0$7
 70
     0
  4
 mm
 40
7.0
 41
0.119999997317791
 42
0.05
 43
0.5
 44
0.1
 45
0.00000001
 78
     4
 79
     2
140
0.1200000047683716
146
0.7099999453624112
147
0.0599999986588955
176
   256
177
   256
178
     2
284
     4
340
DB
371
    -1
372
    -1
  0
DIMSTYLE
105
E6
330
A
100
AcDbSymbolTableRecord
100
AcDbDimStyleTableRecord
  2
AM_ANSI$3
 70
     0
  4
 mm
 40
7.0
 41
0.119999997317791
 42
0.05
 43
0.5
 44
0.1
 45
0.00000001
 78
     4
 79
     2
140
0.1200000047683716
146
0.7099999453624112
147
0.0599999986588955
176
   256
177
   256
178
     2
284
     4
340
DC
371
    -1
372
    -1
  0
DIMSTYLE
105
E7
330
A
100
AcDbSymbolTableRecord
100
AcDbDimStyleTableRecord
  2
AM_ANSI$3$7
 70
     0
  4
 mm
 40
7.0
 41
0.119999997317791
 42
0.05
 43
0.5
 44
0.1
 45
0.00000001
 78
     4
 79
     2
140
0.1200000047683716
146
0.7099999453624112
147
0.0599999986588955
176
   256
177
   256
178
     2
284
     4
340
DC
371
    -1
372
    -1
  0
DIMSTYLE
105
E8
330
A
100
AcDbSymbolTableRecord
100
AcDbDimStyleTableRecord
  2
AM_ANSI$4
 70
     0
  4
 mm
 40
7.0
 41
0.119999997317791
 42
0.05
 43
0.5
 44
0.1
 45
0.00000001
 78
     4
 79
     2
140
0.1200000047683716
146
0.7099999453624112
147
0.0599999986588955
176
   256
177
   256
178
     2
284
     4
340
DD
371
    -1
372
    -1
  0
DIMSTYLE
105
E9
330
A
100
AcDbSymbolTableRecord
100
AcDbDimStyleTableRecord
  2
AM_ANSI$4$7
 70
     0
  4
 mm
 40
7.0
 41
0.119999997317791
 42
0.05
 43
0.5
 44
0.1
 45
0.00000001
 78
     4
 79
     2
140
0.1200000047683716
146
0.7099999453624112
147
0.0599999986588955
176
   256
177
   256
178
     2
284
     4
340
DD
371
    -1
372
    -1
  0
DIMSTYLE
105
EA
330
A
100
AcDbSymbolTableRecord
100
AcDbDimStyleTableRecord
  2
AM_ANSI$SF
 70
     0
  4
 mm
 40
7.0
 41
0.119999997317791
 42
0.05
 43
0.5
 44
0.1
 45
0.00000001
 75
     1
 76
     1
 78
     4
 79
     2
140
0.1200000047683716
146
0.7099999453624112
147
0.0599999986588955
176
   256
177
   256
178
     2
284
     4
340
DF
371
    -1
372
    -1
  0
DIMSTYLE
105
EB
330
A
100
AcDbSymbolTableRecord
100
AcDbDimStyleTableRecord
  2
AM_ANSI$SF$7
 70
     0
  4
 mm
 40
7.0
 41
0.119999997317791
 42
0.05
 43
0.5
 44
0.1
 45
0.00000001
 75
     1
 76
     1
 78
     4
 79
     2
140
0.1200000047683716
146
0.7099999453624112
147
0.0599999986588955
176
   256
177
   256
178
     2
284
     4
340
DF
371
    -1
372
    -1
  0
DIMSTYLE
105
EC
330
A
100
AcDbSymbolTableRecord
100
AcDbDimStyleTableRecord
  2
AM_ANSI$SH
 70
     0
  4
 mm
 40
7.0
 41
0.119999997317791
 42
0.05
 43
0.5
 44
0.1
 45
0.00000001
 75
     1
 76
     1
 78
     4
 79
     2
140
0.1200000047683716
146
0.7099999453624112
147
0.0599999986588955
176
   256
177
   256
178
     2
284
     4
340
E0
371
    -1
372
    -1
  0
DIMSTYLE
105
ED
330
A
100
AcDbSymbolTableRecord
100
AcDbDimStyleTableRecord
  2
AM_ANSI$SH$7
 70
     0
  4
 mm
 40
7.0
 41
0.119999997317791
 42
0.05
 43
0.5
 44
0.1
 45
0.00000001
 75
     1
 76
     1
 78
     4
 79
     2
140
0.1200000047683716
146
0.7099999453624112
147
0.0599999986588955
176
   256
177
   256
178
     2
284
     4
340
E0
371
    -1
372
    -1
  0
DIMSTYLE
105
EE
330
A
100
AcDbSymbolTableRecord
100
AcDbDimStyleTableRecord
  2
Architectural (ANSI)
 70
     0
 40
7.0
 41
0.0984251946210861
 43
0.2362204724409449
 44
0.125
 45
0.00000001
 46
0.3937007874015748
 78
     3
 79
     3
140
0.1200000047683716
147
0.031496062992126
171
     1
176
   256
177
   256
178
   256
272
     2
274
     1
276
     2
277
     4
284
    12
285
     4
286
    12
340
D6
371
    -1
372
    -1
  0
DIMSTYLE
105
EF
330
A
100
AcDbSymbolTableRecord
100
AcDbDimStyleTableRecord
  2
Architectural (ANSI)$7
 70
     0
 40
7.0
 41
0.0984251946210861
 43
0.2362204724409449
 44
0.125
 45
0.00000001
 46
0.3937007874015748
 78
     3
 79
     3
140
0.1200000047683716
147
0.031496062992126
171
     1
176
   256
177
   256
178
   256
272
     2
274
     1
276
     2
277
     4
284
    12
285
     4
286
    12
340
D6
371
    -1
372
    -1
  0
DIMSTYLE
105
F0
330
A
100
AcDbSymbolTableRecord
100
AcDbDimStyleTableRecord
  2
Default - Fraction (ANSI)
 70
     0
 40
7.0
 41
0.0984251946210861
 43
0.2362204724409449
 44
0.125
 45
0.00000001
 46
0.3937007874015748
 79
     3
140
0.1200000047683716
147
0.031496062992126
171
     1
176
   256
177
   256
178
   256
272
     2
274
     1
276
     2
277
     5
284
    12
285
     4
286
    12
340
D6
371
    -1
372
    -1
  0
DIMSTYLE
105
F1
330
A
100
AcDbSymbolTableRecord
100
AcDbDimStyleTableRecord
  2
Default - Fraction (ANSI)$7
 70
     0
 40
7.0
 41
0.0984251946210861
 43
0.2362204724409449
 44
0.125
 45
0.00000001
 46
0.3937007874015748
 79
     3
140
0.1200000047683716
147
0.031496062992126
171
     1
176
   256
177
   256
178
   256
272
     2
274
     1
276
     2
277
     5
284
    12
285
     4
286
    12
340
D6
371
    -1
372
    -1
  0
DIMSTYLE
105
F2
330
A
100
AcDbSymbolTableRecord
100
AcDbDimStyleTableRecord
  2
Default - mm (ANSI)
 70
     0
 40
7.0
 41
0.0984251946210861
 42
0.063
 43
0.2362204724409449
 44
0.125
 45
0.00000001
 46
0.3937007874015748
 73
     0
 78
     4
 79
     1
140
0.1200000047683716
143
1.0
144
25.4
147
0.031496062992126
171
     1
176
   256
177
   256
178
   256
179
     1
271
     2
272
     2
274
     1
284
     4
285
     4
340
D6
371
    -1
372
    -1
  0
DIMSTYLE
105
F3
330
A
100
AcDbSymbolTableRecord
100
AcDbDimStyleTableRecord
  2
Default - mm (ANSI)$7
 70
     0
 40
7.0
 41
0.0984251946210861
 42
0.063
 43
0.2362204724409449
 44
0.125
 45
0.00000001
 46
0.3937007874015748
 73
     0
 78
     4
 79
     1
140
0.1200000047683716
143
1.0
144
25.4
147
0.031496062992126
171
     1
176
   256
177
   256
178
   256
179
     1
271
     2
272
     2
274
     1
284
     4
285
     4
340
D6
371
    -1
372
    -1
  0
DIMSTYLE
105
F4
330
A
100
AcDbSymbolTableRecord
100
AcDbDimStyleTableRecord
  2
Default - mm [in] (ANSI)
 70
     0
  4
 in
 40
7.0
 41
0.0984251946210861
 42
0.063
 43
0.25
 44
0.125
 45
0.00000001
 46
0.3937007874015748
 73
     0
 78
     4
 79
     1
140
0.1200000047683716
143
0.03937
144
25.4
147
0.031496062992126
170
     1
171
     3
176
   256
177
   256
178
   256
179
     1
271
     2
272
     2
274
     3
284
     4
285
     4
286
     4
340
D6
371
    -1
372
    -1
  0
DIMSTYLE
105
F5
330
A
100
AcDbSymbolTableRecord
100
AcDbDimStyleTableRecord
  2
Default - mm [in] (ANSI)$7
 70
     0
  4
 in
 40
7.0
 41
0.0984251946210861
 42
0.063
 43
0.25
 44
0.125
 45
0.00000001
 46
0.3937007874015748
 73
     0
 78
     4
 79
     1
140
0.1200000047683716
143
0.03937
144
25.4
147
0.031496062992126
170
     1
171
     3
176
   256
177
   256
178
   256
179
     1
271
     2
272
     2
274
     3
284
     4
285
     4
286
     4
340
D6
371
    -1
372
    -1
  0
DIMSTYLE
105
F6
102
{ACAD_REACTORS
330
1FD
330
2EA
330
3D4
330
48E
330
547
330
645
330
72F
330
82F
330
919
330
A19
330
B03
330
BED
330
CEF
330
DD9
330
EC3
102
}
330
A
100
AcDbSymbolTableRecord
100
AcDbDimStyleTableRecord
  2
Default (ANSI)
 70
     0
 40
7.0
 41
0.0984251946210861
 43
0.2362204724409449
 44
0.125
 45
0.00000001
 46
0.3937007874015748
 79
     1
140
0.1200000047683716
147
0.031496062992126
171
     1
176
   256
177
   256
178
   256
271
     3
272
     2
274
     1
284
     4
285
     4
340
D6
371
    -1
372
    -1
  0
DIMSTYLE
105
F7
330
A
100
AcDbSymbolTableRecord
100
AcDbDimStyleTableRecord
  2
Default (ANSI)$7
 70
     0
 40
7.0
 41
0.0984251946210861
 43
0.2362204724409449
 44
0.125
 45
0.00000001
 46
0.3937007874015748
 79
     1
140
0.1200000047683716
147
0.031496062992126
171
     1
176
   256
177
   256
178
   256
271
     3
272
     2
274
     1
284
     4
285
     4
340
D6
371
    -1
372
    -1
  0
DIMSTYLE
105
F8
330
A
100
AcDbSymbolTableRecord
100
AcDbDimStyleTableRecord
  2
Alternate (ANSI)
 70
     0
 40
7.0
 41
0.0979999974370003
340
55
342
F9
  0
DIMSTYLE
105
10B
330
A
100
AcDbSymbolTableRecord
100
AcDbDimStyleTableRecord
  2
Datum (ANSI)
 70
     0
 40
7.0
 41
0.0979999974370003
340
55
342
F9
  0
DIMSTYLE
105
11A
330
A
100
AcDbSymbolTableRecord
100
AcDbDimStyleTableRecord
  2
Large (ANSI)
 70
     0
 40
7.0
 41
0.1959999948740005
340
55
342
F9
  0
ENDTAB
  0
TABLE
  2
BLOCK_RECORD
  5
1
330
0
100
AcDbSymbolTable
 70
    19
  0
BLOCK_RECORD
  5
6C
330
1
100
AcDbSymbolTableRecord
100
AcDbBlockTableRecord
  2
*Model_Space
340
6F
  0
BLOCK_RECORD
  5
68
330
1
100
AcDbSymbolTableRecord
100
AcDbBlockTableRecord
  2
*Paper_Space
340
6B
  0
BLOCK_RECORD
  5
70
330
1
100
AcDbSymbolTableRecord
100
AcDbBlockTableRecord
  2
*Paper_Space0
340
73
  0
BLOCK_RECORD
  5
F9
330
1
100
AcDbSymbolTableRecord
100
AcDbBlockTableRecord
  2
_Closed
340
0
  0
BLOCK_RECORD
  5
100
330
1
100
AcDbSymbolTableRecord
100
AcDbBlockTableRecord
  2
DatumFilled45
340
0
  0
BLOCK_RECORD
  5
10C
330
1
100
AcDbSymbolTableRecord
100
AcDbBlockTableRecord
  2
Filled-1
340
0
  0
BLOCK_RECORD
  5
200
330
1
100
AcDbSymbolTableRecord
100
AcDbBlockTableRecord
  2
*D4
340
0
  0
BLOCK_RECORD
  5
2EB
330
1
100
AcDbSymbolTableRecord
100
AcDbBlockTableRecord
  2
*D5
340
0
  0
BLOCK_RECORD
  5
3D5
330
1
100
AcDbSymbolTableRecord
100
AcDbBlockTableRecord
  2
*D6
340
0
  0
BLOCK_RECORD
  5
48F
330
1
100
AcDbSymbolTableRecord
100
AcDbBlockTableRecord
  2
*D7
340
0
  0
BLOCK_RECORD
  5
548
330
1
100
AcDbSymbolTableRecord
100
AcDbBlockTableRecord
  2
*D8
340
0
  0
BLOCK_RECORD
  5
646
330
1
100
AcDbSymbolTableRecord
100
AcDbBlockTableRecord
  2
*D9
340
0
  0
BLOCK_RECORD
  5
730
330
1
100
AcDbSymbolTableRecord
100
AcDbBlockTableRecord
  2
*D10
340
0
  0
BLOCK_RECORD
  5
830
330
1
100
AcDbSymbolTableRecord
100
AcDbBlockTableRecord
  2
*D11
340
0
  0
BLOCK_RECORD
  5
91A
330
1
100
AcDbSymbolTableRecord
100
AcDbBlockTableRecord
  2
*D12
340
0
  0
BLOCK_RECORD
  5
A1A
330
1
100
AcDbSymbolTableRecord
100
AcDbBlockTableRecord
  2
*D13
340
0
  0
BLOCK_RECORD
  5
B04
330
1
100
AcDbSymbolTableRecord
100
AcDbBlockTableRecord
  2
*D14
340
0
  0
BLOCK_RECORD
  5
BEE
330
1
100
AcDbSymbolTableRecord
100
AcDbBlockTableRecord
  2
*D15
340
0
  0
BLOCK_RECORD
  5
CF0
330
1
100
AcDbSymbolTableRecord
100
AcDbBlockTableRecord
  2
*D16
340
0
  0
BLOCK_RECORD
  5
DDA
330
1
100
AcDbSymbolTableRecord
100
AcDbBlockTableRecord
  2
*D17
340
0
  0
BLOCK_RECORD
  5
EC4
330
1
100
AcDbSymbolTableRecord
100
AcDbBlockTableRecord
  2
*D18
340
0
  0
ENDTAB
  0
ENDSEC
  0
SECTION
  2
BLOCKS
  0
BLOCK
  5
6D
330
6C
100
AcDbEntity
  8
0
100
AcDbBlockBegin
  2
*Model_Space
 70
     0
 10
0.0
 20
0.0
 30
0.0
  3
*Model_Space
  1

  0
ENDBLK
  5
6E
330
6C
100
AcDbEntity
  8
0
100
AcDbBlockEnd
  0
BLOCK
  5
69
330
68
100
AcDbEntity
 67
     1
  8
0
100
AcDbBlockBegin
  2
*Paper_Space
 70
     0
 10
0.0
 20
0.0
 30
0.0
  3
*Paper_Space
  1

  0
ENDBLK
  5
6A
330
68
100
AcDbEntity
 67
     1
  8
0
100
AcDbBlockEnd
  0
BLOCK
  5
71
330
70
100
AcDbEntity
 67
     1
  8
0
100
AcDbBlockBegin
  2
*Paper_Space0
 70
     0
 10
0.0
 20
0.0
 30
0.0
  3
*Paper_Space0
  1

  0
ENDBLK
  5
72
330
70
100
AcDbEntity
 67
     1
  8
0
100
AcDbBlockEnd
  0
BLOCK
  5
FE
330
F9
100
AcDbEntity
  8
0
100
AcDbBlockBegin
  2
_Closed
 70
     0
 10
0.0
 20
0.0
 30
0.0
  3
_Closed
  1

  0
LINE
  5
FA
330
F9
100
AcDbEntity
  8
0
  6
ByBlock
 62
     0
370
    -2
100
AcDbLine
 10
-1.0
 20
0.1666666666666666
 30
0.0
 11
0.0
 21
0.0
 31
0.0
  0
LINE
  5
FB
330
F9
100
AcDbEntity
  8
0
  6
ByBlock
 62
     0
370
    -2
100
AcDbLine
 10
0.0
 20
0.0
 30
0.0
 11
-1.0
 21
-0.1666666666666666
 31
0.0
  0
LINE
  5
FC
330
F9
100
AcDbEntity
  8
0
  6
ByBlock
 62
     0
370
    -2
100
AcDbLine
 10
-1.0
 20
0.1666666666666666
 30
0.0
 11
-1.0
 21
-0.1666666666666666
 31
0.0
  0
LINE
  5
FD
330
F9
100
AcDbEntity
  8
0
  6
ByBlock
 62
     0
370
    -2
100
AcDbLine
 10
0.0
 20
0.0
 30
0.0
 11
-1.0
 21
0.0
 31
0.0
  0
ENDBLK
  5
FF
330
F9
100
AcDbEntity
  8
0
100
AcDbBlockEnd
  0
BLOCK
  5
101
330
100
100
AcDbEntity
  8
0
100
AcDbBlockBegin
  2
DatumFilled45
 70
     0
 10
0.0
 20
0.0
 30
0.0
  3
DatumFilled45
  1

  0
POLYLINE
  5
103
330
100
100
AcDbEntity
  8
0
 62
     0
100
AcDb2dPolyline
 66
     1
 10
0.0
 20
0.0
 30
0.0
 70
   128
  0
VERTEX
  5
104
330
103
100
AcDbEntity
  8
0
 62
     0
100
AcDbVertex
100
AcDb2dVertex
 10
0.0
 20
0.9999999999999998
 30
0.0
  0
VERTEX
  5
105
330
103
100
AcDbEntity
  8
0
 62
     0
100
AcDbVertex
100
AcDb2dVertex
 10
0.0
 20
-0.9999999999999998
 30
0.0
  0
VERTEX
  5
107
330
103
100
AcDbEntity
  8
0
 62
     0
100
AcDbVertex
100
AcDb2dVertex
 10
-0.9999999999999998
 20
0.0
 30
0.0
  0
VERTEX
  5
108
330
103
100
AcDbEntity
  8
0
 62
     0
100
AcDbVertex
100
AcDb2dVertex
 10
0.0
 20
0.9999999999999998
 30
0.0
  0
SEQEND
  5
106
330
103
100
AcDbEntity
  8
0
 62
     0
  0
SOLID
  5
10A
330
100
100
AcDbEntity
  8
0
 62
     0
100
AcDbTrace
 10
0.0
 20
0.9999999999999998
 30
0.0
 11
0.0
 21
-0.9999999999999998
 31
0.0
 12
-0.9999999999999998
 22
0.0
 32
0.0
 13
0.0
 23
0.9999999999999998
 33
0.0
  0
ENDBLK
  5
102
330
100
100
AcDbEntity
  8
0
100
AcDbBlockEnd
  0
BLOCK
  5
10D
330
10C
100
AcDbEntity
  8
0
100
AcDbBlockBegin
  2
Filled-1
 70
     0
 10
0.0
 20
0.0
 30
0.0
  3
Filled-1
  1

  0
LINE
  5
10F
330
10C
100
AcDbEntity
  8
0
 62
     0
100
AcDbLine
 10
-0.9999999999999998
 20
0.0
 30
0.0
 11
0.0
 21
0.0
 31
0.0
  0
POLYLINE
  5
110
330
10C
100
AcDbEntity
  8
0
 62
     0
100
AcDb2dPolyline
 66
     1
 10
0.0
 20
0.0
 30
0.0
 70
   128
  0
VERTEX
  5
111
330
110
100
AcDbEntity
  8
0
 62
     0
100
AcDbVertex
100
AcDb2dVertex
 10
-0.9999999999999998
 20
-0.0994897959183674
 30
0.0
  0
VERTEX
  5
112
330
110
100
AcDbEntity
  8
0
 62
     0
100
AcDbVertex
100
AcDb2dVertex
 10
0.0
 20
0.0
 30
0.0
  0
VERTEX
  5
114
330
110
100
AcDbEntity
  8
0
 62
     0
100
AcDbVertex
100
AcDb2dVertex
 10
-0.9999999999999998
 20
0.0994897959183674
 30
0.0
  0
VERTEX
  5
115
330
110
100
AcDbEntity
  8
0
 62
     0
100
AcDbVertex
100
AcDb2dVertex
 10
-0.9999999999999998
 20
-0.0994897959183674
 30
0.0
  0
SEQEND
  5
113
330
110
100
AcDbEntity
  8
0
 62
     0
  0
SOLID
  5
116
330
10C
100
AcDbEntity
  8
0
 62
     0
100
AcDbTrace
 10
-0.9999999999999998
 20
-0.0994897959183674
 30
0.0
 11
0.0
 21
0.0
 31
0.0
 12
-0.9999999999999998
 22
0.0994897959183674
 32
0.0
 13
-0.9999999999999998
 23
-0.0994897959183674
 33
0.0
  0
LINE
  5
117
330
10C
100
AcDbEntity
  8
0
 62
     0
100
AcDbLine
 10
-0.9999999999999998
 20
-0.0994897959183674
 30
0.0
 11
0.0
 21
0.0
 31
0.0
  0
LINE
  5
118
330
10C
100
AcDbEntity
  8
0
 62
     0
100
AcDbLine
 10
0.0
 20
0.0
 30
0.0
 11
-0.9999999999999998
 21
0.0994897959183674
 31
0.0
  0
LINE
  5
119
330
10C
100
AcDbEntity
  8
0
 62
     0
100
AcDbLine
 10
-0.9999999999999998
 20
0.0994897959183674
 30
0.0
 11
-0.9999999999999998
 21
-0.0994897959183674
 31
0.0
  0
ENDBLK
  5
10E
330
10C
100
AcDbEntity
  8
0
100
AcDbBlockEnd
  0
BLOCK
  5
201
330
200
100
AcDbEntity
  8
0
100
AcDbBlockBegin
  2
*D4
 70
     1
 10
0.0
 20
0.0
 30
0.0
  3
*D4
  1

  0
LINE
  5
2E0
330
200
100
AcDbEntity
  8
Dimension (ANSI)
100
AcDbLine
 10
54.93252545957706
 20
61.69248009461353
 30
0.0
 11
54.93252545957706
 21
68.74415332295999
 31
0.0
  0
LINE
  5
2E1
330
200
100
AcDbEntity
  8
Dimension (ANSI)
100
AcDbLine
 10
20.73252545957707
 20
61.69248009461353
 30
0.0
 11
20.73252545957707
 21
68.74415332295999
 31
0.0
  0
LINE
  5
2E2
330
200
100
AcDbEntity
  8
Dimension (ANSI)
100
AcDbLine
 10
54.24354909722946
 20
67.86915332295999
 30
0.0
 11
40.13299798317371
 21
67.86915332295999
 31
0.0
  0
LINE
  5
2E3
330
200
100
AcDbEntity
  8
Dimension (ANSI)
100
AcDbLine
 10
21.42150182192468
 20
67.86915332295999
 30
0.0
 11
35.5320529359804
 21
67.86915332295999
 31
0.0
  0
SOLID
  5
2E4
330
200
100
AcDbEntity
  8
Dimension (ANSI)
100
AcDbTrace
 10
54.24354909722946
 20
67.98398271668459
 30
0.0
 11
54.24354909722946
 21
67.75432392923538
 31
0.0
 12
54.93252545957706
 22
67.86915332295999
 32
0.0
 13
54.93252545957706
 23
67.86915332295999
 33
0.0
  0
SOLID
  5
2E5
330
200
100
AcDbEntity
  8
Dimension (ANSI)
100
AcDbTrace
 10
21.42150182192468
 20
67.98398271668459
 30
0.0
 11
21.42150182192468
 21
67.75432392923538
 31
0.0
 12
20.73252545957707
 22
67.86915332295999
 32
0.0
 13
20.73252545957707
 23
67.86915332295999
 33
0.0
  0
MTEXT
  5
2E6
330
200
100
AcDbEntity
  8
Dimension (ANSI)
100
AcDbMText
 10
35.75252537692529
 20
68.28915333964928
 30
0.0
 40
0.840000033378601
 41
0.0
 71
     1
 72
     1
  1
\A1;34.200
  7
Note Text (ANSI)
 73
     1
 44
1.0
1001
ACAD
1000
MTEXTBEGIN
1070
    73
1070
     1
1070
    44
1040
1.0
1070
    74
1070
     0
1000
MTEXTEND
  0
POINT
  5
2E7
330
200
100
AcDbEntity
  8
Defpoints
 62
     0
100
AcDbPoint
 10
54.93252545957706
 20
61.25498009461352
 30
0.0
  0
POINT
  5
2E8
330
200
100
AcDbEntity
  8
Defpoints
 62
     0
100
AcDbPoint
 10
20.73252545957707
 20
61.25498009461352
 30
0.0
  0
POINT
  5
2E9
330
200
100
AcDbEntity
  8
Defpoints
 62
     0
100
AcDbPoint
 10
20.73252545957707
 20
67.86915332295999
 30
0.0
  0
ENDBLK
  5
202
330
200
100
AcDbEntity
  8
0
100
AcDbBlockEnd
  0
BLOCK
  5
2EC
330
2EB
100
AcDbEntity
  8
0
100
AcDbBlockBegin
  2
*D5
 70
     1
 10
0.0
 20
0.0
 30
0.0
  3
*D5
  1

  0
LINE
  5
3CA
330
2EB
100
AcDbEntity
  8
Dimension (ANSI)
100
AcDbLine
 10
20.79502545957707
 20
61.75498009461353
 30
0.0
 11
9.331034161125947
 21
61.75498009461353
 31
0.0
  0
LINE
  5
3CB
330
2EB
100
AcDbEntity
  8
Dimension (ANSI)
100
AcDbLine
 10
20.79502545957709
 20
21.55498009461354
 30
0.0
 11
9.331034161125938
 21
21.55498009461354
 31
0.0
  0
LINE
  5
3CC
330
2EB
100
AcDbEntity
  8
Dimension (ANSI)
100
AcDbLine
 10
10.20603416112594
 20
61.06600373226593
 30
0.0
 11
10.20603416112594
 21
46.80454002408038
 31
0.0
  0
LINE
  5
3CD
330
2EB
100
AcDbEntity
  8
Dimension (ANSI)
100
AcDbLine
 10
10.20603416112594
 20
22.24395645696114
 30
0.0
 11
10.20603416112594
 21
45.52359510881202
 31
0.0
  0
SOLID
  5
3CE
330
2EB
100
AcDbEntity
  8
Dimension (ANSI)
100
AcDbTrace
 10
10.09120476740134
 20
61.06600373226593
 30
0.0
 11
10.32086355485055
 21
61.06600373226593
 31
0.0
 12
10.20603416112594
 22
61.75498009461353
 32
0.0
 13
10.20603416112594
 23
61.75498009461353
 33
0.0
  0
SOLID
  5
3CF
330
2EB
100
AcDbEntity
  8
Dimension (ANSI)
100
AcDbTrace
 10
10.09120476740134
 20
22.24395645696114
 30
0.0
 11
10.32086355485054
 21
22.24395645696114
 31
0.0
 12
10.20603416112594
 22
21.55498009461354
 32
0.0
 13
10.20603416112594
 23
21.55498009461354
 33
0.0
  0
MTEXT
  5
3D0
330
2EB
100
AcDbEntity
  8
Dimension (ANSI)
100
AcDbMText
 10
8.126034078474162
 20
46.5840675831355
 30
0.0
 40
0.840000033378601
 41
0.0
 71
     1
 72
     1
  1
\A1;40.200
  7
Note Text (ANSI)
 73
     1
 44
1.0
1001
ACAD
1000
MTEXTBEGIN
1070
    73
1070
     1
1070
    44
1040
1.0
1070
    74
1070
     0
1000
MTEXTEND
  0
POINT
  5
3D1
330
2EB
100
AcDbEntity
  8
Defpoints
 62
     0
100
AcDbPoint
 10
21.23252545957707
 20
61.75498009461353
 30
0.0
  0
POINT
  5
3D2
330
2EB
100
AcDbEntity
  8
Defpoints
 62
     0
100
AcDbPoint
 10
21.23252545957708
 20
21.55498009461354
 30
0.0
  0
POINT
  5
3D3
330
2EB
100
AcDbEntity
  8
Defpoints
 62
     0
100
AcDbPoint
 10
10.20603416112594
 20
21.55498009461354
 30
0.0
  0
ENDBLK
  5
2ED
330
2EB
100
AcDbEntity
  8
0
100
AcDbBlockEnd
  0
BLOCK
  5
3D6
330
3D5
100
AcDbEntity
  8
0
100
AcDbBlockBegin
  2
*D6
 70
     1
 10
0.0
 20
0.0
 30
0.0
  3
*D6
  1

  0
LINE
  5
486
330
3D5
100
AcDbEntity
  8
Dimension (ANSI)
100
AcDbLine
 10
29.49803158282927
 20
14.8247920105593
 30
0.0
 11
28.50271354363349
 21
14.8247920105593
 31
0.0
  0
LINE
  5
487
330
3D5
100
AcDbEntity
  8
Dimension (ANSI)
100
AcDbLine
 10
28.50271354363349
 20
14.8247920105593
 30
0.0
 11
21.91648201276705
 21
21.41102354142377
 31
0.0
  0
MTEXT
  5
488
102
{ACAD_XDICTIONARY
360
FFA
102
}
330
3D5
100
AcDbEntity
  8
Dimension (ANSI)
100
AcDbMText
 10
29.71850402377415
 20
15.49479203718271
 30
0.0
 40
0.840000033378601
 41
0.0
 71
     1
 72
     1
  1
\A1;\U+22050.500{\PTYP.(8PL.)}
  7
Note Text (ANSI)
 73
     1
 44
1.0
1001
ACAD
1000
MTEXTBEGIN
1070
    73
1070
     1
1070
    44
1040
1.0
1070
    74
1070
     0
1000
MTEXTEND
  0
SOLID
  5
489
330
3D5
100
AcDbEntity
  8
Dimension (ANSI)
100
AcDbTrace
 10
21.99767865574925
 20
21.49222018440598
 30
0.0
 11
21.83528536978486
 21
21.32982689844155
 31
0.0
 12
21.42930215487375
 22
21.89820339931692
 32
0.0
 13
21.42930215487375
 23
21.89820339931692
 33
0.0
  0
LINE
  5
48A
330
3D5
100
AcDbEntity
  8
Dimension (ANSI)
100
AcDbLine
 10
20.62252545957709
 20
22.07498009461353
 30
0.0
 11
21.88252545957709
 21
22.07498009461353
 31
0.0
  0
LINE
  5
48B
330
3D5
100
AcDbEntity
  8
Dimension (ANSI)
100
AcDbLine
 10
21.25252545957709
 20
21.44498009461353
 30
0.0
 11
21.25252545957709
 21
22.70498009461353
 31
0.0
  0
POINT
  5
48C
330
3D5
100
AcDbEntity
  8
Defpoints
 62
     0
100
AcDbPoint
 10
21.42930215487375
 20
21.89820339931692
 30
0.0
  0
POINT
  5
48D
330
3D5
100
AcDbEntity
  8
Defpoints
 62
     0
100
AcDbPoint
 10
21.07574876428042
 20
22.25175678991014
 30
0.0
  0
ENDBLK
  5
3D7
330
3D5
100
AcDbEntity
  8
0
100
AcDbBlockEnd
  0
BLOCK
  5
490
330
48F
100
AcDbEntity
  8
0
100
AcDbBlockBegin
  2
*D7
 70
     1
 10
0.0
 20
0.0
 30
0.0
  3
*D7
  1

  0
LINE
  5
53F
330
48F
100
AcDbEntity
  8
Dimension (ANSI)
100
AcDbLine
 10
29.07371689323667
 20
19.75788832329877
 30
0.0
 11
28.38474053088907
 21
19.75788832329877
 31
0.0
  0
LINE
  5
540
330
48F
100
AcDbEntity
  8
Dimension (ANSI)
100
AcDbLine
 10
28.38474053088907
 20
19.75788832329877
 30
0.0
 11
22.02899942089898
 21
22.49107024001735
 31
0.0
  0
MTEXT
  5
541
102
{ACAD_XDICTIONARY
360
FFC
102
}
330
48F
100
AcDbEntity
  8
Dimension (ANSI)
100
AcDbMText
 10
29.29418933418155
 20
20.42788834992218
 30
0.0
 40
0.840000033378601
 41
0.0
 71
     1
 72
     1
  1
\A1;\U+22050.313{\PTYP.(4PL.)}
  7
Note Text (ANSI)
 73
     1
 44
1.0
1001
ACAD
1000
MTEXTBEGIN
1070
    73
1070
     1
1070
    44
1040
1.0
1070
    74
1070
     0
1000
MTEXTEND
  0
SOLID
  5
542
330
48F
100
AcDbEntity
  8
Dimension (ANSI)
100
AcDbTrace
 10
22.07436320493366
 20
22.59655918143404
 30
0.0
 11
21.98363563686431
 21
22.38558129860065
 31
0.0
 12
21.39606577239882
 22
22.7632529442254
 32
0.0
 13
21.39606577239882
 23
22.7632529442254
 33
0.0
  0
LINE
  5
543
330
48F
100
AcDbEntity
  8
Dimension (ANSI)
100
AcDbLine
 10
20.62252545957709
 20
22.82498009461354
 30
0.0
 11
21.88252545957709
 21
22.82498009461354
 31
0.0
  0
LINE
  5
544
330
48F
100
AcDbEntity
  8
Dimension (ANSI)
100
AcDbLine
 10
21.25252545957709
 20
22.19498009461354
 30
0.0
 11
21.25252545957709
 21
23.45498009461354
 31
0.0
  0
POINT
  5
545
330
48F
100
AcDbEntity
  8
Defpoints
 62
     0
100
AcDbPoint
 10
21.39606577239882
 20
22.7632529442254
 30
0.0
  0
POINT
  5
546
330
48F
100
AcDbEntity
  8
Defpoints
 62
     0
100
AcDbPoint
 10
21.10898514675537
 20
22.88670724500168
 30
0.0
  0
ENDBLK
  5
491
330
48F
100
AcDbEntity
  8
0
100
AcDbBlockEnd
  0
BLOCK
  5
549
330
548
100
AcDbEntity
  8
0
100
AcDbBlockBegin
  2
*D8
 70
     1
 10
0.0
 20
0.0
 30
0.0
  3
*D8
  1

  0
LINE
  5
63B
330
548
100
AcDbEntity
  8
Dimension (ANSI)
100
AcDbLine
 10
78.99823060659333
 20
46.6275120334805
 30
0.0
 11
78.99823060659333
 21
21.55563278932504
 31
0.0
  0
LINE
  5
63C
330
548
100
AcDbEntity
  8
Dimension (ANSI)
100
AcDbLine
 10
79.09198060659334
 20
46.6275120334805
 30
0.0
 11
79.09198060659334
 21
21.55563278932504
 31
0.0
  0
LINE
  5
63D
330
548
100
AcDbEntity
  8
Dimension (ANSI)
100
AcDbLine
 10
79.78095696894094
 20
22.43063278932504
 30
0.0
 11
80.46993333128854
 21
22.43063278932504
 31
0.0
  0
LINE
  5
63E
330
548
100
AcDbEntity
  8
Dimension (ANSI)
100
AcDbLine
 10
78.30925424424572
 20
22.43063278932504
 30
0.0
 11
77.62027788189811
 21
22.43063278932504
 31
0.0
  0
SOLID
  5
63F
330
548
100
AcDbEntity
  8
Dimension (ANSI)
100
AcDbTrace
 10
79.78095696894094
 20
22.54546218304965
 30
0.0
 11
79.78095696894094
 21
22.31580339560045
 31
0.0
 12
79.09198060659334
 22
22.43063278932504
 32
0.0
 13
79.09198060659334
 23
22.43063278932504
 33
0.0
  0
SOLID
  5
640
330
548
100
AcDbEntity
  8
Dimension (ANSI)
100
AcDbTrace
 10
78.30925424424572
 20
22.54546218304965
 30
0.0
 11
78.30925424424572
 21
22.31580339560045
 31
0.0
 12
78.99823060659333
 22
22.43063278932504
 32
0.0
 13
78.99823060659333
 23
22.43063278932504
 33
0.0
  0
MTEXT
  5
641
330
548
100
AcDbEntity
  8
Dimension (ANSI)
100
AcDbMText
 10
72.31980523909218
 20
22.99063281157745
 30
0.0
 40
0.840000033378601
 41
0.0
 71
     1
 72
     1
  1
\A1; 12 GA.\P304 SS
  7
Note Text (ANSI)
 73
     1
 44
1.0
1001
ACAD
1000
MTEXTBEGIN
1070
    73
1070
     1
1070
    44
1040
1.0
1070
    74
1070
     0
1000
MTEXTEND
  0
POINT
  5
642
330
548
100
AcDbEntity
  8
Defpoints
 62
     0
100
AcDbPoint
 10
78.99823060659333
 20
47.06501203348049
 30
0.0
  0
POINT
  5
643
330
548
100
AcDbEntity
  8
Defpoints
 62
     0
100
AcDbPoint
 10
79.09198060659334
 20
47.06501203348049
 30
0.0
  0
POINT
  5
644
330
548
100
AcDbEntity
  8
Defpoints
 62
     0
100
AcDbPoint
 10
79.09198060659334
 20
22.43063278932504
 30
0.0
  0
ENDBLK
  5
54A
330
548
100
AcDbEntity
  8
0
100
AcDbBlockEnd
  0
BLOCK
  5
647
330
646
100
AcDbEntity
  8
0
100
AcDbBlockBegin
  2
*D9
 70
     1
 10
0.0
 20
0.0
 30
0.0
  3
*D9
  1

  0
LINE
  5
725
330
646
100
AcDbEntity
  8
Dimension (ANSI)
100
AcDbLine
 10
20.81502545957708
 20
61.23498009461352
 30
0.0
 11
12.67501267421068
 21
61.23498009461353
 31
0.0
  0
LINE
  5
726
330
646
100
AcDbEntity
  8
Dimension (ANSI)
100
AcDbLine
 10
20.81502545957708
 20
22.07498009461353
 30
0.0
 11
12.67501267421067
 21
22.07498009461353
 31
0.0
  0
LINE
  5
727
330
646
100
AcDbEntity
  8
Dimension (ANSI)
100
AcDbLine
 10
13.55001267421068
 20
60.54600373226592
 30
0.0
 11
13.55001267421068
 21
44.29646266201749
 31
0.0
  0
LINE
  5
728
330
646
100
AcDbEntity
  8
Dimension (ANSI)
100
AcDbLine
 10
13.55001267421067
 20
22.76395645696113
 30
0.0
 11
13.55001267421067
 21
43.01551774674912
 31
0.0
  0
SOLID
  5
729
330
646
100
AcDbEntity
  8
Dimension (ANSI)
100
AcDbTrace
 10
13.43518328048608
 20
60.54600373226592
 30
0.0
 11
13.66484206793528
 21
60.54600373226592
 31
0.0
 12
13.55001267421068
 22
61.23498009461353
 32
0.0
 13
13.55001267421068
 23
61.23498009461353
 33
0.0
  0
SOLID
  5
72A
330
646
100
AcDbEntity
  8
Dimension (ANSI)
100
AcDbTrace
 10
13.43518328048607
 20
22.76395645696113
 30
0.0
 11
13.66484206793527
 21
22.76395645696113
 31
0.0
 12
13.55001267421067
 22
22.07498009461353
 32
0.0
 13
13.55001267421067
 23
22.07498009461353
 33
0.0
  0
MTEXT
  5
72B
330
646
100
AcDbEntity
  8
Dimension (ANSI)
100
AcDbMText
 10
11.4700125915589
 20
44.07599022107261
 30
0.0
 40
0.840000033378601
 41
0.0
 71
     1
 72
     1
  1
\A1;39.160
  7
Note Text (ANSI)
 73
     1
 44
1.0
1001
ACAD
1000
MTEXTBEGIN
1070
    73
1070
     1
1070
    44
1040
1.0
1070
    74
1070
     0
1000
MTEXTEND
  0
POINT
  5
72C
330
646
100
AcDbEntity
  8
Defpoints
 62
     0
100
AcDbPoint
 10
21.25252545957708
 20
61.23498009461352
 30
0.0
  0
POINT
  5
72D
330
646
100
AcDbEntity
  8
Defpoints
 62
     0
100
AcDbPoint
 10
21.25252545957708
 20
22.07498009461353
 30
0.0
  0
POINT
  5
72E
330
646
100
AcDbEntity
  8
Defpoints
 62
     0
100
AcDbPoint
 10
13.55001267421067
 20
22.07498009461353
 30
0.0
  0
ENDBLK
  5
648
330
646
100
AcDbEntity
  8
0
100
AcDbBlockEnd
  0
BLOCK
  5
731
330
730
100
AcDbEntity
  8
0
100
AcDbBlockBegin
  2
*D10
 70
     1
 10
0.0
 20
0.0
 30
0.0
  3
*D10
  1

  0
LINE
  5
824
330
730
100
AcDbEntity
  8
Dimension (ANSI)
100
AcDbLine
 10
20.81502545957708
 20
22.82498009461353
 30
0.0
 11
15.20108949654384
 21
22.82498009461353
 31
0.0
  0
LINE
  5
825
330
730
100
AcDbEntity
  8
Dimension (ANSI)
100
AcDbLine
 10
20.81502545957708
 20
22.07498009461353
 30
0.0
 11
15.20108949654384
 21
22.07498009461353
 31
0.0
  0
LINE
  5
826
330
730
100
AcDbEntity
  8
Dimension (ANSI)
100
AcDbLine
 10
16.07608949654384
 20
21.38600373226593
 30
0.0
 11
16.07608949654384
 21
20.69702736991832
 31
0.0
  0
LINE
  5
827
330
730
100
AcDbEntity
  8
Dimension (ANSI)
100
AcDbLine
 10
16.07608949654384
 20
23.51395645696113
 30
0.0
 11
16.07608949654384
 21
24.44394444019746
 31
0.0
  0
LINE
  5
828
330
730
100
AcDbEntity
  8
Dimension (ANSI)
100
AcDbLine
 10
16.07608949654384
 20
24.44394444019746
 30
0.0
 11
16.76506585889145
 21
24.44394444019746
 31
0.0
  0
SOLID
  5
829
330
730
100
AcDbEntity
  8
Dimension (ANSI)
100
AcDbTrace
 10
15.96126010281924
 20
21.38600373226593
 30
0.0
 11
16.19091889026844
 21
21.38600373226593
 31
0.0
 12
16.07608949654384
 22
22.07498009461353
 32
0.0
 13
16.07608949654384
 23
22.07498009461353
 33
0.0
  0
SOLID
  5
82A
330
730
100
AcDbEntity
  8
Dimension (ANSI)
100
AcDbTrace
 10
15.96126010281924
 20
23.51395645696113
 30
0.0
 11
16.19091889026844
 21
23.51395645696113
 31
0.0
 12
16.07608949654384
 22
22.82498009461353
 32
0.0
 13
16.07608949654384
 23
22.82498009461353
 33
0.0
  0
MTEXT
  5
82B
330
730
100
AcDbEntity
  8
Dimension (ANSI)
100
AcDbMText
 10
16.98553829983632
 20
24.86394445688676
 30
0.0
 40
0.840000033378601
 41
0.0
 71
     1
 72
     1
  1
\A1;0.750
  7
Note Text (ANSI)
 73
     1
 44
1.0
1001
ACAD
1000
MTEXTBEGIN
1070
    73
1070
     1
1070
    44
1040
1.0
1070
    74
1070
     0
1000
MTEXTEND
  0
POINT
  5
82C
330
730
100
AcDbEntity
  8
Defpoints
 62
     0
100
AcDbPoint
 10
21.25252545957708
 20
22.82498009461353
 30
0.0
  0
POINT
  5
82D
330
730
100
AcDbEntity
  8
Defpoints
 62
     0
100
AcDbPoint
 10
21.25252545957708
 20
22.07498009461353
 30
0.0
  0
POINT
  5
82E
330
730
100
AcDbEntity
  8
Defpoints
 62
     0
100
AcDbPoint
 10
16.07608949654384
 20
22.07498009461353
 30
0.0
  0
ENDBLK
  5
732
330
730
100
AcDbEntity
  8
0
100
AcDbBlockEnd
  0
BLOCK
  5
831
330
830
100
AcDbEntity
  8
0
100
AcDbBlockBegin
  2
*D11
 70
     1
 10
0.0
 20
0.0
 30
0.0
  3
*D11
  1

  0
LINE
  5
90F
330
830
100
AcDbEntity
  8
Dimension (ANSI)
100
AcDbLine
 10
54.41252545957707
 20
61.67248009461353
 30
0.0
 11
54.41252545957707
 21
66.68254523644939
 31
0.0
  0
LINE
  5
910
330
830
100
AcDbEntity
  8
Dimension (ANSI)
100
AcDbLine
 10
21.25252545957708
 20
61.67248009461352
 30
0.0
 11
21.25252545957708
 21
66.68254523644939
 31
0.0
  0
LINE
  5
911
330
830
100
AcDbEntity
  8
Dimension (ANSI)
100
AcDbLine
 10
53.72354909722947
 20
65.8075452364494
 30
0.0
 11
40.13299798317373
 21
65.8075452364494
 31
0.0
  0
LINE
  5
912
330
830
100
AcDbEntity
  8
Dimension (ANSI)
100
AcDbLine
 10
21.94150182192469
 20
65.8075452364494
 30
0.0
 11
35.53205293598043
 21
65.8075452364494
 31
0.0
  0
SOLID
  5
913
330
830
100
AcDbEntity
  8
Dimension (ANSI)
100
AcDbTrace
 10
53.72354909722947
 20
65.92237463017401
 30
0.0
 11
53.72354909722947
 21
65.69271584272479
 31
0.0
 12
54.41252545957707
 22
65.8075452364494
 32
0.0
 13
54.41252545957707
 23
65.8075452364494
 33
0.0
  0
SOLID
  5
914
330
830
100
AcDbEntity
  8
Dimension (ANSI)
100
AcDbTrace
 10
21.94150182192469
 20
65.92237463017401
 30
0.0
 11
21.94150182192469
 21
65.69271584272479
 31
0.0
 12
21.25252545957708
 22
65.8075452364494
 32
0.0
 13
21.25252545957708
 23
65.8075452364494
 33
0.0
  0
MTEXT
  5
915
330
830
100
AcDbEntity
  8
Dimension (ANSI)
100
AcDbMText
 10
35.75252537692531
 20
66.2275452531387
 30
0.0
 40
0.840000033378601
 41
0.0
 71
     1
 72
     1
  1
\A1;33.160
  7
Note Text (ANSI)
 73
     1
 44
1.0
1001
ACAD
1000
MTEXTBEGIN
1070
    73
1070
     1
1070
    44
1040
1.0
1070
    74
1070
     0
1000
MTEXTEND
  0
POINT
  5
916
330
830
100
AcDbEntity
  8
Defpoints
 62
     0
100
AcDbPoint
 10
54.41252545957707
 20
61.23498009461353
 30
0.0
  0
POINT
  5
917
330
830
100
AcDbEntity
  8
Defpoints
 62
     0
100
AcDbPoint
 10
21.25252545957708
 20
61.23498009461352
 30
0.0
  0
POINT
  5
918
330
830
100
AcDbEntity
  8
Defpoints
 62
     0
100
AcDbPoint
 10
21.25252545957708
 20
65.8075452364494
 30
0.0
  0
ENDBLK
  5
832
330
830
100
AcDbEntity
  8
0
100
AcDbBlockEnd
  0
BLOCK
  5
91B
330
91A
100
AcDbEntity
  8
0
100
AcDbBlockBegin
  2
*D12
 70
     1
 10
0.0
 20
0.0
 30
0.0
  3
*D12
  1

  0
LINE
  5
A0E
330
91A
100
AcDbEntity
  8
Dimension (ANSI)
100
AcDbLine
 10
54.49502545957707
 20
22.05498009461353
 30
0.0
 11
53.55685100549415
 21
22.05498009461353
 31
0.0
  0
LINE
  5
A0F
330
91A
100
AcDbEntity
  8
Dimension (ANSI)
100
AcDbLine
 10
53.99502545957707
 20
21.55498009461354
 30
0.0
 11
53.55685100549415
 21
21.55498009461354
 31
0.0
  0
LINE
  5
A10
330
91A
100
AcDbEntity
  8
Dimension (ANSI)
100
AcDbLine
 10
54.43185100549414
 20
20.86600373226593
 30
0.0
 11
54.43185100549414
 21
20.17702736991833
 31
0.0
  0
LINE
  5
A11
330
91A
100
AcDbEntity
  8
Dimension (ANSI)
100
AcDbLine
 10
54.43185100549414
 20
22.74395645696114
 30
0.0
 11
54.43185100549414
 21
24.05046965301103
 31
0.0
  0
LINE
  5
A12
330
91A
100
AcDbEntity
  8
Dimension (ANSI)
100
AcDbLine
 10
54.43185100549414
 20
24.05046965301103
 30
0.0
 11
55.12082736784175
 21
24.05046965301103
 31
0.0
  0
SOLID
  5
A13
330
91A
100
AcDbEntity
  8
Dimension (ANSI)
100
AcDbTrace
 10
54.31702161176954
 20
20.86600373226593
 30
0.0
 11
54.54668039921874
 21
20.86600373226593
 31
0.0
 12
54.43185100549414
 22
21.55498009461354
 32
0.0
 13
54.43185100549414
 23
21.55498009461354
 33
0.0
  0
SOLID
  5
A14
330
91A
100
AcDbEntity
  8
Dimension (ANSI)
100
AcDbTrace
 10
54.31702161176954
 20
22.74395645696114
 30
0.0
 11
54.54668039921874
 21
22.74395645696114
 31
0.0
 12
54.43185100549414
 22
22.05498009461353
 32
0.0
 13
54.43185100549414
 23
22.05498009461353
 33
0.0
  0
MTEXT
  5
A15
330
91A
100
AcDbEntity
  8
Dimension (ANSI)
100
AcDbMText
 10
55.34129980878662
 20
24.47046966970034
 30
0.0
 40
0.840000033378601
 41
0.0
 71
     1
 72
     1
  1
\A1;0.500
  7
Note Text (ANSI)
 73
     1
 44
1.0
1001
ACAD
1000
MTEXTBEGIN
1070
    73
1070
     1
1070
    44
1040
1.0
1070
    74
1070
     0
1000
MTEXTEND
  0
POINT
  5
A16
330
91A
100
AcDbEntity
  8
Defpoints
 62
     0
100
AcDbPoint
 10
54.93252545957707
 20
22.05498009461353
 30
0.0
  0
POINT
  5
A17
330
91A
100
AcDbEntity
  8
Defpoints
 62
     0
100
AcDbPoint
 10
54.43252545957707
 20
21.55498009461354
 30
0.0
  0
POINT
  5
A18
330
91A
100
AcDbEntity
  8
Defpoints
 62
     0
100
AcDbPoint
 10
54.43185100549414
 20
21.55498009461354
 30
0.0
  0
ENDBLK
  5
91C
330
91A
100
AcDbEntity
  8
0
100
AcDbBlockEnd
  0
BLOCK
  5
A1B
330
A1A
100
AcDbEntity
  8
0
100
AcDbBlockBegin
  2
*D13
 70
     1
 10
0.0
 20
0.0
 30
0.0
  3
*D13
  1

  0
LINE
  5
AF9
330
A1A
100
AcDbEntity
  8
Dimension (ANSI)
100
AcDbLine
 10
54.93252545957707
 20
21.61748009461353
 30
0.0
 11
54.93252545957707
 21
18.82613984281639
 31
0.0
  0
LINE
  5
AFA
330
A1A
100
AcDbEntity
  8
Dimension (ANSI)
100
AcDbLine
 10
54.43252545957707
 20
21.11748009461353
 30
0.0
 11
54.43252545957707
 21
18.82613984281639
 31
0.0
  0
LINE
  5
AFB
330
A1A
100
AcDbEntity
  8
Dimension (ANSI)
100
AcDbLine
 10
55.62150182192468
 20
19.70113984281639
 30
0.0
 11
56.31047818427227
 21
19.70113984281639
 31
0.0
  0
LINE
  5
AFC
330
A1A
100
AcDbEntity
  8
Dimension (ANSI)
100
AcDbLine
 10
53.74354909722947
 20
19.70113984281639
 30
0.0
 11
52.21754822145514
 21
19.70113984281639
 31
0.0
  0
SOLID
  5
AFD
330
A1A
100
AcDbEntity
  8
Dimension (ANSI)
100
AcDbTrace
 10
55.62150182192468
 20
19.81596923654099
 30
0.0
 11
55.62150182192468
 21
19.58631044909179
 31
0.0
 12
54.93252545957707
 22
19.70113984281639
 32
0.0
 13
54.93252545957707
 23
19.70113984281639
 33
0.0
  0
SOLID
  5
AFE
330
A1A
100
AcDbEntity
  8
Dimension (ANSI)
100
AcDbTrace
 10
53.74354909722947
 20
19.81596923654099
 30
0.0
 11
53.74354909722947
 21
19.58631044909179
 31
0.0
 12
54.43252545957707
 22
19.70113984281639
 32
0.0
 13
54.43252545957707
 23
19.70113984281639
 33
0.0
  0
MTEXT
  5
AFF
330
A1A
100
AcDbEntity
  8
Dimension (ANSI)
100
AcDbMText
 10
48.63707564699585
 20
20.12113985950569
 30
0.0
 40
0.840000033378601
 41
0.0
 71
     1
 72
     1
  1
\A1;0.500
  7
Note Text (ANSI)
 73
     1
 44
1.0
1001
ACAD
1000
MTEXTBEGIN
1070
    73
1070
     1
1070
    44
1040
1.0
1070
    74
1070
     0
1000
MTEXTEND
  0
POINT
  5
B00
330
A1A
100
AcDbEntity
  8
Defpoints
 62
     0
100
AcDbPoint
 10
54.93252545957707
 20
22.05498009461353
 30
0.0
  0
POINT
  5
B01
330
A1A
100
AcDbEntity
  8
Defpoints
 62
     0
100
AcDbPoint
 10
54.43252545957707
 20
21.55498009461354
 30
0.0
  0
POINT
  5
B02
330
A1A
100
AcDbEntity
  8
Defpoints
 62
     0
100
AcDbPoint
 10
54.43252545957707
 20
19.70113984281639
 30
0.0
  0
ENDBLK
  5
A1C
330
A1A
100
AcDbEntity
  8
0
100
AcDbBlockEnd
  0
BLOCK
  5
B05
330
B04
100
AcDbEntity
  8
0
100
AcDbBlockBegin
  2
*D14
 70
     1
 10
0.0
 20
0.0
 30
0.0
  3
*D14
  1

  0
LINE
  5
BE3
330
B04
100
AcDbEntity
  8
Dimension (ANSI)
100
AcDbLine
 10
54.41252545957707
 20
61.67248009461353
 30
0.0
 11
54.41252545957707
 21
64.89820792101767
 31
0.0
  0
LINE
  5
BE4
330
B04
100
AcDbEntity
  8
Dimension (ANSI)
100
AcDbLine
 10
54.93252545957706
 20
61.69248009461353
 30
0.0
 11
54.93252545957706
 21
64.89820792101767
 31
0.0
  0
LINE
  5
BE5
330
B04
100
AcDbEntity
  8
Dimension (ANSI)
100
AcDbLine
 10
55.62150182192467
 20
64.02320792101767
 30
0.0
 11
56.31047818427227
 21
64.02320792101767
 31
0.0
  0
LINE
  5
BE6
330
B04
100
AcDbEntity
  8
Dimension (ANSI)
100
AcDbLine
 10
53.72354909722947
 20
64.02320792101767
 30
0.0
 11
53.03457273488186
 21
64.02320792101767
 31
0.0
  0
SOLID
  5
BE7
330
B04
100
AcDbEntity
  8
Dimension (ANSI)
100
AcDbTrace
 10
55.62150182192467
 20
64.13803731474228
 30
0.0
 11
55.62150182192467
 21
63.90837852729307
 31
0.0
 12
54.93252545957706
 22
64.02320792101767
 32
0.0
 13
54.93252545957706
 23
64.02320792101767
 33
0.0
  0
SOLID
  5
BE8
330
B04
100
AcDbEntity
  8
Dimension (ANSI)
100
AcDbTrace
 10
53.72354909722947
 20
64.13803731474228
 30
0.0
 11
53.72354909722947
 21
63.90837852729307
 31
0.0
 12
54.41252545957707
 22
64.02320792101767
 32
0.0
 13
54.41252545957707
 23
64.02320792101767
 33
0.0
  0
MTEXT
  5
BE9
330
B04
100
AcDbEntity
  8
Dimension (ANSI)
100
AcDbMText
 10
49.45410016042258
 20
64.44320793770697
 30
0.0
 40
0.840000033378601
 41
0.0
 71
     1
 72
     1
  1
\A1;0.520
  7
Note Text (ANSI)
 73
     1
 44
1.0
1001
ACAD
1000
MTEXTBEGIN
1070
    73
1070
     1
1070
    44
1040
1.0
1070
    74
1070
     0
1000
MTEXTEND
  0
POINT
  5
BEA
330
B04
100
AcDbEntity
  8
Defpoints
 62
     0
100
AcDbPoint
 10
54.41252545957707
 20
61.23498009461353
 30
0.0
  0
POINT
  5
BEB
330
B04
100
AcDbEntity
  8
Defpoints
 62
     0
100
AcDbPoint
 10
54.93252545957706
 20
61.25498009461352
 30
0.0
  0
POINT
  5
BEC
330
B04
100
AcDbEntity
  8
Defpoints
 62
     0
100
AcDbPoint
 10
54.93252545957706
 20
64.02320792101767
 30
0.0
  0
ENDBLK
  5
B06
330
B04
100
AcDbEntity
  8
0
100
AcDbBlockEnd
  0
BLOCK
  5
BEF
330
BEE
100
AcDbEntity
  8
0
100
AcDbBlockBegin
  2
*D15
 70
     1
 10
0.0
 20
0.0
 30
0.0
  3
*D15
  1

  0
LINE
  5
CE2
330
BEE
100
AcDbEntity
  8
Dimension (ANSI)
100
AcDbLine
 10
54.85002545957707
 20
61.23498009461353
 30
0.0
 11
61.52275812218099
 21
61.23498009461353
 31
0.0
  0
LINE
  5
CE3
330
BEE
100
AcDbEntity
  8
Dimension (ANSI)
100
AcDbLine
 10
54.87002545957707
 20
61.75498009461353
 30
0.0
 11
61.52275812218099
 21
61.75498009461353
 31
0.0
  0
LINE
  5
CE4
330
BEE
100
AcDbEntity
  8
Dimension (ANSI)
100
AcDbLine
 10
60.64775812218099
 20
62.44395645696113
 30
0.0
 11
60.64775812218099
 21
63.13293281930874
 31
0.0
  0
LINE
  5
CE5
330
BEE
100
AcDbEntity
  8
Dimension (ANSI)
100
AcDbLine
 10
60.64775812218099
 20
60.54600373226592
 30
0.0
 11
60.64775812218099
 21
59.23949053621603
 31
0.0
  0
LINE
  5
CE6
330
BEE
100
AcDbEntity
  8
Dimension (ANSI)
100
AcDbLine
 10
60.64775812218099
 20
59.23949053621603
 30
0.0
 11
59.95878175983339
 21
59.23949053621603
 31
0.0
  0
SOLID
  5
CE7
330
BEE
100
AcDbEntity
  8
Dimension (ANSI)
100
AcDbTrace
 10
60.53292872845639
 20
62.44395645696113
 30
0.0
 11
60.76258751590558
 21
62.44395645696113
 31
0.0
 12
60.64775812218099
 22
61.75498009461353
 32
0.0
 13
60.64775812218099
 23
61.75498009461353
 33
0.0
  0
SOLID
  5
CE8
330
BEE
100
AcDbEntity
  8
Dimension (ANSI)
100
AcDbTrace
 10
60.53292872845639
 20
60.54600373226592
 30
0.0
 11
60.76258751590558
 21
60.54600373226592
 31
0.0
 12
60.64775812218099
 22
61.23498009461353
 32
0.0
 13
60.64775812218099
 23
61.23498009461353
 33
0.0
  0
MTEXT
  5
CE9
330
BEE
100
AcDbEntity
  8
Dimension (ANSI)
100
AcDbMText
 10
56.37830918537409
 20
59.65949055290534
 30
0.0
 40
0.840000033378601
 41
0.0
 71
     1
 72
     1
  1
\A1;0.520
  7
Note Text (ANSI)
 73
     1
 44
1.0
1001
ACAD
1000
MTEXTBEGIN
1070
    73
1070
     1
1070
    44
1040
1.0
1070
    74
1070
     0
1000
MTEXTEND
  0
POINT
  5
CEA
330
BEE
100
AcDbEntity
  8
Defpoints
 62
     0
100
AcDbPoint
 10
54.41252545957707
 20
61.23498009461353
 30
0.0
  0
POINT
  5
CEB
330
BEE
100
AcDbEntity
  8
Defpoints
 62
     0
100
AcDbPoint
 10
54.43252545957707
 20
61.75498009461353
 30
0.0
  0
POINT
  5
CEC
330
BEE
100
AcDbEntity
  8
Defpoints
 62
     0
100
AcDbPoint
 10
60.64775812218099
 20
61.75498009461353
 30
0.0
  0
ENDBLK
  5
BF0
330
BEE
100
AcDbEntity
  8
0
100
AcDbBlockEnd
  0
BLOCK
  5
CF1
330
CF0
100
AcDbEntity
  8
0
100
AcDbBlockBegin
  2
*D16
 70
     1
 10
0.0
 20
0.0
 30
0.0
  3
*D16
  1

  0
LINE
  5
DCF
330
CF0
100
AcDbEntity
  8
Dimension (ANSI)
100
AcDbLine
 10
78.99823060659318
 20
62.19248009461352
 30
0.0
 11
78.99823060659318
 21
64.6496651339836
 31
0.0
  0
LINE
  5
DD0
330
CF0
100
AcDbEntity
  8
Dimension (ANSI)
100
AcDbLine
 10
79.77223060659283
 20
62.19248009461352
 30
0.0
 11
79.77223060659283
 21
64.6496651339836
 31
0.0
  0
LINE
  5
DD1
330
CF0
100
AcDbEntity
  8
Dimension (ANSI)
100
AcDbLine
 10
80.46120696894043
 20
63.7746651339836
 30
0.0
 11
81.15018333128803
 21
63.7746651339836
 31
0.0
  0
LINE
  5
DD2
330
CF0
100
AcDbEntity
  8
Dimension (ANSI)
100
AcDbLine
 10
78.30925424424558
 20
63.7746651339836
 30
0.0
 11
76.80325336926597
 21
63.7746651339836
 31
0.0
  0
SOLID
  5
DD3
330
CF0
100
AcDbEntity
  8
Dimension (ANSI)
100
AcDbTrace
 10
80.46120696894043
 20
63.8894945277082
 30
0.0
 11
80.46120696894043
 21
63.659835740259
 31
0.0
 12
79.77223060659283
 22
63.7746651339836
 32
0.0
 13
79.77223060659283
 23
63.7746651339836
 33
0.0
  0
SOLID
  5
DD4
330
CF0
100
AcDbEntity
  8
Dimension (ANSI)
100
AcDbTrace
 10
78.30925424424558
 20
63.8894945277082
 30
0.0
 11
78.30925424424558
 21
63.659835740259
 31
0.0
 12
78.99823060659318
 22
63.7746651339836
 32
0.0
 13
78.99823060659318
 23
63.7746651339836
 33
0.0
  0
MTEXT
  5
DD5
330
CF0
100
AcDbEntity
  8
Dimension (ANSI)
100
AcDbMText
 10
73.18278079321723
 20
64.1946651506729
 30
0.0
 40
0.840000033378601
 41
0.0
 71
     1
 72
     1
  1
\A1;0.774
  7
Note Text (ANSI)
 73
     1
 44
1.0
1001
ACAD
1000
MTEXTBEGIN
1070
    73
1070
     1
1070
    44
1040
1.0
1070
    74
1070
     0
1000
MTEXTEND
  0
POINT
  5
DD6
330
CF0
100
AcDbEntity
  8
Defpoints
 62
     0
100
AcDbPoint
 10
78.99823060659318
 20
61.75498009461353
 30
0.0
  0
POINT
  5
DD7
330
CF0
100
AcDbEntity
  8
Defpoints
 62
     0
100
AcDbPoint
 10
79.77223060659283
 20
61.75498009461353
 30
0.0
  0
POINT
  5
DD8
330
CF0
100
AcDbEntity
  8
Defpoints
 62
     0
100
AcDbPoint
 10
79.77223060659283
 20
63.7746651339836
 30
0.0
  0
ENDBLK
  5
CF2
330
CF0
100
AcDbEntity
  8
0
100
AcDbBlockEnd
  0
BLOCK
  5
DDB
330
DDA
100
AcDbEntity
  8
0
100
AcDbBlockBegin
  2
*D17
 70
     1
 10
0.0
 20
0.0
 30
0.0
  3
*D17
  1

  0
LINE
  5
EB9
330
DDA
100
AcDbEntity
  8
Dimension (ANSI)
100
AcDbLine
 10
20.81502545957708
 20
22.07498009461353
 30
0.0
 11
15.51442134558963
 21
22.07498009461353
 31
0.0
  0
LINE
  5
EBA
330
DDA
100
AcDbEntity
  8
Dimension (ANSI)
100
AcDbLine
 10
20.81502545957708
 20
41.65498009461352
 30
0.0
 11
15.51442134558963
 21
41.65498009461353
 31
0.0
  0
LINE
  5
EBB
330
DDA
100
AcDbEntity
  8
Dimension (ANSI)
100
AcDbLine
 10
16.38942134558962
 20
22.76395645696113
 30
0.0
 11
16.38942134558963
 21
31.22450763697935
 31
0.0
  0
LINE
  5
EBC
330
DDA
100
AcDbEntity
  8
Dimension (ANSI)
100
AcDbLine
 10
16.38942134558963
 20
40.96600373226592
 30
0.0
 11
16.38942134558963
 21
32.50545255224771
 31
0.0
  0
SOLID
  5
EBD
330
DDA
100
AcDbEntity
  8
Dimension (ANSI)
100
AcDbTrace
 10
16.27459195186502
 20
22.76395645696113
 30
0.0
 11
16.50425073931423
 21
22.76395645696113
 31
0.0
 12
16.38942134558962
 22
22.07498009461353
 32
0.0
 13
16.38942134558962
 23
22.07498009461353
 33
0.0
  0
SOLID
  5
EBE
330
DDA
100
AcDbEntity
  8
Dimension (ANSI)
100
AcDbTrace
 10
16.27459195186503
 20
40.96600373226592
 30
0.0
 11
16.50425073931423
 21
40.96600373226592
 31
0.0
 12
16.38942134558963
 22
41.65498009461352
 32
0.0
 13
16.38942134558963
 23
41.65498009461352
 33
0.0
  0
MTEXT
  5
EBF
330
DDA
100
AcDbEntity
  8
Dimension (ANSI)
100
AcDbMText
 10
14.36942126532203
 20
32.28498011130284
 30
0.0
 40
0.840000033378601
 41
0.0
 71
     1
 72
     1
  1
\A1;19.580
  7
Note Text (ANSI)
 73
     1
 44
1.0
1001
ACAD
1000
MTEXTBEGIN
1070
    73
1070
     1
1070
    44
1040
1.0
1070
    74
1070
     0
1000
MTEXTEND
  0
POINT
  5
EC0
330
DDA
100
AcDbEntity
  8
Defpoints
 62
     0
100
AcDbPoint
 10
21.25252545957708
 20
22.07498009461353
 30
0.0
  0
POINT
  5
EC1
330
DDA
100
AcDbEntity
  8
Defpoints
 62
     0
100
AcDbPoint
 10
21.25252545957708
 20
41.65498009461352
 30
0.0
  0
POINT
  5
EC2
330
DDA
100
AcDbEntity
  8
Defpoints
 62
     0
100
AcDbPoint
 10
16.38942134558963
 20
41.65498009461352
 30
0.0
  0
ENDBLK
  5
DDC
330
DDA
100
AcDbEntity
  8
0
100
AcDbBlockEnd
  0
BLOCK
  5
EC5
330
EC4
100
AcDbEntity
  8
0
100
AcDbBlockBegin
  2
*D18
 70
     1
 10
0.0
 20
0.0
 30
0.0
  3
*D18
  1

  0
LINE
  5
FA3
330
EC4
100
AcDbEntity
  8
Dimension (ANSI)
100
AcDbLine
 10
21.25252545957708
 20
61.67248009461352
 30
0.0
 11
21.25252545957708
 21
64.58880878390496
 31
0.0
  0
LINE
  5
FA4
330
EC4
100
AcDbEntity
  8
Dimension (ANSI)
100
AcDbLine
 10
37.83252545957707
 20
61.67248009461352
 30
0.0
 11
37.83252545957707
 21
64.58880878390496
 31
0.0
  0
LINE
  5
FA5
330
EC4
100
AcDbEntity
  8
Dimension (ANSI)
100
AcDbLine
 10
21.94150182192469
 20
63.71380878390496
 30
0.0
 11
27.30205293836461
 21
63.71380878390496
 31
0.0
  0
LINE
  5
FA6
330
EC4
100
AcDbEntity
  8
Dimension (ANSI)
100
AcDbLine
 10
37.14354909722947
 20
63.71380878390496
 30
0.0
 11
31.78299798078955
 21
63.71380878390496
 31
0.0
  0
SOLID
  5
FA7
330
EC4
100
AcDbEntity
  8
Dimension (ANSI)
100
AcDbTrace
 10
21.94150182192469
 20
63.82863817762956
 30
0.0
 11
21.94150182192469
 21
63.59897939018036
 31
0.0
 12
21.25252545957708
 22
63.71380878390496
 32
0.0
 13
21.25252545957708
 23
63.71380878390496
 33
0.0
  0
SOLID
  5
FA8
330
EC4
100
AcDbEntity
  8
Dimension (ANSI)
100
AcDbTrace
 10
37.14354909722947
 20
63.82863817762956
 30
0.0
 11
37.14354909722947
 21
63.59897939018036
 31
0.0
 12
37.83252545957707
 22
63.71380878390496
 32
0.0
 13
37.83252545957707
 23
63.71380878390496
 33
0.0
  0
MTEXT
  5
FA9
330
EC4
100
AcDbEntity
  8
Dimension (ANSI)
100
AcDbMText
 10
27.52252537930949
 20
64.13380880059427
 30
0.0
 40
0.840000033378601
 41
0.0
 71
     1
 72
     1
  1
\A1;16.580
  7
Note Text (ANSI)
 73
     1
 44
1.0
1001
ACAD
1000
MTEXTBEGIN
1070
    73
1070
     1
1070
    44
1040
1.0
1070
    74
1070
     0
1000
MTEXTEND
  0
POINT
  5
FAA
330
EC4
100
AcDbEntity
  8
Defpoints
 62
     0
100
AcDbPoint
 10
21.25252545957708
 20
61.23498009461352
 30
0.0
  0
POINT
  5
FAB
330
EC4
100
AcDbEntity
  8
Defpoints
 62
     0
100
AcDbPoint
 10
37.83252545957707
 20
61.23498009461352
 30
0.0
  0
POINT
  5
FAC
330
EC4
100
AcDbEntity
  8
Defpoints
 62
     0
100
AcDbPoint
 10
37.83252545957707
 20
63.71380878390496
 30
0.0
  0
ENDBLK
  5
EC6
330
EC4
100
AcDbEntity
  8
0
100
AcDbBlockEnd
  0
ENDSEC
  0
SECTION
  2
ENTITIES
  0
CIRCLE
  5
11B
330
6C
100
AcDbEntity
  8
Visible (ANSI)
100
AcDbCircle
 10
54.41252545957707
 20
41.65498009461352
 30
0.0
 40
0.2500000000000005
  0
CIRCLE
  5
11C
330
6C
100
AcDbEntity
  8
Visible (ANSI)
100
AcDbCircle
 10
21.25252545957708
 20
41.65498009461352
 30
0.0
 40
0.2500000000000005
  0
CIRCLE
  5
11D
330
6C
100
AcDbEntity
  8
Visible (ANSI)
100
AcDbCircle
 10
37.83252545957707
 20
22.07498009461353
 30
0.0
 40
0.2499999999999999
  0
CIRCLE
  5
11E
330
6C
100
AcDbEntity
  8
Visible (ANSI)
100
AcDbCircle
 10
37.83252545957707
 20
61.23498009461352
 30
0.0
 40
0.2499999999999999
  0
LINE
  5
11F
330
6C
100
AcDbEntity
  8
Visible (ANSI)
100
AcDbLine
 10
22.45052545957709
 20
21.55498009461354
 30
0.0
 11
53.21452545957708
 21
21.55498009461354
 31
0.0
  0
LINE
  5
120
330
6C
100
AcDbEntity
  8
Visible (ANSI)
100
AcDbLine
 10
22.45052545957709
 20
21.55498009461354
 30
0.0
 11
22.45052545957709
 21
21.67998009461353
 31
0.0
  0
LINE
  5
121
330
6C
100
AcDbEntity
  8
Visible (ANSI)
100
AcDbLine
 10
53.21452545957708
 20
21.55498009461354
 30
0.0
 11
53.21452545957708
 21
21.67998009461353
 31
0.0
  0
LINE
  5
122
330
6C
100
AcDbEntity
  8
Visible (ANSI)
100
AcDbLine
 10
53.21472545957707
 20
21.68018009461353
 30
0.0
 11
53.21472545957707
 21
21.55498009461354
 31
0.0
  0
LINE
  5
123
330
6C
100
AcDbEntity
  8
Visible (ANSI)
100
AcDbLine
 10
53.21452545957708
 20
21.68018009461353
 30
0.0
 11
53.21472545957707
 21
21.68018009461353
 31
0.0
  0
LINE
  5
124
330
6C
100
AcDbEntity
  8
Visible (ANSI)
100
AcDbLine
 10
22.45032545957709
 20
21.68018009461353
 30
0.0
 11
22.45052545957709
 21
21.68018009461353
 31
0.0
  0
LINE
  5
125
330
6C
100
AcDbEntity
  8
Visible (ANSI)
100
AcDbLine
 10
22.45032545957709
 20
21.55498009461354
 30
0.0
 11
22.45032545957709
 21
21.68018009461353
 31
0.0
  0
LINE
  5
126
330
6C
100
AcDbEntity
  8
Hidden (ANSI)
 48
1.063100457191467
100
AcDbLine
 10
53.21452545957708
 20
21.64873009461353
 30
0.0
 11
22.45052545957709
 21
21.64873009461353
 31
0.0
  0
LINE
  5
127
330
6C
100
AcDbEntity
  8
Visible (ANSI)
100
AcDbLine
 10
22.45052545957709
 20
21.68018009461353
 30
0.0
 11
22.45052545957709
 21
21.67998009461353
 31
0.0
  0
LINE
  5
128
330
6C
100
AcDbEntity
  8
Visible (ANSI)
100
AcDbLine
 10
53.21452545957708
 20
21.67998009461353
 30
0.0
 11
53.21452545957708
 21
21.68018009461353
 31
0.0
  0
LINE
  5
129
330
6C
100
AcDbEntity
  8
Visible (ANSI)
100
AcDbLine
 10
22.45032545957709
 20
21.55498009461354
 30
0.0
 11
21.23252545957708
 21
21.55498009461354
 31
0.0
  0
LINE
  5
12A
330
6C
100
AcDbEntity
  8
Visible (ANSI)
100
AcDbLine
 10
54.43252545957707
 20
21.55498009461354
 30
0.0
 11
53.21472545957707
 21
21.55498009461354
 31
0.0
  0
LINE
  5
12B
330
6C
100
AcDbEntity
  8
Visible (ANSI)
100
AcDbLine
 10
54.93252545957707
 20
23.27278009461354
 30
0.0
 11
54.93252545957707
 21
22.05498009461353
 31
0.0
  0
LINE
  5
12C
330
6C
100
AcDbEntity
  8
Visible (ANSI)
100
AcDbLine
 10
54.93252545957706
 20
61.25498009461352
 30
0.0
 11
54.93252545957706
 21
60.03718009461352
 31
0.0
  0
LINE
  5
12D
330
6C
100
AcDbEntity
  8
Visible (ANSI)
100
AcDbLine
 10
53.21472545957707
 20
61.75498009461353
 30
0.0
 11
54.43252545957707
 21
61.75498009461353
 31
0.0
  0
LINE
  5
12E
330
6C
100
AcDbEntity
  8
Visible (ANSI)
100
AcDbLine
 10
21.23252545957707
 20
61.75498009461353
 30
0.0
 11
22.45032545957707
 21
61.75498009461353
 31
0.0
  0
LINE
  5
12F
330
6C
100
AcDbEntity
  8
Visible (ANSI)
100
AcDbLine
 10
20.73252545957707
 20
60.03718009461352
 30
0.0
 11
20.73252545957707
 21
61.25498009461352
 31
0.0
  0
LINE
  5
130
330
6C
100
AcDbEntity
  8
Visible (ANSI)
100
AcDbLine
 10
20.73252545957708
 20
22.05498009461353
 30
0.0
 11
20.73252545957708
 21
23.27278009461354
 31
0.0
  0
LINE
  5
131
330
6C
100
AcDbEntity
  8
Visible (ANSI)
100
AcDbLine
 10
54.93252545957707
 20
22.05498009461353
 30
0.0
 11
54.43252545957707
 21
21.55498009461354
 31
0.0
  0
LINE
  5
132
330
6C
100
AcDbEntity
  8
Visible (ANSI)
100
AcDbLine
 10
54.93252545957707
 20
23.27278009461354
 30
0.0
 11
54.80732545957708
 21
23.27278009461354
 31
0.0
  0
LINE
  5
133
330
6C
100
AcDbEntity
  8
Visible (ANSI)
100
AcDbLine
 10
54.80732545957708
 20
23.27278009461354
 30
0.0
 11
54.80732545957708
 21
23.27298009461354
 31
0.0
  0
LINE
  5
134
330
6C
100
AcDbEntity
  8
Visible (ANSI)
100
AcDbLine
 10
54.80732545957707
 20
60.03698009461352
 30
0.0
 11
54.80732545957707
 21
60.03718009461352
 31
0.0
  0
LINE
  5
135
330
6C
100
AcDbEntity
  8
Visible (ANSI)
100
AcDbLine
 10
54.80732545957707
 20
60.03718009461352
 30
0.0
 11
54.93252545957706
 21
60.03718009461352
 31
0.0
  0
LINE
  5
136
330
6C
100
AcDbEntity
  8
Visible (ANSI)
100
AcDbLine
 10
54.93252545957706
 20
23.27298009461354
 30
0.0
 11
54.93252545957706
 21
60.03698009461351
 31
0.0
  0
LINE
  5
137
330
6C
100
AcDbEntity
  8
Visible (ANSI)
100
AcDbLine
 10
54.93252545957706
 20
23.27298009461354
 30
0.0
 11
54.80752545957709
 21
23.27298009461354
 31
0.0
  0
LINE
  5
138
330
6C
100
AcDbEntity
  8
Visible (ANSI)
100
AcDbLine
 10
54.93252545957706
 20
60.03698009461352
 30
0.0
 11
54.80752545957707
 21
60.03698009461352
 31
0.0
  0
LINE
  5
139
330
6C
100
AcDbEntity
  8
Hidden (ANSI)
 48
1.104730606079101
100
AcDbLine
 10
54.83877545957707
 20
60.03698009461351
 30
0.0
 11
54.83877545957707
 21
23.27298009461354
 31
0.0
  0
LINE
  5
13A
330
6C
100
AcDbEntity
  8
Visible (ANSI)
100
AcDbLine
 10
54.80732545957708
 20
23.27298009461354
 30
0.0
 11
54.80752545957709
 21
23.27298009461354
 31
0.0
  0
LINE
  5
13B
330
6C
100
AcDbEntity
  8
Visible (ANSI)
100
AcDbLine
 10
54.80752545957707
 20
60.03698009461352
 30
0.0
 11
54.80732545957707
 21
60.03698009461352
 31
0.0
  0
LINE
  5
13C
330
6C
100
AcDbEntity
  8
Visible (ANSI)
100
AcDbLine
 10
54.43252545957707
 20
61.75498009461353
 30
0.0
 11
54.93252545957706
 21
61.25498009461352
 31
0.0
  0
LINE
  5
13D
330
6C
100
AcDbEntity
  8
Visible (ANSI)
100
AcDbLine
 10
53.21472545957707
 20
61.75498009461353
 30
0.0
 11
53.21472545957707
 21
61.62978009461353
 31
0.0
  0
LINE
  5
13E
330
6C
100
AcDbEntity
  8
Visible (ANSI)
100
AcDbLine
 10
53.21472545957707
 20
61.62978009461353
 30
0.0
 11
53.21452545957707
 21
61.62978009461353
 31
0.0
  0
LINE
  5
13F
330
6C
100
AcDbEntity
  8
Visible (ANSI)
100
AcDbLine
 10
22.45052545957707
 20
61.62978009461353
 30
0.0
 11
22.45032545957707
 21
61.62978009461353
 31
0.0
  0
LINE
  5
140
330
6C
100
AcDbEntity
  8
Visible (ANSI)
100
AcDbLine
 10
22.45032545957707
 20
61.62978009461353
 30
0.0
 11
22.45032545957707
 21
61.75498009461353
 31
0.0
  0
LINE
  5
141
330
6C
100
AcDbEntity
  8
Visible (ANSI)
100
AcDbLine
 10
53.21452545957707
 20
61.75498009461353
 30
0.0
 11
22.45052545957707
 21
61.75498009461353
 31
0.0
  0
LINE
  5
142
330
6C
100
AcDbEntity
  8
Visible (ANSI)
100
AcDbLine
 10
53.21452545957707
 20
61.75498009461353
 30
0.0
 11
53.21452545957707
 21
61.62998009461353
 31
0.0
  0
LINE
  5
143
330
6C
100
AcDbEntity
  8
Visible (ANSI)
100
AcDbLine
 10
22.45052545957707
 20
61.75498009461353
 30
0.0
 11
22.45052545957708
 21
61.62998009461353
 31
0.0
  0
LINE
  5
144
330
6C
100
AcDbEntity
  8
Hidden (ANSI)
 48
1.063100457191467
100
AcDbLine
 10
22.45052545957707
 20
61.66123009461353
 30
0.0
 11
53.21452545957707
 21
61.66123009461353
 31
0.0
  0
LINE
  5
145
330
6C
100
AcDbEntity
  8
Visible (ANSI)
100
AcDbLine
 10
53.21452545957707
 20
61.62978009461353
 30
0.0
 11
53.21452545957707
 21
61.62998009461353
 31
0.0
  0
LINE
  5
146
330
6C
100
AcDbEntity
  8
Visible (ANSI)
100
AcDbLine
 10
22.45052545957707
 20
61.62998009461353
 30
0.0
 11
22.45052545957707
 21
61.62978009461353
 31
0.0
  0
LINE
  5
147
330
6C
100
AcDbEntity
  8
Visible (ANSI)
100
AcDbLine
 10
20.73252545957707
 20
61.25498009461352
 30
0.0
 11
21.23252545957707
 21
61.75498009461353
 31
0.0
  0
LINE
  5
148
330
6C
100
AcDbEntity
  8
Visible (ANSI)
100
AcDbLine
 10
20.73252545957707
 20
60.03718009461352
 30
0.0
 11
20.85772545957706
 21
60.03718009461352
 31
0.0
  0
LINE
  5
149
330
6C
100
AcDbEntity
  8
Visible (ANSI)
100
AcDbLine
 10
20.85772545957706
 20
60.03718009461352
 30
0.0
 11
20.85772545957706
 21
60.03698009461352
 31
0.0
  0
LINE
  5
14A
330
6C
100
AcDbEntity
  8
Visible (ANSI)
100
AcDbLine
 10
20.85772545957707
 20
23.27298009461353
 30
0.0
 11
20.85772545957707
 21
23.27278009461354
 31
0.0
  0
LINE
  5
14B
330
6C
100
AcDbEntity
  8
Visible (ANSI)
100
AcDbLine
 10
20.85772545957707
 20
23.27278009461354
 30
0.0
 11
20.73252545957708
 21
23.27278009461354
 31
0.0
  0
LINE
  5
14C
330
6C
100
AcDbEntity
  8
Visible (ANSI)
100
AcDbLine
 10
20.73252545957708
 20
60.03698009461352
 30
0.0
 11
20.73252545957709
 21
23.27298009461354
 31
0.0
  0
LINE
  5
14D
330
6C
100
AcDbEntity
  8
Visible (ANSI)
100
AcDbLine
 10
20.73252545957708
 20
60.03698009461352
 30
0.0
 11
20.85752545957706
 21
60.03698009461352
 31
0.0
  0
LINE
  5
14E
330
6C
100
AcDbEntity
  8
Visible (ANSI)
100
AcDbLine
 10
20.73252545957709
 20
23.27298009461354
 30
0.0
 11
20.85752545957707
 21
23.27298009461354
 31
0.0
  0
LINE
  5
14F
330
6C
100
AcDbEntity
  8
Hidden (ANSI)
 48
1.104730606079101
100
AcDbLine
 10
20.82627545957709
 20
23.27298009461354
 30
0.0
 11
20.82627545957708
 21
60.03698009461352
 31
0.0
  0
LINE
  5
150
330
6C
100
AcDbEntity
  8
Visible (ANSI)
100
AcDbLine
 10
20.85772545957706
 20
60.03698009461352
 30
0.0
 11
20.85752545957706
 21
60.03698009461352
 31
0.0
  0
LINE
  5
151
330
6C
100
AcDbEntity
  8
Visible (ANSI)
100
AcDbLine
 10
20.85752545957707
 20
23.27298009461353
 30
0.0
 11
20.85772545957707
 21
23.27298009461353
 31
0.0
  0
LINE
  5
152
330
6C
100
AcDbEntity
  8
Visible (ANSI)
100
AcDbLine
 10
21.23252545957708
 20
21.55498009461354
 30
0.0
 11
20.73252545957708
 21
22.05498009461353
 31
0.0
  0
CIRCLE
  5
153
330
6C
100
AcDbEntity
  8
Visible (ANSI)
100
AcDbCircle
 10
54.41252545957707
 20
61.23498009461353
 30
0.0
 40
0.25
  0
CIRCLE
  5
154
330
6C
100
AcDbEntity
  8
Visible (ANSI)
100
AcDbCircle
 10
21.25252545957708
 20
61.23498009461352
 30
0.0
 40
0.25
  0
CIRCLE
  5
155
330
6C
100
AcDbEntity
  8
Visible (ANSI)
100
AcDbCircle
 10
21.25252545957708
 20
22.07498009461353
 30
0.0
 40
0.25
  0
CIRCLE
  5
156
330
6C
100
AcDbEntity
  8
Visible (ANSI)
100
AcDbCircle
 10
54.41252545957707
 20
22.07498009461353
 30
0.0
 40
0.25
  0
CIRCLE
  5
157
330
6C
100
AcDbEntity
  8
Visible (ANSI)
100
AcDbCircle
 10
54.41252545957707
 20
60.48498009461352
 30
0.0
 40
0.15625
  0
CIRCLE
  5
158
330
6C
100
AcDbEntity
  8
Visible (ANSI)
100
AcDbCircle
 10
21.25252545957708
 20
60.48498009461352
 30
0.0
 40
0.15625
  0
CIRCLE
  5
159
330
6C
100
AcDbEntity
  8
Visible (ANSI)
100
AcDbCircle
 10
21.25252545957708
 20
22.82498009461353
 30
0.0
 40
0.15625
  0
CIRCLE
  5
15A
330
6C
100
AcDbEntity
  8
Visible (ANSI)
100
AcDbCircle
 10
54.41252545957707
 20
22.82498009461353
 30
0.0
 40
0.15625
  0
LINE
  5
15B
330
6C
100
AcDbEntity
  8
Visible (ANSI)
100
AcDbLine
 10
79.77223060659283
 20
21.55498009461354
 30
0.0
 11
79.12323060659282
 21
21.55498009461354
 31
0.0
  0
LINE
  5
15C
330
6C
100
AcDbEntity
  8
Visible (ANSI)
100
AcDbLine
 10
79.77223060659283
 20
21.64873009461353
 30
0.0
 11
79.77223060659283
 21
21.55498009461354
 31
0.0
  0
LINE
  5
15D
330
6C
100
AcDbEntity
  8
Visible (ANSI)
100
AcDbLine
 10
79.12323060659282
 20
21.64873009461353
 30
0.0
 11
79.77223060659283
 21
21.64873009461353
 31
0.0
  0
ARC
  5
15E
330
6C
100
AcDbEntity
  8
Visible (ANSI)
100
AcDbCircle
 10
79.12323060659282
 20
21.67998009461353
 30
0.0
 40
0.03125
100
AcDbArc
 50
180.0
 51
270.0
  0
ARC
  5
15F
330
6C
100
AcDbEntity
  8
Visible (ANSI)
100
AcDbCircle
 10
79.12323060659282
 20
21.67998009461353
 30
0.0
 40
0.1250000000000007
100
AcDbArc
 50
255.5224878140705
 51
270.0
  0
ARC
  5
160
330
6C
100
AcDbEntity
  8
Hidden (ANSI)
 48
0.0447323434054852
100
AcDbCircle
 10
79.12323060659282
 20
21.67998009461353
 30
0.0
 40
0.125
100
AcDbArc
 50
180.0
 51
255.5224878140702
  0
LINE
  5
161
330
6C
100
AcDbEntity
  8
Hidden (ANSI)
 48
0.0254093296825886
100
AcDbLine
 10
78.99823060659281
 20
21.68018009461353
 30
0.0
 11
79.09198060659282
 21
21.68018009461353
 31
0.0
  0
LINE
  5
162
330
6C
100
AcDbEntity
  8
Visible (ANSI)
100
AcDbLine
 10
79.09198060659332
 20
61.25498009461352
 30
0.0
 11
79.09198060659318
 21
61.75498009461353
 31
0.0
  0
LINE
  5
163
330
6C
100
AcDbEntity
  8
Visible (ANSI)
100
AcDbLine
 10
78.99823060659318
 20
61.75498009461353
 30
0.0
 11
78.99823060659333
 21
61.25498009461352
 31
0.0
  0
LINE
  5
164
330
6C
100
AcDbEntity
  8
Visible (ANSI)
100
AcDbLine
 10
79.09198060659318
 20
61.75498009461353
 30
0.0
 11
78.99823060659318
 21
61.75498009461353
 31
0.0
  0
LINE
  5
165
330
6C
100
AcDbEntity
  8
Visible (ANSI)
100
AcDbLine
 10
78.99823060659333
 20
61.25498009461352
 30
0.0
 11
79.09198060659332
 21
61.25498009461352
 31
0.0
  0
LINE
  5
166
330
6C
100
AcDbEntity
  8
Visible (ANSI)
100
AcDbLine
 10
79.09198060659332
 20
60.03718009461352
 30
0.0
 11
79.09198060659332
 21
61.25498009461352
 31
0.0
  0
LINE
  5
167
330
6C
100
AcDbEntity
  8
Visible (ANSI)
100
AcDbLine
 10
79.09198060659332
 20
22.05498009461353
 30
0.0
 11
79.09198060659332
 21
23.27278009461354
 31
0.0
  0
LINE
  5
168
330
6C
100
AcDbEntity
  8
Visible (ANSI)
100
AcDbLine
 10
78.99823060659333
 20
23.27278009461354
 30
0.0
 11
78.99823060659333
 21
22.05498009461353
 31
0.0
  0
LINE
  5
169
330
6C
100
AcDbEntity
  8
Visible (ANSI)
100
AcDbLine
 10
78.99823060659333
 20
61.25498009461352
 30
0.0
 11
78.99823060659333
 21
60.03718009461352
 31
0.0
  0
LINE
  5
16A
330
6C
100
AcDbEntity
  8
Visible (ANSI)
100
AcDbLine
 10
79.09198060659328
 20
60.03718009461352
 30
0.0
 11
79.09198060659328
 21
60.03698009461352
 31
0.0
  0
LINE
  5
16B
330
6C
100
AcDbEntity
  8
Visible (ANSI)
100
AcDbLine
 10
79.09198060659328
 20
23.27298009461354
 30
0.0
 11
79.09198060659328
 21
23.27278009461354
 31
0.0
  0
LINE
  5
16C
330
6C
100
AcDbEntity
  8
Visible (ANSI)
100
AcDbLine
 10
78.99823060659328
 20
23.27278009461354
 30
0.0
 11
78.99823060659328
 21
23.27298009461354
 31
0.0
  0
LINE
  5
16D
330
6C
100
AcDbEntity
  8
Visible (ANSI)
100
AcDbLine
 10
78.99823060659328
 20
23.27298009461354
 30
0.0
 11
78.99823060659328
 21
60.03698009461352
 31
0.0
  0
LINE
  5
16E
330
6C
100
AcDbEntity
  8
Visible (ANSI)
100
AcDbLine
 10
78.99823060659328
 20
60.03698009461352
 30
0.0
 11
78.99823060659328
 21
60.03718009461352
 31
0.0
  0
LINE
  5
16F
330
6C
100
AcDbEntity
  8
Visible (ANSI)
100
AcDbLine
 10
79.12323060659336
 20
23.27298009461354
 30
0.0
 11
78.99823060659329
 21
23.27298009461354
 31
0.0
  0
LINE
  5
170
330
6C
100
AcDbEntity
  8
Visible (ANSI)
100
AcDbLine
 10
79.12323060659335
 20
60.03698009461352
 30
0.0
 11
78.99823060659328
 21
60.03698009461352
 31
0.0
  0
LINE
  5
171
330
6C
100
AcDbEntity
  8
Visible (ANSI)
100
AcDbLine
 10
78.99823060659333
 20
60.03718009461352
 30
0.0
 11
79.09198060659332
 21
60.03718009461352
 31
0.0
  0
LINE
  5
172
330
6C
100
AcDbEntity
  8
Visible (ANSI)
100
AcDbLine
 10
79.09198060659332
 20
23.27278009461354
 30
0.0
 11
78.99823060659333
 21
23.27278009461354
 31
0.0
  0
LINE
  5
173
330
6C
100
AcDbEntity
  8
Hidden (ANSI)
 48
1.104730606079101
100
AcDbLine
 10
79.09198060659328
 20
60.03698009461352
 30
0.0
 11
79.09198060659328
 21
23.27298009461354
 31
0.0
  0
LINE
  5
174
330
6C
100
AcDbEntity
  8
Visible (ANSI)
100
AcDbLine
 10
79.09198060659318
 20
21.55498009461354
 30
0.0
 11
79.09198060659332
 21
22.05498009461353
 31
0.0
  0
LINE
  5
175
330
6C
100
AcDbEntity
  8
Visible (ANSI)
100
AcDbLine
 10
78.99823060659333
 20
22.05498009461353
 30
0.0
 11
78.99823060659318
 21
21.55498009461354
 31
0.0
  0
LINE
  5
176
330
6C
100
AcDbEntity
  8
Visible (ANSI)
100
AcDbLine
 10
78.99823060659318
 20
21.55498009461354
 30
0.0
 11
79.09198060659318
 21
21.55498009461354
 31
0.0
  0
LINE
  5
177
330
6C
100
AcDbEntity
  8
Visible (ANSI)
100
AcDbLine
 10
79.09198060659332
 20
22.05498009461353
 30
0.0
 11
78.99823060659333
 21
22.05498009461353
 31
0.0
  0
LINE
  5
178
330
6C
100
AcDbEntity
  8
Visible (ANSI)
100
AcDbLine
 10
79.12323060659343
 20
61.75498009461353
 30
0.0
 11
79.77223060659283
 21
61.75498009461353
 31
0.0
  0
LINE
  5
179
330
6C
100
AcDbEntity
  8
Visible (ANSI)
100
AcDbLine
 10
79.77223060659283
 20
61.66123009461353
 30
0.0
 11
79.12323060659343
 21
61.66123009461353
 31
0.0
  0
LINE
  5
17A
330
6C
100
AcDbEntity
  8
Visible (ANSI)
100
AcDbLine
 10
79.77223060659283
 20
61.75498009461353
 30
0.0
 11
79.77223060659283
 21
61.66123009461353
 31
0.0
  0
ARC
  5
17B
330
6C
100
AcDbEntity
  8
Hidden (ANSI)
 48
0.0447323434054852
100
AcDbCircle
 10
79.12323060659282
 20
61.62998009461352
 30
0.0
 40
0.1250000000000007
100
AcDbArc
 50
104.4775121859257
 51
180.0
  0
LINE
  5
17C
330
6C
100
AcDbEntity
  8
Hidden (ANSI)
 48
0.0254093296825886
100
AcDbLine
 10
78.99823060659281
 20
61.62978009461353
 30
0.0
 11
79.09198060659282
 21
61.62978009461353
 31
0.0
  0
ARC
  5
17D
330
6C
100
AcDbEntity
  8
Visible (ANSI)
100
AcDbCircle
 10
79.1232306065928
 20
61.62998009461365
 30
0.0
 40
0.1249999999998806
100
AcDbArc
 50
89.99999999971278
 51
104.4775121859348
  0
ARC
  5
17E
330
6C
100
AcDbEntity
  8
Visible (ANSI)
100
AcDbCircle
 10
79.12323060659281
 20
61.62998009461353
 30
0.0
 40
0.031249999999996
100
AcDbArc
 50
89.99999999888702
 51
180.0
  0
LINE
  5
17F
330
6C
100
AcDbEntity
  8
Visible (ANSI)
100
AcDbLine
 10
79.12323060659335
 20
23.27298009461354
 30
0.0
 11
79.77223060659333
 21
23.27298009461354
 31
0.0
  0
LINE
  5
180
330
6C
100
AcDbEntity
  8
Visible (ANSI)
100
AcDbLine
 10
79.77223060659333
 20
60.03698009461352
 30
0.0
 11
79.77223060659333
 21
23.27298009461354
 31
0.0
  0
LINE
  5
181
330
6C
100
AcDbEntity
  8
Visible (ANSI)
100
AcDbLine
 10
79.77223060659333
 20
60.03698009461352
 30
0.0
 11
79.12323060659335
 21
60.03698009461351
 31
0.0
  0
LINE
  5
182
330
6C
100
AcDbEntity
  8
Hidden (ANSI)
 48
0.0254093296825886
100
AcDbLine
 10
78.99823060659317
 20
41.90498009461353
 30
0.0
 11
79.09198060659317
 21
41.90498009461353
 31
0.0
  0
LINE
  5
183
330
6C
100
AcDbEntity
  8
Hidden (ANSI)
 48
0.0254093296825886
100
AcDbLine
 10
78.99823060659317
 20
41.40498009461352
 30
0.0
 11
79.09198060659317
 21
41.40498009461352
 31
0.0
  0
LINE
  5
184
330
6C
100
AcDbEntity
  8
Hidden (ANSI)
 48
0.0254093296825886
100
AcDbLine
 10
78.99823060659317
 20
61.48498009461353
 30
0.0
 11
79.09198060659317
 21
61.48498009461353
 31
0.0
  0
LINE
  5
185
330
6C
100
AcDbEntity
  8
Hidden (ANSI)
 48
0.0254093296825886
100
AcDbLine
 10
78.99823060659317
 20
60.98498009461351
 30
0.0
 11
79.09198060659317
 21
60.98498009461351
 31
0.0
  0
LINE
  5
186
330
6C
100
AcDbEntity
  8
Hidden (ANSI)
 48
0.0254093296825886
100
AcDbLine
 10
78.99823060659317
 20
22.32498009461354
 30
0.0
 11
79.09198060659317
 21
22.32498009461354
 31
0.0
  0
LINE
  5
187
330
6C
100
AcDbEntity
  8
Hidden (ANSI)
 48
0.0254093296825886
100
AcDbLine
 10
78.99823060659317
 20
21.82498009461353
 30
0.0
 11
79.09198060659317
 21
21.82498009461353
 31
0.0
  0
LINE
  5
188
330
6C
100
AcDbEntity
  8
Hidden (ANSI)
 48
0.0254093296825886
100
AcDbLine
 10
78.99823060659317
 20
60.64123009461352
 30
0.0
 11
79.09198060659317
 21
60.64123009461352
 31
0.0
  0
LINE
  5
189
330
6C
100
AcDbEntity
  8
Hidden (ANSI)
 48
0.0254093296825886
100
AcDbLine
 10
78.99823060659317
 20
60.32873009461353
 30
0.0
 11
79.09198060659317
 21
60.32873009461353
 31
0.0
  0
LINE
  5
18A
330
6C
100
AcDbEntity
  8
Hidden (ANSI)
 48
0.0254093296825886
100
AcDbLine
 10
78.99823060659317
 20
22.98123009461353
 30
0.0
 11
79.09198060659317
 21
22.98123009461353
 31
0.0
  0
LINE
  5
18B
330
6C
100
AcDbEntity
  8
Hidden (ANSI)
 48
0.0254093296825886
100
AcDbLine
 10
78.99823060659317
 20
22.66873009461353
 30
0.0
 11
79.09198060659317
 21
22.66873009461353
 31
0.0
  0
ELLIPSE
  5
18C
330
6C
100
AcDbEntity
  8
Visible (ANSI)
100
AcDbEllipse
 10
112.2965858055162
 20
48.94400969652529
 30
0.0
 11
-0.087330637027272
 21
0.1516521013254065
 31
0.0
210
0.0
220
0.0
230
0.9999999999999998
 40
0.5780931159158113
 41
0.2678448778124105
 42
2.873747775777061
  0
ELLIPSE
  5
18D
330
6C
100
AcDbEntity
  8
Visible (ANSI)
100
AcDbEllipse
 10
112.2501819230008
 20
48.91728747780766
 30
0.0
 11
-0.0873306370272715
 21
0.1516521013254057
 31
0.0
210
0.0
220
0.0
230
1.0
 40
0.5780931159158113
 41
0.0
 42
6.283185307179586
  0
ELLIPSE
  5
18E
330
6C
100
AcDbEntity
  8
Visible (ANSI)
100
AcDbEllipse
 10
95.88322320061156
 20
58.39583660507157
 30
0.0
 11
-0.0873306370272709
 21
0.1516521013254048
 31
0.0
210
0.0
220
0.0
230
1.0
 40
0.5780931159158113
 41
0.2678448778124114
 42
2.873747775777271
  0
ELLIPSE
  5
18F
330
6C
100
AcDbEntity
  8
Visible (ANSI)
100
AcDbEllipse
 10
95.8368193180962
 20
58.36911438635395
 30
0.0
 11
-0.0873306370272715
 21
0.1516521013254057
 31
0.0
210
0.0
220
0.0
230
1.0
 40
0.5780931159158113
 41
0.0
 42
6.283185307179586
  0
ELLIPSE
  5
190
330
6C
100
AcDbEntity
  8
Visible (ANSI)
100
AcDbEllipse
 10
104.0899045030638
 20
42.4646222577066
 30
0.0
 11
-0.0873306370272712
 21
0.1516521013254051
 31
0.0
210
0.0
220
0.0
230
0.9999999999999998
 40
0.5780931159158113
 41
0.2678448778124398
 42
2.873747775777237
  0
ELLIPSE
  5
191
330
6C
100
AcDbEntity
  8
Visible (ANSI)
100
AcDbEllipse
 10
104.0435006205485
 20
42.43790003898897
 30
0.0
 11
-0.0873306370272712
 21
0.1516521013254053
 31
0.0
210
0.0
220
0.0
230
1.0
 40
0.5780931159158113
 41
0.0
 42
6.283185307179586
  0
ELLIPSE
  5
192
330
6C
100
AcDbEntity
  8
Visible (ANSI)
100
AcDbEllipse
 10
104.0899045030639
 20
64.87522404389025
 30
0.0
 11
-0.0873306370272711
 21
0.151652101325405
 31
0.0
210
0.0
220
0.0
230
0.9999999999999998
 40
0.5780931159158112
 41
0.2678448778124105
 42
2.873747775777271
  0
ELLIPSE
  5
193
330
6C
100
AcDbEntity
  8
Visible (ANSI)
100
AcDbEllipse
 10
104.0435006205485
 20
64.84850182517263
 30
0.0
 11
-0.0873306370272712
 21
0.1516521013254053
 31
0.0
210
0.0
220
0.0
230
1.0
 40
0.5780931159158113
 41
0.0
 42
6.283185307179586
  0
ELLIPSE
  5
194
330
6C
100
AcDbEntity
  8
Visible (ANSI)
100
AcDbEllipse
 10
96.49167090815312
 20
46.63191701261379
 30
0.0
 11
-0.043665318513616
 21
-0.0758260506627139
 31
0.0
210
0.0
220
0.0
230
1.0
 40
0.5780931159156361
 41
5.495853435358975
 42
6.283185307179474
  0
ELLIPSE
  5
195
330
6C
100
AcDbEntity
  8
Visible (ANSI)
100
AcDbEllipse
 10
111.7190740196515
 20
37.8630387552399
 30
0.0
 11
-0.0436653185136132
 21
-0.0758260506627091
 31
0.0
210
0.0
220
0.0
230
0.9999999999999998
 40
0.578093115915636
 41
5.49585343535927
 42
5.55242952304291
  0
LINE
  5
196
330
6C
100
AcDbEntity
  8
Visible Narrow (ANSI)
100
AcDbLine
 10
96.42979906479931
 20
46.59628738765695
 30
0.0
 11
111.6572021762976
 21
37.82740913028308
 31
0.0
  0
LINE
  5
197
330
6C
100
AcDbEntity
  8
Visible (ANSI)
100
AcDbLine
 10
111.657301171247
 20
37.82746657948062
 30
0.0
 11
111.657301171247
 21
37.75581674945942
 31
0.0
  0
LINE
  5
198
330
6C
100
AcDbEntity
  8
Visible (ANSI)
100
AcDbLine
 10
111.6572021762976
 20
37.82752358688056
 30
0.0
 11
111.657301171247
 21
37.82746657948062
 31
0.0
  0
LINE
  5
199
330
6C
100
AcDbEntity
  8
Visible (ANSI)
100
AcDbLine
 10
96.42970006984995
 20
46.59645885165436
 30
0.0
 11
96.42979906479931
 21
46.59640184425444
 31
0.0
  0
LINE
  5
19A
330
6C
100
AcDbEntity
  8
Visible (ANSI)
100
AcDbLine
 10
96.42970006984995
 20
46.52480902163316
 30
0.0
 11
96.42970006984995
 21
46.59645885165436
 31
0.0
  0
LINE
  5
19B
330
6C
100
AcDbEntity
  8
Visible (ANSI)
100
AcDbLine
 10
96.46601381324508
 20
46.54572071567384
 30
0.0
 11
96.42970006984995
 21
46.52480902163316
 31
0.0
  0
LINE
  5
19C
330
6C
100
AcDbEntity
  8
Visible (ANSI)
100
AcDbLine
 10
96.4480055896395
 20
46.55609096195107
 30
0.0
 11
111.657301171247
 21
37.79764013754077
 31
0.0
  0
LINE
  5
19D
330
6C
100
AcDbEntity
  8
Visible (ANSI)
100
AcDbLine
 10
96.42979906479931
 20
46.59640184425444
 30
0.0
 11
96.42979906479931
 21
46.59628738765695
 31
0.0
  0
LINE
  5
19E
330
6C
100
AcDbEntity
  8
Visible (ANSI)
100
AcDbLine
 10
111.6572021762976
 20
37.82740913028308
 30
0.0
 11
111.6572021762976
 21
37.82752358688056
 31
0.0
  0
ELLIPSE
  5
19F
330
6C
100
AcDbEntity
  8
Visible (ANSI)
100
AcDbEllipse
 10
112.2965858055162
 20
60.1493105896171
 30
0.0
 11
-0.087330637027272
 21
0.1516521013254065
 31
0.0
210
0.0
220
0.0
230
0.9999999999999998
 40
0.5780931159158113
 41
0.2678448778124105
 42
2.873747775777094
  0
ELLIPSE
  5
1A0
330
6C
100
AcDbEntity
  8
Visible (ANSI)
100
AcDbEllipse
 10
95.88322320061157
 20
69.60113749816341
 30
0.0
 11
-0.0873306370272717
 21
0.1516521013254061
 31
0.0
210
0.0
220
0.0
230
0.9999999999999998
 40
0.5780931159158113
 41
0.2678448778124105
 42
2.873747775777271
  0
ELLIPSE
  5
1A1
330
6C
100
AcDbEntity
  8
Visible (ANSI)
100
AcDbEllipse
 10
95.88322320061154
 20
47.19053571197974
 30
0.0
 11
-0.0873306370272713
 21
0.1516521013254052
 31
0.0
210
0.0
220
0.0
230
0.9999999999999998
 40
0.5780931159158113
 41
0.2678448778124105
 42
2.873747775777271
  0
ELLIPSE
  5
1A2
330
6C
100
AcDbEntity
  8
Visible (ANSI)
100
AcDbEllipse
 10
112.2965858055161
 20
37.73870880343346
 30
0.0
 11
-0.0873306370272718
 21
0.1516521013254062
 31
0.0
210
0.0
220
0.0
230
1.0
 40
0.5780931159158115
 41
0.2678448778125582
 42
2.873747775777061
  0
ELLIPSE
  5
1A3
330
6C
100
AcDbEntity
  8
Visible (ANSI)
100
AcDbEllipse
 10
112.2965858055162
 20
59.72009834907478
 30
0.0
 11
0.0545816481420504
 21
-0.0947825633283754
 31
0.0
210
0.0
220
0.0
230
0.9999999999999998
 40
0.5780931159158114
 41
3.578838513251616
 42
5.84593944751704
  0
ELLIPSE
  5
1A4
330
6C
100
AcDbEntity
  8
Visible (ANSI)
100
AcDbEllipse
 10
95.88322320061157
 20
69.17192525762105
 30
0.0
 11
0.0545816481420505
 21
-0.0947825633283757
 31
0.0
210
0.0
220
0.0
230
0.9999999999999998
 40
0.5780931159158113
 41
3.578838513251616
 42
5.845939447517039
  0
ELLIPSE
  5
1A5
330
6C
100
AcDbEntity
  8
Visible (ANSI)
100
AcDbEllipse
 10
95.88322320061154
 20
47.61974795252208
 30
0.0
 11
0.0545816481420502
 21
-0.0947825633283751
 31
0.0
210
0.0
220
0.0
230
0.9999999999999998
 40
0.5780931159158115
 41
3.578838513251616
 42
5.84593944751704
  0
ELLIPSE
  5
1A6
330
6C
100
AcDbEntity
  8
Visible (ANSI)
100
AcDbEllipse
 10
112.2965858055161
 20
38.1679210439758
 30
0.0
 11
0.0545816481420505
 21
-0.0947825633283756
 31
0.0
210
0.0
220
0.0
230
0.9999999999999998
 40
0.5780931159158113
 41
3.578838513251564
 42
5.845939447517039
  0
ELLIPSE
  5
1A7
330
6C
100
AcDbEntity
  8
Visible (ANSI)
100
AcDbEllipse
 10
112.2501819230008
 20
60.12258837089948
 30
0.0
 11
-0.0873306370272712
 21
0.1516521013254053
 31
0.0
210
0.0
220
0.0
230
1.0
 40
0.5780931159158115
 41
0.0
 42
6.283185307179586
  0
ELLIPSE
  5
1A8
330
6C
100
AcDbEntity
  8
Visible (ANSI)
100
AcDbEllipse
 10
95.83681931809621
 20
69.57441527944578
 30
0.0
 11
-0.0873306370272712
 21
0.1516521013254053
 31
0.0
210
0.0
220
0.0
230
1.0
 40
0.5780931159158115
 41
0.0
 42
6.283185307179586
  0
ELLIPSE
  5
1A9
330
6C
100
AcDbEntity
  8
Visible (ANSI)
100
AcDbEllipse
 10
95.83681931809618
 20
47.16381349326211
 30
0.0
 11
-0.0873306370272712
 21
0.1516521013254053
 31
0.0
210
0.0
220
0.0
230
1.0
 40
0.5780931159158115
 41
0.0
 42
6.283185307179586
  0
ELLIPSE
  5
1AA
330
6C
100
AcDbEntity
  8
Visible (ANSI)
100
AcDbEllipse
 10
112.2501819230008
 20
37.71198658471583
 30
0.0
 11
-0.0873306370272712
 21
0.1516521013254053
 31
0.0
210
0.0
220
0.0
230
1.0
 40
0.5780931159158115
 41
0.0
 42
6.283185307179586
  0
ELLIPSE
  5
1AB
330
6C
100
AcDbEntity
  8
Visible (ANSI)
100
AcDbEllipse
 10
112.2501819230008
 20
59.69337613035715
 30
0.0
 11
-0.0545816481420445
 21
0.0947825633283783
 31
0.0
210
0.0
220
0.0
230
0.9999999999999998
 40
0.5780931159158113
 41
0.0
 42
6.283185307179586
  0
ELLIPSE
  5
1AC
330
6C
100
AcDbEntity
  8
Visible (ANSI)
100
AcDbEllipse
 10
95.83681931809621
 20
69.14520303890345
 30
0.0
 11
-0.0545816481420445
 21
0.0947825633283783
 31
0.0
210
0.0
220
0.0
230
0.9999999999999998
 40
0.5780931159158113
 41
0.0
 42
6.283185307179586
  0
ELLIPSE
  5
1AD
330
6C
100
AcDbEntity
  8
Visible (ANSI)
100
AcDbEllipse
 10
95.83681931809618
 20
47.59302573380445
 30
0.0
 11
-0.0545816481420445
 21
0.0947825633283783
 31
0.0
210
0.0
220
0.0
230
0.9999999999999998
 40
0.5780931159158113
 41
0.0
 42
6.283185307179586
  0
ELLIPSE
  5
1AE
330
6C
100
AcDbEntity
  8
Visible (ANSI)
100
AcDbEllipse
 10
112.2501819230008
 20
38.14119882525817
 30
0.0
 11
-0.0545816481420445
 21
0.0947825633283783
 31
0.0
210
0.0
220
0.0
230
0.9999999999999998
 40
0.5780931159158113
 41
0.0
 42
6.283185307179586
  0
LINE
  5
1AF
330
6C
100
AcDbEntity
  8
Visible (ANSI)
100
AcDbLine
 10
96.47610395236535
 20
69.55730733341981
 30
0.0
 11
95.87332370567496
 21
69.90442539159918
 31
0.0
  0
LINE
  5
1B0
330
6C
100
AcDbEntity
  8
Visible (ANSI)
100
AcDbLine
 10
112.3064853004528
 20
60.4411970030667
 30
0.0
 11
111.7037050537624
 21
60.78831506124607
 31
0.0
  0
LINE
  5
1B1
330
6C
100
AcDbEntity
  8
Visible (ANSI)
100
AcDbLine
 10
112.5539726738681
 20
59.31561078750124
 30
0.0
 11
112.5539726738681
 21
60.01253700954452
 31
0.0
  0
LINE
  5
1B2
330
6C
100
AcDbEntity
  8
Visible (ANSI)
100
AcDbLine
 10
112.5539726738681
 20
37.57904390386528
 30
0.0
 11
112.5539726738681
 21
38.27597012590855
 31
0.0
  0
LINE
  5
1B3
330
6C
100
AcDbEntity
  8
Visible (ANSI)
100
AcDbLine
 10
96.42970006984995
 20
46.52480902163316
 30
0.0
 11
95.82691982315955
 21
46.87192707981253
 31
0.0
  0
LINE
  5
1B4
330
6C
100
AcDbEntity
  8
Visible (ANSI)
100
AcDbLine
 10
112.2600814179374
 20
37.40869869128005
 30
0.0
 11
111.657301171247
 21
37.75581674945942
 31
0.0
  0
LINE
  5
1B5
330
6C
100
AcDbEntity
  8
Visible (ANSI)
100
AcDbLine
 10
112.5075687913527
 20
38.24924790719092
 30
0.0
 11
112.5075687913527
 21
37.55232168514765
 31
0.0
  0
LINE
  5
1B6
330
6C
100
AcDbEntity
  8
Visible (ANSI)
100
AcDbLine
 10
112.5075687913527
 20
59.98581479082689
 30
0.0
 11
112.5075687913527
 21
59.28888856878362
 31
0.0
  0
LINE
  5
1B7
330
6C
100
AcDbEntity
  8
Visible (ANSI)
100
AcDbLine
 10
111.6573011712471
 20
60.76159284252844
 30
0.0
 11
112.2600814179374
 21
60.41447478434907
 31
0.0
  0
LINE
  5
1B8
330
6C
100
AcDbEntity
  8
Visible (ANSI)
100
AcDbLine
 10
95.8269198231596
 20
69.87770317288156
 30
0.0
 11
96.42970006984999
 21
69.53058511470219
 31
0.0
  0
LINE
  5
1B9
330
6C
100
AcDbEntity
  8
Visible (ANSI)
100
AcDbLine
 10
95.57943244974428
 20
69.03715395697068
 30
0.0
 11
95.57943244974428
 21
69.73408017901395
 31
0.0
  0
LINE
  5
1BA
330
6C
100
AcDbEntity
  8
Visible (ANSI)
100
AcDbLine
 10
95.57943244974422
 20
47.30058707333472
 30
0.0
 11
95.57943244974422
 21
47.99751329537797
 31
0.0
  0
LINE
  5
1BB
330
6C
100
AcDbEntity
  8
Visible (ANSI)
100
AcDbLine
 10
96.47610395236535
 20
69.55730733341981
 30
0.0
 11
96.47610395236535
 21
69.55489211919765
 31
0.0
  0
LINE
  5
1BC
330
6C
100
AcDbEntity
  8
Visible (ANSI)
100
AcDbLine
 10
111.6573011712471
 20
60.76159284252844
 30
0.0
 11
111.6573011712471
 21
60.68994301250723
 31
0.0
  0
LINE
  5
1BD
330
6C
100
AcDbEntity
  8
Visible (ANSI)
100
AcDbLine
 10
111.6573011712471
 20
60.68994301250723
 30
0.0
 11
111.6572021762977
 21
60.69000001990717
 31
0.0
  0
LINE
  5
1BE
330
6C
100
AcDbEntity
  8
Visible Narrow (ANSI)
100
AcDbLine
 10
111.6572021762977
 20
60.69011447650464
 30
0.0
 11
96.42979906479936
 21
69.45899273387853
 31
0.0
  0
LINE
  5
1BF
330
6C
100
AcDbEntity
  8
Visible (ANSI)
100
AcDbLine
 10
96.42979906479936
 20
69.45887827728106
 30
0.0
 11
96.42970006984999
 21
69.45893528468099
 31
0.0
  0
LINE
  5
1C0
330
6C
100
AcDbEntity
  8
Visible (ANSI)
100
AcDbLine
 10
96.42970006984999
 20
69.45893528468099
 30
0.0
 11
96.42970006984999
 21
69.53058511470219
 31
0.0
  0
LINE
  5
1C1
330
6C
100
AcDbEntity
  8
Visible Narrow (ANSI)
100
AcDbLine
 10
111.7190740196518
 20
60.79727947488539
 30
0.0
 11
96.49167090815318
 21
69.5661577322591
 31
0.0
  0
ELLIPSE
  5
1C2
330
6C
100
AcDbEntity
  8
Visible (ANSI)
100
AcDbEllipse
 10
111.7190740196515
 20
60.7257441014615
 30
0.0
 11
0.0436653185136339
 21
0.0758260506627346
 31
0.0
210
0.0
220
0.0
230
1.0
 40
0.5780931159156361
 41
2.297684694085777
 42
2.35426078176947
  0
ELLIPSE
  5
1C3
330
6C
100
AcDbEntity
  8
Visible (ANSI)
100
AcDbEllipse
 10
111.7190740196515
 20
60.72574410146178
 30
0.0
 11
0.0436653185134278
 21
0.075826050662387
 31
0.0
210
0.0
220
0.0
230
0.9999999999999998
 40
0.5780931159156359
 41
0.7834644549690389
 42
1.009790328440828
  0
LINE
  5
1C4
330
6C
100
AcDbEntity
  8
Visible (ANSI)
100
AcDbLine
 10
111.6572021762977
 20
60.69000001990717
 30
0.0
 11
111.6573011712471
 21
60.6900570273071
 31
0.0
  0
ELLIPSE
  5
1C5
330
6C
100
AcDbEntity
  8
Visible (ANSI)
100
AcDbEllipse
 10
96.49167090815316
 20
69.49462235883537
 30
0.0
 11
0.0436653185136185
 21
0.0758260506627112
 31
0.0
210
0.0
220
0.0
230
0.9999999999999998
 40
0.578093115915623
 41
0.7834644549748973
 42
2.354260781769594
  0
LINE
  5
1C6
330
6C
100
AcDbEntity
  8
Visible (ANSI)
100
AcDbLine
 10
96.42970006984999
 20
69.53058511470219
 30
0.0
 11
96.47610395236535
 21
69.55730733341981
 31
0.0
  0
LINE
  5
1C7
330
6C
100
AcDbEntity
  8
Visible (ANSI)
100
AcDbLine
 10
96.42970006984999
 20
69.45893528468099
 30
0.0
 11
96.42979906479936
 21
69.45899229208092
 31
0.0
  0
LINE
  5
1C8
330
6C
100
AcDbEntity
  8
Visible (ANSI)
100
AcDbLine
 10
111.7037050537624
 20
60.78831506124607
 30
0.0
 11
111.6573011712471
 21
60.76159284252844
 31
0.0
  0
LINE
  5
1C9
330
6C
100
AcDbEntity
  8
Visible (ANSI)
100
AcDbLine
 10
112.5539726738681
 20
60.01253700954452
 30
0.0
 11
112.3064853004528
 21
60.4411970030667
 31
0.0
  0
LINE
  5
1CA
330
6C
100
AcDbEntity
  8
Visible (ANSI)
100
AcDbLine
 10
112.2600814179374
 20
60.41447478434907
 30
0.0
 11
112.5075687913527
 21
59.98581479082689
 31
0.0
  0
LINE
  5
1CB
330
6C
100
AcDbEntity
  8
Visible (ANSI)
100
AcDbLine
 10
112.3064853004528
 20
60.4411970030667
 30
0.0
 11
112.2600814179374
 21
60.41447478434907
 31
0.0
  0
LINE
  5
1CC
330
6C
100
AcDbEntity
  8
Visible (ANSI)
100
AcDbLine
 10
112.5075687913527
 20
59.98581479082689
 30
0.0
 11
112.5539726738681
 21
60.01253700954452
 31
0.0
  0
LINE
  5
1CD
330
6C
100
AcDbEntity
  8
Visible (ANSI)
100
AcDbLine
 10
112.5518828593034
 20
38.27717357007851
 30
0.0
 11
112.5539726738681
 21
38.27597012590855
 31
0.0
  0
LINE
  5
1CE
330
6C
100
AcDbEntity
  8
Visible (ANSI)
100
AcDbLine
 10
112.5075687913527
 20
38.24924790719092
 30
0.0
 11
112.4455979530495
 21
38.28493453954768
 31
0.0
  0
LINE
  5
1CF
330
6C
100
AcDbEntity
  8
Visible (ANSI)
100
AcDbLine
 10
112.4455979530495
 20
38.28493453954768
 30
0.0
 11
112.4455979530495
 21
38.28504899614516
 31
0.0
  0
LINE
  5
1D0
330
6C
100
AcDbEntity
  8
Visible Narrow (ANSI)
100
AcDbLine
 10
112.4456969479989
 20
38.28499198874523
 30
0.0
 11
112.4456969479989
 21
59.32440373714296
 31
0.0
  0
LINE
  5
1D1
330
6C
100
AcDbEntity
  8
Visible (ANSI)
100
AcDbLine
 10
112.4455979530496
 20
59.32446074454289
 30
0.0
 11
112.4455979530496
 21
59.32457520114038
 31
0.0
  0
LINE
  5
1D2
330
6C
100
AcDbEntity
  8
Visible (ANSI)
100
AcDbLine
 10
112.4455979530496
 20
59.32457520114038
 30
0.0
 11
112.5075687913527
 21
59.28888856878362
 31
0.0
  0
LINE
  5
1D3
330
6C
100
AcDbEntity
  8
Visible Narrow (ANSI)
100
AcDbLine
 10
112.5694406347065
 20
38.28499198874525
 30
0.0
 11
112.5694406347066
 21
59.32440373714298
 31
0.0
  0
ELLIPSE
  5
1D4
330
6C
100
AcDbEntity
  8
Visible (ANSI)
100
AcDbEllipse
 10
112.5075687913527
 20
38.32062161370206
 30
0.0
 11
0.0875000000000016
 21
0.000000000000005
 31
0.0
210
0.0
220
0.0
230
1.0
 40
0.5758617009853141
 41
3.926990816987228
 42
5.497787143782243
  0
LINE
  5
1D5
330
6C
100
AcDbEntity
  8
Visible (ANSI)
100
AcDbLine
 10
112.4455979530496
 20
59.32446074454289
 30
0.0
 11
112.4456973315959
 21
59.32451797284164
 31
0.0
  0
ELLIPSE
  5
1D6
330
6C
100
AcDbEntity
  8
Visible (ANSI)
100
AcDbEllipse
 10
112.5075687913526
 20
59.36003336209974
 30
0.0
 11
0.0874999999998558
 21
0.000000000000005
 31
0.0
210
0.0
220
0.0
230
1.0
 40
0.5758617009853144
 41
3.926990816987055
 42
3.983676441749954
  0
ELLIPSE
  5
1D7
330
6C
100
AcDbEntity
  8
Visible (ANSI)
100
AcDbEllipse
 10
112.5075687913526
 20
59.36003336209986
 30
0.0
 11
0.0875000000001318
 21
-0.0000000000000002
 31
0.0
210
0.0
220
0.0
230
1.0
 40
0.5758617009853142
 41
5.271378846410234
 42
5.49778714378252
  0
LINE
  5
1D8
330
6C
100
AcDbEntity
  8
Visible (ANSI)
100
AcDbLine
 10
112.5075687913527
 20
59.28888856878362
 30
0.0
 11
112.5539726738681
 21
59.31561078750124
 31
0.0
  0
LINE
  5
1D9
330
6C
100
AcDbEntity
  8
Visible (ANSI)
100
AcDbLine
 10
112.4455979530495
 20
38.28493453954768
 30
0.0
 11
112.4456973315971
 21
38.2849917678471
 31
0.0
  0
LINE
  5
1DA
330
6C
100
AcDbEntity
  8
Visible (ANSI)
100
AcDbLine
 10
112.5539726738681
 20
38.27597012590855
 30
0.0
 11
112.5075687913527
 21
38.24924790719092
 31
0.0
  0
LINE
  5
1DB
330
6C
100
AcDbEntity
  8
Visible (ANSI)
100
AcDbLine
 10
112.3064853004527
 20
37.43542090999768
 30
0.0
 11
112.5539726738681
 21
37.57904390386528
 31
0.0
  0
LINE
  5
1DC
330
6C
100
AcDbEntity
  8
Visible (ANSI)
100
AcDbLine
 10
112.5075687913527
 20
37.55232168514765
 30
0.0
 11
112.2600814179374
 21
37.40869869128005
 31
0.0
  0
LINE
  5
1DD
330
6C
100
AcDbEntity
  8
Visible (ANSI)
100
AcDbLine
 10
112.2600814179374
 20
37.40869869128005
 30
0.0
 11
112.3064853004527
 21
37.43542090999768
 31
0.0
  0
LINE
  5
1DE
330
6C
100
AcDbEntity
  8
Visible (ANSI)
100
AcDbLine
 10
112.5539726738681
 20
37.57904390386528
 30
0.0
 11
112.5075687913527
 21
37.55232168514765
 31
0.0
  0
LINE
  5
1DF
330
6C
100
AcDbEntity
  8
Visible (ANSI)
100
AcDbLine
 10
112.4455979530495
 20
38.28504899614516
 30
0.0
 11
112.4456969479989
 21
38.28499198874523
 31
0.0
  0
LINE
  5
1E0
330
6C
100
AcDbEntity
  8
Visible (ANSI)
100
AcDbLine
 10
112.4456969479989
 20
59.32440373714296
 30
0.0
 11
112.4455979530496
 21
59.32446074454289
 31
0.0
  0
LINE
  5
1E1
330
6C
100
AcDbEntity
  8
Visible (ANSI)
100
AcDbLine
 10
112.5694406347065
 20
38.28499198874525
 30
0.0
 11
112.8906792453995
 21
38.46998100152112
 31
0.0
  0
LINE
  5
1E2
330
6C
100
AcDbEntity
  8
Visible (ANSI)
100
AcDbLine
 10
112.8906792453996
 20
59.50939274991887
 30
0.0
 11
112.8906792453995
 21
38.46998100152112
 31
0.0
  0
LINE
  5
1E3
330
6C
100
AcDbEntity
  8
Visible (ANSI)
100
AcDbLine
 10
112.8906792453996
 20
59.50939274991887
 30
0.0
 11
112.5694406347066
 21
59.32440373714298
 31
0.0
  0
LINE
  5
1E4
330
6C
100
AcDbEntity
  8
Visible (ANSI)
100
AcDbLine
 10
112.8442753628842
 20
59.53611496863648
 30
0.0
 11
112.8906792453996
 21
59.50939274991887
 31
0.0
  0
LINE
  5
1E5
330
6C
100
AcDbEntity
  8
Visible (ANSI)
100
AcDbLine
 10
112.5539726738681
 20
59.36894076833902
 30
0.0
 11
112.8442753628842
 21
59.53611496863648
 31
0.0
  0
LINE
  5
1E6
330
6C
100
AcDbEntity
  8
Visible (ANSI)
100
AcDbLine
 10
111.6572021762977
 20
60.69000001990717
 30
0.0
 11
111.6572021762977
 21
60.69011447650464
 31
0.0
  0
LINE
  5
1E7
330
6C
100
AcDbEntity
  8
Visible (ANSI)
100
AcDbLine
 10
96.42979906479936
 20
69.45899273387853
 30
0.0
 11
96.42979906479936
 21
69.45887827728106
 31
0.0
  0
LINE
  5
1E8
330
6C
100
AcDbEntity
  8
Visible (ANSI)
100
AcDbLine
 10
111.7190740196518
 20
60.79727947488539
 30
0.0
 11
112.0403126303445
 21
60.9822684876611
 31
0.0
  0
LINE
  5
1E9
330
6C
100
AcDbEntity
  8
Visible (ANSI)
100
AcDbLine
 10
96.81290951884616
 20
69.75114674503497
 30
0.0
 11
112.0403126303445
 21
60.9822684876611
 31
0.0
  0
LINE
  5
1EA
330
6C
100
AcDbEntity
  8
Visible (ANSI)
100
AcDbLine
 10
96.81290951884616
 20
69.75114674503497
 30
0.0
 11
96.49167090815318
 21
69.5661577322591
 31
0.0
  0
LINE
  5
1EB
330
6C
100
AcDbEntity
  8
Visible (ANSI)
100
AcDbLine
 10
112.0403126303445
 20
60.92861695759331
 30
0.0
 11
111.7501897524117
 21
60.76154630361211
 31
0.0
  0
LINE
  5
1EC
330
6C
100
AcDbEntity
  8
Visible (ANSI)
100
AcDbLine
 10
112.0403126303445
 20
60.9822684876611
 30
0.0
 11
112.0403126303445
 21
60.92861695759331
 31
0.0
  0
LINE
  5
1ED
330
6C
100
AcDbEntity
  8
Visible (ANSI)
100
AcDbLine
 10
95.57943244974428
 20
69.73408017901395
 30
0.0
 11
95.8269198231596
 21
69.87770317288156
 31
0.0
  0
LINE
  5
1EE
330
6C
100
AcDbEntity
  8
Visible (ANSI)
100
AcDbLine
 10
95.8269198231596
 20
69.87770317288156
 30
0.0
 11
95.87332370567496
 21
69.90442539159918
 31
0.0
  0
LINE
  5
1EF
330
6C
100
AcDbEntity
  8
Visible (ANSI)
100
AcDbLine
 10
95.57943244974428
 20
69.03715395697068
 30
0.0
 11
95.64140328804745
 21
69.00146732461394
 31
0.0
  0
LINE
  5
1F0
330
6C
100
AcDbEntity
  8
Visible (ANSI)
100
AcDbLine
 10
95.64140328804745
 20
69.00146732461394
 30
0.0
 11
95.64140328804745
 21
69.00135286801647
 31
0.0
  0
LINE
  5
1F1
330
6C
100
AcDbEntity
  8
Visible Narrow (ANSI)
100
AcDbLine
 10
95.64130429309811
 20
69.00140987541639
 30
0.0
 11
95.64130429309805
 21
47.96199812701863
 31
0.0
  0
LINE
  5
1F2
330
6C
100
AcDbEntity
  8
Visible (ANSI)
100
AcDbLine
 10
95.64140328804743
 20
47.9619411196187
 30
0.0
 11
95.64140328804743
 21
47.96182666302122
 31
0.0
  0
LINE
  5
1F3
330
6C
100
AcDbEntity
  8
Visible (ANSI)
100
AcDbLine
 10
95.64140328804743
 20
47.96182666302122
 30
0.0
 11
95.57943244974422
 21
47.99751329537797
 31
0.0
  0
ELLIPSE
  5
1F4
330
6C
100
AcDbEntity
  8
Visible (ANSI)
100
AcDbEllipse
 10
95.7031761364519
 20
69.03703950037321
 30
0.0
 11
-0.0874999999999774
 21
0.0000000000000002
 31
0.0
210
0.0
220
0.0
230
1.0
 40
0.5758617009853142
 41
0.7287125386357465
 42
0.7853981633974901
  0
ELLIPSE
  5
1F5
330
6C
100
AcDbEntity
  8
Visible (ANSI)
100
AcDbEllipse
 10
95.7031761364519
 20
47.99762775197547
 30
0.0
 11
-0.0875000000000001
 21
-0.0000000000000031
 31
0.0
210
0.0
220
0.0
230
1.0
 40
0.5758617009853309
 41
0.0
 42
0.7853981633974119
  0
LINE
  5
1F6
330
6C
100
AcDbEntity
  8
Visible (ANSI)
100
AcDbLine
 10
95.57943244974422
 20
47.99751329537797
 30
0.0
 11
95.61567613645189
 21
48.01838464645544
 31
0.0
  0
LINE
  5
1F7
330
6C
100
AcDbEntity
  8
Visible (ANSI)
100
AcDbLine
 10
95.61567613645193
 20
69.01628260589323
 30
0.0
 11
95.61567613645189
 21
47.99762775197547
 31
0.0
  0
LINE
  5
1F8
330
6C
100
AcDbEntity
  8
Visible (ANSI)
100
AcDbLine
 10
95.64140328804745
 20
69.00135286801647
 30
0.0
 11
95.64130429309811
 21
69.00140987541639
 31
0.0
  0
LINE
  5
1F9
330
6C
100
AcDbEntity
  8
Visible (ANSI)
100
AcDbLine
 10
95.64130429309805
 20
47.96199812701863
 30
0.0
 11
95.64140328804743
 21
47.9619411196187
 31
0.0
  0
LINE
  5
1FA
330
6C
100
AcDbEntity
  8
Visible (ANSI)
100
AcDbLine
 10
95.81394042731741
 20
69.17208366323312
 30
0.0
 11
95.8714576711119
 21
69.20520564108061
 31
0.0
  0
LINE
  5
1FB
330
6C
100
AcDbEntity
  8
Visible (ANSI)
100
AcDbLine
 10
95.8970933025888
 20
69.16652378199351
 30
0.0
 11
95.83452921564626
 21
69.13049552046619
 31
0.0
  0
LINE
  5
1FC
330
6C
100
AcDbEntity
  8
Visible (ANSI)
100
AcDbLine
 10
95.82691982315955
 20
46.87192707981253
 30
0.0
 11
95.57943244974422
 21
47.30058707333472
 31
0.0
  0
DIMENSION
  5
1FD
330
6C
100
AcDbEntity
  8
Dimension (ANSI)
100
AcDbDimension
  2
*D4
 10
20.73252545957707
 20
67.86915332295999
 30
0.0
 11
37.83252545957706
 21
67.86915332295999
 31
0.0
 70
   160
  1
<>
 42
34.19999999999999
  3
Default (ANSI)
100
AcDbAlignedDimension
 13
54.93252545957706
 23
61.25498009461352
 33
0.0
 14
20.73252545957707
 24
61.25498009461352
 34
0.0
 50
180.0
100
AcDbRotatedDimension
1001
ACAD
1000
DSTYLE
1002
{
1070
   289
1070
     1
1070
    73
1070
     0
1070
    74
1070
     0
1070
   271
1070
     3
1070
   272
1070
     2
1070
    48
1040
0.0
1070
    47
1040
0.0
1002
}
  0
DIMENSION
  5
2EA
330
6C
100
AcDbEntity
  8
Dimension (ANSI)
100
AcDbDimension
  2
*D5
 10
10.20603416112594
 20
21.55498009461354
 30
0.0
 11
10.20603416112593
 21
46.1640675664462
 31
0.0
 70
   160
  1
<>
 42
40.2
  3
Default (ANSI)
100
AcDbAlignedDimension
 13
21.23252545957707
 23
61.75498009461353
 33
0.0
 14
21.23252545957708
 24
21.55498009461354
 34
0.0
 50
270.0
100
AcDbRotatedDimension
1001
ACAD
1000
DSTYLE
1002
{
1070
   289
1070
     1
1070
   271
1070
     3
1070
   272
1070
     2
1070
    48
1040
0.0
1070
    47
1040
0.0
1002
}
  0
DIMENSION
  5
3D4
330
6C
100
AcDbEntity
  8
Dimension (ANSI)
100
AcDbDimension
  2
*D6
 10
21.07574876428042
 20
22.25175678991014
 30
0.0
 11
32.83850414775181
 21
14.8247920105593
 31
0.0
 70
   163
  1
<>{\PTYP.(8PL.)}
 42
0.5
  3
Default (ANSI)
100
AcDbDiametricDimension
 15
21.42930215487375
 25
21.89820339931692
 35
0.0
 40
0.0
1001
ACAD_DSTYLE_DIMRADIAL_EXTENSION
1070
   387
1070
     1
1070
   388
1040
0.0
1070
   390
1040
0.0
1001
ACAD
1000
DSTYLE
1002
{
1070
   145
1040
-0.25
1070
   144
1040
1.000000000000003
1070
   271
1070
     3
1070
   272
1070
     2
1070
    48
1040
0.0
1070
    47
1040
0.0
1002
}
  0
DIMENSION
  5
48E
330
6C
100
AcDbEntity
  8
Dimension (ANSI)
100
AcDbDimension
  2
*D7
 10
21.10898514675537
 20
22.88670724500168
 30
0.0
 11
32.41418945815921
 21
19.75788832329877
 31
0.0
 70
   163
  1
<>{\PTYP.(4PL.)}
 42
0.3125
  3
Default (ANSI)
100
AcDbDiametricDimension
 15
21.39606577239882
 25
22.7632529442254
 35
0.0
 40
0.0
1001
ACAD_DSTYLE_DIMRADIAL_EXTENSION
1070
   387
1070
     1
1070
   388
1040
0.0
1070
   390
1040
0.0
1001
ACAD
1000
DSTYLE
1002
{
1070
   145
1040
-0.25
1070
   144
1040
1.000000000000005
1070
   271
1070
     3
1070
   272
1070
     2
1070
    48
1040
0.0
1070
    47
1040
0.0
1002
}
  0
DIMENSION
  5
547
330
6C
100
AcDbEntity
  8
Dimension (ANSI)
100
AcDbDimension
  2
*D8
 10
79.09198060659334
 20
22.43063278932504
 30
0.0
 11
74.8598053400227
 21
22.43063278932504
 31
0.0
 70
   160
  1
 12 GA.\P304 SS
 42
0.0937500000000142
  3
Default (ANSI)
100
AcDbAlignedDimension
 13
78.99823060659333
 23
47.06501203348049
 33
0.0
 14
79.09198060659334
 24
47.06501203348049
 34
0.0
 50
180.0
100
AcDbRotatedDimension
1001
ACAD
1000
DSTYLE
1002
{
1070
   289
1070
     1
1070
    73
1070
     0
1070
    74
1070
     0
1070
   145
1040
-0.25
1070
   271
1070
     3
1070
   272
1070
     2
1070
    48
1040
0.0
1070
    47
1040
0.0
1002
}
  0
DIMENSION
  5
645
330
6C
100
AcDbEntity
  8
Dimension (ANSI)
100
AcDbDimension
  2
*D9
 10
13.55001267421067
 20
22.07498009461353
 30
0.0
 11
13.55001267421067
 21
43.6559902043833
 31
0.0
 70
   160
  1
<>
 42
39.16
  3
Default (ANSI)
100
AcDbAlignedDimension
 13
21.25252545957708
 23
61.23498009461352
 33
0.0
 14
21.25252545957708
 24
22.07498009461353
 34
0.0
 50
90.0
100
AcDbRotatedDimension
1001
ACAD
1000
DSTYLE
1002
{
1070
   289
1070
     1
1070
   271
1070
     3
1070
   272
1070
     2
1070
    48
1040
0.0
1070
    47
1040
0.0
1002
}
  0
DIMENSION
  5
72F
330
6C
100
AcDbEntity
  8
Dimension (ANSI)
100
AcDbDimension
  2
*D10
 10
16.07608949654384
 20
22.07498009461353
 30
0.0
 11
18.66553836659352
 21
24.44394444019746
 31
0.0
 70
   160
  1
<>
 42
0.75
  3
Default (ANSI)
100
AcDbAlignedDimension
 13
21.25252545957708
 23
22.82498009461353
 33
0.0
 14
21.25252545957708
 24
22.07498009461353
 34
0.0
 50
90.0
100
AcDbRotatedDimension
1001
ACAD
1000
DSTYLE
1002
{
1070
   289
1070
     1
1070
   271
1070
     3
1070
   272
1070
     2
1070
    48
1040
0.0
1070
    47
1040
0.0
1002
}
  0
DIMENSION
  5
82F
330
6C
100
AcDbEntity
  8
Dimension (ANSI)
100
AcDbDimension
  2
*D11
 10
21.25252545957708
 20
65.8075452364494
 30
0.0
 11
37.83252545957708
 21
65.8075452364494
 31
0.0
 70
   160
  1
<>
 42
33.15999999999998
  3
Default (ANSI)
100
AcDbAlignedDimension
 13
54.41252545957707
 23
61.23498009461353
 33
0.0
 14
21.25252545957708
 24
61.23498009461352
 34
0.0
 50
180.0
100
AcDbRotatedDimension
1001
ACAD
1000
DSTYLE
1002
{
1070
   289
1070
     1
1070
    73
1070
     0
1070
    74
1070
     0
1070
   271
1070
     3
1070
   272
1070
     2
1070
    48
1040
0.0
1070
    47
1040
0.0
1002
}
  0
DIMENSION
  5
919
330
6C
100
AcDbEntity
  8
Dimension (ANSI)
100
AcDbDimension
  2
*D12
 10
54.43185100549414
 20
21.55498009461354
 30
0.0
 11
57.02129987554382
 21
24.05046965301104
 31
0.0
 70
   160
  1
<>
 42
0.5
  3
Default (ANSI)
100
AcDbAlignedDimension
 13
54.93252545957707
 23
22.05498009461353
 33
0.0
 14
54.43252545957707
 24
21.55498009461354
 34
0.0
 50
90.0
100
AcDbRotatedDimension
1001
ACAD
1000
DSTYLE
1002
{
1070
   289
1070
     1
1070
   271
1070
     3
1070
   272
1070
     2
1070
    48
1040
0.0
1070
    47
1040
0.0
1002
}
  0
DIMENSION
  5
A19
330
6C
100
AcDbEntity
  8
Dimension (ANSI)
100
AcDbDimension
  2
*D13
 10
54.43252545957707
 20
19.70113984281639
 30
0.0
 11
50.31707571375306
 21
19.70113984281639
 31
0.0
 70
   160
  1
<>
 42
0.5
  3
Default (ANSI)
100
AcDbAlignedDimension
 13
54.93252545957707
 23
22.05498009461353
 33
0.0
 14
54.43252545957707
 24
21.55498009461354
 34
0.0
 50
180.0
100
AcDbRotatedDimension
1001
ACAD
1000
DSTYLE
1002
{
1070
   289
1070
     1
1070
    73
1070
     0
1070
    74
1070
     0
1070
   271
1070
     3
1070
   272
1070
     2
1070
    48
1040
0.0
1070
    47
1040
0.0
1002
}
  0
DIMENSION
  5
B03
330
6C
100
AcDbEntity
  8
Dimension (ANSI)
100
AcDbDimension
  2
*D14
 10
54.93252545957706
 20
64.02320792101767
 30
0.0
 11
51.13410022717978
 21
64.02320792101767
 31
0.0
 70
   160
  1
<>
 42
0.5199999999999961
  3
Default (ANSI)
100
AcDbAlignedDimension
 13
54.41252545957707
 23
61.23498009461353
 33
0.0
 14
54.93252545957706
 24
61.25498009461352
 34
0.0
 50
180.0
100
AcDbRotatedDimension
1001
ACAD
1000
DSTYLE
1002
{
1070
   289
1070
     1
1070
    73
1070
     0
1070
    74
1070
     0
1070
   271
1070
     3
1070
   272
1070
     2
1070
    48
1040
0.0
1070
    47
1040
0.0
1002
}
  0
DIMENSION
  5
BED
330
6C
100
AcDbEntity
  8
Dimension (ANSI)
100
AcDbDimension
  2
*D15
 10
60.64775812218099
 20
61.75498009461353
 30
0.0
 11
58.05830925213129
 21
59.23949053621604
 31
0.0
 70
   160
  1
<>
 42
0.5200000000000032
  3
Default (ANSI)
100
AcDbAlignedDimension
 13
54.41252545957707
 23
61.23498009461353
 33
0.0
 14
54.43252545957707
 24
61.75498009461353
 34
0.0
 50
270.0
100
AcDbRotatedDimension
1001
ACAD
1000
DSTYLE
1002
{
1070
   289
1070
     1
1070
   271
1070
     3
1070
   272
1070
     2
1070
    48
1040
0.0
1070
    47
1040
0.0
1002
}
  0
MTEXT
  5
CED
102
{ACAD_XDICTIONARY
360
FBB
102
}
330
6C
100
AcDbEntity
  8
Symbol (ANSI)
100
AcDbMText
 10
75.11756632152148
 20
17.65705157516978
 30
0.0
 40
0.8400000103815333
 41
43.46501003584024
 71
     1
 72
     1
  3
{\fRomanS|b0|i0|c0|p2;\H2x;PART#: NP4236SSC\P(DATA SUBJECT TO CHANGE \H1.5533x; \H0.64379x;WITHOUT NOTICE) \H1.4593x; \H0.68528x;\P\H0.6x;THIS DRAWING IS PROPERTY OF HUBBELL INC. \H1.4743x; \H0.67829x;WIEGMANN\H1.1569x; \H0.86435x;\PALL INFORMATION I
  1
S PROPRIETARY AND NOT TO BE \H1.1949x; \H0.83687x;DUPLICATED\H1.1904x; \H0.84007x;\P\H0.83333x; \H1.2291x; \H0.8136x;\P\H1.1396x; }
  7
Note Text (ANSI)
 73
     1
 44
0.8397688865661621
1001
ACAD
1000
MTEXTBEGIN
1070
    73
1070
     1
1070
    44
1040
0.8397688865661621
1070
    74
1070
     0
1000
MTEXTEND
  0
DIMENSION
  5
CEF
330
6C
100
AcDbEntity
  8
Dimension (ANSI)
100
AcDbDimension
  2
*D16
 10
79.77223060659283
 20
63.7746651339836
 30
0.0
 11
74.88278086076916
 21
63.7746651339836
 31
0.0
 70
   160
  1
<>
 42
0.7739999999996457
  3
Default (ANSI)
100
AcDbAlignedDimension
 13
78.99823060659318
 23
61.75498009461353
 33
0.0
 14
79.77223060659283
 24
61.75498009461353
 34
0.0
 50
180.0
100
AcDbRotatedDimension
1001
ACAD
1000
DSTYLE
1002
{
1070
   289
1070
     1
1070
    73
1070
     0
1070
    74
1070
     0
1070
   271
1070
     3
1070
   272
1070
     2
1070
    48
1040
0.0
1070
    47
1040
0.0
1002
}
  0
DIMENSION
  5
DD9
330
6C
100
AcDbEntity
  8
Dimension (ANSI)
100
AcDbDimension
  2
*D17
 10
16.38942134558963
 20
41.65498009461352
 30
0.0
 11
16.38942134558962
 21
31.86498009461353
 31
0.0
 70
   160
  1
<>
 42
19.58
  3
Default (ANSI)
100
AcDbAlignedDimension
 13
21.25252545957708
 23
22.07498009461353
 33
0.0
 14
21.25252545957708
 24
41.65498009461352
 34
0.0
 50
90.0
100
AcDbRotatedDimension
1001
ACAD
1000
DSTYLE
1002
{
1070
   289
1070
     1
1070
   271
1070
     3
1070
   272
1070
     2
1070
    48
1040
0.0
1070
    47
1040
0.0
1002
}
  0
DIMENSION
  5
EC3
330
6C
100
AcDbEntity
  8
Dimension (ANSI)
100
AcDbDimension
  2
*D18
 10
37.83252545957707
 20
63.71380878390496
 30
0.0
 11
29.54252545957708
 21
63.71380878390496
 31
0.0
 70
   160
  1
<>
 42
16.57999999999999
  3
Default (ANSI)
100
AcDbAlignedDimension
 13
21.25252545957708
 23
61.23498009461352
 33
0.0
 14
37.83252545957707
 24
61.23498009461352
 34
0.0
 50
180.0
100
AcDbRotatedDimension
1001
ACAD
1000
DSTYLE
1002
{
1070
   289
1070
     1
1070
    73
1070
     0
1070
    74
1070
     0
1070
   271
1070
     3
1070
   272
1070
     2
1070
    48
1040
0.0
1070
    47
1040
0.0
1002
}
  0
ENDSEC
  0
SECTION
  2
OBJECTS
  0
DICTIONARY
  5
C
330
0
100
AcDbDictionary
281
     1
  3
ACAD_CIP_PREVIOUS_PRODUCT_INFO
350
FAD
  3
ACAD_COLOR
350
63
  3
ACAD_GROUP
350
D
  3
ACAD_LAYOUT
350
62
  3
ACAD_MATERIAL
350
10
  3
ACAD_MLEADERSTYLE
350
66
  3
ACAD_MLINESTYLE
350
5F
  3
ACAD_PLOTSETTINGS
350
61
  3
ACAD_PLOTSTYLENAME
350
E
  3
ACAD_SCALELIST
350
42
  3
ACAD_TABLESTYLE
350
64
  3
ACAD_VISUALSTYLE
350
29
  3
ACDB_RECOMPOSE_DATA
350
FBD
  3
AcDbVariableDictionary
350
76
  3
DWGPROPS
350
FBE
  0
DICTIONARY
  5
FFA
330
488
100
AcDbDictionary
280
     1
281
     1
  3
ACAD_MTEXT_RT
360
FFB
  0
DICTIONARY
  5
FFC
330
541
100
AcDbDictionary
280
     1
281
     1
  3
ACAD_MTEXT_RT
360
FFD
  0
DICTIONARY
  5
FBB
330
CED
100
AcDbDictionary
280
     1
281
     1
  3
ACAD_MTEXT_2008_RT
360
FBC
  0
XRECORD
  5
FAD
102
{ACAD_REACTORS
330
C
102
}
330
C
100
AcDbXrecord
280
     1
300
INVNTOR
300
2012
300
85795PDSP_2012_0F
  0
DICTIONARY
  5
63
102
{ACAD_REACTORS
330
C
102
}
330
C
100
AcDbDictionary
281
     1
  0
DICTIONARY
  5
D
102
{ACAD_REACTORS
330
C
102
}
330
C
100
AcDbDictionary
281
     1
  0
DICTIONARY
  5
62
102
{ACAD_REACTORS
330
C
102
}
330
C
100
AcDbDictionary
281
     1
  3
Layout1
350
6B
  3
Layout2
350
73
  3
Model
350
6F
  0
DICTIONARY
  5
10
102
{ACAD_REACTORS
330
C
102
}
330
C
100
AcDbDictionary
281
     1
  3
ByBlock
350
19
  3
ByLayer
350
11
  3
Global
350
21
  0
DICTIONARY
  5
66
102
{ACAD_REACTORS
330
C
102
}
330
C
100
AcDbDictionary
281
     1
  3
Standard
350
67
  0
DICTIONARY
  5
5F
102
{ACAD_REACTORS
330
C
102
}
330
C
100
AcDbDictionary
281
     1
  3
Standard
350
60
  0
DICTIONARY
  5
61
102
{ACAD_REACTORS
330
C
102
}
330
C
100
AcDbDictionary
281
     1
  0
ACDBDICTIONARYWDFLT
  5
E
102
{ACAD_REACTORS
330
C
102
}
330
C
100
AcDbDictionary
281
     1
  3
Normal
350
F
100
AcDbDictionaryWithDefault
340
F
  0
DICTIONARY
  5
42
102
{ACAD_REACTORS
330
C
102
}
330
C
100
AcDbDictionary
281
     1
  3
A0
350
43
  3
A1
350
44
  3
A2
350
45
  3
A3
350
46
  3
A4
350
47
  3
A5
350
48
  3
A6
350
49
  3
A7
350
4A
  3
A8
350
4B
  3
A9
350
4C
  3
B0
350
4D
  3
B1
350
4E
  3
B2
350
4F
  3
B3
350
50
  3
B4
350
51
  3
B5
350
52
  3
B6
350
53
  0
DICTIONARY
  5
64
102
{ACAD_REACTORS
330
C
102
}
330
C
100
AcDbDictionary
281
     1
  3
Standard
350
65
  0
DICTIONARY
  5
29
102
{ACAD_REACTORS
330
C
102
}
330
C
100
AcDbDictionary
281
     1
  3
2dWireframe
350
2F
  3
Basic
350
2E
  3
Brighten
350
35
  3
ColorChange
350
39
  3
Conceptual
350
32
  3
Dim
350
34
  3
EdgeColorOff
350
41
  3
Facepattern
350
38
  3
Flat
350
2A
  3
FlatWithEdges
350
2B
  3
Gouraud
350
2C
  3
GouraudWithEdges
350
2D
  3
Hidden
350
31
  3
JitterOff
350
3F
  3
Linepattern
350
37
  3
OverhangOff
350
40
  3
Realistic
350
33
  3
Shaded
350
3E
  3
Shaded with edges
350
3D
  3
Shades of Gray
350
3A
  3
Sketchy
350
3B
  3
Thicken
350
36
  3
Wireframe
350
30
  3
X-Ray
350
3C
  0
XRECORD
  5
FBD
102
{ACAD_REACTORS
330
C
102
}
330
C
100
AcDbXrecord
280
     1
 90
        1
330
65
330
CED
  0
DICTIONARY
  5
76
102
{ACAD_REACTORS
330
C
102
}
330
C
100
AcDbDictionary
281
     1
  3
CANNOSCALE
350
79
  3
CMLEADERSTYLE
350
78
  3
CTABLESTYLE
350
77
  3
DIMASSOC
350
FB5
  3
HIDETEXT
350
FB4
  3
INDEXCTL
350
FB3
  3
LAYEREVAL
350
FB0
  3
LAYERNOTIFY
350
FB1
  3
LIGHTINGUNITS
350
FAF
  3
MSLTSCALE
350
FAE
  3
SORTENTS
350
FB2
  3
XCLIPFRAME
350
FB6
  0
XRECORD
  5
FBE
102
{ACAD_REACTORS
330
C
102
}
330
C
100
AcDbXrecord
280
     1
  1
DWGPROPS COOKIE
  2

  3

  4
dnichola
  6

  7

  8

  9
-
300
Manager=
301
Company=
302
Category=
303
Part Number=NP4236SSC-S
304
Description=
305
Project=
306
Designer=dnichola
307
Engineer=
308
Authority=
309
Cost Center=
 40
0.0000387037037037
 41
2455945.36680625
 42
2455945.36680625
  1

 90
       19
300
Vendor=
300
User Status=
300
Design Status=WorkInProgress
300
Checked by=
300
Engr Approved by=
300
Mfg Approved by=
300
DWG. NO=
300
NUMBER OF SHEETS=1
300
DRAWING #=
  0
XRECORD
  5
FFB
102
{ACAD_REACTORS
330
FFA
102
}
330
FFA
100
AcDbXrecord
280
     1
 40
31546.0
  1
\A1;\U+22050.500{\PTYP.(8PL.)}
  0
XRECORD
  5
FFD
102
{ACAD_REACTORS
330
FFC
102
}
330
FFC
100
AcDbXrecord
280
     1
 40
31481.0
  1
\A1;\U+22050.313{\PTYP.(4PL.)}
  0
XRECORD
  5
FBC
102
{ACAD_REACTORS
330
FBB
102
}
330
FBB
100
AcDbXrecord
280
     1
 40
4816487.0
  1
\pxsm0.94;{\fRomanS|b0|i0;\H1.6800;PART#: NP4236SSC\P(DATA SUBJECT TO CHANGE WITHOUT NOTICE) \P\fRomanS|b0|i0;\H1.0080;THIS DRAWING IS PROPERTY OF HUBBELL INC. WIEGMANN\PALL INFORMATION IS PROPRIETARY AND NOT TO BE DUPLICATED\P\fRomanS|b0|i0;\H0.8400
  1
; \P}
  0
LAYOUT
  5
6B
102
{ACAD_XDICTIONARY
360
FF4
102
}
102
{ACAD_REACTORS
330
62
102
}
330
62
100
AcDbPlotSettings
  1

  2

  4

  6

 40
0.0
 41
0.0
 42
0.0
 43
0.0
 44
0.0
 45
0.0
 46
0.0
 47
0.0
 48
0.0
 49
0.0
140
0.0
141
0.0
142
1.0
143
1.0
 70
   688
 72
     0
 73
     0
 74
     5
  7

 75
    16
147
1.0
148
0.0
149
0.0
100
AcDbLayout
  1
Layout1
 70
     1
 71
     1
 10
0.0
 20
0.0
 11
12.0
 21
9.0
 12
0.0
 22
0.0
 32
0.0
 14
0.0
 24
0.0
 34
0.0
 15
0.0
 25
0.0
 35
0.0
146
0.0
 13
0.0
 23
0.0
 33
0.0
 16
1.0
 26
0.0
 36
0.0
 17
0.0
 27
1.0
 37
0.0
 76
     0
330
68
  0
LAYOUT
  5
73
102
{ACAD_XDICTIONARY
360
FF8
102
}
102
{ACAD_REACTORS
330
62
102
}
330
62
100
AcDbPlotSettings
  1

  2

  4

  6

 40
0.0
 41
0.0
 42
0.0
 43
0.0
 44
0.0
 45
0.0
 46
0.0
 47
0.0
 48
0.0
 49
0.0
140
0.0
141
0.0
142
1.0
143
1.0
 70
   688
 72
     0
 73
     0
 74
     5
  7

 75
    16
147
1.0
148
0.0
149
0.0
100
AcDbLayout
  1
Layout2
 70
     1
 71
     2
 10
0.0
 20
0.0
 11
12.0
 21
9.0
 12
0.0
 22
0.0
 32
0.0
 14
0.0
 24
0.0
 34
0.0
 15
0.0
 25
0.0
 35
0.0
146
0.0
 13
0.0
 23
0.0
 33
0.0
 16
1.0
 26
0.0
 36
0.0
 17
0.0
 27
1.0
 37
0.0
 76
     0
330
70
  0
LAYOUT
  5
6F
102
{ACAD_XDICTIONARY
360
FF6
102
}
102
{ACAD_REACTORS
330
62
102
}
330
62
100
AcDbPlotSettings
  1

  2

  4

  6

 40
0.0
 41
0.0
 42
0.0
 43
0.0
 44
0.0
 45
0.0
 46
0.0
 47
0.0
 48
0.0
 49
0.0
140
0.0
141
0.0
142
1.0
143
1.0
 70
  1712
 72
     0
 73
     0
 74
     0
  7

 75
     0
147
1.0
148
0.0
149
0.0
100
AcDbLayout
  1
Model
 70
     1
 71
     0
 10
0.0
 20
0.0
 11
12.0
 21
9.0
 12
0.0
 22
0.0
 32
0.0
 14
0.0
 24
0.0
 34
0.0
 15
0.0
 25
0.0
 35
0.0
146
0.0
 13
0.0
 23
0.0
 33
0.0
 16
1.0
 26
0.0
 36
0.0
 17
0.0
 27
1.0
 37
0.0
 76
     0
330
6C
  0
MATERIAL
  5
19
102
{ACAD_XDICTIONARY
360
1A
102
}
102
{ACAD_REACTORS
330
10
102
}
330
10
100
AcDbMaterial
  1
ByBlock
 72
     0
 43
0.0208333333333333
 43
0.0
 43
0.0
 43
0.0
 43
0.0
 43
0.0208333333333333
 43
0.0
 43
0.0
 43
0.0
 43
0.0
 43
1.0
 43
0.0
 43
0.0
 43
0.0
 43
0.0
 43
1.0
 77
     0
 47
0.0208333333333333
 47
0.0
 47
0.0
 47
0.0
 47
0.0
 47
0.0208333333333333
 47
0.0
 47
0.0
 47
0.0
 47
0.0
 47
1.0
 47
0.0
 47
0.0
 47
0.0
 47
0.0
 47
1.0
171
     0
 49
0.0208333333333333
 49
0.0
 49
0.0
 49
0.0
 49
0.0
 49
0.0208333333333333
 49
0.0
 49
0.0
 49
0.0
 49
0.0
 49
1.0
 49
0.0
 49
0.0
 49
0.0
 49
0.0
 49
1.0
175
     0
142
0.0208333333333333
142
0.0
142
0.0
142
0.0
142
0.0
142
0.0208333333333333
142
0.0
142
0.0
142
0.0
142
0.0
142
1.0
142
0.0
142
0.0
142
0.0
142
0.0
142
1.0
179
     0
144
0.0208333333333333
144
0.0
144
0.0
144
0.0
144
0.0
144
0.0208333333333333
144
0.0
144
0.0
144
0.0
144
0.0
144
1.0
144
0.0
144
0.0
144
0.0
144
0.0
144
1.0
147
0.0208333333333333
147
0.0
147
0.0
147
0.0
147
0.0
147
0.0208333333333333
147
0.0
147
0.0
147
0.0
147
0.0
147
1.0
147
0.0
147
0.0
147
0.0
147
0.0
147
1.0
  0
MATERIAL
  5
11
102
{ACAD_XDICTIONARY
360
12
102
}
102
{ACAD_REACTORS
330
10
102
}
330
10
100
AcDbMaterial
  1
ByLayer
 72
     0
 43
0.0208333333333333
 43
0.0
 43
0.0
 43
0.0
 43
0.0
 43
0.0208333333333333
 43
0.0
 43
0.0
 43
0.0
 43
0.0
 43
1.0
 43
0.0
 43
0.0
 43
0.0
 43
0.0
 43
1.0
 77
     0
 47
0.0208333333333333
 47
0.0
 47
0.0
 47
0.0
 47
0.0
 47
0.0208333333333333
 47
0.0
 47
0.0
 47
0.0
 47
0.0
 47
1.0
 47
0.0
 47
0.0
 47
0.0
 47
0.0
 47
1.0
171
     0
 49
0.0208333333333333
 49
0.0
 49
0.0
 49
0.0
 49
0.0
 49
0.0208333333333333
 49
0.0
 49
0.0
 49
0.0
 49
0.0
 49
1.0
 49
0.0
 49
0.0
 49
0.0
 49
0.0
 49
1.0
175
     0
142
0.0208333333333333
142
0.0
142
0.0
142
0.0
142
0.0
142
0.0208333333333333
142
0.0
142
0.0
142
0.0
142
0.0
142
1.0
142
0.0
142
0.0
142
0.0
142
0.0
142
1.0
179
     0
144
0.0208333333333333
144
0.0
144
0.0
144
0.0
144
0.0
144
0.0208333333333333
144
0.0
144
0.0
144
0.0
144
0.0
144
1.0
144
0.0
144
0.0
144
0.0
144
0.0
144
1.0
147
0.0208333333333333
147
0.0
147
0.0
147
0.0
147
0.0
147
0.0208333333333333
147
0.0
147
0.0
147
0.0
147
0.0
147
1.0
147
0.0
147
0.0
147
0.0
147
0.0
147
1.0
  0
MATERIAL
  5
21
102
{ACAD_XDICTIONARY
360
22
102
}
102
{ACAD_REACTORS
330
10
102
}
330
10
100
AcDbMaterial
  1
Global
 72
     0
 43
0.0208333333333333
 43
0.0
 43
0.0
 43
0.0
 43
0.0
 43
0.0208333333333333
 43
0.0
 43
0.0
 43
0.0
 43
0.0
 43
1.0
 43
0.0
 43
0.0
 43
0.0
 43
0.0
 43
1.0
 77
     0
 47
0.0208333333333333
 47
0.0
 47
0.0
 47
0.0
 47
0.0
 47
0.0208333333333333
 47
0.0
 47
0.0
 47
0.0
 47
0.0
 47
1.0
 47
0.0
 47
0.0
 47
0.0
 47
0.0
 47
1.0
171
     0
 49
0.0208333333333333
 49
0.0
 49
0.0
 49
0.0
 49
0.0
 49
0.0208333333333333
 49
0.0
 49
0.0
 49
0.0
 49
0.0
 49
1.0
 49
0.0
 49
0.0
 49
0.0
 49
0.0
 49
1.0
175
     0
142
0.0208333333333333
142
0.0
142
0.0
142
0.0
142
0.0
142
0.0208333333333333
142
0.0
142
0.0
142
0.0
142
0.0
142
1.0
142
0.0
142
0.0
142
0.0
142
0.0
142
1.0
179
     0
144
0.0208333333333333
144
0.0
144
0.0
144
0.0
144
0.0
144
0.0208333333333333
144
0.0
144
0.0
144
0.0
144
0.0
144
1.0
144
0.0
144
0.0
144
0.0
144
0.0
144
1.0
147
0.0208333333333333
147
0.0
147
0.0
147
0.0
147
0.0
147
0.0208333333333333
147
0.0
147
0.0
147
0.0
147
0.0
147
1.0
147
0.0
147
0.0
147
0.0
147
0.0
147
1.0
  0
MLEADERSTYLE
  5
67
102
{ACAD_XDICTIONARY
360
FB9
102
}
102
{ACAD_REACTORS
330
66
102
}
330
66
100
AcDbMLeaderStyle
170
     2
171
     1
172
     0
 90
        2
 40
0.0
 41
0.0
173
     1
 91
-1056964608
340
5B
 92
       -2
290
     1
 42
0.09
291
     1
 43
0.36
  3
Standard
 44
0.18
300

342
55
174
     1
178
     6
175
     1
176
     0
 93
-1056964608
 45
0.18
292
     0
297
     0
 46
0.18
 94
-1056964608
 47
1.0
 49
1.0
140
1.0
293
     1
141
0.0
294
     1
177
     0
142
1.0
295
     0
296
     0
143
0.125
1001
ACAD_MLEADERVER
1070
     2
  0
MLINESTYLE
  5
60
102
{ACAD_REACTORS
330
5F
102
}
330
5F
100
AcDbMlineStyle
  2
STANDARD
 70
     0
  3

 62
   256
 51
90.0
 52
90.0
 71
     2
 49
0.5
 62
   256
  6
BYLAYER
 49
-0.5
 62
   256
  6
BYLAYER
  0
ACDBPLACEHOLDER
  5
F
102
{ACAD_REACTORS
330
E
102
}
330
E
  0
SCALE
  5
43
102
{ACAD_REACTORS
330
42
102
}
330
42
100
AcDbScale
 70
     0
300
1:1
140
1.0
141
1.0
290
     1
  0
SCALE
  5
44
102
{ACAD_REACTORS
330
42
102
}
330
42
100
AcDbScale
 70
     0
300
1/128" = 1'-0"
140
0.0078125
141
12.0
290
     0
  0
SCALE
  5
45
102
{ACAD_REACTORS
330
42
102
}
330
42
100
AcDbScale
 70
     0
300
1/64" = 1'-0"
140
0.015625
141
12.0
290
     0
  0
SCALE
  5
46
102
{ACAD_REACTORS
330
42
102
}
330
42
100
AcDbScale
 70
     0
300
1/32" = 1'-0"
140
0.03125
141
12.0
290
     0
  0
SCALE
  5
47
102
{ACAD_REACTORS
330
42
102
}
330
42
100
AcDbScale
 70
     0
300
1/16" = 1'-0"
140
0.0625
141
12.0
290
     0
  0
SCALE
  5
48
102
{ACAD_REACTORS
330
42
102
}
330
42
100
AcDbScale
 70
     0
300
3/32" = 1'-0"
140
0.09375
141
12.0
290
     0
  0
SCALE
  5
49
102
{ACAD_REACTORS
330
42
102
}
330
42
100
AcDbScale
 70
     0
300
1/8" = 1'-0"
140
0.125
141
12.0
290
     0
  0
SCALE
  5
4A
102
{ACAD_REACTORS
330
42
102
}
330
42
100
AcDbScale
 70
     0
300
3/16" = 1'-0"
140
0.1875
141
12.0
290
     0
  0
SCALE
  5
4B
102
{ACAD_REACTORS
330
42
102
}
330
42
100
AcDbScale
 70
     0
300
1/4" = 1'-0"
140
0.25
141
12.0
290
     0
  0
SCALE
  5
4C
102
{ACAD_REACTORS
330
42
102
}
330
42
100
AcDbScale
 70
     0
300
3/8" = 1'-0"
140
0.375
141
12.0
290
     0
  0
SCALE
  5
4D
102
{ACAD_REACTORS
330
42
102
}
330
42
100
AcDbScale
 70
     0
300
1/2" = 1'-0"
140
0.5
141
12.0
290
     0
  0
SCALE
  5
4E
102
{ACAD_REACTORS
330
42
102
}
330
42
100
AcDbScale
 70
     0
300
3/4" = 1'-0"
140
0.75
141
12.0
290
     0
  0
SCALE
  5
4F
102
{ACAD_REACTORS
330
42
102
}
330
42
100
AcDbScale
 70
     0
300
1" = 1'-0"
140
1.0
141
12.0
290
     0
  0
SCALE
  5
50
102
{ACAD_REACTORS
330
42
102
}
330
42
100
AcDbScale
 70
     0
300
1-1/2" = 1'-0"
140
1.5
141
12.0
290
     0
  0
SCALE
  5
51
102
{ACAD_REACTORS
330
42
102
}
330
42
100
AcDbScale
 70
     0
300
3" = 1'-0"
140
3.0
141
12.0
290
     0
  0
SCALE
  5
52
102
{ACAD_REACTORS
330
42
102
}
330
42
100
AcDbScale
 70
     0
300
6" = 1'-0"
140
6.0
141
12.0
290
     0
  0
SCALE
  5
53
102
{ACAD_REACTORS
330
42
102
}
330
42
100
AcDbScale
 70
     0
300
1'-0" = 1'-0"
140
12.0
141
12.0
290
     0
  0
TABLESTYLE
  5
65
102
{ACAD_XDICTIONARY
360
FB7
102
}
102
{ACAD_REACTORS
330
64
102
}
330
64
100
AcDbTableStyle
  3
Standard
 70
     0
 71
     0
 40
0.06
 41
0.06
280
     0
281
     0
  7
Standard
140
0.18
170
     2
 62
     0
 63
     7
283
     0
274
    -2
284
     1
 64
     0
275
    -2
285
     1
 65
     0
276
    -2
286
     1
 66
     0
277
    -2
287
     1
 67
     0
278
    -2
288
     1
 68
     0
279
    -2
289
     1
 69
     0
  7
Standard
140
0.25
170
     5
 62
     0
 63
     7
283
     0
274
    -2
284
     1
 64
     0
275
    -2
285
     1
 65
     0
276
    -2
286
     1
 66
     0
277
    -2
287
     1
 67
     0
278
    -2
288
     1
 68
     0
279
    -2
289
     1
 69
     0
  7
Standard
140
0.18
170
     5
 62
     0
 63
     7
283
     0
274
    -2
284
     1
 64
     0
275
    -2
285
     1
 65
     0
276
    -2
286
     1
 66
     0
277
    -2
287
     1
 67
     0
278
    -2
288
     1
 68
     0
279
    -2
289
     1
 69
     0
  0
VISUALSTYLE
  5
2F
102
{ACAD_XDICTIONARY
360
FCC
102
}
102
{ACAD_REACTORS
330
29
102
}
330
29
100
AcDbVisualStyle
  2
2dWireframe
 70
     4
 71
     0
 72
     2
 73
     0
 90
        0
 40
-0.6
 41
-30.0
 62
     5
 63
     7
 74
     1
 91
        4
 64
     7
 65
   257
 75
     1
175
     1
 42
1.0
 92
        0
 66
   257
 43
1.0
 76
     1
 77
     6
 78
     2
 67
     7
 79
     5
170
     0
171
     0
290
     0
174
     0
 93
        1
 44
0.0
173
     0
291
     0
 45
0.0
1001
ACAD
1000
AcDbSavedByObjectVersion
1070
     0
  0
VISUALSTYLE
  5
2E
102
{ACAD_XDICTIONARY
360
FCA
102
}
102
{ACAD_REACTORS
330
29
102
}
330
29
100
AcDbVisualStyle
  2
Basic
 70
     7
 71
     1
 72
     0
 73
     1
 90
        0
 40
-0.6
 41
-30.0
 62
     5
 63
     7
 74
     0
 91
        4
 64
     7
 65
   257
 75
     1
175
     1
 42
1.0
 92
        8
 66
     7
 43
1.0
 76
     1
 77
     6
 78
     2
 67
     7
 79
     5
170
     0
171
     0
290
     0
174
     0
 93
        1
 44
0.0
173
     0
291
     1
 45
0.0
1001
ACAD
1000
AcDbSavedByObjectVersion
1070
     0
  0
VISUALSTYLE
  5
35
102
{ACAD_XDICTIONARY
360
FD8
102
}
102
{ACAD_REACTORS
330
29
102
}
330
29
100
AcDbVisualStyle
  2
Brighten
 70
    12
 71
     2
 72
     2
 73
     0
 90
        0
 40
-0.6
 41
-30.0
 62
     5
 63
     7
 74
     1
 91
        4
 64
     7
 65
   257
 75
     1
175
     1
 42
1.0
 92
        8
 66
     7
 43
1.0
 76
     1
 77
     6
 78
     2
 67
     7
 79
     5
170
     0
171
     0
290
     0
174
     0
 93
        1
 44
50.0
173
     0
291
     1
 45
0.0
1001
ACAD
1000
AcDbSavedByObjectVersion
1070
     0
  0
VISUALSTYLE
  5
39
102
{ACAD_XDICTIONARY
360
FE0
102
}
102
{ACAD_REACTORS
330
29
102
}
330
29
100
AcDbVisualStyle
  2
ColorChange
 70
    16
 71
     2
 72
     2
 73
     3
 90
        0
 40
-0.6
 41
-30.0
 62
     5
 63
     8
 74
     1
 91
        4
 64
     7
 65
   257
 75
     1
175
     1
 42
1.0
 92
        8
 66
     8
 43
1.0
 76
     1
 77
     6
 78
     2
 67
     7
 79
     5
170
     0
171
     0
290
     0
174
     0
 93
        1
 44
0.0
173
     0
291
     1
 45
0.0
1001
ACAD
1000
AcDbSavedByObjectVersion
1070
     0
  0
VISUALSTYLE
  5
32
102
{ACAD_XDICTIONARY
360
FD2
102
}
102
{ACAD_REACTORS
330
29
102
}
330
29
100
AcDbVisualStyle
  2
Conceptual
 70
     9
 71
     3
 72
     2
 73
     0
 90
        0
 40
-0.6
 41
-30.0
 62
     5
 63
     7
 74
     2
 91
        2
 64
     7
 65
   257
 75
     1
175
     1
 42
179.0
 92
        8
 66
     7
 43
1.0
 76
     1
 77
     6
 78
     2
 67
     7
 79
     3
170
     0
171
     0
290
     0
174
     0
 93
        1
 44
0.0
173
     0
291
     0
 45
0.0
1001
ACAD
1000
AcDbSavedByObjectVersion
1070
     0
  0
VISUALSTYLE
  5
34
102
{ACAD_XDICTIONARY
360
FD6
102
}
102
{ACAD_REACTORS
330
29
102
}
330
29
100
AcDbVisualStyle
  2
Dim
 70
    11
 71
     2
 72
     2
 73
     0
 90
        0
 40
-0.6
 41
-30.0
 62
     5
 63
     7
 74
     1
 91
        4
 64
     7
 65
   257
 75
     1
175
     1
 42
1.0
 92
        8
 66
     7
 43
1.0
 76
     1
 77
     6
 78
     2
 67
     7
 79
     5
170
     0
171
     0
290
     0
174
     0
 93
        1
 44
-50.0
173
     0
291
     1
 45
0.0
1001
ACAD
1000
AcDbSavedByObjectVersion
1070
     0
  0
VISUALSTYLE
  5
41
102
{ACAD_XDICTIONARY
360
FF0
102
}
102
{ACAD_REACTORS
330
29
102
}
330
29
100
AcDbVisualStyle
  2
EdgeColorOff
 70
    22
 71
     2
 72
     2
 73
     0
 90
        0
 40
-0.6
 41
-30.0
 62
     5
 63
     7
 74
     1
 91
        4
 64
     7
 65
   257
 75
     1
175
     1
 42
1.0
 92
        8
 66
     7
 43
1.0
 76
     1
 77
     6
 78
     2
 67
     7
 79
     5
170
     0
171
     0
290
     0
174
     0
 93
        1
 44
0.0
173
     0
291
     1
 45
0.0
1001
ACAD
1000
AcDbSavedByObjectVersion
1070
     0
  0
VISUALSTYLE
  5
38
102
{ACAD_XDICTIONARY
360
FDE
102
}
102
{ACAD_REACTORS
330
29
102
}
330
29
100
AcDbVisualStyle
  2
Facepattern
 70
    15
 71
     2
 72
     2
 73
     0
 90
        0
 40
-0.6
 41
-30.0
 62
     5
 63
     7
 74
     1
 91
        4
 64
     7
 65
   257
 75
     1
175
     1
 42
1.0
 92
        8
 66
     7
 43
1.0
 76
     1
 77
     6
 78
     2
 67
     7
 79
     5
170
     0
171
     0
290
     0
174
     0
 93
        1
 44
0.0
173
     0
291
     1
 45
0.0
1001
ACAD
1000
AcDbSavedByObjectVersion
1070
     0
  0
VISUALSTYLE
  5
2A
102
{ACAD_XDICTIONARY
360
FC2
102
}
102
{ACAD_REACTORS
330
29
102
}
330
29
100
AcDbVisualStyle
  2
Flat
 70
     0
 71
     2
 72
     1
 73
     1
 90
        2
 40
-0.6
 41
30.0
 62
     5
 63
     7
 74
     0
 91
        0
 64
     7
 65
   257
 75
     1
175
     1
 42
1.0
 92
        8
 66
     7
 43
1.0
 76
     1
 77
     6
 78
     2
 67
     7
 79
     5
170
     0
171
     0
290
     0
174
     0
 93
       13
 44
0.0
173
     0
291
     1
 45
0.0
1001
ACAD
1000
AcDbSavedByObjectVersion
1070
     0
  0
VISUALSTYLE
  5
2B
102
{ACAD_XDICTIONARY
360
FC4
102
}
102
{ACAD_REACTORS
330
29
102
}
330
29
100
AcDbVisualStyle
  2
FlatWithEdges
 70
     1
 71
     2
 72
     1
 73
     1
 90
        2
 40
-0.6
 41
30.0
 62
     5
 63
     7
 74
     1
 91
        0
 64
     7
 65
   257
 75
     1
175
     1
 42
1.0
 92
        0
 66
   257
 43
1.0
 76
     1
 77
     6
 78
     2
 67
     7
 79
     5
170
     0
171
     0
290
     0
174
     0
 93
       13
 44
0.0
173
     0
291
     1
 45
0.0
1001
ACAD
1000
AcDbSavedByObjectVersion
1070
     0
  0
VISUALSTYLE
  5
2C
102
{ACAD_XDICTIONARY
360
FC6
102
}
102
{ACAD_REACTORS
330
29
102
}
330
29
100
AcDbVisualStyle
  2
Gouraud
 70
     2
 71
     2
 72
     2
 73
     1
 90
        2
 40
-0.6
 41
30.0
 62
     5
 63
     7
 74
     0
 91
        0
 64
     7
 65
   257
 75
     1
175
     1
 42
1.0
 92
        0
 66
     7
 43
1.0
 76
     1
 77
     6
 78
     2
 67
     7
 79
     5
170
     0
171
     0
290
     0
174
     0
 93
       13
 44
0.0
173
     0
291
     1
 45
0.0
1001
ACAD
1000
AcDbSavedByObjectVersion
1070
     0
  0
VISUALSTYLE
  5
2D
102
{ACAD_XDICTIONARY
360
FC8
102
}
102
{ACAD_REACTORS
330
29
102
}
330
29
100
AcDbVisualStyle
  2
GouraudWithEdges
 70
     3
 71
     2
 72
     2
 73
     1
 90
        2
 40
-0.6
 41
30.0
 62
     5
 63
     7
 74
     1
 91
        0
 64
     7
 65
   257
 75
     1
175
     1
 42
1.0
 92
        0
 66
   257
 43
1.0
 76
     1
 77
     6
 78
     2
 67
     7
 79
     5
170
     0
171
     0
290
     0
174
     0
 93
       13
 44
0.0
173
     0
291
     1
 45
0.0
1001
ACAD
1000
AcDbSavedByObjectVersion
1070
     0
  0
VISUALSTYLE
  5
31
102
{ACAD_XDICTIONARY
360
FD0
102
}
102
{ACAD_REACTORS
330
29
102
}
330
29
100
AcDbVisualStyle
  2
Hidden
 70
     6
 71
     1
 72
     2
 73
     2
 90
        0
 40
-0.6
 41
-30.0
 62
     5
 63
     7
 74
     2
 91
        2
 64
     7
 65
   257
 75
     2
175
     1
 42
40.0
 92
        0
 66
   257
 43
1.0
 76
     1
 77
     6
 78
     2
 67
     7
 79
     3
170
     0
171
     0
290
     0
174
     0
 93
        1
 44
0.0
173
     0
291
     0
 45
0.0
1001
ACAD
1000
AcDbSavedByObjectVersion
1070
     0
  0
VISUALSTYLE
  5
3F
102
{ACAD_XDICTIONARY
360
FEC
102
}
102
{ACAD_REACTORS
330
29
102
}
330
29
100
AcDbVisualStyle
  2
JitterOff
 70
    20
 71
     2
 72
     2
 73
     0
 90
        0
 40
-0.6
 41
-30.0
 62
     5
 63
     7
 74
     1
 91
        4
 64
     7
 65
   257
 75
     1
175
     1
 42
1.0
 92
       10
 66
     7
 43
1.0
 76
     1
 77
     6
 78
     2
 67
     7
 79
     5
170
     0
171
     0
290
     0
174
     0
 93
        1
 44
0.0
173
     0
291
     1
 45
0.0
1001
ACAD
1000
AcDbSavedByObjectVersion
1070
     0
  0
VISUALSTYLE
  5
37
102
{ACAD_XDICTIONARY
360
FDC
102
}
102
{ACAD_REACTORS
330
29
102
}
330
29
100
AcDbVisualStyle
  2
Linepattern
 70
    14
 71
     2
 72
     2
 73
     0
 90
        0
 40
-0.6
 41
-30.0
 62
     5
 63
     7
 74
     1
 91
        4
 64
     7
 65
   257
 75
     7
175
     7
 42
1.0
 92
        8
 66
     7
 43
1.0
 76
     1
 77
     6
 78
     2
 67
     7
 79
     5
170
     0
171
     0
290
     0
174
     0
 93
        1
 44
0.0
173
     0
291
     1
 45
0.0
1001
ACAD
1000
AcDbSavedByObjectVersion
1070
     0
  0
VISUALSTYLE
  5
40
102
{ACAD_XDICTIONARY
360
FEE
102
}
102
{ACAD_REACTORS
330
29
102
}
330
29
100
AcDbVisualStyle
  2
OverhangOff
 70
    21
 71
     2
 72
     2
 73
     0
 90
        0
 40
-0.6
 41
-30.0
 62
     5
 63
     7
 74
     1
 91
        4
 64
     7
 65
   257
 75
     1
175
     1
 42
1.0
 92
        9
 66
     7
 43
1.0
 76
     1
 77
     6
 78
     2
 67
     7
 79
     5
170
     0
171
     0
290
     0
174
     0
 93
        1
 44
0.0
173
     0
291
     1
 45
0.0
1001
ACAD
1000
AcDbSavedByObjectVersion
1070
     0
  0
VISUALSTYLE
  5
33
102
{ACAD_XDICTIONARY
360
FD4
102
}
102
{ACAD_REACTORS
330
29
102
}
330
29
100
AcDbVisualStyle
  2
Realistic
 70
     8
 71
     2
 72
     3
 73
     0
 90
        2
 40
-0.6
 41
30.0
 62
     5
 63
     7
 74
     0
 91
        0
 64
     7
 65
   257
 75
     1
175
     1
 42
1.0
 92
        8
 66
   257
 43
1.0
 76
     1
 77
     6
 78
     2
 67
     7
 79
     3
170
     0
171
     0
290
     0
174
     0
 93
       13
 44
0.0
173
     0
291
     0
 45
0.0
1001
ACAD
1000
AcDbSavedByObjectVersion
1070
     0
  0
VISUALSTYLE
  5
3E
102
{ACAD_XDICTIONARY
360
FEA
102
}
102
{ACAD_REACTORS
330
29
102
}
330
29
100
AcDbVisualStyle
  2
Shaded
 70
    27
 71
     2
 72
     2
 73
     1
 90
        2
 40
-0.6
 41
30.0
 62
     5
 63
     7
 74
     0
 91
        4
 64
     7
 65
   257
 75
     1
175
     1
 42
1.0
 92
        8
 66
   257
 43
1.0
 76
     1
 77
     6
 78
     2
 67
     8
 79
     3
170
     0
171
     0
290
     0
174
     0
 93
        5
 44
0.0
173
     0
291
     0
 45
0.0
1001
ACAD
1000
AcDbSavedByObjectVersion
1070
     0
  0
VISUALSTYLE
  5
3D
102
{ACAD_XDICTIONARY
360
FE8
102
}
102
{ACAD_REACTORS
330
29
102
}
330
29
100
AcDbVisualStyle
  2
Shaded with edges
 70
    26
 71
     2
 72
     2
 73
     1
 90
        2
 40
-0.6
 41
30.0
 62
     5
 63
     7
 74
     1
 91
       10
 64
     7
 65
   257
 75
     2
175
     1
 42
1.0
 92
        8
 66
   257
 43
1.0
 76
     1
 77
     6
 78
     2
 67
     7
 79
     3
170
     0
171
     0
290
     0
174
     0
 93
        5
 44
0.0
173
     0
291
     0
 45
0.0
1001
ACAD
1000
AcDbSavedByObjectVersion
1070
     0
  0
VISUALSTYLE
  5
3A
102
{ACAD_XDICTIONARY
360
FE2
102
}
102
{ACAD_REACTORS
330
29
102
}
330
29
100
AcDbVisualStyle
  2
Shades of Gray
 70
    23
 71
     2
 72
     2
 73
     3
 90
        0
 40
-0.6
 41
-30.0
 62
     5
 63
     7
 74
     2
 91
        2
 64
     7
 65
     7
 75
     1
175
     1
 42
40.0
 92
        8
 66
     7
 43
1.0
 76
     1
 77
     6
 78
     2
 67
     7
 79
     3
170
     0
171
     0
290
     0
174
     0
 93
        1
 44
0.0
173
     0
291
     0
 45
0.0
1001
ACAD
1000
AcDbSavedByObjectVersion
1070
     0
  0
VISUALSTYLE
  5
3B
102
{ACAD_XDICTIONARY
360
FE4
102
}
102
{ACAD_REACTORS
330
29
102
}
330
29
100
AcDbVisualStyle
  2
Sketchy
 70
    24
 71
     1
 72
     2
 73
     2
 90
        0
 40
-0.6
 41
-30.0
 62
     5
 63
     7
 74
     2
 91
        2
 64
     7
 65
     7
 75
     1
175
     1
 42
40.0
 92
       11
 66
     7
 43
1.0
 76
     1
 77
     6
 78
     2
 67
     7
 79
     6
170
     0
171
     0
290
     0
174
     0
 93
        1
 44
0.0
173
     0
291
     0
 45
0.0
1001
ACAD
1000
AcDbSavedByObjectVersion
1070
     0
  0
VISUALSTYLE
  5
36
102
{ACAD_XDICTIONARY
360
FDA
102
}
102
{ACAD_REACTORS
330
29
102
}
330
29
100
AcDbVisualStyle
  2
Thicken
 70
    13
 71
     2
 72
     2
 73
     0
 90
        0
 40
-0.6
 41
-30.0
 62
     5
 63
     7
 74
     1
 91
        4
 64
     7
 65
   257
 75
     1
175
     1
 42
1.0
 92
       12
 66
     7
 43
1.0
 76
     1
 77
     6
 78
     2
 67
     7
 79
     5
170
     0
171
     0
290
     0
174
     0
 93
        1
 44
0.0
173
     0
291
     1
 45
0.0
1001
ACAD
1000
AcDbSavedByObjectVersion
1070
     0
  0
VISUALSTYLE
  5
30
102
{ACAD_XDICTIONARY
360
FCE
102
}
102
{ACAD_REACTORS
330
29
102
}
330
29
100
AcDbVisualStyle
  2
Wireframe
 70
     5
 71
     0
 72
     2
 73
     0
 90
        0
 40
-0.6
 41
-30.0
 62
     5
 63
     7
 74
     1
 91
        4
 64
     7
 65
   257
 75
     1
175
     1
 42
1.0
 92
        0
 66
   257
 43
1.0
 76
     1
 77
     6
 78
     2
 67
     7
 79
     3
170
     0
171
     0
290
     0
174
     0
 93
        1
 44
0.0
173
     0
291
     0
 45
0.0
1001
ACAD
1000
AcDbSavedByObjectVersion
1070
     0
  0
VISUALSTYLE
  5
3C
102
{ACAD_XDICTIONARY
360
FE6
102
}
102
{ACAD_REACTORS
330
29
102
}
330
29
100
AcDbVisualStyle
  2
X-Ray
 70
    25
 71
     2
 72
     2
 73
     1
 90
        1
 40
0.5
 41
-30.0
 62
     5
 63
     7
 74
     1
 91
        0
 64
     7
 65
   257
 75
     1
175
     1
 42
1.0
 92
        8
 66
     7
 43
1.0
 76
     1
 77
     6
 78
     2
 67
     7
 79
     3
170
     0
171
     0
290
     0
174
     0
 93
       13
 44
0.0
173
     0
291
     0
 45
0.0
1001
ACAD
1000
AcDbSavedByObjectVersion
1070
     0
  0
DICTIONARYVAR
  5
79
102
{ACAD_REACTORS
330
76
102
}
330
76
100
DictionaryVariables
280
     0
  1
1:1
  0
DICTIONARYVAR
  5
78
102
{ACAD_REACTORS
330
76
102
}
330
76
100
DictionaryVariables
280
     0
  1
STANDARD
  0
DICTIONARYVAR
  5
77
102
{ACAD_REACTORS
330
76
102
}
330
76
100
DictionaryVariables
280
     0
  1
STANDARD
  0
DICTIONARYVAR
  5
FB5
102
{ACAD_REACTORS
330
76
102
}
330
76
100
DictionaryVariables
280
     0
  1
1
  0
DICTIONARYVAR
  5
FB4
102
{ACAD_REACTORS
330
76
102
}
330
76
100
DictionaryVariables
280
     0
  1
1
  0
DICTIONARYVAR
  5
FB3
102
{ACAD_REACTORS
330
76
102
}
330
76
100
DictionaryVariables
280
     0
  1
0
  0
DICTIONARYVAR
  5
FB0
102
{ACAD_REACTORS
330
76
102
}
330
76
100
DictionaryVariables
280
     0
  1
0
  0
DICTIONARYVAR
  5
FB1
102
{ACAD_REACTORS
330
76
102
}
330
76
100
DictionaryVariables
280
     0
  1
0
  0
DICTIONARYVAR
  5
FAF
102
{ACAD_REACTORS
330
76
102
}
330
76
100
DictionaryVariables
280
     0
  1
2
  0
DICTIONARYVAR
  5
FAE
102
{ACAD_REACTORS
330
76
102
}
330
76
100
DictionaryVariables
280
     0
  1
1
  0
DICTIONARYVAR
  5
FB2
102
{ACAD_REACTORS
330
76
102
}
330
76
100
DictionaryVariables
280
     0
  1
127
  0
DICTIONARYVAR
  5
FB6
102
{ACAD_REACTORS
330
76
102
}
330
76
100
DictionaryVariables
280
     0
  1
2
  0
DICTIONARY
  5
FF4
330
6B
100
AcDbDictionary
280
     1
281
     1
  3
ACAD_XREC_ROUNDTRIP
360
FF5
  0
DICTIONARY
  5
FF8
330
73
100
AcDbDictionary
280
     1
281
     1
  3
ACAD_XREC_ROUNDTRIP
360
FF9
  0
DICTIONARY
  5
FF6
330
6F
100
AcDbDictionary
280
     1
281
     1
  3
ACAD_XREC_ROUNDTRIP
360
FF7
  0
DICTIONARY
  5
1A
330
19
100
AcDbDictionary
280
     1
281
     1
  3
ACAD_XREC_ROUNDTRIP
360
FC0
  3
BUMPTILE
360
1C
  3
DIFFUSETILE
360
1B
  3
OPACITYTILE
360
1F
  3
REFLECTIONTILE
360
1E
  3
REFRACTIONTILE
360
20
  3
SPECULARTILE
360
1D
  0
DICTIONARY
  5
12
330
11
100
AcDbDictionary
280
     1
281
     1
  3
ACAD_XREC_ROUNDTRIP
360
FBF
  3
BUMPTILE
360
14
  3
DIFFUSETILE
360
13
  3
FBXASSET
360
109
  3
OPACITYTILE
360
17
  3
REFLECTIONTILE
360
16
  3
REFRACTIONTILE
360
18
  3
SPECULARTILE
360
15
  0
DICTIONARY
  5
22
330
21
100
AcDbDictionary
280
     1
281
     1
  3
ACAD_XREC_ROUNDTRIP
360
FC1
  3
BUMPTILE
360
24
  3
DIFFUSETILE
360
23
  3
FBXASSET
360
BA
  3
OPACITYTILE
360
27
  3
REFLECTIONTILE
360
26
  3
REFRACTIONTILE
360
28
  3
SPECULARTILE
360
25
  0
DICTIONARY
  5
FB9
330
67
100
AcDbDictionary
280
     1
281
     1
  3
ACAD_XREC_ROUNDTRIP
360
FBA
  0
DICTIONARY
  5
FB7
330
65
100
AcDbDictionary
280
     1
281
     1
  3
ACAD_ROUNDTRIP_2008_TABLESTYLE_CELLSTYLEMAP
360
FB8
  3
ACAD_XREC_ROUNDTRIP
360
FF2
  0
DICTIONARY
  5
FCC
330
2F
100
AcDbDictionary
280
     1
281
     1
  3
ACAD_XREC_ROUNDTRIP
360
FCD
  0
DICTIONARY
  5
FCA
330
2E
100
AcDbDictionary
280
     1
281
     1
  3
ACAD_XREC_ROUNDTRIP
360
FCB
  0
DICTIONARY
  5
FD8
330
35
100
AcDbDictionary
280
     1
281
     1
  3
ACAD_XREC_ROUNDTRIP
360
FD9
  0
DICTIONARY
  5
FE0
330
39
100
AcDbDictionary
280
     1
281
     1
  3
ACAD_XREC_ROUNDTRIP
360
FE1
  0
DICTIONARY
  5
FD2
330
32
100
AcDbDictionary
280
     1
281
     1
  3
ACAD_XREC_ROUNDTRIP
360
FD3
  0
DICTIONARY
  5
FD6
330
34
100
AcDbDictionary
280
     1
281
     1
  3
ACAD_XREC_ROUNDTRIP
360
FD7
  0
DICTIONARY
  5
FF0
330
41
100
AcDbDictionary
280
     1
281
     1
  3
ACAD_XREC_ROUNDTRIP
360
FF1
  0
DICTIONARY
  5
FDE
330
38
100
AcDbDictionary
280
     1
281
     1
  3
ACAD_XREC_ROUNDTRIP
360
FDF
  0
DICTIONARY
  5
FC2
330
2A
100
AcDbDictionary
280
     1
281
     1
  3
ACAD_XREC_ROUNDTRIP
360
FC3
  0
DICTIONARY
  5
FC4
330
2B
100
AcDbDictionary
280
     1
281
     1
  3
ACAD_XREC_ROUNDTRIP
360
FC5
  0
DICTIONARY
  5
FC6
330
2C
100
AcDbDictionary
280
     1
281
     1
  3
ACAD_XREC_ROUNDTRIP
360
FC7
  0
DICTIONARY
  5
FC8
330
2D
100
AcDbDictionary
280
     1
281
     1
  3
ACAD_XREC_ROUNDTRIP
360
FC9
  0
DICTIONARY
  5
FD0
330
31
100
AcDbDictionary
280
     1
281
     1
  3
ACAD_XREC_ROUNDTRIP
360
FD1
  0
DICTIONARY
  5
FEC
330
3F
100
AcDbDictionary
280
     1
281
     1
  3
ACAD_XREC_ROUNDTRIP
360
FED
  0
DICTIONARY
  5
FDC
330
37
100
AcDbDictionary
280
     1
281
     1
  3
ACAD_XREC_ROUNDTRIP
360
FDD
  0
DICTIONARY
  5
FEE
330
40
100
AcDbDictionary
280
     1
281
     1
  3
ACAD_XREC_ROUNDTRIP
360
FEF
  0
DICTIONARY
  5
FD4
330
33
100
AcDbDictionary
280
     1
281
     1
  3
ACAD_XREC_ROUNDTRIP
360
FD5
  0
DICTIONARY
  5
FEA
330
3E
100
AcDbDictionary
280
     1
281
     1
  3
ACAD_XREC_ROUNDTRIP
360
FEB
  0
DICTIONARY
  5
FE8
330
3D
100
AcDbDictionary
280
     1
281
     1
  3
ACAD_XREC_ROUNDTRIP
360
FE9
  0
DICTIONARY
  5
FE2
330
3A
100
AcDbDictionary
280
     1
281
     1
  3
ACAD_XREC_ROUNDTRIP
360
FE3
  0
DICTIONARY
  5
FE4
330
3B
100
AcDbDictionary
280
     1
281
     1
  3
ACAD_XREC_ROUNDTRIP
360
FE5
  0
DICTIONARY
  5
FDA
330
36
100
AcDbDictionary
280
     1
281
     1
  3
ACAD_XREC_ROUNDTRIP
360
FDB
  0
DICTIONARY
  5
FCE
330
30
100
AcDbDictionary
280
     1
281
     1
  3
ACAD_XREC_ROUNDTRIP
360
FCF
  0
DICTIONARY
  5
FE6
330
3C
100
AcDbDictionary
280
     1
281
     1
  3
ACAD_XREC_ROUNDTRIP
360
FE7
  0
XRECORD
  5
FF5
102
{ACAD_REACTORS
330
FF4
102
}
330
FF4
100
AcDbXrecord
280
     1
102
SHADEPLOT
 70
     0
102
SHADEPLOTRESLEVEL
 70
     2
102
SHADEPLOTCUSTOMDPI
 70
   300
  0
XRECORD
  5
FF9
102
{ACAD_REACTORS
330
FF8
102
}
330
FF8
100
AcDbXrecord
280
     1
102
SHADEPLOT
 70
     0
102
SHADEPLOTRESLEVEL
 70
     2
102
SHADEPLOTCUSTOMDPI
 70
   300
  0
XRECORD
  5
FF7
102
{ACAD_REACTORS
330
FF6
102
}
330
FF6
100
AcDbXrecord
280
     1
102
SHADEPLOT
 70
     0
102
SHADEPLOTRESLEVEL
 70
     2
102
SHADEPLOTCUSTOMDPI
 70
   300
  0
XRECORD
  5
FC0
102
{ACAD_REACTORS
330
1A
102
}
330
1A
100
AcDbXrecord
280
     1
102
MATERIAL
148
0.0
149
0.0
149
0.0
 93
        0
 94
      127
282
     0
 72
     0
 77
     0
171
     0
175
     0
179
     0
273
     0
  0
XRECORD
  5
1C
102
{ACAD_REACTORS
330
1A
102
}
330
1A
100
AcDbXrecord
280
     1
270
     1
271
     1
  0
XRECORD
  5
1B
102
{ACAD_REACTORS
330
1A
102
}
330
1A
100
AcDbXrecord
280
     1
270
     1
271
     1
  0
XRECORD
  5
1F
102
{ACAD_REACTORS
330
1A
102
}
330
1A
100
AcDbXrecord
280
     1
270
     1
271
     1
  0
XRECORD
  5
1E
102
{ACAD_REACTORS
330
1A
102
}
330
1A
100
AcDbXrecord
280
     1
270
     1
271
     1
  0
XRECORD
  5
20
102
{ACAD_REACTORS
330
1A
102
}
330
1A
100
AcDbXrecord
280
     1
270
     1
271
     1
  0
XRECORD
  5
1D
102
{ACAD_REACTORS
330
1A
102
}
330
1A
100
AcDbXrecord
280
     1
270
     1
271
     1
  0
XRECORD
  5
FBF
102
{ACAD_REACTORS
330
12
102
}
330
12
100
AcDbXrecord
280
     1
102
MATERIAL
148
0.0
149
0.0
149
0.0
 93
        0
 94
      127
282
     0
 72
     0
 77
     0
171
     0
175
     0
179
     0
273
     0
  0
XRECORD
  5
14
102
{ACAD_REACTORS
330
12
102
}
330
12
100
AcDbXrecord
280
     1
270
     1
271
     1
  0
XRECORD
  5
13
102
{ACAD_REACTORS
330
12
102
}
330
12
100
AcDbXrecord
280
     1
270
     1
271
     1
  0
XRECORD
  5
109
102
{ACAD_REACTORS
330
12
102
}
330
12
100
AcDbXrecord
280
     1
 70
     1
 90
1959938040
 71
     1
  1
A2C569CC-8B01-49CC-9EFC-F2D52DF34B92
311
504B03040A0000080000074632403DEE336E79000000790000001B0000006175746F6465736B2D64657369676E2D7061636B6167652E786D6C3C3F786D6C2076657273696F6E3D22312E302220656E636F64696E673D227574662D3822203F3E3C666F726D6174733E3C666F726D61743E687474703A2F2F736368656D612E
311
6175746F6465736B2E636F6D2F64657369676E2D7061636B6167652F323030393C2F666F726D61743E3C2F666F726D6174733E504B030414000608080007463240D486FD9CA0000000F4000000130000005B436F6E74656E745F54797065735D2E786D6C7D8EC10E82300C865F65E91D8A1E8C310C0EEA1BF002731658846E
311
D98AC1B77784ABF1D8FE5FBFBF75BBCE937A534CCEB38643598122B6FEE978D0B0485F9C41B54DDD7D022595594E1A469170414C76A4D9A4D207E29CF43ECE46F218070CC6BECC4078ACAA135ACF422C856C0E68EA1BF5669944DDD7BCDE7B1F8E415D77AECB980613C2E4AC91FC167A2B244592486606FC29C8FD7F045B9A
311
EF7053A7E60B504B030414000608080007463240E532E32EE80000007C01000008000000636F72652E786D6C8D904D6EC3201085AF82668F038E498985892A2B39412F8080B8283158FC543D7E71E248EDAEAB19BD79DFCCE889D3F77C475F362617FC00B42180ACD7C1383F0D50F215734027296208F9970D9057B31D6095
311
418A2986B26C920E3E5B9FABEA83B19BA852B21990BED76680A43FEDAC1A557275A45BB3287D53936DE8ABAB7029CEA0E71167EA3E77753682BCBC3376642DC7EC485BDCD18E63CED888CF07BA7F1B2FE3C8CE44EC56588AECE6D77D1DADCAD6806C49C508C5947F10DE77BCA71D26879E5468B5FF81CA62FE0915E7F3BEDD
311
DE7D620924AD8F3C0652ECD62C6A790455EB9A9BFC01504B03041400060808000746324055019EA25F0000007C00000007000000636E782E786D6C4DCB3B0E80201045D1AD90E915ED2CF8AC45050C11660C8261F98AB1B07AC9C97D42D718D865D3E909258CFD00CCE24AC6E326A164D74DC0B4128928FF326038472BA131
311
28B1252AC747C6BAB984FC68F0B87FE8960A5C09FE86CFB69FBA01504B030414000608080007463240D14E1D2564010000020300000C0000006662782F636F72652E786D6C8D52ED8A8330107C9590FF6A62B5E795987248FB04F702694C3DA926920FE9E3DFFA517A3D4A29420C333BBBB3A36C7FED3B342AEB5AA34B4C63
311
8291D2D2D4AD6E4A1CFC392A30DA73668DF17FCA30D2A257259E60CC59634D1856481AED95F6806A53AB1514CE298F91ECE05262277F542F62113C54B84B3C0879118D8A690C34D471E6BC05036819329D989F4F57962C386721B4F5CAB6354C6BCFADB2981FBFF2FC334F8B28FFA46994D1AC888A3CAFA2C3966E3EAA6355
311
E507C29249CC996FFB9B3B6995F0AAC63C25202334A2C537297659B1A35944B63B02A2A9FC411486FA4D5168B5DFA4ABDD45E630A7606426FE6D0B1179E4C4087E12CE92294478CD093F060D8140C85E9CBADB1E17804625BDB11930B509776A145D503095A0F961C9C242E7B9016CF6B44FFAA2CFEB1EF001856EC09AF070
311
3D053F4D67CBD4358A41D968F457A48DED457737B758BC9FF7414FE5D274C6BEA34ED6559335CC64FA7BF92F504B030414000608080007463240596EE9F07D0000009D0000000B0000006662782F636E782E786D6C4DCCD10A83201886E15B91FFDC95A1D4811A6A751FB12C64A6C3E9D8E5AF46073BFAE0E1E3E5FD67F7E8
311
6DD3CBC52080DC6A4036DCE3E2C226A0E41577807AC9538CF9EF0628CCBB15703248BEA5589E172D769D8BCF877A171E170E63D31A6D341E89AE3135ACC18AB2015356AB560FD3D4110595E4D5AF74EC19965F504B0304140006080800074632401FE8B6C42A01000014020000310000006662782F44453237434243422D45
311
3142302D344335322D413435442D3435304137424446463831412F636F72652E786D6C8D51CB6EC32010FC15C4293D6003C5891561A2388F2FE80F50435294182C1E553EBF503B527BCB8545B333B3A35DBE7B8C77F0AD7D30CE76905418026D07A78CBD7630C50B6A21D809EE9D8B7F68105839EA0E16180A7EF52E4D0B34
311
381BB58D19B54EE9059421E808C170CF9F0E86E14B8FB292296646B855931C6EF2AA2B52E576E6091EA2CF01C03CA4BC501C4F7473E80F3D3A911E23766828DAB3E6885883F79BFE783EB764CFEB5928784A462D72A3721C7331DABF6A52C48247333EE30F5ECBA8151414138A3041A4FDC0ED96B55BC2105E6F31E675A1FF
311
13A549BD284AC6C677BAC49D65010AC2EBB921B872E9F3FE0CA31F93F3119479ABA08737287085292174C3B264A6E60564CF355B3C43743E2F7875FBCC6CD2CCC66B26785D6E94CBEF01732DF7143F504B030414000608080007463240769E8DB84C01000033030000300000006662782F44453237434243422D453142302D
311
344335322D413435442D3435304137424446463831412F636E782E786D6CD593BD6E032110845F05D1DF0FCEC9B22C0E4B29F20429D272B0B6893938F113C56F9FC5C68E1B1729D3A0D3EC30B3FAC4F1DDF76CC9178468BC1B296B7B4AC029AF8D3B8C34A77DB3A1642778F03E3DD8287172869116990A7E083E2F55D2B097
311
D92654AD71A72A06883E070511E5729358AFA4C500704D4611E609B4064DEE46FCDA43C055509CCE241D81BCBD7E103F7D824A91772545F0AE74085ECEDAF460A2445919E348A33AC22C5B9993D7104FAD9649B6ACBD753DD9E93789940BB7CA1C0C29E5232D271575A31639F20E8782C714905E35A5F30254C865B146C984
311
90BB8BF1EA113C1B97D643F51A041FD0CDD62FC380619799E0C9CC501D2A804CA0A958F56CD5F4AC619BF77EB31D365B3634FD7ADBF7BC2B76C127EF6DBD843110FC429477095CA282F1AE8C9FE1AB3EA24D40D63E9CFF001201D4D62B9D7BC67FE6D35DDE37E20AF817881F504B03041400060808000746324008D9DB1B9A
311
0500007B100000340000006662782F44453237434243422D453142302D344335322D413435442D3435304137424446463831412F6F626A656374732E786D6CAD575D8F9B3814FD2B887D0E8424D39DAC18AA4932A9A2EEB455A356FB305264C030DE311FB2CD34B3BF7E8FC110489399ECAA2F808D7D7DEFB9E77ED87FBFCF
311
B8F54C8564457E637BCED8B6681E1531CBD31BBB52C9E8DAB6DE07BE280AD55B665B39C9E88DADA7EDC04F455195662AA609A9B83A9A5D2FFEB26444736A5B112752DED8327AA4197148A58A98CA2727268A3869B2773CA75938149B0A523E1E092D89A0B982A698CF21C56A94F286C3B1ED06BEABFF07BE7E9A55D3F3ABDC
311
DA9EE1F92C978AE4D14F871D89997AB3D5DDE46A3EBA9ACDA6A3D9BB89375AAC17AB91F7FB74BC7CB75CCE6FEFE638582A0149461341133BF8006C048B7CB7F915F815CBD57462961807B9823E33ED293B98589EEF366B3AEB8C91A7D48F8A3CA7518D15D0A8ED33A2635AD23C86CF1995D0AC87D07838F4348EBDDF533D36
311
47F6A72F43A0BFA327A8D5BD7DF7352DC2BF6182BC84414252CDC0064B6368C3D5F101E1B028B8F9C7A49511450523DCE22C1444BCD80196EA25813F10A3992C7434680BEC005E687E0FE982307A9BE7A7B44C2ACE358DEDA08E821D62852A596BC6FEA1E2A07D1F19E8045F69365C1B83D44B49ED60DE50E4FA884D0D9056
311
C2490A97C34CBD733A393274A9E374B3B2838FEB70BFD5B17BFAF0521425154AD307D46A1DD7BE354A4627EF22CFE90DF6912A0750BE02F94F08F5832AF09B60FBD97E664E5182E432294406DF58636B34C6636C79F5537FF7BE7CB7DB3CF4DE393CE16C0DD52FC0736843DF973D3803FF19842FC4D498B68D0847DAB86739
311
00D224B1788129E4E124DCDBC106590E5919BB080F3C980C759FF1E9BB460C12457D52EF9D03CBA3B4784182066C3523A146437EA3E0C14F3FA5B3FA60B3EC1CBC57BF84AEB7ABEDC76D251212D17B13D32B9AB09C2994B8036FFA0A0D301F58F4445F7E142286A13FE3BDEDE39D99A324D0D6986BE0D336A7EBC1E1E4C101
311
11F6A5854E37FE1B27C0085D587BF2EF998C28E724A745D59EFB6AFD40D96820D6C1AE99DC1598436101699A3F473188221D09566A10BB6AD5254DE78C75DF369FC0483B58BCFC495EFAD92B3CE4DEA8E085D8852FBB262D9D84FAFB90DB0603574B01DDEB2069E3DF80BE8B5992541249F004AEDF37CBBEEF745A408A68A5
311
36D13283FD082E220C695BB9A8D682A09216F98EA16E22EE4E1ED0970F480D036A81E7349694273BC67995ED12C6518D761929CFC0F1FFF50FABACDC91ACA8727546F640755487A1EE03F6CA1F44458F76B0ADDFA305726F4CE33364D0B5E4045603D7DE4E9657EFE6CBE5E87A31F64633FD35BF5B2F47EBC9EA6AB25A4F67
311
8BF9A4F553A349E0B7A5A61FD1F0124A9B5F0966DCF76D83F83149C00EEE89920F1F9AF06CDFDF360E7A61DFC51ED4CB6EE36DFC8CBE8FC66F0B38AC3C296893959C66345744C7D0BDFEE05F09FA8C8132CDFC262329BD40CAE70FDB23633073C1BE2F3ADEE98FA3BD6676A903F2A410F55865614E183FDA9836483A659E1A
311
FC5A9F74EFA6D0B4433D328E41672A0BCE62E4C1D84A699151856C784111121995A05EBFA78FCDDDE382DDCF4D87A848C869ABC9234193CC25C202D4AA22359CB77E4353A7FBAA1B1BE5D679C2C3640ADB02676E6C34E98A45543A210AB46E856AE1E052BF9347E34FF294A3D76E3675E36E97C6665092BB2597F44FC6AE26
311
851B0390464AF40D6888E09D5A99C0AF7533FFA3FF6478AB8E45143EC34A75B61C263A63EA6310A28D51E6B68026E6C91CBD47A0BE6E96E7D46B06885C74CB7A95048DD4912222AD6F0A5A3FA3D2EDEA8B8B0EC5DA7CB64A5EA5F0E5E592468282CC950E70B008AC30324BA240D5E51F0F5F44819B6C66AD1928F0B02CB2AC
311
C8CDE0D6DC84ADED23EEB5F103D202D51712F930197B9387FA2260EE26BB9048EA90583E61023E15AC8378E07830B2B92DA202353FBA75AE76C21137372BCB94B419841AA2F4B3AA86052D474E2D448FBE4CEA58E92F285FBD0BB8F552A820D0C507FF02504B03041400060800000746324000000000000000000000000035
311
0000006662782F44453237434243422D453142302D344335322D413435442D3435304137424446463831412F76657274696365732E62696E504B030414000608080007463240F270F1330600000004000000360000006662782F44453237434243422D453142302D344335322D413435442D3435304137424446463831412F
311
747269616E676C65732E62696E636660600000504B030414000608000007463240000000000000000000000000370000006662782F44453237434243422D453142302D344335322D413435442D3435304137424446463831412F617474726962757465732E62696E504B030414000608080007463240D5987DFC8F00000041
311
010000360000006662782F44453237434243422D453142302D344335322D413435442D3435304137424446463831412F6469726563746F72792E786D6C858F410EC2201045AF4266AF15DDB800BA74E7C21B903225242D6328188F2FA5C4183471359997F9FF81E89FF3C41E1816475E02DF1F80A11FC8386F25A438EECEC0
311
7A250251FC3803E6F58C12560C4AD840E95E91C151A72936F496F35732D860FE635F62C8F2DA16B505C545B74125BAA2FA9E05D7CC053D063734D5C7665FD55B6B8D15D5E9BFEAFD8490FFA45E504B0304140006080800074632401553775EFC000000A00100003B0000006662782F44453237434243422D453142302D3443
311
35322D413435442D3435304137424446463831412F7265736F75726365732F636F72652E786D6C8D905D6E83301084AF82F6DD60139C10641C552839412F60990DB5126CE49FAAC7AF09546ADFFAE2B566E6D38E565CBEE667F1893E18677B60258502AD76A3B1530F29DE490BC5450AEF5CFC1583C2AA197B58659062F22E
311
2DBBA49D8D686356AD1B7117550818A1D0CFFCE921E80F9C55A952CC89F02817A51F6AC29295D9CE392942F4B940B12D595F901E834B5E6310D5E64A919219F78C19F34E7337E841DEDE383FF3FA44F899D5A4614D4B5ACE07723DB2C369B80D03BF5251ADB014D1CC3F1DB54715710459D38C514658FB4EDBAE693BD6107A
311
EC6886D6F81F282DE33FA1646C3CD47BDD0D0B20592EF232A4A8D67BE5F13A669EEB6DE537504B010214000A0000080000074632403DEE336E79000000790000001B00000000000000000000000000000000006175746F6465736B2D64657369676E2D7061636B6167652E786D6C504B0102140014000608080007463240D4
311
86FD9CA0000000F40000001300000000000000000000000000B20000005B436F6E74656E745F54797065735D2E786D6C504B0102140014000608080007463240E532E32EE80000007C010000080000000000000000000000000083010000636F72652E786D6C504B010214001400060808000746324055019EA25F0000007C
311
000000070000000000000000000000000091020000636E782E786D6C504B0102140014000608080007463240D14E1D2564010000020300000C00000000000000000000000000150300006662782F636F72652E786D6C504B0102140014000608080007463240596EE9F07D0000009D0000000B000000000000000000000000
311
00A30400006662782F636E782E786D6C504B01021400140006080800074632401FE8B6C42A010000140200003100000000000000000000000000490500006662782F44453237434243422D453142302D344335322D413435442D3435304137424446463831412F636F72652E786D6C504B0102140014000608080007463240
311
769E8DB84C010000330300003000000000000000000000000000C20600006662782F44453237434243422D453142302D344335322D413435442D3435304137424446463831412F636E782E786D6C504B010214001400060808000746324008D9DB1B9A0500007B10000034000000000000000000000000005C080000666278
311
2F44453237434243422D453142302D344335322D413435442D3435304137424446463831412F6F626A656374732E786D6C504B01021400140006080000074632400000000000000000000000003500000000000000000000000000480E00006662782F44453237434243422D453142302D344335322D413435442D34353041
311
37424446463831412F76657274696365732E62696E504B0102140014000608080007463240F270F133060000000400000036000000000000000000000000009B0E00006662782F44453237434243422D453142302D344335322D413435442D3435304137424446463831412F747269616E676C65732E62696E504B01021400
311
140006080000074632400000000000000000000000003700000000000000000000000000F50E00006662782F44453237434243422D453142302D344335322D413435442D3435304137424446463831412F617474726962757465732E62696E504B0102140014000608080007463240D5987DFC8F0000004101000036000000
311
000000000000000000004A0F00006662782F44453237434243422D453142302D344335322D413435442D3435304137424446463831412F6469726563746F72792E786D6C504B01021400140006080800074632401553775EFC000000A00100003B000000000000000000000000002D1000006662782F44453237434243422D
311
453142302D344335322D413435442D3435304137424446463831412F7265736F75726365732F636F72652E786D6C504B0506000000000E000E0080040000821100000000
310
504B03040A0000080000074632403DEE336E79000000790000001B0000006175746F6465736B2D64657369676E2D7061636B6167652E786D6C3C3F786D6C2076657273696F6E3D22312E302220656E636F64696E673D227574662D3822203F3E3C666F726D6174733E3C666F726D61743E687474703A2F2F736368656D612E
310
6175746F6465736B2E636F6D2F64657369676E2D7061636B6167652F323030393C2F666F726D61743E3C2F666F726D6174733E504B030414000608080007463240D486FD9CA0000000F4000000130000005B436F6E74656E745F54797065735D2E786D6C7D8EC10E82300C865F65E91D8A1E8C310C0EEA1BF002731658846E
310
D98AC1B77784ABF1D8FE5FBFBF75BBCE937A534CCEB38643598122B6FEE978D0B0485F9C41B54DDD7D022595594E1A469170414C76A4D9A4D207E29CF43ECE46F218070CC6BECC4078ACAA135ACF422C856C0E68EA1BF5669944DDD7BCDE7B1F8E415D77AECB980613C2E4AC91FC167A2B244592486606FC29C8FD7F045B9A
310
EF7053A7E60B504B030414000608080007463240475C99E5E90000007C01000008000000636F72652E786D6C8D90416EC3201045AF82668F0D2E4E898589AA3839412F80803828315806AA1EBF3871A476573633FAFC3733FAE2F03DDDD1975DA20BBE075A1140D6EB609C1F7BC8E98239A083144B08E9970D905793ED6195
310
418A710979DE241D7CB23E15D507633751C56813207D2F4D0F515FEDA42A955371C45B352B7D53A3ADE8AB2B70CECEA0E71267CA3C7771760179E694ED067AC21FFB9662C6F627CCE9B1C5CD3B3F0E6C3897D78A7A85A5486E7AEDD78B55C91A900DA10D261453FE4978C778471926BB8E1051AFF63F509ECD3FA1EC7C7A6B
310
B6739F580449CB218F0F29EA358B521E4195BAE6267F00504B03041400060808000746324055019EA25F0000007C00000007000000636E782E786D6C4DCB3B0E80201045D1AD90E915ED2CF8AC45050C11660C8261F98AB1B07AC9C97D42D718D865D3E909258CFD00CCE24AC6E326A164D74DC0B4128928FF326038472BA1
310
3128B1252AC747C6BAB984FC68F0B87FE8960A5C09FE86CFB69FBA01504B03041400060808000746324015F436F065010000020300000C0000006662782F636F72652E786D6C8D52ED8E8320107C15C27F443CDBB30DD25CFAF104F70254A947AA60104C1FFFD68FC6EBA569AA8992999DDDD951BEBB3535EA95EBB4353966
310
518C9132852DB5A9721CFC856418ED0477D6FA3F651819D9A81C0F3016BC7236B4335458E395F1801A5BAA19945DA73C46450D871C77C58F6A642483878AEE1AB5B2B8CA4A452C021AEA04EFBC0303681A323CB1B89C6F9C4EB8E021E872667509D3F4452B87C52963E9FAC08EE46BB362244D374792B1FD8A249FD9FE901E
310
4E70AD381DC4827BDDDCDD154E49AF4A2C92982524668465DF71B64DB32D4B49BCDEC631A743F98328B4E59BA2A08DFF4866BB93ACC382819191F8B72D44E451277BF04305A74388F01A137E0C1A028190BD3CD7F73DAE00F5AAF0D6A5C094362C542FEBA0606A8CC69BD38985CE6303D8EC699FE4459FD73DE0034A538135
310
E9E1780E7E98CEA7A97314AD72A4F73764AC6B64BD989B2C2ECF65D05379616BEBDE51D379553A874987BF57FC02504B030414000608080007463240B523EAC57D0000009D0000000B0000006662782F636E782E786D6C4DCCD10A83201886E15B91FFDCE5D4D8043564B5FB88B2909986D3B1CB5F8D0E3AFAE0E1E395CD77
310
F1E863D3DBC5A0E07A21806C18E2E8C2ACA0E409DF01355AA618F3E90628F48B55B0336839A758D683463BF5C5E74DBD0BAF03C593B2F6D619CC6B5163CE448B8D210FDC514A3837940943A1D2B2FA97B6DDC3FA07504B030414000608080007463240459EC01A2B01000014020000310000006662782F3946323344374541
310
2D343539352D343339442D414130432D4532323034344132333941322F636F72652E786D6C8D51CB6EC32010FC158B537AC0064C123BC24456937E417F8018E2A2C460F1A8F2F985DA91DA5B2E2C9A9D991DEDB2E363BA17DFCA796D4D07708940A1CC60A536630762B8C2061447CE9CB5E10F0D14464CAA0319069C8DCEC6
310
7985066B823221A1C64AB582C27B154031DCD3A7037EF8529328450C89E16FE52C869B185589CBD44E3CCE7C702940B10CC92FE0ED07A94FFB730FE9B6DD425AB727D8F7E81D9E094194F6A46E7BC2AA45C8598C5AAE722D531C7DD5CABD6A92C59C053D3DE30F4E89A024E00461021186B8F944CD8136074C21DA1D106255
310
A6FF13C559BE288ADA849AAC711799071CB36A6970266DBCDC9F61D463B62E1479DEC6ABE10D705422DCB6785BEF59B550D30292E78EAE9E3E589716BCB95D12BB5E8D7794B32ADF2895DF03A69AEFC97F00504B030414000608080007463240103942AF5401000033030000300000006662782F39463233443745412D3435
310
39352D343339442D414130432D4532323034344132333941322F636E782E786D6CBD93CD6EC32010845F0571F75F6259568489D4439FA0875E096C121A0C163F55F3F65D1292E69243A5AA1764CD0E33AB4F986DBF66433EC107EDEC44BBBAA504AC744ADBC34453DC5723255BCEBC73F1C1468915334C34CB94B383776929
310
9282BD4826A26AB43D15D14370C94B0828E79BC438290C0680AD128A30EF402950E46EC4AF3D785C05C5DD99C42390D79777E2761F2063604D4EE1ACC91D9CE5B3343D982891468430D1208F308B5AA4E8148453AD44147557DFBA9EECF49344F2855B65F29AE4F289E693F2B2518D1C598343CE42F448AF98E27901CAC5B2
310
182D4544C8CDC578F57096B48D435FBC1AC17B74AF57C33862D865C659D4331487F4202228CA576DB7AADAAEEAC6B776DCF4E3A6EBAB76D8B42D6BB29DB39D73A65CC218F06E21D2D9083652DEB1268F9FE12B3EA2B447D6CE9F7F01120194D62B9D7BC65FF2E98675DFFF239FE6F2BE1197C7BF807F03504B030414000608
310
080007463240C82DF65057070000941B0000340000006662782F39463233443745412D343539352D343339442D414130432D4532323034344132333941322F6F626A656374732E786D6CED59DD73A33610FF5718FA6C6C6C274D3A849BC4BE643C6DEE6ECEBD9B3E64869141266A84602491C4FDEBBBFA00033109EEA56FF7
310
6003425AEDFEF6534BF0E139A3CE23E682E4ECC2F5BD89EB6016E70961E9855BCAEDE8CC753E8401CF73D998E63A0C65F8C255C36E18A43C2F0B3B94E02D2AA9EC8C5E5FFDE5881833EC3A3145425CB822BEC719F25029F3048B072F411279E9F6D9F33D33B14D36E5A8B8EF102D10C74C02A730CE808A6398F2DB8F13771C
310
0663F53E0CD4BF9D351B346BDE3F6BACA56E7349989088C52F58EA90990D6269E6CF971FA727E7A393F97C369A9F4EFDD1D5F5D572E4FF3A9B2C4E178BF3CB8FE7C0DE26CFA99529C1056609E86FE7867E30566F6AD12D0287B88E73C670AC8104A8B4585D82040BD8AA01DFA4FDE82B891AAFB5848DE7B97A6F59680CCFDA
310
54FA660D03A2451704B1DB551257D7A67CF9E66F105C0C314A2EB0046E85E4A05D0B0F07AF70C3493036A361B0D9EB82082743127382A843C986230E4A81A96A4A189805968C720E0EA41C2581D69C79DDB62DF0CCB75DE71097DB9252E5196EA81D2B02F7C35268CEC83F98EFB96F22033C81B42561F2CC7229770576C3F3
310
60AC07C3405D6653FBD200E96C294A8546C4BCED08BA50AEBF5ABAE1EFD79BE7B50A0787372F785E602E95D1293D6ABEC090ED55A164B7F507694E2D00610CA876E51E94AF80FC27881E7B56406F9C3CCF9FE776AEE488896DCE33D08D33714613F89B38BEFE57F78DBB605C2F6E6BAF0F4F705305D5D98FE3D996416365F9
310
6FC019068F60F0399FD957EB1851B0E75BC2002065240ECD610842FB76F3EC862B089C10E86115A2A10F2203BB8F701B8C2D99BD562AF7B25EC70051BBC76C889200366D91C0468F9E6E207B7012EFD5D414B10FDE937731D7CBE5FAF775C9B728C6B7D6A797784B189190350F33D4C2BC25D103DE3DE53C01415FE2BD6EE2
310
9DD9AD04A0AD3057C0A71508EA61BF736B8318D6A5B90A37C11B3B80102A5737E8DF1211634A11C37959ED5B473765A8B5C7DB9AC10DA706E2D9B463C21C3F12555580D3EC67B41885BC1F73522810DDF0C64856074DAF47BA6FAB4F6091F5FC9E592B06A19721FAA70E5A077068597685B405A21678B30FE7714E731E6D76
310
9189742ED412C046DB5BBEB78842AC374A5254C083B4DF55212535D24609D96E4B0171F5008BDF578BA6394CBC997FE234FF3BCE3887680BBE8BB8F5BBCE1E11C9508AA32D4AFAB66BEE56D3169A640F698EB714E4228F44EE2224A34982D363A0398AF8F9BB524F692E04615840BE3A087E138D890781C468B3625969B503
310
3411518625A2C720A0C8F480ABD38EAE7163281DDEE6B1B6DED734D624FA3F590447504BE62C22508A420E799371DF3B8118D246D7A0DCC117ACADA2ADC5A0259410F12E7AC224BD97C7A06EC8F7E01EC391A494515EA018CC7A00D917BEA294DAE17D83E207953FA2B8A4EF652002D36D44282DB3087E84C1C963886BD781
310
E955141AC44DEC933883A20CC9920FD9E4F464F2621F533374436063A32DA110B6A30C153DA8B702A2AE479C1A7C4BBD47A99B322B2294E5251B6428DEACEB4D967C57AD8AEC407E55A908656345D8120C03C2649D55AB980DA6AE032BB8910E54BB48A0ACA0E614F646E2F16B6FD2947B37E0D64FDF77830C0ABF1EED3523
310
EABC82C1F2D82A0CC41392F1BD1BAEF5757405F57782937DAAAF6ACD66050888A9485E726255F46D05E58DADD1DCF01649717763B26E75FDB6F2A0FB118C610DD42EF5C295023AC34C225599DCAA1BFA1541086ED130E32B95538FA1729924BA6A44F49AF4A9B35546B436CD8857DC639667F0637784C5B44CF01D4AC44374
310
2B69B4268A752BA597910AE35705FC7CB3EEC003230344FAA20A3CFCD4596B4717AA5C3A4844DE97D986210241B0255A6A74E3152CB51AA9B45C5FD59902EA2E3030ABE2F9CF9345B31DF1F364915AC3F8A193C5D5EE0FB46BF6451AE93C56767DD431A0CE4F8ACA7B1C0374DBA1A65A671193CCADFCD69922088A55941F5C
310
8D5541C310ECE3F83F67EDBE2C68B6EBF07F5CD6F65F541C476595D664D5A53A50B9AE9A39EC72BA38393D5F2C466757137F345777E71FAF17A3EBE9F264BABC9ECDAFCEEB546C8887411DCC74EE826713D4AA61F5643180AEACC82949E0349F382986982FE14C3FA07DCE332C2079369BDD896DCA0F58FD68FA9C126D28AE
310
38B947D020A602D23A8851C6B23DEEFC02AD490907ED0B179A46DE03FC59AB741DC83C172EB40A2489B1F036D066520D3D4D1C52AECEFD96180432C4529512CDA2FAB95EA5B06985FF7ACA903460E56AF530A0702BA0FBD5EA5068DE2C4FF1518257EC3848C2EDA69450AD1959F603B5307A9BBDFA8D6C94B007BBF533B8EE
310
EB62F99E9ED34264D02783578DC0501D49C453DDEF568C59962E975FC6D06773569F9D829629E87238A511C760CCA52AA8C08AC02A2CCD024930D5C56F775F780E9F7832475745778B3CCB72661F2EE13C96C02722677D0F1F7C923B281BB06AAB8BBBE9C49FDEE976B6EDB0471B24B0A7EA2118A8CA082542C7D8C0225FB4
310
A66CE372AC94D099BE5A3A367C421BC058D08BEEAEF9BCE580F7A80F29CA57B4875772BEDAD11EEBA9600D1C7AD1E1BF504B030414000608000007463240000000000000000000000000350000006662782F39463233443745412D343539352D343339442D414130432D4532323034344132333941322F7665727469636573
310
2E62696E504B030414000608080007463240F270F1330600000004000000360000006662782F39463233443745412D343539352D343339442D414130432D4532323034344132333941322F747269616E676C65732E62696E636660600000504B03041400060800000746324000000000000000000000000037000000666278
310
2F39463233443745412D343539352D343339442D414130432D4532323034344132333941322F617474726962757465732E62696E504B030414000608080007463240D5987DFC8F00000041010000360000006662782F39463233443745412D343539352D343339442D414130432D4532323034344132333941322F64697265
310
63746F72792E786D6C858F410EC2201045AF4266AF15DDB800BA74E7C21B903225242D6328188F2FA5C4183471359997F9FF81E89FF3C41E1816475E02DF1F80A11FC8386F25A438EECEC07A250251FC3803E6F58C12560C4AD840E95E91C151A72936F496F35732D860FE635F62C8F2DA16B505C545B74125BAA2FA9E05D7
310
CC053D063734D5C7665FD55B6B8D15D5E9BFEAFD8490FFA45E504B03041400060808000746324054F7B77DFB000000A00100003B0000006662782F39463233443745412D343539352D343339442D414130432D4532323034344132333941322F7265736F75726365732F636F72652E786D6C8D504B6E833010BD0A9ABDC1A6
310
903AC838AA4273825EC032136225D8C89FAAC7AF09546A77F5C2337A1FCDD313A7AFF9517CA20FC6D91E5849A140ABDD68ECD4438A57C2A13849E19D8BBF64505835630F2B0C524CDEA56587B4B3116DCCA87523EEA00A012314FA91971E82BEE1AC4A956256847BB9287D571396ACCC74D64911A2CF018AEDC8FA83F4185C
310
F21A83A836568A94CCB86BCC986F9AAB410FF2C2597318D840DE8E2D234D737C279C9D5B52BFF2F3D00C97FC5A51AD6629A2997F326A8F2AE208B2A6AC269411C63F28EF1ADEB186D04347A9A856F91F535AC67F9A92B1F1A5DEE36EB60092E5204F428A6AED2B8F679979AEDDCA6F504B010214000A000008000007463240
310
3DEE336E79000000790000001B00000000000000000000000000000000006175746F6465736B2D64657369676E2D7061636B6167652E786D6C504B0102140014000608080007463240D486FD9CA0000000F40000001300000000000000000000000000B20000005B436F6E74656E745F54797065735D2E786D6C504B010214
310
0014000608080007463240475C99E5E90000007C010000080000000000000000000000000083010000636F72652E786D6C504B010214001400060808000746324055019EA25F0000007C000000070000000000000000000000000092020000636E782E786D6C504B010214001400060808000746324015F436F06501000002
310
0300000C00000000000000000000000000160300006662782F636F72652E786D6C504B0102140014000608080007463240B523EAC57D0000009D0000000B00000000000000000000000000A50400006662782F636E782E786D6C504B0102140014000608080007463240459EC01A2B01000014020000310000000000000000
310
00000000004B0500006662782F39463233443745412D343539352D343339442D414130432D4532323034344132333941322F636F72652E786D6C504B0102140014000608080007463240103942AF54010000330300003000000000000000000000000000C50600006662782F39463233443745412D343539352D343339442D
310
414130432D4532323034344132333941322F636E782E786D6C504B0102140014000608080007463240C82DF65057070000941B00003400000000000000000000000000670800006662782F39463233443745412D343539352D343339442D414130432D4532323034344132333941322F6F626A656374732E786D6C504B0102
310
1400140006080000074632400000000000000000000000003500000000000000000000000000101000006662782F39463233443745412D343539352D343339442D414130432D4532323034344132333941322F76657274696365732E62696E504B0102140014000608080007463240F270F133060000000400000036000000
310
00000000000000000000631000006662782F39463233443745412D343539352D343339442D414130432D4532323034344132333941322F747269616E676C65732E62696E504B01021400140006080000074632400000000000000000000000003700000000000000000000000000BD1000006662782F39463233443745412D
310
343539352D343339442D414130432D4532323034344132333941322F617474726962757465732E62696E504B0102140014000608080007463240D5987DFC8F000000410100003600000000000000000000000000121100006662782F39463233443745412D343539352D343339442D414130432D4532323034344132333941
310
322F6469726563746F72792E786D6C504B010214001400060808000746324054F7B77DFB000000A00100003B00000000000000000000000000F51100006662782F39463233443745412D343539352D343339442D414130432D4532323034344132333941322F7265736F75726365732F636F72652E786D6C504B0506000000
310
000E000E0080040000491300000000
  0
XRECORD
  5
17
102
{ACAD_REACTORS
330
12
102
}
330
12
100
AcDbXrecord
280
     1
270
     1
271
     1
  0
XRECORD
  5
16
102
{ACAD_REACTORS
330
12
102
}
330
12
100
AcDbXrecord
280
     1
270
     1
271
     1
  0
XRECORD
  5
18
102
{ACAD_REACTORS
330
12
102
}
330
12
100
AcDbXrecord
280
     1
270
     1
271
     1
  0
XRECORD
  5
15
102
{ACAD_REACTORS
330
12
102
}
330
12
100
AcDbXrecord
280
     1
270
     1
271
     1
  0
XRECORD
  5
FC1
102
{ACAD_REACTORS
330
22
102
}
330
22
100
AcDbXrecord
280
     1
102
MATERIAL
148
0.0
149
0.0
149
0.0
 93
        0
 94
      127
282
     0
 72
     0
 77
     0
171
     0
175
     0
179
     0
273
     0
  0
XRECORD
  5
24
102
{ACAD_REACTORS
330
22
102
}
330
22
100
AcDbXrecord
280
     1
270
     1
271
     1
  0
XRECORD
  5
23
102
{ACAD_REACTORS
330
22
102
}
330
22
100
AcDbXrecord
280
     1
270
     1
271
     1
  0
XRECORD
  5
BA
102
{ACAD_REACTORS
330
22
102
}
330
22
100
AcDbXrecord
280
     1
 70
     1
 90
1959938040
 71
     1
  1
11BC4229-ED24-465C-8673-16C3D0F22F52
311
504B03040A0000080000074632403DEE336E79000000790000001B0000006175746F6465736B2D64657369676E2D7061636B6167652E786D6C3C3F786D6C2076657273696F6E3D22312E302220656E636F64696E673D227574662D3822203F3E3C666F726D6174733E3C666F726D61743E687474703A2F2F736368656D612E
311
6175746F6465736B2E636F6D2F64657369676E2D7061636B6167652F323030393C2F666F726D61743E3C2F666F726D6174733E504B030414000608080007463240D486FD9CA0000000F4000000130000005B436F6E74656E745F54797065735D2E786D6C7D8EC10E82300C865F65E91D8A1E8C310C0EEA1BF002731658846E
311
D98AC1B77784ABF1D8FE5FBFBF75BBCE937A534CCEB38643598122B6FEE978D0B0485F9C41B54DDD7D022595594E1A469170414C76A4D9A4D207E29CF43ECE46F218070CC6BECC4078ACAA135ACF422C856C0E68EA1BF5669944DDD7BCDE7B1F8E415D77AECB980613C2E4AC91FC167A2B244592486606FC29C8FD7F045B9A
311
EF7053A7E60B504B030414000608080007463240BEB6CBC5EB0000007C01000008000000636F72652E786D6C75904D6EC3201085AF82668F038E1B610B13B5A97D825E0001715062B0F8A97AFCE2C4919A4557337AF3BE99D1E3C79FF986BE4D88D6BB1E68450019A7BCB66EEA21A73366808E8207EFD31F1B202767D3C32A
311
83E053F079D924E55D322E15D5796D3651C6681220752B4D0F515DCC2C2B995371C46BB548759593A9E8B32B70CE56A3C711ABCB3E7BB6268018C6CFF134D404B7940EB869C93B66C338E08F969D086DDEC6C348F86E85054F767EDE57C1C86434889AD01A138A29FB22AC6B5847F7981C3A52A0D5FE02E545FF0735AF50B6
311
2EEDEBEDDD071641D0F2C87D20F86ECDA2947B50A5AEB9895F504B03041400060808000746324055019EA25F0000007C00000007000000636E782E786D6C4DCB3B0E80201045D1AD90E915ED2CF8AC45050C11660C8261F98AB1B07AC9C97D42D718D865D3E909258CFD00CCE24AC6E326A164D74DC0B4128928FF32603847
311
2BA13128B1252AC747C6BAB984FC68F0B87FE8960A5C09FE86CFB69FBA01504B030414000608080007463240B4C2D14C68010000020300000C0000006662782F636F72652E786D6C8D52ED6E8320147D15C27F14AC6B6C83345BA74FB017A04A1DA98241307DFC5D3F9AAE4BB72C2648CEB9E7DE738FF2C3B56BD1A8DCA0AD
311
C9318B2846CA54B6D6A6C971F06792617410DC59EBBF95616464A7723CC158F0C6D9D0AF50658D57C6036A6CAD56500E83F218552D5C723C549FAA93910C1E2A864BD4CBEA221B15B10868A8137CF00E0CA065C87462713E5D79BCE08287A0EB95D5354CD367AD1C1645F95E1E8B84921D63054977F49564455990B75D76A4
311
2C7D29B725E5F12416DCEBEEE6AE724A7A556391509610CA08CB3E68B64FB33DDB10BADD53104DE50FA2D0D7BF89D24751D0C66F92D5EE221BB0606064267E6C0B117934C811FCC482C75388F09A137E0C1A028190BD3CB5B73D2E008DAAF2D6A5C0D436DCA951B641C1548AE687C70B0B9DE706B0D9D33EC91F7DFEEE011F
311
509A06AC490FD753F0D374BE4C5DA3E89523A3BF22635D27DBBBB9C5E2FDBC0F7A2AAF6C6BDD7FD4F1BA6ABC86194F7FAFF802504B030414000608080007463240D7908D887C0000009D0000000B0000006662782F636E782E786D6C4DCCD10A83201886E15B91FFDC55FC650A6A54BB91581632D3703A76F9ABD1C18E3E78
311
F87865F7D91C799BF8B2C12BA86E2510E31F61B67E5590D34239904ECB1842FABB01F1D366149C0C5AAE31E4FDA2D92C5376E95067FDF3C2B11758B27B432B444EEB661CE9201852D1B381B72DD61C110A2D8B5FE9D833ACBF504B03041400060808000746324077A91F032E01000014020000310000006662782F43413933
311
303644352D313333382D343543432D423936332D3941364238373733343833332F636F72652E786D6C8D51CB6EC32010FC15C4293D6083B11D1C61A224FD84FE0031244589C1E251E5F38B6B476A0E957A61D1ECCCEC6897EF1FE31D7C691F8CB33D24058640DBC12963AF3D4CF18218047BC1BD73F1170D022B47DDC31986
311
825FBD4BD30A0DCE466D6346AD537A0565083A4230DCF3A78761F8D4A32C648A99116EC524879BBCEA8214B99D798287E87300B00C995F284E878EE2F6BD41845286EAE67442C7AEA5A83BB447B6DDD29A51CACB4528784A46AD72A3721C7331DAFFD764160B1ECDF88C3F782DA35650549854081344D80766BB9AED0845B8
311
DD61CCCB99FE224A93FA4B54BF8A92B191566BDC4516A020BC5C1A822B97CEF76718FD989C8F609EB7097A78830217B822554359C7CB859A17903DDB7AF50CD1F9BCE0CDED9CD9A4598CDB5AF072BE512E3F07CC75BEA7F806504B03041400060808000746324030F360374D01000033030000300000006662782F43413933
311
303644352D313333382D343543432D423936332D3941364238373733343833332F636E782E786D6CD593BD6E032110845F05D1DF0FF6C9B22C0E4B29F20429D272B076883938F113C56F9FC5C68E1B1729D3A0D3EC30B3FAC4F1FDF76CC9178468BC1B296B7B4AC029AF8D3B8E34A743B3A5642F78F03E3DD8287172869116
311
990A7E0C3E2F55D27090D92654AD71A72A06883E070511E5729358AFA4C500704D4611E609B4064DEE46FC3A40C055509CCE247D00797D79277EFA049522EF4A8AE05DE910BC9CB5E9C14489B232C69146F501B36C654E5E433CB55A26D9B2F6D6F564A7DF24522EDC2A7330A4948FB49C54D48D5AE4C83B1C0A1E53407AD5
311
94CE0B502197C51A251342EE2EC6AB47F06C5CDA0CD56B107C4037DBAC8701C32E33C19399A13A5400994053B1EAD9AAE959C3B66FFD76376C776CDDF49B5DDFF3AED8059FBCB7F512C640F00B51DE2570890AC6BB327E86AFFA88360159FB70FE034804505BAF74EE19FF994F7779DF882BE05F207E00504B030414000608
311
08000746324089459234990500007A100000340000006662782F43413933303644352D313333382D343543432D423936332D3941364238373733343833332F6F626A656374732E786D6CAD57DB6EDB3810FD1541FBEC8B6C274D168A8AC44E0AA3481BD468B10F010C4AA2146E285120A9D4D9AFDF4389BAB976E25DF4C5B2
311
A8E170E6CC990BFD8FBB8C3B2F542A26F22BD71B4F5D87E69188599E5EB9A54E4617AEF331F0A510BA27E63A39C9E8956B96DDC04FA5280BBB14D384945CEFADDEDDFCE5A888E6D475224E94BA7255F444333226A5163155CFE39868324E93DDD81BD78243B5A924C5D39ED282489A6B588AF51C5A9CDA286FF83A7527813F
311
31DF03DFFC5AA9F971A949E5CFF07C962B4DF2E897C3F6D4CCBDC5EA767676393A5B2CE6A3C5F9CC1BDDDCDDAC46DE87F97479BE5C5E5EDF5EE260A52534594B244DDCE013B0912CF227F5A7C02F59AEE7332B62033491F4859948B9C1CCF1FC492DD37A679D3C647E24F29C46155640A3F2CFAA8E6941F318316754C1B21E
311
42D3E1AB6770EC7D9E9B777B647FF93404FA3B7A8A1ADB9B67DF5211FE0D17D4290C928A1A06D6585A476BAE4E3B844321B8FDC69493114D2523DCE12C9444BEBA01448D48E00FD418264B930DC603374014EACF43BA208DDEE7F9212B939273436337A8B2608B5CA15A5596B17FA8ECACEF23039B102BC3860BEB907E2DA8
311
1B5CD614B9D863530DA493709222E470D3EC9CCFF61C5D9A3C5DAFDCE0F35DB8DB98DC3D7C78214541A536F401B59AC0354F8392B5C93B29726683BB674A07CA3720FF05A9DE9982B849B65BEC16F6142D49AE122133C4C6993AA3297EA68E57FD9AFFBD7FFEA4DD3C8CDE313C116C03D56FC073E8433F963D3803FF058417
311
726E5DDB4484A36CDCB31C001992385C6009753809776EB046954355C62EC2030F2EC3DC17FCF527560D0A457552EF9903CBBDB2784281066C152361464D7E6B6017A75FCA5975B0153B06EFD96FA1EBF56AF37953CA8444F4DEE6F48A262C671A2DAEE34DDFA001E6038F9EE9EB4F216338FA2BDE9B3EDE993D4A016D83B9
311
013E6D6ABA79E94E1E1C10615F2A4CB9F1DF39014E98C6DAD37FCF5444392739156573EE9BFD036DA386D824BB6172DB60BAC602D2D45FF672104D3A92AC3020B6DDAA2D9AE323DE7D5F7F012321CF454878271476A537125CC86DF8BAADABD241A47F0CA96D2198182D607B95234DFA5BCCB7314B9252A1061E80F5C77AD9
311
0F9DA90AA8108DD63A5916701FB945A4E56CA317CD5A123452916F19DA26D2EEE0017DFD40D412A05278CC624579B2659C97D936611CCD689B91E2081CFFDFFEB0CC8A2DC94499EB23BA07A6A3390C6D1F9057FD243A7A72834DF51CDDA0F4C634EEC23C1036ADE40056C3D07A37CBC56C7639BA5DCD16189FCE96A38BF30F
311
F39177BE9CAFA677B3D9DDD9AC8953AD3CF09B4ED34F6844099DCD2F25B3E1FBBE46FAD81AE006F744ABC74F757636CFEFEB3146617F823D6897EDC6EBF805631F8DDF57D0491E54B4CE0A4E339A6B6252E8DEFCE1DF08C68C8131F5FA3A23293D41CBD74F9B3D67B072C2BE0793EEF4E7DE5EBBBA34097950897E2AB33027
311
8CEF6D4C6B24C7459E5AFC9A98B4CFBACF34AFE6CD060683A9129CC52883B1935291518D6278420F921955A05E7FA48FEDD5E384DD2FF580A849C86963C913C18CCC15D202D42A233D5C77FEC04C67C6AA2B17DD76FC8C1F5B295C079CB97231A36B1651350ED19FCD2454290797FA833CE67E92A71CA376BDA97D6F77196C
311
061DB91539657CB27ED515DC3A803252606CC03C84E854C6047E659BFD1EFD27C71B731CA2F1372C75EB4BB7D03A531D8314AD9DB29705CC30CFF6E81D12F56DB7BC71253340E4A44BD69B24A8B58E349169755130F65993AE570F130C28CEFAAB53F032452C4FD7349214642E4D8283456085D559100DAA2EFF7C7C900217
311
D9CCB963A0C0E3526499C8EDCBB5BD083B9B275C6BE34794056AEE23EA7136F5668FD53DC05E4DB62151744C62F58C05C454B216E241E0C1C8FAB2880E547F68E52626087BDC5CAF1CDBD216506A89D2AFAA06164C1C3975903DE62E6972A52F50BC79159854A2304162880FFE05504B030414000608000007463240000000
311
000000000000000000350000006662782F43413933303644352D313333382D343543432D423936332D3941364238373733343833332F76657274696365732E62696E504B030414000608080007463240F270F1330600000004000000360000006662782F43413933303644352D313333382D343543432D423936332D394136
311
4238373733343833332F747269616E676C65732E62696E636660600000504B030414000608000007463240000000000000000000000000370000006662782F43413933303644352D313333382D343543432D423936332D3941364238373733343833332F617474726962757465732E62696E504B0304140006080800074632
311
40D5987DFC8F00000041010000360000006662782F43413933303644352D313333382D343543432D423936332D3941364238373733343833332F6469726563746F72792E786D6C858F410EC2201045AF4266AF15DDB800BA74E7C21B903225242D6328188F2FA5C4183471359997F9FF81E89FF3C41E1816475E02DF1F80A1
311
1FC8386F25A438EECEC07A250251FC3803E6F58C12560C4AD840E95E91C151A72936F496F35732D860FE635F62C8F2DA16B505C545B74125BAA2FA9E05D7CC053D063734D5C7665FD55B6B8D15D5E9BFEAFD8490FFA45E504B03041400060808000746324078FFE2E3FB000000A00100003B0000006662782F434139333036
311
44352D313333382D343543432D423936332D3941364238373733343833332F7265736F75726365732F636F72652E786D6C8D504B6E833010BD8A357B834D68049171D4A670825EC032136225D8C89FAAC7AF09546A77DDCC8CDE47F3F4C4F96B7E904FF4C138DB012F1810B4DA8DC64E1DA478A50D90B314DEB9F84B06C4AA
311
193B58619062F22E2D3BA49D8D686346AD1B710755081881E8473E3A08FA86B32A548A5911EEC5A2F45D4D58F022D3592745883E0720DB937582F4185CF21A832837568A94CCB86BCC987F9AAB410FB21FDE874BCF07DA72DED3BA65AFB4E9879EBEB5CD85F1FA65380E4C94AB598A68E69F8CDAA38A3882AC18AF28E39437
311
1FAC39D5CD891F283B9E5836ADF23FA6B48CFF342563E3A1DAE36EB60092E7204F428A72ED2BAF679979AFDDCA6F504B010214000A0000080000074632403DEE336E79000000790000001B00000000000000000000000000000000006175746F6465736B2D64657369676E2D7061636B6167652E786D6C504B010214001400
311
0608080007463240D486FD9CA0000000F40000001300000000000000000000000000B20000005B436F6E74656E745F54797065735D2E786D6C504B0102140014000608080007463240BEB6CBC5EB0000007C010000080000000000000000000000000083010000636F72652E786D6C504B0102140014000608080007463240
311
55019EA25F0000007C000000070000000000000000000000000094020000636E782E786D6C504B0102140014000608080007463240B4C2D14C68010000020300000C00000000000000000000000000180300006662782F636F72652E786D6C504B0102140014000608080007463240D7908D887C0000009D0000000B000000
311
00000000000000000000AA0400006662782F636E782E786D6C504B010214001400060808000746324077A91F032E0100001402000031000000000000000000000000004F0500006662782F43413933303644352D313333382D343543432D423936332D3941364238373733343833332F636F72652E786D6C504B0102140014
311
00060808000746324030F360374D010000330300003000000000000000000000000000CC0600006662782F43413933303644352D313333382D343543432D423936332D3941364238373733343833332F636E782E786D6C504B010214001400060808000746324089459234990500007A100000340000000000000000000000
311
0000670800006662782F43413933303644352D313333382D343543432D423936332D3941364238373733343833332F6F626A656374732E786D6C504B01021400140006080000074632400000000000000000000000003500000000000000000000000000520E00006662782F43413933303644352D313333382D343543432D
311
423936332D3941364238373733343833332F76657274696365732E62696E504B0102140014000608080007463240F270F13306000000040000003600000000000000000000000000A50E00006662782F43413933303644352D313333382D343543432D423936332D3941364238373733343833332F747269616E676C65732E
311
62696E504B01021400140006080000074632400000000000000000000000003700000000000000000000000000FF0E00006662782F43413933303644352D313333382D343543432D423936332D3941364238373733343833332F617474726962757465732E62696E504B0102140014000608080007463240D5987DFC8F0000
311
00410100003600000000000000000000000000540F00006662782F43413933303644352D313333382D343543432D423936332D3941364238373733343833332F6469726563746F72792E786D6C504B010214001400060808000746324078FFE2E3FB000000A00100003B00000000000000000000000000371000006662782F
311
43413933303644352D313333382D343543432D423936332D3941364238373733343833332F7265736F75726365732F636F72652E786D6C504B0506000000000E000E00800400008B1100000000
310
504B03040A0000080000064632403DEE336E79000000790000001B0000006175746F6465736B2D64657369676E2D7061636B6167652E786D6C3C3F786D6C2076657273696F6E3D22312E302220656E636F64696E673D227574662D3822203F3E3C666F726D6174733E3C666F726D61743E687474703A2F2F736368656D612E
310
6175746F6465736B2E636F6D2F64657369676E2D7061636B6167652F323030393C2F666F726D61743E3C2F666F726D6174733E504B030414000608080006463240D486FD9CA0000000F4000000130000005B436F6E74656E745F54797065735D2E786D6C7D8EC10E82300C865F65E91D8A1E8C310C0EEA1BF002731658846E
310
D98AC1B77784ABF1D8FE5FBFBF75BBCE937A534CCEB38643598122B6FEE978D0B0485F9C41B54DDD7D022595594E1A469170414C76A4D9A4D207E29CF43ECE46F218070CC6BECC4078ACAA135ACF422C856C0E68EA1BF5669944DDD7BCDE7B1F8E415D77AECB980613C2E4AC91FC167A2B244592486606FC29C8FD7F045B9A
310
EF7053A7E60B504B030414000608080006463240923928B4EA0000007C01000008000000636F72652E786D6C8D904D6EC3201085AF82668F0D26897F8489D2B43E412F80803828315806AA1EBF3871A476D7D58CDEBC6F66F4F8F17BBAA32FB304EB5D0FB420808C535E5B37F690E20537808E822FDEC75F36404E4EA68755
310
06C1C7C5A779939477D1B89855E7B5D94419828980D43D373D047535932C648AD9116EC52CD54D8EA6A0AF2EC329598D9E47ACCEFBECC59A05445B576D4B861A9FE8F91DEF1839E3B6397CE081ECEBB7960D8C9EF6BC5C61C1A39D5EF7D56264341A4445688509C5B4F9244DB76B3ACA30397484F072B5FF81D2ACFF0925EB
310
22ABB6779F580041F3238F81E0E59A452E8FA0725D73133F504B03041400060808000646324055019EA25F0000007C00000007000000636E782E786D6C4DCB3B0E80201045D1AD90E915ED2CF8AC45050C11660C8261F98AB1B07AC9C97D42D718D865D3E909258CFD00CCE24AC6E326A164D74DC0B4128928FF326038472B
310
A13128B1252AC747C6BAB984FC68F0B87FE8960A5C09FE86CFB69FBA01504B030414000608080006463240B5AFF54367010000020300000C0000006662782F636F72652E786D6C8D52ED8E8320107C15C27F04B41FDA509A5EEFFA04F70254A967AAD020983EFEAD1F8DD74BD33426486676766747C5EED6D4A8D3AEADACD9
310
621E318CB4C96D5199728B833F9314A39D14CE5AFFA70C23A31ABDC53D8CA5289D0DD709CAADF1DA78408D2DF404AAB6D51EA3BC86CB16B7F98F6E54A482878AF6125D557E51A58E780434D449D17A0706D038A43FB13C9F6E828EB8142154C5C456054CABCE95765866EB38CBD8714DF6FCF04916093B902C5D7D91235BAE
310
3FB2E498F0FD52D05E2C85AF9ABBBBDC69E5758165CC784C18273CFD66E966916E7842D86AC398A07DF983285C8B3745A1323E8927BBA3ACC592839181F8B72D44E451AB3AF043A5A07D88F01A127E0C1A028190BD3AD5F73D2E00753AF7D62D80296C98A94ED541C354868647D09185CE4303D8EC699FF8459FD73DE0032A
310
538235E5E17A0ABE9F2EC6A9531457ED48E76FC858D7A87A36375A9CCF79D053796E6BEBDE51D369553A8549FBBF57FE02504B030414000608080006463240C1FDB3A27D0000009D0000000B0000006662782F636E782E786D6C4DCCD10A83201886E15B91FFDCE550CB033528F43E6259C84CC3E9D8E5AF46073BFAE0E1E3
310
95FD670BE8EDF2CBA7A8E07E23805C7CA4D9C755412D0B16807A2D734AE5EF06284E9B53703268B9E654F78B66B74C359443838FCF0B8D15967336626E0CC1ACEB2C1E686BB02574302D11948D2D345A36BFD2B167587F01504B030414000608080006463240FF0E25392A01000014020000310000006662782F4546384635
310
3534432D354545302D343737462D423336452D4630334245363038333443362F636F72652E786D6C8D51CB6EC32010FC15C4293D6083711C2BC2444A647F417F8060E2A2C460F1A8F2F985DA91DA5B2E2C9A9D991DEDB2D3737E806FE5BCB6A683A4C0102823EDA8CDD4C1186EA885E0C499B336FCA14160C4AC3A9861C8D9
310
E46C5C36485A139409093576541B28BC570102F9489F0E7AF9A56651881812C3DF8B45C8BB9854418AD44E3CCE7C7029005887E417F27E6887FDBEBEA07DDF63541F0E033AD3A64703A6E7BEC12DAD2F0D2B57216731EA7193EB31C5D137ADDCBB2659CC59D0F32BBE744A0435425E6152214C10693F717BACDB23A1083747
310
8C5999E9FF447119DF14456D02ADB6B8ABCC434E58B936381B6DBC3E5E61D473B12E803C6FE795FC801C17B8AAE8216563E54A4D0B489E4DBD79FA605D5AF0EE7E4D6CBA1937356765BE512ABF074C35DF93FF00504B0304140006080800064632405654AF205401000033030000300000006662782F45463846353534432D
310
354545302D343737462D423336452D4630334245363038333443362F636E782E786D6CBD93CD6EC32010845F0571F75F6259568489D4439FA0875E096C121A0C163F55F3F65D1292E69243A5AA1764CD0E33AB4F986DBF66433EC107EDEC44BBBAA504AC744ADBC34453DC5723255BCEBC73F1C1468915334C34CB94B38377
310
69299282BD4826A26AB43D15D14370C94B0828E79BC438290C0680AD128A30EF402950E46EC4AF3D785C05C5DD99C42390D79777E2761F2063604D4EE1ACC91D9CE5B3343D982891468430D1208F308B5AA4E8148453AD44147557DFBA9EECF49344F2855B65F29AE4F289E693F2B2518D1C598343CE42F448AF98E27901CA
310
C5B2182D4544C8CDC578F57096B48D435FBC1AC17B74AF57C33862D865C659D4331487F4202228CA576DB7AADAAEEAC6B776DCF4E3A65B57EDB0695BD6643B673BE74CB98431E0DD42A4B3116CA4BC634D1E3FC3577C44698FAC9D3FFF02240228AD573AF78CBFE4D30DEBBEFF473ECDE57D232E8F7F01FF06504B03041400
310
0608080006463240C1F2CCA756070000931B0000340000006662782F45463846353534432D354545302D343737462D423336452D4630334245363038333443362F6F626A656374732E786D6CED595B6FA33814FE2B887D0E0949DA695794519B4CAB68D599D16467B40F9190030EF5D618649B5EF6D7EFF1050234B464A7FB
310
360F0960ECE373BE73F521F8F89451E70173417276E1FADEC475308BF384B0F4C22DE56E74E63A1FC380E7B96C4C731D86327CE1AA61370C529E97851D4AF00E95547646AFAFFE72448C19769D9822212E5C11DFE10C79A8947982C5BD972089BC74F7E4F99E99D8269B7254DC7588168863268153186740C5314CF9EDC789
310
3B0E83B17A1F06EADFCE9A0D9A35EF9F35D652B7B9244C48C4E2172C75C8CC06B134F3E7CB4FD393F3D1C97C3E1BCD4FA7FEE8EAFA6A39F23FCC268BD3C5E2FCF2D339B0B7CD736A654A70815902FA7B76433F18AB37B5E81681435CC7396338D64002545AAC2E4182056CD5806FD27EF495448DD75AC2C6F35CBDB72C3486
310
676D2A7DB38601D1A20B82D8ED2A89AB6B53BE7CFB37082E861825175802B74272D0AE85878357B8E124189BD130D8EE7541849321893941D4A164CB1107A5C05435250CCC024B46390707528E92406BCEBC6EDB1678E6DBAE7388CB5D49A9F20C37D48E1581FB61293467E41FCCF7DC3791019E40DA92307966B994CF0576
310
C3F360AC07C3405D6653FBD200E9EC284A8546C4BCED08BA50AEBF5ABAE11FD7DBA7B50A0787372F785E602E95D1293D6ABEC090ED55A164B7F507694E2D00610CA876E51E946F80FC67881E7B56406F9C3CCD9FE676AEE488895DCE33D08D33714613F89B38BEFE57F78DBB605C2F6E6BAF0F4F705305D5D9CFE3D9964163
310
65F96FC019060F60F0399FD957EB1851B0E75BC2002065240ECD610842FB6EFBE4862B089C10E86115A2A10F2203BB0F701B8C2D99BD562AF7B25EC70051BBC76C889200366D91C0468F9E6E207B7012EFD5D414B10FDE937731D7CBE5FA8F75C97728C6B7D6A7977847189190350F33D4C2BC25D13D7E7ECC790282BEC47B
310
DDC43BB35B09405B61AE804F2B10D4C37EE7D60631AC4B73156E823776002154AE6ED0BF2522C6942286F3B2DAB78E6ECA506B8FB735831B4E0DC4B369C784397E20AAAA00A7D9CF68310A793FE6A45020BAE18D91AC0E9A5E8F74DF579FC122EBF93DB3560C422F43F44F1DB40EE0D0B2EC0A690B442DF0761FCEE39CE63C
310
DA3E4726D2B9504B001B6D6FF9D1220AB1DE284951010FD27E578594D4481B2564B72B05C4D5032CFE582D9AE630F166FE89D3FCEF38E31CA22DF82EE2D6EF3A7B442443298E7628E9DBAEB95B4D5B68923DA439DE51908B3C10F91C21194D129C1E03CD51C4CFDF957A4A732108C302F2D541F09B684C3C0824469B15CB4A
310
AB1DA08988322C113D060145A6075C9D76748D1B43E9F0368FB5F5BEA6B126D1FFC92238825A32671181521472C89B8CFBDE09C49036BA06E50EBE606D156D2D062DA184889FA3474CD23B790CEA867C0FEE311C494A19E5058AC1AC07907DE12B4AA91DDEB728BE57F9238A4BFA5E062230DD4584D2328BE047189C3C86B8
310
761D985E45A141DCC43E893328CA902CF9904D4E4F262FF631354337043636DA110A613BCA50D1837A2B20EA7AC4A9C1B7D47B94BA2DB32242595EB24186E2CDBADE64C977D5AAC80EE457958A503656842DC130204CD659B58AD960EA3AB0821BE940F51C099415D49CC2DE483C7EED4D9A72EF06DCFAE9FB6E9041E1D7A3
310
BD66449D5730581E5B8581784432BE73C3B5BE8EAEA0FE4E70B24FF555ADD9AC00013115C94B4EAC8ABEAFA0BCB1359A1BDE2229363726EB56D7EF2B0FBA1FC118D640ED522F5C29A033CC245295C9ADBAA1DF1084E0160D33BE5239F5182A9749A2AB4644AF499F3A5B65446BD38C78C51D6679063FB6212CA66582372811
310
F7D1ADA4D19A28D6AD945E462A8C5F15F0CBCDBA030F8C0C10E9AB2AF0F06367AD1D5DA872E920117957665B860804C19668A9D18D57B0D46AA4D2727D55670AA8BBC0C0AC8AE7BF4E16CD76C4AF93456A0DE3E74E1634DF22BA8F368D6C1E2BB33EEA1450A72745E53D4E01BAEB5053AD9388C9E5567CEB4B11C4C42AC80F
310
2EC6AA986108F671FC9F93765F1234DB75F83F2E69FB2F0A8EA3924A6BB26A521D285C57CD14E6FB578BF9747A3EFAB49CCEA13F7BB2189D9D7E988DFCD3C56C39B99E4EAF1B75ADF6D330A863994E5DF06C625A35AC9E2C06D094153925091CE61327C510F2251CE90774CF798605E4CE66AF3BB13DF901AB1F4C9B53A22D
310
C515277708FAC3544056078CCA58B6C79DDFA03329E19C7DE142CFC8BB873F6B95AE0389E7C2854E81243116DE16BA4CAA9FA78943C6D5A9DF12037C104B5546348BEAE77A95C2A615FDEB2943B28095ABD5C280BAAD80E657AB41A179B33CC547095EB1E32009B7DB5242B16664D90FD4C2E86DF6EA37B251C2EEEDD64FE0
310
BAAF8BE57B7A4E0B91415F0C5E3502437524114F75BB5B316659BA5C7E1D439BCD597D710A5AA6A0CBE194461C833197AA9E022B02ABB0340B24C15417BF6FBEF21CBEF0648E2E8A368B3CCB72661F2EE13896C01722677D07DF7B920D540D5875D5C5663AF1A71BDDCDB60DF6688B04F6543904035515A144E8181B58E48B
310
CE94ED5B8E95123AD3574BC7864FE802180B7AD1DC355FB71CF01EF51D45F98AF6F04ACE571BDA633D15AC81432B3AFC17504B030414000608000006463240000000000000000000000000350000006662782F45463846353534432D354545302D343737462D423336452D4630334245363038333443362F76657274696365
310
732E62696E504B030414000608080006463240F270F1330600000004000000360000006662782F45463846353534432D354545302D343737462D423336452D4630334245363038333443362F747269616E676C65732E62696E636660600000504B030414000608000006463240000000000000000000000000370000006662
310
782F45463846353534432D354545302D343737462D423336452D4630334245363038333443362F617474726962757465732E62696E504B030414000608080006463240D5987DFC8F00000041010000360000006662782F45463846353534432D354545302D343737462D423336452D4630334245363038333443362F646972
310
6563746F72792E786D6C858F410EC2201045AF4266AF15DDB800BA74E7C21B903225242D6328188F2FA5C4183471359997F9FF81E89FF3C41E1816475E02DF1F80A11FC8386F25A438EECEC07A250251FC3803E6F58C12560C4AD840E95E91C151A72936F496F35732D860FE635F62C8F2DA16B505C545B74125BAA2FA9E05
310
D7CC053D063734D5C7665FD55B6B8D15D5E9BFEAFD8490FFA45E504B0304140006080800064632408192062CFD000000A00100003B0000006662782F45463846353534432D354545302D343737462D423336452D4630334245363038333443362F7265736F75726365732F636F72652E786D6C8D504B6E833010BD0A9ABDC1
310
868400328ED2B49CA017B0CC845A0936F2A7EAF16B0295DA5D3733A3F7D13C3D7EFE9A1FD9273AAFADE981E5143234CA8EDA4C3DC470230D6467C19DB5E1970C322367EC618541F0C9D9B8EC90B226A009093576C41D94DE63804C3DD2D183571F38CB5CC69014FE9E2F52DDE58439CB139D7482FBE052806C7BB24E100EBD
310
8D4EA1E7C5C60A1EA31E778D1ED34F7DD3E840B4A7B26DE950930BBBBE924345AFA46DEA3732D0E3E9A5AD868A5D8EBC58CD82073DFF64540E65C011444959492823AC79A74D77683A56115A7794F26295FF31C565FCA7296A13AA728FBBD93C0896823C09C18BB5AFB49E65A6BD762BBE01504B010214000A000008000006
310
4632403DEE336E79000000790000001B00000000000000000000000000000000006175746F6465736B2D64657369676E2D7061636B6167652E786D6C504B0102140014000608080006463240D486FD9CA0000000F40000001300000000000000000000000000B20000005B436F6E74656E745F54797065735D2E786D6C504B
310
0102140014000608080006463240923928B4EA0000007C010000080000000000000000000000000083010000636F72652E786D6C504B010214001400060808000646324055019EA25F0000007C000000070000000000000000000000000093020000636E782E786D6C504B0102140014000608080006463240B5AFF5436701
310
0000020300000C00000000000000000000000000170300006662782F636F72652E786D6C504B0102140014000608080006463240C1FDB3A27D0000009D0000000B00000000000000000000000000A80400006662782F636E782E786D6C504B0102140014000608080006463240FF0E25392A01000014020000310000000000
310
00000000000000004E0500006662782F45463846353534432D354545302D343737462D423336452D4630334245363038333443362F636F72652E786D6C504B01021400140006080800064632405654AF2054010000330300003000000000000000000000000000C70600006662782F45463846353534432D354545302D3437
310
37462D423336452D4630334245363038333443362F636E782E786D6C504B0102140014000608080006463240C1F2CCA756070000931B00003400000000000000000000000000690800006662782F45463846353534432D354545302D343737462D423336452D4630334245363038333443362F6F626A656374732E786D6C50
310
4B01021400140006080000064632400000000000000000000000003500000000000000000000000000111000006662782F45463846353534432D354545302D343737462D423336452D4630334245363038333443362F76657274696365732E62696E504B0102140014000608080006463240F270F133060000000400000036
310
00000000000000000000000000641000006662782F45463846353534432D354545302D343737462D423336452D4630334245363038333443362F747269616E676C65732E62696E504B01021400140006080000064632400000000000000000000000003700000000000000000000000000BE1000006662782F454638463535
310
34432D354545302D343737462D423336452D4630334245363038333443362F617474726962757465732E62696E504B0102140014000608080006463240D5987DFC8F000000410100003600000000000000000000000000131100006662782F45463846353534432D354545302D343737462D423336452D4630334245363038
310
333443362F6469726563746F72792E786D6C504B01021400140006080800064632408192062CFD000000A00100003B00000000000000000000000000F61100006662782F45463846353534432D354545302D343737462D423336452D4630334245363038333443362F7265736F75726365732F636F72652E786D6C504B0506
310
000000000E000E00800400004C1300000000
  0
XRECORD
  5
27
102
{ACAD_REACTORS
330
22
102
}
330
22
100
AcDbXrecord
280
     1
270
     1
271
     1
  0
XRECORD
  5
26
102
{ACAD_REACTORS
330
22
102
}
330
22
100
AcDbXrecord
280
     1
270
     1
271
     1
  0
XRECORD
  5
28
102
{ACAD_REACTORS
330
22
102
}
330
22
100
AcDbXrecord
280
     1
270
     1
271
     1
  0
XRECORD
  5
25
102
{ACAD_REACTORS
330
22
102
}
330
22
100
AcDbXrecord
280
     1
270
     1
271
     1
  0
XRECORD
  5
FBA
102
{ACAD_REACTORS
330
FB9
102
}
330
FB9
100
AcDbXrecord
280
     1
102
ACAD_ROUNDTRIP_2012_MLEADER_STYLE
298
     1
  0
CELLSTYLEMAP
  5
FB8
102
{ACAD_REACTORS
330
FB7
102
}
330
FB7
100
AcDbCellStyleMap
 90
        3
300
CELLSTYLE
  1
TABLEFORMAT_BEGIN
 90
        5
170
     1
 91
        0
 92
    32768
 62
   257
 93
        1
300
CONTENTFORMAT
  1
CONTENTFORMAT_BEGIN
 90
        0
 91
        0
 92
      512
 93
        0
300

 40
0.0
140
1.0
 94
        5
 62
     0
340
55
144
0.25
309
CONTENTFORMAT_END
171
     0
 94
        0
309
TABLEFORMAT_END
  1
CELLSTYLE_BEGIN
 90
        1
 91
        1
300
_TITLE
309
CELLSTYLE_END
300
CELLSTYLE
  1
TABLEFORMAT_BEGIN
 90
        5
170
     1
 91
        0
 92
        0
 62
   257
 93
        1
300
CONTENTFORMAT
  1
CONTENTFORMAT_BEGIN
 90
        0
 91
        0
 92
      512
 93
        0
300

 40
0.0
140
1.0
 94
        5
 62
     0
340
55
144
0.18
309
CONTENTFORMAT_END
171
     0
 94
        0
309
TABLEFORMAT_END
  1
CELLSTYLE_BEGIN
 90
        2
 91
        1
300
_HEADER
309
CELLSTYLE_END
300
CELLSTYLE
  1
TABLEFORMAT_BEGIN
 90
        5
170
     1
 91
        0
 92
        0
 62
   257
 93
        1
300
CONTENTFORMAT
  1
CONTENTFORMAT_BEGIN
 90
        0
 91
        0
 92
      512
 93
        0
300

 40
0.0
140
1.0
 94
        2
 62
     0
340
55
144
0.18
309
CONTENTFORMAT_END
171
     0
 94
        0
309
TABLEFORMAT_END
  1
CELLSTYLE_BEGIN
 90
        3
 91
        2
300
_DATA
309
CELLSTYLE_END
  0
XRECORD
  5
FF2
102
{ACAD_REACTORS
330
FB7
102
}
330
FB7
100
AcDbXrecord
280
     1
102
ACAD_ROUNDTRIP_PRE2007_TABLESTYLE
 90
      512
 91
        0
  1

 92
      512
 93
        0
  2

 94
      512
 95
        0
  3

  0
XRECORD
  5
FCD
102
{ACAD_REACTORS
330
FCC
102
}
330
FCC
100
AcDbXrecord
280
     1
102
RTVSPropertyOp0
 70
     1
102
RTVSPropertyOp1
 70
     1
102
RTVSPropertyOp2
 70
     1
102
RTVSPropertyOp3
 70
     1
102
RTVSPropertyOp4
 70
     1
102
RTVSPropertyOp5
 70
     1
102
RTVSPropertyOp6
 70
     1
102
RTVSPropertyOp7
 70
     1
102
RTVSPropertyOp8
 70
     1
102
RTVSPropertyOp9
 70
     1
102
RTVSPropertyOp10
 70
     1
102
RTVSPropertyOp11
 70
     1
102
RTVSPropertyOp12
 70
     1
102
RTVSPropertyOp13
 70
     1
102
RTVSPropertyOp14
 70
     1
102
RTVSPropertyOp15
 70
     1
102
RTVSPropertyOp16
 70
     1
102
RTVSPropertyOp17
 70
     1
102
RTVSPropertyOp18
 70
     1
102
RTVSPropertyOp19
 70
     1
102
RTVSPropertyOp20
 70
     1
102
RTVSPropertyOp21
 70
     1
102
RTVSPropertyOp22
 70
     1
102
RTVSPropertyOp23
 70
     1
102
RTVSPropertyOp24
 70
     1
102
RTVSPropertyOp25
 70
     1
102
RTVSPropertyOp26
 70
     1
102
RTVSPropertyOp27
 70
     1
102
RTVSPropertyOp28
 70
     1
102
RTVSPropertyOp29
 70
     1
102
RTVSPropertyOp30
 70
     1
102
RTVSPropertyOp31
 70
     1
102
RTVSPropertyOp32
 70
     1
  0
XRECORD
  5
FCB
102
{ACAD_REACTORS
330
FCA
102
}
330
FCA
100
AcDbXrecord
280
     1
102
RTVSPropertyOp0
 70
     1
102
RTVSPropertyOp1
 70
     1
102
RTVSPropertyOp2
 70
     1
102
RTVSPropertyOp3
 70
     1
102
RTVSPropertyOp4
 70
     1
102
RTVSPropertyOp5
 70
     1
102
RTVSPropertyOp6
 70
     1
102
RTVSPropertyOp7
 70
     1
102
RTVSPropertyOp8
 70
     1
102
RTVSPropertyOp9
 70
     1
102
RTVSPropertyOp10
 70
     1
102
RTVSPropertyOp11
 70
     1
102
RTVSPropertyOp12
 70
     1
102
RTVSPropertyOp13
 70
     1
102
RTVSPropertyOp14
 70
     1
102
RTVSPropertyOp15
 70
     1
102
RTVSPropertyOp16
 70
     1
102
RTVSPropertyOp17
 70
     1
102
RTVSPropertyOp18
 70
     1
102
RTVSPropertyOp19
 70
     1
102
RTVSPropertyOp20
 70
     1
102
RTVSPropertyOp21
 70
     1
102
RTVSPropertyOp22
 70
     1
102
RTVSPropertyOp23
 70
     1
102
RTVSPropertyOp24
 70
     1
102
RTVSPropertyOp25
 70
     1
102
RTVSPropertyOp26
 70
     1
102
RTVSPropertyOp27
 70
     1
102
RTVSPropertyOp28
 70
     1
102
RTVSPropertyOp29
 70
     1
102
RTVSPropertyOp30
 70
     1
102
RTVSPropertyOp31
 70
     1
102
RTVSPropertyOp32
 70
     1
  0
XRECORD
  5
FD9
102
{ACAD_REACTORS
330
FD8
102
}
330
FD8
100
AcDbXrecord
280
     1
102
RTVSPropertyOp0
 70
     1
102
RTVSPropertyOp1
 70
     1
102
RTVSPropertyOp2
 70
     1
102
RTVSPropertyOp3
 70
     1
102
RTVSPropertyOp4
 70
     1
102
RTVSPropertyOp5
 70
     1
102
RTVSPropertyOp6
 70
     1
102
RTVSPropertyOp7
 70
     1
102
RTVSPropertyOp8
 70
     1
102
RTVSPropertyOp9
 70
     1
102
RTVSPropertyOp10
 70
     1
102
RTVSPropertyOp11
 70
     1
102
RTVSPropertyOp12
 70
     1
102
RTVSPropertyOp13
 70
     1
102
RTVSPropertyOp14
 70
     1
102
RTVSPropertyOp15
 70
     1
102
RTVSPropertyOp16
 70
     1
102
RTVSPropertyOp17
 70
     1
102
RTVSPropertyOp18
 70
     1
102
RTVSPropertyOp19
 70
     1
102
RTVSPropertyOp20
 70
     1
102
RTVSPropertyOp21
 70
     1
102
RTVSPropertyOp22
 70
     1
102
RTVSPropertyOp23
 70
     1
102
RTVSPropertyOp24
 70
     1
102
RTVSPropertyOp25
 70
     1
102
RTVSPropertyOp26
 70
     1
102
RTVSPropertyOp27
 70
     1
102
RTVSPropertyOp28
 70
     1
102
RTVSPropertyOp29
 70
     1
102
RTVSPropertyOp30
 70
     1
102
RTVSPropertyOp31
 70
     1
102
RTVSPropertyOp32
 70
     1
  0
XRECORD
  5
FE1
102
{ACAD_REACTORS
330
FE0
102
}
330
FE0
100
AcDbXrecord
280
     1
102
RTVSPropertyOp0
 70
     1
102
RTVSPropertyOp1
 70
     1
102
RTVSPropertyOp2
 70
     1
102
RTVSPropertyOp3
 70
     1
102
RTVSPropertyOp4
 70
     1
102
RTVSPropertyOp5
 70
     1
102
RTVSPropertyOp6
 70
     1
102
RTVSPropertyOp7
 70
     1
102
RTVSPropertyOp8
 70
     1
102
RTVSPropertyOp9
 70
     1
102
RTVSPropertyOp10
 70
     1
102
RTVSPropertyOp11
 70
     1
102
RTVSPropertyOp12
 70
     1
102
RTVSPropertyOp13
 70
     1
102
RTVSPropertyOp14
 70
     1
102
RTVSPropertyOp15
 70
     1
102
RTVSPropertyOp16
 70
     1
102
RTVSPropertyOp17
 70
     1
102
RTVSPropertyOp18
 70
     1
102
RTVSPropertyOp19
 70
     1
102
RTVSPropertyOp20
 70
     1
102
RTVSPropertyOp21
 70
     1
102
RTVSPropertyOp22
 70
     1
102
RTVSPropertyOp23
 70
     1
102
RTVSPropertyOp24
 70
     1
102
RTVSPropertyOp25
 70
     1
102
RTVSPropertyOp26
 70
     1
102
RTVSPropertyOp27
 70
     1
102
RTVSPropertyOp28
 70
     1
102
RTVSPropertyOp29
 70
     1
102
RTVSPropertyOp30
 70
     1
102
RTVSPropertyOp31
 70
     1
102
RTVSPropertyOp32
 70
     1
  0
XRECORD
  5
FD3
102
{ACAD_REACTORS
330
FD2
102
}
330
FD2
100
AcDbXrecord
280
     1
102
RTVSPropertyOp0
 70
     1
102
RTVSPropertyOp1
 70
     1
102
RTVSPropertyOp2
 70
     1
102
RTVSPropertyOp3
 70
     1
102
RTVSPropertyOp4
 70
     1
102
RTVSPropertyOp5
 70
     1
102
RTVSPropertyOp6
 70
     1
102
RTVSPropertyOp7
 70
     1
102
RTVSPropertyOp8
 70
     1
102
RTVSPropertyOp9
 70
     1
102
RTVSPropertyOp10
 70
     1
102
RTVSPropertyOp11
 70
     1
102
RTVSPropertyOp12
 70
     1
102
RTVSPropertyOp13
 70
     1
102
RTVSPropertyOp14
 70
     1
102
RTVSPropertyOp15
 70
     1
102
RTVSPropertyOp16
 70
     1
102
RTVSPropertyOp17
 70
     1
102
RTVSPropertyOp18
 70
     1
102
RTVSPropertyOp19
 70
     1
102
RTVSPropertyOp20
 70
     1
102
RTVSPropertyOp21
 70
     1
102
RTVSPropertyOp22
 70
     1
102
RTVSPropertyOp23
 70
     1
102
RTVSPropertyOp24
 70
     1
102
RTVSPropertyOp25
 70
     1
102
RTVSPropertyOp26
 70
     1
102
RTVSPropertyOp27
 70
     1
102
RTVSPropertyOp28
 70
     1
102
RTVSPropertyOp29
 70
     1
102
RTVSPropertyOp30
 70
     1
102
RTVSPropertyOp31
 70
     1
102
RTVSPropertyOp32
 70
     1
  0
XRECORD
  5
FD7
102
{ACAD_REACTORS
330
FD6
102
}
330
FD6
100
AcDbXrecord
280
     1
102
RTVSPropertyOp0
 70
     1
102
RTVSPropertyOp1
 70
     1
102
RTVSPropertyOp2
 70
     1
102
RTVSPropertyOp3
 70
     1
102
RTVSPropertyOp4
 70
     1
102
RTVSPropertyOp5
 70
     1
102
RTVSPropertyOp6
 70
     1
102
RTVSPropertyOp7
 70
     1
102
RTVSPropertyOp8
 70
     1
102
RTVSPropertyOp9
 70
     1
102
RTVSPropertyOp10
 70
     1
102
RTVSPropertyOp11
 70
     1
102
RTVSPropertyOp12
 70
     1
102
RTVSPropertyOp13
 70
     1
102
RTVSPropertyOp14
 70
     1
102
RTVSPropertyOp15
 70
     1
102
RTVSPropertyOp16
 70
     1
102
RTVSPropertyOp17
 70
     1
102
RTVSPropertyOp18
 70
     1
102
RTVSPropertyOp19
 70
     1
102
RTVSPropertyOp20
 70
     1
102
RTVSPropertyOp21
 70
     1
102
RTVSPropertyOp22
 70
     1
102
RTVSPropertyOp23
 70
     1
102
RTVSPropertyOp24
 70
     1
102
RTVSPropertyOp25
 70
     1
102
RTVSPropertyOp26
 70
     1
102
RTVSPropertyOp27
 70
     1
102
RTVSPropertyOp28
 70
     1
102
RTVSPropertyOp29
 70
     1
102
RTVSPropertyOp30
 70
     1
102
RTVSPropertyOp31
 70
     1
102
RTVSPropertyOp32
 70
     1
  0
XRECORD
  5
FF1
102
{ACAD_REACTORS
330
FF0
102
}
330
FF0
100
AcDbXrecord
280
     1
102
RTVSPropertyOp0
 70
     0
102
RTVSPropertyOp1
 70
     0
102
RTVSPropertyOp2
 70
     0
102
RTVSPropertyOp3
 70
     0
102
RTVSPropertyOp4
 70
     0
102
RTVSPropertyOp5
 70
     0
102
RTVSPropertyOp6
 70
     0
102
RTVSPropertyOp7
 70
     0
102
RTVSPropertyOp8
 70
     0
102
RTVSPropertyOp9
 70
     0
102
RTVSPropertyOp10
 70
     0
102
RTVSPropertyOp11
 70
     0
102
RTVSPropertyOp12
 70
     0
102
RTVSPropertyOp13
 70
     0
102
RTVSPropertyOp14
 70
     2
102
RTVSPropertyOp15
 70
     0
102
RTVSPropertyOp16
 70
     0
102
RTVSPropertyOp17
 70
     0
102
RTVSPropertyOp18
 70
     0
102
RTVSPropertyOp19
 70
     0
102
RTVSPropertyOp20
 70
     0
102
RTVSPropertyOp21
 70
     0
102
RTVSPropertyOp22
 70
     0
102
RTVSPropertyOp23
 70
     0
102
RTVSPropertyOp24
 70
     0
102
RTVSPropertyOp25
 70
     0
102
RTVSPropertyOp26
 70
     0
102
RTVSPropertyOp27
 70
     0
102
RTVSPropertyOp28
 70
     1
102
RTVSPropertyOp29
 70
     1
102
RTVSPropertyOp30
 70
     1
102
RTVSPropertyOp31
 70
     1
102
RTVSPropertyOp32
 70
     1
  0
XRECORD
  5
FDF
102
{ACAD_REACTORS
330
FDE
102
}
330
FDE
100
AcDbXrecord
280
     1
102
RTVSPropertyOp0
 70
     1
102
RTVSPropertyOp1
 70
     1
102
RTVSPropertyOp2
 70
     1
102
RTVSPropertyOp3
 70
     1
102
RTVSPropertyOp4
 70
     1
102
RTVSPropertyOp5
 70
     1
102
RTVSPropertyOp6
 70
     1
102
RTVSPropertyOp7
 70
     1
102
RTVSPropertyOp8
 70
     1
102
RTVSPropertyOp9
 70
     1
102
RTVSPropertyOp10
 70
     1
102
RTVSPropertyOp11
 70
     1
102
RTVSPropertyOp12
 70
     1
102
RTVSPropertyOp13
 70
     1
102
RTVSPropertyOp14
 70
     1
102
RTVSPropertyOp15
 70
     1
102
RTVSPropertyOp16
 70
     1
102
RTVSPropertyOp17
 70
     1
102
RTVSPropertyOp18
 70
     1
102
RTVSPropertyOp19
 70
     1
102
RTVSPropertyOp20
 70
     1
102
RTVSPropertyOp21
 70
     1
102
RTVSPropertyOp22
 70
     1
102
RTVSPropertyOp23
 70
     1
102
RTVSPropertyOp24
 70
     1
102
RTVSPropertyOp25
 70
     1
102
RTVSPropertyOp26
 70
     1
102
RTVSPropertyOp27
 70
     1
102
RTVSPropertyOp28
 70
     1
102
RTVSPropertyOp29
 70
     1
102
RTVSPropertyOp30
 70
     1
102
RTVSPropertyOp31
 70
     1
102
RTVSPropertyOp32
 70
     1
  0
XRECORD
  5
FC3
102
{ACAD_REACTORS
330
FC2
102
}
330
FC2
100
AcDbXrecord
280
     1
102
RTVSPropertyOp0
 70
     1
102
RTVSPropertyOp1
 70
     1
102
RTVSPropertyOp2
 70
     1
102
RTVSPropertyOp3
 70
     1
102
RTVSPropertyOp4
 70
     1
102
RTVSPropertyOp5
 70
     1
102
RTVSPropertyOp6
 70
     1
102
RTVSPropertyOp7
 70
     1
102
RTVSPropertyOp8
 70
     1
102
RTVSPropertyOp9
 70
     1
102
RTVSPropertyOp10
 70
     1
102
RTVSPropertyOp11
 70
     1
102
RTVSPropertyOp12
 70
     1
102
RTVSPropertyOp13
 70
     1
102
RTVSPropertyOp14
 70
     1
102
RTVSPropertyOp15
 70
     1
102
RTVSPropertyOp16
 70
     1
102
RTVSPropertyOp17
 70
     1
102
RTVSPropertyOp18
 70
     1
102
RTVSPropertyOp19
 70
     1
102
RTVSPropertyOp20
 70
     1
102
RTVSPropertyOp21
 70
     1
102
RTVSPropertyOp22
 70
     1
102
RTVSPropertyOp23
 70
     1
102
RTVSPropertyOp24
 70
     1
102
RTVSPropertyOp25
 70
     1
102
RTVSPropertyOp26
 70
     1
102
RTVSPropertyOp27
 70
     1
102
RTVSPropertyOp28
 70
     1
102
RTVSPropertyOp29
 70
     1
102
RTVSPropertyOp30
 70
     1
102
RTVSPropertyOp31
 70
     1
102
RTVSPropertyOp32
 70
     1
  0
XRECORD
  5
FC5
102
{ACAD_REACTORS
330
FC4
102
}
330
FC4
100
AcDbXrecord
280
     1
102
RTVSPropertyOp0
 70
     1
102
RTVSPropertyOp1
 70
     1
102
RTVSPropertyOp2
 70
     1
102
RTVSPropertyOp3
 70
     1
102
RTVSPropertyOp4
 70
     1
102
RTVSPropertyOp5
 70
     1
102
RTVSPropertyOp6
 70
     1
102
RTVSPropertyOp7
 70
     1
102
RTVSPropertyOp8
 70
     1
102
RTVSPropertyOp9
 70
     1
102
RTVSPropertyOp10
 70
     1
102
RTVSPropertyOp11
 70
     1
102
RTVSPropertyOp12
 70
     1
102
RTVSPropertyOp13
 70
     1
102
RTVSPropertyOp14
 70
     1
102
RTVSPropertyOp15
 70
     1
102
RTVSPropertyOp16
 70
     1
102
RTVSPropertyOp17
 70
     1
102
RTVSPropertyOp18
 70
     1
102
RTVSPropertyOp19
 70
     1
102
RTVSPropertyOp20
 70
     1
102
RTVSPropertyOp21
 70
     1
102
RTVSPropertyOp22
 70
     1
102
RTVSPropertyOp23
 70
     1
102
RTVSPropertyOp24
 70
     1
102
RTVSPropertyOp25
 70
     1
102
RTVSPropertyOp26
 70
     1
102
RTVSPropertyOp27
 70
     1
102
RTVSPropertyOp28
 70
     1
102
RTVSPropertyOp29
 70
     1
102
RTVSPropertyOp30
 70
     1
102
RTVSPropertyOp31
 70
     1
102
RTVSPropertyOp32
 70
     1
  0
XRECORD
  5
FC7
102
{ACAD_REACTORS
330
FC6
102
}
330
FC6
100
AcDbXrecord
280
     1
102
RTVSPropertyOp0
 70
     1
102
RTVSPropertyOp1
 70
     1
102
RTVSPropertyOp2
 70
     1
102
RTVSPropertyOp3
 70
     1
102
RTVSPropertyOp4
 70
     1
102
RTVSPropertyOp5
 70
     1
102
RTVSPropertyOp6
 70
     1
102
RTVSPropertyOp7
 70
     1
102
RTVSPropertyOp8
 70
     1
102
RTVSPropertyOp9
 70
     1
102
RTVSPropertyOp10
 70
     1
102
RTVSPropertyOp11
 70
     1
102
RTVSPropertyOp12
 70
     1
102
RTVSPropertyOp13
 70
     1
102
RTVSPropertyOp14
 70
     1
102
RTVSPropertyOp15
 70
     1
102
RTVSPropertyOp16
 70
     1
102
RTVSPropertyOp17
 70
     1
102
RTVSPropertyOp18
 70
     1
102
RTVSPropertyOp19
 70
     1
102
RTVSPropertyOp20
 70
     1
102
RTVSPropertyOp21
 70
     1
102
RTVSPropertyOp22
 70
     1
102
RTVSPropertyOp23
 70
     1
102
RTVSPropertyOp24
 70
     1
102
RTVSPropertyOp25
 70
     1
102
RTVSPropertyOp26
 70
     1
102
RTVSPropertyOp27
 70
     1
102
RTVSPropertyOp28
 70
     1
102
RTVSPropertyOp29
 70
     1
102
RTVSPropertyOp30
 70
     1
102
RTVSPropertyOp31
 70
     1
102
RTVSPropertyOp32
 70
     1
  0
XRECORD
  5
FC9
102
{ACAD_REACTORS
330
FC8
102
}
330
FC8
100
AcDbXrecord
280
     1
102
RTVSPropertyOp0
 70
     1
102
RTVSPropertyOp1
 70
     1
102
RTVSPropertyOp2
 70
     1
102
RTVSPropertyOp3
 70
     1
102
RTVSPropertyOp4
 70
     1
102
RTVSPropertyOp5
 70
     1
102
RTVSPropertyOp6
 70
     1
102
RTVSPropertyOp7
 70
     1
102
RTVSPropertyOp8
 70
     1
102
RTVSPropertyOp9
 70
     1
102
RTVSPropertyOp10
 70
     1
102
RTVSPropertyOp11
 70
     1
102
RTVSPropertyOp12
 70
     1
102
RTVSPropertyOp13
 70
     1
102
RTVSPropertyOp14
 70
     1
102
RTVSPropertyOp15
 70
     1
102
RTVSPropertyOp16
 70
     1
102
RTVSPropertyOp17
 70
     1
102
RTVSPropertyOp18
 70
     1
102
RTVSPropertyOp19
 70
     1
102
RTVSPropertyOp20
 70
     1
102
RTVSPropertyOp21
 70
     1
102
RTVSPropertyOp22
 70
     1
102
RTVSPropertyOp23
 70
     1
102
RTVSPropertyOp24
 70
     1
102
RTVSPropertyOp25
 70
     1
102
RTVSPropertyOp26
 70
     1
102
RTVSPropertyOp27
 70
     1
102
RTVSPropertyOp28
 70
     1
102
RTVSPropertyOp29
 70
     1
102
RTVSPropertyOp30
 70
     1
102
RTVSPropertyOp31
 70
     1
102
RTVSPropertyOp32
 70
     1
  0
XRECORD
  5
FD1
102
{ACAD_REACTORS
330
FD0
102
}
330
FD0
100
AcDbXrecord
280
     1
102
RTVSPropertyOp0
 70
     1
102
RTVSPropertyOp1
 70
     1
102
RTVSPropertyOp2
 70
     1
102
RTVSPropertyOp3
 70
     1
102
RTVSPropertyOp4
 70
     1
102
RTVSPropertyOp5
 70
     1
102
RTVSPropertyOp6
 70
     1
102
RTVSPropertyOp7
 70
     1
102
RTVSPropertyOp8
 70
     1
102
RTVSPropertyOp9
 70
     1
102
RTVSPropertyOp10
 70
     1
102
RTVSPropertyOp11
 70
     1
102
RTVSPropertyOp12
 70
     1
102
RTVSPropertyOp13
 70
     1
102
RTVSPropertyOp14
 70
     1
102
RTVSPropertyOp15
 70
     1
102
RTVSPropertyOp16
 70
     1
102
RTVSPropertyOp17
 70
     1
102
RTVSPropertyOp18
 70
     1
102
RTVSPropertyOp19
 70
     1
102
RTVSPropertyOp20
 70
     1
102
RTVSPropertyOp21
 70
     1
102
RTVSPropertyOp22
 70
     1
102
RTVSPropertyOp23
 70
     1
102
RTVSPropertyOp24
 70
     1
102
RTVSPropertyOp25
 70
     1
102
RTVSPropertyOp26
 70
     1
102
RTVSPropertyOp27
 70
     1
102
RTVSPropertyOp28
 70
     1
102
RTVSPropertyOp29
 70
     1
102
RTVSPropertyOp30
 70
     1
102
RTVSPropertyOp31
 70
     1
102
RTVSPropertyOp32
 70
     1
  0
XRECORD
  5
FED
102
{ACAD_REACTORS
330
FEC
102
}
330
FEC
100
AcDbXrecord
280
     1
102
RTVSPropertyOp0
 70
     0
102
RTVSPropertyOp1
 70
     0
102
RTVSPropertyOp2
 70
     0
102
RTVSPropertyOp3
 70
     0
102
RTVSPropertyOp4
 70
     0
102
RTVSPropertyOp5
 70
     0
102
RTVSPropertyOp6
 70
     0
102
RTVSPropertyOp7
 70
     0
102
RTVSPropertyOp8
 70
     0
102
RTVSPropertyOp9
 70
     0
102
RTVSPropertyOp10
 70
     0
102
RTVSPropertyOp11
 70
     0
102
RTVSPropertyOp12
 70
     0
102
RTVSPropertyOp13
 70
     0
102
RTVSPropertyOp14
 70
     2
102
RTVSPropertyOp15
 70
     0
102
RTVSPropertyOp16
 70
     0
102
RTVSPropertyOp17
 70
     0
102
RTVSPropertyOp18
 70
     0
102
RTVSPropertyOp19
 70
     0
102
RTVSPropertyOp20
 70
     0
102
RTVSPropertyOp21
 70
     0
102
RTVSPropertyOp22
 70
     0
102
RTVSPropertyOp23
 70
     0
102
RTVSPropertyOp24
 70
     0
102
RTVSPropertyOp25
 70
     0
102
RTVSPropertyOp26
 70
     0
102
RTVSPropertyOp27
 70
     0
102
RTVSPropertyOp28
 70
     1
102
RTVSPropertyOp29
 70
     1
102
RTVSPropertyOp30
 70
     1
102
RTVSPropertyOp31
 70
     1
102
RTVSPropertyOp32
 70
     1
  0
XRECORD
  5
FDD
102
{ACAD_REACTORS
330
FDC
102
}
330
FDC
100
AcDbXrecord
280
     1
102
RTVSPropertyOp0
 70
     1
102
RTVSPropertyOp1
 70
     1
102
RTVSPropertyOp2
 70
     1
102
RTVSPropertyOp3
 70
     1
102
RTVSPropertyOp4
 70
     1
102
RTVSPropertyOp5
 70
     1
102
RTVSPropertyOp6
 70
     1
102
RTVSPropertyOp7
 70
     1
102
RTVSPropertyOp8
 70
     1
102
RTVSPropertyOp9
 70
     1
102
RTVSPropertyOp10
 70
     1
102
RTVSPropertyOp11
 70
     1
102
RTVSPropertyOp12
 70
     1
102
RTVSPropertyOp13
 70
     1
102
RTVSPropertyOp14
 70
     1
102
RTVSPropertyOp15
 70
     1
102
RTVSPropertyOp16
 70
     1
102
RTVSPropertyOp17
 70
     1
102
RTVSPropertyOp18
 70
     1
102
RTVSPropertyOp19
 70
     1
102
RTVSPropertyOp20
 70
     1
102
RTVSPropertyOp21
 70
     1
102
RTVSPropertyOp22
 70
     1
102
RTVSPropertyOp23
 70
     1
102
RTVSPropertyOp24
 70
     1
102
RTVSPropertyOp25
 70
     1
102
RTVSPropertyOp26
 70
     1
102
RTVSPropertyOp27
 70
     1
102
RTVSPropertyOp28
 70
     1
102
RTVSPropertyOp29
 70
     1
102
RTVSPropertyOp30
 70
     1
102
RTVSPropertyOp31
 70
     1
102
RTVSPropertyOp32
 70
     1
  0
XRECORD
  5
FEF
102
{ACAD_REACTORS
330
FEE
102
}
330
FEE
100
AcDbXrecord
280
     1
102
RTVSPropertyOp0
 70
     0
102
RTVSPropertyOp1
 70
     0
102
RTVSPropertyOp2
 70
     0
102
RTVSPropertyOp3
 70
     0
102
RTVSPropertyOp4
 70
     0
102
RTVSPropertyOp5
 70
     0
102
RTVSPropertyOp6
 70
     0
102
RTVSPropertyOp7
 70
     0
102
RTVSPropertyOp8
 70
     0
102
RTVSPropertyOp9
 70
     0
102
RTVSPropertyOp10
 70
     0
102
RTVSPropertyOp11
 70
     0
102
RTVSPropertyOp12
 70
     0
102
RTVSPropertyOp13
 70
     0
102
RTVSPropertyOp14
 70
     2
102
RTVSPropertyOp15
 70
     0
102
RTVSPropertyOp16
 70
     0
102
RTVSPropertyOp17
 70
     0
102
RTVSPropertyOp18
 70
     0
102
RTVSPropertyOp19
 70
     0
102
RTVSPropertyOp20
 70
     0
102
RTVSPropertyOp21
 70
     0
102
RTVSPropertyOp22
 70
     0
102
RTVSPropertyOp23
 70
     0
102
RTVSPropertyOp24
 70
     0
102
RTVSPropertyOp25
 70
     0
102
RTVSPropertyOp26
 70
     0
102
RTVSPropertyOp27
 70
     0
102
RTVSPropertyOp28
 70
     1
102
RTVSPropertyOp29
 70
     1
102
RTVSPropertyOp30
 70
     1
102
RTVSPropertyOp31
 70
     1
102
RTVSPropertyOp32
 70
     1
  0
XRECORD
  5
FD5
102
{ACAD_REACTORS
330
FD4
102
}
330
FD4
100
AcDbXrecord
280
     1
102
RTVSPropertyOp0
 70
     1
102
RTVSPropertyOp1
 70
     1
102
RTVSPropertyOp2
 70
     1
102
RTVSPropertyOp3
 70
     1
102
RTVSPropertyOp4
 70
     1
102
RTVSPropertyOp5
 70
     1
102
RTVSPropertyOp6
 70
     1
102
RTVSPropertyOp7
 70
     1
102
RTVSPropertyOp8
 70
     1
102
RTVSPropertyOp9
 70
     1
102
RTVSPropertyOp10
 70
     1
102
RTVSPropertyOp11
 70
     1
102
RTVSPropertyOp12
 70
     1
102
RTVSPropertyOp13
 70
     1
102
RTVSPropertyOp14
 70
     1
102
RTVSPropertyOp15
 70
     1
102
RTVSPropertyOp16
 70
     1
102
RTVSPropertyOp17
 70
     1
102
RTVSPropertyOp18
 70
     1
102
RTVSPropertyOp19
 70
     1
102
RTVSPropertyOp20
 70
     1
102
RTVSPropertyOp21
 70
     1
102
RTVSPropertyOp22
 70
     1
102
RTVSPropertyOp23
 70
     1
102
RTVSPropertyOp24
 70
     1
102
RTVSPropertyOp25
 70
     1
102
RTVSPropertyOp26
 70
     1
102
RTVSPropertyOp27
 70
     1
102
RTVSPropertyOp28
 70
     1
102
RTVSPropertyOp29
 70
     1
102
RTVSPropertyOp30
 70
     1
102
RTVSPropertyOp31
 70
     1
102
RTVSPropertyOp32
 70
     1
  0
XRECORD
  5
FEB
102
{ACAD_REACTORS
330
FEA
102
}
330
FEA
100
AcDbXrecord
280
     1
102
RTVSPropertyOp0
 70
     1
102
RTVSPropertyOp1
 70
     1
102
RTVSPropertyOp2
 70
     1
102
RTVSPropertyOp3
 70
     1
102
RTVSPropertyOp4
 70
     1
102
RTVSPropertyOp5
 70
     1
102
RTVSPropertyOp6
 70
     1
102
RTVSPropertyOp7
 70
     1
102
RTVSPropertyOp8
 70
     1
102
RTVSPropertyOp9
 70
     1
102
RTVSPropertyOp10
 70
     1
102
RTVSPropertyOp11
 70
     1
102
RTVSPropertyOp12
 70
     1
102
RTVSPropertyOp13
 70
     1
102
RTVSPropertyOp14
 70
     1
102
RTVSPropertyOp15
 70
     1
102
RTVSPropertyOp16
 70
     1
102
RTVSPropertyOp17
 70
     1
102
RTVSPropertyOp18
 70
     1
102
RTVSPropertyOp19
 70
     1
102
RTVSPropertyOp20
 70
     1
102
RTVSPropertyOp21
 70
     1
102
RTVSPropertyOp22
 70
     1
102
RTVSPropertyOp23
 70
     1
102
RTVSPropertyOp24
 70
     1
102
RTVSPropertyOp25
 70
     1
102
RTVSPropertyOp26
 70
     1
102
RTVSPropertyOp27
 70
     1
102
RTVSPropertyOp28
 70
     1
102
RTVSPropertyOp29
 70
     1
102
RTVSPropertyOp30
 70
     1
102
RTVSPropertyOp31
 70
     1
102
RTVSPropertyOp32
 70
     1
  0
XRECORD
  5
FE9
102
{ACAD_REACTORS
330
FE8
102
}
330
FE8
100
AcDbXrecord
280
     1
102
RTVSPropertyOp0
 70
     1
102
RTVSPropertyOp1
 70
     1
102
RTVSPropertyOp2
 70
     1
102
RTVSPropertyOp3
 70
     1
102
RTVSPropertyOp4
 70
     1
102
RTVSPropertyOp5
 70
     1
102
RTVSPropertyOp6
 70
     1
102
RTVSPropertyOp7
 70
     1
102
RTVSPropertyOp8
 70
     1
102
RTVSPropertyOp9
 70
     1
102
RTVSPropertyOp10
 70
     1
102
RTVSPropertyOp11
 70
     1
102
RTVSPropertyOp12
 70
     1
102
RTVSPropertyOp13
 70
     1
102
RTVSPropertyOp14
 70
     1
102
RTVSPropertyOp15
 70
     1
102
RTVSPropertyOp16
 70
     1
102
RTVSPropertyOp17
 70
     1
102
RTVSPropertyOp18
 70
     1
102
RTVSPropertyOp19
 70
     1
102
RTVSPropertyOp20
 70
     1
102
RTVSPropertyOp21
 70
     1
102
RTVSPropertyOp22
 70
     1
102
RTVSPropertyOp23
 70
     1
102
RTVSPropertyOp24
 70
     1
102
RTVSPropertyOp25
 70
     1
102
RTVSPropertyOp26
 70
     1
102
RTVSPropertyOp27
 70
     1
102
RTVSPropertyOp28
 70
     1
102
RTVSPropertyOp29
 70
     1
102
RTVSPropertyOp30
 70
     1
102
RTVSPropertyOp31
 70
     1
102
RTVSPropertyOp32
 70
     1
  0
XRECORD
  5
FE3
102
{ACAD_REACTORS
330
FE2
102
}
330
FE2
100
AcDbXrecord
280
     1
102
RTVSPropertyOp0
 70
     1
102
RTVSPropertyOp1
 70
     1
102
RTVSPropertyOp2
 70
     1
102
RTVSPropertyOp3
 70
     1
102
RTVSPropertyOp4
 70
     1
102
RTVSPropertyOp5
 70
     1
102
RTVSPropertyOp6
 70
     1
102
RTVSPropertyOp7
 70
     1
102
RTVSPropertyOp8
 70
     1
102
RTVSPropertyOp9
 70
     1
102
RTVSPropertyOp10
 70
     1
102
RTVSPropertyOp11
 70
     1
102
RTVSPropertyOp12
 70
     1
102
RTVSPropertyOp13
 70
     1
102
RTVSPropertyOp14
 70
     1
102
RTVSPropertyOp15
 70
     1
102
RTVSPropertyOp16
 70
     1
102
RTVSPropertyOp17
 70
     1
102
RTVSPropertyOp18
 70
     1
102
RTVSPropertyOp19
 70
     1
102
RTVSPropertyOp20
 70
     1
102
RTVSPropertyOp21
 70
     1
102
RTVSPropertyOp22
 70
     1
102
RTVSPropertyOp23
 70
     1
102
RTVSPropertyOp24
 70
     1
102
RTVSPropertyOp25
 70
     1
102
RTVSPropertyOp26
 70
     1
102
RTVSPropertyOp27
 70
     1
102
RTVSPropertyOp28
 70
     1
102
RTVSPropertyOp29
 70
     1
102
RTVSPropertyOp30
 70
     1
102
RTVSPropertyOp31
 70
     1
102
RTVSPropertyOp32
 70
     1
  0
XRECORD
  5
FE5
102
{ACAD_REACTORS
330
FE4
102
}
330
FE4
100
AcDbXrecord
280
     1
102
RTVSPropertyOp0
 70
     1
102
RTVSPropertyOp1
 70
     1
102
RTVSPropertyOp2
 70
     1
102
RTVSPropertyOp3
 70
     1
102
RTVSPropertyOp4
 70
     1
102
RTVSPropertyOp5
 70
     1
102
RTVSPropertyOp6
 70
     1
102
RTVSPropertyOp7
 70
     1
102
RTVSPropertyOp8
 70
     1
102
RTVSPropertyOp9
 70
     1
102
RTVSPropertyOp10
 70
     1
102
RTVSPropertyOp11
 70
     1
102
RTVSPropertyOp12
 70
     1
102
RTVSPropertyOp13
 70
     1
102
RTVSPropertyOp14
 70
     1
102
RTVSPropertyOp15
 70
     1
102
RTVSPropertyOp16
 70
     1
102
RTVSPropertyOp17
 70
     1
102
RTVSPropertyOp18
 70
     1
102
RTVSPropertyOp19
 70
     1
102
RTVSPropertyOp20
 70
     1
102
RTVSPropertyOp21
 70
     1
102
RTVSPropertyOp22
 70
     1
102
RTVSPropertyOp23
 70
     1
102
RTVSPropertyOp24
 70
     1
102
RTVSPropertyOp25
 70
     1
102
RTVSPropertyOp26
 70
     1
102
RTVSPropertyOp27
 70
     1
102
RTVSPropertyOp28
 70
     1
102
RTVSPropertyOp29
 70
     1
102
RTVSPropertyOp30
 70
     1
102
RTVSPropertyOp31
 70
     1
102
RTVSPropertyOp32
 70
     1
  0
XRECORD
  5
FDB
102
{ACAD_REACTORS
330
FDA
102
}
330
FDA
100
AcDbXrecord
280
     1
102
RTVSPropertyOp0
 70
     1
102
RTVSPropertyOp1
 70
     1
102
RTVSPropertyOp2
 70
     1
102
RTVSPropertyOp3
 70
     1
102
RTVSPropertyOp4
 70
     1
102
RTVSPropertyOp5
 70
     1
102
RTVSPropertyOp6
 70
     1
102
RTVSPropertyOp7
 70
     1
102
RTVSPropertyOp8
 70
     1
102
RTVSPropertyOp9
 70
     1
102
RTVSPropertyOp10
 70
     1
102
RTVSPropertyOp11
 70
     1
102
RTVSPropertyOp12
 70
     1
102
RTVSPropertyOp13
 70
     1
102
RTVSPropertyOp14
 70
     1
102
RTVSPropertyOp15
 70
     1
102
RTVSPropertyOp16
 70
     1
102
RTVSPropertyOp17
 70
     1
102
RTVSPropertyOp18
 70
     1
102
RTVSPropertyOp19
 70
     1
102
RTVSPropertyOp20
 70
     1
102
RTVSPropertyOp21
 70
     1
102
RTVSPropertyOp22
 70
     1
102
RTVSPropertyOp23
 70
     1
102
RTVSPropertyOp24
 70
     1
102
RTVSPropertyOp25
 70
     1
102
RTVSPropertyOp26
 70
     1
102
RTVSPropertyOp27
 70
     1
102
RTVSPropertyOp28
 70
     1
102
RTVSPropertyOp29
 70
     1
102
RTVSPropertyOp30
 70
     1
102
RTVSPropertyOp31
 70
     1
102
RTVSPropertyOp32
 70
     1
  0
XRECORD
  5
FCF
102
{ACAD_REACTORS
330
FCE
102
}
330
FCE
100
AcDbXrecord
280
     1
102
RTVSPropertyOp0
 70
     1
102
RTVSPropertyOp1
 70
     1
102
RTVSPropertyOp2
 70
     1
102
RTVSPropertyOp3
 70
     1
102
RTVSPropertyOp4
 70
     1
102
RTVSPropertyOp5
 70
     1
102
RTVSPropertyOp6
 70
     1
102
RTVSPropertyOp7
 70
     1
102
RTVSPropertyOp8
 70
     1
102
RTVSPropertyOp9
 70
     1
102
RTVSPropertyOp10
 70
     1
102
RTVSPropertyOp11
 70
     1
102
RTVSPropertyOp12
 70
     1
102
RTVSPropertyOp13
 70
     1
102
RTVSPropertyOp14
 70
     1
102
RTVSPropertyOp15
 70
     1
102
RTVSPropertyOp16
 70
     1
102
RTVSPropertyOp17
 70
     1
102
RTVSPropertyOp18
 70
     1
102
RTVSPropertyOp19
 70
     1
102
RTVSPropertyOp20
 70
     1
102
RTVSPropertyOp21
 70
     1
102
RTVSPropertyOp22
 70
     1
102
RTVSPropertyOp23
 70
     1
102
RTVSPropertyOp24
 70
     1
102
RTVSPropertyOp25
 70
     1
102
RTVSPropertyOp26
 70
     1
102
RTVSPropertyOp27
 70
     1
102
RTVSPropertyOp28
 70
     1
102
RTVSPropertyOp29
 70
     1
102
RTVSPropertyOp30
 70
     1
102
RTVSPropertyOp31
 70
     1
102
RTVSPropertyOp32
 70
     1
  0
XRECORD
  5
FE7
102
{ACAD_REACTORS
330
FE6
102
}
330
FE6
100
AcDbXrecord
280
     1
102
RTVSPropertyOp0
 70
     1
102
RTVSPropertyOp1
 70
     1
102
RTVSPropertyOp2
 70
     1
102
RTVSPropertyOp3
 70
     1
102
RTVSPropertyOp4
 70
     1
102
RTVSPropertyOp5
 70
     1
102
RTVSPropertyOp6
 70
     1
102
RTVSPropertyOp7
 70
     1
102
RTVSPropertyOp8
 70
     1
102
RTVSPropertyOp9
 70
     1
102
RTVSPropertyOp10
 70
     1
102
RTVSPropertyOp11
 70
     1
102
RTVSPropertyOp12
 70
     1
102
RTVSPropertyOp13
 70
     1
102
RTVSPropertyOp14
 70
     1
102
RTVSPropertyOp15
 70
     1
102
RTVSPropertyOp16
 70
     1
102
RTVSPropertyOp17
 70
     1
102
RTVSPropertyOp18
 70
     1
102
RTVSPropertyOp19
 70
     1
102
RTVSPropertyOp20
 70
     1
102
RTVSPropertyOp21
 70
     1
102
RTVSPropertyOp22
 70
     1
102
RTVSPropertyOp23
 70
     1
102
RTVSPropertyOp24
 70
     1
102
RTVSPropertyOp25
 70
     1
102
RTVSPropertyOp26
 70
     1
102
RTVSPropertyOp27
 70
     1
102
RTVSPropertyOp28
 70
     1
102
RTVSPropertyOp29
 70
     1
102
RTVSPropertyOp30
 70
     1
102
RTVSPropertyOp31
 70
     1
102
RTVSPropertyOp32
 70
     1
  0
ENDSEC
  0
EOF
