  0
SECTION
  2
HEADER
  9
$ACADVER
  1
AC1015
  9
$ACADMAINTVER
 70
    18
  9
$DWGCODEPAGE
  3
ANSI_1252
  9
$INSBASE
 10
0.0
 20
0.0
 30
0.0
  9
$EXTMIN
 10
0.0
 20
0.0
 30
0.0
  9
$EXTMAX
 10
113.3333333333333
 20
73.33333333333334
 30
0.0
  9
$LIMMIN
 10
0.0
 20
0.0
  9
$LIMMAX
 10
113.3333333333333
 20
73.33333333333334
  9
$ORTHOMODE
 70
     0
  9
$REGENMODE
 70
     1
  9
$FILLMODE
 70
     1
  9
$QTEXTMODE
 70
     0
  9
$MIRRTEXT
 70
     0
  9
$LTSCALE
 40
6.666666666666666
  9
$ATTMODE
 70
     1
  9
$TEXTSIZE
 40
0.2
  9
$TRACEWID
 40
0.05
  9
$TEXTSTYLE
  7
Standard
  9
$CLAYER
  8
0
  9
$CELTYPE
  6
ByLayer
  9
$CECOLOR
 62
   256
  9
$CELTSCALE
 40
1.0
  9
$DISPSILH
 70
     0
  9
$DIMSCALE
 40
1.0
  9
$DIMASZ
 40
0.0708661417322835
  9
$DIMEXO
 40
0.0625
  9
$DIMDLI
 40
0.38
  9
$DIMRND
 40
0.0
  9
$DIMDLE
 40
0.0
  9
$DIMEXE
 40
0.18
  9
$DIMTP
 40
0.0
  9
$DIMTM
 40
0.0
  9
$DIMTXT
 40
0.0708661417322835
  9
$DIMCEN
 40
0.09
  9
$DIMTSZ
 40
0.0
  9
$DIMTOL
 70
     0
  9
$DIMLIM
 70
     0
  9
$DIMTIH
 70
     1
  9
$DIMTOH
 70
     1
  9
$DIMSE1
 70
     0
  9
$DIMSE2
 70
     0
  9
$DIMTAD
 70
     0
  9
$DIMZIN
 70
     0
  9
$DIMBLK
  1

  9
$DIMASO
 70
     1
  9
$DIMSHO
 70
     1
  9
$DIMPOST
  1

  9
$DIMAPOST
  1

  9
$DIMALT
 70
     0
  9
$DIMALTD
 70
     2
  9
$DIMALTF
 40
25.4
  9
$DIMLFAC
 40
1.0
  9
$DIMTOFL
 70
     0
  9
$DIMTVP
 40
0.0
  9
$DIMTIX
 70
     0
  9
$DIMSOXD
 70
     0
  9
$DIMSAH
 70
     0
  9
$DIMBLK1
  1

  9
$DIMBLK2
  1

  9
$DIMSTYLE
  2
STANDARD
  9
$DIMCLRD
 70
     0
  9
$DIMCLRE
 70
     0
  9
$DIMCLRT
 70
     0
  9
$DIMTFAC
 40
1.0
  9
$DIMGAP
 40
0.09
  9
$DIMJUST
 70
     0
  9
$DIMSD1
 70
     0
  9
$DIMSD2
 70
     0
  9
$DIMTOLJ
 70
     1
  9
$DIMTZIN
 70
     0
  9
$DIMALTZ
 70
     0
  9
$DIMALTTZ
 70
     0
  9
$DIMUPT
 70
     0
  9
$DIMDEC
 70
     4
  9
$DIMTDEC
 70
     4
  9
$DIMALTU
 70
     2
  9
$DIMALTTD
 70
     2
  9
$DIMTXSTY
  7
Standard
  9
$DIMAUNIT
 70
     0
  9
$DIMADEC
 70
     0
  9
$DIMALTRND
 40
0.0
  9
$DIMAZIN
 70
     0
  9
$DIMDSEP
 70
    46
  9
$DIMATFIT
 70
     3
  9
$DIMFRAC
 70
     0
  9
$DIMLDRBLK
  1

  9
$DIMLUNIT
 70
     2
  9
$DIMLWD
 70
    -2
  9
$DIMLWE
 70
    -2
  9
$DIMTMOVE
 70
     0
  9
$LUNITS
 70
     2
  9
$LUPREC
 70
     4
  9
$SKETCHINC
 40
0.1
  9
$FILLETRAD
 40
0.0
  9
$AUNITS
 70
     0
  9
$AUPREC
 70
     0
  9
$MENU
  1
.
  9
$ELEVATION
 40
0.0
  9
$PELEVATION
 40
0.0
  9
$THICKNESS
 40
0.0
  9
$LIMCHECK
 70
     0
  9
$CHAMFERA
 40
0.0
  9
$CHAMFERB
 40
0.0
  9
$CHAMFERC
 40
0.0
  9
$CHAMFERD
 40
0.0
  9
$SKPOLY
 70
     0
  9
$TDCREATE
 40
2455944.542599769
  9
$TDUCREATE
 40
2455944.792599769
  9
$TDUPDATE
 40
2455944.542599942
  9
$TDUUPDATE
 40
2455944.792599942
  9
$TDINDWG
 40
0.0000372569
  9
$TDUSRTIMER
 40
0.0000372569
  9
$USRTIMER
 70
     1
  9
$ANGBASE
 50
0.0
  9
$ANGDIR
 70
     0
  9
$PDMODE
 70
     0
  9
$PDSIZE
 40
0.0
  9
$PLINEWID
 40
0.0
  9
$SPLFRAME
 70
     0
  9
$SPLINETYPE
 70
     6
  9
$SPLINESEGS
 70
     8
  9
$HANDSEED
  5
E28
  9
$SURFTAB1
 70
     6
  9
$SURFTAB2
 70
     6
  9
$SURFTYPE
 70
     6
  9
$SURFU
 70
     6
  9
$SURFV
 70
     6
  9
$UCSBASE
  2

  9
$UCSNAME
  2

  9
$UCSORG
 10
0.0
 20
0.0
 30
0.0
  9
$UCSXDIR
 10
1.0
 20
0.0
 30
0.0
  9
$UCSYDIR
 10
0.0
 20
1.0
 30
0.0
  9
$UCSORTHOREF
  2

  9
$UCSORTHOVIEW
 70
     0
  9
$UCSORGTOP
 10
0.0
 20
0.0
 30
0.0
  9
$UCSORGBOTTOM
 10
0.0
 20
0.0
 30
0.0
  9
$UCSORGLEFT
 10
0.0
 20
0.0
 30
0.0
  9
$UCSORGRIGHT
 10
0.0
 20
0.0
 30
0.0
  9
$UCSORGFRONT
 10
0.0
 20
0.0
 30
0.0
  9
$UCSORGBACK
 10
0.0
 20
0.0
 30
0.0
  9
$PUCSBASE
  2

  9
$PUCSNAME
  2

  9
$PUCSORG
 10
0.0
 20
0.0
 30
0.0
  9
$PUCSXDIR
 10
1.0
 20
0.0
 30
0.0
  9
$PUCSYDIR
 10
0.0
 20
1.0
 30
0.0
  9
$PUCSORTHOREF
  2

  9
$PUCSORTHOVIEW
 70
     0
  9
$PUCSORGTOP
 10
0.0
 20
0.0
 30
0.0
  9
$PUCSORGBOTTOM
 10
0.0
 20
0.0
 30
0.0
  9
$PUCSORGLEFT
 10
0.0
 20
0.0
 30
0.0
  9
$PUCSORGRIGHT
 10
0.0
 20
0.0
 30
0.0
  9
$PUCSORGFRONT
 10
0.0
 20
0.0
 30
0.0
  9
$PUCSORGBACK
 10
0.0
 20
0.0
 30
0.0
  9
$USERI1
 70
     0
  9
$USERI2
 70
     0
  9
$USERI3
 70
     0
  9
$USERI4
 70
     0
  9
$USERI5
 70
     0
  9
$USERR1
 40
0.0
  9
$USERR2
 40
0.0
  9
$USERR3
 40
0.0
  9
$USERR4
 40
0.0
  9
$USERR5
 40
0.0
  9
$WORLDVIEW
 70
     1
  9
$SHADEDGE
 70
     3
  9
$SHADEDIF
 70
    70
  9
$TILEMODE
 70
     1
  9
$MAXACTVP
 70
    64
  9
$PINSBASE
 10
0.0
 20
0.0
 30
0.0
  9
$PLIMCHECK
 70
     0
  9
$PEXTMIN
 10
0.0
 20
0.0
 30
0.0
  9
$PEXTMAX
 10
113.3333333333333
 20
73.33333333333334
 30
0.0
  9
$PLIMMIN
 10
0.0
 20
0.0
  9
$PLIMMAX
 10
113.3333333333333
 20
73.33333333333334
  9
$UNITMODE
 70
     0
  9
$VISRETAIN
 70
     1
  9
$PLINEGEN
 70
     0
  9
$PSLTSCALE
 70
     1
  9
$TREEDEPTH
 70
  3020
  9
$CMLSTYLE
  2
Standard
  9
$CMLJUST
 70
     0
  9
$CMLSCALE
 40
1.0
  9
$PROXYGRAPHICS
 70
     1
  9
$MEASUREMENT
 70
     0
  9
$CELWEIGHT
370
    -1
  9
$ENDCAPS
280
     0
  9
$JOINSTYLE
280
     0
  9
$LWDISPLAY
290
     0
  9
$INSUNITS
 70
     1
  9
$HYPERLINKBASE
  1

  9
$STYLESHEET
  1

  9
$XEDIT
290
     1
  9
$CEPSNTYPE
380
     0
  9
$PSTYLEMODE
290
     1
  9
$FINGERPRINTGUID
  2
{C0E4844B-EE69-440C-B170-EC28DE3CE3F8}
  9
$VERSIONGUID
  2
{3E465EE0-B6FC-4885-8485-C6D6CF61676C}
  9
$EXTNAMES
290
     1
  9
$PSVPSCALE
 40
0.0
  9
$OLESTARTUP
290
     0
  0
ENDSEC
  0
SECTION
  2
CLASSES
  0
CLASS
  1
ACDBDICTIONARYWDFLT
  2
AcDbDictionaryWithDefault
  3
ObjectDBX Classes
 90
        0
280
     0
281
     0
  0
CLASS
  1
MATERIAL
  2
AcDbMaterial
  3
ObjectDBX Classes
 90
     1153
280
     0
281
     0
  0
CLASS
  1
VISUALSTYLE
  2
AcDbVisualStyle
  3
ObjectDBX Classes
 90
     4095
280
     0
281
     0
  0
CLASS
  1
SCALE
  2
AcDbScale
  3
ObjectDBX Classes
 90
     1153
280
     0
281
     0
  0
CLASS
  1
TABLESTYLE
  2
AcDbTableStyle
  3
ObjectDBX Classes
 90
     4095
280
     0
281
     0
  0
CLASS
  1
MLEADERSTYLE
  2
AcDbMLeaderStyle
  3
ACDB_MLEADERSTYLE_CLASS
 90
     4095
280
     0
281
     0
  0
CLASS
  1
DICTIONARYVAR
  2
AcDbDictionaryVar
  3
ObjectDBX Classes
 90
        0
280
     0
281
     0
  0
CLASS
  1
CELLSTYLEMAP
  2
AcDbCellStyleMap
  3
ObjectDBX Classes
 90
     1152
280
     0
281
     0
  0
CLASS
  1
ACDBPLACEHOLDER
  2
AcDbPlaceHolder
  3
ObjectDBX Classes
 90
        0
280
     0
281
     0
  0
CLASS
  1
LAYOUT
  2
AcDbLayout
  3
ObjectDBX Classes
 90
        0
280
     0
281
     0
  0
ENDSEC
  0
SECTION
  2
TABLES
  0
TABLE
  2
VPORT
  5
8
330
0
100
AcDbSymbolTable
 70
     1
  0
VPORT
  5
57
330
8
100
AcDbSymbolTableRecord
100
AcDbViewportTableRecord
  2
*Active
 70
     0
 10
0.0
 20
0.0
 11
1.0
 21
1.0
 12
56.66666666666667
 22
36.66666666666667
 13
0.0
 23
0.0
 14
1.0
 24
1.0
 15
0.0
 25
0.0
 16
0.0
 26
0.0
 36
1.0
 17
0.0
 27
0.0
 37
0.0
 40
73.33333333333334
 41
1.545454545454545
 42
50.0
 43
0.0
 44
0.0
 50
0.0
 51
0.0
 71
     0
 72
   100
 73
     1
 74
     1
 75
     0
 76
     0
 77
     0
 78
     0
281
     0
 65
     1
110
0.0
120
0.0
130
0.0
111
1.0
121
0.0
131
0.0
112
0.0
122
1.0
132
0.0
 79
     0
146
0.0
  0
ENDTAB
  0
TABLE
  2
LTYPE
  5
5
330
0
100
AcDbSymbolTable
 70
    59
  0
LTYPE
  5
5B
330
5
100
AcDbSymbolTableRecord
100
AcDbLinetypeTableRecord
  2
ByBlock
 70
     0
  3

 72
    65
 73
     0
 40
0.0
  0
LTYPE
  5
5C
330
5
100
AcDbSymbolTableRecord
100
AcDbLinetypeTableRecord
  2
ByLayer
 70
     0
  3

 72
    65
 73
     0
 40
0.0
  0
LTYPE
  5
5D
330
5
100
AcDbSymbolTableRecord
100
AcDbLinetypeTableRecord
  2
Continuous
 70
     0
  3
Solid line
 72
    65
 73
     0
 40
0.0
  0
LTYPE
  5
DE
330
5
100
AcDbSymbolTableRecord
100
AcDbLinetypeTableRecord
  2
BY_STANDARD
 70
     0
  3
By Standard ____________    ____    ____   _
 72
    65
 73
     6
 40
1.240299999999999
 49
0.6614
 74
     0
 49
-0.0827
 74
     0
 49
0.1654
 74
     0
 49
-0.0827
 74
     0
 49
0.1654
 74
     0
 49
-0.0827
 74
     0
  0
LTYPE
  5
DF
330
5
100
AcDbSymbolTableRecord
100
AcDbLinetypeTableRecord
  2
CHAIN
 70
     0
  3
Chain ____ _ ____ _ ____ _ ____ _ ____ _ ____
 72
    65
 73
     4
 40
0.7087
 49
0.4724000000000001
 74
     0
 49
-0.0591
 74
     0
 49
0.1181
 74
     0
 49
-0.0591
 74
     0
  0
LTYPE
  5
E0
330
5
100
AcDbSymbolTableRecord
100
AcDbLinetypeTableRecord
  2
DASH_DOT
 70
     0
  3
Dash dot __ . __ . __ . __ . __ . __ . __ . __
 72
    65
 73
     4
 40
0.37
 49
0.24
 74
     0
 49
-0.06
 74
     0
 49
0.01
 74
     0
 49
-0.06
 74
     0
  0
LTYPE
  5
E1
330
5
100
AcDbSymbolTableRecord
100
AcDbLinetypeTableRecord
  2
DOUBLE_DASH_DOT
 70
     0
  3
Double-Dash Dot __ __ . __ __ . __ __ . __ _
 72
    65
 73
     6
 40
0.4398
 49
0.24
 74
     0
 49
-0.06
 74
     0
 49
0.0098
 74
     0
 49
-0.06
 74
     0
 49
0.01
 74
     0
 49
-0.06
 74
     0
  0
LTYPE
  5
E2
330
5
100
AcDbSymbolTableRecord
100
AcDbLinetypeTableRecord
  2
DASH_TRIPLE_DOT
 70
     0
  3
Dash Triple-Dot _ . . . _ . . . _ . . . _
 72
    65
 73
     8
 40
0.51
 49
0.24
 74
     0
 49
-0.06
 74
     0
 49
0.01
 74
     0
 49
-0.06
 74
     0
 49
0.01
 74
     0
 49
-0.06
 74
     0
 49
0.01
 74
     0
 49
-0.06
 74
     0
  0
LTYPE
  5
E3
330
5
100
AcDbSymbolTableRecord
100
AcDbLinetypeTableRecord
  2
DASHED
 70
     0
  3
Dashed __ __ __ __ __ __ __ __ __ __ __ __ __ _
 72
    65
 73
     2
 40
0.2067
 49
0.1654
 74
     0
 49
-0.0413
 74
     0
  0
LTYPE
  5
E4
330
5
100
AcDbSymbolTableRecord
100
AcDbLinetypeTableRecord
  2
DASH_DOUBLE_DOT
 70
     0
  3
Dash Double-Dot __ . . __ . . __ . . __ . .
 72
    65
 73
     6
 40
0.4398
 49
0.24
 74
     0
 49
-0.06
 74
     0
 49
0.0098
 74
     0
 49
-0.06
 74
     0
 49
0.01
 74
     0
 49
-0.06
 74
     0
  0
LTYPE
  5
E5
330
5
100
AcDbSymbolTableRecord
100
AcDbLinetypeTableRecord
  2
DASHED_SPACE
 70
     0
  3
Dashed Space __ __ __ __ __ __ __ __ __ __ __ _
 72
    65
 73
     2
 40
0.2067
 49
0.1654
 74
     0
 49
-0.0413
 74
     0
  0
LTYPE
  5
E6
330
5
100
AcDbSymbolTableRecord
100
AcDbLinetypeTableRecord
  2
DOTTED
 70
     0
  3
Dotted . . . . . . . . . . . . . . . . . . . . 
 72
    65
 73
     2
 40
0.0482
 49
0.0069
 74
     0
 49
-0.0413
 74
     0
  0
LTYPE
  5
E7
330
5
100
AcDbSymbolTableRecord
100
AcDbLinetypeTableRecord
  2
DOUBLE_DASH_CHAIN
 70
     0
  3
Double-Dash Chain ______  __  __  ______  __  _
 72
    65
 73
     6
 40
1.240299999999999
 49
0.6614
 74
     0
 49
-0.0827
 74
     0
 49
0.1654
 74
     0
 49
-0.0827
 74
     0
 49
0.1654
 74
     0
 49
-0.0827
 74
     0
  0
LTYPE
  5
E9
330
5
100
AcDbSymbolTableRecord
100
AcDbLinetypeTableRecord
  2
DOUBLE_DASH_DOUBLE_DOT
 70
     0
  3
Double-Dash Double-dot _ _ . . _ _ . . _
 72
    65
 73
     8
 40
0.7400000000000001
 49
0.24
 74
     0
 49
-0.06
 74
     0
 49
0.24
 74
     0
 49
-0.06
 74
     0
 49
0.01
 74
     0
 49
-0.06
 74
     0
 49
0.01
 74
     0
 49
-0.06
 74
     0
  0
LTYPE
  5
EA
330
5
100
AcDbSymbolTableRecord
100
AcDbLinetypeTableRecord
  2
DOUBLE_DASH_TRIPLE_DOT
 70
     0
  3
Double Dash Triple Dot __ __ . . . __ __ . .
 72
    65
 73
    10
 40
0.8100000000000001
 49
0.24
 74
     0
 49
-0.06
 74
     0
 49
0.24
 74
     0
 49
-0.06
 74
     0
 49
0.01
 74
     0
 49
-0.06
 74
     0
 49
0.01
 74
     0
 49
-0.06
 74
     0
 49
0.01
 74
     0
 49
-0.06
 74
     0
  0
LTYPE
  5
EB
330
5
100
AcDbSymbolTableRecord
100
AcDbLinetypeTableRecord
  2
LONG_DASH_DOTTED
 70
     0
  3
Long Dash Dotted ____ . ____ . ____ . ____ . _
 72
    65
 73
     4
 40
0.3543
 49
0.2362
 74
     0
 49
-0.0295
 74
     0
 49
0.0591
 74
     0
 49
-0.0295
 74
     0
  0
LTYPE
  5
EC
330
5
100
AcDbSymbolTableRecord
100
AcDbLinetypeTableRecord
  2
LONG_DASH_DOUBLE_DOT
 70
     0
  3
Long Dash Double Dot ________  .  .  ________  
 72
    65
 73
     6
 40
0.6799999999999999
 49
0.48
 74
     0
 49
-0.06
 74
     0
 49
0.01
 74
     0
 49
-0.06
 74
     0
 49
0.01
 74
     0
 49
-0.06
 74
     0
  0
LTYPE
  5
ED
330
5
100
AcDbSymbolTableRecord
100
AcDbLinetypeTableRecord
  2
LONG_DASH_TRIPLE_DOT
 70
     0
  3
Long Dash Triple Dot ____ ... ____ ... ____
 72
    65
 73
     8
 40
0.3689
 49
0.2362
 74
     0
 49
-0.0295
 74
     0
 49
0.0049
 74
     0
 49
-0.0295
 74
     0
 49
0.0049
 74
     0
 49
-0.0295
 74
     0
 49
0.0049
 74
     0
 49
-0.0295
 74
     0
  0
LTYPE
  5
EE
330
5
100
AcDbSymbolTableRecord
100
AcDbLinetypeTableRecord
  2
BORDER
 70
     0
  3
Border __ __ . __ __ . __ __ . __ __ . __ __ .
 72
    65
 73
     6
 40
1.75
 49
0.5
 74
     0
 49
-0.25
 74
     0
 49
0.5
 74
     0
 49
-0.25
 74
     0
 49
0.0
 74
     0
 49
-0.25
 74
     0
  0
LTYPE
  5
EF
330
5
100
AcDbSymbolTableRecord
100
AcDbLinetypeTableRecord
  2
BORDER2
 70
     0
  3
Border (.5x) __.__.__.__.__.__.__.__.__.__.__.
 72
    65
 73
     6
 40
0.875
 49
0.25
 74
     0
 49
-0.125
 74
     0
 49
0.25
 74
     0
 49
-0.125
 74
     0
 49
0.0
 74
     0
 49
-0.125
 74
     0
  0
LTYPE
  5
F0
330
5
100
AcDbSymbolTableRecord
100
AcDbLinetypeTableRecord
  2
BORDERX2
 70
     0
  3
Border (2x) ____  ____  .  ____  ____  .  ___
 72
    65
 73
     6
 40
3.5
 49
1.0
 74
     0
 49
-0.5
 74
     0
 49
1.0
 74
     0
 49
-0.5
 74
     0
 49
0.0
 74
     0
 49
-0.5
 74
     0
  0
LTYPE
  5
F1
330
5
100
AcDbSymbolTableRecord
100
AcDbLinetypeTableRecord
  2
CENTER
 70
     0
  3
Center ____ _ ____ _ ____ _ ____ _ ____ _ ____
 72
    65
 73
     4
 40
2.0
 49
1.25
 74
     0
 49
-0.25
 74
     0
 49
0.25
 74
     0
 49
-0.25
 74
     0
  0
LTYPE
  5
F2
330
5
100
AcDbSymbolTableRecord
100
AcDbLinetypeTableRecord
  2
CENTER2
 70
     0
  3
Center (.5x) ___ _ ___ _ ___ _ ___ _ ___ _ ___
 72
    65
 73
     4
 40
1.125
 49
0.75
 74
     0
 49
-0.125
 74
     0
 49
0.125
 74
     0
 49
-0.125
 74
     0
  0
LTYPE
  5
F3
330
5
100
AcDbSymbolTableRecord
100
AcDbLinetypeTableRecord
  2
CENTERX2
 70
     0
  3
Center (2x) ________  __  ________  __  _____
 72
    65
 73
     4
 40
4.0
 49
2.5
 74
     0
 49
-0.5
 74
     0
 49
0.5
 74
     0
 49
-0.5
 74
     0
  0
LTYPE
  5
F4
330
5
100
AcDbSymbolTableRecord
100
AcDbLinetypeTableRecord
  2
DASHDOT2
 70
     0
  3
Dash dot (.5x) _._._._._._._._._._._._._._._.
 72
    65
 73
     4
 40
0.5
 49
0.25
 74
     0
 49
-0.125
 74
     0
 49
0.0
 74
     0
 49
-0.125
 74
     0
  0
LTYPE
  5
F5
330
5
100
AcDbSymbolTableRecord
100
AcDbLinetypeTableRecord
  2
DASHDOTX2
 70
     0
  3
Dash dot (2x) ____  .  ____  .  ____  .  ___
 72
    65
 73
     4
 40
2.0
 49
1.0
 74
     0
 49
-0.5
 74
     0
 49
0.0
 74
     0
 49
-0.5
 74
     0
  0
LTYPE
  5
F7
330
5
100
AcDbSymbolTableRecord
100
AcDbLinetypeTableRecord
  2
DASHED2
 70
     0
  3
Dashed (.5x) _ _ _ _ _ _ _ _ _ _ _ _ _ _ _ _ _
 72
    65
 73
     2
 40
0.375
 49
0.25
 74
     0
 49
-0.125
 74
     0
  0
LTYPE
  5
F8
330
5
100
AcDbSymbolTableRecord
100
AcDbLinetypeTableRecord
  2
DASHEDX2
 70
     0
  3
Dashed (2x) ____  ____  ____  ____  ____  ___
 72
    65
 73
     2
 40
1.5
 49
1.0
 74
     0
 49
-0.5
 74
     0
  0
LTYPE
  5
F9
330
5
100
AcDbSymbolTableRecord
100
AcDbLinetypeTableRecord
  2
DIVIDE
 70
     0
  3
Divide ____ . . ____ . . ____ . . ____ . . ____
 72
    65
 73
     6
 40
1.25
 49
0.5
 74
     0
 49
-0.25
 74
     0
 49
0.0
 74
     0
 49
-0.25
 74
     0
 49
0.0
 74
     0
 49
-0.25
 74
     0
  0
LTYPE
  5
FA
330
5
100
AcDbSymbolTableRecord
100
AcDbLinetypeTableRecord
  2
DIVIDE2
 70
     0
  3
Divide (.5x) __..__..__..__..__..__..__..__.._
 72
    65
 73
     6
 40
0.625
 49
0.25
 74
     0
 49
-0.125
 74
     0
 49
0.0
 74
     0
 49
-0.125
 74
     0
 49
0.0
 74
     0
 49
-0.125
 74
     0
  0
LTYPE
  5
FB
330
5
100
AcDbSymbolTableRecord
100
AcDbLinetypeTableRecord
  2
DIVIDEX2
 70
     0
  3
Divide (2x) ________  .  .  ________  .  .  _
 72
    65
 73
     6
 40
2.5
 49
1.0
 74
     0
 49
-0.5
 74
     0
 49
0.0
 74
     0
 49
-0.5
 74
     0
 49
0.0
 74
     0
 49
-0.5
 74
     0
  0
LTYPE
  5
FC
330
5
100
AcDbSymbolTableRecord
100
AcDbLinetypeTableRecord
  2
DOT
 70
     0
  3
Dot . . . . . . . . . . . . . . . . . . . . . .
 72
    65
 73
     2
 40
0.25
 49
0.0
 74
     0
 49
-0.25
 74
     0
  0
LTYPE
  5
FD
330
5
100
AcDbSymbolTableRecord
100
AcDbLinetypeTableRecord
  2
DOT2
 70
     0
  3
Dot (.5x) .....................................
 72
    65
 73
     2
 40
0.125
 49
0.0
 74
     0
 49
-0.125
 74
     0
  0
LTYPE
  5
FE
330
5
100
AcDbSymbolTableRecord
100
AcDbLinetypeTableRecord
  2
DOTX2
 70
     0
  3
Dot (2x) .  .  .  .  .  .  .  .  .  .  .  .  . 
 72
    65
 73
     2
 40
0.5
 49
0.0
 74
     0
 49
-0.5
 74
     0
  0
LTYPE
  5
FF
330
5
100
AcDbSymbolTableRecord
100
AcDbLinetypeTableRecord
  2
HIDDEN
 70
     0
  3
Hidden __ __ __ __ __ __ __ __ __ __ __ __ __ _
 72
    65
 73
     2
 40
0.375
 49
0.25
 74
     0
 49
-0.125
 74
     0
  0
LTYPE
  5
100
330
5
100
AcDbSymbolTableRecord
100
AcDbLinetypeTableRecord
  2
HIDDEN2
 70
     0
  3
Hidden (.5x) _ _ _ _ _ _ _ _ _ _ _ _ _ _ _ _ _
 72
    65
 73
     2
 40
0.1875
 49
0.125
 74
     0
 49
-0.0625
 74
     0
  0
LTYPE
  5
101
330
5
100
AcDbSymbolTableRecord
100
AcDbLinetypeTableRecord
  2
HIDDENX2
 70
     0
  3
Hidden (2x) ____ ____ ____ ____ ____ ____ ____
 72
    65
 73
     2
 40
0.75
 49
0.5
 74
     0
 49
-0.25
 74
     0
  0
LTYPE
  5
102
330
5
100
AcDbSymbolTableRecord
100
AcDbLinetypeTableRecord
  2
PHANTOM
 70
     0
  3
Phantom ______  __  __  ______  __  __  ______
 72
    65
 73
     6
 40
2.5
 49
1.25
 74
     0
 49
-0.25
 74
     0
 49
0.25
 74
     0
 49
-0.25
 74
     0
 49
0.25
 74
     0
 49
-0.25
 74
     0
  0
LTYPE
  5
103
330
5
100
AcDbSymbolTableRecord
100
AcDbLinetypeTableRecord
  2
PHANTOM2
 70
     0
  3
Phantom (.5x) ___ _ _ ___ _ _ ___ _ _ ___ _ _
 72
    65
 73
     6
 40
1.25
 49
0.625
 74
     0
 49
-0.125
 74
     0
 49
0.125
 74
     0
 49
-0.125
 74
     0
 49
0.125
 74
     0
 49
-0.125
 74
     0
  0
LTYPE
  5
104
330
5
100
AcDbSymbolTableRecord
100
AcDbLinetypeTableRecord
  2
PHANTOMX2
 70
     0
  3
Phantom (2x) ____________    ____    ____   _
 72
    65
 73
     6
 40
5.0
 49
2.5
 74
     0
 49
-0.5
 74
     0
 49
0.5
 74
     0
 49
-0.5
 74
     0
 49
0.5
 74
     0
 49
-0.5
 74
     0
  0
LTYPE
  5
105
330
5
100
AcDbSymbolTableRecord
100
AcDbLinetypeTableRecord
  2
ACAD_ISO02W100
 70
     0
  3
ISO dash __ __ __ __ __ __ __ __ __ __ __ __ __
 72
    65
 73
     2
 40
0.59
 49
0.47
 74
     0
 49
-0.12
 74
     0
  0
LTYPE
  5
106
330
5
100
AcDbSymbolTableRecord
100
AcDbLinetypeTableRecord
  2
ACAD_ISO03W100
 70
     0
  3
ISO dash space __    __    __    __    __    __
 72
    65
 73
     2
 40
1.179999999999999
 49
0.47
 74
     0
 49
-0.71
 74
     0
  0
LTYPE
  5
107
330
5
100
AcDbSymbolTableRecord
100
AcDbLinetypeTableRecord
  2
ACAD_ISO04W100
 70
     0
  3
ISO long-dash dot ____ . ____ . ____ . ____ . _
 72
    65
 73
     4
 40
1.179999999999999
 49
0.9399999999999998
 74
     0
 49
-0.12
 74
     0
 49
0.0
 74
     0
 49
-0.12
 74
     0
  0
LTYPE
  5
108
330
5
100
AcDbSymbolTableRecord
100
AcDbLinetypeTableRecord
  2
ACAD_ISO05W100
 70
     0
  3
ISO long-dash double-dot ____ .. ____ .. ____ .
 72
    65
 73
     6
 40
1.299999999999999
 49
0.9399999999999998
 74
     0
 49
-0.12
 74
     0
 49
0.0
 74
     0
 49
-0.12
 74
     0
 49
0.0
 74
     0
 49
-0.12
 74
     0
  0
LTYPE
  5
109
330
5
100
AcDbSymbolTableRecord
100
AcDbLinetypeTableRecord
  2
ACAD_ISO06W100
 70
     0
  3
ISO long-dash triple-dot ____ ... ____ ... ____
 72
    65
 73
     8
 40
1.419999999999999
 49
0.9399999999999998
 74
     0
 49
-0.12
 74
     0
 49
0.0
 74
     0
 49
-0.12
 74
     0
 49
0.0
 74
     0
 49
-0.12
 74
     0
 49
0.0
 74
     0
 49
-0.12
 74
     0
  0
LTYPE
  5
10A
330
5
100
AcDbSymbolTableRecord
100
AcDbLinetypeTableRecord
  2
ACAD_ISO07W100
 70
     0
  3
ISO dot . . . . . . . . . . . . . . . . . . . .
 72
    65
 73
     2
 40
0.12
 49
0.0
 74
     0
 49
-0.12
 74
     0
  0
LTYPE
  5
10B
330
5
100
AcDbSymbolTableRecord
100
AcDbLinetypeTableRecord
  2
ACAD_ISO08W100
 70
     0
  3
ISO long-dash short-dash ____ __ ____ __ ____ _
 72
    65
 73
     4
 40
0.95
 49
0.47
 74
     0
 49
-0.12
 74
     0
 49
0.24
 74
     0
 49
-0.12
 74
     0
  0
LTYPE
  5
10C
330
5
100
AcDbSymbolTableRecord
100
AcDbLinetypeTableRecord
  2
ACAD_ISO09W100
 70
     0
  3
ISO long-dash double-short-dash ____ __ __ ____
 72
    65
 73
     6
 40
1.31
 49
0.47
 74
     0
 49
-0.12
 74
     0
 49
0.24
 74
     0
 49
-0.12
 74
     0
 49
0.24
 74
     0
 49
-0.12
 74
     0
  0
LTYPE
  5
10D
330
5
100
AcDbSymbolTableRecord
100
AcDbLinetypeTableRecord
  2
ACAD_ISO10W100
 70
     0
  3
ISO dash dot __ . __ . __ . __ . __ . __ . __ .
 72
    65
 73
     4
 40
0.71
 49
0.47
 74
     0
 49
-0.12
 74
     0
 49
0.0
 74
     0
 49
-0.12
 74
     0
  0
LTYPE
  5
10E
330
5
100
AcDbSymbolTableRecord
100
AcDbLinetypeTableRecord
  2
ACAD_ISO11W100
 70
     0
  3
ISO double-dash dot __ __ . __ __ . __ __ . __ 
 72
    65
 73
     6
 40
1.299999999999999
 49
0.47
 74
     0
 49
-0.12
 74
     0
 49
0.47
 74
     0
 49
-0.12
 74
     0
 49
0.0
 74
     0
 49
-0.12
 74
     0
  0
LTYPE
  5
10F
330
5
100
AcDbSymbolTableRecord
100
AcDbLinetypeTableRecord
  2
ACAD_ISO12W100
 70
     0
  3
ISO dash double-dot __ . . __ . . __ . . __ . .
 72
    65
 73
     6
 40
0.8299999999999998
 49
0.47
 74
     0
 49
-0.12
 74
     0
 49
0.0
 74
     0
 49
-0.12
 74
     0
 49
0.0
 74
     0
 49
-0.12
 74
     0
  0
LTYPE
  5
110
330
5
100
AcDbSymbolTableRecord
100
AcDbLinetypeTableRecord
  2
ACAD_ISO13W100
 70
     0
  3
ISO double-dash double-dot __ __ . . __ __ . . 
 72
    65
 73
     8
 40
1.419999999999999
 49
0.47
 74
     0
 49
-0.12
 74
     0
 49
0.47
 74
     0
 49
-0.12
 74
     0
 49
0.0
 74
     0
 49
-0.12
 74
     0
 49
0.0
 74
     0
 49
-0.12
 74
     0
  0
LTYPE
  5
111
330
5
100
AcDbSymbolTableRecord
100
AcDbLinetypeTableRecord
  2
ACAD_ISO14W100
 70
     0
  3
ISO dash triple-dot __ . . . __ . . . __ . . . 
 72
    65
 73
     8
 40
0.95
 49
0.47
 74
     0
 49
-0.12
 74
     0
 49
0.0
 74
     0
 49
-0.12
 74
     0
 49
0.0
 74
     0
 49
-0.12
 74
     0
 49
0.0
 74
     0
 49
-0.12
 74
     0
  0
LTYPE
  5
112
330
5
100
AcDbSymbolTableRecord
100
AcDbLinetypeTableRecord
  2
ACAD_ISO15W100
 70
     0
  3
ISO double-dash triple-dot __ __ . . . __ __ . 
 72
    65
 73
    10
 40
1.539999999999999
 49
0.47
 74
     0
 49
-0.12
 74
     0
 49
0.47
 74
     0
 49
-0.12
 74
     0
 49
0.0
 74
     0
 49
-0.12
 74
     0
 49
0.0
 74
     0
 49
-0.12
 74
     0
 49
0.0
 74
     0
 49
-0.12
 74
     0
  0
LTYPE
  5
115
330
5
100
AcDbSymbolTableRecord
100
AcDbLinetypeTableRecord
  2
FENCELINE1
 70
     0
  3
Fenceline circle ----0-----0----0-----0----0---
 72
    65
 73
     4
 40
1.45
 49
0.25
 74
     0
 49
-0.1
 74
     4
 75
   133
340
114
 46
0.1
 50
0.0
 44
-0.1
 45
0.0
 49
-0.1
 74
     0
 49
1.0
 74
     0
  0
LTYPE
  5
116
330
5
100
AcDbSymbolTableRecord
100
AcDbLinetypeTableRecord
  2
FENCELINE2
 70
     0
  3
Fenceline square ----[]-----[]----[]-----[]----
 72
    65
 73
     4
 40
1.45
 49
0.25
 74
     0
 49
-0.1
 74
     4
 75
   132
340
114
 46
0.1
 50
0.0
 44
-0.1
 45
0.0
 49
-0.1
 74
     0
 49
1.0
 74
     0
  0
LTYPE
  5
117
330
5
100
AcDbSymbolTableRecord
100
AcDbLinetypeTableRecord
  2
TRACKS
 70
     0
  3
Tracks -|-|-|-|-|-|-|-|-|-|-|-|-|-|-|-|-|-|-|-|
 72
    65
 73
     2
 40
0.3
 49
0.15
 74
     4
 75
   130
340
114
 46
0.25
 50
0.0
 44
0.0
 45
0.0
 49
0.15
 74
     0
  0
LTYPE
  5
118
330
5
100
AcDbSymbolTableRecord
100
AcDbLinetypeTableRecord
  2
BATTING
 70
     0
  3
Batting SSSSSSSSSSSSSSSSSSSSSSSSSSSSSSSSSSSSSSS
 72
    65
 73
     4
 40
0.4001000000000001
 49
0.0001
 74
     0
 49
-0.1
 74
     4
 75
   134
340
114
 46
0.1
 50
0.0
 44
-0.1
 45
0.0
 49
-0.2
 74
     4
 75
   134
340
114
 46
0.1
 50
180.0
 44
0.1
 45
0.0
 49
-0.1
 74
     0
  0
LTYPE
  5
119
330
5
100
AcDbSymbolTableRecord
100
AcDbLinetypeTableRecord
  2
HOT_WATER_SUPPLY
 70
     0
  3
Hot water supply ---- HW ---- HW ---- HW ----
 72
    65
 73
     3
 40
0.9
 49
0.5
 74
     0
 49
-0.2
 74
     2
 75
     0
340
55
 46
0.1
 50
0.0
 44
-0.1
 45
-0.05
  9
HW
 49
-0.2
 74
     0
  0
LTYPE
  5
11A
330
5
100
AcDbSymbolTableRecord
100
AcDbLinetypeTableRecord
  2
GAS_LINE
 70
     0
  3
Gas line ----GAS----GAS----GAS----GAS----GAS---
 72
    65
 73
     3
 40
0.95
 49
0.5
 74
     0
 49
-0.2
 74
     2
 75
     0
340
55
 46
0.1
 50
0.0
 44
-0.1
 45
-0.05
  9
GAS
 49
-0.25
 74
     0
  0
LTYPE
  5
11B
330
5
100
AcDbSymbolTableRecord
100
AcDbLinetypeTableRecord
  2
ZIGZAG
 70
     0
  3
Zig zag /\/\/\/\/\/\/\/\/\/\/\/\/\/\/\/\/\/\/\/
 72
    65
 73
     4
 40
0.8001000000000001
 49
0.0001
 74
     0
 49
-0.2
 74
     4
 75
   131
340
114
 46
0.2
 50
0.0
 44
-0.2
 45
0.0
 49
-0.4
 74
     4
 75
   131
340
114
 46
0.2
 50
180.0
 44
0.2
 45
0.0
 49
-0.2
 74
     0
  0
ENDTAB
  0
TABLE
  2
LAYER
  5
2
330
0
100
AcDbSymbolTable
 70
    27
  0
LAYER
  5
54
330
2
100
AcDbSymbolTableRecord
100
AcDbLayerTableRecord
  2
0
 70
     0
 62
     7
  6
Continuous
370
    18
390
F
  0
LAYER
  5
75
330
2
100
AcDbSymbolTableRecord
100
AcDbLayerTableRecord
  2
Symbol (ANSI)
 70
     0
 62
     7
  6
Continuous
370
    18
390
F
  0
LAYER
  5
125
330
2
100
AcDbSymbolTableRecord
100
AcDbLayerTableRecord
  2
Dimension (ANSI)
 70
     0
 62
     7
  6
Continuous
370
    13
390
F
  0
LAYER
  5
127
330
2
100
AcDbSymbolTableRecord
100
AcDbLayerTableRecord
  2
Hidden (ANSI)
 70
     0
 62
     7
  6
DASHED
370
    15
390
F
  0
LAYER
  5
130
330
2
100
AcDbSymbolTableRecord
100
AcDbLayerTableRecord
  2
Visible (ANSI)
 70
     0
 62
     7
  6
Continuous
370
    13
390
F
  0
LAYER
  5
131
330
2
100
AcDbSymbolTableRecord
100
AcDbLayerTableRecord
  2
Visible Narrow (ANSI)
 70
     0
 62
     7
  6
Continuous
370
    18
390
F
  0
LAYER
  5
212
330
2
100
AcDbSymbolTableRecord
100
AcDbLayerTableRecord
  2
Defpoints
 70
     0
 62
     7
  6
Continuous
290
     0
370
    -3
390
F
  0
ENDTAB
  0
TABLE
  2
STYLE
  5
3
330
0
100
AcDbSymbolTable
 70
    18
  0
STYLE
  5
55
330
3
100
AcDbSymbolTableRecord
100
AcDbTextStyleTableRecord
  2
Standard
 70
     0
 40
0.0
 41
1.0
 50
0.0
 71
     0
 42
0.2
  3
txt
  4

  0
STYLE
  5
5A
330
3
100
AcDbSymbolTableRecord
100
AcDbTextStyleTableRecord
  2
Annotative
 70
     0
 40
0.0
 41
1.0
 50
0.0
 71
     0
 42
0.2
  3
txt
  4

1001
AcadAnnotative
1000
AnnotativeData
1002
{
1070
     1
1070
     1
1002
}
  0
STYLE
  5
76
330
3
100
AcDbSymbolTableRecord
100
AcDbTextStyleTableRecord
  2
Note Text (ANSI)
 70
     0
 40
0.0
 41
1.0
 50
0.0
 71
     0
 42
0.2
  3
TAHOMA.TTF
  4

1001
ACAD
1000
Tahoma
1071
      256
  0
STYLE
  5
78
330
3
100
AcDbSymbolTableRecord
100
AcDbTextStyleTableRecord
  2
SANSSERIF
 70
     0
 40
0.125
 41
1.0
 50
0.0
 71
     0
 42
0.125
  3
sas_____.pfb
  4

  0
STYLE
  5
114
330
3
100
AcDbSymbolTableRecord
100
AcDbTextStyleTableRecord
  2

 70
     1
 40
0.0
 41
1.0
 50
0.0
 71
     0
 42
0.2
  3
ltypeshp.shx
  4

  0
STYLE
  5
135
330
3
100
AcDbSymbolTableRecord
100
AcDbTextStyleTableRecord
  2
ITALICC_120
 70
     0
 40
0.0
 41
1.0
 50
0.0
 71
     0
 42
0.2
  3
italicc.shx
  4

  0
STYLE
  5
136
330
3
100
AcDbSymbolTableRecord
100
AcDbTextStyleTableRecord
  2
Label Text (ANSI)
 70
     0
 40
0.0
 41
1.0
 50
0.0
 71
     0
 42
0.2
  3
TAHOMA.TTF
  4

1001
ACAD
1000
Tahoma
1071
      256
  0
STYLE
  5
137
330
3
100
AcDbSymbolTableRecord
100
AcDbTextStyleTableRecord
  2
ROMANS
 70
     0
 40
0.0
 41
1.0
 50
0.0
 71
     0
 42
0.2
  3
romans.shx
  4

  0
STYLE
  5
138
330
3
100
AcDbSymbolTableRecord
100
AcDbTextStyleTableRecord
  2
SANSSERIF_114
 70
     0
 40
0.0
 41
1.0
 50
0.0
 71
     0
 42
0.2
  3
TAHOMA.TTF
  4

1001
ACAD
1000
Tahoma
1071
      256
  0
STYLE
  5
139
330
3
100
AcDbSymbolTableRecord
100
AcDbTextStyleTableRecord
  2
SANSSERIF_117
 70
     0
 40
0.0
 41
1.0
 50
0.0
 71
     0
 42
0.2
  3
TAHOMA.TTF
  4

1001
ACAD
1000
Tahoma
1071
      256
  0
STYLE
  5
13A
330
3
100
AcDbSymbolTableRecord
100
AcDbTextStyleTableRecord
  2
STANDARDAM_ANSI
 70
     0
 40
0.0
 41
1.0
 50
0.0
 71
     0
 42
0.2
  3
txt.shx
  4

  0
STYLE
  5
13B
330
3
100
AcDbSymbolTableRecord
100
AcDbTextStyleTableRecord
  2
StandardAM_ANSI$0
 70
     0
 40
0.0
 41
1.0
 50
0.0
 71
     0
 42
0.2
  3
txt.shx
  4

  0
STYLE
  5
13C
330
3
100
AcDbSymbolTableRecord
100
AcDbTextStyleTableRecord
  2
STANDARDAM_ANSI$3
 70
     0
 40
0.0
 41
1.0
 50
0.0
 71
     0
 42
0.2
  3
txt.shx
  4

  0
STYLE
  5
13D
330
3
100
AcDbSymbolTableRecord
100
AcDbTextStyleTableRecord
  2
STANDARDAM_ANSI$4
 70
     0
 40
0.0
 41
1.0
 50
0.0
 71
     0
 42
0.2
  3
txt.shx
  4

  0
STYLE
  5
13E
330
3
100
AcDbSymbolTableRecord
100
AcDbTextStyleTableRecord
  2
STANDARDAM_ANSI$7
 70
     0
 40
0.0
 41
1.0
 50
0.0
 71
     0
 42
0.2
  3
txt.shx
  4

  0
STYLE
  5
13F
330
3
100
AcDbSymbolTableRecord
100
AcDbTextStyleTableRecord
  2
STANDARDAM_ANSI$SF
 70
     0
 40
0.0
 41
1.0
 50
0.0
 71
     0
 42
0.2
  3
txt.shx
  4

  0
STYLE
  5
140
330
3
100
AcDbSymbolTableRecord
100
AcDbTextStyleTableRecord
  2
STANDARDAM_ANSI$SH
 70
     0
 40
0.0
 41
1.0
 50
0.0
 71
     0
 42
0.2
  3
txt.shx
  4

  0
STYLE
  5
141
330
3
100
AcDbSymbolTableRecord
100
AcDbTextStyleTableRecord
  2
STANDARDSTANDARD
 70
     0
 40
0.0
 41
1.0
 50
0.0
 71
     0
 42
0.2
  3
txt.shx
  4

  0
ENDTAB
  0
TABLE
  2
VIEW
  5
6
330
0
100
AcDbSymbolTable
 70
     0
  0
ENDTAB
  0
TABLE
  2
UCS
  5
7
330
0
100
AcDbSymbolTable
 70
     0
  0
ENDTAB
  0
TABLE
  2
APPID
  5
9
330
0
100
AcDbSymbolTable
 70
     4
  0
APPID
  5
56
330
9
100
AcDbSymbolTableRecord
100
AcDbRegAppTableRecord
  2
ACAD
 70
     0
  0
APPID
  5
5E
330
9
100
AcDbSymbolTableRecord
100
AcDbRegAppTableRecord
  2
AcadAnnotative
 70
     0
  0
APPID
  5
C14
330
9
100
AcDbSymbolTableRecord
100
AcDbRegAppTableRecord
  2
ACAD_DSTYLE_DIMRADIAL_EXTENSION
 70
     0
  0
APPID
  5
E1D
330
9
100
AcDbSymbolTableRecord
100
AcDbRegAppTableRecord
  2
ACAD_MLEADERVER
 70
     0
  0
ENDTAB
  0
TABLE
  2
DIMSTYLE
  5
A
330
0
100
AcDbSymbolTable
 70
    27
100
AcDbDimStyleTable
 71
     2
340
156
340
58
  0
DIMSTYLE
105
58
330
A
100
AcDbSymbolTableRecord
100
AcDbDimStyleTableRecord
  2
STANDARD
 70
     0
 41
0.1800000071525573
 42
0.0625
140
0.1800000071525574
144
1.0
147
0.0900000035762787
176
   256
177
   256
178
   256
274
     3
340
55
371
    -1
372
    -1
  0
DIMSTYLE
105
59
330
A
100
AcDbSymbolTableRecord
100
AcDbDimStyleTableRecord
  2
Annotative
 70
     0
340
55
1001
AcadAnnotative
1000
AnnotativeData
1002
{
1070
     1
1070
     1
1002
}
  0
DIMSTYLE
105
142
330
A
100
AcDbSymbolTableRecord
100
AcDbDimStyleTableRecord
  2
AM_ANSI
 70
     0
  4
 mm
 40
6.666666666666666
 41
0.119999997317791
 42
0.05
 43
0.5
 44
0.1
 45
0.00000001
 78
     4
 79
     2
140
0.1200000047683716
146
0.7099999453624112
147
0.0599999986588955
176
   256
177
   256
178
     2
284
     4
340
13A
371
    -1
372
    -1
  0
DIMSTYLE
105
143
330
A
100
AcDbSymbolTableRecord
100
AcDbDimStyleTableRecord
  2
AM_ANSI$7
 70
     0
  4
 mm
 40
6.666666666666666
 41
0.119999997317791
 42
0.05
 43
0.5
 44
0.1
 45
0.00000001
 78
     4
 79
     2
140
0.1200000047683716
146
0.7099999453624112
147
0.0599999986588955
176
   256
177
   256
178
     2
284
     4
340
13A
371
    -1
372
    -1
  0
DIMSTYLE
105
144
330
A
100
AcDbSymbolTableRecord
100
AcDbDimStyleTableRecord
  2
AM_ANSI$0
 70
     0
  4
 mm
 40
6.666666666666666
 41
0.119999997317791
 42
0.05
 43
0.5
 44
0.1
 45
0.00000001
 78
     4
 79
     2
140
0.1200000047683716
146
0.7099999453624112
147
0.0599999986588955
176
   256
177
   256
178
     2
284
     4
340
13B
371
    -1
372
    -1
  0
DIMSTYLE
105
145
330
A
100
AcDbSymbolTableRecord
100
AcDbDimStyleTableRecord
  2
AM_ANSI$0$7
 70
     0
  4
 mm
 40
6.666666666666666
 41
0.119999997317791
 42
0.05
 43
0.5
 44
0.1
 45
0.00000001
 78
     4
 79
     2
140
0.1200000047683716
146
0.7099999453624112
147
0.0599999986588955
176
   256
177
   256
178
     2
284
     4
340
13B
371
    -1
372
    -1
  0
DIMSTYLE
105
146
330
A
100
AcDbSymbolTableRecord
100
AcDbDimStyleTableRecord
  2
AM_ANSI$3
 70
     0
  4
 mm
 40
6.666666666666666
 41
0.119999997317791
 42
0.05
 43
0.5
 44
0.1
 45
0.00000001
 78
     4
 79
     2
140
0.1200000047683716
146
0.7099999453624112
147
0.0599999986588955
176
   256
177
   256
178
     2
284
     4
340
13C
371
    -1
372
    -1
  0
DIMSTYLE
105
147
330
A
100
AcDbSymbolTableRecord
100
AcDbDimStyleTableRecord
  2
AM_ANSI$3$7
 70
     0
  4
 mm
 40
6.666666666666666
 41
0.119999997317791
 42
0.05
 43
0.5
 44
0.1
 45
0.00000001
 78
     4
 79
     2
140
0.1200000047683716
146
0.7099999453624112
147
0.0599999986588955
176
   256
177
   256
178
     2
284
     4
340
13C
371
    -1
372
    -1
  0
DIMSTYLE
105
148
330
A
100
AcDbSymbolTableRecord
100
AcDbDimStyleTableRecord
  2
AM_ANSI$4
 70
     0
  4
 mm
 40
6.666666666666666
 41
0.119999997317791
 42
0.05
 43
0.5
 44
0.1
 45
0.00000001
 78
     4
 79
     2
140
0.1200000047683716
146
0.7099999453624112
147
0.0599999986588955
176
   256
177
   256
178
     2
284
     4
340
13D
371
    -1
372
    -1
  0
DIMSTYLE
105
149
330
A
100
AcDbSymbolTableRecord
100
AcDbDimStyleTableRecord
  2
AM_ANSI$4$7
 70
     0
  4
 mm
 40
6.666666666666666
 41
0.119999997317791
 42
0.05
 43
0.5
 44
0.1
 45
0.00000001
 78
     4
 79
     2
140
0.1200000047683716
146
0.7099999453624112
147
0.0599999986588955
176
   256
177
   256
178
     2
284
     4
340
13D
371
    -1
372
    -1
  0
DIMSTYLE
105
14A
330
A
100
AcDbSymbolTableRecord
100
AcDbDimStyleTableRecord
  2
AM_ANSI$SF
 70
     0
  4
 mm
 40
6.666666666666666
 41
0.119999997317791
 42
0.05
 43
0.5
 44
0.1
 45
0.00000001
 75
     1
 76
     1
 78
     4
 79
     2
140
0.1200000047683716
146
0.7099999453624112
147
0.0599999986588955
176
   256
177
   256
178
     2
284
     4
340
13F
371
    -1
372
    -1
  0
DIMSTYLE
105
14B
330
A
100
AcDbSymbolTableRecord
100
AcDbDimStyleTableRecord
  2
AM_ANSI$SF$7
 70
     0
  4
 mm
 40
6.666666666666666
 41
0.119999997317791
 42
0.05
 43
0.5
 44
0.1
 45
0.00000001
 75
     1
 76
     1
 78
     4
 79
     2
140
0.1200000047683716
146
0.7099999453624112
147
0.0599999986588955
176
   256
177
   256
178
     2
284
     4
340
13F
371
    -1
372
    -1
  0
DIMSTYLE
105
14C
330
A
100
AcDbSymbolTableRecord
100
AcDbDimStyleTableRecord
  2
AM_ANSI$SH
 70
     0
  4
 mm
 40
6.666666666666666
 41
0.119999997317791
 42
0.05
 43
0.5
 44
0.1
 45
0.00000001
 75
     1
 76
     1
 78
     4
 79
     2
140
0.1200000047683716
146
0.7099999453624112
147
0.0599999986588955
176
   256
177
   256
178
     2
284
     4
340
140
371
    -1
372
    -1
  0
DIMSTYLE
105
14D
330
A
100
AcDbSymbolTableRecord
100
AcDbDimStyleTableRecord
  2
AM_ANSI$SH$7
 70
     0
  4
 mm
 40
6.666666666666666
 41
0.119999997317791
 42
0.05
 43
0.5
 44
0.1
 45
0.00000001
 75
     1
 76
     1
 78
     4
 79
     2
140
0.1200000047683716
146
0.7099999453624112
147
0.0599999986588955
176
   256
177
   256
178
     2
284
     4
340
140
371
    -1
372
    -1
  0
DIMSTYLE
105
14E
330
A
100
AcDbSymbolTableRecord
100
AcDbDimStyleTableRecord
  2
Architectural (ANSI)
 70
     0
 40
6.666666666666666
 41
0.0984251946210861
 43
0.2362204724409449
 44
0.125
 45
0.00000001
 46
0.3937007874015748
 78
     3
 79
     3
140
0.1200000047683716
147
0.031496062992126
171
     1
176
   256
177
   256
178
   256
272
     2
274
     1
276
     2
277
     4
284
    12
285
     4
286
    12
340
76
371
    -1
372
    -1
  0
DIMSTYLE
105
14F
330
A
100
AcDbSymbolTableRecord
100
AcDbDimStyleTableRecord
  2
Architectural (ANSI)$7
 70
     0
 40
6.666666666666666
 41
0.0984251946210861
 43
0.2362204724409449
 44
0.125
 45
0.00000001
 46
0.3937007874015748
 78
     3
 79
     3
140
0.1200000047683716
147
0.031496062992126
171
     1
176
   256
177
   256
178
   256
272
     2
274
     1
276
     2
277
     4
284
    12
285
     4
286
    12
340
76
371
    -1
372
    -1
  0
DIMSTYLE
105
150
330
A
100
AcDbSymbolTableRecord
100
AcDbDimStyleTableRecord
  2
Default - Fraction (ANSI)
 70
     0
 40
6.666666666666666
 41
0.0984251946210861
 43
0.2362204724409449
 44
0.125
 45
0.00000001
 46
0.3937007874015748
 79
     3
140
0.1200000047683716
147
0.031496062992126
171
     1
176
   256
177
   256
178
   256
272
     2
274
     1
276
     2
277
     5
284
    12
285
     4
286
    12
340
76
371
    -1
372
    -1
  0
DIMSTYLE
105
151
330
A
100
AcDbSymbolTableRecord
100
AcDbDimStyleTableRecord
  2
Default - Fraction (ANSI)$7
 70
     0
 40
6.666666666666666
 41
0.0984251946210861
 43
0.2362204724409449
 44
0.125
 45
0.00000001
 46
0.3937007874015748
 79
     3
140
0.1200000047683716
147
0.031496062992126
171
     1
176
   256
177
   256
178
   256
272
     2
274
     1
276
     2
277
     5
284
    12
285
     4
286
    12
340
76
371
    -1
372
    -1
  0
DIMSTYLE
105
152
330
A
100
AcDbSymbolTableRecord
100
AcDbDimStyleTableRecord
  2
Default - mm (ANSI)
 70
     0
 40
6.666666666666666
 41
0.0984251946210861
 42
0.063
 43
0.2362204724409449
 44
0.125
 45
0.00000001
 46
0.3937007874015748
 73
     0
 78
     4
 79
     1
140
0.1200000047683716
143
1.0
144
25.4
147
0.031496062992126
171
     1
176
   256
177
   256
178
   256
179
     1
271
     2
272
     2
274
     1
284
     4
285
     4
340
76
371
    -1
372
    -1
  0
DIMSTYLE
105
153
330
A
100
AcDbSymbolTableRecord
100
AcDbDimStyleTableRecord
  2
Default - mm (ANSI)$7
 70
     0
 40
6.666666666666666
 41
0.0984251946210861
 42
0.063
 43
0.2362204724409449
 44
0.125
 45
0.00000001
 46
0.3937007874015748
 73
     0
 78
     4
 79
     1
140
0.1200000047683716
143
1.0
144
25.4
147
0.031496062992126
171
     1
176
   256
177
   256
178
   256
179
     1
271
     2
272
     2
274
     1
284
     4
285
     4
340
76
371
    -1
372
    -1
  0
DIMSTYLE
105
154
330
A
100
AcDbSymbolTableRecord
100
AcDbDimStyleTableRecord
  2
Default - mm [in] (ANSI)
 70
     0
  4
 in
 40
6.666666666666666
 41
0.0984251946210861
 42
0.063
 43
0.25
 44
0.125
 45
0.00000001
 46
0.3937007874015748
 73
     0
 78
     4
 79
     1
140
0.1200000047683716
143
0.03937
144
25.4
147
0.031496062992126
170
     1
171
     3
176
   256
177
   256
178
   256
179
     1
271
     2
272
     2
274
     3
284
     4
285
     4
286
     4
340
76
371
    -1
372
    -1
  0
DIMSTYLE
105
155
330
A
100
AcDbSymbolTableRecord
100
AcDbDimStyleTableRecord
  2
Default - mm [in] (ANSI)$7
 70
     0
  4
 in
 40
6.666666666666666
 41
0.0984251946210861
 42
0.063
 43
0.25
 44
0.125
 45
0.00000001
 46
0.3937007874015748
 73
     0
 78
     4
 79
     1
140
0.1200000047683716
143
0.03937
144
25.4
147
0.031496062992126
170
     1
171
     3
176
   256
177
   256
178
   256
179
     1
271
     2
272
     2
274
     3
284
     4
285
     4
286
     4
340
76
371
    -1
372
    -1
  0
DIMSTYLE
105
156
102
{ACAD_REACTORS
330
210
330
2FD
330
3E7
330
4E7
330
5E7
330
6D1
330
7BB
330
8A5
330
991
330
A91
330
B7B
330
C35
330
CEE
102
}
330
A
100
AcDbSymbolTableRecord
100
AcDbDimStyleTableRecord
  2
Default (ANSI)
 70
     0
 40
6.666666666666666
 41
0.0984251946210861
 43
0.2362204724409449
 44
0.125
 45
0.00000001
 46
0.3937007874015748
 79
     1
140
0.1200000047683716
147
0.031496062992126
171
     1
176
   256
177
   256
178
   256
271
     2
272
     2
274
     1
284
     4
285
     4
340
76
371
    -1
372
    -1
  0
DIMSTYLE
105
157
330
A
100
AcDbSymbolTableRecord
100
AcDbDimStyleTableRecord
  2
Default (ANSI)$7
 70
     0
 40
6.666666666666666
 41
0.0984251946210861
 43
0.2362204724409449
 44
0.125
 45
0.00000001
 46
0.3937007874015748
 79
     1
140
0.1200000047683716
147
0.031496062992126
171
     1
176
   256
177
   256
178
   256
271
     2
272
     2
274
     1
284
     4
285
     4
340
76
371
    -1
372
    -1
  0
DIMSTYLE
105
158
330
A
100
AcDbSymbolTableRecord
100
AcDbDimStyleTableRecord
  2
Alternate (ANSI)
 70
     0
 40
6.666666666666666
 41
0.0979999974370003
340
55
342
159
  0
DIMSTYLE
105
16B
330
A
100
AcDbSymbolTableRecord
100
AcDbDimStyleTableRecord
  2
Datum (ANSI)
 70
     0
 40
6.666666666666666
 41
0.0979999974370003
340
55
342
159
  0
DIMSTYLE
105
17A
330
A
100
AcDbSymbolTableRecord
100
AcDbDimStyleTableRecord
  2
Large (ANSI)
 70
     0
 40
6.666666666666666
 41
0.1959999948740005
340
55
342
159
  0
ENDTAB
  0
TABLE
  2
BLOCK_RECORD
  5
1
330
0
100
AcDbSymbolTable
 70
    17
  0
BLOCK_RECORD
  5
6C
330
1
100
AcDbSymbolTableRecord
100
AcDbBlockTableRecord
  2
*Model_Space
340
6F
  0
BLOCK_RECORD
  5
68
330
1
100
AcDbSymbolTableRecord
100
AcDbBlockTableRecord
  2
*Paper_Space
340
6B
  0
BLOCK_RECORD
  5
70
330
1
100
AcDbSymbolTableRecord
100
AcDbBlockTableRecord
  2
*Paper_Space0
340
73
  0
BLOCK_RECORD
  5
159
330
1
100
AcDbSymbolTableRecord
100
AcDbBlockTableRecord
  2
_Closed
340
0
  0
BLOCK_RECORD
  5
160
330
1
100
AcDbSymbolTableRecord
100
AcDbBlockTableRecord
  2
DatumFilled45
340
0
  0
BLOCK_RECORD
  5
16C
330
1
100
AcDbSymbolTableRecord
100
AcDbBlockTableRecord
  2
Filled-1
340
0
  0
BLOCK_RECORD
  5
213
330
1
100
AcDbSymbolTableRecord
100
AcDbBlockTableRecord
  2
*D4
340
0
  0
BLOCK_RECORD
  5
2FE
330
1
100
AcDbSymbolTableRecord
100
AcDbBlockTableRecord
  2
*D5
340
0
  0
BLOCK_RECORD
  5
3E8
330
1
100
AcDbSymbolTableRecord
100
AcDbBlockTableRecord
  2
*D6
340
0
  0
BLOCK_RECORD
  5
4E8
330
1
100
AcDbSymbolTableRecord
100
AcDbBlockTableRecord
  2
*D7
340
0
  0
BLOCK_RECORD
  5
5E8
330
1
100
AcDbSymbolTableRecord
100
AcDbBlockTableRecord
  2
*D8
340
0
  0
BLOCK_RECORD
  5
6D2
330
1
100
AcDbSymbolTableRecord
100
AcDbBlockTableRecord
  2
*D9
340
0
  0
BLOCK_RECORD
  5
7BC
330
1
100
AcDbSymbolTableRecord
100
AcDbBlockTableRecord
  2
*D10
340
0
  0
BLOCK_RECORD
  5
8A6
330
1
100
AcDbSymbolTableRecord
100
AcDbBlockTableRecord
  2
*D11
340
0
  0
BLOCK_RECORD
  5
992
330
1
100
AcDbSymbolTableRecord
100
AcDbBlockTableRecord
  2
*D12
340
0
  0
BLOCK_RECORD
  5
A92
330
1
100
AcDbSymbolTableRecord
100
AcDbBlockTableRecord
  2
*D13
340
0
  0
BLOCK_RECORD
  5
B7C
330
1
100
AcDbSymbolTableRecord
100
AcDbBlockTableRecord
  2
*D14
340
0
  0
BLOCK_RECORD
  5
C36
330
1
100
AcDbSymbolTableRecord
100
AcDbBlockTableRecord
  2
*D15
340
0
  0
BLOCK_RECORD
  5
CEF
330
1
100
AcDbSymbolTableRecord
100
AcDbBlockTableRecord
  2
*D16
340
0
  0
ENDTAB
  0
ENDSEC
  0
SECTION
  2
BLOCKS
  0
BLOCK
  5
6D
330
6C
100
AcDbEntity
  8
0
100
AcDbBlockBegin
  2
*Model_Space
 70
     0
 10
0.0
 20
0.0
 30
0.0
  3
*Model_Space
  1

  0
ENDBLK
  5
6E
330
6C
100
AcDbEntity
  8
0
100
AcDbBlockEnd
  0
BLOCK
  5
69
330
68
100
AcDbEntity
 67
     1
  8
0
100
AcDbBlockBegin
  2
*Paper_Space
 70
     0
 10
0.0
 20
0.0
 30
0.0
  3
*Paper_Space
  1

  0
ENDBLK
  5
6A
330
68
100
AcDbEntity
 67
     1
  8
0
100
AcDbBlockEnd
  0
BLOCK
  5
71
330
70
100
AcDbEntity
 67
     1
  8
0
100
AcDbBlockBegin
  2
*Paper_Space0
 70
     0
 10
0.0
 20
0.0
 30
0.0
  3
*Paper_Space0
  1

  0
ENDBLK
  5
72
330
70
100
AcDbEntity
 67
     1
  8
0
100
AcDbBlockEnd
  0
BLOCK
  5
15E
330
159
100
AcDbEntity
  8
0
100
AcDbBlockBegin
  2
_Closed
 70
     0
 10
0.0
 20
0.0
 30
0.0
  3
_Closed
  1

  0
LINE
  5
15A
330
159
100
AcDbEntity
  8
0
  6
ByBlock
 62
     0
370
    -2
100
AcDbLine
 10
-1.0
 20
0.1666666666666666
 30
0.0
 11
0.0
 21
0.0
 31
0.0
  0
LINE
  5
15B
330
159
100
AcDbEntity
  8
0
  6
ByBlock
 62
     0
370
    -2
100
AcDbLine
 10
0.0
 20
0.0
 30
0.0
 11
-1.0
 21
-0.1666666666666666
 31
0.0
  0
LINE
  5
15C
330
159
100
AcDbEntity
  8
0
  6
ByBlock
 62
     0
370
    -2
100
AcDbLine
 10
-1.0
 20
0.1666666666666666
 30
0.0
 11
-1.0
 21
-0.1666666666666666
 31
0.0
  0
LINE
  5
15D
330
159
100
AcDbEntity
  8
0
  6
ByBlock
 62
     0
370
    -2
100
AcDbLine
 10
0.0
 20
0.0
 30
0.0
 11
-1.0
 21
0.0
 31
0.0
  0
ENDBLK
  5
15F
330
159
100
AcDbEntity
  8
0
100
AcDbBlockEnd
  0
BLOCK
  5
161
330
160
100
AcDbEntity
  8
0
100
AcDbBlockBegin
  2
DatumFilled45
 70
     0
 10
0.0
 20
0.0
 30
0.0
  3
DatumFilled45
  1

  0
POLYLINE
  5
163
330
160
100
AcDbEntity
  8
0
 62
     0
100
AcDb2dPolyline
 66
     1
 10
0.0
 20
0.0
 30
0.0
 70
   128
  0
VERTEX
  5
164
330
163
100
AcDbEntity
  8
0
 62
     0
100
AcDbVertex
100
AcDb2dVertex
 10
0.0
 20
0.9999999999999998
 30
0.0
  0
VERTEX
  5
165
330
163
100
AcDbEntity
  8
0
 62
     0
100
AcDbVertex
100
AcDb2dVertex
 10
0.0
 20
-0.9999999999999998
 30
0.0
  0
VERTEX
  5
167
330
163
100
AcDbEntity
  8
0
 62
     0
100
AcDbVertex
100
AcDb2dVertex
 10
-0.9999999999999998
 20
0.0
 30
0.0
  0
VERTEX
  5
168
330
163
100
AcDbEntity
  8
0
 62
     0
100
AcDbVertex
100
AcDb2dVertex
 10
0.0
 20
0.9999999999999998
 30
0.0
  0
SEQEND
  5
166
330
163
100
AcDbEntity
  8
0
 62
     0
  0
SOLID
  5
16A
330
160
100
AcDbEntity
  8
0
 62
     0
100
AcDbTrace
 10
0.0
 20
0.9999999999999998
 30
0.0
 11
0.0
 21
-0.9999999999999998
 31
0.0
 12
-0.9999999999999998
 22
0.0
 32
0.0
 13
0.0
 23
0.9999999999999998
 33
0.0
  0
ENDBLK
  5
162
330
160
100
AcDbEntity
  8
0
100
AcDbBlockEnd
  0
BLOCK
  5
16D
330
16C
100
AcDbEntity
  8
0
100
AcDbBlockBegin
  2
Filled-1
 70
     0
 10
0.0
 20
0.0
 30
0.0
  3
Filled-1
  1

  0
LINE
  5
16F
330
16C
100
AcDbEntity
  8
0
 62
     0
100
AcDbLine
 10
-0.9999999999999998
 20
0.0
 30
0.0
 11
0.0
 21
0.0
 31
0.0
  0
POLYLINE
  5
170
330
16C
100
AcDbEntity
  8
0
 62
     0
100
AcDb2dPolyline
 66
     1
 10
0.0
 20
0.0
 30
0.0
 70
   128
  0
VERTEX
  5
171
330
170
100
AcDbEntity
  8
0
 62
     0
100
AcDbVertex
100
AcDb2dVertex
 10
-0.9999999999999998
 20
-0.0994897959183674
 30
0.0
  0
VERTEX
  5
172
330
170
100
AcDbEntity
  8
0
 62
     0
100
AcDbVertex
100
AcDb2dVertex
 10
0.0
 20
0.0
 30
0.0
  0
VERTEX
  5
174
330
170
100
AcDbEntity
  8
0
 62
     0
100
AcDbVertex
100
AcDb2dVertex
 10
-0.9999999999999998
 20
0.0994897959183674
 30
0.0
  0
VERTEX
  5
175
330
170
100
AcDbEntity
  8
0
 62
     0
100
AcDbVertex
100
AcDb2dVertex
 10
-0.9999999999999998
 20
-0.0994897959183674
 30
0.0
  0
SEQEND
  5
173
330
170
100
AcDbEntity
  8
0
 62
     0
  0
SOLID
  5
176
330
16C
100
AcDbEntity
  8
0
 62
     0
100
AcDbTrace
 10
-0.9999999999999998
 20
-0.0994897959183674
 30
0.0
 11
0.0
 21
0.0
 31
0.0
 12
-0.9999999999999998
 22
0.0994897959183674
 32
0.0
 13
-0.9999999999999998
 23
-0.0994897959183674
 33
0.0
  0
LINE
  5
177
330
16C
100
AcDbEntity
  8
0
 62
     0
100
AcDbLine
 10
-0.9999999999999998
 20
-0.0994897959183674
 30
0.0
 11
0.0
 21
0.0
 31
0.0
  0
LINE
  5
178
330
16C
100
AcDbEntity
  8
0
 62
     0
100
AcDbLine
 10
0.0
 20
0.0
 30
0.0
 11
-0.9999999999999998
 21
0.0994897959183674
 31
0.0
  0
LINE
  5
179
330
16C
100
AcDbEntity
  8
0
 62
     0
100
AcDbLine
 10
-0.9999999999999998
 20
0.0994897959183674
 30
0.0
 11
-0.9999999999999998
 21
-0.0994897959183674
 31
0.0
  0
ENDBLK
  5
16E
330
16C
100
AcDbEntity
  8
0
100
AcDbBlockEnd
  0
BLOCK
  5
214
330
213
100
AcDbEntity
  8
0
100
AcDbBlockBegin
  2
*D4
 70
     1
 10
0.0
 20
0.0
 30
0.0
  3
*D4
  1

  0
LINE
  5
2F3
330
213
100
AcDbEntity
  8
Dimension (ANSI)
100
AcDbLine
 10
22.75012321349916
 20
14.33232734003978
 30
0.0
 11
10.60948036653257
 21
14.33232734003978
 31
0.0
  0
LINE
  5
2F4
330
213
100
AcDbEntity
  8
Dimension (ANSI)
100
AcDbLine
 10
22.75012321349915
 20
60.53232734003977
 30
0.0
 11
10.60948036653258
 21
60.53232734003978
 31
0.0
  0
LINE
  5
2F5
330
213
100
AcDbEntity
  8
Dimension (ANSI)
100
AcDbLine
 10
11.44281369986591
 20
14.98849530418036
 30
0.0
 11
11.44281369986591
 21
36.80569809673041
 31
0.0
  0
LINE
  5
2F6
330
213
100
AcDbEntity
  8
Dimension (ANSI)
100
AcDbLine
 10
11.44281369986592
 20
59.87615937589922
 30
0.0
 11
11.44281369986591
 21
38.05895658334915
 31
0.0
  0
SOLID
  5
2F7
330
213
100
AcDbEntity
  8
Dimension (ANSI)
100
AcDbTrace
 10
11.33345237250915
 20
14.98849530418036
 30
0.0
 11
11.55217502722267
 21
14.98849530418036
 31
0.0
 12
11.44281369986591
 22
14.33232734003978
 32
0.0
 13
11.44281369986591
 23
14.33232734003978
 33
0.0
  0
SOLID
  5
2F8
330
213
100
AcDbEntity
  8
Dimension (ANSI)
100
AcDbTrace
 10
11.33345237250916
 20
59.87615937589922
 30
0.0
 11
11.55217502722268
 21
59.87615937589922
 31
0.0
 12
11.44281369986592
 22
60.53232734003978
 32
0.0
 13
11.44281369986592
 23
60.53232734003978
 33
0.0
  0
MTEXT
  5
2F9
330
213
100
AcDbEntity
  8
Dimension (ANSI)
100
AcDbMText
 10
10.10795803903305
 20
37.84898283006831
 30
0.0
 40
0.8000000317891439
 41
0.0
 71
     1
 72
     1
  1
\A1;46.20
  7
Note Text (ANSI)
 73
     1
 44
1.0
1001
ACAD
1000
MTEXTBEGIN
1070
    73
1070
     1
1070
    44
1040
1.0
1070
    74
1070
     0
1000
MTEXTEND
  0
POINT
  5
2FA
330
213
100
AcDbEntity
  8
Defpoints
 62
     0
100
AcDbPoint
 10
23.16678988016583
 20
14.33232734003978
 30
0.0
  0
POINT
  5
2FB
330
213
100
AcDbEntity
  8
Defpoints
 62
     0
100
AcDbPoint
 10
23.16678988016581
 20
60.53232734003977
 30
0.0
  0
POINT
  5
2FC
330
213
100
AcDbEntity
  8
Defpoints
 62
     0
100
AcDbPoint
 10
11.44281369986592
 20
60.53232734003978
 30
0.0
  0
ENDBLK
  5
215
330
213
100
AcDbEntity
  8
0
100
AcDbBlockEnd
  0
BLOCK
  5
2FF
330
2FE
100
AcDbEntity
  8
0
100
AcDbBlockBegin
  2
*D5
 70
     1
 10
0.0
 20
0.0
 30
0.0
  3
*D5
  1

  0
LINE
  5
3DD
330
2FE
100
AcDbEntity
  8
Dimension (ANSI)
100
AcDbLine
 10
22.66678988016581
 20
60.44899400670644
 30
0.0
 11
22.66678988016581
 21
67.16487327179831
 31
0.0
  0
LINE
  5
3DE
330
2FE
100
AcDbEntity
  8
Dimension (ANSI)
100
AcDbLine
 10
44.86678988016581
 20
60.44899400670645
 30
0.0
 11
44.86678988016581
 21
67.16487327179831
 31
0.0
  0
LINE
  5
3DF
330
2FE
100
AcDbEntity
  8
Dimension (ANSI)
100
AcDbLine
 10
23.32295784430639
 20
66.33153993846498
 30
0.0
 11
32.24049639694313
 21
66.33153993846498
 31
0.0
  0
LINE
  5
3E0
330
2FE
100
AcDbEntity
  8
Dimension (ANSI)
100
AcDbLine
 10
44.21062191602525
 20
66.33153993846498
 30
0.0
 11
35.29308336338849
 21
66.33153993846498
 31
0.0
  0
SOLID
  5
3E1
330
2FE
100
AcDbEntity
  8
Dimension (ANSI)
100
AcDbTrace
 10
23.32295784430639
 20
66.44090126582175
 30
0.0
 11
23.32295784430639
 21
66.22217861110822
 31
0.0
 12
22.66678988016581
 22
66.33153993846498
 32
0.0
 13
22.66678988016581
 23
66.33153993846498
 33
0.0
  0
SOLID
  5
3E2
330
2FE
100
AcDbEntity
  8
Dimension (ANSI)
100
AcDbTrace
 10
44.21062191602525
 20
66.44090126582175
 30
0.0
 11
44.21062191602525
 21
66.22217861110822
 31
0.0
 12
44.86678988016581
 22
66.33153993846498
 32
0.0
 13
44.86678988016581
 23
66.33153993846498
 33
0.0
  0
MTEXT
  5
3E3
330
2FE
100
AcDbEntity
  8
Dimension (ANSI)
100
AcDbMText
 10
32.45047015022397
 20
66.74819542849352
 30
0.0
 40
0.8000000317891439
 41
0.0
 71
     1
 72
     1
  1
\A1;22.20
  7
Note Text (ANSI)
 73
     1
 44
1.0
1001
ACAD
1000
MTEXTBEGIN
1070
    73
1070
     1
1070
    44
1040
1.0
1070
    74
1070
     0
1000
MTEXTEND
  0
POINT
  5
3E4
330
2FE
100
AcDbEntity
  8
Defpoints
 62
     0
100
AcDbPoint
 10
22.66678988016581
 20
60.03232734003978
 30
0.0
  0
POINT
  5
3E5
330
2FE
100
AcDbEntity
  8
Defpoints
 62
     0
100
AcDbPoint
 10
44.86678988016581
 20
60.03232734003979
 30
0.0
  0
POINT
  5
3E6
330
2FE
100
AcDbEntity
  8
Defpoints
 62
     0
100
AcDbPoint
 10
44.86678988016581
 20
66.33153993846498
 30
0.0
  0
ENDBLK
  5
300
330
2FE
100
AcDbEntity
  8
0
100
AcDbBlockEnd
  0
BLOCK
  5
3E9
330
3E8
100
AcDbEntity
  8
0
100
AcDbBlockBegin
  2
*D6
 70
     1
 10
0.0
 20
0.0
 30
0.0
  3
*D6
  1

  0
LINE
  5
4DC
330
3E8
100
AcDbEntity
  8
Dimension (ANSI)
100
AcDbLine
 10
22.77012321349916
 20
14.85232734003978
 30
0.0
 11
20.29911158576876
 21
14.85232734003978
 31
0.0
  0
LINE
  5
4DD
330
3E8
100
AcDbEntity
  8
Dimension (ANSI)
100
AcDbLine
 10
22.77012321349916
 20
15.60232734003978
 30
0.0
 11
20.29911158576876
 21
15.60232734003978
 31
0.0
  0
LINE
  5
4DE
330
3E8
100
AcDbEntity
  8
Dimension (ANSI)
100
AcDbLine
 10
21.13244491910209
 20
16.25849530418036
 30
0.0
 11
21.13244491910209
 21
16.91466326832093
 31
0.0
  0
LINE
  5
4DF
330
3E8
100
AcDbEntity
  8
Dimension (ANSI)
100
AcDbLine
 10
21.13244491910209
 20
14.1961593758992
 30
0.0
 11
21.13244491910209
 21
12.94144068607435
 31
0.0
  0
LINE
  5
4E0
330
3E8
100
AcDbEntity
  8
Dimension (ANSI)
100
AcDbLine
 10
21.13244491910209
 20
12.94144068607435
 30
0.0
 11
20.47627695496152
 21
12.94144068607435
 31
0.0
  0
SOLID
  5
4E1
330
3E8
100
AcDbEntity
  8
Dimension (ANSI)
100
AcDbTrace
 10
21.02308359174533
 20
16.25849530418036
 30
0.0
 11
21.24180624645886
 21
16.25849530418036
 31
0.0
 12
21.13244491910209
 22
15.60232734003978
 32
0.0
 13
21.13244491910209
 23
15.60232734003978
 33
0.0
  0
SOLID
  5
4E2
330
3E8
100
AcDbEntity
  8
Dimension (ANSI)
100
AcDbTrace
 10
21.02308359174533
 20
14.1961593758992
 30
0.0
 11
21.24180624645886
 21
14.1961593758992
 31
0.0
 12
21.13244491910209
 22
14.85232734003978
 32
0.0
 13
21.13244491910209
 23
14.85232734003978
 33
0.0
  0
MTEXT
  5
4E3
330
3E8
100
AcDbEntity
  8
Dimension (ANSI)
100
AcDbMText
 10
18.23326081061948
 20
13.35782753942331
 30
0.0
 40
0.8000000317891439
 41
0.0
 71
     1
 72
     1
  1
\A1;0.75
  7
Note Text (ANSI)
 73
     1
 44
1.0
1001
ACAD
1000
MTEXTBEGIN
1070
    73
1070
     1
1070
    44
1040
1.0
1070
    74
1070
     0
1000
MTEXTEND
  0
POINT
  5
4E4
330
3E8
100
AcDbEntity
  8
Defpoints
 62
     0
100
AcDbPoint
 10
23.18678988016583
 20
14.85232734003978
 30
0.0
  0
POINT
  5
4E5
330
3E8
100
AcDbEntity
  8
Defpoints
 62
     0
100
AcDbPoint
 10
23.18678988016583
 20
15.60232734003978
 30
0.0
  0
POINT
  5
4E6
330
3E8
100
AcDbEntity
  8
Defpoints
 62
     0
100
AcDbPoint
 10
21.13244491910209
 20
15.60232734003978
 30
0.0
  0
ENDBLK
  5
3EA
330
3E8
100
AcDbEntity
  8
0
100
AcDbBlockEnd
  0
BLOCK
  5
4E9
330
4E8
100
AcDbEntity
  8
0
100
AcDbBlockBegin
  2
*D7
 70
     1
 10
0.0
 20
0.0
 30
0.0
  3
*D7
  1

  0
LINE
  5
5DC
330
4E8
100
AcDbEntity
  8
Dimension (ANSI)
100
AcDbLine
 10
44.78345654683248
 20
60.53232734003977
 30
0.0
 11
51.00436082401976
 21
60.53232734003977
 31
0.0
  0
LINE
  5
5DD
330
4E8
100
AcDbEntity
  8
Dimension (ANSI)
100
AcDbLine
 10
44.76345654683249
 20
60.01232734003977
 30
0.0
 11
51.00436082401976
 21
60.01232734003976
 31
0.0
  0
LINE
  5
5DE
330
4E8
100
AcDbEntity
  8
Dimension (ANSI)
100
AcDbLine
 10
50.17102749068643
 20
61.18849530418034
 30
0.0
 11
50.17102749068643
 21
61.84466326832092
 31
0.0
  0
LINE
  5
5DF
330
4E8
100
AcDbEntity
  8
Dimension (ANSI)
100
AcDbLine
 10
50.17102749068643
 20
59.35615937589918
 30
0.0
 11
50.17102749068643
 21
58.1009544623579
 31
0.0
  0
LINE
  5
5E0
330
4E8
100
AcDbEntity
  8
Dimension (ANSI)
100
AcDbLine
 10
50.17102749068643
 20
58.1009544623579
 30
0.0
 11
49.51485952654586
 21
58.1009544623579
 31
0.0
  0
SOLID
  5
5E1
330
4E8
100
AcDbEntity
  8
Dimension (ANSI)
100
AcDbTrace
 10
50.06166616332967
 20
61.18849530418034
 30
0.0
 11
50.2803888180432
 21
61.18849530418034
 31
0.0
 12
50.17102749068643
 22
60.53232734003977
 32
0.0
 13
50.17102749068643
 23
60.53232734003977
 33
0.0
  0
SOLID
  5
5E2
330
4E8
100
AcDbEntity
  8
Dimension (ANSI)
100
AcDbTrace
 10
50.06166616332967
 20
59.35615937589918
 30
0.0
 11
50.2803888180432
 21
59.35615937589918
 31
0.0
 12
50.17102749068643
 22
60.01232734003976
 32
0.0
 13
50.17102749068643
 23
60.01232734003976
 33
0.0
  0
MTEXT
  5
5E3
330
4E8
100
AcDbEntity
  8
Dimension (ANSI)
100
AcDbMText
 10
47.2627097350981
 20
58.51760995238645
 30
0.0
 40
0.8000000317891439
 41
0.0
 71
     1
 72
     1
  1
\A1;0.52
  7
Note Text (ANSI)
 73
     1
 44
1.0
1001
ACAD
1000
MTEXTBEGIN
1070
    73
1070
     1
1070
    44
1040
1.0
1070
    74
1070
     0
1000
MTEXTEND
  0
POINT
  5
5E4
330
4E8
100
AcDbEntity
  8
Defpoints
 62
     0
100
AcDbPoint
 10
44.36678988016581
 20
60.53232734003977
 30
0.0
  0
POINT
  5
5E5
330
4E8
100
AcDbEntity
  8
Defpoints
 62
     0
100
AcDbPoint
 10
44.34678988016583
 20
60.01232734003977
 30
0.0
  0
POINT
  5
5E6
330
4E8
100
AcDbEntity
  8
Defpoints
 62
     0
100
AcDbPoint
 10
50.17102749068643
 20
60.01232734003976
 30
0.0
  0
ENDBLK
  5
4EA
330
4E8
100
AcDbEntity
  8
0
100
AcDbBlockEnd
  0
BLOCK
  5
5E9
330
5E8
100
AcDbEntity
  8
0
100
AcDbBlockBegin
  2
*D8
 70
     1
 10
0.0
 20
0.0
 30
0.0
  3
*D8
  1

  0
LINE
  5
6C7
330
5E8
100
AcDbEntity
  8
Dimension (ANSI)
100
AcDbLine
 10
44.86678988016581
 20
60.44899400670645
 30
0.0
 11
44.86678988016581
 21
64.78266854738887
 31
0.0
  0
LINE
  5
6C8
330
5E8
100
AcDbEntity
  8
Dimension (ANSI)
100
AcDbLine
 10
44.34678988016583
 20
60.42899400670643
 30
0.0
 11
44.34678988016583
 21
64.78266854738887
 31
0.0
  0
LINE
  5
6C9
330
5E8
100
AcDbEntity
  8
Dimension (ANSI)
100
AcDbLine
 10
43.69062191602526
 20
63.94933521405554
 30
0.0
 11
43.03445395188467
 21
63.94933521405554
 31
0.0
  0
LINE
  5
6CA
330
5E8
100
AcDbEntity
  8
Dimension (ANSI)
100
AcDbLine
 10
45.52295784430639
 20
63.94933521405554
 30
0.0
 11
46.52246558648827
 21
63.94933521405554
 31
0.0
  0
SOLID
  5
6CB
330
5E8
100
AcDbEntity
  8
Dimension (ANSI)
100
AcDbTrace
 10
43.69062191602526
 20
64.0586965414123
 30
0.0
 11
43.69062191602526
 21
63.83997388669877
 31
0.0
 12
44.34678988016583
 22
63.94933521405554
 32
0.0
 13
44.34678988016583
 23
63.94933521405554
 33
0.0
  0
SOLID
  5
6CC
330
5E8
100
AcDbEntity
  8
Dimension (ANSI)
100
AcDbTrace
 10
45.52295784430639
 20
64.0586965414123
 30
0.0
 11
45.52295784430639
 21
63.83997388669877
 31
0.0
 12
44.86678988016581
 22
63.94933521405554
 32
0.0
 13
44.86678988016581
 23
63.94933521405554
 33
0.0
  0
MTEXT
  5
6CD
330
5E8
100
AcDbEntity
  8
Dimension (ANSI)
100
AcDbMText
 10
46.73243933976912
 20
64.36599070408407
 30
0.0
 40
0.8000000317891439
 41
0.0
 71
     1
 72
     1
  1
\A1;0.52
  7
Note Text (ANSI)
 73
     1
 44
1.0
1001
ACAD
1000
MTEXTBEGIN
1070
    73
1070
     1
1070
    44
1040
1.0
1070
    74
1070
     0
1000
MTEXTEND
  0
POINT
  5
6CE
330
5E8
100
AcDbEntity
  8
Defpoints
 62
     0
100
AcDbPoint
 10
44.86678988016581
 20
60.03232734003979
 30
0.0
  0
POINT
  5
6CF
330
5E8
100
AcDbEntity
  8
Defpoints
 62
     0
100
AcDbPoint
 10
44.34678988016583
 20
60.01232734003977
 30
0.0
  0
POINT
  5
6D0
330
5E8
100
AcDbEntity
  8
Defpoints
 62
     0
100
AcDbPoint
 10
44.34678988016583
 20
63.94933521405554
 30
0.0
  0
ENDBLK
  5
5EA
330
5E8
100
AcDbEntity
  8
0
100
AcDbBlockEnd
  0
BLOCK
  5
6D3
330
6D2
100
AcDbEntity
  8
0
100
AcDbBlockBegin
  2
*D9
 70
     1
 10
0.0
 20
0.0
 30
0.0
  3
*D9
  1

  0
LINE
  5
7B1
330
6D2
100
AcDbEntity
  8
Dimension (ANSI)
100
AcDbLine
 10
22.77012321349916
 20
14.85232734003978
 30
0.0
 11
16.64254404731003
 21
14.85232734003978
 31
0.0
  0
LINE
  5
7B2
330
6D2
100
AcDbEntity
  8
Dimension (ANSI)
100
AcDbLine
 10
22.77012321349916
 20
37.43232734003978
 30
0.0
 11
16.64254404731004
 21
37.43232734003978
 31
0.0
  0
LINE
  5
7B3
330
6D2
100
AcDbEntity
  8
Dimension (ANSI)
100
AcDbLine
 10
17.47587738064337
 20
15.50849530418035
 30
0.0
 11
17.47587738064337
 21
25.51408627665292
 31
0.0
  0
LINE
  5
7B4
330
6D2
100
AcDbEntity
  8
Dimension (ANSI)
100
AcDbLine
 10
17.47587738064337
 20
36.77615937589921
 30
0.0
 11
17.47587738064337
 21
26.77056840342662
 31
0.0
  0
SOLID
  5
7B5
330
6D2
100
AcDbEntity
  8
Dimension (ANSI)
100
AcDbTrace
 10
17.3665160532866
 20
15.50849530418035
 30
0.0
 11
17.58523870800013
 21
15.50849530418035
 31
0.0
 12
17.47587738064337
 22
14.85232734003978
 32
0.0
 13
17.47587738064337
 23
14.85232734003978
 33
0.0
  0
SOLID
  5
7B6
330
6D2
100
AcDbEntity
  8
Dimension (ANSI)
100
AcDbTrace
 10
17.36651605328661
 20
36.77615937589921
 30
0.0
 11
17.58523870800013
 21
36.77615937589921
 31
0.0
 12
17.47587738064337
 22
37.43232734003978
 32
0.0
 13
17.47587738064337
 23
37.43232734003978
 33
0.0
  0
MTEXT
  5
7B7
330
6D2
100
AcDbEntity
  8
Dimension (ANSI)
100
AcDbMText
 10
15.85922184293112
 20
26.56059465014579
 30
0.0
 40
0.8000000317891439
 41
0.0
 71
     1
 72
     1
  1
\A1;22.580
  7
Note Text (ANSI)
 73
     1
 44
1.0
1001
ACAD
1000
MTEXTBEGIN
1070
    73
1070
     1
1070
    44
1040
1.0
1070
    74
1070
     0
1000
MTEXTEND
  0
POINT
  5
7B8
330
6D2
100
AcDbEntity
  8
Defpoints
 62
     0
100
AcDbPoint
 10
23.18678988016583
 20
14.85232734003978
 30
0.0
  0
POINT
  5
7B9
330
6D2
100
AcDbEntity
  8
Defpoints
 62
     0
100
AcDbPoint
 10
23.18678988016583
 20
37.43232734003978
 30
0.0
  0
POINT
  5
7BA
330
6D2
100
AcDbEntity
  8
Defpoints
 62
     0
100
AcDbPoint
 10
17.47587738064337
 20
37.43232734003978
 30
0.0
  0
ENDBLK
  5
6D4
330
6D2
100
AcDbEntity
  8
0
100
AcDbBlockEnd
  0
BLOCK
  5
7BD
330
7BC
100
AcDbEntity
  8
0
100
AcDbBlockBegin
  2
*D10
 70
     1
 10
0.0
 20
0.0
 30
0.0
  3
*D10
  1

  0
LINE
  5
89B
330
7BC
100
AcDbEntity
  8
Dimension (ANSI)
100
AcDbLine
 10
22.77012321349916
 20
14.85232734003978
 30
0.0
 11
13.65517808292475
 21
14.85232734003978
 31
0.0
  0
LINE
  5
89C
330
7BC
100
AcDbEntity
  8
Dimension (ANSI)
100
AcDbLine
 10
22.77012321349916
 20
60.01232734003977
 30
0.0
 11
13.65517808292477
 21
60.01232734003977
 31
0.0
  0
LINE
  5
89D
330
7BC
100
AcDbEntity
  8
Dimension (ANSI)
100
AcDbLine
 10
14.48851141625809
 20
15.50849530418035
 30
0.0
 11
14.4885114162581
 21
44.58081955773192
 31
0.0
  0
LINE
  5
89E
330
7BC
100
AcDbEntity
  8
Dimension (ANSI)
100
AcDbLine
 10
14.4885114162581
 20
59.3561593758992
 30
0.0
 11
14.4885114162581
 21
45.8335407709915
 31
0.0
  0
SOLID
  5
89F
330
7BC
100
AcDbEntity
  8
Dimension (ANSI)
100
AcDbTrace
 10
14.37915008890133
 20
15.50849530418035
 30
0.0
 11
14.59787274361485
 21
15.50849530418035
 31
0.0
 12
14.48851141625809
 22
14.85232734003978
 32
0.0
 13
14.48851141625809
 23
14.85232734003978
 33
0.0
  0
SOLID
  5
8A0
330
7BC
100
AcDbEntity
  8
Dimension (ANSI)
100
AcDbTrace
 10
14.37915008890134
 20
59.3561593758992
 30
0.0
 11
14.59787274361486
 21
59.3561593758992
 31
0.0
 12
14.4885114162581
 22
60.01232734003977
 32
0.0
 13
14.4885114162581
 23
60.01232734003977
 33
0.0
  0
MTEXT
  5
8A1
330
7BC
100
AcDbEntity
  8
Dimension (ANSI)
100
AcDbMText
 10
12.85331994765482
 20
45.62356701771067
 30
0.0
 40
0.8000000317891439
 41
0.0
 71
     1
 72
     1
  1
\A1;45.160
  7
Note Text (ANSI)
 73
     1
 44
1.0
1001
ACAD
1000
MTEXTBEGIN
1070
    73
1070
     1
1070
    44
1040
1.0
1070
    74
1070
     0
1000
MTEXTEND
  0
POINT
  5
8A2
330
7BC
100
AcDbEntity
  8
Defpoints
 62
     0
100
AcDbPoint
 10
23.18678988016583
 20
14.85232734003978
 30
0.0
  0
POINT
  5
8A3
330
7BC
100
AcDbEntity
  8
Defpoints
 62
     0
100
AcDbPoint
 10
23.18678988016583
 20
60.01232734003977
 30
0.0
  0
POINT
  5
8A4
330
7BC
100
AcDbEntity
  8
Defpoints
 62
     0
100
AcDbPoint
 10
14.4885114162581
 20
60.01232734003977
 30
0.0
  0
ENDBLK
  5
7BE
330
7BC
100
AcDbEntity
  8
0
100
AcDbBlockEnd
  0
BLOCK
  5
8A7
330
8A6
100
AcDbEntity
  8
0
100
AcDbBlockBegin
  2
*D11
 70
     1
 10
0.0
 20
0.0
 30
0.0
  3
*D11
  1

  0
LINE
  5
985
330
8A6
100
AcDbEntity
  8
Dimension (ANSI)
100
AcDbLine
 10
64.43531894189233
 20
60.94899400670644
 30
0.0
 11
64.43531894189233
 21
64.37207012219201
 31
0.0
  0
LINE
  5
986
330
8A6
100
AcDbEntity
  8
Dimension (ANSI)
100
AcDbLine
 10
65.20931894189249
 20
59.23099400670644
 30
0.0
 11
65.20931894189249
 21
64.37207012219201
 31
0.0
  0
LINE
  5
987
330
8A6
100
AcDbEntity
  8
Dimension (ANSI)
100
AcDbLine
 10
65.86548690603307
 20
63.53873678885868
 30
0.0
 11
66.52165487017363
 21
63.53873678885868
 31
0.0
  0
LINE
  5
988
330
8A6
100
AcDbEntity
  8
Dimension (ANSI)
100
AcDbLine
 10
63.77915097775176
 20
63.53873678885868
 30
0.0
 11
62.78394142244316
 21
63.53873678885868
 31
0.0
  0
SOLID
  5
989
330
8A6
100
AcDbEntity
  8
Dimension (ANSI)
100
AcDbTrace
 10
65.86548690603307
 20
63.64809811621545
 30
0.0
 11
65.86548690603307
 21
63.42937546150192
 31
0.0
 12
65.20931894189249
 22
63.53873678885868
 32
0.0
 13
65.20931894189249
 23
63.53873678885868
 33
0.0
  0
SOLID
  5
98A
330
8A6
100
AcDbEntity
  8
Dimension (ANSI)
100
AcDbTrace
 10
63.77915097775176
 20
63.64809811621545
 30
0.0
 11
63.77915097775176
 21
63.42937546150192
 31
0.0
 12
64.43531894189233
 22
63.53873678885868
 32
0.0
 13
64.43531894189233
 23
63.53873678885868
 33
0.0
  0
MTEXT
  5
98B
330
8A6
100
AcDbEntity
  8
Dimension (ANSI)
100
AcDbMText
 10
60.52319525724885
 20
63.95512364220763
 30
0.0
 40
0.8000000317891439
 41
0.0
 71
     1
 72
     1
  1
\A1;0.77
  7
Note Text (ANSI)
 73
     1
 44
1.0
1001
ACAD
1000
MTEXTBEGIN
1070
    73
1070
     1
1070
    44
1040
1.0
1070
    74
1070
     0
1000
MTEXTEND
  0
POINT
  5
98C
330
8A6
100
AcDbEntity
  8
Defpoints
 62
     0
100
AcDbPoint
 10
64.43531894189233
 20
60.53232734003977
 30
0.0
  0
POINT
  5
98D
330
8A6
100
AcDbEntity
  8
Defpoints
 62
     0
100
AcDbPoint
 10
65.20931894189249
 20
58.81432734003978
 30
0.0
  0
POINT
  5
98E
330
8A6
100
AcDbEntity
  8
Defpoints
 62
     0
100
AcDbPoint
 10
65.20931894189249
 20
63.53873678885868
 30
0.0
  0
ENDBLK
  5
8A8
330
8A6
100
AcDbEntity
  8
0
100
AcDbBlockEnd
  0
BLOCK
  5
993
330
992
100
AcDbEntity
  8
0
100
AcDbBlockBegin
  2
*D12
 70
     1
 10
0.0
 20
0.0
 30
0.0
  3
*D12
  1

  0
LINE
  5
A86
330
992
100
AcDbEntity
  8
Dimension (ANSI)
100
AcDbLine
 10
44.78345654683248
 20
14.33232734003978
 30
0.0
 11
48.29426824140863
 21
14.33232734003978
 31
0.0
  0
LINE
  5
A87
330
992
100
AcDbEntity
  8
Dimension (ANSI)
100
AcDbLine
 10
45.28345654683248
 20
14.83232734003977
 30
0.0
 11
48.29426824140863
 21
14.83232734003977
 31
0.0
  0
LINE
  5
A88
330
992
100
AcDbEntity
  8
Dimension (ANSI)
100
AcDbLine
 10
47.4609349080753
 20
13.67615937589921
 30
0.0
 11
47.4609349080753
 21
13.01999141175863
 31
0.0
  0
LINE
  5
A89
330
992
100
AcDbEntity
  8
Dimension (ANSI)
100
AcDbLine
 10
47.4609349080753
 20
15.48849530418035
 30
0.0
 11
47.4609349080753
 21
16.74321399400519
 31
0.0
  0
LINE
  5
A8A
330
992
100
AcDbEntity
  8
Dimension (ANSI)
100
AcDbLine
 10
47.4609349080753
 20
16.74321399400519
 30
0.0
 11
48.11710287221588
 21
16.74321399400519
 31
0.0
  0
SOLID
  5
A8B
330
992
100
AcDbEntity
  8
Dimension (ANSI)
100
AcDbTrace
 10
47.35157358071854
 20
13.67615937589921
 30
0.0
 11
47.57029623543206
 21
13.67615937589921
 31
0.0
 12
47.4609349080753
 22
14.33232734003978
 32
0.0
 13
47.4609349080753
 23
14.33232734003978
 33
0.0
  0
SOLID
  5
A8C
330
992
100
AcDbEntity
  8
Dimension (ANSI)
100
AcDbTrace
 10
47.35157358071854
 20
15.48849530418035
 30
0.0
 11
47.57029623543206
 21
15.48849530418035
 31
0.0
 12
47.4609349080753
 22
14.83232734003977
 32
0.0
 13
47.4609349080753
 23
14.83232734003977
 33
0.0
  0
MTEXT
  5
A8D
330
992
100
AcDbEntity
  8
Dimension (ANSI)
100
AcDbMText
 10
48.32707662549672
 20
17.15960084735415
 30
0.0
 40
0.8000000317891439
 41
0.0
 71
     1
 72
     1
  1
\A1;0.50
  7
Note Text (ANSI)
 73
     1
 44
1.0
1001
ACAD
1000
MTEXTBEGIN
1070
    73
1070
     1
1070
    44
1040
1.0
1070
    74
1070
     0
1000
MTEXTEND
  0
POINT
  5
A8E
330
992
100
AcDbEntity
  8
Defpoints
 62
     0
100
AcDbPoint
 10
44.36678988016582
 20
14.33232734003978
 30
0.0
  0
POINT
  5
A8F
330
992
100
AcDbEntity
  8
Defpoints
 62
     0
100
AcDbPoint
 10
44.86678988016582
 20
14.83232734003977
 30
0.0
  0
POINT
  5
A90
330
992
100
AcDbEntity
  8
Defpoints
 62
     0
100
AcDbPoint
 10
47.4609349080753
 20
14.83232734003977
 30
0.0
  0
ENDBLK
  5
994
330
992
100
AcDbEntity
  8
0
100
AcDbBlockEnd
  0
BLOCK
  5
A93
330
A92
100
AcDbEntity
  8
0
100
AcDbBlockBegin
  2
*D13
 70
     1
 10
0.0
 20
0.0
 30
0.0
  3
*D13
  1

  0
LINE
  5
B71
330
A92
100
AcDbEntity
  8
Dimension (ANSI)
100
AcDbLine
 10
44.86678988016582
 20
14.41566067337311
 30
0.0
 11
44.86678988016582
 21
9.561986132690698
 31
0.0
  0
LINE
  5
B72
330
A92
100
AcDbEntity
  8
Dimension (ANSI)
100
AcDbLine
 10
44.36678988016582
 20
13.91566067337311
 30
0.0
 11
44.36678988016582
 21
9.561986132690698
 31
0.0
  0
LINE
  5
B73
330
A92
100
AcDbEntity
  8
Dimension (ANSI)
100
AcDbLine
 10
45.52295784430639
 20
10.39531946602403
 30
0.0
 11
46.17912580844698
 21
10.39531946602403
 31
0.0
  0
LINE
  5
B74
330
A92
100
AcDbEntity
  8
Dimension (ANSI)
100
AcDbLine
 10
43.71062191602525
 20
10.39531946602403
 30
0.0
 11
42.71299463060042
 21
10.39531946602403
 31
0.0
  0
SOLID
  5
B75
330
A92
100
AcDbEntity
  8
Dimension (ANSI)
100
AcDbTrace
 10
45.52295784430639
 20
10.50468079338079
 30
0.0
 11
45.52295784430639
 21
10.28595813866727
 31
0.0
 12
44.86678988016582
 22
10.39531946602403
 32
0.0
 13
44.86678988016582
 23
10.39531946602403
 33
0.0
  0
SOLID
  5
B76
330
A92
100
AcDbEntity
  8
Dimension (ANSI)
100
AcDbTrace
 10
43.71062191602525
 20
10.50468079338079
 30
0.0
 11
43.71062191602525
 21
10.28595813866727
 31
0.0
 12
44.36678988016582
 22
10.39531946602403
 32
0.0
 13
44.36678988016582
 23
10.39531946602403
 33
0.0
  0
MTEXT
  5
B77
330
A92
100
AcDbEntity
  8
Dimension (ANSI)
100
AcDbMText
 10
40.45708392563855
 20
10.81170631937298
 30
0.0
 40
0.8000000317891439
 41
0.0
 71
     1
 72
     1
  1
\A1;0.50
  7
Note Text (ANSI)
 73
     1
 44
1.0
1001
ACAD
1000
MTEXTBEGIN
1070
    73
1070
     1
1070
    44
1040
1.0
1070
    74
1070
     0
1000
MTEXTEND
  0
POINT
  5
B78
330
A92
100
AcDbEntity
  8
Defpoints
 62
     0
100
AcDbPoint
 10
44.86678988016582
 20
14.83232734003977
 30
0.0
  0
POINT
  5
B79
330
A92
100
AcDbEntity
  8
Defpoints
 62
     0
100
AcDbPoint
 10
44.36678988016582
 20
14.33232734003978
 30
0.0
  0
POINT
  5
B7A
330
A92
100
AcDbEntity
  8
Defpoints
 62
     0
100
AcDbPoint
 10
44.36678988016582
 20
10.39531946602403
 30
0.0
  0
ENDBLK
  5
A94
330
A92
100
AcDbEntity
  8
0
100
AcDbBlockEnd
  0
BLOCK
  5
B7D
330
B7C
100
AcDbEntity
  8
0
100
AcDbBlockBegin
  2
*D14
 70
     1
 10
0.0
 20
0.0
 30
0.0
  3
*D14
  1

  0
LINE
  5
C2D
330
B7C
100
AcDbEntity
  8
Dimension (ANSI)
100
AcDbLine
 10
18.15072304019482
 20
67.32072180871231
 30
0.0
 11
18.9672863663317
 21
67.32072180871231
 31
0.0
  0
LINE
  5
C2E
330
B7C
100
AcDbEntity
  8
Dimension (ANSI)
100
AcDbLine
 10
18.9672863663317
 20
67.32072180871231
 30
0.0
 11
22.73370589809537
 21
60.79709181708103
 31
0.0
  0
MTEXT
  5
C2F
102
{ACAD_XDICTIONARY
360
E24
102
}
330
B7C
100
AcDbEntity
  8
Dimension (ANSI)
100
AcDbMText
 10
17.94074928691397
 20
67.93075093525847
 30
0.0
 40
0.8000000317891439
 41
0.0
 71
     3
 72
     1
  1
\A1;\U+22050.50{\PTYP.(6PL.)}
  7
Note Text (ANSI)
 73
     1
 44
1.0
1001
ACAD
1000
MTEXTBEGIN
1070
    73
1070
     1
1070
    44
1040
1.0
1070
    74
1070
     0
1000
MTEXTEND
  0
SOLID
  5
C30
330
B7C
100
AcDbEntity
  8
Dimension (ANSI)
100
AcDbTrace
 10
22.82841558577791
 20
60.85177248075945
 30
0.0
 11
22.63899621041284
 21
60.74241115340264
 31
0.0
 12
23.06178988016578
 22
60.22883369098586
 32
0.0
 13
23.06178988016578
 23
60.22883369098586
 33
0.0
  0
LINE
  5
C31
330
B7C
100
AcDbEntity
  8
Dimension (ANSI)
100
AcDbLine
 10
22.58678988016583
 20
60.01232734003977
 30
0.0
 11
23.78678988016583
 21
60.01232734003977
 31
0.0
  0
LINE
  5
C32
330
B7C
100
AcDbEntity
  8
Dimension (ANSI)
100
AcDbLine
 10
23.18678988016583
 20
59.41232734003977
 30
0.0
 11
23.18678988016583
 21
60.61232734003977
 31
0.0
  0
POINT
  5
C33
330
B7C
100
AcDbEntity
  8
Defpoints
 62
     0
100
AcDbPoint
 10
23.06178988016578
 20
60.22883369098586
 30
0.0
  0
POINT
  5
C34
330
B7C
100
AcDbEntity
  8
Defpoints
 62
     0
100
AcDbPoint
 10
23.31178988016588
 20
59.7958209890937
 30
0.0
  0
ENDBLK
  5
B7E
330
B7C
100
AcDbEntity
  8
0
100
AcDbBlockEnd
  0
BLOCK
  5
C37
330
C36
100
AcDbEntity
  8
0
100
AcDbBlockBegin
  2
*D15
 70
     1
 10
0.0
 20
0.0
 30
0.0
  3
*D15
  1

  0
LINE
  5
CE6
330
C36
100
AcDbEntity
  8
Dimension (ANSI)
100
AcDbLine
 10
25.70227987000233
 20
11.47446727156807
 30
0.0
 11
24.88584497232283
 21
11.47446727156807
 31
0.0
  0
LINE
  5
CE7
330
C36
100
AcDbEntity
  8
Dimension (ANSI)
100
AcDbLine
 10
24.88584497232283
 20
11.47446727156807
 30
0.0
 11
23.49601639903994
 21
14.85106047102231
 31
0.0
  0
MTEXT
  5
CE8
102
{ACAD_XDICTIONARY
360
E26
102
}
330
C36
100
AcDbEntity
  8
Dimension (ANSI)
100
AcDbMText
 10
25.91225362328317
 20
12.08449639811425
 30
0.0
 40
0.8000000317891439
 41
0.0
 71
     1
 72
     1
  1
\A1;\U+22050.31{\PTYP. (4PL.)}
  7
Note Text (ANSI)
 73
     1
 44
1.0
1001
ACAD
1000
MTEXTBEGIN
1070
    73
1070
     1
1070
    44
1040
1.0
1070
    74
1070
     0
1000
MTEXTEND
  0
SOLID
  5
CE9
330
C36
100
AcDbEntity
  8
Dimension (ANSI)
100
AcDbTrace
 10
23.59714604611985
 20
14.892686116996
 30
0.0
 11
23.39488675196004
 21
14.80943482504861
 31
0.0
 12
23.24626252319778
 22
15.45783835350172
 32
0.0
 13
23.24626252319778
 23
15.45783835350172
 33
0.0
  0
LINE
  5
CEA
330
C36
100
AcDbEntity
  8
Dimension (ANSI)
100
AcDbLine
 10
22.58678988016582
 20
15.60232734003978
 30
0.0
 11
23.78678988016583
 21
15.60232734003978
 31
0.0
  0
LINE
  5
CEB
330
C36
100
AcDbEntity
  8
Dimension (ANSI)
100
AcDbLine
 10
23.18678988016582
 20
15.00232734003978
 30
0.0
 11
23.18678988016583
 21
16.20232734003978
 31
0.0
  0
POINT
  5
CEC
330
C36
100
AcDbEntity
  8
Defpoints
 62
     0
100
AcDbPoint
 10
23.24626252319778
 20
15.45783835350172
 30
0.0
  0
POINT
  5
CED
330
C36
100
AcDbEntity
  8
Defpoints
 62
     0
100
AcDbPoint
 10
23.12731723713387
 20
15.74681632657783
 30
0.0
  0
ENDBLK
  5
C38
330
C36
100
AcDbEntity
  8
0
100
AcDbBlockEnd
  0
BLOCK
  5
CF0
330
CEF
100
AcDbEntity
  8
0
100
AcDbBlockBegin
  2
*D16
 70
     1
 10
0.0
 20
0.0
 30
0.0
  3
*D16
  1

  0
LINE
  5
DCE
330
CEF
100
AcDbEntity
  8
Dimension (ANSI)
100
AcDbLine
 10
23.18678988016583
 20
60.42899400670643
 30
0.0
 11
23.18678988016583
 21
64.78266854738885
 31
0.0
  0
LINE
  5
DCF
330
CEF
100
AcDbEntity
  8
Dimension (ANSI)
100
AcDbLine
 10
44.34678988016583
 20
60.42899400670643
 30
0.0
 11
44.34678988016583
 21
64.78266854738885
 31
0.0
  0
LINE
  5
DD0
330
CEF
100
AcDbEntity
  8
Dimension (ANSI)
100
AcDbLine
 10
23.8429578443064
 20
63.94933521405551
 30
0.0
 11
31.94016058917273
 21
63.94933521405551
 31
0.0
  0
LINE
  5
DD1
330
CEF
100
AcDbEntity
  8
Dimension (ANSI)
100
AcDbLine
 10
43.69062191602526
 20
63.94933521405551
 30
0.0
 11
35.5934191711589
 21
63.94933521405551
 31
0.0
  0
SOLID
  5
DD2
330
CEF
100
AcDbEntity
  8
Dimension (ANSI)
100
AcDbTrace
 10
23.8429578443064
 20
64.05869654141227
 30
0.0
 11
23.8429578443064
 21
63.83997388669875
 31
0.0
 12
23.18678988016583
 22
63.94933521405551
 32
0.0
 13
23.18678988016583
 23
63.94933521405551
 33
0.0
  0
SOLID
  5
DD3
330
CEF
100
AcDbEntity
  8
Dimension (ANSI)
100
AcDbTrace
 10
43.69062191602526
 20
64.05869654141227
 30
0.0
 11
43.69062191602526
 21
63.83997388669875
 31
0.0
 12
44.34678988016583
 22
63.94933521405551
 32
0.0
 13
44.34678988016583
 23
63.94933521405551
 33
0.0
  0
MTEXT
  5
DD4
330
CEF
100
AcDbEntity
  8
Dimension (ANSI)
100
AcDbMText
 10
32.15013434245357
 20
64.36599070408404
 30
0.0
 40
0.8000000317891439
 41
0.0
 71
     1
 72
     1
  1
\A1;21.160
  7
Note Text (ANSI)
 73
     1
 44
1.0
1001
ACAD
1000
MTEXTBEGIN
1070
    73
1070
     1
1070
    44
1040
1.0
1070
    74
1070
     0
1000
MTEXTEND
  0
POINT
  5
DD5
330
CEF
100
AcDbEntity
  8
Defpoints
 62
     0
100
AcDbPoint
 10
23.18678988016583
 20
60.01232734003977
 30
0.0
  0
POINT
  5
DD6
330
CEF
100
AcDbEntity
  8
Defpoints
 62
     0
100
AcDbPoint
 10
44.34678988016583
 20
60.01232734003977
 30
0.0
  0
POINT
  5
DD7
330
CEF
100
AcDbEntity
  8
Defpoints
 62
     0
100
AcDbPoint
 10
44.34678988016583
 20
63.94933521405551
 30
0.0
  0
ENDBLK
  5
CF1
330
CEF
100
AcDbEntity
  8
0
100
AcDbBlockEnd
  0
ENDSEC
  0
SECTION
  2
ENTITIES
  0
MTEXT
  5
74
330
6C
100
AcDbEntity
  8
Symbol (ANSI)
100
AcDbMText
 10
67.72395683665561
 20
16.9102756467691
 30
0.0
 40
0.9450000301590115
 41
34.88650408316785
 71
     1
 72
     1
  1
{\fRomanS|b0|i0|c0|p2;PART#: NP4824C\P(DATA SUBJECT TO CHANGE WITHOUT NOTICE)\PTHIS DRAWING AND COMPONENTS OF ARE\PPROPERTY OF HUBBELL INC. WIEGMANN\P }
  7
Note Text (ANSI)
 73
     2
 44
1.093904256820678
1001
ACAD
1000
MTEXTBEGIN
1070
    73
1070
     2
1070
    44
1040
1.093904256820678
1070
    74
1070
     0
1000
MTEXTEND
  0
TEXT
  5
77
330
6C
100
AcDbEntity
  8
0
100
AcDbText
 10
100.0861170067495
 20
11.4979016778031
 30
0.0
 40
0.6570243161006749
  1
HUBBELL
  7
SANSSERIF
100
AcDbText
  0
POLYLINE
  5
79
330
6C
100
AcDbEntity
  8
0
100
AcDb2dPolyline
 66
     1
 10
0.0
 20
0.0
 30
0.0
  0
VERTEX
  5
7A
330
79
100
AcDbEntity
  8
0
100
AcDbVertex
100
AcDb2dVertex
 10
100.4265167669338
 20
11.17329488319652
 30
0.0
 42
0.0538548888021971
  0
VERTEX
  5
7B
330
79
100
AcDbEntity
  8
0
100
AcDbVertex
100
AcDb2dVertex
 10
100.6631218296035
 20
10.98797951301594
 30
0.0
 42
0.0762621633615686
 70
     2
 50
328.0963691854962
  0
VERTEX
  5
7C
330
79
100
AcDbEntity
  8
0
100
AcDbVertex
100
AcDb2dVertex
 10
101.2413714754107
 20
10.74036221304115
 30
0.0
 42
0.0631748622128167
 50
328.0963691854962
  0
VERTEX
  5
7D
330
79
100
AcDbEntity
  8
0
100
AcDbVertex
100
AcDb2dVertex
 10
101.9933153547142
 20
10.64497360915946
 30
0.0
 42
0.0631748622128144
  0
VERTEX
  5
7E
330
79
100
AcDbEntity
  8
0
100
AcDbVertex
100
AcDb2dVertex
 10
102.7452592340178
 20
10.74036221304115
 30
0.0
 42
0.0762621633615716
  0
VERTEX
  5
7F
330
79
100
AcDbEntity
  8
0
100
AcDbVertex
100
AcDb2dVertex
 10
103.323508879825
 20
10.98797951301594
 30
0.0
 42
0.0538548888021992
 70
     2
 50
31.90363081450366
  0
VERTEX
  5
80
330
79
100
AcDbEntity
  8
0
100
AcDbVertex
100
AcDb2dVertex
 10
103.5601139424947
 20
11.17329488319652
 30
0.0
 42
0.1478388992712208
 50
31.90363081450366
  0
SEQEND
  5
81
330
79
100
AcDbEntity
  8
0
  0
POLYLINE
  5
82
330
6C
100
AcDbEntity
  8
0
100
AcDb2dPolyline
 66
     1
 10
0.0
 20
0.0
 30
0.0
  0
VERTEX
  5
83
330
82
100
AcDbEntity
  8
0
100
AcDbVertex
100
AcDb2dVertex
 10
100.8603176833227
 20
11.24488794127594
 30
0.0
 42
0.0708473647366734
  0
VERTEX
  5
84
330
82
100
AcDbEntity
  8
0
100
AcDbVertex
100
AcDb2dVertex
 10
101.0748098644518
 20
10.98797951301594
 30
0.0
 42
0.0943474025114784
 70
     2
 50
317.9633854595613
  0
VERTEX
  5
85
330
82
100
AcDbEntity
  8
0
100
AcDbVertex
100
AcDb2dVertex
 10
101.4901858259983
 20
10.73585268726593
 30
0.0
 42
0.0895889244631754
 50
317.9633854595613
  0
VERTEX
  5
86
330
82
100
AcDbEntity
  8
0
100
AcDbVertex
100
AcDb2dVertex
 10
101.9933153547142
 20
10.64497360915946
 30
0.0
 42
0.0895889244631755
  0
VERTEX
  5
87
330
82
100
AcDbEntity
  8
0
100
AcDbVertex
100
AcDb2dVertex
 10
102.4964448834303
 20
10.73585268726593
 30
0.0
 42
0.0943474025114826
  0
VERTEX
  5
88
330
82
100
AcDbEntity
  8
0
100
AcDbVertex
100
AcDb2dVertex
 10
102.9118208449767
 20
10.98797951301594
 30
0.0
 42
0.0708473647366705
 70
     2
 50
42.03661454043863
  0
VERTEX
  5
89
330
82
100
AcDbEntity
  8
0
100
AcDbVertex
100
AcDb2dVertex
 10
103.1263130261058
 20
11.24488794127594
 30
0.0
 42
0.1080871028423927
 50
42.03661454043863
  0
SEQEND
  5
8A
330
82
100
AcDbEntity
  8
0
  0
POLYLINE
  5
8B
330
6C
100
AcDbEntity
  8
0
100
AcDb2dPolyline
 66
     1
 10
0.0
 20
0.0
 30
0.0
  0
VERTEX
  5
8C
330
8B
100
AcDbEntity
  8
0
100
AcDbVertex
100
AcDb2dVertex
 10
103.549495534705
 20
12.46907306715202
 30
0.0
 42
0.0512131062417871
  0
VERTEX
  5
8D
330
8B
100
AcDbEntity
  8
0
100
AcDbVertex
100
AcDb2dVertex
 10
103.323508879825
 20
12.64415852314465
 30
0.0
 42
0.0762621633615678
 70
     2
 50
148.0963691854963
  0
VERTEX
  5
8E
330
8B
100
AcDbEntity
  8
0
100
AcDbVertex
100
AcDb2dVertex
 10
102.7452592340178
 20
12.89177582311944
 30
0.0
 42
0.0631748622128132
 50
148.0963691854963
  0
VERTEX
  5
8F
330
8B
100
AcDbEntity
  8
0
100
AcDbVertex
100
AcDb2dVertex
 10
101.9933153547142
 20
12.98716442700112
 30
0.0
 42
0.0631748622128155
  0
SEQEND
  5
90
330
8B
100
AcDbEntity
  8
0
  0
POLYLINE
  5
91
330
6C
100
AcDbEntity
  8
0
100
AcDb2dPolyline
 66
     1
 10
0.0
 20
0.0
 30
0.0
  0
VERTEX
  5
92
330
91
100
AcDbEntity
  8
0
100
AcDbVertex
100
AcDb2dVertex
 10
103.1210385949349
 20
12.39569300460702
 30
0.0
 42
0.0687403046083495
  0
VERTEX
  5
93
330
91
100
AcDbEntity
  8
0
100
AcDbVertex
100
AcDb2dVertex
 10
102.9118208449767
 20
12.64415852314465
 30
0.0
 42
0.0943474025114827
 70
     2
 50
137.9633854595613
  0
VERTEX
  5
94
330
91
100
AcDbEntity
  8
0
100
AcDbVertex
100
AcDb2dVertex
 10
102.4964448834303
 20
12.89628534889464
 30
0.0
 42
0.0895889244631755
 50
137.9633854595613
  0
VERTEX
  5
95
330
91
100
AcDbEntity
  8
0
100
AcDbVertex
100
AcDb2dVertex
 10
101.9933153547142
 20
12.98716442700112
 30
0.0
 42
0.0895889244631779
  0
SEQEND
  5
96
330
91
100
AcDbEntity
  8
0
  0
LINE
  5
97
330
6C
100
AcDbEntity
  8
0
100
AcDbLine
 10
104.4896083490178
 20
13.31384481466236
 30
0.0
 11
99.4970223604108
 21
13.31384481466236
 31
0.0
  0
LINE
  5
98
330
6C
100
AcDbEntity
  8
0
100
AcDbLine
 10
99.4970223604108
 20
10.31829322149818
 30
0.0
 11
104.4896083490178
 21
10.31829322149818
 31
0.0
  0
POLYLINE
  5
99
330
6C
100
AcDbEntity
  8
0
100
AcDb2dPolyline
 66
     1
 10
0.0
 20
0.0
 30
0.0
 70
     1
  0
VERTEX
  5
9A
330
99
100
AcDbEntity
  8
0
100
AcDbVertex
100
AcDb2dVertex
 10
99.4970223604108
 20
11.81606901808028
 30
0.0
 42
0.1828233251715505
  0
VERTEX
  5
9B
330
99
100
AcDbEntity
  8
0
100
AcDbVertex
100
AcDb2dVertex
 10
99.64496283843745
 20
11.42499293170208
 30
0.0
 42
0.1025674015815553
  0
VERTEX
  5
9C
330
99
100
AcDbEntity
  8
0
100
AcDbVertex
100
AcDb2dVertex
 10
100.2281696506138
 20
10.98797951301603
 30
0.0
 42
0.0617587255956112
 70
     2
 50
334.8671392208401
  0
VERTEX
  5
9D
330
99
100
AcDbEntity
  8
0
100
AcDbVertex
100
AcDb2dVertex
 10
100.9810379437837
 20
10.74241592938519
 30
0.0
 42
0.0480192641995976
 50
334.8671392208401
  0
VERTEX
  5
9E
330
99
100
AcDbEntity
  8
0
100
AcDbVertex
100
AcDb2dVertex
 10
101.9933153547142
 20
10.64497360915946
 30
0.0
 42
0.0480192641995965
  0
VERTEX
  5
9F
330
99
100
AcDbEntity
  8
0
100
AcDbVertex
100
AcDb2dVertex
 10
103.0055927656449
 20
10.74241592938519
 30
0.0
 42
0.0617587255956115
  0
VERTEX
  5
A0
330
99
100
AcDbEntity
  8
0
100
AcDbVertex
100
AcDb2dVertex
 10
103.7584610588148
 20
10.98797951301603
 30
0.0
 42
0.1025674015815654
 70
     2
 50
25.13286077915987
  0
VERTEX
  5
A1
330
99
100
AcDbEntity
  8
0
100
AcDbVertex
100
AcDb2dVertex
 10
104.341667870991
 20
11.42499293170208
 30
0.0
 42
0.18282332517157
 50
25.13286077915987
  0
VERTEX
  5
A2
330
99
100
AcDbEntity
  8
0
100
AcDbVertex
100
AcDb2dVertex
 10
104.4896083490178
 20
11.81606901808028
 30
0.0
 42
0.1828233251715568
  0
VERTEX
  5
A3
330
99
100
AcDbEntity
  8
0
100
AcDbVertex
100
AcDb2dVertex
 10
104.341667870991
 20
12.20714510445852
 30
0.0
 42
0.102567401581563
  0
VERTEX
  5
A4
330
99
100
AcDbEntity
  8
0
100
AcDbVertex
100
AcDb2dVertex
 10
103.7584610588148
 20
12.64415852314452
 30
0.0
 42
0.0617587255956141
 70
     2
 50
154.86713922084
  0
VERTEX
  5
A5
330
99
100
AcDbEntity
  8
0
100
AcDbVertex
100
AcDb2dVertex
 10
103.0055927656449
 20
12.88972210677539
 30
0.0
 42
0.0480192641995983
 50
154.86713922084
  0
VERTEX
  5
A6
330
99
100
AcDbEntity
  8
0
100
AcDbVertex
100
AcDb2dVertex
 10
101.9933153547142
 20
12.98716442700112
 30
0.0
 42
0.0480192641995976
  0
VERTEX
  5
A7
330
99
100
AcDbEntity
  8
0
100
AcDbVertex
100
AcDb2dVertex
 10
100.9810379437837
 20
12.88972210677539
 30
0.0
 42
0.0617587255956112
  0
VERTEX
  5
A8
330
99
100
AcDbEntity
  8
0
100
AcDbVertex
100
AcDb2dVertex
 10
100.2281696506138
 20
12.64415852314452
 30
0.0
 42
0.1025674015815593
 70
     2
 50
205.1328607791599
  0
VERTEX
  5
A9
330
99
100
AcDbEntity
  8
0
100
AcDbVertex
100
AcDb2dVertex
 10
99.64496283843745
 20
12.20714510445852
 30
0.0
 42
0.1828233251715536
 50
205.1328607791599
  0
SEQEND
  5
AA
330
99
100
AcDbEntity
  8
0
  0
ARC
  5
AB
330
6C
100
AcDbEntity
  8
0
100
AcDbCircle
 10
99.4970223604108
 20
12.81458621580166
 30
0.0
 40
0.4992585988606951
100
AcDbArc
 50
90.0
 51
180.0
  0
LINE
  5
AC
330
6C
100
AcDbEntity
  8
0
100
AcDbLine
 10
98.99776376155012
 20
12.81458621580166
 30
0.0
 11
98.99776376155012
 21
10.81755182035888
 31
0.0
  0
ARC
  5
AD
330
6C
100
AcDbEntity
  8
0
100
AcDbCircle
 10
99.4970223604108
 20
10.81755182035888
 30
0.0
 40
0.4992585988606951
100
AcDbArc
 50
180.0
 51
270.0
  0
POLYLINE
  5
AE
330
6C
100
AcDbEntity
  8
0
100
AcDb2dPolyline
 66
     1
 10
0.0
 20
0.0
 30
0.0
  0
VERTEX
  5
AF
330
AE
100
AcDbEntity
  8
0
100
AcDbVertex
100
AcDb2dVertex
 10
101.4737733816274
 20
11.30173508887634
 30
0.0
 42
0.0570538596573184
  0
VERTEX
  5
B0
330
AE
100
AcDbEntity
  8
0
100
AcDbVertex
100
AcDb2dVertex
 10
101.5859036003675
 20
10.98797951301587
 30
0.0
 42
0.1038195938885091
 70
     2
 50
296.1967246921072
  0
VERTEX
  5
B1
330
AE
100
AcDbEntity
  8
0
100
AcDbVertex
100
AcDb2dVertex
 10
101.7988348486388
 20
10.71594043683984
 30
0.0
 42
0.1767522344444316
 50
296.1967246921072
  0
VERTEX
  5
B2
330
AE
100
AcDbEntity
  8
0
100
AcDbVertex
100
AcDb2dVertex
 10
101.9933153547142
 20
10.64497360915946
 30
0.0
 42
0.1767522344444399
  0
VERTEX
  5
B3
330
AE
100
AcDbEntity
  8
0
100
AcDbVertex
100
AcDb2dVertex
 10
102.1877958607898
 20
10.71594043683984
 30
0.0
 42
0.1038195938885123
  0
VERTEX
  5
B4
330
AE
100
AcDbEntity
  8
0
100
AcDbVertex
100
AcDb2dVertex
 10
102.4007271090609
 20
10.98797951301587
 30
0.0
 42
0.0570538596573163
 70
     2
 50
63.8032753078928
  0
VERTEX
  5
B5
330
AE
100
AcDbEntity
  8
0
100
AcDbVertex
100
AcDb2dVertex
 10
102.5128573278011
 20
11.30173508887634
 30
0.0
 42
0.0503013836282066
 50
63.8032753078928
  0
SEQEND
  5
B6
330
AE
100
AcDbEntity
  8
0
  0
POLYLINE
  5
B7
330
6C
100
AcDbEntity
  8
0
100
AcDb2dPolyline
 66
     1
 10
0.0
 20
0.0
 30
0.0
  0
VERTEX
  5
B8
330
B7
100
AcDbEntity
  8
0
100
AcDbVertex
100
AcDb2dVertex
 10
101.9933153547142
 20
12.98716442700112
 30
0.0
 42
0.1767522344444361
  0
VERTEX
  5
B9
330
B7
100
AcDbEntity
  8
0
100
AcDbVertex
100
AcDb2dVertex
 10
101.7988348486388
 20
12.91619759932069
 30
0.0
 42
0.1038195938884991
  0
VERTEX
  5
BA
330
B7
100
AcDbEntity
  8
0
100
AcDbVertex
100
AcDb2dVertex
 10
101.5859036003675
 20
12.64415852314468
 30
0.0
 42
0.0567223889277798
 70
     2
 50
243.8032753078928
  0
VERTEX
  5
BB
330
B7
100
AcDbEntity
  8
0
100
AcDbVertex
100
AcDb2dVertex
 10
101.4742145340112
 20
12.33228781013644
 30
0.0
 42
0.0503013836282199
 50
243.8032753078928
  0
SEQEND
  5
BC
330
B7
100
AcDbEntity
  8
0
  0
POLYLINE
  5
BD
330
6C
100
AcDbEntity
  8
0
100
AcDb2dPolyline
 66
     1
 10
0.0
 20
0.0
 30
0.0
  0
VERTEX
  5
BE
330
BD
100
AcDbEntity
  8
0
100
AcDbVertex
100
AcDb2dVertex
 10
101.9933153547142
 20
12.98716442700112
 30
0.0
 42
0.0895889244631779
  0
VERTEX
  5
BF
330
BD
100
AcDbEntity
  8
0
100
AcDbVertex
100
AcDb2dVertex
 10
101.4901858259983
 20
12.89628534889464
 30
0.0
 42
0.094347402511486
  0
VERTEX
  5
C0
330
BD
100
AcDbEntity
  8
0
100
AcDbVertex
100
AcDb2dVertex
 10
101.0748098644518
 20
12.64415852314465
 30
0.0
 42
0.0687403046083514
 70
     2
 50
222.0366145404387
  0
VERTEX
  5
C1
330
BD
100
AcDbEntity
  8
0
100
AcDbVertex
100
AcDb2dVertex
 10
100.8655921144937
 20
12.39569300460702
 30
0.0
 42
0.1080871028423927
 50
222.0366145404387
  0
SEQEND
  5
C2
330
BD
100
AcDbEntity
  8
0
  0
POLYLINE
  5
C3
330
6C
100
AcDbEntity
  8
0
100
AcDb2dPolyline
 66
     1
 10
0.0
 20
0.0
 30
0.0
  0
VERTEX
  5
C4
330
C3
100
AcDbEntity
  8
0
100
AcDbVertex
100
AcDb2dVertex
 10
101.9933153547142
 20
12.98716442700112
 30
0.0
 42
0.0631748622128155
  0
VERTEX
  5
C5
330
C3
100
AcDbEntity
  8
0
100
AcDbVertex
100
AcDb2dVertex
 10
101.2413714754107
 20
12.89177582311944
 30
0.0
 42
0.0762621633615699
  0
VERTEX
  5
C6
330
C3
100
AcDbEntity
  8
0
100
AcDbVertex
100
AcDb2dVertex
 10
100.6631218296035
 20
12.64415852314465
 30
0.0
 42
0.0512131062417906
 70
     2
 50
211.9036308145036
  0
VERTEX
  5
C7
330
C3
100
AcDbEntity
  8
0
100
AcDbVertex
100
AcDb2dVertex
 10
100.4371351747235
 20
12.46907306715202
 30
0.0
 42
0.1478388992712295
 50
211.9036308145036
  0
SEQEND
  5
C8
330
C3
100
AcDbEntity
  8
0
  0
POLYLINE
  5
C9
330
6C
100
AcDbEntity
  8
0
100
AcDb2dPolyline
 66
     1
 10
0.0
 20
0.0
 30
0.0
  0
VERTEX
  5
CA
330
C9
100
AcDbEntity
  8
0
100
AcDbVertex
100
AcDb2dVertex
 10
102.5124161754174
 20
12.33228781013644
 30
0.0
 42
0.0567223889277601
  0
VERTEX
  5
CB
330
C9
100
AcDbEntity
  8
0
100
AcDbVertex
100
AcDb2dVertex
 10
102.4007271090609
 20
12.64415852314468
 30
0.0
 42
0.1038195938884991
 70
     2
 50
116.1967246921072
  0
VERTEX
  5
CC
330
C9
100
AcDbEntity
  8
0
100
AcDbVertex
100
AcDb2dVertex
 10
102.1877958607898
 20
12.91619759932069
 30
0.0
 42
0.1767522344444361
 50
116.1967246921072
  0
VERTEX
  5
CD
330
C9
100
AcDbEntity
  8
0
100
AcDbVertex
100
AcDb2dVertex
 10
101.9933153547142
 20
12.98716442700112
 30
0.0
 42
0.1767522344444361
  0
SEQEND
  5
CE
330
C9
100
AcDbEntity
  8
0
  0
ARC
  5
CF
330
6C
100
AcDbEntity
  8
0
100
AcDbCircle
 10
104.4896083490178
 20
12.81458621580166
 30
0.0
 40
0.4992585988606951
100
AcDbArc
 50
0.0
 51
90.0
  0
CIRCLE
  5
D0
330
6C
100
AcDbEntity
  8
0
100
AcDbCircle
 10
105.459769925048
 20
13.05655801876779
 30
0.0
 40
0.2598233321567377
  0
TEXT
  5
D1
330
6C
100
AcDbEntity
  8
0
100
AcDbText
 10
105.2922183949248
 20
12.88287571050729
 30
0.0
 40
0.3049772414979007
  1
R
  7
SANSSERIF
100
AcDbText
  0
LINE
  5
D2
330
6C
100
AcDbEntity
  8
0
100
AcDbLine
 10
104.9888669478784
 20
10.81755182035888
 30
0.0
 11
104.9888669478784
 21
12.81458621580166
 31
0.0
  0
ARC
  5
D3
330
6C
100
AcDbEntity
  8
0
100
AcDbCircle
 10
104.4896083490178
 20
10.81755182035888
 30
0.0
 40
0.4992585988606951
100
AcDbArc
 50
270.0
 51
0.0
  0
CIRCLE
  5
17B
330
6C
100
AcDbEntity
  8
Visible (ANSI)
100
AcDbCircle
 10
44.34678988016583
 20
37.43232734003978
 30
0.0
 40
0.2500000000000006
  0
CIRCLE
  5
17C
330
6C
100
AcDbEntity
  8
Visible (ANSI)
100
AcDbCircle
 10
23.18678988016583
 20
37.43232734003978
 30
0.0
 40
0.2500000000000006
  0
LINE
  5
17D
330
6C
100
AcDbEntity
  8
Visible (ANSI)
100
AcDbLine
 10
44.86678988016581
 20
16.05032734003977
 30
0.0
 11
44.8667898801658
 21
58.81432734003977
 31
0.0
  0
LINE
  5
17E
330
6C
100
AcDbEntity
  8
Visible (ANSI)
100
AcDbLine
 10
44.8667898801658
 20
16.05032734003977
 30
0.0
 11
44.75743988016582
 21
16.05032734003977
 31
0.0
  0
LINE
  5
17F
330
6C
100
AcDbEntity
  8
Visible (ANSI)
100
AcDbLine
 10
44.8667898801658
 20
58.81432734003977
 30
0.0
 11
44.75743988016582
 21
58.81432734003977
 31
0.0
  0
LINE
  5
180
330
6C
100
AcDbEntity
  8
Visible (ANSI)
100
AcDbLine
 10
44.75723988016581
 20
58.81452734003978
 30
0.0
 11
44.86678988016581
 21
58.81452734003978
 31
0.0
  0
LINE
  5
181
330
6C
100
AcDbEntity
  8
Visible (ANSI)
100
AcDbLine
 10
44.75723988016581
 20
58.81432734003979
 30
0.0
 11
44.75723988016581
 21
58.81452734003978
 31
0.0
  0
LINE
  5
182
330
6C
100
AcDbEntity
  8
Visible (ANSI)
100
AcDbLine
 10
44.75723988016583
 20
16.05012734003977
 30
0.0
 11
44.75723988016583
 21
16.05032734003977
 31
0.0
  0
LINE
  5
183
330
6C
100
AcDbEntity
  8
Visible (ANSI)
100
AcDbLine
 10
44.86678988016582
 20
16.05012734003977
 30
0.0
 11
44.75723988016583
 21
16.05012734003977
 31
0.0
  0
LINE
  5
184
330
6C
100
AcDbEntity
  8
Hidden (ANSI)
 48
1.070116639137268
100
AcDbLine
 10
44.77303988016582
 20
58.81432734003977
 30
0.0
 11
44.77303988016582
 21
16.05032734003977
 31
0.0
  0
LINE
  5
185
330
6C
100
AcDbEntity
  8
Visible (ANSI)
100
AcDbLine
 10
44.75723988016583
 20
16.05032734003977
 30
0.0
 11
44.75743988016582
 21
16.05032734003977
 31
0.0
  0
LINE
  5
186
330
6C
100
AcDbEntity
  8
Visible (ANSI)
100
AcDbLine
 10
44.75743988016582
 20
58.81432734003979
 30
0.0
 11
44.75723988016581
 21
58.81432734003979
 31
0.0
  0
LINE
  5
187
330
6C
100
AcDbEntity
  8
Visible (ANSI)
100
AcDbLine
 10
44.86678988016581
 20
60.03232734003979
 30
0.0
 11
44.86678988016581
 21
58.81452734003978
 31
0.0
  0
LINE
  5
188
330
6C
100
AcDbEntity
  8
Visible (ANSI)
100
AcDbLine
 10
23.16678988016581
 20
60.53232734003977
 30
0.0
 11
44.36678988016582
 21
60.53232734003977
 31
0.0
  0
LINE
  5
189
330
6C
100
AcDbEntity
  8
Visible (ANSI)
100
AcDbLine
 10
22.66678988016581
 20
58.81452734003978
 30
0.0
 11
22.66678988016581
 21
60.03232734003978
 31
0.0
  0
LINE
  5
18A
330
6C
100
AcDbEntity
  8
Visible (ANSI)
100
AcDbLine
 10
22.66678988016582
 20
14.83232734003978
 30
0.0
 11
22.66678988016582
 21
16.05012734003978
 31
0.0
  0
LINE
  5
18B
330
6C
100
AcDbEntity
  8
Visible (ANSI)
100
AcDbLine
 10
44.36678988016582
 20
14.33232734003978
 30
0.0
 11
23.16678988016583
 21
14.33232734003978
 31
0.0
  0
LINE
  5
18C
330
6C
100
AcDbEntity
  8
Visible (ANSI)
100
AcDbLine
 10
44.86678988016582
 20
16.05012734003977
 30
0.0
 11
44.86678988016582
 21
14.83232734003978
 31
0.0
  0
LINE
  5
18D
330
6C
100
AcDbEntity
  8
Visible (ANSI)
100
AcDbLine
 10
44.36678988016582
 20
60.53232734003977
 30
0.0
 11
44.86678988016581
 21
60.03232734003979
 31
0.0
  0
LINE
  5
18E
330
6C
100
AcDbEntity
  8
Visible (ANSI)
100
AcDbLine
 10
22.66678988016581
 20
60.03232734003978
 30
0.0
 11
23.16678988016581
 21
60.53232734003977
 31
0.0
  0
LINE
  5
18F
330
6C
100
AcDbEntity
  8
Visible (ANSI)
100
AcDbLine
 10
22.66678988016581
 20
58.81452734003978
 30
0.0
 11
22.7763398801658
 21
58.81452734003978
 31
0.0
  0
LINE
  5
190
330
6C
100
AcDbEntity
  8
Visible (ANSI)
100
AcDbLine
 10
22.7763398801658
 20
58.81452734003978
 30
0.0
 11
22.7763398801658
 21
58.81432734003977
 31
0.0
  0
LINE
  5
191
330
6C
100
AcDbEntity
  8
Visible (ANSI)
100
AcDbLine
 10
22.77633988016582
 20
16.05032734003978
 30
0.0
 11
22.77633988016582
 21
16.05012734003978
 31
0.0
  0
LINE
  5
192
330
6C
100
AcDbEntity
  8
Visible (ANSI)
100
AcDbLine
 10
22.77633988016582
 20
16.05012734003978
 30
0.0
 11
22.66678988016582
 21
16.05012734003978
 31
0.0
  0
LINE
  5
193
330
6C
100
AcDbEntity
  8
Visible (ANSI)
100
AcDbLine
 10
22.66678988016582
 20
58.81432734003977
 30
0.0
 11
22.66678988016584
 21
16.05032734003978
 31
0.0
  0
LINE
  5
194
330
6C
100
AcDbEntity
  8
Visible (ANSI)
100
AcDbLine
 10
22.66678988016582
 20
58.81432734003977
 30
0.0
 11
22.7761398801658
 21
58.81432734003977
 31
0.0
  0
LINE
  5
195
330
6C
100
AcDbEntity
  8
Visible (ANSI)
100
AcDbLine
 10
22.66678988016584
 20
16.05032734003978
 30
0.0
 11
22.77613988016581
 21
16.05032734003978
 31
0.0
  0
LINE
  5
196
330
6C
100
AcDbEntity
  8
Hidden (ANSI)
 48
1.070116639137268
100
AcDbLine
 10
22.76053988016584
 20
16.05032734003978
 30
0.0
 11
22.76053988016583
 21
58.81432734003977
 31
0.0
  0
LINE
  5
197
330
6C
100
AcDbEntity
  8
Visible (ANSI)
100
AcDbLine
 10
22.7763398801658
 20
58.81432734003977
 30
0.0
 11
22.77613988016581
 21
58.81432734003977
 31
0.0
  0
LINE
  5
198
330
6C
100
AcDbEntity
  8
Visible (ANSI)
100
AcDbLine
 10
22.77613988016581
 20
16.05032734003978
 30
0.0
 11
22.77633988016582
 21
16.05032734003978
 31
0.0
  0
LINE
  5
199
330
6C
100
AcDbEntity
  8
Visible (ANSI)
100
AcDbLine
 10
23.16678988016583
 20
14.33232734003978
 30
0.0
 11
22.66678988016582
 21
14.83232734003978
 31
0.0
  0
LINE
  5
19A
330
6C
100
AcDbEntity
  8
Visible (ANSI)
100
AcDbLine
 10
44.86678988016582
 20
14.83232734003978
 30
0.0
 11
44.36678988016582
 21
14.33232734003978
 31
0.0
  0
CIRCLE
  5
19B
330
6C
100
AcDbEntity
  8
Visible (ANSI)
100
AcDbCircle
 10
44.34678988016583
 20
60.01232734003977
 30
0.0
 40
0.25
  0
CIRCLE
  5
19C
330
6C
100
AcDbEntity
  8
Visible (ANSI)
100
AcDbCircle
 10
23.18678988016583
 20
60.01232734003977
 30
0.0
 40
0.25
  0
CIRCLE
  5
19D
330
6C
100
AcDbEntity
  8
Visible (ANSI)
100
AcDbCircle
 10
23.18678988016583
 20
14.85232734003978
 30
0.0
 40
0.25
  0
CIRCLE
  5
19E
330
6C
100
AcDbEntity
  8
Visible (ANSI)
100
AcDbCircle
 10
44.34678988016583
 20
14.85232734003978
 30
0.0
 40
0.25
  0
CIRCLE
  5
19F
330
6C
100
AcDbEntity
  8
Visible (ANSI)
100
AcDbCircle
 10
44.34678988016583
 20
59.26232734003977
 30
0.0
 40
0.15625
  0
CIRCLE
  5
1A0
330
6C
100
AcDbEntity
  8
Visible (ANSI)
100
AcDbCircle
 10
23.18678988016583
 20
59.26232734003977
 30
0.0
 40
0.15625
  0
CIRCLE
  5
1A1
330
6C
100
AcDbEntity
  8
Visible (ANSI)
100
AcDbCircle
 10
23.18678988016583
 20
15.60232734003978
 30
0.0
 40
0.15625
  0
CIRCLE
  5
1A2
330
6C
100
AcDbEntity
  8
Visible (ANSI)
100
AcDbCircle
 10
44.34678988016583
 20
15.60232734003978
 30
0.0
 40
0.15625
  0
LINE
  5
1A3
330
6C
100
AcDbEntity
  8
Visible (ANSI)
100
AcDbLine
 10
64.54466894189251
 20
16.05032734003977
 30
0.0
 11
65.20931894189249
 21
16.05032734003977
 31
0.0
  0
LINE
  5
1A4
330
6C
100
AcDbEntity
  8
Visible (ANSI)
100
AcDbLine
 10
65.20931894189249
 20
58.81432734003979
 30
0.0
 11
65.20931894189249
 21
16.05032734003977
 31
0.0
  0
LINE
  5
1A5
330
6C
100
AcDbEntity
  8
Visible (ANSI)
100
AcDbLine
 10
65.20931894189249
 20
58.81432734003979
 30
0.0
 11
64.54466894189251
 21
58.81432734003977
 31
0.0
  0
LINE
  5
1A6
330
6C
100
AcDbEntity
  8
Visible (ANSI)
100
AcDbLine
 10
64.54466894189251
 20
16.05032734003977
 30
0.0
 11
64.43531894189246
 21
16.05032734003977
 31
0.0
  0
LINE
  5
1A7
330
6C
100
AcDbEntity
  8
Visible (ANSI)
100
AcDbLine
 10
64.54466894189251
 20
58.81432734003977
 30
0.0
 11
64.43531894189246
 21
58.81432734003977
 31
0.0
  0
LINE
  5
1A8
330
6C
100
AcDbEntity
  8
Visible (ANSI)
100
AcDbLine
 10
64.43531894189246
 20
16.05032734003977
 30
0.0
 11
64.43531894189246
 21
58.81432734003979
 31
0.0
  0
LINE
  5
1A9
330
6C
100
AcDbEntity
  8
Visible (ANSI)
100
AcDbLine
 10
64.43531894189248
 20
58.81452734003978
 30
0.0
 11
64.52906894189249
 21
58.81452734003978
 31
0.0
  0
LINE
  5
1AA
330
6C
100
AcDbEntity
  8
Visible (ANSI)
100
AcDbLine
 10
64.52906894189244
 20
58.81452734003978
 30
0.0
 11
64.52906894189244
 21
58.81432734003979
 31
0.0
  0
LINE
  5
1AB
330
6C
100
AcDbEntity
  8
Visible (ANSI)
100
AcDbLine
 10
64.43531894189246
 20
58.81432734003979
 30
0.0
 11
64.43531894189246
 21
58.81452734003978
 31
0.0
  0
LINE
  5
1AC
330
6C
100
AcDbEntity
  8
Visible (ANSI)
100
AcDbLine
 10
64.52906894189244
 20
16.05032734003977
 30
0.0
 11
64.52906894189244
 21
16.05012734003977
 31
0.0
  0
LINE
  5
1AD
330
6C
100
AcDbEntity
  8
Visible (ANSI)
100
AcDbLine
 10
64.43531894189246
 20
16.05012734003977
 30
0.0
 11
64.43531894189246
 21
16.05032734003977
 31
0.0
  0
LINE
  5
1AE
330
6C
100
AcDbEntity
  8
Visible (ANSI)
100
AcDbLine
 10
64.52906894189249
 20
16.05012734003977
 30
0.0
 11
64.43531894189248
 21
16.05012734003977
 31
0.0
  0
LINE
  5
1AF
330
6C
100
AcDbEntity
  8
Hidden (ANSI)
 48
1.070116639137268
100
AcDbLine
 10
64.52906894189244
 20
58.81432734003979
 30
0.0
 11
64.52906894189244
 21
16.05032734003977
 31
0.0
  0
LINE
  5
1B0
330
6C
100
AcDbEntity
  8
Visible (ANSI)
100
AcDbLine
 10
64.52906894189249
 20
14.83232734003978
 30
0.0
 11
64.52906894189249
 21
16.05012734003977
 31
0.0
  0
LINE
  5
1B1
330
6C
100
AcDbEntity
  8
Visible (ANSI)
100
AcDbLine
 10
64.52906894189249
 20
58.81452734003978
 30
0.0
 11
64.52906894189249
 21
60.03232734003979
 31
0.0
  0
LINE
  5
1B2
330
6C
100
AcDbEntity
  8
Visible (ANSI)
100
AcDbLine
 10
64.43531894189248
 20
60.03232734003979
 30
0.0
 11
64.43531894189248
 21
58.81452734003978
 31
0.0
  0
LINE
  5
1B3
330
6C
100
AcDbEntity
  8
Visible (ANSI)
100
AcDbLine
 10
64.43531894189248
 20
16.05012734003977
 30
0.0
 11
64.43531894189248
 21
14.83232734003978
 31
0.0
  0
LINE
  5
1B4
330
6C
100
AcDbEntity
  8
Visible (ANSI)
100
AcDbLine
 10
64.52906894189235
 20
14.33232734003978
 30
0.0
 11
64.52906894189249
 21
14.83232734003978
 31
0.0
  0
LINE
  5
1B5
330
6C
100
AcDbEntity
  8
Visible (ANSI)
100
AcDbLine
 10
64.43531894189248
 20
14.83232734003978
 30
0.0
 11
64.43531894189233
 21
14.33232734003978
 31
0.0
  0
LINE
  5
1B6
330
6C
100
AcDbEntity
  8
Visible (ANSI)
100
AcDbLine
 10
64.43531894189233
 20
14.33232734003978
 30
0.0
 11
64.52906894189235
 21
14.33232734003978
 31
0.0
  0
LINE
  5
1B7
330
6C
100
AcDbEntity
  8
Visible (ANSI)
100
AcDbLine
 10
64.52906894189249
 20
14.83232734003978
 30
0.0
 11
64.43531894189248
 21
14.83232734003978
 31
0.0
  0
LINE
  5
1B8
330
6C
100
AcDbEntity
  8
Visible (ANSI)
100
AcDbLine
 10
64.52906894189249
 20
60.03232734003979
 30
0.0
 11
64.52906894189235
 21
60.53232734003977
 31
0.0
  0
LINE
  5
1B9
330
6C
100
AcDbEntity
  8
Visible (ANSI)
100
AcDbLine
 10
64.43531894189233
 20
60.53232734003977
 30
0.0
 11
64.43531894189248
 21
60.03232734003979
 31
0.0
  0
LINE
  5
1BA
330
6C
100
AcDbEntity
  8
Visible (ANSI)
100
AcDbLine
 10
64.43531894189248
 20
60.03232734003979
 30
0.0
 11
64.52906894189249
 21
60.03232734003979
 31
0.0
  0
LINE
  5
1BB
330
6C
100
AcDbEntity
  8
Visible (ANSI)
100
AcDbLine
 10
64.52906894189235
 20
60.53232734003977
 30
0.0
 11
64.43531894189233
 21
60.53232734003977
 31
0.0
  0
LINE
  5
1BC
330
6C
100
AcDbEntity
  8
Hidden (ANSI)
 48
0.0266847964376211
100
AcDbLine
 10
64.43531894189233
 20
37.68232734003979
 30
0.0
 11
64.52906894189233
 21
37.68232734003979
 31
0.0
  0
LINE
  5
1BD
330
6C
100
AcDbEntity
  8
Hidden (ANSI)
 48
0.0266847964376211
100
AcDbLine
 10
64.43531894189233
 20
37.18232734003978
 30
0.0
 11
64.52906894189233
 21
37.18232734003978
 31
0.0
  0
LINE
  5
1BE
330
6C
100
AcDbEntity
  8
Hidden (ANSI)
 48
0.0266847964376211
100
AcDbLine
 10
64.43531894189233
 20
60.26232734003979
 30
0.0
 11
64.52906894189233
 21
60.26232734003979
 31
0.0
  0
LINE
  5
1BF
330
6C
100
AcDbEntity
  8
Hidden (ANSI)
 48
0.0266847964376211
100
AcDbLine
 10
64.43531894189233
 20
59.76232734003977
 30
0.0
 11
64.52906894189233
 21
59.76232734003977
 31
0.0
  0
LINE
  5
1C0
330
6C
100
AcDbEntity
  8
Hidden (ANSI)
 48
0.0266847964376211
100
AcDbLine
 10
64.43531894189233
 20
15.10232734003978
 30
0.0
 11
64.52906894189233
 21
15.10232734003978
 31
0.0
  0
LINE
  5
1C1
330
6C
100
AcDbEntity
  8
Hidden (ANSI)
 48
0.0266847964376211
100
AcDbLine
 10
64.43531894189233
 20
14.60232734003978
 30
0.0
 11
64.52906894189233
 21
14.60232734003978
 31
0.0
  0
LINE
  5
1C2
330
6C
100
AcDbEntity
  8
Hidden (ANSI)
 48
0.0266847964376211
100
AcDbLine
 10
64.43531894189233
 20
59.41857734003977
 30
0.0
 11
64.52906894189233
 21
59.41857734003977
 31
0.0
  0
LINE
  5
1C3
330
6C
100
AcDbEntity
  8
Hidden (ANSI)
 48
0.0266847964376211
100
AcDbLine
 10
64.43531894189233
 20
59.10607734003977
 30
0.0
 11
64.52906894189233
 21
59.10607734003977
 31
0.0
  0
LINE
  5
1C4
330
6C
100
AcDbEntity
  8
Hidden (ANSI)
 48
0.0266847964376211
100
AcDbLine
 10
64.43531894189233
 20
15.75857734003978
 30
0.0
 11
64.52906894189233
 21
15.75857734003978
 31
0.0
  0
LINE
  5
1C5
330
6C
100
AcDbEntity
  8
Hidden (ANSI)
 48
0.0266847964376211
100
AcDbLine
 10
64.43531894189233
 20
15.44607734003978
 30
0.0
 11
64.52906894189233
 21
15.44607734003978
 31
0.0
  0
ELLIPSE
  5
1C6
330
6C
100
AcDbEntity
  8
Visible (ANSI)
100
AcDbEllipse
 10
105.5025391730474
 20
49.34778349725753
 30
0.0
 11
-0.0756109411491516
 21
0.1313005206280577
 31
0.0
210
0.0
220
0.0
230
1.0
 40
0.5780931159158119
 41
0.2678448778125112
 42
2.873747775777255
  0
ELLIPSE
  5
1C7
330
6C
100
AcDbEntity
  8
Visible (ANSI)
100
AcDbEllipse
 10
105.4623626513891
 20
49.32464737715569
 30
0.0
 11
-0.0756109411491516
 21
0.1313005206280575
 31
0.0
210
0.0
220
0.0
230
1.0
 40
0.578093115915812
 41
0.0
 42
6.283185307179586
  0
ELLIPSE
  5
1C8
330
6C
100
AcDbEntity
  8
Visible (ANSI)
100
AcDbEllipse
 10
96.43443039128408
 20
54.56976004504205
 30
0.0
 11
-0.0756109411491514
 21
0.1313005206280573
 31
0.0
210
0.0
220
0.0
230
1.0
 40
0.5780931159158119
 41
0.2678448778125109
 42
2.873747775777255
  0
ELLIPSE
  5
1C9
330
6C
100
AcDbEntity
  8
Visible (ANSI)
100
AcDbEllipse
 10
96.39425386962578
 20
54.54662392494022
 30
0.0
 11
-0.0756109411491516
 21
0.1313005206280575
 31
0.0
210
0.0
220
0.0
230
1.0
 40
0.578093115915812
 41
0.0
 42
6.283185307179586
  0
LINE
  5
1CA
330
6C
100
AcDbEntity
  8
Visible Narrow (ANSI)
100
AcDbLine
 10
105.7320703197162
 20
38.62888522973022
 30
0.0
 11
105.7320703197162
 21
59.81772477322508
 31
0.0
  0
ELLIPSE
  5
1CB
330
6C
100
AcDbEntity
  8
Visible (ANSI)
100
AcDbEllipse
 10
105.6852084248539
 20
38.655871200217
 30
0.0
 11
0.0662727272727279
 21
0.0000000000000039
 31
0.0
210
0.0
220
0.0
230
1.0
 40
0.5758617009853073
 41
3.926990816987435
 42
5.497787143782231
  0
LINE
  5
1CC
330
6C
100
AcDbEntity
  8
Visible (ANSI)
100
AcDbLine
 10
105.6382608200788
 20
59.81777413028129
 30
0.0
 11
105.6383468621103
 21
59.81782367859187
 31
0.0
  0
ELLIPSE
  5
1CD
330
6C
100
AcDbEntity
  8
Visible (ANSI)
100
AcDbEllipse
 10
105.6852084248539
 20
59.84471074371184
 30
0.0
 11
0.0662727272727145
 21
0.0000000000000039
 31
0.0
210
0.0
220
0.0
230
1.0
 40
0.5758617009853071
 41
3.926990816987174
 42
3.987598387465308
  0
ELLIPSE
  5
1CE
330
6C
100
AcDbEntity
  8
Visible (ANSI)
100
AcDbEllipse
 10
105.6852084248536
 20
59.84471074371208
 30
0.0
 11
0.0662727272732664
 21
-0.0000000000000001
 31
0.0
210
0.0
220
0.0
230
1.0
 40
0.5758617009853071
 41
5.363700662383628
 42
5.497787143781891
  0
LINE
  5
1CF
330
6C
100
AcDbEntity
  8
Visible Narrow (ANSI)
100
AcDbLine
 10
105.6383465299917
 20
38.6288852297302
 30
0.0
 11
105.6383465299917
 21
59.81772477322507
 31
0.0
  0
LINE
  5
1D0
330
6C
100
AcDbEntity
  8
Visible (ANSI)
100
AcDbLine
 10
105.685208424854
 20
59.79083789935947
 30
0.0
 11
105.7253849465123
 21
59.81397401946132
 31
0.0
  0
LINE
  5
1D1
330
6C
100
AcDbEntity
  8
Visible (ANSI)
100
AcDbLine
 10
105.6382608200788
 20
59.81787322690247
 30
0.0
 11
105.685208424854
 21
59.79083789935947
 31
0.0
  0
LINE
  5
1D2
330
6C
100
AcDbEntity
  8
Visible (ANSI)
100
AcDbLine
 10
105.6382608200788
 20
59.81777413028129
 30
0.0
 11
105.6382608200788
 21
59.81787322690247
 31
0.0
  0
LINE
  5
1D3
330
6C
100
AcDbEntity
  8
Visible (ANSI)
100
AcDbLine
 10
105.6382608200788
 20
38.62883549016523
 30
0.0
 11
105.6382608200788
 21
38.62893458678642
 31
0.0
  0
LINE
  5
1D4
330
6C
100
AcDbEntity
  8
Visible (ANSI)
100
AcDbLine
 10
105.6382608200788
 20
38.62883549016523
 30
0.0
 11
105.6383468621115
 21
38.62888503847651
 31
0.0
  0
LINE
  5
1D5
330
6C
100
AcDbEntity
  8
Visible (ANSI)
100
AcDbLine
 10
105.7248070983158
 20
38.62526904336941
 30
0.0
 11
105.7253849465123
 21
38.62493628272408
 31
0.0
  0
LINE
  5
1D6
330
6C
100
AcDbEntity
  8
Visible (ANSI)
100
AcDbLine
 10
105.685208424854
 20
38.60180016262223
 30
0.0
 11
105.6382608200788
 21
38.62883549016523
 31
0.0
  0
LINE
  5
1D7
330
6C
100
AcDbEntity
  8
Visible (ANSI)
100
AcDbLine
 10
105.7253849465123
 20
38.62493628272408
 30
0.0
 11
105.685208424854
 21
38.60180016262223
 31
0.0
  0
LINE
  5
1D8
330
6C
100
AcDbEntity
  8
Visible (ANSI)
100
AcDbLine
 10
105.7320703197162
 20
38.62888522973022
 30
0.0
 11
106.016905787665
 21
38.79291106680422
 31
0.0
  0
LINE
  5
1D9
330
6C
100
AcDbEntity
  8
Visible (ANSI)
100
AcDbLine
 10
106.016905787665
 20
59.98175061029908
 30
0.0
 11
106.016905787665
 21
38.79291106680422
 31
0.0
  0
LINE
  5
1DA
330
6C
100
AcDbEntity
  8
Visible (ANSI)
100
AcDbLine
 10
106.016905787665
 20
59.98175061029908
 30
0.0
 11
105.7320703197162
 21
59.81772477322508
 31
0.0
  0
LINE
  5
1DB
330
6C
100
AcDbEntity
  8
Visible (ANSI)
100
AcDbLine
 10
105.6382608200788
 20
38.62893458678642
 30
0.0
 11
105.6383465299917
 21
38.6288852297302
 31
0.0
  0
LINE
  5
1DC
330
6C
100
AcDbEntity
  8
Visible (ANSI)
100
AcDbLine
 10
105.9767292660067
 20
60.00488673040091
 30
0.0
 11
106.016905787665
 21
59.98175061029908
 31
0.0
  0
LINE
  5
1DD
330
6C
100
AcDbEntity
  8
Visible (ANSI)
100
AcDbLine
 10
105.7253849465123
 20
59.8601471630438
 30
0.0
 11
105.9767292660067
 21
60.00488673040091
 31
0.0
  0
LINE
  5
1DE
330
6C
100
AcDbEntity
  8
Visible (ANSI)
100
AcDbLine
 10
105.6383465299917
 20
59.81772477322507
 30
0.0
 11
105.6382608200788
 21
59.81777413028129
 31
0.0
  0
ELLIPSE
  5
1DF
330
6C
100
AcDbEntity
  8
Visible (ANSI)
100
AcDbEllipse
 10
105.5025391730474
 20
60.53579202995123
 30
0.0
 11
-0.0756109411491513
 21
0.1313005206280571
 31
0.0
210
0.0
220
0.0
230
0.9999999999999998
 40
0.5780931159158119
 41
0.2678448778125118
 42
2.873747775777256
  0
ELLIPSE
  5
1E0
330
6C
100
AcDbEntity
  8
Visible (ANSI)
100
AcDbEllipse
 10
96.43443039128408
 20
65.75776857773577
 30
0.0
 11
-0.0756109411491515
 21
0.1313005206280573
 31
0.0
210
0.0
220
0.0
230
1.0
 40
0.5780931159158117
 41
0.2678448778125109
 42
2.873747775777255
  0
ELLIPSE
  5
1E1
330
6C
100
AcDbEntity
  8
Visible (ANSI)
100
AcDbEllipse
 10
96.43443039128406
 20
43.38175151234834
 30
0.0
 11
-0.0756109411491514
 21
0.1313005206280572
 31
0.0
210
0.0
220
0.0
230
1.0
 40
0.5780931159158121
 41
0.267844877812511
 42
2.873747775777255
  0
ELLIPSE
  5
1E2
330
6C
100
AcDbEntity
  8
Visible (ANSI)
100
AcDbEllipse
 10
105.5025391730474
 20
38.15977496456382
 30
0.0
 11
-0.0756109411491516
 21
0.1313005206280575
 31
0.0
210
0.0
220
0.0
230
1.0
 40
0.578093115915812
 41
0.267844877812478
 42
2.873747775777237
  0
ELLIPSE
  5
1E3
330
6C
100
AcDbEntity
  8
Visible (ANSI)
100
AcDbEllipse
 10
105.5025391730474
 20
60.16417970047736
 30
0.0
 11
0.0472568382182245
 21
-0.0820628253925329
 31
0.0
210
0.0
220
0.0
230
1.0
 40
0.5780931159158119
 41
3.578838513251815
 42
5.845939447517315
  0
ELLIPSE
  5
1E4
330
6C
100
AcDbEntity
  8
Visible (ANSI)
100
AcDbEllipse
 10
96.43443039128408
 20
65.38615624826189
 30
0.0
 11
0.0472568382182245
 21
-0.0820628253925329
 31
0.0
210
0.0
220
0.0
230
1.0
 40
0.578093115915812
 41
3.578838513251701
 42
5.845939447517006
  0
ELLIPSE
  5
1E5
330
6C
100
AcDbEntity
  8
Visible (ANSI)
100
AcDbEllipse
 10
96.43443039128406
 20
43.75336384182223
 30
0.0
 11
0.0472568382182245
 21
-0.082062825392533
 31
0.0
210
0.0
220
0.0
230
1.0
 40
0.5780931159158119
 41
3.578838513251701
 42
5.845939447517006
  0
ELLIPSE
  5
1E6
330
6C
100
AcDbEntity
  8
Visible (ANSI)
100
AcDbEllipse
 10
105.5025391730474
 20
38.53138729403771
 30
0.0
 11
0.0472568382182245
 21
-0.0820628253925329
 31
0.0
210
0.0
220
0.0
230
1.0
 40
0.5780931159158119
 41
3.578838513251758
 42
5.845939447517315
  0
ELLIPSE
  5
1E7
330
6C
100
AcDbEntity
  8
Visible (ANSI)
100
AcDbEllipse
 10
105.4623626513891
 20
60.5126559098494
 30
0.0
 11
-0.0756109411491514
 21
0.1313005206280572
 31
0.0
210
0.0
220
0.0
230
1.0
 40
0.578093115915812
 41
0.0
 42
6.283185307179586
  0
ELLIPSE
  5
1E8
330
6C
100
AcDbEntity
  8
Visible (ANSI)
100
AcDbEllipse
 10
96.39425386962578
 20
65.73463245763393
 30
0.0
 11
-0.0756109411491514
 21
0.1313005206280572
 31
0.0
210
0.0
220
0.0
230
1.0
 40
0.578093115915812
 41
0.0
 42
6.283185307179586
  0
ELLIPSE
  5
1E9
330
6C
100
AcDbEntity
  8
Visible (ANSI)
100
AcDbEllipse
 10
96.39425386962575
 20
43.35861539224651
 30
0.0
 11
-0.0756109411491514
 21
0.1313005206280572
 31
0.0
210
0.0
220
0.0
230
1.0
 40
0.578093115915812
 41
0.0
 42
6.283185307179586
  0
ELLIPSE
  5
1EA
330
6C
100
AcDbEntity
  8
Visible (ANSI)
100
AcDbEllipse
 10
105.4623626513891
 20
38.13663884446198
 30
0.0
 11
-0.0756109411491514
 21
0.1313005206280572
 31
0.0
210
0.0
220
0.0
230
1.0
 40
0.578093115915812
 41
0.0
 42
6.283185307179586
  0
ELLIPSE
  5
1EB
330
6C
100
AcDbEntity
  8
Visible (ANSI)
100
AcDbEllipse
 10
105.4623626513891
 20
60.14104358037552
 30
0.0
 11
-0.0472568382182196
 21
0.0820628253925358
 31
0.0
210
0.0
220
0.0
230
1.0
 40
0.5780931159158119
 41
0.0
 42
6.283185307179586
  0
ELLIPSE
  5
1EC
330
6C
100
AcDbEntity
  8
Visible (ANSI)
100
AcDbEllipse
 10
96.39425386962578
 20
65.36302012816005
 30
0.0
 11
-0.0472568382182196
 21
0.0820628253925358
 31
0.0
210
0.0
220
0.0
230
1.0
 40
0.5780931159158119
 41
0.0
 42
6.283185307179586
  0
ELLIPSE
  5
1ED
330
6C
100
AcDbEntity
  8
Visible (ANSI)
100
AcDbEllipse
 10
96.39425386962575
 20
43.73022772172038
 30
0.0
 11
-0.0472568382182196
 21
0.0820628253925358
 31
0.0
210
0.0
220
0.0
230
1.0
 40
0.5780931159158119
 41
0.0
 42
6.283185307179586
  0
ELLIPSE
  5
1EE
330
6C
100
AcDbEntity
  8
Visible (ANSI)
100
AcDbEllipse
 10
105.4623626513891
 20
38.50825117393587
 30
0.0
 11
-0.0472568382182196
 21
0.0820628253925358
 31
0.0
210
0.0
220
0.0
230
1.0
 40
0.5780931159158119
 41
0.0
 42
6.283185307179586
  0
LINE
  5
1EF
330
6C
100
AcDbEntity
  8
Visible (ANSI)
100
AcDbLine
 10
105.7253849465123
 20
38.02153695627968
 30
0.0
 11
105.7253849465123
 21
38.62493628272408
 31
0.0
  0
LINE
  5
1F0
330
6C
100
AcDbEntity
  8
Visible (ANSI)
100
AcDbLine
 10
105.5111101643345
 20
60.78850753943142
 30
0.0
 11
96.42585939999698
 21
66.02035549845938
 31
0.0
  0
LINE
  5
1F1
330
6C
100
AcDbEntity
  8
Visible (ANSI)
100
AcDbLine
 10
105.7253849465123
 20
59.81397401946132
 30
0.0
 11
105.7253849465123
 21
60.41737334590572
 31
0.0
  0
LINE
  5
1F2
330
6C
100
AcDbEntity
  8
Visible (ANSI)
100
AcDbLine
 10
105.685208424854
 20
60.39423722580387
 30
0.0
 11
105.685208424854
 21
59.79083789935947
 31
0.0
  0
LINE
  5
1F3
330
6C
100
AcDbEntity
  8
Visible (ANSI)
100
AcDbLine
 10
96.38568287833864
 20
65.99721937835754
 30
0.0
 11
105.4709336426762
 21
60.76537141932958
 31
0.0
  0
LINE
  5
1F4
330
6C
100
AcDbEntity
  8
Visible (ANSI)
100
AcDbLine
 10
96.17140809616088
 20
65.26947113947368
 30
0.0
 11
96.17140809616088
 21
65.87287046591807
 31
0.0
  0
LINE
  5
1F5
330
6C
100
AcDbEntity
  8
Visible (ANSI)
100
AcDbLine
 10
96.17140809616088
 20
43.47703407629203
 30
0.0
 11
96.17140809616088
 21
44.08043340273644
 31
0.0
  0
LINE
  5
1F6
330
6C
100
AcDbEntity
  8
Visible (ANSI)
100
AcDbLine
 10
105.4709336426762
 20
37.87405192373837
 30
0.0
 11
96.38568287833862
 21
43.10589988276634
 31
0.0
  0
LINE
  5
1F7
330
6C
100
AcDbEntity
  8
Visible (ANSI)
100
AcDbLine
 10
105.685208424854
 20
38.60180016262223
 30
0.0
 11
105.685208424854
 21
37.99840083617784
 31
0.0
  0
LINE
  5
1F8
330
6C
100
AcDbEntity
  8
Visible (ANSI)
100
AcDbLine
 10
105.5111101643345
 20
37.89718804384021
 30
0.0
 11
105.7253849465123
 21
38.02153695627968
 31
0.0
  0
LINE
  5
1F9
330
6C
100
AcDbEntity
  8
Visible (ANSI)
100
AcDbLine
 10
105.685208424854
 20
37.99840083617784
 30
0.0
 11
105.4709336426762
 21
37.87405192373837
 31
0.0
  0
LINE
  5
1FA
330
6C
100
AcDbEntity
  8
Visible (ANSI)
100
AcDbLine
 10
105.4709336426762
 20
37.87405192373837
 30
0.0
 11
105.5111101643345
 21
37.89718804384021
 31
0.0
  0
LINE
  5
1FB
330
6C
100
AcDbEntity
  8
Visible (ANSI)
100
AcDbLine
 10
105.7253849465123
 20
38.02153695627968
 30
0.0
 11
105.685208424854
 21
37.99840083617784
 31
0.0
  0
LINE
  5
1FC
330
6C
100
AcDbEntity
  8
Visible (ANSI)
100
AcDbLine
 10
105.7253849465123
 20
60.41737334590572
 30
0.0
 11
105.5111101643345
 21
60.78850753943142
 31
0.0
  0
LINE
  5
1FD
330
6C
100
AcDbEntity
  8
Visible (ANSI)
100
AcDbLine
 10
105.4709336426762
 20
60.76537141932958
 30
0.0
 11
105.685208424854
 21
60.39423722580387
 31
0.0
  0
LINE
  5
1FE
330
6C
100
AcDbEntity
  8
Visible (ANSI)
100
AcDbLine
 10
105.685208424854
 20
60.39423722580387
 30
0.0
 11
105.7253849465123
 21
60.41737334590572
 31
0.0
  0
LINE
  5
1FF
330
6C
100
AcDbEntity
  8
Visible (ANSI)
100
AcDbLine
 10
105.5111101643345
 20
60.78850753943142
 30
0.0
 11
105.4709336426762
 21
60.76537141932958
 31
0.0
  0
LINE
  5
200
330
6C
100
AcDbEntity
  8
Visible (ANSI)
100
AcDbLine
 10
96.17140809616088
 20
65.87287046591807
 30
0.0
 11
96.38568287833864
 21
65.99721937835754
 31
0.0
  0
LINE
  5
201
330
6C
100
AcDbEntity
  8
Visible (ANSI)
100
AcDbLine
 10
96.38568287833864
 20
65.99721937835754
 30
0.0
 11
96.42585939999698
 21
66.02035549845938
 31
0.0
  0
LINE
  5
202
330
6C
100
AcDbEntity
  8
Visible (ANSI)
100
AcDbLine
 10
96.17140809616088
 20
65.26947113947368
 30
0.0
 11
96.21835570093603
 21
65.24243581193069
 31
0.0
  0
LINE
  5
203
330
6C
100
AcDbEntity
  8
Visible (ANSI)
100
AcDbLine
 10
96.21835570093603
 20
65.24243581193069
 30
0.0
 11
96.21835570093603
 21
65.24233671530949
 31
0.0
  0
LINE
  5
204
330
6C
100
AcDbEntity
  8
Visible Narrow (ANSI)
100
AcDbLine
 10
96.21826999102315
 20
65.24238607236572
 30
0.0
 11
96.21826999102315
 21
44.05354652887085
 31
0.0
  0
LINE
  5
205
330
6C
100
AcDbEntity
  8
Visible (ANSI)
100
AcDbLine
 10
96.21835570093601
 20
44.05349717181464
 30
0.0
 11
96.21835570093601
 21
44.05339807519344
 31
0.0
  0
LINE
  5
206
330
6C
100
AcDbEntity
  8
Visible (ANSI)
100
AcDbLine
 10
96.21835570093601
 20
44.05339807519344
 30
0.0
 11
96.17140809616088
 21
44.08043340273644
 31
0.0
  0
ELLIPSE
  5
207
330
6C
100
AcDbEntity
  8
Visible (ANSI)
100
AcDbEllipse
 10
96.26513188588543
 20
65.26937204285248
 30
0.0
 11
-0.0662727272727248
 21
0.0000000000000001
 31
0.0
210
0.0
220
0.0
230
1.0
 40
0.5758617009853071
 41
0.724790592920213
 42
0.7853981633973568
  0
ELLIPSE
  5
208
330
6C
100
AcDbEntity
  8
Visible (ANSI)
100
AcDbEllipse
 10
96.26513188588543
 20
44.08053249935764
 30
0.0
 11
-0.0662727272727272
 21
-0.0000000000000013
 31
0.0
210
0.0
220
0.0
230
1.0
 40
0.5758617009853159
 41
0.0
 42
0.7853981633973266
  0
LINE
  5
209
330
6C
100
AcDbEntity
  8
Visible (ANSI)
100
AcDbLine
 10
96.17140809616088
 20
44.08043340273644
 30
0.0
 11
96.19885915861269
 21
44.09624141825379
 31
0.0
  0
LINE
  5
20A
330
6C
100
AcDbEntity
  8
Visible (ANSI)
100
AcDbLine
 10
96.19885915861269
 20
65.25366312395632
 30
0.0
 11
96.19885915861269
 21
44.08053249935764
 31
0.0
  0
LINE
  5
20B
330
6C
100
AcDbEntity
  8
Visible (ANSI)
100
AcDbLine
 10
96.21835570093603
 20
65.24233671530949
 30
0.0
 11
96.21826999102315
 21
65.24238607236572
 31
0.0
  0
LINE
  5
20C
330
6C
100
AcDbEntity
  8
Visible (ANSI)
100
AcDbLine
 10
96.21826999102315
 20
44.05354652887085
 30
0.0
 11
96.21835570093601
 21
44.05349717181464
 31
0.0
  0
LINE
  5
20D
330
6C
100
AcDbEntity
  8
Visible (ANSI)
100
AcDbLine
 10
96.3744453061809
 20
65.38629339597794
 30
0.0
 11
96.42424378565664
 21
65.41497043307535
 31
0.0
  0
LINE
  5
20E
330
6C
100
AcDbEntity
  8
Visible (ANSI)
100
AcDbLine
 10
96.44643913758471
 20
65.38147964598694
 30
0.0
 11
96.39227109694182
 21
65.35028634596328
 31
0.0
  0
LINE
  5
20F
330
6C
100
AcDbEntity
  8
Visible (ANSI)
100
AcDbLine
 10
96.38568287833862
 20
43.10589988276634
 30
0.0
 11
96.17140809616088
 21
43.47703407629203
 31
0.0
  0
DIMENSION
  5
210
330
6C
100
AcDbEntity
  8
Dimension (ANSI)
100
AcDbDimension
  2
*D4
 10
11.44281369986592
 20
60.53232734003978
 30
0.0
 11
11.44281369986591
 21
37.43232734003978
 31
0.0
 70
   160
  1
<>
 42
46.2
  3
Default (ANSI)
100
AcDbAlignedDimension
 13
23.16678988016583
 23
14.33232734003978
 33
0.0
 14
23.16678988016581
 24
60.53232734003977
 34
0.0
 50
90.0
100
AcDbRotatedDimension
1001
ACAD
1000
DSTYLE
1002
{
1070
   289
1070
     1
1070
   271
1070
     2
1070
   272
1070
     2
1070
    48
1040
0.0
1070
    47
1040
0.0
1002
}
  0
DIMENSION
  5
2FD
330
6C
100
AcDbEntity
  8
Dimension (ANSI)
100
AcDbDimension
  2
*D5
 10
44.86678988016581
 20
66.33153993846498
 30
0.0
 11
33.76678988016581
 21
66.33153993846498
 31
0.0
 70
   160
  1
<>
 42
22.20000000000001
  3
Default (ANSI)
100
AcDbAlignedDimension
 13
22.66678988016581
 23
60.03232734003978
 33
0.0
 14
44.86678988016581
 24
60.03232734003979
 34
0.0
100
AcDbRotatedDimension
1001
ACAD
1000
DSTYLE
1002
{
1070
   289
1070
     1
1070
    73
1070
     0
1070
    74
1070
     0
1070
   271
1070
     2
1070
   272
1070
     2
1070
    48
1040
0.0
1070
    47
1040
0.0
1002
}
  0
DIMENSION
  5
3E7
330
6C
100
AcDbEntity
  8
Dimension (ANSI)
100
AcDbDimension
  2
*D6
 10
21.13244491910209
 20
15.60232734003978
 30
0.0
 11
19.24978200615008
 21
12.94144068607435
 31
0.0
 70
   160
  1
<>
 42
0.75
  3
Default (ANSI)
100
AcDbAlignedDimension
 13
23.18678988016583
 23
14.85232734003978
 33
0.0
 14
23.18678988016583
 24
15.60232734003978
 34
0.0
 50
90.0
100
AcDbRotatedDimension
1001
ACAD
1000
DSTYLE
1002
{
1070
   289
1070
     1
1070
   271
1070
     2
1070
   272
1070
     2
1070
    48
1040
0.0
1070
    47
1040
0.0
1002
}
  0
DIMENSION
  5
4E7
330
6C
100
AcDbEntity
  8
Dimension (ANSI)
100
AcDbDimension
  2
*D7
 10
50.17102749068643
 20
60.01232734003976
 30
0.0
 11
48.28379775418156
 21
58.10095446235791
 31
0.0
 70
   160
  1
<>
 42
0.5200000000000103
  3
Default (ANSI)
100
AcDbAlignedDimension
 13
44.36678988016581
 23
60.53232734003977
 33
0.0
 14
44.34678988016583
 24
60.01232734003977
 34
0.0
 50
270.0
100
AcDbRotatedDimension
1001
ACAD
1000
DSTYLE
1002
{
1070
   289
1070
     1
1070
   271
1070
     2
1070
   272
1070
     2
1070
    48
1040
0.0
1070
    47
1040
0.0
1002
}
  0
DIMENSION
  5
5E7
330
6C
100
AcDbEntity
  8
Dimension (ANSI)
100
AcDbDimension
  2
*D8
 10
44.34678988016583
 20
63.94933521405554
 30
0.0
 11
47.75352735885257
 21
63.94933521405554
 31
0.0
 70
   160
  1
<>
 42
0.519999999999989
  3
Default (ANSI)
100
AcDbAlignedDimension
 13
44.86678988016581
 23
60.03232734003979
 33
0.0
 14
44.34678988016583
 24
60.01232734003977
 34
0.0
 50
180.0
100
AcDbRotatedDimension
1001
ACAD
1000
DSTYLE
1002
{
1070
   289
1070
     1
1070
    73
1070
     0
1070
    74
1070
     0
1070
   271
1070
     2
1070
   272
1070
     2
1070
    48
1040
0.0
1070
    47
1040
0.0
1002
}
  0
DIMENSION
  5
6D1
330
6C
100
AcDbEntity
  8
Dimension (ANSI)
100
AcDbDimension
  2
*D9
 10
17.47587738064337
 20
37.43232734003978
 30
0.0
 11
17.47587738064336
 21
26.14232734003978
 31
0.0
 70
   160
  1
<>
 42
22.58
  3
Default (ANSI)
100
AcDbAlignedDimension
 13
23.18678988016583
 23
14.85232734003978
 33
0.0
 14
23.18678988016583
 24
37.43232734003978
 34
0.0
 50
90.0
100
AcDbRotatedDimension
1001
ACAD
1000
DSTYLE
1002
{
1070
   289
1070
     1
1070
   271
1070
     3
1070
   272
1070
     3
1070
    48
1040
0.0
1070
    47
1040
0.0
1002
}
  0
DIMENSION
  5
7BB
330
6C
100
AcDbEntity
  8
Dimension (ANSI)
100
AcDbDimension
  2
*D10
 10
14.4885114162581
 20
60.01232734003977
 30
0.0
 11
14.48851141625809
 21
45.20718016436171
 31
0.0
 70
   160
  1
<>
 42
45.15999999999999
  3
Default (ANSI)
100
AcDbAlignedDimension
 13
23.18678988016583
 23
14.85232734003978
 33
0.0
 14
23.18678988016583
 24
60.01232734003977
 34
0.0
 50
90.0
100
AcDbRotatedDimension
1001
ACAD
1000
DSTYLE
1002
{
1070
   289
1070
     1
1070
   271
1070
     3
1070
   272
1070
     3
1070
    48
1040
0.0
1070
    47
1040
0.0
1002
}
  0
DIMENSION
  5
8A5
330
6C
100
AcDbEntity
  8
Dimension (ANSI)
100
AcDbDimension
  2
*D11
 10
65.20931894189249
 20
63.53873678885868
 30
0.0
 11
61.54858146320559
 21
63.53873678885868
 31
0.0
 70
   160
  1
<>
 42
0.7740000000001573
  3
Default (ANSI)
100
AcDbAlignedDimension
 13
64.43531894189233
 23
60.53232734003977
 33
0.0
 14
65.20931894189249
 24
58.81432734003978
 34
0.0
 50
180.0
100
AcDbRotatedDimension
1001
ACAD
1000
DSTYLE
1002
{
1070
   289
1070
     1
1070
    73
1070
     0
1070
    74
1070
     0
1070
   271
1070
     2
1070
   272
1070
     2
1070
    48
1040
0.0
1070
    47
1040
0.0
1002
}
  0
MTEXT
  5
98F
102
{ACAD_REACTORS
330
990
102
}
330
6C
100
AcDbEntity
  8
Symbol (ANSI)
100
AcDbMText
 10
69.77691839673912
 20
43.58692466718262
 30
0.0
 40
0.8000000098871746
 41
3.271961149581148
 71
     1
 72
     1
  1
{12 GA.}
  7
Note Text (ANSI)
 73
     1
 44
1.0
1001
ACAD
1000
MTEXTBEGIN
1070
    73
1070
     1
1070
    44
1040
1.0
1070
    74
1070
     0
1000
MTEXTEND
  0
LEADER
  5
990
330
6C
100
AcDbEntity
  8
Symbol (ANSI)
100
AcDbLeader
  3
Default (ANSI)$7
 73
     0
 74
     0
 75
     1
 40
0.8322364105542201
 41
3.048488956413585
 76
     3
 10
65.20931894189249
 20
37.43232734003978
 30
0.0
 10
68.91077667931771
 20
43.18692466223903
 30
0.0
 10
69.56694464345829
 20
43.18692466223903
 30
0.0
340
98F
213
0.0
223
-0.4000000049435874
233
0.0
1001
ACAD
1000
DSTYLE
1002
{
1070
    77
1070
     0
1002
}
  0
DIMENSION
  5
991
330
6C
100
AcDbEntity
  8
Dimension (ANSI)
100
AcDbDimension
  2
*D12
 10
47.4609349080753
 20
14.83232734003977
 30
0.0
 11
49.35004510133722
 21
16.7432139940052
 31
0.0
 70
   160
  1
<>
 42
0.4999999999999965
  3
Default (ANSI)
100
AcDbAlignedDimension
 13
44.36678988016582
 23
14.33232734003978
 33
0.0
 14
44.86678988016582
 24
14.83232734003977
 34
0.0
 50
90.0
100
AcDbRotatedDimension
1001
ACAD
1000
DSTYLE
1002
{
1070
   289
1070
     1
1070
   271
1070
     2
1070
   272
1070
     2
1070
    48
1040
0.0
1070
    47
1040
0.0
1002
}
  0
DIMENSION
  5
A91
330
6C
100
AcDbEntity
  8
Dimension (ANSI)
100
AcDbDimension
  2
*D13
 10
44.36678988016582
 20
10.39531946602403
 30
0.0
 11
41.48005240147907
 21
10.39531946602403
 31
0.0
 70
   160
  1
<>
 42
0.5
  3
Default (ANSI)
100
AcDbAlignedDimension
 13
44.86678988016582
 23
14.83232734003977
 33
0.0
 14
44.36678988016582
 24
14.33232734003978
 34
0.0
 50
180.0
100
AcDbRotatedDimension
1001
ACAD
1000
DSTYLE
1002
{
1070
   289
1070
     1
1070
    73
1070
     0
1070
    74
1070
     0
1070
   271
1070
     2
1070
   272
1070
     2
1070
    48
1040
0.0
1070
    47
1040
0.0
1002
}
  0
DIMENSION
  5
B7B
330
6C
100
AcDbEntity
  8
Dimension (ANSI)
100
AcDbDimension
  2
*D14
 10
23.31178988016588
 20
59.7958209890937
 30
0.0
 11
15.3964912946121
 21
67.32072180871231
 31
0.0
 70
   163
  1
<>{\PTYP.(6PL.)}
 71
     3
 42
0.5
  3
Default (ANSI)
100
AcDbDiametricDimension
 15
23.06178988016578
 25
60.22883369098586
 35
0.0
 40
0.0
1001
ACAD_DSTYLE_DIMRADIAL_EXTENSION
1070
   387
1070
     1
1070
   388
1040
0.0
1070
   390
1040
0.0
1001
ACAD
1000
DSTYLE
1002
{
1070
   145
1040
-0.25
1070
   144
1040
1.0
1070
   271
1070
     2
1070
   272
1070
     2
1070
    48
1040
0.0
1070
    47
1040
0.0
1002
}
  0
DIMENSION
  5
C35
330
6C
100
AcDbEntity
  8
Dimension (ANSI)
100
AcDbDimension
  2
*D15
 10
23.12731723713387
 20
15.74681632657783
 30
0.0
 11
28.62843909051623
 21
11.47446727156807
 31
0.0
 70
   163
  1
<>{\PTYP. (4PL.)}
 42
0.3125
  3
Default (ANSI)
100
AcDbDiametricDimension
 15
23.24626252319778
 25
15.45783835350172
 35
0.0
 40
0.0
1001
ACAD_DSTYLE_DIMRADIAL_EXTENSION
1070
   387
1070
     1
1070
   388
1040
0.0
1070
   390
1040
0.0
1001
ACAD
1000
DSTYLE
1002
{
1070
   145
1040
-0.25
1070
   144
1040
0.9999999999999943
1070
   271
1070
     2
1070
   272
1070
     2
1070
    48
1040
0.0
1070
    47
1040
0.0
1002
}
  0
DIMENSION
  5
CEE
330
6C
100
AcDbEntity
  8
Dimension (ANSI)
100
AcDbDimension
  2
*D16
 10
44.34678988016583
 20
63.94933521405551
 30
0.0
 11
33.76678988016582
 21
63.94933521405551
 31
0.0
 70
   160
  1
<>
 42
21.16
  3
Default (ANSI)
100
AcDbAlignedDimension
 13
23.18678988016583
 23
60.01232734003977
 33
0.0
 14
44.34678988016583
 24
60.01232734003977
 34
0.0
 50
180.0
100
AcDbRotatedDimension
1001
ACAD
1000
DSTYLE
1002
{
1070
   289
1070
     1
1070
    73
1070
     0
1070
    74
1070
     0
1070
   271
1070
     3
1070
   272
1070
     3
1070
    48
1040
0.0
1070
    47
1040
0.0
1002
}
  0
ENDSEC
  0
SECTION
  2
OBJECTS
  0
DICTIONARY
  5
C
330
0
100
AcDbDictionary
281
     1
  3
ACAD_CIP_PREVIOUS_PRODUCT_INFO
350
DD8
  3
ACAD_COLOR
350
63
  3
ACAD_GROUP
350
D
  3
ACAD_LAYOUT
350
62
  3
ACAD_MATERIAL
350
10
  3
ACAD_MLEADERSTYLE
350
66
  3
ACAD_MLINESTYLE
350
5F
  3
ACAD_PLOTSETTINGS
350
61
  3
ACAD_PLOTSTYLENAME
350
E
  3
ACAD_SCALELIST
350
42
  3
ACAD_TABLESTYLE
350
64
  3
ACAD_VISUALSTYLE
350
29
  3
ACDB_RECOMPOSE_DATA
350
DE7
  3
AcDbVariableDictionary
350
D8
  3
DWGPROPS
350
DE8
  0
DICTIONARY
  5
E24
330
C2F
100
AcDbDictionary
280
     1
281
     1
  3
ACAD_MTEXT_RT
360
E25
  0
DICTIONARY
  5
E26
330
CE8
100
AcDbDictionary
280
     1
281
     1
  3
ACAD_MTEXT_RT
360
E27
  0
XRECORD
  5
DD8
102
{ACAD_REACTORS
330
C
102
}
330
C
100
AcDbXrecord
280
     1
300
INVNTOR
300
2012
300
85795PDSP_2012_0F
  0
DICTIONARY
  5
63
102
{ACAD_REACTORS
330
C
102
}
330
C
100
AcDbDictionary
281
     1
  0
DICTIONARY
  5
D
102
{ACAD_REACTORS
330
C
102
}
330
C
100
AcDbDictionary
281
     1
  0
DICTIONARY
  5
62
102
{ACAD_REACTORS
330
C
102
}
330
C
100
AcDbDictionary
281
     1
  3
Layout1
350
6B
  3
Layout2
350
73
  3
Model
350
6F
  0
DICTIONARY
  5
10
102
{ACAD_REACTORS
330
C
102
}
330
C
100
AcDbDictionary
281
     1
  3
ByBlock
350
19
  3
ByLayer
350
11
  3
Global
350
21
  0
DICTIONARY
  5
66
102
{ACAD_REACTORS
330
C
102
}
330
C
100
AcDbDictionary
281
     1
  3
Standard
350
67
  0
DICTIONARY
  5
5F
102
{ACAD_REACTORS
330
C
102
}
330
C
100
AcDbDictionary
281
     1
  3
Standard
350
60
  0
DICTIONARY
  5
61
102
{ACAD_REACTORS
330
C
102
}
330
C
100
AcDbDictionary
281
     1
  0
ACDBDICTIONARYWDFLT
  5
E
102
{ACAD_REACTORS
330
C
102
}
330
C
100
AcDbDictionary
281
     1
  3
Normal
350
F
100
AcDbDictionaryWithDefault
340
F
  0
DICTIONARY
  5
42
102
{ACAD_REACTORS
330
C
102
}
330
C
100
AcDbDictionary
281
     1
  3
A0
350
43
  3
A1
350
44
  3
A2
350
45
  3
A3
350
46
  3
A4
350
47
  3
A5
350
48
  3
A6
350
49
  3
A7
350
4A
  3
A8
350
4B
  3
A9
350
4C
  3
B0
350
4D
  3
B1
350
4E
  3
B2
350
4F
  3
B3
350
50
  3
B4
350
51
  3
B5
350
52
  3
B6
350
53
  0
DICTIONARY
  5
64
102
{ACAD_REACTORS
330
C
102
}
330
C
100
AcDbDictionary
281
     1
  3
Standard
350
65
  0
DICTIONARY
  5
29
102
{ACAD_REACTORS
330
C
102
}
330
C
100
AcDbDictionary
281
     1
  3
2dWireframe
350
2F
  3
Basic
350
2E
  3
Brighten
350
35
  3
ColorChange
350
39
  3
Conceptual
350
32
  3
Dim
350
34
  3
EdgeColorOff
350
41
  3
Facepattern
350
38
  3
Flat
350
2A
  3
FlatWithEdges
350
2B
  3
Gouraud
350
2C
  3
GouraudWithEdges
350
2D
  3
Hidden
350
31
  3
JitterOff
350
3F
  3
Linepattern
350
37
  3
OverhangOff
350
40
  3
Realistic
350
33
  3
Shaded
350
3E
  3
Shaded with edges
350
3D
  3
Shades of Gray
350
3A
  3
Sketchy
350
3B
  3
Thicken
350
36
  3
Wireframe
350
30
  3
X-Ray
350
3C
  0
XRECORD
  5
DE7
102
{ACAD_REACTORS
330
C
102
}
330
C
100
AcDbXrecord
280
     1
 90
        1
330
65
  0
DICTIONARY
  5
D8
102
{ACAD_REACTORS
330
C
102
}
330
C
100
AcDbDictionary
281
     1
  3
CANNOSCALE
350
DB
  3
CMLEADERSTYLE
350
DA
  3
CTABLESTYLE
350
D9
  3
DIMASSOC
350
DE0
  3
HIDETEXT
350
DDF
  3
INDEXCTL
350
DDE
  3
LAYEREVAL
350
DDB
  3
LAYERNOTIFY
350
DDC
  3
LIGHTINGUNITS
350
DDA
  3
MSLTSCALE
350
DD9
  3
SORTENTS
350
DDD
  3
XCLIPFRAME
350
DE1
  0
XRECORD
  5
DE8
102
{ACAD_REACTORS
330
C
102
}
330
C
100
AcDbXrecord
280
     1
  1
DWGPROPS COOKIE
  2

  3

  4
EC
  6

  7

  8

  9
-
300
Manager=
301
Company=
302
Category=
303
Part Number=NP4824C
304
Description=NPC PANEL MASTER VIEW
305
Project=
306
Designer=EC
307
Engineer=
308
Authority=
309
Cost Center=
 40
0.0000368865740741
 41
2455944.542599769
 42
2455944.542599942
  1

 90
       20
300
Vendor=
300
User Status=
300
Design Status=WorkInProgress
300
Checked by=JG
300
Date Checked=02/19/2009
300
Engr Approved by=
300
Mfg Approved by=
300
DWG. NO=
300
NUMBER OF SHEETS=1
300
DRAWING #=1
  0
XRECORD
  5
E25
102
{ACAD_REACTORS
330
E24
102
}
330
E24
100
AcDbXrecord
280
     1
 40
29672.0
  1
\A1;\U+22050.50{\PTYP.(6PL.)}
  0
XRECORD
  5
E27
102
{ACAD_REACTORS
330
E26
102
}
330
E26
100
AcDbXrecord
280
     1
 40
30807.0
  1
\A1;\U+22050.31{\PTYP. (4PL.)}
  0
LAYOUT
  5
6B
102
{ACAD_XDICTIONARY
360
E1E
102
}
102
{ACAD_REACTORS
330
62
102
}
330
62
100
AcDbPlotSettings
  1

  2

  4

  6

 40
0.0
 41
0.0
 42
0.0
 43
0.0
 44
0.0
 45
0.0
 46
0.0
 47
0.0
 48
0.0
 49
0.0
140
0.0
141
0.0
142
1.0
143
1.0
 70
   688
 72
     0
 73
     0
 74
     5
  7

 75
    16
147
1.0
148
0.0
149
0.0
100
AcDbLayout
  1
Layout1
 70
     1
 71
     1
 10
0.0
 20
0.0
 11
12.0
 21
9.0
 12
0.0
 22
0.0
 32
0.0
 14
0.0
 24
0.0
 34
0.0
 15
0.0
 25
0.0
 35
0.0
146
0.0
 13
0.0
 23
0.0
 33
0.0
 16
1.0
 26
0.0
 36
0.0
 17
0.0
 27
1.0
 37
0.0
 76
     0
330
68
  0
LAYOUT
  5
73
102
{ACAD_XDICTIONARY
360
E22
102
}
102
{ACAD_REACTORS
330
62
102
}
330
62
100
AcDbPlotSettings
  1

  2

  4

  6

 40
0.0
 41
0.0
 42
0.0
 43
0.0
 44
0.0
 45
0.0
 46
0.0
 47
0.0
 48
0.0
 49
0.0
140
0.0
141
0.0
142
1.0
143
1.0
 70
   688
 72
     0
 73
     0
 74
     5
  7

 75
    16
147
1.0
148
0.0
149
0.0
100
AcDbLayout
  1
Layout2
 70
     1
 71
     2
 10
0.0
 20
0.0
 11
12.0
 21
9.0
 12
0.0
 22
0.0
 32
0.0
 14
0.0
 24
0.0
 34
0.0
 15
0.0
 25
0.0
 35
0.0
146
0.0
 13
0.0
 23
0.0
 33
0.0
 16
1.0
 26
0.0
 36
0.0
 17
0.0
 27
1.0
 37
0.0
 76
     0
330
70
  0
LAYOUT
  5
6F
102
{ACAD_XDICTIONARY
360
E20
102
}
102
{ACAD_REACTORS
330
62
102
}
330
62
100
AcDbPlotSettings
  1

  2

  4

  6

 40
0.0
 41
0.0
 42
0.0
 43
0.0
 44
0.0
 45
0.0
 46
0.0
 47
0.0
 48
0.0
 49
0.0
140
0.0
141
0.0
142
1.0
143
1.0
 70
  1712
 72
     0
 73
     0
 74
     0
  7

 75
     0
147
1.0
148
0.0
149
0.0
100
AcDbLayout
  1
Model
 70
     1
 71
     0
 10
0.0
 20
0.0
 11
12.0
 21
9.0
 12
0.0
 22
0.0
 32
0.0
 14
0.0
 24
0.0
 34
0.0
 15
0.0
 25
0.0
 35
0.0
146
0.0
 13
0.0
 23
0.0
 33
0.0
 16
1.0
 26
0.0
 36
0.0
 17
0.0
 27
1.0
 37
0.0
 76
     0
330
6C
  0
MATERIAL
  5
19
102
{ACAD_XDICTIONARY
360
1A
102
}
102
{ACAD_REACTORS
330
10
102
}
330
10
100
AcDbMaterial
  1
ByBlock
 72
     0
 43
0.0208333333333333
 43
0.0
 43
0.0
 43
0.0
 43
0.0
 43
0.0208333333333333
 43
0.0
 43
0.0
 43
0.0
 43
0.0
 43
1.0
 43
0.0
 43
0.0
 43
0.0
 43
0.0
 43
1.0
 77
     0
 47
0.0208333333333333
 47
0.0
 47
0.0
 47
0.0
 47
0.0
 47
0.0208333333333333
 47
0.0
 47
0.0
 47
0.0
 47
0.0
 47
1.0
 47
0.0
 47
0.0
 47
0.0
 47
0.0
 47
1.0
171
     0
 49
0.0208333333333333
 49
0.0
 49
0.0
 49
0.0
 49
0.0
 49
0.0208333333333333
 49
0.0
 49
0.0
 49
0.0
 49
0.0
 49
1.0
 49
0.0
 49
0.0
 49
0.0
 49
0.0
 49
1.0
175
     0
142
0.0208333333333333
142
0.0
142
0.0
142
0.0
142
0.0
142
0.0208333333333333
142
0.0
142
0.0
142
0.0
142
0.0
142
1.0
142
0.0
142
0.0
142
0.0
142
0.0
142
1.0
179
     0
144
0.0208333333333333
144
0.0
144
0.0
144
0.0
144
0.0
144
0.0208333333333333
144
0.0
144
0.0
144
0.0
144
0.0
144
1.0
144
0.0
144
0.0
144
0.0
144
0.0
144
1.0
147
0.0208333333333333
147
0.0
147
0.0
147
0.0
147
0.0
147
0.0208333333333333
147
0.0
147
0.0
147
0.0
147
0.0
147
1.0
147
0.0
147
0.0
147
0.0
147
0.0
147
1.0
  0
MATERIAL
  5
11
102
{ACAD_XDICTIONARY
360
12
102
}
102
{ACAD_REACTORS
330
10
102
}
330
10
100
AcDbMaterial
  1
ByLayer
 72
     0
 43
0.0208333333333333
 43
0.0
 43
0.0
 43
0.0
 43
0.0
 43
0.0208333333333333
 43
0.0
 43
0.0
 43
0.0
 43
0.0
 43
1.0
 43
0.0
 43
0.0
 43
0.0
 43
0.0
 43
1.0
 77
     0
 47
0.0208333333333333
 47
0.0
 47
0.0
 47
0.0
 47
0.0
 47
0.0208333333333333
 47
0.0
 47
0.0
 47
0.0
 47
0.0
 47
1.0
 47
0.0
 47
0.0
 47
0.0
 47
0.0
 47
1.0
171
     0
 49
0.0208333333333333
 49
0.0
 49
0.0
 49
0.0
 49
0.0
 49
0.0208333333333333
 49
0.0
 49
0.0
 49
0.0
 49
0.0
 49
1.0
 49
0.0
 49
0.0
 49
0.0
 49
0.0
 49
1.0
175
     0
142
0.0208333333333333
142
0.0
142
0.0
142
0.0
142
0.0
142
0.0208333333333333
142
0.0
142
0.0
142
0.0
142
0.0
142
1.0
142
0.0
142
0.0
142
0.0
142
0.0
142
1.0
179
     0
144
0.0208333333333333
144
0.0
144
0.0
144
0.0
144
0.0
144
0.0208333333333333
144
0.0
144
0.0
144
0.0
144
0.0
144
1.0
144
0.0
144
0.0
144
0.0
144
0.0
144
1.0
147
0.0208333333333333
147
0.0
147
0.0
147
0.0
147
0.0
147
0.0208333333333333
147
0.0
147
0.0
147
0.0
147
0.0
147
1.0
147
0.0
147
0.0
147
0.0
147
0.0
147
1.0
  0
MATERIAL
  5
21
102
{ACAD_XDICTIONARY
360
22
102
}
102
{ACAD_REACTORS
330
10
102
}
330
10
100
AcDbMaterial
  1
Global
 72
     0
 43
0.0208333333333333
 43
0.0
 43
0.0
 43
0.0
 43
0.0
 43
0.0208333333333333
 43
0.0
 43
0.0
 43
0.0
 43
0.0
 43
1.0
 43
0.0
 43
0.0
 43
0.0
 43
0.0
 43
1.0
 77
     0
 47
0.0208333333333333
 47
0.0
 47
0.0
 47
0.0
 47
0.0
 47
0.0208333333333333
 47
0.0
 47
0.0
 47
0.0
 47
0.0
 47
1.0
 47
0.0
 47
0.0
 47
0.0
 47
0.0
 47
1.0
171
     0
 49
0.0208333333333333
 49
0.0
 49
0.0
 49
0.0
 49
0.0
 49
0.0208333333333333
 49
0.0
 49
0.0
 49
0.0
 49
0.0
 49
1.0
 49
0.0
 49
0.0
 49
0.0
 49
0.0
 49
1.0
175
     0
142
0.0208333333333333
142
0.0
142
0.0
142
0.0
142
0.0
142
0.0208333333333333
142
0.0
142
0.0
142
0.0
142
0.0
142
1.0
142
0.0
142
0.0
142
0.0
142
0.0
142
1.0
179
     0
144
0.0208333333333333
144
0.0
144
0.0
144
0.0
144
0.0
144
0.0208333333333333
144
0.0
144
0.0
144
0.0
144
0.0
144
1.0
144
0.0
144
0.0
144
0.0
144
0.0
144
1.0
147
0.0208333333333333
147
0.0
147
0.0
147
0.0
147
0.0
147
0.0208333333333333
147
0.0
147
0.0
147
0.0
147
0.0
147
1.0
147
0.0
147
0.0
147
0.0
147
0.0
147
1.0
  0
MLEADERSTYLE
  5
67
102
{ACAD_XDICTIONARY
360
DE4
102
}
102
{ACAD_REACTORS
330
66
102
}
330
66
100
AcDbMLeaderStyle
170
     2
171
     1
172
     0
 90
        2
 40
0.0
 41
0.0
173
     1
 91
-1056964608
340
5B
 92
       -2
290
     1
 42
0.09
291
     1
 43
0.36
  3
Standard
 44
0.18
300

342
55
174
     1
178
     6
175
     1
176
     0
 93
-1056964608
 45
0.18
292
     0
297
     0
 46
0.18
 94
-1056964608
 47
1.0
 49
1.0
140
1.0
293
     1
141
0.0
294
     1
177
     0
142
1.0
295
     0
296
     0
143
0.125
1001
ACAD_MLEADERVER
1070
     2
  0
MLINESTYLE
  5
60
102
{ACAD_REACTORS
330
5F
102
}
330
5F
100
AcDbMlineStyle
  2
STANDARD
 70
     0
  3

 62
   256
 51
90.0
 52
90.0
 71
     2
 49
0.5
 62
   256
  6
BYLAYER
 49
-0.5
 62
   256
  6
BYLAYER
  0
ACDBPLACEHOLDER
  5
F
102
{ACAD_REACTORS
330
E
102
}
330
E
  0
SCALE
  5
43
102
{ACAD_REACTORS
330
42
102
}
330
42
100
AcDbScale
 70
     0
300
1:1
140
1.0
141
1.0
290
     1
  0
SCALE
  5
44
102
{ACAD_REACTORS
330
42
102
}
330
42
100
AcDbScale
 70
     0
300
1/128" = 1'-0"
140
0.0078125
141
12.0
290
     0
  0
SCALE
  5
45
102
{ACAD_REACTORS
330
42
102
}
330
42
100
AcDbScale
 70
     0
300
1/64" = 1'-0"
140
0.015625
141
12.0
290
     0
  0
SCALE
  5
46
102
{ACAD_REACTORS
330
42
102
}
330
42
100
AcDbScale
 70
     0
300
1/32" = 1'-0"
140
0.03125
141
12.0
290
     0
  0
SCALE
  5
47
102
{ACAD_REACTORS
330
42
102
}
330
42
100
AcDbScale
 70
     0
300
1/16" = 1'-0"
140
0.0625
141
12.0
290
     0
  0
SCALE
  5
48
102
{ACAD_REACTORS
330
42
102
}
330
42
100
AcDbScale
 70
     0
300
3/32" = 1'-0"
140
0.09375
141
12.0
290
     0
  0
SCALE
  5
49
102
{ACAD_REACTORS
330
42
102
}
330
42
100
AcDbScale
 70
     0
300
1/8" = 1'-0"
140
0.125
141
12.0
290
     0
  0
SCALE
  5
4A
102
{ACAD_REACTORS
330
42
102
}
330
42
100
AcDbScale
 70
     0
300
3/16" = 1'-0"
140
0.1875
141
12.0
290
     0
  0
SCALE
  5
4B
102
{ACAD_REACTORS
330
42
102
}
330
42
100
AcDbScale
 70
     0
300
1/4" = 1'-0"
140
0.25
141
12.0
290
     0
  0
SCALE
  5
4C
102
{ACAD_REACTORS
330
42
102
}
330
42
100
AcDbScale
 70
     0
300
3/8" = 1'-0"
140
0.375
141
12.0
290
     0
  0
SCALE
  5
4D
102
{ACAD_REACTORS
330
42
102
}
330
42
100
AcDbScale
 70
     0
300
1/2" = 1'-0"
140
0.5
141
12.0
290
     0
  0
SCALE
  5
4E
102
{ACAD_REACTORS
330
42
102
}
330
42
100
AcDbScale
 70
     0
300
3/4" = 1'-0"
140
0.75
141
12.0
290
     0
  0
SCALE
  5
4F
102
{ACAD_REACTORS
330
42
102
}
330
42
100
AcDbScale
 70
     0
300
1" = 1'-0"
140
1.0
141
12.0
290
     0
  0
SCALE
  5
50
102
{ACAD_REACTORS
330
42
102
}
330
42
100
AcDbScale
 70
     0
300
1-1/2" = 1'-0"
140
1.5
141
12.0
290
     0
  0
SCALE
  5
51
102
{ACAD_REACTORS
330
42
102
}
330
42
100
AcDbScale
 70
     0
300
3" = 1'-0"
140
3.0
141
12.0
290
     0
  0
SCALE
  5
52
102
{ACAD_REACTORS
330
42
102
}
330
42
100
AcDbScale
 70
     0
300
6" = 1'-0"
140
6.0
141
12.0
290
     0
  0
SCALE
  5
53
102
{ACAD_REACTORS
330
42
102
}
330
42
100
AcDbScale
 70
     0
300
1'-0" = 1'-0"
140
12.0
141
12.0
290
     0
  0
TABLESTYLE
  5
65
102
{ACAD_XDICTIONARY
360
DE2
102
}
102
{ACAD_REACTORS
330
64
102
}
330
64
100
AcDbTableStyle
  3
Standard
 70
     0
 71
     0
 40
0.06
 41
0.06
280
     0
281
     0
  7
Standard
140
0.18
170
     2
 62
     0
 63
     7
283
     0
274
    -2
284
     1
 64
     0
275
    -2
285
     1
 65
     0
276
    -2
286
     1
 66
     0
277
    -2
287
     1
 67
     0
278
    -2
288
     1
 68
     0
279
    -2
289
     1
 69
     0
  7
Standard
140
0.25
170
     5
 62
     0
 63
     7
283
     0
274
    -2
284
     1
 64
     0
275
    -2
285
     1
 65
     0
276
    -2
286
     1
 66
     0
277
    -2
287
     1
 67
     0
278
    -2
288
     1
 68
     0
279
    -2
289
     1
 69
     0
  7
Standard
140
0.18
170
     5
 62
     0
 63
     7
283
     0
274
    -2
284
     1
 64
     0
275
    -2
285
     1
 65
     0
276
    -2
286
     1
 66
     0
277
    -2
287
     1
 67
     0
278
    -2
288
     1
 68
     0
279
    -2
289
     1
 69
     0
  0
VISUALSTYLE
  5
2F
102
{ACAD_XDICTIONARY
360
DF6
102
}
102
{ACAD_REACTORS
330
29
102
}
330
29
100
AcDbVisualStyle
  2
2dWireframe
 70
     4
 71
     0
 72
     2
 73
     0
 90
        0
 40
-0.6
 41
-30.0
 62
     5
 63
     7
 74
     1
 91
        4
 64
     7
 65
   257
 75
     1
175
     1
 42
1.0
 92
        0
 66
   257
 43
1.0
 76
     1
 77
     6
 78
     2
 67
     7
 79
     5
170
     0
171
     0
290
     0
174
     0
 93
        1
 44
0.0
173
     0
291
     0
 45
0.0
1001
ACAD
1000
AcDbSavedByObjectVersion
1070
     0
  0
VISUALSTYLE
  5
2E
102
{ACAD_XDICTIONARY
360
DF4
102
}
102
{ACAD_REACTORS
330
29
102
}
330
29
100
AcDbVisualStyle
  2
Basic
 70
     7
 71
     1
 72
     0
 73
     1
 90
        0
 40
-0.6
 41
-30.0
 62
     5
 63
     7
 74
     0
 91
        4
 64
     7
 65
   257
 75
     1
175
     1
 42
1.0
 92
        8
 66
     7
 43
1.0
 76
     1
 77
     6
 78
     2
 67
     7
 79
     5
170
     0
171
     0
290
     0
174
     0
 93
        1
 44
0.0
173
     0
291
     1
 45
0.0
1001
ACAD
1000
AcDbSavedByObjectVersion
1070
     0
  0
VISUALSTYLE
  5
35
102
{ACAD_XDICTIONARY
360
E02
102
}
102
{ACAD_REACTORS
330
29
102
}
330
29
100
AcDbVisualStyle
  2
Brighten
 70
    12
 71
     2
 72
     2
 73
     0
 90
        0
 40
-0.6
 41
-30.0
 62
     5
 63
     7
 74
     1
 91
        4
 64
     7
 65
   257
 75
     1
175
     1
 42
1.0
 92
        8
 66
     7
 43
1.0
 76
     1
 77
     6
 78
     2
 67
     7
 79
     5
170
     0
171
     0
290
     0
174
     0
 93
        1
 44
50.0
173
     0
291
     1
 45
0.0
1001
ACAD
1000
AcDbSavedByObjectVersion
1070
     0
  0
VISUALSTYLE
  5
39
102
{ACAD_XDICTIONARY
360
E0A
102
}
102
{ACAD_REACTORS
330
29
102
}
330
29
100
AcDbVisualStyle
  2
ColorChange
 70
    16
 71
     2
 72
     2
 73
     3
 90
        0
 40
-0.6
 41
-30.0
 62
     5
 63
     8
 74
     1
 91
        4
 64
     7
 65
   257
 75
     1
175
     1
 42
1.0
 92
        8
 66
     8
 43
1.0
 76
     1
 77
     6
 78
     2
 67
     7
 79
     5
170
     0
171
     0
290
     0
174
     0
 93
        1
 44
0.0
173
     0
291
     1
 45
0.0
1001
ACAD
1000
AcDbSavedByObjectVersion
1070
     0
  0
VISUALSTYLE
  5
32
102
{ACAD_XDICTIONARY
360
DFC
102
}
102
{ACAD_REACTORS
330
29
102
}
330
29
100
AcDbVisualStyle
  2
Conceptual
 70
     9
 71
     3
 72
     2
 73
     0
 90
        0
 40
-0.6
 41
-30.0
 62
     5
 63
     7
 74
     2
 91
        2
 64
     7
 65
   257
 75
     1
175
     1
 42
179.0
 92
        8
 66
     7
 43
1.0
 76
     1
 77
     6
 78
     2
 67
     7
 79
     3
170
     0
171
     0
290
     0
174
     0
 93
        1
 44
0.0
173
     0
291
     0
 45
0.0
1001
ACAD
1000
AcDbSavedByObjectVersion
1070
     0
  0
VISUALSTYLE
  5
34
102
{ACAD_XDICTIONARY
360
E00
102
}
102
{ACAD_REACTORS
330
29
102
}
330
29
100
AcDbVisualStyle
  2
Dim
 70
    11
 71
     2
 72
     2
 73
     0
 90
        0
 40
-0.6
 41
-30.0
 62
     5
 63
     7
 74
     1
 91
        4
 64
     7
 65
   257
 75
     1
175
     1
 42
1.0
 92
        8
 66
     7
 43
1.0
 76
     1
 77
     6
 78
     2
 67
     7
 79
     5
170
     0
171
     0
290
     0
174
     0
 93
        1
 44
-50.0
173
     0
291
     1
 45
0.0
1001
ACAD
1000
AcDbSavedByObjectVersion
1070
     0
  0
VISUALSTYLE
  5
41
102
{ACAD_XDICTIONARY
360
E1A
102
}
102
{ACAD_REACTORS
330
29
102
}
330
29
100
AcDbVisualStyle
  2
EdgeColorOff
 70
    22
 71
     2
 72
     2
 73
     0
 90
        0
 40
-0.6
 41
-30.0
 62
     5
 63
     7
 74
     1
 91
        4
 64
     7
 65
   257
 75
     1
175
     1
 42
1.0
 92
        8
 66
     7
 43
1.0
 76
     1
 77
     6
 78
     2
 67
     7
 79
     5
170
     0
171
     0
290
     0
174
     0
 93
        1
 44
0.0
173
     0
291
     1
 45
0.0
1001
ACAD
1000
AcDbSavedByObjectVersion
1070
     0
  0
VISUALSTYLE
  5
38
102
{ACAD_XDICTIONARY
360
E08
102
}
102
{ACAD_REACTORS
330
29
102
}
330
29
100
AcDbVisualStyle
  2
Facepattern
 70
    15
 71
     2
 72
     2
 73
     0
 90
        0
 40
-0.6
 41
-30.0
 62
     5
 63
     7
 74
     1
 91
        4
 64
     7
 65
   257
 75
     1
175
     1
 42
1.0
 92
        8
 66
     7
 43
1.0
 76
     1
 77
     6
 78
     2
 67
     7
 79
     5
170
     0
171
     0
290
     0
174
     0
 93
        1
 44
0.0
173
     0
291
     1
 45
0.0
1001
ACAD
1000
AcDbSavedByObjectVersion
1070
     0
  0
VISUALSTYLE
  5
2A
102
{ACAD_XDICTIONARY
360
DEC
102
}
102
{ACAD_REACTORS
330
29
102
}
330
29
100
AcDbVisualStyle
  2
Flat
 70
     0
 71
     2
 72
     1
 73
     1
 90
        2
 40
-0.6
 41
30.0
 62
     5
 63
     7
 74
     0
 91
        0
 64
     7
 65
   257
 75
     1
175
     1
 42
1.0
 92
        8
 66
     7
 43
1.0
 76
     1
 77
     6
 78
     2
 67
     7
 79
     5
170
     0
171
     0
290
     0
174
     0
 93
       13
 44
0.0
173
     0
291
     1
 45
0.0
1001
ACAD
1000
AcDbSavedByObjectVersion
1070
     0
  0
VISUALSTYLE
  5
2B
102
{ACAD_XDICTIONARY
360
DEE
102
}
102
{ACAD_REACTORS
330
29
102
}
330
29
100
AcDbVisualStyle
  2
FlatWithEdges
 70
     1
 71
     2
 72
     1
 73
     1
 90
        2
 40
-0.6
 41
30.0
 62
     5
 63
     7
 74
     1
 91
        0
 64
     7
 65
   257
 75
     1
175
     1
 42
1.0
 92
        0
 66
   257
 43
1.0
 76
     1
 77
     6
 78
     2
 67
     7
 79
     5
170
     0
171
     0
290
     0
174
     0
 93
       13
 44
0.0
173
     0
291
     1
 45
0.0
1001
ACAD
1000
AcDbSavedByObjectVersion
1070
     0
  0
VISUALSTYLE
  5
2C
102
{ACAD_XDICTIONARY
360
DF0
102
}
102
{ACAD_REACTORS
330
29
102
}
330
29
100
AcDbVisualStyle
  2
Gouraud
 70
     2
 71
     2
 72
     2
 73
     1
 90
        2
 40
-0.6
 41
30.0
 62
     5
 63
     7
 74
     0
 91
        0
 64
     7
 65
   257
 75
     1
175
     1
 42
1.0
 92
        0
 66
     7
 43
1.0
 76
     1
 77
     6
 78
     2
 67
     7
 79
     5
170
     0
171
     0
290
     0
174
     0
 93
       13
 44
0.0
173
     0
291
     1
 45
0.0
1001
ACAD
1000
AcDbSavedByObjectVersion
1070
     0
  0
VISUALSTYLE
  5
2D
102
{ACAD_XDICTIONARY
360
DF2
102
}
102
{ACAD_REACTORS
330
29
102
}
330
29
100
AcDbVisualStyle
  2
GouraudWithEdges
 70
     3
 71
     2
 72
     2
 73
     1
 90
        2
 40
-0.6
 41
30.0
 62
     5
 63
     7
 74
     1
 91
        0
 64
     7
 65
   257
 75
     1
175
     1
 42
1.0
 92
        0
 66
   257
 43
1.0
 76
     1
 77
     6
 78
     2
 67
     7
 79
     5
170
     0
171
     0
290
     0
174
     0
 93
       13
 44
0.0
173
     0
291
     1
 45
0.0
1001
ACAD
1000
AcDbSavedByObjectVersion
1070
     0
  0
VISUALSTYLE
  5
31
102
{ACAD_XDICTIONARY
360
DFA
102
}
102
{ACAD_REACTORS
330
29
102
}
330
29
100
AcDbVisualStyle
  2
Hidden
 70
     6
 71
     1
 72
     2
 73
     2
 90
        0
 40
-0.6
 41
-30.0
 62
     5
 63
     7
 74
     2
 91
        2
 64
     7
 65
   257
 75
     2
175
     1
 42
40.0
 92
        0
 66
   257
 43
1.0
 76
     1
 77
     6
 78
     2
 67
     7
 79
     3
170
     0
171
     0
290
     0
174
     0
 93
        1
 44
0.0
173
     0
291
     0
 45
0.0
1001
ACAD
1000
AcDbSavedByObjectVersion
1070
     0
  0
VISUALSTYLE
  5
3F
102
{ACAD_XDICTIONARY
360
E16
102
}
102
{ACAD_REACTORS
330
29
102
}
330
29
100
AcDbVisualStyle
  2
JitterOff
 70
    20
 71
     2
 72
     2
 73
     0
 90
        0
 40
-0.6
 41
-30.0
 62
     5
 63
     7
 74
     1
 91
        4
 64
     7
 65
   257
 75
     1
175
     1
 42
1.0
 92
       10
 66
     7
 43
1.0
 76
     1
 77
     6
 78
     2
 67
     7
 79
     5
170
     0
171
     0
290
     0
174
     0
 93
        1
 44
0.0
173
     0
291
     1
 45
0.0
1001
ACAD
1000
AcDbSavedByObjectVersion
1070
     0
  0
VISUALSTYLE
  5
37
102
{ACAD_XDICTIONARY
360
E06
102
}
102
{ACAD_REACTORS
330
29
102
}
330
29
100
AcDbVisualStyle
  2
Linepattern
 70
    14
 71
     2
 72
     2
 73
     0
 90
        0
 40
-0.6
 41
-30.0
 62
     5
 63
     7
 74
     1
 91
        4
 64
     7
 65
   257
 75
     7
175
     7
 42
1.0
 92
        8
 66
     7
 43
1.0
 76
     1
 77
     6
 78
     2
 67
     7
 79
     5
170
     0
171
     0
290
     0
174
     0
 93
        1
 44
0.0
173
     0
291
     1
 45
0.0
1001
ACAD
1000
AcDbSavedByObjectVersion
1070
     0
  0
VISUALSTYLE
  5
40
102
{ACAD_XDICTIONARY
360
E18
102
}
102
{ACAD_REACTORS
330
29
102
}
330
29
100
AcDbVisualStyle
  2
OverhangOff
 70
    21
 71
     2
 72
     2
 73
     0
 90
        0
 40
-0.6
 41
-30.0
 62
     5
 63
     7
 74
     1
 91
        4
 64
     7
 65
   257
 75
     1
175
     1
 42
1.0
 92
        9
 66
     7
 43
1.0
 76
     1
 77
     6
 78
     2
 67
     7
 79
     5
170
     0
171
     0
290
     0
174
     0
 93
        1
 44
0.0
173
     0
291
     1
 45
0.0
1001
ACAD
1000
AcDbSavedByObjectVersion
1070
     0
  0
VISUALSTYLE
  5
33
102
{ACAD_XDICTIONARY
360
DFE
102
}
102
{ACAD_REACTORS
330
29
102
}
330
29
100
AcDbVisualStyle
  2
Realistic
 70
     8
 71
     2
 72
     3
 73
     0
 90
        2
 40
-0.6
 41
30.0
 62
     5
 63
     7
 74
     0
 91
        0
 64
     7
 65
   257
 75
     1
175
     1
 42
1.0
 92
        8
 66
   257
 43
1.0
 76
     1
 77
     6
 78
     2
 67
     7
 79
     3
170
     0
171
     0
290
     0
174
     0
 93
       13
 44
0.0
173
     0
291
     0
 45
0.0
1001
ACAD
1000
AcDbSavedByObjectVersion
1070
     0
  0
VISUALSTYLE
  5
3E
102
{ACAD_XDICTIONARY
360
E14
102
}
102
{ACAD_REACTORS
330
29
102
}
330
29
100
AcDbVisualStyle
  2
Shaded
 70
    27
 71
     2
 72
     2
 73
     1
 90
        2
 40
-0.6
 41
30.0
 62
     5
 63
     7
 74
     0
 91
        4
 64
     7
 65
   257
 75
     1
175
     1
 42
1.0
 92
        8
 66
   257
 43
1.0
 76
     1
 77
     6
 78
     2
 67
     8
 79
     3
170
     0
171
     0
290
     0
174
     0
 93
        5
 44
0.0
173
     0
291
     0
 45
0.0
1001
ACAD
1000
AcDbSavedByObjectVersion
1070
     0
  0
VISUALSTYLE
  5
3D
102
{ACAD_XDICTIONARY
360
E12
102
}
102
{ACAD_REACTORS
330
29
102
}
330
29
100
AcDbVisualStyle
  2
Shaded with edges
 70
    26
 71
     2
 72
     2
 73
     1
 90
        2
 40
-0.6
 41
30.0
 62
     5
 63
     7
 74
     1
 91
       10
 64
     7
 65
   257
 75
     2
175
     1
 42
1.0
 92
        8
 66
   257
 43
1.0
 76
     1
 77
     6
 78
     2
 67
     7
 79
     3
170
     0
171
     0
290
     0
174
     0
 93
        5
 44
0.0
173
     0
291
     0
 45
0.0
1001
ACAD
1000
AcDbSavedByObjectVersion
1070
     0
  0
VISUALSTYLE
  5
3A
102
{ACAD_XDICTIONARY
360
E0C
102
}
102
{ACAD_REACTORS
330
29
102
}
330
29
100
AcDbVisualStyle
  2
Shades of Gray
 70
    23
 71
     2
 72
     2
 73
     3
 90
        0
 40
-0.6
 41
-30.0
 62
     5
 63
     7
 74
     2
 91
        2
 64
     7
 65
     7
 75
     1
175
     1
 42
40.0
 92
        8
 66
     7
 43
1.0
 76
     1
 77
     6
 78
     2
 67
     7
 79
     3
170
     0
171
     0
290
     0
174
     0
 93
        1
 44
0.0
173
     0
291
     0
 45
0.0
1001
ACAD
1000
AcDbSavedByObjectVersion
1070
     0
  0
VISUALSTYLE
  5
3B
102
{ACAD_XDICTIONARY
360
E0E
102
}
102
{ACAD_REACTORS
330
29
102
}
330
29
100
AcDbVisualStyle
  2
Sketchy
 70
    24
 71
     1
 72
     2
 73
     2
 90
        0
 40
-0.6
 41
-30.0
 62
     5
 63
     7
 74
     2
 91
        2
 64
     7
 65
     7
 75
     1
175
     1
 42
40.0
 92
       11
 66
     7
 43
1.0
 76
     1
 77
     6
 78
     2
 67
     7
 79
     6
170
     0
171
     0
290
     0
174
     0
 93
        1
 44
0.0
173
     0
291
     0
 45
0.0
1001
ACAD
1000
AcDbSavedByObjectVersion
1070
     0
  0
VISUALSTYLE
  5
36
102
{ACAD_XDICTIONARY
360
E04
102
}
102
{ACAD_REACTORS
330
29
102
}
330
29
100
AcDbVisualStyle
  2
Thicken
 70
    13
 71
     2
 72
     2
 73
     0
 90
        0
 40
-0.6
 41
-30.0
 62
     5
 63
     7
 74
     1
 91
        4
 64
     7
 65
   257
 75
     1
175
     1
 42
1.0
 92
       12
 66
     7
 43
1.0
 76
     1
 77
     6
 78
     2
 67
     7
 79
     5
170
     0
171
     0
290
     0
174
     0
 93
        1
 44
0.0
173
     0
291
     1
 45
0.0
1001
ACAD
1000
AcDbSavedByObjectVersion
1070
     0
  0
VISUALSTYLE
  5
30
102
{ACAD_XDICTIONARY
360
DF8
102
}
102
{ACAD_REACTORS
330
29
102
}
330
29
100
AcDbVisualStyle
  2
Wireframe
 70
     5
 71
     0
 72
     2
 73
     0
 90
        0
 40
-0.6
 41
-30.0
 62
     5
 63
     7
 74
     1
 91
        4
 64
     7
 65
   257
 75
     1
175
     1
 42
1.0
 92
        0
 66
   257
 43
1.0
 76
     1
 77
     6
 78
     2
 67
     7
 79
     3
170
     0
171
     0
290
     0
174
     0
 93
        1
 44
0.0
173
     0
291
     0
 45
0.0
1001
ACAD
1000
AcDbSavedByObjectVersion
1070
     0
  0
VISUALSTYLE
  5
3C
102
{ACAD_XDICTIONARY
360
E10
102
}
102
{ACAD_REACTORS
330
29
102
}
330
29
100
AcDbVisualStyle
  2
X-Ray
 70
    25
 71
     2
 72
     2
 73
     1
 90
        1
 40
0.5
 41
-30.0
 62
     5
 63
     7
 74
     1
 91
        0
 64
     7
 65
   257
 75
     1
175
     1
 42
1.0
 92
        8
 66
     7
 43
1.0
 76
     1
 77
     6
 78
     2
 67
     7
 79
     3
170
     0
171
     0
290
     0
174
     0
 93
       13
 44
0.0
173
     0
291
     0
 45
0.0
1001
ACAD
1000
AcDbSavedByObjectVersion
1070
     0
  0
DICTIONARYVAR
  5
DB
102
{ACAD_REACTORS
330
D8
102
}
330
D8
100
DictionaryVariables
280
     0
  1
1:1
  0
DICTIONARYVAR
  5
DA
102
{ACAD_REACTORS
330
D8
102
}
330
D8
100
DictionaryVariables
280
     0
  1
STANDARD
  0
DICTIONARYVAR
  5
D9
102
{ACAD_REACTORS
330
D8
102
}
330
D8
100
DictionaryVariables
280
     0
  1
STANDARD
  0
DICTIONARYVAR
  5
DE0
102
{ACAD_REACTORS
330
D8
102
}
330
D8
100
DictionaryVariables
280
     0
  1
1
  0
DICTIONARYVAR
  5
DDF
102
{ACAD_REACTORS
330
D8
102
}
330
D8
100
DictionaryVariables
280
     0
  1
1
  0
DICTIONARYVAR
  5
DDE
102
{ACAD_REACTORS
330
D8
102
}
330
D8
100
DictionaryVariables
280
     0
  1
0
  0
DICTIONARYVAR
  5
DDB
102
{ACAD_REACTORS
330
D8
102
}
330
D8
100
DictionaryVariables
280
     0
  1
0
  0
DICTIONARYVAR
  5
DDC
102
{ACAD_REACTORS
330
D8
102
}
330
D8
100
DictionaryVariables
280
     0
  1
0
  0
DICTIONARYVAR
  5
DDA
102
{ACAD_REACTORS
330
D8
102
}
330
D8
100
DictionaryVariables
280
     0
  1
2
  0
DICTIONARYVAR
  5
DD9
102
{ACAD_REACTORS
330
D8
102
}
330
D8
100
DictionaryVariables
280
     0
  1
1
  0
DICTIONARYVAR
  5
DDD
102
{ACAD_REACTORS
330
D8
102
}
330
D8
100
DictionaryVariables
280
     0
  1
127
  0
DICTIONARYVAR
  5
DE1
102
{ACAD_REACTORS
330
D8
102
}
330
D8
100
DictionaryVariables
280
     0
  1
2
  0
DICTIONARY
  5
E1E
330
6B
100
AcDbDictionary
280
     1
281
     1
  3
ACAD_XREC_ROUNDTRIP
360
E1F
  0
DICTIONARY
  5
E22
330
73
100
AcDbDictionary
280
     1
281
     1
  3
ACAD_XREC_ROUNDTRIP
360
E23
  0
DICTIONARY
  5
E20
330
6F
100
AcDbDictionary
280
     1
281
     1
  3
ACAD_XREC_ROUNDTRIP
360
E21
  0
DICTIONARY
  5
1A
330
19
100
AcDbDictionary
280
     1
281
     1
  3
ACAD_XREC_ROUNDTRIP
360
DEA
  3
BUMPTILE
360
1C
  3
DIFFUSETILE
360
1B
  3
OPACITYTILE
360
1F
  3
REFLECTIONTILE
360
1E
  3
REFRACTIONTILE
360
20
  3
SPECULARTILE
360
1D
  0
DICTIONARY
  5
12
330
11
100
AcDbDictionary
280
     1
281
     1
  3
ACAD_XREC_ROUNDTRIP
360
DE9
  3
BUMPTILE
360
14
  3
DIFFUSETILE
360
13
  3
FBXASSET
360
169
  3
OPACITYTILE
360
17
  3
REFLECTIONTILE
360
16
  3
REFRACTIONTILE
360
18
  3
SPECULARTILE
360
15
  0
DICTIONARY
  5
22
330
21
100
AcDbDictionary
280
     1
281
     1
  3
ACAD_XREC_ROUNDTRIP
360
DEB
  3
BUMPTILE
360
24
  3
DIFFUSETILE
360
23
  3
FBXASSET
360
11C
  3
OPACITYTILE
360
27
  3
REFLECTIONTILE
360
26
  3
REFRACTIONTILE
360
28
  3
SPECULARTILE
360
25
  0
DICTIONARY
  5
DE4
330
67
100
AcDbDictionary
280
     1
281
     1
  3
ACAD_XREC_ROUNDTRIP
360
DE5
  0
DICTIONARY
  5
DE2
330
65
100
AcDbDictionary
280
     1
281
     1
  3
ACAD_ROUNDTRIP_2008_TABLESTYLE_CELLSTYLEMAP
360
DE3
  3
ACAD_XREC_ROUNDTRIP
360
E1C
  0
DICTIONARY
  5
DF6
330
2F
100
AcDbDictionary
280
     1
281
     1
  3
ACAD_XREC_ROUNDTRIP
360
DF7
  0
DICTIONARY
  5
DF4
330
2E
100
AcDbDictionary
280
     1
281
     1
  3
ACAD_XREC_ROUNDTRIP
360
DF5
  0
DICTIONARY
  5
E02
330
35
100
AcDbDictionary
280
     1
281
     1
  3
ACAD_XREC_ROUNDTRIP
360
E03
  0
DICTIONARY
  5
E0A
330
39
100
AcDbDictionary
280
     1
281
     1
  3
ACAD_XREC_ROUNDTRIP
360
E0B
  0
DICTIONARY
  5
DFC
330
32
100
AcDbDictionary
280
     1
281
     1
  3
ACAD_XREC_ROUNDTRIP
360
DFD
  0
DICTIONARY
  5
E00
330
34
100
AcDbDictionary
280
     1
281
     1
  3
ACAD_XREC_ROUNDTRIP
360
E01
  0
DICTIONARY
  5
E1A
330
41
100
AcDbDictionary
280
     1
281
     1
  3
ACAD_XREC_ROUNDTRIP
360
E1B
  0
DICTIONARY
  5
E08
330
38
100
AcDbDictionary
280
     1
281
     1
  3
ACAD_XREC_ROUNDTRIP
360
E09
  0
DICTIONARY
  5
DEC
330
2A
100
AcDbDictionary
280
     1
281
     1
  3
ACAD_XREC_ROUNDTRIP
360
DED
  0
DICTIONARY
  5
DEE
330
2B
100
AcDbDictionary
280
     1
281
     1
  3
ACAD_XREC_ROUNDTRIP
360
DEF
  0
DICTIONARY
  5
DF0
330
2C
100
AcDbDictionary
280
     1
281
     1
  3
ACAD_XREC_ROUNDTRIP
360
DF1
  0
DICTIONARY
  5
DF2
330
2D
100
AcDbDictionary
280
     1
281
     1
  3
ACAD_XREC_ROUNDTRIP
360
DF3
  0
DICTIONARY
  5
DFA
330
31
100
AcDbDictionary
280
     1
281
     1
  3
ACAD_XREC_ROUNDTRIP
360
DFB
  0
DICTIONARY
  5
E16
330
3F
100
AcDbDictionary
280
     1
281
     1
  3
ACAD_XREC_ROUNDTRIP
360
E17
  0
DICTIONARY
  5
E06
330
37
100
AcDbDictionary
280
     1
281
     1
  3
ACAD_XREC_ROUNDTRIP
360
E07
  0
DICTIONARY
  5
E18
330
40
100
AcDbDictionary
280
     1
281
     1
  3
ACAD_XREC_ROUNDTRIP
360
E19
  0
DICTIONARY
  5
DFE
330
33
100
AcDbDictionary
280
     1
281
     1
  3
ACAD_XREC_ROUNDTRIP
360
DFF
  0
DICTIONARY
  5
E14
330
3E
100
AcDbDictionary
280
     1
281
     1
  3
ACAD_XREC_ROUNDTRIP
360
E15
  0
DICTIONARY
  5
E12
330
3D
100
AcDbDictionary
280
     1
281
     1
  3
ACAD_XREC_ROUNDTRIP
360
E13
  0
DICTIONARY
  5
E0C
330
3A
100
AcDbDictionary
280
     1
281
     1
  3
ACAD_XREC_ROUNDTRIP
360
E0D
  0
DICTIONARY
  5
E0E
330
3B
100
AcDbDictionary
280
     1
281
     1
  3
ACAD_XREC_ROUNDTRIP
360
E0F
  0
DICTIONARY
  5
E04
330
36
100
AcDbDictionary
280
     1
281
     1
  3
ACAD_XREC_ROUNDTRIP
360
E05
  0
DICTIONARY
  5
DF8
330
30
100
AcDbDictionary
280
     1
281
     1
  3
ACAD_XREC_ROUNDTRIP
360
DF9
  0
DICTIONARY
  5
E10
330
3C
100
AcDbDictionary
280
     1
281
     1
  3
ACAD_XREC_ROUNDTRIP
360
E11
  0
XRECORD
  5
E1F
102
{ACAD_REACTORS
330
E1E
102
}
330
E1E
100
AcDbXrecord
280
     1
102
SHADEPLOT
 70
     0
102
SHADEPLOTRESLEVEL
 70
     2
102
SHADEPLOTCUSTOMDPI
 70
   300
  0
XRECORD
  5
E23
102
{ACAD_REACTORS
330
E22
102
}
330
E22
100
AcDbXrecord
280
     1
102
SHADEPLOT
 70
     0
102
SHADEPLOTRESLEVEL
 70
     2
102
SHADEPLOTCUSTOMDPI
 70
   300
  0
XRECORD
  5
E21
102
{ACAD_REACTORS
330
E20
102
}
330
E20
100
AcDbXrecord
280
     1
102
SHADEPLOT
 70
     0
102
SHADEPLOTRESLEVEL
 70
     2
102
SHADEPLOTCUSTOMDPI
 70
   300
  0
XRECORD
  5
DEA
102
{ACAD_REACTORS
330
1A
102
}
330
1A
100
AcDbXrecord
280
     1
102
MATERIAL
148
0.0
149
0.0
149
0.0
 93
        0
 94
      127
282
     0
 72
     0
 77
     0
171
     0
175
     0
179
     0
273
     0
  0
XRECORD
  5
1C
102
{ACAD_REACTORS
330
1A
102
}
330
1A
100
AcDbXrecord
280
     1
270
     1
271
     1
  0
XRECORD
  5
1B
102
{ACAD_REACTORS
330
1A
102
}
330
1A
100
AcDbXrecord
280
     1
270
     1
271
     1
  0
XRECORD
  5
1F
102
{ACAD_REACTORS
330
1A
102
}
330
1A
100
AcDbXrecord
280
     1
270
     1
271
     1
  0
XRECORD
  5
1E
102
{ACAD_REACTORS
330
1A
102
}
330
1A
100
AcDbXrecord
280
     1
270
     1
271
     1
  0
XRECORD
  5
20
102
{ACAD_REACTORS
330
1A
102
}
330
1A
100
AcDbXrecord
280
     1
270
     1
271
     1
  0
XRECORD
  5
1D
102
{ACAD_REACTORS
330
1A
102
}
330
1A
100
AcDbXrecord
280
     1
270
     1
271
     1
  0
XRECORD
  5
DE9
102
{ACAD_REACTORS
330
12
102
}
330
12
100
AcDbXrecord
280
     1
102
MATERIAL
148
0.0
149
0.0
149
0.0
 93
        0
 94
      127
282
     0
 72
     0
 77
     0
171
     0
175
     0
179
     0
273
     0
  0
XRECORD
  5
14
102
{ACAD_REACTORS
330
12
102
}
330
12
100
AcDbXrecord
280
     1
270
     1
271
     1
  0
XRECORD
  5
13
102
{ACAD_REACTORS
330
12
102
}
330
12
100
AcDbXrecord
280
     1
270
     1
271
     1
  0
XRECORD
  5
169
102
{ACAD_REACTORS
330
12
102
}
330
12
100
AcDbXrecord
280
     1
 70
     1
 90
1959938040
 71
     1
  1
A914E34F-BAE3-4AF7-8EEC-5B975875EA2B
311
504B03040A00000800002B6831403DEE336E79000000790000001B0000006175746F6465736B2D64657369676E2D7061636B6167652E786D6C3C3F786D6C2076657273696F6E3D22312E302220656E636F64696E673D227574662D3822203F3E3C666F726D6174733E3C666F726D61743E687474703A2F2F736368656D612E
311
6175746F6465736B2E636F6D2F64657369676E2D7061636B6167652F323030393C2F666F726D61743E3C2F666F726D6174733E504B03041400060808002B683140D486FD9CA0000000F4000000130000005B436F6E74656E745F54797065735D2E786D6C7D8EC10E82300C865F65E91D8A1E8C310C0EEA1BF002731658846E
311
D98AC1B77784ABF1D8FE5FBFBF75BBCE937A534CCEB38643598122B6FEE978D0B0485F9C41B54DDD7D022595594E1A469170414C76A4D9A4D207E29CF43ECE46F218070CC6BECC4078ACAA135ACF422C856C0E68EA1BF5669944DDD7BCDE7B1F8E415D77AECB980613C2E4AC91FC167A2B244592486606FC29C8FD7F045B9A
311
EF7053A7E60B504B03041400060808002B683140434F9B94E90000007C01000008000000636F72652E786D6C8D904D6EC3201085AF82668F0DF827B18589543939412F80803828315806AA1EBF3871A476D7D58CDEBC6F66F4F8E97B7EA02FB306EBDD00B420808C535E5B370D90E2151F019D045FBD8FBF6C809C9CCD009B
311
0C824FAB4FCB2E29EFA27131ABCE6BB38B32041301A9476E0608EA666659C814B323DC8B45AABB9C4C41DF5D8653B21ABD8E589DF7D9AB352B889AD2F14C9B0ED763D3E09A5D3AFCD11E5ADC55152197713C3667C6CB0D163CDAF97D5FAD4646A3413042192614D3C327AD7A427B5661D2F684F072B3FF81D2A2FF0925EB62
311
C5F6775F580041F323CF81E0E596452ECFA072DD72133F504B03041400060808002B68314055019EA25F0000007C00000007000000636E782E786D6C4DCB3B0E80201045D1AD90E915ED2CF8AC45050C11660C8261F98AB1B07AC9C97D42D718D865D3E909258CFD00CCE24AC6E326A164D74DC0B4128928FF326038472BA1
311
3128B1252AC747C6BAB984FC68F0B87FE8960A5C09FE86CFB69FBA01504B03041400060808002B6831407BC4E0C965010000020300000C0000006662782F636F72652E786D6C8D52ED8E8320107C15C27F04B4F62B48938BED13DC0B50A51EA9428360FAF8B7569B5E2F4DD3982099D9D99D1D15BB6BD7A241FBDE385B609E
311
308CB4AD5C6D6C53E0184E648DD14E0AEF5CF8538691559D2EF00863291AEFE265862A6783B60150EB6A3D83AAEF75C0A86AE152E0BEFAD19D4A540C50D19F938BAACEAAD1094F80863A29FAE0C1009A868C2796A7E355D00997224653CFACA9619A3919EDB15C705EEE79BE218B32CFC9223D6CC8D772B5249B2C63EC5096
311
EB7C9F0A3A8AA508A6BBBBABBC5641D758A68CA78471C257DF3CDB32BE4D33C2965BC6041DCB9F44F1527F288AC6862C9DED4EB21E4B0E466EC4BF6D21A2807A35801F2A051D4384D72DE1E7A021100839A8637BDFE30CD0A0ABE0FC0298DAC50735A8366A98CAD0ED117462A1F3AD016CF6B24FFAA6CFFB1EF001956DC09A
311
0A703DC6304E17D3D4398A8BF6640857649DEF54FB3037597C9C8F412FE5956B9DFF444DE755E91C261DFF5EF90B504B03041400060808002B683140967A1DBA7E0000009D0000000B0000006662782F636E782E786D6C4DCCDD0A832018C6F15B91F7DC65A47D801AAB771712CB42663A9C8E5DFE6A74B0A3077E3CFC65FF
311
D91C799BF8B2C12B282F0C88F1F7305BBF2AC869A12D905ECB1842FABB01F1D366141C0C5AAE31E4E749B359A6ECD2AECEFAC789C8AF37D1748272810DE5580EB41B584947C6AB16598DF588506859FC4AFB1E61FD05504B03041400060808002B683140FCB20FBC2901000013020000310000006662782F44344145353739
311
352D343544372D344431422D394230312D4330343338443036443643442F636F72652E786D6C8D51CB6EC32010FC158B537AC0061B3B0F61A226EE1FF40788212E4A0C168F2A9FDF75ED48ED2D1716CDCECC0E2C3F3EC67BF6AD7D30CEB688E60465DAF64E193BB428C52BDEA1EC28B8772EFEA1A1CCCA51B7688691E08377
311
695AA1DED9A86D04D43AA5575086A023CAFA3B5C5A14FA2F3DCA5CA6088C70CB27D9DFE4A0739A431B788287E82140B60C994F243AF6FE516FF7356675B7C5ACA327BC3F118ACF8455BB8E345D73EE78B108054FC9A8556E14C43157A3FDAB26B358F068C667FCDE6B19B542A224B4C430946E3F697520F450569834074278
311
31D3FF89D2A45E1425636355AE7117594082F2626908AE5CBADC9F61F463723E66F3BC4DD0FD1B12242725816F60BC5898F07EB06CD86A19A2F3F0BF9BDB05C8B45E7C1B267831AF08CAEFFEA0CEEB143F504B03041400060808002B6831402E9B40E44C01000033030000300000006662782F44344145353739352D343544
311
372D344431422D394230312D4330343338443036443643442F636E782E786D6CD593CD6E022114855F85B09F1FD4D8C6309874D127E8A25B06AE8A3230E1A7A96FDF8BA275E3A2CB6EC8E4DCC339375F18BEFD9E2CF982108D7703656D4F0938E5B571FB81E6B46B5E29D90A1EBC4F0F364A9C9C60A045A682EF83CF739534
311
EC64B609556BDCA98A01A2CF414144B9DC24D62B6931005C9351846904AD4193BB11BF7610701514C733490720EF6F9FC48F475029F2AEA408DE950EC1CB599B1E4C94282B631C68540798642B73F21AE2A9D532C996B5B7AE273BFD269172E156998321A57CA0E5A4A26ED42247DEE150F09802D2ABA6749E810A39CFD628
311
99107277315E3D8267E3D27A55BD06C10774B3F572B5C2B0CB4CF06426A80E154026D0542C7AB6687AD6B0970FB6DCF46CB35836FD7AD3F7BC2B76C147EF6DBD843110FC4C9477095CA282F1AE8C9FE1AB3EA24D40D63E9CFF001201D4D62B9D7BC67FE6D35DDE37E20AF817881F504B03041400060808002B683140EA4FCA
311
4E9C0500007B100000340000006662782F44344145353739352D343544372D344431422D394230312D4330343338443036443643442F6F626A656374732E786D6CAD575B8F9B3814FE2B887D0E8424D399593154B94D15ED4E5B356AB50F2345060CE31D73916DA699FDF5FB190C81349966577D016CECE373BEF39D8BFDF7
311
FB8C5B2F544856E477B6E78C6D8BE65111B33CBDB32B958C6E6CEB7DE08BA250BD65B695938CDED97ADA0EFC54145569A6629A908AABA3D9FBC55F968C684E6D2BE244CA3B5B464F34230EA9541153F9ECC44411274DF68EE7340B87625341CAA723A125113457D014F339A4588D52DE7038B6DDC077F5FFC0D74FB36A7A7E
311
955BDB333C9FE552913CFAE1B02331536FB65A4FAE6E4757B3D974347B37F1468BFBC56AE45D4FC7CB77CBE5ED7C7D8B83A5129064341134B1830FC046B0C8779B5F815FB15C4D27668971902BE80BD39EB28389E5F96EB3A6B3CE18794AFDA8C8731AD558018DDA3E233AA625CD63F89C5109CD7A088D87434FE3D8FB3DD5
311
6373647FFA3204FA3B7A825ADDDB775FD322FC1B26C84B182424D50C6CB03486365C1D1F100E8B829B7F4C5A19515430C22DCE4241C4AB1D60A95E12F803319AC9424783B6C00EE085E6F7902E08A39FF3FC949649C5B9A6B11DD451B043AC50256BCDD83F541CB4EF23039DE02BCD861B63907A2DA91DDC3614B939625303
311
A4957092C2E53053EF9C4E8E0C5DEA38DDACECE08FFB70BFD5B17BFAF0521425154AD307D46A1DD7BE354A4627EF22CFE90DF6912A0750BE00F98F08F5832AF09B60FBD97E664E5182E432294406DF58636B34C6636C79F5537FF7BE7CB7DB3CF4DE393CE16C0DD52FC0736843DF973D3803FF05842FC4D498B68D0847DA78
311
603900D224B1788129E4E124DCDBC106590E5919BB080F3C980C755FF0E9BB460C12457D52EF9D03CBA3B4784182066C3523A146437EA3E0C14F3FA4B3FA60B3EC1CBC57BF84AEF3D5F68F6D251212D10713D32B9AB09C2994B8036FFA0A0D301F58F44C5FBF172286A13FE2BDEDE39D99A324D0D6986BE0D336A7EBC1E1E4
311
C10111F6A5854E37FE4F4E8011BAB0F6E43F301951CE494E8BAA3DF7CDFA81B2D140AC835D33B92B3087C202D2347F8E6210453A12ACD42076D5AA4B9ACE19EBBE6E3E829176B078FD93BCF6B35778C8BD51C10BB10B5F774D5A3A09F5B721B70D06AE9602BAD741D2C6BF017D17B324A92492E0095CBF6D967DDFE9B48014
311
D14A6DA26506FB115C4418D2B67251AD0541252DF21D43DD44DC9D3CA02F1F901A06D402CF692C294F768CF32ADB258CA31AED32529E81E3FFEB1F5659B9235951E5EA8CEC81EAA80E43DD07EC95DF898A9EEC605BBF470BE4DE98C667C8A06BC909AC06AE9DDF7AB3F574763F5ACCD7E89FE6F7D7A39BF57A39BA5ADC5E5F
311
DD5C5FADE79345EBA74693C06F4B4D3FA2E1259436BF12CCB8EFEB06F16392801D3C10251F3F34E1D9BEBF6E1CF4C2BE8B3DA897DDC679FC82BE8FC63F1770587952D0262B39CD68AE888EA107FDC1BF10F41903659AF94D46527A81944F1FB647C660E6827D9F75BCD3EF477BCDEC5207E44921EAA9CAC29C307EB4316D90
311
74CA3C35F8B53EE9DE4DA169877A641C83CE54169CC5C883B195D222A30AD9F0822224322A41BD7E4F1F9BBBC705BB5F9A0E519190D35693278226994B8405A855456A386FFD86A64EF7557736CAADF38C87C914B605CEDCD968D2158BA874421468DD0AD5C2C1A57E278FC69FE42947AFDD6CEAC6DD2E8DCDA024774B2EE9
311
9F8C5D4D0A3706208D94E81BD010C13BB532815FEB66FE47FFC9F0561D8B287C8695EA6C394C74C6D4C720441BA3CC6D014DCCB3397A8F407DDB2CCFA9D70C10B9E896F526091AA92345445ADF14B47E46A5F9EAB38B0EC5DA7CB24A5EA5F0E5E592468282CC950E70B008AC30324BA240D5E5EF8F9F45819B6C66DD3350E0
311
71596459919BC1DCDC84ADED13EEB5F123D202D51712F938197B93C7FA2260EE26BB9048EA90583E63023E15AC8378E07830B2B92DA202353FBA75AE76C21137372BCB94B419841AA2F4B3AA86052D474E2D448FBE4CEA58E92F28DFBC0BB8F552A820D0C507FF02504B03041400060800002B683140000000000000000000
311
000000350000006662782F44344145353739352D343544372D344431422D394230312D4330343338443036443643442F76657274696365732E62696E504B03041400060808002B683140F270F1330600000004000000360000006662782F44344145353739352D343544372D344431422D394230312D433034333844303644
311
3643442F747269616E676C65732E62696E636660600000504B03041400060800002B683140000000000000000000000000370000006662782F44344145353739352D343544372D344431422D394230312D4330343338443036443643442F617474726962757465732E62696E504B03041400060808002B683140D5987DFC8F
311
00000041010000360000006662782F44344145353739352D343544372D344431422D394230312D4330343338443036443643442F6469726563746F72792E786D6C858F410EC2201045AF4266AF15DDB800BA74E7C21B903225242D6328188F2FA5C4183471359997F9FF81E89FF3C41E1816475E02DF1F80A11FC8386F25A4
311
38EECEC07A250251FC3803E6F58C12560C4AD840E95E91C151A72936F496F35732D860FE635F62C8F2DA16B505C545B74125BAA2FA9E05D7CC053D063734D5C7665FD55B6B8D15D5E9BFEAFD8490FFA45E504B03041400060808002B68314050E4B50CFB000000A00100003B0000006662782F44344145353739352D343544
311
372D344431422D394230312D4330343338443036443643442F7265736F75726365732F636F72652E786D6C8D50596E833010BD0A9A7F83CD16828C23552427E8052C33A156828DBC543D7E4DA052FBD79F99D15B344F8F5FBE9667F689CE6B6B066039850C8DB29336F30031DC4907D94570676DF82583CCC80507D860107C
311
7636AE07A4AC096842428D9DF000A5F7182053CF740CE0D5072E32973124857FE4AB540F3963CEF244279DE03EB81420DB9F6C1384436FA353E879B1B382C7A8A743A3A7F453DF353A103563E395351DA9C7A62175793B93B7F6D4927355517A1BC7AEB996BCD8CC8207BDFC64540E65C009444959492823ECF4CEAA9EB2BE
311
AC086D7B4A79B1C9FF98E23AFDD314B5095579C4DD6D1E044B415E84E0C5D6575AAF32D3DEBA15DF504B010214000A00000800002B6831403DEE336E79000000790000001B00000000000000000000000000000000006175746F6465736B2D64657369676E2D7061636B6167652E786D6C504B010214001400060808002B68
311
3140D486FD9CA0000000F40000001300000000000000000000000000B20000005B436F6E74656E745F54797065735D2E786D6C504B010214001400060808002B683140434F9B94E90000007C010000080000000000000000000000000083010000636F72652E786D6C504B010214001400060808002B68314055019EA25F00
311
00007C000000070000000000000000000000000092020000636E782E786D6C504B010214001400060808002B6831407BC4E0C965010000020300000C00000000000000000000000000160300006662782F636F72652E786D6C504B010214001400060808002B683140967A1DBA7E0000009D0000000B000000000000000000
311
00000000A50400006662782F636E782E786D6C504B010214001400060808002B683140FCB20FBC290100001302000031000000000000000000000000004C0500006662782F44344145353739352D343544372D344431422D394230312D4330343338443036443643442F636F72652E786D6C504B010214001400060808002B
311
6831402E9B40E44C010000330300003000000000000000000000000000C40600006662782F44344145353739352D343544372D344431422D394230312D4330343338443036443643442F636E782E786D6C504B010214001400060808002B683140EA4FCA4E9C0500007B10000034000000000000000000000000005E080000
311
6662782F44344145353739352D343544372D344431422D394230312D4330343338443036443643442F6F626A656374732E786D6C504B010214001400060800002B68314000000000000000000000000035000000000000000000000000004C0E00006662782F44344145353739352D343544372D344431422D394230312D43
311
30343338443036443643442F76657274696365732E62696E504B010214001400060808002B683140F270F133060000000400000036000000000000000000000000009F0E00006662782F44344145353739352D343544372D344431422D394230312D4330343338443036443643442F747269616E676C65732E62696E504B01
311
0214001400060800002B6831400000000000000000000000003700000000000000000000000000F90E00006662782F44344145353739352D343544372D344431422D394230312D4330343338443036443643442F617474726962757465732E62696E504B010214001400060808002B683140D5987DFC8F0000004101000036
311
000000000000000000000000004E0F00006662782F44344145353739352D343544372D344431422D394230312D4330343338443036443643442F6469726563746F72792E786D6C504B010214001400060808002B68314050E4B50CFB000000A00100003B00000000000000000000000000311000006662782F443441453537
311
39352D343544372D344431422D394230312D4330343338443036443643442F7265736F75726365732F636F72652E786D6C504B0506000000000E000E0080040000851100000000
310
504B03040A00000800002B6831403DEE336E79000000790000001B0000006175746F6465736B2D64657369676E2D7061636B6167652E786D6C3C3F786D6C2076657273696F6E3D22312E302220656E636F64696E673D227574662D3822203F3E3C666F726D6174733E3C666F726D61743E687474703A2F2F736368656D612E
310
6175746F6465736B2E636F6D2F64657369676E2D7061636B6167652F323030393C2F666F726D61743E3C2F666F726D6174733E504B03041400060808002B683140D486FD9CA0000000F4000000130000005B436F6E74656E745F54797065735D2E786D6C7D8EC10E82300C865F65E91D8A1E8C310C0EEA1BF002731658846E
310
D98AC1B77784ABF1D8FE5FBFBF75BBCE937A534CCEB38643598122B6FEE978D0B0485F9C41B54DDD7D022595594E1A469170414C76A4D9A4D207E29CF43ECE46F218070CC6BECC4078ACAA135ACF422C856C0E68EA1BF5669944DDD7BCDE7B1F8E415D77AECB980613C2E4AC91FC167A2B244592486606FC29C8FD7F045B9A
310
EF7053A7E60B504B03041400060808002B6831407BD2C46AEB0000007C01000008000000636F72652E786D6C8D90DD8E832010855F85CC3D0A5ADB6A90C6B5FA04FB0204A825AD600436FBF88BFD4976EFF66A2667CE373339ECF43DDFD1975EBD71B6059A1140DA4AA78C9D5A88E1828F804E9CADCE855F364056CCBA854D
310
06CEA6D5C5E525496783B621A9D629FD1285F73A0092F7D4B4E0E555CF2213312487BF658B903731E98CBEBB04C768147A1E312AED3317A357E0BBAEEA0F5D3DE0B13AD77837508AEB7E38E3BEA8F7E3B12BC7BAFA60F9067316CCFCBE2F572D8256C00B420B4C28A6874F5A3684364589C9BE2184E59BFD0F1417F54F281A
310
1BCAE2F5EE13F3C0697AE431E02CDFB248E51154AA5B6EFC07504B03041400060808002B68314055019EA25F0000007C00000007000000636E782E786D6C4DCB3B0E80201045D1AD90E915ED2CF8AC45050C11660C8261F98AB1B07AC9C97D42D718D865D3E909258CFD00CCE24AC6E326A164D74DC0B4128928FF32603847
310
2BA13128B1252AC747C6BAB984FC68F0B87FE8960A5C09FE86CFB69FBA01504B03041400060808002B6831406707C06E67010000020300000C0000006662782F636F72652E786D6C8D52ED8E8320107C15C27F44B45F3648D3EBC713DC0B50A59EA98241307DFC5B3F1AAF97A6694C90CCECECCE8EF2DDBDAE50A76C5B1A9D
310
62168418299D99BCD4458ABDBB920D463BC1AD31EE4F19465AD62AC53D8C052FACF1CD0465463BA51DA0DAE46A0265DB2A875156C125C56DF6A36A1948EFA0A2BD058DCC6EB250010B80863AC15B67C1001A87F42716D7CB9DD31117DCFB329FD8328769E5B554168BC57E7958EF9313392F8F09599C1823C9E17424872859
310
9D37FBF89C2CBF38EDC582BBB27EB8CBAC924EE55844218B48C8085B7FB3781BB26D149370B50D434EFBF227916FF20F45BED42E8E26BBA3ACC582819181F8B72D44E4502B3BF04305A77D88F01A127E0E1A0281909DBC548F3D6E00752A73C62E80C98D9FA94E565EC1D4100D0FA7230B9D8706B0D9CB3ED19B3EEF7BC007
310
94BA006BD2C1F5E25D3F9D8F53A7281A6549E7EE481B5BCB6A36375A9CCF79D04B79662A633F51D369553A8549FBBF57FC02504B03041400060808002B6831403412C5897D0000009D0000000B0000006662782F636E782E786D6C4DCCD10A83201886E15B91FFDC9565CD033572E27DC4B290990EA76397BF1A1DECE88387
310
8F970F9FCDA3B74D2F17830072A901D9708FB30BAB809217CC000D92A718F3DF0D5098362BE060907C4DB13C4F9AED32159F77F52E3C4E1C4DCF46736DB0A2CA60AA98C18CF61DD63743DAB6D39AD5042AC9AB5F69DF232CBF504B03041400060808002B68314090A1835C2B01000014020000310000006662782F41463638
310
414637322D423442462D344238462D383436352D4443463133333544443830312F636F72652E786D6C8D514B6EC32014BC0A62952EB0C176881B61A2A4914FD00B38405C94182C3E558E5FA81DA9DD65C343F366E60D3C76784C77F0AD9CD7D67490141802658495DA8C1D8CE18A5A080E9C396BC31F1A0466985407330C39
310
1B9D8DF30A096B823221A1C64AB58283F72A4020EEE9D2412FBED43414430C89E16FC53C88DB30AA8214A99D789CF9E05200B00CC927E4C79EB6C77E57A15373EA51736A7BD436748BCE1F3DA9EBEDF9DC62C2CA45C8598C5AAE722D531C7DD5CABD6A92C59C053D3DE30BA786A024E4152615C20491DD27A9F798ECAB1A61
310
BAC7989599FE4F1467F9A2286A13EA6A8DBBC83CE4E9354B833369E3E5FE0CA31EB37501E4791BAFC41BE4B8C015A1EF554B59B950D307244FDAAC9E3E58973E7873BB2476BD1AD386B332EF2895DF05A69AF7C97F00504B03041400060808002B683140483C8FF35401000033030000300000006662782F41463638414637
310
322D423442462D344238462D383436352D4443463133333544443830312F636E782E786D6CBD93CD6EC32010845F0571F70F76E4461126520F7D821E7A25B04969305880ABE6EDBB2424CD25874A552FC89A1D66569F30DF7E4D967C4288C6BB91B2BAA5049CF2DAB8C34897B4AFD6946C050FDEA73B1B254E4E30D22C53C1
310
0FC12F739134ECE56213AAD6B863110344BF040511E57C9358AFA4C50070D582224C3BD01A34B919F16B0F015741717722E91DC8CBF31BF1BB0F5029F226A708DEE40EC1F3599AEE4C94282B631C6954EF30C95A2EC96B88C75ACB246B565FBB1EECF49344F2856BE5120CC9E523CD271565A31A39F2068782C714905E31A5
310
D30C54C879B646C984909BB3F1E2117C312E0DABE235083EA0BBEF86F51AC3CE33C19399A0385400994053D1B5ACAB5A56B1A757D66F5AB6E9FAAA1D366DCB9B6C177CE7BD2D973006829F89F22E814B5430DEE4F1237CC547B409C8DA87D32F402280D27AA173CBF84B3E6CE857AB7FE4D39CDF37E20AF817886F504B0304
310
1400060808002B6831409114E4795B070000941B0000340000006662782F41463638414637322D423442462D344238462D383436352D4443463133333544443830312F6F626A656374732E786D6CED59DD739B3810FF5718EED9D8C4769BDC103A8E93743CBDB49DFADAB987CC3032C8441721184924F1FDF5B7FA00033109
310
BEE6DEFA6003425AEDFEF6534BF0E129A3CE03E682E4ECDCF5BD89EB6016E70961E9B95BCAEDE8D4753E8401CF73D998E63A0C65F8DC55C36E18A43C2F0B3B94E02D2AA9EC8C5E5FFCE5881833EC3A3145429CBB22BEC319F25029F3048B7B2F411279E9F6C9F33D33B14D36E5A8B8EB102D10C74C02A730CE808A6398F2DB
310
8F13771C0663F53E0CD4BF9D351D346BD63F6BACA56E7349989088C5CF58EA90990E6269EACF2EAF4EE667A3F96C361DCDDE9DF8A38BEB8BCB91FF7E3A59BE5B2ECF165767C0DE26CFA99529C1056609E86FE7867E30566F6AD12D0287B88E73C670AC8104A8B4585D82040BD8AA01DFA4FDE82B891AAFB5848DE7997A6F59
310
680C4FDB54FA660D03A2451704B1DB551257D7A67CF9E66F105C0C314A2EB0046E85E4A05D0B0F07AF70C3493036A361B0D9EB82082743127382A843C986230E4A81A96A4A189805968C720E0EA41C2581D69C79DDB62DF0CCD75DE71097DB9252E5196EA81D2B02F7C35268CEC83F98EFB96F22033C81B42561F2D4722977
310
0576C3B360AC07C3405DA627F6A501D2D952940A8D8879DB1174A95C7F75E9869FAE374F6B150E0E6F5EF0BCC05C2AA3537AD47C8121DBAB42C96EEB0FD29C5A00C21850EDCA3D28DF00F9CF103DF6AC80DE38799A3DCDEC5CC91113DB9C67A01B67E28C26F037717CFDAFEE1B77C1B85EDCD65E1F9EE0A60AAAD39FC7B32D
310
83C6CAF2DF80330C1EC0E0733EB5AFD631A260CF37840140CA481C9AC31084F6EDE6C90D57103821D0C32A44431F4406761FE036185B327BAD54EE65BD8E01A2768FE91025016CDA22818D1E3D7D84ECC149BC575353C43E78E76F62AE8BCBF5A775C9B728C637D6A72FF1963022216B1E66A885794BA27BBC7BCC7902823E
310
C77BDDC43BB35B09405B61AE804F2B10D4C37EE7D60631AC4B73156E825776002154AE6ED0BF2122C6942286F3B2DAB78E6ECA506B8FB735831B9E1888A7271D13E6F881A8AA029C663FA3C528E4FD98934281E8861F8D6475D0F47AA4FBBEFA0C1659CFEF99B562107A19A27FEAA0750087966557485B206A8137FB701EE7
310
34E7D166179948E7422D016CB4BDE5478B28C47AA32445053C48FB5D155252236D9490EDB61410570FB0F863B56C9AC3C49BFA73A7F9DF71C619445BF05DC4ADDF75F6884886521C6D51D2B75D73B79AB6D0247B4873BCA520177920721721194D129C1E03CD51C4CFDE947A4A732108C302F2D541F09B684C3C0824469B15
310
CB4AAB1DA08988322C113D060145A6075C9D76748D1B43E9F03A8FB5F5BEA4B126D1FFC92238825A32671181521472C8AB8CFBDE1C62481B5D8372075FB0B68AB61683965042C4BBE81193F44E1E83BA21DF837B0C4792524679816230EB01649FF98A526A87F70D8AEF55FE88E292BE9581084CB711A1B4CC22F81106278F
310
21AE5D07A61751681037B14FE20C8A32244B3E649377F3C9B37D4CCDD00D818D8DB68442D88E3254F4A0DE0A88BA1E716AF02DF51EA56ECAAC885096976C90A178D3AE3759F25DB52AB203F955A522948D15614B300C08937556AD623698BA0EACE0463A50ED2281B2829A53D82B89C7AFBD4953EEDD805B3F7DDB0D3228FC
310
7AB4D78CA8B30A06CB63AB30108F48C6776EB8D6D7D105D4DF094EF6A9BEAA359B152020A62279C98955D1F7159437B64673C31B24C5ED479375ABEBF79507DD8F600C6BA076A917AE14D0196612A9CAE446DDD06F0842708B86195FA99C7A0C954592E8AA11D16BD2A7CE5619D1DA34235E7187599EC18FDD1216D332C1B7
310
2811F7D18DA4D19A28D6AD945E462A8C5F14F0CBC775071E181920D25755E0E1C7CE5A3BBA54E5D24122F2AECC360C1108822DD152A31BAF60A9D548A5E5FAAACE14507781815915CF7E9D2C9AED885F278BD41AC64F9D2C2E767FA05DB32FD248E7B1B2EBA38E01757E5254DEE218A0DB0E35D53A8B98646EE5B7CE144150
310
ACA2FCE06AAC0A1A86601FC7FF396BF76541B35D87FFE3B2B6FFACE2382AABB426AB2ED581CA75D5CC618B337F76359D5D8F2E1657D0A05D5CBF1F9D5E5D2D47F38BB3F7F3D3F7F3ABC5C9458DA676D430A88399CE5DF06C825A35AC9E2C06D095153925099CE61327C510F3259CE907B4CF79860524CF66B33BB14DF901AB
310
1F4C9F53A20DC5152777081AC454405A078CCA58B6C79DDFA03529E1A07DEE42D3C8BB873F6B95AE0399E7DC855681243116DE06DA4CAAA1A78943CAD5B9DF12037C104B554A348BEAE77A95C2A615FEEB2943D28095ABD5C380C2AD80EE57AB43A179B33CC547095EB1E32009B79B5242B56664D90FD4C2E86DF6EA37B251
310
C2EEEDD64FE0BA2F8BE57B7A4E0B91419F0C5E3402437524114F75BF5B3166595A5C7E1D439FCD597D710A5AA6A0CBE194461C833197AAA0022B02ABB0340B24C15497BFDF7EE5397CE2C91C5D15DD2EF32CCB997D58C0792C814F44CEFA0E3EF824B7503660D55617B72713FFE456B7B36D873DDA20813D550FC140554628
310
113AC60616F9AC35651B9763A584CEF4D5A563C327B4018C053DEBEE9ACF5B0E788FFA90A27C457B7825E78B1DEDB19E0AD6C0A1171DFE0B504B03041400060800002B683140000000000000000000000000350000006662782F41463638414637322D423442462D344238462D383436352D4443463133333544443830312F
310
76657274696365732E62696E504B03041400060808002B683140F270F1330600000004000000360000006662782F41463638414637322D423442462D344238462D383436352D4443463133333544443830312F747269616E676C65732E62696E636660600000504B03041400060800002B6831400000000000000000000000
310
00370000006662782F41463638414637322D423442462D344238462D383436352D4443463133333544443830312F617474726962757465732E62696E504B03041400060808002B683140D5987DFC8F00000041010000360000006662782F41463638414637322D423442462D344238462D383436352D444346313333354444
310
3830312F6469726563746F72792E786D6C858F410EC2201045AF4266AF15DDB800BA74E7C21B903225242D6328188F2FA5C4183471359997F9FF81E89FF3C41E1816475E02DF1F80A11FC8386F25A438EECEC07A250251FC3803E6F58C12560C4AD840E95E91C151A72936F496F35732D860FE635F62C8F2DA16B505C545B7
310
4125BAA2FA9E05D7CC053D063734D5C7665FD55B6B8D15D5E9BFEAFD8490FFA45E504B03041400060808002B6831406879EAF2FE000000A00100003B0000006662782F41463638414637322D423442462D344238462D383436352D4443463133333544443830312F7265736F75726365732F636F72652E786D6C8D504B6E83
310
3010BD0A9ABDC1869084C838A2909CA017B0CC24B5126CE44FD5E3D7042AB5BB6E6646EFA3797AFCFC353DB34F745E5BD302CB296468941DB5B9B710C38D1C213B0BEEAC0DBF64901939610B0B0C82DF9D8DF306296B029A90506347DC40E93D06C8D4331D2D78F58193CC650C49E11FF92CD543DE316779A2934E701F5C0A
310
90AD4F9609C2A1B7D129F4BC5859C163D4E3A6D163FAA96F1A1D885D57F787AE19C8B51E1AB2BB30469AFE3290BE6CF6D763575D9BFA8D178B59F0A0A79F8CCAA10C388228292B0965841DDE5975A2EC545684EE4F94F26291FF31C579FCA7296A13AA728BBBDA3C089682BC08C18BA5AFB45E65A6BD742BBE01504B010214
310
000A00000800002B6831403DEE336E79000000790000001B00000000000000000000000000000000006175746F6465736B2D64657369676E2D7061636B6167652E786D6C504B010214001400060808002B683140D486FD9CA0000000F40000001300000000000000000000000000B20000005B436F6E74656E745F54797065
310
735D2E786D6C504B010214001400060808002B6831407BD2C46AEB0000007C010000080000000000000000000000000083010000636F72652E786D6C504B010214001400060808002B68314055019EA25F0000007C000000070000000000000000000000000094020000636E782E786D6C504B010214001400060808002B68
310
31406707C06E67010000020300000C00000000000000000000000000180300006662782F636F72652E786D6C504B010214001400060808002B6831403412C5897D0000009D0000000B00000000000000000000000000A90400006662782F636E782E786D6C504B010214001400060808002B68314090A1835C2B0100001402
310
000031000000000000000000000000004F0500006662782F41463638414637322D423442462D344238462D383436352D4443463133333544443830312F636F72652E786D6C504B010214001400060808002B683140483C8FF354010000330300003000000000000000000000000000C90600006662782F4146363841463732
310
2D423442462D344238462D383436352D4443463133333544443830312F636E782E786D6C504B010214001400060808002B6831409114E4795B070000941B000034000000000000000000000000006B0800006662782F41463638414637322D423442462D344238462D383436352D4443463133333544443830312F6F626A65
310
6374732E786D6C504B010214001400060800002B6831400000000000000000000000003500000000000000000000000000181000006662782F41463638414637322D423442462D344238462D383436352D4443463133333544443830312F76657274696365732E62696E504B010214001400060808002B683140F270F13306
310
0000000400000036000000000000000000000000006B1000006662782F41463638414637322D423442462D344238462D383436352D4443463133333544443830312F747269616E676C65732E62696E504B010214001400060800002B6831400000000000000000000000003700000000000000000000000000C51000006662
310
782F41463638414637322D423442462D344238462D383436352D4443463133333544443830312F617474726962757465732E62696E504B010214001400060808002B683140D5987DFC8F0000004101000036000000000000000000000000001A1100006662782F41463638414637322D423442462D344238462D383436352D
310
4443463133333544443830312F6469726563746F72792E786D6C504B010214001400060808002B6831406879EAF2FE000000A00100003B00000000000000000000000000FD1100006662782F41463638414637322D423442462D344238462D383436352D4443463133333544443830312F7265736F75726365732F636F7265
310
2E786D6C504B0506000000000E000E0080040000541300000000
  0
XRECORD
  5
17
102
{ACAD_REACTORS
330
12
102
}
330
12
100
AcDbXrecord
280
     1
270
     1
271
     1
  0
XRECORD
  5
16
102
{ACAD_REACTORS
330
12
102
}
330
12
100
AcDbXrecord
280
     1
270
     1
271
     1
  0
XRECORD
  5
18
102
{ACAD_REACTORS
330
12
102
}
330
12
100
AcDbXrecord
280
     1
270
     1
271
     1
  0
XRECORD
  5
15
102
{ACAD_REACTORS
330
12
102
}
330
12
100
AcDbXrecord
280
     1
270
     1
271
     1
  0
XRECORD
  5
DEB
102
{ACAD_REACTORS
330
22
102
}
330
22
100
AcDbXrecord
280
     1
102
MATERIAL
148
0.0
149
0.0
149
0.0
 93
        0
 94
      127
282
     0
 72
     0
 77
     0
171
     0
175
     0
179
     0
273
     0
  0
XRECORD
  5
24
102
{ACAD_REACTORS
330
22
102
}
330
22
100
AcDbXrecord
280
     1
270
     1
271
     1
  0
XRECORD
  5
23
102
{ACAD_REACTORS
330
22
102
}
330
22
100
AcDbXrecord
280
     1
270
     1
271
     1
  0
XRECORD
  5
11C
102
{ACAD_REACTORS
330
22
102
}
330
22
100
AcDbXrecord
280
     1
 70
     1
 90
1959938040
 71
     1
  1
6D8FC561-CFD2-482E-8914-A39047E921AE
311
504B03040A00000800002B6831403DEE336E79000000790000001B0000006175746F6465736B2D64657369676E2D7061636B6167652E786D6C3C3F786D6C2076657273696F6E3D22312E302220656E636F64696E673D227574662D3822203F3E3C666F726D6174733E3C666F726D61743E687474703A2F2F736368656D612E
311
6175746F6465736B2E636F6D2F64657369676E2D7061636B6167652F323030393C2F666F726D61743E3C2F666F726D6174733E504B03041400060808002B683140D486FD9CA0000000F4000000130000005B436F6E74656E745F54797065735D2E786D6C7D8EC10E82300C865F65E91D8A1E8C310C0EEA1BF002731658846E
311
D98AC1B77784ABF1D8FE5FBFBF75BBCE937A534CCEB38643598122B6FEE978D0B0485F9C41B54DDD7D022595594E1A469170414C76A4D9A4D207E29CF43ECE46F218070CC6BECC4078ACAA135ACF422C856C0E68EA1BF5669944DDD7BCDE7B1F8E415D77AECB980613C2E4AC91FC167A2B244592486606FC29C8FD7F045B9A
311
EF7053A7E60B504B03041400060808002B6831408739690AE90000007C01000008000000636F72652E786D6C8D90416EC3201045AF82668F0DD8716C0B13B55172825E0001715062B00C543D7E70E248EDAEAB193EFFCD8C3E3FFC4C77F46D9660BD1B8016049071CA6BEBC60152BCE016D041F0C5FBF8CB06C8C9C90CB0CA
311
20F8B8F8346F92F22E1A17B3EABC369B2843301190BAE76680A0AE6692854C313BC2AD98A5BAC9D114F4DD653825ABD16B89D5799EBD58B380E8BA9AB1FAE38C2BB6A7B83E36356EBBE613EFDABA6ADB869D8FA71D2F5758F068A7F77EB518198D06C1086598504CF75FB4EA09ED597E363D21BC5CED7FA034EB7F42C9BA58
311
B1EDDC171640D07CC8F343F072CD22976750B9AEB98907504B03041400060808002B68314055019EA25F0000007C00000007000000636E782E786D6C4DCB3B0E80201045D1AD90E915ED2CF8AC45050C11660C8261F98AB1B07AC9C97D42D718D865D3E909258CFD00CCE24AC6E326A164D74DC0B4128928FF326038472BA1
311
3128B1252AC747C6BAB984FC68F0B87FE8960A5C09FE86CFB69FBA01504B03041400060808002B6831403E4F8BDF65010000020300000C0000006662782F636F72652E786D6C8D52ED8E8230107C95A6FFA1B420A2293577E67C827B810A9523424B4A4B7CFC5B3E0CE7C51843026567676776801F6E6D830665FBDAE81CD3
311
30C248E9C294B5AE72ECDD25C8303A086E8D717FDA30D2B255391ECB58F0CA1ADF2DA5C268A7B483AA36A55A8AB2EF95C3A868E090E3BEF851AD0CA577D0D15FC34E165759A9908600439FE0BDB36000CD22E31D8BCBF9C6C95C17DCFBBA5CD0BA04B5FA522B8BC56E9730967C9C82986D69901CD324C876E967B0C99238CB
311
52763A7E6D3819C982BBBABDBB2BAC924E9558B088B220A201DD7ED3781FD13D83D7741F459C8CED0F24DF956F927CAD5DCC16BB33ADC782829109F8B72D44E4502F07F04304276388F098127E0C1A0281909D3C37F73DAE501A54E18C4D00298D5FA141365E816A84A68B931985C9D300D8ECE91CF662CEEB19F001A5AEC0
311
9A74703C7B37AAF3597589A2533618DC0D69635BD9ACE6668BEB7D157A4A2F4C63EC3B6CB2AC4A9630C9F8F78A5F504B03041400060808002B683140918FA2527E0000009D0000000B0000006662782F636E782E786D6C4DCCD10A83201886E15B91FFDCB5D99F3950630ADD472C8B98E9703A76F9ABD1C18E3E78F87865F7
311
593D79BBF45A625070399D81B8708FE3126605254F5400E9B44C31E6BF1B9030AC4EC1CEA0E59C62791E34BA69283E6FEA97F038D00AAC19E73565D8588A0D1A2A9869696B7A64F6DADB1B47A8B4AC7EA56DF7B0FE02504B03041400060808002B6831404A88A07A2B01000014020000310000006662782F43383433323636
311
332D323435432D343534422D383242372D3742463432433946434136342F636F72652E786D6C8D51CB6EC32010FC158B537AC0064C1C37C2448DA57C417F80D8244589C1E251E5F3BBD48ED4DE72616198991DED8AC363BA17DFDA07E36C87684950A1EDE04663AF1D4AF1825B541CA4F0CEC53F34545835E90E65184971F5
311
2ECD2B34381BB58D805A37EA155421E8888AE10E970E85E14B4FAA54290223DCCA590D3775D5252DE11B785284E82140B134C927927DCB6BD63435667CDB63BEE547DCB2E30EEF8E27CEFAF753FFD170512D42295232E32A3723C43117A3FDAB26592C4534D333FEE0B58A7A449211CA30A198EE3E69BD2774CFE0D9EC0911
311
55A6FF13A5797C51948C8D355BE32EB2802415D5F221C5E8D2F9FE0CA31FB3F3B1C8FD36410F6F48929230D2D60DDB8A6AA1C200C0B3E1AB6788CEC38037B733B029B0B271C3A5A8F28EA0FC2E106ADEA7FC01504B03041400060808002B6831402F8EC4954C01000033030000300000006662782F43383433323636332D32
311
3435432D343534422D383242372D3742463432433946434136342F636E782E786D6CD593CD6EC23010845FC5F23D3F06442BE418A9873E410FBD3AF60206C78EFC5395B7EF1A0CE5C2A1C75EAC64F6F3CC6A94F0EDF764C9178468BC1B286B7B4AC029AF8DDB0F34A75DF34AC956F0E07D7AC0287172828116990ABE0F3ECF
311
55D2B093D92654AD71A72A06883E070511E5729358AFA44503704D4611A611B4064DEE203EED20E02A288E67920E40DEDF3E891F8FA052E45D7111BC2B198297B3263D4094282B631C68540798642B73F21AE2A9D532C996B5B7AC273BFD3A9172E116998321257CA0E5A4A26ED4628FBCC3A1E031056CAF42E93C0315729E
311
AD513261C9DD05BC328267E3D27A555983C507A4D97AB95AA1D96526783213544205900934158B9E2D9A9E35ECE5832D373DDB2CF075BDE97BDE155CF0D17B5B2FA10D043F13E55D0297A860BC2BE367F5558E6813B06B1FCE7F28120BA8A9D776EE1EFFB99FEEF27D635D01FF02F103504B03041400060808002B683140FE
311
88D40D9B0500007A100000340000006662782F43383433323636332D323435432D343534422D383242372D3742463432433946434136342F6F626A656374732E786D6CAD575D6FA33814FD2B887DCE0749DA695694519AB4A368D499D14433DA874A910143BD3518D9A693EEAFDF633004D2A4CDAEE62504737D7DEFB9E77E
311
D8FFB8CBB8F34CA56222BF76BDE1D875681E8998E5E9B55BEA6470E53A1F035F0AA13B62AE93938C5EBB66D90DFC548AB2B04B314D48C9F5C1EADDCD5F8E8A684E5D27E244A96B57458F342343526A1153F5348C8926C334D90DBD612DD8579B4A523C1E282D88A4B986A558CFA1C5A98DF2FAAF637714F823F33DF0CDAF95
311
9A9E961A55FEF4CF67B9D2248F5E1D76A066EACD56B7938BF9E062369B0E6697136F707377B31A781FA6E3E5E572395FDCCE71B0D2129AAC2592266EF009D84816F9A3FA53E0972CD7D38915B1011A49FACC4CA4DC60E278FEA89669BDB34E1E333F12794EA30A2BA051F96755C7B4A0798C9833AA605907A171FFD5333876
311
3E4FCDBB3DB2BB7C1E02DD1D1D458DEDCDB36BA908FF860BEA1C0649450D036B2CADA33557C77B844321B8FDC69493114D2523DCE12C9444BEB801448D48E0F7D418264B930DC603374014EACF7DBA208DDEE7F9312B939273436337A8B2608B5CA15A5596B17FA8DC5BDF4506362156860D57D621FD52503798D714B93A60
311
530DA493709222E470D3EC9C4E0E1C5D9A3C5DAFDCE0F35DB8DB98DC3D7E78214541A536F401B59AC0354F8392B5C93B2B7266837B60CA1E94EF40FE0B527D6F0AE226D96EB69BD953B424B94A84CC101B67EC0CC6F8193B5EF56BFE77FEF9A376733F7AA7F044B00D54BF01CFBE0FDD5876E00CFC67105EC8A9756D13118E
311
B271CF72006448E2708125D4E124DCB9C11A550E5519BB080F3CB80C739FF1D71F59352814D5499D670E2C0FCAE219051AB0558C841935F9AD81FB38BD2A67D5C156EC14BC17BF85AE8BD5E6F3A6940989E8BDCDE9154D58CE345ADC9E375D837A98F73C7AA22FBF848CE1E86BBC375DBC337B9402DA0673037CDAD474F3B2
311
3FB97740847DA930E5C67FE70438611A6B47FF3D5311E59CE45494CDB96FF60FB48D1A6293EC86C96D83D9371690A6FE72908368D291648501B1ED566DD11C9EF0EEC7FA0B1809792E42C2F742E1BEF446820BB90D5FB675553A8AF4CF3EB52D0423A3056CAF72A4497F8BF9366649522AD4C023B0FE5C2FBBA133550115A2
311
D15A27CB0CEE23B788B49C6DF4A2594B82462AF22D43DB44DA1D3DA0AB1F885A02540A4F59AC284FB68CF332DB268CA3196D33529C80E3FFDB1F9659B1259928737D4277CF743487BEED3DF2AA5F44478F6EB0A99E831B94DE98C6FB30F7844D2B3982552FB497ABABBBE5C5A53758DEAD2683D9D5E4767035F76683C5743E
311
9E7DB89D4FBCC56D13A75A79E0379DA69BD088123A9B5F4A66C3F7638DF4B135C00DEE89560F9FEAEC6C9E3FD6438CC2FE087BD02EDB8D8BF819631F8DDF57B0973CAA689D159C6634D7C4A4D0BDF9C3BF138C193D63EAF57546527A8696AF9F3607CE60E58C7DDF4CBAD35F077BEDEAD224E45125FAB1CCC29C307EB031AD
311
911C16796AF16B62D23EEB3ED3BC9A371B180CA64A7016A30CC64E4A4546358AE1193D486654817ADD913EB6578F33763FD703A22621A78D258F04333257480B50AB8C747FDDF903339D19ABAE5D74DBE1137E6CA5701D70E6DAC58CAE5944D530447F369350A51C5CEA0EF298FB499E728CDAF5A6F6BDDD65B0E975E456E4
311
9CF1C9FA555770EB00CA4881B101F310A2531913F8956DF67BF49F1C6FCC7188C6DFB0D4AD2FFB85D699EA18A468ED94BD2C608679B247EF90A86FBBE50D2B991E22675DB2DE2441AD75A0894CAB8B82B1CF9AB4587D1B614071D65F9D8297296279BEA681A4207369121C2C022BACCE82685075F9E7C337297091CD9C3B06
311
0A3C2C459689DCBE2CEC45D8D93CE25A1B3FA02C50731F510F93B13779A8EE01F66AB20D89A24312AB272C20A692B510F7020F46D6974574A0FA432B37324138E0E67AE5D8963683524B946E5535B060E2C8A983EC317749932B5D81E2CDABC0A812850912437CF02F504B03041400060800002B6831400000000000000000
311
00000000350000006662782F43383433323636332D323435432D343534422D383242372D3742463432433946434136342F76657274696365732E62696E504B03041400060808002B683140F270F1330600000004000000360000006662782F43383433323636332D323435432D343534422D383242372D3742463432433946
311
434136342F747269616E676C65732E62696E636660600000504B03041400060800002B683140000000000000000000000000370000006662782F43383433323636332D323435432D343534422D383242372D3742463432433946434136342F617474726962757465732E62696E504B03041400060808002B683140D5987DFC
311
8F00000041010000360000006662782F43383433323636332D323435432D343534422D383242372D3742463432433946434136342F6469726563746F72792E786D6C858F410EC2201045AF4266AF15DDB800BA74E7C21B903225242D6328188F2FA5C4183471359997F9FF81E89FF3C41E1816475E02DF1F80A11FC8386F25
311
A438EECEC07A250251FC3803E6F58C12560C4AD840E95E91C151A72936F496F35732D860FE635F62C8F2DA16B505C545B74125BAA2FA9E05D7CC053D063734D5C7665FD55B6B8D15D5E9BFEAFD8490FFA45E504B03041400060808002B683140EFD3343BFC000000A00100003B0000006662782F43383433323636332D3234
311
35432D343534422D383242372D3742463432433946434136342F7265736F75726365732F636F72652E786D6C8D504B6E833010BD8A357B03368410641CB5517A825EC032136A25D8C89FAAC7AF09546A77DD783CEFA3797AE2FC353FC827FA609C1D80151510B4DA8DC64E03A478A31D90B314DEB9F84B06C4AA1907586190
311
62F22E2D3BA49D8D686346AD1B710755081881E847FE0C10F407CEAA50296645B8178BD2773561C18A4C679D1421FA1C806C47D617A4C7E092D71844B9B152A464C65D63C67CD3DC0C7A90A753C379F372A5353F32DA5CDA8676A7F6951EBAA6EEBA96BF5DAE0751AE6629A2997F326A8F2AE20892578CD38A51767C67755F
311
B19EE7B5EDAB4A94ABFC8F292DE33F4DC9D858F33DEE660B20590EF224A428D7BEF2789699E7DAADFC06504B010214000A00000800002B6831403DEE336E79000000790000001B00000000000000000000000000000000006175746F6465736B2D64657369676E2D7061636B6167652E786D6C504B01021400140006080800
311
2B683140D486FD9CA0000000F40000001300000000000000000000000000B20000005B436F6E74656E745F54797065735D2E786D6C504B010214001400060808002B6831408739690AE90000007C010000080000000000000000000000000083010000636F72652E786D6C504B010214001400060808002B68314055019EA2
311
5F0000007C000000070000000000000000000000000092020000636E782E786D6C504B010214001400060808002B6831403E4F8BDF65010000020300000C00000000000000000000000000160300006662782F636F72652E786D6C504B010214001400060808002B683140918FA2527E0000009D0000000B00000000000000
311
000000000000A50400006662782F636E782E786D6C504B010214001400060808002B6831404A88A07A2B0100001402000031000000000000000000000000004C0500006662782F43383433323636332D323435432D343534422D383242372D3742463432433946434136342F636F72652E786D6C504B010214001400060808
311
002B6831402F8EC4954C010000330300003000000000000000000000000000C60600006662782F43383433323636332D323435432D343534422D383242372D3742463432433946434136342F636E782E786D6C504B010214001400060808002B683140FE88D40D9B0500007A10000034000000000000000000000000006008
311
00006662782F43383433323636332D323435432D343534422D383242372D3742463432433946434136342F6F626A656374732E786D6C504B010214001400060800002B68314000000000000000000000000035000000000000000000000000004D0E00006662782F43383433323636332D323435432D343534422D38324237
311
2D3742463432433946434136342F76657274696365732E62696E504B010214001400060808002B683140F270F13306000000040000003600000000000000000000000000A00E00006662782F43383433323636332D323435432D343534422D383242372D3742463432433946434136342F747269616E676C65732E62696E50
311
4B010214001400060800002B6831400000000000000000000000003700000000000000000000000000FA0E00006662782F43383433323636332D323435432D343534422D383242372D3742463432433946434136342F617474726962757465732E62696E504B010214001400060808002B683140D5987DFC8F000000410100
311
0036000000000000000000000000004F0F00006662782F43383433323636332D323435432D343534422D383242372D3742463432433946434136342F6469726563746F72792E786D6C504B010214001400060808002B683140EFD3343BFC000000A00100003B00000000000000000000000000321000006662782F43383433
311
323636332D323435432D343534422D383242372D3742463432433946434136342F7265736F75726365732F636F72652E786D6C504B0506000000000E000E0080040000871100000000
310
504B03040A00000800002B6831403DEE336E79000000790000001B0000006175746F6465736B2D64657369676E2D7061636B6167652E786D6C3C3F786D6C2076657273696F6E3D22312E302220656E636F64696E673D227574662D3822203F3E3C666F726D6174733E3C666F726D61743E687474703A2F2F736368656D612E
310
6175746F6465736B2E636F6D2F64657369676E2D7061636B6167652F323030393C2F666F726D61743E3C2F666F726D6174733E504B03041400060808002B683140D486FD9CA0000000F4000000130000005B436F6E74656E745F54797065735D2E786D6C7D8EC10E82300C865F65E91D8A1E8C310C0EEA1BF002731658846E
310
D98AC1B77784ABF1D8FE5FBFBF75BBCE937A534CCEB38643598122B6FEE978D0B0485F9C41B54DDD7D022595594E1A469170414C76A4D9A4D207E29CF43ECE46F218070CC6BECC4078ACAA135ACF422C856C0E68EA1BF5669944DDD7BCDE7B1F8E415D77AECB980613C2E4AC91FC167A2B244592486606FC29C8FD7F045B9A
310
EF7053A7E60B504B03041400060808002B683140C8BAB190E70000007C01000008000000636F72652E786D6C8D90416EC3201045AF82668F03D88D5D0B1355A23E412F8080B828315806A21CBF3871A476D7D50C9FFF66469F9FEEF315DDEC1A5DF003D08A00B25E07E3FC34404E67DC013A09BE86907ED9007935DB013619
310
049FD690975DD2C127EB53517D307617558C3601D2D7D20C10F5B79D55A5722A8E78A916A52F6AB2157D7505CED919F45CE24C99E7CECEAE20EA63FBD6BCD316CB8E8DB869D807EE3E6B8A1B296BC9E438B692F0C3060B9EDCFCDAAF57AB92352018A10C138A69FB45EB9ED09E95E7B12705DAEC7FA0BC987F42D9F954B3FD
310
DC271641D072C8E343F0C39645298FA04ADD72133F504B03041400060808002B68314055019EA25F0000007C00000007000000636E782E786D6C4DCB3B0E80201045D1AD90E915ED2CF8AC45050C11660C8261F98AB1B07AC9C97D42D718D865D3E909258CFD00CCE24AC6E326A164D74DC0B4128928FF326038472BA13128
310
B1252AC747C6BAB984FC68F0B87FE8960A5C09FE86CFB69FBA01504B03041400060808002B683140BAC1FE5C64010000020300000C0000006662782F636F72652E786D6C8D525B6E833010BC8AE57F630C34A491715489E604BD80631C8A02363236CAF1BB3C229A2A8A2A24303B3B3BB303FC78EB5A346A3734D614984531
310
46DA285B35A62E70F017B2C7E828B8B3D6FF6AC3C8C84E17782A63C16B6743BF9694355E1B0F55632BBD16E530688F916AE150E0417DEB4E463278E818AE512FD555D63A6211C0D027F8E01D18408BC874C7E272BE71BAD4050FA1A956B4A940ADB934DA6191EEF2B7EC9DE5A4DC27279265C907D97FA68C6465999649793A
310
E565CCE94416DC37DDDD9D725A7A5D6191C42C2131232CFF62E9216687045E7787184853FB0329F4D53F49A1313E4D56BB0B6DC082819119F8B32D44E4D12047F04305A75388F098137E0C1A028190BD3CB7F73DAE501AB5F2D6658054366CD028DBA0413546F3C5E982C2E479006CF6744EF262CEEB19F001A5A9C19AF470
310
3C073FA9F345758DA2D78E8CFE868C759D6C37738BC5EDBE093DA52BDB5AF71F365D57A56B9874FA7BC50F504B03041400060808002B6831403C370A627D0000009D0000000B0000006662782F636E782E786D6C4DCC4D0EC2201404E0AB90B7C7FAD2F2B3001AC5788FC6D28648A1416A3CBED474E16C26F93219D57F9640
310
DE2EBF7C8A1AF07406E2E2238D3ECE1AB6325109A4372AA754FE6640E2B0380D3B8351734EDB7AD0E8A6610BA56AF0F17920E79DC0BBB5945BCB68D7A2A4971A8A379492B5781582416354F37BAABD1F9B2F504B03041400060808002B683140B79C309F2901000014020000310000006662782F36363437314643432D3643
310
43352D343331382D414141412D3144313838353331423737352F636F72652E786D6C8D51CB6EC32010FC15C4293DD806DBC15684895A57FD82FE00C1244589C1E251E5F3BBD48ED4DEC28185D999DDD12E3FDEE71BFAD63E1867074C4B8291B6CA4DC65E069CE2B9E8313A0AEE9D8B7F68185939EB0167180B7EF12E2D1BA4
310
9C8DDA4640AD9BF406CA1074C448DDE031E0A0BEF42C4B992230C2B55CA4BACA8B2E690969E0091EA20703686D926F2C186B3BFA318E051BC77DD136B42F5EE114F49DF6FDBEA16F5DB7E7D52A143C25336D7233811D7336DA3F5B248B058F667ED8575ECBA8272C6A42EB82D082769FB439107AA8E1CB0E84F02AD3FF89D2
310
323D294AC6C6A6DEECAEB28005E5D59A107C72E9747B98D1F7C5F98872BF5DD0EA050B5292BAAE7BD68064A5C200A0266BB79A213A0F03DE5D4FC0CEAC5C98B582577947107E170831EF53FC00504B03041400060808002B68314049290B825401000033030000300000006662782F36363437314643432D364343352D3433
310
31382D414141412D3144313838353331423737352F636E782E786D6CBD93CD6EC32010845F0571F70F4EE4461126520F7D821E7AC5B04969305880ABE6EDBB2424CD25874A552FC89E1D66569F6CBEFB9A2CF984108D770365754B0938E5B57187812E695F6D28D9091EBC4F77364A9C9C60A059A6821F825FE62269D8CBC5
310
2654AD71C72206887E090A22CAF926B15E498B01E0AA05459846D01A34B919F1690F015741713C91F40EE4E5F98DF8F103548ABCC9298237B943F07C96A63B1325CACA18071AD53B4CB2964BF21AE2B1D632C99AD5D7AE073BFD24917CE15AB9044372F940F34945D9A8468EBCC1A1E03105A4574CE9340315729EAD513221
310
E4E66CBC78045F8C4BFDBA780D820FE85E75FD668361E799E0C94C501C2A804CA0A9E85AD6552DABD8D32B5B6D5BB6EDF0B5DFB62D6FB25DF0D17B5B2E610C043F13E55D0297A860BCC9E347F88A8F681390B50FA75F804400A5F542E796F1977C58BF5AAFFF914F73FEBE1157C0BF407C03504B03041400060808002B6831
310
403E07E1F959070000931B0000340000006662782F36363437314643432D364343352D343331382D414141412D3144313838353331423737352F6F626A656374732E786D6CED59DD6FA33810FF5710F71C1292B4DB9C28AB366957D1A9BBABCDEDEA1E2221030EF1D518649B7EDC5F7F636308D0D092DBDEDB3E2480B1C733
310
BFF9F4E07D7C4AA9F580B92019BBB45D67625B9845594C587269177237BAB0AD8FBEC7B34C36A6D9164329BEB4D5B0ED7B09CF8ADC0CC578870A2A3BA3B7D77F5922C20CDB5644911097B688F638450E2A64166371EFC4482227D93D39AE534E6C934D38CAF71DA239E29849E014C61950B14AA6DCF6E3C41EFBDE58BDF73D
310
F56F66CD06CD9AF7CF1A6BA9DB5C12262462D10B963A646683589AB9F3D5CDF46C313A9BCF67A3F9F9D41D5DDF5EAF46EE87D96479BE5C2EAE6E16C05E9865D4C814E31CB318F4F76CFBAE37566F6AD10D02C7B88E32C670A48104A8B4585D82040BD8AA01DFA4FDE82A891AAFB5848DE7B97A6F58680CCFDA54FA660D03A2
310
45170431DB551257D7A67C59F837082E861825175802B74272D0AE81878357D8FEC41B97A3BE171E7441849522893941D4A224E488835260AA9AE27BE5024346390707529692406BAE7CDDB62DF0CCB75DE71897BB8252E519B6AF1D2B00F7C35268CEC83F981FB86F22033C81B40561F2C270299F736CFB0B6FAC077D4F5D
310
6653F3B204D2DA5194088D48F9B623E852B9FE7A65FB7FDC864F1B150E8E6F9EF32CC75C2AA3537AD47C81219BAB42C96CEB0ED29C5A00C294A09A950750BE01F29F217A1C5801BD71F2347F9A9BB992232676194F4137D6C41A4DE06F62B9FA5FDD37EEBC71BDB8ADBD3E3CC14D1554173F8F675B068D95E1BF01A7EF3D80
310
C1677C665E6D2244C19EEF08038094915834832108EDBBF0C9F6D7103821D0C32A447D174406761FE0D61B1B3207AD54EE65BC8E01A2668FD91025016CDA22818D1E3D7D82ECC14974505353C43E78CFDEC55CAF569B3F3605DFA108DF199F5EE11D614442D63CCE500BF39644F7F8F931E33108FA12EF4D13EFD46C25006D
310
85B9023EA940500F879D5B1B44B02EC954B8F1DED8018450B9BA41FF8E8808538A18CE8A6ADF3ABA2943AD3DDED40CB63F2D219E4D3B26CCF10351550538CD61468B51C8FB1127B902D1F63F9592D541D3E991EEFBFA3358643DBF67D69A41E86588FEA983D6111C5A965D216D80A8050E0FE13CCA68C683F03928239D0DB5
310
04B0D1F6961F2DA210EB4B25292AE041DAEFAA909294D20631D9ED0A0171F5088B3FD6CBA6394C9C997B6635FF3BCE3887680BBE8BB8F1BBCE1E01495182831D8AFBB66BEE56D3169A640F698E7714E4220F443E074806931827A7407312F1C5BB524F682604615840BE3A0A7E138D890381A4D466C5B2D26A07682282144B
310
444F414091E90157A71D5DE346503ABCCD636DBDAF69AC49F47FB2088EA096CC5840A014851CF226E3AE730631A48D6E8972075FB0B68AB6168316504244CFC12326C95E9E827A49BE07F7088E24850CB21C4560D603C8BEF015A5D40EEF218AEE55FE08A282BE9781084C7701A1B44803F81106278F21AE5D07A657516810
310
2F639FC429146548167CC826E7679317FB94354337043636DA110A613B4851DE837A2B20EA7AC4AAC137D47B941A16691EA0342BD8204371665D6F32E4BB6A556407F2AB4A45281B2BC286A0EF1126EBAC5AC56C30751D58C18D74A07A0E044A735A9EC2DE483C6EED4D9A72EF06DCF8E9FB6E9042E1D7A3BD66449D573018
310
1E5B8581784432DADBFE465F47D7507FC7383EA4FAAAD66C568080988AE405274645DFD750DE981ACDF6EF9014DB4F65D6ADAEDFD70E743FBC31AC81DAA55EB85640A79849A42A933B7543BF2108C12D1AE5F85AE5D453A85CC5B1AE1A11BD257DEA6C9511AD4D53E2E47BCCB2147E6C4B58448B186F512CEE833B49830D51
310
AC1B299D945418BF2AE0974F9B0E3C303240A4AFAAC0C38F9DB56674A9CAA5A344E4BE4843860804C1966849A91B276789D148A5E5FAAACE14507781811915CF7F9D2C9AED885F278BC418C6CF9D2C6816227A88368D6C1E29B33EE91450A72745E53D4E01BAEB5053AD934899CB8DF8C69702888955901F5C8C5531A324D8
310
C7F17F4EDA7D49B0DCAEC3FF6949DB7D51709C94545A935593EA48E1BA6EA6B0F3D5C5EDF2ECDC1D2D6F57D3D1FC627A33BA58B8F3D1D56C31997FB8594CDDAB9B1A4DEDA7BE57C7329DBAE0B98C69D5B07A32184053566494C470988FAD0443C89770A41FD03DE72916903B9BBDEED8F4E407AC7E28DB9C128514579CEC11
310
F487A980AC0E1815916C8F5BBF416752C239FBD2869E91730F7FC62A6D0B12CFA50D9D0249222C9C10BA4CAA9FA78943C6D5A9DF10037C104B54462C17D5CFF52A854D2BFAD7538664012357AB8501755B0ECDAF568342F366788A4E12BC62C742126EC34242B156CA7218A885D1DB1CD45FCA4609BB375B3F81EBBE2E96EB
310
E8392D44067D3178D5084AAA238978A2DBDD8A31C3D2D5EAEB18DA6CD6FA8B95D322015D0EA734E2188CB950F51458115885A1992309A6BAFC7DFB9567F08527B57451B45D66699A31F37005C7B118BE10599B3D7CEF89B7503560D55517DBE9C49D6E7537DB34D8831009ECA8720806AA2A4289D03136B0C8179D29D3B71C
310
2B2574A6AF5796099F6740545BED8BE66EF975CB02EF51DF5194AF680FAFE47CB5A13DD653C11A38B4A2FD7F01504B03041400060800002B683140000000000000000000000000350000006662782F36363437314643432D364343352D343331382D414141412D3144313838353331423737352F76657274696365732E6269
310
6E504B03041400060808002B683140F270F1330600000004000000360000006662782F36363437314643432D364343352D343331382D414141412D3144313838353331423737352F747269616E676C65732E62696E636660600000504B03041400060800002B683140000000000000000000000000370000006662782F3636
310
3437314643432D364343352D343331382D414141412D3144313838353331423737352F617474726962757465732E62696E504B03041400060808002B683140D5987DFC8F00000041010000360000006662782F36363437314643432D364343352D343331382D414141412D3144313838353331423737352F6469726563746F
310
72792E786D6C858F410EC2201045AF4266AF15DDB800BA74E7C21B903225242D6328188F2FA5C4183471359997F9FF81E89FF3C41E1816475E02DF1F80A11FC8386F25A438EECEC07A250251FC3803E6F58C12560C4AD840E95E91C151A72936F496F35732D860FE635F62C8F2DA16B505C545B74125BAA2FA9E05D7CC053D
310
063734D5C7665FD55B6B8D15D5E9BFEAFD8490FFA45E504B03041400060808002B683140DB119F08FA000000A00100003B0000006662782F36363437314643432D364343352D343331382D414141412D3144313838353331423737352F7265736F75726365732F636F72652E786D6C8D50DB6E842010FD1533EFA8A0556B90
310
4D13EB17F40708CEBA6457305C9A7E7E71B549FBD617863997CCC9E197AFF5917DA2F3DA9A01685E428646D9599B658018AEA483EC22B8B336FC924166E48A03EC3008BE381BB71352D6043421A1C6CE7882D27B0C90A947FA0CE0D50D5799CB1892C2DFF34DAABB5C30A779A2934E701F5C0A901D47F61784436FA353E879
310
71B082C7A8E753A3E774535F353A1055D3BED4AFB42163C72652D7EC8D74EF1525F53856231BA7A91D4B5EEC66C1835E7F322A8732E00C829594919212DA7ED0AA2F69CFD2DAF46532EDF23FA6B8CDFF34456D42C5CEB887CD83A029C89310BCD8FB4AE359669A7BB7E21B504B010214000A00000800002B6831403DEE336E
310
79000000790000001B00000000000000000000000000000000006175746F6465736B2D64657369676E2D7061636B6167652E786D6C504B010214001400060808002B683140D486FD9CA0000000F40000001300000000000000000000000000B20000005B436F6E74656E745F54797065735D2E786D6C504B01021400140006
310
0808002B683140C8BAB190E70000007C010000080000000000000000000000000083010000636F72652E786D6C504B010214001400060808002B68314055019EA25F0000007C000000070000000000000000000000000090020000636E782E786D6C504B010214001400060808002B683140BAC1FE5C64010000020300000C
310
00000000000000000000000000140300006662782F636F72652E786D6C504B010214001400060808002B6831403C370A627D0000009D0000000B00000000000000000000000000A20400006662782F636E782E786D6C504B010214001400060808002B683140B79C309F290100001402000031000000000000000000000000
310
00480500006662782F36363437314643432D364343352D343331382D414141412D3144313838353331423737352F636F72652E786D6C504B010214001400060808002B68314049290B8254010000330300003000000000000000000000000000C00600006662782F36363437314643432D364343352D343331382D41414141
310
2D3144313838353331423737352F636E782E786D6C504B010214001400060808002B6831403E07E1F959070000931B00003400000000000000000000000000620800006662782F36363437314643432D364343352D343331382D414141412D3144313838353331423737352F6F626A656374732E786D6C504B010214001400
310
060800002B68314000000000000000000000000035000000000000000000000000000D1000006662782F36363437314643432D364343352D343331382D414141412D3144313838353331423737352F76657274696365732E62696E504B010214001400060808002B683140F270F13306000000040000003600000000000000
310
000000000000601000006662782F36363437314643432D364343352D343331382D414141412D3144313838353331423737352F747269616E676C65732E62696E504B010214001400060800002B6831400000000000000000000000003700000000000000000000000000BA1000006662782F36363437314643432D36434335
310
2D343331382D414141412D3144313838353331423737352F617474726962757465732E62696E504B010214001400060808002B683140D5987DFC8F0000004101000036000000000000000000000000000F1100006662782F36363437314643432D364343352D343331382D414141412D3144313838353331423737352F6469
310
726563746F72792E786D6C504B010214001400060808002B683140DB119F08FA000000A00100003B00000000000000000000000000F21100006662782F36363437314643432D364343352D343331382D414141412D3144313838353331423737352F7265736F75726365732F636F72652E786D6C504B0506000000000E000E
310
0080040000451300000000
  0
XRECORD
  5
27
102
{ACAD_REACTORS
330
22
102
}
330
22
100
AcDbXrecord
280
     1
270
     1
271
     1
  0
XRECORD
  5
26
102
{ACAD_REACTORS
330
22
102
}
330
22
100
AcDbXrecord
280
     1
270
     1
271
     1
  0
XRECORD
  5
28
102
{ACAD_REACTORS
330
22
102
}
330
22
100
AcDbXrecord
280
     1
270
     1
271
     1
  0
XRECORD
  5
25
102
{ACAD_REACTORS
330
22
102
}
330
22
100
AcDbXrecord
280
     1
270
     1
271
     1
  0
XRECORD
  5
DE5
102
{ACAD_REACTORS
330
DE4
102
}
330
DE4
100
AcDbXrecord
280
     1
102
ACAD_ROUNDTRIP_2012_MLEADER_STYLE
298
     1
  0
CELLSTYLEMAP
  5
DE3
102
{ACAD_REACTORS
330
DE2
102
}
330
DE2
100
AcDbCellStyleMap
 90
        3
300
CELLSTYLE
  1
TABLEFORMAT_BEGIN
 90
        5
170
     1
 91
        0
 92
    32768
 62
   257
 93
        1
300
CONTENTFORMAT
  1
CONTENTFORMAT_BEGIN
 90
        0
 91
        0
 92
      512
 93
        0
300

 40
0.0
140
1.0
 94
        5
 62
     0
340
55
144
0.25
309
CONTENTFORMAT_END
171
     0
 94
        0
309
TABLEFORMAT_END
  1
CELLSTYLE_BEGIN
 90
        1
 91
        1
300
_TITLE
309
CELLSTYLE_END
300
CELLSTYLE
  1
TABLEFORMAT_BEGIN
 90
        5
170
     1
 91
        0
 92
        0
 62
   257
 93
        1
300
CONTENTFORMAT
  1
CONTENTFORMAT_BEGIN
 90
        0
 91
        0
 92
      512
 93
        0
300

 40
0.0
140
1.0
 94
        5
 62
     0
340
55
144
0.18
309
CONTENTFORMAT_END
171
     0
 94
        0
309
TABLEFORMAT_END
  1
CELLSTYLE_BEGIN
 90
        2
 91
        1
300
_HEADER
309
CELLSTYLE_END
300
CELLSTYLE
  1
TABLEFORMAT_BEGIN
 90
        5
170
     1
 91
        0
 92
        0
 62
   257
 93
        1
300
CONTENTFORMAT
  1
CONTENTFORMAT_BEGIN
 90
        0
 91
        0
 92
      512
 93
        0
300

 40
0.0
140
1.0
 94
        2
 62
     0
340
55
144
0.18
309
CONTENTFORMAT_END
171
     0
 94
        0
309
TABLEFORMAT_END
  1
CELLSTYLE_BEGIN
 90
        3
 91
        2
300
_DATA
309
CELLSTYLE_END
  0
XRECORD
  5
E1C
102
{ACAD_REACTORS
330
DE2
102
}
330
DE2
100
AcDbXrecord
280
     1
102
ACAD_ROUNDTRIP_PRE2007_TABLESTYLE
 90
      512
 91
        0
  1

 92
      512
 93
        0
  2

 94
      512
 95
        0
  3

  0
XRECORD
  5
DF7
102
{ACAD_REACTORS
330
DF6
102
}
330
DF6
100
AcDbXrecord
280
     1
102
RTVSPropertyOp0
 70
     1
102
RTVSPropertyOp1
 70
     1
102
RTVSPropertyOp2
 70
     1
102
RTVSPropertyOp3
 70
     1
102
RTVSPropertyOp4
 70
     1
102
RTVSPropertyOp5
 70
     1
102
RTVSPropertyOp6
 70
     1
102
RTVSPropertyOp7
 70
     1
102
RTVSPropertyOp8
 70
     1
102
RTVSPropertyOp9
 70
     1
102
RTVSPropertyOp10
 70
     1
102
RTVSPropertyOp11
 70
     1
102
RTVSPropertyOp12
 70
     1
102
RTVSPropertyOp13
 70
     1
102
RTVSPropertyOp14
 70
     1
102
RTVSPropertyOp15
 70
     1
102
RTVSPropertyOp16
 70
     1
102
RTVSPropertyOp17
 70
     1
102
RTVSPropertyOp18
 70
     1
102
RTVSPropertyOp19
 70
     1
102
RTVSPropertyOp20
 70
     1
102
RTVSPropertyOp21
 70
     1
102
RTVSPropertyOp22
 70
     1
102
RTVSPropertyOp23
 70
     1
102
RTVSPropertyOp24
 70
     1
102
RTVSPropertyOp25
 70
     1
102
RTVSPropertyOp26
 70
     1
102
RTVSPropertyOp27
 70
     1
102
RTVSPropertyOp28
 70
     1
102
RTVSPropertyOp29
 70
     1
102
RTVSPropertyOp30
 70
     1
102
RTVSPropertyOp31
 70
     1
102
RTVSPropertyOp32
 70
     1
  0
XRECORD
  5
DF5
102
{ACAD_REACTORS
330
DF4
102
}
330
DF4
100
AcDbXrecord
280
     1
102
RTVSPropertyOp0
 70
     1
102
RTVSPropertyOp1
 70
     1
102
RTVSPropertyOp2
 70
     1
102
RTVSPropertyOp3
 70
     1
102
RTVSPropertyOp4
 70
     1
102
RTVSPropertyOp5
 70
     1
102
RTVSPropertyOp6
 70
     1
102
RTVSPropertyOp7
 70
     1
102
RTVSPropertyOp8
 70
     1
102
RTVSPropertyOp9
 70
     1
102
RTVSPropertyOp10
 70
     1
102
RTVSPropertyOp11
 70
     1
102
RTVSPropertyOp12
 70
     1
102
RTVSPropertyOp13
 70
     1
102
RTVSPropertyOp14
 70
     1
102
RTVSPropertyOp15
 70
     1
102
RTVSPropertyOp16
 70
     1
102
RTVSPropertyOp17
 70
     1
102
RTVSPropertyOp18
 70
     1
102
RTVSPropertyOp19
 70
     1
102
RTVSPropertyOp20
 70
     1
102
RTVSPropertyOp21
 70
     1
102
RTVSPropertyOp22
 70
     1
102
RTVSPropertyOp23
 70
     1
102
RTVSPropertyOp24
 70
     1
102
RTVSPropertyOp25
 70
     1
102
RTVSPropertyOp26
 70
     1
102
RTVSPropertyOp27
 70
     1
102
RTVSPropertyOp28
 70
     1
102
RTVSPropertyOp29
 70
     1
102
RTVSPropertyOp30
 70
     1
102
RTVSPropertyOp31
 70
     1
102
RTVSPropertyOp32
 70
     1
  0
XRECORD
  5
E03
102
{ACAD_REACTORS
330
E02
102
}
330
E02
100
AcDbXrecord
280
     1
102
RTVSPropertyOp0
 70
     1
102
RTVSPropertyOp1
 70
     1
102
RTVSPropertyOp2
 70
     1
102
RTVSPropertyOp3
 70
     1
102
RTVSPropertyOp4
 70
     1
102
RTVSPropertyOp5
 70
     1
102
RTVSPropertyOp6
 70
     1
102
RTVSPropertyOp7
 70
     1
102
RTVSPropertyOp8
 70
     1
102
RTVSPropertyOp9
 70
     1
102
RTVSPropertyOp10
 70
     1
102
RTVSPropertyOp11
 70
     1
102
RTVSPropertyOp12
 70
     1
102
RTVSPropertyOp13
 70
     1
102
RTVSPropertyOp14
 70
     1
102
RTVSPropertyOp15
 70
     1
102
RTVSPropertyOp16
 70
     1
102
RTVSPropertyOp17
 70
     1
102
RTVSPropertyOp18
 70
     1
102
RTVSPropertyOp19
 70
     1
102
RTVSPropertyOp20
 70
     1
102
RTVSPropertyOp21
 70
     1
102
RTVSPropertyOp22
 70
     1
102
RTVSPropertyOp23
 70
     1
102
RTVSPropertyOp24
 70
     1
102
RTVSPropertyOp25
 70
     1
102
RTVSPropertyOp26
 70
     1
102
RTVSPropertyOp27
 70
     1
102
RTVSPropertyOp28
 70
     1
102
RTVSPropertyOp29
 70
     1
102
RTVSPropertyOp30
 70
     1
102
RTVSPropertyOp31
 70
     1
102
RTVSPropertyOp32
 70
     1
  0
XRECORD
  5
E0B
102
{ACAD_REACTORS
330
E0A
102
}
330
E0A
100
AcDbXrecord
280
     1
102
RTVSPropertyOp0
 70
     1
102
RTVSPropertyOp1
 70
     1
102
RTVSPropertyOp2
 70
     1
102
RTVSPropertyOp3
 70
     1
102
RTVSPropertyOp4
 70
     1
102
RTVSPropertyOp5
 70
     1
102
RTVSPropertyOp6
 70
     1
102
RTVSPropertyOp7
 70
     1
102
RTVSPropertyOp8
 70
     1
102
RTVSPropertyOp9
 70
     1
102
RTVSPropertyOp10
 70
     1
102
RTVSPropertyOp11
 70
     1
102
RTVSPropertyOp12
 70
     1
102
RTVSPropertyOp13
 70
     1
102
RTVSPropertyOp14
 70
     1
102
RTVSPropertyOp15
 70
     1
102
RTVSPropertyOp16
 70
     1
102
RTVSPropertyOp17
 70
     1
102
RTVSPropertyOp18
 70
     1
102
RTVSPropertyOp19
 70
     1
102
RTVSPropertyOp20
 70
     1
102
RTVSPropertyOp21
 70
     1
102
RTVSPropertyOp22
 70
     1
102
RTVSPropertyOp23
 70
     1
102
RTVSPropertyOp24
 70
     1
102
RTVSPropertyOp25
 70
     1
102
RTVSPropertyOp26
 70
     1
102
RTVSPropertyOp27
 70
     1
102
RTVSPropertyOp28
 70
     1
102
RTVSPropertyOp29
 70
     1
102
RTVSPropertyOp30
 70
     1
102
RTVSPropertyOp31
 70
     1
102
RTVSPropertyOp32
 70
     1
  0
XRECORD
  5
DFD
102
{ACAD_REACTORS
330
DFC
102
}
330
DFC
100
AcDbXrecord
280
     1
102
RTVSPropertyOp0
 70
     1
102
RTVSPropertyOp1
 70
     1
102
RTVSPropertyOp2
 70
     1
102
RTVSPropertyOp3
 70
     1
102
RTVSPropertyOp4
 70
     1
102
RTVSPropertyOp5
 70
     1
102
RTVSPropertyOp6
 70
     1
102
RTVSPropertyOp7
 70
     1
102
RTVSPropertyOp8
 70
     1
102
RTVSPropertyOp9
 70
     1
102
RTVSPropertyOp10
 70
     1
102
RTVSPropertyOp11
 70
     1
102
RTVSPropertyOp12
 70
     1
102
RTVSPropertyOp13
 70
     1
102
RTVSPropertyOp14
 70
     1
102
RTVSPropertyOp15
 70
     1
102
RTVSPropertyOp16
 70
     1
102
RTVSPropertyOp17
 70
     1
102
RTVSPropertyOp18
 70
     1
102
RTVSPropertyOp19
 70
     1
102
RTVSPropertyOp20
 70
     1
102
RTVSPropertyOp21
 70
     1
102
RTVSPropertyOp22
 70
     1
102
RTVSPropertyOp23
 70
     1
102
RTVSPropertyOp24
 70
     1
102
RTVSPropertyOp25
 70
     1
102
RTVSPropertyOp26
 70
     1
102
RTVSPropertyOp27
 70
     1
102
RTVSPropertyOp28
 70
     1
102
RTVSPropertyOp29
 70
     1
102
RTVSPropertyOp30
 70
     1
102
RTVSPropertyOp31
 70
     1
102
RTVSPropertyOp32
 70
     1
  0
XRECORD
  5
E01
102
{ACAD_REACTORS
330
E00
102
}
330
E00
100
AcDbXrecord
280
     1
102
RTVSPropertyOp0
 70
     1
102
RTVSPropertyOp1
 70
     1
102
RTVSPropertyOp2
 70
     1
102
RTVSPropertyOp3
 70
     1
102
RTVSPropertyOp4
 70
     1
102
RTVSPropertyOp5
 70
     1
102
RTVSPropertyOp6
 70
     1
102
RTVSPropertyOp7
 70
     1
102
RTVSPropertyOp8
 70
     1
102
RTVSPropertyOp9
 70
     1
102
RTVSPropertyOp10
 70
     1
102
RTVSPropertyOp11
 70
     1
102
RTVSPropertyOp12
 70
     1
102
RTVSPropertyOp13
 70
     1
102
RTVSPropertyOp14
 70
     1
102
RTVSPropertyOp15
 70
     1
102
RTVSPropertyOp16
 70
     1
102
RTVSPropertyOp17
 70
     1
102
RTVSPropertyOp18
 70
     1
102
RTVSPropertyOp19
 70
     1
102
RTVSPropertyOp20
 70
     1
102
RTVSPropertyOp21
 70
     1
102
RTVSPropertyOp22
 70
     1
102
RTVSPropertyOp23
 70
     1
102
RTVSPropertyOp24
 70
     1
102
RTVSPropertyOp25
 70
     1
102
RTVSPropertyOp26
 70
     1
102
RTVSPropertyOp27
 70
     1
102
RTVSPropertyOp28
 70
     1
102
RTVSPropertyOp29
 70
     1
102
RTVSPropertyOp30
 70
     1
102
RTVSPropertyOp31
 70
     1
102
RTVSPropertyOp32
 70
     1
  0
XRECORD
  5
E1B
102
{ACAD_REACTORS
330
E1A
102
}
330
E1A
100
AcDbXrecord
280
     1
102
RTVSPropertyOp0
 70
     0
102
RTVSPropertyOp1
 70
     0
102
RTVSPropertyOp2
 70
     0
102
RTVSPropertyOp3
 70
     0
102
RTVSPropertyOp4
 70
     0
102
RTVSPropertyOp5
 70
     0
102
RTVSPropertyOp6
 70
     0
102
RTVSPropertyOp7
 70
     0
102
RTVSPropertyOp8
 70
     0
102
RTVSPropertyOp9
 70
     0
102
RTVSPropertyOp10
 70
     0
102
RTVSPropertyOp11
 70
     0
102
RTVSPropertyOp12
 70
     0
102
RTVSPropertyOp13
 70
     0
102
RTVSPropertyOp14
 70
     2
102
RTVSPropertyOp15
 70
     0
102
RTVSPropertyOp16
 70
     0
102
RTVSPropertyOp17
 70
     0
102
RTVSPropertyOp18
 70
     0
102
RTVSPropertyOp19
 70
     0
102
RTVSPropertyOp20
 70
     0
102
RTVSPropertyOp21
 70
     0
102
RTVSPropertyOp22
 70
     0
102
RTVSPropertyOp23
 70
     0
102
RTVSPropertyOp24
 70
     0
102
RTVSPropertyOp25
 70
     0
102
RTVSPropertyOp26
 70
     0
102
RTVSPropertyOp27
 70
     0
102
RTVSPropertyOp28
 70
     1
102
RTVSPropertyOp29
 70
     1
102
RTVSPropertyOp30
 70
     1
102
RTVSPropertyOp31
 70
     1
102
RTVSPropertyOp32
 70
     1
  0
XRECORD
  5
E09
102
{ACAD_REACTORS
330
E08
102
}
330
E08
100
AcDbXrecord
280
     1
102
RTVSPropertyOp0
 70
     1
102
RTVSPropertyOp1
 70
     1
102
RTVSPropertyOp2
 70
     1
102
RTVSPropertyOp3
 70
     1
102
RTVSPropertyOp4
 70
     1
102
RTVSPropertyOp5
 70
     1
102
RTVSPropertyOp6
 70
     1
102
RTVSPropertyOp7
 70
     1
102
RTVSPropertyOp8
 70
     1
102
RTVSPropertyOp9
 70
     1
102
RTVSPropertyOp10
 70
     1
102
RTVSPropertyOp11
 70
     1
102
RTVSPropertyOp12
 70
     1
102
RTVSPropertyOp13
 70
     1
102
RTVSPropertyOp14
 70
     1
102
RTVSPropertyOp15
 70
     1
102
RTVSPropertyOp16
 70
     1
102
RTVSPropertyOp17
 70
     1
102
RTVSPropertyOp18
 70
     1
102
RTVSPropertyOp19
 70
     1
102
RTVSPropertyOp20
 70
     1
102
RTVSPropertyOp21
 70
     1
102
RTVSPropertyOp22
 70
     1
102
RTVSPropertyOp23
 70
     1
102
RTVSPropertyOp24
 70
     1
102
RTVSPropertyOp25
 70
     1
102
RTVSPropertyOp26
 70
     1
102
RTVSPropertyOp27
 70
     1
102
RTVSPropertyOp28
 70
     1
102
RTVSPropertyOp29
 70
     1
102
RTVSPropertyOp30
 70
     1
102
RTVSPropertyOp31
 70
     1
102
RTVSPropertyOp32
 70
     1
  0
XRECORD
  5
DED
102
{ACAD_REACTORS
330
DEC
102
}
330
DEC
100
AcDbXrecord
280
     1
102
RTVSPropertyOp0
 70
     1
102
RTVSPropertyOp1
 70
     1
102
RTVSPropertyOp2
 70
     1
102
RTVSPropertyOp3
 70
     1
102
RTVSPropertyOp4
 70
     1
102
RTVSPropertyOp5
 70
     1
102
RTVSPropertyOp6
 70
     1
102
RTVSPropertyOp7
 70
     1
102
RTVSPropertyOp8
 70
     1
102
RTVSPropertyOp9
 70
     1
102
RTVSPropertyOp10
 70
     1
102
RTVSPropertyOp11
 70
     1
102
RTVSPropertyOp12
 70
     1
102
RTVSPropertyOp13
 70
     1
102
RTVSPropertyOp14
 70
     1
102
RTVSPropertyOp15
 70
     1
102
RTVSPropertyOp16
 70
     1
102
RTVSPropertyOp17
 70
     1
102
RTVSPropertyOp18
 70
     1
102
RTVSPropertyOp19
 70
     1
102
RTVSPropertyOp20
 70
     1
102
RTVSPropertyOp21
 70
     1
102
RTVSPropertyOp22
 70
     1
102
RTVSPropertyOp23
 70
     1
102
RTVSPropertyOp24
 70
     1
102
RTVSPropertyOp25
 70
     1
102
RTVSPropertyOp26
 70
     1
102
RTVSPropertyOp27
 70
     1
102
RTVSPropertyOp28
 70
     1
102
RTVSPropertyOp29
 70
     1
102
RTVSPropertyOp30
 70
     1
102
RTVSPropertyOp31
 70
     1
102
RTVSPropertyOp32
 70
     1
  0
XRECORD
  5
DEF
102
{ACAD_REACTORS
330
DEE
102
}
330
DEE
100
AcDbXrecord
280
     1
102
RTVSPropertyOp0
 70
     1
102
RTVSPropertyOp1
 70
     1
102
RTVSPropertyOp2
 70
     1
102
RTVSPropertyOp3
 70
     1
102
RTVSPropertyOp4
 70
     1
102
RTVSPropertyOp5
 70
     1
102
RTVSPropertyOp6
 70
     1
102
RTVSPropertyOp7
 70
     1
102
RTVSPropertyOp8
 70
     1
102
RTVSPropertyOp9
 70
     1
102
RTVSPropertyOp10
 70
     1
102
RTVSPropertyOp11
 70
     1
102
RTVSPropertyOp12
 70
     1
102
RTVSPropertyOp13
 70
     1
102
RTVSPropertyOp14
 70
     1
102
RTVSPropertyOp15
 70
     1
102
RTVSPropertyOp16
 70
     1
102
RTVSPropertyOp17
 70
     1
102
RTVSPropertyOp18
 70
     1
102
RTVSPropertyOp19
 70
     1
102
RTVSPropertyOp20
 70
     1
102
RTVSPropertyOp21
 70
     1
102
RTVSPropertyOp22
 70
     1
102
RTVSPropertyOp23
 70
     1
102
RTVSPropertyOp24
 70
     1
102
RTVSPropertyOp25
 70
     1
102
RTVSPropertyOp26
 70
     1
102
RTVSPropertyOp27
 70
     1
102
RTVSPropertyOp28
 70
     1
102
RTVSPropertyOp29
 70
     1
102
RTVSPropertyOp30
 70
     1
102
RTVSPropertyOp31
 70
     1
102
RTVSPropertyOp32
 70
     1
  0
XRECORD
  5
DF1
102
{ACAD_REACTORS
330
DF0
102
}
330
DF0
100
AcDbXrecord
280
     1
102
RTVSPropertyOp0
 70
     1
102
RTVSPropertyOp1
 70
     1
102
RTVSPropertyOp2
 70
     1
102
RTVSPropertyOp3
 70
     1
102
RTVSPropertyOp4
 70
     1
102
RTVSPropertyOp5
 70
     1
102
RTVSPropertyOp6
 70
     1
102
RTVSPropertyOp7
 70
     1
102
RTVSPropertyOp8
 70
     1
102
RTVSPropertyOp9
 70
     1
102
RTVSPropertyOp10
 70
     1
102
RTVSPropertyOp11
 70
     1
102
RTVSPropertyOp12
 70
     1
102
RTVSPropertyOp13
 70
     1
102
RTVSPropertyOp14
 70
     1
102
RTVSPropertyOp15
 70
     1
102
RTVSPropertyOp16
 70
     1
102
RTVSPropertyOp17
 70
     1
102
RTVSPropertyOp18
 70
     1
102
RTVSPropertyOp19
 70
     1
102
RTVSPropertyOp20
 70
     1
102
RTVSPropertyOp21
 70
     1
102
RTVSPropertyOp22
 70
     1
102
RTVSPropertyOp23
 70
     1
102
RTVSPropertyOp24
 70
     1
102
RTVSPropertyOp25
 70
     1
102
RTVSPropertyOp26
 70
     1
102
RTVSPropertyOp27
 70
     1
102
RTVSPropertyOp28
 70
     1
102
RTVSPropertyOp29
 70
     1
102
RTVSPropertyOp30
 70
     1
102
RTVSPropertyOp31
 70
     1
102
RTVSPropertyOp32
 70
     1
  0
XRECORD
  5
DF3
102
{ACAD_REACTORS
330
DF2
102
}
330
DF2
100
AcDbXrecord
280
     1
102
RTVSPropertyOp0
 70
     1
102
RTVSPropertyOp1
 70
     1
102
RTVSPropertyOp2
 70
     1
102
RTVSPropertyOp3
 70
     1
102
RTVSPropertyOp4
 70
     1
102
RTVSPropertyOp5
 70
     1
102
RTVSPropertyOp6
 70
     1
102
RTVSPropertyOp7
 70
     1
102
RTVSPropertyOp8
 70
     1
102
RTVSPropertyOp9
 70
     1
102
RTVSPropertyOp10
 70
     1
102
RTVSPropertyOp11
 70
     1
102
RTVSPropertyOp12
 70
     1
102
RTVSPropertyOp13
 70
     1
102
RTVSPropertyOp14
 70
     1
102
RTVSPropertyOp15
 70
     1
102
RTVSPropertyOp16
 70
     1
102
RTVSPropertyOp17
 70
     1
102
RTVSPropertyOp18
 70
     1
102
RTVSPropertyOp19
 70
     1
102
RTVSPropertyOp20
 70
     1
102
RTVSPropertyOp21
 70
     1
102
RTVSPropertyOp22
 70
     1
102
RTVSPropertyOp23
 70
     1
102
RTVSPropertyOp24
 70
     1
102
RTVSPropertyOp25
 70
     1
102
RTVSPropertyOp26
 70
     1
102
RTVSPropertyOp27
 70
     1
102
RTVSPropertyOp28
 70
     1
102
RTVSPropertyOp29
 70
     1
102
RTVSPropertyOp30
 70
     1
102
RTVSPropertyOp31
 70
     1
102
RTVSPropertyOp32
 70
     1
  0
XRECORD
  5
DFB
102
{ACAD_REACTORS
330
DFA
102
}
330
DFA
100
AcDbXrecord
280
     1
102
RTVSPropertyOp0
 70
     1
102
RTVSPropertyOp1
 70
     1
102
RTVSPropertyOp2
 70
     1
102
RTVSPropertyOp3
 70
     1
102
RTVSPropertyOp4
 70
     1
102
RTVSPropertyOp5
 70
     1
102
RTVSPropertyOp6
 70
     1
102
RTVSPropertyOp7
 70
     1
102
RTVSPropertyOp8
 70
     1
102
RTVSPropertyOp9
 70
     1
102
RTVSPropertyOp10
 70
     1
102
RTVSPropertyOp11
 70
     1
102
RTVSPropertyOp12
 70
     1
102
RTVSPropertyOp13
 70
     1
102
RTVSPropertyOp14
 70
     1
102
RTVSPropertyOp15
 70
     1
102
RTVSPropertyOp16
 70
     1
102
RTVSPropertyOp17
 70
     1
102
RTVSPropertyOp18
 70
     1
102
RTVSPropertyOp19
 70
     1
102
RTVSPropertyOp20
 70
     1
102
RTVSPropertyOp21
 70
     1
102
RTVSPropertyOp22
 70
     1
102
RTVSPropertyOp23
 70
     1
102
RTVSPropertyOp24
 70
     1
102
RTVSPropertyOp25
 70
     1
102
RTVSPropertyOp26
 70
     1
102
RTVSPropertyOp27
 70
     1
102
RTVSPropertyOp28
 70
     1
102
RTVSPropertyOp29
 70
     1
102
RTVSPropertyOp30
 70
     1
102
RTVSPropertyOp31
 70
     1
102
RTVSPropertyOp32
 70
     1
  0
XRECORD
  5
E17
102
{ACAD_REACTORS
330
E16
102
}
330
E16
100
AcDbXrecord
280
     1
102
RTVSPropertyOp0
 70
     0
102
RTVSPropertyOp1
 70
     0
102
RTVSPropertyOp2
 70
     0
102
RTVSPropertyOp3
 70
     0
102
RTVSPropertyOp4
 70
     0
102
RTVSPropertyOp5
 70
     0
102
RTVSPropertyOp6
 70
     0
102
RTVSPropertyOp7
 70
     0
102
RTVSPropertyOp8
 70
     0
102
RTVSPropertyOp9
 70
     0
102
RTVSPropertyOp10
 70
     0
102
RTVSPropertyOp11
 70
     0
102
RTVSPropertyOp12
 70
     0
102
RTVSPropertyOp13
 70
     0
102
RTVSPropertyOp14
 70
     2
102
RTVSPropertyOp15
 70
     0
102
RTVSPropertyOp16
 70
     0
102
RTVSPropertyOp17
 70
     0
102
RTVSPropertyOp18
 70
     0
102
RTVSPropertyOp19
 70
     0
102
RTVSPropertyOp20
 70
     0
102
RTVSPropertyOp21
 70
     0
102
RTVSPropertyOp22
 70
     0
102
RTVSPropertyOp23
 70
     0
102
RTVSPropertyOp24
 70
     0
102
RTVSPropertyOp25
 70
     0
102
RTVSPropertyOp26
 70
     0
102
RTVSPropertyOp27
 70
     0
102
RTVSPropertyOp28
 70
     1
102
RTVSPropertyOp29
 70
     1
102
RTVSPropertyOp30
 70
     1
102
RTVSPropertyOp31
 70
     1
102
RTVSPropertyOp32
 70
     1
  0
XRECORD
  5
E07
102
{ACAD_REACTORS
330
E06
102
}
330
E06
100
AcDbXrecord
280
     1
102
RTVSPropertyOp0
 70
     1
102
RTVSPropertyOp1
 70
     1
102
RTVSPropertyOp2
 70
     1
102
RTVSPropertyOp3
 70
     1
102
RTVSPropertyOp4
 70
     1
102
RTVSPropertyOp5
 70
     1
102
RTVSPropertyOp6
 70
     1
102
RTVSPropertyOp7
 70
     1
102
RTVSPropertyOp8
 70
     1
102
RTVSPropertyOp9
 70
     1
102
RTVSPropertyOp10
 70
     1
102
RTVSPropertyOp11
 70
     1
102
RTVSPropertyOp12
 70
     1
102
RTVSPropertyOp13
 70
     1
102
RTVSPropertyOp14
 70
     1
102
RTVSPropertyOp15
 70
     1
102
RTVSPropertyOp16
 70
     1
102
RTVSPropertyOp17
 70
     1
102
RTVSPropertyOp18
 70
     1
102
RTVSPropertyOp19
 70
     1
102
RTVSPropertyOp20
 70
     1
102
RTVSPropertyOp21
 70
     1
102
RTVSPropertyOp22
 70
     1
102
RTVSPropertyOp23
 70
     1
102
RTVSPropertyOp24
 70
     1
102
RTVSPropertyOp25
 70
     1
102
RTVSPropertyOp26
 70
     1
102
RTVSPropertyOp27
 70
     1
102
RTVSPropertyOp28
 70
     1
102
RTVSPropertyOp29
 70
     1
102
RTVSPropertyOp30
 70
     1
102
RTVSPropertyOp31
 70
     1
102
RTVSPropertyOp32
 70
     1
  0
XRECORD
  5
E19
102
{ACAD_REACTORS
330
E18
102
}
330
E18
100
AcDbXrecord
280
     1
102
RTVSPropertyOp0
 70
     0
102
RTVSPropertyOp1
 70
     0
102
RTVSPropertyOp2
 70
     0
102
RTVSPropertyOp3
 70
     0
102
RTVSPropertyOp4
 70
     0
102
RTVSPropertyOp5
 70
     0
102
RTVSPropertyOp6
 70
     0
102
RTVSPropertyOp7
 70
     0
102
RTVSPropertyOp8
 70
     0
102
RTVSPropertyOp9
 70
     0
102
RTVSPropertyOp10
 70
     0
102
RTVSPropertyOp11
 70
     0
102
RTVSPropertyOp12
 70
     0
102
RTVSPropertyOp13
 70
     0
102
RTVSPropertyOp14
 70
     2
102
RTVSPropertyOp15
 70
     0
102
RTVSPropertyOp16
 70
     0
102
RTVSPropertyOp17
 70
     0
102
RTVSPropertyOp18
 70
     0
102
RTVSPropertyOp19
 70
     0
102
RTVSPropertyOp20
 70
     0
102
RTVSPropertyOp21
 70
     0
102
RTVSPropertyOp22
 70
     0
102
RTVSPropertyOp23
 70
     0
102
RTVSPropertyOp24
 70
     0
102
RTVSPropertyOp25
 70
     0
102
RTVSPropertyOp26
 70
     0
102
RTVSPropertyOp27
 70
     0
102
RTVSPropertyOp28
 70
     1
102
RTVSPropertyOp29
 70
     1
102
RTVSPropertyOp30
 70
     1
102
RTVSPropertyOp31
 70
     1
102
RTVSPropertyOp32
 70
     1
  0
XRECORD
  5
DFF
102
{ACAD_REACTORS
330
DFE
102
}
330
DFE
100
AcDbXrecord
280
     1
102
RTVSPropertyOp0
 70
     1
102
RTVSPropertyOp1
 70
     1
102
RTVSPropertyOp2
 70
     1
102
RTVSPropertyOp3
 70
     1
102
RTVSPropertyOp4
 70
     1
102
RTVSPropertyOp5
 70
     1
102
RTVSPropertyOp6
 70
     1
102
RTVSPropertyOp7
 70
     1
102
RTVSPropertyOp8
 70
     1
102
RTVSPropertyOp9
 70
     1
102
RTVSPropertyOp10
 70
     1
102
RTVSPropertyOp11
 70
     1
102
RTVSPropertyOp12
 70
     1
102
RTVSPropertyOp13
 70
     1
102
RTVSPropertyOp14
 70
     1
102
RTVSPropertyOp15
 70
     1
102
RTVSPropertyOp16
 70
     1
102
RTVSPropertyOp17
 70
     1
102
RTVSPropertyOp18
 70
     1
102
RTVSPropertyOp19
 70
     1
102
RTVSPropertyOp20
 70
     1
102
RTVSPropertyOp21
 70
     1
102
RTVSPropertyOp22
 70
     1
102
RTVSPropertyOp23
 70
     1
102
RTVSPropertyOp24
 70
     1
102
RTVSPropertyOp25
 70
     1
102
RTVSPropertyOp26
 70
     1
102
RTVSPropertyOp27
 70
     1
102
RTVSPropertyOp28
 70
     1
102
RTVSPropertyOp29
 70
     1
102
RTVSPropertyOp30
 70
     1
102
RTVSPropertyOp31
 70
     1
102
RTVSPropertyOp32
 70
     1
  0
XRECORD
  5
E15
102
{ACAD_REACTORS
330
E14
102
}
330
E14
100
AcDbXrecord
280
     1
102
RTVSPropertyOp0
 70
     1
102
RTVSPropertyOp1
 70
     1
102
RTVSPropertyOp2
 70
     1
102
RTVSPropertyOp3
 70
     1
102
RTVSPropertyOp4
 70
     1
102
RTVSPropertyOp5
 70
     1
102
RTVSPropertyOp6
 70
     1
102
RTVSPropertyOp7
 70
     1
102
RTVSPropertyOp8
 70
     1
102
RTVSPropertyOp9
 70
     1
102
RTVSPropertyOp10
 70
     1
102
RTVSPropertyOp11
 70
     1
102
RTVSPropertyOp12
 70
     1
102
RTVSPropertyOp13
 70
     1
102
RTVSPropertyOp14
 70
     1
102
RTVSPropertyOp15
 70
     1
102
RTVSPropertyOp16
 70
     1
102
RTVSPropertyOp17
 70
     1
102
RTVSPropertyOp18
 70
     1
102
RTVSPropertyOp19
 70
     1
102
RTVSPropertyOp20
 70
     1
102
RTVSPropertyOp21
 70
     1
102
RTVSPropertyOp22
 70
     1
102
RTVSPropertyOp23
 70
     1
102
RTVSPropertyOp24
 70
     1
102
RTVSPropertyOp25
 70
     1
102
RTVSPropertyOp26
 70
     1
102
RTVSPropertyOp27
 70
     1
102
RTVSPropertyOp28
 70
     1
102
RTVSPropertyOp29
 70
     1
102
RTVSPropertyOp30
 70
     1
102
RTVSPropertyOp31
 70
     1
102
RTVSPropertyOp32
 70
     1
  0
XRECORD
  5
E13
102
{ACAD_REACTORS
330
E12
102
}
330
E12
100
AcDbXrecord
280
     1
102
RTVSPropertyOp0
 70
     1
102
RTVSPropertyOp1
 70
     1
102
RTVSPropertyOp2
 70
     1
102
RTVSPropertyOp3
 70
     1
102
RTVSPropertyOp4
 70
     1
102
RTVSPropertyOp5
 70
     1
102
RTVSPropertyOp6
 70
     1
102
RTVSPropertyOp7
 70
     1
102
RTVSPropertyOp8
 70
     1
102
RTVSPropertyOp9
 70
     1
102
RTVSPropertyOp10
 70
     1
102
RTVSPropertyOp11
 70
     1
102
RTVSPropertyOp12
 70
     1
102
RTVSPropertyOp13
 70
     1
102
RTVSPropertyOp14
 70
     1
102
RTVSPropertyOp15
 70
     1
102
RTVSPropertyOp16
 70
     1
102
RTVSPropertyOp17
 70
     1
102
RTVSPropertyOp18
 70
     1
102
RTVSPropertyOp19
 70
     1
102
RTVSPropertyOp20
 70
     1
102
RTVSPropertyOp21
 70
     1
102
RTVSPropertyOp22
 70
     1
102
RTVSPropertyOp23
 70
     1
102
RTVSPropertyOp24
 70
     1
102
RTVSPropertyOp25
 70
     1
102
RTVSPropertyOp26
 70
     1
102
RTVSPropertyOp27
 70
     1
102
RTVSPropertyOp28
 70
     1
102
RTVSPropertyOp29
 70
     1
102
RTVSPropertyOp30
 70
     1
102
RTVSPropertyOp31
 70
     1
102
RTVSPropertyOp32
 70
     1
  0
XRECORD
  5
E0D
102
{ACAD_REACTORS
330
E0C
102
}
330
E0C
100
AcDbXrecord
280
     1
102
RTVSPropertyOp0
 70
     1
102
RTVSPropertyOp1
 70
     1
102
RTVSPropertyOp2
 70
     1
102
RTVSPropertyOp3
 70
     1
102
RTVSPropertyOp4
 70
     1
102
RTVSPropertyOp5
 70
     1
102
RTVSPropertyOp6
 70
     1
102
RTVSPropertyOp7
 70
     1
102
RTVSPropertyOp8
 70
     1
102
RTVSPropertyOp9
 70
     1
102
RTVSPropertyOp10
 70
     1
102
RTVSPropertyOp11
 70
     1
102
RTVSPropertyOp12
 70
     1
102
RTVSPropertyOp13
 70
     1
102
RTVSPropertyOp14
 70
     1
102
RTVSPropertyOp15
 70
     1
102
RTVSPropertyOp16
 70
     1
102
RTVSPropertyOp17
 70
     1
102
RTVSPropertyOp18
 70
     1
102
RTVSPropertyOp19
 70
     1
102
RTVSPropertyOp20
 70
     1
102
RTVSPropertyOp21
 70
     1
102
RTVSPropertyOp22
 70
     1
102
RTVSPropertyOp23
 70
     1
102
RTVSPropertyOp24
 70
     1
102
RTVSPropertyOp25
 70
     1
102
RTVSPropertyOp26
 70
     1
102
RTVSPropertyOp27
 70
     1
102
RTVSPropertyOp28
 70
     1
102
RTVSPropertyOp29
 70
     1
102
RTVSPropertyOp30
 70
     1
102
RTVSPropertyOp31
 70
     1
102
RTVSPropertyOp32
 70
     1
  0
XRECORD
  5
E0F
102
{ACAD_REACTORS
330
E0E
102
}
330
E0E
100
AcDbXrecord
280
     1
102
RTVSPropertyOp0
 70
     1
102
RTVSPropertyOp1
 70
     1
102
RTVSPropertyOp2
 70
     1
102
RTVSPropertyOp3
 70
     1
102
RTVSPropertyOp4
 70
     1
102
RTVSPropertyOp5
 70
     1
102
RTVSPropertyOp6
 70
     1
102
RTVSPropertyOp7
 70
     1
102
RTVSPropertyOp8
 70
     1
102
RTVSPropertyOp9
 70
     1
102
RTVSPropertyOp10
 70
     1
102
RTVSPropertyOp11
 70
     1
102
RTVSPropertyOp12
 70
     1
102
RTVSPropertyOp13
 70
     1
102
RTVSPropertyOp14
 70
     1
102
RTVSPropertyOp15
 70
     1
102
RTVSPropertyOp16
 70
     1
102
RTVSPropertyOp17
 70
     1
102
RTVSPropertyOp18
 70
     1
102
RTVSPropertyOp19
 70
     1
102
RTVSPropertyOp20
 70
     1
102
RTVSPropertyOp21
 70
     1
102
RTVSPropertyOp22
 70
     1
102
RTVSPropertyOp23
 70
     1
102
RTVSPropertyOp24
 70
     1
102
RTVSPropertyOp25
 70
     1
102
RTVSPropertyOp26
 70
     1
102
RTVSPropertyOp27
 70
     1
102
RTVSPropertyOp28
 70
     1
102
RTVSPropertyOp29
 70
     1
102
RTVSPropertyOp30
 70
     1
102
RTVSPropertyOp31
 70
     1
102
RTVSPropertyOp32
 70
     1
  0
XRECORD
  5
E05
102
{ACAD_REACTORS
330
E04
102
}
330
E04
100
AcDbXrecord
280
     1
102
RTVSPropertyOp0
 70
     1
102
RTVSPropertyOp1
 70
     1
102
RTVSPropertyOp2
 70
     1
102
RTVSPropertyOp3
 70
     1
102
RTVSPropertyOp4
 70
     1
102
RTVSPropertyOp5
 70
     1
102
RTVSPropertyOp6
 70
     1
102
RTVSPropertyOp7
 70
     1
102
RTVSPropertyOp8
 70
     1
102
RTVSPropertyOp9
 70
     1
102
RTVSPropertyOp10
 70
     1
102
RTVSPropertyOp11
 70
     1
102
RTVSPropertyOp12
 70
     1
102
RTVSPropertyOp13
 70
     1
102
RTVSPropertyOp14
 70
     1
102
RTVSPropertyOp15
 70
     1
102
RTVSPropertyOp16
 70
     1
102
RTVSPropertyOp17
 70
     1
102
RTVSPropertyOp18
 70
     1
102
RTVSPropertyOp19
 70
     1
102
RTVSPropertyOp20
 70
     1
102
RTVSPropertyOp21
 70
     1
102
RTVSPropertyOp22
 70
     1
102
RTVSPropertyOp23
 70
     1
102
RTVSPropertyOp24
 70
     1
102
RTVSPropertyOp25
 70
     1
102
RTVSPropertyOp26
 70
     1
102
RTVSPropertyOp27
 70
     1
102
RTVSPropertyOp28
 70
     1
102
RTVSPropertyOp29
 70
     1
102
RTVSPropertyOp30
 70
     1
102
RTVSPropertyOp31
 70
     1
102
RTVSPropertyOp32
 70
     1
  0
XRECORD
  5
DF9
102
{ACAD_REACTORS
330
DF8
102
}
330
DF8
100
AcDbXrecord
280
     1
102
RTVSPropertyOp0
 70
     1
102
RTVSPropertyOp1
 70
     1
102
RTVSPropertyOp2
 70
     1
102
RTVSPropertyOp3
 70
     1
102
RTVSPropertyOp4
 70
     1
102
RTVSPropertyOp5
 70
     1
102
RTVSPropertyOp6
 70
     1
102
RTVSPropertyOp7
 70
     1
102
RTVSPropertyOp8
 70
     1
102
RTVSPropertyOp9
 70
     1
102
RTVSPropertyOp10
 70
     1
102
RTVSPropertyOp11
 70
     1
102
RTVSPropertyOp12
 70
     1
102
RTVSPropertyOp13
 70
     1
102
RTVSPropertyOp14
 70
     1
102
RTVSPropertyOp15
 70
     1
102
RTVSPropertyOp16
 70
     1
102
RTVSPropertyOp17
 70
     1
102
RTVSPropertyOp18
 70
     1
102
RTVSPropertyOp19
 70
     1
102
RTVSPropertyOp20
 70
     1
102
RTVSPropertyOp21
 70
     1
102
RTVSPropertyOp22
 70
     1
102
RTVSPropertyOp23
 70
     1
102
RTVSPropertyOp24
 70
     1
102
RTVSPropertyOp25
 70
     1
102
RTVSPropertyOp26
 70
     1
102
RTVSPropertyOp27
 70
     1
102
RTVSPropertyOp28
 70
     1
102
RTVSPropertyOp29
 70
     1
102
RTVSPropertyOp30
 70
     1
102
RTVSPropertyOp31
 70
     1
102
RTVSPropertyOp32
 70
     1
  0
XRECORD
  5
E11
102
{ACAD_REACTORS
330
E10
102
}
330
E10
100
AcDbXrecord
280
     1
102
RTVSPropertyOp0
 70
     1
102
RTVSPropertyOp1
 70
     1
102
RTVSPropertyOp2
 70
     1
102
RTVSPropertyOp3
 70
     1
102
RTVSPropertyOp4
 70
     1
102
RTVSPropertyOp5
 70
     1
102
RTVSPropertyOp6
 70
     1
102
RTVSPropertyOp7
 70
     1
102
RTVSPropertyOp8
 70
     1
102
RTVSPropertyOp9
 70
     1
102
RTVSPropertyOp10
 70
     1
102
RTVSPropertyOp11
 70
     1
102
RTVSPropertyOp12
 70
     1
102
RTVSPropertyOp13
 70
     1
102
RTVSPropertyOp14
 70
     1
102
RTVSPropertyOp15
 70
     1
102
RTVSPropertyOp16
 70
     1
102
RTVSPropertyOp17
 70
     1
102
RTVSPropertyOp18
 70
     1
102
RTVSPropertyOp19
 70
     1
102
RTVSPropertyOp20
 70
     1
102
RTVSPropertyOp21
 70
     1
102
RTVSPropertyOp22
 70
     1
102
RTVSPropertyOp23
 70
     1
102
RTVSPropertyOp24
 70
     1
102
RTVSPropertyOp25
 70
     1
102
RTVSPropertyOp26
 70
     1
102
RTVSPropertyOp27
 70
     1
102
RTVSPropertyOp28
 70
     1
102
RTVSPropertyOp29
 70
     1
102
RTVSPropertyOp30
 70
     1
102
RTVSPropertyOp31
 70
     1
102
RTVSPropertyOp32
 70
     1
  0
ENDSEC
  0
EOF
