  0
SECTION
  2
HEADER
  9
$ACADVER
  1
AC1015
  9
$ACADMAINTVER
 70
    18
  9
$DWGCODEPAGE
  3
ANSI_1252
  9
$INSBASE
 10
0.0
 20
0.0
 30
0.0
  9
$EXTMIN
 10
0.0
 20
0.0
 30
0.0
  9
$EXTMAX
 10
113.3333333333333
 20
73.33333333333334
 30
0.0
  9
$LIMMIN
 10
0.0
 20
0.0
  9
$LIMMAX
 10
113.3333333333333
 20
73.33333333333334
  9
$ORTHOMODE
 70
     0
  9
$REGENMODE
 70
     1
  9
$FILLMODE
 70
     1
  9
$QTEXTMODE
 70
     0
  9
$MIRRTEXT
 70
     0
  9
$LTSCALE
 40
6.666666666666666
  9
$ATTMODE
 70
     1
  9
$TEXTSIZE
 40
0.2
  9
$TRACEWID
 40
0.05
  9
$TEXTSTYLE
  7
Standard
  9
$CLAYER
  8
0
  9
$CELTYPE
  6
ByLayer
  9
$CECOLOR
 62
   256
  9
$CELTSCALE
 40
1.0
  9
$DISPSILH
 70
     0
  9
$DIMSCALE
 40
1.0
  9
$DIMASZ
 40
0.0708661417322835
  9
$DIMEXO
 40
0.0625
  9
$DIMDLI
 40
0.38
  9
$DIMRND
 40
0.0
  9
$DIMDLE
 40
0.0
  9
$DIMEXE
 40
0.18
  9
$DIMTP
 40
0.0
  9
$DIMTM
 40
0.0
  9
$DIMTXT
 40
0.0708661417322835
  9
$DIMCEN
 40
0.09
  9
$DIMTSZ
 40
0.0
  9
$DIMTOL
 70
     0
  9
$DIMLIM
 70
     0
  9
$DIMTIH
 70
     1
  9
$DIMTOH
 70
     1
  9
$DIMSE1
 70
     0
  9
$DIMSE2
 70
     0
  9
$DIMTAD
 70
     0
  9
$DIMZIN
 70
     0
  9
$DIMBLK
  1

  9
$DIMASO
 70
     1
  9
$DIMSHO
 70
     1
  9
$DIMPOST
  1

  9
$DIMAPOST
  1

  9
$DIMALT
 70
     0
  9
$DIMALTD
 70
     2
  9
$DIMALTF
 40
25.4
  9
$DIMLFAC
 40
1.0
  9
$DIMTOFL
 70
     0
  9
$DIMTVP
 40
0.0
  9
$DIMTIX
 70
     0
  9
$DIMSOXD
 70
     0
  9
$DIMSAH
 70
     0
  9
$DIMBLK1
  1

  9
$DIMBLK2
  1

  9
$DIMSTYLE
  2
Standard
  9
$DIMCLRD
 70
     0
  9
$DIMCLRE
 70
     0
  9
$DIMCLRT
 70
     0
  9
$DIMTFAC
 40
1.0
  9
$DIMGAP
 40
0.09
  9
$DIMJUST
 70
     0
  9
$DIMSD1
 70
     0
  9
$DIMSD2
 70
     0
  9
$DIMTOLJ
 70
     1
  9
$DIMTZIN
 70
     0
  9
$DIMALTZ
 70
     0
  9
$DIMALTTZ
 70
     0
  9
$DIMUPT
 70
     0
  9
$DIMDEC
 70
     4
  9
$DIMTDEC
 70
     4
  9
$DIMALTU
 70
     2
  9
$DIMALTTD
 70
     2
  9
$DIMTXSTY
  7
Standard
  9
$DIMAUNIT
 70
     0
  9
$DIMADEC
 70
     0
  9
$DIMALTRND
 40
0.0
  9
$DIMAZIN
 70
     0
  9
$DIMDSEP
 70
    46
  9
$DIMATFIT
 70
     3
  9
$DIMFRAC
 70
     0
  9
$DIMLDRBLK
  1

  9
$DIMLUNIT
 70
     2
  9
$DIMLWD
 70
    -2
  9
$DIMLWE
 70
    -2
  9
$DIMTMOVE
 70
     0
  9
$LUNITS
 70
     2
  9
$LUPREC
 70
     4
  9
$SKETCHINC
 40
0.1
  9
$FILLETRAD
 40
0.0
  9
$AUNITS
 70
     0
  9
$AUPREC
 70
     0
  9
$MENU
  1
.
  9
$ELEVATION
 40
0.0
  9
$PELEVATION
 40
0.0
  9
$THICKNESS
 40
0.0
  9
$LIMCHECK
 70
     0
  9
$CHAMFERA
 40
0.0
  9
$CHAMFERB
 40
0.0
  9
$CHAMFERC
 40
0.0
  9
$CHAMFERD
 40
0.0
  9
$SKPOLY
 70
     0
  9
$TDCREATE
 40
2455950.387205811
  9
$TDUCREATE
 40
2455950.637205810
  9
$TDUPDATE
 40
2455950.387205811
  9
$TDUUPDATE
 40
2455950.637205810
  9
$TDINDWG
 40
0.0000374421
  9
$TDUSRTIMER
 40
0.0000374421
  9
$USRTIMER
 70
     1
  9
$ANGBASE
 50
0.0
  9
$ANGDIR
 70
     0
  9
$PDMODE
 70
     0
  9
$PDSIZE
 40
0.0
  9
$PLINEWID
 40
0.0
  9
$SPLFRAME
 70
     0
  9
$SPLINETYPE
 70
     6
  9
$SPLINESEGS
 70
     8
  9
$HANDSEED
  5
F32
  9
$SURFTAB1
 70
     6
  9
$SURFTAB2
 70
     6
  9
$SURFTYPE
 70
     6
  9
$SURFU
 70
     6
  9
$SURFV
 70
     6
  9
$UCSBASE
  2

  9
$UCSNAME
  2

  9
$UCSORG
 10
0.0
 20
0.0
 30
0.0
  9
$UCSXDIR
 10
1.0
 20
0.0
 30
0.0
  9
$UCSYDIR
 10
0.0
 20
1.0
 30
0.0
  9
$UCSORTHOREF
  2

  9
$UCSORTHOVIEW
 70
     0
  9
$UCSORGTOP
 10
0.0
 20
0.0
 30
0.0
  9
$UCSORGBOTTOM
 10
0.0
 20
0.0
 30
0.0
  9
$UCSORGLEFT
 10
0.0
 20
0.0
 30
0.0
  9
$UCSORGRIGHT
 10
0.0
 20
0.0
 30
0.0
  9
$UCSORGFRONT
 10
0.0
 20
0.0
 30
0.0
  9
$UCSORGBACK
 10
0.0
 20
0.0
 30
0.0
  9
$PUCSBASE
  2

  9
$PUCSNAME
  2

  9
$PUCSORG
 10
0.0
 20
0.0
 30
0.0
  9
$PUCSXDIR
 10
1.0
 20
0.0
 30
0.0
  9
$PUCSYDIR
 10
0.0
 20
1.0
 30
0.0
  9
$PUCSORTHOREF
  2

  9
$PUCSORTHOVIEW
 70
     0
  9
$PUCSORGTOP
 10
0.0
 20
0.0
 30
0.0
  9
$PUCSORGBOTTOM
 10
0.0
 20
0.0
 30
0.0
  9
$PUCSORGLEFT
 10
0.0
 20
0.0
 30
0.0
  9
$PUCSORGRIGHT
 10
0.0
 20
0.0
 30
0.0
  9
$PUCSORGFRONT
 10
0.0
 20
0.0
 30
0.0
  9
$PUCSORGBACK
 10
0.0
 20
0.0
 30
0.0
  9
$USERI1
 70
     0
  9
$USERI2
 70
     0
  9
$USERI3
 70
     0
  9
$USERI4
 70
     0
  9
$USERI5
 70
     0
  9
$USERR1
 40
0.0
  9
$USERR2
 40
0.0
  9
$USERR3
 40
0.0
  9
$USERR4
 40
0.0
  9
$USERR5
 40
0.0
  9
$WORLDVIEW
 70
     1
  9
$SHADEDGE
 70
     3
  9
$SHADEDIF
 70
    70
  9
$TILEMODE
 70
     1
  9
$MAXACTVP
 70
    64
  9
$PINSBASE
 10
0.0
 20
0.0
 30
0.0
  9
$PLIMCHECK
 70
     0
  9
$PEXTMIN
 10
0.0
 20
0.0
 30
0.0
  9
$PEXTMAX
 10
113.3333333333333
 20
73.33333333333334
 30
0.0
  9
$PLIMMIN
 10
0.0
 20
0.0
  9
$PLIMMAX
 10
113.3333333333333
 20
73.33333333333334
  9
$UNITMODE
 70
     0
  9
$VISRETAIN
 70
     1
  9
$PLINEGEN
 70
     0
  9
$PSLTSCALE
 70
     1
  9
$TREEDEPTH
 70
  3020
  9
$CMLSTYLE
  2
Standard
  9
$CMLJUST
 70
     0
  9
$CMLSCALE
 40
1.0
  9
$PROXYGRAPHICS
 70
     1
  9
$MEASUREMENT
 70
     0
  9
$CELWEIGHT
370
    -1
  9
$ENDCAPS
280
     0
  9
$JOINSTYLE
280
     0
  9
$LWDISPLAY
290
     0
  9
$INSUNITS
 70
     1
  9
$HYPERLINKBASE
  1

  9
$STYLESHEET
  1

  9
$XEDIT
290
     1
  9
$CEPSNTYPE
380
     0
  9
$PSTYLEMODE
290
     1
  9
$FINGERPRINTGUID
  2
{6E9FEE87-7656-4CD3-8BB4-0CEC3C8F8AF2}
  9
$VERSIONGUID
  2
{C840AC16-5E53-422E-9FFC-A7AA1E4900C6}
  9
$EXTNAMES
290
     1
  9
$PSVPSCALE
 40
0.0
  9
$OLESTARTUP
290
     0
  0
ENDSEC
  0
SECTION
  2
CLASSES
  0
CLASS
  1
ACDBDICTIONARYWDFLT
  2
AcDbDictionaryWithDefault
  3
ObjectDBX Classes
 90
        0
280
     0
281
     0
  0
CLASS
  1
MATERIAL
  2
AcDbMaterial
  3
ObjectDBX Classes
 90
     1153
280
     0
281
     0
  0
CLASS
  1
VISUALSTYLE
  2
AcDbVisualStyle
  3
ObjectDBX Classes
 90
     4095
280
     0
281
     0
  0
CLASS
  1
SCALE
  2
AcDbScale
  3
ObjectDBX Classes
 90
     1153
280
     0
281
     0
  0
CLASS
  1
TABLESTYLE
  2
AcDbTableStyle
  3
ObjectDBX Classes
 90
     4095
280
     0
281
     0
  0
CLASS
  1
MLEADERSTYLE
  2
AcDbMLeaderStyle
  3
ACDB_MLEADERSTYLE_CLASS
 90
     4095
280
     0
281
     0
  0
CLASS
  1
DICTIONARYVAR
  2
AcDbDictionaryVar
  3
ObjectDBX Classes
 90
        0
280
     0
281
     0
  0
CLASS
  1
CELLSTYLEMAP
  2
AcDbCellStyleMap
  3
ObjectDBX Classes
 90
     1152
280
     0
281
     0
  0
CLASS
  1
ACDBPLACEHOLDER
  2
AcDbPlaceHolder
  3
ObjectDBX Classes
 90
        0
280
     0
281
     0
  0
CLASS
  1
LAYOUT
  2
AcDbLayout
  3
ObjectDBX Classes
 90
        0
280
     0
281
     0
  0
ENDSEC
  0
SECTION
  2
TABLES
  0
TABLE
  2
VPORT
  5
8
330
0
100
AcDbSymbolTable
 70
     1
  0
VPORT
  5
57
330
8
100
AcDbSymbolTableRecord
100
AcDbViewportTableRecord
  2
*Active
 70
     0
 10
0.0
 20
0.0
 11
1.0
 21
1.0
 12
56.66666666666667
 22
36.66666666666667
 13
0.0
 23
0.0
 14
1.0
 24
1.0
 15
0.0
 25
0.0
 16
0.0
 26
0.0
 36
1.0
 17
0.0
 27
0.0
 37
0.0
 40
73.33333333333334
 41
1.545454545454545
 42
50.0
 43
0.0
 44
0.0
 50
0.0
 51
0.0
 71
     0
 72
   100
 73
     1
 74
     1
 75
     0
 76
     0
 77
     0
 78
     0
281
     0
 65
     1
110
0.0
120
0.0
130
0.0
111
1.0
121
0.0
131
0.0
112
0.0
122
1.0
132
0.0
 79
     0
146
0.0
  0
ENDTAB
  0
TABLE
  2
LTYPE
  5
5
330
0
100
AcDbSymbolTable
 70
    59
  0
LTYPE
  5
5B
330
5
100
AcDbSymbolTableRecord
100
AcDbLinetypeTableRecord
  2
ByBlock
 70
     0
  3

 72
    65
 73
     0
 40
0.0
  0
LTYPE
  5
5C
330
5
100
AcDbSymbolTableRecord
100
AcDbLinetypeTableRecord
  2
ByLayer
 70
     0
  3

 72
    65
 73
     0
 40
0.0
  0
LTYPE
  5
5D
330
5
100
AcDbSymbolTableRecord
100
AcDbLinetypeTableRecord
  2
Continuous
 70
     0
  3
Solid line
 72
    65
 73
     0
 40
0.0
  0
LTYPE
  5
7C
330
5
100
AcDbSymbolTableRecord
100
AcDbLinetypeTableRecord
  2
BY_STANDARD
 70
     0
  3
By Standard ____________    ____    ____   _
 72
    65
 73
     6
 40
1.240299999999999
 49
0.6614
 74
     0
 49
-0.0827
 74
     0
 49
0.1654
 74
     0
 49
-0.0827
 74
     0
 49
0.1654
 74
     0
 49
-0.0827
 74
     0
  0
LTYPE
  5
7D
330
5
100
AcDbSymbolTableRecord
100
AcDbLinetypeTableRecord
  2
CHAIN
 70
     0
  3
Chain ____ _ ____ _ ____ _ ____ _ ____ _ ____
 72
    65
 73
     4
 40
0.7087
 49
0.4724000000000001
 74
     0
 49
-0.0591
 74
     0
 49
0.1181
 74
     0
 49
-0.0591
 74
     0
  0
LTYPE
  5
7E
330
5
100
AcDbSymbolTableRecord
100
AcDbLinetypeTableRecord
  2
DASH_DOT
 70
     0
  3
Dash dot __ . __ . __ . __ . __ . __ . __ . __
 72
    65
 73
     4
 40
0.37
 49
0.24
 74
     0
 49
-0.06
 74
     0
 49
0.01
 74
     0
 49
-0.06
 74
     0
  0
LTYPE
  5
7F
330
5
100
AcDbSymbolTableRecord
100
AcDbLinetypeTableRecord
  2
DOUBLE_DASH_DOT
 70
     0
  3
Double-Dash Dot __ __ . __ __ . __ __ . __ _
 72
    65
 73
     6
 40
0.4398
 49
0.24
 74
     0
 49
-0.06
 74
     0
 49
0.0098
 74
     0
 49
-0.06
 74
     0
 49
0.01
 74
     0
 49
-0.06
 74
     0
  0
LTYPE
  5
80
330
5
100
AcDbSymbolTableRecord
100
AcDbLinetypeTableRecord
  2
DASH_TRIPLE_DOT
 70
     0
  3
Dash Triple-Dot _ . . . _ . . . _ . . . _
 72
    65
 73
     8
 40
0.51
 49
0.24
 74
     0
 49
-0.06
 74
     0
 49
0.01
 74
     0
 49
-0.06
 74
     0
 49
0.01
 74
     0
 49
-0.06
 74
     0
 49
0.01
 74
     0
 49
-0.06
 74
     0
  0
LTYPE
  5
81
330
5
100
AcDbSymbolTableRecord
100
AcDbLinetypeTableRecord
  2
DASHED
 70
     0
  3
Dashed __ __ __ __ __ __ __ __ __ __ __ __ __ _
 72
    65
 73
     2
 40
0.2067
 49
0.1654
 74
     0
 49
-0.0413
 74
     0
  0
LTYPE
  5
82
330
5
100
AcDbSymbolTableRecord
100
AcDbLinetypeTableRecord
  2
DASH_DOUBLE_DOT
 70
     0
  3
Dash Double-Dot __ . . __ . . __ . . __ . .
 72
    65
 73
     6
 40
0.4398
 49
0.24
 74
     0
 49
-0.06
 74
     0
 49
0.0098
 74
     0
 49
-0.06
 74
     0
 49
0.01
 74
     0
 49
-0.06
 74
     0
  0
LTYPE
  5
83
330
5
100
AcDbSymbolTableRecord
100
AcDbLinetypeTableRecord
  2
DASHED_SPACE
 70
     0
  3
Dashed Space __ __ __ __ __ __ __ __ __ __ __ _
 72
    65
 73
     2
 40
0.2067
 49
0.1654
 74
     0
 49
-0.0413
 74
     0
  0
LTYPE
  5
84
330
5
100
AcDbSymbolTableRecord
100
AcDbLinetypeTableRecord
  2
DOTTED
 70
     0
  3
Dotted . . . . . . . . . . . . . . . . . . . . 
 72
    65
 73
     2
 40
0.0482
 49
0.0069
 74
     0
 49
-0.0413
 74
     0
  0
LTYPE
  5
85
330
5
100
AcDbSymbolTableRecord
100
AcDbLinetypeTableRecord
  2
DOUBLE_DASH_CHAIN
 70
     0
  3
Double-Dash Chain ______  __  __  ______  __  _
 72
    65
 73
     6
 40
1.240299999999999
 49
0.6614
 74
     0
 49
-0.0827
 74
     0
 49
0.1654
 74
     0
 49
-0.0827
 74
     0
 49
0.1654
 74
     0
 49
-0.0827
 74
     0
  0
LTYPE
  5
87
330
5
100
AcDbSymbolTableRecord
100
AcDbLinetypeTableRecord
  2
DOUBLE_DASH_DOUBLE_DOT
 70
     0
  3
Double-Dash Double-dot _ _ . . _ _ . . _
 72
    65
 73
     8
 40
0.7400000000000001
 49
0.24
 74
     0
 49
-0.06
 74
     0
 49
0.24
 74
     0
 49
-0.06
 74
     0
 49
0.01
 74
     0
 49
-0.06
 74
     0
 49
0.01
 74
     0
 49
-0.06
 74
     0
  0
LTYPE
  5
88
330
5
100
AcDbSymbolTableRecord
100
AcDbLinetypeTableRecord
  2
DOUBLE_DASH_TRIPLE_DOT
 70
     0
  3
Double Dash Triple Dot __ __ . . . __ __ . .
 72
    65
 73
    10
 40
0.8100000000000001
 49
0.24
 74
     0
 49
-0.06
 74
     0
 49
0.24
 74
     0
 49
-0.06
 74
     0
 49
0.01
 74
     0
 49
-0.06
 74
     0
 49
0.01
 74
     0
 49
-0.06
 74
     0
 49
0.01
 74
     0
 49
-0.06
 74
     0
  0
LTYPE
  5
89
330
5
100
AcDbSymbolTableRecord
100
AcDbLinetypeTableRecord
  2
LONG_DASH_DOTTED
 70
     0
  3
Long Dash Dotted ____ . ____ . ____ . ____ . _
 72
    65
 73
     4
 40
0.3543
 49
0.2362
 74
     0
 49
-0.0295
 74
     0
 49
0.0591
 74
     0
 49
-0.0295
 74
     0
  0
LTYPE
  5
8A
330
5
100
AcDbSymbolTableRecord
100
AcDbLinetypeTableRecord
  2
LONG_DASH_DOUBLE_DOT
 70
     0
  3
Long Dash Double Dot ________  .  .  ________  
 72
    65
 73
     6
 40
0.6799999999999999
 49
0.48
 74
     0
 49
-0.06
 74
     0
 49
0.01
 74
     0
 49
-0.06
 74
     0
 49
0.01
 74
     0
 49
-0.06
 74
     0
  0
LTYPE
  5
8B
330
5
100
AcDbSymbolTableRecord
100
AcDbLinetypeTableRecord
  2
LONG_DASH_TRIPLE_DOT
 70
     0
  3
Long Dash Triple Dot ____ ... ____ ... ____
 72
    65
 73
     8
 40
0.3689
 49
0.2362
 74
     0
 49
-0.0295
 74
     0
 49
0.0049
 74
     0
 49
-0.0295
 74
     0
 49
0.0049
 74
     0
 49
-0.0295
 74
     0
 49
0.0049
 74
     0
 49
-0.0295
 74
     0
  0
LTYPE
  5
8C
330
5
100
AcDbSymbolTableRecord
100
AcDbLinetypeTableRecord
  2
BORDER
 70
     0
  3
Border __ __ . __ __ . __ __ . __ __ . __ __ .
 72
    65
 73
     6
 40
1.75
 49
0.5
 74
     0
 49
-0.25
 74
     0
 49
0.5
 74
     0
 49
-0.25
 74
     0
 49
0.0
 74
     0
 49
-0.25
 74
     0
  0
LTYPE
  5
8D
330
5
100
AcDbSymbolTableRecord
100
AcDbLinetypeTableRecord
  2
BORDER2
 70
     0
  3
Border (.5x) __.__.__.__.__.__.__.__.__.__.__.
 72
    65
 73
     6
 40
0.875
 49
0.25
 74
     0
 49
-0.125
 74
     0
 49
0.25
 74
     0
 49
-0.125
 74
     0
 49
0.0
 74
     0
 49
-0.125
 74
     0
  0
LTYPE
  5
8E
330
5
100
AcDbSymbolTableRecord
100
AcDbLinetypeTableRecord
  2
BORDERX2
 70
     0
  3
Border (2x) ____  ____  .  ____  ____  .  ___
 72
    65
 73
     6
 40
3.5
 49
1.0
 74
     0
 49
-0.5
 74
     0
 49
1.0
 74
     0
 49
-0.5
 74
     0
 49
0.0
 74
     0
 49
-0.5
 74
     0
  0
LTYPE
  5
8F
330
5
100
AcDbSymbolTableRecord
100
AcDbLinetypeTableRecord
  2
CENTER
 70
     0
  3
Center ____ _ ____ _ ____ _ ____ _ ____ _ ____
 72
    65
 73
     4
 40
2.0
 49
1.25
 74
     0
 49
-0.25
 74
     0
 49
0.25
 74
     0
 49
-0.25
 74
     0
  0
LTYPE
  5
90
330
5
100
AcDbSymbolTableRecord
100
AcDbLinetypeTableRecord
  2
CENTER2
 70
     0
  3
Center (.5x) ___ _ ___ _ ___ _ ___ _ ___ _ ___
 72
    65
 73
     4
 40
1.125
 49
0.75
 74
     0
 49
-0.125
 74
     0
 49
0.125
 74
     0
 49
-0.125
 74
     0
  0
LTYPE
  5
91
330
5
100
AcDbSymbolTableRecord
100
AcDbLinetypeTableRecord
  2
CENTERX2
 70
     0
  3
Center (2x) ________  __  ________  __  _____
 72
    65
 73
     4
 40
4.0
 49
2.5
 74
     0
 49
-0.5
 74
     0
 49
0.5
 74
     0
 49
-0.5
 74
     0
  0
LTYPE
  5
92
330
5
100
AcDbSymbolTableRecord
100
AcDbLinetypeTableRecord
  2
DASHDOT2
 70
     0
  3
Dash dot (.5x) _._._._._._._._._._._._._._._.
 72
    65
 73
     4
 40
0.5
 49
0.25
 74
     0
 49
-0.125
 74
     0
 49
0.0
 74
     0
 49
-0.125
 74
     0
  0
LTYPE
  5
93
330
5
100
AcDbSymbolTableRecord
100
AcDbLinetypeTableRecord
  2
DASHDOTX2
 70
     0
  3
Dash dot (2x) ____  .  ____  .  ____  .  ___
 72
    65
 73
     4
 40
2.0
 49
1.0
 74
     0
 49
-0.5
 74
     0
 49
0.0
 74
     0
 49
-0.5
 74
     0
  0
LTYPE
  5
95
330
5
100
AcDbSymbolTableRecord
100
AcDbLinetypeTableRecord
  2
DASHED2
 70
     0
  3
Dashed (.5x) _ _ _ _ _ _ _ _ _ _ _ _ _ _ _ _ _
 72
    65
 73
     2
 40
0.375
 49
0.25
 74
     0
 49
-0.125
 74
     0
  0
LTYPE
  5
96
330
5
100
AcDbSymbolTableRecord
100
AcDbLinetypeTableRecord
  2
DASHEDX2
 70
     0
  3
Dashed (2x) ____  ____  ____  ____  ____  ___
 72
    65
 73
     2
 40
1.5
 49
1.0
 74
     0
 49
-0.5
 74
     0
  0
LTYPE
  5
97
330
5
100
AcDbSymbolTableRecord
100
AcDbLinetypeTableRecord
  2
DIVIDE
 70
     0
  3
Divide ____ . . ____ . . ____ . . ____ . . ____
 72
    65
 73
     6
 40
1.25
 49
0.5
 74
     0
 49
-0.25
 74
     0
 49
0.0
 74
     0
 49
-0.25
 74
     0
 49
0.0
 74
     0
 49
-0.25
 74
     0
  0
LTYPE
  5
98
330
5
100
AcDbSymbolTableRecord
100
AcDbLinetypeTableRecord
  2
DIVIDE2
 70
     0
  3
Divide (.5x) __..__..__..__..__..__..__..__.._
 72
    65
 73
     6
 40
0.625
 49
0.25
 74
     0
 49
-0.125
 74
     0
 49
0.0
 74
     0
 49
-0.125
 74
     0
 49
0.0
 74
     0
 49
-0.125
 74
     0
  0
LTYPE
  5
99
330
5
100
AcDbSymbolTableRecord
100
AcDbLinetypeTableRecord
  2
DIVIDEX2
 70
     0
  3
Divide (2x) ________  .  .  ________  .  .  _
 72
    65
 73
     6
 40
2.5
 49
1.0
 74
     0
 49
-0.5
 74
     0
 49
0.0
 74
     0
 49
-0.5
 74
     0
 49
0.0
 74
     0
 49
-0.5
 74
     0
  0
LTYPE
  5
9A
330
5
100
AcDbSymbolTableRecord
100
AcDbLinetypeTableRecord
  2
DOT
 70
     0
  3
Dot . . . . . . . . . . . . . . . . . . . . . .
 72
    65
 73
     2
 40
0.25
 49
0.0
 74
     0
 49
-0.25
 74
     0
  0
LTYPE
  5
9B
330
5
100
AcDbSymbolTableRecord
100
AcDbLinetypeTableRecord
  2
DOT2
 70
     0
  3
Dot (.5x) .....................................
 72
    65
 73
     2
 40
0.125
 49
0.0
 74
     0
 49
-0.125
 74
     0
  0
LTYPE
  5
9C
330
5
100
AcDbSymbolTableRecord
100
AcDbLinetypeTableRecord
  2
DOTX2
 70
     0
  3
Dot (2x) .  .  .  .  .  .  .  .  .  .  .  .  . 
 72
    65
 73
     2
 40
0.5
 49
0.0
 74
     0
 49
-0.5
 74
     0
  0
LTYPE
  5
9D
330
5
100
AcDbSymbolTableRecord
100
AcDbLinetypeTableRecord
  2
HIDDEN
 70
     0
  3
Hidden __ __ __ __ __ __ __ __ __ __ __ __ __ _
 72
    65
 73
     2
 40
0.375
 49
0.25
 74
     0
 49
-0.125
 74
     0
  0
LTYPE
  5
9E
330
5
100
AcDbSymbolTableRecord
100
AcDbLinetypeTableRecord
  2
HIDDEN2
 70
     0
  3
Hidden (.5x) _ _ _ _ _ _ _ _ _ _ _ _ _ _ _ _ _
 72
    65
 73
     2
 40
0.1875
 49
0.125
 74
     0
 49
-0.0625
 74
     0
  0
LTYPE
  5
9F
330
5
100
AcDbSymbolTableRecord
100
AcDbLinetypeTableRecord
  2
HIDDENX2
 70
     0
  3
Hidden (2x) ____ ____ ____ ____ ____ ____ ____
 72
    65
 73
     2
 40
0.75
 49
0.5
 74
     0
 49
-0.25
 74
     0
  0
LTYPE
  5
A0
330
5
100
AcDbSymbolTableRecord
100
AcDbLinetypeTableRecord
  2
PHANTOM
 70
     0
  3
Phantom ______  __  __  ______  __  __  ______
 72
    65
 73
     6
 40
2.5
 49
1.25
 74
     0
 49
-0.25
 74
     0
 49
0.25
 74
     0
 49
-0.25
 74
     0
 49
0.25
 74
     0
 49
-0.25
 74
     0
  0
LTYPE
  5
A1
330
5
100
AcDbSymbolTableRecord
100
AcDbLinetypeTableRecord
  2
PHANTOM2
 70
     0
  3
Phantom (.5x) ___ _ _ ___ _ _ ___ _ _ ___ _ _
 72
    65
 73
     6
 40
1.25
 49
0.625
 74
     0
 49
-0.125
 74
     0
 49
0.125
 74
     0
 49
-0.125
 74
     0
 49
0.125
 74
     0
 49
-0.125
 74
     0
  0
LTYPE
  5
A2
330
5
100
AcDbSymbolTableRecord
100
AcDbLinetypeTableRecord
  2
PHANTOMX2
 70
     0
  3
Phantom (2x) ____________    ____    ____   _
 72
    65
 73
     6
 40
5.0
 49
2.5
 74
     0
 49
-0.5
 74
     0
 49
0.5
 74
     0
 49
-0.5
 74
     0
 49
0.5
 74
     0
 49
-0.5
 74
     0
  0
LTYPE
  5
A3
330
5
100
AcDbSymbolTableRecord
100
AcDbLinetypeTableRecord
  2
ACAD_ISO02W100
 70
     0
  3
ISO dash __ __ __ __ __ __ __ __ __ __ __ __ __
 72
    65
 73
     2
 40
0.59
 49
0.47
 74
     0
 49
-0.12
 74
     0
  0
LTYPE
  5
A4
330
5
100
AcDbSymbolTableRecord
100
AcDbLinetypeTableRecord
  2
ACAD_ISO03W100
 70
     0
  3
ISO dash space __    __    __    __    __    __
 72
    65
 73
     2
 40
1.179999999999999
 49
0.47
 74
     0
 49
-0.71
 74
     0
  0
LTYPE
  5
A5
330
5
100
AcDbSymbolTableRecord
100
AcDbLinetypeTableRecord
  2
ACAD_ISO04W100
 70
     0
  3
ISO long-dash dot ____ . ____ . ____ . ____ . _
 72
    65
 73
     4
 40
1.179999999999999
 49
0.9399999999999998
 74
     0
 49
-0.12
 74
     0
 49
0.0
 74
     0
 49
-0.12
 74
     0
  0
LTYPE
  5
A6
330
5
100
AcDbSymbolTableRecord
100
AcDbLinetypeTableRecord
  2
ACAD_ISO05W100
 70
     0
  3
ISO long-dash double-dot ____ .. ____ .. ____ .
 72
    65
 73
     6
 40
1.299999999999999
 49
0.9399999999999998
 74
     0
 49
-0.12
 74
     0
 49
0.0
 74
     0
 49
-0.12
 74
     0
 49
0.0
 74
     0
 49
-0.12
 74
     0
  0
LTYPE
  5
A7
330
5
100
AcDbSymbolTableRecord
100
AcDbLinetypeTableRecord
  2
ACAD_ISO06W100
 70
     0
  3
ISO long-dash triple-dot ____ ... ____ ... ____
 72
    65
 73
     8
 40
1.419999999999999
 49
0.9399999999999998
 74
     0
 49
-0.12
 74
     0
 49
0.0
 74
     0
 49
-0.12
 74
     0
 49
0.0
 74
     0
 49
-0.12
 74
     0
 49
0.0
 74
     0
 49
-0.12
 74
     0
  0
LTYPE
  5
A8
330
5
100
AcDbSymbolTableRecord
100
AcDbLinetypeTableRecord
  2
ACAD_ISO07W100
 70
     0
  3
ISO dot . . . . . . . . . . . . . . . . . . . .
 72
    65
 73
     2
 40
0.12
 49
0.0
 74
     0
 49
-0.12
 74
     0
  0
LTYPE
  5
A9
330
5
100
AcDbSymbolTableRecord
100
AcDbLinetypeTableRecord
  2
ACAD_ISO08W100
 70
     0
  3
ISO long-dash short-dash ____ __ ____ __ ____ _
 72
    65
 73
     4
 40
0.95
 49
0.47
 74
     0
 49
-0.12
 74
     0
 49
0.24
 74
     0
 49
-0.12
 74
     0
  0
LTYPE
  5
AA
330
5
100
AcDbSymbolTableRecord
100
AcDbLinetypeTableRecord
  2
ACAD_ISO09W100
 70
     0
  3
ISO long-dash double-short-dash ____ __ __ ____
 72
    65
 73
     6
 40
1.31
 49
0.47
 74
     0
 49
-0.12
 74
     0
 49
0.24
 74
     0
 49
-0.12
 74
     0
 49
0.24
 74
     0
 49
-0.12
 74
     0
  0
LTYPE
  5
AB
330
5
100
AcDbSymbolTableRecord
100
AcDbLinetypeTableRecord
  2
ACAD_ISO10W100
 70
     0
  3
ISO dash dot __ . __ . __ . __ . __ . __ . __ .
 72
    65
 73
     4
 40
0.71
 49
0.47
 74
     0
 49
-0.12
 74
     0
 49
0.0
 74
     0
 49
-0.12
 74
     0
  0
LTYPE
  5
AC
330
5
100
AcDbSymbolTableRecord
100
AcDbLinetypeTableRecord
  2
ACAD_ISO11W100
 70
     0
  3
ISO double-dash dot __ __ . __ __ . __ __ . __ 
 72
    65
 73
     6
 40
1.299999999999999
 49
0.47
 74
     0
 49
-0.12
 74
     0
 49
0.47
 74
     0
 49
-0.12
 74
     0
 49
0.0
 74
     0
 49
-0.12
 74
     0
  0
LTYPE
  5
AD
330
5
100
AcDbSymbolTableRecord
100
AcDbLinetypeTableRecord
  2
ACAD_ISO12W100
 70
     0
  3
ISO dash double-dot __ . . __ . . __ . . __ . .
 72
    65
 73
     6
 40
0.8299999999999998
 49
0.47
 74
     0
 49
-0.12
 74
     0
 49
0.0
 74
     0
 49
-0.12
 74
     0
 49
0.0
 74
     0
 49
-0.12
 74
     0
  0
LTYPE
  5
AE
330
5
100
AcDbSymbolTableRecord
100
AcDbLinetypeTableRecord
  2
ACAD_ISO13W100
 70
     0
  3
ISO double-dash double-dot __ __ . . __ __ . . 
 72
    65
 73
     8
 40
1.419999999999999
 49
0.47
 74
     0
 49
-0.12
 74
     0
 49
0.47
 74
     0
 49
-0.12
 74
     0
 49
0.0
 74
     0
 49
-0.12
 74
     0
 49
0.0
 74
     0
 49
-0.12
 74
     0
  0
LTYPE
  5
AF
330
5
100
AcDbSymbolTableRecord
100
AcDbLinetypeTableRecord
  2
ACAD_ISO14W100
 70
     0
  3
ISO dash triple-dot __ . . . __ . . . __ . . . 
 72
    65
 73
     8
 40
0.95
 49
0.47
 74
     0
 49
-0.12
 74
     0
 49
0.0
 74
     0
 49
-0.12
 74
     0
 49
0.0
 74
     0
 49
-0.12
 74
     0
 49
0.0
 74
     0
 49
-0.12
 74
     0
  0
LTYPE
  5
B0
330
5
100
AcDbSymbolTableRecord
100
AcDbLinetypeTableRecord
  2
ACAD_ISO15W100
 70
     0
  3
ISO double-dash triple-dot __ __ . . . __ __ . 
 72
    65
 73
    10
 40
1.539999999999999
 49
0.47
 74
     0
 49
-0.12
 74
     0
 49
0.47
 74
     0
 49
-0.12
 74
     0
 49
0.0
 74
     0
 49
-0.12
 74
     0
 49
0.0
 74
     0
 49
-0.12
 74
     0
 49
0.0
 74
     0
 49
-0.12
 74
     0
  0
LTYPE
  5
B3
330
5
100
AcDbSymbolTableRecord
100
AcDbLinetypeTableRecord
  2
FENCELINE1
 70
     0
  3
Fenceline circle ----0-----0----0-----0----0---
 72
    65
 73
     4
 40
1.45
 49
0.25
 74
     0
 49
-0.1
 74
     4
 75
   133
340
B2
 46
0.1
 50
0.0
 44
-0.1
 45
0.0
 49
-0.1
 74
     0
 49
1.0
 74
     0
  0
LTYPE
  5
B4
330
5
100
AcDbSymbolTableRecord
100
AcDbLinetypeTableRecord
  2
FENCELINE2
 70
     0
  3
Fenceline square ----[]-----[]----[]-----[]----
 72
    65
 73
     4
 40
1.45
 49
0.25
 74
     0
 49
-0.1
 74
     4
 75
   132
340
B2
 46
0.1
 50
0.0
 44
-0.1
 45
0.0
 49
-0.1
 74
     0
 49
1.0
 74
     0
  0
LTYPE
  5
B5
330
5
100
AcDbSymbolTableRecord
100
AcDbLinetypeTableRecord
  2
TRACKS
 70
     0
  3
Tracks -|-|-|-|-|-|-|-|-|-|-|-|-|-|-|-|-|-|-|-|
 72
    65
 73
     2
 40
0.3
 49
0.15
 74
     4
 75
   130
340
B2
 46
0.25
 50
0.0
 44
0.0
 45
0.0
 49
0.15
 74
     0
  0
LTYPE
  5
B6
330
5
100
AcDbSymbolTableRecord
100
AcDbLinetypeTableRecord
  2
BATTING
 70
     0
  3
Batting SSSSSSSSSSSSSSSSSSSSSSSSSSSSSSSSSSSSSSS
 72
    65
 73
     4
 40
0.4001000000000001
 49
0.0001
 74
     0
 49
-0.1
 74
     4
 75
   134
340
B2
 46
0.1
 50
0.0
 44
-0.1
 45
0.0
 49
-0.2
 74
     4
 75
   134
340
B2
 46
0.1
 50
180.0
 44
0.1
 45
0.0
 49
-0.1
 74
     0
  0
LTYPE
  5
B7
330
5
100
AcDbSymbolTableRecord
100
AcDbLinetypeTableRecord
  2
HOT_WATER_SUPPLY
 70
     0
  3
Hot water supply ---- HW ---- HW ---- HW ----
 72
    65
 73
     3
 40
0.9
 49
0.5
 74
     0
 49
-0.2
 74
     2
 75
     0
340
55
 46
0.1
 50
0.0
 44
-0.1
 45
-0.05
  9
HW
 49
-0.2
 74
     0
  0
LTYPE
  5
B8
330
5
100
AcDbSymbolTableRecord
100
AcDbLinetypeTableRecord
  2
GAS_LINE
 70
     0
  3
Gas line ----GAS----GAS----GAS----GAS----GAS---
 72
    65
 73
     3
 40
0.95
 49
0.5
 74
     0
 49
-0.2
 74
     2
 75
     0
340
55
 46
0.1
 50
0.0
 44
-0.1
 45
-0.05
  9
GAS
 49
-0.25
 74
     0
  0
LTYPE
  5
B9
330
5
100
AcDbSymbolTableRecord
100
AcDbLinetypeTableRecord
  2
ZIGZAG
 70
     0
  3
Zig zag /\/\/\/\/\/\/\/\/\/\/\/\/\/\/\/\/\/\/\/
 72
    65
 73
     4
 40
0.8001000000000001
 49
0.0001
 74
     0
 49
-0.2
 74
     4
 75
   131
340
B2
 46
0.2
 50
0.0
 44
-0.2
 45
0.0
 49
-0.4
 74
     4
 75
   131
340
B2
 46
0.2
 50
180.0
 44
0.2
 45
0.0
 49
-0.2
 74
     0
  0
ENDTAB
  0
TABLE
  2
LAYER
  5
2
330
0
100
AcDbSymbolTable
 70
    27
  0
LAYER
  5
54
330
2
100
AcDbSymbolTableRecord
100
AcDbLayerTableRecord
  2
0
 70
     0
 62
     7
  6
Continuous
370
     0
390
F
  0
LAYER
  5
C0
330
2
100
AcDbSymbolTableRecord
100
AcDbLayerTableRecord
  2
Center Mark (ANSI)
 70
     0
 62
     7
  6
Continuous
370
     5
390
F
  0
LAYER
  5
C1
330
2
100
AcDbSymbolTableRecord
100
AcDbLayerTableRecord
  2
Centerline (ANSI)
 70
     0
 62
     7
  6
Continuous
370
     5
390
F
  0
LAYER
  5
C3
330
2
100
AcDbSymbolTableRecord
100
AcDbLayerTableRecord
  2
Dimension (ANSI)
 70
     0
 62
     7
  6
Continuous
370
     5
390
F
  0
LAYER
  5
C5
330
2
100
AcDbSymbolTableRecord
100
AcDbLayerTableRecord
  2
Hidden (ANSI)
 70
     0
 62
     7
  6
DASHED
370
     5
390
F
  0
LAYER
  5
CC
330
2
100
AcDbSymbolTableRecord
100
AcDbLayerTableRecord
  2
Symbol (ANSI)
 70
     0
 62
     7
  6
Continuous
370
     5
390
F
  0
LAYER
  5
CF
330
2
100
AcDbSymbolTableRecord
100
AcDbLayerTableRecord
  2
Visible (ANSI)
 70
     0
 62
     7
  6
Continuous
370
     5
390
F
  0
LAYER
  5
D0
330
2
100
AcDbSymbolTableRecord
100
AcDbLayerTableRecord
  2
Visible Narrow (ANSI)
 70
     0
 62
     7
  6
Continuous
370
     5
390
F
  0
LAYER
  5
1A4
330
2
100
AcDbSymbolTableRecord
100
AcDbLayerTableRecord
  2
Defpoints
 70
     0
 62
     7
  6
Continuous
290
     0
370
    -3
390
F
  0
ENDTAB
  0
TABLE
  2
STYLE
  5
3
330
0
100
AcDbSymbolTable
 70
    10
  0
STYLE
  5
55
330
3
100
AcDbSymbolTableRecord
100
AcDbTextStyleTableRecord
  2
Standard
 70
     0
 40
0.0
 41
1.0
 50
0.0
 71
     0
 42
0.2
  3
txt
  4

  0
STYLE
  5
5A
330
3
100
AcDbSymbolTableRecord
100
AcDbTextStyleTableRecord
  2
Annotative
 70
     0
 40
0.0
 41
1.0
 50
0.0
 71
     0
 42
0.2
  3
txt
  4

1001
AcadAnnotative
1000
AnnotativeData
1002
{
1070
     1
1070
     1
1002
}
  0
STYLE
  5
B2
330
3
100
AcDbSymbolTableRecord
100
AcDbTextStyleTableRecord
  2

 70
     1
 40
0.0
 41
1.0
 50
0.0
 71
     0
 42
0.2
  3
ltypeshp.shx
  4

  0
STYLE
  5
D4
330
3
100
AcDbSymbolTableRecord
100
AcDbTextStyleTableRecord
  2
ITALICC_120
 70
     0
 40
0.0
 41
1.0
 50
0.0
 71
     0
 42
0.2
  3
italicc.shx
  4

  0
STYLE
  5
D5
330
3
100
AcDbSymbolTableRecord
100
AcDbTextStyleTableRecord
  2
Label Text (ANSI)
 70
     0
 40
0.0
 41
1.0
 50
0.0
 71
     0
 42
0.2
  3
TAHOMA.TTF
  4

1001
ACAD
1000
Tahoma
1071
      256
  0
STYLE
  5
D6
330
3
100
AcDbSymbolTableRecord
100
AcDbTextStyleTableRecord
  2
Note Text (ANSI)
 70
     0
 40
0.0
 41
1.0
 50
0.0
 71
     0
 42
0.2
  3
RomanS.shx
  4

  0
STYLE
  5
D7
330
3
100
AcDbSymbolTableRecord
100
AcDbTextStyleTableRecord
  2
ROMANS
 70
     0
 40
0.0
 41
1.0
 50
0.0
 71
     0
 42
0.2
  3
romans.shx
  4

  0
STYLE
  5
D8
330
3
100
AcDbSymbolTableRecord
100
AcDbTextStyleTableRecord
  2
SANSSERIF_114
 70
     0
 40
0.0
 41
1.0
 50
0.0
 71
     0
 42
0.2
  3
TAHOMA.TTF
  4

1001
ACAD
1000
Tahoma
1071
      256
  0
STYLE
  5
D9
330
3
100
AcDbSymbolTableRecord
100
AcDbTextStyleTableRecord
  2
SANSSERIF_117
 70
     0
 40
0.0
 41
1.0
 50
0.0
 71
     0
 42
0.2
  3
TAHOMA.TTF
  4

1001
ACAD
1000
Tahoma
1071
      256
  0
STYLE
  5
12F
330
3
100
AcDbSymbolTableRecord
100
AcDbTextStyleTableRecord
  2
Text Style168
 70
     0
 40
0.0
 41
1.0
 50
0.0
 71
     0
 42
0.2
  3
TAHOMA.TTF
  4

1001
ACAD
1000
Tahoma
1071
      256
  0
ENDTAB
  0
TABLE
  2
VIEW
  5
6
330
0
100
AcDbSymbolTable
 70
     0
  0
ENDTAB
  0
TABLE
  2
UCS
  5
7
330
0
100
AcDbSymbolTable
 70
     0
  0
ENDTAB
  0
TABLE
  2
APPID
  5
9
330
0
100
AcDbSymbolTable
 70
     4
  0
APPID
  5
56
330
9
100
AcDbSymbolTableRecord
100
AcDbRegAppTableRecord
  2
ACAD
 70
     0
  0
APPID
  5
5E
330
9
100
AcDbSymbolTableRecord
100
AcDbRegAppTableRecord
  2
AcadAnnotative
 70
     0
  0
APPID
  5
80E
330
9
100
AcDbSymbolTableRecord
100
AcDbRegAppTableRecord
  2
ACAD_DSTYLE_DIMRADIAL_EXTENSION
 70
     0
  0
APPID
  5
F27
330
9
100
AcDbSymbolTableRecord
100
AcDbRegAppTableRecord
  2
ACAD_MLEADERVER
 70
     0
  0
ENDTAB
  0
TABLE
  2
DIMSTYLE
  5
A
330
0
100
AcDbSymbolTable
 70
    15
100
AcDbDimStyleTable
 71
     2
340
E2
340
58
  0
DIMSTYLE
105
58
330
A
100
AcDbSymbolTableRecord
100
AcDbDimStyleTableRecord
  2
Standard
 70
     0
340
55
  0
DIMSTYLE
105
59
330
A
100
AcDbSymbolTableRecord
100
AcDbDimStyleTableRecord
  2
Annotative
 70
     0
340
55
1001
AcadAnnotative
1000
AnnotativeData
1002
{
1070
     1
1070
     1
1002
}
  0
DIMSTYLE
105
DA
330
A
100
AcDbSymbolTableRecord
100
AcDbDimStyleTableRecord
  2
Architectural (ANSI)
 70
     0
 40
6.666666666666666
 41
0.0984251946210861
 43
0.2362204724409449
 44
0.125
 45
0.00000001
 46
0.3937007874015748
 78
     3
 79
     3
140
0.1000000014901161
146
1.200000029802321
147
0.031496062992126
171
     1
176
   256
177
   256
178
   256
272
     2
274
     1
276
     2
277
     4
284
    12
285
     4
286
    12
340
D6
371
    -1
372
    -1
  0
DIMSTYLE
105
DB
330
A
100
AcDbSymbolTableRecord
100
AcDbDimStyleTableRecord
  2
Architectural (ANSI)$7
 70
     0
 40
6.666666666666666
 41
0.0984251946210861
 43
0.2362204724409449
 44
0.125
 45
0.00000001
 46
0.3937007874015748
 78
     3
 79
     3
140
0.1000000014901161
146
1.200000029802321
147
0.031496062992126
171
     1
176
   256
177
   256
178
   256
272
     2
274
     1
276
     2
277
     4
284
    12
285
     4
286
    12
340
D6
371
    -1
372
    -1
  0
DIMSTYLE
105
DC
330
A
100
AcDbSymbolTableRecord
100
AcDbDimStyleTableRecord
  2
Default - Fraction (ANSI)
 70
     0
 40
6.666666666666666
 41
0.0984251946210861
 43
0.2362204724409449
 44
0.125
 45
0.00000001
 46
0.3937007874015748
 79
     3
140
0.1000000014901161
146
1.200000029802321
147
0.031496062992126
171
     1
176
   256
177
   256
178
   256
272
     2
274
     1
276
     2
277
     5
284
    12
285
     4
286
    12
340
D6
371
    -1
372
    -1
  0
DIMSTYLE
105
DD
330
A
100
AcDbSymbolTableRecord
100
AcDbDimStyleTableRecord
  2
Default - Fraction (ANSI)$7
 70
     0
 40
6.666666666666666
 41
0.0984251946210861
 43
0.2362204724409449
 44
0.125
 45
0.00000001
 46
0.3937007874015748
 79
     3
140
0.1000000014901161
146
1.200000029802321
147
0.031496062992126
171
     1
176
   256
177
   256
178
   256
272
     2
274
     1
276
     2
277
     5
284
    12
285
     4
286
    12
340
D6
371
    -1
372
    -1
  0
DIMSTYLE
105
DE
330
A
100
AcDbSymbolTableRecord
100
AcDbDimStyleTableRecord
  2
Default - mm (ANSI)
 70
     0
 40
6.666666666666666
 41
0.0984251946210861
 42
0.063
 43
0.2362204724409449
 44
0.125
 45
0.00000001
 46
0.3937007874015748
 73
     0
 78
     4
 79
     1
140
0.1000000014901161
143
1.0
144
25.4
146
1.200000029802321
147
0.031496062992126
171
     1
176
   256
177
   256
178
   256
179
     1
271
     2
272
     2
274
     1
284
     4
285
     4
340
D6
371
    -1
372
    -1
  0
DIMSTYLE
105
DF
330
A
100
AcDbSymbolTableRecord
100
AcDbDimStyleTableRecord
  2
Default - mm (ANSI)$7
 70
     0
 40
6.666666666666666
 41
0.0984251946210861
 42
0.063
 43
0.2362204724409449
 44
0.125
 45
0.00000001
 46
0.3937007874015748
 73
     0
 78
     4
 79
     1
140
0.1000000014901161
143
1.0
144
25.4
146
1.200000029802321
147
0.031496062992126
171
     1
176
   256
177
   256
178
   256
179
     1
271
     2
272
     2
274
     1
284
     4
285
     4
340
D6
371
    -1
372
    -1
  0
DIMSTYLE
105
E0
330
A
100
AcDbSymbolTableRecord
100
AcDbDimStyleTableRecord
  2
Default - mm [in] (ANSI)
 70
     0
  4
 in
 40
6.666666666666666
 41
0.0984251946210861
 42
0.063
 43
0.25
 44
0.125
 45
0.00000001
 46
0.3937007874015748
 73
     0
 78
     4
 79
     1
140
0.1000000014901161
143
0.03937
144
25.4
146
1.200000029802321
147
0.031496062992126
170
     1
171
     3
176
   256
177
   256
178
   256
179
     1
271
     2
272
     2
274
     3
284
     4
285
     4
286
     4
340
D6
371
    -1
372
    -1
  0
DIMSTYLE
105
E1
330
A
100
AcDbSymbolTableRecord
100
AcDbDimStyleTableRecord
  2
Default - mm [in] (ANSI)$7
 70
     0
  4
 in
 40
6.666666666666666
 41
0.0984251946210861
 42
0.063
 43
0.25
 44
0.125
 45
0.00000001
 46
0.3937007874015748
 73
     0
 78
     4
 79
     1
140
0.1000000014901161
143
0.03937
144
25.4
146
1.200000029802321
147
0.031496062992126
170
     1
171
     3
176
   256
177
   256
178
   256
179
     1
271
     2
272
     2
274
     3
284
     4
285
     4
286
     4
340
D6
371
    -1
372
    -1
  0
DIMSTYLE
105
E2
102
{ACAD_REACTORS
330
1A2
330
28F
330
379
330
477
330
561
330
65F
330
775
330
81F
330
8C8
330
9DE
330
AE5
330
BE3
330
CFB
330
DE3
102
}
330
A
100
AcDbSymbolTableRecord
100
AcDbDimStyleTableRecord
  2
Default (ANSI)
 70
     0
 40
6.666666666666666
 41
0.0984251946210861
 43
0.2362204724409449
 44
0.125
 45
0.00000001
 46
0.3937007874015748
140
0.1000000014901161
147
0.031496062992126
176
   256
177
   256
178
   256
271
     2
272
     2
340
D7
371
    -1
372
    -1
  0
DIMSTYLE
105
E3
330
A
100
AcDbSymbolTableRecord
100
AcDbDimStyleTableRecord
  2
Default (ANSI)$7
 70
     0
 40
6.666666666666666
 41
0.0984251946210861
 43
0.2362204724409449
 44
0.125
 45
0.00000001
 46
0.3937007874015748
140
0.1000000014901161
147
0.031496062992126
176
   256
177
   256
178
   256
271
     2
272
     2
340
D7
371
    -1
372
    -1
  0
DIMSTYLE
105
E4
330
A
100
AcDbSymbolTableRecord
100
AcDbDimStyleTableRecord
  2
Alternate (ANSI)
 70
     0
 40
6.666666666666666
 41
0.0979999974370003
340
55
342
E5
  0
DIMSTYLE
105
F7
330
A
100
AcDbSymbolTableRecord
100
AcDbDimStyleTableRecord
  2
Datum (ANSI)
 70
     0
 40
6.666666666666666
 41
0.0979999974370003
340
55
342
E5
  0
DIMSTYLE
105
106
330
A
100
AcDbSymbolTableRecord
100
AcDbDimStyleTableRecord
  2
Large (ANSI)
 70
     0
 40
6.666666666666666
 41
0.1959999948740005
340
55
342
E5
  0
ENDTAB
  0
TABLE
  2
BLOCK_RECORD
  5
1
330
0
100
AcDbSymbolTable
 70
    18
  0
BLOCK_RECORD
  5
6C
330
1
100
AcDbSymbolTableRecord
100
AcDbBlockTableRecord
  2
*Model_Space
340
6F
  0
BLOCK_RECORD
  5
68
330
1
100
AcDbSymbolTableRecord
100
AcDbBlockTableRecord
  2
*Paper_Space
340
6B
  0
BLOCK_RECORD
  5
70
330
1
100
AcDbSymbolTableRecord
100
AcDbBlockTableRecord
  2
*Paper_Space0
340
73
  0
BLOCK_RECORD
  5
E5
330
1
100
AcDbSymbolTableRecord
100
AcDbBlockTableRecord
  2
_Closed
340
0
  0
BLOCK_RECORD
  5
EC
330
1
100
AcDbSymbolTableRecord
100
AcDbBlockTableRecord
  2
DatumFilled45
340
0
  0
BLOCK_RECORD
  5
F8
330
1
100
AcDbSymbolTableRecord
100
AcDbBlockTableRecord
  2
Filled-1
340
0
  0
BLOCK_RECORD
  5
1A5
330
1
100
AcDbSymbolTableRecord
100
AcDbBlockTableRecord
  2
*D4
340
0
  0
BLOCK_RECORD
  5
290
330
1
100
AcDbSymbolTableRecord
100
AcDbBlockTableRecord
  2
*D5
340
0
  0
BLOCK_RECORD
  5
37A
330
1
100
AcDbSymbolTableRecord
100
AcDbBlockTableRecord
  2
*D6
340
0
  0
BLOCK_RECORD
  5
478
330
1
100
AcDbSymbolTableRecord
100
AcDbBlockTableRecord
  2
*D7
340
0
  0
BLOCK_RECORD
  5
562
330
1
100
AcDbSymbolTableRecord
100
AcDbBlockTableRecord
  2
*D8
340
0
  0
BLOCK_RECORD
  5
660
330
1
100
AcDbSymbolTableRecord
100
AcDbBlockTableRecord
  2
*D9
340
0
  0
BLOCK_RECORD
  5
776
330
1
100
AcDbSymbolTableRecord
100
AcDbBlockTableRecord
  2
*D10
340
0
  0
BLOCK_RECORD
  5
820
330
1
100
AcDbSymbolTableRecord
100
AcDbBlockTableRecord
  2
*D11
340
0
  0
BLOCK_RECORD
  5
8C9
330
1
100
AcDbSymbolTableRecord
100
AcDbBlockTableRecord
  2
*D12
340
0
  0
BLOCK_RECORD
  5
9DF
330
1
100
AcDbSymbolTableRecord
100
AcDbBlockTableRecord
  2
*D13
340
0
  0
BLOCK_RECORD
  5
AE6
330
1
100
AcDbSymbolTableRecord
100
AcDbBlockTableRecord
  2
*D14
340
0
  0
BLOCK_RECORD
  5
BE4
330
1
100
AcDbSymbolTableRecord
100
AcDbBlockTableRecord
  2
*D15
340
0
  0
BLOCK_RECORD
  5
CFC
330
1
100
AcDbSymbolTableRecord
100
AcDbBlockTableRecord
  2
*D16
340
0
  0
BLOCK_RECORD
  5
DE4
330
1
100
AcDbSymbolTableRecord
100
AcDbBlockTableRecord
  2
*D17
340
0
  0
ENDTAB
  0
ENDSEC
  0
SECTION
  2
BLOCKS
  0
BLOCK
  5
6D
330
6C
100
AcDbEntity
  8
0
100
AcDbBlockBegin
  2
*Model_Space
 70
     0
 10
0.0
 20
0.0
 30
0.0
  3
*Model_Space
  1

  0
ENDBLK
  5
6E
330
6C
100
AcDbEntity
  8
0
100
AcDbBlockEnd
  0
BLOCK
  5
69
330
68
100
AcDbEntity
 67
     1
  8
0
100
AcDbBlockBegin
  2
*Paper_Space
 70
     0
 10
0.0
 20
0.0
 30
0.0
  3
*Paper_Space
  1

  0
ENDBLK
  5
6A
330
68
100
AcDbEntity
 67
     1
  8
0
100
AcDbBlockEnd
  0
BLOCK
  5
71
330
70
100
AcDbEntity
 67
     1
  8
0
100
AcDbBlockBegin
  2
*Paper_Space0
 70
     0
 10
0.0
 20
0.0
 30
0.0
  3
*Paper_Space0
  1

  0
ENDBLK
  5
72
330
70
100
AcDbEntity
 67
     1
  8
0
100
AcDbBlockEnd
  0
BLOCK
  5
EA
330
E5
100
AcDbEntity
  8
0
100
AcDbBlockBegin
  2
_Closed
 70
     0
 10
0.0
 20
0.0
 30
0.0
  3
_Closed
  1

  0
LINE
  5
E6
330
E5
100
AcDbEntity
  8
0
  6
ByBlock
 62
     0
370
    -2
100
AcDbLine
 10
-1.0
 20
0.1666666666666666
 30
0.0
 11
0.0
 21
0.0
 31
0.0
  0
LINE
  5
E7
330
E5
100
AcDbEntity
  8
0
  6
ByBlock
 62
     0
370
    -2
100
AcDbLine
 10
0.0
 20
0.0
 30
0.0
 11
-1.0
 21
-0.1666666666666666
 31
0.0
  0
LINE
  5
E8
330
E5
100
AcDbEntity
  8
0
  6
ByBlock
 62
     0
370
    -2
100
AcDbLine
 10
-1.0
 20
0.1666666666666666
 30
0.0
 11
-1.0
 21
-0.1666666666666666
 31
0.0
  0
LINE
  5
E9
330
E5
100
AcDbEntity
  8
0
  6
ByBlock
 62
     0
370
    -2
100
AcDbLine
 10
0.0
 20
0.0
 30
0.0
 11
-1.0
 21
0.0
 31
0.0
  0
ENDBLK
  5
EB
330
E5
100
AcDbEntity
  8
0
100
AcDbBlockEnd
  0
BLOCK
  5
ED
330
EC
100
AcDbEntity
  8
0
100
AcDbBlockBegin
  2
DatumFilled45
 70
     0
 10
0.0
 20
0.0
 30
0.0
  3
DatumFilled45
  1

  0
POLYLINE
  5
EF
330
EC
100
AcDbEntity
  8
0
 62
     0
100
AcDb2dPolyline
 66
     1
 10
0.0
 20
0.0
 30
0.0
 70
   128
  0
VERTEX
  5
F0
330
EF
100
AcDbEntity
  8
0
 62
     0
100
AcDbVertex
100
AcDb2dVertex
 10
0.0
 20
0.9999999999999998
 30
0.0
  0
VERTEX
  5
F1
330
EF
100
AcDbEntity
  8
0
 62
     0
100
AcDbVertex
100
AcDb2dVertex
 10
0.0
 20
-0.9999999999999998
 30
0.0
  0
VERTEX
  5
F3
330
EF
100
AcDbEntity
  8
0
 62
     0
100
AcDbVertex
100
AcDb2dVertex
 10
-0.9999999999999998
 20
0.0
 30
0.0
  0
VERTEX
  5
F4
330
EF
100
AcDbEntity
  8
0
 62
     0
100
AcDbVertex
100
AcDb2dVertex
 10
0.0
 20
0.9999999999999998
 30
0.0
  0
SEQEND
  5
F2
330
EF
100
AcDbEntity
  8
0
 62
     0
  0
SOLID
  5
F6
330
EC
100
AcDbEntity
  8
0
 62
     0
100
AcDbTrace
 10
0.0
 20
0.9999999999999998
 30
0.0
 11
0.0
 21
-0.9999999999999998
 31
0.0
 12
-0.9999999999999998
 22
0.0
 32
0.0
 13
0.0
 23
0.9999999999999998
 33
0.0
  0
ENDBLK
  5
EE
330
EC
100
AcDbEntity
  8
0
100
AcDbBlockEnd
  0
BLOCK
  5
F9
330
F8
100
AcDbEntity
  8
0
100
AcDbBlockBegin
  2
Filled-1
 70
     0
 10
0.0
 20
0.0
 30
0.0
  3
Filled-1
  1

  0
LINE
  5
FB
330
F8
100
AcDbEntity
  8
0
 62
     0
100
AcDbLine
 10
-0.9999999999999998
 20
0.0
 30
0.0
 11
0.0
 21
0.0
 31
0.0
  0
POLYLINE
  5
FC
330
F8
100
AcDbEntity
  8
0
 62
     0
100
AcDb2dPolyline
 66
     1
 10
0.0
 20
0.0
 30
0.0
 70
   128
  0
VERTEX
  5
FD
330
FC
100
AcDbEntity
  8
0
 62
     0
100
AcDbVertex
100
AcDb2dVertex
 10
-0.9999999999999998
 20
-0.0994897959183674
 30
0.0
  0
VERTEX
  5
FE
330
FC
100
AcDbEntity
  8
0
 62
     0
100
AcDbVertex
100
AcDb2dVertex
 10
0.0
 20
0.0
 30
0.0
  0
VERTEX
  5
100
330
FC
100
AcDbEntity
  8
0
 62
     0
100
AcDbVertex
100
AcDb2dVertex
 10
-0.9999999999999998
 20
0.0994897959183674
 30
0.0
  0
VERTEX
  5
101
330
FC
100
AcDbEntity
  8
0
 62
     0
100
AcDbVertex
100
AcDb2dVertex
 10
-0.9999999999999998
 20
-0.0994897959183674
 30
0.0
  0
SEQEND
  5
FF
330
FC
100
AcDbEntity
  8
0
 62
     0
  0
SOLID
  5
102
330
F8
100
AcDbEntity
  8
0
 62
     0
100
AcDbTrace
 10
-0.9999999999999998
 20
-0.0994897959183674
 30
0.0
 11
0.0
 21
0.0
 31
0.0
 12
-0.9999999999999998
 22
0.0994897959183674
 32
0.0
 13
-0.9999999999999998
 23
-0.0994897959183674
 33
0.0
  0
LINE
  5
103
330
F8
100
AcDbEntity
  8
0
 62
     0
100
AcDbLine
 10
-0.9999999999999998
 20
-0.0994897959183674
 30
0.0
 11
0.0
 21
0.0
 31
0.0
  0
LINE
  5
104
330
F8
100
AcDbEntity
  8
0
 62
     0
100
AcDbLine
 10
0.0
 20
0.0
 30
0.0
 11
-0.9999999999999998
 21
0.0994897959183674
 31
0.0
  0
LINE
  5
105
330
F8
100
AcDbEntity
  8
0
 62
     0
100
AcDbLine
 10
-0.9999999999999998
 20
0.0994897959183674
 30
0.0
 11
-0.9999999999999998
 21
-0.0994897959183674
 31
0.0
  0
ENDBLK
  5
FA
330
F8
100
AcDbEntity
  8
0
100
AcDbBlockEnd
  0
BLOCK
  5
1A6
330
1A5
100
AcDbEntity
  8
0
100
AcDbBlockBegin
  2
*D4
 70
     1
 10
0.0
 20
0.0
 30
0.0
  3
*D4
  1

  0
LINE
  5
285
330
1A5
100
AcDbEntity
  8
Dimension (ANSI)
100
AcDbLine
 10
23.47836047058837
 20
60.80528206566432
 30
0.0
 11
23.47836047058837
 21
70.14583324676667
 31
0.0
  0
LINE
  5
286
330
1A5
100
AcDbEntity
  8
Dimension (ANSI)
100
AcDbLine
 10
45.67836047058837
 20
60.80528206566432
 30
0.0
 11
45.67836047058837
 21
70.14583324676667
 31
0.0
  0
LINE
  5
287
330
1A5
100
AcDbEntity
  8
Dimension (ANSI)
100
AcDbLine
 10
24.13452843472895
 20
69.31249991343334
 30
0.0
 11
33.03505336410598
 21
69.31249991343334
 31
0.0
  0
LINE
  5
288
330
1A5
100
AcDbEntity
  8
Dimension (ANSI)
100
AcDbLine
 10
45.0221925064478
 20
69.31249991343334
 30
0.0
 11
36.12166757707076
 21
69.31249991343334
 31
0.0
  0
SOLID
  5
289
330
1A5
100
AcDbEntity
  8
Dimension (ANSI)
100
AcDbTrace
 10
24.13452843472895
 20
69.42186124079011
 30
0.0
 11
24.13452843472895
 21
69.20313858607658
 31
0.0
 12
23.47836047058837
 22
69.31249991343334
 32
0.0
 13
23.47836047058837
 23
69.31249991343334
 33
0.0
  0
SOLID
  5
28A
330
1A5
100
AcDbEntity
  8
Dimension (ANSI)
100
AcDbTrace
 10
45.0221925064478
 20
69.42186124079011
 30
0.0
 11
45.0221925064478
 21
69.20313858607658
 31
0.0
 12
45.67836047058837
 22
69.31249991343334
 32
0.0
 13
45.67836047058837
 23
69.31249991343334
 33
0.0
  0
MTEXT
  5
28B
330
1A5
100
AcDbEntity
  8
Dimension (ANSI)
100
AcDbMText
 10
33.24502711738683
 20
69.64583325173373
 30
0.0
 40
0.6666666766007742
 41
0.0
 71
     1
 72
     1
  1
\A1;22.20
  7
ROMANS
 73
     1
 44
1.0
1001
ACAD
1000
MTEXTBEGIN
1070
    73
1070
     1
1070
    44
1040
1.0
1070
    74
1070
     0
1000
MTEXTEND
  0
POINT
  5
28C
330
1A5
100
AcDbEntity
  8
Defpoints
 62
     0
100
AcDbPoint
 10
23.47836047058837
 20
60.38861539899766
 30
0.0
  0
POINT
  5
28D
330
1A5
100
AcDbEntity
  8
Defpoints
 62
     0
100
AcDbPoint
 10
45.67836047058837
 20
60.38861539899766
 30
0.0
  0
POINT
  5
28E
330
1A5
100
AcDbEntity
  8
Defpoints
 62
     0
100
AcDbPoint
 10
45.67836047058837
 20
69.31249991343334
 30
0.0
  0
ENDBLK
  5
1A7
330
1A5
100
AcDbEntity
  8
0
100
AcDbBlockEnd
  0
BLOCK
  5
291
330
290
100
AcDbEntity
  8
0
100
AcDbBlockBegin
  2
*D5
 70
     1
 10
0.0
 20
0.0
 30
0.0
  3
*D5
  1

  0
LINE
  5
36F
330
290
100
AcDbEntity
  8
Dimension (ANSI)
100
AcDbLine
 10
23.97836047058838
 20
61.30528206566432
 30
0.0
 11
23.97836047058838
 21
66.34137130450946
 31
0.0
  0
LINE
  5
370
330
290
100
AcDbEntity
  8
Dimension (ANSI)
100
AcDbLine
 10
45.17836047058837
 20
61.30528206566432
 30
0.0
 11
45.17836047058837
 21
66.34137130450946
 31
0.0
  0
LINE
  5
371
330
290
100
AcDbEntity
  8
Dimension (ANSI)
100
AcDbLine
 10
24.63452843472895
 20
65.50803797117613
 30
0.0
 11
31.68584699479489
 21
65.50803797117613
 31
0.0
  0
LINE
  5
372
330
290
100
AcDbEntity
  8
Dimension (ANSI)
100
AcDbLine
 10
44.52219250644779
 20
65.50803797117613
 30
0.0
 11
37.47087394638185
 21
65.50803797117613
 31
0.0
  0
SOLID
  5
373
330
290
100
AcDbEntity
  8
Dimension (ANSI)
100
AcDbTrace
 10
24.63452843472895
 20
65.6173992985329
 30
0.0
 11
24.63452843472895
 21
65.39867664381937
 31
0.0
 12
23.97836047058838
 22
65.50803797117613
 32
0.0
 13
23.97836047058838
 23
65.50803797117613
 33
0.0
  0
SOLID
  5
374
330
290
100
AcDbEntity
  8
Dimension (ANSI)
100
AcDbTrace
 10
44.52219250644779
 20
65.6173992985329
 30
0.0
 11
44.52219250644779
 21
65.39867664381937
 31
0.0
 12
45.17836047058837
 22
65.50803797117613
 32
0.0
 13
45.17836047058837
 23
65.50803797117613
 33
0.0
  0
MTEXT
  5
375
330
290
100
AcDbEntity
  8
Dimension (ANSI)
100
AcDbMText
 10
34.57836047058837
 20
65.50803797117613
 30
0.0
 40
0.6666666766007742
 41
0.0
 71
     5
 72
     1
  1
\A1;21.20{ TYP.}
  7
ROMANS
 73
     1
 44
1.0
1001
ACAD
1000
MTEXTBEGIN
1070
    73
1070
     1
1070
    44
1040
1.0
1070
    74
1070
     0
1000
MTEXTEND
  0
POINT
  5
376
330
290
100
AcDbEntity
  8
Defpoints
 62
     0
100
AcDbPoint
 10
23.97836047058838
 20
60.88861539899766
 30
0.0
  0
POINT
  5
377
330
290
100
AcDbEntity
  8
Defpoints
 62
     0
100
AcDbPoint
 10
45.17836047058837
 20
60.88861539899766
 30
0.0
  0
POINT
  5
378
330
290
100
AcDbEntity
  8
Defpoints
 62
     0
100
AcDbPoint
 10
45.17836047058837
 20
65.50803797117613
 30
0.0
  0
ENDBLK
  5
292
330
290
100
AcDbEntity
  8
0
100
AcDbBlockEnd
  0
BLOCK
  5
37B
330
37A
100
AcDbEntity
  8
0
100
AcDbBlockBegin
  2
*D6
 70
     1
 10
0.0
 20
0.0
 30
0.0
  3
*D6
  1

  0
LINE
  5
46D
330
37A
100
AcDbEntity
  8
Dimension (ANSI)
100
AcDbLine
 10
23.47836047058837
 20
60.80528206566432
 30
0.0
 11
23.47836047058837
 21
66.34137130450946
 31
0.0
  0
LINE
  5
46E
330
37A
100
AcDbEntity
  8
Dimension (ANSI)
100
AcDbLine
 10
23.97836047058838
 20
61.30528206566432
 30
0.0
 11
23.97836047058838
 21
66.34137130450946
 31
0.0
  0
LINE
  5
46F
330
37A
100
AcDbEntity
  8
Dimension (ANSI)
100
AcDbLine
 10
24.63452843472895
 20
65.50803797117613
 30
0.0
 11
25.29069639886952
 21
65.50803797117613
 31
0.0
  0
LINE
  5
470
330
37A
100
AcDbEntity
  8
Dimension (ANSI)
100
AcDbLine
 10
22.8221925064478
 20
65.50803797117613
 30
0.0
 11
21.93594830194862
 21
65.50803797117613
 31
0.0
  0
SOLID
  5
471
330
37A
100
AcDbEntity
  8
Dimension (ANSI)
100
AcDbTrace
 10
24.63452843472895
 20
65.6173992985329
 30
0.0
 11
24.63452843472895
 21
65.39867664381937
 31
0.0
 12
23.97836047058838
 22
65.50803797117613
 32
0.0
 13
23.97836047058838
 23
65.50803797117613
 33
0.0
  0
SOLID
  5
472
330
37A
100
AcDbEntity
  8
Dimension (ANSI)
100
AcDbTrace
 10
22.8221925064478
 20
65.6173992985329
 30
0.0
 11
22.8221925064478
 21
65.39867664381937
 31
0.0
 12
23.47836047058837
 22
65.50803797117613
 32
0.0
 13
23.47836047058837
 23
65.50803797117613
 33
0.0
  0
MTEXT
  5
473
330
37A
100
AcDbEntity
  8
Dimension (ANSI)
100
AcDbMText
 10
20.71010151765708
 20
65.50803797117613
 30
0.0
 40
0.6666666766007742
 41
0.0
 71
     5
 72
     1
  1
\A1;0.50{\PTYP.}
  7
ROMANS
 73
     1
 44
1.0
1001
ACAD
1000
MTEXTBEGIN
1070
    73
1070
     1
1070
    44
1040
1.0
1070
    74
1070
     0
1000
MTEXTEND
  0
POINT
  5
474
330
37A
100
AcDbEntity
  8
Defpoints
 62
     0
100
AcDbPoint
 10
23.47836047058837
 20
60.38861539899766
 30
0.0
  0
POINT
  5
475
330
37A
100
AcDbEntity
  8
Defpoints
 62
     0
100
AcDbPoint
 10
23.97836047058838
 20
60.88861539899766
 30
0.0
  0
POINT
  5
476
330
37A
100
AcDbEntity
  8
Defpoints
 62
     0
100
AcDbPoint
 10
23.97836047058838
 20
65.50803797117613
 30
0.0
  0
ENDBLK
  5
37C
330
37A
100
AcDbEntity
  8
0
100
AcDbBlockEnd
  0
BLOCK
  5
479
330
478
100
AcDbEntity
  8
0
100
AcDbBlockBegin
  2
*D7
 70
     1
 10
0.0
 20
0.0
 30
0.0
  3
*D7
  1

  0
LINE
  5
557
330
478
100
AcDbEntity
  8
Dimension (ANSI)
100
AcDbLine
 10
23.56169380392171
 20
60.88861539899766
 30
0.0
 11
14.22114262281937
 21
60.88861539899767
 31
0.0
  0
LINE
  5
558
330
478
100
AcDbEntity
  8
Dimension (ANSI)
100
AcDbLine
 10
23.56169380392172
 20
14.68861539899766
 30
0.0
 11
14.22114262281936
 21
14.68861539899766
 31
0.0
  0
LINE
  5
559
330
478
100
AcDbEntity
  8
Dimension (ANSI)
100
AcDbLine
 10
15.0544759561527
 20
60.23244743485709
 30
0.0
 11
15.0544759561527
 21
38.33192249057889
 31
0.0
  0
LINE
  5
55A
330
478
100
AcDbEntity
  8
Dimension (ANSI)
100
AcDbLine
 10
15.05447595615269
 20
15.34478336313823
 30
0.0
 11
15.0544759561527
 21
37.24530830741643
 31
0.0
  0
SOLID
  5
55B
330
478
100
AcDbEntity
  8
Dimension (ANSI)
100
AcDbTrace
 10
14.94511462879594
 20
60.23244743485709
 30
0.0
 11
15.16383728350946
 21
60.23244743485709
 31
0.0
 12
15.0544759561527
 22
60.88861539899767
 32
0.0
 13
15.0544759561527
 23
60.88861539899767
 33
0.0
  0
SOLID
  5
55C
330
478
100
AcDbEntity
  8
Dimension (ANSI)
100
AcDbTrace
 10
14.94511462879593
 20
15.34478336313823
 30
0.0
 11
15.16383728350945
 21
15.34478336313823
 31
0.0
 12
15.05447595615269
 22
14.68861539899766
 32
0.0
 13
15.05447595615269
 23
14.68861539899766
 33
0.0
  0
MTEXT
  5
55D
330
478
100
AcDbEntity
  8
Dimension (ANSI)
100
AcDbMText
 10
13.72114260295114
 20
38.12194873729804
 30
0.0
 40
0.6666666766007742
 41
0.0
 71
     1
 72
     1
  1
\A1;46.20
  7
ROMANS
 73
     1
 44
1.0
1001
ACAD
1000
MTEXTBEGIN
1070
    73
1070
     1
1070
    44
1040
1.0
1070
    74
1070
     0
1000
MTEXTEND
  0
POINT
  5
55E
330
478
100
AcDbEntity
  8
Defpoints
 62
     0
100
AcDbPoint
 10
23.97836047058838
 20
60.88861539899766
 30
0.0
  0
POINT
  5
55F
330
478
100
AcDbEntity
  8
Defpoints
 62
     0
100
AcDbPoint
 10
23.97836047058838
 20
14.68861539899766
 30
0.0
  0
POINT
  5
560
330
478
100
AcDbEntity
  8
Defpoints
 62
     0
100
AcDbPoint
 10
15.05447595615269
 20
14.68861539899766
 30
0.0
  0
ENDBLK
  5
47A
330
478
100
AcDbEntity
  8
0
100
AcDbBlockEnd
  0
BLOCK
  5
563
330
562
100
AcDbEntity
  8
0
100
AcDbBlockBegin
  2
*D8
 70
     1
 10
0.0
 20
0.0
 30
0.0
  3
*D8
  1

  0
LINE
  5
655
330
562
100
AcDbEntity
  8
Dimension (ANSI)
100
AcDbLine
 10
23.06169380392172
 20
15.18861539899766
 30
0.0
 11
19.88160603991863
 21
15.18861539899766
 31
0.0
  0
LINE
  5
656
330
562
100
AcDbEntity
  8
Dimension (ANSI)
100
AcDbLine
 10
23.0616938039217
 20
60.38861539899766
 30
0.0
 11
19.88160603991864
 21
60.38861539899766
 31
0.0
  0
LINE
  5
657
330
562
100
AcDbEntity
  8
Dimension (ANSI)
100
AcDbLine
 10
20.71493937325197
 20
15.84478336313823
 30
0.0
 11
20.71493937325197
 21
36.68975274358245
 31
0.0
  0
LINE
  5
658
330
562
100
AcDbEntity
  8
Dimension (ANSI)
100
AcDbLine
 10
20.71493937325198
 20
59.73244743485708
 30
0.0
 11
20.71493937325197
 21
38.88747805441285
 31
0.0
  0
SOLID
  5
659
330
562
100
AcDbEntity
  8
Dimension (ANSI)
100
AcDbTrace
 10
20.6055780458952
 20
15.84478336313823
 30
0.0
 11
20.82430070060873
 21
15.84478336313823
 31
0.0
 12
20.71493937325197
 22
15.18861539899766
 32
0.0
 13
20.71493937325197
 23
15.18861539899766
 33
0.0
  0
SOLID
  5
65A
330
562
100
AcDbEntity
  8
Dimension (ANSI)
100
AcDbTrace
 10
20.60557804589521
 20
59.73244743485708
 30
0.0
 11
20.82430070060874
 21
59.73244743485708
 31
0.0
 12
20.71493937325198
 22
60.38861539899766
 32
0.0
 13
20.71493937325198
 23
60.38861539899766
 33
0.0
  0
MTEXT
  5
65B
330
562
100
AcDbEntity
  8
Dimension (ANSI)
100
AcDbMText
 10
20.71493937325197
 20
37.78861539899766
 30
0.0
 40
0.6666666766007742
 41
0.0
 71
     5
 72
     1
  1
\A1;45.20{\PTYP.}
  7
ROMANS
 73
     1
 44
1.0
1001
ACAD
1000
MTEXTBEGIN
1070
    73
1070
     1
1070
    44
1040
1.0
1070
    74
1070
     0
1000
MTEXTEND
  0
POINT
  5
65C
330
562
100
AcDbEntity
  8
Defpoints
 62
     0
100
AcDbPoint
 10
23.47836047058839
 20
15.18861539899766
 30
0.0
  0
POINT
  5
65D
330
562
100
AcDbEntity
  8
Defpoints
 62
     0
100
AcDbPoint
 10
23.47836047058837
 20
60.38861539899766
 30
0.0
  0
POINT
  5
65E
330
562
100
AcDbEntity
  8
Defpoints
 62
     0
100
AcDbPoint
 10
20.71493937325198
 20
60.38861539899766
 30
0.0
  0
ENDBLK
  5
564
330
562
100
AcDbEntity
  8
0
100
AcDbBlockEnd
  0
BLOCK
  5
661
330
660
100
AcDbEntity
  8
0
100
AcDbBlockBegin
  2
*D9
 70
     1
 10
0.0
 20
0.0
 30
0.0
  3
*D9
  1

  0
LINE
  5
76A
330
660
100
AcDbEntity
  8
Dimension (ANSI)
100
AcDbLine
 10
23.56169380392171
 20
60.88861539899766
 30
0.0
 11
17.99959129148653
 21
60.88861539899766
 31
0.0
  0
LINE
  5
76B
330
660
100
AcDbEntity
  8
Dimension (ANSI)
100
AcDbLine
 10
23.0616938039217
 20
60.38861539899766
 30
0.0
 11
17.99959129148653
 21
60.38861539899766
 31
0.0
  0
LINE
  5
76C
330
660
100
AcDbEntity
  8
Dimension (ANSI)
100
AcDbLine
 10
18.83292462481987
 20
59.73244743485708
 30
0.0
 11
18.83292462481987
 21
59.07627947071651
 31
0.0
  0
LINE
  5
76D
330
660
100
AcDbEntity
  8
Dimension (ANSI)
100
AcDbLine
 10
18.83292462481987
 20
61.54478336313823
 30
0.0
 11
18.83292462481987
 21
63.14896666522594
 31
0.0
  0
LINE
  5
76E
330
660
100
AcDbEntity
  8
Dimension (ANSI)
100
AcDbLine
 10
18.83292462481987
 20
63.14896666522594
 30
0.0
 11
19.48909258896044
 21
63.14896666522594
 31
0.0
  0
SOLID
  5
76F
330
660
100
AcDbEntity
  8
Dimension (ANSI)
100
AcDbTrace
 10
18.7235632974631
 20
59.73244743485708
 30
0.0
 11
18.94228595217663
 21
59.73244743485708
 31
0.0
 12
18.83292462481987
 22
60.38861539899766
 32
0.0
 13
18.83292462481987
 23
60.38861539899766
 33
0.0
  0
SOLID
  5
770
330
660
100
AcDbEntity
  8
Dimension (ANSI)
100
AcDbTrace
 10
18.7235632974631
 20
61.54478336313823
 30
0.0
 11
18.94228595217663
 21
61.54478336313823
 31
0.0
 12
18.83292462481987
 22
60.88861539899766
 32
0.0
 13
18.83292462481987
 23
60.88861539899766
 33
0.0
  0
MTEXT
  5
771
330
660
100
AcDbEntity
  8
Dimension (ANSI)
100
AcDbMText
 10
20.71493937325197
 20
63.14896666522595
 30
0.0
 40
0.6666666766007742
 41
0.0
 71
     5
 72
     1
  1
\A1;0.50{\PTYP.}
  7
ROMANS
 73
     1
 44
1.0
1001
ACAD
1000
MTEXTBEGIN
1070
    73
1070
     1
1070
    44
1040
1.0
1070
    74
1070
     0
1000
MTEXTEND
  0
POINT
  5
772
330
660
100
AcDbEntity
  8
Defpoints
 62
     0
100
AcDbPoint
 10
23.97836047058838
 20
60.88861539899766
 30
0.0
  0
POINT
  5
773
330
660
100
AcDbEntity
  8
Defpoints
 62
     0
100
AcDbPoint
 10
23.47836047058837
 20
60.38861539899766
 30
0.0
  0
POINT
  5
774
330
660
100
AcDbEntity
  8
Defpoints
 62
     0
100
AcDbPoint
 10
18.83292462481987
 20
60.38861539899766
 30
0.0
  0
ENDBLK
  5
662
330
660
100
AcDbEntity
  8
0
100
AcDbBlockEnd
  0
BLOCK
  5
777
330
776
100
AcDbEntity
  8
0
100
AcDbBlockBegin
  2
*D10
 70
     1
 10
0.0
 20
0.0
 30
0.0
  3
*D10
  1

  0
LINE
  5
817
330
776
100
AcDbEntity
  8
Dimension (ANSI)
100
AcDbLine
 10
26.49877763198392
 20
9.882342764750227
 30
0.0
 11
25.42553092160436
 21
9.882342764750225
 31
0.0
  0
LINE
  5
818
330
776
100
AcDbEntity
  8
Dimension (ANSI)
100
AcDbLine
 10
25.42553092160436
 20
9.882342764750225
 30
0.0
 11
24.23289399776996
 21
14.33332435947855
 31
0.0
  0
MTEXT
  5
819
102
{ACAD_XDICTIONARY
360
F2E
102
}
330
776
100
AcDbEntity
  8
Dimension (ANSI)
100
AcDbMText
 10
26.70875138526476
 20
10.39027928025558
 30
0.0
 40
0.6666666766007742
 41
0.0
 71
     1
 72
     1
  1
\A1;\U+22050.50{ TYP. (6 PL.)}
  7
ROMANS
 73
     1
 44
1.0
1001
ACAD
1000
MTEXTBEGIN
1070
    73
1070
     1
1070
    44
1040
1.0
1070
    74
1070
     0
1000
MTEXTEND
  0
SOLID
  5
81A
330
776
100
AcDbEntity
  8
Dimension (ANSI)
100
AcDbTrace
 10
24.33852892826111
 20
14.3616291537962
 30
0.0
 11
24.12725906727882
 21
14.3050195651609
 31
0.0
 12
24.06306523186409
 22
14.96713394242541
 32
0.0
 13
24.06306523186409
 23
14.96713394242541
 33
0.0
  0
LINE
  5
81B
330
776
100
AcDbEntity
  8
Dimension (ANSI)
100
AcDbLine
 10
23.39836047058839
 20
15.20861539899765
 30
0.0
 11
24.5983604705884
 21
15.20861539899765
 31
0.0
  0
LINE
  5
81C
330
776
100
AcDbEntity
  8
Dimension (ANSI)
100
AcDbLine
 10
23.99836047058839
 20
14.60861539899766
 30
0.0
 11
23.99836047058839
 21
15.80861539899766
 31
0.0
  0
POINT
  5
81D
330
776
100
AcDbEntity
  8
Defpoints
 62
     0
100
AcDbPoint
 10
24.06306523186409
 20
14.96713394242541
 30
0.0
  0
POINT
  5
81E
330
776
100
AcDbEntity
  8
Defpoints
 62
     0
100
AcDbPoint
 10
23.9336557093127
 20
15.45009685556991
 30
0.0
  0
ENDBLK
  5
778
330
776
100
AcDbEntity
  8
0
100
AcDbBlockEnd
  0
BLOCK
  5
821
330
820
100
AcDbEntity
  8
0
100
AcDbBlockBegin
  2
*D11
 70
     1
 10
0.0
 20
0.0
 30
0.0
  3
*D11
  1

  0
LINE
  5
8C0
330
820
100
AcDbEntity
  8
Dimension (ANSI)
100
AcDbLine
 10
26.70808503917784
 20
11.728340710775
 30
0.0
 11
25.13185915706074
 21
11.728340710775
 31
0.0
  0
LINE
  5
8C1
330
820
100
AcDbEntity
  8
Dimension (ANSI)
100
AcDbLine
 10
25.13185915706074
 20
11.728340710775
 30
0.0
 11
24.2086297122916
 21
15.17387990569315
 31
0.0
  0
MTEXT
  5
8C2
102
{ACAD_XDICTIONARY
360
F30
102
}
330
820
100
AcDbEntity
  8
Dimension (ANSI)
100
AcDbMText
 10
26.91805879245868
 20
12.23627722628035
 30
0.0
 40
0.6666666766007742
 41
0.0
 71
     1
 72
     1
  1
\A1;\U+22050.31{ TYP. (4 PL.)}
  7
ROMANS
 73
     1
 44
1.0
1001
ACAD
1000
MTEXTBEGIN
1070
    73
1070
     1
1070
    44
1040
1.0
1070
    74
1070
     0
1000
MTEXTEND
  0
SOLID
  5
8C3
330
820
100
AcDbEntity
  8
Dimension (ANSI)
100
AcDbTrace
 10
24.31426464278274
 20
15.2021847000108
 30
0.0
 11
24.10299478180045
 21
15.1455751113755
 31
0.0
 12
24.03880094638569
 22
15.80768948864
 32
0.0
 13
24.03880094638569
 23
15.80768948864
 33
0.0
  0
LINE
  5
8C4
330
820
100
AcDbEntity
  8
Dimension (ANSI)
100
AcDbLine
 10
23.39836047058838
 20
15.95861539899766
 30
0.0
 11
24.59836047058838
 21
15.95861539899766
 31
0.0
  0
LINE
  5
8C5
330
820
100
AcDbEntity
  8
Dimension (ANSI)
100
AcDbLine
 10
23.99836047058838
 20
15.35861539899765
 30
0.0
 11
23.99836047058838
 21
16.55861539899766
 31
0.0
  0
POINT
  5
8C6
330
820
100
AcDbEntity
  8
Defpoints
 62
     0
100
AcDbPoint
 10
24.03880094638569
 20
15.80768948864
 30
0.0
  0
POINT
  5
8C7
330
820
100
AcDbEntity
  8
Defpoints
 62
     0
100
AcDbPoint
 10
23.95791999479107
 20
16.10954130935531
 30
0.0
  0
ENDBLK
  5
822
330
820
100
AcDbEntity
  8
0
100
AcDbBlockEnd
  0
BLOCK
  5
8CA
330
8C9
100
AcDbEntity
  8
0
100
AcDbBlockBegin
  2
*D12
 70
     1
 10
0.0
 20
0.0
 30
0.0
  3
*D12
  1

  0
LINE
  5
9D3
330
8C9
100
AcDbEntity
  8
Dimension (ANSI)
100
AcDbLine
 10
45.59502713725504
 20
14.68861539899766
 30
0.0
 11
52.09318361797063
 21
14.68861539899765
 31
0.0
  0
LINE
  5
9D4
330
8C9
100
AcDbEntity
  8
Dimension (ANSI)
100
AcDbLine
 10
45.57502713725504
 20
15.20861539899765
 30
0.0
 11
52.09318361797063
 21
15.20861539899765
 31
0.0
  0
LINE
  5
9D5
330
8C9
100
AcDbEntity
  8
Dimension (ANSI)
100
AcDbLine
 10
51.2598502846373
 20
15.86478336313823
 30
0.0
 11
51.2598502846373
 21
16.5209513272788
 31
0.0
  0
LINE
  5
9D6
330
8C9
100
AcDbEntity
  8
Dimension (ANSI)
100
AcDbLine
 10
51.2598502846373
 20
14.03244743485708
 30
0.0
 11
51.2598502846373
 21
12.39507381794951
 31
0.0
  0
LINE
  5
9D7
330
8C9
100
AcDbEntity
  8
Dimension (ANSI)
100
AcDbLine
 10
51.2598502846373
 20
12.39507381794951
 30
0.0
 11
50.60368232049673
 21
12.39507381794951
 31
0.0
  0
SOLID
  5
9D8
330
8C9
100
AcDbEntity
  8
Dimension (ANSI)
100
AcDbTrace
 10
51.15048895728054
 20
15.86478336313823
 30
0.0
 11
51.36921161199406
 21
15.86478336313823
 31
0.0
 12
51.2598502846373
 22
15.20861539899765
 32
0.0
 13
51.2598502846373
 23
15.20861539899765
 33
0.0
  0
SOLID
  5
9D9
330
8C9
100
AcDbEntity
  8
Dimension (ANSI)
100
AcDbTrace
 10
51.15048895728054
 20
14.03244743485708
 30
0.0
 11
51.36921161199406
 21
14.03244743485708
 31
0.0
 12
51.2598502846373
 22
14.68861539899766
 32
0.0
 13
51.2598502846373
 23
14.68861539899766
 33
0.0
  0
MTEXT
  5
9DA
330
8C9
100
AcDbEntity
  8
Dimension (ANSI)
100
AcDbMText
 10
49.37783553620518
 20
12.39507381794952
 30
0.0
 40
0.6666666766007742
 41
0.0
 71
     5
 72
     1
  1
\A1;0.52{ \PTYP.}
  7
ROMANS
 73
     1
 44
1.0
1001
ACAD
1000
MTEXTBEGIN
1070
    73
1070
     1
1070
    44
1040
1.0
1070
    74
1070
     0
1000
MTEXTEND
  0
POINT
  5
9DB
330
8C9
100
AcDbEntity
  8
Defpoints
 62
     0
100
AcDbPoint
 10
45.17836047058838
 20
14.68861539899766
 30
0.0
  0
POINT
  5
9DC
330
8C9
100
AcDbEntity
  8
Defpoints
 62
     0
100
AcDbPoint
 10
45.15836047058838
 20
15.20861539899765
 30
0.0
  0
POINT
  5
9DD
330
8C9
100
AcDbEntity
  8
Defpoints
 62
     0
100
AcDbPoint
 10
51.2598502846373
 20
15.20861539899765
 30
0.0
  0
ENDBLK
  5
8CB
330
8C9
100
AcDbEntity
  8
0
100
AcDbBlockEnd
  0
BLOCK
  5
9E0
330
9DF
100
AcDbEntity
  8
0
100
AcDbBlockBegin
  2
*D13
 70
     1
 10
0.0
 20
0.0
 30
0.0
  3
*D13
  1

  0
LINE
  5
ADC
330
9DF
100
AcDbEntity
  8
Dimension (ANSI)
100
AcDbLine
 10
41.84511611618497
 20
16.61478336313823
 30
0.0
 11
41.84511611618497
 21
17.2709513272788
 31
0.0
  0
LINE
  5
ADD
330
9DF
100
AcDbEntity
  8
Dimension (ANSI)
100
AcDbLine
 10
41.84511611618496
 20
14.03244743485708
 30
0.0
 11
41.84511611618496
 21
12.58663265774385
 31
0.0
  0
LINE
  5
ADE
330
9DF
100
AcDbEntity
  8
Dimension (ANSI)
100
AcDbLine
 10
41.84511611618496
 20
12.58663265774385
 30
0.0
 11
41.1889481520444
 21
12.58663265774385
 31
0.0
  0
SOLID
  5
ADF
330
9DF
100
AcDbEntity
  8
Dimension (ANSI)
100
AcDbTrace
 10
41.7357547888282
 20
16.61478336313823
 30
0.0
 11
41.95447744354174
 21
16.61478336313823
 31
0.0
 12
41.84511611618496
 22
15.95861539899765
 32
0.0
 13
41.84511611618496
 23
15.95861539899765
 33
0.0
  0
SOLID
  5
AE0
330
9DF
100
AcDbEntity
  8
Dimension (ANSI)
100
AcDbTrace
 10
41.7357547888282
 20
14.03244743485708
 30
0.0
 11
41.95447744354173
 21
14.03244743485708
 31
0.0
 12
41.84511611618496
 22
14.68861539899766
 32
0.0
 13
41.84511611618496
 23
14.68861539899766
 33
0.0
  0
MTEXT
  5
AE1
330
9DF
100
AcDbEntity
  8
Dimension (ANSI)
100
AcDbMText
 10
40.01072041608147
 20
12.58663265774386
 30
0.0
 40
0.6666666766007742
 41
0.0
 71
     5
 72
     1
  1
\A1;1.27{\PTYP.}
  7
ROMANS
 73
     1
 44
1.0
1001
ACAD
1000
MTEXTBEGIN
1070
    73
1070
     1
1070
    44
1040
1.0
1070
    74
1070
     0
1000
MTEXTEND
  0
POINT
  5
AE2
330
9DF
100
AcDbEntity
  8
Defpoints
 62
     0
100
AcDbPoint
 10
45.17836047058838
 20
14.68861539899766
 30
0.0
  0
POINT
  5
AE3
330
9DF
100
AcDbEntity
  8
Defpoints
 62
     0
100
AcDbPoint
 10
45.15836047058838
 20
15.95861539899765
 30
0.0
  0
POINT
  5
AE4
330
9DF
100
AcDbEntity
  8
Defpoints
 62
     0
100
AcDbPoint
 10
41.84511611618496
 20
15.95861539899765
 30
0.0
  0
ENDBLK
  5
9E1
330
9DF
100
AcDbEntity
  8
0
100
AcDbBlockEnd
  0
BLOCK
  5
AE7
330
AE6
100
AcDbEntity
  8
0
100
AcDbBlockBegin
  2
*D14
 70
     1
 10
0.0
 20
0.0
 30
0.0
  3
*D14
  1

  0
LINE
  5
BD9
330
AE6
100
AcDbEntity
  8
Dimension (ANSI)
100
AcDbLine
 10
45.15836047058838
 20
15.54194873233099
 30
0.0
 11
45.15836047058838
 21
11.73061014965382
 31
0.0
  0
LINE
  5
BDA
330
AE6
100
AcDbEntity
  8
Dimension (ANSI)
100
AcDbLine
 10
45.67836047058839
 20
14.77194873233099
 30
0.0
 11
45.67836047058839
 21
11.73061014965382
 31
0.0
  0
LINE
  5
BDB
330
AE6
100
AcDbEntity
  8
Dimension (ANSI)
100
AcDbLine
 10
46.33452843472896
 20
12.56394348298716
 30
0.0
 11
46.99069639886953
 21
12.56394348298716
 31
0.0
  0
LINE
  5
BDC
330
AE6
100
AcDbEntity
  8
Dimension (ANSI)
100
AcDbLine
 10
44.50219250644781
 20
12.56394348298716
 30
0.0
 11
43.84602454230723
 21
12.56394348298716
 31
0.0
  0
SOLID
  5
BDD
330
AE6
100
AcDbEntity
  8
Dimension (ANSI)
100
AcDbTrace
 10
46.33452843472896
 20
12.67330481034392
 30
0.0
 11
46.33452843472896
 21
12.45458215563039
 31
0.0
 12
45.67836047058839
 22
12.56394348298716
 32
0.0
 13
45.67836047058839
 23
12.56394348298716
 33
0.0
  0
SOLID
  5
BDE
330
AE6
100
AcDbEntity
  8
Dimension (ANSI)
100
AcDbTrace
 10
44.50219250644781
 20
12.67330481034392
 30
0.0
 11
44.50219250644781
 21
12.45458215563039
 31
0.0
 12
45.15836047058838
 22
12.56394348298716
 32
0.0
 13
45.15836047058838
 23
12.56394348298716
 33
0.0
  0
MTEXT
  5
BDF
330
AE6
100
AcDbEntity
  8
Dimension (ANSI)
100
AcDbMText
 10
42.62017775801569
 20
12.56394348298716
 30
0.0
 40
0.6666666766007742
 41
0.0
 71
     5
 72
     1
  1
\A1;0.52{\PTYP.}
  7
ROMANS
 73
     1
 44
1.0
1001
ACAD
1000
MTEXTBEGIN
1070
    73
1070
     1
1070
    44
1040
1.0
1070
    74
1070
     0
1000
MTEXTEND
  0
POINT
  5
BE0
330
AE6
100
AcDbEntity
  8
Defpoints
 62
     0
100
AcDbPoint
 10
45.15836047058838
 20
15.95861539899765
 30
0.0
  0
POINT
  5
BE1
330
AE6
100
AcDbEntity
  8
Defpoints
 62
     0
100
AcDbPoint
 10
45.67836047058839
 20
15.18861539899766
 30
0.0
  0
POINT
  5
BE2
330
AE6
100
AcDbEntity
  8
Defpoints
 62
     0
100
AcDbPoint
 10
45.67836047058839
 20
12.56394348298716
 30
0.0
  0
ENDBLK
  5
AE8
330
AE6
100
AcDbEntity
  8
0
100
AcDbBlockEnd
  0
BLOCK
  5
BE5
330
BE4
100
AcDbEntity
  8
0
100
AcDbBlockBegin
  2
*D15
 70
     1
 10
0.0
 20
0.0
 30
0.0
  3
*D15
  1

  0
LINE
  5
CE1
330
BE4
100
AcDbEntity
  8
Dimension (ANSI)
100
AcDbLine
 10
71.50160435874612
 20
41.31682393383555
 30
0.0
 11
71.50160435874612
 21
60.79990710441802
 31
0.0
  0
LINE
  5
CE2
330
BE4
100
AcDbEntity
  8
Dimension (ANSI)
100
AcDbLine
 10
71.40785435874612
 20
41.31682393383555
 30
0.0
 11
71.40785435874612
 21
60.79990710441802
 31
0.0
  0
LINE
  5
CE3
330
BE4
100
AcDbEntity
  8
Dimension (ANSI)
100
AcDbLine
 10
70.75168639460554
 20
59.96657377108469
 30
0.0
 11
70.09551843046498
 21
59.96657377108469
 31
0.0
  0
LINE
  5
CE4
330
BE4
100
AcDbEntity
  8
Dimension (ANSI)
100
AcDbLine
 10
72.1577723228867
 20
59.96657377108469
 30
0.0
 11
73.20057082466282
 21
59.96657377108469
 31
0.0
  0
SOLID
  5
CE5
330
BE4
100
AcDbEntity
  8
Dimension (ANSI)
100
AcDbTrace
 10
70.75168639460554
 20
60.07593509844145
 30
0.0
 11
70.75168639460554
 21
59.85721244372792
 31
0.0
 12
71.40785435874612
 22
59.96657377108469
 32
0.0
 13
71.40785435874612
 23
59.96657377108469
 33
0.0
  0
SOLID
  5
CE6
330
BE4
100
AcDbEntity
  8
Dimension (ANSI)
100
AcDbTrace
 10
72.1577723228867
 20
60.07593509844145
 30
0.0
 11
72.1577723228867
 21
59.85721244372792
 31
0.0
 12
71.50160435874612
 22
59.96657377108469
 32
0.0
 13
71.50160435874612
 23
59.96657377108469
 33
0.0
  0
MTEXT
  5
CE7
330
BE4
100
AcDbEntity
  8
Dimension (ANSI)
100
AcDbMText
 10
75.1565763499933
 20
59.96657377108469
 30
0.0
 40
0.6666666766007742
 41
0.0
 71
     5
 72
     1
  1
\A1;(0.094){\P12 GA.\PGALV.}
  7
ROMANS
 73
     1
 44
1.0
1001
ACAD
1000
MTEXTBEGIN
1070
    73
1070
     1
1070
    44
1040
1.0
1070
    74
1070
     0
1000
MTEXTEND
  0
POINT
  5
CE8
330
BE4
100
AcDbEntity
  8
Defpoints
 62
     0
100
AcDbPoint
 10
71.50160435874612
 20
40.90015726716888
 30
0.0
  0
POINT
  5
CE9
330
BE4
100
AcDbEntity
  8
Defpoints
 62
     0
100
AcDbPoint
 10
71.40785435874612
 20
40.90015726716888
 30
0.0
  0
POINT
  5
CEA
330
BE4
100
AcDbEntity
  8
Defpoints
 62
     0
100
AcDbPoint
 10
71.40785435874612
 20
59.96657377108469
 30
0.0
  0
ENDBLK
  5
BE6
330
BE4
100
AcDbEntity
  8
0
100
AcDbBlockEnd
  0
BLOCK
  5
CFD
330
CFC
100
AcDbEntity
  8
0
100
AcDbBlockBegin
  2
*D16
 70
     1
 10
0.0
 20
0.0
 30
0.0
  3
*D16
  1

  0
LINE
  5
DD7
330
CFC
100
AcDbEntity
  8
Dimension (ANSI)
100
AcDbLine
 10
71.40785435874612
 20
58.75414873233098
 30
0.0
 11
71.40785435874612
 21
51.63019538385732
 31
0.0
  0
LINE
  5
DD8
330
CFC
100
AcDbEntity
  8
Dimension (ANSI)
100
AcDbLine
 10
70.75168639460554
 20
52.46352871719066
 30
0.0
 11
70.09551843046498
 21
52.46352871719066
 31
0.0
  0
LINE
  5
DD9
330
CFC
100
AcDbEntity
  8
Dimension (ANSI)
100
AcDbLine
 10
72.8380223228867
 20
52.46352871719066
 30
0.0
 11
73.58598326635451
 21
52.46352871719066
 31
0.0
  0
SOLID
  5
DDA
330
CFC
100
AcDbEntity
  8
Dimension (ANSI)
100
AcDbTrace
 10
70.75168639460554
 20
52.57289004454743
 30
0.0
 11
70.75168639460554
 21
52.35416738983389
 31
0.0
 12
71.40785435874612
 22
52.46352871719066
 32
0.0
 13
71.40785435874612
 23
52.46352871719066
 33
0.0
  0
SOLID
  5
DDB
330
CFC
100
AcDbEntity
  8
Dimension (ANSI)
100
AcDbTrace
 10
72.8380223228867
 20
52.57289004454743
 30
0.0
 11
72.8380223228867
 21
52.35416738983389
 31
0.0
 12
72.18185435874612
 22
52.46352871719066
 32
0.0
 13
72.18185435874612
 23
52.46352871719066
 33
0.0
  0
MTEXT
  5
DDC
330
CFC
100
AcDbEntity
  8
Dimension (ANSI)
100
AcDbMText
 10
73.79595701963537
 20
52.79686205549104
 30
0.0
 40
0.6666666766007742
 41
0.0
 71
     1
 72
     1
  1
\A1;0.77
  7
ROMANS
 73
     1
 44
1.0
1001
ACAD
1000
MTEXTBEGIN
1070
    73
1070
     1
1070
    44
1040
1.0
1070
    74
1070
     0
1000
MTEXTEND
  0
POINT
  5
DDD
330
CFC
100
AcDbEntity
  8
Defpoints
 62
     0
100
AcDbPoint
 10
71.40785435874612
 20
59.17081539899765
 30
0.0
  0
POINT
  5
DDE
330
CFC
100
AcDbEntity
  8
Defpoints
 62
     0
100
AcDbPoint
 10
72.18185435874612
 20
59.17061539899766
 30
0.0
  0
POINT
  5
DDF
330
CFC
100
AcDbEntity
  8
Defpoints
 62
     0
100
AcDbPoint
 10
72.18185435874612
 20
52.46352871719066
 30
0.0
  0
ENDBLK
  5
CFE
330
CFC
100
AcDbEntity
  8
0
100
AcDbBlockEnd
  0
BLOCK
  5
DE5
330
DE4
100
AcDbEntity
  8
0
100
AcDbBlockBegin
  2
*D17
 70
     1
 10
0.0
 20
0.0
 30
0.0
  3
*D17
  1

  0
LINE
  5
ED7
330
DE4
100
AcDbEntity
  8
Dimension (ANSI)
100
AcDbLine
 10
45.57502713725504
 20
37.78861539899765
 30
0.0
 11
50.21116886953852
 21
37.78861539899764
 31
0.0
  0
LINE
  5
ED8
330
DE4
100
AcDbEntity
  8
Dimension (ANSI)
100
AcDbLine
 10
45.57502713725504
 20
15.20861539899765
 30
0.0
 11
50.21116886953851
 21
15.20861539899765
 31
0.0
  0
LINE
  5
ED9
330
DE4
100
AcDbEntity
  8
Dimension (ANSI)
100
AcDbLine
 10
49.37783553620519
 20
37.13244743485707
 30
0.0
 11
49.37783553620519
 21
27.59747805441286
 31
0.0
  0
LINE
  5
EDA
330
DE4
100
AcDbEntity
  8
Dimension (ANSI)
100
AcDbLine
 10
49.37783553620518
 20
15.86478336313823
 30
0.0
 11
49.37783553620519
 21
25.39975274358244
 31
0.0
  0
SOLID
  5
EDB
330
DE4
100
AcDbEntity
  8
Dimension (ANSI)
100
AcDbTrace
 10
49.26847420884842
 20
37.13244743485707
 30
0.0
 11
49.48719686356195
 21
37.13244743485707
 31
0.0
 12
49.37783553620519
 22
37.78861539899764
 32
0.0
 13
49.37783553620519
 23
37.78861539899764
 33
0.0
  0
SOLID
  5
EDC
330
DE4
100
AcDbEntity
  8
Dimension (ANSI)
100
AcDbTrace
 10
49.26847420884842
 20
15.86478336313823
 30
0.0
 11
49.48719686356195
 21
15.86478336313823
 31
0.0
 12
49.37783553620518
 22
15.20861539899765
 32
0.0
 13
49.37783553620518
 23
15.20861539899765
 33
0.0
  0
MTEXT
  5
EDD
330
DE4
100
AcDbEntity
  8
Dimension (ANSI)
100
AcDbMText
 10
49.37783553620518
 20
26.49861539899765
 30
0.0
 40
0.6666666766007742
 41
0.0
 71
     5
 72
     1
  1
\A1;22.58{\PTYP.}
  7
ROMANS
 73
     1
 44
1.0
1001
ACAD
1000
MTEXTBEGIN
1070
    73
1070
     1
1070
    44
1040
1.0
1070
    74
1070
     0
1000
MTEXTEND
  0
POINT
  5
EDE
330
DE4
100
AcDbEntity
  8
Defpoints
 62
     0
100
AcDbPoint
 10
45.15836047058838
 20
37.78861539899765
 30
0.0
  0
POINT
  5
EDF
330
DE4
100
AcDbEntity
  8
Defpoints
 62
     0
100
AcDbPoint
 10
45.15836047058838
 20
15.20861539899765
 30
0.0
  0
POINT
  5
EE0
330
DE4
100
AcDbEntity
  8
Defpoints
 62
     0
100
AcDbPoint
 10
49.37783553620518
 20
15.20861539899765
 30
0.0
  0
ENDBLK
  5
DE6
330
DE4
100
AcDbEntity
  8
0
100
AcDbBlockEnd
  0
ENDSEC
  0
SECTION
  2
ENTITIES
  0
CIRCLE
  5
107
330
6C
100
AcDbEntity
  8
Visible (ANSI)
100
AcDbCircle
 10
45.15836047058838
 20
37.78861539899765
 30
0.0
 40
0.2500000000000006
  0
CIRCLE
  5
108
330
6C
100
AcDbEntity
  8
Visible (ANSI)
100
AcDbCircle
 10
23.99836047058839
 20
37.78861539899765
 30
0.0
 40
0.2500000000000006
  0
LINE
  5
109
330
6C
100
AcDbEntity
  8
Visible (ANSI)
100
AcDbLine
 10
45.67836047058837
 20
16.40661539899765
 30
0.0
 11
45.67836047058837
 21
59.17061539899766
 31
0.0
  0
LINE
  5
10A
330
6C
100
AcDbEntity
  8
Visible (ANSI)
100
AcDbLine
 10
45.67836047058837
 20
16.40661539899765
 30
0.0
 11
45.56901047058839
 21
16.40661539899765
 31
0.0
  0
LINE
  5
10B
330
6C
100
AcDbEntity
  8
Visible (ANSI)
100
AcDbLine
 10
45.67836047058835
 20
59.17061539899766
 30
0.0
 11
45.56901047058838
 21
59.17061539899766
 31
0.0
  0
LINE
  5
10C
330
6C
100
AcDbEntity
  8
Visible (ANSI)
100
AcDbLine
 10
45.56881047058837
 20
59.17081539899765
 30
0.0
 11
45.67836047058837
 21
59.17081539899765
 31
0.0
  0
LINE
  5
10D
330
6C
100
AcDbEntity
  8
Visible (ANSI)
100
AcDbLine
 10
45.56881047058837
 20
59.17061539899766
 30
0.0
 11
45.56881047058837
 21
59.17081539899765
 31
0.0
  0
LINE
  5
10E
330
6C
100
AcDbEntity
  8
Visible (ANSI)
100
AcDbLine
 10
45.5688104705884
 20
16.40641539899765
 30
0.0
 11
45.5688104705884
 21
16.40661539899765
 31
0.0
  0
LINE
  5
10F
330
6C
100
AcDbEntity
  8
Visible (ANSI)
100
AcDbLine
 10
45.67836047058839
 20
16.40641539899765
 30
0.0
 11
45.5688104705884
 21
16.40641539899765
 31
0.0
  0
LINE
  5
110
330
6C
100
AcDbEntity
  8
Hidden (ANSI)
 48
1.070116639137268
100
AcDbLine
 10
45.58461047058837
 20
59.17061539899766
 30
0.0
 11
45.58461047058838
 21
16.40661539899765
 31
0.0
  0
LINE
  5
111
330
6C
100
AcDbEntity
  8
Visible (ANSI)
100
AcDbLine
 10
45.5688104705884
 20
16.40661539899765
 30
0.0
 11
45.56901047058839
 21
16.40661539899765
 31
0.0
  0
LINE
  5
112
330
6C
100
AcDbEntity
  8
Visible (ANSI)
100
AcDbLine
 10
45.56901047058838
 20
59.17061539899766
 30
0.0
 11
45.56881047058837
 21
59.17061539899766
 31
0.0
  0
LINE
  5
113
330
6C
100
AcDbEntity
  8
Visible (ANSI)
100
AcDbLine
 10
45.67836047058837
 20
60.38861539899766
 30
0.0
 11
45.67836047058837
 21
59.17081539899765
 31
0.0
  0
LINE
  5
114
330
6C
100
AcDbEntity
  8
Visible (ANSI)
100
AcDbLine
 10
23.97836047058837
 20
60.88861539899766
 30
0.0
 11
45.17836047058837
 21
60.88861539899766
 31
0.0
  0
LINE
  5
115
330
6C
100
AcDbEntity
  8
Visible (ANSI)
100
AcDbLine
 10
23.47836047058837
 20
59.17081539899765
 30
0.0
 11
23.47836047058837
 21
60.38861539899766
 31
0.0
  0
LINE
  5
116
330
6C
100
AcDbEntity
  8
Visible (ANSI)
100
AcDbLine
 10
23.47836047058839
 20
15.18861539899765
 30
0.0
 11
23.47836047058839
 21
16.40641539899765
 31
0.0
  0
LINE
  5
117
330
6C
100
AcDbEntity
  8
Visible (ANSI)
100
AcDbLine
 10
45.17836047058838
 20
14.68861539899766
 30
0.0
 11
23.97836047058838
 21
14.68861539899766
 31
0.0
  0
LINE
  5
118
330
6C
100
AcDbEntity
  8
Visible (ANSI)
100
AcDbLine
 10
45.67836047058839
 20
16.40641539899765
 30
0.0
 11
45.67836047058839
 21
15.18861539899765
 31
0.0
  0
LINE
  5
119
330
6C
100
AcDbEntity
  8
Visible (ANSI)
100
AcDbLine
 10
45.17836047058837
 20
60.88861539899766
 30
0.0
 11
45.67836047058837
 21
60.38861539899766
 31
0.0
  0
LINE
  5
11A
330
6C
100
AcDbEntity
  8
Visible (ANSI)
100
AcDbLine
 10
23.47836047058837
 20
60.38861539899766
 30
0.0
 11
23.97836047058837
 21
60.88861539899766
 31
0.0
  0
LINE
  5
11B
330
6C
100
AcDbEntity
  8
Visible (ANSI)
100
AcDbLine
 10
23.47836047058837
 20
59.17081539899765
 30
0.0
 11
23.58791047058836
 21
59.17081539899765
 31
0.0
  0
LINE
  5
11C
330
6C
100
AcDbEntity
  8
Visible (ANSI)
100
AcDbLine
 10
23.58791047058836
 20
59.17081539899765
 30
0.0
 11
23.58791047058836
 21
59.17061539899766
 31
0.0
  0
LINE
  5
11D
330
6C
100
AcDbEntity
  8
Visible (ANSI)
100
AcDbLine
 10
23.58791047058837
 20
16.40661539899765
 30
0.0
 11
23.58791047058837
 21
16.40641539899765
 31
0.0
  0
LINE
  5
11E
330
6C
100
AcDbEntity
  8
Visible (ANSI)
100
AcDbLine
 10
23.58791047058837
 20
16.40641539899765
 30
0.0
 11
23.47836047058839
 21
16.40641539899765
 31
0.0
  0
LINE
  5
11F
330
6C
100
AcDbEntity
  8
Visible (ANSI)
100
AcDbLine
 10
23.47836047058839
 20
59.17061539899766
 30
0.0
 11
23.4783604705884
 21
16.40661539899765
 31
0.0
  0
LINE
  5
120
330
6C
100
AcDbEntity
  8
Visible (ANSI)
100
AcDbLine
 10
23.47836047058839
 20
59.17061539899766
 30
0.0
 11
23.58771047058835
 21
59.17061539899766
 31
0.0
  0
LINE
  5
121
330
6C
100
AcDbEntity
  8
Visible (ANSI)
100
AcDbLine
 10
23.4783604705884
 20
16.40661539899765
 30
0.0
 11
23.58771047058837
 21
16.40661539899765
 31
0.0
  0
LINE
  5
122
330
6C
100
AcDbEntity
  8
Hidden (ANSI)
 48
1.070116639137268
100
AcDbLine
 10
23.57211047058839
 20
16.40661539899765
 30
0.0
 11
23.57211047058838
 21
59.17061539899766
 31
0.0
  0
LINE
  5
123
330
6C
100
AcDbEntity
  8
Visible (ANSI)
100
AcDbLine
 10
23.58791047058836
 20
59.17061539899766
 30
0.0
 11
23.58771047058836
 21
59.17061539899766
 31
0.0
  0
LINE
  5
124
330
6C
100
AcDbEntity
  8
Visible (ANSI)
100
AcDbLine
 10
23.58771047058837
 20
16.40661539899765
 30
0.0
 11
23.58791047058837
 21
16.40661539899765
 31
0.0
  0
LINE
  5
125
330
6C
100
AcDbEntity
  8
Visible (ANSI)
100
AcDbLine
 10
23.97836047058838
 20
14.68861539899766
 30
0.0
 11
23.47836047058839
 21
15.18861539899765
 31
0.0
  0
LINE
  5
126
330
6C
100
AcDbEntity
  8
Visible (ANSI)
100
AcDbLine
 10
45.67836047058839
 20
15.18861539899765
 30
0.0
 11
45.17836047058838
 21
14.68861539899766
 31
0.0
  0
CIRCLE
  5
127
330
6C
100
AcDbEntity
  8
Visible (ANSI)
100
AcDbCircle
 10
45.15836047058838
 20
60.36861539899764
 30
0.0
 40
0.25
  0
CIRCLE
  5
128
330
6C
100
AcDbEntity
  8
Visible (ANSI)
100
AcDbCircle
 10
23.99836047058839
 20
60.36861539899764
 30
0.0
 40
0.25
  0
CIRCLE
  5
129
330
6C
100
AcDbEntity
  8
Visible (ANSI)
100
AcDbCircle
 10
23.99836047058839
 20
15.20861539899765
 30
0.0
 40
0.25
  0
CIRCLE
  5
12A
330
6C
100
AcDbEntity
  8
Visible (ANSI)
100
AcDbCircle
 10
45.15836047058838
 20
15.20861539899765
 30
0.0
 40
0.25
  0
CIRCLE
  5
12B
330
6C
100
AcDbEntity
  8
Visible (ANSI)
100
AcDbCircle
 10
45.15836047058838
 20
59.61861539899766
 30
0.0
 40
0.15625
  0
CIRCLE
  5
12C
330
6C
100
AcDbEntity
  8
Visible (ANSI)
100
AcDbCircle
 10
23.99836047058839
 20
59.61861539899764
 30
0.0
 40
0.15625
  0
CIRCLE
  5
12D
330
6C
100
AcDbEntity
  8
Visible (ANSI)
100
AcDbCircle
 10
23.99836047058839
 20
15.95861539899765
 30
0.0
 40
0.15625
  0
CIRCLE
  5
12E
330
6C
100
AcDbEntity
  8
Visible (ANSI)
100
AcDbCircle
 10
45.15836047058838
 20
15.95861539899765
 30
0.0
 40
0.15625
  0
MTEXT
  5
130
330
6C
100
AcDbEntity
  8
Symbol (ANSI)
100
AcDbMText
 10
30.14659165658045
 20
6.437893733904529
 30
0.0
 40
0.8000000098871746
 41
0.0
 71
     7
 72
     1
  1
FRONT VIEW
  7
Text Style168
 73
     1
 44
1.0
1001
ACAD
1000
MTEXTBEGIN
1070
    73
1070
     1
1070
    44
1040
1.0
1070
    74
1070
     0
1000
MTEXTEND
  0
LINE
  5
132
330
6C
100
AcDbEntity
  8
Symbol (ANSI)
370
    30
100
AcDbLine
 10
30.06659145079121
 20
6.274749484738594
 30
0.0
 11
36.49835814602905
 21
6.274749484738594
 31
0.0
  0
LINE
  5
133
330
6C
100
AcDbEntity
  8
Visible (ANSI)
100
AcDbLine
 10
71.51720435874614
 20
16.40661539899765
 30
0.0
 11
72.18185435874612
 21
16.40661539899765
 31
0.0
  0
LINE
  5
134
330
6C
100
AcDbEntity
  8
Visible (ANSI)
100
AcDbLine
 10
72.18185435874612
 20
59.17061539899766
 30
0.0
 11
72.18185435874612
 21
16.40661539899765
 31
0.0
  0
LINE
  5
135
330
6C
100
AcDbEntity
  8
Visible (ANSI)
100
AcDbLine
 10
72.18185435874612
 20
59.17061539899766
 30
0.0
 11
71.51720435874614
 21
59.17061539899766
 31
0.0
  0
LINE
  5
136
330
6C
100
AcDbEntity
  8
Visible (ANSI)
100
AcDbLine
 10
71.51720435874614
 20
16.40661539899765
 30
0.0
 11
71.40785435874609
 21
16.40661539899765
 31
0.0
  0
LINE
  5
137
330
6C
100
AcDbEntity
  8
Visible (ANSI)
100
AcDbLine
 10
71.51720435874612
 20
59.17061539899766
 30
0.0
 11
71.40785435874608
 21
59.17061539899766
 31
0.0
  0
LINE
  5
138
330
6C
100
AcDbEntity
  8
Visible (ANSI)
100
AcDbLine
 10
71.40785435874608
 20
16.40661539899765
 30
0.0
 11
71.40785435874608
 21
59.17061539899766
 31
0.0
  0
LINE
  5
139
330
6C
100
AcDbEntity
  8
Visible (ANSI)
100
AcDbLine
 10
71.40785435874612
 20
59.17081539899765
 30
0.0
 11
71.5016043587461
 21
59.17081539899765
 31
0.0
  0
LINE
  5
13A
330
6C
100
AcDbEntity
  8
Visible (ANSI)
100
AcDbLine
 10
71.50160435874608
 20
59.17081539899765
 30
0.0
 11
71.50160435874608
 21
59.17061539899766
 31
0.0
  0
LINE
  5
13B
330
6C
100
AcDbEntity
  8
Visible (ANSI)
100
AcDbLine
 10
71.40785435874608
 20
59.17061539899766
 30
0.0
 11
71.40785435874608
 21
59.17081539899765
 31
0.0
  0
LINE
  5
13C
330
6C
100
AcDbEntity
  8
Visible (ANSI)
100
AcDbLine
 10
71.50160435874608
 20
16.40661539899765
 30
0.0
 11
71.50160435874608
 21
16.40641539899765
 31
0.0
  0
LINE
  5
13D
330
6C
100
AcDbEntity
  8
Visible (ANSI)
100
AcDbLine
 10
71.40785435874608
 20
16.40641539899765
 30
0.0
 11
71.40785435874608
 21
16.40661539899765
 31
0.0
  0
LINE
  5
13E
330
6C
100
AcDbEntity
  8
Visible (ANSI)
100
AcDbLine
 10
71.5016043587461
 20
16.40641539899765
 30
0.0
 11
71.40785435874612
 21
16.40641539899765
 31
0.0
  0
LINE
  5
13F
330
6C
100
AcDbEntity
  8
Hidden (ANSI)
 48
1.070116639137268
100
AcDbLine
 10
71.50160435874608
 20
59.17061539899766
 30
0.0
 11
71.50160435874608
 21
16.40661539899765
 31
0.0
  0
LINE
  5
140
330
6C
100
AcDbEntity
  8
Visible (ANSI)
100
AcDbLine
 10
71.5016043587461
 20
15.18861539899765
 30
0.0
 11
71.5016043587461
 21
16.40641539899765
 31
0.0
  0
LINE
  5
141
330
6C
100
AcDbEntity
  8
Visible (ANSI)
100
AcDbLine
 10
71.5016043587461
 20
59.17081539899765
 30
0.0
 11
71.5016043587461
 21
60.38861539899766
 31
0.0
  0
LINE
  5
142
330
6C
100
AcDbEntity
  8
Visible (ANSI)
100
AcDbLine
 10
71.40785435874612
 20
60.38861539899766
 30
0.0
 11
71.40785435874612
 21
59.17081539899765
 31
0.0
  0
LINE
  5
143
330
6C
100
AcDbEntity
  8
Visible (ANSI)
100
AcDbLine
 10
71.40785435874612
 20
16.40641539899765
 30
0.0
 11
71.40785435874612
 21
15.18861539899765
 31
0.0
  0
LINE
  5
144
330
6C
100
AcDbEntity
  8
Visible (ANSI)
100
AcDbLine
 10
71.50160435874598
 20
14.68861539899766
 30
0.0
 11
71.5016043587461
 21
15.18861539899765
 31
0.0
  0
LINE
  5
145
330
6C
100
AcDbEntity
  8
Visible (ANSI)
100
AcDbLine
 10
71.40785435874612
 20
15.18861539899765
 30
0.0
 11
71.40785435874597
 21
14.68861539899766
 31
0.0
  0
LINE
  5
146
330
6C
100
AcDbEntity
  8
Visible (ANSI)
100
AcDbLine
 10
71.40785435874597
 20
14.68861539899766
 30
0.0
 11
71.50160435874598
 21
14.68861539899766
 31
0.0
  0
LINE
  5
147
330
6C
100
AcDbEntity
  8
Visible (ANSI)
100
AcDbLine
 10
71.5016043587461
 20
15.18861539899765
 30
0.0
 11
71.40785435874612
 21
15.18861539899765
 31
0.0
  0
LINE
  5
148
330
6C
100
AcDbEntity
  8
Visible (ANSI)
100
AcDbLine
 10
71.5016043587461
 20
60.38861539899766
 30
0.0
 11
71.50160435874598
 21
60.88861539899766
 31
0.0
  0
LINE
  5
149
330
6C
100
AcDbEntity
  8
Visible (ANSI)
100
AcDbLine
 10
71.40785435874597
 20
60.88861539899766
 30
0.0
 11
71.40785435874612
 21
60.38861539899766
 31
0.0
  0
LINE
  5
14A
330
6C
100
AcDbEntity
  8
Visible (ANSI)
100
AcDbLine
 10
71.40785435874612
 20
60.38861539899766
 30
0.0
 11
71.5016043587461
 21
60.38861539899766
 31
0.0
  0
LINE
  5
14B
330
6C
100
AcDbEntity
  8
Visible (ANSI)
100
AcDbLine
 10
71.50160435874598
 20
60.88861539899766
 30
0.0
 11
71.40785435874597
 21
60.88861539899766
 31
0.0
  0
LINE
  5
14C
330
6C
100
AcDbEntity
  8
Hidden (ANSI)
 48
0.0266847964376211
100
AcDbLine
 10
71.40785435874597
 20
38.03861539899765
 30
0.0
 11
71.50160435874596
 21
38.03861539899765
 31
0.0
  0
LINE
  5
14D
330
6C
100
AcDbEntity
  8
Hidden (ANSI)
 48
0.0266847964376211
100
AcDbLine
 10
71.40785435874597
 20
37.53861539899765
 30
0.0
 11
71.50160435874596
 21
37.53861539899765
 31
0.0
  0
LINE
  5
14E
330
6C
100
AcDbEntity
  8
Hidden (ANSI)
 48
0.0266847964376211
100
AcDbLine
 10
71.40785435874597
 20
60.61861539899766
 30
0.0
 11
71.50160435874596
 21
60.61861539899766
 31
0.0
  0
LINE
  5
14F
330
6C
100
AcDbEntity
  8
Hidden (ANSI)
 48
0.0266847964376211
100
AcDbLine
 10
71.40785435874597
 20
60.11861539899765
 30
0.0
 11
71.50160435874596
 21
60.11861539899765
 31
0.0
  0
LINE
  5
150
330
6C
100
AcDbEntity
  8
Hidden (ANSI)
 48
0.0266847964376211
100
AcDbLine
 10
71.40785435874597
 20
15.45861539899766
 30
0.0
 11
71.50160435874596
 21
15.45861539899766
 31
0.0
  0
LINE
  5
151
330
6C
100
AcDbEntity
  8
Hidden (ANSI)
 48
0.0266847964376211
100
AcDbLine
 10
71.40785435874597
 20
14.95861539899765
 30
0.0
 11
71.50160435874596
 21
14.95861539899765
 31
0.0
  0
LINE
  5
152
330
6C
100
AcDbEntity
  8
Hidden (ANSI)
 48
0.0266847964376211
100
AcDbLine
 10
71.40785435874597
 20
59.77486539899765
 30
0.0
 11
71.50160435874596
 21
59.77486539899765
 31
0.0
  0
LINE
  5
153
330
6C
100
AcDbEntity
  8
Hidden (ANSI)
 48
0.0266847964376211
100
AcDbLine
 10
71.40785435874597
 20
59.46236539899766
 30
0.0
 11
71.50160435874596
 21
59.46236539899766
 31
0.0
  0
LINE
  5
154
330
6C
100
AcDbEntity
  8
Hidden (ANSI)
 48
0.0266847964376211
100
AcDbLine
 10
71.40785435874597
 20
16.11486539899765
 30
0.0
 11
71.50160435874596
 21
16.11486539899765
 31
0.0
  0
LINE
  5
155
330
6C
100
AcDbEntity
  8
Hidden (ANSI)
 48
0.0266847964376211
100
AcDbLine
 10
71.40785435874597
 20
15.80236539899766
 30
0.0
 11
71.50160435874596
 21
15.80236539899766
 31
0.0
  0
MTEXT
  5
156
330
6C
100
AcDbEntity
  8
Symbol (ANSI)
100
AcDbMText
 10
68.36034199853817
 20
6.029611430636649
 30
0.0
 40
0.8000000098871746
 41
0.0
 71
     7
 72
     1
  1
SIDE VIEW
  7
Text Style168
 73
     1
 44
1.0
1001
ACAD
1000
MTEXTBEGIN
1070
    73
1070
     1
1070
    44
1040
1.0
1070
    74
1070
     0
1000
MTEXTEND
  0
LINE
  5
157
330
6C
100
AcDbEntity
  8
Symbol (ANSI)
370
    30
100
AcDbLine
 10
68.31938189317407
 20
5.863873989538601
 30
0.0
 11
73.72554069587737
 21
5.863873989538601
 31
0.0
  0
ELLIPSE
  5
158
330
6C
100
AcDbEntity
  8
Visible (ANSI)
100
AcDbEllipse
 10
103.3616582332125
 20
42.3694577182295
 30
0.0
 11
-0.0914892387904735
 21
0.158873629959948
 31
0.0
210
0.0
220
0.0
230
1.0
 40
0.578093115915813
 41
0.2678448778124866
 42
2.873747775777232
  0
ELLIPSE
  5
159
330
6C
100
AcDbEntity
  8
Visible (ANSI)
100
AcDbEllipse
 10
103.313044642006
 20
42.34146301290627
 30
0.0
 11
-0.0914892387904743
 21
0.1588736299599493
 31
0.0
210
0.0
220
0.0
230
1.0
 40
0.5780931159158129
 41
0.0
 42
6.283185307179586
  0
ELLIPSE
  5
15A
330
6C
100
AcDbEntity
  8
Visible (ANSI)
100
AcDbEllipse
 10
92.38924660727887
 20
48.68804934104878
 30
0.0
 11
-0.0914892387904744
 21
0.1588736299599496
 31
0.0
210
0.0
220
0.0
230
1.0
 40
0.5780931159158129
 41
0.2678448778126206
 42
2.873747775777362
  0
ELLIPSE
  5
15B
330
6C
100
AcDbEntity
  8
Visible (ANSI)
100
AcDbEllipse
 10
92.3406330160723
 20
48.66005463572555
 30
0.0
 11
-0.0914892387904743
 21
0.1588736299599493
 31
0.0
210
0.0
220
0.0
230
1.0
 40
0.5780931159158129
 41
0.0
 42
6.283185307179586
  0
LINE
  5
15C
330
6C
100
AcDbEntity
  8
Visible Narrow (ANSI)
100
AcDbLine
 10
103.6393909206818
 20
29.39959081452148
 30
0.0
 11
103.6393909206819
 21
55.03808666215022
 31
0.0
  0
ELLIPSE
  5
15D
330
6C
100
AcDbEntity
  8
Visible (ANSI)
100
AcDbEllipse
 10
103.5826880278984
 20
29.43224383881048
 30
0.0
 11
0.0801900000000008
 21
0.0000000000000047
 31
0.0
210
0.0
220
0.0
230
1.0
 40
0.5758617009853094
 41
3.926990816987318
 42
5.497787143782167
  0
LINE
  5
15E
330
6C
100
AcDbEntity
  8
Visible (ANSI)
100
AcDbLine
 10
103.5258814261206
 20
55.03814638418822
 30
0.0
 11
103.5259855369786
 21
55.03820633764404
 31
0.0
  0
ELLIPSE
  5
15F
330
6C
100
AcDbEntity
  8
Visible (ANSI)
100
AcDbEllipse
 10
103.5826880278985
 20
55.07073968643923
 30
0.0
 11
0.0801900000000463
 21
0.0000000000000047
 31
0.0
210
0.0
220
0.0
230
1.0
 40
0.5758617009853092
 41
3.926990816987276
 42
3.987598387464596
  0
ELLIPSE
  5
160
330
6C
100
AcDbEntity
  8
Visible (ANSI)
100
AcDbEllipse
 10
103.582688027898
 20
55.0707396864395
 30
0.0
 11
0.0801900000006503
 21
-0.0000000000000001
 31
0.0
210
0.0
220
0.0
230
1.0
 40
0.5758617009853092
 41
5.363700662383873
 42
5.497787143782003
  0
LINE
  5
161
330
6C
100
AcDbEntity
  8
Visible Narrow (ANSI)
100
AcDbLine
 10
103.5259851351151
 20
29.39959081452146
 30
0.0
 11
103.5259851351151
 21
55.0380866621502
 31
0.0
  0
LINE
  5
162
330
6C
100
AcDbEntity
  8
Visible (ANSI)
100
AcDbLine
 10
103.5826880278985
 20
55.00555354477285
 30
0.0
 11
103.6313016191051
 21
55.03354825009607
 31
0.0
  0
LINE
  5
163
330
6C
100
AcDbEntity
  8
Visible (ANSI)
100
AcDbLine
 10
103.5258814261206
 20
55.03826629109987
 30
0.0
 11
103.5826880278985
 21
55.00555354477285
 31
0.0
  0
LINE
  5
164
330
6C
100
AcDbEntity
  8
Visible (ANSI)
100
AcDbLine
 10
103.5258814261206
 20
55.03814638418822
 30
0.0
 11
103.5258814261206
 21
55.03826629109987
 31
0.0
  0
LINE
  5
165
330
6C
100
AcDbEntity
  8
Visible (ANSI)
100
AcDbLine
 10
103.5258814261206
 20
29.39953062964784
 30
0.0
 11
103.5258814261206
 21
29.39965053655948
 31
0.0
  0
LINE
  5
166
330
6C
100
AcDbEntity
  8
Visible (ANSI)
100
AcDbLine
 10
103.5258814261206
 20
29.39953062964784
 30
0.0
 11
103.52598553698
 21
29.39959058310448
 31
0.0
  0
LINE
  5
167
330
6C
100
AcDbEntity
  8
Visible (ANSI)
100
AcDbLine
 10
103.6306024227873
 20
29.3952152290249
 30
0.0
 11
103.631301619105
 21
29.39481258864404
 31
0.0
  0
LINE
  5
168
330
6C
100
AcDbEntity
  8
Visible (ANSI)
100
AcDbLine
 10
103.5826880278985
 20
29.36681788332082
 30
0.0
 11
103.5258814261206
 21
29.39953062964784
 31
0.0
  0
LINE
  5
169
330
6C
100
AcDbEntity
  8
Visible (ANSI)
100
AcDbLine
 10
103.631301619105
 20
29.39481258864404
 30
0.0
 11
103.5826880278985
 21
29.36681788332082
 31
0.0
  0
LINE
  5
16A
330
6C
100
AcDbEntity
  8
Visible (ANSI)
100
AcDbLine
 10
103.6393909206818
 20
29.39959081452148
 30
0.0
 11
103.9840418368999
 21
29.59806207738103
 31
0.0
  0
LINE
  5
16B
330
6C
100
AcDbEntity
  8
Visible (ANSI)
100
AcDbLine
 10
103.9840418368999
 20
55.23655792500976
 30
0.0
 11
103.9840418368999
 21
29.59806207738103
 31
0.0
  0
LINE
  5
16C
330
6C
100
AcDbEntity
  8
Visible (ANSI)
100
AcDbLine
 10
103.9840418368999
 20
55.23655792500976
 30
0.0
 11
103.6393909206819
 21
55.03808666215022
 31
0.0
  0
LINE
  5
16D
330
6C
100
AcDbEntity
  8
Visible (ANSI)
100
AcDbLine
 10
103.5258814261206
 20
29.39965053655948
 30
0.0
 11
103.5259851351151
 21
29.39959081452146
 31
0.0
  0
LINE
  5
16E
330
6C
100
AcDbEntity
  8
Visible (ANSI)
100
AcDbLine
 10
103.9354282456933
 20
55.26455263033298
 30
0.0
 11
103.9840418368999
 21
55.23655792500976
 31
0.0
  0
LINE
  5
16F
330
6C
100
AcDbEntity
  8
Visible (ANSI)
100
AcDbLine
 10
103.6313016191051
 20
55.08941775383087
 30
0.0
 11
103.9354282456933
 21
55.26455263033298
 31
0.0
  0
LINE
  5
170
330
6C
100
AcDbEntity
  8
Visible (ANSI)
100
AcDbLine
 10
103.5259851351151
 20
55.0380866621502
 30
0.0
 11
103.5258814261206
 21
55.03814638418822
 31
0.0
  0
ELLIPSE
  5
171
330
6C
100
AcDbEntity
  8
Visible (ANSI)
100
AcDbEllipse
 10
103.3616582332125
 20
55.90694804278887
 30
0.0
 11
-0.0914892387904738
 21
0.1588736299599486
 31
0.0
210
0.0
220
0.0
230
1.0
 40
0.578093115915813
 41
0.2678448778126205
 42
2.873747775777362
  0
ELLIPSE
  5
172
330
6C
100
AcDbEntity
  8
Visible (ANSI)
100
AcDbEllipse
 10
92.38924660727887
 20
62.22553966560815
 30
0.0
 11
-0.0914892387904743
 21
0.1588736299599493
 31
0.0
210
0.0
220
0.0
230
1.0
 40
0.578093115915813
 41
0.2678448778126205
 42
2.873747775777362
  0
ELLIPSE
  5
173
330
6C
100
AcDbEntity
  8
Visible (ANSI)
100
AcDbEllipse
 10
92.38924660727887
 20
35.15055901648942
 30
0.0
 11
-0.091489238790474
 21
0.1588736299599489
 31
0.0
210
0.0
220
0.0
230
1.0
 40
0.5780931159158128
 41
0.2678448778126472
 42
2.873747775777392
  0
ELLIPSE
  5
174
330
6C
100
AcDbEntity
  8
Visible (ANSI)
100
AcDbEllipse
 10
103.3616582332125
 20
28.83196739367014
 30
0.0
 11
-0.091489238790474
 21
0.1588736299599488
 31
0.0
210
0.0
220
0.0
230
1.0
 40
0.5780931159158128
 41
0.2678448778126477
 42
2.873747775777392
  0
ELLIPSE
  5
175
330
6C
100
AcDbEntity
  8
Visible (ANSI)
100
AcDbEllipse
 10
103.3616582332125
 20
55.45729712412548
 30
0.0
 11
0.0571807742440521
 21
-0.0992960187249646
 31
0.0
210
0.0
220
0.0
230
0.9999999999999998
 40
0.5780931159158126
 41
3.578838513251566
 42
5.845939447517068
  0
ELLIPSE
  5
176
330
6C
100
AcDbEntity
  8
Visible (ANSI)
100
AcDbEllipse
 10
92.38924660727887
 20
61.77588874694476
 30
0.0
 11
0.0571807742440524
 21
-0.099296018724965
 31
0.0
210
0.0
220
0.0
230
0.9999999999999998
 40
0.578093115915813
 41
3.578838513251564
 42
5.845939447517068
  0
ELLIPSE
  5
177
330
6C
100
AcDbEntity
  8
Visible (ANSI)
100
AcDbEllipse
 10
92.38924660727887
 20
35.60020993515282
 30
0.0
 11
0.0571807742440522
 21
-0.0992960187249647
 31
0.0
210
0.0
220
0.0
230
0.9999999999999998
 40
0.5780931159158128
 41
3.578838513251753
 42
5.845939447517068
  0
ELLIPSE
  5
178
330
6C
100
AcDbEntity
  8
Visible (ANSI)
100
AcDbEllipse
 10
103.3616582332125
 20
29.28161831233353
 30
0.0
 11
0.0571807742440521
 21
-0.0992960187249645
 31
0.0
210
0.0
220
0.0
230
1.0
 40
0.5780931159158129
 41
3.578838513251753
 42
5.845939447517068
  0
ELLIPSE
  5
179
330
6C
100
AcDbEntity
  8
Visible (ANSI)
100
AcDbEllipse
 10
103.313044642006
 20
55.87895333746565
 30
0.0
 11
-0.091489238790474
 21
0.1588736299599489
 31
0.0
210
0.0
220
0.0
230
1.0
 40
0.578093115915813
 41
0.0
 42
6.283185307179586
  0
ELLIPSE
  5
17A
330
6C
100
AcDbEntity
  8
Visible (ANSI)
100
AcDbEllipse
 10
92.34063301607232
 20
62.19754496028492
 30
0.0
 11
-0.091489238790474
 21
0.1588736299599489
 31
0.0
210
0.0
220
0.0
230
1.0
 40
0.578093115915813
 41
0.0
 42
6.283185307179586
  0
ELLIPSE
  5
17B
330
6C
100
AcDbEntity
  8
Visible (ANSI)
100
AcDbEllipse
 10
92.34063301607228
 20
35.1225643111662
 30
0.0
 11
-0.091489238790474
 21
0.1588736299599489
 31
0.0
210
0.0
220
0.0
230
1.0
 40
0.578093115915813
 41
0.0
 42
6.283185307179586
  0
ELLIPSE
  5
17C
330
6C
100
AcDbEntity
  8
Visible (ANSI)
100
AcDbEllipse
 10
103.3130446420059
 20
28.80397268834692
 30
0.0
 11
-0.091489238790474
 21
0.1588736299599489
 31
0.0
210
0.0
220
0.0
230
1.0
 40
0.578093115915813
 41
0.0
 42
6.283185307179586
  0
ELLIPSE
  5
17D
330
6C
100
AcDbEntity
  8
Visible (ANSI)
100
AcDbEllipse
 10
103.313044642006
 20
55.42930241880226
 30
0.0
 11
-0.0571807742440462
 21
0.0992960187249681
 31
0.0
210
0.0
220
0.0
230
1.0
 40
0.5780931159158129
 41
0.0
 42
6.283185307179586
  0
ELLIPSE
  5
17E
330
6C
100
AcDbEntity
  8
Visible (ANSI)
100
AcDbEllipse
 10
92.34063301607232
 20
61.74789404162154
 30
0.0
 11
-0.0571807742440462
 21
0.0992960187249681
 31
0.0
210
0.0
220
0.0
230
1.0
 40
0.5780931159158129
 41
0.0
 42
6.283185307179586
  0
ELLIPSE
  5
17F
330
6C
100
AcDbEntity
  8
Visible (ANSI)
100
AcDbEllipse
 10
92.34063301607228
 20
35.5722152298296
 30
0.0
 11
-0.0571807742440462
 21
0.0992960187249681
 31
0.0
210
0.0
220
0.0
230
1.0
 40
0.5780931159158129
 41
0.0
 42
6.283185307179586
  0
ELLIPSE
  5
180
330
6C
100
AcDbEntity
  8
Visible (ANSI)
100
AcDbEllipse
 10
103.3130446420059
 20
29.25362360701031
 30
0.0
 11
-0.0571807742440462
 21
0.0992960187249681
 31
0.0
210
0.0
220
0.0
230
1.0
 40
0.5780931159158129
 41
0.0
 42
6.283185307179586
  0
LINE
  5
181
330
6C
100
AcDbEntity
  8
Visible (ANSI)
100
AcDbLine
 10
103.631301619105
 20
28.66469940364633
 30
0.0
 11
103.631301619105
 21
29.39481258864404
 31
0.0
  0
LINE
  5
182
330
6C
100
AcDbEntity
  8
Visible (ANSI)
100
AcDbLine
 10
103.37202913267
 20
56.21273380925988
 30
0.0
 11
92.37887570782147
 21
62.54326983968375
 31
0.0
  0
LINE
  5
183
330
6C
100
AcDbEntity
  8
Visible (ANSI)
100
AcDbLine
 10
103.6313016191051
 20
55.03354825009607
 30
0.0
 11
103.6313016191051
 21
55.76366143509378
 31
0.0
  0
LINE
  5
184
330
6C
100
AcDbEntity
  8
Visible (ANSI)
100
AcDbLine
 10
103.5826880278985
 20
55.73566672977055
 30
0.0
 11
103.5826880278985
 21
55.00555354477285
 31
0.0
  0
LINE
  5
185
330
6C
100
AcDbEntity
  8
Visible (ANSI)
100
AcDbLine
 10
92.3302621166149
 20
62.51527513436052
 30
0.0
 11
103.3234155414634
 21
56.18473910393666
 31
0.0
  0
LINE
  5
186
330
6C
100
AcDbEntity
  8
Visible (ANSI)
100
AcDbLine
 10
92.07098963017982
 20
61.63469976531104
 30
0.0
 11
92.07098963017982
 21
62.36481295030874
 31
0.0
  0
LINE
  5
187
330
6C
100
AcDbEntity
  8
Visible (ANSI)
100
AcDbLine
 10
92.0709896301798
 20
35.26585091886129
 30
0.0
 11
92.0709896301798
 21
35.995964103859
 31
0.0
  0
LINE
  5
188
330
6C
100
AcDbEntity
  8
Visible (ANSI)
100
AcDbLine
 10
103.3234155414634
 20
28.48624251427134
 30
0.0
 11
92.33026211661488
 21
34.81677854469519
 31
0.0
  0
LINE
  5
189
330
6C
100
AcDbEntity
  8
Visible (ANSI)
100
AcDbLine
 10
103.5826880278985
 20
29.36681788332082
 30
0.0
 11
103.5826880278985
 21
28.6367046983231
 31
0.0
  0
LINE
  5
18A
330
6C
100
AcDbEntity
  8
Visible (ANSI)
100
AcDbLine
 10
103.3720291326699
 20
28.51423721959456
 30
0.0
 11
103.631301619105
 21
28.66469940364633
 31
0.0
  0
LINE
  5
18B
330
6C
100
AcDbEntity
  8
Visible (ANSI)
100
AcDbLine
 10
103.5826880278985
 20
28.6367046983231
 30
0.0
 11
103.3234155414634
 21
28.48624251427134
 31
0.0
  0
LINE
  5
18C
330
6C
100
AcDbEntity
  8
Visible (ANSI)
100
AcDbLine
 10
103.3234155414634
 20
28.48624251427134
 30
0.0
 11
103.3720291326699
 21
28.51423721959456
 31
0.0
  0
LINE
  5
18D
330
6C
100
AcDbEntity
  8
Visible (ANSI)
100
AcDbLine
 10
103.631301619105
 20
28.66469940364633
 30
0.0
 11
103.5826880278985
 21
28.6367046983231
 31
0.0
  0
LINE
  5
18E
330
6C
100
AcDbEntity
  8
Visible (ANSI)
100
AcDbLine
 10
103.6313016191051
 20
55.76366143509378
 30
0.0
 11
103.37202913267
 21
56.21273380925988
 31
0.0
  0
LINE
  5
18F
330
6C
100
AcDbEntity
  8
Visible (ANSI)
100
AcDbLine
 10
103.3234155414634
 20
56.18473910393666
 30
0.0
 11
103.5826880278985
 21
55.73566672977055
 31
0.0
  0
LINE
  5
190
330
6C
100
AcDbEntity
  8
Visible (ANSI)
100
AcDbLine
 10
103.5826880278985
 20
55.73566672977055
 30
0.0
 11
103.6313016191051
 21
55.76366143509378
 31
0.0
  0
LINE
  5
191
330
6C
100
AcDbEntity
  8
Visible (ANSI)
100
AcDbLine
 10
103.37202913267
 20
56.21273380925988
 30
0.0
 11
103.3234155414634
 21
56.18473910393666
 31
0.0
  0
LINE
  5
192
330
6C
100
AcDbEntity
  8
Visible (ANSI)
100
AcDbLine
 10
92.07098963017982
 20
62.36481295030874
 30
0.0
 11
92.3302621166149
 21
62.51527513436052
 31
0.0
  0
LINE
  5
193
330
6C
100
AcDbEntity
  8
Visible (ANSI)
100
AcDbLine
 10
92.3302621166149
 20
62.51527513436052
 30
0.0
 11
92.37887570782147
 21
62.54326983968375
 31
0.0
  0
LINE
  5
194
330
6C
100
AcDbEntity
  8
Visible (ANSI)
100
AcDbLine
 10
92.07098963017982
 20
61.63469976531104
 30
0.0
 11
92.12779623195773
 21
61.60198701898401
 31
0.0
  0
LINE
  5
195
330
6C
100
AcDbEntity
  8
Visible (ANSI)
100
AcDbLine
 10
92.12779623195773
 20
61.60198701898401
 30
0.0
 11
92.12779623195773
 21
61.60186711207236
 31
0.0
  0
LINE
  5
196
330
6C
100
AcDbEntity
  8
Visible Narrow (ANSI)
100
AcDbLine
 10
92.12769252296315
 20
61.60192683411039
 30
0.0
 11
92.12769252296313
 21
35.96343098648165
 31
0.0
  0
LINE
  5
197
330
6C
100
AcDbEntity
  8
Visible (ANSI)
100
AcDbLine
 10
92.12779623195769
 20
35.96337126444363
 30
0.0
 11
92.12779623195769
 21
35.96325135753198
 31
0.0
  0
LINE
  5
198
330
6C
100
AcDbEntity
  8
Visible (ANSI)
100
AcDbLine
 10
92.12779623195769
 20
35.96325135753198
 30
0.0
 11
92.0709896301798
 21
35.995964103859
 31
0.0
  0
ELLIPSE
  5
199
330
6C
100
AcDbEntity
  8
Visible (ANSI)
100
AcDbEllipse
 10
92.18439541574651
 20
61.6345798583994
 30
0.0
 11
-0.0801899999999991
 21
0.0000000000000001
 31
0.0
210
0.0
220
0.0
230
1.0
 40
0.5758617009853094
 41
0.724790592920181
 42
0.7853981633973915
  0
ELLIPSE
  5
19A
330
6C
100
AcDbEntity
  8
Visible (ANSI)
100
AcDbEllipse
 10
92.18439541574648
 20
35.99608401077065
 30
0.0
 11
-0.0801899999999999
 21
-0.0000000000000015
 31
0.0
210
0.0
220
0.0
230
1.0
 40
0.575861700985318
 41
0.0
 42
0.7853981633972893
  0
LINE
  5
19B
330
6C
100
AcDbEntity
  8
Visible (ANSI)
100
AcDbLine
 10
92.0709896301798
 20
35.995964103859
 30
0.0
 11
92.10420541574649
 21
36.01509180263501
 31
0.0
  0
LINE
  5
19C
330
6C
100
AcDbEntity
  8
Visible (ANSI)
100
AcDbLine
 10
92.1042054157465
 20
61.61557206653504
 30
0.0
 11
92.10420541574649
 21
35.99608401077065
 31
0.0
  0
LINE
  5
19D
330
6C
100
AcDbEntity
  8
Visible (ANSI)
100
AcDbLine
 10
92.12779623195773
 20
61.60186711207236
 30
0.0
 11
92.12769252296315
 21
61.60192683411039
 31
0.0
  0
LINE
  5
19E
330
6C
100
AcDbEntity
  8
Visible (ANSI)
100
AcDbLine
 10
92.12769252296313
 20
35.96343098648165
 30
0.0
 11
92.12779623195769
 21
35.96337126444363
 31
0.0
  0
LINE
  5
19F
330
6C
100
AcDbEntity
  8
Visible (ANSI)
100
AcDbLine
 10
92.31666465430405
 20
61.77605469568121
 30
0.0
 11
92.37692081446969
 21
61.81075391056904
 31
0.0
  0
LINE
  5
1A0
330
6C
100
AcDbEntity
  8
Visible (ANSI)
100
AcDbLine
 10
92.40377719030265
 20
61.77023005819208
 30
0.0
 11
92.33823386112474
 21
61.73248616516344
 31
0.0
  0
LINE
  5
1A1
330
6C
100
AcDbEntity
  8
Visible (ANSI)
100
AcDbLine
 10
92.33026211661488
 20
34.81677854469519
 30
0.0
 11
92.0709896301798
 21
35.26585091886129
 31
0.0
  0
DIMENSION
  5
1A2
330
6C
100
AcDbEntity
  8
Dimension (ANSI)
100
AcDbDimension
  2
*D4
 10
45.67836047058837
 20
69.31249991343334
 30
0.0
 11
34.57836047058837
 21
69.31249991343334
 31
0.0
 70
   160
  1
<>
 42
22.2
  3
Default (ANSI)
100
AcDbAlignedDimension
 13
23.47836047058837
 23
60.38861539899766
 33
0.0
 14
45.67836047058837
 24
60.38861539899766
 34
0.0
100
AcDbRotatedDimension
1001
ACAD
1000
DSTYLE
1002
{
1070
   289
1070
     1
1070
    73
1070
     0
1070
    74
1070
     0
1070
   271
1070
     2
1070
   272
1070
     2
1070
    48
1040
0.0
1070
    47
1040
0.0
1002
}
  0
DIMENSION
  5
28F
330
6C
100
AcDbEntity
  8
Dimension (ANSI)
100
AcDbDimension
  2
*D5
 10
45.17836047058837
 20
65.50803797117613
 30
0.0
 11
34.57836047058837
 21
65.50803797117613
 31
0.0
 70
   160
  1
<>{ TYP.}
 71
     5
 42
21.2
  3
Default (ANSI)
100
AcDbAlignedDimension
 13
23.97836047058838
 23
60.88861539899766
 33
0.0
 14
45.17836047058837
 24
60.88861539899766
 34
0.0
 50
180.0
100
AcDbRotatedDimension
1001
ACAD
1000
DSTYLE
1002
{
1070
   289
1070
     1
1070
    73
1070
     0
1070
    74
1070
     0
1070
   271
1070
     2
1070
   272
1070
     2
1070
    48
1040
0.0
1070
    47
1040
0.0
1002
}
  0
DIMENSION
  5
379
330
6C
100
AcDbEntity
  8
Dimension (ANSI)
100
AcDbDimension
  2
*D6
 10
23.97836047058838
 20
65.50803797117613
 30
0.0
 11
20.71010151765708
 21
65.50803797117613
 31
0.0
 70
   160
  1
<>{\PTYP.}
 71
     5
 42
0.5000000000000071
  3
Default (ANSI)
100
AcDbAlignedDimension
 13
23.47836047058837
 23
60.38861539899766
 33
0.0
 14
23.97836047058838
 24
60.88861539899766
 34
0.0
 50
180.0
100
AcDbRotatedDimension
1001
ACAD
1000
DSTYLE
1002
{
1070
   289
1070
     1
1070
    73
1070
     0
1070
    74
1070
     0
1070
   271
1070
     2
1070
   272
1070
     2
1070
    48
1040
0.0
1070
    47
1040
0.0
1002
}
  0
DIMENSION
  5
477
330
6C
100
AcDbEntity
  8
Dimension (ANSI)
100
AcDbDimension
  2
*D7
 10
15.05447595615269
 20
14.68861539899766
 30
0.0
 11
15.05447595615269
 21
37.78861539899766
 31
0.0
 70
   160
  1
<>
 42
46.2
  3
Default (ANSI)
100
AcDbAlignedDimension
 13
23.97836047058838
 23
60.88861539899766
 33
0.0
 14
23.97836047058838
 24
14.68861539899766
 34
0.0
 50
270.0
100
AcDbRotatedDimension
1001
ACAD
1000
DSTYLE
1002
{
1070
   289
1070
     1
1070
   271
1070
     2
1070
   272
1070
     2
1070
    48
1040
0.0
1070
    47
1040
0.0
1002
}
  0
DIMENSION
  5
561
330
6C
100
AcDbEntity
  8
Dimension (ANSI)
100
AcDbDimension
  2
*D8
 10
20.71493937325198
 20
60.38861539899766
 30
0.0
 11
20.71493937325197
 21
37.78861539899766
 31
0.0
 70
   160
  1
<>{\PTYP.}
 71
     5
 42
45.2
  3
Default (ANSI)
100
AcDbAlignedDimension
 13
23.47836047058839
 23
15.18861539899766
 33
0.0
 14
23.47836047058837
 24
60.38861539899766
 34
0.0
 50
90.0
100
AcDbRotatedDimension
1001
ACAD
1000
DSTYLE
1002
{
1070
   289
1070
     1
1070
   271
1070
     2
1070
   272
1070
     2
1070
    48
1040
0.0
1070
    47
1040
0.0
1002
}
  0
DIMENSION
  5
65F
330
6C
100
AcDbEntity
  8
Dimension (ANSI)
100
AcDbDimension
  2
*D9
 10
18.83292462481987
 20
60.38861539899766
 30
0.0
 11
20.71493937325197
 21
63.14896666522595
 31
0.0
 70
   160
  1
<>{\PTYP.}
 71
     5
 42
0.5
  3
Default (ANSI)
100
AcDbAlignedDimension
 13
23.97836047058838
 23
60.88861539899766
 33
0.0
 14
23.47836047058837
 24
60.38861539899766
 34
0.0
 50
90.0
100
AcDbRotatedDimension
1001
ACAD
1000
DSTYLE
1002
{
1070
   289
1070
     1
1070
   271
1070
     2
1070
   272
1070
     2
1070
    48
1040
0.0
1070
    47
1040
0.0
1002
}
  0
DIMENSION
  5
775
330
6C
100
AcDbEntity
  8
Dimension (ANSI)
100
AcDbDimension
  2
*D10
 10
23.9336557093127
 20
15.45009685556991
 30
0.0
 11
31.56589431478469
 21
9.882342764750227
 31
0.0
 70
   163
  1
<>{ TYP. (6 PL.)}
 42
0.4999999999999983
  3
Default (ANSI)
100
AcDbDiametricDimension
 15
24.06306523186409
 25
14.96713394242541
 35
0.0
 40
0.0
1001
ACAD
1000
DSTYLE
1002
{
1070
   144
1040
0.9999999999999964
1070
   271
1070
     2
1070
   272
1070
     2
1070
    48
1040
0.0
1070
    47
1040
0.0
1002
}
1001
ACAD_DSTYLE_DIMRADIAL_EXTENSION
1070
   387
1070
     1
1070
   388
1040
0.0
1070
   390
1040
0.0
  0
DIMENSION
  5
81F
330
6C
100
AcDbEntity
  8
Dimension (ANSI)
100
AcDbDimension
  2
*D11
 10
23.95791999479107
 20
16.10954130935531
 30
0.0
 11
31.7752017219786
 21
11.728340710775
 31
0.0
 70
   163
  1
<>{ TYP. (4 PL.)}
 42
0.3125
  3
Default (ANSI)
100
AcDbDiametricDimension
 15
24.03880094638569
 25
15.80768948864
 35
0.0
 40
0.0
1001
ACAD
1000
DSTYLE
1002
{
1070
   144
1040
1.0
1070
   271
1070
     2
1070
   272
1070
     2
1070
    48
1040
0.0
1070
    47
1040
0.0
1002
}
1001
ACAD_DSTYLE_DIMRADIAL_EXTENSION
1070
   387
1070
     1
1070
   388
1040
0.0
1070
   390
1040
0.0
  0
DIMENSION
  5
8C8
330
6C
100
AcDbEntity
  8
Dimension (ANSI)
100
AcDbDimension
  2
*D12
 10
51.2598502846373
 20
15.20861539899765
 30
0.0
 11
49.37783553620518
 21
12.39507381794952
 31
0.0
 70
   160
  1
<>{ \PTYP.}
 71
     5
 42
0.5199999999999978
  3
Default (ANSI)
100
AcDbAlignedDimension
 13
45.17836047058838
 23
14.68861539899766
 33
0.0
 14
45.15836047058838
 24
15.20861539899765
 34
0.0
 50
90.0
100
AcDbRotatedDimension
1001
ACAD
1000
DSTYLE
1002
{
1070
   289
1070
     1
1070
   271
1070
     2
1070
   272
1070
     2
1070
    48
1040
0.0
1070
    47
1040
0.0
1002
}
  0
DIMENSION
  5
9DE
330
6C
100
AcDbEntity
  8
Dimension (ANSI)
100
AcDbDimension
  2
*D13
 10
41.84511611618496
 20
15.95861539899765
 30
0.0
 11
40.01072041608147
 21
12.58663265774386
 31
0.0
 70
   160
  1
<>{\PTYP.}
 71
     5
 42
1.269999999999997
  3
Default (ANSI)
100
AcDbAlignedDimension
 13
45.17836047058838
 23
14.68861539899766
 33
0.0
 14
45.15836047058838
 24
15.95861539899765
 34
0.0
 50
90.0
100
AcDbRotatedDimension
1001
ACAD
1000
DSTYLE
1002
{
1070
   289
1070
     1
1070
   271
1070
     2
1070
    76
1070
     1
1070
    75
1070
     1
1070
   272
1070
     2
1070
    48
1040
0.0
1070
    47
1040
0.0
1002
}
  0
DIMENSION
  5
AE5
330
6C
100
AcDbEntity
  8
Dimension (ANSI)
100
AcDbDimension
  2
*D14
 10
45.67836047058839
 20
12.56394348298716
 30
0.0
 11
42.62017775801569
 21
12.56394348298716
 31
0.0
 70
   160
  1
<>{\PTYP.}
 71
     5
 42
0.5200000000000032
  3
Default (ANSI)
100
AcDbAlignedDimension
 13
45.15836047058838
 23
15.95861539899765
 33
0.0
 14
45.67836047058839
 24
15.18861539899766
 34
0.0
 50
180.0
100
AcDbRotatedDimension
1001
ACAD
1000
DSTYLE
1002
{
1070
   289
1070
     1
1070
    73
1070
     0
1070
    74
1070
     0
1070
   271
1070
     2
1070
   272
1070
     2
1070
    48
1040
0.0
1070
    47
1040
0.0
1002
}
  0
DIMENSION
  5
BE3
330
6C
100
AcDbEntity
  8
Dimension (ANSI)
100
AcDbDimension
  2
*D15
 10
71.40785435874612
 20
59.96657377108469
 30
0.0
 11
75.1565763499933
 21
59.96657377108469
 31
0.0
 70
   160
  1
(<>){\P12 GA.\PGALV.}
 71
     5
 42
0.09375
  3
Default (ANSI)
100
AcDbAlignedDimension
 13
71.50160435874612
 23
40.90015726716888
 33
0.0
 14
71.40785435874612
 24
40.90015726716888
 34
0.0
100
AcDbRotatedDimension
1001
ACAD
1000
DSTYLE
1002
{
1070
   289
1070
     1
1070
    73
1070
     0
1070
    74
1070
     0
1070
   271
1070
     3
1070
   147
1040
0.031496062992126
1070
    72
1070
     0
1070
    71
1070
     0
1070
   272
1070
     3
1070
    48
1040
0.0
1070
    47
1040
0.0
1002
}
  0
MTEXT
  5
CEB
102
{ACAD_XDICTIONARY
360
EEF
102
}
330
6C
100
AcDbEntity
  8
Symbol (ANSI)
100
AcDbMText
 10
79.86713349462028
 20
14.43315004061655
 30
0.0
 40
0.6666666879428654
 41
30.83961717099969
 71
     4
 72
     1
  3
{\fRomanS|b0|i0|c0|p2;\H2.0001x;PART#: NP4824CG\P(DATA SUBJECT TO CHANGE\H1.6509x; \H0.60572x;\PWITHOUT NOTICE) \H1.5852x; \H0.63085x;\P\H0.59997x;THIS DRAWING IS PROPERTY OF HUBBELL INC. \H1.6701x; \H0.59878x;\PWIEGMANN\H1.279x; \H0.78184x;\PALL INF
  1
ORMATION IS PROPRIETARY AND NOT TO \H1.2955x; \H0.77188x;\PBE DUPLICATED\H1.2948x; \H0.7723x;\P\H1.2949x; }
  7
Note Text (ANSI)
 73
     1
 44
0.7816644310951233
1001
ACAD
1000
MTEXTBEGIN
1070
    73
1070
     1
1070
    44
1040
0.7816644310951233
1070
    74
1070
     0
1000
MTEXTEND
  0
LINE
  5
CED
330
6C
100
AcDbEntity
  8
Center Mark (ANSI)
  6
CHAIN
 48
0.1804457306861877
100
AcDbLine
 10
22.91502713725505
 20
60.36861539899764
 30
0.0
 11
25.08169380392172
 21
60.36861539899764
 31
0.0
  0
LINE
  5
CEE
330
6C
100
AcDbEntity
  8
Center Mark (ANSI)
  6
CHAIN
 48
0.1804457306861877
100
AcDbLine
 10
46.24169380392171
 20
60.36861539899764
 30
0.0
 11
44.07502713725505
 21
60.36861539899764
 31
0.0
  0
LINE
  5
CEF
330
6C
100
AcDbEntity
  8
Centerline (ANSI)
  6
CHAIN
 48
0.9524481296539306
100
AcDbLine
 10
22.91502713725505
 20
60.36861539899764
 30
0.0
 11
46.24169380392171
 21
60.36861539899764
 31
0.0
  0
LINE
  5
CF0
330
6C
100
AcDbEntity
  8
Center Mark (ANSI)
  6
CHAIN
 48
0.1804457306861877
100
AcDbLine
 10
45.15836047058838
 20
14.12528206566432
 30
0.0
 11
45.15836047058838
 21
16.29194873233099
 31
0.0
  0
LINE
  5
CF1
330
6C
100
AcDbEntity
  8
Centerline (ANSI)
  6
CHAIN
 48
0.9524481296539306
100
AcDbLine
 10
45.15836047058838
 20
61.45194873233098
 30
0.0
 11
45.15836047058838
 21
14.12528206566432
 31
0.0
  0
LINE
  5
CF2
330
6C
100
AcDbEntity
  8
Center Mark (ANSI)
  6
CHAIN
 48
0.1804457306861877
100
AcDbLine
 10
22.91502713725505
 20
15.20861539899765
 30
0.0
 11
25.08169380392172
 21
15.20861539899765
 31
0.0
  0
LINE
  5
CF3
330
6C
100
AcDbEntity
  8
Centerline (ANSI)
  6
CHAIN
 48
0.9524481296539306
100
AcDbLine
 10
46.24169380392171
 20
15.20861539899765
 30
0.0
 11
22.91502713725505
 21
15.20861539899765
 31
0.0
  0
LINE
  5
CF4
330
6C
100
AcDbEntity
  8
Centerline (ANSI)
  6
CHAIN
 48
0.9524481296539306
100
AcDbLine
 10
23.99836047058839
 20
14.12528206566432
 30
0.0
 11
23.99836047058839
 21
61.45194873233098
 31
0.0
  0
LINE
  5
CF5
330
6C
100
AcDbEntity
  8
Center Mark (ANSI)
  6
CHAIN
 48
0.1648215800523758
100
AcDbLine
 10
23.99836047058839
 20
60.60819873233099
 30
0.0
 11
23.99836047058839
 21
58.62903206566431
 31
0.0
  0
LINE
  5
CF6
330
6C
100
AcDbEntity
  8
Center Mark (ANSI)
  6
CHAIN
 48
0.1648215800523758
100
AcDbLine
 10
45.15836047058838
 20
60.608198732331
 30
0.0
 11
45.15836047058838
 21
58.62903206566432
 31
0.0
  0
LINE
  5
CF7
330
6C
100
AcDbEntity
  8
Centerline (ANSI)
  6
CHAIN
 48
0.9524481296539306
100
AcDbLine
 10
23.00877713725505
 20
59.61861539899764
 30
0.0
 11
46.14794380392171
 21
59.61861539899766
 31
0.0
  0
LINE
  5
CF8
330
6C
100
AcDbEntity
  8
Center Mark (ANSI)
  6
CHAIN
 48
0.1648215800523758
100
AcDbLine
 10
23.99836047058839
 20
16.94819873233099
 30
0.0
 11
23.99836047058839
 21
14.96903206566432
 31
0.0
  0
LINE
  5
CF9
330
6C
100
AcDbEntity
  8
Center Mark (ANSI)
  6
CHAIN
 48
0.1648215800523758
100
AcDbLine
 10
45.15836047058838
 20
16.94819873233099
 30
0.0
 11
45.15836047058838
 21
14.96903206566432
 31
0.0
  0
LINE
  5
CFA
330
6C
100
AcDbEntity
  8
Centerline (ANSI)
  6
CHAIN
 48
0.9524481296539306
100
AcDbLine
 10
23.00877713725505
 20
15.95861539899765
 30
0.0
 11
46.14794380392171
 21
15.95861539899765
 31
0.0
  0
DIMENSION
  5
CFB
330
6C
100
AcDbEntity
  8
Dimension (ANSI)
100
AcDbDimension
  2
*D16
 10
72.18185435874612
 20
52.46352871719066
 30
0.0
 11
74.81183005064607
 21
52.46352871719066
 31
0.0
 70
   160
  1
<>
 42
0.7740000000000009
  3
Default (ANSI)
100
AcDbAlignedDimension
 13
71.40785435874612
 23
59.17081539899765
 33
0.0
 14
72.18185435874612
 24
59.17061539899766
 34
0.0
 50
180.0
100
AcDbRotatedDimension
1001
ACAD
1000
DSTYLE
1002
{
1070
   289
1070
     1
1070
    73
1070
     0
1070
    74
1070
     0
1070
   271
1070
     2
1070
    76
1070
     1
1070
   272
1070
     2
1070
    48
1040
0.0
1070
    47
1040
0.0
1002
}
  0
LINE
  5
DE0
330
6C
100
AcDbEntity
  8
Center Mark (ANSI)
  6
CHAIN
 48
0.1804457306861877
100
AcDbLine
 10
23.99836047058839
 20
38.87194873233099
 30
0.0
 11
23.99836047058839
 21
36.70528206566431
 31
0.0
  0
LINE
  5
DE1
330
6C
100
AcDbEntity
  8
Center Mark (ANSI)
  6
CHAIN
 48
0.1804457306861877
100
AcDbLine
 10
45.15836047058838
 20
38.87194873233099
 30
0.0
 11
45.15836047058838
 21
36.70528206566431
 31
0.0
  0
LINE
  5
DE2
330
6C
100
AcDbEntity
  8
Centerline (ANSI)
  6
CHAIN
 48
0.9524481296539306
100
AcDbLine
 10
22.91502713725505
 20
37.78861539899765
 30
0.0
 11
46.24169380392171
 21
37.78861539899765
 31
0.0
  0
DIMENSION
  5
DE3
330
6C
100
AcDbEntity
  8
Dimension (ANSI)
100
AcDbDimension
  2
*D17
 10
49.37783553620518
 20
15.20861539899765
 30
0.0
 11
49.37783553620518
 21
26.49861539899765
 31
0.0
 70
   160
  1
<>{\PTYP.}
 71
     5
 42
22.57999999999999
  3
Default (ANSI)
100
AcDbAlignedDimension
 13
45.15836047058838
 23
37.78861539899765
 33
0.0
 14
45.15836047058838
 24
15.20861539899765
 34
0.0
 50
90.0
100
AcDbRotatedDimension
1001
ACAD
1000
DSTYLE
1002
{
1070
   289
1070
     1
1070
   271
1070
     2
1070
   272
1070
     2
1070
    48
1040
0.0
1070
    47
1040
0.0
1002
}
  0
ENDSEC
  0
SECTION
  2
OBJECTS
  0
DICTIONARY
  5
C
330
0
100
AcDbDictionary
281
     1
  3
ACAD_CIP_PREVIOUS_PRODUCT_INFO
350
EE1
  3
ACAD_COLOR
350
63
  3
ACAD_GROUP
350
D
  3
ACAD_LAYOUT
350
62
  3
ACAD_MATERIAL
350
10
  3
ACAD_MLEADERSTYLE
350
66
  3
ACAD_MLINESTYLE
350
5F
  3
ACAD_PLOTSETTINGS
350
61
  3
ACAD_PLOTSTYLENAME
350
E
  3
ACAD_SCALELIST
350
42
  3
ACAD_TABLESTYLE
350
64
  3
ACAD_VISUALSTYLE
350
29
  3
ACDB_RECOMPOSE_DATA
350
EF1
  3
AcDbVariableDictionary
350
76
  3
DWGPROPS
350
EF2
  0
DICTIONARY
  5
F2E
330
819
100
AcDbDictionary
280
     1
281
     1
  3
ACAD_MTEXT_RT
360
F2F
  0
DICTIONARY
  5
F30
330
8C2
100
AcDbDictionary
280
     1
281
     1
  3
ACAD_MTEXT_RT
360
F31
  0
DICTIONARY
  5
EEF
330
CEB
100
AcDbDictionary
280
     1
281
     1
  3
ACAD_MTEXT_2008_RT
360
EF0
  0
XRECORD
  5
EE1
102
{ACAD_REACTORS
330
C
102
}
330
C
100
AcDbXrecord
280
     1
300
INVNTOR
300
2012
300
85795PDSP_2012_0F
  0
DICTIONARY
  5
63
102
{ACAD_REACTORS
330
C
102
}
330
C
100
AcDbDictionary
281
     1
  0
DICTIONARY
  5
D
102
{ACAD_REACTORS
330
C
102
}
330
C
100
AcDbDictionary
281
     1
  0
DICTIONARY
  5
62
102
{ACAD_REACTORS
330
C
102
}
330
C
100
AcDbDictionary
281
     1
  3
Layout1
350
6B
  3
Layout2
350
73
  3
Model
350
6F
  0
DICTIONARY
  5
10
102
{ACAD_REACTORS
330
C
102
}
330
C
100
AcDbDictionary
281
     1
  3
ByBlock
350
19
  3
ByLayer
350
11
  3
Global
350
21
  0
DICTIONARY
  5
66
102
{ACAD_REACTORS
330
C
102
}
330
C
100
AcDbDictionary
281
     1
  3
Standard
350
67
  0
DICTIONARY
  5
5F
102
{ACAD_REACTORS
330
C
102
}
330
C
100
AcDbDictionary
281
     1
  3
Standard
350
60
  0
DICTIONARY
  5
61
102
{ACAD_REACTORS
330
C
102
}
330
C
100
AcDbDictionary
281
     1
  0
ACDBDICTIONARYWDFLT
  5
E
102
{ACAD_REACTORS
330
C
102
}
330
C
100
AcDbDictionary
281
     1
  3
Normal
350
F
100
AcDbDictionaryWithDefault
340
F
  0
DICTIONARY
  5
42
102
{ACAD_REACTORS
330
C
102
}
330
C
100
AcDbDictionary
281
     1
  3
A0
350
43
  3
A1
350
44
  3
A2
350
45
  3
A3
350
46
  3
A4
350
47
  3
A5
350
48
  3
A6
350
49
  3
A7
350
4A
  3
A8
350
4B
  3
A9
350
4C
  3
B0
350
4D
  3
B1
350
4E
  3
B2
350
4F
  3
B3
350
50
  3
B4
350
51
  3
B5
350
52
  3
B6
350
53
  0
DICTIONARY
  5
64
102
{ACAD_REACTORS
330
C
102
}
330
C
100
AcDbDictionary
281
     1
  3
Standard
350
65
  0
DICTIONARY
  5
29
102
{ACAD_REACTORS
330
C
102
}
330
C
100
AcDbDictionary
281
     1
  3
2dWireframe
350
2F
  3
Basic
350
2E
  3
Brighten
350
35
  3
ColorChange
350
39
  3
Conceptual
350
32
  3
Dim
350
34
  3
EdgeColorOff
350
41
  3
Facepattern
350
38
  3
Flat
350
2A
  3
FlatWithEdges
350
2B
  3
Gouraud
350
2C
  3
GouraudWithEdges
350
2D
  3
Hidden
350
31
  3
JitterOff
350
3F
  3
Linepattern
350
37
  3
OverhangOff
350
40
  3
Realistic
350
33
  3
Shaded
350
3E
  3
Shaded with edges
350
3D
  3
Shades of Gray
350
3A
  3
Sketchy
350
3B
  3
Thicken
350
36
  3
Wireframe
350
30
  3
X-Ray
350
3C
  0
XRECORD
  5
EF1
102
{ACAD_REACTORS
330
C
102
}
330
C
100
AcDbXrecord
280
     1
 90
        1
330
65
330
CEB
  0
DICTIONARY
  5
76
102
{ACAD_REACTORS
330
C
102
}
330
C
100
AcDbDictionary
281
     1
  3
CANNOSCALE
350
79
  3
CMLEADERSTYLE
350
78
  3
CTABLESTYLE
350
77
  3
DIMASSOC
350
EE9
  3
HIDETEXT
350
EE8
  3
INDEXCTL
350
EE7
  3
LAYEREVAL
350
EE4
  3
LAYERNOTIFY
350
EE5
  3
LIGHTINGUNITS
350
EE3
  3
MSLTSCALE
350
EE2
  3
SORTENTS
350
EE6
  3
XCLIPFRAME
350
EEA
  0
XRECORD
  5
EF2
102
{ACAD_REACTORS
330
C
102
}
330
C
100
AcDbXrecord
280
     1
  1
DWGPROPS COOKIE
  2

  3

  4
JF
  6

  7

  8

  9
-
300
Manager=
301
Company=
302
Category=
303
Part Number=NP4824CG-S
304
Description=
305
Project=
306
Designer=JF
307
Engineer=
308
Authority=
309
Cost Center=
 40
0.0000372569444444
 41
2455950.387205811
 42
2455950.387205811
  1

 90
       22
300
Vendor=
300
User Status=
300
Design Status=WorkInProgress
300
Checked by=DN
300
Date Checked=01/18/2012
300
Engr Approved by=
300
Date Eng Approved=01/18/2012
300
Mfg Approved by=
300
Date Mfg Approved=01/18/2012
300
DWG. NO=
300
NUMBER OF SHEETS=1
300
DRAWING #=
  0
XRECORD
  5
F2F
102
{ACAD_REACTORS
330
F2E
102
}
330
F2E
100
AcDbXrecord
280
     1
 40
28785.0
  1
\A1;\U+22050.50{ TYP. (6 PL.)}
  0
XRECORD
  5
F31
102
{ACAD_REACTORS
330
F30
102
}
330
F30
100
AcDbXrecord
280
     1
 40
28724.0
  1
\A1;\U+22050.31{ TYP. (4 PL.)}
  0
XRECORD
  5
EF0
102
{ACAD_REACTORS
330
EEF
102
}
330
EEF
100
AcDbXrecord
280
     1
 40
4291828.0
  1
\pxsm0.94;{\fRomanS|b0|i0;\H1.3334;PART#: NP4824CG\P(DATA SUBJECT TO CHANGE\PWITHOUT NOTICE) \P\fRomanS|b0|i0;\H0.8000;THIS DRAWING IS PROPERTY OF HUBBELL INC. \PWIEGMANN\PALL INFORMATION IS PROPRIETARY AND NOT TO \PBE DUPLICATED\P}
  0
LAYOUT
  5
6B
102
{ACAD_XDICTIONARY
360
F28
102
}
102
{ACAD_REACTORS
330
62
102
}
330
62
100
AcDbPlotSettings
  1

  2

  4

  6

 40
0.0
 41
0.0
 42
0.0
 43
0.0
 44
0.0
 45
0.0
 46
0.0
 47
0.0
 48
0.0
 49
0.0
140
0.0
141
0.0
142
1.0
143
1.0
 70
   688
 72
     0
 73
     0
 74
     5
  7

 75
    16
147
1.0
148
0.0
149
0.0
100
AcDbLayout
  1
Layout1
 70
     1
 71
     1
 10
0.0
 20
0.0
 11
12.0
 21
9.0
 12
0.0
 22
0.0
 32
0.0
 14
0.0
 24
0.0
 34
0.0
 15
0.0
 25
0.0
 35
0.0
146
0.0
 13
0.0
 23
0.0
 33
0.0
 16
1.0
 26
0.0
 36
0.0
 17
0.0
 27
1.0
 37
0.0
 76
     0
330
68
  0
LAYOUT
  5
73
102
{ACAD_XDICTIONARY
360
F2C
102
}
102
{ACAD_REACTORS
330
62
102
}
330
62
100
AcDbPlotSettings
  1

  2

  4

  6

 40
0.0
 41
0.0
 42
0.0
 43
0.0
 44
0.0
 45
0.0
 46
0.0
 47
0.0
 48
0.0
 49
0.0
140
0.0
141
0.0
142
1.0
143
1.0
 70
   688
 72
     0
 73
     0
 74
     5
  7

 75
    16
147
1.0
148
0.0
149
0.0
100
AcDbLayout
  1
Layout2
 70
     1
 71
     2
 10
0.0
 20
0.0
 11
12.0
 21
9.0
 12
0.0
 22
0.0
 32
0.0
 14
0.0
 24
0.0
 34
0.0
 15
0.0
 25
0.0
 35
0.0
146
0.0
 13
0.0
 23
0.0
 33
0.0
 16
1.0
 26
0.0
 36
0.0
 17
0.0
 27
1.0
 37
0.0
 76
     0
330
70
  0
LAYOUT
  5
6F
102
{ACAD_XDICTIONARY
360
F2A
102
}
102
{ACAD_REACTORS
330
62
102
}
330
62
100
AcDbPlotSettings
  1

  2

  4

  6

 40
0.0
 41
0.0
 42
0.0
 43
0.0
 44
0.0
 45
0.0
 46
0.0
 47
0.0
 48
0.0
 49
0.0
140
0.0
141
0.0
142
1.0
143
1.0
 70
  1712
 72
     0
 73
     0
 74
     0
  7

 75
     0
147
1.0
148
0.0
149
0.0
100
AcDbLayout
  1
Model
 70
     1
 71
     0
 10
0.0
 20
0.0
 11
12.0
 21
9.0
 12
0.0
 22
0.0
 32
0.0
 14
0.0
 24
0.0
 34
0.0
 15
0.0
 25
0.0
 35
0.0
146
0.0
 13
0.0
 23
0.0
 33
0.0
 16
1.0
 26
0.0
 36
0.0
 17
0.0
 27
1.0
 37
0.0
 76
     0
330
6C
  0
MATERIAL
  5
19
102
{ACAD_XDICTIONARY
360
1A
102
}
102
{ACAD_REACTORS
330
10
102
}
330
10
100
AcDbMaterial
  1
ByBlock
 72
     0
 43
0.0208333333333333
 43
0.0
 43
0.0
 43
0.0
 43
0.0
 43
0.0208333333333333
 43
0.0
 43
0.0
 43
0.0
 43
0.0
 43
1.0
 43
0.0
 43
0.0
 43
0.0
 43
0.0
 43
1.0
 77
     0
 47
0.0208333333333333
 47
0.0
 47
0.0
 47
0.0
 47
0.0
 47
0.0208333333333333
 47
0.0
 47
0.0
 47
0.0
 47
0.0
 47
1.0
 47
0.0
 47
0.0
 47
0.0
 47
0.0
 47
1.0
171
     0
 49
0.0208333333333333
 49
0.0
 49
0.0
 49
0.0
 49
0.0
 49
0.0208333333333333
 49
0.0
 49
0.0
 49
0.0
 49
0.0
 49
1.0
 49
0.0
 49
0.0
 49
0.0
 49
0.0
 49
1.0
175
     0
142
0.0208333333333333
142
0.0
142
0.0
142
0.0
142
0.0
142
0.0208333333333333
142
0.0
142
0.0
142
0.0
142
0.0
142
1.0
142
0.0
142
0.0
142
0.0
142
0.0
142
1.0
179
     0
144
0.0208333333333333
144
0.0
144
0.0
144
0.0
144
0.0
144
0.0208333333333333
144
0.0
144
0.0
144
0.0
144
0.0
144
1.0
144
0.0
144
0.0
144
0.0
144
0.0
144
1.0
147
0.0208333333333333
147
0.0
147
0.0
147
0.0
147
0.0
147
0.0208333333333333
147
0.0
147
0.0
147
0.0
147
0.0
147
1.0
147
0.0
147
0.0
147
0.0
147
0.0
147
1.0
  0
MATERIAL
  5
11
102
{ACAD_XDICTIONARY
360
12
102
}
102
{ACAD_REACTORS
330
10
102
}
330
10
100
AcDbMaterial
  1
ByLayer
 72
     0
 43
0.0208333333333333
 43
0.0
 43
0.0
 43
0.0
 43
0.0
 43
0.0208333333333333
 43
0.0
 43
0.0
 43
0.0
 43
0.0
 43
1.0
 43
0.0
 43
0.0
 43
0.0
 43
0.0
 43
1.0
 77
     0
 47
0.0208333333333333
 47
0.0
 47
0.0
 47
0.0
 47
0.0
 47
0.0208333333333333
 47
0.0
 47
0.0
 47
0.0
 47
0.0
 47
1.0
 47
0.0
 47
0.0
 47
0.0
 47
0.0
 47
1.0
171
     0
 49
0.0208333333333333
 49
0.0
 49
0.0
 49
0.0
 49
0.0
 49
0.0208333333333333
 49
0.0
 49
0.0
 49
0.0
 49
0.0
 49
1.0
 49
0.0
 49
0.0
 49
0.0
 49
0.0
 49
1.0
175
     0
142
0.0208333333333333
142
0.0
142
0.0
142
0.0
142
0.0
142
0.0208333333333333
142
0.0
142
0.0
142
0.0
142
0.0
142
1.0
142
0.0
142
0.0
142
0.0
142
0.0
142
1.0
179
     0
144
0.0208333333333333
144
0.0
144
0.0
144
0.0
144
0.0
144
0.0208333333333333
144
0.0
144
0.0
144
0.0
144
0.0
144
1.0
144
0.0
144
0.0
144
0.0
144
0.0
144
1.0
147
0.0208333333333333
147
0.0
147
0.0
147
0.0
147
0.0
147
0.0208333333333333
147
0.0
147
0.0
147
0.0
147
0.0
147
1.0
147
0.0
147
0.0
147
0.0
147
0.0
147
1.0
  0
MATERIAL
  5
21
102
{ACAD_XDICTIONARY
360
22
102
}
102
{ACAD_REACTORS
330
10
102
}
330
10
100
AcDbMaterial
  1
Global
 72
     0
 43
0.0208333333333333
 43
0.0
 43
0.0
 43
0.0
 43
0.0
 43
0.0208333333333333
 43
0.0
 43
0.0
 43
0.0
 43
0.0
 43
1.0
 43
0.0
 43
0.0
 43
0.0
 43
0.0
 43
1.0
 77
     0
 47
0.0208333333333333
 47
0.0
 47
0.0
 47
0.0
 47
0.0
 47
0.0208333333333333
 47
0.0
 47
0.0
 47
0.0
 47
0.0
 47
1.0
 47
0.0
 47
0.0
 47
0.0
 47
0.0
 47
1.0
171
     0
 49
0.0208333333333333
 49
0.0
 49
0.0
 49
0.0
 49
0.0
 49
0.0208333333333333
 49
0.0
 49
0.0
 49
0.0
 49
0.0
 49
1.0
 49
0.0
 49
0.0
 49
0.0
 49
0.0
 49
1.0
175
     0
142
0.0208333333333333
142
0.0
142
0.0
142
0.0
142
0.0
142
0.0208333333333333
142
0.0
142
0.0
142
0.0
142
0.0
142
1.0
142
0.0
142
0.0
142
0.0
142
0.0
142
1.0
179
     0
144
0.0208333333333333
144
0.0
144
0.0
144
0.0
144
0.0
144
0.0208333333333333
144
0.0
144
0.0
144
0.0
144
0.0
144
1.0
144
0.0
144
0.0
144
0.0
144
0.0
144
1.0
147
0.0208333333333333
147
0.0
147
0.0
147
0.0
147
0.0
147
0.0208333333333333
147
0.0
147
0.0
147
0.0
147
0.0
147
1.0
147
0.0
147
0.0
147
0.0
147
0.0
147
1.0
  0
MLEADERSTYLE
  5
67
102
{ACAD_XDICTIONARY
360
EED
102
}
102
{ACAD_REACTORS
330
66
102
}
330
66
100
AcDbMLeaderStyle
170
     2
171
     1
172
     0
 90
        2
 40
0.0
 41
0.0
173
     1
 91
-1056964608
340
5B
 92
       -2
290
     1
 42
0.09
291
     1
 43
0.36
  3
Standard
 44
0.18
300

342
55
174
     1
178
     6
175
     1
176
     0
 93
-1056964608
 45
0.18
292
     0
297
     0
 46
0.18
 94
-1056964608
 47
1.0
 49
1.0
140
1.0
293
     1
141
0.0
294
     1
177
     0
142
1.0
295
     0
296
     0
143
0.125
1001
ACAD_MLEADERVER
1070
     2
  0
MLINESTYLE
  5
60
102
{ACAD_REACTORS
330
5F
102
}
330
5F
100
AcDbMlineStyle
  2
STANDARD
 70
     0
  3

 62
   256
 51
90.0
 52
90.0
 71
     2
 49
0.5
 62
   256
  6
BYLAYER
 49
-0.5
 62
   256
  6
BYLAYER
  0
ACDBPLACEHOLDER
  5
F
102
{ACAD_REACTORS
330
E
102
}
330
E
  0
SCALE
  5
43
102
{ACAD_REACTORS
330
42
102
}
330
42
100
AcDbScale
 70
     0
300
1:1
140
1.0
141
1.0
290
     1
  0
SCALE
  5
44
102
{ACAD_REACTORS
330
42
102
}
330
42
100
AcDbScale
 70
     0
300
1/128" = 1'-0"
140
0.0078125
141
12.0
290
     0
  0
SCALE
  5
45
102
{ACAD_REACTORS
330
42
102
}
330
42
100
AcDbScale
 70
     0
300
1/64" = 1'-0"
140
0.015625
141
12.0
290
     0
  0
SCALE
  5
46
102
{ACAD_REACTORS
330
42
102
}
330
42
100
AcDbScale
 70
     0
300
1/32" = 1'-0"
140
0.03125
141
12.0
290
     0
  0
SCALE
  5
47
102
{ACAD_REACTORS
330
42
102
}
330
42
100
AcDbScale
 70
     0
300
1/16" = 1'-0"
140
0.0625
141
12.0
290
     0
  0
SCALE
  5
48
102
{ACAD_REACTORS
330
42
102
}
330
42
100
AcDbScale
 70
     0
300
3/32" = 1'-0"
140
0.09375
141
12.0
290
     0
  0
SCALE
  5
49
102
{ACAD_REACTORS
330
42
102
}
330
42
100
AcDbScale
 70
     0
300
1/8" = 1'-0"
140
0.125
141
12.0
290
     0
  0
SCALE
  5
4A
102
{ACAD_REACTORS
330
42
102
}
330
42
100
AcDbScale
 70
     0
300
3/16" = 1'-0"
140
0.1875
141
12.0
290
     0
  0
SCALE
  5
4B
102
{ACAD_REACTORS
330
42
102
}
330
42
100
AcDbScale
 70
     0
300
1/4" = 1'-0"
140
0.25
141
12.0
290
     0
  0
SCALE
  5
4C
102
{ACAD_REACTORS
330
42
102
}
330
42
100
AcDbScale
 70
     0
300
3/8" = 1'-0"
140
0.375
141
12.0
290
     0
  0
SCALE
  5
4D
102
{ACAD_REACTORS
330
42
102
}
330
42
100
AcDbScale
 70
     0
300
1/2" = 1'-0"
140
0.5
141
12.0
290
     0
  0
SCALE
  5
4E
102
{ACAD_REACTORS
330
42
102
}
330
42
100
AcDbScale
 70
     0
300
3/4" = 1'-0"
140
0.75
141
12.0
290
     0
  0
SCALE
  5
4F
102
{ACAD_REACTORS
330
42
102
}
330
42
100
AcDbScale
 70
     0
300
1" = 1'-0"
140
1.0
141
12.0
290
     0
  0
SCALE
  5
50
102
{ACAD_REACTORS
330
42
102
}
330
42
100
AcDbScale
 70
     0
300
1-1/2" = 1'-0"
140
1.5
141
12.0
290
     0
  0
SCALE
  5
51
102
{ACAD_REACTORS
330
42
102
}
330
42
100
AcDbScale
 70
     0
300
3" = 1'-0"
140
3.0
141
12.0
290
     0
  0
SCALE
  5
52
102
{ACAD_REACTORS
330
42
102
}
330
42
100
AcDbScale
 70
     0
300
6" = 1'-0"
140
6.0
141
12.0
290
     0
  0
SCALE
  5
53
102
{ACAD_REACTORS
330
42
102
}
330
42
100
AcDbScale
 70
     0
300
1'-0" = 1'-0"
140
12.0
141
12.0
290
     0
  0
TABLESTYLE
  5
65
102
{ACAD_XDICTIONARY
360
EEB
102
}
102
{ACAD_REACTORS
330
64
102
}
330
64
100
AcDbTableStyle
  3
Standard
 70
     0
 71
     0
 40
0.06
 41
0.06
280
     0
281
     0
  7
Standard
140
0.18
170
     2
 62
     0
 63
     7
283
     0
274
    -2
284
     1
 64
     0
275
    -2
285
     1
 65
     0
276
    -2
286
     1
 66
     0
277
    -2
287
     1
 67
     0
278
    -2
288
     1
 68
     0
279
    -2
289
     1
 69
     0
  7
Standard
140
0.25
170
     5
 62
     0
 63
     7
283
     0
274
    -2
284
     1
 64
     0
275
    -2
285
     1
 65
     0
276
    -2
286
     1
 66
     0
277
    -2
287
     1
 67
     0
278
    -2
288
     1
 68
     0
279
    -2
289
     1
 69
     0
  7
Standard
140
0.18
170
     5
 62
     0
 63
     7
283
     0
274
    -2
284
     1
 64
     0
275
    -2
285
     1
 65
     0
276
    -2
286
     1
 66
     0
277
    -2
287
     1
 67
     0
278
    -2
288
     1
 68
     0
279
    -2
289
     1
 69
     0
  0
VISUALSTYLE
  5
2F
102
{ACAD_XDICTIONARY
360
F00
102
}
102
{ACAD_REACTORS
330
29
102
}
330
29
100
AcDbVisualStyle
  2
2dWireframe
 70
     4
 71
     0
 72
     2
 73
     0
 90
        0
 40
-0.6
 41
-30.0
 62
     5
 63
     7
 74
     1
 91
        4
 64
     7
 65
   257
 75
     1
175
     1
 42
1.0
 92
        0
 66
   257
 43
1.0
 76
     1
 77
     6
 78
     2
 67
     7
 79
     5
170
     0
171
     0
290
     0
174
     0
 93
        1
 44
0.0
173
     0
291
     0
 45
0.0
1001
ACAD
1000
AcDbSavedByObjectVersion
1070
     0
  0
VISUALSTYLE
  5
2E
102
{ACAD_XDICTIONARY
360
EFE
102
}
102
{ACAD_REACTORS
330
29
102
}
330
29
100
AcDbVisualStyle
  2
Basic
 70
     7
 71
     1
 72
     0
 73
     1
 90
        0
 40
-0.6
 41
-30.0
 62
     5
 63
     7
 74
     0
 91
        4
 64
     7
 65
   257
 75
     1
175
     1
 42
1.0
 92
        8
 66
     7
 43
1.0
 76
     1
 77
     6
 78
     2
 67
     7
 79
     5
170
     0
171
     0
290
     0
174
     0
 93
        1
 44
0.0
173
     0
291
     1
 45
0.0
1001
ACAD
1000
AcDbSavedByObjectVersion
1070
     0
  0
VISUALSTYLE
  5
35
102
{ACAD_XDICTIONARY
360
F0C
102
}
102
{ACAD_REACTORS
330
29
102
}
330
29
100
AcDbVisualStyle
  2
Brighten
 70
    12
 71
     2
 72
     2
 73
     0
 90
        0
 40
-0.6
 41
-30.0
 62
     5
 63
     7
 74
     1
 91
        4
 64
     7
 65
   257
 75
     1
175
     1
 42
1.0
 92
        8
 66
     7
 43
1.0
 76
     1
 77
     6
 78
     2
 67
     7
 79
     5
170
     0
171
     0
290
     0
174
     0
 93
        1
 44
50.0
173
     0
291
     1
 45
0.0
1001
ACAD
1000
AcDbSavedByObjectVersion
1070
     0
  0
VISUALSTYLE
  5
39
102
{ACAD_XDICTIONARY
360
F14
102
}
102
{ACAD_REACTORS
330
29
102
}
330
29
100
AcDbVisualStyle
  2
ColorChange
 70
    16
 71
     2
 72
     2
 73
     3
 90
        0
 40
-0.6
 41
-30.0
 62
     5
 63
     8
 74
     1
 91
        4
 64
     7
 65
   257
 75
     1
175
     1
 42
1.0
 92
        8
 66
     8
 43
1.0
 76
     1
 77
     6
 78
     2
 67
     7
 79
     5
170
     0
171
     0
290
     0
174
     0
 93
        1
 44
0.0
173
     0
291
     1
 45
0.0
1001
ACAD
1000
AcDbSavedByObjectVersion
1070
     0
  0
VISUALSTYLE
  5
32
102
{ACAD_XDICTIONARY
360
F06
102
}
102
{ACAD_REACTORS
330
29
102
}
330
29
100
AcDbVisualStyle
  2
Conceptual
 70
     9
 71
     3
 72
     2
 73
     0
 90
        0
 40
-0.6
 41
-30.0
 62
     5
 63
     7
 74
     2
 91
        2
 64
     7
 65
   257
 75
     1
175
     1
 42
179.0
 92
        8
 66
     7
 43
1.0
 76
     1
 77
     6
 78
     2
 67
     7
 79
     3
170
     0
171
     0
290
     0
174
     0
 93
        1
 44
0.0
173
     0
291
     0
 45
0.0
1001
ACAD
1000
AcDbSavedByObjectVersion
1070
     0
  0
VISUALSTYLE
  5
34
102
{ACAD_XDICTIONARY
360
F0A
102
}
102
{ACAD_REACTORS
330
29
102
}
330
29
100
AcDbVisualStyle
  2
Dim
 70
    11
 71
     2
 72
     2
 73
     0
 90
        0
 40
-0.6
 41
-30.0
 62
     5
 63
     7
 74
     1
 91
        4
 64
     7
 65
   257
 75
     1
175
     1
 42
1.0
 92
        8
 66
     7
 43
1.0
 76
     1
 77
     6
 78
     2
 67
     7
 79
     5
170
     0
171
     0
290
     0
174
     0
 93
        1
 44
-50.0
173
     0
291
     1
 45
0.0
1001
ACAD
1000
AcDbSavedByObjectVersion
1070
     0
  0
VISUALSTYLE
  5
41
102
{ACAD_XDICTIONARY
360
F24
102
}
102
{ACAD_REACTORS
330
29
102
}
330
29
100
AcDbVisualStyle
  2
EdgeColorOff
 70
    22
 71
     2
 72
     2
 73
     0
 90
        0
 40
-0.6
 41
-30.0
 62
     5
 63
     7
 74
     1
 91
        4
 64
     7
 65
   257
 75
     1
175
     1
 42
1.0
 92
        8
 66
     7
 43
1.0
 76
     1
 77
     6
 78
     2
 67
     7
 79
     5
170
     0
171
     0
290
     0
174
     0
 93
        1
 44
0.0
173
     0
291
     1
 45
0.0
1001
ACAD
1000
AcDbSavedByObjectVersion
1070
     0
  0
VISUALSTYLE
  5
38
102
{ACAD_XDICTIONARY
360
F12
102
}
102
{ACAD_REACTORS
330
29
102
}
330
29
100
AcDbVisualStyle
  2
Facepattern
 70
    15
 71
     2
 72
     2
 73
     0
 90
        0
 40
-0.6
 41
-30.0
 62
     5
 63
     7
 74
     1
 91
        4
 64
     7
 65
   257
 75
     1
175
     1
 42
1.0
 92
        8
 66
     7
 43
1.0
 76
     1
 77
     6
 78
     2
 67
     7
 79
     5
170
     0
171
     0
290
     0
174
     0
 93
        1
 44
0.0
173
     0
291
     1
 45
0.0
1001
ACAD
1000
AcDbSavedByObjectVersion
1070
     0
  0
VISUALSTYLE
  5
2A
102
{ACAD_XDICTIONARY
360
EF6
102
}
102
{ACAD_REACTORS
330
29
102
}
330
29
100
AcDbVisualStyle
  2
Flat
 70
     0
 71
     2
 72
     1
 73
     1
 90
        2
 40
-0.6
 41
30.0
 62
     5
 63
     7
 74
     0
 91
        0
 64
     7
 65
   257
 75
     1
175
     1
 42
1.0
 92
        8
 66
     7
 43
1.0
 76
     1
 77
     6
 78
     2
 67
     7
 79
     5
170
     0
171
     0
290
     0
174
     0
 93
       13
 44
0.0
173
     0
291
     1
 45
0.0
1001
ACAD
1000
AcDbSavedByObjectVersion
1070
     0
  0
VISUALSTYLE
  5
2B
102
{ACAD_XDICTIONARY
360
EF8
102
}
102
{ACAD_REACTORS
330
29
102
}
330
29
100
AcDbVisualStyle
  2
FlatWithEdges
 70
     1
 71
     2
 72
     1
 73
     1
 90
        2
 40
-0.6
 41
30.0
 62
     5
 63
     7
 74
     1
 91
        0
 64
     7
 65
   257
 75
     1
175
     1
 42
1.0
 92
        0
 66
   257
 43
1.0
 76
     1
 77
     6
 78
     2
 67
     7
 79
     5
170
     0
171
     0
290
     0
174
     0
 93
       13
 44
0.0
173
     0
291
     1
 45
0.0
1001
ACAD
1000
AcDbSavedByObjectVersion
1070
     0
  0
VISUALSTYLE
  5
2C
102
{ACAD_XDICTIONARY
360
EFA
102
}
102
{ACAD_REACTORS
330
29
102
}
330
29
100
AcDbVisualStyle
  2
Gouraud
 70
     2
 71
     2
 72
     2
 73
     1
 90
        2
 40
-0.6
 41
30.0
 62
     5
 63
     7
 74
     0
 91
        0
 64
     7
 65
   257
 75
     1
175
     1
 42
1.0
 92
        0
 66
     7
 43
1.0
 76
     1
 77
     6
 78
     2
 67
     7
 79
     5
170
     0
171
     0
290
     0
174
     0
 93
       13
 44
0.0
173
     0
291
     1
 45
0.0
1001
ACAD
1000
AcDbSavedByObjectVersion
1070
     0
  0
VISUALSTYLE
  5
2D
102
{ACAD_XDICTIONARY
360
EFC
102
}
102
{ACAD_REACTORS
330
29
102
}
330
29
100
AcDbVisualStyle
  2
GouraudWithEdges
 70
     3
 71
     2
 72
     2
 73
     1
 90
        2
 40
-0.6
 41
30.0
 62
     5
 63
     7
 74
     1
 91
        0
 64
     7
 65
   257
 75
     1
175
     1
 42
1.0
 92
        0
 66
   257
 43
1.0
 76
     1
 77
     6
 78
     2
 67
     7
 79
     5
170
     0
171
     0
290
     0
174
     0
 93
       13
 44
0.0
173
     0
291
     1
 45
0.0
1001
ACAD
1000
AcDbSavedByObjectVersion
1070
     0
  0
VISUALSTYLE
  5
31
102
{ACAD_XDICTIONARY
360
F04
102
}
102
{ACAD_REACTORS
330
29
102
}
330
29
100
AcDbVisualStyle
  2
Hidden
 70
     6
 71
     1
 72
     2
 73
     2
 90
        0
 40
-0.6
 41
-30.0
 62
     5
 63
     7
 74
     2
 91
        2
 64
     7
 65
   257
 75
     2
175
     1
 42
40.0
 92
        0
 66
   257
 43
1.0
 76
     1
 77
     6
 78
     2
 67
     7
 79
     3
170
     0
171
     0
290
     0
174
     0
 93
        1
 44
0.0
173
     0
291
     0
 45
0.0
1001
ACAD
1000
AcDbSavedByObjectVersion
1070
     0
  0
VISUALSTYLE
  5
3F
102
{ACAD_XDICTIONARY
360
F20
102
}
102
{ACAD_REACTORS
330
29
102
}
330
29
100
AcDbVisualStyle
  2
JitterOff
 70
    20
 71
     2
 72
     2
 73
     0
 90
        0
 40
-0.6
 41
-30.0
 62
     5
 63
     7
 74
     1
 91
        4
 64
     7
 65
   257
 75
     1
175
     1
 42
1.0
 92
       10
 66
     7
 43
1.0
 76
     1
 77
     6
 78
     2
 67
     7
 79
     5
170
     0
171
     0
290
     0
174
     0
 93
        1
 44
0.0
173
     0
291
     1
 45
0.0
1001
ACAD
1000
AcDbSavedByObjectVersion
1070
     0
  0
VISUALSTYLE
  5
37
102
{ACAD_XDICTIONARY
360
F10
102
}
102
{ACAD_REACTORS
330
29
102
}
330
29
100
AcDbVisualStyle
  2
Linepattern
 70
    14
 71
     2
 72
     2
 73
     0
 90
        0
 40
-0.6
 41
-30.0
 62
     5
 63
     7
 74
     1
 91
        4
 64
     7
 65
   257
 75
     7
175
     7
 42
1.0
 92
        8
 66
     7
 43
1.0
 76
     1
 77
     6
 78
     2
 67
     7
 79
     5
170
     0
171
     0
290
     0
174
     0
 93
        1
 44
0.0
173
     0
291
     1
 45
0.0
1001
ACAD
1000
AcDbSavedByObjectVersion
1070
     0
  0
VISUALSTYLE
  5
40
102
{ACAD_XDICTIONARY
360
F22
102
}
102
{ACAD_REACTORS
330
29
102
}
330
29
100
AcDbVisualStyle
  2
OverhangOff
 70
    21
 71
     2
 72
     2
 73
     0
 90
        0
 40
-0.6
 41
-30.0
 62
     5
 63
     7
 74
     1
 91
        4
 64
     7
 65
   257
 75
     1
175
     1
 42
1.0
 92
        9
 66
     7
 43
1.0
 76
     1
 77
     6
 78
     2
 67
     7
 79
     5
170
     0
171
     0
290
     0
174
     0
 93
        1
 44
0.0
173
     0
291
     1
 45
0.0
1001
ACAD
1000
AcDbSavedByObjectVersion
1070
     0
  0
VISUALSTYLE
  5
33
102
{ACAD_XDICTIONARY
360
F08
102
}
102
{ACAD_REACTORS
330
29
102
}
330
29
100
AcDbVisualStyle
  2
Realistic
 70
     8
 71
     2
 72
     3
 73
     0
 90
        2
 40
-0.6
 41
30.0
 62
     5
 63
     7
 74
     0
 91
        0
 64
     7
 65
   257
 75
     1
175
     1
 42
1.0
 92
        8
 66
   257
 43
1.0
 76
     1
 77
     6
 78
     2
 67
     7
 79
     3
170
     0
171
     0
290
     0
174
     0
 93
       13
 44
0.0
173
     0
291
     0
 45
0.0
1001
ACAD
1000
AcDbSavedByObjectVersion
1070
     0
  0
VISUALSTYLE
  5
3E
102
{ACAD_XDICTIONARY
360
F1E
102
}
102
{ACAD_REACTORS
330
29
102
}
330
29
100
AcDbVisualStyle
  2
Shaded
 70
    27
 71
     2
 72
     2
 73
     1
 90
        2
 40
-0.6
 41
30.0
 62
     5
 63
     7
 74
     0
 91
        4
 64
     7
 65
   257
 75
     1
175
     1
 42
1.0
 92
        8
 66
   257
 43
1.0
 76
     1
 77
     6
 78
     2
 67
     8
 79
     3
170
     0
171
     0
290
     0
174
     0
 93
        5
 44
0.0
173
     0
291
     0
 45
0.0
1001
ACAD
1000
AcDbSavedByObjectVersion
1070
     0
  0
VISUALSTYLE
  5
3D
102
{ACAD_XDICTIONARY
360
F1C
102
}
102
{ACAD_REACTORS
330
29
102
}
330
29
100
AcDbVisualStyle
  2
Shaded with edges
 70
    26
 71
     2
 72
     2
 73
     1
 90
        2
 40
-0.6
 41
30.0
 62
     5
 63
     7
 74
     1
 91
       10
 64
     7
 65
   257
 75
     2
175
     1
 42
1.0
 92
        8
 66
   257
 43
1.0
 76
     1
 77
     6
 78
     2
 67
     7
 79
     3
170
     0
171
     0
290
     0
174
     0
 93
        5
 44
0.0
173
     0
291
     0
 45
0.0
1001
ACAD
1000
AcDbSavedByObjectVersion
1070
     0
  0
VISUALSTYLE
  5
3A
102
{ACAD_XDICTIONARY
360
F16
102
}
102
{ACAD_REACTORS
330
29
102
}
330
29
100
AcDbVisualStyle
  2
Shades of Gray
 70
    23
 71
     2
 72
     2
 73
     3
 90
        0
 40
-0.6
 41
-30.0
 62
     5
 63
     7
 74
     2
 91
        2
 64
     7
 65
     7
 75
     1
175
     1
 42
40.0
 92
        8
 66
     7
 43
1.0
 76
     1
 77
     6
 78
     2
 67
     7
 79
     3
170
     0
171
     0
290
     0
174
     0
 93
        1
 44
0.0
173
     0
291
     0
 45
0.0
1001
ACAD
1000
AcDbSavedByObjectVersion
1070
     0
  0
VISUALSTYLE
  5
3B
102
{ACAD_XDICTIONARY
360
F18
102
}
102
{ACAD_REACTORS
330
29
102
}
330
29
100
AcDbVisualStyle
  2
Sketchy
 70
    24
 71
     1
 72
     2
 73
     2
 90
        0
 40
-0.6
 41
-30.0
 62
     5
 63
     7
 74
     2
 91
        2
 64
     7
 65
     7
 75
     1
175
     1
 42
40.0
 92
       11
 66
     7
 43
1.0
 76
     1
 77
     6
 78
     2
 67
     7
 79
     6
170
     0
171
     0
290
     0
174
     0
 93
        1
 44
0.0
173
     0
291
     0
 45
0.0
1001
ACAD
1000
AcDbSavedByObjectVersion
1070
     0
  0
VISUALSTYLE
  5
36
102
{ACAD_XDICTIONARY
360
F0E
102
}
102
{ACAD_REACTORS
330
29
102
}
330
29
100
AcDbVisualStyle
  2
Thicken
 70
    13
 71
     2
 72
     2
 73
     0
 90
        0
 40
-0.6
 41
-30.0
 62
     5
 63
     7
 74
     1
 91
        4
 64
     7
 65
   257
 75
     1
175
     1
 42
1.0
 92
       12
 66
     7
 43
1.0
 76
     1
 77
     6
 78
     2
 67
     7
 79
     5
170
     0
171
     0
290
     0
174
     0
 93
        1
 44
0.0
173
     0
291
     1
 45
0.0
1001
ACAD
1000
AcDbSavedByObjectVersion
1070
     0
  0
VISUALSTYLE
  5
30
102
{ACAD_XDICTIONARY
360
F02
102
}
102
{ACAD_REACTORS
330
29
102
}
330
29
100
AcDbVisualStyle
  2
Wireframe
 70
     5
 71
     0
 72
     2
 73
     0
 90
        0
 40
-0.6
 41
-30.0
 62
     5
 63
     7
 74
     1
 91
        4
 64
     7
 65
   257
 75
     1
175
     1
 42
1.0
 92
        0
 66
   257
 43
1.0
 76
     1
 77
     6
 78
     2
 67
     7
 79
     3
170
     0
171
     0
290
     0
174
     0
 93
        1
 44
0.0
173
     0
291
     0
 45
0.0
1001
ACAD
1000
AcDbSavedByObjectVersion
1070
     0
  0
VISUALSTYLE
  5
3C
102
{ACAD_XDICTIONARY
360
F1A
102
}
102
{ACAD_REACTORS
330
29
102
}
330
29
100
AcDbVisualStyle
  2
X-Ray
 70
    25
 71
     2
 72
     2
 73
     1
 90
        1
 40
0.5
 41
-30.0
 62
     5
 63
     7
 74
     1
 91
        0
 64
     7
 65
   257
 75
     1
175
     1
 42
1.0
 92
        8
 66
     7
 43
1.0
 76
     1
 77
     6
 78
     2
 67
     7
 79
     3
170
     0
171
     0
290
     0
174
     0
 93
       13
 44
0.0
173
     0
291
     0
 45
0.0
1001
ACAD
1000
AcDbSavedByObjectVersion
1070
     0
  0
DICTIONARYVAR
  5
79
102
{ACAD_REACTORS
330
76
102
}
330
76
100
DictionaryVariables
280
     0
  1
1:1
  0
DICTIONARYVAR
  5
78
102
{ACAD_REACTORS
330
76
102
}
330
76
100
DictionaryVariables
280
     0
  1
STANDARD
  0
DICTIONARYVAR
  5
77
102
{ACAD_REACTORS
330
76
102
}
330
76
100
DictionaryVariables
280
     0
  1
STANDARD
  0
DICTIONARYVAR
  5
EE9
102
{ACAD_REACTORS
330
76
102
}
330
76
100
DictionaryVariables
280
     0
  1
1
  0
DICTIONARYVAR
  5
EE8
102
{ACAD_REACTORS
330
76
102
}
330
76
100
DictionaryVariables
280
     0
  1
1
  0
DICTIONARYVAR
  5
EE7
102
{ACAD_REACTORS
330
76
102
}
330
76
100
DictionaryVariables
280
     0
  1
0
  0
DICTIONARYVAR
  5
EE4
102
{ACAD_REACTORS
330
76
102
}
330
76
100
DictionaryVariables
280
     0
  1
0
  0
DICTIONARYVAR
  5
EE5
102
{ACAD_REACTORS
330
76
102
}
330
76
100
DictionaryVariables
280
     0
  1
0
  0
DICTIONARYVAR
  5
EE3
102
{ACAD_REACTORS
330
76
102
}
330
76
100
DictionaryVariables
280
     0
  1
2
  0
DICTIONARYVAR
  5
EE2
102
{ACAD_REACTORS
330
76
102
}
330
76
100
DictionaryVariables
280
     0
  1
1
  0
DICTIONARYVAR
  5
EE6
102
{ACAD_REACTORS
330
76
102
}
330
76
100
DictionaryVariables
280
     0
  1
127
  0
DICTIONARYVAR
  5
EEA
102
{ACAD_REACTORS
330
76
102
}
330
76
100
DictionaryVariables
280
     0
  1
2
  0
DICTIONARY
  5
F28
330
6B
100
AcDbDictionary
280
     1
281
     1
  3
ACAD_XREC_ROUNDTRIP
360
F29
  0
DICTIONARY
  5
F2C
330
73
100
AcDbDictionary
280
     1
281
     1
  3
ACAD_XREC_ROUNDTRIP
360
F2D
  0
DICTIONARY
  5
F2A
330
6F
100
AcDbDictionary
280
     1
281
     1
  3
ACAD_XREC_ROUNDTRIP
360
F2B
  0
DICTIONARY
  5
1A
330
19
100
AcDbDictionary
280
     1
281
     1
  3
ACAD_XREC_ROUNDTRIP
360
EF4
  3
BUMPTILE
360
1C
  3
DIFFUSETILE
360
1B
  3
OPACITYTILE
360
1F
  3
REFLECTIONTILE
360
1E
  3
REFRACTIONTILE
360
20
  3
SPECULARTILE
360
1D
  0
DICTIONARY
  5
12
330
11
100
AcDbDictionary
280
     1
281
     1
  3
ACAD_XREC_ROUNDTRIP
360
EF3
  3
BUMPTILE
360
14
  3
DIFFUSETILE
360
13
  3
FBXASSET
360
F5
  3
OPACITYTILE
360
17
  3
REFLECTIONTILE
360
16
  3
REFRACTIONTILE
360
18
  3
SPECULARTILE
360
15
  0
DICTIONARY
  5
22
330
21
100
AcDbDictionary
280
     1
281
     1
  3
ACAD_XREC_ROUNDTRIP
360
EF5
  3
BUMPTILE
360
24
  3
DIFFUSETILE
360
23
  3
FBXASSET
360
BA
  3
OPACITYTILE
360
27
  3
REFLECTIONTILE
360
26
  3
REFRACTIONTILE
360
28
  3
SPECULARTILE
360
25
  0
DICTIONARY
  5
EED
330
67
100
AcDbDictionary
280
     1
281
     1
  3
ACAD_XREC_ROUNDTRIP
360
EEE
  0
DICTIONARY
  5
EEB
330
65
100
AcDbDictionary
280
     1
281
     1
  3
ACAD_ROUNDTRIP_2008_TABLESTYLE_CELLSTYLEMAP
360
EEC
  3
ACAD_XREC_ROUNDTRIP
360
F26
  0
DICTIONARY
  5
F00
330
2F
100
AcDbDictionary
280
     1
281
     1
  3
ACAD_XREC_ROUNDTRIP
360
F01
  0
DICTIONARY
  5
EFE
330
2E
100
AcDbDictionary
280
     1
281
     1
  3
ACAD_XREC_ROUNDTRIP
360
EFF
  0
DICTIONARY
  5
F0C
330
35
100
AcDbDictionary
280
     1
281
     1
  3
ACAD_XREC_ROUNDTRIP
360
F0D
  0
DICTIONARY
  5
F14
330
39
100
AcDbDictionary
280
     1
281
     1
  3
ACAD_XREC_ROUNDTRIP
360
F15
  0
DICTIONARY
  5
F06
330
32
100
AcDbDictionary
280
     1
281
     1
  3
ACAD_XREC_ROUNDTRIP
360
F07
  0
DICTIONARY
  5
F0A
330
34
100
AcDbDictionary
280
     1
281
     1
  3
ACAD_XREC_ROUNDTRIP
360
F0B
  0
DICTIONARY
  5
F24
330
41
100
AcDbDictionary
280
     1
281
     1
  3
ACAD_XREC_ROUNDTRIP
360
F25
  0
DICTIONARY
  5
F12
330
38
100
AcDbDictionary
280
     1
281
     1
  3
ACAD_XREC_ROUNDTRIP
360
F13
  0
DICTIONARY
  5
EF6
330
2A
100
AcDbDictionary
280
     1
281
     1
  3
ACAD_XREC_ROUNDTRIP
360
EF7
  0
DICTIONARY
  5
EF8
330
2B
100
AcDbDictionary
280
     1
281
     1
  3
ACAD_XREC_ROUNDTRIP
360
EF9
  0
DICTIONARY
  5
EFA
330
2C
100
AcDbDictionary
280
     1
281
     1
  3
ACAD_XREC_ROUNDTRIP
360
EFB
  0
DICTIONARY
  5
EFC
330
2D
100
AcDbDictionary
280
     1
281
     1
  3
ACAD_XREC_ROUNDTRIP
360
EFD
  0
DICTIONARY
  5
F04
330
31
100
AcDbDictionary
280
     1
281
     1
  3
ACAD_XREC_ROUNDTRIP
360
F05
  0
DICTIONARY
  5
F20
330
3F
100
AcDbDictionary
280
     1
281
     1
  3
ACAD_XREC_ROUNDTRIP
360
F21
  0
DICTIONARY
  5
F10
330
37
100
AcDbDictionary
280
     1
281
     1
  3
ACAD_XREC_ROUNDTRIP
360
F11
  0
DICTIONARY
  5
F22
330
40
100
AcDbDictionary
280
     1
281
     1
  3
ACAD_XREC_ROUNDTRIP
360
F23
  0
DICTIONARY
  5
F08
330
33
100
AcDbDictionary
280
     1
281
     1
  3
ACAD_XREC_ROUNDTRIP
360
F09
  0
DICTIONARY
  5
F1E
330
3E
100
AcDbDictionary
280
     1
281
     1
  3
ACAD_XREC_ROUNDTRIP
360
F1F
  0
DICTIONARY
  5
F1C
330
3D
100
AcDbDictionary
280
     1
281
     1
  3
ACAD_XREC_ROUNDTRIP
360
F1D
  0
DICTIONARY
  5
F16
330
3A
100
AcDbDictionary
280
     1
281
     1
  3
ACAD_XREC_ROUNDTRIP
360
F17
  0
DICTIONARY
  5
F18
330
3B
100
AcDbDictionary
280
     1
281
     1
  3
ACAD_XREC_ROUNDTRIP
360
F19
  0
DICTIONARY
  5
F0E
330
36
100
AcDbDictionary
280
     1
281
     1
  3
ACAD_XREC_ROUNDTRIP
360
F0F
  0
DICTIONARY
  5
F02
330
30
100
AcDbDictionary
280
     1
281
     1
  3
ACAD_XREC_ROUNDTRIP
360
F03
  0
DICTIONARY
  5
F1A
330
3C
100
AcDbDictionary
280
     1
281
     1
  3
ACAD_XREC_ROUNDTRIP
360
F1B
  0
XRECORD
  5
F29
102
{ACAD_REACTORS
330
F28
102
}
330
F28
100
AcDbXrecord
280
     1
102
SHADEPLOT
 70
     0
102
SHADEPLOTRESLEVEL
 70
     2
102
SHADEPLOTCUSTOMDPI
 70
   300
  0
XRECORD
  5
F2D
102
{ACAD_REACTORS
330
F2C
102
}
330
F2C
100
AcDbXrecord
280
     1
102
SHADEPLOT
 70
     0
102
SHADEPLOTRESLEVEL
 70
     2
102
SHADEPLOTCUSTOMDPI
 70
   300
  0
XRECORD
  5
F2B
102
{ACAD_REACTORS
330
F2A
102
}
330
F2A
100
AcDbXrecord
280
     1
102
SHADEPLOT
 70
     0
102
SHADEPLOTRESLEVEL
 70
     2
102
SHADEPLOTCUSTOMDPI
 70
   300
  0
XRECORD
  5
EF4
102
{ACAD_REACTORS
330
1A
102
}
330
1A
100
AcDbXrecord
280
     1
102
MATERIAL
148
0.0
149
0.0
149
0.0
 93
        0
 94
      127
282
     0
 72
     0
 77
     0
171
     0
175
     0
179
     0
273
     0
  0
XRECORD
  5
1C
102
{ACAD_REACTORS
330
1A
102
}
330
1A
100
AcDbXrecord
280
     1
270
     1
271
     1
  0
XRECORD
  5
1B
102
{ACAD_REACTORS
330
1A
102
}
330
1A
100
AcDbXrecord
280
     1
270
     1
271
     1
  0
XRECORD
  5
1F
102
{ACAD_REACTORS
330
1A
102
}
330
1A
100
AcDbXrecord
280
     1
270
     1
271
     1
  0
XRECORD
  5
1E
102
{ACAD_REACTORS
330
1A
102
}
330
1A
100
AcDbXrecord
280
     1
270
     1
271
     1
  0
XRECORD
  5
20
102
{ACAD_REACTORS
330
1A
102
}
330
1A
100
AcDbXrecord
280
     1
270
     1
271
     1
  0
XRECORD
  5
1D
102
{ACAD_REACTORS
330
1A
102
}
330
1A
100
AcDbXrecord
280
     1
270
     1
271
     1
  0
XRECORD
  5
EF3
102
{ACAD_REACTORS
330
12
102
}
330
12
100
AcDbXrecord
280
     1
102
MATERIAL
148
0.0
149
0.0
149
0.0
 93
        0
 94
      127
282
     0
 72
     0
 77
     0
171
     0
175
     0
179
     0
273
     0
  0
XRECORD
  5
14
102
{ACAD_REACTORS
330
12
102
}
330
12
100
AcDbXrecord
280
     1
270
     1
271
     1
  0
XRECORD
  5
13
102
{ACAD_REACTORS
330
12
102
}
330
12
100
AcDbXrecord
280
     1
270
     1
271
     1
  0
XRECORD
  5
F5
102
{ACAD_REACTORS
330
12
102
}
330
12
100
AcDbXrecord
280
     1
 70
     1
 90
1959938040
 71
     1
  1
9ED2FAFE-676D-4989-8B6E-48E5C5DCAA5E
311
504B03040A0000080000324A37403DEE336E79000000790000001B0000006175746F6465736B2D64657369676E2D7061636B6167652E786D6C3C3F786D6C2076657273696F6E3D22312E302220656E636F64696E673D227574662D3822203F3E3C666F726D6174733E3C666F726D61743E687474703A2F2F736368656D612E
311
6175746F6465736B2E636F6D2F64657369676E2D7061636B6167652F323030393C2F666F726D61743E3C2F666F726D6174733E504B0304140006080800324A3740D486FD9CA0000000F4000000130000005B436F6E74656E745F54797065735D2E786D6C7D8EC10E82300C865F65E91D8A1E8C310C0EEA1BF002731658846E
311
D98AC1B77784ABF1D8FE5FBFBF75BBCE937A534CCEB38643598122B6FEE978D0B0485F9C41B54DDD7D022595594E1A469170414C76A4D9A4D207E29CF43ECE46F218070CC6BECC4078ACAA135ACF422C856C0E68EA1BF5669944DDD7BCDE7B1F8E415D77AECB980613C2E4AC91FC167A2B244592486606FC29C8FD7F045B9A
311
EF7053A7E60B504B0304140006080800324A374023F1B436E90000007C01000008000000636F72652E786D6C8D904D6EC3201085AF82668FCD4F131C0B1325A97C825E0061E2A2C46019A87AFCE2C491DA5D57337AF3BE99D193C7EFE98EBEEC125DF01DD08A00B2DE84C1F9B1839CAEB8017454720921FDB201F27AB21DAC
311
3228392E21CF9B64824FD6A7A2FA30D84DD431DA04C8DC4BD341349F76D295CEA938E2AD9AB5B9E9D156F4D515386737A0E71137947DEEEAEC024AEC08BBF484E2A63971FC46DF053EF35D8FCF07412917FB4B7F62B25E6125939B5EF7CD6275B203284628C30567FC831C5A2A5A2E30D9B784C87AB5FF81F23CFC13CACE27
311
CEB6779F580445CB238F8192F59A45298FA04A5D73533F504B0304140006080800324A374055019EA25F0000007C00000007000000636E782E786D6C4DCB3B0E80201045D1AD90E915ED2CF8AC45050C11660C8261F98AB1B07AC9C97D42D718D865D3E909258CFD00CCE24AC6E326A164D74DC0B4128928FF326038472BA1
311
3128B1252AC747C6BAB984FC68F0B87FE8960A5C09FE86CFB69FBA01504B0304140006080800324A37409EE712CA65010000020300000C0000006662782F636F72652E786D6C8D52ED8E8230107C95A6FFA12DA8A82935EAC527B817A850B946684969898F7FCB87F1BC1863484A33B3B33B3BC077B7A646BD729DB626C72C
311
A6182953D8529B2AC7C15FA235463BC19DB5FE4F194646362AC7038C05AF9C0DED0C15D678653CA0C6966A0665D7298F5151C325C75DF1A31A19CBE0A1A2BBC6AD2CAEB252318B81863AC13BEFC0009A860C271697F38D9309173C045DCEAC2E619ABE68E5B0C89634399E288BD6EB7D1A2DD857161DD2E5293A6C32C6D26C
311
753CED134E06B1E05E3777778553D2AB128B84B2240279927ED3CD9665DB348BE86A4B292743F99328B4E587A2A08D4F93D9EE24EBB060606424FE6D0B1179D4C91EFC10C1C91022BCC6849F83864020642FCFF57D8F2B40BD2ABC750B604A1B1E542FEBA0602A45E3C3C9C442E7B1016CF6B24FF2A6CFFB1EF001A5A9C09A
311
F4703D073F4CE7D3D4398A56B9A8F73764AC6B64FD3037597C9C8F412FE585ADADFB444DE655C91C2619FE5EF10B504B0304140006080800324A37404F22AD107D0000009D0000000B0000006662782F636E782E786D6C4DCCD10E82201886E15B61FF390946C001E082E67DB844E7426804ADCB4F9B071D7DDBB36FAFEA3E
311
6B406F9F5F4B8A1AE88900F2F19EC625CE1A6A99B004D41995532A7F37407158BD869DC1A839A7FA3C68F4D35043D9342CF171606FAD70E42AB0ED19C5CCF116CB33BD61469C2482D30B970C1AA39A5F69DB3D6CBE504B0304140006080800324A37402A4568C12B01000014020000310000006662782F4642423743304137
311
2D424634312D344336322D383331442D3430433830373631353638342F636F72652E786D6C8D51CB6EC32010FC158B537AC0063FB01361A22655BEA03F4080A42831583CAA7C7EA176A4F6960B8B66676647BB74FF98EEC5B7725E5B33025C22502823ACD4E63A82182E7000C59E51676DF8430385E1931A418601A35767E3
311
BC42C29AA04C48A8B152AD20F75E0550887BFA8CC08B2F35F192C79018FE56CE5CDCF85595B84CEDC463D407970214CB90FC02763A1CFA237AEFE1E1D462D81E490D87067FC0161D07D413DC91A1A5D5226434462D57B996298EBE68E55E35C96246839E9EF185533C2809588D700D118675F389B63BDCEF9A1E22B2438856
311
99FE4F1467F9A2286A139A7A8DBBC83C6098564B835169E3F9FE0CA31EB375A1C8F3365E8937C050896AD4757D4F68B550D302922769574F1FAC4B0BDEDCCE898DBBC598B48C56F946A9FC1E30D57C4FF603504B0304140006080800324A374081A051804E01000033030000300000006662782F46424237433041372D4246
311
34312D344336322D383331442D3430433830373631353638342F636E782E786D6CD593CD6EC32010845F0571B78D932869234CA41EFA043DF48A6193D260B0F8A99AB7EF929034971C7AEC0559B3C3CCEA13E6BBEFC9922F08D17837D0BE659480535E1B7718684EFBE689929DE0C1FB7467A3C4C909065A642AF821F83C57
311
49C35E669B50B5C61DAB1820FA1C144494CB4D62BD921603C03519459846D01A34B919F16B0F015741713C91F401E4F5E59DF8F113548ABC2B298277A543F072D6A63B1325CACA18071AD5074CB29539790DF1D86A9964DBB7D7AE073BFD269172E15A998321A57CA0E5A4A26ED42247DEE150F09802D2ABA6749A810A39CF
311
D62899107277365E3C8267E3D27A55BD06C10774F7EBE56A8561E799E0C94C501D2A804CA0A958B07ED1B0BE592CDFD8F3B6DF6C979B86ADB78CF1AED8051FBDB7F512C640F03351DE2570898A9E7765FC085FF5116D02B2F6E1F4079008A0B65EE8DC32FE339FEEFCBE1157C0BF40FC00504B0304140006080800324A3740
311
C61015619D0500007B100000340000006662782F46424237433041372D424634312D344336322D383331442D3430433830373631353638342F6F626A656374732E786D6CAD575B8F9B3814FE2B887D06729BE964C55065924C15ED4E5B356AB50F2345060CE31D73916DA699FDF5FB190C81349966577D016CECE373BEF39D
311
8BFDF7FB8C5B2F544856E4B7F6D81DD916CDA32266797A6B572A716E6CEB7DE08BA250BD65B695938CDEDA7ADA0EFC54145569A6629A908AABA3D9FBBBBF2C19D19CDA56C48994B7B68C9E68465C52A922A6F2D98D89226E9AECDDB1DB2C1C8A4D05299F8E849644D05C4153CCE79062354A8D87C391ED05BEA7FF07BE7E9A
311
55D3F3ABBCDA9EE1F92C978AE4D10F871D89998E67ABF5E46AEE5CCD665367763D193B77F7772B67FC6E3A5A5E2F97F3C57A8E83A5129064341134B1830FC046B0C8F79A5F815FB15C4D276689719027E80BD39EB2838935F6BD664D679D31F294FA5191E734AAB1021AB57D46744C4B9AC7F039A3129AF5101A0D87638D63
311
EFF7548FCD91FDE9CB10E8EFE8096A756FDF7D4D8BF06F98202F6190905433B0C1D218DA70757440382C0A6EFE3169654451C108B7380B0511AF7680A57A49E00FC468260B1D0DDA023B80179ADF43BA208C7ECEF3535A2615E79AC6765047C10EB14295AC3563FF5071D0BE8F0C7482AF341B6E8C41EAB5A476306F287273
311
C4A606482BE12485CB61A6DE399D1C19BAD471BA59D9C11FF7E17EAB63F7F4E1A5284A2A94A60FA8D53AAE7D6B948C4EE38B3CA737D847AA1C40F902E43F22D40FAAC06F82ED67FB9939450992CBA410197C638D2C6784C7C81AD74FFDDDFBF2BD6EF3D07BE7F084B33554BF00CFA10D7D5FF6E00CFC1710BE105363DA3622
311
1C69E381E5004893C4E205A6908793706F071B64396465EC223C18C364A8FB824FDF33629028EA937AEF1C581EA5C50B123460AB1909351AF21B050F7EFA219DD5079B65E7E0BDFA25745DACB67F6C2B9190883E98985ED184E54CA1C41D78D3576880F9C0A267FAFABD10310CFD11EF6D1FEFCC1C2581B6C65C039FB6395D
311
0F0E270F0E88B02F2D74BAF17F72028CD085B527FF81C988724E725A54EDB96FD60F948D06621DEC9AC95D8139141690A6F973148328D29160A506B1AB565DD274CF58F775F3118CB483BBD73FC96B3F7B8587DC1B15BC10BBF075D7A4A593507F1B72DB60E06929A07B1D246DFC1BD077314B924A22099EC0F5DB66D9F79D
311
4E0B4811ADD4265A66B01FC14584216D2B17D55A1054D222DF31D44DC4DDC903FAF201A961402DF09CC692F264C738AFB25DC238AAD12E23E51938FEBFFE6195953B921555AECEC81EA88EEA30D47DC05EF99DA8E8C90EB6F5DBB943EE8D697C860CBA969CC06AE0DAF97A35B95FDCAF9DEB77D72B6736BF993B3777D76B67
311
76B3BE5A5EAD968BC5D5BAF553A349E0B7A5A61FD1F0124A9B5F0966DCF77583F83149C00E1E88928F1F9AF06CDF5F372E7A61DFC31ED4CB6EE3227E41DF47E39F0B38AC3C296893959C66345744C7D083FEE05F08FA8C8132CDFC262329BD40CAA70FDB23633073C1BECF3ADEE9F7A3BD6676A903F2A410F55465614E183F
311
DA983648BA659E1AFC5A9F74EFA6D0B4433D328E41672A0BCE62E4C1D84A699151856C784111121995A05EBFA78FCDDDE382DD2F4D87A848C869ABC9134193CC25C202D4AA22359CB77E4353A7FBAA5B1BE5D67DC6C3640ADB02676E6D34E98A4554BA210AB46E856AE1E052BF9347E34FF294A3D76E3675E36E97C6665092
311
BB2597F44FC6AE26851B0390464AF40D6888E09D5A99C0AF7533FFA3FF6478AB8E45143EC34A75B61C263A63EA6310A28D51E6B68026E6D91CBD47A0BE6DD6D8ADD70C10B9E896F526091AA98E2222AD6F0A5A3FA3D262F5D94387626D3E5925AF52F8F272498EA02073A5031C2C022B8CCC92285075F9FBE36751E0269B59
311
F70C14785C165956E466B03037616BFB847B6DFC88B440F585443E4E46E3C9637D113077935D482475492C9F31019F0AD6413C703C18D9DC1651819A1FDD3A4F3BE1889B9B95654ADA0C420D51FA5955C3829623A716A2475F2675ACF417946FDE05BC7A295410E8E2837F01504B0304140006080000324A37400000000000
311
00000000000000350000006662782F46424237433041372D424634312D344336322D383331442D3430433830373631353638342F76657274696365732E62696E504B0304140006080800324A3740F270F1330600000004000000360000006662782F46424237433041372D424634312D344336322D383331442D3430433830
311
373631353638342F747269616E676C65732E62696E636660600000504B0304140006080000324A3740000000000000000000000000370000006662782F46424237433041372D424634312D344336322D383331442D3430433830373631353638342F617474726962757465732E62696E504B0304140006080800324A3740D5
311
987DFC8F00000041010000360000006662782F46424237433041372D424634312D344336322D383331442D3430433830373631353638342F6469726563746F72792E786D6C858F410EC2201045AF4266AF15DDB800BA74E7C21B903225242D6328188F2FA5C4183471359997F9FF81E89FF3C41E1816475E02DF1F80A11FC8
311
386F25A438EECEC07A250251FC3803E6F58C12560C4AD840E95E91C151A72936F496F35732D860FE635F62C8F2DA16B505C545B74125BAA2FA9E05D7CC053D063734D5C7665FD55B6B8D15D5E9BFEAFD8490FFA45E504B0304140006080800324A3740305A9AAEFC000000A00100003B0000006662782F4642423743304137
311
2D424634312D344336322D383331442D3430433830373631353638342F7265736F75726365732F636F72652E786D6C8D504B6E833010BD0A9ABDC1364D48907194A4E204BD806526C44AB0913F558F5F13A8D4EEBA9919BD8FE6E989D3D7F42C3ED107E36C07ACA450A0D56E3076EC20C51B39407192C23B177FC9A0B06AC2
311
0E1618A418BD4BF306696723DA9851EB06DC4015024628F4331F1D047DC749952AC5AC088F7256FAA1462C5999E9AC9322449F0314EB936582F4185CF21A83A856568A94CCB069CC907F9A9B410FB2D9517EED292587C3B9266FECBD21977AD793CBB161AC6EF6D7FECC45B598A58866FAC9A83DAA8803484E192794115E7F
311
D063CB9AB66E08DDB7948A6A91FF31A579F8A729191B6BBEC55D6D0124CB415E8414D5D2575EAF32F35EBA95DF504B010214000A0000080000324A37403DEE336E79000000790000001B00000000000000000000000000000000006175746F6465736B2D64657369676E2D7061636B6167652E786D6C504B01021400140006
311
080800324A3740D486FD9CA0000000F40000001300000000000000000000000000B20000005B436F6E74656E745F54797065735D2E786D6C504B01021400140006080800324A374023F1B436E90000007C010000080000000000000000000000000083010000636F72652E786D6C504B01021400140006080800324A374055
311
019EA25F0000007C000000070000000000000000000000000092020000636E782E786D6C504B01021400140006080800324A37409EE712CA65010000020300000C00000000000000000000000000160300006662782F636F72652E786D6C504B01021400140006080800324A37404F22AD107D0000009D0000000B00000000
311
000000000000000000A50400006662782F636E782E786D6C504B01021400140006080800324A37402A4568C12B0100001402000031000000000000000000000000004B0500006662782F46424237433041372D424634312D344336322D383331442D3430433830373631353638342F636F72652E786D6C504B010214001400
311
06080800324A374081A051804E010000330300003000000000000000000000000000C50600006662782F46424237433041372D424634312D344336322D383331442D3430433830373631353638342F636E782E786D6C504B01021400140006080800324A3740C61015619D0500007B10000034000000000000000000000000
311
00610800006662782F46424237433041372D424634312D344336322D383331442D3430433830373631353638342F6F626A656374732E786D6C504B01021400140006080000324A37400000000000000000000000003500000000000000000000000000500E00006662782F46424237433041372D424634312D344336322D38
311
3331442D3430433830373631353638342F76657274696365732E62696E504B01021400140006080800324A3740F270F13306000000040000003600000000000000000000000000A30E00006662782F46424237433041372D424634312D344336322D383331442D3430433830373631353638342F747269616E676C65732E62
311
696E504B01021400140006080000324A37400000000000000000000000003700000000000000000000000000FD0E00006662782F46424237433041372D424634312D344336322D383331442D3430433830373631353638342F617474726962757465732E62696E504B01021400140006080800324A3740D5987DFC8F000000
311
410100003600000000000000000000000000520F00006662782F46424237433041372D424634312D344336322D383331442D3430433830373631353638342F6469726563746F72792E786D6C504B01021400140006080800324A3740305A9AAEFC000000A00100003B00000000000000000000000000351000006662782F46
311
424237433041372D424634312D344336322D383331442D3430433830373631353638342F7265736F75726365732F636F72652E786D6C504B0506000000000E000E00800400008A1100000000
310
504B03040A0000080000324A37403DEE336E79000000790000001B0000006175746F6465736B2D64657369676E2D7061636B6167652E786D6C3C3F786D6C2076657273696F6E3D22312E302220656E636F64696E673D227574662D3822203F3E3C666F726D6174733E3C666F726D61743E687474703A2F2F736368656D612E
310
6175746F6465736B2E636F6D2F64657369676E2D7061636B6167652F323030393C2F666F726D61743E3C2F666F726D6174733E504B0304140006080800324A3740D486FD9CA0000000F4000000130000005B436F6E74656E745F54797065735D2E786D6C7D8EC10E82300C865F65E91D8A1E8C310C0EEA1BF002731658846E
310
D98AC1B77784ABF1D8FE5FBFBF75BBCE937A534CCEB38643598122B6FEE978D0B0485F9C41B54DDD7D022595594E1A469170414C76A4D9A4D207E29CF43ECE46F218070CC6BECC4078ACAA135ACF422C856C0E68EA1BF5669944DDD7BCDE7B1F8E415D77AECB980613C2E4AC91FC167A2B244592486606FC29C8FD7F045B9A
310
EF7053A7E60B504B0304140006080800324A37409C457813ED0000007C01000008000000636F72652E786D6C75904D6EC3201085AF62CD1E1B70E33F6122BB494FD00B20202E4A0C9681AAC72F4E1CA9597435A337EF9B193D76FC996FD9B75EBD71B6079263C8B4954E193BF510C30535901D395B9D0B7F6C905931EB1E36
310
19389B5617975D92CE066D4352AD537A1785F73A40266FA9E9C1CB2F3D8B5CC4901CFE9A2F425EC5A473F2EC121CA351D9E38851699FB918BD02AF68736EC938A2C3C7D0A2377CA26838E1068DF5F9FDD0D423298781151BCC5930F3F3BE5CB5085A01A798508409A2E5276E3B5277658570D561CC8ACDFE02C545FD07D5AF
310
50343694747FF78179E0243D721F70566C59A4720F2AD52D37FE0B504B0304140006080800324A374055019EA25F0000007C00000007000000636E782E786D6C4DCB3B0E80201045D1AD90E915ED2CF8AC45050C11660C8261F98AB1B07AC9C97D42D718D865D3E909258CFD00CCE24AC6E326A164D74DC0B4128928FF3260
310
38472BA13128B1252AC747C6BAB984FC68F0B87FE8960A5C09FE86CFB69FBA01504B0304140006080800324A3740A754B45B69010000020300000C0000006662782F636F72652E786D6C8D525B6E833010BC8AE57F631BF296E3089AF404BD80034E8A0236F203E5F85D02519A2AAD2A2463CDECECCE0E88DDB56D50AF9DAF
310
ADD9629E308CB4296D559BF316C770222B8C7652386BC3B7328C8C6AF5160F3096E2EC6CEC26A8B42668130035B6D213A8BCD701A3B281CB16FBF253B72A51314085BF249D2A2FEAAC139E000D7552F8E0C0001A870C2796A7E355D0119722C6BA9AD8BA8269F5A9D60ECB45BA3AAC795190F97BBE2633B64F49BE672B522C
310
0F6FF3D5B2E0599E0B3A88A508757B77573AAD82AEB04C194F09E324CD3ED87AC3979B6C41D862C398A043F9932876D56FA2E5B328D62664E9647794792C3918B9113FB6858802F2AA073F540A3A8408AF5BC2CF414320107250C7E6BEC705A05E97C1BA1930958D0FAA574DD43095A1DB23E8C842E75B03D8EC659FF48F3E
310
7FF7800FA8CC19ACA900D7630CC374314E9DA2E8B4237DB822635DAB9A87B9D1E2E37C0C7A292F6D63DD7FD4745A954E61D2E1EF955F504B0304140006080800324A374044E0A4267D0000009D0000000B0000006662782F636E782E786D6C4DCCDD0A83201C05F05791FFBDCB3E4005358CE57BC4B2909586D3B1C79F8D2E
310
7675E0770E47F49F7D436F1B5F2E7809F58D00B2FE1166E75709392D9801EA958821A4BF19203FED56C2C9A0C41A433E2E9AED32E52D15DD9C7F5E484D4B9A96D7D88C44E34E9B3BE67AE0980E6C2C45435967A052A2FA3D953C8FD517504B0304140006080800324A3740BB522C642E01000014020000310000006662782F
310
37463330323339312D464530412D344146442D394142392D3742384530323332373834462F636F72652E786D6C8D51CB6EC32010FC15C4293D60F3B0FC883051A2C65FD01F7030715162B07854F9FCE2DA919A43A55E58343B333BDAE587C774075FCA796D4D0B4986215046DA419BB185315C510DC14170676DF84583C0F4
310
936AE10243C14767E3BC41D29AA04C48A8B183DAC0DE7B152090F7F469A1979F6AEAB33E86C4F0B76CEEE5AD1F5546B2D44E3CC17D70290058872C2F1455C730650D41DD191F5171ECDE51733C35A83AD5E7D4A0555D743C5F8582C7A8874DAE8714475FB572FF3559C482073D3DE34BA7FAA00628282614618228FBC0CD9E
310
547B56225CEE31E6F9427F11C579F84B54BD8AA23681D12DEE2AF350109EAF0DC1071B2FF76718F598AD0B6099B7F34ABE4181334C09C34D59F37CA5A60524CFB2D83C7DB02E2D7877BB2436DB8CCB42F07CB9512A3F074C75B9A7F806504B0304140006080800324A3740E84ED6115601000033030000300000006662782F
310
37463330323339312D464530412D344146442D394142392D3742384530323332373834462F636E782E786D6CAD93CD6E022114855F85B09F7F335AC360D2459FA08B6E11AE4A6560024C53DFBE1745EBC6854D376472EEE19C9B2F0CDB7C8F867C810FDAD98136654D0958E994B6FB81CE7157AC28D970E69D8B77364AAC18
310
61A049A69CEDBD9BA72C29D889D944548DB6C72C7A086EF61202CAE926314E0A8301608B194518B7A014287233E2D70E3CAE82E2F644E201C8DBEB0771DB4F9031B02AA57056A50ECED2999BEE4C9448234218689007184529E6E8148463A9441465535EBB1EECF49B44D2856BE5EC3549E5034D27E579A31239B20A879C85
310
E8915E36C5D304948B69325A8A8890ABB3F1E2E16CD636F68BECD508DEA3BB6BFBD50AC3CE33CEA21E213BA407114151DED64D5BD44DD176EFF5CBBA59AEBBBEA8FB755DB32AD939DB3A67F2258C01EF26229D8D6023E50DABD2F811BEEC234A7B64EDFCE909900820B75EE8DC32FE934FD3778BC5B37C967FE7539DDF37E2
310
F2F817F01F504B0304140006080800324A37409F0AB7595B070000941B0000340000006662782F37463330323339312D464530412D344146442D394142392D3742384530323332373834462F6F626A656374732E786D6CED59DD739B3810FF5718EED9D8F8234D6E089DC44E329E5EDA4E7DEDDC8367181964AC8B108C2492
310
F8FEFA5B09818198045F736F7DB00121AD767FFBA9C5FBF89C50EB117341527669BBCEC8B6300BD388B0F8D2CEE576706E5B1F7D8FA7A9AC4DB32D86127C69AB61DBF7629EE699198AF016E554B6466FAFFFB2448819B6AD9022212E6D11EE70821C94CB34C2E2C18990444EBC7D765CA798D8241B7394ED5A4433C43193C0
310
298C33A062154CB9CDC7913DF4BDA17AEF7BEADFCC9AF49A35ED9E35D45237B9244C48C4C2172CB5C84C7AB13471A78B9BF1EC62309B4E2783E9D9D81D5CDF5E2F06EE87C9687E369F5F5CDD5C007B9B34A546A608679845A0BFBDEDBBDE50BDA94437081CE33A4C19C3A10612A0D262B509122C60AB1A7CA3E6A3AB24AABD
310
D612D69EA7EABD61A1363C6952E99AD50F88065D10C46C574A5C5EEBF2A59BBF4170D1C728B9C012B8159283760D3C1CBCC2F647DEB018F5BDCD4117445809929813442D4A361C71500A4C55537CAF5860C828E7E040CA521268CD15AF9BB6059EF9B6EB1CE3729B53AA3CC3F6B56305E07E580ACD19F907F303F775648027
310
9036274C9E1B2EE53EC3B67FE10DF5A0EFA9CB646C5E16405A5B8A62A11129DEB6049D2BD75F2E6CFFD3EDE679A5C2C1F1CD339E66984B65744A8F9A2F3064735528996DDD5E9A530B40980254B3F200CA3740FE33448F032BA0374E9EA7CF53335772C4C436E509E8C61A598311FC8D2C57FFABFBDA9D37AC1637B5D78527
310
B8A982EAFCE7F16CCAA0B132FCD7E0F4BD4730F8944FCCAB558828D8F33D61009032128BA63004A17DBB79B6FD25044E08F4B00A51DF059181DD47B8F58686CC412BA57B19AF6380A8D963D24749009BB64860A3434F77903D38090F6AAA8BD805EFEC5DCCF56AB1FAB4CAF91685F8DEF8F4026F092312B2E671861A983724
310
7AC0FBA7944720E84BBC5775BC13B39500B415E60AF8B804413D1C766E6C10C2BA3855E1C67B63071042E5EA1AFD7B22424C296238CDCB7DABE8A60CB5F2785333D8FEB88078326E9930C78F445515E03487190D4621EF879C640A44DBBF2B24AB82A6D321DDF7E567B0C86A7EC7AC2583D0CB10FD5307AD2338342CBB44DA
310
005109BC3984F330A5290F36FBA0887436D412C046D35B7E348842AC2F94A4A8800769BF2B434A5C481B4464BBCD05C4D5232CFE58CEEBE6307226EECCAAFFB79C710AD1167C1771E377AD3D0292A018075B14756D57DFADA22D34C90ED21C6F29C8451E89DC074806A308C7A7407312F18B77A51ED35408C2B0807C7514FC
310
3A1A23070249A1CD9265A5D516D044040996889E828022D301AE4E3BBAC60DA174789BC7CA7A5FD3589DE8FF64111C412D99B28040290A39E44DC65D670631A4896E81720B5FB0B692B61683E6504284FBE0099378274F41BD20DF817B0847925C0669864230EB1E645FF88A526A8BF70D0A1F54FE08C29CBE9781084CB701
310
A1344F02F81106278F3EAE5D05A65751A8112F629FC409146548E6BCCF2667B3D18B7D8A9AA11D026B1B6D0985B01D2428EB40BD1110753D6255E01BEA1D4ADDE44916A024CD592F4371266D6F32E4DB6A55647BF2AB4A45281B4BC286A0EF1126ABAC5AC66C30751D58C18D74A0DA070225192D4E616F241EB7F2264DB973
310
036EFCF47D3748A0F0EBD05E3DA24E4B180C8F8DC2403C2119EE6C7FA5AF836BA8BF231C1D527D596BD62B40404C45F29C13A3A2EF4B286F4C8D66FBF7488AF55D9175CBEBF7A503DD0F6F086BA076A9162E15D0096612A9CAE45EDDD06F084270834631BE5439F5142A5751A4AB46446F49973A1B654463D38438D90EB334
310
811F5B1316D23CC26B148987E05ED2604514EB464A272125C6AF0AF8E56ED58207467A88F4551578F8A9B5D68CCE55B9749488DCE5C986210241B0215A5CE8C6C9586C34526AB9BAAA3305D45D606046C5D35F278B7A3BE2D7C9223686F153278BEBFD1F685FEF8BD4D279A8ECFAA46340959F1495F73806E8B64345B5CA22
310
453237F21B670A20289651BE773556068D826017C7FF396B7765C162BB16FFA7656DF745C5715256694C565DAA2395EBB29EC32E6E16E3DBABDB9BC1D987B3C5607A717E3138BF3EBB194CCF6F66F3D9627E7535BBA9D0D48EEA7B5530D3B90B9E8BA0560EAB2783017465454A4904A7F9C88A31C47C0967FA1EED739E6001
310
C9B3DEEC8E4C53BEC7EAC7A2CF29D186E292931D8206311590D601A33C94CD71EB37684D4A38685FDAD034721EE0CF58A56D41E6B9B4A15520498885B38136936AE869E2907275EE37C4001FC46295128B45D573B54A61D308FFD5943E69C0C8D5E86140E19641F7ABD1A1D0BC199EC293042FD9B19084DB4D2EA15A2B6439
310
0C54C2E86D0EEA2F64A3843D98AD9FC1755F17CB75F49C0622BD3E19BC6A0405D581443CD6FD6EC59861E96AF175087D366BF9C5CA681E832EFB531A700CC69CAB820AAC08ACC2D0CC9004539DFFBEFECA53F8C49358BA2A5ACFD324499979B882F358049F88ACD50E3EF8446B281BB06AAB8BF578E48ED7BA9D6D3AECC106
310
09ECA87A0806CA324289D03236B0C817AD29D3B81C2A25B4A62F1796099F3320AAADF64577B7F8BC6581F7A80F29CA57B4879772BEDAD11EEAA9600D1C7AD1FEBF504B0304140006080000324A3740000000000000000000000000350000006662782F37463330323339312D464530412D344146442D394142392D37423845
310
30323332373834462F76657274696365732E62696E504B0304140006080800324A3740F270F1330600000004000000360000006662782F37463330323339312D464530412D344146442D394142392D3742384530323332373834462F747269616E676C65732E62696E636660600000504B0304140006080000324A37400000
310
00000000000000000000370000006662782F37463330323339312D464530412D344146442D394142392D3742384530323332373834462F617474726962757465732E62696E504B0304140006080800324A3740D5987DFC8F00000041010000360000006662782F37463330323339312D464530412D344146442D394142392D
310
3742384530323332373834462F6469726563746F72792E786D6C858F410EC2201045AF4266AF15DDB800BA74E7C21B903225242D6328188F2FA5C4183471359997F9FF81E89FF3C41E1816475E02DF1F80A11FC8386F25A438EECEC07A250251FC3803E6F58C12560C4AD840E95E91C151A72936F496F35732D860FE635F62
310
C8F2DA16B505C545B74125BAA2FA9E05D7CC053D063734D5C7665FD55B6B8D15D5E9BFEAFD8490FFA45E504B0304140006080800324A3740F4AF252200010000A00100003B0000006662782F37463330323339312D464530412D344146442D394142392D3742384530323332373834462F7265736F75726365732F636F7265
310
2E786D6C75504B6EC23010BD4A347B27B65348881CA350E8097A01CB198205B1913F558F5F0752A92CBA9919BD8FE6E989FDF77C2BBED007E36C0FACA450A0D56E3476EA21C53369A1D84BE19D8B7F64505835630F0B0C524CDEA5FB0A696723DA9851EB465C4115024628F42D1F3D047DC159952AC5AC08D7F2AEF4554D58
310
B232D3592745883E07289E4F9609D26370C96B0CA27AB252A464C65563C6FCD39C0D7A905BDE9E76EC3090CDC7B0236FF4C8C970A42D3934A7F74DDB1C583D0CA25ACC524433FF66D41E55C41124A78C13CA08AF3FE9AE634D576F09DD76948A6A91BF98D27DFCCFD4BC9A92B1B1E66BDCA72D806439C88390A25AFACAEB51
310
66DE4BB7F207504B010214000A0000080000324A37403DEE336E79000000790000001B00000000000000000000000000000000006175746F6465736B2D64657369676E2D7061636B6167652E786D6C504B01021400140006080800324A3740D486FD9CA0000000F40000001300000000000000000000000000B20000005B43
310
6F6E74656E745F54797065735D2E786D6C504B01021400140006080800324A37409C457813ED0000007C010000080000000000000000000000000083010000636F72652E786D6C504B01021400140006080800324A374055019EA25F0000007C000000070000000000000000000000000096020000636E782E786D6C504B01
310
021400140006080800324A3740A754B45B69010000020300000C000000000000000000000000001A0300006662782F636F72652E786D6C504B01021400140006080800324A374044E0A4267D0000009D0000000B00000000000000000000000000AD0400006662782F636E782E786D6C504B01021400140006080800324A37
310
40BB522C642E010000140200003100000000000000000000000000530500006662782F37463330323339312D464530412D344146442D394142392D3742384530323332373834462F636F72652E786D6C504B01021400140006080800324A3740E84ED61156010000330300003000000000000000000000000000D006000066
310
62782F37463330323339312D464530412D344146442D394142392D3742384530323332373834462F636E782E786D6C504B01021400140006080800324A37409F0AB7595B070000941B00003400000000000000000000000000740800006662782F37463330323339312D464530412D344146442D394142392D374238453032
310
3332373834462F6F626A656374732E786D6C504B01021400140006080000324A37400000000000000000000000003500000000000000000000000000211000006662782F37463330323339312D464530412D344146442D394142392D3742384530323332373834462F76657274696365732E62696E504B0102140014000608
310
0800324A3740F270F13306000000040000003600000000000000000000000000741000006662782F37463330323339312D464530412D344146442D394142392D3742384530323332373834462F747269616E676C65732E62696E504B01021400140006080000324A3740000000000000000000000000370000000000000000
310
0000000000CE1000006662782F37463330323339312D464530412D344146442D394142392D3742384530323332373834462F617474726962757465732E62696E504B01021400140006080800324A3740D5987DFC8F000000410100003600000000000000000000000000231100006662782F37463330323339312D46453041
310
2D344146442D394142392D3742384530323332373834462F6469726563746F72792E786D6C504B01021400140006080800324A3740F4AF252200010000A00100003B00000000000000000000000000061200006662782F37463330323339312D464530412D344146442D394142392D3742384530323332373834462F726573
310
6F75726365732F636F72652E786D6C504B0506000000000E000E00800400005F1300000000
  0
XRECORD
  5
17
102
{ACAD_REACTORS
330
12
102
}
330
12
100
AcDbXrecord
280
     1
270
     1
271
     1
  0
XRECORD
  5
16
102
{ACAD_REACTORS
330
12
102
}
330
12
100
AcDbXrecord
280
     1
270
     1
271
     1
  0
XRECORD
  5
18
102
{ACAD_REACTORS
330
12
102
}
330
12
100
AcDbXrecord
280
     1
270
     1
271
     1
  0
XRECORD
  5
15
102
{ACAD_REACTORS
330
12
102
}
330
12
100
AcDbXrecord
280
     1
270
     1
271
     1
  0
XRECORD
  5
EF5
102
{ACAD_REACTORS
330
22
102
}
330
22
100
AcDbXrecord
280
     1
102
MATERIAL
148
0.0
149
0.0
149
0.0
 93
        0
 94
      127
282
     0
 72
     0
 77
     0
171
     0
175
     0
179
     0
273
     0
  0
XRECORD
  5
24
102
{ACAD_REACTORS
330
22
102
}
330
22
100
AcDbXrecord
280
     1
270
     1
271
     1
  0
XRECORD
  5
23
102
{ACAD_REACTORS
330
22
102
}
330
22
100
AcDbXrecord
280
     1
270
     1
271
     1
  0
XRECORD
  5
BA
102
{ACAD_REACTORS
330
22
102
}
330
22
100
AcDbXrecord
280
     1
 70
     1
 90
1959938040
 71
     1
  1
D709A6D2-59F7-448A-B2FF-DEFDE30A11F0
311
504B03040A0000080000324A37403DEE336E79000000790000001B0000006175746F6465736B2D64657369676E2D7061636B6167652E786D6C3C3F786D6C2076657273696F6E3D22312E302220656E636F64696E673D227574662D3822203F3E3C666F726D6174733E3C666F726D61743E687474703A2F2F736368656D612E
311
6175746F6465736B2E636F6D2F64657369676E2D7061636B6167652F323030393C2F666F726D61743E3C2F666F726D6174733E504B0304140006080800324A3740D486FD9CA0000000F4000000130000005B436F6E74656E745F54797065735D2E786D6C7D8EC10E82300C865F65E91D8A1E8C310C0EEA1BF002731658846E
311
D98AC1B77784ABF1D8FE5FBFBF75BBCE937A534CCEB38643598122B6FEE978D0B0485F9C41B54DDD7D022595594E1A469170414C76A4D9A4D207E29CF43ECE46F218070CC6BECC4078ACAA135ACF422C856C0E68EA1BF5669944DDD7BCDE7B1F8E415D77AECB980613C2E4AC91FC167A2B244592486606FC29C8FD7F045B9A
311
EF7053A7E60B504B0304140006080800324A37407651B0D8EB0000007C01000008000000636F72652E786D6C8D904D6EC3201085AF82668F0DFE6B6C61A2B8A94FD00B20200E4A0C9681AAC72F4E1CA9DD7535A337EF9B193D76FC9EEFE84BAFDE38DB03CD08206DA553C64E3DC470C1074047CE56E7C22F1B202B66DDC326
311
0367D3EAE2B24BD2D9A06D48AA754AEFA2F05E0740F29E9A1EBCBCEA59642286E4F0B76C11F226269DD15797E0188D42CF2346A57DE662F40ABC6A9B663C1D4E78ACDA0A57E37B8D8786D4B83917435B9D3FC830D62CDF60CE82995FF7E5AA45D00A7841688109C545F949DA8EBE75658349D311C2F2CDFE078A8BFA27148D
311
0D65B1BFFBC43C709A1E790C38CBB72C52790495EA961BFF01504B0304140006080800324A374055019EA25F0000007C00000007000000636E782E786D6C4DCB3B0E80201045D1AD90E915ED2CF8AC45050C11660C8261F98AB1B07AC9C97D42D718D865D3E909258CFD00CCE24AC6E326A164D74DC0B4128928FF32603847
311
2BA13128B1252AC747C6BAB984FC68F0B87FE8960A5C09FE86CFB69FBA01504B0304140006080800324A37406330FE5867010000020300000C0000006662782F636F72652E786D6C8D52ED8E8230107C95A6FF4B0B22A7A6D4E8793CC1BD4085CA11A125A5253EFE2D1F86F3628C2129CDCCCEEEEC00DFDF9A1AF5CA7695D1
311
290E038691D2B9292A5DA6D8BB0BD960B417DC1AE3FE9461A465A3523CC058F0D21ADFCE506EB453DA01AA4DA16650769D7218E5355C52DCE53FAA9181F40E2ABA6BD0CAFC2A4B158401D0502778E72C1840D390E1C4E272BE713AE1827B5F15335B1530ADBA54CA62116F93243B6C0E248BB73189B3CF3539266C4D925374
311
DCC6A72F76CCD69C0E62C15DD5DCDDE55649A70A2C2216468485245A7DB3ED2EFCD8AD12C2921D639C0EE50F22DF166F8A7CA5DD2A9AED4EB20E8B108C8CC4BF6D2122873AD9831F2A381D4284D798F063D0100884ECE4B9BEEF7105A857B9333606A6307EA17A597B0553191A1F4E27163A8F0D60B3A77DA2177D5EF7800F
311
287509D6A483EBD9BB613A9FA6CE51B4CA92DEDD9036B691F5626EB2B89CCBA0A7F2DCD4C6BEA3A6F3AA740E930E7FAFF805504B0304140006080800324A37403196DEF97D0000009D0000000B0000006662782F636E782E786D6C4DCCD10A83201886E15B91FFDCA5A9E4400D36E67DC4B290990EA7D1E5AF46073BFAE0E1
311
E355FDB604B4BAFCF1296AA01702C8C5671A7D9C35D4326109A8372AA754FE6E80E2B0380D078351734EF57DD2E8A6A186B26BF0F17522B54C08C2056E2D9798DF19C537D6497C7D5846A8ECA4A02D344635BFD2BE47D87C01504B0304140006080800324A3740B97C40292901000013020000310000006662782F31463335
311
353034352D324634382D344333312D423337382D3945463330313837383531322F636F72652E786D6C8D514B6EC32014BC0A62D52EB0F9F8970813A95573825E806092A2C460F1A972FC42ED48ED2E1B1E9A37336FE0F1C37DBE816FED83717684A4C21068ABDC64EC6584299ED100C14170EF5CFC4383C0CA598FB0C050F0
311
8B7769D920E56CD43666D4BA496FA00C414708D42D5F4618D4979E652553CC8C70AD16A9AEF2A22B52E576E6091EA2CF01C03AA49C5090236B5BDCB4881E9B0135EF8CA037D60F68F77164980CFDD012CAEB5528784A66DAE466CA71CCD968FFAC49110B1ECDFC88AFBC96514F50504C28C20451F689777BD2EF598770B7C7
311
98D785FE4F9496E94951323632BAC55D652167E5F5DA107C72E9747B84D1F7C5F908CABC97A0D52B14B8C214F72DDDF17A65E6F767CBAED92C43743EFFEFCBF594C9A45D7DBB46F0BAAC2897DFFDE55AD6297E00504B0304140006080800324A374080B5D5F14D01000033030000300000006662782F31463335353034352D
311
324634382D344333312D423337382D3945463330313837383531322F636E782E786D6CD593BD6E032110845F05D1DFAFAD4B6271584A912748919683B54DCCC1899F287EFB2C3676DCB84899069D668799D5278E6DBF6743BEC007EDEC48BBBAA504AC744ADBFD4853DC55CF946C39F3CEC53B1B2556CC30D22C53CEF6DEA5
311
A5480A76229988AAD1F658440FC1252F21A09C6F12E3A4301800B64A28C23C8152A0C8CD885F3BF0B80A8AD389C40390B7D70FE2A64F9031B026A770D6E40ECEF2599AEE4C944823421869900798452D52740AC2B156228ABAABAF5D0F76FA4D22F9C2B532794D72F948F34979D9A8468EACC12167217AA4574CF1B400E562
311
598C962222E4E66CBC78384BDAC6615DBC1AC17B7477C36ABDC6B0F38CB3A867280EE941445094F76DD7576D57F5ABF7F665D33D6D5643D50E9BB6654DB673363967CA258C01EF16229D8D6023E51D6BF2F811BEE2234A7B64EDFCE90F20114069BDD0B965FC673ECDF97D232E8F7F01FF01504B0304140006080800324A37
311
40830D54F59A0500007A100000340000006662782F31463335353034352D324634382D344333312D423337382D3945463330313837383531322F6F626A656374732E786D6CAD57DB6EDB3810FD1541FBEC8B6CA74D168A0AC78E0BA3481BD468B10F010C4AA2146E285120A9D4D9AFDF4389BAB94EEA5DF4C5B2A8E170E6CC
311
990BFD0F878C3BCF542A26F26BD71B4F5D87E69188599E5EBBA54E4697AEF321F0A510BA27E63A39C9E8B56B96DDC04FA5280BBB14D384945C1FAD6E6EFE72544473EA3A11274A5DBB2A7AA4191993528B98AAA7714C3419A7C961EC8D6BC1A1DA5492E2F148694124CD352CC57A0E2D4E6D94377C9DBA93C09F98EF816F7E
311
ADD4FC75A949E5CFF07C962B4DF2E8A7C38ED4CCBDC5FA76767135BA582CE6A3C5BB9937BAD9DCAC47DEFBF974F56EB5BA5ADE5EE160A52534594B244DDCE023B0912CF227F5A7C02F59AEE7332B62033491F4999948B9C1CCF1FC492DD37A679D3C657E24F29C46155640A3F2CFAA8E6941F318316754C1B21E42D3E1AB67
311
70EC7D9E9B777B647FF93C04FA3B7A8A1ADB9B67DF5211FE0D17D4390C928A1A06D6585A476BAE4E3B844321B8FDC69493114D2523DCE12C9444BEB801448D48E00FD418264B930DC603374014EACF43BA208D7ECDF353562625E786C66E5065C11EB942B5AA2C63FF50D959DF4706362156860D97D621FD525037B8AA2972
311
79C4A61A4827E12445C8E1A6D9399F1D39BA3279BA5DBBC1A74D78D899DC3D7D78214541A536F401B59AC0354F8392B5C93B2B7266837B644A07CA5720FF19A9DE9982B84976581C16F6142D49AE122133C4C6993AA3297EA68E57FD9AFFBD7FFEA4DD3C8CDE6B7822D806AADF80E7D0877E2C7B7006FE33082FE4DCBAB68B
311
0847D9B8633900322471B8C012EA70121EDC608B2A87AA8C5D84071E5C86B9CFF8EB4FAC1A148AEAA4DE3307964765F18C020DD82A46C28C9AFCD6C02E4E3F95B3EA602BF61ABC17BF85AECBF5EED3AE940989E89DCDE9354D58CE345A5CC79BBE4103CC071E3DD1971F42C670F467BC777DBC337B9402DA0673037CDAD474
311
F3D29D3C3820C2BE549872E3FFE20438611A6B4FFF1D5311E59CE45494CDB96FF60FB48D1A6293EC86C96D83E91A0B48537F39CA4134E948B2C280D876ABB6688E5FF1EEDBF6331809792E42C23BA1B02BBD91E042EEC3977D5D954E22FD7D486D0BC1C46801DBAB1C69D2DF62BE8F5992940A35F004ACDFB7AB7EE84C5540
311
8568B4D6C9B280FBC82D222D671BBD68D692A0918A7CCFD0369176270FE8EB07A2960095C2D72C5694277BC67999ED13C6D18CF619295E81E3FFDB1F9659B127992873FD8AEE81E9680E43DB07E4553F888E1EDD60573D473728BD318DBB300F844D2B3981D520B4EBF7D3ABE5BBF56C7471B5793F5A2C2E97A39BD966335A
311
DF6ED6B7F3E9D2F3369D45D50C15F84DA7E92734A284CEE69792D9F07DDB227D6C0D70833BA2D5C3C73A3B9BE7B7ED18A3B03FC11EB4CB76E3327EC6D847E35F2BE8244F2ADA6605A719CD3531297467FEF0AF0463C6C0987A7D9B91949EA1E5CBC7DD9133583963DFBD4977FAE368AF5D5D99843CA9443F96599813C68F36
311
A63592E3224F2D7E4D4CDA67DD679A57F3660383C15409CE6294C1D849A9C8A846313CA307C98C2A50AF3FD2C7F6EA71C6EEE77A40D424E4B4B1E4916046E60A6901DE96911EAE3B7F60A63363D5B58B6E3B7EC28FAD14AE03CE5CBB98D1358BA81A87E8CF6612AA94834BFD411E9C2579CA316AD79BDAF77697C166D0915B
311
9173C627EB575DC1AD03282305C606CC43884E654CE057B6D9EFD17F72BC31C7211A7FC352B7BE740BAD33D53148D1DA297B59C00CF3648F3E2051DF76CB1B57320344CEBA64BD49825AEB481399561705639F3569B9BE9F604071B65F9C8297296279BEA691A4207369121C2C022BACCE82685075F5E7C3BD14B8C866CE86
311
81020F2B916522B72F4B7B1176768FB8D6C60F280BD4DC47D4C36CEACD1EAA7B80BD9AEC43A2E898C4EA090B88A9642DC483C08391F565111DA8FED0CA4D4C108EB8B95D3BB6A52DA0D412A55F550D2C983872EA207BCC5DD2E44A5FA078F32A30A9446182C4101FFC0B504B0304140006080000324A374000000000000000
311
0000000000350000006662782F31463335353034352D324634382D344333312D423337382D3945463330313837383531322F76657274696365732E62696E504B0304140006080800324A3740F270F1330600000004000000360000006662782F31463335353034352D324634382D344333312D423337382D39454633303138
311
37383531322F747269616E676C65732E62696E636660600000504B0304140006080000324A3740000000000000000000000000370000006662782F31463335353034352D324634382D344333312D423337382D3945463330313837383531322F617474726962757465732E62696E504B0304140006080800324A3740D5987D
311
FC8F00000041010000360000006662782F31463335353034352D324634382D344333312D423337382D3945463330313837383531322F6469726563746F72792E786D6C858F410EC2201045AF4266AF15DDB800BA74E7C21B903225242D6328188F2FA5C4183471359997F9FF81E89FF3C41E1816475E02DF1F80A11FC8386F
311
25A438EECEC07A250251FC3803E6F58C12560C4AD840E95E91C151A72936F496F35732D860FE635F62C8F2DA16B505C545B74125BAA2FA9E05D7CC053D063734D5C7665FD55B6B8D15D5E9BFEAFD8490FFA45E504B0304140006080800324A3740CB98D319FC000000A00100003B0000006662782F31463335353034352D32
311
4634382D344333312D423337382D3945463330313837383531322F7265736F75726365732F636F72652E786D6C8D50596E833010BD0A9A7F83591B9071549A72825EC032136225D8C84BD5E3D7042AB57FFD9919BD45F3F4D8F96B79249F689D32BA873CA590A09666527AEE21F82B394172E6CC1AE37FC920D162C11E3618
311
389BAD09EB0149A33D6A1F516D263C40E11C7A48E4231E3D3879C345A422F8A870F77415F22E664CF334D251C799F3360648F627DB046ED19960253A96ED2C6721A8E9D0A829FE5457851678D536CDF87A6AC958B515A9C6B79A0C0DAD49732986B6BABCD361AC59B69939F36AF9C9282D0A8F13F082E605A13929CA0FDA76
311
F94B573684361DA52CDBE47F4C619DFE690A4AFBB238E2EE36073C8F419E0467D9D6575CCF32E3DEBAE5DF504B010214000A0000080000324A37403DEE336E79000000790000001B00000000000000000000000000000000006175746F6465736B2D64657369676E2D7061636B6167652E786D6C504B010214001400060808
311
00324A3740D486FD9CA0000000F40000001300000000000000000000000000B20000005B436F6E74656E745F54797065735D2E786D6C504B01021400140006080800324A37407651B0D8EB0000007C010000080000000000000000000000000083010000636F72652E786D6C504B01021400140006080800324A374055019E
311
A25F0000007C000000070000000000000000000000000094020000636E782E786D6C504B01021400140006080800324A37406330FE5867010000020300000C00000000000000000000000000180300006662782F636F72652E786D6C504B01021400140006080800324A37403196DEF97D0000009D0000000B000000000000
311
00000000000000A90400006662782F636E782E786D6C504B01021400140006080800324A3740B97C4029290100001302000031000000000000000000000000004F0500006662782F31463335353034352D324634382D344333312D423337382D3945463330313837383531322F636F72652E786D6C504B0102140014000608
311
0800324A374080B5D5F14D010000330300003000000000000000000000000000C70600006662782F31463335353034352D324634382D344333312D423337382D3945463330313837383531322F636E782E786D6C504B01021400140006080800324A3740830D54F59A0500007A100000340000000000000000000000000062
311
0800006662782F31463335353034352D324634382D344333312D423337382D3945463330313837383531322F6F626A656374732E786D6C504B01021400140006080000324A374000000000000000000000000035000000000000000000000000004E0E00006662782F31463335353034352D324634382D344333312D423337
311
382D3945463330313837383531322F76657274696365732E62696E504B01021400140006080800324A3740F270F13306000000040000003600000000000000000000000000A10E00006662782F31463335353034352D324634382D344333312D423337382D3945463330313837383531322F747269616E676C65732E62696E
311
504B01021400140006080000324A37400000000000000000000000003700000000000000000000000000FB0E00006662782F31463335353034352D324634382D344333312D423337382D3945463330313837383531322F617474726962757465732E62696E504B01021400140006080800324A3740D5987DFC8F0000004101
311
00003600000000000000000000000000500F00006662782F31463335353034352D324634382D344333312D423337382D3945463330313837383531322F6469726563746F72792E786D6C504B01021400140006080800324A3740CB98D319FC000000A00100003B00000000000000000000000000331000006662782F314633
311
35353034352D324634382D344333312D423337382D3945463330313837383531322F7265736F75726365732F636F72652E786D6C504B0506000000000E000E0080040000881100000000
310
504B03040A0000080000324A37403DEE336E79000000790000001B0000006175746F6465736B2D64657369676E2D7061636B6167652E786D6C3C3F786D6C2076657273696F6E3D22312E302220656E636F64696E673D227574662D3822203F3E3C666F726D6174733E3C666F726D61743E687474703A2F2F736368656D612E
310
6175746F6465736B2E636F6D2F64657369676E2D7061636B6167652F323030393C2F666F726D61743E3C2F666F726D6174733E504B0304140006080800324A3740D486FD9CA0000000F4000000130000005B436F6E74656E745F54797065735D2E786D6C7D8EC10E82300C865F65E91D8A1E8C310C0EEA1BF002731658846E
310
D98AC1B77784ABF1D8FE5FBFBF75BBCE937A534CCEB38643598122B6FEE978D0B0485F9C41B54DDD7D022595594E1A469170414C76A4D9A4D207E29CF43ECE46F218070CC6BECC4078ACAA135ACF422C856C0E68EA1BF5669944DDD7BCDE7B1F8E415D77AECB980613C2E4AC91FC167A2B244592486606FC29C8FD7F045B9A
310
EF7053A7E60B504B0304140006080800324A3740C50924A7E90000007C01000008000000636F72652E786D6C8D90416EC3201045AF82668F0D7663070B13D56A73825E0001715162B00C543D7E2171A476D7D58CFEFC3733FAFCF4BDDCD097D982F56E045A1140C629AFAD9B4748F1828F804E826FDEC75F36404E2E668422
310
83E0F3E6D3BA4BCABB685CCCAAF3DAECA20CC14440EA969B1182FA348BAC648AD911AED52AD555CEA6A2CF2EC329598D1E47ACCEFBECC59A0D0461D3FB99F40CF7A46BF10B65137EED29C3EDE178A0EC787E6B26CAEB020B1EEDF2BCAF3623A3D1201A421B4C286EDA0FC206DA0F6D87493710C2EB62FF03A555FF134AD6C5
310
B6D9DF7D60014479E43E10BC2E59E4720F2AD7929BF801504B0304140006080800324A374055019EA25F0000007C00000007000000636E782E786D6C4DCB3B0E80201045D1AD90E915ED2CF8AC45050C11660C8261F98AB1B07AC9C97D42D718D865D3E909258CFD00CCE24AC6E326A164D74DC0B4128928FF326038472BA1
310
3128B1252AC747C6BAB984FC68F0B87FE8960A5C09FE86CFB69FBA01504B0304140006080800324A3740D912905C65010000020300000C0000006662782F636F72652E786D6C8D52ED8E8230107C95A6FF4B5B5011536ACEDCF904F702152A4784969496F8F8B77C18CF8B3186A434333BBBB303627F6D1B3468D7D7D6E498
310
470C236D0A5BD6A6CA71F067B2C5682F85B3D6FF29C3C8A856E77884B11495B3A15BA0C21AAF8D07D4D8522FA0EA7BED312A1AB8E4B82F7E74AB22153C54F497A853C545553AE211D0502745EF1D1840F390F1C4F27CBA0A3AE3528450970B5B9730AD3ED7DA61C9B2C3D791A51949D926212B9E1DC847CA3392ACB76B9E6D
310
8F9FF1810B3A8AA5F0757B735738ADBC2EB18C198F09E3244EBE59B6E3E92ED910B6D93126E858FE200A5DF9A628D4C627F1627796F5588E4626E2DFB6109147BD1AC00F95828E21C26B4AF83168080442F6EAD4DCF6B80034E8C25BB702A6B4E14E0DAA091AA632343D82CE2C749E1AC0664FFBC42FFABCEE011F50990AAC
310
290FD753F0E374314F5DA2E8B42383BF22635DAB9ABBB9D9E2FDBC0F7A2A2F6C63DD3B6ABAAC4A9730E9F8F7CA5F504B0304140006080800324A3740ED0637FE7E0000009D0000000B0000006662782F636E782E786D6C4DCCD10E82201886E15B61FF3909F647B6010E2BEFC3253A264223695D7EDA3CE8E8DB9E7D7B65FD
310
993D79DBF4723128E00706C48647EC5D1815E465A015905ACB14E3F2770312BAD92AD818B41C53CCCF9D7A3B74D92FAB7A17A61DB9408E8C359457E24CB1C4961AC32FF4268E4D8B78BF9E4A038596C5AFB4EE16D65F504B0304140006080800324A374053EDC26C2B01000014020000310000006662782F31363431343030
310
422D313836372D343234462D414131392D4436334246343445433532412F636F72652E786D6C8D51CB6EC32010FC158B537AC0064C711261A2A46DBEA03FE000495162B07854F9FC42ED48ED2D1716CDCECC8E76F9EE3EDEAA6FED8371B607B846A0D2563A65ECA507299EE11A543BC1BD73F10F0D547618750F0A0C04BF78
310
97A60592CE466D6346AD537A018710740495BCE54F0F82FCD2E3500F296646B8D6D320AFC345D7B8CEEDCC133C449F0354F390F2028119C514A103C46BD6414AE811EEF77803DF597B3852FAF1F64AF6BC998582A764D422372AC73167A3FDB326452C7834E323BEF47A885A01411026106148DA4FB4D9E26EDB3288D81621
310
DE14FA3F519AD493A2646C6CC9127796859C9537734370E5D2E9F608A3EF93F3B12AF35641CB1720508D48BB21DDBAE3CD4CCD0BC89E8C2E9E213A9F17BCBA9E32BBC5B331A38237E546B9FC1E30D7724FF103504B0304140006080800324A3740E6121AE65401000033030000300000006662782F31363431343030422D31
310
3836372D343234462D414131392D4436334246343445433532412F636E782E786D6CBD93CD6EC32010845F0571F77FE4A61126520F7D821E7AC5B04968305880ABE6EDBB2424CD25874A552FC89A1D66569F30DB7E4D867C820FDAD98136654D0958E994B6FB812E7157AC29D972E69D8B77364AAC9860A049A69CEDBD5BE6
310
2C29D889C544548DB6C72C7A086EF11202CAE926314E0A8301608B05459846500A14B919F16B071E5741713C917800F2FAF24EDCF801320656A514CEAAD4C1593A73D39D8912694408030DF2009328C5129D82702C9588A26CCA6BD7839D7E9248BA70AD5CBC26A97CA0E9A43C6F54224756E190B3103DD2CBA6789A817231
310
CF464B11117275365E3C9C2DDAC67E95BD1AC17B74776DBF5E63D879C659D4136487F4202228CADBBA698BBA29DAEEAD7EDE344F9BAE2FEA7E53D7AC4A76CE46E74CBE8431E0DD4CA4B3116CA4BC61551A3FC2977D44698FAC9D3FFD022402C8AD173AB78CBFE4D3F4DD6AF58F7CAAF3FB465C1EFF02FE0D504B0304140006
310
080800324A37408AED219F58070000931B0000340000006662782F31363431343030422D313836372D343234462D414131392D4436334246343445433532412F6F626A656374732E786D6CED595B6FA33814FE2B887D0E0949DA99AE28A3B669AA68D599D16467B40F9190030EF5D618649B5EF6D7EFF1050234B464A7FB36
310
0F0960ECE373BE73F521F8F49451E70173417276EEFADEC475308BF384B0F4DC2DE56EF4D1753E8501CF73D998E63A0C65F8DC55C36E18A43C2F0B3B94E01D2AA9EC8C2E2FFF72448C19769D982221CE5D11DFE10C79A8947982C5BD972089BC74F7E4F99E99D8269B7254DC7588168863268153186740C5314CF9EDC7893B
310
0E83B17A1F06EADFCE9A0D9A35EF9F35D652B7B9244C48C4E2172C75C8CC06B134F3E78BEBE9C9D9E8643E9F8DE6A7537F74B9BC5C8CFC0FB3C9D5E9D5D5D9C5F519B0B7CD736A654A70815902FA7B76433F18AB37B5E81681435CC7396338D64002545AAC2E4182056CD5806FD27EF495448DD75AC2C6F35CBDB72C348667
310
6D2A7DB38601D1A20B82D8ED2A89AB6B53BE7CFB37082E861825175802B74272D0AE85878357B8E124189BD130D8EE7541849321893941D4A164CB1107A5C05435250CCC024B46390707528E92406BCEBC6EDB1678E6DBAE7388CB5D49A9F20C37D48E1581FB61293467E41FCCF7DC3791019E40DA9230F9D172299F0BEC86
310
67C1580F8681BACCA6F6A501D2D951940A8D8879DB11F44AB9FE6AE1867F2CB74F6B150E0E6F5EF0BCC05C2AA3537AD47C8121DBAB42C96EEB0FD29C5A00C21850EDCA3D28DF00F9CF103DF6AC80DE38799A3FCDED5CC91113BB9C67A01B67E28C26F037717CFDAFEE1B77C1B85EDCD65E1F9EE0A60AAA8F3F8F675B068D95
310
E5BF0167183C80C1E77C665FAD6344C19E6F09038094913834872108EDBBED931BAE207042A0875588863E880CEC3EC06D30B664F65AA9DCCB7A1D0344ED1EB3214A02D8B445021B3D7ABA81ECC149BC575353C43E784FDEC55C2F16EB3FD625DFA118DF5A9F5EE01D614442D63CCC500BF39644F7F8F931E70908FA12EF75
310
13EFCC6E25006D85B9023EAD40500FFB9D5B1BC4B02ECD55B809DED8018450B9BA41FF968818538A18CECB6ADF3ABA2943AD3DDED60C6E383510CFA61D13E6F881A8AA029C663FA3C528E4FD98934281E8863746B23A687A3DD27D5F7D068BACE7F7CC5A3108BD0CD13F75D03A8043CBB22BA42D10B5C0DB7D388F739AF368
310
FB1C9948E7422D016CB4BDE5478B28C47AA32445053C48FB5D155252236D9490DDAE1410570FB0F86375D534878937F34F9CE67FC719E7106DC17711B77ED7D92322194A71B44349DF76CDDD6ADA4293EC21CDF18E825CE481C8E708C96892E0F418688E227EF6AED4539A0B41181690AF0E82DF4463E2412031DAAC58565A
310
ED004D44946189E8310828323DE0EAB4A36BDC184A87B779ACADF7358D3589FE4F16C111D492398B0894A29043DE64DCF74E2086B4D1352877F0056BAB686B3168092544FC1C3D6292DEC9635037E47B708FE14852CA282F500C663D80EC0B5F514AEDF0BE45F1BDCA1F515CD2F7321081E92E22949659043FC2E0E431C4B5
310
EBC0F42A0A0DE226F6499C41518664C9876C727A3279B18FA919BA21B0B1D18E5008DB51868A1ED45B0151D7234E0DBEA5DEA3D46D991511CAF2920D32146FD6F5264BBEAB56457620BFAA5484B2B1226C09860161B2CEAA55CC0653D78115DC4807AAE748A0ACA0E614F646E2F16B6FD2947B37E0D64FDF77830C0ABF1EED
310
3523EABC82C1F2D82A0CC42392F19D1BAEF5757409F57782937DAAAF6ACD66050888A9485E726255F47D05E58DADD1DCF01649B1B93159B7BA7E5F79D0FD08C6B0066A977AE14A019D612691AA4C6ED50DFD862004B76898F195CAA9C750B948125D3522BA247DEA6C9511AD4D33E2157798E519FCD886B0989609DEA044DC
310
47B792466BA258B7527A19A9307E55C02F37EB0E3C303240A4AFAAC0C38F9DB576F44A954B0789C8BB32DB32442008B6444B8D6EBC82A556239596EBAB3A5340DD050666553CFF75B268B6237E9D2C526B183F77B2A0F916D17DB46964F35899F551A7803A3D292AEF710AD05D879A6A9D444C2EB7E25B5F8A202656417E70
310
3156C50C43B08FE3FF9CB4FB92A0D9AEC3FF7149DB7F51701C95545A935593EA40E1BA6AA6B0C587C9D9C5E9623A3A395B7E18CDE71F2F4697D3E572B4B85E2EAE67930BDF5FEE39D27E1A06752CD3A90B9E4D4CAB86D593C5009AB222A72481C37CE2A41842BE8423FD80EE39CFB080DCD9EC7527B6273F60F58369734AB4
310
A5B8E2E40E417F980AC8EA805119CBF6B8F31B7426259CB3CF5DE81979F7F067ADD27520F19CBBD0299024C6C2DB429749F5F33471C8B83AF55B62800F62A9CA886651FD5CAF52D8B4A27F3D654816B072B55A1850B715D0FC6A3528346F96A7F828C12B761C24E1765B4A28D68C2CFB815A18BDCD5EFD46364AD8BDDDFA09
310
5CF775B17C4FCF692132E88BC1AB4660A88E24E2A96E772BC62C4B178BAF6368B339AB2F4E41CB1474399CD2886330E652D553604560159666812498EAD5EF9BAF3C872F3C99A38BA2CD559E6539B30F17701C4BE00B91B3BE83EF3DC906AA06ACBAEA62339DF8D38DEE66DB067BB445027BAA1C8281AA8A5022748C0D2CF2
310
4567CAF62DC74A099DE9AB8563C32774018C05BD68EE9AAF5B0E788FFA8EA27C457B7825E7AB0DEDB19E0AD6C0A1151DFE0B504B0304140006080000324A3740000000000000000000000000350000006662782F31363431343030422D313836372D343234462D414131392D4436334246343445433532412F766572746963
310
65732E62696E504B0304140006080800324A3740F270F1330600000004000000360000006662782F31363431343030422D313836372D343234462D414131392D4436334246343445433532412F747269616E676C65732E62696E636660600000504B0304140006080000324A37400000000000000000000000003700000066
310
62782F31363431343030422D313836372D343234462D414131392D4436334246343445433532412F617474726962757465732E62696E504B0304140006080800324A3740D5987DFC8F00000041010000360000006662782F31363431343030422D313836372D343234462D414131392D4436334246343445433532412F6469
310
726563746F72792E786D6C858F410EC2201045AF4266AF15DDB800BA74E7C21B903225242D6328188F2FA5C4183471359997F9FF81E89FF3C41E1816475E02DF1F80A11FC8386F25A438EECEC07A250251FC3803E6F58C12560C4AD840E95E91C151A72936F496F35732D860FE635F62C8F2DA16B505C545B74125BAA2FA9E
310
05D7CC053D063734D5C7665FD55B6B8D15D5E9BFEAFD8490FFA45E504B0304140006080800324A3740D6A20A3FFB000000A00100003B0000006662782F31363431343030422D313836372D343234462D414131392D4436334246343445433532412F7265736F75726365732F636F72652E786D6C8D50596EC32010BD0A9A7F
310
6CB09B7811266AD4E604BD00C21307258688A5EAF10B892BB57FFD9919BD45F3F4C4E16BBD914FF4C1383B01AF1810B4DACDC62E13A478A63D908314DEB9F84B06C4AA1527283048B17897EE1BA49D8D686346AD9B710355081881E85B3E2608FA82ABAA548A5911AED55DE9AB5AB0E255A6B34E8A107D0E409E4FCA04E931
310
B8E43506513F59295232F3A63173FE69CE063D48361CDF4FACEB69C7F62D7DE1C391BE767CA0EDAEDFF1A13FBD35472EEA6296229AF527A3F6A822CE201BC61BCA386DDA0F368CBC1BDB3D65FB91315117F91F53BACFFF34256363DB6C719FB600B204791052D4A5AFBC1E65E65DBA95DF504B010214000A0000080000324A
310
37403DEE336E79000000790000001B00000000000000000000000000000000006175746F6465736B2D64657369676E2D7061636B6167652E786D6C504B01021400140006080800324A3740D486FD9CA0000000F40000001300000000000000000000000000B20000005B436F6E74656E745F54797065735D2E786D6C504B01
310
021400140006080800324A3740C50924A7E90000007C010000080000000000000000000000000083010000636F72652E786D6C504B01021400140006080800324A374055019EA25F0000007C000000070000000000000000000000000092020000636E782E786D6C504B01021400140006080800324A3740D912905C650100
310
00020300000C00000000000000000000000000160300006662782F636F72652E786D6C504B01021400140006080800324A3740ED0637FE7E0000009D0000000B00000000000000000000000000A50400006662782F636E782E786D6C504B01021400140006080800324A374053EDC26C2B0100001402000031000000000000
310
000000000000004C0500006662782F31363431343030422D313836372D343234462D414131392D4436334246343445433532412F636F72652E786D6C504B01021400140006080800324A3740E6121AE654010000330300003000000000000000000000000000C60600006662782F31363431343030422D313836372D343234
310
462D414131392D4436334246343445433532412F636E782E786D6C504B01021400140006080800324A37408AED219F58070000931B00003400000000000000000000000000680800006662782F31363431343030422D313836372D343234462D414131392D4436334246343445433532412F6F626A656374732E786D6C504B
310
01021400140006080000324A37400000000000000000000000003500000000000000000000000000121000006662782F31363431343030422D313836372D343234462D414131392D4436334246343445433532412F76657274696365732E62696E504B01021400140006080800324A3740F270F13306000000040000003600
310
000000000000000000000000651000006662782F31363431343030422D313836372D343234462D414131392D4436334246343445433532412F747269616E676C65732E62696E504B01021400140006080000324A37400000000000000000000000003700000000000000000000000000BF1000006662782F31363431343030
310
422D313836372D343234462D414131392D4436334246343445433532412F617474726962757465732E62696E504B01021400140006080800324A3740D5987DFC8F000000410100003600000000000000000000000000141100006662782F31363431343030422D313836372D343234462D414131392D443633424634344543
310
3532412F6469726563746F72792E786D6C504B01021400140006080800324A3740D6A20A3FFB000000A00100003B00000000000000000000000000F71100006662782F31363431343030422D313836372D343234462D414131392D4436334246343445433532412F7265736F75726365732F636F72652E786D6C504B050600
310
0000000E000E00800400004B1300000000
  0
XRECORD
  5
27
102
{ACAD_REACTORS
330
22
102
}
330
22
100
AcDbXrecord
280
     1
270
     1
271
     1
  0
XRECORD
  5
26
102
{ACAD_REACTORS
330
22
102
}
330
22
100
AcDbXrecord
280
     1
270
     1
271
     1
  0
XRECORD
  5
28
102
{ACAD_REACTORS
330
22
102
}
330
22
100
AcDbXrecord
280
     1
270
     1
271
     1
  0
XRECORD
  5
25
102
{ACAD_REACTORS
330
22
102
}
330
22
100
AcDbXrecord
280
     1
270
     1
271
     1
  0
XRECORD
  5
EEE
102
{ACAD_REACTORS
330
EED
102
}
330
EED
100
AcDbXrecord
280
     1
102
ACAD_ROUNDTRIP_2012_MLEADER_STYLE
298
     1
  0
CELLSTYLEMAP
  5
EEC
102
{ACAD_REACTORS
330
EEB
102
}
330
EEB
100
AcDbCellStyleMap
 90
        3
300
CELLSTYLE
  1
TABLEFORMAT_BEGIN
 90
        5
170
     1
 91
        0
 92
    32768
 62
   257
 93
        1
300
CONTENTFORMAT
  1
CONTENTFORMAT_BEGIN
 90
        0
 91
        0
 92
      512
 93
        0
300

 40
0.0
140
1.0
 94
        5
 62
     0
340
55
144
0.25
309
CONTENTFORMAT_END
171
     0
 94
        0
309
TABLEFORMAT_END
  1
CELLSTYLE_BEGIN
 90
        1
 91
        1
300
_TITLE
309
CELLSTYLE_END
300
CELLSTYLE
  1
TABLEFORMAT_BEGIN
 90
        5
170
     1
 91
        0
 92
        0
 62
   257
 93
        1
300
CONTENTFORMAT
  1
CONTENTFORMAT_BEGIN
 90
        0
 91
        0
 92
      512
 93
        0
300

 40
0.0
140
1.0
 94
        5
 62
     0
340
55
144
0.18
309
CONTENTFORMAT_END
171
     0
 94
        0
309
TABLEFORMAT_END
  1
CELLSTYLE_BEGIN
 90
        2
 91
        1
300
_HEADER
309
CELLSTYLE_END
300
CELLSTYLE
  1
TABLEFORMAT_BEGIN
 90
        5
170
     1
 91
        0
 92
        0
 62
   257
 93
        1
300
CONTENTFORMAT
  1
CONTENTFORMAT_BEGIN
 90
        0
 91
        0
 92
      512
 93
        0
300

 40
0.0
140
1.0
 94
        2
 62
     0
340
55
144
0.18
309
CONTENTFORMAT_END
171
     0
 94
        0
309
TABLEFORMAT_END
  1
CELLSTYLE_BEGIN
 90
        3
 91
        2
300
_DATA
309
CELLSTYLE_END
  0
XRECORD
  5
F26
102
{ACAD_REACTORS
330
EEB
102
}
330
EEB
100
AcDbXrecord
280
     1
102
ACAD_ROUNDTRIP_PRE2007_TABLESTYLE
 90
      512
 91
        0
  1

 92
      512
 93
        0
  2

 94
      512
 95
        0
  3

  0
XRECORD
  5
F01
102
{ACAD_REACTORS
330
F00
102
}
330
F00
100
AcDbXrecord
280
     1
102
RTVSPropertyOp0
 70
     1
102
RTVSPropertyOp1
 70
     1
102
RTVSPropertyOp2
 70
     1
102
RTVSPropertyOp3
 70
     1
102
RTVSPropertyOp4
 70
     1
102
RTVSPropertyOp5
 70
     1
102
RTVSPropertyOp6
 70
     1
102
RTVSPropertyOp7
 70
     1
102
RTVSPropertyOp8
 70
     1
102
RTVSPropertyOp9
 70
     1
102
RTVSPropertyOp10
 70
     1
102
RTVSPropertyOp11
 70
     1
102
RTVSPropertyOp12
 70
     1
102
RTVSPropertyOp13
 70
     1
102
RTVSPropertyOp14
 70
     1
102
RTVSPropertyOp15
 70
     1
102
RTVSPropertyOp16
 70
     1
102
RTVSPropertyOp17
 70
     1
102
RTVSPropertyOp18
 70
     1
102
RTVSPropertyOp19
 70
     1
102
RTVSPropertyOp20
 70
     1
102
RTVSPropertyOp21
 70
     1
102
RTVSPropertyOp22
 70
     1
102
RTVSPropertyOp23
 70
     1
102
RTVSPropertyOp24
 70
     1
102
RTVSPropertyOp25
 70
     1
102
RTVSPropertyOp26
 70
     1
102
RTVSPropertyOp27
 70
     1
102
RTVSPropertyOp28
 70
     1
102
RTVSPropertyOp29
 70
     1
102
RTVSPropertyOp30
 70
     1
102
RTVSPropertyOp31
 70
     1
102
RTVSPropertyOp32
 70
     1
  0
XRECORD
  5
EFF
102
{ACAD_REACTORS
330
EFE
102
}
330
EFE
100
AcDbXrecord
280
     1
102
RTVSPropertyOp0
 70
     1
102
RTVSPropertyOp1
 70
     1
102
RTVSPropertyOp2
 70
     1
102
RTVSPropertyOp3
 70
     1
102
RTVSPropertyOp4
 70
     1
102
RTVSPropertyOp5
 70
     1
102
RTVSPropertyOp6
 70
     1
102
RTVSPropertyOp7
 70
     1
102
RTVSPropertyOp8
 70
     1
102
RTVSPropertyOp9
 70
     1
102
RTVSPropertyOp10
 70
     1
102
RTVSPropertyOp11
 70
     1
102
RTVSPropertyOp12
 70
     1
102
RTVSPropertyOp13
 70
     1
102
RTVSPropertyOp14
 70
     1
102
RTVSPropertyOp15
 70
     1
102
RTVSPropertyOp16
 70
     1
102
RTVSPropertyOp17
 70
     1
102
RTVSPropertyOp18
 70
     1
102
RTVSPropertyOp19
 70
     1
102
RTVSPropertyOp20
 70
     1
102
RTVSPropertyOp21
 70
     1
102
RTVSPropertyOp22
 70
     1
102
RTVSPropertyOp23
 70
     1
102
RTVSPropertyOp24
 70
     1
102
RTVSPropertyOp25
 70
     1
102
RTVSPropertyOp26
 70
     1
102
RTVSPropertyOp27
 70
     1
102
RTVSPropertyOp28
 70
     1
102
RTVSPropertyOp29
 70
     1
102
RTVSPropertyOp30
 70
     1
102
RTVSPropertyOp31
 70
     1
102
RTVSPropertyOp32
 70
     1
  0
XRECORD
  5
F0D
102
{ACAD_REACTORS
330
F0C
102
}
330
F0C
100
AcDbXrecord
280
     1
102
RTVSPropertyOp0
 70
     1
102
RTVSPropertyOp1
 70
     1
102
RTVSPropertyOp2
 70
     1
102
RTVSPropertyOp3
 70
     1
102
RTVSPropertyOp4
 70
     1
102
RTVSPropertyOp5
 70
     1
102
RTVSPropertyOp6
 70
     1
102
RTVSPropertyOp7
 70
     1
102
RTVSPropertyOp8
 70
     1
102
RTVSPropertyOp9
 70
     1
102
RTVSPropertyOp10
 70
     1
102
RTVSPropertyOp11
 70
     1
102
RTVSPropertyOp12
 70
     1
102
RTVSPropertyOp13
 70
     1
102
RTVSPropertyOp14
 70
     1
102
RTVSPropertyOp15
 70
     1
102
RTVSPropertyOp16
 70
     1
102
RTVSPropertyOp17
 70
     1
102
RTVSPropertyOp18
 70
     1
102
RTVSPropertyOp19
 70
     1
102
RTVSPropertyOp20
 70
     1
102
RTVSPropertyOp21
 70
     1
102
RTVSPropertyOp22
 70
     1
102
RTVSPropertyOp23
 70
     1
102
RTVSPropertyOp24
 70
     1
102
RTVSPropertyOp25
 70
     1
102
RTVSPropertyOp26
 70
     1
102
RTVSPropertyOp27
 70
     1
102
RTVSPropertyOp28
 70
     1
102
RTVSPropertyOp29
 70
     1
102
RTVSPropertyOp30
 70
     1
102
RTVSPropertyOp31
 70
     1
102
RTVSPropertyOp32
 70
     1
  0
XRECORD
  5
F15
102
{ACAD_REACTORS
330
F14
102
}
330
F14
100
AcDbXrecord
280
     1
102
RTVSPropertyOp0
 70
     1
102
RTVSPropertyOp1
 70
     1
102
RTVSPropertyOp2
 70
     1
102
RTVSPropertyOp3
 70
     1
102
RTVSPropertyOp4
 70
     1
102
RTVSPropertyOp5
 70
     1
102
RTVSPropertyOp6
 70
     1
102
RTVSPropertyOp7
 70
     1
102
RTVSPropertyOp8
 70
     1
102
RTVSPropertyOp9
 70
     1
102
RTVSPropertyOp10
 70
     1
102
RTVSPropertyOp11
 70
     1
102
RTVSPropertyOp12
 70
     1
102
RTVSPropertyOp13
 70
     1
102
RTVSPropertyOp14
 70
     1
102
RTVSPropertyOp15
 70
     1
102
RTVSPropertyOp16
 70
     1
102
RTVSPropertyOp17
 70
     1
102
RTVSPropertyOp18
 70
     1
102
RTVSPropertyOp19
 70
     1
102
RTVSPropertyOp20
 70
     1
102
RTVSPropertyOp21
 70
     1
102
RTVSPropertyOp22
 70
     1
102
RTVSPropertyOp23
 70
     1
102
RTVSPropertyOp24
 70
     1
102
RTVSPropertyOp25
 70
     1
102
RTVSPropertyOp26
 70
     1
102
RTVSPropertyOp27
 70
     1
102
RTVSPropertyOp28
 70
     1
102
RTVSPropertyOp29
 70
     1
102
RTVSPropertyOp30
 70
     1
102
RTVSPropertyOp31
 70
     1
102
RTVSPropertyOp32
 70
     1
  0
XRECORD
  5
F07
102
{ACAD_REACTORS
330
F06
102
}
330
F06
100
AcDbXrecord
280
     1
102
RTVSPropertyOp0
 70
     1
102
RTVSPropertyOp1
 70
     1
102
RTVSPropertyOp2
 70
     1
102
RTVSPropertyOp3
 70
     1
102
RTVSPropertyOp4
 70
     1
102
RTVSPropertyOp5
 70
     1
102
RTVSPropertyOp6
 70
     1
102
RTVSPropertyOp7
 70
     1
102
RTVSPropertyOp8
 70
     1
102
RTVSPropertyOp9
 70
     1
102
RTVSPropertyOp10
 70
     1
102
RTVSPropertyOp11
 70
     1
102
RTVSPropertyOp12
 70
     1
102
RTVSPropertyOp13
 70
     1
102
RTVSPropertyOp14
 70
     1
102
RTVSPropertyOp15
 70
     1
102
RTVSPropertyOp16
 70
     1
102
RTVSPropertyOp17
 70
     1
102
RTVSPropertyOp18
 70
     1
102
RTVSPropertyOp19
 70
     1
102
RTVSPropertyOp20
 70
     1
102
RTVSPropertyOp21
 70
     1
102
RTVSPropertyOp22
 70
     1
102
RTVSPropertyOp23
 70
     1
102
RTVSPropertyOp24
 70
     1
102
RTVSPropertyOp25
 70
     1
102
RTVSPropertyOp26
 70
     1
102
RTVSPropertyOp27
 70
     1
102
RTVSPropertyOp28
 70
     1
102
RTVSPropertyOp29
 70
     1
102
RTVSPropertyOp30
 70
     1
102
RTVSPropertyOp31
 70
     1
102
RTVSPropertyOp32
 70
     1
  0
XRECORD
  5
F0B
102
{ACAD_REACTORS
330
F0A
102
}
330
F0A
100
AcDbXrecord
280
     1
102
RTVSPropertyOp0
 70
     1
102
RTVSPropertyOp1
 70
     1
102
RTVSPropertyOp2
 70
     1
102
RTVSPropertyOp3
 70
     1
102
RTVSPropertyOp4
 70
     1
102
RTVSPropertyOp5
 70
     1
102
RTVSPropertyOp6
 70
     1
102
RTVSPropertyOp7
 70
     1
102
RTVSPropertyOp8
 70
     1
102
RTVSPropertyOp9
 70
     1
102
RTVSPropertyOp10
 70
     1
102
RTVSPropertyOp11
 70
     1
102
RTVSPropertyOp12
 70
     1
102
RTVSPropertyOp13
 70
     1
102
RTVSPropertyOp14
 70
     1
102
RTVSPropertyOp15
 70
     1
102
RTVSPropertyOp16
 70
     1
102
RTVSPropertyOp17
 70
     1
102
RTVSPropertyOp18
 70
     1
102
RTVSPropertyOp19
 70
     1
102
RTVSPropertyOp20
 70
     1
102
RTVSPropertyOp21
 70
     1
102
RTVSPropertyOp22
 70
     1
102
RTVSPropertyOp23
 70
     1
102
RTVSPropertyOp24
 70
     1
102
RTVSPropertyOp25
 70
     1
102
RTVSPropertyOp26
 70
     1
102
RTVSPropertyOp27
 70
     1
102
RTVSPropertyOp28
 70
     1
102
RTVSPropertyOp29
 70
     1
102
RTVSPropertyOp30
 70
     1
102
RTVSPropertyOp31
 70
     1
102
RTVSPropertyOp32
 70
     1
  0
XRECORD
  5
F25
102
{ACAD_REACTORS
330
F24
102
}
330
F24
100
AcDbXrecord
280
     1
102
RTVSPropertyOp0
 70
     0
102
RTVSPropertyOp1
 70
     0
102
RTVSPropertyOp2
 70
     0
102
RTVSPropertyOp3
 70
     0
102
RTVSPropertyOp4
 70
     0
102
RTVSPropertyOp5
 70
     0
102
RTVSPropertyOp6
 70
     0
102
RTVSPropertyOp7
 70
     0
102
RTVSPropertyOp8
 70
     0
102
RTVSPropertyOp9
 70
     0
102
RTVSPropertyOp10
 70
     0
102
RTVSPropertyOp11
 70
     0
102
RTVSPropertyOp12
 70
     0
102
RTVSPropertyOp13
 70
     0
102
RTVSPropertyOp14
 70
     2
102
RTVSPropertyOp15
 70
     0
102
RTVSPropertyOp16
 70
     0
102
RTVSPropertyOp17
 70
     0
102
RTVSPropertyOp18
 70
     0
102
RTVSPropertyOp19
 70
     0
102
RTVSPropertyOp20
 70
     0
102
RTVSPropertyOp21
 70
     0
102
RTVSPropertyOp22
 70
     0
102
RTVSPropertyOp23
 70
     0
102
RTVSPropertyOp24
 70
     0
102
RTVSPropertyOp25
 70
     0
102
RTVSPropertyOp26
 70
     0
102
RTVSPropertyOp27
 70
     0
102
RTVSPropertyOp28
 70
     1
102
RTVSPropertyOp29
 70
     1
102
RTVSPropertyOp30
 70
     1
102
RTVSPropertyOp31
 70
     1
102
RTVSPropertyOp32
 70
     1
  0
XRECORD
  5
F13
102
{ACAD_REACTORS
330
F12
102
}
330
F12
100
AcDbXrecord
280
     1
102
RTVSPropertyOp0
 70
     1
102
RTVSPropertyOp1
 70
     1
102
RTVSPropertyOp2
 70
     1
102
RTVSPropertyOp3
 70
     1
102
RTVSPropertyOp4
 70
     1
102
RTVSPropertyOp5
 70
     1
102
RTVSPropertyOp6
 70
     1
102
RTVSPropertyOp7
 70
     1
102
RTVSPropertyOp8
 70
     1
102
RTVSPropertyOp9
 70
     1
102
RTVSPropertyOp10
 70
     1
102
RTVSPropertyOp11
 70
     1
102
RTVSPropertyOp12
 70
     1
102
RTVSPropertyOp13
 70
     1
102
RTVSPropertyOp14
 70
     1
102
RTVSPropertyOp15
 70
     1
102
RTVSPropertyOp16
 70
     1
102
RTVSPropertyOp17
 70
     1
102
RTVSPropertyOp18
 70
     1
102
RTVSPropertyOp19
 70
     1
102
RTVSPropertyOp20
 70
     1
102
RTVSPropertyOp21
 70
     1
102
RTVSPropertyOp22
 70
     1
102
RTVSPropertyOp23
 70
     1
102
RTVSPropertyOp24
 70
     1
102
RTVSPropertyOp25
 70
     1
102
RTVSPropertyOp26
 70
     1
102
RTVSPropertyOp27
 70
     1
102
RTVSPropertyOp28
 70
     1
102
RTVSPropertyOp29
 70
     1
102
RTVSPropertyOp30
 70
     1
102
RTVSPropertyOp31
 70
     1
102
RTVSPropertyOp32
 70
     1
  0
XRECORD
  5
EF7
102
{ACAD_REACTORS
330
EF6
102
}
330
EF6
100
AcDbXrecord
280
     1
102
RTVSPropertyOp0
 70
     1
102
RTVSPropertyOp1
 70
     1
102
RTVSPropertyOp2
 70
     1
102
RTVSPropertyOp3
 70
     1
102
RTVSPropertyOp4
 70
     1
102
RTVSPropertyOp5
 70
     1
102
RTVSPropertyOp6
 70
     1
102
RTVSPropertyOp7
 70
     1
102
RTVSPropertyOp8
 70
     1
102
RTVSPropertyOp9
 70
     1
102
RTVSPropertyOp10
 70
     1
102
RTVSPropertyOp11
 70
     1
102
RTVSPropertyOp12
 70
     1
102
RTVSPropertyOp13
 70
     1
102
RTVSPropertyOp14
 70
     1
102
RTVSPropertyOp15
 70
     1
102
RTVSPropertyOp16
 70
     1
102
RTVSPropertyOp17
 70
     1
102
RTVSPropertyOp18
 70
     1
102
RTVSPropertyOp19
 70
     1
102
RTVSPropertyOp20
 70
     1
102
RTVSPropertyOp21
 70
     1
102
RTVSPropertyOp22
 70
     1
102
RTVSPropertyOp23
 70
     1
102
RTVSPropertyOp24
 70
     1
102
RTVSPropertyOp25
 70
     1
102
RTVSPropertyOp26
 70
     1
102
RTVSPropertyOp27
 70
     1
102
RTVSPropertyOp28
 70
     1
102
RTVSPropertyOp29
 70
     1
102
RTVSPropertyOp30
 70
     1
102
RTVSPropertyOp31
 70
     1
102
RTVSPropertyOp32
 70
     1
  0
XRECORD
  5
EF9
102
{ACAD_REACTORS
330
EF8
102
}
330
EF8
100
AcDbXrecord
280
     1
102
RTVSPropertyOp0
 70
     1
102
RTVSPropertyOp1
 70
     1
102
RTVSPropertyOp2
 70
     1
102
RTVSPropertyOp3
 70
     1
102
RTVSPropertyOp4
 70
     1
102
RTVSPropertyOp5
 70
     1
102
RTVSPropertyOp6
 70
     1
102
RTVSPropertyOp7
 70
     1
102
RTVSPropertyOp8
 70
     1
102
RTVSPropertyOp9
 70
     1
102
RTVSPropertyOp10
 70
     1
102
RTVSPropertyOp11
 70
     1
102
RTVSPropertyOp12
 70
     1
102
RTVSPropertyOp13
 70
     1
102
RTVSPropertyOp14
 70
     1
102
RTVSPropertyOp15
 70
     1
102
RTVSPropertyOp16
 70
     1
102
RTVSPropertyOp17
 70
     1
102
RTVSPropertyOp18
 70
     1
102
RTVSPropertyOp19
 70
     1
102
RTVSPropertyOp20
 70
     1
102
RTVSPropertyOp21
 70
     1
102
RTVSPropertyOp22
 70
     1
102
RTVSPropertyOp23
 70
     1
102
RTVSPropertyOp24
 70
     1
102
RTVSPropertyOp25
 70
     1
102
RTVSPropertyOp26
 70
     1
102
RTVSPropertyOp27
 70
     1
102
RTVSPropertyOp28
 70
     1
102
RTVSPropertyOp29
 70
     1
102
RTVSPropertyOp30
 70
     1
102
RTVSPropertyOp31
 70
     1
102
RTVSPropertyOp32
 70
     1
  0
XRECORD
  5
EFB
102
{ACAD_REACTORS
330
EFA
102
}
330
EFA
100
AcDbXrecord
280
     1
102
RTVSPropertyOp0
 70
     1
102
RTVSPropertyOp1
 70
     1
102
RTVSPropertyOp2
 70
     1
102
RTVSPropertyOp3
 70
     1
102
RTVSPropertyOp4
 70
     1
102
RTVSPropertyOp5
 70
     1
102
RTVSPropertyOp6
 70
     1
102
RTVSPropertyOp7
 70
     1
102
RTVSPropertyOp8
 70
     1
102
RTVSPropertyOp9
 70
     1
102
RTVSPropertyOp10
 70
     1
102
RTVSPropertyOp11
 70
     1
102
RTVSPropertyOp12
 70
     1
102
RTVSPropertyOp13
 70
     1
102
RTVSPropertyOp14
 70
     1
102
RTVSPropertyOp15
 70
     1
102
RTVSPropertyOp16
 70
     1
102
RTVSPropertyOp17
 70
     1
102
RTVSPropertyOp18
 70
     1
102
RTVSPropertyOp19
 70
     1
102
RTVSPropertyOp20
 70
     1
102
RTVSPropertyOp21
 70
     1
102
RTVSPropertyOp22
 70
     1
102
RTVSPropertyOp23
 70
     1
102
RTVSPropertyOp24
 70
     1
102
RTVSPropertyOp25
 70
     1
102
RTVSPropertyOp26
 70
     1
102
RTVSPropertyOp27
 70
     1
102
RTVSPropertyOp28
 70
     1
102
RTVSPropertyOp29
 70
     1
102
RTVSPropertyOp30
 70
     1
102
RTVSPropertyOp31
 70
     1
102
RTVSPropertyOp32
 70
     1
  0
XRECORD
  5
EFD
102
{ACAD_REACTORS
330
EFC
102
}
330
EFC
100
AcDbXrecord
280
     1
102
RTVSPropertyOp0
 70
     1
102
RTVSPropertyOp1
 70
     1
102
RTVSPropertyOp2
 70
     1
102
RTVSPropertyOp3
 70
     1
102
RTVSPropertyOp4
 70
     1
102
RTVSPropertyOp5
 70
     1
102
RTVSPropertyOp6
 70
     1
102
RTVSPropertyOp7
 70
     1
102
RTVSPropertyOp8
 70
     1
102
RTVSPropertyOp9
 70
     1
102
RTVSPropertyOp10
 70
     1
102
RTVSPropertyOp11
 70
     1
102
RTVSPropertyOp12
 70
     1
102
RTVSPropertyOp13
 70
     1
102
RTVSPropertyOp14
 70
     1
102
RTVSPropertyOp15
 70
     1
102
RTVSPropertyOp16
 70
     1
102
RTVSPropertyOp17
 70
     1
102
RTVSPropertyOp18
 70
     1
102
RTVSPropertyOp19
 70
     1
102
RTVSPropertyOp20
 70
     1
102
RTVSPropertyOp21
 70
     1
102
RTVSPropertyOp22
 70
     1
102
RTVSPropertyOp23
 70
     1
102
RTVSPropertyOp24
 70
     1
102
RTVSPropertyOp25
 70
     1
102
RTVSPropertyOp26
 70
     1
102
RTVSPropertyOp27
 70
     1
102
RTVSPropertyOp28
 70
     1
102
RTVSPropertyOp29
 70
     1
102
RTVSPropertyOp30
 70
     1
102
RTVSPropertyOp31
 70
     1
102
RTVSPropertyOp32
 70
     1
  0
XRECORD
  5
F05
102
{ACAD_REACTORS
330
F04
102
}
330
F04
100
AcDbXrecord
280
     1
102
RTVSPropertyOp0
 70
     1
102
RTVSPropertyOp1
 70
     1
102
RTVSPropertyOp2
 70
     1
102
RTVSPropertyOp3
 70
     1
102
RTVSPropertyOp4
 70
     1
102
RTVSPropertyOp5
 70
     1
102
RTVSPropertyOp6
 70
     1
102
RTVSPropertyOp7
 70
     1
102
RTVSPropertyOp8
 70
     1
102
RTVSPropertyOp9
 70
     1
102
RTVSPropertyOp10
 70
     1
102
RTVSPropertyOp11
 70
     1
102
RTVSPropertyOp12
 70
     1
102
RTVSPropertyOp13
 70
     1
102
RTVSPropertyOp14
 70
     1
102
RTVSPropertyOp15
 70
     1
102
RTVSPropertyOp16
 70
     1
102
RTVSPropertyOp17
 70
     1
102
RTVSPropertyOp18
 70
     1
102
RTVSPropertyOp19
 70
     1
102
RTVSPropertyOp20
 70
     1
102
RTVSPropertyOp21
 70
     1
102
RTVSPropertyOp22
 70
     1
102
RTVSPropertyOp23
 70
     1
102
RTVSPropertyOp24
 70
     1
102
RTVSPropertyOp25
 70
     1
102
RTVSPropertyOp26
 70
     1
102
RTVSPropertyOp27
 70
     1
102
RTVSPropertyOp28
 70
     1
102
RTVSPropertyOp29
 70
     1
102
RTVSPropertyOp30
 70
     1
102
RTVSPropertyOp31
 70
     1
102
RTVSPropertyOp32
 70
     1
  0
XRECORD
  5
F21
102
{ACAD_REACTORS
330
F20
102
}
330
F20
100
AcDbXrecord
280
     1
102
RTVSPropertyOp0
 70
     0
102
RTVSPropertyOp1
 70
     0
102
RTVSPropertyOp2
 70
     0
102
RTVSPropertyOp3
 70
     0
102
RTVSPropertyOp4
 70
     0
102
RTVSPropertyOp5
 70
     0
102
RTVSPropertyOp6
 70
     0
102
RTVSPropertyOp7
 70
     0
102
RTVSPropertyOp8
 70
     0
102
RTVSPropertyOp9
 70
     0
102
RTVSPropertyOp10
 70
     0
102
RTVSPropertyOp11
 70
     0
102
RTVSPropertyOp12
 70
     0
102
RTVSPropertyOp13
 70
     0
102
RTVSPropertyOp14
 70
     2
102
RTVSPropertyOp15
 70
     0
102
RTVSPropertyOp16
 70
     0
102
RTVSPropertyOp17
 70
     0
102
RTVSPropertyOp18
 70
     0
102
RTVSPropertyOp19
 70
     0
102
RTVSPropertyOp20
 70
     0
102
RTVSPropertyOp21
 70
     0
102
RTVSPropertyOp22
 70
     0
102
RTVSPropertyOp23
 70
     0
102
RTVSPropertyOp24
 70
     0
102
RTVSPropertyOp25
 70
     0
102
RTVSPropertyOp26
 70
     0
102
RTVSPropertyOp27
 70
     0
102
RTVSPropertyOp28
 70
     1
102
RTVSPropertyOp29
 70
     1
102
RTVSPropertyOp30
 70
     1
102
RTVSPropertyOp31
 70
     1
102
RTVSPropertyOp32
 70
     1
  0
XRECORD
  5
F11
102
{ACAD_REACTORS
330
F10
102
}
330
F10
100
AcDbXrecord
280
     1
102
RTVSPropertyOp0
 70
     1
102
RTVSPropertyOp1
 70
     1
102
RTVSPropertyOp2
 70
     1
102
RTVSPropertyOp3
 70
     1
102
RTVSPropertyOp4
 70
     1
102
RTVSPropertyOp5
 70
     1
102
RTVSPropertyOp6
 70
     1
102
RTVSPropertyOp7
 70
     1
102
RTVSPropertyOp8
 70
     1
102
RTVSPropertyOp9
 70
     1
102
RTVSPropertyOp10
 70
     1
102
RTVSPropertyOp11
 70
     1
102
RTVSPropertyOp12
 70
     1
102
RTVSPropertyOp13
 70
     1
102
RTVSPropertyOp14
 70
     1
102
RTVSPropertyOp15
 70
     1
102
RTVSPropertyOp16
 70
     1
102
RTVSPropertyOp17
 70
     1
102
RTVSPropertyOp18
 70
     1
102
RTVSPropertyOp19
 70
     1
102
RTVSPropertyOp20
 70
     1
102
RTVSPropertyOp21
 70
     1
102
RTVSPropertyOp22
 70
     1
102
RTVSPropertyOp23
 70
     1
102
RTVSPropertyOp24
 70
     1
102
RTVSPropertyOp25
 70
     1
102
RTVSPropertyOp26
 70
     1
102
RTVSPropertyOp27
 70
     1
102
RTVSPropertyOp28
 70
     1
102
RTVSPropertyOp29
 70
     1
102
RTVSPropertyOp30
 70
     1
102
RTVSPropertyOp31
 70
     1
102
RTVSPropertyOp32
 70
     1
  0
XRECORD
  5
F23
102
{ACAD_REACTORS
330
F22
102
}
330
F22
100
AcDbXrecord
280
     1
102
RTVSPropertyOp0
 70
     0
102
RTVSPropertyOp1
 70
     0
102
RTVSPropertyOp2
 70
     0
102
RTVSPropertyOp3
 70
     0
102
RTVSPropertyOp4
 70
     0
102
RTVSPropertyOp5
 70
     0
102
RTVSPropertyOp6
 70
     0
102
RTVSPropertyOp7
 70
     0
102
RTVSPropertyOp8
 70
     0
102
RTVSPropertyOp9
 70
     0
102
RTVSPropertyOp10
 70
     0
102
RTVSPropertyOp11
 70
     0
102
RTVSPropertyOp12
 70
     0
102
RTVSPropertyOp13
 70
     0
102
RTVSPropertyOp14
 70
     2
102
RTVSPropertyOp15
 70
     0
102
RTVSPropertyOp16
 70
     0
102
RTVSPropertyOp17
 70
     0
102
RTVSPropertyOp18
 70
     0
102
RTVSPropertyOp19
 70
     0
102
RTVSPropertyOp20
 70
     0
102
RTVSPropertyOp21
 70
     0
102
RTVSPropertyOp22
 70
     0
102
RTVSPropertyOp23
 70
     0
102
RTVSPropertyOp24
 70
     0
102
RTVSPropertyOp25
 70
     0
102
RTVSPropertyOp26
 70
     0
102
RTVSPropertyOp27
 70
     0
102
RTVSPropertyOp28
 70
     1
102
RTVSPropertyOp29
 70
     1
102
RTVSPropertyOp30
 70
     1
102
RTVSPropertyOp31
 70
     1
102
RTVSPropertyOp32
 70
     1
  0
XRECORD
  5
F09
102
{ACAD_REACTORS
330
F08
102
}
330
F08
100
AcDbXrecord
280
     1
102
RTVSPropertyOp0
 70
     1
102
RTVSPropertyOp1
 70
     1
102
RTVSPropertyOp2
 70
     1
102
RTVSPropertyOp3
 70
     1
102
RTVSPropertyOp4
 70
     1
102
RTVSPropertyOp5
 70
     1
102
RTVSPropertyOp6
 70
     1
102
RTVSPropertyOp7
 70
     1
102
RTVSPropertyOp8
 70
     1
102
RTVSPropertyOp9
 70
     1
102
RTVSPropertyOp10
 70
     1
102
RTVSPropertyOp11
 70
     1
102
RTVSPropertyOp12
 70
     1
102
RTVSPropertyOp13
 70
     1
102
RTVSPropertyOp14
 70
     1
102
RTVSPropertyOp15
 70
     1
102
RTVSPropertyOp16
 70
     1
102
RTVSPropertyOp17
 70
     1
102
RTVSPropertyOp18
 70
     1
102
RTVSPropertyOp19
 70
     1
102
RTVSPropertyOp20
 70
     1
102
RTVSPropertyOp21
 70
     1
102
RTVSPropertyOp22
 70
     1
102
RTVSPropertyOp23
 70
     1
102
RTVSPropertyOp24
 70
     1
102
RTVSPropertyOp25
 70
     1
102
RTVSPropertyOp26
 70
     1
102
RTVSPropertyOp27
 70
     1
102
RTVSPropertyOp28
 70
     1
102
RTVSPropertyOp29
 70
     1
102
RTVSPropertyOp30
 70
     1
102
RTVSPropertyOp31
 70
     1
102
RTVSPropertyOp32
 70
     1
  0
XRECORD
  5
F1F
102
{ACAD_REACTORS
330
F1E
102
}
330
F1E
100
AcDbXrecord
280
     1
102
RTVSPropertyOp0
 70
     1
102
RTVSPropertyOp1
 70
     1
102
RTVSPropertyOp2
 70
     1
102
RTVSPropertyOp3
 70
     1
102
RTVSPropertyOp4
 70
     1
102
RTVSPropertyOp5
 70
     1
102
RTVSPropertyOp6
 70
     1
102
RTVSPropertyOp7
 70
     1
102
RTVSPropertyOp8
 70
     1
102
RTVSPropertyOp9
 70
     1
102
RTVSPropertyOp10
 70
     1
102
RTVSPropertyOp11
 70
     1
102
RTVSPropertyOp12
 70
     1
102
RTVSPropertyOp13
 70
     1
102
RTVSPropertyOp14
 70
     1
102
RTVSPropertyOp15
 70
     1
102
RTVSPropertyOp16
 70
     1
102
RTVSPropertyOp17
 70
     1
102
RTVSPropertyOp18
 70
     1
102
RTVSPropertyOp19
 70
     1
102
RTVSPropertyOp20
 70
     1
102
RTVSPropertyOp21
 70
     1
102
RTVSPropertyOp22
 70
     1
102
RTVSPropertyOp23
 70
     1
102
RTVSPropertyOp24
 70
     1
102
RTVSPropertyOp25
 70
     1
102
RTVSPropertyOp26
 70
     1
102
RTVSPropertyOp27
 70
     1
102
RTVSPropertyOp28
 70
     1
102
RTVSPropertyOp29
 70
     1
102
RTVSPropertyOp30
 70
     1
102
RTVSPropertyOp31
 70
     1
102
RTVSPropertyOp32
 70
     1
  0
XRECORD
  5
F1D
102
{ACAD_REACTORS
330
F1C
102
}
330
F1C
100
AcDbXrecord
280
     1
102
RTVSPropertyOp0
 70
     1
102
RTVSPropertyOp1
 70
     1
102
RTVSPropertyOp2
 70
     1
102
RTVSPropertyOp3
 70
     1
102
RTVSPropertyOp4
 70
     1
102
RTVSPropertyOp5
 70
     1
102
RTVSPropertyOp6
 70
     1
102
RTVSPropertyOp7
 70
     1
102
RTVSPropertyOp8
 70
     1
102
RTVSPropertyOp9
 70
     1
102
RTVSPropertyOp10
 70
     1
102
RTVSPropertyOp11
 70
     1
102
RTVSPropertyOp12
 70
     1
102
RTVSPropertyOp13
 70
     1
102
RTVSPropertyOp14
 70
     1
102
RTVSPropertyOp15
 70
     1
102
RTVSPropertyOp16
 70
     1
102
RTVSPropertyOp17
 70
     1
102
RTVSPropertyOp18
 70
     1
102
RTVSPropertyOp19
 70
     1
102
RTVSPropertyOp20
 70
     1
102
RTVSPropertyOp21
 70
     1
102
RTVSPropertyOp22
 70
     1
102
RTVSPropertyOp23
 70
     1
102
RTVSPropertyOp24
 70
     1
102
RTVSPropertyOp25
 70
     1
102
RTVSPropertyOp26
 70
     1
102
RTVSPropertyOp27
 70
     1
102
RTVSPropertyOp28
 70
     1
102
RTVSPropertyOp29
 70
     1
102
RTVSPropertyOp30
 70
     1
102
RTVSPropertyOp31
 70
     1
102
RTVSPropertyOp32
 70
     1
  0
XRECORD
  5
F17
102
{ACAD_REACTORS
330
F16
102
}
330
F16
100
AcDbXrecord
280
     1
102
RTVSPropertyOp0
 70
     1
102
RTVSPropertyOp1
 70
     1
102
RTVSPropertyOp2
 70
     1
102
RTVSPropertyOp3
 70
     1
102
RTVSPropertyOp4
 70
     1
102
RTVSPropertyOp5
 70
     1
102
RTVSPropertyOp6
 70
     1
102
RTVSPropertyOp7
 70
     1
102
RTVSPropertyOp8
 70
     1
102
RTVSPropertyOp9
 70
     1
102
RTVSPropertyOp10
 70
     1
102
RTVSPropertyOp11
 70
     1
102
RTVSPropertyOp12
 70
     1
102
RTVSPropertyOp13
 70
     1
102
RTVSPropertyOp14
 70
     1
102
RTVSPropertyOp15
 70
     1
102
RTVSPropertyOp16
 70
     1
102
RTVSPropertyOp17
 70
     1
102
RTVSPropertyOp18
 70
     1
102
RTVSPropertyOp19
 70
     1
102
RTVSPropertyOp20
 70
     1
102
RTVSPropertyOp21
 70
     1
102
RTVSPropertyOp22
 70
     1
102
RTVSPropertyOp23
 70
     1
102
RTVSPropertyOp24
 70
     1
102
RTVSPropertyOp25
 70
     1
102
RTVSPropertyOp26
 70
     1
102
RTVSPropertyOp27
 70
     1
102
RTVSPropertyOp28
 70
     1
102
RTVSPropertyOp29
 70
     1
102
RTVSPropertyOp30
 70
     1
102
RTVSPropertyOp31
 70
     1
102
RTVSPropertyOp32
 70
     1
  0
XRECORD
  5
F19
102
{ACAD_REACTORS
330
F18
102
}
330
F18
100
AcDbXrecord
280
     1
102
RTVSPropertyOp0
 70
     1
102
RTVSPropertyOp1
 70
     1
102
RTVSPropertyOp2
 70
     1
102
RTVSPropertyOp3
 70
     1
102
RTVSPropertyOp4
 70
     1
102
RTVSPropertyOp5
 70
     1
102
RTVSPropertyOp6
 70
     1
102
RTVSPropertyOp7
 70
     1
102
RTVSPropertyOp8
 70
     1
102
RTVSPropertyOp9
 70
     1
102
RTVSPropertyOp10
 70
     1
102
RTVSPropertyOp11
 70
     1
102
RTVSPropertyOp12
 70
     1
102
RTVSPropertyOp13
 70
     1
102
RTVSPropertyOp14
 70
     1
102
RTVSPropertyOp15
 70
     1
102
RTVSPropertyOp16
 70
     1
102
RTVSPropertyOp17
 70
     1
102
RTVSPropertyOp18
 70
     1
102
RTVSPropertyOp19
 70
     1
102
RTVSPropertyOp20
 70
     1
102
RTVSPropertyOp21
 70
     1
102
RTVSPropertyOp22
 70
     1
102
RTVSPropertyOp23
 70
     1
102
RTVSPropertyOp24
 70
     1
102
RTVSPropertyOp25
 70
     1
102
RTVSPropertyOp26
 70
     1
102
RTVSPropertyOp27
 70
     1
102
RTVSPropertyOp28
 70
     1
102
RTVSPropertyOp29
 70
     1
102
RTVSPropertyOp30
 70
     1
102
RTVSPropertyOp31
 70
     1
102
RTVSPropertyOp32
 70
     1
  0
XRECORD
  5
F0F
102
{ACAD_REACTORS
330
F0E
102
}
330
F0E
100
AcDbXrecord
280
     1
102
RTVSPropertyOp0
 70
     1
102
RTVSPropertyOp1
 70
     1
102
RTVSPropertyOp2
 70
     1
102
RTVSPropertyOp3
 70
     1
102
RTVSPropertyOp4
 70
     1
102
RTVSPropertyOp5
 70
     1
102
RTVSPropertyOp6
 70
     1
102
RTVSPropertyOp7
 70
     1
102
RTVSPropertyOp8
 70
     1
102
RTVSPropertyOp9
 70
     1
102
RTVSPropertyOp10
 70
     1
102
RTVSPropertyOp11
 70
     1
102
RTVSPropertyOp12
 70
     1
102
RTVSPropertyOp13
 70
     1
102
RTVSPropertyOp14
 70
     1
102
RTVSPropertyOp15
 70
     1
102
RTVSPropertyOp16
 70
     1
102
RTVSPropertyOp17
 70
     1
102
RTVSPropertyOp18
 70
     1
102
RTVSPropertyOp19
 70
     1
102
RTVSPropertyOp20
 70
     1
102
RTVSPropertyOp21
 70
     1
102
RTVSPropertyOp22
 70
     1
102
RTVSPropertyOp23
 70
     1
102
RTVSPropertyOp24
 70
     1
102
RTVSPropertyOp25
 70
     1
102
RTVSPropertyOp26
 70
     1
102
RTVSPropertyOp27
 70
     1
102
RTVSPropertyOp28
 70
     1
102
RTVSPropertyOp29
 70
     1
102
RTVSPropertyOp30
 70
     1
102
RTVSPropertyOp31
 70
     1
102
RTVSPropertyOp32
 70
     1
  0
XRECORD
  5
F03
102
{ACAD_REACTORS
330
F02
102
}
330
F02
100
AcDbXrecord
280
     1
102
RTVSPropertyOp0
 70
     1
102
RTVSPropertyOp1
 70
     1
102
RTVSPropertyOp2
 70
     1
102
RTVSPropertyOp3
 70
     1
102
RTVSPropertyOp4
 70
     1
102
RTVSPropertyOp5
 70
     1
102
RTVSPropertyOp6
 70
     1
102
RTVSPropertyOp7
 70
     1
102
RTVSPropertyOp8
 70
     1
102
RTVSPropertyOp9
 70
     1
102
RTVSPropertyOp10
 70
     1
102
RTVSPropertyOp11
 70
     1
102
RTVSPropertyOp12
 70
     1
102
RTVSPropertyOp13
 70
     1
102
RTVSPropertyOp14
 70
     1
102
RTVSPropertyOp15
 70
     1
102
RTVSPropertyOp16
 70
     1
102
RTVSPropertyOp17
 70
     1
102
RTVSPropertyOp18
 70
     1
102
RTVSPropertyOp19
 70
     1
102
RTVSPropertyOp20
 70
     1
102
RTVSPropertyOp21
 70
     1
102
RTVSPropertyOp22
 70
     1
102
RTVSPropertyOp23
 70
     1
102
RTVSPropertyOp24
 70
     1
102
RTVSPropertyOp25
 70
     1
102
RTVSPropertyOp26
 70
     1
102
RTVSPropertyOp27
 70
     1
102
RTVSPropertyOp28
 70
     1
102
RTVSPropertyOp29
 70
     1
102
RTVSPropertyOp30
 70
     1
102
RTVSPropertyOp31
 70
     1
102
RTVSPropertyOp32
 70
     1
  0
XRECORD
  5
F1B
102
{ACAD_REACTORS
330
F1A
102
}
330
F1A
100
AcDbXrecord
280
     1
102
RTVSPropertyOp0
 70
     1
102
RTVSPropertyOp1
 70
     1
102
RTVSPropertyOp2
 70
     1
102
RTVSPropertyOp3
 70
     1
102
RTVSPropertyOp4
 70
     1
102
RTVSPropertyOp5
 70
     1
102
RTVSPropertyOp6
 70
     1
102
RTVSPropertyOp7
 70
     1
102
RTVSPropertyOp8
 70
     1
102
RTVSPropertyOp9
 70
     1
102
RTVSPropertyOp10
 70
     1
102
RTVSPropertyOp11
 70
     1
102
RTVSPropertyOp12
 70
     1
102
RTVSPropertyOp13
 70
     1
102
RTVSPropertyOp14
 70
     1
102
RTVSPropertyOp15
 70
     1
102
RTVSPropertyOp16
 70
     1
102
RTVSPropertyOp17
 70
     1
102
RTVSPropertyOp18
 70
     1
102
RTVSPropertyOp19
 70
     1
102
RTVSPropertyOp20
 70
     1
102
RTVSPropertyOp21
 70
     1
102
RTVSPropertyOp22
 70
     1
102
RTVSPropertyOp23
 70
     1
102
RTVSPropertyOp24
 70
     1
102
RTVSPropertyOp25
 70
     1
102
RTVSPropertyOp26
 70
     1
102
RTVSPropertyOp27
 70
     1
102
RTVSPropertyOp28
 70
     1
102
RTVSPropertyOp29
 70
     1
102
RTVSPropertyOp30
 70
     1
102
RTVSPropertyOp31
 70
     1
102
RTVSPropertyOp32
 70
     1
  0
ENDSEC
  0
EOF
