  0
SECTION
  2
HEADER
  9
$ACADVER
  1
AC1015
  9
$ACADMAINTVER
 70
    18
  9
$DWGCODEPAGE
  3
ANSI_1252
  9
$INSBASE
 10
0.0
 20
0.0
 30
0.0
  9
$EXTMIN
 10
0.0
 20
0.0
 30
0.0
  9
$EXTMAX
 10
117.2413793103448
 20
75.86206896551725
 30
0.0
  9
$LIMMIN
 10
0.0
 20
0.0
  9
$LIMMAX
 10
117.2413793103448
 20
75.86206896551725
  9
$ORTHOMODE
 70
     0
  9
$REGENMODE
 70
     1
  9
$FILLMODE
 70
     1
  9
$QTEXTMODE
 70
     0
  9
$MIRRTEXT
 70
     0
  9
$LTSCALE
 40
6.896551724137931
  9
$ATTMODE
 70
     1
  9
$TEXTSIZE
 40
0.2
  9
$TRACEWID
 40
0.05
  9
$TEXTSTYLE
  7
Standard
  9
$CLAYER
  8
0
  9
$CELTYPE
  6
ByLayer
  9
$CECOLOR
 62
   256
  9
$CELTSCALE
 40
1.0
  9
$DISPSILH
 70
     0
  9
$DIMSCALE
 40
1.0
  9
$DIMASZ
 40
0.0708661417322835
  9
$DIMEXO
 40
0.0625
  9
$DIMDLI
 40
0.38
  9
$DIMRND
 40
0.0
  9
$DIMDLE
 40
0.0
  9
$DIMEXE
 40
0.18
  9
$DIMTP
 40
0.0
  9
$DIMTM
 40
0.0
  9
$DIMTXT
 40
0.0708661417322835
  9
$DIMCEN
 40
0.09
  9
$DIMTSZ
 40
0.0
  9
$DIMTOL
 70
     0
  9
$DIMLIM
 70
     0
  9
$DIMTIH
 70
     1
  9
$DIMTOH
 70
     1
  9
$DIMSE1
 70
     0
  9
$DIMSE2
 70
     0
  9
$DIMTAD
 70
     0
  9
$DIMZIN
 70
     0
  9
$DIMBLK
  1

  9
$DIMASO
 70
     1
  9
$DIMSHO
 70
     1
  9
$DIMPOST
  1

  9
$DIMAPOST
  1

  9
$DIMALT
 70
     0
  9
$DIMALTD
 70
     2
  9
$DIMALTF
 40
25.4
  9
$DIMLFAC
 40
1.0
  9
$DIMTOFL
 70
     0
  9
$DIMTVP
 40
0.0
  9
$DIMTIX
 70
     0
  9
$DIMSOXD
 70
     0
  9
$DIMSAH
 70
     0
  9
$DIMBLK1
  1

  9
$DIMBLK2
  1

  9
$DIMSTYLE
  2
STANDARD
  9
$DIMCLRD
 70
     0
  9
$DIMCLRE
 70
     0
  9
$DIMCLRT
 70
     0
  9
$DIMTFAC
 40
1.0
  9
$DIMGAP
 40
0.09
  9
$DIMJUST
 70
     0
  9
$DIMSD1
 70
     0
  9
$DIMSD2
 70
     0
  9
$DIMTOLJ
 70
     1
  9
$DIMTZIN
 70
     0
  9
$DIMALTZ
 70
     0
  9
$DIMALTTZ
 70
     0
  9
$DIMUPT
 70
     0
  9
$DIMDEC
 70
     4
  9
$DIMTDEC
 70
     4
  9
$DIMALTU
 70
     2
  9
$DIMALTTD
 70
     2
  9
$DIMTXSTY
  7
Standard
  9
$DIMAUNIT
 70
     0
  9
$DIMADEC
 70
     0
  9
$DIMALTRND
 40
0.0
  9
$DIMAZIN
 70
     0
  9
$DIMDSEP
 70
    46
  9
$DIMATFIT
 70
     3
  9
$DIMFRAC
 70
     0
  9
$DIMLDRBLK
  1

  9
$DIMLUNIT
 70
     2
  9
$DIMLWD
 70
    -2
  9
$DIMLWE
 70
    -2
  9
$DIMTMOVE
 70
     0
  9
$LUNITS
 70
     2
  9
$LUPREC
 70
     4
  9
$SKETCHINC
 40
0.1
  9
$FILLETRAD
 40
0.0
  9
$AUNITS
 70
     0
  9
$AUPREC
 70
     0
  9
$MENU
  1
.
  9
$ELEVATION
 40
0.0
  9
$PELEVATION
 40
0.0
  9
$THICKNESS
 40
0.0
  9
$LIMCHECK
 70
     0
  9
$CHAMFERA
 40
0.0
  9
$CHAMFERB
 40
0.0
  9
$CHAMFERC
 40
0.0
  9
$CHAMFERD
 40
0.0
  9
$SKPOLY
 70
     0
  9
$TDCREATE
 40
2455944.558502419
  9
$TDUCREATE
 40
2455944.808502419
  9
$TDUPDATE
 40
2455944.558502604
  9
$TDUUPDATE
 40
2455944.808502604
  9
$TDINDWG
 40
0.0000397917
  9
$TDUSRTIMER
 40
0.0000397917
  9
$USRTIMER
 70
     1
  9
$ANGBASE
 50
0.0
  9
$ANGDIR
 70
     0
  9
$PDMODE
 70
     0
  9
$PDSIZE
 40
0.0
  9
$PLINEWID
 40
0.0
  9
$SPLFRAME
 70
     0
  9
$SPLINETYPE
 70
     6
  9
$SPLINESEGS
 70
     8
  9
$HANDSEED
  5
F5F
  9
$SURFTAB1
 70
     6
  9
$SURFTAB2
 70
     6
  9
$SURFTYPE
 70
     6
  9
$SURFU
 70
     6
  9
$SURFV
 70
     6
  9
$UCSBASE
  2

  9
$UCSNAME
  2

  9
$UCSORG
 10
0.0
 20
0.0
 30
0.0
  9
$UCSXDIR
 10
1.0
 20
0.0
 30
0.0
  9
$UCSYDIR
 10
0.0
 20
1.0
 30
0.0
  9
$UCSORTHOREF
  2

  9
$UCSORTHOVIEW
 70
     0
  9
$UCSORGTOP
 10
0.0
 20
0.0
 30
0.0
  9
$UCSORGBOTTOM
 10
0.0
 20
0.0
 30
0.0
  9
$UCSORGLEFT
 10
0.0
 20
0.0
 30
0.0
  9
$UCSORGRIGHT
 10
0.0
 20
0.0
 30
0.0
  9
$UCSORGFRONT
 10
0.0
 20
0.0
 30
0.0
  9
$UCSORGBACK
 10
0.0
 20
0.0
 30
0.0
  9
$PUCSBASE
  2

  9
$PUCSNAME
  2

  9
$PUCSORG
 10
0.0
 20
0.0
 30
0.0
  9
$PUCSXDIR
 10
1.0
 20
0.0
 30
0.0
  9
$PUCSYDIR
 10
0.0
 20
1.0
 30
0.0
  9
$PUCSORTHOREF
  2

  9
$PUCSORTHOVIEW
 70
     0
  9
$PUCSORGTOP
 10
0.0
 20
0.0
 30
0.0
  9
$PUCSORGBOTTOM
 10
0.0
 20
0.0
 30
0.0
  9
$PUCSORGLEFT
 10
0.0
 20
0.0
 30
0.0
  9
$PUCSORGRIGHT
 10
0.0
 20
0.0
 30
0.0
  9
$PUCSORGFRONT
 10
0.0
 20
0.0
 30
0.0
  9
$PUCSORGBACK
 10
0.0
 20
0.0
 30
0.0
  9
$USERI1
 70
     0
  9
$USERI2
 70
     0
  9
$USERI3
 70
     0
  9
$USERI4
 70
     0
  9
$USERI5
 70
     0
  9
$USERR1
 40
0.0
  9
$USERR2
 40
0.0
  9
$USERR3
 40
0.0
  9
$USERR4
 40
0.0
  9
$USERR5
 40
0.0
  9
$WORLDVIEW
 70
     1
  9
$SHADEDGE
 70
     3
  9
$SHADEDIF
 70
    70
  9
$TILEMODE
 70
     1
  9
$MAXACTVP
 70
    64
  9
$PINSBASE
 10
0.0
 20
0.0
 30
0.0
  9
$PLIMCHECK
 70
     0
  9
$PEXTMIN
 10
0.0
 20
0.0
 30
0.0
  9
$PEXTMAX
 10
117.2413793103448
 20
75.86206896551725
 30
0.0
  9
$PLIMMIN
 10
0.0
 20
0.0
  9
$PLIMMAX
 10
117.2413793103448
 20
75.86206896551725
  9
$UNITMODE
 70
     0
  9
$VISRETAIN
 70
     1
  9
$PLINEGEN
 70
     0
  9
$PSLTSCALE
 70
     1
  9
$TREEDEPTH
 70
  3020
  9
$CMLSTYLE
  2
Standard
  9
$CMLJUST
 70
     0
  9
$CMLSCALE
 40
1.0
  9
$PROXYGRAPHICS
 70
     1
  9
$MEASUREMENT
 70
     0
  9
$CELWEIGHT
370
    -1
  9
$ENDCAPS
280
     0
  9
$JOINSTYLE
280
     0
  9
$LWDISPLAY
290
     0
  9
$INSUNITS
 70
     1
  9
$HYPERLINKBASE
  1

  9
$STYLESHEET
  1

  9
$XEDIT
290
     1
  9
$CEPSNTYPE
380
     0
  9
$PSTYLEMODE
290
     1
  9
$FINGERPRINTGUID
  2
{298C7CE1-FD58-4162-A5AD-12BD44FAC74E}
  9
$VERSIONGUID
  2
{20531739-2542-4908-8DBA-E90839A22409}
  9
$EXTNAMES
290
     1
  9
$PSVPSCALE
 40
0.0
  9
$OLESTARTUP
290
     0
  0
ENDSEC
  0
SECTION
  2
CLASSES
  0
CLASS
  1
ACDBDICTIONARYWDFLT
  2
AcDbDictionaryWithDefault
  3
ObjectDBX Classes
 90
        0
280
     0
281
     0
  0
CLASS
  1
MATERIAL
  2
AcDbMaterial
  3
ObjectDBX Classes
 90
     1153
280
     0
281
     0
  0
CLASS
  1
VISUALSTYLE
  2
AcDbVisualStyle
  3
ObjectDBX Classes
 90
     4095
280
     0
281
     0
  0
CLASS
  1
SCALE
  2
AcDbScale
  3
ObjectDBX Classes
 90
     1153
280
     0
281
     0
  0
CLASS
  1
TABLESTYLE
  2
AcDbTableStyle
  3
ObjectDBX Classes
 90
     4095
280
     0
281
     0
  0
CLASS
  1
MLEADERSTYLE
  2
AcDbMLeaderStyle
  3
ACDB_MLEADERSTYLE_CLASS
 90
     4095
280
     0
281
     0
  0
CLASS
  1
DICTIONARYVAR
  2
AcDbDictionaryVar
  3
ObjectDBX Classes
 90
        0
280
     0
281
     0
  0
CLASS
  1
CELLSTYLEMAP
  2
AcDbCellStyleMap
  3
ObjectDBX Classes
 90
     1152
280
     0
281
     0
  0
CLASS
  1
ACDBPLACEHOLDER
  2
AcDbPlaceHolder
  3
ObjectDBX Classes
 90
        0
280
     0
281
     0
  0
CLASS
  1
LAYOUT
  2
AcDbLayout
  3
ObjectDBX Classes
 90
        0
280
     0
281
     0
  0
ENDSEC
  0
SECTION
  2
TABLES
  0
TABLE
  2
VPORT
  5
8
330
0
100
AcDbSymbolTable
 70
     1
  0
VPORT
  5
57
330
8
100
AcDbSymbolTableRecord
100
AcDbViewportTableRecord
  2
*Active
 70
     0
 10
0.0
 20
0.0
 11
1.0
 21
1.0
 12
58.62068965517241
 22
37.93103448275863
 13
0.0
 23
0.0
 14
1.0
 24
1.0
 15
0.0
 25
0.0
 16
0.0
 26
0.0
 36
1.0
 17
0.0
 27
0.0
 37
0.0
 40
75.86206896551725
 41
1.545454545454545
 42
50.0
 43
0.0
 44
0.0
 50
0.0
 51
0.0
 71
     0
 72
   100
 73
     1
 74
     1
 75
     0
 76
     0
 77
     0
 78
     0
281
     0
 65
     1
110
0.0
120
0.0
130
0.0
111
1.0
121
0.0
131
0.0
112
0.0
122
1.0
132
0.0
 79
     0
146
0.0
  0
ENDTAB
  0
TABLE
  2
LTYPE
  5
5
330
0
100
AcDbSymbolTable
 70
    59
  0
LTYPE
  5
5B
330
5
100
AcDbSymbolTableRecord
100
AcDbLinetypeTableRecord
  2
ByBlock
 70
     0
  3

 72
    65
 73
     0
 40
0.0
  0
LTYPE
  5
5C
330
5
100
AcDbSymbolTableRecord
100
AcDbLinetypeTableRecord
  2
ByLayer
 70
     0
  3

 72
    65
 73
     0
 40
0.0
  0
LTYPE
  5
5D
330
5
100
AcDbSymbolTableRecord
100
AcDbLinetypeTableRecord
  2
Continuous
 70
     0
  3
Solid line
 72
    65
 73
     0
 40
0.0
  0
LTYPE
  5
DE
330
5
100
AcDbSymbolTableRecord
100
AcDbLinetypeTableRecord
  2
BY_STANDARD
 70
     0
  3
By Standard ____________    ____    ____   _
 72
    65
 73
     6
 40
1.240299999999999
 49
0.6614
 74
     0
 49
-0.0827
 74
     0
 49
0.1654
 74
     0
 49
-0.0827
 74
     0
 49
0.1654
 74
     0
 49
-0.0827
 74
     0
  0
LTYPE
  5
DF
330
5
100
AcDbSymbolTableRecord
100
AcDbLinetypeTableRecord
  2
CHAIN
 70
     0
  3
Chain ____ _ ____ _ ____ _ ____ _ ____ _ ____
 72
    65
 73
     4
 40
0.7087
 49
0.4724000000000001
 74
     0
 49
-0.0591
 74
     0
 49
0.1181
 74
     0
 49
-0.0591
 74
     0
  0
LTYPE
  5
E0
330
5
100
AcDbSymbolTableRecord
100
AcDbLinetypeTableRecord
  2
DASH_DOT
 70
     0
  3
Dash dot __ . __ . __ . __ . __ . __ . __ . __
 72
    65
 73
     4
 40
0.37
 49
0.24
 74
     0
 49
-0.06
 74
     0
 49
0.01
 74
     0
 49
-0.06
 74
     0
  0
LTYPE
  5
E1
330
5
100
AcDbSymbolTableRecord
100
AcDbLinetypeTableRecord
  2
DOUBLE_DASH_DOT
 70
     0
  3
Double-Dash Dot __ __ . __ __ . __ __ . __ _
 72
    65
 73
     6
 40
0.4398
 49
0.24
 74
     0
 49
-0.06
 74
     0
 49
0.0098
 74
     0
 49
-0.06
 74
     0
 49
0.01
 74
     0
 49
-0.06
 74
     0
  0
LTYPE
  5
E2
330
5
100
AcDbSymbolTableRecord
100
AcDbLinetypeTableRecord
  2
DASH_TRIPLE_DOT
 70
     0
  3
Dash Triple-Dot _ . . . _ . . . _ . . . _
 72
    65
 73
     8
 40
0.51
 49
0.24
 74
     0
 49
-0.06
 74
     0
 49
0.01
 74
     0
 49
-0.06
 74
     0
 49
0.01
 74
     0
 49
-0.06
 74
     0
 49
0.01
 74
     0
 49
-0.06
 74
     0
  0
LTYPE
  5
E3
330
5
100
AcDbSymbolTableRecord
100
AcDbLinetypeTableRecord
  2
DASHED
 70
     0
  3
Dashed __ __ __ __ __ __ __ __ __ __ __ __ __ _
 72
    65
 73
     2
 40
0.2067
 49
0.1654
 74
     0
 49
-0.0413
 74
     0
  0
LTYPE
  5
E4
330
5
100
AcDbSymbolTableRecord
100
AcDbLinetypeTableRecord
  2
DASH_DOUBLE_DOT
 70
     0
  3
Dash Double-Dot __ . . __ . . __ . . __ . .
 72
    65
 73
     6
 40
0.4398
 49
0.24
 74
     0
 49
-0.06
 74
     0
 49
0.0098
 74
     0
 49
-0.06
 74
     0
 49
0.01
 74
     0
 49
-0.06
 74
     0
  0
LTYPE
  5
E5
330
5
100
AcDbSymbolTableRecord
100
AcDbLinetypeTableRecord
  2
DASHED_SPACE
 70
     0
  3
Dashed Space __ __ __ __ __ __ __ __ __ __ __ _
 72
    65
 73
     2
 40
0.2067
 49
0.1654
 74
     0
 49
-0.0413
 74
     0
  0
LTYPE
  5
E6
330
5
100
AcDbSymbolTableRecord
100
AcDbLinetypeTableRecord
  2
DOTTED
 70
     0
  3
Dotted . . . . . . . . . . . . . . . . . . . . 
 72
    65
 73
     2
 40
0.0482
 49
0.0069
 74
     0
 49
-0.0413
 74
     0
  0
LTYPE
  5
E7
330
5
100
AcDbSymbolTableRecord
100
AcDbLinetypeTableRecord
  2
DOUBLE_DASH_CHAIN
 70
     0
  3
Double-Dash Chain ______  __  __  ______  __  _
 72
    65
 73
     6
 40
1.240299999999999
 49
0.6614
 74
     0
 49
-0.0827
 74
     0
 49
0.1654
 74
     0
 49
-0.0827
 74
     0
 49
0.1654
 74
     0
 49
-0.0827
 74
     0
  0
LTYPE
  5
E9
330
5
100
AcDbSymbolTableRecord
100
AcDbLinetypeTableRecord
  2
DOUBLE_DASH_DOUBLE_DOT
 70
     0
  3
Double-Dash Double-dot _ _ . . _ _ . . _
 72
    65
 73
     8
 40
0.7400000000000001
 49
0.24
 74
     0
 49
-0.06
 74
     0
 49
0.24
 74
     0
 49
-0.06
 74
     0
 49
0.01
 74
     0
 49
-0.06
 74
     0
 49
0.01
 74
     0
 49
-0.06
 74
     0
  0
LTYPE
  5
EA
330
5
100
AcDbSymbolTableRecord
100
AcDbLinetypeTableRecord
  2
DOUBLE_DASH_TRIPLE_DOT
 70
     0
  3
Double Dash Triple Dot __ __ . . . __ __ . .
 72
    65
 73
    10
 40
0.8100000000000001
 49
0.24
 74
     0
 49
-0.06
 74
     0
 49
0.24
 74
     0
 49
-0.06
 74
     0
 49
0.01
 74
     0
 49
-0.06
 74
     0
 49
0.01
 74
     0
 49
-0.06
 74
     0
 49
0.01
 74
     0
 49
-0.06
 74
     0
  0
LTYPE
  5
EB
330
5
100
AcDbSymbolTableRecord
100
AcDbLinetypeTableRecord
  2
LONG_DASH_DOTTED
 70
     0
  3
Long Dash Dotted ____ . ____ . ____ . ____ . _
 72
    65
 73
     4
 40
0.3543
 49
0.2362
 74
     0
 49
-0.0295
 74
     0
 49
0.0591
 74
     0
 49
-0.0295
 74
     0
  0
LTYPE
  5
EC
330
5
100
AcDbSymbolTableRecord
100
AcDbLinetypeTableRecord
  2
LONG_DASH_DOUBLE_DOT
 70
     0
  3
Long Dash Double Dot ________  .  .  ________  
 72
    65
 73
     6
 40
0.6799999999999999
 49
0.48
 74
     0
 49
-0.06
 74
     0
 49
0.01
 74
     0
 49
-0.06
 74
     0
 49
0.01
 74
     0
 49
-0.06
 74
     0
  0
LTYPE
  5
ED
330
5
100
AcDbSymbolTableRecord
100
AcDbLinetypeTableRecord
  2
LONG_DASH_TRIPLE_DOT
 70
     0
  3
Long Dash Triple Dot ____ ... ____ ... ____
 72
    65
 73
     8
 40
0.3689
 49
0.2362
 74
     0
 49
-0.0295
 74
     0
 49
0.0049
 74
     0
 49
-0.0295
 74
     0
 49
0.0049
 74
     0
 49
-0.0295
 74
     0
 49
0.0049
 74
     0
 49
-0.0295
 74
     0
  0
LTYPE
  5
EE
330
5
100
AcDbSymbolTableRecord
100
AcDbLinetypeTableRecord
  2
BORDER
 70
     0
  3
Border __ __ . __ __ . __ __ . __ __ . __ __ .
 72
    65
 73
     6
 40
1.75
 49
0.5
 74
     0
 49
-0.25
 74
     0
 49
0.5
 74
     0
 49
-0.25
 74
     0
 49
0.0
 74
     0
 49
-0.25
 74
     0
  0
LTYPE
  5
EF
330
5
100
AcDbSymbolTableRecord
100
AcDbLinetypeTableRecord
  2
BORDER2
 70
     0
  3
Border (.5x) __.__.__.__.__.__.__.__.__.__.__.
 72
    65
 73
     6
 40
0.875
 49
0.25
 74
     0
 49
-0.125
 74
     0
 49
0.25
 74
     0
 49
-0.125
 74
     0
 49
0.0
 74
     0
 49
-0.125
 74
     0
  0
LTYPE
  5
F0
330
5
100
AcDbSymbolTableRecord
100
AcDbLinetypeTableRecord
  2
BORDERX2
 70
     0
  3
Border (2x) ____  ____  .  ____  ____  .  ___
 72
    65
 73
     6
 40
3.5
 49
1.0
 74
     0
 49
-0.5
 74
     0
 49
1.0
 74
     0
 49
-0.5
 74
     0
 49
0.0
 74
     0
 49
-0.5
 74
     0
  0
LTYPE
  5
F1
330
5
100
AcDbSymbolTableRecord
100
AcDbLinetypeTableRecord
  2
CENTER
 70
     0
  3
Center ____ _ ____ _ ____ _ ____ _ ____ _ ____
 72
    65
 73
     4
 40
2.0
 49
1.25
 74
     0
 49
-0.25
 74
     0
 49
0.25
 74
     0
 49
-0.25
 74
     0
  0
LTYPE
  5
F2
330
5
100
AcDbSymbolTableRecord
100
AcDbLinetypeTableRecord
  2
CENTER2
 70
     0
  3
Center (.5x) ___ _ ___ _ ___ _ ___ _ ___ _ ___
 72
    65
 73
     4
 40
1.125
 49
0.75
 74
     0
 49
-0.125
 74
     0
 49
0.125
 74
     0
 49
-0.125
 74
     0
  0
LTYPE
  5
F3
330
5
100
AcDbSymbolTableRecord
100
AcDbLinetypeTableRecord
  2
CENTERX2
 70
     0
  3
Center (2x) ________  __  ________  __  _____
 72
    65
 73
     4
 40
4.0
 49
2.5
 74
     0
 49
-0.5
 74
     0
 49
0.5
 74
     0
 49
-0.5
 74
     0
  0
LTYPE
  5
F4
330
5
100
AcDbSymbolTableRecord
100
AcDbLinetypeTableRecord
  2
DASHDOT2
 70
     0
  3
Dash dot (.5x) _._._._._._._._._._._._._._._.
 72
    65
 73
     4
 40
0.5
 49
0.25
 74
     0
 49
-0.125
 74
     0
 49
0.0
 74
     0
 49
-0.125
 74
     0
  0
LTYPE
  5
F5
330
5
100
AcDbSymbolTableRecord
100
AcDbLinetypeTableRecord
  2
DASHDOTX2
 70
     0
  3
Dash dot (2x) ____  .  ____  .  ____  .  ___
 72
    65
 73
     4
 40
2.0
 49
1.0
 74
     0
 49
-0.5
 74
     0
 49
0.0
 74
     0
 49
-0.5
 74
     0
  0
LTYPE
  5
F7
330
5
100
AcDbSymbolTableRecord
100
AcDbLinetypeTableRecord
  2
DASHED2
 70
     0
  3
Dashed (.5x) _ _ _ _ _ _ _ _ _ _ _ _ _ _ _ _ _
 72
    65
 73
     2
 40
0.375
 49
0.25
 74
     0
 49
-0.125
 74
     0
  0
LTYPE
  5
F8
330
5
100
AcDbSymbolTableRecord
100
AcDbLinetypeTableRecord
  2
DASHEDX2
 70
     0
  3
Dashed (2x) ____  ____  ____  ____  ____  ___
 72
    65
 73
     2
 40
1.5
 49
1.0
 74
     0
 49
-0.5
 74
     0
  0
LTYPE
  5
F9
330
5
100
AcDbSymbolTableRecord
100
AcDbLinetypeTableRecord
  2
DIVIDE
 70
     0
  3
Divide ____ . . ____ . . ____ . . ____ . . ____
 72
    65
 73
     6
 40
1.25
 49
0.5
 74
     0
 49
-0.25
 74
     0
 49
0.0
 74
     0
 49
-0.25
 74
     0
 49
0.0
 74
     0
 49
-0.25
 74
     0
  0
LTYPE
  5
FA
330
5
100
AcDbSymbolTableRecord
100
AcDbLinetypeTableRecord
  2
DIVIDE2
 70
     0
  3
Divide (.5x) __..__..__..__..__..__..__..__.._
 72
    65
 73
     6
 40
0.625
 49
0.25
 74
     0
 49
-0.125
 74
     0
 49
0.0
 74
     0
 49
-0.125
 74
     0
 49
0.0
 74
     0
 49
-0.125
 74
     0
  0
LTYPE
  5
FB
330
5
100
AcDbSymbolTableRecord
100
AcDbLinetypeTableRecord
  2
DIVIDEX2
 70
     0
  3
Divide (2x) ________  .  .  ________  .  .  _
 72
    65
 73
     6
 40
2.5
 49
1.0
 74
     0
 49
-0.5
 74
     0
 49
0.0
 74
     0
 49
-0.5
 74
     0
 49
0.0
 74
     0
 49
-0.5
 74
     0
  0
LTYPE
  5
FC
330
5
100
AcDbSymbolTableRecord
100
AcDbLinetypeTableRecord
  2
DOT
 70
     0
  3
Dot . . . . . . . . . . . . . . . . . . . . . .
 72
    65
 73
     2
 40
0.25
 49
0.0
 74
     0
 49
-0.25
 74
     0
  0
LTYPE
  5
FD
330
5
100
AcDbSymbolTableRecord
100
AcDbLinetypeTableRecord
  2
DOT2
 70
     0
  3
Dot (.5x) .....................................
 72
    65
 73
     2
 40
0.125
 49
0.0
 74
     0
 49
-0.125
 74
     0
  0
LTYPE
  5
FE
330
5
100
AcDbSymbolTableRecord
100
AcDbLinetypeTableRecord
  2
DOTX2
 70
     0
  3
Dot (2x) .  .  .  .  .  .  .  .  .  .  .  .  . 
 72
    65
 73
     2
 40
0.5
 49
0.0
 74
     0
 49
-0.5
 74
     0
  0
LTYPE
  5
FF
330
5
100
AcDbSymbolTableRecord
100
AcDbLinetypeTableRecord
  2
HIDDEN
 70
     0
  3
Hidden __ __ __ __ __ __ __ __ __ __ __ __ __ _
 72
    65
 73
     2
 40
0.375
 49
0.25
 74
     0
 49
-0.125
 74
     0
  0
LTYPE
  5
100
330
5
100
AcDbSymbolTableRecord
100
AcDbLinetypeTableRecord
  2
HIDDEN2
 70
     0
  3
Hidden (.5x) _ _ _ _ _ _ _ _ _ _ _ _ _ _ _ _ _
 72
    65
 73
     2
 40
0.1875
 49
0.125
 74
     0
 49
-0.0625
 74
     0
  0
LTYPE
  5
101
330
5
100
AcDbSymbolTableRecord
100
AcDbLinetypeTableRecord
  2
HIDDENX2
 70
     0
  3
Hidden (2x) ____ ____ ____ ____ ____ ____ ____
 72
    65
 73
     2
 40
0.75
 49
0.5
 74
     0
 49
-0.25
 74
     0
  0
LTYPE
  5
102
330
5
100
AcDbSymbolTableRecord
100
AcDbLinetypeTableRecord
  2
PHANTOM
 70
     0
  3
Phantom ______  __  __  ______  __  __  ______
 72
    65
 73
     6
 40
2.5
 49
1.25
 74
     0
 49
-0.25
 74
     0
 49
0.25
 74
     0
 49
-0.25
 74
     0
 49
0.25
 74
     0
 49
-0.25
 74
     0
  0
LTYPE
  5
103
330
5
100
AcDbSymbolTableRecord
100
AcDbLinetypeTableRecord
  2
PHANTOM2
 70
     0
  3
Phantom (.5x) ___ _ _ ___ _ _ ___ _ _ ___ _ _
 72
    65
 73
     6
 40
1.25
 49
0.625
 74
     0
 49
-0.125
 74
     0
 49
0.125
 74
     0
 49
-0.125
 74
     0
 49
0.125
 74
     0
 49
-0.125
 74
     0
  0
LTYPE
  5
104
330
5
100
AcDbSymbolTableRecord
100
AcDbLinetypeTableRecord
  2
PHANTOMX2
 70
     0
  3
Phantom (2x) ____________    ____    ____   _
 72
    65
 73
     6
 40
5.0
 49
2.5
 74
     0
 49
-0.5
 74
     0
 49
0.5
 74
     0
 49
-0.5
 74
     0
 49
0.5
 74
     0
 49
-0.5
 74
     0
  0
LTYPE
  5
105
330
5
100
AcDbSymbolTableRecord
100
AcDbLinetypeTableRecord
  2
ACAD_ISO02W100
 70
     0
  3
ISO dash __ __ __ __ __ __ __ __ __ __ __ __ __
 72
    65
 73
     2
 40
0.59
 49
0.47
 74
     0
 49
-0.12
 74
     0
  0
LTYPE
  5
106
330
5
100
AcDbSymbolTableRecord
100
AcDbLinetypeTableRecord
  2
ACAD_ISO03W100
 70
     0
  3
ISO dash space __    __    __    __    __    __
 72
    65
 73
     2
 40
1.179999999999999
 49
0.47
 74
     0
 49
-0.71
 74
     0
  0
LTYPE
  5
107
330
5
100
AcDbSymbolTableRecord
100
AcDbLinetypeTableRecord
  2
ACAD_ISO04W100
 70
     0
  3
ISO long-dash dot ____ . ____ . ____ . ____ . _
 72
    65
 73
     4
 40
1.179999999999999
 49
0.9399999999999998
 74
     0
 49
-0.12
 74
     0
 49
0.0
 74
     0
 49
-0.12
 74
     0
  0
LTYPE
  5
108
330
5
100
AcDbSymbolTableRecord
100
AcDbLinetypeTableRecord
  2
ACAD_ISO05W100
 70
     0
  3
ISO long-dash double-dot ____ .. ____ .. ____ .
 72
    65
 73
     6
 40
1.299999999999999
 49
0.9399999999999998
 74
     0
 49
-0.12
 74
     0
 49
0.0
 74
     0
 49
-0.12
 74
     0
 49
0.0
 74
     0
 49
-0.12
 74
     0
  0
LTYPE
  5
109
330
5
100
AcDbSymbolTableRecord
100
AcDbLinetypeTableRecord
  2
ACAD_ISO06W100
 70
     0
  3
ISO long-dash triple-dot ____ ... ____ ... ____
 72
    65
 73
     8
 40
1.419999999999999
 49
0.9399999999999998
 74
     0
 49
-0.12
 74
     0
 49
0.0
 74
     0
 49
-0.12
 74
     0
 49
0.0
 74
     0
 49
-0.12
 74
     0
 49
0.0
 74
     0
 49
-0.12
 74
     0
  0
LTYPE
  5
10A
330
5
100
AcDbSymbolTableRecord
100
AcDbLinetypeTableRecord
  2
ACAD_ISO07W100
 70
     0
  3
ISO dot . . . . . . . . . . . . . . . . . . . .
 72
    65
 73
     2
 40
0.12
 49
0.0
 74
     0
 49
-0.12
 74
     0
  0
LTYPE
  5
10B
330
5
100
AcDbSymbolTableRecord
100
AcDbLinetypeTableRecord
  2
ACAD_ISO08W100
 70
     0
  3
ISO long-dash short-dash ____ __ ____ __ ____ _
 72
    65
 73
     4
 40
0.95
 49
0.47
 74
     0
 49
-0.12
 74
     0
 49
0.24
 74
     0
 49
-0.12
 74
     0
  0
LTYPE
  5
10C
330
5
100
AcDbSymbolTableRecord
100
AcDbLinetypeTableRecord
  2
ACAD_ISO09W100
 70
     0
  3
ISO long-dash double-short-dash ____ __ __ ____
 72
    65
 73
     6
 40
1.31
 49
0.47
 74
     0
 49
-0.12
 74
     0
 49
0.24
 74
     0
 49
-0.12
 74
     0
 49
0.24
 74
     0
 49
-0.12
 74
     0
  0
LTYPE
  5
10D
330
5
100
AcDbSymbolTableRecord
100
AcDbLinetypeTableRecord
  2
ACAD_ISO10W100
 70
     0
  3
ISO dash dot __ . __ . __ . __ . __ . __ . __ .
 72
    65
 73
     4
 40
0.71
 49
0.47
 74
     0
 49
-0.12
 74
     0
 49
0.0
 74
     0
 49
-0.12
 74
     0
  0
LTYPE
  5
10E
330
5
100
AcDbSymbolTableRecord
100
AcDbLinetypeTableRecord
  2
ACAD_ISO11W100
 70
     0
  3
ISO double-dash dot __ __ . __ __ . __ __ . __ 
 72
    65
 73
     6
 40
1.299999999999999
 49
0.47
 74
     0
 49
-0.12
 74
     0
 49
0.47
 74
     0
 49
-0.12
 74
     0
 49
0.0
 74
     0
 49
-0.12
 74
     0
  0
LTYPE
  5
10F
330
5
100
AcDbSymbolTableRecord
100
AcDbLinetypeTableRecord
  2
ACAD_ISO12W100
 70
     0
  3
ISO dash double-dot __ . . __ . . __ . . __ . .
 72
    65
 73
     6
 40
0.8299999999999998
 49
0.47
 74
     0
 49
-0.12
 74
     0
 49
0.0
 74
     0
 49
-0.12
 74
     0
 49
0.0
 74
     0
 49
-0.12
 74
     0
  0
LTYPE
  5
110
330
5
100
AcDbSymbolTableRecord
100
AcDbLinetypeTableRecord
  2
ACAD_ISO13W100
 70
     0
  3
ISO double-dash double-dot __ __ . . __ __ . . 
 72
    65
 73
     8
 40
1.419999999999999
 49
0.47
 74
     0
 49
-0.12
 74
     0
 49
0.47
 74
     0
 49
-0.12
 74
     0
 49
0.0
 74
     0
 49
-0.12
 74
     0
 49
0.0
 74
     0
 49
-0.12
 74
     0
  0
LTYPE
  5
111
330
5
100
AcDbSymbolTableRecord
100
AcDbLinetypeTableRecord
  2
ACAD_ISO14W100
 70
     0
  3
ISO dash triple-dot __ . . . __ . . . __ . . . 
 72
    65
 73
     8
 40
0.95
 49
0.47
 74
     0
 49
-0.12
 74
     0
 49
0.0
 74
     0
 49
-0.12
 74
     0
 49
0.0
 74
     0
 49
-0.12
 74
     0
 49
0.0
 74
     0
 49
-0.12
 74
     0
  0
LTYPE
  5
112
330
5
100
AcDbSymbolTableRecord
100
AcDbLinetypeTableRecord
  2
ACAD_ISO15W100
 70
     0
  3
ISO double-dash triple-dot __ __ . . . __ __ . 
 72
    65
 73
    10
 40
1.539999999999999
 49
0.47
 74
     0
 49
-0.12
 74
     0
 49
0.47
 74
     0
 49
-0.12
 74
     0
 49
0.0
 74
     0
 49
-0.12
 74
     0
 49
0.0
 74
     0
 49
-0.12
 74
     0
 49
0.0
 74
     0
 49
-0.12
 74
     0
  0
LTYPE
  5
115
330
5
100
AcDbSymbolTableRecord
100
AcDbLinetypeTableRecord
  2
FENCELINE1
 70
     0
  3
Fenceline circle ----0-----0----0-----0----0---
 72
    65
 73
     4
 40
1.45
 49
0.25
 74
     0
 49
-0.1
 74
     4
 75
   133
340
114
 46
0.1
 50
0.0
 44
-0.1
 45
0.0
 49
-0.1
 74
     0
 49
1.0
 74
     0
  0
LTYPE
  5
116
330
5
100
AcDbSymbolTableRecord
100
AcDbLinetypeTableRecord
  2
FENCELINE2
 70
     0
  3
Fenceline square ----[]-----[]----[]-----[]----
 72
    65
 73
     4
 40
1.45
 49
0.25
 74
     0
 49
-0.1
 74
     4
 75
   132
340
114
 46
0.1
 50
0.0
 44
-0.1
 45
0.0
 49
-0.1
 74
     0
 49
1.0
 74
     0
  0
LTYPE
  5
117
330
5
100
AcDbSymbolTableRecord
100
AcDbLinetypeTableRecord
  2
TRACKS
 70
     0
  3
Tracks -|-|-|-|-|-|-|-|-|-|-|-|-|-|-|-|-|-|-|-|
 72
    65
 73
     2
 40
0.3
 49
0.15
 74
     4
 75
   130
340
114
 46
0.25
 50
0.0
 44
0.0
 45
0.0
 49
0.15
 74
     0
  0
LTYPE
  5
118
330
5
100
AcDbSymbolTableRecord
100
AcDbLinetypeTableRecord
  2
BATTING
 70
     0
  3
Batting SSSSSSSSSSSSSSSSSSSSSSSSSSSSSSSSSSSSSSS
 72
    65
 73
     4
 40
0.4001000000000001
 49
0.0001
 74
     0
 49
-0.1
 74
     4
 75
   134
340
114
 46
0.1
 50
0.0
 44
-0.1
 45
0.0
 49
-0.2
 74
     4
 75
   134
340
114
 46
0.1
 50
180.0
 44
0.1
 45
0.0
 49
-0.1
 74
     0
  0
LTYPE
  5
119
330
5
100
AcDbSymbolTableRecord
100
AcDbLinetypeTableRecord
  2
HOT_WATER_SUPPLY
 70
     0
  3
Hot water supply ---- HW ---- HW ---- HW ----
 72
    65
 73
     3
 40
0.9
 49
0.5
 74
     0
 49
-0.2
 74
     2
 75
     0
340
55
 46
0.1
 50
0.0
 44
-0.1
 45
-0.05
  9
HW
 49
-0.2
 74
     0
  0
LTYPE
  5
11A
330
5
100
AcDbSymbolTableRecord
100
AcDbLinetypeTableRecord
  2
GAS_LINE
 70
     0
  3
Gas line ----GAS----GAS----GAS----GAS----GAS---
 72
    65
 73
     3
 40
0.95
 49
0.5
 74
     0
 49
-0.2
 74
     2
 75
     0
340
55
 46
0.1
 50
0.0
 44
-0.1
 45
-0.05
  9
GAS
 49
-0.25
 74
     0
  0
LTYPE
  5
11B
330
5
100
AcDbSymbolTableRecord
100
AcDbLinetypeTableRecord
  2
ZIGZAG
 70
     0
  3
Zig zag /\/\/\/\/\/\/\/\/\/\/\/\/\/\/\/\/\/\/\/
 72
    65
 73
     4
 40
0.8001000000000001
 49
0.0001
 74
     0
 49
-0.2
 74
     4
 75
   131
340
114
 46
0.2
 50
0.0
 44
-0.2
 45
0.0
 49
-0.4
 74
     4
 75
   131
340
114
 46
0.2
 50
180.0
 44
0.2
 45
0.0
 49
-0.2
 74
     0
  0
ENDTAB
  0
TABLE
  2
LAYER
  5
2
330
0
100
AcDbSymbolTable
 70
    27
  0
LAYER
  5
54
330
2
100
AcDbSymbolTableRecord
100
AcDbLayerTableRecord
  2
0
 70
     0
 62
     7
  6
Continuous
370
    18
390
F
  0
LAYER
  5
75
330
2
100
AcDbSymbolTableRecord
100
AcDbLayerTableRecord
  2
Symbol (ANSI)
 70
     0
 62
     7
  6
Continuous
370
    18
390
F
  0
LAYER
  5
125
330
2
100
AcDbSymbolTableRecord
100
AcDbLayerTableRecord
  2
Dimension (ANSI)
 70
     0
 62
     7
  6
Continuous
370
    13
390
F
  0
LAYER
  5
127
330
2
100
AcDbSymbolTableRecord
100
AcDbLayerTableRecord
  2
Hidden (ANSI)
 70
     0
 62
     7
  6
DASHED
370
    15
390
F
  0
LAYER
  5
130
330
2
100
AcDbSymbolTableRecord
100
AcDbLayerTableRecord
  2
Visible (ANSI)
 70
     0
 62
     7
  6
Continuous
370
    13
390
F
  0
LAYER
  5
131
330
2
100
AcDbSymbolTableRecord
100
AcDbLayerTableRecord
  2
Visible Narrow (ANSI)
 70
     0
 62
     7
  6
Continuous
370
    18
390
F
  0
LAYER
  5
25F
330
2
100
AcDbSymbolTableRecord
100
AcDbLayerTableRecord
  2
Defpoints
 70
     0
 62
     7
  6
Continuous
290
     0
370
    -3
390
F
  0
ENDTAB
  0
TABLE
  2
STYLE
  5
3
330
0
100
AcDbSymbolTable
 70
    18
  0
STYLE
  5
55
330
3
100
AcDbSymbolTableRecord
100
AcDbTextStyleTableRecord
  2
Standard
 70
     0
 40
0.0
 41
1.0
 50
0.0
 71
     0
 42
0.2
  3
txt
  4

  0
STYLE
  5
5A
330
3
100
AcDbSymbolTableRecord
100
AcDbTextStyleTableRecord
  2
Annotative
 70
     0
 40
0.0
 41
1.0
 50
0.0
 71
     0
 42
0.2
  3
txt
  4

1001
AcadAnnotative
1000
AnnotativeData
1002
{
1070
     1
1070
     1
1002
}
  0
STYLE
  5
76
330
3
100
AcDbSymbolTableRecord
100
AcDbTextStyleTableRecord
  2
Note Text (ANSI)
 70
     0
 40
0.0
 41
1.0
 50
0.0
 71
     0
 42
0.2
  3
TAHOMA.TTF
  4

1001
ACAD
1000
Tahoma
1071
      256
  0
STYLE
  5
78
330
3
100
AcDbSymbolTableRecord
100
AcDbTextStyleTableRecord
  2
SANSSERIF
 70
     0
 40
0.125
 41
1.0
 50
0.0
 71
     0
 42
0.125
  3
sas_____.pfb
  4

  0
STYLE
  5
114
330
3
100
AcDbSymbolTableRecord
100
AcDbTextStyleTableRecord
  2

 70
     1
 40
0.0
 41
1.0
 50
0.0
 71
     0
 42
0.2
  3
ltypeshp.shx
  4

  0
STYLE
  5
135
330
3
100
AcDbSymbolTableRecord
100
AcDbTextStyleTableRecord
  2
ITALICC_120
 70
     0
 40
0.0
 41
1.0
 50
0.0
 71
     0
 42
0.2
  3
italicc.shx
  4

  0
STYLE
  5
136
330
3
100
AcDbSymbolTableRecord
100
AcDbTextStyleTableRecord
  2
Label Text (ANSI)
 70
     0
 40
0.0
 41
1.0
 50
0.0
 71
     0
 42
0.2
  3
TAHOMA.TTF
  4

1001
ACAD
1000
Tahoma
1071
      256
  0
STYLE
  5
137
330
3
100
AcDbSymbolTableRecord
100
AcDbTextStyleTableRecord
  2
ROMANS
 70
     0
 40
0.0
 41
1.0
 50
0.0
 71
     0
 42
0.2
  3
romans.shx
  4

  0
STYLE
  5
138
330
3
100
AcDbSymbolTableRecord
100
AcDbTextStyleTableRecord
  2
SANSSERIF_114
 70
     0
 40
0.0
 41
1.0
 50
0.0
 71
     0
 42
0.2
  3
TAHOMA.TTF
  4

1001
ACAD
1000
Tahoma
1071
      256
  0
STYLE
  5
139
330
3
100
AcDbSymbolTableRecord
100
AcDbTextStyleTableRecord
  2
SANSSERIF_117
 70
     0
 40
0.0
 41
1.0
 50
0.0
 71
     0
 42
0.2
  3
TAHOMA.TTF
  4

1001
ACAD
1000
Tahoma
1071
      256
  0
STYLE
  5
13A
330
3
100
AcDbSymbolTableRecord
100
AcDbTextStyleTableRecord
  2
STANDARDAM_ANSI
 70
     0
 40
0.0
 41
1.0
 50
0.0
 71
     0
 42
0.2
  3
txt.shx
  4

  0
STYLE
  5
13B
330
3
100
AcDbSymbolTableRecord
100
AcDbTextStyleTableRecord
  2
StandardAM_ANSI$0
 70
     0
 40
0.0
 41
1.0
 50
0.0
 71
     0
 42
0.2
  3
txt.shx
  4

  0
STYLE
  5
13C
330
3
100
AcDbSymbolTableRecord
100
AcDbTextStyleTableRecord
  2
STANDARDAM_ANSI$3
 70
     0
 40
0.0
 41
1.0
 50
0.0
 71
     0
 42
0.2
  3
txt.shx
  4

  0
STYLE
  5
13D
330
3
100
AcDbSymbolTableRecord
100
AcDbTextStyleTableRecord
  2
STANDARDAM_ANSI$4
 70
     0
 40
0.0
 41
1.0
 50
0.0
 71
     0
 42
0.2
  3
txt.shx
  4

  0
STYLE
  5
13E
330
3
100
AcDbSymbolTableRecord
100
AcDbTextStyleTableRecord
  2
STANDARDAM_ANSI$7
 70
     0
 40
0.0
 41
1.0
 50
0.0
 71
     0
 42
0.2
  3
txt.shx
  4

  0
STYLE
  5
13F
330
3
100
AcDbSymbolTableRecord
100
AcDbTextStyleTableRecord
  2
STANDARDAM_ANSI$SF
 70
     0
 40
0.0
 41
1.0
 50
0.0
 71
     0
 42
0.2
  3
txt.shx
  4

  0
STYLE
  5
140
330
3
100
AcDbSymbolTableRecord
100
AcDbTextStyleTableRecord
  2
STANDARDAM_ANSI$SH
 70
     0
 40
0.0
 41
1.0
 50
0.0
 71
     0
 42
0.2
  3
txt.shx
  4

  0
STYLE
  5
141
330
3
100
AcDbSymbolTableRecord
100
AcDbTextStyleTableRecord
  2
STANDARDSTANDARD
 70
     0
 40
0.0
 41
1.0
 50
0.0
 71
     0
 42
0.2
  3
txt.shx
  4

  0
ENDTAB
  0
TABLE
  2
VIEW
  5
6
330
0
100
AcDbSymbolTable
 70
     0
  0
ENDTAB
  0
TABLE
  2
UCS
  5
7
330
0
100
AcDbSymbolTable
 70
     0
  0
ENDTAB
  0
TABLE
  2
APPID
  5
9
330
0
100
AcDbSymbolTable
 70
     4
  0
APPID
  5
56
330
9
100
AcDbSymbolTableRecord
100
AcDbRegAppTableRecord
  2
ACAD
 70
     0
  0
APPID
  5
5E
330
9
100
AcDbSymbolTableRecord
100
AcDbRegAppTableRecord
  2
AcadAnnotative
 70
     0
  0
APPID
  5
D4B
330
9
100
AcDbSymbolTableRecord
100
AcDbRegAppTableRecord
  2
ACAD_DSTYLE_DIMRADIAL_EXTENSION
 70
     0
  0
APPID
  5
F54
330
9
100
AcDbSymbolTableRecord
100
AcDbRegAppTableRecord
  2
ACAD_MLEADERVER
 70
     0
  0
ENDTAB
  0
TABLE
  2
DIMSTYLE
  5
A
330
0
100
AcDbSymbolTable
 70
    27
100
AcDbDimStyleTable
 71
     2
340
156
340
58
  0
DIMSTYLE
105
58
330
A
100
AcDbSymbolTableRecord
100
AcDbDimStyleTableRecord
  2
STANDARD
 70
     0
 41
0.1800000071525573
 42
0.0625
140
0.1800000071525574
144
1.0
147
0.0900000035762787
176
   256
177
   256
178
   256
274
     3
340
55
371
    -1
372
    -1
  0
DIMSTYLE
105
59
330
A
100
AcDbSymbolTableRecord
100
AcDbDimStyleTableRecord
  2
Annotative
 70
     0
340
55
1001
AcadAnnotative
1000
AnnotativeData
1002
{
1070
     1
1070
     1
1002
}
  0
DIMSTYLE
105
142
330
A
100
AcDbSymbolTableRecord
100
AcDbDimStyleTableRecord
  2
AM_ANSI
 70
     0
  4
 mm
 40
6.896551724137931
 41
0.119999997317791
 42
0.05
 43
0.5
 44
0.1
 45
0.00000001
 78
     4
 79
     2
140
0.1200000047683716
146
0.7099999453624112
147
0.0599999986588955
176
   256
177
   256
178
     2
284
     4
340
13A
371
    -1
372
    -1
  0
DIMSTYLE
105
143
330
A
100
AcDbSymbolTableRecord
100
AcDbDimStyleTableRecord
  2
AM_ANSI$7
 70
     0
  4
 mm
 40
6.896551724137931
 41
0.119999997317791
 42
0.05
 43
0.5
 44
0.1
 45
0.00000001
 78
     4
 79
     2
140
0.1200000047683716
146
0.7099999453624112
147
0.0599999986588955
176
   256
177
   256
178
     2
284
     4
340
13A
371
    -1
372
    -1
  0
DIMSTYLE
105
144
330
A
100
AcDbSymbolTableRecord
100
AcDbDimStyleTableRecord
  2
AM_ANSI$0
 70
     0
  4
 mm
 40
6.896551724137931
 41
0.119999997317791
 42
0.05
 43
0.5
 44
0.1
 45
0.00000001
 78
     4
 79
     2
140
0.1200000047683716
146
0.7099999453624112
147
0.0599999986588955
176
   256
177
   256
178
     2
284
     4
340
13B
371
    -1
372
    -1
  0
DIMSTYLE
105
145
330
A
100
AcDbSymbolTableRecord
100
AcDbDimStyleTableRecord
  2
AM_ANSI$0$7
 70
     0
  4
 mm
 40
6.896551724137931
 41
0.119999997317791
 42
0.05
 43
0.5
 44
0.1
 45
0.00000001
 78
     4
 79
     2
140
0.1200000047683716
146
0.7099999453624112
147
0.0599999986588955
176
   256
177
   256
178
     2
284
     4
340
13B
371
    -1
372
    -1
  0
DIMSTYLE
105
146
330
A
100
AcDbSymbolTableRecord
100
AcDbDimStyleTableRecord
  2
AM_ANSI$3
 70
     0
  4
 mm
 40
6.896551724137931
 41
0.119999997317791
 42
0.05
 43
0.5
 44
0.1
 45
0.00000001
 78
     4
 79
     2
140
0.1200000047683716
146
0.7099999453624112
147
0.0599999986588955
176
   256
177
   256
178
     2
284
     4
340
13C
371
    -1
372
    -1
  0
DIMSTYLE
105
147
330
A
100
AcDbSymbolTableRecord
100
AcDbDimStyleTableRecord
  2
AM_ANSI$3$7
 70
     0
  4
 mm
 40
6.896551724137931
 41
0.119999997317791
 42
0.05
 43
0.5
 44
0.1
 45
0.00000001
 78
     4
 79
     2
140
0.1200000047683716
146
0.7099999453624112
147
0.0599999986588955
176
   256
177
   256
178
     2
284
     4
340
13C
371
    -1
372
    -1
  0
DIMSTYLE
105
148
330
A
100
AcDbSymbolTableRecord
100
AcDbDimStyleTableRecord
  2
AM_ANSI$4
 70
     0
  4
 mm
 40
6.896551724137931
 41
0.119999997317791
 42
0.05
 43
0.5
 44
0.1
 45
0.00000001
 78
     4
 79
     2
140
0.1200000047683716
146
0.7099999453624112
147
0.0599999986588955
176
   256
177
   256
178
     2
284
     4
340
13D
371
    -1
372
    -1
  0
DIMSTYLE
105
149
330
A
100
AcDbSymbolTableRecord
100
AcDbDimStyleTableRecord
  2
AM_ANSI$4$7
 70
     0
  4
 mm
 40
6.896551724137931
 41
0.119999997317791
 42
0.05
 43
0.5
 44
0.1
 45
0.00000001
 78
     4
 79
     2
140
0.1200000047683716
146
0.7099999453624112
147
0.0599999986588955
176
   256
177
   256
178
     2
284
     4
340
13D
371
    -1
372
    -1
  0
DIMSTYLE
105
14A
330
A
100
AcDbSymbolTableRecord
100
AcDbDimStyleTableRecord
  2
AM_ANSI$SF
 70
     0
  4
 mm
 40
6.896551724137931
 41
0.119999997317791
 42
0.05
 43
0.5
 44
0.1
 45
0.00000001
 75
     1
 76
     1
 78
     4
 79
     2
140
0.1200000047683716
146
0.7099999453624112
147
0.0599999986588955
176
   256
177
   256
178
     2
284
     4
340
13F
371
    -1
372
    -1
  0
DIMSTYLE
105
14B
330
A
100
AcDbSymbolTableRecord
100
AcDbDimStyleTableRecord
  2
AM_ANSI$SF$7
 70
     0
  4
 mm
 40
6.896551724137931
 41
0.119999997317791
 42
0.05
 43
0.5
 44
0.1
 45
0.00000001
 75
     1
 76
     1
 78
     4
 79
     2
140
0.1200000047683716
146
0.7099999453624112
147
0.0599999986588955
176
   256
177
   256
178
     2
284
     4
340
13F
371
    -1
372
    -1
  0
DIMSTYLE
105
14C
330
A
100
AcDbSymbolTableRecord
100
AcDbDimStyleTableRecord
  2
AM_ANSI$SH
 70
     0
  4
 mm
 40
6.896551724137931
 41
0.119999997317791
 42
0.05
 43
0.5
 44
0.1
 45
0.00000001
 75
     1
 76
     1
 78
     4
 79
     2
140
0.1200000047683716
146
0.7099999453624112
147
0.0599999986588955
176
   256
177
   256
178
     2
284
     4
340
140
371
    -1
372
    -1
  0
DIMSTYLE
105
14D
330
A
100
AcDbSymbolTableRecord
100
AcDbDimStyleTableRecord
  2
AM_ANSI$SH$7
 70
     0
  4
 mm
 40
6.896551724137931
 41
0.119999997317791
 42
0.05
 43
0.5
 44
0.1
 45
0.00000001
 75
     1
 76
     1
 78
     4
 79
     2
140
0.1200000047683716
146
0.7099999453624112
147
0.0599999986588955
176
   256
177
   256
178
     2
284
     4
340
140
371
    -1
372
    -1
  0
DIMSTYLE
105
14E
330
A
100
AcDbSymbolTableRecord
100
AcDbDimStyleTableRecord
  2
Architectural (ANSI)
 70
     0
 40
6.896551724137931
 41
0.0984251946210861
 43
0.2362204724409449
 44
0.125
 45
0.00000001
 46
0.3937007874015748
 78
     3
 79
     3
140
0.1200000047683716
147
0.031496062992126
171
     1
176
   256
177
   256
178
   256
272
     2
274
     1
276
     2
277
     4
284
    12
285
     4
286
    12
340
76
371
    -1
372
    -1
  0
DIMSTYLE
105
14F
330
A
100
AcDbSymbolTableRecord
100
AcDbDimStyleTableRecord
  2
Architectural (ANSI)$7
 70
     0
 40
6.896551724137931
 41
0.0984251946210861
 43
0.2362204724409449
 44
0.125
 45
0.00000001
 46
0.3937007874015748
 78
     3
 79
     3
140
0.1200000047683716
147
0.031496062992126
171
     1
176
   256
177
   256
178
   256
272
     2
274
     1
276
     2
277
     4
284
    12
285
     4
286
    12
340
76
371
    -1
372
    -1
  0
DIMSTYLE
105
150
330
A
100
AcDbSymbolTableRecord
100
AcDbDimStyleTableRecord
  2
Default - Fraction (ANSI)
 70
     0
 40
6.896551724137931
 41
0.0984251946210861
 43
0.2362204724409449
 44
0.125
 45
0.00000001
 46
0.3937007874015748
 79
     3
140
0.1200000047683716
147
0.031496062992126
171
     1
176
   256
177
   256
178
   256
272
     2
274
     1
276
     2
277
     5
284
    12
285
     4
286
    12
340
76
371
    -1
372
    -1
  0
DIMSTYLE
105
151
330
A
100
AcDbSymbolTableRecord
100
AcDbDimStyleTableRecord
  2
Default - Fraction (ANSI)$7
 70
     0
 40
6.896551724137931
 41
0.0984251946210861
 43
0.2362204724409449
 44
0.125
 45
0.00000001
 46
0.3937007874015748
 79
     3
140
0.1200000047683716
147
0.031496062992126
171
     1
176
   256
177
   256
178
   256
272
     2
274
     1
276
     2
277
     5
284
    12
285
     4
286
    12
340
76
371
    -1
372
    -1
  0
DIMSTYLE
105
152
330
A
100
AcDbSymbolTableRecord
100
AcDbDimStyleTableRecord
  2
Default - mm (ANSI)
 70
     0
 40
6.896551724137931
 41
0.0984251946210861
 42
0.063
 43
0.2362204724409449
 44
0.125
 45
0.00000001
 46
0.3937007874015748
 73
     0
 78
     4
 79
     1
140
0.1200000047683716
143
1.0
144
25.4
147
0.031496062992126
171
     1
176
   256
177
   256
178
   256
179
     1
271
     2
272
     2
274
     1
284
     4
285
     4
340
76
371
    -1
372
    -1
  0
DIMSTYLE
105
153
330
A
100
AcDbSymbolTableRecord
100
AcDbDimStyleTableRecord
  2
Default - mm (ANSI)$7
 70
     0
 40
6.896551724137931
 41
0.0984251946210861
 42
0.063
 43
0.2362204724409449
 44
0.125
 45
0.00000001
 46
0.3937007874015748
 73
     0
 78
     4
 79
     1
140
0.1200000047683716
143
1.0
144
25.4
147
0.031496062992126
171
     1
176
   256
177
   256
178
   256
179
     1
271
     2
272
     2
274
     1
284
     4
285
     4
340
76
371
    -1
372
    -1
  0
DIMSTYLE
105
154
330
A
100
AcDbSymbolTableRecord
100
AcDbDimStyleTableRecord
  2
Default - mm [in] (ANSI)
 70
     0
  4
 in
 40
6.896551724137931
 41
0.0984251946210861
 42
0.063
 43
0.25
 44
0.125
 45
0.00000001
 46
0.3937007874015748
 73
     0
 78
     4
 79
     1
140
0.1200000047683716
143
0.03937
144
25.4
147
0.031496062992126
170
     1
171
     3
176
   256
177
   256
178
   256
179
     1
271
     2
272
     2
274
     3
284
     4
285
     4
286
     4
340
76
371
    -1
372
    -1
  0
DIMSTYLE
105
155
330
A
100
AcDbSymbolTableRecord
100
AcDbDimStyleTableRecord
  2
Default - mm [in] (ANSI)$7
 70
     0
  4
 in
 40
6.896551724137931
 41
0.0984251946210861
 42
0.063
 43
0.25
 44
0.125
 45
0.00000001
 46
0.3937007874015748
 73
     0
 78
     4
 79
     1
140
0.1200000047683716
143
0.03937
144
25.4
147
0.031496062992126
170
     1
171
     3
176
   256
177
   256
178
   256
179
     1
271
     2
272
     2
274
     3
284
     4
285
     4
286
     4
340
76
371
    -1
372
    -1
  0
DIMSTYLE
105
156
102
{ACAD_REACTORS
330
25D
330
34A
330
434
330
534
330
634
330
71E
330
808
330
8F2
330
9DC
330
AC8
330
BC8
330
CB2
330
D6C
330
E25
102
}
330
A
100
AcDbSymbolTableRecord
100
AcDbDimStyleTableRecord
  2
Default (ANSI)
 70
     0
 40
6.896551724137931
 41
0.0984251946210861
 43
0.2362204724409449
 44
0.125
 45
0.00000001
 46
0.3937007874015748
 79
     1
140
0.1200000047683716
147
0.031496062992126
171
     1
176
   256
177
   256
178
   256
271
     2
272
     2
274
     1
284
     4
285
     4
340
76
371
    -1
372
    -1
  0
DIMSTYLE
105
157
330
A
100
AcDbSymbolTableRecord
100
AcDbDimStyleTableRecord
  2
Default (ANSI)$7
 70
     0
 40
6.896551724137931
 41
0.0984251946210861
 43
0.2362204724409449
 44
0.125
 45
0.00000001
 46
0.3937007874015748
 79
     1
140
0.1200000047683716
147
0.031496062992126
171
     1
176
   256
177
   256
178
   256
271
     2
272
     2
274
     1
284
     4
285
     4
340
76
371
    -1
372
    -1
  0
DIMSTYLE
105
158
330
A
100
AcDbSymbolTableRecord
100
AcDbDimStyleTableRecord
  2
Alternate (ANSI)
 70
     0
 40
6.896551724137931
 41
0.0979999974370003
340
55
342
159
  0
DIMSTYLE
105
16B
330
A
100
AcDbSymbolTableRecord
100
AcDbDimStyleTableRecord
  2
Datum (ANSI)
 70
     0
 40
6.896551724137931
 41
0.0979999974370003
340
55
342
159
  0
DIMSTYLE
105
17A
330
A
100
AcDbSymbolTableRecord
100
AcDbDimStyleTableRecord
  2
Large (ANSI)
 70
     0
 40
6.896551724137931
 41
0.1959999948740005
340
55
342
159
  0
ENDTAB
  0
TABLE
  2
BLOCK_RECORD
  5
1
330
0
100
AcDbSymbolTable
 70
    18
  0
BLOCK_RECORD
  5
6C
330
1
100
AcDbSymbolTableRecord
100
AcDbBlockTableRecord
  2
*Model_Space
340
6F
  0
BLOCK_RECORD
  5
68
330
1
100
AcDbSymbolTableRecord
100
AcDbBlockTableRecord
  2
*Paper_Space
340
6B
  0
BLOCK_RECORD
  5
70
330
1
100
AcDbSymbolTableRecord
100
AcDbBlockTableRecord
  2
*Paper_Space0
340
73
  0
BLOCK_RECORD
  5
159
330
1
100
AcDbSymbolTableRecord
100
AcDbBlockTableRecord
  2
_Closed
340
0
  0
BLOCK_RECORD
  5
160
330
1
100
AcDbSymbolTableRecord
100
AcDbBlockTableRecord
  2
DatumFilled45
340
0
  0
BLOCK_RECORD
  5
16C
330
1
100
AcDbSymbolTableRecord
100
AcDbBlockTableRecord
  2
Filled-1
340
0
  0
BLOCK_RECORD
  5
260
330
1
100
AcDbSymbolTableRecord
100
AcDbBlockTableRecord
  2
*D4
340
0
  0
BLOCK_RECORD
  5
34B
330
1
100
AcDbSymbolTableRecord
100
AcDbBlockTableRecord
  2
*D5
340
0
  0
BLOCK_RECORD
  5
435
330
1
100
AcDbSymbolTableRecord
100
AcDbBlockTableRecord
  2
*D6
340
0
  0
BLOCK_RECORD
  5
535
330
1
100
AcDbSymbolTableRecord
100
AcDbBlockTableRecord
  2
*D7
340
0
  0
BLOCK_RECORD
  5
635
330
1
100
AcDbSymbolTableRecord
100
AcDbBlockTableRecord
  2
*D8
340
0
  0
BLOCK_RECORD
  5
71F
330
1
100
AcDbSymbolTableRecord
100
AcDbBlockTableRecord
  2
*D9
340
0
  0
BLOCK_RECORD
  5
809
330
1
100
AcDbSymbolTableRecord
100
AcDbBlockTableRecord
  2
*D10
340
0
  0
BLOCK_RECORD
  5
8F3
330
1
100
AcDbSymbolTableRecord
100
AcDbBlockTableRecord
  2
*D11
340
0
  0
BLOCK_RECORD
  5
9DD
330
1
100
AcDbSymbolTableRecord
100
AcDbBlockTableRecord
  2
*D12
340
0
  0
BLOCK_RECORD
  5
AC9
330
1
100
AcDbSymbolTableRecord
100
AcDbBlockTableRecord
  2
*D13
340
0
  0
BLOCK_RECORD
  5
BC9
330
1
100
AcDbSymbolTableRecord
100
AcDbBlockTableRecord
  2
*D14
340
0
  0
BLOCK_RECORD
  5
CB3
330
1
100
AcDbSymbolTableRecord
100
AcDbBlockTableRecord
  2
*D15
340
0
  0
BLOCK_RECORD
  5
D6D
330
1
100
AcDbSymbolTableRecord
100
AcDbBlockTableRecord
  2
*D16
340
0
  0
BLOCK_RECORD
  5
E26
330
1
100
AcDbSymbolTableRecord
100
AcDbBlockTableRecord
  2
*D17
340
0
  0
ENDTAB
  0
ENDSEC
  0
SECTION
  2
BLOCKS
  0
BLOCK
  5
6D
330
6C
100
AcDbEntity
  8
0
100
AcDbBlockBegin
  2
*Model_Space
 70
     0
 10
0.0
 20
0.0
 30
0.0
  3
*Model_Space
  1

  0
ENDBLK
  5
6E
330
6C
100
AcDbEntity
  8
0
100
AcDbBlockEnd
  0
BLOCK
  5
69
330
68
100
AcDbEntity
 67
     1
  8
0
100
AcDbBlockBegin
  2
*Paper_Space
 70
     0
 10
0.0
 20
0.0
 30
0.0
  3
*Paper_Space
  1

  0
ENDBLK
  5
6A
330
68
100
AcDbEntity
 67
     1
  8
0
100
AcDbBlockEnd
  0
BLOCK
  5
71
330
70
100
AcDbEntity
 67
     1
  8
0
100
AcDbBlockBegin
  2
*Paper_Space0
 70
     0
 10
0.0
 20
0.0
 30
0.0
  3
*Paper_Space0
  1

  0
ENDBLK
  5
72
330
70
100
AcDbEntity
 67
     1
  8
0
100
AcDbBlockEnd
  0
BLOCK
  5
15E
330
159
100
AcDbEntity
  8
0
100
AcDbBlockBegin
  2
_Closed
 70
     0
 10
0.0
 20
0.0
 30
0.0
  3
_Closed
  1

  0
LINE
  5
15A
330
159
100
AcDbEntity
  8
0
  6
ByBlock
 62
     0
370
    -2
100
AcDbLine
 10
-1.0
 20
0.1666666666666666
 30
0.0
 11
0.0
 21
0.0
 31
0.0
  0
LINE
  5
15B
330
159
100
AcDbEntity
  8
0
  6
ByBlock
 62
     0
370
    -2
100
AcDbLine
 10
0.0
 20
0.0
 30
0.0
 11
-1.0
 21
-0.1666666666666666
 31
0.0
  0
LINE
  5
15C
330
159
100
AcDbEntity
  8
0
  6
ByBlock
 62
     0
370
    -2
100
AcDbLine
 10
-1.0
 20
0.1666666666666666
 30
0.0
 11
-1.0
 21
-0.1666666666666666
 31
0.0
  0
LINE
  5
15D
330
159
100
AcDbEntity
  8
0
  6
ByBlock
 62
     0
370
    -2
100
AcDbLine
 10
0.0
 20
0.0
 30
0.0
 11
-1.0
 21
0.0
 31
0.0
  0
ENDBLK
  5
15F
330
159
100
AcDbEntity
  8
0
100
AcDbBlockEnd
  0
BLOCK
  5
161
330
160
100
AcDbEntity
  8
0
100
AcDbBlockBegin
  2
DatumFilled45
 70
     0
 10
0.0
 20
0.0
 30
0.0
  3
DatumFilled45
  1

  0
POLYLINE
  5
163
330
160
100
AcDbEntity
  8
0
 62
     0
100
AcDb2dPolyline
 66
     1
 10
0.0
 20
0.0
 30
0.0
 70
   128
  0
VERTEX
  5
164
330
163
100
AcDbEntity
  8
0
 62
     0
100
AcDbVertex
100
AcDb2dVertex
 10
0.0
 20
0.9999999999999998
 30
0.0
  0
VERTEX
  5
165
330
163
100
AcDbEntity
  8
0
 62
     0
100
AcDbVertex
100
AcDb2dVertex
 10
0.0
 20
-0.9999999999999998
 30
0.0
  0
VERTEX
  5
167
330
163
100
AcDbEntity
  8
0
 62
     0
100
AcDbVertex
100
AcDb2dVertex
 10
-0.9999999999999998
 20
0.0
 30
0.0
  0
VERTEX
  5
168
330
163
100
AcDbEntity
  8
0
 62
     0
100
AcDbVertex
100
AcDb2dVertex
 10
0.0
 20
0.9999999999999998
 30
0.0
  0
SEQEND
  5
166
330
163
100
AcDbEntity
  8
0
 62
     0
  0
SOLID
  5
16A
330
160
100
AcDbEntity
  8
0
 62
     0
100
AcDbTrace
 10
0.0
 20
0.9999999999999998
 30
0.0
 11
0.0
 21
-0.9999999999999998
 31
0.0
 12
-0.9999999999999998
 22
0.0
 32
0.0
 13
0.0
 23
0.9999999999999998
 33
0.0
  0
ENDBLK
  5
162
330
160
100
AcDbEntity
  8
0
100
AcDbBlockEnd
  0
BLOCK
  5
16D
330
16C
100
AcDbEntity
  8
0
100
AcDbBlockBegin
  2
Filled-1
 70
     0
 10
0.0
 20
0.0
 30
0.0
  3
Filled-1
  1

  0
LINE
  5
16F
330
16C
100
AcDbEntity
  8
0
 62
     0
100
AcDbLine
 10
-0.9999999999999998
 20
0.0
 30
0.0
 11
0.0
 21
0.0
 31
0.0
  0
POLYLINE
  5
170
330
16C
100
AcDbEntity
  8
0
 62
     0
100
AcDb2dPolyline
 66
     1
 10
0.0
 20
0.0
 30
0.0
 70
   128
  0
VERTEX
  5
171
330
170
100
AcDbEntity
  8
0
 62
     0
100
AcDbVertex
100
AcDb2dVertex
 10
-0.9999999999999998
 20
-0.0994897959183674
 30
0.0
  0
VERTEX
  5
172
330
170
100
AcDbEntity
  8
0
 62
     0
100
AcDbVertex
100
AcDb2dVertex
 10
0.0
 20
0.0
 30
0.0
  0
VERTEX
  5
174
330
170
100
AcDbEntity
  8
0
 62
     0
100
AcDbVertex
100
AcDb2dVertex
 10
-0.9999999999999998
 20
0.0994897959183674
 30
0.0
  0
VERTEX
  5
175
330
170
100
AcDbEntity
  8
0
 62
     0
100
AcDbVertex
100
AcDb2dVertex
 10
-0.9999999999999998
 20
-0.0994897959183674
 30
0.0
  0
SEQEND
  5
173
330
170
100
AcDbEntity
  8
0
 62
     0
  0
SOLID
  5
176
330
16C
100
AcDbEntity
  8
0
 62
     0
100
AcDbTrace
 10
-0.9999999999999998
 20
-0.0994897959183674
 30
0.0
 11
0.0
 21
0.0
 31
0.0
 12
-0.9999999999999998
 22
0.0994897959183674
 32
0.0
 13
-0.9999999999999998
 23
-0.0994897959183674
 33
0.0
  0
LINE
  5
177
330
16C
100
AcDbEntity
  8
0
 62
     0
100
AcDbLine
 10
-0.9999999999999998
 20
-0.0994897959183674
 30
0.0
 11
0.0
 21
0.0
 31
0.0
  0
LINE
  5
178
330
16C
100
AcDbEntity
  8
0
 62
     0
100
AcDbLine
 10
0.0
 20
0.0
 30
0.0
 11
-0.9999999999999998
 21
0.0994897959183674
 31
0.0
  0
LINE
  5
179
330
16C
100
AcDbEntity
  8
0
 62
     0
100
AcDbLine
 10
-0.9999999999999998
 20
0.0994897959183674
 30
0.0
 11
-0.9999999999999998
 21
-0.0994897959183674
 31
0.0
  0
ENDBLK
  5
16E
330
16C
100
AcDbEntity
  8
0
100
AcDbBlockEnd
  0
BLOCK
  5
261
330
260
100
AcDbEntity
  8
0
100
AcDbBlockBegin
  2
*D4
 70
     1
 10
0.0
 20
0.0
 30
0.0
  3
*D4
  1

  0
LINE
  5
340
330
260
100
AcDbEntity
  8
Dimension (ANSI)
100
AcDbLine
 10
17.38812978782394
 20
15.62309724831665
 30
0.0
 11
4.908619779020138
 21
15.62309724831665
 31
0.0
  0
LINE
  5
341
330
260
100
AcDbEntity
  8
Dimension (ANSI)
100
AcDbLine
 10
18.60612978782393
 20
61.82309724831664
 30
0.0
 11
4.908619779020148
 21
61.82309724831664
 31
0.0
  0
LINE
  5
342
330
260
100
AcDbEntity
  8
Dimension (ANSI)
100
AcDbLine
 10
5.770688744537381
 20
16.30189169397932
 30
0.0
 11
5.770688744537387
 21
38.07486010006558
 31
0.0
  0
LINE
  5
343
330
260
100
AcDbEntity
  8
Dimension (ANSI)
100
AcDbLine
 10
5.770688744537391
 20
61.14430280265398
 30
0.0
 11
5.770688744537387
 21
39.37133439656772
 31
0.0
  0
SOLID
  5
344
330
260
100
AcDbEntity
  8
Dimension (ANSI)
100
AcDbTrace
 10
5.657556336926938
 20
16.30189169397932
 30
0.0
 11
5.883821152147825
 21
16.30189169397932
 31
0.0
 12
5.770688744537381
 22
15.62309724831665
 32
0.0
 13
5.770688744537381
 23
15.62309724831665
 33
0.0
  0
SOLID
  5
345
330
260
100
AcDbEntity
  8
Dimension (ANSI)
100
AcDbTrace
 10
5.657556336926948
 20
61.14430280265398
 30
0.0
 11
5.883821152147834
 21
61.14430280265398
 31
0.0
 12
5.770688744537391
 22
61.82309724831664
 32
0.0
 13
5.770688744537391
 23
61.82309724831664
 33
0.0
  0
MTEXT
  5
346
330
260
100
AcDbEntity
  8
Dimension (ANSI)
100
AcDbMText
 10
4.38980357815856
 20
39.15412016903582
 30
0.0
 40
0.827586239781873
 41
0.0
 71
     1
 72
     1
  1
\A1;46.20
  7
Note Text (ANSI)
 73
     1
 44
1.0
1001
ACAD
1000
MTEXTBEGIN
1070
    73
1070
     1
1070
    44
1040
1.0
1070
    74
1070
     0
1000
MTEXTEND
  0
POINT
  5
347
330
260
100
AcDbEntity
  8
Defpoints
 62
     0
100
AcDbPoint
 10
17.81916427058256
 20
15.62309724831665
 30
0.0
  0
POINT
  5
348
330
260
100
AcDbEntity
  8
Defpoints
 62
     0
100
AcDbPoint
 10
19.03716427058254
 20
61.82309724831664
 30
0.0
  0
POINT
  5
349
330
260
100
AcDbEntity
  8
Defpoints
 62
     0
100
AcDbPoint
 10
5.770688744537391
 20
61.82309724831664
 30
0.0
  0
ENDBLK
  5
262
330
260
100
AcDbEntity
  8
0
100
AcDbBlockEnd
  0
BLOCK
  5
34C
330
34B
100
AcDbEntity
  8
0
100
AcDbBlockBegin
  2
*D5
 70
     1
 10
0.0
 20
0.0
 30
0.0
  3
*D5
  1

  0
LINE
  5
42A
330
34B
100
AcDbEntity
  8
Dimension (ANSI)
100
AcDbLine
 10
17.31916427058254
 20
61.75413173107526
 30
0.0
 11
17.31916427058254
 21
72.03451554786596
 31
0.0
  0
LINE
  5
42B
330
34B
100
AcDbEntity
  8
Dimension (ANSI)
100
AcDbLine
 10
51.51916427058254
 20
61.75413173107527
 30
0.0
 11
51.51916427058254
 21
72.03451554786596
 31
0.0
  0
LINE
  5
42C
330
34B
100
AcDbEntity
  8
Dimension (ANSI)
100
AcDbLine
 10
17.99795871624521
 20
71.17244658234873
 30
0.0
 11
32.83690517743326
 21
71.17244658234873
 31
0.0
  0
LINE
  5
42D
330
34B
100
AcDbEntity
  8
Dimension (ANSI)
100
AcDbLine
 10
50.84036982491988
 20
71.17244658234873
 30
0.0
 11
36.00142336373183
 21
71.17244658234873
 31
0.0
  0
SOLID
  5
42E
330
34B
100
AcDbEntity
  8
Dimension (ANSI)
100
AcDbTrace
 10
17.99795871624521
 20
71.28557898995918
 30
0.0
 11
17.99795871624521
 21
71.05931417473827
 31
0.0
 12
17.31916427058254
 22
71.17244658234873
 32
0.0
 13
17.31916427058254
 23
71.17244658234873
 33
0.0
  0
SOLID
  5
42F
330
34B
100
AcDbEntity
  8
Dimension (ANSI)
100
AcDbTrace
 10
50.84036982491988
 20
71.28557898995918
 30
0.0
 11
50.84036982491988
 21
71.05931417473827
 31
0.0
 12
51.51916427058254
 22
71.17244658234873
 32
0.0
 13
51.51916427058254
 23
71.17244658234873
 33
0.0
  0
MTEXT
  5
430
330
34B
100
AcDbEntity
  8
Dimension (ANSI)
100
AcDbMText
 10
33.05411940496516
 20
71.6034695030679
 30
0.0
 40
0.827586239781873
 41
0.0
 71
     1
 72
     1
  1
\A1;34.20
  7
Note Text (ANSI)
 73
     1
 44
1.0
1001
ACAD
1000
MTEXTBEGIN
1070
    73
1070
     1
1070
    44
1040
1.0
1070
    74
1070
     0
1000
MTEXTEND
  0
POINT
  5
431
330
34B
100
AcDbEntity
  8
Defpoints
 62
     0
100
AcDbPoint
 10
17.31916427058254
 20
61.32309724831664
 30
0.0
  0
POINT
  5
432
330
34B
100
AcDbEntity
  8
Defpoints
 62
     0
100
AcDbPoint
 10
51.51916427058254
 20
61.32309724831665
 30
0.0
  0
POINT
  5
433
330
34B
100
AcDbEntity
  8
Defpoints
 62
     0
100
AcDbPoint
 10
51.51916427058254
 20
71.17244658234873
 30
0.0
  0
ENDBLK
  5
34D
330
34B
100
AcDbEntity
  8
0
100
AcDbBlockEnd
  0
BLOCK
  5
436
330
435
100
AcDbEntity
  8
0
100
AcDbBlockBegin
  2
*D6
 70
     1
 10
0.0
 20
0.0
 30
0.0
  3
*D6
  1

  0
LINE
  5
529
330
435
100
AcDbEntity
  8
Dimension (ANSI)
100
AcDbLine
 10
17.40812978782394
 20
16.14309724831665
 30
0.0
 11
14.98766975479303
 21
16.14309724831665
 31
0.0
  0
LINE
  5
52A
330
435
100
AcDbEntity
  8
Dimension (ANSI)
100
AcDbLine
 10
17.40812978782394
 20
16.89309724831665
 30
0.0
 11
14.98766975479303
 21
16.89309724831665
 31
0.0
  0
LINE
  5
52B
330
435
100
AcDbEntity
  8
Dimension (ANSI)
100
AcDbLine
 10
15.84973872031027
 20
17.57189169397932
 30
0.0
 11
15.84973872031027
 21
18.25068613964198
 31
0.0
  0
LINE
  5
52C
330
435
100
AcDbEntity
  8
Dimension (ANSI)
100
AcDbLine
 10
15.84973872031027
 20
15.46430280265399
 30
0.0
 11
15.84973872031027
 21
14.16631795111104
 31
0.0
  0
LINE
  5
52D
330
435
100
AcDbEntity
  8
Dimension (ANSI)
100
AcDbLine
 10
15.84973872031027
 20
14.16631795111104
 30
0.0
 11
15.17094427464761
 21
14.16631795111104
 31
0.0
  0
SOLID
  5
52E
330
435
100
AcDbEntity
  8
Dimension (ANSI)
100
AcDbTrace
 10
15.73660631269983
 20
17.57189169397932
 30
0.0
 11
15.96287112792072
 21
17.57189169397932
 31
0.0
 12
15.84973872031027
 22
16.89309724831665
 32
0.0
 13
15.84973872031027
 23
16.89309724831665
 33
0.0
  0
SOLID
  5
52F
330
435
100
AcDbEntity
  8
Dimension (ANSI)
100
AcDbTrace
 10
15.73660631269983
 20
15.46430280265399
 30
0.0
 11
15.96287112792072
 21
15.46430280265399
 31
0.0
 12
15.84973872031027
 22
16.14309724831665
 32
0.0
 13
15.84973872031027
 23
16.14309724831665
 33
0.0
  0
MTEXT
  5
530
330
435
100
AcDbEntity
  8
Dimension (ANSI)
100
AcDbMText
 10
12.85058274601792
 20
14.59706297181685
 30
0.0
 40
0.827586239781873
 41
0.0
 71
     1
 72
     1
  1
\A1;0.75
  7
Note Text (ANSI)
 73
     1
 44
1.0
1001
ACAD
1000
MTEXTBEGIN
1070
    73
1070
     1
1070
    44
1040
1.0
1070
    74
1070
     0
1000
MTEXTEND
  0
POINT
  5
531
330
435
100
AcDbEntity
  8
Defpoints
 62
     0
100
AcDbPoint
 10
17.83916427058256
 20
16.14309724831665
 30
0.0
  0
POINT
  5
532
330
435
100
AcDbEntity
  8
Defpoints
 62
     0
100
AcDbPoint
 10
17.83916427058256
 20
16.89309724831665
 30
0.0
  0
POINT
  5
533
330
435
100
AcDbEntity
  8
Defpoints
 62
     0
100
AcDbPoint
 10
15.84973872031027
 20
16.89309724831665
 30
0.0
  0
ENDBLK
  5
437
330
435
100
AcDbEntity
  8
0
100
AcDbBlockEnd
  0
BLOCK
  5
536
330
535
100
AcDbEntity
  8
0
100
AcDbBlockBegin
  2
*D7
 70
     1
 10
0.0
 20
0.0
 30
0.0
  3
*D7
  1

  0
LINE
  5
629
330
535
100
AcDbEntity
  8
Dimension (ANSI)
100
AcDbLine
 10
51.45019875334117
 20
61.82309724831664
 30
0.0
 11
59.07883042022061
 21
61.82309724831664
 31
0.0
  0
LINE
  5
62A
330
535
100
AcDbEntity
  8
Dimension (ANSI)
100
AcDbLine
 10
51.43019875334116
 20
61.30309724831665
 30
0.0
 11
59.07883042022061
 21
61.30309724831665
 31
0.0
  0
LINE
  5
62B
330
535
100
AcDbEntity
  8
Dimension (ANSI)
100
AcDbLine
 10
58.21676145470338
 20
62.50189169397931
 30
0.0
 11
58.21676145470338
 21
63.18068613964197
 31
0.0
  0
LINE
  5
62C
330
535
100
AcDbEntity
  8
Dimension (ANSI)
100
AcDbLine
 10
58.21676145470338
 20
60.62430280265399
 30
0.0
 11
58.21676145470338
 21
59.32581496105954
 31
0.0
  0
LINE
  5
62D
330
535
100
AcDbEntity
  8
Dimension (ANSI)
100
AcDbLine
 10
58.21676145470338
 20
59.32581496105954
 30
0.0
 11
57.53796700904072
 21
59.32581496105954
 31
0.0
  0
SOLID
  5
62E
330
535
100
AcDbEntity
  8
Dimension (ANSI)
100
AcDbTrace
 10
58.10362904709293
 20
62.50189169397931
 30
0.0
 11
58.32989386231382
 21
62.50189169397931
 31
0.0
 12
58.21676145470338
 22
61.82309724831664
 32
0.0
 13
58.21676145470338
 23
61.82309724831664
 33
0.0
  0
SOLID
  5
62F
330
535
100
AcDbEntity
  8
Dimension (ANSI)
100
AcDbTrace
 10
58.10362904709293
 20
60.62430280265399
 30
0.0
 11
58.32989386231382
 21
60.62430280265399
 31
0.0
 12
58.21676145470338
 22
61.30309724831665
 32
0.0
 13
58.21676145470338
 23
61.30309724831665
 33
0.0
  0
MTEXT
  5
630
330
535
100
AcDbEntity
  8
Dimension (ANSI)
100
AcDbMText
 10
55.20815687995682
 20
59.75683788177873
 30
0.0
 40
0.827586239781873
 41
0.0
 71
     1
 72
     1
  1
\A1;0.52
  7
Note Text (ANSI)
 73
     1
 44
1.0
1001
ACAD
1000
MTEXTBEGIN
1070
    73
1070
     1
1070
    44
1040
1.0
1070
    74
1070
     0
1000
MTEXTEND
  0
POINT
  5
631
330
535
100
AcDbEntity
  8
Defpoints
 62
     0
100
AcDbPoint
 10
51.01916427058255
 20
61.82309724831664
 30
0.0
  0
POINT
  5
632
330
535
100
AcDbEntity
  8
Defpoints
 62
     0
100
AcDbPoint
 10
50.99916427058254
 20
61.30309724831665
 30
0.0
  0
POINT
  5
633
330
535
100
AcDbEntity
  8
Defpoints
 62
     0
100
AcDbPoint
 10
58.21676145470338
 20
61.30309724831665
 30
0.0
  0
ENDBLK
  5
537
330
535
100
AcDbEntity
  8
0
100
AcDbBlockEnd
  0
BLOCK
  5
636
330
635
100
AcDbEntity
  8
0
100
AcDbBlockBegin
  2
*D8
 70
     1
 10
0.0
 20
0.0
 30
0.0
  3
*D8
  1

  0
LINE
  5
714
330
635
100
AcDbEntity
  8
Dimension (ANSI)
100
AcDbLine
 10
51.51916427058254
 20
61.75413173107527
 30
0.0
 11
51.51916427058254
 21
66.88957566265277
 31
0.0
  0
LINE
  5
715
330
635
100
AcDbEntity
  8
Dimension (ANSI)
100
AcDbLine
 10
50.99916427058254
 20
61.73413173107526
 30
0.0
 11
50.99916427058254
 21
66.88957566265277
 31
0.0
  0
LINE
  5
716
330
635
100
AcDbEntity
  8
Dimension (ANSI)
100
AcDbLine
 10
50.32036982491988
 20
66.02750669713554
 30
0.0
 11
49.64157537925721
 21
66.02750669713554
 31
0.0
  0
LINE
  5
717
330
635
100
AcDbEntity
  8
Dimension (ANSI)
100
AcDbLine
 10
52.1979587162452
 20
66.02750669713554
 30
0.0
 11
54.35285168060972
 21
66.02750669713554
 31
0.0
  0
SOLID
  5
718
330
635
100
AcDbEntity
  8
Dimension (ANSI)
100
AcDbTrace
 10
50.32036982491988
 20
66.14063910474598
 30
0.0
 11
50.32036982491988
 21
65.91437428952509
 31
0.0
 12
50.99916427058254
 22
66.02750669713554
 32
0.0
 13
50.99916427058254
 23
66.02750669713554
 33
0.0
  0
SOLID
  5
719
330
635
100
AcDbEntity
  8
Dimension (ANSI)
100
AcDbTrace
 10
52.1979587162452
 20
66.14063910474598
 30
0.0
 11
52.1979587162452
 21
65.91437428952509
 31
0.0
 12
51.51916427058254
 22
66.02750669713554
 32
0.0
 13
51.51916427058254
 23
66.02750669713554
 33
0.0
  0
MTEXT
  5
71A
330
635
100
AcDbEntity
  8
Dimension (ANSI)
100
AcDbMText
 10
54.57006590814163
 20
66.45852961785471
 30
0.0
 40
0.827586239781873
 41
0.0
 71
     1
 72
     1
  1
\A1;0.52
  7
Note Text (ANSI)
 73
     1
 44
1.0
1001
ACAD
1000
MTEXTBEGIN
1070
    73
1070
     1
1070
    44
1040
1.0
1070
    74
1070
     0
1000
MTEXTEND
  0
POINT
  5
71B
330
635
100
AcDbEntity
  8
Defpoints
 62
     0
100
AcDbPoint
 10
51.51916427058254
 20
61.32309724831665
 30
0.0
  0
POINT
  5
71C
330
635
100
AcDbEntity
  8
Defpoints
 62
     0
100
AcDbPoint
 10
50.99916427058254
 20
61.30309724831665
 30
0.0
  0
POINT
  5
71D
330
635
100
AcDbEntity
  8
Defpoints
 62
     0
100
AcDbPoint
 10
50.99916427058254
 20
66.02750669713554
 30
0.0
  0
ENDBLK
  5
637
330
635
100
AcDbEntity
  8
0
100
AcDbBlockEnd
  0
BLOCK
  5
720
330
71F
100
AcDbEntity
  8
0
100
AcDbBlockBegin
  2
*D9
 70
     1
 10
0.0
 20
0.0
 30
0.0
  3
*D9
  1

  0
LINE
  5
7FE
330
71F
100
AcDbEntity
  8
Dimension (ANSI)
100
AcDbLine
 10
17.40812978782394
 20
16.14309724831665
 30
0.0
 11
11.26618280554285
 21
16.14309724831665
 31
0.0
  0
LINE
  5
7FF
330
71F
100
AcDbEntity
  8
Dimension (ANSI)
100
AcDbLine
 10
17.40812978782394
 20
38.72309724831665
 30
0.0
 11
11.26618280554286
 21
38.72309724831666
 31
0.0
  0
LINE
  5
800
330
71F
100
AcDbEntity
  8
Dimension (ANSI)
100
AcDbLine
 10
12.12825177106009
 20
16.82189169397932
 30
0.0
 11
12.1282517710601
 21
26.78319269998542
 31
0.0
  0
LINE
  5
801
330
71F
100
AcDbEntity
  8
Dimension (ANSI)
100
AcDbLine
 10
12.1282517710601
 20
38.044302802654
 30
0.0
 11
12.1282517710601
 21
28.08300179664787
 31
0.0
  0
SOLID
  5
802
330
71F
100
AcDbEntity
  8
Dimension (ANSI)
100
AcDbTrace
 10
12.01511936344965
 20
16.82189169397932
 30
0.0
 11
12.24138417867054
 21
16.82189169397932
 31
0.0
 12
12.12825177106009
 22
16.14309724831665
 32
0.0
 13
12.12825177106009
 23
16.14309724831665
 33
0.0
  0
SOLID
  5
803
330
71F
100
AcDbEntity
  8
Dimension (ANSI)
100
AcDbTrace
 10
12.01511936344966
 20
38.044302802654
 30
0.0
 11
12.24138417867054
 21
38.044302802654
 31
0.0
 12
12.1282517710601
 22
38.72309724831666
 32
0.0
 13
12.1282517710601
 23
38.72309724831666
 33
0.0
  0
MTEXT
  5
804
330
71F
100
AcDbEntity
  8
Dimension (ANSI)
100
AcDbMText
 10
10.45584949066811
 20
27.86578756911597
 30
0.0
 40
0.827586239781873
 41
0.0
 71
     1
 72
     1
  1
\A1;22.580
  7
Note Text (ANSI)
 73
     1
 44
1.0
1001
ACAD
1000
MTEXTBEGIN
1070
    73
1070
     1
1070
    44
1040
1.0
1070
    74
1070
     0
1000
MTEXTEND
  0
POINT
  5
805
330
71F
100
AcDbEntity
  8
Defpoints
 62
     0
100
AcDbPoint
 10
17.83916427058256
 20
16.14309724831665
 30
0.0
  0
POINT
  5
806
330
71F
100
AcDbEntity
  8
Defpoints
 62
     0
100
AcDbPoint
 10
17.83916427058256
 20
38.72309724831665
 30
0.0
  0
POINT
  5
807
330
71F
100
AcDbEntity
  8
Defpoints
 62
     0
100
AcDbPoint
 10
12.1282517710601
 20
38.72309724831666
 30
0.0
  0
ENDBLK
  5
721
330
71F
100
AcDbEntity
  8
0
100
AcDbBlockEnd
  0
BLOCK
  5
80A
330
809
100
AcDbEntity
  8
0
100
AcDbBlockBegin
  2
*D10
 70
     1
 10
0.0
 20
0.0
 30
0.0
  3
*D10
  1

  0
LINE
  5
8E8
330
809
100
AcDbEntity
  8
Dimension (ANSI)
100
AcDbLine
 10
17.40812978782394
 20
16.14309724831665
 30
0.0
 11
8.278816841157583
 21
16.14309724831665
 31
0.0
  0
LINE
  5
8E9
330
809
100
AcDbEntity
  8
Dimension (ANSI)
100
AcDbLine
 10
17.40812978782394
 20
61.30309724831665
 30
0.0
 11
8.278816841157594
 21
61.30309724831665
 31
0.0
  0
LINE
  5
8EA
330
809
100
AcDbEntity
  8
Dimension (ANSI)
100
AcDbLine
 10
9.140885806674825
 20
16.82189169397932
 30
0.0
 11
9.140885806674832
 21
45.8499908244009
 31
0.0
  0
LINE
  5
8EB
330
809
100
AcDbEntity
  8
Dimension (ANSI)
100
AcDbLine
 10
9.140885806674836
 20
60.62430280265399
 30
0.0
 11
9.140885806674832
 21
47.14590932087632
 31
0.0
  0
SOLID
  5
8EC
330
809
100
AcDbEntity
  8
Dimension (ANSI)
100
AcDbTrace
 10
9.027753399064382
 20
16.82189169397932
 30
0.0
 11
9.254018214285268
 21
16.82189169397932
 31
0.0
 12
9.140885806674825
 22
16.14309724831665
 32
0.0
 13
9.140885806674825
 23
16.14309724831665
 33
0.0
  0
SOLID
  5
8ED
330
809
100
AcDbEntity
  8
Dimension (ANSI)
100
AcDbTrace
 10
9.027753399064392
 20
60.62430280265399
 30
0.0
 11
9.254018214285279
 21
60.62430280265399
 31
0.0
 12
9.140885806674836
 22
61.30309724831665
 32
0.0
 13
9.140885806674836
 23
61.30309724831665
 33
0.0
  0
MTEXT
  5
8EE
330
809
100
AcDbEntity
  8
Dimension (ANSI)
100
AcDbMText
 10
7.449308425361104
 20
46.92869509334442
 30
0.0
 40
0.827586239781873
 41
0.0
 71
     1
 72
     1
  1
\A1;45.160
  7
Note Text (ANSI)
 73
     1
 44
1.0
1001
ACAD
1000
MTEXTBEGIN
1070
    73
1070
     1
1070
    44
1040
1.0
1070
    74
1070
     0
1000
MTEXTEND
  0
POINT
  5
8EF
330
809
100
AcDbEntity
  8
Defpoints
 62
     0
100
AcDbPoint
 10
17.83916427058256
 20
16.14309724831665
 30
0.0
  0
POINT
  5
8F0
330
809
100
AcDbEntity
  8
Defpoints
 62
     0
100
AcDbPoint
 10
17.83916427058256
 20
61.30309724831665
 30
0.0
  0
POINT
  5
8F1
330
809
100
AcDbEntity
  8
Defpoints
 62
     0
100
AcDbPoint
 10
9.140885806674836
 20
61.30309724831665
 30
0.0
  0
ENDBLK
  5
80B
330
809
100
AcDbEntity
  8
0
100
AcDbBlockEnd
  0
BLOCK
  5
8F4
330
8F3
100
AcDbEntity
  8
0
100
AcDbBlockBegin
  2
*D11
 70
     1
 10
0.0
 20
0.0
 30
0.0
  3
*D11
  1

  0
LINE
  5
9D2
330
8F3
100
AcDbEntity
  8
Dimension (ANSI)
100
AcDbLine
 10
50.99916427058254
 20
61.73413173107526
 30
0.0
 11
50.99916427058254
 21
66.88957566265276
 31
0.0
  0
LINE
  5
9D3
330
8F3
100
AcDbEntity
  8
Dimension (ANSI)
100
AcDbLine
 10
34.41916427058254
 20
61.73413173107526
 30
0.0
 11
34.41916427058254
 21
66.88957566265276
 31
0.0
  0
LINE
  5
9D4
330
8F3
100
AcDbEntity
  8
Dimension (ANSI)
100
AcDbLine
 10
50.32036982491988
 20
66.02750669713552
 30
0.0
 11
44.56626647694346
 21
66.02750669713552
 31
0.0
  0
LINE
  5
9D5
330
8F3
100
AcDbEntity
  8
Dimension (ANSI)
100
AcDbLine
 10
35.09795871624521
 20
66.02750669713552
 30
0.0
 11
40.8520620642216
 21
66.02750669713552
 31
0.0
  0
SOLID
  5
9D6
330
8F3
100
AcDbEntity
  8
Dimension (ANSI)
100
AcDbTrace
 10
50.32036982491988
 20
66.14063910474597
 30
0.0
 11
50.32036982491988
 21
65.91437428952507
 31
0.0
 12
50.99916427058254
 22
66.02750669713552
 32
0.0
 13
50.99916427058254
 23
66.02750669713552
 33
0.0
  0
SOLID
  5
9D7
330
8F3
100
AcDbEntity
  8
Dimension (ANSI)
100
AcDbTrace
 10
35.09795871624521
 20
66.14063910474597
 30
0.0
 11
35.09795871624521
 21
65.91437428952507
 31
0.0
 12
34.41916427058254
 22
66.02750669713552
 32
0.0
 13
34.41916427058254
 23
66.02750669713552
 33
0.0
  0
MTEXT
  5
9D8
330
8F3
100
AcDbEntity
  8
Dimension (ANSI)
100
AcDbMText
 10
41.06927629175351
 20
66.46019701793484
 30
0.0
 40
0.827586239781873
 41
0.0
 71
     1
 72
     1
  1
\A1;16.580
  7
Note Text (ANSI)
 73
     1
 44
1.0
1001
ACAD
1000
MTEXTBEGIN
1070
    73
1070
     1
1070
    44
1040
1.0
1070
    74
1070
     0
1000
MTEXTEND
  0
POINT
  5
9D9
330
8F3
100
AcDbEntity
  8
Defpoints
 62
     0
100
AcDbPoint
 10
50.99916427058254
 20
61.30309724831665
 30
0.0
  0
POINT
  5
9DA
330
8F3
100
AcDbEntity
  8
Defpoints
 62
     0
100
AcDbPoint
 10
34.41916427058254
 20
61.30309724831664
 30
0.0
  0
POINT
  5
9DB
330
8F3
100
AcDbEntity
  8
Defpoints
 62
     0
100
AcDbPoint
 10
34.41916427058254
 20
66.02750669713552
 30
0.0
  0
ENDBLK
  5
8F5
330
8F3
100
AcDbEntity
  8
0
100
AcDbBlockEnd
  0
BLOCK
  5
9DE
330
9DD
100
AcDbEntity
  8
0
100
AcDbBlockBegin
  2
*D12
 70
     1
 10
0.0
 20
0.0
 30
0.0
  3
*D12
  1

  0
LINE
  5
ABC
330
9DD
100
AcDbEntity
  8
Dimension (ANSI)
100
AcDbLine
 10
65.90257480757578
 20
62.25413173107527
 30
0.0
 11
65.90257480757578
 21
65.69157566265279
 31
0.0
  0
LINE
  5
ABD
330
9DD
100
AcDbEntity
  8
Dimension (ANSI)
100
AcDbLine
 10
66.67657480757542
 20
62.25413173107527
 30
0.0
 11
66.67657480757542
 21
65.69157566265279
 31
0.0
  0
LINE
  5
ABE
330
9DD
100
AcDbEntity
  8
Dimension (ANSI)
100
AcDbLine
 10
67.35536925323808
 20
64.82950669713556
 30
0.0
 11
68.03416369890074
 21
64.82950669713556
 31
0.0
  0
LINE
  5
ABF
330
9DD
100
AcDbEntity
  8
Dimension (ANSI)
100
AcDbLine
 10
65.22378036191312
 20
64.82950669713556
 30
0.0
 11
64.19425323573182
 21
64.82950669713556
 31
0.0
  0
SOLID
  5
AC0
330
9DD
100
AcDbEntity
  8
Dimension (ANSI)
100
AcDbTrace
 10
67.35536925323808
 20
64.942639104746
 30
0.0
 11
67.35536925323808
 21
64.71637428952511
 31
0.0
 12
66.67657480757542
 22
64.82950669713556
 32
0.0
 13
66.67657480757542
 23
64.82950669713556
 33
0.0
  0
SOLID
  5
AC1
330
9DD
100
AcDbEntity
  8
Dimension (ANSI)
100
AcDbTrace
 10
65.22378036191312
 20
64.942639104746
 30
0.0
 11
65.22378036191312
 21
64.71637428952511
 31
0.0
 12
65.90257480757578
 22
64.82950669713556
 32
0.0
 13
65.90257480757578
 23
64.82950669713556
 33
0.0
  0
MTEXT
  5
AC2
330
9DD
100
AcDbEntity
  8
Dimension (ANSI)
100
AcDbMText
 10
61.85555030622046
 20
65.26025171784137
 30
0.0
 40
0.827586239781873
 41
0.0
 71
     1
 72
     1
  1
\A1;0.77
  7
Note Text (ANSI)
 73
     1
 44
1.0
1001
ACAD
1000
MTEXTBEGIN
1070
    73
1070
     1
1070
    44
1040
1.0
1070
    74
1070
     0
1000
MTEXTEND
  0
POINT
  5
AC3
330
9DD
100
AcDbEntity
  8
Defpoints
 62
     0
100
AcDbPoint
 10
65.90257480757578
 20
61.82309724831664
 30
0.0
  0
POINT
  5
AC4
330
9DD
100
AcDbEntity
  8
Defpoints
 62
     0
100
AcDbPoint
 10
66.67657480757542
 20
61.82309724831664
 30
0.0
  0
POINT
  5
AC5
330
9DD
100
AcDbEntity
  8
Defpoints
 62
     0
100
AcDbPoint
 10
66.67657480757542
 20
64.82950669713556
 30
0.0
  0
ENDBLK
  5
9DF
330
9DD
100
AcDbEntity
  8
0
100
AcDbBlockEnd
  0
BLOCK
  5
ACA
330
AC9
100
AcDbEntity
  8
0
100
AcDbBlockBegin
  2
*D13
 70
     1
 10
0.0
 20
0.0
 30
0.0
  3
*D13
  1

  0
LINE
  5
BBD
330
AC9
100
AcDbEntity
  8
Dimension (ANSI)
100
AcDbLine
 10
51.45019875334117
 20
15.62309724831665
 30
0.0
 11
54.91023653320713
 21
15.62309724831665
 31
0.0
  0
LINE
  5
BBE
330
AC9
100
AcDbEntity
  8
Dimension (ANSI)
100
AcDbLine
 10
51.95019875334118
 20
16.12309724831665
 30
0.0
 11
54.91023653320713
 21
16.12309724831665
 31
0.0
  0
LINE
  5
BBF
330
AC9
100
AcDbEntity
  8
Dimension (ANSI)
100
AcDbLine
 10
54.04816756768989
 20
14.94430280265399
 30
0.0
 11
54.04816756768989
 21
14.26550835699132
 31
0.0
  0
LINE
  5
BC0
330
AC9
100
AcDbEntity
  8
Dimension (ANSI)
100
AcDbLine
 10
54.04816756768989
 20
16.80189169397931
 30
0.0
 11
54.04816756768989
 21
18.09987654552225
 31
0.0
  0
LINE
  5
BC1
330
AC9
100
AcDbEntity
  8
Dimension (ANSI)
100
AcDbLine
 10
54.04816756768989
 20
18.09987654552225
 30
0.0
 11
54.72696201335256
 21
18.09987654552225
 31
0.0
  0
SOLID
  5
BC2
330
AC9
100
AcDbEntity
  8
Dimension (ANSI)
100
AcDbTrace
 10
53.93503516007944
 20
14.94430280265399
 30
0.0
 11
54.16129997530033
 21
14.94430280265399
 31
0.0
 12
54.04816756768989
 22
15.62309724831665
 32
0.0
 13
54.04816756768989
 23
15.62309724831665
 33
0.0
  0
SOLID
  5
BC3
330
AC9
100
AcDbEntity
  8
Dimension (ANSI)
100
AcDbTrace
 10
53.93503516007945
 20
16.80189169397931
 30
0.0
 11
54.16129997530034
 21
16.80189169397931
 31
0.0
 12
54.04816756768989
 22
16.12309724831665
 32
0.0
 13
54.04816756768989
 23
16.12309724831665
 33
0.0
  0
MTEXT
  5
BC4
330
AC9
100
AcDbEntity
  8
Dimension (ANSI)
100
AcDbMText
 10
54.94417624088445
 20
18.53062156622807
 30
0.0
 40
0.827586239781873
 41
0.0
 71
     1
 72
     1
  1
\A1;0.50
  7
Note Text (ANSI)
 73
     1
 44
1.0
1001
ACAD
1000
MTEXTBEGIN
1070
    73
1070
     1
1070
    44
1040
1.0
1070
    74
1070
     0
1000
MTEXTEND
  0
POINT
  5
BC5
330
AC9
100
AcDbEntity
  8
Defpoints
 62
     0
100
AcDbPoint
 10
51.01916427058256
 20
15.62309724831665
 30
0.0
  0
POINT
  5
BC6
330
AC9
100
AcDbEntity
  8
Defpoints
 62
     0
100
AcDbPoint
 10
51.51916427058256
 20
16.12309724831665
 30
0.0
  0
POINT
  5
BC7
330
AC9
100
AcDbEntity
  8
Defpoints
 62
     0
100
AcDbPoint
 10
54.04816756768989
 20
16.12309724831665
 30
0.0
  0
ENDBLK
  5
ACB
330
AC9
100
AcDbEntity
  8
0
100
AcDbBlockEnd
  0
BLOCK
  5
BCA
330
BC9
100
AcDbEntity
  8
0
100
AcDbBlockBegin
  2
*D14
 70
     1
 10
0.0
 20
0.0
 30
0.0
  3
*D14
  1

  0
LINE
  5
CA8
330
BC9
100
AcDbEntity
  8
Dimension (ANSI)
100
AcDbLine
 10
51.51916427058256
 20
15.69206276555803
 30
0.0
 11
51.51916427058256
 21
10.0366188339805
 31
0.0
  0
LINE
  5
CA9
330
BC9
100
AcDbEntity
  8
Dimension (ANSI)
100
AcDbLine
 10
51.01916427058256
 20
15.19206276555803
 30
0.0
 11
51.01916427058256
 21
10.0366188339805
 31
0.0
  0
LINE
  5
CAA
330
BC9
100
AcDbEntity
  8
Dimension (ANSI)
100
AcDbLine
 10
52.19795871624522
 20
10.89868779949775
 30
0.0
 11
52.87675316190789
 21
10.89868779949775
 31
0.0
  0
LINE
  5
CAB
330
BC9
100
AcDbEntity
  8
Dimension (ANSI)
100
AcDbLine
 10
50.3403698249199
 20
10.89868779949775
 30
0.0
 11
49.30834159861837
 21
10.89868779949775
 31
0.0
  0
SOLID
  5
CAC
330
BC9
100
AcDbEntity
  8
Dimension (ANSI)
100
AcDbTrace
 10
52.19795871624522
 20
11.01182020710819
 30
0.0
 11
52.19795871624522
 21
10.7855553918873
 31
0.0
 12
51.51916427058256
 22
10.89868779949775
 32
0.0
 13
51.51916427058256
 23
10.89868779949775
 33
0.0
  0
SOLID
  5
CAD
330
BC9
100
AcDbEntity
  8
Dimension (ANSI)
100
AcDbTrace
 10
50.3403698249199
 20
11.01182020710819
 30
0.0
 11
50.3403698249199
 21
10.7855553918873
 31
0.0
 12
51.01916427058256
 22
10.89868779949775
 32
0.0
 13
51.01916427058256
 23
10.89868779949775
 33
0.0
  0
MTEXT
  5
CAE
330
BC9
100
AcDbEntity
  8
Dimension (ANSI)
100
AcDbMText
 10
46.97464086934746
 20
11.32943282020355
 30
0.0
 40
0.827586239781873
 41
0.0
 71
     1
 72
     1
  1
\A1;0.50
  7
Note Text (ANSI)
 73
     1
 44
1.0
1001
ACAD
1000
MTEXTBEGIN
1070
    73
1070
     1
1070
    44
1040
1.0
1070
    74
1070
     0
1000
MTEXTEND
  0
POINT
  5
CAF
330
BC9
100
AcDbEntity
  8
Defpoints
 62
     0
100
AcDbPoint
 10
51.51916427058256
 20
16.12309724831665
 30
0.0
  0
POINT
  5
CB0
330
BC9
100
AcDbEntity
  8
Defpoints
 62
     0
100
AcDbPoint
 10
51.01916427058256
 20
15.62309724831665
 30
0.0
  0
POINT
  5
CB1
330
BC9
100
AcDbEntity
  8
Defpoints
 62
     0
100
AcDbPoint
 10
51.01916427058256
 20
10.89868779949775
 30
0.0
  0
ENDBLK
  5
BCB
330
BC9
100
AcDbEntity
  8
0
100
AcDbBlockEnd
  0
BLOCK
  5
CB4
330
CB3
100
AcDbEntity
  8
0
100
AcDbBlockBegin
  2
*D15
 70
     1
 10
0.0
 20
0.0
 30
0.0
  3
*D15
  1

  0
LINE
  5
D64
330
CB3
100
AcDbEntity
  8
Dimension (ANSI)
100
AcDbLine
 10
12.77494007453796
 20
68.61149171698926
 30
0.0
 11
13.61966075674847
 21
68.61149171698926
 31
0.0
  0
LINE
  5
D65
330
CB3
100
AcDbEntity
  8
Dimension (ANSI)
100
AcDbLine
 10
13.61966075674847
 20
68.61149171698926
 30
0.0
 11
17.37476704775107
 21
62.10745683315431
 31
0.0
  0
MTEXT
  5
D66
102
{ACAD_XDICTIONARY
360
F5B
102
}
330
CB3
100
AcDbEntity
  8
Dimension (ANSI)
100
AcDbMText
 10
12.55772584700606
 20
69.2425563306577
 30
0.0
 40
0.827586239781873
 41
0.0
 71
     3
 72
     1
  1
\A1;\U+22050.50{\PTYP.(8PL.)}
  7
Note Text (ANSI)
 73
     1
 44
1.0
1001
ACAD
1000
MTEXTBEGIN
1070
    73
1070
     1
1070
    44
1040
1.0
1070
    74
1070
     0
1000
MTEXTEND
  0
SOLID
  5
D67
330
CB3
100
AcDbEntity
  8
Dimension (ANSI)
100
AcDbTrace
 10
17.47274258673301
 20
62.16402303695956
 30
0.0
 11
17.27679150876914
 21
62.05089062934908
 31
0.0
 12
17.71416427058252
 22
61.51960359926275
 32
0.0
 13
17.71416427058252
 23
61.51960359926275
 33
0.0
  0
LINE
  5
D68
330
CB3
100
AcDbEntity
  8
Dimension (ANSI)
100
AcDbLine
 10
17.21847461541016
 20
61.30309724831666
 30
0.0
 11
18.45985392575498
 21
61.30309724831667
 31
0.0
  0
LINE
  5
D69
330
CB3
100
AcDbEntity
  8
Dimension (ANSI)
100
AcDbLine
 10
17.83916427058257
 20
60.68240759314424
 30
0.0
 11
17.83916427058256
 21
61.92378690348907
 31
0.0
  0
POINT
  5
D6A
330
CB3
100
AcDbEntity
  8
Defpoints
 62
     0
100
AcDbPoint
 10
17.71416427058252
 20
61.51960359926275
 30
0.0
  0
POINT
  5
D6B
330
CB3
100
AcDbEntity
  8
Defpoints
 62
     0
100
AcDbPoint
 10
17.96416427058261
 20
61.08659089737058
 30
0.0
  0
ENDBLK
  5
CB5
330
CB3
100
AcDbEntity
  8
0
100
AcDbBlockEnd
  0
BLOCK
  5
D6E
330
D6D
100
AcDbEntity
  8
0
100
AcDbBlockBegin
  2
*D16
 70
     1
 10
0.0
 20
0.0
 30
0.0
  3
*D16
  1

  0
LINE
  5
E1D
330
D6D
100
AcDbEntity
  8
Dimension (ANSI)
100
AcDbLine
 10
21.42162996998067
 20
12.15095366526462
 30
0.0
 11
20.57704214479496
 21
12.15095366526462
 31
0.0
  0
LINE
  5
E1E
330
D6D
100
AcDbEntity
  8
Dimension (ANSI)
100
AcDbLine
 10
20.57704214479496
 20
12.15095366526462
 30
0.0
 11
18.25668649341406
 21
16.16992754508379
 31
0.0
  0
MTEXT
  5
E1F
102
{ACAD_XDICTIONARY
360
F5D
102
}
330
D6D
100
AcDbEntity
  8
Dimension (ANSI)
100
AcDbMText
 10
21.63884419751257
 20
12.78201827893308
 30
0.0
 40
0.827586239781873
 41
0.0
 71
     1
 72
     1
  1
\A1;\U+22050.31{\PTYP. (4PL.)}
  7
Note Text (ANSI)
 73
     1
 44
1.0
1001
ACAD
1000
MTEXTBEGIN
1070
    73
1070
     1
1070
    44
1040
1.0
1070
    74
1070
     0
1000
MTEXTEND
  0
SOLID
  5
E20
330
D6D
100
AcDbEntity
  8
Dimension (ANSI)
100
AcDbTrace
 10
18.35466203239598
 20
16.22649374888904
 30
0.0
 11
18.15871095443213
 21
16.11336134127855
 31
0.0
 12
17.91728927058259
 22
16.75778077897536
 32
0.0
 13
17.91728927058259
 23
16.75778077897536
 33
0.0
  0
LINE
  5
E21
330
D6D
100
AcDbEntity
  8
Dimension (ANSI)
100
AcDbLine
 10
17.21847461541015
 20
16.89309724831665
 30
0.0
 11
18.45985392575498
 21
16.89309724831665
 31
0.0
  0
LINE
  5
E22
330
D6D
100
AcDbEntity
  8
Dimension (ANSI)
100
AcDbLine
 10
17.83916427058256
 20
16.27240759314424
 30
0.0
 11
17.83916427058256
 21
17.51378690348907
 31
0.0
  0
POINT
  5
E23
330
D6D
100
AcDbEntity
  8
Defpoints
 62
     0
100
AcDbPoint
 10
17.91728927058259
 20
16.75778077897536
 30
0.0
  0
POINT
  5
E24
330
D6D
100
AcDbEntity
  8
Defpoints
 62
     0
100
AcDbPoint
 10
17.76103927058253
 20
17.02841371765796
 30
0.0
  0
ENDBLK
  5
D6F
330
D6D
100
AcDbEntity
  8
0
100
AcDbBlockEnd
  0
BLOCK
  5
E27
330
E26
100
AcDbEntity
  8
0
100
AcDbBlockBegin
  2
*D17
 70
     1
 10
0.0
 20
0.0
 30
0.0
  3
*D17
  1

  0
LINE
  5
F05
330
E26
100
AcDbEntity
  8
Dimension (ANSI)
100
AcDbLine
 10
17.83916427058256
 20
61.73413173107526
 30
0.0
 11
17.83916427058256
 21
69.83465871628085
 31
0.0
  0
LINE
  5
F06
330
E26
100
AcDbEntity
  8
Dimension (ANSI)
100
AcDbLine
 10
50.99916427058254
 20
61.73413173107526
 30
0.0
 11
50.99916427058254
 21
69.83465871628085
 31
0.0
  0
LINE
  5
F07
330
E26
100
AcDbEntity
  8
Dimension (ANSI)
100
AcDbLine
 10
18.51795871624522
 20
68.97258975076361
 30
0.0
 11
32.52621296249838
 21
68.97258975076361
 31
0.0
  0
LINE
  5
F08
330
E26
100
AcDbEntity
  8
Dimension (ANSI)
100
AcDbLine
 10
50.32036982491988
 20
68.97258975076361
 30
0.0
 11
36.31211557866675
 21
68.97258975076361
 31
0.0
  0
SOLID
  5
F09
330
E26
100
AcDbEntity
  8
Dimension (ANSI)
100
AcDbTrace
 10
18.51795871624522
 20
69.08572215837406
 30
0.0
 11
18.51795871624522
 21
68.85945734315317
 31
0.0
 12
17.83916427058256
 22
68.97258975076361
 32
0.0
 13
17.83916427058256
 23
68.97258975076361
 33
0.0
  0
SOLID
  5
F0A
330
E26
100
AcDbEntity
  8
Dimension (ANSI)
100
AcDbTrace
 10
50.32036982491988
 20
69.08572215837406
 30
0.0
 11
50.32036982491988
 21
68.85945734315317
 31
0.0
 12
50.99916427058254
 22
68.97258975076361
 32
0.0
 13
50.99916427058254
 23
68.97258975076361
 33
0.0
  0
MTEXT
  5
F0B
330
E26
100
AcDbEntity
  8
Dimension (ANSI)
100
AcDbMText
 10
32.74342719003028
 20
69.40361267148279
 30
0.0
 40
0.827586239781873
 41
0.0
 71
     1
 72
     1
  1
\A1;33.160
  7
Note Text (ANSI)
 73
     1
 44
1.0
1001
ACAD
1000
MTEXTBEGIN
1070
    73
1070
     1
1070
    44
1040
1.0
1070
    74
1070
     0
1000
MTEXTEND
  0
POINT
  5
F0C
330
E26
100
AcDbEntity
  8
Defpoints
 62
     0
100
AcDbPoint
 10
17.83916427058256
 20
61.30309724831665
 30
0.0
  0
POINT
  5
F0D
330
E26
100
AcDbEntity
  8
Defpoints
 62
     0
100
AcDbPoint
 10
50.99916427058254
 20
61.30309724831665
 30
0.0
  0
POINT
  5
F0E
330
E26
100
AcDbEntity
  8
Defpoints
 62
     0
100
AcDbPoint
 10
50.99916427058254
 20
68.97258975076361
 30
0.0
  0
ENDBLK
  5
E28
330
E26
100
AcDbEntity
  8
0
100
AcDbBlockEnd
  0
ENDSEC
  0
SECTION
  2
ENTITIES
  0
MTEXT
  5
74
330
6C
100
AcDbEntity
  8
Symbol (ANSI)
100
AcDbMText
 10
69.23072701506455
 20
17.03332276216112
 30
0.0
 40
0.9775862380955292
 41
36.08948698258743
 71
     1
 72
     1
  1
{\fRomanS|b0|i0|c0|p2;PART#: NP4836C\P(DATA SUBJECT TO CHANGE WITHOUT NOTICE)\PTHIS DRAWING AND COMPONENTS OF ARE\PPROPERTY OF HUBBELL INC. WIEGMANN\P }
  7
Note Text (ANSI)
 73
     2
 44
1.093904256820678
1001
ACAD
1000
MTEXTBEGIN
1070
    73
1070
     2
1070
    44
1040
1.093904256820678
1070
    74
1070
     0
1000
MTEXTEND
  0
TEXT
  5
77
330
6C
100
AcDbEntity
  8
0
100
AcDbText
 10
102.7088237427479
 20
11.43431520805836
 30
0.0
 40
0.6796803270006981
  1
HUBBELL
  7
SANSSERIF
100
AcDbText
  0
POLYLINE
  5
79
330
6C
100
AcDbEntity
  8
0
100
AcDb2dPolyline
 66
     1
 10
0.0
 20
0.0
 30
0.0
  0
VERTEX
  5
7A
330
79
100
AcDbEntity
  8
0
100
AcDbVertex
100
AcDb2dVertex
 10
103.0609614256972
 20
11.09851507570671
 30
0.0
 42
0.0538548888021971
  0
VERTEX
  5
7B
330
79
100
AcDbEntity
  8
0
100
AcDbVertex
100
AcDb2dVertex
 10
103.3057252836313
 20
10.90680952034749
 30
0.0
 42
0.0762621633615686
 70
     2
 50
328.0963691854962
  0
VERTEX
  5
7C
330
79
100
AcDbEntity
  8
0
100
AcDbVertex
100
AcDb2dVertex
 10
103.9039145723974
 20
10.65065369278737
 30
0.0
 42
0.0631748622128167
 50
328.0963691854962
  0
VERTEX
  5
7D
330
79
100
AcDbEntity
  8
0
100
AcDbVertex
100
AcDb2dVertex
 10
104.6817875509873
 20
10.55197582670286
 30
0.0
 42
0.0631748622128144
  0
VERTEX
  5
7E
330
79
100
AcDbEntity
  8
0
100
AcDbVertex
100
AcDb2dVertex
 10
105.4596605295772
 20
10.65065369278737
 30
0.0
 42
0.0762621633615716
  0
VERTEX
  5
7F
330
79
100
AcDbEntity
  8
0
100
AcDbVertex
100
AcDb2dVertex
 10
106.0578498183432
 20
10.90680952034749
 30
0.0
 42
0.0538548888021992
 70
     2
 50
31.90363081450366
  0
VERTEX
  5
80
330
79
100
AcDbEntity
  8
0
100
AcDbVertex
100
AcDb2dVertex
 10
106.3026136762774
 20
11.09851507570671
 30
0.0
 42
0.1478388992712208
 50
31.90363081450366
  0
SEQEND
  5
81
330
79
100
AcDbEntity
  8
0
  0
POLYLINE
  5
82
330
6C
100
AcDbEntity
  8
0
100
AcDb2dPolyline
 66
     1
 10
0.0
 20
0.0
 30
0.0
  0
VERTEX
  5
83
330
82
100
AcDbEntity
  8
0
100
AcDbVertex
100
AcDb2dVertex
 10
103.5097209943753
 20
11.17257685992681
 30
0.0
 42
0.0708473647366734
  0
VERTEX
  5
84
330
82
100
AcDbEntity
  8
0
100
AcDbVertex
100
AcDb2dVertex
 10
103.7316094576124
 20
10.90680952034749
 30
0.0
 42
0.0943474025114784
 70
     2
 50
317.9633854595613
  0
VERTEX
  5
85
330
82
100
AcDbEntity
  8
0
100
AcDbVertex
100
AcDb2dVertex
 10
104.1613087281777
 20
10.64598866612335
 30
0.0
 42
0.0895889244631754
 50
317.9633854595613
  0
VERTEX
  5
86
330
82
100
AcDbEntity
  8
0
100
AcDbVertex
100
AcDb2dVertex
 10
104.6817875509873
 20
10.55197582670286
 30
0.0
 42
0.0895889244631755
  0
VERTEX
  5
87
330
82
100
AcDbEntity
  8
0
100
AcDbVertex
100
AcDb2dVertex
 10
105.2022663737969
 20
10.64598866612335
 30
0.0
 42
0.0943474025114826
  0
VERTEX
  5
88
330
82
100
AcDbEntity
  8
0
100
AcDbVertex
100
AcDb2dVertex
 10
105.6319656443623
 20
10.90680952034749
 30
0.0
 42
0.0708473647366705
 70
     2
 50
42.03661454043863
  0
VERTEX
  5
89
330
82
100
AcDbEntity
  8
0
100
AcDbVertex
100
AcDb2dVertex
 10
105.8538541075993
 20
11.17257685992681
 30
0.0
 42
0.1080871028423927
 50
42.03661454043863
  0
SEQEND
  5
8A
330
82
100
AcDbEntity
  8
0
  0
POLYLINE
  5
8B
330
6C
100
AcDbEntity
  8
0
100
AcDb2dPolyline
 66
     1
 10
0.0
 20
0.0
 30
0.0
  0
VERTEX
  5
8C
330
8B
100
AcDbEntity
  8
0
100
AcDbVertex
100
AcDb2dVertex
 10
106.291629116495
 20
12.4389752660055
 30
0.0
 42
0.0512131062417871
  0
VERTEX
  5
8D
330
8B
100
AcDbEntity
  8
0
100
AcDbVertex
100
AcDb2dVertex
 10
106.0578498183432
 20
12.62009815151512
 30
0.0
 42
0.0762621633615678
 70
     2
 50
148.0963691854963
  0
VERTEX
  5
8E
330
8B
100
AcDbEntity
  8
0
100
AcDbVertex
100
AcDb2dVertex
 10
105.4596605295772
 20
12.87625397907525
 30
0.0
 42
0.0631748622128132
 50
148.0963691854963
  0
VERTEX
  5
8F
330
8B
100
AcDbEntity
  8
0
100
AcDbVertex
100
AcDb2dVertex
 10
104.6817875509873
 20
12.97493184515976
 30
0.0
 42
0.0631748622128155
  0
SEQEND
  5
90
330
8B
100
AcDbEntity
  8
0
  0
POLYLINE
  5
91
330
6C
100
AcDbEntity
  8
0
100
AcDb2dPolyline
 66
     1
 10
0.0
 20
0.0
 30
0.0
  0
VERTEX
  5
92
330
91
100
AcDbEntity
  8
0
100
AcDbVertex
100
AcDb2dVertex
 10
105.8483977994914
 20
12.3630648564762
 30
0.0
 42
0.0687403046083495
  0
VERTEX
  5
93
330
91
100
AcDbEntity
  8
0
100
AcDbVertex
100
AcDb2dVertex
 10
105.6319656443623
 20
12.62009815151512
 30
0.0
 42
0.0943474025114827
 70
     2
 50
137.9633854595613
  0
VERTEX
  5
94
330
91
100
AcDbEntity
  8
0
100
AcDbVertex
100
AcDb2dVertex
 10
105.2022663737969
 20
12.88091900573925
 30
0.0
 42
0.0895889244631755
 50
137.9633854595613
  0
VERTEX
  5
95
330
91
100
AcDbEntity
  8
0
100
AcDbVertex
100
AcDb2dVertex
 10
104.6817875509873
 20
12.97493184515976
 30
0.0
 42
0.0895889244631779
  0
SEQEND
  5
96
330
91
100
AcDbEntity
  8
0
  0
LINE
  5
97
330
6C
100
AcDbEntity
  8
0
100
AcDbLine
 10
107.26415961406
 20
13.31287707377483
 30
0.0
 11
102.0994154879147
 21
13.31287707377483
 31
0.0
  0
LINE
  5
98
330
6C
100
AcDbEntity
  8
0
100
AcDbLine
 10
102.0994154879147
 20
10.21403059808775
 30
0.0
 11
107.26415961406
 21
10.21403059808775
 31
0.0
  0
POLYLINE
  5
99
330
6C
100
AcDbEntity
  8
0
100
AcDb2dPolyline
 66
     1
 10
0.0
 20
0.0
 30
0.0
 70
     1
  0
VERTEX
  5
9A
330
99
100
AcDbEntity
  8
0
100
AcDbVertex
100
AcDb2dVertex
 10
102.0994154879147
 20
11.7634538359313
 30
0.0
 42
0.1828233251715505
  0
VERTEX
  5
9B
330
99
100
AcDbEntity
  8
0
100
AcDbVertex
100
AcDb2dVertex
 10
102.2524573617354
 20
11.35889236726419
 30
0.0
 42
0.1025674015815553
  0
VERTEX
  5
9C
330
99
100
AcDbEntity
  8
0
100
AcDbVertex
100
AcDb2dVertex
 10
102.855774753642
 20
10.90680952034759
 30
0.0
 42
0.0617587255956112
 70
     2
 50
334.8671392208401
  0
VERTEX
  5
9D
330
99
100
AcDbEntity
  8
0
100
AcDbVertex
100
AcDb2dVertex
 10
103.6346040224384
 20
10.65277822693637
 30
0.0
 42
0.0480192641995976
 50
334.8671392208401
  0
VERTEX
  5
9E
330
99
100
AcDbEntity
  8
0
100
AcDbVertex
100
AcDb2dVertex
 10
104.6817875509873
 20
10.55197582670286
 30
0.0
 42
0.0480192641995965
  0
VERTEX
  5
9F
330
99
100
AcDbEntity
  8
0
100
AcDbVertex
100
AcDb2dVertex
 10
105.7289710795362
 20
10.65277822693637
 30
0.0
 42
0.0617587255956115
  0
VERTEX
  5
A0
330
99
100
AcDbEntity
  8
0
100
AcDbVertex
100
AcDb2dVertex
 10
106.5078003483327
 20
10.90680952034759
 30
0.0
 42
0.1025674015815654
 70
     2
 50
25.13286077915987
  0
VERTEX
  5
A1
330
99
100
AcDbEntity
  8
0
100
AcDbVertex
100
AcDb2dVertex
 10
107.1111177402391
 20
11.35889236726419
 30
0.0
 42
0.18282332517157
 50
25.13286077915987
  0
VERTEX
  5
A2
330
99
100
AcDbEntity
  8
0
100
AcDbVertex
100
AcDb2dVertex
 10
107.26415961406
 20
11.7634538359313
 30
0.0
 42
0.1828233251715568
  0
VERTEX
  5
A3
330
99
100
AcDbEntity
  8
0
100
AcDbVertex
100
AcDb2dVertex
 10
107.1111177402391
 20
12.16801530459844
 30
0.0
 42
0.102567401581563
  0
VERTEX
  5
A4
330
99
100
AcDbEntity
  8
0
100
AcDbVertex
100
AcDb2dVertex
 10
106.5078003483327
 20
12.62009815151499
 30
0.0
 42
0.0617587255956141
 70
     2
 50
154.86713922084
  0
VERTEX
  5
A5
330
99
100
AcDbEntity
  8
0
100
AcDbVertex
100
AcDb2dVertex
 10
105.7289710795362
 20
12.87412944492624
 30
0.0
 42
0.0480192641995983
 50
154.86713922084
  0
VERTEX
  5
A6
330
99
100
AcDbEntity
  8
0
100
AcDbVertex
100
AcDb2dVertex
 10
104.6817875509873
 20
12.97493184515976
 30
0.0
 42
0.0480192641995976
  0
VERTEX
  5
A7
330
99
100
AcDbEntity
  8
0
100
AcDbVertex
100
AcDb2dVertex
 10
103.6346040224384
 20
12.87412944492624
 30
0.0
 42
0.0617587255956112
  0
VERTEX
  5
A8
330
99
100
AcDbEntity
  8
0
100
AcDbVertex
100
AcDb2dVertex
 10
102.855774753642
 20
12.62009815151499
 30
0.0
 42
0.1025674015815593
 70
     2
 50
205.1328607791599
  0
VERTEX
  5
A9
330
99
100
AcDbEntity
  8
0
100
AcDbVertex
100
AcDb2dVertex
 10
102.2524573617354
 20
12.16801530459844
 30
0.0
 42
0.1828233251715536
 50
205.1328607791599
  0
SEQEND
  5
AA
330
99
100
AcDbEntity
  8
0
  0
ARC
  5
AB
330
6C
100
AcDbEntity
  8
0
100
AcDbCircle
 10
102.0994154879147
 20
12.79640266116031
 30
0.0
 40
0.5164744126145121
100
AcDbArc
 50
90.0
 51
180.0
  0
LINE
  5
AC
330
6C
100
AcDbEntity
  8
0
100
AcDbLine
 10
101.5829410753002
 20
12.79640266116031
 30
0.0
 11
101.5829410753002
 21
10.73050501070227
 31
0.0
  0
ARC
  5
AD
330
6C
100
AcDbEntity
  8
0
100
AcDbCircle
 10
102.0994154879147
 20
10.73050501070227
 30
0.0
 40
0.5164744126145121
100
AcDbArc
 50
180.0
 51
270.0
  0
POLYLINE
  5
AE
330
6C
100
AcDbEntity
  8
0
100
AcDb2dPolyline
 66
     1
 10
0.0
 20
0.0
 30
0.0
  0
VERTEX
  5
AF
330
AE
100
AcDbEntity
  8
0
100
AcDbVertex
100
AcDb2dVertex
 10
104.1443303374492
 20
11.23138425399619
 30
0.0
 42
0.0570538596573184
  0
VERTEX
  5
B0
330
AE
100
AcDbEntity
  8
0
100
AcDbVertex
100
AcDb2dVertex
 10
104.2603271154562
 20
10.90680952034742
 30
0.0
 42
0.1038195938885091
 70
     2
 50
296.1967246921072
  0
VERTEX
  5
B1
330
AE
100
AcDbEntity
  8
0
100
AcDbVertex
100
AcDb2dVertex
 10
104.4806008205644
 20
10.62538978637222
 30
0.0
 42
0.1767522344444316
 50
296.1967246921072
  0
VERTEX
  5
B2
330
AE
100
AcDbEntity
  8
0
100
AcDbVertex
100
AcDb2dVertex
 10
104.6817875509873
 20
10.55197582670286
 30
0.0
 42
0.1767522344444399
  0
VERTEX
  5
B3
330
AE
100
AcDbEntity
  8
0
100
AcDbVertex
100
AcDb2dVertex
 10
104.8829742814103
 20
10.62538978637222
 30
0.0
 42
0.1038195938885123
  0
VERTEX
  5
B4
330
AE
100
AcDbEntity
  8
0
100
AcDbVertex
100
AcDb2dVertex
 10
105.1032479865183
 20
10.90680952034742
 30
0.0
 42
0.0570538596573163
 70
     2
 50
63.8032753078928
  0
VERTEX
  5
B5
330
AE
100
AcDbEntity
  8
0
100
AcDbVertex
100
AcDb2dVertex
 10
105.2192447645254
 20
11.23138425399619
 30
0.0
 42
0.0503013836282066
 50
63.8032753078928
  0
SEQEND
  5
B6
330
AE
100
AcDbEntity
  8
0
  0
POLYLINE
  5
B7
330
6C
100
AcDbEntity
  8
0
100
AcDb2dPolyline
 66
     1
 10
0.0
 20
0.0
 30
0.0
  0
VERTEX
  5
B8
330
B7
100
AcDbEntity
  8
0
100
AcDbVertex
100
AcDb2dVertex
 10
104.6817875509873
 20
12.97493184515976
 30
0.0
 42
0.1767522344444361
  0
VERTEX
  5
B9
330
B7
100
AcDbEntity
  8
0
100
AcDbVertex
100
AcDb2dVertex
 10
104.4806008205644
 20
12.90151788549034
 30
0.0
 42
0.1038195938884991
  0
VERTEX
  5
BA
330
B7
100
AcDbEntity
  8
0
100
AcDbVertex
100
AcDb2dVertex
 10
104.2603271154562
 20
12.62009815151516
 30
0.0
 42
0.0567223889277798
 70
     2
 50
243.8032753078928
  0
VERTEX
  5
BB
330
B7
100
AcDbEntity
  8
0
100
AcDbVertex
100
AcDb2dVertex
 10
104.1447867019841
 20
12.29747327598939
 30
0.0
 42
0.0503013836282199
 50
243.8032753078928
  0
SEQEND
  5
BC
330
B7
100
AcDbEntity
  8
0
  0
POLYLINE
  5
BD
330
6C
100
AcDbEntity
  8
0
100
AcDb2dPolyline
 66
     1
 10
0.0
 20
0.0
 30
0.0
  0
VERTEX
  5
BE
330
BD
100
AcDbEntity
  8
0
100
AcDbVertex
100
AcDb2dVertex
 10
104.6817875509873
 20
12.97493184515976
 30
0.0
 42
0.0895889244631779
  0
VERTEX
  5
BF
330
BD
100
AcDbEntity
  8
0
100
AcDbVertex
100
AcDb2dVertex
 10
104.1613087281777
 20
12.88091900573925
 30
0.0
 42
0.094347402511486
  0
VERTEX
  5
C0
330
BD
100
AcDbEntity
  8
0
100
AcDbVertex
100
AcDb2dVertex
 10
103.7316094576124
 20
12.62009815151512
 30
0.0
 42
0.0687403046083514
 70
     2
 50
222.0366145404387
  0
VERTEX
  5
C1
330
BD
100
AcDbEntity
  8
0
100
AcDbVertex
100
AcDb2dVertex
 10
103.5151773024832
 20
12.3630648564762
 30
0.0
 42
0.1080871028423927
 50
222.0366145404387
  0
SEQEND
  5
C2
330
BD
100
AcDbEntity
  8
0
  0
POLYLINE
  5
C3
330
6C
100
AcDbEntity
  8
0
100
AcDb2dPolyline
 66
     1
 10
0.0
 20
0.0
 30
0.0
  0
VERTEX
  5
C4
330
C3
100
AcDbEntity
  8
0
100
AcDbVertex
100
AcDb2dVertex
 10
104.6817875509873
 20
12.97493184515976
 30
0.0
 42
0.0631748622128155
  0
VERTEX
  5
C5
330
C3
100
AcDbEntity
  8
0
100
AcDbVertex
100
AcDb2dVertex
 10
103.9039145723974
 20
12.87625397907525
 30
0.0
 42
0.0762621633615699
  0
VERTEX
  5
C6
330
C3
100
AcDbEntity
  8
0
100
AcDbVertex
100
AcDb2dVertex
 10
103.3057252836313
 20
12.62009815151512
 30
0.0
 42
0.0512131062417906
 70
     2
 50
211.9036308145036
  0
VERTEX
  5
C7
330
C3
100
AcDbEntity
  8
0
100
AcDbVertex
100
AcDb2dVertex
 10
103.0719459854797
 20
12.4389752660055
 30
0.0
 42
0.1478388992712295
 50
211.9036308145036
  0
SEQEND
  5
C8
330
C3
100
AcDbEntity
  8
0
  0
POLYLINE
  5
C9
330
6C
100
AcDbEntity
  8
0
100
AcDb2dPolyline
 66
     1
 10
0.0
 20
0.0
 30
0.0
  0
VERTEX
  5
CA
330
C9
100
AcDbEntity
  8
0
100
AcDbVertex
100
AcDb2dVertex
 10
105.2187883999906
 20
12.29747327598939
 30
0.0
 42
0.0567223889277601
  0
VERTEX
  5
CB
330
C9
100
AcDbEntity
  8
0
100
AcDbVertex
100
AcDb2dVertex
 10
105.1032479865183
 20
12.62009815151516
 30
0.0
 42
0.1038195938884991
 70
     2
 50
116.1967246921072
  0
VERTEX
  5
CC
330
C9
100
AcDbEntity
  8
0
100
AcDbVertex
100
AcDb2dVertex
 10
104.8829742814103
 20
12.90151788549034
 30
0.0
 42
0.1767522344444361
 50
116.1967246921072
  0
VERTEX
  5
CD
330
C9
100
AcDbEntity
  8
0
100
AcDbVertex
100
AcDb2dVertex
 10
104.6817875509873
 20
12.97493184515976
 30
0.0
 42
0.1767522344444361
  0
SEQEND
  5
CE
330
C9
100
AcDbEntity
  8
0
  0
ARC
  5
CF
330
6C
100
AcDbEntity
  8
0
100
AcDbCircle
 10
107.26415961406
 20
12.79640266116031
 30
0.0
 40
0.5164744126145121
100
AcDbArc
 50
0.0
 51
90.0
  0
CIRCLE
  5
D0
330
6C
100
AcDbEntity
  8
0
100
AcDbCircle
 10
108.2677750375394
 20
13.04671831940113
 30
0.0
 40
0.2687827574035217
  0
TEXT
  5
D1
330
6C
100
AcDbEntity
  8
0
100
AcDbText
 10
108.0944458684465
 20
12.86704696602821
 30
0.0
 40
0.3154936981012765
  1
R
  7
SANSSERIF
100
AcDbText
  0
LINE
  5
D2
330
6C
100
AcDbEntity
  8
0
100
AcDbLine
 10
107.7806340266743
 20
10.73050501070227
 30
0.0
 11
107.7806340266743
 21
12.79640266116031
 31
0.0
  0
ARC
  5
D3
330
6C
100
AcDbEntity
  8
0
100
AcDbCircle
 10
107.26415961406
 20
10.73050501070227
 30
0.0
 40
0.5164744126145121
100
AcDbArc
 50
270.0
 51
0.0
  0
CIRCLE
  5
17B
330
6C
100
AcDbEntity
  8
Visible (ANSI)
100
AcDbCircle
 10
50.99916427058254
 20
38.72309724831665
 30
0.0
 40
0.2500000000000006
  0
CIRCLE
  5
17C
330
6C
100
AcDbEntity
  8
Visible (ANSI)
100
AcDbCircle
 10
17.83916427058256
 20
38.72309724831665
 30
0.0
 40
0.2500000000000006
  0
CIRCLE
  5
17D
330
6C
100
AcDbEntity
  8
Visible (ANSI)
100
AcDbCircle
 10
34.41916427058254
 20
16.14309724831665
 30
0.0
 40
0.2499999999999999
  0
CIRCLE
  5
17E
330
6C
100
AcDbEntity
  8
Visible (ANSI)
100
AcDbCircle
 10
34.41916427058254
 20
61.30309724831665
 30
0.0
 40
0.2499999999999999
  0
LINE
  5
17F
330
6C
100
AcDbEntity
  8
Visible (ANSI)
100
AcDbLine
 10
19.03716427058256
 20
15.62309724831665
 30
0.0
 11
49.80116427058255
 21
15.62309724831665
 31
0.0
  0
LINE
  5
180
330
6C
100
AcDbEntity
  8
Visible (ANSI)
100
AcDbLine
 10
19.03716427058256
 20
15.62309724831665
 30
0.0
 11
19.03716427058256
 21
15.73244724831665
 31
0.0
  0
LINE
  5
181
330
6C
100
AcDbEntity
  8
Visible (ANSI)
100
AcDbLine
 10
49.80116427058255
 20
15.62309724831665
 30
0.0
 11
49.80116427058255
 21
15.73244724831665
 31
0.0
  0
LINE
  5
182
330
6C
100
AcDbEntity
  8
Visible (ANSI)
100
AcDbLine
 10
49.80136427058255
 20
15.73264724831665
 30
0.0
 11
49.80136427058255
 21
15.62309724831665
 31
0.0
  0
LINE
  5
183
330
6C
100
AcDbEntity
  8
Visible (ANSI)
100
AcDbLine
 10
49.80116427058255
 20
15.73264724831665
 30
0.0
 11
49.80136427058255
 21
15.73264724831665
 31
0.0
  0
LINE
  5
184
330
6C
100
AcDbEntity
  8
Visible (ANSI)
100
AcDbLine
 10
19.03696427058256
 20
15.73264724831665
 30
0.0
 11
19.03716427058256
 21
15.73264724831665
 31
0.0
  0
LINE
  5
185
330
6C
100
AcDbEntity
  8
Visible (ANSI)
100
AcDbLine
 10
19.03696427058256
 20
15.62309724831665
 30
0.0
 11
19.03696427058256
 21
15.73264724831665
 31
0.0
  0
LINE
  5
186
330
6C
100
AcDbEntity
  8
Hidden (ANSI)
 48
1.079046964645385
100
AcDbLine
 10
49.80116427058255
 20
15.71684724831665
 30
0.0
 11
19.03716427058256
 21
15.71684724831665
 31
0.0
  0
LINE
  5
187
330
6C
100
AcDbEntity
  8
Visible (ANSI)
100
AcDbLine
 10
19.03716427058256
 20
15.73264724831665
 30
0.0
 11
19.03716427058256
 21
15.73244724831665
 31
0.0
  0
LINE
  5
188
330
6C
100
AcDbEntity
  8
Visible (ANSI)
100
AcDbLine
 10
49.80116427058255
 20
15.73244724831665
 30
0.0
 11
49.80116427058255
 21
15.73264724831665
 31
0.0
  0
LINE
  5
189
330
6C
100
AcDbEntity
  8
Visible (ANSI)
100
AcDbLine
 10
19.03696427058256
 20
15.62309724831665
 30
0.0
 11
17.81916427058256
 21
15.62309724831665
 31
0.0
  0
LINE
  5
18A
330
6C
100
AcDbEntity
  8
Visible (ANSI)
100
AcDbLine
 10
51.01916427058256
 20
15.62309724831665
 30
0.0
 11
49.80136427058255
 21
15.62309724831665
 31
0.0
  0
LINE
  5
18B
330
6C
100
AcDbEntity
  8
Visible (ANSI)
100
AcDbLine
 10
51.51916427058256
 20
17.34089724831665
 30
0.0
 11
51.51916427058256
 21
16.12309724831665
 31
0.0
  0
LINE
  5
18C
330
6C
100
AcDbEntity
  8
Visible (ANSI)
100
AcDbLine
 10
51.51916427058254
 20
61.32309724831666
 30
0.0
 11
51.51916427058254
 21
60.10529724831664
 31
0.0
  0
LINE
  5
18D
330
6C
100
AcDbEntity
  8
Visible (ANSI)
100
AcDbLine
 10
49.80136427058255
 20
61.82309724831664
 30
0.0
 11
51.01916427058255
 21
61.82309724831664
 31
0.0
  0
LINE
  5
18E
330
6C
100
AcDbEntity
  8
Visible (ANSI)
100
AcDbLine
 10
17.81916427058255
 20
61.82309724831664
 30
0.0
 11
19.03696427058254
 21
61.82309724831664
 31
0.0
  0
LINE
  5
18F
330
6C
100
AcDbEntity
  8
Visible (ANSI)
100
AcDbLine
 10
17.31916427058254
 20
60.10529724831664
 30
0.0
 11
17.31916427058254
 21
61.32309724831664
 31
0.0
  0
LINE
  5
190
330
6C
100
AcDbEntity
  8
Visible (ANSI)
100
AcDbLine
 10
17.31916427058256
 20
16.12309724831665
 30
0.0
 11
17.31916427058256
 21
17.34089724831665
 31
0.0
  0
LINE
  5
191
330
6C
100
AcDbEntity
  8
Visible (ANSI)
100
AcDbLine
 10
51.51916427058256
 20
16.12309724831665
 30
0.0
 11
51.01916427058256
 21
15.62309724831665
 31
0.0
  0
LINE
  5
192
330
6C
100
AcDbEntity
  8
Visible (ANSI)
100
AcDbLine
 10
51.51916427058256
 20
17.34089724831665
 30
0.0
 11
51.40961427058256
 21
17.34089724831665
 31
0.0
  0
LINE
  5
193
330
6C
100
AcDbEntity
  8
Visible (ANSI)
100
AcDbLine
 10
51.40961427058256
 20
17.34089724831665
 30
0.0
 11
51.40961427058256
 21
17.34109724831665
 31
0.0
  0
LINE
  5
194
330
6C
100
AcDbEntity
  8
Visible (ANSI)
100
AcDbLine
 10
51.40961427058255
 20
60.10509724831665
 30
0.0
 11
51.40961427058255
 21
60.10529724831664
 31
0.0
  0
LINE
  5
195
330
6C
100
AcDbEntity
  8
Visible (ANSI)
100
AcDbLine
 10
51.40961427058255
 20
60.10529724831664
 30
0.0
 11
51.51916427058254
 21
60.10529724831664
 31
0.0
  0
LINE
  5
196
330
6C
100
AcDbEntity
  8
Visible (ANSI)
100
AcDbLine
 10
51.51916427058254
 20
17.34109724831665
 30
0.0
 11
51.51916427058253
 21
60.10509724831665
 31
0.0
  0
LINE
  5
197
330
6C
100
AcDbEntity
  8
Visible (ANSI)
100
AcDbLine
 10
51.51916427058253
 20
17.34109724831665
 30
0.0
 11
51.40981427058256
 21
17.34109724831665
 31
0.0
  0
LINE
  5
198
330
6C
100
AcDbEntity
  8
Visible (ANSI)
100
AcDbLine
 10
51.51916427058253
 20
60.10509724831665
 30
0.0
 11
51.40981427058254
 21
60.10509724831665
 31
0.0
  0
LINE
  5
199
330
6C
100
AcDbEntity
  8
Hidden (ANSI)
 48
1.071390509605407
100
AcDbLine
 10
51.42541427058255
 20
60.10509724831665
 30
0.0
 11
51.42541427058255
 21
17.34109724831665
 31
0.0
  0
LINE
  5
19A
330
6C
100
AcDbEntity
  8
Visible (ANSI)
100
AcDbLine
 10
51.40961427058256
 20
17.34109724831665
 30
0.0
 11
51.40981427058256
 21
17.34109724831665
 31
0.0
  0
LINE
  5
19B
330
6C
100
AcDbEntity
  8
Visible (ANSI)
100
AcDbLine
 10
51.40981427058256
 20
60.10509724831665
 30
0.0
 11
51.40961427058255
 21
60.10509724831665
 31
0.0
  0
LINE
  5
19C
330
6C
100
AcDbEntity
  8
Visible (ANSI)
100
AcDbLine
 10
51.01916427058255
 20
61.82309724831664
 30
0.0
 11
51.51916427058254
 21
61.32309724831666
 31
0.0
  0
LINE
  5
19D
330
6C
100
AcDbEntity
  8
Visible (ANSI)
100
AcDbLine
 10
49.80136427058255
 20
61.82309724831664
 30
0.0
 11
49.80136427058255
 21
61.71354724831666
 31
0.0
  0
LINE
  5
19E
330
6C
100
AcDbEntity
  8
Visible (ANSI)
100
AcDbLine
 10
49.80136427058255
 20
61.71354724831666
 30
0.0
 11
49.80116427058255
 21
61.71354724831666
 31
0.0
  0
LINE
  5
19F
330
6C
100
AcDbEntity
  8
Visible (ANSI)
100
AcDbLine
 10
19.03716427058254
 20
61.71354724831664
 30
0.0
 11
19.03696427058254
 21
61.71354724831664
 31
0.0
  0
LINE
  5
1A0
330
6C
100
AcDbEntity
  8
Visible (ANSI)
100
AcDbLine
 10
19.03696427058254
 20
61.71354724831664
 30
0.0
 11
19.03696427058254
 21
61.82309724831664
 31
0.0
  0
LINE
  5
1A1
330
6C
100
AcDbEntity
  8
Visible (ANSI)
100
AcDbLine
 10
49.80116427058255
 20
61.82309724831664
 30
0.0
 11
19.03716427058254
 21
61.82309724831664
 31
0.0
  0
LINE
  5
1A2
330
6C
100
AcDbEntity
  8
Visible (ANSI)
100
AcDbLine
 10
49.80116427058255
 20
61.82309724831664
 30
0.0
 11
49.80116427058255
 21
61.71374724831665
 31
0.0
  0
LINE
  5
1A3
330
6C
100
AcDbEntity
  8
Visible (ANSI)
100
AcDbLine
 10
19.03716427058254
 20
61.82309724831664
 30
0.0
 11
19.03716427058255
 21
61.71374724831665
 31
0.0
  0
LINE
  5
1A4
330
6C
100
AcDbEntity
  8
Hidden (ANSI)
 48
1.079046964645385
100
AcDbLine
 10
19.03716427058254
 20
61.72934724831664
 30
0.0
 11
49.80116427058255
 21
61.72934724831664
 31
0.0
  0
LINE
  5
1A5
330
6C
100
AcDbEntity
  8
Visible (ANSI)
100
AcDbLine
 10
49.80116427058255
 20
61.71354724831666
 30
0.0
 11
49.80116427058255
 21
61.71374724831665
 31
0.0
  0
LINE
  5
1A6
330
6C
100
AcDbEntity
  8
Visible (ANSI)
100
AcDbLine
 10
19.03716427058254
 20
61.71374724831665
 30
0.0
 11
19.03716427058254
 21
61.71354724831664
 31
0.0
  0
LINE
  5
1A7
330
6C
100
AcDbEntity
  8
Visible (ANSI)
100
AcDbLine
 10
17.31916427058254
 20
61.32309724831664
 30
0.0
 11
17.81916427058255
 21
61.82309724831664
 31
0.0
  0
LINE
  5
1A8
330
6C
100
AcDbEntity
  8
Visible (ANSI)
100
AcDbLine
 10
17.31916427058254
 20
60.10529724831664
 30
0.0
 11
17.42871427058253
 21
60.10529724831664
 31
0.0
  0
LINE
  5
1A9
330
6C
100
AcDbEntity
  8
Visible (ANSI)
100
AcDbLine
 10
17.42871427058253
 20
60.10529724831664
 30
0.0
 11
17.42871427058253
 21
60.10509724831665
 31
0.0
  0
LINE
  5
1AA
330
6C
100
AcDbEntity
  8
Visible (ANSI)
100
AcDbLine
 10
17.42871427058254
 20
17.34109724831665
 30
0.0
 11
17.42871427058254
 21
17.34089724831665
 31
0.0
  0
LINE
  5
1AB
330
6C
100
AcDbEntity
  8
Visible (ANSI)
100
AcDbLine
 10
17.42871427058254
 20
17.34089724831665
 30
0.0
 11
17.31916427058256
 21
17.34089724831665
 31
0.0
  0
LINE
  5
1AC
330
6C
100
AcDbEntity
  8
Visible (ANSI)
100
AcDbLine
 10
17.31916427058256
 20
60.10509724831663
 30
0.0
 11
17.31916427058257
 21
17.34109724831665
 31
0.0
  0
LINE
  5
1AD
330
6C
100
AcDbEntity
  8
Visible (ANSI)
100
AcDbLine
 10
17.31916427058256
 20
60.10509724831665
 30
0.0
 11
17.42851427058253
 21
60.10509724831665
 31
0.0
  0
LINE
  5
1AE
330
6C
100
AcDbEntity
  8
Visible (ANSI)
100
AcDbLine
 10
17.31916427058257
 20
17.34109724831665
 30
0.0
 11
17.42851427058254
 21
17.34109724831665
 31
0.0
  0
LINE
  5
1AF
330
6C
100
AcDbEntity
  8
Hidden (ANSI)
 48
1.071390509605407
100
AcDbLine
 10
17.41291427058257
 20
17.34109724831665
 30
0.0
 11
17.41291427058255
 21
60.10509724831663
 31
0.0
  0
LINE
  5
1B0
330
6C
100
AcDbEntity
  8
Visible (ANSI)
100
AcDbLine
 10
17.42871427058253
 20
60.10509724831665
 30
0.0
 11
17.42851427058253
 21
60.10509724831665
 31
0.0
  0
LINE
  5
1B1
330
6C
100
AcDbEntity
  8
Visible (ANSI)
100
AcDbLine
 10
17.42851427058254
 20
17.34109724831665
 30
0.0
 11
17.42871427058254
 21
17.34109724831665
 31
0.0
  0
LINE
  5
1B2
330
6C
100
AcDbEntity
  8
Visible (ANSI)
100
AcDbLine
 10
17.81916427058256
 20
15.62309724831665
 30
0.0
 11
17.31916427058256
 21
16.12309724831665
 31
0.0
  0
CIRCLE
  5
1B3
330
6C
100
AcDbEntity
  8
Visible (ANSI)
100
AcDbCircle
 10
50.99916427058254
 20
61.30309724831665
 30
0.0
 40
0.25
  0
CIRCLE
  5
1B4
330
6C
100
AcDbEntity
  8
Visible (ANSI)
100
AcDbCircle
 10
17.83916427058256
 20
61.30309724831665
 30
0.0
 40
0.25
  0
CIRCLE
  5
1B5
330
6C
100
AcDbEntity
  8
Visible (ANSI)
100
AcDbCircle
 10
17.83916427058256
 20
16.14309724831665
 30
0.0
 40
0.25
  0
CIRCLE
  5
1B6
330
6C
100
AcDbEntity
  8
Visible (ANSI)
100
AcDbCircle
 10
50.99916427058255
 20
16.14309724831665
 30
0.0
 40
0.25
  0
CIRCLE
  5
1B7
330
6C
100
AcDbEntity
  8
Visible (ANSI)
100
AcDbCircle
 10
50.99916427058255
 20
60.55309724831664
 30
0.0
 40
0.15625
  0
CIRCLE
  5
1B8
330
6C
100
AcDbEntity
  8
Visible (ANSI)
100
AcDbCircle
 10
17.83916427058256
 20
60.55309724831664
 30
0.0
 40
0.15625
  0
CIRCLE
  5
1B9
330
6C
100
AcDbEntity
  8
Visible (ANSI)
100
AcDbCircle
 10
17.83916427058256
 20
16.89309724831665
 30
0.0
 40
0.15625
  0
CIRCLE
  5
1BA
330
6C
100
AcDbEntity
  8
Visible (ANSI)
100
AcDbCircle
 10
50.99916427058255
 20
16.89309724831665
 30
0.0
 40
0.15625
  0
LINE
  5
1BB
330
6C
100
AcDbEntity
  8
Visible (ANSI)
100
AcDbLine
 10
66.67657480757542
 20
15.62309724831665
 30
0.0
 11
66.01192480757543
 21
15.62309724831665
 31
0.0
  0
LINE
  5
1BC
330
6C
100
AcDbEntity
  8
Visible (ANSI)
100
AcDbLine
 10
66.67657480757542
 20
15.71684724831665
 30
0.0
 11
66.67657480757542
 21
15.62309724831665
 31
0.0
  0
LINE
  5
1BD
330
6C
100
AcDbEntity
  8
Visible (ANSI)
100
AcDbLine
 10
66.01192480757543
 20
15.71684724831665
 30
0.0
 11
66.67657480757542
 21
15.71684724831665
 31
0.0
  0
ARC
  5
1BE
330
6C
100
AcDbEntity
  8
Visible (ANSI)
100
AcDbCircle
 10
66.01192480757543
 20
15.73244724831665
 30
0.0
 40
0.0156
100
AcDbArc
 50
180.0
 51
270.0
  0
ARC
  5
1BF
330
6C
100
AcDbEntity
  8
Visible (ANSI)
100
AcDbCircle
 10
66.01192480757543
 20
15.73244724831665
 30
0.0
 40
0.1093499999999973
100
AcDbArc
 50
261.7981333521958
 51
270.0
  0
ARC
  5
1C0
330
6C
100
AcDbEntity
  8
Hidden (ANSI)
 48
0.0430154912173748
100
AcDbCircle
 10
66.01192480757543
 20
15.73244724831665
 30
0.0
 40
0.1093499999999999
100
AcDbArc
 50
180.0
 51
261.7981333521962
  0
LINE
  5
1C1
330
6C
100
AcDbEntity
  8
Hidden (ANSI)
 48
0.0257919691503048
100
AcDbLine
 10
65.90257480757543
 20
15.73264724831665
 30
0.0
 11
65.99632480757543
 21
15.73264724831665
 31
0.0
  0
LINE
  5
1C2
330
6C
100
AcDbEntity
  8
Visible (ANSI)
100
AcDbLine
 10
65.99632480757593
 20
61.32309724831666
 30
0.0
 11
65.99632480757579
 21
61.82309724831664
 31
0.0
  0
LINE
  5
1C3
330
6C
100
AcDbEntity
  8
Visible (ANSI)
100
AcDbLine
 10
65.90257480757578
 20
61.82309724831664
 30
0.0
 11
65.90257480757593
 21
61.32309724831666
 31
0.0
  0
LINE
  5
1C4
330
6C
100
AcDbEntity
  8
Visible (ANSI)
100
AcDbLine
 10
65.99632480757579
 20
61.82309724831664
 30
0.0
 11
65.90257480757578
 21
61.82309724831664
 31
0.0
  0
LINE
  5
1C5
330
6C
100
AcDbEntity
  8
Visible (ANSI)
100
AcDbLine
 10
65.90257480757593
 20
61.32309724831666
 30
0.0
 11
65.99632480757593
 21
61.32309724831666
 31
0.0
  0
LINE
  5
1C6
330
6C
100
AcDbEntity
  8
Visible (ANSI)
100
AcDbLine
 10
65.99632480757593
 20
60.10529724831664
 30
0.0
 11
65.99632480757593
 21
61.32309724831666
 31
0.0
  0
LINE
  5
1C7
330
6C
100
AcDbEntity
  8
Visible (ANSI)
100
AcDbLine
 10
65.99632480757593
 20
16.12309724831665
 30
0.0
 11
65.99632480757593
 21
17.34089724831665
 31
0.0
  0
LINE
  5
1C8
330
6C
100
AcDbEntity
  8
Visible (ANSI)
100
AcDbLine
 10
65.90257480757593
 20
17.34089724831665
 30
0.0
 11
65.90257480757593
 21
16.12309724831665
 31
0.0
  0
LINE
  5
1C9
330
6C
100
AcDbEntity
  8
Visible (ANSI)
100
AcDbLine
 10
65.90257480757593
 20
61.32309724831666
 30
0.0
 11
65.90257480757593
 21
60.10529724831664
 31
0.0
  0
LINE
  5
1CA
330
6C
100
AcDbEntity
  8
Visible (ANSI)
100
AcDbLine
 10
65.9963248075759
 20
60.10529724831664
 30
0.0
 11
65.9963248075759
 21
60.10509724831665
 31
0.0
  0
LINE
  5
1CB
330
6C
100
AcDbEntity
  8
Visible (ANSI)
100
AcDbLine
 10
65.9963248075759
 20
17.34109724831665
 30
0.0
 11
65.9963248075759
 21
17.34089724831665
 31
0.0
  0
LINE
  5
1CC
330
6C
100
AcDbEntity
  8
Visible (ANSI)
100
AcDbLine
 10
65.9025748075759
 20
17.34089724831665
 30
0.0
 11
65.9025748075759
 21
17.34109724831665
 31
0.0
  0
LINE
  5
1CD
330
6C
100
AcDbEntity
  8
Visible (ANSI)
100
AcDbLine
 10
65.9025748075759
 20
17.34109724831665
 30
0.0
 11
65.9025748075759
 21
60.10509724831665
 31
0.0
  0
LINE
  5
1CE
330
6C
100
AcDbEntity
  8
Visible (ANSI)
100
AcDbLine
 10
65.9025748075759
 20
60.10509724831665
 30
0.0
 11
65.9025748075759
 21
60.10529724831664
 31
0.0
  0
LINE
  5
1CF
330
6C
100
AcDbEntity
  8
Visible (ANSI)
100
AcDbLine
 10
66.01192480757595
 20
17.34109724831665
 30
0.0
 11
65.9025748075759
 21
17.34109724831665
 31
0.0
  0
LINE
  5
1D0
330
6C
100
AcDbEntity
  8
Visible (ANSI)
100
AcDbLine
 10
66.01192480757595
 20
60.10509724831665
 30
0.0
 11
65.9025748075759
 21
60.10509724831665
 31
0.0
  0
LINE
  5
1D1
330
6C
100
AcDbEntity
  8
Visible (ANSI)
100
AcDbLine
 10
65.90257480757593
 20
60.10529724831664
 30
0.0
 11
65.99632480757593
 21
60.10529724831664
 31
0.0
  0
LINE
  5
1D2
330
6C
100
AcDbEntity
  8
Visible (ANSI)
100
AcDbLine
 10
65.99632480757593
 20
17.34089724831665
 30
0.0
 11
65.90257480757593
 21
17.34089724831665
 31
0.0
  0
LINE
  5
1D3
330
6C
100
AcDbEntity
  8
Hidden (ANSI)
 48
1.071390509605407
100
AcDbLine
 10
65.9963248075759
 20
60.10509724831665
 30
0.0
 11
65.9963248075759
 21
17.34109724831665
 31
0.0
  0
LINE
  5
1D4
330
6C
100
AcDbEntity
  8
Visible (ANSI)
100
AcDbLine
 10
65.99632480757579
 20
15.62309724831665
 30
0.0
 11
65.99632480757593
 21
16.12309724831665
 31
0.0
  0
LINE
  5
1D5
330
6C
100
AcDbEntity
  8
Visible (ANSI)
100
AcDbLine
 10
65.90257480757593
 20
16.12309724831665
 30
0.0
 11
65.90257480757578
 21
15.62309724831665
 31
0.0
  0
LINE
  5
1D6
330
6C
100
AcDbEntity
  8
Visible (ANSI)
100
AcDbLine
 10
65.90257480757578
 20
15.62309724831665
 30
0.0
 11
65.99632480757579
 21
15.62309724831665
 31
0.0
  0
LINE
  5
1D7
330
6C
100
AcDbEntity
  8
Visible (ANSI)
100
AcDbLine
 10
65.99632480757593
 20
16.12309724831665
 30
0.0
 11
65.90257480757593
 21
16.12309724831665
 31
0.0
  0
LINE
  5
1D8
330
6C
100
AcDbEntity
  8
Visible (ANSI)
100
AcDbLine
 10
66.01192480757617
 20
61.82309724831664
 30
0.0
 11
66.67657480757542
 21
61.82309724831664
 31
0.0
  0
LINE
  5
1D9
330
6C
100
AcDbEntity
  8
Visible (ANSI)
100
AcDbLine
 10
66.67657480757542
 20
61.72934724831664
 30
0.0
 11
66.01192480757617
 21
61.72934724831664
 31
0.0
  0
LINE
  5
1DA
330
6C
100
AcDbEntity
  8
Visible (ANSI)
100
AcDbLine
 10
66.67657480757542
 20
61.82309724831664
 30
0.0
 11
66.67657480757542
 21
61.72934724831664
 31
0.0
  0
ARC
  5
1DB
330
6C
100
AcDbEntity
  8
Hidden (ANSI)
 48
0.0430154912173748
100
AcDbCircle
 10
66.01192480757543
 20
61.71374724831665
 30
0.0
 40
0.1093499999999938
100
AcDbArc
 50
98.20186664779411
 51
180.0
  0
LINE
  5
1DC
330
6C
100
AcDbEntity
  8
Hidden (ANSI)
 48
0.0257919691503048
100
AcDbLine
 10
65.90257480757543
 20
61.71354724831666
 30
0.0
 11
65.99632480757543
 21
61.71354724831666
 31
0.0
  0
ARC
  5
1DD
330
6C
100
AcDbEntity
  8
Visible (ANSI)
100
AcDbCircle
 10
66.01192480757548
 20
61.71374724831586
 30
0.0
 40
0.1093500000007777
100
AcDbArc
 50
89.99999999963105
 51
98.20186664777072
  0
ARC
  5
1DE
330
6C
100
AcDbEntity
  8
Visible (ANSI)
100
AcDbCircle
 10
66.01192480757543
 20
61.71374724831665
 30
0.0
 40
0.0156000000000056
100
AcDbArc
 50
89.99999999723655
 51
180.0
  0
LINE
  5
1DF
330
6C
100
AcDbEntity
  8
Visible (ANSI)
100
AcDbLine
 10
66.01192480757595
 20
17.34109724831665
 30
0.0
 11
66.67657480757593
 21
17.34109724831665
 31
0.0
  0
LINE
  5
1E0
330
6C
100
AcDbEntity
  8
Visible (ANSI)
100
AcDbLine
 10
66.67657480757593
 20
60.10509724831665
 30
0.0
 11
66.67657480757593
 21
17.34109724831665
 31
0.0
  0
LINE
  5
1E1
330
6C
100
AcDbEntity
  8
Visible (ANSI)
100
AcDbLine
 10
66.67657480757593
 20
60.10509724831665
 30
0.0
 11
66.01192480757595
 21
60.10509724831665
 31
0.0
  0
LINE
  5
1E2
330
6C
100
AcDbEntity
  8
Hidden (ANSI)
 48
0.0257919691503048
100
AcDbLine
 10
65.90257480757578
 20
38.97309724831666
 30
0.0
 11
65.99632480757579
 21
38.97309724831666
 31
0.0
  0
LINE
  5
1E3
330
6C
100
AcDbEntity
  8
Hidden (ANSI)
 48
0.0257919691503048
100
AcDbLine
 10
65.90257480757578
 20
38.47309724831665
 30
0.0
 11
65.99632480757579
 21
38.47309724831665
 31
0.0
  0
LINE
  5
1E4
330
6C
100
AcDbEntity
  8
Hidden (ANSI)
 48
0.0257919691503048
100
AcDbLine
 10
65.90257480757578
 20
61.55309724831665
 30
0.0
 11
65.99632480757579
 21
61.55309724831665
 31
0.0
  0
LINE
  5
1E5
330
6C
100
AcDbEntity
  8
Hidden (ANSI)
 48
0.0257919691503048
100
AcDbLine
 10
65.90257480757578
 20
61.05309724831665
 30
0.0
 11
65.99632480757579
 21
61.05309724831665
 31
0.0
  0
LINE
  5
1E6
330
6C
100
AcDbEntity
  8
Hidden (ANSI)
 48
0.0257919691503048
100
AcDbLine
 10
65.90257480757578
 20
16.39309724831665
 30
0.0
 11
65.99632480757579
 21
16.39309724831665
 31
0.0
  0
LINE
  5
1E7
330
6C
100
AcDbEntity
  8
Hidden (ANSI)
 48
0.0257919691503048
100
AcDbLine
 10
65.90257480757578
 20
15.89309724831666
 30
0.0
 11
65.99632480757579
 21
15.89309724831666
 31
0.0
  0
LINE
  5
1E8
330
6C
100
AcDbEntity
  8
Hidden (ANSI)
 48
0.0257919691503048
100
AcDbLine
 10
65.90257480757578
 20
60.70934724831664
 30
0.0
 11
65.99632480757579
 21
60.70934724831664
 31
0.0
  0
LINE
  5
1E9
330
6C
100
AcDbEntity
  8
Hidden (ANSI)
 48
0.0257919691503048
100
AcDbLine
 10
65.90257480757578
 20
60.39684724831664
 30
0.0
 11
65.99632480757579
 21
60.39684724831664
 31
0.0
  0
LINE
  5
1EA
330
6C
100
AcDbEntity
  8
Hidden (ANSI)
 48
0.0257919691503048
100
AcDbLine
 10
65.90257480757578
 20
17.04934724831665
 30
0.0
 11
65.99632480757579
 21
17.04934724831665
 31
0.0
  0
LINE
  5
1EB
330
6C
100
AcDbEntity
  8
Hidden (ANSI)
 48
0.0257919691503048
100
AcDbLine
 10
65.90257480757578
 20
16.73684724831665
 30
0.0
 11
65.99632480757579
 21
16.73684724831665
 31
0.0
  0
ELLIPSE
  5
1EC
330
6C
100
AcDbEntity
  8
Visible (ANSI)
100
AcDbEllipse
 10
111.1988240597328
 20
49.87663202353175
 30
0.0
 11
-0.0717000304000579
 21
0.1245091143886759
 31
0.0
210
0.0
220
0.0
230
1.0
 40
0.578093115915812
 41
0.2678448778124487
 42
2.873747775777209
  0
ELLIPSE
  5
1ED
330
6C
100
AcDbEntity
  8
Visible (ANSI)
100
AcDbEllipse
 10
111.1607256340223
 20
49.85469259929725
 30
0.0
 11
-0.0717000304000576
 21
0.1245091143886753
 31
0.0
210
0.0
220
0.0
230
1.0
 40
0.5780931159158117
 41
0.0
 42
6.283185307179586
  0
ELLIPSE
  5
1EE
330
6C
100
AcDbEntity
  8
Visible (ANSI)
100
AcDbEllipse
 10
97.72315689642859
 20
57.6367526381017
 30
0.0
 11
-0.0717000304000574
 21
0.124509114388675
 31
0.0
210
0.0
220
0.0
230
0.9999999999999998
 40
0.5780931159158119
 41
0.2678448778124487
 42
2.873747775777209
  0
ELLIPSE
  5
1EF
330
6C
100
AcDbEntity
  8
Visible (ANSI)
100
AcDbEllipse
 10
97.68505847071812
 20
57.61481321386719
 30
0.0
 11
-0.0717000304000576
 21
0.1245091143886753
 31
0.0
210
0.0
220
0.0
230
1.0
 40
0.5780931159158117
 41
0.0
 42
6.283185307179586
  0
ELLIPSE
  5
1F0
330
6C
100
AcDbEntity
  8
Visible (ANSI)
100
AcDbEllipse
 10
104.4609904780807
 20
43.14737389464165
 30
0.0
 11
-0.0717000304000573
 21
0.1245091143886746
 31
0.0
210
0.0
220
0.0
230
0.9999999999999998
 40
0.578093115915812
 41
0.2678448778124487
 42
2.873747775777209
  0
ELLIPSE
  5
1F1
330
6C
100
AcDbEntity
  8
Visible (ANSI)
100
AcDbEllipse
 10
104.4228920523702
 20
43.12543447040715
 30
0.0
 11
-0.0717000304000574
 21
0.1245091143886749
 31
0.0
210
0.0
220
0.0
230
0.9999999999999998
 40
0.5780931159158119
 41
0.0
 42
6.283185307179586
  0
ELLIPSE
  5
1F2
330
6C
100
AcDbEntity
  8
Visible (ANSI)
100
AcDbEllipse
 10
104.4609904780807
 20
64.36601076699179
 30
0.0
 11
-0.0717000304000579
 21
0.1245091143886759
 31
0.0
210
0.0
220
0.0
230
1.0
 40
0.578093115915812
 41
0.2678448778124487
 42
2.873747775777209
  0
ELLIPSE
  5
1F3
330
6C
100
AcDbEntity
  8
Visible (ANSI)
100
AcDbEllipse
 10
104.4228920523702
 20
64.34407134275729
 30
0.0
 11
-0.0717000304000574
 21
0.1245091143886749
 31
0.0
210
0.0
220
0.0
230
0.9999999999999998
 40
0.5780931159158119
 41
0.0
 42
6.283185307179586
  0
ELLIPSE
  5
1F4
330
6C
100
AcDbEntity
  8
Visible (ANSI)
100
AcDbEllipse
 10
98.21634355714589
 20
46.55778251295848
 30
0.0
 11
-0.0313615932969715
 21
-0.0544602866336144
 31
0.0
210
0.0
220
0.0
230
0.9999999999999998
 40
0.5780931159156425
 41
5.495853435359344
 42
6.283185307179683
  0
ELLIPSE
  5
1F5
330
6C
100
AcDbEntity
  8
Visible (ANSI)
100
AcDbEllipse
 10
110.7183165550919
 20
39.358375076691
 30
0.0
 11
-0.0313615932969735
 21
-0.0544602866336179
 31
0.0
210
0.0
220
0.0
230
1.0
 40
0.5780931159156426
 41
5.495853435359157
 42
5.556343885665608
  0
LINE
  5
1F6
330
6C
100
AcDbEntity
  8
Visible Narrow (ANSI)
100
AcDbLine
 10
98.1719055533972
 20
46.53219236853136
 30
0.0
 11
110.6738785513432
 21
39.33278493226386
 31
0.0
  0
LINE
  5
1F7
330
6C
100
AcDbEntity
  8
Visible (ANSI)
100
AcDbLine
 10
110.6739598279847
 20
39.33283209909272
 30
0.0
 11
110.6739598279847
 21
39.28135952005451
 31
0.0
  0
LINE
  5
1F8
330
6C
100
AcDbEntity
  8
Visible (ANSI)
100
AcDbLine
 10
110.6738785513432
 20
39.33287890319776
 30
0.0
 11
110.6739598279847
 21
39.33283209909272
 31
0.0
  0
LINE
  5
1F9
330
6C
100
AcDbEntity
  8
Visible (ANSI)
100
AcDbLine
 10
98.17182427675568
 20
46.53233314357028
 30
0.0
 11
98.1719055533972
 21
46.53228633946524
 31
0.0
  0
LINE
  5
1FA
330
6C
100
AcDbEntity
  8
Visible (ANSI)
100
AcDbLine
 10
98.17182427675568
 20
46.48086056453206
 30
0.0
 11
98.17182427675568
 21
46.53233314357028
 31
0.0
  0
LINE
  5
1FB
330
6C
100
AcDbEntity
  8
Visible (ANSI)
100
AcDbLine
 10
98.19790577324342
 20
46.49587989946375
 30
0.0
 11
98.17182427675568
 21
46.48086056453206
 31
0.0
  0
LINE
  5
1FC
330
6C
100
AcDbEntity
  8
Visible (ANSI)
100
AcDbLine
 10
98.18498196384892
 20
46.50332222632488
 30
0.0
 11
110.6739598279847
 21
39.31139818991786
 31
0.0
  0
LINE
  5
1FD
330
6C
100
AcDbEntity
  8
Visible (ANSI)
100
AcDbLine
 10
98.1719055533972
 20
46.53228633946524
 30
0.0
 11
98.1719055533972
 21
46.53219236853136
 31
0.0
  0
LINE
  5
1FE
330
6C
100
AcDbEntity
  8
Visible (ANSI)
100
AcDbLine
 10
110.6738785513432
 20
39.33278493226386
 30
0.0
 11
110.6738785513432
 21
39.33287890319776
 31
0.0
  0
ELLIPSE
  5
1FF
330
6C
100
AcDbEntity
  8
Visible (ANSI)
100
AcDbEllipse
 10
111.1988240597328
 20
60.48595045970682
 30
0.0
 11
-0.0717000304000579
 21
0.1245091143886759
 31
0.0
210
0.0
220
0.0
230
1.0
 40
0.578093115915812
 41
0.2678448778124487
 42
2.873747775777209
  0
ELLIPSE
  5
200
330
6C
100
AcDbEntity
  8
Visible (ANSI)
100
AcDbEllipse
 10
97.7231568964286
 20
68.24607107427677
 30
0.0
 11
-0.0717000304000574
 21
0.124509114388675
 31
0.0
210
0.0
220
0.0
230
1.0
 40
0.5780931159158119
 41
0.2678448778124487
 42
2.873747775777209
  0
ELLIPSE
  5
201
330
6C
100
AcDbEntity
  8
Visible (ANSI)
100
AcDbEllipse
 10
97.72315689642859
 20
47.02743420192663
 30
0.0
 11
-0.0717000304000574
 21
0.1245091143886749
 31
0.0
210
0.0
220
0.0
230
1.0
 40
0.5780931159158121
 41
0.2678448778124487
 42
2.873747775777209
  0
ELLIPSE
  5
202
330
6C
100
AcDbEntity
  8
Visible (ANSI)
100
AcDbEllipse
 10
111.1988240597328
 20
39.26731358735668
 30
0.0
 11
-0.0717000304000578
 21
0.1245091143886757
 31
0.0
210
0.0
220
0.0
230
1.0
 40
0.578093115915812
 41
0.2678448778124123
 42
2.873747775777189
  0
ELLIPSE
  5
203
330
6C
100
AcDbEntity
  8
Visible (ANSI)
100
AcDbEllipse
 10
111.1988240597328
 20
60.13355945761951
 30
0.0
 11
0.0448125190000407
 21
-0.0778181964929194
 31
0.0
210
0.0
220
0.0
230
1.0
 40
0.5780931159158121
 41
3.578838513251547
 42
5.845939447516761
  0
ELLIPSE
  5
204
330
6C
100
AcDbEntity
  8
Visible (ANSI)
100
AcDbEllipse
 10
97.7231568964286
 20
67.89368007218946
 30
0.0
 11
0.0448125190000405
 21
-0.0778181964929192
 31
0.0
210
0.0
220
0.0
230
1.0
 40
0.5780931159158117
 41
3.578838513251547
 42
5.845939447516717
  0
ELLIPSE
  5
205
330
6C
100
AcDbEntity
  8
Visible (ANSI)
100
AcDbEllipse
 10
97.72315689642859
 20
47.37982520401393
 30
0.0
 11
0.0448125190000405
 21
-0.0778181964929192
 31
0.0
210
0.0
220
0.0
230
1.0
 40
0.5780931159158121
 41
3.578838513251549
 42
5.845939447516718
  0
ELLIPSE
  5
206
330
6C
100
AcDbEntity
  8
Visible (ANSI)
100
AcDbEllipse
 10
111.1988240597328
 20
39.61970458944398
 30
0.0
 11
0.0448125190000408
 21
-0.0778181964929197
 31
0.0
210
0.0
220
0.0
230
1.0
 40
0.578093115915812
 41
3.578838513251486
 42
5.845939447516717
  0
ELLIPSE
  5
207
330
6C
100
AcDbEntity
  8
Visible (ANSI)
100
AcDbEllipse
 10
111.1607256340223
 20
60.46401103547232
 30
0.0
 11
-0.0717000304000574
 21
0.124509114388675
 31
0.0
210
0.0
220
0.0
230
1.0
 40
0.5780931159158119
 41
0.0
 42
6.283185307179586
  0
ELLIPSE
  5
208
330
6C
100
AcDbEntity
  8
Visible (ANSI)
100
AcDbEllipse
 10
97.68505847071814
 20
68.22413165004227
 30
0.0
 11
-0.0717000304000574
 21
0.124509114388675
 31
0.0
210
0.0
220
0.0
230
1.0
 40
0.5780931159158119
 41
0.0
 42
6.283185307179586
  0
ELLIPSE
  5
209
330
6C
100
AcDbEntity
  8
Visible (ANSI)
100
AcDbEllipse
 10
97.68505847071812
 20
47.00549477769213
 30
0.0
 11
-0.0717000304000574
 21
0.124509114388675
 31
0.0
210
0.0
220
0.0
230
1.0
 40
0.5780931159158119
 41
0.0
 42
6.283185307179586
  0
ELLIPSE
  5
20A
330
6C
100
AcDbEntity
  8
Visible (ANSI)
100
AcDbEllipse
 10
111.1607256340223
 20
39.24537416312217
 30
0.0
 11
-0.0717000304000574
 21
0.124509114388675
 31
0.0
210
0.0
220
0.0
230
1.0
 40
0.5780931159158119
 41
0.0
 42
6.283185307179586
  0
ELLIPSE
  5
20B
330
6C
100
AcDbEntity
  8
Visible (ANSI)
100
AcDbEllipse
 10
111.1607256340223
 20
60.11162003338501
 30
0.0
 11
-0.0448125190000359
 21
0.0778181964929218
 31
0.0
210
0.0
220
0.0
230
1.0
 40
0.578093115915812
 41
0.0
 42
6.283185307179586
  0
ELLIPSE
  5
20C
330
6C
100
AcDbEntity
  8
Visible (ANSI)
100
AcDbEllipse
 10
97.68505847071814
 20
67.87174064795497
 30
0.0
 11
-0.0448125190000359
 21
0.0778181964929218
 31
0.0
210
0.0
220
0.0
230
1.0
 40
0.578093115915812
 41
0.0
 42
6.283185307179586
  0
ELLIPSE
  5
20D
330
6C
100
AcDbEntity
  8
Visible (ANSI)
100
AcDbEllipse
 10
97.68505847071812
 20
47.35788577977943
 30
0.0
 11
-0.0448125190000359
 21
0.0778181964929218
 31
0.0
210
0.0
220
0.0
230
1.0
 40
0.578093115915812
 41
0.0
 42
6.283185307179586
  0
ELLIPSE
  5
20E
330
6C
100
AcDbEntity
  8
Visible (ANSI)
100
AcDbEllipse
 10
111.1607256340223
 20
39.59776516520948
 30
0.0
 11
-0.0448125190000359
 21
0.0778181964929218
 31
0.0
210
0.0
220
0.0
230
1.0
 40
0.578093115915812
 41
0.0
 42
6.283185307179586
  0
LINE
  5
20F
330
6C
100
AcDbEntity
  8
Visible (ANSI)
100
AcDbLine
 10
98.20992270246616
 20
68.21008571734444
 30
0.0
 11
97.71502923227702
 21
68.49507591289399
 31
0.0
  0
LINE
  5
210
330
6C
100
AcDbEntity
  8
Visible (ANSI)
100
AcDbLine
 10
111.2069517238843
 20
60.72559447731732
 30
0.0
 11
110.7120582536952
 21
61.01058467286688
 31
0.0
  0
LINE
  5
211
330
6C
100
AcDbEntity
  8
Visible (ANSI)
100
AcDbLine
 10
111.4101433276736
 20
59.80146786355258
 30
0.0
 11
111.4101433276736
 21
60.37365688000847
 31
0.0
  0
LINE
  5
212
330
6C
100
AcDbEntity
  8
Visible (ANSI)
100
AcDbLine
 10
111.4101433276736
 20
39.13622582088033
 30
0.0
 11
111.4101433276736
 21
39.70841483733622
 31
0.0
  0
LINE
  5
213
330
6C
100
AcDbEntity
  8
Visible (ANSI)
100
AcDbLine
 10
98.17182427675568
 20
46.48086056453206
 30
0.0
 11
97.67693080656654
 21
46.76585076008162
 31
0.0
  0
LINE
  5
214
330
6C
100
AcDbEntity
  8
Visible (ANSI)
100
AcDbLine
 10
111.1688532981739
 20
38.99636932450496
 30
0.0
 11
110.6739598279847
 21
39.28135952005451
 31
0.0
  0
LINE
  5
215
330
6C
100
AcDbEntity
  8
Visible (ANSI)
100
AcDbLine
 10
111.3720449019631
 20
39.68647541310172
 30
0.0
 11
111.3720449019631
 21
39.11428639664583
 31
0.0
  0
LINE
  5
216
330
6C
100
AcDbEntity
  8
Visible (ANSI)
100
AcDbLine
 10
111.3720449019631
 20
60.35171745577397
 30
0.0
 11
111.3720449019631
 21
59.77952843931808
 31
0.0
  0
LINE
  5
217
330
6C
100
AcDbEntity
  8
Visible (ANSI)
100
AcDbLine
 10
110.6739598279848
 20
60.98864524863238
 30
0.0
 11
111.1688532981739
 21
60.70365505308282
 31
0.0
  0
LINE
  5
218
330
6C
100
AcDbEntity
  8
Visible (ANSI)
100
AcDbLine
 10
97.67693080656655
 20
68.47313648865949
 30
0.0
 11
98.17182427675568
 21
68.18814629310994
 31
0.0
  0
LINE
  5
219
330
6C
100
AcDbEntity
  8
Visible (ANSI)
100
AcDbLine
 10
97.47373920277727
 20
67.78303040006271
 30
0.0
 11
97.4737392027773
 21
68.35521941651861
 31
0.0
  0
LINE
  5
21A
330
6C
100
AcDbEntity
  8
Visible (ANSI)
100
AcDbLine
 10
97.47373920277727
 20
47.11778835739047
 30
0.0
 11
97.47373920277727
 21
47.68997737384636
 31
0.0
  0
LINE
  5
21B
330
6C
100
AcDbEntity
  8
Visible (ANSI)
100
AcDbLine
 10
98.20992270246616
 20
68.21008571734444
 30
0.0
 11
98.20992270246616
 21
68.20945295414438
 31
0.0
  0
LINE
  5
21C
330
6C
100
AcDbEntity
  8
Visible (ANSI)
100
AcDbLine
 10
110.6739598279848
 20
60.98864524863238
 30
0.0
 11
110.6739598279848
 21
60.93717266959416
 31
0.0
  0
LINE
  5
21D
330
6C
100
AcDbEntity
  8
Visible (ANSI)
100
AcDbLine
 10
110.6739598279848
 20
60.93717266959416
 30
0.0
 11
110.6738785513432
 21
60.93721947369919
 31
0.0
  0
LINE
  5
21E
330
6C
100
AcDbEntity
  8
Visible Narrow (ANSI)
100
AcDbLine
 10
110.6738785513432
 20
60.93731344463309
 30
0.0
 11
98.1719055533972
 21
68.13672088090058
 31
0.0
  0
LINE
  5
21F
330
6C
100
AcDbEntity
  8
Visible (ANSI)
100
AcDbLine
 10
98.1719055533972
 20
68.13662690996668
 30
0.0
 11
98.17182427675568
 21
68.13667371407172
 31
0.0
  0
LINE
  5
220
330
6C
100
AcDbEntity
  8
Visible (ANSI)
100
AcDbLine
 10
98.17182427675568
 20
68.13667371407172
 30
0.0
 11
98.17182427675568
 21
68.18814629310994
 31
0.0
  0
LINE
  5
221
330
6C
100
AcDbEntity
  8
Visible Narrow (ANSI)
100
AcDbLine
 10
110.7183165550922
 20
61.01428219716471
 30
0.0
 11
98.21634355714591
 21
68.21368963343203
 31
0.0
  0
ELLIPSE
  5
222
330
6C
100
AcDbEntity
  8
Visible (ANSI)
100
AcDbEllipse
 10
110.7183165550919
 20
60.96290358906019
 30
0.0
 11
0.0313615932969578
 21
0.0544602866335832
 31
0.0
210
0.0
220
0.0
230
1.0
 40
0.5780931159156426
 41
2.293770331463086
 42
2.354260781769564
  0
ELLIPSE
  5
223
330
6C
100
AcDbEntity
  8
Visible (ANSI)
100
AcDbEllipse
 10
110.7183165550919
 20
60.96290358906017
 30
0.0
 11
0.0313615932969891
 21
0.054460286633645
 31
0.0
210
0.0
220
0.0
230
1.0
 40
0.5780931159156426
 41
0.7834644549678984
 42
0.9175200251380619
  0
LINE
  5
224
330
6C
100
AcDbEntity
  8
Visible (ANSI)
100
AcDbLine
 10
110.6738785513432
 20
60.93721947369919
 30
0.0
 11
110.6739598279848
 21
60.93726627780423
 31
0.0
  0
ELLIPSE
  5
225
330
6C
100
AcDbEntity
  8
Visible (ANSI)
100
AcDbEllipse
 10
98.21634355714591
 20
68.16231102532769
 30
0.0
 11
0.0313615932969746
 21
0.0544602866336151
 31
0.0
210
0.0
220
0.0
230
0.9999999999999998
 40
0.5780931159156277
 41
0.7834644549750048
 42
2.354260781769468
  0
LINE
  5
226
330
6C
100
AcDbEntity
  8
Visible (ANSI)
100
AcDbLine
 10
98.17182427675568
 20
68.18814629310994
 30
0.0
 11
98.20992270246616
 21
68.21008571734444
 31
0.0
  0
LINE
  5
227
330
6C
100
AcDbEntity
  8
Visible (ANSI)
100
AcDbLine
 10
98.17182427675568
 20
68.13667371407172
 30
0.0
 11
98.1719055533972
 21
68.13672051817674
 31
0.0
  0
LINE
  5
228
330
6C
100
AcDbEntity
  8
Visible (ANSI)
100
AcDbLine
 10
110.7120582536952
 20
61.01058467286688
 30
0.0
 11
110.6739598279848
 21
60.98864524863238
 31
0.0
  0
LINE
  5
229
330
6C
100
AcDbEntity
  8
Visible (ANSI)
100
AcDbLine
 10
111.4101433276736
 20
60.37365688000847
 30
0.0
 11
111.2069517238843
 21
60.72559447731732
 31
0.0
  0
LINE
  5
22A
330
6C
100
AcDbEntity
  8
Visible (ANSI)
100
AcDbLine
 10
111.1688532981739
 20
60.70365505308282
 30
0.0
 11
111.3720449019631
 21
60.35171745577397
 31
0.0
  0
LINE
  5
22B
330
6C
100
AcDbEntity
  8
Visible (ANSI)
100
AcDbLine
 10
111.2069517238843
 20
60.72559447731732
 30
0.0
 11
111.1688532981739
 21
60.70365505308282
 31
0.0
  0
LINE
  5
22C
330
6C
100
AcDbEntity
  8
Visible (ANSI)
100
AcDbLine
 10
111.3720449019631
 20
60.35171745577397
 30
0.0
 11
111.4101433276736
 21
60.37365688000847
 31
0.0
  0
LINE
  5
22D
330
6C
100
AcDbEntity
  8
Visible (ANSI)
100
AcDbLine
 10
111.409595368177
 20
39.70873038622404
 30
0.0
 11
111.4101433276736
 21
39.70841483733622
 31
0.0
  0
LINE
  5
22E
330
6C
100
AcDbEntity
  8
Visible (ANSI)
100
AcDbLine
 10
111.3720449019631
 20
39.68647541310172
 30
0.0
 11
111.3275256215729
 21
39.71211236163387
 31
0.0
  0
LINE
  5
22F
330
6C
100
AcDbEntity
  8
Visible (ANSI)
100
AcDbLine
 10
111.3275256215729
 20
39.71211236163387
 30
0.0
 11
111.3275256215729
 21
39.71220633256776
 31
0.0
  0
LINE
  5
230
330
6C
100
AcDbEntity
  8
Visible Narrow (ANSI)
100
AcDbLine
 10
111.3276068982144
 20
39.71215952846272
 30
0.0
 11
111.3276068982144
 21
59.8050246128113
 31
0.0
  0
LINE
  5
231
330
6C
100
AcDbEntity
  8
Visible (ANSI)
100
AcDbLine
 10
111.3275256215729
 20
59.80507141691633
 30
0.0
 11
111.3275256215729
 21
59.80516538785022
 31
0.0
  0
LINE
  5
232
330
6C
100
AcDbEntity
  8
Visible (ANSI)
100
AcDbLine
 10
111.3275256215729
 20
59.80516538785022
 30
0.0
 11
111.3720449019631
 21
59.77952843931808
 31
0.0
  0
LINE
  5
233
330
6C
100
AcDbEntity
  8
Visible Narrow (ANSI)
100
AcDbLine
 10
111.4164829057118
 20
39.71215952846274
 30
0.0
 11
111.4164829057118
 21
59.80502461281131
 31
0.0
  0
ELLIPSE
  5
234
330
6C
100
AcDbEntity
  8
Visible (ANSI)
100
AcDbEllipse
 10
111.3720449019631
 20
39.73774967288985
 30
0.0
 11
0.062844827586207
 21
0.0000000000000037
 31
0.0
210
0.0
220
0.0
230
1.0
 40
0.5758617009853073
 41
3.926990816987149
 42
5.497787143782167
  0
LINE
  5
235
330
6C
100
AcDbEntity
  8
Visible (ANSI)
100
AcDbLine
 10
111.3275256215729
 20
59.80507141691633
 30
0.0
 11
111.3276072131545
 21
59.80511840238328
 31
0.0
  0
ELLIPSE
  5
236
330
6C
100
AcDbEntity
  8
Visible (ANSI)
100
AcDbEllipse
 10
111.3720449019632
 20
59.83061475723845
 30
0.0
 11
0.0628448275862758
 21
0.0000000000000037
 31
0.0
210
0.0
220
0.0
230
1.0
 40
0.575861700985307
 41
3.926990816987187
 42
3.987598387465242
  0
ELLIPSE
  5
237
330
6C
100
AcDbEntity
  8
Visible (ANSI)
100
AcDbEllipse
 10
111.3720449019633
 20
59.83061475723831
 30
0.0
 11
0.0628448275859207
 21
-0.0000000000000001
 31
0.0
210
0.0
220
0.0
230
1.0
 40
0.575861700985307
 41
5.36370066238284
 42
5.497787143782431
  0
LINE
  5
238
330
6C
100
AcDbEntity
  8
Visible (ANSI)
100
AcDbLine
 10
111.3720449019631
 20
59.77952843931808
 30
0.0
 11
111.4101433276736
 21
59.80146786355258
 31
0.0
  0
LINE
  5
239
330
6C
100
AcDbEntity
  8
Visible (ANSI)
100
AcDbLine
 10
111.3275256215729
 20
39.71211236163387
 30
0.0
 11
111.3276072131556
 21
39.71215934710146
 31
0.0
  0
LINE
  5
23A
330
6C
100
AcDbEntity
  8
Visible (ANSI)
100
AcDbLine
 10
111.4101433276736
 20
39.70841483733622
 30
0.0
 11
111.3720449019631
 21
39.68647541310172
 31
0.0
  0
LINE
  5
23B
330
6C
100
AcDbEntity
  8
Visible (ANSI)
100
AcDbLine
 10
111.2069517238843
 20
39.01830874873946
 30
0.0
 11
111.4101433276736
 21
39.13622582088033
 31
0.0
  0
LINE
  5
23C
330
6C
100
AcDbEntity
  8
Visible (ANSI)
100
AcDbLine
 10
111.3720449019631
 20
39.11428639664583
 30
0.0
 11
111.1688532981739
 21
38.99636932450496
 31
0.0
  0
LINE
  5
23D
330
6C
100
AcDbEntity
  8
Visible (ANSI)
100
AcDbLine
 10
111.1688532981739
 20
38.99636932450496
 30
0.0
 11
111.2069517238843
 21
39.01830874873946
 31
0.0
  0
LINE
  5
23E
330
6C
100
AcDbEntity
  8
Visible (ANSI)
100
AcDbLine
 10
111.4101433276736
 20
39.13622582088033
 30
0.0
 11
111.3720449019631
 21
39.11428639664583
 31
0.0
  0
LINE
  5
23F
330
6C
100
AcDbEntity
  8
Visible (ANSI)
100
AcDbLine
 10
111.3275256215729
 20
39.71220633256776
 30
0.0
 11
111.3276068982144
 21
39.71215952846272
 31
0.0
  0
LINE
  5
240
330
6C
100
AcDbEntity
  8
Visible (ANSI)
100
AcDbLine
 10
111.3276068982144
 20
59.8050246128113
 30
0.0
 11
111.3275256215729
 21
59.80507141691633
 31
0.0
  0
LINE
  5
241
330
6C
100
AcDbEntity
  8
Visible (ANSI)
100
AcDbLine
 10
111.4164829057118
 20
39.71215952846274
 30
0.0
 11
111.6865855046288
 21
39.86770127051567
 31
0.0
  0
LINE
  5
242
330
6C
100
AcDbEntity
  8
Visible (ANSI)
100
AcDbLine
 10
111.6865855046288
 20
59.96056635486425
 30
0.0
 11
111.6865855046288
 21
39.86770127051567
 31
0.0
  0
LINE
  5
243
330
6C
100
AcDbEntity
  8
Visible (ANSI)
100
AcDbLine
 10
111.6865855046288
 20
59.96056635486425
 30
0.0
 11
111.4164829057118
 21
59.80502461281131
 31
0.0
  0
LINE
  5
244
330
6C
100
AcDbEntity
  8
Visible (ANSI)
100
AcDbLine
 10
111.6484870789184
 20
59.98250577909875
 30
0.0
 11
111.6865855046288
 21
59.96056635486425
 31
0.0
  0
LINE
  5
245
330
6C
100
AcDbEntity
  8
Visible (ANSI)
100
AcDbLine
 10
111.4101433276736
 20
59.84525274108769
 30
0.0
 11
111.6484870789184
 21
59.98250577909875
 31
0.0
  0
LINE
  5
246
330
6C
100
AcDbEntity
  8
Visible (ANSI)
100
AcDbLine
 10
110.6738785513432
 20
60.93721947369919
 30
0.0
 11
110.6738785513432
 21
60.93731344463309
 31
0.0
  0
LINE
  5
247
330
6C
100
AcDbEntity
  8
Visible (ANSI)
100
AcDbLine
 10
98.1719055533972
 20
68.13672088090058
 30
0.0
 11
98.1719055533972
 21
68.13662690996668
 31
0.0
  0
LINE
  5
248
330
6C
100
AcDbEntity
  8
Visible (ANSI)
100
AcDbLine
 10
110.7183165550922
 20
61.01428219716471
 30
0.0
 11
110.9884191540089
 21
61.16982393921748
 31
0.0
  0
LINE
  5
249
330
6C
100
AcDbEntity
  8
Visible (ANSI)
100
AcDbLine
 10
98.48644615606289
 20
68.36923137548497
 30
0.0
 11
110.9884191540089
 21
61.16982393921748
 31
0.0
  0
LINE
  5
24A
330
6C
100
AcDbEntity
  8
Visible (ANSI)
100
AcDbLine
 10
98.48644615606289
 20
68.36923137548497
 30
0.0
 11
98.21634355714591
 21
68.21368963343203
 31
0.0
  0
LINE
  5
24B
330
6C
100
AcDbEntity
  8
Visible (ANSI)
100
AcDbLine
 10
110.9884191540089
 20
61.12577506395656
 30
0.0
 11
110.7502230309114
 21
60.98860703934146
 31
0.0
  0
LINE
  5
24C
330
6C
100
AcDbEntity
  8
Visible (ANSI)
100
AcDbLine
 10
110.9884191540089
 20
61.16982393921748
 30
0.0
 11
110.9884191540089
 21
61.12577506395656
 31
0.0
  0
LINE
  5
24D
330
6C
100
AcDbEntity
  8
Visible (ANSI)
100
AcDbLine
 10
97.4737392027773
 20
68.35521941651861
 30
0.0
 11
97.67693080656655
 21
68.47313648865949
 31
0.0
  0
LINE
  5
24E
330
6C
100
AcDbEntity
  8
Visible (ANSI)
100
AcDbLine
 10
97.67693080656655
 20
68.47313648865949
 30
0.0
 11
97.71502923227702
 21
68.49507591289399
 31
0.0
  0
LINE
  5
24F
330
6C
100
AcDbEntity
  8
Visible (ANSI)
100
AcDbLine
 10
97.47373920277727
 20
67.78303040006271
 30
0.0
 11
97.51825848316752
 21
67.75739345153057
 31
0.0
  0
LINE
  5
250
330
6C
100
AcDbEntity
  8
Visible (ANSI)
100
AcDbLine
 10
97.51825848316752
 20
67.75739345153057
 30
0.0
 11
97.51825848316752
 21
67.75729948059667
 31
0.0
  0
LINE
  5
251
330
6C
100
AcDbEntity
  8
Visible Narrow (ANSI)
100
AcDbLine
 10
97.51817720652597
 20
67.75734628470171
 30
0.0
 11
97.51817720652597
 21
47.66448120035314
 31
0.0
  0
LINE
  5
252
330
6C
100
AcDbEntity
  8
Visible (ANSI)
100
AcDbLine
 10
97.51825848316748
 20
47.6644343962481
 30
0.0
 11
97.51825848316748
 21
47.66434042531421
 31
0.0
  0
LINE
  5
253
330
6C
100
AcDbEntity
  8
Visible (ANSI)
100
AcDbLine
 10
97.51825848316748
 20
47.66434042531421
 30
0.0
 11
97.47373920277727
 21
47.68997737384636
 31
0.0
  0
ELLIPSE
  5
254
330
6C
100
AcDbEntity
  8
Visible (ANSI)
100
AcDbEllipse
 10
97.56261521027468
 20
67.78293642912884
 30
0.0
 11
-0.0628448275862045
 21
0.0000000000000001
 31
0.0
210
0.0
220
0.0
230
1.0
 40
0.575861700985307
 41
0.7247905929202299
 42
0.7853981633972467
  0
ELLIPSE
  5
255
330
6C
100
AcDbEntity
  8
Visible (ANSI)
100
AcDbEllipse
 10
97.56261521027468
 20
47.69007134478026
 30
0.0
 11
-0.0628448275862068
 21
-0.0000000000000012
 31
0.0
210
0.0
220
0.0
230
1.0
 40
0.5758617009853157
 41
0.0
 42
0.7853981633974048
  0
LINE
  5
256
330
6C
100
AcDbEntity
  8
Visible (ANSI)
100
AcDbLine
 10
97.47373920277727
 20
47.68997737384636
 30
0.0
 11
97.49977038268847
 21
47.70496773338869
 31
0.0
  0
LINE
  5
257
330
6C
100
AcDbEntity
  8
Visible (ANSI)
100
AcDbLine
 10
97.4997703826885
 20
67.76804004052038
 30
0.0
 11
97.49977038268847
 21
47.69007134478026
 31
0.0
  0
LINE
  5
258
330
6C
100
AcDbEntity
  8
Visible (ANSI)
100
AcDbLine
 10
97.51825848316752
 20
67.75729948059667
 30
0.0
 11
97.51817720652597
 21
67.75734628470171
 31
0.0
  0
LINE
  5
259
330
6C
100
AcDbEntity
  8
Visible (ANSI)
100
AcDbLine
 10
97.51817720652597
 20
47.66448120035314
 30
0.0
 11
97.51825848316748
 21
47.6644343962481
 31
0.0
  0
LINE
  5
25A
330
6C
100
AcDbEntity
  8
Visible (ANSI)
100
AcDbLine
 10
97.6662744881411
 20
67.89381012605815
 30
0.0
 11
97.71349718419569
 21
67.92100386813327
 31
0.0
  0
LINE
  5
25B
330
6C
100
AcDbEntity
  8
Visible (ANSI)
100
AcDbLine
 10
97.73454450067918
 20
67.88924536313564
 30
0.0
 11
97.68317825524198
 21
67.85966550966492
 31
0.0
  0
LINE
  5
25C
330
6C
100
AcDbEntity
  8
Visible (ANSI)
100
AcDbLine
 10
97.67693080656654
 20
46.76585076008162
 30
0.0
 11
97.47373920277727
 21
47.11778835739047
 31
0.0
  0
DIMENSION
  5
25D
330
6C
100
AcDbEntity
  8
Dimension (ANSI)
100
AcDbDimension
  2
*D4
 10
5.770688744537391
 20
61.82309724831664
 30
0.0
 11
5.77068874453738
 21
38.72309724831665
 31
0.0
 70
   160
  1
<>
 42
46.19999999999999
  3
Default (ANSI)
100
AcDbAlignedDimension
 13
17.81916427058256
 23
15.62309724831665
 33
0.0
 14
19.03716427058254
 24
61.82309724831664
 34
0.0
 50
90.0
100
AcDbRotatedDimension
1001
ACAD
1000
DSTYLE
1002
{
1070
   289
1070
     1
1070
   271
1070
     2
1070
   272
1070
     2
1070
    48
1040
0.0
1070
    47
1040
0.0
1002
}
  0
DIMENSION
  5
34A
330
6C
100
AcDbEntity
  8
Dimension (ANSI)
100
AcDbDimension
  2
*D5
 10
51.51916427058254
 20
71.17244658234873
 30
0.0
 11
34.41916427058254
 21
71.17244658234873
 31
0.0
 70
   160
  1
<>
 42
34.2
  3
Default (ANSI)
100
AcDbAlignedDimension
 13
17.31916427058254
 23
61.32309724831664
 33
0.0
 14
51.51916427058254
 24
61.32309724831665
 34
0.0
100
AcDbRotatedDimension
1001
ACAD
1000
DSTYLE
1002
{
1070
   289
1070
     1
1070
    73
1070
     0
1070
    74
1070
     0
1070
   271
1070
     2
1070
   272
1070
     2
1070
    48
1040
0.0
1070
    47
1040
0.0
1002
}
  0
DIMENSION
  5
434
330
6C
100
AcDbEntity
  8
Dimension (ANSI)
100
AcDbDimension
  2
*D6
 10
15.84973872031027
 20
16.89309724831665
 30
0.0
 11
13.90215639656681
 21
14.16631795111104
 31
0.0
 70
   160
  1
<>
 42
0.75
  3
Default (ANSI)
100
AcDbAlignedDimension
 13
17.83916427058256
 23
16.14309724831665
 33
0.0
 14
17.83916427058256
 24
16.89309724831665
 34
0.0
 50
90.0
100
AcDbRotatedDimension
1001
ACAD
1000
DSTYLE
1002
{
1070
   289
1070
     1
1070
   271
1070
     2
1070
   272
1070
     2
1070
    48
1040
0.0
1070
    47
1040
0.0
1002
}
  0
DIMENSION
  5
534
330
6C
100
AcDbEntity
  8
Dimension (ANSI)
100
AcDbDimension
  2
*D7
 10
58.21676145470338
 20
61.30309724831665
 30
0.0
 11
56.26445483073281
 21
59.32581496105956
 31
0.0
 70
   160
  1
<>
 42
0.5200000000000032
  3
Default (ANSI)
100
AcDbAlignedDimension
 13
51.01916427058255
 23
61.82309724831664
 33
0.0
 14
50.99916427058254
 24
61.30309724831665
 34
0.0
 50
270.0
100
AcDbRotatedDimension
1001
ACAD
1000
DSTYLE
1002
{
1070
   289
1070
     1
1070
   271
1070
     2
1070
   272
1070
     2
1070
    48
1040
0.0
1070
    47
1040
0.0
1002
}
  0
DIMENSION
  5
634
330
6C
100
AcDbEntity
  8
Dimension (ANSI)
100
AcDbDimension
  2
*D8
 10
50.99916427058254
 20
66.02750669713554
 30
0.0
 11
55.62636385891762
 21
66.02750669713554
 31
0.0
 70
   160
  1
<>
 42
0.5199999999999961
  3
Default (ANSI)
100
AcDbAlignedDimension
 13
51.51916427058254
 23
61.32309724831665
 33
0.0
 14
50.99916427058254
 24
61.30309724831665
 34
0.0
 50
180.0
100
AcDbRotatedDimension
1001
ACAD
1000
DSTYLE
1002
{
1070
   289
1070
     1
1070
    73
1070
     0
1070
    74
1070
     0
1070
   271
1070
     2
1070
   272
1070
     2
1070
    48
1040
0.0
1070
    47
1040
0.0
1002
}
  0
DIMENSION
  5
71E
330
6C
100
AcDbEntity
  8
Dimension (ANSI)
100
AcDbDimension
  2
*D9
 10
12.1282517710601
 20
38.72309724831666
 30
0.0
 11
12.12825177106009
 21
27.43309724831665
 31
0.0
 70
   160
  1
<>
 42
22.58
  3
Default (ANSI)
100
AcDbAlignedDimension
 13
17.83916427058256
 23
16.14309724831665
 33
0.0
 14
17.83916427058256
 24
38.72309724831665
 34
0.0
 50
90.0
100
AcDbRotatedDimension
1001
ACAD
1000
DSTYLE
1002
{
1070
   289
1070
     1
1070
   271
1070
     3
1070
   272
1070
     3
1070
    48
1040
0.0
1070
    47
1040
0.0
1002
}
  0
DIMENSION
  5
808
330
6C
100
AcDbEntity
  8
Dimension (ANSI)
100
AcDbDimension
  2
*D10
 10
9.140885806674836
 20
61.30309724831665
 30
0.0
 11
9.140885806674825
 21
46.4979500726386
 31
0.0
 70
   160
  1
<>
 42
45.16
  3
Default (ANSI)
100
AcDbAlignedDimension
 13
17.83916427058256
 23
16.14309724831665
 33
0.0
 14
17.83916427058256
 24
61.30309724831665
 34
0.0
 50
90.0
100
AcDbRotatedDimension
1001
ACAD
1000
DSTYLE
1002
{
1070
   289
1070
     1
1070
   271
1070
     3
1070
   272
1070
     3
1070
    48
1040
0.0
1070
    47
1040
0.0
1002
}
  0
DIMENSION
  5
8F2
330
6C
100
AcDbEntity
  8
Dimension (ANSI)
100
AcDbDimension
  2
*D11
 10
34.41916427058254
 20
66.02750669713552
 30
0.0
 11
42.70916427058253
 21
66.02750669713552
 31
0.0
 70
   160
  1
<>
 42
16.58
  3
Default (ANSI)
100
AcDbAlignedDimension
 13
50.99916427058254
 23
61.30309724831665
 33
0.0
 14
34.41916427058254
 24
61.30309724831664
 34
0.0
 50
180.0
100
AcDbRotatedDimension
1001
ACAD
1000
DSTYLE
1002
{
1070
   289
1070
     1
1070
    73
1070
     0
1070
    74
1070
     0
1070
   271
1070
     3
1070
   272
1070
     3
1070
    48
1040
0.0
1070
    47
1040
0.0
1002
}
  0
DIMENSION
  5
9DC
330
6C
100
AcDbEntity
  8
Dimension (ANSI)
100
AcDbDimension
  2
*D12
 10
66.67657480757542
 20
64.82950669713556
 30
0.0
 11
62.91629465721019
 21
64.82950669713556
 31
0.0
 70
   160
  1
<>
 42
0.7739999999996315
  3
Default (ANSI)
100
AcDbAlignedDimension
 13
65.90257480757578
 23
61.82309724831664
 33
0.0
 14
66.67657480757542
 24
61.82309724831664
 34
0.0
 50
180.0
100
AcDbRotatedDimension
1001
ACAD
1000
DSTYLE
1002
{
1070
   289
1070
     1
1070
    73
1070
     0
1070
    74
1070
     0
1070
   271
1070
     2
1070
   272
1070
     2
1070
    48
1040
0.0
1070
    47
1040
0.0
1002
}
  0
MTEXT
  5
AC6
102
{ACAD_REACTORS
330
AC7
102
}
330
6C
100
AcDbEntity
  8
Symbol (ANSI)
100
AcDbMText
 10
71.26680074445535
 20
44.8914876790786
 30
0.0
 40
0.8275862171246634
 41
3.384787396118428
 71
     1
 72
     1
  1
{12 GA.}
  7
Note Text (ANSI)
 73
     1
 44
1.0
1001
ACAD
1000
MTEXTBEGIN
1070
    73
1070
     1
1070
    44
1040
1.0
1070
    74
1070
     0
1000
MTEXTEND
  0
LEADER
  5
AC7
330
6C
100
AcDbEntity
  8
Symbol (ANSI)
100
AcDbLeader
  3
Default (ANSI)$7
 73
     0
 74
     0
 75
     1
 40
0.8609342178147102
 41
3.153609265255433
 76
     3
 10
66.67657480757593
 20
38.72309724831665
 30
0.0
 10
70.3707920712608
 20
44.47769457051626
 30
0.0
 10
71.04958651692346
 20
44.47769457051626
 30
0.0
340
AC6
213
0.0
223
-0.4137931085623318
233
0.0
1001
ACAD
1000
DSTYLE
1002
{
1070
    77
1070
     0
1002
}
  0
DIMENSION
  5
AC8
330
6C
100
AcDbEntity
  8
Dimension (ANSI)
100
AcDbDimension
  2
*D13
 10
54.04816756768989
 20
16.12309724831665
 30
0.0
 11
56.00241949175395
 21
18.09987654552226
 31
0.0
 70
   160
  1
<>
 42
0.4999999999999965
  3
Default (ANSI)
100
AcDbAlignedDimension
 13
51.01916427058256
 23
15.62309724831665
 33
0.0
 14
51.51916427058256
 24
16.12309724831665
 34
0.0
 50
90.0
100
AcDbRotatedDimension
1001
ACAD
1000
DSTYLE
1002
{
1070
   289
1070
     1
1070
   271
1070
     2
1070
   272
1070
     2
1070
    48
1040
0.0
1070
    47
1040
0.0
1002
}
  0
DIMENSION
  5
BC8
330
6C
100
AcDbEntity
  8
Dimension (ANSI)
100
AcDbDimension
  2
*D14
 10
51.01916427058256
 20
10.89868779949775
 30
0.0
 11
48.03288412021696
 21
10.89868779949775
 31
0.0
 70
   160
  1
<>
 42
0.5
  3
Default (ANSI)
100
AcDbAlignedDimension
 13
51.51916427058256
 23
16.12309724831665
 33
0.0
 14
51.01916427058256
 24
15.62309724831665
 34
0.0
 50
180.0
100
AcDbRotatedDimension
1001
ACAD
1000
DSTYLE
1002
{
1070
   289
1070
     1
1070
    73
1070
     0
1070
    74
1070
     0
1070
   271
1070
     2
1070
   272
1070
     2
1070
    48
1040
0.0
1070
    47
1040
0.0
1002
}
  0
DIMENSION
  5
CB2
330
6C
100
AcDbEntity
  8
Dimension (ANSI)
100
AcDbDimension
  2
*D15
 10
17.96416427058261
 20
61.08659089737058
 30
0.0
 11
9.925734820486876
 21
68.61149171698925
 31
0.0
 70
   163
  1
<>{\PTYP.(8PL.)}
 71
     3
 42
0.5
  3
Default (ANSI)
100
AcDbDiametricDimension
 15
17.71416427058252
 25
61.51960359926275
 35
0.0
 40
0.0
1001
ACAD_DSTYLE_DIMRADIAL_EXTENSION
1070
   387
1070
     1
1070
   388
1040
0.0
1070
   390
1040
0.0
1001
ACAD
1000
DSTYLE
1002
{
1070
   145
1040
-0.25
1070
   144
1040
1.0
1070
   271
1070
     2
1070
   272
1070
     2
1070
    48
1040
0.0
1070
    47
1040
0.0
1002
}
  0
DIMENSION
  5
D6C
330
6C
100
AcDbEntity
  8
Dimension (ANSI)
100
AcDbDimension
  2
*D16
 10
17.76103927058253
 20
17.02841371765796
 30
0.0
 11
24.44869123258124
 21
12.15095366526462
 31
0.0
 70
   163
  1
<>{\PTYP. (4PL.)}
 42
0.3125
  3
Default (ANSI)
100
AcDbDiametricDimension
 15
17.91728927058259
 25
16.75778077897536
 35
0.0
 40
0.0
1001
ACAD_DSTYLE_DIMRADIAL_EXTENSION
1070
   387
1070
     1
1070
   388
1040
0.0
1070
   390
1040
0.0
1001
ACAD
1000
DSTYLE
1002
{
1070
   145
1040
-0.25
1070
   144
1040
1.000000000000005
1070
   271
1070
     2
1070
   272
1070
     2
1070
    48
1040
0.0
1070
    47
1040
0.0
1002
}
  0
DIMENSION
  5
E25
330
6C
100
AcDbEntity
  8
Dimension (ANSI)
100
AcDbDimension
  2
*D17
 10
50.99916427058254
 20
68.97258975076361
 30
0.0
 11
34.41916427058256
 21
68.97258975076361
 31
0.0
 70
   160
  1
<>
 42
33.15999999999999
  3
Default (ANSI)
100
AcDbAlignedDimension
 13
17.83916427058256
 23
61.30309724831665
 33
0.0
 14
50.99916427058254
 24
61.30309724831665
 34
0.0
 50
180.0
100
AcDbRotatedDimension
1001
ACAD
1000
DSTYLE
1002
{
1070
   289
1070
     1
1070
    73
1070
     0
1070
    74
1070
     0
1070
   271
1070
     3
1070
   272
1070
     3
1070
    48
1040
0.0
1070
    47
1040
0.0
1002
}
  0
ENDSEC
  0
SECTION
  2
OBJECTS
  0
DICTIONARY
  5
C
330
0
100
AcDbDictionary
281
     1
  3
ACAD_CIP_PREVIOUS_PRODUCT_INFO
350
F0F
  3
ACAD_COLOR
350
63
  3
ACAD_GROUP
350
D
  3
ACAD_LAYOUT
350
62
  3
ACAD_MATERIAL
350
10
  3
ACAD_MLEADERSTYLE
350
66
  3
ACAD_MLINESTYLE
350
5F
  3
ACAD_PLOTSETTINGS
350
61
  3
ACAD_PLOTSTYLENAME
350
E
  3
ACAD_SCALELIST
350
42
  3
ACAD_TABLESTYLE
350
64
  3
ACAD_VISUALSTYLE
350
29
  3
ACDB_RECOMPOSE_DATA
350
F1E
  3
AcDbVariableDictionary
350
D8
  3
DWGPROPS
350
F1F
  0
DICTIONARY
  5
F5B
330
D66
100
AcDbDictionary
280
     1
281
     1
  3
ACAD_MTEXT_RT
360
F5C
  0
DICTIONARY
  5
F5D
330
E1F
100
AcDbDictionary
280
     1
281
     1
  3
ACAD_MTEXT_RT
360
F5E
  0
XRECORD
  5
F0F
102
{ACAD_REACTORS
330
C
102
}
330
C
100
AcDbXrecord
280
     1
300
INVNTOR
300
2012
300
85795PDSP_2012_0F
  0
DICTIONARY
  5
63
102
{ACAD_REACTORS
330
C
102
}
330
C
100
AcDbDictionary
281
     1
  0
DICTIONARY
  5
D
102
{ACAD_REACTORS
330
C
102
}
330
C
100
AcDbDictionary
281
     1
  0
DICTIONARY
  5
62
102
{ACAD_REACTORS
330
C
102
}
330
C
100
AcDbDictionary
281
     1
  3
Layout1
350
6B
  3
Layout2
350
73
  3
Model
350
6F
  0
DICTIONARY
  5
10
102
{ACAD_REACTORS
330
C
102
}
330
C
100
AcDbDictionary
281
     1
  3
ByBlock
350
19
  3
ByLayer
350
11
  3
Global
350
21
  0
DICTIONARY
  5
66
102
{ACAD_REACTORS
330
C
102
}
330
C
100
AcDbDictionary
281
     1
  3
Standard
350
67
  0
DICTIONARY
  5
5F
102
{ACAD_REACTORS
330
C
102
}
330
C
100
AcDbDictionary
281
     1
  3
Standard
350
60
  0
DICTIONARY
  5
61
102
{ACAD_REACTORS
330
C
102
}
330
C
100
AcDbDictionary
281
     1
  0
ACDBDICTIONARYWDFLT
  5
E
102
{ACAD_REACTORS
330
C
102
}
330
C
100
AcDbDictionary
281
     1
  3
Normal
350
F
100
AcDbDictionaryWithDefault
340
F
  0
DICTIONARY
  5
42
102
{ACAD_REACTORS
330
C
102
}
330
C
100
AcDbDictionary
281
     1
  3
A0
350
43
  3
A1
350
44
  3
A2
350
45
  3
A3
350
46
  3
A4
350
47
  3
A5
350
48
  3
A6
350
49
  3
A7
350
4A
  3
A8
350
4B
  3
A9
350
4C
  3
B0
350
4D
  3
B1
350
4E
  3
B2
350
4F
  3
B3
350
50
  3
B4
350
51
  3
B5
350
52
  3
B6
350
53
  0
DICTIONARY
  5
64
102
{ACAD_REACTORS
330
C
102
}
330
C
100
AcDbDictionary
281
     1
  3
Standard
350
65
  0
DICTIONARY
  5
29
102
{ACAD_REACTORS
330
C
102
}
330
C
100
AcDbDictionary
281
     1
  3
2dWireframe
350
2F
  3
Basic
350
2E
  3
Brighten
350
35
  3
ColorChange
350
39
  3
Conceptual
350
32
  3
Dim
350
34
  3
EdgeColorOff
350
41
  3
Facepattern
350
38
  3
Flat
350
2A
  3
FlatWithEdges
350
2B
  3
Gouraud
350
2C
  3
GouraudWithEdges
350
2D
  3
Hidden
350
31
  3
JitterOff
350
3F
  3
Linepattern
350
37
  3
OverhangOff
350
40
  3
Realistic
350
33
  3
Shaded
350
3E
  3
Shaded with edges
350
3D
  3
Shades of Gray
350
3A
  3
Sketchy
350
3B
  3
Thicken
350
36
  3
Wireframe
350
30
  3
X-Ray
350
3C
  0
XRECORD
  5
F1E
102
{ACAD_REACTORS
330
C
102
}
330
C
100
AcDbXrecord
280
     1
 90
        1
330
65
  0
DICTIONARY
  5
D8
102
{ACAD_REACTORS
330
C
102
}
330
C
100
AcDbDictionary
281
     1
  3
CANNOSCALE
350
DB
  3
CMLEADERSTYLE
350
DA
  3
CTABLESTYLE
350
D9
  3
DIMASSOC
350
F17
  3
HIDETEXT
350
F16
  3
INDEXCTL
350
F15
  3
LAYEREVAL
350
F12
  3
LAYERNOTIFY
350
F13
  3
LIGHTINGUNITS
350
F11
  3
MSLTSCALE
350
F10
  3
SORTENTS
350
F14
  3
XCLIPFRAME
350
F18
  0
XRECORD
  5
F1F
102
{ACAD_REACTORS
330
C
102
}
330
C
100
AcDbXrecord
280
     1
  1
DWGPROPS COOKIE
  2

  3

  4
EC
  6

  7

  8

  9
-
300
Manager=
301
Company=
302
Category=
303
Part Number=NP4836C
304
Description=NPC PANEL MASTER VIEW
305
Project=
306
Designer=EC
307
Engineer=
308
Authority=
309
Cost Center=
 40
0.0000396064814815
 41
2455944.558502419
 42
2455944.558502604
  1

 90
       20
300
Vendor=
300
User Status=
300
Design Status=WorkInProgress
300
Checked by=JG
300
Date Checked=02/19/2009
300
Engr Approved by=
300
Mfg Approved by=
300
DWG. NO=
300
NUMBER OF SHEETS=1
300
DRAWING #=1
  0
XRECORD
  5
F5C
102
{ACAD_REACTORS
330
F5B
102
}
330
F5B
100
AcDbXrecord
280
     1
 40
29720.0
  1
\A1;\U+22050.50{\PTYP.(8PL.)}
  0
XRECORD
  5
F5E
102
{ACAD_REACTORS
330
F5D
102
}
330
F5D
100
AcDbXrecord
280
     1
 40
30807.0
  1
\A1;\U+22050.31{\PTYP. (4PL.)}
  0
LAYOUT
  5
6B
102
{ACAD_XDICTIONARY
360
F55
102
}
102
{ACAD_REACTORS
330
62
102
}
330
62
100
AcDbPlotSettings
  1

  2

  4

  6

 40
0.0
 41
0.0
 42
0.0
 43
0.0
 44
0.0
 45
0.0
 46
0.0
 47
0.0
 48
0.0
 49
0.0
140
0.0
141
0.0
142
1.0
143
1.0
 70
   688
 72
     0
 73
     0
 74
     5
  7

 75
    16
147
1.0
148
0.0
149
0.0
100
AcDbLayout
  1
Layout1
 70
     1
 71
     1
 10
0.0
 20
0.0
 11
12.0
 21
9.0
 12
0.0
 22
0.0
 32
0.0
 14
0.0
 24
0.0
 34
0.0
 15
0.0
 25
0.0
 35
0.0
146
0.0
 13
0.0
 23
0.0
 33
0.0
 16
1.0
 26
0.0
 36
0.0
 17
0.0
 27
1.0
 37
0.0
 76
     0
330
68
  0
LAYOUT
  5
73
102
{ACAD_XDICTIONARY
360
F59
102
}
102
{ACAD_REACTORS
330
62
102
}
330
62
100
AcDbPlotSettings
  1

  2

  4

  6

 40
0.0
 41
0.0
 42
0.0
 43
0.0
 44
0.0
 45
0.0
 46
0.0
 47
0.0
 48
0.0
 49
0.0
140
0.0
141
0.0
142
1.0
143
1.0
 70
   688
 72
     0
 73
     0
 74
     5
  7

 75
    16
147
1.0
148
0.0
149
0.0
100
AcDbLayout
  1
Layout2
 70
     1
 71
     2
 10
0.0
 20
0.0
 11
12.0
 21
9.0
 12
0.0
 22
0.0
 32
0.0
 14
0.0
 24
0.0
 34
0.0
 15
0.0
 25
0.0
 35
0.0
146
0.0
 13
0.0
 23
0.0
 33
0.0
 16
1.0
 26
0.0
 36
0.0
 17
0.0
 27
1.0
 37
0.0
 76
     0
330
70
  0
LAYOUT
  5
6F
102
{ACAD_XDICTIONARY
360
F57
102
}
102
{ACAD_REACTORS
330
62
102
}
330
62
100
AcDbPlotSettings
  1

  2

  4

  6

 40
0.0
 41
0.0
 42
0.0
 43
0.0
 44
0.0
 45
0.0
 46
0.0
 47
0.0
 48
0.0
 49
0.0
140
0.0
141
0.0
142
1.0
143
1.0
 70
  1712
 72
     0
 73
     0
 74
     0
  7

 75
     0
147
1.0
148
0.0
149
0.0
100
AcDbLayout
  1
Model
 70
     1
 71
     0
 10
0.0
 20
0.0
 11
12.0
 21
9.0
 12
0.0
 22
0.0
 32
0.0
 14
0.0
 24
0.0
 34
0.0
 15
0.0
 25
0.0
 35
0.0
146
0.0
 13
0.0
 23
0.0
 33
0.0
 16
1.0
 26
0.0
 36
0.0
 17
0.0
 27
1.0
 37
0.0
 76
     0
330
6C
  0
MATERIAL
  5
19
102
{ACAD_XDICTIONARY
360
1A
102
}
102
{ACAD_REACTORS
330
10
102
}
330
10
100
AcDbMaterial
  1
ByBlock
 72
     0
 43
0.0208333333333333
 43
0.0
 43
0.0
 43
0.0
 43
0.0
 43
0.0208333333333333
 43
0.0
 43
0.0
 43
0.0
 43
0.0
 43
1.0
 43
0.0
 43
0.0
 43
0.0
 43
0.0
 43
1.0
 77
     0
 47
0.0208333333333333
 47
0.0
 47
0.0
 47
0.0
 47
0.0
 47
0.0208333333333333
 47
0.0
 47
0.0
 47
0.0
 47
0.0
 47
1.0
 47
0.0
 47
0.0
 47
0.0
 47
0.0
 47
1.0
171
     0
 49
0.0208333333333333
 49
0.0
 49
0.0
 49
0.0
 49
0.0
 49
0.0208333333333333
 49
0.0
 49
0.0
 49
0.0
 49
0.0
 49
1.0
 49
0.0
 49
0.0
 49
0.0
 49
0.0
 49
1.0
175
     0
142
0.0208333333333333
142
0.0
142
0.0
142
0.0
142
0.0
142
0.0208333333333333
142
0.0
142
0.0
142
0.0
142
0.0
142
1.0
142
0.0
142
0.0
142
0.0
142
0.0
142
1.0
179
     0
144
0.0208333333333333
144
0.0
144
0.0
144
0.0
144
0.0
144
0.0208333333333333
144
0.0
144
0.0
144
0.0
144
0.0
144
1.0
144
0.0
144
0.0
144
0.0
144
0.0
144
1.0
147
0.0208333333333333
147
0.0
147
0.0
147
0.0
147
0.0
147
0.0208333333333333
147
0.0
147
0.0
147
0.0
147
0.0
147
1.0
147
0.0
147
0.0
147
0.0
147
0.0
147
1.0
  0
MATERIAL
  5
11
102
{ACAD_XDICTIONARY
360
12
102
}
102
{ACAD_REACTORS
330
10
102
}
330
10
100
AcDbMaterial
  1
ByLayer
 72
     0
 43
0.0208333333333333
 43
0.0
 43
0.0
 43
0.0
 43
0.0
 43
0.0208333333333333
 43
0.0
 43
0.0
 43
0.0
 43
0.0
 43
1.0
 43
0.0
 43
0.0
 43
0.0
 43
0.0
 43
1.0
 77
     0
 47
0.0208333333333333
 47
0.0
 47
0.0
 47
0.0
 47
0.0
 47
0.0208333333333333
 47
0.0
 47
0.0
 47
0.0
 47
0.0
 47
1.0
 47
0.0
 47
0.0
 47
0.0
 47
0.0
 47
1.0
171
     0
 49
0.0208333333333333
 49
0.0
 49
0.0
 49
0.0
 49
0.0
 49
0.0208333333333333
 49
0.0
 49
0.0
 49
0.0
 49
0.0
 49
1.0
 49
0.0
 49
0.0
 49
0.0
 49
0.0
 49
1.0
175
     0
142
0.0208333333333333
142
0.0
142
0.0
142
0.0
142
0.0
142
0.0208333333333333
142
0.0
142
0.0
142
0.0
142
0.0
142
1.0
142
0.0
142
0.0
142
0.0
142
0.0
142
1.0
179
     0
144
0.0208333333333333
144
0.0
144
0.0
144
0.0
144
0.0
144
0.0208333333333333
144
0.0
144
0.0
144
0.0
144
0.0
144
1.0
144
0.0
144
0.0
144
0.0
144
0.0
144
1.0
147
0.0208333333333333
147
0.0
147
0.0
147
0.0
147
0.0
147
0.0208333333333333
147
0.0
147
0.0
147
0.0
147
0.0
147
1.0
147
0.0
147
0.0
147
0.0
147
0.0
147
1.0
  0
MATERIAL
  5
21
102
{ACAD_XDICTIONARY
360
22
102
}
102
{ACAD_REACTORS
330
10
102
}
330
10
100
AcDbMaterial
  1
Global
 72
     0
 43
0.0208333333333333
 43
0.0
 43
0.0
 43
0.0
 43
0.0
 43
0.0208333333333333
 43
0.0
 43
0.0
 43
0.0
 43
0.0
 43
1.0
 43
0.0
 43
0.0
 43
0.0
 43
0.0
 43
1.0
 77
     0
 47
0.0208333333333333
 47
0.0
 47
0.0
 47
0.0
 47
0.0
 47
0.0208333333333333
 47
0.0
 47
0.0
 47
0.0
 47
0.0
 47
1.0
 47
0.0
 47
0.0
 47
0.0
 47
0.0
 47
1.0
171
     0
 49
0.0208333333333333
 49
0.0
 49
0.0
 49
0.0
 49
0.0
 49
0.0208333333333333
 49
0.0
 49
0.0
 49
0.0
 49
0.0
 49
1.0
 49
0.0
 49
0.0
 49
0.0
 49
0.0
 49
1.0
175
     0
142
0.0208333333333333
142
0.0
142
0.0
142
0.0
142
0.0
142
0.0208333333333333
142
0.0
142
0.0
142
0.0
142
0.0
142
1.0
142
0.0
142
0.0
142
0.0
142
0.0
142
1.0
179
     0
144
0.0208333333333333
144
0.0
144
0.0
144
0.0
144
0.0
144
0.0208333333333333
144
0.0
144
0.0
144
0.0
144
0.0
144
1.0
144
0.0
144
0.0
144
0.0
144
0.0
144
1.0
147
0.0208333333333333
147
0.0
147
0.0
147
0.0
147
0.0
147
0.0208333333333333
147
0.0
147
0.0
147
0.0
147
0.0
147
1.0
147
0.0
147
0.0
147
0.0
147
0.0
147
1.0
  0
MLEADERSTYLE
  5
67
102
{ACAD_XDICTIONARY
360
F1B
102
}
102
{ACAD_REACTORS
330
66
102
}
330
66
100
AcDbMLeaderStyle
170
     2
171
     1
172
     0
 90
        2
 40
0.0
 41
0.0
173
     1
 91
-1056964608
340
5B
 92
       -2
290
     1
 42
0.09
291
     1
 43
0.36
  3
Standard
 44
0.18
300

342
55
174
     1
178
     6
175
     1
176
     0
 93
-1056964608
 45
0.18
292
     0
297
     0
 46
0.18
 94
-1056964608
 47
1.0
 49
1.0
140
1.0
293
     1
141
0.0
294
     1
177
     0
142
1.0
295
     0
296
     0
143
0.125
1001
ACAD_MLEADERVER
1070
     2
  0
MLINESTYLE
  5
60
102
{ACAD_REACTORS
330
5F
102
}
330
5F
100
AcDbMlineStyle
  2
STANDARD
 70
     0
  3

 62
   256
 51
90.0
 52
90.0
 71
     2
 49
0.5
 62
   256
  6
BYLAYER
 49
-0.5
 62
   256
  6
BYLAYER
  0
ACDBPLACEHOLDER
  5
F
102
{ACAD_REACTORS
330
E
102
}
330
E
  0
SCALE
  5
43
102
{ACAD_REACTORS
330
42
102
}
330
42
100
AcDbScale
 70
     0
300
1:1
140
1.0
141
1.0
290
     1
  0
SCALE
  5
44
102
{ACAD_REACTORS
330
42
102
}
330
42
100
AcDbScale
 70
     0
300
1/128" = 1'-0"
140
0.0078125
141
12.0
290
     0
  0
SCALE
  5
45
102
{ACAD_REACTORS
330
42
102
}
330
42
100
AcDbScale
 70
     0
300
1/64" = 1'-0"
140
0.015625
141
12.0
290
     0
  0
SCALE
  5
46
102
{ACAD_REACTORS
330
42
102
}
330
42
100
AcDbScale
 70
     0
300
1/32" = 1'-0"
140
0.03125
141
12.0
290
     0
  0
SCALE
  5
47
102
{ACAD_REACTORS
330
42
102
}
330
42
100
AcDbScale
 70
     0
300
1/16" = 1'-0"
140
0.0625
141
12.0
290
     0
  0
SCALE
  5
48
102
{ACAD_REACTORS
330
42
102
}
330
42
100
AcDbScale
 70
     0
300
3/32" = 1'-0"
140
0.09375
141
12.0
290
     0
  0
SCALE
  5
49
102
{ACAD_REACTORS
330
42
102
}
330
42
100
AcDbScale
 70
     0
300
1/8" = 1'-0"
140
0.125
141
12.0
290
     0
  0
SCALE
  5
4A
102
{ACAD_REACTORS
330
42
102
}
330
42
100
AcDbScale
 70
     0
300
3/16" = 1'-0"
140
0.1875
141
12.0
290
     0
  0
SCALE
  5
4B
102
{ACAD_REACTORS
330
42
102
}
330
42
100
AcDbScale
 70
     0
300
1/4" = 1'-0"
140
0.25
141
12.0
290
     0
  0
SCALE
  5
4C
102
{ACAD_REACTORS
330
42
102
}
330
42
100
AcDbScale
 70
     0
300
3/8" = 1'-0"
140
0.375
141
12.0
290
     0
  0
SCALE
  5
4D
102
{ACAD_REACTORS
330
42
102
}
330
42
100
AcDbScale
 70
     0
300
1/2" = 1'-0"
140
0.5
141
12.0
290
     0
  0
SCALE
  5
4E
102
{ACAD_REACTORS
330
42
102
}
330
42
100
AcDbScale
 70
     0
300
3/4" = 1'-0"
140
0.75
141
12.0
290
     0
  0
SCALE
  5
4F
102
{ACAD_REACTORS
330
42
102
}
330
42
100
AcDbScale
 70
     0
300
1" = 1'-0"
140
1.0
141
12.0
290
     0
  0
SCALE
  5
50
102
{ACAD_REACTORS
330
42
102
}
330
42
100
AcDbScale
 70
     0
300
1-1/2" = 1'-0"
140
1.5
141
12.0
290
     0
  0
SCALE
  5
51
102
{ACAD_REACTORS
330
42
102
}
330
42
100
AcDbScale
 70
     0
300
3" = 1'-0"
140
3.0
141
12.0
290
     0
  0
SCALE
  5
52
102
{ACAD_REACTORS
330
42
102
}
330
42
100
AcDbScale
 70
     0
300
6" = 1'-0"
140
6.0
141
12.0
290
     0
  0
SCALE
  5
53
102
{ACAD_REACTORS
330
42
102
}
330
42
100
AcDbScale
 70
     0
300
1'-0" = 1'-0"
140
12.0
141
12.0
290
     0
  0
TABLESTYLE
  5
65
102
{ACAD_XDICTIONARY
360
F19
102
}
102
{ACAD_REACTORS
330
64
102
}
330
64
100
AcDbTableStyle
  3
Standard
 70
     0
 71
     0
 40
0.06
 41
0.06
280
     0
281
     0
  7
Standard
140
0.18
170
     2
 62
     0
 63
     7
283
     0
274
    -2
284
     1
 64
     0
275
    -2
285
     1
 65
     0
276
    -2
286
     1
 66
     0
277
    -2
287
     1
 67
     0
278
    -2
288
     1
 68
     0
279
    -2
289
     1
 69
     0
  7
Standard
140
0.25
170
     5
 62
     0
 63
     7
283
     0
274
    -2
284
     1
 64
     0
275
    -2
285
     1
 65
     0
276
    -2
286
     1
 66
     0
277
    -2
287
     1
 67
     0
278
    -2
288
     1
 68
     0
279
    -2
289
     1
 69
     0
  7
Standard
140
0.18
170
     5
 62
     0
 63
     7
283
     0
274
    -2
284
     1
 64
     0
275
    -2
285
     1
 65
     0
276
    -2
286
     1
 66
     0
277
    -2
287
     1
 67
     0
278
    -2
288
     1
 68
     0
279
    -2
289
     1
 69
     0
  0
VISUALSTYLE
  5
2F
102
{ACAD_XDICTIONARY
360
F2D
102
}
102
{ACAD_REACTORS
330
29
102
}
330
29
100
AcDbVisualStyle
  2
2dWireframe
 70
     4
 71
     0
 72
     2
 73
     0
 90
        0
 40
-0.6
 41
-30.0
 62
     5
 63
     7
 74
     1
 91
        4
 64
     7
 65
   257
 75
     1
175
     1
 42
1.0
 92
        0
 66
   257
 43
1.0
 76
     1
 77
     6
 78
     2
 67
     7
 79
     5
170
     0
171
     0
290
     0
174
     0
 93
        1
 44
0.0
173
     0
291
     0
 45
0.0
1001
ACAD
1000
AcDbSavedByObjectVersion
1070
     0
  0
VISUALSTYLE
  5
2E
102
{ACAD_XDICTIONARY
360
F2B
102
}
102
{ACAD_REACTORS
330
29
102
}
330
29
100
AcDbVisualStyle
  2
Basic
 70
     7
 71
     1
 72
     0
 73
     1
 90
        0
 40
-0.6
 41
-30.0
 62
     5
 63
     7
 74
     0
 91
        4
 64
     7
 65
   257
 75
     1
175
     1
 42
1.0
 92
        8
 66
     7
 43
1.0
 76
     1
 77
     6
 78
     2
 67
     7
 79
     5
170
     0
171
     0
290
     0
174
     0
 93
        1
 44
0.0
173
     0
291
     1
 45
0.0
1001
ACAD
1000
AcDbSavedByObjectVersion
1070
     0
  0
VISUALSTYLE
  5
35
102
{ACAD_XDICTIONARY
360
F39
102
}
102
{ACAD_REACTORS
330
29
102
}
330
29
100
AcDbVisualStyle
  2
Brighten
 70
    12
 71
     2
 72
     2
 73
     0
 90
        0
 40
-0.6
 41
-30.0
 62
     5
 63
     7
 74
     1
 91
        4
 64
     7
 65
   257
 75
     1
175
     1
 42
1.0
 92
        8
 66
     7
 43
1.0
 76
     1
 77
     6
 78
     2
 67
     7
 79
     5
170
     0
171
     0
290
     0
174
     0
 93
        1
 44
50.0
173
     0
291
     1
 45
0.0
1001
ACAD
1000
AcDbSavedByObjectVersion
1070
     0
  0
VISUALSTYLE
  5
39
102
{ACAD_XDICTIONARY
360
F41
102
}
102
{ACAD_REACTORS
330
29
102
}
330
29
100
AcDbVisualStyle
  2
ColorChange
 70
    16
 71
     2
 72
     2
 73
     3
 90
        0
 40
-0.6
 41
-30.0
 62
     5
 63
     8
 74
     1
 91
        4
 64
     7
 65
   257
 75
     1
175
     1
 42
1.0
 92
        8
 66
     8
 43
1.0
 76
     1
 77
     6
 78
     2
 67
     7
 79
     5
170
     0
171
     0
290
     0
174
     0
 93
        1
 44
0.0
173
     0
291
     1
 45
0.0
1001
ACAD
1000
AcDbSavedByObjectVersion
1070
     0
  0
VISUALSTYLE
  5
32
102
{ACAD_XDICTIONARY
360
F33
102
}
102
{ACAD_REACTORS
330
29
102
}
330
29
100
AcDbVisualStyle
  2
Conceptual
 70
     9
 71
     3
 72
     2
 73
     0
 90
        0
 40
-0.6
 41
-30.0
 62
     5
 63
     7
 74
     2
 91
        2
 64
     7
 65
   257
 75
     1
175
     1
 42
179.0
 92
        8
 66
     7
 43
1.0
 76
     1
 77
     6
 78
     2
 67
     7
 79
     3
170
     0
171
     0
290
     0
174
     0
 93
        1
 44
0.0
173
     0
291
     0
 45
0.0
1001
ACAD
1000
AcDbSavedByObjectVersion
1070
     0
  0
VISUALSTYLE
  5
34
102
{ACAD_XDICTIONARY
360
F37
102
}
102
{ACAD_REACTORS
330
29
102
}
330
29
100
AcDbVisualStyle
  2
Dim
 70
    11
 71
     2
 72
     2
 73
     0
 90
        0
 40
-0.6
 41
-30.0
 62
     5
 63
     7
 74
     1
 91
        4
 64
     7
 65
   257
 75
     1
175
     1
 42
1.0
 92
        8
 66
     7
 43
1.0
 76
     1
 77
     6
 78
     2
 67
     7
 79
     5
170
     0
171
     0
290
     0
174
     0
 93
        1
 44
-50.0
173
     0
291
     1
 45
0.0
1001
ACAD
1000
AcDbSavedByObjectVersion
1070
     0
  0
VISUALSTYLE
  5
41
102
{ACAD_XDICTIONARY
360
F51
102
}
102
{ACAD_REACTORS
330
29
102
}
330
29
100
AcDbVisualStyle
  2
EdgeColorOff
 70
    22
 71
     2
 72
     2
 73
     0
 90
        0
 40
-0.6
 41
-30.0
 62
     5
 63
     7
 74
     1
 91
        4
 64
     7
 65
   257
 75
     1
175
     1
 42
1.0
 92
        8
 66
     7
 43
1.0
 76
     1
 77
     6
 78
     2
 67
     7
 79
     5
170
     0
171
     0
290
     0
174
     0
 93
        1
 44
0.0
173
     0
291
     1
 45
0.0
1001
ACAD
1000
AcDbSavedByObjectVersion
1070
     0
  0
VISUALSTYLE
  5
38
102
{ACAD_XDICTIONARY
360
F3F
102
}
102
{ACAD_REACTORS
330
29
102
}
330
29
100
AcDbVisualStyle
  2
Facepattern
 70
    15
 71
     2
 72
     2
 73
     0
 90
        0
 40
-0.6
 41
-30.0
 62
     5
 63
     7
 74
     1
 91
        4
 64
     7
 65
   257
 75
     1
175
     1
 42
1.0
 92
        8
 66
     7
 43
1.0
 76
     1
 77
     6
 78
     2
 67
     7
 79
     5
170
     0
171
     0
290
     0
174
     0
 93
        1
 44
0.0
173
     0
291
     1
 45
0.0
1001
ACAD
1000
AcDbSavedByObjectVersion
1070
     0
  0
VISUALSTYLE
  5
2A
102
{ACAD_XDICTIONARY
360
F23
102
}
102
{ACAD_REACTORS
330
29
102
}
330
29
100
AcDbVisualStyle
  2
Flat
 70
     0
 71
     2
 72
     1
 73
     1
 90
        2
 40
-0.6
 41
30.0
 62
     5
 63
     7
 74
     0
 91
        0
 64
     7
 65
   257
 75
     1
175
     1
 42
1.0
 92
        8
 66
     7
 43
1.0
 76
     1
 77
     6
 78
     2
 67
     7
 79
     5
170
     0
171
     0
290
     0
174
     0
 93
       13
 44
0.0
173
     0
291
     1
 45
0.0
1001
ACAD
1000
AcDbSavedByObjectVersion
1070
     0
  0
VISUALSTYLE
  5
2B
102
{ACAD_XDICTIONARY
360
F25
102
}
102
{ACAD_REACTORS
330
29
102
}
330
29
100
AcDbVisualStyle
  2
FlatWithEdges
 70
     1
 71
     2
 72
     1
 73
     1
 90
        2
 40
-0.6
 41
30.0
 62
     5
 63
     7
 74
     1
 91
        0
 64
     7
 65
   257
 75
     1
175
     1
 42
1.0
 92
        0
 66
   257
 43
1.0
 76
     1
 77
     6
 78
     2
 67
     7
 79
     5
170
     0
171
     0
290
     0
174
     0
 93
       13
 44
0.0
173
     0
291
     1
 45
0.0
1001
ACAD
1000
AcDbSavedByObjectVersion
1070
     0
  0
VISUALSTYLE
  5
2C
102
{ACAD_XDICTIONARY
360
F27
102
}
102
{ACAD_REACTORS
330
29
102
}
330
29
100
AcDbVisualStyle
  2
Gouraud
 70
     2
 71
     2
 72
     2
 73
     1
 90
        2
 40
-0.6
 41
30.0
 62
     5
 63
     7
 74
     0
 91
        0
 64
     7
 65
   257
 75
     1
175
     1
 42
1.0
 92
        0
 66
     7
 43
1.0
 76
     1
 77
     6
 78
     2
 67
     7
 79
     5
170
     0
171
     0
290
     0
174
     0
 93
       13
 44
0.0
173
     0
291
     1
 45
0.0
1001
ACAD
1000
AcDbSavedByObjectVersion
1070
     0
  0
VISUALSTYLE
  5
2D
102
{ACAD_XDICTIONARY
360
F29
102
}
102
{ACAD_REACTORS
330
29
102
}
330
29
100
AcDbVisualStyle
  2
GouraudWithEdges
 70
     3
 71
     2
 72
     2
 73
     1
 90
        2
 40
-0.6
 41
30.0
 62
     5
 63
     7
 74
     1
 91
        0
 64
     7
 65
   257
 75
     1
175
     1
 42
1.0
 92
        0
 66
   257
 43
1.0
 76
     1
 77
     6
 78
     2
 67
     7
 79
     5
170
     0
171
     0
290
     0
174
     0
 93
       13
 44
0.0
173
     0
291
     1
 45
0.0
1001
ACAD
1000
AcDbSavedByObjectVersion
1070
     0
  0
VISUALSTYLE
  5
31
102
{ACAD_XDICTIONARY
360
F31
102
}
102
{ACAD_REACTORS
330
29
102
}
330
29
100
AcDbVisualStyle
  2
Hidden
 70
     6
 71
     1
 72
     2
 73
     2
 90
        0
 40
-0.6
 41
-30.0
 62
     5
 63
     7
 74
     2
 91
        2
 64
     7
 65
   257
 75
     2
175
     1
 42
40.0
 92
        0
 66
   257
 43
1.0
 76
     1
 77
     6
 78
     2
 67
     7
 79
     3
170
     0
171
     0
290
     0
174
     0
 93
        1
 44
0.0
173
     0
291
     0
 45
0.0
1001
ACAD
1000
AcDbSavedByObjectVersion
1070
     0
  0
VISUALSTYLE
  5
3F
102
{ACAD_XDICTIONARY
360
F4D
102
}
102
{ACAD_REACTORS
330
29
102
}
330
29
100
AcDbVisualStyle
  2
JitterOff
 70
    20
 71
     2
 72
     2
 73
     0
 90
        0
 40
-0.6
 41
-30.0
 62
     5
 63
     7
 74
     1
 91
        4
 64
     7
 65
   257
 75
     1
175
     1
 42
1.0
 92
       10
 66
     7
 43
1.0
 76
     1
 77
     6
 78
     2
 67
     7
 79
     5
170
     0
171
     0
290
     0
174
     0
 93
        1
 44
0.0
173
     0
291
     1
 45
0.0
1001
ACAD
1000
AcDbSavedByObjectVersion
1070
     0
  0
VISUALSTYLE
  5
37
102
{ACAD_XDICTIONARY
360
F3D
102
}
102
{ACAD_REACTORS
330
29
102
}
330
29
100
AcDbVisualStyle
  2
Linepattern
 70
    14
 71
     2
 72
     2
 73
     0
 90
        0
 40
-0.6
 41
-30.0
 62
     5
 63
     7
 74
     1
 91
        4
 64
     7
 65
   257
 75
     7
175
     7
 42
1.0
 92
        8
 66
     7
 43
1.0
 76
     1
 77
     6
 78
     2
 67
     7
 79
     5
170
     0
171
     0
290
     0
174
     0
 93
        1
 44
0.0
173
     0
291
     1
 45
0.0
1001
ACAD
1000
AcDbSavedByObjectVersion
1070
     0
  0
VISUALSTYLE
  5
40
102
{ACAD_XDICTIONARY
360
F4F
102
}
102
{ACAD_REACTORS
330
29
102
}
330
29
100
AcDbVisualStyle
  2
OverhangOff
 70
    21
 71
     2
 72
     2
 73
     0
 90
        0
 40
-0.6
 41
-30.0
 62
     5
 63
     7
 74
     1
 91
        4
 64
     7
 65
   257
 75
     1
175
     1
 42
1.0
 92
        9
 66
     7
 43
1.0
 76
     1
 77
     6
 78
     2
 67
     7
 79
     5
170
     0
171
     0
290
     0
174
     0
 93
        1
 44
0.0
173
     0
291
     1
 45
0.0
1001
ACAD
1000
AcDbSavedByObjectVersion
1070
     0
  0
VISUALSTYLE
  5
33
102
{ACAD_XDICTIONARY
360
F35
102
}
102
{ACAD_REACTORS
330
29
102
}
330
29
100
AcDbVisualStyle
  2
Realistic
 70
     8
 71
     2
 72
     3
 73
     0
 90
        2
 40
-0.6
 41
30.0
 62
     5
 63
     7
 74
     0
 91
        0
 64
     7
 65
   257
 75
     1
175
     1
 42
1.0
 92
        8
 66
   257
 43
1.0
 76
     1
 77
     6
 78
     2
 67
     7
 79
     3
170
     0
171
     0
290
     0
174
     0
 93
       13
 44
0.0
173
     0
291
     0
 45
0.0
1001
ACAD
1000
AcDbSavedByObjectVersion
1070
     0
  0
VISUALSTYLE
  5
3E
102
{ACAD_XDICTIONARY
360
F4B
102
}
102
{ACAD_REACTORS
330
29
102
}
330
29
100
AcDbVisualStyle
  2
Shaded
 70
    27
 71
     2
 72
     2
 73
     1
 90
        2
 40
-0.6
 41
30.0
 62
     5
 63
     7
 74
     0
 91
        4
 64
     7
 65
   257
 75
     1
175
     1
 42
1.0
 92
        8
 66
   257
 43
1.0
 76
     1
 77
     6
 78
     2
 67
     8
 79
     3
170
     0
171
     0
290
     0
174
     0
 93
        5
 44
0.0
173
     0
291
     0
 45
0.0
1001
ACAD
1000
AcDbSavedByObjectVersion
1070
     0
  0
VISUALSTYLE
  5
3D
102
{ACAD_XDICTIONARY
360
F49
102
}
102
{ACAD_REACTORS
330
29
102
}
330
29
100
AcDbVisualStyle
  2
Shaded with edges
 70
    26
 71
     2
 72
     2
 73
     1
 90
        2
 40
-0.6
 41
30.0
 62
     5
 63
     7
 74
     1
 91
       10
 64
     7
 65
   257
 75
     2
175
     1
 42
1.0
 92
        8
 66
   257
 43
1.0
 76
     1
 77
     6
 78
     2
 67
     7
 79
     3
170
     0
171
     0
290
     0
174
     0
 93
        5
 44
0.0
173
     0
291
     0
 45
0.0
1001
ACAD
1000
AcDbSavedByObjectVersion
1070
     0
  0
VISUALSTYLE
  5
3A
102
{ACAD_XDICTIONARY
360
F43
102
}
102
{ACAD_REACTORS
330
29
102
}
330
29
100
AcDbVisualStyle
  2
Shades of Gray
 70
    23
 71
     2
 72
     2
 73
     3
 90
        0
 40
-0.6
 41
-30.0
 62
     5
 63
     7
 74
     2
 91
        2
 64
     7
 65
     7
 75
     1
175
     1
 42
40.0
 92
        8
 66
     7
 43
1.0
 76
     1
 77
     6
 78
     2
 67
     7
 79
     3
170
     0
171
     0
290
     0
174
     0
 93
        1
 44
0.0
173
     0
291
     0
 45
0.0
1001
ACAD
1000
AcDbSavedByObjectVersion
1070
     0
  0
VISUALSTYLE
  5
3B
102
{ACAD_XDICTIONARY
360
F45
102
}
102
{ACAD_REACTORS
330
29
102
}
330
29
100
AcDbVisualStyle
  2
Sketchy
 70
    24
 71
     1
 72
     2
 73
     2
 90
        0
 40
-0.6
 41
-30.0
 62
     5
 63
     7
 74
     2
 91
        2
 64
     7
 65
     7
 75
     1
175
     1
 42
40.0
 92
       11
 66
     7
 43
1.0
 76
     1
 77
     6
 78
     2
 67
     7
 79
     6
170
     0
171
     0
290
     0
174
     0
 93
        1
 44
0.0
173
     0
291
     0
 45
0.0
1001
ACAD
1000
AcDbSavedByObjectVersion
1070
     0
  0
VISUALSTYLE
  5
36
102
{ACAD_XDICTIONARY
360
F3B
102
}
102
{ACAD_REACTORS
330
29
102
}
330
29
100
AcDbVisualStyle
  2
Thicken
 70
    13
 71
     2
 72
     2
 73
     0
 90
        0
 40
-0.6
 41
-30.0
 62
     5
 63
     7
 74
     1
 91
        4
 64
     7
 65
   257
 75
     1
175
     1
 42
1.0
 92
       12
 66
     7
 43
1.0
 76
     1
 77
     6
 78
     2
 67
     7
 79
     5
170
     0
171
     0
290
     0
174
     0
 93
        1
 44
0.0
173
     0
291
     1
 45
0.0
1001
ACAD
1000
AcDbSavedByObjectVersion
1070
     0
  0
VISUALSTYLE
  5
30
102
{ACAD_XDICTIONARY
360
F2F
102
}
102
{ACAD_REACTORS
330
29
102
}
330
29
100
AcDbVisualStyle
  2
Wireframe
 70
     5
 71
     0
 72
     2
 73
     0
 90
        0
 40
-0.6
 41
-30.0
 62
     5
 63
     7
 74
     1
 91
        4
 64
     7
 65
   257
 75
     1
175
     1
 42
1.0
 92
        0
 66
   257
 43
1.0
 76
     1
 77
     6
 78
     2
 67
     7
 79
     3
170
     0
171
     0
290
     0
174
     0
 93
        1
 44
0.0
173
     0
291
     0
 45
0.0
1001
ACAD
1000
AcDbSavedByObjectVersion
1070
     0
  0
VISUALSTYLE
  5
3C
102
{ACAD_XDICTIONARY
360
F47
102
}
102
{ACAD_REACTORS
330
29
102
}
330
29
100
AcDbVisualStyle
  2
X-Ray
 70
    25
 71
     2
 72
     2
 73
     1
 90
        1
 40
0.5
 41
-30.0
 62
     5
 63
     7
 74
     1
 91
        0
 64
     7
 65
   257
 75
     1
175
     1
 42
1.0
 92
        8
 66
     7
 43
1.0
 76
     1
 77
     6
 78
     2
 67
     7
 79
     3
170
     0
171
     0
290
     0
174
     0
 93
       13
 44
0.0
173
     0
291
     0
 45
0.0
1001
ACAD
1000
AcDbSavedByObjectVersion
1070
     0
  0
DICTIONARYVAR
  5
DB
102
{ACAD_REACTORS
330
D8
102
}
330
D8
100
DictionaryVariables
280
     0
  1
1:1
  0
DICTIONARYVAR
  5
DA
102
{ACAD_REACTORS
330
D8
102
}
330
D8
100
DictionaryVariables
280
     0
  1
STANDARD
  0
DICTIONARYVAR
  5
D9
102
{ACAD_REACTORS
330
D8
102
}
330
D8
100
DictionaryVariables
280
     0
  1
STANDARD
  0
DICTIONARYVAR
  5
F17
102
{ACAD_REACTORS
330
D8
102
}
330
D8
100
DictionaryVariables
280
     0
  1
1
  0
DICTIONARYVAR
  5
F16
102
{ACAD_REACTORS
330
D8
102
}
330
D8
100
DictionaryVariables
280
     0
  1
1
  0
DICTIONARYVAR
  5
F15
102
{ACAD_REACTORS
330
D8
102
}
330
D8
100
DictionaryVariables
280
     0
  1
0
  0
DICTIONARYVAR
  5
F12
102
{ACAD_REACTORS
330
D8
102
}
330
D8
100
DictionaryVariables
280
     0
  1
0
  0
DICTIONARYVAR
  5
F13
102
{ACAD_REACTORS
330
D8
102
}
330
D8
100
DictionaryVariables
280
     0
  1
0
  0
DICTIONARYVAR
  5
F11
102
{ACAD_REACTORS
330
D8
102
}
330
D8
100
DictionaryVariables
280
     0
  1
2
  0
DICTIONARYVAR
  5
F10
102
{ACAD_REACTORS
330
D8
102
}
330
D8
100
DictionaryVariables
280
     0
  1
1
  0
DICTIONARYVAR
  5
F14
102
{ACAD_REACTORS
330
D8
102
}
330
D8
100
DictionaryVariables
280
     0
  1
127
  0
DICTIONARYVAR
  5
F18
102
{ACAD_REACTORS
330
D8
102
}
330
D8
100
DictionaryVariables
280
     0
  1
2
  0
DICTIONARY
  5
F55
330
6B
100
AcDbDictionary
280
     1
281
     1
  3
ACAD_XREC_ROUNDTRIP
360
F56
  0
DICTIONARY
  5
F59
330
73
100
AcDbDictionary
280
     1
281
     1
  3
ACAD_XREC_ROUNDTRIP
360
F5A
  0
DICTIONARY
  5
F57
330
6F
100
AcDbDictionary
280
     1
281
     1
  3
ACAD_XREC_ROUNDTRIP
360
F58
  0
DICTIONARY
  5
1A
330
19
100
AcDbDictionary
280
     1
281
     1
  3
ACAD_XREC_ROUNDTRIP
360
F21
  3
BUMPTILE
360
1C
  3
DIFFUSETILE
360
1B
  3
OPACITYTILE
360
1F
  3
REFLECTIONTILE
360
1E
  3
REFRACTIONTILE
360
20
  3
SPECULARTILE
360
1D
  0
DICTIONARY
  5
12
330
11
100
AcDbDictionary
280
     1
281
     1
  3
ACAD_XREC_ROUNDTRIP
360
F20
  3
BUMPTILE
360
14
  3
DIFFUSETILE
360
13
  3
FBXASSET
360
169
  3
OPACITYTILE
360
17
  3
REFLECTIONTILE
360
16
  3
REFRACTIONTILE
360
18
  3
SPECULARTILE
360
15
  0
DICTIONARY
  5
22
330
21
100
AcDbDictionary
280
     1
281
     1
  3
ACAD_XREC_ROUNDTRIP
360
F22
  3
BUMPTILE
360
24
  3
DIFFUSETILE
360
23
  3
FBXASSET
360
11C
  3
OPACITYTILE
360
27
  3
REFLECTIONTILE
360
26
  3
REFRACTIONTILE
360
28
  3
SPECULARTILE
360
25
  0
DICTIONARY
  5
F1B
330
67
100
AcDbDictionary
280
     1
281
     1
  3
ACAD_XREC_ROUNDTRIP
360
F1C
  0
DICTIONARY
  5
F19
330
65
100
AcDbDictionary
280
     1
281
     1
  3
ACAD_ROUNDTRIP_2008_TABLESTYLE_CELLSTYLEMAP
360
F1A
  3
ACAD_XREC_ROUNDTRIP
360
F53
  0
DICTIONARY
  5
F2D
330
2F
100
AcDbDictionary
280
     1
281
     1
  3
ACAD_XREC_ROUNDTRIP
360
F2E
  0
DICTIONARY
  5
F2B
330
2E
100
AcDbDictionary
280
     1
281
     1
  3
ACAD_XREC_ROUNDTRIP
360
F2C
  0
DICTIONARY
  5
F39
330
35
100
AcDbDictionary
280
     1
281
     1
  3
ACAD_XREC_ROUNDTRIP
360
F3A
  0
DICTIONARY
  5
F41
330
39
100
AcDbDictionary
280
     1
281
     1
  3
ACAD_XREC_ROUNDTRIP
360
F42
  0
DICTIONARY
  5
F33
330
32
100
AcDbDictionary
280
     1
281
     1
  3
ACAD_XREC_ROUNDTRIP
360
F34
  0
DICTIONARY
  5
F37
330
34
100
AcDbDictionary
280
     1
281
     1
  3
ACAD_XREC_ROUNDTRIP
360
F38
  0
DICTIONARY
  5
F51
330
41
100
AcDbDictionary
280
     1
281
     1
  3
ACAD_XREC_ROUNDTRIP
360
F52
  0
DICTIONARY
  5
F3F
330
38
100
AcDbDictionary
280
     1
281
     1
  3
ACAD_XREC_ROUNDTRIP
360
F40
  0
DICTIONARY
  5
F23
330
2A
100
AcDbDictionary
280
     1
281
     1
  3
ACAD_XREC_ROUNDTRIP
360
F24
  0
DICTIONARY
  5
F25
330
2B
100
AcDbDictionary
280
     1
281
     1
  3
ACAD_XREC_ROUNDTRIP
360
F26
  0
DICTIONARY
  5
F27
330
2C
100
AcDbDictionary
280
     1
281
     1
  3
ACAD_XREC_ROUNDTRIP
360
F28
  0
DICTIONARY
  5
F29
330
2D
100
AcDbDictionary
280
     1
281
     1
  3
ACAD_XREC_ROUNDTRIP
360
F2A
  0
DICTIONARY
  5
F31
330
31
100
AcDbDictionary
280
     1
281
     1
  3
ACAD_XREC_ROUNDTRIP
360
F32
  0
DICTIONARY
  5
F4D
330
3F
100
AcDbDictionary
280
     1
281
     1
  3
ACAD_XREC_ROUNDTRIP
360
F4E
  0
DICTIONARY
  5
F3D
330
37
100
AcDbDictionary
280
     1
281
     1
  3
ACAD_XREC_ROUNDTRIP
360
F3E
  0
DICTIONARY
  5
F4F
330
40
100
AcDbDictionary
280
     1
281
     1
  3
ACAD_XREC_ROUNDTRIP
360
F50
  0
DICTIONARY
  5
F35
330
33
100
AcDbDictionary
280
     1
281
     1
  3
ACAD_XREC_ROUNDTRIP
360
F36
  0
DICTIONARY
  5
F4B
330
3E
100
AcDbDictionary
280
     1
281
     1
  3
ACAD_XREC_ROUNDTRIP
360
F4C
  0
DICTIONARY
  5
F49
330
3D
100
AcDbDictionary
280
     1
281
     1
  3
ACAD_XREC_ROUNDTRIP
360
F4A
  0
DICTIONARY
  5
F43
330
3A
100
AcDbDictionary
280
     1
281
     1
  3
ACAD_XREC_ROUNDTRIP
360
F44
  0
DICTIONARY
  5
F45
330
3B
100
AcDbDictionary
280
     1
281
     1
  3
ACAD_XREC_ROUNDTRIP
360
F46
  0
DICTIONARY
  5
F3B
330
36
100
AcDbDictionary
280
     1
281
     1
  3
ACAD_XREC_ROUNDTRIP
360
F3C
  0
DICTIONARY
  5
F2F
330
30
100
AcDbDictionary
280
     1
281
     1
  3
ACAD_XREC_ROUNDTRIP
360
F30
  0
DICTIONARY
  5
F47
330
3C
100
AcDbDictionary
280
     1
281
     1
  3
ACAD_XREC_ROUNDTRIP
360
F48
  0
XRECORD
  5
F56
102
{ACAD_REACTORS
330
F55
102
}
330
F55
100
AcDbXrecord
280
     1
102
SHADEPLOT
 70
     0
102
SHADEPLOTRESLEVEL
 70
     2
102
SHADEPLOTCUSTOMDPI
 70
   300
  0
XRECORD
  5
F5A
102
{ACAD_REACTORS
330
F59
102
}
330
F59
100
AcDbXrecord
280
     1
102
SHADEPLOT
 70
     0
102
SHADEPLOTRESLEVEL
 70
     2
102
SHADEPLOTCUSTOMDPI
 70
   300
  0
XRECORD
  5
F58
102
{ACAD_REACTORS
330
F57
102
}
330
F57
100
AcDbXrecord
280
     1
102
SHADEPLOT
 70
     0
102
SHADEPLOTRESLEVEL
 70
     2
102
SHADEPLOTCUSTOMDPI
 70
   300
  0
XRECORD
  5
F21
102
{ACAD_REACTORS
330
1A
102
}
330
1A
100
AcDbXrecord
280
     1
102
MATERIAL
148
0.0
149
0.0
149
0.0
 93
        0
 94
      127
282
     0
 72
     0
 77
     0
171
     0
175
     0
179
     0
273
     0
  0
XRECORD
  5
1C
102
{ACAD_REACTORS
330
1A
102
}
330
1A
100
AcDbXrecord
280
     1
270
     1
271
     1
  0
XRECORD
  5
1B
102
{ACAD_REACTORS
330
1A
102
}
330
1A
100
AcDbXrecord
280
     1
270
     1
271
     1
  0
XRECORD
  5
1F
102
{ACAD_REACTORS
330
1A
102
}
330
1A
100
AcDbXrecord
280
     1
270
     1
271
     1
  0
XRECORD
  5
1E
102
{ACAD_REACTORS
330
1A
102
}
330
1A
100
AcDbXrecord
280
     1
270
     1
271
     1
  0
XRECORD
  5
20
102
{ACAD_REACTORS
330
1A
102
}
330
1A
100
AcDbXrecord
280
     1
270
     1
271
     1
  0
XRECORD
  5
1D
102
{ACAD_REACTORS
330
1A
102
}
330
1A
100
AcDbXrecord
280
     1
270
     1
271
     1
  0
XRECORD
  5
F20
102
{ACAD_REACTORS
330
12
102
}
330
12
100
AcDbXrecord
280
     1
102
MATERIAL
148
0.0
149
0.0
149
0.0
 93
        0
 94
      127
282
     0
 72
     0
 77
     0
171
     0
175
     0
179
     0
273
     0
  0
XRECORD
  5
14
102
{ACAD_REACTORS
330
12
102
}
330
12
100
AcDbXrecord
280
     1
270
     1
271
     1
  0
XRECORD
  5
13
102
{ACAD_REACTORS
330
12
102
}
330
12
100
AcDbXrecord
280
     1
270
     1
271
     1
  0
XRECORD
  5
169
102
{ACAD_REACTORS
330
12
102
}
330
12
100
AcDbXrecord
280
     1
 70
     1
 90
1959938040
 71
     1
  1
F6B8C09E-44C3-4AB3-A5CC-F3B78701F203
311
504B03040A0000080000086B31403DEE336E79000000790000001B0000006175746F6465736B2D64657369676E2D7061636B6167652E786D6C3C3F786D6C2076657273696F6E3D22312E302220656E636F64696E673D227574662D3822203F3E3C666F726D6174733E3C666F726D61743E687474703A2F2F736368656D612E
311
6175746F6465736B2E636F6D2F64657369676E2D7061636B6167652F323030393C2F666F726D61743E3C2F666F726D6174733E504B0304140006080800086B3140D486FD9CA0000000F4000000130000005B436F6E74656E745F54797065735D2E786D6C7D8EC10E82300C865F65E91D8A1E8C310C0EEA1BF002731658846E
311
D98AC1B77784ABF1D8FE5FBFBF75BBCE937A534CCEB38643598122B6FEE978D0B0485F9C41B54DDD7D022595594E1A469170414C76A4D9A4D207E29CF43ECE46F218070CC6BECC4078ACAA135ACF422C856C0E68EA1BF5669944DDD7BCDE7B1F8E415D77AECB980613C2E4AC91FC167A2B244592486606FC29C8FD7F045B9A
311
EF7053A7E60B504B0304140006080800086B314022E6E8FFE80000007C01000008000000636F72652E786D6C8D905B6EC3201045B782E61F1BB0153F84899AA43BE80610101725068B47D5E517278ED4FE959F195DEE99195D7EFC5EEEE8CB8468BD9B8056049071CA6BEBE60972BAE21ED051F0E07DFA6503E4E46226D864
311
107C0E3EAFBBA4BC4BC6A5A23AAFCD2ECA184D02A4EEA59920AA4FB3C84AE6541CF156AD52DDE46C2AFAEA0A9CB3D5E8B9C4EA32CF5EAD0920DACB7039B1BEC51D1D086ECBC33D3953CCDE1A3AB487F7333B0DBCDE60C1935D5EFB553032190D8211CA30A198761FB419593BD20E93C34808AF37FB1F28AFFA9F50B62E356C
311
3FF7894510B41CF2F810BCDEB228E51154A95B6EE207504B0304140006080800086B314055019EA25F0000007C00000007000000636E782E786D6C4DCB3B0E80201045D1AD90E915ED2CF8AC45050C11660C8261F98AB1B07AC9C97D42D718D865D3E909258CFD00CCE24AC6E326A164D74DC0B4128928FF326038472BA131
311
28B1252AC747C6BAB984FC68F0B87FE8960A5C09FE86CFB69FBA01504B0304140006080800086B314060FD06CD64010000020300000C0000006662782F636F72652E786D6C8D525B6E833010BC8AE57FE347505E328E9AA437E8051C70280AD8C8D828C7EFF28868AA282A4860CDECECCE0EC8C3BDA9516F7C57399B619E30
311
8C8CCD5D51D932C3315CC916A38392DEB9F0AB0C23AB1B93E101C64A96DEC57686726783B10150EB0A3383BAEB4CC028AFE190E12EFF368D4E740C50D1DD9256E7375D9A842740439D925DF060004D43862756D7CB5DD2095732C6AA98D9AA8069D5B5321EABF4BC3B1FC536251BBE6324858B6CD98913F1B1E2BB74FD7912
311
C79DA48358C950350F77B9373A98022BC1B8208C13BEF9E2ABBD48F77C43D87ACF98A443F99328B6C53F45B1B2612566BB93ACC38A839191F8B32D441450A77BF04395A44388F01A137E0E1A02819083BED48F3D6E00F5260FCEA7C0142E2E54AFEB68602A43E32DE9C442E7B1016CF6B28F78D3E77D0FF880DA96604D0738
311
5E6218A6CB69EA1C456B3CE9C31D59E71B5D2FE6268BCB7319F4529EBBDAF9FFA8E9BC2A9DC3A4C3DFAB7E00504B0304140006080800086B3140885292457D0000009D0000000B0000006662782F636E782E786D6C4DCCD10AC2201886E15B91FFDCA6AB69823AA8F43E467343721AA6D1E5B7C50E3AFAE0E1E395FD6709E8
311
EDF2CBA7A8801E082017EF69F4715650CB84CF807A2D734AE5EF06280E8B53B0316839E7549F3B8D6E1A6A28AB061F1F3B32C26F2D6F0526C674F8648E020B4B09BE769C938B6096510B8D96CDAFB4EE16D65F504B0304140006080800086B3140CA9ED1C72B01000014020000310000006662782F36303744323732392D30
311
4545352D344533392D394631302D4335373730423936463631462F636F72652E786D6C8D51CB6EC32010FC15C4293D600371EC38C2446A9B7C417F8000495062B07854F9FC42ED48ED2D1716CDCECC8E76D9FE31DEC1B7F6C1383B40526108B4954E197B19608A67B48560CF99772EFEA14160C5A8075860C8D9C5BB342D90
311
74366A1B336A9DD20B2842D0110279CF9F010679D5A3A8448A99116ED524E44D5C7445AADCCE3CCE42F4390098879417F216779FB4A33DC287C3063587758FFA23C1E863D375F8BD6F8F2D39B27A16729692518BDCA81CC79C8DF6AF9A143167D18CCFF8D26B11B5829C6242112688745F64BDA3CD8E7408B73B8C595DE8FF
311
4469522F8A92B1714D97B8B32C404E583D3738532E9DEECF30FA31391F4199B70A5ABE418E2B4C714FB64DCFEA999A17903DDB66F10CD1F9BCE0D5ED94D964331BB70D6775B9512EBF07CCB5DC93FF00504B0304140006080800086B3140DCCC78164C01000033030000300000006662782F36303744323732392D30454535
311
2D344533392D394631302D4335373730423936463631462F636E782E786D6CD593CD6E022114855F85B09F1F74A28D6130E9A24FD045B70857A53230E1A7A96FDF8BA275E3A2CB6EC8E4DCC339375F18BEFD9E2CF982108D7723656D4F0938E5B5718791E6B46F5E28D90A1EBC4F0F364A9C9C60A445A6821F82CF739534EC
311
65B609556BDCA98A01A2CF414144B9DC24D62B6931005C93518469075A832677237EED21E02A28EECE241D81BCBD7E10BFFB049522EF4A8AE05DE910BC9CB5E9C14489B232C69146758449B63227AF219E5A2D936C597BEB7AB2D36F1229176E95391852CA475A4E2AEA462D72E41D0E058F2920BD6A4AE719A890F36C8D92
311
09217717E3D52378362EAD86EA35083EA09BAD96C380619799E0C94C501D2A804CA0A958F46CD1F4AC61EB77B6DC2C860D5B37FD6AD3F7BC2B76C177DEDB7A096320F89928EF12B84405E35D193FC3577D449B80AC7D38FF012402A8AD573AF78CFFCCA7BBBC6FC415F02F103F504B0304140006080800086B3140CDD3CADA
311
9B0500007B100000340000006662782F36303744323732392D304545352D344533392D394631302D4335373730423936463631462F6F626A656374732E786D6CAD575B8F9B3814FE2B887D0E8424D3CEAC18AA5C9A2AEA4E5B356AB50F2345060CE31D73916D6632FDF5FB190C81349966577D016CECE373BEF39D8BFD77FB
311
8C5B4F544856E4B7B6E78C6D8BE65111B33CBDB52B958CAE6DEB5DE08BA250BD65B695938CDEDA7ADA0EFC54145569A6629A908AABA3D9F5E26F4B4634A7B6157122E5AD2DA3079A118754AA88A97C7462A28893267BC7739A8543B1A920E5C391D092089A2B688AF91C52AC46296F381CDB6EE0BBFA7FE0EBA759353DBFCA
311
ADED199ECF72A9481EFD74D89198A9375BBD9F5CDD8CAE66B3E968F666E28D16EBC56AE4BD9D8E976F96CB9BF9FB1B1C2C958024A389A0891D7C00368245BEDBFC0AFC8AE56A3A314B8C835C419F98F6941D4C2CCF779B359D75C6C853EA47459ED3A8C60A68D4F619D1312D691EC3E78C4A68D643683C1C7A1AC7DEEFA91E
311
9B23FBD39721D0DFD113D4EADEBEFB9A16E13F30415EC22021A9666083A531B4E1EAF880705814DCFC63D2CA88A282116E71160A225EEC004BF592C01F88D14C163A1AB40576002F34BF87744118FD9AE7A7B44C2ACE358DEDA08E821D62852A596BC67E5071D0BE8F0C7482AF341BAE8D41EAA5A47670D350E4FA884D0D90
311
56C2490A97C34CBD733A393274A9E374B3B2838FEB70BFD5B17BFAF0521425154AD307D46A1DD7BE354A4627EF22CFE90DF6912A0750BE02F94F08F5832AF09B60FBD97E664E5182E432294406DF58636B34C6636C79F5537FF7BE7CB7DB3CF4DE393CE16C0DD56FC0736843DF973D3803FF09842FC4D498B68D0847DAB863
311
3900D224B1788129E4E124DCDBC106590E5919BB080F3C980C759FF0E9BB460C12457D52EF9D03CBA3B4784182066C3523A146437EA3E0C14F3FA5B3FA60B3EC1CBC57BF85AEF3D5F6E3B6120989E89D89E9154D58CE144ADC81377D8506980F2C7AA42FCF858861E8CF786FFB7867E62809B435E61AF8B4CDE97A70387970
311
40847D69A1D38DFF8B1360842EAC3DF9774C46947392D3A26ACF7DB57EA06C3410EB60D74CEE0ACCA1B08034CD9FA31844918E042B35885DB5EA92A673C6BA6F9B4F60A41D2C5EFE222FFDEC151E726F54F042ECC2975D93964E42FD7DC86D8381ABA580EE7590B4F16F40DFC52C492A89247802D7EF9B65DF773A2D2045B4
311
529B6899C17E04171186B4AD5C546B4150498B7CC750371177270FE8CB07A48601B5C0731A4BCA931DE3BCCA7609E3A846BB8C9467E0F8FFFA875556EE485654B93A237BA03AAAC350F7017BE53351D1831D6CEBF76881DC1BD3F80C19742D3981D5C0B5EB378BEBE5F8E6FD68365BA27F9A2FA6A3F9D572395A4F176FAFDF
311
8EBDF5643C6DFDD46812F86DA9E94734BC84D2E6578219F77DDB207E4C12B0833BA2E4FD87263CDBF7B78D835ED877B107F5B2DB388F9FD0F7D1F8D7020E2B4F0ADA6425A719CD15D13174A73FF857823E63A04C33BFC9484A2F90F2F9C3F6C818CC5CB0EF8B8E77FA7CB4D7CC2E75409E14A21EAA2CCC09E3471BD30649A7
311
CC53835FEB93EEDD149A76A847C631E84C65C1598C3C185B292D32AA900D2F284222A312D4EBF7F4B1B97B5CB0FBA9E9101509396D3579206892B94458805A55A486F3D61F68EA745F756BA3DC3A8F78984C615BE0CCAD8D265DB1884A274481D6AD502D1C5CEA77F268FC499E72F4DACDA66EDCEDD2D80C4A72B7E492FEC9
311
D8D5A4706300D24889BE010D11BC532B13F8B56EE67FF49F0C6FD5B188C26758A9CE96C344674C7D0C42B431CADC16D0C43C9AA3F708D4D7CDF29C7ACD00918B6E59AF92A0913A5244A4F54D41EB67549AAFBEB8E850ACCD67ABE4550A5F5E2E692428C85CE900078BC00A23B3240A545DFE79FF4514B8C966D69A8102F7CB
311
22CB8ADC0CE6E6266C6D1F70AF8DEF9116A8BE90C8FBC9D89BDCD717017337D985445287C4F21113F0A9601DC403C78391CD6D1115A8F9D1AD73B5138EB8B95959A6A4CD20D410A59F55352C6839726A217AF46552C74A7F41F9EA5DC0AD974205812E3EF817504B0304140006080000086B31400000000000000000000000
311
00350000006662782F36303744323732392D304545352D344533392D394631302D4335373730423936463631462F76657274696365732E62696E504B0304140006080800086B3140F270F1330600000004000000360000006662782F36303744323732392D304545352D344533392D394631302D4335373730423936463631
311
462F747269616E676C65732E62696E636660600000504B0304140006080000086B3140000000000000000000000000370000006662782F36303744323732392D304545352D344533392D394631302D4335373730423936463631462F617474726962757465732E62696E504B0304140006080800086B3140D5987DFC8F0000
311
0041010000360000006662782F36303744323732392D304545352D344533392D394631302D4335373730423936463631462F6469726563746F72792E786D6C858F410EC2201045AF4266AF15DDB800BA74E7C21B903225242D6328188F2FA5C4183471359997F9FF81E89FF3C41E1816475E02DF1F80A11FC8386F25A438EE
311
CEC07A250251FC3803E6F58C12560C4AD840E95E91C151A72936F496F35732D860FE635F62C8F2DA16B505C545B74125BAA2FA9E05D7CC053D063734D5C7665FD55B6B8D15D5E9BFEAFD8490FFA45E504B0304140006080800086B3140FD882247FB000000A00100003B0000006662782F36303744323732392D304545352D
311
344533392D394631302D4335373730423936463631462F7265736F75726365732F636F72652E786D6C8D50596EC32010BD8A35FFD880AD7811266A92DEA017407892A0C460B1543D7E71EC4AED5FF960466FD13C3D71FC9A9FC527FA609C1D8195140AB4DA4DC6DE4648F14A3A288E5278E7E22F191456CD38C20A831437EF
311
D2B243DAD9883666D4BA0977508580110AFDCCCB0841DF7156A54A312BC2A35C947EA81B96ACCC74D64911A2CF018AEDC8FA83F4185CF21A83A836568A94CCB46BCC946F9AAB410FB2B9F49713EF6AD2B29E92263FD2D13323FCAD667D73783FF3532FAAD52C4534F34F46ED51459C4072CA38A18CB0F683D5036F06D6127A
311
182815D52AFF634ACBF44F533236D67C8FBBD902489683BC0829AAB5AF3C5E65E6B9762BBF01504B010214000A0000080000086B31403DEE336E79000000790000001B00000000000000000000000000000000006175746F6465736B2D64657369676E2D7061636B6167652E786D6C504B01021400140006080800086B3140
311
D486FD9CA0000000F40000001300000000000000000000000000B20000005B436F6E74656E745F54797065735D2E786D6C504B01021400140006080800086B314022E6E8FFE80000007C010000080000000000000000000000000083010000636F72652E786D6C504B01021400140006080800086B314055019EA25F000000
311
7C000000070000000000000000000000000091020000636E782E786D6C504B01021400140006080800086B314060FD06CD64010000020300000C00000000000000000000000000150300006662782F636F72652E786D6C504B01021400140006080800086B3140885292457D0000009D0000000B0000000000000000000000
311
0000A30400006662782F636E782E786D6C504B01021400140006080800086B3140CA9ED1C72B010000140200003100000000000000000000000000490500006662782F36303744323732392D304545352D344533392D394631302D4335373730423936463631462F636F72652E786D6C504B01021400140006080800086B31
311
40DCCC78164C010000330300003000000000000000000000000000C30600006662782F36303744323732392D304545352D344533392D394631302D4335373730423936463631462F636E782E786D6C504B01021400140006080800086B3140CDD3CADA9B0500007B10000034000000000000000000000000005D0800006662
311
782F36303744323732392D304545352D344533392D394631302D4335373730423936463631462F6F626A656374732E786D6C504B01021400140006080000086B314000000000000000000000000035000000000000000000000000004A0E00006662782F36303744323732392D304545352D344533392D394631302D433537
311
3730423936463631462F76657274696365732E62696E504B01021400140006080800086B3140F270F133060000000400000036000000000000000000000000009D0E00006662782F36303744323732392D304545352D344533392D394631302D4335373730423936463631462F747269616E676C65732E62696E504B010214
311
00140006080000086B31400000000000000000000000003700000000000000000000000000F70E00006662782F36303744323732392D304545352D344533392D394631302D4335373730423936463631462F617474726962757465732E62696E504B01021400140006080800086B3140D5987DFC8F00000041010000360000
311
00000000000000000000004C0F00006662782F36303744323732392D304545352D344533392D394631302D4335373730423936463631462F6469726563746F72792E786D6C504B01021400140006080800086B3140FD882247FB000000A00100003B000000000000000000000000002F1000006662782F3630374432373239
311
2D304545352D344533392D394631302D4335373730423936463631462F7265736F75726365732F636F72652E786D6C504B0506000000000E000E0080040000831100000000
310
504B03040A0000080000086B31403DEE336E79000000790000001B0000006175746F6465736B2D64657369676E2D7061636B6167652E786D6C3C3F786D6C2076657273696F6E3D22312E302220656E636F64696E673D227574662D3822203F3E3C666F726D6174733E3C666F726D61743E687474703A2F2F736368656D612E
310
6175746F6465736B2E636F6D2F64657369676E2D7061636B6167652F323030393C2F666F726D61743E3C2F666F726D6174733E504B0304140006080800086B3140D486FD9CA0000000F4000000130000005B436F6E74656E745F54797065735D2E786D6C7D8EC10E82300C865F65E91D8A1E8C310C0EEA1BF002731658846E
310
D98AC1B77784ABF1D8FE5FBFBF75BBCE937A534CCEB38643598122B6FEE978D0B0485F9C41B54DDD7D022595594E1A469170414C76A4D9A4D207E29CF43ECE46F218070CC6BECC4078ACAA135ACF422C856C0E68EA1BF5669944DDD7BCDE7B1F8E415D77AECB980613C2E4AC91FC167A2B244592486606FC29C8FD7F045B9A
310
EF7053A7E60B504B0304140006080800086B3140FA494FCBE80000007C01000008000000636F72652E786D6C8D904D6EC3201085AF82668F0DB6EB3F612247CD0D7A0104C44589C13250F5F885C491DA5D57337AF3BE99D163A7EFF58EBEF4EE8DB313D08200D2563A65EC32410C57DC033A71B63B177ED90059B1EA09B20C
310
9C2DBB8BDB21496783B621A9D6297D88C27B1D00C97B6A26F0F253AFA210312487BF159B9037B1E882BEBA04C768147A1E312AED3357A377E06468DBB74BF38EEBA69B7143FB16F7646E713793CB701EEA73D550566698B360D6D77DB96B11B4025E115A614231ED3E683D56CD483B4CDA91105666FB1F286EEA9F503436D4
310
D5F1EE13F3C0F3238F016765CE22954750A9E6DCF80F504B0304140006080800086B314055019EA25F0000007C00000007000000636E782E786D6C4DCB3B0E80201045D1AD90E915ED2CF8AC45050C11660C8261F98AB1B07AC9C97D42D718D865D3E909258CFD00CCE24AC6E326A164D74DC0B4128928FF326038472BA131
310
28B1252AC747C6BAB984FC68F0B87FE8960A5C09FE86CFB69FBA01504B0304140006080800086B31402298D9A565010000020300000C0000006662782F636F72652E786D6C8D52ED8E8320107C15C27F04D4B31F419A36D737B817A04A3D53058360FAF8B77E345E2F4D73314132B3B33B3B2A0EF7B64183767D6D4D8E79C4
310
30D2A6B0656DAA1C077F255B8C0E52386BFDAF328C8C6A758E47184B51391BBA052AACF1DA78408D2DF502AABED71EA3A2814B8EFBE25BB72A52C143457F8B3A55DC54A5231E010D7552F4DE8101340F194F2CAF97BBA0332E450875B9B07509D3EA6BAD1D966C97651FE7F49324E9E64852BECDC8961D33B239B2F3EEB44B
310
4E71CA051DC552F8BA7DB82B9C565E9758C68CC78471C2375F3CD9C7E99E6F08CBF68C093A963F894257FE53146AE39378B13BCB7A2C472313F1675B88C8A35E0DE0874A41C710E13525FC1C340402217B75691E7BDC001A74E1AD4B81296D58A9413541C35486A647D09985CE5303D8EC659FF84D9FF73DE0032A538135E5
310
E17A097E9C2EE6A94B149D7664F07764AC6B55B39A9B2DAEE73AE8A5BCB08D75FF51D36555BA8449C7BF57FE00504B0304140006080800086B3140908D113C7C0000009D0000000B0000006662782F636E782E786D6C4DCC410AC3201404D0ABC8DF9BFC58632DA85914728FD09820355AAC961CBFA664D1D50C8F61D4B06F
310
9E7C6C7ABB1834740D02B1E1116717560D252F5402198C4A31E6BF1990306D56C3C160D49A62799D34DB652A3E57F52E3C4F64C8C58D23A788D8D1DA7B2AB9E454F492DDD9C8C478BD406B54FB7BAA791C9B2F504B0304140006080800086B3140CA91D55A2501000014020000310000006662782F32303436393430342D30
310
3030312D343639352D383438342D3635383243324632364637332F636F72652E786D6C8D51CB6EC32010FC158B537AC0064C6C37C2E450295FD01F2098A42831583CAA7C7E97DA91DA5B2E2C9A9D991DED8AE363BE57DF2644EBDD88684D50659CF69375D711E574C103AA8E5204EFD31F1AAA9C9ACD880A8CA4B8069F970D
310
D2DE25E312A0CE4F6603558C26A14ADFE133A2A8BFCCAC6A951330E2AD5E94BEA9ABA9690D6DE04911538000D53AA4BC4832C2BB774E382684500CFF3D1EF8C071B71FD8073BB1EED4B7A2598552E46CA74D6E2788632FD684574D8A588A64E7677C1D8C4A662A7ACA308CA7FD276D0F8C1F688F497720443485FE4F9497E9
310
4551B62EB56C8BBBCA229254346B438AC9E7F3FD19C63C161F5255E6EDA2D16F48929A30C6684F9968562A2C003C3BBE79C6E4032C78773B03BBDD8C3B2E45536E04E5F78050CB3DE50F504B0304140006080800086B3140BA6BB7015501000033030000300000006662782F32303436393430342D303030312D343639352D
310
383438342D3635383243324632364637332F636E782E786D6CBD93CD6EC32010845F0571F70F8EE5441126520F7D821E7AC5B049686CB00057CDDB7749489A4B0E95AA5E90353BCCAC3E61BEFB9A46F2093E18677BCACA9A12B0CA69630F3D5DE2BED850B213DC3B171F6C945839414F934C053F78B7CC59D2B097CB18511D
310
8D3D65D143708B5710504E37C9E8941C31006CB1A008D3005A832677237EEDC1E32A280E67128F405E5FDE891B3E40C5C0AB942278953A044F676E7A3051A24619424F833AC2244BB944A7219C4A2DA32C5979EB7AB2D34F1249176E958B372495F7349D54E48D4AE4C82B1C0A1EA2477AD914CF335021E779344A46845C5D
310
8C578FE08BB1B16BB3D720788FEE55D36D36187699091ECD04D9A13CC8089A8AA6664D51B382ADDFD86ADBB45BB62EEA6E5BD7BC4A76C107E7C67C0963C0BB99286723D84805E3551A3FC3977D441B8FAC9D3FFF022402C8AD573AF78CBFE4C3BA55DBFE239FEAF2BE1197C7BF407C03504B0304140006080800086B31406E
310
2C41E15A070000941B0000340000006662782F32303436393430342D303030312D343639352D383438342D3635383243324632364637332F6F626A656374732E786D6CED59DD739B3810FF5718EED9D8C44E9ADC103AB1D3743CBDB49DFADAB987CC3032C8581721184924F1FDF5B7FA00033109BEE6DEFA6003425AEDFEF6
310
534BF0FE29A3CE03E682E4ECD2F5BD89EB6016E70961E9A55BCACDE8DC75DE8701CF73D998E63A0C65F8D255C36E18A43C2F0B3B94E00D2AA9EC8CDECCFF72448C19769D9822212E5D116F71863C54CA3CC1E2DE4B90445EBA79F27CCF4C6C934D392AB61DA205E29849E014C61950710C537EFB71E28EC360ACDE8781FAB7
310
B3A68366CDFA678DB5D46D2E091312B1F8194B1D32D3412C4DFDD9F58793D38BD1E96C361DCDCE4EFCD1FC667E3DF2DF4D278BB3C5E2E2EAC305B0B7CE736A654A70815902FADBB9A11F8CD59B5A748BC021AEE39C311C6B20012A2D569720C102B66AC037693FFA4AA2C66B2D61E379A6DE5B161AC3D33695BE59C38068D1
310
0541EC7695C4D5B5295FBEFE1B0417438C920B2C815B213968D7C2C3C12BDC70128CCD6818ACF7BA20C2C990C49C20EA50B2E688835260AA9A1206668125A39C8303294749A035675EB76D0B3CF375D739C4E5A6A45479861B6AC78AC0FDB0149A33F20FE67BEE9BC8004F206D49983CB75CCA5D81DDF02218EBC1305097E9
310
897D6980743614A5422362DE76045D28D75F5EBBE1A79BF5D34A8583C39B173C2F3097CAE8941E355F60C8F6AA50B2DBFA8334A71680300654BB720FCA3740FE33448F3D2BA0374E9E664F333B5772C4C426E719E8C69938A309FC4D1C5FFFABFBC65D30AE17B7B5D78727B8A982EAFCE7F16CCBA0B1B2FC37E00C830730F8
310
9C4FEDAB558C28D8F32D610090321287E63004A17DB37E72C325044E08F4B00AD1D0079181DD07B80DC696CC5E2B957B59AF6380A8DD633A4449009BB64860A3474F1F217B7012EFD5D414B10FDED33731D7ABEBD5A755C93728C6B7D6A7AFF1863022216B1E66A885794BA27BBC7BCC7902823EC77BD5C43BB35B09405B61
310
AE804F2B10D4C37EE7D60631AC4B73156E825776002154AE6ED0BF2522C6942286F3B2DAB78E6ECA506B8FB735831B9E1888A7271D13E6F881A8AA029C663FA3C528E4FD98934281E8861F8D6475D0F47AA4FBBEFC0C1659CFEF99B564107A19A27FEAA0750087966557485B206A81D7FB701EE734E7D17A179948E7422D01
310
6CB4BDE5478B28C47AA32445053C48FB5D155252236D9490CDA61410570FB0F863B9689AC3C49BFAA74EF3BFE38C3388B6E0BB885BBFEBEC11910CA538DAA0A46FBBE66E356DA149F690E67843412EF240E42E42329A24383D069AA3885FBC29F594E642108605E4AB83E037D1987810488C362B9695563B4013116558227A
310
0C028A4C0FB83AEDE81A3786D2E1751E6BEB7D49634DA2FF93457004B564CE2202A528E4905719F7BD5388216D740DCA1D7CC1DA2ADA5A0C5A420911EFA2474CD2AD3C067543BE07F7188E24A58CF202C560D603C83EF315A5D40EEF6B14DFABFC11C5257D2B0311986E2242699945F0230C4E1E435CBB0E4C2FA2D0206E62
310
9FC419146548967CC82667A79367FB989AA11B021B1B6D0885B01D65A8E841BD1510753DE2D4E05BEA3D4A5D975911A12C2FD92043F1A65D6FB2E4BB6A556407F2AB4A45281B2BC29660181026EBAC5AC56C30751D58C18D74A0DA4502650535A7B057128F5F7B93A6DCBB01B77EFAB61B6450F8F568AF195167150C96C756
310
61201E918CB76EB8D2D7D11CEAEF0427FB545FD59ACD0A10105391BCE4C4AAE8FB12CA1B5BA3B9E12D92E2EEA3C9BAD5F5FBD283EE4730863550BBD40B970AE80C3389546572AB6EE8370421B845C38C2F554E3D86CA5592E8AA11D11BD2A7CE5619D1DA34235EB1C52CCFE0C7EE088B6999E03B9488FBE856D2684514EB56
310
4A2F2315C62F0AF8E5E3AA030F8C0C10E9AB2AF0F06367AD1D5DA872E92011B92DB335430482604BB4D4E8C62B586A355269B9BEAA3305D45D606056C5B35F278B663BE2D7C922B586F153278BF9EE0FB46BF6451AE93C56767DD431A0CE4F8ACA5B1C0374DBA1A65A671193CCADFCD69922088A55941F5C8D5541C310ECE3
310
F83F67EDBE2C68B6EBF07F5CD6F69F551C476595D664D5A53A50B92E9B39ECE66C7EBE985C7C18CD660B68D05ECDA7A3ABD3C56274339DBF3B7F37F16F4E26FB32423B6A18D4C14CE72E783641AD1A564F1603E8CA8A9C92044EF389936288F912CEF403DAE73CC3029267B3D99DD8A6FC80D50FA6CF29D19AE28A932D8206
310
311590D601A33296ED71E737684D4A38685FBAD034F2EEE1CF5AA5EB40E6B974A15520498C85B78636936AE869E2907275EEB7C4001FC4529512CDA2FAB95EA5B06985FF7ACA903460E56AF530A0702BA0FBD5EA5068DE2C4FF1518257EC3848C2EDBA9450AD1959F603B5307A9BBDFA8D6C94B07BBBF513B8EECB62F99E9E
310
D34264D02783178DC0501D49C453DDEF568C5996AEAEBF8EA1CFE62CBF38052D53D0E5704A238EC1984B555081158155589A059260AA8BDFEFBEF21C3EF1648EAE8AEE167996E5CC3E5CC1792C814F44CE6A0B1F7C923B281BB06AAB8BBB93897F72A7DBD9B6C31EAD91C09EAA8760A02A2394081D63038B7CD69AB28DCBB1
310
524267FAF2DAB1E113DA00C6829E7577CDE72D07BC477D4851BEA23DBC92F3C58EF6584F056BE0D08B0EFF05504B0304140006080000086B3140000000000000000000000000350000006662782F32303436393430342D303030312D343639352D383438342D3635383243324632364637332F76657274696365732E62696E
310
504B0304140006080800086B3140F270F1330600000004000000360000006662782F32303436393430342D303030312D343639352D383438342D3635383243324632364637332F747269616E676C65732E62696E636660600000504B0304140006080000086B3140000000000000000000000000370000006662782F323034
310
36393430342D303030312D343639352D383438342D3635383243324632364637332F617474726962757465732E62696E504B0304140006080800086B3140D5987DFC8F00000041010000360000006662782F32303436393430342D303030312D343639352D383438342D3635383243324632364637332F6469726563746F72
310
792E786D6C858F410EC2201045AF4266AF15DDB800BA74E7C21B903225242D6328188F2FA5C4183471359997F9FF81E89FF3C41E1816475E02DF1F80A11FC8386F25A438EECEC07A250251FC3803E6F58C12560C4AD840E95E91C151A72936F496F35732D860FE635F62C8F2DA16B505C545B74125BAA2FA9E05D7CC053D06
310
3734D5C7665FD55B6B8D15D5E9BFEAFD8490FFA45E504B0304140006080800086B314025278573FB000000A00100003B0000006662782F32303436393430342D303030312D343639352D383438342D3635383243324632364637332F7265736F75726365732F636F72652E786D6C8D50596EC32010BD0A9A7F6CB05D2F1126
310
4AAADCA017407892A0C410B1543D7E2171A5F6AF3F33A3B7689E9ED87FAD77F2893E186767E015038256BBC5D8CB0C299EE908642F85772EFE9201B16AC5190A0C525CBC4B8F0DD2CE46B431A3D62DB8812A048C40F43D1F33047DC555552AC5AC08B7EAA1F44D5DB0E255A6B34E8A107D0E405E4FCA04E931B8E4350651BF
310
58295232CBA6314BFE69CE063D4836F5FDDBA97BA76D371C68C7C79E8EECD0D3E1C04ED3716A8F4DC7455DCC5244B3FE64D41E55C40564C3784319A77CF8E0EDAEE9767CA0ACDF3126EA22FF634A8FE59FA6646C6C9B2DEECB164096204F428ABAF495D7B3CCBC4BB7F21B504B010214000A0000080000086B31403DEE336E
310
79000000790000001B00000000000000000000000000000000006175746F6465736B2D64657369676E2D7061636B6167652E786D6C504B01021400140006080800086B3140D486FD9CA0000000F40000001300000000000000000000000000B20000005B436F6E74656E745F54797065735D2E786D6C504B01021400140006
310
080800086B3140FA494FCBE80000007C010000080000000000000000000000000083010000636F72652E786D6C504B01021400140006080800086B314055019EA25F0000007C000000070000000000000000000000000091020000636E782E786D6C504B01021400140006080800086B31402298D9A565010000020300000C
310
00000000000000000000000000150300006662782F636F72652E786D6C504B01021400140006080800086B3140908D113C7C0000009D0000000B00000000000000000000000000A40400006662782F636E782E786D6C504B01021400140006080800086B3140CA91D55A250100001402000031000000000000000000000000
310
00490500006662782F32303436393430342D303030312D343639352D383438342D3635383243324632364637332F636F72652E786D6C504B01021400140006080800086B3140BA6BB70155010000330300003000000000000000000000000000BD0600006662782F32303436393430342D303030312D343639352D38343834
310
2D3635383243324632364637332F636E782E786D6C504B01021400140006080800086B31406E2C41E15A070000941B00003400000000000000000000000000600800006662782F32303436393430342D303030312D343639352D383438342D3635383243324632364637332F6F626A656374732E786D6C504B010214001400
310
06080000086B314000000000000000000000000035000000000000000000000000000C1000006662782F32303436393430342D303030312D343639352D383438342D3635383243324632364637332F76657274696365732E62696E504B01021400140006080800086B3140F270F13306000000040000003600000000000000
310
0000000000005F1000006662782F32303436393430342D303030312D343639352D383438342D3635383243324632364637332F747269616E676C65732E62696E504B01021400140006080000086B31400000000000000000000000003700000000000000000000000000B91000006662782F32303436393430342D30303031
310
2D343639352D383438342D3635383243324632364637332F617474726962757465732E62696E504B01021400140006080800086B3140D5987DFC8F0000004101000036000000000000000000000000000E1100006662782F32303436393430342D303030312D343639352D383438342D3635383243324632364637332F6469
310
726563746F72792E786D6C504B01021400140006080800086B314025278573FB000000A00100003B00000000000000000000000000F11100006662782F32303436393430342D303030312D343639352D383438342D3635383243324632364637332F7265736F75726365732F636F72652E786D6C504B0506000000000E000E
310
0080040000451300000000
  0
XRECORD
  5
17
102
{ACAD_REACTORS
330
12
102
}
330
12
100
AcDbXrecord
280
     1
270
     1
271
     1
  0
XRECORD
  5
16
102
{ACAD_REACTORS
330
12
102
}
330
12
100
AcDbXrecord
280
     1
270
     1
271
     1
  0
XRECORD
  5
18
102
{ACAD_REACTORS
330
12
102
}
330
12
100
AcDbXrecord
280
     1
270
     1
271
     1
  0
XRECORD
  5
15
102
{ACAD_REACTORS
330
12
102
}
330
12
100
AcDbXrecord
280
     1
270
     1
271
     1
  0
XRECORD
  5
F22
102
{ACAD_REACTORS
330
22
102
}
330
22
100
AcDbXrecord
280
     1
102
MATERIAL
148
0.0
149
0.0
149
0.0
 93
        0
 94
      127
282
     0
 72
     0
 77
     0
171
     0
175
     0
179
     0
273
     0
  0
XRECORD
  5
24
102
{ACAD_REACTORS
330
22
102
}
330
22
100
AcDbXrecord
280
     1
270
     1
271
     1
  0
XRECORD
  5
23
102
{ACAD_REACTORS
330
22
102
}
330
22
100
AcDbXrecord
280
     1
270
     1
271
     1
  0
XRECORD
  5
11C
102
{ACAD_REACTORS
330
22
102
}
330
22
100
AcDbXrecord
280
     1
 70
     1
 90
1959938040
 71
     1
  1
D4B26CEA-54C7-47BF-ABA1-5BB076554FEF
311
504B03040A0000080000086B31403DEE336E79000000790000001B0000006175746F6465736B2D64657369676E2D7061636B6167652E786D6C3C3F786D6C2076657273696F6E3D22312E302220656E636F64696E673D227574662D3822203F3E3C666F726D6174733E3C666F726D61743E687474703A2F2F736368656D612E
311
6175746F6465736B2E636F6D2F64657369676E2D7061636B6167652F323030393C2F666F726D61743E3C2F666F726D6174733E504B0304140006080800086B3140D486FD9CA0000000F4000000130000005B436F6E74656E745F54797065735D2E786D6C7D8EC10E82300C865F65E91D8A1E8C310C0EEA1BF002731658846E
311
D98AC1B77784ABF1D8FE5FBFBF75BBCE937A534CCEB38643598122B6FEE978D0B0485F9C41B54DDD7D022595594E1A469170414C76A4D9A4D207E29CF43ECE46F218070CC6BECC4078ACAA135ACF422C856C0E68EA1BF5669944DDD7BCDE7B1F8E415D77AECB980613C2E4AC91FC167A2B244592486606FC29C8FD7F045B9A
311
EF7053A7E60B504B0304140006080800086B3140FCDDE32FE90000007C01000008000000636F72652E786D6C8D90D18E832010457F85CC3B0A6A540CD26CD3ED17EC0F10A02E690523D0F4F3175B9BECBEEDD34CEEDC3333B9FCF0986FE86ED660BD1B8116049071CA6BEBA61152BCE01ED041F0D5FBF8CB06C8C9D98CB0C9
311
20F8B4FAB4EC92F22E1A17B3EABC36BB2843301190BAE56684A0BECD2C0B996276846BB14875959329E8BBCB704A56A3D711ABF33E7BB16605416ADA9DCFA72366CD47851B5633CCBA13C16DDDF4947DB263DF36BCDC60C1A39DDFF7D56A64341A4445688509C5B4FBA2F55035036D3169074278B9D9FF4069D1FF849275B1
311
AEF6775F580041F323CF81E0E596452ECFA072DD72133F504B0304140006080800086B314055019EA25F0000007C00000007000000636E782E786D6C4DCB3B0E80201045D1AD90E915ED2CF8AC45050C11660C8261F98AB1B07AC9C97D42D718D865D3E909258CFD00CCE24AC6E326A164D74DC0B4128928FF326038472BA1
311
3128B1252AC747C6BAB984FC68F0B87FE8960A5C09FE86CFB69FBA01504B0304140006080800086B31406A236E7966010000020300000C0000006662782F636F72652E786D6C8D52ED8E8320107C15C27F04D4D8DA20CD35BD3EC1BD0055EA992A1804D3C7BFF5A3E9F5D234171324333BBBB3A3627FEB5A346A3734D61498
311
470C236D4A5B35A62E70F017B2C5682F85B3D6FF2AC3C8A84E177882B114B5B3A15FA1D21AAF8D07D4D84AAFA01A06ED312A5BB8147828BF75A722153C540CD7A857E555D53AE211D05027C5E01D1840CB90E9C4F272BE09BAE05284D0542BDB5430ADB934DA61C912BE399D8E0792A71F3149F32427F9E6C84896A45B9E7F
311
E6876D960A3A89A5F04D7777573AADBCAEB08C198F09E3846FBE78B28BD31DCF08CB768C093A953F89425FFD53141AE39378B5BBC8062C391899893FDB42441E0D6A043F540A3A8508AF39E1E7A0211008D9AB737BDFE30AD0A84B6F5D0A4C65C3831A551B344C65687E045D58E83C3780CD5EF689DFF479DF033EA0323558
311
531EAEE7E0A7E96299BA46D16B47467F43C6BA4EB50F738BC5C7F918F4525EDAD6BAFFA8E9BA2A5DC3A4D3DF2B7F00504B0304140006080800086B314008029C0E7E0000009D0000000B0000006662782F636E782E786D6C4DCCD10A83201886E15B91FFDC55D266811AD6F6DF472C0B99E9703A76F9ABD1C18E3E78F87845
311
F7591D799BF8B2C14BA84E2510E3EF61B27E9190D34C1B209D123184F47703E2C7D548D819945862C8CF8326338FD9A54D9DF58F039135D5EDCC19BDA2D6B4AE79497BAD5B8A7861380C1C75DF42A144F12B6DBB87D517504B0304140006080800086B31406B0E65D22D01000014020000310000006662782F463238314535
311
37322D444641412D343437302D424141392D4646363246434337464142392F636F72652E786D6C8D51CB6EC32010FC15C4293D600371EC24C2444E5A7F417FC00192A2C460F1A8F2F985DA91DA5B2E2C9A9D991DEDB2C363BC836FE5BCB6A685A4C0102823ACD4E6DAC2182E680BC18133676DF84383C00CA36A6186216757
311
67E3B440C29AA04C48A8B1522DE0E0BD0A10887BFAB4D08B2F350EC5104362F85B310DE2365C55418AD44E3CCE7C7029009887E417F29E6EC9C7A6A1E8BDEF3A54550D46C7AEDBA1BEAF697F3A357D77DCB172167216A3968B5CCB14475FB472AF9A643167418FCFF8C2A921280939C584224C10693EC97A4FAB3DA911AEF7
311
18B332D3FF89E2245F14456DC29A2E716799879CB0726E70266D3CDF9F61D463B22E803C6FE59578831C179862DAECD61B56CED4B480E459578BA70FD6A505AF6EE7C42689958DEB8AB332DF2895DF03A69AEFC97F00504B0304140006080800086B3140DDD9FC674D01000033030000300000006662782F46323831453537
311
322D444641412D343437302D424141392D4646363246434337464142392F636E782E786D6CD593BD6E032110845F05D1DF0FF6E912591C9652E40952A4C5B076883938F113C56F9FC5C68E1B1729D3A0D3EC30B3FAC4F1EDF76CC9178468BC9B286B7B4AC029AF8D3B4C34A77DF34CC956F0E07DBAB351E2E40C132D3215FC
311
107C5EAAA4612FB34DA85AE38E550C107D0E0A22CAE526B15E498B01E09A8C22CC3BD01A34B919F16B0F015741717722E903C8EBCB3BF1BB4F5029F2AEA408DE950EC1CB599BEE4C94282B639C68541F30CB56E6E435C463AB65922D6BAF5D0F76FA4D22E5C2B53207434AF944CB4945DDA8458EBCC3A1E03105A4574DE9B4
311
00157259AC513221E4EE6CBC7804CFC6A571A85E83E003BAD9B81E060C3BCF044F6686EA500164024DC5AA67ABA6670D7B7A63EBCD6AD8B0B1E9C74DDFF3AED805DF796FEB258C81E017A2BC4BE012158C7765FC085FF5116D02B2F6E1F4079008A0B65EE8DC32FE339FEEFCBE1157C0BF40FC00504B030414000608080008
311
6B3140749D5A389B0500007A100000340000006662782F46323831453537322D444641412D343437302D424141392D4646363246434337464142392F6F626A656374732E786D6CAD57DB6EDB3810FD1541FBEC8B6C2769168A0A5FE2C228D216355AEC4300839228851B4A14482A75F6EBF750A264C9B553EFA22F96450D87
311
3367CE5CE8BFDF67DC79A1523191DFB9DE70EC3A348F44CCF2F4CE2D753278E73AEF035F0AA13B62AE93938CDEB966D90DFC548AB2B04B314D48C9F5D1EA7AF197A3229A53D7893851EACE55D113CDC890945AC4543D0F63A2C9304DF6436F580BF6D5A692144F474A0B2269AE6129D67368716AA3BCFEEBD81D05FEC87C0F
311
7CF36BA5A6E7A546953FFDF359AE34C9A39F0E3B5233F566ABFBC9D5EDE06A369B0E66D7136FB0582F5603EF663A5E5E2F97B7F3FB5B1CACB484266B89A4891B7C00369245FEA8FE14F825CBF57462456C804692BE3013293798389E3FAA655AEFAC93A7CC8F449ED3A8C20A6854FE59D5312D681E23E68C2A58D64168DC7F
311
F50C8E9DCF53F36E8FEC2E5F864077474751637BF3EC5A2AC2BFE182BA84415251C3C01A4BEB68CDD5F101E150086EBF31E5644453C90877380B2591AF6E00512312F83D3586C9D26483F1C00D1085FA739F2E48A35FF3FC949549C9B9A1B11B5459B043AE50AD2ACBD83F541EACEF22039B102BC38677D621FD5A5037B8AD
311
29F2EE884D35904EC2498A90C34DB3733A39727469F274B372838FEB70BF35B97BFAF0428A824A6DE8036A35816B9E06256B937751E4CC06F7C89403285F81FC27A4FAC114C44DB2FD6C3FB3A76849729508992136CED8198CF13376BCEAD7FCEFFCF347EDE67EF4CEE189601BA87E039E7D1FBAB1ECC019F82F20BC9053EB
311
DA36221C65E381E500C890C4E1024BA8C349B877830DAA1CAA3276111E787019E6BEE0AF3FB26A5028AA933ACF1C581E95C50B0A3460AB1809336AF25B030F71FAA99C55075BB173F05EFD16BACE57DB8FDB522624A20F36A757346139D3687107DE740DEA61DEF3E899BEFE103286A33FE3BDEDE29DD9A314D036981BE0D3
311
A6A69B97C3C9BD0322EC4B852937FE2F4E8013A6B176F43F301551CE494E45D99CFB66FF40DBA82136C96E98DC369843630169EA2F473988261D49561810DB6ED516CDE119EFBE6D3E819190E72224FC20141E4A6F24B890BBF0755757A593487FEF53DB4230325AC0F62A479AF4B798EF629624A5420D3C01EBF7CDB21B3A
311
531550211AAD75B2CCE03E728B48CBD9462F9AB52468A422DF31B44DA4DDC903BAFA81A82540A5F09CC58AF264C7382FB35DC2389AD12E23C51938FEBFFD6199153B928932D76774F74C4773E8DBDE23AFFA4174F4E406DBEA3958A0F4C6343E84B9276C5AC909AC7AA15DCD1693EBE5FD1CE3D3F26630BB59AC07F3C5DC1B
311
5C2D16E39BEBABABD9FA7EDDC4A9561EF84DA7E92634A284CEE69792D9F07DDB207D6C0D708307A2D5E3873A3B9BE7B7CD10A3B03FC21EB4CB76E33C7EC1D847E35F2B38489E54B4C90A4E339A6B6252E8C1FCE15F09C68C9E31F5FA262329BD40CBE70FDB2367B072C1BE2F26DDE98FA3BD76756912F2A412FD5466614E18
311
3FDA98D6480E8B3CB5F83531699F759F695ECD9B0D0C065325388B51066327A522A31AC5F0821E2433AA40BDEE481FDBABC705BB5FEA01519390D3C692278219992BA405A85546BABFEEFC8199CE8C55772EBAEDF0193FB652B80E3873E76246D72CA26A18A23F9B49A8520E2E750779CCFD244F3946ED7A53FBDEEE32D8F4
311
3A722B72C9F864FDAA2BB8750065A4C0D8807908D1A98C09FCCA36FB3DFA4F8E37E63844E36F58EAD697C342EB4C750C52B476CA5E1630C33CDBA3F748D4B7DDF286954C0F918B2E596F92A0D63AD044A6D545C1D8674D9AAFBE8C30A0389BCF4EC1CB14B1BC5CD3405290B934090E16811556674134A8BAFCF3F18B14B8C8
311
66CE9A81028F4B916522B72F737B1176B64FB8D6C68F280BD4DC47D4E364EC4D1EAB7B80BD9AEC42A2E890C4EA190B88A9642DC4BDC08391F565111DA8FED0CA8D4C108EB8B95939B6A5CDA0D412A55B550D2C983872EA207BCC5DD2E44A57A078F32A30AA446182C4101FFC0B504B0304140006080000086B314000000000
311
0000000000000000350000006662782F46323831453537322D444641412D343437302D424141392D4646363246434337464142392F76657274696365732E62696E504B0304140006080800086B3140F270F1330600000004000000360000006662782F46323831453537322D444641412D343437302D424141392D46463632
311
46434337464142392F747269616E676C65732E62696E636660600000504B0304140006080000086B3140000000000000000000000000370000006662782F46323831453537322D444641412D343437302D424141392D4646363246434337464142392F617474726962757465732E62696E504B0304140006080800086B3140
311
D5987DFC8F00000041010000360000006662782F46323831453537322D444641412D343437302D424141392D4646363246434337464142392F6469726563746F72792E786D6C858F410EC2201045AF4266AF15DDB800BA74E7C21B903225242D6328188F2FA5C4183471359997F9FF81E89FF3C41E1816475E02DF1F80A11F
311
C8386F25A438EECEC07A250251FC3803E6F58C12560C4AD840E95E91C151A72936F496F35732D860FE635F62C8F2DA16B505C545B74125BAA2FA9E05D7CC053D063734D5C7665FD55B6B8D15D5E9BFEAFD8490FFA45E504B0304140006080800086B31409437BE1EFC000000A00100003B0000006662782F46323831453537
311
322D444641412D343437302D424141392D4646363246434337464142392F7265736F75726365732F636F72652E786D6C8D50596E833010BD0A9A7F830D884DC651AA3427E8052C332156828DBC543D7E4DA052FBD79F99D15B344F8F9FBE9667F689CE6B6B466039850C8DB29336F30831DC4807D94970676DF82583CCC805
311
47D860107C7636AE07A4AC096842428D9DF000A5F7182053CF748CE0D51D1799CB1892C23FF255AA879C316779A2934E701F5C0A90ED4FB609C2A1B7D129F4BCD859C163D4D3A1D153FAA96F1A1D085AB1F67ABD9C495F9F4B52F7554FFAF6424953D51DEBDFFBB7AEA979B199050F7AF9C9A81CCA80138892B292504658FB
311
C1AAA1AC07D610DA0C94F26293FF31C575FAA7296A13AAF288BBDB3C089682BC08C18BADAFB45E65A6BD752BBE01504B010214000A0000080000086B31403DEE336E79000000790000001B00000000000000000000000000000000006175746F6465736B2D64657369676E2D7061636B6167652E786D6C504B010214001400
311
06080800086B3140D486FD9CA0000000F40000001300000000000000000000000000B20000005B436F6E74656E745F54797065735D2E786D6C504B01021400140006080800086B3140FCDDE32FE90000007C010000080000000000000000000000000083010000636F72652E786D6C504B01021400140006080800086B3140
311
55019EA25F0000007C000000070000000000000000000000000092020000636E782E786D6C504B01021400140006080800086B31406A236E7966010000020300000C00000000000000000000000000160300006662782F636F72652E786D6C504B01021400140006080800086B314008029C0E7E0000009D0000000B000000
311
00000000000000000000A60400006662782F636E782E786D6C504B01021400140006080800086B31406B0E65D22D0100001402000031000000000000000000000000004D0500006662782F46323831453537322D444641412D343437302D424141392D4646363246434337464142392F636F72652E786D6C504B0102140014
311
0006080800086B3140DDD9FC674D010000330300003000000000000000000000000000C90600006662782F46323831453537322D444641412D343437302D424141392D4646363246434337464142392F636E782E786D6C504B01021400140006080800086B3140749D5A389B0500007A100000340000000000000000000000
311
0000640800006662782F46323831453537322D444641412D343437302D424141392D4646363246434337464142392F6F626A656374732E786D6C504B01021400140006080000086B31400000000000000000000000003500000000000000000000000000510E00006662782F46323831453537322D444641412D343437302D
311
424141392D4646363246434337464142392F76657274696365732E62696E504B01021400140006080800086B3140F270F13306000000040000003600000000000000000000000000A40E00006662782F46323831453537322D444641412D343437302D424141392D4646363246434337464142392F747269616E676C65732E
311
62696E504B01021400140006080000086B31400000000000000000000000003700000000000000000000000000FE0E00006662782F46323831453537322D444641412D343437302D424141392D4646363246434337464142392F617474726962757465732E62696E504B01021400140006080800086B3140D5987DFC8F0000
311
00410100003600000000000000000000000000530F00006662782F46323831453537322D444641412D343437302D424141392D4646363246434337464142392F6469726563746F72792E786D6C504B01021400140006080800086B31409437BE1EFC000000A00100003B00000000000000000000000000361000006662782F
311
46323831453537322D444641412D343437302D424141392D4646363246434337464142392F7265736F75726365732F636F72652E786D6C504B0506000000000E000E00800400008B1100000000
310
504B03040A0000080000086B31403DEE336E79000000790000001B0000006175746F6465736B2D64657369676E2D7061636B6167652E786D6C3C3F786D6C2076657273696F6E3D22312E302220656E636F64696E673D227574662D3822203F3E3C666F726D6174733E3C666F726D61743E687474703A2F2F736368656D612E
310
6175746F6465736B2E636F6D2F64657369676E2D7061636B6167652F323030393C2F666F726D61743E3C2F666F726D6174733E504B0304140006080800086B3140D486FD9CA0000000F4000000130000005B436F6E74656E745F54797065735D2E786D6C7D8EC10E82300C865F65E91D8A1E8C310C0EEA1BF002731658846E
310
D98AC1B77784ABF1D8FE5FBFBF75BBCE937A534CCEB38643598122B6FEE978D0B0485F9C41B54DDD7D022595594E1A469170414C76A4D9A4D207E29CF43ECE46F218070CC6BECC4078ACAA135ACF422C856C0E68EA1BF5669944DDD7BCDE7B1F8E415D77AECB980613C2E4AC91FC167A2B244592486606FC29C8FD7F045B9A
310
EF7053A7E60B504B0304140006080800086B314032E23CBBEA0000007C01000008000000636F72652E786D6C8D90416EC3201045AF82D8E300761DC7C24476939CA0174030715162B00C543D7E71E248EDAEAB19FDF96F66F4C5F17BBAA32F5882F5AEC3ACA01881D3DE58377638C52B69303A4AB1781F7FD930726A820EAF
310
3296625C7C9A37497B17C1C5AC3A6F601355081031D2F7DC7438E84F9854A152CC8E702B66A56F6A8482BDBA0CA7640D7A1EB126EFB3570B0B96BC29DFFBE15C11DE9F4EA4AA9B81F46F4D49CE077EB8F0FDBE1F2E54EC56588A68A7D77DBD808A60324F19279411B6FF6065CBAB96D584D62DCDD06AFF03A5D9FC134AD6C5
310
926FEF3EB18025CB8F3C0652ECD62C72790495EB9A9BFC01504B0304140006080800086B314055019EA25F0000007C00000007000000636E782E786D6C4DCB3B0E80201045D1AD90E915ED2CF8AC45050C11660C8261F98AB1B07AC9C97D42D718D865D3E909258CFD00CCE24AC6E326A164D74DC0B4128928FF326038472B
310
A13128B1252AC747C6BAB984FC68F0B87FE8960A5C09FE86CFB69FBA01504B0304140006080800086B3140F877A28665010000020300000C0000006662782F636F72652E786D6C8D525B6EC23010BC8AE57FE75DA0C8310A054ED00B18C7A411891DF91171FC6E1E28A542084572AC999DDDD949E8EED636A897C6D65AE538
310
0E228CA412BAAC559563EF2E6483D18E51A3B5FB538691E2ADCCF10063462BA37D3743422B27950354E952CE20B7563A8C4403971C5BF1235B1E70EFA0C25E838E8B2BAF64100740431DA3D6193080A621C389D9E57CA3E18433EA7D5DCE6C5DC2B4FA524B8359B249BF8AFD3123497138906CB5D993E2639392E367F2794A
310
D6EB627F8A6838881975757B77278CE44E96A08FE284443189D7DF71BA4DB26DBC22D16A1B8168287F10F9AE7C53E46BE5D264B63BC92C66311819897FDB42440E59DE839F90D17008115E63C28F41432010B2E3E7E6BEC715A05E0AA74D064CA9FD42F5BCF112A646687C6838B1D0796C009B3DED93BCE8F3BA077C40AE2A
310
B0C61D5CCFDE0DD3E934758EA29386F4EE8694362D6F167393C5E55C063D950BDD68F38E3A9C570DE730C3E1EF65BF504B0304140006080800086B31401A4ACCAF7C0000009D0000000B0000006662782F636E782E786D6C4DCCD10AC2201886E15B91FFDCA64D50411D4AEC3E467343721AA6D1E5B7C50E3AFAE0E1E355C3
310
678BE8EDCB2BE4A4815E08209FEE790E69D5D0EA8205A0C1A89273FDBB014AD3E6351C0C46AD25B7E749B35FA616EBAE31A4C78937D9534B39C58E8B1E3376A5589051606747CE9C25DC4A099D51DDAFB4EF11365F504B0304140006080800086B3140BA4FDF182901000014020000310000006662782F4439333141313731
310
2D423738332D343432312D383046382D4241463734424130374139392F636F72652E786D6C8D51CB6EC32010FC15C4A93D60F3B08C1361224755BEA03F406C92A2C460F1A8F2F985DA91DA5B2E2C9A9D991DED8AC363BE836FED8371B687A4C210683BBAC9D86B0F53BCA00E828314DEB9F887068155B3EE6181A11457EFD2
310
B241A3B351DB9851EB26BD812A041D2118EFF9D3C3307EE959552AC5CC08B76A51E34D5D7545AADCCE3C2942F4390058879417CA8F1D2303E1041D79C750D350823A7CEAD07138F1E638603EEC76A25E8552A464A64D6EA61CC75C8CF6AF9A14B114D1CCCFF8A3D72AEA094A8A09459820C23F09DBD3664F5A84DB3DC6A22E
310
F47FA2B44C2F8A92B191D12DEE2A0B501251AF0D292697CEF76718FD589C8FA0CC7B0B7A7C8712579832CE08E5A25EA97901D9B36D36CF109DCF0B7EBB9D339B6DC66D23455D6E94CBEF01732DF7943F504B0304140006080800086B3140BB7E33705401000033030000300000006662782F44393331413137312D42373833
310
2D343432312D383046382D4241463734424130374139392F636E782E786D6CBD93CD6EC32010845F0571F70F8EE5461126520F7D821E7A25B04969305880ABE6EDBB2424CD25874A552FC89A1D66569F30DF7E4D967C4288C6BB91B2BAA5049CF2DAB8C34897B4AFD6946C050FDEA73B1B254E4E30D22C53C10FC12F739134
310
ECE56213AAD6B863110344BF040511E57C9358AFA4C50070D582224C3BD01A34B919F16B0F015741717722E91DC8CBF31BF1BB0F5029F226A708DEE40EC1F3599AEE4C94282B631C6954EF30C95A2EC96B88C75ACB246B565FBB1EECF49344F2856BE5120CC9E523CD271565A31A39F2068782C714905E31A5D30C54C879B6
310
46C984909BB3F1E2117C312E0D7DF11A041FD0BDEA86F51AC3CE33C19399A0385400994053D1B5ACAB5A56B1A757B6DA74FD860D553B6CDA9637D92EF8CE7B5B2E610C043F13E55D0297A860BCC9E347F88A8F681390B50FA75F804400A5F542E796F1977CD8B0EAFB7FE4D39CDF37E20AF817886F504B0304140006080800
310
086B314054F63D3C58070000931B0000340000006662782F44393331413137312D423738332D343432312D383046382D4241463734424130374139392F6F626A656374732E786D6CED595B6FA33814FE2B887D0E09B974A62BCAA8492F8A569D194D7646FB500939E0506F8D41B6E9657FFD1E5F2040434B76BA6FF39000C6
310
3E3EE73B571F824F4F19751E3017246767AEEF4D5C07B3384F084BCFDC52EE461F5DE75318F03C978D69AEC35086CF5C35EC8641CAF3B2B04309DEA192CACEE8D5F22F47C49861D7892912E2CC15F11DCE90874A992758DC7B0992C84B774F9EEF99896DB22947C55D87688138661238857106541CC394DF7E9CB8E33018AB
310
F761A0FEEDACD9A059F3FE59632D759B4BC284442C7EC15287CC6C104B337F7E71395D9C8E16F3F96C343F99FAA3E5D5F262E47F984D5627ABD5E9F9E529B0B7CD736A654A70815902FA7B76433F18AB37B5E81681435CC7396338D64002545AAC2E4182056CD5806FD27EF495448DD75AC2C6F35CBDB72C3486676D2A7DB3
310
8601D1A20B82D8ED2A89AB6B53BE7CFB37082E861825175802B74272D0AE85878357B8E124189BD130D8EE7541849321893941D4A164CB1107A5C05435250CCC024B46390707528E92406BCEBC6EDB1678E6DBAE7388CB5D49A9F20C37D48E1581FB61293467E41FCCF7DC3791019E40DA9230F9D172299F0BEC86A7C1580F
310
8681BACCA6F6A501D2D951940A8D8879DB1174A55C7F7DE1867F5C6D9F362A1C1CDEBCE07981B95446A7F4A8F90243B6578592DDD61FA439B5008431A0DA957B50BE01F29F217AEC5901BD71F2347F9ADBB99223267639CF4037CEC4194DE06FE2F8FA5FDD37EE8271BDB8ADBD3E3CC14D15541F7F1ECFB60C1A2BCB7F03CE
310
30780083CFF9CCBEDAC488823DDF100600292371680E4310DA77DB27375C43E084400FAB100D7D1019D87D80DB606CC9ECB552B997F53A0688DA3D66439404B0698B04367AF4740DD9839378AFA6A6887DF02EDEC55CCF2F367F6C4ABE4331BEB13E7D817784110959F330432DCC5B12DDE3E7C79C2720E84BBC374DBC33BB
310
9500B415E60AF8B402413DEC776E6D10C3BA3457E1267863071042E5EA06FD1B22624C2962382FAB7DEBE8A60CB5F6785B33B8E1D4403C9B764C98E307A2AA0A709AFD8C16A390F7634E0A05A21B5E1BC9EAA0E9F548F77DFD192CB29EDF336BCD20F43244FFD441EB000E2DCBAE90B640D4026FF7E13CCE69CEA3ED736422
310
9D0BB504B0D1F6961F2DA210EB8D921415F020ED775548498DB4514276BB52405C3DC0E28FF5AA690E136FE62F9CE67FC719E7106DC17711B77ED7D92322194A71B44349DF76CDDD6ADA4293EC21CDF18E825CE481C8E708C96892E0F418688E227EFAAED4539A0B41181690AF0E82DF4463E2412031DAAC58565AED004D44
310
946189E8310828323DE0EAB4A36BDC184A87B779ACADF7358D3589FE4F16C111D492398B0894A29043DE64DCF7161043DAE81A943BF882B555B4B518B48412227E8E1E3149EFE431A81BF23DB8C77024296594172806B31E40F685AF28A57678DFA2F85EE58F282EE97B1988C07417114ACB2C821F6170F218E2DA75607A15
310
85067113FB24CEA02843B2E4433639594C5EEC636A866E086C6CB42314C27694A1A207F55640D4F58853836FA9F728755B664584B2BC64830CC59B75BDC992EFAA55911DC8AF2A15A16CAC085B82614098ACB36A15B3C1D475600537D281EA3912282BA83985BD9178FCDA9B34E5DE0DB8F5D3F7DD2083C2AF477BCD883AAF
310
60B03CB60A03F188647CE7861B7D1D2DA1FE4E70B24FF555ADD9AC00013115C94B4EAC8ABEAFA1BCB1359A1BDE20296EAF4DD6ADAEDFD71E743F8231AC81DAA55EB85640679849A42A931B7543BF2108C12D1A667CAD72EA3154CE9344578D885E913E75B6CA88D6A619F18A3BCCF20C7EEC96B0989609BE4589B88F6E248D
310
3644B16EA5F4325261FCAA805FAE371D78606480485F5581871F3B6BEDE84A954B0789C8BB32DB32442008B6444B8D6EBC82A556239596EBAB3A5340DD050666553CFF75B268B6237E9D2C526B183F77B2A0F916D17DB46964F35899F551A7803A3D292AEF710AD05D879A6A9D444C2EB7E25B5F8A202656417E703156C50C
310
43B08FE3FF9CB4FB92A0D9AEC3FF7149DB7F51701C95545A935593EA40E1BA6EA6B08BF9727AB2BA3C87FEECEAC368FE6179353A5F9EFBA3C57239F970B258CCAF2EAF6A34B59F86411DCB74EA826713D3AA61F5643180A6ACC82949E0309F382986902FE1483FA07BCE332C2077367BDD89EDC90F58FD60DA9C126D29AE38
310
B943D01FA602B23A6054C6B23DEEFC069D4909E7EC33177A46DE3DFC59AB741D483C672E740A2489B1F0B6D06552FD3C4D1C32AE4EFD9618E08358AA32A259543FD7AB1436ADE85F4F199205AC5CAD1606D46D0534BF5A0D0ACD9BE5293E4AF08A1D0749B8DD96128A3523CB7EA016466FB357BF918D12766FB77E02D77D5D
310
2CDFD3735A880CFA62F0AA1118AA238978AADBDD8A31CBD2F9C5D731B4D99CF517A7A0650ABA1C4E69C4311873A9EA29B022B00A4BB340124C75F5FBED579EC3179ECCD145D1ED2ACFB29CD98773388E25F085C8D9DCC1F79EE416AA06ACBAEAE2763AF1A7B7BA9B6D1BECD11609ECA9720806AA2A4289D03136B0C8179D29
310
DBB71C2B2574A6AF2F1C1B3EA10B602CE84573D77CDD72C07BD47714E52BDAC32B395F6D688FF554B0060EADE8F05F504B0304140006080000086B3140000000000000000000000000350000006662782F44393331413137312D423738332D343432312D383046382D4241463734424130374139392F76657274696365732E
310
62696E504B0304140006080800086B3140F270F1330600000004000000360000006662782F44393331413137312D423738332D343432312D383046382D4241463734424130374139392F747269616E676C65732E62696E636660600000504B0304140006080000086B3140000000000000000000000000370000006662782F
310
44393331413137312D423738332D343432312D383046382D4241463734424130374139392F617474726962757465732E62696E504B0304140006080800086B3140D5987DFC8F00000041010000360000006662782F44393331413137312D423738332D343432312D383046382D4241463734424130374139392F6469726563
310
746F72792E786D6C858F410EC2201045AF4266AF15DDB800BA74E7C21B903225242D6328188F2FA5C4183471359997F9FF81E89FF3C41E1816475E02DF1F80A11FC8386F25A438EECEC07A250251FC3803E6F58C12560C4AD840E95E91C151A72936F496F35732D860FE635F62C8F2DA16B505C545B74125BAA2FA9E05D7CC
310
053D063734D5C7665FD55B6B8D15D5E9BFEAFD8490FFA45E504B0304140006080800086B3140ED8CF603FE000000A00100003B0000006662782F44393331413137312D423738332D343432312D383046382D4241463734424130374139392F7265736F75726365732F636F72652E786D6C8D905D6E83301084AF82FC6EC026
310
05828C23689213F40296D9102BC146FEA97AFCDA814AED5B5FBCD6CC7CDAD1B2D3D7F2CC3EC13A65748F485EA20CB43493D2738F82BFE1166527CEAC31FE570C655A2CD0A32423CE666BC2BA4BD2680FDA47559B09765138071E65F2193F3D72F20E8BC845F031E11EF92AE443CC90933CDA31C799F33616C8B625E945DC82
310
33C14A70ACD85CCE4250D39E5153DCA96E0A2CE2B4ADDE87F152613A9CCFF850B7231EDEDA0A5F8EF478A54D338CD7921509E6CCABE5A7A3B4203C4C912F09C525C1A4F92055470F1DA9715977658452FC0F14D6E99F5050DA5774AFBB610E71128BBC0CCE8A74AF385EC78C33DD967F03504B010214000A0000080000086B
310
31403DEE336E79000000790000001B00000000000000000000000000000000006175746F6465736B2D64657369676E2D7061636B6167652E786D6C504B01021400140006080800086B3140D486FD9CA0000000F40000001300000000000000000000000000B20000005B436F6E74656E745F54797065735D2E786D6C504B01
310
021400140006080800086B314032E23CBBEA0000007C010000080000000000000000000000000083010000636F72652E786D6C504B01021400140006080800086B314055019EA25F0000007C000000070000000000000000000000000093020000636E782E786D6C504B01021400140006080800086B3140F877A286650100
310
00020300000C00000000000000000000000000170300006662782F636F72652E786D6C504B01021400140006080800086B31401A4ACCAF7C0000009D0000000B00000000000000000000000000A60400006662782F636E782E786D6C504B01021400140006080800086B3140BA4FDF18290100001402000031000000000000
310
000000000000004B0500006662782F44393331413137312D423738332D343432312D383046382D4241463734424130374139392F636F72652E786D6C504B01021400140006080800086B3140BB7E337054010000330300003000000000000000000000000000C30600006662782F44393331413137312D423738332D343432
310
312D383046382D4241463734424130374139392F636E782E786D6C504B01021400140006080800086B314054F63D3C58070000931B00003400000000000000000000000000650800006662782F44393331413137312D423738332D343432312D383046382D4241463734424130374139392F6F626A656374732E786D6C504B
310
01021400140006080000086B314000000000000000000000000035000000000000000000000000000F1000006662782F44393331413137312D423738332D343432312D383046382D4241463734424130374139392F76657274696365732E62696E504B01021400140006080800086B3140F270F13306000000040000003600
310
000000000000000000000000621000006662782F44393331413137312D423738332D343432312D383046382D4241463734424130374139392F747269616E676C65732E62696E504B01021400140006080000086B31400000000000000000000000003700000000000000000000000000BC1000006662782F44393331413137
310
312D423738332D343432312D383046382D4241463734424130374139392F617474726962757465732E62696E504B01021400140006080800086B3140D5987DFC8F000000410100003600000000000000000000000000111100006662782F44393331413137312D423738332D343432312D383046382D424146373442413037
310
4139392F6469726563746F72792E786D6C504B01021400140006080800086B3140ED8CF603FE000000A00100003B00000000000000000000000000F41100006662782F44393331413137312D423738332D343432312D383046382D4241463734424130374139392F7265736F75726365732F636F72652E786D6C504B050600
310
0000000E000E00800400004B1300000000
  0
XRECORD
  5
27
102
{ACAD_REACTORS
330
22
102
}
330
22
100
AcDbXrecord
280
     1
270
     1
271
     1
  0
XRECORD
  5
26
102
{ACAD_REACTORS
330
22
102
}
330
22
100
AcDbXrecord
280
     1
270
     1
271
     1
  0
XRECORD
  5
28
102
{ACAD_REACTORS
330
22
102
}
330
22
100
AcDbXrecord
280
     1
270
     1
271
     1
  0
XRECORD
  5
25
102
{ACAD_REACTORS
330
22
102
}
330
22
100
AcDbXrecord
280
     1
270
     1
271
     1
  0
XRECORD
  5
F1C
102
{ACAD_REACTORS
330
F1B
102
}
330
F1B
100
AcDbXrecord
280
     1
102
ACAD_ROUNDTRIP_2012_MLEADER_STYLE
298
     1
  0
CELLSTYLEMAP
  5
F1A
102
{ACAD_REACTORS
330
F19
102
}
330
F19
100
AcDbCellStyleMap
 90
        3
300
CELLSTYLE
  1
TABLEFORMAT_BEGIN
 90
        5
170
     1
 91
        0
 92
    32768
 62
   257
 93
        1
300
CONTENTFORMAT
  1
CONTENTFORMAT_BEGIN
 90
        0
 91
        0
 92
      512
 93
        0
300

 40
0.0
140
1.0
 94
        5
 62
     0
340
55
144
0.25
309
CONTENTFORMAT_END
171
     0
 94
        0
309
TABLEFORMAT_END
  1
CELLSTYLE_BEGIN
 90
        1
 91
        1
300
_TITLE
309
CELLSTYLE_END
300
CELLSTYLE
  1
TABLEFORMAT_BEGIN
 90
        5
170
     1
 91
        0
 92
        0
 62
   257
 93
        1
300
CONTENTFORMAT
  1
CONTENTFORMAT_BEGIN
 90
        0
 91
        0
 92
      512
 93
        0
300

 40
0.0
140
1.0
 94
        5
 62
     0
340
55
144
0.18
309
CONTENTFORMAT_END
171
     0
 94
        0
309
TABLEFORMAT_END
  1
CELLSTYLE_BEGIN
 90
        2
 91
        1
300
_HEADER
309
CELLSTYLE_END
300
CELLSTYLE
  1
TABLEFORMAT_BEGIN
 90
        5
170
     1
 91
        0
 92
        0
 62
   257
 93
        1
300
CONTENTFORMAT
  1
CONTENTFORMAT_BEGIN
 90
        0
 91
        0
 92
      512
 93
        0
300

 40
0.0
140
1.0
 94
        2
 62
     0
340
55
144
0.18
309
CONTENTFORMAT_END
171
     0
 94
        0
309
TABLEFORMAT_END
  1
CELLSTYLE_BEGIN
 90
        3
 91
        2
300
_DATA
309
CELLSTYLE_END
  0
XRECORD
  5
F53
102
{ACAD_REACTORS
330
F19
102
}
330
F19
100
AcDbXrecord
280
     1
102
ACAD_ROUNDTRIP_PRE2007_TABLESTYLE
 90
      512
 91
        0
  1

 92
      512
 93
        0
  2

 94
      512
 95
        0
  3

  0
XRECORD
  5
F2E
102
{ACAD_REACTORS
330
F2D
102
}
330
F2D
100
AcDbXrecord
280
     1
102
RTVSPropertyOp0
 70
     1
102
RTVSPropertyOp1
 70
     1
102
RTVSPropertyOp2
 70
     1
102
RTVSPropertyOp3
 70
     1
102
RTVSPropertyOp4
 70
     1
102
RTVSPropertyOp5
 70
     1
102
RTVSPropertyOp6
 70
     1
102
RTVSPropertyOp7
 70
     1
102
RTVSPropertyOp8
 70
     1
102
RTVSPropertyOp9
 70
     1
102
RTVSPropertyOp10
 70
     1
102
RTVSPropertyOp11
 70
     1
102
RTVSPropertyOp12
 70
     1
102
RTVSPropertyOp13
 70
     1
102
RTVSPropertyOp14
 70
     1
102
RTVSPropertyOp15
 70
     1
102
RTVSPropertyOp16
 70
     1
102
RTVSPropertyOp17
 70
     1
102
RTVSPropertyOp18
 70
     1
102
RTVSPropertyOp19
 70
     1
102
RTVSPropertyOp20
 70
     1
102
RTVSPropertyOp21
 70
     1
102
RTVSPropertyOp22
 70
     1
102
RTVSPropertyOp23
 70
     1
102
RTVSPropertyOp24
 70
     1
102
RTVSPropertyOp25
 70
     1
102
RTVSPropertyOp26
 70
     1
102
RTVSPropertyOp27
 70
     1
102
RTVSPropertyOp28
 70
     1
102
RTVSPropertyOp29
 70
     1
102
RTVSPropertyOp30
 70
     1
102
RTVSPropertyOp31
 70
     1
102
RTVSPropertyOp32
 70
     1
  0
XRECORD
  5
F2C
102
{ACAD_REACTORS
330
F2B
102
}
330
F2B
100
AcDbXrecord
280
     1
102
RTVSPropertyOp0
 70
     1
102
RTVSPropertyOp1
 70
     1
102
RTVSPropertyOp2
 70
     1
102
RTVSPropertyOp3
 70
     1
102
RTVSPropertyOp4
 70
     1
102
RTVSPropertyOp5
 70
     1
102
RTVSPropertyOp6
 70
     1
102
RTVSPropertyOp7
 70
     1
102
RTVSPropertyOp8
 70
     1
102
RTVSPropertyOp9
 70
     1
102
RTVSPropertyOp10
 70
     1
102
RTVSPropertyOp11
 70
     1
102
RTVSPropertyOp12
 70
     1
102
RTVSPropertyOp13
 70
     1
102
RTVSPropertyOp14
 70
     1
102
RTVSPropertyOp15
 70
     1
102
RTVSPropertyOp16
 70
     1
102
RTVSPropertyOp17
 70
     1
102
RTVSPropertyOp18
 70
     1
102
RTVSPropertyOp19
 70
     1
102
RTVSPropertyOp20
 70
     1
102
RTVSPropertyOp21
 70
     1
102
RTVSPropertyOp22
 70
     1
102
RTVSPropertyOp23
 70
     1
102
RTVSPropertyOp24
 70
     1
102
RTVSPropertyOp25
 70
     1
102
RTVSPropertyOp26
 70
     1
102
RTVSPropertyOp27
 70
     1
102
RTVSPropertyOp28
 70
     1
102
RTVSPropertyOp29
 70
     1
102
RTVSPropertyOp30
 70
     1
102
RTVSPropertyOp31
 70
     1
102
RTVSPropertyOp32
 70
     1
  0
XRECORD
  5
F3A
102
{ACAD_REACTORS
330
F39
102
}
330
F39
100
AcDbXrecord
280
     1
102
RTVSPropertyOp0
 70
     1
102
RTVSPropertyOp1
 70
     1
102
RTVSPropertyOp2
 70
     1
102
RTVSPropertyOp3
 70
     1
102
RTVSPropertyOp4
 70
     1
102
RTVSPropertyOp5
 70
     1
102
RTVSPropertyOp6
 70
     1
102
RTVSPropertyOp7
 70
     1
102
RTVSPropertyOp8
 70
     1
102
RTVSPropertyOp9
 70
     1
102
RTVSPropertyOp10
 70
     1
102
RTVSPropertyOp11
 70
     1
102
RTVSPropertyOp12
 70
     1
102
RTVSPropertyOp13
 70
     1
102
RTVSPropertyOp14
 70
     1
102
RTVSPropertyOp15
 70
     1
102
RTVSPropertyOp16
 70
     1
102
RTVSPropertyOp17
 70
     1
102
RTVSPropertyOp18
 70
     1
102
RTVSPropertyOp19
 70
     1
102
RTVSPropertyOp20
 70
     1
102
RTVSPropertyOp21
 70
     1
102
RTVSPropertyOp22
 70
     1
102
RTVSPropertyOp23
 70
     1
102
RTVSPropertyOp24
 70
     1
102
RTVSPropertyOp25
 70
     1
102
RTVSPropertyOp26
 70
     1
102
RTVSPropertyOp27
 70
     1
102
RTVSPropertyOp28
 70
     1
102
RTVSPropertyOp29
 70
     1
102
RTVSPropertyOp30
 70
     1
102
RTVSPropertyOp31
 70
     1
102
RTVSPropertyOp32
 70
     1
  0
XRECORD
  5
F42
102
{ACAD_REACTORS
330
F41
102
}
330
F41
100
AcDbXrecord
280
     1
102
RTVSPropertyOp0
 70
     1
102
RTVSPropertyOp1
 70
     1
102
RTVSPropertyOp2
 70
     1
102
RTVSPropertyOp3
 70
     1
102
RTVSPropertyOp4
 70
     1
102
RTVSPropertyOp5
 70
     1
102
RTVSPropertyOp6
 70
     1
102
RTVSPropertyOp7
 70
     1
102
RTVSPropertyOp8
 70
     1
102
RTVSPropertyOp9
 70
     1
102
RTVSPropertyOp10
 70
     1
102
RTVSPropertyOp11
 70
     1
102
RTVSPropertyOp12
 70
     1
102
RTVSPropertyOp13
 70
     1
102
RTVSPropertyOp14
 70
     1
102
RTVSPropertyOp15
 70
     1
102
RTVSPropertyOp16
 70
     1
102
RTVSPropertyOp17
 70
     1
102
RTVSPropertyOp18
 70
     1
102
RTVSPropertyOp19
 70
     1
102
RTVSPropertyOp20
 70
     1
102
RTVSPropertyOp21
 70
     1
102
RTVSPropertyOp22
 70
     1
102
RTVSPropertyOp23
 70
     1
102
RTVSPropertyOp24
 70
     1
102
RTVSPropertyOp25
 70
     1
102
RTVSPropertyOp26
 70
     1
102
RTVSPropertyOp27
 70
     1
102
RTVSPropertyOp28
 70
     1
102
RTVSPropertyOp29
 70
     1
102
RTVSPropertyOp30
 70
     1
102
RTVSPropertyOp31
 70
     1
102
RTVSPropertyOp32
 70
     1
  0
XRECORD
  5
F34
102
{ACAD_REACTORS
330
F33
102
}
330
F33
100
AcDbXrecord
280
     1
102
RTVSPropertyOp0
 70
     1
102
RTVSPropertyOp1
 70
     1
102
RTVSPropertyOp2
 70
     1
102
RTVSPropertyOp3
 70
     1
102
RTVSPropertyOp4
 70
     1
102
RTVSPropertyOp5
 70
     1
102
RTVSPropertyOp6
 70
     1
102
RTVSPropertyOp7
 70
     1
102
RTVSPropertyOp8
 70
     1
102
RTVSPropertyOp9
 70
     1
102
RTVSPropertyOp10
 70
     1
102
RTVSPropertyOp11
 70
     1
102
RTVSPropertyOp12
 70
     1
102
RTVSPropertyOp13
 70
     1
102
RTVSPropertyOp14
 70
     1
102
RTVSPropertyOp15
 70
     1
102
RTVSPropertyOp16
 70
     1
102
RTVSPropertyOp17
 70
     1
102
RTVSPropertyOp18
 70
     1
102
RTVSPropertyOp19
 70
     1
102
RTVSPropertyOp20
 70
     1
102
RTVSPropertyOp21
 70
     1
102
RTVSPropertyOp22
 70
     1
102
RTVSPropertyOp23
 70
     1
102
RTVSPropertyOp24
 70
     1
102
RTVSPropertyOp25
 70
     1
102
RTVSPropertyOp26
 70
     1
102
RTVSPropertyOp27
 70
     1
102
RTVSPropertyOp28
 70
     1
102
RTVSPropertyOp29
 70
     1
102
RTVSPropertyOp30
 70
     1
102
RTVSPropertyOp31
 70
     1
102
RTVSPropertyOp32
 70
     1
  0
XRECORD
  5
F38
102
{ACAD_REACTORS
330
F37
102
}
330
F37
100
AcDbXrecord
280
     1
102
RTVSPropertyOp0
 70
     1
102
RTVSPropertyOp1
 70
     1
102
RTVSPropertyOp2
 70
     1
102
RTVSPropertyOp3
 70
     1
102
RTVSPropertyOp4
 70
     1
102
RTVSPropertyOp5
 70
     1
102
RTVSPropertyOp6
 70
     1
102
RTVSPropertyOp7
 70
     1
102
RTVSPropertyOp8
 70
     1
102
RTVSPropertyOp9
 70
     1
102
RTVSPropertyOp10
 70
     1
102
RTVSPropertyOp11
 70
     1
102
RTVSPropertyOp12
 70
     1
102
RTVSPropertyOp13
 70
     1
102
RTVSPropertyOp14
 70
     1
102
RTVSPropertyOp15
 70
     1
102
RTVSPropertyOp16
 70
     1
102
RTVSPropertyOp17
 70
     1
102
RTVSPropertyOp18
 70
     1
102
RTVSPropertyOp19
 70
     1
102
RTVSPropertyOp20
 70
     1
102
RTVSPropertyOp21
 70
     1
102
RTVSPropertyOp22
 70
     1
102
RTVSPropertyOp23
 70
     1
102
RTVSPropertyOp24
 70
     1
102
RTVSPropertyOp25
 70
     1
102
RTVSPropertyOp26
 70
     1
102
RTVSPropertyOp27
 70
     1
102
RTVSPropertyOp28
 70
     1
102
RTVSPropertyOp29
 70
     1
102
RTVSPropertyOp30
 70
     1
102
RTVSPropertyOp31
 70
     1
102
RTVSPropertyOp32
 70
     1
  0
XRECORD
  5
F52
102
{ACAD_REACTORS
330
F51
102
}
330
F51
100
AcDbXrecord
280
     1
102
RTVSPropertyOp0
 70
     0
102
RTVSPropertyOp1
 70
     0
102
RTVSPropertyOp2
 70
     0
102
RTVSPropertyOp3
 70
     0
102
RTVSPropertyOp4
 70
     0
102
RTVSPropertyOp5
 70
     0
102
RTVSPropertyOp6
 70
     0
102
RTVSPropertyOp7
 70
     0
102
RTVSPropertyOp8
 70
     0
102
RTVSPropertyOp9
 70
     0
102
RTVSPropertyOp10
 70
     0
102
RTVSPropertyOp11
 70
     0
102
RTVSPropertyOp12
 70
     0
102
RTVSPropertyOp13
 70
     0
102
RTVSPropertyOp14
 70
     2
102
RTVSPropertyOp15
 70
     0
102
RTVSPropertyOp16
 70
     0
102
RTVSPropertyOp17
 70
     0
102
RTVSPropertyOp18
 70
     0
102
RTVSPropertyOp19
 70
     0
102
RTVSPropertyOp20
 70
     0
102
RTVSPropertyOp21
 70
     0
102
RTVSPropertyOp22
 70
     0
102
RTVSPropertyOp23
 70
     0
102
RTVSPropertyOp24
 70
     0
102
RTVSPropertyOp25
 70
     0
102
RTVSPropertyOp26
 70
     0
102
RTVSPropertyOp27
 70
     0
102
RTVSPropertyOp28
 70
     1
102
RTVSPropertyOp29
 70
     1
102
RTVSPropertyOp30
 70
     1
102
RTVSPropertyOp31
 70
     1
102
RTVSPropertyOp32
 70
     1
  0
XRECORD
  5
F40
102
{ACAD_REACTORS
330
F3F
102
}
330
F3F
100
AcDbXrecord
280
     1
102
RTVSPropertyOp0
 70
     1
102
RTVSPropertyOp1
 70
     1
102
RTVSPropertyOp2
 70
     1
102
RTVSPropertyOp3
 70
     1
102
RTVSPropertyOp4
 70
     1
102
RTVSPropertyOp5
 70
     1
102
RTVSPropertyOp6
 70
     1
102
RTVSPropertyOp7
 70
     1
102
RTVSPropertyOp8
 70
     1
102
RTVSPropertyOp9
 70
     1
102
RTVSPropertyOp10
 70
     1
102
RTVSPropertyOp11
 70
     1
102
RTVSPropertyOp12
 70
     1
102
RTVSPropertyOp13
 70
     1
102
RTVSPropertyOp14
 70
     1
102
RTVSPropertyOp15
 70
     1
102
RTVSPropertyOp16
 70
     1
102
RTVSPropertyOp17
 70
     1
102
RTVSPropertyOp18
 70
     1
102
RTVSPropertyOp19
 70
     1
102
RTVSPropertyOp20
 70
     1
102
RTVSPropertyOp21
 70
     1
102
RTVSPropertyOp22
 70
     1
102
RTVSPropertyOp23
 70
     1
102
RTVSPropertyOp24
 70
     1
102
RTVSPropertyOp25
 70
     1
102
RTVSPropertyOp26
 70
     1
102
RTVSPropertyOp27
 70
     1
102
RTVSPropertyOp28
 70
     1
102
RTVSPropertyOp29
 70
     1
102
RTVSPropertyOp30
 70
     1
102
RTVSPropertyOp31
 70
     1
102
RTVSPropertyOp32
 70
     1
  0
XRECORD
  5
F24
102
{ACAD_REACTORS
330
F23
102
}
330
F23
100
AcDbXrecord
280
     1
102
RTVSPropertyOp0
 70
     1
102
RTVSPropertyOp1
 70
     1
102
RTVSPropertyOp2
 70
     1
102
RTVSPropertyOp3
 70
     1
102
RTVSPropertyOp4
 70
     1
102
RTVSPropertyOp5
 70
     1
102
RTVSPropertyOp6
 70
     1
102
RTVSPropertyOp7
 70
     1
102
RTVSPropertyOp8
 70
     1
102
RTVSPropertyOp9
 70
     1
102
RTVSPropertyOp10
 70
     1
102
RTVSPropertyOp11
 70
     1
102
RTVSPropertyOp12
 70
     1
102
RTVSPropertyOp13
 70
     1
102
RTVSPropertyOp14
 70
     1
102
RTVSPropertyOp15
 70
     1
102
RTVSPropertyOp16
 70
     1
102
RTVSPropertyOp17
 70
     1
102
RTVSPropertyOp18
 70
     1
102
RTVSPropertyOp19
 70
     1
102
RTVSPropertyOp20
 70
     1
102
RTVSPropertyOp21
 70
     1
102
RTVSPropertyOp22
 70
     1
102
RTVSPropertyOp23
 70
     1
102
RTVSPropertyOp24
 70
     1
102
RTVSPropertyOp25
 70
     1
102
RTVSPropertyOp26
 70
     1
102
RTVSPropertyOp27
 70
     1
102
RTVSPropertyOp28
 70
     1
102
RTVSPropertyOp29
 70
     1
102
RTVSPropertyOp30
 70
     1
102
RTVSPropertyOp31
 70
     1
102
RTVSPropertyOp32
 70
     1
  0
XRECORD
  5
F26
102
{ACAD_REACTORS
330
F25
102
}
330
F25
100
AcDbXrecord
280
     1
102
RTVSPropertyOp0
 70
     1
102
RTVSPropertyOp1
 70
     1
102
RTVSPropertyOp2
 70
     1
102
RTVSPropertyOp3
 70
     1
102
RTVSPropertyOp4
 70
     1
102
RTVSPropertyOp5
 70
     1
102
RTVSPropertyOp6
 70
     1
102
RTVSPropertyOp7
 70
     1
102
RTVSPropertyOp8
 70
     1
102
RTVSPropertyOp9
 70
     1
102
RTVSPropertyOp10
 70
     1
102
RTVSPropertyOp11
 70
     1
102
RTVSPropertyOp12
 70
     1
102
RTVSPropertyOp13
 70
     1
102
RTVSPropertyOp14
 70
     1
102
RTVSPropertyOp15
 70
     1
102
RTVSPropertyOp16
 70
     1
102
RTVSPropertyOp17
 70
     1
102
RTVSPropertyOp18
 70
     1
102
RTVSPropertyOp19
 70
     1
102
RTVSPropertyOp20
 70
     1
102
RTVSPropertyOp21
 70
     1
102
RTVSPropertyOp22
 70
     1
102
RTVSPropertyOp23
 70
     1
102
RTVSPropertyOp24
 70
     1
102
RTVSPropertyOp25
 70
     1
102
RTVSPropertyOp26
 70
     1
102
RTVSPropertyOp27
 70
     1
102
RTVSPropertyOp28
 70
     1
102
RTVSPropertyOp29
 70
     1
102
RTVSPropertyOp30
 70
     1
102
RTVSPropertyOp31
 70
     1
102
RTVSPropertyOp32
 70
     1
  0
XRECORD
  5
F28
102
{ACAD_REACTORS
330
F27
102
}
330
F27
100
AcDbXrecord
280
     1
102
RTVSPropertyOp0
 70
     1
102
RTVSPropertyOp1
 70
     1
102
RTVSPropertyOp2
 70
     1
102
RTVSPropertyOp3
 70
     1
102
RTVSPropertyOp4
 70
     1
102
RTVSPropertyOp5
 70
     1
102
RTVSPropertyOp6
 70
     1
102
RTVSPropertyOp7
 70
     1
102
RTVSPropertyOp8
 70
     1
102
RTVSPropertyOp9
 70
     1
102
RTVSPropertyOp10
 70
     1
102
RTVSPropertyOp11
 70
     1
102
RTVSPropertyOp12
 70
     1
102
RTVSPropertyOp13
 70
     1
102
RTVSPropertyOp14
 70
     1
102
RTVSPropertyOp15
 70
     1
102
RTVSPropertyOp16
 70
     1
102
RTVSPropertyOp17
 70
     1
102
RTVSPropertyOp18
 70
     1
102
RTVSPropertyOp19
 70
     1
102
RTVSPropertyOp20
 70
     1
102
RTVSPropertyOp21
 70
     1
102
RTVSPropertyOp22
 70
     1
102
RTVSPropertyOp23
 70
     1
102
RTVSPropertyOp24
 70
     1
102
RTVSPropertyOp25
 70
     1
102
RTVSPropertyOp26
 70
     1
102
RTVSPropertyOp27
 70
     1
102
RTVSPropertyOp28
 70
     1
102
RTVSPropertyOp29
 70
     1
102
RTVSPropertyOp30
 70
     1
102
RTVSPropertyOp31
 70
     1
102
RTVSPropertyOp32
 70
     1
  0
XRECORD
  5
F2A
102
{ACAD_REACTORS
330
F29
102
}
330
F29
100
AcDbXrecord
280
     1
102
RTVSPropertyOp0
 70
     1
102
RTVSPropertyOp1
 70
     1
102
RTVSPropertyOp2
 70
     1
102
RTVSPropertyOp3
 70
     1
102
RTVSPropertyOp4
 70
     1
102
RTVSPropertyOp5
 70
     1
102
RTVSPropertyOp6
 70
     1
102
RTVSPropertyOp7
 70
     1
102
RTVSPropertyOp8
 70
     1
102
RTVSPropertyOp9
 70
     1
102
RTVSPropertyOp10
 70
     1
102
RTVSPropertyOp11
 70
     1
102
RTVSPropertyOp12
 70
     1
102
RTVSPropertyOp13
 70
     1
102
RTVSPropertyOp14
 70
     1
102
RTVSPropertyOp15
 70
     1
102
RTVSPropertyOp16
 70
     1
102
RTVSPropertyOp17
 70
     1
102
RTVSPropertyOp18
 70
     1
102
RTVSPropertyOp19
 70
     1
102
RTVSPropertyOp20
 70
     1
102
RTVSPropertyOp21
 70
     1
102
RTVSPropertyOp22
 70
     1
102
RTVSPropertyOp23
 70
     1
102
RTVSPropertyOp24
 70
     1
102
RTVSPropertyOp25
 70
     1
102
RTVSPropertyOp26
 70
     1
102
RTVSPropertyOp27
 70
     1
102
RTVSPropertyOp28
 70
     1
102
RTVSPropertyOp29
 70
     1
102
RTVSPropertyOp30
 70
     1
102
RTVSPropertyOp31
 70
     1
102
RTVSPropertyOp32
 70
     1
  0
XRECORD
  5
F32
102
{ACAD_REACTORS
330
F31
102
}
330
F31
100
AcDbXrecord
280
     1
102
RTVSPropertyOp0
 70
     1
102
RTVSPropertyOp1
 70
     1
102
RTVSPropertyOp2
 70
     1
102
RTVSPropertyOp3
 70
     1
102
RTVSPropertyOp4
 70
     1
102
RTVSPropertyOp5
 70
     1
102
RTVSPropertyOp6
 70
     1
102
RTVSPropertyOp7
 70
     1
102
RTVSPropertyOp8
 70
     1
102
RTVSPropertyOp9
 70
     1
102
RTVSPropertyOp10
 70
     1
102
RTVSPropertyOp11
 70
     1
102
RTVSPropertyOp12
 70
     1
102
RTVSPropertyOp13
 70
     1
102
RTVSPropertyOp14
 70
     1
102
RTVSPropertyOp15
 70
     1
102
RTVSPropertyOp16
 70
     1
102
RTVSPropertyOp17
 70
     1
102
RTVSPropertyOp18
 70
     1
102
RTVSPropertyOp19
 70
     1
102
RTVSPropertyOp20
 70
     1
102
RTVSPropertyOp21
 70
     1
102
RTVSPropertyOp22
 70
     1
102
RTVSPropertyOp23
 70
     1
102
RTVSPropertyOp24
 70
     1
102
RTVSPropertyOp25
 70
     1
102
RTVSPropertyOp26
 70
     1
102
RTVSPropertyOp27
 70
     1
102
RTVSPropertyOp28
 70
     1
102
RTVSPropertyOp29
 70
     1
102
RTVSPropertyOp30
 70
     1
102
RTVSPropertyOp31
 70
     1
102
RTVSPropertyOp32
 70
     1
  0
XRECORD
  5
F4E
102
{ACAD_REACTORS
330
F4D
102
}
330
F4D
100
AcDbXrecord
280
     1
102
RTVSPropertyOp0
 70
     0
102
RTVSPropertyOp1
 70
     0
102
RTVSPropertyOp2
 70
     0
102
RTVSPropertyOp3
 70
     0
102
RTVSPropertyOp4
 70
     0
102
RTVSPropertyOp5
 70
     0
102
RTVSPropertyOp6
 70
     0
102
RTVSPropertyOp7
 70
     0
102
RTVSPropertyOp8
 70
     0
102
RTVSPropertyOp9
 70
     0
102
RTVSPropertyOp10
 70
     0
102
RTVSPropertyOp11
 70
     0
102
RTVSPropertyOp12
 70
     0
102
RTVSPropertyOp13
 70
     0
102
RTVSPropertyOp14
 70
     2
102
RTVSPropertyOp15
 70
     0
102
RTVSPropertyOp16
 70
     0
102
RTVSPropertyOp17
 70
     0
102
RTVSPropertyOp18
 70
     0
102
RTVSPropertyOp19
 70
     0
102
RTVSPropertyOp20
 70
     0
102
RTVSPropertyOp21
 70
     0
102
RTVSPropertyOp22
 70
     0
102
RTVSPropertyOp23
 70
     0
102
RTVSPropertyOp24
 70
     0
102
RTVSPropertyOp25
 70
     0
102
RTVSPropertyOp26
 70
     0
102
RTVSPropertyOp27
 70
     0
102
RTVSPropertyOp28
 70
     1
102
RTVSPropertyOp29
 70
     1
102
RTVSPropertyOp30
 70
     1
102
RTVSPropertyOp31
 70
     1
102
RTVSPropertyOp32
 70
     1
  0
XRECORD
  5
F3E
102
{ACAD_REACTORS
330
F3D
102
}
330
F3D
100
AcDbXrecord
280
     1
102
RTVSPropertyOp0
 70
     1
102
RTVSPropertyOp1
 70
     1
102
RTVSPropertyOp2
 70
     1
102
RTVSPropertyOp3
 70
     1
102
RTVSPropertyOp4
 70
     1
102
RTVSPropertyOp5
 70
     1
102
RTVSPropertyOp6
 70
     1
102
RTVSPropertyOp7
 70
     1
102
RTVSPropertyOp8
 70
     1
102
RTVSPropertyOp9
 70
     1
102
RTVSPropertyOp10
 70
     1
102
RTVSPropertyOp11
 70
     1
102
RTVSPropertyOp12
 70
     1
102
RTVSPropertyOp13
 70
     1
102
RTVSPropertyOp14
 70
     1
102
RTVSPropertyOp15
 70
     1
102
RTVSPropertyOp16
 70
     1
102
RTVSPropertyOp17
 70
     1
102
RTVSPropertyOp18
 70
     1
102
RTVSPropertyOp19
 70
     1
102
RTVSPropertyOp20
 70
     1
102
RTVSPropertyOp21
 70
     1
102
RTVSPropertyOp22
 70
     1
102
RTVSPropertyOp23
 70
     1
102
RTVSPropertyOp24
 70
     1
102
RTVSPropertyOp25
 70
     1
102
RTVSPropertyOp26
 70
     1
102
RTVSPropertyOp27
 70
     1
102
RTVSPropertyOp28
 70
     1
102
RTVSPropertyOp29
 70
     1
102
RTVSPropertyOp30
 70
     1
102
RTVSPropertyOp31
 70
     1
102
RTVSPropertyOp32
 70
     1
  0
XRECORD
  5
F50
102
{ACAD_REACTORS
330
F4F
102
}
330
F4F
100
AcDbXrecord
280
     1
102
RTVSPropertyOp0
 70
     0
102
RTVSPropertyOp1
 70
     0
102
RTVSPropertyOp2
 70
     0
102
RTVSPropertyOp3
 70
     0
102
RTVSPropertyOp4
 70
     0
102
RTVSPropertyOp5
 70
     0
102
RTVSPropertyOp6
 70
     0
102
RTVSPropertyOp7
 70
     0
102
RTVSPropertyOp8
 70
     0
102
RTVSPropertyOp9
 70
     0
102
RTVSPropertyOp10
 70
     0
102
RTVSPropertyOp11
 70
     0
102
RTVSPropertyOp12
 70
     0
102
RTVSPropertyOp13
 70
     0
102
RTVSPropertyOp14
 70
     2
102
RTVSPropertyOp15
 70
     0
102
RTVSPropertyOp16
 70
     0
102
RTVSPropertyOp17
 70
     0
102
RTVSPropertyOp18
 70
     0
102
RTVSPropertyOp19
 70
     0
102
RTVSPropertyOp20
 70
     0
102
RTVSPropertyOp21
 70
     0
102
RTVSPropertyOp22
 70
     0
102
RTVSPropertyOp23
 70
     0
102
RTVSPropertyOp24
 70
     0
102
RTVSPropertyOp25
 70
     0
102
RTVSPropertyOp26
 70
     0
102
RTVSPropertyOp27
 70
     0
102
RTVSPropertyOp28
 70
     1
102
RTVSPropertyOp29
 70
     1
102
RTVSPropertyOp30
 70
     1
102
RTVSPropertyOp31
 70
     1
102
RTVSPropertyOp32
 70
     1
  0
XRECORD
  5
F36
102
{ACAD_REACTORS
330
F35
102
}
330
F35
100
AcDbXrecord
280
     1
102
RTVSPropertyOp0
 70
     1
102
RTVSPropertyOp1
 70
     1
102
RTVSPropertyOp2
 70
     1
102
RTVSPropertyOp3
 70
     1
102
RTVSPropertyOp4
 70
     1
102
RTVSPropertyOp5
 70
     1
102
RTVSPropertyOp6
 70
     1
102
RTVSPropertyOp7
 70
     1
102
RTVSPropertyOp8
 70
     1
102
RTVSPropertyOp9
 70
     1
102
RTVSPropertyOp10
 70
     1
102
RTVSPropertyOp11
 70
     1
102
RTVSPropertyOp12
 70
     1
102
RTVSPropertyOp13
 70
     1
102
RTVSPropertyOp14
 70
     1
102
RTVSPropertyOp15
 70
     1
102
RTVSPropertyOp16
 70
     1
102
RTVSPropertyOp17
 70
     1
102
RTVSPropertyOp18
 70
     1
102
RTVSPropertyOp19
 70
     1
102
RTVSPropertyOp20
 70
     1
102
RTVSPropertyOp21
 70
     1
102
RTVSPropertyOp22
 70
     1
102
RTVSPropertyOp23
 70
     1
102
RTVSPropertyOp24
 70
     1
102
RTVSPropertyOp25
 70
     1
102
RTVSPropertyOp26
 70
     1
102
RTVSPropertyOp27
 70
     1
102
RTVSPropertyOp28
 70
     1
102
RTVSPropertyOp29
 70
     1
102
RTVSPropertyOp30
 70
     1
102
RTVSPropertyOp31
 70
     1
102
RTVSPropertyOp32
 70
     1
  0
XRECORD
  5
F4C
102
{ACAD_REACTORS
330
F4B
102
}
330
F4B
100
AcDbXrecord
280
     1
102
RTVSPropertyOp0
 70
     1
102
RTVSPropertyOp1
 70
     1
102
RTVSPropertyOp2
 70
     1
102
RTVSPropertyOp3
 70
     1
102
RTVSPropertyOp4
 70
     1
102
RTVSPropertyOp5
 70
     1
102
RTVSPropertyOp6
 70
     1
102
RTVSPropertyOp7
 70
     1
102
RTVSPropertyOp8
 70
     1
102
RTVSPropertyOp9
 70
     1
102
RTVSPropertyOp10
 70
     1
102
RTVSPropertyOp11
 70
     1
102
RTVSPropertyOp12
 70
     1
102
RTVSPropertyOp13
 70
     1
102
RTVSPropertyOp14
 70
     1
102
RTVSPropertyOp15
 70
     1
102
RTVSPropertyOp16
 70
     1
102
RTVSPropertyOp17
 70
     1
102
RTVSPropertyOp18
 70
     1
102
RTVSPropertyOp19
 70
     1
102
RTVSPropertyOp20
 70
     1
102
RTVSPropertyOp21
 70
     1
102
RTVSPropertyOp22
 70
     1
102
RTVSPropertyOp23
 70
     1
102
RTVSPropertyOp24
 70
     1
102
RTVSPropertyOp25
 70
     1
102
RTVSPropertyOp26
 70
     1
102
RTVSPropertyOp27
 70
     1
102
RTVSPropertyOp28
 70
     1
102
RTVSPropertyOp29
 70
     1
102
RTVSPropertyOp30
 70
     1
102
RTVSPropertyOp31
 70
     1
102
RTVSPropertyOp32
 70
     1
  0
XRECORD
  5
F4A
102
{ACAD_REACTORS
330
F49
102
}
330
F49
100
AcDbXrecord
280
     1
102
RTVSPropertyOp0
 70
     1
102
RTVSPropertyOp1
 70
     1
102
RTVSPropertyOp2
 70
     1
102
RTVSPropertyOp3
 70
     1
102
RTVSPropertyOp4
 70
     1
102
RTVSPropertyOp5
 70
     1
102
RTVSPropertyOp6
 70
     1
102
RTVSPropertyOp7
 70
     1
102
RTVSPropertyOp8
 70
     1
102
RTVSPropertyOp9
 70
     1
102
RTVSPropertyOp10
 70
     1
102
RTVSPropertyOp11
 70
     1
102
RTVSPropertyOp12
 70
     1
102
RTVSPropertyOp13
 70
     1
102
RTVSPropertyOp14
 70
     1
102
RTVSPropertyOp15
 70
     1
102
RTVSPropertyOp16
 70
     1
102
RTVSPropertyOp17
 70
     1
102
RTVSPropertyOp18
 70
     1
102
RTVSPropertyOp19
 70
     1
102
RTVSPropertyOp20
 70
     1
102
RTVSPropertyOp21
 70
     1
102
RTVSPropertyOp22
 70
     1
102
RTVSPropertyOp23
 70
     1
102
RTVSPropertyOp24
 70
     1
102
RTVSPropertyOp25
 70
     1
102
RTVSPropertyOp26
 70
     1
102
RTVSPropertyOp27
 70
     1
102
RTVSPropertyOp28
 70
     1
102
RTVSPropertyOp29
 70
     1
102
RTVSPropertyOp30
 70
     1
102
RTVSPropertyOp31
 70
     1
102
RTVSPropertyOp32
 70
     1
  0
XRECORD
  5
F44
102
{ACAD_REACTORS
330
F43
102
}
330
F43
100
AcDbXrecord
280
     1
102
RTVSPropertyOp0
 70
     1
102
RTVSPropertyOp1
 70
     1
102
RTVSPropertyOp2
 70
     1
102
RTVSPropertyOp3
 70
     1
102
RTVSPropertyOp4
 70
     1
102
RTVSPropertyOp5
 70
     1
102
RTVSPropertyOp6
 70
     1
102
RTVSPropertyOp7
 70
     1
102
RTVSPropertyOp8
 70
     1
102
RTVSPropertyOp9
 70
     1
102
RTVSPropertyOp10
 70
     1
102
RTVSPropertyOp11
 70
     1
102
RTVSPropertyOp12
 70
     1
102
RTVSPropertyOp13
 70
     1
102
RTVSPropertyOp14
 70
     1
102
RTVSPropertyOp15
 70
     1
102
RTVSPropertyOp16
 70
     1
102
RTVSPropertyOp17
 70
     1
102
RTVSPropertyOp18
 70
     1
102
RTVSPropertyOp19
 70
     1
102
RTVSPropertyOp20
 70
     1
102
RTVSPropertyOp21
 70
     1
102
RTVSPropertyOp22
 70
     1
102
RTVSPropertyOp23
 70
     1
102
RTVSPropertyOp24
 70
     1
102
RTVSPropertyOp25
 70
     1
102
RTVSPropertyOp26
 70
     1
102
RTVSPropertyOp27
 70
     1
102
RTVSPropertyOp28
 70
     1
102
RTVSPropertyOp29
 70
     1
102
RTVSPropertyOp30
 70
     1
102
RTVSPropertyOp31
 70
     1
102
RTVSPropertyOp32
 70
     1
  0
XRECORD
  5
F46
102
{ACAD_REACTORS
330
F45
102
}
330
F45
100
AcDbXrecord
280
     1
102
RTVSPropertyOp0
 70
     1
102
RTVSPropertyOp1
 70
     1
102
RTVSPropertyOp2
 70
     1
102
RTVSPropertyOp3
 70
     1
102
RTVSPropertyOp4
 70
     1
102
RTVSPropertyOp5
 70
     1
102
RTVSPropertyOp6
 70
     1
102
RTVSPropertyOp7
 70
     1
102
RTVSPropertyOp8
 70
     1
102
RTVSPropertyOp9
 70
     1
102
RTVSPropertyOp10
 70
     1
102
RTVSPropertyOp11
 70
     1
102
RTVSPropertyOp12
 70
     1
102
RTVSPropertyOp13
 70
     1
102
RTVSPropertyOp14
 70
     1
102
RTVSPropertyOp15
 70
     1
102
RTVSPropertyOp16
 70
     1
102
RTVSPropertyOp17
 70
     1
102
RTVSPropertyOp18
 70
     1
102
RTVSPropertyOp19
 70
     1
102
RTVSPropertyOp20
 70
     1
102
RTVSPropertyOp21
 70
     1
102
RTVSPropertyOp22
 70
     1
102
RTVSPropertyOp23
 70
     1
102
RTVSPropertyOp24
 70
     1
102
RTVSPropertyOp25
 70
     1
102
RTVSPropertyOp26
 70
     1
102
RTVSPropertyOp27
 70
     1
102
RTVSPropertyOp28
 70
     1
102
RTVSPropertyOp29
 70
     1
102
RTVSPropertyOp30
 70
     1
102
RTVSPropertyOp31
 70
     1
102
RTVSPropertyOp32
 70
     1
  0
XRECORD
  5
F3C
102
{ACAD_REACTORS
330
F3B
102
}
330
F3B
100
AcDbXrecord
280
     1
102
RTVSPropertyOp0
 70
     1
102
RTVSPropertyOp1
 70
     1
102
RTVSPropertyOp2
 70
     1
102
RTVSPropertyOp3
 70
     1
102
RTVSPropertyOp4
 70
     1
102
RTVSPropertyOp5
 70
     1
102
RTVSPropertyOp6
 70
     1
102
RTVSPropertyOp7
 70
     1
102
RTVSPropertyOp8
 70
     1
102
RTVSPropertyOp9
 70
     1
102
RTVSPropertyOp10
 70
     1
102
RTVSPropertyOp11
 70
     1
102
RTVSPropertyOp12
 70
     1
102
RTVSPropertyOp13
 70
     1
102
RTVSPropertyOp14
 70
     1
102
RTVSPropertyOp15
 70
     1
102
RTVSPropertyOp16
 70
     1
102
RTVSPropertyOp17
 70
     1
102
RTVSPropertyOp18
 70
     1
102
RTVSPropertyOp19
 70
     1
102
RTVSPropertyOp20
 70
     1
102
RTVSPropertyOp21
 70
     1
102
RTVSPropertyOp22
 70
     1
102
RTVSPropertyOp23
 70
     1
102
RTVSPropertyOp24
 70
     1
102
RTVSPropertyOp25
 70
     1
102
RTVSPropertyOp26
 70
     1
102
RTVSPropertyOp27
 70
     1
102
RTVSPropertyOp28
 70
     1
102
RTVSPropertyOp29
 70
     1
102
RTVSPropertyOp30
 70
     1
102
RTVSPropertyOp31
 70
     1
102
RTVSPropertyOp32
 70
     1
  0
XRECORD
  5
F30
102
{ACAD_REACTORS
330
F2F
102
}
330
F2F
100
AcDbXrecord
280
     1
102
RTVSPropertyOp0
 70
     1
102
RTVSPropertyOp1
 70
     1
102
RTVSPropertyOp2
 70
     1
102
RTVSPropertyOp3
 70
     1
102
RTVSPropertyOp4
 70
     1
102
RTVSPropertyOp5
 70
     1
102
RTVSPropertyOp6
 70
     1
102
RTVSPropertyOp7
 70
     1
102
RTVSPropertyOp8
 70
     1
102
RTVSPropertyOp9
 70
     1
102
RTVSPropertyOp10
 70
     1
102
RTVSPropertyOp11
 70
     1
102
RTVSPropertyOp12
 70
     1
102
RTVSPropertyOp13
 70
     1
102
RTVSPropertyOp14
 70
     1
102
RTVSPropertyOp15
 70
     1
102
RTVSPropertyOp16
 70
     1
102
RTVSPropertyOp17
 70
     1
102
RTVSPropertyOp18
 70
     1
102
RTVSPropertyOp19
 70
     1
102
RTVSPropertyOp20
 70
     1
102
RTVSPropertyOp21
 70
     1
102
RTVSPropertyOp22
 70
     1
102
RTVSPropertyOp23
 70
     1
102
RTVSPropertyOp24
 70
     1
102
RTVSPropertyOp25
 70
     1
102
RTVSPropertyOp26
 70
     1
102
RTVSPropertyOp27
 70
     1
102
RTVSPropertyOp28
 70
     1
102
RTVSPropertyOp29
 70
     1
102
RTVSPropertyOp30
 70
     1
102
RTVSPropertyOp31
 70
     1
102
RTVSPropertyOp32
 70
     1
  0
XRECORD
  5
F48
102
{ACAD_REACTORS
330
F47
102
}
330
F47
100
AcDbXrecord
280
     1
102
RTVSPropertyOp0
 70
     1
102
RTVSPropertyOp1
 70
     1
102
RTVSPropertyOp2
 70
     1
102
RTVSPropertyOp3
 70
     1
102
RTVSPropertyOp4
 70
     1
102
RTVSPropertyOp5
 70
     1
102
RTVSPropertyOp6
 70
     1
102
RTVSPropertyOp7
 70
     1
102
RTVSPropertyOp8
 70
     1
102
RTVSPropertyOp9
 70
     1
102
RTVSPropertyOp10
 70
     1
102
RTVSPropertyOp11
 70
     1
102
RTVSPropertyOp12
 70
     1
102
RTVSPropertyOp13
 70
     1
102
RTVSPropertyOp14
 70
     1
102
RTVSPropertyOp15
 70
     1
102
RTVSPropertyOp16
 70
     1
102
RTVSPropertyOp17
 70
     1
102
RTVSPropertyOp18
 70
     1
102
RTVSPropertyOp19
 70
     1
102
RTVSPropertyOp20
 70
     1
102
RTVSPropertyOp21
 70
     1
102
RTVSPropertyOp22
 70
     1
102
RTVSPropertyOp23
 70
     1
102
RTVSPropertyOp24
 70
     1
102
RTVSPropertyOp25
 70
     1
102
RTVSPropertyOp26
 70
     1
102
RTVSPropertyOp27
 70
     1
102
RTVSPropertyOp28
 70
     1
102
RTVSPropertyOp29
 70
     1
102
RTVSPropertyOp30
 70
     1
102
RTVSPropertyOp31
 70
     1
102
RTVSPropertyOp32
 70
     1
  0
ENDSEC
  0
EOF
