  0
SECTION
  2
HEADER
  9
$ACADVER
  1
AC1015
  9
$ACADMAINTVER
 70
    18
  9
$DWGCODEPAGE
  3
ANSI_1252
  9
$INSBASE
 10
0.0
 20
0.0
 30
0.0
  9
$EXTMIN
 10
0.0
 20
0.0
 30
0.0
  9
$EXTMAX
 10
113.3333333333333
 20
73.33333333333334
 30
0.0
  9
$LIMMIN
 10
0.0
 20
0.0
  9
$LIMMAX
 10
113.3333333333333
 20
73.33333333333334
  9
$ORTHOMODE
 70
     0
  9
$REGENMODE
 70
     1
  9
$FILLMODE
 70
     1
  9
$QTEXTMODE
 70
     0
  9
$MIRRTEXT
 70
     0
  9
$LTSCALE
 40
6.666666666666666
  9
$ATTMODE
 70
     1
  9
$TEXTSIZE
 40
0.2
  9
$TRACEWID
 40
0.05
  9
$TEXTSTYLE
  7
Standard
  9
$CLAYER
  8
0
  9
$CELTYPE
  6
ByLayer
  9
$CECOLOR
 62
   256
  9
$CELTSCALE
 40
1.0
  9
$DISPSILH
 70
     0
  9
$DIMSCALE
 40
1.0
  9
$DIMASZ
 40
0.0708661417322835
  9
$DIMEXO
 40
0.0625
  9
$DIMDLI
 40
0.38
  9
$DIMRND
 40
0.0
  9
$DIMDLE
 40
0.0
  9
$DIMEXE
 40
0.18
  9
$DIMTP
 40
0.0
  9
$DIMTM
 40
0.0
  9
$DIMTXT
 40
0.0708661417322835
  9
$DIMCEN
 40
0.09
  9
$DIMTSZ
 40
0.0
  9
$DIMTOL
 70
     0
  9
$DIMLIM
 70
     0
  9
$DIMTIH
 70
     1
  9
$DIMTOH
 70
     1
  9
$DIMSE1
 70
     0
  9
$DIMSE2
 70
     0
  9
$DIMTAD
 70
     0
  9
$DIMZIN
 70
     0
  9
$DIMBLK
  1

  9
$DIMASO
 70
     1
  9
$DIMSHO
 70
     1
  9
$DIMPOST
  1

  9
$DIMAPOST
  1

  9
$DIMALT
 70
     0
  9
$DIMALTD
 70
     2
  9
$DIMALTF
 40
25.4
  9
$DIMLFAC
 40
1.0
  9
$DIMTOFL
 70
     0
  9
$DIMTVP
 40
0.0
  9
$DIMTIX
 70
     0
  9
$DIMSOXD
 70
     0
  9
$DIMSAH
 70
     0
  9
$DIMBLK1
  1

  9
$DIMBLK2
  1

  9
$DIMSTYLE
  2
Standard
  9
$DIMCLRD
 70
     0
  9
$DIMCLRE
 70
     0
  9
$DIMCLRT
 70
     0
  9
$DIMTFAC
 40
1.0
  9
$DIMGAP
 40
0.09
  9
$DIMJUST
 70
     0
  9
$DIMSD1
 70
     0
  9
$DIMSD2
 70
     0
  9
$DIMTOLJ
 70
     1
  9
$DIMTZIN
 70
     0
  9
$DIMALTZ
 70
     0
  9
$DIMALTTZ
 70
     0
  9
$DIMUPT
 70
     0
  9
$DIMDEC
 70
     4
  9
$DIMTDEC
 70
     4
  9
$DIMALTU
 70
     2
  9
$DIMALTTD
 70
     2
  9
$DIMTXSTY
  7
Standard
  9
$DIMAUNIT
 70
     0
  9
$DIMADEC
 70
     0
  9
$DIMALTRND
 40
0.0
  9
$DIMAZIN
 70
     0
  9
$DIMDSEP
 70
    46
  9
$DIMATFIT
 70
     3
  9
$DIMFRAC
 70
     0
  9
$DIMLDRBLK
  1

  9
$DIMLUNIT
 70
     2
  9
$DIMLWD
 70
    -2
  9
$DIMLWE
 70
    -2
  9
$DIMTMOVE
 70
     0
  9
$LUNITS
 70
     2
  9
$LUPREC
 70
     4
  9
$SKETCHINC
 40
0.1
  9
$FILLETRAD
 40
0.0
  9
$AUNITS
 70
     0
  9
$AUPREC
 70
     0
  9
$MENU
  1
.
  9
$ELEVATION
 40
0.0
  9
$PELEVATION
 40
0.0
  9
$THICKNESS
 40
0.0
  9
$LIMCHECK
 70
     0
  9
$CHAMFERA
 40
0.0
  9
$CHAMFERB
 40
0.0
  9
$CHAMFERC
 40
0.0
  9
$CHAMFERD
 40
0.0
  9
$SKPOLY
 70
     0
  9
$TDCREATE
 40
2455950.409156783
  9
$TDUCREATE
 40
2455950.659156783
  9
$TDUPDATE
 40
2455950.409156783
  9
$TDUUPDATE
 40
2455950.659156783
  9
$TDINDWG
 40
0.0000403356
  9
$TDUSRTIMER
 40
0.0000403356
  9
$USRTIMER
 70
     1
  9
$ANGBASE
 50
0.0
  9
$ANGDIR
 70
     0
  9
$PDMODE
 70
     0
  9
$PDSIZE
 40
0.0
  9
$PLINEWID
 40
0.0
  9
$SPLFRAME
 70
     0
  9
$SPLINETYPE
 70
     6
  9
$SPLINESEGS
 70
     8
  9
$HANDSEED
  5
F6A
  9
$SURFTAB1
 70
     6
  9
$SURFTAB2
 70
     6
  9
$SURFTYPE
 70
     6
  9
$SURFU
 70
     6
  9
$SURFV
 70
     6
  9
$UCSBASE
  2

  9
$UCSNAME
  2

  9
$UCSORG
 10
0.0
 20
0.0
 30
0.0
  9
$UCSXDIR
 10
1.0
 20
0.0
 30
0.0
  9
$UCSYDIR
 10
0.0
 20
1.0
 30
0.0
  9
$UCSORTHOREF
  2

  9
$UCSORTHOVIEW
 70
     0
  9
$UCSORGTOP
 10
0.0
 20
0.0
 30
0.0
  9
$UCSORGBOTTOM
 10
0.0
 20
0.0
 30
0.0
  9
$UCSORGLEFT
 10
0.0
 20
0.0
 30
0.0
  9
$UCSORGRIGHT
 10
0.0
 20
0.0
 30
0.0
  9
$UCSORGFRONT
 10
0.0
 20
0.0
 30
0.0
  9
$UCSORGBACK
 10
0.0
 20
0.0
 30
0.0
  9
$PUCSBASE
  2

  9
$PUCSNAME
  2

  9
$PUCSORG
 10
0.0
 20
0.0
 30
0.0
  9
$PUCSXDIR
 10
1.0
 20
0.0
 30
0.0
  9
$PUCSYDIR
 10
0.0
 20
1.0
 30
0.0
  9
$PUCSORTHOREF
  2

  9
$PUCSORTHOVIEW
 70
     0
  9
$PUCSORGTOP
 10
0.0
 20
0.0
 30
0.0
  9
$PUCSORGBOTTOM
 10
0.0
 20
0.0
 30
0.0
  9
$PUCSORGLEFT
 10
0.0
 20
0.0
 30
0.0
  9
$PUCSORGRIGHT
 10
0.0
 20
0.0
 30
0.0
  9
$PUCSORGFRONT
 10
0.0
 20
0.0
 30
0.0
  9
$PUCSORGBACK
 10
0.0
 20
0.0
 30
0.0
  9
$USERI1
 70
     0
  9
$USERI2
 70
     0
  9
$USERI3
 70
     0
  9
$USERI4
 70
     0
  9
$USERI5
 70
     0
  9
$USERR1
 40
0.0
  9
$USERR2
 40
0.0
  9
$USERR3
 40
0.0
  9
$USERR4
 40
0.0
  9
$USERR5
 40
0.0
  9
$WORLDVIEW
 70
     1
  9
$SHADEDGE
 70
     3
  9
$SHADEDIF
 70
    70
  9
$TILEMODE
 70
     1
  9
$MAXACTVP
 70
    64
  9
$PINSBASE
 10
0.0
 20
0.0
 30
0.0
  9
$PLIMCHECK
 70
     0
  9
$PEXTMIN
 10
0.0
 20
0.0
 30
0.0
  9
$PEXTMAX
 10
113.3333333333333
 20
73.33333333333334
 30
0.0
  9
$PLIMMIN
 10
0.0
 20
0.0
  9
$PLIMMAX
 10
113.3333333333333
 20
73.33333333333334
  9
$UNITMODE
 70
     0
  9
$VISRETAIN
 70
     1
  9
$PLINEGEN
 70
     0
  9
$PSLTSCALE
 70
     1
  9
$TREEDEPTH
 70
  3020
  9
$CMLSTYLE
  2
Standard
  9
$CMLJUST
 70
     0
  9
$CMLSCALE
 40
1.0
  9
$PROXYGRAPHICS
 70
     1
  9
$MEASUREMENT
 70
     0
  9
$CELWEIGHT
370
    -1
  9
$ENDCAPS
280
     0
  9
$JOINSTYLE
280
     0
  9
$LWDISPLAY
290
     0
  9
$INSUNITS
 70
     1
  9
$HYPERLINKBASE
  1

  9
$STYLESHEET
  1

  9
$XEDIT
290
     1
  9
$CEPSNTYPE
380
     0
  9
$PSTYLEMODE
290
     1
  9
$FINGERPRINTGUID
  2
{03159B02-06B9-44C7-BB5C-5F73F5926947}
  9
$VERSIONGUID
  2
{D9BC8831-FA4B-42B1-A581-C6C35A5E9466}
  9
$EXTNAMES
290
     1
  9
$PSVPSCALE
 40
0.0
  9
$OLESTARTUP
290
     0
  0
ENDSEC
  0
SECTION
  2
CLASSES
  0
CLASS
  1
ACDBDICTIONARYWDFLT
  2
AcDbDictionaryWithDefault
  3
ObjectDBX Classes
 90
        0
280
     0
281
     0
  0
CLASS
  1
MATERIAL
  2
AcDbMaterial
  3
ObjectDBX Classes
 90
     1153
280
     0
281
     0
  0
CLASS
  1
VISUALSTYLE
  2
AcDbVisualStyle
  3
ObjectDBX Classes
 90
     4095
280
     0
281
     0
  0
CLASS
  1
SCALE
  2
AcDbScale
  3
ObjectDBX Classes
 90
     1153
280
     0
281
     0
  0
CLASS
  1
TABLESTYLE
  2
AcDbTableStyle
  3
ObjectDBX Classes
 90
     4095
280
     0
281
     0
  0
CLASS
  1
MLEADERSTYLE
  2
AcDbMLeaderStyle
  3
ACDB_MLEADERSTYLE_CLASS
 90
     4095
280
     0
281
     0
  0
CLASS
  1
DICTIONARYVAR
  2
AcDbDictionaryVar
  3
ObjectDBX Classes
 90
        0
280
     0
281
     0
  0
CLASS
  1
CELLSTYLEMAP
  2
AcDbCellStyleMap
  3
ObjectDBX Classes
 90
     1152
280
     0
281
     0
  0
CLASS
  1
ACDBPLACEHOLDER
  2
AcDbPlaceHolder
  3
ObjectDBX Classes
 90
        0
280
     0
281
     0
  0
CLASS
  1
LAYOUT
  2
AcDbLayout
  3
ObjectDBX Classes
 90
        0
280
     0
281
     0
  0
ENDSEC
  0
SECTION
  2
TABLES
  0
TABLE
  2
VPORT
  5
8
330
0
100
AcDbSymbolTable
 70
     1
  0
VPORT
  5
57
330
8
100
AcDbSymbolTableRecord
100
AcDbViewportTableRecord
  2
*Active
 70
     0
 10
0.0
 20
0.0
 11
1.0
 21
1.0
 12
56.66666666666667
 22
36.66666666666667
 13
0.0
 23
0.0
 14
1.0
 24
1.0
 15
0.0
 25
0.0
 16
0.0
 26
0.0
 36
1.0
 17
0.0
 27
0.0
 37
0.0
 40
73.33333333333334
 41
1.545454545454545
 42
50.0
 43
0.0
 44
0.0
 50
0.0
 51
0.0
 71
     0
 72
   100
 73
     1
 74
     1
 75
     0
 76
     0
 77
     0
 78
     0
281
     0
 65
     1
110
0.0
120
0.0
130
0.0
111
1.0
121
0.0
131
0.0
112
0.0
122
1.0
132
0.0
 79
     0
146
0.0
  0
ENDTAB
  0
TABLE
  2
LTYPE
  5
5
330
0
100
AcDbSymbolTable
 70
    59
  0
LTYPE
  5
5B
330
5
100
AcDbSymbolTableRecord
100
AcDbLinetypeTableRecord
  2
ByBlock
 70
     0
  3

 72
    65
 73
     0
 40
0.0
  0
LTYPE
  5
5C
330
5
100
AcDbSymbolTableRecord
100
AcDbLinetypeTableRecord
  2
ByLayer
 70
     0
  3

 72
    65
 73
     0
 40
0.0
  0
LTYPE
  5
5D
330
5
100
AcDbSymbolTableRecord
100
AcDbLinetypeTableRecord
  2
Continuous
 70
     0
  3
Solid line
 72
    65
 73
     0
 40
0.0
  0
LTYPE
  5
7C
330
5
100
AcDbSymbolTableRecord
100
AcDbLinetypeTableRecord
  2
BY_STANDARD
 70
     0
  3
By Standard ____________    ____    ____   _
 72
    65
 73
     6
 40
1.240299999999999
 49
0.6614
 74
     0
 49
-0.0827
 74
     0
 49
0.1654
 74
     0
 49
-0.0827
 74
     0
 49
0.1654
 74
     0
 49
-0.0827
 74
     0
  0
LTYPE
  5
7D
330
5
100
AcDbSymbolTableRecord
100
AcDbLinetypeTableRecord
  2
CHAIN
 70
     0
  3
Chain ____ _ ____ _ ____ _ ____ _ ____ _ ____
 72
    65
 73
     4
 40
0.7087
 49
0.4724000000000001
 74
     0
 49
-0.0591
 74
     0
 49
0.1181
 74
     0
 49
-0.0591
 74
     0
  0
LTYPE
  5
7E
330
5
100
AcDbSymbolTableRecord
100
AcDbLinetypeTableRecord
  2
DASH_DOT
 70
     0
  3
Dash dot __ . __ . __ . __ . __ . __ . __ . __
 72
    65
 73
     4
 40
0.37
 49
0.24
 74
     0
 49
-0.06
 74
     0
 49
0.01
 74
     0
 49
-0.06
 74
     0
  0
LTYPE
  5
7F
330
5
100
AcDbSymbolTableRecord
100
AcDbLinetypeTableRecord
  2
DOUBLE_DASH_DOT
 70
     0
  3
Double-Dash Dot __ __ . __ __ . __ __ . __ _
 72
    65
 73
     6
 40
0.4398
 49
0.24
 74
     0
 49
-0.06
 74
     0
 49
0.0098
 74
     0
 49
-0.06
 74
     0
 49
0.01
 74
     0
 49
-0.06
 74
     0
  0
LTYPE
  5
80
330
5
100
AcDbSymbolTableRecord
100
AcDbLinetypeTableRecord
  2
DASH_TRIPLE_DOT
 70
     0
  3
Dash Triple-Dot _ . . . _ . . . _ . . . _
 72
    65
 73
     8
 40
0.51
 49
0.24
 74
     0
 49
-0.06
 74
     0
 49
0.01
 74
     0
 49
-0.06
 74
     0
 49
0.01
 74
     0
 49
-0.06
 74
     0
 49
0.01
 74
     0
 49
-0.06
 74
     0
  0
LTYPE
  5
81
330
5
100
AcDbSymbolTableRecord
100
AcDbLinetypeTableRecord
  2
DASHED
 70
     0
  3
Dashed __ __ __ __ __ __ __ __ __ __ __ __ __ _
 72
    65
 73
     2
 40
0.2067
 49
0.1654
 74
     0
 49
-0.0413
 74
     0
  0
LTYPE
  5
82
330
5
100
AcDbSymbolTableRecord
100
AcDbLinetypeTableRecord
  2
DASH_DOUBLE_DOT
 70
     0
  3
Dash Double-Dot __ . . __ . . __ . . __ . .
 72
    65
 73
     6
 40
0.4398
 49
0.24
 74
     0
 49
-0.06
 74
     0
 49
0.0098
 74
     0
 49
-0.06
 74
     0
 49
0.01
 74
     0
 49
-0.06
 74
     0
  0
LTYPE
  5
83
330
5
100
AcDbSymbolTableRecord
100
AcDbLinetypeTableRecord
  2
DASHED_SPACE
 70
     0
  3
Dashed Space __ __ __ __ __ __ __ __ __ __ __ _
 72
    65
 73
     2
 40
0.2067
 49
0.1654
 74
     0
 49
-0.0413
 74
     0
  0
LTYPE
  5
84
330
5
100
AcDbSymbolTableRecord
100
AcDbLinetypeTableRecord
  2
DOTTED
 70
     0
  3
Dotted . . . . . . . . . . . . . . . . . . . . 
 72
    65
 73
     2
 40
0.0482
 49
0.0069
 74
     0
 49
-0.0413
 74
     0
  0
LTYPE
  5
85
330
5
100
AcDbSymbolTableRecord
100
AcDbLinetypeTableRecord
  2
DOUBLE_DASH_CHAIN
 70
     0
  3
Double-Dash Chain ______  __  __  ______  __  _
 72
    65
 73
     6
 40
1.240299999999999
 49
0.6614
 74
     0
 49
-0.0827
 74
     0
 49
0.1654
 74
     0
 49
-0.0827
 74
     0
 49
0.1654
 74
     0
 49
-0.0827
 74
     0
  0
LTYPE
  5
87
330
5
100
AcDbSymbolTableRecord
100
AcDbLinetypeTableRecord
  2
DOUBLE_DASH_DOUBLE_DOT
 70
     0
  3
Double-Dash Double-dot _ _ . . _ _ . . _
 72
    65
 73
     8
 40
0.7400000000000001
 49
0.24
 74
     0
 49
-0.06
 74
     0
 49
0.24
 74
     0
 49
-0.06
 74
     0
 49
0.01
 74
     0
 49
-0.06
 74
     0
 49
0.01
 74
     0
 49
-0.06
 74
     0
  0
LTYPE
  5
88
330
5
100
AcDbSymbolTableRecord
100
AcDbLinetypeTableRecord
  2
DOUBLE_DASH_TRIPLE_DOT
 70
     0
  3
Double Dash Triple Dot __ __ . . . __ __ . .
 72
    65
 73
    10
 40
0.8100000000000001
 49
0.24
 74
     0
 49
-0.06
 74
     0
 49
0.24
 74
     0
 49
-0.06
 74
     0
 49
0.01
 74
     0
 49
-0.06
 74
     0
 49
0.01
 74
     0
 49
-0.06
 74
     0
 49
0.01
 74
     0
 49
-0.06
 74
     0
  0
LTYPE
  5
89
330
5
100
AcDbSymbolTableRecord
100
AcDbLinetypeTableRecord
  2
LONG_DASH_DOTTED
 70
     0
  3
Long Dash Dotted ____ . ____ . ____ . ____ . _
 72
    65
 73
     4
 40
0.3543
 49
0.2362
 74
     0
 49
-0.0295
 74
     0
 49
0.0591
 74
     0
 49
-0.0295
 74
     0
  0
LTYPE
  5
8A
330
5
100
AcDbSymbolTableRecord
100
AcDbLinetypeTableRecord
  2
LONG_DASH_DOUBLE_DOT
 70
     0
  3
Long Dash Double Dot ________  .  .  ________  
 72
    65
 73
     6
 40
0.6799999999999999
 49
0.48
 74
     0
 49
-0.06
 74
     0
 49
0.01
 74
     0
 49
-0.06
 74
     0
 49
0.01
 74
     0
 49
-0.06
 74
     0
  0
LTYPE
  5
8B
330
5
100
AcDbSymbolTableRecord
100
AcDbLinetypeTableRecord
  2
LONG_DASH_TRIPLE_DOT
 70
     0
  3
Long Dash Triple Dot ____ ... ____ ... ____
 72
    65
 73
     8
 40
0.3689
 49
0.2362
 74
     0
 49
-0.0295
 74
     0
 49
0.0049
 74
     0
 49
-0.0295
 74
     0
 49
0.0049
 74
     0
 49
-0.0295
 74
     0
 49
0.0049
 74
     0
 49
-0.0295
 74
     0
  0
LTYPE
  5
8C
330
5
100
AcDbSymbolTableRecord
100
AcDbLinetypeTableRecord
  2
BORDER
 70
     0
  3
Border __ __ . __ __ . __ __ . __ __ . __ __ .
 72
    65
 73
     6
 40
1.75
 49
0.5
 74
     0
 49
-0.25
 74
     0
 49
0.5
 74
     0
 49
-0.25
 74
     0
 49
0.0
 74
     0
 49
-0.25
 74
     0
  0
LTYPE
  5
8D
330
5
100
AcDbSymbolTableRecord
100
AcDbLinetypeTableRecord
  2
BORDER2
 70
     0
  3
Border (.5x) __.__.__.__.__.__.__.__.__.__.__.
 72
    65
 73
     6
 40
0.875
 49
0.25
 74
     0
 49
-0.125
 74
     0
 49
0.25
 74
     0
 49
-0.125
 74
     0
 49
0.0
 74
     0
 49
-0.125
 74
     0
  0
LTYPE
  5
8E
330
5
100
AcDbSymbolTableRecord
100
AcDbLinetypeTableRecord
  2
BORDERX2
 70
     0
  3
Border (2x) ____  ____  .  ____  ____  .  ___
 72
    65
 73
     6
 40
3.5
 49
1.0
 74
     0
 49
-0.5
 74
     0
 49
1.0
 74
     0
 49
-0.5
 74
     0
 49
0.0
 74
     0
 49
-0.5
 74
     0
  0
LTYPE
  5
8F
330
5
100
AcDbSymbolTableRecord
100
AcDbLinetypeTableRecord
  2
CENTER
 70
     0
  3
Center ____ _ ____ _ ____ _ ____ _ ____ _ ____
 72
    65
 73
     4
 40
2.0
 49
1.25
 74
     0
 49
-0.25
 74
     0
 49
0.25
 74
     0
 49
-0.25
 74
     0
  0
LTYPE
  5
90
330
5
100
AcDbSymbolTableRecord
100
AcDbLinetypeTableRecord
  2
CENTER2
 70
     0
  3
Center (.5x) ___ _ ___ _ ___ _ ___ _ ___ _ ___
 72
    65
 73
     4
 40
1.125
 49
0.75
 74
     0
 49
-0.125
 74
     0
 49
0.125
 74
     0
 49
-0.125
 74
     0
  0
LTYPE
  5
91
330
5
100
AcDbSymbolTableRecord
100
AcDbLinetypeTableRecord
  2
CENTERX2
 70
     0
  3
Center (2x) ________  __  ________  __  _____
 72
    65
 73
     4
 40
4.0
 49
2.5
 74
     0
 49
-0.5
 74
     0
 49
0.5
 74
     0
 49
-0.5
 74
     0
  0
LTYPE
  5
92
330
5
100
AcDbSymbolTableRecord
100
AcDbLinetypeTableRecord
  2
DASHDOT2
 70
     0
  3
Dash dot (.5x) _._._._._._._._._._._._._._._.
 72
    65
 73
     4
 40
0.5
 49
0.25
 74
     0
 49
-0.125
 74
     0
 49
0.0
 74
     0
 49
-0.125
 74
     0
  0
LTYPE
  5
93
330
5
100
AcDbSymbolTableRecord
100
AcDbLinetypeTableRecord
  2
DASHDOTX2
 70
     0
  3
Dash dot (2x) ____  .  ____  .  ____  .  ___
 72
    65
 73
     4
 40
2.0
 49
1.0
 74
     0
 49
-0.5
 74
     0
 49
0.0
 74
     0
 49
-0.5
 74
     0
  0
LTYPE
  5
95
330
5
100
AcDbSymbolTableRecord
100
AcDbLinetypeTableRecord
  2
DASHED2
 70
     0
  3
Dashed (.5x) _ _ _ _ _ _ _ _ _ _ _ _ _ _ _ _ _
 72
    65
 73
     2
 40
0.375
 49
0.25
 74
     0
 49
-0.125
 74
     0
  0
LTYPE
  5
96
330
5
100
AcDbSymbolTableRecord
100
AcDbLinetypeTableRecord
  2
DASHEDX2
 70
     0
  3
Dashed (2x) ____  ____  ____  ____  ____  ___
 72
    65
 73
     2
 40
1.5
 49
1.0
 74
     0
 49
-0.5
 74
     0
  0
LTYPE
  5
97
330
5
100
AcDbSymbolTableRecord
100
AcDbLinetypeTableRecord
  2
DIVIDE
 70
     0
  3
Divide ____ . . ____ . . ____ . . ____ . . ____
 72
    65
 73
     6
 40
1.25
 49
0.5
 74
     0
 49
-0.25
 74
     0
 49
0.0
 74
     0
 49
-0.25
 74
     0
 49
0.0
 74
     0
 49
-0.25
 74
     0
  0
LTYPE
  5
98
330
5
100
AcDbSymbolTableRecord
100
AcDbLinetypeTableRecord
  2
DIVIDE2
 70
     0
  3
Divide (.5x) __..__..__..__..__..__..__..__.._
 72
    65
 73
     6
 40
0.625
 49
0.25
 74
     0
 49
-0.125
 74
     0
 49
0.0
 74
     0
 49
-0.125
 74
     0
 49
0.0
 74
     0
 49
-0.125
 74
     0
  0
LTYPE
  5
99
330
5
100
AcDbSymbolTableRecord
100
AcDbLinetypeTableRecord
  2
DIVIDEX2
 70
     0
  3
Divide (2x) ________  .  .  ________  .  .  _
 72
    65
 73
     6
 40
2.5
 49
1.0
 74
     0
 49
-0.5
 74
     0
 49
0.0
 74
     0
 49
-0.5
 74
     0
 49
0.0
 74
     0
 49
-0.5
 74
     0
  0
LTYPE
  5
9A
330
5
100
AcDbSymbolTableRecord
100
AcDbLinetypeTableRecord
  2
DOT
 70
     0
  3
Dot . . . . . . . . . . . . . . . . . . . . . .
 72
    65
 73
     2
 40
0.25
 49
0.0
 74
     0
 49
-0.25
 74
     0
  0
LTYPE
  5
9B
330
5
100
AcDbSymbolTableRecord
100
AcDbLinetypeTableRecord
  2
DOT2
 70
     0
  3
Dot (.5x) .....................................
 72
    65
 73
     2
 40
0.125
 49
0.0
 74
     0
 49
-0.125
 74
     0
  0
LTYPE
  5
9C
330
5
100
AcDbSymbolTableRecord
100
AcDbLinetypeTableRecord
  2
DOTX2
 70
     0
  3
Dot (2x) .  .  .  .  .  .  .  .  .  .  .  .  . 
 72
    65
 73
     2
 40
0.5
 49
0.0
 74
     0
 49
-0.5
 74
     0
  0
LTYPE
  5
9D
330
5
100
AcDbSymbolTableRecord
100
AcDbLinetypeTableRecord
  2
HIDDEN
 70
     0
  3
Hidden __ __ __ __ __ __ __ __ __ __ __ __ __ _
 72
    65
 73
     2
 40
0.375
 49
0.25
 74
     0
 49
-0.125
 74
     0
  0
LTYPE
  5
9E
330
5
100
AcDbSymbolTableRecord
100
AcDbLinetypeTableRecord
  2
HIDDEN2
 70
     0
  3
Hidden (.5x) _ _ _ _ _ _ _ _ _ _ _ _ _ _ _ _ _
 72
    65
 73
     2
 40
0.1875
 49
0.125
 74
     0
 49
-0.0625
 74
     0
  0
LTYPE
  5
9F
330
5
100
AcDbSymbolTableRecord
100
AcDbLinetypeTableRecord
  2
HIDDENX2
 70
     0
  3
Hidden (2x) ____ ____ ____ ____ ____ ____ ____
 72
    65
 73
     2
 40
0.75
 49
0.5
 74
     0
 49
-0.25
 74
     0
  0
LTYPE
  5
A0
330
5
100
AcDbSymbolTableRecord
100
AcDbLinetypeTableRecord
  2
PHANTOM
 70
     0
  3
Phantom ______  __  __  ______  __  __  ______
 72
    65
 73
     6
 40
2.5
 49
1.25
 74
     0
 49
-0.25
 74
     0
 49
0.25
 74
     0
 49
-0.25
 74
     0
 49
0.25
 74
     0
 49
-0.25
 74
     0
  0
LTYPE
  5
A1
330
5
100
AcDbSymbolTableRecord
100
AcDbLinetypeTableRecord
  2
PHANTOM2
 70
     0
  3
Phantom (.5x) ___ _ _ ___ _ _ ___ _ _ ___ _ _
 72
    65
 73
     6
 40
1.25
 49
0.625
 74
     0
 49
-0.125
 74
     0
 49
0.125
 74
     0
 49
-0.125
 74
     0
 49
0.125
 74
     0
 49
-0.125
 74
     0
  0
LTYPE
  5
A2
330
5
100
AcDbSymbolTableRecord
100
AcDbLinetypeTableRecord
  2
PHANTOMX2
 70
     0
  3
Phantom (2x) ____________    ____    ____   _
 72
    65
 73
     6
 40
5.0
 49
2.5
 74
     0
 49
-0.5
 74
     0
 49
0.5
 74
     0
 49
-0.5
 74
     0
 49
0.5
 74
     0
 49
-0.5
 74
     0
  0
LTYPE
  5
A3
330
5
100
AcDbSymbolTableRecord
100
AcDbLinetypeTableRecord
  2
ACAD_ISO02W100
 70
     0
  3
ISO dash __ __ __ __ __ __ __ __ __ __ __ __ __
 72
    65
 73
     2
 40
0.59
 49
0.47
 74
     0
 49
-0.12
 74
     0
  0
LTYPE
  5
A4
330
5
100
AcDbSymbolTableRecord
100
AcDbLinetypeTableRecord
  2
ACAD_ISO03W100
 70
     0
  3
ISO dash space __    __    __    __    __    __
 72
    65
 73
     2
 40
1.179999999999999
 49
0.47
 74
     0
 49
-0.71
 74
     0
  0
LTYPE
  5
A5
330
5
100
AcDbSymbolTableRecord
100
AcDbLinetypeTableRecord
  2
ACAD_ISO04W100
 70
     0
  3
ISO long-dash dot ____ . ____ . ____ . ____ . _
 72
    65
 73
     4
 40
1.179999999999999
 49
0.9399999999999998
 74
     0
 49
-0.12
 74
     0
 49
0.0
 74
     0
 49
-0.12
 74
     0
  0
LTYPE
  5
A6
330
5
100
AcDbSymbolTableRecord
100
AcDbLinetypeTableRecord
  2
ACAD_ISO05W100
 70
     0
  3
ISO long-dash double-dot ____ .. ____ .. ____ .
 72
    65
 73
     6
 40
1.299999999999999
 49
0.9399999999999998
 74
     0
 49
-0.12
 74
     0
 49
0.0
 74
     0
 49
-0.12
 74
     0
 49
0.0
 74
     0
 49
-0.12
 74
     0
  0
LTYPE
  5
A7
330
5
100
AcDbSymbolTableRecord
100
AcDbLinetypeTableRecord
  2
ACAD_ISO06W100
 70
     0
  3
ISO long-dash triple-dot ____ ... ____ ... ____
 72
    65
 73
     8
 40
1.419999999999999
 49
0.9399999999999998
 74
     0
 49
-0.12
 74
     0
 49
0.0
 74
     0
 49
-0.12
 74
     0
 49
0.0
 74
     0
 49
-0.12
 74
     0
 49
0.0
 74
     0
 49
-0.12
 74
     0
  0
LTYPE
  5
A8
330
5
100
AcDbSymbolTableRecord
100
AcDbLinetypeTableRecord
  2
ACAD_ISO07W100
 70
     0
  3
ISO dot . . . . . . . . . . . . . . . . . . . .
 72
    65
 73
     2
 40
0.12
 49
0.0
 74
     0
 49
-0.12
 74
     0
  0
LTYPE
  5
A9
330
5
100
AcDbSymbolTableRecord
100
AcDbLinetypeTableRecord
  2
ACAD_ISO08W100
 70
     0
  3
ISO long-dash short-dash ____ __ ____ __ ____ _
 72
    65
 73
     4
 40
0.95
 49
0.47
 74
     0
 49
-0.12
 74
     0
 49
0.24
 74
     0
 49
-0.12
 74
     0
  0
LTYPE
  5
AA
330
5
100
AcDbSymbolTableRecord
100
AcDbLinetypeTableRecord
  2
ACAD_ISO09W100
 70
     0
  3
ISO long-dash double-short-dash ____ __ __ ____
 72
    65
 73
     6
 40
1.31
 49
0.47
 74
     0
 49
-0.12
 74
     0
 49
0.24
 74
     0
 49
-0.12
 74
     0
 49
0.24
 74
     0
 49
-0.12
 74
     0
  0
LTYPE
  5
AB
330
5
100
AcDbSymbolTableRecord
100
AcDbLinetypeTableRecord
  2
ACAD_ISO10W100
 70
     0
  3
ISO dash dot __ . __ . __ . __ . __ . __ . __ .
 72
    65
 73
     4
 40
0.71
 49
0.47
 74
     0
 49
-0.12
 74
     0
 49
0.0
 74
     0
 49
-0.12
 74
     0
  0
LTYPE
  5
AC
330
5
100
AcDbSymbolTableRecord
100
AcDbLinetypeTableRecord
  2
ACAD_ISO11W100
 70
     0
  3
ISO double-dash dot __ __ . __ __ . __ __ . __ 
 72
    65
 73
     6
 40
1.299999999999999
 49
0.47
 74
     0
 49
-0.12
 74
     0
 49
0.47
 74
     0
 49
-0.12
 74
     0
 49
0.0
 74
     0
 49
-0.12
 74
     0
  0
LTYPE
  5
AD
330
5
100
AcDbSymbolTableRecord
100
AcDbLinetypeTableRecord
  2
ACAD_ISO12W100
 70
     0
  3
ISO dash double-dot __ . . __ . . __ . . __ . .
 72
    65
 73
     6
 40
0.8299999999999998
 49
0.47
 74
     0
 49
-0.12
 74
     0
 49
0.0
 74
     0
 49
-0.12
 74
     0
 49
0.0
 74
     0
 49
-0.12
 74
     0
  0
LTYPE
  5
AE
330
5
100
AcDbSymbolTableRecord
100
AcDbLinetypeTableRecord
  2
ACAD_ISO13W100
 70
     0
  3
ISO double-dash double-dot __ __ . . __ __ . . 
 72
    65
 73
     8
 40
1.419999999999999
 49
0.47
 74
     0
 49
-0.12
 74
     0
 49
0.47
 74
     0
 49
-0.12
 74
     0
 49
0.0
 74
     0
 49
-0.12
 74
     0
 49
0.0
 74
     0
 49
-0.12
 74
     0
  0
LTYPE
  5
AF
330
5
100
AcDbSymbolTableRecord
100
AcDbLinetypeTableRecord
  2
ACAD_ISO14W100
 70
     0
  3
ISO dash triple-dot __ . . . __ . . . __ . . . 
 72
    65
 73
     8
 40
0.95
 49
0.47
 74
     0
 49
-0.12
 74
     0
 49
0.0
 74
     0
 49
-0.12
 74
     0
 49
0.0
 74
     0
 49
-0.12
 74
     0
 49
0.0
 74
     0
 49
-0.12
 74
     0
  0
LTYPE
  5
B0
330
5
100
AcDbSymbolTableRecord
100
AcDbLinetypeTableRecord
  2
ACAD_ISO15W100
 70
     0
  3
ISO double-dash triple-dot __ __ . . . __ __ . 
 72
    65
 73
    10
 40
1.539999999999999
 49
0.47
 74
     0
 49
-0.12
 74
     0
 49
0.47
 74
     0
 49
-0.12
 74
     0
 49
0.0
 74
     0
 49
-0.12
 74
     0
 49
0.0
 74
     0
 49
-0.12
 74
     0
 49
0.0
 74
     0
 49
-0.12
 74
     0
  0
LTYPE
  5
B3
330
5
100
AcDbSymbolTableRecord
100
AcDbLinetypeTableRecord
  2
FENCELINE1
 70
     0
  3
Fenceline circle ----0-----0----0-----0----0---
 72
    65
 73
     4
 40
1.45
 49
0.25
 74
     0
 49
-0.1
 74
     4
 75
   133
340
B2
 46
0.1
 50
0.0
 44
-0.1
 45
0.0
 49
-0.1
 74
     0
 49
1.0
 74
     0
  0
LTYPE
  5
B4
330
5
100
AcDbSymbolTableRecord
100
AcDbLinetypeTableRecord
  2
FENCELINE2
 70
     0
  3
Fenceline square ----[]-----[]----[]-----[]----
 72
    65
 73
     4
 40
1.45
 49
0.25
 74
     0
 49
-0.1
 74
     4
 75
   132
340
B2
 46
0.1
 50
0.0
 44
-0.1
 45
0.0
 49
-0.1
 74
     0
 49
1.0
 74
     0
  0
LTYPE
  5
B5
330
5
100
AcDbSymbolTableRecord
100
AcDbLinetypeTableRecord
  2
TRACKS
 70
     0
  3
Tracks -|-|-|-|-|-|-|-|-|-|-|-|-|-|-|-|-|-|-|-|
 72
    65
 73
     2
 40
0.3
 49
0.15
 74
     4
 75
   130
340
B2
 46
0.25
 50
0.0
 44
0.0
 45
0.0
 49
0.15
 74
     0
  0
LTYPE
  5
B6
330
5
100
AcDbSymbolTableRecord
100
AcDbLinetypeTableRecord
  2
BATTING
 70
     0
  3
Batting SSSSSSSSSSSSSSSSSSSSSSSSSSSSSSSSSSSSSSS
 72
    65
 73
     4
 40
0.4001000000000001
 49
0.0001
 74
     0
 49
-0.1
 74
     4
 75
   134
340
B2
 46
0.1
 50
0.0
 44
-0.1
 45
0.0
 49
-0.2
 74
     4
 75
   134
340
B2
 46
0.1
 50
180.0
 44
0.1
 45
0.0
 49
-0.1
 74
     0
  0
LTYPE
  5
B7
330
5
100
AcDbSymbolTableRecord
100
AcDbLinetypeTableRecord
  2
HOT_WATER_SUPPLY
 70
     0
  3
Hot water supply ---- HW ---- HW ---- HW ----
 72
    65
 73
     3
 40
0.9
 49
0.5
 74
     0
 49
-0.2
 74
     2
 75
     0
340
55
 46
0.1
 50
0.0
 44
-0.1
 45
-0.05
  9
HW
 49
-0.2
 74
     0
  0
LTYPE
  5
B8
330
5
100
AcDbSymbolTableRecord
100
AcDbLinetypeTableRecord
  2
GAS_LINE
 70
     0
  3
Gas line ----GAS----GAS----GAS----GAS----GAS---
 72
    65
 73
     3
 40
0.95
 49
0.5
 74
     0
 49
-0.2
 74
     2
 75
     0
340
55
 46
0.1
 50
0.0
 44
-0.1
 45
-0.05
  9
GAS
 49
-0.25
 74
     0
  0
LTYPE
  5
B9
330
5
100
AcDbSymbolTableRecord
100
AcDbLinetypeTableRecord
  2
ZIGZAG
 70
     0
  3
Zig zag /\/\/\/\/\/\/\/\/\/\/\/\/\/\/\/\/\/\/\/
 72
    65
 73
     4
 40
0.8001000000000001
 49
0.0001
 74
     0
 49
-0.2
 74
     4
 75
   131
340
B2
 46
0.2
 50
0.0
 44
-0.2
 45
0.0
 49
-0.4
 74
     4
 75
   131
340
B2
 46
0.2
 50
180.0
 44
0.2
 45
0.0
 49
-0.2
 74
     0
  0
ENDTAB
  0
TABLE
  2
LAYER
  5
2
330
0
100
AcDbSymbolTable
 70
    27
  0
LAYER
  5
54
330
2
100
AcDbSymbolTableRecord
100
AcDbLayerTableRecord
  2
0
 70
     0
 62
     7
  6
Continuous
370
     0
390
F
  0
LAYER
  5
C0
330
2
100
AcDbSymbolTableRecord
100
AcDbLayerTableRecord
  2
Center Mark (ANSI)
 70
     0
 62
     7
  6
Continuous
370
     5
390
F
  0
LAYER
  5
C1
330
2
100
AcDbSymbolTableRecord
100
AcDbLayerTableRecord
  2
Centerline (ANSI)
 70
     0
 62
     7
  6
Continuous
370
     5
390
F
  0
LAYER
  5
C3
330
2
100
AcDbSymbolTableRecord
100
AcDbLayerTableRecord
  2
Dimension (ANSI)
 70
     0
 62
     7
  6
Continuous
370
     5
390
F
  0
LAYER
  5
C5
330
2
100
AcDbSymbolTableRecord
100
AcDbLayerTableRecord
  2
Hidden (ANSI)
 70
     0
 62
     7
  6
DASHED
370
     5
390
F
  0
LAYER
  5
CC
330
2
100
AcDbSymbolTableRecord
100
AcDbLayerTableRecord
  2
Symbol (ANSI)
 70
     0
 62
     7
  6
Continuous
370
     5
390
F
  0
LAYER
  5
CF
330
2
100
AcDbSymbolTableRecord
100
AcDbLayerTableRecord
  2
Visible (ANSI)
 70
     0
 62
     7
  6
Continuous
370
     5
390
F
  0
LAYER
  5
D0
330
2
100
AcDbSymbolTableRecord
100
AcDbLayerTableRecord
  2
Visible Narrow (ANSI)
 70
     0
 62
     7
  6
Continuous
370
     5
390
F
  0
LAYER
  5
1F1
330
2
100
AcDbSymbolTableRecord
100
AcDbLayerTableRecord
  2
Defpoints
 70
     0
 62
     7
  6
Continuous
290
     0
370
    -3
390
F
  0
ENDTAB
  0
TABLE
  2
STYLE
  5
3
330
0
100
AcDbSymbolTable
 70
    10
  0
STYLE
  5
55
330
3
100
AcDbSymbolTableRecord
100
AcDbTextStyleTableRecord
  2
Standard
 70
     0
 40
0.0
 41
1.0
 50
0.0
 71
     0
 42
0.2
  3
txt
  4

  0
STYLE
  5
5A
330
3
100
AcDbSymbolTableRecord
100
AcDbTextStyleTableRecord
  2
Annotative
 70
     0
 40
0.0
 41
1.0
 50
0.0
 71
     0
 42
0.2
  3
txt
  4

1001
AcadAnnotative
1000
AnnotativeData
1002
{
1070
     1
1070
     1
1002
}
  0
STYLE
  5
B2
330
3
100
AcDbSymbolTableRecord
100
AcDbTextStyleTableRecord
  2

 70
     1
 40
0.0
 41
1.0
 50
0.0
 71
     0
 42
0.2
  3
ltypeshp.shx
  4

  0
STYLE
  5
D4
330
3
100
AcDbSymbolTableRecord
100
AcDbTextStyleTableRecord
  2
ITALICC_120
 70
     0
 40
0.0
 41
1.0
 50
0.0
 71
     0
 42
0.2
  3
italicc.shx
  4

  0
STYLE
  5
D5
330
3
100
AcDbSymbolTableRecord
100
AcDbTextStyleTableRecord
  2
Label Text (ANSI)
 70
     0
 40
0.0
 41
1.0
 50
0.0
 71
     0
 42
0.2
  3
TAHOMA.TTF
  4

1001
ACAD
1000
Tahoma
1071
      256
  0
STYLE
  5
D6
330
3
100
AcDbSymbolTableRecord
100
AcDbTextStyleTableRecord
  2
Note Text (ANSI)
 70
     0
 40
0.0
 41
1.0
 50
0.0
 71
     0
 42
0.2
  3
RomanS.shx
  4

  0
STYLE
  5
D7
330
3
100
AcDbSymbolTableRecord
100
AcDbTextStyleTableRecord
  2
ROMANS
 70
     0
 40
0.0
 41
1.0
 50
0.0
 71
     0
 42
0.2
  3
romans.shx
  4

  0
STYLE
  5
D8
330
3
100
AcDbSymbolTableRecord
100
AcDbTextStyleTableRecord
  2
SANSSERIF_114
 70
     0
 40
0.0
 41
1.0
 50
0.0
 71
     0
 42
0.2
  3
TAHOMA.TTF
  4

1001
ACAD
1000
Tahoma
1071
      256
  0
STYLE
  5
D9
330
3
100
AcDbSymbolTableRecord
100
AcDbTextStyleTableRecord
  2
SANSSERIF_117
 70
     0
 40
0.0
 41
1.0
 50
0.0
 71
     0
 42
0.2
  3
TAHOMA.TTF
  4

1001
ACAD
1000
Tahoma
1071
      256
  0
STYLE
  5
147
330
3
100
AcDbSymbolTableRecord
100
AcDbTextStyleTableRecord
  2
Text Style168
 70
     0
 40
0.0
 41
1.0
 50
0.0
 71
     0
 42
0.2
  3
TAHOMA.TTF
  4

1001
ACAD
1000
Tahoma
1071
      256
  0
ENDTAB
  0
TABLE
  2
VIEW
  5
6
330
0
100
AcDbSymbolTable
 70
     0
  0
ENDTAB
  0
TABLE
  2
UCS
  5
7
330
0
100
AcDbSymbolTable
 70
     0
  0
ENDTAB
  0
TABLE
  2
APPID
  5
9
330
0
100
AcDbSymbolTable
 70
     4
  0
APPID
  5
56
330
9
100
AcDbSymbolTableRecord
100
AcDbRegAppTableRecord
  2
ACAD
 70
     0
  0
APPID
  5
5E
330
9
100
AcDbSymbolTableRecord
100
AcDbRegAppTableRecord
  2
AcadAnnotative
 70
     0
  0
APPID
  5
85B
330
9
100
AcDbSymbolTableRecord
100
AcDbRegAppTableRecord
  2
ACAD_DSTYLE_DIMRADIAL_EXTENSION
 70
     0
  0
APPID
  5
F5F
330
9
100
AcDbSymbolTableRecord
100
AcDbRegAppTableRecord
  2
ACAD_MLEADERVER
 70
     0
  0
ENDTAB
  0
TABLE
  2
DIMSTYLE
  5
A
330
0
100
AcDbSymbolTable
 70
    15
100
AcDbDimStyleTable
 71
     2
340
E2
340
58
  0
DIMSTYLE
105
58
330
A
100
AcDbSymbolTableRecord
100
AcDbDimStyleTableRecord
  2
Standard
 70
     0
340
55
  0
DIMSTYLE
105
59
330
A
100
AcDbSymbolTableRecord
100
AcDbDimStyleTableRecord
  2
Annotative
 70
     0
340
55
1001
AcadAnnotative
1000
AnnotativeData
1002
{
1070
     1
1070
     1
1002
}
  0
DIMSTYLE
105
DA
330
A
100
AcDbSymbolTableRecord
100
AcDbDimStyleTableRecord
  2
Architectural (ANSI)
 70
     0
 40
6.666666666666666
 41
0.0984251946210861
 43
0.2362204724409449
 44
0.125
 45
0.00000001
 46
0.3937007874015748
 78
     3
 79
     3
140
0.1000000014901161
146
1.200000029802321
147
0.031496062992126
171
     1
176
   256
177
   256
178
   256
272
     2
274
     1
276
     2
277
     4
284
    12
285
     4
286
    12
340
D6
371
    -1
372
    -1
  0
DIMSTYLE
105
DB
330
A
100
AcDbSymbolTableRecord
100
AcDbDimStyleTableRecord
  2
Architectural (ANSI)$7
 70
     0
 40
6.666666666666666
 41
0.0984251946210861
 43
0.2362204724409449
 44
0.125
 45
0.00000001
 46
0.3937007874015748
 78
     3
 79
     3
140
0.1000000014901161
146
1.200000029802321
147
0.031496062992126
171
     1
176
   256
177
   256
178
   256
272
     2
274
     1
276
     2
277
     4
284
    12
285
     4
286
    12
340
D6
371
    -1
372
    -1
  0
DIMSTYLE
105
DC
330
A
100
AcDbSymbolTableRecord
100
AcDbDimStyleTableRecord
  2
Default - Fraction (ANSI)
 70
     0
 40
6.666666666666666
 41
0.0984251946210861
 43
0.2362204724409449
 44
0.125
 45
0.00000001
 46
0.3937007874015748
 79
     3
140
0.1000000014901161
146
1.200000029802321
147
0.031496062992126
171
     1
176
   256
177
   256
178
   256
272
     2
274
     1
276
     2
277
     5
284
    12
285
     4
286
    12
340
D6
371
    -1
372
    -1
  0
DIMSTYLE
105
DD
330
A
100
AcDbSymbolTableRecord
100
AcDbDimStyleTableRecord
  2
Default - Fraction (ANSI)$7
 70
     0
 40
6.666666666666666
 41
0.0984251946210861
 43
0.2362204724409449
 44
0.125
 45
0.00000001
 46
0.3937007874015748
 79
     3
140
0.1000000014901161
146
1.200000029802321
147
0.031496062992126
171
     1
176
   256
177
   256
178
   256
272
     2
274
     1
276
     2
277
     5
284
    12
285
     4
286
    12
340
D6
371
    -1
372
    -1
  0
DIMSTYLE
105
DE
330
A
100
AcDbSymbolTableRecord
100
AcDbDimStyleTableRecord
  2
Default - mm (ANSI)
 70
     0
 40
6.666666666666666
 41
0.0984251946210861
 42
0.063
 43
0.2362204724409449
 44
0.125
 45
0.00000001
 46
0.3937007874015748
 73
     0
 78
     4
 79
     1
140
0.1000000014901161
143
1.0
144
25.4
146
1.200000029802321
147
0.031496062992126
171
     1
176
   256
177
   256
178
   256
179
     1
271
     2
272
     2
274
     1
284
     4
285
     4
340
D6
371
    -1
372
    -1
  0
DIMSTYLE
105
DF
330
A
100
AcDbSymbolTableRecord
100
AcDbDimStyleTableRecord
  2
Default - mm (ANSI)$7
 70
     0
 40
6.666666666666666
 41
0.0984251946210861
 42
0.063
 43
0.2362204724409449
 44
0.125
 45
0.00000001
 46
0.3937007874015748
 73
     0
 78
     4
 79
     1
140
0.1000000014901161
143
1.0
144
25.4
146
1.200000029802321
147
0.031496062992126
171
     1
176
   256
177
   256
178
   256
179
     1
271
     2
272
     2
274
     1
284
     4
285
     4
340
D6
371
    -1
372
    -1
  0
DIMSTYLE
105
E0
330
A
100
AcDbSymbolTableRecord
100
AcDbDimStyleTableRecord
  2
Default - mm [in] (ANSI)
 70
     0
  4
 in
 40
6.666666666666666
 41
0.0984251946210861
 42
0.063
 43
0.25
 44
0.125
 45
0.00000001
 46
0.3937007874015748
 73
     0
 78
     4
 79
     1
140
0.1000000014901161
143
0.03937
144
25.4
146
1.200000029802321
147
0.031496062992126
170
     1
171
     3
176
   256
177
   256
178
   256
179
     1
271
     2
272
     2
274
     3
284
     4
285
     4
286
     4
340
D6
371
    -1
372
    -1
  0
DIMSTYLE
105
E1
330
A
100
AcDbSymbolTableRecord
100
AcDbDimStyleTableRecord
  2
Default - mm [in] (ANSI)$7
 70
     0
  4
 in
 40
6.666666666666666
 41
0.0984251946210861
 42
0.063
 43
0.25
 44
0.125
 45
0.00000001
 46
0.3937007874015748
 73
     0
 78
     4
 79
     1
140
0.1000000014901161
143
0.03937
144
25.4
146
1.200000029802321
147
0.031496062992126
170
     1
171
     3
176
   256
177
   256
178
   256
179
     1
271
     2
272
     2
274
     3
284
     4
285
     4
286
     4
340
D6
371
    -1
372
    -1
  0
DIMSTYLE
105
E2
102
{ACAD_REACTORS
330
1EF
330
2DC
330
3C6
330
4C4
330
5AE
330
6AC
330
7C2
330
86C
330
915
330
A2B
330
B32
330
C30
330
D39
330
E1B
102
}
330
A
100
AcDbSymbolTableRecord
100
AcDbDimStyleTableRecord
  2
Default (ANSI)
 70
     0
 40
6.666666666666666
 41
0.0984251946210861
 43
0.2362204724409449
 44
0.125
 45
0.00000001
 46
0.3937007874015748
140
0.1000000014901161
147
0.031496062992126
176
   256
177
   256
178
   256
271
     2
272
     2
340
D7
371
    -1
372
    -1
  0
DIMSTYLE
105
E3
330
A
100
AcDbSymbolTableRecord
100
AcDbDimStyleTableRecord
  2
Default (ANSI)$7
 70
     0
 40
6.666666666666666
 41
0.0984251946210861
 43
0.2362204724409449
 44
0.125
 45
0.00000001
 46
0.3937007874015748
140
0.1000000014901161
147
0.031496062992126
176
   256
177
   256
178
   256
271
     2
272
     2
340
D7
371
    -1
372
    -1
  0
DIMSTYLE
105
E4
330
A
100
AcDbSymbolTableRecord
100
AcDbDimStyleTableRecord
  2
Alternate (ANSI)
 70
     0
 40
6.666666666666666
 41
0.0979999974370003
340
55
342
E5
  0
DIMSTYLE
105
F7
330
A
100
AcDbSymbolTableRecord
100
AcDbDimStyleTableRecord
  2
Datum (ANSI)
 70
     0
 40
6.666666666666666
 41
0.0979999974370003
340
55
342
E5
  0
DIMSTYLE
105
106
330
A
100
AcDbSymbolTableRecord
100
AcDbDimStyleTableRecord
  2
Large (ANSI)
 70
     0
 40
6.666666666666666
 41
0.1959999948740005
340
55
342
E5
  0
ENDTAB
  0
TABLE
  2
BLOCK_RECORD
  5
1
330
0
100
AcDbSymbolTable
 70
    18
  0
BLOCK_RECORD
  5
6C
330
1
100
AcDbSymbolTableRecord
100
AcDbBlockTableRecord
  2
*Model_Space
340
6F
  0
BLOCK_RECORD
  5
68
330
1
100
AcDbSymbolTableRecord
100
AcDbBlockTableRecord
  2
*Paper_Space
340
6B
  0
BLOCK_RECORD
  5
70
330
1
100
AcDbSymbolTableRecord
100
AcDbBlockTableRecord
  2
*Paper_Space0
340
73
  0
BLOCK_RECORD
  5
E5
330
1
100
AcDbSymbolTableRecord
100
AcDbBlockTableRecord
  2
_Closed
340
0
  0
BLOCK_RECORD
  5
EC
330
1
100
AcDbSymbolTableRecord
100
AcDbBlockTableRecord
  2
DatumFilled45
340
0
  0
BLOCK_RECORD
  5
F8
330
1
100
AcDbSymbolTableRecord
100
AcDbBlockTableRecord
  2
Filled-1
340
0
  0
BLOCK_RECORD
  5
1F2
330
1
100
AcDbSymbolTableRecord
100
AcDbBlockTableRecord
  2
*D4
340
0
  0
BLOCK_RECORD
  5
2DD
330
1
100
AcDbSymbolTableRecord
100
AcDbBlockTableRecord
  2
*D5
340
0
  0
BLOCK_RECORD
  5
3C7
330
1
100
AcDbSymbolTableRecord
100
AcDbBlockTableRecord
  2
*D6
340
0
  0
BLOCK_RECORD
  5
4C5
330
1
100
AcDbSymbolTableRecord
100
AcDbBlockTableRecord
  2
*D7
340
0
  0
BLOCK_RECORD
  5
5AF
330
1
100
AcDbSymbolTableRecord
100
AcDbBlockTableRecord
  2
*D8
340
0
  0
BLOCK_RECORD
  5
6AD
330
1
100
AcDbSymbolTableRecord
100
AcDbBlockTableRecord
  2
*D9
340
0
  0
BLOCK_RECORD
  5
7C3
330
1
100
AcDbSymbolTableRecord
100
AcDbBlockTableRecord
  2
*D10
340
0
  0
BLOCK_RECORD
  5
86D
330
1
100
AcDbSymbolTableRecord
100
AcDbBlockTableRecord
  2
*D11
340
0
  0
BLOCK_RECORD
  5
916
330
1
100
AcDbSymbolTableRecord
100
AcDbBlockTableRecord
  2
*D12
340
0
  0
BLOCK_RECORD
  5
A2C
330
1
100
AcDbSymbolTableRecord
100
AcDbBlockTableRecord
  2
*D13
340
0
  0
BLOCK_RECORD
  5
B33
330
1
100
AcDbSymbolTableRecord
100
AcDbBlockTableRecord
  2
*D14
340
0
  0
BLOCK_RECORD
  5
C31
330
1
100
AcDbSymbolTableRecord
100
AcDbBlockTableRecord
  2
*D15
340
0
  0
BLOCK_RECORD
  5
D3A
330
1
100
AcDbSymbolTableRecord
100
AcDbBlockTableRecord
  2
*D16
340
0
  0
BLOCK_RECORD
  5
E1C
330
1
100
AcDbSymbolTableRecord
100
AcDbBlockTableRecord
  2
*D17
340
0
  0
ENDTAB
  0
ENDSEC
  0
SECTION
  2
BLOCKS
  0
BLOCK
  5
6D
330
6C
100
AcDbEntity
  8
0
100
AcDbBlockBegin
  2
*Model_Space
 70
     0
 10
0.0
 20
0.0
 30
0.0
  3
*Model_Space
  1

  0
ENDBLK
  5
6E
330
6C
100
AcDbEntity
  8
0
100
AcDbBlockEnd
  0
BLOCK
  5
69
330
68
100
AcDbEntity
 67
     1
  8
0
100
AcDbBlockBegin
  2
*Paper_Space
 70
     0
 10
0.0
 20
0.0
 30
0.0
  3
*Paper_Space
  1

  0
ENDBLK
  5
6A
330
68
100
AcDbEntity
 67
     1
  8
0
100
AcDbBlockEnd
  0
BLOCK
  5
71
330
70
100
AcDbEntity
 67
     1
  8
0
100
AcDbBlockBegin
  2
*Paper_Space0
 70
     0
 10
0.0
 20
0.0
 30
0.0
  3
*Paper_Space0
  1

  0
ENDBLK
  5
72
330
70
100
AcDbEntity
 67
     1
  8
0
100
AcDbBlockEnd
  0
BLOCK
  5
EA
330
E5
100
AcDbEntity
  8
0
100
AcDbBlockBegin
  2
_Closed
 70
     0
 10
0.0
 20
0.0
 30
0.0
  3
_Closed
  1

  0
LINE
  5
E6
330
E5
100
AcDbEntity
  8
0
  6
ByBlock
 62
     0
370
    -2
100
AcDbLine
 10
-1.0
 20
0.1666666666666666
 30
0.0
 11
0.0
 21
0.0
 31
0.0
  0
LINE
  5
E7
330
E5
100
AcDbEntity
  8
0
  6
ByBlock
 62
     0
370
    -2
100
AcDbLine
 10
0.0
 20
0.0
 30
0.0
 11
-1.0
 21
-0.1666666666666666
 31
0.0
  0
LINE
  5
E8
330
E5
100
AcDbEntity
  8
0
  6
ByBlock
 62
     0
370
    -2
100
AcDbLine
 10
-1.0
 20
0.1666666666666666
 30
0.0
 11
-1.0
 21
-0.1666666666666666
 31
0.0
  0
LINE
  5
E9
330
E5
100
AcDbEntity
  8
0
  6
ByBlock
 62
     0
370
    -2
100
AcDbLine
 10
0.0
 20
0.0
 30
0.0
 11
-1.0
 21
0.0
 31
0.0
  0
ENDBLK
  5
EB
330
E5
100
AcDbEntity
  8
0
100
AcDbBlockEnd
  0
BLOCK
  5
ED
330
EC
100
AcDbEntity
  8
0
100
AcDbBlockBegin
  2
DatumFilled45
 70
     0
 10
0.0
 20
0.0
 30
0.0
  3
DatumFilled45
  1

  0
POLYLINE
  5
EF
330
EC
100
AcDbEntity
  8
0
 62
     0
100
AcDb2dPolyline
 66
     1
 10
0.0
 20
0.0
 30
0.0
 70
   128
  0
VERTEX
  5
F0
330
EF
100
AcDbEntity
  8
0
 62
     0
100
AcDbVertex
100
AcDb2dVertex
 10
0.0
 20
0.9999999999999998
 30
0.0
  0
VERTEX
  5
F1
330
EF
100
AcDbEntity
  8
0
 62
     0
100
AcDbVertex
100
AcDb2dVertex
 10
0.0
 20
-0.9999999999999998
 30
0.0
  0
VERTEX
  5
F3
330
EF
100
AcDbEntity
  8
0
 62
     0
100
AcDbVertex
100
AcDb2dVertex
 10
-0.9999999999999998
 20
0.0
 30
0.0
  0
VERTEX
  5
F4
330
EF
100
AcDbEntity
  8
0
 62
     0
100
AcDbVertex
100
AcDb2dVertex
 10
0.0
 20
0.9999999999999998
 30
0.0
  0
SEQEND
  5
F2
330
EF
100
AcDbEntity
  8
0
 62
     0
  0
SOLID
  5
F6
330
EC
100
AcDbEntity
  8
0
 62
     0
100
AcDbTrace
 10
0.0
 20
0.9999999999999998
 30
0.0
 11
0.0
 21
-0.9999999999999998
 31
0.0
 12
-0.9999999999999998
 22
0.0
 32
0.0
 13
0.0
 23
0.9999999999999998
 33
0.0
  0
ENDBLK
  5
EE
330
EC
100
AcDbEntity
  8
0
100
AcDbBlockEnd
  0
BLOCK
  5
F9
330
F8
100
AcDbEntity
  8
0
100
AcDbBlockBegin
  2
Filled-1
 70
     0
 10
0.0
 20
0.0
 30
0.0
  3
Filled-1
  1

  0
LINE
  5
FB
330
F8
100
AcDbEntity
  8
0
 62
     0
100
AcDbLine
 10
-0.9999999999999998
 20
0.0
 30
0.0
 11
0.0
 21
0.0
 31
0.0
  0
POLYLINE
  5
FC
330
F8
100
AcDbEntity
  8
0
 62
     0
100
AcDb2dPolyline
 66
     1
 10
0.0
 20
0.0
 30
0.0
 70
   128
  0
VERTEX
  5
FD
330
FC
100
AcDbEntity
  8
0
 62
     0
100
AcDbVertex
100
AcDb2dVertex
 10
-0.9999999999999998
 20
-0.0994897959183674
 30
0.0
  0
VERTEX
  5
FE
330
FC
100
AcDbEntity
  8
0
 62
     0
100
AcDbVertex
100
AcDb2dVertex
 10
0.0
 20
0.0
 30
0.0
  0
VERTEX
  5
100
330
FC
100
AcDbEntity
  8
0
 62
     0
100
AcDbVertex
100
AcDb2dVertex
 10
-0.9999999999999998
 20
0.0994897959183674
 30
0.0
  0
VERTEX
  5
101
330
FC
100
AcDbEntity
  8
0
 62
     0
100
AcDbVertex
100
AcDb2dVertex
 10
-0.9999999999999998
 20
-0.0994897959183674
 30
0.0
  0
SEQEND
  5
FF
330
FC
100
AcDbEntity
  8
0
 62
     0
  0
SOLID
  5
102
330
F8
100
AcDbEntity
  8
0
 62
     0
100
AcDbTrace
 10
-0.9999999999999998
 20
-0.0994897959183674
 30
0.0
 11
0.0
 21
0.0
 31
0.0
 12
-0.9999999999999998
 22
0.0994897959183674
 32
0.0
 13
-0.9999999999999998
 23
-0.0994897959183674
 33
0.0
  0
LINE
  5
103
330
F8
100
AcDbEntity
  8
0
 62
     0
100
AcDbLine
 10
-0.9999999999999998
 20
-0.0994897959183674
 30
0.0
 11
0.0
 21
0.0
 31
0.0
  0
LINE
  5
104
330
F8
100
AcDbEntity
  8
0
 62
     0
100
AcDbLine
 10
0.0
 20
0.0
 30
0.0
 11
-0.9999999999999998
 21
0.0994897959183674
 31
0.0
  0
LINE
  5
105
330
F8
100
AcDbEntity
  8
0
 62
     0
100
AcDbLine
 10
-0.9999999999999998
 20
0.0994897959183674
 30
0.0
 11
-0.9999999999999998
 21
-0.0994897959183674
 31
0.0
  0
ENDBLK
  5
FA
330
F8
100
AcDbEntity
  8
0
100
AcDbBlockEnd
  0
BLOCK
  5
1F3
330
1F2
100
AcDbEntity
  8
0
100
AcDbBlockBegin
  2
*D4
 70
     1
 10
0.0
 20
0.0
 30
0.0
  3
*D4
  1

  0
LINE
  5
2D2
330
1F2
100
AcDbEntity
  8
Dimension (ANSI)
100
AcDbLine
 10
18.99396883017122
 20
60.57211154843852
 30
0.0
 11
18.99396883017122
 21
68.12788582665374
 31
0.0
  0
LINE
  5
2D3
330
1F2
100
AcDbEntity
  8
Dimension (ANSI)
100
AcDbLine
 10
53.19396883017122
 20
60.57211154843852
 30
0.0
 11
53.19396883017122
 21
68.12788582665374
 31
0.0
  0
LINE
  5
2D4
330
1F2
100
AcDbEntity
  8
Dimension (ANSI)
100
AcDbLine
 10
19.6501367943118
 20
67.2945524933204
 30
0.0
 11
34.55066172368884
 21
67.2945524933204
 31
0.0
  0
LINE
  5
2D5
330
1F2
100
AcDbEntity
  8
Dimension (ANSI)
100
AcDbLine
 10
52.53780086603065
 20
67.2945524933204
 30
0.0
 11
37.63727593665361
 21
67.2945524933204
 31
0.0
  0
SOLID
  5
2D6
330
1F2
100
AcDbEntity
  8
Dimension (ANSI)
100
AcDbTrace
 10
19.6501367943118
 20
67.40391382067717
 30
0.0
 11
19.6501367943118
 21
67.18519116596365
 31
0.0
 12
18.99396883017122
 22
67.2945524933204
 32
0.0
 13
18.99396883017122
 23
67.2945524933204
 33
0.0
  0
SOLID
  5
2D7
330
1F2
100
AcDbEntity
  8
Dimension (ANSI)
100
AcDbTrace
 10
52.53780086603065
 20
67.40391382067717
 30
0.0
 11
52.53780086603065
 21
67.18519116596365
 31
0.0
 12
53.19396883017122
 22
67.2945524933204
 32
0.0
 13
53.19396883017122
 23
67.2945524933204
 33
0.0
  0
MTEXT
  5
2D8
330
1F2
100
AcDbEntity
  8
Dimension (ANSI)
100
AcDbMText
 10
34.76063547696968
 20
67.6278858316208
 30
0.0
 40
0.6666666766007742
 41
0.0
 71
     1
 72
     1
  1
\A1;34.20
  7
ROMANS
 73
     1
 44
1.0
1001
ACAD
1000
MTEXTBEGIN
1070
    73
1070
     1
1070
    44
1040
1.0
1070
    74
1070
     0
1000
MTEXTEND
  0
POINT
  5
2D9
330
1F2
100
AcDbEntity
  8
Defpoints
 62
     0
100
AcDbPoint
 10
18.99396883017122
 20
60.15544488177186
 30
0.0
  0
POINT
  5
2DA
330
1F2
100
AcDbEntity
  8
Defpoints
 62
     0
100
AcDbPoint
 10
53.19396883017122
 20
60.15544488177186
 30
0.0
  0
POINT
  5
2DB
330
1F2
100
AcDbEntity
  8
Defpoints
 62
     0
100
AcDbPoint
 10
53.19396883017122
 20
67.2945524933204
 30
0.0
  0
ENDBLK
  5
1F4
330
1F2
100
AcDbEntity
  8
0
100
AcDbBlockEnd
  0
BLOCK
  5
2DE
330
2DD
100
AcDbEntity
  8
0
100
AcDbBlockBegin
  2
*D5
 70
     1
 10
0.0
 20
0.0
 30
0.0
  3
*D5
  1

  0
LINE
  5
3BC
330
2DD
100
AcDbEntity
  8
Dimension (ANSI)
100
AcDbLine
 10
19.49396883017122
 20
61.07211154843851
 30
0.0
 11
19.49396883017122
 21
66.10820078728366
 31
0.0
  0
LINE
  5
3BD
330
2DD
100
AcDbEntity
  8
Dimension (ANSI)
100
AcDbLine
 10
52.69396883017122
 20
61.07211154843852
 30
0.0
 11
52.69396883017122
 21
66.10820078728366
 31
0.0
  0
LINE
  5
3BE
330
2DD
100
AcDbEntity
  8
Dimension (ANSI)
100
AcDbLine
 10
20.1501367943118
 20
65.27486745395034
 30
0.0
 11
33.20145535437775
 21
65.27486745395034
 31
0.0
  0
LINE
  5
3BF
330
2DD
100
AcDbEntity
  8
Dimension (ANSI)
100
AcDbLine
 10
52.03780086603066
 20
65.27486745395034
 30
0.0
 11
38.98648230596471
 21
65.27486745395034
 31
0.0
  0
SOLID
  5
3C0
330
2DD
100
AcDbEntity
  8
Dimension (ANSI)
100
AcDbTrace
 10
20.1501367943118
 20
65.3842287813071
 30
0.0
 11
20.1501367943118
 21
65.16550612659357
 31
0.0
 12
19.49396883017122
 22
65.27486745395034
 32
0.0
 13
19.49396883017122
 23
65.27486745395034
 33
0.0
  0
SOLID
  5
3C1
330
2DD
100
AcDbEntity
  8
Dimension (ANSI)
100
AcDbTrace
 10
52.03780086603066
 20
65.3842287813071
 30
0.0
 11
52.03780086603066
 21
65.16550612659357
 31
0.0
 12
52.69396883017122
 22
65.27486745395034
 32
0.0
 13
52.69396883017122
 23
65.27486745395034
 33
0.0
  0
MTEXT
  5
3C2
330
2DD
100
AcDbEntity
  8
Dimension (ANSI)
100
AcDbMText
 10
36.09396883017123
 20
65.27486745395034
 30
0.0
 40
0.6666666766007742
 41
0.0
 71
     5
 72
     1
  1
\A1;33.20{ TYP.}
  7
ROMANS
 73
     1
 44
1.0
1001
ACAD
1000
MTEXTBEGIN
1070
    73
1070
     1
1070
    44
1040
1.0
1070
    74
1070
     0
1000
MTEXTEND
  0
POINT
  5
3C3
330
2DD
100
AcDbEntity
  8
Defpoints
 62
     0
100
AcDbPoint
 10
19.49396883017122
 20
60.65544488177184
 30
0.0
  0
POINT
  5
3C4
330
2DD
100
AcDbEntity
  8
Defpoints
 62
     0
100
AcDbPoint
 10
52.69396883017122
 20
60.65544488177186
 30
0.0
  0
POINT
  5
3C5
330
2DD
100
AcDbEntity
  8
Defpoints
 62
     0
100
AcDbPoint
 10
52.69396883017122
 20
65.27486745395034
 30
0.0
  0
ENDBLK
  5
2DF
330
2DD
100
AcDbEntity
  8
0
100
AcDbBlockEnd
  0
BLOCK
  5
3C8
330
3C7
100
AcDbEntity
  8
0
100
AcDbBlockBegin
  2
*D6
 70
     1
 10
0.0
 20
0.0
 30
0.0
  3
*D6
  1

  0
LINE
  5
4BA
330
3C7
100
AcDbEntity
  8
Dimension (ANSI)
100
AcDbLine
 10
18.99396883017122
 20
60.57211154843852
 30
0.0
 11
18.99396883017122
 21
66.10820078728366
 31
0.0
  0
LINE
  5
4BB
330
3C7
100
AcDbEntity
  8
Dimension (ANSI)
100
AcDbLine
 10
19.49396883017122
 20
61.07211154843851
 30
0.0
 11
19.49396883017122
 21
66.10820078728366
 31
0.0
  0
LINE
  5
4BC
330
3C7
100
AcDbEntity
  8
Dimension (ANSI)
100
AcDbLine
 10
20.1501367943118
 20
65.27486745395034
 30
0.0
 11
20.80630475845237
 21
65.27486745395034
 31
0.0
  0
LINE
  5
4BD
330
3C7
100
AcDbEntity
  8
Dimension (ANSI)
100
AcDbLine
 10
18.33780086603065
 20
65.27486745395034
 30
0.0
 11
17.45155666153147
 21
65.27486745395034
 31
0.0
  0
SOLID
  5
4BE
330
3C7
100
AcDbEntity
  8
Dimension (ANSI)
100
AcDbTrace
 10
20.1501367943118
 20
65.3842287813071
 30
0.0
 11
20.1501367943118
 21
65.16550612659357
 31
0.0
 12
19.49396883017122
 22
65.27486745395034
 32
0.0
 13
19.49396883017122
 23
65.27486745395034
 33
0.0
  0
SOLID
  5
4BF
330
3C7
100
AcDbEntity
  8
Dimension (ANSI)
100
AcDbTrace
 10
18.33780086603065
 20
65.3842287813071
 30
0.0
 11
18.33780086603065
 21
65.16550612659357
 31
0.0
 12
18.99396883017122
 22
65.27486745395034
 32
0.0
 13
18.99396883017122
 23
65.27486745395034
 33
0.0
  0
MTEXT
  5
4C0
330
3C7
100
AcDbEntity
  8
Dimension (ANSI)
100
AcDbMText
 10
16.22570987723992
 20
65.27486745395034
 30
0.0
 40
0.6666666766007742
 41
0.0
 71
     5
 72
     1
  1
\A1;0.50{\PTYP.}
  7
ROMANS
 73
     1
 44
1.0
1001
ACAD
1000
MTEXTBEGIN
1070
    73
1070
     1
1070
    44
1040
1.0
1070
    74
1070
     0
1000
MTEXTEND
  0
POINT
  5
4C1
330
3C7
100
AcDbEntity
  8
Defpoints
 62
     0
100
AcDbPoint
 10
18.99396883017122
 20
60.15544488177186
 30
0.0
  0
POINT
  5
4C2
330
3C7
100
AcDbEntity
  8
Defpoints
 62
     0
100
AcDbPoint
 10
19.49396883017122
 20
60.65544488177184
 30
0.0
  0
POINT
  5
4C3
330
3C7
100
AcDbEntity
  8
Defpoints
 62
     0
100
AcDbPoint
 10
19.49396883017122
 20
65.27486745395034
 30
0.0
  0
ENDBLK
  5
3C9
330
3C7
100
AcDbEntity
  8
0
100
AcDbBlockEnd
  0
BLOCK
  5
4C6
330
4C5
100
AcDbEntity
  8
0
100
AcDbBlockBegin
  2
*D7
 70
     1
 10
0.0
 20
0.0
 30
0.0
  3
*D7
  1

  0
LINE
  5
5A4
330
4C5
100
AcDbEntity
  8
Dimension (ANSI)
100
AcDbLine
 10
19.07730216350455
 20
60.65544488177184
 30
0.0
 11
9.736750982402213
 21
60.65544488177185
 31
0.0
  0
LINE
  5
5A5
330
4C5
100
AcDbEntity
  8
Dimension (ANSI)
100
AcDbLine
 10
19.07730216350456
 20
14.45544488177185
 30
0.0
 11
9.736750982402202
 21
14.45544488177185
 31
0.0
  0
LINE
  5
5A6
330
4C5
100
AcDbEntity
  8
Dimension (ANSI)
100
AcDbLine
 10
10.57008431573554
 20
59.99927691763129
 30
0.0
 11
10.57008431573554
 21
38.09875197335307
 31
0.0
  0
LINE
  5
5A7
330
4C5
100
AcDbEntity
  8
Dimension (ANSI)
100
AcDbLine
 10
10.57008431573553
 20
15.11161284591243
 30
0.0
 11
10.57008431573554
 21
37.01213779019062
 31
0.0
  0
SOLID
  5
5A8
330
4C5
100
AcDbEntity
  8
Dimension (ANSI)
100
AcDbTrace
 10
10.46072298837878
 20
59.99927691763129
 30
0.0
 11
10.67944564309231
 21
59.99927691763129
 31
0.0
 12
10.57008431573555
 22
60.65544488177185
 32
0.0
 13
10.57008431573555
 23
60.65544488177185
 33
0.0
  0
SOLID
  5
5A9
330
4C5
100
AcDbEntity
  8
Dimension (ANSI)
100
AcDbTrace
 10
10.46072298837877
 20
15.11161284591243
 30
0.0
 11
10.6794456430923
 21
15.11161284591243
 31
0.0
 12
10.57008431573553
 22
14.45544488177185
 32
0.0
 13
10.57008431573553
 23
14.45544488177185
 33
0.0
  0
MTEXT
  5
5AA
330
4C5
100
AcDbEntity
  8
Dimension (ANSI)
100
AcDbMText
 10
9.236750962533987
 20
37.88877822007223
 30
0.0
 40
0.6666666766007742
 41
0.0
 71
     1
 72
     1
  1
\A1;46.20
  7
ROMANS
 73
     1
 44
1.0
1001
ACAD
1000
MTEXTBEGIN
1070
    73
1070
     1
1070
    44
1040
1.0
1070
    74
1070
     0
1000
MTEXTEND
  0
POINT
  5
5AB
330
4C5
100
AcDbEntity
  8
Defpoints
 62
     0
100
AcDbPoint
 10
19.49396883017122
 20
60.65544488177184
 30
0.0
  0
POINT
  5
5AC
330
4C5
100
AcDbEntity
  8
Defpoints
 62
     0
100
AcDbPoint
 10
19.49396883017123
 20
14.45544488177185
 30
0.0
  0
POINT
  5
5AD
330
4C5
100
AcDbEntity
  8
Defpoints
 62
     0
100
AcDbPoint
 10
10.57008431573553
 20
14.45544488177185
 30
0.0
  0
ENDBLK
  5
4C7
330
4C5
100
AcDbEntity
  8
0
100
AcDbBlockEnd
  0
BLOCK
  5
5B0
330
5AF
100
AcDbEntity
  8
0
100
AcDbBlockBegin
  2
*D8
 70
     1
 10
0.0
 20
0.0
 30
0.0
  3
*D8
  1

  0
LINE
  5
6A2
330
5AF
100
AcDbEntity
  8
Dimension (ANSI)
100
AcDbLine
 10
18.57730216350457
 20
14.95544488177185
 30
0.0
 11
15.39721439950148
 21
14.95544488177185
 31
0.0
  0
LINE
  5
6A3
330
5AF
100
AcDbEntity
  8
Dimension (ANSI)
100
AcDbLine
 10
18.57730216350455
 20
60.15544488177186
 30
0.0
 11
15.39721439950149
 21
60.15544488177186
 31
0.0
  0
LINE
  5
6A4
330
5AF
100
AcDbEntity
  8
Dimension (ANSI)
100
AcDbLine
 10
16.23054773283482
 20
15.61161284591242
 30
0.0
 11
16.23054773283482
 21
36.45658222635664
 31
0.0
  0
LINE
  5
6A5
330
5AF
100
AcDbEntity
  8
Dimension (ANSI)
100
AcDbLine
 10
16.23054773283483
 20
59.49927691763129
 30
0.0
 11
16.23054773283482
 21
38.65430753718705
 31
0.0
  0
SOLID
  5
6A6
330
5AF
100
AcDbEntity
  8
Dimension (ANSI)
100
AcDbTrace
 10
16.12118640547805
 20
15.61161284591242
 30
0.0
 11
16.33990906019158
 21
15.61161284591242
 31
0.0
 12
16.23054773283482
 22
14.95544488177185
 32
0.0
 13
16.23054773283482
 23
14.95544488177185
 33
0.0
  0
SOLID
  5
6A7
330
5AF
100
AcDbEntity
  8
Dimension (ANSI)
100
AcDbTrace
 10
16.12118640547806
 20
59.49927691763129
 30
0.0
 11
16.33990906019159
 21
59.49927691763129
 31
0.0
 12
16.23054773283483
 22
60.15544488177186
 32
0.0
 13
16.23054773283483
 23
60.15544488177186
 33
0.0
  0
MTEXT
  5
6A8
330
5AF
100
AcDbEntity
  8
Dimension (ANSI)
100
AcDbMText
 10
16.23054773283482
 20
37.55544488177185
 30
0.0
 40
0.6666666766007742
 41
0.0
 71
     5
 72
     1
  1
\A1;45.20{\PTYP.}
  7
ROMANS
 73
     1
 44
1.0
1001
ACAD
1000
MTEXTBEGIN
1070
    73
1070
     1
1070
    44
1040
1.0
1070
    74
1070
     0
1000
MTEXTEND
  0
POINT
  5
6A9
330
5AF
100
AcDbEntity
  8
Defpoints
 62
     0
100
AcDbPoint
 10
18.99396883017123
 20
14.95544488177185
 30
0.0
  0
POINT
  5
6AA
330
5AF
100
AcDbEntity
  8
Defpoints
 62
     0
100
AcDbPoint
 10
18.99396883017122
 20
60.15544488177186
 30
0.0
  0
POINT
  5
6AB
330
5AF
100
AcDbEntity
  8
Defpoints
 62
     0
100
AcDbPoint
 10
16.23054773283483
 20
60.15544488177186
 30
0.0
  0
ENDBLK
  5
5B1
330
5AF
100
AcDbEntity
  8
0
100
AcDbBlockEnd
  0
BLOCK
  5
6AE
330
6AD
100
AcDbEntity
  8
0
100
AcDbBlockBegin
  2
*D9
 70
     1
 10
0.0
 20
0.0
 30
0.0
  3
*D9
  1

  0
LINE
  5
7B7
330
6AD
100
AcDbEntity
  8
Dimension (ANSI)
100
AcDbLine
 10
19.07730216350455
 20
60.65544488177184
 30
0.0
 11
13.51519965106938
 21
60.65544488177185
 31
0.0
  0
LINE
  5
7B8
330
6AD
100
AcDbEntity
  8
Dimension (ANSI)
100
AcDbLine
 10
18.57730216350455
 20
60.15544488177186
 30
0.0
 11
13.51519965106938
 21
60.15544488177186
 31
0.0
  0
LINE
  5
7B9
330
6AD
100
AcDbEntity
  8
Dimension (ANSI)
100
AcDbLine
 10
14.34853298440271
 20
59.49927691763129
 30
0.0
 11
14.34853298440271
 21
58.84310895349071
 31
0.0
  0
LINE
  5
7BA
330
6AD
100
AcDbEntity
  8
Dimension (ANSI)
100
AcDbLine
 10
14.34853298440271
 20
61.31161284591243
 30
0.0
 11
14.34853298440271
 21
62.91579614800014
 31
0.0
  0
LINE
  5
7BB
330
6AD
100
AcDbEntity
  8
Dimension (ANSI)
100
AcDbLine
 10
14.34853298440271
 20
62.91579614800014
 30
0.0
 11
15.00470094854328
 21
62.91579614800014
 31
0.0
  0
SOLID
  5
7BC
330
6AD
100
AcDbEntity
  8
Dimension (ANSI)
100
AcDbTrace
 10
14.23917165704595
 20
59.49927691763129
 30
0.0
 11
14.45789431175947
 21
59.49927691763129
 31
0.0
 12
14.34853298440271
 22
60.15544488177186
 32
0.0
 13
14.34853298440271
 23
60.15544488177186
 33
0.0
  0
SOLID
  5
7BD
330
6AD
100
AcDbEntity
  8
Dimension (ANSI)
100
AcDbTrace
 10
14.23917165704595
 20
61.31161284591243
 30
0.0
 11
14.45789431175947
 21
61.31161284591243
 31
0.0
 12
14.34853298440271
 22
60.65544488177185
 32
0.0
 13
14.34853298440271
 23
60.65544488177185
 33
0.0
  0
MTEXT
  5
7BE
330
6AD
100
AcDbEntity
  8
Dimension (ANSI)
100
AcDbMText
 10
16.23054773283482
 20
62.91579614800014
 30
0.0
 40
0.6666666766007742
 41
0.0
 71
     5
 72
     1
  1
\A1;0.50{\PTYP.}
  7
ROMANS
 73
     1
 44
1.0
1001
ACAD
1000
MTEXTBEGIN
1070
    73
1070
     1
1070
    44
1040
1.0
1070
    74
1070
     0
1000
MTEXTEND
  0
POINT
  5
7BF
330
6AD
100
AcDbEntity
  8
Defpoints
 62
     0
100
AcDbPoint
 10
19.49396883017122
 20
60.65544488177184
 30
0.0
  0
POINT
  5
7C0
330
6AD
100
AcDbEntity
  8
Defpoints
 62
     0
100
AcDbPoint
 10
18.99396883017122
 20
60.15544488177186
 30
0.0
  0
POINT
  5
7C1
330
6AD
100
AcDbEntity
  8
Defpoints
 62
     0
100
AcDbPoint
 10
14.34853298440271
 20
60.15544488177186
 30
0.0
  0
ENDBLK
  5
6AF
330
6AD
100
AcDbEntity
  8
0
100
AcDbBlockEnd
  0
BLOCK
  5
7C4
330
7C3
100
AcDbEntity
  8
0
100
AcDbBlockBegin
  2
*D10
 70
     1
 10
0.0
 20
0.0
 30
0.0
  3
*D10
  1

  0
LINE
  5
864
330
7C3
100
AcDbEntity
  8
Dimension (ANSI)
100
AcDbLine
 10
23.07298210043425
 20
10.66997090429993
 30
0.0
 11
21.99973539005461
 21
10.66997090429993
 31
0.0
  0
LINE
  5
865
330
7C3
100
AcDbEntity
  8
Dimension (ANSI)
100
AcDbLine
 10
21.99973539005461
 20
10.66997090429993
 30
0.0
 11
19.96705281224166
 21
14.19068040473057
 31
0.0
  0
MTEXT
  5
866
102
{ACAD_XDICTIONARY
360
F66
102
}
330
7C3
100
AcDbEntity
  8
Dimension (ANSI)
100
AcDbMText
 10
23.28295585371509
 20
11.17790741980528
 30
0.0
 40
0.6666666766007742
 41
0.0
 71
     1
 72
     1
  1
\A1;\U+22050.50{ TYP. (8 PL.)}
  7
ROMANS
 73
     1
 44
1.0
1001
ACAD
1000
MTEXTBEGIN
1070
    73
1070
     1
1070
    44
1040
1.0
1070
    74
1070
     0
1000
MTEXTEND
  0
SOLID
  5
867
330
7C3
100
AcDbEntity
  8
Dimension (ANSI)
100
AcDbTrace
 10
20.06176249992419
 20
14.24536106840896
 30
0.0
 11
19.87234312455913
 21
14.13599974105217
 31
0.0
 12
19.63896883017127
 22
14.75893853082576
 32
0.0
 13
19.63896883017127
 23
14.75893853082576
 33
0.0
  0
LINE
  5
868
330
7C3
100
AcDbEntity
  8
Dimension (ANSI)
100
AcDbLine
 10
18.91396883017123
 20
14.97544488177185
 30
0.0
 11
20.11396883017123
 21
14.97544488177185
 31
0.0
  0
LINE
  5
869
330
7C3
100
AcDbEntity
  8
Dimension (ANSI)
100
AcDbLine
 10
19.51396883017123
 20
14.37544488177185
 30
0.0
 11
19.51396883017123
 21
15.57544488177185
 31
0.0
  0
POINT
  5
86A
330
7C3
100
AcDbEntity
  8
Defpoints
 62
     0
100
AcDbPoint
 10
19.63896883017127
 20
14.75893853082576
 30
0.0
  0
POINT
  5
86B
330
7C3
100
AcDbEntity
  8
Defpoints
 62
     0
100
AcDbPoint
 10
19.38896883017119
 20
15.19195123271794
 30
0.0
  0
ENDBLK
  5
7C5
330
7C3
100
AcDbEntity
  8
0
100
AcDbBlockEnd
  0
BLOCK
  5
86E
330
86D
100
AcDbEntity
  8
0
100
AcDbBlockBegin
  2
*D11
 70
     1
 10
0.0
 20
0.0
 30
0.0
  3
*D11
  1

  0
LINE
  5
90D
330
86D
100
AcDbEntity
  8
Dimension (ANSI)
100
AcDbLine
 10
23.0647191248155
 20
12.30546827849146
 30
0.0
 11
21.48849324269824
 21
12.30546827849146
 31
0.0
  0
LINE
  5
90E
330
86D
100
AcDbEntity
  8
Dimension (ANSI)
100
AcDbLine
 10
21.48849324269824
 20
12.30546827849146
 30
0.0
 11
19.92017781224166
 21
15.02187028633535
 31
0.0
  0
MTEXT
  5
90F
102
{ACAD_XDICTIONARY
360
F68
102
}
330
86D
100
AcDbEntity
  8
Dimension (ANSI)
100
AcDbMText
 10
23.27469287809634
 20
12.81340479399681
 30
0.0
 40
0.6666666766007742
 41
0.0
 71
     1
 72
     1
  1
\A1;\U+22050.31{ TYP. (4 PL.)}
  7
ROMANS
 73
     1
 44
1.0
1001
ACAD
1000
MTEXTBEGIN
1070
    73
1070
     1
1070
    44
1040
1.0
1070
    74
1070
     0
1000
MTEXTEND
  0
SOLID
  5
910
330
86D
100
AcDbEntity
  8
Dimension (ANSI)
100
AcDbTrace
 10
20.01488749992419
 20
15.07655095001376
 30
0.0
 11
19.82546812455912
 21
14.96718962265696
 31
0.0
 12
19.59209383017126
 22
15.59012841243055
 32
0.0
 13
19.59209383017126
 23
15.59012841243055
 33
0.0
  0
LINE
  5
911
330
86D
100
AcDbEntity
  8
Dimension (ANSI)
100
AcDbLine
 10
18.91396883017124
 20
15.72544488177185
 30
0.0
 11
20.11396883017124
 21
15.72544488177186
 31
0.0
  0
LINE
  5
912
330
86D
100
AcDbEntity
  8
Dimension (ANSI)
100
AcDbLine
 10
19.51396883017124
 20
15.12544488177186
 30
0.0
 11
19.51396883017124
 21
16.32544488177186
 31
0.0
  0
POINT
  5
913
330
86D
100
AcDbEntity
  8
Defpoints
 62
     0
100
AcDbPoint
 10
19.59209383017126
 20
15.59012841243055
 30
0.0
  0
POINT
  5
914
330
86D
100
AcDbEntity
  8
Defpoints
 62
     0
100
AcDbPoint
 10
19.43584383017121
 20
15.86076135111316
 30
0.0
  0
ENDBLK
  5
86F
330
86D
100
AcDbEntity
  8
0
100
AcDbBlockEnd
  0
BLOCK
  5
917
330
916
100
AcDbEntity
  8
0
100
AcDbBlockBegin
  2
*D12
 70
     1
 10
0.0
 20
0.0
 30
0.0
  3
*D12
  1

  0
LINE
  5
A20
330
916
100
AcDbEntity
  8
Dimension (ANSI)
100
AcDbLine
 10
53.11063549683789
 20
14.45544488177185
 30
0.0
 11
59.60879197755349
 21
14.45544488177185
 31
0.0
  0
LINE
  5
A21
330
916
100
AcDbEntity
  8
Dimension (ANSI)
100
AcDbLine
 10
53.0906354968379
 20
14.97544488177185
 30
0.0
 11
59.60879197755349
 21
14.97544488177185
 31
0.0
  0
LINE
  5
A22
330
916
100
AcDbEntity
  8
Dimension (ANSI)
100
AcDbLine
 10
58.77545864422015
 20
15.63161284591243
 30
0.0
 11
58.77545864422016
 21
16.287780810053
 31
0.0
  0
LINE
  5
A23
330
916
100
AcDbEntity
  8
Dimension (ANSI)
100
AcDbLine
 10
58.77545864422015
 20
13.79927691763128
 30
0.0
 11
58.77545864422015
 21
11.93251372437567
 31
0.0
  0
LINE
  5
A24
330
916
100
AcDbEntity
  8
Dimension (ANSI)
100
AcDbLine
 10
58.77545864422015
 20
11.93251372437567
 30
0.0
 11
58.11929068007958
 21
11.93251372437567
 31
0.0
  0
SOLID
  5
A25
330
916
100
AcDbEntity
  8
Dimension (ANSI)
100
AcDbTrace
 10
58.66609731686338
 20
15.63161284591243
 30
0.0
 11
58.88481997157692
 21
15.63161284591243
 31
0.0
 12
58.77545864422015
 22
14.97544488177185
 32
0.0
 13
58.77545864422015
 23
14.97544488177185
 33
0.0
  0
SOLID
  5
A26
330
916
100
AcDbEntity
  8
Dimension (ANSI)
100
AcDbTrace
 10
58.66609731686338
 20
13.79927691763128
 30
0.0
 11
58.88481997157692
 21
13.79927691763128
 31
0.0
 12
58.77545864422015
 22
14.45544488177185
 32
0.0
 13
58.77545864422015
 23
14.45544488177185
 33
0.0
  0
MTEXT
  5
A27
330
916
100
AcDbEntity
  8
Dimension (ANSI)
100
AcDbMText
 10
56.89344389578803
 20
11.93251372437567
 30
0.0
 40
0.6666666766007742
 41
0.0
 71
     5
 72
     1
  1
\A1;0.52{ \PTYP.}
  7
ROMANS
 73
     1
 44
1.0
1001
ACAD
1000
MTEXTBEGIN
1070
    73
1070
     1
1070
    44
1040
1.0
1070
    74
1070
     0
1000
MTEXTEND
  0
POINT
  5
A28
330
916
100
AcDbEntity
  8
Defpoints
 62
     0
100
AcDbPoint
 10
52.69396883017122
 20
14.45544488177185
 30
0.0
  0
POINT
  5
A29
330
916
100
AcDbEntity
  8
Defpoints
 62
     0
100
AcDbPoint
 10
52.67396883017124
 20
14.97544488177185
 30
0.0
  0
POINT
  5
A2A
330
916
100
AcDbEntity
  8
Defpoints
 62
     0
100
AcDbPoint
 10
58.77545864422015
 20
14.97544488177185
 30
0.0
  0
ENDBLK
  5
918
330
916
100
AcDbEntity
  8
0
100
AcDbBlockEnd
  0
BLOCK
  5
A2D
330
A2C
100
AcDbEntity
  8
0
100
AcDbBlockBegin
  2
*D13
 70
     1
 10
0.0
 20
0.0
 30
0.0
  3
*D13
  1

  0
LINE
  5
B29
330
A2C
100
AcDbEntity
  8
Dimension (ANSI)
100
AcDbLine
 10
48.26867549521651
 20
16.38161284591243
 30
0.0
 11
48.26867549521651
 21
17.037780810053
 31
0.0
  0
LINE
  5
B2A
330
A2C
100
AcDbEntity
  8
Dimension (ANSI)
100
AcDbLine
 10
48.2686754952165
 20
13.79927691763128
 30
0.0
 11
48.2686754952165
 21
12.07743915868219
 31
0.0
  0
LINE
  5
B2B
330
A2C
100
AcDbEntity
  8
Dimension (ANSI)
100
AcDbLine
 10
48.2686754952165
 20
12.07743915868219
 30
0.0
 11
47.61250753107592
 21
12.07743915868219
 31
0.0
  0
SOLID
  5
B2C
330
A2C
100
AcDbEntity
  8
Dimension (ANSI)
100
AcDbTrace
 10
48.15931416785974
 20
16.38161284591243
 30
0.0
 11
48.37803682257327
 21
16.38161284591243
 31
0.0
 12
48.2686754952165
 22
15.72544488177185
 32
0.0
 13
48.2686754952165
 23
15.72544488177185
 33
0.0
  0
SOLID
  5
B2D
330
A2C
100
AcDbEntity
  8
Dimension (ANSI)
100
AcDbTrace
 10
48.15931416785973
 20
13.79927691763128
 30
0.0
 11
48.37803682257327
 21
13.79927691763128
 31
0.0
 12
48.2686754952165
 22
14.45544488177185
 32
0.0
 13
48.2686754952165
 23
14.45544488177185
 33
0.0
  0
MTEXT
  5
B2E
330
A2C
100
AcDbEntity
  8
Dimension (ANSI)
100
AcDbMText
 10
46.434279795113
 20
12.0774391586822
 30
0.0
 40
0.6666666766007742
 41
0.0
 71
     5
 72
     1
  1
\A1;1.27{\PTYP.}
  7
ROMANS
 73
     1
 44
1.0
1001
ACAD
1000
MTEXTBEGIN
1070
    73
1070
     1
1070
    44
1040
1.0
1070
    74
1070
     0
1000
MTEXTEND
  0
POINT
  5
B2F
330
A2C
100
AcDbEntity
  8
Defpoints
 62
     0
100
AcDbPoint
 10
52.69396883017122
 20
14.45544488177185
 30
0.0
  0
POINT
  5
B30
330
A2C
100
AcDbEntity
  8
Defpoints
 62
     0
100
AcDbPoint
 10
52.67396883017124
 20
15.72544488177185
 30
0.0
  0
POINT
  5
B31
330
A2C
100
AcDbEntity
  8
Defpoints
 62
     0
100
AcDbPoint
 10
48.2686754952165
 20
15.72544488177185
 30
0.0
  0
ENDBLK
  5
A2E
330
A2C
100
AcDbEntity
  8
0
100
AcDbBlockEnd
  0
BLOCK
  5
B34
330
B33
100
AcDbEntity
  8
0
100
AcDbBlockBegin
  2
*D14
 70
     1
 10
0.0
 20
0.0
 30
0.0
  3
*D14
  1

  0
LINE
  5
C26
330
B33
100
AcDbEntity
  8
Dimension (ANSI)
100
AcDbLine
 10
52.67396883017124
 20
15.30877821510518
 30
0.0
 11
52.67396883017124
 21
11.15715055066625
 31
0.0
  0
LINE
  5
C27
330
B33
100
AcDbEntity
  8
Dimension (ANSI)
100
AcDbLine
 10
53.19396883017123
 20
14.53877821510518
 30
0.0
 11
53.19396883017123
 21
11.15715055066625
 31
0.0
  0
LINE
  5
C28
330
B33
100
AcDbEntity
  8
Dimension (ANSI)
100
AcDbLine
 10
53.8501367943118
 20
11.99048388399959
 30
0.0
 11
54.50630475845238
 21
11.99048388399959
 31
0.0
  0
LINE
  5
C29
330
B33
100
AcDbEntity
  8
Dimension (ANSI)
100
AcDbLine
 10
52.01780086603066
 20
11.99048388399959
 30
0.0
 11
51.36163290189008
 21
11.99048388399959
 31
0.0
  0
SOLID
  5
C2A
330
B33
100
AcDbEntity
  8
Dimension (ANSI)
100
AcDbTrace
 10
53.8501367943118
 20
12.09984521135635
 30
0.0
 11
53.8501367943118
 21
11.88112255664282
 31
0.0
 12
53.19396883017123
 22
11.99048388399959
 32
0.0
 13
53.19396883017123
 23
11.99048388399959
 33
0.0
  0
SOLID
  5
C2B
330
B33
100
AcDbEntity
  8
Dimension (ANSI)
100
AcDbTrace
 10
52.01780086603066
 20
12.09984521135635
 30
0.0
 11
52.01780086603066
 21
11.88112255664282
 31
0.0
 12
52.67396883017124
 22
11.99048388399959
 32
0.0
 13
52.67396883017124
 23
11.99048388399959
 33
0.0
  0
MTEXT
  5
C2C
330
B33
100
AcDbEntity
  8
Dimension (ANSI)
100
AcDbMText
 10
50.13578611759854
 20
11.99048388399959
 30
0.0
 40
0.6666666766007742
 41
0.0
 71
     5
 72
     1
  1
\A1;0.52{\PTYP.}
  7
ROMANS
 73
     1
 44
1.0
1001
ACAD
1000
MTEXTBEGIN
1070
    73
1070
     1
1070
    44
1040
1.0
1070
    74
1070
     0
1000
MTEXTEND
  0
POINT
  5
C2D
330
B33
100
AcDbEntity
  8
Defpoints
 62
     0
100
AcDbPoint
 10
52.67396883017124
 20
15.72544488177185
 30
0.0
  0
POINT
  5
C2E
330
B33
100
AcDbEntity
  8
Defpoints
 62
     0
100
AcDbPoint
 10
53.19396883017123
 20
14.95544488177185
 30
0.0
  0
POINT
  5
C2F
330
B33
100
AcDbEntity
  8
Defpoints
 62
     0
100
AcDbPoint
 10
53.19396883017123
 20
11.99048388399959
 30
0.0
  0
ENDBLK
  5
B35
330
B33
100
AcDbEntity
  8
0
100
AcDbBlockEnd
  0
BLOCK
  5
C32
330
C31
100
AcDbEntity
  8
0
100
AcDbBlockBegin
  2
*D15
 70
     1
 10
0.0
 20
0.0
 30
0.0
  3
*D15
  1

  0
LINE
  5
D21
330
C31
100
AcDbEntity
  8
Dimension (ANSI)
100
AcDbLine
 10
70.75168639460732
 20
59.73340325385888
 30
0.0
 11
70.09551843046676
 21
59.73340325385888
 31
0.0
  0
LINE
  5
D22
330
C31
100
AcDbEntity
  8
Dimension (ANSI)
100
AcDbLine
 10
72.15777232288847
 20
59.73340325385888
 30
0.0
 11
73.20057082466461
 21
59.73340325385888
 31
0.0
  0
SOLID
  5
D23
330
C31
100
AcDbEntity
  8
Dimension (ANSI)
100
AcDbTrace
 10
70.75168639460732
 20
59.84276458121565
 30
0.0
 11
70.75168639460732
 21
59.62404192650211
 31
0.0
 12
71.40785435874789
 22
59.73340325385888
 32
0.0
 13
71.40785435874789
 23
59.73340325385888
 33
0.0
  0
SOLID
  5
D24
330
C31
100
AcDbEntity
  8
Dimension (ANSI)
100
AcDbTrace
 10
72.15777232288847
 20
59.84276458121565
 30
0.0
 11
72.15777232288847
 21
59.62404192650211
 31
0.0
 12
71.5016043587479
 22
59.73340325385888
 32
0.0
 13
71.5016043587479
 23
59.73340325385888
 33
0.0
  0
MTEXT
  5
D25
330
C31
100
AcDbEntity
  8
Dimension (ANSI)
100
AcDbMText
 10
75.15657634999509
 20
59.73340325385888
 30
0.0
 40
0.6666666766007742
 41
0.0
 71
     5
 72
     1
  1
\A1;(0.094){\P12 GA.\PGALV.}
  7
ROMANS
 73
     1
 44
1.0
1001
ACAD
1000
MTEXTBEGIN
1070
    73
1070
     1
1070
    44
1040
1.0
1070
    74
1070
     0
1000
MTEXTEND
  0
POINT
  5
D26
330
C31
100
AcDbEntity
  8
Defpoints
 62
     0
100
AcDbPoint
 10
71.5016043587479
 20
40.66698674994309
 30
0.0
  0
POINT
  5
D27
330
C31
100
AcDbEntity
  8
Defpoints
 62
     0
100
AcDbPoint
 10
71.40785435874789
 20
40.66698674994309
 30
0.0
  0
POINT
  5
D28
330
C31
100
AcDbEntity
  8
Defpoints
 62
     0
100
AcDbPoint
 10
71.40785435874789
 20
59.73340325385888
 30
0.0
  0
ENDBLK
  5
C33
330
C31
100
AcDbEntity
  8
0
100
AcDbBlockEnd
  0
BLOCK
  5
D3B
330
D3A
100
AcDbEntity
  8
0
100
AcDbBlockBegin
  2
*D16
 70
     1
 10
0.0
 20
0.0
 30
0.0
  3
*D16
  1

  0
LINE
  5
E10
330
D3A
100
AcDbEntity
  8
Dimension (ANSI)
100
AcDbLine
 10
70.75168639460732
 20
52.23035819996487
 30
0.0
 11
70.09551843046676
 21
52.23035819996487
 31
0.0
  0
LINE
  5
E11
330
D3A
100
AcDbEntity
  8
Dimension (ANSI)
100
AcDbLine
 10
72.83802232288848
 20
52.23035819996487
 30
0.0
 11
73.58598326635629
 21
52.23035819996487
 31
0.0
  0
SOLID
  5
E12
330
D3A
100
AcDbEntity
  8
Dimension (ANSI)
100
AcDbTrace
 10
70.75168639460732
 20
52.33971952732163
 30
0.0
 11
70.75168639460732
 21
52.1209968726081
 31
0.0
 12
71.40785435874789
 22
52.23035819996487
 32
0.0
 13
71.40785435874789
 23
52.23035819996487
 33
0.0
  0
SOLID
  5
E13
330
D3A
100
AcDbEntity
  8
Dimension (ANSI)
100
AcDbTrace
 10
72.83802232288848
 20
52.33971952732163
 30
0.0
 11
72.83802232288848
 21
52.1209968726081
 31
0.0
 12
72.1818543587479
 22
52.23035819996487
 32
0.0
 13
72.1818543587479
 23
52.23035819996487
 33
0.0
  0
MTEXT
  5
E14
330
D3A
100
AcDbEntity
  8
Dimension (ANSI)
100
AcDbMText
 10
73.79595701963714
 20
52.56369153826526
 30
0.0
 40
0.6666666766007742
 41
0.0
 71
     1
 72
     1
  1
\A1;0.77
  7
ROMANS
 73
     1
 44
1.0
1001
ACAD
1000
MTEXTBEGIN
1070
    73
1070
     1
1070
    44
1040
1.0
1070
    74
1070
     0
1000
MTEXTEND
  0
POINT
  5
E15
330
D3A
100
AcDbEntity
  8
Defpoints
 62
     0
100
AcDbPoint
 10
71.40785435874789
 20
60.15544488177186
 30
0.0
  0
POINT
  5
E16
330
D3A
100
AcDbEntity
  8
Defpoints
 62
     0
100
AcDbPoint
 10
72.1818543587479
 20
58.93744488177185
 30
0.0
  0
POINT
  5
E17
330
D3A
100
AcDbEntity
  8
Defpoints
 62
     0
100
AcDbPoint
 10
72.1818543587479
 20
52.23035819996487
 30
0.0
  0
ENDBLK
  5
D3C
330
D3A
100
AcDbEntity
  8
0
100
AcDbBlockEnd
  0
BLOCK
  5
E1D
330
E1C
100
AcDbEntity
  8
0
100
AcDbBlockBegin
  2
*D17
 70
     1
 10
0.0
 20
0.0
 30
0.0
  3
*D17
  1

  0
LINE
  5
F0F
330
E1C
100
AcDbEntity
  8
Dimension (ANSI)
100
AcDbLine
 10
53.0906354968379
 20
37.55544488177186
 30
0.0
 11
57.72677722912137
 21
37.55544488177186
 31
0.0
  0
LINE
  5
F10
330
E1C
100
AcDbEntity
  8
Dimension (ANSI)
100
AcDbLine
 10
53.0906354968379
 20
14.97544488177185
 30
0.0
 11
57.72677722912137
 21
14.97544488177185
 31
0.0
  0
LINE
  5
F11
330
E1C
100
AcDbEntity
  8
Dimension (ANSI)
100
AcDbLine
 10
56.89344389578804
 20
36.89927691763128
 30
0.0
 11
56.89344389578804
 21
27.36430753718706
 31
0.0
  0
LINE
  5
F12
330
E1C
100
AcDbEntity
  8
Dimension (ANSI)
100
AcDbLine
 10
56.89344389578803
 20
15.63161284591243
 30
0.0
 11
56.89344389578804
 21
25.16658222635664
 31
0.0
  0
SOLID
  5
F13
330
E1C
100
AcDbEntity
  8
Dimension (ANSI)
100
AcDbTrace
 10
56.78408256843127
 20
36.89927691763128
 30
0.0
 11
57.0028052231448
 21
36.89927691763128
 31
0.0
 12
56.89344389578804
 22
37.55544488177186
 32
0.0
 13
56.89344389578804
 23
37.55544488177186
 33
0.0
  0
SOLID
  5
F14
330
E1C
100
AcDbEntity
  8
Dimension (ANSI)
100
AcDbTrace
 10
56.78408256843127
 20
15.63161284591243
 30
0.0
 11
57.00280522314479
 21
15.63161284591243
 31
0.0
 12
56.89344389578803
 22
14.97544488177185
 32
0.0
 13
56.89344389578803
 23
14.97544488177185
 33
0.0
  0
MTEXT
  5
F15
330
E1C
100
AcDbEntity
  8
Dimension (ANSI)
100
AcDbMText
 10
56.89344389578803
 20
26.26544488177186
 30
0.0
 40
0.6666666766007742
 41
0.0
 71
     5
 72
     1
  1
\A1;22.58{\PTYP.}
  7
ROMANS
 73
     1
 44
1.0
1001
ACAD
1000
MTEXTBEGIN
1070
    73
1070
     1
1070
    44
1040
1.0
1070
    74
1070
     0
1000
MTEXTEND
  0
POINT
  5
F16
330
E1C
100
AcDbEntity
  8
Defpoints
 62
     0
100
AcDbPoint
 10
52.67396883017124
 20
37.55544488177186
 30
0.0
  0
POINT
  5
F17
330
E1C
100
AcDbEntity
  8
Defpoints
 62
     0
100
AcDbPoint
 10
52.67396883017124
 20
14.97544488177185
 30
0.0
  0
POINT
  5
F18
330
E1C
100
AcDbEntity
  8
Defpoints
 62
     0
100
AcDbPoint
 10
56.89344389578803
 20
14.97544488177185
 30
0.0
  0
ENDBLK
  5
E1E
330
E1C
100
AcDbEntity
  8
0
100
AcDbBlockEnd
  0
ENDSEC
  0
SECTION
  2
ENTITIES
  0
CIRCLE
  5
107
330
6C
100
AcDbEntity
  8
Visible (ANSI)
100
AcDbCircle
 10
52.67396883017124
 20
37.55544488177186
 30
0.0
 40
0.2500000000000006
  0
CIRCLE
  5
108
330
6C
100
AcDbEntity
  8
Visible (ANSI)
100
AcDbCircle
 10
19.51396883017124
 20
37.55544488177185
 30
0.0
 40
0.2500000000000006
  0
CIRCLE
  5
109
330
6C
100
AcDbEntity
  8
Visible (ANSI)
100
AcDbCircle
 10
36.09396883017122
 20
14.97544488177185
 30
0.0
 40
0.2499999999999999
  0
CIRCLE
  5
10A
330
6C
100
AcDbEntity
  8
Visible (ANSI)
100
AcDbCircle
 10
36.09396883017122
 20
60.13544488177185
 30
0.0
 40
0.2499999999999999
  0
LINE
  5
10B
330
6C
100
AcDbEntity
  8
Visible (ANSI)
100
AcDbLine
 10
20.71196883017124
 20
14.45544488177185
 30
0.0
 11
51.47596883017124
 21
14.45544488177185
 31
0.0
  0
LINE
  5
10C
330
6C
100
AcDbEntity
  8
Visible (ANSI)
100
AcDbLine
 10
20.71196883017124
 20
14.45544488177185
 30
0.0
 11
20.71196883017124
 21
14.56479488177185
 31
0.0
  0
LINE
  5
10D
330
6C
100
AcDbEntity
  8
Visible (ANSI)
100
AcDbLine
 10
51.47596883017124
 20
14.45544488177185
 30
0.0
 11
51.47596883017124
 21
14.56479488177185
 31
0.0
  0
LINE
  5
10E
330
6C
100
AcDbEntity
  8
Visible (ANSI)
100
AcDbLine
 10
51.47616883017123
 20
14.56499488177185
 30
0.0
 11
51.47616883017123
 21
14.45544488177185
 31
0.0
  0
LINE
  5
10F
330
6C
100
AcDbEntity
  8
Visible (ANSI)
100
AcDbLine
 10
51.47596883017124
 20
14.56499488177185
 30
0.0
 11
51.47616883017123
 21
14.56499488177185
 31
0.0
  0
LINE
  5
110
330
6C
100
AcDbEntity
  8
Visible (ANSI)
100
AcDbLine
 10
20.71176883017124
 20
14.56499488177185
 30
0.0
 11
20.71196883017124
 21
14.56499488177185
 31
0.0
  0
LINE
  5
111
330
6C
100
AcDbEntity
  8
Visible (ANSI)
100
AcDbLine
 10
20.71176883017124
 20
14.45544488177185
 30
0.0
 11
20.71176883017124
 21
14.56499488177185
 31
0.0
  0
LINE
  5
112
330
6C
100
AcDbEntity
  8
Hidden (ANSI)
 48
1.063100457191467
100
AcDbLine
 10
51.47596883017124
 20
14.54919488177185
 30
0.0
 11
20.71196883017123
 21
14.54919488177185
 31
0.0
  0
LINE
  5
113
330
6C
100
AcDbEntity
  8
Visible (ANSI)
100
AcDbLine
 10
20.71196883017124
 20
14.56499488177185
 30
0.0
 11
20.71196883017124
 21
14.56479488177185
 31
0.0
  0
LINE
  5
114
330
6C
100
AcDbEntity
  8
Visible (ANSI)
100
AcDbLine
 10
51.47596883017124
 20
14.56479488177185
 30
0.0
 11
51.47596883017124
 21
14.56499488177185
 31
0.0
  0
LINE
  5
115
330
6C
100
AcDbEntity
  8
Visible (ANSI)
100
AcDbLine
 10
20.71176883017124
 20
14.45544488177185
 30
0.0
 11
19.49396883017123
 21
14.45544488177185
 31
0.0
  0
LINE
  5
116
330
6C
100
AcDbEntity
  8
Visible (ANSI)
100
AcDbLine
 10
52.69396883017122
 20
14.45544488177185
 30
0.0
 11
51.47616883017123
 21
14.45544488177185
 31
0.0
  0
LINE
  5
117
330
6C
100
AcDbEntity
  8
Visible (ANSI)
100
AcDbLine
 10
53.19396883017123
 20
16.17324488177185
 30
0.0
 11
53.19396883017123
 21
14.95544488177185
 31
0.0
  0
LINE
  5
118
330
6C
100
AcDbEntity
  8
Visible (ANSI)
100
AcDbLine
 10
53.19396883017123
 20
60.15544488177186
 30
0.0
 11
53.19396883017123
 21
58.93764488177186
 31
0.0
  0
LINE
  5
119
330
6C
100
AcDbEntity
  8
Visible (ANSI)
100
AcDbLine
 10
51.47616883017122
 20
60.65544488177186
 30
0.0
 11
52.69396883017122
 21
60.65544488177186
 31
0.0
  0
LINE
  5
11A
330
6C
100
AcDbEntity
  8
Visible (ANSI)
100
AcDbLine
 10
19.49396883017122
 20
60.65544488177186
 30
0.0
 11
20.71176883017122
 21
60.65544488177186
 31
0.0
  0
LINE
  5
11B
330
6C
100
AcDbEntity
  8
Visible (ANSI)
100
AcDbLine
 10
18.99396883017122
 20
58.93764488177184
 30
0.0
 11
18.99396883017122
 21
60.15544488177186
 31
0.0
  0
LINE
  5
11C
330
6C
100
AcDbEntity
  8
Visible (ANSI)
100
AcDbLine
 10
18.99396883017123
 20
14.95544488177185
 30
0.0
 11
18.99396883017123
 21
16.17324488177185
 31
0.0
  0
LINE
  5
11D
330
6C
100
AcDbEntity
  8
Visible (ANSI)
100
AcDbLine
 10
53.19396883017123
 20
14.95544488177185
 30
0.0
 11
52.69396883017122
 21
14.45544488177185
 31
0.0
  0
LINE
  5
11E
330
6C
100
AcDbEntity
  8
Visible (ANSI)
100
AcDbLine
 10
53.19396883017123
 20
16.17324488177185
 30
0.0
 11
53.08441883017124
 21
16.17324488177185
 31
0.0
  0
LINE
  5
11F
330
6C
100
AcDbEntity
  8
Visible (ANSI)
100
AcDbLine
 10
53.08441883017124
 20
16.17324488177185
 30
0.0
 11
53.08441883017124
 21
16.17344488177185
 31
0.0
  0
LINE
  5
120
330
6C
100
AcDbEntity
  8
Visible (ANSI)
100
AcDbLine
 10
53.08441883017124
 20
58.93744488177185
 30
0.0
 11
53.08441883017124
 21
58.93764488177186
 31
0.0
  0
LINE
  5
121
330
6C
100
AcDbEntity
  8
Visible (ANSI)
100
AcDbLine
 10
53.08441883017124
 20
58.93764488177186
 30
0.0
 11
53.19396883017123
 21
58.93764488177186
 31
0.0
  0
LINE
  5
122
330
6C
100
AcDbEntity
  8
Visible (ANSI)
100
AcDbLine
 10
53.19396883017122
 20
16.17344488177185
 30
0.0
 11
53.19396883017121
 21
58.93744488177185
 31
0.0
  0
LINE
  5
123
330
6C
100
AcDbEntity
  8
Visible (ANSI)
100
AcDbLine
 10
53.19396883017122
 20
16.17344488177185
 30
0.0
 11
53.08461883017124
 21
16.17344488177185
 31
0.0
  0
LINE
  5
124
330
6C
100
AcDbEntity
  8
Visible (ANSI)
100
AcDbLine
 10
53.19396883017122
 20
58.93744488177185
 30
0.0
 11
53.08461883017123
 21
58.93744488177185
 31
0.0
  0
LINE
  5
125
330
6C
100
AcDbEntity
  8
Hidden (ANSI)
 48
1.070116639137268
100
AcDbLine
 10
53.10021883017122
 20
58.93744488177185
 30
0.0
 11
53.10021883017122
 21
16.17344488177185
 31
0.0
  0
LINE
  5
126
330
6C
100
AcDbEntity
  8
Visible (ANSI)
100
AcDbLine
 10
53.08441883017124
 20
16.17344488177185
 30
0.0
 11
53.08461883017124
 21
16.17344488177185
 31
0.0
  0
LINE
  5
127
330
6C
100
AcDbEntity
  8
Visible (ANSI)
100
AcDbLine
 10
53.08461883017123
 20
58.93744488177185
 30
0.0
 11
53.08441883017124
 21
58.93744488177185
 31
0.0
  0
LINE
  5
128
330
6C
100
AcDbEntity
  8
Visible (ANSI)
100
AcDbLine
 10
52.69396883017122
 20
60.65544488177186
 30
0.0
 11
53.19396883017123
 21
60.15544488177186
 31
0.0
  0
LINE
  5
129
330
6C
100
AcDbEntity
  8
Visible (ANSI)
100
AcDbLine
 10
51.47616883017122
 20
60.65544488177186
 30
0.0
 11
51.47616883017122
 21
60.54589488177186
 31
0.0
  0
LINE
  5
12A
330
6C
100
AcDbEntity
  8
Visible (ANSI)
100
AcDbLine
 10
51.47616883017122
 20
60.54589488177186
 30
0.0
 11
51.47596883017122
 21
60.54589488177186
 31
0.0
  0
LINE
  5
12B
330
6C
100
AcDbEntity
  8
Visible (ANSI)
100
AcDbLine
 10
20.71196883017123
 20
60.54589488177186
 30
0.0
 11
20.71176883017122
 21
60.54589488177186
 31
0.0
  0
LINE
  5
12C
330
6C
100
AcDbEntity
  8
Visible (ANSI)
100
AcDbLine
 10
20.71176883017122
 20
60.54589488177186
 30
0.0
 11
20.71176883017122
 21
60.65544488177186
 31
0.0
  0
LINE
  5
12D
330
6C
100
AcDbEntity
  8
Visible (ANSI)
100
AcDbLine
 10
51.47596883017122
 20
60.65544488177186
 30
0.0
 11
20.71196883017123
 21
60.65544488177184
 31
0.0
  0
LINE
  5
12E
330
6C
100
AcDbEntity
  8
Visible (ANSI)
100
AcDbLine
 10
51.47596883017122
 20
60.65544488177184
 30
0.0
 11
51.47596883017122
 21
60.54609488177185
 31
0.0
  0
LINE
  5
12F
330
6C
100
AcDbEntity
  8
Visible (ANSI)
100
AcDbLine
 10
20.71196883017123
 20
60.65544488177184
 30
0.0
 11
20.71196883017123
 21
60.54609488177185
 31
0.0
  0
LINE
  5
130
330
6C
100
AcDbEntity
  8
Hidden (ANSI)
 48
1.063100457191467
100
AcDbLine
 10
20.71196883017123
 20
60.56169488177186
 30
0.0
 11
51.47596883017122
 21
60.56169488177186
 31
0.0
  0
LINE
  5
131
330
6C
100
AcDbEntity
  8
Visible (ANSI)
100
AcDbLine
 10
51.47596883017122
 20
60.54589488177186
 30
0.0
 11
51.47596883017122
 21
60.54609488177187
 31
0.0
  0
LINE
  5
132
330
6C
100
AcDbEntity
  8
Visible (ANSI)
100
AcDbLine
 10
20.71196883017123
 20
60.54609488177185
 30
0.0
 11
20.71196883017123
 21
60.54589488177186
 31
0.0
  0
LINE
  5
133
330
6C
100
AcDbEntity
  8
Visible (ANSI)
100
AcDbLine
 10
18.99396883017122
 20
60.15544488177186
 30
0.0
 11
19.49396883017122
 21
60.65544488177186
 31
0.0
  0
LINE
  5
134
330
6C
100
AcDbEntity
  8
Visible (ANSI)
100
AcDbLine
 10
18.99396883017122
 20
58.93764488177184
 30
0.0
 11
19.10351883017121
 21
58.93764488177184
 31
0.0
  0
LINE
  5
135
330
6C
100
AcDbEntity
  8
Visible (ANSI)
100
AcDbLine
 10
19.10351883017121
 20
58.93764488177184
 30
0.0
 11
19.10351883017121
 21
58.93744488177185
 31
0.0
  0
LINE
  5
136
330
6C
100
AcDbEntity
  8
Visible (ANSI)
100
AcDbLine
 10
19.10351883017122
 20
16.17344488177185
 30
0.0
 11
19.10351883017122
 21
16.17324488177185
 31
0.0
  0
LINE
  5
137
330
6C
100
AcDbEntity
  8
Visible (ANSI)
100
AcDbLine
 10
19.10351883017122
 20
16.17324488177185
 30
0.0
 11
18.99396883017123
 21
16.17324488177185
 31
0.0
  0
LINE
  5
138
330
6C
100
AcDbEntity
  8
Visible (ANSI)
100
AcDbLine
 10
18.99396883017123
 20
58.93744488177185
 30
0.0
 11
18.99396883017125
 21
16.17344488177185
 31
0.0
  0
LINE
  5
139
330
6C
100
AcDbEntity
  8
Visible (ANSI)
100
AcDbLine
 10
18.99396883017123
 20
58.93744488177185
 30
0.0
 11
19.10331883017121
 21
58.93744488177185
 31
0.0
  0
LINE
  5
13A
330
6C
100
AcDbEntity
  8
Visible (ANSI)
100
AcDbLine
 10
18.99396883017125
 20
16.17344488177185
 30
0.0
 11
19.10331883017122
 21
16.17344488177185
 31
0.0
  0
LINE
  5
13B
330
6C
100
AcDbEntity
  8
Hidden (ANSI)
 48
1.070116639137268
100
AcDbLine
 10
19.08771883017125
 20
16.17344488177185
 30
0.0
 11
19.08771883017124
 21
58.93744488177185
 31
0.0
  0
LINE
  5
13C
330
6C
100
AcDbEntity
  8
Visible (ANSI)
100
AcDbLine
 10
19.10351883017121
 20
58.93744488177185
 30
0.0
 11
19.10331883017121
 21
58.93744488177185
 31
0.0
  0
LINE
  5
13D
330
6C
100
AcDbEntity
  8
Visible (ANSI)
100
AcDbLine
 10
19.10331883017122
 20
16.17344488177185
 30
0.0
 11
19.10351883017122
 21
16.17344488177185
 31
0.0
  0
LINE
  5
13E
330
6C
100
AcDbEntity
  8
Visible (ANSI)
100
AcDbLine
 10
19.49396883017123
 20
14.45544488177185
 30
0.0
 11
18.99396883017123
 21
14.95544488177185
 31
0.0
  0
CIRCLE
  5
13F
330
6C
100
AcDbEntity
  8
Visible (ANSI)
100
AcDbCircle
 10
52.67396883017124
 20
60.13544488177185
 30
0.0
 40
0.25
  0
CIRCLE
  5
140
330
6C
100
AcDbEntity
  8
Visible (ANSI)
100
AcDbCircle
 10
19.51396883017124
 20
60.13544488177185
 30
0.0
 40
0.25
  0
CIRCLE
  5
141
330
6C
100
AcDbEntity
  8
Visible (ANSI)
100
AcDbCircle
 10
19.51396883017124
 20
14.97544488177185
 30
0.0
 40
0.25
  0
CIRCLE
  5
142
330
6C
100
AcDbEntity
  8
Visible (ANSI)
100
AcDbCircle
 10
52.67396883017124
 20
14.97544488177185
 30
0.0
 40
0.25
  0
CIRCLE
  5
143
330
6C
100
AcDbEntity
  8
Visible (ANSI)
100
AcDbCircle
 10
52.67396883017124
 20
59.38544488177186
 30
0.0
 40
0.15625
  0
CIRCLE
  5
144
330
6C
100
AcDbEntity
  8
Visible (ANSI)
100
AcDbCircle
 10
19.51396883017124
 20
59.38544488177186
 30
0.0
 40
0.15625
  0
CIRCLE
  5
145
330
6C
100
AcDbEntity
  8
Visible (ANSI)
100
AcDbCircle
 10
19.51396883017124
 20
15.72544488177185
 30
0.0
 40
0.15625
  0
CIRCLE
  5
146
330
6C
100
AcDbEntity
  8
Visible (ANSI)
100
AcDbCircle
 10
52.67396883017124
 20
15.72544488177185
 30
0.0
 40
0.15625
  0
MTEXT
  5
148
330
6C
100
AcDbEntity
  8
Symbol (ANSI)
100
AcDbMText
 10
31.57687810487765
 20
6.340492031824068
 30
0.0
 40
0.8000000098871746
 41
0.0
 71
     7
 72
     1
  1
FRONT VIEW
  7
Text Style168
 73
     1
 44
1.0
1001
ACAD
1000
MTEXTBEGIN
1070
    73
1070
     1
1070
    44
1040
1.0
1070
    74
1070
     0
1000
MTEXTEND
  0
LINE
  5
14A
330
6C
100
AcDbEntity
  8
Symbol (ANSI)
370
    30
100
AcDbLine
 10
31.49687789908841
 20
6.177347782658134
 30
0.0
 11
37.92864459432626
 21
6.177347782658134
 31
0.0
  0
LINE
  5
14B
330
6C
100
AcDbEntity
  8
Visible (ANSI)
100
AcDbLine
 10
72.1818543587474
 20
14.45544488177185
 30
0.0
 11
71.51720435874739
 21
14.45544488177185
 31
0.0
  0
LINE
  5
14C
330
6C
100
AcDbEntity
  8
Visible (ANSI)
100
AcDbLine
 10
72.1818543587474
 20
14.54919488177185
 30
0.0
 11
72.1818543587474
 21
14.45544488177185
 31
0.0
  0
LINE
  5
14D
330
6C
100
AcDbEntity
  8
Visible (ANSI)
100
AcDbLine
 10
71.51720435874739
 20
14.54919488177185
 30
0.0
 11
72.1818543587474
 21
14.54919488177185
 31
0.0
  0
ARC
  5
14E
330
6C
100
AcDbEntity
  8
Visible (ANSI)
100
AcDbCircle
 10
71.51720435874739
 20
14.56479488177185
 30
0.0
 40
0.0156
100
AcDbArc
 50
180.0
 51
270.0
  0
ARC
  5
14F
330
6C
100
AcDbEntity
  8
Visible (ANSI)
100
AcDbCircle
 10
71.51720435874739
 20
14.56479488177185
 30
0.0
 40
0.1093499999999973
100
AcDbArc
 50
261.7981333522005
 51
270.0
  0
ARC
  5
150
330
6C
100
AcDbEntity
  8
Hidden (ANSI)
 48
0.0445022359490395
100
AcDbCircle
 10
71.51720435874739
 20
14.56479488177185
 30
0.0
 40
0.10935
100
AcDbArc
 50
180.0
 51
261.7981333522006
  0
LINE
  5
151
330
6C
100
AcDbEntity
  8
Hidden (ANSI)
 48
0.0266847964376211
100
AcDbLine
 10
71.4078543587474
 20
14.56499488177185
 30
0.0
 11
71.5016043587474
 21
14.56499488177185
 31
0.0
  0
LINE
  5
152
330
6C
100
AcDbEntity
  8
Visible (ANSI)
100
AcDbLine
 10
71.5016043587479
 20
60.15544488177186
 30
0.0
 11
71.50160435874775
 21
60.65544488177186
 31
0.0
  0
LINE
  5
153
330
6C
100
AcDbEntity
  8
Visible (ANSI)
100
AcDbLine
 10
71.40785435874775
 20
60.65544488177186
 30
0.0
 11
71.40785435874791
 21
60.15544488177186
 31
0.0
  0
LINE
  5
154
330
6C
100
AcDbEntity
  8
Visible (ANSI)
100
AcDbLine
 10
71.50160435874775
 20
60.65544488177186
 30
0.0
 11
71.40785435874775
 21
60.65544488177186
 31
0.0
  0
LINE
  5
155
330
6C
100
AcDbEntity
  8
Visible (ANSI)
100
AcDbLine
 10
71.40785435874791
 20
60.15544488177186
 30
0.0
 11
71.5016043587479
 21
60.15544488177186
 31
0.0
  0
LINE
  5
156
330
6C
100
AcDbEntity
  8
Visible (ANSI)
100
AcDbLine
 10
71.5016043587479
 20
58.93764488177186
 30
0.0
 11
71.5016043587479
 21
60.15544488177186
 31
0.0
  0
LINE
  5
157
330
6C
100
AcDbEntity
  8
Visible (ANSI)
100
AcDbLine
 10
71.5016043587479
 20
14.95544488177185
 30
0.0
 11
71.5016043587479
 21
16.17324488177185
 31
0.0
  0
LINE
  5
158
330
6C
100
AcDbEntity
  8
Visible (ANSI)
100
AcDbLine
 10
71.40785435874791
 20
16.17324488177185
 30
0.0
 11
71.40785435874791
 21
14.95544488177185
 31
0.0
  0
LINE
  5
159
330
6C
100
AcDbEntity
  8
Visible (ANSI)
100
AcDbLine
 10
71.40785435874791
 20
60.15544488177186
 30
0.0
 11
71.40785435874791
 21
58.93764488177186
 31
0.0
  0
LINE
  5
15A
330
6C
100
AcDbEntity
  8
Visible (ANSI)
100
AcDbLine
 10
71.50160435874787
 20
58.93764488177186
 30
0.0
 11
71.50160435874787
 21
58.93744488177185
 31
0.0
  0
LINE
  5
15B
330
6C
100
AcDbEntity
  8
Visible (ANSI)
100
AcDbLine
 10
71.50160435874787
 20
16.17344488177185
 30
0.0
 11
71.50160435874787
 21
16.17324488177185
 31
0.0
  0
LINE
  5
15C
330
6C
100
AcDbEntity
  8
Visible (ANSI)
100
AcDbLine
 10
71.40785435874787
 20
16.17324488177185
 30
0.0
 11
71.40785435874787
 21
16.17344488177185
 31
0.0
  0
LINE
  5
15D
330
6C
100
AcDbEntity
  8
Visible (ANSI)
100
AcDbLine
 10
71.40785435874787
 20
16.17344488177185
 30
0.0
 11
71.40785435874787
 21
58.93744488177185
 31
0.0
  0
LINE
  5
15E
330
6C
100
AcDbEntity
  8
Visible (ANSI)
100
AcDbLine
 10
71.40785435874787
 20
58.93744488177185
 30
0.0
 11
71.40785435874787
 21
58.93764488177186
 31
0.0
  0
LINE
  5
15F
330
6C
100
AcDbEntity
  8
Visible (ANSI)
100
AcDbLine
 10
71.51720435874792
 20
16.17344488177185
 30
0.0
 11
71.40785435874787
 21
16.17344488177185
 31
0.0
  0
LINE
  5
160
330
6C
100
AcDbEntity
  8
Visible (ANSI)
100
AcDbLine
 10
71.51720435874792
 20
58.93744488177185
 30
0.0
 11
71.40785435874787
 21
58.93744488177185
 31
0.0
  0
LINE
  5
161
330
6C
100
AcDbEntity
  8
Visible (ANSI)
100
AcDbLine
 10
71.40785435874791
 20
58.93764488177186
 30
0.0
 11
71.5016043587479
 21
58.93764488177186
 31
0.0
  0
LINE
  5
162
330
6C
100
AcDbEntity
  8
Visible (ANSI)
100
AcDbLine
 10
71.5016043587479
 20
16.17324488177185
 30
0.0
 11
71.40785435874791
 21
16.17324488177185
 31
0.0
  0
LINE
  5
163
330
6C
100
AcDbEntity
  8
Hidden (ANSI)
 48
1.070116639137268
100
AcDbLine
 10
71.50160435874787
 20
58.93744488177185
 30
0.0
 11
71.50160435874787
 21
16.17344488177185
 31
0.0
  0
LINE
  5
164
330
6C
100
AcDbEntity
  8
Visible (ANSI)
100
AcDbLine
 10
71.50160435874775
 20
14.45544488177185
 30
0.0
 11
71.5016043587479
 21
14.95544488177185
 31
0.0
  0
LINE
  5
165
330
6C
100
AcDbEntity
  8
Visible (ANSI)
100
AcDbLine
 10
71.40785435874791
 20
14.95544488177185
 30
0.0
 11
71.40785435874775
 21
14.45544488177185
 31
0.0
  0
LINE
  5
166
330
6C
100
AcDbEntity
  8
Visible (ANSI)
100
AcDbLine
 10
71.40785435874775
 20
14.45544488177185
 30
0.0
 11
71.50160435874775
 21
14.45544488177185
 31
0.0
  0
LINE
  5
167
330
6C
100
AcDbEntity
  8
Visible (ANSI)
100
AcDbLine
 10
71.5016043587479
 20
14.95544488177185
 30
0.0
 11
71.40785435874791
 21
14.95544488177185
 31
0.0
  0
LINE
  5
168
330
6C
100
AcDbEntity
  8
Visible (ANSI)
100
AcDbLine
 10
71.51720435874814
 20
60.65544488177186
 30
0.0
 11
72.1818543587474
 21
60.65544488177186
 31
0.0
  0
LINE
  5
169
330
6C
100
AcDbEntity
  8
Visible (ANSI)
100
AcDbLine
 10
72.1818543587474
 20
60.56169488177186
 30
0.0
 11
71.51720435874814
 21
60.56169488177186
 31
0.0
  0
LINE
  5
16A
330
6C
100
AcDbEntity
  8
Visible (ANSI)
100
AcDbLine
 10
72.1818543587474
 20
60.65544488177186
 30
0.0
 11
72.1818543587474
 21
60.56169488177186
 31
0.0
  0
ARC
  5
16B
330
6C
100
AcDbEntity
  8
Hidden (ANSI)
 48
0.0445022359490395
100
AcDbCircle
 10
71.51720435874739
 20
60.54609488177185
 30
0.0
 40
0.1093499999999939
100
AcDbArc
 50
98.20186664779518
 51
180.0
  0
LINE
  5
16C
330
6C
100
AcDbEntity
  8
Hidden (ANSI)
 48
0.0266847964376211
100
AcDbLine
 10
71.4078543587474
 20
60.54589488177186
 30
0.0
 11
71.5016043587474
 21
60.54589488177186
 31
0.0
  0
ARC
  5
16D
330
6C
100
AcDbEntity
  8
Visible (ANSI)
100
AcDbCircle
 10
71.51720435874745
 20
60.54609488177106
 30
0.0
 40
0.1093500000007777
100
AcDbArc
 50
89.99999999963355
 51
98.20186664777047
  0
ARC
  5
16E
330
6C
100
AcDbEntity
  8
Visible (ANSI)
100
AcDbCircle
 10
71.5172043587474
 20
60.54609488177185
 30
0.0
 40
0.0156000000000056
100
AcDbArc
 50
89.99999999726018
 51
180.0
  0
LINE
  5
16F
330
6C
100
AcDbEntity
  8
Visible (ANSI)
100
AcDbLine
 10
71.51720435874792
 20
16.17344488177185
 30
0.0
 11
72.18185435874791
 21
16.17344488177185
 31
0.0
  0
LINE
  5
170
330
6C
100
AcDbEntity
  8
Visible (ANSI)
100
AcDbLine
 10
72.18185435874791
 20
58.93744488177185
 30
0.0
 11
72.18185435874791
 21
16.17344488177185
 31
0.0
  0
LINE
  5
171
330
6C
100
AcDbEntity
  8
Visible (ANSI)
100
AcDbLine
 10
72.18185435874791
 20
58.93744488177185
 30
0.0
 11
71.51720435874792
 21
58.93744488177185
 31
0.0
  0
LINE
  5
172
330
6C
100
AcDbEntity
  8
Hidden (ANSI)
 48
0.0266847964376211
100
AcDbLine
 10
71.40785435874775
 20
37.80544488177186
 30
0.0
 11
71.50160435874775
 21
37.80544488177186
 31
0.0
  0
LINE
  5
173
330
6C
100
AcDbEntity
  8
Hidden (ANSI)
 48
0.0266847964376211
100
AcDbLine
 10
71.40785435874775
 20
37.30544488177186
 30
0.0
 11
71.50160435874775
 21
37.30544488177186
 31
0.0
  0
LINE
  5
174
330
6C
100
AcDbEntity
  8
Hidden (ANSI)
 48
0.0266847964376211
100
AcDbLine
 10
71.40785435874775
 20
60.38544488177185
 30
0.0
 11
71.50160435874775
 21
60.38544488177185
 31
0.0
  0
LINE
  5
175
330
6C
100
AcDbEntity
  8
Hidden (ANSI)
 48
0.0266847964376211
100
AcDbLine
 10
71.40785435874775
 20
59.88544488177185
 30
0.0
 11
71.50160435874775
 21
59.88544488177185
 31
0.0
  0
LINE
  5
176
330
6C
100
AcDbEntity
  8
Hidden (ANSI)
 48
0.0266847964376211
100
AcDbLine
 10
71.40785435874775
 20
15.22544488177185
 30
0.0
 11
71.50160435874775
 21
15.22544488177185
 31
0.0
  0
LINE
  5
177
330
6C
100
AcDbEntity
  8
Hidden (ANSI)
 48
0.0266847964376211
100
AcDbLine
 10
71.40785435874775
 20
14.72544488177185
 30
0.0
 11
71.50160435874775
 21
14.72544488177185
 31
0.0
  0
LINE
  5
178
330
6C
100
AcDbEntity
  8
Hidden (ANSI)
 48
0.0266847964376211
100
AcDbLine
 10
71.40785435874775
 20
59.54169488177186
 30
0.0
 11
71.50160435874775
 21
59.54169488177186
 31
0.0
  0
LINE
  5
179
330
6C
100
AcDbEntity
  8
Hidden (ANSI)
 48
0.0266847964376211
100
AcDbLine
 10
71.40785435874775
 20
59.22919488177186
 30
0.0
 11
71.50160435874775
 21
59.22919488177186
 31
0.0
  0
LINE
  5
17A
330
6C
100
AcDbEntity
  8
Hidden (ANSI)
 48
0.0266847964376211
100
AcDbLine
 10
71.40785435874775
 20
15.88169488177185
 30
0.0
 11
71.50160435874775
 21
15.88169488177185
 31
0.0
  0
LINE
  5
17B
330
6C
100
AcDbEntity
  8
Hidden (ANSI)
 48
0.0266847964376211
100
AcDbLine
 10
71.40785435874775
 20
15.56919488177185
 30
0.0
 11
71.50160435874775
 21
15.56919488177185
 31
0.0
  0
MTEXT
  5
17C
330
6C
100
AcDbEntity
  8
Symbol (ANSI)
100
AcDbMText
 10
68.69767384035021
 20
7.385245974083547
 30
0.0
 40
0.8000000098871746
 41
0.0
 71
     7
 72
     1
  1
SIDE VIEW
  7
Text Style168
 73
     1
 44
1.0
1001
ACAD
1000
MTEXTBEGIN
1070
    73
1070
     1
1070
    44
1040
1.0
1070
    74
1070
     0
1000
MTEXTEND
  0
LINE
  5
17D
330
6C
100
AcDbEntity
  8
Symbol (ANSI)
370
    30
100
AcDbLine
 10
68.65671373498611
 20
7.219508532985499
 30
0.0
 11
74.06287253768941
 21
7.219508532985499
 31
0.0
  0
ELLIPSE
  5
17E
330
6C
100
AcDbEntity
  8
Visible (ANSI)
100
AcDbEllipse
 10
106.4729280704338
 20
40.5777965775433
 30
0.0
 11
-0.0914892387904747
 21
0.15887362995995
 31
0.0
210
0.0
220
0.0
230
1.0
 40
0.5780931159158129
 41
0.2678448778126471
 42
2.873747775777216
  0
ELLIPSE
  5
17F
330
6C
100
AcDbEntity
  8
Visible (ANSI)
100
AcDbEllipse
 10
106.4243144792273
 20
40.54980187222006
 30
0.0
 11
-0.0914892387904742
 21
0.1588736299599492
 31
0.0
210
0.0
220
0.0
230
1.0
 40
0.5780931159158129
 41
0.0
 42
6.283185307179586
  0
ELLIPSE
  5
180
330
6C
100
AcDbEntity
  8
Visible (ANSI)
100
AcDbEllipse
 10
89.27797677005761
 20
50.47971048173455
 30
0.0
 11
-0.0914892387904745
 21
0.1588736299599496
 31
0.0
210
0.0
220
0.0
230
0.9999999999999998
 40
0.5780931159158126
 41
0.2678448778126201
 42
2.873747775777361
  0
ELLIPSE
  5
181
330
6C
100
AcDbEntity
  8
Visible (ANSI)
100
AcDbEllipse
 10
89.22936317885103
 20
50.45171577641133
 30
0.0
 11
-0.0914892387904742
 21
0.1588736299599492
 31
0.0
210
0.0
220
0.0
230
1.0
 40
0.5780931159158129
 41
0.0
 42
6.283185307179586
  0
ELLIPSE
  5
182
330
6C
100
AcDbEntity
  8
Visible (ANSI)
100
AcDbEllipse
 10
97.8754524202457
 20
31.99126320507958
 30
0.0
 11
-0.0914892387904739
 21
0.1588736299599486
 31
0.0
210
0.0
220
0.0
230
1.0
 40
0.578093115915813
 41
0.267844877812647
 42
2.873747775777392
  0
ELLIPSE
  5
183
330
6C
100
AcDbEntity
  8
Visible (ANSI)
100
AcDbEllipse
 10
97.82683882903913
 20
31.96326849975635
 30
0.0
 11
-0.091489238790474
 21
0.1588736299599488
 31
0.0
210
0.0
220
0.0
230
1.0
 40
0.5780931159158126
 41
0.0
 42
6.283185307179586
  0
ELLIPSE
  5
184
330
6C
100
AcDbEntity
  8
Visible (ANSI)
100
AcDbEllipse
 10
97.87545242024574
 20
59.0662438541983
 30
0.0
 11
-0.0914892387904738
 21
0.1588736299599485
 31
0.0
210
0.0
220
0.0
230
1.0
 40
0.5780931159158129
 41
0.2678448778126203
 42
2.873747775777361
  0
ELLIPSE
  5
185
330
6C
100
AcDbEntity
  8
Visible (ANSI)
100
AcDbEllipse
 10
97.82683882903915
 20
59.03824914887508
 30
0.0
 11
-0.091489238790474
 21
0.1588736299599488
 31
0.0
210
0.0
220
0.0
230
1.0
 40
0.5780931159158126
 41
0.0
 42
6.283185307179586
  0
ELLIPSE
  5
186
330
6C
100
AcDbEntity
  8
Visible (ANSI)
100
AcDbEllipse
 10
89.90728294913287
 20
36.34294460205185
 30
0.0
 11
-0.0400173930469355
 21
-0.069491325744492
 31
0.0
210
0.0
220
0.0
230
1.0
 40
0.5780931159156392
 41
5.495853435359128
 42
6.283185307179711
  0
ELLIPSE
  5
187
330
6C
100
AcDbEntity
  8
Visible (ANSI)
100
AcDbEllipse
 10
105.859800494512
 20
27.15650071337452
 30
0.0
 11
-0.0400173930469325
 21
-0.0694913257444868
 31
0.0
210
0.0
220
0.0
230
0.9999999999999998
 40
0.5780931159156392
 41
5.495853435358986
 42
5.556343885665621
  0
LINE
  5
188
330
6C
100
AcDbEntity
  8
Visible Narrow (ANSI)
100
AcDbLine
 10
89.85058005634952
 20
36.31029157776284
 30
0.0
 11
105.8030976017287
 21
27.12384768908551
 31
0.0
  0
LINE
  5
189
330
6C
100
AcDbEntity
  8
Visible (ANSI)
100
AcDbLine
 10
105.8032013107233
 20
27.12390787395913
 30
0.0
 11
105.8032013107233
 21
27.05822886310637
 31
0.0
  0
LINE
  5
18A
330
6C
100
AcDbEntity
  8
Visible (ANSI)
100
AcDbLine
 10
105.8030976017287
 20
27.12396759599716
 30
0.0
 11
105.8032013107233
 21
27.12390787395913
 31
0.0
  0
LINE
  5
18B
330
6C
100
AcDbEntity
  8
Visible (ANSI)
100
AcDbLine
 10
89.85047634735495
 20
36.31047120671251
 30
0.0
 11
89.85058005634952
 21
36.31041148467448
 31
0.0
  0
LINE
  5
18C
330
6C
100
AcDbEntity
  8
Visible (ANSI)
100
AcDbLine
 10
89.85047634735495
 20
36.24479219585974
 30
0.0
 11
89.85047634735495
 21
36.31047120671251
 31
0.0
  0
LINE
  5
18D
330
6C
100
AcDbEntity
  8
Visible (ANSI)
100
AcDbLine
 10
89.88375633687331
 20
36.26395686723256
 30
0.0
 11
89.85047634735495
 21
36.24479219585974
 31
0.0
  0
LINE
  5
18E
330
6C
100
AcDbEntity
  8
Visible (ANSI)
100
AcDbLine
 10
89.86726555608594
 20
36.27345327630736
 30
0.0
 11
105.8032013107233
 21
27.09655820585201
 31
0.0
  0
LINE
  5
18F
330
6C
100
AcDbEntity
  8
Visible (ANSI)
100
AcDbLine
 10
89.85058005634952
 20
36.31041148467448
 30
0.0
 11
89.85058005634952
 21
36.31029157776284
 31
0.0
  0
LINE
  5
190
330
6C
100
AcDbEntity
  8
Visible (ANSI)
100
AcDbLine
 10
105.8030976017287
 20
27.12384768908551
 30
0.0
 11
105.8030976017287
 21
27.12396759599716
 31
0.0
  0
ELLIPSE
  5
191
330
6C
100
AcDbEntity
  8
Visible (ANSI)
100
AcDbEllipse
 10
106.4729280704338
 20
54.11528690210266
 30
0.0
 11
-0.0914892387904747
 21
0.15887362995995
 31
0.0
210
0.0
220
0.0
230
1.0
 40
0.5780931159158129
 41
0.2678448778126201
 42
2.873747775777361
  0
ELLIPSE
  5
192
330
6C
100
AcDbEntity
  8
Visible (ANSI)
100
AcDbEllipse
 10
89.27797677005761
 20
64.01720080629393
 30
0.0
 11
-0.0914892387904743
 21
0.1588736299599492
 31
0.0
210
0.0
220
0.0
230
1.0
 40
0.5780931159158128
 41
0.2678448778126197
 42
2.87374777577736
  0
ELLIPSE
  5
193
330
6C
100
AcDbEntity
  8
Visible (ANSI)
100
AcDbEllipse
 10
89.27797677005759
 20
36.94222015717521
 30
0.0
 11
-0.091489238790474
 21
0.1588736299599488
 31
0.0
210
0.0
220
0.0
230
1.0
 40
0.5780931159158129
 41
0.2678448778126476
 42
2.873747775777392
  0
ELLIPSE
  5
194
330
6C
100
AcDbEntity
  8
Visible (ANSI)
100
AcDbEllipse
 10
106.4729280704338
 20
27.04030625298394
 30
0.0
 11
-0.0914892387904746
 21
0.1588736299599498
 31
0.0
210
0.0
220
0.0
230
1.0
 40
0.5780931159158129
 41
0.2678448778126474
 42
2.873747775777216
  0
ELLIPSE
  5
195
330
6C
100
AcDbEntity
  8
Visible (ANSI)
100
AcDbEllipse
 10
106.4729280704338
 20
53.66563598343926
 30
0.0
 11
0.0571807742440524
 21
-0.099296018724965
 31
0.0
210
0.0
220
0.0
230
1.0
 40
0.5780931159158129
 41
3.578838513251564
 42
5.845939447517068
  0
ELLIPSE
  5
196
330
6C
100
AcDbEntity
  8
Visible (ANSI)
100
AcDbEllipse
 10
89.27797677005761
 20
63.56754988763054
 30
0.0
 11
0.0571807742440523
 21
-0.0992960187249649
 31
0.0
210
0.0
220
0.0
230
0.9999999999999998
 40
0.5780931159158128
 41
3.578838513251566
 42
5.845939447517068
  0
ELLIPSE
  5
197
330
6C
100
AcDbEntity
  8
Visible (ANSI)
100
AcDbEllipse
 10
89.27797677005759
 20
37.3918710758386
 30
0.0
 11
0.0571807742440522
 21
-0.0992960187249646
 31
0.0
210
0.0
220
0.0
230
1.0
 40
0.5780931159158128
 41
3.578838513251753
 42
5.845939447517068
  0
ELLIPSE
  5
198
330
6C
100
AcDbEntity
  8
Visible (ANSI)
100
AcDbEllipse
 10
106.4729280704338
 20
27.48995717164734
 30
0.0
 11
0.0571807742440525
 21
-0.0992960187249652
 31
0.0
210
0.0
220
0.0
230
1.0
 40
0.578093115915813
 41
3.578838513251564
 42
5.845939447517068
  0
ELLIPSE
  5
199
330
6C
100
AcDbEntity
  8
Visible (ANSI)
100
AcDbEllipse
 10
106.4243144792273
 20
54.08729219677942
 30
0.0
 11
-0.091489238790474
 21
0.1588736299599488
 31
0.0
210
0.0
220
0.0
230
1.0
 40
0.5780931159158129
 41
0.0
 42
6.283185307179586
  0
ELLIPSE
  5
19A
330
6C
100
AcDbEntity
  8
Visible (ANSI)
100
AcDbEllipse
 10
89.22936317885104
 20
63.98920610097071
 30
0.0
 11
-0.091489238790474
 21
0.1588736299599488
 31
0.0
210
0.0
220
0.0
230
1.0
 40
0.5780931159158129
 41
0.0
 42
6.283185307179586
  0
ELLIPSE
  5
19B
330
6C
100
AcDbEntity
  8
Visible (ANSI)
100
AcDbEllipse
 10
89.22936317885101
 20
36.91422545185198
 30
0.0
 11
-0.091489238790474
 21
0.1588736299599488
 31
0.0
210
0.0
220
0.0
230
1.0
 40
0.5780931159158129
 41
0.0
 42
6.283185307179586
  0
ELLIPSE
  5
19C
330
6C
100
AcDbEntity
  8
Visible (ANSI)
100
AcDbEllipse
 10
106.4243144792272
 20
27.01231154766071
 30
0.0
 11
-0.091489238790474
 21
0.1588736299599488
 31
0.0
210
0.0
220
0.0
230
1.0
 40
0.5780931159158129
 41
0.0
 42
6.283185307179586
  0
ELLIPSE
  5
19D
330
6C
100
AcDbEntity
  8
Visible (ANSI)
100
AcDbEllipse
 10
106.4243144792273
 20
53.63764127811603
 30
0.0
 11
-0.0571807742440462
 21
0.099296018724968
 31
0.0
210
0.0
220
0.0
230
1.0
 40
0.578093115915813
 41
0.0
 42
6.283185307179586
  0
ELLIPSE
  5
19E
330
6C
100
AcDbEntity
  8
Visible (ANSI)
100
AcDbEllipse
 10
89.22936317885104
 20
63.53955518230731
 30
0.0
 11
-0.0571807742440462
 21
0.099296018724968
 31
0.0
210
0.0
220
0.0
230
1.0
 40
0.578093115915813
 41
0.0
 42
6.283185307179586
  0
ELLIPSE
  5
19F
330
6C
100
AcDbEntity
  8
Visible (ANSI)
100
AcDbEllipse
 10
89.22936317885101
 20
37.36387637051537
 30
0.0
 11
-0.0571807742440462
 21
0.099296018724968
 31
0.0
210
0.0
220
0.0
230
1.0
 40
0.578093115915813
 41
0.0
 42
6.283185307179586
  0
ELLIPSE
  5
1A0
330
6C
100
AcDbEntity
  8
Visible (ANSI)
100
AcDbEllipse
 10
106.4243144792272
 20
27.4619624663241
 30
0.0
 11
-0.0571807742440462
 21
0.099296018724968
 31
0.0
210
0.0
220
0.0
230
1.0
 40
0.578093115915813
 41
0.0
 42
6.283185307179586
  0
LINE
  5
1A1
330
6C
100
AcDbEntity
  8
Visible (ANSI)
100
AcDbLine
 10
89.89908993856154
 20
63.97128349084828
 30
0.0
 11
89.26760587060019
 21
64.33493098036951
 31
0.0
  0
LINE
  5
1A2
330
6C
100
AcDbEntity
  8
Visible (ANSI)
100
AcDbLine
 10
106.4832989698912
 20
54.42107266857366
 30
0.0
 11
105.8518149019299
 21
54.7847201580949
 31
0.0
  0
LINE
  5
1A3
330
6C
100
AcDbEntity
  8
Visible (ANSI)
100
AcDbLine
 10
106.7425714563263
 20
53.24188710940985
 30
0.0
 11
106.7425714563263
 21
53.97200029440757
 31
0.0
  0
LINE
  5
1A4
330
6C
100
AcDbEntity
  8
Visible (ANSI)
100
AcDbLine
 10
106.7425714563263
 20
26.87303826296012
 30
0.0
 11
106.7425714563263
 21
27.60315144795784
 31
0.0
  0
LINE
  5
1A5
330
6C
100
AcDbEntity
  8
Visible (ANSI)
100
AcDbLine
 10
89.85047634735495
 20
36.24479219585974
 30
0.0
 11
89.21899227939361
 21
36.60843968538098
 31
0.0
  0
LINE
  5
1A6
330
6C
100
AcDbEntity
  8
Visible (ANSI)
100
AcDbLine
 10
106.4346853786846
 20
26.69458137358513
 30
0.0
 11
105.8032013107233
 21
27.05822886310637
 31
0.0
  0
LINE
  5
1A7
330
6C
100
AcDbEntity
  8
Visible (ANSI)
100
AcDbLine
 10
106.6939578651197
 20
27.57515674263461
 30
0.0
 11
106.6939578651197
 21
26.8450435576369
 31
0.0
  0
LINE
  5
1A8
330
6C
100
AcDbEntity
  8
Visible (ANSI)
100
AcDbLine
 10
106.6939578651198
 20
53.94400558908435
 30
0.0
 11
106.6939578651198
 21
53.21389240408663
 31
0.0
  0
LINE
  5
1A9
330
6C
100
AcDbEntity
  8
Visible (ANSI)
100
AcDbLine
 10
105.8032013107233
 20
54.75672545277166
 30
0.0
 11
106.4346853786847
 21
54.39307796325044
 31
0.0
  0
LINE
  5
1AA
330
6C
100
AcDbEntity
  8
Visible (ANSI)
100
AcDbLine
 10
89.21899227939363
 20
64.30693627504628
 30
0.0
 11
89.85047634735499
 21
63.94328878552506
 31
0.0
  0
LINE
  5
1AB
330
6C
100
AcDbEntity
  8
Visible (ANSI)
100
AcDbLine
 10
88.95971979295854
 20
63.42636090599681
 30
0.0
 11
88.95971979295854
 21
64.15647409099452
 31
0.0
  0
LINE
  5
1AC
330
6C
100
AcDbEntity
  8
Visible (ANSI)
100
AcDbLine
 10
88.9597197929585
 20
37.05751205954707
 30
0.0
 11
88.9597197929585
 21
37.78762524454478
 31
0.0
  0
LINE
  5
1AD
330
6C
100
AcDbEntity
  8
Visible (ANSI)
100
AcDbLine
 10
89.89908993856154
 20
63.97128349084828
 30
0.0
 11
89.89908993856154
 21
63.970476085005
 31
0.0
  0
LINE
  5
1AE
330
6C
100
AcDbEntity
  8
Visible (ANSI)
100
AcDbLine
 10
105.8032013107233
 20
54.75672545277166
 30
0.0
 11
105.8032013107233
 21
54.6910464419189
 31
0.0
  0
LINE
  5
1AF
330
6C
100
AcDbEntity
  8
Visible (ANSI)
100
AcDbLine
 10
105.8032013107233
 20
54.6910464419189
 30
0.0
 11
105.8030976017287
 21
54.69110616395692
 31
0.0
  0
LINE
  5
1B0
330
6C
100
AcDbEntity
  8
Visible Narrow (ANSI)
100
AcDbLine
 10
105.8030976017287
 20
54.69122607086858
 30
0.0
 11
89.85058005634954
 21
63.87766995954589
 31
0.0
  0
LINE
  5
1B1
330
6C
100
AcDbEntity
  8
Visible (ANSI)
100
AcDbLine
 10
89.85058005634954
 20
63.87755005263426
 30
0.0
 11
89.85047634735499
 21
63.87760977467228
 31
0.0
  0
LINE
  5
1B2
330
6C
100
AcDbEntity
  8
Visible (ANSI)
100
AcDbLine
 10
89.85047634735499
 20
63.87760977467228
 30
0.0
 11
89.85047634735499
 21
63.94328878552506
 31
0.0
  0
LINE
  5
1B3
330
6C
100
AcDbEntity
  8
Visible Narrow (ANSI)
100
AcDbLine
 10
105.8598004945125
 20
54.78943819909893
 30
0.0
 11
89.9072829491329
 21
63.97588208777604
 31
0.0
  0
ELLIPSE
  5
1B4
330
6C
100
AcDbEntity
  8
Visible (ANSI)
100
AcDbEllipse
 10
105.859800494512
 20
54.72387909515756
 30
0.0
 11
0.0400173930469181
 21
0.0694913257444522
 31
0.0
210
0.0
220
0.0
230
1.0
 40
0.5780931159156392
 41
2.293770331462976
 42
2.354260781769479
  0
ELLIPSE
  5
1B5
330
6C
100
AcDbEntity
  8
Visible (ANSI)
100
AcDbEllipse
 10
105.8598004945121
 20
54.72387909515755
 30
0.0
 11
0.04001739304696
 21
0.0694913257445346
 31
0.0
210
0.0
220
0.0
230
1.0
 40
0.5780931159156393
 41
0.7834644549678345
 42
0.9175200251381285
  0
LINE
  5
1B6
330
6C
100
AcDbEntity
  8
Visible (ANSI)
100
AcDbLine
 10
105.8030976017287
 20
54.69110616395692
 30
0.0
 11
105.8032013107233
 21
54.69116588599495
 31
0.0
  0
ELLIPSE
  5
1B7
330
6C
100
AcDbEntity
  8
Visible (ANSI)
100
AcDbEllipse
 10
89.90728294913289
 20
63.91032298383491
 30
0.0
 11
0.0400173930469395
 21
0.0694913257444929
 31
0.0
210
0.0
220
0.0
230
1.0
 40
0.5780931159156243
 41
0.7834644549745722
 42
2.354260781769397
  0
LINE
  5
1B8
330
6C
100
AcDbEntity
  8
Visible (ANSI)
100
AcDbLine
 10
89.85047634735499
 20
63.94328878552506
 30
0.0
 11
89.89908993856154
 21
63.97128349084828
 31
0.0
  0
LINE
  5
1B9
330
6C
100
AcDbEntity
  8
Visible (ANSI)
100
AcDbLine
 10
89.85047634735499
 20
63.87760977467228
 30
0.0
 11
89.85058005634954
 21
63.8776694967103
 31
0.0
  0
LINE
  5
1BA
330
6C
100
AcDbEntity
  8
Visible (ANSI)
100
AcDbLine
 10
105.8518149019299
 20
54.7847201580949
 30
0.0
 11
105.8032013107233
 21
54.75672545277166
 31
0.0
  0
LINE
  5
1BB
330
6C
100
AcDbEntity
  8
Visible (ANSI)
100
AcDbLine
 10
106.7425714563263
 20
53.97200029440757
 30
0.0
 11
106.4832989698912
 21
54.42107266857366
 31
0.0
  0
LINE
  5
1BC
330
6C
100
AcDbEntity
  8
Visible (ANSI)
100
AcDbLine
 10
106.4346853786847
 20
54.39307796325044
 30
0.0
 11
106.6939578651198
 21
53.94400558908435
 31
0.0
  0
LINE
  5
1BD
330
6C
100
AcDbEntity
  8
Visible (ANSI)
100
AcDbLine
 10
106.4832989698912
 20
54.42107266857366
 30
0.0
 11
106.4346853786847
 21
54.39307796325044
 31
0.0
  0
LINE
  5
1BE
330
6C
100
AcDbEntity
  8
Visible (ANSI)
100
AcDbLine
 10
106.6939578651198
 20
53.94400558908435
 30
0.0
 11
106.7425714563263
 21
53.97200029440757
 31
0.0
  0
LINE
  5
1BF
330
6C
100
AcDbEntity
  8
Visible (ANSI)
100
AcDbLine
 10
106.7418722600086
 20
27.60355408833869
 30
0.0
 11
106.7425714563263
 21
27.60315144795784
 31
0.0
  0
LINE
  5
1C0
330
6C
100
AcDbEntity
  8
Visible (ANSI)
100
AcDbLine
 10
106.6939578651197
 20
27.57515674263461
 30
0.0
 11
106.6371512633418
 21
27.60786948896163
 31
0.0
  0
LINE
  5
1C1
330
6C
100
AcDbEntity
  8
Visible (ANSI)
100
AcDbLine
 10
106.6371512633418
 20
27.60786948896163
 30
0.0
 11
106.6371512633418
 21
27.60798939587327
 31
0.0
  0
LINE
  5
1C2
330
6C
100
AcDbEntity
  8
Visible Narrow (ANSI)
100
AcDbLine
 10
106.6372549723364
 20
27.60792967383525
 30
0.0
 11
106.6372549723364
 21
53.24642552146398
 31
0.0
  0
LINE
  5
1C3
330
6C
100
AcDbEntity
  8
Visible (ANSI)
100
AcDbLine
 10
106.6371512633418
 20
53.246485243502
 30
0.0
 11
106.6371512633418
 21
53.24660515041365
 31
0.0
  0
LINE
  5
1C4
330
6C
100
AcDbEntity
  8
Visible (ANSI)
100
AcDbLine
 10
106.6371512633418
 20
53.24660515041365
 30
0.0
 11
106.6939578651198
 21
53.21389240408663
 31
0.0
  0
LINE
  5
1C5
330
6C
100
AcDbEntity
  8
Visible Narrow (ANSI)
100
AcDbLine
 10
106.7506607579031
 20
27.60792967383527
 30
0.0
 11
106.7506607579031
 21
53.246425521464
 31
0.0
  0
ELLIPSE
  5
1C6
330
6C
100
AcDbEntity
  8
Visible (ANSI)
100
AcDbEllipse
 10
106.6939578651197
 20
27.64058269812427
 30
0.0
 11
0.0801900000000001
 21
0.0000000000000047
 31
0.0
210
0.0
220
0.0
230
1.0
 40
0.5758617009853095
 41
3.926990816987245
 42
5.497787143782095
  0
LINE
  5
1C7
330
6C
100
AcDbEntity
  8
Visible (ANSI)
100
AcDbLine
 10
106.6371512633418
 20
53.246485243502
 30
0.0
 11
106.6372553741999
 21
53.24654519695783
 31
0.0
  0
ELLIPSE
  5
1C8
330
6C
100
AcDbEntity
  8
Visible (ANSI)
100
AcDbEllipse
 10
106.6939578651198
 20
53.27907854575304
 30
0.0
 11
0.080190000000088
 21
0.0000000000000047
 31
0.0
210
0.0
220
0.0
230
1.0
 40
0.5758617009853095
 41
3.926990816987252
 42
3.987598387465305
  0
ELLIPSE
  5
1C9
330
6C
100
AcDbEntity
  8
Visible (ANSI)
100
AcDbEllipse
 10
106.69395786512
 20
53.27907854575284
 30
0.0
 11
0.0801899999996349
 21
-0.0000000000000001
 31
0.0
210
0.0
220
0.0
230
1.0
 40
0.5758617009853095
 41
5.363700662382968
 42
5.497787143782629
  0
LINE
  5
1CA
330
6C
100
AcDbEntity
  8
Visible (ANSI)
100
AcDbLine
 10
106.6939578651198
 20
53.21389240408663
 30
0.0
 11
106.7425714563263
 21
53.24188710940985
 31
0.0
  0
LINE
  5
1CB
330
6C
100
AcDbEntity
  8
Visible (ANSI)
100
AcDbLine
 10
106.6371512633418
 20
27.60786948896163
 30
0.0
 11
106.6372553742013
 21
27.60792944241827
 31
0.0
  0
LINE
  5
1CC
330
6C
100
AcDbEntity
  8
Visible (ANSI)
100
AcDbLine
 10
106.7425714563263
 20
27.60315144795784
 30
0.0
 11
106.6939578651197
 21
27.57515674263461
 31
0.0
  0
LINE
  5
1CD
330
6C
100
AcDbEntity
  8
Visible (ANSI)
100
AcDbLine
 10
106.4832989698912
 20
26.72257607890836
 30
0.0
 11
106.7425714563263
 21
26.87303826296012
 31
0.0
  0
LINE
  5
1CE
330
6C
100
AcDbEntity
  8
Visible (ANSI)
100
AcDbLine
 10
106.6939578651197
 20
26.8450435576369
 30
0.0
 11
106.4346853786846
 21
26.69458137358513
 31
0.0
  0
LINE
  5
1CF
330
6C
100
AcDbEntity
  8
Visible (ANSI)
100
AcDbLine
 10
106.4346853786846
 20
26.69458137358513
 30
0.0
 11
106.4832989698912
 21
26.72257607890836
 31
0.0
  0
LINE
  5
1D0
330
6C
100
AcDbEntity
  8
Visible (ANSI)
100
AcDbLine
 10
106.7425714563263
 20
26.87303826296012
 30
0.0
 11
106.6939578651197
 21
26.8450435576369
 31
0.0
  0
LINE
  5
1D1
330
6C
100
AcDbEntity
  8
Visible (ANSI)
100
AcDbLine
 10
106.6371512633418
 20
27.60798939587327
 30
0.0
 11
106.6372549723364
 21
27.60792967383525
 31
0.0
  0
LINE
  5
1D2
330
6C
100
AcDbEntity
  8
Visible (ANSI)
100
AcDbLine
 10
106.6372549723364
 20
53.24642552146398
 30
0.0
 11
106.6371512633418
 21
53.246485243502
 31
0.0
  0
LINE
  5
1D3
330
6C
100
AcDbEntity
  8
Visible (ANSI)
100
AcDbLine
 10
106.7506607579031
 20
27.60792967383527
 30
0.0
 11
107.0953116741212
 21
27.80640093669481
 31
0.0
  0
LINE
  5
1D4
330
6C
100
AcDbEntity
  8
Visible (ANSI)
100
AcDbLine
 10
107.0953116741212
 20
53.44489678432354
 30
0.0
 11
107.0953116741212
 21
27.80640093669481
 31
0.0
  0
LINE
  5
1D5
330
6C
100
AcDbEntity
  8
Visible (ANSI)
100
AcDbLine
 10
107.0953116741212
 20
53.44489678432354
 30
0.0
 11
106.7506607579031
 21
53.246425521464
 31
0.0
  0
LINE
  5
1D6
330
6C
100
AcDbEntity
  8
Visible (ANSI)
100
AcDbLine
 10
107.0466980829146
 20
53.47289148964676
 30
0.0
 11
107.0953116741212
 21
53.44489678432354
 31
0.0
  0
LINE
  5
1D7
330
6C
100
AcDbEntity
  8
Visible (ANSI)
100
AcDbLine
 10
106.7425714563263
 20
53.29775661314467
 30
0.0
 11
107.0466980829146
 21
53.47289148964676
 31
0.0
  0
LINE
  5
1D8
330
6C
100
AcDbEntity
  8
Visible (ANSI)
100
AcDbLine
 10
105.8030976017287
 20
54.69110616395692
 30
0.0
 11
105.8030976017287
 21
54.69122607086858
 31
0.0
  0
LINE
  5
1D9
330
6C
100
AcDbEntity
  8
Visible (ANSI)
100
AcDbLine
 10
89.85058005634954
 20
63.87766995954589
 30
0.0
 11
89.85058005634954
 21
63.87755005263426
 31
0.0
  0
LINE
  5
1DA
330
6C
100
AcDbEntity
  8
Visible (ANSI)
100
AcDbLine
 10
105.8598004945125
 20
54.78943819909893
 30
0.0
 11
106.2044514107302
 21
54.98790946195826
 31
0.0
  0
LINE
  5
1DB
330
6C
100
AcDbEntity
  8
Visible (ANSI)
100
AcDbLine
 10
90.25193386535098
 20
64.17435335063558
 30
0.0
 11
106.2044514107302
 21
54.98790946195826
 31
0.0
  0
LINE
  5
1DC
330
6C
100
AcDbEntity
  8
Visible (ANSI)
100
AcDbLine
 10
90.25193386535098
 20
64.17435335063558
 30
0.0
 11
89.9072829491329
 21
63.97588208777604
 31
0.0
  0
LINE
  5
1DD
330
6C
100
AcDbEntity
  8
Visible (ANSI)
100
AcDbLine
 10
106.2044514107302
 20
54.93170309712533
 30
0.0
 11
105.9005131576577
 21
54.75667669771646
 31
0.0
  0
LINE
  5
1DE
330
6C
100
AcDbEntity
  8
Visible (ANSI)
100
AcDbLine
 10
106.2044514107302
 20
54.98790946195826
 30
0.0
 11
106.2044514107302
 21
54.93170309712533
 31
0.0
  0
LINE
  5
1DF
330
6C
100
AcDbEntity
  8
Visible (ANSI)
100
AcDbLine
 10
88.95971979295854
 20
64.15647409099452
 30
0.0
 11
89.21899227939363
 21
64.30693627504628
 31
0.0
  0
LINE
  5
1E0
330
6C
100
AcDbEntity
  8
Visible (ANSI)
100
AcDbLine
 10
89.21899227939363
 20
64.30693627504628
 30
0.0
 11
89.26760587060019
 21
64.33493098036951
 31
0.0
  0
LINE
  5
1E1
330
6C
100
AcDbEntity
  8
Visible (ANSI)
100
AcDbLine
 10
88.95971979295854
 20
63.42636090599681
 30
0.0
 11
89.01652639473644
 21
63.39364815966978
 31
0.0
  0
LINE
  5
1E2
330
6C
100
AcDbEntity
  8
Visible (ANSI)
100
AcDbLine
 10
89.01652639473644
 20
63.39364815966978
 30
0.0
 11
89.01652639473644
 21
63.39352825275813
 31
0.0
  0
LINE
  5
1E3
330
6C
100
AcDbEntity
  8
Visible Narrow (ANSI)
100
AcDbLine
 10
89.01642268574187
 20
63.39358797479616
 30
0.0
 11
89.01642268574184
 21
37.75509212716743
 31
0.0
  0
LINE
  5
1E4
330
6C
100
AcDbEntity
  8
Visible (ANSI)
100
AcDbLine
 10
89.01652639473644
 20
37.75503240512941
 30
0.0
 11
89.01652639473644
 21
37.75491249821777
 31
0.0
  0
LINE
  5
1E5
330
6C
100
AcDbEntity
  8
Visible (ANSI)
100
AcDbLine
 10
89.01652639473644
 20
37.75491249821777
 30
0.0
 11
88.9597197929585
 21
37.78762524454478
 31
0.0
  0
ELLIPSE
  5
1E6
330
6C
100
AcDbEntity
  8
Visible (ANSI)
100
AcDbEllipse
 10
89.07312557852522
 20
63.42624099908517
 30
0.0
 11
-0.0801899999999991
 21
0.0000000000000001
 31
0.0
210
0.0
220
0.0
230
1.0
 40
0.5758617009853096
 41
0.7247905929201793
 42
0.7853981633973906
  0
ELLIPSE
  5
1E7
330
6C
100
AcDbEntity
  8
Visible (ANSI)
100
AcDbEllipse
 10
89.0731255785252
 20
37.78774515145644
 30
0.0
 11
-0.0801899999999999
 21
-0.0000000000000015
 31
0.0
210
0.0
220
0.0
230
1.0
 40
0.5758617009853181
 41
0.0
 42
0.7853981633972884
  0
LINE
  5
1E8
330
6C
100
AcDbEntity
  8
Visible (ANSI)
100
AcDbLine
 10
88.9597197929585
 20
37.78762524454478
 30
0.0
 11
88.99293557852521
 21
37.8067529433208
 31
0.0
  0
LINE
  5
1E9
330
6C
100
AcDbEntity
  8
Visible (ANSI)
100
AcDbLine
 10
88.99293557852523
 20
63.40723320722079
 30
0.0
 11
88.99293557852521
 21
37.78774515145644
 31
0.0
  0
LINE
  5
1EA
330
6C
100
AcDbEntity
  8
Visible (ANSI)
100
AcDbLine
 10
89.01652639473644
 20
63.39352825275813
 30
0.0
 11
89.01642268574187
 21
63.39358797479616
 31
0.0
  0
LINE
  5
1EB
330
6C
100
AcDbEntity
  8
Visible (ANSI)
100
AcDbLine
 10
89.01642268574184
 20
37.75509212716743
 30
0.0
 11
89.01652639473644
 21
37.75503240512941
 31
0.0
  0
LINE
  5
1EC
330
6C
100
AcDbEntity
  8
Visible (ANSI)
100
AcDbLine
 10
89.20539481708276
 20
63.56771583636697
 30
0.0
 11
89.26565097724839
 21
63.60241505125483
 31
0.0
  0
LINE
  5
1ED
330
6C
100
AcDbEntity
  8
Visible (ANSI)
100
AcDbLine
 10
89.29250735308135
 20
63.56189119887785
 30
0.0
 11
89.22696402390348
 21
63.52414730584921
 31
0.0
  0
LINE
  5
1EE
330
6C
100
AcDbEntity
  8
Visible (ANSI)
100
AcDbLine
 10
89.21899227939361
 20
36.60843968538098
 30
0.0
 11
88.9597197929585
 21
37.05751205954707
 31
0.0
  0
DIMENSION
  5
1EF
330
6C
100
AcDbEntity
  8
Dimension (ANSI)
100
AcDbDimension
  2
*D4
 10
53.19396883017122
 20
67.2945524933204
 30
0.0
 11
36.09396883017122
 21
67.2945524933204
 31
0.0
 70
   160
  1
<>
 42
34.2
  3
Default (ANSI)
100
AcDbAlignedDimension
 13
18.99396883017122
 23
60.15544488177186
 33
0.0
 14
53.19396883017122
 24
60.15544488177186
 34
0.0
100
AcDbRotatedDimension
1001
ACAD
1000
DSTYLE
1002
{
1070
   289
1070
     1
1070
    73
1070
     0
1070
    74
1070
     0
1070
   271
1070
     2
1070
   272
1070
     2
1070
    48
1040
0.0
1070
    47
1040
0.0
1002
}
  0
DIMENSION
  5
2DC
330
6C
100
AcDbEntity
  8
Dimension (ANSI)
100
AcDbDimension
  2
*D5
 10
52.69396883017122
 20
65.27486745395034
 30
0.0
 11
36.09396883017123
 21
65.27486745395034
 31
0.0
 70
   160
  1
<>{ TYP.}
 71
     5
 42
33.2
  3
Default (ANSI)
100
AcDbAlignedDimension
 13
19.49396883017122
 23
60.65544488177184
 33
0.0
 14
52.69396883017122
 24
60.65544488177186
 34
0.0
 50
180.0
100
AcDbRotatedDimension
1001
ACAD
1000
DSTYLE
1002
{
1070
   289
1070
     1
1070
    73
1070
     0
1070
    74
1070
     0
1070
   271
1070
     2
1070
   272
1070
     2
1070
    48
1040
0.0
1070
    47
1040
0.0
1002
}
  0
DIMENSION
  5
3C6
330
6C
100
AcDbEntity
  8
Dimension (ANSI)
100
AcDbDimension
  2
*D6
 10
19.49396883017122
 20
65.27486745395034
 30
0.0
 11
16.22570987723992
 21
65.27486745395034
 31
0.0
 70
   160
  1
<>{\PTYP.}
 71
     5
 42
0.5
  3
Default (ANSI)
100
AcDbAlignedDimension
 13
18.99396883017122
 23
60.15544488177186
 33
0.0
 14
19.49396883017122
 24
60.65544488177184
 34
0.0
 50
180.0
100
AcDbRotatedDimension
1001
ACAD
1000
DSTYLE
1002
{
1070
   289
1070
     1
1070
    73
1070
     0
1070
    74
1070
     0
1070
   271
1070
     2
1070
   272
1070
     2
1070
    48
1040
0.0
1070
    47
1040
0.0
1002
}
  0
DIMENSION
  5
4C4
330
6C
100
AcDbEntity
  8
Dimension (ANSI)
100
AcDbDimension
  2
*D7
 10
10.57008431573553
 20
14.45544488177185
 30
0.0
 11
10.57008431573553
 21
37.55544488177185
 31
0.0
 70
   160
  1
<>
 42
46.2
  3
Default (ANSI)
100
AcDbAlignedDimension
 13
19.49396883017122
 23
60.65544488177184
 33
0.0
 14
19.49396883017123
 24
14.45544488177185
 34
0.0
 50
270.0
100
AcDbRotatedDimension
1001
ACAD
1000
DSTYLE
1002
{
1070
   289
1070
     1
1070
   271
1070
     2
1070
   272
1070
     2
1070
    48
1040
0.0
1070
    47
1040
0.0
1002
}
  0
DIMENSION
  5
5AE
330
6C
100
AcDbEntity
  8
Dimension (ANSI)
100
AcDbDimension
  2
*D8
 10
16.23054773283483
 20
60.15544488177186
 30
0.0
 11
16.23054773283482
 21
37.55544488177185
 31
0.0
 70
   160
  1
<>{\PTYP.}
 71
     5
 42
45.20000000000001
  3
Default (ANSI)
100
AcDbAlignedDimension
 13
18.99396883017123
 23
14.95544488177185
 33
0.0
 14
18.99396883017122
 24
60.15544488177186
 34
0.0
 50
90.0
100
AcDbRotatedDimension
1001
ACAD
1000
DSTYLE
1002
{
1070
   289
1070
     1
1070
   271
1070
     2
1070
   272
1070
     2
1070
    48
1040
0.0
1070
    47
1040
0.0
1002
}
  0
DIMENSION
  5
6AC
330
6C
100
AcDbEntity
  8
Dimension (ANSI)
100
AcDbDimension
  2
*D9
 10
14.34853298440271
 20
60.15544488177186
 30
0.0
 11
16.23054773283482
 21
62.91579614800014
 31
0.0
 70
   160
  1
<>{\PTYP.}
 71
     5
 42
0.4999999999999929
  3
Default (ANSI)
100
AcDbAlignedDimension
 13
19.49396883017122
 23
60.65544488177184
 33
0.0
 14
18.99396883017122
 24
60.15544488177186
 34
0.0
 50
90.0
100
AcDbRotatedDimension
1001
ACAD
1000
DSTYLE
1002
{
1070
   289
1070
     1
1070
   271
1070
     2
1070
   272
1070
     2
1070
    48
1040
0.0
1070
    47
1040
0.0
1002
}
  0
DIMENSION
  5
7C2
330
6C
100
AcDbEntity
  8
Dimension (ANSI)
100
AcDbDimension
  2
*D10
 10
19.38896883017119
 20
15.19195123271794
 30
0.0
 11
28.14009878323501
 21
10.66997090429993
 31
0.0
 70
   163
  1
<>{ TYP. (8 PL.)}
 42
0.5
  3
Default (ANSI)
100
AcDbDiametricDimension
 15
19.63896883017127
 25
14.75893853082576
 35
0.0
 40
0.0
1001
ACAD
1000
DSTYLE
1002
{
1070
   144
1040
1.0
1070
   271
1070
     2
1070
   272
1070
     2
1070
    48
1040
0.0
1070
    47
1040
0.0
1002
}
1001
ACAD_DSTYLE_DIMRADIAL_EXTENSION
1070
   387
1070
     1
1070
   388
1040
0.0
1070
   390
1040
0.0
  0
DIMENSION
  5
86C
330
6C
100
AcDbEntity
  8
Dimension (ANSI)
100
AcDbDimension
  2
*D11
 10
19.43584383017121
 20
15.86076135111316
 30
0.0
 11
28.13183580761626
 21
12.30546827849146
 31
0.0
 70
   163
  1
<>{ TYP. (4 PL.)}
 42
0.3125
  3
Default (ANSI)
100
AcDbDiametricDimension
 15
19.59209383017126
 25
15.59012841243055
 35
0.0
 40
0.0
1001
ACAD
1000
DSTYLE
1002
{
1070
   144
1040
1.0
1070
   271
1070
     2
1070
   272
1070
     2
1070
    48
1040
0.0
1070
    47
1040
0.0
1002
}
1001
ACAD_DSTYLE_DIMRADIAL_EXTENSION
1070
   387
1070
     1
1070
   388
1040
0.0
1070
   390
1040
0.0
  0
DIMENSION
  5
915
330
6C
100
AcDbEntity
  8
Dimension (ANSI)
100
AcDbDimension
  2
*D12
 10
58.77545864422015
 20
14.97544488177185
 30
0.0
 11
56.89344389578803
 21
11.93251372437567
 31
0.0
 70
   160
  1
<>{ \PTYP.}
 71
     5
 42
0.5199999999999978
  3
Default (ANSI)
100
AcDbAlignedDimension
 13
52.69396883017122
 23
14.45544488177185
 33
0.0
 14
52.67396883017124
 24
14.97544488177185
 34
0.0
 50
90.0
100
AcDbRotatedDimension
1001
ACAD
1000
DSTYLE
1002
{
1070
   289
1070
     1
1070
   271
1070
     2
1070
   272
1070
     2
1070
    48
1040
0.0
1070
    47
1040
0.0
1002
}
  0
DIMENSION
  5
A2B
330
6C
100
AcDbEntity
  8
Dimension (ANSI)
100
AcDbDimension
  2
*D13
 10
48.2686754952165
 20
15.72544488177185
 30
0.0
 11
46.434279795113
 21
12.0774391586822
 31
0.0
 70
   160
  1
<>{\PTYP.}
 71
     5
 42
1.269999999999997
  3
Default (ANSI)
100
AcDbAlignedDimension
 13
52.69396883017122
 23
14.45544488177185
 33
0.0
 14
52.67396883017124
 24
15.72544488177185
 34
0.0
 50
90.0
100
AcDbRotatedDimension
1001
ACAD
1000
DSTYLE
1002
{
1070
   289
1070
     1
1070
   271
1070
     2
1070
    76
1070
     1
1070
    75
1070
     1
1070
   272
1070
     2
1070
    48
1040
0.0
1070
    47
1040
0.0
1002
}
  0
DIMENSION
  5
B32
330
6C
100
AcDbEntity
  8
Dimension (ANSI)
100
AcDbDimension
  2
*D14
 10
53.19396883017123
 20
11.99048388399959
 30
0.0
 11
50.13578611759854
 21
11.99048388399959
 31
0.0
 70
   160
  1
<>{\PTYP.}
 71
     5
 42
0.5199999999999961
  3
Default (ANSI)
100
AcDbAlignedDimension
 13
52.67396883017124
 23
15.72544488177185
 33
0.0
 14
53.19396883017123
 24
14.95544488177185
 34
0.0
 50
180.0
100
AcDbRotatedDimension
1001
ACAD
1000
DSTYLE
1002
{
1070
   289
1070
     1
1070
    73
1070
     0
1070
    74
1070
     0
1070
   271
1070
     2
1070
   272
1070
     2
1070
    48
1040
0.0
1070
    47
1040
0.0
1002
}
  0
DIMENSION
  5
C30
330
6C
100
AcDbEntity
  8
Dimension (ANSI)
100
AcDbDimension
  2
*D15
 10
71.40785435874789
 20
59.73340325385888
 30
0.0
 11
75.15657634999509
 21
59.73340325385888
 31
0.0
 70
   160
  1
(<>){\P12 GA.\PGALV.}
 71
     5
 42
0.09375
  3
Default (ANSI)
100
AcDbAlignedDimension
 13
71.5016043587479
 23
40.66698674994309
 33
0.0
 14
71.40785435874789
 24
40.66698674994309
 34
0.0
100
AcDbRotatedDimension
1001
ACAD
1000
DSTYLE
1002
{
1070
   289
1070
     1
1070
    73
1070
     0
1070
    74
1070
     0
1070
   271
1070
     3
1070
    76
1070
     1
1070
    75
1070
     1
1070
   147
1040
0.031496062992126
1070
    72
1070
     0
1070
    71
1070
     0
1070
   272
1070
     3
1070
    48
1040
0.0
1070
    47
1040
0.0
1002
}
  0
MTEXT
  5
D29
102
{ACAD_XDICTIONARY
360
F27
102
}
330
6C
100
AcDbEntity
  8
Symbol (ANSI)
100
AcDbMText
 10
78.70128091032578
 20
12.33461538558756
 30
0.0
 40
0.6666666879428654
 41
31.65213788535638
 71
     4
 72
     1
  3
{\fRomanS|b0|i0|c0|p2;\H2.0001x;PART#: NP4836CG\P(DATA SUBJECT TO CHANGE \H1.6509x; \H0.60572x;\PWITHOUT NOTICE) \H1.5852x; \H0.63085x;\P\H0.59997x;THIS DRAWING IS PROPERTY OF HUBBELL INC. \H1.6701x; \H0.59878x;\PWIEGMANN\H1.279x; \H0.78184x;\PALL IN
  1
FORMATION IS PROPRIETARY AND NOT TO \H1.2955x; \H0.77188x;\PBE DUPLICATED\H1.2948x; \H0.7723x;\P\H1.2949x; }
  7
Note Text (ANSI)
 73
     1
 44
0.7816644310951233
1001
ACAD
1000
MTEXTBEGIN
1070
    73
1070
     1
1070
    44
1040
0.7816644310951233
1070
    74
1070
     0
1000
MTEXTEND
  0
LINE
  5
D2B
330
6C
100
AcDbEntity
  8
Center Mark (ANSI)
  6
CHAIN
 48
0.1804457306861877
100
AcDbLine
 10
18.4306354968379
 20
60.13544488177185
 30
0.0
 11
20.59730216350457
 21
60.13544488177185
 31
0.0
  0
LINE
  5
D2C
330
6C
100
AcDbEntity
  8
Center Mark (ANSI)
  6
CHAIN
 48
0.1804457306861877
100
AcDbLine
 10
53.75730216350456
 20
60.13544488177185
 30
0.0
 11
51.5906354968379
 21
60.13544488177185
 31
0.0
  0
LINE
  5
D2D
330
6C
100
AcDbEntity
  8
Centerline (ANSI)
  6
CHAIN
 48
0.9524481296539306
100
AcDbLine
 10
18.4306354968379
 20
60.13544488177185
 30
0.0
 11
53.75730216350456
 21
60.13544488177185
 31
0.0
  0
LINE
  5
D2E
330
6C
100
AcDbEntity
  8
Center Mark (ANSI)
  6
CHAIN
 48
0.1804457306861877
100
AcDbLine
 10
52.67396883017124
 20
13.89211154843852
 30
0.0
 11
52.67396883017124
 21
16.05877821510518
 31
0.0
  0
LINE
  5
D2F
330
6C
100
AcDbEntity
  8
Centerline (ANSI)
  6
CHAIN
 48
0.9524481296539306
100
AcDbLine
 10
52.67396883017124
 20
61.21877821510518
 30
0.0
 11
52.67396883017124
 21
13.89211154843852
 31
0.0
  0
LINE
  5
D30
330
6C
100
AcDbEntity
  8
Center Mark (ANSI)
  6
CHAIN
 48
0.1804457306861877
100
AcDbLine
 10
18.4306354968379
 20
14.97544488177185
 30
0.0
 11
20.59730216350457
 21
14.97544488177185
 31
0.0
  0
LINE
  5
D31
330
6C
100
AcDbEntity
  8
Centerline (ANSI)
  6
CHAIN
 48
0.9524481296539306
100
AcDbLine
 10
53.75730216350456
 20
14.97544488177185
 30
0.0
 11
18.4306354968379
 21
14.97544488177185
 31
0.0
  0
LINE
  5
D32
330
6C
100
AcDbEntity
  8
Centerline (ANSI)
  6
CHAIN
 48
0.9524481296539306
100
AcDbLine
 10
19.51396883017124
 20
13.89211154843852
 30
0.0
 11
19.51396883017124
 21
61.21877821510518
 31
0.0
  0
LINE
  5
D33
330
6C
100
AcDbEntity
  8
Center Mark (ANSI)
  6
CHAIN
 48
0.1648215800523758
100
AcDbLine
 10
19.51396883017124
 20
60.37502821510519
 30
0.0
 11
19.51396883017124
 21
58.39586154843852
 31
0.0
  0
LINE
  5
D34
330
6C
100
AcDbEntity
  8
Center Mark (ANSI)
  6
CHAIN
 48
0.1648215800523758
100
AcDbLine
 10
52.67396883017124
 20
60.37502821510519
 30
0.0
 11
52.67396883017124
 21
58.39586154843852
 31
0.0
  0
LINE
  5
D35
330
6C
100
AcDbEntity
  8
Centerline (ANSI)
  6
CHAIN
 48
0.9524481296539306
100
AcDbLine
 10
18.5243854968379
 20
59.38544488177186
 30
0.0
 11
53.66355216350457
 21
59.38544488177186
 31
0.0
  0
LINE
  5
D36
330
6C
100
AcDbEntity
  8
Center Mark (ANSI)
  6
CHAIN
 48
0.1648215800523758
100
AcDbLine
 10
19.51396883017124
 20
16.71502821510518
 30
0.0
 11
19.51396883017124
 21
14.73586154843852
 31
0.0
  0
LINE
  5
D37
330
6C
100
AcDbEntity
  8
Center Mark (ANSI)
  6
CHAIN
 48
0.1648215800523758
100
AcDbLine
 10
52.67396883017124
 20
16.71502821510518
 30
0.0
 11
52.67396883017124
 21
14.73586154843852
 31
0.0
  0
LINE
  5
D38
330
6C
100
AcDbEntity
  8
Centerline (ANSI)
  6
CHAIN
 48
0.9524481296539306
100
AcDbLine
 10
18.5243854968379
 20
15.72544488177185
 30
0.0
 11
53.66355216350457
 21
15.72544488177185
 31
0.0
  0
DIMENSION
  5
D39
330
6C
100
AcDbEntity
  8
Dimension (ANSI)
100
AcDbDimension
  2
*D16
 10
72.1818543587479
 20
52.23035819996487
 30
0.0
 11
74.81183005064784
 21
52.23035819996487
 31
0.0
 70
   160
  1
<>
 42
0.7740000000000009
  3
Default (ANSI)
100
AcDbAlignedDimension
 13
71.40785435874789
 23
60.15544488177186
 33
0.0
 14
72.1818543587479
 24
58.93744488177185
 34
0.0
 50
180.0
100
AcDbRotatedDimension
1001
ACAD
1000
DSTYLE
1002
{
1070
   289
1070
     1
1070
    73
1070
     0
1070
    74
1070
     0
1070
   271
1070
     2
1070
    76
1070
     1
1070
    75
1070
     1
1070
   272
1070
     2
1070
    48
1040
0.0
1070
    47
1040
0.0
1002
}
  0
LINE
  5
E18
330
6C
100
AcDbEntity
  8
Center Mark (ANSI)
  6
CHAIN
 48
0.1804457306861877
100
AcDbLine
 10
19.51396883017124
 20
38.63877821510519
 30
0.0
 11
19.51396883017124
 21
36.47211154843851
 31
0.0
  0
LINE
  5
E19
330
6C
100
AcDbEntity
  8
Center Mark (ANSI)
  6
CHAIN
 48
0.1804457306861877
100
AcDbLine
 10
52.67396883017124
 20
38.63877821510519
 30
0.0
 11
52.67396883017124
 21
36.47211154843852
 31
0.0
  0
LINE
  5
E1A
330
6C
100
AcDbEntity
  8
Centerline (ANSI)
  6
CHAIN
 48
0.9524481296539306
100
AcDbLine
 10
18.4306354968379
 20
37.55544488177185
 30
0.0
 11
53.75730216350456
 21
37.55544488177186
 31
0.0
  0
DIMENSION
  5
E1B
330
6C
100
AcDbEntity
  8
Dimension (ANSI)
100
AcDbDimension
  2
*D17
 10
56.89344389578803
 20
14.97544488177185
 30
0.0
 11
56.89344389578803
 21
26.26544488177186
 31
0.0
 70
   160
  1
<>{\PTYP.}
 71
     5
 42
22.58
  3
Default (ANSI)
100
AcDbAlignedDimension
 13
52.67396883017124
 23
37.55544488177186
 33
0.0
 14
52.67396883017124
 24
14.97544488177185
 34
0.0
 50
90.0
100
AcDbRotatedDimension
1001
ACAD
1000
DSTYLE
1002
{
1070
   289
1070
     1
1070
   271
1070
     2
1070
   272
1070
     2
1070
    48
1040
0.0
1070
    47
1040
0.0
1002
}
  0
ENDSEC
  0
SECTION
  2
OBJECTS
  0
DICTIONARY
  5
C
330
0
100
AcDbDictionary
281
     1
  3
ACAD_CIP_PREVIOUS_PRODUCT_INFO
350
F19
  3
ACAD_COLOR
350
63
  3
ACAD_GROUP
350
D
  3
ACAD_LAYOUT
350
62
  3
ACAD_MATERIAL
350
10
  3
ACAD_MLEADERSTYLE
350
66
  3
ACAD_MLINESTYLE
350
5F
  3
ACAD_PLOTSETTINGS
350
61
  3
ACAD_PLOTSTYLENAME
350
E
  3
ACAD_SCALELIST
350
42
  3
ACAD_TABLESTYLE
350
64
  3
ACAD_VISUALSTYLE
350
29
  3
ACDB_RECOMPOSE_DATA
350
F29
  3
AcDbVariableDictionary
350
76
  3
DWGPROPS
350
F2A
  0
DICTIONARY
  5
F66
330
866
100
AcDbDictionary
280
     1
281
     1
  3
ACAD_MTEXT_RT
360
F67
  0
DICTIONARY
  5
F68
330
90F
100
AcDbDictionary
280
     1
281
     1
  3
ACAD_MTEXT_RT
360
F69
  0
DICTIONARY
  5
F27
330
D29
100
AcDbDictionary
280
     1
281
     1
  3
ACAD_MTEXT_2008_RT
360
F28
  0
XRECORD
  5
F19
102
{ACAD_REACTORS
330
C
102
}
330
C
100
AcDbXrecord
280
     1
300
INVNTOR
300
2012
300
85795PDSP_2012_0F
  0
DICTIONARY
  5
63
102
{ACAD_REACTORS
330
C
102
}
330
C
100
AcDbDictionary
281
     1
  0
DICTIONARY
  5
D
102
{ACAD_REACTORS
330
C
102
}
330
C
100
AcDbDictionary
281
     1
  0
DICTIONARY
  5
62
102
{ACAD_REACTORS
330
C
102
}
330
C
100
AcDbDictionary
281
     1
  3
Layout1
350
6B
  3
Layout2
350
73
  3
Model
350
6F
  0
DICTIONARY
  5
10
102
{ACAD_REACTORS
330
C
102
}
330
C
100
AcDbDictionary
281
     1
  3
ByBlock
350
19
  3
ByLayer
350
11
  3
Global
350
21
  0
DICTIONARY
  5
66
102
{ACAD_REACTORS
330
C
102
}
330
C
100
AcDbDictionary
281
     1
  3
Standard
350
67
  0
DICTIONARY
  5
5F
102
{ACAD_REACTORS
330
C
102
}
330
C
100
AcDbDictionary
281
     1
  3
Standard
350
60
  0
DICTIONARY
  5
61
102
{ACAD_REACTORS
330
C
102
}
330
C
100
AcDbDictionary
281
     1
  0
ACDBDICTIONARYWDFLT
  5
E
102
{ACAD_REACTORS
330
C
102
}
330
C
100
AcDbDictionary
281
     1
  3
Normal
350
F
100
AcDbDictionaryWithDefault
340
F
  0
DICTIONARY
  5
42
102
{ACAD_REACTORS
330
C
102
}
330
C
100
AcDbDictionary
281
     1
  3
A0
350
43
  3
A1
350
44
  3
A2
350
45
  3
A3
350
46
  3
A4
350
47
  3
A5
350
48
  3
A6
350
49
  3
A7
350
4A
  3
A8
350
4B
  3
A9
350
4C
  3
B0
350
4D
  3
B1
350
4E
  3
B2
350
4F
  3
B3
350
50
  3
B4
350
51
  3
B5
350
52
  3
B6
350
53
  0
DICTIONARY
  5
64
102
{ACAD_REACTORS
330
C
102
}
330
C
100
AcDbDictionary
281
     1
  3
Standard
350
65
  0
DICTIONARY
  5
29
102
{ACAD_REACTORS
330
C
102
}
330
C
100
AcDbDictionary
281
     1
  3
2dWireframe
350
2F
  3
Basic
350
2E
  3
Brighten
350
35
  3
ColorChange
350
39
  3
Conceptual
350
32
  3
Dim
350
34
  3
EdgeColorOff
350
41
  3
Facepattern
350
38
  3
Flat
350
2A
  3
FlatWithEdges
350
2B
  3
Gouraud
350
2C
  3
GouraudWithEdges
350
2D
  3
Hidden
350
31
  3
JitterOff
350
3F
  3
Linepattern
350
37
  3
OverhangOff
350
40
  3
Realistic
350
33
  3
Shaded
350
3E
  3
Shaded with edges
350
3D
  3
Shades of Gray
350
3A
  3
Sketchy
350
3B
  3
Thicken
350
36
  3
Wireframe
350
30
  3
X-Ray
350
3C
  0
XRECORD
  5
F29
102
{ACAD_REACTORS
330
C
102
}
330
C
100
AcDbXrecord
280
     1
 90
        1
330
65
330
D29
  0
DICTIONARY
  5
76
102
{ACAD_REACTORS
330
C
102
}
330
C
100
AcDbDictionary
281
     1
  3
CANNOSCALE
350
79
  3
CMLEADERSTYLE
350
78
  3
CTABLESTYLE
350
77
  3
DIMASSOC
350
F21
  3
HIDETEXT
350
F20
  3
INDEXCTL
350
F1F
  3
LAYEREVAL
350
F1C
  3
LAYERNOTIFY
350
F1D
  3
LIGHTINGUNITS
350
F1B
  3
MSLTSCALE
350
F1A
  3
SORTENTS
350
F1E
  3
XCLIPFRAME
350
F22
  0
XRECORD
  5
F2A
102
{ACAD_REACTORS
330
C
102
}
330
C
100
AcDbXrecord
280
     1
  1
DWGPROPS COOKIE
  2

  3

  4
JF
  6

  7

  8

  9
-
300
Manager=
301
Company=
302
Category=
303
Part Number=NP4836CG-S
304
Description=
305
Project=
306
Designer=JF
307
Engineer=
308
Authority=
309
Cost Center=
 40
0.000040150462963
 41
2455950.409156783
 42
2455950.409156783
  1

 90
       22
300
Vendor=
300
User Status=
300
Design Status=WorkInProgress
300
Checked by=DN
300
Date Checked=01/18/2012
300
Engr Approved by=
300
Date Eng Approved=01/18/2012
300
Mfg Approved by=
300
Date Mfg Approved=01/18/2012
300
DWG. NO=
300
NUMBER OF SHEETS=1
300
DRAWING #=
  0
XRECORD
  5
F67
102
{ACAD_REACTORS
330
F66
102
}
330
F66
100
AcDbXrecord
280
     1
 40
28833.0
  1
\A1;\U+22050.50{ TYP. (8 PL.)}
  0
XRECORD
  5
F69
102
{ACAD_REACTORS
330
F68
102
}
330
F68
100
AcDbXrecord
280
     1
 40
28724.0
  1
\A1;\U+22050.31{ TYP. (4 PL.)}
  0
XRECORD
  5
F28
102
{ACAD_REACTORS
330
F27
102
}
330
F27
100
AcDbXrecord
280
     1
 40
4313386.0
  1
\pxsm0.94;{\fRomanS|b0|i0;\H1.3334;PART#: NP4836CG\P(DATA SUBJECT TO CHANGE \PWITHOUT NOTICE) \P\fRomanS|b0|i0;\H0.8000;THIS DRAWING IS PROPERTY OF HUBBELL INC. \PWIEGMANN\PALL INFORMATION IS PROPRIETARY AND NOT TO \PBE DUPLICATED\P}
  0
LAYOUT
  5
6B
102
{ACAD_XDICTIONARY
360
F60
102
}
102
{ACAD_REACTORS
330
62
102
}
330
62
100
AcDbPlotSettings
  1

  2

  4

  6

 40
0.0
 41
0.0
 42
0.0
 43
0.0
 44
0.0
 45
0.0
 46
0.0
 47
0.0
 48
0.0
 49
0.0
140
0.0
141
0.0
142
1.0
143
1.0
 70
   688
 72
     0
 73
     0
 74
     5
  7

 75
    16
147
1.0
148
0.0
149
0.0
100
AcDbLayout
  1
Layout1
 70
     1
 71
     1
 10
0.0
 20
0.0
 11
12.0
 21
9.0
 12
0.0
 22
0.0
 32
0.0
 14
0.0
 24
0.0
 34
0.0
 15
0.0
 25
0.0
 35
0.0
146
0.0
 13
0.0
 23
0.0
 33
0.0
 16
1.0
 26
0.0
 36
0.0
 17
0.0
 27
1.0
 37
0.0
 76
     0
330
68
  0
LAYOUT
  5
73
102
{ACAD_XDICTIONARY
360
F64
102
}
102
{ACAD_REACTORS
330
62
102
}
330
62
100
AcDbPlotSettings
  1

  2

  4

  6

 40
0.0
 41
0.0
 42
0.0
 43
0.0
 44
0.0
 45
0.0
 46
0.0
 47
0.0
 48
0.0
 49
0.0
140
0.0
141
0.0
142
1.0
143
1.0
 70
   688
 72
     0
 73
     0
 74
     5
  7

 75
    16
147
1.0
148
0.0
149
0.0
100
AcDbLayout
  1
Layout2
 70
     1
 71
     2
 10
0.0
 20
0.0
 11
12.0
 21
9.0
 12
0.0
 22
0.0
 32
0.0
 14
0.0
 24
0.0
 34
0.0
 15
0.0
 25
0.0
 35
0.0
146
0.0
 13
0.0
 23
0.0
 33
0.0
 16
1.0
 26
0.0
 36
0.0
 17
0.0
 27
1.0
 37
0.0
 76
     0
330
70
  0
LAYOUT
  5
6F
102
{ACAD_XDICTIONARY
360
F62
102
}
102
{ACAD_REACTORS
330
62
102
}
330
62
100
AcDbPlotSettings
  1

  2

  4

  6

 40
0.0
 41
0.0
 42
0.0
 43
0.0
 44
0.0
 45
0.0
 46
0.0
 47
0.0
 48
0.0
 49
0.0
140
0.0
141
0.0
142
1.0
143
1.0
 70
  1712
 72
     0
 73
     0
 74
     0
  7

 75
     0
147
1.0
148
0.0
149
0.0
100
AcDbLayout
  1
Model
 70
     1
 71
     0
 10
0.0
 20
0.0
 11
12.0
 21
9.0
 12
0.0
 22
0.0
 32
0.0
 14
0.0
 24
0.0
 34
0.0
 15
0.0
 25
0.0
 35
0.0
146
0.0
 13
0.0
 23
0.0
 33
0.0
 16
1.0
 26
0.0
 36
0.0
 17
0.0
 27
1.0
 37
0.0
 76
     0
330
6C
  0
MATERIAL
  5
19
102
{ACAD_XDICTIONARY
360
1A
102
}
102
{ACAD_REACTORS
330
10
102
}
330
10
100
AcDbMaterial
  1
ByBlock
 72
     0
 43
0.0208333333333333
 43
0.0
 43
0.0
 43
0.0
 43
0.0
 43
0.0208333333333333
 43
0.0
 43
0.0
 43
0.0
 43
0.0
 43
1.0
 43
0.0
 43
0.0
 43
0.0
 43
0.0
 43
1.0
 77
     0
 47
0.0208333333333333
 47
0.0
 47
0.0
 47
0.0
 47
0.0
 47
0.0208333333333333
 47
0.0
 47
0.0
 47
0.0
 47
0.0
 47
1.0
 47
0.0
 47
0.0
 47
0.0
 47
0.0
 47
1.0
171
     0
 49
0.0208333333333333
 49
0.0
 49
0.0
 49
0.0
 49
0.0
 49
0.0208333333333333
 49
0.0
 49
0.0
 49
0.0
 49
0.0
 49
1.0
 49
0.0
 49
0.0
 49
0.0
 49
0.0
 49
1.0
175
     0
142
0.0208333333333333
142
0.0
142
0.0
142
0.0
142
0.0
142
0.0208333333333333
142
0.0
142
0.0
142
0.0
142
0.0
142
1.0
142
0.0
142
0.0
142
0.0
142
0.0
142
1.0
179
     0
144
0.0208333333333333
144
0.0
144
0.0
144
0.0
144
0.0
144
0.0208333333333333
144
0.0
144
0.0
144
0.0
144
0.0
144
1.0
144
0.0
144
0.0
144
0.0
144
0.0
144
1.0
147
0.0208333333333333
147
0.0
147
0.0
147
0.0
147
0.0
147
0.0208333333333333
147
0.0
147
0.0
147
0.0
147
0.0
147
1.0
147
0.0
147
0.0
147
0.0
147
0.0
147
1.0
  0
MATERIAL
  5
11
102
{ACAD_XDICTIONARY
360
12
102
}
102
{ACAD_REACTORS
330
10
102
}
330
10
100
AcDbMaterial
  1
ByLayer
 72
     0
 43
0.0208333333333333
 43
0.0
 43
0.0
 43
0.0
 43
0.0
 43
0.0208333333333333
 43
0.0
 43
0.0
 43
0.0
 43
0.0
 43
1.0
 43
0.0
 43
0.0
 43
0.0
 43
0.0
 43
1.0
 77
     0
 47
0.0208333333333333
 47
0.0
 47
0.0
 47
0.0
 47
0.0
 47
0.0208333333333333
 47
0.0
 47
0.0
 47
0.0
 47
0.0
 47
1.0
 47
0.0
 47
0.0
 47
0.0
 47
0.0
 47
1.0
171
     0
 49
0.0208333333333333
 49
0.0
 49
0.0
 49
0.0
 49
0.0
 49
0.0208333333333333
 49
0.0
 49
0.0
 49
0.0
 49
0.0
 49
1.0
 49
0.0
 49
0.0
 49
0.0
 49
0.0
 49
1.0
175
     0
142
0.0208333333333333
142
0.0
142
0.0
142
0.0
142
0.0
142
0.0208333333333333
142
0.0
142
0.0
142
0.0
142
0.0
142
1.0
142
0.0
142
0.0
142
0.0
142
0.0
142
1.0
179
     0
144
0.0208333333333333
144
0.0
144
0.0
144
0.0
144
0.0
144
0.0208333333333333
144
0.0
144
0.0
144
0.0
144
0.0
144
1.0
144
0.0
144
0.0
144
0.0
144
0.0
144
1.0
147
0.0208333333333333
147
0.0
147
0.0
147
0.0
147
0.0
147
0.0208333333333333
147
0.0
147
0.0
147
0.0
147
0.0
147
1.0
147
0.0
147
0.0
147
0.0
147
0.0
147
1.0
  0
MATERIAL
  5
21
102
{ACAD_XDICTIONARY
360
22
102
}
102
{ACAD_REACTORS
330
10
102
}
330
10
100
AcDbMaterial
  1
Global
 72
     0
 43
0.0208333333333333
 43
0.0
 43
0.0
 43
0.0
 43
0.0
 43
0.0208333333333333
 43
0.0
 43
0.0
 43
0.0
 43
0.0
 43
1.0
 43
0.0
 43
0.0
 43
0.0
 43
0.0
 43
1.0
 77
     0
 47
0.0208333333333333
 47
0.0
 47
0.0
 47
0.0
 47
0.0
 47
0.0208333333333333
 47
0.0
 47
0.0
 47
0.0
 47
0.0
 47
1.0
 47
0.0
 47
0.0
 47
0.0
 47
0.0
 47
1.0
171
     0
 49
0.0208333333333333
 49
0.0
 49
0.0
 49
0.0
 49
0.0
 49
0.0208333333333333
 49
0.0
 49
0.0
 49
0.0
 49
0.0
 49
1.0
 49
0.0
 49
0.0
 49
0.0
 49
0.0
 49
1.0
175
     0
142
0.0208333333333333
142
0.0
142
0.0
142
0.0
142
0.0
142
0.0208333333333333
142
0.0
142
0.0
142
0.0
142
0.0
142
1.0
142
0.0
142
0.0
142
0.0
142
0.0
142
1.0
179
     0
144
0.0208333333333333
144
0.0
144
0.0
144
0.0
144
0.0
144
0.0208333333333333
144
0.0
144
0.0
144
0.0
144
0.0
144
1.0
144
0.0
144
0.0
144
0.0
144
0.0
144
1.0
147
0.0208333333333333
147
0.0
147
0.0
147
0.0
147
0.0
147
0.0208333333333333
147
0.0
147
0.0
147
0.0
147
0.0
147
1.0
147
0.0
147
0.0
147
0.0
147
0.0
147
1.0
  0
MLEADERSTYLE
  5
67
102
{ACAD_XDICTIONARY
360
F25
102
}
102
{ACAD_REACTORS
330
66
102
}
330
66
100
AcDbMLeaderStyle
170
     2
171
     1
172
     0
 90
        2
 40
0.0
 41
0.0
173
     1
 91
-1056964608
340
5B
 92
       -2
290
     1
 42
0.09
291
     1
 43
0.36
  3
Standard
 44
0.18
300

342
55
174
     1
178
     6
175
     1
176
     0
 93
-1056964608
 45
0.18
292
     0
297
     0
 46
0.18
 94
-1056964608
 47
1.0
 49
1.0
140
1.0
293
     1
141
0.0
294
     1
177
     0
142
1.0
295
     0
296
     0
143
0.125
1001
ACAD_MLEADERVER
1070
     2
  0
MLINESTYLE
  5
60
102
{ACAD_REACTORS
330
5F
102
}
330
5F
100
AcDbMlineStyle
  2
STANDARD
 70
     0
  3

 62
   256
 51
90.0
 52
90.0
 71
     2
 49
0.5
 62
   256
  6
BYLAYER
 49
-0.5
 62
   256
  6
BYLAYER
  0
ACDBPLACEHOLDER
  5
F
102
{ACAD_REACTORS
330
E
102
}
330
E
  0
SCALE
  5
43
102
{ACAD_REACTORS
330
42
102
}
330
42
100
AcDbScale
 70
     0
300
1:1
140
1.0
141
1.0
290
     1
  0
SCALE
  5
44
102
{ACAD_REACTORS
330
42
102
}
330
42
100
AcDbScale
 70
     0
300
1/128" = 1'-0"
140
0.0078125
141
12.0
290
     0
  0
SCALE
  5
45
102
{ACAD_REACTORS
330
42
102
}
330
42
100
AcDbScale
 70
     0
300
1/64" = 1'-0"
140
0.015625
141
12.0
290
     0
  0
SCALE
  5
46
102
{ACAD_REACTORS
330
42
102
}
330
42
100
AcDbScale
 70
     0
300
1/32" = 1'-0"
140
0.03125
141
12.0
290
     0
  0
SCALE
  5
47
102
{ACAD_REACTORS
330
42
102
}
330
42
100
AcDbScale
 70
     0
300
1/16" = 1'-0"
140
0.0625
141
12.0
290
     0
  0
SCALE
  5
48
102
{ACAD_REACTORS
330
42
102
}
330
42
100
AcDbScale
 70
     0
300
3/32" = 1'-0"
140
0.09375
141
12.0
290
     0
  0
SCALE
  5
49
102
{ACAD_REACTORS
330
42
102
}
330
42
100
AcDbScale
 70
     0
300
1/8" = 1'-0"
140
0.125
141
12.0
290
     0
  0
SCALE
  5
4A
102
{ACAD_REACTORS
330
42
102
}
330
42
100
AcDbScale
 70
     0
300
3/16" = 1'-0"
140
0.1875
141
12.0
290
     0
  0
SCALE
  5
4B
102
{ACAD_REACTORS
330
42
102
}
330
42
100
AcDbScale
 70
     0
300
1/4" = 1'-0"
140
0.25
141
12.0
290
     0
  0
SCALE
  5
4C
102
{ACAD_REACTORS
330
42
102
}
330
42
100
AcDbScale
 70
     0
300
3/8" = 1'-0"
140
0.375
141
12.0
290
     0
  0
SCALE
  5
4D
102
{ACAD_REACTORS
330
42
102
}
330
42
100
AcDbScale
 70
     0
300
1/2" = 1'-0"
140
0.5
141
12.0
290
     0
  0
SCALE
  5
4E
102
{ACAD_REACTORS
330
42
102
}
330
42
100
AcDbScale
 70
     0
300
3/4" = 1'-0"
140
0.75
141
12.0
290
     0
  0
SCALE
  5
4F
102
{ACAD_REACTORS
330
42
102
}
330
42
100
AcDbScale
 70
     0
300
1" = 1'-0"
140
1.0
141
12.0
290
     0
  0
SCALE
  5
50
102
{ACAD_REACTORS
330
42
102
}
330
42
100
AcDbScale
 70
     0
300
1-1/2" = 1'-0"
140
1.5
141
12.0
290
     0
  0
SCALE
  5
51
102
{ACAD_REACTORS
330
42
102
}
330
42
100
AcDbScale
 70
     0
300
3" = 1'-0"
140
3.0
141
12.0
290
     0
  0
SCALE
  5
52
102
{ACAD_REACTORS
330
42
102
}
330
42
100
AcDbScale
 70
     0
300
6" = 1'-0"
140
6.0
141
12.0
290
     0
  0
SCALE
  5
53
102
{ACAD_REACTORS
330
42
102
}
330
42
100
AcDbScale
 70
     0
300
1'-0" = 1'-0"
140
12.0
141
12.0
290
     0
  0
TABLESTYLE
  5
65
102
{ACAD_XDICTIONARY
360
F23
102
}
102
{ACAD_REACTORS
330
64
102
}
330
64
100
AcDbTableStyle
  3
Standard
 70
     0
 71
     0
 40
0.06
 41
0.06
280
     0
281
     0
  7
Standard
140
0.18
170
     2
 62
     0
 63
     7
283
     0
274
    -2
284
     1
 64
     0
275
    -2
285
     1
 65
     0
276
    -2
286
     1
 66
     0
277
    -2
287
     1
 67
     0
278
    -2
288
     1
 68
     0
279
    -2
289
     1
 69
     0
  7
Standard
140
0.25
170
     5
 62
     0
 63
     7
283
     0
274
    -2
284
     1
 64
     0
275
    -2
285
     1
 65
     0
276
    -2
286
     1
 66
     0
277
    -2
287
     1
 67
     0
278
    -2
288
     1
 68
     0
279
    -2
289
     1
 69
     0
  7
Standard
140
0.18
170
     5
 62
     0
 63
     7
283
     0
274
    -2
284
     1
 64
     0
275
    -2
285
     1
 65
     0
276
    -2
286
     1
 66
     0
277
    -2
287
     1
 67
     0
278
    -2
288
     1
 68
     0
279
    -2
289
     1
 69
     0
  0
VISUALSTYLE
  5
2F
102
{ACAD_XDICTIONARY
360
F38
102
}
102
{ACAD_REACTORS
330
29
102
}
330
29
100
AcDbVisualStyle
  2
2dWireframe
 70
     4
 71
     0
 72
     2
 73
     0
 90
        0
 40
-0.6
 41
-30.0
 62
     5
 63
     7
 74
     1
 91
        4
 64
     7
 65
   257
 75
     1
175
     1
 42
1.0
 92
        0
 66
   257
 43
1.0
 76
     1
 77
     6
 78
     2
 67
     7
 79
     5
170
     0
171
     0
290
     0
174
     0
 93
        1
 44
0.0
173
     0
291
     0
 45
0.0
1001
ACAD
1000
AcDbSavedByObjectVersion
1070
     0
  0
VISUALSTYLE
  5
2E
102
{ACAD_XDICTIONARY
360
F36
102
}
102
{ACAD_REACTORS
330
29
102
}
330
29
100
AcDbVisualStyle
  2
Basic
 70
     7
 71
     1
 72
     0
 73
     1
 90
        0
 40
-0.6
 41
-30.0
 62
     5
 63
     7
 74
     0
 91
        4
 64
     7
 65
   257
 75
     1
175
     1
 42
1.0
 92
        8
 66
     7
 43
1.0
 76
     1
 77
     6
 78
     2
 67
     7
 79
     5
170
     0
171
     0
290
     0
174
     0
 93
        1
 44
0.0
173
     0
291
     1
 45
0.0
1001
ACAD
1000
AcDbSavedByObjectVersion
1070
     0
  0
VISUALSTYLE
  5
35
102
{ACAD_XDICTIONARY
360
F44
102
}
102
{ACAD_REACTORS
330
29
102
}
330
29
100
AcDbVisualStyle
  2
Brighten
 70
    12
 71
     2
 72
     2
 73
     0
 90
        0
 40
-0.6
 41
-30.0
 62
     5
 63
     7
 74
     1
 91
        4
 64
     7
 65
   257
 75
     1
175
     1
 42
1.0
 92
        8
 66
     7
 43
1.0
 76
     1
 77
     6
 78
     2
 67
     7
 79
     5
170
     0
171
     0
290
     0
174
     0
 93
        1
 44
50.0
173
     0
291
     1
 45
0.0
1001
ACAD
1000
AcDbSavedByObjectVersion
1070
     0
  0
VISUALSTYLE
  5
39
102
{ACAD_XDICTIONARY
360
F4C
102
}
102
{ACAD_REACTORS
330
29
102
}
330
29
100
AcDbVisualStyle
  2
ColorChange
 70
    16
 71
     2
 72
     2
 73
     3
 90
        0
 40
-0.6
 41
-30.0
 62
     5
 63
     8
 74
     1
 91
        4
 64
     7
 65
   257
 75
     1
175
     1
 42
1.0
 92
        8
 66
     8
 43
1.0
 76
     1
 77
     6
 78
     2
 67
     7
 79
     5
170
     0
171
     0
290
     0
174
     0
 93
        1
 44
0.0
173
     0
291
     1
 45
0.0
1001
ACAD
1000
AcDbSavedByObjectVersion
1070
     0
  0
VISUALSTYLE
  5
32
102
{ACAD_XDICTIONARY
360
F3E
102
}
102
{ACAD_REACTORS
330
29
102
}
330
29
100
AcDbVisualStyle
  2
Conceptual
 70
     9
 71
     3
 72
     2
 73
     0
 90
        0
 40
-0.6
 41
-30.0
 62
     5
 63
     7
 74
     2
 91
        2
 64
     7
 65
   257
 75
     1
175
     1
 42
179.0
 92
        8
 66
     7
 43
1.0
 76
     1
 77
     6
 78
     2
 67
     7
 79
     3
170
     0
171
     0
290
     0
174
     0
 93
        1
 44
0.0
173
     0
291
     0
 45
0.0
1001
ACAD
1000
AcDbSavedByObjectVersion
1070
     0
  0
VISUALSTYLE
  5
34
102
{ACAD_XDICTIONARY
360
F42
102
}
102
{ACAD_REACTORS
330
29
102
}
330
29
100
AcDbVisualStyle
  2
Dim
 70
    11
 71
     2
 72
     2
 73
     0
 90
        0
 40
-0.6
 41
-30.0
 62
     5
 63
     7
 74
     1
 91
        4
 64
     7
 65
   257
 75
     1
175
     1
 42
1.0
 92
        8
 66
     7
 43
1.0
 76
     1
 77
     6
 78
     2
 67
     7
 79
     5
170
     0
171
     0
290
     0
174
     0
 93
        1
 44
-50.0
173
     0
291
     1
 45
0.0
1001
ACAD
1000
AcDbSavedByObjectVersion
1070
     0
  0
VISUALSTYLE
  5
41
102
{ACAD_XDICTIONARY
360
F5C
102
}
102
{ACAD_REACTORS
330
29
102
}
330
29
100
AcDbVisualStyle
  2
EdgeColorOff
 70
    22
 71
     2
 72
     2
 73
     0
 90
        0
 40
-0.6
 41
-30.0
 62
     5
 63
     7
 74
     1
 91
        4
 64
     7
 65
   257
 75
     1
175
     1
 42
1.0
 92
        8
 66
     7
 43
1.0
 76
     1
 77
     6
 78
     2
 67
     7
 79
     5
170
     0
171
     0
290
     0
174
     0
 93
        1
 44
0.0
173
     0
291
     1
 45
0.0
1001
ACAD
1000
AcDbSavedByObjectVersion
1070
     0
  0
VISUALSTYLE
  5
38
102
{ACAD_XDICTIONARY
360
F4A
102
}
102
{ACAD_REACTORS
330
29
102
}
330
29
100
AcDbVisualStyle
  2
Facepattern
 70
    15
 71
     2
 72
     2
 73
     0
 90
        0
 40
-0.6
 41
-30.0
 62
     5
 63
     7
 74
     1
 91
        4
 64
     7
 65
   257
 75
     1
175
     1
 42
1.0
 92
        8
 66
     7
 43
1.0
 76
     1
 77
     6
 78
     2
 67
     7
 79
     5
170
     0
171
     0
290
     0
174
     0
 93
        1
 44
0.0
173
     0
291
     1
 45
0.0
1001
ACAD
1000
AcDbSavedByObjectVersion
1070
     0
  0
VISUALSTYLE
  5
2A
102
{ACAD_XDICTIONARY
360
F2E
102
}
102
{ACAD_REACTORS
330
29
102
}
330
29
100
AcDbVisualStyle
  2
Flat
 70
     0
 71
     2
 72
     1
 73
     1
 90
        2
 40
-0.6
 41
30.0
 62
     5
 63
     7
 74
     0
 91
        0
 64
     7
 65
   257
 75
     1
175
     1
 42
1.0
 92
        8
 66
     7
 43
1.0
 76
     1
 77
     6
 78
     2
 67
     7
 79
     5
170
     0
171
     0
290
     0
174
     0
 93
       13
 44
0.0
173
     0
291
     1
 45
0.0
1001
ACAD
1000
AcDbSavedByObjectVersion
1070
     0
  0
VISUALSTYLE
  5
2B
102
{ACAD_XDICTIONARY
360
F30
102
}
102
{ACAD_REACTORS
330
29
102
}
330
29
100
AcDbVisualStyle
  2
FlatWithEdges
 70
     1
 71
     2
 72
     1
 73
     1
 90
        2
 40
-0.6
 41
30.0
 62
     5
 63
     7
 74
     1
 91
        0
 64
     7
 65
   257
 75
     1
175
     1
 42
1.0
 92
        0
 66
   257
 43
1.0
 76
     1
 77
     6
 78
     2
 67
     7
 79
     5
170
     0
171
     0
290
     0
174
     0
 93
       13
 44
0.0
173
     0
291
     1
 45
0.0
1001
ACAD
1000
AcDbSavedByObjectVersion
1070
     0
  0
VISUALSTYLE
  5
2C
102
{ACAD_XDICTIONARY
360
F32
102
}
102
{ACAD_REACTORS
330
29
102
}
330
29
100
AcDbVisualStyle
  2
Gouraud
 70
     2
 71
     2
 72
     2
 73
     1
 90
        2
 40
-0.6
 41
30.0
 62
     5
 63
     7
 74
     0
 91
        0
 64
     7
 65
   257
 75
     1
175
     1
 42
1.0
 92
        0
 66
     7
 43
1.0
 76
     1
 77
     6
 78
     2
 67
     7
 79
     5
170
     0
171
     0
290
     0
174
     0
 93
       13
 44
0.0
173
     0
291
     1
 45
0.0
1001
ACAD
1000
AcDbSavedByObjectVersion
1070
     0
  0
VISUALSTYLE
  5
2D
102
{ACAD_XDICTIONARY
360
F34
102
}
102
{ACAD_REACTORS
330
29
102
}
330
29
100
AcDbVisualStyle
  2
GouraudWithEdges
 70
     3
 71
     2
 72
     2
 73
     1
 90
        2
 40
-0.6
 41
30.0
 62
     5
 63
     7
 74
     1
 91
        0
 64
     7
 65
   257
 75
     1
175
     1
 42
1.0
 92
        0
 66
   257
 43
1.0
 76
     1
 77
     6
 78
     2
 67
     7
 79
     5
170
     0
171
     0
290
     0
174
     0
 93
       13
 44
0.0
173
     0
291
     1
 45
0.0
1001
ACAD
1000
AcDbSavedByObjectVersion
1070
     0
  0
VISUALSTYLE
  5
31
102
{ACAD_XDICTIONARY
360
F3C
102
}
102
{ACAD_REACTORS
330
29
102
}
330
29
100
AcDbVisualStyle
  2
Hidden
 70
     6
 71
     1
 72
     2
 73
     2
 90
        0
 40
-0.6
 41
-30.0
 62
     5
 63
     7
 74
     2
 91
        2
 64
     7
 65
   257
 75
     2
175
     1
 42
40.0
 92
        0
 66
   257
 43
1.0
 76
     1
 77
     6
 78
     2
 67
     7
 79
     3
170
     0
171
     0
290
     0
174
     0
 93
        1
 44
0.0
173
     0
291
     0
 45
0.0
1001
ACAD
1000
AcDbSavedByObjectVersion
1070
     0
  0
VISUALSTYLE
  5
3F
102
{ACAD_XDICTIONARY
360
F58
102
}
102
{ACAD_REACTORS
330
29
102
}
330
29
100
AcDbVisualStyle
  2
JitterOff
 70
    20
 71
     2
 72
     2
 73
     0
 90
        0
 40
-0.6
 41
-30.0
 62
     5
 63
     7
 74
     1
 91
        4
 64
     7
 65
   257
 75
     1
175
     1
 42
1.0
 92
       10
 66
     7
 43
1.0
 76
     1
 77
     6
 78
     2
 67
     7
 79
     5
170
     0
171
     0
290
     0
174
     0
 93
        1
 44
0.0
173
     0
291
     1
 45
0.0
1001
ACAD
1000
AcDbSavedByObjectVersion
1070
     0
  0
VISUALSTYLE
  5
37
102
{ACAD_XDICTIONARY
360
F48
102
}
102
{ACAD_REACTORS
330
29
102
}
330
29
100
AcDbVisualStyle
  2
Linepattern
 70
    14
 71
     2
 72
     2
 73
     0
 90
        0
 40
-0.6
 41
-30.0
 62
     5
 63
     7
 74
     1
 91
        4
 64
     7
 65
   257
 75
     7
175
     7
 42
1.0
 92
        8
 66
     7
 43
1.0
 76
     1
 77
     6
 78
     2
 67
     7
 79
     5
170
     0
171
     0
290
     0
174
     0
 93
        1
 44
0.0
173
     0
291
     1
 45
0.0
1001
ACAD
1000
AcDbSavedByObjectVersion
1070
     0
  0
VISUALSTYLE
  5
40
102
{ACAD_XDICTIONARY
360
F5A
102
}
102
{ACAD_REACTORS
330
29
102
}
330
29
100
AcDbVisualStyle
  2
OverhangOff
 70
    21
 71
     2
 72
     2
 73
     0
 90
        0
 40
-0.6
 41
-30.0
 62
     5
 63
     7
 74
     1
 91
        4
 64
     7
 65
   257
 75
     1
175
     1
 42
1.0
 92
        9
 66
     7
 43
1.0
 76
     1
 77
     6
 78
     2
 67
     7
 79
     5
170
     0
171
     0
290
     0
174
     0
 93
        1
 44
0.0
173
     0
291
     1
 45
0.0
1001
ACAD
1000
AcDbSavedByObjectVersion
1070
     0
  0
VISUALSTYLE
  5
33
102
{ACAD_XDICTIONARY
360
F40
102
}
102
{ACAD_REACTORS
330
29
102
}
330
29
100
AcDbVisualStyle
  2
Realistic
 70
     8
 71
     2
 72
     3
 73
     0
 90
        2
 40
-0.6
 41
30.0
 62
     5
 63
     7
 74
     0
 91
        0
 64
     7
 65
   257
 75
     1
175
     1
 42
1.0
 92
        8
 66
   257
 43
1.0
 76
     1
 77
     6
 78
     2
 67
     7
 79
     3
170
     0
171
     0
290
     0
174
     0
 93
       13
 44
0.0
173
     0
291
     0
 45
0.0
1001
ACAD
1000
AcDbSavedByObjectVersion
1070
     0
  0
VISUALSTYLE
  5
3E
102
{ACAD_XDICTIONARY
360
F56
102
}
102
{ACAD_REACTORS
330
29
102
}
330
29
100
AcDbVisualStyle
  2
Shaded
 70
    27
 71
     2
 72
     2
 73
     1
 90
        2
 40
-0.6
 41
30.0
 62
     5
 63
     7
 74
     0
 91
        4
 64
     7
 65
   257
 75
     1
175
     1
 42
1.0
 92
        8
 66
   257
 43
1.0
 76
     1
 77
     6
 78
     2
 67
     8
 79
     3
170
     0
171
     0
290
     0
174
     0
 93
        5
 44
0.0
173
     0
291
     0
 45
0.0
1001
ACAD
1000
AcDbSavedByObjectVersion
1070
     0
  0
VISUALSTYLE
  5
3D
102
{ACAD_XDICTIONARY
360
F54
102
}
102
{ACAD_REACTORS
330
29
102
}
330
29
100
AcDbVisualStyle
  2
Shaded with edges
 70
    26
 71
     2
 72
     2
 73
     1
 90
        2
 40
-0.6
 41
30.0
 62
     5
 63
     7
 74
     1
 91
       10
 64
     7
 65
   257
 75
     2
175
     1
 42
1.0
 92
        8
 66
   257
 43
1.0
 76
     1
 77
     6
 78
     2
 67
     7
 79
     3
170
     0
171
     0
290
     0
174
     0
 93
        5
 44
0.0
173
     0
291
     0
 45
0.0
1001
ACAD
1000
AcDbSavedByObjectVersion
1070
     0
  0
VISUALSTYLE
  5
3A
102
{ACAD_XDICTIONARY
360
F4E
102
}
102
{ACAD_REACTORS
330
29
102
}
330
29
100
AcDbVisualStyle
  2
Shades of Gray
 70
    23
 71
     2
 72
     2
 73
     3
 90
        0
 40
-0.6
 41
-30.0
 62
     5
 63
     7
 74
     2
 91
        2
 64
     7
 65
     7
 75
     1
175
     1
 42
40.0
 92
        8
 66
     7
 43
1.0
 76
     1
 77
     6
 78
     2
 67
     7
 79
     3
170
     0
171
     0
290
     0
174
     0
 93
        1
 44
0.0
173
     0
291
     0
 45
0.0
1001
ACAD
1000
AcDbSavedByObjectVersion
1070
     0
  0
VISUALSTYLE
  5
3B
102
{ACAD_XDICTIONARY
360
F50
102
}
102
{ACAD_REACTORS
330
29
102
}
330
29
100
AcDbVisualStyle
  2
Sketchy
 70
    24
 71
     1
 72
     2
 73
     2
 90
        0
 40
-0.6
 41
-30.0
 62
     5
 63
     7
 74
     2
 91
        2
 64
     7
 65
     7
 75
     1
175
     1
 42
40.0
 92
       11
 66
     7
 43
1.0
 76
     1
 77
     6
 78
     2
 67
     7
 79
     6
170
     0
171
     0
290
     0
174
     0
 93
        1
 44
0.0
173
     0
291
     0
 45
0.0
1001
ACAD
1000
AcDbSavedByObjectVersion
1070
     0
  0
VISUALSTYLE
  5
36
102
{ACAD_XDICTIONARY
360
F46
102
}
102
{ACAD_REACTORS
330
29
102
}
330
29
100
AcDbVisualStyle
  2
Thicken
 70
    13
 71
     2
 72
     2
 73
     0
 90
        0
 40
-0.6
 41
-30.0
 62
     5
 63
     7
 74
     1
 91
        4
 64
     7
 65
   257
 75
     1
175
     1
 42
1.0
 92
       12
 66
     7
 43
1.0
 76
     1
 77
     6
 78
     2
 67
     7
 79
     5
170
     0
171
     0
290
     0
174
     0
 93
        1
 44
0.0
173
     0
291
     1
 45
0.0
1001
ACAD
1000
AcDbSavedByObjectVersion
1070
     0
  0
VISUALSTYLE
  5
30
102
{ACAD_XDICTIONARY
360
F3A
102
}
102
{ACAD_REACTORS
330
29
102
}
330
29
100
AcDbVisualStyle
  2
Wireframe
 70
     5
 71
     0
 72
     2
 73
     0
 90
        0
 40
-0.6
 41
-30.0
 62
     5
 63
     7
 74
     1
 91
        4
 64
     7
 65
   257
 75
     1
175
     1
 42
1.0
 92
        0
 66
   257
 43
1.0
 76
     1
 77
     6
 78
     2
 67
     7
 79
     3
170
     0
171
     0
290
     0
174
     0
 93
        1
 44
0.0
173
     0
291
     0
 45
0.0
1001
ACAD
1000
AcDbSavedByObjectVersion
1070
     0
  0
VISUALSTYLE
  5
3C
102
{ACAD_XDICTIONARY
360
F52
102
}
102
{ACAD_REACTORS
330
29
102
}
330
29
100
AcDbVisualStyle
  2
X-Ray
 70
    25
 71
     2
 72
     2
 73
     1
 90
        1
 40
0.5
 41
-30.0
 62
     5
 63
     7
 74
     1
 91
        0
 64
     7
 65
   257
 75
     1
175
     1
 42
1.0
 92
        8
 66
     7
 43
1.0
 76
     1
 77
     6
 78
     2
 67
     7
 79
     3
170
     0
171
     0
290
     0
174
     0
 93
       13
 44
0.0
173
     0
291
     0
 45
0.0
1001
ACAD
1000
AcDbSavedByObjectVersion
1070
     0
  0
DICTIONARYVAR
  5
79
102
{ACAD_REACTORS
330
76
102
}
330
76
100
DictionaryVariables
280
     0
  1
1:1
  0
DICTIONARYVAR
  5
78
102
{ACAD_REACTORS
330
76
102
}
330
76
100
DictionaryVariables
280
     0
  1
STANDARD
  0
DICTIONARYVAR
  5
77
102
{ACAD_REACTORS
330
76
102
}
330
76
100
DictionaryVariables
280
     0
  1
STANDARD
  0
DICTIONARYVAR
  5
F21
102
{ACAD_REACTORS
330
76
102
}
330
76
100
DictionaryVariables
280
     0
  1
1
  0
DICTIONARYVAR
  5
F20
102
{ACAD_REACTORS
330
76
102
}
330
76
100
DictionaryVariables
280
     0
  1
1
  0
DICTIONARYVAR
  5
F1F
102
{ACAD_REACTORS
330
76
102
}
330
76
100
DictionaryVariables
280
     0
  1
0
  0
DICTIONARYVAR
  5
F1C
102
{ACAD_REACTORS
330
76
102
}
330
76
100
DictionaryVariables
280
     0
  1
0
  0
DICTIONARYVAR
  5
F1D
102
{ACAD_REACTORS
330
76
102
}
330
76
100
DictionaryVariables
280
     0
  1
0
  0
DICTIONARYVAR
  5
F1B
102
{ACAD_REACTORS
330
76
102
}
330
76
100
DictionaryVariables
280
     0
  1
2
  0
DICTIONARYVAR
  5
F1A
102
{ACAD_REACTORS
330
76
102
}
330
76
100
DictionaryVariables
280
     0
  1
1
  0
DICTIONARYVAR
  5
F1E
102
{ACAD_REACTORS
330
76
102
}
330
76
100
DictionaryVariables
280
     0
  1
127
  0
DICTIONARYVAR
  5
F22
102
{ACAD_REACTORS
330
76
102
}
330
76
100
DictionaryVariables
280
     0
  1
2
  0
DICTIONARY
  5
F60
330
6B
100
AcDbDictionary
280
     1
281
     1
  3
ACAD_XREC_ROUNDTRIP
360
F61
  0
DICTIONARY
  5
F64
330
73
100
AcDbDictionary
280
     1
281
     1
  3
ACAD_XREC_ROUNDTRIP
360
F65
  0
DICTIONARY
  5
F62
330
6F
100
AcDbDictionary
280
     1
281
     1
  3
ACAD_XREC_ROUNDTRIP
360
F63
  0
DICTIONARY
  5
1A
330
19
100
AcDbDictionary
280
     1
281
     1
  3
ACAD_XREC_ROUNDTRIP
360
F2C
  3
BUMPTILE
360
1C
  3
DIFFUSETILE
360
1B
  3
OPACITYTILE
360
1F
  3
REFLECTIONTILE
360
1E
  3
REFRACTIONTILE
360
20
  3
SPECULARTILE
360
1D
  0
DICTIONARY
  5
12
330
11
100
AcDbDictionary
280
     1
281
     1
  3
ACAD_XREC_ROUNDTRIP
360
F2B
  3
BUMPTILE
360
14
  3
DIFFUSETILE
360
13
  3
FBXASSET
360
F5
  3
OPACITYTILE
360
17
  3
REFLECTIONTILE
360
16
  3
REFRACTIONTILE
360
18
  3
SPECULARTILE
360
15
  0
DICTIONARY
  5
22
330
21
100
AcDbDictionary
280
     1
281
     1
  3
ACAD_XREC_ROUNDTRIP
360
F2D
  3
BUMPTILE
360
24
  3
DIFFUSETILE
360
23
  3
FBXASSET
360
BA
  3
OPACITYTILE
360
27
  3
REFLECTIONTILE
360
26
  3
REFRACTIONTILE
360
28
  3
SPECULARTILE
360
25
  0
DICTIONARY
  5
F25
330
67
100
AcDbDictionary
280
     1
281
     1
  3
ACAD_XREC_ROUNDTRIP
360
F26
  0
DICTIONARY
  5
F23
330
65
100
AcDbDictionary
280
     1
281
     1
  3
ACAD_ROUNDTRIP_2008_TABLESTYLE_CELLSTYLEMAP
360
F24
  3
ACAD_XREC_ROUNDTRIP
360
F5E
  0
DICTIONARY
  5
F38
330
2F
100
AcDbDictionary
280
     1
281
     1
  3
ACAD_XREC_ROUNDTRIP
360
F39
  0
DICTIONARY
  5
F36
330
2E
100
AcDbDictionary
280
     1
281
     1
  3
ACAD_XREC_ROUNDTRIP
360
F37
  0
DICTIONARY
  5
F44
330
35
100
AcDbDictionary
280
     1
281
     1
  3
ACAD_XREC_ROUNDTRIP
360
F45
  0
DICTIONARY
  5
F4C
330
39
100
AcDbDictionary
280
     1
281
     1
  3
ACAD_XREC_ROUNDTRIP
360
F4D
  0
DICTIONARY
  5
F3E
330
32
100
AcDbDictionary
280
     1
281
     1
  3
ACAD_XREC_ROUNDTRIP
360
F3F
  0
DICTIONARY
  5
F42
330
34
100
AcDbDictionary
280
     1
281
     1
  3
ACAD_XREC_ROUNDTRIP
360
F43
  0
DICTIONARY
  5
F5C
330
41
100
AcDbDictionary
280
     1
281
     1
  3
ACAD_XREC_ROUNDTRIP
360
F5D
  0
DICTIONARY
  5
F4A
330
38
100
AcDbDictionary
280
     1
281
     1
  3
ACAD_XREC_ROUNDTRIP
360
F4B
  0
DICTIONARY
  5
F2E
330
2A
100
AcDbDictionary
280
     1
281
     1
  3
ACAD_XREC_ROUNDTRIP
360
F2F
  0
DICTIONARY
  5
F30
330
2B
100
AcDbDictionary
280
     1
281
     1
  3
ACAD_XREC_ROUNDTRIP
360
F31
  0
DICTIONARY
  5
F32
330
2C
100
AcDbDictionary
280
     1
281
     1
  3
ACAD_XREC_ROUNDTRIP
360
F33
  0
DICTIONARY
  5
F34
330
2D
100
AcDbDictionary
280
     1
281
     1
  3
ACAD_XREC_ROUNDTRIP
360
F35
  0
DICTIONARY
  5
F3C
330
31
100
AcDbDictionary
280
     1
281
     1
  3
ACAD_XREC_ROUNDTRIP
360
F3D
  0
DICTIONARY
  5
F58
330
3F
100
AcDbDictionary
280
     1
281
     1
  3
ACAD_XREC_ROUNDTRIP
360
F59
  0
DICTIONARY
  5
F48
330
37
100
AcDbDictionary
280
     1
281
     1
  3
ACAD_XREC_ROUNDTRIP
360
F49
  0
DICTIONARY
  5
F5A
330
40
100
AcDbDictionary
280
     1
281
     1
  3
ACAD_XREC_ROUNDTRIP
360
F5B
  0
DICTIONARY
  5
F40
330
33
100
AcDbDictionary
280
     1
281
     1
  3
ACAD_XREC_ROUNDTRIP
360
F41
  0
DICTIONARY
  5
F56
330
3E
100
AcDbDictionary
280
     1
281
     1
  3
ACAD_XREC_ROUNDTRIP
360
F57
  0
DICTIONARY
  5
F54
330
3D
100
AcDbDictionary
280
     1
281
     1
  3
ACAD_XREC_ROUNDTRIP
360
F55
  0
DICTIONARY
  5
F4E
330
3A
100
AcDbDictionary
280
     1
281
     1
  3
ACAD_XREC_ROUNDTRIP
360
F4F
  0
DICTIONARY
  5
F50
330
3B
100
AcDbDictionary
280
     1
281
     1
  3
ACAD_XREC_ROUNDTRIP
360
F51
  0
DICTIONARY
  5
F46
330
36
100
AcDbDictionary
280
     1
281
     1
  3
ACAD_XREC_ROUNDTRIP
360
F47
  0
DICTIONARY
  5
F3A
330
30
100
AcDbDictionary
280
     1
281
     1
  3
ACAD_XREC_ROUNDTRIP
360
F3B
  0
DICTIONARY
  5
F52
330
3C
100
AcDbDictionary
280
     1
281
     1
  3
ACAD_XREC_ROUNDTRIP
360
F53
  0
XRECORD
  5
F61
102
{ACAD_REACTORS
330
F60
102
}
330
F60
100
AcDbXrecord
280
     1
102
SHADEPLOT
 70
     0
102
SHADEPLOTRESLEVEL
 70
     2
102
SHADEPLOTCUSTOMDPI
 70
   300
  0
XRECORD
  5
F65
102
{ACAD_REACTORS
330
F64
102
}
330
F64
100
AcDbXrecord
280
     1
102
SHADEPLOT
 70
     0
102
SHADEPLOTRESLEVEL
 70
     2
102
SHADEPLOTCUSTOMDPI
 70
   300
  0
XRECORD
  5
F63
102
{ACAD_REACTORS
330
F62
102
}
330
F62
100
AcDbXrecord
280
     1
102
SHADEPLOT
 70
     0
102
SHADEPLOTRESLEVEL
 70
     2
102
SHADEPLOTCUSTOMDPI
 70
   300
  0
XRECORD
  5
F2C
102
{ACAD_REACTORS
330
1A
102
}
330
1A
100
AcDbXrecord
280
     1
102
MATERIAL
148
0.0
149
0.0
149
0.0
 93
        0
 94
      127
282
     0
 72
     0
 77
     0
171
     0
175
     0
179
     0
273
     0
  0
XRECORD
  5
1C
102
{ACAD_REACTORS
330
1A
102
}
330
1A
100
AcDbXrecord
280
     1
270
     1
271
     1
  0
XRECORD
  5
1B
102
{ACAD_REACTORS
330
1A
102
}
330
1A
100
AcDbXrecord
280
     1
270
     1
271
     1
  0
XRECORD
  5
1F
102
{ACAD_REACTORS
330
1A
102
}
330
1A
100
AcDbXrecord
280
     1
270
     1
271
     1
  0
XRECORD
  5
1E
102
{ACAD_REACTORS
330
1A
102
}
330
1A
100
AcDbXrecord
280
     1
270
     1
271
     1
  0
XRECORD
  5
20
102
{ACAD_REACTORS
330
1A
102
}
330
1A
100
AcDbXrecord
280
     1
270
     1
271
     1
  0
XRECORD
  5
1D
102
{ACAD_REACTORS
330
1A
102
}
330
1A
100
AcDbXrecord
280
     1
270
     1
271
     1
  0
XRECORD
  5
F2B
102
{ACAD_REACTORS
330
12
102
}
330
12
100
AcDbXrecord
280
     1
102
MATERIAL
148
0.0
149
0.0
149
0.0
 93
        0
 94
      127
282
     0
 72
     0
 77
     0
171
     0
175
     0
179
     0
273
     0
  0
XRECORD
  5
14
102
{ACAD_REACTORS
330
12
102
}
330
12
100
AcDbXrecord
280
     1
270
     1
271
     1
  0
XRECORD
  5
13
102
{ACAD_REACTORS
330
12
102
}
330
12
100
AcDbXrecord
280
     1
270
     1
271
     1
  0
XRECORD
  5
F5
102
{ACAD_REACTORS
330
12
102
}
330
12
100
AcDbXrecord
280
     1
 70
     1
 90
1959938040
 71
     1
  1
4E2E272C-332F-4A6B-A687-19E66801F122
311
504B03040A0000080000274E37403DEE336E79000000790000001B0000006175746F6465736B2D64657369676E2D7061636B6167652E786D6C3C3F786D6C2076657273696F6E3D22312E302220656E636F64696E673D227574662D3822203F3E3C666F726D6174733E3C666F726D61743E687474703A2F2F736368656D612E
311
6175746F6465736B2E636F6D2F64657369676E2D7061636B6167652F323030393C2F666F726D61743E3C2F666F726D6174733E504B0304140006080800274E3740D486FD9CA0000000F4000000130000005B436F6E74656E745F54797065735D2E786D6C7D8EC10E82300C865F65E91D8A1E8C310C0EEA1BF002731658846E
311
D98AC1B77784ABF1D8FE5FBFBF75BBCE937A534CCEB38643598122B6FEE978D0B0485F9C41B54DDD7D022595594E1A469170414C76A4D9A4D207E29CF43ECE46F218070CC6BECC4078ACAA135ACF422C856C0E68EA1BF5669944DDD7BCDE7B1F8E415D77AECB980613C2E4AC91FC167A2B244592486606FC29C8FD7F045B9A
311
EF7053A7E60B504B0304140006080800274E3740F58C8D24EA0000007C01000008000000636F72652E786D6C8D90DD8E832010855F85708FF263AC1AA469353EC1BE0001EA925630029B7DFCC5D626BB777B359333E79B991C7EFE5E1EE0CB6CC17AD7435260088C535E5B37F730C51B6A20380BBE791F7FD9207072313DDC
311
6528F8BCF9B41E92F22E1A17B3EABC36872843301102F5C84D0F83FA348B2C648AD911EEC52AD55DCEA620EF2EC329590D5E47ACCEFBECCD9A0D8A6B756A704B47C44E2345152303BA56D388A6E6320D755DB1815E78B9C38247BBBCEFABCDC868341414138A3041947DE0B6ABDA8E3084EB0E635EEEF63F505AF53FA1645D
311
64F478F7850528487EE43910BCDCB3C8E51954AE7B6EE207504B0304140006080800274E374055019EA25F0000007C00000007000000636E782E786D6C4DCB3B0E80201045D1AD90E915ED2CF8AC45050C11660C8261F98AB1B07AC9C97D42D718D865D3E909258CFD00CCE24AC6E326A164D74DC0B4128928FF326038472B
311
A13128B1252AC747C6BAB984FC68F0B87FE8960A5C09FE86CFB69FBA01504B0304140006080800274E3740F2D9EF5D66010000020300000C0000006662782F636F72652E786D6C8D52ED8E8320107C15C27F04D1F42B48D38FF409EE05A852CF54C120983EFEAD1F8DD74BD35C4C90CCECECCE8E8AFDA3A951AF5D575993E1
311
3862186993DBA232658683BF910D467B299CB5FE57194646353AC3038CA5289D0DED0CE5D6786D3CA0C6167A0655D7698F515EC325C35DFEAD1B15A9E0A1A2BB47ADCAEFAAD4511C010D755274DE8101340D194E2C6FD787A0132E45085531B35501D3AA5BA51D96C774BD615B7E26C9FACC499AC427724C2F6772D91C2EA7
311
D52A4D4EFC20E82096C257CDD35DEEB4F2BAC092B3981316139E7CB1ED2EDDEEE284B0D58E314187F21751688B7F8A42657CC267BB93ACC332062323F1675B88C8A34EF5E0874A418710E13526FC1A340402217B75AD9F7BDC01EA75EEAD4B81296C58A85ED541C35486C647D08985CE6303D8EC6D1FFEA1CFE71EF0019529
311
C19AF270BD063F4C17D3D4398A563BD2FB0732D635AA5ECC4D16977319F4569EDBDABAFFA8E9BC2A9DC3A4C3DF2B7F00504B0304140006080800274E3740B42C5B957E0000009D0000000B0000006662782F636E782E786D6C4DCCD10A83201886E15B91FFDC659B94821A73CBFB886521990EA76397BF1A1DECE883878F57
311
749FD5A3B74D2F178384FA4400D9F088A30BB3849227CC00754AA418F3DF0D5018562B616750624EB13C0F1AED34149F37F52E2C07524DCE9C1B8E6B7E619836DC60ADFB1EB78637B4BDDD192557A894A87EA56DF7B0FA02504B0304140006080800274E3740C8C301CA2B01000014020000310000006662782F3442303239
311
3946392D313933382D343639462D424245452D3746393634374344383430412F636F72652E786D6C8D51CB6EC32010FC15C4293D6003A64E883051D3265FD01F7080A42831583CAA7C7E71ED48ED2D1716CDCECC8E76C5EE3EDCC0B709D17AD7415261088C535E5B77E9604E67B481602745F03EFDA141E0FAC1747082A114
311
97E0F3B840CABB645C2AA8F3DA2C601FA34910A85BF97430AA2F33F4559F5361C46B35F6EADA5F4C45AAD22E3C29620A250098874C2F946C8F29E7478E086F3688B5FC88F6FBC301AD8FBC65EBF78F0DC36FA29E8552E46CF522B7BAC4B1676BC2B32693588A6487477C154C9F8C86926242112688369F986F19DF9206E176
311
8BB1A827FA3F511EF593A26C5D6AE8127796452889A8E78614DAE7D3ED11C6DC471F1298E6ADA2512F50E20A53DAF0B6A1A29EA96501C5B3658B674C3E9405AFAEA7C226AFB371CBA4A8A71B95F27BC052A77BCA1F504B0304140006080800274E374093108D804D01000033030000300000006662782F3442303239394639
311
2D313933382D343639462D424245452D3746393634374344383430412F636E782E786D6CD593BD6E032110845F05D1DFAF4F566C71584A912748919683B54DCCC1899F287EFB2C3676DCB84899069D668799D5278EEDBE6743BEC007EDEC48BBBAA504AC744ADBC34853DC572F94EC38F3CEC5071B2556CC30D22C53CE0EDE
311
A5A5480AF6229988AAD1F654440FC1252F21A09C6F12E3A4301800B64A28C23C8152A0C8DD885F7BF0B80A8AD399C42390B7D70FE2A64F9031B026A770D6E40ECEF2599A1E4C944823421869904798452D52740AC2A956228ABAAB6F5D4F76FA4D22F9C2AD32794D72F948F34979D9A8468EACC12167217AA4574CF1BC00E5
311
62598C962222E4E662BC7A384BDAC6F550BC1AC17B7477EBD53060D865C659D4331487F4202228CAFBB6EBABB6ABFAD57BBBD90E9B6DB7AADAF5B66D5993ED9C4DCE99720963C0BB85486723D84879C79A3C7E86AFF888D21E593B7FFE034804505AAF74EE19FF994F7379DF88CBE35FC07F00504B0304140006080800274E
311
3740624A39419C0500007B100000340000006662782F34423032393946392D313933382D343639462D424245452D3746393634374344383430412F6F626A656374732E786D6CAD575D739B3814FD2B0CFB8C31D84D931D42C7B1938EA79BB6534F3BFB90198F0041B4111F2389D4E9AFDF2310185C3BF5EEF4059090AEEE3D
311
F7DC0F05EF7639B79EA990AC2CAE6D6F32B52D5AC465C28AECDAAE55EA5CDAD6BB301065A906CB6CAB2039BDB6F5B41D069928EBCA4C253425355707B377377F5B32A605B5AD981329AF6D193FD29C4C48ADCA84CAA74942149964E96EE24DDA8563B19920D5E381D08A085A28688AF90252AC56296F3C9CDA6E18B8FA7F18
311
E8A759353BBDCA6DEC199FCF0AA94811FF74D8819899375FDDFA6FAE9C37F3F9CC995FF89E737377B372BCB7B3E9F262B9BC5ADC5EE160A90424194D044DEDF03DB0112C0EDCF65718D4AC5033DF2C310E72057D66DA5376E85B5EE0B66B7AEB8C91C7D48FCBA2A0718315D068EC33A2135AD12281CF1995D06C80D0743CF4
311
348E83DF333D36470EA7CF4360B86320A8D3BD7B0F352DA37F60823C87414252CDC0164B6368CBD5E91EE1A82CB9F9C7A49513450523DCE22C1244BCD82196EA25613012A3992C7434680BEC105E687F8FE98230FA35CF8F6999D69C6B1ADB6113055BC40A55B2D18CFDA062AFFD1019E8045F69365C1A83D44B45EDF0AAA5
311
C8E5019B5A20AD94930C2E87997AE7CC3F3074A9E374BDB2C30F77D16EA363F7F8E195282B2A94A60FA8D539AE7B6B948C4EDE599ED31BEC0355F6A07C01F21F11EA7B55E037C176F3DDDC9CA20429645A8A1CBEB1A69633C5636A79CD537F0FBE02B7DF3CF6DE293CE16C0DD56FC0736CC3D0970338C3E019842FC5CC98B6
311
890947DAB8670500D224B1788929E4E134DAD9E11A590E5919BB080F3D980C759FF119B8460C124573D2E05D00CB83B4784682066C0D23A1464B7EA3E0DE4F3FA5B3E660B3EC14BC6F7E0B5D17ABCD874D2D5212D37B13D32B9AB2822994B83D6F860A8D301F59F4445FBE972281A13FE3BD19E29D9BA324D0D6986BE0B32E
311
A7EBC1FEE4D10131F665A54E37C12F4E8011BAB00EE4DF331953CE4941CBBA3BF7D5FA81B2D142AC835D33B92F30FBC202D2B47F0E6210453A16ACD220F6D5AA4F9A9313D67D5D7F0423EDF0E6E52FF232CC5ED13EF7C6252FC5367AD9B669E928D4DFC6DC3618B85A0AE8DE044917FF06F46DC2D2B49648824770FDB65E0E
311
7DA7D302524427B58D9639EC4770116148DBC945B5160495B42CB60C75137177F480A17C406A18D0083CA5B1A43CDD32CEEB7C9B328E6AB4CD4975028EFFAF7F54E7D596E4655DA813B247AAA33A8C751FB1577E272A7EB4C34DF3766E907B139A9C2083AE2547B01AB9767EEBDFFA6FFDA5339BF977CE7C7171E32C2E2EDF
311
3ADED5EDC5C5E5D4BBF37CBFF353AB491874A56618D1F0124A5B500B66DCF7758DF83149C00EEF89920FEFDBF0ECDE5FD713F4C2818B3DA897FDC645F28CBE8F26BF16B05F7954D03AAF38CD69A1888EA17BFDC1BF10F4192365DAF9754E327A86944FEF3707C660E68C7D9F75BCD3EF077BCDEC5207E45121EAB1CEA38230
311
7EB0316B919C544566F0EB7CD2BFDB42D30DF5C838069DA92C394B9007132BA3654E15B2E1194548E454827AC39E3E31778F33763FB71DA22211A79D268F044D3297080B50AB8ED578DEFA034D9DEEABAE6D94DBC9131E2653D81638736DA349572CA67212A140EB56A8110E2E0D3B7934FEA4C8387AED76533FEE77696C46
311
25B95F724EFF64EC6A53B8310069A442DF808608DE699409834637F33FFE4F8677EA5844E133AA556FCB7EA237A6390621DA1A656E0B68629ECCD13B04EAEB66799366CD0891B36E59AF92A095EA2822B2E6A6A0F5332A2D569F5D7428D6FA9355F13A832FCF97E4080A32D73AC0C122B0C2C8AC880255977F3E7C16256EB2
311
B975C74081876599E76561060B7313B6368FB8D7260F480B545F48E4833FF5FC87E62260EE26DB88483A21897CC2047C2A580FF1C8F160647B5B44056A7FF4EB5CED84036EAE57962969730835441966550D0B5A8E825A881E7D99D4B1325C50BD7A17709BA55041A08B0FFF05504B0304140006080000274E374000000000
311
0000000000000000350000006662782F34423032393946392D313933382D343639462D424245452D3746393634374344383430412F76657274696365732E62696E504B0304140006080800274E3740F270F1330600000004000000360000006662782F34423032393946392D313933382D343639462D424245452D37463936
311
34374344383430412F747269616E676C65732E62696E636660600000504B0304140006080000274E3740000000000000000000000000370000006662782F34423032393946392D313933382D343639462D424245452D3746393634374344383430412F617474726962757465732E62696E504B0304140006080800274E3740
311
D5987DFC8F00000041010000360000006662782F34423032393946392D313933382D343639462D424245452D3746393634374344383430412F6469726563746F72792E786D6C858F410EC2201045AF4266AF15DDB800BA74E7C21B903225242D6328188F2FA5C4183471359997F9FF81E89FF3C41E1816475E02DF1F80A11F
311
C8386F25A438EECEC07A250251FC3803E6F58C12560C4AD840E95E91C151A72936F496F35732D860FE635F62C8F2DA16B505C545B74125BAA2FA9E05D7CC053D063734D5C7665FD55B6B8D15D5E9BFEAFD8490FFA45E504B0304140006080800274E37402AE2479CFD000000A00100003B0000006662782F34423032393946
311
392D313933382D343639462D424245452D3746393634374344383430412F7265736F75726365732F636F72652E786D6C8D504B6E833010BD0A9ABDC1368840641C254439412F6099496225D8C89FAAC7AF49A8D4EEBA9919BD8FE6E989C3D7FC2C3ED107E3EC00ACA450A0D56E32F636408A57D2417190C23B177FC9A0B06A
311
C6015618A4B87997960DD2CE46B431A3D64DB8812A048C50E8673E0608FA8EB32A558A59111EE5A2F443DDB06465A6B34E8A107D0E50BC9FAC13A4C7E092D71844F566A548C94C9BC64CF9A7B91AF4204FCDAEA33D1F49BD3B73D2D46C24A7E6722697EE7819DBB6A9477E14D56A96229AF927A3F6A8224E2039659C504678
311
FD41FB7DD3EF594D68BBA75454ABFC8F292DD33F4DC9D858F32DEEDB1640B21CE4454851AD7DE5F52A33EFB55BF90D504B010214000A0000080000274E37403DEE336E79000000790000001B00000000000000000000000000000000006175746F6465736B2D64657369676E2D7061636B6167652E786D6C504B0102140014
311
0006080800274E3740D486FD9CA0000000F40000001300000000000000000000000000B20000005B436F6E74656E745F54797065735D2E786D6C504B01021400140006080800274E3740F58C8D24EA0000007C010000080000000000000000000000000083010000636F72652E786D6C504B01021400140006080800274E37
311
4055019EA25F0000007C000000070000000000000000000000000093020000636E782E786D6C504B01021400140006080800274E3740F2D9EF5D66010000020300000C00000000000000000000000000170300006662782F636F72652E786D6C504B01021400140006080800274E3740B42C5B957E0000009D0000000B0000
311
0000000000000000000000A70400006662782F636E782E786D6C504B01021400140006080800274E3740C8C301CA2B0100001402000031000000000000000000000000004E0500006662782F34423032393946392D313933382D343639462D424245452D3746393634374344383430412F636F72652E786D6C504B01021400
311
140006080800274E374093108D804D010000330300003000000000000000000000000000C80600006662782F34423032393946392D313933382D343639462D424245452D3746393634374344383430412F636E782E786D6C504B01021400140006080800274E3740624A39419C0500007B1000003400000000000000000000
311
000000630800006662782F34423032393946392D313933382D343639462D424245452D3746393634374344383430412F6F626A656374732E786D6C504B01021400140006080000274E37400000000000000000000000003500000000000000000000000000510E00006662782F34423032393946392D313933382D34363946
311
2D424245452D3746393634374344383430412F76657274696365732E62696E504B01021400140006080800274E3740F270F13306000000040000003600000000000000000000000000A40E00006662782F34423032393946392D313933382D343639462D424245452D3746393634374344383430412F747269616E676C6573
311
2E62696E504B01021400140006080000274E37400000000000000000000000003700000000000000000000000000FE0E00006662782F34423032393946392D313933382D343639462D424245452D3746393634374344383430412F617474726962757465732E62696E504B01021400140006080800274E3740D5987DFC8F00
311
0000410100003600000000000000000000000000530F00006662782F34423032393946392D313933382D343639462D424245452D3746393634374344383430412F6469726563746F72792E786D6C504B01021400140006080800274E37402AE2479CFD000000A00100003B0000000000000000000000000036100000666278
311
2F34423032393946392D313933382D343639462D424245452D3746393634374344383430412F7265736F75726365732F636F72652E786D6C504B0506000000000E000E00800400008C1100000000
310
504B03040A0000080000264E37403DEE336E79000000790000001B0000006175746F6465736B2D64657369676E2D7061636B6167652E786D6C3C3F786D6C2076657273696F6E3D22312E302220656E636F64696E673D227574662D3822203F3E3C666F726D6174733E3C666F726D61743E687474703A2F2F736368656D612E
310
6175746F6465736B2E636F6D2F64657369676E2D7061636B6167652F323030393C2F666F726D61743E3C2F666F726D6174733E504B0304140006080800264E3740D486FD9CA0000000F4000000130000005B436F6E74656E745F54797065735D2E786D6C7D8EC10E82300C865F65E91D8A1E8C310C0EEA1BF002731658846E
310
D98AC1B77784ABF1D8FE5FBFBF75BBCE937A534CCEB38643598122B6FEE978D0B0485F9C41B54DDD7D022595594E1A469170414C76A4D9A4D207E29CF43ECE46F218070CC6BECC4078ACAA135ACF422C856C0E68EA1BF5669944DDD7BCDE7B1F8E415D77AECB980613C2E4AC91FC167A2B244592486606FC29C8FD7F045B9A
310
EF7053A7E60B504B0304140006080800264E374080192C27EA0000007C01000008000000636F72652E786D6C8D90D18E832010457F85CC3B0AEAAA3548D3AEF10BF607085097B48211D8F4F38BAD4D76DFF66926977B989BCB8EF7F9867EF4EA8DB33DD08C00D2563A65ECD4430C17DC023A72B63A177ED9005931EB1E3619
310
389B5617975D92CE066D4352AD537A1785F73A0092B7B4F4E0E5B79E452662480E7FCD1621AF62D2197D6F098ED128F43A6254FACF5C8C5E81D3BA1C3E9BFA84CB0F3AE2EA4C1B7C6EC71A93818E55550CA7A66A59BEC19C0533BFEFCB558BA015F082D002138A8BF28B1CBAEAD0D11293BA2384E59BFD0F1417F54F281A1B
310
CA628FFBC27CCA9A823C1F38CBB72ED2781695E6D61B7F00504B0304140006080800264E374055019EA25F0000007C00000007000000636E782E786D6C4DCB3B0E80201045D1AD90E915ED2CF8AC45050C11660C8261F98AB1B07AC9C97D42D718D865D3E909258CFD00CCE24AC6E326A164D74DC0B4128928FF326038472B
310
A13128B1252AC747C6BAB984FC68F0B87FE8960A5C09FE86CFB69FBA01504B0304140006080800264E3740D6C0D88666010000020300000C0000006662782F636F72652E786D6C8D52ED8E8230107C95A6FF4B5BE0D033A546CFF804F702152A4784969496F8F8B77C18CF8B3186A434333BBBB303627B6D1B3468D7D7D6E4
310
98470C236D0A5BD6A6CA71F067B2C6682B85B3D6FF29C3C8A856E77884B11495B3A15BA0C21AAF8D07D4D8522FA0EA7BED312A1AB8E4B82F7E74AB22153C54F497A853C545553AE211D0502745EF1D1840F390F1C4F27CBA0A3AE3528450970B5B9730AD3ED7DA61C9B3E4F0B5CA7624F9E04792EEF98AECD7C78CB0033FA6
310
697CD8ADD2B5A0A3580A5FB7377785D3CAEB12CB98F198304EE2E49B7D6ED2CF0D4F08CB368C093A963F884257BE290AB5F149BCD89D653D78052313F16F5B88C8A35E0DE0874A41C710E13525FC18340402217B756A6E7B5C001A74E1AD4B81296DB853836A8286A90C4D8FA0330B9DA706B0D9D33EF18B3EAF7BC00754A6
310
026BCAC3F514FC385DCC5397283AEDC8E0AFC858D7AAE66E6EB6783FEF839ECA0BDB58F78E9A2EABD2254C3AFEBDF217504B0304140006080800264E374075E46F927E0000009D0000000B0000006662782F636E782E786D6C4DCCD10A83201886E15B91FFDCD5A636033592E67DC4B290990EA76397BF1A1DECE883878F57
310
749FD5A3B74D2F178384F3A90664C33D4E2E2C124A9E3107D4299162CC7F3740615CAD849D418925C5F23C68B2F3587CDED4BBF038B0BDF0C6503DE01B311A534A7ADCD68CE02B6143A359CF1B6DA052A2FA95B6DDC3EA0B504B0304140006080800264E37405FEFF7B02B01000014020000310000006662782F3932383646
310
3442442D453346422D343433412D393035332D3733354436423541383642462F636F72652E786D6C8D51DB8EC22014FC15C293FB400BA5566B28C6C6F50BF607B0A0122D345C367EFEC2B626BB6FBE70C89C99399373D8FE393EC0B7725E5BD3415260089419ACD4E6DAC1182E680BC19E33676DF84383C088517530C390B3
310
ABB3715AA0C19AA04C48A8B1522DA0F05E05088647FA74D00F37358A42C49018FE5E4C62B88BAB2A4891DA89C7990F2E0500F390FC42DE56DBE654F747F4494F3DAA6B7A402D5E53B4A1EB63D3AF0FDBA63FB172167216A3968B5CCB14475FB472EF9A643167418FAFF8835322280979854985304115FDC2EDAE6E778422DC
310
EC306665A6FF13C549BE298ADA045A2D716799879CB0726E70266D3C3F5E61D473B22E803C6FE5D5F001392E70455A4AF0869533352D207936F5E2E9837569C1ABFB39B1E962DCD49C95F946A9FC1E30D57C4FFE03504B0304140006080800264E3740F5B742975401000033030000300000006662782F3932383646344244
310
2D453346422D343433412D393035332D3733354436423541383642462F636E782E786D6CBD93CD6EC32010845F0571F7BF15251126520F7D821E7AC5B04968305880ABE6EDBB2424CD25874A552FC89A1D66569F30DB7D4D867C820FDAD98136654D0958E994B687812E715FAC29D971E69D8B0F364AAC9860A049A69C1DBC
310
5BE62C29D88BC544548DB6A72C7A086EF11202CAE926314E0A8301608B05459846500A14B91BF16B0F1E5741713C937804F2FAF24EDCF801320656A514CEAAD4C1593A73D3838912694408030DF2089328C5129D82702A9588A26CCA5BD7939D7E9248BA70AB5CBC26A97CA0E9A43C6F54224756E190B3103DD2CBA6789E81
310
7231CF464B11117275315E3D9C2DDAC6559FBD1AC17B7477ED6ABDC6B0CB8CB3A827C80EE941445094B775D3167553B4DD5BBDD9F69B6DD315F56A5BD7AC4A76CE46E74CBE8431E0DD4CA4B3116CA4BC61551A3FC3977D44698FAC9D3FFF022402C8AD573AF78CBFE4D3ACBABEFF473ED5E57D232E8F7F01FF06504B030414
310
0006080800264E374047B1388759070000941B0000340000006662782F39323836463442442D453346422D343433412D393035332D3733354436423541383642462F6F626A656374732E786D6CED595B739B3814FE2B0CFB6C6C6C274D76089DC4B98CA79BB6536F3BFB9019460699682304238924DE5FBF4717301093E06D
310
F6AD0F3620A4A373BE73D521F8F89C51E71173417276E6FADEC475308BF384B0F4CC2DE56674E23A1FC380E7B96C4C731D86327CE6AA61370C529E97851D4AF00695547646AF2FFE72448C19769D982221CE5C11DFE30C79A8947982C583972089BC74F3ECF99E99D8269B7254DC7788168863268153186740C5314CF9EDC7
310
893B0E83B17A1F06EADFCE9A0D9A35EF9F35D652B7B9244C48C4E2172C75C8CC06B134F3E79757D3A3D3D1D17C3E1BCD8FA7FEE8E2FAE272E47F984D16C78BC5E9F9D529B0B7CE736A654A70815902FADBBAA11F8CD59B5A748BC03EAEE39C311C6B20012A2D569720C102B66AC037693FFA4AA2C66B2D61E379AEDE5B161A
310
C3B33695BE59C38068D10541EC7695C4D5B5295FBEFE1B0417438C920B2C815B213968D7C2C3C12BDC70128CCD6818AC77BA20C2C990C49C20EA50B2E688835260AA9A1206668125A39C8303294749A035675EB76D0B3CF36DD7D9C7E5A6A45479861B6AC78AC0FDB0149A33F20FE63BEE9BC8004F206D49983CB15CCA6D81
310
DDF03418EBC1305097D9D4BE34403A1B8A52A111316F3B822E94EB2F2FDDF0D3F5FA79A5C2C1FECD0B9E17984B65744A8F9A2F30647B5528D96DFD419A530B401803AA5DB903E51B20FF19A2C78E15D01B27CFF3E7B99D2B39626293F30C74E34C9CD104FE268EAFFFD57DE32E18D78BDBDAEBC313DC544175F2F378B665D0
310
5859FE1B7086C123187CCE67F6D52A4614ECF996300048198943731882D0BE593FBBE1120227047A588568E883C8C0EE23DC06634B66A795CABDACD73140D4EE311BA224804D5B24B0D1A3A71BC81E9CC43B353545EC83F7E85DCCF5FC72F56955F20D8AF1ADF5E94BBC218C48C89AFB196A61DE92E8016F9F729E80A02FF1
310
5E35F1CEEC5602D056982BE0D30A04F5B0DBB9B5410CEBD25C859BE08D1D400895AB1BF46F898831A588E1BCACF6ADA39B32D4DAE36DCDE0865303F16CDA31618E1F89AA2AC06976335A8C42DE8F392914886E786324AB83A6D723DDF7E567B0C87A7ECFAC2583D0CB10FD5307AD3D38B42CBB42DA02510BBCDE85F338A739
310
8FD6DBC8443A176A0960A3ED2D3F5A4421D61B25292AE041DAEFAA90921A69A3846C36A580B8BA87C51FCB45D31C26DECC3F729AFF1D679C43B405DF45DCFA5D678F886428C5D106257DDB3577AB690B4DB28734C71B0A72914722B71192D124C1E921D01C44FCF45DA9A7341782302C205FED05BF89C6C4834062B459B1AC
310
B4DA019A8828C312D1431050647AC0D56947D7B831940E6FF3585BEF6B1A6B12FD9F2C8223A82573161128452187BCC9B8EF1D410C69A36B50EEE00BD656D1D662D0124A88781B3D6192DECB435037E47B708FE14852CA282F500C663D80EC0B5F514AEDF0BE46F183CA1F515CD2F7321081E92622949659043FC2E0E431C4
310
B5EBC0F42A0A0DE226F6499C41518664C9876C727C3479B18FA919BA21B0B1D1865008DB51868A1ED45B0151D7234E0DBEA5DEA3D475991511CAF2920D32146FD6F5264BBEAB56457620BFAA5484B2B1226C09860161B2CEAA55CC0653D78115DC4807AA6D24505650730A7B23F1F8B53769CABD1B70EBA7EFBB4106855F8F
310
F69A11755EC160796C1506E209C9F8DE0D57FA3ABA80FA3BC1C92ED557B566B30204C454242F39B12AFABE84F2C6D6686E788BA4B8BB3159B7BA7E5F7AD0FD08C6B0066A977AE152019D612691AA4C6ED50DFD862004B76898F1A5CAA98750394F125D35227A4DFAD4D92A235A9B66C42BEE31CB33F8B13BC2625A26F80E25
310
E221BA95345A11C5BA95D2CB4885F1AB027EB95975E0819101227D55051E7EEAACB5A30B552EED2522EFCB6CCD108120D8122D35BAF10A965A8D545AAEAFEA4C017517189855F1FCD7C9A2D98EF875B248AD61FCD4C9E262FB07DA36FB228D741E2BBB3EE81850E72745E53D8E01BAED5053ADB38849E6567EEB4C1104C52A
310
CA0FAEC6AAA06108F671FC9FB3765F1634DB75F83F2C6BFB2F2A8E83B24A6BB2EA52EDA95C97AD1C7635BD9A7E982E46B3D9F47A343F3FBE189D1F9F7C18F9A757C7C72713FFDA9FD6A9D8100F833A98E9DC05CF26A855C3EAC962005D59915392C0693E71520C315FC2997E40FB9C675840F26C36BB13DB941FB0FAD1F439
310
255A535C71728FA0414C05A47510A38C657BDCF90D5A93120EDA672E348DBC07F8B356E93A9079CE5C6815481263E1ADA1CDA41A7A9A38A45C9DFB2D31086488A52A259A45F573BD4A61D30AFFF5942169C0CAD5EA6140E15640F7ABD5A1D0BC599EE28304AFD8719084DB7529A15A33B2EC066A61F4363BF51BD928610F76
310
EB6770DDD7C5F23D3DA785C8A04F06AF1A81A13A9288A7BADFAD18B32C9D5F7E1D439FCD597E710A5AA6A0CBE194461C833197AAA0022B02ABB0340B24C15417BFDF7DE5397CE2C91C5D15DD2DF22CCB997D3887F358029F889CD53D7CF049EEA06CC0AAAD2EEEA6137F7AA7DBD9B6C31EAD91C09EAA8760A02A2394081D63
310
038B7CD19AB28DCBB1524267FAF2D2B1E113DA00C6825E7477CDE72D07BC477D4851BEA23DBC92F3D58EF6584F056BE0D08B0EFF05504B0304140006080000264E3740000000000000000000000000350000006662782F39323836463442442D453346422D343433412D393035332D3733354436423541383642462F766572
310
74696365732E62696E504B0304140006080800264E3740F270F1330600000004000000360000006662782F39323836463442442D453346422D343433412D393035332D3733354436423541383642462F747269616E676C65732E62696E636660600000504B0304140006080000264E37400000000000000000000000003700
310
00006662782F39323836463442442D453346422D343433412D393035332D3733354436423541383642462F617474726962757465732E62696E504B0304140006080800264E3740D5987DFC8F00000041010000360000006662782F39323836463442442D453346422D343433412D393035332D373335443642354138364246
310
2F6469726563746F72792E786D6C858F410EC2201045AF4266AF15DDB800BA74E7C21B903225242D6328188F2FA5C4183471359997F9FF81E89FF3C41E1816475E02DF1F80A11FC8386F25A438EECEC07A250251FC3803E6F58C12560C4AD840E95E91C151A72936F496F35732D860FE635F62C8F2DA16B505C545B74125BA
310
A2FA9E05D7CC053D063734D5C7665FD55B6B8D15D5E9BFEAFD8490FFA45E504B0304140006080800264E37403DD04FE6FC000000A00100003B0000006662782F39323836463442442D453346422D343433412D393035332D3733354436423541383642462F7265736F75726365732F636F72652E786D6C8D50DB6E842010FD
310
15C33B0A6ABD05D9746BFC82FE00C1594B7605C3A5E9E717569BB46F7D99999C4BE6E4B0CBD7F6C83EC13A65F488684E50065A9A45E97544C1DF7087B20B67D618FF4B86322D361851821167AB35613F2169B407ED23AACD0227289C038F32F988C7889CFC804DE422F8A870F77C17F22E56C8691EE9A8E3CC791B0364C793
310
3411B7E04CB0121C2B0E96B310D4726AD4127FAA9B028B386DAAE9AD6D7A5CBDD019D757DAE26B3737984C74AEEB727A6DEB8E15C9CC9957DB4F4669417858102F092D31A1B8ACDE493FD4FD402B4C9A81105624F91F53D8977F9A82D2BE2ACFB887CDC5AC31C893E0AC487DC5F52C33EED42DFF06504B010214000A000008
310
0000264E37403DEE336E79000000790000001B00000000000000000000000000000000006175746F6465736B2D64657369676E2D7061636B6167652E786D6C504B01021400140006080800264E3740D486FD9CA0000000F40000001300000000000000000000000000B20000005B436F6E74656E745F54797065735D2E786D
310
6C504B01021400140006080800264E374080192C27EA0000007C010000080000000000000000000000000083010000636F72652E786D6C504B01021400140006080800264E374055019EA25F0000007C000000070000000000000000000000000093020000636E782E786D6C504B01021400140006080800264E3740D6C0D8
310
8666010000020300000C00000000000000000000000000170300006662782F636F72652E786D6C504B01021400140006080800264E374075E46F927E0000009D0000000B00000000000000000000000000A70400006662782F636E782E786D6C504B01021400140006080800264E37405FEFF7B02B01000014020000310000
310
00000000000000000000004E0500006662782F39323836463442442D453346422D343433412D393035332D3733354436423541383642462F636F72652E786D6C504B01021400140006080800264E3740F5B7429754010000330300003000000000000000000000000000C80600006662782F39323836463442442D45334642
310
2D343433412D393035332D3733354436423541383642462F636E782E786D6C504B01021400140006080800264E374047B1388759070000941B000034000000000000000000000000006A0800006662782F39323836463442442D453346422D343433412D393035332D3733354436423541383642462F6F626A656374732E78
310
6D6C504B01021400140006080000264E37400000000000000000000000003500000000000000000000000000151000006662782F39323836463442442D453346422D343433412D393035332D3733354436423541383642462F76657274696365732E62696E504B01021400140006080800264E3740F270F133060000000400
310
00003600000000000000000000000000681000006662782F39323836463442442D453346422D343433412D393035332D3733354436423541383642462F747269616E676C65732E62696E504B01021400140006080000264E37400000000000000000000000003700000000000000000000000000C21000006662782F393238
310
36463442442D453346422D343433412D393035332D3733354436423541383642462F617474726962757465732E62696E504B01021400140006080800264E3740D5987DFC8F000000410100003600000000000000000000000000171100006662782F39323836463442442D453346422D343433412D393035332D3733354436
310
423541383642462F6469726563746F72792E786D6C504B01021400140006080800264E37403DD04FE6FC000000A00100003B00000000000000000000000000FA1100006662782F39323836463442442D453346422D343433412D393035332D3733354436423541383642462F7265736F75726365732F636F72652E786D6C50
310
4B0506000000000E000E00800400004F1300000000
  0
XRECORD
  5
17
102
{ACAD_REACTORS
330
12
102
}
330
12
100
AcDbXrecord
280
     1
270
     1
271
     1
  0
XRECORD
  5
16
102
{ACAD_REACTORS
330
12
102
}
330
12
100
AcDbXrecord
280
     1
270
     1
271
     1
  0
XRECORD
  5
18
102
{ACAD_REACTORS
330
12
102
}
330
12
100
AcDbXrecord
280
     1
270
     1
271
     1
  0
XRECORD
  5
15
102
{ACAD_REACTORS
330
12
102
}
330
12
100
AcDbXrecord
280
     1
270
     1
271
     1
  0
XRECORD
  5
F2D
102
{ACAD_REACTORS
330
22
102
}
330
22
100
AcDbXrecord
280
     1
102
MATERIAL
148
0.0
149
0.0
149
0.0
 93
        0
 94
      127
282
     0
 72
     0
 77
     0
171
     0
175
     0
179
     0
273
     0
  0
XRECORD
  5
24
102
{ACAD_REACTORS
330
22
102
}
330
22
100
AcDbXrecord
280
     1
270
     1
271
     1
  0
XRECORD
  5
23
102
{ACAD_REACTORS
330
22
102
}
330
22
100
AcDbXrecord
280
     1
270
     1
271
     1
  0
XRECORD
  5
BA
102
{ACAD_REACTORS
330
22
102
}
330
22
100
AcDbXrecord
280
     1
 70
     1
 90
1959938040
 71
     1
  1
17B9CB1F-2A50-40F1-816A-5F44964409FF
311
504B03040A0000080000264E37403DEE336E79000000790000001B0000006175746F6465736B2D64657369676E2D7061636B6167652E786D6C3C3F786D6C2076657273696F6E3D22312E302220656E636F64696E673D227574662D3822203F3E3C666F726D6174733E3C666F726D61743E687474703A2F2F736368656D612E
311
6175746F6465736B2E636F6D2F64657369676E2D7061636B6167652F323030393C2F666F726D61743E3C2F666F726D6174733E504B0304140006080800264E3740D486FD9CA0000000F4000000130000005B436F6E74656E745F54797065735D2E786D6C7D8EC10E82300C865F65E91D8A1E8C310C0EEA1BF002731658846E
311
D98AC1B77784ABF1D8FE5FBFBF75BBCE937A534CCEB38643598122B6FEE978D0B0485F9C41B54DDD7D022595594E1A469170414C76A4D9A4D207E29CF43ECE46F218070CC6BECC4078ACAA135ACF422C856C0E68EA1BF5669944DDD7BCDE7B1F8E415D77AECB980613C2E4AC91FC167A2B244592486606FC29C8FD7F045B9A
311
EF7053A7E60B504B0304140006080800264E37409E610147E90000007C01000008000000636F72652E786D6C8D905D6EC3201084AF82F61D9B1FD7B52D4C5427CD097A0104C44589C1B2A1EAF18B13476ADFFAB4A3613E7635E2F03DDDD0975D56177C0FB42080ACD7C1383FF690E20537800E522C21C45F31405E4DB687CD
311
0629C625A479B774F0D1FA985D1F8CDD4DB5AE3602D2B72C7A58F5A79D54A152CC89F55ACC4A5FD5680BFA54194EC919F458E24CFECF5D9C5D409EE96938BED447DCD4C309573CAB3776E678602DA5EFAC7AE54D2BCA0D9622BAE9B95F2F56456B40324219261433FE41DAAE6A3BCA31A93B4244B9C5FF406936FF8492F391
311
B3FDDC07B682A4F990FB8314E5D6451EF7A2F2DC7A933F504B0304140006080800264E374055019EA25F0000007C00000007000000636E782E786D6C4DCB3B0E80201045D1AD90E915ED2CF8AC45050C11660C8261F98AB1B07AC9C97D42D718D865D3E909258CFD00CCE24AC6E326A164D74DC0B4128928FF326038472BA1
311
3128B1252AC747C6BAB984FC68F0B87FE8960A5C09FE86CFB69FBA01504B0304140006080800264E37406DF4739766010000020300000C0000006662782F636F72652E786D6C8D525B6E833010BC8AE57FB00D344D22E3A8499A13F4020E3814056CE407CAF1BB3C229A2A8A2A2463CDECECCE0EF0DDAD6D50AFACAB8DCE31
311
8B29464A17A6AC7595E3E02FD11AA39DE0D618FFAB0C232D5B95E301C68257D6846E860AA3BDD21E506D4A3583D239E5312A1AB8E4D815DFAA95B10C1E2ADC35EE647195958A590C34D409EEBC0503681A329C585CCE374E265CF010EA7266EB12A6D5975A592C4EECB83FBCAD0ED17AB53F46590AB78FE49446FB64C3D867
311
92BDA7EB0D278358705FB777778555D2AB128B84B224A22C4AD22FBAD9669B2D4B23BADA52CAC950FE200A5DF94F51A8B54F93D9EE247358303032127FB685883C72B2073F4470328408AF31E1C7A0211008D9CB7373DFE30A50AF0A6F6C064C69C242F5B2090AA652343E9C4C2C741E1BC0664FFB242FFABCEE011F50EA0A
311
AC490FD773F0C3743E4D9DA3E8948D7A7F43DAD856368BB9C9E2722E839ECA0BD318FB1F35995725739864F87BC50F504B0304140006080800264E37404E39ED537D0000009D0000000B0000006662782F636E782E786D6C4DCCD10A832014C6F1579173EF320A3A0335B079DE239685AC74381D7BFCD5E862571FFCF8F8CB
311
FEB3ADECEDD2CBC7A0A0BE08602EDCE3E4C3A2A0E49923B05ECB1463FEBB010BE3E6141C0C5A2E2996E749939BC7B2E65D571F1E2712E120EC15F9CD20F1166DC74DD30A2EB0A93BB2031942A8B4AC7EA57D8FB0FE02504B0304140006080800264E3740200782BD2B01000014020000310000006662782F46463843304539
311
382D444238462D343845372D423334302D3038333137464543464246382F636F72652E786D6C8D51CB6EC32010FC15C4293D6083ED2624C2444A1A7F417F8000495162B07854F9FC42ED48ED2D1716CDCECC8E76D9FE31DEC1B7F6C138DB43526108B4954E197BED618A174421D873E69D8B7F68105831EA1E16187276F52E
311
4D0B249D8DDAC68C5AA7F4028A10748440DEF3A787417EE9515422C5CC08B76A12F226AEBA22556E671E6721FA1C00CC43CA0BF930D0233E6D29FA38D00175F4B44187B6C308D3966C86D371380C94D5B390B3948C5AE446E538E662B47FD5A488398B667CC6975E8BA815E40D260DC20435ED27DEEEBAED8EB408AF7718B3
311
BAD0FF89D2A45E14256363DB2C716759809CB07A6E70A65C3ADF9F61F463723E82326F15B47C831C57B8C11413D2B27AA6E60564CF75B77886E87C5EF0EA76CE6CF23E1BAF3BCEEA72A35C7E0F986BB927FF01504B0304140006080800264E374093108D804D01000033030000300000006662782F46463843304539382D44
311
4238462D343845372D423334302D3038333137464543464246382F636E782E786D6CD593BD6E032110845F05D1DFAF4F566C71584A912748919683B54DCCC1899F287EFB2C3676DCB84899069D668799D5278EEDBE6743BEC007EDEC48BBBAA504AC744ADBC34853DC572F94EC38F3CEC5071B2556CC30D22C53CE0EDEA5A5
311
480AF6229988AAD1F654440FC1252F21A09C6F12E3A4301800B64A28C23C8152A0C8DD885F7BF0B80A8AD399C42390B7D70FE2A64F9031B026A770D6E40ECEF2599A1E4C944823421869904798452D52740AC2A956228ABAAB6F5D4F76FA4D22F9C2AD32794D72F948F34979D9A8468EACC12167217AA4574CF1BC00E56259
311
8C962222E4E662BC7A384BDAC6F550BC1AC17B7477EBD53060D865C659D4331487F4202228CAFBB6EBABB6ABFAD57BBBD90E9B6DB7AADAF5B66D5993ED9C4DCE99720963C0BB85486723D84879C79A3C7E86AFF888D21E593B7FFE034804505AAF74EE19FF994F7379DF88CBE35FC07F00504B0304140006080800264E3740
311
6251A75C9A0500007A100000340000006662782F46463843304539382D444238462D343845372D423334302D3038333137464543464246382F6F626A656374732E786D6CAD57DB6EDB3810FD1541FBEC8B6C278D178A0AC7AE0BA3481BD468B10F010C4AA2146E285120A9D4D9AFDF43899225D74EBD8BBE5816351CCE9C39
311
73A1FF7E9F71E7854AC5447EEB7AC3B1EBD03C1231CBD35BB7D4C9E0C675DE07BE144277C45C272719BD75CDB21BF8A914656197629A9092EBA3D5F5DD5F8E8A684E5D27E244A95B57454F342343526A1153F53C8C8926C334D90FBD612DD8579B4A523C1D292D88A4B986A558CFA1C5A98DF2FAAF637714F823F33DF0CDAF
311
959A9E971A55FEF4CF67B9D2248F7E3AEC48CDD49BAD3E4CAEE683ABD96C3A985D4FBCC1DDFA6E35F0DE4DC7CBEBE572BEF830C7C14A4B68B296489AB8C147602359E48FEA4F815FB25C4F2756C4066824E90B3391728389E3F9A35AA6F5CE3A79CAFC48E4398D2AAC8046E59F551DD382E63162CEA882651D84C6FD57CFE0
311
D8F93C35EFF6C8EEF265087477741435B637CFAEA522FC1B2EA84B182415350CACB1B48ED65C1D1F100E85E0F61B534E4634958C7087B35012F9EA0610352281DF5363982C4D36180FDC0051A83FF7E98234FA35CF4F5999949C1B1ABB4195053BE40AD5AAB28CFD43E5C1FA2E32B009B1326CB8B10EE9D782BAC1BCA6C8CD
311
119B6A209D84931421879B66E77472E4E8D2E4E966E5069FD6E17E6B72F7F4E185140595DAD007D46A02D73C0D4AD626EFA2C8990DEE91290750BE02F9CF48F58329889B64FBD97E664FD192E42A1132436C9CB13318E367EC78D5AFF9DFF9E78FDACDFDE89DC313C13650FD063CFB3E7463D98133F05F407821A7D6B56D44
311
38CAC63DCB01902189C3059650879370EF061B54395465EC223CF0E032CC7DC15F7F64D5A0505427759E39B03C2A8B171468C056311266D4E4B7061EE2F45339AB0EB662E7E0BDFA2D745DACB69FB6A54C4844EF6D4EAF68C272A6D1E20EBCE91AD4C3BCE7D1337DFD21640C477FC67BDBC53BB34729A06D3037C0A74D4D37
311
2F87937B0744D8970A536EFC5F9C00274C63EDE8BF672AA29C939C8AB239F7CDFE81B651436C92DD30B96D3087C602D2D45F8E72104D3A92AC3020B6DDAA2D9AC333DE7DDB7C062321CF4548F841283C94DE48702177E1EBAEAE4A2791FEDEA7B6856064B480ED558E34E96F31DFC52C494A851A7802D6EF9B653774A62AA0
311
42345AEB6499C17DE4169196B38D5E346B49D04845BE63689B48BB930774F503514B804AE1398B15E5C98E715E66BB847134A35D468A3370FC7FFBC3322B76241365AECFE8EE998EE6D0B7BD475EF583E8E8C90DB6D5737087D21BD3F810E69EB0692527B0EA87F6DDDD7C79E7AD0793C5D578301BAFBDC18D77BD185CAD67
311
B3F9F56C369EAFD74D9C6AE581DF749A6E42234AE86C7E29990DDFB70DD2C7D60037B8275A3D7EACB3B3797EDB0C310AFB23EC41BB6C372EE2178C7D34FEB58283E449459BACE034A3B9262685EECD1FFE9560CCE81953AF6F3292D20BB47CF9B83D72062B17EC7B30E94E7F1CEDB5AB4B93902795E8A7320B73C2F8D1C6B4
311
467258E4A9C5AF8949FBACFB4CF36ADE6C6030982AC1598C32183B291519D5288617F420995105EA7547FAD85E3D2ED8FD520F889A849C36963C11CCC85C212D40AD32D2FD75E70FCC7466ACBA75D16D87CFF8B195C275C0995B1733BA661155C310FDD94C42957270A93BC863EE2779CA316AD79BDAF77697C1A6D7915B91
311
4BC627EB575DC1AD03282305C606CC43884E654CE057B6D9EFD17F72BC31C7211A7FC352B7BE1C165A67AA6390A2B553F6B28019E6D91EBD47A2BEED9637AC647A885C74C97A9304B5D6812632AD2E0AC63E6BD262F530C280E26CBE38052F53C4F2724D034941E6D22438580456589D05D1A0EAF2CFC707297091CD9C3503
311
051E9722CB446E5F16F622EC6C9F70AD8D1F5116A8B98FA8C7C9D89B3C56F7007B35D98544D12189D533161053C95A887B810723EBCB223A50FDA1951B99201C7173B3726C4B9B41A9254AB7AA1A583071E4D441F698BBA4C995AE40F1E655605489C20489213EF817504B0304140006080000264E37400000000000000000
311
00000000350000006662782F46463843304539382D444238462D343845372D423334302D3038333137464543464246382F76657274696365732E62696E504B0304140006080800264E3740F270F1330600000004000000360000006662782F46463843304539382D444238462D343845372D423334302D3038333137464543
311
464246382F747269616E676C65732E62696E636660600000504B0304140006080000264E3740000000000000000000000000370000006662782F46463843304539382D444238462D343845372D423334302D3038333137464543464246382F617474726962757465732E62696E504B0304140006080800264E3740D5987DFC
311
8F00000041010000360000006662782F46463843304539382D444238462D343845372D423334302D3038333137464543464246382F6469726563746F72792E786D6C858F410EC2201045AF4266AF15DDB800BA74E7C21B903225242D6328188F2FA5C4183471359997F9FF81E89FF3C41E1816475E02DF1F80A11FC8386F25
311
A438EECEC07A250251FC3803E6F58C12560C4AD840E95E91C151A72936F496F35732D860FE635F62C8F2DA16B505C545B74125BAA2FA9E05D7CC053D063734D5C7665FD55B6B8D15D5E9BFEAFD8490FFA45E504B0304140006080800264E37408DCA2FDFFD000000A00100003B0000006662782F46463843304539382D4442
311
38462D343845372D423334302D3038333137464543464246382F7265736F75726365732F636F72652E786D6C8D504B6E833010BD0A9ABDC1369406641C95A439412F6099496225D8913F558F5F13A8D4EEBA9919BD8FE6E989FDD77C2F3ED107E3EC00ACA450A0D56E32F632408A67B283622F85772EFE924161D58C032C30
311
4871F12E3D36483B1BD1C68C5A37E106AA103042A1EFF91820E82BCEAA54296645B8950FA56FEA82252B339D755284E87380627DB24C901E834B5E6310D5CA4A919299368D99F24F7336E8419ED8713CBCB423D9B5E39134757B206FFC549391778CBDF3E6B5DE75A25ACC524433FF64D41E55C40924A78C13CA08AF3F68D7
311
375DCF6A42DB9E52512DF23FA6F498FE694AC6C69A6F71575B00C97290272145B5F495D7B3CCBC976EE537504B010214000A0000080000264E37403DEE336E79000000790000001B00000000000000000000000000000000006175746F6465736B2D64657369676E2D7061636B6167652E786D6C504B010214001400060808
311
00264E3740D486FD9CA0000000F40000001300000000000000000000000000B20000005B436F6E74656E745F54797065735D2E786D6C504B01021400140006080800264E37409E610147E90000007C010000080000000000000000000000000083010000636F72652E786D6C504B01021400140006080800264E374055019E
311
A25F0000007C000000070000000000000000000000000092020000636E782E786D6C504B01021400140006080800264E37406DF4739766010000020300000C00000000000000000000000000160300006662782F636F72652E786D6C504B01021400140006080800264E37404E39ED537D0000009D0000000B000000000000
311
00000000000000A60400006662782F636E782E786D6C504B01021400140006080800264E3740200782BD2B0100001402000031000000000000000000000000004C0500006662782F46463843304539382D444238462D343845372D423334302D3038333137464543464246382F636F72652E786D6C504B0102140014000608
311
0800264E374093108D804D010000330300003000000000000000000000000000C60600006662782F46463843304539382D444238462D343845372D423334302D3038333137464543464246382F636E782E786D6C504B01021400140006080800264E37406251A75C9A0500007A100000340000000000000000000000000061
311
0800006662782F46463843304539382D444238462D343845372D423334302D3038333137464543464246382F6F626A656374732E786D6C504B01021400140006080000264E374000000000000000000000000035000000000000000000000000004D0E00006662782F46463843304539382D444238462D343845372D423334
311
302D3038333137464543464246382F76657274696365732E62696E504B01021400140006080800264E3740F270F13306000000040000003600000000000000000000000000A00E00006662782F46463843304539382D444238462D343845372D423334302D3038333137464543464246382F747269616E676C65732E62696E
311
504B01021400140006080000264E37400000000000000000000000003700000000000000000000000000FA0E00006662782F46463843304539382D444238462D343845372D423334302D3038333137464543464246382F617474726962757465732E62696E504B01021400140006080800264E3740D5987DFC8F0000004101
311
000036000000000000000000000000004F0F00006662782F46463843304539382D444238462D343845372D423334302D3038333137464543464246382F6469726563746F72792E786D6C504B01021400140006080800264E37408DCA2FDFFD000000A00100003B00000000000000000000000000321000006662782F464638
311
43304539382D444238462D343845372D423334302D3038333137464543464246382F7265736F75726365732F636F72652E786D6C504B0506000000000E000E0080040000881100000000
310
504B03040A0000080000264E37403DEE336E79000000790000001B0000006175746F6465736B2D64657369676E2D7061636B6167652E786D6C3C3F786D6C2076657273696F6E3D22312E302220656E636F64696E673D227574662D3822203F3E3C666F726D6174733E3C666F726D61743E687474703A2F2F736368656D612E
310
6175746F6465736B2E636F6D2F64657369676E2D7061636B6167652F323030393C2F666F726D61743E3C2F666F726D6174733E504B0304140006080800264E3740D486FD9CA0000000F4000000130000005B436F6E74656E745F54797065735D2E786D6C7D8EC10E82300C865F65E91D8A1E8C310C0EEA1BF002731658846E
310
D98AC1B77784ABF1D8FE5FBFBF75BBCE937A534CCEB38643598122B6FEE978D0B0485F9C41B54DDD7D022595594E1A469170414C76A4D9A4D207E29CF43ECE46F218070CC6BECC4078ACAA135ACF422C856C0E68EA1BF5669944DDD7BCDE7B1F8E415D77AECB980613C2E4AC91FC167A2B244592486606FC29C8FD7F045B9A
310
EF7053A7E60B504B0304140006080800264E3740A96C3910E90000007C01000008000000636F72652E786D6C8D904D6EC3201085AF82668FCD4FE2C416266AE4DCA01740401C94182C03558F5F9C3852BBEB6A466FDE37337AE2F43D3DD0975DA20BBE075A1140D6EB609C1F7BC8E98A8F804E522C21A45F36405E4DB68755
310
0629C625E4799374F0C9FA54541F8CDD4415A34D80F4A3343D447DB393AA544EC511EFD5ACF45D8DB6A2EFAEC0393B835E479C29FBDCD5D905E4D09EE940F61C0F7C6078D7508A8F6DDBE033FB288343B33F5C2EA25E6129929BDEF7F56255B206242394614231E39FA4ED766D4739264D4788A857FB1F28CFE69F50763E71
310
B6BDFBC222485A1E790EA4A8D72C4A790655EA9A9BFC01504B0304140006080800264E374055019EA25F0000007C00000007000000636E782E786D6C4DCB3B0E80201045D1AD90E915ED2CF8AC45050C11660C8261F98AB1B07AC9C97D42D718D865D3E909258CFD00CCE24AC6E326A164D74DC0B4128928FF326038472BA1
310
3128B1252AC747C6BAB984FC68F0B87FE8960A5C09FE86CFB69FBA01504B0304140006080800264E3740C86909BE64010000020300000C0000006662782F636F72652E786D6C8D52D18E823010FC95A6EFA52D288AA93567F40FEE072A54AE115A535AE2E7DF2218CE8B3186A434333BBBB30362776B1BD46BDF1967B79827
310
0C236D4B57195B6F710C67B2C6682785772EFC29C3C8AA566FF10063296AEFE275824A6783B60150EB2A3D81AAEB74C0A86CE0B2C55DF9A35B95A818A0A2BB2457555E54AD139E000D755274C18301340E194E2CCFA79BA0232E458CA69A5853C1347336DA637928F6FCC09619396487942C72CEC9BA2872B24FBF8058E5CB
310
D5F128E820962298F6E1AEF45A055D6199329E12C6499A7DB362B328363C232CDF3026E850FE248AD7EA4351343664E9647794755872307227FE6D0B1105D4A91EFC5029E81022BCEE093F070D8140C8419D9AC71E17807A5D06E717C0542ECE54AF9AA8612A43F747D09185CEF706B0D9CB3EE99B3EEF7BC00754B6066B2A
310
C0F514C3305D8C53A728AEDA933EDC9075BE55CD6C6EB4389FF3A097F2D235CE7FA2A6D3AA740A930E7FAFFC05504B0304140006080800264E37409A2422D17E0000009D0000000B0000006662782F636E782E786D6C4DCCD10A83201886E15B91FFDC5256D3408D66751FB12C64A6C3E9D8E5AF46073BFAE0E1E315ED6773
310
E86DE2CB062F81160490F1F7305BBF4AC869C11C50AB440C21FDDD00F96933120E0625D618F2F3A4D92C5376695767FDE3C4DBB526A4D60C734A35AEFA66C49C8D04F3AEBF0CDD40584335944A94BFD2BE47587D01504B0304140006080800264E3740793FA8652A01000013020000310000006662782F4236353030354337
310
2D383131432D344439462D383746302D3841443345414530373931432F636F72652E786D6C8D514B6EC32014BC0A62952EB0C1761C3BC244693E27E80528901425068B4F95E3176A476A77D9F0D0BC9979038FEE1EE31D7C2BE7B53503240586401961A536D701C670411D043B469DB5E10F0D02C34735C00C4346AFCEC669
310
8184354199905063A55A40EEBD0A10887BBA0CD08B2F35F282C79018FE564C5CDCF85515A448EDC463D40797028079483E217B6FD718AF0F1BD4117240CDB13FA36E73C6A8DB1FEBD3FE84373D39D07216321AA3968B5CCB14475FB472AF9A6431A3418FCFF8C2291E9484ACC2A44298A0AAFEC0FDB6E9B7A446B8DD624CCB
310
4CFF278A937C5114B50975B5C49D651E3242CBB9C1A8B4F1F3FE0CA31E937501E4792BAFC41B64B8C0554D9A7E4DCB9999DE9F2CDB66B1F4C1BAF4BFABDB6722D78B6FDB305AE615A5F2BBBF54F33AD90F504B0304140006080800264E3740F5B742975401000033030000300000006662782F42363530303543372D383131
310
432D344439462D383746302D3841443345414530373931432F636E782E786D6CBD93CD6EC32010845F0571F7BF15251126520F7D821E7AC5B04968305880ABE6EDBB2424CD25874A552FC89A1D66569F30DB7D4D867C820FDAD98136654D0958E994B687812E715FAC29D971E69D8B0F364AAC9860A049A69C1DBC5BE62C29
310
D88BC544548DB6A72C7A086EF11202CAE926314E0A8301608B05459846500A14B91BF16B0F1E5741713C937804F2FAF24EDCF801320656A514CEAAD4C1593A73D3838912694408030DF2089328C5129D82702A9588A26CCA5BD7939D7E9248BA70AB5CBC26A97CA0E9A43C6F54224756E190B3103DD2CBA6789E817231CF46
310
4B11117275315E3D9C2DDAC6559FBD1AC17B7477ED6ABDC6B0CB8CB3A827C80EE941445094B775D3167553B4DD5BBDD9F69B6DD315F56A5BD7AC4A76CE46E74CBE8431E0DD4CA4B3116CA4BC61551A3FC3977D44698FAC9D3FFF022402C8AD573AF78CBFE4D3ACBABEFF473ED5E57D232E8F7F01FF06504B03041400060808
310
00264E374009679C1458070000931B0000340000006662782F42363530303543372D383131432D344439462D383746302D3841443345414530373931432F6F626A656374732E786D6CED595B6FA33814FE2B887D0E094DDA695794519B4EAA68D599D16467B40F9190030EF1D618649B5EF6D7EFF1050234B464A7FB360F09
310
60ECE373BE73F521F8F89451E70173417276E9FADEC475308BF384B0F4D22DE57674EE3A1FC380E7B96C4C731D86327CE9AA61370C529E97851D4AF0169554764617D77F3922C60CBB4E4C911097AE887738431E2A659E6071EF2548222FDD3E79BE6726B6C9A61C15BB0ED10271CC24700AE30CA8388629BFFD3871C76130
310
56EFC340FDDB59D341B366FDB3C65AEA369784098958FC82A50E99E92096A6FEECE6D3C9E9C5E874369B8E666727FEE87A717D33F23F4C27F3B3F9FCE2EAD305B0B7C9736A654A70815902FA7B76433F18AB37B5E81681435CC7396338D64002545AAC2E4182056CD5806FD27EF495448DD75AC2C6F34CBDB72C3486A76D2A
310
7DB38601D1A20B82D8ED2A89AB6B53BE7CF337082E861825175802B74272D0AE85878357B8E124189BD130D8EC7541849321893941D4A164C31107A5C05435250CCC024B46390707528E92406BCEBC6EDB1678E6DBAE7388CB6D49A9F20C37D48E1581FB61293467E41FCCF7DC3791019E40DA9230796EB994CF0576C38B60
310
AC07C3405DA627F6A501D2D952940A8D8879DB1174AE5C7F79E3867F2C364F2B150E0E6F5EF0BCC05C2AA3537AD47C8121DBAB42C96EEB0FD29C5A00C21850EDCA3D28DF00F9CF103DF6AC80DE38799A3DCDEC5CC91113DB9C67A01B67E28C26F037717CFDAFEE1B77C1B85EDCD65E1F9EE0A60AAAF39FC7B32D83C6CAF2DF
310
80330C1EC0E0733EB5AF5631A260CF77840140CA481C9AC31084F6EDE6C90D97103821D0C32A44431F4406761FE036185B327BAD54EE65BD8E01A2768FE91025016CDA22818D1E3DDD42F6E024DEABA929621FBCA7EF62AE5737AB3F5625DFA218DF599FBEC15BC28884AC7998A116E62D89EEF1F363CE1310F425DEAB26DE
310
99DD4A00DA0A73057C5A81A01EF63BB73688615D9AAB7013BCB10308A1727583FE1D1131A614319C97D5BE757453865A7BBCAD19DCF0C4403C3DE99830C70F445515E034FB192D4621EFC79C140A4437BC3592D541D3EB91EEFBF23358643DBF67D69241E86588FEA983D6011C5A965D216D81A805DEECC3799CD39C479BE7
310
C8443A176A0960A3ED2D3F5A4421D61B25292AE041DAEFAA90921A69A3846CB7A580B87A80C51FCB79D31C26DED43F759AFF1D679C41B405DF45DCFA5D678F886428C5D116257DDB3577AB690B4DB28734C75B0A729107229F2324A34982D363A0398AF8C5BB524F692E04615840BE3A087E138D890781C468B3625969B503
310
3411518625A2C720A0C8F480ABD38EAE7163281DDEE6B1B6DED734D624FA3F590447504BE62C22508A420E799371DF3B8518D246D7A0DCC117ACADA2ADC5A0259410F173F48849BA93C7A06EC8F7E01EC391A494515EA018CC7A00D917BEA294DAE17D83E27B953FA2B8A4EF652002D36D44282DB3087E84C1C963886BD781
310
E955141AC44DEC933883A20CC9920FD9E4EC74F2621F533374436063A32DA110B6A30C153DA8B702A2AE479C1A7C4BBD47A99B322B2294E5251B6428DEB4EB4D967C57AD8AEC407E55A908656345D8120C03C2649D55AB980DA6AE032BB8910E54CF91405941CD29EC8DC4E3D7DEA429F76EC0AD9FBEEF0619147E3DDA6B46
310
D4590583E5B15518884724E39D1BAEF475740DF57782937DAAAF6ACD66050888A9485E726255F47D09E58DADD1DCF00E49B1BE3559B7BA7E5F7AD0FD08C6B0066A977AE152019D612691AA4CEED40DFD862004B76898F1A5CAA9C750B94A125D3522BA207DEA6C9511AD4D33E2153BCCF20C7E6C4D584CCB04AF5122EEA33B
310
49A31551AC5B29BD8C5418BF2AE097DB55071E181920D25755E0E1C7CE5A3B3A57E5D241227257661B860804C19668A9D18D57B0D46AA4D2727D55670AA8BBC0C0AC8A67BF4E16CD76C4AF93456A0DE3E74E1634DF20BA8F368D6C1E2BB33EEA1450A72745E53D4E01BAEB5053AD9388C9E5567CEB4B11C4C42AC80F2EC6AA
310
986108F671FC9F93765F1234DB75F83F2E69FB2F0A8EA3924A6BB26A521D285C97CD14E67FB8BE985FFB8BD1C9D5E964349B2CFCD1B97F76353A5DCC661767B3D9E462B1A8D1D47E1A06752CD3A90B9E4D4CAB86D593C5009AB222A72481C37CE2A41842BE8423FD80EE39CFB080DCD9EC7527B6273F60F58369734AB4A1B8
310
E26487A03F4C056475C0A88C657BDCF90D3A9312CED9972EF48CBC7BF8B356E93A90782E5DE814481263E16DA0CBA4FA799A38645C9DFA2D31C007B1546544B3A87EAE57296C5AD1BF9E32240B58B95A2D0CA8DB0A687EB51A149A37CB537C94E0153B0E9270BB2925146B4696FD402D8CDE66AF7E231B25ECDE6EFD04AEFB
310
BA58BEA7E7B41019F4C5E0552330544712F154B7BB156396A5AB9BAF6368B339CB2F4E41CB1474399CD2886330E652D553604560159666812498EAFCF7F5579EC3179ECCD145D17A9E6759CEECC3151CC712F842E4AC76F0BD275943D58055575DAC4F26FEC95A77B36D833DDA20813D550EC140554528113AC60616F9A233
310
65FB9663A584CEF4E58D63C32774018C05BD68EE9AAF5B0E788FFA8EA27C457B7825E7AB0DEDB19E0AD6C0A1151DFE0B504B0304140006080000264E3740000000000000000000000000350000006662782F42363530303543372D383131432D344439462D383746302D3841443345414530373931432F7665727469636573
310
2E62696E504B0304140006080800264E3740F270F1330600000004000000360000006662782F42363530303543372D383131432D344439462D383746302D3841443345414530373931432F747269616E676C65732E62696E636660600000504B0304140006080000264E374000000000000000000000000037000000666278
310
2F42363530303543372D383131432D344439462D383746302D3841443345414530373931432F617474726962757465732E62696E504B0304140006080800264E3740D5987DFC8F00000041010000360000006662782F42363530303543372D383131432D344439462D383746302D3841443345414530373931432F64697265
310
63746F72792E786D6C858F410EC2201045AF4266AF15DDB800BA74E7C21B903225242D6328188F2FA5C4183471359997F9FF81E89FF3C41E1816475E02DF1F80A11FC8386F25A438EECEC07A250251FC3803E6F58C12560C4AD840E95E91C151A72936F496F35732D860FE635F62C8F2DA16B505C545B74125BAA2FA9E05D7
310
CC053D063734D5C7665FD55B6B8D15D5E9BFEAFD8490FFA45E504B0304140006080800264E3740BAC71788FB000000A00100003B0000006662782F42363530303543372D383131432D344439462D383746302D3841443345414530373931432F7265736F75726365732F636F72652E786D6C8D504B6E833010BD0A9ABDC136
310
0909C8386A446ED00B586642AD041BF953F5F835814AEDAE9B99D1FB689E9EB87CCDCFE2137D30CEF6C04A0A055AED4663A71E52BC9333141729BC73F1970C0AAB66EC6185418AC9BBB4EC907636A28D19B56EC41D54216084423FF3D143D01F38AB52A59815E1512E4A3FD484252B339D755284E87380627BB24E901E834B
310
5E6310D5C64A919219778D19F34F7337E8410EED950DF4C8C9500F9C1C1AC6C8B96D1B72E56F993835C7D3ED26AAD52C4534F34F46ED51451C4172CA38A18CF0FA9DB6DDA1ED584D68D3512AAA55FEC79496F19FA6646CACF91E77B305902C07791152546B5F79BDCACC7BED567E03504B010214000A0000080000264E3740
310
3DEE336E79000000790000001B00000000000000000000000000000000006175746F6465736B2D64657369676E2D7061636B6167652E786D6C504B01021400140006080800264E3740D486FD9CA0000000F40000001300000000000000000000000000B20000005B436F6E74656E745F54797065735D2E786D6C504B010214
310
00140006080800264E3740A96C3910E90000007C010000080000000000000000000000000083010000636F72652E786D6C504B01021400140006080800264E374055019EA25F0000007C000000070000000000000000000000000092020000636E782E786D6C504B01021400140006080800264E3740C86909BE6401000002
310
0300000C00000000000000000000000000160300006662782F636F72652E786D6C504B01021400140006080800264E37409A2422D17E0000009D0000000B00000000000000000000000000A40400006662782F636E782E786D6C504B01021400140006080800264E3740793FA8652A01000013020000310000000000000000
310
00000000004B0500006662782F42363530303543372D383131432D344439462D383746302D3841443345414530373931432F636F72652E786D6C504B01021400140006080800264E3740F5B7429754010000330300003000000000000000000000000000C40600006662782F42363530303543372D383131432D344439462D
310
383746302D3841443345414530373931432F636E782E786D6C504B01021400140006080800264E374009679C1458070000931B00003400000000000000000000000000660800006662782F42363530303543372D383131432D344439462D383746302D3841443345414530373931432F6F626A656374732E786D6C504B0102
310
1400140006080000264E37400000000000000000000000003500000000000000000000000000101000006662782F42363530303543372D383131432D344439462D383746302D3841443345414530373931432F76657274696365732E62696E504B01021400140006080800264E3740F270F133060000000400000036000000
310
00000000000000000000631000006662782F42363530303543372D383131432D344439462D383746302D3841443345414530373931432F747269616E676C65732E62696E504B01021400140006080000264E37400000000000000000000000003700000000000000000000000000BD1000006662782F42363530303543372D
310
383131432D344439462D383746302D3841443345414530373931432F617474726962757465732E62696E504B01021400140006080800264E3740D5987DFC8F000000410100003600000000000000000000000000121100006662782F42363530303543372D383131432D344439462D383746302D3841443345414530373931
310
432F6469726563746F72792E786D6C504B01021400140006080800264E3740BAC71788FB000000A00100003B00000000000000000000000000F51100006662782F42363530303543372D383131432D344439462D383746302D3841443345414530373931432F7265736F75726365732F636F72652E786D6C504B0506000000
310
000E000E0080040000491300000000
  0
XRECORD
  5
27
102
{ACAD_REACTORS
330
22
102
}
330
22
100
AcDbXrecord
280
     1
270
     1
271
     1
  0
XRECORD
  5
26
102
{ACAD_REACTORS
330
22
102
}
330
22
100
AcDbXrecord
280
     1
270
     1
271
     1
  0
XRECORD
  5
28
102
{ACAD_REACTORS
330
22
102
}
330
22
100
AcDbXrecord
280
     1
270
     1
271
     1
  0
XRECORD
  5
25
102
{ACAD_REACTORS
330
22
102
}
330
22
100
AcDbXrecord
280
     1
270
     1
271
     1
  0
XRECORD
  5
F26
102
{ACAD_REACTORS
330
F25
102
}
330
F25
100
AcDbXrecord
280
     1
102
ACAD_ROUNDTRIP_2012_MLEADER_STYLE
298
     1
  0
CELLSTYLEMAP
  5
F24
102
{ACAD_REACTORS
330
F23
102
}
330
F23
100
AcDbCellStyleMap
 90
        3
300
CELLSTYLE
  1
TABLEFORMAT_BEGIN
 90
        5
170
     1
 91
        0
 92
    32768
 62
   257
 93
        1
300
CONTENTFORMAT
  1
CONTENTFORMAT_BEGIN
 90
        0
 91
        0
 92
      512
 93
        0
300

 40
0.0
140
1.0
 94
        5
 62
     0
340
55
144
0.25
309
CONTENTFORMAT_END
171
     0
 94
        0
309
TABLEFORMAT_END
  1
CELLSTYLE_BEGIN
 90
        1
 91
        1
300
_TITLE
309
CELLSTYLE_END
300
CELLSTYLE
  1
TABLEFORMAT_BEGIN
 90
        5
170
     1
 91
        0
 92
        0
 62
   257
 93
        1
300
CONTENTFORMAT
  1
CONTENTFORMAT_BEGIN
 90
        0
 91
        0
 92
      512
 93
        0
300

 40
0.0
140
1.0
 94
        5
 62
     0
340
55
144
0.18
309
CONTENTFORMAT_END
171
     0
 94
        0
309
TABLEFORMAT_END
  1
CELLSTYLE_BEGIN
 90
        2
 91
        1
300
_HEADER
309
CELLSTYLE_END
300
CELLSTYLE
  1
TABLEFORMAT_BEGIN
 90
        5
170
     1
 91
        0
 92
        0
 62
   257
 93
        1
300
CONTENTFORMAT
  1
CONTENTFORMAT_BEGIN
 90
        0
 91
        0
 92
      512
 93
        0
300

 40
0.0
140
1.0
 94
        2
 62
     0
340
55
144
0.18
309
CONTENTFORMAT_END
171
     0
 94
        0
309
TABLEFORMAT_END
  1
CELLSTYLE_BEGIN
 90
        3
 91
        2
300
_DATA
309
CELLSTYLE_END
  0
XRECORD
  5
F5E
102
{ACAD_REACTORS
330
F23
102
}
330
F23
100
AcDbXrecord
280
     1
102
ACAD_ROUNDTRIP_PRE2007_TABLESTYLE
 90
      512
 91
        0
  1

 92
      512
 93
        0
  2

 94
      512
 95
        0
  3

  0
XRECORD
  5
F39
102
{ACAD_REACTORS
330
F38
102
}
330
F38
100
AcDbXrecord
280
     1
102
RTVSPropertyOp0
 70
     1
102
RTVSPropertyOp1
 70
     1
102
RTVSPropertyOp2
 70
     1
102
RTVSPropertyOp3
 70
     1
102
RTVSPropertyOp4
 70
     1
102
RTVSPropertyOp5
 70
     1
102
RTVSPropertyOp6
 70
     1
102
RTVSPropertyOp7
 70
     1
102
RTVSPropertyOp8
 70
     1
102
RTVSPropertyOp9
 70
     1
102
RTVSPropertyOp10
 70
     1
102
RTVSPropertyOp11
 70
     1
102
RTVSPropertyOp12
 70
     1
102
RTVSPropertyOp13
 70
     1
102
RTVSPropertyOp14
 70
     1
102
RTVSPropertyOp15
 70
     1
102
RTVSPropertyOp16
 70
     1
102
RTVSPropertyOp17
 70
     1
102
RTVSPropertyOp18
 70
     1
102
RTVSPropertyOp19
 70
     1
102
RTVSPropertyOp20
 70
     1
102
RTVSPropertyOp21
 70
     1
102
RTVSPropertyOp22
 70
     1
102
RTVSPropertyOp23
 70
     1
102
RTVSPropertyOp24
 70
     1
102
RTVSPropertyOp25
 70
     1
102
RTVSPropertyOp26
 70
     1
102
RTVSPropertyOp27
 70
     1
102
RTVSPropertyOp28
 70
     1
102
RTVSPropertyOp29
 70
     1
102
RTVSPropertyOp30
 70
     1
102
RTVSPropertyOp31
 70
     1
102
RTVSPropertyOp32
 70
     1
  0
XRECORD
  5
F37
102
{ACAD_REACTORS
330
F36
102
}
330
F36
100
AcDbXrecord
280
     1
102
RTVSPropertyOp0
 70
     1
102
RTVSPropertyOp1
 70
     1
102
RTVSPropertyOp2
 70
     1
102
RTVSPropertyOp3
 70
     1
102
RTVSPropertyOp4
 70
     1
102
RTVSPropertyOp5
 70
     1
102
RTVSPropertyOp6
 70
     1
102
RTVSPropertyOp7
 70
     1
102
RTVSPropertyOp8
 70
     1
102
RTVSPropertyOp9
 70
     1
102
RTVSPropertyOp10
 70
     1
102
RTVSPropertyOp11
 70
     1
102
RTVSPropertyOp12
 70
     1
102
RTVSPropertyOp13
 70
     1
102
RTVSPropertyOp14
 70
     1
102
RTVSPropertyOp15
 70
     1
102
RTVSPropertyOp16
 70
     1
102
RTVSPropertyOp17
 70
     1
102
RTVSPropertyOp18
 70
     1
102
RTVSPropertyOp19
 70
     1
102
RTVSPropertyOp20
 70
     1
102
RTVSPropertyOp21
 70
     1
102
RTVSPropertyOp22
 70
     1
102
RTVSPropertyOp23
 70
     1
102
RTVSPropertyOp24
 70
     1
102
RTVSPropertyOp25
 70
     1
102
RTVSPropertyOp26
 70
     1
102
RTVSPropertyOp27
 70
     1
102
RTVSPropertyOp28
 70
     1
102
RTVSPropertyOp29
 70
     1
102
RTVSPropertyOp30
 70
     1
102
RTVSPropertyOp31
 70
     1
102
RTVSPropertyOp32
 70
     1
  0
XRECORD
  5
F45
102
{ACAD_REACTORS
330
F44
102
}
330
F44
100
AcDbXrecord
280
     1
102
RTVSPropertyOp0
 70
     1
102
RTVSPropertyOp1
 70
     1
102
RTVSPropertyOp2
 70
     1
102
RTVSPropertyOp3
 70
     1
102
RTVSPropertyOp4
 70
     1
102
RTVSPropertyOp5
 70
     1
102
RTVSPropertyOp6
 70
     1
102
RTVSPropertyOp7
 70
     1
102
RTVSPropertyOp8
 70
     1
102
RTVSPropertyOp9
 70
     1
102
RTVSPropertyOp10
 70
     1
102
RTVSPropertyOp11
 70
     1
102
RTVSPropertyOp12
 70
     1
102
RTVSPropertyOp13
 70
     1
102
RTVSPropertyOp14
 70
     1
102
RTVSPropertyOp15
 70
     1
102
RTVSPropertyOp16
 70
     1
102
RTVSPropertyOp17
 70
     1
102
RTVSPropertyOp18
 70
     1
102
RTVSPropertyOp19
 70
     1
102
RTVSPropertyOp20
 70
     1
102
RTVSPropertyOp21
 70
     1
102
RTVSPropertyOp22
 70
     1
102
RTVSPropertyOp23
 70
     1
102
RTVSPropertyOp24
 70
     1
102
RTVSPropertyOp25
 70
     1
102
RTVSPropertyOp26
 70
     1
102
RTVSPropertyOp27
 70
     1
102
RTVSPropertyOp28
 70
     1
102
RTVSPropertyOp29
 70
     1
102
RTVSPropertyOp30
 70
     1
102
RTVSPropertyOp31
 70
     1
102
RTVSPropertyOp32
 70
     1
  0
XRECORD
  5
F4D
102
{ACAD_REACTORS
330
F4C
102
}
330
F4C
100
AcDbXrecord
280
     1
102
RTVSPropertyOp0
 70
     1
102
RTVSPropertyOp1
 70
     1
102
RTVSPropertyOp2
 70
     1
102
RTVSPropertyOp3
 70
     1
102
RTVSPropertyOp4
 70
     1
102
RTVSPropertyOp5
 70
     1
102
RTVSPropertyOp6
 70
     1
102
RTVSPropertyOp7
 70
     1
102
RTVSPropertyOp8
 70
     1
102
RTVSPropertyOp9
 70
     1
102
RTVSPropertyOp10
 70
     1
102
RTVSPropertyOp11
 70
     1
102
RTVSPropertyOp12
 70
     1
102
RTVSPropertyOp13
 70
     1
102
RTVSPropertyOp14
 70
     1
102
RTVSPropertyOp15
 70
     1
102
RTVSPropertyOp16
 70
     1
102
RTVSPropertyOp17
 70
     1
102
RTVSPropertyOp18
 70
     1
102
RTVSPropertyOp19
 70
     1
102
RTVSPropertyOp20
 70
     1
102
RTVSPropertyOp21
 70
     1
102
RTVSPropertyOp22
 70
     1
102
RTVSPropertyOp23
 70
     1
102
RTVSPropertyOp24
 70
     1
102
RTVSPropertyOp25
 70
     1
102
RTVSPropertyOp26
 70
     1
102
RTVSPropertyOp27
 70
     1
102
RTVSPropertyOp28
 70
     1
102
RTVSPropertyOp29
 70
     1
102
RTVSPropertyOp30
 70
     1
102
RTVSPropertyOp31
 70
     1
102
RTVSPropertyOp32
 70
     1
  0
XRECORD
  5
F3F
102
{ACAD_REACTORS
330
F3E
102
}
330
F3E
100
AcDbXrecord
280
     1
102
RTVSPropertyOp0
 70
     1
102
RTVSPropertyOp1
 70
     1
102
RTVSPropertyOp2
 70
     1
102
RTVSPropertyOp3
 70
     1
102
RTVSPropertyOp4
 70
     1
102
RTVSPropertyOp5
 70
     1
102
RTVSPropertyOp6
 70
     1
102
RTVSPropertyOp7
 70
     1
102
RTVSPropertyOp8
 70
     1
102
RTVSPropertyOp9
 70
     1
102
RTVSPropertyOp10
 70
     1
102
RTVSPropertyOp11
 70
     1
102
RTVSPropertyOp12
 70
     1
102
RTVSPropertyOp13
 70
     1
102
RTVSPropertyOp14
 70
     1
102
RTVSPropertyOp15
 70
     1
102
RTVSPropertyOp16
 70
     1
102
RTVSPropertyOp17
 70
     1
102
RTVSPropertyOp18
 70
     1
102
RTVSPropertyOp19
 70
     1
102
RTVSPropertyOp20
 70
     1
102
RTVSPropertyOp21
 70
     1
102
RTVSPropertyOp22
 70
     1
102
RTVSPropertyOp23
 70
     1
102
RTVSPropertyOp24
 70
     1
102
RTVSPropertyOp25
 70
     1
102
RTVSPropertyOp26
 70
     1
102
RTVSPropertyOp27
 70
     1
102
RTVSPropertyOp28
 70
     1
102
RTVSPropertyOp29
 70
     1
102
RTVSPropertyOp30
 70
     1
102
RTVSPropertyOp31
 70
     1
102
RTVSPropertyOp32
 70
     1
  0
XRECORD
  5
F43
102
{ACAD_REACTORS
330
F42
102
}
330
F42
100
AcDbXrecord
280
     1
102
RTVSPropertyOp0
 70
     1
102
RTVSPropertyOp1
 70
     1
102
RTVSPropertyOp2
 70
     1
102
RTVSPropertyOp3
 70
     1
102
RTVSPropertyOp4
 70
     1
102
RTVSPropertyOp5
 70
     1
102
RTVSPropertyOp6
 70
     1
102
RTVSPropertyOp7
 70
     1
102
RTVSPropertyOp8
 70
     1
102
RTVSPropertyOp9
 70
     1
102
RTVSPropertyOp10
 70
     1
102
RTVSPropertyOp11
 70
     1
102
RTVSPropertyOp12
 70
     1
102
RTVSPropertyOp13
 70
     1
102
RTVSPropertyOp14
 70
     1
102
RTVSPropertyOp15
 70
     1
102
RTVSPropertyOp16
 70
     1
102
RTVSPropertyOp17
 70
     1
102
RTVSPropertyOp18
 70
     1
102
RTVSPropertyOp19
 70
     1
102
RTVSPropertyOp20
 70
     1
102
RTVSPropertyOp21
 70
     1
102
RTVSPropertyOp22
 70
     1
102
RTVSPropertyOp23
 70
     1
102
RTVSPropertyOp24
 70
     1
102
RTVSPropertyOp25
 70
     1
102
RTVSPropertyOp26
 70
     1
102
RTVSPropertyOp27
 70
     1
102
RTVSPropertyOp28
 70
     1
102
RTVSPropertyOp29
 70
     1
102
RTVSPropertyOp30
 70
     1
102
RTVSPropertyOp31
 70
     1
102
RTVSPropertyOp32
 70
     1
  0
XRECORD
  5
F5D
102
{ACAD_REACTORS
330
F5C
102
}
330
F5C
100
AcDbXrecord
280
     1
102
RTVSPropertyOp0
 70
     0
102
RTVSPropertyOp1
 70
     0
102
RTVSPropertyOp2
 70
     0
102
RTVSPropertyOp3
 70
     0
102
RTVSPropertyOp4
 70
     0
102
RTVSPropertyOp5
 70
     0
102
RTVSPropertyOp6
 70
     0
102
RTVSPropertyOp7
 70
     0
102
RTVSPropertyOp8
 70
     0
102
RTVSPropertyOp9
 70
     0
102
RTVSPropertyOp10
 70
     0
102
RTVSPropertyOp11
 70
     0
102
RTVSPropertyOp12
 70
     0
102
RTVSPropertyOp13
 70
     0
102
RTVSPropertyOp14
 70
     2
102
RTVSPropertyOp15
 70
     0
102
RTVSPropertyOp16
 70
     0
102
RTVSPropertyOp17
 70
     0
102
RTVSPropertyOp18
 70
     0
102
RTVSPropertyOp19
 70
     0
102
RTVSPropertyOp20
 70
     0
102
RTVSPropertyOp21
 70
     0
102
RTVSPropertyOp22
 70
     0
102
RTVSPropertyOp23
 70
     0
102
RTVSPropertyOp24
 70
     0
102
RTVSPropertyOp25
 70
     0
102
RTVSPropertyOp26
 70
     0
102
RTVSPropertyOp27
 70
     0
102
RTVSPropertyOp28
 70
     1
102
RTVSPropertyOp29
 70
     1
102
RTVSPropertyOp30
 70
     1
102
RTVSPropertyOp31
 70
     1
102
RTVSPropertyOp32
 70
     1
  0
XRECORD
  5
F4B
102
{ACAD_REACTORS
330
F4A
102
}
330
F4A
100
AcDbXrecord
280
     1
102
RTVSPropertyOp0
 70
     1
102
RTVSPropertyOp1
 70
     1
102
RTVSPropertyOp2
 70
     1
102
RTVSPropertyOp3
 70
     1
102
RTVSPropertyOp4
 70
     1
102
RTVSPropertyOp5
 70
     1
102
RTVSPropertyOp6
 70
     1
102
RTVSPropertyOp7
 70
     1
102
RTVSPropertyOp8
 70
     1
102
RTVSPropertyOp9
 70
     1
102
RTVSPropertyOp10
 70
     1
102
RTVSPropertyOp11
 70
     1
102
RTVSPropertyOp12
 70
     1
102
RTVSPropertyOp13
 70
     1
102
RTVSPropertyOp14
 70
     1
102
RTVSPropertyOp15
 70
     1
102
RTVSPropertyOp16
 70
     1
102
RTVSPropertyOp17
 70
     1
102
RTVSPropertyOp18
 70
     1
102
RTVSPropertyOp19
 70
     1
102
RTVSPropertyOp20
 70
     1
102
RTVSPropertyOp21
 70
     1
102
RTVSPropertyOp22
 70
     1
102
RTVSPropertyOp23
 70
     1
102
RTVSPropertyOp24
 70
     1
102
RTVSPropertyOp25
 70
     1
102
RTVSPropertyOp26
 70
     1
102
RTVSPropertyOp27
 70
     1
102
RTVSPropertyOp28
 70
     1
102
RTVSPropertyOp29
 70
     1
102
RTVSPropertyOp30
 70
     1
102
RTVSPropertyOp31
 70
     1
102
RTVSPropertyOp32
 70
     1
  0
XRECORD
  5
F2F
102
{ACAD_REACTORS
330
F2E
102
}
330
F2E
100
AcDbXrecord
280
     1
102
RTVSPropertyOp0
 70
     1
102
RTVSPropertyOp1
 70
     1
102
RTVSPropertyOp2
 70
     1
102
RTVSPropertyOp3
 70
     1
102
RTVSPropertyOp4
 70
     1
102
RTVSPropertyOp5
 70
     1
102
RTVSPropertyOp6
 70
     1
102
RTVSPropertyOp7
 70
     1
102
RTVSPropertyOp8
 70
     1
102
RTVSPropertyOp9
 70
     1
102
RTVSPropertyOp10
 70
     1
102
RTVSPropertyOp11
 70
     1
102
RTVSPropertyOp12
 70
     1
102
RTVSPropertyOp13
 70
     1
102
RTVSPropertyOp14
 70
     1
102
RTVSPropertyOp15
 70
     1
102
RTVSPropertyOp16
 70
     1
102
RTVSPropertyOp17
 70
     1
102
RTVSPropertyOp18
 70
     1
102
RTVSPropertyOp19
 70
     1
102
RTVSPropertyOp20
 70
     1
102
RTVSPropertyOp21
 70
     1
102
RTVSPropertyOp22
 70
     1
102
RTVSPropertyOp23
 70
     1
102
RTVSPropertyOp24
 70
     1
102
RTVSPropertyOp25
 70
     1
102
RTVSPropertyOp26
 70
     1
102
RTVSPropertyOp27
 70
     1
102
RTVSPropertyOp28
 70
     1
102
RTVSPropertyOp29
 70
     1
102
RTVSPropertyOp30
 70
     1
102
RTVSPropertyOp31
 70
     1
102
RTVSPropertyOp32
 70
     1
  0
XRECORD
  5
F31
102
{ACAD_REACTORS
330
F30
102
}
330
F30
100
AcDbXrecord
280
     1
102
RTVSPropertyOp0
 70
     1
102
RTVSPropertyOp1
 70
     1
102
RTVSPropertyOp2
 70
     1
102
RTVSPropertyOp3
 70
     1
102
RTVSPropertyOp4
 70
     1
102
RTVSPropertyOp5
 70
     1
102
RTVSPropertyOp6
 70
     1
102
RTVSPropertyOp7
 70
     1
102
RTVSPropertyOp8
 70
     1
102
RTVSPropertyOp9
 70
     1
102
RTVSPropertyOp10
 70
     1
102
RTVSPropertyOp11
 70
     1
102
RTVSPropertyOp12
 70
     1
102
RTVSPropertyOp13
 70
     1
102
RTVSPropertyOp14
 70
     1
102
RTVSPropertyOp15
 70
     1
102
RTVSPropertyOp16
 70
     1
102
RTVSPropertyOp17
 70
     1
102
RTVSPropertyOp18
 70
     1
102
RTVSPropertyOp19
 70
     1
102
RTVSPropertyOp20
 70
     1
102
RTVSPropertyOp21
 70
     1
102
RTVSPropertyOp22
 70
     1
102
RTVSPropertyOp23
 70
     1
102
RTVSPropertyOp24
 70
     1
102
RTVSPropertyOp25
 70
     1
102
RTVSPropertyOp26
 70
     1
102
RTVSPropertyOp27
 70
     1
102
RTVSPropertyOp28
 70
     1
102
RTVSPropertyOp29
 70
     1
102
RTVSPropertyOp30
 70
     1
102
RTVSPropertyOp31
 70
     1
102
RTVSPropertyOp32
 70
     1
  0
XRECORD
  5
F33
102
{ACAD_REACTORS
330
F32
102
}
330
F32
100
AcDbXrecord
280
     1
102
RTVSPropertyOp0
 70
     1
102
RTVSPropertyOp1
 70
     1
102
RTVSPropertyOp2
 70
     1
102
RTVSPropertyOp3
 70
     1
102
RTVSPropertyOp4
 70
     1
102
RTVSPropertyOp5
 70
     1
102
RTVSPropertyOp6
 70
     1
102
RTVSPropertyOp7
 70
     1
102
RTVSPropertyOp8
 70
     1
102
RTVSPropertyOp9
 70
     1
102
RTVSPropertyOp10
 70
     1
102
RTVSPropertyOp11
 70
     1
102
RTVSPropertyOp12
 70
     1
102
RTVSPropertyOp13
 70
     1
102
RTVSPropertyOp14
 70
     1
102
RTVSPropertyOp15
 70
     1
102
RTVSPropertyOp16
 70
     1
102
RTVSPropertyOp17
 70
     1
102
RTVSPropertyOp18
 70
     1
102
RTVSPropertyOp19
 70
     1
102
RTVSPropertyOp20
 70
     1
102
RTVSPropertyOp21
 70
     1
102
RTVSPropertyOp22
 70
     1
102
RTVSPropertyOp23
 70
     1
102
RTVSPropertyOp24
 70
     1
102
RTVSPropertyOp25
 70
     1
102
RTVSPropertyOp26
 70
     1
102
RTVSPropertyOp27
 70
     1
102
RTVSPropertyOp28
 70
     1
102
RTVSPropertyOp29
 70
     1
102
RTVSPropertyOp30
 70
     1
102
RTVSPropertyOp31
 70
     1
102
RTVSPropertyOp32
 70
     1
  0
XRECORD
  5
F35
102
{ACAD_REACTORS
330
F34
102
}
330
F34
100
AcDbXrecord
280
     1
102
RTVSPropertyOp0
 70
     1
102
RTVSPropertyOp1
 70
     1
102
RTVSPropertyOp2
 70
     1
102
RTVSPropertyOp3
 70
     1
102
RTVSPropertyOp4
 70
     1
102
RTVSPropertyOp5
 70
     1
102
RTVSPropertyOp6
 70
     1
102
RTVSPropertyOp7
 70
     1
102
RTVSPropertyOp8
 70
     1
102
RTVSPropertyOp9
 70
     1
102
RTVSPropertyOp10
 70
     1
102
RTVSPropertyOp11
 70
     1
102
RTVSPropertyOp12
 70
     1
102
RTVSPropertyOp13
 70
     1
102
RTVSPropertyOp14
 70
     1
102
RTVSPropertyOp15
 70
     1
102
RTVSPropertyOp16
 70
     1
102
RTVSPropertyOp17
 70
     1
102
RTVSPropertyOp18
 70
     1
102
RTVSPropertyOp19
 70
     1
102
RTVSPropertyOp20
 70
     1
102
RTVSPropertyOp21
 70
     1
102
RTVSPropertyOp22
 70
     1
102
RTVSPropertyOp23
 70
     1
102
RTVSPropertyOp24
 70
     1
102
RTVSPropertyOp25
 70
     1
102
RTVSPropertyOp26
 70
     1
102
RTVSPropertyOp27
 70
     1
102
RTVSPropertyOp28
 70
     1
102
RTVSPropertyOp29
 70
     1
102
RTVSPropertyOp30
 70
     1
102
RTVSPropertyOp31
 70
     1
102
RTVSPropertyOp32
 70
     1
  0
XRECORD
  5
F3D
102
{ACAD_REACTORS
330
F3C
102
}
330
F3C
100
AcDbXrecord
280
     1
102
RTVSPropertyOp0
 70
     1
102
RTVSPropertyOp1
 70
     1
102
RTVSPropertyOp2
 70
     1
102
RTVSPropertyOp3
 70
     1
102
RTVSPropertyOp4
 70
     1
102
RTVSPropertyOp5
 70
     1
102
RTVSPropertyOp6
 70
     1
102
RTVSPropertyOp7
 70
     1
102
RTVSPropertyOp8
 70
     1
102
RTVSPropertyOp9
 70
     1
102
RTVSPropertyOp10
 70
     1
102
RTVSPropertyOp11
 70
     1
102
RTVSPropertyOp12
 70
     1
102
RTVSPropertyOp13
 70
     1
102
RTVSPropertyOp14
 70
     1
102
RTVSPropertyOp15
 70
     1
102
RTVSPropertyOp16
 70
     1
102
RTVSPropertyOp17
 70
     1
102
RTVSPropertyOp18
 70
     1
102
RTVSPropertyOp19
 70
     1
102
RTVSPropertyOp20
 70
     1
102
RTVSPropertyOp21
 70
     1
102
RTVSPropertyOp22
 70
     1
102
RTVSPropertyOp23
 70
     1
102
RTVSPropertyOp24
 70
     1
102
RTVSPropertyOp25
 70
     1
102
RTVSPropertyOp26
 70
     1
102
RTVSPropertyOp27
 70
     1
102
RTVSPropertyOp28
 70
     1
102
RTVSPropertyOp29
 70
     1
102
RTVSPropertyOp30
 70
     1
102
RTVSPropertyOp31
 70
     1
102
RTVSPropertyOp32
 70
     1
  0
XRECORD
  5
F59
102
{ACAD_REACTORS
330
F58
102
}
330
F58
100
AcDbXrecord
280
     1
102
RTVSPropertyOp0
 70
     0
102
RTVSPropertyOp1
 70
     0
102
RTVSPropertyOp2
 70
     0
102
RTVSPropertyOp3
 70
     0
102
RTVSPropertyOp4
 70
     0
102
RTVSPropertyOp5
 70
     0
102
RTVSPropertyOp6
 70
     0
102
RTVSPropertyOp7
 70
     0
102
RTVSPropertyOp8
 70
     0
102
RTVSPropertyOp9
 70
     0
102
RTVSPropertyOp10
 70
     0
102
RTVSPropertyOp11
 70
     0
102
RTVSPropertyOp12
 70
     0
102
RTVSPropertyOp13
 70
     0
102
RTVSPropertyOp14
 70
     2
102
RTVSPropertyOp15
 70
     0
102
RTVSPropertyOp16
 70
     0
102
RTVSPropertyOp17
 70
     0
102
RTVSPropertyOp18
 70
     0
102
RTVSPropertyOp19
 70
     0
102
RTVSPropertyOp20
 70
     0
102
RTVSPropertyOp21
 70
     0
102
RTVSPropertyOp22
 70
     0
102
RTVSPropertyOp23
 70
     0
102
RTVSPropertyOp24
 70
     0
102
RTVSPropertyOp25
 70
     0
102
RTVSPropertyOp26
 70
     0
102
RTVSPropertyOp27
 70
     0
102
RTVSPropertyOp28
 70
     1
102
RTVSPropertyOp29
 70
     1
102
RTVSPropertyOp30
 70
     1
102
RTVSPropertyOp31
 70
     1
102
RTVSPropertyOp32
 70
     1
  0
XRECORD
  5
F49
102
{ACAD_REACTORS
330
F48
102
}
330
F48
100
AcDbXrecord
280
     1
102
RTVSPropertyOp0
 70
     1
102
RTVSPropertyOp1
 70
     1
102
RTVSPropertyOp2
 70
     1
102
RTVSPropertyOp3
 70
     1
102
RTVSPropertyOp4
 70
     1
102
RTVSPropertyOp5
 70
     1
102
RTVSPropertyOp6
 70
     1
102
RTVSPropertyOp7
 70
     1
102
RTVSPropertyOp8
 70
     1
102
RTVSPropertyOp9
 70
     1
102
RTVSPropertyOp10
 70
     1
102
RTVSPropertyOp11
 70
     1
102
RTVSPropertyOp12
 70
     1
102
RTVSPropertyOp13
 70
     1
102
RTVSPropertyOp14
 70
     1
102
RTVSPropertyOp15
 70
     1
102
RTVSPropertyOp16
 70
     1
102
RTVSPropertyOp17
 70
     1
102
RTVSPropertyOp18
 70
     1
102
RTVSPropertyOp19
 70
     1
102
RTVSPropertyOp20
 70
     1
102
RTVSPropertyOp21
 70
     1
102
RTVSPropertyOp22
 70
     1
102
RTVSPropertyOp23
 70
     1
102
RTVSPropertyOp24
 70
     1
102
RTVSPropertyOp25
 70
     1
102
RTVSPropertyOp26
 70
     1
102
RTVSPropertyOp27
 70
     1
102
RTVSPropertyOp28
 70
     1
102
RTVSPropertyOp29
 70
     1
102
RTVSPropertyOp30
 70
     1
102
RTVSPropertyOp31
 70
     1
102
RTVSPropertyOp32
 70
     1
  0
XRECORD
  5
F5B
102
{ACAD_REACTORS
330
F5A
102
}
330
F5A
100
AcDbXrecord
280
     1
102
RTVSPropertyOp0
 70
     0
102
RTVSPropertyOp1
 70
     0
102
RTVSPropertyOp2
 70
     0
102
RTVSPropertyOp3
 70
     0
102
RTVSPropertyOp4
 70
     0
102
RTVSPropertyOp5
 70
     0
102
RTVSPropertyOp6
 70
     0
102
RTVSPropertyOp7
 70
     0
102
RTVSPropertyOp8
 70
     0
102
RTVSPropertyOp9
 70
     0
102
RTVSPropertyOp10
 70
     0
102
RTVSPropertyOp11
 70
     0
102
RTVSPropertyOp12
 70
     0
102
RTVSPropertyOp13
 70
     0
102
RTVSPropertyOp14
 70
     2
102
RTVSPropertyOp15
 70
     0
102
RTVSPropertyOp16
 70
     0
102
RTVSPropertyOp17
 70
     0
102
RTVSPropertyOp18
 70
     0
102
RTVSPropertyOp19
 70
     0
102
RTVSPropertyOp20
 70
     0
102
RTVSPropertyOp21
 70
     0
102
RTVSPropertyOp22
 70
     0
102
RTVSPropertyOp23
 70
     0
102
RTVSPropertyOp24
 70
     0
102
RTVSPropertyOp25
 70
     0
102
RTVSPropertyOp26
 70
     0
102
RTVSPropertyOp27
 70
     0
102
RTVSPropertyOp28
 70
     1
102
RTVSPropertyOp29
 70
     1
102
RTVSPropertyOp30
 70
     1
102
RTVSPropertyOp31
 70
     1
102
RTVSPropertyOp32
 70
     1
  0
XRECORD
  5
F41
102
{ACAD_REACTORS
330
F40
102
}
330
F40
100
AcDbXrecord
280
     1
102
RTVSPropertyOp0
 70
     1
102
RTVSPropertyOp1
 70
     1
102
RTVSPropertyOp2
 70
     1
102
RTVSPropertyOp3
 70
     1
102
RTVSPropertyOp4
 70
     1
102
RTVSPropertyOp5
 70
     1
102
RTVSPropertyOp6
 70
     1
102
RTVSPropertyOp7
 70
     1
102
RTVSPropertyOp8
 70
     1
102
RTVSPropertyOp9
 70
     1
102
RTVSPropertyOp10
 70
     1
102
RTVSPropertyOp11
 70
     1
102
RTVSPropertyOp12
 70
     1
102
RTVSPropertyOp13
 70
     1
102
RTVSPropertyOp14
 70
     1
102
RTVSPropertyOp15
 70
     1
102
RTVSPropertyOp16
 70
     1
102
RTVSPropertyOp17
 70
     1
102
RTVSPropertyOp18
 70
     1
102
RTVSPropertyOp19
 70
     1
102
RTVSPropertyOp20
 70
     1
102
RTVSPropertyOp21
 70
     1
102
RTVSPropertyOp22
 70
     1
102
RTVSPropertyOp23
 70
     1
102
RTVSPropertyOp24
 70
     1
102
RTVSPropertyOp25
 70
     1
102
RTVSPropertyOp26
 70
     1
102
RTVSPropertyOp27
 70
     1
102
RTVSPropertyOp28
 70
     1
102
RTVSPropertyOp29
 70
     1
102
RTVSPropertyOp30
 70
     1
102
RTVSPropertyOp31
 70
     1
102
RTVSPropertyOp32
 70
     1
  0
XRECORD
  5
F57
102
{ACAD_REACTORS
330
F56
102
}
330
F56
100
AcDbXrecord
280
     1
102
RTVSPropertyOp0
 70
     1
102
RTVSPropertyOp1
 70
     1
102
RTVSPropertyOp2
 70
     1
102
RTVSPropertyOp3
 70
     1
102
RTVSPropertyOp4
 70
     1
102
RTVSPropertyOp5
 70
     1
102
RTVSPropertyOp6
 70
     1
102
RTVSPropertyOp7
 70
     1
102
RTVSPropertyOp8
 70
     1
102
RTVSPropertyOp9
 70
     1
102
RTVSPropertyOp10
 70
     1
102
RTVSPropertyOp11
 70
     1
102
RTVSPropertyOp12
 70
     1
102
RTVSPropertyOp13
 70
     1
102
RTVSPropertyOp14
 70
     1
102
RTVSPropertyOp15
 70
     1
102
RTVSPropertyOp16
 70
     1
102
RTVSPropertyOp17
 70
     1
102
RTVSPropertyOp18
 70
     1
102
RTVSPropertyOp19
 70
     1
102
RTVSPropertyOp20
 70
     1
102
RTVSPropertyOp21
 70
     1
102
RTVSPropertyOp22
 70
     1
102
RTVSPropertyOp23
 70
     1
102
RTVSPropertyOp24
 70
     1
102
RTVSPropertyOp25
 70
     1
102
RTVSPropertyOp26
 70
     1
102
RTVSPropertyOp27
 70
     1
102
RTVSPropertyOp28
 70
     1
102
RTVSPropertyOp29
 70
     1
102
RTVSPropertyOp30
 70
     1
102
RTVSPropertyOp31
 70
     1
102
RTVSPropertyOp32
 70
     1
  0
XRECORD
  5
F55
102
{ACAD_REACTORS
330
F54
102
}
330
F54
100
AcDbXrecord
280
     1
102
RTVSPropertyOp0
 70
     1
102
RTVSPropertyOp1
 70
     1
102
RTVSPropertyOp2
 70
     1
102
RTVSPropertyOp3
 70
     1
102
RTVSPropertyOp4
 70
     1
102
RTVSPropertyOp5
 70
     1
102
RTVSPropertyOp6
 70
     1
102
RTVSPropertyOp7
 70
     1
102
RTVSPropertyOp8
 70
     1
102
RTVSPropertyOp9
 70
     1
102
RTVSPropertyOp10
 70
     1
102
RTVSPropertyOp11
 70
     1
102
RTVSPropertyOp12
 70
     1
102
RTVSPropertyOp13
 70
     1
102
RTVSPropertyOp14
 70
     1
102
RTVSPropertyOp15
 70
     1
102
RTVSPropertyOp16
 70
     1
102
RTVSPropertyOp17
 70
     1
102
RTVSPropertyOp18
 70
     1
102
RTVSPropertyOp19
 70
     1
102
RTVSPropertyOp20
 70
     1
102
RTVSPropertyOp21
 70
     1
102
RTVSPropertyOp22
 70
     1
102
RTVSPropertyOp23
 70
     1
102
RTVSPropertyOp24
 70
     1
102
RTVSPropertyOp25
 70
     1
102
RTVSPropertyOp26
 70
     1
102
RTVSPropertyOp27
 70
     1
102
RTVSPropertyOp28
 70
     1
102
RTVSPropertyOp29
 70
     1
102
RTVSPropertyOp30
 70
     1
102
RTVSPropertyOp31
 70
     1
102
RTVSPropertyOp32
 70
     1
  0
XRECORD
  5
F4F
102
{ACAD_REACTORS
330
F4E
102
}
330
F4E
100
AcDbXrecord
280
     1
102
RTVSPropertyOp0
 70
     1
102
RTVSPropertyOp1
 70
     1
102
RTVSPropertyOp2
 70
     1
102
RTVSPropertyOp3
 70
     1
102
RTVSPropertyOp4
 70
     1
102
RTVSPropertyOp5
 70
     1
102
RTVSPropertyOp6
 70
     1
102
RTVSPropertyOp7
 70
     1
102
RTVSPropertyOp8
 70
     1
102
RTVSPropertyOp9
 70
     1
102
RTVSPropertyOp10
 70
     1
102
RTVSPropertyOp11
 70
     1
102
RTVSPropertyOp12
 70
     1
102
RTVSPropertyOp13
 70
     1
102
RTVSPropertyOp14
 70
     1
102
RTVSPropertyOp15
 70
     1
102
RTVSPropertyOp16
 70
     1
102
RTVSPropertyOp17
 70
     1
102
RTVSPropertyOp18
 70
     1
102
RTVSPropertyOp19
 70
     1
102
RTVSPropertyOp20
 70
     1
102
RTVSPropertyOp21
 70
     1
102
RTVSPropertyOp22
 70
     1
102
RTVSPropertyOp23
 70
     1
102
RTVSPropertyOp24
 70
     1
102
RTVSPropertyOp25
 70
     1
102
RTVSPropertyOp26
 70
     1
102
RTVSPropertyOp27
 70
     1
102
RTVSPropertyOp28
 70
     1
102
RTVSPropertyOp29
 70
     1
102
RTVSPropertyOp30
 70
     1
102
RTVSPropertyOp31
 70
     1
102
RTVSPropertyOp32
 70
     1
  0
XRECORD
  5
F51
102
{ACAD_REACTORS
330
F50
102
}
330
F50
100
AcDbXrecord
280
     1
102
RTVSPropertyOp0
 70
     1
102
RTVSPropertyOp1
 70
     1
102
RTVSPropertyOp2
 70
     1
102
RTVSPropertyOp3
 70
     1
102
RTVSPropertyOp4
 70
     1
102
RTVSPropertyOp5
 70
     1
102
RTVSPropertyOp6
 70
     1
102
RTVSPropertyOp7
 70
     1
102
RTVSPropertyOp8
 70
     1
102
RTVSPropertyOp9
 70
     1
102
RTVSPropertyOp10
 70
     1
102
RTVSPropertyOp11
 70
     1
102
RTVSPropertyOp12
 70
     1
102
RTVSPropertyOp13
 70
     1
102
RTVSPropertyOp14
 70
     1
102
RTVSPropertyOp15
 70
     1
102
RTVSPropertyOp16
 70
     1
102
RTVSPropertyOp17
 70
     1
102
RTVSPropertyOp18
 70
     1
102
RTVSPropertyOp19
 70
     1
102
RTVSPropertyOp20
 70
     1
102
RTVSPropertyOp21
 70
     1
102
RTVSPropertyOp22
 70
     1
102
RTVSPropertyOp23
 70
     1
102
RTVSPropertyOp24
 70
     1
102
RTVSPropertyOp25
 70
     1
102
RTVSPropertyOp26
 70
     1
102
RTVSPropertyOp27
 70
     1
102
RTVSPropertyOp28
 70
     1
102
RTVSPropertyOp29
 70
     1
102
RTVSPropertyOp30
 70
     1
102
RTVSPropertyOp31
 70
     1
102
RTVSPropertyOp32
 70
     1
  0
XRECORD
  5
F47
102
{ACAD_REACTORS
330
F46
102
}
330
F46
100
AcDbXrecord
280
     1
102
RTVSPropertyOp0
 70
     1
102
RTVSPropertyOp1
 70
     1
102
RTVSPropertyOp2
 70
     1
102
RTVSPropertyOp3
 70
     1
102
RTVSPropertyOp4
 70
     1
102
RTVSPropertyOp5
 70
     1
102
RTVSPropertyOp6
 70
     1
102
RTVSPropertyOp7
 70
     1
102
RTVSPropertyOp8
 70
     1
102
RTVSPropertyOp9
 70
     1
102
RTVSPropertyOp10
 70
     1
102
RTVSPropertyOp11
 70
     1
102
RTVSPropertyOp12
 70
     1
102
RTVSPropertyOp13
 70
     1
102
RTVSPropertyOp14
 70
     1
102
RTVSPropertyOp15
 70
     1
102
RTVSPropertyOp16
 70
     1
102
RTVSPropertyOp17
 70
     1
102
RTVSPropertyOp18
 70
     1
102
RTVSPropertyOp19
 70
     1
102
RTVSPropertyOp20
 70
     1
102
RTVSPropertyOp21
 70
     1
102
RTVSPropertyOp22
 70
     1
102
RTVSPropertyOp23
 70
     1
102
RTVSPropertyOp24
 70
     1
102
RTVSPropertyOp25
 70
     1
102
RTVSPropertyOp26
 70
     1
102
RTVSPropertyOp27
 70
     1
102
RTVSPropertyOp28
 70
     1
102
RTVSPropertyOp29
 70
     1
102
RTVSPropertyOp30
 70
     1
102
RTVSPropertyOp31
 70
     1
102
RTVSPropertyOp32
 70
     1
  0
XRECORD
  5
F3B
102
{ACAD_REACTORS
330
F3A
102
}
330
F3A
100
AcDbXrecord
280
     1
102
RTVSPropertyOp0
 70
     1
102
RTVSPropertyOp1
 70
     1
102
RTVSPropertyOp2
 70
     1
102
RTVSPropertyOp3
 70
     1
102
RTVSPropertyOp4
 70
     1
102
RTVSPropertyOp5
 70
     1
102
RTVSPropertyOp6
 70
     1
102
RTVSPropertyOp7
 70
     1
102
RTVSPropertyOp8
 70
     1
102
RTVSPropertyOp9
 70
     1
102
RTVSPropertyOp10
 70
     1
102
RTVSPropertyOp11
 70
     1
102
RTVSPropertyOp12
 70
     1
102
RTVSPropertyOp13
 70
     1
102
RTVSPropertyOp14
 70
     1
102
RTVSPropertyOp15
 70
     1
102
RTVSPropertyOp16
 70
     1
102
RTVSPropertyOp17
 70
     1
102
RTVSPropertyOp18
 70
     1
102
RTVSPropertyOp19
 70
     1
102
RTVSPropertyOp20
 70
     1
102
RTVSPropertyOp21
 70
     1
102
RTVSPropertyOp22
 70
     1
102
RTVSPropertyOp23
 70
     1
102
RTVSPropertyOp24
 70
     1
102
RTVSPropertyOp25
 70
     1
102
RTVSPropertyOp26
 70
     1
102
RTVSPropertyOp27
 70
     1
102
RTVSPropertyOp28
 70
     1
102
RTVSPropertyOp29
 70
     1
102
RTVSPropertyOp30
 70
     1
102
RTVSPropertyOp31
 70
     1
102
RTVSPropertyOp32
 70
     1
  0
XRECORD
  5
F53
102
{ACAD_REACTORS
330
F52
102
}
330
F52
100
AcDbXrecord
280
     1
102
RTVSPropertyOp0
 70
     1
102
RTVSPropertyOp1
 70
     1
102
RTVSPropertyOp2
 70
     1
102
RTVSPropertyOp3
 70
     1
102
RTVSPropertyOp4
 70
     1
102
RTVSPropertyOp5
 70
     1
102
RTVSPropertyOp6
 70
     1
102
RTVSPropertyOp7
 70
     1
102
RTVSPropertyOp8
 70
     1
102
RTVSPropertyOp9
 70
     1
102
RTVSPropertyOp10
 70
     1
102
RTVSPropertyOp11
 70
     1
102
RTVSPropertyOp12
 70
     1
102
RTVSPropertyOp13
 70
     1
102
RTVSPropertyOp14
 70
     1
102
RTVSPropertyOp15
 70
     1
102
RTVSPropertyOp16
 70
     1
102
RTVSPropertyOp17
 70
     1
102
RTVSPropertyOp18
 70
     1
102
RTVSPropertyOp19
 70
     1
102
RTVSPropertyOp20
 70
     1
102
RTVSPropertyOp21
 70
     1
102
RTVSPropertyOp22
 70
     1
102
RTVSPropertyOp23
 70
     1
102
RTVSPropertyOp24
 70
     1
102
RTVSPropertyOp25
 70
     1
102
RTVSPropertyOp26
 70
     1
102
RTVSPropertyOp27
 70
     1
102
RTVSPropertyOp28
 70
     1
102
RTVSPropertyOp29
 70
     1
102
RTVSPropertyOp30
 70
     1
102
RTVSPropertyOp31
 70
     1
102
RTVSPropertyOp32
 70
     1
  0
ENDSEC
  0
EOF
