  0
SECTION
  2
HEADER
  9
$ACADVER
  1
AC1015
  9
$ACADMAINTVER
 70
    18
  9
$DWGCODEPAGE
  3
ANSI_1252
  9
$INSBASE
 10
0.0
 20
0.0
 30
0.0
  9
$EXTMIN
 10
0.0
 20
0.0
 30
0.0
  9
$EXTMAX
 10
113.3333333333333
 20
73.33333333333334
 30
0.0
  9
$LIMMIN
 10
0.0
 20
0.0
  9
$LIMMAX
 10
113.3333333333333
 20
73.33333333333334
  9
$ORTHOMODE
 70
     0
  9
$REGENMODE
 70
     1
  9
$FILLMODE
 70
     1
  9
$QTEXTMODE
 70
     0
  9
$MIRRTEXT
 70
     0
  9
$LTSCALE
 40
6.666666666666666
  9
$ATTMODE
 70
     1
  9
$TEXTSIZE
 40
0.2
  9
$TRACEWID
 40
0.05
  9
$TEXTSTYLE
  7
Standard
  9
$CLAYER
  8
0
  9
$CELTYPE
  6
ByLayer
  9
$CECOLOR
 62
   256
  9
$CELTSCALE
 40
1.0
  9
$DISPSILH
 70
     0
  9
$DIMSCALE
 40
1.0
  9
$DIMASZ
 40
0.0708661417322835
  9
$DIMEXO
 40
0.0625
  9
$DIMDLI
 40
0.38
  9
$DIMRND
 40
0.0
  9
$DIMDLE
 40
0.0
  9
$DIMEXE
 40
0.18
  9
$DIMTP
 40
0.0
  9
$DIMTM
 40
0.0
  9
$DIMTXT
 40
0.0708661417322835
  9
$DIMCEN
 40
0.09
  9
$DIMTSZ
 40
0.0
  9
$DIMTOL
 70
     0
  9
$DIMLIM
 70
     0
  9
$DIMTIH
 70
     1
  9
$DIMTOH
 70
     1
  9
$DIMSE1
 70
     0
  9
$DIMSE2
 70
     0
  9
$DIMTAD
 70
     0
  9
$DIMZIN
 70
     0
  9
$DIMBLK
  1

  9
$DIMASO
 70
     1
  9
$DIMSHO
 70
     1
  9
$DIMPOST
  1

  9
$DIMAPOST
  1

  9
$DIMALT
 70
     0
  9
$DIMALTD
 70
     2
  9
$DIMALTF
 40
25.4
  9
$DIMLFAC
 40
1.0
  9
$DIMTOFL
 70
     0
  9
$DIMTVP
 40
0.0
  9
$DIMTIX
 70
     0
  9
$DIMSOXD
 70
     0
  9
$DIMSAH
 70
     0
  9
$DIMBLK1
  1

  9
$DIMBLK2
  1

  9
$DIMSTYLE
  2
STANDARD
  9
$DIMCLRD
 70
     0
  9
$DIMCLRE
 70
     0
  9
$DIMCLRT
 70
     0
  9
$DIMTFAC
 40
1.0
  9
$DIMGAP
 40
0.09
  9
$DIMJUST
 70
     0
  9
$DIMSD1
 70
     0
  9
$DIMSD2
 70
     0
  9
$DIMTOLJ
 70
     1
  9
$DIMTZIN
 70
     0
  9
$DIMALTZ
 70
     0
  9
$DIMALTTZ
 70
     0
  9
$DIMUPT
 70
     0
  9
$DIMDEC
 70
     4
  9
$DIMTDEC
 70
     4
  9
$DIMALTU
 70
     2
  9
$DIMALTTD
 70
     2
  9
$DIMTXSTY
  7
Standard
  9
$DIMAUNIT
 70
     0
  9
$DIMADEC
 70
     0
  9
$DIMALTRND
 40
0.0
  9
$DIMAZIN
 70
     0
  9
$DIMDSEP
 70
    46
  9
$DIMATFIT
 70
     3
  9
$DIMFRAC
 70
     0
  9
$DIMLDRBLK
  1

  9
$DIMLUNIT
 70
     2
  9
$DIMLWD
 70
    -2
  9
$DIMLWE
 70
    -2
  9
$DIMTMOVE
 70
     0
  9
$LUNITS
 70
     2
  9
$LUPREC
 70
     4
  9
$SKETCHINC
 40
0.1
  9
$FILLETRAD
 40
0.0
  9
$AUNITS
 70
     0
  9
$AUPREC
 70
     0
  9
$MENU
  1
.
  9
$ELEVATION
 40
0.0
  9
$PELEVATION
 40
0.0
  9
$THICKNESS
 40
0.0
  9
$LIMCHECK
 70
     0
  9
$CHAMFERA
 40
0.0
  9
$CHAMFERB
 40
0.0
  9
$CHAMFERC
 40
0.0
  9
$CHAMFERD
 40
0.0
  9
$SKPOLY
 70
     0
  9
$TDCREATE
 40
2455945.369263472
  9
$TDUCREATE
 40
2455945.619263472
  9
$TDUPDATE
 40
2455945.369263472
  9
$TDUUPDATE
 40
2455945.619263472
  9
$TDINDWG
 40
0.0000372569
  9
$TDUSRTIMER
 40
0.0000372569
  9
$USRTIMER
 70
     1
  9
$ANGBASE
 50
0.0
  9
$ANGDIR
 70
     0
  9
$PDMODE
 70
     0
  9
$PDSIZE
 40
0.0
  9
$PLINEWID
 40
0.0
  9
$SPLFRAME
 70
     0
  9
$SPLINETYPE
 70
     6
  9
$SPLINESEGS
 70
     8
  9
$HANDSEED
  5
FFE
  9
$SURFTAB1
 70
     6
  9
$SURFTAB2
 70
     6
  9
$SURFTYPE
 70
     6
  9
$SURFU
 70
     6
  9
$SURFV
 70
     6
  9
$UCSBASE
  2

  9
$UCSNAME
  2

  9
$UCSORG
 10
0.0
 20
0.0
 30
0.0
  9
$UCSXDIR
 10
1.0
 20
0.0
 30
0.0
  9
$UCSYDIR
 10
0.0
 20
1.0
 30
0.0
  9
$UCSORTHOREF
  2

  9
$UCSORTHOVIEW
 70
     0
  9
$UCSORGTOP
 10
0.0
 20
0.0
 30
0.0
  9
$UCSORGBOTTOM
 10
0.0
 20
0.0
 30
0.0
  9
$UCSORGLEFT
 10
0.0
 20
0.0
 30
0.0
  9
$UCSORGRIGHT
 10
0.0
 20
0.0
 30
0.0
  9
$UCSORGFRONT
 10
0.0
 20
0.0
 30
0.0
  9
$UCSORGBACK
 10
0.0
 20
0.0
 30
0.0
  9
$PUCSBASE
  2

  9
$PUCSNAME
  2

  9
$PUCSORG
 10
0.0
 20
0.0
 30
0.0
  9
$PUCSXDIR
 10
1.0
 20
0.0
 30
0.0
  9
$PUCSYDIR
 10
0.0
 20
1.0
 30
0.0
  9
$PUCSORTHOREF
  2

  9
$PUCSORTHOVIEW
 70
     0
  9
$PUCSORGTOP
 10
0.0
 20
0.0
 30
0.0
  9
$PUCSORGBOTTOM
 10
0.0
 20
0.0
 30
0.0
  9
$PUCSORGLEFT
 10
0.0
 20
0.0
 30
0.0
  9
$PUCSORGRIGHT
 10
0.0
 20
0.0
 30
0.0
  9
$PUCSORGFRONT
 10
0.0
 20
0.0
 30
0.0
  9
$PUCSORGBACK
 10
0.0
 20
0.0
 30
0.0
  9
$USERI1
 70
     0
  9
$USERI2
 70
     0
  9
$USERI3
 70
     0
  9
$USERI4
 70
     0
  9
$USERI5
 70
     0
  9
$USERR1
 40
0.0
  9
$USERR2
 40
0.0
  9
$USERR3
 40
0.0
  9
$USERR4
 40
0.0
  9
$USERR5
 40
0.0
  9
$WORLDVIEW
 70
     1
  9
$SHADEDGE
 70
     3
  9
$SHADEDIF
 70
    70
  9
$TILEMODE
 70
     1
  9
$MAXACTVP
 70
    64
  9
$PINSBASE
 10
0.0
 20
0.0
 30
0.0
  9
$PLIMCHECK
 70
     0
  9
$PEXTMIN
 10
0.0
 20
0.0
 30
0.0
  9
$PEXTMAX
 10
113.3333333333333
 20
73.33333333333334
 30
0.0
  9
$PLIMMIN
 10
0.0
 20
0.0
  9
$PLIMMAX
 10
113.3333333333333
 20
73.33333333333334
  9
$UNITMODE
 70
     0
  9
$VISRETAIN
 70
     1
  9
$PLINEGEN
 70
     0
  9
$PSLTSCALE
 70
     1
  9
$TREEDEPTH
 70
  3020
  9
$CMLSTYLE
  2
Standard
  9
$CMLJUST
 70
     0
  9
$CMLSCALE
 40
1.0
  9
$PROXYGRAPHICS
 70
     1
  9
$MEASUREMENT
 70
     0
  9
$CELWEIGHT
370
    -1
  9
$ENDCAPS
280
     0
  9
$JOINSTYLE
280
     0
  9
$LWDISPLAY
290
     0
  9
$INSUNITS
 70
     1
  9
$HYPERLINKBASE
  1

  9
$STYLESHEET
  1

  9
$XEDIT
290
     1
  9
$CEPSNTYPE
380
     0
  9
$PSTYLEMODE
290
     1
  9
$FINGERPRINTGUID
  2
{FEAF165F-7D36-45C0-94DF-F963AF6A9586}
  9
$VERSIONGUID
  2
{7AA426CF-2413-4483-AF60-30DF7926DD23}
  9
$EXTNAMES
290
     1
  9
$PSVPSCALE
 40
0.0
  9
$OLESTARTUP
290
     0
  0
ENDSEC
  0
SECTION
  2
CLASSES
  0
CLASS
  1
ACDBDICTIONARYWDFLT
  2
AcDbDictionaryWithDefault
  3
ObjectDBX Classes
 90
        0
280
     0
281
     0
  0
CLASS
  1
MATERIAL
  2
AcDbMaterial
  3
ObjectDBX Classes
 90
     1153
280
     0
281
     0
  0
CLASS
  1
VISUALSTYLE
  2
AcDbVisualStyle
  3
ObjectDBX Classes
 90
     4095
280
     0
281
     0
  0
CLASS
  1
SCALE
  2
AcDbScale
  3
ObjectDBX Classes
 90
     1153
280
     0
281
     0
  0
CLASS
  1
TABLESTYLE
  2
AcDbTableStyle
  3
ObjectDBX Classes
 90
     4095
280
     0
281
     0
  0
CLASS
  1
MLEADERSTYLE
  2
AcDbMLeaderStyle
  3
ACDB_MLEADERSTYLE_CLASS
 90
     4095
280
     0
281
     0
  0
CLASS
  1
DICTIONARYVAR
  2
AcDbDictionaryVar
  3
ObjectDBX Classes
 90
        0
280
     0
281
     0
  0
CLASS
  1
CELLSTYLEMAP
  2
AcDbCellStyleMap
  3
ObjectDBX Classes
 90
     1152
280
     0
281
     0
  0
CLASS
  1
ACDBPLACEHOLDER
  2
AcDbPlaceHolder
  3
ObjectDBX Classes
 90
        0
280
     0
281
     0
  0
CLASS
  1
LAYOUT
  2
AcDbLayout
  3
ObjectDBX Classes
 90
        0
280
     0
281
     0
  0
ENDSEC
  0
SECTION
  2
TABLES
  0
TABLE
  2
VPORT
  5
8
330
0
100
AcDbSymbolTable
 70
     1
  0
VPORT
  5
57
330
8
100
AcDbSymbolTableRecord
100
AcDbViewportTableRecord
  2
*Active
 70
     0
 10
0.0
 20
0.0
 11
1.0
 21
1.0
 12
56.66666666666667
 22
36.66666666666667
 13
0.0
 23
0.0
 14
1.0
 24
1.0
 15
0.0
 25
0.0
 16
0.0
 26
0.0
 36
1.0
 17
0.0
 27
0.0
 37
0.0
 40
73.33333333333334
 41
1.545454545454545
 42
50.0
 43
0.0
 44
0.0
 50
0.0
 51
0.0
 71
     0
 72
   100
 73
     1
 74
     1
 75
     0
 76
     0
 77
     0
 78
     0
281
     0
 65
     1
110
0.0
120
0.0
130
0.0
111
1.0
121
0.0
131
0.0
112
0.0
122
1.0
132
0.0
 79
     0
146
0.0
  0
ENDTAB
  0
TABLE
  2
LTYPE
  5
5
330
0
100
AcDbSymbolTable
 70
    59
  0
LTYPE
  5
5B
330
5
100
AcDbSymbolTableRecord
100
AcDbLinetypeTableRecord
  2
ByBlock
 70
     0
  3

 72
    65
 73
     0
 40
0.0
  0
LTYPE
  5
5C
330
5
100
AcDbSymbolTableRecord
100
AcDbLinetypeTableRecord
  2
ByLayer
 70
     0
  3

 72
    65
 73
     0
 40
0.0
  0
LTYPE
  5
5D
330
5
100
AcDbSymbolTableRecord
100
AcDbLinetypeTableRecord
  2
Continuous
 70
     0
  3
Solid line
 72
    65
 73
     0
 40
0.0
  0
LTYPE
  5
7C
330
5
100
AcDbSymbolTableRecord
100
AcDbLinetypeTableRecord
  2
BY_STANDARD
 70
     0
  3
By Standard ____________    ____    ____   _
 72
    65
 73
     6
 40
1.240299999999999
 49
0.6614
 74
     0
 49
-0.0827
 74
     0
 49
0.1654
 74
     0
 49
-0.0827
 74
     0
 49
0.1654
 74
     0
 49
-0.0827
 74
     0
  0
LTYPE
  5
7D
330
5
100
AcDbSymbolTableRecord
100
AcDbLinetypeTableRecord
  2
CHAIN
 70
     0
  3
Chain ____ _ ____ _ ____ _ ____ _ ____ _ ____
 72
    65
 73
     4
 40
0.7087
 49
0.4724000000000001
 74
     0
 49
-0.0591
 74
     0
 49
0.1181
 74
     0
 49
-0.0591
 74
     0
  0
LTYPE
  5
7E
330
5
100
AcDbSymbolTableRecord
100
AcDbLinetypeTableRecord
  2
DASH_DOT
 70
     0
  3
Dash dot __ . __ . __ . __ . __ . __ . __ . __
 72
    65
 73
     4
 40
0.37
 49
0.24
 74
     0
 49
-0.06
 74
     0
 49
0.01
 74
     0
 49
-0.06
 74
     0
  0
LTYPE
  5
7F
330
5
100
AcDbSymbolTableRecord
100
AcDbLinetypeTableRecord
  2
DOUBLE_DASH_DOT
 70
     0
  3
Double-Dash Dot __ __ . __ __ . __ __ . __ _
 72
    65
 73
     6
 40
0.4398
 49
0.24
 74
     0
 49
-0.06
 74
     0
 49
0.0098
 74
     0
 49
-0.06
 74
     0
 49
0.01
 74
     0
 49
-0.06
 74
     0
  0
LTYPE
  5
80
330
5
100
AcDbSymbolTableRecord
100
AcDbLinetypeTableRecord
  2
DASH_TRIPLE_DOT
 70
     0
  3
Dash Triple-Dot _ . . . _ . . . _ . . . _
 72
    65
 73
     8
 40
0.51
 49
0.24
 74
     0
 49
-0.06
 74
     0
 49
0.01
 74
     0
 49
-0.06
 74
     0
 49
0.01
 74
     0
 49
-0.06
 74
     0
 49
0.01
 74
     0
 49
-0.06
 74
     0
  0
LTYPE
  5
81
330
5
100
AcDbSymbolTableRecord
100
AcDbLinetypeTableRecord
  2
DASHED
 70
     0
  3
Dashed __ __ __ __ __ __ __ __ __ __ __ __ __ _
 72
    65
 73
     2
 40
0.2067
 49
0.1654
 74
     0
 49
-0.0413
 74
     0
  0
LTYPE
  5
82
330
5
100
AcDbSymbolTableRecord
100
AcDbLinetypeTableRecord
  2
DASH_DOUBLE_DOT
 70
     0
  3
Dash Double-Dot __ . . __ . . __ . . __ . .
 72
    65
 73
     6
 40
0.4398
 49
0.24
 74
     0
 49
-0.06
 74
     0
 49
0.0098
 74
     0
 49
-0.06
 74
     0
 49
0.01
 74
     0
 49
-0.06
 74
     0
  0
LTYPE
  5
83
330
5
100
AcDbSymbolTableRecord
100
AcDbLinetypeTableRecord
  2
DASHED_SPACE
 70
     0
  3
Dashed Space __ __ __ __ __ __ __ __ __ __ __ _
 72
    65
 73
     2
 40
0.2067
 49
0.1654
 74
     0
 49
-0.0413
 74
     0
  0
LTYPE
  5
84
330
5
100
AcDbSymbolTableRecord
100
AcDbLinetypeTableRecord
  2
DOTTED
 70
     0
  3
Dotted . . . . . . . . . . . . . . . . . . . . 
 72
    65
 73
     2
 40
0.0482
 49
0.0069
 74
     0
 49
-0.0413
 74
     0
  0
LTYPE
  5
85
330
5
100
AcDbSymbolTableRecord
100
AcDbLinetypeTableRecord
  2
DOUBLE_DASH_CHAIN
 70
     0
  3
Double-Dash Chain ______  __  __  ______  __  _
 72
    65
 73
     6
 40
1.240299999999999
 49
0.6614
 74
     0
 49
-0.0827
 74
     0
 49
0.1654
 74
     0
 49
-0.0827
 74
     0
 49
0.1654
 74
     0
 49
-0.0827
 74
     0
  0
LTYPE
  5
87
330
5
100
AcDbSymbolTableRecord
100
AcDbLinetypeTableRecord
  2
DOUBLE_DASH_DOUBLE_DOT
 70
     0
  3
Double-Dash Double-dot _ _ . . _ _ . . _
 72
    65
 73
     8
 40
0.7400000000000001
 49
0.24
 74
     0
 49
-0.06
 74
     0
 49
0.24
 74
     0
 49
-0.06
 74
     0
 49
0.01
 74
     0
 49
-0.06
 74
     0
 49
0.01
 74
     0
 49
-0.06
 74
     0
  0
LTYPE
  5
88
330
5
100
AcDbSymbolTableRecord
100
AcDbLinetypeTableRecord
  2
DOUBLE_DASH_TRIPLE_DOT
 70
     0
  3
Double Dash Triple Dot __ __ . . . __ __ . .
 72
    65
 73
    10
 40
0.8100000000000001
 49
0.24
 74
     0
 49
-0.06
 74
     0
 49
0.24
 74
     0
 49
-0.06
 74
     0
 49
0.01
 74
     0
 49
-0.06
 74
     0
 49
0.01
 74
     0
 49
-0.06
 74
     0
 49
0.01
 74
     0
 49
-0.06
 74
     0
  0
LTYPE
  5
89
330
5
100
AcDbSymbolTableRecord
100
AcDbLinetypeTableRecord
  2
LONG_DASH_DOTTED
 70
     0
  3
Long Dash Dotted ____ . ____ . ____ . ____ . _
 72
    65
 73
     4
 40
0.3543
 49
0.2362
 74
     0
 49
-0.0295
 74
     0
 49
0.0591
 74
     0
 49
-0.0295
 74
     0
  0
LTYPE
  5
8A
330
5
100
AcDbSymbolTableRecord
100
AcDbLinetypeTableRecord
  2
LONG_DASH_DOUBLE_DOT
 70
     0
  3
Long Dash Double Dot ________  .  .  ________  
 72
    65
 73
     6
 40
0.6799999999999999
 49
0.48
 74
     0
 49
-0.06
 74
     0
 49
0.01
 74
     0
 49
-0.06
 74
     0
 49
0.01
 74
     0
 49
-0.06
 74
     0
  0
LTYPE
  5
8B
330
5
100
AcDbSymbolTableRecord
100
AcDbLinetypeTableRecord
  2
LONG_DASH_TRIPLE_DOT
 70
     0
  3
Long Dash Triple Dot ____ ... ____ ... ____
 72
    65
 73
     8
 40
0.3689
 49
0.2362
 74
     0
 49
-0.0295
 74
     0
 49
0.0049
 74
     0
 49
-0.0295
 74
     0
 49
0.0049
 74
     0
 49
-0.0295
 74
     0
 49
0.0049
 74
     0
 49
-0.0295
 74
     0
  0
LTYPE
  5
8C
330
5
100
AcDbSymbolTableRecord
100
AcDbLinetypeTableRecord
  2
BORDER
 70
     0
  3
Border __ __ . __ __ . __ __ . __ __ . __ __ .
 72
    65
 73
     6
 40
1.75
 49
0.5
 74
     0
 49
-0.25
 74
     0
 49
0.5
 74
     0
 49
-0.25
 74
     0
 49
0.0
 74
     0
 49
-0.25
 74
     0
  0
LTYPE
  5
8D
330
5
100
AcDbSymbolTableRecord
100
AcDbLinetypeTableRecord
  2
BORDER2
 70
     0
  3
Border (.5x) __.__.__.__.__.__.__.__.__.__.__.
 72
    65
 73
     6
 40
0.875
 49
0.25
 74
     0
 49
-0.125
 74
     0
 49
0.25
 74
     0
 49
-0.125
 74
     0
 49
0.0
 74
     0
 49
-0.125
 74
     0
  0
LTYPE
  5
8E
330
5
100
AcDbSymbolTableRecord
100
AcDbLinetypeTableRecord
  2
BORDERX2
 70
     0
  3
Border (2x) ____  ____  .  ____  ____  .  ___
 72
    65
 73
     6
 40
3.5
 49
1.0
 74
     0
 49
-0.5
 74
     0
 49
1.0
 74
     0
 49
-0.5
 74
     0
 49
0.0
 74
     0
 49
-0.5
 74
     0
  0
LTYPE
  5
8F
330
5
100
AcDbSymbolTableRecord
100
AcDbLinetypeTableRecord
  2
CENTER
 70
     0
  3
Center ____ _ ____ _ ____ _ ____ _ ____ _ ____
 72
    65
 73
     4
 40
2.0
 49
1.25
 74
     0
 49
-0.25
 74
     0
 49
0.25
 74
     0
 49
-0.25
 74
     0
  0
LTYPE
  5
90
330
5
100
AcDbSymbolTableRecord
100
AcDbLinetypeTableRecord
  2
CENTER2
 70
     0
  3
Center (.5x) ___ _ ___ _ ___ _ ___ _ ___ _ ___
 72
    65
 73
     4
 40
1.125
 49
0.75
 74
     0
 49
-0.125
 74
     0
 49
0.125
 74
     0
 49
-0.125
 74
     0
  0
LTYPE
  5
91
330
5
100
AcDbSymbolTableRecord
100
AcDbLinetypeTableRecord
  2
CENTERX2
 70
     0
  3
Center (2x) ________  __  ________  __  _____
 72
    65
 73
     4
 40
4.0
 49
2.5
 74
     0
 49
-0.5
 74
     0
 49
0.5
 74
     0
 49
-0.5
 74
     0
  0
LTYPE
  5
92
330
5
100
AcDbSymbolTableRecord
100
AcDbLinetypeTableRecord
  2
DASHDOT2
 70
     0
  3
Dash dot (.5x) _._._._._._._._._._._._._._._.
 72
    65
 73
     4
 40
0.5
 49
0.25
 74
     0
 49
-0.125
 74
     0
 49
0.0
 74
     0
 49
-0.125
 74
     0
  0
LTYPE
  5
93
330
5
100
AcDbSymbolTableRecord
100
AcDbLinetypeTableRecord
  2
DASHDOTX2
 70
     0
  3
Dash dot (2x) ____  .  ____  .  ____  .  ___
 72
    65
 73
     4
 40
2.0
 49
1.0
 74
     0
 49
-0.5
 74
     0
 49
0.0
 74
     0
 49
-0.5
 74
     0
  0
LTYPE
  5
95
330
5
100
AcDbSymbolTableRecord
100
AcDbLinetypeTableRecord
  2
DASHED2
 70
     0
  3
Dashed (.5x) _ _ _ _ _ _ _ _ _ _ _ _ _ _ _ _ _
 72
    65
 73
     2
 40
0.375
 49
0.25
 74
     0
 49
-0.125
 74
     0
  0
LTYPE
  5
96
330
5
100
AcDbSymbolTableRecord
100
AcDbLinetypeTableRecord
  2
DASHEDX2
 70
     0
  3
Dashed (2x) ____  ____  ____  ____  ____  ___
 72
    65
 73
     2
 40
1.5
 49
1.0
 74
     0
 49
-0.5
 74
     0
  0
LTYPE
  5
97
330
5
100
AcDbSymbolTableRecord
100
AcDbLinetypeTableRecord
  2
DIVIDE
 70
     0
  3
Divide ____ . . ____ . . ____ . . ____ . . ____
 72
    65
 73
     6
 40
1.25
 49
0.5
 74
     0
 49
-0.25
 74
     0
 49
0.0
 74
     0
 49
-0.25
 74
     0
 49
0.0
 74
     0
 49
-0.25
 74
     0
  0
LTYPE
  5
98
330
5
100
AcDbSymbolTableRecord
100
AcDbLinetypeTableRecord
  2
DIVIDE2
 70
     0
  3
Divide (.5x) __..__..__..__..__..__..__..__.._
 72
    65
 73
     6
 40
0.625
 49
0.25
 74
     0
 49
-0.125
 74
     0
 49
0.0
 74
     0
 49
-0.125
 74
     0
 49
0.0
 74
     0
 49
-0.125
 74
     0
  0
LTYPE
  5
99
330
5
100
AcDbSymbolTableRecord
100
AcDbLinetypeTableRecord
  2
DIVIDEX2
 70
     0
  3
Divide (2x) ________  .  .  ________  .  .  _
 72
    65
 73
     6
 40
2.5
 49
1.0
 74
     0
 49
-0.5
 74
     0
 49
0.0
 74
     0
 49
-0.5
 74
     0
 49
0.0
 74
     0
 49
-0.5
 74
     0
  0
LTYPE
  5
9A
330
5
100
AcDbSymbolTableRecord
100
AcDbLinetypeTableRecord
  2
DOT
 70
     0
  3
Dot . . . . . . . . . . . . . . . . . . . . . .
 72
    65
 73
     2
 40
0.25
 49
0.0
 74
     0
 49
-0.25
 74
     0
  0
LTYPE
  5
9B
330
5
100
AcDbSymbolTableRecord
100
AcDbLinetypeTableRecord
  2
DOT2
 70
     0
  3
Dot (.5x) .....................................
 72
    65
 73
     2
 40
0.125
 49
0.0
 74
     0
 49
-0.125
 74
     0
  0
LTYPE
  5
9C
330
5
100
AcDbSymbolTableRecord
100
AcDbLinetypeTableRecord
  2
DOTX2
 70
     0
  3
Dot (2x) .  .  .  .  .  .  .  .  .  .  .  .  . 
 72
    65
 73
     2
 40
0.5
 49
0.0
 74
     0
 49
-0.5
 74
     0
  0
LTYPE
  5
9D
330
5
100
AcDbSymbolTableRecord
100
AcDbLinetypeTableRecord
  2
HIDDEN
 70
     0
  3
Hidden __ __ __ __ __ __ __ __ __ __ __ __ __ _
 72
    65
 73
     2
 40
0.375
 49
0.25
 74
     0
 49
-0.125
 74
     0
  0
LTYPE
  5
9E
330
5
100
AcDbSymbolTableRecord
100
AcDbLinetypeTableRecord
  2
HIDDEN2
 70
     0
  3
Hidden (.5x) _ _ _ _ _ _ _ _ _ _ _ _ _ _ _ _ _
 72
    65
 73
     2
 40
0.1875
 49
0.125
 74
     0
 49
-0.0625
 74
     0
  0
LTYPE
  5
9F
330
5
100
AcDbSymbolTableRecord
100
AcDbLinetypeTableRecord
  2
HIDDENX2
 70
     0
  3
Hidden (2x) ____ ____ ____ ____ ____ ____ ____
 72
    65
 73
     2
 40
0.75
 49
0.5
 74
     0
 49
-0.25
 74
     0
  0
LTYPE
  5
A0
330
5
100
AcDbSymbolTableRecord
100
AcDbLinetypeTableRecord
  2
PHANTOM
 70
     0
  3
Phantom ______  __  __  ______  __  __  ______
 72
    65
 73
     6
 40
2.5
 49
1.25
 74
     0
 49
-0.25
 74
     0
 49
0.25
 74
     0
 49
-0.25
 74
     0
 49
0.25
 74
     0
 49
-0.25
 74
     0
  0
LTYPE
  5
A1
330
5
100
AcDbSymbolTableRecord
100
AcDbLinetypeTableRecord
  2
PHANTOM2
 70
     0
  3
Phantom (.5x) ___ _ _ ___ _ _ ___ _ _ ___ _ _
 72
    65
 73
     6
 40
1.25
 49
0.625
 74
     0
 49
-0.125
 74
     0
 49
0.125
 74
     0
 49
-0.125
 74
     0
 49
0.125
 74
     0
 49
-0.125
 74
     0
  0
LTYPE
  5
A2
330
5
100
AcDbSymbolTableRecord
100
AcDbLinetypeTableRecord
  2
PHANTOMX2
 70
     0
  3
Phantom (2x) ____________    ____    ____   _
 72
    65
 73
     6
 40
5.0
 49
2.5
 74
     0
 49
-0.5
 74
     0
 49
0.5
 74
     0
 49
-0.5
 74
     0
 49
0.5
 74
     0
 49
-0.5
 74
     0
  0
LTYPE
  5
A3
330
5
100
AcDbSymbolTableRecord
100
AcDbLinetypeTableRecord
  2
ACAD_ISO02W100
 70
     0
  3
ISO dash __ __ __ __ __ __ __ __ __ __ __ __ __
 72
    65
 73
     2
 40
0.59
 49
0.47
 74
     0
 49
-0.12
 74
     0
  0
LTYPE
  5
A4
330
5
100
AcDbSymbolTableRecord
100
AcDbLinetypeTableRecord
  2
ACAD_ISO03W100
 70
     0
  3
ISO dash space __    __    __    __    __    __
 72
    65
 73
     2
 40
1.179999999999999
 49
0.47
 74
     0
 49
-0.71
 74
     0
  0
LTYPE
  5
A5
330
5
100
AcDbSymbolTableRecord
100
AcDbLinetypeTableRecord
  2
ACAD_ISO04W100
 70
     0
  3
ISO long-dash dot ____ . ____ . ____ . ____ . _
 72
    65
 73
     4
 40
1.179999999999999
 49
0.9399999999999998
 74
     0
 49
-0.12
 74
     0
 49
0.0
 74
     0
 49
-0.12
 74
     0
  0
LTYPE
  5
A6
330
5
100
AcDbSymbolTableRecord
100
AcDbLinetypeTableRecord
  2
ACAD_ISO05W100
 70
     0
  3
ISO long-dash double-dot ____ .. ____ .. ____ .
 72
    65
 73
     6
 40
1.299999999999999
 49
0.9399999999999998
 74
     0
 49
-0.12
 74
     0
 49
0.0
 74
     0
 49
-0.12
 74
     0
 49
0.0
 74
     0
 49
-0.12
 74
     0
  0
LTYPE
  5
A7
330
5
100
AcDbSymbolTableRecord
100
AcDbLinetypeTableRecord
  2
ACAD_ISO06W100
 70
     0
  3
ISO long-dash triple-dot ____ ... ____ ... ____
 72
    65
 73
     8
 40
1.419999999999999
 49
0.9399999999999998
 74
     0
 49
-0.12
 74
     0
 49
0.0
 74
     0
 49
-0.12
 74
     0
 49
0.0
 74
     0
 49
-0.12
 74
     0
 49
0.0
 74
     0
 49
-0.12
 74
     0
  0
LTYPE
  5
A8
330
5
100
AcDbSymbolTableRecord
100
AcDbLinetypeTableRecord
  2
ACAD_ISO07W100
 70
     0
  3
ISO dot . . . . . . . . . . . . . . . . . . . .
 72
    65
 73
     2
 40
0.12
 49
0.0
 74
     0
 49
-0.12
 74
     0
  0
LTYPE
  5
A9
330
5
100
AcDbSymbolTableRecord
100
AcDbLinetypeTableRecord
  2
ACAD_ISO08W100
 70
     0
  3
ISO long-dash short-dash ____ __ ____ __ ____ _
 72
    65
 73
     4
 40
0.95
 49
0.47
 74
     0
 49
-0.12
 74
     0
 49
0.24
 74
     0
 49
-0.12
 74
     0
  0
LTYPE
  5
AA
330
5
100
AcDbSymbolTableRecord
100
AcDbLinetypeTableRecord
  2
ACAD_ISO09W100
 70
     0
  3
ISO long-dash double-short-dash ____ __ __ ____
 72
    65
 73
     6
 40
1.31
 49
0.47
 74
     0
 49
-0.12
 74
     0
 49
0.24
 74
     0
 49
-0.12
 74
     0
 49
0.24
 74
     0
 49
-0.12
 74
     0
  0
LTYPE
  5
AB
330
5
100
AcDbSymbolTableRecord
100
AcDbLinetypeTableRecord
  2
ACAD_ISO10W100
 70
     0
  3
ISO dash dot __ . __ . __ . __ . __ . __ . __ .
 72
    65
 73
     4
 40
0.71
 49
0.47
 74
     0
 49
-0.12
 74
     0
 49
0.0
 74
     0
 49
-0.12
 74
     0
  0
LTYPE
  5
AC
330
5
100
AcDbSymbolTableRecord
100
AcDbLinetypeTableRecord
  2
ACAD_ISO11W100
 70
     0
  3
ISO double-dash dot __ __ . __ __ . __ __ . __ 
 72
    65
 73
     6
 40
1.299999999999999
 49
0.47
 74
     0
 49
-0.12
 74
     0
 49
0.47
 74
     0
 49
-0.12
 74
     0
 49
0.0
 74
     0
 49
-0.12
 74
     0
  0
LTYPE
  5
AD
330
5
100
AcDbSymbolTableRecord
100
AcDbLinetypeTableRecord
  2
ACAD_ISO12W100
 70
     0
  3
ISO dash double-dot __ . . __ . . __ . . __ . .
 72
    65
 73
     6
 40
0.8299999999999998
 49
0.47
 74
     0
 49
-0.12
 74
     0
 49
0.0
 74
     0
 49
-0.12
 74
     0
 49
0.0
 74
     0
 49
-0.12
 74
     0
  0
LTYPE
  5
AE
330
5
100
AcDbSymbolTableRecord
100
AcDbLinetypeTableRecord
  2
ACAD_ISO13W100
 70
     0
  3
ISO double-dash double-dot __ __ . . __ __ . . 
 72
    65
 73
     8
 40
1.419999999999999
 49
0.47
 74
     0
 49
-0.12
 74
     0
 49
0.47
 74
     0
 49
-0.12
 74
     0
 49
0.0
 74
     0
 49
-0.12
 74
     0
 49
0.0
 74
     0
 49
-0.12
 74
     0
  0
LTYPE
  5
AF
330
5
100
AcDbSymbolTableRecord
100
AcDbLinetypeTableRecord
  2
ACAD_ISO14W100
 70
     0
  3
ISO dash triple-dot __ . . . __ . . . __ . . . 
 72
    65
 73
     8
 40
0.95
 49
0.47
 74
     0
 49
-0.12
 74
     0
 49
0.0
 74
     0
 49
-0.12
 74
     0
 49
0.0
 74
     0
 49
-0.12
 74
     0
 49
0.0
 74
     0
 49
-0.12
 74
     0
  0
LTYPE
  5
B0
330
5
100
AcDbSymbolTableRecord
100
AcDbLinetypeTableRecord
  2
ACAD_ISO15W100
 70
     0
  3
ISO double-dash triple-dot __ __ . . . __ __ . 
 72
    65
 73
    10
 40
1.539999999999999
 49
0.47
 74
     0
 49
-0.12
 74
     0
 49
0.47
 74
     0
 49
-0.12
 74
     0
 49
0.0
 74
     0
 49
-0.12
 74
     0
 49
0.0
 74
     0
 49
-0.12
 74
     0
 49
0.0
 74
     0
 49
-0.12
 74
     0
  0
LTYPE
  5
B3
330
5
100
AcDbSymbolTableRecord
100
AcDbLinetypeTableRecord
  2
FENCELINE1
 70
     0
  3
Fenceline circle ----0-----0----0-----0----0---
 72
    65
 73
     4
 40
1.45
 49
0.25
 74
     0
 49
-0.1
 74
     4
 75
   133
340
B2
 46
0.1
 50
0.0
 44
-0.1
 45
0.0
 49
-0.1
 74
     0
 49
1.0
 74
     0
  0
LTYPE
  5
B4
330
5
100
AcDbSymbolTableRecord
100
AcDbLinetypeTableRecord
  2
FENCELINE2
 70
     0
  3
Fenceline square ----[]-----[]----[]-----[]----
 72
    65
 73
     4
 40
1.45
 49
0.25
 74
     0
 49
-0.1
 74
     4
 75
   132
340
B2
 46
0.1
 50
0.0
 44
-0.1
 45
0.0
 49
-0.1
 74
     0
 49
1.0
 74
     0
  0
LTYPE
  5
B5
330
5
100
AcDbSymbolTableRecord
100
AcDbLinetypeTableRecord
  2
TRACKS
 70
     0
  3
Tracks -|-|-|-|-|-|-|-|-|-|-|-|-|-|-|-|-|-|-|-|
 72
    65
 73
     2
 40
0.3
 49
0.15
 74
     4
 75
   130
340
B2
 46
0.25
 50
0.0
 44
0.0
 45
0.0
 49
0.15
 74
     0
  0
LTYPE
  5
B6
330
5
100
AcDbSymbolTableRecord
100
AcDbLinetypeTableRecord
  2
BATTING
 70
     0
  3
Batting SSSSSSSSSSSSSSSSSSSSSSSSSSSSSSSSSSSSSSS
 72
    65
 73
     4
 40
0.4001000000000001
 49
0.0001
 74
     0
 49
-0.1
 74
     4
 75
   134
340
B2
 46
0.1
 50
0.0
 44
-0.1
 45
0.0
 49
-0.2
 74
     4
 75
   134
340
B2
 46
0.1
 50
180.0
 44
0.1
 45
0.0
 49
-0.1
 74
     0
  0
LTYPE
  5
B7
330
5
100
AcDbSymbolTableRecord
100
AcDbLinetypeTableRecord
  2
HOT_WATER_SUPPLY
 70
     0
  3
Hot water supply ---- HW ---- HW ---- HW ----
 72
    65
 73
     3
 40
0.9
 49
0.5
 74
     0
 49
-0.2
 74
     2
 75
     0
340
55
 46
0.1
 50
0.0
 44
-0.1
 45
-0.05
  9
HW
 49
-0.2
 74
     0
  0
LTYPE
  5
B8
330
5
100
AcDbSymbolTableRecord
100
AcDbLinetypeTableRecord
  2
GAS_LINE
 70
     0
  3
Gas line ----GAS----GAS----GAS----GAS----GAS---
 72
    65
 73
     3
 40
0.95
 49
0.5
 74
     0
 49
-0.2
 74
     2
 75
     0
340
55
 46
0.1
 50
0.0
 44
-0.1
 45
-0.05
  9
GAS
 49
-0.25
 74
     0
  0
LTYPE
  5
B9
330
5
100
AcDbSymbolTableRecord
100
AcDbLinetypeTableRecord
  2
ZIGZAG
 70
     0
  3
Zig zag /\/\/\/\/\/\/\/\/\/\/\/\/\/\/\/\/\/\/\/
 72
    65
 73
     4
 40
0.8001000000000001
 49
0.0001
 74
     0
 49
-0.2
 74
     4
 75
   131
340
B2
 46
0.2
 50
0.0
 44
-0.2
 45
0.0
 49
-0.4
 74
     4
 75
   131
340
B2
 46
0.2
 50
180.0
 44
0.2
 45
0.0
 49
-0.2
 74
     0
  0
ENDTAB
  0
TABLE
  2
LAYER
  5
2
330
0
100
AcDbSymbolTable
 70
    27
  0
LAYER
  5
54
330
2
100
AcDbSymbolTableRecord
100
AcDbLayerTableRecord
  2
0
 70
     0
 62
     7
  6
Continuous
370
    18
390
F
  0
LAYER
  5
C3
330
2
100
AcDbSymbolTableRecord
100
AcDbLayerTableRecord
  2
Dimension (ANSI)
 70
     0
 62
     7
  6
Continuous
370
    13
390
F
  0
LAYER
  5
C5
330
2
100
AcDbSymbolTableRecord
100
AcDbLayerTableRecord
  2
Hidden (ANSI)
 70
     0
 62
     7
  6
DASHED
370
    15
390
F
  0
LAYER
  5
CC
330
2
100
AcDbSymbolTableRecord
100
AcDbLayerTableRecord
  2
Symbol (ANSI)
 70
     0
 62
     7
  6
Continuous
370
    18
390
F
  0
LAYER
  5
CF
330
2
100
AcDbSymbolTableRecord
100
AcDbLayerTableRecord
  2
Visible (ANSI)
 70
     0
 62
     7
  6
Continuous
370
    13
390
F
  0
LAYER
  5
D0
330
2
100
AcDbSymbolTableRecord
100
AcDbLayerTableRecord
  2
Visible Narrow (ANSI)
 70
     0
 62
     7
  6
Continuous
370
    18
390
F
  0
LAYER
  5
1FF
330
2
100
AcDbSymbolTableRecord
100
AcDbLayerTableRecord
  2
Defpoints
 70
     0
 62
     7
  6
Continuous
290
     0
370
    -3
390
F
  0
ENDTAB
  0
TABLE
  2
STYLE
  5
3
330
0
100
AcDbSymbolTable
 70
    17
  0
STYLE
  5
55
330
3
100
AcDbSymbolTableRecord
100
AcDbTextStyleTableRecord
  2
Standard
 70
     0
 40
0.0
 41
1.0
 50
0.0
 71
     0
 42
0.2
  3
txt
  4

  0
STYLE
  5
5A
330
3
100
AcDbSymbolTableRecord
100
AcDbTextStyleTableRecord
  2
Annotative
 70
     0
 40
0.0
 41
1.0
 50
0.0
 71
     0
 42
0.2
  3
txt
  4

1001
AcadAnnotative
1000
AnnotativeData
1002
{
1070
     1
1070
     1
1002
}
  0
STYLE
  5
B2
330
3
100
AcDbSymbolTableRecord
100
AcDbTextStyleTableRecord
  2

 70
     1
 40
0.0
 41
1.0
 50
0.0
 71
     0
 42
0.2
  3
ltypeshp.shx
  4

  0
STYLE
  5
D4
330
3
100
AcDbSymbolTableRecord
100
AcDbTextStyleTableRecord
  2
ITALICC_120
 70
     0
 40
0.0
 41
1.0
 50
0.0
 71
     0
 42
0.2
  3
italicc.shx
  4

  0
STYLE
  5
D5
330
3
100
AcDbSymbolTableRecord
100
AcDbTextStyleTableRecord
  2
Label Text (ANSI)
 70
     0
 40
0.0
 41
1.0
 50
0.0
 71
     0
 42
0.2
  3
RomanS.shx
  4

  0
STYLE
  5
D6
330
3
100
AcDbSymbolTableRecord
100
AcDbTextStyleTableRecord
  2
Note Text (ANSI)
 70
     0
 40
0.0
 41
1.0
 50
0.0
 71
     0
 42
0.2
  3
RomanS.shx
  4

  0
STYLE
  5
D7
330
3
100
AcDbSymbolTableRecord
100
AcDbTextStyleTableRecord
  2
ROMANS
 70
     0
 40
0.0
 41
1.0
 50
0.0
 71
     0
 42
0.2
  3
romans.shx
  4

  0
STYLE
  5
D8
330
3
100
AcDbSymbolTableRecord
100
AcDbTextStyleTableRecord
  2
SANSSERIF_114
 70
     0
 40
0.0
 41
1.0
 50
0.0
 71
     0
 42
0.2
  3
TAHOMA.TTF
  4

1001
ACAD
1000
Tahoma
1071
      256
  0
STYLE
  5
D9
330
3
100
AcDbSymbolTableRecord
100
AcDbTextStyleTableRecord
  2
SANSSERIF_117
 70
     0
 40
0.0
 41
1.0
 50
0.0
 71
     0
 42
0.2
  3
TAHOMA.TTF
  4

1001
ACAD
1000
Tahoma
1071
      256
  0
STYLE
  5
DA
330
3
100
AcDbSymbolTableRecord
100
AcDbTextStyleTableRecord
  2
STANDARDAM_ANSI
 70
     0
 40
0.0
 41
1.0
 50
0.0
 71
     0
 42
0.2
  3
txt.shx
  4

  0
STYLE
  5
DB
330
3
100
AcDbSymbolTableRecord
100
AcDbTextStyleTableRecord
  2
StandardAM_ANSI$0
 70
     0
 40
0.0
 41
1.0
 50
0.0
 71
     0
 42
0.2
  3
txt.shx
  4

  0
STYLE
  5
DC
330
3
100
AcDbSymbolTableRecord
100
AcDbTextStyleTableRecord
  2
STANDARDAM_ANSI$3
 70
     0
 40
0.0
 41
1.0
 50
0.0
 71
     0
 42
0.2
  3
txt.shx
  4

  0
STYLE
  5
DD
330
3
100
AcDbSymbolTableRecord
100
AcDbTextStyleTableRecord
  2
STANDARDAM_ANSI$4
 70
     0
 40
0.0
 41
1.0
 50
0.0
 71
     0
 42
0.2
  3
txt.shx
  4

  0
STYLE
  5
DE
330
3
100
AcDbSymbolTableRecord
100
AcDbTextStyleTableRecord
  2
STANDARDAM_ANSI$7
 70
     0
 40
0.0
 41
1.0
 50
0.0
 71
     0
 42
0.2
  3
txt.shx
  4

  0
STYLE
  5
DF
330
3
100
AcDbSymbolTableRecord
100
AcDbTextStyleTableRecord
  2
STANDARDAM_ANSI$SF
 70
     0
 40
0.0
 41
1.0
 50
0.0
 71
     0
 42
0.2
  3
txt.shx
  4

  0
STYLE
  5
E0
330
3
100
AcDbSymbolTableRecord
100
AcDbTextStyleTableRecord
  2
STANDARDAM_ANSI$SH
 70
     0
 40
0.0
 41
1.0
 50
0.0
 71
     0
 42
0.2
  3
txt.shx
  4

  0
STYLE
  5
E1
330
3
100
AcDbSymbolTableRecord
100
AcDbTextStyleTableRecord
  2
STANDARDSTANDARD
 70
     0
 40
0.0
 41
1.0
 50
0.0
 71
     0
 42
0.2
  3
txt.shx
  4

  0
ENDTAB
  0
TABLE
  2
VIEW
  5
6
330
0
100
AcDbSymbolTable
 70
     0
  0
ENDTAB
  0
TABLE
  2
UCS
  5
7
330
0
100
AcDbSymbolTable
 70
     0
  0
ENDTAB
  0
TABLE
  2
APPID
  5
9
330
0
100
AcDbSymbolTable
 70
     4
  0
APPID
  5
56
330
9
100
AcDbSymbolTableRecord
100
AcDbRegAppTableRecord
  2
ACAD
 70
     0
  0
APPID
  5
5E
330
9
100
AcDbSymbolTableRecord
100
AcDbRegAppTableRecord
  2
AcadAnnotative
 70
     0
  0
APPID
  5
46D
330
9
100
AcDbSymbolTableRecord
100
AcDbRegAppTableRecord
  2
ACAD_DSTYLE_DIMRADIAL_EXTENSION
 70
     0
  0
APPID
  5
FF3
330
9
100
AcDbSymbolTableRecord
100
AcDbRegAppTableRecord
  2
ACAD_MLEADERVER
 70
     0
  0
ENDTAB
  0
TABLE
  2
DIMSTYLE
  5
A
330
0
100
AcDbSymbolTable
 70
    27
100
AcDbDimStyleTable
 71
     2
340
F6
340
58
  0
DIMSTYLE
105
58
330
A
100
AcDbSymbolTableRecord
100
AcDbDimStyleTableRecord
  2
STANDARD
 70
     0
 41
0.1800000071525573
 42
0.0625
140
0.1800000071525574
144
1.0
147
0.0900000035762787
176
   256
177
   256
178
   256
274
     3
340
55
371
    -1
372
    -1
  0
DIMSTYLE
105
59
330
A
100
AcDbSymbolTableRecord
100
AcDbDimStyleTableRecord
  2
Annotative
 70
     0
340
55
1001
AcadAnnotative
1000
AnnotativeData
1002
{
1070
     1
1070
     1
1002
}
  0
DIMSTYLE
105
E2
330
A
100
AcDbSymbolTableRecord
100
AcDbDimStyleTableRecord
  2
AM_ANSI
 70
     0
  4
 mm
 40
6.666666666666666
 41
0.119999997317791
 42
0.05
 43
0.5
 44
0.1
 45
0.00000001
 78
     4
 79
     2
140
0.1200000047683716
146
0.7099999453624112
147
0.0599999986588955
176
   256
177
   256
178
     2
284
     4
340
DA
371
    -1
372
    -1
  0
DIMSTYLE
105
E3
330
A
100
AcDbSymbolTableRecord
100
AcDbDimStyleTableRecord
  2
AM_ANSI$7
 70
     0
  4
 mm
 40
6.666666666666666
 41
0.119999997317791
 42
0.05
 43
0.5
 44
0.1
 45
0.00000001
 78
     4
 79
     2
140
0.1200000047683716
146
0.7099999453624112
147
0.0599999986588955
176
   256
177
   256
178
     2
284
     4
340
DA
371
    -1
372
    -1
  0
DIMSTYLE
105
E4
330
A
100
AcDbSymbolTableRecord
100
AcDbDimStyleTableRecord
  2
AM_ANSI$0
 70
     0
  4
 mm
 40
6.666666666666666
 41
0.119999997317791
 42
0.05
 43
0.5
 44
0.1
 45
0.00000001
 78
     4
 79
     2
140
0.1200000047683716
146
0.7099999453624112
147
0.0599999986588955
176
   256
177
   256
178
     2
284
     4
340
DB
371
    -1
372
    -1
  0
DIMSTYLE
105
E5
330
A
100
AcDbSymbolTableRecord
100
AcDbDimStyleTableRecord
  2
AM_ANSI$0$7
 70
     0
  4
 mm
 40
6.666666666666666
 41
0.119999997317791
 42
0.05
 43
0.5
 44
0.1
 45
0.00000001
 78
     4
 79
     2
140
0.1200000047683716
146
0.7099999453624112
147
0.0599999986588955
176
   256
177
   256
178
     2
284
     4
340
DB
371
    -1
372
    -1
  0
DIMSTYLE
105
E6
330
A
100
AcDbSymbolTableRecord
100
AcDbDimStyleTableRecord
  2
AM_ANSI$3
 70
     0
  4
 mm
 40
6.666666666666666
 41
0.119999997317791
 42
0.05
 43
0.5
 44
0.1
 45
0.00000001
 78
     4
 79
     2
140
0.1200000047683716
146
0.7099999453624112
147
0.0599999986588955
176
   256
177
   256
178
     2
284
     4
340
DC
371
    -1
372
    -1
  0
DIMSTYLE
105
E7
330
A
100
AcDbSymbolTableRecord
100
AcDbDimStyleTableRecord
  2
AM_ANSI$3$7
 70
     0
  4
 mm
 40
6.666666666666666
 41
0.119999997317791
 42
0.05
 43
0.5
 44
0.1
 45
0.00000001
 78
     4
 79
     2
140
0.1200000047683716
146
0.7099999453624112
147
0.0599999986588955
176
   256
177
   256
178
     2
284
     4
340
DC
371
    -1
372
    -1
  0
DIMSTYLE
105
E8
330
A
100
AcDbSymbolTableRecord
100
AcDbDimStyleTableRecord
  2
AM_ANSI$4
 70
     0
  4
 mm
 40
6.666666666666666
 41
0.119999997317791
 42
0.05
 43
0.5
 44
0.1
 45
0.00000001
 78
     4
 79
     2
140
0.1200000047683716
146
0.7099999453624112
147
0.0599999986588955
176
   256
177
   256
178
     2
284
     4
340
DD
371
    -1
372
    -1
  0
DIMSTYLE
105
E9
330
A
100
AcDbSymbolTableRecord
100
AcDbDimStyleTableRecord
  2
AM_ANSI$4$7
 70
     0
  4
 mm
 40
6.666666666666666
 41
0.119999997317791
 42
0.05
 43
0.5
 44
0.1
 45
0.00000001
 78
     4
 79
     2
140
0.1200000047683716
146
0.7099999453624112
147
0.0599999986588955
176
   256
177
   256
178
     2
284
     4
340
DD
371
    -1
372
    -1
  0
DIMSTYLE
105
EA
330
A
100
AcDbSymbolTableRecord
100
AcDbDimStyleTableRecord
  2
AM_ANSI$SF
 70
     0
  4
 mm
 40
6.666666666666666
 41
0.119999997317791
 42
0.05
 43
0.5
 44
0.1
 45
0.00000001
 75
     1
 76
     1
 78
     4
 79
     2
140
0.1200000047683716
146
0.7099999453624112
147
0.0599999986588955
176
   256
177
   256
178
     2
284
     4
340
DF
371
    -1
372
    -1
  0
DIMSTYLE
105
EB
330
A
100
AcDbSymbolTableRecord
100
AcDbDimStyleTableRecord
  2
AM_ANSI$SF$7
 70
     0
  4
 mm
 40
6.666666666666666
 41
0.119999997317791
 42
0.05
 43
0.5
 44
0.1
 45
0.00000001
 75
     1
 76
     1
 78
     4
 79
     2
140
0.1200000047683716
146
0.7099999453624112
147
0.0599999986588955
176
   256
177
   256
178
     2
284
     4
340
DF
371
    -1
372
    -1
  0
DIMSTYLE
105
EC
330
A
100
AcDbSymbolTableRecord
100
AcDbDimStyleTableRecord
  2
AM_ANSI$SH
 70
     0
  4
 mm
 40
6.666666666666666
 41
0.119999997317791
 42
0.05
 43
0.5
 44
0.1
 45
0.00000001
 75
     1
 76
     1
 78
     4
 79
     2
140
0.1200000047683716
146
0.7099999453624112
147
0.0599999986588955
176
   256
177
   256
178
     2
284
     4
340
E0
371
    -1
372
    -1
  0
DIMSTYLE
105
ED
330
A
100
AcDbSymbolTableRecord
100
AcDbDimStyleTableRecord
  2
AM_ANSI$SH$7
 70
     0
  4
 mm
 40
6.666666666666666
 41
0.119999997317791
 42
0.05
 43
0.5
 44
0.1
 45
0.00000001
 75
     1
 76
     1
 78
     4
 79
     2
140
0.1200000047683716
146
0.7099999453624112
147
0.0599999986588955
176
   256
177
   256
178
     2
284
     4
340
E0
371
    -1
372
    -1
  0
DIMSTYLE
105
EE
330
A
100
AcDbSymbolTableRecord
100
AcDbDimStyleTableRecord
  2
Architectural (ANSI)
 70
     0
 40
6.666666666666666
 41
0.0984251946210861
 43
0.2362204724409449
 44
0.125
 45
0.00000001
 46
0.3937007874015748
 78
     3
 79
     3
140
0.1200000047683716
147
0.031496062992126
171
     1
176
   256
177
   256
178
   256
272
     2
274
     1
276
     2
277
     4
284
    12
285
     4
286
    12
340
D6
371
    -1
372
    -1
  0
DIMSTYLE
105
EF
330
A
100
AcDbSymbolTableRecord
100
AcDbDimStyleTableRecord
  2
Architectural (ANSI)$7
 70
     0
 40
6.666666666666666
 41
0.0984251946210861
 43
0.2362204724409449
 44
0.125
 45
0.00000001
 46
0.3937007874015748
 78
     3
 79
     3
140
0.1200000047683716
147
0.031496062992126
171
     1
176
   256
177
   256
178
   256
272
     2
274
     1
276
     2
277
     4
284
    12
285
     4
286
    12
340
D6
371
    -1
372
    -1
  0
DIMSTYLE
105
F0
330
A
100
AcDbSymbolTableRecord
100
AcDbDimStyleTableRecord
  2
Default - Fraction (ANSI)
 70
     0
 40
6.666666666666666
 41
0.0984251946210861
 43
0.2362204724409449
 44
0.125
 45
0.00000001
 46
0.3937007874015748
 79
     3
140
0.1200000047683716
147
0.031496062992126
171
     1
176
   256
177
   256
178
   256
272
     2
274
     1
276
     2
277
     5
284
    12
285
     4
286
    12
340
D6
371
    -1
372
    -1
  0
DIMSTYLE
105
F1
330
A
100
AcDbSymbolTableRecord
100
AcDbDimStyleTableRecord
  2
Default - Fraction (ANSI)$7
 70
     0
 40
6.666666666666666
 41
0.0984251946210861
 43
0.2362204724409449
 44
0.125
 45
0.00000001
 46
0.3937007874015748
 79
     3
140
0.1200000047683716
147
0.031496062992126
171
     1
176
   256
177
   256
178
   256
272
     2
274
     1
276
     2
277
     5
284
    12
285
     4
286
    12
340
D6
371
    -1
372
    -1
  0
DIMSTYLE
105
F2
330
A
100
AcDbSymbolTableRecord
100
AcDbDimStyleTableRecord
  2
Default - mm (ANSI)
 70
     0
 40
6.666666666666666
 41
0.0984251946210861
 42
0.063
 43
0.2362204724409449
 44
0.125
 45
0.00000001
 46
0.3937007874015748
 73
     0
 78
     4
 79
     1
140
0.1200000047683716
143
1.0
144
25.4
147
0.031496062992126
171
     1
176
   256
177
   256
178
   256
179
     1
271
     2
272
     2
274
     1
284
     4
285
     4
340
D6
371
    -1
372
    -1
  0
DIMSTYLE
105
F3
330
A
100
AcDbSymbolTableRecord
100
AcDbDimStyleTableRecord
  2
Default - mm (ANSI)$7
 70
     0
 40
6.666666666666666
 41
0.0984251946210861
 42
0.063
 43
0.2362204724409449
 44
0.125
 45
0.00000001
 46
0.3937007874015748
 73
     0
 78
     4
 79
     1
140
0.1200000047683716
143
1.0
144
25.4
147
0.031496062992126
171
     1
176
   256
177
   256
178
   256
179
     1
271
     2
272
     2
274
     1
284
     4
285
     4
340
D6
371
    -1
372
    -1
  0
DIMSTYLE
105
F4
330
A
100
AcDbSymbolTableRecord
100
AcDbDimStyleTableRecord
  2
Default - mm [in] (ANSI)
 70
     0
  4
 in
 40
6.666666666666666
 41
0.0984251946210861
 42
0.063
 43
0.25
 44
0.125
 45
0.00000001
 46
0.3937007874015748
 73
     0
 78
     4
 79
     1
140
0.1200000047683716
143
0.03937
144
25.4
147
0.031496062992126
170
     1
171
     3
176
   256
177
   256
178
   256
179
     1
271
     2
272
     2
274
     3
284
     4
285
     4
286
     4
340
D6
371
    -1
372
    -1
  0
DIMSTYLE
105
F5
330
A
100
AcDbSymbolTableRecord
100
AcDbDimStyleTableRecord
  2
Default - mm [in] (ANSI)$7
 70
     0
  4
 in
 40
6.666666666666666
 41
0.0984251946210861
 42
0.063
 43
0.25
 44
0.125
 45
0.00000001
 46
0.3937007874015748
 73
     0
 78
     4
 79
     1
140
0.1200000047683716
143
0.03937
144
25.4
147
0.031496062992126
170
     1
171
     3
176
   256
177
   256
178
   256
179
     1
271
     2
272
     2
274
     3
284
     4
285
     4
286
     4
340
D6
371
    -1
372
    -1
  0
DIMSTYLE
105
F6
102
{ACAD_REACTORS
330
1FD
330
2EA
330
3D4
330
48E
330
547
330
645
330
72F
330
82F
330
919
330
A19
330
B03
330
BED
330
CEF
330
DD9
330
EC3
102
}
330
A
100
AcDbSymbolTableRecord
100
AcDbDimStyleTableRecord
  2
Default (ANSI)
 70
     0
 40
6.666666666666666
 41
0.0984251946210861
 43
0.2362204724409449
 44
0.125
 45
0.00000001
 46
0.3937007874015748
 79
     1
140
0.1200000047683716
147
0.031496062992126
171
     1
176
   256
177
   256
178
   256
271
     3
272
     2
274
     1
284
     4
285
     4
340
D6
371
    -1
372
    -1
  0
DIMSTYLE
105
F7
330
A
100
AcDbSymbolTableRecord
100
AcDbDimStyleTableRecord
  2
Default (ANSI)$7
 70
     0
 40
6.666666666666666
 41
0.0984251946210861
 43
0.2362204724409449
 44
0.125
 45
0.00000001
 46
0.3937007874015748
 79
     1
140
0.1200000047683716
147
0.031496062992126
171
     1
176
   256
177
   256
178
   256
271
     3
272
     2
274
     1
284
     4
285
     4
340
D6
371
    -1
372
    -1
  0
DIMSTYLE
105
F8
330
A
100
AcDbSymbolTableRecord
100
AcDbDimStyleTableRecord
  2
Alternate (ANSI)
 70
     0
 40
6.666666666666666
 41
0.0979999974370003
340
55
342
F9
  0
DIMSTYLE
105
10B
330
A
100
AcDbSymbolTableRecord
100
AcDbDimStyleTableRecord
  2
Datum (ANSI)
 70
     0
 40
6.666666666666666
 41
0.0979999974370003
340
55
342
F9
  0
DIMSTYLE
105
11A
330
A
100
AcDbSymbolTableRecord
100
AcDbDimStyleTableRecord
  2
Large (ANSI)
 70
     0
 40
6.666666666666666
 41
0.1959999948740005
340
55
342
F9
  0
ENDTAB
  0
TABLE
  2
BLOCK_RECORD
  5
1
330
0
100
AcDbSymbolTable
 70
    19
  0
BLOCK_RECORD
  5
6C
330
1
100
AcDbSymbolTableRecord
100
AcDbBlockTableRecord
  2
*Model_Space
340
6F
  0
BLOCK_RECORD
  5
68
330
1
100
AcDbSymbolTableRecord
100
AcDbBlockTableRecord
  2
*Paper_Space
340
6B
  0
BLOCK_RECORD
  5
70
330
1
100
AcDbSymbolTableRecord
100
AcDbBlockTableRecord
  2
*Paper_Space0
340
73
  0
BLOCK_RECORD
  5
F9
330
1
100
AcDbSymbolTableRecord
100
AcDbBlockTableRecord
  2
_Closed
340
0
  0
BLOCK_RECORD
  5
100
330
1
100
AcDbSymbolTableRecord
100
AcDbBlockTableRecord
  2
DatumFilled45
340
0
  0
BLOCK_RECORD
  5
10C
330
1
100
AcDbSymbolTableRecord
100
AcDbBlockTableRecord
  2
Filled-1
340
0
  0
BLOCK_RECORD
  5
200
330
1
100
AcDbSymbolTableRecord
100
AcDbBlockTableRecord
  2
*D4
340
0
  0
BLOCK_RECORD
  5
2EB
330
1
100
AcDbSymbolTableRecord
100
AcDbBlockTableRecord
  2
*D5
340
0
  0
BLOCK_RECORD
  5
3D5
330
1
100
AcDbSymbolTableRecord
100
AcDbBlockTableRecord
  2
*D6
340
0
  0
BLOCK_RECORD
  5
48F
330
1
100
AcDbSymbolTableRecord
100
AcDbBlockTableRecord
  2
*D7
340
0
  0
BLOCK_RECORD
  5
548
330
1
100
AcDbSymbolTableRecord
100
AcDbBlockTableRecord
  2
*D8
340
0
  0
BLOCK_RECORD
  5
646
330
1
100
AcDbSymbolTableRecord
100
AcDbBlockTableRecord
  2
*D9
340
0
  0
BLOCK_RECORD
  5
730
330
1
100
AcDbSymbolTableRecord
100
AcDbBlockTableRecord
  2
*D10
340
0
  0
BLOCK_RECORD
  5
830
330
1
100
AcDbSymbolTableRecord
100
AcDbBlockTableRecord
  2
*D11
340
0
  0
BLOCK_RECORD
  5
91A
330
1
100
AcDbSymbolTableRecord
100
AcDbBlockTableRecord
  2
*D12
340
0
  0
BLOCK_RECORD
  5
A1A
330
1
100
AcDbSymbolTableRecord
100
AcDbBlockTableRecord
  2
*D13
340
0
  0
BLOCK_RECORD
  5
B04
330
1
100
AcDbSymbolTableRecord
100
AcDbBlockTableRecord
  2
*D14
340
0
  0
BLOCK_RECORD
  5
BEE
330
1
100
AcDbSymbolTableRecord
100
AcDbBlockTableRecord
  2
*D15
340
0
  0
BLOCK_RECORD
  5
CF0
330
1
100
AcDbSymbolTableRecord
100
AcDbBlockTableRecord
  2
*D16
340
0
  0
BLOCK_RECORD
  5
DDA
330
1
100
AcDbSymbolTableRecord
100
AcDbBlockTableRecord
  2
*D17
340
0
  0
BLOCK_RECORD
  5
EC4
330
1
100
AcDbSymbolTableRecord
100
AcDbBlockTableRecord
  2
*D18
340
0
  0
ENDTAB
  0
ENDSEC
  0
SECTION
  2
BLOCKS
  0
BLOCK
  5
6D
330
6C
100
AcDbEntity
  8
0
100
AcDbBlockBegin
  2
*Model_Space
 70
     0
 10
0.0
 20
0.0
 30
0.0
  3
*Model_Space
  1

  0
ENDBLK
  5
6E
330
6C
100
AcDbEntity
  8
0
100
AcDbBlockEnd
  0
BLOCK
  5
69
330
68
100
AcDbEntity
 67
     1
  8
0
100
AcDbBlockBegin
  2
*Paper_Space
 70
     0
 10
0.0
 20
0.0
 30
0.0
  3
*Paper_Space
  1

  0
ENDBLK
  5
6A
330
68
100
AcDbEntity
 67
     1
  8
0
100
AcDbBlockEnd
  0
BLOCK
  5
71
330
70
100
AcDbEntity
 67
     1
  8
0
100
AcDbBlockBegin
  2
*Paper_Space0
 70
     0
 10
0.0
 20
0.0
 30
0.0
  3
*Paper_Space0
  1

  0
ENDBLK
  5
72
330
70
100
AcDbEntity
 67
     1
  8
0
100
AcDbBlockEnd
  0
BLOCK
  5
FE
330
F9
100
AcDbEntity
  8
0
100
AcDbBlockBegin
  2
_Closed
 70
     0
 10
0.0
 20
0.0
 30
0.0
  3
_Closed
  1

  0
LINE
  5
FA
330
F9
100
AcDbEntity
  8
0
  6
ByBlock
 62
     0
370
    -2
100
AcDbLine
 10
-1.0
 20
0.1666666666666666
 30
0.0
 11
0.0
 21
0.0
 31
0.0
  0
LINE
  5
FB
330
F9
100
AcDbEntity
  8
0
  6
ByBlock
 62
     0
370
    -2
100
AcDbLine
 10
0.0
 20
0.0
 30
0.0
 11
-1.0
 21
-0.1666666666666666
 31
0.0
  0
LINE
  5
FC
330
F9
100
AcDbEntity
  8
0
  6
ByBlock
 62
     0
370
    -2
100
AcDbLine
 10
-1.0
 20
0.1666666666666666
 30
0.0
 11
-1.0
 21
-0.1666666666666666
 31
0.0
  0
LINE
  5
FD
330
F9
100
AcDbEntity
  8
0
  6
ByBlock
 62
     0
370
    -2
100
AcDbLine
 10
0.0
 20
0.0
 30
0.0
 11
-1.0
 21
0.0
 31
0.0
  0
ENDBLK
  5
FF
330
F9
100
AcDbEntity
  8
0
100
AcDbBlockEnd
  0
BLOCK
  5
101
330
100
100
AcDbEntity
  8
0
100
AcDbBlockBegin
  2
DatumFilled45
 70
     0
 10
0.0
 20
0.0
 30
0.0
  3
DatumFilled45
  1

  0
POLYLINE
  5
103
330
100
100
AcDbEntity
  8
0
 62
     0
100
AcDb2dPolyline
 66
     1
 10
0.0
 20
0.0
 30
0.0
 70
   128
  0
VERTEX
  5
104
330
103
100
AcDbEntity
  8
0
 62
     0
100
AcDbVertex
100
AcDb2dVertex
 10
0.0
 20
0.9999999999999998
 30
0.0
  0
VERTEX
  5
105
330
103
100
AcDbEntity
  8
0
 62
     0
100
AcDbVertex
100
AcDb2dVertex
 10
0.0
 20
-0.9999999999999998
 30
0.0
  0
VERTEX
  5
107
330
103
100
AcDbEntity
  8
0
 62
     0
100
AcDbVertex
100
AcDb2dVertex
 10
-0.9999999999999998
 20
0.0
 30
0.0
  0
VERTEX
  5
108
330
103
100
AcDbEntity
  8
0
 62
     0
100
AcDbVertex
100
AcDb2dVertex
 10
0.0
 20
0.9999999999999998
 30
0.0
  0
SEQEND
  5
106
330
103
100
AcDbEntity
  8
0
 62
     0
  0
SOLID
  5
10A
330
100
100
AcDbEntity
  8
0
 62
     0
100
AcDbTrace
 10
0.0
 20
0.9999999999999998
 30
0.0
 11
0.0
 21
-0.9999999999999998
 31
0.0
 12
-0.9999999999999998
 22
0.0
 32
0.0
 13
0.0
 23
0.9999999999999998
 33
0.0
  0
ENDBLK
  5
102
330
100
100
AcDbEntity
  8
0
100
AcDbBlockEnd
  0
BLOCK
  5
10D
330
10C
100
AcDbEntity
  8
0
100
AcDbBlockBegin
  2
Filled-1
 70
     0
 10
0.0
 20
0.0
 30
0.0
  3
Filled-1
  1

  0
LINE
  5
10F
330
10C
100
AcDbEntity
  8
0
 62
     0
100
AcDbLine
 10
-0.9999999999999998
 20
0.0
 30
0.0
 11
0.0
 21
0.0
 31
0.0
  0
POLYLINE
  5
110
330
10C
100
AcDbEntity
  8
0
 62
     0
100
AcDb2dPolyline
 66
     1
 10
0.0
 20
0.0
 30
0.0
 70
   128
  0
VERTEX
  5
111
330
110
100
AcDbEntity
  8
0
 62
     0
100
AcDbVertex
100
AcDb2dVertex
 10
-0.9999999999999998
 20
-0.0994897959183674
 30
0.0
  0
VERTEX
  5
112
330
110
100
AcDbEntity
  8
0
 62
     0
100
AcDbVertex
100
AcDb2dVertex
 10
0.0
 20
0.0
 30
0.0
  0
VERTEX
  5
114
330
110
100
AcDbEntity
  8
0
 62
     0
100
AcDbVertex
100
AcDb2dVertex
 10
-0.9999999999999998
 20
0.0994897959183674
 30
0.0
  0
VERTEX
  5
115
330
110
100
AcDbEntity
  8
0
 62
     0
100
AcDbVertex
100
AcDb2dVertex
 10
-0.9999999999999998
 20
-0.0994897959183674
 30
0.0
  0
SEQEND
  5
113
330
110
100
AcDbEntity
  8
0
 62
     0
  0
SOLID
  5
116
330
10C
100
AcDbEntity
  8
0
 62
     0
100
AcDbTrace
 10
-0.9999999999999998
 20
-0.0994897959183674
 30
0.0
 11
0.0
 21
0.0
 31
0.0
 12
-0.9999999999999998
 22
0.0994897959183674
 32
0.0
 13
-0.9999999999999998
 23
-0.0994897959183674
 33
0.0
  0
LINE
  5
117
330
10C
100
AcDbEntity
  8
0
 62
     0
100
AcDbLine
 10
-0.9999999999999998
 20
-0.0994897959183674
 30
0.0
 11
0.0
 21
0.0
 31
0.0
  0
LINE
  5
118
330
10C
100
AcDbEntity
  8
0
 62
     0
100
AcDbLine
 10
0.0
 20
0.0
 30
0.0
 11
-0.9999999999999998
 21
0.0994897959183674
 31
0.0
  0
LINE
  5
119
330
10C
100
AcDbEntity
  8
0
 62
     0
100
AcDbLine
 10
-0.9999999999999998
 20
0.0994897959183674
 30
0.0
 11
-0.9999999999999998
 21
-0.0994897959183674
 31
0.0
  0
ENDBLK
  5
10E
330
10C
100
AcDbEntity
  8
0
100
AcDbBlockEnd
  0
BLOCK
  5
201
330
200
100
AcDbEntity
  8
0
100
AcDbBlockBegin
  2
*D4
 70
     1
 10
0.0
 20
0.0
 30
0.0
  3
*D4
  1

  0
LINE
  5
2E0
330
200
100
AcDbEntity
  8
Dimension (ANSI)
100
AcDbLine
 10
50.76625355940539
 20
65.03964134388661
 30
0.0
 11
50.76625355940539
 21
72.07048123889973
 31
0.0
  0
LINE
  5
2E1
330
200
100
AcDbEntity
  8
Dimension (ANSI)
100
AcDbLine
 10
16.56625355940539
 20
65.0396413438866
 30
0.0
 11
16.56625355940539
 21
72.07048123889973
 31
0.0
  0
LINE
  5
2E2
330
200
100
AcDbEntity
  8
Dimension (ANSI)
100
AcDbLine
 10
50.11008559526482
 20
71.2371479055664
 30
0.0
 11
35.85717977235459
 21
71.2371479055664
 31
0.0
  0
LINE
  5
2E3
330
200
100
AcDbEntity
  8
Dimension (ANSI)
100
AcDbLine
 10
17.22242152354596
 20
71.2371479055664
 30
0.0
 11
31.4753273464562
 21
71.2371479055664
 31
0.0
  0
SOLID
  5
2E4
330
200
100
AcDbEntity
  8
Dimension (ANSI)
100
AcDbTrace
 10
50.11008559526482
 20
71.34650923292316
 30
0.0
 11
50.11008559526482
 21
71.12778657820964
 31
0.0
 12
50.76625355940539
 22
71.2371479055664
 32
0.0
 13
50.76625355940539
 23
71.2371479055664
 33
0.0
  0
SOLID
  5
2E5
330
200
100
AcDbEntity
  8
Dimension (ANSI)
100
AcDbTrace
 10
17.22242152354596
 20
71.34650923292316
 30
0.0
 11
17.22242152354596
 21
71.12778657820964
 31
0.0
 12
16.56625355940539
 22
71.2371479055664
 32
0.0
 13
16.56625355940539
 23
71.2371479055664
 33
0.0
  0
MTEXT
  5
2E6
330
200
100
AcDbEntity
  8
Dimension (ANSI)
100
AcDbMText
 10
31.68530109973703
 20
71.63714792146098
 30
0.0
 40
0.8000000317891439
 41
0.0
 71
     1
 72
     1
  1
\A1;34.200
  7
Note Text (ANSI)
 73
     1
 44
1.0
1001
ACAD
1000
MTEXTBEGIN
1070
    73
1070
     1
1070
    44
1040
1.0
1070
    74
1070
     0
1000
MTEXTEND
  0
POINT
  5
2E7
330
200
100
AcDbEntity
  8
Defpoints
 62
     0
100
AcDbPoint
 10
50.76625355940539
 20
64.62297467721994
 30
0.0
  0
POINT
  5
2E8
330
200
100
AcDbEntity
  8
Defpoints
 62
     0
100
AcDbPoint
 10
16.56625355940539
 20
64.62297467721993
 30
0.0
  0
POINT
  5
2E9
330
200
100
AcDbEntity
  8
Defpoints
 62
     0
100
AcDbPoint
 10
16.56625355940539
 20
71.2371479055664
 30
0.0
  0
ENDBLK
  5
202
330
200
100
AcDbEntity
  8
0
100
AcDbBlockEnd
  0
BLOCK
  5
2EC
330
2EB
100
AcDbEntity
  8
0
100
AcDbBlockBegin
  2
*D5
 70
     1
 10
0.0
 20
0.0
 30
0.0
  3
*D5
  1

  0
LINE
  5
3CA
330
2EB
100
AcDbEntity
  8
Dimension (ANSI)
100
AcDbLine
 10
16.64958689273872
 20
65.12297467721992
 30
0.0
 11
2.918767289939739
 21
65.12297467721992
 31
0.0
  0
LINE
  5
3CB
330
2EB
100
AcDbEntity
  8
Dimension (ANSI)
100
AcDbLine
 10
16.64958689273873
 20
18.92297467721992
 30
0.0
 11
2.918767289939728
 21
18.92297467721993
 31
0.0
  0
LINE
  5
3CC
330
2EB
100
AcDbEntity
  8
Dimension (ANSI)
100
AcDbLine
 10
3.752100623273072
 20
64.46680671307935
 30
0.0
 11
3.752100623273069
 21
50.0712286999092
 31
0.0
  0
LINE
  5
3CD
330
2EB
100
AcDbEntity
  8
Dimension (ANSI)
100
AcDbLine
 10
3.752100623273062
 20
19.5791426413605
 30
0.0
 11
3.752100623273069
 21
48.85128116155838
 31
0.0
  0
SOLID
  5
3CE
330
2EB
100
AcDbEntity
  8
Dimension (ANSI)
100
AcDbTrace
 10
3.64273929591631
 20
64.46680671307935
 30
0.0
 11
3.861461950629835
 21
64.46680671307935
 31
0.0
 12
3.752100623273073
 22
65.12297467721992
 32
0.0
 13
3.752100623273073
 23
65.12297467721992
 33
0.0
  0
SOLID
  5
3CF
330
2EB
100
AcDbEntity
  8
Dimension (ANSI)
100
AcDbTrace
 10
3.6427392959163
 20
19.5791426413605
 30
0.0
 11
3.861461950629825
 21
19.5791426413605
 31
0.0
 12
3.752100623273062
 22
18.92297467721993
 32
0.0
 13
3.752100623273062
 23
18.92297467721993
 33
0.0
  0
MTEXT
  5
3D0
330
2EB
100
AcDbEntity
  8
Dimension (ANSI)
100
AcDbMText
 10
1.771148163604705
 20
49.86125494662836
 30
0.0
 40
0.8000000317891439
 41
0.0
 71
     1
 72
     1
  1
\A1;46.200
  7
Note Text (ANSI)
 73
     1
 44
1.0
1001
ACAD
1000
MTEXTBEGIN
1070
    73
1070
     1
1070
    44
1040
1.0
1070
    74
1070
     0
1000
MTEXTEND
  0
POINT
  5
3D1
330
2EB
100
AcDbEntity
  8
Defpoints
 62
     0
100
AcDbPoint
 10
17.06625355940539
 20
65.12297467721992
 30
0.0
  0
POINT
  5
3D2
330
2EB
100
AcDbEntity
  8
Defpoints
 62
     0
100
AcDbPoint
 10
17.0662535594054
 20
18.92297467721992
 30
0.0
  0
POINT
  5
3D3
330
2EB
100
AcDbEntity
  8
Defpoints
 62
     0
100
AcDbPoint
 10
3.752100623273062
 20
18.92297467721993
 30
0.0
  0
ENDBLK
  5
2ED
330
2EB
100
AcDbEntity
  8
0
100
AcDbBlockEnd
  0
BLOCK
  5
3D6
330
3D5
100
AcDbEntity
  8
0
100
AcDbBlockBegin
  2
*D6
 70
     1
 10
0.0
 20
0.0
 30
0.0
  3
*D6
  1

  0
LINE
  5
486
330
3D5
100
AcDbEntity
  8
Dimension (ANSI)
100
AcDbLine
 10
25.28436358555307
 20
12.19278659316574
 30
0.0
 11
24.33644164346184
 21
12.19278659316574
 31
0.0
  0
LINE
  5
487
330
3D5
100
AcDbEntity
  8
Dimension (ANSI)
100
AcDbLine
 10
24.33644164346184
 20
12.19278659316574
 30
0.0
 11
17.72701107174331
 21
18.80221716488222
 31
0.0
  0
MTEXT
  5
488
102
{ACAD_XDICTIONARY
360
FFA
102
}
330
3D5
100
AcDbEntity
  8
Dimension (ANSI)
100
AcDbMText
 10
25.49433733883391
 20
12.8308818566166
 30
0.0
 40
0.8000000317891439
 41
0.0
 71
     1
 72
     1
  1
\A1;\U+22050.500{\PTYP.(8PL.)}
  7
Note Text (ANSI)
 73
     1
 44
1.0
1001
ACAD
1000
MTEXTBEGIN
1070
    73
1070
     1
1070
    44
1040
1.0
1070
    74
1070
     0
1000
MTEXTEND
  0
SOLID
  5
489
330
3D5
100
AcDbEntity
  8
Dimension (ANSI)
100
AcDbTrace
 10
17.80434120791682
 20
18.87954730105576
 30
0.0
 11
17.64968093556979
 21
18.72488702870868
 31
0.0
 12
17.26303025470206
 22
19.26619798192331
 32
0.0
 13
17.26303025470206
 23
19.26619798192331
 33
0.0
  0
LINE
  5
48A
330
3D5
100
AcDbEntity
  8
Dimension (ANSI)
100
AcDbLine
 10
16.4862535594054
 20
19.44297467721993
 30
0.0
 11
17.6862535594054
 21
19.44297467721993
 31
0.0
  0
LINE
  5
48B
330
3D5
100
AcDbEntity
  8
Dimension (ANSI)
100
AcDbLine
 10
17.0862535594054
 20
18.84297467721992
 30
0.0
 11
17.0862535594054
 21
20.04297467721993
 31
0.0
  0
POINT
  5
48C
330
3D5
100
AcDbEntity
  8
Defpoints
 62
     0
100
AcDbPoint
 10
17.26303025470206
 20
19.26619798192331
 30
0.0
  0
POINT
  5
48D
330
3D5
100
AcDbEntity
  8
Defpoints
 62
     0
100
AcDbPoint
 10
16.90947686410873
 20
19.61975137251654
 30
0.0
  0
ENDBLK
  5
3D7
330
3D5
100
AcDbEntity
  8
0
100
AcDbBlockEnd
  0
BLOCK
  5
490
330
48F
100
AcDbEntity
  8
0
100
AcDbBlockBegin
  2
*D7
 70
     1
 10
0.0
 20
0.0
 30
0.0
  3
*D7
  1

  0
LINE
  5
53F
330
48F
100
AcDbEntity
  8
Dimension (ANSI)
100
AcDbLine
 10
25.16639057280744
 20
17.12588290590513
 30
0.0
 11
24.21846863071655
 21
17.12588290590513
 31
0.0
  0
LINE
  5
540
330
48F
100
AcDbEntity
  8
Dimension (ANSI)
100
AcDbLine
 10
24.21846863071655
 20
17.12588290590513
 30
0.0
 11
17.83258782317966
 21
19.87202590377648
 31
0.0
  0
MTEXT
  5
541
102
{ACAD_XDICTIONARY
360
FFC
102
}
330
48F
100
AcDbEntity
  8
Dimension (ANSI)
100
AcDbMText
 10
25.37636432608828
 20
17.763978169356
 30
0.0
 40
0.8000000317891439
 41
0.0
 71
     1
 72
     1
  1
\A1;\U+22050.313{\PTYP.(4PL.)}
  7
Note Text (ANSI)
 73
     1
 44
1.0
1001
ACAD
1000
MTEXTBEGIN
1070
    73
1070
     1
1070
    44
1040
1.0
1070
    74
1070
     0
1000
MTEXTEND
  0
SOLID
  5
542
330
48F
100
AcDbEntity
  8
Dimension (ANSI)
100
AcDbTrace
 10
17.87579142702221
 20
19.97249156226856
 30
0.0
 11
17.78938421933711
 21
19.77156024528439
 31
0.0
 12
17.22979387222713
 22
20.13124752683179
 32
0.0
 13
17.22979387222713
 23
20.13124752683179
 33
0.0
  0
LINE
  5
543
330
48F
100
AcDbEntity
  8
Dimension (ANSI)
100
AcDbLine
 10
16.48625355940541
 20
20.19297467721994
 30
0.0
 11
17.68625355940541
 21
20.19297467721995
 31
0.0
  0
LINE
  5
544
330
48F
100
AcDbEntity
  8
Dimension (ANSI)
100
AcDbLine
 10
17.08625355940541
 20
19.59297467721994
 30
0.0
 11
17.08625355940541
 21
20.79297467721994
 31
0.0
  0
POINT
  5
545
330
48F
100
AcDbEntity
  8
Defpoints
 62
     0
100
AcDbPoint
 10
17.22979387222713
 20
20.13124752683179
 30
0.0
  0
POINT
  5
546
330
48F
100
AcDbEntity
  8
Defpoints
 62
     0
100
AcDbPoint
 10
16.94271324658368
 20
20.25470182760809
 30
0.0
  0
ENDBLK
  5
491
330
48F
100
AcDbEntity
  8
0
100
AcDbBlockEnd
  0
BLOCK
  5
549
330
548
100
AcDbEntity
  8
0
100
AcDbBlockBegin
  2
*D8
 70
     1
 10
0.0
 20
0.0
 30
0.0
  3
*D8
  1

  0
LINE
  5
63B
330
548
100
AcDbEntity
  8
Dimension (ANSI)
100
AcDbLine
 10
75.21798153008915
 20
48.67773939584546
 30
0.0
 11
75.21798153008915
 21
64.8819314107441
 31
0.0
  0
LINE
  5
63C
330
548
100
AcDbEntity
  8
Dimension (ANSI)
100
AcDbLine
 10
75.31173153008913
 20
48.67773939584544
 30
0.0
 11
75.31173153008913
 21
64.8819314107441
 31
0.0
  0
LINE
  5
63D
330
548
100
AcDbEntity
  8
Dimension (ANSI)
100
AcDbLine
 10
75.96789949422971
 20
64.04859807741077
 30
0.0
 11
76.62406745837028
 21
64.04859807741077
 31
0.0
  0
LINE
  5
63E
330
548
100
AcDbEntity
  8
Dimension (ANSI)
100
AcDbLine
 10
74.56181356594857
 20
64.04859807741077
 30
0.0
 11
73.20822653763698
 21
64.04859807741077
 31
0.0
  0
SOLID
  5
63F
330
548
100
AcDbEntity
  8
Dimension (ANSI)
100
AcDbTrace
 10
75.96789949422971
 20
64.15795940476754
 30
0.0
 11
75.96789949422971
 21
63.939236750054
 31
0.0
 12
75.31173153008913
 22
64.04859807741077
 32
0.0
 13
75.31173153008913
 23
64.04859807741077
 33
0.0
  0
SOLID
  5
640
330
548
100
AcDbEntity
  8
Dimension (ANSI)
100
AcDbTrace
 10
74.56181356594857
 20
64.15795940476754
 30
0.0
 11
74.56181356594857
 21
63.939236750054
 31
0.0
 12
75.21798153008915
 22
64.04859807741077
 32
0.0
 13
75.21798153008915
 23
64.04859807741077
 33
0.0
  0
MTEXT
  5
641
330
548
100
AcDbEntity
  8
Dimension (ANSI)
100
AcDbMText
 10
68.16015735401228
 20
64.58193143193686
 30
0.0
 40
0.8000000317891439
 41
0.0
 71
     1
 72
     1
  1
\A1; 12 GA.\P304 SS
  7
Note Text (ANSI)
 73
     1
 44
1.0
1001
ACAD
1000
MTEXTBEGIN
1070
    73
1070
     1
1070
    44
1040
1.0
1070
    74
1070
     0
1000
MTEXTEND
  0
POINT
  5
642
330
548
100
AcDbEntity
  8
Defpoints
 62
     0
100
AcDbPoint
 10
75.21798153008915
 20
48.2610727291788
 30
0.0
  0
POINT
  5
643
330
548
100
AcDbEntity
  8
Defpoints
 62
     0
100
AcDbPoint
 10
75.31173153008913
 20
48.26107272917878
 30
0.0
  0
POINT
  5
644
330
548
100
AcDbEntity
  8
Defpoints
 62
     0
100
AcDbPoint
 10
75.31173153008913
 20
64.04859807741077
 30
0.0
  0
ENDBLK
  5
54A
330
548
100
AcDbEntity
  8
0
100
AcDbBlockEnd
  0
BLOCK
  5
647
330
646
100
AcDbEntity
  8
0
100
AcDbBlockBegin
  2
*D9
 70
     1
 10
0.0
 20
0.0
 30
0.0
  3
*D9
  1

  0
LINE
  5
725
330
646
100
AcDbEntity
  8
Dimension (ANSI)
100
AcDbLine
 10
16.66958689273873
 20
64.60297467721992
 30
0.0
 11
6.70464284261247
 21
64.60297467721992
 31
0.0
  0
LINE
  5
726
330
646
100
AcDbEntity
  8
Dimension (ANSI)
100
AcDbLine
 10
16.66958689273873
 20
19.44297467721993
 30
0.0
 11
6.70464284261246
 21
19.44297467721993
 31
0.0
  0
LINE
  5
727
330
646
100
AcDbEntity
  8
Dimension (ANSI)
100
AcDbLine
 10
7.537976175945805
 20
63.94680671307934
 30
0.0
 11
7.537976175945801
 21
47.43463676300109
 31
0.0
  0
LINE
  5
728
330
646
100
AcDbEntity
  8
Dimension (ANSI)
100
AcDbLine
 10
7.537976175945795
 20
20.09914264136051
 30
0.0
 11
7.537976175945801
 21
46.21468922465027
 31
0.0
  0
SOLID
  5
729
330
646
100
AcDbEntity
  8
Dimension (ANSI)
100
AcDbTrace
 10
7.428614848589043
 20
63.94680671307934
 30
0.0
 11
7.647337503302567
 21
63.94680671307934
 31
0.0
 12
7.537976175945805
 22
64.60297467721992
 32
0.0
 13
7.537976175945805
 23
64.60297467721992
 33
0.0
  0
SOLID
  5
72A
330
646
100
AcDbEntity
  8
Dimension (ANSI)
100
AcDbTrace
 10
7.428614848589033
 20
20.09914264136051
 30
0.0
 11
7.647337503302557
 21
20.09914264136051
 31
0.0
 12
7.537976175945795
 22
19.44297467721993
 32
0.0
 13
7.537976175945795
 23
19.44297467721993
 33
0.0
  0
MTEXT
  5
72B
330
646
100
AcDbEntity
  8
Dimension (ANSI)
100
AcDbMText
 10
5.557023716277437
 20
47.22466300972025
 30
0.0
 40
0.8000000317891439
 41
0.0
 71
     1
 72
     1
  1
\A1;45.160
  7
Note Text (ANSI)
 73
     1
 44
1.0
1001
ACAD
1000
MTEXTBEGIN
1070
    73
1070
     1
1070
    44
1040
1.0
1070
    74
1070
     0
1000
MTEXTEND
  0
POINT
  5
72C
330
646
100
AcDbEntity
  8
Defpoints
 62
     0
100
AcDbPoint
 10
17.0862535594054
 20
64.60297467721992
 30
0.0
  0
POINT
  5
72D
330
646
100
AcDbEntity
  8
Defpoints
 62
     0
100
AcDbPoint
 10
17.0862535594054
 20
19.44297467721993
 30
0.0
  0
POINT
  5
72E
330
646
100
AcDbEntity
  8
Defpoints
 62
     0
100
AcDbPoint
 10
7.537976175945795
 20
19.44297467721993
 30
0.0
  0
ENDBLK
  5
648
330
646
100
AcDbEntity
  8
0
100
AcDbBlockEnd
  0
BLOCK
  5
731
330
730
100
AcDbEntity
  8
0
100
AcDbBlockBegin
  2
*D10
 70
     1
 10
0.0
 20
0.0
 30
0.0
  3
*D10
  1

  0
LINE
  5
824
330
730
100
AcDbEntity
  8
Dimension (ANSI)
100
AcDbLine
 10
16.66958689273873
 20
20.19297467721993
 30
0.0
 11
10.45879539036686
 21
20.19297467721993
 31
0.0
  0
LINE
  5
825
330
730
100
AcDbEntity
  8
Dimension (ANSI)
100
AcDbLine
 10
16.66958689273873
 20
19.44297467721993
 30
0.0
 11
10.45879539036686
 21
19.44297467721993
 31
0.0
  0
LINE
  5
826
330
730
100
AcDbEntity
  8
Dimension (ANSI)
100
AcDbLine
 10
11.29212872370019
 20
18.78680671307935
 30
0.0
 11
11.29212872370019
 21
18.13063874893878
 31
0.0
  0
LINE
  5
827
330
730
100
AcDbEntity
  8
Dimension (ANSI)
100
AcDbLine
 10
11.29212872370019
 20
20.84914264136051
 30
0.0
 11
11.29212872370019
 21
22.62954145902652
 31
0.0
  0
LINE
  5
828
330
730
100
AcDbEntity
  8
Dimension (ANSI)
100
AcDbLine
 10
11.29212872370019
 20
22.62954145902652
 30
0.0
 11
11.94829668784076
 21
22.62954145902652
 31
0.0
  0
SOLID
  5
829
330
730
100
AcDbEntity
  8
Dimension (ANSI)
100
AcDbTrace
 10
11.18276739634343
 20
18.78680671307935
 30
0.0
 11
11.40149005105695
 21
18.78680671307935
 31
0.0
 12
11.29212872370019
 22
19.44297467721993
 32
0.0
 13
11.29212872370019
 23
19.44297467721993
 33
0.0
  0
SOLID
  5
82A
330
730
100
AcDbEntity
  8
Dimension (ANSI)
100
AcDbTrace
 10
11.18276739634343
 20
20.84914264136051
 30
0.0
 11
11.40149005105695
 21
20.84914264136051
 31
0.0
 12
11.29212872370019
 22
20.19297467721993
 32
0.0
 13
11.29212872370019
 23
20.19297467721993
 33
0.0
  0
MTEXT
  5
82B
330
730
100
AcDbEntity
  8
Dimension (ANSI)
100
AcDbMText
 10
12.1582704411216
 20
23.02954147492109
 30
0.0
 40
0.8000000317891439
 41
0.0
 71
     1
 72
     1
  1
\A1;0.750
  7
Note Text (ANSI)
 73
     1
 44
1.0
1001
ACAD
1000
MTEXTBEGIN
1070
    73
1070
     1
1070
    44
1040
1.0
1070
    74
1070
     0
1000
MTEXTEND
  0
POINT
  5
82C
330
730
100
AcDbEntity
  8
Defpoints
 62
     0
100
AcDbPoint
 10
17.0862535594054
 20
20.19297467721993
 30
0.0
  0
POINT
  5
82D
330
730
100
AcDbEntity
  8
Defpoints
 62
     0
100
AcDbPoint
 10
17.0862535594054
 20
19.44297467721993
 30
0.0
  0
POINT
  5
82E
330
730
100
AcDbEntity
  8
Defpoints
 62
     0
100
AcDbPoint
 10
11.29212872370019
 20
19.44297467721993
 30
0.0
  0
ENDBLK
  5
732
330
730
100
AcDbEntity
  8
0
100
AcDbBlockEnd
  0
BLOCK
  5
831
330
830
100
AcDbEntity
  8
0
100
AcDbBlockBegin
  2
*D11
 70
     1
 10
0.0
 20
0.0
 30
0.0
  3
*D11
  1

  0
LINE
  5
90F
330
830
100
AcDbEntity
  8
Dimension (ANSI)
100
AcDbLine
 10
50.2462535594054
 20
65.01964134388661
 30
0.0
 11
50.2462535594054
 21
70.00887315238914
 31
0.0
  0
LINE
  5
910
330
830
100
AcDbEntity
  8
Dimension (ANSI)
100
AcDbLine
 10
17.0862535594054
 20
65.01964134388659
 30
0.0
 11
17.0862535594054
 21
70.00887315238914
 31
0.0
  0
LINE
  5
911
330
830
100
AcDbEntity
  8
Dimension (ANSI)
100
AcDbLine
 10
49.59008559526483
 20
69.17553981905581
 30
0.0
 11
35.85717977235461
 21
69.17553981905581
 31
0.0
  0
LINE
  5
912
330
830
100
AcDbEntity
  8
Dimension (ANSI)
100
AcDbLine
 10
17.74242152354597
 20
69.17553981905581
 30
0.0
 11
31.47532734645622
 21
69.17553981905581
 31
0.0
  0
SOLID
  5
913
330
830
100
AcDbEntity
  8
Dimension (ANSI)
100
AcDbTrace
 10
49.59008559526483
 20
69.28490114641258
 30
0.0
 11
49.59008559526483
 21
69.06617849169904
 31
0.0
 12
50.2462535594054
 22
69.17553981905581
 32
0.0
 13
50.2462535594054
 23
69.17553981905581
 33
0.0
  0
SOLID
  5
914
330
830
100
AcDbEntity
  8
Dimension (ANSI)
100
AcDbTrace
 10
17.74242152354597
 20
69.28490114641258
 30
0.0
 11
17.74242152354597
 21
69.06617849169904
 31
0.0
 12
17.0862535594054
 22
69.17553981905581
 32
0.0
 13
17.0862535594054
 23
69.17553981905581
 33
0.0
  0
MTEXT
  5
915
330
830
100
AcDbEntity
  8
Dimension (ANSI)
100
AcDbMText
 10
31.68530109973706
 20
69.57553983495039
 30
0.0
 40
0.8000000317891439
 41
0.0
 71
     1
 72
     1
  1
\A1;33.160
  7
Note Text (ANSI)
 73
     1
 44
1.0
1001
ACAD
1000
MTEXTBEGIN
1070
    73
1070
     1
1070
    44
1040
1.0
1070
    74
1070
     0
1000
MTEXTEND
  0
POINT
  5
916
330
830
100
AcDbEntity
  8
Defpoints
 62
     0
100
AcDbPoint
 10
50.2462535594054
 20
64.60297467721993
 30
0.0
  0
POINT
  5
917
330
830
100
AcDbEntity
  8
Defpoints
 62
     0
100
AcDbPoint
 10
17.0862535594054
 20
64.60297467721992
 30
0.0
  0
POINT
  5
918
330
830
100
AcDbEntity
  8
Defpoints
 62
     0
100
AcDbPoint
 10
17.0862535594054
 20
69.17553981905581
 30
0.0
  0
ENDBLK
  5
832
330
830
100
AcDbEntity
  8
0
100
AcDbBlockEnd
  0
BLOCK
  5
91B
330
91A
100
AcDbEntity
  8
0
100
AcDbBlockBegin
  2
*D12
 70
     1
 10
0.0
 20
0.0
 30
0.0
  3
*D12
  1

  0
LINE
  5
A0E
330
91A
100
AcDbEntity
  8
Dimension (ANSI)
100
AcDbLine
 10
51.18292022607207
 20
19.42297467721993
 30
0.0
 11
51.80080041339323
 21
19.42297467721993
 31
0.0
  0
LINE
  5
A0F
330
91A
100
AcDbEntity
  8
Dimension (ANSI)
100
AcDbLine
 10
50.68292022607206
 20
18.92297467721992
 30
0.0
 11
51.80080041339323
 21
18.92297467721992
 31
0.0
  0
LINE
  5
A10
330
91A
100
AcDbEntity
  8
Dimension (ANSI)
100
AcDbLine
 10
50.9674670800599
 20
18.26680671307935
 30
0.0
 11
50.9674670800599
 21
17.61063874893878
 31
0.0
  0
LINE
  5
A11
330
91A
100
AcDbEntity
  8
Dimension (ANSI)
100
AcDbLine
 10
50.9674670800599
 20
20.07914264136051
 30
0.0
 11
50.9674670800599
 21
21.32344092331279
 31
0.0
  0
LINE
  5
A12
330
91A
100
AcDbEntity
  8
Dimension (ANSI)
100
AcDbLine
 10
50.9674670800599
 20
21.32344092331279
 30
0.0
 11
51.62363504420047
 21
21.32344092331279
 31
0.0
  0
SOLID
  5
A13
330
91A
100
AcDbEntity
  8
Dimension (ANSI)
100
AcDbTrace
 10
50.85810575270313
 20
18.26680671307935
 30
0.0
 11
51.07682840741667
 21
18.26680671307935
 31
0.0
 12
50.9674670800599
 22
18.92297467721992
 32
0.0
 13
50.9674670800599
 23
18.92297467721992
 33
0.0
  0
SOLID
  5
A14
330
91A
100
AcDbEntity
  8
Dimension (ANSI)
100
AcDbTrace
 10
50.85810575270313
 20
20.07914264136051
 30
0.0
 11
51.07682840741667
 21
20.07914264136051
 31
0.0
 12
50.9674670800599
 22
19.42297467721993
 32
0.0
 13
50.9674670800599
 23
19.42297467721993
 33
0.0
  0
MTEXT
  5
A15
330
91A
100
AcDbEntity
  8
Dimension (ANSI)
100
AcDbMText
 10
51.8336087974813
 20
21.72344093920737
 30
0.0
 40
0.8000000317891439
 41
0.0
 71
     1
 72
     1
  1
\A1;0.500
  7
Note Text (ANSI)
 73
     1
 44
1.0
1001
ACAD
1000
MTEXTBEGIN
1070
    73
1070
     1
1070
    44
1040
1.0
1070
    74
1070
     0
1000
MTEXTEND
  0
POINT
  5
A16
330
91A
100
AcDbEntity
  8
Defpoints
 62
     0
100
AcDbPoint
 10
50.7662535594054
 20
19.42297467721993
 30
0.0
  0
POINT
  5
A17
330
91A
100
AcDbEntity
  8
Defpoints
 62
     0
100
AcDbPoint
 10
50.2662535594054
 20
18.92297467721992
 30
0.0
  0
POINT
  5
A18
330
91A
100
AcDbEntity
  8
Defpoints
 62
     0
100
AcDbPoint
 10
50.9674670800599
 20
18.92297467721992
 30
0.0
  0
ENDBLK
  5
91C
330
91A
100
AcDbEntity
  8
0
100
AcDbBlockEnd
  0
BLOCK
  5
A1B
330
A1A
100
AcDbEntity
  8
0
100
AcDbBlockBegin
  2
*D13
 70
     1
 10
0.0
 20
0.0
 30
0.0
  3
*D13
  1

  0
LINE
  5
AF9
330
A1A
100
AcDbEntity
  8
Dimension (ANSI)
100
AcDbLine
 10
50.7662535594054
 20
19.00630801055326
 30
0.0
 11
50.7662535594054
 21
16.23580109208945
 31
0.0
  0
LINE
  5
AFA
330
A1A
100
AcDbEntity
  8
Dimension (ANSI)
100
AcDbLine
 10
50.2662535594054
 20
18.50630801055326
 30
0.0
 11
50.2662535594054
 21
16.23580109208945
 31
0.0
  0
LINE
  5
AFB
330
A1A
100
AcDbEntity
  8
Dimension (ANSI)
100
AcDbLine
 10
51.42242152354597
 20
17.06913442542278
 30
0.0
 11
52.07858948768655
 21
17.06913442542278
 31
0.0
  0
LINE
  5
AFC
330
A1A
100
AcDbEntity
  8
Dimension (ANSI)
100
AcDbLine
 10
49.61008559526483
 20
17.06913442542278
 30
0.0
 11
48.1567514278607
 21
17.06913442542278
 31
0.0
  0
SOLID
  5
AFD
330
A1A
100
AcDbEntity
  8
Dimension (ANSI)
100
AcDbTrace
 10
51.42242152354597
 20
17.17849575277955
 30
0.0
 11
51.42242152354597
 21
16.95977309806602
 31
0.0
 12
50.7662535594054
 22
17.06913442542278
 32
0.0
 13
50.7662535594054
 23
17.06913442542278
 33
0.0
  0
SOLID
  5
AFE
330
A1A
100
AcDbEntity
  8
Dimension (ANSI)
100
AcDbTrace
 10
49.61008559526483
 20
17.17849575277955
 30
0.0
 11
49.61008559526483
 21
16.95977309806602
 31
0.0
 12
50.2662535594054
 22
17.06913442542278
 32
0.0
 13
50.2662535594054
 23
17.06913442542278
 33
0.0
  0
MTEXT
  5
AFF
330
A1A
100
AcDbEntity
  8
Dimension (ANSI)
100
AcDbMText
 10
44.74677754742329
 20
17.46913444131736
 30
0.0
 40
0.8000000317891439
 41
0.0
 71
     1
 72
     1
  1
\A1;0.500
  7
Note Text (ANSI)
 73
     1
 44
1.0
1001
ACAD
1000
MTEXTBEGIN
1070
    73
1070
     1
1070
    44
1040
1.0
1070
    74
1070
     0
1000
MTEXTEND
  0
POINT
  5
B00
330
A1A
100
AcDbEntity
  8
Defpoints
 62
     0
100
AcDbPoint
 10
50.7662535594054
 20
19.42297467721993
 30
0.0
  0
POINT
  5
B01
330
A1A
100
AcDbEntity
  8
Defpoints
 62
     0
100
AcDbPoint
 10
50.2662535594054
 20
18.92297467721992
 30
0.0
  0
POINT
  5
B02
330
A1A
100
AcDbEntity
  8
Defpoints
 62
     0
100
AcDbPoint
 10
50.2662535594054
 20
17.06913442542278
 30
0.0
  0
ENDBLK
  5
A1C
330
A1A
100
AcDbEntity
  8
0
100
AcDbBlockEnd
  0
BLOCK
  5
B05
330
B04
100
AcDbEntity
  8
0
100
AcDbBlockBegin
  2
*D14
 70
     1
 10
0.0
 20
0.0
 30
0.0
  3
*D14
  1

  0
LINE
  5
BE3
330
B04
100
AcDbEntity
  8
Dimension (ANSI)
100
AcDbLine
 10
50.2462535594054
 20
65.01964134388661
 30
0.0
 11
50.2462535594054
 21
68.22453583695741
 31
0.0
  0
LINE
  5
BE4
330
B04
100
AcDbEntity
  8
Dimension (ANSI)
100
AcDbLine
 10
50.76625355940539
 20
65.03964134388661
 30
0.0
 11
50.76625355940539
 21
68.22453583695741
 31
0.0
  0
LINE
  5
BE5
330
B04
100
AcDbEntity
  8
Dimension (ANSI)
100
AcDbLine
 10
51.42242152354596
 20
67.39120250362408
 30
0.0
 11
52.07858948768654
 21
67.39120250362408
 31
0.0
  0
LINE
  5
BE6
330
B04
100
AcDbEntity
  8
Dimension (ANSI)
100
AcDbLine
 10
49.59008559526483
 20
67.39120250362408
 30
0.0
 11
48.93391763112425
 21
67.39120250362408
 31
0.0
  0
SOLID
  5
BE7
330
B04
100
AcDbEntity
  8
Dimension (ANSI)
100
AcDbTrace
 10
51.42242152354596
 20
67.50056383098085
 30
0.0
 11
51.42242152354596
 21
67.28184117626732
 31
0.0
 12
50.76625355940539
 22
67.39120250362408
 32
0.0
 13
50.76625355940539
 23
67.39120250362408
 33
0.0
  0
SOLID
  5
BE8
330
B04
100
AcDbEntity
  8
Dimension (ANSI)
100
AcDbTrace
 10
49.59008559526483
 20
67.50056383098085
 30
0.0
 11
49.59008559526483
 21
67.28184117626732
 31
0.0
 12
50.2462535594054
 22
67.39120250362408
 32
0.0
 13
50.2462535594054
 23
67.39120250362408
 33
0.0
  0
MTEXT
  5
BE9
330
B04
100
AcDbEntity
  8
Dimension (ANSI)
100
AcDbMText
 10
45.52394375068684
 20
67.79120251951866
 30
0.0
 40
0.8000000317891439
 41
0.0
 71
     1
 72
     1
  1
\A1;0.520
  7
Note Text (ANSI)
 73
     1
 44
1.0
1001
ACAD
1000
MTEXTBEGIN
1070
    73
1070
     1
1070
    44
1040
1.0
1070
    74
1070
     0
1000
MTEXTEND
  0
POINT
  5
BEA
330
B04
100
AcDbEntity
  8
Defpoints
 62
     0
100
AcDbPoint
 10
50.2462535594054
 20
64.60297467721993
 30
0.0
  0
POINT
  5
BEB
330
B04
100
AcDbEntity
  8
Defpoints
 62
     0
100
AcDbPoint
 10
50.76625355940539
 20
64.62297467721994
 30
0.0
  0
POINT
  5
BEC
330
B04
100
AcDbEntity
  8
Defpoints
 62
     0
100
AcDbPoint
 10
50.76625355940539
 20
67.39120250362408
 30
0.0
  0
ENDBLK
  5
B06
330
B04
100
AcDbEntity
  8
0
100
AcDbBlockEnd
  0
BLOCK
  5
BEF
330
BEE
100
AcDbEntity
  8
0
100
AcDbBlockBegin
  2
*D15
 70
     1
 10
0.0
 20
0.0
 30
0.0
  3
*D15
  1

  0
LINE
  5
CE2
330
BEE
100
AcDbEntity
  8
Dimension (ANSI)
100
AcDbLine
 10
50.66292022607207
 20
64.60297467721993
 30
0.0
 11
57.19151246629266
 21
64.60297467721993
 31
0.0
  0
LINE
  5
CE3
330
BEE
100
AcDbEntity
  8
Dimension (ANSI)
100
AcDbLine
 10
50.68292022607206
 20
65.12297467721992
 30
0.0
 11
57.19151246629266
 21
65.12297467721992
 31
0.0
  0
LINE
  5
CE4
330
BEE
100
AcDbEntity
  8
Dimension (ANSI)
100
AcDbLine
 10
56.35817913295933
 20
65.77914264136051
 30
0.0
 11
56.35817913295933
 21
66.43531060550107
 31
0.0
  0
LINE
  5
CE5
330
BEE
100
AcDbEntity
  8
Dimension (ANSI)
100
AcDbLine
 10
56.35817913295933
 20
63.94680671307936
 30
0.0
 11
56.35817913295933
 21
62.70250843112707
 31
0.0
  0
LINE
  5
CE6
330
BEE
100
AcDbEntity
  8
Dimension (ANSI)
100
AcDbLine
 10
56.35817913295933
 20
62.70250843112707
 30
0.0
 11
55.70201116881875
 21
62.70250843112707
 31
0.0
  0
SOLID
  5
CE7
330
BEE
100
AcDbEntity
  8
Dimension (ANSI)
100
AcDbTrace
 10
56.24881780560256
 20
65.77914264136051
 30
0.0
 11
56.4675404603161
 21
65.77914264136051
 31
0.0
 12
56.35817913295933
 22
65.12297467721992
 32
0.0
 13
56.35817913295933
 23
65.12297467721992
 33
0.0
  0
SOLID
  5
CE8
330
BEE
100
AcDbEntity
  8
Dimension (ANSI)
100
AcDbTrace
 10
56.24881780560256
 20
63.94680671307936
 30
0.0
 11
56.4675404603161
 21
63.94680671307936
 31
0.0
 12
56.35817913295933
 22
64.60297467721993
 32
0.0
 13
56.35817913295933
 23
64.60297467721993
 33
0.0
  0
MTEXT
  5
CE9
330
BEE
100
AcDbEntity
  8
Dimension (ANSI)
100
AcDbMText
 10
52.29203728838133
 20
63.10250844702165
 30
0.0
 40
0.8000000317891439
 41
0.0
 71
     1
 72
     1
  1
\A1;0.520
  7
Note Text (ANSI)
 73
     1
 44
1.0
1001
ACAD
1000
MTEXTBEGIN
1070
    73
1070
     1
1070
    44
1040
1.0
1070
    74
1070
     0
1000
MTEXTEND
  0
POINT
  5
CEA
330
BEE
100
AcDbEntity
  8
Defpoints
 62
     0
100
AcDbPoint
 10
50.2462535594054
 20
64.60297467721993
 30
0.0
  0
POINT
  5
CEB
330
BEE
100
AcDbEntity
  8
Defpoints
 62
     0
100
AcDbPoint
 10
50.26625355940539
 20
65.12297467721992
 30
0.0
  0
POINT
  5
CEC
330
BEE
100
AcDbEntity
  8
Defpoints
 62
     0
100
AcDbPoint
 10
56.35817913295933
 20
65.12297467721992
 30
0.0
  0
ENDBLK
  5
BF0
330
BEE
100
AcDbEntity
  8
0
100
AcDbBlockEnd
  0
BLOCK
  5
CF1
330
CF0
100
AcDbEntity
  8
0
100
AcDbBlockBegin
  2
*D16
 70
     1
 10
0.0
 20
0.0
 30
0.0
  3
*D16
  1

  0
LINE
  5
DCF
330
CF0
100
AcDbEntity
  8
Dimension (ANSI)
100
AcDbLine
 10
75.21798153008899
 20
65.5396413438866
 30
0.0
 11
75.21798153008899
 21
68.58097992656375
 31
0.0
  0
LINE
  5
DD0
330
CF0
100
AcDbEntity
  8
Dimension (ANSI)
100
AcDbLine
 10
75.99198153008863
 20
65.5396413438866
 30
0.0
 11
75.99198153008863
 21
68.58097992656375
 31
0.0
  0
LINE
  5
DD1
330
CF0
100
AcDbEntity
  8
Dimension (ANSI)
100
AcDbLine
 10
74.56181356594841
 20
67.74764659323043
 30
0.0
 11
73.90564560180784
 21
67.74764659323043
 31
0.0
  0
LINE
  5
DD2
330
CF0
100
AcDbEntity
  8
Dimension (ANSI)
100
AcDbLine
 10
76.64814949422922
 20
67.74764659323043
 30
0.0
 11
77.37766006110643
 21
67.74764659323043
 31
0.0
  0
SOLID
  5
DD3
330
CF0
100
AcDbEntity
  8
Dimension (ANSI)
100
AcDbTrace
 10
74.56181356594841
 20
67.85700792058719
 30
0.0
 11
74.56181356594841
 21
67.63828526587366
 31
0.0
 12
75.21798153008899
 22
67.74764659323043
 32
0.0
 13
75.21798153008899
 23
67.74764659323043
 33
0.0
  0
SOLID
  5
DD4
330
CF0
100
AcDbEntity
  8
Dimension (ANSI)
100
AcDbTrace
 10
76.64814949422922
 20
67.85700792058719
 30
0.0
 11
76.64814949422922
 21
67.63828526587366
 31
0.0
 12
75.99198153008863
 22
67.74764659323043
 32
0.0
 13
75.99198153008863
 23
67.74764659323043
 33
0.0
  0
MTEXT
  5
DD5
330
CF0
100
AcDbEntity
  8
Dimension (ANSI)
100
AcDbMText
 10
77.58763381438726
 20
68.147646609125
 30
0.0
 40
0.8000000317891439
 41
0.0
 71
     1
 72
     1
  1
\A1;0.774
  7
Note Text (ANSI)
 73
     1
 44
1.0
1001
ACAD
1000
MTEXTBEGIN
1070
    73
1070
     1
1070
    44
1040
1.0
1070
    74
1070
     0
1000
MTEXTEND
  0
POINT
  5
DD6
330
CF0
100
AcDbEntity
  8
Defpoints
 62
     0
100
AcDbPoint
 10
75.21798153008899
 20
65.12297467721992
 30
0.0
  0
POINT
  5
DD7
330
CF0
100
AcDbEntity
  8
Defpoints
 62
     0
100
AcDbPoint
 10
75.99198153008863
 20
65.12297467721992
 30
0.0
  0
POINT
  5
DD8
330
CF0
100
AcDbEntity
  8
Defpoints
 62
     0
100
AcDbPoint
 10
75.99198153008863
 20
67.74764659323043
 30
0.0
  0
ENDBLK
  5
CF2
330
CF0
100
AcDbEntity
  8
0
100
AcDbBlockEnd
  0
BLOCK
  5
DDB
330
DDA
100
AcDbEntity
  8
0
100
AcDbBlockBegin
  2
*D17
 70
     1
 10
0.0
 20
0.0
 30
0.0
  3
*D17
  1

  0
LINE
  5
EB9
330
DDA
100
AcDbEntity
  8
Dimension (ANSI)
100
AcDbLine
 10
16.66958689273873
 20
19.44297467721993
 30
0.0
 11
10.22009871295142
 21
19.44297467721993
 31
0.0
  0
LINE
  5
EBA
330
DDA
100
AcDbEntity
  8
Dimension (ANSI)
100
AcDbLine
 10
16.66958689273873
 20
42.02297467721993
 30
0.0
 11
10.22009871295142
 21
42.02297467721993
 31
0.0
  0
LINE
  5
EBB
330
DDA
100
AcDbEntity
  8
Dimension (ANSI)
100
AcDbLine
 10
11.05343204628475
 20
20.09914264136051
 30
0.0
 11
11.05343204628475
 21
30.12300090804452
 31
0.0
  0
LINE
  5
EBC
330
DDA
100
AcDbEntity
  8
Dimension (ANSI)
100
AcDbLine
 10
11.05343204628476
 20
41.36680671307936
 30
0.0
 11
11.05343204628475
 21
31.34294844639534
 31
0.0
  0
SOLID
  5
EBD
330
DDA
100
AcDbEntity
  8
Dimension (ANSI)
100
AcDbTrace
 10
10.94407071892799
 20
20.09914264136051
 30
0.0
 11
11.16279337364151
 21
20.09914264136051
 31
0.0
 12
11.05343204628475
 22
19.44297467721993
 32
0.0
 13
11.05343204628475
 23
19.44297467721993
 33
0.0
  0
SOLID
  5
EBE
330
DDA
100
AcDbEntity
  8
Dimension (ANSI)
100
AcDbTrace
 10
10.94407071892799
 20
41.36680671307936
 30
0.0
 11
11.16279337364152
 21
41.36680671307936
 31
0.0
 12
11.05343204628476
 22
42.02297467721993
 32
0.0
 13
11.05343204628476
 23
42.02297467721993
 33
0.0
  0
MTEXT
  5
EBF
330
DDA
100
AcDbEntity
  8
Dimension (ANSI)
100
AcDbMText
 10
9.072479586616395
 20
31.13297469311451
 30
0.0
 40
0.8000000317891439
 41
0.0
 71
     1
 72
     1
  1
\A1;22.580
  7
Note Text (ANSI)
 73
     1
 44
1.0
1001
ACAD
1000
MTEXTBEGIN
1070
    73
1070
     1
1070
    44
1040
1.0
1070
    74
1070
     0
1000
MTEXTEND
  0
POINT
  5
EC0
330
DDA
100
AcDbEntity
  8
Defpoints
 62
     0
100
AcDbPoint
 10
17.0862535594054
 20
19.44297467721993
 30
0.0
  0
POINT
  5
EC1
330
DDA
100
AcDbEntity
  8
Defpoints
 62
     0
100
AcDbPoint
 10
17.0862535594054
 20
42.02297467721993
 30
0.0
  0
POINT
  5
EC2
330
DDA
100
AcDbEntity
  8
Defpoints
 62
     0
100
AcDbPoint
 10
11.05343204628476
 20
42.02297467721993
 30
0.0
  0
ENDBLK
  5
DDC
330
DDA
100
AcDbEntity
  8
0
100
AcDbBlockEnd
  0
BLOCK
  5
EC5
330
EC4
100
AcDbEntity
  8
0
100
AcDbBlockBegin
  2
*D18
 70
     1
 10
0.0
 20
0.0
 30
0.0
  3
*D18
  1

  0
LINE
  5
FA3
330
EC4
100
AcDbEntity
  8
Dimension (ANSI)
100
AcDbLine
 10
17.0862535594054
 20
65.01964134388659
 30
0.0
 11
17.0862535594054
 21
67.91513669984469
 31
0.0
  0
LINE
  5
FA4
330
EC4
100
AcDbEntity
  8
Dimension (ANSI)
100
AcDbLine
 10
33.66625355940538
 20
65.01964134388659
 30
0.0
 11
33.66625355940538
 21
67.91513669984469
 31
0.0
  0
LINE
  5
FA5
330
EC4
100
AcDbEntity
  8
Dimension (ANSI)
100
AcDbLine
 10
17.74242152354597
 20
67.08180336651136
 30
0.0
 11
23.24247020586971
 21
67.08180336651136
 31
0.0
  0
LINE
  5
FA6
330
EC4
100
AcDbEntity
  8
Dimension (ANSI)
100
AcDbLine
 10
33.01008559526481
 20
67.08180336651136
 30
0.0
 11
27.51003691294109
 21
67.08180336651136
 31
0.0
  0
SOLID
  5
FA7
330
EC4
100
AcDbEntity
  8
Dimension (ANSI)
100
AcDbTrace
 10
17.74242152354597
 20
67.19116469386813
 30
0.0
 11
17.74242152354597
 21
66.9724420391546
 31
0.0
 12
17.0862535594054
 22
67.08180336651136
 32
0.0
 13
17.0862535594054
 23
67.08180336651136
 33
0.0
  0
SOLID
  5
FA8
330
EC4
100
AcDbEntity
  8
Dimension (ANSI)
100
AcDbTrace
 10
33.01008559526481
 20
67.19116469386813
 30
0.0
 11
33.01008559526481
 21
66.9724420391546
 31
0.0
 12
33.66625355940538
 22
67.08180336651136
 32
0.0
 13
33.66625355940538
 23
67.08180336651136
 33
0.0
  0
MTEXT
  5
FA9
330
EC4
100
AcDbEntity
  8
Dimension (ANSI)
100
AcDbMText
 10
23.45244395915055
 20
67.48180338240594
 30
0.0
 40
0.8000000317891439
 41
0.0
 71
     1
 72
     1
  1
\A1;16.580
  7
Note Text (ANSI)
 73
     1
 44
1.0
1001
ACAD
1000
MTEXTBEGIN
1070
    73
1070
     1
1070
    44
1040
1.0
1070
    74
1070
     0
1000
MTEXTEND
  0
POINT
  5
FAA
330
EC4
100
AcDbEntity
  8
Defpoints
 62
     0
100
AcDbPoint
 10
17.0862535594054
 20
64.60297467721992
 30
0.0
  0
POINT
  5
FAB
330
EC4
100
AcDbEntity
  8
Defpoints
 62
     0
100
AcDbPoint
 10
33.66625355940538
 20
64.60297467721992
 30
0.0
  0
POINT
  5
FAC
330
EC4
100
AcDbEntity
  8
Defpoints
 62
     0
100
AcDbPoint
 10
33.66625355940538
 20
67.08180336651136
 30
0.0
  0
ENDBLK
  5
EC6
330
EC4
100
AcDbEntity
  8
0
100
AcDbBlockEnd
  0
ENDSEC
  0
SECTION
  2
ENTITIES
  0
CIRCLE
  5
11B
330
6C
100
AcDbEntity
  8
Visible (ANSI)
100
AcDbCircle
 10
50.2462535594054
 20
42.02297467721993
 30
0.0
 40
0.2500000000000006
  0
CIRCLE
  5
11C
330
6C
100
AcDbEntity
  8
Visible (ANSI)
100
AcDbCircle
 10
17.0862535594054
 20
42.02297467721993
 30
0.0
 40
0.2500000000000006
  0
CIRCLE
  5
11D
330
6C
100
AcDbEntity
  8
Visible (ANSI)
100
AcDbCircle
 10
33.66625355940539
 20
19.44297467721993
 30
0.0
 40
0.2499999999999999
  0
CIRCLE
  5
11E
330
6C
100
AcDbEntity
  8
Visible (ANSI)
100
AcDbCircle
 10
33.66625355940538
 20
64.60297467721992
 30
0.0
 40
0.2499999999999999
  0
LINE
  5
11F
330
6C
100
AcDbEntity
  8
Visible (ANSI)
100
AcDbLine
 10
18.2842535594054
 20
18.92297467721992
 30
0.0
 11
49.04825355940539
 21
18.92297467721992
 31
0.0
  0
LINE
  5
120
330
6C
100
AcDbEntity
  8
Visible (ANSI)
100
AcDbLine
 10
18.2842535594054
 20
18.92297467721992
 30
0.0
 11
18.2842535594054
 21
19.04797467721993
 31
0.0
  0
LINE
  5
121
330
6C
100
AcDbEntity
  8
Visible (ANSI)
100
AcDbLine
 10
49.04825355940539
 20
18.92297467721992
 30
0.0
 11
49.04825355940539
 21
19.04797467721993
 31
0.0
  0
LINE
  5
122
330
6C
100
AcDbEntity
  8
Visible (ANSI)
100
AcDbLine
 10
49.0484535594054
 20
19.04817467721992
 30
0.0
 11
49.0484535594054
 21
18.92297467721992
 31
0.0
  0
LINE
  5
123
330
6C
100
AcDbEntity
  8
Visible (ANSI)
100
AcDbLine
 10
49.04825355940539
 20
19.04817467721992
 30
0.0
 11
49.0484535594054
 21
19.04817467721992
 31
0.0
  0
LINE
  5
124
330
6C
100
AcDbEntity
  8
Visible (ANSI)
100
AcDbLine
 10
18.2840535594054
 20
19.04817467721992
 30
0.0
 11
18.2842535594054
 21
19.04817467721992
 31
0.0
  0
LINE
  5
125
330
6C
100
AcDbEntity
  8
Visible (ANSI)
100
AcDbLine
 10
18.2840535594054
 20
18.92297467721992
 30
0.0
 11
18.2840535594054
 21
19.04817467721992
 31
0.0
  0
LINE
  5
126
330
6C
100
AcDbEntity
  8
Hidden (ANSI)
 48
1.063100457191467
100
AcDbLine
 10
49.04825355940539
 20
19.01672467721993
 30
0.0
 11
18.2842535594054
 21
19.01672467721993
 31
0.0
  0
LINE
  5
127
330
6C
100
AcDbEntity
  8
Visible (ANSI)
100
AcDbLine
 10
18.2842535594054
 20
19.04817467721992
 30
0.0
 11
18.2842535594054
 21
19.04797467721993
 31
0.0
  0
LINE
  5
128
330
6C
100
AcDbEntity
  8
Visible (ANSI)
100
AcDbLine
 10
49.04825355940539
 20
19.04797467721993
 30
0.0
 11
49.04825355940539
 21
19.04817467721992
 31
0.0
  0
LINE
  5
129
330
6C
100
AcDbEntity
  8
Visible (ANSI)
100
AcDbLine
 10
18.2840535594054
 20
18.92297467721992
 30
0.0
 11
17.0662535594054
 21
18.92297467721992
 31
0.0
  0
LINE
  5
12A
330
6C
100
AcDbEntity
  8
Visible (ANSI)
100
AcDbLine
 10
50.2662535594054
 20
18.92297467721992
 30
0.0
 11
49.0484535594054
 21
18.92297467721992
 31
0.0
  0
LINE
  5
12B
330
6C
100
AcDbEntity
  8
Visible (ANSI)
100
AcDbLine
 10
50.7662535594054
 20
20.64077467721992
 30
0.0
 11
50.7662535594054
 21
19.42297467721992
 31
0.0
  0
LINE
  5
12C
330
6C
100
AcDbEntity
  8
Visible (ANSI)
100
AcDbLine
 10
50.76625355940539
 20
64.62297467721994
 30
0.0
 11
50.76625355940539
 21
63.40517467721992
 31
0.0
  0
LINE
  5
12D
330
6C
100
AcDbEntity
  8
Visible (ANSI)
100
AcDbLine
 10
49.0484535594054
 20
65.12297467721992
 30
0.0
 11
50.26625355940539
 21
65.12297467721992
 31
0.0
  0
LINE
  5
12E
330
6C
100
AcDbEntity
  8
Visible (ANSI)
100
AcDbLine
 10
17.06625355940539
 20
65.12297467721992
 30
0.0
 11
18.28405355940539
 21
65.12297467721992
 31
0.0
  0
LINE
  5
12F
330
6C
100
AcDbEntity
  8
Visible (ANSI)
100
AcDbLine
 10
16.56625355940539
 20
63.40517467721992
 30
0.0
 11
16.56625355940539
 21
64.62297467721993
 31
0.0
  0
LINE
  5
130
330
6C
100
AcDbEntity
  8
Visible (ANSI)
100
AcDbLine
 10
16.5662535594054
 20
19.42297467721992
 30
0.0
 11
16.5662535594054
 21
20.64077467721993
 31
0.0
  0
LINE
  5
131
330
6C
100
AcDbEntity
  8
Visible (ANSI)
100
AcDbLine
 10
50.7662535594054
 20
19.42297467721992
 30
0.0
 11
50.2662535594054
 21
18.92297467721992
 31
0.0
  0
LINE
  5
132
330
6C
100
AcDbEntity
  8
Visible (ANSI)
100
AcDbLine
 10
50.7662535594054
 20
20.64077467721992
 30
0.0
 11
50.6410535594054
 21
20.64077467721992
 31
0.0
  0
LINE
  5
133
330
6C
100
AcDbEntity
  8
Visible (ANSI)
100
AcDbLine
 10
50.6410535594054
 20
20.64077467721992
 30
0.0
 11
50.6410535594054
 21
20.64097467721992
 31
0.0
  0
LINE
  5
134
330
6C
100
AcDbEntity
  8
Visible (ANSI)
100
AcDbLine
 10
50.6410535594054
 20
63.40497467721994
 30
0.0
 11
50.6410535594054
 21
63.40517467721992
 31
0.0
  0
LINE
  5
135
330
6C
100
AcDbEntity
  8
Visible (ANSI)
100
AcDbLine
 10
50.6410535594054
 20
63.40517467721992
 30
0.0
 11
50.76625355940539
 21
63.40517467721992
 31
0.0
  0
LINE
  5
136
330
6C
100
AcDbEntity
  8
Visible (ANSI)
100
AcDbLine
 10
50.76625355940539
 20
20.64097467721992
 30
0.0
 11
50.76625355940539
 21
63.40497467721991
 31
0.0
  0
LINE
  5
137
330
6C
100
AcDbEntity
  8
Visible (ANSI)
100
AcDbLine
 10
50.76625355940539
 20
20.64097467721992
 30
0.0
 11
50.64125355940539
 21
20.64097467721992
 31
0.0
  0
LINE
  5
138
330
6C
100
AcDbEntity
  8
Visible (ANSI)
100
AcDbLine
 10
50.76625355940539
 20
63.40497467721991
 30
0.0
 11
50.64125355940539
 21
63.40497467721991
 31
0.0
  0
LINE
  5
139
330
6C
100
AcDbEntity
  8
Hidden (ANSI)
 48
1.070116639137268
100
AcDbLine
 10
50.67250355940539
 20
63.40497467721991
 30
0.0
 11
50.6725035594054
 21
20.64097467721992
 31
0.0
  0
LINE
  5
13A
330
6C
100
AcDbEntity
  8
Visible (ANSI)
100
AcDbLine
 10
50.6410535594054
 20
20.64097467721992
 30
0.0
 11
50.64125355940541
 21
20.64097467721992
 31
0.0
  0
LINE
  5
13B
330
6C
100
AcDbEntity
  8
Visible (ANSI)
100
AcDbLine
 10
50.64125355940539
 20
63.40497467721994
 30
0.0
 11
50.6410535594054
 21
63.40497467721994
 31
0.0
  0
LINE
  5
13C
330
6C
100
AcDbEntity
  8
Visible (ANSI)
100
AcDbLine
 10
50.26625355940539
 20
65.12297467721992
 30
0.0
 11
50.76625355940539
 21
64.62297467721994
 31
0.0
  0
LINE
  5
13D
330
6C
100
AcDbEntity
  8
Visible (ANSI)
100
AcDbLine
 10
49.0484535594054
 20
65.12297467721992
 30
0.0
 11
49.0484535594054
 21
64.99777467721995
 31
0.0
  0
LINE
  5
13E
330
6C
100
AcDbEntity
  8
Visible (ANSI)
100
AcDbLine
 10
49.0484535594054
 20
64.99777467721995
 30
0.0
 11
49.04825355940539
 21
64.99777467721995
 31
0.0
  0
LINE
  5
13F
330
6C
100
AcDbEntity
  8
Visible (ANSI)
100
AcDbLine
 10
18.28425355940539
 20
64.99777467721992
 30
0.0
 11
18.28405355940539
 21
64.99777467721992
 31
0.0
  0
LINE
  5
140
330
6C
100
AcDbEntity
  8
Visible (ANSI)
100
AcDbLine
 10
18.28405355940539
 20
64.99777467721992
 30
0.0
 11
18.28405355940539
 21
65.12297467721992
 31
0.0
  0
LINE
  5
141
330
6C
100
AcDbEntity
  8
Visible (ANSI)
100
AcDbLine
 10
49.04825355940539
 20
65.12297467721992
 30
0.0
 11
18.28425355940539
 21
65.12297467721992
 31
0.0
  0
LINE
  5
142
330
6C
100
AcDbEntity
  8
Visible (ANSI)
100
AcDbLine
 10
49.04825355940539
 20
65.12297467721992
 30
0.0
 11
49.04825355940539
 21
64.99797467721994
 31
0.0
  0
LINE
  5
143
330
6C
100
AcDbEntity
  8
Visible (ANSI)
100
AcDbLine
 10
18.28425355940539
 20
65.12297467721992
 30
0.0
 11
18.28425355940539
 21
64.99797467721993
 31
0.0
  0
LINE
  5
144
330
6C
100
AcDbEntity
  8
Hidden (ANSI)
 48
1.063100457191467
100
AcDbLine
 10
18.28425355940539
 20
65.02922467721991
 30
0.0
 11
49.04825355940539
 21
65.02922467721991
 31
0.0
  0
LINE
  5
145
330
6C
100
AcDbEntity
  8
Visible (ANSI)
100
AcDbLine
 10
49.04825355940539
 20
64.99777467721995
 30
0.0
 11
49.04825355940539
 21
64.99797467721993
 31
0.0
  0
LINE
  5
146
330
6C
100
AcDbEntity
  8
Visible (ANSI)
100
AcDbLine
 10
18.28425355940539
 20
64.99797467721993
 30
0.0
 11
18.28425355940539
 21
64.99777467721992
 31
0.0
  0
LINE
  5
147
330
6C
100
AcDbEntity
  8
Visible (ANSI)
100
AcDbLine
 10
16.56625355940539
 20
64.62297467721993
 30
0.0
 11
17.06625355940539
 21
65.12297467721992
 31
0.0
  0
LINE
  5
148
330
6C
100
AcDbEntity
  8
Visible (ANSI)
100
AcDbLine
 10
16.56625355940539
 20
63.40517467721992
 30
0.0
 11
16.69145355940537
 21
63.40517467721992
 31
0.0
  0
LINE
  5
149
330
6C
100
AcDbEntity
  8
Visible (ANSI)
100
AcDbLine
 10
16.69145355940537
 20
63.40517467721992
 30
0.0
 11
16.69145355940537
 21
63.40497467721991
 31
0.0
  0
LINE
  5
14A
330
6C
100
AcDbEntity
  8
Visible (ANSI)
100
AcDbLine
 10
16.69145355940538
 20
20.64097467721992
 30
0.0
 11
16.69145355940538
 21
20.64077467721993
 31
0.0
  0
LINE
  5
14B
330
6C
100
AcDbEntity
  8
Visible (ANSI)
100
AcDbLine
 10
16.69145355940538
 20
20.64077467721993
 30
0.0
 11
16.5662535594054
 21
20.64077467721993
 31
0.0
  0
LINE
  5
14C
330
6C
100
AcDbEntity
  8
Visible (ANSI)
100
AcDbLine
 10
16.5662535594054
 20
63.40497467721991
 30
0.0
 11
16.56625355940541
 21
20.64097467721992
 31
0.0
  0
LINE
  5
14D
330
6C
100
AcDbEntity
  8
Visible (ANSI)
100
AcDbLine
 10
16.5662535594054
 20
63.40497467721991
 30
0.0
 11
16.69125355940537
 21
63.40497467721991
 31
0.0
  0
LINE
  5
14E
330
6C
100
AcDbEntity
  8
Visible (ANSI)
100
AcDbLine
 10
16.56625355940541
 20
20.64097467721992
 30
0.0
 11
16.69125355940539
 21
20.64097467721992
 31
0.0
  0
LINE
  5
14F
330
6C
100
AcDbEntity
  8
Hidden (ANSI)
 48
1.070116639137268
100
AcDbLine
 10
16.66000355940541
 20
20.64097467721992
 30
0.0
 11
16.6600035594054
 21
63.40497467721991
 31
0.0
  0
LINE
  5
150
330
6C
100
AcDbEntity
  8
Visible (ANSI)
100
AcDbLine
 10
16.69145355940537
 20
63.40497467721991
 30
0.0
 11
16.69125355940537
 21
63.40497467721991
 31
0.0
  0
LINE
  5
151
330
6C
100
AcDbEntity
  8
Visible (ANSI)
100
AcDbLine
 10
16.69125355940539
 20
20.64097467721992
 30
0.0
 11
16.69145355940538
 21
20.64097467721992
 31
0.0
  0
LINE
  5
152
330
6C
100
AcDbEntity
  8
Visible (ANSI)
100
AcDbLine
 10
17.0662535594054
 20
18.92297467721992
 30
0.0
 11
16.5662535594054
 21
19.42297467721992
 31
0.0
  0
CIRCLE
  5
153
330
6C
100
AcDbEntity
  8
Visible (ANSI)
100
AcDbCircle
 10
50.2462535594054
 20
64.60297467721993
 30
0.0
 40
0.25
  0
CIRCLE
  5
154
330
6C
100
AcDbEntity
  8
Visible (ANSI)
100
AcDbCircle
 10
17.0862535594054
 20
64.60297467721992
 30
0.0
 40
0.25
  0
CIRCLE
  5
155
330
6C
100
AcDbEntity
  8
Visible (ANSI)
100
AcDbCircle
 10
17.0862535594054
 20
19.44297467721993
 30
0.0
 40
0.25
  0
CIRCLE
  5
156
330
6C
100
AcDbEntity
  8
Visible (ANSI)
100
AcDbCircle
 10
50.2462535594054
 20
19.44297467721993
 30
0.0
 40
0.25
  0
CIRCLE
  5
157
330
6C
100
AcDbEntity
  8
Visible (ANSI)
100
AcDbCircle
 10
50.2462535594054
 20
63.85297467721994
 30
0.0
 40
0.15625
  0
CIRCLE
  5
158
330
6C
100
AcDbEntity
  8
Visible (ANSI)
100
AcDbCircle
 10
17.0862535594054
 20
63.85297467721992
 30
0.0
 40
0.15625
  0
CIRCLE
  5
159
330
6C
100
AcDbEntity
  8
Visible (ANSI)
100
AcDbCircle
 10
17.0862535594054
 20
20.19297467721993
 30
0.0
 40
0.15625
  0
CIRCLE
  5
15A
330
6C
100
AcDbEntity
  8
Visible (ANSI)
100
AcDbCircle
 10
50.2462535594054
 20
20.19297467721993
 30
0.0
 40
0.15625
  0
LINE
  5
15B
330
6C
100
AcDbEntity
  8
Visible (ANSI)
100
AcDbLine
 10
75.99198153008863
 20
18.92297467721992
 30
0.0
 11
75.34298153008862
 21
18.92297467721992
 31
0.0
  0
LINE
  5
15C
330
6C
100
AcDbEntity
  8
Visible (ANSI)
100
AcDbLine
 10
75.99198153008863
 20
19.01672467721993
 30
0.0
 11
75.99198153008863
 21
18.92297467721992
 31
0.0
  0
LINE
  5
15D
330
6C
100
AcDbEntity
  8
Visible (ANSI)
100
AcDbLine
 10
75.34298153008862
 20
19.01672467721993
 30
0.0
 11
75.99198153008863
 21
19.01672467721993
 31
0.0
  0
ARC
  5
15E
330
6C
100
AcDbEntity
  8
Visible (ANSI)
100
AcDbCircle
 10
75.34298153008862
 20
19.04797467721993
 30
0.0
 40
0.03125
100
AcDbArc
 50
180.0
 51
270.0
  0
ARC
  5
15F
330
6C
100
AcDbEntity
  8
Visible (ANSI)
100
AcDbCircle
 10
75.34298153008862
 20
19.04797467721993
 30
0.0
 40
0.1250000000000007
100
AcDbArc
 50
255.522487814071
 51
270.0000000000043
  0
ARC
  5
160
330
6C
100
AcDbEntity
  8
Hidden (ANSI)
 48
0.0469739586114884
100
AcDbCircle
 10
75.34298153008862
 20
19.04797467721993
 30
0.0
 40
0.125
100
AcDbArc
 50
180.0
 51
255.522487814071
  0
LINE
  5
161
330
6C
100
AcDbEntity
  8
Hidden (ANSI)
 48
0.0266847964376211
100
AcDbLine
 10
75.21798153008863
 20
19.04817467721992
 30
0.0
 11
75.31173153008864
 21
19.04817467721992
 31
0.0
  0
LINE
  5
162
330
6C
100
AcDbEntity
  8
Visible (ANSI)
100
AcDbLine
 10
75.31173153008913
 20
64.62297467721994
 30
0.0
 11
75.31173153008899
 21
65.12297467721992
 31
0.0
  0
LINE
  5
163
330
6C
100
AcDbEntity
  8
Visible (ANSI)
100
AcDbLine
 10
75.21798153008899
 20
65.12297467721992
 30
0.0
 11
75.21798153008915
 21
64.62297467721994
 31
0.0
  0
LINE
  5
164
330
6C
100
AcDbEntity
  8
Visible (ANSI)
100
AcDbLine
 10
75.31173153008899
 20
65.12297467721992
 30
0.0
 11
75.21798153008899
 21
65.12297467721992
 31
0.0
  0
LINE
  5
165
330
6C
100
AcDbEntity
  8
Visible (ANSI)
100
AcDbLine
 10
75.21798153008915
 20
64.62297467721994
 30
0.0
 11
75.31173153008913
 21
64.62297467721994
 31
0.0
  0
LINE
  5
166
330
6C
100
AcDbEntity
  8
Visible (ANSI)
100
AcDbLine
 10
75.31173153008913
 20
63.40517467721992
 30
0.0
 11
75.31173153008913
 21
64.62297467721994
 31
0.0
  0
LINE
  5
167
330
6C
100
AcDbEntity
  8
Visible (ANSI)
100
AcDbLine
 10
75.31173153008913
 20
19.42297467721992
 30
0.0
 11
75.31173153008913
 21
20.64077467721992
 31
0.0
  0
LINE
  5
168
330
6C
100
AcDbEntity
  8
Visible (ANSI)
100
AcDbLine
 10
75.21798153008915
 20
20.64077467721992
 30
0.0
 11
75.21798153008915
 21
19.42297467721992
 31
0.0
  0
LINE
  5
169
330
6C
100
AcDbEntity
  8
Visible (ANSI)
100
AcDbLine
 10
75.21798153008915
 20
64.62297467721994
 30
0.0
 11
75.21798153008915
 21
63.40517467721992
 31
0.0
  0
LINE
  5
16A
330
6C
100
AcDbEntity
  8
Visible (ANSI)
100
AcDbLine
 10
75.31173153008909
 20
63.40517467721992
 30
0.0
 11
75.31173153008909
 21
63.40497467721994
 31
0.0
  0
LINE
  5
16B
330
6C
100
AcDbEntity
  8
Visible (ANSI)
100
AcDbLine
 10
75.31173153008909
 20
20.64097467721992
 30
0.0
 11
75.31173153008909
 21
20.64077467721992
 31
0.0
  0
LINE
  5
16C
330
6C
100
AcDbEntity
  8
Visible (ANSI)
100
AcDbLine
 10
75.2179815300891
 20
20.64077467721992
 30
0.0
 11
75.2179815300891
 21
20.64097467721992
 31
0.0
  0
LINE
  5
16D
330
6C
100
AcDbEntity
  8
Visible (ANSI)
100
AcDbLine
 10
75.2179815300891
 20
20.64097467721992
 30
0.0
 11
75.2179815300891
 21
63.40497467721994
 31
0.0
  0
LINE
  5
16E
330
6C
100
AcDbEntity
  8
Visible (ANSI)
100
AcDbLine
 10
75.2179815300891
 20
63.40497467721994
 30
0.0
 11
75.2179815300891
 21
63.40517467721992
 31
0.0
  0
LINE
  5
16F
330
6C
100
AcDbEntity
  8
Visible (ANSI)
100
AcDbLine
 10
75.34298153008918
 20
20.64097467721992
 30
0.0
 11
75.2179815300891
 21
20.64097467721992
 31
0.0
  0
LINE
  5
170
330
6C
100
AcDbEntity
  8
Visible (ANSI)
100
AcDbLine
 10
75.34298153008916
 20
63.40497467721991
 30
0.0
 11
75.21798153008909
 21
63.40497467721991
 31
0.0
  0
LINE
  5
171
330
6C
100
AcDbEntity
  8
Visible (ANSI)
100
AcDbLine
 10
75.21798153008915
 20
63.40517467721992
 30
0.0
 11
75.31173153008913
 21
63.40517467721992
 31
0.0
  0
LINE
  5
172
330
6C
100
AcDbEntity
  8
Visible (ANSI)
100
AcDbLine
 10
75.31173153008913
 20
20.64077467721992
 30
0.0
 11
75.21798153008915
 21
20.64077467721992
 31
0.0
  0
LINE
  5
173
330
6C
100
AcDbEntity
  8
Hidden (ANSI)
 48
1.070116639137268
100
AcDbLine
 10
75.31173153008909
 20
63.40497467721994
 30
0.0
 11
75.31173153008909
 21
20.64097467721992
 31
0.0
  0
LINE
  5
174
330
6C
100
AcDbEntity
  8
Visible (ANSI)
100
AcDbLine
 10
75.31173153008899
 20
18.92297467721992
 30
0.0
 11
75.31173153008913
 21
19.42297467721992
 31
0.0
  0
LINE
  5
175
330
6C
100
AcDbEntity
  8
Visible (ANSI)
100
AcDbLine
 10
75.21798153008915
 20
19.42297467721992
 30
0.0
 11
75.21798153008899
 21
18.92297467721992
 31
0.0
  0
LINE
  5
176
330
6C
100
AcDbEntity
  8
Visible (ANSI)
100
AcDbLine
 10
75.21798153008899
 20
18.92297467721992
 30
0.0
 11
75.31173153008899
 21
18.92297467721992
 31
0.0
  0
LINE
  5
177
330
6C
100
AcDbEntity
  8
Visible (ANSI)
100
AcDbLine
 10
75.31173153008913
 20
19.42297467721992
 30
0.0
 11
75.21798153008915
 21
19.42297467721992
 31
0.0
  0
LINE
  5
178
330
6C
100
AcDbEntity
  8
Visible (ANSI)
100
AcDbLine
 10
75.3429815300893
 20
65.12297467721992
 30
0.0
 11
75.99198153008863
 21
65.12297467721992
 31
0.0
  0
LINE
  5
179
330
6C
100
AcDbEntity
  8
Visible (ANSI)
100
AcDbLine
 10
75.99198153008863
 20
65.02922467721994
 30
0.0
 11
75.3429815300893
 21
65.02922467721991
 31
0.0
  0
LINE
  5
17A
330
6C
100
AcDbEntity
  8
Visible (ANSI)
100
AcDbLine
 10
75.99198153008863
 20
65.12297467721992
 30
0.0
 11
75.99198153008863
 21
65.02922467721994
 31
0.0
  0
ARC
  5
17B
330
6C
100
AcDbEntity
  8
Hidden (ANSI)
 48
0.0469739586114884
100
AcDbCircle
 10
75.34298153008862
 20
64.99797467721993
 30
0.0
 40
0.1249999999999956
100
AcDbArc
 50
104.4775121859297
 51
180.0
  0
LINE
  5
17C
330
6C
100
AcDbEntity
  8
Hidden (ANSI)
 48
0.0266847964376211
100
AcDbLine
 10
75.21798153008863
 20
64.99777467721995
 30
0.0
 11
75.31173153008864
 21
64.99777467721995
 31
0.0
  0
ARC
  5
17D
330
6C
100
AcDbEntity
  8
Visible (ANSI)
100
AcDbCircle
 10
75.34298153008869
 20
64.99797467721927
 30
0.0
 40
0.1250000000006472
100
AcDbArc
 50
89.99999999972217
 51
104.4775121858828
  0
ARC
  5
17E
330
6C
100
AcDbEntity
  8
Visible (ANSI)
100
AcDbCircle
 10
75.34298153008863
 20
64.99797467721991
 30
0.0
 40
0.0312500000000084
100
AcDbArc
 50
89.99999999880325
 51
180.0
  0
LINE
  5
17F
330
6C
100
AcDbEntity
  8
Visible (ANSI)
100
AcDbLine
 10
75.34298153008918
 20
20.64097467721992
 30
0.0
 11
75.99198153008913
 21
20.64097467721992
 31
0.0
  0
LINE
  5
180
330
6C
100
AcDbEntity
  8
Visible (ANSI)
100
AcDbLine
 10
75.99198153008913
 20
63.40497467721994
 30
0.0
 11
75.99198153008913
 21
20.64097467721992
 31
0.0
  0
LINE
  5
181
330
6C
100
AcDbEntity
  8
Visible (ANSI)
100
AcDbLine
 10
75.99198153008913
 20
63.40497467721994
 30
0.0
 11
75.34298153008918
 21
63.40497467721991
 31
0.0
  0
LINE
  5
182
330
6C
100
AcDbEntity
  8
Hidden (ANSI)
 48
0.0266847964376211
100
AcDbLine
 10
75.21798153008898
 20
42.27297467721992
 30
0.0
 11
75.31173153008899
 21
42.27297467721992
 31
0.0
  0
LINE
  5
183
330
6C
100
AcDbEntity
  8
Hidden (ANSI)
 48
0.0266847964376211
100
AcDbLine
 10
75.21798153008898
 20
41.77297467721992
 30
0.0
 11
75.31173153008899
 21
41.77297467721992
 31
0.0
  0
LINE
  5
184
330
6C
100
AcDbEntity
  8
Hidden (ANSI)
 48
0.0266847964376211
100
AcDbLine
 10
75.21798153008898
 20
64.85297467721993
 30
0.0
 11
75.31173153008899
 21
64.85297467721993
 31
0.0
  0
LINE
  5
185
330
6C
100
AcDbEntity
  8
Hidden (ANSI)
 48
0.0266847964376211
100
AcDbLine
 10
75.21798153008898
 20
64.35297467721993
 30
0.0
 11
75.31173153008899
 21
64.35297467721993
 31
0.0
  0
LINE
  5
186
330
6C
100
AcDbEntity
  8
Hidden (ANSI)
 48
0.0266847964376211
100
AcDbLine
 10
75.21798153008898
 20
19.69297467721993
 30
0.0
 11
75.31173153008899
 21
19.69297467721993
 31
0.0
  0
LINE
  5
187
330
6C
100
AcDbEntity
  8
Hidden (ANSI)
 48
0.0266847964376211
100
AcDbLine
 10
75.21798153008898
 20
19.19297467721993
 30
0.0
 11
75.31173153008899
 21
19.19297467721993
 31
0.0
  0
LINE
  5
188
330
6C
100
AcDbEntity
  8
Hidden (ANSI)
 48
0.0266847964376211
100
AcDbLine
 10
75.21798153008898
 20
64.00922467721994
 30
0.0
 11
75.31173153008899
 21
64.00922467721994
 31
0.0
  0
LINE
  5
189
330
6C
100
AcDbEntity
  8
Hidden (ANSI)
 48
0.0266847964376211
100
AcDbLine
 10
75.21798153008898
 20
63.69672467721994
 30
0.0
 11
75.31173153008899
 21
63.69672467721994
 31
0.0
  0
LINE
  5
18A
330
6C
100
AcDbEntity
  8
Hidden (ANSI)
 48
0.0266847964376211
100
AcDbLine
 10
75.21798153008898
 20
20.34922467721993
 30
0.0
 11
75.31173153008899
 21
20.34922467721993
 31
0.0
  0
LINE
  5
18B
330
6C
100
AcDbEntity
  8
Hidden (ANSI)
 48
0.0266847964376211
100
AcDbLine
 10
75.21798153008898
 20
20.03672467721993
 30
0.0
 11
75.31173153008899
 21
20.03672467721993
 31
0.0
  0
ELLIPSE
  5
18C
330
6C
100
AcDbEntity
  8
Visible (ANSI)
100
AcDbEllipse
 10
107.5918846297792
 20
47.37675535453552
 30
0.0
 11
-0.0693100293867238
 21
0.1203588105757194
 31
0.0
210
0.0
220
0.0
230
1.0
 40
0.5780931159158113
 41
0.2678448778124336
 42
2.873747775777194
  0
ELLIPSE
  5
18D
330
6C
100
AcDbEntity
  8
Visible (ANSI)
100
AcDbEllipse
 10
107.5550561515925
 20
47.35554724444216
 30
0.0
 11
-0.0693100293867234
 21
0.1203588105757187
 31
0.0
210
0.0
220
0.0
230
0.9999999999999998
 40
0.5780931159158113
 41
0.0
 42
6.283185307179586
  0
ELLIPSE
  5
18E
330
6C
100
AcDbEntity
  8
Visible (ANSI)
100
AcDbEllipse
 10
94.56540637191848
 20
54.87820528195321
 30
0.0
 11
-0.0693100293867234
 21
0.1203588105757187
 31
0.0
210
0.0
220
0.0
230
1.0
 40
0.5780931159158114
 41
0.2678448778124336
 42
2.873747775777194
  0
ELLIPSE
  5
18F
330
6C
100
AcDbEntity
  8
Visible (ANSI)
100
AcDbEllipse
 10
94.52857789373169
 20
54.85699717185985
 30
0.0
 11
-0.0693100293867234
 21
0.1203588105757187
 31
0.0
210
0.0
220
0.0
230
0.9999999999999998
 40
0.5780931159158113
 41
0.0
 42
6.283185307179586
  0
ELLIPSE
  5
190
330
6C
100
AcDbEntity
  8
Visible (ANSI)
100
AcDbEllipse
 10
101.0786455008488
 20
40.87180582994185
 30
0.0
 11
-0.0693100293867231
 21
0.1203588105757183
 31
0.0
210
0.0
220
0.0
230
1.0
 40
0.5780931159158113
 41
0.2678448778124336
 42
2.873747775777173
  0
ELLIPSE
  5
191
330
6C
100
AcDbEntity
  8
Visible (ANSI)
100
AcDbEllipse
 10
101.041817022662
 20
40.85059771984851
 30
0.0
 11
-0.0693100293867232
 21
0.1203588105757184
 31
0.0
210
0.0
220
0.0
230
0.9999999999999998
 40
0.5780931159158114
 41
0.0
 42
6.283185307179586
  0
ELLIPSE
  5
192
330
6C
100
AcDbEntity
  8
Visible (ANSI)
100
AcDbEllipse
 10
101.0786455008489
 20
61.38315480654686
 30
0.0
 11
-0.0693100293867231
 21
0.1203588105757183
 31
0.0
210
0.0
220
0.0
230
1.0
 40
0.5780931159158113
 41
0.2678448778124336
 42
2.873747775777194
  0
ELLIPSE
  5
193
330
6C
100
AcDbEntity
  8
Visible (ANSI)
100
AcDbEllipse
 10
101.0418170226621
 20
61.36194669645351
 30
0.0
 11
-0.0693100293867232
 21
0.1203588105757184
 31
0.0
210
0.0
220
0.0
230
0.9999999999999998
 40
0.5780931159158114
 41
0.0
 42
6.283185307179586
  0
ELLIPSE
  5
194
330
6C
100
AcDbEntity
  8
Visible (ANSI)
100
AcDbEllipse
 10
95.04830137790385
 20
44.17918261955073
 30
0.0
 11
-0.0346550146933461
 21
-0.0601794052878682
 31
0.0
210
0.0
220
0.0
230
1.0
 40
0.5780931159156361
 41
5.495853435359117
 42
6.28318530717961
  0
ELLIPSE
  5
195
330
6C
100
AcDbEntity
  8
Visible (ANSI)
100
AcDbEllipse
 10
107.1335419425851
 20
37.21975543115876
 30
0.0
 11
-0.0346550146933438
 21
-0.0601794052878643
 31
0.0
210
0.0
220
0.0
230
1.0
 40
0.5780931159156362
 41
5.495853435358952
 42
5.552429523042769
  0
LINE
  5
196
330
6C
100
AcDbEntity
  8
Visible Narrow (ANSI)
100
AcDbLine
 10
94.99919674032145
 20
44.15090513942627
 30
0.0
 11
107.0844373050027
 21
37.1914779510343
 31
0.0
  0
LINE
  5
197
330
6C
100
AcDbEntity
  8
Visible (ANSI)
100
AcDbLine
 10
107.0845158724228
 20
37.19152354563552
 30
0.0
 11
107.0845158724228
 21
37.13465860117425
 31
0.0
  0
LINE
  5
198
330
6C
100
AcDbEntity
  8
Visible (ANSI)
100
AcDbLine
 10
107.0844373050027
 20
37.19156878960372
 30
0.0
 11
107.0845158724228
 21
37.19152354563552
 31
0.0
  0
LINE
  5
199
330
6C
100
AcDbEntity
  8
Visible (ANSI)
100
AcDbLine
 10
94.99911817290131
 20
44.15104122196389
 30
0.0
 11
94.99919674032145
 21
44.15099597799569
 31
0.0
  0
LINE
  5
19A
330
6C
100
AcDbEntity
  8
Visible (ANSI)
100
AcDbLine
 10
94.99911817290131
 20
44.09417627750262
 30
0.0
 11
94.99911817290131
 21
44.15104122196389
 31
0.0
  0
LINE
  5
19B
330
6C
100
AcDbEntity
  8
Visible (ANSI)
100
AcDbLine
 10
95.02793860416732
 20
44.1107728600746
 30
0.0
 11
94.99911817290131
 21
44.09417627750262
 31
0.0
  0
LINE
  5
19C
330
6C
100
AcDbEntity
  8
Visible (ANSI)
100
AcDbLine
 10
95.01364636321049
 20
44.11900321426286
 30
0.0
 11
107.0845158724228
 21
37.16785176631817
 31
0.0
  0
LINE
  5
19D
330
6C
100
AcDbEntity
  8
Visible (ANSI)
100
AcDbLine
 10
94.99919674032145
 20
44.15099597799569
 30
0.0
 11
94.99919674032145
 21
44.15090513942627
 31
0.0
  0
LINE
  5
19E
330
6C
100
AcDbEntity
  8
Visible (ANSI)
100
AcDbLine
 10
107.0844373050027
 20
37.1914779510343
 30
0.0
 11
107.0844373050027
 21
37.19156878960372
 31
0.0
  0
ELLIPSE
  5
19F
330
6C
100
AcDbEntity
  8
Visible (ANSI)
100
AcDbEllipse
 10
107.5918846297793
 20
57.63242984283801
 30
0.0
 11
-0.0693100293867238
 21
0.1203588105757194
 31
0.0
210
0.0
220
0.0
230
1.0
 40
0.5780931159158113
 41
0.2678448778124336
 42
2.873747775777194
  0
ELLIPSE
  5
1A0
330
6C
100
AcDbEntity
  8
Visible (ANSI)
100
AcDbEllipse
 10
94.56540637191849
 20
65.1338797702557
 30
0.0
 11
-0.0693100293867235
 21
0.1203588105757191
 31
0.0
210
0.0
220
0.0
230
1.0
 40
0.5780931159158113
 41
0.2678448778124336
 42
2.873747775777194
  0
ELLIPSE
  5
1A1
330
6C
100
AcDbEntity
  8
Visible (ANSI)
100
AcDbEllipse
 10
94.56540637191848
 20
44.6225307936507
 30
0.0
 11
-0.0693100293867233
 21
0.1203588105757185
 31
0.0
210
0.0
220
0.0
230
1.0
 40
0.5780931159158112
 41
0.2678448778124336
 42
2.873747775777193
  0
ELLIPSE
  5
1A2
330
6C
100
AcDbEntity
  8
Visible (ANSI)
100
AcDbEllipse
 10
107.5918846297792
 20
37.12108086623301
 30
0.0
 11
-0.0693100293867237
 21
0.1203588105757192
 31
0.0
210
0.0
220
0.0
230
1.0
 40
0.5780931159158115
 41
0.2678448778124336
 42
2.873747775777173
  0
ELLIPSE
  5
1A3
330
6C
100
AcDbEntity
  8
Visible (ANSI)
100
AcDbEllipse
 10
107.5918846297793
 20
57.29178520748696
 30
0.0
 11
0.0433187683667067
 21
-0.0752242566098217
 31
0.0
210
0.0
220
0.0
230
1.0
 40
0.5780931159158113
 41
3.578838513251534
 42
5.845939447516747
  0
ELLIPSE
  5
1A4
330
6C
100
AcDbEntity
  8
Visible (ANSI)
100
AcDbEllipse
 10
94.56540637191849
 20
64.79323513490465
 30
0.0
 11
0.0433187683667068
 21
-0.0752242566098219
 31
0.0
210
0.0
220
0.0
230
1.0
 40
0.5780931159158114
 41
3.578838513251534
 42
5.845939447516703
  0
ELLIPSE
  5
1A5
330
6C
100
AcDbEntity
  8
Visible (ANSI)
100
AcDbEllipse
 10
94.56540637191848
 20
44.96317542900175
 30
0.0
 11
0.0433187683667065
 21
-0.0752242566098215
 31
0.0
210
0.0
220
0.0
230
0.9999999999999998
 40
0.5780931159158113
 41
3.578838513251533
 42
5.845939447516747
  0
ELLIPSE
  5
1A6
330
6C
100
AcDbEntity
  8
Visible (ANSI)
100
AcDbEllipse
 10
107.5918846297792
 20
37.46172550158406
 30
0.0
 11
0.0433187683667067
 21
-0.0752242566098219
 31
0.0
210
0.0
220
0.0
230
1.0
 40
0.5780931159158113
 41
3.578838513251472
 42
5.845939447516703
  0
ELLIPSE
  5
1A7
330
6C
100
AcDbEntity
  8
Visible (ANSI)
100
AcDbEllipse
 10
107.5550561515925
 20
57.61122173274465
 30
0.0
 11
-0.0693100293867233
 21
0.1203588105757185
 31
0.0
210
0.0
220
0.0
230
1.0
 40
0.5780931159158112
 41
0.0
 42
6.283185307179586
  0
ELLIPSE
  5
1A8
330
6C
100
AcDbEntity
  8
Visible (ANSI)
100
AcDbEllipse
 10
94.52857789373171
 20
65.11267166016235
 30
0.0
 11
-0.0693100293867233
 21
0.1203588105757185
 31
0.0
210
0.0
220
0.0
230
1.0
 40
0.5780931159158112
 41
0.0
 42
6.283185307179586
  0
ELLIPSE
  5
1A9
330
6C
100
AcDbEntity
  8
Visible (ANSI)
100
AcDbEllipse
 10
94.52857789373167
 20
44.60132268355734
 30
0.0
 11
-0.0693100293867233
 21
0.1203588105757185
 31
0.0
210
0.0
220
0.0
230
1.0
 40
0.5780931159158112
 41
0.0
 42
6.283185307179586
  0
ELLIPSE
  5
1AA
330
6C
100
AcDbEntity
  8
Visible (ANSI)
100
AcDbEllipse
 10
107.5550561515924
 20
37.09987275613965
 30
0.0
 11
-0.0693100293867233
 21
0.1203588105757185
 31
0.0
210
0.0
220
0.0
230
1.0
 40
0.5780931159158112
 41
0.0
 42
6.283185307179586
  0
ELLIPSE
  5
1AB
330
6C
100
AcDbEntity
  8
Visible (ANSI)
100
AcDbEllipse
 10
107.5550561515925
 20
57.2705770973936
 30
0.0
 11
-0.043318768366702
 21
0.075224256609824
 31
0.0
210
0.0
220
0.0
230
0.9999999999999998
 40
0.5780931159158114
 41
0.0
 42
6.283185307179586
  0
ELLIPSE
  5
1AC
330
6C
100
AcDbEntity
  8
Visible (ANSI)
100
AcDbEllipse
 10
94.52857789373171
 20
64.77202702481129
 30
0.0
 11
-0.043318768366702
 21
0.075224256609824
 31
0.0
210
0.0
220
0.0
230
0.9999999999999998
 40
0.5780931159158114
 41
0.0
 42
6.283185307179586
  0
ELLIPSE
  5
1AD
330
6C
100
AcDbEntity
  8
Visible (ANSI)
100
AcDbEllipse
 10
94.52857789373167
 20
44.9419673189084
 30
0.0
 11
-0.043318768366702
 21
0.075224256609824
 31
0.0
210
0.0
220
0.0
230
0.9999999999999998
 40
0.5780931159158114
 41
0.0
 42
6.283185307179586
  0
ELLIPSE
  5
1AE
330
6C
100
AcDbEntity
  8
Visible (ANSI)
100
AcDbEllipse
 10
107.5550561515924
 20
37.44051739149071
 30
0.0
 11
-0.043318768366702
 21
0.075224256609824
 31
0.0
210
0.0
220
0.0
230
0.9999999999999998
 40
0.5780931159158114
 41
0.0
 42
6.283185307179586
  0
LINE
  5
1AF
330
6C
100
AcDbEntity
  8
Visible (ANSI)
100
AcDbLine
 10
95.03594665108815
 20
65.09909392522111
 30
0.0
 11
94.5575496299053
 21
65.37458444758569
 31
0.0
  0
LINE
  5
1B0
330
6C
100
AcDbEntity
  8
Visible (ANSI)
100
AcDbLine
 10
107.5997413717925
 20
57.86408572652817
 30
0.0
 11
107.1213443506096
 21
58.13957624889274
 31
0.0
  0
LINE
  5
1B1
330
6C
100
AcDbEntity
  8
Visible (ANSI)
100
AcDbLine
 10
107.7961599221221
 20
56.97076333322225
 30
0.0
 11
107.7961599221221
 21
57.52387938246294
 31
0.0
  0
LINE
  5
1B2
330
6C
100
AcDbEntity
  8
Visible (ANSI)
100
AcDbLine
 10
107.7961599221221
 20
36.99436269197255
 30
0.0
 11
107.7961599221221
 21
37.54747874121323
 31
0.0
  0
LINE
  5
1B3
330
6C
100
AcDbEntity
  8
Visible (ANSI)
100
AcDbLine
 10
94.99911817290131
 20
44.09417627750262
 30
0.0
 11
94.52072115171848
 21
44.3696667998672
 31
0.0
  0
LINE
  5
1B4
330
6C
100
AcDbEntity
  8
Visible (ANSI)
100
AcDbLine
 10
107.5629128936056
 20
36.85916807880968
 30
0.0
 11
107.0845158724228
 21
37.13465860117425
 31
0.0
  0
LINE
  5
1B5
330
6C
100
AcDbEntity
  8
Visible (ANSI)
100
AcDbLine
 10
107.7593314439353
 20
37.52627063111989
 30
0.0
 11
107.7593314439353
 21
36.97315458187919
 31
0.0
  0
LINE
  5
1B6
330
6C
100
AcDbEntity
  8
Visible (ANSI)
100
AcDbLine
 10
107.7593314439353
 20
57.50267127236959
 30
0.0
 11
107.7593314439353
 21
56.9495552231289
 31
0.0
  0
LINE
  5
1B7
330
6C
100
AcDbEntity
  8
Visible (ANSI)
100
AcDbLine
 10
107.0845158724228
 20
58.11836813879939
 30
0.0
 11
107.5629128936057
 21
57.84287761643482
 31
0.0
  0
LINE
  5
1B8
330
6C
100
AcDbEntity
  8
Visible (ANSI)
100
AcDbLine
 10
94.52072115171851
 20
65.35337633749233
 30
0.0
 11
94.99911817290136
 21
65.07788581512776
 31
0.0
  0
LINE
  5
1B9
330
6C
100
AcDbEntity
  8
Visible (ANSI)
100
AcDbLine
 10
94.3243026013889
 20
64.68627378518212
 30
0.0
 11
94.3243026013889
 21
65.23938983442282
 31
0.0
  0
LINE
  5
1BA
330
6C
100
AcDbEntity
  8
Visible (ANSI)
100
AcDbLine
 10
94.32430260138886
 20
44.70987314393242
 30
0.0
 11
94.32430260138886
 21
45.26298919317311
 31
0.0
  0
LINE
  5
1BB
330
6C
100
AcDbEntity
  8
Visible (ANSI)
100
AcDbLine
 10
95.03594665108815
 20
65.09909392522111
 30
0.0
 11
95.03594665108815
 21
65.09717708853685
 31
0.0
  0
LINE
  5
1BC
330
6C
100
AcDbEntity
  8
Visible (ANSI)
100
AcDbLine
 10
107.0845158724228
 20
58.11836813879939
 30
0.0
 11
107.0845158724228
 21
58.06150319433811
 31
0.0
  0
LINE
  5
1BD
330
6C
100
AcDbEntity
  8
Visible (ANSI)
100
AcDbLine
 10
107.0845158724228
 20
58.06150319433811
 30
0.0
 11
107.0844373050027
 21
58.06154843830633
 31
0.0
  0
LINE
  5
1BE
330
6C
100
AcDbEntity
  8
Visible Narrow (ANSI)
100
AcDbLine
 10
107.0844373050027
 20
58.06163927687574
 30
0.0
 11
94.99919674032149
 21
65.02106646526772
 31
0.0
  0
LINE
  5
1BF
330
6C
100
AcDbEntity
  8
Visible (ANSI)
100
AcDbLine
 10
94.99919674032149
 20
65.0209756266983
 30
0.0
 11
94.99911817290136
 21
65.02102087066649
 31
0.0
  0
LINE
  5
1C0
330
6C
100
AcDbEntity
  8
Visible (ANSI)
100
AcDbLine
 10
94.99911817290136
 20
65.02102087066649
 30
0.0
 11
94.99911817290136
 21
65.07788581512776
 31
0.0
  0
LINE
  5
1C1
330
6C
100
AcDbEntity
  8
Visible Narrow (ANSI)
100
AcDbLine
 10
107.1335419425853
 20
58.14669086289221
 30
0.0
 11
95.04830137790388
 21
65.10611805128404
 31
0.0
  0
ELLIPSE
  5
1C2
330
6C
100
AcDbEntity
  8
Visible (ANSI)
100
AcDbEllipse
 10
107.1335419425852
 20
58.08991675700026
 30
0.0
 11
0.0346550146934114
 21
0.0601794052879733
 31
0.0
210
0.0
220
0.0
230
1.0
 40
0.5780931159156362
 41
2.297684694085791
 42
2.354260781769395
  0
ELLIPSE
  5
1C3
330
6C
100
AcDbEntity
  8
Visible (ANSI)
100
AcDbEllipse
 10
107.1335419425851
 20
58.08991675700027
 30
0.0
 11
0.0346550146933161
 21
0.0601794052878162
 31
0.0
210
0.0
220
0.0
230
1.0
 40
0.5780931159156363
 41
0.7834644549691019
 42
1.009790328440376
  0
LINE
  5
1C4
330
6C
100
AcDbEntity
  8
Visible (ANSI)
100
AcDbLine
 10
107.0844373050027
 20
58.06154843830633
 30
0.0
 11
107.0845158724228
 21
58.06159368227453
 31
0.0
  0
ELLIPSE
  5
1C5
330
6C
100
AcDbEntity
  8
Visible (ANSI)
100
AcDbEllipse
 10
95.04830137790388
 20
65.04934394539219
 30
0.0
 11
0.0346550146933487
 21
0.060179405287867
 31
0.0
210
0.0
220
0.0
230
1.0
 40
0.5780931159156231
 41
0.7834644549745811
 42
2.354260781769298
  0
LINE
  5
1C6
330
6C
100
AcDbEntity
  8
Visible (ANSI)
100
AcDbLine
 10
94.99911817290136
 20
65.07788581512776
 30
0.0
 11
95.03594665108815
 21
65.09909392522111
 31
0.0
  0
LINE
  5
1C7
330
6C
100
AcDbEntity
  8
Visible (ANSI)
100
AcDbLine
 10
94.99911817290136
 20
65.02102087066649
 30
0.0
 11
94.99919674032149
 21
65.02106611463469
 31
0.0
  0
LINE
  5
1C8
330
6C
100
AcDbEntity
  8
Visible (ANSI)
100
AcDbLine
 10
107.1213443506096
 20
58.13957624889274
 30
0.0
 11
107.0845158724228
 21
58.11836813879939
 31
0.0
  0
LINE
  5
1C9
330
6C
100
AcDbEntity
  8
Visible (ANSI)
100
AcDbLine
 10
107.7961599221221
 20
57.52387938246294
 30
0.0
 11
107.5997413717925
 21
57.86408572652817
 31
0.0
  0
LINE
  5
1CA
330
6C
100
AcDbEntity
  8
Visible (ANSI)
100
AcDbLine
 10
107.5629128936057
 20
57.84287761643482
 30
0.0
 11
107.7593314439353
 21
57.50267127236959
 31
0.0
  0
LINE
  5
1CB
330
6C
100
AcDbEntity
  8
Visible (ANSI)
100
AcDbLine
 10
107.5997413717925
 20
57.86408572652817
 30
0.0
 11
107.5629128936057
 21
57.84287761643482
 31
0.0
  0
LINE
  5
1CC
330
6C
100
AcDbEntity
  8
Visible (ANSI)
100
AcDbLine
 10
107.7593314439353
 20
57.50267127236959
 30
0.0
 11
107.7961599221221
 21
57.52387938246294
 31
0.0
  0
LINE
  5
1CD
330
6C
100
AcDbEntity
  8
Visible (ANSI)
100
AcDbLine
 10
107.7945013391342
 20
37.54843385563384
 30
0.0
 11
107.7961599221221
 21
37.54747874121323
 31
0.0
  0
LINE
  5
1CE
330
6C
100
AcDbEntity
  8
Visible (ANSI)
100
AcDbLine
 10
107.7593314439353
 20
37.52627063111989
 30
0.0
 11
107.7101482389327
 21
37.55459335521254
 31
0.0
  0
LINE
  5
1CF
330
6C
100
AcDbEntity
  8
Visible (ANSI)
100
AcDbLine
 10
107.7101482389327
 20
37.55459335521254
 30
0.0
 11
107.7101482389327
 21
37.55468419378197
 31
0.0
  0
LINE
  5
1D0
330
6C
100
AcDbEntity
  8
Visible Narrow (ANSI)
100
AcDbLine
 10
107.7102268063529
 20
37.55463894981377
 30
0.0
 11
107.7102268063529
 21
56.97774186468393
 31
0.0
  0
LINE
  5
1D1
330
6C
100
AcDbEntity
  8
Visible (ANSI)
100
AcDbLine
 10
107.7101482389327
 20
56.97778710865214
 30
0.0
 11
107.7101482389327
 21
56.97787794722156
 31
0.0
  0
LINE
  5
1D2
330
6C
100
AcDbEntity
  8
Visible (ANSI)
100
AcDbLine
 10
107.7101482389327
 20
56.97787794722156
 30
0.0
 11
107.7593314439353
 21
56.9495552231289
 31
0.0
  0
LINE
  5
1D3
330
6C
100
AcDbEntity
  8
Visible Narrow (ANSI)
100
AcDbLine
 10
107.8084360815177
 20
37.55463894981379
 30
0.0
 11
107.8084360815177
 21
56.97774186468396
 31
0.0
  0
ELLIPSE
  5
1D4
330
6C
100
AcDbEntity
  8
Visible (ANSI)
100
AcDbEllipse
 10
107.7593314439353
 20
37.58291642993825
 30
0.0
 11
0.0694444444444449
 21
0.000000000000004
 31
0.0
210
0.0
220
0.0
230
1.0
 40
0.5758617009853142
 41
3.926990816987231
 42
5.497787143782243
  0
LINE
  5
1D5
330
6C
100
AcDbEntity
  8
Visible (ANSI)
100
AcDbLine
 10
107.7101482389327
 20
56.97778710865214
 30
0.0
 11
107.7102271107949
 21
56.97783252793684
 31
0.0
  0
ELLIPSE
  5
1D6
330
6C
100
AcDbEntity
  8
Visible (ANSI)
100
AcDbEllipse
 10
107.7593314439353
 20
57.00601934480843
 30
0.0
 11
0.0694444444445059
 21
0.000000000000004
 31
0.0
210
0.0
220
0.0
230
1.0
 40
0.5758617009853141
 41
3.926990816987181
 42
3.983676441749895
  0
ELLIPSE
  5
1D7
330
6C
100
AcDbEntity
  8
Visible (ANSI)
100
AcDbEllipse
 10
107.7593314439353
 20
57.00601934480836
 30
0.0
 11
0.0694444444443533
 21
-0.0000000000000001
 31
0.0
210
0.0
220
0.0
230
1.0
 40
0.5758617009853144
 41
5.271378846409756
 42
5.497787143782589
  0
LINE
  5
1D8
330
6C
100
AcDbEntity
  8
Visible (ANSI)
100
AcDbLine
 10
107.7593314439353
 20
56.9495552231289
 30
0.0
 11
107.7961599221221
 21
56.97076333322225
 31
0.0
  0
LINE
  5
1D9
330
6C
100
AcDbEntity
  8
Visible (ANSI)
100
AcDbLine
 10
107.7101482389327
 20
37.55459335521254
 30
0.0
 11
107.7102271107958
 21
37.5546387744978
 31
0.0
  0
LINE
  5
1DA
330
6C
100
AcDbEntity
  8
Visible (ANSI)
100
AcDbLine
 10
107.7961599221221
 20
37.54747874121323
 30
0.0
 11
107.7593314439353
 21
37.52627063111989
 31
0.0
  0
LINE
  5
1DB
330
6C
100
AcDbEntity
  8
Visible (ANSI)
100
AcDbLine
 10
107.5997413717924
 20
36.88037618890303
 30
0.0
 11
107.7961599221221
 21
36.99436269197255
 31
0.0
  0
LINE
  5
1DC
330
6C
100
AcDbEntity
  8
Visible (ANSI)
100
AcDbLine
 10
107.7593314439353
 20
36.97315458187919
 30
0.0
 11
107.5629128936056
 21
36.85916807880968
 31
0.0
  0
LINE
  5
1DD
330
6C
100
AcDbEntity
  8
Visible (ANSI)
100
AcDbLine
 10
107.5629128936056
 20
36.85916807880968
 30
0.0
 11
107.5997413717924
 21
36.88037618890303
 31
0.0
  0
LINE
  5
1DE
330
6C
100
AcDbEntity
  8
Visible (ANSI)
100
AcDbLine
 10
107.7961599221221
 20
36.99436269197255
 30
0.0
 11
107.7593314439353
 21
36.97315458187919
 31
0.0
  0
LINE
  5
1DF
330
6C
100
AcDbEntity
  8
Visible (ANSI)
100
AcDbLine
 10
107.7101482389327
 20
37.55468419378197
 30
0.0
 11
107.7102268063529
 21
37.55463894981377
 31
0.0
  0
LINE
  5
1E0
330
6C
100
AcDbEntity
  8
Visible (ANSI)
100
AcDbLine
 10
107.7102268063529
 20
56.97774186468393
 30
0.0
 11
107.7101482389327
 21
56.97778710865214
 31
0.0
  0
LINE
  5
1E1
330
6C
100
AcDbEntity
  8
Visible (ANSI)
100
AcDbLine
 10
107.8084360815177
 20
37.55463894981379
 30
0.0
 11
108.0633873598454
 21
37.70145562662004
 31
0.0
  0
LINE
  5
1E2
330
6C
100
AcDbEntity
  8
Visible (ANSI)
100
AcDbLine
 10
108.0633873598455
 20
57.1245585414902
 30
0.0
 11
108.0633873598454
 21
37.70145562662004
 31
0.0
  0
LINE
  5
1E3
330
6C
100
AcDbEntity
  8
Visible (ANSI)
100
AcDbLine
 10
108.0633873598455
 20
57.1245585414902
 30
0.0
 11
107.8084360815177
 21
56.97774186468396
 31
0.0
  0
LINE
  5
1E4
330
6C
100
AcDbEntity
  8
Visible (ANSI)
100
AcDbLine
 10
108.0265588816587
 20
57.14576665158354
 30
0.0
 11
108.0633873598455
 21
57.1245585414902
 31
0.0
  0
LINE
  5
1E5
330
6C
100
AcDbEntity
  8
Visible (ANSI)
100
AcDbLine
 10
107.7961599221221
 20
57.01308871483953
 30
0.0
 11
108.0265588816587
 21
57.14576665158354
 31
0.0
  0
LINE
  5
1E6
330
6C
100
AcDbEntity
  8
Visible (ANSI)
100
AcDbLine
 10
107.0844373050027
 20
58.06154843830633
 30
0.0
 11
107.0844373050027
 21
58.06163927687574
 31
0.0
  0
LINE
  5
1E7
330
6C
100
AcDbEntity
  8
Visible (ANSI)
100
AcDbLine
 10
94.99919674032149
 20
65.02106646526772
 30
0.0
 11
94.99919674032149
 21
65.0209756266983
 31
0.0
  0
LINE
  5
1E8
330
6C
100
AcDbEntity
  8
Visible (ANSI)
100
AcDbLine
 10
107.1335419425853
 20
58.14669086289221
 30
0.0
 11
107.3884932209129
 21
58.29350753969832
 31
0.0
  0
LINE
  5
1E9
330
6C
100
AcDbEntity
  8
Visible (ANSI)
100
AcDbLine
 10
95.30325265623165
 20
65.25293472809029
 30
0.0
 11
107.3884932209129
 21
58.29350753969832
 31
0.0
  0
LINE
  5
1EA
330
6C
100
AcDbEntity
  8
Visible (ANSI)
100
AcDbLine
 10
95.30325265623165
 20
65.25293472809029
 30
0.0
 11
95.04830137790388
 21
65.10611805128404
 31
0.0
  0
LINE
  5
1EB
330
6C
100
AcDbEntity
  8
Visible (ANSI)
100
AcDbLine
 10
107.3884932209129
 20
58.25092696027944
 30
0.0
 11
107.1582369685852
 21
58.1183312031515
 31
0.0
  0
LINE
  5
1EC
330
6C
100
AcDbEntity
  8
Visible (ANSI)
100
AcDbLine
 10
107.3884932209129
 20
58.29350753969832
 30
0.0
 11
107.3884932209129
 21
58.25092696027944
 31
0.0
  0
LINE
  5
1ED
330
6C
100
AcDbEntity
  8
Visible (ANSI)
100
AcDbLine
 10
94.3243026013889
 20
65.23938983442282
 30
0.0
 11
94.52072115171851
 21
65.35337633749233
 31
0.0
  0
LINE
  5
1EE
330
6C
100
AcDbEntity
  8
Visible (ANSI)
100
AcDbLine
 10
94.52072115171851
 20
65.35337633749233
 30
0.0
 11
94.5575496299053
 21
65.37458444758569
 31
0.0
  0
LINE
  5
1EF
330
6C
100
AcDbEntity
  8
Visible (ANSI)
100
AcDbLine
 10
94.3243026013889
 20
64.68627378518212
 30
0.0
 11
94.37348580639142
 21
64.65795106108946
 31
0.0
  0
LINE
  5
1F0
330
6C
100
AcDbEntity
  8
Visible (ANSI)
100
AcDbLine
 10
94.37348580639142
 20
64.65795106108946
 30
0.0
 11
94.37348580639142
 21
64.65786022252004
 31
0.0
  0
LINE
  5
1F1
330
6C
100
AcDbEntity
  8
Visible Narrow (ANSI)
100
AcDbLine
 10
94.37340723897129
 20
64.65790546648825
 30
0.0
 11
94.37340723897126
 21
45.23480255161808
 31
0.0
  0
LINE
  5
1F2
330
6C
100
AcDbEntity
  8
Visible (ANSI)
100
AcDbLine
 10
94.3734858063914
 20
45.23475730764988
 30
0.0
 11
94.3734858063914
 21
45.23466646908045
 31
0.0
  0
LINE
  5
1F3
330
6C
100
AcDbEntity
  8
Visible (ANSI)
100
AcDbLine
 10
94.3734858063914
 20
45.23466646908045
 30
0.0
 11
94.32430260138886
 21
45.26298919317311
 31
0.0
  0
ELLIPSE
  5
1F4
330
6C
100
AcDbEntity
  8
Visible (ANSI)
100
AcDbEllipse
 10
94.42251187655369
 20
64.6861829466127
 30
0.0
 11
-0.0694444444444352
 21
0.0000000000000001
 31
0.0
210
0.0
220
0.0
230
1.0
 40
0.5758617009853141
 41
0.7287125386356533
 42
0.7853981633974457
  0
ELLIPSE
  5
1F5
330
6C
100
AcDbEntity
  8
Visible (ANSI)
100
AcDbEllipse
 10
94.42251187655367
 20
45.26308003174254
 30
0.0
 11
-0.0694444444444445
 21
-0.0000000000000011
 31
0.0
210
0.0
220
0.0
230
1.0
 40
0.5758617009853215
 41
0.0
 42
0.785398163397419
  0
LINE
  5
1F6
330
6C
100
AcDbEntity
  8
Visible (ANSI)
100
AcDbLine
 10
94.32430260138886
 20
45.26298919317311
 30
0.0
 11
94.3530674321092
 21
45.27955375752029
 31
0.0
  0
LINE
  5
1F7
330
6C
100
AcDbEntity
  8
Visible (ANSI)
100
AcDbLine
 10
94.35306743210926
 20
64.66970922083494
 30
0.0
 11
94.3530674321092
 21
45.26308003174254
 31
0.0
  0
LINE
  5
1F8
330
6C
100
AcDbEntity
  8
Visible (ANSI)
100
AcDbLine
 10
94.37348580639142
 20
64.65786022252004
 30
0.0
 11
94.37340723897129
 21
64.65790546648825
 31
0.0
  0
LINE
  5
1F9
330
6C
100
AcDbEntity
  8
Visible (ANSI)
100
AcDbLine
 10
94.37340723897126
 20
45.23480255161808
 30
0.0
 11
94.3734858063914
 21
45.23475730764988
 31
0.0
  0
LINE
  5
1FA
330
6C
100
AcDbEntity
  8
Visible (ANSI)
100
AcDbLine
 10
94.51042004390725
 20
64.79336085364439
 30
0.0
 11
94.55606865009334
 21
64.81964813765033
 31
0.0
  0
LINE
  5
1FB
330
6C
100
AcDbEntity
  8
Visible (ANSI)
100
AcDbLine
 10
94.57641438936075
 20
64.78894824948596
 30
0.0
 11
94.52676035210476
 21
64.76035439113093
 31
0.0
  0
LINE
  5
1FC
330
6C
100
AcDbEntity
  8
Visible (ANSI)
100
AcDbLine
 10
94.52072115171848
 20
44.3696667998672
 30
0.0
 11
94.32430260138886
 21
44.70987314393242
 31
0.0
  0
DIMENSION
  5
1FD
330
6C
100
AcDbEntity
  8
Dimension (ANSI)
100
AcDbDimension
  2
*D4
 10
16.56625355940539
 20
71.2371479055664
 30
0.0
 11
33.66625355940539
 21
71.2371479055664
 31
0.0
 70
   160
  1
<>
 42
34.2
  3
Default (ANSI)
100
AcDbAlignedDimension
 13
50.76625355940539
 23
64.62297467721994
 33
0.0
 14
16.56625355940539
 24
64.62297467721993
 34
0.0
 50
180.0
100
AcDbRotatedDimension
1001
ACAD
1000
DSTYLE
1002
{
1070
   289
1070
     1
1070
    73
1070
     0
1070
    74
1070
     0
1070
   271
1070
     3
1070
   272
1070
     2
1070
    48
1040
0.0
1070
    47
1040
0.0
1002
}
  0
DIMENSION
  5
2EA
330
6C
100
AcDbEntity
  8
Dimension (ANSI)
100
AcDbDimension
  2
*D5
 10
3.752100623273062
 20
18.92297467721993
 30
0.0
 11
3.752100623273061
 21
49.46125493073379
 31
0.0
 70
   160
  1
<>
 42
46.2
  3
Default (ANSI)
100
AcDbAlignedDimension
 13
17.06625355940539
 23
65.12297467721992
 33
0.0
 14
17.0662535594054
 24
18.92297467721992
 34
0.0
 50
270.0
100
AcDbRotatedDimension
1001
ACAD
1000
DSTYLE
1002
{
1070
   289
1070
     1
1070
   271
1070
     3
1070
   272
1070
     2
1070
    48
1040
0.0
1070
    47
1040
0.0
1002
}
  0
DIMENSION
  5
3D4
330
6C
100
AcDbEntity
  8
Dimension (ANSI)
100
AcDbDimension
  2
*D6
 10
16.90947686410873
 20
19.61975137251654
 30
0.0
 11
28.46576602833644
 21
12.19278659316574
 31
0.0
 70
   163
  1
<>{\PTYP.(8PL.)}
 42
0.5
  3
Default (ANSI)
100
AcDbDiametricDimension
 15
17.26303025470206
 25
19.26619798192331
 35
0.0
 40
0.0
1001
ACAD_DSTYLE_DIMRADIAL_EXTENSION
1070
   387
1070
     1
1070
   388
1040
0.0
1070
   390
1040
0.0
1001
ACAD
1000
DSTYLE
1002
{
1070
   145
1040
-0.25
1070
   144
1040
0.9999999999999857
1070
   271
1070
     3
1070
   272
1070
     2
1070
    48
1040
0.0
1070
    47
1040
0.0
1002
}
  0
DIMENSION
  5
48E
330
6C
100
AcDbEntity
  8
Dimension (ANSI)
100
AcDbDimension
  2
*D7
 10
16.94271324658368
 20
20.25470182760809
 30
0.0
 11
28.34779301559081
 21
17.12588290590513
 31
0.0
 70
   163
  1
<>{\PTYP.(4PL.)}
 42
0.3125
  3
Default (ANSI)
100
AcDbDiametricDimension
 15
17.22979387222713
 25
20.13124752683179
 35
0.0
 40
0.0
1001
ACAD_DSTYLE_DIMRADIAL_EXTENSION
1070
   387
1070
     1
1070
   388
1040
0.0
1070
   390
1040
0.0
1001
ACAD
1000
DSTYLE
1002
{
1070
   145
1040
-0.25
1070
   144
1040
0.9999999999999801
1070
   271
1070
     3
1070
   272
1070
     2
1070
    48
1040
0.0
1070
    47
1040
0.0
1002
}
  0
DIMENSION
  5
547
330
6C
100
AcDbEntity
  8
Dimension (ANSI)
100
AcDbDimension
  2
*D8
 10
75.31173153008913
 20
64.04859807741077
 30
0.0
 11
70.57920506918421
 21
64.04859807741077
 31
0.0
 70
   160
  1
 12 GA.\P304 SS
 42
0.0937499999999858
  3
Default (ANSI)
100
AcDbAlignedDimension
 13
75.21798153008915
 23
48.2610727291788
 33
0.0
 14
75.31173153008913
 24
48.26107272917878
 34
0.0
 50
180.0
100
AcDbRotatedDimension
1001
ACAD
1000
DSTYLE
1002
{
1070
   289
1070
     1
1070
    73
1070
     0
1070
    74
1070
     0
1070
   145
1040
-0.25
1070
   271
1070
     3
1070
   272
1070
     2
1070
    48
1040
0.0
1070
    47
1040
0.0
1002
}
  0
DIMENSION
  5
645
330
6C
100
AcDbEntity
  8
Dimension (ANSI)
100
AcDbDimension
  2
*D9
 10
7.537976175945795
 20
19.44297467721993
 30
0.0
 11
7.537976175945793
 21
46.82466299382568
 31
0.0
 70
   160
  1
<>
 42
45.15999999999998
  3
Default (ANSI)
100
AcDbAlignedDimension
 13
17.0862535594054
 23
64.60297467721992
 33
0.0
 14
17.0862535594054
 24
19.44297467721993
 34
0.0
 50
90.0
100
AcDbRotatedDimension
1001
ACAD
1000
DSTYLE
1002
{
1070
   289
1070
     1
1070
   271
1070
     3
1070
   272
1070
     2
1070
    48
1040
0.0
1070
    47
1040
0.0
1002
}
  0
DIMENSION
  5
72F
330
6C
100
AcDbEntity
  8
Dimension (ANSI)
100
AcDbDimension
  2
*D10
 10
11.29212872370019
 20
19.44297467721993
 30
0.0
 11
13.75827050469989
 21
22.62954145902652
 31
0.0
 70
   160
  1
<>
 42
0.7500000000000036
  3
Default (ANSI)
100
AcDbAlignedDimension
 13
17.0862535594054
 23
20.19297467721993
 33
0.0
 14
17.0862535594054
 24
19.44297467721993
 34
0.0
 50
90.0
100
AcDbRotatedDimension
1001
ACAD
1000
DSTYLE
1002
{
1070
   289
1070
     1
1070
   271
1070
     3
1070
   272
1070
     2
1070
    48
1040
0.0
1070
    47
1040
0.0
1002
}
  0
DIMENSION
  5
82F
330
6C
100
AcDbEntity
  8
Dimension (ANSI)
100
AcDbDimension
  2
*D11
 10
17.0862535594054
 20
69.17553981905581
 30
0.0
 11
33.66625355940541
 21
69.17553981905581
 31
0.0
 70
   160
  1
<>
 42
33.16000000000001
  3
Default (ANSI)
100
AcDbAlignedDimension
 13
50.2462535594054
 23
64.60297467721993
 33
0.0
 14
17.0862535594054
 24
64.60297467721992
 34
0.0
 50
180.0
100
AcDbRotatedDimension
1001
ACAD
1000
DSTYLE
1002
{
1070
   289
1070
     1
1070
    73
1070
     0
1070
    74
1070
     0
1070
   271
1070
     3
1070
   272
1070
     2
1070
    48
1040
0.0
1070
    47
1040
0.0
1002
}
  0
DIMENSION
  5
919
330
6C
100
AcDbEntity
  8
Dimension (ANSI)
100
AcDbDimension
  2
*D12
 10
50.9674670800599
 20
18.92297467721992
 30
0.0
 11
53.43360886105958
 21
21.3234409233128
 31
0.0
 70
   160
  1
<>
 42
0.5000000000000071
  3
Default (ANSI)
100
AcDbAlignedDimension
 13
50.7662535594054
 23
19.42297467721993
 33
0.0
 14
50.2662535594054
 24
18.92297467721992
 34
0.0
 50
90.0
100
AcDbRotatedDimension
1001
ACAD
1000
DSTYLE
1002
{
1070
   289
1070
     1
1070
   271
1070
     3
1070
   272
1070
     2
1070
    48
1040
0.0
1070
    47
1040
0.0
1002
}
  0
DIMENSION
  5
A19
330
6C
100
AcDbEntity
  8
Dimension (ANSI)
100
AcDbDimension
  2
*D13
 10
50.2662535594054
 20
17.06913442542278
 30
0.0
 11
46.34677761100157
 21
17.06913442542278
 31
0.0
 70
   160
  1
<>
 42
0.5
  3
Default (ANSI)
100
AcDbAlignedDimension
 13
50.7662535594054
 23
19.42297467721993
 33
0.0
 14
50.2662535594054
 24
18.92297467721992
 34
0.0
 50
180.0
100
AcDbRotatedDimension
1001
ACAD
1000
DSTYLE
1002
{
1070
   289
1070
     1
1070
    73
1070
     0
1070
    74
1070
     0
1070
   271
1070
     3
1070
   272
1070
     2
1070
    48
1040
0.0
1070
    47
1040
0.0
1002
}
  0
DIMENSION
  5
B03
330
6C
100
AcDbEntity
  8
Dimension (ANSI)
100
AcDbDimension
  2
*D14
 10
50.76625355940539
 20
67.39120250362408
 30
0.0
 11
47.12394381426512
 21
67.39120250362408
 31
0.0
 70
   160
  1
<>
 42
0.519999999999989
  3
Default (ANSI)
100
AcDbAlignedDimension
 13
50.2462535594054
 23
64.60297467721993
 33
0.0
 14
50.76625355940539
 24
64.62297467721994
 34
0.0
 50
180.0
100
AcDbRotatedDimension
1001
ACAD
1000
DSTYLE
1002
{
1070
   289
1070
     1
1070
    73
1070
     0
1070
    74
1070
     0
1070
   271
1070
     3
1070
   272
1070
     2
1070
    48
1040
0.0
1070
    47
1040
0.0
1002
}
  0
DIMENSION
  5
BED
330
6C
100
AcDbEntity
  8
Dimension (ANSI)
100
AcDbDimension
  2
*D15
 10
56.35817913295933
 20
65.12297467721992
 30
0.0
 11
53.89203735195962
 21
62.70250843112709
 31
0.0
 70
   160
  1
<>
 42
0.5199999999999961
  3
Default (ANSI)
100
AcDbAlignedDimension
 13
50.2462535594054
 23
64.60297467721993
 33
0.0
 14
50.26625355940539
 24
65.12297467721992
 34
0.0
 50
270.0
100
AcDbRotatedDimension
1001
ACAD
1000
DSTYLE
1002
{
1070
   289
1070
     1
1070
   271
1070
     3
1070
   272
1070
     2
1070
    48
1040
0.0
1070
    47
1040
0.0
1002
}
  0
MTEXT
  5
CED
102
{ACAD_XDICTIONARY
360
FBB
102
}
330
6C
100
AcDbEntity
  8
Symbol (ANSI)
100
AcDbMText
 10
65.27936684373803
 20
17.32195555691313
 30
0.0
 40
0.8000000098871746
 41
47.19964309201503
 71
     1
 72
     1
  3
{\fRomanS|b0|i0|c0|p2;\H2x;PART#: NP4836SSC\P(DATA SUBJECT TO CHANGE WITHOUT \H1.5268x; \H0.65497x;NOTICE) \H1.4277x; \H0.70044x;\P\H0.6x;THIS DRAWING IS PROPERTY OF HUBBELL INC. WIEGMANN\H1.4261x; \H0.70119x;\PALL INFORMATION IS PROPRIETARY AND NOT 
  1
TO BE \H1.1283x; \H0.88629x;DUPLICATED\H1.1702x; \H0.85454x;\P\H0.83333x; \H1.1972x; \H0.8353x;\P\H1.113x; }
  7
Note Text (ANSI)
 73
     1
 44
0.8555545210838317
1001
ACAD
1000
MTEXTBEGIN
1070
    73
1070
     1
1070
    44
1040
0.8555545210838317
1070
    74
1070
     0
1000
MTEXTEND
  0
DIMENSION
  5
CEF
330
6C
100
AcDbEntity
  8
Dimension (ANSI)
100
AcDbDimension
  2
*D16
 10
75.99198153008863
 20
67.74764659323043
 30
0.0
 11
79.20668149777005
 21
67.74764659323043
 31
0.0
 70
   160
  1
<>
 42
0.7739999999996457
  3
Default (ANSI)
100
AcDbAlignedDimension
 13
75.21798153008899
 23
65.12297467721992
 33
0.0
 14
75.99198153008863
 24
65.12297467721992
 34
0.0
 50
180.0
100
AcDbRotatedDimension
1001
ACAD
1000
DSTYLE
1002
{
1070
   289
1070
     1
1070
    73
1070
     0
1070
    74
1070
     0
1070
   271
1070
     3
1070
   272
1070
     2
1070
    48
1040
0.0
1070
    47
1040
0.0
1002
}
  0
DIMENSION
  5
DD9
330
6C
100
AcDbEntity
  8
Dimension (ANSI)
100
AcDbDimension
  2
*D17
 10
11.05343204628476
 20
42.02297467721993
 30
0.0
 11
11.05343204628475
 21
30.73297467721994
 31
0.0
 70
   160
  1
<>
 42
22.58
  3
Default (ANSI)
100
AcDbAlignedDimension
 13
17.0862535594054
 23
19.44297467721993
 33
0.0
 14
17.0862535594054
 24
42.02297467721993
 34
0.0
 50
90.0
100
AcDbRotatedDimension
1001
ACAD
1000
DSTYLE
1002
{
1070
   289
1070
     1
1070
   271
1070
     3
1070
   272
1070
     2
1070
    48
1040
0.0
1070
    47
1040
0.0
1002
}
  0
DIMENSION
  5
EC3
330
6C
100
AcDbEntity
  8
Dimension (ANSI)
100
AcDbDimension
  2
*D18
 10
33.66625355940538
 20
67.08180336651136
 30
0.0
 11
25.3762535594054
 21
67.08180336651136
 31
0.0
 70
   160
  1
<>
 42
16.57999999999998
  3
Default (ANSI)
100
AcDbAlignedDimension
 13
17.0862535594054
 23
64.60297467721992
 33
0.0
 14
33.66625355940538
 24
64.60297467721992
 34
0.0
 50
180.0
100
AcDbRotatedDimension
1001
ACAD
1000
DSTYLE
1002
{
1070
   289
1070
     1
1070
    73
1070
     0
1070
    74
1070
     0
1070
   271
1070
     3
1070
   272
1070
     2
1070
    48
1040
0.0
1070
    47
1040
0.0
1002
}
  0
ENDSEC
  0
SECTION
  2
OBJECTS
  0
DICTIONARY
  5
C
330
0
100
AcDbDictionary
281
     1
  3
ACAD_CIP_PREVIOUS_PRODUCT_INFO
350
FAD
  3
ACAD_COLOR
350
63
  3
ACAD_GROUP
350
D
  3
ACAD_LAYOUT
350
62
  3
ACAD_MATERIAL
350
10
  3
ACAD_MLEADERSTYLE
350
66
  3
ACAD_MLINESTYLE
350
5F
  3
ACAD_PLOTSETTINGS
350
61
  3
ACAD_PLOTSTYLENAME
350
E
  3
ACAD_SCALELIST
350
42
  3
ACAD_TABLESTYLE
350
64
  3
ACAD_VISUALSTYLE
350
29
  3
ACDB_RECOMPOSE_DATA
350
FBD
  3
AcDbVariableDictionary
350
76
  3
DWGPROPS
350
FBE
  0
DICTIONARY
  5
FFA
330
488
100
AcDbDictionary
280
     1
281
     1
  3
ACAD_MTEXT_RT
360
FFB
  0
DICTIONARY
  5
FFC
330
541
100
AcDbDictionary
280
     1
281
     1
  3
ACAD_MTEXT_RT
360
FFD
  0
DICTIONARY
  5
FBB
330
CED
100
AcDbDictionary
280
     1
281
     1
  3
ACAD_MTEXT_2008_RT
360
FBC
  0
XRECORD
  5
FAD
102
{ACAD_REACTORS
330
C
102
}
330
C
100
AcDbXrecord
280
     1
300
INVNTOR
300
2012
300
85795PDSP_2012_0F
  0
DICTIONARY
  5
63
102
{ACAD_REACTORS
330
C
102
}
330
C
100
AcDbDictionary
281
     1
  0
DICTIONARY
  5
D
102
{ACAD_REACTORS
330
C
102
}
330
C
100
AcDbDictionary
281
     1
  0
DICTIONARY
  5
62
102
{ACAD_REACTORS
330
C
102
}
330
C
100
AcDbDictionary
281
     1
  3
Layout1
350
6B
  3
Layout2
350
73
  3
Model
350
6F
  0
DICTIONARY
  5
10
102
{ACAD_REACTORS
330
C
102
}
330
C
100
AcDbDictionary
281
     1
  3
ByBlock
350
19
  3
ByLayer
350
11
  3
Global
350
21
  0
DICTIONARY
  5
66
102
{ACAD_REACTORS
330
C
102
}
330
C
100
AcDbDictionary
281
     1
  3
Standard
350
67
  0
DICTIONARY
  5
5F
102
{ACAD_REACTORS
330
C
102
}
330
C
100
AcDbDictionary
281
     1
  3
Standard
350
60
  0
DICTIONARY
  5
61
102
{ACAD_REACTORS
330
C
102
}
330
C
100
AcDbDictionary
281
     1
  0
ACDBDICTIONARYWDFLT
  5
E
102
{ACAD_REACTORS
330
C
102
}
330
C
100
AcDbDictionary
281
     1
  3
Normal
350
F
100
AcDbDictionaryWithDefault
340
F
  0
DICTIONARY
  5
42
102
{ACAD_REACTORS
330
C
102
}
330
C
100
AcDbDictionary
281
     1
  3
A0
350
43
  3
A1
350
44
  3
A2
350
45
  3
A3
350
46
  3
A4
350
47
  3
A5
350
48
  3
A6
350
49
  3
A7
350
4A
  3
A8
350
4B
  3
A9
350
4C
  3
B0
350
4D
  3
B1
350
4E
  3
B2
350
4F
  3
B3
350
50
  3
B4
350
51
  3
B5
350
52
  3
B6
350
53
  0
DICTIONARY
  5
64
102
{ACAD_REACTORS
330
C
102
}
330
C
100
AcDbDictionary
281
     1
  3
Standard
350
65
  0
DICTIONARY
  5
29
102
{ACAD_REACTORS
330
C
102
}
330
C
100
AcDbDictionary
281
     1
  3
2dWireframe
350
2F
  3
Basic
350
2E
  3
Brighten
350
35
  3
ColorChange
350
39
  3
Conceptual
350
32
  3
Dim
350
34
  3
EdgeColorOff
350
41
  3
Facepattern
350
38
  3
Flat
350
2A
  3
FlatWithEdges
350
2B
  3
Gouraud
350
2C
  3
GouraudWithEdges
350
2D
  3
Hidden
350
31
  3
JitterOff
350
3F
  3
Linepattern
350
37
  3
OverhangOff
350
40
  3
Realistic
350
33
  3
Shaded
350
3E
  3
Shaded with edges
350
3D
  3
Shades of Gray
350
3A
  3
Sketchy
350
3B
  3
Thicken
350
36
  3
Wireframe
350
30
  3
X-Ray
350
3C
  0
XRECORD
  5
FBD
102
{ACAD_REACTORS
330
C
102
}
330
C
100
AcDbXrecord
280
     1
 90
        1
330
65
330
CED
  0
DICTIONARY
  5
76
102
{ACAD_REACTORS
330
C
102
}
330
C
100
AcDbDictionary
281
     1
  3
CANNOSCALE
350
79
  3
CMLEADERSTYLE
350
78
  3
CTABLESTYLE
350
77
  3
DIMASSOC
350
FB5
  3
HIDETEXT
350
FB4
  3
INDEXCTL
350
FB3
  3
LAYEREVAL
350
FB0
  3
LAYERNOTIFY
350
FB1
  3
LIGHTINGUNITS
350
FAF
  3
MSLTSCALE
350
FAE
  3
SORTENTS
350
FB2
  3
XCLIPFRAME
350
FB6
  0
XRECORD
  5
FBE
102
{ACAD_REACTORS
330
C
102
}
330
C
100
AcDbXrecord
280
     1
  1
DWGPROPS COOKIE
  2

  3

  4
dnichola
  6

  7

  8

  9
-
300
Manager=
301
Company=
302
Category=
303
Part Number=NP4836SSC-S
304
Description=
305
Project=
306
Designer=dnichola
307
Engineer=
308
Authority=
309
Cost Center=
 40
0.0000368981481481
 41
2455945.369263472
 42
2455945.369263472
  1

 90
       19
300
Vendor=
300
User Status=
300
Design Status=WorkInProgress
300
Checked by=
300
Engr Approved by=
300
Mfg Approved by=
300
DWG. NO=
300
NUMBER OF SHEETS=1
300
DRAWING #=
  0
XRECORD
  5
FFB
102
{ACAD_REACTORS
330
FFA
102
}
330
FFA
100
AcDbXrecord
280
     1
 40
31546.0
  1
\A1;\U+22050.500{\PTYP.(8PL.)}
  0
XRECORD
  5
FFD
102
{ACAD_REACTORS
330
FFC
102
}
330
FFC
100
AcDbXrecord
280
     1
 40
31481.0
  1
\A1;\U+22050.313{\PTYP.(4PL.)}
  0
XRECORD
  5
FBC
102
{ACAD_REACTORS
330
FBB
102
}
330
FBB
100
AcDbXrecord
280
     1
 40
4261356.0
  1
\pxsm0.94;{\fRomanS|b0|i0;\H1.6000;PART#: NP4836SSC\P(DATA SUBJECT TO CHANGE WITHOUT NOTICE) \P\fRomanS|b0|i0;\H0.9600;THIS DRAWING IS PROPERTY OF HUBBELL INC. WIEGMANN\PALL INFORMATION IS PROPRIETARY AND NOT TO BE DUPLICATED\P\fRomanS|b0|i0;\H0.8000
  1
; \P}
  0
LAYOUT
  5
6B
102
{ACAD_XDICTIONARY
360
FF4
102
}
102
{ACAD_REACTORS
330
62
102
}
330
62
100
AcDbPlotSettings
  1

  2

  4

  6

 40
0.0
 41
0.0
 42
0.0
 43
0.0
 44
0.0
 45
0.0
 46
0.0
 47
0.0
 48
0.0
 49
0.0
140
0.0
141
0.0
142
1.0
143
1.0
 70
   688
 72
     0
 73
     0
 74
     5
  7

 75
    16
147
1.0
148
0.0
149
0.0
100
AcDbLayout
  1
Layout1
 70
     1
 71
     1
 10
0.0
 20
0.0
 11
12.0
 21
9.0
 12
0.0
 22
0.0
 32
0.0
 14
0.0
 24
0.0
 34
0.0
 15
0.0
 25
0.0
 35
0.0
146
0.0
 13
0.0
 23
0.0
 33
0.0
 16
1.0
 26
0.0
 36
0.0
 17
0.0
 27
1.0
 37
0.0
 76
     0
330
68
  0
LAYOUT
  5
73
102
{ACAD_XDICTIONARY
360
FF8
102
}
102
{ACAD_REACTORS
330
62
102
}
330
62
100
AcDbPlotSettings
  1

  2

  4

  6

 40
0.0
 41
0.0
 42
0.0
 43
0.0
 44
0.0
 45
0.0
 46
0.0
 47
0.0
 48
0.0
 49
0.0
140
0.0
141
0.0
142
1.0
143
1.0
 70
   688
 72
     0
 73
     0
 74
     5
  7

 75
    16
147
1.0
148
0.0
149
0.0
100
AcDbLayout
  1
Layout2
 70
     1
 71
     2
 10
0.0
 20
0.0
 11
12.0
 21
9.0
 12
0.0
 22
0.0
 32
0.0
 14
0.0
 24
0.0
 34
0.0
 15
0.0
 25
0.0
 35
0.0
146
0.0
 13
0.0
 23
0.0
 33
0.0
 16
1.0
 26
0.0
 36
0.0
 17
0.0
 27
1.0
 37
0.0
 76
     0
330
70
  0
LAYOUT
  5
6F
102
{ACAD_XDICTIONARY
360
FF6
102
}
102
{ACAD_REACTORS
330
62
102
}
330
62
100
AcDbPlotSettings
  1

  2

  4

  6

 40
0.0
 41
0.0
 42
0.0
 43
0.0
 44
0.0
 45
0.0
 46
0.0
 47
0.0
 48
0.0
 49
0.0
140
0.0
141
0.0
142
1.0
143
1.0
 70
  1712
 72
     0
 73
     0
 74
     0
  7

 75
     0
147
1.0
148
0.0
149
0.0
100
AcDbLayout
  1
Model
 70
     1
 71
     0
 10
0.0
 20
0.0
 11
12.0
 21
9.0
 12
0.0
 22
0.0
 32
0.0
 14
0.0
 24
0.0
 34
0.0
 15
0.0
 25
0.0
 35
0.0
146
0.0
 13
0.0
 23
0.0
 33
0.0
 16
1.0
 26
0.0
 36
0.0
 17
0.0
 27
1.0
 37
0.0
 76
     0
330
6C
  0
MATERIAL
  5
19
102
{ACAD_XDICTIONARY
360
1A
102
}
102
{ACAD_REACTORS
330
10
102
}
330
10
100
AcDbMaterial
  1
ByBlock
 72
     0
 43
0.0208333333333333
 43
0.0
 43
0.0
 43
0.0
 43
0.0
 43
0.0208333333333333
 43
0.0
 43
0.0
 43
0.0
 43
0.0
 43
1.0
 43
0.0
 43
0.0
 43
0.0
 43
0.0
 43
1.0
 77
     0
 47
0.0208333333333333
 47
0.0
 47
0.0
 47
0.0
 47
0.0
 47
0.0208333333333333
 47
0.0
 47
0.0
 47
0.0
 47
0.0
 47
1.0
 47
0.0
 47
0.0
 47
0.0
 47
0.0
 47
1.0
171
     0
 49
0.0208333333333333
 49
0.0
 49
0.0
 49
0.0
 49
0.0
 49
0.0208333333333333
 49
0.0
 49
0.0
 49
0.0
 49
0.0
 49
1.0
 49
0.0
 49
0.0
 49
0.0
 49
0.0
 49
1.0
175
     0
142
0.0208333333333333
142
0.0
142
0.0
142
0.0
142
0.0
142
0.0208333333333333
142
0.0
142
0.0
142
0.0
142
0.0
142
1.0
142
0.0
142
0.0
142
0.0
142
0.0
142
1.0
179
     0
144
0.0208333333333333
144
0.0
144
0.0
144
0.0
144
0.0
144
0.0208333333333333
144
0.0
144
0.0
144
0.0
144
0.0
144
1.0
144
0.0
144
0.0
144
0.0
144
0.0
144
1.0
147
0.0208333333333333
147
0.0
147
0.0
147
0.0
147
0.0
147
0.0208333333333333
147
0.0
147
0.0
147
0.0
147
0.0
147
1.0
147
0.0
147
0.0
147
0.0
147
0.0
147
1.0
  0
MATERIAL
  5
11
102
{ACAD_XDICTIONARY
360
12
102
}
102
{ACAD_REACTORS
330
10
102
}
330
10
100
AcDbMaterial
  1
ByLayer
 72
     0
 43
0.0208333333333333
 43
0.0
 43
0.0
 43
0.0
 43
0.0
 43
0.0208333333333333
 43
0.0
 43
0.0
 43
0.0
 43
0.0
 43
1.0
 43
0.0
 43
0.0
 43
0.0
 43
0.0
 43
1.0
 77
     0
 47
0.0208333333333333
 47
0.0
 47
0.0
 47
0.0
 47
0.0
 47
0.0208333333333333
 47
0.0
 47
0.0
 47
0.0
 47
0.0
 47
1.0
 47
0.0
 47
0.0
 47
0.0
 47
0.0
 47
1.0
171
     0
 49
0.0208333333333333
 49
0.0
 49
0.0
 49
0.0
 49
0.0
 49
0.0208333333333333
 49
0.0
 49
0.0
 49
0.0
 49
0.0
 49
1.0
 49
0.0
 49
0.0
 49
0.0
 49
0.0
 49
1.0
175
     0
142
0.0208333333333333
142
0.0
142
0.0
142
0.0
142
0.0
142
0.0208333333333333
142
0.0
142
0.0
142
0.0
142
0.0
142
1.0
142
0.0
142
0.0
142
0.0
142
0.0
142
1.0
179
     0
144
0.0208333333333333
144
0.0
144
0.0
144
0.0
144
0.0
144
0.0208333333333333
144
0.0
144
0.0
144
0.0
144
0.0
144
1.0
144
0.0
144
0.0
144
0.0
144
0.0
144
1.0
147
0.0208333333333333
147
0.0
147
0.0
147
0.0
147
0.0
147
0.0208333333333333
147
0.0
147
0.0
147
0.0
147
0.0
147
1.0
147
0.0
147
0.0
147
0.0
147
0.0
147
1.0
  0
MATERIAL
  5
21
102
{ACAD_XDICTIONARY
360
22
102
}
102
{ACAD_REACTORS
330
10
102
}
330
10
100
AcDbMaterial
  1
Global
 72
     0
 43
0.0208333333333333
 43
0.0
 43
0.0
 43
0.0
 43
0.0
 43
0.0208333333333333
 43
0.0
 43
0.0
 43
0.0
 43
0.0
 43
1.0
 43
0.0
 43
0.0
 43
0.0
 43
0.0
 43
1.0
 77
     0
 47
0.0208333333333333
 47
0.0
 47
0.0
 47
0.0
 47
0.0
 47
0.0208333333333333
 47
0.0
 47
0.0
 47
0.0
 47
0.0
 47
1.0
 47
0.0
 47
0.0
 47
0.0
 47
0.0
 47
1.0
171
     0
 49
0.0208333333333333
 49
0.0
 49
0.0
 49
0.0
 49
0.0
 49
0.0208333333333333
 49
0.0
 49
0.0
 49
0.0
 49
0.0
 49
1.0
 49
0.0
 49
0.0
 49
0.0
 49
0.0
 49
1.0
175
     0
142
0.0208333333333333
142
0.0
142
0.0
142
0.0
142
0.0
142
0.0208333333333333
142
0.0
142
0.0
142
0.0
142
0.0
142
1.0
142
0.0
142
0.0
142
0.0
142
0.0
142
1.0
179
     0
144
0.0208333333333333
144
0.0
144
0.0
144
0.0
144
0.0
144
0.0208333333333333
144
0.0
144
0.0
144
0.0
144
0.0
144
1.0
144
0.0
144
0.0
144
0.0
144
0.0
144
1.0
147
0.0208333333333333
147
0.0
147
0.0
147
0.0
147
0.0
147
0.0208333333333333
147
0.0
147
0.0
147
0.0
147
0.0
147
1.0
147
0.0
147
0.0
147
0.0
147
0.0
147
1.0
  0
MLEADERSTYLE
  5
67
102
{ACAD_XDICTIONARY
360
FB9
102
}
102
{ACAD_REACTORS
330
66
102
}
330
66
100
AcDbMLeaderStyle
170
     2
171
     1
172
     0
 90
        2
 40
0.0
 41
0.0
173
     1
 91
-1056964608
340
5B
 92
       -2
290
     1
 42
0.09
291
     1
 43
0.36
  3
Standard
 44
0.18
300

342
55
174
     1
178
     6
175
     1
176
     0
 93
-1056964608
 45
0.18
292
     0
297
     0
 46
0.18
 94
-1056964608
 47
1.0
 49
1.0
140
1.0
293
     1
141
0.0
294
     1
177
     0
142
1.0
295
     0
296
     0
143
0.125
1001
ACAD_MLEADERVER
1070
     2
  0
MLINESTYLE
  5
60
102
{ACAD_REACTORS
330
5F
102
}
330
5F
100
AcDbMlineStyle
  2
STANDARD
 70
     0
  3

 62
   256
 51
90.0
 52
90.0
 71
     2
 49
0.5
 62
   256
  6
BYLAYER
 49
-0.5
 62
   256
  6
BYLAYER
  0
ACDBPLACEHOLDER
  5
F
102
{ACAD_REACTORS
330
E
102
}
330
E
  0
SCALE
  5
43
102
{ACAD_REACTORS
330
42
102
}
330
42
100
AcDbScale
 70
     0
300
1:1
140
1.0
141
1.0
290
     1
  0
SCALE
  5
44
102
{ACAD_REACTORS
330
42
102
}
330
42
100
AcDbScale
 70
     0
300
1/128" = 1'-0"
140
0.0078125
141
12.0
290
     0
  0
SCALE
  5
45
102
{ACAD_REACTORS
330
42
102
}
330
42
100
AcDbScale
 70
     0
300
1/64" = 1'-0"
140
0.015625
141
12.0
290
     0
  0
SCALE
  5
46
102
{ACAD_REACTORS
330
42
102
}
330
42
100
AcDbScale
 70
     0
300
1/32" = 1'-0"
140
0.03125
141
12.0
290
     0
  0
SCALE
  5
47
102
{ACAD_REACTORS
330
42
102
}
330
42
100
AcDbScale
 70
     0
300
1/16" = 1'-0"
140
0.0625
141
12.0
290
     0
  0
SCALE
  5
48
102
{ACAD_REACTORS
330
42
102
}
330
42
100
AcDbScale
 70
     0
300
3/32" = 1'-0"
140
0.09375
141
12.0
290
     0
  0
SCALE
  5
49
102
{ACAD_REACTORS
330
42
102
}
330
42
100
AcDbScale
 70
     0
300
1/8" = 1'-0"
140
0.125
141
12.0
290
     0
  0
SCALE
  5
4A
102
{ACAD_REACTORS
330
42
102
}
330
42
100
AcDbScale
 70
     0
300
3/16" = 1'-0"
140
0.1875
141
12.0
290
     0
  0
SCALE
  5
4B
102
{ACAD_REACTORS
330
42
102
}
330
42
100
AcDbScale
 70
     0
300
1/4" = 1'-0"
140
0.25
141
12.0
290
     0
  0
SCALE
  5
4C
102
{ACAD_REACTORS
330
42
102
}
330
42
100
AcDbScale
 70
     0
300
3/8" = 1'-0"
140
0.375
141
12.0
290
     0
  0
SCALE
  5
4D
102
{ACAD_REACTORS
330
42
102
}
330
42
100
AcDbScale
 70
     0
300
1/2" = 1'-0"
140
0.5
141
12.0
290
     0
  0
SCALE
  5
4E
102
{ACAD_REACTORS
330
42
102
}
330
42
100
AcDbScale
 70
     0
300
3/4" = 1'-0"
140
0.75
141
12.0
290
     0
  0
SCALE
  5
4F
102
{ACAD_REACTORS
330
42
102
}
330
42
100
AcDbScale
 70
     0
300
1" = 1'-0"
140
1.0
141
12.0
290
     0
  0
SCALE
  5
50
102
{ACAD_REACTORS
330
42
102
}
330
42
100
AcDbScale
 70
     0
300
1-1/2" = 1'-0"
140
1.5
141
12.0
290
     0
  0
SCALE
  5
51
102
{ACAD_REACTORS
330
42
102
}
330
42
100
AcDbScale
 70
     0
300
3" = 1'-0"
140
3.0
141
12.0
290
     0
  0
SCALE
  5
52
102
{ACAD_REACTORS
330
42
102
}
330
42
100
AcDbScale
 70
     0
300
6" = 1'-0"
140
6.0
141
12.0
290
     0
  0
SCALE
  5
53
102
{ACAD_REACTORS
330
42
102
}
330
42
100
AcDbScale
 70
     0
300
1'-0" = 1'-0"
140
12.0
141
12.0
290
     0
  0
TABLESTYLE
  5
65
102
{ACAD_XDICTIONARY
360
FB7
102
}
102
{ACAD_REACTORS
330
64
102
}
330
64
100
AcDbTableStyle
  3
Standard
 70
     0
 71
     0
 40
0.06
 41
0.06
280
     0
281
     0
  7
Standard
140
0.18
170
     2
 62
     0
 63
     7
283
     0
274
    -2
284
     1
 64
     0
275
    -2
285
     1
 65
     0
276
    -2
286
     1
 66
     0
277
    -2
287
     1
 67
     0
278
    -2
288
     1
 68
     0
279
    -2
289
     1
 69
     0
  7
Standard
140
0.25
170
     5
 62
     0
 63
     7
283
     0
274
    -2
284
     1
 64
     0
275
    -2
285
     1
 65
     0
276
    -2
286
     1
 66
     0
277
    -2
287
     1
 67
     0
278
    -2
288
     1
 68
     0
279
    -2
289
     1
 69
     0
  7
Standard
140
0.18
170
     5
 62
     0
 63
     7
283
     0
274
    -2
284
     1
 64
     0
275
    -2
285
     1
 65
     0
276
    -2
286
     1
 66
     0
277
    -2
287
     1
 67
     0
278
    -2
288
     1
 68
     0
279
    -2
289
     1
 69
     0
  0
VISUALSTYLE
  5
2F
102
{ACAD_XDICTIONARY
360
FCC
102
}
102
{ACAD_REACTORS
330
29
102
}
330
29
100
AcDbVisualStyle
  2
2dWireframe
 70
     4
 71
     0
 72
     2
 73
     0
 90
        0
 40
-0.6
 41
-30.0
 62
     5
 63
     7
 74
     1
 91
        4
 64
     7
 65
   257
 75
     1
175
     1
 42
1.0
 92
        0
 66
   257
 43
1.0
 76
     1
 77
     6
 78
     2
 67
     7
 79
     5
170
     0
171
     0
290
     0
174
     0
 93
        1
 44
0.0
173
     0
291
     0
 45
0.0
1001
ACAD
1000
AcDbSavedByObjectVersion
1070
     0
  0
VISUALSTYLE
  5
2E
102
{ACAD_XDICTIONARY
360
FCA
102
}
102
{ACAD_REACTORS
330
29
102
}
330
29
100
AcDbVisualStyle
  2
Basic
 70
     7
 71
     1
 72
     0
 73
     1
 90
        0
 40
-0.6
 41
-30.0
 62
     5
 63
     7
 74
     0
 91
        4
 64
     7
 65
   257
 75
     1
175
     1
 42
1.0
 92
        8
 66
     7
 43
1.0
 76
     1
 77
     6
 78
     2
 67
     7
 79
     5
170
     0
171
     0
290
     0
174
     0
 93
        1
 44
0.0
173
     0
291
     1
 45
0.0
1001
ACAD
1000
AcDbSavedByObjectVersion
1070
     0
  0
VISUALSTYLE
  5
35
102
{ACAD_XDICTIONARY
360
FD8
102
}
102
{ACAD_REACTORS
330
29
102
}
330
29
100
AcDbVisualStyle
  2
Brighten
 70
    12
 71
     2
 72
     2
 73
     0
 90
        0
 40
-0.6
 41
-30.0
 62
     5
 63
     7
 74
     1
 91
        4
 64
     7
 65
   257
 75
     1
175
     1
 42
1.0
 92
        8
 66
     7
 43
1.0
 76
     1
 77
     6
 78
     2
 67
     7
 79
     5
170
     0
171
     0
290
     0
174
     0
 93
        1
 44
50.0
173
     0
291
     1
 45
0.0
1001
ACAD
1000
AcDbSavedByObjectVersion
1070
     0
  0
VISUALSTYLE
  5
39
102
{ACAD_XDICTIONARY
360
FE0
102
}
102
{ACAD_REACTORS
330
29
102
}
330
29
100
AcDbVisualStyle
  2
ColorChange
 70
    16
 71
     2
 72
     2
 73
     3
 90
        0
 40
-0.6
 41
-30.0
 62
     5
 63
     8
 74
     1
 91
        4
 64
     7
 65
   257
 75
     1
175
     1
 42
1.0
 92
        8
 66
     8
 43
1.0
 76
     1
 77
     6
 78
     2
 67
     7
 79
     5
170
     0
171
     0
290
     0
174
     0
 93
        1
 44
0.0
173
     0
291
     1
 45
0.0
1001
ACAD
1000
AcDbSavedByObjectVersion
1070
     0
  0
VISUALSTYLE
  5
32
102
{ACAD_XDICTIONARY
360
FD2
102
}
102
{ACAD_REACTORS
330
29
102
}
330
29
100
AcDbVisualStyle
  2
Conceptual
 70
     9
 71
     3
 72
     2
 73
     0
 90
        0
 40
-0.6
 41
-30.0
 62
     5
 63
     7
 74
     2
 91
        2
 64
     7
 65
   257
 75
     1
175
     1
 42
179.0
 92
        8
 66
     7
 43
1.0
 76
     1
 77
     6
 78
     2
 67
     7
 79
     3
170
     0
171
     0
290
     0
174
     0
 93
        1
 44
0.0
173
     0
291
     0
 45
0.0
1001
ACAD
1000
AcDbSavedByObjectVersion
1070
     0
  0
VISUALSTYLE
  5
34
102
{ACAD_XDICTIONARY
360
FD6
102
}
102
{ACAD_REACTORS
330
29
102
}
330
29
100
AcDbVisualStyle
  2
Dim
 70
    11
 71
     2
 72
     2
 73
     0
 90
        0
 40
-0.6
 41
-30.0
 62
     5
 63
     7
 74
     1
 91
        4
 64
     7
 65
   257
 75
     1
175
     1
 42
1.0
 92
        8
 66
     7
 43
1.0
 76
     1
 77
     6
 78
     2
 67
     7
 79
     5
170
     0
171
     0
290
     0
174
     0
 93
        1
 44
-50.0
173
     0
291
     1
 45
0.0
1001
ACAD
1000
AcDbSavedByObjectVersion
1070
     0
  0
VISUALSTYLE
  5
41
102
{ACAD_XDICTIONARY
360
FF0
102
}
102
{ACAD_REACTORS
330
29
102
}
330
29
100
AcDbVisualStyle
  2
EdgeColorOff
 70
    22
 71
     2
 72
     2
 73
     0
 90
        0
 40
-0.6
 41
-30.0
 62
     5
 63
     7
 74
     1
 91
        4
 64
     7
 65
   257
 75
     1
175
     1
 42
1.0
 92
        8
 66
     7
 43
1.0
 76
     1
 77
     6
 78
     2
 67
     7
 79
     5
170
     0
171
     0
290
     0
174
     0
 93
        1
 44
0.0
173
     0
291
     1
 45
0.0
1001
ACAD
1000
AcDbSavedByObjectVersion
1070
     0
  0
VISUALSTYLE
  5
38
102
{ACAD_XDICTIONARY
360
FDE
102
}
102
{ACAD_REACTORS
330
29
102
}
330
29
100
AcDbVisualStyle
  2
Facepattern
 70
    15
 71
     2
 72
     2
 73
     0
 90
        0
 40
-0.6
 41
-30.0
 62
     5
 63
     7
 74
     1
 91
        4
 64
     7
 65
   257
 75
     1
175
     1
 42
1.0
 92
        8
 66
     7
 43
1.0
 76
     1
 77
     6
 78
     2
 67
     7
 79
     5
170
     0
171
     0
290
     0
174
     0
 93
        1
 44
0.0
173
     0
291
     1
 45
0.0
1001
ACAD
1000
AcDbSavedByObjectVersion
1070
     0
  0
VISUALSTYLE
  5
2A
102
{ACAD_XDICTIONARY
360
FC2
102
}
102
{ACAD_REACTORS
330
29
102
}
330
29
100
AcDbVisualStyle
  2
Flat
 70
     0
 71
     2
 72
     1
 73
     1
 90
        2
 40
-0.6
 41
30.0
 62
     5
 63
     7
 74
     0
 91
        0
 64
     7
 65
   257
 75
     1
175
     1
 42
1.0
 92
        8
 66
     7
 43
1.0
 76
     1
 77
     6
 78
     2
 67
     7
 79
     5
170
     0
171
     0
290
     0
174
     0
 93
       13
 44
0.0
173
     0
291
     1
 45
0.0
1001
ACAD
1000
AcDbSavedByObjectVersion
1070
     0
  0
VISUALSTYLE
  5
2B
102
{ACAD_XDICTIONARY
360
FC4
102
}
102
{ACAD_REACTORS
330
29
102
}
330
29
100
AcDbVisualStyle
  2
FlatWithEdges
 70
     1
 71
     2
 72
     1
 73
     1
 90
        2
 40
-0.6
 41
30.0
 62
     5
 63
     7
 74
     1
 91
        0
 64
     7
 65
   257
 75
     1
175
     1
 42
1.0
 92
        0
 66
   257
 43
1.0
 76
     1
 77
     6
 78
     2
 67
     7
 79
     5
170
     0
171
     0
290
     0
174
     0
 93
       13
 44
0.0
173
     0
291
     1
 45
0.0
1001
ACAD
1000
AcDbSavedByObjectVersion
1070
     0
  0
VISUALSTYLE
  5
2C
102
{ACAD_XDICTIONARY
360
FC6
102
}
102
{ACAD_REACTORS
330
29
102
}
330
29
100
AcDbVisualStyle
  2
Gouraud
 70
     2
 71
     2
 72
     2
 73
     1
 90
        2
 40
-0.6
 41
30.0
 62
     5
 63
     7
 74
     0
 91
        0
 64
     7
 65
   257
 75
     1
175
     1
 42
1.0
 92
        0
 66
     7
 43
1.0
 76
     1
 77
     6
 78
     2
 67
     7
 79
     5
170
     0
171
     0
290
     0
174
     0
 93
       13
 44
0.0
173
     0
291
     1
 45
0.0
1001
ACAD
1000
AcDbSavedByObjectVersion
1070
     0
  0
VISUALSTYLE
  5
2D
102
{ACAD_XDICTIONARY
360
FC8
102
}
102
{ACAD_REACTORS
330
29
102
}
330
29
100
AcDbVisualStyle
  2
GouraudWithEdges
 70
     3
 71
     2
 72
     2
 73
     1
 90
        2
 40
-0.6
 41
30.0
 62
     5
 63
     7
 74
     1
 91
        0
 64
     7
 65
   257
 75
     1
175
     1
 42
1.0
 92
        0
 66
   257
 43
1.0
 76
     1
 77
     6
 78
     2
 67
     7
 79
     5
170
     0
171
     0
290
     0
174
     0
 93
       13
 44
0.0
173
     0
291
     1
 45
0.0
1001
ACAD
1000
AcDbSavedByObjectVersion
1070
     0
  0
VISUALSTYLE
  5
31
102
{ACAD_XDICTIONARY
360
FD0
102
}
102
{ACAD_REACTORS
330
29
102
}
330
29
100
AcDbVisualStyle
  2
Hidden
 70
     6
 71
     1
 72
     2
 73
     2
 90
        0
 40
-0.6
 41
-30.0
 62
     5
 63
     7
 74
     2
 91
        2
 64
     7
 65
   257
 75
     2
175
     1
 42
40.0
 92
        0
 66
   257
 43
1.0
 76
     1
 77
     6
 78
     2
 67
     7
 79
     3
170
     0
171
     0
290
     0
174
     0
 93
        1
 44
0.0
173
     0
291
     0
 45
0.0
1001
ACAD
1000
AcDbSavedByObjectVersion
1070
     0
  0
VISUALSTYLE
  5
3F
102
{ACAD_XDICTIONARY
360
FEC
102
}
102
{ACAD_REACTORS
330
29
102
}
330
29
100
AcDbVisualStyle
  2
JitterOff
 70
    20
 71
     2
 72
     2
 73
     0
 90
        0
 40
-0.6
 41
-30.0
 62
     5
 63
     7
 74
     1
 91
        4
 64
     7
 65
   257
 75
     1
175
     1
 42
1.0
 92
       10
 66
     7
 43
1.0
 76
     1
 77
     6
 78
     2
 67
     7
 79
     5
170
     0
171
     0
290
     0
174
     0
 93
        1
 44
0.0
173
     0
291
     1
 45
0.0
1001
ACAD
1000
AcDbSavedByObjectVersion
1070
     0
  0
VISUALSTYLE
  5
37
102
{ACAD_XDICTIONARY
360
FDC
102
}
102
{ACAD_REACTORS
330
29
102
}
330
29
100
AcDbVisualStyle
  2
Linepattern
 70
    14
 71
     2
 72
     2
 73
     0
 90
        0
 40
-0.6
 41
-30.0
 62
     5
 63
     7
 74
     1
 91
        4
 64
     7
 65
   257
 75
     7
175
     7
 42
1.0
 92
        8
 66
     7
 43
1.0
 76
     1
 77
     6
 78
     2
 67
     7
 79
     5
170
     0
171
     0
290
     0
174
     0
 93
        1
 44
0.0
173
     0
291
     1
 45
0.0
1001
ACAD
1000
AcDbSavedByObjectVersion
1070
     0
  0
VISUALSTYLE
  5
40
102
{ACAD_XDICTIONARY
360
FEE
102
}
102
{ACAD_REACTORS
330
29
102
}
330
29
100
AcDbVisualStyle
  2
OverhangOff
 70
    21
 71
     2
 72
     2
 73
     0
 90
        0
 40
-0.6
 41
-30.0
 62
     5
 63
     7
 74
     1
 91
        4
 64
     7
 65
   257
 75
     1
175
     1
 42
1.0
 92
        9
 66
     7
 43
1.0
 76
     1
 77
     6
 78
     2
 67
     7
 79
     5
170
     0
171
     0
290
     0
174
     0
 93
        1
 44
0.0
173
     0
291
     1
 45
0.0
1001
ACAD
1000
AcDbSavedByObjectVersion
1070
     0
  0
VISUALSTYLE
  5
33
102
{ACAD_XDICTIONARY
360
FD4
102
}
102
{ACAD_REACTORS
330
29
102
}
330
29
100
AcDbVisualStyle
  2
Realistic
 70
     8
 71
     2
 72
     3
 73
     0
 90
        2
 40
-0.6
 41
30.0
 62
     5
 63
     7
 74
     0
 91
        0
 64
     7
 65
   257
 75
     1
175
     1
 42
1.0
 92
        8
 66
   257
 43
1.0
 76
     1
 77
     6
 78
     2
 67
     7
 79
     3
170
     0
171
     0
290
     0
174
     0
 93
       13
 44
0.0
173
     0
291
     0
 45
0.0
1001
ACAD
1000
AcDbSavedByObjectVersion
1070
     0
  0
VISUALSTYLE
  5
3E
102
{ACAD_XDICTIONARY
360
FEA
102
}
102
{ACAD_REACTORS
330
29
102
}
330
29
100
AcDbVisualStyle
  2
Shaded
 70
    27
 71
     2
 72
     2
 73
     1
 90
        2
 40
-0.6
 41
30.0
 62
     5
 63
     7
 74
     0
 91
        4
 64
     7
 65
   257
 75
     1
175
     1
 42
1.0
 92
        8
 66
   257
 43
1.0
 76
     1
 77
     6
 78
     2
 67
     8
 79
     3
170
     0
171
     0
290
     0
174
     0
 93
        5
 44
0.0
173
     0
291
     0
 45
0.0
1001
ACAD
1000
AcDbSavedByObjectVersion
1070
     0
  0
VISUALSTYLE
  5
3D
102
{ACAD_XDICTIONARY
360
FE8
102
}
102
{ACAD_REACTORS
330
29
102
}
330
29
100
AcDbVisualStyle
  2
Shaded with edges
 70
    26
 71
     2
 72
     2
 73
     1
 90
        2
 40
-0.6
 41
30.0
 62
     5
 63
     7
 74
     1
 91
       10
 64
     7
 65
   257
 75
     2
175
     1
 42
1.0
 92
        8
 66
   257
 43
1.0
 76
     1
 77
     6
 78
     2
 67
     7
 79
     3
170
     0
171
     0
290
     0
174
     0
 93
        5
 44
0.0
173
     0
291
     0
 45
0.0
1001
ACAD
1000
AcDbSavedByObjectVersion
1070
     0
  0
VISUALSTYLE
  5
3A
102
{ACAD_XDICTIONARY
360
FE2
102
}
102
{ACAD_REACTORS
330
29
102
}
330
29
100
AcDbVisualStyle
  2
Shades of Gray
 70
    23
 71
     2
 72
     2
 73
     3
 90
        0
 40
-0.6
 41
-30.0
 62
     5
 63
     7
 74
     2
 91
        2
 64
     7
 65
     7
 75
     1
175
     1
 42
40.0
 92
        8
 66
     7
 43
1.0
 76
     1
 77
     6
 78
     2
 67
     7
 79
     3
170
     0
171
     0
290
     0
174
     0
 93
        1
 44
0.0
173
     0
291
     0
 45
0.0
1001
ACAD
1000
AcDbSavedByObjectVersion
1070
     0
  0
VISUALSTYLE
  5
3B
102
{ACAD_XDICTIONARY
360
FE4
102
}
102
{ACAD_REACTORS
330
29
102
}
330
29
100
AcDbVisualStyle
  2
Sketchy
 70
    24
 71
     1
 72
     2
 73
     2
 90
        0
 40
-0.6
 41
-30.0
 62
     5
 63
     7
 74
     2
 91
        2
 64
     7
 65
     7
 75
     1
175
     1
 42
40.0
 92
       11
 66
     7
 43
1.0
 76
     1
 77
     6
 78
     2
 67
     7
 79
     6
170
     0
171
     0
290
     0
174
     0
 93
        1
 44
0.0
173
     0
291
     0
 45
0.0
1001
ACAD
1000
AcDbSavedByObjectVersion
1070
     0
  0
VISUALSTYLE
  5
36
102
{ACAD_XDICTIONARY
360
FDA
102
}
102
{ACAD_REACTORS
330
29
102
}
330
29
100
AcDbVisualStyle
  2
Thicken
 70
    13
 71
     2
 72
     2
 73
     0
 90
        0
 40
-0.6
 41
-30.0
 62
     5
 63
     7
 74
     1
 91
        4
 64
     7
 65
   257
 75
     1
175
     1
 42
1.0
 92
       12
 66
     7
 43
1.0
 76
     1
 77
     6
 78
     2
 67
     7
 79
     5
170
     0
171
     0
290
     0
174
     0
 93
        1
 44
0.0
173
     0
291
     1
 45
0.0
1001
ACAD
1000
AcDbSavedByObjectVersion
1070
     0
  0
VISUALSTYLE
  5
30
102
{ACAD_XDICTIONARY
360
FCE
102
}
102
{ACAD_REACTORS
330
29
102
}
330
29
100
AcDbVisualStyle
  2
Wireframe
 70
     5
 71
     0
 72
     2
 73
     0
 90
        0
 40
-0.6
 41
-30.0
 62
     5
 63
     7
 74
     1
 91
        4
 64
     7
 65
   257
 75
     1
175
     1
 42
1.0
 92
        0
 66
   257
 43
1.0
 76
     1
 77
     6
 78
     2
 67
     7
 79
     3
170
     0
171
     0
290
     0
174
     0
 93
        1
 44
0.0
173
     0
291
     0
 45
0.0
1001
ACAD
1000
AcDbSavedByObjectVersion
1070
     0
  0
VISUALSTYLE
  5
3C
102
{ACAD_XDICTIONARY
360
FE6
102
}
102
{ACAD_REACTORS
330
29
102
}
330
29
100
AcDbVisualStyle
  2
X-Ray
 70
    25
 71
     2
 72
     2
 73
     1
 90
        1
 40
0.5
 41
-30.0
 62
     5
 63
     7
 74
     1
 91
        0
 64
     7
 65
   257
 75
     1
175
     1
 42
1.0
 92
        8
 66
     7
 43
1.0
 76
     1
 77
     6
 78
     2
 67
     7
 79
     3
170
     0
171
     0
290
     0
174
     0
 93
       13
 44
0.0
173
     0
291
     0
 45
0.0
1001
ACAD
1000
AcDbSavedByObjectVersion
1070
     0
  0
DICTIONARYVAR
  5
79
102
{ACAD_REACTORS
330
76
102
}
330
76
100
DictionaryVariables
280
     0
  1
1:1
  0
DICTIONARYVAR
  5
78
102
{ACAD_REACTORS
330
76
102
}
330
76
100
DictionaryVariables
280
     0
  1
STANDARD
  0
DICTIONARYVAR
  5
77
102
{ACAD_REACTORS
330
76
102
}
330
76
100
DictionaryVariables
280
     0
  1
STANDARD
  0
DICTIONARYVAR
  5
FB5
102
{ACAD_REACTORS
330
76
102
}
330
76
100
DictionaryVariables
280
     0
  1
1
  0
DICTIONARYVAR
  5
FB4
102
{ACAD_REACTORS
330
76
102
}
330
76
100
DictionaryVariables
280
     0
  1
1
  0
DICTIONARYVAR
  5
FB3
102
{ACAD_REACTORS
330
76
102
}
330
76
100
DictionaryVariables
280
     0
  1
0
  0
DICTIONARYVAR
  5
FB0
102
{ACAD_REACTORS
330
76
102
}
330
76
100
DictionaryVariables
280
     0
  1
0
  0
DICTIONARYVAR
  5
FB1
102
{ACAD_REACTORS
330
76
102
}
330
76
100
DictionaryVariables
280
     0
  1
0
  0
DICTIONARYVAR
  5
FAF
102
{ACAD_REACTORS
330
76
102
}
330
76
100
DictionaryVariables
280
     0
  1
2
  0
DICTIONARYVAR
  5
FAE
102
{ACAD_REACTORS
330
76
102
}
330
76
100
DictionaryVariables
280
     0
  1
1
  0
DICTIONARYVAR
  5
FB2
102
{ACAD_REACTORS
330
76
102
}
330
76
100
DictionaryVariables
280
     0
  1
127
  0
DICTIONARYVAR
  5
FB6
102
{ACAD_REACTORS
330
76
102
}
330
76
100
DictionaryVariables
280
     0
  1
2
  0
DICTIONARY
  5
FF4
330
6B
100
AcDbDictionary
280
     1
281
     1
  3
ACAD_XREC_ROUNDTRIP
360
FF5
  0
DICTIONARY
  5
FF8
330
73
100
AcDbDictionary
280
     1
281
     1
  3
ACAD_XREC_ROUNDTRIP
360
FF9
  0
DICTIONARY
  5
FF6
330
6F
100
AcDbDictionary
280
     1
281
     1
  3
ACAD_XREC_ROUNDTRIP
360
FF7
  0
DICTIONARY
  5
1A
330
19
100
AcDbDictionary
280
     1
281
     1
  3
ACAD_XREC_ROUNDTRIP
360
FC0
  3
BUMPTILE
360
1C
  3
DIFFUSETILE
360
1B
  3
OPACITYTILE
360
1F
  3
REFLECTIONTILE
360
1E
  3
REFRACTIONTILE
360
20
  3
SPECULARTILE
360
1D
  0
DICTIONARY
  5
12
330
11
100
AcDbDictionary
280
     1
281
     1
  3
ACAD_XREC_ROUNDTRIP
360
FBF
  3
BUMPTILE
360
14
  3
DIFFUSETILE
360
13
  3
FBXASSET
360
109
  3
OPACITYTILE
360
17
  3
REFLECTIONTILE
360
16
  3
REFRACTIONTILE
360
18
  3
SPECULARTILE
360
15
  0
DICTIONARY
  5
22
330
21
100
AcDbDictionary
280
     1
281
     1
  3
ACAD_XREC_ROUNDTRIP
360
FC1
  3
BUMPTILE
360
24
  3
DIFFUSETILE
360
23
  3
FBXASSET
360
BA
  3
OPACITYTILE
360
27
  3
REFLECTIONTILE
360
26
  3
REFRACTIONTILE
360
28
  3
SPECULARTILE
360
25
  0
DICTIONARY
  5
FB9
330
67
100
AcDbDictionary
280
     1
281
     1
  3
ACAD_XREC_ROUNDTRIP
360
FBA
  0
DICTIONARY
  5
FB7
330
65
100
AcDbDictionary
280
     1
281
     1
  3
ACAD_ROUNDTRIP_2008_TABLESTYLE_CELLSTYLEMAP
360
FB8
  3
ACAD_XREC_ROUNDTRIP
360
FF2
  0
DICTIONARY
  5
FCC
330
2F
100
AcDbDictionary
280
     1
281
     1
  3
ACAD_XREC_ROUNDTRIP
360
FCD
  0
DICTIONARY
  5
FCA
330
2E
100
AcDbDictionary
280
     1
281
     1
  3
ACAD_XREC_ROUNDTRIP
360
FCB
  0
DICTIONARY
  5
FD8
330
35
100
AcDbDictionary
280
     1
281
     1
  3
ACAD_XREC_ROUNDTRIP
360
FD9
  0
DICTIONARY
  5
FE0
330
39
100
AcDbDictionary
280
     1
281
     1
  3
ACAD_XREC_ROUNDTRIP
360
FE1
  0
DICTIONARY
  5
FD2
330
32
100
AcDbDictionary
280
     1
281
     1
  3
ACAD_XREC_ROUNDTRIP
360
FD3
  0
DICTIONARY
  5
FD6
330
34
100
AcDbDictionary
280
     1
281
     1
  3
ACAD_XREC_ROUNDTRIP
360
FD7
  0
DICTIONARY
  5
FF0
330
41
100
AcDbDictionary
280
     1
281
     1
  3
ACAD_XREC_ROUNDTRIP
360
FF1
  0
DICTIONARY
  5
FDE
330
38
100
AcDbDictionary
280
     1
281
     1
  3
ACAD_XREC_ROUNDTRIP
360
FDF
  0
DICTIONARY
  5
FC2
330
2A
100
AcDbDictionary
280
     1
281
     1
  3
ACAD_XREC_ROUNDTRIP
360
FC3
  0
DICTIONARY
  5
FC4
330
2B
100
AcDbDictionary
280
     1
281
     1
  3
ACAD_XREC_ROUNDTRIP
360
FC5
  0
DICTIONARY
  5
FC6
330
2C
100
AcDbDictionary
280
     1
281
     1
  3
ACAD_XREC_ROUNDTRIP
360
FC7
  0
DICTIONARY
  5
FC8
330
2D
100
AcDbDictionary
280
     1
281
     1
  3
ACAD_XREC_ROUNDTRIP
360
FC9
  0
DICTIONARY
  5
FD0
330
31
100
AcDbDictionary
280
     1
281
     1
  3
ACAD_XREC_ROUNDTRIP
360
FD1
  0
DICTIONARY
  5
FEC
330
3F
100
AcDbDictionary
280
     1
281
     1
  3
ACAD_XREC_ROUNDTRIP
360
FED
  0
DICTIONARY
  5
FDC
330
37
100
AcDbDictionary
280
     1
281
     1
  3
ACAD_XREC_ROUNDTRIP
360
FDD
  0
DICTIONARY
  5
FEE
330
40
100
AcDbDictionary
280
     1
281
     1
  3
ACAD_XREC_ROUNDTRIP
360
FEF
  0
DICTIONARY
  5
FD4
330
33
100
AcDbDictionary
280
     1
281
     1
  3
ACAD_XREC_ROUNDTRIP
360
FD5
  0
DICTIONARY
  5
FEA
330
3E
100
AcDbDictionary
280
     1
281
     1
  3
ACAD_XREC_ROUNDTRIP
360
FEB
  0
DICTIONARY
  5
FE8
330
3D
100
AcDbDictionary
280
     1
281
     1
  3
ACAD_XREC_ROUNDTRIP
360
FE9
  0
DICTIONARY
  5
FE2
330
3A
100
AcDbDictionary
280
     1
281
     1
  3
ACAD_XREC_ROUNDTRIP
360
FE3
  0
DICTIONARY
  5
FE4
330
3B
100
AcDbDictionary
280
     1
281
     1
  3
ACAD_XREC_ROUNDTRIP
360
FE5
  0
DICTIONARY
  5
FDA
330
36
100
AcDbDictionary
280
     1
281
     1
  3
ACAD_XREC_ROUNDTRIP
360
FDB
  0
DICTIONARY
  5
FCE
330
30
100
AcDbDictionary
280
     1
281
     1
  3
ACAD_XREC_ROUNDTRIP
360
FCF
  0
DICTIONARY
  5
FE6
330
3C
100
AcDbDictionary
280
     1
281
     1
  3
ACAD_XREC_ROUNDTRIP
360
FE7
  0
XRECORD
  5
FF5
102
{ACAD_REACTORS
330
FF4
102
}
330
FF4
100
AcDbXrecord
280
     1
102
SHADEPLOT
 70
     0
102
SHADEPLOTRESLEVEL
 70
     2
102
SHADEPLOTCUSTOMDPI
 70
   300
  0
XRECORD
  5
FF9
102
{ACAD_REACTORS
330
FF8
102
}
330
FF8
100
AcDbXrecord
280
     1
102
SHADEPLOT
 70
     0
102
SHADEPLOTRESLEVEL
 70
     2
102
SHADEPLOTCUSTOMDPI
 70
   300
  0
XRECORD
  5
FF7
102
{ACAD_REACTORS
330
FF6
102
}
330
FF6
100
AcDbXrecord
280
     1
102
SHADEPLOT
 70
     0
102
SHADEPLOTRESLEVEL
 70
     2
102
SHADEPLOTCUSTOMDPI
 70
   300
  0
XRECORD
  5
FC0
102
{ACAD_REACTORS
330
1A
102
}
330
1A
100
AcDbXrecord
280
     1
102
MATERIAL
148
0.0
149
0.0
149
0.0
 93
        0
 94
      127
282
     0
 72
     0
 77
     0
171
     0
175
     0
179
     0
273
     0
  0
XRECORD
  5
1C
102
{ACAD_REACTORS
330
1A
102
}
330
1A
100
AcDbXrecord
280
     1
270
     1
271
     1
  0
XRECORD
  5
1B
102
{ACAD_REACTORS
330
1A
102
}
330
1A
100
AcDbXrecord
280
     1
270
     1
271
     1
  0
XRECORD
  5
1F
102
{ACAD_REACTORS
330
1A
102
}
330
1A
100
AcDbXrecord
280
     1
270
     1
271
     1
  0
XRECORD
  5
1E
102
{ACAD_REACTORS
330
1A
102
}
330
1A
100
AcDbXrecord
280
     1
270
     1
271
     1
  0
XRECORD
  5
20
102
{ACAD_REACTORS
330
1A
102
}
330
1A
100
AcDbXrecord
280
     1
270
     1
271
     1
  0
XRECORD
  5
1D
102
{ACAD_REACTORS
330
1A
102
}
330
1A
100
AcDbXrecord
280
     1
270
     1
271
     1
  0
XRECORD
  5
FBF
102
{ACAD_REACTORS
330
12
102
}
330
12
100
AcDbXrecord
280
     1
102
MATERIAL
148
0.0
149
0.0
149
0.0
 93
        0
 94
      127
282
     0
 72
     0
 77
     0
171
     0
175
     0
179
     0
273
     0
  0
XRECORD
  5
14
102
{ACAD_REACTORS
330
12
102
}
330
12
100
AcDbXrecord
280
     1
270
     1
271
     1
  0
XRECORD
  5
13
102
{ACAD_REACTORS
330
12
102
}
330
12
100
AcDbXrecord
280
     1
270
     1
271
     1
  0
XRECORD
  5
109
102
{ACAD_REACTORS
330
12
102
}
330
12
100
AcDbXrecord
280
     1
 70
     1
 90
1959938040
 71
     1
  1
98EADDD6-86EF-4743-A839-4E316F5ABFD0
311
504B03040A0000080000774632403DEE336E79000000790000001B0000006175746F6465736B2D64657369676E2D7061636B6167652E786D6C3C3F786D6C2076657273696F6E3D22312E302220656E636F64696E673D227574662D3822203F3E3C666F726D6174733E3C666F726D61743E687474703A2F2F736368656D612E
311
6175746F6465736B2E636F6D2F64657369676E2D7061636B6167652F323030393C2F666F726D61743E3C2F666F726D6174733E504B030414000608080077463240D486FD9CA0000000F4000000130000005B436F6E74656E745F54797065735D2E786D6C7D8EC10E82300C865F65E91D8A1E8C310C0EEA1BF002731658846E
311
D98AC1B77784ABF1D8FE5FBFBF75BBCE937A534CCEB38643598122B6FEE978D0B0485F9C41B54DDD7D022595594E1A469170414C76A4D9A4D207E29CF43ECE46F218070CC6BECC4078ACAA135ACF422C856C0E68EA1BF5669944DDD7BCDE7B1F8E415D77AECB980613C2E4AC91FC167A2B244592486606FC29C8FD7F045B9A
311
EF7053A7E60B504B030414000608080077463240E79D306FE90000007C01000008000000636F72652E786D6C8D90416EC3201045AF82668F0D36751D0B9345524ED00B20202E4A0C96812AC72F4E1CA9DD7535A33FFFCD8C3E3FDEE71BFAB66B74C18F402B02C87A1D8CF3D308395D700FE828F81A42FA6503E4D56C47D864
311
107C5A435E7649079FAC4F45F5C1D85D5431DA0448DF4A3342D45F765695CAA938E2B55A94BEAAC956F4D515386767D0F38833659FBB38BB8220CD4976DDA9C5921E18662D93B8FFE8193E137978978C924676BCDE60C1939B5FF7F56A55B2064443688309C5B4FF24FDF04607D661D20D84F07AB3FF81F262FE0965E753DB
311
ECEF3EB1088296471E03C1EB2D8B521E4195BAE5267E00504B03041400060808007746324055019EA25F0000007C00000007000000636E782E786D6C4DCB3B0E80201045D1AD90E915ED2CF8AC45050C11660C8261F98AB1B07AC9C97D42D718D865D3E909258CFD00CCE24AC6E326A164D74DC0B4128928FF326038472BA1
311
3128B1252AC747C6BAB984FC68F0B87FE8960A5C09FE86CFB69FBA01504B030414000608080077463240D30D8C5B65010000020300000C0000006662782F636F72652E786D6C8D525B6E833010BC8AE57F639B504A23E37CA4E504BD80030E45011B191BE5F85D1E114D15451192B16676766707C4E1DAB568D46E68ACC931
311
8F1846DA94B66A4C9DE3E0CF24C3E82085B3D6FF29C3C8A84EE77882B114B5B3A15FA1D21AAF8D07D4D84AAFA01A06ED312A5BB8E478287F74A722153C540C97A857E545D53AE211D05027C5E01D1840CB90E9C4F27CBA0ABAE05284D0542BDB5430AD3937DA61C9E26391A6C71D29F84742925D5290EC2B4BC8272B3EDE8B
311
84B3B848059DC452F8A6BBB92B9D565E5758C68CC78471C2B36F96EDDFF83E49094BF78C093A95DF89425FBD280A8DF1BB78B5BBC8062C391899897FDB42441E0D6A043F540A3A8508AF39E1FBA0211008D9AB537BDBE302D0A84B6F5D024C65C3468DAA0D1AA632343F822E2C749E1BC0660FFBC44FFA3CEF011F50991AAC
311
290FD753F0D374B14C5DA3E8B523A3BF22635DA7DACDDC62713BB7410FE5A56DAD7B454DD755E91A269DFE5EF90B504B03041400060808007746324023B8E2207D0000009D0000000B0000006662782F636E782E786D6C4DCCD10A83201886E15B91FFDCA569E1811A53D67DC4B290990EA76397BF1A1DECE883878F570E9F
311
2DA0B7CB2F9FA2027A21805CBCA7D9C755412D0B1680062D734AE5EF06284E9B53703068B9E6549F27CD6E996A28BB061F1F275A6318111DC5376E7BCC5967B0683B82473B5AD60B736D298746CBE657DAF708EB2F504B0304140006080800774632408F38B2D72A01000014020000310000006662782F4342423330383531
311
2D453443362D343335422D383235302D4643464333363842413231342F636F72652E786D6C8D51CB6EC32010FC15C4293D60835F221126AAADE60BFA0304931425068B4795CF2FD48ED4DE7261D1ECCCEC68971D1FF31D7C2BE7B5353D240586401969276DAE3D8CE182280447CE9CB5E10F0D022366D5C30C43CEAECEC665
311
83A435419990506327B581C27B152090F7F4E9A1975F6A1685882131FCAD5884BC89AB2A4891DA89C7990F2E0500EB90FC423E0E438D694BD0473376A8A9DB01D1AAC5E8349EC6BAA3C37B451A56AE42CE62D4D326D7538AA32F5AB9574DB298B3A0E7677CE994086A82BCC2A4429820423F313DB4E4D0740877078C5999E9
311
FF4471995E14456D425D6D715799879CB0726D7036D978BE3FC3A8C7625D0079DECE2BF906392E30D953BA272D2B576A5A40F2EC9ACDD307EBD28277B77362675636EE1ACECA7CA3547E0F986ABE27FF01504B030414000608080077463240D741E57F4D01000033030000300000006662782F43424233303835312D453443
311
362D343335422D383235302D4643464333363842413231342F636E782E786D6CD593BD6E032110845F05D1DF0FCEC5B22C0E4B29F20429D272B076883938F113C56F9FC5C68E1B1729D3A0D3EC30B3FAC4F1DDF76CC9178468BC1B296B7B4AC029AF8D3B8C34A77DB3A1642778F03EDDD9287172869116990A7E083E2F55D2
311
B097D92654AD71C72A06883E070511E5729358AFA4C500704D4611E609B4064D6E46FCDA43C055509C4E247D00797D79277EFA049522EF4A8AE05DE910BC9CB5E9CE4489B232C69146F501B36C654E5E433CB65A26D9B2F6DAF560A7DF24522E5C2B7330A4948FB49C54D48D5AE4C83B1C0A1E53407AD5944E0B502197C51A
311
251342EECEC68B47F06C5C5A0FD56B107C40375B3F0D03869D678227334375A8003281A662D5B355D3B3866DDEFACDF6996D8775D3AFB77DCFBB62177CF2DED64B1803C12F447997C0252A18EFCAF811BEEA23DA0464EDC3E90F2011406DBDD0B965FC673EDDF97D23AE807F81F801504B03041400060808007746324044BA
311
9DF29B0500007B100000340000006662782F43424233303835312D453443362D343335422D383235302D4643464333363842413231342F6F626A656374732E786D6CAD575D739B3814FD2B0CFB6C30B693263B848E63C71D4F376DA79E76F621331E018268233E461289D35FBF472030B876EADDE90B20215DDD7BEEB91FF2
311
DFEF326E3D53215991DFD89E33B62D9A4745CCF2F4C6AE5432BAB2ADF7812F8A42F596D9564E327A63EB693BF0535154A5998A69422AAE0E6657B77F5B32A239B5AD8813296F6C193DD28C38A452454CE5931313459C34D9399ED32C1C8A4D05291F0F849644D05C4153CCE79062354A79C3E1D87603DFD5FF035F3FCDAAE9
311
E9556E6DCFF07C964B45F2E8A7C30EC44CBDD9F26E72713DBA98CDA6A3D9E5C41BDDAE6E9723EFDD74BCB85C2CAEE777D738582A0149461341133BF8006C048B7CB7F915F815CBD57462961807B9823E33ED293B98589EEF366B3AEB8C91C7D48F8A3CA7518D15D0A8ED33A2635AD23C86CF1995D0AC87D07838F4348EBDDF
311
533D3647F6A7CF43A0BFA327A8D5BD7DF7352DC27F60823C87414252CDC0064B6368C3D5F11EE1B028B8F9C7A49511450523DCE22C1444BCDA0196EA25813F10A3992C7434680BEC005E687E0FE98230FA35CF8F6999549C6B1ADB411D055BC40A55B2D68CFDA062AF7D1F19E8045F69365C1983D46B49EDE0BAA1C8D5019B
311
1A20AD8493142E87997AE7747260E842C7E97A69071F57E16EA363F7F8E1A5284A2A94A60FA8D53AAE7D6B948C4EDE599ED31BEC0355F6A07C05F29F10EA7B55E037C176B3DDCC9CA204C96552880CBEB1C6D6688CC7D8F2EAA7FEEE7DF96EB779E8BD5378C2D91AAADF80E7D086BE2F7B7006FE33085F88A9316D13118EB4
311
71CF7200A44962F10253C8C349B8B38335B21CB23276111E783019EA3EE3D3778D18248AFAA4DE3B07960769F18C040DD86A46428D86FC46C1BD9F7E4A67F5C166D929782F7E0B5DE7CBCDC74D251212D17B13D34B9AB09C2994B83D6FFA0A0D301F58F4445F5F0A11C3D09FF1DEF4F1CECC5112686BCC35F0699BD3F5607F
311
F2E08008FBD242A71BFF1727C0085D587BF2EF998C28E724A745D59EFB66FD40D96820D6C1AE99DC15987D6101699A3F073188221D09566A10BB6AD5254DE78475DFD69FC0483BB87DFD8BBCF6B357B8CFBD51C10BB10D5FB74D5A3A0AF5F721B70D06AE9602BAD741D2C6BF017D1BB324A92492E0115CBFAF177DDFE9B480
311
14D14A6DA26506FB115C4418D2B67251AD0541252DF22D43DD44DC1D3DA02F1F901A06D4024F692C294FB68CF32ADB268CA31A6D33529E80E3FFEB1F5659B9255951E5EA84EC81EAA80E43DD07EC952F44458F76B0A9DFA35BE4DE98C627C8A06BC911AC06AEBDBEBA9B2F97CBCBD1D5E5DD6A347B87266A7E35BD1ECDEEA6
311
DEE5EA627EBB5AEE35AA9BA8C06F4B4D3FA2E1259436BF12CCB8EFDB1AF16392801DDC13251F3E34E1D9BEBFAD1DF4C2BE8B3DA897DDC679FC8CBE8FC6BF16B05F7954D03A2B39CD68AE888EA17BFDC1BF12F41903659AF97546527A8694CF1F3607C660E68C7D5F74BCD39783BD6676A103F2A810F55865614E183FD89836
311
483A659E1AFC5A9F74EFA6D0B4433D328E41672A0BCE62E4C1D84A699151856C784611121995A05EBFA78FCDDDE38CDDCF4D87A848C869ABC9234193CC25C20224AF22359CB7FE4053A7FBAA1B1BE5D679C2C3640ADB02676E6C34E98A45543A210AB46E856AE1E052BF930767499E72F4DACDA66EDCEDD2D80C4A72B7E49C
311
FEC9D8D5A4706300D24889BE010D11BC532B13F8B56EE67FF49F0C6FD5B188C26758A9CE96FD44674C7D0C42B431CADC16D0C43C99A37708D4B7CDF29C7ACD0091B36E596F92A0913A5244A4F54D41EB67549A2FBFB8E850ACF567ABE4550A5F9E2F692428C85CE900078BC00A23B3240A545DFCF9F04514B8C966D68A8102
311
0F8B22CB8ADC0CE6E6266C6D1E71AF8D1F9016A8BE90C887C9D89B3CD417017337D986445287C4F20913F0A9601DC403C78391CD6D1115A8F9D1AD73B5130EB8B95E5AA6A4CD20D410A59F55352C6839726A217AF46552C74A7F41F9E65DC0AD974205812E3EF817504B030414000608000077463240000000000000000000
311
000000350000006662782F43424233303835312D453443362D343335422D383235302D4643464333363842413231342F76657274696365732E62696E504B030414000608080077463240F270F1330600000004000000360000006662782F43424233303835312D453443362D343335422D383235302D464346433336384241
311
3231342F747269616E676C65732E62696E636660600000504B030414000608000077463240000000000000000000000000370000006662782F43424233303835312D453443362D343335422D383235302D4643464333363842413231342F617474726962757465732E62696E504B030414000608080077463240D5987DFC8F
311
00000041010000360000006662782F43424233303835312D453443362D343335422D383235302D4643464333363842413231342F6469726563746F72792E786D6C858F410EC2201045AF4266AF15DDB800BA74E7C21B903225242D6328188F2FA5C4183471359997F9FF81E89FF3C41E1816475E02DF1F80A11FC8386F25A4
311
38EECEC07A250251FC3803E6F58C12560C4AD840E95E91C151A72936F496F35732D860FE635F62C8F2DA16B505C545B74125BAA2FA9E05D7CC053D063734D5C7665FD55B6B8D15D5E9BFEAFD8490FFA45E504B030414000608080077463240F4361EF7FB000000A00100003B0000006662782F43424233303835312D453443
311
362D343335422D383235302D4643464333363842413231342F7265736F75726365732F636F72652E786D6C8D504B6EC32010BD8A357B6C705CD7B13059A4E504BD00C2930425068B4FD5E31762576A77DDCC8CDE47F3F4F8E96B79549FE8837176025653A8D06A371B7B9D20C50B19A03A09EE9D8BBF645059B5E0040506C1
311
AFDEA57587B4B3116DCCA87533EEA00A012354FA918F0982BEE1A26A956256847BBD2A7D5757AC599DE9AC133C449F0354DB933241780C2E798D81371B2B784A66DE3566CE3FCDC5A00741DBB3ECFB734B243B76A43B74920CEF4347DEA83CBECA8ED156F6BC2966C1A3597E326A8F2AE20CA2A5AC259411367CD0617C6163
311
D713DA8F94F2A6C8FF98D23AFFD3948C8D87768FBBD9020896833C09C19BD2575ECF32F32EDD8A6F504B010214000A0000080000774632403DEE336E79000000790000001B00000000000000000000000000000000006175746F6465736B2D64657369676E2D7061636B6167652E786D6C504B010214001400060808007746
311
3240D486FD9CA0000000F40000001300000000000000000000000000B20000005B436F6E74656E745F54797065735D2E786D6C504B0102140014000608080077463240E79D306FE90000007C010000080000000000000000000000000083010000636F72652E786D6C504B010214001400060808007746324055019EA25F00
311
00007C000000070000000000000000000000000092020000636E782E786D6C504B0102140014000608080077463240D30D8C5B65010000020300000C00000000000000000000000000160300006662782F636F72652E786D6C504B010214001400060808007746324023B8E2207D0000009D0000000B000000000000000000
311
00000000A50400006662782F636E782E786D6C504B01021400140006080800774632408F38B2D72A0100001402000031000000000000000000000000004B0500006662782F43424233303835312D453443362D343335422D383235302D4643464333363842413231342F636F72652E786D6C504B0102140014000608080077
311
463240D741E57F4D010000330300003000000000000000000000000000C40600006662782F43424233303835312D453443362D343335422D383235302D4643464333363842413231342F636E782E786D6C504B010214001400060808007746324044BA9DF29B0500007B10000034000000000000000000000000005F080000
311
6662782F43424233303835312D453443362D343335422D383235302D4643464333363842413231342F6F626A656374732E786D6C504B010214001400060800007746324000000000000000000000000035000000000000000000000000004C0E00006662782F43424233303835312D453443362D343335422D383235302D46
311
43464333363842413231342F76657274696365732E62696E504B0102140014000608080077463240F270F133060000000400000036000000000000000000000000009F0E00006662782F43424233303835312D453443362D343335422D383235302D4643464333363842413231342F747269616E676C65732E62696E504B01
311
021400140006080000774632400000000000000000000000003700000000000000000000000000F90E00006662782F43424233303835312D453443362D343335422D383235302D4643464333363842413231342F617474726962757465732E62696E504B0102140014000608080077463240D5987DFC8F0000004101000036
311
000000000000000000000000004E0F00006662782F43424233303835312D453443362D343335422D383235302D4643464333363842413231342F6469726563746F72792E786D6C504B0102140014000608080077463240F4361EF7FB000000A00100003B00000000000000000000000000311000006662782F434242333038
311
35312D453443362D343335422D383235302D4643464333363842413231342F7265736F75726365732F636F72652E786D6C504B0506000000000E000E0080040000851100000000
310
504B03040A0000080000774632403DEE336E79000000790000001B0000006175746F6465736B2D64657369676E2D7061636B6167652E786D6C3C3F786D6C2076657273696F6E3D22312E302220656E636F64696E673D227574662D3822203F3E3C666F726D6174733E3C666F726D61743E687474703A2F2F736368656D612E
310
6175746F6465736B2E636F6D2F64657369676E2D7061636B6167652F323030393C2F666F726D61743E3C2F666F726D6174733E504B030414000608080077463240D486FD9CA0000000F4000000130000005B436F6E74656E745F54797065735D2E786D6C7D8EC10E82300C865F65E91D8A1E8C310C0EEA1BF002731658846E
310
D98AC1B77784ABF1D8FE5FBFBF75BBCE937A534CCEB38643598122B6FEE978D0B0485F9C41B54DDD7D022595594E1A469170414C76A4D9A4D207E29CF43ECE46F218070CC6BECC4078ACAA135ACF422C856C0E68EA1BF5669944DDD7BCDE7B1F8E415D77AECB980613C2E4AC91FC167A2B244592486606FC29C8FD7F045B9A
310
EF7053A7E60B504B0304140006080800774632402BAE9C76E80000007C01000008000000636F72652E786D6C8D90416EC3201045AF82668F0D3631D4C244B5DA1BF4020813172506CB40D5E317278ED4EEBA9AD19FFF66465F9EBF971BFAB25B74C10F402B02C87A1326E7E70172BA6001E8ACE41642FA6503E4F56207D865
310
5072DE425E0FC9049FAC4F45F561B287A863B40990B9956680683EEDA22B9D5371C46BB56A73D5B3ADE8B32B70CE6E428F236E2AFBDCC5D90D94E0EFB43B718629E314B3D756E0717C13988B8653FE42191B5B59EFB092C92DCFFB66B33AD9095443688309C5547C10D19F68CF3A4CBA9E1059EFF63F505EA77F42D9F9D436
310
C7BB0F2C82A2E591FB40C97ACFA2947B50A5EEB9A91F504B03041400060808007746324055019EA25F0000007C00000007000000636E782E786D6C4DCB3B0E80201045D1AD90E915ED2CF8AC45050C11660C8261F98AB1B07AC9C97D42D718D865D3E909258CFD00CCE24AC6E326A164D74DC0B4128928FF326038472BA131
310
28B1252AC747C6BAB984FC68F0B87FE8960A5C09FE86CFB69FBA01504B0304140006080800774632408D1F48A565010000020300000C0000006662782F636F72652E786D6C8D525B6E833010BC8AE57F639B904023E3A8517B835EC00187A2808DFC40397E974794A68AA20AC958333BBBB303E270ED3B346AE75B6B4ACC13
310
86913695AD5BD39438863329303A48E1AC0DBFCA3032AAD7259E602C45E36C1C56A8B22668130035B6D62BA8BCD701A3AA834B897DF5AD7B95A818A0C25F92415517D5E8842740439D143E3830809621D389E5F9741574C1A588B1AD57B6AD615A7B6EB5C3B2C83FF96E9B6784673927D9FBA620C7E34741F222CD79FEC6B3
310
ECB81174124B11DAFEE6AE725A055D6399329E12C6092FBE58B1DFF27DB6236CB7674CD0A9FC411487FA9FA2D89AB04957BB8BCC63C9C1C84CFCD916220AC8AB11FC5029E81422BCE6841F83864020E4A04EDD6D8F0B40A3AE82751930B58D776A545DD43095A1F9117461A1F3DC00367BDA277DD1E7750FF880CA34604D05
310
B89E6298A68B65EA1AC5A01D19C31519EB7AD5DDCD2D16EFE77DD05379653BEBFEA3A6EBAA740D934E7FAFFC01504B0304140006080800774632402353AD5C7D0000009D0000000B0000006662782F636E782E786D6C4DCC410AC3201404D0ABC8DFDBA4A2210B35B4FDF11EA131416AB4582D3D7E4DC9A28B61E0318C1C3E
310
9B276F9B5E2E0605E7530BC4867B9C5D581594BCD01EC8A0658A31FFCD808469B30A76062DD714CBF3A0D92E53F1B9AA77E171A0612D764C08CA0572CA3B81F432F6578A781335C68CC8A0D1B2F93DD5DE8FF517504B0304140006080800774632407CA842F62A01000014020000310000006662782F46323044363235352D
310
343544342D343635442D414538422D4444433544444346464544322F636F72652E786D6C8D51CB6EC32010FC158B537AC006622337C2446D9D7C417F801892A2C460F1A8F2F95DD78ED4DE72E0A1D999D9D1AED8DFC75BF16D42B4DE7588960415C60D5E5B77E9504E67DCA2622F45F03EFDA1A1C2A9D1746886911497E0F3
310
B4428377C9B804A8F3DAACA08AD124540C37F874280E5F6654A5CA0918F15A4E6AB8AA8B29690965E04911538000C5D264BE913C32D273D634B86EFA1AD7BCE9F1DBA17DC77DFFD1C0391E0F3D13D522942267AB57B9D510C79EAD09CF9ACC6229921D1FF1876054321A494628C38462DA7E9276D7D05DCD31E13B424435D3
310
FF89F2A49F1465EBD296AD71175944928A6A2948A17D3EDD1E61CC7DF2211573BF4D34C30B92A4248C32CE5F61000B1506009EBC5E3D63F20106BCB99E80BD5D8D792D4535EF089EDF05C23BEF53FE00504B030414000608080077463240B1E62A685401000033030000300000006662782F46323044363235352D34354434
310
2D343635442D414538422D4444433544444346464544322F636E782E786D6CBD93CD6EC32010845F0571F75FE25A568489D4439FA0875E096C521A0C163F55F3F65D1292E69243A5AA1764CD0E33AB4F986DBF66433EC107EDEC44BBBAA504AC744ADBC34453DC5723255BCEBC73F1CE468915334C34CB94B3837769299282
310
BD4826A26AB43D16D14370C94B0828E79BC438290C0680AD128A30EF402950E466C4AF3D785C05C5DD89C477202FCF6FC4ED3E40C6C09A9CC259933B38CB6769BA3351228D0861A241BEC32C6A91A253108EB51251D45D7DED7AB0D34F12C917AE95C96B92CB279A4FCACB463572640D0E390BD123BD628AA7052817CB62B4
310
1411213767E3C5C359D2360E7DF16A04EFD1BD5E0DE38861E7196751CF501CD28388A0285FB5DDAA6ABBAA1B5FDB71F3D46DFAA16A874DDBB226DB39DB3967CA258C01EF16229D8D6023E51D6BF2F811BEE2234A7B64EDFCE91720114069BDD0B965FC259F6E58F7FD3FF269CEEF1B7179FC0BF837504B0304140006080800
310
77463240FA6636B25A070000941B0000340000006662782F46323044363235352D343544342D343635442D414538422D4444433544444346464544322F6F626A656374732E786D6CED59DD739B3810FF5718EED9D8C44E9ADC103A499C643CBDB49DFADAB907CF3032C8441721184924F1FDF5B7FA00033109BEE6DEFA6003
310
425AEDFEF6534BF0F139A3CE23E682E4ECDCF5BD89EB6016E70961E9B95BCACDE8D4753E8601CF73D998E63A0C65F8DC55C36E18A43C2F0B3B94E00D2AA9EC8CDE5CFEE5881833EC3A3145429CBB22BEC719F25029F3048B072F411279E9E6D9F33D33B14D36E5A8B8EF102D10C74C02A730CE808A6398F2DB8F13771C0663
310
F53E0CD4BF9D351D346BD63F6BACA56E7349989088C52F58EA90990E6269EACFE6D747C767A3E3D96C3A9A9D1CF9A3CB9BCBF9C8FF309D5C9D5C5D9D5D5C9F017BEB3CA756A604179825A0BFAD1BFAC158BDA945B708ECE33ACE19C3B10612A0D2627509122C60AB067C93F6A3AF246ABCD612369E67EABD65A1313C6D53E9
310
9B350C88165D10C46E57495C5D9BF2E5EBBF417031C428B9C012B8159283762D3C1CBCC20D27C1D88C86C17AA70B229C0C49CC09A20E256B8E382805A6AA296160165832CA3938907294045A73E675DBB6C033DF769D7D5C6E4A4A9567B8A176AC08DC0F4BA13923FF60BEE3BE890CF004D29684C953CBA5DC16D80DCF82B1
310
1E0C0375991ED99706486743512A3422E66D47D02BE5FA8BB91B7EBA593F2F5538D8BF79C1F30273A98C4EE951F305866CAF0A25BBAD3F48736A01086340B52B77A07C03E43F43F4D8B1027AE3E479F63CB37325474C6C729E816E9C89339AC0DFC4F1F5BFBA6FDC05E37A715B7B7D78829B2AA84E7F1ECFB60C1A2BCB7F03
310
CE30780483CFF9D4BE5AC688823DDF110600292371680E4310DA37EB67375C40E084400FAB100D7D1019D87D84DB606CC9ECB452B997F53A0688DA3DA6439404B0698B04367AF4740BD9839378A7A6A6887DF01EBF8BB95ECC979F9625DFA018DF599F9EE30D614442D6DCCF500BF396440F78FB94F304047D89F7B2897766
310
B71280B6C25C019F5620A887DDCEAD0D625897E62ADC046FEC0042A85CDDA07F47448C29450CE765B56F1DDD94A1D61E6F6B06373C32104F8F3A26CCF12351550538CD6E468B51C8FB31278502D10D6F8D6475D0F47AA4FBBEF80C1659CFEF99B560107A19A27FEAA0B50787966557485B206A81D7BB701EE734E7D17A1B99
310
48E7422D016CB4BDE5478B28C47AA32445053C48FB5D155252236D9490CDA6141057F7B0F86371D534878937F58F9DE67FC71967106DC17711B77ED7D92322194A71B44149DF76CDDD6ADA4293EC21CDF186825CE491C86D84643449707A083407113F7B57EA29CD85200C0BC8577BC16FA231F12090186D562C2BAD768026
310
22CAB044F4100414991E7075DAD1356E0CA5C3DB3CD6D6FB9AC69A44FF278BE0086AC99C45044A51C8216F32EE7BC71043DAE81A943BF882B555B4B518B4841222DE464F98A4F7F210D40DF91EDC6338929432CA0B1483590F20FBC25794523BBCAF51FCA0F2471497F4BD0C4460BA8908A56516C18F3038790C71ED3A30BD
310
8A4283B8897D126750942159F2219B9C1C4F5EEC636A866E086C6CB42114C27694A1A207F55640D4F58853836FA9F728755D664584B2BC64830CC59B76BDC992EFAA55911DC8AF2A15A16CAC085B82614098ACB36A15B3C1D475600537D2816A1B099415D49CC2DE483C7EED4D9A72EF06DCFAE9FB6E9041E1D7A3BD66449D
310
5530581E5B8581784232BE77C3A5BE8E2EA1FE4E70B24BF555ADD9AC00013115C94B4EAC8ABE2FA0BCB1359A1BDE212956B726EB56D7EF0B0FBA1FC118D640ED522F5C28A033CC245295C99DBAA1DF1084E0160D33BE5039F5102A1749A2AB46446F489F3A5B65446BD38C78C53D6679063FB6222CA665825728110FD19DA4
310
D19228D6AD945E462A8C5F15F0CBEDB2030F8C0C10E9AB2AF0F05367AD1DBD52E5D25E22F2BECCD60C1108822DD152A31BAF60A9D548A5E5FAAACE14507781815915CF7E9D2C9AED885F278BD41AC64F9D2C2EB77FA06DB32FD248E7B1B2EB838E01757E5254DEE318A0DB0E35D53A8B98646EE5B7CE144150ACA2FCE06AAC
310
0A1A86601FC7FF396BF76541B35D87FFC3B2B6FFA2E23828ABB426AB2ED59ECA75D1CC6167A7D717F3F9FC64747A727D339A7D802EEDC5E9F46C34BB9EFA2737C7179737F31D47DA51C3A00E663A77C1B3096AD5B07AB218405756E49424709A4F9C1443CC9770A61FD03EE71916903C9BCDEEC436E507AC7E347D4E89D614
310
579CDC2368105301691D302A63D91E777E83D6A48483F6B90B4D23EF01FEAC55BA0E649E73175A0592C458786B6833A9869E260E2957E77E4B0CF0412C5529D12CAA9FEB550A9B56F8AFA70C490356AE560F030AB702BA5FAD0E85E6CDF2141F2478C58E8324DCAE4B09D59A916537500BA3B7D9A9DFC846097BB05B3F83EB
310
BE2E96EFE9392D44067D3278D5080CD591443CD5FD6EC59865E962FE750C7D3667F1C5296899822E87531A710CC65CAA820AAC08ACC2D22C900453BDFA7DF595E7F08927737455B4BACAB32C67F6E102CE63097C227296F7F0C1275941D980555B5DAC8E26FED14AB7B36D873D5A23813D550FC140554628113AC60616F9A2
310
35651B9763A584CEF4C5DCB1E113DA00C6825E7477CDE72D07BC477D4851BEA23DBC92F3D58EF6584F056BE0D08B0EFF05504B030414000608000077463240000000000000000000000000350000006662782F46323044363235352D343544342D343635442D414538422D4444433544444346464544322F76657274696365
310
732E62696E504B030414000608080077463240F270F1330600000004000000360000006662782F46323044363235352D343544342D343635442D414538422D4444433544444346464544322F747269616E676C65732E62696E636660600000504B030414000608000077463240000000000000000000000000370000006662
310
782F46323044363235352D343544342D343635442D414538422D4444433544444346464544322F617474726962757465732E62696E504B030414000608080077463240D5987DFC8F00000041010000360000006662782F46323044363235352D343544342D343635442D414538422D4444433544444346464544322F646972
310
6563746F72792E786D6C858F410EC2201045AF4266AF15DDB800BA74E7C21B903225242D6328188F2FA5C4183471359997F9FF81E89FF3C41E1816475E02DF1F80A11FC8386F25A438EECEC07A250251FC3803E6F58C12560C4AD840E95E91C151A72936F496F35732D860FE635F62C8F2DA16B505C545B74125BAA2FA9E05
310
D7CC053D063734D5C7665FD55B6B8D15D5E9BFEAFD8490FFA45E504B030414000608080077463240F4C056CEFB000000A00100003B0000006662782F46323044363235352D343544342D343635442D414538422D4444433544444346464544322F7265736F75726365732F636F72652E786D6C8D504B6E833010BD0A9ABDC1
310
06022E328E8ADA1BF40296992456828DFCA97AFC9A40A576D7CDCCE87D344F4F9CBF9647F1893E18674760258502AD76B3B1D71152BC100EC5590AEF5CFC2583C2AA0547D86090E2EA5D5A0F483B1BD1C68C5A37E301AA103042A11FF91821E81B2EAA54296645B897ABD27775C5929599CE3A2942F43940B13FD926488FC1
310
25AF31886A67A548C9CC87C6CCF9A7B918F42079FFCEBA53DF10D6F68CB4AF0D27D3F4C649CFEB9EF52FAC6DA746549B598A68969F8CDAA38A3883AC29AB096584F10FCA87131BDA8ED06EA054549BFC8F29ADF33F4DC9D8D8D447DCDD1640B21CE44948516D7DE5F52C33EFAD5BF90D504B010214000A0000080000774632
310
403DEE336E79000000790000001B00000000000000000000000000000000006175746F6465736B2D64657369676E2D7061636B6167652E786D6C504B0102140014000608080077463240D486FD9CA0000000F40000001300000000000000000000000000B20000005B436F6E74656E745F54797065735D2E786D6C504B0102
310
1400140006080800774632402BAE9C76E80000007C010000080000000000000000000000000083010000636F72652E786D6C504B010214001400060808007746324055019EA25F0000007C000000070000000000000000000000000091020000636E782E786D6C504B01021400140006080800774632408D1F48A565010000
310
020300000C00000000000000000000000000150300006662782F636F72652E786D6C504B01021400140006080800774632402353AD5C7D0000009D0000000B00000000000000000000000000A40400006662782F636E782E786D6C504B01021400140006080800774632407CA842F62A010000140200003100000000000000
310
0000000000004A0500006662782F46323044363235352D343544342D343635442D414538422D4444433544444346464544322F636F72652E786D6C504B0102140014000608080077463240B1E62A6854010000330300003000000000000000000000000000C30600006662782F46323044363235352D343544342D34363544
310
2D414538422D4444433544444346464544322F636E782E786D6C504B0102140014000608080077463240FA6636B25A070000941B00003400000000000000000000000000650800006662782F46323044363235352D343544342D343635442D414538422D4444433544444346464544322F6F626A656374732E786D6C504B01
310
021400140006080000774632400000000000000000000000003500000000000000000000000000111000006662782F46323044363235352D343544342D343635442D414538422D4444433544444346464544322F76657274696365732E62696E504B0102140014000608080077463240F270F1330600000004000000360000
310
0000000000000000000000641000006662782F46323044363235352D343544342D343635442D414538422D4444433544444346464544322F747269616E676C65732E62696E504B01021400140006080000774632400000000000000000000000003700000000000000000000000000BE1000006662782F4632304436323535
310
2D343544342D343635442D414538422D4444433544444346464544322F617474726962757465732E62696E504B0102140014000608080077463240D5987DFC8F000000410100003600000000000000000000000000131100006662782F46323044363235352D343544342D343635442D414538422D44444335444443464645
310
44322F6469726563746F72792E786D6C504B0102140014000608080077463240F4C056CEFB000000A00100003B00000000000000000000000000F61100006662782F46323044363235352D343544342D343635442D414538422D4444433544444346464544322F7265736F75726365732F636F72652E786D6C504B05060000
310
00000E000E00800400004A1300000000
  0
XRECORD
  5
17
102
{ACAD_REACTORS
330
12
102
}
330
12
100
AcDbXrecord
280
     1
270
     1
271
     1
  0
XRECORD
  5
16
102
{ACAD_REACTORS
330
12
102
}
330
12
100
AcDbXrecord
280
     1
270
     1
271
     1
  0
XRECORD
  5
18
102
{ACAD_REACTORS
330
12
102
}
330
12
100
AcDbXrecord
280
     1
270
     1
271
     1
  0
XRECORD
  5
15
102
{ACAD_REACTORS
330
12
102
}
330
12
100
AcDbXrecord
280
     1
270
     1
271
     1
  0
XRECORD
  5
FC1
102
{ACAD_REACTORS
330
22
102
}
330
22
100
AcDbXrecord
280
     1
102
MATERIAL
148
0.0
149
0.0
149
0.0
 93
        0
 94
      127
282
     0
 72
     0
 77
     0
171
     0
175
     0
179
     0
273
     0
  0
XRECORD
  5
24
102
{ACAD_REACTORS
330
22
102
}
330
22
100
AcDbXrecord
280
     1
270
     1
271
     1
  0
XRECORD
  5
23
102
{ACAD_REACTORS
330
22
102
}
330
22
100
AcDbXrecord
280
     1
270
     1
271
     1
  0
XRECORD
  5
BA
102
{ACAD_REACTORS
330
22
102
}
330
22
100
AcDbXrecord
280
     1
 70
     1
 90
1959938040
 71
     1
  1
27A7F9A7-9EA7-46F3-B5AE-B1BFA4907F03
311
504B03040A0000080000774632403DEE336E79000000790000001B0000006175746F6465736B2D64657369676E2D7061636B6167652E786D6C3C3F786D6C2076657273696F6E3D22312E302220656E636F64696E673D227574662D3822203F3E3C666F726D6174733E3C666F726D61743E687474703A2F2F736368656D612E
311
6175746F6465736B2E636F6D2F64657369676E2D7061636B6167652F323030393C2F666F726D61743E3C2F666F726D6174733E504B030414000608080077463240D486FD9CA0000000F4000000130000005B436F6E74656E745F54797065735D2E786D6C7D8EC10E82300C865F65E91D8A1E8C310C0EEA1BF002731658846E
311
D98AC1B77784ABF1D8FE5FBFBF75BBCE937A534CCEB38643598122B6FEE978D0B0485F9C41B54DDD7D022595594E1A469170414C76A4D9A4D207E29CF43ECE46F218070CC6BECC4078ACAA135ACF422C856C0E68EA1BF5669944DDD7BCDE7B1F8E415D77AECB980613C2E4AC91FC167A2B244592486606FC29C8FD7F045B9A
311
EF7053A7E60B504B030414000608080077463240A2A4F3F2EA0000007C01000008000000636F72652E786D6C8D904D6EC3201085AF82668F038EFF6A61A2DA8A4FD00B20202E4A0C968128C72F4E1CA9DD7535A337EF9B193D767ACC3774D7AB37CE76403302485BE994B15307315C7003E8C4D9EA5CF8650364C5AC3BD864
311
E06C5A5D5C76493A1BB40D49B54EE95D14DEEB0048DE52D38197DF7A1699882139FC355B84BC8A4967F4DD253846A3D0EB8851699FB918BD02FF188AE14CC61AF7C77EC445DD8CF8B3AC7B5C9555599C693DF41561870DE62C98F97D5FAE5A04AD80E784E698504C9B2FD2B4256D8B0A93AA2509DAEC7FA0B8A87F42D1D870
311
CCF7775F98074ED323CF0167872D8B549E41A5BAE5C67F00504B03041400060808007746324055019EA25F0000007C00000007000000636E782E786D6C4DCB3B0E80201045D1AD90E915ED2CF8AC45050C11660C8261F98AB1B07AC9C97D42D718D865D3E909258CFD00CCE24AC6E326A164D74DC0B4128928FF326038472B
311
A13128B1252AC747C6BAB984FC68F0B87FE8960A5C09FE86CFB69FBA01504B0304140006080800774632408D38E97466010000020300000C0000006662782F636F72652E786D6C8D525B6E833010BC8AE57F8321BC1A1947254A4ED00B38E05014B091B1518EDFE511D154515421196B66677776801DEE5D8B46698646AB1C
311
071EC548AA52578DAA73ECEC9564181D38335ADB5F651829D1C91C4F30E6AC36DAF52B546A65A5B2802A5DC91514C3202D46650B971C0FE5B7EC84279C858AE1E6F5A2BC895A7A810734D47136580306D032643A31BF5EEECC5F70CE9C6BAA956D2A98D65C1B6930FF3846C7133DA7A4D8156712A5D9997CC66941923889A3
311
53901E8B84327F1273669BEEE1AE34525859611ED22024342041F645B37D1CECA384D0644F4134953F895C5FFD53E41A6577E16A77910D9807606426FE6C0B1159348811FCF89CF95388F09A137E0E1A028190ADB8B48F3D6E008DB2B4DA44C054DA6DD4285A27612A45F3C3FC8585CE7303D8EC659FF04D9FF73DE0030A55
311
833561E17A71769ACE96A96B14BD3464B477A4B4E944BB995B2C6EE736E8A5BCD4AD36FF51FBEBAAFE1AA63FFDBDFC07504B030414000608080077463240ED33CCF17E0000009D0000000B0000006662782F636E782E786D6C4DCCD10A83201886E15B91FFDCCA55D3811AB2EC3E6259C84C87D3D8E5AF46073BFAE0E1E3E5
311
DD67756833F16D8317408A0A90F18F3059BF08C869C60C5027790C21FDDD00F97135020E06C99718F2EBA4C9CC6376695767FDF3C4FBB5258AD60A5F68CF70A3DA0AAB6160986AD66B4D6E843435949297BFD2BE47587E01504B030414000608080077463240C610A6FC2B01000014020000310000006662782F4336353141
311
3733412D323744382D344135302D414646382D3745384445453139313134332F636F72652E786D6C8D51DB8EC22014FC15C293FB400B95D66A28A659F50BF607B0A0122D345C367EFEC2B626BB6FBE70C89C99399373D8FE393EC0B7725E5BD3415260089419ACD4E6DAC1182EA88560CF99B336FCA14160C4A83A9861C8D9
311
D5D9382DD0604D502624D458A9165078AF0204C3237D3AE8879B1A452162480C7F2F2631DCC55515A448EDC4E3CC0797028079487E21FF6C6AD26FD63DAA368716D1BEC6A83F9D5AB439B687E3916C09A16B56CE42CE62D472916B99E2E88B56EE5D932CE62CE8F1157F704A042521AF30A9102688B45FB8DDD564471B849B
311
1DC6ACCCF47FA238C93745519BB0AE96B8B3CC434E5839373893369E1FAF30EA395917409EB7F26AF8801C17B8C2784B2865E54C4D0B489E0D5D3C7DB02E2D78753F2736A967E3867256E61BA5F27BC054F33DF90F504B030414000608080077463240D741E57F4D01000033030000300000006662782F4336353141373341
311
2D323744382D344135302D414646382D3745384445453139313134332F636E782E786D6CD593BD6E032110845F05D1DF0FCEC5B22C0E4B29F20429D272B076883938F113C56F9FC5C68E1B1729D3A0D3EC30B3FAC4F1DDF76CC9178468BC1B296B7B4AC029AF8D3B8C34A77DB3A1642778F03EDDD9287172869116990A7E08
311
3E2F55D2B097D92654AD71C72A06883E070511E5729358AFA4C500704D4611E609B4064D6E46FCDA43C055509C4E247D00797D79277EFA049522EF4A8AE05DE910BC9CB5E9CE4489B232C69146F501B36C654E5E433CB65A26D9B2F6DAF560A7DF24522E5C2B7330A4948FB49C54D48D5AE4C83B1C0A1E53407AD5944E0B50
311
2197C51A251342EECEC68B47F06C5C5A0FD56B107C40375B3F0D03869D678227334375A8003281A662D5B355D3B3866DDEFACDF6996D8775D3AFB77DCFBB62177CF2DED64B1803C12F447997C0252A18EFCAF811BEEA23DA0464EDC3E90F2011406DBDD0B965FC673EDDF97D23AE807F81F801504B03041400060808007746
311
3240125CE2899A0500007A100000340000006662782F43363531413733412D323744382D344135302D414646382D3745384445453139313134332F6F626A656374732E786D6CAD575D8F9B3814FD2B887DCE0749A6D3AC18AA2433A9A26ADA51A356FB305264C030DE3118D9669AD95FBFC76008A4C934BBEA0B60635FDF7B
311
EEB91FF63FEC33EEBC50A998C86F5C6F38761D9A472266797AE3963A19BC779D0F812F85D09D65AE93938CDEB866DA0DFC548AB2B053314D48C9F5D1EC7AF997A3229A53D7893851EAC655D113CDC890945AC4543D0F63A2C9304DF6436F582FEC8B4D25299E8E841644D25C4353CCE790E2D44A79FDE1D81D05FEC8FC0F7C
311
F3B4ABA6E7578D2A7BFAE7B35C6992473F1D762466EACD6EEF2657F3C1D56C361DCCDE4DBCC172BDBC1D78D7D3F1EADD6A355FDCCD71B0D21292AC2692266EF011D84816F9A3FA57E0972CD7D3895D621D3492F485194FB9C1C4F1FC51BDA6B5CE1A794AFD48E4398D2AAC8046659F151DD382E6317CCEA882661D84C6FDA1
311
6770ECFC9E9AB13DB23B7D1902DD1D1D418DEECDBBABA908FF8609EA120649450D036B2CADA13557C707844321B8FDC79493114D2523DCE12C9444BEBA01969A2581DF1363982C4D34180BDC005EA87FF7E98230FA35CF4F6999949C1B1ABB4115053BC40AD5AAD28CFD43E541FB2E32D009BE326C786F0DD2AF057583794D
311
91F7476CAA8174124E52B81C669A9DD3C991A12B13A79B5B37F8B40EF75B13BBA70F2FA428A8D4863EA056E3B8E66D50B23A791779CE6C708F543980F215C87F46A81F5481DF24DBCFF6337B8A9624578990197CE38C9DC1188FB1E3554FF3DDF9F247EDE6BEF7CEE109671BA87E039E7D1BBABEECC019F82F20BC90536BDA
311
36221C69E39EE500C890C4E10253C8C349B877830DB21CB23276111E783019EABEE0D31F59314814D5499D770E2C8FD2E205091AB0558C841A35F9AD82073FFD94CEAA83EDB273F05EFD16BA2E6EB79FB6A54C4844EF6D4CDFD284E54CA3C41D78D355A88779CFA267FAFA43C81886FE8CF7B68B77668F5240DB606E804F9B
311
9C6E0687937B0744D8970A936EFC5F9C00234C61EDC8BF672AA29C939C8AB239F7CDFA81B251436C82DD30B92D3087C202D2D47F8E6210453A92AC3020B6D5AA4D9AC333D67DDB7C0623B19E8B90F0C3A2F0907A23C185DC85AFBB3A2B9D44FA7B9FDA1682919102B65731D284BFC57C17B324291572E00958BF6F565DD799
311
AC800CD148AD836506F3115B445ACE367251AC25412115F98EA16C22EC4E1ED0950F442D012A81E7345694273BC67999ED12C6518C761929CEC0F1FFF50FCBACD8914C94B93E23BBA73A8A435FF71E79D50FA2A32737D856EFC112A937A6F1C1CDBDC5A6949CC0AAE7DAC9F5E27A3D5F5C0FE67778CCDEADA783E5D5E26EB0
311
F496EBC56C3EBE5E8FA78D9F6AE181DF549A6E40C34BA86C7E299975DFB70DC2C7E60037B8275A3D7EACA3B3797FDB0CD10AFB23EC41B96C372EE217B47D34FEB580C3CA93823659C16946734D4C08DD9B0FFE95A0CDE82953CF6F3292D20BA47CF9B83D32063317EC7B30E14E7F1CEDB5B32B13902785E8A7320B73C2F8D1
311
C6B4467258E4A9C5AFF149FBAEEB4C333423EB1834A64A7016230DC64E4A45463592E10535486654817ADD963EB6578F0B76BFD40DA22621A78D264F043D3257080B50AB8C747FDEF9033D9D69AB6E5C54DBE1331E3653B80E3873E3A247D72CA26A18A23E9B4EA8120E2E751B79F4FD244F395AED7A533B6E77196C7A15B9
311
5D7249FB64EDAA33B8350069A440DB807E08DEA99409FC4A37FB3FFA4F8637EA3844E3332C756BCB61A235A63A06215A1B652F0BE8619EEDD17B04EADB6679C36A4D0F918B2E596F92A0963AD044A6D545C1E867555ADC3E8CD0A0389B2F4EC1CB14BEBC5CD2405290B934010E16811556664134A8BAFAF3F1410A5C643367
311
CD4081C795C83291DBC1C25E849DED13AEB5F123D20235F711F538197B93C7EA1E60AF26BB90283A24B17AC6047C2A590B71CFF160647D594405AA7FB4EB46C60947DCDCDC3AB6A4CD20D412A59B550D2CE83872EA207ACC5DD2C44A7741F1E65560542D850A124D7CF02F504B030414000608000077463240000000000000
311
000000000000350000006662782F43363531413733412D323744382D344135302D414646382D3745384445453139313134332F76657274696365732E62696E504B030414000608080077463240F270F1330600000004000000360000006662782F43363531413733412D323744382D344135302D414646382D374538444545
311
3139313134332F747269616E676C65732E62696E636660600000504B030414000608000077463240000000000000000000000000370000006662782F43363531413733412D323744382D344135302D414646382D3745384445453139313134332F617474726962757465732E62696E504B030414000608080077463240D598
311
7DFC8F00000041010000360000006662782F43363531413733412D323744382D344135302D414646382D3745384445453139313134332F6469726563746F72792E786D6C858F410EC2201045AF4266AF15DDB800BA74E7C21B903225242D6328188F2FA5C4183471359997F9FF81E89FF3C41E1816475E02DF1F80A11FC838
311
6F25A438EECEC07A250251FC3803E6F58C12560C4AD840E95E91C151A72936F496F35732D860FE635F62C8F2DA16B505C545B74125BAA2FA9E05D7CC053D063734D5C7665FD55B6B8D15D5E9BFEAFD8490FFA45E504B030414000608080077463240B10FDD6AFD000000A00100003B0000006662782F43363531413733412D
311
323744382D344135302D414646382D3745384445453139313134332F7265736F75726365732F636F72652E786D6C8D504B6E833010BD0A9ABDC14E8050641C15949CA017B0CC84580976E44FD5E3D74EA8D4EEBA9919BD8FE6E9F1E3D77A2F3ED1796DCD00ACA450A05176D6661920860BE9A0380AEEAC0DBF645018B9E200
311
1906C11767E363839435014D48A8B1336EA0F41E0314EA9E8E01BCBAE22A4B194352F85BF990EA26172C5999E8A413DC07970214AF27798270E86D740A3DAF5EACE031EA79D3E839FDD4178D0EC4DB544F277A6EC9B81FCFA43E7467F2DE1C46D2366D539FD8611A5BCAAB6C163CE8F527A3722803CE207694ED086584751F
311
B4EB1BD6D72DA16D4F9329CBFF98E263FEA7296A13F6BB2DEECBE641B014E449085EE5BED27A969976EE567C03504B010214000A0000080000774632403DEE336E79000000790000001B00000000000000000000000000000000006175746F6465736B2D64657369676E2D7061636B6167652E786D6C504B01021400140006
311
08080077463240D486FD9CA0000000F40000001300000000000000000000000000B20000005B436F6E74656E745F54797065735D2E786D6C504B0102140014000608080077463240A2A4F3F2EA0000007C010000080000000000000000000000000083010000636F72652E786D6C504B010214001400060808007746324055
311
019EA25F0000007C000000070000000000000000000000000093020000636E782E786D6C504B01021400140006080800774632408D38E97466010000020300000C00000000000000000000000000170300006662782F636F72652E786D6C504B0102140014000608080077463240ED33CCF17E0000009D0000000B00000000
311
000000000000000000A70400006662782F636E782E786D6C504B0102140014000608080077463240C610A6FC2B0100001402000031000000000000000000000000004E0500006662782F43363531413733412D323744382D344135302D414646382D3745384445453139313134332F636F72652E786D6C504B010214001400
311
0608080077463240D741E57F4D010000330300003000000000000000000000000000C80600006662782F43363531413733412D323744382D344135302D414646382D3745384445453139313134332F636E782E786D6C504B0102140014000608080077463240125CE2899A0500007A10000034000000000000000000000000
311
00630800006662782F43363531413733412D323744382D344135302D414646382D3745384445453139313134332F6F626A656374732E786D6C504B010214001400060800007746324000000000000000000000000035000000000000000000000000004F0E00006662782F43363531413733412D323744382D344135302D41
311
4646382D3745384445453139313134332F76657274696365732E62696E504B0102140014000608080077463240F270F13306000000040000003600000000000000000000000000A20E00006662782F43363531413733412D323744382D344135302D414646382D3745384445453139313134332F747269616E676C65732E62
311
696E504B01021400140006080000774632400000000000000000000000003700000000000000000000000000FC0E00006662782F43363531413733412D323744382D344135302D414646382D3745384445453139313134332F617474726962757465732E62696E504B0102140014000608080077463240D5987DFC8F000000
311
410100003600000000000000000000000000510F00006662782F43363531413733412D323744382D344135302D414646382D3745384445453139313134332F6469726563746F72792E786D6C504B0102140014000608080077463240B10FDD6AFD000000A00100003B00000000000000000000000000341000006662782F43
311
363531413733412D323744382D344135302D414646382D3745384445453139313134332F7265736F75726365732F636F72652E786D6C504B0506000000000E000E00800400008A1100000000
310
504B03040A0000080000774632403DEE336E79000000790000001B0000006175746F6465736B2D64657369676E2D7061636B6167652E786D6C3C3F786D6C2076657273696F6E3D22312E302220656E636F64696E673D227574662D3822203F3E3C666F726D6174733E3C666F726D61743E687474703A2F2F736368656D612E
310
6175746F6465736B2E636F6D2F64657369676E2D7061636B6167652F323030393C2F666F726D61743E3C2F666F726D6174733E504B030414000608080077463240D486FD9CA0000000F4000000130000005B436F6E74656E745F54797065735D2E786D6C7D8EC10E82300C865F65E91D8A1E8C310C0EEA1BF002731658846E
310
D98AC1B77784ABF1D8FE5FBFBF75BBCE937A534CCEB38643598122B6FEE978D0B0485F9C41B54DDD7D022595594E1A469170414C76A4D9A4D207E29CF43ECE46F218070CC6BECC4078ACAA135ACF422C856C0E68EA1BF5669944DDD7BCDE7B1F8E415D77AECB980613C2E4AC91FC167A2B244592486606FC29C8FD7F045B9A
310
EF7053A7E60B504B0304140006080800774632402A285367EB0000007C01000008000000636F72652E786D6C8D90D18E832010457F85CC3B0A5AAD6B9046BBED17EC0F10A02E690523B0E9E7175B9BECBEEDD34CEEDC3333B9EC709F6EE8472FDE38DB01CD08206DA553C68E1DC470C10DA003678B73E1970D901593EE6095
310
81B3717171DE24E96CD03624D53AA5375178AF0320794B4D075E7EEB49642286E4F0D76C16F22A469DD17797E0188D42AF2346A57DE662F402BCA9493D0CFB332E8F1F14EF8E5585FBE293E07D5F36E7BE3E55437962F90A7316CCF4BE2F172D8256C00B420B4C28A6CD1769DA8AB6BB1A93BA2584E5ABFD0F1467F54F281A
310
1BCA627BF78579E0343DF21C7096AF59A4F20C2AD53537FE00504B03041400060808007746324055019EA25F0000007C00000007000000636E782E786D6C4DCB3B0E80201045D1AD90E915ED2CF8AC45050C11660C8261F98AB1B07AC9C97D42D718D865D3E909258CFD00CCE24AC6E326A164D74DC0B4128928FF32603847
310
2BA13128B1252AC747C6BAB984FC68F0B87FE8960A5C09FE86CFB69FBA01504B03041400060808007746324037E5858E67010000020300000C0000006662782F636F72652E786D6C8D52ED8E8230107C95A6FF4B0B0872A6D4A8A74F702F50A17244684969898F7FCB87F1BC18732129CDCCCEEEEC00DFDEDA060DCAF6B5D1
310
390E038691D285296B5DE5D8BB0BC930DA0A6E8D71BFCA30D2B255391E612C78658DEF16A830DA29ED00D5A6540B28FB5E398C8A062E39EE8B6FD5CA407A0715FD35E8647195950AC20068A813BC77160CA079C878627139DF389D71C1BDAFCB85AD4B98565F6A65B1C85296EEF7EB13890F1F21591D9284ECA24F46D6BB38
310
3BEDD263B28F8F9C8E62C15DDDDEDD155649A74A2C221646848524CCBE58B649C2CD2A252CDD30C6E958FE24F25DF94F91AFB58BA3C5EE2CEBB108C1C844FCD9162272A89703F8A182D33144784D093F070D8140C84E9E9BFB1E57800655386357C094C63FA841365EC15486A687D39985CE5303D8EC659FE84D9FF73DE003
310
4A5D8135E9E07AF66E9CCEE7A94B149DB2647037A48D6D65F330375B7C9C8F412FE585698CFD8F9A2EABD2254C3AFEBDE207504B030414000608080077463240F674D1407D0000009D0000000B0000006662782F636E782E786D6C4DCCD10A83201886E15B91FFDCB556E01FA88153EF239685CC349C8D5DFE6A74B0A30F1E
310
3E5EDE7F9640DE2EBF7C8A02EACB15888B8F34FA380BD8CA4411482F794EA9FCDD80C46171020E06C9E79CB6F5A4D14DC316CAAEC1C7E789A88CBE69ABA8D2F786B60DAB299A0E296ADBA1352D330CA192BCFA95F63DC2F20B504B030414000608080077463240996ADDCA2B01000014020000310000006662782F38424544
310
324446422D424443332D343337312D384539382D3844463938464534374537382F636F72652E786D6C8D51CB6EC32010FC15C4293D6083ED3824C2444AED7C417F801A92A2C460F1A8F2F985DA91DA5B2E2C9A9D991DEDB2E363BA836FE5BCB6A683A4C01028335AA9CDB583315C1085E0C899B336FCA14160C4A43A9861C8
310
D9D5D938AFD0684D502624D458A9565078AF0204E33D7D3AE8C72F358942C49018FE56CC62BC89AB2A4891DA89C7990F2E0500CB90FC424E4F435FF5E7133AF5EF356AEA1D4174D85344FBF39E9E876637EC282B172167316AB9CAB54C71F4452BF7AA49167316F4F48C3F3A25829290579854081344E807A6872D39342DC2
310
ED01635666FA3F519CE58BA2A84DA8AB35EE22F39013562E0DCEA48D9FF76718F598AD0B20CFDB7835BE418E0B5C553569B65B562ED4B480E4D936ABA70FD6A5056F6E9F895DAFC66DC359996F94CAEF0153CDF7E43F504B030414000608080077463240B1E62A685401000033030000300000006662782F38424544324446
310
422D424443332D343337312D384539382D3844463938464534374537382F636E782E786D6CBD93CD6EC32010845F0571F75FE25A568489D4439FA0875E096C521A0C163F55F3F65D1292E69243A5AA1764CD0E33AB4F986DBF66433EC107EDEC44BBBAA504AC744ADBC34453DC5723255BCEBC73F1CE468915334C34CB94B3
310
837769299282BD4826A26AB43D16D14370C94B0828E79BC438290C0680AD128A30EF402950E466C4AF3D785C05C5DD89C477202FCF6FC4ED3E40C6C09A9CC259933B38CB6769BA3351228D0861A241BEC32C6A91A253108EB51251D45D7DED7AB0D34F12C917AE95C96B92CB279A4FCACB463572640D0E390BD123BD628AA7
310
052817CB62B41411213767E3C5C359D2360E7DF16A04EFD1BD5E0DE38861E7196751CF501CD28388A0285FB5DDAA6ABBAA1B5FDB71F3D46DFAA16A874DDBB226DB39DB3967CA258C01EF16229D8D6023E51D6BF2F811BEE2234A7B64EDFCE91720114069BDD0B965FC259F6E58F7FD3FF269CEEF1B7179FC0BF837504B0304
310
14000608080077463240F5CAE1AC58070000931B0000340000006662782F38424544324446422D424443332D343337312D384539382D3844463938464534374537382F6F626A656374732E786D6CED595B6FA33814FE2B887D0E094DDA4E5694519AB6A368D599D16467B40F9590030EF1D618649B5EF6D7EFF1050234B464
310
A7FB360F8160ECE373BE73F521F8F89451E70173417276E1FADEC475308BF384B0F4C22DE576F4C1753E8601CF73D998E63A0C65F8C255C36E18A43C2F0B3B94E02D2AA9EC8CDE5CFEE5881833EC3A3145425CB822DEE10C79A8947982C5BD972089BC74FBE4F99E99D8269B7254EC3A440BC43193C0298C33A0E218A6FCF6
310
E3C41D87C158BD0F0375B5B3A68366CDFA678DB5D46D2E091312B1F8054B1D32D3412C4DFDD9D5F5C9E97C743A9B4D47B3B3137F7479737935F2CFA793E5D972395F5CCF81BD4D9E532B53820BCC12D0DFB31BFAC158BDA945B7081CE23ACE19C3B10612A0D2627509122C60AB067C93F6A3AF246ABCD612369E67EABD65A1
310
313C6D53E99B350C88165D10C46E57495CDD9BF2E59BBF417031C428B9C012B8159283762D3C1CBCC20D27C1D88C86C166AF0B229C0C49CC09A20E251B8E382805A6AA296160165832CA3938907294045A73E675DBB6C033DF769D435C6E4B4A9567B8A176AC08DC0F4BA13923FF60BEE7BE890CF004D29684C90F964BF95C
310
60379C07633D1806EA363DB12F0D90CE96A2546844CCDB8EA04BE5FAAB2B37FCE366F3B456E1E0F0E605CF0BCCA5323AA547CD1718B2BD2B94ECB6FE20CDA905208C01D5AEDC83F20D90FF0CD163CF0AE88D93A7D9D3CCCE951C31B1CD7906BA7126CE68029789E3EBABFADFF8178CEBC56DEDF5E1096EAAA0FAF0F378B665
310
D05859FE1B7086C103187CCEA7F6D53A4614ECF996300048198943731882D0BEDD3CB9E10A0227047A588568E883C8C0EE03FC0DC696CC5E2B957B59AF6380A8DD633A4449009BB64860A3474F9F207B7012EFD5D414B10FDED37731D7C5D5FA8F75C9B728C6B7D6A7AFF0963022216B1E66A885794BA27BFCFC98F304047D
310
89F7BA897766B71280B6C25C019F5620A887FDCEAD0D625897E62ADC046FEC0042A85CDDA07F4B448C29450CE765B56F1DDD94A1D61E6F6B06373C31104F4F3A26CCF10351550538CD7E468B51C8FB31278502D10D3F19C9EAA0E9F548F77DF5192CB29EDF336BC520F43244FFD441EB000E2DCBAE90B640D4026FF6E13CCE
310
69CEA3CD7364229D0BB504B0D1F6961F2DA210EB8D921415F020ED775548498DB45142B6DB52405C3DC0E28FD5B2690E136FEA9F3ACD6BC71967106DC17711B77ED7D92322194A71B44549DF76CDDD6ADA4293EC21CDF196825CE481C8E708C96892E0F418688E223E7F57EA29CD85200C0BC85707C16FA231F12090186D56
310
2C2BAD76802622CAB044F4180414991E7075DAD1356E0CA5C3DB3CD6D6FB9AC69A44FF278BE0086AC99C45044A51C8216F32EE7BA71043DAE81A943BF882B555B4B518B48412227E8E1E314977F218D40DF91EDC6338929432CA0B1483590F20FBC25794523BBC6F507CAFF2471497F4BD0C4460BA8D08A56516C18F303879
310
0C71ED3A30BD8A4283B8897D126750942159F2219B9C9D4E5EEC636A866E086C6CB42514C27694A1A207F55640D4F58853836FA9F7287553664584B2BC64830CC59B76BDC992EFAA55911DC8AF2A15A16CAC085B82614098ACB36A15B3C1D475600537D281EA3912282BA83985BD9178FCDA9B34E5DE0DB8F5D3F7DD2083C2
310
AF477BCD883AAB60B03CB60A03F18864BC73C3B5BE8F2EA1FE4E70B24FF555ADD9AC00013115C94B4EAC8ABEAFA0BCB1359A1BDE2229EE3E99AC5BDDBFAF3CE87E04635803B54BBD70A580CE3093485526B7EA0FFD862004B76898F195CAA9C750592489AE1A11BD217DEA6C9511AD4D33E2153BCCF20C7EEC8EB0989609BE
310
4389B88F6E258DD644B16EA5F4325261FCAA805F3EAD3BF0C0C80091BEAA020F3F76D6DAD1A52A970E1291BB32DB30442008B6444B8D6EBC82A556239596EBBB3A5340DD050666553CFB75B268B6237E9D2C526B183F77B2A0F906D17DB46964F35899F551A7803A3D292AEF710AD05D879A6A9D444C2EB7E25B5F8A202656
310
417E703156C50C43B08FE3FF9CB4FB92A0D9AEC3FF7149DB7F51701C95545A935593EA40E1BA6AA6B093F3C5F9CD7C713E9A5FC3657676331D5D9E2EAE4797FEE5CD62369F9CDF4CF65584F6D330A863994E5DF06C625A35AC9E2C06D094153925091CE61327C510F2251CE90774CF798605E4CE66AF3BB13DF901AB1F4C9B
310
53A20DC515273B04FD612A20AB0346652CDBE3CE6FD0999470CEBE70A167E4DDC3C55AA5EB40E2B970A15320498C85B7812E93EAE769E2907175EAB7C4001FC4529511CDA2FAB95EA5B06945FF7ACA902C60E56AB530A06E2BA0F9D56A5068DE2C4FF1518257EC3848C2DF4D29A15833B2EC076A61F4367BF51BD92861F776
310
EB2770DDD7C5F23D3DA785C8A02F06AF1A81A13A9288A7BADDAD18B32C2DAEBE8EA1CDE6ACBE38052D53D0E5704A238EC1984B554F81158155589A059260AACBDFEFBEF21CBEF0648E2E8AEE967996E5CC3E2CE03896C0172267BD83EF3DC91D540D5875D5C5DDC9C43FB9D3DD6CDB608F3648604F9543305055114A848EB1
310
8145BEE84CD9BEE55829A1337D75E5D8F0095D0063412F9ABBE6EB9603DEA3BEA3285FD11E5EC9F96A437BACA7823570684587FF02504B030414000608000077463240000000000000000000000000350000006662782F38424544324446422D424443332D343337312D384539382D3844463938464534374537382F766572
310
74696365732E62696E504B030414000608080077463240F270F1330600000004000000360000006662782F38424544324446422D424443332D343337312D384539382D3844463938464534374537382F747269616E676C65732E62696E636660600000504B0304140006080000774632400000000000000000000000003700
310
00006662782F38424544324446422D424443332D343337312D384539382D3844463938464534374537382F617474726962757465732E62696E504B030414000608080077463240D5987DFC8F00000041010000360000006662782F38424544324446422D424443332D343337312D384539382D384446393846453437453738
310
2F6469726563746F72792E786D6C858F410EC2201045AF4266AF15DDB800BA74E7C21B903225242D6328188F2FA5C4183471359997F9FF81E89FF3C41E1816475E02DF1F80A11FC8386F25A438EECEC07A250251FC3803E6F58C12560C4AD840E95E91C151A72936F496F35732D860FE635F62C8F2DA16B505C545B74125BA
310
A2FA9E05D7CC053D063734D5C7665FD55B6B8D15D5E9BFEAFD8490FFA45E504B03041400060808007746324042C20E56FD000000A00100003B0000006662782F38424544324446422D424443332D343337312D384539382D3844463938464534374537382F7265736F75726365732F636F72652E786D6C8D504B6E833010BD
310
0A9ABDC1864028328E92343D412F609909B5126CE44FD5E3D74EA8D4EEBA9919BD8FE6E9F1C3D7722F3ED1796DCD08ACA450A05176D2661E21862BE9A13808EEAC0DBF645018B9E0081906C16767E3BA41CA9A802624D4D80937507A8F010A754FC7085E7DE0224B194352F85BB94A75933396AC4C74D209EE834B018AE793
310
3C4138F4363A859E574F56F018F5B469F4947EEAAB4607A2EF68773AED2FA439BF30B23BB72D39D6AF94EC8F4DFF76EC2EEDA9B9F02A9B050F7AF9C9A81CCA8013889AB29A504658FF4EFBA165C3AE23B41B28E55596FF31C575FAA7296A139A7A8BFBB479102C0579108257B9AFB41E65A69DBB15DF504B010214000A0000
310
080000774632403DEE336E79000000790000001B00000000000000000000000000000000006175746F6465736B2D64657369676E2D7061636B6167652E786D6C504B0102140014000608080077463240D486FD9CA0000000F40000001300000000000000000000000000B20000005B436F6E74656E745F54797065735D2E78
310
6D6C504B01021400140006080800774632402A285367EB0000007C010000080000000000000000000000000083010000636F72652E786D6C504B010214001400060808007746324055019EA25F0000007C000000070000000000000000000000000094020000636E782E786D6C504B010214001400060808007746324037E5
310
858E67010000020300000C00000000000000000000000000180300006662782F636F72652E786D6C504B0102140014000608080077463240F674D1407D0000009D0000000B00000000000000000000000000A90400006662782F636E782E786D6C504B0102140014000608080077463240996ADDCA2B010000140200003100
310
0000000000000000000000004F0500006662782F38424544324446422D424443332D343337312D384539382D3844463938464534374537382F636F72652E786D6C504B0102140014000608080077463240B1E62A6854010000330300003000000000000000000000000000C90600006662782F38424544324446422D424443
310
332D343337312D384539382D3844463938464534374537382F636E782E786D6C504B0102140014000608080077463240F5CAE1AC58070000931B000034000000000000000000000000006B0800006662782F38424544324446422D424443332D343337312D384539382D3844463938464534374537382F6F626A656374732E
310
786D6C504B01021400140006080000774632400000000000000000000000003500000000000000000000000000151000006662782F38424544324446422D424443332D343337312D384539382D3844463938464534374537382F76657274696365732E62696E504B0102140014000608080077463240F270F1330600000004
310
0000003600000000000000000000000000681000006662782F38424544324446422D424443332D343337312D384539382D3844463938464534374537382F747269616E676C65732E62696E504B01021400140006080000774632400000000000000000000000003700000000000000000000000000C21000006662782F3842
310
4544324446422D424443332D343337312D384539382D3844463938464534374537382F617474726962757465732E62696E504B0102140014000608080077463240D5987DFC8F000000410100003600000000000000000000000000171100006662782F38424544324446422D424443332D343337312D384539382D38444639
310
38464534374537382F6469726563746F72792E786D6C504B010214001400060808007746324042C20E56FD000000A00100003B00000000000000000000000000FA1100006662782F38424544324446422D424443332D343337312D384539382D3844463938464534374537382F7265736F75726365732F636F72652E786D6C
310
504B0506000000000E000E0080040000501300000000
  0
XRECORD
  5
27
102
{ACAD_REACTORS
330
22
102
}
330
22
100
AcDbXrecord
280
     1
270
     1
271
     1
  0
XRECORD
  5
26
102
{ACAD_REACTORS
330
22
102
}
330
22
100
AcDbXrecord
280
     1
270
     1
271
     1
  0
XRECORD
  5
28
102
{ACAD_REACTORS
330
22
102
}
330
22
100
AcDbXrecord
280
     1
270
     1
271
     1
  0
XRECORD
  5
25
102
{ACAD_REACTORS
330
22
102
}
330
22
100
AcDbXrecord
280
     1
270
     1
271
     1
  0
XRECORD
  5
FBA
102
{ACAD_REACTORS
330
FB9
102
}
330
FB9
100
AcDbXrecord
280
     1
102
ACAD_ROUNDTRIP_2012_MLEADER_STYLE
298
     1
  0
CELLSTYLEMAP
  5
FB8
102
{ACAD_REACTORS
330
FB7
102
}
330
FB7
100
AcDbCellStyleMap
 90
        3
300
CELLSTYLE
  1
TABLEFORMAT_BEGIN
 90
        5
170
     1
 91
        0
 92
    32768
 62
   257
 93
        1
300
CONTENTFORMAT
  1
CONTENTFORMAT_BEGIN
 90
        0
 91
        0
 92
      512
 93
        0
300

 40
0.0
140
1.0
 94
        5
 62
     0
340
55
144
0.25
309
CONTENTFORMAT_END
171
     0
 94
        0
309
TABLEFORMAT_END
  1
CELLSTYLE_BEGIN
 90
        1
 91
        1
300
_TITLE
309
CELLSTYLE_END
300
CELLSTYLE
  1
TABLEFORMAT_BEGIN
 90
        5
170
     1
 91
        0
 92
        0
 62
   257
 93
        1
300
CONTENTFORMAT
  1
CONTENTFORMAT_BEGIN
 90
        0
 91
        0
 92
      512
 93
        0
300

 40
0.0
140
1.0
 94
        5
 62
     0
340
55
144
0.18
309
CONTENTFORMAT_END
171
     0
 94
        0
309
TABLEFORMAT_END
  1
CELLSTYLE_BEGIN
 90
        2
 91
        1
300
_HEADER
309
CELLSTYLE_END
300
CELLSTYLE
  1
TABLEFORMAT_BEGIN
 90
        5
170
     1
 91
        0
 92
        0
 62
   257
 93
        1
300
CONTENTFORMAT
  1
CONTENTFORMAT_BEGIN
 90
        0
 91
        0
 92
      512
 93
        0
300

 40
0.0
140
1.0
 94
        2
 62
     0
340
55
144
0.18
309
CONTENTFORMAT_END
171
     0
 94
        0
309
TABLEFORMAT_END
  1
CELLSTYLE_BEGIN
 90
        3
 91
        2
300
_DATA
309
CELLSTYLE_END
  0
XRECORD
  5
FF2
102
{ACAD_REACTORS
330
FB7
102
}
330
FB7
100
AcDbXrecord
280
     1
102
ACAD_ROUNDTRIP_PRE2007_TABLESTYLE
 90
      512
 91
        0
  1

 92
      512
 93
        0
  2

 94
      512
 95
        0
  3

  0
XRECORD
  5
FCD
102
{ACAD_REACTORS
330
FCC
102
}
330
FCC
100
AcDbXrecord
280
     1
102
RTVSPropertyOp0
 70
     1
102
RTVSPropertyOp1
 70
     1
102
RTVSPropertyOp2
 70
     1
102
RTVSPropertyOp3
 70
     1
102
RTVSPropertyOp4
 70
     1
102
RTVSPropertyOp5
 70
     1
102
RTVSPropertyOp6
 70
     1
102
RTVSPropertyOp7
 70
     1
102
RTVSPropertyOp8
 70
     1
102
RTVSPropertyOp9
 70
     1
102
RTVSPropertyOp10
 70
     1
102
RTVSPropertyOp11
 70
     1
102
RTVSPropertyOp12
 70
     1
102
RTVSPropertyOp13
 70
     1
102
RTVSPropertyOp14
 70
     1
102
RTVSPropertyOp15
 70
     1
102
RTVSPropertyOp16
 70
     1
102
RTVSPropertyOp17
 70
     1
102
RTVSPropertyOp18
 70
     1
102
RTVSPropertyOp19
 70
     1
102
RTVSPropertyOp20
 70
     1
102
RTVSPropertyOp21
 70
     1
102
RTVSPropertyOp22
 70
     1
102
RTVSPropertyOp23
 70
     1
102
RTVSPropertyOp24
 70
     1
102
RTVSPropertyOp25
 70
     1
102
RTVSPropertyOp26
 70
     1
102
RTVSPropertyOp27
 70
     1
102
RTVSPropertyOp28
 70
     1
102
RTVSPropertyOp29
 70
     1
102
RTVSPropertyOp30
 70
     1
102
RTVSPropertyOp31
 70
     1
102
RTVSPropertyOp32
 70
     1
  0
XRECORD
  5
FCB
102
{ACAD_REACTORS
330
FCA
102
}
330
FCA
100
AcDbXrecord
280
     1
102
RTVSPropertyOp0
 70
     1
102
RTVSPropertyOp1
 70
     1
102
RTVSPropertyOp2
 70
     1
102
RTVSPropertyOp3
 70
     1
102
RTVSPropertyOp4
 70
     1
102
RTVSPropertyOp5
 70
     1
102
RTVSPropertyOp6
 70
     1
102
RTVSPropertyOp7
 70
     1
102
RTVSPropertyOp8
 70
     1
102
RTVSPropertyOp9
 70
     1
102
RTVSPropertyOp10
 70
     1
102
RTVSPropertyOp11
 70
     1
102
RTVSPropertyOp12
 70
     1
102
RTVSPropertyOp13
 70
     1
102
RTVSPropertyOp14
 70
     1
102
RTVSPropertyOp15
 70
     1
102
RTVSPropertyOp16
 70
     1
102
RTVSPropertyOp17
 70
     1
102
RTVSPropertyOp18
 70
     1
102
RTVSPropertyOp19
 70
     1
102
RTVSPropertyOp20
 70
     1
102
RTVSPropertyOp21
 70
     1
102
RTVSPropertyOp22
 70
     1
102
RTVSPropertyOp23
 70
     1
102
RTVSPropertyOp24
 70
     1
102
RTVSPropertyOp25
 70
     1
102
RTVSPropertyOp26
 70
     1
102
RTVSPropertyOp27
 70
     1
102
RTVSPropertyOp28
 70
     1
102
RTVSPropertyOp29
 70
     1
102
RTVSPropertyOp30
 70
     1
102
RTVSPropertyOp31
 70
     1
102
RTVSPropertyOp32
 70
     1
  0
XRECORD
  5
FD9
102
{ACAD_REACTORS
330
FD8
102
}
330
FD8
100
AcDbXrecord
280
     1
102
RTVSPropertyOp0
 70
     1
102
RTVSPropertyOp1
 70
     1
102
RTVSPropertyOp2
 70
     1
102
RTVSPropertyOp3
 70
     1
102
RTVSPropertyOp4
 70
     1
102
RTVSPropertyOp5
 70
     1
102
RTVSPropertyOp6
 70
     1
102
RTVSPropertyOp7
 70
     1
102
RTVSPropertyOp8
 70
     1
102
RTVSPropertyOp9
 70
     1
102
RTVSPropertyOp10
 70
     1
102
RTVSPropertyOp11
 70
     1
102
RTVSPropertyOp12
 70
     1
102
RTVSPropertyOp13
 70
     1
102
RTVSPropertyOp14
 70
     1
102
RTVSPropertyOp15
 70
     1
102
RTVSPropertyOp16
 70
     1
102
RTVSPropertyOp17
 70
     1
102
RTVSPropertyOp18
 70
     1
102
RTVSPropertyOp19
 70
     1
102
RTVSPropertyOp20
 70
     1
102
RTVSPropertyOp21
 70
     1
102
RTVSPropertyOp22
 70
     1
102
RTVSPropertyOp23
 70
     1
102
RTVSPropertyOp24
 70
     1
102
RTVSPropertyOp25
 70
     1
102
RTVSPropertyOp26
 70
     1
102
RTVSPropertyOp27
 70
     1
102
RTVSPropertyOp28
 70
     1
102
RTVSPropertyOp29
 70
     1
102
RTVSPropertyOp30
 70
     1
102
RTVSPropertyOp31
 70
     1
102
RTVSPropertyOp32
 70
     1
  0
XRECORD
  5
FE1
102
{ACAD_REACTORS
330
FE0
102
}
330
FE0
100
AcDbXrecord
280
     1
102
RTVSPropertyOp0
 70
     1
102
RTVSPropertyOp1
 70
     1
102
RTVSPropertyOp2
 70
     1
102
RTVSPropertyOp3
 70
     1
102
RTVSPropertyOp4
 70
     1
102
RTVSPropertyOp5
 70
     1
102
RTVSPropertyOp6
 70
     1
102
RTVSPropertyOp7
 70
     1
102
RTVSPropertyOp8
 70
     1
102
RTVSPropertyOp9
 70
     1
102
RTVSPropertyOp10
 70
     1
102
RTVSPropertyOp11
 70
     1
102
RTVSPropertyOp12
 70
     1
102
RTVSPropertyOp13
 70
     1
102
RTVSPropertyOp14
 70
     1
102
RTVSPropertyOp15
 70
     1
102
RTVSPropertyOp16
 70
     1
102
RTVSPropertyOp17
 70
     1
102
RTVSPropertyOp18
 70
     1
102
RTVSPropertyOp19
 70
     1
102
RTVSPropertyOp20
 70
     1
102
RTVSPropertyOp21
 70
     1
102
RTVSPropertyOp22
 70
     1
102
RTVSPropertyOp23
 70
     1
102
RTVSPropertyOp24
 70
     1
102
RTVSPropertyOp25
 70
     1
102
RTVSPropertyOp26
 70
     1
102
RTVSPropertyOp27
 70
     1
102
RTVSPropertyOp28
 70
     1
102
RTVSPropertyOp29
 70
     1
102
RTVSPropertyOp30
 70
     1
102
RTVSPropertyOp31
 70
     1
102
RTVSPropertyOp32
 70
     1
  0
XRECORD
  5
FD3
102
{ACAD_REACTORS
330
FD2
102
}
330
FD2
100
AcDbXrecord
280
     1
102
RTVSPropertyOp0
 70
     1
102
RTVSPropertyOp1
 70
     1
102
RTVSPropertyOp2
 70
     1
102
RTVSPropertyOp3
 70
     1
102
RTVSPropertyOp4
 70
     1
102
RTVSPropertyOp5
 70
     1
102
RTVSPropertyOp6
 70
     1
102
RTVSPropertyOp7
 70
     1
102
RTVSPropertyOp8
 70
     1
102
RTVSPropertyOp9
 70
     1
102
RTVSPropertyOp10
 70
     1
102
RTVSPropertyOp11
 70
     1
102
RTVSPropertyOp12
 70
     1
102
RTVSPropertyOp13
 70
     1
102
RTVSPropertyOp14
 70
     1
102
RTVSPropertyOp15
 70
     1
102
RTVSPropertyOp16
 70
     1
102
RTVSPropertyOp17
 70
     1
102
RTVSPropertyOp18
 70
     1
102
RTVSPropertyOp19
 70
     1
102
RTVSPropertyOp20
 70
     1
102
RTVSPropertyOp21
 70
     1
102
RTVSPropertyOp22
 70
     1
102
RTVSPropertyOp23
 70
     1
102
RTVSPropertyOp24
 70
     1
102
RTVSPropertyOp25
 70
     1
102
RTVSPropertyOp26
 70
     1
102
RTVSPropertyOp27
 70
     1
102
RTVSPropertyOp28
 70
     1
102
RTVSPropertyOp29
 70
     1
102
RTVSPropertyOp30
 70
     1
102
RTVSPropertyOp31
 70
     1
102
RTVSPropertyOp32
 70
     1
  0
XRECORD
  5
FD7
102
{ACAD_REACTORS
330
FD6
102
}
330
FD6
100
AcDbXrecord
280
     1
102
RTVSPropertyOp0
 70
     1
102
RTVSPropertyOp1
 70
     1
102
RTVSPropertyOp2
 70
     1
102
RTVSPropertyOp3
 70
     1
102
RTVSPropertyOp4
 70
     1
102
RTVSPropertyOp5
 70
     1
102
RTVSPropertyOp6
 70
     1
102
RTVSPropertyOp7
 70
     1
102
RTVSPropertyOp8
 70
     1
102
RTVSPropertyOp9
 70
     1
102
RTVSPropertyOp10
 70
     1
102
RTVSPropertyOp11
 70
     1
102
RTVSPropertyOp12
 70
     1
102
RTVSPropertyOp13
 70
     1
102
RTVSPropertyOp14
 70
     1
102
RTVSPropertyOp15
 70
     1
102
RTVSPropertyOp16
 70
     1
102
RTVSPropertyOp17
 70
     1
102
RTVSPropertyOp18
 70
     1
102
RTVSPropertyOp19
 70
     1
102
RTVSPropertyOp20
 70
     1
102
RTVSPropertyOp21
 70
     1
102
RTVSPropertyOp22
 70
     1
102
RTVSPropertyOp23
 70
     1
102
RTVSPropertyOp24
 70
     1
102
RTVSPropertyOp25
 70
     1
102
RTVSPropertyOp26
 70
     1
102
RTVSPropertyOp27
 70
     1
102
RTVSPropertyOp28
 70
     1
102
RTVSPropertyOp29
 70
     1
102
RTVSPropertyOp30
 70
     1
102
RTVSPropertyOp31
 70
     1
102
RTVSPropertyOp32
 70
     1
  0
XRECORD
  5
FF1
102
{ACAD_REACTORS
330
FF0
102
}
330
FF0
100
AcDbXrecord
280
     1
102
RTVSPropertyOp0
 70
     0
102
RTVSPropertyOp1
 70
     0
102
RTVSPropertyOp2
 70
     0
102
RTVSPropertyOp3
 70
     0
102
RTVSPropertyOp4
 70
     0
102
RTVSPropertyOp5
 70
     0
102
RTVSPropertyOp6
 70
     0
102
RTVSPropertyOp7
 70
     0
102
RTVSPropertyOp8
 70
     0
102
RTVSPropertyOp9
 70
     0
102
RTVSPropertyOp10
 70
     0
102
RTVSPropertyOp11
 70
     0
102
RTVSPropertyOp12
 70
     0
102
RTVSPropertyOp13
 70
     0
102
RTVSPropertyOp14
 70
     2
102
RTVSPropertyOp15
 70
     0
102
RTVSPropertyOp16
 70
     0
102
RTVSPropertyOp17
 70
     0
102
RTVSPropertyOp18
 70
     0
102
RTVSPropertyOp19
 70
     0
102
RTVSPropertyOp20
 70
     0
102
RTVSPropertyOp21
 70
     0
102
RTVSPropertyOp22
 70
     0
102
RTVSPropertyOp23
 70
     0
102
RTVSPropertyOp24
 70
     0
102
RTVSPropertyOp25
 70
     0
102
RTVSPropertyOp26
 70
     0
102
RTVSPropertyOp27
 70
     0
102
RTVSPropertyOp28
 70
     1
102
RTVSPropertyOp29
 70
     1
102
RTVSPropertyOp30
 70
     1
102
RTVSPropertyOp31
 70
     1
102
RTVSPropertyOp32
 70
     1
  0
XRECORD
  5
FDF
102
{ACAD_REACTORS
330
FDE
102
}
330
FDE
100
AcDbXrecord
280
     1
102
RTVSPropertyOp0
 70
     1
102
RTVSPropertyOp1
 70
     1
102
RTVSPropertyOp2
 70
     1
102
RTVSPropertyOp3
 70
     1
102
RTVSPropertyOp4
 70
     1
102
RTVSPropertyOp5
 70
     1
102
RTVSPropertyOp6
 70
     1
102
RTVSPropertyOp7
 70
     1
102
RTVSPropertyOp8
 70
     1
102
RTVSPropertyOp9
 70
     1
102
RTVSPropertyOp10
 70
     1
102
RTVSPropertyOp11
 70
     1
102
RTVSPropertyOp12
 70
     1
102
RTVSPropertyOp13
 70
     1
102
RTVSPropertyOp14
 70
     1
102
RTVSPropertyOp15
 70
     1
102
RTVSPropertyOp16
 70
     1
102
RTVSPropertyOp17
 70
     1
102
RTVSPropertyOp18
 70
     1
102
RTVSPropertyOp19
 70
     1
102
RTVSPropertyOp20
 70
     1
102
RTVSPropertyOp21
 70
     1
102
RTVSPropertyOp22
 70
     1
102
RTVSPropertyOp23
 70
     1
102
RTVSPropertyOp24
 70
     1
102
RTVSPropertyOp25
 70
     1
102
RTVSPropertyOp26
 70
     1
102
RTVSPropertyOp27
 70
     1
102
RTVSPropertyOp28
 70
     1
102
RTVSPropertyOp29
 70
     1
102
RTVSPropertyOp30
 70
     1
102
RTVSPropertyOp31
 70
     1
102
RTVSPropertyOp32
 70
     1
  0
XRECORD
  5
FC3
102
{ACAD_REACTORS
330
FC2
102
}
330
FC2
100
AcDbXrecord
280
     1
102
RTVSPropertyOp0
 70
     1
102
RTVSPropertyOp1
 70
     1
102
RTVSPropertyOp2
 70
     1
102
RTVSPropertyOp3
 70
     1
102
RTVSPropertyOp4
 70
     1
102
RTVSPropertyOp5
 70
     1
102
RTVSPropertyOp6
 70
     1
102
RTVSPropertyOp7
 70
     1
102
RTVSPropertyOp8
 70
     1
102
RTVSPropertyOp9
 70
     1
102
RTVSPropertyOp10
 70
     1
102
RTVSPropertyOp11
 70
     1
102
RTVSPropertyOp12
 70
     1
102
RTVSPropertyOp13
 70
     1
102
RTVSPropertyOp14
 70
     1
102
RTVSPropertyOp15
 70
     1
102
RTVSPropertyOp16
 70
     1
102
RTVSPropertyOp17
 70
     1
102
RTVSPropertyOp18
 70
     1
102
RTVSPropertyOp19
 70
     1
102
RTVSPropertyOp20
 70
     1
102
RTVSPropertyOp21
 70
     1
102
RTVSPropertyOp22
 70
     1
102
RTVSPropertyOp23
 70
     1
102
RTVSPropertyOp24
 70
     1
102
RTVSPropertyOp25
 70
     1
102
RTVSPropertyOp26
 70
     1
102
RTVSPropertyOp27
 70
     1
102
RTVSPropertyOp28
 70
     1
102
RTVSPropertyOp29
 70
     1
102
RTVSPropertyOp30
 70
     1
102
RTVSPropertyOp31
 70
     1
102
RTVSPropertyOp32
 70
     1
  0
XRECORD
  5
FC5
102
{ACAD_REACTORS
330
FC4
102
}
330
FC4
100
AcDbXrecord
280
     1
102
RTVSPropertyOp0
 70
     1
102
RTVSPropertyOp1
 70
     1
102
RTVSPropertyOp2
 70
     1
102
RTVSPropertyOp3
 70
     1
102
RTVSPropertyOp4
 70
     1
102
RTVSPropertyOp5
 70
     1
102
RTVSPropertyOp6
 70
     1
102
RTVSPropertyOp7
 70
     1
102
RTVSPropertyOp8
 70
     1
102
RTVSPropertyOp9
 70
     1
102
RTVSPropertyOp10
 70
     1
102
RTVSPropertyOp11
 70
     1
102
RTVSPropertyOp12
 70
     1
102
RTVSPropertyOp13
 70
     1
102
RTVSPropertyOp14
 70
     1
102
RTVSPropertyOp15
 70
     1
102
RTVSPropertyOp16
 70
     1
102
RTVSPropertyOp17
 70
     1
102
RTVSPropertyOp18
 70
     1
102
RTVSPropertyOp19
 70
     1
102
RTVSPropertyOp20
 70
     1
102
RTVSPropertyOp21
 70
     1
102
RTVSPropertyOp22
 70
     1
102
RTVSPropertyOp23
 70
     1
102
RTVSPropertyOp24
 70
     1
102
RTVSPropertyOp25
 70
     1
102
RTVSPropertyOp26
 70
     1
102
RTVSPropertyOp27
 70
     1
102
RTVSPropertyOp28
 70
     1
102
RTVSPropertyOp29
 70
     1
102
RTVSPropertyOp30
 70
     1
102
RTVSPropertyOp31
 70
     1
102
RTVSPropertyOp32
 70
     1
  0
XRECORD
  5
FC7
102
{ACAD_REACTORS
330
FC6
102
}
330
FC6
100
AcDbXrecord
280
     1
102
RTVSPropertyOp0
 70
     1
102
RTVSPropertyOp1
 70
     1
102
RTVSPropertyOp2
 70
     1
102
RTVSPropertyOp3
 70
     1
102
RTVSPropertyOp4
 70
     1
102
RTVSPropertyOp5
 70
     1
102
RTVSPropertyOp6
 70
     1
102
RTVSPropertyOp7
 70
     1
102
RTVSPropertyOp8
 70
     1
102
RTVSPropertyOp9
 70
     1
102
RTVSPropertyOp10
 70
     1
102
RTVSPropertyOp11
 70
     1
102
RTVSPropertyOp12
 70
     1
102
RTVSPropertyOp13
 70
     1
102
RTVSPropertyOp14
 70
     1
102
RTVSPropertyOp15
 70
     1
102
RTVSPropertyOp16
 70
     1
102
RTVSPropertyOp17
 70
     1
102
RTVSPropertyOp18
 70
     1
102
RTVSPropertyOp19
 70
     1
102
RTVSPropertyOp20
 70
     1
102
RTVSPropertyOp21
 70
     1
102
RTVSPropertyOp22
 70
     1
102
RTVSPropertyOp23
 70
     1
102
RTVSPropertyOp24
 70
     1
102
RTVSPropertyOp25
 70
     1
102
RTVSPropertyOp26
 70
     1
102
RTVSPropertyOp27
 70
     1
102
RTVSPropertyOp28
 70
     1
102
RTVSPropertyOp29
 70
     1
102
RTVSPropertyOp30
 70
     1
102
RTVSPropertyOp31
 70
     1
102
RTVSPropertyOp32
 70
     1
  0
XRECORD
  5
FC9
102
{ACAD_REACTORS
330
FC8
102
}
330
FC8
100
AcDbXrecord
280
     1
102
RTVSPropertyOp0
 70
     1
102
RTVSPropertyOp1
 70
     1
102
RTVSPropertyOp2
 70
     1
102
RTVSPropertyOp3
 70
     1
102
RTVSPropertyOp4
 70
     1
102
RTVSPropertyOp5
 70
     1
102
RTVSPropertyOp6
 70
     1
102
RTVSPropertyOp7
 70
     1
102
RTVSPropertyOp8
 70
     1
102
RTVSPropertyOp9
 70
     1
102
RTVSPropertyOp10
 70
     1
102
RTVSPropertyOp11
 70
     1
102
RTVSPropertyOp12
 70
     1
102
RTVSPropertyOp13
 70
     1
102
RTVSPropertyOp14
 70
     1
102
RTVSPropertyOp15
 70
     1
102
RTVSPropertyOp16
 70
     1
102
RTVSPropertyOp17
 70
     1
102
RTVSPropertyOp18
 70
     1
102
RTVSPropertyOp19
 70
     1
102
RTVSPropertyOp20
 70
     1
102
RTVSPropertyOp21
 70
     1
102
RTVSPropertyOp22
 70
     1
102
RTVSPropertyOp23
 70
     1
102
RTVSPropertyOp24
 70
     1
102
RTVSPropertyOp25
 70
     1
102
RTVSPropertyOp26
 70
     1
102
RTVSPropertyOp27
 70
     1
102
RTVSPropertyOp28
 70
     1
102
RTVSPropertyOp29
 70
     1
102
RTVSPropertyOp30
 70
     1
102
RTVSPropertyOp31
 70
     1
102
RTVSPropertyOp32
 70
     1
  0
XRECORD
  5
FD1
102
{ACAD_REACTORS
330
FD0
102
}
330
FD0
100
AcDbXrecord
280
     1
102
RTVSPropertyOp0
 70
     1
102
RTVSPropertyOp1
 70
     1
102
RTVSPropertyOp2
 70
     1
102
RTVSPropertyOp3
 70
     1
102
RTVSPropertyOp4
 70
     1
102
RTVSPropertyOp5
 70
     1
102
RTVSPropertyOp6
 70
     1
102
RTVSPropertyOp7
 70
     1
102
RTVSPropertyOp8
 70
     1
102
RTVSPropertyOp9
 70
     1
102
RTVSPropertyOp10
 70
     1
102
RTVSPropertyOp11
 70
     1
102
RTVSPropertyOp12
 70
     1
102
RTVSPropertyOp13
 70
     1
102
RTVSPropertyOp14
 70
     1
102
RTVSPropertyOp15
 70
     1
102
RTVSPropertyOp16
 70
     1
102
RTVSPropertyOp17
 70
     1
102
RTVSPropertyOp18
 70
     1
102
RTVSPropertyOp19
 70
     1
102
RTVSPropertyOp20
 70
     1
102
RTVSPropertyOp21
 70
     1
102
RTVSPropertyOp22
 70
     1
102
RTVSPropertyOp23
 70
     1
102
RTVSPropertyOp24
 70
     1
102
RTVSPropertyOp25
 70
     1
102
RTVSPropertyOp26
 70
     1
102
RTVSPropertyOp27
 70
     1
102
RTVSPropertyOp28
 70
     1
102
RTVSPropertyOp29
 70
     1
102
RTVSPropertyOp30
 70
     1
102
RTVSPropertyOp31
 70
     1
102
RTVSPropertyOp32
 70
     1
  0
XRECORD
  5
FED
102
{ACAD_REACTORS
330
FEC
102
}
330
FEC
100
AcDbXrecord
280
     1
102
RTVSPropertyOp0
 70
     0
102
RTVSPropertyOp1
 70
     0
102
RTVSPropertyOp2
 70
     0
102
RTVSPropertyOp3
 70
     0
102
RTVSPropertyOp4
 70
     0
102
RTVSPropertyOp5
 70
     0
102
RTVSPropertyOp6
 70
     0
102
RTVSPropertyOp7
 70
     0
102
RTVSPropertyOp8
 70
     0
102
RTVSPropertyOp9
 70
     0
102
RTVSPropertyOp10
 70
     0
102
RTVSPropertyOp11
 70
     0
102
RTVSPropertyOp12
 70
     0
102
RTVSPropertyOp13
 70
     0
102
RTVSPropertyOp14
 70
     2
102
RTVSPropertyOp15
 70
     0
102
RTVSPropertyOp16
 70
     0
102
RTVSPropertyOp17
 70
     0
102
RTVSPropertyOp18
 70
     0
102
RTVSPropertyOp19
 70
     0
102
RTVSPropertyOp20
 70
     0
102
RTVSPropertyOp21
 70
     0
102
RTVSPropertyOp22
 70
     0
102
RTVSPropertyOp23
 70
     0
102
RTVSPropertyOp24
 70
     0
102
RTVSPropertyOp25
 70
     0
102
RTVSPropertyOp26
 70
     0
102
RTVSPropertyOp27
 70
     0
102
RTVSPropertyOp28
 70
     1
102
RTVSPropertyOp29
 70
     1
102
RTVSPropertyOp30
 70
     1
102
RTVSPropertyOp31
 70
     1
102
RTVSPropertyOp32
 70
     1
  0
XRECORD
  5
FDD
102
{ACAD_REACTORS
330
FDC
102
}
330
FDC
100
AcDbXrecord
280
     1
102
RTVSPropertyOp0
 70
     1
102
RTVSPropertyOp1
 70
     1
102
RTVSPropertyOp2
 70
     1
102
RTVSPropertyOp3
 70
     1
102
RTVSPropertyOp4
 70
     1
102
RTVSPropertyOp5
 70
     1
102
RTVSPropertyOp6
 70
     1
102
RTVSPropertyOp7
 70
     1
102
RTVSPropertyOp8
 70
     1
102
RTVSPropertyOp9
 70
     1
102
RTVSPropertyOp10
 70
     1
102
RTVSPropertyOp11
 70
     1
102
RTVSPropertyOp12
 70
     1
102
RTVSPropertyOp13
 70
     1
102
RTVSPropertyOp14
 70
     1
102
RTVSPropertyOp15
 70
     1
102
RTVSPropertyOp16
 70
     1
102
RTVSPropertyOp17
 70
     1
102
RTVSPropertyOp18
 70
     1
102
RTVSPropertyOp19
 70
     1
102
RTVSPropertyOp20
 70
     1
102
RTVSPropertyOp21
 70
     1
102
RTVSPropertyOp22
 70
     1
102
RTVSPropertyOp23
 70
     1
102
RTVSPropertyOp24
 70
     1
102
RTVSPropertyOp25
 70
     1
102
RTVSPropertyOp26
 70
     1
102
RTVSPropertyOp27
 70
     1
102
RTVSPropertyOp28
 70
     1
102
RTVSPropertyOp29
 70
     1
102
RTVSPropertyOp30
 70
     1
102
RTVSPropertyOp31
 70
     1
102
RTVSPropertyOp32
 70
     1
  0
XRECORD
  5
FEF
102
{ACAD_REACTORS
330
FEE
102
}
330
FEE
100
AcDbXrecord
280
     1
102
RTVSPropertyOp0
 70
     0
102
RTVSPropertyOp1
 70
     0
102
RTVSPropertyOp2
 70
     0
102
RTVSPropertyOp3
 70
     0
102
RTVSPropertyOp4
 70
     0
102
RTVSPropertyOp5
 70
     0
102
RTVSPropertyOp6
 70
     0
102
RTVSPropertyOp7
 70
     0
102
RTVSPropertyOp8
 70
     0
102
RTVSPropertyOp9
 70
     0
102
RTVSPropertyOp10
 70
     0
102
RTVSPropertyOp11
 70
     0
102
RTVSPropertyOp12
 70
     0
102
RTVSPropertyOp13
 70
     0
102
RTVSPropertyOp14
 70
     2
102
RTVSPropertyOp15
 70
     0
102
RTVSPropertyOp16
 70
     0
102
RTVSPropertyOp17
 70
     0
102
RTVSPropertyOp18
 70
     0
102
RTVSPropertyOp19
 70
     0
102
RTVSPropertyOp20
 70
     0
102
RTVSPropertyOp21
 70
     0
102
RTVSPropertyOp22
 70
     0
102
RTVSPropertyOp23
 70
     0
102
RTVSPropertyOp24
 70
     0
102
RTVSPropertyOp25
 70
     0
102
RTVSPropertyOp26
 70
     0
102
RTVSPropertyOp27
 70
     0
102
RTVSPropertyOp28
 70
     1
102
RTVSPropertyOp29
 70
     1
102
RTVSPropertyOp30
 70
     1
102
RTVSPropertyOp31
 70
     1
102
RTVSPropertyOp32
 70
     1
  0
XRECORD
  5
FD5
102
{ACAD_REACTORS
330
FD4
102
}
330
FD4
100
AcDbXrecord
280
     1
102
RTVSPropertyOp0
 70
     1
102
RTVSPropertyOp1
 70
     1
102
RTVSPropertyOp2
 70
     1
102
RTVSPropertyOp3
 70
     1
102
RTVSPropertyOp4
 70
     1
102
RTVSPropertyOp5
 70
     1
102
RTVSPropertyOp6
 70
     1
102
RTVSPropertyOp7
 70
     1
102
RTVSPropertyOp8
 70
     1
102
RTVSPropertyOp9
 70
     1
102
RTVSPropertyOp10
 70
     1
102
RTVSPropertyOp11
 70
     1
102
RTVSPropertyOp12
 70
     1
102
RTVSPropertyOp13
 70
     1
102
RTVSPropertyOp14
 70
     1
102
RTVSPropertyOp15
 70
     1
102
RTVSPropertyOp16
 70
     1
102
RTVSPropertyOp17
 70
     1
102
RTVSPropertyOp18
 70
     1
102
RTVSPropertyOp19
 70
     1
102
RTVSPropertyOp20
 70
     1
102
RTVSPropertyOp21
 70
     1
102
RTVSPropertyOp22
 70
     1
102
RTVSPropertyOp23
 70
     1
102
RTVSPropertyOp24
 70
     1
102
RTVSPropertyOp25
 70
     1
102
RTVSPropertyOp26
 70
     1
102
RTVSPropertyOp27
 70
     1
102
RTVSPropertyOp28
 70
     1
102
RTVSPropertyOp29
 70
     1
102
RTVSPropertyOp30
 70
     1
102
RTVSPropertyOp31
 70
     1
102
RTVSPropertyOp32
 70
     1
  0
XRECORD
  5
FEB
102
{ACAD_REACTORS
330
FEA
102
}
330
FEA
100
AcDbXrecord
280
     1
102
RTVSPropertyOp0
 70
     1
102
RTVSPropertyOp1
 70
     1
102
RTVSPropertyOp2
 70
     1
102
RTVSPropertyOp3
 70
     1
102
RTVSPropertyOp4
 70
     1
102
RTVSPropertyOp5
 70
     1
102
RTVSPropertyOp6
 70
     1
102
RTVSPropertyOp7
 70
     1
102
RTVSPropertyOp8
 70
     1
102
RTVSPropertyOp9
 70
     1
102
RTVSPropertyOp10
 70
     1
102
RTVSPropertyOp11
 70
     1
102
RTVSPropertyOp12
 70
     1
102
RTVSPropertyOp13
 70
     1
102
RTVSPropertyOp14
 70
     1
102
RTVSPropertyOp15
 70
     1
102
RTVSPropertyOp16
 70
     1
102
RTVSPropertyOp17
 70
     1
102
RTVSPropertyOp18
 70
     1
102
RTVSPropertyOp19
 70
     1
102
RTVSPropertyOp20
 70
     1
102
RTVSPropertyOp21
 70
     1
102
RTVSPropertyOp22
 70
     1
102
RTVSPropertyOp23
 70
     1
102
RTVSPropertyOp24
 70
     1
102
RTVSPropertyOp25
 70
     1
102
RTVSPropertyOp26
 70
     1
102
RTVSPropertyOp27
 70
     1
102
RTVSPropertyOp28
 70
     1
102
RTVSPropertyOp29
 70
     1
102
RTVSPropertyOp30
 70
     1
102
RTVSPropertyOp31
 70
     1
102
RTVSPropertyOp32
 70
     1
  0
XRECORD
  5
FE9
102
{ACAD_REACTORS
330
FE8
102
}
330
FE8
100
AcDbXrecord
280
     1
102
RTVSPropertyOp0
 70
     1
102
RTVSPropertyOp1
 70
     1
102
RTVSPropertyOp2
 70
     1
102
RTVSPropertyOp3
 70
     1
102
RTVSPropertyOp4
 70
     1
102
RTVSPropertyOp5
 70
     1
102
RTVSPropertyOp6
 70
     1
102
RTVSPropertyOp7
 70
     1
102
RTVSPropertyOp8
 70
     1
102
RTVSPropertyOp9
 70
     1
102
RTVSPropertyOp10
 70
     1
102
RTVSPropertyOp11
 70
     1
102
RTVSPropertyOp12
 70
     1
102
RTVSPropertyOp13
 70
     1
102
RTVSPropertyOp14
 70
     1
102
RTVSPropertyOp15
 70
     1
102
RTVSPropertyOp16
 70
     1
102
RTVSPropertyOp17
 70
     1
102
RTVSPropertyOp18
 70
     1
102
RTVSPropertyOp19
 70
     1
102
RTVSPropertyOp20
 70
     1
102
RTVSPropertyOp21
 70
     1
102
RTVSPropertyOp22
 70
     1
102
RTVSPropertyOp23
 70
     1
102
RTVSPropertyOp24
 70
     1
102
RTVSPropertyOp25
 70
     1
102
RTVSPropertyOp26
 70
     1
102
RTVSPropertyOp27
 70
     1
102
RTVSPropertyOp28
 70
     1
102
RTVSPropertyOp29
 70
     1
102
RTVSPropertyOp30
 70
     1
102
RTVSPropertyOp31
 70
     1
102
RTVSPropertyOp32
 70
     1
  0
XRECORD
  5
FE3
102
{ACAD_REACTORS
330
FE2
102
}
330
FE2
100
AcDbXrecord
280
     1
102
RTVSPropertyOp0
 70
     1
102
RTVSPropertyOp1
 70
     1
102
RTVSPropertyOp2
 70
     1
102
RTVSPropertyOp3
 70
     1
102
RTVSPropertyOp4
 70
     1
102
RTVSPropertyOp5
 70
     1
102
RTVSPropertyOp6
 70
     1
102
RTVSPropertyOp7
 70
     1
102
RTVSPropertyOp8
 70
     1
102
RTVSPropertyOp9
 70
     1
102
RTVSPropertyOp10
 70
     1
102
RTVSPropertyOp11
 70
     1
102
RTVSPropertyOp12
 70
     1
102
RTVSPropertyOp13
 70
     1
102
RTVSPropertyOp14
 70
     1
102
RTVSPropertyOp15
 70
     1
102
RTVSPropertyOp16
 70
     1
102
RTVSPropertyOp17
 70
     1
102
RTVSPropertyOp18
 70
     1
102
RTVSPropertyOp19
 70
     1
102
RTVSPropertyOp20
 70
     1
102
RTVSPropertyOp21
 70
     1
102
RTVSPropertyOp22
 70
     1
102
RTVSPropertyOp23
 70
     1
102
RTVSPropertyOp24
 70
     1
102
RTVSPropertyOp25
 70
     1
102
RTVSPropertyOp26
 70
     1
102
RTVSPropertyOp27
 70
     1
102
RTVSPropertyOp28
 70
     1
102
RTVSPropertyOp29
 70
     1
102
RTVSPropertyOp30
 70
     1
102
RTVSPropertyOp31
 70
     1
102
RTVSPropertyOp32
 70
     1
  0
XRECORD
  5
FE5
102
{ACAD_REACTORS
330
FE4
102
}
330
FE4
100
AcDbXrecord
280
     1
102
RTVSPropertyOp0
 70
     1
102
RTVSPropertyOp1
 70
     1
102
RTVSPropertyOp2
 70
     1
102
RTVSPropertyOp3
 70
     1
102
RTVSPropertyOp4
 70
     1
102
RTVSPropertyOp5
 70
     1
102
RTVSPropertyOp6
 70
     1
102
RTVSPropertyOp7
 70
     1
102
RTVSPropertyOp8
 70
     1
102
RTVSPropertyOp9
 70
     1
102
RTVSPropertyOp10
 70
     1
102
RTVSPropertyOp11
 70
     1
102
RTVSPropertyOp12
 70
     1
102
RTVSPropertyOp13
 70
     1
102
RTVSPropertyOp14
 70
     1
102
RTVSPropertyOp15
 70
     1
102
RTVSPropertyOp16
 70
     1
102
RTVSPropertyOp17
 70
     1
102
RTVSPropertyOp18
 70
     1
102
RTVSPropertyOp19
 70
     1
102
RTVSPropertyOp20
 70
     1
102
RTVSPropertyOp21
 70
     1
102
RTVSPropertyOp22
 70
     1
102
RTVSPropertyOp23
 70
     1
102
RTVSPropertyOp24
 70
     1
102
RTVSPropertyOp25
 70
     1
102
RTVSPropertyOp26
 70
     1
102
RTVSPropertyOp27
 70
     1
102
RTVSPropertyOp28
 70
     1
102
RTVSPropertyOp29
 70
     1
102
RTVSPropertyOp30
 70
     1
102
RTVSPropertyOp31
 70
     1
102
RTVSPropertyOp32
 70
     1
  0
XRECORD
  5
FDB
102
{ACAD_REACTORS
330
FDA
102
}
330
FDA
100
AcDbXrecord
280
     1
102
RTVSPropertyOp0
 70
     1
102
RTVSPropertyOp1
 70
     1
102
RTVSPropertyOp2
 70
     1
102
RTVSPropertyOp3
 70
     1
102
RTVSPropertyOp4
 70
     1
102
RTVSPropertyOp5
 70
     1
102
RTVSPropertyOp6
 70
     1
102
RTVSPropertyOp7
 70
     1
102
RTVSPropertyOp8
 70
     1
102
RTVSPropertyOp9
 70
     1
102
RTVSPropertyOp10
 70
     1
102
RTVSPropertyOp11
 70
     1
102
RTVSPropertyOp12
 70
     1
102
RTVSPropertyOp13
 70
     1
102
RTVSPropertyOp14
 70
     1
102
RTVSPropertyOp15
 70
     1
102
RTVSPropertyOp16
 70
     1
102
RTVSPropertyOp17
 70
     1
102
RTVSPropertyOp18
 70
     1
102
RTVSPropertyOp19
 70
     1
102
RTVSPropertyOp20
 70
     1
102
RTVSPropertyOp21
 70
     1
102
RTVSPropertyOp22
 70
     1
102
RTVSPropertyOp23
 70
     1
102
RTVSPropertyOp24
 70
     1
102
RTVSPropertyOp25
 70
     1
102
RTVSPropertyOp26
 70
     1
102
RTVSPropertyOp27
 70
     1
102
RTVSPropertyOp28
 70
     1
102
RTVSPropertyOp29
 70
     1
102
RTVSPropertyOp30
 70
     1
102
RTVSPropertyOp31
 70
     1
102
RTVSPropertyOp32
 70
     1
  0
XRECORD
  5
FCF
102
{ACAD_REACTORS
330
FCE
102
}
330
FCE
100
AcDbXrecord
280
     1
102
RTVSPropertyOp0
 70
     1
102
RTVSPropertyOp1
 70
     1
102
RTVSPropertyOp2
 70
     1
102
RTVSPropertyOp3
 70
     1
102
RTVSPropertyOp4
 70
     1
102
RTVSPropertyOp5
 70
     1
102
RTVSPropertyOp6
 70
     1
102
RTVSPropertyOp7
 70
     1
102
RTVSPropertyOp8
 70
     1
102
RTVSPropertyOp9
 70
     1
102
RTVSPropertyOp10
 70
     1
102
RTVSPropertyOp11
 70
     1
102
RTVSPropertyOp12
 70
     1
102
RTVSPropertyOp13
 70
     1
102
RTVSPropertyOp14
 70
     1
102
RTVSPropertyOp15
 70
     1
102
RTVSPropertyOp16
 70
     1
102
RTVSPropertyOp17
 70
     1
102
RTVSPropertyOp18
 70
     1
102
RTVSPropertyOp19
 70
     1
102
RTVSPropertyOp20
 70
     1
102
RTVSPropertyOp21
 70
     1
102
RTVSPropertyOp22
 70
     1
102
RTVSPropertyOp23
 70
     1
102
RTVSPropertyOp24
 70
     1
102
RTVSPropertyOp25
 70
     1
102
RTVSPropertyOp26
 70
     1
102
RTVSPropertyOp27
 70
     1
102
RTVSPropertyOp28
 70
     1
102
RTVSPropertyOp29
 70
     1
102
RTVSPropertyOp30
 70
     1
102
RTVSPropertyOp31
 70
     1
102
RTVSPropertyOp32
 70
     1
  0
XRECORD
  5
FE7
102
{ACAD_REACTORS
330
FE6
102
}
330
FE6
100
AcDbXrecord
280
     1
102
RTVSPropertyOp0
 70
     1
102
RTVSPropertyOp1
 70
     1
102
RTVSPropertyOp2
 70
     1
102
RTVSPropertyOp3
 70
     1
102
RTVSPropertyOp4
 70
     1
102
RTVSPropertyOp5
 70
     1
102
RTVSPropertyOp6
 70
     1
102
RTVSPropertyOp7
 70
     1
102
RTVSPropertyOp8
 70
     1
102
RTVSPropertyOp9
 70
     1
102
RTVSPropertyOp10
 70
     1
102
RTVSPropertyOp11
 70
     1
102
RTVSPropertyOp12
 70
     1
102
RTVSPropertyOp13
 70
     1
102
RTVSPropertyOp14
 70
     1
102
RTVSPropertyOp15
 70
     1
102
RTVSPropertyOp16
 70
     1
102
RTVSPropertyOp17
 70
     1
102
RTVSPropertyOp18
 70
     1
102
RTVSPropertyOp19
 70
     1
102
RTVSPropertyOp20
 70
     1
102
RTVSPropertyOp21
 70
     1
102
RTVSPropertyOp22
 70
     1
102
RTVSPropertyOp23
 70
     1
102
RTVSPropertyOp24
 70
     1
102
RTVSPropertyOp25
 70
     1
102
RTVSPropertyOp26
 70
     1
102
RTVSPropertyOp27
 70
     1
102
RTVSPropertyOp28
 70
     1
102
RTVSPropertyOp29
 70
     1
102
RTVSPropertyOp30
 70
     1
102
RTVSPropertyOp31
 70
     1
102
RTVSPropertyOp32
 70
     1
  0
ENDSEC
  0
EOF
