  0
SECTION
  2
HEADER
  9
$ACADVER
  1
AC1015
  9
$ACADMAINTVER
 70
    18
  9
$DWGCODEPAGE
  3
ANSI_1252
  9
$INSBASE
 10
0.0
 20
0.0
 30
0.0
  9
$EXTMIN
 10
0.0
 20
0.0
 30
0.0
  9
$EXTMAX
 10
130.7692307692307
 20
84.61538461538461
 30
0.0
  9
$LIMMIN
 10
0.0
 20
0.0
  9
$LIMMAX
 10
130.7692307692307
 20
84.61538461538461
  9
$ORTHOMODE
 70
     0
  9
$REGENMODE
 70
     1
  9
$FILLMODE
 70
     1
  9
$QTEXTMODE
 70
     0
  9
$MIRRTEXT
 70
     0
  9
$LTSCALE
 40
7.692307692307691
  9
$ATTMODE
 70
     1
  9
$TEXTSIZE
 40
0.2
  9
$TRACEWID
 40
0.05
  9
$TEXTSTYLE
  7
Standard
  9
$CLAYER
  8
0
  9
$CELTYPE
  6
ByLayer
  9
$CECOLOR
 62
   256
  9
$CELTSCALE
 40
1.0
  9
$DISPSILH
 70
     0
  9
$DIMSCALE
 40
1.0
  9
$DIMASZ
 40
0.0708661417322835
  9
$DIMEXO
 40
0.0625
  9
$DIMDLI
 40
0.38
  9
$DIMRND
 40
0.0
  9
$DIMDLE
 40
0.0
  9
$DIMEXE
 40
0.18
  9
$DIMTP
 40
0.0
  9
$DIMTM
 40
0.0
  9
$DIMTXT
 40
0.0708661417322835
  9
$DIMCEN
 40
0.09
  9
$DIMTSZ
 40
0.0
  9
$DIMTOL
 70
     0
  9
$DIMLIM
 70
     0
  9
$DIMTIH
 70
     1
  9
$DIMTOH
 70
     1
  9
$DIMSE1
 70
     0
  9
$DIMSE2
 70
     0
  9
$DIMTAD
 70
     0
  9
$DIMZIN
 70
     0
  9
$DIMBLK
  1

  9
$DIMASO
 70
     1
  9
$DIMSHO
 70
     1
  9
$DIMPOST
  1

  9
$DIMAPOST
  1

  9
$DIMALT
 70
     0
  9
$DIMALTD
 70
     2
  9
$DIMALTF
 40
25.4
  9
$DIMLFAC
 40
1.0
  9
$DIMTOFL
 70
     0
  9
$DIMTVP
 40
0.0
  9
$DIMTIX
 70
     0
  9
$DIMSOXD
 70
     0
  9
$DIMSAH
 70
     0
  9
$DIMBLK1
  1

  9
$DIMBLK2
  1

  9
$DIMSTYLE
  2
STANDARD
  9
$DIMCLRD
 70
     0
  9
$DIMCLRE
 70
     0
  9
$DIMCLRT
 70
     0
  9
$DIMTFAC
 40
1.0
  9
$DIMGAP
 40
0.09
  9
$DIMJUST
 70
     0
  9
$DIMSD1
 70
     0
  9
$DIMSD2
 70
     0
  9
$DIMTOLJ
 70
     1
  9
$DIMTZIN
 70
     0
  9
$DIMALTZ
 70
     0
  9
$DIMALTTZ
 70
     0
  9
$DIMUPT
 70
     0
  9
$DIMDEC
 70
     4
  9
$DIMTDEC
 70
     4
  9
$DIMALTU
 70
     2
  9
$DIMALTTD
 70
     2
  9
$DIMTXSTY
  7
Standard
  9
$DIMAUNIT
 70
     0
  9
$DIMADEC
 70
     0
  9
$DIMALTRND
 40
0.0
  9
$DIMAZIN
 70
     0
  9
$DIMDSEP
 70
    46
  9
$DIMATFIT
 70
     3
  9
$DIMFRAC
 70
     0
  9
$DIMLDRBLK
  1

  9
$DIMLUNIT
 70
     2
  9
$DIMLWD
 70
    -2
  9
$DIMLWE
 70
    -2
  9
$DIMTMOVE
 70
     0
  9
$LUNITS
 70
     2
  9
$LUPREC
 70
     4
  9
$SKETCHINC
 40
0.1
  9
$FILLETRAD
 40
0.0
  9
$AUNITS
 70
     0
  9
$AUPREC
 70
     0
  9
$MENU
  1
.
  9
$ELEVATION
 40
0.0
  9
$PELEVATION
 40
0.0
  9
$THICKNESS
 40
0.0
  9
$LIMCHECK
 70
     0
  9
$CHAMFERA
 40
0.0
  9
$CHAMFERB
 40
0.0
  9
$CHAMFERC
 40
0.0
  9
$CHAMFERD
 40
0.0
  9
$SKPOLY
 70
     0
  9
$TDCREATE
 40
2455944.559610000
  9
$TDUCREATE
 40
2455944.809610000
  9
$TDUPDATE
 40
2455944.559610000
  9
$TDUUPDATE
 40
2455944.809610000
  9
$TDINDWG
 40
0.0000379745
  9
$TDUSRTIMER
 40
0.0000379745
  9
$USRTIMER
 70
     1
  9
$ANGBASE
 50
0.0
  9
$ANGDIR
 70
     0
  9
$PDMODE
 70
     0
  9
$PDSIZE
 40
0.0
  9
$PLINEWID
 40
0.0
  9
$SPLFRAME
 70
     0
  9
$SPLINETYPE
 70
     6
  9
$SPLINESEGS
 70
     8
  9
$HANDSEED
  5
F5F
  9
$SURFTAB1
 70
     6
  9
$SURFTAB2
 70
     6
  9
$SURFTYPE
 70
     6
  9
$SURFU
 70
     6
  9
$SURFV
 70
     6
  9
$UCSBASE
  2

  9
$UCSNAME
  2

  9
$UCSORG
 10
0.0
 20
0.0
 30
0.0
  9
$UCSXDIR
 10
1.0
 20
0.0
 30
0.0
  9
$UCSYDIR
 10
0.0
 20
1.0
 30
0.0
  9
$UCSORTHOREF
  2

  9
$UCSORTHOVIEW
 70
     0
  9
$UCSORGTOP
 10
0.0
 20
0.0
 30
0.0
  9
$UCSORGBOTTOM
 10
0.0
 20
0.0
 30
0.0
  9
$UCSORGLEFT
 10
0.0
 20
0.0
 30
0.0
  9
$UCSORGRIGHT
 10
0.0
 20
0.0
 30
0.0
  9
$UCSORGFRONT
 10
0.0
 20
0.0
 30
0.0
  9
$UCSORGBACK
 10
0.0
 20
0.0
 30
0.0
  9
$PUCSBASE
  2

  9
$PUCSNAME
  2

  9
$PUCSORG
 10
0.0
 20
0.0
 30
0.0
  9
$PUCSXDIR
 10
1.0
 20
0.0
 30
0.0
  9
$PUCSYDIR
 10
0.0
 20
1.0
 30
0.0
  9
$PUCSORTHOREF
  2

  9
$PUCSORTHOVIEW
 70
     0
  9
$PUCSORGTOP
 10
0.0
 20
0.0
 30
0.0
  9
$PUCSORGBOTTOM
 10
0.0
 20
0.0
 30
0.0
  9
$PUCSORGLEFT
 10
0.0
 20
0.0
 30
0.0
  9
$PUCSORGRIGHT
 10
0.0
 20
0.0
 30
0.0
  9
$PUCSORGFRONT
 10
0.0
 20
0.0
 30
0.0
  9
$PUCSORGBACK
 10
0.0
 20
0.0
 30
0.0
  9
$USERI1
 70
     0
  9
$USERI2
 70
     0
  9
$USERI3
 70
     0
  9
$USERI4
 70
     0
  9
$USERI5
 70
     0
  9
$USERR1
 40
0.0
  9
$USERR2
 40
0.0
  9
$USERR3
 40
0.0
  9
$USERR4
 40
0.0
  9
$USERR5
 40
0.0
  9
$WORLDVIEW
 70
     1
  9
$SHADEDGE
 70
     3
  9
$SHADEDIF
 70
    70
  9
$TILEMODE
 70
     1
  9
$MAXACTVP
 70
    64
  9
$PINSBASE
 10
0.0
 20
0.0
 30
0.0
  9
$PLIMCHECK
 70
     0
  9
$PEXTMIN
 10
0.0
 20
0.0
 30
0.0
  9
$PEXTMAX
 10
130.7692307692307
 20
84.61538461538461
 30
0.0
  9
$PLIMMIN
 10
0.0
 20
0.0
  9
$PLIMMAX
 10
130.7692307692307
 20
84.61538461538461
  9
$UNITMODE
 70
     0
  9
$VISRETAIN
 70
     1
  9
$PLINEGEN
 70
     0
  9
$PSLTSCALE
 70
     1
  9
$TREEDEPTH
 70
  3020
  9
$CMLSTYLE
  2
Standard
  9
$CMLJUST
 70
     0
  9
$CMLSCALE
 40
1.0
  9
$PROXYGRAPHICS
 70
     1
  9
$MEASUREMENT
 70
     0
  9
$CELWEIGHT
370
    -1
  9
$ENDCAPS
280
     0
  9
$JOINSTYLE
280
     0
  9
$LWDISPLAY
290
     0
  9
$INSUNITS
 70
     1
  9
$HYPERLINKBASE
  1

  9
$STYLESHEET
  1

  9
$XEDIT
290
     1
  9
$CEPSNTYPE
380
     0
  9
$PSTYLEMODE
290
     1
  9
$FINGERPRINTGUID
  2
{337E150D-CDBD-4CC2-9935-3A1CB903C65E}
  9
$VERSIONGUID
  2
{8E20372B-F0D1-4C7B-A6DF-D62727FE42DB}
  9
$EXTNAMES
290
     1
  9
$PSVPSCALE
 40
0.0
  9
$OLESTARTUP
290
     0
  0
ENDSEC
  0
SECTION
  2
CLASSES
  0
CLASS
  1
ACDBDICTIONARYWDFLT
  2
AcDbDictionaryWithDefault
  3
ObjectDBX Classes
 90
        0
280
     0
281
     0
  0
CLASS
  1
MATERIAL
  2
AcDbMaterial
  3
ObjectDBX Classes
 90
     1153
280
     0
281
     0
  0
CLASS
  1
VISUALSTYLE
  2
AcDbVisualStyle
  3
ObjectDBX Classes
 90
     4095
280
     0
281
     0
  0
CLASS
  1
SCALE
  2
AcDbScale
  3
ObjectDBX Classes
 90
     1153
280
     0
281
     0
  0
CLASS
  1
TABLESTYLE
  2
AcDbTableStyle
  3
ObjectDBX Classes
 90
     4095
280
     0
281
     0
  0
CLASS
  1
MLEADERSTYLE
  2
AcDbMLeaderStyle
  3
ACDB_MLEADERSTYLE_CLASS
 90
     4095
280
     0
281
     0
  0
CLASS
  1
DICTIONARYVAR
  2
AcDbDictionaryVar
  3
ObjectDBX Classes
 90
        0
280
     0
281
     0
  0
CLASS
  1
CELLSTYLEMAP
  2
AcDbCellStyleMap
  3
ObjectDBX Classes
 90
     1152
280
     0
281
     0
  0
CLASS
  1
ACDBPLACEHOLDER
  2
AcDbPlaceHolder
  3
ObjectDBX Classes
 90
        0
280
     0
281
     0
  0
CLASS
  1
LAYOUT
  2
AcDbLayout
  3
ObjectDBX Classes
 90
        0
280
     0
281
     0
  0
ENDSEC
  0
SECTION
  2
TABLES
  0
TABLE
  2
VPORT
  5
8
330
0
100
AcDbSymbolTable
 70
     1
  0
VPORT
  5
57
330
8
100
AcDbSymbolTableRecord
100
AcDbViewportTableRecord
  2
*Active
 70
     0
 10
0.0
 20
0.0
 11
1.0
 21
1.0
 12
65.38461538461537
 22
42.3076923076923
 13
0.0
 23
0.0
 14
1.0
 24
1.0
 15
0.0
 25
0.0
 16
0.0
 26
0.0
 36
1.0
 17
0.0
 27
0.0
 37
0.0
 40
84.61538461538461
 41
1.545454545454545
 42
50.0
 43
0.0
 44
0.0
 50
0.0
 51
0.0
 71
     0
 72
   100
 73
     1
 74
     1
 75
     0
 76
     0
 77
     0
 78
     0
281
     0
 65
     1
110
0.0
120
0.0
130
0.0
111
1.0
121
0.0
131
0.0
112
0.0
122
1.0
132
0.0
 79
     0
146
0.0
  0
ENDTAB
  0
TABLE
  2
LTYPE
  5
5
330
0
100
AcDbSymbolTable
 70
    59
  0
LTYPE
  5
5B
330
5
100
AcDbSymbolTableRecord
100
AcDbLinetypeTableRecord
  2
ByBlock
 70
     0
  3

 72
    65
 73
     0
 40
0.0
  0
LTYPE
  5
5C
330
5
100
AcDbSymbolTableRecord
100
AcDbLinetypeTableRecord
  2
ByLayer
 70
     0
  3

 72
    65
 73
     0
 40
0.0
  0
LTYPE
  5
5D
330
5
100
AcDbSymbolTableRecord
100
AcDbLinetypeTableRecord
  2
Continuous
 70
     0
  3
Solid line
 72
    65
 73
     0
 40
0.0
  0
LTYPE
  5
DE
330
5
100
AcDbSymbolTableRecord
100
AcDbLinetypeTableRecord
  2
BY_STANDARD
 70
     0
  3
By Standard ____________    ____    ____   _
 72
    65
 73
     6
 40
1.240299999999999
 49
0.6614
 74
     0
 49
-0.0827
 74
     0
 49
0.1654
 74
     0
 49
-0.0827
 74
     0
 49
0.1654
 74
     0
 49
-0.0827
 74
     0
  0
LTYPE
  5
DF
330
5
100
AcDbSymbolTableRecord
100
AcDbLinetypeTableRecord
  2
CHAIN
 70
     0
  3
Chain ____ _ ____ _ ____ _ ____ _ ____ _ ____
 72
    65
 73
     4
 40
0.7087
 49
0.4724000000000001
 74
     0
 49
-0.0591
 74
     0
 49
0.1181
 74
     0
 49
-0.0591
 74
     0
  0
LTYPE
  5
E0
330
5
100
AcDbSymbolTableRecord
100
AcDbLinetypeTableRecord
  2
DASH_DOT
 70
     0
  3
Dash dot __ . __ . __ . __ . __ . __ . __ . __
 72
    65
 73
     4
 40
0.37
 49
0.24
 74
     0
 49
-0.06
 74
     0
 49
0.01
 74
     0
 49
-0.06
 74
     0
  0
LTYPE
  5
E1
330
5
100
AcDbSymbolTableRecord
100
AcDbLinetypeTableRecord
  2
DOUBLE_DASH_DOT
 70
     0
  3
Double-Dash Dot __ __ . __ __ . __ __ . __ _
 72
    65
 73
     6
 40
0.4398
 49
0.24
 74
     0
 49
-0.06
 74
     0
 49
0.0098
 74
     0
 49
-0.06
 74
     0
 49
0.01
 74
     0
 49
-0.06
 74
     0
  0
LTYPE
  5
E2
330
5
100
AcDbSymbolTableRecord
100
AcDbLinetypeTableRecord
  2
DASH_TRIPLE_DOT
 70
     0
  3
Dash Triple-Dot _ . . . _ . . . _ . . . _
 72
    65
 73
     8
 40
0.51
 49
0.24
 74
     0
 49
-0.06
 74
     0
 49
0.01
 74
     0
 49
-0.06
 74
     0
 49
0.01
 74
     0
 49
-0.06
 74
     0
 49
0.01
 74
     0
 49
-0.06
 74
     0
  0
LTYPE
  5
E3
330
5
100
AcDbSymbolTableRecord
100
AcDbLinetypeTableRecord
  2
DASHED
 70
     0
  3
Dashed __ __ __ __ __ __ __ __ __ __ __ __ __ _
 72
    65
 73
     2
 40
0.2067
 49
0.1654
 74
     0
 49
-0.0413
 74
     0
  0
LTYPE
  5
E4
330
5
100
AcDbSymbolTableRecord
100
AcDbLinetypeTableRecord
  2
DASH_DOUBLE_DOT
 70
     0
  3
Dash Double-Dot __ . . __ . . __ . . __ . .
 72
    65
 73
     6
 40
0.4398
 49
0.24
 74
     0
 49
-0.06
 74
     0
 49
0.0098
 74
     0
 49
-0.06
 74
     0
 49
0.01
 74
     0
 49
-0.06
 74
     0
  0
LTYPE
  5
E5
330
5
100
AcDbSymbolTableRecord
100
AcDbLinetypeTableRecord
  2
DASHED_SPACE
 70
     0
  3
Dashed Space __ __ __ __ __ __ __ __ __ __ __ _
 72
    65
 73
     2
 40
0.2067
 49
0.1654
 74
     0
 49
-0.0413
 74
     0
  0
LTYPE
  5
E6
330
5
100
AcDbSymbolTableRecord
100
AcDbLinetypeTableRecord
  2
DOTTED
 70
     0
  3
Dotted . . . . . . . . . . . . . . . . . . . . 
 72
    65
 73
     2
 40
0.0482
 49
0.0069
 74
     0
 49
-0.0413
 74
     0
  0
LTYPE
  5
E7
330
5
100
AcDbSymbolTableRecord
100
AcDbLinetypeTableRecord
  2
DOUBLE_DASH_CHAIN
 70
     0
  3
Double-Dash Chain ______  __  __  ______  __  _
 72
    65
 73
     6
 40
1.240299999999999
 49
0.6614
 74
     0
 49
-0.0827
 74
     0
 49
0.1654
 74
     0
 49
-0.0827
 74
     0
 49
0.1654
 74
     0
 49
-0.0827
 74
     0
  0
LTYPE
  5
E9
330
5
100
AcDbSymbolTableRecord
100
AcDbLinetypeTableRecord
  2
DOUBLE_DASH_DOUBLE_DOT
 70
     0
  3
Double-Dash Double-dot _ _ . . _ _ . . _
 72
    65
 73
     8
 40
0.7400000000000001
 49
0.24
 74
     0
 49
-0.06
 74
     0
 49
0.24
 74
     0
 49
-0.06
 74
     0
 49
0.01
 74
     0
 49
-0.06
 74
     0
 49
0.01
 74
     0
 49
-0.06
 74
     0
  0
LTYPE
  5
EA
330
5
100
AcDbSymbolTableRecord
100
AcDbLinetypeTableRecord
  2
DOUBLE_DASH_TRIPLE_DOT
 70
     0
  3
Double Dash Triple Dot __ __ . . . __ __ . .
 72
    65
 73
    10
 40
0.8100000000000001
 49
0.24
 74
     0
 49
-0.06
 74
     0
 49
0.24
 74
     0
 49
-0.06
 74
     0
 49
0.01
 74
     0
 49
-0.06
 74
     0
 49
0.01
 74
     0
 49
-0.06
 74
     0
 49
0.01
 74
     0
 49
-0.06
 74
     0
  0
LTYPE
  5
EB
330
5
100
AcDbSymbolTableRecord
100
AcDbLinetypeTableRecord
  2
LONG_DASH_DOTTED
 70
     0
  3
Long Dash Dotted ____ . ____ . ____ . ____ . _
 72
    65
 73
     4
 40
0.3543
 49
0.2362
 74
     0
 49
-0.0295
 74
     0
 49
0.0591
 74
     0
 49
-0.0295
 74
     0
  0
LTYPE
  5
EC
330
5
100
AcDbSymbolTableRecord
100
AcDbLinetypeTableRecord
  2
LONG_DASH_DOUBLE_DOT
 70
     0
  3
Long Dash Double Dot ________  .  .  ________  
 72
    65
 73
     6
 40
0.6799999999999999
 49
0.48
 74
     0
 49
-0.06
 74
     0
 49
0.01
 74
     0
 49
-0.06
 74
     0
 49
0.01
 74
     0
 49
-0.06
 74
     0
  0
LTYPE
  5
ED
330
5
100
AcDbSymbolTableRecord
100
AcDbLinetypeTableRecord
  2
LONG_DASH_TRIPLE_DOT
 70
     0
  3
Long Dash Triple Dot ____ ... ____ ... ____
 72
    65
 73
     8
 40
0.3689
 49
0.2362
 74
     0
 49
-0.0295
 74
     0
 49
0.0049
 74
     0
 49
-0.0295
 74
     0
 49
0.0049
 74
     0
 49
-0.0295
 74
     0
 49
0.0049
 74
     0
 49
-0.0295
 74
     0
  0
LTYPE
  5
EE
330
5
100
AcDbSymbolTableRecord
100
AcDbLinetypeTableRecord
  2
BORDER
 70
     0
  3
Border __ __ . __ __ . __ __ . __ __ . __ __ .
 72
    65
 73
     6
 40
1.75
 49
0.5
 74
     0
 49
-0.25
 74
     0
 49
0.5
 74
     0
 49
-0.25
 74
     0
 49
0.0
 74
     0
 49
-0.25
 74
     0
  0
LTYPE
  5
EF
330
5
100
AcDbSymbolTableRecord
100
AcDbLinetypeTableRecord
  2
BORDER2
 70
     0
  3
Border (.5x) __.__.__.__.__.__.__.__.__.__.__.
 72
    65
 73
     6
 40
0.875
 49
0.25
 74
     0
 49
-0.125
 74
     0
 49
0.25
 74
     0
 49
-0.125
 74
     0
 49
0.0
 74
     0
 49
-0.125
 74
     0
  0
LTYPE
  5
F0
330
5
100
AcDbSymbolTableRecord
100
AcDbLinetypeTableRecord
  2
BORDERX2
 70
     0
  3
Border (2x) ____  ____  .  ____  ____  .  ___
 72
    65
 73
     6
 40
3.5
 49
1.0
 74
     0
 49
-0.5
 74
     0
 49
1.0
 74
     0
 49
-0.5
 74
     0
 49
0.0
 74
     0
 49
-0.5
 74
     0
  0
LTYPE
  5
F1
330
5
100
AcDbSymbolTableRecord
100
AcDbLinetypeTableRecord
  2
CENTER
 70
     0
  3
Center ____ _ ____ _ ____ _ ____ _ ____ _ ____
 72
    65
 73
     4
 40
2.0
 49
1.25
 74
     0
 49
-0.25
 74
     0
 49
0.25
 74
     0
 49
-0.25
 74
     0
  0
LTYPE
  5
F2
330
5
100
AcDbSymbolTableRecord
100
AcDbLinetypeTableRecord
  2
CENTER2
 70
     0
  3
Center (.5x) ___ _ ___ _ ___ _ ___ _ ___ _ ___
 72
    65
 73
     4
 40
1.125
 49
0.75
 74
     0
 49
-0.125
 74
     0
 49
0.125
 74
     0
 49
-0.125
 74
     0
  0
LTYPE
  5
F3
330
5
100
AcDbSymbolTableRecord
100
AcDbLinetypeTableRecord
  2
CENTERX2
 70
     0
  3
Center (2x) ________  __  ________  __  _____
 72
    65
 73
     4
 40
4.0
 49
2.5
 74
     0
 49
-0.5
 74
     0
 49
0.5
 74
     0
 49
-0.5
 74
     0
  0
LTYPE
  5
F4
330
5
100
AcDbSymbolTableRecord
100
AcDbLinetypeTableRecord
  2
DASHDOT2
 70
     0
  3
Dash dot (.5x) _._._._._._._._._._._._._._._.
 72
    65
 73
     4
 40
0.5
 49
0.25
 74
     0
 49
-0.125
 74
     0
 49
0.0
 74
     0
 49
-0.125
 74
     0
  0
LTYPE
  5
F5
330
5
100
AcDbSymbolTableRecord
100
AcDbLinetypeTableRecord
  2
DASHDOTX2
 70
     0
  3
Dash dot (2x) ____  .  ____  .  ____  .  ___
 72
    65
 73
     4
 40
2.0
 49
1.0
 74
     0
 49
-0.5
 74
     0
 49
0.0
 74
     0
 49
-0.5
 74
     0
  0
LTYPE
  5
F7
330
5
100
AcDbSymbolTableRecord
100
AcDbLinetypeTableRecord
  2
DASHED2
 70
     0
  3
Dashed (.5x) _ _ _ _ _ _ _ _ _ _ _ _ _ _ _ _ _
 72
    65
 73
     2
 40
0.375
 49
0.25
 74
     0
 49
-0.125
 74
     0
  0
LTYPE
  5
F8
330
5
100
AcDbSymbolTableRecord
100
AcDbLinetypeTableRecord
  2
DASHEDX2
 70
     0
  3
Dashed (2x) ____  ____  ____  ____  ____  ___
 72
    65
 73
     2
 40
1.5
 49
1.0
 74
     0
 49
-0.5
 74
     0
  0
LTYPE
  5
F9
330
5
100
AcDbSymbolTableRecord
100
AcDbLinetypeTableRecord
  2
DIVIDE
 70
     0
  3
Divide ____ . . ____ . . ____ . . ____ . . ____
 72
    65
 73
     6
 40
1.25
 49
0.5
 74
     0
 49
-0.25
 74
     0
 49
0.0
 74
     0
 49
-0.25
 74
     0
 49
0.0
 74
     0
 49
-0.25
 74
     0
  0
LTYPE
  5
FA
330
5
100
AcDbSymbolTableRecord
100
AcDbLinetypeTableRecord
  2
DIVIDE2
 70
     0
  3
Divide (.5x) __..__..__..__..__..__..__..__.._
 72
    65
 73
     6
 40
0.625
 49
0.25
 74
     0
 49
-0.125
 74
     0
 49
0.0
 74
     0
 49
-0.125
 74
     0
 49
0.0
 74
     0
 49
-0.125
 74
     0
  0
LTYPE
  5
FB
330
5
100
AcDbSymbolTableRecord
100
AcDbLinetypeTableRecord
  2
DIVIDEX2
 70
     0
  3
Divide (2x) ________  .  .  ________  .  .  _
 72
    65
 73
     6
 40
2.5
 49
1.0
 74
     0
 49
-0.5
 74
     0
 49
0.0
 74
     0
 49
-0.5
 74
     0
 49
0.0
 74
     0
 49
-0.5
 74
     0
  0
LTYPE
  5
FC
330
5
100
AcDbSymbolTableRecord
100
AcDbLinetypeTableRecord
  2
DOT
 70
     0
  3
Dot . . . . . . . . . . . . . . . . . . . . . .
 72
    65
 73
     2
 40
0.25
 49
0.0
 74
     0
 49
-0.25
 74
     0
  0
LTYPE
  5
FD
330
5
100
AcDbSymbolTableRecord
100
AcDbLinetypeTableRecord
  2
DOT2
 70
     0
  3
Dot (.5x) .....................................
 72
    65
 73
     2
 40
0.125
 49
0.0
 74
     0
 49
-0.125
 74
     0
  0
LTYPE
  5
FE
330
5
100
AcDbSymbolTableRecord
100
AcDbLinetypeTableRecord
  2
DOTX2
 70
     0
  3
Dot (2x) .  .  .  .  .  .  .  .  .  .  .  .  . 
 72
    65
 73
     2
 40
0.5
 49
0.0
 74
     0
 49
-0.5
 74
     0
  0
LTYPE
  5
FF
330
5
100
AcDbSymbolTableRecord
100
AcDbLinetypeTableRecord
  2
HIDDEN
 70
     0
  3
Hidden __ __ __ __ __ __ __ __ __ __ __ __ __ _
 72
    65
 73
     2
 40
0.375
 49
0.25
 74
     0
 49
-0.125
 74
     0
  0
LTYPE
  5
100
330
5
100
AcDbSymbolTableRecord
100
AcDbLinetypeTableRecord
  2
HIDDEN2
 70
     0
  3
Hidden (.5x) _ _ _ _ _ _ _ _ _ _ _ _ _ _ _ _ _
 72
    65
 73
     2
 40
0.1875
 49
0.125
 74
     0
 49
-0.0625
 74
     0
  0
LTYPE
  5
101
330
5
100
AcDbSymbolTableRecord
100
AcDbLinetypeTableRecord
  2
HIDDENX2
 70
     0
  3
Hidden (2x) ____ ____ ____ ____ ____ ____ ____
 72
    65
 73
     2
 40
0.75
 49
0.5
 74
     0
 49
-0.25
 74
     0
  0
LTYPE
  5
102
330
5
100
AcDbSymbolTableRecord
100
AcDbLinetypeTableRecord
  2
PHANTOM
 70
     0
  3
Phantom ______  __  __  ______  __  __  ______
 72
    65
 73
     6
 40
2.5
 49
1.25
 74
     0
 49
-0.25
 74
     0
 49
0.25
 74
     0
 49
-0.25
 74
     0
 49
0.25
 74
     0
 49
-0.25
 74
     0
  0
LTYPE
  5
103
330
5
100
AcDbSymbolTableRecord
100
AcDbLinetypeTableRecord
  2
PHANTOM2
 70
     0
  3
Phantom (.5x) ___ _ _ ___ _ _ ___ _ _ ___ _ _
 72
    65
 73
     6
 40
1.25
 49
0.625
 74
     0
 49
-0.125
 74
     0
 49
0.125
 74
     0
 49
-0.125
 74
     0
 49
0.125
 74
     0
 49
-0.125
 74
     0
  0
LTYPE
  5
104
330
5
100
AcDbSymbolTableRecord
100
AcDbLinetypeTableRecord
  2
PHANTOMX2
 70
     0
  3
Phantom (2x) ____________    ____    ____   _
 72
    65
 73
     6
 40
5.0
 49
2.5
 74
     0
 49
-0.5
 74
     0
 49
0.5
 74
     0
 49
-0.5
 74
     0
 49
0.5
 74
     0
 49
-0.5
 74
     0
  0
LTYPE
  5
105
330
5
100
AcDbSymbolTableRecord
100
AcDbLinetypeTableRecord
  2
ACAD_ISO02W100
 70
     0
  3
ISO dash __ __ __ __ __ __ __ __ __ __ __ __ __
 72
    65
 73
     2
 40
0.59
 49
0.47
 74
     0
 49
-0.12
 74
     0
  0
LTYPE
  5
106
330
5
100
AcDbSymbolTableRecord
100
AcDbLinetypeTableRecord
  2
ACAD_ISO03W100
 70
     0
  3
ISO dash space __    __    __    __    __    __
 72
    65
 73
     2
 40
1.179999999999999
 49
0.47
 74
     0
 49
-0.71
 74
     0
  0
LTYPE
  5
107
330
5
100
AcDbSymbolTableRecord
100
AcDbLinetypeTableRecord
  2
ACAD_ISO04W100
 70
     0
  3
ISO long-dash dot ____ . ____ . ____ . ____ . _
 72
    65
 73
     4
 40
1.179999999999999
 49
0.9399999999999998
 74
     0
 49
-0.12
 74
     0
 49
0.0
 74
     0
 49
-0.12
 74
     0
  0
LTYPE
  5
108
330
5
100
AcDbSymbolTableRecord
100
AcDbLinetypeTableRecord
  2
ACAD_ISO05W100
 70
     0
  3
ISO long-dash double-dot ____ .. ____ .. ____ .
 72
    65
 73
     6
 40
1.299999999999999
 49
0.9399999999999998
 74
     0
 49
-0.12
 74
     0
 49
0.0
 74
     0
 49
-0.12
 74
     0
 49
0.0
 74
     0
 49
-0.12
 74
     0
  0
LTYPE
  5
109
330
5
100
AcDbSymbolTableRecord
100
AcDbLinetypeTableRecord
  2
ACAD_ISO06W100
 70
     0
  3
ISO long-dash triple-dot ____ ... ____ ... ____
 72
    65
 73
     8
 40
1.419999999999999
 49
0.9399999999999998
 74
     0
 49
-0.12
 74
     0
 49
0.0
 74
     0
 49
-0.12
 74
     0
 49
0.0
 74
     0
 49
-0.12
 74
     0
 49
0.0
 74
     0
 49
-0.12
 74
     0
  0
LTYPE
  5
10A
330
5
100
AcDbSymbolTableRecord
100
AcDbLinetypeTableRecord
  2
ACAD_ISO07W100
 70
     0
  3
ISO dot . . . . . . . . . . . . . . . . . . . .
 72
    65
 73
     2
 40
0.12
 49
0.0
 74
     0
 49
-0.12
 74
     0
  0
LTYPE
  5
10B
330
5
100
AcDbSymbolTableRecord
100
AcDbLinetypeTableRecord
  2
ACAD_ISO08W100
 70
     0
  3
ISO long-dash short-dash ____ __ ____ __ ____ _
 72
    65
 73
     4
 40
0.95
 49
0.47
 74
     0
 49
-0.12
 74
     0
 49
0.24
 74
     0
 49
-0.12
 74
     0
  0
LTYPE
  5
10C
330
5
100
AcDbSymbolTableRecord
100
AcDbLinetypeTableRecord
  2
ACAD_ISO09W100
 70
     0
  3
ISO long-dash double-short-dash ____ __ __ ____
 72
    65
 73
     6
 40
1.31
 49
0.47
 74
     0
 49
-0.12
 74
     0
 49
0.24
 74
     0
 49
-0.12
 74
     0
 49
0.24
 74
     0
 49
-0.12
 74
     0
  0
LTYPE
  5
10D
330
5
100
AcDbSymbolTableRecord
100
AcDbLinetypeTableRecord
  2
ACAD_ISO10W100
 70
     0
  3
ISO dash dot __ . __ . __ . __ . __ . __ . __ .
 72
    65
 73
     4
 40
0.71
 49
0.47
 74
     0
 49
-0.12
 74
     0
 49
0.0
 74
     0
 49
-0.12
 74
     0
  0
LTYPE
  5
10E
330
5
100
AcDbSymbolTableRecord
100
AcDbLinetypeTableRecord
  2
ACAD_ISO11W100
 70
     0
  3
ISO double-dash dot __ __ . __ __ . __ __ . __ 
 72
    65
 73
     6
 40
1.299999999999999
 49
0.47
 74
     0
 49
-0.12
 74
     0
 49
0.47
 74
     0
 49
-0.12
 74
     0
 49
0.0
 74
     0
 49
-0.12
 74
     0
  0
LTYPE
  5
10F
330
5
100
AcDbSymbolTableRecord
100
AcDbLinetypeTableRecord
  2
ACAD_ISO12W100
 70
     0
  3
ISO dash double-dot __ . . __ . . __ . . __ . .
 72
    65
 73
     6
 40
0.8299999999999998
 49
0.47
 74
     0
 49
-0.12
 74
     0
 49
0.0
 74
     0
 49
-0.12
 74
     0
 49
0.0
 74
     0
 49
-0.12
 74
     0
  0
LTYPE
  5
110
330
5
100
AcDbSymbolTableRecord
100
AcDbLinetypeTableRecord
  2
ACAD_ISO13W100
 70
     0
  3
ISO double-dash double-dot __ __ . . __ __ . . 
 72
    65
 73
     8
 40
1.419999999999999
 49
0.47
 74
     0
 49
-0.12
 74
     0
 49
0.47
 74
     0
 49
-0.12
 74
     0
 49
0.0
 74
     0
 49
-0.12
 74
     0
 49
0.0
 74
     0
 49
-0.12
 74
     0
  0
LTYPE
  5
111
330
5
100
AcDbSymbolTableRecord
100
AcDbLinetypeTableRecord
  2
ACAD_ISO14W100
 70
     0
  3
ISO dash triple-dot __ . . . __ . . . __ . . . 
 72
    65
 73
     8
 40
0.95
 49
0.47
 74
     0
 49
-0.12
 74
     0
 49
0.0
 74
     0
 49
-0.12
 74
     0
 49
0.0
 74
     0
 49
-0.12
 74
     0
 49
0.0
 74
     0
 49
-0.12
 74
     0
  0
LTYPE
  5
112
330
5
100
AcDbSymbolTableRecord
100
AcDbLinetypeTableRecord
  2
ACAD_ISO15W100
 70
     0
  3
ISO double-dash triple-dot __ __ . . . __ __ . 
 72
    65
 73
    10
 40
1.539999999999999
 49
0.47
 74
     0
 49
-0.12
 74
     0
 49
0.47
 74
     0
 49
-0.12
 74
     0
 49
0.0
 74
     0
 49
-0.12
 74
     0
 49
0.0
 74
     0
 49
-0.12
 74
     0
 49
0.0
 74
     0
 49
-0.12
 74
     0
  0
LTYPE
  5
115
330
5
100
AcDbSymbolTableRecord
100
AcDbLinetypeTableRecord
  2
FENCELINE1
 70
     0
  3
Fenceline circle ----0-----0----0-----0----0---
 72
    65
 73
     4
 40
1.45
 49
0.25
 74
     0
 49
-0.1
 74
     4
 75
   133
340
114
 46
0.1
 50
0.0
 44
-0.1
 45
0.0
 49
-0.1
 74
     0
 49
1.0
 74
     0
  0
LTYPE
  5
116
330
5
100
AcDbSymbolTableRecord
100
AcDbLinetypeTableRecord
  2
FENCELINE2
 70
     0
  3
Fenceline square ----[]-----[]----[]-----[]----
 72
    65
 73
     4
 40
1.45
 49
0.25
 74
     0
 49
-0.1
 74
     4
 75
   132
340
114
 46
0.1
 50
0.0
 44
-0.1
 45
0.0
 49
-0.1
 74
     0
 49
1.0
 74
     0
  0
LTYPE
  5
117
330
5
100
AcDbSymbolTableRecord
100
AcDbLinetypeTableRecord
  2
TRACKS
 70
     0
  3
Tracks -|-|-|-|-|-|-|-|-|-|-|-|-|-|-|-|-|-|-|-|
 72
    65
 73
     2
 40
0.3
 49
0.15
 74
     4
 75
   130
340
114
 46
0.25
 50
0.0
 44
0.0
 45
0.0
 49
0.15
 74
     0
  0
LTYPE
  5
118
330
5
100
AcDbSymbolTableRecord
100
AcDbLinetypeTableRecord
  2
BATTING
 70
     0
  3
Batting SSSSSSSSSSSSSSSSSSSSSSSSSSSSSSSSSSSSSSS
 72
    65
 73
     4
 40
0.4001000000000001
 49
0.0001
 74
     0
 49
-0.1
 74
     4
 75
   134
340
114
 46
0.1
 50
0.0
 44
-0.1
 45
0.0
 49
-0.2
 74
     4
 75
   134
340
114
 46
0.1
 50
180.0
 44
0.1
 45
0.0
 49
-0.1
 74
     0
  0
LTYPE
  5
119
330
5
100
AcDbSymbolTableRecord
100
AcDbLinetypeTableRecord
  2
HOT_WATER_SUPPLY
 70
     0
  3
Hot water supply ---- HW ---- HW ---- HW ----
 72
    65
 73
     3
 40
0.9
 49
0.5
 74
     0
 49
-0.2
 74
     2
 75
     0
340
55
 46
0.1
 50
0.0
 44
-0.1
 45
-0.05
  9
HW
 49
-0.2
 74
     0
  0
LTYPE
  5
11A
330
5
100
AcDbSymbolTableRecord
100
AcDbLinetypeTableRecord
  2
GAS_LINE
 70
     0
  3
Gas line ----GAS----GAS----GAS----GAS----GAS---
 72
    65
 73
     3
 40
0.95
 49
0.5
 74
     0
 49
-0.2
 74
     2
 75
     0
340
55
 46
0.1
 50
0.0
 44
-0.1
 45
-0.05
  9
GAS
 49
-0.25
 74
     0
  0
LTYPE
  5
11B
330
5
100
AcDbSymbolTableRecord
100
AcDbLinetypeTableRecord
  2
ZIGZAG
 70
     0
  3
Zig zag /\/\/\/\/\/\/\/\/\/\/\/\/\/\/\/\/\/\/\/
 72
    65
 73
     4
 40
0.8001000000000001
 49
0.0001
 74
     0
 49
-0.2
 74
     4
 75
   131
340
114
 46
0.2
 50
0.0
 44
-0.2
 45
0.0
 49
-0.4
 74
     4
 75
   131
340
114
 46
0.2
 50
180.0
 44
0.2
 45
0.0
 49
-0.2
 74
     0
  0
ENDTAB
  0
TABLE
  2
LAYER
  5
2
330
0
100
AcDbSymbolTable
 70
    27
  0
LAYER
  5
54
330
2
100
AcDbSymbolTableRecord
100
AcDbLayerTableRecord
  2
0
 70
     0
 62
     7
  6
Continuous
370
    18
390
F
  0
LAYER
  5
75
330
2
100
AcDbSymbolTableRecord
100
AcDbLayerTableRecord
  2
Symbol (ANSI)
 70
     0
 62
     7
  6
Continuous
370
    18
390
F
  0
LAYER
  5
125
330
2
100
AcDbSymbolTableRecord
100
AcDbLayerTableRecord
  2
Dimension (ANSI)
 70
     0
 62
     7
  6
Continuous
370
    13
390
F
  0
LAYER
  5
127
330
2
100
AcDbSymbolTableRecord
100
AcDbLayerTableRecord
  2
Hidden (ANSI)
 70
     0
 62
     7
  6
DASHED
370
    15
390
F
  0
LAYER
  5
130
330
2
100
AcDbSymbolTableRecord
100
AcDbLayerTableRecord
  2
Visible (ANSI)
 70
     0
 62
     7
  6
Continuous
370
    13
390
F
  0
LAYER
  5
131
330
2
100
AcDbSymbolTableRecord
100
AcDbLayerTableRecord
  2
Visible Narrow (ANSI)
 70
     0
 62
     7
  6
Continuous
370
    18
390
F
  0
LAYER
  5
25F
330
2
100
AcDbSymbolTableRecord
100
AcDbLayerTableRecord
  2
Defpoints
 70
     0
 62
     7
  6
Continuous
290
     0
370
    -3
390
F
  0
ENDTAB
  0
TABLE
  2
STYLE
  5
3
330
0
100
AcDbSymbolTable
 70
    18
  0
STYLE
  5
55
330
3
100
AcDbSymbolTableRecord
100
AcDbTextStyleTableRecord
  2
Standard
 70
     0
 40
0.0
 41
1.0
 50
0.0
 71
     0
 42
0.2
  3
txt
  4

  0
STYLE
  5
5A
330
3
100
AcDbSymbolTableRecord
100
AcDbTextStyleTableRecord
  2
Annotative
 70
     0
 40
0.0
 41
1.0
 50
0.0
 71
     0
 42
0.2
  3
txt
  4

1001
AcadAnnotative
1000
AnnotativeData
1002
{
1070
     1
1070
     1
1002
}
  0
STYLE
  5
76
330
3
100
AcDbSymbolTableRecord
100
AcDbTextStyleTableRecord
  2
Note Text (ANSI)
 70
     0
 40
0.0
 41
1.0
 50
0.0
 71
     0
 42
0.2
  3
TAHOMA.TTF
  4

1001
ACAD
1000
Tahoma
1071
      256
  0
STYLE
  5
78
330
3
100
AcDbSymbolTableRecord
100
AcDbTextStyleTableRecord
  2
SANSSERIF
 70
     0
 40
0.125
 41
1.0
 50
0.0
 71
     0
 42
0.125
  3
sas_____.pfb
  4

  0
STYLE
  5
114
330
3
100
AcDbSymbolTableRecord
100
AcDbTextStyleTableRecord
  2

 70
     1
 40
0.0
 41
1.0
 50
0.0
 71
     0
 42
0.2
  3
ltypeshp.shx
  4

  0
STYLE
  5
135
330
3
100
AcDbSymbolTableRecord
100
AcDbTextStyleTableRecord
  2
ITALICC_120
 70
     0
 40
0.0
 41
1.0
 50
0.0
 71
     0
 42
0.2
  3
italicc.shx
  4

  0
STYLE
  5
136
330
3
100
AcDbSymbolTableRecord
100
AcDbTextStyleTableRecord
  2
Label Text (ANSI)
 70
     0
 40
0.0
 41
1.0
 50
0.0
 71
     0
 42
0.2
  3
TAHOMA.TTF
  4

1001
ACAD
1000
Tahoma
1071
      256
  0
STYLE
  5
137
330
3
100
AcDbSymbolTableRecord
100
AcDbTextStyleTableRecord
  2
ROMANS
 70
     0
 40
0.0
 41
1.0
 50
0.0
 71
     0
 42
0.2
  3
romans.shx
  4

  0
STYLE
  5
138
330
3
100
AcDbSymbolTableRecord
100
AcDbTextStyleTableRecord
  2
SANSSERIF_114
 70
     0
 40
0.0
 41
1.0
 50
0.0
 71
     0
 42
0.2
  3
TAHOMA.TTF
  4

1001
ACAD
1000
Tahoma
1071
      256
  0
STYLE
  5
139
330
3
100
AcDbSymbolTableRecord
100
AcDbTextStyleTableRecord
  2
SANSSERIF_117
 70
     0
 40
0.0
 41
1.0
 50
0.0
 71
     0
 42
0.2
  3
TAHOMA.TTF
  4

1001
ACAD
1000
Tahoma
1071
      256
  0
STYLE
  5
13A
330
3
100
AcDbSymbolTableRecord
100
AcDbTextStyleTableRecord
  2
STANDARDAM_ANSI
 70
     0
 40
0.0
 41
1.0
 50
0.0
 71
     0
 42
0.2
  3
txt.shx
  4

  0
STYLE
  5
13B
330
3
100
AcDbSymbolTableRecord
100
AcDbTextStyleTableRecord
  2
StandardAM_ANSI$0
 70
     0
 40
0.0
 41
1.0
 50
0.0
 71
     0
 42
0.2
  3
txt.shx
  4

  0
STYLE
  5
13C
330
3
100
AcDbSymbolTableRecord
100
AcDbTextStyleTableRecord
  2
STANDARDAM_ANSI$3
 70
     0
 40
0.0
 41
1.0
 50
0.0
 71
     0
 42
0.2
  3
txt.shx
  4

  0
STYLE
  5
13D
330
3
100
AcDbSymbolTableRecord
100
AcDbTextStyleTableRecord
  2
STANDARDAM_ANSI$4
 70
     0
 40
0.0
 41
1.0
 50
0.0
 71
     0
 42
0.2
  3
txt.shx
  4

  0
STYLE
  5
13E
330
3
100
AcDbSymbolTableRecord
100
AcDbTextStyleTableRecord
  2
STANDARDAM_ANSI$7
 70
     0
 40
0.0
 41
1.0
 50
0.0
 71
     0
 42
0.2
  3
txt.shx
  4

  0
STYLE
  5
13F
330
3
100
AcDbSymbolTableRecord
100
AcDbTextStyleTableRecord
  2
STANDARDAM_ANSI$SF
 70
     0
 40
0.0
 41
1.0
 50
0.0
 71
     0
 42
0.2
  3
txt.shx
  4

  0
STYLE
  5
140
330
3
100
AcDbSymbolTableRecord
100
AcDbTextStyleTableRecord
  2
STANDARDAM_ANSI$SH
 70
     0
 40
0.0
 41
1.0
 50
0.0
 71
     0
 42
0.2
  3
txt.shx
  4

  0
STYLE
  5
141
330
3
100
AcDbSymbolTableRecord
100
AcDbTextStyleTableRecord
  2
STANDARDSTANDARD
 70
     0
 40
0.0
 41
1.0
 50
0.0
 71
     0
 42
0.2
  3
txt.shx
  4

  0
ENDTAB
  0
TABLE
  2
VIEW
  5
6
330
0
100
AcDbSymbolTable
 70
     0
  0
ENDTAB
  0
TABLE
  2
UCS
  5
7
330
0
100
AcDbSymbolTable
 70
     0
  0
ENDTAB
  0
TABLE
  2
APPID
  5
9
330
0
100
AcDbSymbolTable
 70
     4
  0
APPID
  5
56
330
9
100
AcDbSymbolTableRecord
100
AcDbRegAppTableRecord
  2
ACAD
 70
     0
  0
APPID
  5
5E
330
9
100
AcDbSymbolTableRecord
100
AcDbRegAppTableRecord
  2
AcadAnnotative
 70
     0
  0
APPID
  5
D4B
330
9
100
AcDbSymbolTableRecord
100
AcDbRegAppTableRecord
  2
ACAD_DSTYLE_DIMRADIAL_EXTENSION
 70
     0
  0
APPID
  5
F54
330
9
100
AcDbSymbolTableRecord
100
AcDbRegAppTableRecord
  2
ACAD_MLEADERVER
 70
     0
  0
ENDTAB
  0
TABLE
  2
DIMSTYLE
  5
A
330
0
100
AcDbSymbolTable
 70
    27
100
AcDbDimStyleTable
 71
     2
340
156
340
58
  0
DIMSTYLE
105
58
330
A
100
AcDbSymbolTableRecord
100
AcDbDimStyleTableRecord
  2
STANDARD
 70
     0
 41
0.1800000071525573
 42
0.0625
140
0.1800000071525574
144
1.0
147
0.0900000035762787
176
   256
177
   256
178
   256
274
     3
340
55
371
    -1
372
    -1
  0
DIMSTYLE
105
59
330
A
100
AcDbSymbolTableRecord
100
AcDbDimStyleTableRecord
  2
Annotative
 70
     0
340
55
1001
AcadAnnotative
1000
AnnotativeData
1002
{
1070
     1
1070
     1
1002
}
  0
DIMSTYLE
105
142
330
A
100
AcDbSymbolTableRecord
100
AcDbDimStyleTableRecord
  2
AM_ANSI
 70
     0
  4
 mm
 40
7.692307692307691
 41
0.119999997317791
 42
0.05
 43
0.5
 44
0.1
 45
0.00000001
 78
     4
 79
     2
140
0.1200000047683716
146
0.7099999453624112
147
0.0599999986588955
176
   256
177
   256
178
     2
284
     4
340
13A
371
    -1
372
    -1
  0
DIMSTYLE
105
143
330
A
100
AcDbSymbolTableRecord
100
AcDbDimStyleTableRecord
  2
AM_ANSI$7
 70
     0
  4
 mm
 40
7.692307692307691
 41
0.119999997317791
 42
0.05
 43
0.5
 44
0.1
 45
0.00000001
 78
     4
 79
     2
140
0.1200000047683716
146
0.7099999453624112
147
0.0599999986588955
176
   256
177
   256
178
     2
284
     4
340
13A
371
    -1
372
    -1
  0
DIMSTYLE
105
144
330
A
100
AcDbSymbolTableRecord
100
AcDbDimStyleTableRecord
  2
AM_ANSI$0
 70
     0
  4
 mm
 40
7.692307692307691
 41
0.119999997317791
 42
0.05
 43
0.5
 44
0.1
 45
0.00000001
 78
     4
 79
     2
140
0.1200000047683716
146
0.7099999453624112
147
0.0599999986588955
176
   256
177
   256
178
     2
284
     4
340
13B
371
    -1
372
    -1
  0
DIMSTYLE
105
145
330
A
100
AcDbSymbolTableRecord
100
AcDbDimStyleTableRecord
  2
AM_ANSI$0$7
 70
     0
  4
 mm
 40
7.692307692307691
 41
0.119999997317791
 42
0.05
 43
0.5
 44
0.1
 45
0.00000001
 78
     4
 79
     2
140
0.1200000047683716
146
0.7099999453624112
147
0.0599999986588955
176
   256
177
   256
178
     2
284
     4
340
13B
371
    -1
372
    -1
  0
DIMSTYLE
105
146
330
A
100
AcDbSymbolTableRecord
100
AcDbDimStyleTableRecord
  2
AM_ANSI$3
 70
     0
  4
 mm
 40
7.692307692307691
 41
0.119999997317791
 42
0.05
 43
0.5
 44
0.1
 45
0.00000001
 78
     4
 79
     2
140
0.1200000047683716
146
0.7099999453624112
147
0.0599999986588955
176
   256
177
   256
178
     2
284
     4
340
13C
371
    -1
372
    -1
  0
DIMSTYLE
105
147
330
A
100
AcDbSymbolTableRecord
100
AcDbDimStyleTableRecord
  2
AM_ANSI$3$7
 70
     0
  4
 mm
 40
7.692307692307691
 41
0.119999997317791
 42
0.05
 43
0.5
 44
0.1
 45
0.00000001
 78
     4
 79
     2
140
0.1200000047683716
146
0.7099999453624112
147
0.0599999986588955
176
   256
177
   256
178
     2
284
     4
340
13C
371
    -1
372
    -1
  0
DIMSTYLE
105
148
330
A
100
AcDbSymbolTableRecord
100
AcDbDimStyleTableRecord
  2
AM_ANSI$4
 70
     0
  4
 mm
 40
7.692307692307691
 41
0.119999997317791
 42
0.05
 43
0.5
 44
0.1
 45
0.00000001
 78
     4
 79
     2
140
0.1200000047683716
146
0.7099999453624112
147
0.0599999986588955
176
   256
177
   256
178
     2
284
     4
340
13D
371
    -1
372
    -1
  0
DIMSTYLE
105
149
330
A
100
AcDbSymbolTableRecord
100
AcDbDimStyleTableRecord
  2
AM_ANSI$4$7
 70
     0
  4
 mm
 40
7.692307692307691
 41
0.119999997317791
 42
0.05
 43
0.5
 44
0.1
 45
0.00000001
 78
     4
 79
     2
140
0.1200000047683716
146
0.7099999453624112
147
0.0599999986588955
176
   256
177
   256
178
     2
284
     4
340
13D
371
    -1
372
    -1
  0
DIMSTYLE
105
14A
330
A
100
AcDbSymbolTableRecord
100
AcDbDimStyleTableRecord
  2
AM_ANSI$SF
 70
     0
  4
 mm
 40
7.692307692307691
 41
0.119999997317791
 42
0.05
 43
0.5
 44
0.1
 45
0.00000001
 75
     1
 76
     1
 78
     4
 79
     2
140
0.1200000047683716
146
0.7099999453624112
147
0.0599999986588955
176
   256
177
   256
178
     2
284
     4
340
13F
371
    -1
372
    -1
  0
DIMSTYLE
105
14B
330
A
100
AcDbSymbolTableRecord
100
AcDbDimStyleTableRecord
  2
AM_ANSI$SF$7
 70
     0
  4
 mm
 40
7.692307692307691
 41
0.119999997317791
 42
0.05
 43
0.5
 44
0.1
 45
0.00000001
 75
     1
 76
     1
 78
     4
 79
     2
140
0.1200000047683716
146
0.7099999453624112
147
0.0599999986588955
176
   256
177
   256
178
     2
284
     4
340
13F
371
    -1
372
    -1
  0
DIMSTYLE
105
14C
330
A
100
AcDbSymbolTableRecord
100
AcDbDimStyleTableRecord
  2
AM_ANSI$SH
 70
     0
  4
 mm
 40
7.692307692307691
 41
0.119999997317791
 42
0.05
 43
0.5
 44
0.1
 45
0.00000001
 75
     1
 76
     1
 78
     4
 79
     2
140
0.1200000047683716
146
0.7099999453624112
147
0.0599999986588955
176
   256
177
   256
178
     2
284
     4
340
140
371
    -1
372
    -1
  0
DIMSTYLE
105
14D
330
A
100
AcDbSymbolTableRecord
100
AcDbDimStyleTableRecord
  2
AM_ANSI$SH$7
 70
     0
  4
 mm
 40
7.692307692307691
 41
0.119999997317791
 42
0.05
 43
0.5
 44
0.1
 45
0.00000001
 75
     1
 76
     1
 78
     4
 79
     2
140
0.1200000047683716
146
0.7099999453624112
147
0.0599999986588955
176
   256
177
   256
178
     2
284
     4
340
140
371
    -1
372
    -1
  0
DIMSTYLE
105
14E
330
A
100
AcDbSymbolTableRecord
100
AcDbDimStyleTableRecord
  2
Architectural (ANSI)
 70
     0
 40
7.692307692307691
 41
0.0984251946210861
 43
0.2362204724409449
 44
0.125
 45
0.00000001
 46
0.3937007874015748
 78
     3
 79
     3
140
0.1200000047683716
147
0.031496062992126
171
     1
176
   256
177
   256
178
   256
272
     2
274
     1
276
     2
277
     4
284
    12
285
     4
286
    12
340
76
371
    -1
372
    -1
  0
DIMSTYLE
105
14F
330
A
100
AcDbSymbolTableRecord
100
AcDbDimStyleTableRecord
  2
Architectural (ANSI)$7
 70
     0
 40
7.692307692307691
 41
0.0984251946210861
 43
0.2362204724409449
 44
0.125
 45
0.00000001
 46
0.3937007874015748
 78
     3
 79
     3
140
0.1200000047683716
147
0.031496062992126
171
     1
176
   256
177
   256
178
   256
272
     2
274
     1
276
     2
277
     4
284
    12
285
     4
286
    12
340
76
371
    -1
372
    -1
  0
DIMSTYLE
105
150
330
A
100
AcDbSymbolTableRecord
100
AcDbDimStyleTableRecord
  2
Default - Fraction (ANSI)
 70
     0
 40
7.692307692307691
 41
0.0984251946210861
 43
0.2362204724409449
 44
0.125
 45
0.00000001
 46
0.3937007874015748
 79
     3
140
0.1200000047683716
147
0.031496062992126
171
     1
176
   256
177
   256
178
   256
272
     2
274
     1
276
     2
277
     5
284
    12
285
     4
286
    12
340
76
371
    -1
372
    -1
  0
DIMSTYLE
105
151
330
A
100
AcDbSymbolTableRecord
100
AcDbDimStyleTableRecord
  2
Default - Fraction (ANSI)$7
 70
     0
 40
7.692307692307691
 41
0.0984251946210861
 43
0.2362204724409449
 44
0.125
 45
0.00000001
 46
0.3937007874015748
 79
     3
140
0.1200000047683716
147
0.031496062992126
171
     1
176
   256
177
   256
178
   256
272
     2
274
     1
276
     2
277
     5
284
    12
285
     4
286
    12
340
76
371
    -1
372
    -1
  0
DIMSTYLE
105
152
330
A
100
AcDbSymbolTableRecord
100
AcDbDimStyleTableRecord
  2
Default - mm (ANSI)
 70
     0
 40
7.692307692307691
 41
0.0984251946210861
 42
0.063
 43
0.2362204724409449
 44
0.125
 45
0.00000001
 46
0.3937007874015748
 73
     0
 78
     4
 79
     1
140
0.1200000047683716
143
1.0
144
25.4
147
0.031496062992126
171
     1
176
   256
177
   256
178
   256
179
     1
271
     2
272
     2
274
     1
284
     4
285
     4
340
76
371
    -1
372
    -1
  0
DIMSTYLE
105
153
330
A
100
AcDbSymbolTableRecord
100
AcDbDimStyleTableRecord
  2
Default - mm (ANSI)$7
 70
     0
 40
7.692307692307691
 41
0.0984251946210861
 42
0.063
 43
0.2362204724409449
 44
0.125
 45
0.00000001
 46
0.3937007874015748
 73
     0
 78
     4
 79
     1
140
0.1200000047683716
143
1.0
144
25.4
147
0.031496062992126
171
     1
176
   256
177
   256
178
   256
179
     1
271
     2
272
     2
274
     1
284
     4
285
     4
340
76
371
    -1
372
    -1
  0
DIMSTYLE
105
154
330
A
100
AcDbSymbolTableRecord
100
AcDbDimStyleTableRecord
  2
Default - mm [in] (ANSI)
 70
     0
  4
 in
 40
7.692307692307691
 41
0.0984251946210861
 42
0.063
 43
0.25
 44
0.125
 45
0.00000001
 46
0.3937007874015748
 73
     0
 78
     4
 79
     1
140
0.1200000047683716
143
0.03937
144
25.4
147
0.031496062992126
170
     1
171
     3
176
   256
177
   256
178
   256
179
     1
271
     2
272
     2
274
     3
284
     4
285
     4
286
     4
340
76
371
    -1
372
    -1
  0
DIMSTYLE
105
155
330
A
100
AcDbSymbolTableRecord
100
AcDbDimStyleTableRecord
  2
Default - mm [in] (ANSI)$7
 70
     0
  4
 in
 40
7.692307692307691
 41
0.0984251946210861
 42
0.063
 43
0.25
 44
0.125
 45
0.00000001
 46
0.3937007874015748
 73
     0
 78
     4
 79
     1
140
0.1200000047683716
143
0.03937
144
25.4
147
0.031496062992126
170
     1
171
     3
176
   256
177
   256
178
   256
179
     1
271
     2
272
     2
274
     3
284
     4
285
     4
286
     4
340
76
371
    -1
372
    -1
  0
DIMSTYLE
105
156
102
{ACAD_REACTORS
330
25D
330
34A
330
434
330
534
330
634
330
71E
330
808
330
8F2
330
9DC
330
AC8
330
BC8
330
CB2
330
D6C
330
E25
102
}
330
A
100
AcDbSymbolTableRecord
100
AcDbDimStyleTableRecord
  2
Default (ANSI)
 70
     0
 40
7.692307692307691
 41
0.0984251946210861
 43
0.2362204724409449
 44
0.125
 45
0.00000001
 46
0.3937007874015748
 79
     1
140
0.1200000047683716
147
0.031496062992126
171
     1
176
   256
177
   256
178
   256
271
     2
272
     2
274
     1
284
     4
285
     4
340
76
371
    -1
372
    -1
  0
DIMSTYLE
105
157
330
A
100
AcDbSymbolTableRecord
100
AcDbDimStyleTableRecord
  2
Default (ANSI)$7
 70
     0
 40
7.692307692307691
 41
0.0984251946210861
 43
0.2362204724409449
 44
0.125
 45
0.00000001
 46
0.3937007874015748
 79
     1
140
0.1200000047683716
147
0.031496062992126
171
     1
176
   256
177
   256
178
   256
271
     2
272
     2
274
     1
284
     4
285
     4
340
76
371
    -1
372
    -1
  0
DIMSTYLE
105
158
330
A
100
AcDbSymbolTableRecord
100
AcDbDimStyleTableRecord
  2
Alternate (ANSI)
 70
     0
 40
7.692307692307691
 41
0.0979999974370003
340
55
342
159
  0
DIMSTYLE
105
16B
330
A
100
AcDbSymbolTableRecord
100
AcDbDimStyleTableRecord
  2
Datum (ANSI)
 70
     0
 40
7.692307692307691
 41
0.0979999974370003
340
55
342
159
  0
DIMSTYLE
105
17A
330
A
100
AcDbSymbolTableRecord
100
AcDbDimStyleTableRecord
  2
Large (ANSI)
 70
     0
 40
7.692307692307691
 41
0.1959999948740005
340
55
342
159
  0
ENDTAB
  0
TABLE
  2
BLOCK_RECORD
  5
1
330
0
100
AcDbSymbolTable
 70
    18
  0
BLOCK_RECORD
  5
6C
330
1
100
AcDbSymbolTableRecord
100
AcDbBlockTableRecord
  2
*Model_Space
340
6F
  0
BLOCK_RECORD
  5
68
330
1
100
AcDbSymbolTableRecord
100
AcDbBlockTableRecord
  2
*Paper_Space
340
6B
  0
BLOCK_RECORD
  5
70
330
1
100
AcDbSymbolTableRecord
100
AcDbBlockTableRecord
  2
*Paper_Space0
340
73
  0
BLOCK_RECORD
  5
159
330
1
100
AcDbSymbolTableRecord
100
AcDbBlockTableRecord
  2
_Closed
340
0
  0
BLOCK_RECORD
  5
160
330
1
100
AcDbSymbolTableRecord
100
AcDbBlockTableRecord
  2
DatumFilled45
340
0
  0
BLOCK_RECORD
  5
16C
330
1
100
AcDbSymbolTableRecord
100
AcDbBlockTableRecord
  2
Filled-1
340
0
  0
BLOCK_RECORD
  5
260
330
1
100
AcDbSymbolTableRecord
100
AcDbBlockTableRecord
  2
*D4
340
0
  0
BLOCK_RECORD
  5
34B
330
1
100
AcDbSymbolTableRecord
100
AcDbBlockTableRecord
  2
*D5
340
0
  0
BLOCK_RECORD
  5
435
330
1
100
AcDbSymbolTableRecord
100
AcDbBlockTableRecord
  2
*D6
340
0
  0
BLOCK_RECORD
  5
535
330
1
100
AcDbSymbolTableRecord
100
AcDbBlockTableRecord
  2
*D7
340
0
  0
BLOCK_RECORD
  5
635
330
1
100
AcDbSymbolTableRecord
100
AcDbBlockTableRecord
  2
*D8
340
0
  0
BLOCK_RECORD
  5
71F
330
1
100
AcDbSymbolTableRecord
100
AcDbBlockTableRecord
  2
*D9
340
0
  0
BLOCK_RECORD
  5
809
330
1
100
AcDbSymbolTableRecord
100
AcDbBlockTableRecord
  2
*D10
340
0
  0
BLOCK_RECORD
  5
8F3
330
1
100
AcDbSymbolTableRecord
100
AcDbBlockTableRecord
  2
*D11
340
0
  0
BLOCK_RECORD
  5
9DD
330
1
100
AcDbSymbolTableRecord
100
AcDbBlockTableRecord
  2
*D12
340
0
  0
BLOCK_RECORD
  5
AC9
330
1
100
AcDbSymbolTableRecord
100
AcDbBlockTableRecord
  2
*D13
340
0
  0
BLOCK_RECORD
  5
BC9
330
1
100
AcDbSymbolTableRecord
100
AcDbBlockTableRecord
  2
*D14
340
0
  0
BLOCK_RECORD
  5
CB3
330
1
100
AcDbSymbolTableRecord
100
AcDbBlockTableRecord
  2
*D15
340
0
  0
BLOCK_RECORD
  5
D6D
330
1
100
AcDbSymbolTableRecord
100
AcDbBlockTableRecord
  2
*D16
340
0
  0
BLOCK_RECORD
  5
E26
330
1
100
AcDbSymbolTableRecord
100
AcDbBlockTableRecord
  2
*D17
340
0
  0
ENDTAB
  0
ENDSEC
  0
SECTION
  2
BLOCKS
  0
BLOCK
  5
6D
330
6C
100
AcDbEntity
  8
0
100
AcDbBlockBegin
  2
*Model_Space
 70
     0
 10
0.0
 20
0.0
 30
0.0
  3
*Model_Space
  1

  0
ENDBLK
  5
6E
330
6C
100
AcDbEntity
  8
0
100
AcDbBlockEnd
  0
BLOCK
  5
69
330
68
100
AcDbEntity
 67
     1
  8
0
100
AcDbBlockBegin
  2
*Paper_Space
 70
     0
 10
0.0
 20
0.0
 30
0.0
  3
*Paper_Space
  1

  0
ENDBLK
  5
6A
330
68
100
AcDbEntity
 67
     1
  8
0
100
AcDbBlockEnd
  0
BLOCK
  5
71
330
70
100
AcDbEntity
 67
     1
  8
0
100
AcDbBlockBegin
  2
*Paper_Space0
 70
     0
 10
0.0
 20
0.0
 30
0.0
  3
*Paper_Space0
  1

  0
ENDBLK
  5
72
330
70
100
AcDbEntity
 67
     1
  8
0
100
AcDbBlockEnd
  0
BLOCK
  5
15E
330
159
100
AcDbEntity
  8
0
100
AcDbBlockBegin
  2
_Closed
 70
     0
 10
0.0
 20
0.0
 30
0.0
  3
_Closed
  1

  0
LINE
  5
15A
330
159
100
AcDbEntity
  8
0
  6
ByBlock
 62
     0
370
    -2
100
AcDbLine
 10
-1.0
 20
0.1666666666666666
 30
0.0
 11
0.0
 21
0.0
 31
0.0
  0
LINE
  5
15B
330
159
100
AcDbEntity
  8
0
  6
ByBlock
 62
     0
370
    -2
100
AcDbLine
 10
0.0
 20
0.0
 30
0.0
 11
-1.0
 21
-0.1666666666666666
 31
0.0
  0
LINE
  5
15C
330
159
100
AcDbEntity
  8
0
  6
ByBlock
 62
     0
370
    -2
100
AcDbLine
 10
-1.0
 20
0.1666666666666666
 30
0.0
 11
-1.0
 21
-0.1666666666666666
 31
0.0
  0
LINE
  5
15D
330
159
100
AcDbEntity
  8
0
  6
ByBlock
 62
     0
370
    -2
100
AcDbLine
 10
0.0
 20
0.0
 30
0.0
 11
-1.0
 21
0.0
 31
0.0
  0
ENDBLK
  5
15F
330
159
100
AcDbEntity
  8
0
100
AcDbBlockEnd
  0
BLOCK
  5
161
330
160
100
AcDbEntity
  8
0
100
AcDbBlockBegin
  2
DatumFilled45
 70
     0
 10
0.0
 20
0.0
 30
0.0
  3
DatumFilled45
  1

  0
POLYLINE
  5
163
330
160
100
AcDbEntity
  8
0
 62
     0
100
AcDb2dPolyline
 66
     1
 10
0.0
 20
0.0
 30
0.0
 70
   128
  0
VERTEX
  5
164
330
163
100
AcDbEntity
  8
0
 62
     0
100
AcDbVertex
100
AcDb2dVertex
 10
0.0
 20
0.9999999999999998
 30
0.0
  0
VERTEX
  5
165
330
163
100
AcDbEntity
  8
0
 62
     0
100
AcDbVertex
100
AcDb2dVertex
 10
0.0
 20
-0.9999999999999998
 30
0.0
  0
VERTEX
  5
167
330
163
100
AcDbEntity
  8
0
 62
     0
100
AcDbVertex
100
AcDb2dVertex
 10
-0.9999999999999998
 20
0.0
 30
0.0
  0
VERTEX
  5
168
330
163
100
AcDbEntity
  8
0
 62
     0
100
AcDbVertex
100
AcDb2dVertex
 10
0.0
 20
0.9999999999999998
 30
0.0
  0
SEQEND
  5
166
330
163
100
AcDbEntity
  8
0
 62
     0
  0
SOLID
  5
16A
330
160
100
AcDbEntity
  8
0
 62
     0
100
AcDbTrace
 10
0.0
 20
0.9999999999999998
 30
0.0
 11
0.0
 21
-0.9999999999999998
 31
0.0
 12
-0.9999999999999998
 22
0.0
 32
0.0
 13
0.0
 23
0.9999999999999998
 33
0.0
  0
ENDBLK
  5
162
330
160
100
AcDbEntity
  8
0
100
AcDbBlockEnd
  0
BLOCK
  5
16D
330
16C
100
AcDbEntity
  8
0
100
AcDbBlockBegin
  2
Filled-1
 70
     0
 10
0.0
 20
0.0
 30
0.0
  3
Filled-1
  1

  0
LINE
  5
16F
330
16C
100
AcDbEntity
  8
0
 62
     0
100
AcDbLine
 10
-0.9999999999999998
 20
0.0
 30
0.0
 11
0.0
 21
0.0
 31
0.0
  0
POLYLINE
  5
170
330
16C
100
AcDbEntity
  8
0
 62
     0
100
AcDb2dPolyline
 66
     1
 10
0.0
 20
0.0
 30
0.0
 70
   128
  0
VERTEX
  5
171
330
170
100
AcDbEntity
  8
0
 62
     0
100
AcDbVertex
100
AcDb2dVertex
 10
-0.9999999999999998
 20
-0.0994897959183674
 30
0.0
  0
VERTEX
  5
172
330
170
100
AcDbEntity
  8
0
 62
     0
100
AcDbVertex
100
AcDb2dVertex
 10
0.0
 20
0.0
 30
0.0
  0
VERTEX
  5
174
330
170
100
AcDbEntity
  8
0
 62
     0
100
AcDbVertex
100
AcDb2dVertex
 10
-0.9999999999999998
 20
0.0994897959183674
 30
0.0
  0
VERTEX
  5
175
330
170
100
AcDbEntity
  8
0
 62
     0
100
AcDbVertex
100
AcDb2dVertex
 10
-0.9999999999999998
 20
-0.0994897959183674
 30
0.0
  0
SEQEND
  5
173
330
170
100
AcDbEntity
  8
0
 62
     0
  0
SOLID
  5
176
330
16C
100
AcDbEntity
  8
0
 62
     0
100
AcDbTrace
 10
-0.9999999999999998
 20
-0.0994897959183674
 30
0.0
 11
0.0
 21
0.0
 31
0.0
 12
-0.9999999999999998
 22
0.0994897959183674
 32
0.0
 13
-0.9999999999999998
 23
-0.0994897959183674
 33
0.0
  0
LINE
  5
177
330
16C
100
AcDbEntity
  8
0
 62
     0
100
AcDbLine
 10
-0.9999999999999998
 20
-0.0994897959183674
 30
0.0
 11
0.0
 21
0.0
 31
0.0
  0
LINE
  5
178
330
16C
100
AcDbEntity
  8
0
 62
     0
100
AcDbLine
 10
0.0
 20
0.0
 30
0.0
 11
-0.9999999999999998
 21
0.0994897959183674
 31
0.0
  0
LINE
  5
179
330
16C
100
AcDbEntity
  8
0
 62
     0
100
AcDbLine
 10
-0.9999999999999998
 20
0.0994897959183674
 30
0.0
 11
-0.9999999999999998
 21
-0.0994897959183674
 31
0.0
  0
ENDBLK
  5
16E
330
16C
100
AcDbEntity
  8
0
100
AcDbBlockEnd
  0
BLOCK
  5
261
330
260
100
AcDbEntity
  8
0
100
AcDbBlockBegin
  2
*D4
 70
     1
 10
0.0
 20
0.0
 30
0.0
  3
*D4
  1

  0
LINE
  5
340
330
260
100
AcDbEntity
  8
Dimension (ANSI)
100
AcDbLine
 10
22.87703611444673
 20
10.0138507152552
 30
0.0
 11
4.831154830376472
 21
10.0138507152552
 31
0.0
  0
LINE
  5
341
330
260
100
AcDbEntity
  8
Dimension (ANSI)
100
AcDbLine
 10
24.09503611444672
 20
68.21385071525522
 30
0.0
 11
4.831154830376484
 21
68.21385071525522
 31
0.0
  0
LINE
  5
342
330
260
100
AcDbEntity
  8
Dimension (ANSI)
100
AcDbLine
 10
5.792693291914931
 20
10.77096759695587
 30
0.0
 11
5.792693291914937
 21
38.38895718057808
 31
0.0
  0
LINE
  5
343
330
260
100
AcDbEntity
  8
Dimension (ANSI)
100
AcDbLine
 10
5.792693291914943
 20
67.45673383355455
 30
0.0
 11
5.792693291914937
 21
39.83874424993235
 31
0.0
  0
SOLID
  5
344
330
260
100
AcDbEntity
  8
Dimension (ANSI)
100
AcDbTrace
 10
5.66650714496482
 20
10.77096759695587
 30
0.0
 11
5.918879438865041
 21
10.77096759695587
 31
0.0
 12
5.792693291914931
 22
10.0138507152552
 32
0.0
 13
5.792693291914931
 23
10.0138507152552
 33
0.0
  0
SOLID
  5
345
330
260
100
AcDbEntity
  8
Dimension (ANSI)
100
AcDbTrace
 10
5.666507144964833
 20
67.45673383355455
 30
0.0
 11
5.918879438865054
 21
67.45673383355455
 31
0.0
 12
5.792693291914943
 22
68.21385071525522
 32
0.0
 13
5.792693291914943
 23
68.21385071525522
 33
0.0
  0
MTEXT
  5
346
330
260
100
AcDbEntity
  8
Dimension (ANSI)
100
AcDbMText
 10
4.278512315282458
 20
39.59646684230061
 30
0.0
 40
0.9230769597567043
 41
0.0
 71
     1
 72
     1
  1
\A1;58.20
  7
Note Text (ANSI)
 73
     1
 44
1.0
1001
ACAD
1000
MTEXTBEGIN
1070
    73
1070
     1
1070
    44
1040
1.0
1070
    74
1070
     0
1000
MTEXTEND
  0
POINT
  5
347
330
260
100
AcDbEntity
  8
Defpoints
 62
     0
100
AcDbPoint
 10
23.35780534521596
 20
10.0138507152552
 30
0.0
  0
POINT
  5
348
330
260
100
AcDbEntity
  8
Defpoints
 62
     0
100
AcDbPoint
 10
24.57580534521595
 20
68.21385071525522
 30
0.0
  0
POINT
  5
349
330
260
100
AcDbEntity
  8
Defpoints
 62
     0
100
AcDbPoint
 10
5.792693291914943
 20
68.21385071525522
 30
0.0
  0
ENDBLK
  5
262
330
260
100
AcDbEntity
  8
0
100
AcDbBlockEnd
  0
BLOCK
  5
34C
330
34B
100
AcDbEntity
  8
0
100
AcDbBlockBegin
  2
*D5
 70
     1
 10
0.0
 20
0.0
 30
0.0
  3
*D5
  1

  0
LINE
  5
42A
330
34B
100
AcDbEntity
  8
Dimension (ANSI)
100
AcDbLine
 10
22.85780534521594
 20
68.19461994602441
 30
0.0
 11
22.85780534521594
 21
79.95166816858905
 31
0.0
  0
LINE
  5
42B
330
34B
100
AcDbEntity
  8
Dimension (ANSI)
100
AcDbLine
 10
57.05780534521593
 20
68.19461994602441
 30
0.0
 11
57.05780534521593
 21
79.95166816858905
 31
0.0
  0
LINE
  5
42C
330
34B
100
AcDbEntity
  8
Dimension (ANSI)
100
AcDbLine
 10
23.6149222269166
 20
78.99012970705058
 30
0.0
 11
38.19297789516482
 21
78.99012970705058
 31
0.0
  0
LINE
  5
42D
330
34B
100
AcDbEntity
  8
Dimension (ANSI)
100
AcDbLine
 10
56.30068846351528
 20
78.99012970705058
 30
0.0
 11
41.72263279526705
 21
78.99012970705058
 31
0.0
  0
SOLID
  5
42E
330
34B
100
AcDbEntity
  8
Dimension (ANSI)
100
AcDbTrace
 10
23.6149222269166
 20
79.11631585400069
 30
0.0
 11
23.6149222269166
 21
78.86394356010048
 31
0.0
 12
22.85780534521594
 22
78.99012970705058
 32
0.0
 13
22.85780534521594
 23
78.99012970705058
 33
0.0
  0
SOLID
  5
42F
330
34B
100
AcDbEntity
  8
Dimension (ANSI)
100
AcDbTrace
 10
56.30068846351528
 20
79.11631585400069
 30
0.0
 11
56.30068846351528
 21
78.86394356010048
 31
0.0
 12
57.05780534521593
 22
78.99012970705058
 32
0.0
 13
57.05780534521593
 23
78.99012970705058
 33
0.0
  0
MTEXT
  5
430
330
34B
100
AcDbEntity
  8
Dimension (ANSI)
100
AcDbMText
 10
38.43525530279655
 20
79.47088604169889
 30
0.0
 40
0.9230769597567043
 41
0.0
 71
     1
 72
     1
  1
\A1;34.20
  7
Note Text (ANSI)
 73
     1
 44
1.0
1001
ACAD
1000
MTEXTBEGIN
1070
    73
1070
     1
1070
    44
1040
1.0
1070
    74
1070
     0
1000
MTEXTEND
  0
POINT
  5
431
330
34B
100
AcDbEntity
  8
Defpoints
 62
     0
100
AcDbPoint
 10
22.85780534521594
 20
67.71385071525519
 30
0.0
  0
POINT
  5
432
330
34B
100
AcDbEntity
  8
Defpoints
 62
     0
100
AcDbPoint
 10
57.05780534521593
 20
67.71385071525519
 30
0.0
  0
POINT
  5
433
330
34B
100
AcDbEntity
  8
Defpoints
 62
     0
100
AcDbPoint
 10
57.05780534521593
 20
78.99012970705058
 30
0.0
  0
ENDBLK
  5
34D
330
34B
100
AcDbEntity
  8
0
100
AcDbBlockEnd
  0
BLOCK
  5
436
330
435
100
AcDbEntity
  8
0
100
AcDbBlockBegin
  2
*D6
 70
     1
 10
0.0
 20
0.0
 30
0.0
  3
*D6
  1

  0
LINE
  5
529
330
435
100
AcDbEntity
  8
Dimension (ANSI)
100
AcDbLine
 10
22.89703611444673
 20
10.5338507152552
 30
0.0
 11
19.86416079595708
 21
10.5338507152552
 31
0.0
  0
LINE
  5
52A
330
435
100
AcDbEntity
  8
Dimension (ANSI)
100
AcDbLine
 10
22.89703611444673
 20
11.2838507152552
 30
0.0
 11
19.86416079595708
 21
11.2838507152552
 31
0.0
  0
LINE
  5
52B
330
435
100
AcDbEntity
  8
Dimension (ANSI)
100
AcDbLine
 10
20.82569925749554
 20
12.04096759695586
 30
0.0
 11
20.82569925749554
 21
12.79808447865652
 31
0.0
  0
LINE
  5
52C
330
435
100
AcDbEntity
  8
Dimension (ANSI)
100
AcDbLine
 10
20.82569925749554
 20
9.776733833554537
 30
0.0
 11
20.82569925749554
 21
8.328981499141248
 31
0.0
  0
LINE
  5
52D
330
435
100
AcDbEntity
  8
Dimension (ANSI)
100
AcDbLine
 10
20.82569925749554
 20
8.328981499141248
 30
0.0
 11
20.06858237579488
 21
8.328981499141248
 31
0.0
  0
SOLID
  5
52E
330
435
100
AcDbEntity
  8
Dimension (ANSI)
100
AcDbTrace
 10
20.69951311054543
 20
12.04096759695586
 30
0.0
 11
20.95188540444565
 21
12.04096759695586
 31
0.0
 12
20.82569925749554
 22
11.2838507152552
 32
0.0
 13
20.82569925749554
 23
11.2838507152552
 33
0.0
  0
SOLID
  5
52F
330
435
100
AcDbEntity
  8
Dimension (ANSI)
100
AcDbTrace
 10
20.69951311054543
 20
9.776733833554537
 30
0.0
 11
20.95188540444565
 21
9.776733833554537
 31
0.0
 12
20.82569925749554
 22
10.5338507152552
 32
0.0
 13
20.82569925749554
 23
10.5338507152552
 33
0.0
  0
MTEXT
  5
530
330
435
100
AcDbEntity
  8
Dimension (ANSI)
100
AcDbMText
 10
17.48048682463099
 20
8.80942786839004
 30
0.0
 40
0.9230769597567043
 41
0.0
 71
     1
 72
     1
  1
\A1;0.75
  7
Note Text (ANSI)
 73
     1
 44
1.0
1001
ACAD
1000
MTEXTBEGIN
1070
    73
1070
     1
1070
    44
1040
1.0
1070
    74
1070
     0
1000
MTEXTEND
  0
POINT
  5
531
330
435
100
AcDbEntity
  8
Defpoints
 62
     0
100
AcDbPoint
 10
23.37780534521596
 20
10.5338507152552
 30
0.0
  0
POINT
  5
532
330
435
100
AcDbEntity
  8
Defpoints
 62
     0
100
AcDbPoint
 10
23.37780534521596
 20
11.2838507152552
 30
0.0
  0
POINT
  5
533
330
435
100
AcDbEntity
  8
Defpoints
 62
     0
100
AcDbPoint
 10
20.82569925749554
 20
11.2838507152552
 30
0.0
  0
ENDBLK
  5
437
330
435
100
AcDbEntity
  8
0
100
AcDbBlockEnd
  0
BLOCK
  5
536
330
535
100
AcDbEntity
  8
0
100
AcDbBlockBegin
  2
*D7
 70
     1
 10
0.0
 20
0.0
 30
0.0
  3
*D7
  1

  0
LINE
  5
629
330
535
100
AcDbEntity
  8
Dimension (ANSI)
100
AcDbLine
 10
57.03857457598518
 20
68.21385071525519
 30
0.0
 11
64.94220713979491
 21
68.21385071525519
 31
0.0
  0
LINE
  5
62A
330
535
100
AcDbEntity
  8
Dimension (ANSI)
100
AcDbLine
 10
57.01857457598519
 20
67.69385071525521
 30
0.0
 11
64.94220713979491
 21
67.69385071525521
 31
0.0
  0
LINE
  5
62B
330
535
100
AcDbEntity
  8
Dimension (ANSI)
100
AcDbLine
 10
63.98066867825645
 20
68.97096759695585
 30
0.0
 11
63.98066867825645
 21
69.72808447865651
 31
0.0
  0
LINE
  5
62C
330
535
100
AcDbEntity
  8
Dimension (ANSI)
100
AcDbLine
 10
63.98066867825645
 20
66.93673383355454
 30
0.0
 11
63.98066867825645
 21
65.48842047177615
 31
0.0
  0
LINE
  5
62D
330
535
100
AcDbEntity
  8
Dimension (ANSI)
100
AcDbLine
 10
63.98066867825645
 20
65.48842047177615
 30
0.0
 11
63.22355179655579
 21
65.48842047177615
 31
0.0
  0
SOLID
  5
62E
330
535
100
AcDbEntity
  8
Dimension (ANSI)
100
AcDbTrace
 10
63.85448253130634
 20
68.97096759695585
 30
0.0
 11
64.10685482520655
 21
68.97096759695585
 31
0.0
 12
63.98066867825645
 22
68.21385071525519
 32
0.0
 13
63.98066867825645
 23
68.21385071525519
 33
0.0
  0
SOLID
  5
62F
330
535
100
AcDbEntity
  8
Dimension (ANSI)
100
AcDbTrace
 10
63.85448253130634
 20
66.93673383355454
 30
0.0
 11
64.10685482520655
 21
66.93673383355454
 31
0.0
 12
63.98066867825645
 22
67.69385071525521
 32
0.0
 13
63.98066867825645
 23
67.69385071525521
 33
0.0
  0
MTEXT
  5
630
330
535
100
AcDbEntity
  8
Dimension (ANSI)
100
AcDbMText
 10
60.62491742180837
 20
65.96917680642447
 30
0.0
 40
0.9230769597567043
 41
0.0
 71
     1
 72
     1
  1
\A1;0.52
  7
Note Text (ANSI)
 73
     1
 44
1.0
1001
ACAD
1000
MTEXTBEGIN
1070
    73
1070
     1
1070
    44
1040
1.0
1070
    74
1070
     0
1000
MTEXTEND
  0
POINT
  5
631
330
535
100
AcDbEntity
  8
Defpoints
 62
     0
100
AcDbPoint
 10
56.55780534521595
 20
68.21385071525519
 30
0.0
  0
POINT
  5
632
330
535
100
AcDbEntity
  8
Defpoints
 62
     0
100
AcDbPoint
 10
56.53780534521596
 20
67.69385071525521
 30
0.0
  0
POINT
  5
633
330
535
100
AcDbEntity
  8
Defpoints
 62
     0
100
AcDbPoint
 10
63.98066867825645
 20
67.69385071525521
 30
0.0
  0
ENDBLK
  5
537
330
535
100
AcDbEntity
  8
0
100
AcDbBlockEnd
  0
BLOCK
  5
636
330
635
100
AcDbEntity
  8
0
100
AcDbBlockBegin
  2
*D8
 70
     1
 10
0.0
 20
0.0
 30
0.0
  3
*D8
  1

  0
LINE
  5
714
330
635
100
AcDbEntity
  8
Dimension (ANSI)
100
AcDbLine
 10
57.05780534521593
 20
68.19461994602441
 30
0.0
 11
57.05780534521593
 21
73.37979862561255
 31
0.0
  0
LINE
  5
715
330
635
100
AcDbEntity
  8
Dimension (ANSI)
100
AcDbLine
 10
56.53780534521596
 20
68.17461994602443
 30
0.0
 11
56.53780534521596
 21
73.37979862561255
 31
0.0
  0
LINE
  5
716
330
635
100
AcDbEntity
  8
Dimension (ANSI)
100
AcDbLine
 10
55.7806884635153
 20
72.41826016407408
 30
0.0
 11
55.02357158181464
 21
72.41826016407408
 31
0.0
  0
LINE
  5
717
330
635
100
AcDbEntity
  8
Dimension (ANSI)
100
AcDbLine
 10
57.8149222269166
 20
72.41826016407408
 30
0.0
 11
59.74454904236144
 21
72.41826016407408
 31
0.0
  0
SOLID
  5
718
330
635
100
AcDbEntity
  8
Dimension (ANSI)
100
AcDbTrace
 10
55.7806884635153
 20
72.54444631102419
 30
0.0
 11
55.7806884635153
 21
72.29207401712398
 31
0.0
 12
56.53780534521596
 22
72.41826016407408
 32
0.0
 13
56.53780534521596
 23
72.41826016407408
 33
0.0
  0
SOLID
  5
719
330
635
100
AcDbEntity
  8
Dimension (ANSI)
100
AcDbTrace
 10
57.8149222269166
 20
72.54444631102419
 30
0.0
 11
57.8149222269166
 21
72.29207401712398
 31
0.0
 12
57.05780534521593
 22
72.41826016407408
 32
0.0
 13
57.05780534521593
 23
72.41826016407408
 33
0.0
  0
MTEXT
  5
71A
330
635
100
AcDbEntity
  8
Dimension (ANSI)
100
AcDbMText
 10
59.98682644999318
 20
72.89901649872239
 30
0.0
 40
0.9230769597567043
 41
0.0
 71
     1
 72
     1
  1
\A1;0.52
  7
Note Text (ANSI)
 73
     1
 44
1.0
1001
ACAD
1000
MTEXTBEGIN
1070
    73
1070
     1
1070
    44
1040
1.0
1070
    74
1070
     0
1000
MTEXTEND
  0
POINT
  5
71B
330
635
100
AcDbEntity
  8
Defpoints
 62
     0
100
AcDbPoint
 10
57.05780534521593
 20
67.71385071525519
 30
0.0
  0
POINT
  5
71C
330
635
100
AcDbEntity
  8
Defpoints
 62
     0
100
AcDbPoint
 10
56.53780534521596
 20
67.69385071525521
 30
0.0
  0
POINT
  5
71D
330
635
100
AcDbEntity
  8
Defpoints
 62
     0
100
AcDbPoint
 10
56.53780534521596
 20
72.41826016407408
 30
0.0
  0
ENDBLK
  5
637
330
635
100
AcDbEntity
  8
0
100
AcDbBlockEnd
  0
BLOCK
  5
720
330
71F
100
AcDbEntity
  8
0
100
AcDbBlockBegin
  2
*D9
 70
     1
 10
0.0
 20
0.0
 30
0.0
  3
*D9
  1

  0
LINE
  5
7FE
330
71F
100
AcDbEntity
  8
Dimension (ANSI)
100
AcDbLine
 10
22.89703611444673
 20
10.5338507152552
 30
0.0
 11
16.23181051269318
 21
10.5338507152552
 31
0.0
  0
LINE
  5
7FF
330
71F
100
AcDbEntity
  8
Dimension (ANSI)
100
AcDbLine
 10
22.89703611444673
 20
39.1138507152552
 30
0.0
 11
16.23181051269319
 21
39.1138507152552
 31
0.0
  0
LINE
  5
800
330
71F
100
AcDbEntity
  8
Dimension (ANSI)
100
AcDbLine
 10
17.19334897423164
 20
11.29096759695586
 30
0.0
 11
17.19334897423165
 21
24.09895718057806
 31
0.0
  0
LINE
  5
801
330
71F
100
AcDbEntity
  8
Dimension (ANSI)
100
AcDbLine
 10
17.19334897423165
 20
38.35673383355454
 30
0.0
 11
17.19334897423165
 21
25.54874424993233
 31
0.0
  0
SOLID
  5
802
330
71F
100
AcDbEntity
  8
Dimension (ANSI)
100
AcDbTrace
 10
17.06716282728153
 20
11.29096759695586
 30
0.0
 11
17.31953512118175
 21
11.29096759695586
 31
0.0
 12
17.19334897423164
 22
10.5338507152552
 32
0.0
 13
17.19334897423164
 23
10.5338507152552
 33
0.0
  0
SOLID
  5
803
330
71F
100
AcDbEntity
  8
Dimension (ANSI)
100
AcDbTrace
 10
17.06716282728153
 20
38.35673383355454
 30
0.0
 11
17.31953512118176
 21
38.35673383355454
 31
0.0
 12
17.19334897423165
 22
39.1138507152552
 32
0.0
 13
17.19334897423165
 23
39.1138507152552
 33
0.0
  0
MTEXT
  5
804
330
71F
100
AcDbEntity
  8
Dimension (ANSI)
100
AcDbMText
 10
15.32797719994828
 20
25.3064668423006
 30
0.0
 40
0.9230769597567043
 41
0.0
 71
     1
 72
     1
  1
\A1;28.580
  7
Note Text (ANSI)
 73
     1
 44
1.0
1001
ACAD
1000
MTEXTBEGIN
1070
    73
1070
     1
1070
    44
1040
1.0
1070
    74
1070
     0
1000
MTEXTEND
  0
POINT
  5
805
330
71F
100
AcDbEntity
  8
Defpoints
 62
     0
100
AcDbPoint
 10
23.37780534521596
 20
10.5338507152552
 30
0.0
  0
POINT
  5
806
330
71F
100
AcDbEntity
  8
Defpoints
 62
     0
100
AcDbPoint
 10
23.37780534521596
 20
39.1138507152552
 30
0.0
  0
POINT
  5
807
330
71F
100
AcDbEntity
  8
Defpoints
 62
     0
100
AcDbPoint
 10
17.19334897423165
 20
39.1138507152552
 30
0.0
  0
ENDBLK
  5
721
330
71F
100
AcDbEntity
  8
0
100
AcDbBlockEnd
  0
BLOCK
  5
80A
330
809
100
AcDbEntity
  8
0
100
AcDbBlockBegin
  2
*D10
 70
     1
 10
0.0
 20
0.0
 30
0.0
  3
*D10
  1

  0
LINE
  5
8E8
330
809
100
AcDbEntity
  8
Dimension (ANSI)
100
AcDbLine
 10
22.89703611444673
 20
10.5338507152552
 30
0.0
 11
11.33447609948281
 21
10.5338507152552
 31
0.0
  0
LINE
  5
8E9
330
809
100
AcDbEntity
  8
Dimension (ANSI)
100
AcDbLine
 10
22.89703611444673
 20
67.69385071525519
 30
0.0
 11
11.33447609948282
 21
67.69385071525519
 31
0.0
  0
LINE
  5
8EA
330
809
100
AcDbEntity
  8
Dimension (ANSI)
100
AcDbLine
 10
12.29601456102127
 20
11.29096759695586
 30
0.0
 11
12.29601456102128
 21
38.39112693837467
 31
0.0
  0
LINE
  5
8EB
330
809
100
AcDbEntity
  8
Dimension (ANSI)
100
AcDbLine
 10
12.29601456102129
 20
66.93673383355452
 30
0.0
 11
12.29601456102128
 21
39.83657449213573
 31
0.0
  0
SOLID
  5
8EC
330
809
100
AcDbEntity
  8
Dimension (ANSI)
100
AcDbTrace
 10
12.16982841407116
 20
11.29096759695586
 30
0.0
 11
12.42220070797138
 21
11.29096759695586
 31
0.0
 12
12.29601456102127
 22
10.5338507152552
 32
0.0
 13
12.29601456102127
 23
10.5338507152552
 33
0.0
  0
SOLID
  5
8ED
330
809
100
AcDbEntity
  8
Dimension (ANSI)
100
AcDbTrace
 10
12.16982841407118
 20
66.93673383355452
 30
0.0
 11
12.4222007079714
 21
66.93673383355452
 31
0.0
 12
12.29601456102129
 22
67.69385071525519
 32
0.0
 13
12.29601456102129
 23
67.69385071525519
 33
0.0
  0
MTEXT
  5
8EE
330
809
100
AcDbEntity
  8
Dimension (ANSI)
100
AcDbMText
 10
10.43529226773064
 20
39.59429708450399
 30
0.0
 40
0.9230769597567043
 41
0.0
 71
     1
 72
     1
  1
\A1;57.160
  7
Note Text (ANSI)
 73
     1
 44
1.0
1001
ACAD
1000
MTEXTBEGIN
1070
    73
1070
     1
1070
    44
1040
1.0
1070
    74
1070
     0
1000
MTEXTEND
  0
POINT
  5
8EF
330
809
100
AcDbEntity
  8
Defpoints
 62
     0
100
AcDbPoint
 10
23.37780534521596
 20
10.5338507152552
 30
0.0
  0
POINT
  5
8F0
330
809
100
AcDbEntity
  8
Defpoints
 62
     0
100
AcDbPoint
 10
23.37780534521596
 20
67.69385071525519
 30
0.0
  0
POINT
  5
8F1
330
809
100
AcDbEntity
  8
Defpoints
 62
     0
100
AcDbPoint
 10
12.29601456102129
 20
67.69385071525519
 30
0.0
  0
ENDBLK
  5
80B
330
809
100
AcDbEntity
  8
0
100
AcDbBlockEnd
  0
BLOCK
  5
8F4
330
8F3
100
AcDbEntity
  8
0
100
AcDbBlockBegin
  2
*D11
 70
     1
 10
0.0
 20
0.0
 30
0.0
  3
*D11
  1

  0
LINE
  5
9D2
330
8F3
100
AcDbEntity
  8
Dimension (ANSI)
100
AcDbLine
 10
56.53780534521596
 20
68.17461994602443
 30
0.0
 11
56.53780534521596
 21
73.37979862561256
 31
0.0
  0
LINE
  5
9D3
330
8F3
100
AcDbEntity
  8
Dimension (ANSI)
100
AcDbLine
 10
39.95780534521594
 20
68.17461994602442
 30
0.0
 11
39.95780534521594
 21
73.37979862561256
 31
0.0
  0
LINE
  5
9D4
330
8F3
100
AcDbEntity
  8
Dimension (ANSI)
100
AcDbLine
 10
55.7806884635153
 20
72.4182601640741
 30
0.0
 11
50.31918857538776
 21
72.4182601640741
 31
0.0
  0
LINE
  5
9D5
330
8F3
100
AcDbEntity
  8
Dimension (ANSI)
100
AcDbLine
 10
40.71492222691659
 20
72.4182601640741
 30
0.0
 11
46.17642211504415
 21
72.4182601640741
 31
0.0
  0
SOLID
  5
9D6
330
8F3
100
AcDbEntity
  8
Dimension (ANSI)
100
AcDbTrace
 10
55.7806884635153
 20
72.5444463110242
 30
0.0
 11
55.7806884635153
 21
72.29207401712399
 31
0.0
 12
56.53780534521596
 22
72.4182601640741
 32
0.0
 13
56.53780534521596
 23
72.4182601640741
 33
0.0
  0
SOLID
  5
9D7
330
8F3
100
AcDbEntity
  8
Dimension (ANSI)
100
AcDbTrace
 10
40.71492222691659
 20
72.5444463110242
 30
0.0
 11
40.71492222691659
 21
72.29207401712399
 31
0.0
 12
39.95780534521594
 22
72.4182601640741
 32
0.0
 13
39.95780534521594
 23
72.4182601640741
 33
0.0
  0
MTEXT
  5
9D8
330
8F3
100
AcDbEntity
  8
Dimension (ANSI)
100
AcDbMText
 10
46.41869952267589
 20
72.90087629111948
 30
0.0
 40
0.9230769597567043
 41
0.0
 71
     1
 72
     1
  1
\A1;16.580
  7
Note Text (ANSI)
 73
     1
 44
1.0
1001
ACAD
1000
MTEXTBEGIN
1070
    73
1070
     1
1070
    44
1040
1.0
1070
    74
1070
     0
1000
MTEXTEND
  0
POINT
  5
9D9
330
8F3
100
AcDbEntity
  8
Defpoints
 62
     0
100
AcDbPoint
 10
56.53780534521596
 20
67.69385071525521
 30
0.0
  0
POINT
  5
9DA
330
8F3
100
AcDbEntity
  8
Defpoints
 62
     0
100
AcDbPoint
 10
39.95780534521594
 20
67.69385071525519
 30
0.0
  0
POINT
  5
9DB
330
8F3
100
AcDbEntity
  8
Defpoints
 62
     0
100
AcDbPoint
 10
39.95780534521594
 20
72.4182601640741
 30
0.0
  0
ENDBLK
  5
8F5
330
8F3
100
AcDbEntity
  8
0
100
AcDbBlockEnd
  0
BLOCK
  5
9DE
330
9DD
100
AcDbEntity
  8
0
100
AcDbBlockBegin
  2
*D12
 70
     1
 10
0.0
 20
0.0
 30
0.0
  3
*D12
  1

  0
LINE
  5
ABC
330
9DD
100
AcDbEntity
  8
Dimension (ANSI)
100
AcDbLine
 10
74.40798339449244
 20
68.69461994602442
 30
0.0
 11
74.40798339449244
 21
72.18179862561257
 31
0.0
  0
LINE
  5
ABD
330
9DD
100
AcDbEntity
  8
Dimension (ANSI)
100
AcDbLine
 10
75.18198339449208
 20
68.69461994602442
 30
0.0
 11
75.18198339449208
 21
72.18179862561257
 31
0.0
  0
LINE
  5
ABE
330
9DD
100
AcDbEntity
  8
Dimension (ANSI)
100
AcDbLine
 10
75.93910027619275
 20
71.2202601640741
 30
0.0
 11
76.6962171578934
 21
71.2202601640741
 31
0.0
  0
LINE
  5
ABF
330
9DD
100
AcDbEntity
  8
Dimension (ANSI)
100
AcDbLine
 10
73.65086651279177
 20
71.2202601640741
 30
0.0
 11
72.502547795128
 21
71.2202601640741
 31
0.0
  0
SOLID
  5
AC0
330
9DD
100
AcDbEntity
  8
Dimension (ANSI)
100
AcDbTrace
 10
75.93910027619275
 20
71.34644631102421
 30
0.0
 11
75.93910027619275
 21
71.094074017124
 31
0.0
 12
75.18198339449208
 22
71.2202601640741
 32
0.0
 13
75.18198339449208
 23
71.2202601640741
 33
0.0
  0
SOLID
  5
AC1
330
9DD
100
AcDbEntity
  8
Dimension (ANSI)
100
AcDbTrace
 10
73.65086651279177
 20
71.34644631102421
 30
0.0
 11
73.65086651279177
 21
71.094074017124
 31
0.0
 12
74.40798339449244
 22
71.2202601640741
 32
0.0
 13
74.40798339449244
 23
71.2202601640741
 33
0.0
  0
MTEXT
  5
AC2
330
9DD
100
AcDbEntity
  8
Dimension (ANSI)
100
AcDbMText
 10
69.8939945275961
 20
71.70070653332288
 30
0.0
 40
0.9230769597567043
 41
0.0
 71
     1
 72
     1
  1
\A1;0.77
  7
Note Text (ANSI)
 73
     1
 44
1.0
1001
ACAD
1000
MTEXTBEGIN
1070
    73
1070
     1
1070
    44
1040
1.0
1070
    74
1070
     0
1000
MTEXTEND
  0
POINT
  5
AC3
330
9DD
100
AcDbEntity
  8
Defpoints
 62
     0
100
AcDbPoint
 10
74.40798339449244
 20
68.21385071525519
 30
0.0
  0
POINT
  5
AC4
330
9DD
100
AcDbEntity
  8
Defpoints
 62
     0
100
AcDbPoint
 10
75.18198339449208
 20
68.21385071525519
 30
0.0
  0
POINT
  5
AC5
330
9DD
100
AcDbEntity
  8
Defpoints
 62
     0
100
AcDbPoint
 10
75.18198339449208
 20
71.2202601640741
 30
0.0
  0
ENDBLK
  5
9DF
330
9DD
100
AcDbEntity
  8
0
100
AcDbBlockEnd
  0
BLOCK
  5
ACA
330
AC9
100
AcDbEntity
  8
0
100
AcDbBlockBegin
  2
*D13
 70
     1
 10
0.0
 20
0.0
 30
0.0
  3
*D13
  1

  0
LINE
  5
BBD
330
AC9
100
AcDbEntity
  8
Dimension (ANSI)
100
AcDbLine
 10
57.03857457598519
 20
10.0138507152552
 30
0.0
 11
60.32285649723895
 21
10.0138507152552
 31
0.0
  0
LINE
  5
BBE
330
AC9
100
AcDbEntity
  8
Dimension (ANSI)
100
AcDbLine
 10
57.53857457598519
 20
10.5138507152552
 30
0.0
 11
60.32285649723895
 21
10.5138507152552
 31
0.0
  0
LINE
  5
BBF
330
AC9
100
AcDbEntity
  8
Dimension (ANSI)
100
AcDbLine
 10
59.3613180357005
 20
9.256733833554537
 30
0.0
 11
59.3613180357005
 21
8.499616951853875
 31
0.0
  0
LINE
  5
BC0
330
AC9
100
AcDbEntity
  8
Dimension (ANSI)
100
AcDbLine
 10
59.3613180357005
 20
11.27096759695586
 30
0.0
 11
59.3613180357005
 21
12.71871993136914
 31
0.0
  0
LINE
  5
BC1
330
AC9
100
AcDbEntity
  8
Dimension (ANSI)
100
AcDbLine
 10
59.3613180357005
 20
12.71871993136914
 30
0.0
 11
60.11843491740116
 21
12.71871993136914
 31
0.0
  0
SOLID
  5
BC2
330
AC9
100
AcDbEntity
  8
Dimension (ANSI)
100
AcDbTrace
 10
59.23513188875038
 20
9.256733833554537
 30
0.0
 11
59.48750418265061
 21
9.256733833554537
 31
0.0
 12
59.3613180357005
 22
10.0138507152552
 32
0.0
 13
59.3613180357005
 23
10.0138507152552
 33
0.0
  0
SOLID
  5
BC3
330
AC9
100
AcDbEntity
  8
Dimension (ANSI)
100
AcDbTrace
 10
59.23513188875038
 20
11.27096759695586
 30
0.0
 11
59.48750418265061
 21
11.27096759695586
 31
0.0
 12
59.3613180357005
 22
10.5138507152552
 32
0.0
 13
59.3613180357005
 23
10.5138507152552
 33
0.0
  0
MTEXT
  5
BC4
330
AC9
100
AcDbEntity
  8
Dimension (ANSI)
100
AcDbMText
 10
60.3607123250329
 20
13.19916630061794
 30
0.0
 40
0.9230769597567043
 41
0.0
 71
     1
 72
     1
  1
\A1;0.50
  7
Note Text (ANSI)
 73
     1
 44
1.0
1001
ACAD
1000
MTEXTBEGIN
1070
    73
1070
     1
1070
    44
1040
1.0
1070
    74
1070
     0
1000
MTEXTEND
  0
POINT
  5
BC5
330
AC9
100
AcDbEntity
  8
Defpoints
 62
     0
100
AcDbPoint
 10
56.55780534521595
 20
10.0138507152552
 30
0.0
  0
POINT
  5
BC6
330
AC9
100
AcDbEntity
  8
Defpoints
 62
     0
100
AcDbPoint
 10
57.05780534521595
 20
10.5138507152552
 30
0.0
  0
POINT
  5
BC7
330
AC9
100
AcDbEntity
  8
Defpoints
 62
     0
100
AcDbPoint
 10
59.3613180357005
 20
10.5138507152552
 30
0.0
  0
ENDBLK
  5
ACB
330
AC9
100
AcDbEntity
  8
0
100
AcDbBlockEnd
  0
BLOCK
  5
BCA
330
BC9
100
AcDbEntity
  8
0
100
AcDbBlockBegin
  2
*D14
 70
     1
 10
0.0
 20
0.0
 30
0.0
  3
*D14
  1

  0
LINE
  5
CA8
330
BC9
100
AcDbEntity
  8
Dimension (ANSI)
100
AcDbLine
 10
57.05780534521595
 20
10.03308148448597
 30
0.0
 11
57.05780534521595
 21
4.327902804897837
 31
0.0
  0
LINE
  5
CA9
330
BC9
100
AcDbEntity
  8
Dimension (ANSI)
100
AcDbLine
 10
56.55780534521595
 20
9.53308148448597
 30
0.0
 11
56.55780534521595
 21
4.327902804897837
 31
0.0
  0
LINE
  5
CAA
330
BC9
100
AcDbEntity
  8
Dimension (ANSI)
100
AcDbLine
 10
57.81492222691661
 20
5.289441266436298
 30
0.0
 11
58.57203910861727
 21
5.289441266436298
 31
0.0
  0
LINE
  5
CAB
330
BC9
100
AcDbEntity
  8
Dimension (ANSI)
100
AcDbLine
 10
55.80068846351529
 20
5.289441266436298
 30
0.0
 11
54.64958005725589
 21
5.289441266436298
 31
0.0
  0
SOLID
  5
CAC
330
BC9
100
AcDbEntity
  8
Dimension (ANSI)
100
AcDbTrace
 10
57.81492222691661
 20
5.415627413386409
 30
0.0
 11
57.81492222691661
 21
5.163255119486188
 31
0.0
 12
57.05780534521595
 22
5.289441266436298
 32
0.0
 13
57.05780534521595
 23
5.289441266436298
 33
0.0
  0
SOLID
  5
CAD
330
BC9
100
AcDbEntity
  8
Dimension (ANSI)
100
AcDbTrace
 10
55.80068846351529
 20
5.415627413386409
 30
0.0
 11
55.80068846351529
 21
5.163255119486188
 31
0.0
 12
56.55780534521595
 22
5.289441266436298
 32
0.0
 13
56.55780534521595
 23
5.289441266436298
 33
0.0
  0
MTEXT
  5
CAE
330
BC9
100
AcDbEntity
  8
Dimension (ANSI)
100
AcDbMText
 10
52.04660616691526
 20
5.769887635685087
 30
0.0
 40
0.9230769597567043
 41
0.0
 71
     1
 72
     1
  1
\A1;0.50
  7
Note Text (ANSI)
 73
     1
 44
1.0
1001
ACAD
1000
MTEXTBEGIN
1070
    73
1070
     1
1070
    44
1040
1.0
1070
    74
1070
     0
1000
MTEXTEND
  0
POINT
  5
CAF
330
BC9
100
AcDbEntity
  8
Defpoints
 62
     0
100
AcDbPoint
 10
57.05780534521595
 20
10.5138507152552
 30
0.0
  0
POINT
  5
CB0
330
BC9
100
AcDbEntity
  8
Defpoints
 62
     0
100
AcDbPoint
 10
56.55780534521595
 20
10.0138507152552
 30
0.0
  0
POINT
  5
CB1
330
BC9
100
AcDbEntity
  8
Defpoints
 62
     0
100
AcDbPoint
 10
56.55780534521595
 20
5.289441266436298
 30
0.0
  0
ENDBLK
  5
BCB
330
BC9
100
AcDbEntity
  8
0
100
AcDbBlockEnd
  0
BLOCK
  5
CB4
330
CB3
100
AcDbEntity
  8
0
100
AcDbBlockBegin
  2
*D15
 70
     1
 10
0.0
 20
0.0
 30
0.0
  3
*D15
  1

  0
LINE
  5
D64
330
CB3
100
AcDbEntity
  8
Dimension (ANSI)
100
AcDbLine
 10
18.21611337814702
 20
75.00224518392778
 30
0.0
 11
19.15830183138172
 21
75.00224518392778
 31
0.0
  0
LINE
  5
D65
330
CB3
100
AcDbEntity
  8
Dimension (ANSI)
100
AcDbLine
 10
19.15830183138172
 20
75.00224518392778
 30
0.0
 11
22.87424690436543
 21
68.566039519388
 31
0.0
  0
MTEXT
  5
D66
102
{ACAD_XDICTIONARY
360
F5B
102
}
330
CB3
100
AcDbEntity
  8
Dimension (ANSI)
100
AcDbMText
 10
17.97383597051529
 20
75.70612494532722
 30
0.0
 40
0.9230769597567043
 41
0.0
 71
     3
 72
     1
  1
\A1;\U+22050.50{\PTYP.(8PL.)}
  7
Note Text (ANSI)
 73
     1
 44
1.0
1001
ACAD
1000
MTEXTBEGIN
1070
    73
1070
     1
1070
    44
1040
1.0
1070
    74
1070
     0
1000
MTEXTEND
  0
SOLID
  5
D67
330
CB3
100
AcDbEntity
  8
Dimension (ANSI)
100
AcDbTrace
 10
22.98352731322989
 20
68.62913259286308
 30
0.0
 11
22.76496649550097
 21
68.50294644591293
 31
0.0
 12
23.2528053452159
 22
67.91035706620125
 32
0.0
 13
23.2528053452159
 23
67.91035706620125
 33
0.0
  0
LINE
  5
D68
330
CB3
100
AcDbEntity
  8
Dimension (ANSI)
100
AcDbLine
 10
22.68549765290826
 20
67.69385071525516
 30
0.0
 11
24.07011303752364
 21
67.69385071525516
 31
0.0
  0
LINE
  5
D69
330
CB3
100
AcDbEntity
  8
Dimension (ANSI)
100
AcDbLine
 10
23.37780534521594
 20
67.00154302294747
 30
0.0
 11
23.37780534521596
 21
68.38615840756287
 31
0.0
  0
POINT
  5
D6A
330
CB3
100
AcDbEntity
  8
Defpoints
 62
     0
100
AcDbPoint
 10
23.2528053452159
 20
67.91035706620125
 30
0.0
  0
POINT
  5
D6B
330
CB3
100
AcDbEntity
  8
Defpoints
 62
     0
100
AcDbPoint
 10
23.502805345216
 20
67.47734436430909
 30
0.0
  0
ENDBLK
  5
CB5
330
CB3
100
AcDbEntity
  8
0
100
AcDbBlockEnd
  0
BLOCK
  5
D6E
330
D6D
100
AcDbEntity
  8
0
100
AcDbBlockBegin
  2
*D16
 70
     1
 10
0.0
 20
0.0
 30
0.0
  3
*D16
  1

  0
LINE
  5
E1D
330
D6D
100
AcDbEntity
  8
Dimension (ANSI)
100
AcDbLine
 10
27.0577234859816
 20
6.54170713220314
 30
0.0
 11
26.11568321942839
 21
6.541707132203138
 31
0.0
  0
LINE
  5
E1E
330
D6D
100
AcDbEntity
  8
Dimension (ANSI)
100
AcDbLine
 10
26.11568321942839
 20
6.541707132203138
 30
0.0
 11
23.83448878606645
 21
10.49285179272715
 31
0.0
  0
MTEXT
  5
E1F
102
{ACAD_XDICTIONARY
360
F5D
102
}
330
D6D
100
AcDbEntity
  8
Dimension (ANSI)
100
AcDbMText
 10
27.30000089361335
 20
7.245586893602572
 30
0.0
 40
0.9230769597567043
 41
0.0
 71
     1
 72
     1
  1
\A1;\U+22050.31{\PTYP. (4PL.)}
  7
Note Text (ANSI)
 73
     1
 44
1.0
1001
ACAD
1000
MTEXTBEGIN
1070
    73
1070
     1
1070
    44
1040
1.0
1070
    74
1070
     0
1000
MTEXTEND
  0
SOLID
  5
E20
330
D6D
100
AcDbEntity
  8
Dimension (ANSI)
100
AcDbTrace
 10
23.94376919493091
 20
10.55594486620223
 30
0.0
 11
23.72520837720199
 21
10.42975871925206
 31
0.0
 12
23.45593034521597
 22
11.14853424591389
 32
0.0
 13
23.45593034521597
 23
11.14853424591389
 33
0.0
  0
LINE
  5
E21
330
D6D
100
AcDbEntity
  8
Dimension (ANSI)
100
AcDbLine
 10
22.68549765290824
 20
11.28385071525519
 30
0.0
 11
24.07011303752363
 21
11.28385071525519
 31
0.0
  0
LINE
  5
E22
330
D6D
100
AcDbEntity
  8
Dimension (ANSI)
100
AcDbLine
 10
23.37780534521593
 20
10.5915430229475
 30
0.0
 11
23.37780534521593
 21
11.97615840756288
 31
0.0
  0
POINT
  5
E23
330
D6D
100
AcDbEntity
  8
Defpoints
 62
     0
100
AcDbPoint
 10
23.45593034521597
 20
11.14853424591389
 30
0.0
  0
POINT
  5
E24
330
D6D
100
AcDbEntity
  8
Defpoints
 62
     0
100
AcDbPoint
 10
23.2996803452159
 20
11.41916718459649
 30
0.0
  0
ENDBLK
  5
D6F
330
D6D
100
AcDbEntity
  8
0
100
AcDbBlockEnd
  0
BLOCK
  5
E27
330
E26
100
AcDbEntity
  8
0
100
AcDbBlockBegin
  2
*D17
 70
     1
 10
0.0
 20
0.0
 30
0.0
  3
*D17
  1

  0
LINE
  5
F05
330
E26
100
AcDbEntity
  8
Dimension (ANSI)
100
AcDbLine
 10
56.53780534521596
 20
68.17461994602443
 30
0.0
 11
56.53780534521596
 21
76.96730879433471
 31
0.0
  0
LINE
  5
F06
330
E26
100
AcDbEntity
  8
Dimension (ANSI)
100
AcDbLine
 10
23.37780534521596
 20
68.17461994602442
 30
0.0
 11
23.37780534521596
 21
76.96730879433471
 31
0.0
  0
LINE
  5
F07
330
E26
100
AcDbEntity
  8
Dimension (ANSI)
100
AcDbLine
 10
55.7806884635153
 20
76.00577033279624
 30
0.0
 11
42.06917411192525
 21
76.00577033279624
 31
0.0
  0
LINE
  5
F08
330
E26
100
AcDbEntity
  8
Dimension (ANSI)
100
AcDbLine
 10
24.13492222691662
 20
76.00577033279624
 30
0.0
 11
37.84643657850669
 21
76.00577033279624
 31
0.0
  0
SOLID
  5
F09
330
E26
100
AcDbEntity
  8
Dimension (ANSI)
100
AcDbTrace
 10
55.7806884635153
 20
76.13195647974634
 30
0.0
 11
55.7806884635153
 21
75.87958418584614
 31
0.0
 12
56.53780534521596
 22
76.00577033279624
 32
0.0
 13
56.53780534521596
 23
76.00577033279624
 33
0.0
  0
SOLID
  5
F0A
330
E26
100
AcDbEntity
  8
Dimension (ANSI)
100
AcDbTrace
 10
24.13492222691662
 20
76.13195647974634
 30
0.0
 11
24.13492222691662
 21
75.87958418584614
 31
0.0
 12
23.37780534521596
 22
76.00577033279624
 32
0.0
 13
23.37780534521596
 23
76.00577033279624
 33
0.0
  0
MTEXT
  5
F0B
330
E26
100
AcDbEntity
  8
Dimension (ANSI)
100
AcDbMText
 10
38.08871398613842
 20
76.48652666744455
 30
0.0
 40
0.9230769597567043
 41
0.0
 71
     1
 72
     1
  1
\A1;33.160
  7
Note Text (ANSI)
 73
     1
 44
1.0
1001
ACAD
1000
MTEXTBEGIN
1070
    73
1070
     1
1070
    44
1040
1.0
1070
    74
1070
     0
1000
MTEXTEND
  0
POINT
  5
F0C
330
E26
100
AcDbEntity
  8
Defpoints
 62
     0
100
AcDbPoint
 10
56.53780534521596
 20
67.69385071525521
 30
0.0
  0
POINT
  5
F0D
330
E26
100
AcDbEntity
  8
Defpoints
 62
     0
100
AcDbPoint
 10
23.37780534521596
 20
67.69385071525519
 30
0.0
  0
POINT
  5
F0E
330
E26
100
AcDbEntity
  8
Defpoints
 62
     0
100
AcDbPoint
 10
23.37780534521596
 20
76.00577033279624
 30
0.0
  0
ENDBLK
  5
E28
330
E26
100
AcDbEntity
  8
0
100
AcDbBlockEnd
  0
ENDSEC
  0
SECTION
  2
ENTITIES
  0
MTEXT
  5
74
330
6C
100
AcDbEntity
  8
Symbol (ANSI)
100
AcDbMText
 10
82.86640562739858
 20
20.33289726182842
 30
0.0
 40
1.090384650183474
 41
40.25365855750136
 71
     1
 72
     1
  1
{\fRomanS|b0|i0|c0|p2;PART#: NP6036C\P(DATA SUBJECT TO CHANGE WITHOUT NOTICE)\PTHIS DRAWING AND COMPONENTS OF ARE\PPROPERTY OF HUBBELL INC. WIEGMANN\P }
  7
Note Text (ANSI)
 73
     2
 44
1.093904256820678
1001
ACAD
1000
MTEXTBEGIN
1070
    73
1070
     2
1070
    44
1040
1.093904256820678
1070
    74
1070
     0
1000
MTEXTEND
  0
TEXT
  5
77
330
6C
100
AcDbEntity
  8
0
100
AcDbText
 10
120.2073596698146
 20
14.08785037455996
 30
0.0
 40
0.7581049801161633
  1
HUBBELL
  7
SANSSERIF
100
AcDbText
  0
POLYLINE
  5
79
330
6C
100
AcDbEntity
  8
0
100
AcDb2dPolyline
 66
     1
 10
0.0
 20
0.0
 30
0.0
  0
VERTEX
  5
7A
330
79
100
AcDbEntity
  8
0
100
AcDbVertex
100
AcDb2dVertex
 10
120.6001286238734
 20
13.71330407309082
 30
0.0
 42
0.0538548888021971
  0
VERTEX
  5
7B
330
79
100
AcDbEntity
  8
0
100
AcDbVertex
100
AcDb2dVertex
 10
120.8731344654153
 20
13.49947864595938
 30
0.0
 42
0.0762621633615686
 70
     2
 50
328.0963691854962
  0
VERTEX
  5
7C
330
79
100
AcDbEntity
  8
0
100
AcDbVertex
100
AcDb2dVertex
 10
121.5403455951929
 20
13.2137663767577
 30
0.0
 42
0.0631748622128167
 50
328.0963691854962
  0
VERTEX
  5
7D
330
79
100
AcDbEntity
  8
0
100
AcDbVertex
100
AcDb2dVertex
 10
122.4079731482355
 20
13.10370260304806
 30
0.0
 42
0.0631748622128144
  0
VERTEX
  5
7E
330
79
100
AcDbEntity
  8
0
100
AcDbVertex
100
AcDb2dVertex
 10
123.275600701278
 20
13.2137663767577
 30
0.0
 42
0.0762621633615716
  0
VERTEX
  5
7F
330
79
100
AcDbEntity
  8
0
100
AcDbVertex
100
AcDb2dVertex
 10
123.9428118310555
 20
13.49947864595938
 30
0.0
 42
0.0538548888021992
 70
     2
 50
31.90363081450366
  0
VERTEX
  5
80
330
79
100
AcDbEntity
  8
0
100
AcDbVertex
100
AcDb2dVertex
 10
124.2158176725975
 20
13.71330407309082
 30
0.0
 42
0.1478388992712208
 50
31.90363081450366
  0
SEQEND
  5
81
330
79
100
AcDbEntity
  8
0
  0
POLYLINE
  5
82
330
6C
100
AcDbEntity
  8
0
100
AcDb2dPolyline
 66
     1
 10
0.0
 20
0.0
 30
0.0
  0
VERTEX
  5
83
330
82
100
AcDbEntity
  8
0
100
AcDbVertex
100
AcDb2dVertex
 10
121.1006681427836
 20
13.79591144779784
 30
0.0
 42
0.0708473647366734
  0
VERTEX
  5
84
330
82
100
AcDbEntity
  8
0
100
AcDbVertex
100
AcDb2dVertex
 10
121.3481591210096
 20
13.49947864595938
 30
0.0
 42
0.0943474025114784
 70
     2
 50
317.9633854595613
  0
VERTEX
  5
85
330
82
100
AcDbEntity
  8
0
100
AcDbVertex
100
AcDb2dVertex
 10
121.8274390766401
 20
13.20856307778629
 30
0.0
 42
0.0895889244631754
 50
317.9633854595613
  0
VERTEX
  5
86
330
82
100
AcDbEntity
  8
0
100
AcDbVertex
100
AcDb2dVertex
 10
122.4079731482355
 20
13.10370260304806
 30
0.0
 42
0.0895889244631755
  0
VERTEX
  5
87
330
82
100
AcDbEntity
  8
0
100
AcDbVertex
100
AcDb2dVertex
 10
122.9885072198309
 20
13.20856307778629
 30
0.0
 42
0.0943474025114826
  0
VERTEX
  5
88
330
82
100
AcDbEntity
  8
0
100
AcDbVertex
100
AcDb2dVertex
 10
123.4677871754614
 20
13.49947864595938
 30
0.0
 42
0.0708473647366705
 70
     2
 50
42.03661454043863
  0
VERTEX
  5
89
330
82
100
AcDbEntity
  8
0
100
AcDbVertex
100
AcDb2dVertex
 10
123.7152781536873
 20
13.79591144779784
 30
0.0
 42
0.1080871028423927
 50
42.03661454043863
  0
SEQEND
  5
8A
330
82
100
AcDbEntity
  8
0
  0
POLYLINE
  5
8B
330
6C
100
AcDbEntity
  8
0
100
AcDb2dPolyline
 66
     1
 10
0.0
 20
0.0
 30
0.0
  0
VERTEX
  5
8C
330
8B
100
AcDbEntity
  8
0
100
AcDbVertex
100
AcDb2dVertex
 10
124.2035656636094
 20
15.20843274688562
 30
0.0
 42
0.0512131062417871
  0
VERTEX
  5
8D
330
8B
100
AcDbEntity
  8
0
100
AcDbVertex
100
AcDb2dVertex
 10
123.9428118310555
 20
15.41045442687712
 30
0.0
 42
0.0762621633615678
 70
     2
 50
148.0963691854963
  0
VERTEX
  5
8E
330
8B
100
AcDbEntity
  8
0
100
AcDbVertex
100
AcDb2dVertex
 10
123.275600701278
 20
15.6961666960788
 30
0.0
 42
0.0631748622128132
 50
148.0963691854963
  0
VERTEX
  5
8F
330
8B
100
AcDbEntity
  8
0
100
AcDbVertex
100
AcDb2dVertex
 10
122.4079731482355
 20
15.80623046978844
 30
0.0
 42
0.0631748622128155
  0
SEQEND
  5
90
330
8B
100
AcDbEntity
  8
0
  0
POLYLINE
  5
91
330
6C
100
AcDbEntity
  8
0
100
AcDb2dPolyline
 66
     1
 10
0.0
 20
0.0
 30
0.0
  0
VERTEX
  5
92
330
91
100
AcDbEntity
  8
0
100
AcDbVertex
100
AcDb2dVertex
 10
123.7091922715669
 20
15.12376344394908
 30
0.0
 42
0.0687403046083495
  0
VERTEX
  5
93
330
91
100
AcDbEntity
  8
0
100
AcDbVertex
100
AcDb2dVertex
 10
123.4677871754614
 20
15.41045442687712
 30
0.0
 42
0.0943474025114827
 70
     2
 50
137.9633854595613
  0
VERTEX
  5
94
330
91
100
AcDbEntity
  8
0
100
AcDbVertex
100
AcDb2dVertex
 10
122.9885072198309
 20
15.70136999505018
 30
0.0
 42
0.0895889244631755
 50
137.9633854595613
  0
VERTEX
  5
95
330
91
100
AcDbEntity
  8
0
100
AcDbVertex
100
AcDb2dVertex
 10
122.4079731482355
 20
15.80623046978844
 30
0.0
 42
0.0895889244631779
  0
SEQEND
  5
96
330
91
100
AcDbEntity
  8
0
  0
LINE
  5
97
330
6C
100
AcDbEntity
  8
0
100
AcDbLine
 10
125.2883112185857
 20
16.18316937862833
 30
0.0
 11
119.5276350778853
 21
16.18316937862833
 31
0.0
  0
LINE
  5
98
330
6C
100
AcDbEntity
  8
0
100
AcDbLine
 10
119.5276350778853
 20
12.72676369420813
 30
0.0
 11
125.2883112185857
 21
12.72676369420813
 31
0.0
  0
POLYLINE
  5
99
330
6C
100
AcDbEntity
  8
0
100
AcDb2dPolyline
 66
     1
 10
0.0
 20
0.0
 30
0.0
 70
     1
  0
VERTEX
  5
9A
330
99
100
AcDbEntity
  8
0
100
AcDbVertex
100
AcDb2dVertex
 10
119.5276350778853
 20
14.45496653641824
 30
0.0
 42
0.1828233251715505
  0
VERTEX
  5
9B
330
99
100
AcDbEntity
  8
0
100
AcDbVertex
100
AcDb2dVertex
 10
119.6983356294545
 20
14.00372489828954
 30
0.0
 42
0.1025674015815553
  0
VERTEX
  5
9C
330
99
100
AcDbEntity
  8
0
100
AcDbVertex
100
AcDb2dVertex
 10
120.3712665665811
 20
13.49947864595948
 30
0.0
 42
0.0617587255956112
 70
     2
 50
334.8671392208401
  0
VERTEX
  5
9D
330
99
100
AcDbEntity
  8
0
100
AcDbVertex
100
AcDb2dVertex
 10
121.2399607510079
 20
13.21613604946236
 30
0.0
 42
0.0480192641995976
 50
334.8671392208401
  0
VERTEX
  5
9E
330
99
100
AcDbEntity
  8
0
100
AcDbVertex
100
AcDb2dVertex
 10
122.4079731482355
 20
13.10370260304806
 30
0.0
 42
0.0480192641995965
  0
VERTEX
  5
9F
330
99
100
AcDbEntity
  8
0
100
AcDbVertex
100
AcDb2dVertex
 10
123.5759855454632
 20
13.21613604946236
 30
0.0
 42
0.0617587255956115
  0
VERTEX
  5
A0
330
99
100
AcDbEntity
  8
0
100
AcDbVertex
100
AcDb2dVertex
 10
124.4446797298899
 20
13.49947864595948
 30
0.0
 42
0.1025674015815654
 70
     2
 50
25.13286077915987
  0
VERTEX
  5
A1
330
99
100
AcDbEntity
  8
0
100
AcDbVertex
100
AcDb2dVertex
 10
125.1176106670163
 20
14.00372489828954
 30
0.0
 42
0.18282332517157
 50
25.13286077915987
  0
VERTEX
  5
A2
330
99
100
AcDbEntity
  8
0
100
AcDbVertex
100
AcDb2dVertex
 10
125.2883112185857
 20
14.45496653641824
 30
0.0
 42
0.1828233251715568
  0
VERTEX
  5
A3
330
99
100
AcDbEntity
  8
0
100
AcDbVertex
100
AcDb2dVertex
 10
125.1176106670163
 20
14.90620817454698
 30
0.0
 42
0.102567401581563
  0
VERTEX
  5
A4
330
99
100
AcDbEntity
  8
0
100
AcDbVertex
100
AcDb2dVertex
 10
124.4446797298899
 20
15.41045442687697
 30
0.0
 42
0.0617587255956141
 70
     2
 50
154.86713922084
  0
VERTEX
  5
A5
330
99
100
AcDbEntity
  8
0
100
AcDbVertex
100
AcDb2dVertex
 10
123.5759855454632
 20
15.69379702337413
 30
0.0
 42
0.0480192641995983
 50
154.86713922084
  0
VERTEX
  5
A6
330
99
100
AcDbEntity
  8
0
100
AcDbVertex
100
AcDb2dVertex
 10
122.4079731482355
 20
15.80623046978844
 30
0.0
 42
0.0480192641995976
  0
VERTEX
  5
A7
330
99
100
AcDbEntity
  8
0
100
AcDbVertex
100
AcDb2dVertex
 10
121.2399607510079
 20
15.69379702337413
 30
0.0
 42
0.0617587255956112
  0
VERTEX
  5
A8
330
99
100
AcDbEntity
  8
0
100
AcDbVertex
100
AcDb2dVertex
 10
120.3712665665811
 20
15.41045442687697
 30
0.0
 42
0.1025674015815593
 70
     2
 50
205.1328607791599
  0
VERTEX
  5
A9
330
99
100
AcDbEntity
  8
0
100
AcDbVertex
100
AcDb2dVertex
 10
119.6983356294545
 20
14.90620817454698
 30
0.0
 42
0.1828233251715536
 50
205.1328607791599
  0
SEQEND
  5
AA
330
99
100
AcDbEntity
  8
0
  0
ARC
  5
AB
330
6C
100
AcDbEntity
  8
0
100
AcDbCircle
 10
119.5276350778853
 20
15.60710176455829
 30
0.0
 40
0.5760676140700327
100
AcDbArc
 50
90.0
 51
180.0
  0
LINE
  5
AC
330
6C
100
AcDbEntity
  8
0
100
AcDbLine
 10
118.9515674638153
 20
15.60710176455829
 30
0.0
 11
118.9515674638153
 21
13.30283130827816
 31
0.0
  0
ARC
  5
AD
330
6C
100
AcDbEntity
  8
0
100
AcDbCircle
 10
119.5276350778853
 20
13.30283130827816
 30
0.0
 40
0.5760676140700327
100
AcDbArc
 50
180.0
 51
270.0
  0
POLYLINE
  5
AE
330
6C
100
AcDbEntity
  8
0
100
AcDb2dPolyline
 66
     1
 10
0.0
 20
0.0
 30
0.0
  0
VERTEX
  5
AF
330
AE
100
AcDbEntity
  8
0
100
AcDbVertex
100
AcDb2dVertex
 10
121.8085016408275
 20
13.86150431041369
 30
0.0
 42
0.0570538596573184
  0
VERTEX
  5
B0
330
AE
100
AcDbEntity
  8
0
100
AcDbVertex
100
AcDb2dVertex
 10
121.9378826624508
 20
13.4994786459593
 30
0.0
 42
0.1038195938885091
 70
     2
 50
296.1967246921072
  0
VERTEX
  5
B1
330
AE
100
AcDbEntity
  8
0
100
AcDbVertex
100
AcDb2dVertex
 10
122.1835725643023
 20
13.18558740421773
 30
0.0
 42
0.1767522344444316
 50
296.1967246921072
  0
VERTEX
  5
B2
330
AE
100
AcDbEntity
  8
0
100
AcDbVertex
100
AcDb2dVertex
 10
122.4079731482355
 20
13.10370260304806
 30
0.0
 42
0.1767522344444399
  0
VERTEX
  5
B3
330
AE
100
AcDbEntity
  8
0
100
AcDbVertex
100
AcDb2dVertex
 10
122.6323737321688
 20
13.18558740421773
 30
0.0
 42
0.1038195938885123
  0
VERTEX
  5
B4
330
AE
100
AcDbEntity
  8
0
100
AcDbVertex
100
AcDb2dVertex
 10
122.8780636340201
 20
13.4994786459593
 30
0.0
 42
0.0570538596573163
 70
     2
 50
63.8032753078928
  0
VERTEX
  5
B5
330
AE
100
AcDbEntity
  8
0
100
AcDbVertex
100
AcDb2dVertex
 10
123.0074446556434
 20
13.86150431041369
 30
0.0
 42
0.0503013836282066
 50
63.8032753078928
  0
SEQEND
  5
B6
330
AE
100
AcDbEntity
  8
0
  0
POLYLINE
  5
B7
330
6C
100
AcDbEntity
  8
0
100
AcDb2dPolyline
 66
     1
 10
0.0
 20
0.0
 30
0.0
  0
VERTEX
  5
B8
330
B7
100
AcDbEntity
  8
0
100
AcDbVertex
100
AcDb2dVertex
 10
122.4079731482355
 20
15.80623046978844
 30
0.0
 42
0.1767522344444361
  0
VERTEX
  5
B9
330
B7
100
AcDbEntity
  8
0
100
AcDbVertex
100
AcDb2dVertex
 10
122.1835725643023
 20
15.72434566861871
 30
0.0
 42
0.1038195938884991
  0
VERTEX
  5
BA
330
B7
100
AcDbEntity
  8
0
100
AcDbVertex
100
AcDb2dVertex
 10
121.9378826624508
 20
15.41045442687716
 30
0.0
 42
0.0567223889277798
 70
     2
 50
243.8032753078928
  0
VERTEX
  5
BB
330
B7
100
AcDbEntity
  8
0
100
AcDbVertex
100
AcDb2dVertex
 10
121.8090106628088
 20
15.05060360417535
 30
0.0
 42
0.0503013836282199
 50
243.8032753078928
  0
SEQEND
  5
BC
330
B7
100
AcDbEntity
  8
0
  0
POLYLINE
  5
BD
330
6C
100
AcDbEntity
  8
0
100
AcDb2dPolyline
 66
     1
 10
0.0
 20
0.0
 30
0.0
  0
VERTEX
  5
BE
330
BD
100
AcDbEntity
  8
0
100
AcDbVertex
100
AcDb2dVertex
 10
122.4079731482355
 20
15.80623046978844
 30
0.0
 42
0.0895889244631779
  0
VERTEX
  5
BF
330
BD
100
AcDbEntity
  8
0
100
AcDbVertex
100
AcDb2dVertex
 10
121.8274390766401
 20
15.70136999505018
 30
0.0
 42
0.094347402511486
  0
VERTEX
  5
C0
330
BD
100
AcDbEntity
  8
0
100
AcDbVertex
100
AcDb2dVertex
 10
121.3481591210096
 20
15.41045442687712
 30
0.0
 42
0.0687403046083514
 70
     2
 50
222.0366145404387
  0
VERTEX
  5
C1
330
BD
100
AcDbEntity
  8
0
100
AcDbVertex
100
AcDb2dVertex
 10
121.106754024904
 20
15.12376344394908
 30
0.0
 42
0.1080871028423927
 50
222.0366145404387
  0
SEQEND
  5
C2
330
BD
100
AcDbEntity
  8
0
  0
POLYLINE
  5
C3
330
6C
100
AcDbEntity
  8
0
100
AcDb2dPolyline
 66
     1
 10
0.0
 20
0.0
 30
0.0
  0
VERTEX
  5
C4
330
C3
100
AcDbEntity
  8
0
100
AcDbVertex
100
AcDb2dVertex
 10
122.4079731482355
 20
15.80623046978844
 30
0.0
 42
0.0631748622128155
  0
VERTEX
  5
C5
330
C3
100
AcDbEntity
  8
0
100
AcDbVertex
100
AcDb2dVertex
 10
121.5403455951929
 20
15.6961666960788
 30
0.0
 42
0.0762621633615699
  0
VERTEX
  5
C6
330
C3
100
AcDbEntity
  8
0
100
AcDbVertex
100
AcDb2dVertex
 10
120.8731344654153
 20
15.41045442687712
 30
0.0
 42
0.0512131062417906
 70
     2
 50
211.9036308145036
  0
VERTEX
  5
C7
330
C3
100
AcDbEntity
  8
0
100
AcDbVertex
100
AcDb2dVertex
 10
120.6123806328615
 20
15.20843274688562
 30
0.0
 42
0.1478388992712295
 50
211.9036308145036
  0
SEQEND
  5
C8
330
C3
100
AcDbEntity
  8
0
  0
POLYLINE
  5
C9
330
6C
100
AcDbEntity
  8
0
100
AcDb2dPolyline
 66
     1
 10
0.0
 20
0.0
 30
0.0
  0
VERTEX
  5
CA
330
C9
100
AcDbEntity
  8
0
100
AcDbVertex
100
AcDb2dVertex
 10
123.0069356336622
 20
15.05060360417535
 30
0.0
 42
0.0567223889277601
  0
VERTEX
  5
CB
330
C9
100
AcDbEntity
  8
0
100
AcDbVertex
100
AcDb2dVertex
 10
122.8780636340201
 20
15.41045442687716
 30
0.0
 42
0.1038195938884991
 70
     2
 50
116.1967246921072
  0
VERTEX
  5
CC
330
C9
100
AcDbEntity
  8
0
100
AcDbVertex
100
AcDb2dVertex
 10
122.6323737321688
 20
15.72434566861871
 30
0.0
 42
0.1767522344444361
 50
116.1967246921072
  0
VERTEX
  5
CD
330
C9
100
AcDbEntity
  8
0
100
AcDbVertex
100
AcDb2dVertex
 10
122.4079731482355
 20
15.80623046978844
 30
0.0
 42
0.1767522344444361
  0
SEQEND
  5
CE
330
C9
100
AcDbEntity
  8
0
  0
ARC
  5
CF
330
6C
100
AcDbEntity
  8
0
100
AcDbCircle
 10
125.2883112185857
 20
15.60710176455829
 30
0.0
 40
0.5760676140700327
100
AcDbArc
 50
0.0
 51
90.0
  0
CIRCLE
  5
D0
330
6C
100
AcDbEntity
  8
0
100
AcDbCircle
 10
126.4077284216975
 20
15.88629999874997
 30
0.0
 40
0.2997961524885434
  0
TEXT
  5
D1
330
6C
100
AcDbEntity
  8
0
100
AcDbText
 10
126.2143997330938
 20
15.68589733537248
 30
0.0
 40
0.3518968171129622
  1
R
  7
SANSSERIF
100
AcDbText
  0
LINE
  5
D2
330
6C
100
AcDbEntity
  8
0
100
AcDbLine
 10
125.8643788326556
 20
13.30283130827816
 30
0.0
 11
125.8643788326556
 21
15.60710176455829
 31
0.0
  0
ARC
  5
D3
330
6C
100
AcDbEntity
  8
0
100
AcDbCircle
 10
125.2883112185857
 20
13.30283130827816
 30
0.0
 40
0.5760676140700327
100
AcDbArc
 50
270.0
 51
0.0
  0
CIRCLE
  5
17B
330
6C
100
AcDbEntity
  8
Visible (ANSI)
100
AcDbCircle
 10
56.53780534521594
 20
39.11385071525521
 30
0.0
 40
0.2500000000000006
  0
CIRCLE
  5
17C
330
6C
100
AcDbEntity
  8
Visible (ANSI)
100
AcDbCircle
 10
23.37780534521596
 20
39.11385071525521
 30
0.0
 40
0.2500000000000006
  0
CIRCLE
  5
17D
330
6C
100
AcDbEntity
  8
Visible (ANSI)
100
AcDbCircle
 10
39.95780534521595
 20
10.5338507152552
 30
0.0
 40
0.2499999999999999
  0
CIRCLE
  5
17E
330
6C
100
AcDbEntity
  8
Visible (ANSI)
100
AcDbCircle
 10
39.95780534521595
 20
67.69385071525519
 30
0.0
 40
0.2499999999999999
  0
LINE
  5
17F
330
6C
100
AcDbEntity
  8
Visible (ANSI)
100
AcDbLine
 10
24.57580534521596
 20
10.0138507152552
 30
0.0
 11
55.33980534521595
 21
10.0138507152552
 31
0.0
  0
LINE
  5
180
330
6C
100
AcDbEntity
  8
Visible (ANSI)
100
AcDbLine
 10
24.57580534521596
 20
10.0138507152552
 30
0.0
 11
24.57580534521596
 21
10.1232007152552
 31
0.0
  0
LINE
  5
181
330
6C
100
AcDbEntity
  8
Visible (ANSI)
100
AcDbLine
 10
55.33980534521595
 20
10.0138507152552
 30
0.0
 11
55.33980534521595
 21
10.1232007152552
 31
0.0
  0
LINE
  5
182
330
6C
100
AcDbEntity
  8
Visible (ANSI)
100
AcDbLine
 10
55.34000534521595
 20
10.1234007152552
 30
0.0
 11
55.34000534521595
 21
10.0138507152552
 31
0.0
  0
LINE
  5
183
330
6C
100
AcDbEntity
  8
Visible (ANSI)
100
AcDbLine
 10
55.33980534521595
 20
10.1234007152552
 30
0.0
 11
55.34000534521595
 21
10.1234007152552
 31
0.0
  0
LINE
  5
184
330
6C
100
AcDbEntity
  8
Visible (ANSI)
100
AcDbLine
 10
24.57560534521596
 20
10.1234007152552
 30
0.0
 11
24.57580534521596
 21
10.1234007152552
 31
0.0
  0
LINE
  5
185
330
6C
100
AcDbEntity
  8
Visible (ANSI)
100
AcDbLine
 10
24.57560534521596
 20
10.0138507152552
 30
0.0
 11
24.57560534521596
 21
10.1234007152552
 31
0.0
  0
LINE
  5
186
330
6C
100
AcDbEntity
  8
Hidden (ANSI)
 48
1.074912667274475
100
AcDbLine
 10
55.33980534521595
 20
10.1076007152552
 30
0.0
 11
24.57580534521596
 21
10.1076007152552
 31
0.0
  0
LINE
  5
187
330
6C
100
AcDbEntity
  8
Visible (ANSI)
100
AcDbLine
 10
24.57580534521596
 20
10.1234007152552
 30
0.0
 11
24.57580534521596
 21
10.1232007152552
 31
0.0
  0
LINE
  5
188
330
6C
100
AcDbEntity
  8
Visible (ANSI)
100
AcDbLine
 10
55.33980534521595
 20
10.1232007152552
 30
0.0
 11
55.33980534521595
 21
10.1234007152552
 31
0.0
  0
LINE
  5
189
330
6C
100
AcDbEntity
  8
Visible (ANSI)
100
AcDbLine
 10
24.57560534521596
 20
10.0138507152552
 30
0.0
 11
23.35780534521596
 21
10.0138507152552
 31
0.0
  0
LINE
  5
18A
330
6C
100
AcDbEntity
  8
Visible (ANSI)
100
AcDbLine
 10
56.55780534521595
 20
10.0138507152552
 30
0.0
 11
55.34000534521595
 21
10.0138507152552
 31
0.0
  0
LINE
  5
18B
330
6C
100
AcDbEntity
  8
Visible (ANSI)
100
AcDbLine
 10
57.05780534521596
 20
11.7316507152552
 30
0.0
 11
57.05780534521596
 21
10.5138507152552
 31
0.0
  0
LINE
  5
18C
330
6C
100
AcDbEntity
  8
Visible (ANSI)
100
AcDbLine
 10
57.05780534521593
 20
67.71385071525519
 30
0.0
 11
57.05780534521593
 21
66.49605071525518
 31
0.0
  0
LINE
  5
18D
330
6C
100
AcDbEntity
  8
Visible (ANSI)
100
AcDbLine
 10
55.34000534521594
 20
68.21385071525519
 30
0.0
 11
56.55780534521595
 21
68.21385071525519
 31
0.0
  0
LINE
  5
18E
330
6C
100
AcDbEntity
  8
Visible (ANSI)
100
AcDbLine
 10
23.35780534521594
 20
68.21385071525519
 30
0.0
 11
24.57560534521594
 21
68.21385071525519
 31
0.0
  0
LINE
  5
18F
330
6C
100
AcDbEntity
  8
Visible (ANSI)
100
AcDbLine
 10
22.85780534521594
 20
66.49605071525518
 30
0.0
 11
22.85780534521594
 21
67.71385071525519
 31
0.0
  0
LINE
  5
190
330
6C
100
AcDbEntity
  8
Visible (ANSI)
100
AcDbLine
 10
22.85780534521596
 20
10.5138507152552
 30
0.0
 11
22.85780534521596
 21
11.7316507152552
 31
0.0
  0
LINE
  5
191
330
6C
100
AcDbEntity
  8
Visible (ANSI)
100
AcDbLine
 10
57.05780534521596
 20
10.5138507152552
 30
0.0
 11
56.55780534521595
 21
10.0138507152552
 31
0.0
  0
LINE
  5
192
330
6C
100
AcDbEntity
  8
Visible (ANSI)
100
AcDbLine
 10
57.05780534521596
 20
11.7316507152552
 30
0.0
 11
56.94825534521598
 21
11.7316507152552
 31
0.0
  0
LINE
  5
193
330
6C
100
AcDbEntity
  8
Visible (ANSI)
100
AcDbLine
 10
56.94825534521598
 20
11.7316507152552
 30
0.0
 11
56.94825534521598
 21
11.7318507152552
 31
0.0
  0
LINE
  5
194
330
6C
100
AcDbEntity
  8
Visible (ANSI)
100
AcDbLine
 10
56.94825534521594
 20
66.49585071525518
 30
0.0
 11
56.94825534521594
 21
66.49605071525518
 31
0.0
  0
LINE
  5
195
330
6C
100
AcDbEntity
  8
Visible (ANSI)
100
AcDbLine
 10
56.94825534521594
 20
66.49605071525518
 30
0.0
 11
57.05780534521593
 21
66.49605071525518
 31
0.0
  0
LINE
  5
196
330
6C
100
AcDbEntity
  8
Visible (ANSI)
100
AcDbLine
 10
57.05780534521593
 20
11.7318507152552
 30
0.0
 11
57.05780534521593
 21
66.49585071525518
 31
0.0
  0
LINE
  5
197
330
6C
100
AcDbEntity
  8
Visible (ANSI)
100
AcDbLine
 10
57.05780534521595
 20
11.7318507152552
 30
0.0
 11
56.94845534521597
 21
11.7318507152552
 31
0.0
  0
LINE
  5
198
330
6C
100
AcDbEntity
  8
Visible (ANSI)
100
AcDbLine
 10
57.05780534521593
 20
66.49585071525518
 30
0.0
 11
56.94845534521596
 21
66.49585071525518
 31
0.0
  0
LINE
  5
199
330
6C
100
AcDbEntity
  8
Hidden (ANSI)
 48
1.076336503028869
100
AcDbLine
 10
56.96405534521593
 20
66.49585071525518
 30
0.0
 11
56.96405534521595
 21
11.7318507152552
 31
0.0
  0
LINE
  5
19A
330
6C
100
AcDbEntity
  8
Visible (ANSI)
100
AcDbLine
 10
56.94825534521598
 20
11.7318507152552
 30
0.0
 11
56.94845534521597
 21
11.7318507152552
 31
0.0
  0
LINE
  5
19B
330
6C
100
AcDbEntity
  8
Visible (ANSI)
100
AcDbLine
 10
56.94845534521595
 20
66.49585071525518
 30
0.0
 11
56.94825534521594
 21
66.49585071525518
 31
0.0
  0
LINE
  5
19C
330
6C
100
AcDbEntity
  8
Visible (ANSI)
100
AcDbLine
 10
56.55780534521595
 20
68.21385071525519
 30
0.0
 11
57.05780534521593
 21
67.71385071525519
 31
0.0
  0
LINE
  5
19D
330
6C
100
AcDbEntity
  8
Visible (ANSI)
100
AcDbLine
 10
55.34000534521594
 20
68.21385071525519
 30
0.0
 11
55.34000534521594
 21
68.1043007152552
 31
0.0
  0
LINE
  5
19E
330
6C
100
AcDbEntity
  8
Visible (ANSI)
100
AcDbLine
 10
55.34000534521594
 20
68.1043007152552
 30
0.0
 11
55.33980534521595
 21
68.1043007152552
 31
0.0
  0
LINE
  5
19F
330
6C
100
AcDbEntity
  8
Visible (ANSI)
100
AcDbLine
 10
24.57580534521595
 20
68.1043007152552
 30
0.0
 11
24.57560534521594
 21
68.1043007152552
 31
0.0
  0
LINE
  5
1A0
330
6C
100
AcDbEntity
  8
Visible (ANSI)
100
AcDbLine
 10
24.57560534521594
 20
68.1043007152552
 30
0.0
 11
24.57560534521594
 21
68.21385071525519
 31
0.0
  0
LINE
  5
1A1
330
6C
100
AcDbEntity
  8
Visible (ANSI)
100
AcDbLine
 10
55.33980534521595
 20
68.21385071525522
 30
0.0
 11
24.57580534521595
 21
68.21385071525522
 31
0.0
  0
LINE
  5
1A2
330
6C
100
AcDbEntity
  8
Visible (ANSI)
100
AcDbLine
 10
55.33980534521595
 20
68.21385071525522
 30
0.0
 11
55.33980534521595
 21
68.1045007152552
 31
0.0
  0
LINE
  5
1A3
330
6C
100
AcDbEntity
  8
Visible (ANSI)
100
AcDbLine
 10
24.57580534521595
 20
68.21385071525522
 30
0.0
 11
24.57580534521595
 21
68.1045007152552
 31
0.0
  0
LINE
  5
1A4
330
6C
100
AcDbEntity
  8
Hidden (ANSI)
 48
1.074912667274475
100
AcDbLine
 10
24.57580534521595
 20
68.1201007152552
 30
0.0
 11
55.33980534521595
 21
68.1201007152552
 31
0.0
  0
LINE
  5
1A5
330
6C
100
AcDbEntity
  8
Visible (ANSI)
100
AcDbLine
 10
55.33980534521595
 20
68.1043007152552
 30
0.0
 11
55.33980534521595
 21
68.10450071525519
 31
0.0
  0
LINE
  5
1A6
330
6C
100
AcDbEntity
  8
Visible (ANSI)
100
AcDbLine
 10
24.57580534521595
 20
68.10450071525519
 30
0.0
 11
24.57580534521595
 21
68.1043007152552
 31
0.0
  0
LINE
  5
1A7
330
6C
100
AcDbEntity
  8
Visible (ANSI)
100
AcDbLine
 10
22.85780534521594
 20
67.71385071525519
 30
0.0
 11
23.35780534521594
 21
68.21385071525519
 31
0.0
  0
LINE
  5
1A8
330
6C
100
AcDbEntity
  8
Visible (ANSI)
100
AcDbLine
 10
22.85780534521594
 20
66.49605071525518
 30
0.0
 11
22.96735534521593
 21
66.49605071525518
 31
0.0
  0
LINE
  5
1A9
330
6C
100
AcDbEntity
  8
Visible (ANSI)
100
AcDbLine
 10
22.96735534521593
 20
66.49605071525518
 30
0.0
 11
22.96735534521593
 21
66.49585071525518
 31
0.0
  0
LINE
  5
1AA
330
6C
100
AcDbEntity
  8
Visible (ANSI)
100
AcDbLine
 10
22.96735534521594
 20
11.7318507152552
 30
0.0
 11
22.96735534521594
 21
11.7316507152552
 31
0.0
  0
LINE
  5
1AB
330
6C
100
AcDbEntity
  8
Visible (ANSI)
100
AcDbLine
 10
22.96735534521594
 20
11.7316507152552
 30
0.0
 11
22.85780534521596
 21
11.7316507152552
 31
0.0
  0
LINE
  5
1AC
330
6C
100
AcDbEntity
  8
Visible (ANSI)
100
AcDbLine
 10
22.85780534521596
 20
66.49585071525518
 30
0.0
 11
22.85780534521598
 21
11.73185071525521
 31
0.0
  0
LINE
  5
1AD
330
6C
100
AcDbEntity
  8
Visible (ANSI)
100
AcDbLine
 10
22.85780534521596
 20
66.49585071525518
 30
0.0
 11
22.96715534521593
 21
66.49585071525518
 31
0.0
  0
LINE
  5
1AE
330
6C
100
AcDbEntity
  8
Visible (ANSI)
100
AcDbLine
 10
22.85780534521598
 20
11.7318507152552
 30
0.0
 11
22.96715534521594
 21
11.7318507152552
 31
0.0
  0
LINE
  5
1AF
330
6C
100
AcDbEntity
  8
Hidden (ANSI)
 48
1.076336503028869
100
AcDbLine
 10
22.95155534521598
 20
11.7318507152552
 30
0.0
 11
22.95155534521596
 21
66.49585071525518
 31
0.0
  0
LINE
  5
1B0
330
6C
100
AcDbEntity
  8
Visible (ANSI)
100
AcDbLine
 10
22.96735534521593
 20
66.49585071525518
 30
0.0
 11
22.96715534521593
 21
66.49585071525518
 31
0.0
  0
LINE
  5
1B1
330
6C
100
AcDbEntity
  8
Visible (ANSI)
100
AcDbLine
 10
22.96715534521595
 20
11.7318507152552
 30
0.0
 11
22.96735534521594
 21
11.7318507152552
 31
0.0
  0
LINE
  5
1B2
330
6C
100
AcDbEntity
  8
Visible (ANSI)
100
AcDbLine
 10
23.35780534521596
 20
10.0138507152552
 30
0.0
 11
22.85780534521596
 21
10.5138507152552
 31
0.0
  0
CIRCLE
  5
1B3
330
6C
100
AcDbEntity
  8
Visible (ANSI)
100
AcDbCircle
 10
56.53780534521594
 20
67.69385071525519
 30
0.0
 40
0.25
  0
CIRCLE
  5
1B4
330
6C
100
AcDbEntity
  8
Visible (ANSI)
100
AcDbCircle
 10
23.37780534521596
 20
67.69385071525519
 30
0.0
 40
0.25
  0
CIRCLE
  5
1B5
330
6C
100
AcDbEntity
  8
Visible (ANSI)
100
AcDbCircle
 10
23.37780534521596
 20
10.5338507152552
 30
0.0
 40
0.25
  0
CIRCLE
  5
1B6
330
6C
100
AcDbEntity
  8
Visible (ANSI)
100
AcDbCircle
 10
56.53780534521594
 20
10.5338507152552
 30
0.0
 40
0.25
  0
CIRCLE
  5
1B7
330
6C
100
AcDbEntity
  8
Visible (ANSI)
100
AcDbCircle
 10
56.53780534521594
 20
66.9438507152552
 30
0.0
 40
0.15625
  0
CIRCLE
  5
1B8
330
6C
100
AcDbEntity
  8
Visible (ANSI)
100
AcDbCircle
 10
23.37780534521596
 20
66.9438507152552
 30
0.0
 40
0.15625
  0
CIRCLE
  5
1B9
330
6C
100
AcDbEntity
  8
Visible (ANSI)
100
AcDbCircle
 10
23.37780534521596
 20
11.2838507152552
 30
0.0
 40
0.15625
  0
CIRCLE
  5
1BA
330
6C
100
AcDbEntity
  8
Visible (ANSI)
100
AcDbCircle
 10
56.53780534521594
 20
11.2838507152552
 30
0.0
 40
0.15625
  0
LINE
  5
1BB
330
6C
100
AcDbEntity
  8
Visible (ANSI)
100
AcDbLine
 10
75.18198339449208
 20
10.0138507152552
 30
0.0
 11
74.51733339449207
 21
10.0138507152552
 31
0.0
  0
LINE
  5
1BC
330
6C
100
AcDbEntity
  8
Visible (ANSI)
100
AcDbLine
 10
75.18198339449208
 20
10.1076007152552
 30
0.0
 11
75.18198339449208
 21
10.0138507152552
 31
0.0
  0
LINE
  5
1BD
330
6C
100
AcDbEntity
  8
Visible (ANSI)
100
AcDbLine
 10
74.51733339449207
 20
10.1076007152552
 30
0.0
 11
75.18198339449208
 21
10.1076007152552
 31
0.0
  0
ARC
  5
1BE
330
6C
100
AcDbEntity
  8
Visible (ANSI)
100
AcDbCircle
 10
74.51733339449207
 20
10.1232007152552
 30
0.0
 40
0.0156
100
AcDbArc
 50
180.0
 51
270.0
  0
ARC
  5
1BF
330
6C
100
AcDbEntity
  8
Visible (ANSI)
100
AcDbCircle
 10
74.51733339449207
 20
10.12320071525519
 30
0.0
 40
0.1093499999999973
100
AcDbArc
 50
261.7981333521972
 51
270.0
  0
ARC
  5
1C0
330
6C
100
AcDbEntity
  8
Hidden (ANSI)
 48
0.0385552681982517
100
AcDbCircle
 10
74.51733339449207
 20
10.1232007152552
 30
0.0
 40
0.10935
100
AcDbArc
 50
180.0
 51
261.7981333521973
  0
LINE
  5
1C1
330
6C
100
AcDbEntity
  8
Hidden (ANSI)
 48
0.023113489151001
100
AcDbLine
 10
74.40798339449208
 20
10.1234007152552
 30
0.0
 11
74.50173339449207
 21
10.1234007152552
 31
0.0
  0
LINE
  5
1C2
330
6C
100
AcDbEntity
  8
Visible (ANSI)
100
AcDbLine
 10
74.50173339449259
 20
67.71385071525519
 30
0.0
 11
74.50173339449243
 21
68.21385071525519
 31
0.0
  0
LINE
  5
1C3
330
6C
100
AcDbEntity
  8
Visible (ANSI)
100
AcDbLine
 10
74.40798339449244
 20
68.21385071525519
 30
0.0
 11
74.40798339449258
 21
67.71385071525519
 31
0.0
  0
LINE
  5
1C4
330
6C
100
AcDbEntity
  8
Visible (ANSI)
100
AcDbLine
 10
74.50173339449243
 20
68.21385071525519
 30
0.0
 11
74.40798339449244
 21
68.21385071525519
 31
0.0
  0
LINE
  5
1C5
330
6C
100
AcDbEntity
  8
Visible (ANSI)
100
AcDbLine
 10
74.40798339449258
 20
67.71385071525519
 30
0.0
 11
74.50173339449259
 21
67.71385071525519
 31
0.0
  0
LINE
  5
1C6
330
6C
100
AcDbEntity
  8
Visible (ANSI)
100
AcDbLine
 10
74.50173339449259
 20
66.49605071525518
 30
0.0
 11
74.50173339449259
 21
67.71385071525519
 31
0.0
  0
LINE
  5
1C7
330
6C
100
AcDbEntity
  8
Visible (ANSI)
100
AcDbLine
 10
74.50173339449259
 20
10.5138507152552
 30
0.0
 11
74.50173339449259
 21
11.7316507152552
 31
0.0
  0
LINE
  5
1C8
330
6C
100
AcDbEntity
  8
Visible (ANSI)
100
AcDbLine
 10
74.40798339449258
 20
11.7316507152552
 30
0.0
 11
74.40798339449258
 21
10.5138507152552
 31
0.0
  0
LINE
  5
1C9
330
6C
100
AcDbEntity
  8
Visible (ANSI)
100
AcDbLine
 10
74.40798339449258
 20
67.71385071525519
 30
0.0
 11
74.40798339449258
 21
66.49605071525518
 31
0.0
  0
LINE
  5
1CA
330
6C
100
AcDbEntity
  8
Visible (ANSI)
100
AcDbLine
 10
74.50173339449256
 20
66.49605071525518
 30
0.0
 11
74.50173339449256
 21
66.49585071525518
 31
0.0
  0
LINE
  5
1CB
330
6C
100
AcDbEntity
  8
Visible (ANSI)
100
AcDbLine
 10
74.50173339449256
 20
11.7318507152552
 30
0.0
 11
74.50173339449256
 21
11.7316507152552
 31
0.0
  0
LINE
  5
1CC
330
6C
100
AcDbEntity
  8
Visible (ANSI)
100
AcDbLine
 10
74.40798339449256
 20
11.7316507152552
 30
0.0
 11
74.40798339449256
 21
11.7318507152552
 31
0.0
  0
LINE
  5
1CD
330
6C
100
AcDbEntity
  8
Visible (ANSI)
100
AcDbLine
 10
74.40798339449256
 20
11.7318507152552
 30
0.0
 11
74.40798339449256
 21
66.49585071525518
 31
0.0
  0
LINE
  5
1CE
330
6C
100
AcDbEntity
  8
Visible (ANSI)
100
AcDbLine
 10
74.40798339449256
 20
66.49585071525518
 30
0.0
 11
74.40798339449256
 21
66.49605071525518
 31
0.0
  0
LINE
  5
1CF
330
6C
100
AcDbEntity
  8
Visible (ANSI)
100
AcDbLine
 10
74.51733339449262
 20
11.7318507152552
 30
0.0
 11
74.40798339449256
 21
11.7318507152552
 31
0.0
  0
LINE
  5
1D0
330
6C
100
AcDbEntity
  8
Visible (ANSI)
100
AcDbLine
 10
74.51733339449261
 20
66.49585071525518
 30
0.0
 11
74.40798339449256
 21
66.49585071525518
 31
0.0
  0
LINE
  5
1D1
330
6C
100
AcDbEntity
  8
Visible (ANSI)
100
AcDbLine
 10
74.40798339449258
 20
66.49605071525518
 30
0.0
 11
74.50173339449259
 21
66.49605071525518
 31
0.0
  0
LINE
  5
1D2
330
6C
100
AcDbEntity
  8
Visible (ANSI)
100
AcDbLine
 10
74.50173339449259
 20
11.7316507152552
 30
0.0
 11
74.40798339449258
 21
11.7316507152552
 31
0.0
  0
LINE
  5
1D3
330
6C
100
AcDbEntity
  8
Hidden (ANSI)
 48
1.076336503028869
100
AcDbLine
 10
74.50173339449256
 20
66.49585071525518
 30
0.0
 11
74.50173339449256
 21
11.7318507152552
 31
0.0
  0
LINE
  5
1D4
330
6C
100
AcDbEntity
  8
Visible (ANSI)
100
AcDbLine
 10
74.50173339449243
 20
10.0138507152552
 30
0.0
 11
74.50173339449259
 21
10.5138507152552
 31
0.0
  0
LINE
  5
1D5
330
6C
100
AcDbEntity
  8
Visible (ANSI)
100
AcDbLine
 10
74.40798339449258
 20
10.5138507152552
 30
0.0
 11
74.40798339449244
 21
10.0138507152552
 31
0.0
  0
LINE
  5
1D6
330
6C
100
AcDbEntity
  8
Visible (ANSI)
100
AcDbLine
 10
74.40798339449244
 20
10.0138507152552
 30
0.0
 11
74.50173339449243
 21
10.0138507152552
 31
0.0
  0
LINE
  5
1D7
330
6C
100
AcDbEntity
  8
Visible (ANSI)
100
AcDbLine
 10
74.50173339449259
 20
10.5138507152552
 30
0.0
 11
74.40798339449258
 21
10.5138507152552
 31
0.0
  0
LINE
  5
1D8
330
6C
100
AcDbEntity
  8
Visible (ANSI)
100
AcDbLine
 10
74.51733339449273
 20
68.21385071525522
 30
0.0
 11
75.18198339449208
 21
68.21385071525519
 31
0.0
  0
LINE
  5
1D9
330
6C
100
AcDbEntity
  8
Visible (ANSI)
100
AcDbLine
 10
75.18198339449208
 20
68.12010071525519
 30
0.0
 11
74.51733339449273
 21
68.1201007152552
 31
0.0
  0
LINE
  5
1DA
330
6C
100
AcDbEntity
  8
Visible (ANSI)
100
AcDbLine
 10
75.18198339449208
 20
68.21385071525519
 30
0.0
 11
75.18198339449208
 21
68.12010071525519
 31
0.0
  0
ARC
  5
1DB
330
6C
100
AcDbEntity
  8
Hidden (ANSI)
 48
0.0385552681982517
100
AcDbCircle
 10
74.51733339449209
 20
68.10450071525522
 30
0.0
 40
0.1093500000000058
100
AcDbArc
 50
98.20186664780234
 51
180.0
  0
LINE
  5
1DC
330
6C
100
AcDbEntity
  8
Hidden (ANSI)
 48
0.023113489151001
100
AcDbLine
 10
74.40798339449208
 20
68.1043007152552
 30
0.0
 11
74.50173339449207
 21
68.1043007152552
 31
0.0
  0
ARC
  5
1DD
330
6C
100
AcDbEntity
  8
Visible (ANSI)
100
AcDbCircle
 10
74.5173333944919
 20
68.10450071525785
 30
0.0
 40
0.1093499999973592
100
AcDbArc
 50
89.99999999955464
 51
98.20186664789979
  0
ARC
  5
1DE
330
6C
100
AcDbEntity
  8
Visible (ANSI)
100
AcDbCircle
 10
74.51733339449209
 20
68.10450071525521
 30
0.0
 40
0.015600000000007
100
AcDbArc
 50
89.99999999758948
 51
180.0
  0
LINE
  5
1DF
330
6C
100
AcDbEntity
  8
Visible (ANSI)
100
AcDbLine
 10
74.51733339449262
 20
11.7318507152552
 30
0.0
 11
75.18198339449259
 21
11.7318507152552
 31
0.0
  0
LINE
  5
1E0
330
6C
100
AcDbEntity
  8
Visible (ANSI)
100
AcDbLine
 10
75.18198339449259
 20
66.49585071525518
 30
0.0
 11
75.18198339449259
 21
11.7318507152552
 31
0.0
  0
LINE
  5
1E1
330
6C
100
AcDbEntity
  8
Visible (ANSI)
100
AcDbLine
 10
75.18198339449259
 20
66.49585071525518
 30
0.0
 11
74.51733339449261
 21
66.49585071525518
 31
0.0
  0
LINE
  5
1E2
330
6C
100
AcDbEntity
  8
Hidden (ANSI)
 48
0.023113489151001
100
AcDbLine
 10
74.40798339449243
 20
39.36385071525521
 30
0.0
 11
74.50173339449243
 21
39.36385071525521
 31
0.0
  0
LINE
  5
1E3
330
6C
100
AcDbEntity
  8
Hidden (ANSI)
 48
0.023113489151001
100
AcDbLine
 10
74.40798339449243
 20
38.8638507152552
 30
0.0
 11
74.50173339449243
 21
38.8638507152552
 31
0.0
  0
LINE
  5
1E4
330
6C
100
AcDbEntity
  8
Hidden (ANSI)
 48
0.023113489151001
100
AcDbLine
 10
74.40798339449243
 20
67.94385071525521
 30
0.0
 11
74.50173339449243
 21
67.94385071525521
 31
0.0
  0
LINE
  5
1E5
330
6C
100
AcDbEntity
  8
Hidden (ANSI)
 48
0.023113489151001
100
AcDbLine
 10
74.40798339449243
 20
67.4438507152552
 30
0.0
 11
74.50173339449243
 21
67.4438507152552
 31
0.0
  0
LINE
  5
1E6
330
6C
100
AcDbEntity
  8
Hidden (ANSI)
 48
0.023113489151001
100
AcDbLine
 10
74.40798339449243
 20
10.7838507152552
 30
0.0
 11
74.50173339449243
 21
10.7838507152552
 31
0.0
  0
LINE
  5
1E7
330
6C
100
AcDbEntity
  8
Hidden (ANSI)
 48
0.023113489151001
100
AcDbLine
 10
74.40798339449243
 20
10.2838507152552
 30
0.0
 11
74.50173339449243
 21
10.2838507152552
 31
0.0
  0
LINE
  5
1E8
330
6C
100
AcDbEntity
  8
Hidden (ANSI)
 48
0.023113489151001
100
AcDbLine
 10
74.40798339449243
 20
67.10010071525521
 30
0.0
 11
74.50173339449243
 21
67.10010071525521
 31
0.0
  0
LINE
  5
1E9
330
6C
100
AcDbEntity
  8
Hidden (ANSI)
 48
0.023113489151001
100
AcDbLine
 10
74.40798339449243
 20
66.78760071525521
 30
0.0
 11
74.50173339449243
 21
66.78760071525521
 31
0.0
  0
LINE
  5
1EA
330
6C
100
AcDbEntity
  8
Hidden (ANSI)
 48
0.023113489151001
100
AcDbLine
 10
74.40798339449243
 20
11.4401007152552
 30
0.0
 11
74.50173339449243
 21
11.4401007152552
 31
0.0
  0
LINE
  5
1EB
330
6C
100
AcDbEntity
  8
Hidden (ANSI)
 48
0.023113489151001
100
AcDbLine
 10
74.40798339449243
 20
11.1276007152552
 30
0.0
 11
74.50173339449243
 21
11.1276007152552
 31
0.0
  0
ELLIPSE
  5
1EC
330
6C
100
AcDbEntity
  8
Visible (ANSI)
100
AcDbEllipse
 10
124.5331826885756
 20
49.41901884286352
 30
0.0
 11
-0.0799731108308338
 21
0.1388755506642924
 31
0.0
210
0.0
220
0.0
230
1.0
 40
0.578093115915812
 41
0.2678448778124487
 42
2.873747775777209
  0
ELLIPSE
  5
1ED
330
6C
100
AcDbEntity
  8
Visible (ANSI)
100
AcDbEllipse
 10
124.4906882906678
 20
49.39454794660196
 30
0.0
 11
-0.0799731108308334
 21
0.1388755506642916
 31
0.0
210
0.0
220
0.0
230
0.9999999999999998
 40
0.5780931159158119
 41
0.0
 42
6.283185307179586
  0
ELLIPSE
  5
1EE
330
6C
100
AcDbEntity
  8
Visible (ANSI)
100
AcDbEllipse
 10
109.5026308525825
 20
58.07453798988387
 30
0.0
 11
-0.0799731108308336
 21
0.1388755506642919
 31
0.0
210
0.0
220
0.0
230
1.0
 40
0.5780931159158117
 41
0.2678448778124487
 42
2.873747775777209
  0
ELLIPSE
  5
1EF
330
6C
100
AcDbEntity
  8
Visible (ANSI)
100
AcDbEllipse
 10
109.4601364546746
 20
58.0500670936223
 30
0.0
 11
-0.0799731108308334
 21
0.1388755506642916
 31
0.0
210
0.0
220
0.0
230
0.9999999999999998
 40
0.5780931159158119
 41
0.0
 42
6.283185307179586
  0
ELLIPSE
  5
1F0
330
6C
100
AcDbEntity
  8
Visible (ANSI)
100
AcDbEllipse
 10
117.017906770579
 20
38.76889583432249
 30
0.0
 11
-0.0799731108308331
 21
0.1388755506642909
 31
0.0
210
0.0
220
0.0
230
1.0
 40
0.5780931159158119
 41
0.2678448778124487
 42
2.873747775777209
  0
ELLIPSE
  5
1F1
330
6C
100
AcDbEntity
  8
Visible (ANSI)
100
AcDbEllipse
 10
116.9754123726712
 20
38.74442493806093
 30
0.0
 11
-0.0799731108308332
 21
0.1388755506642912
 31
0.0
210
0.0
220
0.0
230
1.0
 40
0.5780931159158117
 41
0.0
 42
6.283185307179586
  0
ELLIPSE
  5
1F2
330
6C
100
AcDbEntity
  8
Visible (ANSI)
100
AcDbEllipse
 10
117.0179067705791
 20
68.7246609984249
 30
0.0
 11
-0.0799731108308331
 21
0.138875550664291
 31
0.0
210
0.0
220
0.0
230
1.0
 40
0.578093115915812
 41
0.2678448778124478
 42
2.873747775777209
  0
ELLIPSE
  5
1F3
330
6C
100
AcDbEntity
  8
Visible (ANSI)
100
AcDbEllipse
 10
116.9754123726712
 20
68.70019010216333
 30
0.0
 11
-0.0799731108308332
 21
0.1388755506642912
 31
0.0
210
0.0
220
0.0
230
1.0
 40
0.5780931159158117
 41
0.0
 42
6.283185307179586
  0
ELLIPSE
  5
1F4
330
6C
100
AcDbEntity
  8
Visible (ANSI)
100
AcDbEllipse
 10
110.0527236664595
 20
42.57281313936818
 30
0.0
 11
-0.0349802386773912
 21
-0.0607441658605699
 31
0.0
210
0.0
220
0.0
230
1.0
 40
0.5780931159156425
 41
5.495853435359251
 42
6.283185307179683
  0
ELLIPSE
  5
1F5
330
6C
100
AcDbEntity
  8
Visible (ANSI)
100
AcDbEllipse
 10
123.9972320103223
 20
34.54270484506984
 30
0.0
 11
-0.0349802386773935
 21
-0.0607441658605738
 31
0.0
210
0.0
220
0.0
230
1.0
 40
0.5780931159156425
 41
5.495853435359157
 42
5.556343885665608
  0
LINE
  5
1F6
330
6C
100
AcDbEntity
  8
Visible Narrow (ANSI)
100
AcDbLine
 10
110.0031582007398
 20
42.5442702859687
 30
0.0
 11
123.9476665446026
 21
34.51416199167035
 31
0.0
  0
LINE
  5
1F7
330
6C
100
AcDbEntity
  8
Visible (ANSI)
100
AcDbLine
 10
123.9477571993182
 20
34.51421460082561
 30
0.0
 11
123.9477571993182
 21
34.45680287805222
 31
0.0
  0
LINE
  5
1F8
330
6C
100
AcDbEntity
  8
Visible (ANSI)
100
AcDbLine
 10
123.9476665446026
 20
34.51426680540431
 30
0.0
 11
123.9477571993182
 21
34.51421460082561
 31
0.0
  0
LINE
  5
1F9
330
6C
100
AcDbEntity
  8
Visible (ANSI)
100
AcDbLine
 10
110.0030675460242
 20
42.54442730428134
 30
0.0
 11
110.0031582007398
 21
42.54437509970265
 31
0.0
  0
LINE
  5
1FA
330
6C
100
AcDbEntity
  8
Visible (ANSI)
100
AcDbLine
 10
110.0030675460242
 20
42.48701558150794
 30
0.0
 11
110.0030675460242
 21
42.54442730428134
 31
0.0
  0
LINE
  5
1FB
330
6C
100
AcDbEntity
  8
Visible (ANSI)
100
AcDbLine
 10
110.0321584459528
 20
42.50376791662406
 30
0.0
 11
110.0030675460242
 21
42.48701558150794
 31
0.0
  0
LINE
  5
1FC
330
6C
100
AcDbEntity
  8
Visible (ANSI)
100
AcDbLine
 10
110.0177434277821
 20
42.51206897350761
 30
0.0
 11
123.9477571993182
 21
34.49030754828442
 31
0.0
  0
LINE
  5
1FD
330
6C
100
AcDbEntity
  8
Visible (ANSI)
100
AcDbLine
 10
110.0031582007398
 20
42.54437509970265
 30
0.0
 11
110.0031582007398
 21
42.5442702859687
 31
0.0
  0
LINE
  5
1FE
330
6C
100
AcDbEntity
  8
Visible (ANSI)
100
AcDbLine
 10
123.9476665446026
 20
34.51416199167035
 30
0.0
 11
123.9476665446026
 21
34.51426680540431
 31
0.0
  0
ELLIPSE
  5
1FF
330
6C
100
AcDbEntity
  8
Visible (ANSI)
100
AcDbEllipse
 10
124.5331826885756
 20
64.39690142491473
 30
0.0
 11
-0.0799731108308338
 21
0.1388755506642924
 31
0.0
210
0.0
220
0.0
230
1.0
 40
0.578093115915812
 41
0.2678448778124487
 42
2.873747775777209
  0
ELLIPSE
  5
200
330
6C
100
AcDbEntity
  8
Visible (ANSI)
100
AcDbEllipse
 10
109.5026308525825
 20
73.05242057193506
 30
0.0
 11
-0.0799731108308333
 21
0.1388755506642914
 31
0.0
210
0.0
220
0.0
230
0.9999999999999998
 40
0.5780931159158119
 41
0.2678448778124487
 42
2.873747775777209
  0
ELLIPSE
  5
201
330
6C
100
AcDbEntity
  8
Visible (ANSI)
100
AcDbEllipse
 10
109.5026308525825
 20
43.09665540783266
 30
0.0
 11
-0.0799731108308332
 21
0.1388755506642912
 31
0.0
210
0.0
220
0.0
230
1.0
 40
0.5780931159158119
 41
0.2678448778124487
 42
2.873747775777188
  0
ELLIPSE
  5
202
330
6C
100
AcDbEntity
  8
Visible (ANSI)
100
AcDbEllipse
 10
124.5331826885756
 20
34.44113626081232
 30
0.0
 11
-0.0799731108308337
 21
0.1388755506642921
 31
0.0
210
0.0
220
0.0
230
1.0
 40
0.578093115915812
 41
0.2678448778124123
 42
2.873747775777188
  0
ELLIPSE
  5
203
330
6C
100
AcDbEntity
  8
Visible (ANSI)
100
AcDbEllipse
 10
124.5331826885756
 20
64.00384992258658
 30
0.0
 11
0.0499831942692767
 21
-0.0867972191651804
 31
0.0
210
0.0
220
0.0
230
1.0
 40
0.578093115915812
 41
3.578838513251549
 42
5.845939447516718
  0
ELLIPSE
  5
204
330
6C
100
AcDbEntity
  8
Visible (ANSI)
100
AcDbEllipse
 10
109.5026308525825
 20
72.65936906960693
 30
0.0
 11
0.0499831942692759
 21
-0.086797219165179
 31
0.0
210
0.0
220
0.0
230
1.0
 40
0.578093115915812
 41
3.578838513251547
 42
5.845939447516718
  0
ELLIPSE
  5
205
330
6C
100
AcDbEntity
  8
Visible (ANSI)
100
AcDbEllipse
 10
109.5026308525825
 20
43.4897069101608
 30
0.0
 11
0.049983194269276
 21
-0.0867972191651791
 31
0.0
210
0.0
220
0.0
230
1.0
 40
0.578093115915812
 41
3.578838513251486
 42
5.845939447516739
  0
ELLIPSE
  5
206
330
6C
100
AcDbEntity
  8
Visible (ANSI)
100
AcDbEllipse
 10
124.5331826885756
 20
34.83418776314047
 30
0.0
 11
0.0499831942692763
 21
-0.0867972191651796
 31
0.0
210
0.0
220
0.0
230
1.0
 40
0.578093115915812
 41
3.578838513251486
 42
5.845939447516717
  0
ELLIPSE
  5
207
330
6C
100
AcDbEntity
  8
Visible (ANSI)
100
AcDbEllipse
 10
124.4906882906678
 20
64.37243052865317
 30
0.0
 11
-0.0799731108308332
 21
0.1388755506642912
 31
0.0
210
0.0
220
0.0
230
1.0
 40
0.578093115915812
 41
0.0
 42
6.283185307179586
  0
ELLIPSE
  5
208
330
6C
100
AcDbEntity
  8
Visible (ANSI)
100
AcDbEllipse
 10
109.4601364546746
 20
73.0279496756735
 30
0.0
 11
-0.0799731108308332
 21
0.1388755506642912
 31
0.0
210
0.0
220
0.0
230
1.0
 40
0.578093115915812
 41
0.0
 42
6.283185307179586
  0
ELLIPSE
  5
209
330
6C
100
AcDbEntity
  8
Visible (ANSI)
100
AcDbEllipse
 10
109.4601364546746
 20
43.07218451157109
 30
0.0
 11
-0.0799731108308332
 21
0.1388755506642912
 31
0.0
210
0.0
220
0.0
230
1.0
 40
0.578093115915812
 41
0.0
 42
6.283185307179586
  0
ELLIPSE
  5
20A
330
6C
100
AcDbEntity
  8
Visible (ANSI)
100
AcDbEllipse
 10
124.4906882906678
 20
34.41666536455076
 30
0.0
 11
-0.0799731108308332
 21
0.1388755506642912
 31
0.0
210
0.0
220
0.0
230
1.0
 40
0.578093115915812
 41
0.0
 42
6.283185307179586
  0
ELLIPSE
  5
20B
330
6C
100
AcDbEntity
  8
Visible (ANSI)
100
AcDbEllipse
 10
124.4906882906678
 20
63.97937902632502
 30
0.0
 11
-0.0499831942692708
 21
0.0867972191651821
 31
0.0
210
0.0
220
0.0
230
1.0
 40
0.578093115915812
 41
0.0
 42
6.283185307179586
  0
ELLIPSE
  5
20C
330
6C
100
AcDbEntity
  8
Visible (ANSI)
100
AcDbEllipse
 10
109.4601364546746
 20
72.63489817334536
 30
0.0
 11
-0.0499831942692708
 21
0.0867972191651821
 31
0.0
210
0.0
220
0.0
230
1.0
 40
0.578093115915812
 41
0.0
 42
6.283185307179586
  0
ELLIPSE
  5
20D
330
6C
100
AcDbEntity
  8
Visible (ANSI)
100
AcDbEllipse
 10
109.4601364546746
 20
43.46523601389923
 30
0.0
 11
-0.0499831942692708
 21
0.0867972191651821
 31
0.0
210
0.0
220
0.0
230
1.0
 40
0.578093115915812
 41
0.0
 42
6.283185307179586
  0
ELLIPSE
  5
20E
330
6C
100
AcDbEntity
  8
Visible (ANSI)
100
AcDbEllipse
 10
124.4906882906678
 20
34.80971686687891
 30
0.0
 11
-0.0499831942692708
 21
0.0867972191651821
 31
0.0
210
0.0
220
0.0
230
1.0
 40
0.578093115915812
 41
0.0
 42
6.283185307179586
  0
LINE
  5
20F
330
6C
100
AcDbEntity
  8
Visible (ANSI)
100
AcDbLine
 10
110.0455619439321
 20
73.01228305843361
 30
0.0
 11
109.4935653810288
 21
73.33015673808503
 31
0.0
  0
LINE
  5
210
330
6C
100
AcDbEntity
  8
Visible (ANSI)
100
AcDbLine
 10
124.5422481601293
 20
64.66419667532645
 30
0.0
 11
123.990251597226
 21
64.98207035497786
 31
0.0
  0
LINE
  5
211
330
6C
100
AcDbEntity
  8
Visible (ANSI)
100
AcDbLine
 10
124.7688849489712
 20
63.63344006766577
 30
0.0
 11
124.7688849489712
 21
64.27165089371271
 31
0.0
  0
LINE
  5
212
330
6C
100
AcDbEntity
  8
Visible (ANSI)
100
AcDbLine
 10
124.7688849489712
 20
34.29492298281949
 30
0.0
 11
124.7688849489712
 21
34.93313380886644
 31
0.0
  0
LINE
  5
213
330
6C
100
AcDbEntity
  8
Visible (ANSI)
100
AcDbLine
 10
110.0030675460242
 20
42.48701558150794
 30
0.0
 11
109.4510709831209
 21
42.80488926115937
 31
0.0
  0
LINE
  5
214
330
6C
100
AcDbEntity
  8
Visible (ANSI)
100
AcDbLine
 10
124.4997537622214
 20
34.13892919840078
 30
0.0
 11
123.9477571993182
 21
34.45680287805222
 31
0.0
  0
LINE
  5
215
330
6C
100
AcDbEntity
  8
Visible (ANSI)
100
AcDbLine
 10
124.7263905510633
 20
34.90866291260488
 30
0.0
 11
124.7263905510633
 21
34.27045208655793
 31
0.0
  0
LINE
  5
216
330
6C
100
AcDbEntity
  8
Visible (ANSI)
100
AcDbLine
 10
124.7263905510634
 20
64.24717999745116
 30
0.0
 11
124.7263905510633
 21
63.6089691714042
 31
0.0
  0
LINE
  5
217
330
6C
100
AcDbEntity
  8
Visible (ANSI)
100
AcDbLine
 10
123.9477571993182
 20
64.9575994587163
 30
0.0
 11
124.4997537622215
 21
64.63972577906488
 31
0.0
  0
LINE
  5
218
330
6C
100
AcDbEntity
  8
Visible (ANSI)
100
AcDbLine
 10
109.451070983121
 20
73.30568584182348
 30
0.0
 11
110.0030675460242
 21
72.98781216217204
 31
0.0
  0
LINE
  5
219
330
6C
100
AcDbEntity
  8
Visible (ANSI)
100
AcDbLine
 10
109.2244341942791
 20
72.5359521276194
 30
0.0
 11
109.2244341942791
 21
73.17416295366633
 31
0.0
  0
LINE
  5
21A
330
6C
100
AcDbEntity
  8
Visible (ANSI)
100
AcDbLine
 10
109.2244341942791
 20
43.1974350427731
 30
0.0
 11
109.2244341942791
 21
43.83564586882005
 31
0.0
  0
LINE
  5
21B
330
6C
100
AcDbEntity
  8
Visible (ANSI)
100
AcDbLine
 10
110.0455619439321
 20
73.01228305843361
 30
0.0
 11
110.0455619439321
 21
73.01157728409511
 31
0.0
  0
LINE
  5
21C
330
6C
100
AcDbEntity
  8
Visible (ANSI)
100
AcDbLine
 10
123.9477571993182
 20
64.9575994587163
 30
0.0
 11
123.9477571993182
 21
64.90018773594292
 31
0.0
  0
LINE
  5
21D
330
6C
100
AcDbEntity
  8
Visible (ANSI)
100
AcDbLine
 10
123.9477571993182
 20
64.90018773594292
 30
0.0
 11
123.9476665446027
 21
64.9002399405216
 31
0.0
  0
LINE
  5
21E
330
6C
100
AcDbEntity
  8
Visible Narrow (ANSI)
100
AcDbLine
 10
123.9476665446027
 20
64.90034475425556
 30
0.0
 11
110.0031582007398
 21
72.93045304855393
 31
0.0
  0
LINE
  5
21F
330
6C
100
AcDbEntity
  8
Visible (ANSI)
100
AcDbLine
 10
110.0031582007398
 20
72.93034823481995
 30
0.0
 11
110.0030675460242
 21
72.93040043939865
 31
0.0
  0
LINE
  5
220
330
6C
100
AcDbEntity
  8
Visible (ANSI)
100
AcDbLine
 10
110.0030675460242
 20
72.93040043939865
 30
0.0
 11
110.0030675460242
 21
72.98781216217204
 31
0.0
  0
LINE
  5
221
330
6C
100
AcDbEntity
  8
Visible Narrow (ANSI)
100
AcDbLine
 10
123.9972320103227
 20
64.98619451669466
 30
0.0
 11
110.0527236664595
 21
73.01630281099285
 31
0.0
  0
ELLIPSE
  5
222
330
6C
100
AcDbEntity
  8
Visible (ANSI)
100
AcDbEllipse
 10
123.9972320103224
 20
64.92888760765509
 30
0.0
 11
0.0349802386774311
 21
0.0607441658606308
 31
0.0
210
0.0
220
0.0
230
1.0
 40
0.5780931159156425
 41
2.293770331463079
 42
2.354260781769637
  0
ELLIPSE
  5
223
330
6C
100
AcDbEntity
  8
Visible (ANSI)
100
AcDbEllipse
 10
123.9972320103224
 20
64.9288876076536
 30
0.0
 11
0.0349802386782896
 21
0.06074416586213
 31
0.0
210
0.0
220
0.0
230
1.0
 40
0.5780931159156426
 41
0.7834644549696357
 42
0.9175200251359791
  0
LINE
  5
224
330
6C
100
AcDbEntity
  8
Visible (ANSI)
100
AcDbLine
 10
123.9476665446027
 20
64.9002399405216
 30
0.0
 11
123.9477571993182
 21
64.9002921451003
 31
0.0
  0
ELLIPSE
  5
225
330
6C
100
AcDbEntity
  8
Visible (ANSI)
100
AcDbEllipse
 10
110.0527236664595
 20
72.95899590195341
 30
0.0
 11
0.0349802386773912
 21
0.0607441658605644
 31
0.0
210
0.0
220
0.0
230
1.0
 40
0.5780931159156274
 41
0.7834644549750056
 42
2.35426078177006
  0
LINE
  5
226
330
6C
100
AcDbEntity
  8
Visible (ANSI)
100
AcDbLine
 10
110.0030675460242
 20
72.98781216217204
 30
0.0
 11
110.0455619439321
 21
73.01228305843361
 31
0.0
  0
LINE
  5
227
330
6C
100
AcDbEntity
  8
Visible (ANSI)
100
AcDbLine
 10
110.0030675460242
 20
72.93040043939865
 30
0.0
 11
110.0031582007398
 21
72.93045264397735
 31
0.0
  0
LINE
  5
228
330
6C
100
AcDbEntity
  8
Visible (ANSI)
100
AcDbLine
 10
123.990251597226
 20
64.98207035497786
 30
0.0
 11
123.9477571993182
 21
64.9575994587163
 31
0.0
  0
LINE
  5
229
330
6C
100
AcDbEntity
  8
Visible (ANSI)
100
AcDbLine
 10
124.7688849489712
 20
64.27165089371271
 30
0.0
 11
124.5422481601293
 21
64.66419667532645
 31
0.0
  0
LINE
  5
22A
330
6C
100
AcDbEntity
  8
Visible (ANSI)
100
AcDbLine
 10
124.4997537622215
 20
64.63972577906488
 30
0.0
 11
124.7263905510634
 21
64.24717999745116
 31
0.0
  0
LINE
  5
22B
330
6C
100
AcDbEntity
  8
Visible (ANSI)
100
AcDbLine
 10
124.5422481601293
 20
64.66419667532645
 30
0.0
 11
124.4997537622215
 21
64.63972577906488
 31
0.0
  0
LINE
  5
22C
330
6C
100
AcDbEntity
  8
Visible (ANSI)
100
AcDbLine
 10
124.7263905510634
 20
64.24717999745116
 30
0.0
 11
124.7688849489712
 21
64.27165089371271
 31
0.0
  0
LINE
  5
22D
330
6C
100
AcDbEntity
  8
Visible (ANSI)
100
AcDbLine
 10
124.7682737633788
 20
34.93348576724131
 30
0.0
 11
124.7688849489712
 21
34.93313380886644
 31
0.0
  0
LINE
  5
22E
330
6C
100
AcDbEntity
  8
Visible (ANSI)
100
AcDbLine
 10
124.7263905510633
 20
34.90866291260488
 30
0.0
 11
124.6767344306281
 21
34.93725797058304
 31
0.0
  0
LINE
  5
22F
330
6C
100
AcDbEntity
  8
Visible (ANSI)
100
AcDbLine
 10
124.6767344306281
 20
34.93725797058304
 30
0.0
 11
124.6767344306281
 21
34.937362784317
 31
0.0
  0
LINE
  5
230
330
6C
100
AcDbEntity
  8
Visible Narrow (ANSI)
100
AcDbLine
 10
124.6768250853436
 20
34.93731057973831
 30
0.0
 11
124.6768250853437
 21
63.63740721106973
 31
0.0
  0
LINE
  5
231
330
6C
100
AcDbEntity
  8
Visible (ANSI)
100
AcDbLine
 10
124.6767344306281
 20
63.63745941564842
 30
0.0
 11
124.6767344306281
 21
63.63756422938237
 31
0.0
  0
LINE
  5
232
330
6C
100
AcDbEntity
  8
Visible (ANSI)
100
AcDbLine
 10
124.6767344306281
 20
63.63756422938237
 30
0.0
 11
124.7263905510633
 21
63.6089691714042
 31
0.0
  0
LINE
  5
233
330
6C
100
AcDbEntity
  8
Visible Narrow (ANSI)
100
AcDbLine
 10
124.775956016783
 20
34.93731057973832
 30
0.0
 11
124.775956016783
 21
63.63740721106974
 31
0.0
  0
ELLIPSE
  5
234
330
6C
100
AcDbEntity
  8
Visible (ANSI)
100
AcDbEllipse
 10
124.7263905510633
 20
34.9658534331378
 30
0.0
 11
0.0700961538461544
 21
0.0000000000000041
 31
0.0
210
0.0
220
0.0
230
1.0
 40
0.5758617009853071
 41
3.92699081698746
 42
5.497787143782262
  0
LINE
  5
235
330
6C
100
AcDbEntity
  8
Visible (ANSI)
100
AcDbLine
 10
124.6767344306281
 20
63.63745941564842
 30
0.0
 11
124.6768254366229
 21
63.6375118225154
 31
0.0
  0
ELLIPSE
  5
236
330
6C
100
AcDbEntity
  8
Visible (ANSI)
100
AcDbEllipse
 10
124.7263905510633
 20
63.66595006446922
 30
0.0
 11
0.0700961538461616
 21
0.0000000000000041
 31
0.0
210
0.0
220
0.0
230
1.0
 40
0.5758617009853071
 41
3.926990816987244
 42
3.987598387464358
  0
ELLIPSE
  5
237
330
6C
100
AcDbEntity
  8
Visible (ANSI)
100
AcDbEllipse
 10
124.7263905510635
 20
63.66595006446911
 30
0.0
 11
0.0700961538459172
 21
-0.0000000000000001
 31
0.0
210
0.0
220
0.0
230
1.0
 40
0.5758617009853069
 41
5.363700662383088
 42
5.497787143782706
  0
LINE
  5
238
330
6C
100
AcDbEntity
  8
Visible (ANSI)
100
AcDbLine
 10
124.7263905510633
 20
63.6089691714042
 30
0.0
 11
124.7688849489712
 21
63.63344006766577
 31
0.0
  0
LINE
  5
239
330
6C
100
AcDbEntity
  8
Visible (ANSI)
100
AcDbLine
 10
124.6767344306281
 20
34.93725797058304
 30
0.0
 11
124.6768254366241
 21
34.93731037745074
 31
0.0
  0
LINE
  5
23A
330
6C
100
AcDbEntity
  8
Visible (ANSI)
100
AcDbLine
 10
124.7688849489712
 20
34.93313380886644
 30
0.0
 11
124.7263905510633
 21
34.90866291260488
 31
0.0
  0
LINE
  5
23B
330
6C
100
AcDbEntity
  8
Visible (ANSI)
100
AcDbLine
 10
124.5422481601293
 20
34.16340009466234
 30
0.0
 11
124.7688849489712
 21
34.29492298281949
 31
0.0
  0
LINE
  5
23C
330
6C
100
AcDbEntity
  8
Visible (ANSI)
100
AcDbLine
 10
124.7263905510633
 20
34.27045208655793
 30
0.0
 11
124.4997537622214
 21
34.13892919840078
 31
0.0
  0
LINE
  5
23D
330
6C
100
AcDbEntity
  8
Visible (ANSI)
100
AcDbLine
 10
124.4997537622214
 20
34.13892919840078
 30
0.0
 11
124.5422481601293
 21
34.16340009466234
 31
0.0
  0
LINE
  5
23E
330
6C
100
AcDbEntity
  8
Visible (ANSI)
100
AcDbLine
 10
124.7688849489712
 20
34.29492298281949
 30
0.0
 11
124.7263905510633
 21
34.27045208655793
 31
0.0
  0
LINE
  5
23F
330
6C
100
AcDbEntity
  8
Visible (ANSI)
100
AcDbLine
 10
124.6767344306281
 20
34.937362784317
 30
0.0
 11
124.6768250853436
 21
34.93731057973831
 31
0.0
  0
LINE
  5
240
330
6C
100
AcDbEntity
  8
Visible (ANSI)
100
AcDbLine
 10
124.6768250853437
 20
63.63740721106973
 30
0.0
 11
124.6767344306281
 21
63.63745941564842
 31
0.0
  0
LINE
  5
241
330
6C
100
AcDbEntity
  8
Visible (ANSI)
100
AcDbLine
 10
124.775956016783
 20
34.93731057973832
 30
0.0
 11
125.0772243001904
 21
35.11079944587429
 31
0.0
  0
LINE
  5
242
330
6C
100
AcDbEntity
  8
Visible (ANSI)
100
AcDbLine
 10
125.0772243001905
 20
63.81089607720571
 30
0.0
 11
125.0772243001904
 21
35.11079944587429
 31
0.0
  0
LINE
  5
243
330
6C
100
AcDbEntity
  8
Visible (ANSI)
100
AcDbLine
 10
125.0772243001905
 20
63.81089607720571
 30
0.0
 11
124.775956016783
 21
63.63740721106974
 31
0.0
  0
LINE
  5
244
330
6C
100
AcDbEntity
  8
Visible (ANSI)
100
AcDbLine
 10
125.0347299022826
 20
63.83536697346727
 30
0.0
 11
125.0772243001905
 21
63.81089607720571
 31
0.0
  0
LINE
  5
245
330
6C
100
AcDbEntity
  8
Visible (ANSI)
100
AcDbLine
 10
124.7688849489712
 20
63.68227704645494
 30
0.0
 11
125.0347299022826
 21
63.83536697346727
 31
0.0
  0
LINE
  5
246
330
6C
100
AcDbEntity
  8
Visible (ANSI)
100
AcDbLine
 10
123.9476665446027
 20
64.9002399405216
 30
0.0
 11
123.9476665446027
 21
64.90034475425556
 31
0.0
  0
LINE
  5
247
330
6C
100
AcDbEntity
  8
Visible (ANSI)
100
AcDbLine
 10
110.0031582007398
 20
72.93045304855393
 30
0.0
 11
110.0031582007398
 21
72.93034823481995
 31
0.0
  0
LINE
  5
248
330
6C
100
AcDbEntity
  8
Visible (ANSI)
100
AcDbLine
 10
123.9972320103227
 20
64.98619451669466
 30
0.0
 11
124.2985002937298
 21
65.15968338283045
 31
0.0
  0
LINE
  5
249
330
6C
100
AcDbEntity
  8
Visible (ANSI)
100
AcDbLine
 10
110.3539919498669
 20
73.18979167712882
 30
0.0
 11
124.2985002937298
 21
65.15968338283045
 31
0.0
  0
LINE
  5
24A
330
6C
100
AcDbEntity
  8
Visible (ANSI)
100
AcDbLine
 10
110.3539919498669
 20
73.18979167712882
 30
0.0
 11
110.0527236664595
 21
73.01630281099285
 31
0.0
  0
LINE
  5
24B
330
6C
100
AcDbEntity
  8
Visible (ANSI)
100
AcDbLine
 10
124.2985002937298
 20
65.11055194503945
 30
0.0
 11
124.0328200025825
 21
64.95755684066107
 31
0.0
  0
LINE
  5
24C
330
6C
100
AcDbEntity
  8
Visible (ANSI)
100
AcDbLine
 10
124.2985002937298
 20
65.15968338283045
 30
0.0
 11
124.2985002937298
 21
65.11055194503945
 31
0.0
  0
LINE
  5
24D
330
6C
100
AcDbEntity
  8
Visible (ANSI)
100
AcDbLine
 10
109.2244341942791
 20
73.17416295366633
 30
0.0
 11
109.451070983121
 21
73.30568584182348
 31
0.0
  0
LINE
  5
24E
330
6C
100
AcDbEntity
  8
Visible (ANSI)
100
AcDbLine
 10
109.451070983121
 20
73.30568584182348
 30
0.0
 11
109.4935653810288
 21
73.33015673808503
 31
0.0
  0
LINE
  5
24F
330
6C
100
AcDbEntity
  8
Visible (ANSI)
100
AcDbLine
 10
109.2244341942791
 20
72.5359521276194
 30
0.0
 11
109.2740903147143
 21
72.50735706964123
 31
0.0
  0
LINE
  5
250
330
6C
100
AcDbEntity
  8
Visible (ANSI)
100
AcDbLine
 10
109.2740903147143
 20
72.50735706964123
 30
0.0
 11
109.2740903147143
 21
72.50725225590726
 31
0.0
  0
LINE
  5
251
330
6C
100
AcDbEntity
  8
Visible Narrow (ANSI)
100
AcDbLine
 10
109.2739996599988
 20
72.50730446048597
 30
0.0
 11
109.2739996599988
 21
43.80720782915453
 31
0.0
  0
LINE
  5
252
330
6C
100
AcDbEntity
  8
Visible (ANSI)
100
AcDbLine
 10
109.2740903147143
 20
43.80715562457584
 30
0.0
 11
109.2740903147143
 21
43.80705081084189
 31
0.0
  0
LINE
  5
253
330
6C
100
AcDbEntity
  8
Visible (ANSI)
100
AcDbLine
 10
109.2740903147143
 20
43.80705081084189
 30
0.0
 11
109.2244341942791
 21
43.83564586882005
 31
0.0
  0
ELLIPSE
  5
254
330
6C
100
AcDbEntity
  8
Visible (ANSI)
100
AcDbEllipse
 10
109.3235651257185
 20
72.53584731388542
 30
0.0
 11
-0.0700961538461408
 21
0.0
 31
0.0
210
0.0
220
0.0
230
1.0
 40
0.5758617009853071
 41
0.72479059292003
 42
0.7853981633972467
  0
ELLIPSE
  5
255
330
6C
100
AcDbEntity
  8
Visible (ANSI)
100
AcDbEllipse
 10
109.3235651257185
 20
43.83575068255401
 30
0.0
 11
-0.0700961538461537
 21
0.0000000000000014
 31
0.0
210
0.0
220
0.0
230
1.0
 40
0.57586170098529
 41
0.0
 42
0.7853981633973782
  0
LINE
  5
256
330
6C
100
AcDbEntity
  8
Visible (ANSI)
100
AcDbLine
 10
109.2244341942791
 20
43.83564586882005
 30
0.0
 11
109.2534689718724
 21
43.85236588523265
 31
0.0
  0
LINE
  5
257
330
6C
100
AcDbEntity
  8
Visible (ANSI)
100
AcDbLine
 10
109.2534689718724
 20
72.51923211120679
 30
0.0
 11
109.2534689718724
 21
43.835750682554
 31
0.0
  0
LINE
  5
258
330
6C
100
AcDbEntity
  8
Visible (ANSI)
100
AcDbLine
 10
109.2740903147143
 20
72.50725225590726
 30
0.0
 11
109.2739996599988
 21
72.50730446048597
 31
0.0
  0
LINE
  5
259
330
6C
100
AcDbEntity
  8
Visible (ANSI)
100
AcDbLine
 10
109.2739996599988
 20
43.80720782915453
 30
0.0
 11
109.2740903147143
 21
43.80715562457584
 31
0.0
  0
LINE
  5
25A
330
6C
100
AcDbEntity
  8
Visible (ANSI)
100
AcDbLine
 10
109.4391850894926
 20
72.65951412969122
 30
0.0
 11
109.4918565581689
 21
72.68984561123653
 31
0.0
  0
LINE
  5
25B
330
6C
100
AcDbEntity
  8
Visible (ANSI)
100
AcDbLine
 10
109.5153324111697
 20
72.65442266335456
 30
0.0
 11
109.4580392912589
 21
72.62142974986801
 31
0.0
  0
LINE
  5
25C
330
6C
100
AcDbEntity
  8
Visible (ANSI)
100
AcDbLine
 10
109.4510709831209
 20
42.80488926115937
 30
0.0
 11
109.2244341942791
 21
43.1974350427731
 31
0.0
  0
DIMENSION
  5
25D
330
6C
100
AcDbEntity
  8
Dimension (ANSI)
100
AcDbDimension
  2
*D4
 10
5.792693291914943
 20
68.21385071525522
 30
0.0
 11
5.792693291914931
 21
39.11385071525521
 31
0.0
 70
   160
  1
<>
 42
58.20000000000002
  3
Default (ANSI)
100
AcDbAlignedDimension
 13
23.35780534521596
 23
10.0138507152552
 33
0.0
 14
24.57580534521595
 24
68.21385071525522
 34
0.0
 50
90.0
100
AcDbRotatedDimension
1001
ACAD
1000
DSTYLE
1002
{
1070
   289
1070
     1
1070
   271
1070
     2
1070
   272
1070
     2
1070
    48
1040
0.0
1070
    47
1040
0.0
1002
}
  0
DIMENSION
  5
34A
330
6C
100
AcDbEntity
  8
Dimension (ANSI)
100
AcDbDimension
  2
*D5
 10
57.05780534521593
 20
78.99012970705058
 30
0.0
 11
39.95780534521594
 21
78.99012970705058
 31
0.0
 70
   160
  1
<>
 42
34.2
  3
Default (ANSI)
100
AcDbAlignedDimension
 13
22.85780534521594
 23
67.71385071525519
 33
0.0
 14
57.05780534521593
 24
67.71385071525519
 34
0.0
100
AcDbRotatedDimension
1001
ACAD
1000
DSTYLE
1002
{
1070
   289
1070
     1
1070
    73
1070
     0
1070
    74
1070
     0
1070
   271
1070
     2
1070
   272
1070
     2
1070
    48
1040
0.0
1070
    47
1040
0.0
1002
}
  0
DIMENSION
  5
434
330
6C
100
AcDbEntity
  8
Dimension (ANSI)
100
AcDbDimension
  2
*D6
 10
20.82569925749554
 20
11.2838507152552
 30
0.0
 11
18.65339589639706
 21
8.328981499141251
 31
0.0
 70
   160
  1
<>
 42
0.75
  3
Default (ANSI)
100
AcDbAlignedDimension
 13
23.37780534521596
 23
10.5338507152552
 33
0.0
 14
23.37780534521596
 24
11.2838507152552
 34
0.0
 50
90.0
100
AcDbRotatedDimension
1001
ACAD
1000
DSTYLE
1002
{
1070
   289
1070
     1
1070
   271
1070
     2
1070
   272
1070
     2
1070
    48
1040
0.0
1070
    47
1040
0.0
1002
}
  0
DIMENSION
  5
534
330
6C
100
AcDbEntity
  8
Dimension (ANSI)
100
AcDbDimension
  2
*D7
 10
63.98066867825645
 20
67.69385071525521
 30
0.0
 11
61.8030959053662
 21
65.48842047177616
 31
0.0
 70
   160
  1
<>
 42
0.5199999999999818
  3
Default (ANSI)
100
AcDbAlignedDimension
 13
56.55780534521595
 23
68.21385071525519
 33
0.0
 14
56.53780534521596
 24
67.69385071525521
 34
0.0
 50
270.0
100
AcDbRotatedDimension
1001
ACAD
1000
DSTYLE
1002
{
1070
   289
1070
     1
1070
   271
1070
     2
1070
   272
1070
     2
1070
    48
1040
0.0
1070
    47
1040
0.0
1002
}
  0
DIMENSION
  5
634
330
6C
100
AcDbEntity
  8
Dimension (ANSI)
100
AcDbDimension
  2
*D8
 10
56.53780534521596
 20
72.41826016407408
 30
0.0
 11
61.16500493355101
 21
72.41826016407408
 31
0.0
 70
   160
  1
<>
 42
0.5199999999999818
  3
Default (ANSI)
100
AcDbAlignedDimension
 13
57.05780534521593
 23
67.71385071525519
 33
0.0
 14
56.53780534521596
 24
67.69385071525521
 34
0.0
 50
180.0
100
AcDbRotatedDimension
1001
ACAD
1000
DSTYLE
1002
{
1070
   289
1070
     1
1070
    73
1070
     0
1070
    74
1070
     0
1070
   271
1070
     2
1070
   272
1070
     2
1070
    48
1040
0.0
1070
    47
1040
0.0
1002
}
  0
DIMENSION
  5
71E
330
6C
100
AcDbEntity
  8
Dimension (ANSI)
100
AcDbDimension
  2
*D9
 10
17.19334897423165
 20
39.1138507152552
 30
0.0
 11
17.19334897423164
 21
24.8238507152552
 31
0.0
 70
   160
  1
<>
 42
28.58
  3
Default (ANSI)
100
AcDbAlignedDimension
 13
23.37780534521596
 23
10.5338507152552
 33
0.0
 14
23.37780534521596
 24
39.1138507152552
 34
0.0
 50
90.0
100
AcDbRotatedDimension
1001
ACAD
1000
DSTYLE
1002
{
1070
   289
1070
     1
1070
   271
1070
     3
1070
   272
1070
     3
1070
    48
1040
0.0
1070
    47
1040
0.0
1002
}
  0
DIMENSION
  5
808
330
6C
100
AcDbEntity
  8
Dimension (ANSI)
100
AcDbDimension
  2
*D10
 10
12.29601456102129
 20
67.69385071525519
 30
0.0
 11
12.29601456102127
 21
39.1138507152552
 31
0.0
 70
   160
  1
<>
 42
57.15999999999999
  3
Default (ANSI)
100
AcDbAlignedDimension
 13
23.37780534521596
 23
10.5338507152552
 33
0.0
 14
23.37780534521596
 24
67.69385071525519
 34
0.0
 50
90.0
100
AcDbRotatedDimension
1001
ACAD
1000
DSTYLE
1002
{
1070
   289
1070
     1
1070
   271
1070
     3
1070
   272
1070
     3
1070
    48
1040
0.0
1070
    47
1040
0.0
1002
}
  0
DIMENSION
  5
8F2
330
6C
100
AcDbEntity
  8
Dimension (ANSI)
100
AcDbDimension
  2
*D11
 10
39.95780534521594
 20
72.4182601640741
 30
0.0
 11
48.24780534521596
 21
72.4182601640741
 31
0.0
 70
   160
  1
<>
 42
16.58000000000002
  3
Default (ANSI)
100
AcDbAlignedDimension
 13
56.53780534521596
 23
67.69385071525521
 33
0.0
 14
39.95780534521594
 24
67.69385071525519
 34
0.0
 50
180.0
100
AcDbRotatedDimension
1001
ACAD
1000
DSTYLE
1002
{
1070
   289
1070
     1
1070
    73
1070
     0
1070
    74
1070
     0
1070
   271
1070
     3
1070
   272
1070
     3
1070
    48
1040
0.0
1070
    47
1040
0.0
1002
}
  0
DIMENSION
  5
9DC
330
6C
100
AcDbEntity
  8
Dimension (ANSI)
100
AcDbDimension
  2
*D12
 10
75.18198339449208
 20
71.2202601640741
 30
0.0
 11
71.07713245754618
 21
71.2202601640741
 31
0.0
 70
   160
  1
<>
 42
0.7739999999996315
  3
Default (ANSI)
100
AcDbAlignedDimension
 13
74.40798339449244
 23
68.21385071525519
 33
0.0
 14
75.18198339449208
 24
68.21385071525519
 34
0.0
 50
180.0
100
AcDbRotatedDimension
1001
ACAD
1000
DSTYLE
1002
{
1070
   289
1070
     1
1070
    73
1070
     0
1070
    74
1070
     0
1070
   271
1070
     2
1070
   272
1070
     2
1070
    48
1040
0.0
1070
    47
1040
0.0
1002
}
  0
MTEXT
  5
AC6
102
{ACAD_REACTORS
330
AC7
102
}
330
6C
100
AcDbEntity
  8
Symbol (ANSI)
100
AcDbMText
 10
79.85053176918398
 20
45.32998650469741
 30
0.0
 40
0.9230769344852014
 41
3.775339787978247
 71
     1
 72
     1
  1
{12 GA.}
  7
Note Text (ANSI)
 73
     1
 44
1.0
1001
ACAD
1000
MTEXTBEGIN
1070
    73
1070
     1
1070
    44
1040
1.0
1070
    74
1070
     0
1000
MTEXTEND
  0
LEADER
  5
AC7
330
6C
100
AcDbEntity
  8
Symbol (ANSI)
100
AcDbLeader
  3
Default (ANSI)$7
 73
     0
 74
     0
 75
     1
 40
0.9602727814087153
 41
3.51748725740029
 76
     3
 10
75.18198339449259
 20
39.1138507152552
 30
0.0
 10
78.85113747985158
 20
44.86844803745481
 30
0.0
 10
79.60825436155225
 20
44.86844803745481
 30
0.0
340
AC6
213
0.0
223
-0.4615384672426007
233
0.0
1001
ACAD
1000
DSTYLE
1002
{
1070
    77
1070
     0
1002
}
  0
DIMENSION
  5
AC8
330
6C
100
AcDbEntity
  8
Dimension (ANSI)
100
AcDbDimension
  2
*D13
 10
59.3613180357005
 20
10.5138507152552
 30
0.0
 11
61.54106056638735
 21
12.71871993136915
 31
0.0
 70
   160
  1
<>
 42
0.5000000000000018
  3
Default (ANSI)
100
AcDbAlignedDimension
 13
56.55780534521595
 23
10.0138507152552
 33
0.0
 14
57.05780534521595
 24
10.5138507152552
 34
0.0
 50
90.0
100
AcDbRotatedDimension
1001
ACAD
1000
DSTYLE
1002
{
1070
   289
1070
     1
1070
   271
1070
     2
1070
   272
1070
     2
1070
    48
1040
0.0
1070
    47
1040
0.0
1002
}
  0
DIMENSION
  5
BC8
330
6C
100
AcDbEntity
  8
Dimension (ANSI)
100
AcDbDimension
  2
*D14
 10
56.55780534521595
 20
5.289441266436298
 30
0.0
 11
53.2269544082697
 21
5.289441266436298
 31
0.0
 70
   160
  1
<>
 42
0.5
  3
Default (ANSI)
100
AcDbAlignedDimension
 13
57.05780534521595
 23
10.5138507152552
 33
0.0
 14
56.55780534521595
 24
10.0138507152552
 34
0.0
 50
180.0
100
AcDbRotatedDimension
1001
ACAD
1000
DSTYLE
1002
{
1070
   289
1070
     1
1070
    73
1070
     0
1070
    74
1070
     0
1070
   271
1070
     2
1070
   272
1070
     2
1070
    48
1040
0.0
1070
    47
1040
0.0
1002
}
  0
DIMENSION
  5
CB2
330
6C
100
AcDbEntity
  8
Dimension (ANSI)
100
AcDbDimension
  2
*D15
 10
23.502805345216
 20
67.47734436430909
 30
0.0
 11
15.03815367170543
 21
75.00224518392778
 31
0.0
 70
   163
  1
<>{\PTYP.(8PL.)}
 71
     3
 42
0.5
  3
Default (ANSI)
100
AcDbDiametricDimension
 15
23.2528053452159
 25
67.91035706620125
 35
0.0
 40
0.0
1001
ACAD_DSTYLE_DIMRADIAL_EXTENSION
1070
   387
1070
     1
1070
   388
1040
0.0
1070
   390
1040
0.0
1001
ACAD
1000
DSTYLE
1002
{
1070
   145
1040
-0.25
1070
   144
1040
1.0
1070
   271
1070
     2
1070
   272
1070
     2
1070
    48
1040
0.0
1070
    47
1040
0.0
1002
}
  0
DIMENSION
  5
D6C
330
6C
100
AcDbEntity
  8
Dimension (ANSI)
100
AcDbDimension
  2
*D16
 10
23.2996803452159
 20
11.41916718459649
 30
0.0
 11
30.43406104811302
 21
6.541707132203137
 31
0.0
 70
   163
  1
<>{\PTYP. (4PL.)}
 42
0.3125
  3
Default (ANSI)
100
AcDbDiametricDimension
 15
23.45593034521597
 25
11.14853424591389
 35
0.0
 40
0.0
1001
ACAD_DSTYLE_DIMRADIAL_EXTENSION
1070
   387
1070
     1
1070
   388
1040
0.0
1070
   390
1040
0.0
1001
ACAD
1000
DSTYLE
1002
{
1070
   145
1040
-0.25
1070
   144
1040
0.9999999999999772
1070
   271
1070
     2
1070
   272
1070
     2
1070
    48
1040
0.0
1070
    47
1040
0.0
1002
}
  0
DIMENSION
  5
E25
330
6C
100
AcDbEntity
  8
Dimension (ANSI)
100
AcDbDimension
  2
*D17
 10
23.37780534521596
 20
76.00577033279624
 30
0.0
 11
39.95780534521597
 21
76.00577033279624
 31
0.0
 70
   160
  1
<>
 42
33.16
  3
Default (ANSI)
100
AcDbAlignedDimension
 13
56.53780534521596
 23
67.69385071525521
 33
0.0
 14
23.37780534521596
 24
67.69385071525519
 34
0.0
 50
180.0
100
AcDbRotatedDimension
1001
ACAD
1000
DSTYLE
1002
{
1070
   289
1070
     1
1070
    73
1070
     0
1070
    74
1070
     0
1070
   271
1070
     3
1070
   272
1070
     3
1070
    48
1040
0.0
1070
    47
1040
0.0
1002
}
  0
ENDSEC
  0
SECTION
  2
OBJECTS
  0
DICTIONARY
  5
C
330
0
100
AcDbDictionary
281
     1
  3
ACAD_CIP_PREVIOUS_PRODUCT_INFO
350
F0F
  3
ACAD_COLOR
350
63
  3
ACAD_GROUP
350
D
  3
ACAD_LAYOUT
350
62
  3
ACAD_MATERIAL
350
10
  3
ACAD_MLEADERSTYLE
350
66
  3
ACAD_MLINESTYLE
350
5F
  3
ACAD_PLOTSETTINGS
350
61
  3
ACAD_PLOTSTYLENAME
350
E
  3
ACAD_SCALELIST
350
42
  3
ACAD_TABLESTYLE
350
64
  3
ACAD_VISUALSTYLE
350
29
  3
ACDB_RECOMPOSE_DATA
350
F1E
  3
AcDbVariableDictionary
350
D8
  3
DWGPROPS
350
F1F
  0
DICTIONARY
  5
F5B
330
D66
100
AcDbDictionary
280
     1
281
     1
  3
ACAD_MTEXT_RT
360
F5C
  0
DICTIONARY
  5
F5D
330
E1F
100
AcDbDictionary
280
     1
281
     1
  3
ACAD_MTEXT_RT
360
F5E
  0
XRECORD
  5
F0F
102
{ACAD_REACTORS
330
C
102
}
330
C
100
AcDbXrecord
280
     1
300
INVNTOR
300
2012
300
85795PDSP_2012_0F
  0
DICTIONARY
  5
63
102
{ACAD_REACTORS
330
C
102
}
330
C
100
AcDbDictionary
281
     1
  0
DICTIONARY
  5
D
102
{ACAD_REACTORS
330
C
102
}
330
C
100
AcDbDictionary
281
     1
  0
DICTIONARY
  5
62
102
{ACAD_REACTORS
330
C
102
}
330
C
100
AcDbDictionary
281
     1
  3
Layout1
350
6B
  3
Layout2
350
73
  3
Model
350
6F
  0
DICTIONARY
  5
10
102
{ACAD_REACTORS
330
C
102
}
330
C
100
AcDbDictionary
281
     1
  3
ByBlock
350
19
  3
ByLayer
350
11
  3
Global
350
21
  0
DICTIONARY
  5
66
102
{ACAD_REACTORS
330
C
102
}
330
C
100
AcDbDictionary
281
     1
  3
Standard
350
67
  0
DICTIONARY
  5
5F
102
{ACAD_REACTORS
330
C
102
}
330
C
100
AcDbDictionary
281
     1
  3
Standard
350
60
  0
DICTIONARY
  5
61
102
{ACAD_REACTORS
330
C
102
}
330
C
100
AcDbDictionary
281
     1
  0
ACDBDICTIONARYWDFLT
  5
E
102
{ACAD_REACTORS
330
C
102
}
330
C
100
AcDbDictionary
281
     1
  3
Normal
350
F
100
AcDbDictionaryWithDefault
340
F
  0
DICTIONARY
  5
42
102
{ACAD_REACTORS
330
C
102
}
330
C
100
AcDbDictionary
281
     1
  3
A0
350
43
  3
A1
350
44
  3
A2
350
45
  3
A3
350
46
  3
A4
350
47
  3
A5
350
48
  3
A6
350
49
  3
A7
350
4A
  3
A8
350
4B
  3
A9
350
4C
  3
B0
350
4D
  3
B1
350
4E
  3
B2
350
4F
  3
B3
350
50
  3
B4
350
51
  3
B5
350
52
  3
B6
350
53
  0
DICTIONARY
  5
64
102
{ACAD_REACTORS
330
C
102
}
330
C
100
AcDbDictionary
281
     1
  3
Standard
350
65
  0
DICTIONARY
  5
29
102
{ACAD_REACTORS
330
C
102
}
330
C
100
AcDbDictionary
281
     1
  3
2dWireframe
350
2F
  3
Basic
350
2E
  3
Brighten
350
35
  3
ColorChange
350
39
  3
Conceptual
350
32
  3
Dim
350
34
  3
EdgeColorOff
350
41
  3
Facepattern
350
38
  3
Flat
350
2A
  3
FlatWithEdges
350
2B
  3
Gouraud
350
2C
  3
GouraudWithEdges
350
2D
  3
Hidden
350
31
  3
JitterOff
350
3F
  3
Linepattern
350
37
  3
OverhangOff
350
40
  3
Realistic
350
33
  3
Shaded
350
3E
  3
Shaded with edges
350
3D
  3
Shades of Gray
350
3A
  3
Sketchy
350
3B
  3
Thicken
350
36
  3
Wireframe
350
30
  3
X-Ray
350
3C
  0
XRECORD
  5
F1E
102
{ACAD_REACTORS
330
C
102
}
330
C
100
AcDbXrecord
280
     1
 90
        1
330
65
  0
DICTIONARY
  5
D8
102
{ACAD_REACTORS
330
C
102
}
330
C
100
AcDbDictionary
281
     1
  3
CANNOSCALE
350
DB
  3
CMLEADERSTYLE
350
DA
  3
CTABLESTYLE
350
D9
  3
DIMASSOC
350
F17
  3
HIDETEXT
350
F16
  3
INDEXCTL
350
F15
  3
LAYEREVAL
350
F12
  3
LAYERNOTIFY
350
F13
  3
LIGHTINGUNITS
350
F11
  3
MSLTSCALE
350
F10
  3
SORTENTS
350
F14
  3
XCLIPFRAME
350
F18
  0
XRECORD
  5
F1F
102
{ACAD_REACTORS
330
C
102
}
330
C
100
AcDbXrecord
280
     1
  1
DWGPROPS COOKIE
  2

  3

  4
EC
  6

  7

  8

  9
-
300
Manager=
301
Company=
302
Category=
303
Part Number=NP6036C
304
Description=NPC PANEL MASTER VIEW
305
Project=
306
Designer=EC
307
Engineer=
308
Authority=
309
Cost Center=
 40
0.0000378009259259
 41
2455944.55961
 42
2455944.55961
  1

 90
       20
300
Vendor=
300
User Status=
300
Design Status=WorkInProgress
300
Checked by=JG
300
Date Checked=02/19/2009
300
Engr Approved by=
300
Mfg Approved by=
300
DWG. NO=
300
NUMBER OF SHEETS=1
300
DRAWING #=1
  0
XRECORD
  5
F5C
102
{ACAD_REACTORS
330
F5B
102
}
330
F5B
100
AcDbXrecord
280
     1
 40
29720.0
  1
\A1;\U+22050.50{\PTYP.(8PL.)}
  0
XRECORD
  5
F5E
102
{ACAD_REACTORS
330
F5D
102
}
330
F5D
100
AcDbXrecord
280
     1
 40
30807.0
  1
\A1;\U+22050.31{\PTYP. (4PL.)}
  0
LAYOUT
  5
6B
102
{ACAD_XDICTIONARY
360
F55
102
}
102
{ACAD_REACTORS
330
62
102
}
330
62
100
AcDbPlotSettings
  1

  2

  4

  6

 40
0.0
 41
0.0
 42
0.0
 43
0.0
 44
0.0
 45
0.0
 46
0.0
 47
0.0
 48
0.0
 49
0.0
140
0.0
141
0.0
142
1.0
143
1.0
 70
   688
 72
     0
 73
     0
 74
     5
  7

 75
    16
147
1.0
148
0.0
149
0.0
100
AcDbLayout
  1
Layout1
 70
     1
 71
     1
 10
0.0
 20
0.0
 11
12.0
 21
9.0
 12
0.0
 22
0.0
 32
0.0
 14
0.0
 24
0.0
 34
0.0
 15
0.0
 25
0.0
 35
0.0
146
0.0
 13
0.0
 23
0.0
 33
0.0
 16
1.0
 26
0.0
 36
0.0
 17
0.0
 27
1.0
 37
0.0
 76
     0
330
68
  0
LAYOUT
  5
73
102
{ACAD_XDICTIONARY
360
F59
102
}
102
{ACAD_REACTORS
330
62
102
}
330
62
100
AcDbPlotSettings
  1

  2

  4

  6

 40
0.0
 41
0.0
 42
0.0
 43
0.0
 44
0.0
 45
0.0
 46
0.0
 47
0.0
 48
0.0
 49
0.0
140
0.0
141
0.0
142
1.0
143
1.0
 70
   688
 72
     0
 73
     0
 74
     5
  7

 75
    16
147
1.0
148
0.0
149
0.0
100
AcDbLayout
  1
Layout2
 70
     1
 71
     2
 10
0.0
 20
0.0
 11
12.0
 21
9.0
 12
0.0
 22
0.0
 32
0.0
 14
0.0
 24
0.0
 34
0.0
 15
0.0
 25
0.0
 35
0.0
146
0.0
 13
0.0
 23
0.0
 33
0.0
 16
1.0
 26
0.0
 36
0.0
 17
0.0
 27
1.0
 37
0.0
 76
     0
330
70
  0
LAYOUT
  5
6F
102
{ACAD_XDICTIONARY
360
F57
102
}
102
{ACAD_REACTORS
330
62
102
}
330
62
100
AcDbPlotSettings
  1

  2

  4

  6

 40
0.0
 41
0.0
 42
0.0
 43
0.0
 44
0.0
 45
0.0
 46
0.0
 47
0.0
 48
0.0
 49
0.0
140
0.0
141
0.0
142
1.0
143
1.0
 70
  1712
 72
     0
 73
     0
 74
     0
  7

 75
     0
147
1.0
148
0.0
149
0.0
100
AcDbLayout
  1
Model
 70
     1
 71
     0
 10
0.0
 20
0.0
 11
12.0
 21
9.0
 12
0.0
 22
0.0
 32
0.0
 14
0.0
 24
0.0
 34
0.0
 15
0.0
 25
0.0
 35
0.0
146
0.0
 13
0.0
 23
0.0
 33
0.0
 16
1.0
 26
0.0
 36
0.0
 17
0.0
 27
1.0
 37
0.0
 76
     0
330
6C
  0
MATERIAL
  5
19
102
{ACAD_XDICTIONARY
360
1A
102
}
102
{ACAD_REACTORS
330
10
102
}
330
10
100
AcDbMaterial
  1
ByBlock
 72
     0
 43
0.0208333333333333
 43
0.0
 43
0.0
 43
0.0
 43
0.0
 43
0.0208333333333333
 43
0.0
 43
0.0
 43
0.0
 43
0.0
 43
1.0
 43
0.0
 43
0.0
 43
0.0
 43
0.0
 43
1.0
 77
     0
 47
0.0208333333333333
 47
0.0
 47
0.0
 47
0.0
 47
0.0
 47
0.0208333333333333
 47
0.0
 47
0.0
 47
0.0
 47
0.0
 47
1.0
 47
0.0
 47
0.0
 47
0.0
 47
0.0
 47
1.0
171
     0
 49
0.0208333333333333
 49
0.0
 49
0.0
 49
0.0
 49
0.0
 49
0.0208333333333333
 49
0.0
 49
0.0
 49
0.0
 49
0.0
 49
1.0
 49
0.0
 49
0.0
 49
0.0
 49
0.0
 49
1.0
175
     0
142
0.0208333333333333
142
0.0
142
0.0
142
0.0
142
0.0
142
0.0208333333333333
142
0.0
142
0.0
142
0.0
142
0.0
142
1.0
142
0.0
142
0.0
142
0.0
142
0.0
142
1.0
179
     0
144
0.0208333333333333
144
0.0
144
0.0
144
0.0
144
0.0
144
0.0208333333333333
144
0.0
144
0.0
144
0.0
144
0.0
144
1.0
144
0.0
144
0.0
144
0.0
144
0.0
144
1.0
147
0.0208333333333333
147
0.0
147
0.0
147
0.0
147
0.0
147
0.0208333333333333
147
0.0
147
0.0
147
0.0
147
0.0
147
1.0
147
0.0
147
0.0
147
0.0
147
0.0
147
1.0
  0
MATERIAL
  5
11
102
{ACAD_XDICTIONARY
360
12
102
}
102
{ACAD_REACTORS
330
10
102
}
330
10
100
AcDbMaterial
  1
ByLayer
 72
     0
 43
0.0208333333333333
 43
0.0
 43
0.0
 43
0.0
 43
0.0
 43
0.0208333333333333
 43
0.0
 43
0.0
 43
0.0
 43
0.0
 43
1.0
 43
0.0
 43
0.0
 43
0.0
 43
0.0
 43
1.0
 77
     0
 47
0.0208333333333333
 47
0.0
 47
0.0
 47
0.0
 47
0.0
 47
0.0208333333333333
 47
0.0
 47
0.0
 47
0.0
 47
0.0
 47
1.0
 47
0.0
 47
0.0
 47
0.0
 47
0.0
 47
1.0
171
     0
 49
0.0208333333333333
 49
0.0
 49
0.0
 49
0.0
 49
0.0
 49
0.0208333333333333
 49
0.0
 49
0.0
 49
0.0
 49
0.0
 49
1.0
 49
0.0
 49
0.0
 49
0.0
 49
0.0
 49
1.0
175
     0
142
0.0208333333333333
142
0.0
142
0.0
142
0.0
142
0.0
142
0.0208333333333333
142
0.0
142
0.0
142
0.0
142
0.0
142
1.0
142
0.0
142
0.0
142
0.0
142
0.0
142
1.0
179
     0
144
0.0208333333333333
144
0.0
144
0.0
144
0.0
144
0.0
144
0.0208333333333333
144
0.0
144
0.0
144
0.0
144
0.0
144
1.0
144
0.0
144
0.0
144
0.0
144
0.0
144
1.0
147
0.0208333333333333
147
0.0
147
0.0
147
0.0
147
0.0
147
0.0208333333333333
147
0.0
147
0.0
147
0.0
147
0.0
147
1.0
147
0.0
147
0.0
147
0.0
147
0.0
147
1.0
  0
MATERIAL
  5
21
102
{ACAD_XDICTIONARY
360
22
102
}
102
{ACAD_REACTORS
330
10
102
}
330
10
100
AcDbMaterial
  1
Global
 72
     0
 43
0.0208333333333333
 43
0.0
 43
0.0
 43
0.0
 43
0.0
 43
0.0208333333333333
 43
0.0
 43
0.0
 43
0.0
 43
0.0
 43
1.0
 43
0.0
 43
0.0
 43
0.0
 43
0.0
 43
1.0
 77
     0
 47
0.0208333333333333
 47
0.0
 47
0.0
 47
0.0
 47
0.0
 47
0.0208333333333333
 47
0.0
 47
0.0
 47
0.0
 47
0.0
 47
1.0
 47
0.0
 47
0.0
 47
0.0
 47
0.0
 47
1.0
171
     0
 49
0.0208333333333333
 49
0.0
 49
0.0
 49
0.0
 49
0.0
 49
0.0208333333333333
 49
0.0
 49
0.0
 49
0.0
 49
0.0
 49
1.0
 49
0.0
 49
0.0
 49
0.0
 49
0.0
 49
1.0
175
     0
142
0.0208333333333333
142
0.0
142
0.0
142
0.0
142
0.0
142
0.0208333333333333
142
0.0
142
0.0
142
0.0
142
0.0
142
1.0
142
0.0
142
0.0
142
0.0
142
0.0
142
1.0
179
     0
144
0.0208333333333333
144
0.0
144
0.0
144
0.0
144
0.0
144
0.0208333333333333
144
0.0
144
0.0
144
0.0
144
0.0
144
1.0
144
0.0
144
0.0
144
0.0
144
0.0
144
1.0
147
0.0208333333333333
147
0.0
147
0.0
147
0.0
147
0.0
147
0.0208333333333333
147
0.0
147
0.0
147
0.0
147
0.0
147
1.0
147
0.0
147
0.0
147
0.0
147
0.0
147
1.0
  0
MLEADERSTYLE
  5
67
102
{ACAD_XDICTIONARY
360
F1B
102
}
102
{ACAD_REACTORS
330
66
102
}
330
66
100
AcDbMLeaderStyle
170
     2
171
     1
172
     0
 90
        2
 40
0.0
 41
0.0
173
     1
 91
-1056964608
340
5B
 92
       -2
290
     1
 42
0.09
291
     1
 43
0.36
  3
Standard
 44
0.18
300

342
55
174
     1
178
     6
175
     1
176
     0
 93
-1056964608
 45
0.18
292
     0
297
     0
 46
0.18
 94
-1056964608
 47
1.0
 49
1.0
140
1.0
293
     1
141
0.0
294
     1
177
     0
142
1.0
295
     0
296
     0
143
0.125
1001
ACAD_MLEADERVER
1070
     2
  0
MLINESTYLE
  5
60
102
{ACAD_REACTORS
330
5F
102
}
330
5F
100
AcDbMlineStyle
  2
STANDARD
 70
     0
  3

 62
   256
 51
90.0
 52
90.0
 71
     2
 49
0.5
 62
   256
  6
BYLAYER
 49
-0.5
 62
   256
  6
BYLAYER
  0
ACDBPLACEHOLDER
  5
F
102
{ACAD_REACTORS
330
E
102
}
330
E
  0
SCALE
  5
43
102
{ACAD_REACTORS
330
42
102
}
330
42
100
AcDbScale
 70
     0
300
1:1
140
1.0
141
1.0
290
     1
  0
SCALE
  5
44
102
{ACAD_REACTORS
330
42
102
}
330
42
100
AcDbScale
 70
     0
300
1/128" = 1'-0"
140
0.0078125
141
12.0
290
     0
  0
SCALE
  5
45
102
{ACAD_REACTORS
330
42
102
}
330
42
100
AcDbScale
 70
     0
300
1/64" = 1'-0"
140
0.015625
141
12.0
290
     0
  0
SCALE
  5
46
102
{ACAD_REACTORS
330
42
102
}
330
42
100
AcDbScale
 70
     0
300
1/32" = 1'-0"
140
0.03125
141
12.0
290
     0
  0
SCALE
  5
47
102
{ACAD_REACTORS
330
42
102
}
330
42
100
AcDbScale
 70
     0
300
1/16" = 1'-0"
140
0.0625
141
12.0
290
     0
  0
SCALE
  5
48
102
{ACAD_REACTORS
330
42
102
}
330
42
100
AcDbScale
 70
     0
300
3/32" = 1'-0"
140
0.09375
141
12.0
290
     0
  0
SCALE
  5
49
102
{ACAD_REACTORS
330
42
102
}
330
42
100
AcDbScale
 70
     0
300
1/8" = 1'-0"
140
0.125
141
12.0
290
     0
  0
SCALE
  5
4A
102
{ACAD_REACTORS
330
42
102
}
330
42
100
AcDbScale
 70
     0
300
3/16" = 1'-0"
140
0.1875
141
12.0
290
     0
  0
SCALE
  5
4B
102
{ACAD_REACTORS
330
42
102
}
330
42
100
AcDbScale
 70
     0
300
1/4" = 1'-0"
140
0.25
141
12.0
290
     0
  0
SCALE
  5
4C
102
{ACAD_REACTORS
330
42
102
}
330
42
100
AcDbScale
 70
     0
300
3/8" = 1'-0"
140
0.375
141
12.0
290
     0
  0
SCALE
  5
4D
102
{ACAD_REACTORS
330
42
102
}
330
42
100
AcDbScale
 70
     0
300
1/2" = 1'-0"
140
0.5
141
12.0
290
     0
  0
SCALE
  5
4E
102
{ACAD_REACTORS
330
42
102
}
330
42
100
AcDbScale
 70
     0
300
3/4" = 1'-0"
140
0.75
141
12.0
290
     0
  0
SCALE
  5
4F
102
{ACAD_REACTORS
330
42
102
}
330
42
100
AcDbScale
 70
     0
300
1" = 1'-0"
140
1.0
141
12.0
290
     0
  0
SCALE
  5
50
102
{ACAD_REACTORS
330
42
102
}
330
42
100
AcDbScale
 70
     0
300
1-1/2" = 1'-0"
140
1.5
141
12.0
290
     0
  0
SCALE
  5
51
102
{ACAD_REACTORS
330
42
102
}
330
42
100
AcDbScale
 70
     0
300
3" = 1'-0"
140
3.0
141
12.0
290
     0
  0
SCALE
  5
52
102
{ACAD_REACTORS
330
42
102
}
330
42
100
AcDbScale
 70
     0
300
6" = 1'-0"
140
6.0
141
12.0
290
     0
  0
SCALE
  5
53
102
{ACAD_REACTORS
330
42
102
}
330
42
100
AcDbScale
 70
     0
300
1'-0" = 1'-0"
140
12.0
141
12.0
290
     0
  0
TABLESTYLE
  5
65
102
{ACAD_XDICTIONARY
360
F19
102
}
102
{ACAD_REACTORS
330
64
102
}
330
64
100
AcDbTableStyle
  3
Standard
 70
     0
 71
     0
 40
0.06
 41
0.06
280
     0
281
     0
  7
Standard
140
0.18
170
     2
 62
     0
 63
     7
283
     0
274
    -2
284
     1
 64
     0
275
    -2
285
     1
 65
     0
276
    -2
286
     1
 66
     0
277
    -2
287
     1
 67
     0
278
    -2
288
     1
 68
     0
279
    -2
289
     1
 69
     0
  7
Standard
140
0.25
170
     5
 62
     0
 63
     7
283
     0
274
    -2
284
     1
 64
     0
275
    -2
285
     1
 65
     0
276
    -2
286
     1
 66
     0
277
    -2
287
     1
 67
     0
278
    -2
288
     1
 68
     0
279
    -2
289
     1
 69
     0
  7
Standard
140
0.18
170
     5
 62
     0
 63
     7
283
     0
274
    -2
284
     1
 64
     0
275
    -2
285
     1
 65
     0
276
    -2
286
     1
 66
     0
277
    -2
287
     1
 67
     0
278
    -2
288
     1
 68
     0
279
    -2
289
     1
 69
     0
  0
VISUALSTYLE
  5
2F
102
{ACAD_XDICTIONARY
360
F2D
102
}
102
{ACAD_REACTORS
330
29
102
}
330
29
100
AcDbVisualStyle
  2
2dWireframe
 70
     4
 71
     0
 72
     2
 73
     0
 90
        0
 40
-0.6
 41
-30.0
 62
     5
 63
     7
 74
     1
 91
        4
 64
     7
 65
   257
 75
     1
175
     1
 42
1.0
 92
        0
 66
   257
 43
1.0
 76
     1
 77
     6
 78
     2
 67
     7
 79
     5
170
     0
171
     0
290
     0
174
     0
 93
        1
 44
0.0
173
     0
291
     0
 45
0.0
1001
ACAD
1000
AcDbSavedByObjectVersion
1070
     0
  0
VISUALSTYLE
  5
2E
102
{ACAD_XDICTIONARY
360
F2B
102
}
102
{ACAD_REACTORS
330
29
102
}
330
29
100
AcDbVisualStyle
  2
Basic
 70
     7
 71
     1
 72
     0
 73
     1
 90
        0
 40
-0.6
 41
-30.0
 62
     5
 63
     7
 74
     0
 91
        4
 64
     7
 65
   257
 75
     1
175
     1
 42
1.0
 92
        8
 66
     7
 43
1.0
 76
     1
 77
     6
 78
     2
 67
     7
 79
     5
170
     0
171
     0
290
     0
174
     0
 93
        1
 44
0.0
173
     0
291
     1
 45
0.0
1001
ACAD
1000
AcDbSavedByObjectVersion
1070
     0
  0
VISUALSTYLE
  5
35
102
{ACAD_XDICTIONARY
360
F39
102
}
102
{ACAD_REACTORS
330
29
102
}
330
29
100
AcDbVisualStyle
  2
Brighten
 70
    12
 71
     2
 72
     2
 73
     0
 90
        0
 40
-0.6
 41
-30.0
 62
     5
 63
     7
 74
     1
 91
        4
 64
     7
 65
   257
 75
     1
175
     1
 42
1.0
 92
        8
 66
     7
 43
1.0
 76
     1
 77
     6
 78
     2
 67
     7
 79
     5
170
     0
171
     0
290
     0
174
     0
 93
        1
 44
50.0
173
     0
291
     1
 45
0.0
1001
ACAD
1000
AcDbSavedByObjectVersion
1070
     0
  0
VISUALSTYLE
  5
39
102
{ACAD_XDICTIONARY
360
F41
102
}
102
{ACAD_REACTORS
330
29
102
}
330
29
100
AcDbVisualStyle
  2
ColorChange
 70
    16
 71
     2
 72
     2
 73
     3
 90
        0
 40
-0.6
 41
-30.0
 62
     5
 63
     8
 74
     1
 91
        4
 64
     7
 65
   257
 75
     1
175
     1
 42
1.0
 92
        8
 66
     8
 43
1.0
 76
     1
 77
     6
 78
     2
 67
     7
 79
     5
170
     0
171
     0
290
     0
174
     0
 93
        1
 44
0.0
173
     0
291
     1
 45
0.0
1001
ACAD
1000
AcDbSavedByObjectVersion
1070
     0
  0
VISUALSTYLE
  5
32
102
{ACAD_XDICTIONARY
360
F33
102
}
102
{ACAD_REACTORS
330
29
102
}
330
29
100
AcDbVisualStyle
  2
Conceptual
 70
     9
 71
     3
 72
     2
 73
     0
 90
        0
 40
-0.6
 41
-30.0
 62
     5
 63
     7
 74
     2
 91
        2
 64
     7
 65
   257
 75
     1
175
     1
 42
179.0
 92
        8
 66
     7
 43
1.0
 76
     1
 77
     6
 78
     2
 67
     7
 79
     3
170
     0
171
     0
290
     0
174
     0
 93
        1
 44
0.0
173
     0
291
     0
 45
0.0
1001
ACAD
1000
AcDbSavedByObjectVersion
1070
     0
  0
VISUALSTYLE
  5
34
102
{ACAD_XDICTIONARY
360
F37
102
}
102
{ACAD_REACTORS
330
29
102
}
330
29
100
AcDbVisualStyle
  2
Dim
 70
    11
 71
     2
 72
     2
 73
     0
 90
        0
 40
-0.6
 41
-30.0
 62
     5
 63
     7
 74
     1
 91
        4
 64
     7
 65
   257
 75
     1
175
     1
 42
1.0
 92
        8
 66
     7
 43
1.0
 76
     1
 77
     6
 78
     2
 67
     7
 79
     5
170
     0
171
     0
290
     0
174
     0
 93
        1
 44
-50.0
173
     0
291
     1
 45
0.0
1001
ACAD
1000
AcDbSavedByObjectVersion
1070
     0
  0
VISUALSTYLE
  5
41
102
{ACAD_XDICTIONARY
360
F51
102
}
102
{ACAD_REACTORS
330
29
102
}
330
29
100
AcDbVisualStyle
  2
EdgeColorOff
 70
    22
 71
     2
 72
     2
 73
     0
 90
        0
 40
-0.6
 41
-30.0
 62
     5
 63
     7
 74
     1
 91
        4
 64
     7
 65
   257
 75
     1
175
     1
 42
1.0
 92
        8
 66
     7
 43
1.0
 76
     1
 77
     6
 78
     2
 67
     7
 79
     5
170
     0
171
     0
290
     0
174
     0
 93
        1
 44
0.0
173
     0
291
     1
 45
0.0
1001
ACAD
1000
AcDbSavedByObjectVersion
1070
     0
  0
VISUALSTYLE
  5
38
102
{ACAD_XDICTIONARY
360
F3F
102
}
102
{ACAD_REACTORS
330
29
102
}
330
29
100
AcDbVisualStyle
  2
Facepattern
 70
    15
 71
     2
 72
     2
 73
     0
 90
        0
 40
-0.6
 41
-30.0
 62
     5
 63
     7
 74
     1
 91
        4
 64
     7
 65
   257
 75
     1
175
     1
 42
1.0
 92
        8
 66
     7
 43
1.0
 76
     1
 77
     6
 78
     2
 67
     7
 79
     5
170
     0
171
     0
290
     0
174
     0
 93
        1
 44
0.0
173
     0
291
     1
 45
0.0
1001
ACAD
1000
AcDbSavedByObjectVersion
1070
     0
  0
VISUALSTYLE
  5
2A
102
{ACAD_XDICTIONARY
360
F23
102
}
102
{ACAD_REACTORS
330
29
102
}
330
29
100
AcDbVisualStyle
  2
Flat
 70
     0
 71
     2
 72
     1
 73
     1
 90
        2
 40
-0.6
 41
30.0
 62
     5
 63
     7
 74
     0
 91
        0
 64
     7
 65
   257
 75
     1
175
     1
 42
1.0
 92
        8
 66
     7
 43
1.0
 76
     1
 77
     6
 78
     2
 67
     7
 79
     5
170
     0
171
     0
290
     0
174
     0
 93
       13
 44
0.0
173
     0
291
     1
 45
0.0
1001
ACAD
1000
AcDbSavedByObjectVersion
1070
     0
  0
VISUALSTYLE
  5
2B
102
{ACAD_XDICTIONARY
360
F25
102
}
102
{ACAD_REACTORS
330
29
102
}
330
29
100
AcDbVisualStyle
  2
FlatWithEdges
 70
     1
 71
     2
 72
     1
 73
     1
 90
        2
 40
-0.6
 41
30.0
 62
     5
 63
     7
 74
     1
 91
        0
 64
     7
 65
   257
 75
     1
175
     1
 42
1.0
 92
        0
 66
   257
 43
1.0
 76
     1
 77
     6
 78
     2
 67
     7
 79
     5
170
     0
171
     0
290
     0
174
     0
 93
       13
 44
0.0
173
     0
291
     1
 45
0.0
1001
ACAD
1000
AcDbSavedByObjectVersion
1070
     0
  0
VISUALSTYLE
  5
2C
102
{ACAD_XDICTIONARY
360
F27
102
}
102
{ACAD_REACTORS
330
29
102
}
330
29
100
AcDbVisualStyle
  2
Gouraud
 70
     2
 71
     2
 72
     2
 73
     1
 90
        2
 40
-0.6
 41
30.0
 62
     5
 63
     7
 74
     0
 91
        0
 64
     7
 65
   257
 75
     1
175
     1
 42
1.0
 92
        0
 66
     7
 43
1.0
 76
     1
 77
     6
 78
     2
 67
     7
 79
     5
170
     0
171
     0
290
     0
174
     0
 93
       13
 44
0.0
173
     0
291
     1
 45
0.0
1001
ACAD
1000
AcDbSavedByObjectVersion
1070
     0
  0
VISUALSTYLE
  5
2D
102
{ACAD_XDICTIONARY
360
F29
102
}
102
{ACAD_REACTORS
330
29
102
}
330
29
100
AcDbVisualStyle
  2
GouraudWithEdges
 70
     3
 71
     2
 72
     2
 73
     1
 90
        2
 40
-0.6
 41
30.0
 62
     5
 63
     7
 74
     1
 91
        0
 64
     7
 65
   257
 75
     1
175
     1
 42
1.0
 92
        0
 66
   257
 43
1.0
 76
     1
 77
     6
 78
     2
 67
     7
 79
     5
170
     0
171
     0
290
     0
174
     0
 93
       13
 44
0.0
173
     0
291
     1
 45
0.0
1001
ACAD
1000
AcDbSavedByObjectVersion
1070
     0
  0
VISUALSTYLE
  5
31
102
{ACAD_XDICTIONARY
360
F31
102
}
102
{ACAD_REACTORS
330
29
102
}
330
29
100
AcDbVisualStyle
  2
Hidden
 70
     6
 71
     1
 72
     2
 73
     2
 90
        0
 40
-0.6
 41
-30.0
 62
     5
 63
     7
 74
     2
 91
        2
 64
     7
 65
   257
 75
     2
175
     1
 42
40.0
 92
        0
 66
   257
 43
1.0
 76
     1
 77
     6
 78
     2
 67
     7
 79
     3
170
     0
171
     0
290
     0
174
     0
 93
        1
 44
0.0
173
     0
291
     0
 45
0.0
1001
ACAD
1000
AcDbSavedByObjectVersion
1070
     0
  0
VISUALSTYLE
  5
3F
102
{ACAD_XDICTIONARY
360
F4D
102
}
102
{ACAD_REACTORS
330
29
102
}
330
29
100
AcDbVisualStyle
  2
JitterOff
 70
    20
 71
     2
 72
     2
 73
     0
 90
        0
 40
-0.6
 41
-30.0
 62
     5
 63
     7
 74
     1
 91
        4
 64
     7
 65
   257
 75
     1
175
     1
 42
1.0
 92
       10
 66
     7
 43
1.0
 76
     1
 77
     6
 78
     2
 67
     7
 79
     5
170
     0
171
     0
290
     0
174
     0
 93
        1
 44
0.0
173
     0
291
     1
 45
0.0
1001
ACAD
1000
AcDbSavedByObjectVersion
1070
     0
  0
VISUALSTYLE
  5
37
102
{ACAD_XDICTIONARY
360
F3D
102
}
102
{ACAD_REACTORS
330
29
102
}
330
29
100
AcDbVisualStyle
  2
Linepattern
 70
    14
 71
     2
 72
     2
 73
     0
 90
        0
 40
-0.6
 41
-30.0
 62
     5
 63
     7
 74
     1
 91
        4
 64
     7
 65
   257
 75
     7
175
     7
 42
1.0
 92
        8
 66
     7
 43
1.0
 76
     1
 77
     6
 78
     2
 67
     7
 79
     5
170
     0
171
     0
290
     0
174
     0
 93
        1
 44
0.0
173
     0
291
     1
 45
0.0
1001
ACAD
1000
AcDbSavedByObjectVersion
1070
     0
  0
VISUALSTYLE
  5
40
102
{ACAD_XDICTIONARY
360
F4F
102
}
102
{ACAD_REACTORS
330
29
102
}
330
29
100
AcDbVisualStyle
  2
OverhangOff
 70
    21
 71
     2
 72
     2
 73
     0
 90
        0
 40
-0.6
 41
-30.0
 62
     5
 63
     7
 74
     1
 91
        4
 64
     7
 65
   257
 75
     1
175
     1
 42
1.0
 92
        9
 66
     7
 43
1.0
 76
     1
 77
     6
 78
     2
 67
     7
 79
     5
170
     0
171
     0
290
     0
174
     0
 93
        1
 44
0.0
173
     0
291
     1
 45
0.0
1001
ACAD
1000
AcDbSavedByObjectVersion
1070
     0
  0
VISUALSTYLE
  5
33
102
{ACAD_XDICTIONARY
360
F35
102
}
102
{ACAD_REACTORS
330
29
102
}
330
29
100
AcDbVisualStyle
  2
Realistic
 70
     8
 71
     2
 72
     3
 73
     0
 90
        2
 40
-0.6
 41
30.0
 62
     5
 63
     7
 74
     0
 91
        0
 64
     7
 65
   257
 75
     1
175
     1
 42
1.0
 92
        8
 66
   257
 43
1.0
 76
     1
 77
     6
 78
     2
 67
     7
 79
     3
170
     0
171
     0
290
     0
174
     0
 93
       13
 44
0.0
173
     0
291
     0
 45
0.0
1001
ACAD
1000
AcDbSavedByObjectVersion
1070
     0
  0
VISUALSTYLE
  5
3E
102
{ACAD_XDICTIONARY
360
F4B
102
}
102
{ACAD_REACTORS
330
29
102
}
330
29
100
AcDbVisualStyle
  2
Shaded
 70
    27
 71
     2
 72
     2
 73
     1
 90
        2
 40
-0.6
 41
30.0
 62
     5
 63
     7
 74
     0
 91
        4
 64
     7
 65
   257
 75
     1
175
     1
 42
1.0
 92
        8
 66
   257
 43
1.0
 76
     1
 77
     6
 78
     2
 67
     8
 79
     3
170
     0
171
     0
290
     0
174
     0
 93
        5
 44
0.0
173
     0
291
     0
 45
0.0
1001
ACAD
1000
AcDbSavedByObjectVersion
1070
     0
  0
VISUALSTYLE
  5
3D
102
{ACAD_XDICTIONARY
360
F49
102
}
102
{ACAD_REACTORS
330
29
102
}
330
29
100
AcDbVisualStyle
  2
Shaded with edges
 70
    26
 71
     2
 72
     2
 73
     1
 90
        2
 40
-0.6
 41
30.0
 62
     5
 63
     7
 74
     1
 91
       10
 64
     7
 65
   257
 75
     2
175
     1
 42
1.0
 92
        8
 66
   257
 43
1.0
 76
     1
 77
     6
 78
     2
 67
     7
 79
     3
170
     0
171
     0
290
     0
174
     0
 93
        5
 44
0.0
173
     0
291
     0
 45
0.0
1001
ACAD
1000
AcDbSavedByObjectVersion
1070
     0
  0
VISUALSTYLE
  5
3A
102
{ACAD_XDICTIONARY
360
F43
102
}
102
{ACAD_REACTORS
330
29
102
}
330
29
100
AcDbVisualStyle
  2
Shades of Gray
 70
    23
 71
     2
 72
     2
 73
     3
 90
        0
 40
-0.6
 41
-30.0
 62
     5
 63
     7
 74
     2
 91
        2
 64
     7
 65
     7
 75
     1
175
     1
 42
40.0
 92
        8
 66
     7
 43
1.0
 76
     1
 77
     6
 78
     2
 67
     7
 79
     3
170
     0
171
     0
290
     0
174
     0
 93
        1
 44
0.0
173
     0
291
     0
 45
0.0
1001
ACAD
1000
AcDbSavedByObjectVersion
1070
     0
  0
VISUALSTYLE
  5
3B
102
{ACAD_XDICTIONARY
360
F45
102
}
102
{ACAD_REACTORS
330
29
102
}
330
29
100
AcDbVisualStyle
  2
Sketchy
 70
    24
 71
     1
 72
     2
 73
     2
 90
        0
 40
-0.6
 41
-30.0
 62
     5
 63
     7
 74
     2
 91
        2
 64
     7
 65
     7
 75
     1
175
     1
 42
40.0
 92
       11
 66
     7
 43
1.0
 76
     1
 77
     6
 78
     2
 67
     7
 79
     6
170
     0
171
     0
290
     0
174
     0
 93
        1
 44
0.0
173
     0
291
     0
 45
0.0
1001
ACAD
1000
AcDbSavedByObjectVersion
1070
     0
  0
VISUALSTYLE
  5
36
102
{ACAD_XDICTIONARY
360
F3B
102
}
102
{ACAD_REACTORS
330
29
102
}
330
29
100
AcDbVisualStyle
  2
Thicken
 70
    13
 71
     2
 72
     2
 73
     0
 90
        0
 40
-0.6
 41
-30.0
 62
     5
 63
     7
 74
     1
 91
        4
 64
     7
 65
   257
 75
     1
175
     1
 42
1.0
 92
       12
 66
     7
 43
1.0
 76
     1
 77
     6
 78
     2
 67
     7
 79
     5
170
     0
171
     0
290
     0
174
     0
 93
        1
 44
0.0
173
     0
291
     1
 45
0.0
1001
ACAD
1000
AcDbSavedByObjectVersion
1070
     0
  0
VISUALSTYLE
  5
30
102
{ACAD_XDICTIONARY
360
F2F
102
}
102
{ACAD_REACTORS
330
29
102
}
330
29
100
AcDbVisualStyle
  2
Wireframe
 70
     5
 71
     0
 72
     2
 73
     0
 90
        0
 40
-0.6
 41
-30.0
 62
     5
 63
     7
 74
     1
 91
        4
 64
     7
 65
   257
 75
     1
175
     1
 42
1.0
 92
        0
 66
   257
 43
1.0
 76
     1
 77
     6
 78
     2
 67
     7
 79
     3
170
     0
171
     0
290
     0
174
     0
 93
        1
 44
0.0
173
     0
291
     0
 45
0.0
1001
ACAD
1000
AcDbSavedByObjectVersion
1070
     0
  0
VISUALSTYLE
  5
3C
102
{ACAD_XDICTIONARY
360
F47
102
}
102
{ACAD_REACTORS
330
29
102
}
330
29
100
AcDbVisualStyle
  2
X-Ray
 70
    25
 71
     2
 72
     2
 73
     1
 90
        1
 40
0.5
 41
-30.0
 62
     5
 63
     7
 74
     1
 91
        0
 64
     7
 65
   257
 75
     1
175
     1
 42
1.0
 92
        8
 66
     7
 43
1.0
 76
     1
 77
     6
 78
     2
 67
     7
 79
     3
170
     0
171
     0
290
     0
174
     0
 93
       13
 44
0.0
173
     0
291
     0
 45
0.0
1001
ACAD
1000
AcDbSavedByObjectVersion
1070
     0
  0
DICTIONARYVAR
  5
DB
102
{ACAD_REACTORS
330
D8
102
}
330
D8
100
DictionaryVariables
280
     0
  1
1:1
  0
DICTIONARYVAR
  5
DA
102
{ACAD_REACTORS
330
D8
102
}
330
D8
100
DictionaryVariables
280
     0
  1
STANDARD
  0
DICTIONARYVAR
  5
D9
102
{ACAD_REACTORS
330
D8
102
}
330
D8
100
DictionaryVariables
280
     0
  1
STANDARD
  0
DICTIONARYVAR
  5
F17
102
{ACAD_REACTORS
330
D8
102
}
330
D8
100
DictionaryVariables
280
     0
  1
1
  0
DICTIONARYVAR
  5
F16
102
{ACAD_REACTORS
330
D8
102
}
330
D8
100
DictionaryVariables
280
     0
  1
1
  0
DICTIONARYVAR
  5
F15
102
{ACAD_REACTORS
330
D8
102
}
330
D8
100
DictionaryVariables
280
     0
  1
0
  0
DICTIONARYVAR
  5
F12
102
{ACAD_REACTORS
330
D8
102
}
330
D8
100
DictionaryVariables
280
     0
  1
0
  0
DICTIONARYVAR
  5
F13
102
{ACAD_REACTORS
330
D8
102
}
330
D8
100
DictionaryVariables
280
     0
  1
0
  0
DICTIONARYVAR
  5
F11
102
{ACAD_REACTORS
330
D8
102
}
330
D8
100
DictionaryVariables
280
     0
  1
2
  0
DICTIONARYVAR
  5
F10
102
{ACAD_REACTORS
330
D8
102
}
330
D8
100
DictionaryVariables
280
     0
  1
1
  0
DICTIONARYVAR
  5
F14
102
{ACAD_REACTORS
330
D8
102
}
330
D8
100
DictionaryVariables
280
     0
  1
127
  0
DICTIONARYVAR
  5
F18
102
{ACAD_REACTORS
330
D8
102
}
330
D8
100
DictionaryVariables
280
     0
  1
2
  0
DICTIONARY
  5
F55
330
6B
100
AcDbDictionary
280
     1
281
     1
  3
ACAD_XREC_ROUNDTRIP
360
F56
  0
DICTIONARY
  5
F59
330
73
100
AcDbDictionary
280
     1
281
     1
  3
ACAD_XREC_ROUNDTRIP
360
F5A
  0
DICTIONARY
  5
F57
330
6F
100
AcDbDictionary
280
     1
281
     1
  3
ACAD_XREC_ROUNDTRIP
360
F58
  0
DICTIONARY
  5
1A
330
19
100
AcDbDictionary
280
     1
281
     1
  3
ACAD_XREC_ROUNDTRIP
360
F21
  3
BUMPTILE
360
1C
  3
DIFFUSETILE
360
1B
  3
OPACITYTILE
360
1F
  3
REFLECTIONTILE
360
1E
  3
REFRACTIONTILE
360
20
  3
SPECULARTILE
360
1D
  0
DICTIONARY
  5
12
330
11
100
AcDbDictionary
280
     1
281
     1
  3
ACAD_XREC_ROUNDTRIP
360
F20
  3
BUMPTILE
360
14
  3
DIFFUSETILE
360
13
  3
FBXASSET
360
169
  3
OPACITYTILE
360
17
  3
REFLECTIONTILE
360
16
  3
REFRACTIONTILE
360
18
  3
SPECULARTILE
360
15
  0
DICTIONARY
  5
22
330
21
100
AcDbDictionary
280
     1
281
     1
  3
ACAD_XREC_ROUNDTRIP
360
F22
  3
BUMPTILE
360
24
  3
DIFFUSETILE
360
23
  3
FBXASSET
360
11C
  3
OPACITYTILE
360
27
  3
REFLECTIONTILE
360
26
  3
REFRACTIONTILE
360
28
  3
SPECULARTILE
360
25
  0
DICTIONARY
  5
F1B
330
67
100
AcDbDictionary
280
     1
281
     1
  3
ACAD_XREC_ROUNDTRIP
360
F1C
  0
DICTIONARY
  5
F19
330
65
100
AcDbDictionary
280
     1
281
     1
  3
ACAD_ROUNDTRIP_2008_TABLESTYLE_CELLSTYLEMAP
360
F1A
  3
ACAD_XREC_ROUNDTRIP
360
F53
  0
DICTIONARY
  5
F2D
330
2F
100
AcDbDictionary
280
     1
281
     1
  3
ACAD_XREC_ROUNDTRIP
360
F2E
  0
DICTIONARY
  5
F2B
330
2E
100
AcDbDictionary
280
     1
281
     1
  3
ACAD_XREC_ROUNDTRIP
360
F2C
  0
DICTIONARY
  5
F39
330
35
100
AcDbDictionary
280
     1
281
     1
  3
ACAD_XREC_ROUNDTRIP
360
F3A
  0
DICTIONARY
  5
F41
330
39
100
AcDbDictionary
280
     1
281
     1
  3
ACAD_XREC_ROUNDTRIP
360
F42
  0
DICTIONARY
  5
F33
330
32
100
AcDbDictionary
280
     1
281
     1
  3
ACAD_XREC_ROUNDTRIP
360
F34
  0
DICTIONARY
  5
F37
330
34
100
AcDbDictionary
280
     1
281
     1
  3
ACAD_XREC_ROUNDTRIP
360
F38
  0
DICTIONARY
  5
F51
330
41
100
AcDbDictionary
280
     1
281
     1
  3
ACAD_XREC_ROUNDTRIP
360
F52
  0
DICTIONARY
  5
F3F
330
38
100
AcDbDictionary
280
     1
281
     1
  3
ACAD_XREC_ROUNDTRIP
360
F40
  0
DICTIONARY
  5
F23
330
2A
100
AcDbDictionary
280
     1
281
     1
  3
ACAD_XREC_ROUNDTRIP
360
F24
  0
DICTIONARY
  5
F25
330
2B
100
AcDbDictionary
280
     1
281
     1
  3
ACAD_XREC_ROUNDTRIP
360
F26
  0
DICTIONARY
  5
F27
330
2C
100
AcDbDictionary
280
     1
281
     1
  3
ACAD_XREC_ROUNDTRIP
360
F28
  0
DICTIONARY
  5
F29
330
2D
100
AcDbDictionary
280
     1
281
     1
  3
ACAD_XREC_ROUNDTRIP
360
F2A
  0
DICTIONARY
  5
F31
330
31
100
AcDbDictionary
280
     1
281
     1
  3
ACAD_XREC_ROUNDTRIP
360
F32
  0
DICTIONARY
  5
F4D
330
3F
100
AcDbDictionary
280
     1
281
     1
  3
ACAD_XREC_ROUNDTRIP
360
F4E
  0
DICTIONARY
  5
F3D
330
37
100
AcDbDictionary
280
     1
281
     1
  3
ACAD_XREC_ROUNDTRIP
360
F3E
  0
DICTIONARY
  5
F4F
330
40
100
AcDbDictionary
280
     1
281
     1
  3
ACAD_XREC_ROUNDTRIP
360
F50
  0
DICTIONARY
  5
F35
330
33
100
AcDbDictionary
280
     1
281
     1
  3
ACAD_XREC_ROUNDTRIP
360
F36
  0
DICTIONARY
  5
F4B
330
3E
100
AcDbDictionary
280
     1
281
     1
  3
ACAD_XREC_ROUNDTRIP
360
F4C
  0
DICTIONARY
  5
F49
330
3D
100
AcDbDictionary
280
     1
281
     1
  3
ACAD_XREC_ROUNDTRIP
360
F4A
  0
DICTIONARY
  5
F43
330
3A
100
AcDbDictionary
280
     1
281
     1
  3
ACAD_XREC_ROUNDTRIP
360
F44
  0
DICTIONARY
  5
F45
330
3B
100
AcDbDictionary
280
     1
281
     1
  3
ACAD_XREC_ROUNDTRIP
360
F46
  0
DICTIONARY
  5
F3B
330
36
100
AcDbDictionary
280
     1
281
     1
  3
ACAD_XREC_ROUNDTRIP
360
F3C
  0
DICTIONARY
  5
F2F
330
30
100
AcDbDictionary
280
     1
281
     1
  3
ACAD_XREC_ROUNDTRIP
360
F30
  0
DICTIONARY
  5
F47
330
3C
100
AcDbDictionary
280
     1
281
     1
  3
ACAD_XREC_ROUNDTRIP
360
F48
  0
XRECORD
  5
F56
102
{ACAD_REACTORS
330
F55
102
}
330
F55
100
AcDbXrecord
280
     1
102
SHADEPLOT
 70
     0
102
SHADEPLOTRESLEVEL
 70
     2
102
SHADEPLOTCUSTOMDPI
 70
   300
  0
XRECORD
  5
F5A
102
{ACAD_REACTORS
330
F59
102
}
330
F59
100
AcDbXrecord
280
     1
102
SHADEPLOT
 70
     0
102
SHADEPLOTRESLEVEL
 70
     2
102
SHADEPLOTCUSTOMDPI
 70
   300
  0
XRECORD
  5
F58
102
{ACAD_REACTORS
330
F57
102
}
330
F57
100
AcDbXrecord
280
     1
102
SHADEPLOT
 70
     0
102
SHADEPLOTRESLEVEL
 70
     2
102
SHADEPLOTCUSTOMDPI
 70
   300
  0
XRECORD
  5
F21
102
{ACAD_REACTORS
330
1A
102
}
330
1A
100
AcDbXrecord
280
     1
102
MATERIAL
148
0.0
149
0.0
149
0.0
 93
        0
 94
      127
282
     0
 72
     0
 77
     0
171
     0
175
     0
179
     0
273
     0
  0
XRECORD
  5
1C
102
{ACAD_REACTORS
330
1A
102
}
330
1A
100
AcDbXrecord
280
     1
270
     1
271
     1
  0
XRECORD
  5
1B
102
{ACAD_REACTORS
330
1A
102
}
330
1A
100
AcDbXrecord
280
     1
270
     1
271
     1
  0
XRECORD
  5
1F
102
{ACAD_REACTORS
330
1A
102
}
330
1A
100
AcDbXrecord
280
     1
270
     1
271
     1
  0
XRECORD
  5
1E
102
{ACAD_REACTORS
330
1A
102
}
330
1A
100
AcDbXrecord
280
     1
270
     1
271
     1
  0
XRECORD
  5
20
102
{ACAD_REACTORS
330
1A
102
}
330
1A
100
AcDbXrecord
280
     1
270
     1
271
     1
  0
XRECORD
  5
1D
102
{ACAD_REACTORS
330
1A
102
}
330
1A
100
AcDbXrecord
280
     1
270
     1
271
     1
  0
XRECORD
  5
F20
102
{ACAD_REACTORS
330
12
102
}
330
12
100
AcDbXrecord
280
     1
102
MATERIAL
148
0.0
149
0.0
149
0.0
 93
        0
 94
      127
282
     0
 72
     0
 77
     0
171
     0
175
     0
179
     0
273
     0
  0
XRECORD
  5
14
102
{ACAD_REACTORS
330
12
102
}
330
12
100
AcDbXrecord
280
     1
270
     1
271
     1
  0
XRECORD
  5
13
102
{ACAD_REACTORS
330
12
102
}
330
12
100
AcDbXrecord
280
     1
270
     1
271
     1
  0
XRECORD
  5
169
102
{ACAD_REACTORS
330
12
102
}
330
12
100
AcDbXrecord
280
     1
 70
     1
 90
1959938040
 71
     1
  1
DBD04FD9-3F45-4394-9832-B36E5999D843
311
504B03040A00000800003A6B31403DEE336E79000000790000001B0000006175746F6465736B2D64657369676E2D7061636B6167652E786D6C3C3F786D6C2076657273696F6E3D22312E302220656E636F64696E673D227574662D3822203F3E3C666F726D6174733E3C666F726D61743E687474703A2F2F736368656D612E
311
6175746F6465736B2E636F6D2F64657369676E2D7061636B6167652F323030393C2F666F726D61743E3C2F666F726D6174733E504B03041400060808003A6B3140D486FD9CA0000000F4000000130000005B436F6E74656E745F54797065735D2E786D6C7D8EC10E82300C865F65E91D8A1E8C310C0EEA1BF002731658846E
311
D98AC1B77784ABF1D8FE5FBFBF75BBCE937A534CCEB38643598122B6FEE978D0B0485F9C41B54DDD7D022595594E1A469170414C76A4D9A4D207E29CF43ECE46F218070CC6BECC4078ACAA135ACF422C856C0E68EA1BF5669944DDD7BCDE7B1F8E415D77AECB980613C2E4AC91FC167A2B244592486606FC29C8FD7F045B9A
311
EF7053A7E60B504B03041400060808003A6B31409698831DE90000007C01000008000000636F72652E786D6C8D904D6EC3201085AF82668F0DFE492C0B13C58D72825E00C1244189C13250F5F8C58923B5BBAE6678BC6F66F4C4E17B7A902F5C82F56E005E3020E8B437D65D0748F1423B20072916EFE32F1B10A7261C6095
311
418AEBE2D3BC49DABB882E66D579839BA842C008443F723340D0379C54A152CC8E702F66A5EFEA8A057F77194EC91AF25A624D9E672F1617904D3DEE59D58DB4E1ED076DCE6CA45D3BD674E427BE3B1F8FDDA96E44B9C252443BBDF7EB05554403B262BCA28C53BEFFE4755FB57D9B9FBB9E3151AEF63F509ACD3FA1645DAC
311
ABEDDC171640F27CC8F3438A72CD22976750B9AEB9C91F504B03041400060808003A6B314055019EA25F0000007C00000007000000636E782E786D6C4DCB3B0E80201045D1AD90E915ED2CF8AC45050C11660C8261F98AB1B07AC9C97D42D718D865D3E909258CFD00CCE24AC6E326A164D74DC0B4128928FF326038472BA1
311
3128B1252AC747C6BAB984FC68F0B87FE8960A5C09FE86CFB69FBA01504B03041400060808003A6B31400553503E65010000020300000C0000006662782F636F72652E786D6C8D52ED8E8230107C95A6FFA1940F35A6D4C8199FE05EA042E51AA125A5253EFE2D1F86F3628C2181B2B3B3333BC00EF7B64183B4BD323AC734
311
8C3092BA3495D2758EBDBB063B8C0E9C5963DC9F368CB468658EC732E6ACB6C6774BA934DA49EDA0AA4D2597A2E87BE9302A1B38E4B82F7F642B42E11D74F4B7B013E54DD432A421C0D0C759EF2C1840B3C878C7FC7AB93332D739F35E550BAA2A505357252DE669526CA378570429CDBE82F41C15C12E2B92A0A027BA391F
311
8FBB53923232923973AA7DB82BAD144E5698C7118D83880674FB4D937D9CED3378DDECA38891B1FD89E4BBEA439257DA25F16277A6F59853303201FFB685881CEAC5007E0867640C111E53C2CF41432010B21397E6B1C70D4A832C9DB1292095F12B3488C64B508DD0743132A330791A009BBD9C13BF99F37E067C40A16BB0
311
261C1C2FDE8DEA6C565DA2E8A40D067747DAD85634ABB9D9E27A5F855ED24BD318FB099B2CAB92254C32FEBDFC17504B03041400060808003A6B3140A4B441B37D0000009D0000000B0000006662782F636E782E786D6C4DCCD10A83201886E15B91FFDCA515E6811ABABA90581632D3703A76F9ABD1C18E3E78F87845FFD9
311
3C7ADBF4723148A03702C886479C5D582594BC600EA85722C598FF6E80C2B459092783126B8A65BF68B6CB547C3ED4BBF0BCB061E34059433035BCC5AD361DD6DA185CF3B163B5BE9B4113A894A87EA563CFB0FA02504B03041400060808003A6B3140D1555F172901000014020000310000006662782F3336454431363330
311
2D314238342D344142372D414142422D3238453736324143424441302F636F72652E786D6C8D51CB6EC32010FC15C4A93DD806FC8A224C6437F983FE00C1244589C1E251E5F3BBAE1DA9BDE5C2C230333BDAE587C77447DFDA07E36C87694E30D256B9D1D86B8753BC643B8C0E827BE7E21F1A46564EBAC30B8C05BF7A97E6
311
0D52CE466D23A0D68D7A0365083A62A4EE70E970505F7A92B94C1118E196CF52DDE455E734876FE0091EA28700686DB29C5894CDE9489B926474D85559D50F6DD6F7C390B1DDA96D58FF311C7BC28B5528784A66DCE4668438E662B47FD564110B1ECDF48CAFBC96518F58304259466846DB4F5AEE59BDAFE1D9EC09745EE8
311
FF44691E5F14256363C9B6B8AB2C604179B17E083EBA74BE3FC3E8C7EC7C444BBFB7A0D53B16242710AC662DE3C54A85018067536D9E213A0F037EBB9D814DEBD5B8A9042F961D41F95D20D4659FE207504B03041400060808003A6B3140BE9494A04C01000033030000300000006662782F33364544313633302D31423834
311
2D344142372D414142422D3238453736324143424441302F636E782E786D6CD593CB6EC32010457F05B1F783BC5A4598485DF40BBAE816C324A5C160F1A89ABFEF9090349B2CBAEC06D9770EF78EAE6CBEFB9E2CF982108D7703656D4F0938E5B5718781E6B46F9E29D9091EBC4F7718254E4E30D02253C10FC1E7B94A1AF6
311
32DB84AA35EE58C500D1E7A020A25C6E12EB95B46800AEC928C23482D6A0C90DC4A73D045C05C5F144D20790D79777E2C74F5029F2AEB808DE950CC1CB5993EE204A9495310E34AA0F98642B73F21AE2B1D532C996B5D7AC073BFD3A9172E11A998321257CA0E5A4A26ED4628FBCC3A1E031056CAF42E9340315729EAD5132
311
61C9DD19BC308267E3D266555983C507A4D966B95AA1D97926783213544205900934158B9E2D9A9E35ECE98D2DB78BF5768DAF9B6DDFF3AEE0828FDEDB7A096D20F89928EF12B84405E35D193FAAAF72449B805DFB70FA439158404DBDB473F3F8CFFD74E7EF1BEB0AF817881F504B03041400060808003A6B3140D6E51B58
311
9B0500007B100000340000006662782F33364544313633302D314238342D344142372D414142422D3238453736324143424441302F6F626A656374732E786D6CAD575D8F9B3814FD2B887D8684C074272B866A9274AAA83B6DD5A8D53E8C14396018EF980FD9669AD95FBFC76008A4C934BBEA0B60635FDF7BEEB91F0EDFEE
311
736E3D53215959DCD89E3BB52D5AC465C28AECC6AE55EA5CDBD6DB281465A906CB6CAB2039BDB1F5B41D859928EBCA4C253425355747B3778BBF2C19D382DA56CC899437B68C1F694E5C52AB32A1F2C94D88226E96EE5DCF6D178EC56682548F47422B2268A1A029E60B48B15AA5BCF1706A4FA270A2FF47A17E9A55FEF955
311
93C69EF1F9AC908A14F10F871D89F1BD60F56E763577AE82C077823733CF59DC2D568EF7BB3F5DBE592EE7B7EFE638582A0149461341533B7A0F6C048BC349FB2B0A6B56287F669618074D047D66DA537634B3BC70D2AEE9AD33469E523F2E8B82C60D5640A3B1CF884E68458B043E675442B30142D3F1D0D3380E7EFB7A6C
311
8E1C4E5F86C070C74050A77BF71E6A5AEEFE8609F21206094935035B2C8DA12D57A707847765C9CD3F26AD9C282A18E116673B41C48B1D61A95E128523319AC9424783B6C08EE085F6F7982E08A39FF3FC949669CDB9A6B11D3551B045AC50251BCDD83F541CB41F22039DE02BCD866B63907AA9A81DCD5B8A5C1FB1A905D2
311
4A39C9E07298A977FAB32343973A4ED72B3BFA70B7DB6F74EC9E3EBC12654585D2F401B53AC7756F8D92D1C9BBC8737A837DA4CA01942F40FE2342FDA00AFC26D83ED807E614254821D352E4F08D35B59C291E53CB6B9EFA7BF0154EFACD63EF9DC313CED650FD023CC7360C7D3980330A9F41F852F8C6B44D4C38D2C63D2B
311
00902689C54B4C210FA7BBBD1DAD91E59095B18BF0C883C950F7199FE1C48841A2684E1ABC0B607994162F48D080AD6124D468C96F143CF8E98774D61C6C969D83F7EA97D0F576B5F9B0A9454A627A6F627A45535630851277E0CD50A111E6238B9EE8CBF7522430F447BC3743BC73739404DA1A730D7CD6E5743D389C3C3A
311
20C6BEACD4E926FCC909304217D681FC7B2663CA3929685977E7BE5A3F50365A8875B06B26F705E65058409AF6CF510CA248C782551AC4BE5AF549D33D63DDD7F54730D28E162F7F929761F6DA1D726F5CF2526C772FDB362D9D84FADB98DB0683899602BA3741D2C5BF017D9BB034AD2592E0095CBFAD9743DFE9B48014D1
311
496DA32580FD082E220C693BB9A8D682A09296C596A16E22EE4E1E30940F480D031A81E7349694A75BC6799D6F53C6518DB639A9CEC0F1FFF5DFD579B525795917EA8CEC91EAA80E63DD47EC95DF898A1FED68D3BC9D05726F42933364D0B5E4045623D7AE16AB6970B79A3BFE5D70E504FE3C70E6D7FECC59F86FDE5DCDE7
311
F3D575E0777E6A3589C2AED40C231A5E42690B6BC18CFBBEAE113F2609D8D13D51F2E17D1B9EDDFBEBDA452F1C4EB007F5B2DF789B3CA3EFA3C9CF051C569E14B4CE2B4E735A28A263E85E7FF02F047DC64899767E9D938C5E20E5D3FBCD913198B960DF671DEFF4FBD15E33BBD4017952887AACF35D41183FDA98B548BA55
311
9119FC3A9FF4EFB6D074433D328E41672A4BCE12E4C1C4CA689953856C784111123995A0DEB0A74FCCDDE382DDCF6D87A8C88ED34E93478226994B8405A855C76A3C6FFD86A64EF7553736CAADFB8487C914B605CEDCD868D2158BA9747728D0BA156A84834BC34E1E8D3F29328E5EBBDDD48FFB5D1A9B5149EE975CD23F19
311
BBDA146E0C401AA9D037A02182771A65A2B0D1CDFC8FFF93E19D3A1651F8DCD5AAB7E530D11BD31C83106D8D32B70534314FE6E83D02F575B33CB7593342E4A25BD6AB2468A53A8A88ACB92968FD8C4AB7ABCF137428D6FA9355F13A832F2F97E4080A32D73AC0C122B0C2C8AC880255977F3C7C16256EB2B975C740818765
311
99E7656106B7E6266C6D1E71AF4D1E9016A8BE90C887D9D49B3D3417017337D9EE88A42E49E41326E053C17A88478E0723DBDB222A50FBA35F37D14E38E2E67A6599921640A821CA30AB6A58D07214D442F4E8CBA48E95E182EAD5BBC0A4590A1504BAF8E85F504B03041400060800003A6B31400000000000000000000000
311
00350000006662782F33364544313633302D314238342D344142372D414142422D3238453736324143424441302F76657274696365732E62696E504B03041400060808003A6B3140F270F1330600000004000000360000006662782F33364544313633302D314238342D344142372D414142422D3238453736324143424441
311
302F747269616E676C65732E62696E636660600000504B03041400060800003A6B3140000000000000000000000000370000006662782F33364544313633302D314238342D344142372D414142422D3238453736324143424441302F617474726962757465732E62696E504B03041400060808003A6B3140D5987DFC8F0000
311
0041010000360000006662782F33364544313633302D314238342D344142372D414142422D3238453736324143424441302F6469726563746F72792E786D6C858F410EC2201045AF4266AF15DDB800BA74E7C21B903225242D6328188F2FA5C4183471359997F9FF81E89FF3C41E1816475E02DF1F80A11FC8386F25A438EE
311
CEC07A250251FC3803E6F58C12560C4AD840E95E91C151A72936F496F35732D860FE635F62C8F2DA16B505C545B74125BAA2FA9E05D7CC053D063734D5C7665FD55B6B8D15D5E9BFEAFD8490FFA45E504B03041400060808003A6B3140FE72DE2CFB000000A00100003B0000006662782F33364544313633302D314238342D
311
344142372D414142422D3238453736324143424441302F7265736F75726365732F636F72652E786D6C8D50596E833010BD0A9A7F83CD9220641C41A39CA017B0CC845A0936F252F5F835814AED5F7F3C9EB7689E1EBF7C2DCFEC139DD7D6F4C0720A191A65276DE61E62B89316B28BE0CEDAF04B0699910BF6B0C120F8EC6C
311
5C0F485913D084841A3BE1014AEF3140A69EE9D383571FB8C85CC69014FE91AF523DE48C39CB139D7482FBE052806C3FB2BD201C7A1B9D42CF8B9D153C463D1D1A3DA59BFAAED181A8ABF14CCB7620356BDE487DA323699BB12223BBB2D36D18DA6B55F362330B1EF4F293513994012710256525A18CB0F33BABBAB2E99AB4
311
9E3A4A79B1C9FF98E23AFDD314B5095579C4DD6D1E044B415E84E0C5D6571AAF32D3DCBA15DF504B010214000A00000800003A6B31403DEE336E79000000790000001B00000000000000000000000000000000006175746F6465736B2D64657369676E2D7061636B6167652E786D6C504B010214001400060808003A6B3140
311
D486FD9CA0000000F40000001300000000000000000000000000B20000005B436F6E74656E745F54797065735D2E786D6C504B010214001400060808003A6B31409698831DE90000007C010000080000000000000000000000000083010000636F72652E786D6C504B010214001400060808003A6B314055019EA25F000000
311
7C000000070000000000000000000000000092020000636E782E786D6C504B010214001400060808003A6B31400553503E65010000020300000C00000000000000000000000000160300006662782F636F72652E786D6C504B010214001400060808003A6B3140A4B441B37D0000009D0000000B0000000000000000000000
311
0000A50400006662782F636E782E786D6C504B010214001400060808003A6B3140D1555F17290100001402000031000000000000000000000000004B0500006662782F33364544313633302D314238342D344142372D414142422D3238453736324143424441302F636F72652E786D6C504B010214001400060808003A6B31
311
40BE9494A04C010000330300003000000000000000000000000000C30600006662782F33364544313633302D314238342D344142372D414142422D3238453736324143424441302F636E782E786D6C504B010214001400060808003A6B3140D6E51B589B0500007B10000034000000000000000000000000005D0800006662
311
782F33364544313633302D314238342D344142372D414142422D3238453736324143424441302F6F626A656374732E786D6C504B010214001400060800003A6B314000000000000000000000000035000000000000000000000000004A0E00006662782F33364544313633302D314238342D344142372D414142422D323845
311
3736324143424441302F76657274696365732E62696E504B010214001400060808003A6B3140F270F133060000000400000036000000000000000000000000009D0E00006662782F33364544313633302D314238342D344142372D414142422D3238453736324143424441302F747269616E676C65732E62696E504B010214
311
001400060800003A6B31400000000000000000000000003700000000000000000000000000F70E00006662782F33364544313633302D314238342D344142372D414142422D3238453736324143424441302F617474726962757465732E62696E504B010214001400060808003A6B3140D5987DFC8F00000041010000360000
311
00000000000000000000004C0F00006662782F33364544313633302D314238342D344142372D414142422D3238453736324143424441302F6469726563746F72792E786D6C504B010214001400060808003A6B3140FE72DE2CFB000000A00100003B000000000000000000000000002F1000006662782F3336454431363330
311
2D314238342D344142372D414142422D3238453736324143424441302F7265736F75726365732F636F72652E786D6C504B0506000000000E000E0080040000831100000000
310
504B03040A00000800003A6B31403DEE336E79000000790000001B0000006175746F6465736B2D64657369676E2D7061636B6167652E786D6C3C3F786D6C2076657273696F6E3D22312E302220656E636F64696E673D227574662D3822203F3E3C666F726D6174733E3C666F726D61743E687474703A2F2F736368656D612E
310
6175746F6465736B2E636F6D2F64657369676E2D7061636B6167652F323030393C2F666F726D61743E3C2F666F726D6174733E504B03041400060808003A6B3140D486FD9CA0000000F4000000130000005B436F6E74656E745F54797065735D2E786D6C7D8EC10E82300C865F65E91D8A1E8C310C0EEA1BF002731658846E
310
D98AC1B77784ABF1D8FE5FBFBF75BBCE937A534CCEB38643598122B6FEE978D0B0485F9C41B54DDD7D022595594E1A469170414C76A4D9A4D207E29CF43ECE46F218070CC6BECC4078ACAA135ACF422C856C0E68EA1BF5669944DDD7BCDE7B1F8E415D77AECB980613C2E4AC91FC167A2B244592486606FC29C8FD7F045B9A
310
EF7053A7E60B504B03041400060808003A6B3140E695BC89E80000007C01000008000000636F72652E786D6C8D904D6EC3201085AF82D863837F126C61A22A954FD00B2098B828315806A21CBF3871A476D7D5CC3CDEC78C9E383DE61BBAC31AAC77036605C5089CF6C6BA69C0295E08C7E824C5EA7DFC65C3C8A91906BCC9
310
588A69F569D925ED5D0417B3EABC815D542140C448DF7233E0A0BF6156854A313BC2B55894BEAA090AF6EE329C9235E8B5C49AFC9FBD5858B1ACCE948FC7032794769C34AC6B08EF3EF3D8D2F338365DCD3F1A516EB014D1CEEFFD7A0515C1649EB28A5046D8F18BD57DD5F66D1E0F3DA5A2DCEC7FA0B4987F42C9BA5857FB
310
B92F2C60C9F221CF0729CA2D8B5C9E41E5BAE5267F00504B03041400060808003A6B314055019EA25F0000007C00000007000000636E782E786D6C4DCB3B0E80201045D1AD90E915ED2CF8AC45050C11660C8261F98AB1B07AC9C97D42D718D865D3E909258CFD00CCE24AC6E326A164D74DC0B4128928FF326038472BA131
310
28B1252AC747C6BAB984FC68F0B87FE8960A5C09FE86CFB69FBA01504B03041400060808003A6B3140F7E27A5B64010000020300000C0000006662782F636F72652E786D6C8D52ED8E8320107C15C27F05AC6DB5419A4B2F7D827B01AAD423553008A68F7FEB47E3F5D234171384DD9D9DD9017EBCB70D1A94EBB535056631
310
C54899D256DAD4050EFE1A65181D0577D6FA5F651819D9AA028F612C78ED6CE89650698D57C643D4D84A2D41D9F7CA635436B029705F7EAB56C63278A8E86F7127CB9BAC55CC6248439DE0BD772000CD24E38AC5F572E7648E0B1E82AE96ACAE804D5FB5725824279A9DF7BB2CA234CFA294E56994E59F70DCD2D3F99CE69B
310
EC23E564040BEE75FB50573A25BDAA004F59125116B1FD17DB1C92ED610BC7DD81524EC6F22750E8AA7F8282367E932C7267588F05032153E2CFB4609147BD1C400F119C8C26C26F72F8D96830044CF6F2D23CE6B8416850A5B72E854C65C39A1A641314B052347D9CCC59E83C3580C95EF649DEF479DF032E509A1AA4490F
310
DB4BF0233B9F59172B3AE5A2C1DF91B1AE95CD2A6E96B8AE2BD14B78691BEBFE8326CBA86431938CAF57FC00504B03041400060808003A6B3140EC4E49597E0000009D0000000B0000006662782F636E782E786D6C4DCC4B0AC3201804E0ABC8BF370FA3A40535E4D57B84C60489D16235F4F835258B6E66E06318DE7C7683
310
0EE5DFDA590165560052F6E9666D5701312CF806A891DC3B17FE6680ECB42B012783E4AB77F175D1AC96299A90D468BB5D58D5E383504A301DEE292AD2E2AE25056625EBC9D8F503AD19E492E7BFA7D4E7B1FC02504B03041400060808003A6B314002D652DA2901000014020000310000006662782F33374546323434322D
310
344439322D343332412D424132302D3531354332454243443437352F636F72652E786D6C8D51CB6EC32010FC158B537AB00DF895469828AF7E417F806092A2C460F1A8F2F95D6A476A6FB9ECC2EECCEC68976D1FE33DFB56CE6B6B7A440A8C3265A41DB4B9F628864BBE46D99633676DF803439911A3EA512A23CEAECEC669
310
29496B823201AAC60E6A290AEF554099BCC3A3475E7EA95114220640F85B3109791357559002DA80E3CC070706B279488A8857DDE983D635CDEBE33B848AEEF2FD8EE2BC21CD819EF68763DD35AC9C899CC5A88785AE07B0A32F5AB957451299B3A0C7A77DE994086A409C6242734C72D27D926A439B4D03DF7683312B13FC
310
1F294EC38BA4A84DA8E86277A679C4092BE70667838DE7FBD38C7A4CD6852CCD5B7925DF10C705A6A423EB161630436101A0D9D68BA60FD6C18257B733A0AB45B8AD392BD38D20FD1E1072BA27FF01504B03041400060808003A6B3140D8335BB75401000033030000300000006662782F33374546323434322D344439322D
310
343332412D424132302D3531354332454243443437352F636E782E786D6CBD93CD6EC23010845FC5F29DFC0129428E917AE813F4D0AB632FD4C5B123FF54E5EDBB0643B970A854F56225B3E399D5A784EDBE26433EC107EDEC40DBAAA104AC744ADBC34053DC2F3694EC38F3CEC53B1B25564C30D02C53CE0EDEA5B9480AF6
310
229988AAD1F658440FC1252F21A09C6F12E3A4301800769150846904A540919B119FF6E0711514C71389EF405E9EDF881B3F40C6C0EA9CC2599D3B38CB6769BA3351228D0861A041BEC3242A91A253108E951251546D75ED7AB0D34F12C917AE95C96B92CB079A4FCACB46157264350E390BD123BD628AA7192817F36CB414
310
1121D767E3C5C359D236F6ABE2D508DEA37BD9F59B0D869D679C453D4171480F2282A2BC6BDA6ED1B48BF6E9B55D6EBBF5768DAFFDB669589DED9C8DCE99720963C0BB99486723D84879CBEA3C7E84AFF888D21E593B7FFA054804505A2F746E197FC9A7ED97ABD53FF2A9CFDF37E2F2F817F06F504B03041400060808003A
310
6B3140475D95D45A070000941B0000340000006662782F33374546323434322D344439322D343332412D424132302D3531354332454243443437352F6F626A656374732E786D6CED59DD73A33610FF5718FA6C6C62278D3B849B24BE643C6DEE6ECEBD9B3E78869141266A84602491C4FDEBBBFA00033109EEA56FF7600342
310
5AEDFEF6534BF0E139A3CE23E682E4ECC2F5BD89EB6016E70961E9855BCAEDE8DC753E8401CF73D998E63A0C65F8C255C36E18A43C2F0B3B94E02D2AA9EC8CDE5CFDE5881833EC3A3145425CB822BEC719F25029F3048B072F411279E9F6D9F33D33B14D36E5A8B8EF102D10C74C02A730CE808A6398F2DB8F13771C0663F5
310
3E0CD4BF9D351D346BD63F6BACA56E7349989088C52F58EA90990E6269EACF161F4F4EE7A3D3D96C3A9A9D9DF8A3AB9BABC5C8FF753AB93EBBBE9E5F7E9C037B9B3CA756A604179825A0BF9D1BFAC158BDA945B7081CE23ACE19C3B10612A0D2627509122C60AB067C93F6A3AF246ABCD612369E67EABD65A1313C6D53E99B
310
350C88165D10C46E57495C5D9BF2E59BBF417031C428B9C012B8159283762D3C1CBCC20D27C1D88C86C166AF0B229C0C49CC09A20E251B8E382805A6AA296160165832CA3938907294045A73E675DBB6C033DF769D435C6E4B4A9567B8A176AC08DC0F4BA13923FF60BEE7BE890CF004D29684C973CBA5DC15D80DE7C1580F
310
8681BA4C4FEC4B03A4B3A528151A11F3B623E8B572FDE5C20D7FBFD93CAF543838BC79C1F30273A98C4EE951F305866CAF0A25BBAD3F48736A01086340B52BF7A07C05E43F41F4D8B3027AE3E479F63CB37325474C6C739E816E9C89339AC0DFC4F1F5BFBA6FDC05E37A715B7B7D78829B2AA8CE7F1CCFB60C1A2BCB7F03CE
310
30780483CFF9D4BE5AC588823DDF110600292371680E4310DAB79B67375C42E084400FAB100D7D1019D87D84DB606CC9ECB552B997F53A0688DA3DA6439404B0698B04367AF4740BD9839378AFA6A6887DF09EBE8BB95E2E56BFAF4ABE4531BEB33EBDC05BC28884AC7998A116E62D891EF0EE29E70908FA12EF5513EFCC6E
310
25006D85B9023EAD40500FFB9D5B1BC4B02ECD55B809DED8018450B9BA41FF8E8818538A18CECB6ADF3ABA2943AD3DDED60C6E7862209E9E744C98E347A2AA0A709AFD8C16A390F7634E0A05A21BDE1AC9EAA0E9F548F76DF9092CB29EDF336BC920F43244FFD441EB000E2DCBAE90B640D4026FF6E13CCE69CEA3CD2E3291
310
CE855A02D8687BCBF7165188F546498A0A7890F6BB2AA4A446DA2821DB6D2920AE1E60F1FBF2BA690E136FEA9F3ACDFF8E33CE20DA82EF226EFDAEB347443294E2688B92BEED9ABBD5B48526D9439AE32D05B9C82391BB08C96892E0F418688E223E7F57EA29CD85200C0BC85707C16FA231F12090186D562C2BAD76802622
310
CAB044F4180414991E7075DAD1356E0CA5C3DB3CD6D6FB9AC69A44FF278BE0086AC99C45044A51C8216F32EE7BA71043DAE81A943BF882B555B4B518B4841222DE454F98A4F7F218D40DF91EDC6338929432CA0B1483590F20FBC25794523BBC6F50FCA0F2471497F4BD0C4460BA8D08A56516C18F3038790C71ED3A30BD8A
310
4283B8897D126750942159F2219B9C9D4E5EEC636A866E086C6CB42514C27694A1A207F55640D4F58853836FA9F7287553664584B2BC64830CC59B76BDC992EFAA55911DC8AF2A15A16CAC085B82614098ACB36A15B3C1D475600537D2816A17099415D49CC2DE483C7EED4D9A72EF06DCFAE9FB6E9041E1D7A3BD66449D55
310
30581E5B8581784232BE77C395BE8EAEA0FE4E70B24FF555ADD9AC00013115C94B4EAC8ABE2DA1BCB1359A1BDE2129D6B726EB56D76F4B0FBA1FC118D640ED522F5C2AA033CC245295C99DBAA15F1184E0160D33BE5439F5182A9749A2AB46446F489F3A5B65446BD38C78C53D6679063FB6262CA66582D728110FD19DA4D1
310
8A28D6AD945E462A8C5F15F0F3EDAA030F8C0C10E98B2AF0F05367AD1DBD56E5D24122F2BECC360C1108822DD152A31BAF60A9D548A5E5FAAACE14507781815915CF7E9E2C9AED889F278BD41AC60F9D2CAE767FA05DB32FD248E7B1B2EBA38E01757E5254DEE318A0DB0E35D53A8B98646EE5B7CE144150ACA2FCE06AAC0A
310
1A86601FC7FF396BF76541B35D87FFE3B2B6FFA2E2382AABB426AB2ED581CA75D9CC618BABC56476B3988FA637B3D3D16C3A9F8DE6E7D393D1D5F4ECE3E97C3E5F9CCFF6658476D430A88399CE5DF06C825A35AC9E2C06D095153925099CE61327C510F3259CE907B4CF79860524CF66B33BB14DF901AB1F4D9F53A20DC515
310
27F7081AC454405A078CCA58B6C79D5FA03529E1A07DE142D3C87B803F6B95AE0399E7C2855681243116DE06DA4CAAA1A78943CAD5B9DF12037C104B554A348BEAE77A95C2A615FEEB2943D28095ABD5C380C2AD80EE57AB43A179B33CC547095EB1E32009B79B5242B56664D90FD4C2E86DF6EA37B251C21EECD6CFE0BAAF
310
8BE57B7A4E0B91419F0C5E3502437524114F75BF5B316659BA5C7C19439FCD597E760A5AA6A0CBE194461C833197AAA0022B02ABB0340B24C154AF7F5B7FE1397CE2C91C5D15ADAFF32CCB997DB884F358029F889CD53D7CF049D6503660D55617EB93897FB2D6ED6CDB618F3648604FD543305095114A848EB18145BE684D
310
D9C6E55829A1337DB9706CF8843680B1A017DD5DF379CB01EF511F5294AF680FAFE47CB5A33DD653C11A38F4A2C37F01504B03041400060800003A6B3140000000000000000000000000350000006662782F33374546323434322D344439322D343332412D424132302D3531354332454243443437352F7665727469636573
310
2E62696E504B03041400060808003A6B3140F270F1330600000004000000360000006662782F33374546323434322D344439322D343332412D424132302D3531354332454243443437352F747269616E676C65732E62696E636660600000504B03041400060800003A6B314000000000000000000000000037000000666278
310
2F33374546323434322D344439322D343332412D424132302D3531354332454243443437352F617474726962757465732E62696E504B03041400060808003A6B3140D5987DFC8F00000041010000360000006662782F33374546323434322D344439322D343332412D424132302D3531354332454243443437352F64697265
310
63746F72792E786D6C858F410EC2201045AF4266AF15DDB800BA74E7C21B903225242D6328188F2FA5C4183471359997F9FF81E89FF3C41E1816475E02DF1F80A11FC8386F25A438EECEC07A250251FC3803E6F58C12560C4AD840E95E91C151A72936F496F35732D860FE635F62C8F2DA16B505C545B74125BAA2FA9E05D7
310
CC053D063734D5C7665FD55B6B8D15D5E9BFEAFD8490FFA45E504B03041400060808003A6B314016F428F9FB000000A00100003B0000006662782F33374546323434322D344439322D343332412D424132302D3531354332454243443437352F7265736F75726365732F636F72652E786D6C8D50596EC32010BD8AC53F3678
310
89B18589AA543E412F806092A0C460B1543D7E71EC4AED5F7F18E62D9AA7C7CF5FCBB3F8041F8CB313A225410558E5B4B1B709A578C50C1567C1BD73F1970C15562E30A10D4682DFBC4BEB01296723D89851EB341CA00C01222AD4337F2614D41D1659CA14B3223CCA55AA87BC4149CB4C679DE021FA1CA0D88F6C2F121E82
310
4B5E41E0D5CE0A9E92D187C6E87CD35C0D7824EA0B61737FEA312103C32D1D5ACC86778649472EF3DC0E0D7B6B79B599058F66F9C9A83CC8083AFB09AD31A198F61FB419EB6EECF27A1A09E1D526FF634AABFEA729191B9BFA88BBDB02123407791182575B5F79BCCACC73EB567C03504B010214000A00000800003A6B3140
310
3DEE336E79000000790000001B00000000000000000000000000000000006175746F6465736B2D64657369676E2D7061636B6167652E786D6C504B010214001400060808003A6B3140D486FD9CA0000000F40000001300000000000000000000000000B20000005B436F6E74656E745F54797065735D2E786D6C504B010214
310
001400060808003A6B3140E695BC89E80000007C010000080000000000000000000000000083010000636F72652E786D6C504B010214001400060808003A6B314055019EA25F0000007C000000070000000000000000000000000091020000636E782E786D6C504B010214001400060808003A6B3140F7E27A5B6401000002
310
0300000C00000000000000000000000000150300006662782F636F72652E786D6C504B010214001400060808003A6B3140EC4E49597E0000009D0000000B00000000000000000000000000A30400006662782F636E782E786D6C504B010214001400060808003A6B314002D652DA2901000014020000310000000000000000
310
00000000004A0500006662782F33374546323434322D344439322D343332412D424132302D3531354332454243443437352F636F72652E786D6C504B010214001400060808003A6B3140D8335BB754010000330300003000000000000000000000000000C20600006662782F33374546323434322D344439322D343332412D
310
424132302D3531354332454243443437352F636E782E786D6C504B010214001400060808003A6B3140475D95D45A070000941B00003400000000000000000000000000640800006662782F33374546323434322D344439322D343332412D424132302D3531354332454243443437352F6F626A656374732E786D6C504B0102
310
14001400060800003A6B31400000000000000000000000003500000000000000000000000000101000006662782F33374546323434322D344439322D343332412D424132302D3531354332454243443437352F76657274696365732E62696E504B010214001400060808003A6B3140F270F133060000000400000036000000
310
00000000000000000000631000006662782F33374546323434322D344439322D343332412D424132302D3531354332454243443437352F747269616E676C65732E62696E504B010214001400060800003A6B31400000000000000000000000003700000000000000000000000000BD1000006662782F33374546323434322D
310
344439322D343332412D424132302D3531354332454243443437352F617474726962757465732E62696E504B010214001400060808003A6B3140D5987DFC8F000000410100003600000000000000000000000000121100006662782F33374546323434322D344439322D343332412D424132302D3531354332454243443437
310
352F6469726563746F72792E786D6C504B010214001400060808003A6B314016F428F9FB000000A00100003B00000000000000000000000000F51100006662782F33374546323434322D344439322D343332412D424132302D3531354332454243443437352F7265736F75726365732F636F72652E786D6C504B0506000000
310
000E000E0080040000491300000000
  0
XRECORD
  5
17
102
{ACAD_REACTORS
330
12
102
}
330
12
100
AcDbXrecord
280
     1
270
     1
271
     1
  0
XRECORD
  5
16
102
{ACAD_REACTORS
330
12
102
}
330
12
100
AcDbXrecord
280
     1
270
     1
271
     1
  0
XRECORD
  5
18
102
{ACAD_REACTORS
330
12
102
}
330
12
100
AcDbXrecord
280
     1
270
     1
271
     1
  0
XRECORD
  5
15
102
{ACAD_REACTORS
330
12
102
}
330
12
100
AcDbXrecord
280
     1
270
     1
271
     1
  0
XRECORD
  5
F22
102
{ACAD_REACTORS
330
22
102
}
330
22
100
AcDbXrecord
280
     1
102
MATERIAL
148
0.0
149
0.0
149
0.0
 93
        0
 94
      127
282
     0
 72
     0
 77
     0
171
     0
175
     0
179
     0
273
     0
  0
XRECORD
  5
24
102
{ACAD_REACTORS
330
22
102
}
330
22
100
AcDbXrecord
280
     1
270
     1
271
     1
  0
XRECORD
  5
23
102
{ACAD_REACTORS
330
22
102
}
330
22
100
AcDbXrecord
280
     1
270
     1
271
     1
  0
XRECORD
  5
11C
102
{ACAD_REACTORS
330
22
102
}
330
22
100
AcDbXrecord
280
     1
 70
     1
 90
1959938040
 71
     1
  1
01F1A26C-E91D-4AF7-B7CA-BB7C45FED594
311
504B03040A00000800003A6B31403DEE336E79000000790000001B0000006175746F6465736B2D64657369676E2D7061636B6167652E786D6C3C3F786D6C2076657273696F6E3D22312E302220656E636F64696E673D227574662D3822203F3E3C666F726D6174733E3C666F726D61743E687474703A2F2F736368656D612E
311
6175746F6465736B2E636F6D2F64657369676E2D7061636B6167652F323030393C2F666F726D61743E3C2F666F726D6174733E504B03041400060808003A6B3140D486FD9CA0000000F4000000130000005B436F6E74656E745F54797065735D2E786D6C7D8EC10E82300C865F65E91D8A1E8C310C0EEA1BF002731658846E
311
D98AC1B77784ABF1D8FE5FBFBF75BBCE937A534CCEB38643598122B6FEE978D0B0485F9C41B54DDD7D022595594E1A469170414C76A4D9A4D207E29CF43ECE46F218070CC6BECC4078ACAA135ACF422C856C0E68EA1BF5669944DDD7BCDE7B1F8E415D77AECB980613C2E4AC91FC167A2B244592486606FC29C8FD7F045B9A
311
EF7053A7E60B504B03041400060808003A6B31407D232C0CE80000007C01000008000000636F72652E786D6C8D90416EC3201045AF62CD1E1B70A85D0B13D13637E8051010072506CB40D5E317278ED4EEBA9AE1F3DFCCE8F3E3F77CABBEEC1A5DF023901A4365BD0EC6F969849CCEA887EA28F81A42FA6583CAABD98EB0C9
311
20F8B486BCEC920E3E599F8AEA83B1BBA862B4092A7D2BCD08515FECAC6A955371C46BBD287D5593ADC9B32B70CECE548F25CE9479EEECEC0AA2FBE8257E6512BDD38EA2437F90E8ED24193A3122714B099184F16683054F6E7EEED7AB55C91A1014138A3041A4FB24ED40D9C0CAF365C098379BFD0F9417F34F283B9F5ABA
311
9FFBC02208520EB97F08DE6C5994720FAAD42D37F103504B03041400060808003A6B314055019EA25F0000007C00000007000000636E782E786D6C4DCB3B0E80201045D1AD90E915ED2CF8AC45050C11660C8261F98AB1B07AC9C97D42D718D865D3E909258CFD00CCE24AC6E326A164D74DC0B4128928FF326038472BA131
311
28B1252AC747C6BAB984FC68F0B87FE8960A5C09FE86CFB69FBA01504B03041400060808003A6B3140A89DE56765010000020300000C0000006662782F636F72652E786D6C8D525B6E833010BC8AE57FB04D429346C6116D73835EC001875A011BF98172FC2E8F284D15451112989D9D9DD901BEBF742D1A94F3DA9A02B394
311
62A44C656B6D9A02C7704AB618ED0577D6863F6D1819D9A9028F652C78E36CEC9752654D502640D5D85A2D45E9BD0A18552D1C0AECAB1FD5C954C6001DFE9CF6B23ACB46A52C0518FA04F7C18101348B8C772C4EC70B27735DF01875BDA0BA06357DD2CA61B1F9DA96F43D2F93CF6C9325EBEDBA4C3E0E659E1C7256D255C6
311
58C9724E46B2E041775777955332A81A8B8CB22CA12C619B6FB6DA65F92E87D7B71DA59C8CED77A4D8D72F92A23661952D76679AC782819109F8B72D4414909703F82182933144784C09DF070D8140C8411EDBEB1E67280DAA0AD6AD01A96DBC41836CA302558AA68B931985C9D300D8ECE19CECC99CE733E0034AD3803519
311
E0788C6154E7B3EA1245AF5C32840B32D675B2BD999B2DDEEE37A187F4CAB6D6BDC226CBAA6409938C7FAFF805504B03041400060808003A6B3140F00845BC7E0000009D0000000B0000006662782F636E782E786D6C4DCCD10E82201886E15B61FF390995A61BE042E43E5CA263223482D6E5A7CD838EBEEDD9B797B59FD5
311
A1B7892F1B3C077A22808C7F84D1FA99434E13AE01B582C510D2DF0D901F56C36167106C8E213F0F1ACD3464973675D62F0756BAA6DDB957B82F35C1D7464A2C6F94607D57E5A5A9BA5ED5120AC18A5F69DB3D2CBE504B03041400060808003A6B31409F1095342B01000014020000310000006662782F3646383143324544
311
2D453546302D343942422D423731302D4641443533393643454438422F636F72652E786D6C8D51CB6EC32010FC15C4293D6083133B4E8489EA3CBEA03F406C92A0C460F1A8F2F95D6A476A6FB9B030CCCC8E76F9EE393CD0B7725E5BD36096518C94E96CAFCDB5C1315C488DD14E70676DF843C3C8C8413538C158F0ABB371
311
9CA1CE9AA04C00D4D85ECDA0F45E058CBA075C1AECBB9B1A6426630086BF67A3ECEEF2AA3296C137F004F7C141003435492716D5A966FBE27820C7F244C96AD3B6A45D334A4E9F8772B9A9F6C743DDF27C120A1EA3EE67B9EE218EBE68E5DE354962C1831E5EF13BA764503D16056505A18CB0F5175B6E8B725BC2B3DA52CA
311
F344FF278A63FFA6286A1396C51C7792792C18CFA70FC17B1BCF8F5718F51CAD0B28F55B78D57D6041330AC128AD0B9E4F5418007856ABD9D307EB60C08BFB19D8AC9C8CAB95E079DA1194DF05424DFB143F504B03041400060808003A6B3140BE9494A04C01000033030000300000006662782F36463831433245442D4535
311
46302D343942422D423731302D4641443533393643454438422F636E782E786D6CD593CB6EC32010457F05B1F783BC5A4598485DF40BBAE816C324A5C160F1A89ABFEF9090349B2CBAEC06D9770EF78EAE6CBEFB9E2CF982108D7703656D4F0938E5B5718781E6B46F9E29D9091EBC4F7718254E4E30D02253C10FC1E7B94A
311
1AF632DB84AA35EE58C500D1E7A020A25C6E12EB95B46800AEC928C23482D6A0C90DC4A73D045C05C5F144D20790D79777E2C74F5029F2AEB808DE950CC1CB5993EE204A9495310E34AA0F98642B73F21AE2B1D532C996B5D7AC073BFD3A9172E11A998321257CA0E5A4A26ED4628FBCC3A1E031056CAF42E9340315729EAD
311
513261C9DD19BC308267E3D266555983C507A4D966B95AA1D97926783213544205900934158B9E2D9A9E35ECE98D2DB78BF5768DAF9B6DDFF3AEE0828FDEDB7A096D20F89928EF12B84405E35D193FAAAF72449B805DFB70FA439158404DBDB473F3F8CFFD74E7EF1BEB0AF817881F504B03041400060808003A6B3140EBB7
311
A2C4990500007A100000340000006662782F36463831433245442D453546302D343942422D423731302D4641443533393643454438422F6F626A656374732E786D6CAD575D8F9B3814FD2B887D260949A6EDAC18AA4C32A9A26ADAAA51AB7D1829326018EF188C6C33CDECAFDF633004D2649A5DF52504737D7DEFB9E77E38
311
78BFCFB9F34CA562A2B871FDD1C47568118B8415D98D5BE9D47BE73AEFC3400AA17B62AE53909CDEB866D90D834C8AAAB44B094D49C5F5D1EAFAF62F47C5B4A0AE1373A2D48DABE2479A9311A9B448A87A1A2544935196EE47FEA8111CAACD24291F8F949644D242C352AC17D0E23446F9C3D7893B0E83B1F91E06E6D74ACD
311
CE4B8D6B7F86E7B3426952C43F1D76A466E6CF5777D3AB6BEF6A3E9F79F33753DFBB5DDFAE3CFFED6CB27CB35C5E2FEEAE71B0D2129AAC2592A66EF801D8481607E3E6531854ACD0B3A915B1011A4BFACC4CA4DC70EAF8C1B891E9BCB34E9E323F164541E31A2BA051FB675527B4A445829833AA60590FA1C9F0D53738F63E
311
CFCCBB3DB2BF7C1902FD1D3D45ADEDEDB36FA988FE860BEA120649450D031B2CADA30D572707842321B8FDC69493134D2523DCE12C9244BEB821448D48180CD418264B930DC6033744149ACF43BA208D7ECDF35356A615E786C66E5867C10EB942B5AA2D63FF5079B0BE8F0C6C42AC0C1BDE5987F44B49DDF0BAA1C8BB2336
311
35403A292719420E37CDCED9F4C8D1A5C9D3CDCA0D3FAEA3FDD6E4EEE9C34B294A2AB5A10FA8D506AE7D1A94AC4DFE4591331BDC23530EA07C05F29F90EA07531037C9F6F3FDDC9EA22529542A648ED83813C79BE067E2F8F5AFF9DFFB178CBBCDC3E89DC313C13650FD063C873EF463D983330C9E41782167D6B56D4C38CA
311
C63D2B00902189C305965087D368EF861B54395465EC223CF4E132CC7DC6DF606CD5A050D427F59E05B03C2A8B171468C05633126634E4B7061EE2F45339AB0FB662E7E0BDFA2D745DACB61FB7954C494CEF6D4EAF68CA0AA6D1E20EBCE91B34C07CE0D1137DF9216402477FC67BDBC73BB74729A06D3037C0676D4D372F87
311
930707C4D89709536E825F9C00274C63EDE9BF672AA69C93828AAA3DF7D5FE81B6D1406C92DD30B96B3087C602D2345F8E72104D3A96AC342076DDAA2B9AA333DE7DDB7C022321CF4544F841283A94DE58702177D1CBAEA94A2791FE3EA4B685606CB480ED758EB4E96F31DF252C4D2B851A7802D6EF9B653F74A62AA042B4
311
5A9B6499C37DE4169196B3AD5E346B49D04845B163689B48BB9307F4F503514B805AE1398B15E5E98E715EE5BB947134A35D4ECA3370FC7FFBA32A2F77241755A1CFE81E988EE630B47D405EF583E8F8D10DB7F5D3BB45E94D687208F340D8B49213580D423BF1D7FE62FA66E9DD5DFB2B6FBE58BFF56EDF2E17DE2D7EE757
311
EBBBD5D5F5BC8D53A33C0CDA4ED34F6844099D2DA824B3E1FBB641FAD81AE086F744AB870F4D76B6CF6F9B1146E1608C3D6897DDC645F28CB18F26BF5670903CA96893979CE6B4D0C4A4D0BDF9C3BF128C1903639AF54D4E327A8196CF1FB647CE60E5827D5F4CBAD31F477BEDEAD224E44925FAB1CAA382307EB4316B901C
311
954566F16B63D23D9B3ED3BE9A371B180CA64A7096A00C264E46454E358AE1053D48E654817AFD913EB1578F0B763F3703A22611A7AD258F04333257480B50AB8AF570DDF903339D19AB6E5C74DBD1137E6CA5701D70E6C6C58CAE594CD528427F369350AD1C5CEA0FF298FB4991718CDACDA6EEBDDB65B01974E44EE492F1
311
C9FAD55470EB00CA4889B101F310A2531B1306B56DF67BFC9F1C6FCD7188C6DFA8D29D2F8785CE99FA18A468E394BD2C608679B247EF91A8AFBBE58F6A990122175DB25E2541A3D5D34466F545C1D8674D5AACBE8C31A0389BCF4EC9AB0CB1BC5C932729C85C9904078BC00AABB3241A545DFEF9F0450A5C647367CD408187
311
A5C87351D89785BD083BDB475C6B930794056AEE23EA613AF1A70FF53DC05E4D761151744412F58405C454B20EE241E0C1C8E6B2880ED47CE8E4C6260847DCDCAC1CDBD250635BF97E5535B060E228A883EC317749932B7D81F2D5ABC0B816850912437CF82F504B03041400060800003A6B31400000000000000000000000
311
00350000006662782F36463831433245442D453546302D343942422D423731302D4641443533393643454438422F76657274696365732E62696E504B03041400060808003A6B3140F270F1330600000004000000360000006662782F36463831433245442D453546302D343942422D423731302D4641443533393643454438
311
422F747269616E676C65732E62696E636660600000504B03041400060800003A6B3140000000000000000000000000370000006662782F36463831433245442D453546302D343942422D423731302D4641443533393643454438422F617474726962757465732E62696E504B03041400060808003A6B3140D5987DFC8F0000
311
0041010000360000006662782F36463831433245442D453546302D343942422D423731302D4641443533393643454438422F6469726563746F72792E786D6C858F410EC2201045AF4266AF15DDB800BA74E7C21B903225242D6328188F2FA5C4183471359997F9FF81E89FF3C41E1816475E02DF1F80A11FC8386F25A438EE
311
CEC07A250251FC3803E6F58C12560C4AD840E95E91C151A72936F496F35732D860FE635F62C8F2DA16B505C545B74125BAA2FA9E05D7CC053D063734D5C7665FD55B6B8D15D5E9BFEAFD8490FFA45E504B03041400060808003A6B3140C0EA4FCDFB000000A00100003B0000006662782F36463831433245442D453546302D
311
343942422D423731302D4641443533393643454438422F7265736F75726365732F636F72652E786D6C8D504B6E833010BD0A9ABDC136A124C838A26D6ED00B586642AC041BF953F5F835814AEDAE1B8FE77D344F4F9CBFE647F1893E18677B60258502AD76A3B1530F295EC9118AB314DEB9F84B06855533F6B0C220C5E45D
311
5A76483B1BD1C68C5A37E20EAA103042A11FF9D343D0379C55A952CC8A702F17A5EF6AC2929599CE3A2942F43940B11D595F901E834B5E6310D5C64A919219778D19F34D7335E841B6EFC7819E9A1379E32D2787E36120AF97A12197860DB4E68C0DAC11D56A96229AF927A3F6A8228E2039659C504658FBC1EA8E375D93D7
311
978E5251ADF23FA6B48CFF34256363CDF7B89B2D806439C89390A25AFBCAE359669E6BB7F21B504B010214000A00000800003A6B31403DEE336E79000000790000001B00000000000000000000000000000000006175746F6465736B2D64657369676E2D7061636B6167652E786D6C504B010214001400060808003A6B3140
311
D486FD9CA0000000F40000001300000000000000000000000000B20000005B436F6E74656E745F54797065735D2E786D6C504B010214001400060808003A6B31407D232C0CE80000007C010000080000000000000000000000000083010000636F72652E786D6C504B010214001400060808003A6B314055019EA25F000000
311
7C000000070000000000000000000000000091020000636E782E786D6C504B010214001400060808003A6B3140A89DE56765010000020300000C00000000000000000000000000150300006662782F636F72652E786D6C504B010214001400060808003A6B3140F00845BC7E0000009D0000000B0000000000000000000000
311
0000A40400006662782F636E782E786D6C504B010214001400060808003A6B31409F1095342B0100001402000031000000000000000000000000004B0500006662782F36463831433245442D453546302D343942422D423731302D4641443533393643454438422F636F72652E786D6C504B010214001400060808003A6B31
311
40BE9494A04C010000330300003000000000000000000000000000C50600006662782F36463831433245442D453546302D343942422D423731302D4641443533393643454438422F636E782E786D6C504B010214001400060808003A6B3140EBB7A2C4990500007A10000034000000000000000000000000005F0800006662
311
782F36463831433245442D453546302D343942422D423731302D4641443533393643454438422F6F626A656374732E786D6C504B010214001400060800003A6B314000000000000000000000000035000000000000000000000000004A0E00006662782F36463831433245442D453546302D343942422D423731302D464144
311
3533393643454438422F76657274696365732E62696E504B010214001400060808003A6B3140F270F133060000000400000036000000000000000000000000009D0E00006662782F36463831433245442D453546302D343942422D423731302D4641443533393643454438422F747269616E676C65732E62696E504B010214
311
001400060800003A6B31400000000000000000000000003700000000000000000000000000F70E00006662782F36463831433245442D453546302D343942422D423731302D4641443533393643454438422F617474726962757465732E62696E504B010214001400060808003A6B3140D5987DFC8F00000041010000360000
311
00000000000000000000004C0F00006662782F36463831433245442D453546302D343942422D423731302D4641443533393643454438422F6469726563746F72792E786D6C504B010214001400060808003A6B3140C0EA4FCDFB000000A00100003B000000000000000000000000002F1000006662782F3646383143324544
311
2D453546302D343942422D423731302D4641443533393643454438422F7265736F75726365732F636F72652E786D6C504B0506000000000E000E0080040000831100000000
310
504B03040A00000800003A6B31403DEE336E79000000790000001B0000006175746F6465736B2D64657369676E2D7061636B6167652E786D6C3C3F786D6C2076657273696F6E3D22312E302220656E636F64696E673D227574662D3822203F3E3C666F726D6174733E3C666F726D61743E687474703A2F2F736368656D612E
310
6175746F6465736B2E636F6D2F64657369676E2D7061636B6167652F323030393C2F666F726D61743E3C2F666F726D6174733E504B03041400060808003A6B3140D486FD9CA0000000F4000000130000005B436F6E74656E745F54797065735D2E786D6C7D8EC10E82300C865F65E91D8A1E8C310C0EEA1BF002731658846E
310
D98AC1B77784ABF1D8FE5FBFBF75BBCE937A534CCEB38643598122B6FEE978D0B0485F9C41B54DDD7D022595594E1A469170414C76A4D9A4D207E29CF43ECE46F218070CC6BECC4078ACAA135ACF422C856C0E68EA1BF5669944DDD7BCDE7B1F8E415D77AECB980613C2E4AC91FC167A2B244592486606FC29C8FD7F045B9A
310
EF7053A7E60B504B03041400060808003A6B31406C837328EA0000007C01000008000000636F72652E786D6C8D904D6EC3201085AF82668F0D76DDD816264A1CE504BD0082898B128365A0EAF18BF323B5BBAE6678BC6F66F4C4FE7BBE912F5C83F56E005E3020E8B437D64D03A478A12D90BD14ABF7F1970D8853330EB0C9
310
20C5B4FAB43C25ED5D4417B3EABCC1A7A842C00844DF723340D09F38AB42A5981DE15A2C4A5FD584057F75194EC91AF258624D9E672F165790AC3B8FF59935741C0F237D3BB62DEDDAE3899E3AD61C58D5742DDF897283A588767EEDD72BAA880664C5784519A77CF7C1EBBE6AFA263FDF7BC644B9D9FF406931FF849275B1
310
AE9EE73EB00092E743EE1F52945B16B9DC83CA75CB4DFE00504B03041400060808003A6B314055019EA25F0000007C00000007000000636E782E786D6C4DCB3B0E80201045D1AD90E915ED2CF8AC45050C11660C8261F98AB1B07AC9C97D42D718D865D3E909258CFD00CCE24AC6E326A164D74DC0B4128928FF326038472B
310
A13128B1252AC747C6BAB984FC68F0B87FE8960A5C09FE86CFB69FBA01504B03041400060808003A6B31406C11BBFC65010000020300000C0000006662782F636F72652E786D6C8D52ED8E8230107C95A6FFA105E544536A14E313DC0B54A85C23B4A4B4C4C7BFE5C3705E8C3124507676766607D8FEDED4A897B653466738
310
0A29465217A654BACAB077D720C568CF9935C6FD69C3488B4666782863CE2A6B7C3B970AA39DD40EAADA94722E8AAE930EA3A2864386BBE247362214DE4147770B5B51DC4425C3280418FA38EB9C0503681219EE985F2F7746A63A67DEAB724655096AEAAAA4C59C6ECFF9EA4C9320CF0F79B03EA669B04D8FA7E0B4A5C981
310
C6C9368D368C0C64CE9C6A1EEE0A2B859325E6318DE2804641B4F98E56BB38D925F0FAB5A39491A1FD89E4DBF2439257DAADE2D9EE44EB308FC0C808FCDB162272A8133DF8219C912144788C093F070D8140C84E5CEAC71E3728F5B270C6AE01298D5FA05ED45E822A45E3C5C884C2E471006CF6724EFC66CEFB19F00185AE
310
C09A7070BC7837A8B349758EA29536E8DD1D69631B512FE6268BCB7D117A492F4C6DEC276C32AF4AE630C9F0F7F25F504B03041400060808003A6B3140FF38CD8C7E0000009D0000000B0000006662782F636E782E786D6C4DCCD10A83201886E15B91FFDCE56C0E033374D97DC4B290990EA76397BF1A1DECE883878F5774
310
9FD5A3B74D2F17430BE7130164C33D4E2E2C2D943C630EA89322C598FF6E80C2B8DA167606299614CBF3A0C9CE63F17953EFC2E340C614E7D7DEE0A6D1377C21BCC69A0D0653CA7B431519B4AAA192A2FA95B6DDC3F20B504B03041400060808003A6B3140AA43C1222B01000014020000310000006662782F353541383836
310
44452D393942432D343038332D423546452D3232384445324130464241332F636F72652E786D6C8D51DB8EC22014FC15C293FB400BD4D66A284657FD82FD810AA8440B0D978D9FBFB0ADC9EE9B2F1C1866E64CCE61DBE7F000DFCA796D4D07498121504658A9CDB583315C500BC19633676DF84383C0F483EA608621675767
310
E33843C29AA04C48A8B152CD60EFBD0A108847BA74D08B9B1AFAA28F2131FCBD187B71EFAFAA2045FA4E3CCE7C702900989AE413F2BADEB56D7338A2F57AFF8996B8ADD0BE3E1D11A5EDE14877F8B4DF55AC9C849CC5A8E52CD732C5D117ADDCBB2659CC59D0C32BBE70AA0F4A424E31A1081344565FA4DAD07A53A767B3C1
310
989599FE4F1447F9A6286A132A3AC79D641E72C2CAE9833369E3F9F10AA39EA37501E47E0BAFC407E4B8C0945674D5B4AC9CA86900C9B359CE9E3E589706BCB89F13BB9A8D9B256765DE512ABF0B4C35EF93FF00504B03041400060808003A6B3140D8335BB75401000033030000300000006662782F35354138383644452D
310
393942432D343038332D423546452D3232384445324130464241332F636E782E786D6CBD93CD6EC23010845FC5F29DFC0129428E917AE813F4D0AB632FD4C5B123FF54E5EDBB0643B970A854F56225B3E399D5A784EDBE26433EC107EDEC40DBAAA104AC744ADBC34053DC2F3694EC38F3CEC53B1B25564C30D02C53CE0EDE
310
A5B9480AF6229988AAD1F658440FC1252F21A09C6F12E3A4301800769150846904A540919B119FF6E0711514C71389EF405E9EDF881B3F40C6C0EA9CC2599D3B38CB6769BA3351228D0861A041BEC3242A91A253108E951251546D75ED7AB0D34F12C917AE95C96B92CB079A4FCACB46157264350E390BD123BD628AA71928
310
17F36CB4141121D767E3C5C359D236F6ABE2D508DEA37BD9F59B0D869D679C453D4171480F2282A2BC6BDA6ED1B48BF6E9B55D6EBBF5768DAFFDB669589DED9C8DCE99720963C0BB99486723D84879CBEA3C7E84AFF888D21E593B7FFA054804505A2F746E197FC9A7ED97ABD53FF2A9CFDF37E2F2F817F06F504B03041400
310
060808003A6B314054DFDDCC57070000931B0000340000006662782F35354138383644452D393942432D343038332D423546452D3232384445324130464241332F6F626A656374732E786D6CED595B6FA33814FE2B887D0E094DDA99AE28A33469AB68D599D16467B40F9590030EF1D618649B5EF6D7EFF1050234B464A7FB
310
360F8160ECE373BE73F521F8F49451E70173417276E1FADEC475308BF384B0F4C22DE576F4D1753E8501CF73D998E63A0C65F8C255C36E18A43C2F0B3B94E02D2AA9EC8C5E5FFEE5881833EC3A3145425CB822DEE10C79A8947982C5BD972089BC74FBE4F99E99D8269B7254EC3A440BC43193C0298C33A0E218A6FCF6E3C4
310
1D87C158BD0F0375B5B3A68366CDFA678DB5D46D2E091312B1F8054B1D32D3412C4DFDD9F2EAE4F47C743A9B4D47B3B3137F74797DB91CF91FA693C5D962713EBF3A07F636794EAD4C092E304B407FCF6EE80763F5A616DD227088EB38670CC71A48804A8BD52548B080AD1AF04DDA8FBE92A8F15A4BD8789EA9F79685C6F0
310
B44DA56FD630205A744110BB5D2571756FCA976FFE06C1C510A3E4024BE056480EDAB5F070F00A379C0463331A069BBD2E887032243127883A946C38E2A01498AAA684815960C928E7E040CA511268CD99D76DDB02CF7CDB750E71B92D29559EE186DAB122703F2C85E68CFC83F99EFB2632C013485B12263F5A2EE57381DD
310
F03C18EBC13050B7E9897D698074B614A5422362DE76045D28D75F2DDDF08FEBCDD35A8583C39B173C2F3097CAE8941E355F60C8F6AE50B2DBFA8334A71680300654BB720FCA3740FE33448F3D2BA0374E9E664F333B5772C4C436E719E8C69938A3095C268EAFAFEA7FE35F30AE17B7B5D78727B8A982EAE3CFE3D9964163
310
65F96FC019060F60F0399FDA57EB1851B0E75BC2002065240ECD610842FB76F3E4862B089C10E86115A2A10F2203BB0FF037185B327BAD54EE65BD8E01A2768FE91025016CDA22818D1E3DDD40F6E024DEABA929621FBCA7EF62AEF3E5FA8F75C9B728C6B7D6A797784B189190350F33D4C2BC25D13D7E7ECC790282BEC47B
310
DDC43BB35B09405B61AE804F2B10D4C37EE7D60631AC4B73156E823776002154AE6ED0BF2522C6942286F3B2DAB78E6ECA506B8FB735831B9E1888A7271D13E6F881A8AA029C663FA3C528E4FD98934281E8863746B23A687A3DD27D5F7D068BACE7F7CC5A3108BD0CD13F75D03A8043CBB22BA42D10B5C09B7D388F739AF3
310
68F31C9948E7422D016CB4BDE5478B28C47AA32445053C48FB5D155252236D9490EDB61410570FB0F863B5689AC3C49BFAA74EF3DA71C619445BF05DC4ADDF75F6884886521C6D51D2B75D73B79AB6D0247B4873BCA520177920F23942329A24383D069AA3889FBF2BF594E642108605E4AB83E037D1987810488C362B9695
310
563B4013116558227A0C028A4C0FB83AEDE81A3786D2E16D1E6BEB7D4D634DA2FF93457004B564CE2202A528E4903719F7BD5388216D740DCA1D7CC1DA2ADA5A0C5A4209113F478F98A43B790CEA867C0FEE311C494A19E5058AC1AC07907DE12B4AA91DDE3728BE57F9238A4BFA5E062230DD4684D2328BE047189C3C86B8
310
761D985E45A141DCC43E893328CA902CF9904DCE4E272FF631354337043636DA120A613BCA50D1837A2B20EA7AC4A9C1B7D47B94BA29B32242595EB24186E24DBBDE64C977D5AAC80EE457958A503656842DC130204CD659B58AD960EA3AB0821BE940F51C099415D49CC2DE483C7EED4D9A72EF06DCFAE9FB6E9041E1D7A3
310
BD66449D5530581E5B8581784432DEB9E15ADF4797507F2738D9A7FAAAD66C568080988AE425275645DF5750DED81ACD0D6F9114773726EB56F7EF2B0FBA1FC118D640ED522F5C29A033CC245295C9ADFA43BF2108C12D1A667CA572EA3154E649A2AB4644AF499F3A5B65446BD38C78C50EB33C831FBB232CA66582EF5022
310
EEA35B49A33551AC5B29BD8C5418BF2AE0979B75071E181920D25755E0E1C7CE5A3BBA50E5D241227257661B860804C19668A9D18D57B0D46AA4D2727D57670AA8BBC0C0AC8A67BF4E16CD76C4AF93456A0DE3E74E1634DF20BA8F368D6C1E2BB33EEA1450A72745E53D4E01BAEB5053AD9388C9E5567CEB4B11C4C42AC80F
310
2EC6AA986108F671FC9F93765F1234DB75F83F2E69FB2F0A8EA3924A6BB26A521D285C57CD1436F1AFFDF9C9D9627475EE2F47B3F9F587D1E587C57C7409D7D9E9F5D5F2F47C56A3A9FD340CEA58A653173C9B98560DAB278B013465454E490287F9C44931847C0947FA01DD739E6101B9B3D9EB4E6C4F7EC0EA07D3E69468
310
4371C5C90E417F980AC8EA805119CBF6B8F31B7426259CB32F5CE81979F770B156E93A90782E5CE814481263E16DA0CBA4FA799A38645C9DFA2D31C007B1546544B3A87EAE57296C5AD1BF9E32240B58B95A2D0CA8DB0A687EB51A149A37CB537C94E0153B0E92F077534A28D68C2CFB815A18BDCD5EFD46364AD8BDDDFA09
310
5CF775B17C4FCF692132E88BC1AB4660A88E24E2A96E772BC62C4BF3E5D731B4D99CD517A7A0650ABA1C4E69C4311873A9EA29B022B00A4BB340124C75F1FBDD579EC3179ECCD145D1DD22CFB29CD987391CC712F842E4AC77F0BD27B983AA01ABAEBAB83B99F82777BA9B6D1BECD10609ECA9720806AA2A4289D03136B0C8
310
179D29DBB71C2B2574A6AF968E0D9FD0053016F4A2B96BBE6E39E03DEA3B8AF215EDE1959CAF36B4C77A2A5803875674F82F504B03041400060800003A6B3140000000000000000000000000350000006662782F35354138383644452D393942432D343038332D423546452D3232384445324130464241332F766572746963
310
65732E62696E504B03041400060808003A6B3140F270F1330600000004000000360000006662782F35354138383644452D393942432D343038332D423546452D3232384445324130464241332F747269616E676C65732E62696E636660600000504B03041400060800003A6B31400000000000000000000000003700000066
310
62782F35354138383644452D393942432D343038332D423546452D3232384445324130464241332F617474726962757465732E62696E504B03041400060808003A6B3140D5987DFC8F00000041010000360000006662782F35354138383644452D393942432D343038332D423546452D3232384445324130464241332F6469
310
726563746F72792E786D6C858F410EC2201045AF4266AF15DDB800BA74E7C21B903225242D6328188F2FA5C4183471359997F9FF81E89FF3C41E1816475E02DF1F80A11FC8386F25A438EECEC07A250251FC3803E6F58C12560C4AD840E95E91C151A72936F496F35732D860FE635F62C8F2DA16B505C545B74125BAA2FA9E
310
05D7CC053D063734D5C7665FD55B6B8D15D5E9BFEAFD8490FFA45E504B03041400060808003A6B31407F285DB0FC000000A00100003B0000006662782F35354138383644452D393942432D343038332D423546452D3232384445324130464241332F7265736F75726365732F636F72652E786D6C8D504B6E833010BD0A9ABD
310
C186D000328E12A29CA017B0CC845A0936F2A7EAF16B0295DA5D371ECFFB689E1E3F7DCDCFEC139DD7D6F4C0720A191A65476DA61E62B89306B293E0CEDAF04B06999133F6B0C220F8E46C5C76485913D084841A3BE20E4AEF3140A69EE9D383571F38CB5CC69014FE912F523DE48439CB139D7482FBE052806C3BB2BE201C
310
7A1B9D42CF8B8D153C463DEE1A3DA69BFAAED181A0ED6DA86EF44086E13C90C3A56948DB5CAEE4DAD2FA4CCBBA6DD89117AB59F0A0E79F8CCAA10C388228292B0965841DDF59D5957557A7F5ADA39417ABFC8F292EE33F4D519B50957BDCCDE641B014E445085EAC7DA5F12A33CDB55BF10D504B010214000A00000800003A
310
6B31403DEE336E79000000790000001B00000000000000000000000000000000006175746F6465736B2D64657369676E2D7061636B6167652E786D6C504B010214001400060808003A6B3140D486FD9CA0000000F40000001300000000000000000000000000B20000005B436F6E74656E745F54797065735D2E786D6C504B
310
010214001400060808003A6B31406C837328EA0000007C010000080000000000000000000000000083010000636F72652E786D6C504B010214001400060808003A6B314055019EA25F0000007C000000070000000000000000000000000093020000636E782E786D6C504B010214001400060808003A6B31406C11BBFC6501
310
0000020300000C00000000000000000000000000170300006662782F636F72652E786D6C504B010214001400060808003A6B3140FF38CD8C7E0000009D0000000B00000000000000000000000000A60400006662782F636E782E786D6C504B010214001400060808003A6B3140AA43C1222B01000014020000310000000000
310
00000000000000004D0500006662782F35354138383644452D393942432D343038332D423546452D3232384445324130464241332F636F72652E786D6C504B010214001400060808003A6B3140D8335BB754010000330300003000000000000000000000000000C70600006662782F35354138383644452D393942432D3430
310
38332D423546452D3232384445324130464241332F636E782E786D6C504B010214001400060808003A6B314054DFDDCC57070000931B00003400000000000000000000000000690800006662782F35354138383644452D393942432D343038332D423546452D3232384445324130464241332F6F626A656374732E786D6C50
310
4B010214001400060800003A6B31400000000000000000000000003500000000000000000000000000121000006662782F35354138383644452D393942432D343038332D423546452D3232384445324130464241332F76657274696365732E62696E504B010214001400060808003A6B3140F270F133060000000400000036
310
00000000000000000000000000651000006662782F35354138383644452D393942432D343038332D423546452D3232384445324130464241332F747269616E676C65732E62696E504B010214001400060800003A6B31400000000000000000000000003700000000000000000000000000BF1000006662782F353541383836
310
44452D393942432D343038332D423546452D3232384445324130464241332F617474726962757465732E62696E504B010214001400060808003A6B3140D5987DFC8F000000410100003600000000000000000000000000141100006662782F35354138383644452D393942432D343038332D423546452D3232384445324130
310
464241332F6469726563746F72792E786D6C504B010214001400060808003A6B31407F285DB0FC000000A00100003B00000000000000000000000000F71100006662782F35354138383644452D393942432D343038332D423546452D3232384445324130464241332F7265736F75726365732F636F72652E786D6C504B0506
310
000000000E000E00800400004C1300000000
  0
XRECORD
  5
27
102
{ACAD_REACTORS
330
22
102
}
330
22
100
AcDbXrecord
280
     1
270
     1
271
     1
  0
XRECORD
  5
26
102
{ACAD_REACTORS
330
22
102
}
330
22
100
AcDbXrecord
280
     1
270
     1
271
     1
  0
XRECORD
  5
28
102
{ACAD_REACTORS
330
22
102
}
330
22
100
AcDbXrecord
280
     1
270
     1
271
     1
  0
XRECORD
  5
25
102
{ACAD_REACTORS
330
22
102
}
330
22
100
AcDbXrecord
280
     1
270
     1
271
     1
  0
XRECORD
  5
F1C
102
{ACAD_REACTORS
330
F1B
102
}
330
F1B
100
AcDbXrecord
280
     1
102
ACAD_ROUNDTRIP_2012_MLEADER_STYLE
298
     1
  0
CELLSTYLEMAP
  5
F1A
102
{ACAD_REACTORS
330
F19
102
}
330
F19
100
AcDbCellStyleMap
 90
        3
300
CELLSTYLE
  1
TABLEFORMAT_BEGIN
 90
        5
170
     1
 91
        0
 92
    32768
 62
   257
 93
        1
300
CONTENTFORMAT
  1
CONTENTFORMAT_BEGIN
 90
        0
 91
        0
 92
      512
 93
        0
300

 40
0.0
140
1.0
 94
        5
 62
     0
340
55
144
0.25
309
CONTENTFORMAT_END
171
     0
 94
        0
309
TABLEFORMAT_END
  1
CELLSTYLE_BEGIN
 90
        1
 91
        1
300
_TITLE
309
CELLSTYLE_END
300
CELLSTYLE
  1
TABLEFORMAT_BEGIN
 90
        5
170
     1
 91
        0
 92
        0
 62
   257
 93
        1
300
CONTENTFORMAT
  1
CONTENTFORMAT_BEGIN
 90
        0
 91
        0
 92
      512
 93
        0
300

 40
0.0
140
1.0
 94
        5
 62
     0
340
55
144
0.18
309
CONTENTFORMAT_END
171
     0
 94
        0
309
TABLEFORMAT_END
  1
CELLSTYLE_BEGIN
 90
        2
 91
        1
300
_HEADER
309
CELLSTYLE_END
300
CELLSTYLE
  1
TABLEFORMAT_BEGIN
 90
        5
170
     1
 91
        0
 92
        0
 62
   257
 93
        1
300
CONTENTFORMAT
  1
CONTENTFORMAT_BEGIN
 90
        0
 91
        0
 92
      512
 93
        0
300

 40
0.0
140
1.0
 94
        2
 62
     0
340
55
144
0.18
309
CONTENTFORMAT_END
171
     0
 94
        0
309
TABLEFORMAT_END
  1
CELLSTYLE_BEGIN
 90
        3
 91
        2
300
_DATA
309
CELLSTYLE_END
  0
XRECORD
  5
F53
102
{ACAD_REACTORS
330
F19
102
}
330
F19
100
AcDbXrecord
280
     1
102
ACAD_ROUNDTRIP_PRE2007_TABLESTYLE
 90
      512
 91
        0
  1

 92
      512
 93
        0
  2

 94
      512
 95
        0
  3

  0
XRECORD
  5
F2E
102
{ACAD_REACTORS
330
F2D
102
}
330
F2D
100
AcDbXrecord
280
     1
102
RTVSPropertyOp0
 70
     1
102
RTVSPropertyOp1
 70
     1
102
RTVSPropertyOp2
 70
     1
102
RTVSPropertyOp3
 70
     1
102
RTVSPropertyOp4
 70
     1
102
RTVSPropertyOp5
 70
     1
102
RTVSPropertyOp6
 70
     1
102
RTVSPropertyOp7
 70
     1
102
RTVSPropertyOp8
 70
     1
102
RTVSPropertyOp9
 70
     1
102
RTVSPropertyOp10
 70
     1
102
RTVSPropertyOp11
 70
     1
102
RTVSPropertyOp12
 70
     1
102
RTVSPropertyOp13
 70
     1
102
RTVSPropertyOp14
 70
     1
102
RTVSPropertyOp15
 70
     1
102
RTVSPropertyOp16
 70
     1
102
RTVSPropertyOp17
 70
     1
102
RTVSPropertyOp18
 70
     1
102
RTVSPropertyOp19
 70
     1
102
RTVSPropertyOp20
 70
     1
102
RTVSPropertyOp21
 70
     1
102
RTVSPropertyOp22
 70
     1
102
RTVSPropertyOp23
 70
     1
102
RTVSPropertyOp24
 70
     1
102
RTVSPropertyOp25
 70
     1
102
RTVSPropertyOp26
 70
     1
102
RTVSPropertyOp27
 70
     1
102
RTVSPropertyOp28
 70
     1
102
RTVSPropertyOp29
 70
     1
102
RTVSPropertyOp30
 70
     1
102
RTVSPropertyOp31
 70
     1
102
RTVSPropertyOp32
 70
     1
  0
XRECORD
  5
F2C
102
{ACAD_REACTORS
330
F2B
102
}
330
F2B
100
AcDbXrecord
280
     1
102
RTVSPropertyOp0
 70
     1
102
RTVSPropertyOp1
 70
     1
102
RTVSPropertyOp2
 70
     1
102
RTVSPropertyOp3
 70
     1
102
RTVSPropertyOp4
 70
     1
102
RTVSPropertyOp5
 70
     1
102
RTVSPropertyOp6
 70
     1
102
RTVSPropertyOp7
 70
     1
102
RTVSPropertyOp8
 70
     1
102
RTVSPropertyOp9
 70
     1
102
RTVSPropertyOp10
 70
     1
102
RTVSPropertyOp11
 70
     1
102
RTVSPropertyOp12
 70
     1
102
RTVSPropertyOp13
 70
     1
102
RTVSPropertyOp14
 70
     1
102
RTVSPropertyOp15
 70
     1
102
RTVSPropertyOp16
 70
     1
102
RTVSPropertyOp17
 70
     1
102
RTVSPropertyOp18
 70
     1
102
RTVSPropertyOp19
 70
     1
102
RTVSPropertyOp20
 70
     1
102
RTVSPropertyOp21
 70
     1
102
RTVSPropertyOp22
 70
     1
102
RTVSPropertyOp23
 70
     1
102
RTVSPropertyOp24
 70
     1
102
RTVSPropertyOp25
 70
     1
102
RTVSPropertyOp26
 70
     1
102
RTVSPropertyOp27
 70
     1
102
RTVSPropertyOp28
 70
     1
102
RTVSPropertyOp29
 70
     1
102
RTVSPropertyOp30
 70
     1
102
RTVSPropertyOp31
 70
     1
102
RTVSPropertyOp32
 70
     1
  0
XRECORD
  5
F3A
102
{ACAD_REACTORS
330
F39
102
}
330
F39
100
AcDbXrecord
280
     1
102
RTVSPropertyOp0
 70
     1
102
RTVSPropertyOp1
 70
     1
102
RTVSPropertyOp2
 70
     1
102
RTVSPropertyOp3
 70
     1
102
RTVSPropertyOp4
 70
     1
102
RTVSPropertyOp5
 70
     1
102
RTVSPropertyOp6
 70
     1
102
RTVSPropertyOp7
 70
     1
102
RTVSPropertyOp8
 70
     1
102
RTVSPropertyOp9
 70
     1
102
RTVSPropertyOp10
 70
     1
102
RTVSPropertyOp11
 70
     1
102
RTVSPropertyOp12
 70
     1
102
RTVSPropertyOp13
 70
     1
102
RTVSPropertyOp14
 70
     1
102
RTVSPropertyOp15
 70
     1
102
RTVSPropertyOp16
 70
     1
102
RTVSPropertyOp17
 70
     1
102
RTVSPropertyOp18
 70
     1
102
RTVSPropertyOp19
 70
     1
102
RTVSPropertyOp20
 70
     1
102
RTVSPropertyOp21
 70
     1
102
RTVSPropertyOp22
 70
     1
102
RTVSPropertyOp23
 70
     1
102
RTVSPropertyOp24
 70
     1
102
RTVSPropertyOp25
 70
     1
102
RTVSPropertyOp26
 70
     1
102
RTVSPropertyOp27
 70
     1
102
RTVSPropertyOp28
 70
     1
102
RTVSPropertyOp29
 70
     1
102
RTVSPropertyOp30
 70
     1
102
RTVSPropertyOp31
 70
     1
102
RTVSPropertyOp32
 70
     1
  0
XRECORD
  5
F42
102
{ACAD_REACTORS
330
F41
102
}
330
F41
100
AcDbXrecord
280
     1
102
RTVSPropertyOp0
 70
     1
102
RTVSPropertyOp1
 70
     1
102
RTVSPropertyOp2
 70
     1
102
RTVSPropertyOp3
 70
     1
102
RTVSPropertyOp4
 70
     1
102
RTVSPropertyOp5
 70
     1
102
RTVSPropertyOp6
 70
     1
102
RTVSPropertyOp7
 70
     1
102
RTVSPropertyOp8
 70
     1
102
RTVSPropertyOp9
 70
     1
102
RTVSPropertyOp10
 70
     1
102
RTVSPropertyOp11
 70
     1
102
RTVSPropertyOp12
 70
     1
102
RTVSPropertyOp13
 70
     1
102
RTVSPropertyOp14
 70
     1
102
RTVSPropertyOp15
 70
     1
102
RTVSPropertyOp16
 70
     1
102
RTVSPropertyOp17
 70
     1
102
RTVSPropertyOp18
 70
     1
102
RTVSPropertyOp19
 70
     1
102
RTVSPropertyOp20
 70
     1
102
RTVSPropertyOp21
 70
     1
102
RTVSPropertyOp22
 70
     1
102
RTVSPropertyOp23
 70
     1
102
RTVSPropertyOp24
 70
     1
102
RTVSPropertyOp25
 70
     1
102
RTVSPropertyOp26
 70
     1
102
RTVSPropertyOp27
 70
     1
102
RTVSPropertyOp28
 70
     1
102
RTVSPropertyOp29
 70
     1
102
RTVSPropertyOp30
 70
     1
102
RTVSPropertyOp31
 70
     1
102
RTVSPropertyOp32
 70
     1
  0
XRECORD
  5
F34
102
{ACAD_REACTORS
330
F33
102
}
330
F33
100
AcDbXrecord
280
     1
102
RTVSPropertyOp0
 70
     1
102
RTVSPropertyOp1
 70
     1
102
RTVSPropertyOp2
 70
     1
102
RTVSPropertyOp3
 70
     1
102
RTVSPropertyOp4
 70
     1
102
RTVSPropertyOp5
 70
     1
102
RTVSPropertyOp6
 70
     1
102
RTVSPropertyOp7
 70
     1
102
RTVSPropertyOp8
 70
     1
102
RTVSPropertyOp9
 70
     1
102
RTVSPropertyOp10
 70
     1
102
RTVSPropertyOp11
 70
     1
102
RTVSPropertyOp12
 70
     1
102
RTVSPropertyOp13
 70
     1
102
RTVSPropertyOp14
 70
     1
102
RTVSPropertyOp15
 70
     1
102
RTVSPropertyOp16
 70
     1
102
RTVSPropertyOp17
 70
     1
102
RTVSPropertyOp18
 70
     1
102
RTVSPropertyOp19
 70
     1
102
RTVSPropertyOp20
 70
     1
102
RTVSPropertyOp21
 70
     1
102
RTVSPropertyOp22
 70
     1
102
RTVSPropertyOp23
 70
     1
102
RTVSPropertyOp24
 70
     1
102
RTVSPropertyOp25
 70
     1
102
RTVSPropertyOp26
 70
     1
102
RTVSPropertyOp27
 70
     1
102
RTVSPropertyOp28
 70
     1
102
RTVSPropertyOp29
 70
     1
102
RTVSPropertyOp30
 70
     1
102
RTVSPropertyOp31
 70
     1
102
RTVSPropertyOp32
 70
     1
  0
XRECORD
  5
F38
102
{ACAD_REACTORS
330
F37
102
}
330
F37
100
AcDbXrecord
280
     1
102
RTVSPropertyOp0
 70
     1
102
RTVSPropertyOp1
 70
     1
102
RTVSPropertyOp2
 70
     1
102
RTVSPropertyOp3
 70
     1
102
RTVSPropertyOp4
 70
     1
102
RTVSPropertyOp5
 70
     1
102
RTVSPropertyOp6
 70
     1
102
RTVSPropertyOp7
 70
     1
102
RTVSPropertyOp8
 70
     1
102
RTVSPropertyOp9
 70
     1
102
RTVSPropertyOp10
 70
     1
102
RTVSPropertyOp11
 70
     1
102
RTVSPropertyOp12
 70
     1
102
RTVSPropertyOp13
 70
     1
102
RTVSPropertyOp14
 70
     1
102
RTVSPropertyOp15
 70
     1
102
RTVSPropertyOp16
 70
     1
102
RTVSPropertyOp17
 70
     1
102
RTVSPropertyOp18
 70
     1
102
RTVSPropertyOp19
 70
     1
102
RTVSPropertyOp20
 70
     1
102
RTVSPropertyOp21
 70
     1
102
RTVSPropertyOp22
 70
     1
102
RTVSPropertyOp23
 70
     1
102
RTVSPropertyOp24
 70
     1
102
RTVSPropertyOp25
 70
     1
102
RTVSPropertyOp26
 70
     1
102
RTVSPropertyOp27
 70
     1
102
RTVSPropertyOp28
 70
     1
102
RTVSPropertyOp29
 70
     1
102
RTVSPropertyOp30
 70
     1
102
RTVSPropertyOp31
 70
     1
102
RTVSPropertyOp32
 70
     1
  0
XRECORD
  5
F52
102
{ACAD_REACTORS
330
F51
102
}
330
F51
100
AcDbXrecord
280
     1
102
RTVSPropertyOp0
 70
     0
102
RTVSPropertyOp1
 70
     0
102
RTVSPropertyOp2
 70
     0
102
RTVSPropertyOp3
 70
     0
102
RTVSPropertyOp4
 70
     0
102
RTVSPropertyOp5
 70
     0
102
RTVSPropertyOp6
 70
     0
102
RTVSPropertyOp7
 70
     0
102
RTVSPropertyOp8
 70
     0
102
RTVSPropertyOp9
 70
     0
102
RTVSPropertyOp10
 70
     0
102
RTVSPropertyOp11
 70
     0
102
RTVSPropertyOp12
 70
     0
102
RTVSPropertyOp13
 70
     0
102
RTVSPropertyOp14
 70
     2
102
RTVSPropertyOp15
 70
     0
102
RTVSPropertyOp16
 70
     0
102
RTVSPropertyOp17
 70
     0
102
RTVSPropertyOp18
 70
     0
102
RTVSPropertyOp19
 70
     0
102
RTVSPropertyOp20
 70
     0
102
RTVSPropertyOp21
 70
     0
102
RTVSPropertyOp22
 70
     0
102
RTVSPropertyOp23
 70
     0
102
RTVSPropertyOp24
 70
     0
102
RTVSPropertyOp25
 70
     0
102
RTVSPropertyOp26
 70
     0
102
RTVSPropertyOp27
 70
     0
102
RTVSPropertyOp28
 70
     1
102
RTVSPropertyOp29
 70
     1
102
RTVSPropertyOp30
 70
     1
102
RTVSPropertyOp31
 70
     1
102
RTVSPropertyOp32
 70
     1
  0
XRECORD
  5
F40
102
{ACAD_REACTORS
330
F3F
102
}
330
F3F
100
AcDbXrecord
280
     1
102
RTVSPropertyOp0
 70
     1
102
RTVSPropertyOp1
 70
     1
102
RTVSPropertyOp2
 70
     1
102
RTVSPropertyOp3
 70
     1
102
RTVSPropertyOp4
 70
     1
102
RTVSPropertyOp5
 70
     1
102
RTVSPropertyOp6
 70
     1
102
RTVSPropertyOp7
 70
     1
102
RTVSPropertyOp8
 70
     1
102
RTVSPropertyOp9
 70
     1
102
RTVSPropertyOp10
 70
     1
102
RTVSPropertyOp11
 70
     1
102
RTVSPropertyOp12
 70
     1
102
RTVSPropertyOp13
 70
     1
102
RTVSPropertyOp14
 70
     1
102
RTVSPropertyOp15
 70
     1
102
RTVSPropertyOp16
 70
     1
102
RTVSPropertyOp17
 70
     1
102
RTVSPropertyOp18
 70
     1
102
RTVSPropertyOp19
 70
     1
102
RTVSPropertyOp20
 70
     1
102
RTVSPropertyOp21
 70
     1
102
RTVSPropertyOp22
 70
     1
102
RTVSPropertyOp23
 70
     1
102
RTVSPropertyOp24
 70
     1
102
RTVSPropertyOp25
 70
     1
102
RTVSPropertyOp26
 70
     1
102
RTVSPropertyOp27
 70
     1
102
RTVSPropertyOp28
 70
     1
102
RTVSPropertyOp29
 70
     1
102
RTVSPropertyOp30
 70
     1
102
RTVSPropertyOp31
 70
     1
102
RTVSPropertyOp32
 70
     1
  0
XRECORD
  5
F24
102
{ACAD_REACTORS
330
F23
102
}
330
F23
100
AcDbXrecord
280
     1
102
RTVSPropertyOp0
 70
     1
102
RTVSPropertyOp1
 70
     1
102
RTVSPropertyOp2
 70
     1
102
RTVSPropertyOp3
 70
     1
102
RTVSPropertyOp4
 70
     1
102
RTVSPropertyOp5
 70
     1
102
RTVSPropertyOp6
 70
     1
102
RTVSPropertyOp7
 70
     1
102
RTVSPropertyOp8
 70
     1
102
RTVSPropertyOp9
 70
     1
102
RTVSPropertyOp10
 70
     1
102
RTVSPropertyOp11
 70
     1
102
RTVSPropertyOp12
 70
     1
102
RTVSPropertyOp13
 70
     1
102
RTVSPropertyOp14
 70
     1
102
RTVSPropertyOp15
 70
     1
102
RTVSPropertyOp16
 70
     1
102
RTVSPropertyOp17
 70
     1
102
RTVSPropertyOp18
 70
     1
102
RTVSPropertyOp19
 70
     1
102
RTVSPropertyOp20
 70
     1
102
RTVSPropertyOp21
 70
     1
102
RTVSPropertyOp22
 70
     1
102
RTVSPropertyOp23
 70
     1
102
RTVSPropertyOp24
 70
     1
102
RTVSPropertyOp25
 70
     1
102
RTVSPropertyOp26
 70
     1
102
RTVSPropertyOp27
 70
     1
102
RTVSPropertyOp28
 70
     1
102
RTVSPropertyOp29
 70
     1
102
RTVSPropertyOp30
 70
     1
102
RTVSPropertyOp31
 70
     1
102
RTVSPropertyOp32
 70
     1
  0
XRECORD
  5
F26
102
{ACAD_REACTORS
330
F25
102
}
330
F25
100
AcDbXrecord
280
     1
102
RTVSPropertyOp0
 70
     1
102
RTVSPropertyOp1
 70
     1
102
RTVSPropertyOp2
 70
     1
102
RTVSPropertyOp3
 70
     1
102
RTVSPropertyOp4
 70
     1
102
RTVSPropertyOp5
 70
     1
102
RTVSPropertyOp6
 70
     1
102
RTVSPropertyOp7
 70
     1
102
RTVSPropertyOp8
 70
     1
102
RTVSPropertyOp9
 70
     1
102
RTVSPropertyOp10
 70
     1
102
RTVSPropertyOp11
 70
     1
102
RTVSPropertyOp12
 70
     1
102
RTVSPropertyOp13
 70
     1
102
RTVSPropertyOp14
 70
     1
102
RTVSPropertyOp15
 70
     1
102
RTVSPropertyOp16
 70
     1
102
RTVSPropertyOp17
 70
     1
102
RTVSPropertyOp18
 70
     1
102
RTVSPropertyOp19
 70
     1
102
RTVSPropertyOp20
 70
     1
102
RTVSPropertyOp21
 70
     1
102
RTVSPropertyOp22
 70
     1
102
RTVSPropertyOp23
 70
     1
102
RTVSPropertyOp24
 70
     1
102
RTVSPropertyOp25
 70
     1
102
RTVSPropertyOp26
 70
     1
102
RTVSPropertyOp27
 70
     1
102
RTVSPropertyOp28
 70
     1
102
RTVSPropertyOp29
 70
     1
102
RTVSPropertyOp30
 70
     1
102
RTVSPropertyOp31
 70
     1
102
RTVSPropertyOp32
 70
     1
  0
XRECORD
  5
F28
102
{ACAD_REACTORS
330
F27
102
}
330
F27
100
AcDbXrecord
280
     1
102
RTVSPropertyOp0
 70
     1
102
RTVSPropertyOp1
 70
     1
102
RTVSPropertyOp2
 70
     1
102
RTVSPropertyOp3
 70
     1
102
RTVSPropertyOp4
 70
     1
102
RTVSPropertyOp5
 70
     1
102
RTVSPropertyOp6
 70
     1
102
RTVSPropertyOp7
 70
     1
102
RTVSPropertyOp8
 70
     1
102
RTVSPropertyOp9
 70
     1
102
RTVSPropertyOp10
 70
     1
102
RTVSPropertyOp11
 70
     1
102
RTVSPropertyOp12
 70
     1
102
RTVSPropertyOp13
 70
     1
102
RTVSPropertyOp14
 70
     1
102
RTVSPropertyOp15
 70
     1
102
RTVSPropertyOp16
 70
     1
102
RTVSPropertyOp17
 70
     1
102
RTVSPropertyOp18
 70
     1
102
RTVSPropertyOp19
 70
     1
102
RTVSPropertyOp20
 70
     1
102
RTVSPropertyOp21
 70
     1
102
RTVSPropertyOp22
 70
     1
102
RTVSPropertyOp23
 70
     1
102
RTVSPropertyOp24
 70
     1
102
RTVSPropertyOp25
 70
     1
102
RTVSPropertyOp26
 70
     1
102
RTVSPropertyOp27
 70
     1
102
RTVSPropertyOp28
 70
     1
102
RTVSPropertyOp29
 70
     1
102
RTVSPropertyOp30
 70
     1
102
RTVSPropertyOp31
 70
     1
102
RTVSPropertyOp32
 70
     1
  0
XRECORD
  5
F2A
102
{ACAD_REACTORS
330
F29
102
}
330
F29
100
AcDbXrecord
280
     1
102
RTVSPropertyOp0
 70
     1
102
RTVSPropertyOp1
 70
     1
102
RTVSPropertyOp2
 70
     1
102
RTVSPropertyOp3
 70
     1
102
RTVSPropertyOp4
 70
     1
102
RTVSPropertyOp5
 70
     1
102
RTVSPropertyOp6
 70
     1
102
RTVSPropertyOp7
 70
     1
102
RTVSPropertyOp8
 70
     1
102
RTVSPropertyOp9
 70
     1
102
RTVSPropertyOp10
 70
     1
102
RTVSPropertyOp11
 70
     1
102
RTVSPropertyOp12
 70
     1
102
RTVSPropertyOp13
 70
     1
102
RTVSPropertyOp14
 70
     1
102
RTVSPropertyOp15
 70
     1
102
RTVSPropertyOp16
 70
     1
102
RTVSPropertyOp17
 70
     1
102
RTVSPropertyOp18
 70
     1
102
RTVSPropertyOp19
 70
     1
102
RTVSPropertyOp20
 70
     1
102
RTVSPropertyOp21
 70
     1
102
RTVSPropertyOp22
 70
     1
102
RTVSPropertyOp23
 70
     1
102
RTVSPropertyOp24
 70
     1
102
RTVSPropertyOp25
 70
     1
102
RTVSPropertyOp26
 70
     1
102
RTVSPropertyOp27
 70
     1
102
RTVSPropertyOp28
 70
     1
102
RTVSPropertyOp29
 70
     1
102
RTVSPropertyOp30
 70
     1
102
RTVSPropertyOp31
 70
     1
102
RTVSPropertyOp32
 70
     1
  0
XRECORD
  5
F32
102
{ACAD_REACTORS
330
F31
102
}
330
F31
100
AcDbXrecord
280
     1
102
RTVSPropertyOp0
 70
     1
102
RTVSPropertyOp1
 70
     1
102
RTVSPropertyOp2
 70
     1
102
RTVSPropertyOp3
 70
     1
102
RTVSPropertyOp4
 70
     1
102
RTVSPropertyOp5
 70
     1
102
RTVSPropertyOp6
 70
     1
102
RTVSPropertyOp7
 70
     1
102
RTVSPropertyOp8
 70
     1
102
RTVSPropertyOp9
 70
     1
102
RTVSPropertyOp10
 70
     1
102
RTVSPropertyOp11
 70
     1
102
RTVSPropertyOp12
 70
     1
102
RTVSPropertyOp13
 70
     1
102
RTVSPropertyOp14
 70
     1
102
RTVSPropertyOp15
 70
     1
102
RTVSPropertyOp16
 70
     1
102
RTVSPropertyOp17
 70
     1
102
RTVSPropertyOp18
 70
     1
102
RTVSPropertyOp19
 70
     1
102
RTVSPropertyOp20
 70
     1
102
RTVSPropertyOp21
 70
     1
102
RTVSPropertyOp22
 70
     1
102
RTVSPropertyOp23
 70
     1
102
RTVSPropertyOp24
 70
     1
102
RTVSPropertyOp25
 70
     1
102
RTVSPropertyOp26
 70
     1
102
RTVSPropertyOp27
 70
     1
102
RTVSPropertyOp28
 70
     1
102
RTVSPropertyOp29
 70
     1
102
RTVSPropertyOp30
 70
     1
102
RTVSPropertyOp31
 70
     1
102
RTVSPropertyOp32
 70
     1
  0
XRECORD
  5
F4E
102
{ACAD_REACTORS
330
F4D
102
}
330
F4D
100
AcDbXrecord
280
     1
102
RTVSPropertyOp0
 70
     0
102
RTVSPropertyOp1
 70
     0
102
RTVSPropertyOp2
 70
     0
102
RTVSPropertyOp3
 70
     0
102
RTVSPropertyOp4
 70
     0
102
RTVSPropertyOp5
 70
     0
102
RTVSPropertyOp6
 70
     0
102
RTVSPropertyOp7
 70
     0
102
RTVSPropertyOp8
 70
     0
102
RTVSPropertyOp9
 70
     0
102
RTVSPropertyOp10
 70
     0
102
RTVSPropertyOp11
 70
     0
102
RTVSPropertyOp12
 70
     0
102
RTVSPropertyOp13
 70
     0
102
RTVSPropertyOp14
 70
     2
102
RTVSPropertyOp15
 70
     0
102
RTVSPropertyOp16
 70
     0
102
RTVSPropertyOp17
 70
     0
102
RTVSPropertyOp18
 70
     0
102
RTVSPropertyOp19
 70
     0
102
RTVSPropertyOp20
 70
     0
102
RTVSPropertyOp21
 70
     0
102
RTVSPropertyOp22
 70
     0
102
RTVSPropertyOp23
 70
     0
102
RTVSPropertyOp24
 70
     0
102
RTVSPropertyOp25
 70
     0
102
RTVSPropertyOp26
 70
     0
102
RTVSPropertyOp27
 70
     0
102
RTVSPropertyOp28
 70
     1
102
RTVSPropertyOp29
 70
     1
102
RTVSPropertyOp30
 70
     1
102
RTVSPropertyOp31
 70
     1
102
RTVSPropertyOp32
 70
     1
  0
XRECORD
  5
F3E
102
{ACAD_REACTORS
330
F3D
102
}
330
F3D
100
AcDbXrecord
280
     1
102
RTVSPropertyOp0
 70
     1
102
RTVSPropertyOp1
 70
     1
102
RTVSPropertyOp2
 70
     1
102
RTVSPropertyOp3
 70
     1
102
RTVSPropertyOp4
 70
     1
102
RTVSPropertyOp5
 70
     1
102
RTVSPropertyOp6
 70
     1
102
RTVSPropertyOp7
 70
     1
102
RTVSPropertyOp8
 70
     1
102
RTVSPropertyOp9
 70
     1
102
RTVSPropertyOp10
 70
     1
102
RTVSPropertyOp11
 70
     1
102
RTVSPropertyOp12
 70
     1
102
RTVSPropertyOp13
 70
     1
102
RTVSPropertyOp14
 70
     1
102
RTVSPropertyOp15
 70
     1
102
RTVSPropertyOp16
 70
     1
102
RTVSPropertyOp17
 70
     1
102
RTVSPropertyOp18
 70
     1
102
RTVSPropertyOp19
 70
     1
102
RTVSPropertyOp20
 70
     1
102
RTVSPropertyOp21
 70
     1
102
RTVSPropertyOp22
 70
     1
102
RTVSPropertyOp23
 70
     1
102
RTVSPropertyOp24
 70
     1
102
RTVSPropertyOp25
 70
     1
102
RTVSPropertyOp26
 70
     1
102
RTVSPropertyOp27
 70
     1
102
RTVSPropertyOp28
 70
     1
102
RTVSPropertyOp29
 70
     1
102
RTVSPropertyOp30
 70
     1
102
RTVSPropertyOp31
 70
     1
102
RTVSPropertyOp32
 70
     1
  0
XRECORD
  5
F50
102
{ACAD_REACTORS
330
F4F
102
}
330
F4F
100
AcDbXrecord
280
     1
102
RTVSPropertyOp0
 70
     0
102
RTVSPropertyOp1
 70
     0
102
RTVSPropertyOp2
 70
     0
102
RTVSPropertyOp3
 70
     0
102
RTVSPropertyOp4
 70
     0
102
RTVSPropertyOp5
 70
     0
102
RTVSPropertyOp6
 70
     0
102
RTVSPropertyOp7
 70
     0
102
RTVSPropertyOp8
 70
     0
102
RTVSPropertyOp9
 70
     0
102
RTVSPropertyOp10
 70
     0
102
RTVSPropertyOp11
 70
     0
102
RTVSPropertyOp12
 70
     0
102
RTVSPropertyOp13
 70
     0
102
RTVSPropertyOp14
 70
     2
102
RTVSPropertyOp15
 70
     0
102
RTVSPropertyOp16
 70
     0
102
RTVSPropertyOp17
 70
     0
102
RTVSPropertyOp18
 70
     0
102
RTVSPropertyOp19
 70
     0
102
RTVSPropertyOp20
 70
     0
102
RTVSPropertyOp21
 70
     0
102
RTVSPropertyOp22
 70
     0
102
RTVSPropertyOp23
 70
     0
102
RTVSPropertyOp24
 70
     0
102
RTVSPropertyOp25
 70
     0
102
RTVSPropertyOp26
 70
     0
102
RTVSPropertyOp27
 70
     0
102
RTVSPropertyOp28
 70
     1
102
RTVSPropertyOp29
 70
     1
102
RTVSPropertyOp30
 70
     1
102
RTVSPropertyOp31
 70
     1
102
RTVSPropertyOp32
 70
     1
  0
XRECORD
  5
F36
102
{ACAD_REACTORS
330
F35
102
}
330
F35
100
AcDbXrecord
280
     1
102
RTVSPropertyOp0
 70
     1
102
RTVSPropertyOp1
 70
     1
102
RTVSPropertyOp2
 70
     1
102
RTVSPropertyOp3
 70
     1
102
RTVSPropertyOp4
 70
     1
102
RTVSPropertyOp5
 70
     1
102
RTVSPropertyOp6
 70
     1
102
RTVSPropertyOp7
 70
     1
102
RTVSPropertyOp8
 70
     1
102
RTVSPropertyOp9
 70
     1
102
RTVSPropertyOp10
 70
     1
102
RTVSPropertyOp11
 70
     1
102
RTVSPropertyOp12
 70
     1
102
RTVSPropertyOp13
 70
     1
102
RTVSPropertyOp14
 70
     1
102
RTVSPropertyOp15
 70
     1
102
RTVSPropertyOp16
 70
     1
102
RTVSPropertyOp17
 70
     1
102
RTVSPropertyOp18
 70
     1
102
RTVSPropertyOp19
 70
     1
102
RTVSPropertyOp20
 70
     1
102
RTVSPropertyOp21
 70
     1
102
RTVSPropertyOp22
 70
     1
102
RTVSPropertyOp23
 70
     1
102
RTVSPropertyOp24
 70
     1
102
RTVSPropertyOp25
 70
     1
102
RTVSPropertyOp26
 70
     1
102
RTVSPropertyOp27
 70
     1
102
RTVSPropertyOp28
 70
     1
102
RTVSPropertyOp29
 70
     1
102
RTVSPropertyOp30
 70
     1
102
RTVSPropertyOp31
 70
     1
102
RTVSPropertyOp32
 70
     1
  0
XRECORD
  5
F4C
102
{ACAD_REACTORS
330
F4B
102
}
330
F4B
100
AcDbXrecord
280
     1
102
RTVSPropertyOp0
 70
     1
102
RTVSPropertyOp1
 70
     1
102
RTVSPropertyOp2
 70
     1
102
RTVSPropertyOp3
 70
     1
102
RTVSPropertyOp4
 70
     1
102
RTVSPropertyOp5
 70
     1
102
RTVSPropertyOp6
 70
     1
102
RTVSPropertyOp7
 70
     1
102
RTVSPropertyOp8
 70
     1
102
RTVSPropertyOp9
 70
     1
102
RTVSPropertyOp10
 70
     1
102
RTVSPropertyOp11
 70
     1
102
RTVSPropertyOp12
 70
     1
102
RTVSPropertyOp13
 70
     1
102
RTVSPropertyOp14
 70
     1
102
RTVSPropertyOp15
 70
     1
102
RTVSPropertyOp16
 70
     1
102
RTVSPropertyOp17
 70
     1
102
RTVSPropertyOp18
 70
     1
102
RTVSPropertyOp19
 70
     1
102
RTVSPropertyOp20
 70
     1
102
RTVSPropertyOp21
 70
     1
102
RTVSPropertyOp22
 70
     1
102
RTVSPropertyOp23
 70
     1
102
RTVSPropertyOp24
 70
     1
102
RTVSPropertyOp25
 70
     1
102
RTVSPropertyOp26
 70
     1
102
RTVSPropertyOp27
 70
     1
102
RTVSPropertyOp28
 70
     1
102
RTVSPropertyOp29
 70
     1
102
RTVSPropertyOp30
 70
     1
102
RTVSPropertyOp31
 70
     1
102
RTVSPropertyOp32
 70
     1
  0
XRECORD
  5
F4A
102
{ACAD_REACTORS
330
F49
102
}
330
F49
100
AcDbXrecord
280
     1
102
RTVSPropertyOp0
 70
     1
102
RTVSPropertyOp1
 70
     1
102
RTVSPropertyOp2
 70
     1
102
RTVSPropertyOp3
 70
     1
102
RTVSPropertyOp4
 70
     1
102
RTVSPropertyOp5
 70
     1
102
RTVSPropertyOp6
 70
     1
102
RTVSPropertyOp7
 70
     1
102
RTVSPropertyOp8
 70
     1
102
RTVSPropertyOp9
 70
     1
102
RTVSPropertyOp10
 70
     1
102
RTVSPropertyOp11
 70
     1
102
RTVSPropertyOp12
 70
     1
102
RTVSPropertyOp13
 70
     1
102
RTVSPropertyOp14
 70
     1
102
RTVSPropertyOp15
 70
     1
102
RTVSPropertyOp16
 70
     1
102
RTVSPropertyOp17
 70
     1
102
RTVSPropertyOp18
 70
     1
102
RTVSPropertyOp19
 70
     1
102
RTVSPropertyOp20
 70
     1
102
RTVSPropertyOp21
 70
     1
102
RTVSPropertyOp22
 70
     1
102
RTVSPropertyOp23
 70
     1
102
RTVSPropertyOp24
 70
     1
102
RTVSPropertyOp25
 70
     1
102
RTVSPropertyOp26
 70
     1
102
RTVSPropertyOp27
 70
     1
102
RTVSPropertyOp28
 70
     1
102
RTVSPropertyOp29
 70
     1
102
RTVSPropertyOp30
 70
     1
102
RTVSPropertyOp31
 70
     1
102
RTVSPropertyOp32
 70
     1
  0
XRECORD
  5
F44
102
{ACAD_REACTORS
330
F43
102
}
330
F43
100
AcDbXrecord
280
     1
102
RTVSPropertyOp0
 70
     1
102
RTVSPropertyOp1
 70
     1
102
RTVSPropertyOp2
 70
     1
102
RTVSPropertyOp3
 70
     1
102
RTVSPropertyOp4
 70
     1
102
RTVSPropertyOp5
 70
     1
102
RTVSPropertyOp6
 70
     1
102
RTVSPropertyOp7
 70
     1
102
RTVSPropertyOp8
 70
     1
102
RTVSPropertyOp9
 70
     1
102
RTVSPropertyOp10
 70
     1
102
RTVSPropertyOp11
 70
     1
102
RTVSPropertyOp12
 70
     1
102
RTVSPropertyOp13
 70
     1
102
RTVSPropertyOp14
 70
     1
102
RTVSPropertyOp15
 70
     1
102
RTVSPropertyOp16
 70
     1
102
RTVSPropertyOp17
 70
     1
102
RTVSPropertyOp18
 70
     1
102
RTVSPropertyOp19
 70
     1
102
RTVSPropertyOp20
 70
     1
102
RTVSPropertyOp21
 70
     1
102
RTVSPropertyOp22
 70
     1
102
RTVSPropertyOp23
 70
     1
102
RTVSPropertyOp24
 70
     1
102
RTVSPropertyOp25
 70
     1
102
RTVSPropertyOp26
 70
     1
102
RTVSPropertyOp27
 70
     1
102
RTVSPropertyOp28
 70
     1
102
RTVSPropertyOp29
 70
     1
102
RTVSPropertyOp30
 70
     1
102
RTVSPropertyOp31
 70
     1
102
RTVSPropertyOp32
 70
     1
  0
XRECORD
  5
F46
102
{ACAD_REACTORS
330
F45
102
}
330
F45
100
AcDbXrecord
280
     1
102
RTVSPropertyOp0
 70
     1
102
RTVSPropertyOp1
 70
     1
102
RTVSPropertyOp2
 70
     1
102
RTVSPropertyOp3
 70
     1
102
RTVSPropertyOp4
 70
     1
102
RTVSPropertyOp5
 70
     1
102
RTVSPropertyOp6
 70
     1
102
RTVSPropertyOp7
 70
     1
102
RTVSPropertyOp8
 70
     1
102
RTVSPropertyOp9
 70
     1
102
RTVSPropertyOp10
 70
     1
102
RTVSPropertyOp11
 70
     1
102
RTVSPropertyOp12
 70
     1
102
RTVSPropertyOp13
 70
     1
102
RTVSPropertyOp14
 70
     1
102
RTVSPropertyOp15
 70
     1
102
RTVSPropertyOp16
 70
     1
102
RTVSPropertyOp17
 70
     1
102
RTVSPropertyOp18
 70
     1
102
RTVSPropertyOp19
 70
     1
102
RTVSPropertyOp20
 70
     1
102
RTVSPropertyOp21
 70
     1
102
RTVSPropertyOp22
 70
     1
102
RTVSPropertyOp23
 70
     1
102
RTVSPropertyOp24
 70
     1
102
RTVSPropertyOp25
 70
     1
102
RTVSPropertyOp26
 70
     1
102
RTVSPropertyOp27
 70
     1
102
RTVSPropertyOp28
 70
     1
102
RTVSPropertyOp29
 70
     1
102
RTVSPropertyOp30
 70
     1
102
RTVSPropertyOp31
 70
     1
102
RTVSPropertyOp32
 70
     1
  0
XRECORD
  5
F3C
102
{ACAD_REACTORS
330
F3B
102
}
330
F3B
100
AcDbXrecord
280
     1
102
RTVSPropertyOp0
 70
     1
102
RTVSPropertyOp1
 70
     1
102
RTVSPropertyOp2
 70
     1
102
RTVSPropertyOp3
 70
     1
102
RTVSPropertyOp4
 70
     1
102
RTVSPropertyOp5
 70
     1
102
RTVSPropertyOp6
 70
     1
102
RTVSPropertyOp7
 70
     1
102
RTVSPropertyOp8
 70
     1
102
RTVSPropertyOp9
 70
     1
102
RTVSPropertyOp10
 70
     1
102
RTVSPropertyOp11
 70
     1
102
RTVSPropertyOp12
 70
     1
102
RTVSPropertyOp13
 70
     1
102
RTVSPropertyOp14
 70
     1
102
RTVSPropertyOp15
 70
     1
102
RTVSPropertyOp16
 70
     1
102
RTVSPropertyOp17
 70
     1
102
RTVSPropertyOp18
 70
     1
102
RTVSPropertyOp19
 70
     1
102
RTVSPropertyOp20
 70
     1
102
RTVSPropertyOp21
 70
     1
102
RTVSPropertyOp22
 70
     1
102
RTVSPropertyOp23
 70
     1
102
RTVSPropertyOp24
 70
     1
102
RTVSPropertyOp25
 70
     1
102
RTVSPropertyOp26
 70
     1
102
RTVSPropertyOp27
 70
     1
102
RTVSPropertyOp28
 70
     1
102
RTVSPropertyOp29
 70
     1
102
RTVSPropertyOp30
 70
     1
102
RTVSPropertyOp31
 70
     1
102
RTVSPropertyOp32
 70
     1
  0
XRECORD
  5
F30
102
{ACAD_REACTORS
330
F2F
102
}
330
F2F
100
AcDbXrecord
280
     1
102
RTVSPropertyOp0
 70
     1
102
RTVSPropertyOp1
 70
     1
102
RTVSPropertyOp2
 70
     1
102
RTVSPropertyOp3
 70
     1
102
RTVSPropertyOp4
 70
     1
102
RTVSPropertyOp5
 70
     1
102
RTVSPropertyOp6
 70
     1
102
RTVSPropertyOp7
 70
     1
102
RTVSPropertyOp8
 70
     1
102
RTVSPropertyOp9
 70
     1
102
RTVSPropertyOp10
 70
     1
102
RTVSPropertyOp11
 70
     1
102
RTVSPropertyOp12
 70
     1
102
RTVSPropertyOp13
 70
     1
102
RTVSPropertyOp14
 70
     1
102
RTVSPropertyOp15
 70
     1
102
RTVSPropertyOp16
 70
     1
102
RTVSPropertyOp17
 70
     1
102
RTVSPropertyOp18
 70
     1
102
RTVSPropertyOp19
 70
     1
102
RTVSPropertyOp20
 70
     1
102
RTVSPropertyOp21
 70
     1
102
RTVSPropertyOp22
 70
     1
102
RTVSPropertyOp23
 70
     1
102
RTVSPropertyOp24
 70
     1
102
RTVSPropertyOp25
 70
     1
102
RTVSPropertyOp26
 70
     1
102
RTVSPropertyOp27
 70
     1
102
RTVSPropertyOp28
 70
     1
102
RTVSPropertyOp29
 70
     1
102
RTVSPropertyOp30
 70
     1
102
RTVSPropertyOp31
 70
     1
102
RTVSPropertyOp32
 70
     1
  0
XRECORD
  5
F48
102
{ACAD_REACTORS
330
F47
102
}
330
F47
100
AcDbXrecord
280
     1
102
RTVSPropertyOp0
 70
     1
102
RTVSPropertyOp1
 70
     1
102
RTVSPropertyOp2
 70
     1
102
RTVSPropertyOp3
 70
     1
102
RTVSPropertyOp4
 70
     1
102
RTVSPropertyOp5
 70
     1
102
RTVSPropertyOp6
 70
     1
102
RTVSPropertyOp7
 70
     1
102
RTVSPropertyOp8
 70
     1
102
RTVSPropertyOp9
 70
     1
102
RTVSPropertyOp10
 70
     1
102
RTVSPropertyOp11
 70
     1
102
RTVSPropertyOp12
 70
     1
102
RTVSPropertyOp13
 70
     1
102
RTVSPropertyOp14
 70
     1
102
RTVSPropertyOp15
 70
     1
102
RTVSPropertyOp16
 70
     1
102
RTVSPropertyOp17
 70
     1
102
RTVSPropertyOp18
 70
     1
102
RTVSPropertyOp19
 70
     1
102
RTVSPropertyOp20
 70
     1
102
RTVSPropertyOp21
 70
     1
102
RTVSPropertyOp22
 70
     1
102
RTVSPropertyOp23
 70
     1
102
RTVSPropertyOp24
 70
     1
102
RTVSPropertyOp25
 70
     1
102
RTVSPropertyOp26
 70
     1
102
RTVSPropertyOp27
 70
     1
102
RTVSPropertyOp28
 70
     1
102
RTVSPropertyOp29
 70
     1
102
RTVSPropertyOp30
 70
     1
102
RTVSPropertyOp31
 70
     1
102
RTVSPropertyOp32
 70
     1
  0
ENDSEC
  0
EOF
