  0
SECTION
  2
HEADER
  9
$ACADVER
  1
AC1015
  9
$ACADMAINTVER
 70
    18
  9
$DWGCODEPAGE
  3
ANSI_1252
  9
$INSBASE
 10
0.0
 20
0.0
 30
0.0
  9
$EXTMIN
 10
0.0
 20
0.0
 30
0.0
  9
$EXTMAX
 10
153.0
 20
99.0
 30
0.0
  9
$LIMMIN
 10
0.0
 20
0.0
  9
$LIMMAX
 10
153.0
 20
99.0
  9
$ORTHOMODE
 70
     0
  9
$REGENMODE
 70
     1
  9
$FILLMODE
 70
     1
  9
$QTEXTMODE
 70
     0
  9
$MIRRTEXT
 70
     0
  9
$LTSCALE
 40
9.0
  9
$ATTMODE
 70
     1
  9
$TEXTSIZE
 40
0.2
  9
$TRACEWID
 40
0.05
  9
$TEXTSTYLE
  7
Standard
  9
$CLAYER
  8
0
  9
$CELTYPE
  6
ByLayer
  9
$CECOLOR
 62
   256
  9
$CELTSCALE
 40
1.0
  9
$DISPSILH
 70
     0
  9
$DIMSCALE
 40
1.0
  9
$DIMASZ
 40
0.0708661417322835
  9
$DIMEXO
 40
0.0625
  9
$DIMDLI
 40
0.38
  9
$DIMRND
 40
0.0
  9
$DIMDLE
 40
0.0
  9
$DIMEXE
 40
0.18
  9
$DIMTP
 40
0.0
  9
$DIMTM
 40
0.0
  9
$DIMTXT
 40
0.0708661417322835
  9
$DIMCEN
 40
0.09
  9
$DIMTSZ
 40
0.0
  9
$DIMTOL
 70
     0
  9
$DIMLIM
 70
     0
  9
$DIMTIH
 70
     1
  9
$DIMTOH
 70
     1
  9
$DIMSE1
 70
     0
  9
$DIMSE2
 70
     0
  9
$DIMTAD
 70
     0
  9
$DIMZIN
 70
     0
  9
$DIMBLK
  1

  9
$DIMASO
 70
     1
  9
$DIMSHO
 70
     1
  9
$DIMPOST
  1

  9
$DIMAPOST
  1

  9
$DIMALT
 70
     0
  9
$DIMALTD
 70
     2
  9
$DIMALTF
 40
25.4
  9
$DIMLFAC
 40
1.0
  9
$DIMTOFL
 70
     0
  9
$DIMTVP
 40
0.0
  9
$DIMTIX
 70
     0
  9
$DIMSOXD
 70
     0
  9
$DIMSAH
 70
     0
  9
$DIMBLK1
  1

  9
$DIMBLK2
  1

  9
$DIMSTYLE
  2
STANDARD
  9
$DIMCLRD
 70
     0
  9
$DIMCLRE
 70
     0
  9
$DIMCLRT
 70
     0
  9
$DIMTFAC
 40
1.0
  9
$DIMGAP
 40
0.09
  9
$DIMJUST
 70
     0
  9
$DIMSD1
 70
     0
  9
$DIMSD2
 70
     0
  9
$DIMTOLJ
 70
     1
  9
$DIMTZIN
 70
     0
  9
$DIMALTZ
 70
     0
  9
$DIMALTTZ
 70
     0
  9
$DIMUPT
 70
     0
  9
$DIMDEC
 70
     4
  9
$DIMTDEC
 70
     4
  9
$DIMALTU
 70
     2
  9
$DIMALTTD
 70
     2
  9
$DIMTXSTY
  7
Standard
  9
$DIMAUNIT
 70
     0
  9
$DIMADEC
 70
     0
  9
$DIMALTRND
 40
0.0
  9
$DIMAZIN
 70
     0
  9
$DIMDSEP
 70
    46
  9
$DIMATFIT
 70
     3
  9
$DIMFRAC
 70
     0
  9
$DIMLDRBLK
  1

  9
$DIMLUNIT
 70
     2
  9
$DIMLWD
 70
    -2
  9
$DIMLWE
 70
    -2
  9
$DIMTMOVE
 70
     0
  9
$LUNITS
 70
     2
  9
$LUPREC
 70
     4
  9
$SKETCHINC
 40
0.1
  9
$FILLETRAD
 40
0.0
  9
$AUNITS
 70
     0
  9
$AUPREC
 70
     0
  9
$MENU
  1
.
  9
$ELEVATION
 40
0.0
  9
$PELEVATION
 40
0.0
  9
$THICKNESS
 40
0.0
  9
$LIMCHECK
 70
     0
  9
$CHAMFERA
 40
0.0
  9
$CHAMFERB
 40
0.0
  9
$CHAMFERC
 40
0.0
  9
$CHAMFERD
 40
0.0
  9
$SKPOLY
 70
     0
  9
$TDCREATE
 40
2455945.371060220
  9
$TDUCREATE
 40
2455945.621060220
  9
$TDUPDATE
 40
2455945.371060220
  9
$TDUUPDATE
 40
2455945.621060220
  9
$TDINDWG
 40
0.0000381713
  9
$TDUSRTIMER
 40
0.0000381713
  9
$USRTIMER
 70
     1
  9
$ANGBASE
 50
0.0
  9
$ANGDIR
 70
     0
  9
$PDMODE
 70
     0
  9
$PDSIZE
 40
0.0
  9
$PLINEWID
 40
0.0
  9
$SPLFRAME
 70
     0
  9
$SPLINETYPE
 70
     6
  9
$SPLINESEGS
 70
     8
  9
$HANDSEED
  5
FFE
  9
$SURFTAB1
 70
     6
  9
$SURFTAB2
 70
     6
  9
$SURFTYPE
 70
     6
  9
$SURFU
 70
     6
  9
$SURFV
 70
     6
  9
$UCSBASE
  2

  9
$UCSNAME
  2

  9
$UCSORG
 10
0.0
 20
0.0
 30
0.0
  9
$UCSXDIR
 10
1.0
 20
0.0
 30
0.0
  9
$UCSYDIR
 10
0.0
 20
1.0
 30
0.0
  9
$UCSORTHOREF
  2

  9
$UCSORTHOVIEW
 70
     0
  9
$UCSORGTOP
 10
0.0
 20
0.0
 30
0.0
  9
$UCSORGBOTTOM
 10
0.0
 20
0.0
 30
0.0
  9
$UCSORGLEFT
 10
0.0
 20
0.0
 30
0.0
  9
$UCSORGRIGHT
 10
0.0
 20
0.0
 30
0.0
  9
$UCSORGFRONT
 10
0.0
 20
0.0
 30
0.0
  9
$UCSORGBACK
 10
0.0
 20
0.0
 30
0.0
  9
$PUCSBASE
  2

  9
$PUCSNAME
  2

  9
$PUCSORG
 10
0.0
 20
0.0
 30
0.0
  9
$PUCSXDIR
 10
1.0
 20
0.0
 30
0.0
  9
$PUCSYDIR
 10
0.0
 20
1.0
 30
0.0
  9
$PUCSORTHOREF
  2

  9
$PUCSORTHOVIEW
 70
     0
  9
$PUCSORGTOP
 10
0.0
 20
0.0
 30
0.0
  9
$PUCSORGBOTTOM
 10
0.0
 20
0.0
 30
0.0
  9
$PUCSORGLEFT
 10
0.0
 20
0.0
 30
0.0
  9
$PUCSORGRIGHT
 10
0.0
 20
0.0
 30
0.0
  9
$PUCSORGFRONT
 10
0.0
 20
0.0
 30
0.0
  9
$PUCSORGBACK
 10
0.0
 20
0.0
 30
0.0
  9
$USERI1
 70
     0
  9
$USERI2
 70
     0
  9
$USERI3
 70
     0
  9
$USERI4
 70
     0
  9
$USERI5
 70
     0
  9
$USERR1
 40
0.0
  9
$USERR2
 40
0.0
  9
$USERR3
 40
0.0
  9
$USERR4
 40
0.0
  9
$USERR5
 40
0.0
  9
$WORLDVIEW
 70
     1
  9
$SHADEDGE
 70
     3
  9
$SHADEDIF
 70
    70
  9
$TILEMODE
 70
     1
  9
$MAXACTVP
 70
    64
  9
$PINSBASE
 10
0.0
 20
0.0
 30
0.0
  9
$PLIMCHECK
 70
     0
  9
$PEXTMIN
 10
0.0
 20
0.0
 30
0.0
  9
$PEXTMAX
 10
153.0
 20
99.0
 30
0.0
  9
$PLIMMIN
 10
0.0
 20
0.0
  9
$PLIMMAX
 10
153.0
 20
99.0
  9
$UNITMODE
 70
     0
  9
$VISRETAIN
 70
     1
  9
$PLINEGEN
 70
     0
  9
$PSLTSCALE
 70
     1
  9
$TREEDEPTH
 70
  3020
  9
$CMLSTYLE
  2
Standard
  9
$CMLJUST
 70
     0
  9
$CMLSCALE
 40
1.0
  9
$PROXYGRAPHICS
 70
     1
  9
$MEASUREMENT
 70
     0
  9
$CELWEIGHT
370
    -1
  9
$ENDCAPS
280
     0
  9
$JOINSTYLE
280
     0
  9
$LWDISPLAY
290
     0
  9
$INSUNITS
 70
     1
  9
$HYPERLINKBASE
  1

  9
$STYLESHEET
  1

  9
$XEDIT
290
     1
  9
$CEPSNTYPE
380
     0
  9
$PSTYLEMODE
290
     1
  9
$FINGERPRINTGUID
  2
{FC2FDE66-D9C4-4718-A0C8-B6732FE37D08}
  9
$VERSIONGUID
  2
{6B010D39-C0D5-4B7F-995C-2A29EBD678AB}
  9
$EXTNAMES
290
     1
  9
$PSVPSCALE
 40
0.0
  9
$OLESTARTUP
290
     0
  0
ENDSEC
  0
SECTION
  2
CLASSES
  0
CLASS
  1
ACDBDICTIONARYWDFLT
  2
AcDbDictionaryWithDefault
  3
ObjectDBX Classes
 90
        0
280
     0
281
     0
  0
CLASS
  1
MATERIAL
  2
AcDbMaterial
  3
ObjectDBX Classes
 90
     1153
280
     0
281
     0
  0
CLASS
  1
VISUALSTYLE
  2
AcDbVisualStyle
  3
ObjectDBX Classes
 90
     4095
280
     0
281
     0
  0
CLASS
  1
SCALE
  2
AcDbScale
  3
ObjectDBX Classes
 90
     1153
280
     0
281
     0
  0
CLASS
  1
TABLESTYLE
  2
AcDbTableStyle
  3
ObjectDBX Classes
 90
     4095
280
     0
281
     0
  0
CLASS
  1
MLEADERSTYLE
  2
AcDbMLeaderStyle
  3
ACDB_MLEADERSTYLE_CLASS
 90
     4095
280
     0
281
     0
  0
CLASS
  1
DICTIONARYVAR
  2
AcDbDictionaryVar
  3
ObjectDBX Classes
 90
        0
280
     0
281
     0
  0
CLASS
  1
CELLSTYLEMAP
  2
AcDbCellStyleMap
  3
ObjectDBX Classes
 90
     1152
280
     0
281
     0
  0
CLASS
  1
ACDBPLACEHOLDER
  2
AcDbPlaceHolder
  3
ObjectDBX Classes
 90
        0
280
     0
281
     0
  0
CLASS
  1
LAYOUT
  2
AcDbLayout
  3
ObjectDBX Classes
 90
        0
280
     0
281
     0
  0
ENDSEC
  0
SECTION
  2
TABLES
  0
TABLE
  2
VPORT
  5
8
330
0
100
AcDbSymbolTable
 70
     1
  0
VPORT
  5
57
330
8
100
AcDbSymbolTableRecord
100
AcDbViewportTableRecord
  2
*Active
 70
     0
 10
0.0
 20
0.0
 11
1.0
 21
1.0
 12
76.5
 22
49.5
 13
0.0
 23
0.0
 14
1.0
 24
1.0
 15
0.0
 25
0.0
 16
0.0
 26
0.0
 36
1.0
 17
0.0
 27
0.0
 37
0.0
 40
99.0
 41
1.545454545454545
 42
50.0
 43
0.0
 44
0.0
 50
0.0
 51
0.0
 71
     0
 72
   100
 73
     1
 74
     1
 75
     0
 76
     0
 77
     0
 78
     0
281
     0
 65
     1
110
0.0
120
0.0
130
0.0
111
1.0
121
0.0
131
0.0
112
0.0
122
1.0
132
0.0
 79
     0
146
0.0
  0
ENDTAB
  0
TABLE
  2
LTYPE
  5
5
330
0
100
AcDbSymbolTable
 70
    59
  0
LTYPE
  5
5B
330
5
100
AcDbSymbolTableRecord
100
AcDbLinetypeTableRecord
  2
ByBlock
 70
     0
  3

 72
    65
 73
     0
 40
0.0
  0
LTYPE
  5
5C
330
5
100
AcDbSymbolTableRecord
100
AcDbLinetypeTableRecord
  2
ByLayer
 70
     0
  3

 72
    65
 73
     0
 40
0.0
  0
LTYPE
  5
5D
330
5
100
AcDbSymbolTableRecord
100
AcDbLinetypeTableRecord
  2
Continuous
 70
     0
  3
Solid line
 72
    65
 73
     0
 40
0.0
  0
LTYPE
  5
7C
330
5
100
AcDbSymbolTableRecord
100
AcDbLinetypeTableRecord
  2
BY_STANDARD
 70
     0
  3
By Standard ____________    ____    ____   _
 72
    65
 73
     6
 40
1.240299999999999
 49
0.6614
 74
     0
 49
-0.0827
 74
     0
 49
0.1654
 74
     0
 49
-0.0827
 74
     0
 49
0.1654
 74
     0
 49
-0.0827
 74
     0
  0
LTYPE
  5
7D
330
5
100
AcDbSymbolTableRecord
100
AcDbLinetypeTableRecord
  2
CHAIN
 70
     0
  3
Chain ____ _ ____ _ ____ _ ____ _ ____ _ ____
 72
    65
 73
     4
 40
0.7087
 49
0.4724000000000001
 74
     0
 49
-0.0591
 74
     0
 49
0.1181
 74
     0
 49
-0.0591
 74
     0
  0
LTYPE
  5
7E
330
5
100
AcDbSymbolTableRecord
100
AcDbLinetypeTableRecord
  2
DASH_DOT
 70
     0
  3
Dash dot __ . __ . __ . __ . __ . __ . __ . __
 72
    65
 73
     4
 40
0.37
 49
0.24
 74
     0
 49
-0.06
 74
     0
 49
0.01
 74
     0
 49
-0.06
 74
     0
  0
LTYPE
  5
7F
330
5
100
AcDbSymbolTableRecord
100
AcDbLinetypeTableRecord
  2
DOUBLE_DASH_DOT
 70
     0
  3
Double-Dash Dot __ __ . __ __ . __ __ . __ _
 72
    65
 73
     6
 40
0.4398
 49
0.24
 74
     0
 49
-0.06
 74
     0
 49
0.0098
 74
     0
 49
-0.06
 74
     0
 49
0.01
 74
     0
 49
-0.06
 74
     0
  0
LTYPE
  5
80
330
5
100
AcDbSymbolTableRecord
100
AcDbLinetypeTableRecord
  2
DASH_TRIPLE_DOT
 70
     0
  3
Dash Triple-Dot _ . . . _ . . . _ . . . _
 72
    65
 73
     8
 40
0.51
 49
0.24
 74
     0
 49
-0.06
 74
     0
 49
0.01
 74
     0
 49
-0.06
 74
     0
 49
0.01
 74
     0
 49
-0.06
 74
     0
 49
0.01
 74
     0
 49
-0.06
 74
     0
  0
LTYPE
  5
81
330
5
100
AcDbSymbolTableRecord
100
AcDbLinetypeTableRecord
  2
DASHED
 70
     0
  3
Dashed __ __ __ __ __ __ __ __ __ __ __ __ __ _
 72
    65
 73
     2
 40
0.2067
 49
0.1654
 74
     0
 49
-0.0413
 74
     0
  0
LTYPE
  5
82
330
5
100
AcDbSymbolTableRecord
100
AcDbLinetypeTableRecord
  2
DASH_DOUBLE_DOT
 70
     0
  3
Dash Double-Dot __ . . __ . . __ . . __ . .
 72
    65
 73
     6
 40
0.4398
 49
0.24
 74
     0
 49
-0.06
 74
     0
 49
0.0098
 74
     0
 49
-0.06
 74
     0
 49
0.01
 74
     0
 49
-0.06
 74
     0
  0
LTYPE
  5
83
330
5
100
AcDbSymbolTableRecord
100
AcDbLinetypeTableRecord
  2
DASHED_SPACE
 70
     0
  3
Dashed Space __ __ __ __ __ __ __ __ __ __ __ _
 72
    65
 73
     2
 40
0.2067
 49
0.1654
 74
     0
 49
-0.0413
 74
     0
  0
LTYPE
  5
84
330
5
100
AcDbSymbolTableRecord
100
AcDbLinetypeTableRecord
  2
DOTTED
 70
     0
  3
Dotted . . . . . . . . . . . . . . . . . . . . 
 72
    65
 73
     2
 40
0.0482
 49
0.0069
 74
     0
 49
-0.0413
 74
     0
  0
LTYPE
  5
85
330
5
100
AcDbSymbolTableRecord
100
AcDbLinetypeTableRecord
  2
DOUBLE_DASH_CHAIN
 70
     0
  3
Double-Dash Chain ______  __  __  ______  __  _
 72
    65
 73
     6
 40
1.240299999999999
 49
0.6614
 74
     0
 49
-0.0827
 74
     0
 49
0.1654
 74
     0
 49
-0.0827
 74
     0
 49
0.1654
 74
     0
 49
-0.0827
 74
     0
  0
LTYPE
  5
87
330
5
100
AcDbSymbolTableRecord
100
AcDbLinetypeTableRecord
  2
DOUBLE_DASH_DOUBLE_DOT
 70
     0
  3
Double-Dash Double-dot _ _ . . _ _ . . _
 72
    65
 73
     8
 40
0.7400000000000001
 49
0.24
 74
     0
 49
-0.06
 74
     0
 49
0.24
 74
     0
 49
-0.06
 74
     0
 49
0.01
 74
     0
 49
-0.06
 74
     0
 49
0.01
 74
     0
 49
-0.06
 74
     0
  0
LTYPE
  5
88
330
5
100
AcDbSymbolTableRecord
100
AcDbLinetypeTableRecord
  2
DOUBLE_DASH_TRIPLE_DOT
 70
     0
  3
Double Dash Triple Dot __ __ . . . __ __ . .
 72
    65
 73
    10
 40
0.8100000000000001
 49
0.24
 74
     0
 49
-0.06
 74
     0
 49
0.24
 74
     0
 49
-0.06
 74
     0
 49
0.01
 74
     0
 49
-0.06
 74
     0
 49
0.01
 74
     0
 49
-0.06
 74
     0
 49
0.01
 74
     0
 49
-0.06
 74
     0
  0
LTYPE
  5
89
330
5
100
AcDbSymbolTableRecord
100
AcDbLinetypeTableRecord
  2
LONG_DASH_DOTTED
 70
     0
  3
Long Dash Dotted ____ . ____ . ____ . ____ . _
 72
    65
 73
     4
 40
0.3543
 49
0.2362
 74
     0
 49
-0.0295
 74
     0
 49
0.0591
 74
     0
 49
-0.0295
 74
     0
  0
LTYPE
  5
8A
330
5
100
AcDbSymbolTableRecord
100
AcDbLinetypeTableRecord
  2
LONG_DASH_DOUBLE_DOT
 70
     0
  3
Long Dash Double Dot ________  .  .  ________  
 72
    65
 73
     6
 40
0.6799999999999999
 49
0.48
 74
     0
 49
-0.06
 74
     0
 49
0.01
 74
     0
 49
-0.06
 74
     0
 49
0.01
 74
     0
 49
-0.06
 74
     0
  0
LTYPE
  5
8B
330
5
100
AcDbSymbolTableRecord
100
AcDbLinetypeTableRecord
  2
LONG_DASH_TRIPLE_DOT
 70
     0
  3
Long Dash Triple Dot ____ ... ____ ... ____
 72
    65
 73
     8
 40
0.3689
 49
0.2362
 74
     0
 49
-0.0295
 74
     0
 49
0.0049
 74
     0
 49
-0.0295
 74
     0
 49
0.0049
 74
     0
 49
-0.0295
 74
     0
 49
0.0049
 74
     0
 49
-0.0295
 74
     0
  0
LTYPE
  5
8C
330
5
100
AcDbSymbolTableRecord
100
AcDbLinetypeTableRecord
  2
BORDER
 70
     0
  3
Border __ __ . __ __ . __ __ . __ __ . __ __ .
 72
    65
 73
     6
 40
1.75
 49
0.5
 74
     0
 49
-0.25
 74
     0
 49
0.5
 74
     0
 49
-0.25
 74
     0
 49
0.0
 74
     0
 49
-0.25
 74
     0
  0
LTYPE
  5
8D
330
5
100
AcDbSymbolTableRecord
100
AcDbLinetypeTableRecord
  2
BORDER2
 70
     0
  3
Border (.5x) __.__.__.__.__.__.__.__.__.__.__.
 72
    65
 73
     6
 40
0.875
 49
0.25
 74
     0
 49
-0.125
 74
     0
 49
0.25
 74
     0
 49
-0.125
 74
     0
 49
0.0
 74
     0
 49
-0.125
 74
     0
  0
LTYPE
  5
8E
330
5
100
AcDbSymbolTableRecord
100
AcDbLinetypeTableRecord
  2
BORDERX2
 70
     0
  3
Border (2x) ____  ____  .  ____  ____  .  ___
 72
    65
 73
     6
 40
3.5
 49
1.0
 74
     0
 49
-0.5
 74
     0
 49
1.0
 74
     0
 49
-0.5
 74
     0
 49
0.0
 74
     0
 49
-0.5
 74
     0
  0
LTYPE
  5
8F
330
5
100
AcDbSymbolTableRecord
100
AcDbLinetypeTableRecord
  2
CENTER
 70
     0
  3
Center ____ _ ____ _ ____ _ ____ _ ____ _ ____
 72
    65
 73
     4
 40
2.0
 49
1.25
 74
     0
 49
-0.25
 74
     0
 49
0.25
 74
     0
 49
-0.25
 74
     0
  0
LTYPE
  5
90
330
5
100
AcDbSymbolTableRecord
100
AcDbLinetypeTableRecord
  2
CENTER2
 70
     0
  3
Center (.5x) ___ _ ___ _ ___ _ ___ _ ___ _ ___
 72
    65
 73
     4
 40
1.125
 49
0.75
 74
     0
 49
-0.125
 74
     0
 49
0.125
 74
     0
 49
-0.125
 74
     0
  0
LTYPE
  5
91
330
5
100
AcDbSymbolTableRecord
100
AcDbLinetypeTableRecord
  2
CENTERX2
 70
     0
  3
Center (2x) ________  __  ________  __  _____
 72
    65
 73
     4
 40
4.0
 49
2.5
 74
     0
 49
-0.5
 74
     0
 49
0.5
 74
     0
 49
-0.5
 74
     0
  0
LTYPE
  5
92
330
5
100
AcDbSymbolTableRecord
100
AcDbLinetypeTableRecord
  2
DASHDOT2
 70
     0
  3
Dash dot (.5x) _._._._._._._._._._._._._._._.
 72
    65
 73
     4
 40
0.5
 49
0.25
 74
     0
 49
-0.125
 74
     0
 49
0.0
 74
     0
 49
-0.125
 74
     0
  0
LTYPE
  5
93
330
5
100
AcDbSymbolTableRecord
100
AcDbLinetypeTableRecord
  2
DASHDOTX2
 70
     0
  3
Dash dot (2x) ____  .  ____  .  ____  .  ___
 72
    65
 73
     4
 40
2.0
 49
1.0
 74
     0
 49
-0.5
 74
     0
 49
0.0
 74
     0
 49
-0.5
 74
     0
  0
LTYPE
  5
95
330
5
100
AcDbSymbolTableRecord
100
AcDbLinetypeTableRecord
  2
DASHED2
 70
     0
  3
Dashed (.5x) _ _ _ _ _ _ _ _ _ _ _ _ _ _ _ _ _
 72
    65
 73
     2
 40
0.375
 49
0.25
 74
     0
 49
-0.125
 74
     0
  0
LTYPE
  5
96
330
5
100
AcDbSymbolTableRecord
100
AcDbLinetypeTableRecord
  2
DASHEDX2
 70
     0
  3
Dashed (2x) ____  ____  ____  ____  ____  ___
 72
    65
 73
     2
 40
1.5
 49
1.0
 74
     0
 49
-0.5
 74
     0
  0
LTYPE
  5
97
330
5
100
AcDbSymbolTableRecord
100
AcDbLinetypeTableRecord
  2
DIVIDE
 70
     0
  3
Divide ____ . . ____ . . ____ . . ____ . . ____
 72
    65
 73
     6
 40
1.25
 49
0.5
 74
     0
 49
-0.25
 74
     0
 49
0.0
 74
     0
 49
-0.25
 74
     0
 49
0.0
 74
     0
 49
-0.25
 74
     0
  0
LTYPE
  5
98
330
5
100
AcDbSymbolTableRecord
100
AcDbLinetypeTableRecord
  2
DIVIDE2
 70
     0
  3
Divide (.5x) __..__..__..__..__..__..__..__.._
 72
    65
 73
     6
 40
0.625
 49
0.25
 74
     0
 49
-0.125
 74
     0
 49
0.0
 74
     0
 49
-0.125
 74
     0
 49
0.0
 74
     0
 49
-0.125
 74
     0
  0
LTYPE
  5
99
330
5
100
AcDbSymbolTableRecord
100
AcDbLinetypeTableRecord
  2
DIVIDEX2
 70
     0
  3
Divide (2x) ________  .  .  ________  .  .  _
 72
    65
 73
     6
 40
2.5
 49
1.0
 74
     0
 49
-0.5
 74
     0
 49
0.0
 74
     0
 49
-0.5
 74
     0
 49
0.0
 74
     0
 49
-0.5
 74
     0
  0
LTYPE
  5
9A
330
5
100
AcDbSymbolTableRecord
100
AcDbLinetypeTableRecord
  2
DOT
 70
     0
  3
Dot . . . . . . . . . . . . . . . . . . . . . .
 72
    65
 73
     2
 40
0.25
 49
0.0
 74
     0
 49
-0.25
 74
     0
  0
LTYPE
  5
9B
330
5
100
AcDbSymbolTableRecord
100
AcDbLinetypeTableRecord
  2
DOT2
 70
     0
  3
Dot (.5x) .....................................
 72
    65
 73
     2
 40
0.125
 49
0.0
 74
     0
 49
-0.125
 74
     0
  0
LTYPE
  5
9C
330
5
100
AcDbSymbolTableRecord
100
AcDbLinetypeTableRecord
  2
DOTX2
 70
     0
  3
Dot (2x) .  .  .  .  .  .  .  .  .  .  .  .  . 
 72
    65
 73
     2
 40
0.5
 49
0.0
 74
     0
 49
-0.5
 74
     0
  0
LTYPE
  5
9D
330
5
100
AcDbSymbolTableRecord
100
AcDbLinetypeTableRecord
  2
HIDDEN
 70
     0
  3
Hidden __ __ __ __ __ __ __ __ __ __ __ __ __ _
 72
    65
 73
     2
 40
0.375
 49
0.25
 74
     0
 49
-0.125
 74
     0
  0
LTYPE
  5
9E
330
5
100
AcDbSymbolTableRecord
100
AcDbLinetypeTableRecord
  2
HIDDEN2
 70
     0
  3
Hidden (.5x) _ _ _ _ _ _ _ _ _ _ _ _ _ _ _ _ _
 72
    65
 73
     2
 40
0.1875
 49
0.125
 74
     0
 49
-0.0625
 74
     0
  0
LTYPE
  5
9F
330
5
100
AcDbSymbolTableRecord
100
AcDbLinetypeTableRecord
  2
HIDDENX2
 70
     0
  3
Hidden (2x) ____ ____ ____ ____ ____ ____ ____
 72
    65
 73
     2
 40
0.75
 49
0.5
 74
     0
 49
-0.25
 74
     0
  0
LTYPE
  5
A0
330
5
100
AcDbSymbolTableRecord
100
AcDbLinetypeTableRecord
  2
PHANTOM
 70
     0
  3
Phantom ______  __  __  ______  __  __  ______
 72
    65
 73
     6
 40
2.5
 49
1.25
 74
     0
 49
-0.25
 74
     0
 49
0.25
 74
     0
 49
-0.25
 74
     0
 49
0.25
 74
     0
 49
-0.25
 74
     0
  0
LTYPE
  5
A1
330
5
100
AcDbSymbolTableRecord
100
AcDbLinetypeTableRecord
  2
PHANTOM2
 70
     0
  3
Phantom (.5x) ___ _ _ ___ _ _ ___ _ _ ___ _ _
 72
    65
 73
     6
 40
1.25
 49
0.625
 74
     0
 49
-0.125
 74
     0
 49
0.125
 74
     0
 49
-0.125
 74
     0
 49
0.125
 74
     0
 49
-0.125
 74
     0
  0
LTYPE
  5
A2
330
5
100
AcDbSymbolTableRecord
100
AcDbLinetypeTableRecord
  2
PHANTOMX2
 70
     0
  3
Phantom (2x) ____________    ____    ____   _
 72
    65
 73
     6
 40
5.0
 49
2.5
 74
     0
 49
-0.5
 74
     0
 49
0.5
 74
     0
 49
-0.5
 74
     0
 49
0.5
 74
     0
 49
-0.5
 74
     0
  0
LTYPE
  5
A3
330
5
100
AcDbSymbolTableRecord
100
AcDbLinetypeTableRecord
  2
ACAD_ISO02W100
 70
     0
  3
ISO dash __ __ __ __ __ __ __ __ __ __ __ __ __
 72
    65
 73
     2
 40
0.59
 49
0.47
 74
     0
 49
-0.12
 74
     0
  0
LTYPE
  5
A4
330
5
100
AcDbSymbolTableRecord
100
AcDbLinetypeTableRecord
  2
ACAD_ISO03W100
 70
     0
  3
ISO dash space __    __    __    __    __    __
 72
    65
 73
     2
 40
1.179999999999999
 49
0.47
 74
     0
 49
-0.71
 74
     0
  0
LTYPE
  5
A5
330
5
100
AcDbSymbolTableRecord
100
AcDbLinetypeTableRecord
  2
ACAD_ISO04W100
 70
     0
  3
ISO long-dash dot ____ . ____ . ____ . ____ . _
 72
    65
 73
     4
 40
1.179999999999999
 49
0.9399999999999998
 74
     0
 49
-0.12
 74
     0
 49
0.0
 74
     0
 49
-0.12
 74
     0
  0
LTYPE
  5
A6
330
5
100
AcDbSymbolTableRecord
100
AcDbLinetypeTableRecord
  2
ACAD_ISO05W100
 70
     0
  3
ISO long-dash double-dot ____ .. ____ .. ____ .
 72
    65
 73
     6
 40
1.299999999999999
 49
0.9399999999999998
 74
     0
 49
-0.12
 74
     0
 49
0.0
 74
     0
 49
-0.12
 74
     0
 49
0.0
 74
     0
 49
-0.12
 74
     0
  0
LTYPE
  5
A7
330
5
100
AcDbSymbolTableRecord
100
AcDbLinetypeTableRecord
  2
ACAD_ISO06W100
 70
     0
  3
ISO long-dash triple-dot ____ ... ____ ... ____
 72
    65
 73
     8
 40
1.419999999999999
 49
0.9399999999999998
 74
     0
 49
-0.12
 74
     0
 49
0.0
 74
     0
 49
-0.12
 74
     0
 49
0.0
 74
     0
 49
-0.12
 74
     0
 49
0.0
 74
     0
 49
-0.12
 74
     0
  0
LTYPE
  5
A8
330
5
100
AcDbSymbolTableRecord
100
AcDbLinetypeTableRecord
  2
ACAD_ISO07W100
 70
     0
  3
ISO dot . . . . . . . . . . . . . . . . . . . .
 72
    65
 73
     2
 40
0.12
 49
0.0
 74
     0
 49
-0.12
 74
     0
  0
LTYPE
  5
A9
330
5
100
AcDbSymbolTableRecord
100
AcDbLinetypeTableRecord
  2
ACAD_ISO08W100
 70
     0
  3
ISO long-dash short-dash ____ __ ____ __ ____ _
 72
    65
 73
     4
 40
0.95
 49
0.47
 74
     0
 49
-0.12
 74
     0
 49
0.24
 74
     0
 49
-0.12
 74
     0
  0
LTYPE
  5
AA
330
5
100
AcDbSymbolTableRecord
100
AcDbLinetypeTableRecord
  2
ACAD_ISO09W100
 70
     0
  3
ISO long-dash double-short-dash ____ __ __ ____
 72
    65
 73
     6
 40
1.31
 49
0.47
 74
     0
 49
-0.12
 74
     0
 49
0.24
 74
     0
 49
-0.12
 74
     0
 49
0.24
 74
     0
 49
-0.12
 74
     0
  0
LTYPE
  5
AB
330
5
100
AcDbSymbolTableRecord
100
AcDbLinetypeTableRecord
  2
ACAD_ISO10W100
 70
     0
  3
ISO dash dot __ . __ . __ . __ . __ . __ . __ .
 72
    65
 73
     4
 40
0.71
 49
0.47
 74
     0
 49
-0.12
 74
     0
 49
0.0
 74
     0
 49
-0.12
 74
     0
  0
LTYPE
  5
AC
330
5
100
AcDbSymbolTableRecord
100
AcDbLinetypeTableRecord
  2
ACAD_ISO11W100
 70
     0
  3
ISO double-dash dot __ __ . __ __ . __ __ . __ 
 72
    65
 73
     6
 40
1.299999999999999
 49
0.47
 74
     0
 49
-0.12
 74
     0
 49
0.47
 74
     0
 49
-0.12
 74
     0
 49
0.0
 74
     0
 49
-0.12
 74
     0
  0
LTYPE
  5
AD
330
5
100
AcDbSymbolTableRecord
100
AcDbLinetypeTableRecord
  2
ACAD_ISO12W100
 70
     0
  3
ISO dash double-dot __ . . __ . . __ . . __ . .
 72
    65
 73
     6
 40
0.8299999999999998
 49
0.47
 74
     0
 49
-0.12
 74
     0
 49
0.0
 74
     0
 49
-0.12
 74
     0
 49
0.0
 74
     0
 49
-0.12
 74
     0
  0
LTYPE
  5
AE
330
5
100
AcDbSymbolTableRecord
100
AcDbLinetypeTableRecord
  2
ACAD_ISO13W100
 70
     0
  3
ISO double-dash double-dot __ __ . . __ __ . . 
 72
    65
 73
     8
 40
1.419999999999999
 49
0.47
 74
     0
 49
-0.12
 74
     0
 49
0.47
 74
     0
 49
-0.12
 74
     0
 49
0.0
 74
     0
 49
-0.12
 74
     0
 49
0.0
 74
     0
 49
-0.12
 74
     0
  0
LTYPE
  5
AF
330
5
100
AcDbSymbolTableRecord
100
AcDbLinetypeTableRecord
  2
ACAD_ISO14W100
 70
     0
  3
ISO dash triple-dot __ . . . __ . . . __ . . . 
 72
    65
 73
     8
 40
0.95
 49
0.47
 74
     0
 49
-0.12
 74
     0
 49
0.0
 74
     0
 49
-0.12
 74
     0
 49
0.0
 74
     0
 49
-0.12
 74
     0
 49
0.0
 74
     0
 49
-0.12
 74
     0
  0
LTYPE
  5
B0
330
5
100
AcDbSymbolTableRecord
100
AcDbLinetypeTableRecord
  2
ACAD_ISO15W100
 70
     0
  3
ISO double-dash triple-dot __ __ . . . __ __ . 
 72
    65
 73
    10
 40
1.539999999999999
 49
0.47
 74
     0
 49
-0.12
 74
     0
 49
0.47
 74
     0
 49
-0.12
 74
     0
 49
0.0
 74
     0
 49
-0.12
 74
     0
 49
0.0
 74
     0
 49
-0.12
 74
     0
 49
0.0
 74
     0
 49
-0.12
 74
     0
  0
LTYPE
  5
B3
330
5
100
AcDbSymbolTableRecord
100
AcDbLinetypeTableRecord
  2
FENCELINE1
 70
     0
  3
Fenceline circle ----0-----0----0-----0----0---
 72
    65
 73
     4
 40
1.45
 49
0.25
 74
     0
 49
-0.1
 74
     4
 75
   133
340
B2
 46
0.1
 50
0.0
 44
-0.1
 45
0.0
 49
-0.1
 74
     0
 49
1.0
 74
     0
  0
LTYPE
  5
B4
330
5
100
AcDbSymbolTableRecord
100
AcDbLinetypeTableRecord
  2
FENCELINE2
 70
     0
  3
Fenceline square ----[]-----[]----[]-----[]----
 72
    65
 73
     4
 40
1.45
 49
0.25
 74
     0
 49
-0.1
 74
     4
 75
   132
340
B2
 46
0.1
 50
0.0
 44
-0.1
 45
0.0
 49
-0.1
 74
     0
 49
1.0
 74
     0
  0
LTYPE
  5
B5
330
5
100
AcDbSymbolTableRecord
100
AcDbLinetypeTableRecord
  2
TRACKS
 70
     0
  3
Tracks -|-|-|-|-|-|-|-|-|-|-|-|-|-|-|-|-|-|-|-|
 72
    65
 73
     2
 40
0.3
 49
0.15
 74
     4
 75
   130
340
B2
 46
0.25
 50
0.0
 44
0.0
 45
0.0
 49
0.15
 74
     0
  0
LTYPE
  5
B6
330
5
100
AcDbSymbolTableRecord
100
AcDbLinetypeTableRecord
  2
BATTING
 70
     0
  3
Batting SSSSSSSSSSSSSSSSSSSSSSSSSSSSSSSSSSSSSSS
 72
    65
 73
     4
 40
0.4001000000000001
 49
0.0001
 74
     0
 49
-0.1
 74
     4
 75
   134
340
B2
 46
0.1
 50
0.0
 44
-0.1
 45
0.0
 49
-0.2
 74
     4
 75
   134
340
B2
 46
0.1
 50
180.0
 44
0.1
 45
0.0
 49
-0.1
 74
     0
  0
LTYPE
  5
B7
330
5
100
AcDbSymbolTableRecord
100
AcDbLinetypeTableRecord
  2
HOT_WATER_SUPPLY
 70
     0
  3
Hot water supply ---- HW ---- HW ---- HW ----
 72
    65
 73
     3
 40
0.9
 49
0.5
 74
     0
 49
-0.2
 74
     2
 75
     0
340
55
 46
0.1
 50
0.0
 44
-0.1
 45
-0.05
  9
HW
 49
-0.2
 74
     0
  0
LTYPE
  5
B8
330
5
100
AcDbSymbolTableRecord
100
AcDbLinetypeTableRecord
  2
GAS_LINE
 70
     0
  3
Gas line ----GAS----GAS----GAS----GAS----GAS---
 72
    65
 73
     3
 40
0.95
 49
0.5
 74
     0
 49
-0.2
 74
     2
 75
     0
340
55
 46
0.1
 50
0.0
 44
-0.1
 45
-0.05
  9
GAS
 49
-0.25
 74
     0
  0
LTYPE
  5
B9
330
5
100
AcDbSymbolTableRecord
100
AcDbLinetypeTableRecord
  2
ZIGZAG
 70
     0
  3
Zig zag /\/\/\/\/\/\/\/\/\/\/\/\/\/\/\/\/\/\/\/
 72
    65
 73
     4
 40
0.8001000000000001
 49
0.0001
 74
     0
 49
-0.2
 74
     4
 75
   131
340
B2
 46
0.2
 50
0.0
 44
-0.2
 45
0.0
 49
-0.4
 74
     4
 75
   131
340
B2
 46
0.2
 50
180.0
 44
0.2
 45
0.0
 49
-0.2
 74
     0
  0
ENDTAB
  0
TABLE
  2
LAYER
  5
2
330
0
100
AcDbSymbolTable
 70
    27
  0
LAYER
  5
54
330
2
100
AcDbSymbolTableRecord
100
AcDbLayerTableRecord
  2
0
 70
     0
 62
     7
  6
Continuous
370
    18
390
F
  0
LAYER
  5
C3
330
2
100
AcDbSymbolTableRecord
100
AcDbLayerTableRecord
  2
Dimension (ANSI)
 70
     0
 62
     7
  6
Continuous
370
    13
390
F
  0
LAYER
  5
C5
330
2
100
AcDbSymbolTableRecord
100
AcDbLayerTableRecord
  2
Hidden (ANSI)
 70
     0
 62
     7
  6
DASHED
370
    15
390
F
  0
LAYER
  5
CC
330
2
100
AcDbSymbolTableRecord
100
AcDbLayerTableRecord
  2
Symbol (ANSI)
 70
     0
 62
     7
  6
Continuous
370
    18
390
F
  0
LAYER
  5
CF
330
2
100
AcDbSymbolTableRecord
100
AcDbLayerTableRecord
  2
Visible (ANSI)
 70
     0
 62
     7
  6
Continuous
370
    13
390
F
  0
LAYER
  5
D0
330
2
100
AcDbSymbolTableRecord
100
AcDbLayerTableRecord
  2
Visible Narrow (ANSI)
 70
     0
 62
     7
  6
Continuous
370
    18
390
F
  0
LAYER
  5
1FF
330
2
100
AcDbSymbolTableRecord
100
AcDbLayerTableRecord
  2
Defpoints
 70
     0
 62
     7
  6
Continuous
290
     0
370
    -3
390
F
  0
ENDTAB
  0
TABLE
  2
STYLE
  5
3
330
0
100
AcDbSymbolTable
 70
    17
  0
STYLE
  5
55
330
3
100
AcDbSymbolTableRecord
100
AcDbTextStyleTableRecord
  2
Standard
 70
     0
 40
0.0
 41
1.0
 50
0.0
 71
     0
 42
0.2
  3
txt
  4

  0
STYLE
  5
5A
330
3
100
AcDbSymbolTableRecord
100
AcDbTextStyleTableRecord
  2
Annotative
 70
     0
 40
0.0
 41
1.0
 50
0.0
 71
     0
 42
0.2
  3
txt
  4

1001
AcadAnnotative
1000
AnnotativeData
1002
{
1070
     1
1070
     1
1002
}
  0
STYLE
  5
B2
330
3
100
AcDbSymbolTableRecord
100
AcDbTextStyleTableRecord
  2

 70
     1
 40
0.0
 41
1.0
 50
0.0
 71
     0
 42
0.2
  3
ltypeshp.shx
  4

  0
STYLE
  5
D4
330
3
100
AcDbSymbolTableRecord
100
AcDbTextStyleTableRecord
  2
ITALICC_120
 70
     0
 40
0.0
 41
1.0
 50
0.0
 71
     0
 42
0.2
  3
italicc.shx
  4

  0
STYLE
  5
D5
330
3
100
AcDbSymbolTableRecord
100
AcDbTextStyleTableRecord
  2
Label Text (ANSI)
 70
     0
 40
0.0
 41
1.0
 50
0.0
 71
     0
 42
0.2
  3
RomanS.shx
  4

  0
STYLE
  5
D6
330
3
100
AcDbSymbolTableRecord
100
AcDbTextStyleTableRecord
  2
Note Text (ANSI)
 70
     0
 40
0.0
 41
1.0
 50
0.0
 71
     0
 42
0.2
  3
RomanS.shx
  4

  0
STYLE
  5
D7
330
3
100
AcDbSymbolTableRecord
100
AcDbTextStyleTableRecord
  2
ROMANS
 70
     0
 40
0.0
 41
1.0
 50
0.0
 71
     0
 42
0.2
  3
romans.shx
  4

  0
STYLE
  5
D8
330
3
100
AcDbSymbolTableRecord
100
AcDbTextStyleTableRecord
  2
SANSSERIF_114
 70
     0
 40
0.0
 41
1.0
 50
0.0
 71
     0
 42
0.2
  3
TAHOMA.TTF
  4

1001
ACAD
1000
Tahoma
1071
      256
  0
STYLE
  5
D9
330
3
100
AcDbSymbolTableRecord
100
AcDbTextStyleTableRecord
  2
SANSSERIF_117
 70
     0
 40
0.0
 41
1.0
 50
0.0
 71
     0
 42
0.2
  3
TAHOMA.TTF
  4

1001
ACAD
1000
Tahoma
1071
      256
  0
STYLE
  5
DA
330
3
100
AcDbSymbolTableRecord
100
AcDbTextStyleTableRecord
  2
STANDARDAM_ANSI
 70
     0
 40
0.0
 41
1.0
 50
0.0
 71
     0
 42
0.2
  3
txt.shx
  4

  0
STYLE
  5
DB
330
3
100
AcDbSymbolTableRecord
100
AcDbTextStyleTableRecord
  2
StandardAM_ANSI$0
 70
     0
 40
0.0
 41
1.0
 50
0.0
 71
     0
 42
0.2
  3
txt.shx
  4

  0
STYLE
  5
DC
330
3
100
AcDbSymbolTableRecord
100
AcDbTextStyleTableRecord
  2
STANDARDAM_ANSI$3
 70
     0
 40
0.0
 41
1.0
 50
0.0
 71
     0
 42
0.2
  3
txt.shx
  4

  0
STYLE
  5
DD
330
3
100
AcDbSymbolTableRecord
100
AcDbTextStyleTableRecord
  2
STANDARDAM_ANSI$4
 70
     0
 40
0.0
 41
1.0
 50
0.0
 71
     0
 42
0.2
  3
txt.shx
  4

  0
STYLE
  5
DE
330
3
100
AcDbSymbolTableRecord
100
AcDbTextStyleTableRecord
  2
STANDARDAM_ANSI$7
 70
     0
 40
0.0
 41
1.0
 50
0.0
 71
     0
 42
0.2
  3
txt.shx
  4

  0
STYLE
  5
DF
330
3
100
AcDbSymbolTableRecord
100
AcDbTextStyleTableRecord
  2
STANDARDAM_ANSI$SF
 70
     0
 40
0.0
 41
1.0
 50
0.0
 71
     0
 42
0.2
  3
txt.shx
  4

  0
STYLE
  5
E0
330
3
100
AcDbSymbolTableRecord
100
AcDbTextStyleTableRecord
  2
STANDARDAM_ANSI$SH
 70
     0
 40
0.0
 41
1.0
 50
0.0
 71
     0
 42
0.2
  3
txt.shx
  4

  0
STYLE
  5
E1
330
3
100
AcDbSymbolTableRecord
100
AcDbTextStyleTableRecord
  2
STANDARDSTANDARD
 70
     0
 40
0.0
 41
1.0
 50
0.0
 71
     0
 42
0.2
  3
txt.shx
  4

  0
ENDTAB
  0
TABLE
  2
VIEW
  5
6
330
0
100
AcDbSymbolTable
 70
     0
  0
ENDTAB
  0
TABLE
  2
UCS
  5
7
330
0
100
AcDbSymbolTable
 70
     0
  0
ENDTAB
  0
TABLE
  2
APPID
  5
9
330
0
100
AcDbSymbolTable
 70
     4
  0
APPID
  5
56
330
9
100
AcDbSymbolTableRecord
100
AcDbRegAppTableRecord
  2
ACAD
 70
     0
  0
APPID
  5
5E
330
9
100
AcDbSymbolTableRecord
100
AcDbRegAppTableRecord
  2
AcadAnnotative
 70
     0
  0
APPID
  5
46D
330
9
100
AcDbSymbolTableRecord
100
AcDbRegAppTableRecord
  2
ACAD_DSTYLE_DIMRADIAL_EXTENSION
 70
     0
  0
APPID
  5
FF3
330
9
100
AcDbSymbolTableRecord
100
AcDbRegAppTableRecord
  2
ACAD_MLEADERVER
 70
     0
  0
ENDTAB
  0
TABLE
  2
DIMSTYLE
  5
A
330
0
100
AcDbSymbolTable
 70
    27
100
AcDbDimStyleTable
 71
     2
340
F6
340
58
  0
DIMSTYLE
105
58
330
A
100
AcDbSymbolTableRecord
100
AcDbDimStyleTableRecord
  2
STANDARD
 70
     0
 41
0.1800000071525573
 42
0.0625
140
0.1800000071525574
144
1.0
147
0.0900000035762787
176
   256
177
   256
178
   256
274
     3
340
55
371
    -1
372
    -1
  0
DIMSTYLE
105
59
330
A
100
AcDbSymbolTableRecord
100
AcDbDimStyleTableRecord
  2
Annotative
 70
     0
340
55
1001
AcadAnnotative
1000
AnnotativeData
1002
{
1070
     1
1070
     1
1002
}
  0
DIMSTYLE
105
E2
330
A
100
AcDbSymbolTableRecord
100
AcDbDimStyleTableRecord
  2
AM_ANSI
 70
     0
  4
 mm
 40
9.0
 41
0.119999997317791
 42
0.05
 43
0.5
 44
0.1
 45
0.00000001
 78
     4
 79
     2
140
0.1200000047683716
146
0.7099999453624112
147
0.0599999986588955
176
   256
177
   256
178
     2
284
     4
340
DA
371
    -1
372
    -1
  0
DIMSTYLE
105
E3
330
A
100
AcDbSymbolTableRecord
100
AcDbDimStyleTableRecord
  2
AM_ANSI$7
 70
     0
  4
 mm
 40
9.0
 41
0.119999997317791
 42
0.05
 43
0.5
 44
0.1
 45
0.00000001
 78
     4
 79
     2
140
0.1200000047683716
146
0.7099999453624112
147
0.0599999986588955
176
   256
177
   256
178
     2
284
     4
340
DA
371
    -1
372
    -1
  0
DIMSTYLE
105
E4
330
A
100
AcDbSymbolTableRecord
100
AcDbDimStyleTableRecord
  2
AM_ANSI$0
 70
     0
  4
 mm
 40
9.0
 41
0.119999997317791
 42
0.05
 43
0.5
 44
0.1
 45
0.00000001
 78
     4
 79
     2
140
0.1200000047683716
146
0.7099999453624112
147
0.0599999986588955
176
   256
177
   256
178
     2
284
     4
340
DB
371
    -1
372
    -1
  0
DIMSTYLE
105
E5
330
A
100
AcDbSymbolTableRecord
100
AcDbDimStyleTableRecord
  2
AM_ANSI$0$7
 70
     0
  4
 mm
 40
9.0
 41
0.119999997317791
 42
0.05
 43
0.5
 44
0.1
 45
0.00000001
 78
     4
 79
     2
140
0.1200000047683716
146
0.7099999453624112
147
0.0599999986588955
176
   256
177
   256
178
     2
284
     4
340
DB
371
    -1
372
    -1
  0
DIMSTYLE
105
E6
330
A
100
AcDbSymbolTableRecord
100
AcDbDimStyleTableRecord
  2
AM_ANSI$3
 70
     0
  4
 mm
 40
9.0
 41
0.119999997317791
 42
0.05
 43
0.5
 44
0.1
 45
0.00000001
 78
     4
 79
     2
140
0.1200000047683716
146
0.7099999453624112
147
0.0599999986588955
176
   256
177
   256
178
     2
284
     4
340
DC
371
    -1
372
    -1
  0
DIMSTYLE
105
E7
330
A
100
AcDbSymbolTableRecord
100
AcDbDimStyleTableRecord
  2
AM_ANSI$3$7
 70
     0
  4
 mm
 40
9.0
 41
0.119999997317791
 42
0.05
 43
0.5
 44
0.1
 45
0.00000001
 78
     4
 79
     2
140
0.1200000047683716
146
0.7099999453624112
147
0.0599999986588955
176
   256
177
   256
178
     2
284
     4
340
DC
371
    -1
372
    -1
  0
DIMSTYLE
105
E8
330
A
100
AcDbSymbolTableRecord
100
AcDbDimStyleTableRecord
  2
AM_ANSI$4
 70
     0
  4
 mm
 40
9.0
 41
0.119999997317791
 42
0.05
 43
0.5
 44
0.1
 45
0.00000001
 78
     4
 79
     2
140
0.1200000047683716
146
0.7099999453624112
147
0.0599999986588955
176
   256
177
   256
178
     2
284
     4
340
DD
371
    -1
372
    -1
  0
DIMSTYLE
105
E9
330
A
100
AcDbSymbolTableRecord
100
AcDbDimStyleTableRecord
  2
AM_ANSI$4$7
 70
     0
  4
 mm
 40
9.0
 41
0.119999997317791
 42
0.05
 43
0.5
 44
0.1
 45
0.00000001
 78
     4
 79
     2
140
0.1200000047683716
146
0.7099999453624112
147
0.0599999986588955
176
   256
177
   256
178
     2
284
     4
340
DD
371
    -1
372
    -1
  0
DIMSTYLE
105
EA
330
A
100
AcDbSymbolTableRecord
100
AcDbDimStyleTableRecord
  2
AM_ANSI$SF
 70
     0
  4
 mm
 40
9.0
 41
0.119999997317791
 42
0.05
 43
0.5
 44
0.1
 45
0.00000001
 75
     1
 76
     1
 78
     4
 79
     2
140
0.1200000047683716
146
0.7099999453624112
147
0.0599999986588955
176
   256
177
   256
178
     2
284
     4
340
DF
371
    -1
372
    -1
  0
DIMSTYLE
105
EB
330
A
100
AcDbSymbolTableRecord
100
AcDbDimStyleTableRecord
  2
AM_ANSI$SF$7
 70
     0
  4
 mm
 40
9.0
 41
0.119999997317791
 42
0.05
 43
0.5
 44
0.1
 45
0.00000001
 75
     1
 76
     1
 78
     4
 79
     2
140
0.1200000047683716
146
0.7099999453624112
147
0.0599999986588955
176
   256
177
   256
178
     2
284
     4
340
DF
371
    -1
372
    -1
  0
DIMSTYLE
105
EC
330
A
100
AcDbSymbolTableRecord
100
AcDbDimStyleTableRecord
  2
AM_ANSI$SH
 70
     0
  4
 mm
 40
9.0
 41
0.119999997317791
 42
0.05
 43
0.5
 44
0.1
 45
0.00000001
 75
     1
 76
     1
 78
     4
 79
     2
140
0.1200000047683716
146
0.7099999453624112
147
0.0599999986588955
176
   256
177
   256
178
     2
284
     4
340
E0
371
    -1
372
    -1
  0
DIMSTYLE
105
ED
330
A
100
AcDbSymbolTableRecord
100
AcDbDimStyleTableRecord
  2
AM_ANSI$SH$7
 70
     0
  4
 mm
 40
9.0
 41
0.119999997317791
 42
0.05
 43
0.5
 44
0.1
 45
0.00000001
 75
     1
 76
     1
 78
     4
 79
     2
140
0.1200000047683716
146
0.7099999453624112
147
0.0599999986588955
176
   256
177
   256
178
     2
284
     4
340
E0
371
    -1
372
    -1
  0
DIMSTYLE
105
EE
330
A
100
AcDbSymbolTableRecord
100
AcDbDimStyleTableRecord
  2
Architectural (ANSI)
 70
     0
 40
9.0
 41
0.0984251946210861
 43
0.2362204724409449
 44
0.125
 45
0.00000001
 46
0.3937007874015748
 78
     3
 79
     3
140
0.1200000047683716
147
0.031496062992126
171
     1
176
   256
177
   256
178
   256
272
     2
274
     1
276
     2
277
     4
284
    12
285
     4
286
    12
340
D6
371
    -1
372
    -1
  0
DIMSTYLE
105
EF
330
A
100
AcDbSymbolTableRecord
100
AcDbDimStyleTableRecord
  2
Architectural (ANSI)$7
 70
     0
 40
9.0
 41
0.0984251946210861
 43
0.2362204724409449
 44
0.125
 45
0.00000001
 46
0.3937007874015748
 78
     3
 79
     3
140
0.1200000047683716
147
0.031496062992126
171
     1
176
   256
177
   256
178
   256
272
     2
274
     1
276
     2
277
     4
284
    12
285
     4
286
    12
340
D6
371
    -1
372
    -1
  0
DIMSTYLE
105
F0
330
A
100
AcDbSymbolTableRecord
100
AcDbDimStyleTableRecord
  2
Default - Fraction (ANSI)
 70
     0
 40
9.0
 41
0.0984251946210861
 43
0.2362204724409449
 44
0.125
 45
0.00000001
 46
0.3937007874015748
 79
     3
140
0.1200000047683716
147
0.031496062992126
171
     1
176
   256
177
   256
178
   256
272
     2
274
     1
276
     2
277
     5
284
    12
285
     4
286
    12
340
D6
371
    -1
372
    -1
  0
DIMSTYLE
105
F1
330
A
100
AcDbSymbolTableRecord
100
AcDbDimStyleTableRecord
  2
Default - Fraction (ANSI)$7
 70
     0
 40
9.0
 41
0.0984251946210861
 43
0.2362204724409449
 44
0.125
 45
0.00000001
 46
0.3937007874015748
 79
     3
140
0.1200000047683716
147
0.031496062992126
171
     1
176
   256
177
   256
178
   256
272
     2
274
     1
276
     2
277
     5
284
    12
285
     4
286
    12
340
D6
371
    -1
372
    -1
  0
DIMSTYLE
105
F2
330
A
100
AcDbSymbolTableRecord
100
AcDbDimStyleTableRecord
  2
Default - mm (ANSI)
 70
     0
 40
9.0
 41
0.0984251946210861
 42
0.063
 43
0.2362204724409449
 44
0.125
 45
0.00000001
 46
0.3937007874015748
 73
     0
 78
     4
 79
     1
140
0.1200000047683716
143
1.0
144
25.4
147
0.031496062992126
171
     1
176
   256
177
   256
178
   256
179
     1
271
     2
272
     2
274
     1
284
     4
285
     4
340
D6
371
    -1
372
    -1
  0
DIMSTYLE
105
F3
330
A
100
AcDbSymbolTableRecord
100
AcDbDimStyleTableRecord
  2
Default - mm (ANSI)$7
 70
     0
 40
9.0
 41
0.0984251946210861
 42
0.063
 43
0.2362204724409449
 44
0.125
 45
0.00000001
 46
0.3937007874015748
 73
     0
 78
     4
 79
     1
140
0.1200000047683716
143
1.0
144
25.4
147
0.031496062992126
171
     1
176
   256
177
   256
178
   256
179
     1
271
     2
272
     2
274
     1
284
     4
285
     4
340
D6
371
    -1
372
    -1
  0
DIMSTYLE
105
F4
330
A
100
AcDbSymbolTableRecord
100
AcDbDimStyleTableRecord
  2
Default - mm [in] (ANSI)
 70
     0
  4
 in
 40
9.0
 41
0.0984251946210861
 42
0.063
 43
0.25
 44
0.125
 45
0.00000001
 46
0.3937007874015748
 73
     0
 78
     4
 79
     1
140
0.1200000047683716
143
0.03937
144
25.4
147
0.031496062992126
170
     1
171
     3
176
   256
177
   256
178
   256
179
     1
271
     2
272
     2
274
     3
284
     4
285
     4
286
     4
340
D6
371
    -1
372
    -1
  0
DIMSTYLE
105
F5
330
A
100
AcDbSymbolTableRecord
100
AcDbDimStyleTableRecord
  2
Default - mm [in] (ANSI)$7
 70
     0
  4
 in
 40
9.0
 41
0.0984251946210861
 42
0.063
 43
0.25
 44
0.125
 45
0.00000001
 46
0.3937007874015748
 73
     0
 78
     4
 79
     1
140
0.1200000047683716
143
0.03937
144
25.4
147
0.031496062992126
170
     1
171
     3
176
   256
177
   256
178
   256
179
     1
271
     2
272
     2
274
     3
284
     4
285
     4
286
     4
340
D6
371
    -1
372
    -1
  0
DIMSTYLE
105
F6
102
{ACAD_REACTORS
330
1FD
330
2EA
330
3D4
330
48E
330
547
330
645
330
72F
330
82F
330
919
330
A19
330
B03
330
BED
330
CEF
330
DD9
330
EC3
102
}
330
A
100
AcDbSymbolTableRecord
100
AcDbDimStyleTableRecord
  2
Default (ANSI)
 70
     0
 40
9.0
 41
0.0984251946210861
 43
0.2362204724409449
 44
0.125
 45
0.00000001
 46
0.3937007874015748
 79
     1
140
0.1200000047683716
147
0.031496062992126
171
     1
176
   256
177
   256
178
   256
271
     3
272
     2
274
     1
284
     4
285
     4
340
D6
371
    -1
372
    -1
  0
DIMSTYLE
105
F7
330
A
100
AcDbSymbolTableRecord
100
AcDbDimStyleTableRecord
  2
Default (ANSI)$7
 70
     0
 40
9.0
 41
0.0984251946210861
 43
0.2362204724409449
 44
0.125
 45
0.00000001
 46
0.3937007874015748
 79
     1
140
0.1200000047683716
147
0.031496062992126
171
     1
176
   256
177
   256
178
   256
271
     3
272
     2
274
     1
284
     4
285
     4
340
D6
371
    -1
372
    -1
  0
DIMSTYLE
105
F8
330
A
100
AcDbSymbolTableRecord
100
AcDbDimStyleTableRecord
  2
Alternate (ANSI)
 70
     0
 40
9.0
 41
0.0979999974370003
340
55
342
F9
  0
DIMSTYLE
105
10B
330
A
100
AcDbSymbolTableRecord
100
AcDbDimStyleTableRecord
  2
Datum (ANSI)
 70
     0
 40
9.0
 41
0.0979999974370003
340
55
342
F9
  0
DIMSTYLE
105
11A
330
A
100
AcDbSymbolTableRecord
100
AcDbDimStyleTableRecord
  2
Large (ANSI)
 70
     0
 40
9.0
 41
0.1959999948740005
340
55
342
F9
  0
ENDTAB
  0
TABLE
  2
BLOCK_RECORD
  5
1
330
0
100
AcDbSymbolTable
 70
    19
  0
BLOCK_RECORD
  5
6C
330
1
100
AcDbSymbolTableRecord
100
AcDbBlockTableRecord
  2
*Model_Space
340
6F
  0
BLOCK_RECORD
  5
68
330
1
100
AcDbSymbolTableRecord
100
AcDbBlockTableRecord
  2
*Paper_Space
340
6B
  0
BLOCK_RECORD
  5
70
330
1
100
AcDbSymbolTableRecord
100
AcDbBlockTableRecord
  2
*Paper_Space0
340
73
  0
BLOCK_RECORD
  5
F9
330
1
100
AcDbSymbolTableRecord
100
AcDbBlockTableRecord
  2
_Closed
340
0
  0
BLOCK_RECORD
  5
100
330
1
100
AcDbSymbolTableRecord
100
AcDbBlockTableRecord
  2
DatumFilled45
340
0
  0
BLOCK_RECORD
  5
10C
330
1
100
AcDbSymbolTableRecord
100
AcDbBlockTableRecord
  2
Filled-1
340
0
  0
BLOCK_RECORD
  5
200
330
1
100
AcDbSymbolTableRecord
100
AcDbBlockTableRecord
  2
*D4
340
0
  0
BLOCK_RECORD
  5
2EB
330
1
100
AcDbSymbolTableRecord
100
AcDbBlockTableRecord
  2
*D5
340
0
  0
BLOCK_RECORD
  5
3D5
330
1
100
AcDbSymbolTableRecord
100
AcDbBlockTableRecord
  2
*D6
340
0
  0
BLOCK_RECORD
  5
48F
330
1
100
AcDbSymbolTableRecord
100
AcDbBlockTableRecord
  2
*D7
340
0
  0
BLOCK_RECORD
  5
548
330
1
100
AcDbSymbolTableRecord
100
AcDbBlockTableRecord
  2
*D8
340
0
  0
BLOCK_RECORD
  5
646
330
1
100
AcDbSymbolTableRecord
100
AcDbBlockTableRecord
  2
*D9
340
0
  0
BLOCK_RECORD
  5
730
330
1
100
AcDbSymbolTableRecord
100
AcDbBlockTableRecord
  2
*D10
340
0
  0
BLOCK_RECORD
  5
830
330
1
100
AcDbSymbolTableRecord
100
AcDbBlockTableRecord
  2
*D11
340
0
  0
BLOCK_RECORD
  5
91A
330
1
100
AcDbSymbolTableRecord
100
AcDbBlockTableRecord
  2
*D12
340
0
  0
BLOCK_RECORD
  5
A1A
330
1
100
AcDbSymbolTableRecord
100
AcDbBlockTableRecord
  2
*D13
340
0
  0
BLOCK_RECORD
  5
B04
330
1
100
AcDbSymbolTableRecord
100
AcDbBlockTableRecord
  2
*D14
340
0
  0
BLOCK_RECORD
  5
BEE
330
1
100
AcDbSymbolTableRecord
100
AcDbBlockTableRecord
  2
*D15
340
0
  0
BLOCK_RECORD
  5
CF0
330
1
100
AcDbSymbolTableRecord
100
AcDbBlockTableRecord
  2
*D16
340
0
  0
BLOCK_RECORD
  5
DDA
330
1
100
AcDbSymbolTableRecord
100
AcDbBlockTableRecord
  2
*D17
340
0
  0
BLOCK_RECORD
  5
EC4
330
1
100
AcDbSymbolTableRecord
100
AcDbBlockTableRecord
  2
*D18
340
0
  0
ENDTAB
  0
ENDSEC
  0
SECTION
  2
BLOCKS
  0
BLOCK
  5
6D
330
6C
100
AcDbEntity
  8
0
100
AcDbBlockBegin
  2
*Model_Space
 70
     0
 10
0.0
 20
0.0
 30
0.0
  3
*Model_Space
  1

  0
ENDBLK
  5
6E
330
6C
100
AcDbEntity
  8
0
100
AcDbBlockEnd
  0
BLOCK
  5
69
330
68
100
AcDbEntity
 67
     1
  8
0
100
AcDbBlockBegin
  2
*Paper_Space
 70
     0
 10
0.0
 20
0.0
 30
0.0
  3
*Paper_Space
  1

  0
ENDBLK
  5
6A
330
68
100
AcDbEntity
 67
     1
  8
0
100
AcDbBlockEnd
  0
BLOCK
  5
71
330
70
100
AcDbEntity
 67
     1
  8
0
100
AcDbBlockBegin
  2
*Paper_Space0
 70
     0
 10
0.0
 20
0.0
 30
0.0
  3
*Paper_Space0
  1

  0
ENDBLK
  5
72
330
70
100
AcDbEntity
 67
     1
  8
0
100
AcDbBlockEnd
  0
BLOCK
  5
FE
330
F9
100
AcDbEntity
  8
0
100
AcDbBlockBegin
  2
_Closed
 70
     0
 10
0.0
 20
0.0
 30
0.0
  3
_Closed
  1

  0
LINE
  5
FA
330
F9
100
AcDbEntity
  8
0
  6
ByBlock
 62
     0
370
    -2
100
AcDbLine
 10
-1.0
 20
0.1666666666666666
 30
0.0
 11
0.0
 21
0.0
 31
0.0
  0
LINE
  5
FB
330
F9
100
AcDbEntity
  8
0
  6
ByBlock
 62
     0
370
    -2
100
AcDbLine
 10
0.0
 20
0.0
 30
0.0
 11
-1.0
 21
-0.1666666666666666
 31
0.0
  0
LINE
  5
FC
330
F9
100
AcDbEntity
  8
0
  6
ByBlock
 62
     0
370
    -2
100
AcDbLine
 10
-1.0
 20
0.1666666666666666
 30
0.0
 11
-1.0
 21
-0.1666666666666666
 31
0.0
  0
LINE
  5
FD
330
F9
100
AcDbEntity
  8
0
  6
ByBlock
 62
     0
370
    -2
100
AcDbLine
 10
0.0
 20
0.0
 30
0.0
 11
-1.0
 21
0.0
 31
0.0
  0
ENDBLK
  5
FF
330
F9
100
AcDbEntity
  8
0
100
AcDbBlockEnd
  0
BLOCK
  5
101
330
100
100
AcDbEntity
  8
0
100
AcDbBlockBegin
  2
DatumFilled45
 70
     0
 10
0.0
 20
0.0
 30
0.0
  3
DatumFilled45
  1

  0
POLYLINE
  5
103
330
100
100
AcDbEntity
  8
0
 62
     0
100
AcDb2dPolyline
 66
     1
 10
0.0
 20
0.0
 30
0.0
 70
   128
  0
VERTEX
  5
104
330
103
100
AcDbEntity
  8
0
 62
     0
100
AcDbVertex
100
AcDb2dVertex
 10
0.0
 20
0.9999999999999998
 30
0.0
  0
VERTEX
  5
105
330
103
100
AcDbEntity
  8
0
 62
     0
100
AcDbVertex
100
AcDb2dVertex
 10
0.0
 20
-0.9999999999999998
 30
0.0
  0
VERTEX
  5
107
330
103
100
AcDbEntity
  8
0
 62
     0
100
AcDbVertex
100
AcDb2dVertex
 10
-0.9999999999999998
 20
0.0
 30
0.0
  0
VERTEX
  5
108
330
103
100
AcDbEntity
  8
0
 62
     0
100
AcDbVertex
100
AcDb2dVertex
 10
0.0
 20
0.9999999999999998
 30
0.0
  0
SEQEND
  5
106
330
103
100
AcDbEntity
  8
0
 62
     0
  0
SOLID
  5
10A
330
100
100
AcDbEntity
  8
0
 62
     0
100
AcDbTrace
 10
0.0
 20
0.9999999999999998
 30
0.0
 11
0.0
 21
-0.9999999999999998
 31
0.0
 12
-0.9999999999999998
 22
0.0
 32
0.0
 13
0.0
 23
0.9999999999999998
 33
0.0
  0
ENDBLK
  5
102
330
100
100
AcDbEntity
  8
0
100
AcDbBlockEnd
  0
BLOCK
  5
10D
330
10C
100
AcDbEntity
  8
0
100
AcDbBlockBegin
  2
Filled-1
 70
     0
 10
0.0
 20
0.0
 30
0.0
  3
Filled-1
  1

  0
LINE
  5
10F
330
10C
100
AcDbEntity
  8
0
 62
     0
100
AcDbLine
 10
-0.9999999999999998
 20
0.0
 30
0.0
 11
0.0
 21
0.0
 31
0.0
  0
POLYLINE
  5
110
330
10C
100
AcDbEntity
  8
0
 62
     0
100
AcDb2dPolyline
 66
     1
 10
0.0
 20
0.0
 30
0.0
 70
   128
  0
VERTEX
  5
111
330
110
100
AcDbEntity
  8
0
 62
     0
100
AcDbVertex
100
AcDb2dVertex
 10
-0.9999999999999998
 20
-0.0994897959183674
 30
0.0
  0
VERTEX
  5
112
330
110
100
AcDbEntity
  8
0
 62
     0
100
AcDbVertex
100
AcDb2dVertex
 10
0.0
 20
0.0
 30
0.0
  0
VERTEX
  5
114
330
110
100
AcDbEntity
  8
0
 62
     0
100
AcDbVertex
100
AcDb2dVertex
 10
-0.9999999999999998
 20
0.0994897959183674
 30
0.0
  0
VERTEX
  5
115
330
110
100
AcDbEntity
  8
0
 62
     0
100
AcDbVertex
100
AcDb2dVertex
 10
-0.9999999999999998
 20
-0.0994897959183674
 30
0.0
  0
SEQEND
  5
113
330
110
100
AcDbEntity
  8
0
 62
     0
  0
SOLID
  5
116
330
10C
100
AcDbEntity
  8
0
 62
     0
100
AcDbTrace
 10
-0.9999999999999998
 20
-0.0994897959183674
 30
0.0
 11
0.0
 21
0.0
 31
0.0
 12
-0.9999999999999998
 22
0.0994897959183674
 32
0.0
 13
-0.9999999999999998
 23
-0.0994897959183674
 33
0.0
  0
LINE
  5
117
330
10C
100
AcDbEntity
  8
0
 62
     0
100
AcDbLine
 10
-0.9999999999999998
 20
-0.0994897959183674
 30
0.0
 11
0.0
 21
0.0
 31
0.0
  0
LINE
  5
118
330
10C
100
AcDbEntity
  8
0
 62
     0
100
AcDbLine
 10
0.0
 20
0.0
 30
0.0
 11
-0.9999999999999998
 21
0.0994897959183674
 31
0.0
  0
LINE
  5
119
330
10C
100
AcDbEntity
  8
0
 62
     0
100
AcDbLine
 10
-0.9999999999999998
 20
0.0994897959183674
 30
0.0
 11
-0.9999999999999998
 21
-0.0994897959183674
 31
0.0
  0
ENDBLK
  5
10E
330
10C
100
AcDbEntity
  8
0
100
AcDbBlockEnd
  0
BLOCK
  5
201
330
200
100
AcDbEntity
  8
0
100
AcDbBlockBegin
  2
*D4
 70
     1
 10
0.0
 20
0.0
 30
0.0
  3
*D4
  1

  0
LINE
  5
2E0
330
200
100
AcDbEntity
  8
Dimension (ANSI)
100
AcDbLine
 10
59.76472308604334
 20
85.11609097911202
 30
0.0
 11
59.76472308604334
 21
93.19932439796788
 31
0.0
  0
LINE
  5
2E1
330
200
100
AcDbEntity
  8
Dimension (ANSI)
100
AcDbLine
 10
25.56472308604333
 20
85.11609097911202
 30
0.0
 11
25.56472308604333
 21
93.19932439796788
 31
0.0
  0
LINE
  5
2E2
330
200
100
AcDbEntity
  8
Dimension (ANSI)
100
AcDbLine
 10
58.87889633445356
 20
92.07432439796788
 30
0.0
 11
45.62247347352474
 21
92.07432439796788
 31
0.0
  0
LINE
  5
2E3
330
200
100
AcDbEntity
  8
Dimension (ANSI)
100
AcDbLine
 10
26.45054983763311
 20
92.07432439796788
 30
0.0
 11
39.70697269856192
 21
92.07432439796788
 31
0.0
  0
SOLID
  5
2E4
330
200
100
AcDbEntity
  8
Dimension (ANSI)
100
AcDbTrace
 10
58.87889633445356
 20
92.22196218989951
 30
0.0
 11
58.87889633445356
 21
91.92668660603626
 31
0.0
 12
59.76472308604334
 22
92.07432439796788
 32
0.0
 13
59.76472308604334
 23
92.07432439796788
 33
0.0
  0
SOLID
  5
2E5
330
200
100
AcDbEntity
  8
Dimension (ANSI)
100
AcDbTrace
 10
26.45054983763311
 20
92.22196218989951
 30
0.0
 11
26.45054983763311
 21
91.92668660603626
 31
0.0
 12
25.56472308604333
 22
92.07432439796788
 32
0.0
 13
25.56472308604333
 23
92.07432439796788
 33
0.0
  0
MTEXT
  5
2E6
330
200
100
AcDbEntity
  8
Dimension (ANSI)
100
AcDbMText
 10
39.99043726549106
 20
92.61432441942556
 30
0.0
 40
1.080000042915344
 41
0.0
 71
     1
 72
     1
  1
\A1;34.200
  7
Note Text (ANSI)
 73
     1
 44
1.0
1001
ACAD
1000
MTEXTBEGIN
1070
    73
1070
     1
1070
    44
1040
1.0
1070
    74
1070
     0
1000
MTEXTEND
  0
POINT
  5
2E7
330
200
100
AcDbEntity
  8
Defpoints
 62
     0
100
AcDbPoint
 10
59.76472308604334
 20
84.55359097911204
 30
0.0
  0
POINT
  5
2E8
330
200
100
AcDbEntity
  8
Defpoints
 62
     0
100
AcDbPoint
 10
25.56472308604333
 20
84.55359097911204
 30
0.0
  0
POINT
  5
2E9
330
200
100
AcDbEntity
  8
Defpoints
 62
     0
100
AcDbPoint
 10
25.56472308604333
 20
92.07432439796788
 30
0.0
  0
ENDBLK
  5
202
330
200
100
AcDbEntity
  8
0
100
AcDbBlockEnd
  0
BLOCK
  5
2EC
330
2EB
100
AcDbEntity
  8
0
100
AcDbBlockBegin
  2
*D5
 70
     1
 10
0.0
 20
0.0
 30
0.0
  3
*D5
  1

  0
LINE
  5
3CA
330
2EB
100
AcDbEntity
  8
Dimension (ANSI)
100
AcDbLine
 10
25.50222308604333
 20
85.05359097911204
 30
0.0
 11
7.981504558392463
 21
85.05359097911204
 31
0.0
  0
LINE
  5
3CB
330
2EB
100
AcDbEntity
  8
Dimension (ANSI)
100
AcDbLine
 10
25.50222308604335
 20
26.85359097911205
 30
0.0
 11
7.98150455839245
 21
26.85359097911206
 31
0.0
  0
LINE
  5
3CC
330
2EB
100
AcDbEntity
  8
Dimension (ANSI)
100
AcDbLine
 10
9.106504558392463
 20
84.16776422752226
 30
0.0
 11
9.106504558392458
 21
63.56094074297929
 31
0.0
  0
LINE
  5
3CD
330
2EB
100
AcDbEntity
  8
Dimension (ANSI)
100
AcDbLine
 10
9.106504558392449
 20
27.73941773070183
 30
0.0
 11
9.106504558392458
 21
61.91401156620568
 31
0.0
  0
SOLID
  5
3CE
330
2EB
100
AcDbEntity
  8
Dimension (ANSI)
100
AcDbTrace
 10
8.958866766460834
 20
84.16776422752226
 30
0.0
 11
9.254142350324093
 21
84.16776422752226
 31
0.0
 12
9.106504558392463
 22
85.05359097911204
 32
0.0
 13
9.106504558392463
 23
85.05359097911204
 33
0.0
  0
SOLID
  5
3CF
330
2EB
100
AcDbEntity
  8
Dimension (ANSI)
100
AcDbTrace
 10
8.95886676646082
 20
27.73941773070183
 30
0.0
 11
9.254142350324078
 21
27.73941773070183
 31
0.0
 12
9.106504558392449
 22
26.85359097911205
 32
0.0
 13
9.106504558392449
 23
26.85359097911205
 33
0.0
  0
MTEXT
  5
3D0
330
2EB
100
AcDbEntity
  8
Dimension (ANSI)
100
AcDbMText
 10
6.432218737840167
 20
63.27747617605016
 30
0.0
 40
1.080000042915344
 41
0.0
 71
     1
 72
     1
  1
\A1;58.200
  7
Note Text (ANSI)
 73
     1
 44
1.0
1001
ACAD
1000
MTEXTBEGIN
1070
    73
1070
     1
1070
    44
1040
1.0
1070
    74
1070
     0
1000
MTEXTEND
  0
POINT
  5
3D1
330
2EB
100
AcDbEntity
  8
Defpoints
 62
     0
100
AcDbPoint
 10
26.06472308604333
 20
85.05359097911204
 30
0.0
  0
POINT
  5
3D2
330
2EB
100
AcDbEntity
  8
Defpoints
 62
     0
100
AcDbPoint
 10
26.06472308604335
 20
26.85359097911205
 30
0.0
  0
POINT
  5
3D3
330
2EB
100
AcDbEntity
  8
Defpoints
 62
     0
100
AcDbPoint
 10
9.106504558392449
 20
26.85359097911205
 30
0.0
  0
ENDBLK
  5
2ED
330
2EB
100
AcDbEntity
  8
0
100
AcDbBlockEnd
  0
BLOCK
  5
3D6
330
3D5
100
AcDbEntity
  8
0
100
AcDbBlockBegin
  2
*D6
 70
     1
 10
0.0
 20
0.0
 30
0.0
  3
*D6
  1

  0
LINE
  5
486
330
3D5
100
AcDbEntity
  8
Dimension (ANSI)
100
AcDbLine
 10
34.5913637176589
 20
18.57440758979525
 30
0.0
 11
33.31166909583567
 21
18.57440758979525
 31
0.0
  0
LINE
  5
487
330
3D5
100
AcDbEntity
  8
Dimension (ANSI)
100
AcDbLine
 10
33.31166909583567
 20
18.57440758979525
 30
0.0
 11
26.80562024203989
 21
26.49586112311815
 31
0.0
  0
MTEXT
  5
488
102
{ACAD_XDICTIONARY
360
FFA
102
}
330
3D5
100
AcDbEntity
  8
Dimension (ANSI)
100
AcDbMText
 10
34.87482828458804
 20
19.43583619545392
 30
0.0
 40
1.080000042915344
 41
0.0
 71
     1
 72
     1
  1
\A1;\U+22050.500{\PTYP.(8PL.)}
  7
Note Text (ANSI)
 73
     1
 44
1.0
1001
ACAD
1000
MTEXTBEGIN
1070
    73
1070
     1
1070
    44
1040
1.0
1070
    74
1070
     0
1000
MTEXTEND
  0
SOLID
  5
489
330
3D5
100
AcDbEntity
  8
Dimension (ANSI)
100
AcDbTrace
 10
26.91970991079442
 20
26.58956525904571
 30
0.0
 11
26.69153057328536
 21
26.40215698719059
 31
0.0
 12
26.24339542647455
 22
27.1803991356453
 32
0.0
 13
26.24339542647455
 23
27.1803991356453
 33
0.0
  0
LINE
  5
48A
330
3D5
100
AcDbEntity
  8
Dimension (ANSI)
100
AcDbLine
 10
25.27472308604333
 20
27.37359097911205
 30
0.0
 11
26.89472308604333
 21
27.37359097911205
 31
0.0
  0
LINE
  5
48B
330
3D5
100
AcDbEntity
  8
Dimension (ANSI)
100
AcDbLine
 10
26.08472308604333
 20
26.56359097911205
 30
0.0
 11
26.08472308604333
 21
28.18359097911205
 31
0.0
  0
POINT
  5
48C
330
3D5
100
AcDbEntity
  8
Defpoints
 62
     0
100
AcDbPoint
 10
26.24339542647455
 20
27.1803991356453
 30
0.0
  0
POINT
  5
48D
330
3D5
100
AcDbEntity
  8
Defpoints
 62
     0
100
AcDbPoint
 10
25.92605074561211
 20
27.56678282257878
 30
0.0
  0
ENDBLK
  5
3D7
330
3D5
100
AcDbEntity
  8
0
100
AcDbBlockEnd
  0
BLOCK
  5
490
330
48F
100
AcDbEntity
  8
0
100
AcDbBlockBegin
  2
*D7
 70
     1
 10
0.0
 20
0.0
 30
0.0
  3
*D7
  1

  0
LINE
  5
53F
330
48F
100
AcDbEntity
  8
Dimension (ANSI)
100
AcDbLine
 10
34.4868901297183
 20
24.0114296090611
 30
0.0
 11
33.20719550789522
 21
24.0114296090611
 31
0.0
  0
LINE
  5
540
330
48F
100
AcDbEntity
  8
Dimension (ANSI)
100
AcDbLine
 10
33.20719550789522
 20
24.0114296090611
 30
0.0
 11
26.98718802561331
 21
27.60255260331725
 31
0.0
  0
MTEXT
  5
541
102
{ACAD_XDICTIONARY
360
FFC
102
}
330
48F
100
AcDbEntity
  8
Dimension (ANSI)
100
AcDbMText
 10
34.77035469664743
 20
24.87285821471977
 30
0.0
 40
1.080000042915344
 41
0.0
 71
     1
 72
     1
  1
\A1;\U+22050.313{\PTYP.(4PL.)}
  7
Note Text (ANSI)
 73
     1
 44
1.0
1001
ACAD
1000
MTEXTBEGIN
1070
    73
1070
     1
1070
    44
1040
1.0
1070
    74
1070
     0
1000
MTEXTEND
  0
SOLID
  5
542
330
48F
100
AcDbEntity
  8
Dimension (ANSI)
100
AcDbTrace
 10
27.06100692157911
 20
27.73041068168869
 30
0.0
 11
26.91336912964751
 21
27.47469452494581
 31
0.0
 12
26.22003955538467
 22
28.04546597911206
 32
0.0
 13
26.22003955538467
 23
28.04546597911206
 33
0.0
  0
LINE
  5
543
330
48F
100
AcDbEntity
  8
Dimension (ANSI)
100
AcDbLine
 10
25.27472308604334
 20
28.12359097911204
 30
0.0
 11
26.89472308604335
 21
28.12359097911205
 31
0.0
  0
LINE
  5
544
330
48F
100
AcDbEntity
  8
Dimension (ANSI)
100
AcDbLine
 10
26.08472308604334
 20
27.31359097911205
 30
0.0
 11
26.08472308604334
 21
28.93359097911205
 31
0.0
  0
POINT
  5
545
330
48F
100
AcDbEntity
  8
Defpoints
 62
     0
100
AcDbPoint
 10
26.22003955538467
 20
28.04546597911206
 30
0.0
  0
POINT
  5
546
330
48F
100
AcDbEntity
  8
Defpoints
 62
     0
100
AcDbPoint
 10
25.94940661670202
 20
28.20171597911203
 30
0.0
  0
ENDBLK
  5
491
330
48F
100
AcDbEntity
  8
0
100
AcDbBlockEnd
  0
BLOCK
  5
549
330
548
100
AcDbEntity
  8
0
100
AcDbBlockBegin
  2
*D8
 70
     1
 10
0.0
 20
0.0
 30
0.0
  3
*D8
  1

  0
LINE
  5
63B
330
548
100
AcDbEntity
  8
Dimension (ANSI)
100
AcDbLine
 10
95.42632626767694
 20
63.28532125725466
 30
0.0
 11
95.42632626767694
 21
26.6191773691469
 31
0.0
  0
LINE
  5
63C
330
548
100
AcDbEntity
  8
Dimension (ANSI)
100
AcDbLine
 10
95.52007626767695
 20
63.28532125725466
 30
0.0
 11
95.52007626767695
 21
26.6191773691469
 31
0.0
  0
LINE
  5
63D
330
548
100
AcDbEntity
  8
Dimension (ANSI)
100
AcDbLine
 10
96.40590301926671
 20
27.74417736914691
 30
0.0
 11
97.29172977085649
 21
27.74417736914691
 31
0.0
  0
LINE
  5
63E
330
548
100
AcDbEntity
  8
Dimension (ANSI)
100
AcDbLine
 10
94.54049951608716
 20
27.74417736914691
 30
0.0
 11
93.20292124312354
 21
27.74417736914691
 31
0.0
  0
SOLID
  5
63F
330
548
100
AcDbEntity
  8
Dimension (ANSI)
100
AcDbTrace
 10
96.40590301926671
 20
27.89181516107853
 30
0.0
 11
96.40590301926671
 21
27.59653957721527
 31
0.0
 12
95.52007626767695
 22
27.74417736914691
 32
0.0
 13
95.52007626767695
 23
27.74417736914691
 33
0.0
  0
SOLID
  5
640
330
548
100
AcDbEntity
  8
Dimension (ANSI)
100
AcDbTrace
 10
94.54049951608716
 20
27.89181516107853
 30
0.0
 11
94.54049951608716
 21
27.59653957721527
 31
0.0
 12
95.42632626767694
 22
27.74417736914691
 32
0.0
 13
95.42632626767694
 23
27.74417736914691
 33
0.0
  0
MTEXT
  5
641
330
548
100
AcDbEntity
  8
Dimension (ANSI)
100
AcDbMText
 10
86.38802784523019
 20
28.46417739775713
 30
0.0
 40
1.080000042915344
 41
0.0
 71
     1
 72
     1
  1
\A1; 12 GA.\P304 SS
  7
Note Text (ANSI)
 73
     1
 44
1.0
1001
ACAD
1000
MTEXTBEGIN
1070
    73
1070
     1
1070
    44
1040
1.0
1070
    74
1070
     0
1000
MTEXTEND
  0
POINT
  5
642
330
548
100
AcDbEntity
  8
Defpoints
 62
     0
100
AcDbPoint
 10
95.42632626767694
 20
63.84782125725466
 30
0.0
  0
POINT
  5
643
330
548
100
AcDbEntity
  8
Defpoints
 62
     0
100
AcDbPoint
 10
95.52007626767695
 20
63.84782125725466
 30
0.0
  0
POINT
  5
644
330
548
100
AcDbEntity
  8
Defpoints
 62
     0
100
AcDbPoint
 10
95.52007626767695
 20
27.74417736914691
 30
0.0
  0
ENDBLK
  5
54A
330
548
100
AcDbEntity
  8
0
100
AcDbBlockEnd
  0
BLOCK
  5
647
330
646
100
AcDbEntity
  8
0
100
AcDbBlockBegin
  2
*D9
 70
     1
 10
0.0
 20
0.0
 30
0.0
  3
*D9
  1

  0
LINE
  5
725
330
646
100
AcDbEntity
  8
Dimension (ANSI)
100
AcDbLine
 10
25.52222308604335
 20
84.53359097911205
 30
0.0
 11
13.24529306005756
 21
84.53359097911205
 31
0.0
  0
LINE
  5
726
330
646
100
AcDbEntity
  8
Dimension (ANSI)
100
AcDbLine
 10
25.52222308604335
 20
27.37359097911206
 30
0.0
 11
13.24529306005754
 21
27.37359097911206
 31
0.0
  0
LINE
  5
727
330
646
100
AcDbEntity
  8
Dimension (ANSI)
100
AcDbLine
 10
14.37029306005755
 20
83.64776422752226
 30
0.0
 11
14.37029306005755
 21
59.42009383755967
 31
0.0
  0
LINE
  5
728
330
646
100
AcDbEntity
  8
Dimension (ANSI)
100
AcDbLine
 10
14.37029306005755
 20
28.25941773070184
 30
0.0
 11
14.37029306005755
 21
57.77316466078606
 31
0.0
  0
SOLID
  5
729
330
646
100
AcDbEntity
  8
Dimension (ANSI)
100
AcDbTrace
 10
14.22265526812593
 20
83.64776422752226
 30
0.0
 11
14.51793085198918
 21
83.64776422752226
 31
0.0
 12
14.37029306005756
 22
84.53359097911205
 32
0.0
 13
14.37029306005756
 23
84.53359097911205
 33
0.0
  0
SOLID
  5
72A
330
646
100
AcDbEntity
  8
Dimension (ANSI)
100
AcDbTrace
 10
14.22265526812592
 20
28.25941773070184
 30
0.0
 11
14.51793085198917
 21
28.25941773070184
 31
0.0
 12
14.37029306005754
 22
27.37359097911206
 32
0.0
 13
14.37029306005754
 23
27.37359097911206
 33
0.0
  0
MTEXT
  5
72B
330
646
100
AcDbEntity
  8
Dimension (ANSI)
100
AcDbMText
 10
11.69600723950526
 20
59.13662927063054
 30
0.0
 40
1.080000042915344
 41
0.0
 71
     1
 72
     1
  1
\A1;57.160
  7
Note Text (ANSI)
 73
     1
 44
1.0
1001
ACAD
1000
MTEXTBEGIN
1070
    73
1070
     1
1070
    44
1040
1.0
1070
    74
1070
     0
1000
MTEXTEND
  0
POINT
  5
72C
330
646
100
AcDbEntity
  8
Defpoints
 62
     0
100
AcDbPoint
 10
26.08472308604335
 20
84.53359097911205
 30
0.0
  0
POINT
  5
72D
330
646
100
AcDbEntity
  8
Defpoints
 62
     0
100
AcDbPoint
 10
26.08472308604335
 20
27.37359097911206
 30
0.0
  0
POINT
  5
72E
330
646
100
AcDbEntity
  8
Defpoints
 62
     0
100
AcDbPoint
 10
14.37029306005754
 20
27.37359097911206
 30
0.0
  0
ENDBLK
  5
648
330
646
100
AcDbEntity
  8
0
100
AcDbBlockEnd
  0
BLOCK
  5
731
330
730
100
AcDbEntity
  8
0
100
AcDbBlockBegin
  2
*D10
 70
     1
 10
0.0
 20
0.0
 30
0.0
  3
*D10
  1

  0
LINE
  5
824
330
730
100
AcDbEntity
  8
Dimension (ANSI)
100
AcDbLine
 10
25.52222308604335
 20
28.12359097911205
 30
0.0
 11
18.30244862698824
 21
28.12359097911206
 31
0.0
  0
LINE
  5
825
330
730
100
AcDbEntity
  8
Dimension (ANSI)
100
AcDbLine
 10
25.52222308604335
 20
27.37359097911206
 30
0.0
 11
18.30244862698824
 21
27.37359097911206
 31
0.0
  0
LINE
  5
826
330
730
100
AcDbEntity
  8
Dimension (ANSI)
100
AcDbLine
 10
19.42744862698824
 20
26.48776422752229
 30
0.0
 11
19.42744862698824
 21
25.60193747593251
 31
0.0
  0
LINE
  5
827
330
730
100
AcDbEntity
  8
Dimension (ANSI)
100
AcDbLine
 10
19.42744862698824
 20
29.00941773070183
 30
0.0
 11
19.42744862698824
 21
30.56015776091863
 31
0.0
  0
LINE
  5
828
330
730
100
AcDbEntity
  8
Dimension (ANSI)
100
AcDbLine
 10
19.42744862698824
 20
30.56015776091863
 30
0.0
 11
20.31327537857802
 21
30.56015776091863
 31
0.0
  0
SOLID
  5
829
330
730
100
AcDbEntity
  8
Dimension (ANSI)
100
AcDbTrace
 10
19.27981083505661
 20
26.48776422752229
 30
0.0
 11
19.57508641891987
 21
26.48776422752229
 31
0.0
 12
19.42744862698824
 22
27.37359097911206
 32
0.0
 13
19.42744862698824
 23
27.37359097911206
 33
0.0
  0
SOLID
  5
82A
330
730
100
AcDbEntity
  8
Dimension (ANSI)
100
AcDbTrace
 10
19.27981083505661
 20
29.00941773070183
 30
0.0
 11
19.57508641891987
 21
29.00941773070183
 31
0.0
 12
19.42744862698824
 22
28.12359097911206
 32
0.0
 13
19.42744862698824
 23
28.12359097911206
 33
0.0
  0
MTEXT
  5
82B
330
730
100
AcDbEntity
  8
Dimension (ANSI)
100
AcDbMText
 10
20.59673994550715
 20
31.1001577823763
 30
0.0
 40
1.080000042915344
 41
0.0
 71
     1
 72
     1
  1
\A1;0.750
  7
Note Text (ANSI)
 73
     1
 44
1.0
1001
ACAD
1000
MTEXTBEGIN
1070
    73
1070
     1
1070
    44
1040
1.0
1070
    74
1070
     0
1000
MTEXTEND
  0
POINT
  5
82C
330
730
100
AcDbEntity
  8
Defpoints
 62
     0
100
AcDbPoint
 10
26.08472308604335
 20
28.12359097911205
 30
0.0
  0
POINT
  5
82D
330
730
100
AcDbEntity
  8
Defpoints
 62
     0
100
AcDbPoint
 10
26.08472308604335
 20
27.37359097911206
 30
0.0
  0
POINT
  5
82E
330
730
100
AcDbEntity
  8
Defpoints
 62
     0
100
AcDbPoint
 10
19.42744862698824
 20
27.37359097911206
 30
0.0
  0
ENDBLK
  5
732
330
730
100
AcDbEntity
  8
0
100
AcDbBlockEnd
  0
BLOCK
  5
831
330
830
100
AcDbEntity
  8
0
100
AcDbBlockBegin
  2
*D11
 70
     1
 10
0.0
 20
0.0
 30
0.0
  3
*D11
  1

  0
LINE
  5
90F
330
830
100
AcDbEntity
  8
Dimension (ANSI)
100
AcDbLine
 10
59.24472308604334
 20
85.09609097911205
 30
0.0
 11
59.24472308604334
 21
90.23115612094793
 31
0.0
  0
LINE
  5
910
330
830
100
AcDbEntity
  8
Dimension (ANSI)
100
AcDbLine
 10
26.08472308604335
 20
85.09609097911205
 30
0.0
 11
26.08472308604335
 21
90.23115612094793
 31
0.0
  0
LINE
  5
911
330
830
100
AcDbEntity
  8
Dimension (ANSI)
100
AcDbLine
 10
58.35889633445357
 20
89.10615612094792
 30
0.0
 11
45.62247347352477
 21
89.10615612094792
 31
0.0
  0
LINE
  5
912
330
830
100
AcDbEntity
  8
Dimension (ANSI)
100
AcDbLine
 10
26.97054983763312
 20
89.10615612094792
 30
0.0
 11
39.70697269856194
 21
89.10615612094792
 31
0.0
  0
SOLID
  5
913
330
830
100
AcDbEntity
  8
Dimension (ANSI)
100
AcDbTrace
 10
58.35889633445357
 20
89.25379391287956
 30
0.0
 11
58.35889633445357
 21
88.9585183290163
 31
0.0
 12
59.24472308604334
 22
89.10615612094792
 32
0.0
 13
59.24472308604334
 23
89.10615612094792
 33
0.0
  0
SOLID
  5
914
330
830
100
AcDbEntity
  8
Dimension (ANSI)
100
AcDbTrace
 10
26.97054983763312
 20
89.25379391287956
 30
0.0
 11
26.97054983763312
 21
88.9585183290163
 31
0.0
 12
26.08472308604335
 22
89.10615612094792
 32
0.0
 13
26.08472308604335
 23
89.10615612094792
 33
0.0
  0
MTEXT
  5
915
330
830
100
AcDbEntity
  8
Dimension (ANSI)
100
AcDbMText
 10
39.99043726549108
 20
89.6461561424056
 30
0.0
 40
1.080000042915344
 41
0.0
 71
     1
 72
     1
  1
\A1;33.160
  7
Note Text (ANSI)
 73
     1
 44
1.0
1001
ACAD
1000
MTEXTBEGIN
1070
    73
1070
     1
1070
    44
1040
1.0
1070
    74
1070
     0
1000
MTEXTEND
  0
POINT
  5
916
330
830
100
AcDbEntity
  8
Defpoints
 62
     0
100
AcDbPoint
 10
59.24472308604334
 20
84.53359097911205
 30
0.0
  0
POINT
  5
917
330
830
100
AcDbEntity
  8
Defpoints
 62
     0
100
AcDbPoint
 10
26.08472308604335
 20
84.53359097911205
 30
0.0
  0
POINT
  5
918
330
830
100
AcDbEntity
  8
Defpoints
 62
     0
100
AcDbPoint
 10
26.08472308604335
 20
89.10615612094792
 30
0.0
  0
ENDBLK
  5
832
330
830
100
AcDbEntity
  8
0
100
AcDbBlockEnd
  0
BLOCK
  5
91B
330
91A
100
AcDbEntity
  8
0
100
AcDbBlockBegin
  2
*D12
 70
     1
 10
0.0
 20
0.0
 30
0.0
  3
*D12
  1

  0
LINE
  5
A0E
330
91A
100
AcDbEntity
  8
Dimension (ANSI)
100
AcDbLine
 10
59.20222308604333
 20
27.35359097911207
 30
0.0
 11
57.97778698334793
 21
27.35359097911207
 31
0.0
  0
LINE
  5
A0F
330
91A
100
AcDbEntity
  8
Dimension (ANSI)
100
AcDbLine
 10
58.70222308604335
 20
26.85359097911205
 30
0.0
 11
57.97778698334793
 21
26.85359097911205
 31
0.0
  0
LINE
  5
A10
330
91A
100
AcDbEntity
  8
Dimension (ANSI)
100
AcDbLine
 10
59.10278698334793
 20
25.96776422752228
 30
0.0
 11
59.10278698334793
 21
25.0819374759325
 31
0.0
  0
LINE
  5
A11
330
91A
100
AcDbEntity
  8
Dimension (ANSI)
100
AcDbLine
 10
59.10278698334793
 20
28.23941773070184
 30
0.0
 11
59.10278698334793
 21
29.91922041133742
 31
0.0
  0
LINE
  5
A12
330
91A
100
AcDbEntity
  8
Dimension (ANSI)
100
AcDbLine
 10
59.10278698334793
 20
29.91922041133742
 30
0.0
 11
59.9886137349377
 21
29.91922041133742
 31
0.0
  0
SOLID
  5
A13
330
91A
100
AcDbEntity
  8
Dimension (ANSI)
100
AcDbTrace
 10
58.9551491914163
 20
25.96776422752228
 30
0.0
 11
59.25042477527956
 21
25.96776422752228
 31
0.0
 12
59.10278698334793
 22
26.85359097911205
 32
0.0
 13
59.10278698334793
 23
26.85359097911205
 33
0.0
  0
SOLID
  5
A14
330
91A
100
AcDbEntity
  8
Dimension (ANSI)
100
AcDbTrace
 10
58.9551491914163
 20
28.23941773070184
 30
0.0
 11
59.25042477527956
 21
28.23941773070184
 31
0.0
 12
59.10278698334793
 22
27.35359097911207
 32
0.0
 13
59.10278698334793
 23
27.35359097911207
 33
0.0
  0
MTEXT
  5
A15
330
91A
100
AcDbEntity
  8
Dimension (ANSI)
100
AcDbMText
 10
60.27207830186683
 20
30.4592204327951
 30
0.0
 40
1.080000042915344
 41
0.0
 71
     1
 72
     1
  1
\A1;0.500
  7
Note Text (ANSI)
 73
     1
 44
1.0
1001
ACAD
1000
MTEXTBEGIN
1070
    73
1070
     1
1070
    44
1040
1.0
1070
    74
1070
     0
1000
MTEXTEND
  0
POINT
  5
A16
330
91A
100
AcDbEntity
  8
Defpoints
 62
     0
100
AcDbPoint
 10
59.76472308604334
 20
27.35359097911207
 30
0.0
  0
POINT
  5
A17
330
91A
100
AcDbEntity
  8
Defpoints
 62
     0
100
AcDbPoint
 10
59.26472308604335
 20
26.85359097911205
 30
0.0
  0
POINT
  5
A18
330
91A
100
AcDbEntity
  8
Defpoints
 62
     0
100
AcDbPoint
 10
59.10278698334793
 20
26.85359097911205
 30
0.0
  0
ENDBLK
  5
91C
330
91A
100
AcDbEntity
  8
0
100
AcDbBlockEnd
  0
BLOCK
  5
A1B
330
A1A
100
AcDbEntity
  8
0
100
AcDbBlockBegin
  2
*D13
 70
     1
 10
0.0
 20
0.0
 30
0.0
  3
*D13
  1

  0
LINE
  5
AF9
330
A1A
100
AcDbEntity
  8
Dimension (ANSI)
100
AcDbLine
 10
59.76472308604334
 20
26.79109097911206
 30
0.0
 11
59.76472308604334
 21
23.87475072731491
 31
0.0
  0
LINE
  5
AFA
330
A1A
100
AcDbEntity
  8
Dimension (ANSI)
100
AcDbLine
 10
59.26472308604335
 20
26.29109097911205
 30
0.0
 11
59.26472308604335
 21
23.87475072731491
 31
0.0
  0
LINE
  5
AFB
330
A1A
100
AcDbEntity
  8
Dimension (ANSI)
100
AcDbLine
 10
60.65054983763311
 20
24.99975072731491
 30
0.0
 11
61.53637658922288
 21
24.99975072731491
 31
0.0
  0
LINE
  5
AFC
330
A1A
100
AcDbEntity
  8
Dimension (ANSI)
100
AcDbLine
 10
58.37889633445357
 20
24.99975072731491
 30
0.0
 11
56.416895208458
 21
24.99975072731491
 31
0.0
  0
SOLID
  5
AFD
330
A1A
100
AcDbEntity
  8
Dimension (ANSI)
100
AcDbTrace
 10
60.65054983763311
 20
25.14738851924654
 30
0.0
 11
60.65054983763311
 21
24.85211293538328
 31
0.0
 12
59.76472308604334
 22
24.99975072731491
 32
0.0
 13
59.76472308604334
 23
24.99975072731491
 33
0.0
  0
SOLID
  5
AFE
330
A1A
100
AcDbEntity
  8
Dimension (ANSI)
100
AcDbTrace
 10
58.37889633445357
 20
25.14738851924654
 30
0.0
 11
58.37889633445357
 21
24.85211293538328
 31
0.0
 12
59.26472308604335
 22
24.99975072731491
 32
0.0
 13
59.26472308604335
 23
24.99975072731491
 33
0.0
  0
MTEXT
  5
AFF
330
A1A
100
AcDbEntity
  8
Dimension (ANSI)
100
AcDbMText
 10
51.81343046986749
 20
25.53975074877258
 30
0.0
 40
1.080000042915344
 41
0.0
 71
     1
 72
     1
  1
\A1;0.500
  7
Note Text (ANSI)
 73
     1
 44
1.0
1001
ACAD
1000
MTEXTBEGIN
1070
    73
1070
     1
1070
    44
1040
1.0
1070
    74
1070
     0
1000
MTEXTEND
  0
POINT
  5
B00
330
A1A
100
AcDbEntity
  8
Defpoints
 62
     0
100
AcDbPoint
 10
59.76472308604334
 20
27.35359097911206
 30
0.0
  0
POINT
  5
B01
330
A1A
100
AcDbEntity
  8
Defpoints
 62
     0
100
AcDbPoint
 10
59.26472308604335
 20
26.85359097911205
 30
0.0
  0
POINT
  5
B02
330
A1A
100
AcDbEntity
  8
Defpoints
 62
     0
100
AcDbPoint
 10
59.26472308604335
 20
24.99975072731491
 30
0.0
  0
ENDBLK
  5
A1C
330
A1A
100
AcDbEntity
  8
0
100
AcDbBlockEnd
  0
BLOCK
  5
B05
330
B04
100
AcDbEntity
  8
0
100
AcDbBlockBegin
  2
*D14
 70
     1
 10
0.0
 20
0.0
 30
0.0
  3
*D14
  1

  0
LINE
  5
BE3
330
B04
100
AcDbEntity
  8
Dimension (ANSI)
100
AcDbLine
 10
59.24472308604334
 20
85.09609097911205
 30
0.0
 11
59.24472308604334
 21
90.23115612094793
 31
0.0
  0
LINE
  5
BE4
330
B04
100
AcDbEntity
  8
Dimension (ANSI)
100
AcDbLine
 10
59.76472308604334
 20
85.11609097911202
 30
0.0
 11
59.76472308604334
 21
90.23115612094793
 31
0.0
  0
LINE
  5
BE5
330
B04
100
AcDbEntity
  8
Dimension (ANSI)
100
AcDbLine
 10
58.35889633445357
 20
89.10615612094792
 30
0.0
 11
57.4730695828638
 21
89.10615612094792
 31
0.0
  0
LINE
  5
BE6
330
B04
100
AcDbEntity
  8
Dimension (ANSI)
100
AcDbLine
 10
60.65054983763311
 20
89.10615612094792
 30
0.0
 11
61.82251497578428
 21
89.10615612094792
 31
0.0
  0
SOLID
  5
BE7
330
B04
100
AcDbEntity
  8
Dimension (ANSI)
100
AcDbTrace
 10
58.35889633445357
 20
89.25379391287956
 30
0.0
 11
58.35889633445357
 21
88.9585183290163
 31
0.0
 12
59.24472308604334
 22
89.10615612094792
 32
0.0
 13
59.24472308604334
 23
89.10615612094792
 33
0.0
  0
SOLID
  5
BE8
330
B04
100
AcDbEntity
  8
Dimension (ANSI)
100
AcDbTrace
 10
60.65054983763311
 20
89.25379391287956
 30
0.0
 11
60.65054983763311
 21
88.9585183290163
 31
0.0
 12
59.76472308604334
 22
89.10615612094792
 32
0.0
 13
59.76472308604334
 23
89.10615612094792
 33
0.0
  0
MTEXT
  5
BE9
330
B04
100
AcDbEntity
  8
Dimension (ANSI)
100
AcDbMText
 10
62.10597954271341
 20
89.6461561424056
 30
0.0
 40
1.080000042915344
 41
0.0
 71
     1
 72
     1
  1
\A1;0.520
  7
Note Text (ANSI)
 73
     1
 44
1.0
1001
ACAD
1000
MTEXTBEGIN
1070
    73
1070
     1
1070
    44
1040
1.0
1070
    74
1070
     0
1000
MTEXTEND
  0
POINT
  5
BEA
330
B04
100
AcDbEntity
  8
Defpoints
 62
     0
100
AcDbPoint
 10
59.24472308604334
 20
84.53359097911205
 30
0.0
  0
POINT
  5
BEB
330
B04
100
AcDbEntity
  8
Defpoints
 62
     0
100
AcDbPoint
 10
59.76472308604334
 20
84.55359097911204
 30
0.0
  0
POINT
  5
BEC
330
B04
100
AcDbEntity
  8
Defpoints
 62
     0
100
AcDbPoint
 10
59.76472308604334
 20
89.10615612094792
 30
0.0
  0
ENDBLK
  5
B06
330
B04
100
AcDbEntity
  8
0
100
AcDbBlockEnd
  0
BLOCK
  5
BEF
330
BEE
100
AcDbEntity
  8
0
100
AcDbBlockBegin
  2
*D15
 70
     1
 10
0.0
 20
0.0
 30
0.0
  3
*D15
  1

  0
LINE
  5
CE2
330
BEE
100
AcDbEntity
  8
Dimension (ANSI)
100
AcDbLine
 10
59.80722308604335
 20
84.53359097911205
 30
0.0
 11
72.48711225827593
 21
84.53359097911205
 31
0.0
  0
LINE
  5
CE3
330
BEE
100
AcDbEntity
  8
Dimension (ANSI)
100
AcDbLine
 10
59.82722308604333
 20
85.05359097911204
 30
0.0
 11
72.48711225827593
 21
85.05359097911204
 31
0.0
  0
LINE
  5
CE4
330
BEE
100
AcDbEntity
  8
Dimension (ANSI)
100
AcDbLine
 10
71.36211225827593
 20
85.93941773070183
 30
0.0
 11
71.36211225827593
 21
86.82524448229159
 31
0.0
  0
LINE
  5
CE5
330
BEE
100
AcDbEntity
  8
Dimension (ANSI)
100
AcDbLine
 10
71.36211225827593
 20
83.64776422752226
 30
0.0
 11
71.36211225827593
 21
81.27732058228065
 31
0.0
  0
LINE
  5
CE6
330
BEE
100
AcDbEntity
  8
Dimension (ANSI)
100
AcDbLine
 10
71.36211225827593
 20
81.27732058228065
 30
0.0
 11
70.47628550668616
 21
81.27732058228065
 31
0.0
  0
SOLID
  5
CE7
330
BEE
100
AcDbEntity
  8
Dimension (ANSI)
100
AcDbTrace
 10
71.2144744663443
 20
85.93941773070183
 30
0.0
 11
71.50975005020756
 21
85.93941773070183
 31
0.0
 12
71.36211225827593
 22
85.05359097911204
 32
0.0
 13
71.36211225827593
 23
85.05359097911204
 33
0.0
  0
SOLID
  5
CE8
330
BEE
100
AcDbEntity
  8
Dimension (ANSI)
100
AcDbTrace
 10
71.2144744663443
 20
83.64776422752226
 30
0.0
 11
71.50975005020756
 21
83.64776422752226
 31
0.0
 12
71.36211225827593
 22
84.53359097911205
 32
0.0
 13
71.36211225827593
 23
84.53359097911205
 33
0.0
  0
MTEXT
  5
CE9
330
BEE
100
AcDbEntity
  8
Dimension (ANSI)
100
AcDbMText
 10
65.87282076809562
 20
81.81732060373834
 30
0.0
 40
1.080000042915344
 41
0.0
 71
     1
 72
     1
  1
\A1;0.520
  7
Note Text (ANSI)
 73
     1
 44
1.0
1001
ACAD
1000
MTEXTBEGIN
1070
    73
1070
     1
1070
    44
1040
1.0
1070
    74
1070
     0
1000
MTEXTEND
  0
POINT
  5
CEA
330
BEE
100
AcDbEntity
  8
Defpoints
 62
     0
100
AcDbPoint
 10
59.24472308604334
 20
84.53359097911205
 30
0.0
  0
POINT
  5
CEB
330
BEE
100
AcDbEntity
  8
Defpoints
 62
     0
100
AcDbPoint
 10
59.26472308604334
 20
85.05359097911204
 30
0.0
  0
POINT
  5
CEC
330
BEE
100
AcDbEntity
  8
Defpoints
 62
     0
100
AcDbPoint
 10
71.36211225827593
 20
85.05359097911204
 30
0.0
  0
ENDBLK
  5
BF0
330
BEE
100
AcDbEntity
  8
0
100
AcDbBlockEnd
  0
BLOCK
  5
CF1
330
CF0
100
AcDbEntity
  8
0
100
AcDbBlockBegin
  2
*D16
 70
     1
 10
0.0
 20
0.0
 30
0.0
  3
*D16
  1

  0
LINE
  5
DCF
330
CF0
100
AcDbEntity
  8
Dimension (ANSI)
100
AcDbLine
 10
95.4263262676768
 20
85.61609097911205
 30
0.0
 11
95.4263262676768
 21
88.19827601848212
 31
0.0
  0
LINE
  5
DD0
330
CF0
100
AcDbEntity
  8
Dimension (ANSI)
100
AcDbLine
 10
96.20032626767644
 20
85.61609097911205
 30
0.0
 11
96.20032626767644
 21
88.19827601848212
 31
0.0
  0
LINE
  5
DD1
330
CF0
100
AcDbEntity
  8
Dimension (ANSI)
100
AcDbLine
 10
97.0861530192662
 20
87.07327601848211
 30
0.0
 11
97.97197977085598
 21
87.07327601848211
 31
0.0
  0
LINE
  5
DD2
330
CF0
100
AcDbEntity
  8
Dimension (ANSI)
100
AcDbLine
 10
94.54049951608702
 20
87.07327601848211
 30
0.0
 11
92.60421267682755
 21
87.07327601848211
 31
0.0
  0
SOLID
  5
DD3
330
CF0
100
AcDbEntity
  8
Dimension (ANSI)
100
AcDbTrace
 10
97.0861530192662
 20
87.22091381041375
 30
0.0
 11
97.0861530192662
 21
86.92563822655049
 31
0.0
 12
96.20032626767644
 22
87.07327601848211
 32
0.0
 13
96.20032626767644
 23
87.07327601848211
 33
0.0
  0
SOLID
  5
DD4
330
CF0
100
AcDbEntity
  8
Dimension (ANSI)
100
AcDbTrace
 10
94.54049951608702
 20
87.22091381041375
 30
0.0
 11
94.54049951608702
 21
86.92563822655049
 31
0.0
 12
95.4263262676768
 22
87.07327601848211
 32
0.0
 13
95.4263262676768
 23
87.07327601848211
 33
0.0
  0
MTEXT
  5
DD5
330
CF0
100
AcDbEntity
  8
Dimension (ANSI)
100
AcDbMText
 10
87.94931936476487
 20
87.61327603993979
 30
0.0
 40
1.080000042915344
 41
0.0
 71
     1
 72
     1
  1
\A1;0.774
  7
Note Text (ANSI)
 73
     1
 44
1.0
1001
ACAD
1000
MTEXTBEGIN
1070
    73
1070
     1
1070
    44
1040
1.0
1070
    74
1070
     0
1000
MTEXTEND
  0
POINT
  5
DD6
330
CF0
100
AcDbEntity
  8
Defpoints
 62
     0
100
AcDbPoint
 10
95.4263262676768
 20
85.05359097911204
 30
0.0
  0
POINT
  5
DD7
330
CF0
100
AcDbEntity
  8
Defpoints
 62
     0
100
AcDbPoint
 10
96.20032626767644
 20
85.05359097911204
 30
0.0
  0
POINT
  5
DD8
330
CF0
100
AcDbEntity
  8
Defpoints
 62
     0
100
AcDbPoint
 10
96.20032626767644
 20
87.07327601848211
 30
0.0
  0
ENDBLK
  5
CF2
330
CF0
100
AcDbEntity
  8
0
100
AcDbBlockEnd
  0
BLOCK
  5
DDB
330
DDA
100
AcDbEntity
  8
0
100
AcDbBlockBegin
  2
*D17
 70
     1
 10
0.0
 20
0.0
 30
0.0
  3
*D17
  1

  0
LINE
  5
EB9
330
DDA
100
AcDbEntity
  8
Dimension (ANSI)
100
AcDbLine
 10
25.52222308604335
 20
27.37359097911206
 30
0.0
 11
17.87742694152282
 21
27.37359097911206
 31
0.0
  0
LINE
  5
EBA
330
DDA
100
AcDbEntity
  8
Dimension (ANSI)
100
AcDbLine
 10
25.52222308604335
 20
55.95359097911205
 30
0.0
 11
17.87742694152282
 21
55.95359097911205
 31
0.0
  0
LINE
  5
EBB
330
DDA
100
AcDbEntity
  8
Dimension (ANSI)
100
AcDbLine
 10
19.00242694152282
 20
28.25941773070184
 30
0.0
 11
19.00242694152282
 21
40.84012639072524
 31
0.0
  0
LINE
  5
EBC
330
DDA
100
AcDbEntity
  8
Dimension (ANSI)
100
AcDbLine
 10
19.00242694152282
 20
55.06776422752228
 30
0.0
 11
19.00242694152282
 21
42.48705556749885
 31
0.0
  0
SOLID
  5
EBD
330
DDA
100
AcDbEntity
  8
Dimension (ANSI)
100
AcDbTrace
 10
18.85478914959119
 20
28.25941773070184
 30
0.0
 11
19.15006473345444
 21
28.25941773070184
 31
0.0
 12
19.00242694152282
 22
27.37359097911206
 32
0.0
 13
19.00242694152282
 23
27.37359097911206
 33
0.0
  0
SOLID
  5
EBE
330
DDA
100
AcDbEntity
  8
Dimension (ANSI)
100
AcDbTrace
 10
18.85478914959119
 20
55.06776422752228
 30
0.0
 11
19.15006473345445
 21
55.06776422752228
 31
0.0
 12
19.00242694152282
 22
55.95359097911205
 32
0.0
 13
19.00242694152282
 23
55.95359097911205
 33
0.0
  0
MTEXT
  5
EBF
330
DDA
100
AcDbEntity
  8
Dimension (ANSI)
100
AcDbMText
 10
16.32814112097053
 20
42.20359100056972
 30
0.0
 40
1.080000042915344
 41
0.0
 71
     1
 72
     1
  1
\A1;28.580
  7
Note Text (ANSI)
 73
     1
 44
1.0
1001
ACAD
1000
MTEXTBEGIN
1070
    73
1070
     1
1070
    44
1040
1.0
1070
    74
1070
     0
1000
MTEXTEND
  0
POINT
  5
EC0
330
DDA
100
AcDbEntity
  8
Defpoints
 62
     0
100
AcDbPoint
 10
26.08472308604335
 20
27.37359097911206
 30
0.0
  0
POINT
  5
EC1
330
DDA
100
AcDbEntity
  8
Defpoints
 62
     0
100
AcDbPoint
 10
26.08472308604335
 20
55.95359097911205
 30
0.0
  0
POINT
  5
EC2
330
DDA
100
AcDbEntity
  8
Defpoints
 62
     0
100
AcDbPoint
 10
19.00242694152282
 20
55.95359097911205
 30
0.0
  0
ENDBLK
  5
DDC
330
DDA
100
AcDbEntity
  8
0
100
AcDbBlockEnd
  0
BLOCK
  5
EC5
330
EC4
100
AcDbEntity
  8
0
100
AcDbBlockBegin
  2
*D18
 70
     1
 10
0.0
 20
0.0
 30
0.0
  3
*D18
  1

  0
LINE
  5
FA3
330
EC4
100
AcDbEntity
  8
Dimension (ANSI)
100
AcDbLine
 10
26.08472308604335
 20
85.09609097911205
 30
0.0
 11
26.08472308604335
 21
87.8808427836058
 31
0.0
  0
LINE
  5
FA4
330
EC4
100
AcDbEntity
  8
Dimension (ANSI)
100
AcDbLine
 10
42.66472308604333
 20
85.09609097911205
 30
0.0
 11
42.66472308604333
 21
87.8808427836058
 31
0.0
  0
LINE
  5
FA5
330
EC4
100
AcDbEntity
  8
Dimension (ANSI)
100
AcDbLine
 10
26.97054983763312
 20
86.75584278360579
 30
0.0
 11
31.49411555877016
 21
86.75584278360579
 31
0.0
  0
LINE
  5
FA6
330
EC4
100
AcDbEntity
  8
Dimension (ANSI)
100
AcDbLine
 10
41.77889633445356
 20
86.75584278360579
 30
0.0
 11
37.25533061331652
 21
86.75584278360579
 31
0.0
  0
SOLID
  5
FA7
330
EC4
100
AcDbEntity
  8
Dimension (ANSI)
100
AcDbTrace
 10
26.97054983763312
 20
86.90348057553743
 30
0.0
 11
26.97054983763312
 21
86.60820499167417
 31
0.0
 12
26.08472308604335
 22
86.75584278360579
 32
0.0
 13
26.08472308604335
 23
86.75584278360579
 33
0.0
  0
SOLID
  5
FA8
330
EC4
100
AcDbEntity
  8
Dimension (ANSI)
100
AcDbTrace
 10
41.77889633445356
 20
86.90348057553743
 30
0.0
 11
41.77889633445356
 21
86.60820499167417
 31
0.0
 12
42.66472308604333
 22
86.75584278360579
 32
0.0
 13
42.66472308604333
 23
86.75584278360579
 33
0.0
  0
MTEXT
  5
FA9
330
EC4
100
AcDbEntity
  8
Dimension (ANSI)
100
AcDbMText
 10
31.7775801256993
 20
87.29584280506347
 30
0.0
 40
1.080000042915344
 41
0.0
 71
     1
 72
     1
  1
\A1;16.580
  7
Note Text (ANSI)
 73
     1
 44
1.0
1001
ACAD
1000
MTEXTBEGIN
1070
    73
1070
     1
1070
    44
1040
1.0
1070
    74
1070
     0
1000
MTEXTEND
  0
POINT
  5
FAA
330
EC4
100
AcDbEntity
  8
Defpoints
 62
     0
100
AcDbPoint
 10
26.08472308604335
 20
84.53359097911205
 30
0.0
  0
POINT
  5
FAB
330
EC4
100
AcDbEntity
  8
Defpoints
 62
     0
100
AcDbPoint
 10
42.66472308604333
 20
84.53359097911205
 30
0.0
  0
POINT
  5
FAC
330
EC4
100
AcDbEntity
  8
Defpoints
 62
     0
100
AcDbPoint
 10
42.66472308604333
 20
86.75584278360579
 30
0.0
  0
ENDBLK
  5
EC6
330
EC4
100
AcDbEntity
  8
0
100
AcDbBlockEnd
  0
ENDSEC
  0
SECTION
  2
ENTITIES
  0
CIRCLE
  5
11B
330
6C
100
AcDbEntity
  8
Visible (ANSI)
100
AcDbCircle
 10
59.24472308604336
 20
55.95359097911205
 30
0.0
 40
0.2500000000000005
  0
CIRCLE
  5
11C
330
6C
100
AcDbEntity
  8
Visible (ANSI)
100
AcDbCircle
 10
26.08472308604335
 20
55.95359097911205
 30
0.0
 40
0.2500000000000005
  0
CIRCLE
  5
11D
330
6C
100
AcDbEntity
  8
Visible (ANSI)
100
AcDbCircle
 10
42.66472308604332
 20
27.37359097911205
 30
0.0
 40
0.2499999999999999
  0
CIRCLE
  5
11E
330
6C
100
AcDbEntity
  8
Visible (ANSI)
100
AcDbCircle
 10
42.66472308604332
 20
84.53359097911205
 30
0.0
 40
0.2499999999999999
  0
LINE
  5
11F
330
6C
100
AcDbEntity
  8
Visible (ANSI)
100
AcDbLine
 10
27.28272308604335
 20
26.85359097911205
 30
0.0
 11
58.04672308604335
 21
26.85359097911205
 31
0.0
  0
LINE
  5
120
330
6C
100
AcDbEntity
  8
Visible (ANSI)
100
AcDbLine
 10
27.28272308604335
 20
26.85359097911205
 30
0.0
 11
27.28272308604335
 21
26.97859097911205
 31
0.0
  0
LINE
  5
121
330
6C
100
AcDbEntity
  8
Visible (ANSI)
100
AcDbLine
 10
58.04672308604335
 20
26.85359097911205
 30
0.0
 11
58.04672308604335
 21
26.97859097911205
 31
0.0
  0
LINE
  5
122
330
6C
100
AcDbEntity
  8
Visible (ANSI)
100
AcDbLine
 10
58.04692308604335
 20
26.97879097911205
 30
0.0
 11
58.04692308604335
 21
26.85359097911205
 31
0.0
  0
LINE
  5
123
330
6C
100
AcDbEntity
  8
Visible (ANSI)
100
AcDbLine
 10
58.04672308604335
 20
26.97879097911205
 30
0.0
 11
58.04692308604335
 21
26.97879097911205
 31
0.0
  0
LINE
  5
124
330
6C
100
AcDbEntity
  8
Visible (ANSI)
100
AcDbLine
 10
27.28252308604335
 20
26.97879097911205
 30
0.0
 11
27.28272308604335
 21
26.97879097911205
 31
0.0
  0
LINE
  5
125
330
6C
100
AcDbEntity
  8
Visible (ANSI)
100
AcDbLine
 10
27.28252308604335
 20
26.85359097911205
 30
0.0
 11
27.28252308604335
 21
26.97879097911205
 31
0.0
  0
LINE
  5
126
330
6C
100
AcDbEntity
  8
Hidden (ANSI)
 48
1.102474570274353
100
AcDbLine
 10
58.04672308604335
 20
26.94734097911205
 30
0.0
 11
27.28272308604335
 21
26.94734097911205
 31
0.0
  0
LINE
  5
127
330
6C
100
AcDbEntity
  8
Visible (ANSI)
100
AcDbLine
 10
27.28272308604335
 20
26.97879097911205
 30
0.0
 11
27.28272308604335
 21
26.97859097911205
 31
0.0
  0
LINE
  5
128
330
6C
100
AcDbEntity
  8
Visible (ANSI)
100
AcDbLine
 10
58.04672308604335
 20
26.97859097911205
 30
0.0
 11
58.04672308604335
 21
26.97879097911205
 31
0.0
  0
LINE
  5
129
330
6C
100
AcDbEntity
  8
Visible (ANSI)
100
AcDbLine
 10
27.28252308604335
 20
26.85359097911205
 30
0.0
 11
26.06472308604335
 21
26.85359097911205
 31
0.0
  0
LINE
  5
12A
330
6C
100
AcDbEntity
  8
Visible (ANSI)
100
AcDbLine
 10
59.26472308604335
 20
26.85359097911205
 30
0.0
 11
58.04692308604335
 21
26.85359097911205
 31
0.0
  0
LINE
  5
12B
330
6C
100
AcDbEntity
  8
Visible (ANSI)
100
AcDbLine
 10
59.76472308604334
 20
28.57139097911204
 30
0.0
 11
59.76472308604334
 21
27.35359097911205
 31
0.0
  0
LINE
  5
12C
330
6C
100
AcDbEntity
  8
Visible (ANSI)
100
AcDbLine
 10
59.76472308604334
 20
84.55359097911204
 30
0.0
 11
59.76472308604334
 21
83.33579097911202
 31
0.0
  0
LINE
  5
12D
330
6C
100
AcDbEntity
  8
Visible (ANSI)
100
AcDbLine
 10
58.04692308604333
 20
85.05359097911204
 30
0.0
 11
59.26472308604334
 21
85.05359097911204
 31
0.0
  0
LINE
  5
12E
330
6C
100
AcDbEntity
  8
Visible (ANSI)
100
AcDbLine
 10
26.06472308604333
 20
85.05359097911204
 30
0.0
 11
27.28252308604333
 21
85.05359097911204
 31
0.0
  0
LINE
  5
12F
330
6C
100
AcDbEntity
  8
Visible (ANSI)
100
AcDbLine
 10
25.56472308604333
 20
83.33579097911202
 30
0.0
 11
25.56472308604333
 21
84.55359097911204
 31
0.0
  0
LINE
  5
130
330
6C
100
AcDbEntity
  8
Visible (ANSI)
100
AcDbLine
 10
25.56472308604335
 20
27.35359097911205
 30
0.0
 11
25.56472308604335
 21
28.57139097911205
 31
0.0
  0
LINE
  5
131
330
6C
100
AcDbEntity
  8
Visible (ANSI)
100
AcDbLine
 10
59.76472308604334
 20
27.35359097911205
 30
0.0
 11
59.26472308604335
 21
26.85359097911205
 31
0.0
  0
LINE
  5
132
330
6C
100
AcDbEntity
  8
Visible (ANSI)
100
AcDbLine
 10
59.76472308604334
 20
28.57139097911204
 30
0.0
 11
59.63952308604335
 21
28.57139097911204
 31
0.0
  0
LINE
  5
133
330
6C
100
AcDbEntity
  8
Visible (ANSI)
100
AcDbLine
 10
59.63952308604335
 20
28.57139097911204
 30
0.0
 11
59.63952308604335
 21
28.57159097911205
 31
0.0
  0
LINE
  5
134
330
6C
100
AcDbEntity
  8
Visible (ANSI)
100
AcDbLine
 10
59.63952308604335
 20
83.33559097911203
 30
0.0
 11
59.63952308604335
 21
83.33579097911202
 31
0.0
  0
LINE
  5
135
330
6C
100
AcDbEntity
  8
Visible (ANSI)
100
AcDbLine
 10
59.63952308604335
 20
83.33579097911202
 30
0.0
 11
59.76472308604334
 21
83.33579097911202
 31
0.0
  0
LINE
  5
136
330
6C
100
AcDbEntity
  8
Visible (ANSI)
100
AcDbLine
 10
59.76472308604334
 20
28.57159097911205
 30
0.0
 11
59.76472308604331
 21
83.33559097911203
 31
0.0
  0
LINE
  5
137
330
6C
100
AcDbEntity
  8
Visible (ANSI)
100
AcDbLine
 10
59.76472308604334
 20
28.57159097911205
 30
0.0
 11
59.63972308604336
 21
28.57159097911205
 31
0.0
  0
LINE
  5
138
330
6C
100
AcDbEntity
  8
Visible (ANSI)
100
AcDbLine
 10
59.76472308604332
 20
83.33559097911203
 30
0.0
 11
59.63972308604335
 21
83.33559097911203
 31
0.0
  0
LINE
  5
139
330
6C
100
AcDbEntity
  8
Hidden (ANSI)
 48
1.090306043624877
100
AcDbLine
 10
59.67097308604333
 20
83.33559097911203
 30
0.0
 11
59.67097308604333
 21
28.57159097911205
 31
0.0
  0
LINE
  5
13A
330
6C
100
AcDbEntity
  8
Visible (ANSI)
100
AcDbLine
 10
59.63952308604335
 20
28.57159097911205
 30
0.0
 11
59.63972308604336
 21
28.57159097911205
 31
0.0
  0
LINE
  5
13B
330
6C
100
AcDbEntity
  8
Visible (ANSI)
100
AcDbLine
 10
59.63972308604335
 20
83.33559097911203
 30
0.0
 11
59.63952308604335
 21
83.33559097911203
 31
0.0
  0
LINE
  5
13C
330
6C
100
AcDbEntity
  8
Visible (ANSI)
100
AcDbLine
 10
59.26472308604334
 20
85.05359097911204
 30
0.0
 11
59.76472308604334
 21
84.55359097911204
 31
0.0
  0
LINE
  5
13D
330
6C
100
AcDbEntity
  8
Visible (ANSI)
100
AcDbLine
 10
58.04692308604333
 20
85.05359097911204
 30
0.0
 11
58.04692308604333
 21
84.92839097911204
 31
0.0
  0
LINE
  5
13E
330
6C
100
AcDbEntity
  8
Visible (ANSI)
100
AcDbLine
 10
58.04692308604333
 20
84.92839097911204
 30
0.0
 11
58.04672308604333
 21
84.92839097911204
 31
0.0
  0
LINE
  5
13F
330
6C
100
AcDbEntity
  8
Visible (ANSI)
100
AcDbLine
 10
27.28272308604333
 20
84.92839097911204
 30
0.0
 11
27.28252308604333
 21
84.92839097911204
 31
0.0
  0
LINE
  5
140
330
6C
100
AcDbEntity
  8
Visible (ANSI)
100
AcDbLine
 10
27.28252308604333
 20
84.92839097911204
 30
0.0
 11
27.28252308604333
 21
85.05359097911204
 31
0.0
  0
LINE
  5
141
330
6C
100
AcDbEntity
  8
Visible (ANSI)
100
AcDbLine
 10
58.04672308604333
 20
85.05359097911204
 30
0.0
 11
27.28272308604333
 21
85.05359097911204
 31
0.0
  0
LINE
  5
142
330
6C
100
AcDbEntity
  8
Visible (ANSI)
100
AcDbLine
 10
58.04672308604333
 20
85.05359097911203
 30
0.0
 11
58.04672308604333
 21
84.92859097911203
 31
0.0
  0
LINE
  5
143
330
6C
100
AcDbEntity
  8
Visible (ANSI)
100
AcDbLine
 10
27.28272308604333
 20
85.05359097911203
 30
0.0
 11
27.28272308604334
 21
84.92859097911203
 31
0.0
  0
LINE
  5
144
330
6C
100
AcDbEntity
  8
Hidden (ANSI)
 48
1.102474570274353
100
AcDbLine
 10
27.28272308604333
 20
84.95984097911204
 30
0.0
 11
58.04672308604333
 21
84.95984097911204
 31
0.0
  0
LINE
  5
145
330
6C
100
AcDbEntity
  8
Visible (ANSI)
100
AcDbLine
 10
58.04672308604333
 20
84.92839097911204
 30
0.0
 11
58.04672308604333
 21
84.92859097911203
 31
0.0
  0
LINE
  5
146
330
6C
100
AcDbEntity
  8
Visible (ANSI)
100
AcDbLine
 10
27.28272308604333
 20
84.92859097911203
 30
0.0
 11
27.28272308604333
 21
84.92839097911204
 31
0.0
  0
LINE
  5
147
330
6C
100
AcDbEntity
  8
Visible (ANSI)
100
AcDbLine
 10
25.56472308604333
 20
84.55359097911204
 30
0.0
 11
26.06472308604333
 21
85.05359097911204
 31
0.0
  0
LINE
  5
148
330
6C
100
AcDbEntity
  8
Visible (ANSI)
100
AcDbLine
 10
25.56472308604333
 20
83.33579097911202
 30
0.0
 11
25.68992308604332
 21
83.33579097911202
 31
0.0
  0
LINE
  5
149
330
6C
100
AcDbEntity
  8
Visible (ANSI)
100
AcDbLine
 10
25.68992308604332
 20
83.33579097911202
 30
0.0
 11
25.68992308604332
 21
83.33559097911203
 31
0.0
  0
LINE
  5
14A
330
6C
100
AcDbEntity
  8
Visible (ANSI)
100
AcDbLine
 10
25.68992308604333
 20
28.57159097911205
 30
0.0
 11
25.68992308604333
 21
28.57139097911205
 31
0.0
  0
LINE
  5
14B
330
6C
100
AcDbEntity
  8
Visible (ANSI)
100
AcDbLine
 10
25.68992308604333
 20
28.57139097911205
 30
0.0
 11
25.56472308604335
 21
28.57139097911205
 31
0.0
  0
LINE
  5
14C
330
6C
100
AcDbEntity
  8
Visible (ANSI)
100
AcDbLine
 10
25.56472308604335
 20
83.33559097911203
 30
0.0
 11
25.56472308604337
 21
28.57159097911206
 31
0.0
  0
LINE
  5
14D
330
6C
100
AcDbEntity
  8
Visible (ANSI)
100
AcDbLine
 10
25.56472308604335
 20
83.33559097911203
 30
0.0
 11
25.68972308604332
 21
83.33559097911203
 31
0.0
  0
LINE
  5
14E
330
6C
100
AcDbEntity
  8
Visible (ANSI)
100
AcDbLine
 10
25.56472308604337
 20
28.57159097911205
 30
0.0
 11
25.68972308604333
 21
28.57159097911205
 31
0.0
  0
LINE
  5
14F
330
6C
100
AcDbEntity
  8
Hidden (ANSI)
 48
1.090306043624877
100
AcDbLine
 10
25.65847308604336
 20
28.57159097911205
 30
0.0
 11
25.65847308604335
 21
83.33559097911203
 31
0.0
  0
LINE
  5
150
330
6C
100
AcDbEntity
  8
Visible (ANSI)
100
AcDbLine
 10
25.68992308604332
 20
83.33559097911203
 30
0.0
 11
25.68972308604332
 21
83.33559097911203
 31
0.0
  0
LINE
  5
151
330
6C
100
AcDbEntity
  8
Visible (ANSI)
100
AcDbLine
 10
25.68972308604333
 20
28.57159097911205
 30
0.0
 11
25.68992308604333
 21
28.57159097911205
 31
0.0
  0
LINE
  5
152
330
6C
100
AcDbEntity
  8
Visible (ANSI)
100
AcDbLine
 10
26.06472308604335
 20
26.85359097911205
 30
0.0
 11
25.56472308604335
 21
27.35359097911205
 31
0.0
  0
CIRCLE
  5
153
330
6C
100
AcDbEntity
  8
Visible (ANSI)
100
AcDbCircle
 10
59.24472308604336
 20
84.53359097911205
 30
0.0
 40
0.25
  0
CIRCLE
  5
154
330
6C
100
AcDbEntity
  8
Visible (ANSI)
100
AcDbCircle
 10
26.08472308604335
 20
84.53359097911205
 30
0.0
 40
0.25
  0
CIRCLE
  5
155
330
6C
100
AcDbEntity
  8
Visible (ANSI)
100
AcDbCircle
 10
26.08472308604335
 20
27.37359097911205
 30
0.0
 40
0.25
  0
CIRCLE
  5
156
330
6C
100
AcDbEntity
  8
Visible (ANSI)
100
AcDbCircle
 10
59.24472308604334
 20
27.37359097911205
 30
0.0
 40
0.25
  0
CIRCLE
  5
157
330
6C
100
AcDbEntity
  8
Visible (ANSI)
100
AcDbCircle
 10
59.24472308604334
 20
83.78359097911205
 30
0.0
 40
0.15625
  0
CIRCLE
  5
158
330
6C
100
AcDbEntity
  8
Visible (ANSI)
100
AcDbCircle
 10
26.08472308604335
 20
83.78359097911205
 30
0.0
 40
0.15625
  0
CIRCLE
  5
159
330
6C
100
AcDbEntity
  8
Visible (ANSI)
100
AcDbCircle
 10
26.08472308604335
 20
28.12359097911205
 30
0.0
 40
0.15625
  0
CIRCLE
  5
15A
330
6C
100
AcDbEntity
  8
Visible (ANSI)
100
AcDbCircle
 10
59.24472308604334
 20
28.12359097911205
 30
0.0
 40
0.15625
  0
LINE
  5
15B
330
6C
100
AcDbEntity
  8
Visible (ANSI)
100
AcDbLine
 10
96.20032626767644
 20
26.85359097911205
 30
0.0
 11
95.55132626767642
 21
26.85359097911205
 31
0.0
  0
LINE
  5
15C
330
6C
100
AcDbEntity
  8
Visible (ANSI)
100
AcDbLine
 10
96.20032626767644
 20
26.94734097911205
 30
0.0
 11
96.20032626767644
 21
26.85359097911205
 31
0.0
  0
LINE
  5
15D
330
6C
100
AcDbEntity
  8
Visible (ANSI)
100
AcDbLine
 10
95.55132626767642
 20
26.94734097911205
 30
0.0
 11
96.20032626767644
 21
26.94734097911205
 31
0.0
  0
ARC
  5
15E
330
6C
100
AcDbEntity
  8
Visible (ANSI)
100
AcDbCircle
 10
95.55132626767642
 20
26.97859097911205
 30
0.0
 40
0.03125
100
AcDbArc
 50
180.0
 51
270.0
  0
ARC
  5
15F
330
6C
100
AcDbEntity
  8
Visible (ANSI)
100
AcDbCircle
 10
95.55132626767642
 20
26.97859097911205
 30
0.0
 40
0.1250000000000007
100
AcDbArc
 50
255.5224878140698
 51
270.0
  0
ARC
  5
160
330
6C
100
AcDbEntity
  8
Hidden (ANSI)
 48
0.0347695983946324
100
AcDbCircle
 10
95.55132626767642
 20
26.97859097911205
 30
0.0
 40
0.125
100
AcDbArc
 50
180.0
 51
255.5224878140695
  0
LINE
  5
161
330
6C
100
AcDbEntity
  8
Hidden (ANSI)
 48
0.0197405889630318
100
AcDbLine
 10
95.42632626767645
 20
26.97879097911205
 30
0.0
 11
95.52007626767643
 21
26.97879097911205
 31
0.0
  0
LINE
  5
162
330
6C
100
AcDbEntity
  8
Visible (ANSI)
100
AcDbLine
 10
95.52007626767695
 20
84.55359097911204
 30
0.0
 11
95.52007626767681
 21
85.05359097911204
 31
0.0
  0
LINE
  5
163
330
6C
100
AcDbEntity
  8
Visible (ANSI)
100
AcDbLine
 10
95.4263262676768
 20
85.05359097911204
 30
0.0
 11
95.42632626767694
 21
84.55359097911204
 31
0.0
  0
LINE
  5
164
330
6C
100
AcDbEntity
  8
Visible (ANSI)
100
AcDbLine
 10
95.52007626767681
 20
85.05359097911204
 30
0.0
 11
95.4263262676768
 21
85.05359097911204
 31
0.0
  0
LINE
  5
165
330
6C
100
AcDbEntity
  8
Visible (ANSI)
100
AcDbLine
 10
95.42632626767694
 20
84.55359097911204
 30
0.0
 11
95.52007626767695
 21
84.55359097911204
 31
0.0
  0
LINE
  5
166
330
6C
100
AcDbEntity
  8
Visible (ANSI)
100
AcDbLine
 10
95.52007626767695
 20
83.33579097911202
 30
0.0
 11
95.52007626767695
 21
84.55359097911204
 31
0.0
  0
LINE
  5
167
330
6C
100
AcDbEntity
  8
Visible (ANSI)
100
AcDbLine
 10
95.52007626767695
 20
27.35359097911205
 30
0.0
 11
95.52007626767695
 21
28.57139097911204
 31
0.0
  0
LINE
  5
168
330
6C
100
AcDbEntity
  8
Visible (ANSI)
100
AcDbLine
 10
95.42632626767694
 20
28.57139097911204
 30
0.0
 11
95.42632626767694
 21
27.35359097911205
 31
0.0
  0
LINE
  5
169
330
6C
100
AcDbEntity
  8
Visible (ANSI)
100
AcDbLine
 10
95.42632626767694
 20
84.55359097911204
 30
0.0
 11
95.42632626767694
 21
83.33579097911202
 31
0.0
  0
LINE
  5
16A
330
6C
100
AcDbEntity
  8
Visible (ANSI)
100
AcDbLine
 10
95.52007626767691
 20
83.33579097911202
 30
0.0
 11
95.52007626767691
 21
83.33559097911203
 31
0.0
  0
LINE
  5
16B
330
6C
100
AcDbEntity
  8
Visible (ANSI)
100
AcDbLine
 10
95.52007626767691
 20
28.57159097911205
 30
0.0
 11
95.52007626767691
 21
28.57139097911204
 31
0.0
  0
LINE
  5
16C
330
6C
100
AcDbEntity
  8
Visible (ANSI)
100
AcDbLine
 10
95.42632626767691
 20
28.57139097911204
 30
0.0
 11
95.42632626767691
 21
28.57159097911205
 31
0.0
  0
LINE
  5
16D
330
6C
100
AcDbEntity
  8
Visible (ANSI)
100
AcDbLine
 10
95.42632626767691
 20
28.57159097911205
 30
0.0
 11
95.42632626767691
 21
83.33559097911203
 31
0.0
  0
LINE
  5
16E
330
6C
100
AcDbEntity
  8
Visible (ANSI)
100
AcDbLine
 10
95.42632626767691
 20
83.33559097911203
 30
0.0
 11
95.42632626767691
 21
83.33579097911202
 31
0.0
  0
LINE
  5
16F
330
6C
100
AcDbEntity
  8
Visible (ANSI)
100
AcDbLine
 10
95.55132626767697
 20
28.57159097911205
 30
0.0
 11
95.42632626767689
 21
28.57159097911205
 31
0.0
  0
LINE
  5
170
330
6C
100
AcDbEntity
  8
Visible (ANSI)
100
AcDbLine
 10
95.55132626767697
 20
83.33559097911203
 30
0.0
 11
95.42632626767691
 21
83.33559097911203
 31
0.0
  0
LINE
  5
171
330
6C
100
AcDbEntity
  8
Visible (ANSI)
100
AcDbLine
 10
95.42632626767694
 20
83.33579097911202
 30
0.0
 11
95.52007626767695
 21
83.33579097911202
 31
0.0
  0
LINE
  5
172
330
6C
100
AcDbEntity
  8
Visible (ANSI)
100
AcDbLine
 10
95.52007626767695
 20
28.57139097911204
 30
0.0
 11
95.42632626767694
 21
28.57139097911204
 31
0.0
  0
LINE
  5
173
330
6C
100
AcDbEntity
  8
Hidden (ANSI)
 48
1.090306043624877
100
AcDbLine
 10
95.52007626767691
 20
83.33559097911203
 30
0.0
 11
95.52007626767691
 21
28.57159097911205
 31
0.0
  0
LINE
  5
174
330
6C
100
AcDbEntity
  8
Visible (ANSI)
100
AcDbLine
 10
95.52007626767681
 20
26.85359097911205
 30
0.0
 11
95.52007626767695
 21
27.35359097911205
 31
0.0
  0
LINE
  5
175
330
6C
100
AcDbEntity
  8
Visible (ANSI)
100
AcDbLine
 10
95.42632626767694
 20
27.35359097911205
 30
0.0
 11
95.4263262676768
 21
26.85359097911205
 31
0.0
  0
LINE
  5
176
330
6C
100
AcDbEntity
  8
Visible (ANSI)
100
AcDbLine
 10
95.4263262676768
 20
26.85359097911205
 30
0.0
 11
95.52007626767681
 21
26.85359097911205
 31
0.0
  0
LINE
  5
177
330
6C
100
AcDbEntity
  8
Visible (ANSI)
100
AcDbLine
 10
95.52007626767695
 20
27.35359097911205
 30
0.0
 11
95.42632626767694
 21
27.35359097911205
 31
0.0
  0
LINE
  5
178
330
6C
100
AcDbEntity
  8
Visible (ANSI)
100
AcDbLine
 10
95.55132626767703
 20
85.05359097911204
 30
0.0
 11
96.20032626767644
 21
85.05359097911204
 31
0.0
  0
LINE
  5
179
330
6C
100
AcDbEntity
  8
Visible (ANSI)
100
AcDbLine
 10
96.20032626767644
 20
84.95984097911204
 30
0.0
 11
95.55132626767703
 21
84.95984097911204
 31
0.0
  0
LINE
  5
17A
330
6C
100
AcDbEntity
  8
Visible (ANSI)
100
AcDbLine
 10
96.20032626767644
 20
85.05359097911204
 30
0.0
 11
96.20032626767644
 21
84.95984097911204
 31
0.0
  0
ARC
  5
17B
330
6C
100
AcDbEntity
  8
Hidden (ANSI)
 48
0.0347695983946324
100
AcDbCircle
 10
95.55132626767642
 20
84.92859097911205
 30
0.0
 40
0.1249999999999987
100
AcDbArc
 50
104.4775121859308
 51
180.0
  0
LINE
  5
17C
330
6C
100
AcDbEntity
  8
Hidden (ANSI)
 48
0.0197405889630318
100
AcDbLine
 10
95.42632626767645
 20
84.92839097911204
 30
0.0
 11
95.52007626767643
 21
84.92839097911204
 31
0.0
  0
ARC
  5
17D
330
6C
100
AcDbEntity
  8
Visible (ANSI)
100
AcDbCircle
 10
95.55132626767639
 20
84.92859097911244
 30
0.0
 40
0.1249999999996067
100
AcDbArc
 50
89.9999999997115
 51
104.4775121859532
  0
ARC
  5
17E
330
6C
100
AcDbEntity
  8
Visible (ANSI)
100
AcDbCircle
 10
95.55132626767642
 20
84.92859097911205
 30
0.0
 40
0.0312499999999881
100
AcDbArc
 50
89.99999999891523
 51
180.0
  0
LINE
  5
17F
330
6C
100
AcDbEntity
  8
Visible (ANSI)
100
AcDbLine
 10
95.55132626767697
 20
28.57159097911205
 30
0.0
 11
96.20032626767695
 21
28.57159097911205
 31
0.0
  0
LINE
  5
180
330
6C
100
AcDbEntity
  8
Visible (ANSI)
100
AcDbLine
 10
96.20032626767695
 20
83.33559097911203
 30
0.0
 11
96.20032626767695
 21
28.57159097911205
 31
0.0
  0
LINE
  5
181
330
6C
100
AcDbEntity
  8
Visible (ANSI)
100
AcDbLine
 10
96.20032626767695
 20
83.33559097911203
 30
0.0
 11
95.55132626767697
 21
83.33559097911203
 31
0.0
  0
LINE
  5
182
330
6C
100
AcDbEntity
  8
Hidden (ANSI)
 48
0.0197405889630318
100
AcDbLine
 10
95.4263262676768
 20
56.20359097911205
 30
0.0
 11
95.52007626767679
 21
56.20359097911205
 31
0.0
  0
LINE
  5
183
330
6C
100
AcDbEntity
  8
Hidden (ANSI)
 48
0.0197405889630318
100
AcDbLine
 10
95.4263262676768
 20
55.70359097911204
 30
0.0
 11
95.52007626767679
 21
55.70359097911204
 31
0.0
  0
LINE
  5
184
330
6C
100
AcDbEntity
  8
Hidden (ANSI)
 48
0.0197405889630318
100
AcDbLine
 10
95.4263262676768
 20
84.78359097911205
 30
0.0
 11
95.52007626767679
 21
84.78359097911205
 31
0.0
  0
LINE
  5
185
330
6C
100
AcDbEntity
  8
Hidden (ANSI)
 48
0.0197405889630318
100
AcDbLine
 10
95.4263262676768
 20
84.28359097911204
 30
0.0
 11
95.52007626767679
 21
84.28359097911204
 31
0.0
  0
LINE
  5
186
330
6C
100
AcDbEntity
  8
Hidden (ANSI)
 48
0.0197405889630318
100
AcDbLine
 10
95.4263262676768
 20
27.62359097911205
 30
0.0
 11
95.52007626767679
 21
27.62359097911205
 31
0.0
  0
LINE
  5
187
330
6C
100
AcDbEntity
  8
Hidden (ANSI)
 48
0.0197405889630318
100
AcDbLine
 10
95.4263262676768
 20
27.12359097911205
 30
0.0
 11
95.52007626767679
 21
27.12359097911205
 31
0.0
  0
LINE
  5
188
330
6C
100
AcDbEntity
  8
Hidden (ANSI)
 48
0.0197405889630318
100
AcDbLine
 10
95.4263262676768
 20
83.93984097911205
 30
0.0
 11
95.52007626767679
 21
83.93984097911205
 31
0.0
  0
LINE
  5
189
330
6C
100
AcDbEntity
  8
Hidden (ANSI)
 48
0.0197405889630318
100
AcDbLine
 10
95.4263262676768
 20
83.62734097911205
 30
0.0
 11
95.52007626767679
 21
83.62734097911205
 31
0.0
  0
LINE
  5
18A
330
6C
100
AcDbEntity
  8
Hidden (ANSI)
 48
0.0197405889630318
100
AcDbLine
 10
95.4263262676768
 20
28.27984097911205
 30
0.0
 11
95.52007626767679
 21
28.27984097911205
 31
0.0
  0
LINE
  5
18B
330
6C
100
AcDbEntity
  8
Hidden (ANSI)
 48
0.0197405889630318
100
AcDbLine
 10
95.4263262676768
 20
27.96734097911205
 30
0.0
 11
95.52007626767679
 21
27.96734097911205
 31
0.0
  0
ELLIPSE
  5
18C
330
6C
100
AcDbEntity
  8
Visible (ANSI)
100
AcDbEllipse
 10
144.0151366035783
 20
64.69476777266692
 30
0.0
 11
-0.080201605433209
 21
0.139272337951904
 31
0.0
210
0.0
220
0.0
230
1.0
 40
0.5780931159158113
 41
0.2678448778125816
 42
2.873747775777061
  0
ELLIPSE
  5
18D
330
6C
100
AcDbEntity
  8
Visible (ANSI)
100
AcDbEllipse
 10
143.972520793105
 20
64.6702269595589
 30
0.0
 11
-0.0802016054332086
 21
0.1392723379519032
 31
0.0
210
0.0
220
0.0
230
1.0
 40
0.5780931159158113
 41
0.0
 42
6.283185307179586
  0
ELLIPSE
  5
18E
330
6C
100
AcDbEntity
  8
Visible (ANSI)
100
AcDbEllipse
 10
128.9416403337679
 20
73.37501697439311
 30
0.0
 11
-0.0802016054332088
 21
0.1392723379519037
 31
0.0
210
0.0
220
0.0
230
1.0
 40
0.5780931159158113
 41
0.2678448778125814
 42
2.873747775777308
  0
ELLIPSE
  5
18F
330
6C
100
AcDbEntity
  8
Visible (ANSI)
100
AcDbEllipse
 10
128.8990245232946
 20
73.35047616128509
 30
0.0
 11
-0.0802016054332086
 21
0.1392723379519032
 31
0.0
210
0.0
220
0.0
230
1.0
 40
0.5780931159158113
 41
0.0
 42
6.283185307179586
  0
ELLIPSE
  5
190
330
6C
100
AcDbEntity
  8
Visible (ANSI)
100
AcDbEllipse
 10
136.4783884686731
 20
54.01421584124448
 30
0.0
 11
-0.0802016054332082
 21
0.1392723379519027
 31
0.0
210
0.0
220
0.0
230
1.0
 40
0.5780931159158113
 41
0.267844877812581
 42
2.873747775777085
  0
ELLIPSE
  5
191
330
6C
100
AcDbEntity
  8
Visible (ANSI)
100
AcDbEllipse
 10
136.4357726581997
 20
53.98967502813645
 30
0.0
 11
-0.0802016054332083
 21
0.1392723379519028
 31
0.0
210
0.0
220
0.0
230
1.0
 40
0.5780931159158112
 41
0.0
 42
6.283185307179586
  0
ELLIPSE
  5
192
330
6C
100
AcDbEntity
  8
Visible (ANSI)
100
AcDbEllipse
 10
136.4783884686731
 20
84.05556890581557
 30
0.0
 11
-0.0802016054332082
 21
0.1392723379519026
 31
0.0
210
0.0
220
0.0
230
1.0
 40
0.5780931159158113
 41
0.2678448778125816
 42
2.873747775777061
  0
ELLIPSE
  5
193
330
6C
100
AcDbEntity
  8
Visible (ANSI)
100
AcDbEllipse
 10
136.4357726581998
 20
84.03102809270754
 30
0.0
 11
-0.0802016054332083
 21
0.1392723379519028
 31
0.0
210
0.0
220
0.0
230
1.0
 40
0.5780931159158112
 41
0.0
 42
6.283185307179586
  0
ELLIPSE
  5
194
330
6C
100
AcDbEntity
  8
Visible (ANSI)
100
AcDbEllipse
 10
129.5004188406938
 20
57.84132326922046
 30
0.0
 11
-0.0401008027165862
 21
-0.0696361689759618
 31
0.0
210
0.0
220
0.0
230
1.0
 40
0.5780931159156359
 41
5.495853435359012
 42
6.283185307179571
  0
ELLIPSE
  5
195
330
6C
100
AcDbEntity
  8
Visible (ANSI)
100
AcDbEllipse
 10
143.4847686369678
 20
49.78827180836689
 30
0.0
 11
-0.0401008027165898
 21
-0.0696361689759682
 31
0.0
210
0.0
220
0.0
230
1.0
 40
0.578093115915636
 41
5.495853435359203
 42
5.552429523042852
  0
LINE
  5
196
330
6C
100
AcDbEntity
  8
Visible Narrow (ANSI)
100
AcDbLine
 10
129.4435977600628
 20
57.80860218507643
 30
0.0
 11
143.4279475563367
 21
49.75555072422286
 31
0.0
  0
LINE
  5
197
330
6C
100
AcDbEntity
  8
Visible (ANSI)
100
AcDbLine
 10
143.4280384700658
 20
49.75560348369
 30
0.0
 11
143.4280384700658
 21
49.68980261938481
 31
0.0
  0
LINE
  5
198
330
6C
100
AcDbEntity
  8
Visible (ANSI)
100
AcDbLine
 10
143.4279475563367
 20
49.75565583742462
 30
0.0
 11
143.4280384700658
 21
49.75560348369
 31
0.0
  0
LINE
  5
199
330
6C
100
AcDbEntity
  8
Visible (ANSI)
100
AcDbLine
 10
129.4435068463338
 20
57.80875965201283
 30
0.0
 11
129.4435977600628
 21
57.80870729827819
 31
0.0
  0
LINE
  5
19A
330
6C
100
AcDbEntity
  8
Visible (ANSI)
100
AcDbLine
 10
129.4435068463338
 20
57.74295878770764
 30
0.0
 11
129.4435068463338
 21
57.80875965201283
 31
0.0
  0
LINE
  5
19B
330
6C
100
AcDbEntity
  8
Visible (ANSI)
100
AcDbLine
 10
129.4768562025129
 20
57.76216340468378
 30
0.0
 11
129.4435068463338
 21
57.74295878770764
 31
0.0
  0
LINE
  5
19C
330
6C
100
AcDbEntity
  8
Visible (ANSI)
100
AcDbLine
 10
129.4603180379772
 20
57.7716871002445
 30
0.0
 11
143.4280384700658
 21
49.72821185333707
 31
0.0
  0
LINE
  5
19D
330
6C
100
AcDbEntity
  8
Visible (ANSI)
100
AcDbLine
 10
129.4435977600628
 20
57.80870729827819
 30
0.0
 11
129.4435977600628
 21
57.80860218507643
 31
0.0
  0
LINE
  5
19E
330
6C
100
AcDbEntity
  8
Visible (ANSI)
100
AcDbLine
 10
143.4279475563367
 20
49.75555072422286
 30
0.0
 11
143.4279475563367
 21
49.75565583742462
 31
0.0
  0
ELLIPSE
  5
19F
330
6C
100
AcDbEntity
  8
Visible (ANSI)
100
AcDbEllipse
 10
144.0151366035783
 20
79.71544430495247
 30
0.0
 11
-0.080201605433209
 21
0.139272337951904
 31
0.0
210
0.0
220
0.0
230
1.0
 40
0.5780931159158113
 41
0.2678448778125816
 42
2.873747775777061
  0
ELLIPSE
  5
1A0
330
6C
100
AcDbEntity
  8
Visible (ANSI)
100
AcDbEllipse
 10
128.9416403337679
 20
88.39569350667867
 30
0.0
 11
-0.0802016054332087
 21
0.1392723379519035
 31
0.0
210
0.0
220
0.0
230
1.0
 40
0.5780931159158113
 41
0.2678448778125819
 42
2.873747775777061
  0
ELLIPSE
  5
1A1
330
6C
100
AcDbEntity
  8
Visible (ANSI)
100
AcDbEllipse
 10
128.9416403337679
 20
58.35434044210757
 30
0.0
 11
-0.0802016054332083
 21
0.1392723379519029
 31
0.0
210
0.0
220
0.0
230
1.0
 40
0.5780931159158113
 41
0.2678448778125816
 42
2.873747775777061
  0
ELLIPSE
  5
1A2
330
6C
100
AcDbEntity
  8
Visible (ANSI)
100
AcDbEllipse
 10
144.0151366035783
 20
49.67409124038137
 30
0.0
 11
-0.0802016054332088
 21
0.1392723379519036
 31
0.0
210
0.0
220
0.0
230
0.9999999999999998
 40
0.5780931159158114
 41
0.2678448778125817
 42
2.873747775777061
  0
ELLIPSE
  5
1A3
330
6C
100
AcDbEntity
  8
Visible (ANSI)
100
AcDbEllipse
 10
144.0151366035783
 20
79.32126979833196
 30
0.0
 11
0.0501260033957612
 21
-0.0870452112199376
 31
0.0
210
0.0
220
0.0
230
1.0
 40
0.5780931159158113
 41
3.57883851325141
 42
5.845939447517046
  0
ELLIPSE
  5
1A4
330
6C
100
AcDbEntity
  8
Visible (ANSI)
100
AcDbEllipse
 10
128.9416403337679
 20
88.00151900005815
 30
0.0
 11
0.0501260033957607
 21
-0.0870452112199368
 31
0.0
210
0.0
220
0.0
230
0.9999999999999998
 40
0.5780931159158114
 41
3.57883851325141
 42
5.845939447517047
  0
ELLIPSE
  5
1A5
330
6C
100
AcDbEntity
  8
Visible (ANSI)
100
AcDbEllipse
 10
128.9416403337679
 20
58.74851494872807
 30
0.0
 11
0.0501260033957604
 21
-0.0870452112199363
 31
0.0
210
0.0
220
0.0
230
1.0
 40
0.5780931159158114
 41
3.578838513251554
 42
5.845939447517047
  0
ELLIPSE
  5
1A6
330
6C
100
AcDbEntity
  8
Visible (ANSI)
100
AcDbEllipse
 10
144.0151366035783
 20
50.06826574700188
 30
0.0
 11
0.0501260033957607
 21
-0.0870452112199368
 31
0.0
210
0.0
220
0.0
230
0.9999999999999998
 40
0.5780931159158114
 41
3.578838513251483
 42
5.845939447517047
  0
ELLIPSE
  5
1A7
330
6C
100
AcDbEntity
  8
Visible (ANSI)
100
AcDbEllipse
 10
143.972520793105
 20
79.69090349184444
 30
0.0
 11
-0.0802016054332083
 21
0.1392723379519029
 31
0.0
210
0.0
220
0.0
230
1.0
 40
0.5780931159158112
 41
0.0
 42
6.283185307179586
  0
ELLIPSE
  5
1A8
330
6C
100
AcDbEntity
  8
Visible (ANSI)
100
AcDbEllipse
 10
128.8990245232946
 20
88.37115269357063
 30
0.0
 11
-0.0802016054332083
 21
0.1392723379519029
 31
0.0
210
0.0
220
0.0
230
1.0
 40
0.5780931159158112
 41
0.0
 42
6.283185307179586
  0
ELLIPSE
  5
1A9
330
6C
100
AcDbEntity
  8
Visible (ANSI)
100
AcDbEllipse
 10
128.8990245232946
 20
58.32979962899955
 30
0.0
 11
-0.0802016054332083
 21
0.1392723379519029
 31
0.0
210
0.0
220
0.0
230
1.0
 40
0.5780931159158112
 41
0.0
 42
6.283185307179586
  0
ELLIPSE
  5
1AA
330
6C
100
AcDbEntity
  8
Visible (ANSI)
100
AcDbEllipse
 10
143.9725207931049
 20
49.64955042727336
 30
0.0
 11
-0.0802016054332083
 21
0.1392723379519029
 31
0.0
210
0.0
220
0.0
230
1.0
 40
0.5780931159158112
 41
0.0
 42
6.283185307179586
  0
ELLIPSE
  5
1AB
330
6C
100
AcDbEntity
  8
Visible (ANSI)
100
AcDbEllipse
 10
143.972520793105
 20
79.29672898522395
 30
0.0
 11
-0.0501260033957552
 21
0.0870452112199393
 31
0.0
210
0.0
220
0.0
230
1.0
 40
0.5780931159158112
 41
0.0
 42
6.283185307179586
  0
ELLIPSE
  5
1AC
330
6C
100
AcDbEntity
  8
Visible (ANSI)
100
AcDbEllipse
 10
128.8990245232946
 20
87.97697818695011
 30
0.0
 11
-0.0501260033957552
 21
0.0870452112199393
 31
0.0
210
0.0
220
0.0
230
1.0
 40
0.5780931159158112
 41
0.0
 42
6.283185307179586
  0
ELLIPSE
  5
1AD
330
6C
100
AcDbEntity
  8
Visible (ANSI)
100
AcDbEllipse
 10
128.8990245232946
 20
58.72397413562005
 30
0.0
 11
-0.0501260033957552
 21
0.0870452112199393
 31
0.0
210
0.0
220
0.0
230
1.0
 40
0.5780931159158112
 41
0.0
 42
6.283185307179586
  0
ELLIPSE
  5
1AE
330
6C
100
AcDbEntity
  8
Visible (ANSI)
100
AcDbEllipse
 10
143.9725207931049
 20
50.04372493389386
 30
0.0
 11
-0.0501260033957552
 21
0.0870452112199393
 31
0.0
210
0.0
220
0.0
230
1.0
 40
0.5780931159158112
 41
0.0
 42
6.283185307179586
  0
LINE
  5
1AF
330
6C
100
AcDbEntity
  8
Visible (ANSI)
100
AcDbLine
 10
129.4861226568071
 20
88.35544131456719
 30
0.0
 11
128.9325489608669
 21
88.67422320473194
 31
0.0
  0
LINE
  5
1B0
330
6C
100
AcDbEntity
  8
Visible (ANSI)
100
AcDbLine
 10
144.0242279764792
 20
79.98350325607964
 30
0.0
 11
143.4706542805391
 21
80.30228514624438
 31
0.0
  0
LINE
  5
1B1
330
6C
100
AcDbEntity
  8
Visible (ANSI)
100
AcDbLine
 10
144.2515122990035
 20
78.94980162953993
 30
0.0
 11
144.2515122990035
 21
79.58983591508988
 31
0.0
  0
LINE
  5
1B2
330
6C
100
AcDbEntity
  8
Visible (ANSI)
100
AcDbLine
 10
144.2515122990035
 20
49.52746021016571
 30
0.0
 11
144.2515122990035
 21
50.16749449571563
 31
0.0
  0
LINE
  5
1B3
330
6C
100
AcDbEntity
  8
Visible (ANSI)
100
AcDbLine
 10
129.4435068463338
 20
57.74295878770764
 30
0.0
 11
128.8899331503936
 21
58.06174067787235
 31
0.0
  0
LINE
  5
1B4
330
6C
100
AcDbEntity
  8
Visible (ANSI)
100
AcDbLine
 10
143.9816121660059
 20
49.37102072922009
 30
0.0
 11
143.4280384700658
 21
49.68980261938481
 31
0.0
  0
LINE
  5
1B5
330
6C
100
AcDbEntity
  8
Visible (ANSI)
100
AcDbLine
 10
144.2088964885302
 20
50.14295368260761
 30
0.0
 11
144.2088964885302
 21
49.50291939705767
 31
0.0
  0
LINE
  5
1B6
330
6C
100
AcDbEntity
  8
Visible (ANSI)
100
AcDbLine
 10
144.2088964885303
 20
79.56529510198186
 30
0.0
 11
144.2088964885303
 21
78.92526081643193
 31
0.0
  0
LINE
  5
1B7
330
6C
100
AcDbEntity
  8
Visible (ANSI)
100
AcDbLine
 10
143.4280384700658
 20
80.27774433313634
 30
0.0
 11
143.981612166006
 21
79.95896244297161
 31
0.0
  0
LINE
  5
1B8
330
6C
100
AcDbEntity
  8
Visible (ANSI)
100
AcDbLine
 10
128.8899331503936
 20
88.64968239162392
 30
0.0
 11
129.4435068463338
 21
88.33090050145917
 31
0.0
  0
LINE
  5
1B9
330
6C
100
AcDbEntity
  8
Visible (ANSI)
100
AcDbLine
 10
128.6626488278694
 20
87.87774943823636
 30
0.0
 11
128.6626488278694
 21
88.5177837237863
 31
0.0
  0
LINE
  5
1BA
330
6C
100
AcDbEntity
  8
Visible (ANSI)
100
AcDbLine
 10
128.6626488278693
 20
58.45540801886213
 30
0.0
 11
128.6626488278693
 21
59.09544230441206
 31
0.0
  0
LINE
  5
1BB
330
6C
100
AcDbEntity
  8
Visible (ANSI)
100
AcDbLine
 10
129.4861226568071
 20
88.35544131456719
 30
0.0
 11
129.4861226568071
 21
88.35322326068972
 31
0.0
  0
LINE
  5
1BC
330
6C
100
AcDbEntity
  8
Visible (ANSI)
100
AcDbLine
 10
143.4280384700658
 20
80.27774433313634
 30
0.0
 11
143.4280384700658
 21
80.21194346883117
 31
0.0
  0
LINE
  5
1BD
330
6C
100
AcDbEntity
  8
Visible (ANSI)
100
AcDbLine
 10
143.4280384700658
 20
80.21194346883117
 30
0.0
 11
143.4279475563368
 21
80.2119958225658
 31
0.0
  0
LINE
  5
1BE
330
6C
100
AcDbEntity
  8
Visible Narrow (ANSI)
100
AcDbLine
 10
143.4279475563368
 20
80.21210093576755
 30
0.0
 11
129.4435977600628
 21
88.26515239662112
 31
0.0
  0
LINE
  5
1BF
330
6C
100
AcDbEntity
  8
Visible (ANSI)
100
AcDbLine
 10
129.4435977600628
 20
88.26504728341936
 30
0.0
 11
129.4435068463338
 21
88.265099637154
 31
0.0
  0
LINE
  5
1C0
330
6C
100
AcDbEntity
  8
Visible (ANSI)
100
AcDbLine
 10
129.4435068463338
 20
88.265099637154
 30
0.0
 11
129.4435068463338
 21
88.33090050145917
 31
0.0
  0
LINE
  5
1C1
330
6C
100
AcDbEntity
  8
Visible Narrow (ANSI)
100
AcDbLine
 10
143.4847686369681
 20
80.31051777101515
 30
0.0
 11
129.5004188406938
 21
88.36356923186857
 31
0.0
  0
ELLIPSE
  5
1C2
330
6C
100
AcDbEntity
  8
Visible (ANSI)
100
AcDbEllipse
 10
143.4847686369679
 20
80.24482201991164
 30
0.0
 11
0.0401008027166363
 21
0.0696361689760393
 31
0.0
210
0.0
220
0.0
230
0.9999999999999998
 40
0.5780931159156359
 41
2.29768469408566
 42
2.354260781769493
  0
ELLIPSE
  5
1C3
330
6C
100
AcDbEntity
  8
Visible (ANSI)
100
AcDbEllipse
 10
143.4847686369679
 20
80.24482201991158
 30
0.0
 11
0.0401008027165963
 21
0.0696361689759795
 31
0.0
210
0.0
220
0.0
230
1.0
 40
0.578093115915636
 41
0.7834644549699883
 42
1.009790328440447
  0
LINE
  5
1C4
330
6C
100
AcDbEntity
  8
Visible (ANSI)
100
AcDbLine
 10
143.4279475563368
 20
80.2119958225658
 30
0.0
 11
143.4280384700658
 21
80.21204817630042
 31
0.0
  0
ELLIPSE
  5
1C5
330
6C
100
AcDbEntity
  8
Visible (ANSI)
100
AcDbEllipse
 10
129.5004188406939
 20
88.29787348076514
 30
0.0
 11
0.0401008027165929
 21
0.069636168975967
 31
0.0
210
0.0
220
0.0
230
1.0
 40
0.5780931159156229
 41
0.7834644549750234
 42
2.354260781769356
  0
LINE
  5
1C6
330
6C
100
AcDbEntity
  8
Visible (ANSI)
100
AcDbLine
 10
129.4435068463338
 20
88.33090050145917
 30
0.0
 11
129.4861226568071
 21
88.35544131456719
 31
0.0
  0
LINE
  5
1C7
330
6C
100
AcDbEntity
  8
Visible (ANSI)
100
AcDbLine
 10
129.4435068463338
 20
88.265099637154
 30
0.0
 11
129.4435977600628
 21
88.26515199088863
 31
0.0
  0
LINE
  5
1C8
330
6C
100
AcDbEntity
  8
Visible (ANSI)
100
AcDbLine
 10
143.4706542805391
 20
80.30228514624438
 30
0.0
 11
143.4280384700658
 21
80.27774433313634
 31
0.0
  0
LINE
  5
1C9
330
6C
100
AcDbEntity
  8
Visible (ANSI)
100
AcDbLine
 10
144.2515122990035
 20
79.58983591508988
 30
0.0
 11
144.0242279764792
 21
79.98350325607964
 31
0.0
  0
LINE
  5
1CA
330
6C
100
AcDbEntity
  8
Visible (ANSI)
100
AcDbLine
 10
143.981612166006
 20
79.95896244297161
 30
0.0
 11
144.2088964885303
 21
79.56529510198186
 31
0.0
  0
LINE
  5
1CB
330
6C
100
AcDbEntity
  8
Visible (ANSI)
100
AcDbLine
 10
144.0242279764792
 20
79.98350325607964
 30
0.0
 11
143.981612166006
 21
79.95896244297161
 31
0.0
  0
LINE
  5
1CC
330
6C
100
AcDbEntity
  8
Visible (ANSI)
100
AcDbLine
 10
144.2088964885303
 20
79.56529510198186
 30
0.0
 11
144.2515122990035
 21
79.58983591508988
 31
0.0
  0
LINE
  5
1CD
330
6C
100
AcDbEntity
  8
Visible (ANSI)
100
AcDbLine
 10
144.2495930815461
 20
50.1685996995452
 30
0.0
 11
144.2515122990035
 21
50.16749449571563
 31
0.0
  0
LINE
  5
1CE
330
6C
100
AcDbEntity
  8
Visible (ANSI)
100
AcDbLine
 10
144.2088964885302
 20
50.14295368260761
 30
0.0
 11
144.1519844941701
 21
50.17572712048626
 31
0.0
  0
LINE
  5
1CF
330
6C
100
AcDbEntity
  8
Visible (ANSI)
100
AcDbLine
 10
144.1519844941701
 20
50.17572712048626
 30
0.0
 11
144.1519844941701
 21
50.17583223368803
 31
0.0
  0
LINE
  5
1D0
330
6C
100
AcDbEntity
  8
Visible Narrow (ANSI)
100
AcDbLine
 10
144.1520754078991
 20
50.17577987995339
 30
0.0
 11
144.1520754078992
 21
78.95787678737416
 31
0.0
  0
LINE
  5
1D1
330
6C
100
AcDbEntity
  8
Visible (ANSI)
100
AcDbLine
 10
144.1519844941702
 20
78.95792914110881
 30
0.0
 11
144.1519844941702
 21
78.95803425431056
 31
0.0
  0
LINE
  5
1D2
330
6C
100
AcDbEntity
  8
Visible (ANSI)
100
AcDbLine
 10
144.1519844941702
 20
78.95803425431056
 30
0.0
 11
144.2088964885303
 21
78.92526081643193
 31
0.0
  0
LINE
  5
1D3
330
6C
100
AcDbEntity
  8
Visible Narrow (ANSI)
100
AcDbLine
 10
144.2657175691612
 20
50.17577987995342
 30
0.0
 11
144.2657175691613
 21
78.95787678737419
 31
0.0
  0
ELLIPSE
  5
1D4
330
6C
100
AcDbEntity
  8
Visible (ANSI)
100
AcDbEllipse
 10
144.2088964885302
 20
50.20850096409744
 30
0.0
 11
0.0803571428571427
 21
0.0000000000000046
 31
0.0
210
0.0
220
0.0
230
1.0
 40
0.5758617009853144
 41
3.926990816987317
 42
5.497787143782326
  0
LINE
  5
1D5
330
6C
100
AcDbEntity
  8
Visible (ANSI)
100
AcDbLine
 10
144.1519844941702
 20
78.95792914110881
 30
0.0
 11
144.1520757601821
 21
78.95798169770968
 31
0.0
  0
ELLIPSE
  5
1D6
330
6C
100
AcDbEntity
  8
Visible (ANSI)
100
AcDbEllipse
 10
144.2088964885303
 20
78.99059787151827
 30
0.0
 11
0.0803571428573168
 21
0.0000000000000046
 31
0.0
210
0.0
220
0.0
230
1.0
 40
0.5758617009853144
 41
3.926990816987586
 42
3.983676441749134
  0
ELLIPSE
  5
1D7
330
6C
100
AcDbEntity
  8
Visible (ANSI)
100
AcDbEllipse
 10
144.2088964885301
 20
78.99059787151826
 30
0.0
 11
0.0803571428572713
 21
-0.0000000000000002
 31
0.0
210
0.0
220
0.0
230
1.0
 40
0.5758617009853144
 41
5.271378846410369
 42
5.497787143782616
  0
LINE
  5
1D8
330
6C
100
AcDbEntity
  8
Visible (ANSI)
100
AcDbLine
 10
144.2088964885303
 20
78.92526081643193
 30
0.0
 11
144.2515122990035
 21
78.94980162953993
 31
0.0
  0
LINE
  5
1D9
330
6C
100
AcDbEntity
  8
Visible (ANSI)
100
AcDbLine
 10
144.1519844941701
 20
50.17572712048626
 30
0.0
 11
144.1520757601832
 21
50.17577967708778
 31
0.0
  0
LINE
  5
1DA
330
6C
100
AcDbEntity
  8
Visible (ANSI)
100
AcDbLine
 10
144.2515122990035
 20
50.16749449571563
 30
0.0
 11
144.2088964885302
 21
50.14295368260761
 31
0.0
  0
LINE
  5
1DB
330
6C
100
AcDbEntity
  8
Visible (ANSI)
100
AcDbLine
 10
144.0242279764792
 20
49.39556154232811
 30
0.0
 11
144.2515122990035
 21
49.52746021016571
 31
0.0
  0
LINE
  5
1DC
330
6C
100
AcDbEntity
  8
Visible (ANSI)
100
AcDbLine
 10
144.2088964885302
 20
49.50291939705767
 30
0.0
 11
143.9816121660059
 21
49.37102072922009
 31
0.0
  0
LINE
  5
1DD
330
6C
100
AcDbEntity
  8
Visible (ANSI)
100
AcDbLine
 10
143.9816121660059
 20
49.37102072922009
 30
0.0
 11
144.0242279764792
 21
49.39556154232811
 31
0.0
  0
LINE
  5
1DE
330
6C
100
AcDbEntity
  8
Visible (ANSI)
100
AcDbLine
 10
144.2515122990035
 20
49.52746021016571
 30
0.0
 11
144.2088964885302
 21
49.50291939705767
 31
0.0
  0
LINE
  5
1DF
330
6C
100
AcDbEntity
  8
Visible (ANSI)
100
AcDbLine
 10
144.1519844941701
 20
50.17583223368803
 30
0.0
 11
144.1520754078991
 21
50.17577987995339
 31
0.0
  0
LINE
  5
1E0
330
6C
100
AcDbEntity
  8
Visible (ANSI)
100
AcDbLine
 10
144.1520754078992
 20
78.95787678737416
 30
0.0
 11
144.1519844941702
 21
78.95792914110881
 31
0.0
  0
LINE
  5
1E1
330
6C
100
AcDbEntity
  8
Visible (ANSI)
100
AcDbLine
 10
144.2657175691612
 20
50.17577987995342
 30
0.0
 11
144.5607326197976
 21
50.34566774882923
 31
0.0
  0
LINE
  5
1E2
330
6C
100
AcDbEntity
  8
Visible (ANSI)
100
AcDbLine
 10
144.5607326197977
 20
79.12776465624999
 30
0.0
 11
144.5607326197976
 21
50.34566774882923
 31
0.0
  0
LINE
  5
1E3
330
6C
100
AcDbEntity
  8
Visible (ANSI)
100
AcDbLine
 10
144.5607326197977
 20
79.12776465624999
 30
0.0
 11
144.2657175691613
 21
78.95787678737419
 31
0.0
  0
LINE
  5
1E4
330
6C
100
AcDbEntity
  8
Visible (ANSI)
100
AcDbLine
 10
144.5181168093244
 20
79.15230546935801
 30
0.0
 11
144.5607326197977
 21
79.12776465624999
 31
0.0
  0
LINE
  5
1E5
330
6C
100
AcDbEntity
  8
Visible (ANSI)
100
AcDbLine
 10
144.2515122990035
 20
78.99877814255423
 30
0.0
 11
144.5181168093244
 21
79.15230546935801
 31
0.0
  0
LINE
  5
1E6
330
6C
100
AcDbEntity
  8
Visible (ANSI)
100
AcDbLine
 10
143.4279475563368
 20
80.2119958225658
 30
0.0
 11
143.4279475563368
 21
80.21210093576755
 31
0.0
  0
LINE
  5
1E7
330
6C
100
AcDbEntity
  8
Visible (ANSI)
100
AcDbLine
 10
129.4435977600628
 20
88.26515239662112
 30
0.0
 11
129.4435977600628
 21
88.26504728341936
 31
0.0
  0
LINE
  5
1E8
330
6C
100
AcDbEntity
  8
Visible (ANSI)
100
AcDbLine
 10
143.4847686369681
 20
80.31051777101515
 30
0.0
 11
143.7797836876043
 21
80.48040563989081
 31
0.0
  0
LINE
  5
1E9
330
6C
100
AcDbEntity
  8
Visible (ANSI)
100
AcDbLine
 10
129.7954338913303
 20
88.53345710074441
 30
0.0
 11
143.7797836876043
 21
80.48040563989081
 31
0.0
  0
LINE
  5
1EA
330
6C
100
AcDbEntity
  8
Visible (ANSI)
100
AcDbLine
 10
129.7954338913303
 20
88.53345710074441
 30
0.0
 11
129.5004188406938
 21
88.36356923186857
 31
0.0
  0
LINE
  5
1EB
330
6C
100
AcDbEntity
  8
Visible (ANSI)
100
AcDbLine
 10
143.7797836876043
 20
80.43113382656326
 30
0.0
 11
143.5133443099109
 21
80.27770159331522
 31
0.0
  0
LINE
  5
1EC
330
6C
100
AcDbEntity
  8
Visible (ANSI)
100
AcDbLine
 10
143.7797836876043
 20
80.48040563989081
 30
0.0
 11
143.7797836876043
 21
80.43113382656326
 31
0.0
  0
LINE
  5
1ED
330
6C
100
AcDbEntity
  8
Visible (ANSI)
100
AcDbLine
 10
128.6626488278694
 20
88.5177837237863
 30
0.0
 11
128.8899331503936
 21
88.64968239162392
 31
0.0
  0
LINE
  5
1EE
330
6C
100
AcDbEntity
  8
Visible (ANSI)
100
AcDbLine
 10
128.8899331503936
 20
88.64968239162392
 30
0.0
 11
128.9325489608669
 21
88.67422320473194
 31
0.0
  0
LINE
  5
1EF
330
6C
100
AcDbEntity
  8
Visible (ANSI)
100
AcDbLine
 10
128.6626488278694
 20
87.87774943823636
 30
0.0
 11
128.7195608222294
 21
87.84497600035773
 31
0.0
  0
LINE
  5
1F0
330
6C
100
AcDbEntity
  8
Visible (ANSI)
100
AcDbLine
 10
128.7195608222294
 20
87.84497600035773
 30
0.0
 11
128.7195608222294
 21
87.84487088715597
 31
0.0
  0
LINE
  5
1F1
330
6C
100
AcDbEntity
  8
Visible Narrow (ANSI)
100
AcDbLine
 10
128.7194699085004
 20
87.84492324089058
 30
0.0
 11
128.7194699085004
 21
59.06282633346982
 31
0.0
  0
LINE
  5
1F2
330
6C
100
AcDbEntity
  8
Visible (ANSI)
100
AcDbLine
 10
128.7195608222294
 20
59.06277397973518
 30
0.0
 11
128.7195608222294
 21
59.06266886653343
 31
0.0
  0
LINE
  5
1F3
330
6C
100
AcDbEntity
  8
Visible (ANSI)
100
AcDbLine
 10
128.7195608222294
 20
59.06266886653343
 30
0.0
 11
128.6626488278693
 21
59.09544230441206
 31
0.0
  0
ELLIPSE
  5
1F4
330
6C
100
AcDbEntity
  8
Visible (ANSI)
100
AcDbEllipse
 10
128.7762909891315
 20
87.87764432503461
 30
0.0
 11
-0.0803571428571242
 21
0.0000000000000002
 31
0.0
210
0.0
220
0.0
230
1.0
 40
0.5758617009853144
 41
0.7287125386355094
 42
0.7853981633973133
  0
ELLIPSE
  5
1F5
330
6C
100
AcDbEntity
  8
Visible (ANSI)
100
AcDbEllipse
 10
128.7762909891315
 20
59.09554741761383
 30
0.0
 11
-0.0803571428571428
 21
0.0000000000000015
 31
0.0
210
0.0
220
0.0
230
1.0
 40
0.5758617009852994
 41
0.0
 42
0.785398163397316
  0
LINE
  5
1F6
330
6C
100
AcDbEntity
  8
Visible (ANSI)
100
AcDbLine
 10
128.6626488278693
 20
59.09544230441206
 30
0.0
 11
128.6959338462743
 21
59.1146098717281
 31
0.0
  0
LINE
  5
1F7
330
6C
100
AcDbEntity
  8
Visible (ANSI)
100
AcDbLine
 10
128.6959338462744
 20
87.85858187092035
 30
0.0
 11
128.6959338462743
 21
59.09554741761383
 31
0.0
  0
LINE
  5
1F8
330
6C
100
AcDbEntity
  8
Visible (ANSI)
100
AcDbLine
 10
128.7195608222294
 20
87.84487088715597
 30
0.0
 11
128.7194699085004
 21
87.84492324089058
 31
0.0
  0
LINE
  5
1F9
330
6C
100
AcDbEntity
  8
Visible (ANSI)
100
AcDbLine
 10
128.7194699085004
 20
59.06282633346982
 30
0.0
 11
128.7195608222294
 21
59.06277397973518
 31
0.0
  0
LINE
  5
1FA
330
6C
100
AcDbEntity
  8
Visible (ANSI)
100
AcDbLine
 10
128.8780132970692
 20
88.00166447459984
 30
0.0
 11
128.930835255656
 21
88.032082617521
 31
0.0
  0
LINE
  5
1FB
330
6C
100
AcDbEntity
  8
Visible (ANSI)
100
AcDbLine
 10
128.9543781825225
 20
87.9965584612165
 30
0.0
 11
128.8969213679834
 21
87.96347128226285
 31
0.0
  0
LINE
  5
1FC
330
6C
100
AcDbEntity
  8
Visible (ANSI)
100
AcDbLine
 10
128.8899331503936
 20
58.06174067787235
 30
0.0
 11
128.6626488278693
 21
58.45540801886213
 31
0.0
  0
DIMENSION
  5
1FD
330
6C
100
AcDbEntity
  8
Dimension (ANSI)
100
AcDbDimension
  2
*D4
 10
25.56472308604333
 20
92.07432439796788
 30
0.0
 11
42.66472308604333
 21
92.07432439796788
 31
0.0
 70
   160
  1
<>
 42
34.2
  3
Default (ANSI)
100
AcDbAlignedDimension
 13
59.76472308604334
 23
84.55359097911204
 33
0.0
 14
25.56472308604333
 24
84.55359097911204
 34
0.0
 50
180.0
100
AcDbRotatedDimension
1001
ACAD
1000
DSTYLE
1002
{
1070
   289
1070
     1
1070
    73
1070
     0
1070
    74
1070
     0
1070
   271
1070
     3
1070
   272
1070
     2
1070
    48
1040
0.0
1070
    47
1040
0.0
1002
}
  0
DIMENSION
  5
2EA
330
6C
100
AcDbEntity
  8
Dimension (ANSI)
100
AcDbDimension
  2
*D5
 10
9.106504558392449
 20
26.85359097911205
 30
0.0
 11
9.106504558392447
 21
62.73747615459249
 31
0.0
 70
   160
  1
<>
 42
58.19999999999999
  3
Default (ANSI)
100
AcDbAlignedDimension
 13
26.06472308604333
 23
85.05359097911204
 33
0.0
 14
26.06472308604335
 24
26.85359097911205
 34
0.0
 50
270.0
100
AcDbRotatedDimension
1001
ACAD
1000
DSTYLE
1002
{
1070
   289
1070
     1
1070
   271
1070
     3
1070
   272
1070
     2
1070
    48
1040
0.0
1070
    47
1040
0.0
1002
}
  0
DIMENSION
  5
3D4
330
6C
100
AcDbEntity
  8
Dimension (ANSI)
100
AcDbDimension
  2
*D6
 10
25.92605074561211
 20
27.56678282257878
 30
0.0
 11
38.88625701541645
 21
18.57440758979525
 31
0.0
 70
   163
  1
<>{\PTYP.(8PL.)}
 42
0.5
  3
Default (ANSI)
100
AcDbDiametricDimension
 15
26.24339542647455
 25
27.1803991356453
 35
0.0
 40
0.0
1001
ACAD_DSTYLE_DIMRADIAL_EXTENSION
1070
   387
1070
     1
1070
   388
1040
0.0
1070
   390
1040
0.0
1001
ACAD
1000
DSTYLE
1002
{
1070
   145
1040
-0.25
1070
   144
1040
1.0
1070
   271
1070
     3
1070
   272
1070
     2
1070
    48
1040
0.0
1070
    47
1040
0.0
1002
}
  0
DIMENSION
  5
48E
330
6C
100
AcDbEntity
  8
Dimension (ANSI)
100
AcDbDimension
  2
*D7
 10
25.94940661670202
 20
28.20171597911203
 30
0.0
 11
38.78178342747585
 21
24.0114296090611
 31
0.0
 70
   163
  1
<>{\PTYP.(4PL.)}
 42
0.3125
  3
Default (ANSI)
100
AcDbDiametricDimension
 15
26.22003955538467
 25
28.04546597911206
 35
0.0
 40
0.0
1001
ACAD_DSTYLE_DIMRADIAL_EXTENSION
1070
   387
1070
     1
1070
   388
1040
0.0
1070
   390
1040
0.0
1001
ACAD
1000
DSTYLE
1002
{
1070
   145
1040
-0.25
1070
   144
1040
1.000000000000011
1070
   271
1070
     3
1070
   272
1070
     2
1070
    48
1040
0.0
1070
    47
1040
0.0
1002
}
  0
DIMENSION
  5
547
330
6C
100
AcDbEntity
  8
Dimension (ANSI)
100
AcDbDimension
  2
*D8
 10
95.52007626767695
 20
27.74417736914691
 30
0.0
 11
89.65374226071229
 21
27.74417736914691
 31
0.0
 70
   160
  1
 12 GA.\P304 SS
 42
0.09375
  3
Default (ANSI)
100
AcDbAlignedDimension
 13
95.42632626767694
 23
63.84782125725466
 33
0.0
 14
95.52007626767695
 24
63.84782125725466
 34
0.0
 50
180.0
100
AcDbRotatedDimension
1001
ACAD
1000
DSTYLE
1002
{
1070
   289
1070
     1
1070
    73
1070
     0
1070
    74
1070
     0
1070
   145
1040
-0.25
1070
   271
1070
     3
1070
   272
1070
     2
1070
    48
1040
0.0
1070
    47
1040
0.0
1002
}
  0
DIMENSION
  5
645
330
6C
100
AcDbEntity
  8
Dimension (ANSI)
100
AcDbDimension
  2
*D9
 10
14.37029306005754
 20
27.37359097911206
 30
0.0
 11
14.37029306005754
 21
58.59662924917287
 31
0.0
 70
   160
  1
<>
 42
57.15999999999998
  3
Default (ANSI)
100
AcDbAlignedDimension
 13
26.08472308604335
 23
84.53359097911205
 33
0.0
 14
26.08472308604335
 24
27.37359097911206
 34
0.0
 50
90.0
100
AcDbRotatedDimension
1001
ACAD
1000
DSTYLE
1002
{
1070
   289
1070
     1
1070
   271
1070
     3
1070
   272
1070
     2
1070
    48
1040
0.0
1070
    47
1040
0.0
1002
}
  0
DIMENSION
  5
72F
330
6C
100
AcDbEntity
  8
Dimension (ANSI)
100
AcDbDimension
  2
*D10
 10
19.42744862698824
 20
27.37359097911206
 30
0.0
 11
22.75674003133784
 21
30.56015776091863
 31
0.0
 70
   160
  1
<>
 42
0.7499999999999965
  3
Default (ANSI)
100
AcDbAlignedDimension
 13
26.08472308604335
 23
28.12359097911205
 33
0.0
 14
26.08472308604335
 24
27.37359097911206
 34
0.0
 50
90.0
100
AcDbRotatedDimension
1001
ACAD
1000
DSTYLE
1002
{
1070
   289
1070
     1
1070
   271
1070
     3
1070
   272
1070
     2
1070
    48
1040
0.0
1070
    47
1040
0.0
1002
}
  0
DIMENSION
  5
82F
330
6C
100
AcDbEntity
  8
Dimension (ANSI)
100
AcDbDimension
  2
*D11
 10
26.08472308604335
 20
89.10615612094792
 30
0.0
 11
42.66472308604336
 21
89.10615612094792
 31
0.0
 70
   160
  1
<>
 42
33.16
  3
Default (ANSI)
100
AcDbAlignedDimension
 13
59.24472308604334
 23
84.53359097911205
 33
0.0
 14
26.08472308604335
 24
84.53359097911205
 34
0.0
 50
180.0
100
AcDbRotatedDimension
1001
ACAD
1000
DSTYLE
1002
{
1070
   289
1070
     1
1070
    73
1070
     0
1070
    74
1070
     0
1070
   271
1070
     3
1070
   272
1070
     2
1070
    48
1040
0.0
1070
    47
1040
0.0
1002
}
  0
DIMENSION
  5
919
330
6C
100
AcDbEntity
  8
Dimension (ANSI)
100
AcDbDimension
  2
*D12
 10
59.10278698334793
 20
26.85359097911205
 30
0.0
 11
62.43207838769752
 21
29.91922041133743
 31
0.0
 70
   160
  1
<>
 42
0.5000000000000142
  3
Default (ANSI)
100
AcDbAlignedDimension
 13
59.76472308604334
 23
27.35359097911207
 33
0.0
 14
59.26472308604335
 24
26.85359097911205
 34
0.0
 50
90.0
100
AcDbRotatedDimension
1001
ACAD
1000
DSTYLE
1002
{
1070
   289
1070
     1
1070
   271
1070
     3
1070
   272
1070
     2
1070
    48
1040
0.0
1070
    47
1040
0.0
1002
}
  0
DIMENSION
  5
A19
330
6C
100
AcDbEntity
  8
Dimension (ANSI)
100
AcDbDimension
  2
*D13
 10
59.26472308604335
 20
24.99975072731491
 30
0.0
 11
53.97343055569818
 21
24.99975072731491
 31
0.0
 70
   160
  1
<>
 42
0.4999999999999929
  3
Default (ANSI)
100
AcDbAlignedDimension
 13
59.76472308604334
 23
27.35359097911206
 33
0.0
 14
59.26472308604335
 24
26.85359097911205
 34
0.0
 50
180.0
100
AcDbRotatedDimension
1001
ACAD
1000
DSTYLE
1002
{
1070
   289
1070
     1
1070
    73
1070
     0
1070
    74
1070
     0
1070
   271
1070
     3
1070
   272
1070
     2
1070
    48
1040
0.0
1070
    47
1040
0.0
1002
}
  0
DIMENSION
  5
B03
330
6C
100
AcDbEntity
  8
Dimension (ANSI)
100
AcDbDimension
  2
*D14
 10
59.76472308604334
 20
89.10615612094792
 30
0.0
 11
64.2659796285441
 21
89.10615612094792
 31
0.0
 70
   160
  1
<>
 42
0.5199999999999961
  3
Default (ANSI)
100
AcDbAlignedDimension
 13
59.24472308604334
 23
84.53359097911205
 33
0.0
 14
59.76472308604334
 24
84.55359097911204
 34
0.0
 50
180.0
100
AcDbRotatedDimension
1001
ACAD
1000
DSTYLE
1002
{
1070
   289
1070
     1
1070
    73
1070
     0
1070
    74
1070
     0
1070
   271
1070
     3
1070
   272
1070
     2
1070
    48
1040
0.0
1070
    47
1040
0.0
1002
}
  0
DIMENSION
  5
BED
330
6C
100
AcDbEntity
  8
Dimension (ANSI)
100
AcDbDimension
  2
*D15
 10
71.36211225827593
 20
85.05359097911204
 30
0.0
 11
68.03282085392631
 21
81.27732058228067
 31
0.0
 70
   160
  1
<>
 42
0.5199999999999961
  3
Default (ANSI)
100
AcDbAlignedDimension
 13
59.24472308604334
 23
84.53359097911205
 33
0.0
 14
59.26472308604334
 24
85.05359097911204
 34
0.0
 50
270.0
100
AcDbRotatedDimension
1001
ACAD
1000
DSTYLE
1002
{
1070
   289
1070
     1
1070
   271
1070
     3
1070
   272
1070
     2
1070
    48
1040
0.0
1070
    47
1040
0.0
1002
}
  0
MTEXT
  5
CED
102
{ACAD_XDICTIONARY
360
FBB
102
}
330
6C
100
AcDbEntity
  8
Symbol (ANSI)
100
AcDbMText
 10
94.4227831404272
 20
23.25309477572409
 30
0.0
 40
1.080000013347685
 41
57.73237360116751
 71
     1
 72
     1
  3
{\fRomanS|b0|i0|c0|p2;\H2x;PART#: NP6036SSC\P(DATA SUBJECT TO CHANGE \H1.5533x; \H0.64379x;WITHOUT NOTICE) \H1.4593x; \H0.68528x;\P\H0.6x;THIS DRAWING IS PROPERTY OF HUBBELL INC. \H1.4743x; \H0.67829x;WIEGMANN\H1.1569x; \H0.86435x;\PALL INFORMATION I
  1
S PROPRIETARY AND NOT TO BE \H1.1949x; \H0.83687x;DUPLICATED\H1.1904x; \H0.84007x;\P\H0.83333x; \H1.2291x; \H0.8136x;\P\H1.1396x; }
  7
Note Text (ANSI)
 73
     1
 44
0.8397688865661621
1001
ACAD
1000
MTEXTBEGIN
1070
    73
1070
     1
1070
    44
1040
0.8397688865661621
1070
    74
1070
     0
1000
MTEXTEND
  0
DIMENSION
  5
CEF
330
6C
100
AcDbEntity
  8
Dimension (ANSI)
100
AcDbDimension
  2
*D16
 10
96.20032626767644
 20
87.07327601848211
 30
0.0
 11
90.13503373733163
 21
87.07327601848211
 31
0.0
 70
   160
  1
<>
 42
0.7739999999996315
  3
Default (ANSI)
100
AcDbAlignedDimension
 13
95.4263262676768
 23
85.05359097911204
 33
0.0
 14
96.20032626767644
 24
85.05359097911204
 34
0.0
 50
180.0
100
AcDbRotatedDimension
1001
ACAD
1000
DSTYLE
1002
{
1070
   289
1070
     1
1070
    73
1070
     0
1070
    74
1070
     0
1070
   271
1070
     3
1070
   272
1070
     2
1070
    48
1040
0.0
1070
    47
1040
0.0
1002
}
  0
DIMENSION
  5
DD9
330
6C
100
AcDbEntity
  8
Dimension (ANSI)
100
AcDbDimension
  2
*D17
 10
19.00242694152282
 20
55.95359097911205
 30
0.0
 11
19.00242694152281
 21
41.66359097911205
 31
0.0
 70
   160
  1
<>
 42
28.58
  3
Default (ANSI)
100
AcDbAlignedDimension
 13
26.08472308604335
 23
27.37359097911206
 33
0.0
 14
26.08472308604335
 24
55.95359097911205
 34
0.0
 50
90.0
100
AcDbRotatedDimension
1001
ACAD
1000
DSTYLE
1002
{
1070
   289
1070
     1
1070
   271
1070
     3
1070
   272
1070
     2
1070
    48
1040
0.0
1070
    47
1040
0.0
1002
}
  0
DIMENSION
  5
EC3
330
6C
100
AcDbEntity
  8
Dimension (ANSI)
100
AcDbDimension
  2
*D18
 10
42.66472308604333
 20
86.75584278360579
 30
0.0
 11
34.37472308604334
 21
86.75584278360579
 31
0.0
 70
   160
  1
<>
 42
16.57999999999998
  3
Default (ANSI)
100
AcDbAlignedDimension
 13
26.08472308604335
 23
84.53359097911205
 33
0.0
 14
42.66472308604333
 24
84.53359097911205
 34
0.0
 50
180.0
100
AcDbRotatedDimension
1001
ACAD
1000
DSTYLE
1002
{
1070
   289
1070
     1
1070
    73
1070
     0
1070
    74
1070
     0
1070
   271
1070
     3
1070
   272
1070
     2
1070
    48
1040
0.0
1070
    47
1040
0.0
1002
}
  0
ENDSEC
  0
SECTION
  2
OBJECTS
  0
DICTIONARY
  5
C
330
0
100
AcDbDictionary
281
     1
  3
ACAD_CIP_PREVIOUS_PRODUCT_INFO
350
FAD
  3
ACAD_COLOR
350
63
  3
ACAD_GROUP
350
D
  3
ACAD_LAYOUT
350
62
  3
ACAD_MATERIAL
350
10
  3
ACAD_MLEADERSTYLE
350
66
  3
ACAD_MLINESTYLE
350
5F
  3
ACAD_PLOTSETTINGS
350
61
  3
ACAD_PLOTSTYLENAME
350
E
  3
ACAD_SCALELIST
350
42
  3
ACAD_TABLESTYLE
350
64
  3
ACAD_VISUALSTYLE
350
29
  3
ACDB_RECOMPOSE_DATA
350
FBD
  3
AcDbVariableDictionary
350
76
  3
DWGPROPS
350
FBE
  0
DICTIONARY
  5
FFA
330
488
100
AcDbDictionary
280
     1
281
     1
  3
ACAD_MTEXT_RT
360
FFB
  0
DICTIONARY
  5
FFC
330
541
100
AcDbDictionary
280
     1
281
     1
  3
ACAD_MTEXT_RT
360
FFD
  0
DICTIONARY
  5
FBB
330
CED
100
AcDbDictionary
280
     1
281
     1
  3
ACAD_MTEXT_2008_RT
360
FBC
  0
XRECORD
  5
FAD
102
{ACAD_REACTORS
330
C
102
}
330
C
100
AcDbXrecord
280
     1
300
INVNTOR
300
2012
300
85795PDSP_2012_0F
  0
DICTIONARY
  5
63
102
{ACAD_REACTORS
330
C
102
}
330
C
100
AcDbDictionary
281
     1
  0
DICTIONARY
  5
D
102
{ACAD_REACTORS
330
C
102
}
330
C
100
AcDbDictionary
281
     1
  0
DICTIONARY
  5
62
102
{ACAD_REACTORS
330
C
102
}
330
C
100
AcDbDictionary
281
     1
  3
Layout1
350
6B
  3
Layout2
350
73
  3
Model
350
6F
  0
DICTIONARY
  5
10
102
{ACAD_REACTORS
330
C
102
}
330
C
100
AcDbDictionary
281
     1
  3
ByBlock
350
19
  3
ByLayer
350
11
  3
Global
350
21
  0
DICTIONARY
  5
66
102
{ACAD_REACTORS
330
C
102
}
330
C
100
AcDbDictionary
281
     1
  3
Standard
350
67
  0
DICTIONARY
  5
5F
102
{ACAD_REACTORS
330
C
102
}
330
C
100
AcDbDictionary
281
     1
  3
Standard
350
60
  0
DICTIONARY
  5
61
102
{ACAD_REACTORS
330
C
102
}
330
C
100
AcDbDictionary
281
     1
  0
ACDBDICTIONARYWDFLT
  5
E
102
{ACAD_REACTORS
330
C
102
}
330
C
100
AcDbDictionary
281
     1
  3
Normal
350
F
100
AcDbDictionaryWithDefault
340
F
  0
DICTIONARY
  5
42
102
{ACAD_REACTORS
330
C
102
}
330
C
100
AcDbDictionary
281
     1
  3
A0
350
43
  3
A1
350
44
  3
A2
350
45
  3
A3
350
46
  3
A4
350
47
  3
A5
350
48
  3
A6
350
49
  3
A7
350
4A
  3
A8
350
4B
  3
A9
350
4C
  3
B0
350
4D
  3
B1
350
4E
  3
B2
350
4F
  3
B3
350
50
  3
B4
350
51
  3
B5
350
52
  3
B6
350
53
  0
DICTIONARY
  5
64
102
{ACAD_REACTORS
330
C
102
}
330
C
100
AcDbDictionary
281
     1
  3
Standard
350
65
  0
DICTIONARY
  5
29
102
{ACAD_REACTORS
330
C
102
}
330
C
100
AcDbDictionary
281
     1
  3
2dWireframe
350
2F
  3
Basic
350
2E
  3
Brighten
350
35
  3
ColorChange
350
39
  3
Conceptual
350
32
  3
Dim
350
34
  3
EdgeColorOff
350
41
  3
Facepattern
350
38
  3
Flat
350
2A
  3
FlatWithEdges
350
2B
  3
Gouraud
350
2C
  3
GouraudWithEdges
350
2D
  3
Hidden
350
31
  3
JitterOff
350
3F
  3
Linepattern
350
37
  3
OverhangOff
350
40
  3
Realistic
350
33
  3
Shaded
350
3E
  3
Shaded with edges
350
3D
  3
Shades of Gray
350
3A
  3
Sketchy
350
3B
  3
Thicken
350
36
  3
Wireframe
350
30
  3
X-Ray
350
3C
  0
XRECORD
  5
FBD
102
{ACAD_REACTORS
330
C
102
}
330
C
100
AcDbXrecord
280
     1
 90
        1
330
65
330
CED
  0
DICTIONARY
  5
76
102
{ACAD_REACTORS
330
C
102
}
330
C
100
AcDbDictionary
281
     1
  3
CANNOSCALE
350
79
  3
CMLEADERSTYLE
350
78
  3
CTABLESTYLE
350
77
  3
DIMASSOC
350
FB5
  3
HIDETEXT
350
FB4
  3
INDEXCTL
350
FB3
  3
LAYEREVAL
350
FB0
  3
LAYERNOTIFY
350
FB1
  3
LIGHTINGUNITS
350
FAF
  3
MSLTSCALE
350
FAE
  3
SORTENTS
350
FB2
  3
XCLIPFRAME
350
FB6
  0
XRECORD
  5
FBE
102
{ACAD_REACTORS
330
C
102
}
330
C
100
AcDbXrecord
280
     1
  1
DWGPROPS COOKIE
  2

  3

  4
dnichola
  6

  7

  8

  9
-
300
Manager=
301
Company=
302
Category=
303
Part Number=NP6036SSC-S
304
Description=
305
Project=
306
Designer=dnichola
307
Engineer=
308
Authority=
309
Cost Center=
 40
0.0000378009259259
 41
2455945.37106022
 42
2455945.37106022
  1

 90
       19
300
Vendor=
300
User Status=
300
Design Status=WorkInProgress
300
Checked by=
300
Engr Approved by=
300
Mfg Approved by=
300
DWG. NO=
300
NUMBER OF SHEETS=1
300
DRAWING #=
  0
XRECORD
  5
FFB
102
{ACAD_REACTORS
330
FFA
102
}
330
FFA
100
AcDbXrecord
280
     1
 40
31546.0
  1
\A1;\U+22050.500{\PTYP.(8PL.)}
  0
XRECORD
  5
FFD
102
{ACAD_REACTORS
330
FFC
102
}
330
FFC
100
AcDbXrecord
280
     1
 40
31481.0
  1
\A1;\U+22050.313{\PTYP.(4PL.)}
  0
XRECORD
  5
FBC
102
{ACAD_REACTORS
330
FBB
102
}
330
FBB
100
AcDbXrecord
280
     1
 40
4816485.0
  1
\pxsm0.94;{\fRomanS|b0|i0;\H2.1600;PART#: NP6036SSC\P(DATA SUBJECT TO CHANGE WITHOUT NOTICE) \P\fRomanS|b0|i0;\H1.2960;THIS DRAWING IS PROPERTY OF HUBBELL INC. WIEGMANN\PALL INFORMATION IS PROPRIETARY AND NOT TO BE DUPLICATED\P\fRomanS|b0|i0;\H1.0800
  1
; \P}
  0
LAYOUT
  5
6B
102
{ACAD_XDICTIONARY
360
FF4
102
}
102
{ACAD_REACTORS
330
62
102
}
330
62
100
AcDbPlotSettings
  1

  2

  4

  6

 40
0.0
 41
0.0
 42
0.0
 43
0.0
 44
0.0
 45
0.0
 46
0.0
 47
0.0
 48
0.0
 49
0.0
140
0.0
141
0.0
142
1.0
143
1.0
 70
   688
 72
     0
 73
     0
 74
     5
  7

 75
    16
147
1.0
148
0.0
149
0.0
100
AcDbLayout
  1
Layout1
 70
     1
 71
     1
 10
0.0
 20
0.0
 11
12.0
 21
9.0
 12
0.0
 22
0.0
 32
0.0
 14
0.0
 24
0.0
 34
0.0
 15
0.0
 25
0.0
 35
0.0
146
0.0
 13
0.0
 23
0.0
 33
0.0
 16
1.0
 26
0.0
 36
0.0
 17
0.0
 27
1.0
 37
0.0
 76
     0
330
68
  0
LAYOUT
  5
73
102
{ACAD_XDICTIONARY
360
FF8
102
}
102
{ACAD_REACTORS
330
62
102
}
330
62
100
AcDbPlotSettings
  1

  2

  4

  6

 40
0.0
 41
0.0
 42
0.0
 43
0.0
 44
0.0
 45
0.0
 46
0.0
 47
0.0
 48
0.0
 49
0.0
140
0.0
141
0.0
142
1.0
143
1.0
 70
   688
 72
     0
 73
     0
 74
     5
  7

 75
    16
147
1.0
148
0.0
149
0.0
100
AcDbLayout
  1
Layout2
 70
     1
 71
     2
 10
0.0
 20
0.0
 11
12.0
 21
9.0
 12
0.0
 22
0.0
 32
0.0
 14
0.0
 24
0.0
 34
0.0
 15
0.0
 25
0.0
 35
0.0
146
0.0
 13
0.0
 23
0.0
 33
0.0
 16
1.0
 26
0.0
 36
0.0
 17
0.0
 27
1.0
 37
0.0
 76
     0
330
70
  0
LAYOUT
  5
6F
102
{ACAD_XDICTIONARY
360
FF6
102
}
102
{ACAD_REACTORS
330
62
102
}
330
62
100
AcDbPlotSettings
  1

  2

  4

  6

 40
0.0
 41
0.0
 42
0.0
 43
0.0
 44
0.0
 45
0.0
 46
0.0
 47
0.0
 48
0.0
 49
0.0
140
0.0
141
0.0
142
1.0
143
1.0
 70
  1712
 72
     0
 73
     0
 74
     0
  7

 75
     0
147
1.0
148
0.0
149
0.0
100
AcDbLayout
  1
Model
 70
     1
 71
     0
 10
0.0
 20
0.0
 11
12.0
 21
9.0
 12
0.0
 22
0.0
 32
0.0
 14
0.0
 24
0.0
 34
0.0
 15
0.0
 25
0.0
 35
0.0
146
0.0
 13
0.0
 23
0.0
 33
0.0
 16
1.0
 26
0.0
 36
0.0
 17
0.0
 27
1.0
 37
0.0
 76
     0
330
6C
  0
MATERIAL
  5
19
102
{ACAD_XDICTIONARY
360
1A
102
}
102
{ACAD_REACTORS
330
10
102
}
330
10
100
AcDbMaterial
  1
ByBlock
 72
     0
 43
0.0208333333333333
 43
0.0
 43
0.0
 43
0.0
 43
0.0
 43
0.0208333333333333
 43
0.0
 43
0.0
 43
0.0
 43
0.0
 43
1.0
 43
0.0
 43
0.0
 43
0.0
 43
0.0
 43
1.0
 77
     0
 47
0.0208333333333333
 47
0.0
 47
0.0
 47
0.0
 47
0.0
 47
0.0208333333333333
 47
0.0
 47
0.0
 47
0.0
 47
0.0
 47
1.0
 47
0.0
 47
0.0
 47
0.0
 47
0.0
 47
1.0
171
     0
 49
0.0208333333333333
 49
0.0
 49
0.0
 49
0.0
 49
0.0
 49
0.0208333333333333
 49
0.0
 49
0.0
 49
0.0
 49
0.0
 49
1.0
 49
0.0
 49
0.0
 49
0.0
 49
0.0
 49
1.0
175
     0
142
0.0208333333333333
142
0.0
142
0.0
142
0.0
142
0.0
142
0.0208333333333333
142
0.0
142
0.0
142
0.0
142
0.0
142
1.0
142
0.0
142
0.0
142
0.0
142
0.0
142
1.0
179
     0
144
0.0208333333333333
144
0.0
144
0.0
144
0.0
144
0.0
144
0.0208333333333333
144
0.0
144
0.0
144
0.0
144
0.0
144
1.0
144
0.0
144
0.0
144
0.0
144
0.0
144
1.0
147
0.0208333333333333
147
0.0
147
0.0
147
0.0
147
0.0
147
0.0208333333333333
147
0.0
147
0.0
147
0.0
147
0.0
147
1.0
147
0.0
147
0.0
147
0.0
147
0.0
147
1.0
  0
MATERIAL
  5
11
102
{ACAD_XDICTIONARY
360
12
102
}
102
{ACAD_REACTORS
330
10
102
}
330
10
100
AcDbMaterial
  1
ByLayer
 72
     0
 43
0.0208333333333333
 43
0.0
 43
0.0
 43
0.0
 43
0.0
 43
0.0208333333333333
 43
0.0
 43
0.0
 43
0.0
 43
0.0
 43
1.0
 43
0.0
 43
0.0
 43
0.0
 43
0.0
 43
1.0
 77
     0
 47
0.0208333333333333
 47
0.0
 47
0.0
 47
0.0
 47
0.0
 47
0.0208333333333333
 47
0.0
 47
0.0
 47
0.0
 47
0.0
 47
1.0
 47
0.0
 47
0.0
 47
0.0
 47
0.0
 47
1.0
171
     0
 49
0.0208333333333333
 49
0.0
 49
0.0
 49
0.0
 49
0.0
 49
0.0208333333333333
 49
0.0
 49
0.0
 49
0.0
 49
0.0
 49
1.0
 49
0.0
 49
0.0
 49
0.0
 49
0.0
 49
1.0
175
     0
142
0.0208333333333333
142
0.0
142
0.0
142
0.0
142
0.0
142
0.0208333333333333
142
0.0
142
0.0
142
0.0
142
0.0
142
1.0
142
0.0
142
0.0
142
0.0
142
0.0
142
1.0
179
     0
144
0.0208333333333333
144
0.0
144
0.0
144
0.0
144
0.0
144
0.0208333333333333
144
0.0
144
0.0
144
0.0
144
0.0
144
1.0
144
0.0
144
0.0
144
0.0
144
0.0
144
1.0
147
0.0208333333333333
147
0.0
147
0.0
147
0.0
147
0.0
147
0.0208333333333333
147
0.0
147
0.0
147
0.0
147
0.0
147
1.0
147
0.0
147
0.0
147
0.0
147
0.0
147
1.0
  0
MATERIAL
  5
21
102
{ACAD_XDICTIONARY
360
22
102
}
102
{ACAD_REACTORS
330
10
102
}
330
10
100
AcDbMaterial
  1
Global
 72
     0
 43
0.0208333333333333
 43
0.0
 43
0.0
 43
0.0
 43
0.0
 43
0.0208333333333333
 43
0.0
 43
0.0
 43
0.0
 43
0.0
 43
1.0
 43
0.0
 43
0.0
 43
0.0
 43
0.0
 43
1.0
 77
     0
 47
0.0208333333333333
 47
0.0
 47
0.0
 47
0.0
 47
0.0
 47
0.0208333333333333
 47
0.0
 47
0.0
 47
0.0
 47
0.0
 47
1.0
 47
0.0
 47
0.0
 47
0.0
 47
0.0
 47
1.0
171
     0
 49
0.0208333333333333
 49
0.0
 49
0.0
 49
0.0
 49
0.0
 49
0.0208333333333333
 49
0.0
 49
0.0
 49
0.0
 49
0.0
 49
1.0
 49
0.0
 49
0.0
 49
0.0
 49
0.0
 49
1.0
175
     0
142
0.0208333333333333
142
0.0
142
0.0
142
0.0
142
0.0
142
0.0208333333333333
142
0.0
142
0.0
142
0.0
142
0.0
142
1.0
142
0.0
142
0.0
142
0.0
142
0.0
142
1.0
179
     0
144
0.0208333333333333
144
0.0
144
0.0
144
0.0
144
0.0
144
0.0208333333333333
144
0.0
144
0.0
144
0.0
144
0.0
144
1.0
144
0.0
144
0.0
144
0.0
144
0.0
144
1.0
147
0.0208333333333333
147
0.0
147
0.0
147
0.0
147
0.0
147
0.0208333333333333
147
0.0
147
0.0
147
0.0
147
0.0
147
1.0
147
0.0
147
0.0
147
0.0
147
0.0
147
1.0
  0
MLEADERSTYLE
  5
67
102
{ACAD_XDICTIONARY
360
FB9
102
}
102
{ACAD_REACTORS
330
66
102
}
330
66
100
AcDbMLeaderStyle
170
     2
171
     1
172
     0
 90
        2
 40
0.0
 41
0.0
173
     1
 91
-1056964608
340
5B
 92
       -2
290
     1
 42
0.09
291
     1
 43
0.36
  3
Standard
 44
0.18
300

342
55
174
     1
178
     6
175
     1
176
     0
 93
-1056964608
 45
0.18
292
     0
297
     0
 46
0.18
 94
-1056964608
 47
1.0
 49
1.0
140
1.0
293
     1
141
0.0
294
     1
177
     0
142
1.0
295
     0
296
     0
143
0.125
1001
ACAD_MLEADERVER
1070
     2
  0
MLINESTYLE
  5
60
102
{ACAD_REACTORS
330
5F
102
}
330
5F
100
AcDbMlineStyle
  2
STANDARD
 70
     0
  3

 62
   256
 51
90.0
 52
90.0
 71
     2
 49
0.5
 62
   256
  6
BYLAYER
 49
-0.5
 62
   256
  6
BYLAYER
  0
ACDBPLACEHOLDER
  5
F
102
{ACAD_REACTORS
330
E
102
}
330
E
  0
SCALE
  5
43
102
{ACAD_REACTORS
330
42
102
}
330
42
100
AcDbScale
 70
     0
300
1:1
140
1.0
141
1.0
290
     1
  0
SCALE
  5
44
102
{ACAD_REACTORS
330
42
102
}
330
42
100
AcDbScale
 70
     0
300
1/128" = 1'-0"
140
0.0078125
141
12.0
290
     0
  0
SCALE
  5
45
102
{ACAD_REACTORS
330
42
102
}
330
42
100
AcDbScale
 70
     0
300
1/64" = 1'-0"
140
0.015625
141
12.0
290
     0
  0
SCALE
  5
46
102
{ACAD_REACTORS
330
42
102
}
330
42
100
AcDbScale
 70
     0
300
1/32" = 1'-0"
140
0.03125
141
12.0
290
     0
  0
SCALE
  5
47
102
{ACAD_REACTORS
330
42
102
}
330
42
100
AcDbScale
 70
     0
300
1/16" = 1'-0"
140
0.0625
141
12.0
290
     0
  0
SCALE
  5
48
102
{ACAD_REACTORS
330
42
102
}
330
42
100
AcDbScale
 70
     0
300
3/32" = 1'-0"
140
0.09375
141
12.0
290
     0
  0
SCALE
  5
49
102
{ACAD_REACTORS
330
42
102
}
330
42
100
AcDbScale
 70
     0
300
1/8" = 1'-0"
140
0.125
141
12.0
290
     0
  0
SCALE
  5
4A
102
{ACAD_REACTORS
330
42
102
}
330
42
100
AcDbScale
 70
     0
300
3/16" = 1'-0"
140
0.1875
141
12.0
290
     0
  0
SCALE
  5
4B
102
{ACAD_REACTORS
330
42
102
}
330
42
100
AcDbScale
 70
     0
300
1/4" = 1'-0"
140
0.25
141
12.0
290
     0
  0
SCALE
  5
4C
102
{ACAD_REACTORS
330
42
102
}
330
42
100
AcDbScale
 70
     0
300
3/8" = 1'-0"
140
0.375
141
12.0
290
     0
  0
SCALE
  5
4D
102
{ACAD_REACTORS
330
42
102
}
330
42
100
AcDbScale
 70
     0
300
1/2" = 1'-0"
140
0.5
141
12.0
290
     0
  0
SCALE
  5
4E
102
{ACAD_REACTORS
330
42
102
}
330
42
100
AcDbScale
 70
     0
300
3/4" = 1'-0"
140
0.75
141
12.0
290
     0
  0
SCALE
  5
4F
102
{ACAD_REACTORS
330
42
102
}
330
42
100
AcDbScale
 70
     0
300
1" = 1'-0"
140
1.0
141
12.0
290
     0
  0
SCALE
  5
50
102
{ACAD_REACTORS
330
42
102
}
330
42
100
AcDbScale
 70
     0
300
1-1/2" = 1'-0"
140
1.5
141
12.0
290
     0
  0
SCALE
  5
51
102
{ACAD_REACTORS
330
42
102
}
330
42
100
AcDbScale
 70
     0
300
3" = 1'-0"
140
3.0
141
12.0
290
     0
  0
SCALE
  5
52
102
{ACAD_REACTORS
330
42
102
}
330
42
100
AcDbScale
 70
     0
300
6" = 1'-0"
140
6.0
141
12.0
290
     0
  0
SCALE
  5
53
102
{ACAD_REACTORS
330
42
102
}
330
42
100
AcDbScale
 70
     0
300
1'-0" = 1'-0"
140
12.0
141
12.0
290
     0
  0
TABLESTYLE
  5
65
102
{ACAD_XDICTIONARY
360
FB7
102
}
102
{ACAD_REACTORS
330
64
102
}
330
64
100
AcDbTableStyle
  3
Standard
 70
     0
 71
     0
 40
0.06
 41
0.06
280
     0
281
     0
  7
Standard
140
0.18
170
     2
 62
     0
 63
     7
283
     0
274
    -2
284
     1
 64
     0
275
    -2
285
     1
 65
     0
276
    -2
286
     1
 66
     0
277
    -2
287
     1
 67
     0
278
    -2
288
     1
 68
     0
279
    -2
289
     1
 69
     0
  7
Standard
140
0.25
170
     5
 62
     0
 63
     7
283
     0
274
    -2
284
     1
 64
     0
275
    -2
285
     1
 65
     0
276
    -2
286
     1
 66
     0
277
    -2
287
     1
 67
     0
278
    -2
288
     1
 68
     0
279
    -2
289
     1
 69
     0
  7
Standard
140
0.18
170
     5
 62
     0
 63
     7
283
     0
274
    -2
284
     1
 64
     0
275
    -2
285
     1
 65
     0
276
    -2
286
     1
 66
     0
277
    -2
287
     1
 67
     0
278
    -2
288
     1
 68
     0
279
    -2
289
     1
 69
     0
  0
VISUALSTYLE
  5
2F
102
{ACAD_XDICTIONARY
360
FCC
102
}
102
{ACAD_REACTORS
330
29
102
}
330
29
100
AcDbVisualStyle
  2
2dWireframe
 70
     4
 71
     0
 72
     2
 73
     0
 90
        0
 40
-0.6
 41
-30.0
 62
     5
 63
     7
 74
     1
 91
        4
 64
     7
 65
   257
 75
     1
175
     1
 42
1.0
 92
        0
 66
   257
 43
1.0
 76
     1
 77
     6
 78
     2
 67
     7
 79
     5
170
     0
171
     0
290
     0
174
     0
 93
        1
 44
0.0
173
     0
291
     0
 45
0.0
1001
ACAD
1000
AcDbSavedByObjectVersion
1070
     0
  0
VISUALSTYLE
  5
2E
102
{ACAD_XDICTIONARY
360
FCA
102
}
102
{ACAD_REACTORS
330
29
102
}
330
29
100
AcDbVisualStyle
  2
Basic
 70
     7
 71
     1
 72
     0
 73
     1
 90
        0
 40
-0.6
 41
-30.0
 62
     5
 63
     7
 74
     0
 91
        4
 64
     7
 65
   257
 75
     1
175
     1
 42
1.0
 92
        8
 66
     7
 43
1.0
 76
     1
 77
     6
 78
     2
 67
     7
 79
     5
170
     0
171
     0
290
     0
174
     0
 93
        1
 44
0.0
173
     0
291
     1
 45
0.0
1001
ACAD
1000
AcDbSavedByObjectVersion
1070
     0
  0
VISUALSTYLE
  5
35
102
{ACAD_XDICTIONARY
360
FD8
102
}
102
{ACAD_REACTORS
330
29
102
}
330
29
100
AcDbVisualStyle
  2
Brighten
 70
    12
 71
     2
 72
     2
 73
     0
 90
        0
 40
-0.6
 41
-30.0
 62
     5
 63
     7
 74
     1
 91
        4
 64
     7
 65
   257
 75
     1
175
     1
 42
1.0
 92
        8
 66
     7
 43
1.0
 76
     1
 77
     6
 78
     2
 67
     7
 79
     5
170
     0
171
     0
290
     0
174
     0
 93
        1
 44
50.0
173
     0
291
     1
 45
0.0
1001
ACAD
1000
AcDbSavedByObjectVersion
1070
     0
  0
VISUALSTYLE
  5
39
102
{ACAD_XDICTIONARY
360
FE0
102
}
102
{ACAD_REACTORS
330
29
102
}
330
29
100
AcDbVisualStyle
  2
ColorChange
 70
    16
 71
     2
 72
     2
 73
     3
 90
        0
 40
-0.6
 41
-30.0
 62
     5
 63
     8
 74
     1
 91
        4
 64
     7
 65
   257
 75
     1
175
     1
 42
1.0
 92
        8
 66
     8
 43
1.0
 76
     1
 77
     6
 78
     2
 67
     7
 79
     5
170
     0
171
     0
290
     0
174
     0
 93
        1
 44
0.0
173
     0
291
     1
 45
0.0
1001
ACAD
1000
AcDbSavedByObjectVersion
1070
     0
  0
VISUALSTYLE
  5
32
102
{ACAD_XDICTIONARY
360
FD2
102
}
102
{ACAD_REACTORS
330
29
102
}
330
29
100
AcDbVisualStyle
  2
Conceptual
 70
     9
 71
     3
 72
     2
 73
     0
 90
        0
 40
-0.6
 41
-30.0
 62
     5
 63
     7
 74
     2
 91
        2
 64
     7
 65
   257
 75
     1
175
     1
 42
179.0
 92
        8
 66
     7
 43
1.0
 76
     1
 77
     6
 78
     2
 67
     7
 79
     3
170
     0
171
     0
290
     0
174
     0
 93
        1
 44
0.0
173
     0
291
     0
 45
0.0
1001
ACAD
1000
AcDbSavedByObjectVersion
1070
     0
  0
VISUALSTYLE
  5
34
102
{ACAD_XDICTIONARY
360
FD6
102
}
102
{ACAD_REACTORS
330
29
102
}
330
29
100
AcDbVisualStyle
  2
Dim
 70
    11
 71
     2
 72
     2
 73
     0
 90
        0
 40
-0.6
 41
-30.0
 62
     5
 63
     7
 74
     1
 91
        4
 64
     7
 65
   257
 75
     1
175
     1
 42
1.0
 92
        8
 66
     7
 43
1.0
 76
     1
 77
     6
 78
     2
 67
     7
 79
     5
170
     0
171
     0
290
     0
174
     0
 93
        1
 44
-50.0
173
     0
291
     1
 45
0.0
1001
ACAD
1000
AcDbSavedByObjectVersion
1070
     0
  0
VISUALSTYLE
  5
41
102
{ACAD_XDICTIONARY
360
FF0
102
}
102
{ACAD_REACTORS
330
29
102
}
330
29
100
AcDbVisualStyle
  2
EdgeColorOff
 70
    22
 71
     2
 72
     2
 73
     0
 90
        0
 40
-0.6
 41
-30.0
 62
     5
 63
     7
 74
     1
 91
        4
 64
     7
 65
   257
 75
     1
175
     1
 42
1.0
 92
        8
 66
     7
 43
1.0
 76
     1
 77
     6
 78
     2
 67
     7
 79
     5
170
     0
171
     0
290
     0
174
     0
 93
        1
 44
0.0
173
     0
291
     1
 45
0.0
1001
ACAD
1000
AcDbSavedByObjectVersion
1070
     0
  0
VISUALSTYLE
  5
38
102
{ACAD_XDICTIONARY
360
FDE
102
}
102
{ACAD_REACTORS
330
29
102
}
330
29
100
AcDbVisualStyle
  2
Facepattern
 70
    15
 71
     2
 72
     2
 73
     0
 90
        0
 40
-0.6
 41
-30.0
 62
     5
 63
     7
 74
     1
 91
        4
 64
     7
 65
   257
 75
     1
175
     1
 42
1.0
 92
        8
 66
     7
 43
1.0
 76
     1
 77
     6
 78
     2
 67
     7
 79
     5
170
     0
171
     0
290
     0
174
     0
 93
        1
 44
0.0
173
     0
291
     1
 45
0.0
1001
ACAD
1000
AcDbSavedByObjectVersion
1070
     0
  0
VISUALSTYLE
  5
2A
102
{ACAD_XDICTIONARY
360
FC2
102
}
102
{ACAD_REACTORS
330
29
102
}
330
29
100
AcDbVisualStyle
  2
Flat
 70
     0
 71
     2
 72
     1
 73
     1
 90
        2
 40
-0.6
 41
30.0
 62
     5
 63
     7
 74
     0
 91
        0
 64
     7
 65
   257
 75
     1
175
     1
 42
1.0
 92
        8
 66
     7
 43
1.0
 76
     1
 77
     6
 78
     2
 67
     7
 79
     5
170
     0
171
     0
290
     0
174
     0
 93
       13
 44
0.0
173
     0
291
     1
 45
0.0
1001
ACAD
1000
AcDbSavedByObjectVersion
1070
     0
  0
VISUALSTYLE
  5
2B
102
{ACAD_XDICTIONARY
360
FC4
102
}
102
{ACAD_REACTORS
330
29
102
}
330
29
100
AcDbVisualStyle
  2
FlatWithEdges
 70
     1
 71
     2
 72
     1
 73
     1
 90
        2
 40
-0.6
 41
30.0
 62
     5
 63
     7
 74
     1
 91
        0
 64
     7
 65
   257
 75
     1
175
     1
 42
1.0
 92
        0
 66
   257
 43
1.0
 76
     1
 77
     6
 78
     2
 67
     7
 79
     5
170
     0
171
     0
290
     0
174
     0
 93
       13
 44
0.0
173
     0
291
     1
 45
0.0
1001
ACAD
1000
AcDbSavedByObjectVersion
1070
     0
  0
VISUALSTYLE
  5
2C
102
{ACAD_XDICTIONARY
360
FC6
102
}
102
{ACAD_REACTORS
330
29
102
}
330
29
100
AcDbVisualStyle
  2
Gouraud
 70
     2
 71
     2
 72
     2
 73
     1
 90
        2
 40
-0.6
 41
30.0
 62
     5
 63
     7
 74
     0
 91
        0
 64
     7
 65
   257
 75
     1
175
     1
 42
1.0
 92
        0
 66
     7
 43
1.0
 76
     1
 77
     6
 78
     2
 67
     7
 79
     5
170
     0
171
     0
290
     0
174
     0
 93
       13
 44
0.0
173
     0
291
     1
 45
0.0
1001
ACAD
1000
AcDbSavedByObjectVersion
1070
     0
  0
VISUALSTYLE
  5
2D
102
{ACAD_XDICTIONARY
360
FC8
102
}
102
{ACAD_REACTORS
330
29
102
}
330
29
100
AcDbVisualStyle
  2
GouraudWithEdges
 70
     3
 71
     2
 72
     2
 73
     1
 90
        2
 40
-0.6
 41
30.0
 62
     5
 63
     7
 74
     1
 91
        0
 64
     7
 65
   257
 75
     1
175
     1
 42
1.0
 92
        0
 66
   257
 43
1.0
 76
     1
 77
     6
 78
     2
 67
     7
 79
     5
170
     0
171
     0
290
     0
174
     0
 93
       13
 44
0.0
173
     0
291
     1
 45
0.0
1001
ACAD
1000
AcDbSavedByObjectVersion
1070
     0
  0
VISUALSTYLE
  5
31
102
{ACAD_XDICTIONARY
360
FD0
102
}
102
{ACAD_REACTORS
330
29
102
}
330
29
100
AcDbVisualStyle
  2
Hidden
 70
     6
 71
     1
 72
     2
 73
     2
 90
        0
 40
-0.6
 41
-30.0
 62
     5
 63
     7
 74
     2
 91
        2
 64
     7
 65
   257
 75
     2
175
     1
 42
40.0
 92
        0
 66
   257
 43
1.0
 76
     1
 77
     6
 78
     2
 67
     7
 79
     3
170
     0
171
     0
290
     0
174
     0
 93
        1
 44
0.0
173
     0
291
     0
 45
0.0
1001
ACAD
1000
AcDbSavedByObjectVersion
1070
     0
  0
VISUALSTYLE
  5
3F
102
{ACAD_XDICTIONARY
360
FEC
102
}
102
{ACAD_REACTORS
330
29
102
}
330
29
100
AcDbVisualStyle
  2
JitterOff
 70
    20
 71
     2
 72
     2
 73
     0
 90
        0
 40
-0.6
 41
-30.0
 62
     5
 63
     7
 74
     1
 91
        4
 64
     7
 65
   257
 75
     1
175
     1
 42
1.0
 92
       10
 66
     7
 43
1.0
 76
     1
 77
     6
 78
     2
 67
     7
 79
     5
170
     0
171
     0
290
     0
174
     0
 93
        1
 44
0.0
173
     0
291
     1
 45
0.0
1001
ACAD
1000
AcDbSavedByObjectVersion
1070
     0
  0
VISUALSTYLE
  5
37
102
{ACAD_XDICTIONARY
360
FDC
102
}
102
{ACAD_REACTORS
330
29
102
}
330
29
100
AcDbVisualStyle
  2
Linepattern
 70
    14
 71
     2
 72
     2
 73
     0
 90
        0
 40
-0.6
 41
-30.0
 62
     5
 63
     7
 74
     1
 91
        4
 64
     7
 65
   257
 75
     7
175
     7
 42
1.0
 92
        8
 66
     7
 43
1.0
 76
     1
 77
     6
 78
     2
 67
     7
 79
     5
170
     0
171
     0
290
     0
174
     0
 93
        1
 44
0.0
173
     0
291
     1
 45
0.0
1001
ACAD
1000
AcDbSavedByObjectVersion
1070
     0
  0
VISUALSTYLE
  5
40
102
{ACAD_XDICTIONARY
360
FEE
102
}
102
{ACAD_REACTORS
330
29
102
}
330
29
100
AcDbVisualStyle
  2
OverhangOff
 70
    21
 71
     2
 72
     2
 73
     0
 90
        0
 40
-0.6
 41
-30.0
 62
     5
 63
     7
 74
     1
 91
        4
 64
     7
 65
   257
 75
     1
175
     1
 42
1.0
 92
        9
 66
     7
 43
1.0
 76
     1
 77
     6
 78
     2
 67
     7
 79
     5
170
     0
171
     0
290
     0
174
     0
 93
        1
 44
0.0
173
     0
291
     1
 45
0.0
1001
ACAD
1000
AcDbSavedByObjectVersion
1070
     0
  0
VISUALSTYLE
  5
33
102
{ACAD_XDICTIONARY
360
FD4
102
}
102
{ACAD_REACTORS
330
29
102
}
330
29
100
AcDbVisualStyle
  2
Realistic
 70
     8
 71
     2
 72
     3
 73
     0
 90
        2
 40
-0.6
 41
30.0
 62
     5
 63
     7
 74
     0
 91
        0
 64
     7
 65
   257
 75
     1
175
     1
 42
1.0
 92
        8
 66
   257
 43
1.0
 76
     1
 77
     6
 78
     2
 67
     7
 79
     3
170
     0
171
     0
290
     0
174
     0
 93
       13
 44
0.0
173
     0
291
     0
 45
0.0
1001
ACAD
1000
AcDbSavedByObjectVersion
1070
     0
  0
VISUALSTYLE
  5
3E
102
{ACAD_XDICTIONARY
360
FEA
102
}
102
{ACAD_REACTORS
330
29
102
}
330
29
100
AcDbVisualStyle
  2
Shaded
 70
    27
 71
     2
 72
     2
 73
     1
 90
        2
 40
-0.6
 41
30.0
 62
     5
 63
     7
 74
     0
 91
        4
 64
     7
 65
   257
 75
     1
175
     1
 42
1.0
 92
        8
 66
   257
 43
1.0
 76
     1
 77
     6
 78
     2
 67
     8
 79
     3
170
     0
171
     0
290
     0
174
     0
 93
        5
 44
0.0
173
     0
291
     0
 45
0.0
1001
ACAD
1000
AcDbSavedByObjectVersion
1070
     0
  0
VISUALSTYLE
  5
3D
102
{ACAD_XDICTIONARY
360
FE8
102
}
102
{ACAD_REACTORS
330
29
102
}
330
29
100
AcDbVisualStyle
  2
Shaded with edges
 70
    26
 71
     2
 72
     2
 73
     1
 90
        2
 40
-0.6
 41
30.0
 62
     5
 63
     7
 74
     1
 91
       10
 64
     7
 65
   257
 75
     2
175
     1
 42
1.0
 92
        8
 66
   257
 43
1.0
 76
     1
 77
     6
 78
     2
 67
     7
 79
     3
170
     0
171
     0
290
     0
174
     0
 93
        5
 44
0.0
173
     0
291
     0
 45
0.0
1001
ACAD
1000
AcDbSavedByObjectVersion
1070
     0
  0
VISUALSTYLE
  5
3A
102
{ACAD_XDICTIONARY
360
FE2
102
}
102
{ACAD_REACTORS
330
29
102
}
330
29
100
AcDbVisualStyle
  2
Shades of Gray
 70
    23
 71
     2
 72
     2
 73
     3
 90
        0
 40
-0.6
 41
-30.0
 62
     5
 63
     7
 74
     2
 91
        2
 64
     7
 65
     7
 75
     1
175
     1
 42
40.0
 92
        8
 66
     7
 43
1.0
 76
     1
 77
     6
 78
     2
 67
     7
 79
     3
170
     0
171
     0
290
     0
174
     0
 93
        1
 44
0.0
173
     0
291
     0
 45
0.0
1001
ACAD
1000
AcDbSavedByObjectVersion
1070
     0
  0
VISUALSTYLE
  5
3B
102
{ACAD_XDICTIONARY
360
FE4
102
}
102
{ACAD_REACTORS
330
29
102
}
330
29
100
AcDbVisualStyle
  2
Sketchy
 70
    24
 71
     1
 72
     2
 73
     2
 90
        0
 40
-0.6
 41
-30.0
 62
     5
 63
     7
 74
     2
 91
        2
 64
     7
 65
     7
 75
     1
175
     1
 42
40.0
 92
       11
 66
     7
 43
1.0
 76
     1
 77
     6
 78
     2
 67
     7
 79
     6
170
     0
171
     0
290
     0
174
     0
 93
        1
 44
0.0
173
     0
291
     0
 45
0.0
1001
ACAD
1000
AcDbSavedByObjectVersion
1070
     0
  0
VISUALSTYLE
  5
36
102
{ACAD_XDICTIONARY
360
FDA
102
}
102
{ACAD_REACTORS
330
29
102
}
330
29
100
AcDbVisualStyle
  2
Thicken
 70
    13
 71
     2
 72
     2
 73
     0
 90
        0
 40
-0.6
 41
-30.0
 62
     5
 63
     7
 74
     1
 91
        4
 64
     7
 65
   257
 75
     1
175
     1
 42
1.0
 92
       12
 66
     7
 43
1.0
 76
     1
 77
     6
 78
     2
 67
     7
 79
     5
170
     0
171
     0
290
     0
174
     0
 93
        1
 44
0.0
173
     0
291
     1
 45
0.0
1001
ACAD
1000
AcDbSavedByObjectVersion
1070
     0
  0
VISUALSTYLE
  5
30
102
{ACAD_XDICTIONARY
360
FCE
102
}
102
{ACAD_REACTORS
330
29
102
}
330
29
100
AcDbVisualStyle
  2
Wireframe
 70
     5
 71
     0
 72
     2
 73
     0
 90
        0
 40
-0.6
 41
-30.0
 62
     5
 63
     7
 74
     1
 91
        4
 64
     7
 65
   257
 75
     1
175
     1
 42
1.0
 92
        0
 66
   257
 43
1.0
 76
     1
 77
     6
 78
     2
 67
     7
 79
     3
170
     0
171
     0
290
     0
174
     0
 93
        1
 44
0.0
173
     0
291
     0
 45
0.0
1001
ACAD
1000
AcDbSavedByObjectVersion
1070
     0
  0
VISUALSTYLE
  5
3C
102
{ACAD_XDICTIONARY
360
FE6
102
}
102
{ACAD_REACTORS
330
29
102
}
330
29
100
AcDbVisualStyle
  2
X-Ray
 70
    25
 71
     2
 72
     2
 73
     1
 90
        1
 40
0.5
 41
-30.0
 62
     5
 63
     7
 74
     1
 91
        0
 64
     7
 65
   257
 75
     1
175
     1
 42
1.0
 92
        8
 66
     7
 43
1.0
 76
     1
 77
     6
 78
     2
 67
     7
 79
     3
170
     0
171
     0
290
     0
174
     0
 93
       13
 44
0.0
173
     0
291
     0
 45
0.0
1001
ACAD
1000
AcDbSavedByObjectVersion
1070
     0
  0
DICTIONARYVAR
  5
79
102
{ACAD_REACTORS
330
76
102
}
330
76
100
DictionaryVariables
280
     0
  1
1:1
  0
DICTIONARYVAR
  5
78
102
{ACAD_REACTORS
330
76
102
}
330
76
100
DictionaryVariables
280
     0
  1
STANDARD
  0
DICTIONARYVAR
  5
77
102
{ACAD_REACTORS
330
76
102
}
330
76
100
DictionaryVariables
280
     0
  1
STANDARD
  0
DICTIONARYVAR
  5
FB5
102
{ACAD_REACTORS
330
76
102
}
330
76
100
DictionaryVariables
280
     0
  1
1
  0
DICTIONARYVAR
  5
FB4
102
{ACAD_REACTORS
330
76
102
}
330
76
100
DictionaryVariables
280
     0
  1
1
  0
DICTIONARYVAR
  5
FB3
102
{ACAD_REACTORS
330
76
102
}
330
76
100
DictionaryVariables
280
     0
  1
0
  0
DICTIONARYVAR
  5
FB0
102
{ACAD_REACTORS
330
76
102
}
330
76
100
DictionaryVariables
280
     0
  1
0
  0
DICTIONARYVAR
  5
FB1
102
{ACAD_REACTORS
330
76
102
}
330
76
100
DictionaryVariables
280
     0
  1
0
  0
DICTIONARYVAR
  5
FAF
102
{ACAD_REACTORS
330
76
102
}
330
76
100
DictionaryVariables
280
     0
  1
2
  0
DICTIONARYVAR
  5
FAE
102
{ACAD_REACTORS
330
76
102
}
330
76
100
DictionaryVariables
280
     0
  1
1
  0
DICTIONARYVAR
  5
FB2
102
{ACAD_REACTORS
330
76
102
}
330
76
100
DictionaryVariables
280
     0
  1
127
  0
DICTIONARYVAR
  5
FB6
102
{ACAD_REACTORS
330
76
102
}
330
76
100
DictionaryVariables
280
     0
  1
2
  0
DICTIONARY
  5
FF4
330
6B
100
AcDbDictionary
280
     1
281
     1
  3
ACAD_XREC_ROUNDTRIP
360
FF5
  0
DICTIONARY
  5
FF8
330
73
100
AcDbDictionary
280
     1
281
     1
  3
ACAD_XREC_ROUNDTRIP
360
FF9
  0
DICTIONARY
  5
FF6
330
6F
100
AcDbDictionary
280
     1
281
     1
  3
ACAD_XREC_ROUNDTRIP
360
FF7
  0
DICTIONARY
  5
1A
330
19
100
AcDbDictionary
280
     1
281
     1
  3
ACAD_XREC_ROUNDTRIP
360
FC0
  3
BUMPTILE
360
1C
  3
DIFFUSETILE
360
1B
  3
OPACITYTILE
360
1F
  3
REFLECTIONTILE
360
1E
  3
REFRACTIONTILE
360
20
  3
SPECULARTILE
360
1D
  0
DICTIONARY
  5
12
330
11
100
AcDbDictionary
280
     1
281
     1
  3
ACAD_XREC_ROUNDTRIP
360
FBF
  3
BUMPTILE
360
14
  3
DIFFUSETILE
360
13
  3
FBXASSET
360
109
  3
OPACITYTILE
360
17
  3
REFLECTIONTILE
360
16
  3
REFRACTIONTILE
360
18
  3
SPECULARTILE
360
15
  0
DICTIONARY
  5
22
330
21
100
AcDbDictionary
280
     1
281
     1
  3
ACAD_XREC_ROUNDTRIP
360
FC1
  3
BUMPTILE
360
24
  3
DIFFUSETILE
360
23
  3
FBXASSET
360
BA
  3
OPACITYTILE
360
27
  3
REFLECTIONTILE
360
26
  3
REFRACTIONTILE
360
28
  3
SPECULARTILE
360
25
  0
DICTIONARY
  5
FB9
330
67
100
AcDbDictionary
280
     1
281
     1
  3
ACAD_XREC_ROUNDTRIP
360
FBA
  0
DICTIONARY
  5
FB7
330
65
100
AcDbDictionary
280
     1
281
     1
  3
ACAD_ROUNDTRIP_2008_TABLESTYLE_CELLSTYLEMAP
360
FB8
  3
ACAD_XREC_ROUNDTRIP
360
FF2
  0
DICTIONARY
  5
FCC
330
2F
100
AcDbDictionary
280
     1
281
     1
  3
ACAD_XREC_ROUNDTRIP
360
FCD
  0
DICTIONARY
  5
FCA
330
2E
100
AcDbDictionary
280
     1
281
     1
  3
ACAD_XREC_ROUNDTRIP
360
FCB
  0
DICTIONARY
  5
FD8
330
35
100
AcDbDictionary
280
     1
281
     1
  3
ACAD_XREC_ROUNDTRIP
360
FD9
  0
DICTIONARY
  5
FE0
330
39
100
AcDbDictionary
280
     1
281
     1
  3
ACAD_XREC_ROUNDTRIP
360
FE1
  0
DICTIONARY
  5
FD2
330
32
100
AcDbDictionary
280
     1
281
     1
  3
ACAD_XREC_ROUNDTRIP
360
FD3
  0
DICTIONARY
  5
FD6
330
34
100
AcDbDictionary
280
     1
281
     1
  3
ACAD_XREC_ROUNDTRIP
360
FD7
  0
DICTIONARY
  5
FF0
330
41
100
AcDbDictionary
280
     1
281
     1
  3
ACAD_XREC_ROUNDTRIP
360
FF1
  0
DICTIONARY
  5
FDE
330
38
100
AcDbDictionary
280
     1
281
     1
  3
ACAD_XREC_ROUNDTRIP
360
FDF
  0
DICTIONARY
  5
FC2
330
2A
100
AcDbDictionary
280
     1
281
     1
  3
ACAD_XREC_ROUNDTRIP
360
FC3
  0
DICTIONARY
  5
FC4
330
2B
100
AcDbDictionary
280
     1
281
     1
  3
ACAD_XREC_ROUNDTRIP
360
FC5
  0
DICTIONARY
  5
FC6
330
2C
100
AcDbDictionary
280
     1
281
     1
  3
ACAD_XREC_ROUNDTRIP
360
FC7
  0
DICTIONARY
  5
FC8
330
2D
100
AcDbDictionary
280
     1
281
     1
  3
ACAD_XREC_ROUNDTRIP
360
FC9
  0
DICTIONARY
  5
FD0
330
31
100
AcDbDictionary
280
     1
281
     1
  3
ACAD_XREC_ROUNDTRIP
360
FD1
  0
DICTIONARY
  5
FEC
330
3F
100
AcDbDictionary
280
     1
281
     1
  3
ACAD_XREC_ROUNDTRIP
360
FED
  0
DICTIONARY
  5
FDC
330
37
100
AcDbDictionary
280
     1
281
     1
  3
ACAD_XREC_ROUNDTRIP
360
FDD
  0
DICTIONARY
  5
FEE
330
40
100
AcDbDictionary
280
     1
281
     1
  3
ACAD_XREC_ROUNDTRIP
360
FEF
  0
DICTIONARY
  5
FD4
330
33
100
AcDbDictionary
280
     1
281
     1
  3
ACAD_XREC_ROUNDTRIP
360
FD5
  0
DICTIONARY
  5
FEA
330
3E
100
AcDbDictionary
280
     1
281
     1
  3
ACAD_XREC_ROUNDTRIP
360
FEB
  0
DICTIONARY
  5
FE8
330
3D
100
AcDbDictionary
280
     1
281
     1
  3
ACAD_XREC_ROUNDTRIP
360
FE9
  0
DICTIONARY
  5
FE2
330
3A
100
AcDbDictionary
280
     1
281
     1
  3
ACAD_XREC_ROUNDTRIP
360
FE3
  0
DICTIONARY
  5
FE4
330
3B
100
AcDbDictionary
280
     1
281
     1
  3
ACAD_XREC_ROUNDTRIP
360
FE5
  0
DICTIONARY
  5
FDA
330
36
100
AcDbDictionary
280
     1
281
     1
  3
ACAD_XREC_ROUNDTRIP
360
FDB
  0
DICTIONARY
  5
FCE
330
30
100
AcDbDictionary
280
     1
281
     1
  3
ACAD_XREC_ROUNDTRIP
360
FCF
  0
DICTIONARY
  5
FE6
330
3C
100
AcDbDictionary
280
     1
281
     1
  3
ACAD_XREC_ROUNDTRIP
360
FE7
  0
XRECORD
  5
FF5
102
{ACAD_REACTORS
330
FF4
102
}
330
FF4
100
AcDbXrecord
280
     1
102
SHADEPLOT
 70
     0
102
SHADEPLOTRESLEVEL
 70
     2
102
SHADEPLOTCUSTOMDPI
 70
   300
  0
XRECORD
  5
FF9
102
{ACAD_REACTORS
330
FF8
102
}
330
FF8
100
AcDbXrecord
280
     1
102
SHADEPLOT
 70
     0
102
SHADEPLOTRESLEVEL
 70
     2
102
SHADEPLOTCUSTOMDPI
 70
   300
  0
XRECORD
  5
FF7
102
{ACAD_REACTORS
330
FF6
102
}
330
FF6
100
AcDbXrecord
280
     1
102
SHADEPLOT
 70
     0
102
SHADEPLOTRESLEVEL
 70
     2
102
SHADEPLOTCUSTOMDPI
 70
   300
  0
XRECORD
  5
FC0
102
{ACAD_REACTORS
330
1A
102
}
330
1A
100
AcDbXrecord
280
     1
102
MATERIAL
148
0.0
149
0.0
149
0.0
 93
        0
 94
      127
282
     0
 72
     0
 77
     0
171
     0
175
     0
179
     0
273
     0
  0
XRECORD
  5
1C
102
{ACAD_REACTORS
330
1A
102
}
330
1A
100
AcDbXrecord
280
     1
270
     1
271
     1
  0
XRECORD
  5
1B
102
{ACAD_REACTORS
330
1A
102
}
330
1A
100
AcDbXrecord
280
     1
270
     1
271
     1
  0
XRECORD
  5
1F
102
{ACAD_REACTORS
330
1A
102
}
330
1A
100
AcDbXrecord
280
     1
270
     1
271
     1
  0
XRECORD
  5
1E
102
{ACAD_REACTORS
330
1A
102
}
330
1A
100
AcDbXrecord
280
     1
270
     1
271
     1
  0
XRECORD
  5
20
102
{ACAD_REACTORS
330
1A
102
}
330
1A
100
AcDbXrecord
280
     1
270
     1
271
     1
  0
XRECORD
  5
1D
102
{ACAD_REACTORS
330
1A
102
}
330
1A
100
AcDbXrecord
280
     1
270
     1
271
     1
  0
XRECORD
  5
FBF
102
{ACAD_REACTORS
330
12
102
}
330
12
100
AcDbXrecord
280
     1
102
MATERIAL
148
0.0
149
0.0
149
0.0
 93
        0
 94
      127
282
     0
 72
     0
 77
     0
171
     0
175
     0
179
     0
273
     0
  0
XRECORD
  5
14
102
{ACAD_REACTORS
330
12
102
}
330
12
100
AcDbXrecord
280
     1
270
     1
271
     1
  0
XRECORD
  5
13
102
{ACAD_REACTORS
330
12
102
}
330
12
100
AcDbXrecord
280
     1
270
     1
271
     1
  0
XRECORD
  5
109
102
{ACAD_REACTORS
330
12
102
}
330
12
100
AcDbXrecord
280
     1
 70
     1
 90
1959938040
 71
     1
  1
C9CD19A7-355C-4997-94CC-D090E2D64CFC
311
504B03040A0000080000CB4632403DEE336E79000000790000001B0000006175746F6465736B2D64657369676E2D7061636B6167652E786D6C3C3F786D6C2076657273696F6E3D22312E302220656E636F64696E673D227574662D3822203F3E3C666F726D6174733E3C666F726D61743E687474703A2F2F736368656D612E
311
6175746F6465736B2E636F6D2F64657369676E2D7061636B6167652F323030393C2F666F726D61743E3C2F666F726D6174733E504B0304140006080800CB463240D486FD9CA0000000F4000000130000005B436F6E74656E745F54797065735D2E786D6C7D8EC10E82300C865F65E91D8A1E8C310C0EEA1BF002731658846E
311
D98AC1B77784ABF1D8FE5FBFBF75BBCE937A534CCEB38643598122B6FEE978D0B0485F9C41B54DDD7D022595594E1A469170414C76A4D9A4D207E29CF43ECE46F218070CC6BECC4078ACAA135ACF422C856C0E68EA1BF5669944DDD7BCDE7B1F8E415D77AECB980613C2E4AC91FC167A2B244592486606FC29C8FD7F045B9A
311
EF7053A7E60B504B0304140006080800CB4632406A8B4B1CE90000007C01000008000000636F72652E786D6C8D90416EC3201045AF82668F0DB693381626AA65F704BD0002E2A2C46019A87AFC42E248EDAEAB193EFFCD8C3EBB7C2F77F4A5376F9CED81160490B6D22963E71E62B8E216D085B3CDB9F0CB06C88A45F79065
311
E06CDE5C5C77493A1BB40D49B54EE95D14DEEB0048DE53D383979F7A1185882139FCAD5885BC895917F4D5253846A3D0738951699EB91ABD013F0D231DDBAAC1B49E8EB8394C353E4FD38887D334B6E7E3F0D6BC53566698B36096D77EB96911B4025E115A6142316D3F48DB1D9AAE4ACF6347082BB3FD0F1457F54F281A1B
311
EA6A3FF78979E0F990C7076765CE22954750A9E6DCF80F504B0304140006080800CB46324055019EA25F0000007C00000007000000636E782E786D6C4DCB3B0E80201045D1AD90E915ED2CF8AC45050C11660C8261F98AB1B07AC9C97D42D718D865D3E909258CFD00CCE24AC6E326A164D74DC0B4128928FF326038472BA1
311
3128B1252AC747C6BAB984FC68F0B87FE8960A5C09FE86CFB69FBA01504B0304140006080800CB46324053426FCB66010000020300000C0000006662782F636F72652E786D6C8D52ED8E8230107C95A6FFA1145139536ACEC03DC1BD402D9523424B4A4B7CFC5B3E0CE7C51843026567676776801D6F6D830665FBDAE80CD3
311
30C2486969CA5A5719F6EE12A4181D39B3C6B83F6D1869D1AA0C8F65CC59658DEF969234DA29EDA0AA4DA996A2E87BE530920D1C32DCCB1FD58A5078071DFD35EC84BC8A4A85340418FA38EB9D0503681619EF985FCE3746E63A67DED7E582D625A8D5975A59CCF7A79CE6699C047453EC82645B6C828FA2C883D3BEC8D38F
311
DDE933F9A28C8C64CE5CDDDEDD49AB845325E67144E320A2014DBFA3F4B04D0E31BCEE0E51C4C8D8FE40F25DF926C9D7DA6DE2C5EE4CEB311F8D4CC0BF6D2122877A31801FC219194384C794F063D0100884ECC4B9B9EF7185D2A0A4333601A4347E8506D17805AA119A2E466614264F0360B3A773E217735ECF800F287405
311
D68483E3D9BB519DCDAA4B149DB2C1E06E481BDB8A6635375B5CEFABD053BA348DB1EFB0C9B22A59C224E3DFCB7F01504B0304140006080800CB463240C6AC339C7E0000009D0000000B0000006662782F636E782E786D6C4DCCD10E82201886E15B61FF390989541BE02AE43E5CA263223482D6E5A7CD838EBEEDD9B757B4
311
9FC5A3B74D2F1783047A20806C78C4C1854942C9233E036A954831E6BF1BA0D02F56C2C6A0C4946279EE34D8B12F3EAFEA5D987724BA6375C719BE9923C14C53832FDDA9C135A7E64AF89DE8C640A544F52BADBB85D517504B0304140006080800CB463240104A15212C01000014020000310000006662782F304445343345
311
36342D424632302D344431462D394537352D3336314641303643304435462F636F72652E786D6C8D51CB6EC32010FC15C4293DD806C7A6498489DA26FE82FE00C1244589C1E251E5F3BBD48ED4DE726161776676D8E5FBFB7843DFDA07E36C87694930D256B9C1D84B87533C171B8CF6827BE7E21F1846568EBAC3398D05BF
311
7897A625A59C8DDA46C85A37E8252943D0112375834B8783FAD2A32C658A8008D77292EA2A2FBAA42594012778881E0CA0B9493EB1208763B33EB2A678EF6B523407DA17DBE36B5BAC19EDDF08FB2087B6E7D54C143C25332C7433801D7336DA3F2B92C98247333EEC2BAF65D4031635A175416841379F64B36B9B5D0D4FB6
311
23845719FE8F94A6E149523236AEEBC5EE4C0B58505ECD05C107974EB787197D9F9C8F28F75B05AD5EE05725A9096394B5BC9AA13000D064CDA219A2F330E0D5F504680AA82CCC1AC1ABBC2308BF0B8498F7297E00504B0304140006080800CB4632409C4409924C01000033030000300000006662782F3044453433453634
311
2D424632302D344431462D394537352D3336314641303643304435462F636E782E786D6CD593CD6EC32010845F0571F70FA91B451126520F7D821E7AC5B049693058FC54CDDB7749489A4B0E3DF682ECD98F99D5C8E6BBEFD9922F08D1783752D6F69480535E1B7718694EFB6643C94EF0E07DBAC3287172869116990A7E08
311
3E2F55D2B097D92654AD71C72A06883E070511E5729358AFA44503704D4611E609B4064D6E203EED21E02A284E27923E80BCBEBC133F7D824A9177C545F0AE64085ECE9A740751A2AC8C71A4517DC02C5B9993D7108FAD9649B6ACBD663DD8E9D789940BD7C81C0C29E1232D271575A3167BE41D0E058F29607B154AA705A8
311
90CB628D92094BEECEE085113C1B97D643650D161F9066EBA76140B3F34CF06466A8840A2013682A563D5B353D6BD8E6ADDF6C9F87ED0A5FD7DBBEE75DC1059FBCB7F512DA40F00B51DE2570890AC6BB327E545FE5883601BBF6E1F48722B1809A7A69E7E6F19FFBE9CEDF37D615F02F103F504B0304140006080800CB4632
311
402B4E56759C0500007B100000340000006662782F30444534334536342D424632302D344431462D394537352D3336314641303643304435462F6F626A656374732E786D6CAD575D739B3814FD2B0CFB0C18DB69EB1D4227C149C7D34DDBA9A79D7DC88C470641B4111F2389D4E9AFDF2310185C3BF1EEF4059090AEEE3DF7
311
DC0F05EF7739B79EA890AC2C2E6DDF9DD8162DE23261457669D72A75DED9D6FB301065A906CB6CAB2039BDB4F5B41D069928EBCA4C253425355707B3B7D77F5B32A605B5AD9813292F6D193FD09CB8A4566542E5A39B1045DC2CDDB9BEDB2E1C8BCD04A91E0E845644D0424153CC179062B54AF9E3E1C4F6C2C0D3FFC3403F
311
CDAAD9E9555E63CFF87C5648458AF897C30EC4CCFCF9F2667AB1702EE6F399337F33F59DEBDBEBA5E3BF9D4DA23751B4B8BA59E060A90424194D044DEDF003B0112C0EBCF65718D4AC50B3A959621CE409FAC4B4A7EC706AF981D7AEE9AD33461E533F2E8B82C60D5640A3B1CF884E68458B043E675442B3014293F1D0D738
311
0E7ECFF4D81C399C3E0F81E18E81A04EF7EE3DD4B4DCFE0313E4390C12926A06B6581A435BAE4EF6086FCB929B7F4C5A39515430C22DCEB68288673BC452BD240C46623493858E066D811DC20BEDEF315D1046AFF3FC989669CDB9A6B11D3651B041AC50251BCDD84F2AF6DA0F91814EF09566C33B63907AAEA81D2E5A8ABC
311
3B60530BA4957292C1E53053EF9C4D0F0C8D749CAE9676F8F176BB5BEBD83D7E7825CA8A0AA5E9036A758EEBDE1A25A3937F96E7F406FB40953D285F81FC2784FA5E15F84DB0DD7C3737A728410A999622876FAC89E54CF098587EF3D4DF83AFC0EB378FBD770A4F385B43F51BF01CDB30F4E500CE307802E14B3133A6AD63
311
C29136EE58018034492C5E620A7938DDEEEC70852C87AC8C5D84873E4C86BA4FF80C3C230689A23969F02E80E5415A3C234103B6869150A325BF5170EFA75FD25973B059760ADE8BDF42D7ABE5FAE3BA162989E99D89E9254D59C1144ADC9E37438546988F2C7AA4CF3F4A91C0D05FF15E0FF1CECD5112686BCC35F05997D3
311
F5607FF2E88018FBB252A79BE0951360842EAC03F9774CC6947352D0B2EECE7DB17EA06CB410EB60D74CEE0BCCBEB08034ED9F831844918E05AB34887DB5EA93A67BC2BA6FAB4F60A41D5E3FFF459E87D96BBBCFBD71C94BB1D93E6FDAB47414EAEF636E1B0C3C2D05746F82A48B7F03FA2661695A4B24C123B87E5F4543DF
311
E9B48014D1496DA3650EFB115C4418D2767251AD0541252D8B0D43DD44DC1D3D60281F901A0634024F692C294F378CF33ADFA48CA31A6D72529D80E3FFEBBFADF36A43F2B22ED409D923D5511DC6BA8FD82B7F10153FD8E1BA793BD7C8BD094D4E9041D79223588D5C1B2DA2A5BFB87AEBCC2E2E2267BE58BC7516F3287296
311
93C5E466BA7C338F6E61BAD1A869A2C2A02B35C388869750DA825A30E3BE6F2BC48F490276784794BCFFD08667F7FEB672D10B071EF6A05EF61BAF9227F47D34795DC07EE55141ABBCE234A785223A86EEF407FF4AD0678C9469E75739C9E819523E7F581F18839933F67DD1F14E7F1CEC35B3910EC8A342D4439D6F0BC2F8
311
C1C6AC45D2AD8ACCE0D7F9A47FB785A61BEA91710C3A53597296200F265646CB9C2A64C3338A90C8A904F5863D7D62EE1E67EC7E6A3B4445B69C769A3C1034C95C222C40F23A56E379EB0F3475BAAFBAB4516EDD473C4CA6B02D70E6D24693AE584CA5BB4581D6AD50231C5C1A76F2E02C29328E5EBBDDD48FFB5D1A9B5149
311
EE979CD33F19BBDA146E0C401AA9D037A02182771A65C2A0D1CDFC8FFF93E19D3A1651F8DCD6AAB7653FD11BD31C83106D8D32B70534318FE6E81D02F565B37CB7593342E4AC5BD68B2468A53A8A88ACB92968FD8C4A57CB2F1E3A146BF5D9AA789DC197E74B720405996B1DE06011586164564481AAD19FF75F44899B6C6E
311
DD3250E03E2AF3BC2CCCE0CADC84ADF503EEB5C93DD202D51712793F9DF8D3FBE62260EE269B2D91D425897CC4047C2A580FF1C8F160647B5B44056A7FF4EB3CED84036EAE96962969730835441966550D0B5A8E825A881E7D99D4B1325C50BD7817F09AA55041A08B0FFF05504B0304140006080000CB4632400000000000
311
00000000000000350000006662782F30444534334536342D424632302D344431462D394537352D3336314641303643304435462F76657274696365732E62696E504B0304140006080800CB463240F270F1330600000004000000360000006662782F30444534334536342D424632302D344431462D394537352D3336314641
311
303643304435462F747269616E676C65732E62696E636660600000504B0304140006080000CB463240000000000000000000000000370000006662782F30444534334536342D424632302D344431462D394537352D3336314641303643304435462F617474726962757465732E62696E504B0304140006080800CB463240D5
311
987DFC8F00000041010000360000006662782F30444534334536342D424632302D344431462D394537352D3336314641303643304435462F6469726563746F72792E786D6C858F410EC2201045AF4266AF15DDB800BA74E7C21B903225242D6328188F2FA5C4183471359997F9FF81E89FF3C41E1816475E02DF1F80A11FC8
311
386F25A438EECEC07A250251FC3803E6F58C12560C4AD840E95E91C151A72936F496F35732D860FE635F62C8F2DA16B505C545B74125BAA2FA9E05D7CC053D063734D5C7665FD55B6B8D15D5E9BFEAFD8490FFA45E504B0304140006080800CB463240B5E581A4FC000000A00100003B0000006662782F3044453433453634
311
2D424632302D344431462D394537352D3336314641303643304435462F7265736F75726365732F636F72652E786D6C8D504B6EC32010BD0A9A3DB6B113C789305123BB27E805109E382831447CAA1EBF10BB52BBEB8661DE47F3F4F8F96B79904F745E5BD3032B2A2068949DB4997B88E14A3B2067C19DB5E1970C88910BF6
311
9061107C76363E37485913D084841A3BE1064AEF3100518FF4E9C1AB1B2EB290312485BF174FA9EE72C68215894E3AC17D702900598FE41784436FA353E879B9B282C7A8A74DA3A774535F353A1087CBC086AE6E286BC696EEF663438FE338D0CB611CBA637B79DBBD335E66B3E0412F3F1995431970025157ACA615A3ACFB
311
A8BAD37E77AAD3DA9EAA8A9759FEC7149FD33F4D519BD0D45BDCD5E641E4202F42F032F795C6ABCC3473B7E21B504B010214000A0000080000CB4632403DEE336E79000000790000001B00000000000000000000000000000000006175746F6465736B2D64657369676E2D7061636B6167652E786D6C504B01021400140006
311
080800CB463240D486FD9CA0000000F40000001300000000000000000000000000B20000005B436F6E74656E745F54797065735D2E786D6C504B01021400140006080800CB4632406A8B4B1CE90000007C010000080000000000000000000000000083010000636F72652E786D6C504B01021400140006080800CB46324055
311
019EA25F0000007C000000070000000000000000000000000092020000636E782E786D6C504B01021400140006080800CB46324053426FCB66010000020300000C00000000000000000000000000160300006662782F636F72652E786D6C504B01021400140006080800CB463240C6AC339C7E0000009D0000000B00000000
311
000000000000000000A60400006662782F636E782E786D6C504B01021400140006080800CB463240104A15212C0100001402000031000000000000000000000000004D0500006662782F30444534334536342D424632302D344431462D394537352D3336314641303643304435462F636F72652E786D6C504B010214001400
311
06080800CB4632409C4409924C010000330300003000000000000000000000000000C80600006662782F30444534334536342D424632302D344431462D394537352D3336314641303643304435462F636E782E786D6C504B01021400140006080800CB4632402B4E56759C0500007B10000034000000000000000000000000
311
00620800006662782F30444534334536342D424632302D344431462D394537352D3336314641303643304435462F6F626A656374732E786D6C504B01021400140006080000CB4632400000000000000000000000003500000000000000000000000000500E00006662782F30444534334536342D424632302D344431462D39
311
4537352D3336314641303643304435462F76657274696365732E62696E504B01021400140006080800CB463240F270F13306000000040000003600000000000000000000000000A30E00006662782F30444534334536342D424632302D344431462D394537352D3336314641303643304435462F747269616E676C65732E62
311
696E504B01021400140006080000CB4632400000000000000000000000003700000000000000000000000000FD0E00006662782F30444534334536342D424632302D344431462D394537352D3336314641303643304435462F617474726962757465732E62696E504B01021400140006080800CB463240D5987DFC8F000000
311
410100003600000000000000000000000000520F00006662782F30444534334536342D424632302D344431462D394537352D3336314641303643304435462F6469726563746F72792E786D6C504B01021400140006080800CB463240B5E581A4FC000000A00100003B00000000000000000000000000351000006662782F30
311
444534334536342D424632302D344431462D394537352D3336314641303643304435462F7265736F75726365732F636F72652E786D6C504B0506000000000E000E00800400008A1100000000
310
504B03040A0000080000CB4632403DEE336E79000000790000001B0000006175746F6465736B2D64657369676E2D7061636B6167652E786D6C3C3F786D6C2076657273696F6E3D22312E302220656E636F64696E673D227574662D3822203F3E3C666F726D6174733E3C666F726D61743E687474703A2F2F736368656D612E
310
6175746F6465736B2E636F6D2F64657369676E2D7061636B6167652F323030393C2F666F726D61743E3C2F666F726D6174733E504B0304140006080800CB463240D486FD9CA0000000F4000000130000005B436F6E74656E745F54797065735D2E786D6C7D8EC10E82300C865F65E91D8A1E8C310C0EEA1BF002731658846E
310
D98AC1B77784ABF1D8FE5FBFBF75BBCE937A534CCEB38643598122B6FEE978D0B0485F9C41B54DDD7D022595594E1A469170414C76A4D9A4D207E29CF43ECE46F218070CC6BECC4078ACAA135ACF422C856C0E68EA1BF5669944DDD7BCDE7B1F8E415D77AECB980613C2E4AC91FC167A2B244592486606FC29C8FD7F045B9A
310
EF7053A7E60B504B0304140006080800CB463240A82B4AE1EE0000007C01000008000000636F72652E786D6C7590416EC3201045AF82668F0DC476518489EAB83E412F8030715162B00C543D7E71E248E9A2AB19FDF96F66F4C5E967BEA16FB306EB5D0BB420808CD37EB46E6A21C50BE6804E52ACDEC7171B20A766D3C226
310
8314D3EAD3B24BDABB685CCCAAF3A3D94515828980F42D372D04FD656655A814B3235C8B45E9AB9A4C419F5D8653B2237A1CB163DE672FD6AC20EB377E683AF68E87A122B8A2FC037775DFE18AB3FEDC0F67D6D78D2837588A68E7E77DBD1A15CD089211CA30A198F24FC28F7575641493E648882837FB1F282DE37F50DEF1
310
0A25EBE281EDEF3EB00092E647EE0329CA2D8B5CEE41E5BAE5267F01504B0304140006080800CB46324055019EA25F0000007C00000007000000636E782E786D6C4DCB3B0E80201045D1AD90E915ED2CF8AC45050C11660C8261F98AB1B07AC9C97D42D718D865D3E909258CFD00CCE24AC6E326A164D74DC0B4128928FF32
310
6038472BA13128B1252AC747C6BAB984FC68F0B87FE8960A5C09FE86CFB69FBA01504B0304140006080800CB46324019B833686A010000020300000C0000006662782F636F72652E786D6C8D525B6E833010BC8AE57F634320459171D484E604BD80030E45011B191BE5F85D1E114995561592B17676766607F8FED6366850
310
B6AF8DCE7018308C942E4C59EB2AC3DE5D488AD15E706B8C7B68C348CB5665782C63C12B6B7CB7940AA39DD20EAADA946A29CABE570EA3A2814B86FBE24BB53290DE41477F0D3A595C65A582300018FA04EF9D05036816194F2C2EE71BA7735D70EFEB7241EB12D4EA4BAD2C16C95BBAD91EA277723AC58CC461FA410E497E
310
20711AE5C7FC748CF264CBE94816DCD5EDDD5D619574AAC4226261445848C2F493A5BB24DE452161DB1D639C8EED4F24DF95BF9160C623C9D7DA6DA2C5EE4CEBB108C1C804FCD8162272A89703F8A182D33144784D093F070D8140C84E9E9BFB1E57280DAA70C6C68094C6AFD0201BAF4095A1E9E1744661F23400367B3927
310
FA63CEDF33E0034A5D8135E9E07AF66E54E7B3EA1245A72C19DC0D69635BD9ACE6668BEBB90ABDA417A631F63F6CBAAC4A9730E9F8F78A6F504B0304140006080800CB463240D60D66867D0000009D0000000B0000006662782F636E782E786D6C4DCCD10A83201886E15B91FFDCA5F1431DA861BAEE239685AC349C8E5DFE
310
6A74B0A30F1E3E5ED17DB695BC5D7AF91824F01B03E2C2234E3E2C124A9E690BA45322C598FF6E40C2B839092783124B8A65BF6872F358D67CE8EAC3F3C29E33DD0CF64EB14643D1584EB5454B915933D816EB46F7502951FD4AC79E61F505504B0304140006080800CB46324088B5306A3001000014020000310000006662
310
782F42313041374644452D343234432D344344312D414434442D3430444346443834323741422F636F72652E786D6C8D51CB6EC23010FC95C8277A70620743A2C8310252BEA03F601C432D881DF951F1F9DD3441A2874ABD78ADD999D9D12EDF3D867BF6A57D30CEB688E60465DA2AD71B7B6D518A175CA36C27B8772EBED0
310
5066E5A05B34C148F0AB77695C20E56CD436026A5DAF175086A023CAD41D3E2D0AEA530F3297290223DCF251AA9BBCEA9CE6D0069EE0217A0890CD43A617890325FBEAD4BD6356B22366C78EE27DC73ACC48773C75352BABFD8117B350F0944CBFC84D0F71CCC568FF5F93492C7834C333BEF25A46DD2351125A624231AD3F
310
48DD6C5853524CB60D21BC98E8BF4469ECFF1281C7AB28191BD7E51277960524282FE686E0BD4BE7FB338C7E8CCEC76C9AB70A5ABD2141725292AAA2EB0D2F662A2C003CB76CF10CD17958F0EA7606F67A31DE32C18BE946507E0E0875BAA7F806504B0304140006080800CB463240AA3E6FD4570100003303000030000000
310
6662782F42313041374644452D343234432D344344312D414434442D3430444346443834323741422F636E782E786D6CAD93CD6EC32010845F0571F76FDCC88A30917AE813F4D02B864D4283C1025C356FDF2521692E39A4EA0559B3C3CCEA1366DBEFC9902FF0413B3BD0A6AC29012B9DD2763FD025EE8A9E922D67DEB978
310
67A3C48A09069A64CAD9DEBB65CE92829D584C44D5687BCCA287E0162F21A09C6E12E3A4301800B65850846904A540919B11BF76E0711514C7138907206FAF1FC48D9F206360554AE1AC4A1D9CA53337DD992891468430D0200F3089522CD12908C7528928CAA6BC763DD8E93789A40BD7CAC56B92CA079A4ECAF346257264
310
150E390BD123BD6C8AA7192817F36CB41411215767E3C5C3D9A26D5C77D9AB11BC47F7AA5DF73D869D679C453D4176480F2282A2BCAD9BB6A89BA2E9DFEB7EF3D26DDAA6A8D79BBA6655B273363A67F2258C01EF66229D8D6023E50DABD2F811BEEC234A7B64EDFCE909900820B75EE8DC32FE934FB35E75DDB37C10D75FF9
310
54E7F78DB83CFE05FC07504B0304140006080800CB4632402FAC438C5A070000941B0000340000006662782F42313041374644452D343234432D344344312D414434442D3430444346443834323741422F6F626A656374732E786D6CED59DD739B3810FF5718EED9D8C44E5ADF103A89DD643CBDB49DFADAB987CC3032C844
310
1721184924F1FDF5B7FA00033109BEE6DEFA6003425AEDFEF6534BF0E129A3CE03E682E4ECDCF5BD89EB6016E70961E9B95BCAEDE8BDEB7C08039EE7B231CD7518CAF0B9AB86DD3048795E167628C15B5452D919BDBAFCCB113166D875628A843877457C8733E4A152E60916F75E8224F2D2ED93E77B66629B6CCA5171D721
310
5A208E99044E619C0115C730E5B71F27EE380CC6EA7D18A87F3B6B3A68D6AC7FD6584BDDE6923021118B9FB1D421331DC4D2D49F2D3F9E9CCE47A7B3D974343B3BF147975797CB91FF6E3A599C2D16F38B8F73606F93E7D4CA94E002B304F4B773433F18AB37B5E81681435CC7396338D64002545AAC2E4182056CD5806FD2
310
7EF495448DD75AC2C6F34CBDB72C3486A76D2A7DB38601D1A20B82D8ED2A89AB6B53BE7CF337082E861825175802B74272D0AE85878357B8E124189BD130D8EC7541849321893941D4A164C31107A5C05435250CCC024B46390707528E92406BCEBC6EDB1678E6EBAE7388CB6D49A9F20C37D48E1581FB61293467E41FCCF7
310
DC3791019E40DA9230F9DE7229770576C37930D68361A02ED313FBD200E96C294A8546C4BCED08BA50AEBF5ABAE1A7ABCDD35A8583C39B173C2F3097CAE8941E355F60C8F6AA50B2DBFA8334A71680300654BB720FCA3740FE33448F3D2BA0374E9E664F333B5772C4C436E719E8C69938A309FC4D1C5FFFABFBC65D30AE17
310
B7B5D78727B8A982EAFDCFE3D996416365F96FC019060F60F0399FDA57EB1851B0E71BC2002065240ECD610842FB76F3E4862B089C10E86115A2A10F2203BB0F701B8C2D99BD562AF7B25EC70051BBC774889200366D91C0468F9EAE217B7012EFD5D414B10FDED33731D78BE5FAD3BAE45B14E31BEBD34BBC258C48C89A87
310
196A61DE92E81EEF1E739E80A0CFF15E37F1CEEC5602D056982BE0D30A04F5B0DFB9B5410CEBD25C859BE0951D400895AB1BF46F888831A588E1BCACF6ADA39B32D4DAE36DCDE0862706E2E949C784397E20AAAA00A7D9CF68310A793FE6A45020BAE1B591AC0E9A5E8F74DF579FC122EBF93DB3560C422F43F44F1DB40EE0
310
D0B2EC0A690B442DF0661FCEE39CE63CDAEC2213E95CA825808DB6B7FC681185586F94A4A8800769BFAB424A6AA48D12B2DD9602E2EA01167FAC164D73987853FFD469FE779C7106D1167C1771EB779D3D2292A114475B94F46DD7DCADA62D34C91ED21C6F29C8451E88DC4548469304A7C7407314F1F99B524F692E046158
310
40BE3A087E138D890781C468B3625969B5033411518625A2C720A0C8F480ABD38EAE7163281D5EE7B1B6DE9734D624FA3F590447504BE62C22508A420E799571DF3B8518D246D7A0DCC117ACADA2ADC5A0259410F12E7AC424BD93C7A06EC8F7E01EC391A494515EA018CC7A00D967BEA294DAE17D83E27B953FA2B8A46F65
310
2002D36D44282DB3087E84C1C963886BD781E945141AC44DEC933883A20CC9920FD9E4EC74F26C1F533374436063A32DA110B6A30C153DA8B702A2AE479C1A7C4BBD47A99B322B2294E5251B6428DEB4EB4D967C57AD8AEC407E55A908656345D8120C03C2649D55AB980DA6AE032BB8910E54BB48A0ACA0E614F64AE2F16B
310
6FD2947B37E0D64FDF76830C0ABF1EED3523EAAC82C1F2D82A0CC42392F19D1BAEF5757409F57782937DAAAF6ACD66050888A9485E726255F47D05E58DADD1DCF00649717B6DB26E75FDBEF2A0FB118C610DD42EF5C295023AC34C225599DCA81BFA0D41086ED130E32B95538FA1729124BA6A44F48AF4A9B35546B436CD88
310
57DC619667F063B784C5B44CF02D4AC47D742369B4268A752BA597910AE31705FC72BDEEC003230344FAAA0A3CFCD8596B4717AA5C3A4844DE95D986210241B0255A6A74E3152CB51AA9B45C5FD59902EA2E3030ABE2D9AF9345B31DF1EB64915AC3F8A993C5E5EE0FB46BF6451AE93C56767DD431A0CE4F8ACA5B1C0374DB
310
A1A65A671193CCADFCD69922088A55941F5C8D5541C310ECE3F83F67EDBE2C68B6EBF07F5CD6F69F551C476595D664D5A53A50B9AE9A396C315F2CFDF9C5BBD1F4F474319ACDE7EF46F3D962315A4EE6938F27CBB3D9E26A51A3A91D350CEA60A673173C9BA0560DAB278B017465454E4902A7F9C44931C47C0967FA01ED73
310
9E6101C9B3D9EC4E6C537EC0EA07D3E794684371C5C91D8206311590D601A33296ED71E737684D4A38689FBBD034F2EEE1CF5AA5EB40E63977A15520498C85B78136936AE869E2907275EEB7C4001FC4529512CDA2FAB95EA5B06985FF7ACA903460E56AF530A0702BA0FBD5EA5068DE2C4FF1518257EC3848C2EDA69450AD
310
1959F603B5307A9BBDFA8D6C94B07BBBF513B8EECB62F99E9ED34264D02783178DC0501D49C453DDEF568C59962E965FC7D06773565F9C829629E87238A511C760CCA52AA8C08AC02A2CCD024930D5C5EFB75F790E9F7832475745B78B3CCB72661F2EE03C96C02722677D071F7C925B281BB06AAB8BDB93897F72ABDBD9B6
310
C31E6D90C09EAA8760A02A2394081D63038B7CD69AB28DCBB1524267FA6AE9D8F0096D006341CFBABBE6F39603DEA33EA4285FD11E5EC9F962477BACA7823570E84587FF02504B0304140006080000CB463240000000000000000000000000350000006662782F42313041374644452D343234432D344344312D414434442D
310
3430444346443834323741422F76657274696365732E62696E504B0304140006080800CB463240F270F1330600000004000000360000006662782F42313041374644452D343234432D344344312D414434442D3430444346443834323741422F747269616E676C65732E62696E636660600000504B0304140006080000CB46
310
3240000000000000000000000000370000006662782F42313041374644452D343234432D344344312D414434442D3430444346443834323741422F617474726962757465732E62696E504B0304140006080800CB463240D5987DFC8F00000041010000360000006662782F42313041374644452D343234432D344344312D41
310
4434442D3430444346443834323741422F6469726563746F72792E786D6C858F410EC2201045AF4266AF15DDB800BA74E7C21B903225242D6328188F2FA5C4183471359997F9FF81E89FF3C41E1816475E02DF1F80A11FC8386F25A438EECEC07A250251FC3803E6F58C12560C4AD840E95E91C151A72936F496F35732D860
310
FE635F62C8F2DA16B505C545B74125BAA2FA9E05D7CC053D063734D5C7665FD55B6B8D15D5E9BFEAFD8490FFA45E504B0304140006080800CB463240D0605784FD000000A00100003B0000006662782F42313041374644452D343234432D344344312D414434442D3430444346443834323741422F7265736F75726365732F
310
636F72652E786D6C8D504B6EC32010BD8A357B6C2076EA5A9848899B13F402084F5C9418223E558F5F485CA9DD7533337A1FCDD31387AFF5567DA20FC6D911584DA142ABDD6CEC32428A17D2437590C23B177FC9A0B26AC5110A0C522CDEA5FB06696723DA9851EB66DC40150246A8F42D1F2304FD81ABAA558A5911AEF55D
310
E9AB5AB06675A6B34E8A107D0E503D9F9409D26370C96B0CA279B252A464E64D63E6FCD35C0C7A90DD4BBFDB1FF92B399F5B4A5AD6BF9163371D49DBF3E9349D4F7CEAF6A2296629A2597F326A8F2AE20C9253C6096584F5EFB41FBA76E08CD0FD40A9688AFC8F29DDE77F9A92B171C7B7B84F5B00C9729007214553FACAEB
310
5166DEA55BF90D504B010214000A0000080000CB4632403DEE336E79000000790000001B00000000000000000000000000000000006175746F6465736B2D64657369676E2D7061636B6167652E786D6C504B01021400140006080800CB463240D486FD9CA0000000F40000001300000000000000000000000000B20000005B
310
436F6E74656E745F54797065735D2E786D6C504B01021400140006080800CB463240A82B4AE1EE0000007C010000080000000000000000000000000083010000636F72652E786D6C504B01021400140006080800CB46324055019EA25F0000007C000000070000000000000000000000000097020000636E782E786D6C504B
310
01021400140006080800CB46324019B833686A010000020300000C000000000000000000000000001B0300006662782F636F72652E786D6C504B01021400140006080800CB463240D60D66867D0000009D0000000B00000000000000000000000000AF0400006662782F636E782E786D6C504B01021400140006080800CB46
310
324088B5306A30010000140200003100000000000000000000000000550500006662782F42313041374644452D343234432D344344312D414434442D3430444346443834323741422F636F72652E786D6C504B01021400140006080800CB463240AA3E6FD457010000330300003000000000000000000000000000D4060000
310
6662782F42313041374644452D343234432D344344312D414434442D3430444346443834323741422F636E782E786D6C504B01021400140006080800CB4632402FAC438C5A070000941B00003400000000000000000000000000790800006662782F42313041374644452D343234432D344344312D414434442D3430444346
310
443834323741422F6F626A656374732E786D6C504B01021400140006080000CB4632400000000000000000000000003500000000000000000000000000251000006662782F42313041374644452D343234432D344344312D414434442D3430444346443834323741422F76657274696365732E62696E504B01021400140006
310
080800CB463240F270F13306000000040000003600000000000000000000000000781000006662782F42313041374644452D343234432D344344312D414434442D3430444346443834323741422F747269616E676C65732E62696E504B01021400140006080000CB4632400000000000000000000000003700000000000000
310
000000000000D21000006662782F42313041374644452D343234432D344344312D414434442D3430444346443834323741422F617474726962757465732E62696E504B01021400140006080800CB463240D5987DFC8F000000410100003600000000000000000000000000271100006662782F42313041374644452D343234
310
432D344344312D414434442D3430444346443834323741422F6469726563746F72792E786D6C504B01021400140006080800CB463240D0605784FD000000A00100003B000000000000000000000000000A1200006662782F42313041374644452D343234432D344344312D414434442D3430444346443834323741422F7265
310
736F75726365732F636F72652E786D6C504B0506000000000E000E0080040000601300000000
  0
XRECORD
  5
17
102
{ACAD_REACTORS
330
12
102
}
330
12
100
AcDbXrecord
280
     1
270
     1
271
     1
  0
XRECORD
  5
16
102
{ACAD_REACTORS
330
12
102
}
330
12
100
AcDbXrecord
280
     1
270
     1
271
     1
  0
XRECORD
  5
18
102
{ACAD_REACTORS
330
12
102
}
330
12
100
AcDbXrecord
280
     1
270
     1
271
     1
  0
XRECORD
  5
15
102
{ACAD_REACTORS
330
12
102
}
330
12
100
AcDbXrecord
280
     1
270
     1
271
     1
  0
XRECORD
  5
FC1
102
{ACAD_REACTORS
330
22
102
}
330
22
100
AcDbXrecord
280
     1
102
MATERIAL
148
0.0
149
0.0
149
0.0
 93
        0
 94
      127
282
     0
 72
     0
 77
     0
171
     0
175
     0
179
     0
273
     0
  0
XRECORD
  5
24
102
{ACAD_REACTORS
330
22
102
}
330
22
100
AcDbXrecord
280
     1
270
     1
271
     1
  0
XRECORD
  5
23
102
{ACAD_REACTORS
330
22
102
}
330
22
100
AcDbXrecord
280
     1
270
     1
271
     1
  0
XRECORD
  5
BA
102
{ACAD_REACTORS
330
22
102
}
330
22
100
AcDbXrecord
280
     1
 70
     1
 90
1959938040
 71
     1
  1
2F30AD74-CC92-4599-9761-3809F7A56B21
311
504B03040A0000080000CA4632403DEE336E79000000790000001B0000006175746F6465736B2D64657369676E2D7061636B6167652E786D6C3C3F786D6C2076657273696F6E3D22312E302220656E636F64696E673D227574662D3822203F3E3C666F726D6174733E3C666F726D61743E687474703A2F2F736368656D612E
311
6175746F6465736B2E636F6D2F64657369676E2D7061636B6167652F323030393C2F666F726D61743E3C2F666F726D6174733E504B0304140006080800CA463240D486FD9CA0000000F4000000130000005B436F6E74656E745F54797065735D2E786D6C7D8EC10E82300C865F65E91D8A1E8C310C0EEA1BF002731658846E
311
D98AC1B77784ABF1D8FE5FBFBF75BBCE937A534CCEB38643598122B6FEE978D0B0485F9C41B54DDD7D022595594E1A469170414C76A4D9A4D207E29CF43ECE46F218070CC6BECC4078ACAA135ACF422C856C0E68EA1BF5669944DDD7BCDE7B1F8E415D77AECB980613C2E4AC91FC167A2B244592486606FC29C8FD7F045B9A
311
EF7053A7E60B504B0304140006080800CA463240310E2196EA0000007C01000008000000636F72652E786D6C8D90416EC3201045AF62CD1E1B88DD120B13A53439412F8080B828315806AA1EBF3871A476D7D58CFEFC3733FAFCF03DDDAA2FBB4417FC00A4C65059AF83717E1C20A70B62501D045F4248BF6C507935D90156
311
19041F9790E74DD2C127EB53517D307613558C3641A56FA51920EA4F3BA95AE5541CF15ACF4A5FD5686BF2EC0A9CB333D5E38833659FBB38BB80D8CBFD49CA9344E4D852D4BE1D29DAB30EA377CACEDDABDC317996BC5961C1939B9EF7F56255B20604C584224C10611F98F55DDB5382F04B8F316F56FB1F28CFE69F50763E
311
EDE8F6EE038B204879E43E10BC59B328E51E54A96B6EE207504B0304140006080800CA46324055019EA25F0000007C00000007000000636E782E786D6C4DCB3B0E80201045D1AD90E915ED2CF8AC45050C11660C8261F98AB1B07AC9C97D42D718D865D3E909258CFD00CCE24AC6E326A164D74DC0B4128928FF326038472B
311
A13128B1252AC747C6BAB984FC68F0B87FE8960A5C09FE86CFB69FBA01504B0304140006080800CA4632406193121F67010000020300000C0000006662782F636F72652E786D6C8D52ED8E8320107C15C27F04A9BDB30DD2F4BCF609EE05A852CF54C120983EFEAD1F4DAF97A6B9982099D9D99D1D15BB6BDBA041BBBEB626
311
C371C430D2A6B0656DAA0C077F2629463B299CB5FE57194646B53AC3238CA5A89C0DDD0215D6786D3CA0C6967A0155DF6B8F51D1C025C37DF1AD5B15A9E0A1A2BF449D2A2EAAD2511C010D7552F4DE8101340F194F2CCFA7ABA0332E450875B9B07509D3EA73AD1D969B7C73C8F3434EE27DC249F2B1E76493AE19F9E4E971
311
FD9EAFD2FC980B3A8AA5F0757B735738ADBC2EB1E42CE684C5244EBF58BA5D275B1E13F6B6654CD0B1FC4114BAF29FA2501BBFE28BDD59D66319839189F8B32D44E451AF06F043A5A06388F09A127E0C1A028190BD3A35B73D2E000DBAF0D625C09436DCA9413541C35486A647D09985CE5303D8EC691FFEA2CFEB1EF00195
311
A9C09AF2703D053F4E17F3D4258A4E3B32F82B32D6B5AAB99B9B2DDECFFBA0A7F2C236D6FD474D9755E912261DFF5EF903504B0304140006080800CA463240BD70B4127E0000009D0000000B0000006662782F636E782E786D6C4DCCD10E82201886E15B61FF398909581BE0D4F03E5CA263213482D6E5A7CD838EBEEDD9B7
311
57349FD5A1B7892F1BBC84F24400197F0F93F58B849C667C01D4281143487F37407E5C8D849D41892586FC3C6832F3985DDAD459FF3890B7D7B61FA8C6ACA21CD39E13DCB196605AD795BE95E781E90E0A258A5F69DB3DACBE504B0304140006080800CA463240CA1AA5D52B01000013020000310000006662782F36413941
311
434634452D353334362D344336302D423541302D3437373345443132463545422F636F72652E786D6C8D514B6EC32014BC0A62952EB08160C78D3051922627E8051C202E4A0C169F2AC72FAE1DA9DD65C343F366E60D3CBE7B0C77F0AD7D30CEB6901418026DA553C6F62D4CF18A1A0876827BE7E21F1A04B61B740B27180A
311
DE7B97C60592CE466D6346AD537A01BB10748440DEF3A585417EE9A12BBA143323DC8AB193B7AED70529723BF3040FD1E700601E329D50D4FBF7FDF1CC4EA85AB31AB1638DD1A1DA63C4369BF5E983D073753AF072160A9E92518BDCA81CC75C8DF6AF9A4C62C1A3199EF1A5D75DD40A0A8A09459820D27CE2665BB12D2508
311
D75B8C7939D1FF89D2A85E142563E39A2E7167598082F0726E08AE5CBADC9F61F463743E8269DE2A68F906052E30C5156D36BC9C99F9FDD9B2668B6588CEE7FF5DDD2E994CAAD9B7668297D38A72F9DD5FAED33AC50F504B0304140006080800CA4632409F7B85004D01000033030000300000006662782F36413941434634
311
452D353334362D344336302D423541302D3437373345443132463545422F636E782E786D6CD593BD6E032110845F05D1DF0FCEC5B22C0E4B29F20429D272B076883938F113C56F9FC5C68E1B1729D3A0D3EC30B3FAC4F1DDF76CC9178468BC1B296B7B4AC029AF8D3B8C34A77DB3A1642778F03EDDD9287172869116990A7E
311
083E2F55D2B097D92654AD71C72A06883E070511E5729358AFA4C500704D4611E609B4064D6E46FCDA43C055509C4E247D00797D79277EFA049522EF4A8AE05DE910BC9CB5E9CE4489B232C69146F501B36C654E5E433CB65A26D9B2F6DAF560A7DF24522E5C2B7330A4948FB49C54D48D5AE4C83B1C0A1E53407AD5944E0B
311
502197C51A251342EECEC68B47F06C5C5A0FD56B107C40375B3F0D03869D678227334375A8003281A662D5B355D3B3866DDEFACDF679D8AE58D3AFB77DCFBB62177CF2DED64B1803C12F447997C0252A18EFCAF811BEEA23DA0464EDC3E90F2011406DBDD0B965FC673EDDF97D23AE807F81F801504B0304140006080800CA
311
463240A7582B93990500007A100000340000006662782F36413941434634452D353334362D344336302D423541302D3437373345443132463545422F6F626A656374732E786D6CAD57DB6EDB3810FD1541FBEC8B6CE7E285A222B19BC228D216355AEC4300839228851B4A14482A75F6EBF750A26EAE9D7A177DB12C6A389C
311
3973E642FFDD3EE3CE0B958A89FCC6F5C653D7A179246296A7376EA993D1B5EBBC0B7C2984EE89B94E4E327AE39A6537F05329CAC22EC5342125D707ABF7777F392AA239759D8813A56E5C153DD18C8C49A9454CD5F338269A8CD3643FF6C6B5E0506D2A49F174A0B42092E61A96623D8716A736CA1BBE4EDD49E04FCCF7C0
311
37BF566A7E5A6A52F9333C9FE54A933CFAE9B00335736FB17E3FBB588E2E168BF9687139F34677F777EB9177359FAE2E57ABE5EDFB250E565A4293B544D2C40D3E001BC9227F527F0AFC92E57A3EB322364013495F9889941BCC1CCF9FD432AD77D6C963E64722CF69546105342AFFACEA9816348F117346152CEB21341DBE
311
7A06C7DEE7B979B747F697CF43A0BFA3A7A8B1BD79F62D15E1DF70419DC320A9A861608DA575B4E6EAB443381482DB6F4C3919D15432C21DCE4249E4AB1B40D48804FE408D61B234D9603C700344A1FE3CA40BD2E8D73C3F666552726E68EC065516EC902B54ABCA32F60F959DF57D6460136265D8706D1DD2AF057583654D
311
91EB0336D5403A092729420E37CDCEF9ECC0D195C9D3CDDA0D3EDE87FBADC9DDE387175214546A431F50AB095CF33428599BBCB3226736B807A674A07C05F29F90EA9D29889B64FBC57E614FD192E42A1132436C9CA9339AE267EA78D5AFF9DFFBE74FDACDC3E89DC213C13650FD063C873EF463D98333F05F407821E7D6B5
311
6D4438CAC603CB01902189C3059650879370EF061B54395465EC223CF0E032CC7DC15F7F62D5A0505427F59E39B03C288B671468C056311266D4E4B7067671FAA99C55075BB153F05EFC16BADEAEB71FB7A54C48441F6C4EAF69C272A6D1E23ADEF40D1A603EF0E899BEFE103286A33FE3BDEDE39DD9A314D036981BE0D3A6
311
A69B97EEE4C10111F6A5C2941BFF1727C009D3587BFA1F988A28E724A7A26CCE7DB37FA06DD4109B64374C6E1B4CD758409AFACB410EA24947921506C4B65BB545737CC2BB6F9B4F6024E4B90809EF84C2AEF446820BB90B5F7775553A8AF4F721B52D0413A3056CAF72A4497F8BF92E6649522AD4C023B07EDFACFAA13355
311
0115A2D15A27CB02EE23B788B49C6DF4A2594B82462AF21D43DB44DA1D3DA0AF1F885A02540A4F59AC284F768CF332DB258CA319ED32529C80E3FFDB1F9659B1239928737D42F7C0743487A1ED03F2AA1F44474F6EB0AD9EA33B94DE98C65D9807C2A6951CC16A10DAD9FD7C7ABBBE5A8C3029CD468B8BE572B4BCBAF446F3
311
EBE9F2FEEAF6E2F26ED6A159CD5081DF749A7E42234AE86C7E29990DDFB70DD2C7D6003778205A3D7EA8B3B3797EDB8C310AFB13EC41BB6C37DEC62F18FB68FC6B059DE451459BACE034A3B92626851ECC1FFE9560CC181853AF6F3292D233B47CFEB03D70062B67ECFB62D29DFE38D86B575726218F2AD14F6516E684F183
311
8D698DE4B8C8538B5F1393F659F799E6D5BCD9C060305582B318653076522A32AA510CCFE84132A30AD4EB8FF4B1BD7A9CB1FBA51E103509396D2C79229891B9425A80B765A487EBCE1F98E9CC5875E3A2DB8E9FF1632B85EB8033372E6674CD22AAC621FAB399842AE5E0527F900767499E728CDAF5A6F6BDDD65B01974E4
311
56E49CF1C9FA555770EB00CA4881B101F310A2531913F8956DF67BF49F1C6FCC7188C6DFB0D4AD2FDD42EB4C750C52B476CA5E1630C33CDBA3F748D4B7DDF2C695CC0091B32E596F92A0D63AD244A6D545C1D8674DBA5D7F99604071369F9D8297296279BEA691A4207369121C2C022BACCE82685075F5E7E317297091CD9C
311
7B060A3CAE449689DCBEDCDA8BB0B37DC2B5367E4459A0E63EA21E67536FF658DD03ECD564171245C72456CF58404C256B211E041E8CAC2F8BA899F587566E628270C0CDCDDAB12D6D01A59628FDAA6A60C1C4915307D963EE922657FA02C59B578149250A132486F8E05F504B0304140006080000CA463240000000000000
311
000000000000350000006662782F36413941434634452D353334362D344336302D423541302D3437373345443132463545422F76657274696365732E62696E504B0304140006080800CA463240F270F1330600000004000000360000006662782F36413941434634452D353334362D344336302D423541302D343737334544
311
3132463545422F747269616E676C65732E62696E636660600000504B0304140006080000CA463240000000000000000000000000370000006662782F36413941434634452D353334362D344336302D423541302D3437373345443132463545422F617474726962757465732E62696E504B0304140006080800CA463240D598
311
7DFC8F00000041010000360000006662782F36413941434634452D353334362D344336302D423541302D3437373345443132463545422F6469726563746F72792E786D6C858F410EC2201045AF4266AF15DDB800BA74E7C21B903225242D6328188F2FA5C4183471359997F9FF81E89FF3C41E1816475E02DF1F80A11FC838
311
6F25A438EECEC07A250251FC3803E6F58C12560C4AD840E95E91C151A72936F496F35732D860FE635F62C8F2DA16B505C545B74125BAA2FA9E05D7CC053D063734D5C7665FD55B6B8D15D5E9BFEAFD8490FFA45E504B0304140006080800CA46324022A50F0EFD000000A00100003B0000006662782F36413941434634452D
311
353334362D344336302D423541302D3437373345443132463545422F7265736F75726365732F636F72652E786D6C8D504B6EC32010BD8A357B6C2049EB589828A1C9097A0184272E4A0C169FAAC72F4E5CA9DD7533337A1FCDD31387AFE95E7D6288D6BB1E584DA14267FC60DDD8434E57D242759022789F7EC9A0727AC21E
311
1618A41883CFF30A19EF12BA5450E7075C411D2326A8CCBD1C3D44F38193AE754E45116FF5ACCD4D8F58B3BAD04527454CA104A89E4F96093260F439188CA279B252E46C87556387F2D35E2D06907BB53F2B753E1176DC72B23D1D39D9B73B4ADE787BD9BDAA4DAB2E4A348B598A64A79F8C26A04E3880E49471421961ED3B
311
6DBBDDB6E38CD0978E52D12CF23FA63C0FFF3465EBD286AF719FB6089295200F428A66E9ABAC4799652FDDCA6F504B010214000A0000080000CA4632403DEE336E79000000790000001B00000000000000000000000000000000006175746F6465736B2D64657369676E2D7061636B6167652E786D6C504B01021400140006
311
080800CA463240D486FD9CA0000000F40000001300000000000000000000000000B20000005B436F6E74656E745F54797065735D2E786D6C504B01021400140006080800CA463240310E2196EA0000007C010000080000000000000000000000000083010000636F72652E786D6C504B01021400140006080800CA46324055
311
019EA25F0000007C000000070000000000000000000000000093020000636E782E786D6C504B01021400140006080800CA4632406193121F67010000020300000C00000000000000000000000000170300006662782F636F72652E786D6C504B01021400140006080800CA463240BD70B4127E0000009D0000000B00000000
311
000000000000000000A80400006662782F636E782E786D6C504B01021400140006080800CA463240CA1AA5D52B0100001302000031000000000000000000000000004F0500006662782F36413941434634452D353334362D344336302D423541302D3437373345443132463545422F636F72652E786D6C504B010214001400
311
06080800CA4632409F7B85004D010000330300003000000000000000000000000000C90600006662782F36413941434634452D353334362D344336302D423541302D3437373345443132463545422F636E782E786D6C504B01021400140006080800CA463240A7582B93990500007A10000034000000000000000000000000
311
00640800006662782F36413941434634452D353334362D344336302D423541302D3437373345443132463545422F6F626A656374732E786D6C504B01021400140006080000CA46324000000000000000000000000035000000000000000000000000004F0E00006662782F36413941434634452D353334362D344336302D42
311
3541302D3437373345443132463545422F76657274696365732E62696E504B01021400140006080800CA463240F270F13306000000040000003600000000000000000000000000A20E00006662782F36413941434634452D353334362D344336302D423541302D3437373345443132463545422F747269616E676C65732E62
311
696E504B01021400140006080000CA4632400000000000000000000000003700000000000000000000000000FC0E00006662782F36413941434634452D353334362D344336302D423541302D3437373345443132463545422F617474726962757465732E62696E504B01021400140006080800CA463240D5987DFC8F000000
311
410100003600000000000000000000000000510F00006662782F36413941434634452D353334362D344336302D423541302D3437373345443132463545422F6469726563746F72792E786D6C504B01021400140006080800CA46324022A50F0EFD000000A00100003B00000000000000000000000000341000006662782F36
311
413941434634452D353334362D344336302D423541302D3437373345443132463545422F7265736F75726365732F636F72652E786D6C504B0506000000000E000E00800400008A1100000000
310
504B03040A0000080000CA4632403DEE336E79000000790000001B0000006175746F6465736B2D64657369676E2D7061636B6167652E786D6C3C3F786D6C2076657273696F6E3D22312E302220656E636F64696E673D227574662D3822203F3E3C666F726D6174733E3C666F726D61743E687474703A2F2F736368656D612E
310
6175746F6465736B2E636F6D2F64657369676E2D7061636B6167652F323030393C2F666F726D61743E3C2F666F726D6174733E504B0304140006080800CA463240D486FD9CA0000000F4000000130000005B436F6E74656E745F54797065735D2E786D6C7D8EC10E82300C865F65E91D8A1E8C310C0EEA1BF002731658846E
310
D98AC1B77784ABF1D8FE5FBFBF75BBCE937A534CCEB38643598122B6FEE978D0B0485F9C41B54DDD7D022595594E1A469170414C76A4D9A4D207E29CF43ECE46F218070CC6BECC4078ACAA135ACF422C856C0E68EA1BF5669944DDD7BCDE7B1F8E415D77AECB980613C2E4AC91FC167A2B244592486606FC29C8FD7F045B9A
310
EF7053A7E60B504B0304140006080800CA46324079F62560EB0000007C01000008000000636F72652E786D6C8D905B6EC3201045B762CD3F36603B7E08135979ACA01B40405C94182C0355975F9C3852FBD7AF19DDB9676674D9F17B7E645F7AF5C6D901488E21D3563A65EC34400C37D44276E46C752EFCB24166C5AC07D8
310
64E06C5A5D5C76493A1BB40D49B54EE95D14DEEB00997CA466002F3FF52C72114372F87BBE08791793CEC9BB4B708C4665AF2346A57DE666F40AFC52E25377A9312AC9485135D60D1ACF870EE1A63AB76573A5DDE9CA8A0DE62C98F97D5FAE5A04AD80534C28C20491F603B77D5DF594207CE83166C566FF03C545FD138AC6
310
8692EEEFBE300F9CA4479E03CE8A2D8B549E41A5BAE5C67F00504B0304140006080800CA46324055019EA25F0000007C00000007000000636E782E786D6C4DCB3B0E80201045D1AD90E915ED2CF8AC45050C11660C8261F98AB1B07AC9C97D42D718D865D3E909258CFD00CCE24AC6E326A164D74DC0B4128928FF32603847
310
2BA13128B1252AC747C6BAB984FC68F0B87FE8960A5C09FE86CFB69FBA01504B0304140006080800CA463240E155FC5E67010000020300000C0000006662782F636F72652E786D6C8D52ED8E8320107C15C27F043FDADA06699A7E3CC1BD0055EA992A1804D3C7BFF5A3F17A699A8B0992999DDDD951BE7F3435EA95ED2AA3
310
331C060C23A5735354BACCB077379262B417DC1AE37E9561A465A3323CC058F0D21ADFCE506EB453DA01AA4DA16650769D7218E5355C32DCE5DFAA9181F40E2ABA7BD0CAFC2E4B158401D0502778E72C1840D390E1C4E2767D703AE1827B5F15335B1530ADBA55CA62718ED9717B5E31128787882487D5861C4EEB2D619BE4
310
94C69B4BB43D5E381DC482BBAA79BACBAD924E1558442C8C080B49987EB174B74A765148D87AC718A743F98BC8B7C53F45BED22E8E66BB93ACC322042323F1675B88C8A14EF6E0870A4E8710E13526FC1A340402213B79AD9F7BDC01EA55EE8C4D80298C5FA85ED65EC15486C687D38985CE6303D8EC6D9FE8439FCF3DE003
310
4A5D8235E9E07AF56E98CEA7A97314ADB2A4770FA48D6D64BD989B2C2EE732E8AD3C37B5B1FF51D379553A874987BF57FC00504B0304140006080800CA4632407CA358647D0000009D0000000B0000006662782F636E782E786D6C4DCCDD0A832018C6F15B91F7DCBEB498A0469FF711CB42321D4E6397BF1A1DECE8811F0F
310
7F5E7F76830EE5DFDA590179920152F6E9666D5701312CF801A896DC3B17FE6E80ECB42B011783E4AB77F175D3AC96299A70AAD176BBB16545D693B1C12D2514539213CCFA6EC06345BBA6A245C9861252C9D35FE9DC2B2CBF504B0304140006080800CA463240186A02282A01000014020000310000006662782F42393230
310
443346412D423433342D343331332D394443452D4636344341363432353945352F636F72652E786D6C8D51CB6EC32010FC15C4293D600326961D61A23CBFA03FE01892A2C460F1A8F2F985DA91DA5B2E2C9A9D991DEDF2ED737C806FE5BCB6A683A4C010283358A9CDAD83315C5103C15670676DF84383C0F4A3EA6086A1E0
310
3767E3B44083354199905063A55AC0DE7B1520181EE9D3413F7CA9B12FFA1812C3DF8BA91FEEFD4D15A448EDC413DC0797028079487EA1D8B7141FABF30EED59C510AB4885DAE3E184CE353BEC6A46D7ED69CDCB5928788C5A2E722D531C7DD5CABD6B92C582073DBEE20F4EF5414928282614618248F3899BCD9A6D2841B8
310
DE60CCCB4CFF278A937C5314B509155DE2CE320F05E1E5DC105CDA7879BCC2A8E7645D0079DECAABE1030A5C605A114259C3CB999A16903C6BB678FA605D5AF0EA7E49EC6A31AE99E065BE512ABF074C35DF53FC00504B0304140006080800CA463240F9DC4A175401000033030000300000006662782F4239323044334641
310
2D423433342D343331332D394443452D4636344341363432353945352F636E782E786D6CBD93CD6EC32010845F0571F76F5CCB8A30917AE813F4D02B864D4A83C1025C356FDF2521692E3954AA7A41D6EC30B3FA84D9EE6B36E4137CD0CE8EB4296B4AC04AA7B43D8C748DFB62A064C799772EDED928B162869126997276F0
310
6E5DB2A4602F56135135DA1EB3E821B8D54B0828A79BC438290C06802D5614619E402950E466C4AF3D785C05C5E944E23B9097E737E2A60F9031B02AA57056A50ECED2999BEE4C94482342186990EF308B52ACD12908C7528928CAA6BC763DD8E92789A40BD7CAD56B92CA479A4ECAF346257264150E390BD123BD6C8AA705
310
2817CB62B41411215767E3C5C3D9AA6DECBBECD508DEA37BD3F6C38061E7196751CF901DD28388A0286FEBA62DEAA66886D77AD83E75DBB629EA7E5BD7AC4A76CE26E74CBE8431E0DD42A4B3116CA4BC61551A3FC2977D44698FAC9D3FFD022402C8AD173AB78CBFE4D3F49BAEFB473ED5F97D232E8F7F01FF06504B030414
310
0006080800CA4632406A93B42D58070000931B0000340000006662782F42393230443346412D423433342D343331332D394443452D4636344341363432353945352F6F626A656374732E786D6CED595B6FA33814FE2B887D0E0949DA4E5694519B4EAB68D599D16467B40F9190030EF5D618649B5EF6D7EFF1050234B464A7
310
FB360F0960ECE373BE73F521F8F89451E70173417276EEFADEC475308BF384B0F4DC2DE56EF4C1753E8601CF73D998E63A0C65F8DC55C36E18A43C2F0B3B94E01D2AA9EC8C5E5FFEE5881833EC3A3145429CBB22BEC319F25029F3048B7B2F411279E9EEC9F33D33B14D36E5A8B8EB102D10C74C02A730CE808A6398F2DB8F
310
13771C0663F53E0CD4BF9D351B346BDE3F6BACA56E7349989088C52F58EA90990D6269E6CFAF3E4D4F16A393F97C369A9F4EFDD1E5F5E5D5C83F9B4D96A7CBE5E2E2D302D8DBE639B53225B8C02C01FD3DBBA11F8CD59B5A748BC021AEE39C311C6B20012A2D569720C102B66AC037693FFA4AA2C66B2D61E379AEDE5B161A
310
C3B33695BE59C38068D10541EC7695C4D5B5295FBEFD1B0417438C920B2C815B213968D7C2C3C12BDC70128CCD68186CF7BA20C2C990C49C20EA50B2E588835260AA9A1206668125A39C8303294749A035675EB76D0B3CF36DD739C4E5AEA45479861B6AC78AC0FDB0149A33F20FE67BEE9BC8004F206D4998FC60B994CF05
310
76C34530D68361A02EB3A97D6980747614A5422362DE76045D2AD75F5DB9E11FD7DBA7B50A0787372F785E602E95D1293D6ABEC090ED55A164B7F507694E2D00610CA876E51E946F80FC67881E7B56406F9C3CCD9FE676AEE488895DCE33D08D33714613F89B38BEFE57F78DBB605C2F6E6BAF0F4F705305D5879FC7B32D83
310
C6CAF2DF80330C1EC0E0733EB3AFD631A260CFB7840140CA481C9AC31084F6DDF6C90D57103821D0C32A44431F4406761FE036185B327BAD54EE65BD8E01A2768FD91025016CDA22818D1E3DDD40F6E024DEABA929621FBC27EF62AE1757EB3FD625DFA118DF5A9FBEC23BC28884AC7998A116E62D89EEF1F363CE1310F425
310
DEEB26DE99DD4A00DA0A73057C5A81A01EF63BB73688615D9AAB7013BCB10308A1727583FE2D1131A614319C97D5BE757453865A7BBCAD19DC706A209E4D3B26CCF10351550538CD7E468B51C8FB31278502D10D6F8C6475D0F47AA4FBBEFA0C1659CFEF99B562107A19A27FEAA0750087966557485B206A81B7FB701EE734
310
E7D1F6393291CE855A02D8687BCB8F165188F546498A0A7890F6BB2AA4A446DA2821BB5D2920AE1E60F1C76AD934878937F34F9CE67FC719E7106DC17711B77ED7D92322194A71B44349DF76CDDD6ADA4293EC21CDF18E825CE481C8E708C96892E0F418688E22BE7857EA29CD85200C0BC85707C16FA231F12090186D562C
310
2BAD76802622CAB044F4180414991E7075DAD1356E0CA5C3DB3CD6D6FB9AC69A44FF278BE0086AC99C45044A51C8216F32EE7B271043DAE81A943BF882B555B4B518B48412227E8E1E3149EFE431A81BF23DB8C77024296594172806B31E40F685AF28A57678DFA2F85EE58F282EE97B1988C07417114ACB2C821F6170F218
310
E2DA75607A1585067113FB24CEA02843B2E44336393D99BCD8C7D40CDD10D8D868472884ED2843450FEAAD80A8EB11A706DF52EF51EAB6CC8A086579C906198A37EB7A9325DF55AB223B905F552A42D95811B604C380305967D52A6683A9EBC00A6EA403D57324505650730A7B23F1F8B53769CABD1B70EBA7EFBB4106855F
310
8FF69A11755EC160796C1506E211C9F8CE0DD7FA3ABA84FA3BC1C93ED557B566B30204C454242F39B12AFABE82F2C6D6686E788BA4D8DC98AC5B5DBFAF3CE87E04635803B54BBD70A580CE3093485526B7EA867E4310825B34CCF84AE5D463A85C2489AE1A11BD267DEA6C9511AD4D33E2157798E519FCD886B0989609DEA0
310
44DC47B792466BA258B7527A19A9307E55C02F37EB0E3C303240A4AFAAC0C38F9DB57674A9CAA58344E45D996D192210045BA2A546375EC152AB914ACBF5559D29A0EE0203B32A9EFF3A5934DB11BF4E16A9358C9F3B59D07C8BE83EDA34B279ACCCFAA853409D9E1495F73805E8AE434DB54E2226975BF1AD2F451013AB20
310
3FB818AB628621D8C7F17F4EDA7D49D06CD7E1FFB8A4EDBF28388E4A2AADC9AA4975A0705D3553D8F47A36B9B83A9B8FA0153B1DCD4F168BD1E2ECD41FCD3E4C16D7671727A797D35A4F867818D4B14CA72E783631AD1A564F160368CA8A9C92040EF389936208F9128EF403BAE73CC3027267B3D79DD89EFC80D50FA6CD29
310
D196E28A933B04FD612A20AB8318652CDBE3CE6FD0999470CE3E77A167E4DDC39FB54AD781C473EE42A74092180B6F0B5D26D5CFD3C421E3EAD46F89411C432C5519D12CAA9FEB550A9B56F4AFA70CC90256AE560B03EAB6029A5FAD0685E6CDF2141F2578C58E8324DC6E4B09C59A91653F500BA3B7D9ABDFC84609BBB75B
310
3F81EBBE2E96EFE9392D44067D3178D5080CD591443CD5ED6EC59865E9E2EAEB18DA6CCEEA8B53D032055D0EA734E2188CB954F51458115885A5592009A6BAFC7DF395E7F08527737451B459E6599633FB7001C7B104BE1039EB3BF8DE936CA06AC0AAAB2E36D3893FDDE86EB66DB0475B24B0A7CA2118A8AA082542C7D8C0
310
225F74A66CDF72AC94D099BEBA726CF8842E80B1A017CD5DF375CB01EF51DF5194AF680FAFE47CB5A13DD653C11A38B4A2C37F01504B0304140006080000CA463240000000000000000000000000350000006662782F42393230443346412D423433342D343331332D394443452D4636344341363432353945352F76657274
310
696365732E62696E504B0304140006080800CA463240F270F1330600000004000000360000006662782F42393230443346412D423433342D343331332D394443452D4636344341363432353945352F747269616E676C65732E62696E636660600000504B0304140006080000CA463240000000000000000000000000370000
310
006662782F42393230443346412D423433342D343331332D394443452D4636344341363432353945352F617474726962757465732E62696E504B0304140006080800CA463240D5987DFC8F00000041010000360000006662782F42393230443346412D423433342D343331332D394443452D4636344341363432353945352F
310
6469726563746F72792E786D6C858F410EC2201045AF4266AF15DDB800BA74E7C21B903225242D6328188F2FA5C4183471359997F9FF81E89FF3C41E1816475E02DF1F80A11FC8386F25A438EECEC07A250251FC3803E6F58C12560C4AD840E95E91C151A72936F496F35732D860FE635F62C8F2DA16B505C545B74125BAA2
310
FA9E05D7CC053D063734D5C7665FD55B6B8D15D5E9BFEAFD8490FFA45E504B0304140006080800CA463240FD1BFBC7FD000000A00100003B0000006662782F42393230443346412D423433342D343331332D394443452D4636344341363432353945352F7265736F75726365732F636F72652E786D6C8D50596E833010BD0A
310
9A7F836D48209171146539412F609909B112ECC84BD5E3D7042AB57FFD9919BD45F3F4C4E16B7A169FE88371B607565228D06A37183BF690E28D74501CA4F0CEC55F3228AC9AB08719062946EFD26B85B4B3116DCCA87503AEA00A012314FA998F1E82BEE3A44A9562568447F952FAA1462C5999E9AC9322449F0314CB9379
310
82F4185CF21A83A816568A94CCB06ACC907F9A9B410FF252D3D3EED25C49CD8E9C34C74D4B8EE7ED8ED0B63977757BE5BBD35554B3598A68A69F8CDAA38A3880E49471421961DD07EDF69B66CF19A1DB3DA5A29AE57F4CE935FCD3948C8D355FE32EB60092E5206F428A6AEE2BAF779979CFDDCA6F504B010214000A000008
310
0000CA4632403DEE336E79000000790000001B00000000000000000000000000000000006175746F6465736B2D64657369676E2D7061636B6167652E786D6C504B01021400140006080800CA463240D486FD9CA0000000F40000001300000000000000000000000000B20000005B436F6E74656E745F54797065735D2E786D
310
6C504B01021400140006080800CA46324079F62560EB0000007C010000080000000000000000000000000083010000636F72652E786D6C504B01021400140006080800CA46324055019EA25F0000007C000000070000000000000000000000000094020000636E782E786D6C504B01021400140006080800CA463240E155FC
310
5E67010000020300000C00000000000000000000000000180300006662782F636F72652E786D6C504B01021400140006080800CA4632407CA358647D0000009D0000000B00000000000000000000000000A90400006662782F636E782E786D6C504B01021400140006080800CA463240186A02282A01000014020000310000
310
00000000000000000000004F0500006662782F42393230443346412D423433342D343331332D394443452D4636344341363432353945352F636F72652E786D6C504B01021400140006080800CA463240F9DC4A1754010000330300003000000000000000000000000000C80600006662782F42393230443346412D42343334
310
2D343331332D394443452D4636344341363432353945352F636E782E786D6C504B01021400140006080800CA4632406A93B42D58070000931B000034000000000000000000000000006A0800006662782F42393230443346412D423433342D343331332D394443452D4636344341363432353945352F6F626A656374732E78
310
6D6C504B01021400140006080000CA4632400000000000000000000000003500000000000000000000000000141000006662782F42393230443346412D423433342D343331332D394443452D4636344341363432353945352F76657274696365732E62696E504B01021400140006080800CA463240F270F133060000000400
310
00003600000000000000000000000000671000006662782F42393230443346412D423433342D343331332D394443452D4636344341363432353945352F747269616E676C65732E62696E504B01021400140006080000CA4632400000000000000000000000003700000000000000000000000000C11000006662782F423932
310
30443346412D423433342D343331332D394443452D4636344341363432353945352F617474726962757465732E62696E504B01021400140006080800CA463240D5987DFC8F000000410100003600000000000000000000000000161100006662782F42393230443346412D423433342D343331332D394443452D4636344341
310
363432353945352F6469726563746F72792E786D6C504B01021400140006080800CA463240FD1BFBC7FD000000A00100003B00000000000000000000000000F91100006662782F42393230443346412D423433342D343331332D394443452D4636344341363432353945352F7265736F75726365732F636F72652E786D6C50
310
4B0506000000000E000E00800400004F1300000000
  0
XRECORD
  5
27
102
{ACAD_REACTORS
330
22
102
}
330
22
100
AcDbXrecord
280
     1
270
     1
271
     1
  0
XRECORD
  5
26
102
{ACAD_REACTORS
330
22
102
}
330
22
100
AcDbXrecord
280
     1
270
     1
271
     1
  0
XRECORD
  5
28
102
{ACAD_REACTORS
330
22
102
}
330
22
100
AcDbXrecord
280
     1
270
     1
271
     1
  0
XRECORD
  5
25
102
{ACAD_REACTORS
330
22
102
}
330
22
100
AcDbXrecord
280
     1
270
     1
271
     1
  0
XRECORD
  5
FBA
102
{ACAD_REACTORS
330
FB9
102
}
330
FB9
100
AcDbXrecord
280
     1
102
ACAD_ROUNDTRIP_2012_MLEADER_STYLE
298
     1
  0
CELLSTYLEMAP
  5
FB8
102
{ACAD_REACTORS
330
FB7
102
}
330
FB7
100
AcDbCellStyleMap
 90
        3
300
CELLSTYLE
  1
TABLEFORMAT_BEGIN
 90
        5
170
     1
 91
        0
 92
    32768
 62
   257
 93
        1
300
CONTENTFORMAT
  1
CONTENTFORMAT_BEGIN
 90
        0
 91
        0
 92
      512
 93
        0
300

 40
0.0
140
1.0
 94
        5
 62
     0
340
55
144
0.25
309
CONTENTFORMAT_END
171
     0
 94
        0
309
TABLEFORMAT_END
  1
CELLSTYLE_BEGIN
 90
        1
 91
        1
300
_TITLE
309
CELLSTYLE_END
300
CELLSTYLE
  1
TABLEFORMAT_BEGIN
 90
        5
170
     1
 91
        0
 92
        0
 62
   257
 93
        1
300
CONTENTFORMAT
  1
CONTENTFORMAT_BEGIN
 90
        0
 91
        0
 92
      512
 93
        0
300

 40
0.0
140
1.0
 94
        5
 62
     0
340
55
144
0.18
309
CONTENTFORMAT_END
171
     0
 94
        0
309
TABLEFORMAT_END
  1
CELLSTYLE_BEGIN
 90
        2
 91
        1
300
_HEADER
309
CELLSTYLE_END
300
CELLSTYLE
  1
TABLEFORMAT_BEGIN
 90
        5
170
     1
 91
        0
 92
        0
 62
   257
 93
        1
300
CONTENTFORMAT
  1
CONTENTFORMAT_BEGIN
 90
        0
 91
        0
 92
      512
 93
        0
300

 40
0.0
140
1.0
 94
        2
 62
     0
340
55
144
0.18
309
CONTENTFORMAT_END
171
     0
 94
        0
309
TABLEFORMAT_END
  1
CELLSTYLE_BEGIN
 90
        3
 91
        2
300
_DATA
309
CELLSTYLE_END
  0
XRECORD
  5
FF2
102
{ACAD_REACTORS
330
FB7
102
}
330
FB7
100
AcDbXrecord
280
     1
102
ACAD_ROUNDTRIP_PRE2007_TABLESTYLE
 90
      512
 91
        0
  1

 92
      512
 93
        0
  2

 94
      512
 95
        0
  3

  0
XRECORD
  5
FCD
102
{ACAD_REACTORS
330
FCC
102
}
330
FCC
100
AcDbXrecord
280
     1
102
RTVSPropertyOp0
 70
     1
102
RTVSPropertyOp1
 70
     1
102
RTVSPropertyOp2
 70
     1
102
RTVSPropertyOp3
 70
     1
102
RTVSPropertyOp4
 70
     1
102
RTVSPropertyOp5
 70
     1
102
RTVSPropertyOp6
 70
     1
102
RTVSPropertyOp7
 70
     1
102
RTVSPropertyOp8
 70
     1
102
RTVSPropertyOp9
 70
     1
102
RTVSPropertyOp10
 70
     1
102
RTVSPropertyOp11
 70
     1
102
RTVSPropertyOp12
 70
     1
102
RTVSPropertyOp13
 70
     1
102
RTVSPropertyOp14
 70
     1
102
RTVSPropertyOp15
 70
     1
102
RTVSPropertyOp16
 70
     1
102
RTVSPropertyOp17
 70
     1
102
RTVSPropertyOp18
 70
     1
102
RTVSPropertyOp19
 70
     1
102
RTVSPropertyOp20
 70
     1
102
RTVSPropertyOp21
 70
     1
102
RTVSPropertyOp22
 70
     1
102
RTVSPropertyOp23
 70
     1
102
RTVSPropertyOp24
 70
     1
102
RTVSPropertyOp25
 70
     1
102
RTVSPropertyOp26
 70
     1
102
RTVSPropertyOp27
 70
     1
102
RTVSPropertyOp28
 70
     1
102
RTVSPropertyOp29
 70
     1
102
RTVSPropertyOp30
 70
     1
102
RTVSPropertyOp31
 70
     1
102
RTVSPropertyOp32
 70
     1
  0
XRECORD
  5
FCB
102
{ACAD_REACTORS
330
FCA
102
}
330
FCA
100
AcDbXrecord
280
     1
102
RTVSPropertyOp0
 70
     1
102
RTVSPropertyOp1
 70
     1
102
RTVSPropertyOp2
 70
     1
102
RTVSPropertyOp3
 70
     1
102
RTVSPropertyOp4
 70
     1
102
RTVSPropertyOp5
 70
     1
102
RTVSPropertyOp6
 70
     1
102
RTVSPropertyOp7
 70
     1
102
RTVSPropertyOp8
 70
     1
102
RTVSPropertyOp9
 70
     1
102
RTVSPropertyOp10
 70
     1
102
RTVSPropertyOp11
 70
     1
102
RTVSPropertyOp12
 70
     1
102
RTVSPropertyOp13
 70
     1
102
RTVSPropertyOp14
 70
     1
102
RTVSPropertyOp15
 70
     1
102
RTVSPropertyOp16
 70
     1
102
RTVSPropertyOp17
 70
     1
102
RTVSPropertyOp18
 70
     1
102
RTVSPropertyOp19
 70
     1
102
RTVSPropertyOp20
 70
     1
102
RTVSPropertyOp21
 70
     1
102
RTVSPropertyOp22
 70
     1
102
RTVSPropertyOp23
 70
     1
102
RTVSPropertyOp24
 70
     1
102
RTVSPropertyOp25
 70
     1
102
RTVSPropertyOp26
 70
     1
102
RTVSPropertyOp27
 70
     1
102
RTVSPropertyOp28
 70
     1
102
RTVSPropertyOp29
 70
     1
102
RTVSPropertyOp30
 70
     1
102
RTVSPropertyOp31
 70
     1
102
RTVSPropertyOp32
 70
     1
  0
XRECORD
  5
FD9
102
{ACAD_REACTORS
330
FD8
102
}
330
FD8
100
AcDbXrecord
280
     1
102
RTVSPropertyOp0
 70
     1
102
RTVSPropertyOp1
 70
     1
102
RTVSPropertyOp2
 70
     1
102
RTVSPropertyOp3
 70
     1
102
RTVSPropertyOp4
 70
     1
102
RTVSPropertyOp5
 70
     1
102
RTVSPropertyOp6
 70
     1
102
RTVSPropertyOp7
 70
     1
102
RTVSPropertyOp8
 70
     1
102
RTVSPropertyOp9
 70
     1
102
RTVSPropertyOp10
 70
     1
102
RTVSPropertyOp11
 70
     1
102
RTVSPropertyOp12
 70
     1
102
RTVSPropertyOp13
 70
     1
102
RTVSPropertyOp14
 70
     1
102
RTVSPropertyOp15
 70
     1
102
RTVSPropertyOp16
 70
     1
102
RTVSPropertyOp17
 70
     1
102
RTVSPropertyOp18
 70
     1
102
RTVSPropertyOp19
 70
     1
102
RTVSPropertyOp20
 70
     1
102
RTVSPropertyOp21
 70
     1
102
RTVSPropertyOp22
 70
     1
102
RTVSPropertyOp23
 70
     1
102
RTVSPropertyOp24
 70
     1
102
RTVSPropertyOp25
 70
     1
102
RTVSPropertyOp26
 70
     1
102
RTVSPropertyOp27
 70
     1
102
RTVSPropertyOp28
 70
     1
102
RTVSPropertyOp29
 70
     1
102
RTVSPropertyOp30
 70
     1
102
RTVSPropertyOp31
 70
     1
102
RTVSPropertyOp32
 70
     1
  0
XRECORD
  5
FE1
102
{ACAD_REACTORS
330
FE0
102
}
330
FE0
100
AcDbXrecord
280
     1
102
RTVSPropertyOp0
 70
     1
102
RTVSPropertyOp1
 70
     1
102
RTVSPropertyOp2
 70
     1
102
RTVSPropertyOp3
 70
     1
102
RTVSPropertyOp4
 70
     1
102
RTVSPropertyOp5
 70
     1
102
RTVSPropertyOp6
 70
     1
102
RTVSPropertyOp7
 70
     1
102
RTVSPropertyOp8
 70
     1
102
RTVSPropertyOp9
 70
     1
102
RTVSPropertyOp10
 70
     1
102
RTVSPropertyOp11
 70
     1
102
RTVSPropertyOp12
 70
     1
102
RTVSPropertyOp13
 70
     1
102
RTVSPropertyOp14
 70
     1
102
RTVSPropertyOp15
 70
     1
102
RTVSPropertyOp16
 70
     1
102
RTVSPropertyOp17
 70
     1
102
RTVSPropertyOp18
 70
     1
102
RTVSPropertyOp19
 70
     1
102
RTVSPropertyOp20
 70
     1
102
RTVSPropertyOp21
 70
     1
102
RTVSPropertyOp22
 70
     1
102
RTVSPropertyOp23
 70
     1
102
RTVSPropertyOp24
 70
     1
102
RTVSPropertyOp25
 70
     1
102
RTVSPropertyOp26
 70
     1
102
RTVSPropertyOp27
 70
     1
102
RTVSPropertyOp28
 70
     1
102
RTVSPropertyOp29
 70
     1
102
RTVSPropertyOp30
 70
     1
102
RTVSPropertyOp31
 70
     1
102
RTVSPropertyOp32
 70
     1
  0
XRECORD
  5
FD3
102
{ACAD_REACTORS
330
FD2
102
}
330
FD2
100
AcDbXrecord
280
     1
102
RTVSPropertyOp0
 70
     1
102
RTVSPropertyOp1
 70
     1
102
RTVSPropertyOp2
 70
     1
102
RTVSPropertyOp3
 70
     1
102
RTVSPropertyOp4
 70
     1
102
RTVSPropertyOp5
 70
     1
102
RTVSPropertyOp6
 70
     1
102
RTVSPropertyOp7
 70
     1
102
RTVSPropertyOp8
 70
     1
102
RTVSPropertyOp9
 70
     1
102
RTVSPropertyOp10
 70
     1
102
RTVSPropertyOp11
 70
     1
102
RTVSPropertyOp12
 70
     1
102
RTVSPropertyOp13
 70
     1
102
RTVSPropertyOp14
 70
     1
102
RTVSPropertyOp15
 70
     1
102
RTVSPropertyOp16
 70
     1
102
RTVSPropertyOp17
 70
     1
102
RTVSPropertyOp18
 70
     1
102
RTVSPropertyOp19
 70
     1
102
RTVSPropertyOp20
 70
     1
102
RTVSPropertyOp21
 70
     1
102
RTVSPropertyOp22
 70
     1
102
RTVSPropertyOp23
 70
     1
102
RTVSPropertyOp24
 70
     1
102
RTVSPropertyOp25
 70
     1
102
RTVSPropertyOp26
 70
     1
102
RTVSPropertyOp27
 70
     1
102
RTVSPropertyOp28
 70
     1
102
RTVSPropertyOp29
 70
     1
102
RTVSPropertyOp30
 70
     1
102
RTVSPropertyOp31
 70
     1
102
RTVSPropertyOp32
 70
     1
  0
XRECORD
  5
FD7
102
{ACAD_REACTORS
330
FD6
102
}
330
FD6
100
AcDbXrecord
280
     1
102
RTVSPropertyOp0
 70
     1
102
RTVSPropertyOp1
 70
     1
102
RTVSPropertyOp2
 70
     1
102
RTVSPropertyOp3
 70
     1
102
RTVSPropertyOp4
 70
     1
102
RTVSPropertyOp5
 70
     1
102
RTVSPropertyOp6
 70
     1
102
RTVSPropertyOp7
 70
     1
102
RTVSPropertyOp8
 70
     1
102
RTVSPropertyOp9
 70
     1
102
RTVSPropertyOp10
 70
     1
102
RTVSPropertyOp11
 70
     1
102
RTVSPropertyOp12
 70
     1
102
RTVSPropertyOp13
 70
     1
102
RTVSPropertyOp14
 70
     1
102
RTVSPropertyOp15
 70
     1
102
RTVSPropertyOp16
 70
     1
102
RTVSPropertyOp17
 70
     1
102
RTVSPropertyOp18
 70
     1
102
RTVSPropertyOp19
 70
     1
102
RTVSPropertyOp20
 70
     1
102
RTVSPropertyOp21
 70
     1
102
RTVSPropertyOp22
 70
     1
102
RTVSPropertyOp23
 70
     1
102
RTVSPropertyOp24
 70
     1
102
RTVSPropertyOp25
 70
     1
102
RTVSPropertyOp26
 70
     1
102
RTVSPropertyOp27
 70
     1
102
RTVSPropertyOp28
 70
     1
102
RTVSPropertyOp29
 70
     1
102
RTVSPropertyOp30
 70
     1
102
RTVSPropertyOp31
 70
     1
102
RTVSPropertyOp32
 70
     1
  0
XRECORD
  5
FF1
102
{ACAD_REACTORS
330
FF0
102
}
330
FF0
100
AcDbXrecord
280
     1
102
RTVSPropertyOp0
 70
     0
102
RTVSPropertyOp1
 70
     0
102
RTVSPropertyOp2
 70
     0
102
RTVSPropertyOp3
 70
     0
102
RTVSPropertyOp4
 70
     0
102
RTVSPropertyOp5
 70
     0
102
RTVSPropertyOp6
 70
     0
102
RTVSPropertyOp7
 70
     0
102
RTVSPropertyOp8
 70
     0
102
RTVSPropertyOp9
 70
     0
102
RTVSPropertyOp10
 70
     0
102
RTVSPropertyOp11
 70
     0
102
RTVSPropertyOp12
 70
     0
102
RTVSPropertyOp13
 70
     0
102
RTVSPropertyOp14
 70
     2
102
RTVSPropertyOp15
 70
     0
102
RTVSPropertyOp16
 70
     0
102
RTVSPropertyOp17
 70
     0
102
RTVSPropertyOp18
 70
     0
102
RTVSPropertyOp19
 70
     0
102
RTVSPropertyOp20
 70
     0
102
RTVSPropertyOp21
 70
     0
102
RTVSPropertyOp22
 70
     0
102
RTVSPropertyOp23
 70
     0
102
RTVSPropertyOp24
 70
     0
102
RTVSPropertyOp25
 70
     0
102
RTVSPropertyOp26
 70
     0
102
RTVSPropertyOp27
 70
     0
102
RTVSPropertyOp28
 70
     1
102
RTVSPropertyOp29
 70
     1
102
RTVSPropertyOp30
 70
     1
102
RTVSPropertyOp31
 70
     1
102
RTVSPropertyOp32
 70
     1
  0
XRECORD
  5
FDF
102
{ACAD_REACTORS
330
FDE
102
}
330
FDE
100
AcDbXrecord
280
     1
102
RTVSPropertyOp0
 70
     1
102
RTVSPropertyOp1
 70
     1
102
RTVSPropertyOp2
 70
     1
102
RTVSPropertyOp3
 70
     1
102
RTVSPropertyOp4
 70
     1
102
RTVSPropertyOp5
 70
     1
102
RTVSPropertyOp6
 70
     1
102
RTVSPropertyOp7
 70
     1
102
RTVSPropertyOp8
 70
     1
102
RTVSPropertyOp9
 70
     1
102
RTVSPropertyOp10
 70
     1
102
RTVSPropertyOp11
 70
     1
102
RTVSPropertyOp12
 70
     1
102
RTVSPropertyOp13
 70
     1
102
RTVSPropertyOp14
 70
     1
102
RTVSPropertyOp15
 70
     1
102
RTVSPropertyOp16
 70
     1
102
RTVSPropertyOp17
 70
     1
102
RTVSPropertyOp18
 70
     1
102
RTVSPropertyOp19
 70
     1
102
RTVSPropertyOp20
 70
     1
102
RTVSPropertyOp21
 70
     1
102
RTVSPropertyOp22
 70
     1
102
RTVSPropertyOp23
 70
     1
102
RTVSPropertyOp24
 70
     1
102
RTVSPropertyOp25
 70
     1
102
RTVSPropertyOp26
 70
     1
102
RTVSPropertyOp27
 70
     1
102
RTVSPropertyOp28
 70
     1
102
RTVSPropertyOp29
 70
     1
102
RTVSPropertyOp30
 70
     1
102
RTVSPropertyOp31
 70
     1
102
RTVSPropertyOp32
 70
     1
  0
XRECORD
  5
FC3
102
{ACAD_REACTORS
330
FC2
102
}
330
FC2
100
AcDbXrecord
280
     1
102
RTVSPropertyOp0
 70
     1
102
RTVSPropertyOp1
 70
     1
102
RTVSPropertyOp2
 70
     1
102
RTVSPropertyOp3
 70
     1
102
RTVSPropertyOp4
 70
     1
102
RTVSPropertyOp5
 70
     1
102
RTVSPropertyOp6
 70
     1
102
RTVSPropertyOp7
 70
     1
102
RTVSPropertyOp8
 70
     1
102
RTVSPropertyOp9
 70
     1
102
RTVSPropertyOp10
 70
     1
102
RTVSPropertyOp11
 70
     1
102
RTVSPropertyOp12
 70
     1
102
RTVSPropertyOp13
 70
     1
102
RTVSPropertyOp14
 70
     1
102
RTVSPropertyOp15
 70
     1
102
RTVSPropertyOp16
 70
     1
102
RTVSPropertyOp17
 70
     1
102
RTVSPropertyOp18
 70
     1
102
RTVSPropertyOp19
 70
     1
102
RTVSPropertyOp20
 70
     1
102
RTVSPropertyOp21
 70
     1
102
RTVSPropertyOp22
 70
     1
102
RTVSPropertyOp23
 70
     1
102
RTVSPropertyOp24
 70
     1
102
RTVSPropertyOp25
 70
     1
102
RTVSPropertyOp26
 70
     1
102
RTVSPropertyOp27
 70
     1
102
RTVSPropertyOp28
 70
     1
102
RTVSPropertyOp29
 70
     1
102
RTVSPropertyOp30
 70
     1
102
RTVSPropertyOp31
 70
     1
102
RTVSPropertyOp32
 70
     1
  0
XRECORD
  5
FC5
102
{ACAD_REACTORS
330
FC4
102
}
330
FC4
100
AcDbXrecord
280
     1
102
RTVSPropertyOp0
 70
     1
102
RTVSPropertyOp1
 70
     1
102
RTVSPropertyOp2
 70
     1
102
RTVSPropertyOp3
 70
     1
102
RTVSPropertyOp4
 70
     1
102
RTVSPropertyOp5
 70
     1
102
RTVSPropertyOp6
 70
     1
102
RTVSPropertyOp7
 70
     1
102
RTVSPropertyOp8
 70
     1
102
RTVSPropertyOp9
 70
     1
102
RTVSPropertyOp10
 70
     1
102
RTVSPropertyOp11
 70
     1
102
RTVSPropertyOp12
 70
     1
102
RTVSPropertyOp13
 70
     1
102
RTVSPropertyOp14
 70
     1
102
RTVSPropertyOp15
 70
     1
102
RTVSPropertyOp16
 70
     1
102
RTVSPropertyOp17
 70
     1
102
RTVSPropertyOp18
 70
     1
102
RTVSPropertyOp19
 70
     1
102
RTVSPropertyOp20
 70
     1
102
RTVSPropertyOp21
 70
     1
102
RTVSPropertyOp22
 70
     1
102
RTVSPropertyOp23
 70
     1
102
RTVSPropertyOp24
 70
     1
102
RTVSPropertyOp25
 70
     1
102
RTVSPropertyOp26
 70
     1
102
RTVSPropertyOp27
 70
     1
102
RTVSPropertyOp28
 70
     1
102
RTVSPropertyOp29
 70
     1
102
RTVSPropertyOp30
 70
     1
102
RTVSPropertyOp31
 70
     1
102
RTVSPropertyOp32
 70
     1
  0
XRECORD
  5
FC7
102
{ACAD_REACTORS
330
FC6
102
}
330
FC6
100
AcDbXrecord
280
     1
102
RTVSPropertyOp0
 70
     1
102
RTVSPropertyOp1
 70
     1
102
RTVSPropertyOp2
 70
     1
102
RTVSPropertyOp3
 70
     1
102
RTVSPropertyOp4
 70
     1
102
RTVSPropertyOp5
 70
     1
102
RTVSPropertyOp6
 70
     1
102
RTVSPropertyOp7
 70
     1
102
RTVSPropertyOp8
 70
     1
102
RTVSPropertyOp9
 70
     1
102
RTVSPropertyOp10
 70
     1
102
RTVSPropertyOp11
 70
     1
102
RTVSPropertyOp12
 70
     1
102
RTVSPropertyOp13
 70
     1
102
RTVSPropertyOp14
 70
     1
102
RTVSPropertyOp15
 70
     1
102
RTVSPropertyOp16
 70
     1
102
RTVSPropertyOp17
 70
     1
102
RTVSPropertyOp18
 70
     1
102
RTVSPropertyOp19
 70
     1
102
RTVSPropertyOp20
 70
     1
102
RTVSPropertyOp21
 70
     1
102
RTVSPropertyOp22
 70
     1
102
RTVSPropertyOp23
 70
     1
102
RTVSPropertyOp24
 70
     1
102
RTVSPropertyOp25
 70
     1
102
RTVSPropertyOp26
 70
     1
102
RTVSPropertyOp27
 70
     1
102
RTVSPropertyOp28
 70
     1
102
RTVSPropertyOp29
 70
     1
102
RTVSPropertyOp30
 70
     1
102
RTVSPropertyOp31
 70
     1
102
RTVSPropertyOp32
 70
     1
  0
XRECORD
  5
FC9
102
{ACAD_REACTORS
330
FC8
102
}
330
FC8
100
AcDbXrecord
280
     1
102
RTVSPropertyOp0
 70
     1
102
RTVSPropertyOp1
 70
     1
102
RTVSPropertyOp2
 70
     1
102
RTVSPropertyOp3
 70
     1
102
RTVSPropertyOp4
 70
     1
102
RTVSPropertyOp5
 70
     1
102
RTVSPropertyOp6
 70
     1
102
RTVSPropertyOp7
 70
     1
102
RTVSPropertyOp8
 70
     1
102
RTVSPropertyOp9
 70
     1
102
RTVSPropertyOp10
 70
     1
102
RTVSPropertyOp11
 70
     1
102
RTVSPropertyOp12
 70
     1
102
RTVSPropertyOp13
 70
     1
102
RTVSPropertyOp14
 70
     1
102
RTVSPropertyOp15
 70
     1
102
RTVSPropertyOp16
 70
     1
102
RTVSPropertyOp17
 70
     1
102
RTVSPropertyOp18
 70
     1
102
RTVSPropertyOp19
 70
     1
102
RTVSPropertyOp20
 70
     1
102
RTVSPropertyOp21
 70
     1
102
RTVSPropertyOp22
 70
     1
102
RTVSPropertyOp23
 70
     1
102
RTVSPropertyOp24
 70
     1
102
RTVSPropertyOp25
 70
     1
102
RTVSPropertyOp26
 70
     1
102
RTVSPropertyOp27
 70
     1
102
RTVSPropertyOp28
 70
     1
102
RTVSPropertyOp29
 70
     1
102
RTVSPropertyOp30
 70
     1
102
RTVSPropertyOp31
 70
     1
102
RTVSPropertyOp32
 70
     1
  0
XRECORD
  5
FD1
102
{ACAD_REACTORS
330
FD0
102
}
330
FD0
100
AcDbXrecord
280
     1
102
RTVSPropertyOp0
 70
     1
102
RTVSPropertyOp1
 70
     1
102
RTVSPropertyOp2
 70
     1
102
RTVSPropertyOp3
 70
     1
102
RTVSPropertyOp4
 70
     1
102
RTVSPropertyOp5
 70
     1
102
RTVSPropertyOp6
 70
     1
102
RTVSPropertyOp7
 70
     1
102
RTVSPropertyOp8
 70
     1
102
RTVSPropertyOp9
 70
     1
102
RTVSPropertyOp10
 70
     1
102
RTVSPropertyOp11
 70
     1
102
RTVSPropertyOp12
 70
     1
102
RTVSPropertyOp13
 70
     1
102
RTVSPropertyOp14
 70
     1
102
RTVSPropertyOp15
 70
     1
102
RTVSPropertyOp16
 70
     1
102
RTVSPropertyOp17
 70
     1
102
RTVSPropertyOp18
 70
     1
102
RTVSPropertyOp19
 70
     1
102
RTVSPropertyOp20
 70
     1
102
RTVSPropertyOp21
 70
     1
102
RTVSPropertyOp22
 70
     1
102
RTVSPropertyOp23
 70
     1
102
RTVSPropertyOp24
 70
     1
102
RTVSPropertyOp25
 70
     1
102
RTVSPropertyOp26
 70
     1
102
RTVSPropertyOp27
 70
     1
102
RTVSPropertyOp28
 70
     1
102
RTVSPropertyOp29
 70
     1
102
RTVSPropertyOp30
 70
     1
102
RTVSPropertyOp31
 70
     1
102
RTVSPropertyOp32
 70
     1
  0
XRECORD
  5
FED
102
{ACAD_REACTORS
330
FEC
102
}
330
FEC
100
AcDbXrecord
280
     1
102
RTVSPropertyOp0
 70
     0
102
RTVSPropertyOp1
 70
     0
102
RTVSPropertyOp2
 70
     0
102
RTVSPropertyOp3
 70
     0
102
RTVSPropertyOp4
 70
     0
102
RTVSPropertyOp5
 70
     0
102
RTVSPropertyOp6
 70
     0
102
RTVSPropertyOp7
 70
     0
102
RTVSPropertyOp8
 70
     0
102
RTVSPropertyOp9
 70
     0
102
RTVSPropertyOp10
 70
     0
102
RTVSPropertyOp11
 70
     0
102
RTVSPropertyOp12
 70
     0
102
RTVSPropertyOp13
 70
     0
102
RTVSPropertyOp14
 70
     2
102
RTVSPropertyOp15
 70
     0
102
RTVSPropertyOp16
 70
     0
102
RTVSPropertyOp17
 70
     0
102
RTVSPropertyOp18
 70
     0
102
RTVSPropertyOp19
 70
     0
102
RTVSPropertyOp20
 70
     0
102
RTVSPropertyOp21
 70
     0
102
RTVSPropertyOp22
 70
     0
102
RTVSPropertyOp23
 70
     0
102
RTVSPropertyOp24
 70
     0
102
RTVSPropertyOp25
 70
     0
102
RTVSPropertyOp26
 70
     0
102
RTVSPropertyOp27
 70
     0
102
RTVSPropertyOp28
 70
     1
102
RTVSPropertyOp29
 70
     1
102
RTVSPropertyOp30
 70
     1
102
RTVSPropertyOp31
 70
     1
102
RTVSPropertyOp32
 70
     1
  0
XRECORD
  5
FDD
102
{ACAD_REACTORS
330
FDC
102
}
330
FDC
100
AcDbXrecord
280
     1
102
RTVSPropertyOp0
 70
     1
102
RTVSPropertyOp1
 70
     1
102
RTVSPropertyOp2
 70
     1
102
RTVSPropertyOp3
 70
     1
102
RTVSPropertyOp4
 70
     1
102
RTVSPropertyOp5
 70
     1
102
RTVSPropertyOp6
 70
     1
102
RTVSPropertyOp7
 70
     1
102
RTVSPropertyOp8
 70
     1
102
RTVSPropertyOp9
 70
     1
102
RTVSPropertyOp10
 70
     1
102
RTVSPropertyOp11
 70
     1
102
RTVSPropertyOp12
 70
     1
102
RTVSPropertyOp13
 70
     1
102
RTVSPropertyOp14
 70
     1
102
RTVSPropertyOp15
 70
     1
102
RTVSPropertyOp16
 70
     1
102
RTVSPropertyOp17
 70
     1
102
RTVSPropertyOp18
 70
     1
102
RTVSPropertyOp19
 70
     1
102
RTVSPropertyOp20
 70
     1
102
RTVSPropertyOp21
 70
     1
102
RTVSPropertyOp22
 70
     1
102
RTVSPropertyOp23
 70
     1
102
RTVSPropertyOp24
 70
     1
102
RTVSPropertyOp25
 70
     1
102
RTVSPropertyOp26
 70
     1
102
RTVSPropertyOp27
 70
     1
102
RTVSPropertyOp28
 70
     1
102
RTVSPropertyOp29
 70
     1
102
RTVSPropertyOp30
 70
     1
102
RTVSPropertyOp31
 70
     1
102
RTVSPropertyOp32
 70
     1
  0
XRECORD
  5
FEF
102
{ACAD_REACTORS
330
FEE
102
}
330
FEE
100
AcDbXrecord
280
     1
102
RTVSPropertyOp0
 70
     0
102
RTVSPropertyOp1
 70
     0
102
RTVSPropertyOp2
 70
     0
102
RTVSPropertyOp3
 70
     0
102
RTVSPropertyOp4
 70
     0
102
RTVSPropertyOp5
 70
     0
102
RTVSPropertyOp6
 70
     0
102
RTVSPropertyOp7
 70
     0
102
RTVSPropertyOp8
 70
     0
102
RTVSPropertyOp9
 70
     0
102
RTVSPropertyOp10
 70
     0
102
RTVSPropertyOp11
 70
     0
102
RTVSPropertyOp12
 70
     0
102
RTVSPropertyOp13
 70
     0
102
RTVSPropertyOp14
 70
     2
102
RTVSPropertyOp15
 70
     0
102
RTVSPropertyOp16
 70
     0
102
RTVSPropertyOp17
 70
     0
102
RTVSPropertyOp18
 70
     0
102
RTVSPropertyOp19
 70
     0
102
RTVSPropertyOp20
 70
     0
102
RTVSPropertyOp21
 70
     0
102
RTVSPropertyOp22
 70
     0
102
RTVSPropertyOp23
 70
     0
102
RTVSPropertyOp24
 70
     0
102
RTVSPropertyOp25
 70
     0
102
RTVSPropertyOp26
 70
     0
102
RTVSPropertyOp27
 70
     0
102
RTVSPropertyOp28
 70
     1
102
RTVSPropertyOp29
 70
     1
102
RTVSPropertyOp30
 70
     1
102
RTVSPropertyOp31
 70
     1
102
RTVSPropertyOp32
 70
     1
  0
XRECORD
  5
FD5
102
{ACAD_REACTORS
330
FD4
102
}
330
FD4
100
AcDbXrecord
280
     1
102
RTVSPropertyOp0
 70
     1
102
RTVSPropertyOp1
 70
     1
102
RTVSPropertyOp2
 70
     1
102
RTVSPropertyOp3
 70
     1
102
RTVSPropertyOp4
 70
     1
102
RTVSPropertyOp5
 70
     1
102
RTVSPropertyOp6
 70
     1
102
RTVSPropertyOp7
 70
     1
102
RTVSPropertyOp8
 70
     1
102
RTVSPropertyOp9
 70
     1
102
RTVSPropertyOp10
 70
     1
102
RTVSPropertyOp11
 70
     1
102
RTVSPropertyOp12
 70
     1
102
RTVSPropertyOp13
 70
     1
102
RTVSPropertyOp14
 70
     1
102
RTVSPropertyOp15
 70
     1
102
RTVSPropertyOp16
 70
     1
102
RTVSPropertyOp17
 70
     1
102
RTVSPropertyOp18
 70
     1
102
RTVSPropertyOp19
 70
     1
102
RTVSPropertyOp20
 70
     1
102
RTVSPropertyOp21
 70
     1
102
RTVSPropertyOp22
 70
     1
102
RTVSPropertyOp23
 70
     1
102
RTVSPropertyOp24
 70
     1
102
RTVSPropertyOp25
 70
     1
102
RTVSPropertyOp26
 70
     1
102
RTVSPropertyOp27
 70
     1
102
RTVSPropertyOp28
 70
     1
102
RTVSPropertyOp29
 70
     1
102
RTVSPropertyOp30
 70
     1
102
RTVSPropertyOp31
 70
     1
102
RTVSPropertyOp32
 70
     1
  0
XRECORD
  5
FEB
102
{ACAD_REACTORS
330
FEA
102
}
330
FEA
100
AcDbXrecord
280
     1
102
RTVSPropertyOp0
 70
     1
102
RTVSPropertyOp1
 70
     1
102
RTVSPropertyOp2
 70
     1
102
RTVSPropertyOp3
 70
     1
102
RTVSPropertyOp4
 70
     1
102
RTVSPropertyOp5
 70
     1
102
RTVSPropertyOp6
 70
     1
102
RTVSPropertyOp7
 70
     1
102
RTVSPropertyOp8
 70
     1
102
RTVSPropertyOp9
 70
     1
102
RTVSPropertyOp10
 70
     1
102
RTVSPropertyOp11
 70
     1
102
RTVSPropertyOp12
 70
     1
102
RTVSPropertyOp13
 70
     1
102
RTVSPropertyOp14
 70
     1
102
RTVSPropertyOp15
 70
     1
102
RTVSPropertyOp16
 70
     1
102
RTVSPropertyOp17
 70
     1
102
RTVSPropertyOp18
 70
     1
102
RTVSPropertyOp19
 70
     1
102
RTVSPropertyOp20
 70
     1
102
RTVSPropertyOp21
 70
     1
102
RTVSPropertyOp22
 70
     1
102
RTVSPropertyOp23
 70
     1
102
RTVSPropertyOp24
 70
     1
102
RTVSPropertyOp25
 70
     1
102
RTVSPropertyOp26
 70
     1
102
RTVSPropertyOp27
 70
     1
102
RTVSPropertyOp28
 70
     1
102
RTVSPropertyOp29
 70
     1
102
RTVSPropertyOp30
 70
     1
102
RTVSPropertyOp31
 70
     1
102
RTVSPropertyOp32
 70
     1
  0
XRECORD
  5
FE9
102
{ACAD_REACTORS
330
FE8
102
}
330
FE8
100
AcDbXrecord
280
     1
102
RTVSPropertyOp0
 70
     1
102
RTVSPropertyOp1
 70
     1
102
RTVSPropertyOp2
 70
     1
102
RTVSPropertyOp3
 70
     1
102
RTVSPropertyOp4
 70
     1
102
RTVSPropertyOp5
 70
     1
102
RTVSPropertyOp6
 70
     1
102
RTVSPropertyOp7
 70
     1
102
RTVSPropertyOp8
 70
     1
102
RTVSPropertyOp9
 70
     1
102
RTVSPropertyOp10
 70
     1
102
RTVSPropertyOp11
 70
     1
102
RTVSPropertyOp12
 70
     1
102
RTVSPropertyOp13
 70
     1
102
RTVSPropertyOp14
 70
     1
102
RTVSPropertyOp15
 70
     1
102
RTVSPropertyOp16
 70
     1
102
RTVSPropertyOp17
 70
     1
102
RTVSPropertyOp18
 70
     1
102
RTVSPropertyOp19
 70
     1
102
RTVSPropertyOp20
 70
     1
102
RTVSPropertyOp21
 70
     1
102
RTVSPropertyOp22
 70
     1
102
RTVSPropertyOp23
 70
     1
102
RTVSPropertyOp24
 70
     1
102
RTVSPropertyOp25
 70
     1
102
RTVSPropertyOp26
 70
     1
102
RTVSPropertyOp27
 70
     1
102
RTVSPropertyOp28
 70
     1
102
RTVSPropertyOp29
 70
     1
102
RTVSPropertyOp30
 70
     1
102
RTVSPropertyOp31
 70
     1
102
RTVSPropertyOp32
 70
     1
  0
XRECORD
  5
FE3
102
{ACAD_REACTORS
330
FE2
102
}
330
FE2
100
AcDbXrecord
280
     1
102
RTVSPropertyOp0
 70
     1
102
RTVSPropertyOp1
 70
     1
102
RTVSPropertyOp2
 70
     1
102
RTVSPropertyOp3
 70
     1
102
RTVSPropertyOp4
 70
     1
102
RTVSPropertyOp5
 70
     1
102
RTVSPropertyOp6
 70
     1
102
RTVSPropertyOp7
 70
     1
102
RTVSPropertyOp8
 70
     1
102
RTVSPropertyOp9
 70
     1
102
RTVSPropertyOp10
 70
     1
102
RTVSPropertyOp11
 70
     1
102
RTVSPropertyOp12
 70
     1
102
RTVSPropertyOp13
 70
     1
102
RTVSPropertyOp14
 70
     1
102
RTVSPropertyOp15
 70
     1
102
RTVSPropertyOp16
 70
     1
102
RTVSPropertyOp17
 70
     1
102
RTVSPropertyOp18
 70
     1
102
RTVSPropertyOp19
 70
     1
102
RTVSPropertyOp20
 70
     1
102
RTVSPropertyOp21
 70
     1
102
RTVSPropertyOp22
 70
     1
102
RTVSPropertyOp23
 70
     1
102
RTVSPropertyOp24
 70
     1
102
RTVSPropertyOp25
 70
     1
102
RTVSPropertyOp26
 70
     1
102
RTVSPropertyOp27
 70
     1
102
RTVSPropertyOp28
 70
     1
102
RTVSPropertyOp29
 70
     1
102
RTVSPropertyOp30
 70
     1
102
RTVSPropertyOp31
 70
     1
102
RTVSPropertyOp32
 70
     1
  0
XRECORD
  5
FE5
102
{ACAD_REACTORS
330
FE4
102
}
330
FE4
100
AcDbXrecord
280
     1
102
RTVSPropertyOp0
 70
     1
102
RTVSPropertyOp1
 70
     1
102
RTVSPropertyOp2
 70
     1
102
RTVSPropertyOp3
 70
     1
102
RTVSPropertyOp4
 70
     1
102
RTVSPropertyOp5
 70
     1
102
RTVSPropertyOp6
 70
     1
102
RTVSPropertyOp7
 70
     1
102
RTVSPropertyOp8
 70
     1
102
RTVSPropertyOp9
 70
     1
102
RTVSPropertyOp10
 70
     1
102
RTVSPropertyOp11
 70
     1
102
RTVSPropertyOp12
 70
     1
102
RTVSPropertyOp13
 70
     1
102
RTVSPropertyOp14
 70
     1
102
RTVSPropertyOp15
 70
     1
102
RTVSPropertyOp16
 70
     1
102
RTVSPropertyOp17
 70
     1
102
RTVSPropertyOp18
 70
     1
102
RTVSPropertyOp19
 70
     1
102
RTVSPropertyOp20
 70
     1
102
RTVSPropertyOp21
 70
     1
102
RTVSPropertyOp22
 70
     1
102
RTVSPropertyOp23
 70
     1
102
RTVSPropertyOp24
 70
     1
102
RTVSPropertyOp25
 70
     1
102
RTVSPropertyOp26
 70
     1
102
RTVSPropertyOp27
 70
     1
102
RTVSPropertyOp28
 70
     1
102
RTVSPropertyOp29
 70
     1
102
RTVSPropertyOp30
 70
     1
102
RTVSPropertyOp31
 70
     1
102
RTVSPropertyOp32
 70
     1
  0
XRECORD
  5
FDB
102
{ACAD_REACTORS
330
FDA
102
}
330
FDA
100
AcDbXrecord
280
     1
102
RTVSPropertyOp0
 70
     1
102
RTVSPropertyOp1
 70
     1
102
RTVSPropertyOp2
 70
     1
102
RTVSPropertyOp3
 70
     1
102
RTVSPropertyOp4
 70
     1
102
RTVSPropertyOp5
 70
     1
102
RTVSPropertyOp6
 70
     1
102
RTVSPropertyOp7
 70
     1
102
RTVSPropertyOp8
 70
     1
102
RTVSPropertyOp9
 70
     1
102
RTVSPropertyOp10
 70
     1
102
RTVSPropertyOp11
 70
     1
102
RTVSPropertyOp12
 70
     1
102
RTVSPropertyOp13
 70
     1
102
RTVSPropertyOp14
 70
     1
102
RTVSPropertyOp15
 70
     1
102
RTVSPropertyOp16
 70
     1
102
RTVSPropertyOp17
 70
     1
102
RTVSPropertyOp18
 70
     1
102
RTVSPropertyOp19
 70
     1
102
RTVSPropertyOp20
 70
     1
102
RTVSPropertyOp21
 70
     1
102
RTVSPropertyOp22
 70
     1
102
RTVSPropertyOp23
 70
     1
102
RTVSPropertyOp24
 70
     1
102
RTVSPropertyOp25
 70
     1
102
RTVSPropertyOp26
 70
     1
102
RTVSPropertyOp27
 70
     1
102
RTVSPropertyOp28
 70
     1
102
RTVSPropertyOp29
 70
     1
102
RTVSPropertyOp30
 70
     1
102
RTVSPropertyOp31
 70
     1
102
RTVSPropertyOp32
 70
     1
  0
XRECORD
  5
FCF
102
{ACAD_REACTORS
330
FCE
102
}
330
FCE
100
AcDbXrecord
280
     1
102
RTVSPropertyOp0
 70
     1
102
RTVSPropertyOp1
 70
     1
102
RTVSPropertyOp2
 70
     1
102
RTVSPropertyOp3
 70
     1
102
RTVSPropertyOp4
 70
     1
102
RTVSPropertyOp5
 70
     1
102
RTVSPropertyOp6
 70
     1
102
RTVSPropertyOp7
 70
     1
102
RTVSPropertyOp8
 70
     1
102
RTVSPropertyOp9
 70
     1
102
RTVSPropertyOp10
 70
     1
102
RTVSPropertyOp11
 70
     1
102
RTVSPropertyOp12
 70
     1
102
RTVSPropertyOp13
 70
     1
102
RTVSPropertyOp14
 70
     1
102
RTVSPropertyOp15
 70
     1
102
RTVSPropertyOp16
 70
     1
102
RTVSPropertyOp17
 70
     1
102
RTVSPropertyOp18
 70
     1
102
RTVSPropertyOp19
 70
     1
102
RTVSPropertyOp20
 70
     1
102
RTVSPropertyOp21
 70
     1
102
RTVSPropertyOp22
 70
     1
102
RTVSPropertyOp23
 70
     1
102
RTVSPropertyOp24
 70
     1
102
RTVSPropertyOp25
 70
     1
102
RTVSPropertyOp26
 70
     1
102
RTVSPropertyOp27
 70
     1
102
RTVSPropertyOp28
 70
     1
102
RTVSPropertyOp29
 70
     1
102
RTVSPropertyOp30
 70
     1
102
RTVSPropertyOp31
 70
     1
102
RTVSPropertyOp32
 70
     1
  0
XRECORD
  5
FE7
102
{ACAD_REACTORS
330
FE6
102
}
330
FE6
100
AcDbXrecord
280
     1
102
RTVSPropertyOp0
 70
     1
102
RTVSPropertyOp1
 70
     1
102
RTVSPropertyOp2
 70
     1
102
RTVSPropertyOp3
 70
     1
102
RTVSPropertyOp4
 70
     1
102
RTVSPropertyOp5
 70
     1
102
RTVSPropertyOp6
 70
     1
102
RTVSPropertyOp7
 70
     1
102
RTVSPropertyOp8
 70
     1
102
RTVSPropertyOp9
 70
     1
102
RTVSPropertyOp10
 70
     1
102
RTVSPropertyOp11
 70
     1
102
RTVSPropertyOp12
 70
     1
102
RTVSPropertyOp13
 70
     1
102
RTVSPropertyOp14
 70
     1
102
RTVSPropertyOp15
 70
     1
102
RTVSPropertyOp16
 70
     1
102
RTVSPropertyOp17
 70
     1
102
RTVSPropertyOp18
 70
     1
102
RTVSPropertyOp19
 70
     1
102
RTVSPropertyOp20
 70
     1
102
RTVSPropertyOp21
 70
     1
102
RTVSPropertyOp22
 70
     1
102
RTVSPropertyOp23
 70
     1
102
RTVSPropertyOp24
 70
     1
102
RTVSPropertyOp25
 70
     1
102
RTVSPropertyOp26
 70
     1
102
RTVSPropertyOp27
 70
     1
102
RTVSPropertyOp28
 70
     1
102
RTVSPropertyOp29
 70
     1
102
RTVSPropertyOp30
 70
     1
102
RTVSPropertyOp31
 70
     1
102
RTVSPropertyOp32
 70
     1
  0
ENDSEC
  0
EOF
