  0
SECTION
  2
HEADER
  9
$ACADVER
  1
AC1024
  9
$ACADMAINTVER
 70
    63
  9
$DWGCODEPAGE
  3
ANSI_1252
  9
$AUTHOR
  1
MS
  9
$REVISIONNUMBER
  1
-
  9
$CUSTOMPROPERTYTAG
  1
Manager
  9
$CUSTOMPROPERTY
  1

  9
$CUSTOMPROPERTYTAG
  1
Company
  9
$CUSTOMPROPERTY
  1

  9
$CUSTOMPROPERTYTAG
  1
Category
  9
$CUSTOMPROPERTY
  1

  9
$CUSTOMPROPERTYTAG
  1
Part Number
  9
$CUSTOMPROPERTY
  1
NPDD4242G-S
  9
$CUSTOMPROPERTYTAG
  1
Description
  9
$CUSTOMPROPERTY
  1
NPDD PANEL MASTER VIEW
  9
$CUSTOMPROPERTYTAG
  1
Project
  9
$CUSTOMPROPERTY
  1

  9
$CUSTOMPROPERTYTAG
  1
Designer
  9
$CUSTOMPROPERTY
  1
MS
  9
$CUSTOMPROPERTYTAG
  1
Engineer
  9
$CUSTOMPROPERTY
  1

  9
$CUSTOMPROPERTYTAG
  1
Authority
  9
$CUSTOMPROPERTY
  1

  9
$CUSTOMPROPERTYTAG
  1
Cost Center
  9
$CUSTOMPROPERTY
  1

  9
$CUSTOMPROPERTYTAG
  1
Vendor
  9
$CUSTOMPROPERTY
  1

  9
$CUSTOMPROPERTYTAG
  1
User Status
  9
$CUSTOMPROPERTY
  1

  9
$CUSTOMPROPERTYTAG
  1
Design Status
  9
$CUSTOMPROPERTY
  1
WorkInProgress
  9
$CUSTOMPROPERTYTAG
  1
Checked by
  9
$CUSTOMPROPERTY
  1
NJ
  9
$CUSTOMPROPERTYTAG
  1
Date Checked
  9
$CUSTOMPROPERTY
  1
06/28/2013
  9
$CUSTOMPROPERTYTAG
  1
Engr Approved by
  9
$CUSTOMPROPERTY
  1

  9
$CUSTOMPROPERTYTAG
  1
Mfg Approved by
  9
$CUSTOMPROPERTY
  1

  9
$CUSTOMPROPERTYTAG
  1
DWG. NO
  9
$CUSTOMPROPERTY
  1

  9
$CUSTOMPROPERTYTAG
  1
NUMBER OF SHEETS
  9
$CUSTOMPROPERTY
  1
2
  9
$CUSTOMPROPERTYTAG
  1
DRAWING #
  9
$CUSTOMPROPERTY
  1
1
  9
$INSBASE
 10
0.0
 20
0.0
 30
0.0
  9
$EXTMIN
 10
0.0
 20
0.0
 30
0.0
  9
$EXTMAX
 10
187.0
 20
121.0
 30
0.0
  9
$LIMMIN
 10
0.0
 20
0.0
  9
$LIMMAX
 10
187.0
 20
121.0
  9
$ORTHOMODE
 70
     0
  9
$REGENMODE
 70
     1
  9
$FILLMODE
 70
     1
  9
$QTEXTMODE
 70
     0
  9
$MIRRTEXT
 70
     0
  9
$LTSCALE
 40
11.0
  9
$ATTMODE
 70
     1
  9
$TEXTSIZE
 40
0.2
  9
$TRACEWID
 40
0.05
  9
$TEXTSTYLE
  7
Standard
  9
$CLAYER
  8
0
  9
$CELTYPE
  6
ByLayer
  9
$CECOLOR
 62
   256
  9
$CELTSCALE
 40
1.0
  9
$DISPSILH
 70
     0
  9
$DIMSCALE
 40
1.0
  9
$DIMASZ
 40
0.0708661417322835
  9
$DIMEXO
 40
0.0625
  9
$DIMDLI
 40
0.38
  9
$DIMRND
 40
0.0
  9
$DIMDLE
 40
0.0
  9
$DIMEXE
 40
0.18
  9
$DIMTP
 40
0.0
  9
$DIMTM
 40
0.0
  9
$DIMTXT
 40
0.0708661417322835
  9
$DIMCEN
 40
0.09
  9
$DIMTSZ
 40
0.0
  9
$DIMTOL
 70
     0
  9
$DIMLIM
 70
     0
  9
$DIMTIH
 70
     1
  9
$DIMTOH
 70
     1
  9
$DIMSE1
 70
     0
  9
$DIMSE2
 70
     0
  9
$DIMTAD
 70
     0
  9
$DIMZIN
 70
     0
  9
$DIMBLK
  1

  9
$DIMASO
 70
     1
  9
$DIMSHO
 70
     1
  9
$DIMPOST
  1

  9
$DIMAPOST
  1

  9
$DIMALT
 70
     0
  9
$DIMALTD
 70
     2
  9
$DIMALTF
 40
25.4
  9
$DIMLFAC
 40
1.0
  9
$DIMTOFL
 70
     0
  9
$DIMTVP
 40
0.0
  9
$DIMTIX
 70
     0
  9
$DIMSOXD
 70
     0
  9
$DIMSAH
 70
     0
  9
$DIMBLK1
  1

  9
$DIMBLK2
  1

  9
$DIMSTYLE
  2
STANDARD
  9
$DIMCLRD
 70
     0
  9
$DIMCLRE
 70
     0
  9
$DIMCLRT
 70
     0
  9
$DIMTFAC
 40
1.0
  9
$DIMGAP
 40
0.09
  9
$DIMJUST
 70
     0
  9
$DIMSD1
 70
     0
  9
$DIMSD2
 70
     0
  9
$DIMTOLJ
 70
     1
  9
$DIMTZIN
 70
     0
  9
$DIMALTZ
 70
     0
  9
$DIMALTTZ
 70
     0
  9
$DIMUPT
 70
     0
  9
$DIMDEC
 70
     4
  9
$DIMTDEC
 70
     4
  9
$DIMALTU
 70
     2
  9
$DIMALTTD
 70
     2
  9
$DIMTXSTY
  7
Standard
  9
$DIMAUNIT
 70
     0
  9
$DIMADEC
 70
     0
  9
$DIMALTRND
 40
0.0
  9
$DIMAZIN
 70
     0
  9
$DIMDSEP
 70
    46
  9
$DIMATFIT
 70
     3
  9
$DIMFRAC
 70
     0
  9
$DIMLDRBLK
  1

  9
$DIMLUNIT
 70
     2
  9
$DIMLWD
 70
    -2
  9
$DIMLWE
 70
    -2
  9
$DIMTMOVE
 70
     0
  9
$DIMFXL
 40
1.0
  9
$DIMFXLON
 70
     0
  9
$DIMJOGANG
 40
0.7853981633974483
  9
$DIMTFILL
 70
     0
  9
$DIMTFILLCLR
 70
     0
  9
$DIMARCSYM
 70
     0
  9
$DIMLTYPE
  6

  9
$DIMLTEX1
  6

  9
$DIMLTEX2
  6

  9
$DIMTXTDIRECTION
 70
     0
  9
$LUNITS
 70
     2
  9
$LUPREC
 70
     4
  9
$SKETCHINC
 40
0.1
  9
$FILLETRAD
 40
0.0
  9
$AUNITS
 70
     0
  9
$AUPREC
 70
     0
  9
$MENU
  1
.
  9
$ELEVATION
 40
0.0
  9
$PELEVATION
 40
0.0
  9
$THICKNESS
 40
0.0
  9
$LIMCHECK
 70
     0
  9
$CHAMFERA
 40
0.0
  9
$CHAMFERB
 40
0.0
  9
$CHAMFERC
 40
0.0
  9
$CHAMFERD
 40
0.0
  9
$SKPOLY
 70
     0
  9
$TDCREATE
 40
2456483.425240127
  9
$TDUCREATE
 40
2456483.196073461
  9
$TDUPDATE
 40
2456483.425240243
  9
$TDUUPDATE
 40
2456483.196073576
  9
$TDINDWG
 40
0.0000592708
  9
$TDUSRTIMER
 40
0.0000592708
  9
$USRTIMER
 70
     1
  9
$ANGBASE
 50
0.0
  9
$ANGDIR
 70
     0
  9
$PDMODE
 70
     0
  9
$PDSIZE
 40
0.0
  9
$PLINEWID
 40
0.0
  9
$SPLFRAME
 70
     0
  9
$SPLINETYPE
 70
     6
  9
$SPLINESEGS
 70
     8
  9
$HANDSEED
  5
D78
  9
$SURFTAB1
 70
     6
  9
$SURFTAB2
 70
     6
  9
$SURFTYPE
 70
     6
  9
$SURFU
 70
     6
  9
$SURFV
 70
     6
  9
$UCSBASE
  2

  9
$UCSNAME
  2

  9
$UCSORG
 10
0.0
 20
0.0
 30
0.0
  9
$UCSXDIR
 10
1.0
 20
0.0
 30
0.0
  9
$UCSYDIR
 10
0.0
 20
1.0
 30
0.0
  9
$UCSORTHOREF
  2

  9
$UCSORTHOVIEW
 70
     0
  9
$UCSORGTOP
 10
0.0
 20
0.0
 30
0.0
  9
$UCSORGBOTTOM
 10
0.0
 20
0.0
 30
0.0
  9
$UCSORGLEFT
 10
0.0
 20
0.0
 30
0.0
  9
$UCSORGRIGHT
 10
0.0
 20
0.0
 30
0.0
  9
$UCSORGFRONT
 10
0.0
 20
0.0
 30
0.0
  9
$UCSORGBACK
 10
0.0
 20
0.0
 30
0.0
  9
$PUCSBASE
  2

  9
$PUCSNAME
  2

  9
$PUCSORG
 10
0.0
 20
0.0
 30
0.0
  9
$PUCSXDIR
 10
1.0
 20
0.0
 30
0.0
  9
$PUCSYDIR
 10
0.0
 20
1.0
 30
0.0
  9
$PUCSORTHOREF
  2

  9
$PUCSORTHOVIEW
 70
     0
  9
$PUCSORGTOP
 10
0.0
 20
0.0
 30
0.0
  9
$PUCSORGBOTTOM
 10
0.0
 20
0.0
 30
0.0
  9
$PUCSORGLEFT
 10
0.0
 20
0.0
 30
0.0
  9
$PUCSORGRIGHT
 10
0.0
 20
0.0
 30
0.0
  9
$PUCSORGFRONT
 10
0.0
 20
0.0
 30
0.0
  9
$PUCSORGBACK
 10
0.0
 20
0.0
 30
0.0
  9
$USERI1
 70
     0
  9
$USERI2
 70
     0
  9
$USERI3
 70
     0
  9
$USERI4
 70
     0
  9
$USERI5
 70
     0
  9
$USERR1
 40
0.0
  9
$USERR2
 40
0.0
  9
$USERR3
 40
0.0
  9
$USERR4
 40
0.0
  9
$USERR5
 40
0.0
  9
$WORLDVIEW
 70
     1
  9
$SHADEDGE
 70
     3
  9
$SHADEDIF
 70
    70
  9
$TILEMODE
 70
     1
  9
$MAXACTVP
 70
    64
  9
$PINSBASE
 10
0.0
 20
0.0
 30
0.0
  9
$PLIMCHECK
 70
     0
  9
$PEXTMIN
 10
0.0
 20
0.0
 30
0.0
  9
$PEXTMAX
 10
187.0
 20
121.0
 30
0.0
  9
$PLIMMIN
 10
0.0
 20
0.0
  9
$PLIMMAX
 10
187.0
 20
121.0
  9
$UNITMODE
 70
     0
  9
$VISRETAIN
 70
     1
  9
$PLINEGEN
 70
     0
  9
$PSLTSCALE
 70
     1
  9
$TREEDEPTH
 70
  3020
  9
$CMLSTYLE
  2
Standard
  9
$CMLJUST
 70
     0
  9
$CMLSCALE
 40
1.0
  9
$PROXYGRAPHICS
 70
     1
  9
$MEASUREMENT
 70
     0
  9
$CELWEIGHT
370
    -1
  9
$ENDCAPS
280
     0
  9
$JOINSTYLE
280
     0
  9
$LWDISPLAY
290
     0
  9
$INSUNITS
 70
     1
  9
$HYPERLINKBASE
  1

  9
$STYLESHEET
  1

  9
$XEDIT
290
     1
  9
$CEPSNTYPE
380
     0
  9
$PSTYLEMODE
290
     1
  9
$FINGERPRINTGUID
  2
{0738B733-8D89-4B82-8D5A-BCC143683896}
  9
$VERSIONGUID
  2
{2BEBA4E7-1B0E-4826-BC41-0B8EADE23F7B}
  9
$EXTNAMES
290
     1
  9
$PSVPSCALE
 40
0.0
  9
$OLESTARTUP
290
     0
  9
$SORTENTS
280
   127
  9
$INDEXCTL
280
     0
  9
$HIDETEXT
280
     1
  9
$XCLIPFRAME
280
     2
  9
$HALOGAP
280
     0
  9
$OBSCOLOR
 70
   257
  9
$OBSLTYPE
280
     0
  9
$INTERSECTIONDISPLAY
280
     0
  9
$INTERSECTIONCOLOR
 70
   257
  9
$DIMASSOC
280
     1
  9
$PROJECTNAME
  1

  9
$CAMERADISPLAY
290
     0
  9
$LENSLENGTH
 40
50.0
  9
$CAMERAHEIGHT
 40
0.0
  9
$STEPSPERSEC
 40
2.0
  9
$STEPSIZE
 40
6.0
  9
$3DDWFPREC
 40
2.0
  9
$PSOLWIDTH
 40
0.25
  9
$PSOLHEIGHT
 40
4.0
  9
$LOFTANG1
 40
1.570796326794896
  9
$LOFTANG2
 40
1.570796326794896
  9
$LOFTMAG1
 40
0.0
  9
$LOFTMAG2
 40
0.0
  9
$LOFTPARAM
 70
     7
  9
$LOFTNORMALS
280
     1
  9
$LATITUDE
 40
37.795
  9
$LONGITUDE
 40
-122.394
  9
$NORTHDIRECTION
 40
0.0
  9
$TIMEZONE
 70
 -8000
  9
$LIGHTGLYPHDISPLAY
280
     1
  9
$TILEMODELIGHTSYNCH
280
     1
  9
$CMATERIAL
347
11
  9
$SOLIDHIST
280
     0
  9
$SHOWHIST
280
     1
  9
$DWFFRAME
280
     2
  9
$DGNFRAME
280
     0
  9
$REALWORLDSCALE
290
     1
  9
$INTERFERECOLOR
 62
     1
  9
$INTERFEREOBJVS
345
33
  9
$INTERFEREVPVS
346
30
  9
$CSHADOW
280
     0
  9
$SHADOWPLANELOCATION
 40
0.0
  0
ENDSEC
  0
SECTION
  2
CLASSES
  0
CLASS
  1
ACDBDICTIONARYWDFLT
  2
AcDbDictionaryWithDefault
  3
ObjectDBX Classes
 90
        0
 91
        1
280
     0
281
     0
  0
CLASS
  1
MATERIAL
  2
AcDbMaterial
  3
ObjectDBX Classes
 90
     1153
 91
        3
280
     0
281
     0
  0
CLASS
  1
VISUALSTYLE
  2
AcDbVisualStyle
  3
ObjectDBX Classes
 90
     4095
 91
       24
280
     0
281
     0
  0
CLASS
  1
SCALE
  2
AcDbScale
  3
ObjectDBX Classes
 90
     1153
 91
       17
280
     0
281
     0
  0
CLASS
  1
TABLESTYLE
  2
AcDbTableStyle
  3
ObjectDBX Classes
 90
     4095
 91
        1
280
     0
281
     0
  0
CLASS
  1
MLEADERSTYLE
  2
AcDbMLeaderStyle
  3
ACDB_MLEADERSTYLE_CLASS
 90
     4095
 91
        1
280
     0
281
     0
  0
CLASS
  1
DICTIONARYVAR
  2
AcDbDictionaryVar
  3
ObjectDBX Classes
 90
        0
 91
        3
280
     0
281
     0
  0
CLASS
  1
CELLSTYLEMAP
  2
AcDbCellStyleMap
  3
ObjectDBX Classes
 90
     1152
 91
        1
280
     0
281
     0
  0
ENDSEC
  0
SECTION
  2
TABLES
  0
TABLE
  2
VPORT
  5
8
330
0
100
AcDbSymbolTable
 70
     1
  0
VPORT
  5
57
330
8
100
AcDbSymbolTableRecord
100
AcDbViewportTableRecord
  2
*Active
 70
     0
 10
0.0
 20
0.0
 11
1.0
 21
1.0
 12
93.49999999999999
 22
60.5
 13
0.0
 23
0.0
 14
1.0
 24
1.0
 15
0.0
 25
0.0
 16
0.0
 26
0.0
 36
1.0
 17
0.0
 27
0.0
 37
0.0
 40
121.0
 41
1.545454545454545
 42
50.0
 43
0.0
 44
0.0
 50
0.0
 51
0.0
 71
     0
 72
   100
 73
     1
 74
     1
 75
     0
 76
     0
 77
     0
 78
     0
281
     0
 65
     1
110
0.0
120
0.0
130
0.0
111
1.0
121
0.0
131
0.0
112
0.0
122
1.0
132
0.0
 79
     0
146
0.0
 60
     3
 61
     5
292
     1
282
     1
141
0.0
142
0.0
 63
   250
421
  3355443
  0
ENDTAB
  0
TABLE
  2
LTYPE
  5
5
330
0
100
AcDbSymbolTable
 70
    59
  0
LTYPE
  5
5B
330
5
100
AcDbSymbolTableRecord
100
AcDbLinetypeTableRecord
  2
ByBlock
 70
     0
  3

 72
    65
 73
     0
 40
0.0
  0
LTYPE
  5
5C
330
5
100
AcDbSymbolTableRecord
100
AcDbLinetypeTableRecord
  2
ByLayer
 70
     0
  3

 72
    65
 73
     0
 40
0.0
  0
LTYPE
  5
5D
330
5
100
AcDbSymbolTableRecord
100
AcDbLinetypeTableRecord
  2
Continuous
 70
     0
  3
Solid line
 72
    65
 73
     0
 40
0.0
  0
LTYPE
  5
7C
330
5
100
AcDbSymbolTableRecord
100
AcDbLinetypeTableRecord
  2
BY_STANDARD
 70
     0
  3
By Standard ____________    ____    ____   _
 72
    65
 73
     6
 40
1.240299999999999
 49
0.6614
 74
     0
 49
-0.0827
 74
     0
 49
0.1654
 74
     0
 49
-0.0827
 74
     0
 49
0.1654
 74
     0
 49
-0.0827
 74
     0
  0
LTYPE
  5
7D
330
5
100
AcDbSymbolTableRecord
100
AcDbLinetypeTableRecord
  2
CHAIN
 70
     0
  3
Chain ____ _ ____ _ ____ _ ____ _ ____ _ ____
 72
    65
 73
     4
 40
0.7087
 49
0.4724000000000001
 74
     0
 49
-0.0591
 74
     0
 49
0.1181
 74
     0
 49
-0.0591
 74
     0
  0
LTYPE
  5
7E
330
5
100
AcDbSymbolTableRecord
100
AcDbLinetypeTableRecord
  2
DASH_DOT
 70
     0
  3
Dash dot __ . __ . __ . __ . __ . __ . __ . __
 72
    65
 73
     4
 40
0.37
 49
0.24
 74
     0
 49
-0.06
 74
     0
 49
0.01
 74
     0
 49
-0.06
 74
     0
  0
LTYPE
  5
7F
330
5
100
AcDbSymbolTableRecord
100
AcDbLinetypeTableRecord
  2
DOUBLE_DASH_DOT
 70
     0
  3
Double-Dash Dot __ __ . __ __ . __ __ . __ _
 72
    65
 73
     6
 40
0.4398
 49
0.24
 74
     0
 49
-0.06
 74
     0
 49
0.0098
 74
     0
 49
-0.06
 74
     0
 49
0.01
 74
     0
 49
-0.06
 74
     0
  0
LTYPE
  5
80
330
5
100
AcDbSymbolTableRecord
100
AcDbLinetypeTableRecord
  2
DASH_TRIPLE_DOT
 70
     0
  3
Dash Triple-Dot _ . . . _ . . . _ . . . _
 72
    65
 73
     8
 40
0.51
 49
0.24
 74
     0
 49
-0.06
 74
     0
 49
0.01
 74
     0
 49
-0.06
 74
     0
 49
0.01
 74
     0
 49
-0.06
 74
     0
 49
0.01
 74
     0
 49
-0.06
 74
     0
  0
LTYPE
  5
81
330
5
100
AcDbSymbolTableRecord
100
AcDbLinetypeTableRecord
  2
DASHED
 70
     0
  3
Dashed __ __ __ __ __ __ __ __ __ __ __ __ __ _
 72
    65
 73
     2
 40
0.2067
 49
0.1654
 74
     0
 49
-0.0413
 74
     0
  0
LTYPE
  5
82
330
5
100
AcDbSymbolTableRecord
100
AcDbLinetypeTableRecord
  2
DASH_DOUBLE_DOT
 70
     0
  3
Dash Double-Dot __ . . __ . . __ . . __ . .
 72
    65
 73
     6
 40
0.4398
 49
0.24
 74
     0
 49
-0.06
 74
     0
 49
0.0098
 74
     0
 49
-0.06
 74
     0
 49
0.01
 74
     0
 49
-0.06
 74
     0
  0
LTYPE
  5
83
330
5
100
AcDbSymbolTableRecord
100
AcDbLinetypeTableRecord
  2
DASHED_SPACE
 70
     0
  3
Dashed Space __ __ __ __ __ __ __ __ __ __ __ _
 72
    65
 73
     2
 40
0.2067
 49
0.1654
 74
     0
 49
-0.0413
 74
     0
  0
LTYPE
  5
84
330
5
100
AcDbSymbolTableRecord
100
AcDbLinetypeTableRecord
  2
DOTTED
 70
     0
  3
Dotted . . . . . . . . . . . . . . . . . . . . 
 72
    65
 73
     2
 40
0.0482
 49
0.0069
 74
     0
 49
-0.0413
 74
     0
  0
LTYPE
  5
85
330
5
100
AcDbSymbolTableRecord
100
AcDbLinetypeTableRecord
  2
DOUBLE_DASH_CHAIN
 70
     0
  3
Double-Dash Chain ______  __  __  ______  __  _
 72
    65
 73
     6
 40
1.240299999999999
 49
0.6614
 74
     0
 49
-0.0827
 74
     0
 49
0.1654
 74
     0
 49
-0.0827
 74
     0
 49
0.1654
 74
     0
 49
-0.0827
 74
     0
  0
LTYPE
  5
87
330
5
100
AcDbSymbolTableRecord
100
AcDbLinetypeTableRecord
  2
DOUBLE_DASH_DOUBLE_DOT
 70
     0
  3
Double-Dash Double-dot _ _ . . _ _ . . _
 72
    65
 73
     8
 40
0.7400000000000001
 49
0.24
 74
     0
 49
-0.06
 74
     0
 49
0.24
 74
     0
 49
-0.06
 74
     0
 49
0.01
 74
     0
 49
-0.06
 74
     0
 49
0.01
 74
     0
 49
-0.06
 74
     0
  0
LTYPE
  5
88
330
5
100
AcDbSymbolTableRecord
100
AcDbLinetypeTableRecord
  2
DOUBLE_DASH_TRIPLE_DOT
 70
     0
  3
Double Dash Triple Dot __ __ . . . __ __ . .
 72
    65
 73
    10
 40
0.8100000000000001
 49
0.24
 74
     0
 49
-0.06
 74
     0
 49
0.24
 74
     0
 49
-0.06
 74
     0
 49
0.01
 74
     0
 49
-0.06
 74
     0
 49
0.01
 74
     0
 49
-0.06
 74
     0
 49
0.01
 74
     0
 49
-0.06
 74
     0
  0
LTYPE
  5
89
330
5
100
AcDbSymbolTableRecord
100
AcDbLinetypeTableRecord
  2
LONG_DASH_DOTTED
 70
     0
  3
Long Dash Dotted ____ . ____ . ____ . ____ . _
 72
    65
 73
     4
 40
0.3543
 49
0.2362
 74
     0
 49
-0.0295
 74
     0
 49
0.0591
 74
     0
 49
-0.0295
 74
     0
  0
LTYPE
  5
8A
330
5
100
AcDbSymbolTableRecord
100
AcDbLinetypeTableRecord
  2
LONG_DASH_DOUBLE_DOT
 70
     0
  3
Long Dash Double Dot ________  .  .  ________  
 72
    65
 73
     6
 40
0.6799999999999999
 49
0.48
 74
     0
 49
-0.06
 74
     0
 49
0.01
 74
     0
 49
-0.06
 74
     0
 49
0.01
 74
     0
 49
-0.06
 74
     0
  0
LTYPE
  5
8B
330
5
100
AcDbSymbolTableRecord
100
AcDbLinetypeTableRecord
  2
LONG_DASH_TRIPLE_DOT
 70
     0
  3
Long Dash Triple Dot ____ ... ____ ... ____
 72
    65
 73
     8
 40
0.3689
 49
0.2362
 74
     0
 49
-0.0295
 74
     0
 49
0.0049
 74
     0
 49
-0.0295
 74
     0
 49
0.0049
 74
     0
 49
-0.0295
 74
     0
 49
0.0049
 74
     0
 49
-0.0295
 74
     0
  0
LTYPE
  5
8C
330
5
100
AcDbSymbolTableRecord
100
AcDbLinetypeTableRecord
  2
BORDER
 70
     0
  3
Border __ __ . __ __ . __ __ . __ __ . __ __ .
 72
    65
 73
     6
 40
1.75
 49
0.5
 74
     0
 49
-0.25
 74
     0
 49
0.5
 74
     0
 49
-0.25
 74
     0
 49
0.0
 74
     0
 49
-0.25
 74
     0
  0
LTYPE
  5
8D
330
5
100
AcDbSymbolTableRecord
100
AcDbLinetypeTableRecord
  2
BORDER2
 70
     0
  3
Border (.5x) __.__.__.__.__.__.__.__.__.__.__.
 72
    65
 73
     6
 40
0.875
 49
0.25
 74
     0
 49
-0.125
 74
     0
 49
0.25
 74
     0
 49
-0.125
 74
     0
 49
0.0
 74
     0
 49
-0.125
 74
     0
  0
LTYPE
  5
8E
330
5
100
AcDbSymbolTableRecord
100
AcDbLinetypeTableRecord
  2
BORDERX2
 70
     0
  3
Border (2x) ____  ____  .  ____  ____  .  ___
 72
    65
 73
     6
 40
3.5
 49
1.0
 74
     0
 49
-0.5
 74
     0
 49
1.0
 74
     0
 49
-0.5
 74
     0
 49
0.0
 74
     0
 49
-0.5
 74
     0
  0
LTYPE
  5
8F
330
5
100
AcDbSymbolTableRecord
100
AcDbLinetypeTableRecord
  2
CENTER
 70
     0
  3
Center ____ _ ____ _ ____ _ ____ _ ____ _ ____
 72
    65
 73
     4
 40
2.0
 49
1.25
 74
     0
 49
-0.25
 74
     0
 49
0.25
 74
     0
 49
-0.25
 74
     0
  0
LTYPE
  5
90
330
5
100
AcDbSymbolTableRecord
100
AcDbLinetypeTableRecord
  2
CENTER2
 70
     0
  3
Center (.5x) ___ _ ___ _ ___ _ ___ _ ___ _ ___
 72
    65
 73
     4
 40
1.125
 49
0.75
 74
     0
 49
-0.125
 74
     0
 49
0.125
 74
     0
 49
-0.125
 74
     0
  0
LTYPE
  5
91
330
5
100
AcDbSymbolTableRecord
100
AcDbLinetypeTableRecord
  2
CENTERX2
 70
     0
  3
Center (2x) ________  __  ________  __  _____
 72
    65
 73
     4
 40
4.0
 49
2.5
 74
     0
 49
-0.5
 74
     0
 49
0.5
 74
     0
 49
-0.5
 74
     0
  0
LTYPE
  5
92
330
5
100
AcDbSymbolTableRecord
100
AcDbLinetypeTableRecord
  2
DASHDOT2
 70
     0
  3
Dash dot (.5x) _._._._._._._._._._._._._._._.
 72
    65
 73
     4
 40
0.5
 49
0.25
 74
     0
 49
-0.125
 74
     0
 49
0.0
 74
     0
 49
-0.125
 74
     0
  0
LTYPE
  5
93
330
5
100
AcDbSymbolTableRecord
100
AcDbLinetypeTableRecord
  2
DASHDOTX2
 70
     0
  3
Dash dot (2x) ____  .  ____  .  ____  .  ___
 72
    65
 73
     4
 40
2.0
 49
1.0
 74
     0
 49
-0.5
 74
     0
 49
0.0
 74
     0
 49
-0.5
 74
     0
  0
LTYPE
  5
95
330
5
100
AcDbSymbolTableRecord
100
AcDbLinetypeTableRecord
  2
DASHED2
 70
     0
  3
Dashed (.5x) _ _ _ _ _ _ _ _ _ _ _ _ _ _ _ _ _
 72
    65
 73
     2
 40
0.375
 49
0.25
 74
     0
 49
-0.125
 74
     0
  0
LTYPE
  5
96
330
5
100
AcDbSymbolTableRecord
100
AcDbLinetypeTableRecord
  2
DASHEDX2
 70
     0
  3
Dashed (2x) ____  ____  ____  ____  ____  ___
 72
    65
 73
     2
 40
1.5
 49
1.0
 74
     0
 49
-0.5
 74
     0
  0
LTYPE
  5
97
330
5
100
AcDbSymbolTableRecord
100
AcDbLinetypeTableRecord
  2
DIVIDE
 70
     0
  3
Divide ____ . . ____ . . ____ . . ____ . . ____
 72
    65
 73
     6
 40
1.25
 49
0.5
 74
     0
 49
-0.25
 74
     0
 49
0.0
 74
     0
 49
-0.25
 74
     0
 49
0.0
 74
     0
 49
-0.25
 74
     0
  0
LTYPE
  5
98
330
5
100
AcDbSymbolTableRecord
100
AcDbLinetypeTableRecord
  2
DIVIDE2
 70
     0
  3
Divide (.5x) __..__..__..__..__..__..__..__.._
 72
    65
 73
     6
 40
0.625
 49
0.25
 74
     0
 49
-0.125
 74
     0
 49
0.0
 74
     0
 49
-0.125
 74
     0
 49
0.0
 74
     0
 49
-0.125
 74
     0
  0
LTYPE
  5
99
330
5
100
AcDbSymbolTableRecord
100
AcDbLinetypeTableRecord
  2
DIVIDEX2
 70
     0
  3
Divide (2x) ________  .  .  ________  .  .  _
 72
    65
 73
     6
 40
2.5
 49
1.0
 74
     0
 49
-0.5
 74
     0
 49
0.0
 74
     0
 49
-0.5
 74
     0
 49
0.0
 74
     0
 49
-0.5
 74
     0
  0
LTYPE
  5
9A
330
5
100
AcDbSymbolTableRecord
100
AcDbLinetypeTableRecord
  2
DOT
 70
     0
  3
Dot . . . . . . . . . . . . . . . . . . . . . .
 72
    65
 73
     2
 40
0.25
 49
0.0
 74
     0
 49
-0.25
 74
     0
  0
LTYPE
  5
9B
330
5
100
AcDbSymbolTableRecord
100
AcDbLinetypeTableRecord
  2
DOT2
 70
     0
  3
Dot (.5x) .....................................
 72
    65
 73
     2
 40
0.125
 49
0.0
 74
     0
 49
-0.125
 74
     0
  0
LTYPE
  5
9C
330
5
100
AcDbSymbolTableRecord
100
AcDbLinetypeTableRecord
  2
DOTX2
 70
     0
  3
Dot (2x) .  .  .  .  .  .  .  .  .  .  .  .  . 
 72
    65
 73
     2
 40
0.5
 49
0.0
 74
     0
 49
-0.5
 74
     0
  0
LTYPE
  5
9D
330
5
100
AcDbSymbolTableRecord
100
AcDbLinetypeTableRecord
  2
HIDDEN
 70
     0
  3
Hidden __ __ __ __ __ __ __ __ __ __ __ __ __ _
 72
    65
 73
     2
 40
0.375
 49
0.25
 74
     0
 49
-0.125
 74
     0
  0
LTYPE
  5
9E
330
5
100
AcDbSymbolTableRecord
100
AcDbLinetypeTableRecord
  2
HIDDEN2
 70
     0
  3
Hidden (.5x) _ _ _ _ _ _ _ _ _ _ _ _ _ _ _ _ _
 72
    65
 73
     2
 40
0.1875
 49
0.125
 74
     0
 49
-0.0625
 74
     0
  0
LTYPE
  5
9F
330
5
100
AcDbSymbolTableRecord
100
AcDbLinetypeTableRecord
  2
HIDDENX2
 70
     0
  3
Hidden (2x) ____ ____ ____ ____ ____ ____ ____
 72
    65
 73
     2
 40
0.75
 49
0.5
 74
     0
 49
-0.25
 74
     0
  0
LTYPE
  5
A0
330
5
100
AcDbSymbolTableRecord
100
AcDbLinetypeTableRecord
  2
PHANTOM
 70
     0
  3
Phantom ______  __  __  ______  __  __  ______
 72
    65
 73
     6
 40
2.5
 49
1.25
 74
     0
 49
-0.25
 74
     0
 49
0.25
 74
     0
 49
-0.25
 74
     0
 49
0.25
 74
     0
 49
-0.25
 74
     0
  0
LTYPE
  5
A1
330
5
100
AcDbSymbolTableRecord
100
AcDbLinetypeTableRecord
  2
PHANTOM2
 70
     0
  3
Phantom (.5x) ___ _ _ ___ _ _ ___ _ _ ___ _ _
 72
    65
 73
     6
 40
1.25
 49
0.625
 74
     0
 49
-0.125
 74
     0
 49
0.125
 74
     0
 49
-0.125
 74
     0
 49
0.125
 74
     0
 49
-0.125
 74
     0
  0
LTYPE
  5
A2
330
5
100
AcDbSymbolTableRecord
100
AcDbLinetypeTableRecord
  2
PHANTOMX2
 70
     0
  3
Phantom (2x) ____________    ____    ____   _
 72
    65
 73
     6
 40
5.0
 49
2.5
 74
     0
 49
-0.5
 74
     0
 49
0.5
 74
     0
 49
-0.5
 74
     0
 49
0.5
 74
     0
 49
-0.5
 74
     0
  0
LTYPE
  5
A3
330
5
100
AcDbSymbolTableRecord
100
AcDbLinetypeTableRecord
  2
ACAD_ISO02W100
 70
     0
  3
ISO dash __ __ __ __ __ __ __ __ __ __ __ __ __
 72
    65
 73
     2
 40
0.59
 49
0.47
 74
     0
 49
-0.12
 74
     0
  0
LTYPE
  5
A4
330
5
100
AcDbSymbolTableRecord
100
AcDbLinetypeTableRecord
  2
ACAD_ISO03W100
 70
     0
  3
ISO dash space __    __    __    __    __    __
 72
    65
 73
     2
 40
1.179999999999999
 49
0.47
 74
     0
 49
-0.71
 74
     0
  0
LTYPE
  5
A5
330
5
100
AcDbSymbolTableRecord
100
AcDbLinetypeTableRecord
  2
ACAD_ISO04W100
 70
     0
  3
ISO long-dash dot ____ . ____ . ____ . ____ . _
 72
    65
 73
     4
 40
1.179999999999999
 49
0.9399999999999998
 74
     0
 49
-0.12
 74
     0
 49
0.0
 74
     0
 49
-0.12
 74
     0
  0
LTYPE
  5
A6
330
5
100
AcDbSymbolTableRecord
100
AcDbLinetypeTableRecord
  2
ACAD_ISO05W100
 70
     0
  3
ISO long-dash double-dot ____ .. ____ .. ____ .
 72
    65
 73
     6
 40
1.299999999999999
 49
0.9399999999999998
 74
     0
 49
-0.12
 74
     0
 49
0.0
 74
     0
 49
-0.12
 74
     0
 49
0.0
 74
     0
 49
-0.12
 74
     0
  0
LTYPE
  5
A7
330
5
100
AcDbSymbolTableRecord
100
AcDbLinetypeTableRecord
  2
ACAD_ISO06W100
 70
     0
  3
ISO long-dash triple-dot ____ ... ____ ... ____
 72
    65
 73
     8
 40
1.419999999999999
 49
0.9399999999999998
 74
     0
 49
-0.12
 74
     0
 49
0.0
 74
     0
 49
-0.12
 74
     0
 49
0.0
 74
     0
 49
-0.12
 74
     0
 49
0.0
 74
     0
 49
-0.12
 74
     0
  0
LTYPE
  5
A8
330
5
100
AcDbSymbolTableRecord
100
AcDbLinetypeTableRecord
  2
ACAD_ISO07W100
 70
     0
  3
ISO dot . . . . . . . . . . . . . . . . . . . .
 72
    65
 73
     2
 40
0.12
 49
0.0
 74
     0
 49
-0.12
 74
     0
  0
LTYPE
  5
A9
330
5
100
AcDbSymbolTableRecord
100
AcDbLinetypeTableRecord
  2
ACAD_ISO08W100
 70
     0
  3
ISO long-dash short-dash ____ __ ____ __ ____ _
 72
    65
 73
     4
 40
0.95
 49
0.47
 74
     0
 49
-0.12
 74
     0
 49
0.24
 74
     0
 49
-0.12
 74
     0
  0
LTYPE
  5
AA
330
5
100
AcDbSymbolTableRecord
100
AcDbLinetypeTableRecord
  2
ACAD_ISO09W100
 70
     0
  3
ISO long-dash double-short-dash ____ __ __ ____
 72
    65
 73
     6
 40
1.31
 49
0.47
 74
     0
 49
-0.12
 74
     0
 49
0.24
 74
     0
 49
-0.12
 74
     0
 49
0.24
 74
     0
 49
-0.12
 74
     0
  0
LTYPE
  5
AB
330
5
100
AcDbSymbolTableRecord
100
AcDbLinetypeTableRecord
  2
ACAD_ISO10W100
 70
     0
  3
ISO dash dot __ . __ . __ . __ . __ . __ . __ .
 72
    65
 73
     4
 40
0.71
 49
0.47
 74
     0
 49
-0.12
 74
     0
 49
0.0
 74
     0
 49
-0.12
 74
     0
  0
LTYPE
  5
AC
330
5
100
AcDbSymbolTableRecord
100
AcDbLinetypeTableRecord
  2
ACAD_ISO11W100
 70
     0
  3
ISO double-dash dot __ __ . __ __ . __ __ . __ 
 72
    65
 73
     6
 40
1.299999999999999
 49
0.47
 74
     0
 49
-0.12
 74
     0
 49
0.47
 74
     0
 49
-0.12
 74
     0
 49
0.0
 74
     0
 49
-0.12
 74
     0
  0
LTYPE
  5
AD
330
5
100
AcDbSymbolTableRecord
100
AcDbLinetypeTableRecord
  2
ACAD_ISO12W100
 70
     0
  3
ISO dash double-dot __ . . __ . . __ . . __ . .
 72
    65
 73
     6
 40
0.8299999999999998
 49
0.47
 74
     0
 49
-0.12
 74
     0
 49
0.0
 74
     0
 49
-0.12
 74
     0
 49
0.0
 74
     0
 49
-0.12
 74
     0
  0
LTYPE
  5
AE
330
5
100
AcDbSymbolTableRecord
100
AcDbLinetypeTableRecord
  2
ACAD_ISO13W100
 70
     0
  3
ISO double-dash double-dot __ __ . . __ __ . . 
 72
    65
 73
     8
 40
1.419999999999999
 49
0.47
 74
     0
 49
-0.12
 74
     0
 49
0.47
 74
     0
 49
-0.12
 74
     0
 49
0.0
 74
     0
 49
-0.12
 74
     0
 49
0.0
 74
     0
 49
-0.12
 74
     0
  0
LTYPE
  5
AF
330
5
100
AcDbSymbolTableRecord
100
AcDbLinetypeTableRecord
  2
ACAD_ISO14W100
 70
     0
  3
ISO dash triple-dot __ . . . __ . . . __ . . . 
 72
    65
 73
     8
 40
0.95
 49
0.47
 74
     0
 49
-0.12
 74
     0
 49
0.0
 74
     0
 49
-0.12
 74
     0
 49
0.0
 74
     0
 49
-0.12
 74
     0
 49
0.0
 74
     0
 49
-0.12
 74
     0
  0
LTYPE
  5
B0
330
5
100
AcDbSymbolTableRecord
100
AcDbLinetypeTableRecord
  2
ACAD_ISO15W100
 70
     0
  3
ISO double-dash triple-dot __ __ . . . __ __ . 
 72
    65
 73
    10
 40
1.539999999999999
 49
0.47
 74
     0
 49
-0.12
 74
     0
 49
0.47
 74
     0
 49
-0.12
 74
     0
 49
0.0
 74
     0
 49
-0.12
 74
     0
 49
0.0
 74
     0
 49
-0.12
 74
     0
 49
0.0
 74
     0
 49
-0.12
 74
     0
  0
LTYPE
  5
B3
330
5
100
AcDbSymbolTableRecord
100
AcDbLinetypeTableRecord
  2
FENCELINE1
 70
     0
  3
Fenceline circle ----0-----0----0-----0----0---
 72
    65
 73
     4
 40
1.45
 49
0.25
 74
     0
 49
-0.1
 74
     4
 75
   133
340
B2
 46
0.1
 50
0.0
 44
-0.1
 45
0.0
 49
-0.1
 74
     0
 49
1.0
 74
     0
  0
LTYPE
  5
B4
330
5
100
AcDbSymbolTableRecord
100
AcDbLinetypeTableRecord
  2
FENCELINE2
 70
     0
  3
Fenceline square ----[]-----[]----[]-----[]----
 72
    65
 73
     4
 40
1.45
 49
0.25
 74
     0
 49
-0.1
 74
     4
 75
   132
340
B2
 46
0.1
 50
0.0
 44
-0.1
 45
0.0
 49
-0.1
 74
     0
 49
1.0
 74
     0
  0
LTYPE
  5
B5
330
5
100
AcDbSymbolTableRecord
100
AcDbLinetypeTableRecord
  2
TRACKS
 70
     0
  3
Tracks -|-|-|-|-|-|-|-|-|-|-|-|-|-|-|-|-|-|-|-|
 72
    65
 73
     2
 40
0.3
 49
0.15
 74
     4
 75
   130
340
B2
 46
0.25
 50
0.0
 44
0.0
 45
0.0
 49
0.15
 74
     0
  0
LTYPE
  5
B6
330
5
100
AcDbSymbolTableRecord
100
AcDbLinetypeTableRecord
  2
BATTING
 70
     0
  3
Batting SSSSSSSSSSSSSSSSSSSSSSSSSSSSSSSSSSSSSSS
 72
    65
 73
     4
 40
0.4001000000000001
 49
0.0001
 74
     0
 49
-0.1
 74
     4
 75
   134
340
B2
 46
0.1
 50
0.0
 44
-0.1
 45
0.0
 49
-0.2
 74
     4
 75
   134
340
B2
 46
0.1
 50
180.0
 44
0.1
 45
0.0
 49
-0.1
 74
     0
  0
LTYPE
  5
B7
330
5
100
AcDbSymbolTableRecord
100
AcDbLinetypeTableRecord
  2
HOT_WATER_SUPPLY
 70
     0
  3
Hot water supply ---- HW ---- HW ---- HW ----
 72
    65
 73
     3
 40
0.9
 49
0.5
 74
     0
 49
-0.2
 74
     2
 75
     0
340
55
 46
0.1
 50
0.0
 44
-0.1
 45
-0.05
  9
HW
 49
-0.2
 74
     0
  0
LTYPE
  5
B8
330
5
100
AcDbSymbolTableRecord
100
AcDbLinetypeTableRecord
  2
GAS_LINE
 70
     0
  3
Gas line ----GAS----GAS----GAS----GAS----GAS---
 72
    65
 73
     3
 40
0.95
 49
0.5
 74
     0
 49
-0.2
 74
     2
 75
     0
340
55
 46
0.1
 50
0.0
 44
-0.1
 45
-0.05
  9
GAS
 49
-0.25
 74
     0
  0
LTYPE
  5
B9
330
5
100
AcDbSymbolTableRecord
100
AcDbLinetypeTableRecord
  2
ZIGZAG
 70
     0
  3
Zig zag /\/\/\/\/\/\/\/\/\/\/\/\/\/\/\/\/\/\/\/
 72
    65
 73
     4
 40
0.8001000000000001
 49
0.0001
 74
     0
 49
-0.2
 74
     4
 75
   131
340
B2
 46
0.2
 50
0.0
 44
-0.2
 45
0.0
 49
-0.4
 74
     4
 75
   131
340
B2
 46
0.2
 50
180.0
 44
0.2
 45
0.0
 49
-0.2
 74
     0
  0
ENDTAB
  0
TABLE
  2
LAYER
  5
2
330
0
100
AcDbSymbolTable
 70
    27
  0
LAYER
  5
54
330
2
100
AcDbSymbolTableRecord
100
AcDbLayerTableRecord
  2
0
 70
     0
 62
     7
  6
Continuous
370
    18
390
F
347
21
  0
LAYER
  5
C0
330
2
100
AcDbSymbolTableRecord
100
AcDbLayerTableRecord
  2
Center Mark (ANSI)
 70
     0
 62
     7
  6
Continuous
370
    15
390
F
347
21
  0
LAYER
  5
C1
330
2
100
AcDbSymbolTableRecord
100
AcDbLayerTableRecord
  2
Centerline (ANSI)
 70
     0
 62
     7
  6
Continuous
370
    15
390
F
347
21
  0
LAYER
  5
C3
330
2
100
AcDbSymbolTableRecord
100
AcDbLayerTableRecord
  2
Dimension (ANSI)
 70
     0
 62
     7
  6
Continuous
370
    13
390
F
347
21
  0
LAYER
  5
CC
330
2
100
AcDbSymbolTableRecord
100
AcDbLayerTableRecord
  2
Symbol (ANSI)
 70
     0
 62
     7
  6
Continuous
370
    18
390
F
347
21
  0
LAYER
  5
CF
330
2
100
AcDbSymbolTableRecord
100
AcDbLayerTableRecord
  2
Visible (ANSI)
 70
     0
 62
     7
  6
Continuous
370
    13
390
F
347
21
  0
LAYER
  5
D0
330
2
100
AcDbSymbolTableRecord
100
AcDbLayerTableRecord
  2
Visible Narrow (ANSI)
 70
     0
 62
     7
  6
Continuous
370
    18
390
F
347
21
  0
LAYER
  5
2EF
330
2
100
AcDbSymbolTableRecord
100
AcDbLayerTableRecord
  2
Defpoints
 70
     0
 62
     7
  6
Continuous
290
     0
370
    -3
390
F
347
21
  0
ENDTAB
  0
TABLE
  2
STYLE
  5
3
330
0
100
AcDbSymbolTable
 70
    18
  0
STYLE
  5
55
330
3
100
AcDbSymbolTableRecord
100
AcDbTextStyleTableRecord
  2
Standard
 70
     0
 40
0.0
 41
1.0
 50
0.0
 71
     0
 42
0.2
  3
txt
  4

  0
STYLE
  5
5A
330
3
100
AcDbSymbolTableRecord
100
AcDbTextStyleTableRecord
  2
Annotative
 70
     0
 40
0.0
 41
1.0
 50
0.0
 71
     0
 42
0.2
  3
txt
  4

1001
AcadAnnotative
1000
AnnotativeData
1002
{
1070
     1
1070
     1
1002
}
  0
STYLE
  5
B2
330
3
100
AcDbSymbolTableRecord
100
AcDbTextStyleTableRecord
  2

 70
     1
 40
0.0
 41
1.0
 50
0.0
 71
     0
 42
0.2
  3
ltypeshp.shx
  4

  0
STYLE
  5
D4
330
3
100
AcDbSymbolTableRecord
100
AcDbTextStyleTableRecord
  2
ITALICC_120
 70
     0
 40
0.0
 41
1.0
 50
0.0
 71
     0
 42
0.2
  3
italicc.shx
  4

  0
STYLE
  5
D5
330
3
100
AcDbSymbolTableRecord
100
AcDbTextStyleTableRecord
  2
Label Text (ANSI)
 70
     0
 40
0.0
 41
1.0
 50
0.0
 71
     0
 42
0.2
  3
tahoma.ttf
  4

1001
ACAD
1000
Tahoma
1071
      256
  0
STYLE
  5
D6
330
3
100
AcDbSymbolTableRecord
100
AcDbTextStyleTableRecord
  2
Note Text (ANSI)
 70
     0
 40
0.0
 41
1.0
 50
0.0
 71
     0
 42
0.2
  3
tahoma.ttf
  4

1001
ACAD
1000
Tahoma
1071
      256
  0
STYLE
  5
D7
330
3
100
AcDbSymbolTableRecord
100
AcDbTextStyleTableRecord
  2
ROMANS
 70
     0
 40
0.0
 41
1.0
 50
0.0
 71
     0
 42
0.2
  3
romans.shx
  4

  0
STYLE
  5
D8
330
3
100
AcDbSymbolTableRecord
100
AcDbTextStyleTableRecord
  2
SANSSERIF_114
 70
     0
 40
0.0
 41
1.0
 50
0.0
 71
     0
 42
0.2
  3
tahoma.ttf
  4

1001
ACAD
1000
Tahoma
1071
      256
  0
STYLE
  5
D9
330
3
100
AcDbSymbolTableRecord
100
AcDbTextStyleTableRecord
  2
SANSSERIF_117
 70
     0
 40
0.0
 41
1.0
 50
0.0
 71
     0
 42
0.2
  3
tahoma.ttf
  4

1001
ACAD
1000
Tahoma
1071
      256
  0
STYLE
  5
DA
330
3
100
AcDbSymbolTableRecord
100
AcDbTextStyleTableRecord
  2
STANDARDAM_ANSI
 70
     0
 40
0.0
 41
1.0
 50
0.0
 71
     0
 42
0.2
  3
txt.shx
  4

  0
STYLE
  5
DB
330
3
100
AcDbSymbolTableRecord
100
AcDbTextStyleTableRecord
  2
StandardAM_ANSI$0
 70
     0
 40
0.0
 41
1.0
 50
0.0
 71
     0
 42
0.2
  3
txt.shx
  4

  0
STYLE
  5
DC
330
3
100
AcDbSymbolTableRecord
100
AcDbTextStyleTableRecord
  2
STANDARDAM_ANSI$3
 70
     0
 40
0.0
 41
1.0
 50
0.0
 71
     0
 42
0.2
  3
txt.shx
  4

  0
STYLE
  5
DD
330
3
100
AcDbSymbolTableRecord
100
AcDbTextStyleTableRecord
  2
STANDARDAM_ANSI$4
 70
     0
 40
0.0
 41
1.0
 50
0.0
 71
     0
 42
0.2
  3
txt.shx
  4

  0
STYLE
  5
DE
330
3
100
AcDbSymbolTableRecord
100
AcDbTextStyleTableRecord
  2
STANDARDAM_ANSI$7
 70
     0
 40
0.0
 41
1.0
 50
0.0
 71
     0
 42
0.2
  3
txt.shx
  4

  0
STYLE
  5
DF
330
3
100
AcDbSymbolTableRecord
100
AcDbTextStyleTableRecord
  2
STANDARDAM_ANSI$SF
 70
     0
 40
0.0
 41
1.0
 50
0.0
 71
     0
 42
0.2
  3
txt.shx
  4

  0
STYLE
  5
E0
330
3
100
AcDbSymbolTableRecord
100
AcDbTextStyleTableRecord
  2
STANDARDAM_ANSI$SH
 70
     0
 40
0.0
 41
1.0
 50
0.0
 71
     0
 42
0.2
  3
txt.shx
  4

  0
STYLE
  5
E1
330
3
100
AcDbSymbolTableRecord
100
AcDbTextStyleTableRecord
  2
STANDARDSTANDARD
 70
     0
 40
0.0
 41
1.0
 50
0.0
 71
     0
 42
0.2
  3
txt.shx
  4

  0
STYLE
  5
1FF
330
3
100
AcDbSymbolTableRecord
100
AcDbTextStyleTableRecord
  2
Text Style154
 70
     0
 40
0.0
 41
1.0
 50
0.0
 71
     0
 42
0.2
  3
tahoma.ttf
  4

1001
ACAD
1000
Tahoma
1071
      256
  0
ENDTAB
  0
TABLE
  2
VIEW
  5
6
330
0
100
AcDbSymbolTable
 70
     0
  0
ENDTAB
  0
TABLE
  2
UCS
  5
7
330
0
100
AcDbSymbolTable
 70
     0
  0
ENDTAB
  0
TABLE
  2
APPID
  5
9
330
0
100
AcDbSymbolTable
 70
     3
  0
APPID
  5
56
330
9
100
AcDbSymbolTableRecord
100
AcDbRegAppTableRecord
  2
ACAD
 70
     0
  0
APPID
  5
5E
330
9
100
AcDbSymbolTableRecord
100
AcDbRegAppTableRecord
  2
AcadAnnotative
 70
     0
  0
APPID
  5
B4D
330
9
100
AcDbSymbolTableRecord
100
AcDbRegAppTableRecord
  2
ACAD_DSTYLE_DIMRADIAL_EXTENSION
 70
     0
  0
ENDTAB
  0
TABLE
  2
DIMSTYLE
  5
A
330
0
100
AcDbSymbolTable
 70
    27
100
AcDbDimStyleTable
 71
     2
340
F6
340
58
  0
DIMSTYLE
105
58
330
A
100
AcDbSymbolTableRecord
100
AcDbDimStyleTableRecord
  2
STANDARD
 70
     0
 41
0.1800000071525573
 42
0.0625
140
0.1800000071525574
144
1.0
147
0.0900000035762787
176
   256
177
   256
178
   256
274
     3
340
55
371
    -1
372
    -1
  0
DIMSTYLE
105
59
330
A
100
AcDbSymbolTableRecord
100
AcDbDimStyleTableRecord
  2
Annotative
 70
     0
340
55
1001
AcadAnnotative
1000
AnnotativeData
1002
{
1070
     1
1070
     1
1002
}
  0
DIMSTYLE
105
E2
330
A
100
AcDbSymbolTableRecord
100
AcDbDimStyleTableRecord
  2
AM_ANSI
 70
     0
  4
 mm
 40
11.0
 41
0.119999997317791
 42
0.05
 43
0.5
 44
0.1
 45
0.00000001
 78
     4
 79
     2
140
0.1200000047683716
146
0.7099999189376831
147
0.0599999986588955
176
   256
177
   256
178
     2
284
     4
340
DA
371
    -1
372
    -1
  0
DIMSTYLE
105
E3
330
A
100
AcDbSymbolTableRecord
100
AcDbDimStyleTableRecord
  2
AM_ANSI$7
 70
     0
  4
 mm
 40
11.0
 41
0.119999997317791
 42
0.05
 43
0.5
 44
0.1
 45
0.00000001
 78
     4
 79
     2
140
0.1200000047683716
146
0.7099999189376831
147
0.0599999986588955
176
   256
177
   256
178
     2
284
     4
340
DA
371
    -1
372
    -1
  0
DIMSTYLE
105
E4
330
A
100
AcDbSymbolTableRecord
100
AcDbDimStyleTableRecord
  2
AM_ANSI$0
 70
     0
  4
 mm
 40
11.0
 41
0.119999997317791
 42
0.05
 43
0.5
 44
0.1
 45
0.00000001
 78
     4
 79
     2
140
0.1200000047683716
146
0.7099999189376831
147
0.0599999986588955
176
   256
177
   256
178
     2
284
     4
340
DB
371
    -1
372
    -1
  0
DIMSTYLE
105
E5
330
A
100
AcDbSymbolTableRecord
100
AcDbDimStyleTableRecord
  2
AM_ANSI$0$7
 70
     0
  4
 mm
 40
11.0
 41
0.119999997317791
 42
0.05
 43
0.5
 44
0.1
 45
0.00000001
 78
     4
 79
     2
140
0.1200000047683716
146
0.7099999189376831
147
0.0599999986588955
176
   256
177
   256
178
     2
284
     4
340
DB
371
    -1
372
    -1
  0
DIMSTYLE
105
E6
330
A
100
AcDbSymbolTableRecord
100
AcDbDimStyleTableRecord
  2
AM_ANSI$3
 70
     0
  4
 mm
 40
11.0
 41
0.119999997317791
 42
0.05
 43
0.5
 44
0.1
 45
0.00000001
 78
     4
 79
     2
140
0.1200000047683716
146
0.7099999189376831
147
0.0599999986588955
176
   256
177
   256
178
     2
284
     4
340
DC
371
    -1
372
    -1
  0
DIMSTYLE
105
E7
330
A
100
AcDbSymbolTableRecord
100
AcDbDimStyleTableRecord
  2
AM_ANSI$3$7
 70
     0
  4
 mm
 40
11.0
 41
0.119999997317791
 42
0.05
 43
0.5
 44
0.1
 45
0.00000001
 78
     4
 79
     2
140
0.1200000047683716
146
0.7099999189376831
147
0.0599999986588955
176
   256
177
   256
178
     2
284
     4
340
DC
371
    -1
372
    -1
  0
DIMSTYLE
105
E8
330
A
100
AcDbSymbolTableRecord
100
AcDbDimStyleTableRecord
  2
AM_ANSI$4
 70
     0
  4
 mm
 40
11.0
 41
0.119999997317791
 42
0.05
 43
0.5
 44
0.1
 45
0.00000001
 78
     4
 79
     2
140
0.1200000047683716
146
0.7099999189376831
147
0.0599999986588955
176
   256
177
   256
178
     2
284
     4
340
DD
371
    -1
372
    -1
  0
DIMSTYLE
105
E9
330
A
100
AcDbSymbolTableRecord
100
AcDbDimStyleTableRecord
  2
AM_ANSI$4$7
 70
     0
  4
 mm
 40
11.0
 41
0.119999997317791
 42
0.05
 43
0.5
 44
0.1
 45
0.00000001
 78
     4
 79
     2
140
0.1200000047683716
146
0.7099999189376831
147
0.0599999986588955
176
   256
177
   256
178
     2
284
     4
340
DD
371
    -1
372
    -1
  0
DIMSTYLE
105
EA
330
A
100
AcDbSymbolTableRecord
100
AcDbDimStyleTableRecord
  2
AM_ANSI$SF
 70
     0
  4
 mm
 40
11.0
 41
0.119999997317791
 42
0.05
 43
0.5
 44
0.1
 45
0.00000001
 75
     1
 76
     1
 78
     4
 79
     2
140
0.1200000047683716
146
0.7099999189376831
147
0.0599999986588955
176
   256
177
   256
178
     2
284
     4
340
DF
371
    -1
372
    -1
  0
DIMSTYLE
105
EB
330
A
100
AcDbSymbolTableRecord
100
AcDbDimStyleTableRecord
  2
AM_ANSI$SF$7
 70
     0
  4
 mm
 40
11.0
 41
0.119999997317791
 42
0.05
 43
0.5
 44
0.1
 45
0.00000001
 75
     1
 76
     1
 78
     4
 79
     2
140
0.1200000047683716
146
0.7099999189376831
147
0.0599999986588955
176
   256
177
   256
178
     2
284
     4
340
DF
371
    -1
372
    -1
  0
DIMSTYLE
105
EC
330
A
100
AcDbSymbolTableRecord
100
AcDbDimStyleTableRecord
  2
AM_ANSI$SH
 70
     0
  4
 mm
 40
11.0
 41
0.119999997317791
 42
0.05
 43
0.5
 44
0.1
 45
0.00000001
 75
     1
 76
     1
 78
     4
 79
     2
140
0.1200000047683716
146
0.7099999189376831
147
0.0599999986588955
176
   256
177
   256
178
     2
284
     4
340
E0
371
    -1
372
    -1
  0
DIMSTYLE
105
ED
330
A
100
AcDbSymbolTableRecord
100
AcDbDimStyleTableRecord
  2
AM_ANSI$SH$7
 70
     0
  4
 mm
 40
11.0
 41
0.119999997317791
 42
0.05
 43
0.5
 44
0.1
 45
0.00000001
 75
     1
 76
     1
 78
     4
 79
     2
140
0.1200000047683716
146
0.7099999189376831
147
0.0599999986588955
176
   256
177
   256
178
     2
284
     4
340
E0
371
    -1
372
    -1
  0
DIMSTYLE
105
EE
330
A
100
AcDbSymbolTableRecord
100
AcDbDimStyleTableRecord
  2
Architectural (ANSI)
 70
     0
 40
11.0
 41
0.0984251946210861
 43
0.2362204724409449
 44
0.125
 45
0.00000001
 46
0.3937007874015748
 78
     3
 79
     3
140
0.1200000047683716
147
0.031496062992126
171
     1
176
   256
177
   256
178
   256
272
     2
274
     1
276
     2
277
     4
284
    12
285
     4
286
    12
340
D6
371
    -1
372
    -1
  0
DIMSTYLE
105
EF
330
A
100
AcDbSymbolTableRecord
100
AcDbDimStyleTableRecord
  2
Architectural (ANSI)$7
 70
     0
 40
11.0
 41
0.0984251946210861
 43
0.2362204724409449
 44
0.125
 45
0.00000001
 46
0.3937007874015748
 78
     3
 79
     3
140
0.1200000047683716
147
0.031496062992126
171
     1
176
   256
177
   256
178
   256
272
     2
274
     1
276
     2
277
     4
284
    12
285
     4
286
    12
340
D6
371
    -1
372
    -1
  0
DIMSTYLE
105
F0
330
A
100
AcDbSymbolTableRecord
100
AcDbDimStyleTableRecord
  2
Default - Fraction (ANSI)
 70
     0
 40
11.0
 41
0.0984251946210861
 43
0.2362204724409449
 44
0.125
 45
0.00000001
 46
0.3937007874015748
 79
     3
140
0.1200000047683716
147
0.031496062992126
171
     1
176
   256
177
   256
178
   256
272
     2
274
     1
276
     2
277
     5
284
    12
285
     4
286
    12
340
D6
371
    -1
372
    -1
  0
DIMSTYLE
105
F1
330
A
100
AcDbSymbolTableRecord
100
AcDbDimStyleTableRecord
  2
Default - Fraction (ANSI)$7
 70
     0
 40
11.0
 41
0.0984251946210861
 43
0.2362204724409449
 44
0.125
 45
0.00000001
 46
0.3937007874015748
 79
     3
140
0.1200000047683716
147
0.031496062992126
171
     1
176
   256
177
   256
178
   256
272
     2
274
     1
276
     2
277
     5
284
    12
285
     4
286
    12
340
D6
371
    -1
372
    -1
  0
DIMSTYLE
105
F2
330
A
100
AcDbSymbolTableRecord
100
AcDbDimStyleTableRecord
  2
Default - mm (ANSI)
 70
     0
 40
11.0
 41
0.0984251946210861
 42
0.063
 43
0.2362204724409449
 44
0.125
 45
0.00000001
 46
0.3937007874015748
 73
     0
 78
     4
 79
     1
140
0.1200000047683716
143
1.0
144
25.4
147
0.031496062992126
171
     1
176
   256
177
   256
178
   256
179
     1
271
     2
272
     2
274
     1
284
     4
285
     4
340
D6
371
    -1
372
    -1
  0
DIMSTYLE
105
F3
330
A
100
AcDbSymbolTableRecord
100
AcDbDimStyleTableRecord
  2
Default - mm (ANSI)$7
 70
     0
 40
11.0
 41
0.0984251946210861
 42
0.063
 43
0.2362204724409449
 44
0.125
 45
0.00000001
 46
0.3937007874015748
 73
     0
 78
     4
 79
     1
140
0.1200000047683716
143
1.0
144
25.4
147
0.031496062992126
171
     1
176
   256
177
   256
178
   256
179
     1
271
     2
272
     2
274
     1
284
     4
285
     4
340
D6
371
    -1
372
    -1
  0
DIMSTYLE
105
F4
330
A
100
AcDbSymbolTableRecord
100
AcDbDimStyleTableRecord
  2
Default - mm [in] (ANSI)
 70
     0
  4
 in
 40
11.0
 41
0.0984251946210861
 42
0.063
 43
0.25
 44
0.125
 45
0.00000001
 46
0.3937007874015748
 73
     0
 78
     4
 79
     1
140
0.1200000047683716
143
0.03937
144
25.4
147
0.031496062992126
170
     1
171
     3
176
   256
177
   256
178
   256
179
     1
271
     2
272
     2
274
     3
284
     4
285
     4
286
     4
340
D6
371
    -1
372
    -1
  0
DIMSTYLE
105
F5
330
A
100
AcDbSymbolTableRecord
100
AcDbDimStyleTableRecord
  2
Default - mm [in] (ANSI)$7
 70
     0
  4
 in
 40
11.0
 41
0.0984251946210861
 42
0.063
 43
0.25
 44
0.125
 45
0.00000001
 46
0.3937007874015748
 73
     0
 78
     4
 79
     1
140
0.1200000047683716
143
0.03937
144
25.4
147
0.031496062992126
170
     1
171
     3
176
   256
177
   256
178
   256
179
     1
271
     2
272
     2
274
     3
284
     4
285
     4
286
     4
340
D6
371
    -1
372
    -1
  0
DIMSTYLE
105
F6
102
{ACAD_REACTORS
330
2ED
330
3D9
330
4C9
330
5B3
330
69D
330
787
330
871
330
AB3
330
B84
330
C84
102
}
330
A
100
AcDbSymbolTableRecord
100
AcDbDimStyleTableRecord
  2
Default (ANSI)
 70
     0
 40
11.0
 41
0.0984251946210861
 43
0.2362204724409449
 44
0.125
 45
0.00000001
 46
0.3937007874015748
 79
     1
140
0.1200000047683716
147
0.031496062992126
171
     1
176
   256
177
   256
178
   256
271
     2
272
     2
274
     1
284
     4
285
     4
340
D6
371
    -1
372
    -1
  0
DIMSTYLE
105
F7
330
A
100
AcDbSymbolTableRecord
100
AcDbDimStyleTableRecord
  2
Default (ANSI)$7
 70
     0
 40
11.0
 41
0.0984251946210861
 43
0.2362204724409449
 44
0.125
 45
0.00000001
 46
0.3937007874015748
 79
     1
140
0.1200000047683716
147
0.031496062992126
171
     1
176
   256
177
   256
178
   256
271
     2
272
     2
274
     1
284
     4
285
     4
340
D6
371
    -1
372
    -1
  0
DIMSTYLE
105
F8
330
A
100
AcDbSymbolTableRecord
100
AcDbDimStyleTableRecord
  2
Alternate (ANSI)
 70
     0
 40
11.0
 41
0.0979999974370003
340
55
342
F9
  0
DIMSTYLE
105
10B
330
A
100
AcDbSymbolTableRecord
100
AcDbDimStyleTableRecord
  2
Datum (ANSI)
 70
     0
 40
11.0
 41
0.0979999974370003
340
55
342
F9
  0
DIMSTYLE
105
11A
330
A
100
AcDbSymbolTableRecord
100
AcDbDimStyleTableRecord
  2
Large (ANSI)
 70
     0
 40
11.0
 41
0.1959999948740005
340
55
342
F9
  0
ENDTAB
  0
TABLE
  2
BLOCK_RECORD
  5
1
330
0
100
AcDbSymbolTable
 70
    14
  0
BLOCK_RECORD
  5
6C
330
1
100
AcDbSymbolTableRecord
100
AcDbBlockTableRecord
  2
*Model_Space
340
6F
 70
     0
280
     1
281
     0
  0
BLOCK_RECORD
  5
68
330
1
100
AcDbSymbolTableRecord
100
AcDbBlockTableRecord
  2
*Paper_Space
340
6B
 70
     0
280
     1
281
     0
  0
BLOCK_RECORD
  5
70
330
1
100
AcDbSymbolTableRecord
100
AcDbBlockTableRecord
  2
*Paper_Space0
340
73
 70
     0
280
     1
281
     0
  0
BLOCK_RECORD
  5
F9
330
1
100
AcDbSymbolTableRecord
100
AcDbBlockTableRecord
  2
_Closed
340
0
 70
     0
280
     1
281
     0
  0
BLOCK_RECORD
  5
100
330
1
100
AcDbSymbolTableRecord
100
AcDbBlockTableRecord
  2
DatumFilled45
340
0
 70
     0
280
     1
281
     0
  0
BLOCK_RECORD
  5
10C
330
1
100
AcDbSymbolTableRecord
100
AcDbBlockTableRecord
  2
Filled-1
340
0
 70
     0
280
     1
281
     0
  0
BLOCK_RECORD
  5
2F0
330
1
100
AcDbSymbolTableRecord
100
AcDbBlockTableRecord
  2
*D4
340
0
 70
     0
280
     1
281
     0
  0
BLOCK_RECORD
  5
3DA
330
1
100
AcDbSymbolTableRecord
100
AcDbBlockTableRecord
  2
*D5
340
0
 70
     0
280
     1
281
     0
  0
BLOCK_RECORD
  5
4CA
330
1
100
AcDbSymbolTableRecord
100
AcDbBlockTableRecord
  2
*D6
340
0
 70
     0
280
     1
281
     0
  0
BLOCK_RECORD
  5
5B4
330
1
100
AcDbSymbolTableRecord
100
AcDbBlockTableRecord
  2
*D7
340
0
 70
     0
280
     1
281
     0
  0
BLOCK_RECORD
  5
69E
330
1
100
AcDbSymbolTableRecord
100
AcDbBlockTableRecord
  2
*D8
340
0
 70
     0
280
     1
281
     0
  0
BLOCK_RECORD
  5
788
330
1
100
AcDbSymbolTableRecord
100
AcDbBlockTableRecord
  2
*D9
340
0
 70
     0
280
     1
281
     0
  0
BLOCK_RECORD
  5
872
330
1
100
AcDbSymbolTableRecord
100
AcDbBlockTableRecord
  2
*D10
340
0
 70
     0
280
     1
281
     0
  0
BLOCK_RECORD
  5
AB4
330
1
100
AcDbSymbolTableRecord
100
AcDbBlockTableRecord
  2
*D11
340
0
 70
     0
280
     1
281
     0
  0
BLOCK_RECORD
  5
B85
330
1
100
AcDbSymbolTableRecord
100
AcDbBlockTableRecord
  2
*D12
340
0
 70
     0
280
     1
281
     0
  0
BLOCK_RECORD
  5
C85
330
1
100
AcDbSymbolTableRecord
100
AcDbBlockTableRecord
  2
*D13
340
0
 70
     0
280
     1
281
     0
  0
ENDTAB
  0
ENDSEC
  0
SECTION
  2
BLOCKS
  0
BLOCK
  5
6D
330
6C
100
AcDbEntity
  8
0
100
AcDbBlockBegin
  2
*Model_Space
 70
     0
 10
0.0
 20
0.0
 30
0.0
  3
*Model_Space
  1

  0
ENDBLK
  5
6E
330
6C
100
AcDbEntity
  8
0
100
AcDbBlockEnd
  0
BLOCK
  5
69
330
68
100
AcDbEntity
 67
     1
  8
0
100
AcDbBlockBegin
  2
*Paper_Space
 70
     0
 10
0.0
 20
0.0
 30
0.0
  3
*Paper_Space
  1

  0
ENDBLK
  5
6A
330
68
100
AcDbEntity
 67
     1
  8
0
100
AcDbBlockEnd
  0
BLOCK
  5
71
330
70
100
AcDbEntity
 67
     1
  8
0
100
AcDbBlockBegin
  2
*Paper_Space0
 70
     0
 10
0.0
 20
0.0
 30
0.0
  3
*Paper_Space0
  1

  0
ENDBLK
  5
72
330
70
100
AcDbEntity
 67
     1
  8
0
100
AcDbBlockEnd
  0
BLOCK
  5
FE
330
F9
100
AcDbEntity
  8
0
100
AcDbBlockBegin
  2
_Closed
 70
     0
 10
0.0
 20
0.0
 30
0.0
  3
_Closed
  1

  0
LINE
  5
FA
330
F9
100
AcDbEntity
  8
0
  6
ByBlock
 62
     0
370
    -2
100
AcDbLine
 10
-1.0
 20
0.1666666666666666
 30
0.0
 11
0.0
 21
0.0
 31
0.0
  0
LINE
  5
FB
330
F9
100
AcDbEntity
  8
0
  6
ByBlock
 62
     0
370
    -2
100
AcDbLine
 10
0.0
 20
0.0
 30
0.0
 11
-1.0
 21
-0.1666666666666666
 31
0.0
  0
LINE
  5
FC
330
F9
100
AcDbEntity
  8
0
  6
ByBlock
 62
     0
370
    -2
100
AcDbLine
 10
-1.0
 20
0.1666666666666666
 30
0.0
 11
-1.0
 21
-0.1666666666666666
 31
0.0
  0
LINE
  5
FD
330
F9
100
AcDbEntity
  8
0
  6
ByBlock
 62
     0
370
    -2
100
AcDbLine
 10
0.0
 20
0.0
 30
0.0
 11
-1.0
 21
0.0
 31
0.0
  0
ENDBLK
  5
FF
330
F9
100
AcDbEntity
  8
0
100
AcDbBlockEnd
  0
BLOCK
  5
101
330
100
100
AcDbEntity
  8
0
100
AcDbBlockBegin
  2
DatumFilled45
 70
     0
 10
0.0
 20
0.0
 30
0.0
  3
DatumFilled45
  1

  0
POLYLINE
  5
103
330
100
100
AcDbEntity
  8
0
 62
     0
100
AcDb2dPolyline
 66
     1
 10
0.0
 20
0.0
 30
0.0
 70
   128
  0
VERTEX
  5
104
330
103
100
AcDbEntity
  8
0
 62
     0
100
AcDbVertex
100
AcDb2dVertex
 10
0.0
 20
0.9999999999999998
 30
0.0
  0
VERTEX
  5
105
330
103
100
AcDbEntity
  8
0
 62
     0
100
AcDbVertex
100
AcDb2dVertex
 10
0.0
 20
-0.9999999999999998
 30
0.0
  0
VERTEX
  5
107
330
103
100
AcDbEntity
  8
0
 62
     0
100
AcDbVertex
100
AcDb2dVertex
 10
-0.9999999999999998
 20
0.0
 30
0.0
  0
VERTEX
  5
108
330
103
100
AcDbEntity
  8
0
 62
     0
100
AcDbVertex
100
AcDb2dVertex
 10
0.0
 20
0.9999999999999998
 30
0.0
  0
SEQEND
  5
106
330
103
100
AcDbEntity
  8
0
 62
     0
  0
SOLID
  5
10A
330
100
100
AcDbEntity
  8
0
 62
     0
100
AcDbTrace
 10
0.0
 20
0.9999999999999998
 30
0.0
 11
0.0
 21
-0.9999999999999998
 31
0.0
 12
-0.9999999999999998
 22
0.0
 32
0.0
 13
0.0
 23
0.9999999999999998
 33
0.0
  0
ENDBLK
  5
102
330
100
100
AcDbEntity
  8
0
100
AcDbBlockEnd
  0
BLOCK
  5
10D
330
10C
100
AcDbEntity
  8
0
100
AcDbBlockBegin
  2
Filled-1
 70
     0
 10
0.0
 20
0.0
 30
0.0
  3
Filled-1
  1

  0
LINE
  5
10F
330
10C
100
AcDbEntity
  8
0
 62
     0
100
AcDbLine
 10
-0.9999999999999998
 20
0.0
 30
0.0
 11
0.0
 21
0.0
 31
0.0
  0
POLYLINE
  5
110
330
10C
100
AcDbEntity
  8
0
 62
     0
100
AcDb2dPolyline
 66
     1
 10
0.0
 20
0.0
 30
0.0
 70
   128
  0
VERTEX
  5
111
330
110
100
AcDbEntity
  8
0
 62
     0
100
AcDbVertex
100
AcDb2dVertex
 10
-0.9999999999999998
 20
-0.0994897959183674
 30
0.0
  0
VERTEX
  5
112
330
110
100
AcDbEntity
  8
0
 62
     0
100
AcDbVertex
100
AcDb2dVertex
 10
0.0
 20
0.0
 30
0.0
  0
VERTEX
  5
114
330
110
100
AcDbEntity
  8
0
 62
     0
100
AcDbVertex
100
AcDb2dVertex
 10
-0.9999999999999998
 20
0.0994897959183674
 30
0.0
  0
VERTEX
  5
115
330
110
100
AcDbEntity
  8
0
 62
     0
100
AcDbVertex
100
AcDb2dVertex
 10
-0.9999999999999998
 20
-0.0994897959183674
 30
0.0
  0
SEQEND
  5
113
330
110
100
AcDbEntity
  8
0
 62
     0
  0
SOLID
  5
116
330
10C
100
AcDbEntity
  8
0
 62
     0
100
AcDbTrace
 10
-0.9999999999999998
 20
-0.0994897959183674
 30
0.0
 11
0.0
 21
0.0
 31
0.0
 12
-0.9999999999999998
 22
0.0994897959183674
 32
0.0
 13
-0.9999999999999998
 23
-0.0994897959183674
 33
0.0
  0
LINE
  5
117
330
10C
100
AcDbEntity
  8
0
 62
     0
100
AcDbLine
 10
-0.9999999999999998
 20
-0.0994897959183674
 30
0.0
 11
0.0
 21
0.0
 31
0.0
  0
LINE
  5
118
330
10C
100
AcDbEntity
  8
0
 62
     0
100
AcDbLine
 10
0.0
 20
0.0
 30
0.0
 11
-0.9999999999999998
 21
0.0994897959183674
 31
0.0
  0
LINE
  5
119
330
10C
100
AcDbEntity
  8
0
 62
     0
100
AcDbLine
 10
-0.9999999999999998
 20
0.0994897959183674
 30
0.0
 11
-0.9999999999999998
 21
-0.0994897959183674
 31
0.0
  0
ENDBLK
  5
10E
330
10C
100
AcDbEntity
  8
0
100
AcDbBlockEnd
  0
BLOCK
  5
2F1
330
2F0
100
AcDbEntity
  8
0
100
AcDbBlockBegin
  2
*D4
 70
     1
 10
0.0
 20
0.0
 30
0.0
  3
*D4
  1

  0
LINE
  5
3CF
330
2F0
100
AcDbEntity
  8
Dimension (ANSI)
440
 16777216
100
AcDbLine
 10
42.2725944965791
 20
40.75247706687757
 30
0.0
 11
22.60249580143101
 21
40.75247706687757
 31
0.0
  0
LINE
  5
3D0
330
2F0
100
AcDbEntity
  8
Dimension (ANSI)
440
 16777216
100
AcDbLine
 10
42.2725944965791
 20
79.75247706687757
 30
0.0
 11
22.60249580143102
 21
79.75247706687759
 31
0.0
  0
LINE
  5
3D1
330
2F0
100
AcDbEntity
  8
Dimension (ANSI)
440
 16777216
100
AcDbLine
 10
23.97749580143101
 20
41.83515420770952
 30
0.0
 11
23.97749580143102
 21
59.21853881985896
 31
0.0
  0
LINE
  5
3D2
330
2F0
100
AcDbEntity
  8
Dimension (ANSI)
440
 16777216
100
AcDbLine
 10
23.97749580143102
 20
78.66979992604564
 30
0.0
 11
23.97749580143102
 21
61.28641531389617
 31
0.0
  0
SOLID
  5
3D3
330
2F0
100
AcDbEntity
  8
Dimension (ANSI)
440
 16777216
100
AcDbTrace
 10
23.79704961129236
 20
41.83515420770952
 30
0.0
 11
24.15794199156967
 21
41.83515420770952
 31
0.0
 12
23.97749580143101
 22
40.75247706687757
 32
0.0
 13
23.97749580143101
 23
40.75247706687757
 33
0.0
  0
SOLID
  5
3D4
330
2F0
100
AcDbEntity
  8
Dimension (ANSI)
440
 16777216
100
AcDbTrace
 10
23.79704961129236
 20
78.66979992604564
 30
0.0
 11
24.15794199156968
 21
78.66979992604564
 31
0.0
 12
23.97749580143102
 22
79.75247706687759
 32
0.0
 13
23.97749580143102
 23
79.75247706687759
 33
0.0
  0
MTEXT
  5
3D5
330
2F0
100
AcDbEntity
  8
Dimension (ANSI)
440
 16777216
100
AcDbMText
 10
21.80024925483858
 20
60.93995862098279
 30
0.0
 40
1.320000052452087
 41
0.0
 46
0.0
 71
     1
 72
     1
  1
\A1;39.00
  7
Note Text (ANSI)
 73
     1
 44
1.0
  0
POINT
  5
3D6
330
2F0
100
AcDbEntity
  8
Defpoints
 62
     0
440
 16777216
100
AcDbPoint
 10
42.9600944965791
 20
40.75247706687757
 30
0.0
  0
POINT
  5
3D7
330
2F0
100
AcDbEntity
  8
Defpoints
 62
     0
440
 16777216
100
AcDbPoint
 10
42.9600944965791
 20
79.75247706687757
 30
0.0
  0
POINT
  5
3D8
330
2F0
100
AcDbEntity
  8
Defpoints
 62
     0
440
 16777216
100
AcDbPoint
 10
23.97749580143102
 20
79.75247706687759
 30
0.0
  0
ENDBLK
  5
2F2
330
2F0
100
AcDbEntity
  8
0
100
AcDbBlockEnd
  0
BLOCK
  5
3DB
330
3DA
100
AcDbEntity
  8
0
100
AcDbBlockBegin
  2
*D5
 70
     1
 10
0.0
 20
0.0
 30
0.0
  3
*D5
  1

  0
LINE
  5
4BF
330
3DA
100
AcDbEntity
  8
Dimension (ANSI)
440
 16777216
100
AcDbLine
 10
42.93420614893078
 20
41.62747706687758
 30
0.0
 11
37.04697056315448
 21
41.62747706687758
 31
0.0
  0
LINE
  5
4C0
330
3DA
100
AcDbEntity
  8
Dimension (ANSI)
440
 16777216
100
AcDbLine
 10
42.93420614893078
 20
60.25247706687758
 30
0.0
 11
37.04697056315448
 21
60.25247706687758
 31
0.0
  0
LINE
  5
4C1
330
3DA
100
AcDbEntity
  8
Dimension (ANSI)
440
 16777216
100
AcDbLine
 10
38.42197056315447
 20
42.71015420770953
 30
0.0
 11
38.42197056315448
 21
49.9033793167483
 31
0.0
  0
LINE
  5
4C2
330
3DA
100
AcDbEntity
  8
Dimension (ANSI)
440
 16777216
100
AcDbLine
 10
38.42197056315448
 20
59.16979992604563
 30
0.0
 11
38.42197056315448
 21
51.97657481700684
 31
0.0
  0
SOLID
  5
4C3
330
3DA
100
AcDbEntity
  8
Dimension (ANSI)
440
 16777216
100
AcDbTrace
 10
38.24152437301581
 20
42.71015420770953
 30
0.0
 11
38.60241675329314
 21
42.71015420770953
 31
0.0
 12
38.42197056315447
 22
41.62747706687758
 32
0.0
 13
38.42197056315447
 23
41.62747706687758
 33
0.0
  0
SOLID
  5
4C4
330
3DA
100
AcDbEntity
  8
Dimension (ANSI)
440
 16777216
100
AcDbTrace
 10
38.24152437301582
 20
59.16979992604563
 30
0.0
 11
38.60241675329314
 21
59.16979992604563
 31
0.0
 12
38.42197056315448
 22
60.25247706687758
 32
0.0
 13
38.42197056315448
 23
60.25247706687758
 33
0.0
  0
MTEXT
  5
4C5
330
3DA
100
AcDbEntity
  8
Dimension (ANSI)
440
 16777216
100
AcDbMText
 10
36.31653060054983
 20
51.63011812409346
 30
0.0
 40
1.320000052452087
 41
0.0
 46
0.0
 71
     1
 72
     1
  1
\A1;18.63
  7
Note Text (ANSI)
 73
     1
 44
1.0
  0
POINT
  5
4C6
330
3DA
100
AcDbEntity
  8
Defpoints
 62
     0
440
 16777216
100
AcDbPoint
 10
43.62170614893078
 20
41.62747706687758
 30
0.0
  0
POINT
  5
4C7
330
3DA
100
AcDbEntity
  8
Defpoints
 62
     0
440
 16777216
100
AcDbPoint
 10
43.62170614893078
 20
60.25247706687758
 30
0.0
  0
POINT
  5
4C8
330
3DA
100
AcDbEntity
  8
Defpoints
 62
     0
440
 16777216
100
AcDbPoint
 10
38.42197056315448
 20
60.25247706687758
 30
0.0
  0
ENDBLK
  5
3DC
330
3DA
100
AcDbEntity
  8
0
100
AcDbBlockEnd
  0
BLOCK
  5
4CB
330
4CA
100
AcDbEntity
  8
0
100
AcDbBlockBegin
  2
*D6
 70
     1
 10
0.0
 20
0.0
 30
0.0
  3
*D6
  1

  0
LINE
  5
5A9
330
4CA
100
AcDbEntity
  8
Dimension (ANSI)
440
 16777216
100
AcDbLine
 10
42.93420614893078
 20
41.62747706687758
 30
0.0
 11
30.12072189696229
 21
41.62747706687758
 31
0.0
  0
LINE
  5
5AA
330
4CA
100
AcDbEntity
  8
Dimension (ANSI)
440
 16777216
100
AcDbLine
 10
42.93420614893078
 20
78.87747706687758
 30
0.0
 11
30.1207218969623
 21
78.87747706687759
 31
0.0
  0
LINE
  5
5AB
330
4CA
100
AcDbEntity
  8
Dimension (ANSI)
440
 16777216
100
AcDbLine
 10
31.49572189696229
 20
42.71015420770953
 30
0.0
 11
31.49572189696229
 21
59.21853881985896
 31
0.0
  0
LINE
  5
5AC
330
4CA
100
AcDbEntity
  8
Dimension (ANSI)
440
 16777216
100
AcDbLine
 10
31.4957218969623
 20
77.79479992604564
 30
0.0
 11
31.49572189696229
 21
61.28641531389617
 31
0.0
  0
SOLID
  5
5AD
330
4CA
100
AcDbEntity
  8
Dimension (ANSI)
440
 16777216
100
AcDbTrace
 10
31.31527570682364
 20
42.71015420770953
 30
0.0
 11
31.67616808710095
 21
42.71015420770953
 31
0.0
 12
31.49572189696229
 22
41.62747706687758
 32
0.0
 13
31.49572189696229
 23
41.62747706687758
 33
0.0
  0
SOLID
  5
5AE
330
4CA
100
AcDbEntity
  8
Dimension (ANSI)
440
 16777216
100
AcDbTrace
 10
31.31527570682364
 20
77.79479992604564
 30
0.0
 11
31.67616808710095
 21
77.79479992604564
 31
0.0
 12
31.4957218969623
 22
78.87747706687759
 32
0.0
 13
31.4957218969623
 23
78.87747706687759
 33
0.0
  0
MTEXT
  5
5AF
330
4CA
100
AcDbEntity
  8
Dimension (ANSI)
440
 16777216
100
AcDbMText
 10
29.3291133628125
 20
60.93995862098279
 30
0.0
 40
1.320000052452087
 41
0.0
 46
0.0
 71
     1
 72
     1
  1
\A1;37.25
  7
Note Text (ANSI)
 73
     1
 44
1.0
  0
POINT
  5
5B0
330
4CA
100
AcDbEntity
  8
Defpoints
 62
     0
440
 16777216
100
AcDbPoint
 10
43.62170614893078
 20
41.62747706687758
 30
0.0
  0
POINT
  5
5B1
330
4CA
100
AcDbEntity
  8
Defpoints
 62
     0
440
 16777216
100
AcDbPoint
 10
43.62170614893078
 20
78.87747706687758
 30
0.0
  0
POINT
  5
5B2
330
4CA
100
AcDbEntity
  8
Defpoints
 62
     0
440
 16777216
100
AcDbPoint
 10
31.4957218969623
 20
78.87747706687759
 30
0.0
  0
ENDBLK
  5
4CC
330
4CA
100
AcDbEntity
  8
0
100
AcDbBlockEnd
  0
BLOCK
  5
5B5
330
5B4
100
AcDbEntity
  8
0
100
AcDbBlockBegin
  2
*D7
 70
     1
 10
0.0
 20
0.0
 30
0.0
  3
*D7
  1

  0
LINE
  5
693
330
5B4
100
AcDbEntity
  8
Dimension (ANSI)
440
 16777216
100
AcDbLine
 10
42.74670614893079
 20
80.22658871922926
 30
0.0
 11
42.74670614893079
 21
93.04007297119776
 31
0.0
  0
LINE
  5
694
330
5B4
100
AcDbEntity
  8
Dimension (ANSI)
440
 16777216
100
AcDbLine
 10
81.74670614893079
 20
80.22658871922926
 30
0.0
 11
81.74670614893079
 21
93.04007297119776
 31
0.0
  0
LINE
  5
695
330
5B4
100
AcDbEntity
  8
Dimension (ANSI)
440
 16777216
100
AcDbLine
 10
43.82938328976274
 20
91.66507297119776
 30
0.0
 11
59.72300290942498
 21
91.66507297119776
 31
0.0
  0
LINE
  5
696
330
5B4
100
AcDbEntity
  8
Dimension (ANSI)
440
 16777216
100
AcDbLine
 10
80.66402900809883
 20
91.66507297119776
 30
0.0
 11
64.77040938843659
 21
91.66507297119776
 31
0.0
  0
SOLID
  5
697
330
5B4
100
AcDbEntity
  8
Dimension (ANSI)
440
 16777216
100
AcDbTrace
 10
43.82938328976274
 20
91.8455191613364
 30
0.0
 11
43.82938328976274
 21
91.48462678105911
 31
0.0
 12
42.74670614893079
 22
91.66507297119776
 32
0.0
 13
42.74670614893079
 23
91.66507297119776
 33
0.0
  0
SOLID
  5
698
330
5B4
100
AcDbEntity
  8
Dimension (ANSI)
440
 16777216
100
AcDbTrace
 10
80.66402900809883
 20
91.8455191613364
 30
0.0
 11
80.66402900809883
 21
91.48462678105911
 31
0.0
 12
81.74670614893079
 22
91.66507297119776
 32
0.0
 13
81.74670614893079
 23
91.66507297119776
 33
0.0
  0
MTEXT
  5
699
330
5B4
100
AcDbEntity
  8
Dimension (ANSI)
440
 16777216
100
AcDbMText
 10
60.06945960233836
 20
92.35255452530298
 30
0.0
 40
1.320000052452087
 41
0.0
 46
0.0
 71
     1
 72
     1
  1
\A1;39.00
  7
Note Text (ANSI)
 73
     1
 44
1.0
  0
POINT
  5
69A
330
5B4
100
AcDbEntity
  8
Defpoints
 62
     0
440
 16777216
100
AcDbPoint
 10
42.74670614893079
 20
79.53908871922926
 30
0.0
  0
POINT
  5
69B
330
5B4
100
AcDbEntity
  8
Defpoints
 62
     0
440
 16777216
100
AcDbPoint
 10
81.74670614893079
 20
79.53908871922926
 30
0.0
  0
POINT
  5
69C
330
5B4
100
AcDbEntity
  8
Defpoints
 62
     0
440
 16777216
100
AcDbPoint
 10
81.74670614893079
 20
91.66507297119776
 30
0.0
  0
ENDBLK
  5
5B6
330
5B4
100
AcDbEntity
  8
0
100
AcDbBlockEnd
  0
BLOCK
  5
69F
330
69E
100
AcDbEntity
  8
0
100
AcDbBlockBegin
  2
*D8
 70
     1
 10
0.0
 20
0.0
 30
0.0
  3
*D8
  1

  0
LINE
  5
77D
330
69E
100
AcDbEntity
  8
Dimension (ANSI)
440
 16777216
100
AcDbLine
 10
43.62170614893078
 20
79.56497706687757
 30
0.0
 11
43.62170614893078
 21
88.80016241283376
 31
0.0
  0
LINE
  5
77E
330
69E
100
AcDbEntity
  8
Dimension (ANSI)
440
 16777216
100
AcDbLine
 10
80.87170614893079
 20
79.56497706687757
 30
0.0
 11
80.87170614893079
 21
88.80016241283376
 31
0.0
  0
LINE
  5
77F
330
69E
100
AcDbEntity
  8
Dimension (ANSI)
440
 16777216
100
AcDbLine
 10
44.70438328976273
 20
87.42516241283377
 30
0.0
 11
59.73364092186763
 21
87.42516241283377
 31
0.0
  0
LINE
  5
780
330
69E
100
AcDbEntity
  8
Dimension (ANSI)
440
 16777216
100
AcDbLine
 10
79.78902900809884
 20
87.42516241283377
 30
0.0
 11
64.75977137599397
 21
87.42516241283377
 31
0.0
  0
SOLID
  5
781
330
69E
100
AcDbEntity
  8
Dimension (ANSI)
440
 16777216
100
AcDbTrace
 10
44.70438328976273
 20
87.60560860297243
 30
0.0
 11
44.70438328976273
 21
87.24471622269511
 31
0.0
 12
43.62170614893078
 22
87.42516241283377
 32
0.0
 13
43.62170614893078
 23
87.42516241283377
 33
0.0
  0
SOLID
  5
782
330
69E
100
AcDbEntity
  8
Dimension (ANSI)
440
 16777216
100
AcDbTrace
 10
79.78902900809884
 20
87.60560860297243
 30
0.0
 11
79.78902900809884
 21
87.24471622269511
 31
0.0
 12
80.87170614893079
 22
87.42516241283377
 32
0.0
 13
80.87170614893079
 23
87.42516241283377
 33
0.0
  0
MTEXT
  5
783
330
69E
100
AcDbEntity
  8
Dimension (ANSI)
440
 16777216
100
AcDbMText
 10
60.080097614781
 20
88.11264396693898
 30
0.0
 40
1.320000052452087
 41
0.0
 46
0.0
 71
     1
 72
     1
  1
\A1;37.25
  7
Note Text (ANSI)
 73
     1
 44
1.0
  0
POINT
  5
784
330
69E
100
AcDbEntity
  8
Defpoints
 62
     0
440
 16777216
100
AcDbPoint
 10
43.62170614893078
 20
78.87747706687758
 30
0.0
  0
POINT
  5
785
330
69E
100
AcDbEntity
  8
Defpoints
 62
     0
440
 16777216
100
AcDbPoint
 10
80.87170614893079
 20
78.87747706687758
 30
0.0
  0
POINT
  5
786
330
69E
100
AcDbEntity
  8
Defpoints
 62
     0
440
 16777216
100
AcDbPoint
 10
80.87170614893079
 20
87.42516241283377
 30
0.0
  0
ENDBLK
  5
6A0
330
69E
100
AcDbEntity
  8
0
100
AcDbBlockEnd
  0
BLOCK
  5
789
330
788
100
AcDbEntity
  8
0
100
AcDbBlockBegin
  2
*D9
 70
     1
 10
0.0
 20
0.0
 30
0.0
  3
*D9
  1

  0
LINE
  5
867
330
788
100
AcDbEntity
  8
Dimension (ANSI)
440
 16777216
100
AcDbLine
 10
43.62170614893078
 20
79.56497706687757
 30
0.0
 11
43.62170614893078
 21
84.58318572829488
 31
0.0
  0
LINE
  5
868
330
788
100
AcDbEntity
  8
Dimension (ANSI)
440
 16777216
100
AcDbLine
 10
62.24670614893078
 20
79.56497706687757
 30
0.0
 11
62.24670614893078
 21
84.58318572829488
 31
0.0
  0
LINE
  5
869
330
788
100
AcDbEntity
  8
Dimension (ANSI)
440
 16777216
100
AcDbLine
 10
44.70438328976273
 20
83.20818572829489
 30
0.0
 11
50.48230949341276
 21
83.20818572829489
 31
0.0
  0
LINE
  5
86A
330
788
100
AcDbEntity
  8
Dimension (ANSI)
440
 16777216
100
AcDbLine
 10
61.16402900809884
 20
83.20818572829489
 30
0.0
 11
55.38610280444881
 21
83.20818572829489
 31
0.0
  0
SOLID
  5
86B
330
788
100
AcDbEntity
  8
Dimension (ANSI)
440
 16777216
100
AcDbTrace
 10
44.70438328976273
 20
83.38863191843355
 30
0.0
 11
44.70438328976273
 21
83.02773953815623
 31
0.0
 12
43.62170614893078
 22
83.20818572829489
 32
0.0
 13
43.62170614893078
 23
83.20818572829489
 33
0.0
  0
SOLID
  5
86C
330
788
100
AcDbEntity
  8
Dimension (ANSI)
440
 16777216
100
AcDbTrace
 10
61.16402900809884
 20
83.38863191843355
 30
0.0
 11
61.16402900809884
 21
83.02773953815623
 31
0.0
 12
62.24670614893078
 22
83.20818572829489
 32
0.0
 13
62.24670614893078
 23
83.20818572829489
 33
0.0
  0
MTEXT
  5
86D
330
788
100
AcDbEntity
  8
Dimension (ANSI)
440
 16777216
100
AcDbMText
 10
50.82876618632614
 20
83.89832678551078
 30
0.0
 40
1.320000052452087
 41
0.0
 46
0.0
 71
     1
 72
     1
  1
\A1;18.63
  7
Note Text (ANSI)
 73
     1
 44
1.0
  0
POINT
  5
86E
330
788
100
AcDbEntity
  8
Defpoints
 62
     0
440
 16777216
100
AcDbPoint
 10
43.62170614893078
 20
78.87747706687758
 30
0.0
  0
POINT
  5
86F
330
788
100
AcDbEntity
  8
Defpoints
 62
     0
440
 16777216
100
AcDbPoint
 10
62.24670614893078
 20
78.87747706687758
 30
0.0
  0
POINT
  5
870
330
788
100
AcDbEntity
  8
Defpoints
 62
     0
440
 16777216
100
AcDbPoint
 10
62.24670614893078
 20
83.20818572829489
 30
0.0
  0
ENDBLK
  5
78A
330
788
100
AcDbEntity
  8
0
100
AcDbBlockEnd
  0
BLOCK
  5
873
330
872
100
AcDbEntity
  8
0
100
AcDbBlockBegin
  2
*D10
 70
     1
 10
0.0
 20
0.0
 30
0.0
  3
*D10
  1

  0
LINE
  5
965
330
872
100
AcDbEntity
  8
Dimension (ANSI)
440
 16777216
100
AcDbLine
 10
125.3333575491115
 20
80.28372706687759
 30
0.0
 11
125.3333575491115
 21
84.27708336609013
 31
0.0
  0
LINE
  5
966
330
872
100
AcDbEntity
  8
Dimension (ANSI)
440
 16777216
100
AcDbLine
 10
126.2083575491115
 20
80.43997706687758
 30
0.0
 11
126.2083575491115
 21
84.27708336609013
 31
0.0
  0
LINE
  5
967
330
872
100
AcDbEntity
  8
Dimension (ANSI)
440
 16777216
100
AcDbLine
 10
127.2910346899435
 20
82.90208336609014
 30
0.0
 11
128.3737118307754
 21
82.90208336609014
 31
0.0
  0
LINE
  5
968
330
872
100
AcDbEntity
  8
Dimension (ANSI)
440
 16777216
100
AcDbLine
 10
124.2506804082796
 20
82.90208336609014
 30
0.0
 11
122.5585567619678
 21
82.90208336609014
 31
0.0
  0
SOLID
  5
969
330
872
100
AcDbEntity
  8
Dimension (ANSI)
440
 16777216
100
AcDbTrace
 10
127.2910346899435
 20
83.08252955622879
 30
0.0
 11
127.2910346899435
 21
82.72163717595148
 31
0.0
 12
126.2083575491115
 22
82.90208336609014
 32
0.0
 13
126.2083575491115
 23
82.90208336609014
 33
0.0
  0
SOLID
  5
96A
330
872
100
AcDbEntity
  8
Dimension (ANSI)
440
 16777216
100
AcDbTrace
 10
124.2506804082796
 20
83.08252955622879
 30
0.0
 11
124.2506804082796
 21
82.72163717595148
 31
0.0
 12
125.3333575491115
 22
82.90208336609014
 32
0.0
 13
125.3333575491115
 23
82.90208336609014
 33
0.0
  0
MTEXT
  5
96B
330
872
100
AcDbEntity
  8
Dimension (ANSI)
440
 16777216
100
AcDbMText
 10
118.7246049899442
 20
83.78961865773957
 30
0.0
 40
1.320000052452087
 41
0.0
 46
0.0
 71
     1
 72
     1
  1
\A1;0.88{\PTYP.}
  7
Note Text (ANSI)
 73
     1
 44
1.0
  0
POINT
  5
96C
330
872
100
AcDbEntity
  8
Defpoints
 62
     0
440
 16777216
100
AcDbPoint
 10
125.3333575491115
 20
79.59622706687759
 30
0.0
  0
POINT
  5
96D
330
872
100
AcDbEntity
  8
Defpoints
 62
     0
440
 16777216
100
AcDbPoint
 10
126.2083575491115
 20
79.75247706687757
 30
0.0
  0
POINT
  5
96E
330
872
100
AcDbEntity
  8
Defpoints
 62
     0
440
 16777216
100
AcDbPoint
 10
126.2083575491115
 20
82.90208336609014
 30
0.0
  0
ENDBLK
  5
874
330
872
100
AcDbEntity
  8
0
100
AcDbBlockEnd
  0
BLOCK
  5
AB5
330
AB4
100
AcDbEntity
  8
0
100
AcDbBlockBegin
  2
*D11
 70
     1
 10
0.0
 20
0.0
 30
0.0
  3
*D11
  1

  0
LINE
  5
B66
330
AB4
100
AcDbEntity
  8
Dimension (ANSI)
440
 16777216
100
AcDbLine
 10
85.71311918758414
 20
68.31055657246989
 30
0.0
 11
84.30371644104797
 21
68.31055657246989
 31
0.0
  0
LINE
  5
B67
330
AB4
100
AcDbEntity
  8
Dimension (ANSI)
440
 16777216
100
AcDbLine
 10
84.30371644104797
 20
68.31055657246989
 30
0.0
 11
81.40625766426493
 21
61.50756031073932
 31
0.0
  0
MTEXT
  5
B68
330
AB4
100
AcDbEntity
  8
Dimension (ANSI)
440
 16777216
100
AcDbMText
 10
86.05957588049752
 20
69.30887063218627
 30
0.0
 40
1.320000052452087
 41
0.0
 46
0.0
 71
     1
 72
     1
  1
\A1;∅0.563{\P(8PL.)}
  7
Note Text (ANSI)
 73
     1
 44
1.0
  0
SOLID
  5
B69
330
AB4
100
AcDbEntity
  8
Dimension (ANSI)
440
 16777216
100
AcDbTrace
 10
81.24024184206488
 20
61.578267978745
 30
0.0
 11
81.57227348646497
 21
61.43685264273362
 31
0.0
 12
80.98201165623082
 22
60.51146537753909
 32
0.0
 13
80.98201165623082
 23
60.51146537753909
 33
0.0
  0
LINE
  5
B6A
330
AB4
100
AcDbEntity
  8
Dimension (ANSI)
440
 16777216
100
AcDbLine
 10
79.88170614893085
 20
60.25247706687763
 30
0.0
 11
81.86170614893084
 21
60.25247706687763
 31
0.0
  0
LINE
  5
B6B
330
AB4
100
AcDbEntity
  8
Dimension (ANSI)
440
 16777216
100
AcDbLine
 10
80.87170614893084
 20
59.26247706687764
 30
0.0
 11
80.87170614893082
 21
61.24247706687764
 31
0.0
  0
POINT
  5
B6C
330
AB4
100
AcDbEntity
  8
Defpoints
 62
     0
440
 16777216
100
AcDbPoint
 10
80.98201165623082
 20
60.51146537753909
 30
0.0
  0
POINT
  5
B6D
330
AB4
100
AcDbEntity
  8
Defpoints
 62
     0
440
 16777216
100
AcDbPoint
 10
80.76140064163082
 20
59.99348875621615
 30
0.0
  0
ENDBLK
  5
AB6
330
AB4
100
AcDbEntity
  8
0
100
AcDbBlockEnd
  0
BLOCK
  5
B86
330
B85
100
AcDbEntity
  8
0
100
AcDbBlockBegin
  2
*D12
 70
     1
 10
0.0
 20
0.0
 30
0.0
  3
*D12
  1

  0
LINE
  5
C79
330
B85
100
AcDbEntity
  8
Dimension (ANSI)
440
 16777216
100
AcDbLine
 10
42.27259449657911
 20
40.75247706687757
 30
0.0
 11
40.16799162579705
 21
40.75247706687757
 31
0.0
  0
LINE
  5
C7A
330
B85
100
AcDbEntity
  8
Dimension (ANSI)
440
 16777216
100
AcDbLine
 10
41.27770614893078
 20
41.62747706687758
 30
0.0
 11
40.16799162579705
 21
41.62747706687758
 31
0.0
  0
LINE
  5
C7B
330
B85
100
AcDbEntity
  8
Dimension (ANSI)
440
 16777216
100
AcDbLine
 10
41.54299162579706
 20
42.71015420770953
 30
0.0
 11
41.54299162579706
 21
43.79283134854147
 31
0.0
  0
LINE
  5
C7C
330
B85
100
AcDbEntity
  8
Dimension (ANSI)
440
 16777216
100
AcDbLine
 10
41.54299162579706
 20
39.66979992604563
 30
0.0
 11
41.54299162579706
 21
37.59550274217403
 31
0.0
  0
LINE
  5
C7D
330
B85
100
AcDbEntity
  8
Dimension (ANSI)
440
 16777216
100
AcDbLine
 10
41.54299162579706
 20
37.59550274217403
 30
0.0
 11
40.46031448496511
 21
37.59550274217403
 31
0.0
  0
SOLID
  5
C7E
330
B85
100
AcDbEntity
  8
Dimension (ANSI)
440
 16777216
100
AcDbTrace
 10
41.36254543565839
 20
42.71015420770953
 30
0.0
 11
41.72343781593571
 21
42.71015420770953
 31
0.0
 12
41.54299162579706
 22
41.62747706687758
 32
0.0
 13
41.54299162579706
 23
41.62747706687758
 33
0.0
  0
SOLID
  5
C7F
330
B85
100
AcDbEntity
  8
Dimension (ANSI)
440
 16777216
100
AcDbTrace
 10
41.36254543565839
 20
39.66979992604563
 30
0.0
 11
41.72343781593571
 21
39.66979992604563
 31
0.0
 12
41.54299162579706
 22
40.75247706687757
 32
0.0
 13
41.54299162579706
 23
40.75247706687757
 33
0.0
  0
MTEXT
  5
C80
330
B85
100
AcDbEntity
  8
Dimension (ANSI)
440
 16777216
100
AcDbMText
 10
36.73008333425722
 20
38.28564379938992
 30
0.0
 40
1.320000052452087
 41
0.0
 46
0.0
 71
     1
 72
     1
  1
\A1;0.88
  7
Note Text (ANSI)
 73
     1
 44
1.0
  0
POINT
  5
C81
330
B85
100
AcDbEntity
  8
Defpoints
 62
     0
440
 16777216
100
AcDbPoint
 10
42.96009449657911
 20
40.75247706687757
 30
0.0
  0
POINT
  5
C82
330
B85
100
AcDbEntity
  8
Defpoints
 62
     0
440
 16777216
100
AcDbPoint
 10
41.96520614893078
 20
41.62747706687758
 30
0.0
  0
POINT
  5
C83
330
B85
100
AcDbEntity
  8
Defpoints
 62
     0
440
 16777216
100
AcDbPoint
 10
41.54299162579706
 20
41.62747706687758
 30
0.0
  0
ENDBLK
  5
B87
330
B85
100
AcDbEntity
  8
0
100
AcDbBlockEnd
  0
BLOCK
  5
C86
330
C85
100
AcDbEntity
  8
0
100
AcDbBlockBegin
  2
*D13
 70
     1
 10
0.0
 20
0.0
 30
0.0
  3
*D13
  1

  0
LINE
  5
D64
330
C85
100
AcDbEntity
  8
Dimension (ANSI)
440
 16777216
100
AcDbLine
 10
42.74670614893079
 20
80.22658871922926
 30
0.0
 11
42.74670614893079
 21
84.58318572829488
 31
0.0
  0
LINE
  5
D65
330
C85
100
AcDbEntity
  8
Dimension (ANSI)
440
 16777216
100
AcDbLine
 10
43.62170614893078
 20
81.22147706687757
 30
0.0
 11
43.62170614893078
 21
84.58318572829488
 31
0.0
  0
LINE
  5
D66
330
C85
100
AcDbEntity
  8
Dimension (ANSI)
440
 16777216
100
AcDbLine
 10
44.70438328976273
 20
83.20818572829489
 30
0.0
 11
45.78706043059468
 21
83.20818572829489
 31
0.0
  0
LINE
  5
D67
330
C85
100
AcDbEntity
  8
Dimension (ANSI)
440
 16777216
100
AcDbLine
 10
41.66402900809884
 20
83.20818572829489
 30
0.0
 11
40.02193323090828
 21
83.20818572829489
 31
0.0
  0
SOLID
  5
D68
330
C85
100
AcDbEntity
  8
Dimension (ANSI)
440
 16777216
100
AcDbTrace
 10
44.70438328976273
 20
83.38863191843355
 30
0.0
 11
44.70438328976273
 21
83.02773953815623
 31
0.0
 12
43.62170614893078
 22
83.20818572829489
 32
0.0
 13
43.62170614893078
 23
83.20818572829489
 33
0.0
  0
SOLID
  5
D69
330
C85
100
AcDbEntity
  8
Dimension (ANSI)
440
 16777216
100
AcDbTrace
 10
41.66402900809884
 20
83.38863191843355
 30
0.0
 11
41.66402900809884
 21
83.02773953815623
 31
0.0
 12
42.74670614893079
 22
83.20818572829489
 32
0.0
 13
42.74670614893079
 23
83.20818572829489
 33
0.0
  0
MTEXT
  5
D6A
330
C85
100
AcDbEntity
  8
Dimension (ANSI)
440
 16777216
100
AcDbMText
 10
36.29170208020041
 20
83.89832678551078
 30
0.0
 40
1.320000052452087
 41
0.0
 46
0.0
 71
     1
 72
     1
  1
\A1;0.88
  7
Note Text (ANSI)
 73
     1
 44
1.0
  0
POINT
  5
D6B
330
C85
100
AcDbEntity
  8
Defpoints
 62
     0
440
 16777216
100
AcDbPoint
 10
42.74670614893079
 20
79.53908871922926
 30
0.0
  0
POINT
  5
D6C
330
C85
100
AcDbEntity
  8
Defpoints
 62
     0
440
 16777216
100
AcDbPoint
 10
43.62170614893078
 20
80.53397706687757
 30
0.0
  0
POINT
  5
D6D
330
C85
100
AcDbEntity
  8
Defpoints
 62
     0
440
 16777216
100
AcDbPoint
 10
43.62170614893078
 20
83.20818572829489
 30
0.0
  0
ENDBLK
  5
C87
330
C85
100
AcDbEntity
  8
0
100
AcDbBlockEnd
  0
ENDSEC
  0
SECTION
  2
ENTITIES
  0
CIRCLE
  5
11B
330
6C
100
AcDbEntity
  8
Visible (ANSI)
100
AcDbCircle
 10
62.24670614893079
 20
41.62747706687759
 30
0.0
 40
0.2814999999999999
  0
CIRCLE
  5
11C
330
6C
100
AcDbEntity
  8
Visible (ANSI)
100
AcDbCircle
 10
80.87170614893079
 20
60.25247706687759
 30
0.0
 40
0.2814999999999999
  0
CIRCLE
  5
11D
330
6C
100
AcDbEntity
  8
Visible (ANSI)
100
AcDbCircle
 10
80.87170614893079
 20
41.62747706687759
 30
0.0
 40
0.2814999999999999
  0
CIRCLE
  5
11E
330
6C
100
AcDbEntity
  8
Visible (ANSI)
100
AcDbCircle
 10
43.62170614893079
 20
41.62747706687758
 30
0.0
 40
0.2814999999999999
  0
CIRCLE
  5
11F
330
6C
100
AcDbEntity
  8
Visible (ANSI)
100
AcDbCircle
 10
43.62170614893079
 20
60.25247706687757
 30
0.0
 40
0.2814999999999999
  0
CIRCLE
  5
120
330
6C
100
AcDbEntity
  8
Visible (ANSI)
100
AcDbCircle
 10
80.87170614893079
 20
78.87747706687758
 30
0.0
 40
0.2814999999999999
  0
CIRCLE
  5
121
330
6C
100
AcDbEntity
  8
Visible (ANSI)
100
AcDbCircle
 10
62.24670614893079
 20
78.87747706687758
 30
0.0
 40
0.2814999999999999
  0
CIRCLE
  5
122
330
6C
100
AcDbEntity
  8
Visible (ANSI)
100
AcDbCircle
 10
43.62170614893079
 20
78.87747706687758
 30
0.0
 40
0.2814999999999999
  0
LINE
  5
123
330
6C
100
AcDbEntity
  8
Visible (ANSI)
100
AcDbLine
 10
81.53331780128246
 20
40.75247706687758
 30
0.0
 11
42.96009449657911
 21
40.75247706687757
 31
0.0
  0
LINE
  5
124
330
6C
100
AcDbEntity
  8
Visible (ANSI)
100
AcDbLine
 10
81.74670614893079
 20
79.53908871922926
 30
0.0
 11
81.74670614893079
 21
40.9658654145259
 31
0.0
  0
LINE
  5
125
330
6C
100
AcDbEntity
  8
Visible (ANSI)
100
AcDbLine
 10
42.96009449657911
 20
79.75247706687757
 30
0.0
 11
81.53331780128246
 21
79.75247706687757
 31
0.0
  0
LINE
  5
126
330
6C
100
AcDbEntity
  8
Visible (ANSI)
100
AcDbLine
 10
42.74670614893079
 20
40.96586541452589
 30
0.0
 11
42.74670614893079
 21
79.53908871922926
 31
0.0
  0
POLYLINE
  5
127
330
6C
100
AcDbEntity
  8
Visible (ANSI)
100
AcDb2dPolyline
 66
     1
 10
0.0
 20
0.0
 30
0.0
 70
   128
  0
VERTEX
  5
128
330
127
100
AcDbEntity
  8
Visible (ANSI)
100
AcDbVertex
100
AcDb2dVertex
 10
81.59045578848695
 20
40.90872706453093
 30
0.0
  0
VERTEX
  5
129
330
127
100
AcDbEntity
  8
Visible (ANSI)
100
AcDbVertex
100
AcDb2dVertex
 10
81.58807685916853
 20
40.8985078247178
 30
0.0
  0
VERTEX
  5
12B
330
127
100
AcDbEntity
  8
Visible (ANSI)
100
AcDbVertex
100
AcDb2dVertex
 10
81.5856949261515
 20
40.88833234973242
 30
0.0
  0
VERTEX
  5
12C
330
127
100
AcDbEntity
  8
Visible (ANSI)
100
AcDbVertex
100
AcDb2dVertex
 10
81.58331299313447
 20
40.87824420493819
 30
0.0
  0
VERTEX
  5
12D
330
127
100
AcDbEntity
  8
Visible (ANSI)
100
AcDbVertex
100
AcDb2dVertex
 10
81.58093406381606
 20
40.86828659196939
 30
0.0
  0
VERTEX
  5
12E
330
127
100
AcDbEntity
  8
Visible (ANSI)
100
AcDbVertex
100
AcDb2dVertex
 10
81.57855213079903
 20
40.85850214926677
 30
0.0
  0
VERTEX
  5
12F
330
127
100
AcDbEntity
  8
Visible (ANSI)
100
AcDbVertex
100
AcDb2dVertex
 10
81.57617019778198
 20
40.84893278194625
 30
0.0
  0
VERTEX
  5
130
330
127
100
AcDbEntity
  8
Visible (ANSI)
100
AcDbVertex
100
AcDb2dVertex
 10
81.57379126846356
 20
40.83961945646791
 30
0.0
  0
VERTEX
  5
131
330
127
100
AcDbEntity
  8
Visible (ANSI)
100
AcDbVertex
100
AcDb2dVertex
 10
81.57140933544653
 20
40.83060206570425
 30
0.0
  0
VERTEX
  5
132
330
127
100
AcDbEntity
  8
Visible (ANSI)
100
AcDbVertex
100
AcDb2dVertex
 10
81.56903040612812
 20
40.82191921774259
 30
0.0
  0
VERTEX
  5
133
330
127
100
AcDbEntity
  8
Visible (ANSI)
100
AcDbVertex
100
AcDb2dVertex
 10
81.56664847311109
 20
40.81360809508672
 30
0.0
  0
VERTEX
  5
134
330
127
100
AcDbEntity
  8
Visible (ANSI)
100
AcDbVertex
100
AcDb2dVertex
 10
81.56426654009404
 20
40.80570428452555
 30
0.0
  0
VERTEX
  5
135
330
127
100
AcDbEntity
  8
Visible (ANSI)
100
AcDbVertex
100
AcDb2dVertex
 10
81.56188761077563
 20
40.79824163340139
 30
0.0
  0
VERTEX
  5
136
330
127
100
AcDbEntity
  8
Visible (ANSI)
100
AcDbVertex
100
AcDb2dVertex
 10
81.55950567775859
 20
40.79125209707845
 30
0.0
  0
VERTEX
  5
137
330
127
100
AcDbEntity
  8
Visible (ANSI)
100
AcDbVertex
100
AcDb2dVertex
 10
81.5571267484402
 20
40.78476560694427
 30
0.0
  0
VERTEX
  5
138
330
127
100
AcDbEntity
  8
Visible (ANSI)
100
AcDbVertex
100
AcDb2dVertex
 10
81.55474481542315
 20
40.77880994134463
 30
0.0
  0
VERTEX
  5
139
330
127
100
AcDbEntity
  8
Visible (ANSI)
100
AcDbVertex
100
AcDb2dVertex
 10
81.55236288240612
 20
40.77341059798497
 30
0.0
  0
VERTEX
  5
13A
330
127
100
AcDbEntity
  8
Visible (ANSI)
100
AcDbVertex
100
AcDb2dVertex
 10
81.54998395308771
 20
40.76859070153149
 30
0.0
  0
VERTEX
  5
13B
330
127
100
AcDbEntity
  8
Visible (ANSI)
100
AcDbVertex
100
AcDb2dVertex
 10
81.54760202007066
 20
40.76437088994578
 30
0.0
  0
VERTEX
  5
13C
330
127
100
AcDbEntity
  8
Visible (ANSI)
100
AcDbVertex
100
AcDb2dVertex
 10
81.54522309075227
 20
40.76076923381908
 30
0.0
  0
VERTEX
  5
13D
330
127
100
AcDbEntity
  8
Visible (ANSI)
100
AcDbVertex
100
AcDb2dVertex
 10
81.54284115773522
 20
40.7578011564399
 30
0.0
  0
VERTEX
  5
13E
330
127
100
AcDbEntity
  8
Visible (ANSI)
100
AcDbVertex
100
AcDb2dVertex
 10
81.54045922471819
 20
40.75547936687808
 30
0.0
  0
VERTEX
  5
13F
330
127
100
AcDbEntity
  8
Visible (ANSI)
100
AcDbVertex
100
AcDb2dVertex
 10
81.53808029539979
 20
40.7538138072771
 30
0.0
  0
VERTEX
  5
140
330
127
100
AcDbEntity
  8
Visible (ANSI)
100
AcDbVertex
100
AcDb2dVertex
 10
81.53569836238274
 20
40.75281161011498
 30
0.0
  0
VERTEX
  5
141
330
127
100
AcDbEntity
  8
Visible (ANSI)
100
AcDbVertex
100
AcDb2dVertex
 10
81.53331642936569
 20
40.75247706687758
 30
0.0
  0
SEQEND
  5
12A
330
127
100
AcDbEntity
  8
Visible (ANSI)
  0
POLYLINE
  5
142
330
6C
100
AcDbEntity
  8
Visible (ANSI)
100
AcDb2dPolyline
 66
     1
 10
0.0
 20
0.0
 30
0.0
 70
   128
  0
VERTEX
  5
143
330
142
100
AcDbEntity
  8
Visible (ANSI)
100
AcDbVertex
100
AcDb2dVertex
 10
42.96009448491719
 20
40.75247706687757
 30
0.0
  0
VERTEX
  5
144
330
142
100
AcDbEntity
  8
Visible (ANSI)
100
AcDbVertex
100
AcDb2dVertex
 10
42.95771372521993
 20
40.75281161011498
 30
0.0
  0
VERTEX
  5
146
330
142
100
AcDbEntity
  8
Visible (ANSI)
100
AcDbVertex
100
AcDb2dVertex
 10
42.95533296552267
 20
40.7538138072771
 30
0.0
  0
VERTEX
  5
147
330
142
100
AcDbEntity
  8
Visible (ANSI)
100
AcDbVertex
100
AcDb2dVertex
 10
42.9529522058254
 20
40.75547936687808
 30
0.0
  0
VERTEX
  5
148
330
142
100
AcDbEntity
  8
Visible (ANSI)
100
AcDbVertex
100
AcDb2dVertex
 10
42.95057144612814
 20
40.7578011564399
 30
0.0
  0
VERTEX
  5
149
330
142
100
AcDbEntity
  8
Visible (ANSI)
100
AcDbVertex
100
AcDb2dVertex
 10
42.94819066296449
 20
40.76076923381908
 30
0.0
  0
VERTEX
  5
14A
330
142
100
AcDbEntity
  8
Visible (ANSI)
100
AcDbVertex
100
AcDb2dVertex
 10
42.94580990326723
 20
40.76437088994578
 30
0.0
  0
VERTEX
  5
14B
330
142
100
AcDbEntity
  8
Visible (ANSI)
100
AcDbVertex
100
AcDb2dVertex
 10
42.94342914356997
 20
40.76859070153149
 30
0.0
  0
VERTEX
  5
14C
330
142
100
AcDbEntity
  8
Visible (ANSI)
100
AcDbVertex
100
AcDb2dVertex
 10
42.9410483838727
 20
40.77341059798497
 30
0.0
  0
VERTEX
  5
14D
330
142
100
AcDbEntity
  8
Visible (ANSI)
100
AcDbVertex
100
AcDb2dVertex
 10
42.93866761244225
 20
40.77880994134463
 30
0.0
  0
VERTEX
  5
14E
330
142
100
AcDbEntity
  8
Visible (ANSI)
100
AcDbVertex
100
AcDb2dVertex
 10
42.93628685274499
 20
40.78476560694427
 30
0.0
  0
VERTEX
  5
14F
330
142
100
AcDbEntity
  8
Visible (ANSI)
100
AcDbVertex
100
AcDb2dVertex
 10
42.93390609304773
 20
40.79125209707845
 30
0.0
  0
VERTEX
  5
150
330
142
100
AcDbEntity
  8
Visible (ANSI)
100
AcDbVertex
100
AcDb2dVertex
 10
42.93152532161726
 20
40.79824163340139
 30
0.0
  0
VERTEX
  5
151
330
142
100
AcDbEntity
  8
Visible (ANSI)
100
AcDbVertex
100
AcDb2dVertex
 10
42.92914456192
 20
40.80570428452555
 30
0.0
  0
VERTEX
  5
152
330
142
100
AcDbEntity
  8
Visible (ANSI)
100
AcDbVertex
100
AcDb2dVertex
 10
42.92676379048955
 20
40.81360809508672
 30
0.0
  0
VERTEX
  5
153
330
142
100
AcDbEntity
  8
Visible (ANSI)
100
AcDbVertex
100
AcDb2dVertex
 10
42.92438303079229
 20
40.82191921774259
 30
0.0
  0
VERTEX
  5
154
330
142
100
AcDbEntity
  8
Visible (ANSI)
100
AcDbVertex
100
AcDb2dVertex
 10
42.92200225936183
 20
40.83060206570425
 30
0.0
  0
VERTEX
  5
155
330
142
100
AcDbEntity
  8
Visible (ANSI)
100
AcDbVertex
100
AcDb2dVertex
 10
42.91962149966457
 20
40.83961945646791
 30
0.0
  0
VERTEX
  5
156
330
142
100
AcDbEntity
  8
Visible (ANSI)
100
AcDbVertex
100
AcDb2dVertex
 10
42.9172407399673
 20
40.84893278194625
 30
0.0
  0
VERTEX
  5
157
330
142
100
AcDbEntity
  8
Visible (ANSI)
100
AcDbVertex
100
AcDb2dVertex
 10
42.91485996853685
 20
40.85850214926677
 30
0.0
  0
VERTEX
  5
158
330
142
100
AcDbEntity
  8
Visible (ANSI)
100
AcDbVertex
100
AcDb2dVertex
 10
42.91247920883959
 20
40.86828659196939
 30
0.0
  0
VERTEX
  5
159
330
142
100
AcDbEntity
  8
Visible (ANSI)
100
AcDbVertex
100
AcDb2dVertex
 10
42.91009843740912
 20
40.87824420493819
 30
0.0
  0
VERTEX
  5
15A
330
142
100
AcDbEntity
  8
Visible (ANSI)
100
AcDbVertex
100
AcDb2dVertex
 10
42.90771767771186
 20
40.88833234973242
 30
0.0
  0
VERTEX
  5
15B
330
142
100
AcDbEntity
  8
Visible (ANSI)
100
AcDbVertex
100
AcDb2dVertex
 10
42.90533691801461
 20
40.8985078247178
 30
0.0
  0
VERTEX
  5
15C
330
142
100
AcDbEntity
  8
Visible (ANSI)
100
AcDbVertex
100
AcDb2dVertex
 10
42.90295614658414
 20
40.90872706453093
 30
0.0
  0
SEQEND
  5
145
330
142
100
AcDbEntity
  8
Visible (ANSI)
  0
POLYLINE
  5
15D
330
6C
100
AcDbEntity
  8
Visible (ANSI)
100
AcDb2dPolyline
 66
     1
 10
0.0
 20
0.0
 30
0.0
 70
   128
  0
VERTEX
  5
15E
330
15D
100
AcDbEntity
  8
Visible (ANSI)
100
AcDbVertex
100
AcDb2dVertex
 10
81.59045578848695
 20
79.59622670643374
 30
0.0
  0
VERTEX
  5
15F
330
15D
100
AcDbEntity
  8
Visible (ANSI)
100
AcDbVertex
100
AcDb2dVertex
 10
81.600674371241
 20
79.59384777711533
 30
0.0
  0
VERTEX
  5
161
330
15D
100
AcDbEntity
  8
Visible (ANSI)
100
AcDbVertex
100
AcDb2dVertex
 10
81.61085090221417
 20
79.59146584409829
 30
0.0
  0
VERTEX
  5
162
330
15D
100
AcDbEntity
  8
Visible (ANSI)
100
AcDbVertex
100
AcDb2dVertex
 10
81.62094032592696
 20
79.58908391108126
 30
0.0
  0
VERTEX
  5
163
330
15D
100
AcDbEntity
  8
Visible (ANSI)
100
AcDbVertex
100
AcDb2dVertex
 10
81.63089758689984
 20
79.58670498176285
 30
0.0
  0
VERTEX
  5
164
330
15D
100
AcDbEntity
  8
Visible (ANSI)
100
AcDbVertex
100
AcDb2dVertex
 10
81.64068063335191
 20
79.58432304874581
 30
0.0
  0
VERTEX
  5
165
330
15D
100
AcDbEntity
  8
Visible (ANSI)
100
AcDbVertex
100
AcDb2dVertex
 10
81.65025041720097
 20
79.58194111572876
 30
0.0
  0
VERTEX
  5
166
330
15D
100
AcDbEntity
  8
Visible (ANSI)
100
AcDbVertex
100
AcDb2dVertex
 10
81.65956488666607
 20
79.57956218641036
 30
0.0
  0
VERTEX
  5
167
330
15D
100
AcDbEntity
  8
Visible (ANSI)
100
AcDbVertex
100
AcDb2dVertex
 10
81.6685819899664
 20
79.57718025339332
 30
0.0
  0
VERTEX
  5
168
330
15D
100
AcDbEntity
  8
Visible (ANSI)
100
AcDbVertex
100
AcDb2dVertex
 10
81.67726267901967
 20
79.57480132407491
 30
0.0
  0
VERTEX
  5
169
330
15D
100
AcDbEntity
  8
Visible (ANSI)
100
AcDbVertex
100
AcDb2dVertex
 10
81.68557391314093
 20
79.57241939105788
 30
0.0
  0
VERTEX
  5
16A
330
15D
100
AcDbEntity
  8
Visible (ANSI)
100
AcDbVertex
100
AcDb2dVertex
 10
81.69347964794653
 20
79.57003745804083
 30
0.0
  0
VERTEX
  5
16B
330
15D
100
AcDbEntity
  8
Visible (ANSI)
100
AcDbVertex
100
AcDb2dVertex
 10
81.70094083535426
 20
79.56765852872242
 30
0.0
  0
VERTEX
  5
16C
330
15D
100
AcDbEntity
  8
Visible (ANSI)
100
AcDbVertex
100
AcDb2dVertex
 10
81.70793044207639
 20
79.56527659570538
 30
0.0
  0
VERTEX
  5
16D
330
15D
100
AcDbEntity
  8
Visible (ANSI)
100
AcDbVertex
100
AcDb2dVertex
 10
81.7144184311266
 20
79.56289766638697
 30
0.0
  0
VERTEX
  5
16E
330
15D
100
AcDbEntity
  8
Visible (ANSI)
100
AcDbVertex
100
AcDb2dVertex
 10
81.72037476551849
 20
79.56051573336994
 30
0.0
  0
VERTEX
  5
16F
330
15D
100
AcDbEntity
  8
Visible (ANSI)
100
AcDbVertex
100
AcDb2dVertex
 10
81.72577241196444
 20
79.55813380035291
 30
0.0
  0
VERTEX
  5
170
330
15D
100
AcDbEntity
  8
Visible (ANSI)
100
AcDbVertex
100
AcDb2dVertex
 10
81.73059334827255
 20
79.55575487103449
 30
0.0
  0
VERTEX
  5
171
330
15D
100
AcDbEntity
  8
Visible (ANSI)
100
AcDbVertex
100
AcDb2dVertex
 10
81.73481354485382
 20
79.55337293801746
 30
0.0
  0
VERTEX
  5
172
330
15D
100
AcDbEntity
  8
Visible (ANSI)
100
AcDbVertex
100
AcDb2dVertex
 10
81.73841497951642
 20
79.55099400869904
 30
0.0
  0
VERTEX
  5
173
330
15D
100
AcDbEntity
  8
Visible (ANSI)
100
AcDbVertex
100
AcDb2dVertex
 10
81.74138263376717
 20
79.54861207568201
 30
0.0
  0
VERTEX
  5
174
330
15D
100
AcDbEntity
  8
Visible (ANSI)
100
AcDbVertex
100
AcDb2dVertex
 10
81.7437044928115
 20
79.54623014266498
 30
0.0
  0
VERTEX
  5
175
330
15D
100
AcDbEntity
  8
Visible (ANSI)
100
AcDbVertex
100
AcDb2dVertex
 10
81.74536854185493
 20
79.54385121334657
 30
0.0
  0
VERTEX
  5
176
330
15D
100
AcDbEntity
  8
Visible (ANSI)
100
AcDbVertex
100
AcDb2dVertex
 10
81.74637177719882
 20
79.54146928032954
 30
0.0
  0
VERTEX
  5
177
330
15D
100
AcDbEntity
  8
Visible (ANSI)
100
AcDbVertex
100
AcDb2dVertex
 10
81.74670518774723
 20
79.53908734731249
 30
0.0
  0
SEQEND
  5
160
330
15D
100
AcDbEntity
  8
Visible (ANSI)
  0
POLYLINE
  5
178
330
6C
100
AcDbEntity
  8
Visible (ANSI)
100
AcDb2dPolyline
 66
     1
 10
0.0
 20
0.0
 30
0.0
 70
   128
  0
VERTEX
  5
179
330
178
100
AcDbEntity
  8
Visible (ANSI)
100
AcDbVertex
100
AcDb2dVertex
 10
81.74670518774723
 20
40.96586540286398
 30
0.0
  0
VERTEX
  5
17A
330
178
100
AcDbEntity
  8
Visible (ANSI)
100
AcDbVertex
100
AcDb2dVertex
 10
81.74637177719882
 20
40.96348464316671
 30
0.0
  0
VERTEX
  5
17C
330
178
100
AcDbEntity
  8
Visible (ANSI)
100
AcDbVertex
100
AcDb2dVertex
 10
81.74536854185493
 20
40.96110388346945
 30
0.0
  0
VERTEX
  5
17D
330
178
100
AcDbEntity
  8
Visible (ANSI)
100
AcDbVertex
100
AcDb2dVertex
 10
81.7437044928115
 20
40.95872312377219
 30
0.0
  0
VERTEX
  5
17E
330
178
100
AcDbEntity
  8
Visible (ANSI)
100
AcDbVertex
100
AcDb2dVertex
 10
81.74138263376717
 20
40.95634236407493
 30
0.0
  0
VERTEX
  5
17F
330
178
100
AcDbEntity
  8
Visible (ANSI)
100
AcDbVertex
100
AcDb2dVertex
 10
81.73841497951642
 20
40.95396158091127
 30
0.0
  0
VERTEX
  5
180
330
178
100
AcDbEntity
  8
Visible (ANSI)
100
AcDbVertex
100
AcDb2dVertex
 10
81.73481354485382
 20
40.95158082121401
 30
0.0
  0
VERTEX
  5
181
330
178
100
AcDbEntity
  8
Visible (ANSI)
100
AcDbVertex
100
AcDb2dVertex
 10
81.73059334827255
 20
40.94920006151675
 30
0.0
  0
VERTEX
  5
182
330
178
100
AcDbEntity
  8
Visible (ANSI)
100
AcDbVertex
100
AcDb2dVertex
 10
81.72577241196444
 20
40.94681930181949
 30
0.0
  0
VERTEX
  5
183
330
178
100
AcDbEntity
  8
Visible (ANSI)
100
AcDbVertex
100
AcDb2dVertex
 10
81.72037476551849
 20
40.94443853038903
 30
0.0
  0
VERTEX
  5
184
330
178
100
AcDbEntity
  8
Visible (ANSI)
100
AcDbVertex
100
AcDb2dVertex
 10
81.7144184311266
 20
40.94205777069177
 30
0.0
  0
VERTEX
  5
185
330
178
100
AcDbEntity
  8
Visible (ANSI)
100
AcDbVertex
100
AcDb2dVertex
 10
81.70793044207639
 20
40.93967701099451
 30
0.0
  0
VERTEX
  5
186
330
178
100
AcDbEntity
  8
Visible (ANSI)
100
AcDbVertex
100
AcDb2dVertex
 10
81.70094083535426
 20
40.93729623956405
 30
0.0
  0
VERTEX
  5
187
330
178
100
AcDbEntity
  8
Visible (ANSI)
100
AcDbVertex
100
AcDb2dVertex
 10
81.69347964794653
 20
40.93491547986679
 30
0.0
  0
VERTEX
  5
188
330
178
100
AcDbEntity
  8
Visible (ANSI)
100
AcDbVertex
100
AcDb2dVertex
 10
81.68557391314093
 20
40.93253470843634
 30
0.0
  0
VERTEX
  5
189
330
178
100
AcDbEntity
  8
Visible (ANSI)
100
AcDbVertex
100
AcDb2dVertex
 10
81.67726267901967
 20
40.93015394873907
 30
0.0
  0
VERTEX
  5
18A
330
178
100
AcDbEntity
  8
Visible (ANSI)
100
AcDbVertex
100
AcDb2dVertex
 10
81.6685819899664
 20
40.92777317730861
 30
0.0
  0
VERTEX
  5
18B
330
178
100
AcDbEntity
  8
Visible (ANSI)
100
AcDbVertex
100
AcDb2dVertex
 10
81.65956488666607
 20
40.92539241761135
 30
0.0
  0
VERTEX
  5
18C
330
178
100
AcDbEntity
  8
Visible (ANSI)
100
AcDbVertex
100
AcDb2dVertex
 10
81.65025041720097
 20
40.92301165791409
 30
0.0
  0
VERTEX
  5
18D
330
178
100
AcDbEntity
  8
Visible (ANSI)
100
AcDbVertex
100
AcDb2dVertex
 10
81.64068063335191
 20
40.92063088648363
 30
0.0
  0
VERTEX
  5
18E
330
178
100
AcDbEntity
  8
Visible (ANSI)
100
AcDbVertex
100
AcDb2dVertex
 10
81.63089758689984
 20
40.91825012678637
 30
0.0
  0
VERTEX
  5
18F
330
178
100
AcDbEntity
  8
Visible (ANSI)
100
AcDbVertex
100
AcDb2dVertex
 10
81.62094032592696
 20
40.9158693553559
 30
0.0
  0
VERTEX
  5
190
330
178
100
AcDbEntity
  8
Visible (ANSI)
100
AcDbVertex
100
AcDb2dVertex
 10
81.61085090221417
 20
40.91348859565864
 30
0.0
  0
VERTEX
  5
191
330
178
100
AcDbEntity
  8
Visible (ANSI)
100
AcDbVertex
100
AcDb2dVertex
 10
81.600674371241
 20
40.91110783596139
 30
0.0
  0
VERTEX
  5
192
330
178
100
AcDbEntity
  8
Visible (ANSI)
100
AcDbVertex
100
AcDb2dVertex
 10
81.59045578848695
 20
40.90872706453093
 30
0.0
  0
SEQEND
  5
17B
330
178
100
AcDbEntity
  8
Visible (ANSI)
  0
POLYLINE
  5
193
330
6C
100
AcDbEntity
  8
Visible (ANSI)
100
AcDb2dPolyline
 66
     1
 10
0.0
 20
0.0
 30
0.0
 70
   128
  0
VERTEX
  5
194
330
193
100
AcDbEntity
  8
Visible (ANSI)
100
AcDbVertex
100
AcDb2dVertex
 10
42.90295614658414
 20
79.59622670643374
 30
0.0
  0
VERTEX
  5
195
330
193
100
AcDbEntity
  8
Visible (ANSI)
100
AcDbVertex
100
AcDb2dVertex
 10
42.90533691801461
 20
79.60644528918779
 30
0.0
  0
VERTEX
  5
197
330
193
100
AcDbEntity
  8
Visible (ANSI)
100
AcDbVertex
100
AcDb2dVertex
 10
42.90771767771186
 20
79.61662182016097
 30
0.0
  0
VERTEX
  5
198
330
193
100
AcDbEntity
  8
Visible (ANSI)
100
AcDbVertex
100
AcDb2dVertex
 10
42.91009843740912
 20
79.62671124387376
 30
0.0
  0
VERTEX
  5
199
330
193
100
AcDbEntity
  8
Visible (ANSI)
100
AcDbVertex
100
AcDb2dVertex
 10
42.91247920883959
 20
79.63666850484663
 30
0.0
  0
VERTEX
  5
19A
330
193
100
AcDbEntity
  8
Visible (ANSI)
100
AcDbVertex
100
AcDb2dVertex
 10
42.91485996853685
 20
79.64645155129871
 30
0.0
  0
VERTEX
  5
19B
330
193
100
AcDbEntity
  8
Visible (ANSI)
100
AcDbVertex
100
AcDb2dVertex
 10
42.9172407399673
 20
79.65602133514775
 30
0.0
  0
VERTEX
  5
19C
330
193
100
AcDbEntity
  8
Visible (ANSI)
100
AcDbVertex
100
AcDb2dVertex
 10
42.91962149966457
 20
79.66533580461287
 30
0.0
  0
VERTEX
  5
19D
330
193
100
AcDbEntity
  8
Visible (ANSI)
100
AcDbVertex
100
AcDb2dVertex
 10
42.92200225936183
 20
79.67435290791319
 30
0.0
  0
VERTEX
  5
19E
330
193
100
AcDbEntity
  8
Visible (ANSI)
100
AcDbVertex
100
AcDb2dVertex
 10
42.92438303079229
 20
79.68303359696645
 30
0.0
  0
VERTEX
  5
19F
330
193
100
AcDbEntity
  8
Visible (ANSI)
100
AcDbVertex
100
AcDb2dVertex
 10
42.92676379048955
 20
79.69134483108772
 30
0.0
  0
VERTEX
  5
1A0
330
193
100
AcDbEntity
  8
Visible (ANSI)
100
AcDbVertex
100
AcDb2dVertex
 10
42.92914456192
 20
79.69925056589332
 30
0.0
  0
VERTEX
  5
1A1
330
193
100
AcDbEntity
  8
Visible (ANSI)
100
AcDbVertex
100
AcDb2dVertex
 10
42.93152532161726
 20
79.70671175330105
 30
0.0
  0
VERTEX
  5
1A2
330
193
100
AcDbEntity
  8
Visible (ANSI)
100
AcDbVertex
100
AcDb2dVertex
 10
42.93390609304773
 20
79.71370136002318
 30
0.0
  0
VERTEX
  5
1A3
330
193
100
AcDbEntity
  8
Visible (ANSI)
100
AcDbVertex
100
AcDb2dVertex
 10
42.93628685274499
 20
79.72018934907338
 30
0.0
  0
VERTEX
  5
1A4
330
193
100
AcDbEntity
  8
Visible (ANSI)
100
AcDbVertex
100
AcDb2dVertex
 10
42.93866761244225
 20
79.72614568346529
 30
0.0
  0
VERTEX
  5
1A5
330
193
100
AcDbEntity
  8
Visible (ANSI)
100
AcDbVertex
100
AcDb2dVertex
 10
42.9410483838727
 20
79.73154332991121
 30
0.0
  0
VERTEX
  5
1A6
330
193
100
AcDbEntity
  8
Visible (ANSI)
100
AcDbVertex
100
AcDb2dVertex
 10
42.94342914356997
 20
79.73636426621934
 30
0.0
  0
VERTEX
  5
1A7
330
193
100
AcDbEntity
  8
Visible (ANSI)
100
AcDbVertex
100
AcDb2dVertex
 10
42.94580990326723
 20
79.74058446280061
 30
0.0
  0
VERTEX
  5
1A8
330
193
100
AcDbEntity
  8
Visible (ANSI)
100
AcDbVertex
100
AcDb2dVertex
 10
42.94819066296449
 20
79.7441858974632
 30
0.0
  0
VERTEX
  5
1A9
330
193
100
AcDbEntity
  8
Visible (ANSI)
100
AcDbVertex
100
AcDb2dVertex
 10
42.95057144612814
 20
79.74715355171394
 30
0.0
  0
VERTEX
  5
1AA
330
193
100
AcDbEntity
  8
Visible (ANSI)
100
AcDbVertex
100
AcDb2dVertex
 10
42.9529522058254
 20
79.74947541075829
 30
0.0
  0
VERTEX
  5
1AB
330
193
100
AcDbEntity
  8
Visible (ANSI)
100
AcDbVertex
100
AcDb2dVertex
 10
42.95533296552267
 20
79.75113945980172
 30
0.0
  0
VERTEX
  5
1AC
330
193
100
AcDbEntity
  8
Visible (ANSI)
100
AcDbVertex
100
AcDb2dVertex
 10
42.95771372521993
 20
79.75214269514559
 30
0.0
  0
VERTEX
  5
1AD
330
193
100
AcDbEntity
  8
Visible (ANSI)
100
AcDbVertex
100
AcDb2dVertex
 10
42.96009448491719
 20
79.75247610569401
 30
0.0
  0
SEQEND
  5
196
330
193
100
AcDbEntity
  8
Visible (ANSI)
  0
POLYLINE
  5
1AE
330
6C
100
AcDbEntity
  8
Visible (ANSI)
100
AcDb2dPolyline
 66
     1
 10
0.0
 20
0.0
 30
0.0
 70
   128
  0
VERTEX
  5
1AF
330
1AE
100
AcDbEntity
  8
Visible (ANSI)
100
AcDbVertex
100
AcDb2dVertex
 10
81.53331642936569
 20
79.75247610569401
 30
0.0
  0
VERTEX
  5
1B0
330
1AE
100
AcDbEntity
  8
Visible (ANSI)
100
AcDbVertex
100
AcDb2dVertex
 10
81.53569836238274
 20
79.75214269514559
 30
0.0
  0
VERTEX
  5
1B2
330
1AE
100
AcDbEntity
  8
Visible (ANSI)
100
AcDbVertex
100
AcDb2dVertex
 10
81.53808029539979
 20
79.75113945980172
 30
0.0
  0
VERTEX
  5
1B3
330
1AE
100
AcDbEntity
  8
Visible (ANSI)
100
AcDbVertex
100
AcDb2dVertex
 10
81.54045922471819
 20
79.74947541075829
 30
0.0
  0
VERTEX
  5
1B4
330
1AE
100
AcDbEntity
  8
Visible (ANSI)
100
AcDbVertex
100
AcDb2dVertex
 10
81.54284115773522
 20
79.74715355171394
 30
0.0
  0
VERTEX
  5
1B5
330
1AE
100
AcDbEntity
  8
Visible (ANSI)
100
AcDbVertex
100
AcDb2dVertex
 10
81.54522309075227
 20
79.7441858974632
 30
0.0
  0
VERTEX
  5
1B6
330
1AE
100
AcDbEntity
  8
Visible (ANSI)
100
AcDbVertex
100
AcDb2dVertex
 10
81.54760202007066
 20
79.74058446280061
 30
0.0
  0
VERTEX
  5
1B7
330
1AE
100
AcDbEntity
  8
Visible (ANSI)
100
AcDbVertex
100
AcDb2dVertex
 10
81.54998395308771
 20
79.73636426621934
 30
0.0
  0
VERTEX
  5
1B8
330
1AE
100
AcDbEntity
  8
Visible (ANSI)
100
AcDbVertex
100
AcDb2dVertex
 10
81.55236288240612
 20
79.73154332991121
 30
0.0
  0
VERTEX
  5
1B9
330
1AE
100
AcDbEntity
  8
Visible (ANSI)
100
AcDbVertex
100
AcDb2dVertex
 10
81.55474481542315
 20
79.72614568346529
 30
0.0
  0
VERTEX
  5
1BA
330
1AE
100
AcDbEntity
  8
Visible (ANSI)
100
AcDbVertex
100
AcDb2dVertex
 10
81.5571267484402
 20
79.72018934907338
 30
0.0
  0
VERTEX
  5
1BB
330
1AE
100
AcDbEntity
  8
Visible (ANSI)
100
AcDbVertex
100
AcDb2dVertex
 10
81.55950567775859
 20
79.71370136002318
 30
0.0
  0
VERTEX
  5
1BC
330
1AE
100
AcDbEntity
  8
Visible (ANSI)
100
AcDbVertex
100
AcDb2dVertex
 10
81.56188761077563
 20
79.70671175330105
 30
0.0
  0
VERTEX
  5
1BD
330
1AE
100
AcDbEntity
  8
Visible (ANSI)
100
AcDbVertex
100
AcDb2dVertex
 10
81.56426654009404
 20
79.69925056589332
 30
0.0
  0
VERTEX
  5
1BE
330
1AE
100
AcDbEntity
  8
Visible (ANSI)
100
AcDbVertex
100
AcDb2dVertex
 10
81.56664847311109
 20
79.69134483108772
 30
0.0
  0
VERTEX
  5
1BF
330
1AE
100
AcDbEntity
  8
Visible (ANSI)
100
AcDbVertex
100
AcDb2dVertex
 10
81.56903040612812
 20
79.68303359696645
 30
0.0
  0
VERTEX
  5
1C0
330
1AE
100
AcDbEntity
  8
Visible (ANSI)
100
AcDbVertex
100
AcDb2dVertex
 10
81.57140933544653
 20
79.67435290791319
 30
0.0
  0
VERTEX
  5
1C1
330
1AE
100
AcDbEntity
  8
Visible (ANSI)
100
AcDbVertex
100
AcDb2dVertex
 10
81.57379126846356
 20
79.66533580461287
 30
0.0
  0
VERTEX
  5
1C2
330
1AE
100
AcDbEntity
  8
Visible (ANSI)
100
AcDbVertex
100
AcDb2dVertex
 10
81.57617019778198
 20
79.65602133514775
 30
0.0
  0
VERTEX
  5
1C3
330
1AE
100
AcDbEntity
  8
Visible (ANSI)
100
AcDbVertex
100
AcDb2dVertex
 10
81.57855213079903
 20
79.64645155129871
 30
0.0
  0
VERTEX
  5
1C4
330
1AE
100
AcDbEntity
  8
Visible (ANSI)
100
AcDbVertex
100
AcDb2dVertex
 10
81.58093406381606
 20
79.63666850484663
 30
0.0
  0
VERTEX
  5
1C5
330
1AE
100
AcDbEntity
  8
Visible (ANSI)
100
AcDbVertex
100
AcDb2dVertex
 10
81.58331299313447
 20
79.62671124387376
 30
0.0
  0
VERTEX
  5
1C6
330
1AE
100
AcDbEntity
  8
Visible (ANSI)
100
AcDbVertex
100
AcDb2dVertex
 10
81.5856949261515
 20
79.61662182016097
 30
0.0
  0
VERTEX
  5
1C7
330
1AE
100
AcDbEntity
  8
Visible (ANSI)
100
AcDbVertex
100
AcDb2dVertex
 10
81.58807685916853
 20
79.60644528918779
 30
0.0
  0
VERTEX
  5
1C8
330
1AE
100
AcDbEntity
  8
Visible (ANSI)
100
AcDbVertex
100
AcDb2dVertex
 10
81.59045578848695
 20
79.59622670643374
 30
0.0
  0
SEQEND
  5
1B1
330
1AE
100
AcDbEntity
  8
Visible (ANSI)
  0
POLYLINE
  5
1C9
330
6C
100
AcDbEntity
  8
Visible (ANSI)
100
AcDb2dPolyline
 66
     1
 10
0.0
 20
0.0
 30
0.0
 70
   128
  0
VERTEX
  5
1CA
330
1C9
100
AcDbEntity
  8
Visible (ANSI)
100
AcDbVertex
100
AcDb2dVertex
 10
42.90295614658414
 20
40.90872706453093
 30
0.0
  0
VERTEX
  5
1CB
330
1C9
100
AcDbEntity
  8
Visible (ANSI)
100
AcDbVertex
100
AcDb2dVertex
 10
42.89273690677101
 20
40.91110783596139
 30
0.0
  0
VERTEX
  5
1CD
330
1C9
100
AcDbEntity
  8
Visible (ANSI)
100
AcDbVertex
100
AcDb2dVertex
 10
42.88256143178563
 20
40.91348859565864
 30
0.0
  0
VERTEX
  5
1CE
330
1C9
100
AcDbEntity
  8
Visible (ANSI)
100
AcDbVertex
100
AcDb2dVertex
 10
42.87247328699141
 20
40.9158693553559
 30
0.0
  0
VERTEX
  5
1CF
330
1C9
100
AcDbEntity
  8
Visible (ANSI)
100
AcDbVertex
100
AcDb2dVertex
 10
42.86251567402261
 20
40.91825012678637
 30
0.0
  0
VERTEX
  5
1D0
330
1C9
100
AcDbEntity
  8
Visible (ANSI)
100
AcDbVertex
100
AcDb2dVertex
 10
42.85273123131999
 20
40.92063088648363
 30
0.0
  0
VERTEX
  5
1D1
330
1C9
100
AcDbEntity
  8
Visible (ANSI)
100
AcDbVertex
100
AcDb2dVertex
 10
42.84316186399947
 20
40.92301165791409
 30
0.0
  0
VERTEX
  5
1D2
330
1C9
100
AcDbEntity
  8
Visible (ANSI)
100
AcDbVertex
100
AcDb2dVertex
 10
42.83384853852113
 20
40.92539241761135
 30
0.0
  0
VERTEX
  5
1D3
330
1C9
100
AcDbEntity
  8
Visible (ANSI)
100
AcDbVertex
100
AcDb2dVertex
 10
42.82483114775747
 20
40.92777317730861
 30
0.0
  0
VERTEX
  5
1D4
330
1C9
100
AcDbEntity
  8
Visible (ANSI)
100
AcDbVertex
100
AcDb2dVertex
 10
42.8161482997958
 20
40.93015394873907
 30
0.0
  0
VERTEX
  5
1D5
330
1C9
100
AcDbEntity
  8
Visible (ANSI)
100
AcDbVertex
100
AcDb2dVertex
 10
42.80783717713993
 20
40.93253470843634
 30
0.0
  0
VERTEX
  5
1D6
330
1C9
100
AcDbEntity
  8
Visible (ANSI)
100
AcDbVertex
100
AcDb2dVertex
 10
42.79993336657876
 20
40.93491547986679
 30
0.0
  0
VERTEX
  5
1D7
330
1C9
100
AcDbEntity
  8
Visible (ANSI)
100
AcDbVertex
100
AcDb2dVertex
 10
42.79247071545461
 20
40.93729623956405
 30
0.0
  0
VERTEX
  5
1D8
330
1C9
100
AcDbEntity
  8
Visible (ANSI)
100
AcDbVertex
100
AcDb2dVertex
 10
42.78548117913167
 20
40.93967701099451
 30
0.0
  0
VERTEX
  5
1D9
330
1C9
100
AcDbEntity
  8
Visible (ANSI)
100
AcDbVertex
100
AcDb2dVertex
 10
42.77899468899748
 20
40.94205777069177
 30
0.0
  0
VERTEX
  5
1DA
330
1C9
100
AcDbEntity
  8
Visible (ANSI)
100
AcDbVertex
100
AcDb2dVertex
 10
42.77303902339784
 20
40.94443853038903
 30
0.0
  0
VERTEX
  5
1DB
330
1C9
100
AcDbEntity
  8
Visible (ANSI)
100
AcDbVertex
100
AcDb2dVertex
 10
42.76763968003819
 20
40.94681930181949
 30
0.0
  0
VERTEX
  5
1DC
330
1C9
100
AcDbEntity
  8
Visible (ANSI)
100
AcDbVertex
100
AcDb2dVertex
 10
42.7628197835847
 20
40.94920006151675
 30
0.0
  0
VERTEX
  5
1DD
330
1C9
100
AcDbEntity
  8
Visible (ANSI)
100
AcDbVertex
100
AcDb2dVertex
 10
42.758599971999
 20
40.95158082121401
 30
0.0
  0
VERTEX
  5
1DE
330
1C9
100
AcDbEntity
  8
Visible (ANSI)
100
AcDbVertex
100
AcDb2dVertex
 10
42.7549983158723
 20
40.95396158091127
 30
0.0
  0
VERTEX
  5
1DF
330
1C9
100
AcDbEntity
  8
Visible (ANSI)
100
AcDbVertex
100
AcDb2dVertex
 10
42.75203023849312
 20
40.95634236407493
 30
0.0
  0
VERTEX
  5
1E0
330
1C9
100
AcDbEntity
  8
Visible (ANSI)
100
AcDbVertex
100
AcDb2dVertex
 10
42.74970844893129
 20
40.95872312377219
 30
0.0
  0
VERTEX
  5
1E1
330
1C9
100
AcDbEntity
  8
Visible (ANSI)
100
AcDbVertex
100
AcDb2dVertex
 10
42.74804288933031
 20
40.96110388346945
 30
0.0
  0
VERTEX
  5
1E2
330
1C9
100
AcDbEntity
  8
Visible (ANSI)
100
AcDbVertex
100
AcDb2dVertex
 10
42.74704069216819
 20
40.96348464316671
 30
0.0
  0
VERTEX
  5
1E3
330
1C9
100
AcDbEntity
  8
Visible (ANSI)
100
AcDbVertex
100
AcDb2dVertex
 10
42.74670614893079
 20
40.96586540286398
 30
0.0
  0
SEQEND
  5
1CC
330
1C9
100
AcDbEntity
  8
Visible (ANSI)
  0
POLYLINE
  5
1E4
330
6C
100
AcDbEntity
  8
Visible (ANSI)
100
AcDb2dPolyline
 66
     1
 10
0.0
 20
0.0
 30
0.0
 70
   128
  0
VERTEX
  5
1E5
330
1E4
100
AcDbEntity
  8
Visible (ANSI)
100
AcDbVertex
100
AcDb2dVertex
 10
42.74670614893079
 20
79.53908734731249
 30
0.0
  0
VERTEX
  5
1E6
330
1E4
100
AcDbEntity
  8
Visible (ANSI)
100
AcDbVertex
100
AcDb2dVertex
 10
42.74704069216819
 20
79.54146928032954
 30
0.0
  0
VERTEX
  5
1E8
330
1E4
100
AcDbEntity
  8
Visible (ANSI)
100
AcDbVertex
100
AcDb2dVertex
 10
42.74804288933031
 20
79.54385121334657
 30
0.0
  0
VERTEX
  5
1E9
330
1E4
100
AcDbEntity
  8
Visible (ANSI)
100
AcDbVertex
100
AcDb2dVertex
 10
42.74970844893129
 20
79.54623014266498
 30
0.0
  0
VERTEX
  5
1EA
330
1E4
100
AcDbEntity
  8
Visible (ANSI)
100
AcDbVertex
100
AcDb2dVertex
 10
42.75203023849312
 20
79.54861207568201
 30
0.0
  0
VERTEX
  5
1EB
330
1E4
100
AcDbEntity
  8
Visible (ANSI)
100
AcDbVertex
100
AcDb2dVertex
 10
42.7549983158723
 20
79.55099400869904
 30
0.0
  0
VERTEX
  5
1EC
330
1E4
100
AcDbEntity
  8
Visible (ANSI)
100
AcDbVertex
100
AcDb2dVertex
 10
42.758599971999
 20
79.55337293801746
 30
0.0
  0
VERTEX
  5
1ED
330
1E4
100
AcDbEntity
  8
Visible (ANSI)
100
AcDbVertex
100
AcDb2dVertex
 10
42.7628197835847
 20
79.55575487103449
 30
0.0
  0
VERTEX
  5
1EE
330
1E4
100
AcDbEntity
  8
Visible (ANSI)
100
AcDbVertex
100
AcDb2dVertex
 10
42.76763968003819
 20
79.55813380035291
 30
0.0
  0
VERTEX
  5
1EF
330
1E4
100
AcDbEntity
  8
Visible (ANSI)
100
AcDbVertex
100
AcDb2dVertex
 10
42.77303902339784
 20
79.56051573336994
 30
0.0
  0
VERTEX
  5
1F0
330
1E4
100
AcDbEntity
  8
Visible (ANSI)
100
AcDbVertex
100
AcDb2dVertex
 10
42.77899468899748
 20
79.56289766638697
 30
0.0
  0
VERTEX
  5
1F1
330
1E4
100
AcDbEntity
  8
Visible (ANSI)
100
AcDbVertex
100
AcDb2dVertex
 10
42.78548117913167
 20
79.56527659570538
 30
0.0
  0
VERTEX
  5
1F2
330
1E4
100
AcDbEntity
  8
Visible (ANSI)
100
AcDbVertex
100
AcDb2dVertex
 10
42.79247071545461
 20
79.56765852872242
 30
0.0
  0
VERTEX
  5
1F3
330
1E4
100
AcDbEntity
  8
Visible (ANSI)
100
AcDbVertex
100
AcDb2dVertex
 10
42.79993336657876
 20
79.57003745804083
 30
0.0
  0
VERTEX
  5
1F4
330
1E4
100
AcDbEntity
  8
Visible (ANSI)
100
AcDbVertex
100
AcDb2dVertex
 10
42.80783717713993
 20
79.57241939105788
 30
0.0
  0
VERTEX
  5
1F5
330
1E4
100
AcDbEntity
  8
Visible (ANSI)
100
AcDbVertex
100
AcDb2dVertex
 10
42.8161482997958
 20
79.57480132407491
 30
0.0
  0
VERTEX
  5
1F6
330
1E4
100
AcDbEntity
  8
Visible (ANSI)
100
AcDbVertex
100
AcDb2dVertex
 10
42.82483114775747
 20
79.57718025339332
 30
0.0
  0
VERTEX
  5
1F7
330
1E4
100
AcDbEntity
  8
Visible (ANSI)
100
AcDbVertex
100
AcDb2dVertex
 10
42.83384853852113
 20
79.57956218641036
 30
0.0
  0
VERTEX
  5
1F8
330
1E4
100
AcDbEntity
  8
Visible (ANSI)
100
AcDbVertex
100
AcDb2dVertex
 10
42.84316186399947
 20
79.58194111572876
 30
0.0
  0
VERTEX
  5
1F9
330
1E4
100
AcDbEntity
  8
Visible (ANSI)
100
AcDbVertex
100
AcDb2dVertex
 10
42.85273123131999
 20
79.58432304874581
 30
0.0
  0
VERTEX
  5
1FA
330
1E4
100
AcDbEntity
  8
Visible (ANSI)
100
AcDbVertex
100
AcDb2dVertex
 10
42.86251567402261
 20
79.58670498176285
 30
0.0
  0
VERTEX
  5
1FB
330
1E4
100
AcDbEntity
  8
Visible (ANSI)
100
AcDbVertex
100
AcDb2dVertex
 10
42.87247328699141
 20
79.58908391108126
 30
0.0
  0
VERTEX
  5
1FC
330
1E4
100
AcDbEntity
  8
Visible (ANSI)
100
AcDbVertex
100
AcDb2dVertex
 10
42.88256143178563
 20
79.59146584409829
 30
0.0
  0
VERTEX
  5
1FD
330
1E4
100
AcDbEntity
  8
Visible (ANSI)
100
AcDbVertex
100
AcDb2dVertex
 10
42.89273690677101
 20
79.59384777711533
 30
0.0
  0
VERTEX
  5
1FE
330
1E4
100
AcDbEntity
  8
Visible (ANSI)
100
AcDbVertex
100
AcDb2dVertex
 10
42.90295614658414
 20
79.59622670643374
 30
0.0
  0
SEQEND
  5
1E7
330
1E4
100
AcDbEntity
  8
Visible (ANSI)
  0
MTEXT
  5
200
330
6C
100
AcDbEntity
  8
Symbol (ANSI)
100
AcDbMText
 10
57.20733227934437
 20
34.00005948552455
 30
0.0
 40
1.320000016313838
 41
0.0
 46
0.0
 71
     7
 72
     1
  1
FRONT VIEW
  7
Text Style154
 73
     1
 44
1.0
  0
LINE
  5
202
330
6C
100
AcDbEntity
  8
Symbol (ANSI)
370
    30
100
AcDbLine
 10
57.07533193979211
 20
33.73087147440076
 30
0.0
 11
67.68774698693455
 21
33.73087147440076
 31
0.0
  0
POLYLINE
  5
203
330
6C
100
AcDbEntity
  8
Visible (ANSI)
100
AcDb2dPolyline
 66
     1
 10
0.0
 20
0.0
 30
0.0
 70
   128
  0
VERTEX
  5
204
330
203
100
AcDbEntity
  8
Visible (ANSI)
100
AcDbVertex
100
AcDb2dVertex
 10
125.3333575509888
 20
40.90872706453093
 30
0.0
  0
VERTEX
  5
205
330
203
100
AcDbEntity
  8
Visible (ANSI)
100
AcDbVertex
100
AcDb2dVertex
 10
125.3336920879242
 20
40.8985078247178
 30
0.0
  0
VERTEX
  5
207
330
203
100
AcDbEntity
  8
Visible (ANSI)
100
AcDbVertex
100
AcDb2dVertex
 10
125.3346942907467
 20
40.88833234973242
 30
0.0
  0
VERTEX
  5
208
330
203
100
AcDbEntity
  8
Visible (ANSI)
100
AcDbVertex
100
AcDb2dVertex
 10
125.3363598533727
 20
40.87824420493819
 30
0.0
  0
VERTEX
  5
209
330
203
100
AcDbEntity
  8
Visible (ANSI)
100
AcDbVertex
100
AcDb2dVertex
 10
125.3386816420178
 20
40.86828659196939
 30
0.0
  0
VERTEX
  5
20A
330
203
100
AcDbEntity
  8
Visible (ANSI)
100
AcDbVertex
100
AcDb2dVertex
 10
125.3416497186637
 20
40.85850214926677
 30
0.0
  0
VERTEX
  5
20B
330
203
100
AcDbEntity
  8
Visible (ANSI)
100
AcDbVertex
100
AcDb2dVertex
 10
125.345251376257
 20
40.84893278194625
 30
0.0
  0
VERTEX
  5
20C
330
203
100
AcDbEntity
  8
Visible (ANSI)
100
AcDbVertex
100
AcDb2dVertex
 10
125.3494711856428
 20
40.83961945646791
 30
0.0
  0
VERTEX
  5
20D
330
203
100
AcDbEntity
  8
Visible (ANSI)
100
AcDbVertex
100
AcDb2dVertex
 10
125.3542910776963
 20
40.83060206570425
 30
0.0
  0
VERTEX
  5
20E
330
203
100
AcDbEntity
  8
Visible (ANSI)
100
AcDbVertex
100
AcDb2dVertex
 10
125.3596904254559
 20
40.82191921774259
 30
0.0
  0
VERTEX
  5
20F
330
203
100
AcDbEntity
  8
Visible (ANSI)
100
AcDbVertex
100
AcDb2dVertex
 10
125.3656460910555
 20
40.81360809508672
 30
0.0
  0
VERTEX
  5
210
330
203
100
AcDbEntity
  8
Visible (ANSI)
100
AcDbVertex
100
AcDb2dVertex
 10
125.3721325782564
 20
40.80570428452555
 30
0.0
  0
VERTEX
  5
211
330
203
100
AcDbEntity
  8
Visible (ANSI)
100
AcDbVertex
100
AcDb2dVertex
 10
125.3791221145793
 20
40.79824163340139
 30
0.0
  0
VERTEX
  5
212
330
203
100
AcDbEntity
  8
Visible (ANSI)
100
AcDbVertex
100
AcDb2dVertex
 10
125.3865847627702
 20
40.79125209707845
 30
0.0
  0
VERTEX
  5
213
330
203
100
AcDbEntity
  8
Visible (ANSI)
100
AcDbVertex
100
AcDb2dVertex
 10
125.3944885733314
 20
40.78476560694427
 30
0.0
  0
VERTEX
  5
214
330
203
100
AcDbEntity
  8
Visible (ANSI)
100
AcDbVertex
100
AcDb2dVertex
 10
125.4027997018538
 20
40.77880994134463
 30
0.0
  0
VERTEX
  5
215
330
203
100
AcDbEntity
  8
Visible (ANSI)
100
AcDbVertex
100
AcDb2dVertex
 10
125.4114825498155
 20
40.77341059798497
 30
0.0
  0
VERTEX
  5
216
330
203
100
AcDbEntity
  8
Visible (ANSI)
100
AcDbVertex
100
AcDb2dVertex
 10
125.4204999405792
 20
40.76859070153149
 30
0.0
  0
VERTEX
  5
217
330
203
100
AcDbEntity
  8
Visible (ANSI)
100
AcDbVertex
100
AcDb2dVertex
 10
125.4298132631242
 20
40.76437088994578
 30
0.0
  0
VERTEX
  5
218
330
203
100
AcDbEntity
  8
Visible (ANSI)
100
AcDbVertex
100
AcDb2dVertex
 10
125.439382633378
 20
40.76076923381908
 30
0.0
  0
VERTEX
  5
219
330
203
100
AcDbEntity
  8
Visible (ANSI)
100
AcDbVertex
100
AcDb2dVertex
 10
125.4491670731473
 20
40.7578011564399
 30
0.0
  0
VERTEX
  5
21A
330
203
100
AcDbEntity
  8
Visible (ANSI)
100
AcDbVertex
100
AcDb2dVertex
 10
125.4591246862995
 20
40.75547936687808
 30
0.0
  0
VERTEX
  5
21B
330
203
100
AcDbEntity
  8
Visible (ANSI)
100
AcDbVertex
100
AcDb2dVertex
 10
125.4692128316437
 20
40.7538138072771
 30
0.0
  0
VERTEX
  5
21C
330
203
100
AcDbEntity
  8
Visible (ANSI)
100
AcDbVertex
100
AcDb2dVertex
 10
125.4793883102957
 20
40.75281161011498
 30
0.0
  0
VERTEX
  5
21D
330
203
100
AcDbEntity
  8
Visible (ANSI)
100
AcDbVertex
100
AcDb2dVertex
 10
125.4896075486422
 20
40.75247706687758
 30
0.0
  0
SEQEND
  5
206
330
203
100
AcDbEntity
  8
Visible (ANSI)
  0
LINE
  5
21E
330
6C
100
AcDbEntity
  8
Visible (ANSI)
100
AcDbLine
 10
125.4896075491115
 20
40.87747706687758
 30
0.0
 11
126.2083575491115
 21
40.87747706687758
 31
0.0
  0
LINE
  5
21F
330
6C
100
AcDbEntity
  8
Visible (ANSI)
100
AcDbLine
 10
125.4896075491115
 20
40.87747706687758
 30
0.0
 11
125.4896075491115
 21
40.75247706687758
 31
0.0
  0
POLYLINE
  5
220
330
6C
100
AcDbEntity
  8
Visible (ANSI)
100
AcDb2dPolyline
 66
     1
 10
0.0
 20
0.0
 30
0.0
 70
   128
  0
VERTEX
  5
221
330
220
100
AcDbEntity
  8
Visible (ANSI)
100
AcDbVertex
100
AcDb2dVertex
 10
125.4583575491115
 20
40.90872706453093
 30
0.0
  0
VERTEX
  5
222
330
220
100
AcDbEntity
  8
Visible (ANSI)
100
AcDbVertex
100
AcDb2dVertex
 10
125.4584244577578
 20
40.90668322360822
 30
0.0
  0
VERTEX
  5
224
330
220
100
AcDbEntity
  8
Visible (ANSI)
100
AcDbVertex
100
AcDb2dVertex
 10
125.458624897196
 20
40.90464812391787
 30
0.0
  0
VERTEX
  5
225
330
220
100
AcDbEntity
  8
Visible (ANSI)
100
AcDbVertex
100
AcDb2dVertex
 10
125.4589580091208
 20
40.90263049495902
 30
0.0
  0
VERTEX
  5
226
330
220
100
AcDbEntity
  8
Visible (ANSI)
100
AcDbVertex
100
AcDb2dVertex
 10
125.4594223670607
 20
40.90063897236527
 30
0.0
  0
VERTEX
  5
227
330
220
100
AcDbEntity
  8
Visible (ANSI)
100
AcDbVertex
100
AcDb2dVertex
 10
125.4600159825365
 20
40.89868208617138
 30
0.0
  0
VERTEX
  5
228
330
220
100
AcDbEntity
  8
Visible (ANSI)
100
AcDbVertex
100
AcDb2dVertex
 10
125.4607363137985
 20
40.89676821388059
 30
0.0
  0
VERTEX
  5
229
330
220
100
AcDbEntity
  8
Visible (ANSI)
100
AcDbVertex
100
AcDb2dVertex
 10
125.4615802761156
 20
40.89490554526497
 30
0.0
  0
VERTEX
  5
22A
330
220
100
AcDbEntity
  8
Visible (ANSI)
100
AcDbVertex
100
AcDb2dVertex
 10
125.462544255113
 20
40.8931020706322
 30
0.0
  0
VERTEX
  5
22B
330
220
100
AcDbEntity
  8
Visible (ANSI)
100
AcDbVertex
100
AcDb2dVertex
 10
125.4636241236383
 20
40.89136549869322
 30
0.0
  0
VERTEX
  5
22C
330
220
100
AcDbEntity
  8
Visible (ANSI)
100
AcDbVertex
100
AcDb2dVertex
 10
125.4648152569782
 20
40.88970326829545
 30
0.0
  0
VERTEX
  5
22D
330
220
100
AcDbEntity
  8
Visible (ANSI)
100
AcDbVertex
100
AcDb2dVertex
 10
125.4661125548584
 20
40.88812251322313
 30
0.0
  0
VERTEX
  5
22E
330
220
100
AcDbEntity
  8
Visible (ANSI)
100
AcDbVertex
100
AcDb2dVertex
 10
125.4675104619763
 20
40.886629980065
 30
0.0
  0
VERTEX
  5
22F
330
220
100
AcDbEntity
  8
Visible (ANSI)
100
AcDbVertex
100
AcDb2dVertex
 10
125.4690029922011
 20
40.88523207514706
 30
0.0
  0
VERTEX
  5
230
330
220
100
AcDbEntity
  8
Visible (ANSI)
100
AcDbVertex
100
AcDb2dVertex
 10
125.4705837546067
 20
40.88393477066696
 30
0.0
  0
VERTEX
  5
231
330
220
100
AcDbEntity
  8
Visible (ANSI)
100
AcDbVertex
100
AcDb2dVertex
 10
125.4722459798712
 20
40.88274363989366
 30
0.0
  0
VERTEX
  5
232
330
220
100
AcDbEntity
  8
Visible (ANSI)
100
AcDbVertex
100
AcDb2dVertex
 10
125.4739825488768
 20
40.88166377503503
 30
0.0
  0
VERTEX
  5
233
330
220
100
AcDbEntity
  8
Visible (ANSI)
100
AcDbVertex
100
AcDb2dVertex
 10
125.4757860279096
 20
40.88069979897096
 30
0.0
  0
VERTEX
  5
234
330
220
100
AcDbEntity
  8
Visible (ANSI)
100
AcDbVertex
100
AcDb2dVertex
 10
125.4776486921253
 20
40.8798558300539
 30
0.0
  0
VERTEX
  5
235
330
220
100
AcDbEntity
  8
Visible (ANSI)
100
AcDbVertex
100
AcDb2dVertex
 10
125.4795625658827
 20
40.87913550557515
 30
0.0
  0
VERTEX
  5
236
330
220
100
AcDbEntity
  8
Visible (ANSI)
100
AcDbVertex
100
AcDb2dVertex
 10
125.4815194535432
 20
40.87854188789934
 30
0.0
  0
VERTEX
  5
237
330
220
100
AcDbEntity
  8
Visible (ANSI)
100
AcDbVertex
100
AcDb2dVertex
 10
125.483510976137
 20
40.87807752313038
 30
0.0
  0
VERTEX
  5
238
330
220
100
AcDbEntity
  8
Visible (ANSI)
100
AcDbVertex
100
AcDb2dVertex
 10
125.4855286050958
 20
40.87774441764511
 30
0.0
  0
VERTEX
  5
239
330
220
100
AcDbEntity
  8
Visible (ANSI)
100
AcDbVertex
100
AcDb2dVertex
 10
125.4875637018529
 20
40.87754397942727
 30
0.0
  0
VERTEX
  5
23A
330
220
100
AcDbEntity
  8
Visible (ANSI)
100
AcDbVertex
100
AcDb2dVertex
 10
125.4896075486422
 20
40.87747706500026
 30
0.0
  0
SEQEND
  5
223
330
220
100
AcDbEntity
  8
Visible (ANSI)
  0
LINE
  5
23B
330
6C
100
AcDbEntity
  8
Visible (ANSI)
100
AcDbLine
 10
125.4583575491115
 20
40.90872706687758
 30
0.0
 11
125.4532321472382
 21
40.90872706687758
 31
0.0
  0
LINE
  5
23C
330
6C
100
AcDbEntity
  8
Visible (ANSI)
100
AcDbLine
 10
125.4532321472382
 20
40.90872706687758
 30
0.0
 11
125.3333575491115
 21
40.90872706687758
 31
0.0
  0
LINE
  5
23D
330
6C
100
AcDbEntity
  8
Visible (ANSI)
100
AcDbLine
 10
125.4896075491115
 20
40.75247706687758
 30
0.0
 11
126.2083575491115
 21
40.75247706687758
 31
0.0
  0
LINE
  5
23E
330
6C
100
AcDbEntity
  8
Visible (ANSI)
100
AcDbLine
 10
126.2083575491115
 20
40.87747706687758
 30
0.0
 11
126.2083575491115
 21
40.75247706687758
 31
0.0
  0
POLYLINE
  5
23F
330
6C
100
AcDbEntity
  8
Visible (ANSI)
100
AcDb2dPolyline
 66
     1
 10
0.0
 20
0.0
 30
0.0
 70
   128
  0
VERTEX
  5
240
330
23F
100
AcDbEntity
  8
Visible (ANSI)
100
AcDbVertex
100
AcDb2dVertex
 10
125.3333575509888
 20
79.59622670643374
 30
0.0
  0
VERTEX
  5
241
330
23F
100
AcDbEntity
  8
Visible (ANSI)
100
AcDbVertex
100
AcDb2dVertex
 10
125.3336920879243
 20
79.59384777711533
 30
0.0
  0
VERTEX
  5
243
330
23F
100
AcDbEntity
  8
Visible (ANSI)
100
AcDbVertex
100
AcDb2dVertex
 10
125.3346942907467
 20
79.59146584409829
 30
0.0
  0
VERTEX
  5
244
330
23F
100
AcDbEntity
  8
Visible (ANSI)
100
AcDbVertex
100
AcDb2dVertex
 10
125.3363598533727
 20
79.58908391108126
 30
0.0
  0
VERTEX
  5
245
330
23F
100
AcDbEntity
  8
Visible (ANSI)
100
AcDbVertex
100
AcDb2dVertex
 10
125.3386816420178
 20
79.58670498176285
 30
0.0
  0
VERTEX
  5
246
330
23F
100
AcDbEntity
  8
Visible (ANSI)
100
AcDbVertex
100
AcDb2dVertex
 10
125.3416497186637
 20
79.58432304874581
 30
0.0
  0
VERTEX
  5
247
330
23F
100
AcDbEntity
  8
Visible (ANSI)
100
AcDbVertex
100
AcDb2dVertex
 10
125.345251376257
 20
79.58194111572876
 30
0.0
  0
VERTEX
  5
248
330
23F
100
AcDbEntity
  8
Visible (ANSI)
100
AcDbVertex
100
AcDb2dVertex
 10
125.3494711856428
 20
79.57956218641036
 30
0.0
  0
VERTEX
  5
249
330
23F
100
AcDbEntity
  8
Visible (ANSI)
100
AcDbVertex
100
AcDb2dVertex
 10
125.3542910776963
 20
79.57718025339332
 30
0.0
  0
VERTEX
  5
24A
330
23F
100
AcDbEntity
  8
Visible (ANSI)
100
AcDbVertex
100
AcDb2dVertex
 10
125.3596904254559
 20
79.57480132407491
 30
0.0
  0
VERTEX
  5
24B
330
23F
100
AcDbEntity
  8
Visible (ANSI)
100
AcDbVertex
100
AcDb2dVertex
 10
125.3656460910556
 20
79.57241939105788
 30
0.0
  0
VERTEX
  5
24C
330
23F
100
AcDbEntity
  8
Visible (ANSI)
100
AcDbVertex
100
AcDb2dVertex
 10
125.3721325782565
 20
79.57003745804083
 30
0.0
  0
VERTEX
  5
24D
330
23F
100
AcDbEntity
  8
Visible (ANSI)
100
AcDbVertex
100
AcDb2dVertex
 10
125.3791221145794
 20
79.56765852872242
 30
0.0
  0
VERTEX
  5
24E
330
23F
100
AcDbEntity
  8
Visible (ANSI)
100
AcDbVertex
100
AcDb2dVertex
 10
125.3865847627702
 20
79.56527659570538
 30
0.0
  0
VERTEX
  5
24F
330
23F
100
AcDbEntity
  8
Visible (ANSI)
100
AcDbVertex
100
AcDb2dVertex
 10
125.3944885733314
 20
79.56289766638697
 30
0.0
  0
VERTEX
  5
250
330
23F
100
AcDbEntity
  8
Visible (ANSI)
100
AcDbVertex
100
AcDb2dVertex
 10
125.4027997018539
 20
79.56051573336994
 30
0.0
  0
VERTEX
  5
251
330
23F
100
AcDbEntity
  8
Visible (ANSI)
100
AcDbVertex
100
AcDb2dVertex
 10
125.4114825498156
 20
79.55813380035291
 30
0.0
  0
VERTEX
  5
252
330
23F
100
AcDbEntity
  8
Visible (ANSI)
100
AcDbVertex
100
AcDb2dVertex
 10
125.4204999405792
 20
79.55575487103449
 30
0.0
  0
VERTEX
  5
253
330
23F
100
AcDbEntity
  8
Visible (ANSI)
100
AcDbVertex
100
AcDb2dVertex
 10
125.4298132631243
 20
79.55337293801746
 30
0.0
  0
VERTEX
  5
254
330
23F
100
AcDbEntity
  8
Visible (ANSI)
100
AcDbVertex
100
AcDb2dVertex
 10
125.4393826333781
 20
79.55099400869904
 30
0.0
  0
VERTEX
  5
255
330
23F
100
AcDbEntity
  8
Visible (ANSI)
100
AcDbVertex
100
AcDb2dVertex
 10
125.4491670731474
 20
79.54861207568201
 30
0.0
  0
VERTEX
  5
256
330
23F
100
AcDbEntity
  8
Visible (ANSI)
100
AcDbVertex
100
AcDb2dVertex
 10
125.4591246862996
 20
79.54623014266498
 30
0.0
  0
VERTEX
  5
257
330
23F
100
AcDbEntity
  8
Visible (ANSI)
100
AcDbVertex
100
AcDb2dVertex
 10
125.4692128316438
 20
79.54385121334657
 30
0.0
  0
VERTEX
  5
258
330
23F
100
AcDbEntity
  8
Visible (ANSI)
100
AcDbVertex
100
AcDb2dVertex
 10
125.4793883102957
 20
79.54146928032954
 30
0.0
  0
VERTEX
  5
259
330
23F
100
AcDbEntity
  8
Visible (ANSI)
100
AcDbVertex
100
AcDb2dVertex
 10
125.4896075486423
 20
79.53908734731249
 30
0.0
  0
SEQEND
  5
242
330
23F
100
AcDbEntity
  8
Visible (ANSI)
  0
POLYLINE
  5
25A
330
6C
100
AcDbEntity
  8
Visible (ANSI)
100
AcDb2dPolyline
 66
     1
 10
0.0
 20
0.0
 30
0.0
 70
   128
  0
VERTEX
  5
25B
330
25A
100
AcDbEntity
  8
Visible (ANSI)
100
AcDbVertex
100
AcDb2dVertex
 10
125.4896075486423
 20
40.96586540286398
 30
0.0
  0
VERTEX
  5
25C
330
25A
100
AcDbEntity
  8
Visible (ANSI)
100
AcDbVertex
100
AcDb2dVertex
 10
125.4793883102957
 20
40.96348464316671
 30
0.0
  0
VERTEX
  5
25E
330
25A
100
AcDbEntity
  8
Visible (ANSI)
100
AcDbVertex
100
AcDb2dVertex
 10
125.4692128316438
 20
40.96110388346945
 30
0.0
  0
VERTEX
  5
25F
330
25A
100
AcDbEntity
  8
Visible (ANSI)
100
AcDbVertex
100
AcDb2dVertex
 10
125.4591246862996
 20
40.95872312377219
 30
0.0
  0
VERTEX
  5
260
330
25A
100
AcDbEntity
  8
Visible (ANSI)
100
AcDbVertex
100
AcDb2dVertex
 10
125.4491670731474
 20
40.95634236407493
 30
0.0
  0
VERTEX
  5
261
330
25A
100
AcDbEntity
  8
Visible (ANSI)
100
AcDbVertex
100
AcDb2dVertex
 10
125.4393826333781
 20
40.95396158091127
 30
0.0
  0
VERTEX
  5
262
330
25A
100
AcDbEntity
  8
Visible (ANSI)
100
AcDbVertex
100
AcDb2dVertex
 10
125.4298132631243
 20
40.95158082121401
 30
0.0
  0
VERTEX
  5
263
330
25A
100
AcDbEntity
  8
Visible (ANSI)
100
AcDbVertex
100
AcDb2dVertex
 10
125.4204999405792
 20
40.94920006151675
 30
0.0
  0
VERTEX
  5
264
330
25A
100
AcDbEntity
  8
Visible (ANSI)
100
AcDbVertex
100
AcDb2dVertex
 10
125.4114825498156
 20
40.94681930181949
 30
0.0
  0
VERTEX
  5
265
330
25A
100
AcDbEntity
  8
Visible (ANSI)
100
AcDbVertex
100
AcDb2dVertex
 10
125.4027997018539
 20
40.94443853038903
 30
0.0
  0
VERTEX
  5
266
330
25A
100
AcDbEntity
  8
Visible (ANSI)
100
AcDbVertex
100
AcDb2dVertex
 10
125.3944885733314
 20
40.94205777069177
 30
0.0
  0
VERTEX
  5
267
330
25A
100
AcDbEntity
  8
Visible (ANSI)
100
AcDbVertex
100
AcDb2dVertex
 10
125.3865847627702
 20
40.93967701099451
 30
0.0
  0
VERTEX
  5
268
330
25A
100
AcDbEntity
  8
Visible (ANSI)
100
AcDbVertex
100
AcDb2dVertex
 10
125.3791221145794
 20
40.93729623956405
 30
0.0
  0
VERTEX
  5
269
330
25A
100
AcDbEntity
  8
Visible (ANSI)
100
AcDbVertex
100
AcDb2dVertex
 10
125.3721325782565
 20
40.93491547986679
 30
0.0
  0
VERTEX
  5
26A
330
25A
100
AcDbEntity
  8
Visible (ANSI)
100
AcDbVertex
100
AcDb2dVertex
 10
125.3656460910556
 20
40.93253470843634
 30
0.0
  0
VERTEX
  5
26B
330
25A
100
AcDbEntity
  8
Visible (ANSI)
100
AcDbVertex
100
AcDb2dVertex
 10
125.3596904254559
 20
40.93015394873907
 30
0.0
  0
VERTEX
  5
26C
330
25A
100
AcDbEntity
  8
Visible (ANSI)
100
AcDbVertex
100
AcDb2dVertex
 10
125.3542910776963
 20
40.92777317730861
 30
0.0
  0
VERTEX
  5
26D
330
25A
100
AcDbEntity
  8
Visible (ANSI)
100
AcDbVertex
100
AcDb2dVertex
 10
125.3494711856428
 20
40.92539241761135
 30
0.0
  0
VERTEX
  5
26E
330
25A
100
AcDbEntity
  8
Visible (ANSI)
100
AcDbVertex
100
AcDb2dVertex
 10
125.345251376257
 20
40.92301165791409
 30
0.0
  0
VERTEX
  5
26F
330
25A
100
AcDbEntity
  8
Visible (ANSI)
100
AcDbVertex
100
AcDb2dVertex
 10
125.3416497186637
 20
40.92063088648363
 30
0.0
  0
VERTEX
  5
270
330
25A
100
AcDbEntity
  8
Visible (ANSI)
100
AcDbVertex
100
AcDb2dVertex
 10
125.3386816420178
 20
40.91825012678637
 30
0.0
  0
VERTEX
  5
271
330
25A
100
AcDbEntity
  8
Visible (ANSI)
100
AcDbVertex
100
AcDb2dVertex
 10
125.3363598533727
 20
40.9158693553559
 30
0.0
  0
VERTEX
  5
272
330
25A
100
AcDbEntity
  8
Visible (ANSI)
100
AcDbVertex
100
AcDb2dVertex
 10
125.3346942907467
 20
40.91348859565864
 30
0.0
  0
VERTEX
  5
273
330
25A
100
AcDbEntity
  8
Visible (ANSI)
100
AcDbVertex
100
AcDb2dVertex
 10
125.3336920879243
 20
40.91110783596139
 30
0.0
  0
VERTEX
  5
274
330
25A
100
AcDbEntity
  8
Visible (ANSI)
100
AcDbVertex
100
AcDb2dVertex
 10
125.3333575509888
 20
40.90872706453093
 30
0.0
  0
SEQEND
  5
25D
330
25A
100
AcDbEntity
  8
Visible (ANSI)
  0
LINE
  5
275
330
6C
100
AcDbEntity
  8
Visible (ANSI)
100
AcDbLine
 10
126.2083575491116
 20
40.96586541452589
 30
0.0
 11
125.4896075491116
 21
40.9658654145259
 31
0.0
  0
POLYLINE
  5
276
330
6C
100
AcDbEntity
  8
Visible (ANSI)
100
AcDb2dPolyline
 66
     1
 10
0.0
 20
0.0
 30
0.0
 70
   128
  0
VERTEX
  5
277
330
276
100
AcDbEntity
  8
Visible (ANSI)
100
AcDbVertex
100
AcDb2dVertex
 10
125.4583575491115
 20
40.90872706453093
 30
0.0
  0
VERTEX
  5
278
330
276
100
AcDbEntity
  8
Visible (ANSI)
100
AcDbVertex
100
AcDb2dVertex
 10
125.4584244577579
 20
40.91110783596139
 30
0.0
  0
VERTEX
  5
27A
330
276
100
AcDbEntity
  8
Visible (ANSI)
100
AcDbVertex
100
AcDb2dVertex
 10
125.458624897196
 20
40.91348859565864
 30
0.0
  0
VERTEX
  5
27B
330
276
100
AcDbEntity
  8
Visible (ANSI)
100
AcDbVertex
100
AcDb2dVertex
 10
125.4589580091208
 20
40.9158693553559
 30
0.0
  0
VERTEX
  5
27C
330
276
100
AcDbEntity
  8
Visible (ANSI)
100
AcDbVertex
100
AcDb2dVertex
 10
125.4594223670607
 20
40.91825012678637
 30
0.0
  0
VERTEX
  5
27D
330
276
100
AcDbEntity
  8
Visible (ANSI)
100
AcDbVertex
100
AcDb2dVertex
 10
125.4600159825365
 20
40.92063088648363
 30
0.0
  0
VERTEX
  5
27E
330
276
100
AcDbEntity
  8
Visible (ANSI)
100
AcDbVertex
100
AcDb2dVertex
 10
125.4607363137985
 20
40.92301165791409
 30
0.0
  0
VERTEX
  5
27F
330
276
100
AcDbEntity
  8
Visible (ANSI)
100
AcDbVertex
100
AcDb2dVertex
 10
125.4615802761156
 20
40.92539241761135
 30
0.0
  0
VERTEX
  5
280
330
276
100
AcDbEntity
  8
Visible (ANSI)
100
AcDbVertex
100
AcDb2dVertex
 10
125.462544255113
 20
40.92777317730861
 30
0.0
  0
VERTEX
  5
281
330
276
100
AcDbEntity
  8
Visible (ANSI)
100
AcDbVertex
100
AcDb2dVertex
 10
125.4636241236383
 20
40.93015394873907
 30
0.0
  0
VERTEX
  5
282
330
276
100
AcDbEntity
  8
Visible (ANSI)
100
AcDbVertex
100
AcDb2dVertex
 10
125.4648152569782
 20
40.93253470843634
 30
0.0
  0
VERTEX
  5
283
330
276
100
AcDbEntity
  8
Visible (ANSI)
100
AcDbVertex
100
AcDb2dVertex
 10
125.4661125548584
 20
40.93491547986679
 30
0.0
  0
VERTEX
  5
284
330
276
100
AcDbEntity
  8
Visible (ANSI)
100
AcDbVertex
100
AcDb2dVertex
 10
125.4675104619763
 20
40.93729623956405
 30
0.0
  0
VERTEX
  5
285
330
276
100
AcDbEntity
  8
Visible (ANSI)
100
AcDbVertex
100
AcDb2dVertex
 10
125.4690029922011
 20
40.93967701099451
 30
0.0
  0
VERTEX
  5
286
330
276
100
AcDbEntity
  8
Visible (ANSI)
100
AcDbVertex
100
AcDb2dVertex
 10
125.4705837546067
 20
40.94205777069177
 30
0.0
  0
VERTEX
  5
287
330
276
100
AcDbEntity
  8
Visible (ANSI)
100
AcDbVertex
100
AcDb2dVertex
 10
125.4722459798712
 20
40.94443853038903
 30
0.0
  0
VERTEX
  5
288
330
276
100
AcDbEntity
  8
Visible (ANSI)
100
AcDbVertex
100
AcDb2dVertex
 10
125.4739825488769
 20
40.94681930181949
 30
0.0
  0
VERTEX
  5
289
330
276
100
AcDbEntity
  8
Visible (ANSI)
100
AcDbVertex
100
AcDb2dVertex
 10
125.4757860279096
 20
40.94920006151675
 30
0.0
  0
VERTEX
  5
28A
330
276
100
AcDbEntity
  8
Visible (ANSI)
100
AcDbVertex
100
AcDb2dVertex
 10
125.4776486921253
 20
40.95158082121401
 30
0.0
  0
VERTEX
  5
28B
330
276
100
AcDbEntity
  8
Visible (ANSI)
100
AcDbVertex
100
AcDb2dVertex
 10
125.4795625658827
 20
40.95396158091127
 30
0.0
  0
VERTEX
  5
28C
330
276
100
AcDbEntity
  8
Visible (ANSI)
100
AcDbVertex
100
AcDb2dVertex
 10
125.4815194535432
 20
40.95634236407493
 30
0.0
  0
VERTEX
  5
28D
330
276
100
AcDbEntity
  8
Visible (ANSI)
100
AcDbVertex
100
AcDb2dVertex
 10
125.483510976137
 20
40.95872312377219
 30
0.0
  0
VERTEX
  5
28E
330
276
100
AcDbEntity
  8
Visible (ANSI)
100
AcDbVertex
100
AcDb2dVertex
 10
125.4855286050958
 20
40.96110388346945
 30
0.0
  0
VERTEX
  5
28F
330
276
100
AcDbEntity
  8
Visible (ANSI)
100
AcDbVertex
100
AcDb2dVertex
 10
125.4875637018529
 20
40.96348464316671
 30
0.0
  0
VERTEX
  5
290
330
276
100
AcDbEntity
  8
Visible (ANSI)
100
AcDbVertex
100
AcDb2dVertex
 10
125.4896075486422
 20
40.96586540286398
 30
0.0
  0
SEQEND
  5
279
330
276
100
AcDbEntity
  8
Visible (ANSI)
  0
POLYLINE
  5
291
330
6C
100
AcDbEntity
  8
Visible (ANSI)
100
AcDb2dPolyline
 66
     1
 10
0.0
 20
0.0
 30
0.0
 70
   128
  0
VERTEX
  5
292
330
291
100
AcDbEntity
  8
Visible (ANSI)
100
AcDbVertex
100
AcDb2dVertex
 10
125.4583575491115
 20
79.59622670643374
 30
0.0
  0
VERTEX
  5
293
330
291
100
AcDbEntity
  8
Visible (ANSI)
100
AcDbVertex
100
AcDb2dVertex
 10
125.4584244577579
 20
79.59384777711533
 30
0.0
  0
VERTEX
  5
295
330
291
100
AcDbEntity
  8
Visible (ANSI)
100
AcDbVertex
100
AcDb2dVertex
 10
125.458624897196
 20
79.59146584409829
 30
0.0
  0
VERTEX
  5
296
330
291
100
AcDbEntity
  8
Visible (ANSI)
100
AcDbVertex
100
AcDb2dVertex
 10
125.4589580091208
 20
79.58908391108126
 30
0.0
  0
VERTEX
  5
297
330
291
100
AcDbEntity
  8
Visible (ANSI)
100
AcDbVertex
100
AcDb2dVertex
 10
125.4594223670607
 20
79.58670498176285
 30
0.0
  0
VERTEX
  5
298
330
291
100
AcDbEntity
  8
Visible (ANSI)
100
AcDbVertex
100
AcDb2dVertex
 10
125.4600159825365
 20
79.58432304874581
 30
0.0
  0
VERTEX
  5
299
330
291
100
AcDbEntity
  8
Visible (ANSI)
100
AcDbVertex
100
AcDb2dVertex
 10
125.4607363137985
 20
79.58194111572876
 30
0.0
  0
VERTEX
  5
29A
330
291
100
AcDbEntity
  8
Visible (ANSI)
100
AcDbVertex
100
AcDb2dVertex
 10
125.4615802761156
 20
79.57956218641036
 30
0.0
  0
VERTEX
  5
29B
330
291
100
AcDbEntity
  8
Visible (ANSI)
100
AcDbVertex
100
AcDb2dVertex
 10
125.462544255113
 20
79.57718025339332
 30
0.0
  0
VERTEX
  5
29C
330
291
100
AcDbEntity
  8
Visible (ANSI)
100
AcDbVertex
100
AcDb2dVertex
 10
125.4636241236383
 20
79.57480132407491
 30
0.0
  0
VERTEX
  5
29D
330
291
100
AcDbEntity
  8
Visible (ANSI)
100
AcDbVertex
100
AcDb2dVertex
 10
125.4648152569782
 20
79.57241939105788
 30
0.0
  0
VERTEX
  5
29E
330
291
100
AcDbEntity
  8
Visible (ANSI)
100
AcDbVertex
100
AcDb2dVertex
 10
125.4661125548584
 20
79.57003745804083
 30
0.0
  0
VERTEX
  5
29F
330
291
100
AcDbEntity
  8
Visible (ANSI)
100
AcDbVertex
100
AcDb2dVertex
 10
125.4675104619763
 20
79.56765852872242
 30
0.0
  0
VERTEX
  5
2A0
330
291
100
AcDbEntity
  8
Visible (ANSI)
100
AcDbVertex
100
AcDb2dVertex
 10
125.4690029922011
 20
79.56527659570538
 30
0.0
  0
VERTEX
  5
2A1
330
291
100
AcDbEntity
  8
Visible (ANSI)
100
AcDbVertex
100
AcDb2dVertex
 10
125.4705837546067
 20
79.56289766638697
 30
0.0
  0
VERTEX
  5
2A2
330
291
100
AcDbEntity
  8
Visible (ANSI)
100
AcDbVertex
100
AcDb2dVertex
 10
125.4722459798712
 20
79.56051573336994
 30
0.0
  0
VERTEX
  5
2A3
330
291
100
AcDbEntity
  8
Visible (ANSI)
100
AcDbVertex
100
AcDb2dVertex
 10
125.4739825488769
 20
79.55813380035291
 30
0.0
  0
VERTEX
  5
2A4
330
291
100
AcDbEntity
  8
Visible (ANSI)
100
AcDbVertex
100
AcDb2dVertex
 10
125.4757860279096
 20
79.55575487103449
 30
0.0
  0
VERTEX
  5
2A5
330
291
100
AcDbEntity
  8
Visible (ANSI)
100
AcDbVertex
100
AcDb2dVertex
 10
125.4776486921253
 20
79.55337293801746
 30
0.0
  0
VERTEX
  5
2A6
330
291
100
AcDbEntity
  8
Visible (ANSI)
100
AcDbVertex
100
AcDb2dVertex
 10
125.4795625658827
 20
79.55099400869904
 30
0.0
  0
VERTEX
  5
2A7
330
291
100
AcDbEntity
  8
Visible (ANSI)
100
AcDbVertex
100
AcDb2dVertex
 10
125.4815194535432
 20
79.54861207568201
 30
0.0
  0
VERTEX
  5
2A8
330
291
100
AcDbEntity
  8
Visible (ANSI)
100
AcDbVertex
100
AcDb2dVertex
 10
125.483510976137
 20
79.54623014266498
 30
0.0
  0
VERTEX
  5
2A9
330
291
100
AcDbEntity
  8
Visible (ANSI)
100
AcDbVertex
100
AcDb2dVertex
 10
125.4855286050958
 20
79.54385121334657
 30
0.0
  0
VERTEX
  5
2AA
330
291
100
AcDbEntity
  8
Visible (ANSI)
100
AcDbVertex
100
AcDb2dVertex
 10
125.4875637018529
 20
79.54146928032954
 30
0.0
  0
VERTEX
  5
2AB
330
291
100
AcDbEntity
  8
Visible (ANSI)
100
AcDbVertex
100
AcDb2dVertex
 10
125.4896075486422
 20
79.53908734731249
 30
0.0
  0
SEQEND
  5
294
330
291
100
AcDbEntity
  8
Visible (ANSI)
  0
LINE
  5
2AC
330
6C
100
AcDbEntity
  8
Visible (ANSI)
100
AcDbLine
 10
125.4583575491115
 20
79.59622706687756
 30
0.0
 11
125.4532321472382
 21
79.59622706687756
 31
0.0
  0
LINE
  5
2AD
330
6C
100
AcDbEntity
  8
Visible (ANSI)
100
AcDbLine
 10
125.4532321472382
 20
79.59622706687756
 30
0.0
 11
125.3333575491115
 21
79.59622706687756
 31
0.0
  0
LINE
  5
2AE
330
6C
100
AcDbEntity
  8
Visible (ANSI)
100
AcDbLine
 10
125.4896075491116
 20
79.53908871922926
 30
0.0
 11
126.2083575491116
 21
79.53908871922926
 31
0.0
  0
POLYLINE
  5
2AF
330
6C
100
AcDbEntity
  8
Visible (ANSI)
100
AcDb2dPolyline
 66
     1
 10
0.0
 20
0.0
 30
0.0
 70
   128
  0
VERTEX
  5
2B0
330
2AF
100
AcDbEntity
  8
Visible (ANSI)
100
AcDbVertex
100
AcDb2dVertex
 10
125.4896075486422
 20
79.75247610569401
 30
0.0
  0
VERTEX
  5
2B1
330
2AF
100
AcDbEntity
  8
Visible (ANSI)
100
AcDbVertex
100
AcDb2dVertex
 10
125.4793883102957
 20
79.75214269514559
 30
0.0
  0
VERTEX
  5
2B3
330
2AF
100
AcDbEntity
  8
Visible (ANSI)
100
AcDbVertex
100
AcDb2dVertex
 10
125.4692128316437
 20
79.75113945980172
 30
0.0
  0
VERTEX
  5
2B4
330
2AF
100
AcDbEntity
  8
Visible (ANSI)
100
AcDbVertex
100
AcDb2dVertex
 10
125.4591246862995
 20
79.74947541075829
 30
0.0
  0
VERTEX
  5
2B5
330
2AF
100
AcDbEntity
  8
Visible (ANSI)
100
AcDbVertex
100
AcDb2dVertex
 10
125.4491670731473
 20
79.74715355171394
 30
0.0
  0
VERTEX
  5
2B6
330
2AF
100
AcDbEntity
  8
Visible (ANSI)
100
AcDbVertex
100
AcDb2dVertex
 10
125.439382633378
 20
79.7441858974632
 30
0.0
  0
VERTEX
  5
2B7
330
2AF
100
AcDbEntity
  8
Visible (ANSI)
100
AcDbVertex
100
AcDb2dVertex
 10
125.4298132631242
 20
79.74058446280061
 30
0.0
  0
VERTEX
  5
2B8
330
2AF
100
AcDbEntity
  8
Visible (ANSI)
100
AcDbVertex
100
AcDb2dVertex
 10
125.4204999405792
 20
79.73636426621934
 30
0.0
  0
VERTEX
  5
2B9
330
2AF
100
AcDbEntity
  8
Visible (ANSI)
100
AcDbVertex
100
AcDb2dVertex
 10
125.4114825498155
 20
79.73154332991121
 30
0.0
  0
VERTEX
  5
2BA
330
2AF
100
AcDbEntity
  8
Visible (ANSI)
100
AcDbVertex
100
AcDb2dVertex
 10
125.4027997018538
 20
79.72614568346529
 30
0.0
  0
VERTEX
  5
2BB
330
2AF
100
AcDbEntity
  8
Visible (ANSI)
100
AcDbVertex
100
AcDb2dVertex
 10
125.3944885733314
 20
79.72018934907338
 30
0.0
  0
VERTEX
  5
2BC
330
2AF
100
AcDbEntity
  8
Visible (ANSI)
100
AcDbVertex
100
AcDb2dVertex
 10
125.3865847627702
 20
79.71370136002318
 30
0.0
  0
VERTEX
  5
2BD
330
2AF
100
AcDbEntity
  8
Visible (ANSI)
100
AcDbVertex
100
AcDb2dVertex
 10
125.3791221145793
 20
79.70671175330105
 30
0.0
  0
VERTEX
  5
2BE
330
2AF
100
AcDbEntity
  8
Visible (ANSI)
100
AcDbVertex
100
AcDb2dVertex
 10
125.3721325782564
 20
79.69925056589332
 30
0.0
  0
VERTEX
  5
2BF
330
2AF
100
AcDbEntity
  8
Visible (ANSI)
100
AcDbVertex
100
AcDb2dVertex
 10
125.3656460910555
 20
79.69134483108772
 30
0.0
  0
VERTEX
  5
2C0
330
2AF
100
AcDbEntity
  8
Visible (ANSI)
100
AcDbVertex
100
AcDb2dVertex
 10
125.3596904254559
 20
79.68303359696645
 30
0.0
  0
VERTEX
  5
2C1
330
2AF
100
AcDbEntity
  8
Visible (ANSI)
100
AcDbVertex
100
AcDb2dVertex
 10
125.3542910776963
 20
79.67435290791319
 30
0.0
  0
VERTEX
  5
2C2
330
2AF
100
AcDbEntity
  8
Visible (ANSI)
100
AcDbVertex
100
AcDb2dVertex
 10
125.3494711856428
 20
79.66533580461287
 30
0.0
  0
VERTEX
  5
2C3
330
2AF
100
AcDbEntity
  8
Visible (ANSI)
100
AcDbVertex
100
AcDb2dVertex
 10
125.345251376257
 20
79.65602133514775
 30
0.0
  0
VERTEX
  5
2C4
330
2AF
100
AcDbEntity
  8
Visible (ANSI)
100
AcDbVertex
100
AcDb2dVertex
 10
125.3416497186637
 20
79.64645155129871
 30
0.0
  0
VERTEX
  5
2C5
330
2AF
100
AcDbEntity
  8
Visible (ANSI)
100
AcDbVertex
100
AcDb2dVertex
 10
125.3386816420178
 20
79.63666850484663
 30
0.0
  0
VERTEX
  5
2C6
330
2AF
100
AcDbEntity
  8
Visible (ANSI)
100
AcDbVertex
100
AcDb2dVertex
 10
125.3363598533727
 20
79.62671124387376
 30
0.0
  0
VERTEX
  5
2C7
330
2AF
100
AcDbEntity
  8
Visible (ANSI)
100
AcDbVertex
100
AcDb2dVertex
 10
125.3346942907467
 20
79.61662182016097
 30
0.0
  0
VERTEX
  5
2C8
330
2AF
100
AcDbEntity
  8
Visible (ANSI)
100
AcDbVertex
100
AcDb2dVertex
 10
125.3336920879242
 20
79.60644528918779
 30
0.0
  0
VERTEX
  5
2C9
330
2AF
100
AcDbEntity
  8
Visible (ANSI)
100
AcDbVertex
100
AcDb2dVertex
 10
125.3333575509888
 20
79.59622670643374
 30
0.0
  0
SEQEND
  5
2B2
330
2AF
100
AcDbEntity
  8
Visible (ANSI)
  0
LINE
  5
2CA
330
6C
100
AcDbEntity
  8
Visible (ANSI)
100
AcDbLine
 10
125.4896075491115
 20
79.62747706687757
 30
0.0
 11
126.2083575491115
 21
79.62747706687757
 31
0.0
  0
LINE
  5
2CB
330
6C
100
AcDbEntity
  8
Visible (ANSI)
100
AcDbLine
 10
126.2083575491115
 20
79.75247706687757
 30
0.0
 11
125.4896075491115
 21
79.75247706687757
 31
0.0
  0
LINE
  5
2CC
330
6C
100
AcDbEntity
  8
Visible (ANSI)
100
AcDbLine
 10
125.4896075491115
 20
79.62747706687757
 30
0.0
 11
125.4896075491115
 21
79.75247706687757
 31
0.0
  0
LINE
  5
2CD
330
6C
100
AcDbEntity
  8
Visible (ANSI)
100
AcDbLine
 10
126.2083575491115
 20
79.62747706687757
 30
0.0
 11
126.2083575491115
 21
79.75247706687757
 31
0.0
  0
POLYLINE
  5
2CE
330
6C
100
AcDbEntity
  8
Visible (ANSI)
100
AcDb2dPolyline
 66
     1
 10
0.0
 20
0.0
 30
0.0
 70
   128
  0
VERTEX
  5
2CF
330
2CE
100
AcDbEntity
  8
Visible (ANSI)
100
AcDbVertex
100
AcDb2dVertex
 10
125.4583575491115
 20
79.59622670643374
 30
0.0
  0
VERTEX
  5
2D0
330
2CE
100
AcDbEntity
  8
Visible (ANSI)
100
AcDbVertex
100
AcDb2dVertex
 10
125.4584244577578
 20
79.59827222520373
 30
0.0
  0
VERTEX
  5
2D2
330
2CE
100
AcDbEntity
  8
Visible (ANSI)
100
AcDbVertex
100
AcDb2dVertex
 10
125.458624897196
 20
79.60030572917919
 30
0.0
  0
VERTEX
  5
2D3
330
2CE
100
AcDbEntity
  8
Visible (ANSI)
100
AcDbVertex
100
AcDb2dVertex
 10
125.4589580091208
 20
79.60232421466146
 30
0.0
  0
VERTEX
  5
2D4
330
2CE
100
AcDbEntity
  8
Visible (ANSI)
100
AcDbVertex
100
AcDb2dVertex
 10
125.4594223670607
 20
79.60431566685605
 30
0.0
  0
VERTEX
  5
2D5
330
2CE
100
AcDbEntity
  8
Visible (ANSI)
100
AcDbVertex
100
AcDb2dVertex
 10
125.4600159825365
 20
79.606271074667
 30
0.0
  0
VERTEX
  5
2D6
330
2CE
100
AcDbEntity
  8
Visible (ANSI)
100
AcDbVertex
100
AcDb2dVertex
 10
125.4607363137985
 20
79.60818443069709
 30
0.0
  0
VERTEX
  5
2D7
330
2CE
100
AcDbEntity
  8
Visible (ANSI)
100
AcDbVertex
100
AcDb2dVertex
 10
125.4615802761156
 20
79.61004972754901
 30
0.0
  0
VERTEX
  5
2D8
330
2CE
100
AcDbEntity
  8
Visible (ANSI)
100
AcDbVertex
100
AcDb2dVertex
 10
125.462544255113
 20
79.61185194672963
 30
0.0
  0
VERTEX
  5
2D9
330
2CE
100
AcDbEntity
  8
Visible (ANSI)
100
AcDbVertex
100
AcDb2dVertex
 10
125.4636241236383
 20
79.61358808454028
 30
0.0
  0
VERTEX
  5
2DA
330
2CE
100
AcDbEntity
  8
Visible (ANSI)
100
AcDbVertex
100
AcDb2dVertex
 10
125.4648152569782
 20
79.6152521335837
 30
0.0
  0
VERTEX
  5
2DB
330
2CE
100
AcDbEntity
  8
Visible (ANSI)
100
AcDbVertex
100
AcDb2dVertex
 10
125.4661125548584
 20
79.61683207906538
 30
0.0
  0
VERTEX
  5
2DC
330
2CE
100
AcDbEntity
  8
Visible (ANSI)
100
AcDbVertex
100
AcDb2dVertex
 10
125.4675104619763
 20
79.61832491728666
 30
0.0
  0
VERTEX
  5
2DD
330
2CE
100
AcDbEntity
  8
Visible (ANSI)
100
AcDbVertex
100
AcDb2dVertex
 10
125.4690029922011
 20
79.61972163715163
 30
0.0
  0
VERTEX
  5
2DE
330
2CE
100
AcDbEntity
  8
Visible (ANSI)
100
AcDbVertex
100
AcDb2dVertex
 10
125.4705837546067
 20
79.62101923496165
 30
0.0
  0
VERTEX
  5
2DF
330
2CE
100
AcDbEntity
  8
Visible (ANSI)
100
AcDbVertex
100
AcDb2dVertex
 10
125.4722459798712
 20
79.6222117033195
 30
0.0
  0
VERTEX
  5
2E0
330
2CE
100
AcDbEntity
  8
Visible (ANSI)
100
AcDbVertex
100
AcDb2dVertex
 10
125.4739825488768
 20
79.62329003112923
 30
0.0
  0
VERTEX
  5
2E1
330
2CE
100
AcDbEntity
  8
Visible (ANSI)
100
AcDbVertex
100
AcDb2dVertex
 10
125.4757860279096
 20
79.62425421839085
 30
0.0
  0
VERTEX
  5
2E2
330
2CE
100
AcDbEntity
  8
Visible (ANSI)
100
AcDbVertex
100
AcDb2dVertex
 10
125.4776486921253
 20
79.62509825770712
 30
0.0
  0
VERTEX
  5
2E3
330
2CE
100
AcDbEntity
  8
Visible (ANSI)
100
AcDbVertex
100
AcDb2dVertex
 10
125.4795625658827
 20
79.62581914537935
 30
0.0
  0
VERTEX
  5
2E4
330
2CE
100
AcDbEntity
  8
Visible (ANSI)
100
AcDbVertex
100
AcDb2dVertex
 10
125.4815194535432
 20
79.62641087401031
 30
0.0
  0
VERTEX
  5
2E5
330
2CE
100
AcDbEntity
  8
Visible (ANSI)
100
AcDbVertex
100
AcDb2dVertex
 10
125.483510976137
 20
79.62687644729864
 30
0.0
  0
VERTEX
  5
2E6
330
2CE
100
AcDbEntity
  8
Visible (ANSI)
100
AcDbVertex
100
AcDb2dVertex
 10
125.4855286050958
 20
79.62720985784706
 30
0.0
  0
VERTEX
  5
2E7
330
2CE
100
AcDbEntity
  8
Visible (ANSI)
100
AcDbVertex
100
AcDb2dVertex
 10
125.4875637018529
 20
79.62741110565557
 30
0.0
  0
VERTEX
  5
2E8
330
2CE
100
AcDbEntity
  8
Visible (ANSI)
100
AcDbVertex
100
AcDb2dVertex
 10
125.4896075486422
 20
79.62747718702551
 30
0.0
  0
SEQEND
  5
2D1
330
2CE
100
AcDbEntity
  8
Visible (ANSI)
  0
LINE
  5
2E9
330
6C
100
AcDbEntity
  8
Visible (ANSI)
100
AcDbLine
 10
125.3333575491115
 20
40.90872706687758
 30
0.0
 11
125.3333575491115
 21
79.59622706687756
 31
0.0
  0
LINE
  5
2EA
330
6C
100
AcDbEntity
  8
Visible (ANSI)
100
AcDbLine
 10
126.2083575491116
 20
79.53908871922926
 30
0.0
 11
126.2083575491116
 21
40.9658654145259
 31
0.0
  0
MTEXT
  5
2EB
330
6C
100
AcDbEntity
  8
Symbol (ANSI)
100
AcDbMText
 10
121.2435273962995
 20
34.27828364681097
 30
0.0
 40
1.320000016313838
 41
0.0
 46
0.0
 71
     7
 72
     1
  1
SIDE VIEW
  7
Text Style154
 73
     1
 44
1.0
  0
LINE
  5
2EC
330
6C
100
AcDbEntity
  8
Symbol (ANSI)
370
    30
100
AcDbLine
 10
121.1759432224488
 20
34.00481686899919
 30
0.0
 11
130.0961052469092
 21
34.00481686899919
 31
0.0
  0
DIMENSION
  5
2ED
330
6C
100
AcDbEntity
  8
Dimension (ANSI)
100
AcDbDimension
280
     0
  2
*D4
 10
23.97749580143102
 20
79.75247706687759
 30
0.0
 11
23.977495801431
 21
60.25247706687757
 31
0.0
 70
   160
  1
<>
 42
39.00000000000001
 73
     0
 74
     0
 75
     0
  3
Default (ANSI)
100
AcDbAlignedDimension
 13
42.9600944965791
 23
40.75247706687757
 33
0.0
 14
42.9600944965791
 24
79.75247706687757
 34
0.0
 50
90.0
100
AcDbRotatedDimension
1001
ACAD
1000
DSTYLE
1002
{
1070
   289
1070
     1
1070
   271
1070
     2
1070
   272
1070
     2
1070
    48
1040
0.0
1070
    47
1040
0.0
1002
}
  0
DIMENSION
  5
3D9
330
6C
100
AcDbEntity
  8
Dimension (ANSI)
100
AcDbDimension
280
     0
  2
*D5
 10
38.42197056315448
 20
60.25247706687758
 30
0.0
 11
38.42197056315447
 21
50.93997706687758
 31
0.0
 70
   160
  1
<>
 42
18.625
 73
     0
 74
     0
 75
     0
  3
Default (ANSI)
100
AcDbAlignedDimension
 13
43.62170614893078
 23
41.62747706687758
 33
0.0
 14
43.62170614893078
 24
60.25247706687758
 34
0.0
 50
90.0
100
AcDbRotatedDimension
1001
ACAD
1000
DSTYLE
1002
{
1070
   289
1070
     1
1070
   271
1070
     2
1070
   272
1070
     3
1070
    48
1040
0.0
1070
    47
1040
0.0
1002
}
  0
DIMENSION
  5
4C9
330
6C
100
AcDbEntity
  8
Dimension (ANSI)
100
AcDbDimension
280
     0
  2
*D6
 10
31.4957218969623
 20
78.87747706687759
 30
0.0
 11
31.49572189696228
 21
60.25247706687757
 31
0.0
 70
   160
  1
<>
 42
37.25
 73
     0
 74
     0
 75
     0
  3
Default (ANSI)
100
AcDbAlignedDimension
 13
43.62170614893078
 23
41.62747706687758
 33
0.0
 14
43.62170614893078
 24
78.87747706687758
 34
0.0
 50
90.0
100
AcDbRotatedDimension
1001
ACAD
1000
DSTYLE
1002
{
1070
   289
1070
     1
1070
   271
1070
     2
1070
   272
1070
     3
1070
    48
1040
0.0
1070
    47
1040
0.0
1002
}
  0
DIMENSION
  5
5B3
330
6C
100
AcDbEntity
  8
Dimension (ANSI)
100
AcDbDimension
280
     0
  2
*D7
 10
81.74670614893079
 20
91.66507297119776
 30
0.0
 11
62.24670614893078
 21
91.66507297119776
 31
0.0
 70
   160
  1
<>
 42
39.0
 73
     0
 74
     0
 75
     0
  3
Default (ANSI)
100
AcDbAlignedDimension
 13
42.74670614893079
 23
79.53908871922926
 33
0.0
 14
81.74670614893079
 24
79.53908871922926
 34
0.0
100
AcDbRotatedDimension
1001
ACAD
1000
DSTYLE
1002
{
1070
   289
1070
     1
1070
    73
1070
     0
1070
    74
1070
     0
1070
   271
1070
     2
1070
   272
1070
     2
1070
    48
1040
0.0
1070
    47
1040
0.0
1002
}
  0
DIMENSION
  5
69D
330
6C
100
AcDbEntity
  8
Dimension (ANSI)
100
AcDbDimension
280
     0
  2
*D8
 10
80.87170614893079
 20
87.42516241283377
 30
0.0
 11
62.24670614893079
 21
87.42516241283377
 31
0.0
 70
   160
  1
<>
 42
37.25
 73
     0
 74
     0
 75
     0
  3
Default (ANSI)
100
AcDbAlignedDimension
 13
43.62170614893078
 23
78.87747706687758
 33
0.0
 14
80.87170614893079
 24
78.87747706687758
 34
0.0
 50
180.0
100
AcDbRotatedDimension
1001
ACAD
1000
DSTYLE
1002
{
1070
   289
1070
     1
1070
    73
1070
     0
1070
    74
1070
     0
1070
   271
1070
     2
1070
   272
1070
     3
1070
    48
1040
0.0
1070
    47
1040
0.0
1002
}
  0
DIMENSION
  5
787
330
6C
100
AcDbEntity
  8
Dimension (ANSI)
100
AcDbDimension
280
     0
  2
*D9
 10
62.24670614893078
 20
83.20818572829489
 30
0.0
 11
52.93420614893078
 21
83.20818572829489
 31
0.0
 70
   160
  1
<>
 42
18.625
 73
     0
 74
     0
 75
     0
  3
Default (ANSI)
100
AcDbAlignedDimension
 13
43.62170614893078
 23
78.87747706687758
 33
0.0
 14
62.24670614893078
 24
78.87747706687758
 34
0.0
 50
180.0
100
AcDbRotatedDimension
1001
ACAD
1000
DSTYLE
1002
{
1070
   289
1070
     1
1070
    73
1070
     0
1070
    74
1070
     0
1070
   271
1070
     2
1070
   272
1070
     3
1070
    48
1040
0.0
1070
    47
1040
0.0
1002
}
  0
DIMENSION
  5
871
330
6C
100
AcDbEntity
  8
Dimension (ANSI)
100
AcDbDimension
280
     0
  2
*D10
 10
126.2083575491115
 20
82.90208336609014
 30
0.0
 11
120.4683525294993
 21
82.90208336609014
 31
0.0
 70
   160
  1
<>{\PTYP.}
 42
0.8749999999999857
 73
     0
 74
     0
 75
     0
  3
Default (ANSI)
100
AcDbAlignedDimension
 13
125.3333575491115
 23
79.59622706687759
 33
0.0
 14
126.2083575491115
 24
79.75247706687757
 34
0.0
100
AcDbRotatedDimension
1001
ACAD
1000
DSTYLE
1002
{
1070
   289
1070
     1
1070
    73
1070
     0
1070
    74
1070
     0
1070
   145
1040
-0.25
1070
   271
1070
     2
1070
   272
1070
     2
1070
    48
1040
0.0
1070
    47
1040
0.0
1002
}
  0
ELLIPSE
  5
96F
330
6C
100
AcDbEntity
  8
Visible (ANSI)
100
AcDbEllipse
 10
162.4093652570576
 20
53.86955400930622
 30
0.0
 11
-0.0965783276981949
 21
0.1677109756264705
 31
0.0
210
0.0
220
0.0
230
1.0
 40
0.5780931159158129
 41
0.0
 42
6.283185307179586
  0
ELLIPSE
  5
970
330
6C
100
AcDbEntity
  8
Visible (ANSI)
100
AcDbEllipse
 10
162.4701322460658
 20
53.90454739096025
 30
0.0
 11
-0.096578327698195
 21
0.1677109756264707
 31
0.0
210
0.0
220
0.0
230
0.9999999999999998
 40
0.578093115915813
 41
0.3187556839588481
 42
2.822836969630835
  0
ELLIPSE
  5
971
330
6C
100
AcDbEntity
  8
Visible (ANSI)
100
AcDbEllipse
 10
171.4636466192836
 20
59.12397559298895
 30
0.0
 11
-0.0965783276981949
 21
0.1677109756264705
 31
0.0
210
0.0
220
0.0
230
1.0
 40
0.5780931159158129
 41
0.0
 42
6.283185307179586
  0
ELLIPSE
  5
972
330
6C
100
AcDbEntity
  8
Visible (ANSI)
100
AcDbEllipse
 10
171.5244136082918
 20
59.15896897464298
 30
0.0
 11
-0.0965783276981949
 21
0.1677109756264704
 31
0.0
210
0.0
220
0.0
230
1.0
 40
0.5780931159158129
 41
0.3187556839588481
 42
2.822836969630835
  0
ELLIPSE
  5
973
330
6C
100
AcDbEntity
  8
Visible (ANSI)
100
AcDbEllipse
 10
171.4636466192836
 20
48.65554014285674
 30
0.0
 11
-0.0965783276981949
 21
0.1677109756264705
 31
0.0
210
0.0
220
0.0
230
1.0
 40
0.5780931159158129
 41
0.0
 42
6.283185307179586
  0
ELLIPSE
  5
974
330
6C
100
AcDbEntity
  8
Visible (ANSI)
100
AcDbEllipse
 10
171.5244136082918
 20
48.69053352451078
 30
0.0
 11
-0.096578327698195
 21
0.1677109756264707
 31
0.0
210
0.0
220
0.0
230
0.9999999999999998
 40
0.578093115915813
 41
0.3187556839588481
 42
2.822836969630835
  0
ELLIPSE
  5
975
330
6C
100
AcDbEntity
  8
Visible (ANSI)
100
AcDbEllipse
 10
153.3550838948316
 20
59.08356787575569
 30
0.0
 11
-0.0965783276981949
 21
0.1677109756264705
 31
0.0
210
0.0
220
0.0
230
1.0
 40
0.5780931159158129
 41
0.0
 42
6.283185307179586
  0
ELLIPSE
  5
976
330
6C
100
AcDbEntity
  8
Visible (ANSI)
100
AcDbEllipse
 10
153.4158508838398
 20
59.11856125740972
 30
0.0
 11
-0.0965783276981949
 21
0.1677109756264705
 31
0.0
210
0.0
220
0.0
230
1.0
 40
0.5780931159158129
 41
0.3187556839588481
 42
2.822836969630835
  0
ELLIPSE
  5
977
330
6C
100
AcDbEntity
  8
Visible (ANSI)
100
AcDbEllipse
 10
153.3550838948316
 20
69.55200332588789
 30
0.0
 11
-0.0965783276981949
 21
0.1677109756264705
 31
0.0
210
0.0
220
0.0
230
1.0
 40
0.5780931159158129
 41
0.0
 42
6.283185307179586
  0
ELLIPSE
  5
978
330
6C
100
AcDbEntity
  8
Visible (ANSI)
100
AcDbEllipse
 10
153.4158508838398
 20
69.58699670754192
 30
0.0
 11
-0.0965783276981947
 21
0.1677109756264702
 31
0.0
210
0.0
220
0.0
230
1.0
 40
0.5780931159158129
 41
0.3187556839588485
 42
2.822836969630857
  0
ELLIPSE
  5
979
330
6C
100
AcDbEntity
  8
Visible (ANSI)
100
AcDbEllipse
 10
171.4636466192836
 20
69.59241104312114
 30
0.0
 11
-0.0965783276981949
 21
0.1677109756264705
 31
0.0
210
0.0
220
0.0
230
1.0
 40
0.5780931159158129
 41
0.0
 42
6.283185307179586
  0
ELLIPSE
  5
97A
330
6C
100
AcDbEntity
  8
Visible (ANSI)
100
AcDbEllipse
 10
171.5244136082918
 20
69.62740442477517
 30
0.0
 11
-0.0965783276981931
 21
0.1677109756264675
 31
0.0
210
0.0
220
0.0
230
0.9999999999999998
 40
0.5780931159158129
 41
0.3187556839588481
 42
2.822836969630857
  0
ELLIPSE
  5
97B
330
6C
100
AcDbEntity
  8
Visible (ANSI)
100
AcDbEllipse
 10
162.4093652570576
 20
74.80642490957063
 30
0.0
 11
-0.0965783276981949
 21
0.1677109756264705
 31
0.0
210
0.0
220
0.0
230
1.0
 40
0.5780931159158129
 41
0.0
 42
6.283185307179586
  0
ELLIPSE
  5
97C
330
6C
100
AcDbEntity
  8
Visible (ANSI)
100
AcDbEllipse
 10
162.4701322460658
 20
74.84141829122467
 30
0.0
 11
-0.096578327698194
 21
0.167710975626469
 31
0.0
210
0.0
220
0.0
230
0.9999999999999998
 40
0.5780931159158128
 41
0.3187556839588481
 42
2.822836969630857
  0
ELLIPSE
  5
97D
330
6C
100
AcDbEntity
  8
Visible (ANSI)
100
AcDbEllipse
 10
153.3550838948316
 20
80.02043877602011
 30
0.0
 11
-0.0965783276981949
 21
0.1677109756264705
 31
0.0
210
0.0
220
0.0
230
1.0
 40
0.5780931159158129
 41
0.0
 42
6.283185307179586
  0
ELLIPSE
  5
97E
330
6C
100
AcDbEntity
  8
Visible (ANSI)
100
AcDbEllipse
 10
153.4158508838398
 20
80.05543215767415
 30
0.0
 11
-0.0965783276981947
 21
0.1677109756264702
 31
0.0
210
0.0
220
0.0
230
1.0
 40
0.5780931159158129
 41
0.3187556839588485
 42
2.822836969630857
  0
POLYLINE
  5
97F
330
6C
100
AcDbEntity
  8
Visible (ANSI)
100
AcDb2dPolyline
 66
     1
 10
0.0
 20
0.0
 30
0.0
 70
   128
  0
VERTEX
  5
980
330
97F
100
AcDbEntity
  8
Visible (ANSI)
100
AcDbVertex
100
AcDb2dVertex
 10
171.8130566317688
 20
48.05034505122122
 30
0.0
  0
VERTEX
  5
981
330
97F
100
AcDbEntity
  8
Visible (ANSI)
100
AcDbVertex
100
AcDb2dVertex
 10
171.8120627792131
 20
48.0453608148905
 30
0.0
  0
VERTEX
  5
983
330
97F
100
AcDbEntity
  8
Visible (ANSI)
100
AcDbVertex
100
AcDb2dVertex
 10
171.8113920428166
 20
48.04058892915275
 30
0.0
  0
VERTEX
  5
984
330
97F
100
AcDbEntity
  8
Visible (ANSI)
100
AcDbVertex
100
AcDb2dVertex
 10
171.8110437894431
 20
48.03605183416305
 30
0.0
  0
VERTEX
  5
985
330
97F
100
AcDbEntity
  8
Visible (ANSI)
100
AcDbVertex
100
AcDb2dVertex
 10
171.8110160113098
 20
48.03177097403113
 30
0.0
  0
VERTEX
  5
986
330
97F
100
AcDbEntity
  8
Visible (ANSI)
100
AcDbVertex
100
AcDb2dVertex
 10
171.8113009567774
 20
48.02776921390872
 30
0.0
  0
VERTEX
  5
987
330
97F
100
AcDbEntity
  8
Visible (ANSI)
100
AcDbVertex
100
AcDb2dVertex
 10
171.8118939086968
 20
48.02406570895947
 30
0.0
  0
VERTEX
  5
988
330
97F
100
AcDbEntity
  8
Visible (ANSI)
100
AcDbVertex
100
AcDb2dVertex
 10
171.8127888266073
 20
48.02067832471832
 30
0.0
  0
VERTEX
  5
989
330
97F
100
AcDbEntity
  8
Visible (ANSI)
100
AcDbVertex
100
AcDb2dVertex
 10
171.8139740060471
 20
48.01762610687369
 30
0.0
  0
VERTEX
  5
98A
330
97F
100
AcDbEntity
  8
Visible (ANSI)
100
AcDbVertex
100
AcDb2dVertex
 10
171.8154423399208
 20
48.01492329941768
 30
0.0
  0
VERTEX
  5
98B
330
97F
100
AcDbEntity
  8
Visible (ANSI)
100
AcDbVertex
100
AcDb2dVertex
 10
171.8171796596693
 20
48.01258600565978
 30
0.0
  0
VERTEX
  5
98C
330
97F
100
AcDbEntity
  8
Visible (ANSI)
100
AcDbVertex
100
AcDb2dVertex
 10
171.8191750308611
 20
48.01062624916689
 30
0.0
  0
VERTEX
  5
98D
330
97F
100
AcDbEntity
  8
Visible (ANSI)
100
AcDbVertex
100
AcDb2dVertex
 10
171.8214164125025
 20
48.00905443859945
 30
0.0
  0
VERTEX
  5
98E
330
97F
100
AcDbEntity
  8
Visible (ANSI)
100
AcDbVertex
100
AcDb2dVertex
 10
171.8238863306074
 20
48.0078818358131
 30
0.0
  0
VERTEX
  5
98F
330
97F
100
AcDbEntity
  8
Visible (ANSI)
100
AcDbVertex
100
AcDb2dVertex
 10
171.8265721737894
 20
48.00711463823187
 30
0.0
  0
VERTEX
  5
990
330
97F
100
AcDbEntity
  8
Visible (ANSI)
100
AcDbVertex
100
AcDb2dVertex
 10
171.8294545686543
 20
48.00676066616472
 30
0.0
  0
VERTEX
  5
991
330
97F
100
AcDbEntity
  8
Visible (ANSI)
100
AcDbVertex
100
AcDb2dVertex
 10
171.8325176696877
 20
48.00682344436705
 30
0.0
  0
VERTEX
  5
992
330
97F
100
AcDbEntity
  8
Visible (ANSI)
100
AcDbVertex
100
AcDb2dVertex
 10
171.8357448641971
 20
48.00730472200651
 30
0.0
  0
VERTEX
  5
993
330
97F
100
AcDbEntity
  8
Visible (ANSI)
100
AcDbVertex
100
AcDb2dVertex
 10
171.8391144615672
 20
48.00820697164279
 30
0.0
  0
VERTEX
  5
994
330
97F
100
AcDbEntity
  8
Visible (ANSI)
100
AcDbVertex
100
AcDb2dVertex
 10
171.8426099931295
 20
48.00952750291657
 30
0.0
  0
VERTEX
  5
995
330
97F
100
AcDbEntity
  8
Visible (ANSI)
100
AcDbVertex
100
AcDb2dVertex
 10
171.8462086175011
 20
48.01126519472638
 30
0.0
  0
VERTEX
  5
996
330
97F
100
AcDbEntity
  8
Visible (ANSI)
100
AcDbVertex
100
AcDb2dVertex
 10
171.8498914276731
 20
48.01341462080289
 30
0.0
  0
VERTEX
  5
997
330
97F
100
AcDbEntity
  8
Visible (ANSI)
100
AcDbVertex
100
AcDb2dVertex
 10
171.8536391544371
 20
48.01596859111128
 30
0.0
  0
VERTEX
  5
998
330
97F
100
AcDbEntity
  8
Visible (ANSI)
100
AcDbVertex
100
AcDb2dVertex
 10
171.8574278768526
 20
48.01892070291096
 30
0.0
  0
VERTEX
  5
999
330
97F
100
AcDbEntity
  8
Visible (ANSI)
100
AcDbVertex
100
AcDb2dVertex
 10
171.861237872427
 20
48.02226032910892
 30
0.0
  0
SEQEND
  5
982
330
97F
100
AcDbEntity
  8
Visible (ANSI)
  0
POLYLINE
  5
99A
330
6C
100
AcDbEntity
  8
Visible (ANSI)
100
AcDb2dPolyline
 66
     1
 10
0.0
 20
0.0
 30
0.0
 70
   128
  0
VERTEX
  5
99B
330
99A
100
AcDbEntity
  8
Visible (ANSI)
100
AcDbVertex
100
AcDb2dVertex
 10
153.0419481653408
 20
58.82343073550547
 30
0.0
  0
VERTEX
  5
99C
330
99A
100
AcDbEntity
  8
Visible (ANSI)
100
AcDbVertex
100
AcDb2dVertex
 10
153.0396317941475
 20
58.82483134124388
 30
0.0
  0
VERTEX
  5
99E
330
99A
100
AcDbEntity
  8
Visible (ANSI)
100
AcDbVertex
100
AcDb2dVertex
 10
153.0373749776748
 20
58.82633097356329
 30
0.0
  0
VERTEX
  5
99F
330
99A
100
AcDbEntity
  8
Visible (ANSI)
100
AcDbVertex
100
AcDb2dVertex
 10
153.0351795240682
 20
58.8279283787136
 30
0.0
  0
VERTEX
  5
9A0
330
99A
100
AcDbEntity
  8
Visible (ANSI)
100
AcDbVertex
100
AcDb2dVertex
 10
153.0330471644702
 20
58.82962219595104
 30
0.0
  0
VERTEX
  5
9A1
330
99A
100
AcDbEntity
  8
Visible (ANSI)
100
AcDbVertex
100
AcDb2dVertex
 10
153.0309795758357
 20
58.83141096737936
 30
0.0
  0
VERTEX
  5
9A2
330
99A
100
AcDbEntity
  8
Visible (ANSI)
100
AcDbVertex
100
AcDb2dVertex
 10
153.028978352413
 20
58.83329311822905
 30
0.0
  0
VERTEX
  5
9A3
330
99A
100
AcDbEntity
  8
Visible (ANSI)
100
AcDbVertex
100
AcDb2dVertex
 10
153.0270450285588
 20
58.83526698978055
 30
0.0
  0
VERTEX
  5
9A4
330
99A
100
AcDbEntity
  8
Visible (ANSI)
100
AcDbVertex
100
AcDb2dVertex
 10
153.025181058775
 20
58.8373308146782
 30
0.0
  0
VERTEX
  5
9A5
330
99A
100
AcDbEntity
  8
Visible (ANSI)
100
AcDbVertex
100
AcDb2dVertex
 10
153.0233878291163
 20
58.83948273339183
 30
0.0
  0
VERTEX
  5
9A6
330
99A
100
AcDbEntity
  8
Visible (ANSI)
100
AcDbVertex
100
AcDb2dVertex
 10
153.0216666343745
 20
58.84172078437544
 30
0.0
  0
VERTEX
  5
9A7
330
99A
100
AcDbEntity
  8
Visible (ANSI)
100
AcDbVertex
100
AcDb2dVertex
 10
153.0200187123022
 20
58.84404292707269
 30
0.0
  0
VERTEX
  5
9A8
330
99A
100
AcDbEntity
  8
Visible (ANSI)
100
AcDbVertex
100
AcDb2dVertex
 10
153.0184452093891
 20
58.84644701891136
 30
0.0
  0
VERTEX
  5
9A9
330
99A
100
AcDbEntity
  8
Visible (ANSI)
100
AcDbVertex
100
AcDb2dVertex
 10
153.0169471922698
 20
58.84893082846765
 30
0.0
  0
VERTEX
  5
9AA
330
99A
100
AcDbEntity
  8
Visible (ANSI)
100
AcDbVertex
100
AcDb2dVertex
 10
153.0155256477241
 20
58.85149204206084
 30
0.0
  0
VERTEX
  5
9AB
330
99A
100
AcDbEntity
  8
Visible (ANSI)
100
AcDbVertex
100
AcDb2dVertex
 10
153.0141814826766
 20
58.85412827034816
 30
0.0
  0
VERTEX
  5
9AC
330
99A
100
AcDbEntity
  8
Visible (ANSI)
100
AcDbVertex
100
AcDb2dVertex
 10
153.0129155241971
 20
58.8568370285404
 30
0.0
  0
VERTEX
  5
9AD
330
99A
100
AcDbEntity
  8
Visible (ANSI)
100
AcDbVertex
100
AcDb2dVertex
 10
153.0117285023883
 20
58.85961576941406
 30
0.0
  0
VERTEX
  5
9AE
330
99A
100
AcDbEntity
  8
Visible (ANSI)
100
AcDbVertex
100
AcDb2dVertex
 10
153.010621078906
 20
58.86246185357116
 30
0.0
  0
VERTEX
  5
9AF
330
99A
100
AcDbEntity
  8
Visible (ANSI)
100
AcDbVertex
100
AcDb2dVertex
 10
153.0095938127353
 20
58.86537258248951
 30
0.0
  0
VERTEX
  5
9B0
330
99A
100
AcDbEntity
  8
Visible (ANSI)
100
AcDbVertex
100
AcDb2dVertex
 10
153.0086471944141
 20
58.86834518525688
 30
0.0
  0
VERTEX
  5
9B1
330
99A
100
AcDbEntity
  8
Visible (ANSI)
100
AcDbVertex
100
AcDb2dVertex
 10
153.0077816061055
 20
58.87137681536259
 30
0.0
  0
VERTEX
  5
9B2
330
99A
100
AcDbEntity
  8
Visible (ANSI)
100
AcDbVertex
100
AcDb2dVertex
 10
153.0069973672295
 20
58.87446457697494
 30
0.0
  0
VERTEX
  5
9B3
330
99A
100
AcDbEntity
  8
Visible (ANSI)
100
AcDbVertex
100
AcDb2dVertex
 10
153.0062946888317
 20
58.87760550525864
 30
0.0
  0
VERTEX
  5
9B4
330
99A
100
AcDbEntity
  8
Visible (ANSI)
100
AcDbVertex
100
AcDb2dVertex
 10
153.0056737078061
 20
58.88079657289321
 30
0.0
  0
SEQEND
  5
99D
330
99A
100
AcDbEntity
  8
Visible (ANSI)
  0
LINE
  5
9B5
330
6C
100
AcDbEntity
  8
Visible (ANSI)
100
AcDbLine
 10
153.3435769437551
 20
59.02582619200863
 30
0.0
 11
153.4588196338397
 21
59.09219004354692
 31
0.0
  0
LINE
  5
9B6
330
6C
100
AcDbEntity
  8
Visible (ANSI)
100
AcDbLine
 10
171.8612385395932
 20
48.0450406027086
 30
0.0
 11
171.8612385395932
 21
48.02225994517626
 31
0.0
  0
LINE
  5
9B7
330
6C
100
AcDbEntity
  8
Visible (ANSI)
100
AcDbLine
 10
171.8612385395932
 20
48.02225994517626
 30
0.0
 11
171.9242110333504
 21
48.05852339254655
 31
0.0
  0
LINE
  5
9B8
330
6C
100
AcDbEntity
  8
Visible (ANSI)
100
AcDbLine
 10
171.9631403220468
 20
48.08094127895339
 30
0.0
 11
172.2106487263904
 21
48.22347188968695
 31
0.0
  0
LINE
  5
9B9
330
6C
100
AcDbEntity
  8
Visible (ANSI)
100
AcDbLine
 10
172.2106487263904
 20
48.2239348446406
 30
0.0
 11
172.2106487263904
 21
48.22347188968695
 31
0.0
  0
POLYLINE
  5
9BA
330
6C
100
AcDbEntity
  8
Visible (ANSI)
100
AcDb2dPolyline
 66
     1
 10
0.0
 20
0.0
 30
0.0
 70
   128
  0
VERTEX
  5
9BB
330
9BA
100
AcDbEntity
  8
Visible (ANSI)
100
AcDbVertex
100
AcDb2dVertex
 10
171.8130566317688
 20
69.7951822446855
 30
0.0
  0
VERTEX
  5
9BC
330
9BA
100
AcDbEntity
  8
Visible (ANSI)
100
AcDbVertex
100
AcDb2dVertex
 10
171.8181868822342
 20
69.79107812549274
 30
0.0
  0
VERTEX
  5
9BE
330
9BA
100
AcDbEntity
  8
Visible (ANSI)
100
AcDbVertex
100
AcDb2dVertex
 10
171.8236212661837
 20
69.78717100139995
 30
0.0
  0
VERTEX
  5
9BF
330
9BA
100
AcDbEntity
  8
Visible (ANSI)
100
AcDbVertex
100
AcDb2dVertex
 10
171.8293357871888
 20
69.78347396835021
 30
0.0
  0
VERTEX
  5
9C0
330
9BA
100
AcDbEntity
  8
Visible (ANSI)
100
AcDbVertex
100
AcDb2dVertex
 10
171.8353050741742
 20
69.77999933068021
 30
0.0
  0
VERTEX
  5
9C1
330
9BA
100
AcDbEntity
  8
Visible (ANSI)
100
AcDbVertex
100
AcDb2dVertex
 10
171.8415038530312
 20
69.77675270200347
 30
0.0
  0
VERTEX
  5
9C2
330
9BA
100
AcDbEntity
  8
Visible (ANSI)
100
AcDbVertex
100
AcDb2dVertex
 10
171.8479069637301
 20
69.77374314468324
 30
0.0
  0
VERTEX
  5
9C3
330
9BA
100
AcDbEntity
  8
Visible (ANSI)
100
AcDbVertex
100
AcDb2dVertex
 10
171.8544864627234
 20
69.77097979991497
 30
0.0
  0
VERTEX
  5
9C4
330
9BA
100
AcDbEntity
  8
Visible (ANSI)
100
AcDbVertex
100
AcDb2dVertex
 10
171.8612131230799
 20
69.76846600503299
 30
0.0
  0
VERTEX
  5
9C5
330
9BA
100
AcDbEntity
  8
Visible (ANSI)
100
AcDbVertex
100
AcDb2dVertex
 10
171.8680579346179
 20
69.76621029351537
 30
0.0
  0
VERTEX
  5
9C6
330
9BA
100
AcDbEntity
  8
Visible (ANSI)
100
AcDbVertex
100
AcDb2dVertex
 10
171.8749935869261
 20
69.76421206108743
 30
0.0
  0
VERTEX
  5
9C7
330
9BA
100
AcDbEntity
  8
Visible (ANSI)
100
AcDbVertex
100
AcDb2dVertex
 10
171.8819901628978
 20
69.76247594894103
 30
0.0
  0
VERTEX
  5
9C8
330
9BA
100
AcDbEntity
  8
Visible (ANSI)
100
AcDbVertex
100
AcDb2dVertex
 10
171.8890151786587
 20
69.76100680191788
 30
0.0
  0
VERTEX
  5
9C9
330
9BA
100
AcDbEntity
  8
Visible (ANSI)
100
AcDbVertex
100
AcDb2dVertex
 10
171.8960409387822
 20
69.75980043052146
 30
0.0
  0
VERTEX
  5
9CA
330
9BA
100
AcDbEntity
  8
Visible (ANSI)
100
AcDbVertex
100
AcDb2dVertex
 10
171.9030373094126
 20
69.75885967588955
 30
0.0
  0
VERTEX
  5
9CB
330
9BA
100
AcDbEntity
  8
Visible (ANSI)
100
AcDbVertex
100
AcDb2dVertex
 10
171.9099732355093
 20
69.75818009560573
 30
0.0
  0
VERTEX
  5
9CC
330
9BA
100
AcDbEntity
  8
Visible (ANSI)
100
AcDbVertex
100
AcDb2dVertex
 10
171.9168182695005
 20
69.75776098012771
 30
0.0
  0
VERTEX
  5
9CD
330
9BA
100
AcDbEntity
  8
Visible (ANSI)
100
AcDbVertex
100
AcDb2dVertex
 10
171.923545577253
 20
69.75759865549474
 30
0.0
  0
VERTEX
  5
9CE
330
9BA
100
AcDbEntity
  8
Visible (ANSI)
100
AcDbVertex
100
AcDb2dVertex
 10
171.9301247069169
 20
69.7576856631384
 30
0.0
  0
VERTEX
  5
9CF
330
9BA
100
AcDbEntity
  8
Visible (ANSI)
100
AcDbVertex
100
AcDb2dVertex
 10
171.9365275081776
 20
69.75801925942923
 30
0.0
  0
VERTEX
  5
9D0
330
9BA
100
AcDbEntity
  8
Visible (ANSI)
100
AcDbVertex
100
AcDb2dVertex
 10
171.9427267590348
 20
69.75858880048604
 30
0.0
  0
VERTEX
  5
9D1
330
9BA
100
AcDbEntity
  8
Visible (ANSI)
100
AcDbVertex
100
AcDb2dVertex
 10
171.9486962514507
 20
69.7593876093861
 30
0.0
  0
VERTEX
  5
9D2
330
9BA
100
AcDbEntity
  8
Visible (ANSI)
100
AcDbVertex
100
AcDb2dVertex
 10
171.9544094151881
 20
69.76040880062981
 30
0.0
  0
VERTEX
  5
9D3
330
9BA
100
AcDbEntity
  8
Visible (ANSI)
100
AcDbVertex
100
AcDb2dVertex
 10
171.9598437895122
 20
69.76163774515383
 30
0.0
  0
VERTEX
  5
9D4
330
9BA
100
AcDbEntity
  8
Visible (ANSI)
100
AcDbVertex
100
AcDb2dVertex
 10
171.9649738111075
 20
69.76306645555301
 30
0.0
  0
SEQEND
  5
9BD
330
9BA
100
AcDbEntity
  8
Visible (ANSI)
  0
POLYLINE
  5
9D5
330
6C
100
AcDbEntity
  8
Visible (ANSI)
100
AcDb2dPolyline
 66
     1
 10
0.0
 20
0.0
 30
0.0
 70
   128
  0
VERTEX
  5
9D6
330
9D5
100
AcDbEntity
  8
Visible (ANSI)
100
AcDbVertex
100
AcDb2dVertex
 10
171.9649738111075
 20
48.08246060164256
 30
0.0
  0
VERTEX
  5
9D7
330
9D5
100
AcDbEntity
  8
Visible (ANSI)
100
AcDbVertex
100
AcDb2dVertex
 10
171.9598437895122
 20
48.07835495480048
 30
0.0
  0
VERTEX
  5
9D9
330
9D5
100
AcDbEntity
  8
Visible (ANSI)
100
AcDbVertex
100
AcDb2dVertex
 10
171.9544094151881
 20
48.07444907383361
 30
0.0
  0
VERTEX
  5
9DA
330
9D5
100
AcDbEntity
  8
Visible (ANSI)
100
AcDbVertex
100
AcDb2dVertex
 10
171.9486962514507
 20
48.07075263441682
 30
0.0
  0
VERTEX
  5
9DB
330
9D5
100
AcDbEntity
  8
Visible (ANSI)
100
AcDbVertex
100
AcDb2dVertex
 10
171.9427267590348
 20
48.06727688907391
 30
0.0
  0
VERTEX
  5
9DC
330
9D5
100
AcDbEntity
  8
Visible (ANSI)
100
AcDbVertex
100
AcDb2dVertex
 10
171.9365275081776
 20
48.06403039838461
 30
0.0
  0
VERTEX
  5
9DD
330
9D5
100
AcDbEntity
  8
Visible (ANSI)
100
AcDbVertex
100
AcDb2dVertex
 10
171.9301247069169
 20
48.06102155392073
 30
0.0
  0
VERTEX
  5
9DE
330
9D5
100
AcDbEntity
  8
Visible (ANSI)
100
AcDbVertex
100
AcDb2dVertex
 10
171.923545577253
 20
48.0582576098342
 30
0.0
  0
VERTEX
  5
9DF
330
9D5
100
AcDbEntity
  8
Visible (ANSI)
100
AcDbVertex
100
AcDb2dVertex
 10
171.9168182695005
 20
48.05574468629411
 30
0.0
  0
VERTEX
  5
9E0
330
9D5
100
AcDbEntity
  8
Visible (ANSI)
100
AcDbVertex
100
AcDb2dVertex
 10
171.9099732355093
 20
48.05348685873447
 30
0.0
  0
VERTEX
  5
9E1
330
9D5
100
AcDbEntity
  8
Visible (ANSI)
100
AcDbVertex
100
AcDb2dVertex
 10
171.9030373094126
 20
48.05148950257541
 30
0.0
  0
VERTEX
  5
9E2
330
9D5
100
AcDbEntity
  8
Visible (ANSI)
100
AcDbVertex
100
AcDb2dVertex
 10
171.8960409387822
 20
48.04975500903427
 30
0.0
  0
VERTEX
  5
9E3
330
9D5
100
AcDbEntity
  8
Visible (ANSI)
100
AcDbVertex
100
AcDb2dVertex
 10
171.8890151786587
 20
48.048284437393
 30
0.0
  0
VERTEX
  5
9E4
330
9D5
100
AcDbEntity
  8
Visible (ANSI)
100
AcDbVertex
100
AcDb2dVertex
 10
171.8819901628978
 20
48.04707833624309
 30
0.0
  0
VERTEX
  5
9E5
330
9D5
100
AcDbEntity
  8
Visible (ANSI)
100
AcDbVertex
100
AcDb2dVertex
 10
171.8749935869261
 20
48.04613750535181
 30
0.0
  0
VERTEX
  5
9E6
330
9D5
100
AcDbEntity
  8
Visible (ANSI)
100
AcDbVertex
100
AcDb2dVertex
 10
171.8680579346179
 20
48.04545880133687
 30
0.0
  0
VERTEX
  5
9E7
330
9D5
100
AcDbEntity
  8
Visible (ANSI)
100
AcDbVertex
100
AcDb2dVertex
 10
171.86121312308
 20
48.04503925808664
 30
0.0
  0
VERTEX
  5
9E8
330
9D5
100
AcDbEntity
  8
Visible (ANSI)
100
AcDbVertex
100
AcDb2dVertex
 10
171.8544864627234
 20
48.04487611652575
 30
0.0
  0
VERTEX
  5
9E9
330
9D5
100
AcDbEntity
  8
Visible (ANSI)
100
AcDbVertex
100
AcDb2dVertex
 10
171.8479069637301
 20
48.04496421312095
 30
0.0
  0
VERTEX
  5
9EA
330
9D5
100
AcDbEntity
  8
Visible (ANSI)
100
AcDbVertex
100
AcDb2dVertex
 10
171.8415038530312
 20
48.04529682740351
 30
0.0
  0
VERTEX
  5
9EB
330
9D5
100
AcDbEntity
  8
Visible (ANSI)
100
AcDbVertex
100
AcDb2dVertex
 10
171.8353050741742
 20
48.04586651963739
 30
0.0
  0
VERTEX
  5
9EC
330
9D5
100
AcDbEntity
  8
Visible (ANSI)
100
AcDbVertex
100
AcDb2dVertex
 10
171.8293357871888
 20
48.04666590253952
 30
0.0
  0
VERTEX
  5
9ED
330
9D5
100
AcDbEntity
  8
Visible (ANSI)
100
AcDbVertex
100
AcDb2dVertex
 10
171.8236212661837
 20
48.04768599914639
 30
0.0
  0
VERTEX
  5
9EE
330
9D5
100
AcDbEntity
  8
Visible (ANSI)
100
AcDbVertex
100
AcDb2dVertex
 10
171.8181868822342
 20
48.04891618679633
 30
0.0
  0
VERTEX
  5
9EF
330
9D5
100
AcDbEntity
  8
Visible (ANSI)
100
AcDbVertex
100
AcDb2dVertex
 10
171.8130566317688
 20
48.05034505122122
 30
0.0
  0
SEQEND
  5
9D8
330
9D5
100
AcDbEntity
  8
Visible (ANSI)
  0
LINE
  5
9F0
330
6C
100
AcDbEntity
  8
Visible (ANSI)
100
AcDbLine
 10
171.9042979440136
 20
69.79811254377122
 30
0.0
 11
172.2536174763904
 21
69.99927228387318
 31
0.0
  0
LINE
  5
9F1
330
6C
100
AcDbEntity
  8
Visible (ANSI)
100
AcDbLine
 10
172.3143844653987
 20
48.28367228375888
 30
0.0
 11
171.9649742786015
 21
48.08246033924819
 31
0.0
  0
LINE
  5
9F2
330
6C
100
AcDbEntity
  8
Visible (ANSI)
100
AcDbLine
 10
171.906767453131
 20
69.79658603923279
 30
0.0
 11
171.9649742786015
 21
69.76306695770844
 31
0.0
  0
POLYLINE
  5
9F3
330
6C
100
AcDbEntity
  8
Visible (ANSI)
100
AcDb2dPolyline
 66
     1
 10
0.0
 20
0.0
 30
0.0
 70
   128
  0
VERTEX
  5
9F4
330
9F3
100
AcDbEntity
  8
Visible (ANSI)
100
AcDbVertex
100
AcDb2dVertex
 10
171.8738236198644
 20
69.83017562581399
 30
0.0
  0
VERTEX
  5
9F5
330
9F3
100
AcDbEntity
  8
Visible (ANSI)
100
AcDbVertex
100
AcDb2dVertex
 10
171.8747590276567
 20
69.82844593352446
 30
0.0
  0
VERTEX
  5
9F7
330
9F3
100
AcDbEntity
  8
Visible (ANSI)
100
AcDbVertex
100
AcDb2dVertex
 10
171.8757457375261
 20
69.82674914764264
 30
0.0
  0
VERTEX
  5
9F8
330
9F3
100
AcDbEntity
  8
Visible (ANSI)
100
AcDbVertex
100
AcDb2dVertex
 10
171.8767790778685
 20
69.82508593496034
 30
0.0
  0
VERTEX
  5
9F9
330
9F3
100
AcDbEntity
  8
Visible (ANSI)
100
AcDbVertex
100
AcDb2dVertex
 10
171.8778556444327
 20
69.82346107514563
 30
0.0
  0
VERTEX
  5
9FA
330
9F3
100
AcDbEntity
  8
Visible (ANSI)
100
AcDbVertex
100
AcDb2dVertex
 10
171.8789733021001
 20
69.82187333214878
 30
0.0
  0
VERTEX
  5
9FB
330
9F3
100
AcDbEntity
  8
Visible (ANSI)
100
AcDbVertex
100
AcDb2dVertex
 10
171.8801268065538
 20
69.82032473122799
 30
0.0
  0
VERTEX
  5
9FC
330
9F3
100
AcDbEntity
  8
Visible (ANSI)
100
AcDbVertex
100
AcDb2dVertex
 10
171.881310728099
 20
69.81881550261981
 30
0.0
  0
VERTEX
  5
9FD
330
9F3
100
AcDbEntity
  8
Visible (ANSI)
100
AcDbVertex
100
AcDb2dVertex
 10
171.8825238354893
 20
69.81734831383612
 30
0.0
  0
VERTEX
  5
9FE
330
9F3
100
AcDbEntity
  8
Visible (ANSI)
100
AcDbVertex
100
AcDb2dVertex
 10
171.8837588793878
 20
69.81592402900422
 30
0.0
  0
VERTEX
  5
9FF
330
9F3
100
AcDbEntity
  8
Visible (ANSI)
100
AcDbVertex
100
AcDb2dVertex
 10
171.8850142788256
 20
69.81454173770483
 30
0.0
  0
VERTEX
  5
A00
330
9F3
100
AcDbEntity
  8
Visible (ANSI)
100
AcDbVertex
100
AcDb2dVertex
 10
171.8862824452604
 20
69.81320210872976
 30
0.0
  0
VERTEX
  5
A01
330
9F3
100
AcDbEntity
  8
Visible (ANSI)
100
AcDbVertex
100
AcDb2dVertex
 10
171.8875614707279
 20
69.81190741989514
 30
0.0
  0
VERTEX
  5
A02
330
9F3
100
AcDbEntity
  8
Visible (ANSI)
100
AcDbVertex
100
AcDb2dVertex
 10
171.8888449121058
 20
69.81065731784326
 30
0.0
  0
VERTEX
  5
A03
330
9F3
100
AcDbEntity
  8
Visible (ANSI)
100
AcDbVertex
100
AcDb2dVertex
 10
171.8901291014113
 20
69.80945137207652
 30
0.0
  0
VERTEX
  5
A04
330
9F3
100
AcDbEntity
  8
Visible (ANSI)
100
AcDbVertex
100
AcDb2dVertex
 10
171.891410231985
 20
69.80828738396886
 30
0.0
  0
VERTEX
  5
A05
330
9F3
100
AcDbEntity
  8
Visible (ANSI)
100
AcDbVertex
100
AcDb2dVertex
 10
171.892681445922
 20
69.8071698261146
 30
0.0
  0
VERTEX
  5
A06
330
9F3
100
AcDbEntity
  8
Visible (ANSI)
100
AcDbVertex
100
AcDb2dVertex
 10
171.8939401454392
 20
69.80609551428014
 30
0.0
  0
VERTEX
  5
A07
330
9F3
100
AcDbEntity
  8
Visible (ANSI)
100
AcDbVertex
100
AcDb2dVertex
 10
171.8951821609646
 20
69.80506372912185
 30
0.0
  0
VERTEX
  5
A08
330
9F3
100
AcDbEntity
  8
Visible (ANSI)
100
AcDbVertex
100
AcDb2dVertex
 10
171.896400299131
 20
69.80407368524476
 30
0.0
  0
VERTEX
  5
A09
330
9F3
100
AcDbEntity
  8
Visible (ANSI)
100
AcDbVertex
100
AcDb2dVertex
 10
171.8975931168445
 20
69.80312624641273
 30
0.0
  0
VERTEX
  5
A0A
330
9F3
100
AcDbEntity
  8
Visible (ANSI)
100
AcDbVertex
100
AcDb2dVertex
 10
171.8987547076867
 20
69.80221968658219
 30
0.0
  0
VERTEX
  5
A0B
330
9F3
100
AcDbEntity
  8
Visible (ANSI)
100
AcDbVertex
100
AcDb2dVertex
 10
171.8998820143517
 20
69.80135224516782
 30
0.0
  0
VERTEX
  5
A0C
330
9F3
100
AcDbEntity
  8
Visible (ANSI)
100
AcDbVertex
100
AcDb2dVertex
 10
171.9009704608628
 20
69.80052128052313
 30
0.0
  0
VERTEX
  5
A0D
330
9F3
100
AcDbEntity
  8
Visible (ANSI)
100
AcDbVertex
100
AcDb2dVertex
 10
171.9020168779745
 20
69.79972834414066
 30
0.0
  0
SEQEND
  5
9F6
330
9F3
100
AcDbEntity
  8
Visible (ANSI)
  0
LINE
  5
A0E
330
6C
100
AcDbEntity
  8
Visible (ANSI)
100
AcDbLine
 10
171.8738237950891
 20
69.8301757275012
 30
0.0
 11
171.8713321531747
 21
69.82874088635012
 31
0.0
  0
LINE
  5
A0F
330
6C
100
AcDbEntity
  8
Visible (ANSI)
100
AcDbLine
 10
171.8713321531747
 20
69.82874088635012
 30
0.0
 11
171.8130568060809
 21
69.79518234584716
 31
0.0
  0
LINE
  5
A10
330
6C
100
AcDbEntity
  8
Visible (ANSI)
100
AcDbLine
 10
171.9649742786015
 20
69.76306695770844
 30
0.0
 11
172.3143844653986
 21
69.96427890221915
 31
0.0
  0
LINE
  5
A11
330
6C
100
AcDbEntity
  8
Visible (ANSI)
100
AcDbLine
 10
172.2536174763904
 20
69.99927228387318
 30
0.0
 11
172.3143844653986
 21
69.96427890221915
 31
0.0
  0
POLYLINE
  5
A12
330
6C
100
AcDbEntity
  8
Visible (ANSI)
100
AcDb2dPolyline
 66
     1
 10
0.0
 20
0.0
 30
0.0
 70
   128
  0
VERTEX
  5
A13
330
A12
100
AcDbEntity
  8
Visible (ANSI)
100
AcDbVertex
100
AcDb2dVertex
 10
153.0056737078061
 20
80.62563376635749
 30
0.0
  0
VERTEX
  5
A14
330
A12
100
AcDbEntity
  8
Visible (ANSI)
100
AcDbVertex
100
AcDb2dVertex
 10
153.0069937167151
 20
80.63080442294388
 30
0.0
  0
VERTEX
  5
A16
330
A12
100
AcDbEntity
  8
Visible (ANSI)
100
AcDbVertex
100
AcDb2dVertex
 10
153.0086382962851
 20
80.63613835813518
 30
0.0
  0
VERTEX
  5
A17
330
A12
100
AcDbEntity
  8
Visible (ANSI)
100
AcDbVertex
100
AcDb2dVertex
 10
153.0106053588782
 20
80.64160903912414
 30
0.0
  0
VERTEX
  5
A18
330
A12
100
AcDbEntity
  8
Visible (ANSI)
100
AcDbVertex
100
AcDb2dVertex
 10
153.0128914422096
 20
80.64718914149699
 30
0.0
  0
VERTEX
  5
A19
330
A12
100
AcDbEntity
  8
Visible (ANSI)
100
AcDbVertex
100
AcDb2dVertex
 10
153.0154917036438
 20
80.65285225392669
 30
0.0
  0
VERTEX
  5
A1A
330
A12
100
AcDbEntity
  8
Visible (ANSI)
100
AcDbVertex
100
AcDb2dVertex
 10
153.0183999772337
 20
80.65857286503423
 30
0.0
  0
VERTEX
  5
A1B
330
A12
100
AcDbEntity
  8
Visible (ANSI)
100
AcDbVertex
100
AcDb2dVertex
 10
153.0216087509049
 20
80.66432302626507
 30
0.0
  0
VERTEX
  5
A1C
330
A12
100
AcDbEntity
  8
Visible (ANSI)
100
AcDbVertex
100
AcDb2dVertex
 10
153.0251092463113
 20
80.67007404015901
 30
0.0
  0
VERTEX
  5
A1D
330
A12
100
AcDbEntity
  8
Visible (ANSI)
100
AcDbVertex
100
AcDb2dVertex
 10
153.0288914416497
 20
80.6757981814666
 30
0.0
  0
VERTEX
  5
A1E
330
A12
100
AcDbEntity
  8
Visible (ANSI)
100
AcDbVertex
100
AcDb2dVertex
 10
153.0329440773648
 20
80.68147040841187
 30
0.0
  0
VERTEX
  5
A1F
330
A12
100
AcDbEntity
  8
Visible (ANSI)
100
AcDbVertex
100
AcDb2dVertex
 10
153.0372547702271
 20
80.68706331759077
 30
0.0
  0
VERTEX
  5
A20
330
A12
100
AcDbEntity
  8
Visible (ANSI)
100
AcDbVertex
100
AcDb2dVertex
 10
153.0418100076292
 20
80.6925471932414
 30
0.0
  0
VERTEX
  5
A21
330
A12
100
AcDbEntity
  8
Visible (ANSI)
100
AcDbVertex
100
AcDb2dVertex
 10
153.0465952474046
 20
80.69789845351996
 30
0.0
  0
VERTEX
  5
A22
330
A12
100
AcDbEntity
  8
Visible (ANSI)
100
AcDbVertex
100
AcDb2dVertex
 10
153.0515949463474
 20
80.70309127813008
 30
0.0
  0
VERTEX
  5
A23
330
A12
100
AcDbEntity
  8
Visible (ANSI)
100
AcDbVertex
100
AcDb2dVertex
 10
153.0567926571789
 20
80.70809930644625
 30
0.0
  0
VERTEX
  5
A24
330
A12
100
AcDbEntity
  8
Visible (ANSI)
100
AcDbVertex
100
AcDb2dVertex
 10
153.0621710798828
 20
80.7128973750542
 30
0.0
  0
VERTEX
  5
A25
330
A12
100
AcDbEntity
  8
Visible (ANSI)
100
AcDbVertex
100
AcDb2dVertex
 10
153.0677121301529
 20
80.71746495341434
 30
0.0
  0
VERTEX
  5
A26
330
A12
100
AcDbEntity
  8
Visible (ANSI)
100
AcDbVertex
100
AcDb2dVertex
 10
153.0733970434896
 20
80.72177772304204
 30
0.0
  0
VERTEX
  5
A27
330
A12
100
AcDbEntity
  8
Visible (ANSI)
100
AcDbVertex
100
AcDb2dVertex
 10
153.0792064308126
 20
80.72581438888986
 30
0.0
  0
VERTEX
  5
A28
330
A12
100
AcDbEntity
  8
Visible (ANSI)
100
AcDbVertex
100
AcDb2dVertex
 10
153.0851203825586
 20
80.72955503131492
 30
0.0
  0
VERTEX
  5
A29
330
A12
100
AcDbEntity
  8
Visible (ANSI)
100
AcDbVertex
100
AcDb2dVertex
 10
153.0911185086972
 20
80.73298118167775
 30
0.0
  0
VERTEX
  5
A2A
330
A12
100
AcDbEntity
  8
Visible (ANSI)
100
AcDbVertex
100
AcDb2dVertex
 10
153.097180091222
 20
80.7360741430541
 30
0.0
  0
VERTEX
  5
A2B
330
A12
100
AcDbEntity
  8
Visible (ANSI)
100
AcDbVertex
100
AcDb2dVertex
 10
153.1032841296041
 20
80.73882013377376
 30
0.0
  0
VERTEX
  5
A2C
330
A12
100
AcDbEntity
  8
Visible (ANSI)
100
AcDbVertex
100
AcDb2dVertex
 10
153.1094094411451
 20
80.74120189072266
 30
0.0
  0
SEQEND
  5
A15
330
A12
100
AcDbEntity
  8
Visible (ANSI)
  0
POLYLINE
  5
A2D
330
6C
100
AcDbEntity
  8
Visible (ANSI)
100
AcDb2dPolyline
 66
     1
 10
0.0
 20
0.0
 30
0.0
 70
   128
  0
VERTEX
  5
A2E
330
A2D
100
AcDbEntity
  8
Visible (ANSI)
100
AcDbVertex
100
AcDb2dVertex
 10
171.861237872427
 20
69.94274207370317
 30
0.0
  0
VERTEX
  5
A2F
330
A2D
100
AcDbEntity
  8
Visible (ANSI)
100
AcDbVertex
100
AcDb2dVertex
 10
171.8574278768526
 20
69.93902701496345
 30
0.0
  0
VERTEX
  5
A31
330
A2D
100
AcDbEntity
  8
Visible (ANSI)
100
AcDbVertex
100
AcDb2dVertex
 10
171.8536391544371
 20
69.93494772245296
 30
0.0
  0
VERTEX
  5
A32
330
A2D
100
AcDbEntity
  8
Visible (ANSI)
100
AcDbVertex
100
AcDb2dVertex
 10
171.8498914276731
 20
69.93052230016239
 30
0.0
  0
VERTEX
  5
A33
330
A2D
100
AcDbEntity
  8
Visible (ANSI)
100
AcDbVertex
100
AcDb2dVertex
 10
171.8462086175011
 20
69.92576284800873
 30
0.0
  0
VERTEX
  5
A34
330
A2D
100
AcDbEntity
  8
Visible (ANSI)
100
AcDbVertex
100
AcDb2dVertex
 10
171.8426099931295
 20
69.92068889722353
 30
0.0
  0
VERTEX
  5
A35
330
A2D
100
AcDbEntity
  8
Visible (ANSI)
100
AcDbVertex
100
AcDb2dVertex
 10
171.8391144615672
 20
69.91531977046147
 30
0.0
  0
VERTEX
  5
A36
330
A2D
100
AcDbEntity
  8
Visible (ANSI)
100
AcDbVertex
100
AcDb2dVertex
 10
171.8357448641971
 20
69.90967369904293
 30
0.0
  0
VERTEX
  5
A37
330
A2D
100
AcDbEntity
  8
Visible (ANSI)
100
AcDbVertex
100
AcDb2dVertex
 10
171.8325176696877
 20
69.90377365976854
 30
0.0
  0
VERTEX
  5
A38
330
A2D
100
AcDbEntity
  8
Visible (ANSI)
100
AcDbVertex
100
AcDb2dVertex
 10
171.8294545686543
 20
69.8976422860851
 30
0.0
  0
VERTEX
  5
A39
330
A2D
100
AcDbEntity
  8
Visible (ANSI)
100
AcDbVertex
100
AcDb2dVertex
 10
171.8265721737894
 20
69.89130095597811
 30
0.0
  0
VERTEX
  5
A3A
330
A2D
100
AcDbEntity
  8
Visible (ANSI)
100
AcDbVertex
100
AcDb2dVertex
 10
171.8238863306074
 20
69.88477567045379
 30
0.0
  0
VERTEX
  5
A3B
330
A2D
100
AcDbEntity
  8
Visible (ANSI)
100
AcDbVertex
100
AcDb2dVertex
 10
171.8214164125024
 20
69.87809110509971
 30
0.0
  0
VERTEX
  5
A3C
330
A2D
100
AcDbEntity
  8
Visible (ANSI)
100
AcDbVertex
100
AcDb2dVertex
 10
171.8191750308611
 20
69.87127476853484
 30
0.0
  0
VERTEX
  5
A3D
330
A2D
100
AcDbEntity
  8
Visible (ANSI)
100
AcDbVertex
100
AcDb2dVertex
 10
171.8171796596693
 20
69.86434855428045
 30
0.0
  0
VERTEX
  5
A3E
330
A2D
100
AcDbEntity
  8
Visible (ANSI)
100
AcDbVertex
100
AcDb2dVertex
 10
171.8154423399208
 20
69.85734302554437
 30
0.0
  0
VERTEX
  5
A3F
330
A2D
100
AcDbEntity
  8
Visible (ANSI)
100
AcDbVertex
100
AcDb2dVertex
 10
171.8139740060471
 20
69.85028642003786
 30
0.0
  0
VERTEX
  5
A40
330
A2D
100
AcDbEntity
  8
Visible (ANSI)
100
AcDbVertex
100
AcDb2dVertex
 10
171.8127888266073
 20
69.84320210435313
 30
0.0
  0
VERTEX
  5
A41
330
A2D
100
AcDbEntity
  8
Visible (ANSI)
100
AcDbVertex
100
AcDb2dVertex
 10
171.8118939086968
 20
69.83611948220803
 30
0.0
  0
VERTEX
  5
A42
330
A2D
100
AcDbEntity
  8
Visible (ANSI)
100
AcDbVertex
100
AcDb2dVertex
 10
171.8113009567774
 20
69.82906556602499
 30
0.0
  0
VERTEX
  5
A43
330
A2D
100
AcDbEntity
  8
Visible (ANSI)
100
AcDbVertex
100
AcDb2dVertex
 10
171.8110160113098
 20
69.82206915180447
 30
0.0
  0
VERTEX
  5
A44
330
A2D
100
AcDbEntity
  8
Visible (ANSI)
100
AcDbVertex
100
AcDb2dVertex
 10
171.8110437894431
 20
69.81515658523271
 30
0.0
  0
VERTEX
  5
A45
330
A2D
100
AcDbEntity
  8
Visible (ANSI)
100
AcDbVertex
100
AcDb2dVertex
 10
171.8113920428166
 20
69.80835260245294
 30
0.0
  0
VERTEX
  5
A46
330
A2D
100
AcDbEntity
  8
Visible (ANSI)
100
AcDbVertex
100
AcDb2dVertex
 10
171.8120627792131
 20
69.80168536547082
 30
0.0
  0
VERTEX
  5
A47
330
A2D
100
AcDbEntity
  8
Visible (ANSI)
100
AcDbVertex
100
AcDb2dVertex
 10
171.8130566317688
 20
69.7951822446855
 30
0.0
  0
SEQEND
  5
A30
330
A2D
100
AcDbEntity
  8
Visible (ANSI)
  0
LINE
  5
A48
330
6C
100
AcDbEntity
  8
Visible (ANSI)
100
AcDbLine
 10
171.8613250862436
 20
69.872534112877
 30
0.0
 11
172.2106487263904
 21
70.07369621848638
 31
0.0
  0
LINE
  5
A49
330
6C
100
AcDbEntity
  8
Visible (ANSI)
100
AcDbLine
 10
172.2106487263904
 20
70.14395417452755
 30
0.0
 11
171.8612385395932
 21
69.94274223001686
 31
0.0
  0
LINE
  5
A4A
330
6C
100
AcDbEntity
  8
Visible (ANSI)
100
AcDbLine
 10
171.8612385395932
 20
69.87536507605177
 30
0.0
 11
171.8612385395932
 21
69.94274223001686
 31
0.0
  0
LINE
  5
A4B
330
6C
100
AcDbEntity
  8
Visible (ANSI)
100
AcDbLine
 10
172.2106487263904
 20
70.07369621848638
 30
0.0
 11
172.2106487263904
 21
70.14395417452755
 31
0.0
  0
POLYLINE
  5
A4C
330
6C
100
AcDbEntity
  8
Visible (ANSI)
100
AcDb2dPolyline
 66
     1
 10
0.0
 20
0.0
 30
0.0
 70
   128
  0
VERTEX
  5
A4D
330
A4C
100
AcDbEntity
  8
Visible (ANSI)
100
AcDbVertex
100
AcDb2dVertex
 10
171.8738236198644
 20
69.83017562581399
 30
0.0
  0
VERTEX
  5
A4E
330
A4C
100
AcDbEntity
  8
Visible (ANSI)
100
AcDbVertex
100
AcDb2dVertex
 10
171.872792224882
 20
69.83185274808164
 30
0.0
  0
VERTEX
  5
A50
330
A4C
100
AcDbEntity
  8
Visible (ANSI)
100
AcDbVertex
100
AcDb2dVertex
 10
171.8718137803118
 20
69.83355866767728
 30
0.0
  0
VERTEX
  5
A51
330
A4C
100
AcDbEntity
  8
Visible (ANSI)
100
AcDbVertex
100
AcDb2dVertex
 10
171.8708909135624
 20
69.83528646930903
 30
0.0
  0
VERTEX
  5
A52
330
A4C
100
AcDbEntity
  8
Visible (ANSI)
100
AcDbVertex
100
AcDb2dVertex
 10
171.8700202170067
 20
69.83703417762183
 30
0.0
  0
VERTEX
  5
A53
330
A4C
100
AcDbEntity
  8
Visible (ANSI)
100
AcDbVertex
100
AcDb2dVertex
 10
171.8692039314535
 20
69.83879803123535
 30
0.0
  0
VERTEX
  5
A54
330
A4C
100
AcDbEntity
  8
Visible (ANSI)
100
AcDbVertex
100
AcDb2dVertex
 10
171.868438266887
 20
69.84057414632165
 30
0.0
  0
VERTEX
  5
A55
330
A4C
100
AcDbEntity
  8
Visible (ANSI)
100
AcDbVertex
100
AcDb2dVertex
 10
171.8677250872888
 20
69.84235516796051
 30
0.0
  0
VERTEX
  5
A56
330
A4C
100
AcDbEntity
  8
Visible (ANSI)
100
AcDbVertex
100
AcDb2dVertex
 10
171.8670602326232
 20
69.84414206405304
 30
0.0
  0
VERTEX
  5
A57
330
A4C
100
AcDbEntity
  8
Visible (ANSI)
100
AcDbVertex
100
AcDb2dVertex
 10
171.8664452050733
 20
69.8459255830634
 30
0.0
  0
VERTEX
  5
A58
330
A4C
100
AcDbEntity
  8
Visible (ANSI)
100
AcDbVertex
100
AcDb2dVertex
 10
171.8658754925642
 20
69.84770480189689
 30
0.0
  0
VERTEX
  5
A59
330
A4C
100
AcDbEntity
  8
Visible (ANSI)
100
AcDbVertex
100
AcDb2dVertex
 10
171.8653507958177
 20
69.84947448991796
 30
0.0
  0
VERTEX
  5
A5A
330
A4C
100
AcDbEntity
  8
Visible (ANSI)
100
AcDbVertex
100
AcDb2dVertex
 10
171.8648706537068
 20
69.85122932328845
 30
0.0
  0
VERTEX
  5
A5B
330
A4C
100
AcDbEntity
  8
Visible (ANSI)
100
AcDbVertex
100
AcDb2dVertex
 10
171.8644300704812
 20
69.85296641211374
 30
0.0
  0
VERTEX
  5
A5C
330
A4C
100
AcDbEntity
  8
Visible (ANSI)
100
AcDbVertex
100
AcDb2dVertex
 10
171.8640297434462
 20
69.8546811061691
 30
0.0
  0
VERTEX
  5
A5D
330
A4C
100
AcDbEntity
  8
Visible (ANSI)
100
AcDbVertex
100
AcDb2dVertex
 10
171.8636643900507
 20
69.8563720386722
 30
0.0
  0
VERTEX
  5
A5E
330
A4C
100
AcDbEntity
  8
Visible (ANSI)
100
AcDbVertex
100
AcDb2dVertex
 10
171.8633344384458
 20
69.85803102786315
 30
0.0
  0
VERTEX
  5
A5F
330
A4C
100
AcDbEntity
  8
Visible (ANSI)
100
AcDbVertex
100
AcDb2dVertex
 10
171.8630343526122
 20
69.8596582492667
 30
0.0
  0
VERTEX
  5
A60
330
A4C
100
AcDbEntity
  8
Visible (ANSI)
100
AcDbVertex
100
AcDb2dVertex
 10
171.8627643271964
 20
69.86124707492639
 30
0.0
  0
VERTEX
  5
A61
330
A4C
100
AcDbEntity
  8
Visible (ANSI)
100
AcDbVertex
100
AcDb2dVertex
 10
171.8625186112122
 20
69.86279586830608
 30
0.0
  0
VERTEX
  5
A62
330
A4C
100
AcDbEntity
  8
Visible (ANSI)
100
AcDbVertex
100
AcDb2dVertex
 10
171.8622972032335
 20
69.86429957680839
 30
0.0
  0
VERTEX
  5
A63
330
A4C
100
AcDbEntity
  8
Visible (ANSI)
100
AcDbVertex
100
AcDb2dVertex
 10
171.8620941790175
 20
69.86575646412521
 30
0.0
  0
VERTEX
  5
A64
330
A4C
100
AcDbEntity
  8
Visible (ANSI)
100
AcDbVertex
100
AcDb2dVertex
 10
171.8619093838449
 20
69.86716307765338
 30
0.0
  0
VERTEX
  5
A65
330
A4C
100
AcDbEntity
  8
Visible (ANSI)
100
AcDbVertex
100
AcDb2dVertex
 10
171.8617367608564
 20
69.8685176047161
 30
0.0
  0
VERTEX
  5
A66
330
A4C
100
AcDbEntity
  8
Visible (ANSI)
100
AcDbVertex
100
AcDb2dVertex
 10
171.8615760483842
 20
69.86981484285277
 30
0.0
  0
SEQEND
  5
A4F
330
A4C
100
AcDbEntity
  8
Visible (ANSI)
  0
LINE
  5
A67
330
6C
100
AcDbEntity
  8
Visible (ANSI)
100
AcDbLine
 10
153.1094094470425
 20
80.74120242783568
 30
0.0
 11
153.4588196338397
 21
80.94241437234636
 31
0.0
  0
POLYLINE
  5
A68
330
6C
100
AcDbEntity
  8
Visible (ANSI)
100
AcDb2dPolyline
 66
     1
 10
0.0
 20
0.0
 30
0.0
 70
   128
  0
VERTEX
  5
A69
330
A68
100
AcDbEntity
  8
Visible (ANSI)
100
AcDbVertex
100
AcDb2dVertex
 10
153.0056737078061
 20
58.88079657289321
 30
0.0
  0
VERTEX
  5
A6A
330
A68
100
AcDbEntity
  8
Visible (ANSI)
100
AcDbVertex
100
AcDb2dVertex
 10
153.0032290780695
 20
58.88292025022554
 30
0.0
  0
VERTEX
  5
A6C
330
A68
100
AcDbEntity
  8
Visible (ANSI)
100
AcDbVertex
100
AcDb2dVertex
 10
153.0008683987572
 20
58.88508921667046
 30
0.0
  0
VERTEX
  5
A6D
330
A68
100
AcDbEntity
  8
Visible (ANSI)
100
AcDbVertex
100
AcDb2dVertex
 10
152.9985942081173
 20
58.88730185283272
 30
0.0
  0
VERTEX
  5
A6E
330
A68
100
AcDbEntity
  8
Visible (ANSI)
100
AcDbVertex
100
AcDb2dVertex
 10
152.9964089417276
 20
58.88955651311598
 30
0.0
  0
VERTEX
  5
A6F
330
A68
100
AcDbEntity
  8
Visible (ANSI)
100
AcDbVertex
100
AcDb2dVertex
 10
152.994314926791
 20
58.89185149605909
 30
0.0
  0
VERTEX
  5
A70
330
A68
100
AcDbEntity
  8
Visible (ANSI)
100
AcDbVertex
100
AcDb2dVertex
 10
152.9923144220633
 20
58.89418506735406
 30
0.0
  0
VERTEX
  5
A71
330
A68
100
AcDbEntity
  8
Visible (ANSI)
100
AcDbVertex
100
AcDb2dVertex
 10
152.9904095551099
 20
58.89655544344829
 30
0.0
  0
VERTEX
  5
A72
330
A68
100
AcDbEntity
  8
Visible (ANSI)
100
AcDbVertex
100
AcDb2dVertex
 10
152.9886023736414
 20
58.89896079472737
 30
0.0
  0
VERTEX
  5
A73
330
A68
100
AcDbEntity
  8
Visible (ANSI)
100
AcDbVertex
100
AcDb2dVertex
 10
152.9868948112894
 20
58.90139926537589
 30
0.0
  0
VERTEX
  5
A74
330
A68
100
AcDbEntity
  8
Visible (ANSI)
100
AcDbVertex
100
AcDb2dVertex
 10
152.9852886933114
 20
58.90386896342151
 30
0.0
  0
VERTEX
  5
A75
330
A68
100
AcDbEntity
  8
Visible (ANSI)
100
AcDbVertex
100
AcDb2dVertex
 10
152.9837857422937
 20
58.90636795747584
 30
0.0
  0
VERTEX
  5
A76
330
A68
100
AcDbEntity
  8
Visible (ANSI)
100
AcDbVertex
100
AcDb2dVertex
 10
152.9823875753002
 20
58.90889429811024
 30
0.0
  0
VERTEX
  5
A77
330
A68
100
AcDbEntity
  8
Visible (ANSI)
100
AcDbVertex
100
AcDb2dVertex
 10
152.9810956753524
 20
58.91144598162256
 30
0.0
  0
VERTEX
  5
A78
330
A68
100
AcDbEntity
  8
Visible (ANSI)
100
AcDbVertex
100
AcDb2dVertex
 10
152.9799114342089
 20
58.91402099781767
 30
0.0
  0
VERTEX
  5
A79
330
A68
100
AcDbEntity
  8
Visible (ANSI)
100
AcDbVertex
100
AcDb2dVertex
 10
152.9788361181419
 20
58.91661730362827
 30
0.0
  0
VERTEX
  5
A7A
330
A68
100
AcDbEntity
  8
Visible (ANSI)
100
AcDbVertex
100
AcDb2dVertex
 10
152.9778708793451
 20
58.91923284284832
 30
0.0
  0
VERTEX
  5
A7B
330
A68
100
AcDbEntity
  8
Visible (ANSI)
100
AcDbVertex
100
AcDb2dVertex
 10
152.9770167559334
 20
58.92186553301988
 30
0.0
  0
VERTEX
  5
A7C
330
A68
100
AcDbEntity
  8
Visible (ANSI)
100
AcDbVertex
100
AcDb2dVertex
 10
152.9762746519796
 20
58.92451325711957
 30
0.0
  0
VERTEX
  5
A7D
330
A68
100
AcDbEntity
  8
Visible (ANSI)
100
AcDbVertex
100
AcDb2dVertex
 10
152.9756453660337
 20
58.92717390312735
 30
0.0
  0
VERTEX
  5
A7E
330
A68
100
AcDbEntity
  8
Visible (ANSI)
100
AcDbVertex
100
AcDb2dVertex
 10
152.9751295797152
 20
58.92984534093202
 30
0.0
  0
VERTEX
  5
A7F
330
A68
100
AcDbEntity
  8
Visible (ANSI)
100
AcDbVertex
100
AcDb2dVertex
 10
152.9747278348974
 20
58.9325254256414
 30
0.0
  0
VERTEX
  5
A80
330
A68
100
AcDbEntity
  8
Visible (ANSI)
100
AcDbVertex
100
AcDb2dVertex
 10
152.9744405679307
 20
58.93521200746168
 30
0.0
  0
VERTEX
  5
A81
330
A68
100
AcDbEntity
  8
Visible (ANSI)
100
AcDbVertex
100
AcDb2dVertex
 10
152.9742680839755
 20
58.93790291681471
 30
0.0
  0
VERTEX
  5
A82
330
A68
100
AcDbEntity
  8
Visible (ANSI)
100
AcDbVertex
100
AcDb2dVertex
 10
152.9742105698353
 20
58.9405959932315
 30
0.0
  0
SEQEND
  5
A6B
330
A68
100
AcDbEntity
  8
Visible (ANSI)
  0
POLYLINE
  5
A83
330
6C
100
AcDbEntity
  8
Visible (ANSI)
100
AcDb2dPolyline
 66
     1
 10
0.0
 20
0.0
 30
0.0
 70
   128
  0
VERTEX
  5
A84
330
A83
100
AcDbEntity
  8
Visible (ANSI)
100
AcDbVertex
100
AcDb2dVertex
 10
153.0056737078061
 20
80.6810012625278
 30
0.0
  0
VERTEX
  5
A85
330
A83
100
AcDbEntity
  8
Visible (ANSI)
100
AcDbVertex
100
AcDb2dVertex
 10
153.0008684025338
 20
80.67938556043456
 30
0.0
  0
VERTEX
  5
A87
330
A83
100
AcDbEntity
  8
Visible (ANSI)
100
AcDbVertex
100
AcDb2dVertex
 10
152.99640894097
 20
80.67759520099006
 30
0.0
  0
VERTEX
  5
A88
330
A83
100
AcDbEntity
  8
Visible (ANSI)
100
AcDbVertex
100
AcDb2dVertex
 10
152.9923144195678
 20
80.67564189561791
 30
0.0
  0
VERTEX
  5
A89
330
A83
100
AcDbEntity
  8
Visible (ANSI)
100
AcDbVertex
100
AcDb2dVertex
 10
152.9886023715024
 20
80.6735431109743
 30
0.0
  0
VERTEX
  5
A8A
330
A83
100
AcDbEntity
  8
Visible (ANSI)
100
AcDbVertex
100
AcDb2dVertex
 10
152.9852886929548
 20
80.67131187933894
 30
0.0
  0
VERTEX
  5
A8B
330
A83
100
AcDbEntity
  8
Visible (ANSI)
100
AcDbVertex
100
AcDb2dVertex
 10
152.9823875728047
 20
80.6689617990075
 30
0.0
  0
VERTEX
  5
A8C
330
A83
100
AcDbEntity
  8
Visible (ANSI)
100
AcDbVertex
100
AcDb2dVertex
 10
152.9799114342089
 20
80.66651203594821
 30
0.0
  0
VERTEX
  5
A8D
330
A83
100
AcDbEntity
  8
Visible (ANSI)
100
AcDbVertex
100
AcDb2dVertex
 10
152.977870881484
 20
80.66397543785887
 30
0.0
  0
VERTEX
  5
A8E
330
A83
100
AcDbEntity
  8
Visible (ANSI)
100
AcDbVertex
100
AcDb2dVertex
 10
152.9762746519796
 20
80.66137196785705
 30
0.0
  0
VERTEX
  5
A8F
330
A83
100
AcDbEntity
  8
Visible (ANSI)
100
AcDbVertex
100
AcDb2dVertex
 10
152.9751295768632
 20
80.65871681884512
 30
0.0
  0
VERTEX
  5
A90
330
A83
100
AcDbEntity
  8
Visible (ANSI)
100
AcDbVertex
100
AcDb2dVertex
 10
152.9744405665048
 20
80.65602540626215
 30
0.0
  0
VERTEX
  5
A91
330
A83
100
AcDbEntity
  8
Visible (ANSI)
100
AcDbVertex
100
AcDb2dVertex
 10
152.9742105698353
 20
80.65331835775639
 30
0.0
  0
VERTEX
  5
A92
330
A83
100
AcDbEntity
  8
Visible (ANSI)
100
AcDbVertex
100
AcDb2dVertex
 10
152.9744405679307
 20
80.65060962015964
 30
0.0
  0
VERTEX
  5
A93
330
A83
100
AcDbEntity
  8
Visible (ANSI)
100
AcDbVertex
100
AcDb2dVertex
 10
152.9751295797152
 20
80.64791989666764
 30
0.0
  0
VERTEX
  5
A94
330
A83
100
AcDbEntity
  8
Visible (ANSI)
100
AcDbVertex
100
AcDb2dVertex
 10
152.9762746519796
 20
80.64526474929806
 30
0.0
  0
VERTEX
  5
A95
330
A83
100
AcDbEntity
  8
Visible (ANSI)
100
AcDbVertex
100
AcDb2dVertex
 10
152.9778708793451
 20
80.64265958979467
 30
0.0
  0
VERTEX
  5
A96
330
A83
100
AcDbEntity
  8
Visible (ANSI)
100
AcDbVertex
100
AcDb2dVertex
 10
152.9799114342089
 20
80.64012468120688
 30
0.0
  0
VERTEX
  5
A97
330
A83
100
AcDbEntity
  8
Visible (ANSI)
100
AcDbVertex
100
AcDb2dVertex
 10
152.9823875753002
 20
80.63767322967251
 30
0.0
  0
VERTEX
  5
A98
330
A83
100
AcDbEntity
  8
Visible (ANSI)
100
AcDbVertex
100
AcDb2dVertex
 10
152.9852886933114
 20
80.63532483802147
 30
0.0
  0
VERTEX
  5
A99
330
A83
100
AcDbEntity
  8
Visible (ANSI)
100
AcDbVertex
100
AcDb2dVertex
 10
152.9886023736414
 20
80.6330936057702
 30
0.0
  0
VERTEX
  5
A9A
330
A83
100
AcDbEntity
  8
Visible (ANSI)
100
AcDbVertex
100
AcDb2dVertex
 10
152.9923144220633
 20
80.63099313316474
 30
0.0
  0
VERTEX
  5
A9B
330
A83
100
AcDbEntity
  8
Visible (ANSI)
100
AcDbVertex
100
AcDb2dVertex
 10
152.9964089417276
 20
80.62904151536955
 30
0.0
  0
VERTEX
  5
A9C
330
A83
100
AcDbEntity
  8
Visible (ANSI)
100
AcDbVertex
100
AcDb2dVertex
 10
153.0008683987571
 20
80.62725115536691
 30
0.0
  0
VERTEX
  5
A9D
330
A83
100
AcDbEntity
  8
Visible (ANSI)
100
AcDbVertex
100
AcDb2dVertex
 10
153.0056737078061
 20
80.62563376635749
 30
0.0
  0
SEQEND
  5
A86
330
A83
100
AcDbEntity
  8
Visible (ANSI)
  0
LINE
  5
A9E
330
6C
100
AcDbEntity
  8
Visible (ANSI)
100
AcDbLine
 10
153.3003886884673
 20
59.10012372193349
 30
0.0
 11
153.4158508838397
 21
59.16661397816014
 31
0.0
  0
LINE
  5
A9F
330
6C
100
AcDbEntity
  8
Visible (ANSI)
100
AcDbLine
 10
153.0645620141963
 20
80.71491355391833
 30
0.0
 11
153.0056737080343
 21
80.68100203376372
 31
0.0
  0
LINE
  5
AA0
330
6C
100
AcDbEntity
  8
Visible (ANSI)
100
AcDbLine
 10
153.0249868406937
 20
80.66988034033915
 30
0.0
 11
153.0056737080343
 21
80.68100203376372
 31
0.0
  0
LINE
  5
AA1
330
6C
100
AcDbEntity
  8
Visible (ANSI)
100
AcDbLine
 10
171.9020168779745
 20
69.79972834414066
 30
0.0
 11
171.9067670884972
 21
69.79658547784413
 31
0.0
  0
LINE
  5
AA2
330
6C
100
AcDbEntity
  8
Visible (ANSI)
100
AcDbLine
 10
171.861237872427
 20
69.87536491373997
 30
0.0
 11
171.8615760483842
 21
69.86981484285277
 31
0.0
  0
LINE
  5
AA3
330
6C
100
AcDbEntity
  8
Visible Narrow (ANSI)
100
AcDbLine
 10
153.0056737080343
 20
58.88079657302968
 30
0.0
 11
171.8130568060809
 21
48.05034495110945
 31
0.0
  0
LINE
  5
AA4
330
6C
100
AcDbEntity
  8
Visible Narrow (ANSI)
100
AcDbLine
 10
171.9649742786015
 20
69.76306695770844
 30
0.0
 11
171.9649742786015
 21
48.08246033924818
 31
0.0
  0
LINE
  5
AA5
330
6C
100
AcDbEntity
  8
Visible Narrow (ANSI)
100
AcDbLine
 10
171.8130568060809
 20
48.05034495110945
 30
0.0
 11
171.8130568060809
 21
69.79518234584716
 31
0.0
  0
LINE
  5
AA6
330
6C
100
AcDbEntity
  8
Visible Narrow (ANSI)
100
AcDbLine
 10
153.1094094470425
 20
80.74120242783568
 30
0.0
 11
171.8612385395932
 21
69.94274223001686
 31
0.0
  0
LINE
  5
AA7
330
6C
100
AcDbEntity
  8
Visible Narrow (ANSI)
100
AcDbLine
 10
171.8130568060809
 20
69.79518234584716
 30
0.0
 11
153.0056737080343
 21
80.62563396776736
 31
0.0
  0
LINE
  5
AA8
330
6C
100
AcDbEntity
  8
Visible Narrow (ANSI)
100
AcDbLine
 10
153.0056737080343
 20
80.62563396776736
 30
0.0
 11
153.0056737080343
 21
58.88079657302968
 31
0.0
  0
LINE
  5
AA9
330
6C
100
AcDbEntity
  8
Visible (ANSI)
100
AcDbLine
 10
153.0419481643333
 20
58.82343073520356
 30
0.0
 11
171.8214858705948
 21
48.0090142079613
 31
0.0
  0
LINE
  5
AAA
330
6C
100
AcDbEntity
  8
Visible (ANSI)
100
AcDbLine
 10
152.9742105692945
 20
80.65331800076556
 30
0.0
 11
152.9742105692945
 21
58.94059599416658
 31
0.0
  0
LINE
  5
AAB
330
6C
100
AcDbEntity
  8
Visible (ANSI)
100
AcDbLine
 10
171.5870621650008
 20
48.65282946368143
 30
0.0
 11
171.3875735858757
 21
48.76770729618352
 31
0.0
  0
LINE
  5
AAC
330
6C
100
AcDbEntity
  8
Visible (ANSI)
100
AcDbLine
 10
162.5327808027748
 20
53.86684333013091
 30
0.0
 11
162.3332922236497
 21
53.981721162633
 31
0.0
  0
LINE
  5
AAD
330
6C
100
AcDbEntity
  8
Visible (ANSI)
100
AcDbLine
 10
153.4784994405488
 20
59.08085719658039
 30
0.0
 11
153.4588196338397
 21
59.09219004354692
 31
0.0
  0
LINE
  5
AAE
330
6C
100
AcDbEntity
  8
Visible (ANSI)
100
AcDbLine
 10
172.3143844653986
 20
69.96427890221915
 30
0.0
 11
172.3143844653987
 21
48.28367228375888
 31
0.0
  0
LINE
  5
AAF
330
6C
100
AcDbEntity
  8
Visible (ANSI)
100
AcDbLine
 10
153.4588196338397
 20
80.94241437234636
 30
0.0
 11
172.2106487263904
 21
70.14395417452755
 31
0.0
  0
LINE
  5
AB0
330
6C
100
AcDbEntity
  8
Visible (ANSI)
100
AcDbLine
 10
153.4158508838397
 20
59.16661397816014
 30
0.0
 11
153.4158508838397
 21
59.19034077426294
 31
0.0
  0
LINE
  5
AB1
330
6C
100
AcDbEntity
  8
Visible (ANSI)
100
AcDbLine
 10
153.4158508838397
 20
69.42877579053733
 30
0.0
 11
153.4158508838397
 21
69.65877622439515
 31
0.0
  0
LINE
  5
AB2
330
6C
100
AcDbEntity
  8
Visible (ANSI)
100
AcDbLine
 10
153.4158508838397
 20
79.89721124066953
 30
0.0
 11
153.4158508838397
 21
80.12721167452736
 31
0.0
  0
DIMENSION
  5
AB3
330
6C
100
AcDbEntity
  8
Dimension (ANSI)
100
AcDbDimension
280
     0
  2
*D11
 10
80.76140064163082
 20
59.99348875621615
 30
0.0
 11
88.94499949533326
 21
68.31055657246986
 31
0.0
 70
   163
  1
<>{\P(8PL.)}
 42
0.5629999999999999
 73
     0
 74
     0
 75
     0
  3
Default (ANSI)
100
AcDbDiametricDimension
 15
80.98201165623082
 25
60.51146537753909
 35
0.0
 40
0.0
1001
ACAD_DSTYLE_DIMRADIAL_EXTENSION
1070
   387
1070
     1
1070
   388
1040
0.0
1070
   390
1040
0.0
1001
ACAD
1000
DSTYLE
1002
{
1070
   145
1040
-0.25
1070
   144
1040
1.000000000000046
1070
   271
1070
     3
1070
   272
1070
     2
1070
    48
1040
0.0
1070
    47
1040
0.0
1002
}
  0
MTEXT
  5
B6E
102
{ACAD_REACTORS
330
B6F
102
}
330
6C
100
AcDbEntity
  8
Symbol (ANSI)
100
AcDbMText
 10
119.4502046012052
 20
51.9116898793926
 30
0.0
 40
1.320000016313838
 41
5.398735896808894
 46
0.0
 71
     3
 72
     1
  1
{10 GA.\P }
  7
Note Text (ANSI)
 73
     2
 44
0.9878841638565063
  0
LEADER
  5
B6F
330
6C
100
AcDbEntity
  8
Symbol (ANSI)
100
AcDbLeader
  3
Default (ANSI)$7
 73
     0
 40
3.933345209096401
 41
5.030006745583289
 76
     3
 10
125.3333575491115
 20
46.58560914772952
 30
0.0
 10
121.0982821236683
 20
51.25016215739921
 30
0.0
 10
119.7966612941186
 20
51.25168987123568
 30
0.0
340
B6E
210
0.0
220
0.0
230
-1.0
213
0.0
223
-0.6600000081569191
233
0.0
1001
ACAD
1000
DSTYLE
1002
{
1070
    77
1070
     0
1002
}
  0
LINE
  5
B70
330
6C
100
AcDbEntity
  8
Center Mark (ANSI)
  6
Continuous
100
AcDbLine
 10
45.27820614893078
 20
78.87747706687758
 30
0.0
 11
41.96520614893078
 21
78.87747706687758
 31
0.0
  0
LINE
  5
B71
330
6C
100
AcDbEntity
  8
Center Mark (ANSI)
  6
Continuous
100
AcDbLine
 10
43.62170614893078
 20
80.53397706687757
 30
0.0
 11
43.62170614893078
 21
77.22097706687758
 31
0.0
  0
LINE
  5
B72
330
6C
100
AcDbEntity
  8
Center Mark (ANSI)
  6
Continuous
100
AcDbLine
 10
41.96520614893078
 20
41.62747706687758
 30
0.0
 11
45.27820614893078
 21
41.62747706687758
 31
0.0
  0
LINE
  5
B73
330
6C
100
AcDbEntity
  8
Center Mark (ANSI)
  6
Continuous
100
AcDbLine
 10
41.96520614893078
 20
78.87747706687758
 30
0.0
 11
45.27820614893078
 21
78.87747706687758
 31
0.0
  0
LINE
  5
B74
330
6C
100
AcDbEntity
  8
Centerline (ANSI)
  6
Continuous
100
AcDbLine
 10
43.62170614893078
 20
39.97097706687757
 30
0.0
 11
43.62170614893078
 21
80.53397706687757
 31
0.0
  0
LINE
  5
B75
330
6C
100
AcDbEntity
  8
Center Mark (ANSI)
  6
Continuous
100
AcDbLine
 10
63.90320614893078
 20
78.87747706687758
 30
0.0
 11
60.59020614893078
 21
78.87747706687758
 31
0.0
  0
LINE
  5
B76
330
6C
100
AcDbEntity
  8
Center Mark (ANSI)
  6
Continuous
100
AcDbLine
 10
63.90320614893078
 20
41.62747706687759
 30
0.0
 11
60.59020614893078
 21
41.62747706687759
 31
0.0
  0
LINE
  5
B77
330
6C
100
AcDbEntity
  8
Centerline (ANSI)
  6
Continuous
100
AcDbLine
 10
62.24670614893078
 20
80.53397706687757
 30
0.0
 11
62.24670614893078
 21
39.97097706687759
 31
0.0
  0
LINE
  5
B78
330
6C
100
AcDbEntity
  8
Center Mark (ANSI)
  6
Continuous
100
AcDbLine
 10
79.21520614893079
 20
41.62747706687759
 30
0.0
 11
82.52820614893078
 21
41.62747706687759
 31
0.0
  0
LINE
  5
B79
330
6C
100
AcDbEntity
  8
Center Mark (ANSI)
  6
Continuous
100
AcDbLine
 10
79.21520614893079
 20
78.87747706687758
 30
0.0
 11
82.52820614893078
 21
78.87747706687758
 31
0.0
  0
LINE
  5
B7A
330
6C
100
AcDbEntity
  8
Centerline (ANSI)
  6
Continuous
100
AcDbLine
 10
80.87170614893079
 20
39.97097706687759
 30
0.0
 11
80.87170614893079
 21
80.53397706687757
 31
0.0
  0
LINE
  5
B7B
330
6C
100
AcDbEntity
  8
Center Mark (ANSI)
  6
Continuous
100
AcDbLine
 10
43.62170614893078
 20
61.90897706687758
 30
0.0
 11
43.62170614893078
 21
58.59597706687758
 31
0.0
  0
LINE
  5
B7C
330
6C
100
AcDbEntity
  8
Center Mark (ANSI)
  6
Continuous
100
AcDbLine
 10
80.87170614893077
 20
61.9089770668776
 30
0.0
 11
80.87170614893077
 21
58.59597706687759
 31
0.0
  0
LINE
  5
B7D
330
6C
100
AcDbEntity
  8
Centerline (ANSI)
  6
Continuous
100
AcDbLine
 10
41.96520614893078
 20
60.25247706687758
 30
0.0
 11
82.52820614893076
 21
60.2524770668776
 31
0.0
  0
LINE
  5
B7E
330
6C
100
AcDbEntity
  8
Center Mark (ANSI)
  6
Continuous
100
AcDbLine
 10
43.62170614893078
 20
43.28397706687758
 30
0.0
 11
43.62170614893078
 21
39.97097706687757
 31
0.0
  0
LINE
  5
B7F
330
6C
100
AcDbEntity
  8
Center Mark (ANSI)
  6
Continuous
100
AcDbLine
 10
80.87170614893079
 20
43.28397706687759
 30
0.0
 11
80.87170614893079
 21
39.97097706687759
 31
0.0
  0
LINE
  5
B80
330
6C
100
AcDbEntity
  8
Centerline (ANSI)
  6
Continuous
100
AcDbLine
 10
41.96520614893078
 20
41.62747706687758
 30
0.0
 11
82.52820614893078
 21
41.62747706687759
 31
0.0
  0
LINE
  5
B81
330
6C
100
AcDbEntity
  8
Center Mark (ANSI)
  6
Continuous
100
AcDbLine
 10
43.62170614893078
 20
80.53397706687757
 30
0.0
 11
43.62170614893078
 21
77.22097706687758
 31
0.0
  0
LINE
  5
B82
330
6C
100
AcDbEntity
  8
Center Mark (ANSI)
  6
Continuous
100
AcDbLine
 10
80.87170614893079
 20
80.53397706687757
 30
0.0
 11
80.87170614893079
 21
77.22097706687758
 31
0.0
  0
LINE
  5
B83
330
6C
100
AcDbEntity
  8
Centerline (ANSI)
  6
Continuous
100
AcDbLine
 10
41.96520614893078
 20
78.87747706687758
 30
0.0
 11
82.52820614893078
 21
78.87747706687758
 31
0.0
  0
DIMENSION
  5
B84
330
6C
100
AcDbEntity
  8
Dimension (ANSI)
100
AcDbDimension
280
     0
  2
*D12
 10
41.54299162579706
 20
41.62747706687758
 30
0.0
 11
38.42197056315447
 21
37.59550274217403
 31
0.0
 70
   160
  1
<>
 42
0.8750000000000071
 73
     0
 74
     0
 75
     0
  3
Default (ANSI)
100
AcDbAlignedDimension
 13
42.96009449657911
 23
40.75247706687757
 33
0.0
 14
41.96520614893078
 24
41.62747706687758
 34
0.0
 50
90.0
100
AcDbRotatedDimension
1001
ACAD
1000
DSTYLE
1002
{
1070
   289
1070
     1
1070
   271
1070
     2
1070
   272
1070
     2
1070
    48
1040
0.0
1070
    47
1040
0.0
1002
}
  0
DIMENSION
  5
C84
330
6C
100
AcDbEntity
  8
Dimension (ANSI)
100
AcDbDimension
280
     0
  2
*D13
 10
43.62170614893078
 20
83.20818572829489
 30
0.0
 11
37.98358930909766
 21
83.20818572829489
 31
0.0
 70
   160
  1
<>
 42
0.8749999999999928
 73
     0
 74
     0
 75
     0
  3
Default (ANSI)
100
AcDbAlignedDimension
 13
42.74670614893079
 23
79.53908871922926
 33
0.0
 14
43.62170614893078
 24
80.53397706687757
 34
0.0
100
AcDbRotatedDimension
1001
ACAD
1000
DSTYLE
1002
{
1070
   289
1070
     1
1070
    73
1070
     0
1070
    74
1070
     0
1070
   271
1070
     2
1070
   272
1070
     2
1070
    48
1040
0.0
1070
    47
1040
0.0
1002
}
  0
MTEXT
  5
D6E
102
{ACAD_XDICTIONARY
360
D75
102
}
330
6C
100
AcDbEntity
  8
Symbol (ANSI)
100
AcDbMText
 10
103.0057493283087
 20
10.4615540219092
 30
0.0
 40
1.100000035105727
 41
81.21725818303628
 46
0.0
 71
     4
 72
     1
  3
{\fRomanS|b0|i0|c0|p2;\H2x;PART#: NPDD4242G\P(DATA SUBJECT TO CHANGE WITHOUT NOTICE)\H1.6157x; \H0.61894x;\P \H1.352x; \H0.73963x;\P\H0.6x;THIS DRAWING IS PROPERTY OF HUBBELL INC. WIEGMANN\H1.5633x; \H0.63966x;\PALL INFORMATION IS PROPRIETARY AND NOT
  1
 TO BE DUPLICATED\H1.234x; \H0.81039x;\P\H1.2571x; }
  7
Note Text (ANSI)
 73
     1
 44
0.8026435375213623
  0
ENDSEC
  0
SECTION
  2
OBJECTS
  0
DICTIONARY
  5
C
330
0
100
AcDbDictionary
281
     1
  3
ACAD_CIP_PREVIOUS_PRODUCT_INFO
350
D70
  3
ACAD_COLOR
350
63
  3
ACAD_GROUP
350
D
  3
ACAD_LAYOUT
350
62
  3
ACAD_MATERIAL
350
10
  3
ACAD_MLEADERSTYLE
350
66
  3
ACAD_MLINESTYLE
350
5F
  3
ACAD_PLOTSETTINGS
350
61
  3
ACAD_PLOTSTYLENAME
350
E
  3
ACAD_SCALELIST
350
42
  3
ACAD_TABLESTYLE
350
64
  3
ACAD_VISUALSTYLE
350
29
  3
ACDB_RECOMPOSE_DATA
350
D77
  3
AcDbVariableDictionary
350
76
  0
DICTIONARY
  5
D75
330
D6E
100
AcDbDictionary
280
     1
281
     1
  3
ACAD_MTEXT_2008_RT
360
D76
  0
XRECORD
  5
D70
102
{ACAD_REACTORS
330
C
102
}
330
C
100
AcDbXrecord
280
     1
300
INVNTOR
300
2012
300
PDSP_F_S
  0
DICTIONARY
  5
63
102
{ACAD_REACTORS
330
C
102
}
330
C
100
AcDbDictionary
281
     1
  0
DICTIONARY
  5
D
102
{ACAD_REACTORS
330
C
102
}
330
C
100
AcDbDictionary
281
     1
  0
DICTIONARY
  5
62
102
{ACAD_REACTORS
330
C
102
}
330
C
100
AcDbDictionary
281
     1
  3
Layout1
350
6B
  3
Layout2
350
73
  3
Model
350
6F
  0
DICTIONARY
  5
10
102
{ACAD_REACTORS
330
C
102
}
330
C
100
AcDbDictionary
281
     1
  3
ByBlock
350
19
  3
ByLayer
350
11
  3
Global
350
21
  0
DICTIONARY
  5
66
102
{ACAD_REACTORS
330
C
102
}
330
C
100
AcDbDictionary
281
     1
  3
Standard
350
67
  0
DICTIONARY
  5
5F
102
{ACAD_REACTORS
330
C
102
}
330
C
100
AcDbDictionary
281
     1
  3
Standard
350
60
  0
DICTIONARY
  5
61
102
{ACAD_REACTORS
330
C
102
}
330
C
100
AcDbDictionary
281
     1
  0
ACDBDICTIONARYWDFLT
  5
E
102
{ACAD_REACTORS
330
C
102
}
330
C
100
AcDbDictionary
281
     1
  3
Normal
350
F
100
AcDbDictionaryWithDefault
340
F
  0
DICTIONARY
  5
42
102
{ACAD_REACTORS
330
C
102
}
330
C
100
AcDbDictionary
281
     1
  3
A0
350
43
  3
A1
350
44
  3
A2
350
45
  3
A3
350
46
  3
A4
350
47
  3
A5
350
48
  3
A6
350
49
  3
A7
350
4A
  3
A8
350
4B
  3
A9
350
4C
  3
B0
350
4D
  3
B1
350
4E
  3
B2
350
4F
  3
B3
350
50
  3
B4
350
51
  3
B5
350
52
  3
B6
350
53
  0
DICTIONARY
  5
64
102
{ACAD_REACTORS
330
C
102
}
330
C
100
AcDbDictionary
281
     1
  3
Standard
350
65
  0
DICTIONARY
  5
29
102
{ACAD_REACTORS
330
C
102
}
330
C
100
AcDbDictionary
281
     1
  3
2dWireframe
350
2F
  3
Basic
350
2E
  3
Brighten
350
35
  3
ColorChange
350
39
  3
Conceptual
350
32
  3
Dim
350
34
  3
EdgeColorOff
350
41
  3
Facepattern
350
38
  3
Flat
350
2A
  3
FlatWithEdges
350
2B
  3
Gouraud
350
2C
  3
GouraudWithEdges
350
2D
  3
Hidden
350
31
  3
JitterOff
350
3F
  3
Linepattern
350
37
  3
OverhangOff
350
40
  3
Realistic
350
33
  3
Shaded
350
3E
  3
Shaded with edges
350
3D
  3
Shades of Gray
350
3A
  3
Sketchy
350
3B
  3
Thicken
350
36
  3
Wireframe
350
30
  3
X-Ray
350
3C
  0
XRECORD
  5
D77
102
{ACAD_REACTORS
330
C
102
}
330
C
100
AcDbXrecord
280
     1
 90
        1
330
65
330
D6E
  0
DICTIONARY
  5
76
102
{ACAD_REACTORS
330
C
102
}
330
C
100
AcDbDictionary
281
     1
  3
CANNOSCALE
350
79
  3
CMLEADERSTYLE
350
78
  3
CTABLESTYLE
350
77
  0
XRECORD
  5
D76
102
{ACAD_REACTORS
330
D75
102
}
330
D75
100
AcDbXrecord
280
     1
 40
3088896.0
  1
\pxsm0.94;{\fRomanS|b0|i0;\H2.2000;PART#: NPDD4242G\P(DATA SUBJECT TO CHANGE WITHOUT NOTICE)\P \P\fRomanS|b0|i0;\H1.3200;THIS DRAWING IS PROPERTY OF HUBBELL INC. WIEGMANN\PALL INFORMATION IS PROPRIETARY AND NOT TO BE DUPLICATED\P}
  0
LAYOUT
  5
6B
102
{ACAD_REACTORS
330
62
102
}
330
62
100
AcDbPlotSettings
  1

  2

  4

  6

 40
0.0
 41
0.0
 42
0.0
 43
0.0
 44
0.0
 45
0.0
 46
0.0
 47
0.0
 48
0.0
 49
0.0
140
0.0
141
0.0
142
1.0
143
1.0
 70
   688
 72
     0
 73
     0
 74
     5
  7

 75
    16
147
1.0
 76
     0
 77
     2
 78
   300
148
0.0
149
0.0
100
AcDbLayout
  1
Layout1
 70
     1
 71
     1
 10
0.0
 20
0.0
 11
12.0
 21
9.0
 12
0.0
 22
0.0
 32
0.0
 14
0.0
 24
0.0
 34
0.0
 15
0.0
 25
0.0
 35
0.0
146
0.0
 13
0.0
 23
0.0
 33
0.0
 16
1.0
 26
0.0
 36
0.0
 17
0.0
 27
1.0
 37
0.0
 76
     0
330
68
  0
LAYOUT
  5
73
102
{ACAD_REACTORS
330
62
102
}
330
62
100
AcDbPlotSettings
  1

  2

  4

  6

 40
0.0
 41
0.0
 42
0.0
 43
0.0
 44
0.0
 45
0.0
 46
0.0
 47
0.0
 48
0.0
 49
0.0
140
0.0
141
0.0
142
1.0
143
1.0
 70
   688
 72
     0
 73
     0
 74
     5
  7

 75
    16
147
1.0
 76
     0
 77
     2
 78
   300
148
0.0
149
0.0
100
AcDbLayout
  1
Layout2
 70
     1
 71
     2
 10
0.0
 20
0.0
 11
12.0
 21
9.0
 12
0.0
 22
0.0
 32
0.0
 14
0.0
 24
0.0
 34
0.0
 15
0.0
 25
0.0
 35
0.0
146
0.0
 13
0.0
 23
0.0
 33
0.0
 16
1.0
 26
0.0
 36
0.0
 17
0.0
 27
1.0
 37
0.0
 76
     0
330
70
  0
LAYOUT
  5
6F
102
{ACAD_REACTORS
330
62
102
}
330
62
100
AcDbPlotSettings
  1

  2

  4

  6

 40
0.0
 41
0.0
 42
0.0
 43
0.0
 44
0.0
 45
0.0
 46
0.0
 47
0.0
 48
0.0
 49
0.0
140
0.0
141
0.0
142
1.0
143
1.0
 70
  1712
 72
     0
 73
     0
 74
     0
  7

 75
     0
147
1.0
 76
     0
 77
     2
 78
   300
148
0.0
149
0.0
100
AcDbLayout
  1
Model
 70
     1
 71
     0
 10
0.0
 20
0.0
 11
12.0
 21
9.0
 12
0.0
 22
0.0
 32
0.0
 14
0.0
 24
0.0
 34
0.0
 15
0.0
 25
0.0
 35
0.0
146
0.0
 13
0.0
 23
0.0
 33
0.0
 16
1.0
 26
0.0
 36
0.0
 17
0.0
 27
1.0
 37
0.0
 76
     0
330
6C
  0
MATERIAL
  5
19
102
{ACAD_XDICTIONARY
360
1A
102
}
102
{ACAD_REACTORS
330
10
102
}
330
10
100
AcDbMaterial
  1
ByBlock
 72
     0
 43
0.0208333333333333
 43
0.0
 43
0.0
 43
0.0
 43
0.0
 43
0.0208333333333333
 43
0.0
 43
0.0
 43
0.0
 43
0.0
 43
1.0
 43
0.0
 43
0.0
 43
0.0
 43
0.0
 43
1.0
 77
     0
 47
0.0208333333333333
 47
0.0
 47
0.0
 47
0.0
 47
0.0
 47
0.0208333333333333
 47
0.0
 47
0.0
 47
0.0
 47
0.0
 47
1.0
 47
0.0
 47
0.0
 47
0.0
 47
0.0
 47
1.0
171
     0
 49
0.0208333333333333
 49
0.0
 49
0.0
 49
0.0
 49
0.0
 49
0.0208333333333333
 49
0.0
 49
0.0
 49
0.0
 49
0.0
 49
1.0
 49
0.0
 49
0.0
 49
0.0
 49
0.0
 49
1.0
175
     0
142
0.0208333333333333
142
0.0
142
0.0
142
0.0
142
0.0
142
0.0208333333333333
142
0.0
142
0.0
142
0.0
142
0.0
142
1.0
142
0.0
142
0.0
142
0.0
142
0.0
142
1.0
179
     0
144
0.0208333333333333
144
0.0
144
0.0
144
0.0
144
0.0
144
0.0208333333333333
144
0.0
144
0.0
144
0.0
144
0.0
144
1.0
144
0.0
144
0.0
144
0.0
144
0.0
144
1.0
147
0.0208333333333333
147
0.0
147
0.0
147
0.0
147
0.0
147
0.0208333333333333
147
0.0
147
0.0
147
0.0
147
0.0
147
1.0
147
0.0
147
0.0
147
0.0
147
0.0
147
1.0
  0
MATERIAL
  5
11
102
{ACAD_XDICTIONARY
360
12
102
}
102
{ACAD_REACTORS
330
10
102
}
330
10
100
AcDbMaterial
  1
ByLayer
 72
     0
 43
0.0208333333333333
 43
0.0
 43
0.0
 43
0.0
 43
0.0
 43
0.0208333333333333
 43
0.0
 43
0.0
 43
0.0
 43
0.0
 43
1.0
 43
0.0
 43
0.0
 43
0.0
 43
0.0
 43
1.0
 77
     0
 47
0.0208333333333333
 47
0.0
 47
0.0
 47
0.0
 47
0.0
 47
0.0208333333333333
 47
0.0
 47
0.0
 47
0.0
 47
0.0
 47
1.0
 47
0.0
 47
0.0
 47
0.0
 47
0.0
 47
1.0
171
     0
 49
0.0208333333333333
 49
0.0
 49
0.0
 49
0.0
 49
0.0
 49
0.0208333333333333
 49
0.0
 49
0.0
 49
0.0
 49
0.0
 49
1.0
 49
0.0
 49
0.0
 49
0.0
 49
0.0
 49
1.0
175
     0
142
0.0208333333333333
142
0.0
142
0.0
142
0.0
142
0.0
142
0.0208333333333333
142
0.0
142
0.0
142
0.0
142
0.0
142
1.0
142
0.0
142
0.0
142
0.0
142
0.0
142
1.0
179
     0
144
0.0208333333333333
144
0.0
144
0.0
144
0.0
144
0.0
144
0.0208333333333333
144
0.0
144
0.0
144
0.0
144
0.0
144
1.0
144
0.0
144
0.0
144
0.0
144
0.0
144
1.0
147
0.0208333333333333
147
0.0
147
0.0
147
0.0
147
0.0
147
0.0208333333333333
147
0.0
147
0.0
147
0.0
147
0.0
147
1.0
147
0.0
147
0.0
147
0.0
147
0.0
147
1.0
  0
MATERIAL
  5
21
102
{ACAD_XDICTIONARY
360
22
102
}
102
{ACAD_REACTORS
330
10
102
}
330
10
100
AcDbMaterial
  1
Global
 72
     0
 43
0.0208333333333333
 43
0.0
 43
0.0
 43
0.0
 43
0.0
 43
0.0208333333333333
 43
0.0
 43
0.0
 43
0.0
 43
0.0
 43
1.0
 43
0.0
 43
0.0
 43
0.0
 43
0.0
 43
1.0
 77
     0
 47
0.0208333333333333
 47
0.0
 47
0.0
 47
0.0
 47
0.0
 47
0.0208333333333333
 47
0.0
 47
0.0
 47
0.0
 47
0.0
 47
1.0
 47
0.0
 47
0.0
 47
0.0
 47
0.0
 47
1.0
171
     0
 49
0.0208333333333333
 49
0.0
 49
0.0
 49
0.0
 49
0.0
 49
0.0208333333333333
 49
0.0
 49
0.0
 49
0.0
 49
0.0
 49
1.0
 49
0.0
 49
0.0
 49
0.0
 49
0.0
 49
1.0
175
     0
142
0.0208333333333333
142
0.0
142
0.0
142
0.0
142
0.0
142
0.0208333333333333
142
0.0
142
0.0
142
0.0
142
0.0
142
1.0
142
0.0
142
0.0
142
0.0
142
0.0
142
1.0
179
     0
144
0.0208333333333333
144
0.0
144
0.0
144
0.0
144
0.0
144
0.0208333333333333
144
0.0
144
0.0
144
0.0
144
0.0
144
1.0
144
0.0
144
0.0
144
0.0
144
0.0
144
1.0
147
0.0208333333333333
147
0.0
147
0.0
147
0.0
147
0.0
147
0.0208333333333333
147
0.0
147
0.0
147
0.0
147
0.0
147
1.0
147
0.0
147
0.0
147
0.0
147
0.0
147
1.0
  0
MLEADERSTYLE
  5
67
102
{ACAD_XDICTIONARY
360
D73
102
}
102
{ACAD_REACTORS
330
66
102
}
330
66
100
AcDbMLeaderStyle
179
     2
170
     2
171
     1
172
     0
 90
        2
 40
0.0
 41
0.0
173
     1
 91
-1056964608
340
5B
 92
       -2
290
     1
 42
0.09
291
     1
 43
0.36
  3
Standard
 44
0.18
300

342
55
174
     1
178
     6
175
     1
176
     0
 93
-1056964608
 45
0.18
292
     0
297
     0
 46
0.18
 94
-1056964608
 47
1.0
 49
1.0
140
1.0
293
     1
141
0.0
294
     1
177
     0
142
1.0
295
     0
296
     0
143
0.125
271
     0
272
     9
273
     9
  0
MLINESTYLE
  5
60
102
{ACAD_REACTORS
330
5F
102
}
330
5F
100
AcDbMlineStyle
  2
STANDARD
 70
     0
  3

 62
   256
 51
90.0
 52
90.0
 71
     2
 49
0.5
 62
   256
  6
BYLAYER
 49
-0.5
 62
   256
  6
BYLAYER
  0
ACDBPLACEHOLDER
  5
F
102
{ACAD_REACTORS
330
E
102
}
330
E
  0
SCALE
  5
43
102
{ACAD_REACTORS
330
42
102
}
330
42
100
AcDbScale
 70
     0
300
1:1
140
1.0
141
1.0
290
     1
  0
SCALE
  5
44
102
{ACAD_REACTORS
330
42
102
}
330
42
100
AcDbScale
 70
     0
300
1/128" = 1'-0"
140
0.0078125
141
12.0
290
     0
  0
SCALE
  5
45
102
{ACAD_REACTORS
330
42
102
}
330
42
100
AcDbScale
 70
     0
300
1/64" = 1'-0"
140
0.015625
141
12.0
290
     0
  0
SCALE
  5
46
102
{ACAD_REACTORS
330
42
102
}
330
42
100
AcDbScale
 70
     0
300
1/32" = 1'-0"
140
0.03125
141
12.0
290
     0
  0
SCALE
  5
47
102
{ACAD_REACTORS
330
42
102
}
330
42
100
AcDbScale
 70
     0
300
1/16" = 1'-0"
140
0.0625
141
12.0
290
     0
  0
SCALE
  5
48
102
{ACAD_REACTORS
330
42
102
}
330
42
100
AcDbScale
 70
     0
300
3/32" = 1'-0"
140
0.09375
141
12.0
290
     0
  0
SCALE
  5
49
102
{ACAD_REACTORS
330
42
102
}
330
42
100
AcDbScale
 70
     0
300
1/8" = 1'-0"
140
0.125
141
12.0
290
     0
  0
SCALE
  5
4A
102
{ACAD_REACTORS
330
42
102
}
330
42
100
AcDbScale
 70
     0
300
3/16" = 1'-0"
140
0.1875
141
12.0
290
     0
  0
SCALE
  5
4B
102
{ACAD_REACTORS
330
42
102
}
330
42
100
AcDbScale
 70
     0
300
1/4" = 1'-0"
140
0.25
141
12.0
290
     0
  0
SCALE
  5
4C
102
{ACAD_REACTORS
330
42
102
}
330
42
100
AcDbScale
 70
     0
300
3/8" = 1'-0"
140
0.375
141
12.0
290
     0
  0
SCALE
  5
4D
102
{ACAD_REACTORS
330
42
102
}
330
42
100
AcDbScale
 70
     0
300
1/2" = 1'-0"
140
0.5
141
12.0
290
     0
  0
SCALE
  5
4E
102
{ACAD_REACTORS
330
42
102
}
330
42
100
AcDbScale
 70
     0
300
3/4" = 1'-0"
140
0.75
141
12.0
290
     0
  0
SCALE
  5
4F
102
{ACAD_REACTORS
330
42
102
}
330
42
100
AcDbScale
 70
     0
300
1" = 1'-0"
140
1.0
141
12.0
290
     0
  0
SCALE
  5
50
102
{ACAD_REACTORS
330
42
102
}
330
42
100
AcDbScale
 70
     0
300
1-1/2" = 1'-0"
140
1.5
141
12.0
290
     0
  0
SCALE
  5
51
102
{ACAD_REACTORS
330
42
102
}
330
42
100
AcDbScale
 70
     0
300
3" = 1'-0"
140
3.0
141
12.0
290
     0
  0
SCALE
  5
52
102
{ACAD_REACTORS
330
42
102
}
330
42
100
AcDbScale
 70
     0
300
6" = 1'-0"
140
6.0
141
12.0
290
     0
  0
SCALE
  5
53
102
{ACAD_REACTORS
330
42
102
}
330
42
100
AcDbScale
 70
     0
300
1'-0" = 1'-0"
140
12.0
141
12.0
290
     0
  0
TABLESTYLE
  5
65
102
{ACAD_XDICTIONARY
360
D71
102
}
102
{ACAD_REACTORS
330
64
102
}
330
64
100
AcDbTableStyle
280
     0
  3
Standard
 70
     0
 71
     0
 40
0.06
 41
0.06
280
     0
281
     0
  7
Standard
140
0.18
170
     2
 62
     0
 63
     7
283
     0
 90
      512
 91
        0
  1

274
    -2
284
     1
 64
     0
275
    -2
285
     1
 65
     0
276
    -2
286
     1
 66
     0
277
    -2
287
     1
 67
     0
278
    -2
288
     1
 68
     0
279
    -2
289
     1
 69
     0
  7
Standard
140
0.25
170
     5
 62
     0
 63
     7
283
     0
 90
      512
 91
        0
  1

274
    -2
284
     1
 64
     0
275
    -2
285
     1
 65
     0
276
    -2
286
     1
 66
     0
277
    -2
287
     1
 67
     0
278
    -2
288
     1
 68
     0
279
    -2
289
     1
 69
     0
  7
Standard
140
0.18
170
     5
 62
     0
 63
     7
283
     0
 90
      512
 91
        0
  1

274
    -2
284
     1
 64
     0
275
    -2
285
     1
 65
     0
276
    -2
286
     1
 66
     0
277
    -2
287
     1
 67
     0
278
    -2
288
     1
 68
     0
279
    -2
289
     1
 69
     0
  0
VISUALSTYLE
  5
2F
102
{ACAD_REACTORS
330
29
102
}
330
29
100
AcDbVisualStyle
  2
2dWireframe
 70
     4
177
     2
291
     0
 71
     0
176
     1
 72
     2
176
     1
 73
     0
176
     1
 90
        0
176
     1
 40
0.6
176
     1
 41
30.0
176
     1
 63
     7
421
 16777215
176
     1
 74
     1
176
     1
 91
        4
176
     1
 64
     7
176
     1
 65
   257
176
     1
 75
     1
176
     1
175
     1
176
     1
 42
1.0
176
     1
 92
        0
176
     1
 66
   257
176
     1
 43
1.0
176
     1
 76
     1
176
     1
 77
     6
176
     1
 78
     2
176
     1
 67
     7
176
     1
 79
     5
176
     1
170
     0
176
     1
171
     0
176
     1
290
     0
176
     1
 93
        1
176
     1
 44
0.0
176
     1
173
     0
176
     1
  0
VISUALSTYLE
  5
2E
102
{ACAD_REACTORS
330
29
102
}
330
29
100
AcDbVisualStyle
  2
Basic
 70
     7
177
     2
291
     1
 71
     1
176
     1
 72
     0
176
     1
 73
     1
176
     1
 90
        0
176
     1
 40
0.6
176
     1
 41
30.0
176
     1
 63
     7
421
 16777215
176
     1
 74
     0
176
     1
 91
        4
176
     1
 64
     7
176
     1
 65
   257
176
     1
 75
     1
176
     1
175
     1
176
     1
 42
1.0
176
     1
 92
        8
176
     1
 66
     7
176
     1
 43
1.0
176
     1
 76
     1
176
     1
 77
     6
176
     1
 78
     2
176
     1
 67
     7
176
     1
 79
     5
176
     1
170
     0
176
     1
171
     0
176
     1
290
     0
176
     1
 93
        1
176
     1
 44
0.0
176
     1
173
     0
176
     1
  0
VISUALSTYLE
  5
35
102
{ACAD_REACTORS
330
29
102
}
330
29
100
AcDbVisualStyle
  2
Brighten
 70
    12
177
     2
291
     1
 71
     2
176
     1
 72
     2
176
     1
 73
     0
176
     1
 90
        0
176
     1
 40
0.6
176
     1
 41
30.0
176
     1
 63
     7
421
 16777215
176
     1
 74
     1
176
     1
 91
        4
176
     1
 64
     7
176
     1
 65
   257
176
     1
 75
     1
176
     1
175
     1
176
     1
 42
1.0
176
     1
 92
        8
176
     1
 66
     7
176
     1
 43
1.0
176
     1
 76
     1
176
     1
 77
     6
176
     1
 78
     2
176
     1
 67
     7
176
     1
 79
     5
176
     1
170
     0
176
     1
171
     0
176
     1
290
     0
176
     1
 93
        1
176
     1
 44
50.0
176
     1
173
     0
176
     1
  0
VISUALSTYLE
  5
39
102
{ACAD_REACTORS
330
29
102
}
330
29
100
AcDbVisualStyle
  2
ColorChange
 70
    16
177
     2
291
     1
 71
     2
176
     1
 72
     2
176
     1
 73
     3
176
     1
 90
        0
176
     1
 40
0.6
176
     1
 41
30.0
176
     1
 63
     8
421
  8421504
176
     1
 74
     1
176
     1
 91
        4
176
     1
 64
     7
176
     1
 65
   257
176
     1
 75
     1
176
     1
175
     1
176
     1
 42
1.0
176
     1
 92
        8
176
     1
 66
     8
424
  8421504
176
     1
 43
1.0
176
     1
 76
     1
176
     1
 77
     6
176
     1
 78
     2
176
     1
 67
     7
176
     1
 79
     5
176
     1
170
     0
176
     1
171
     0
176
     1
290
     0
176
     1
 93
        1
176
     1
 44
0.0
176
     1
173
     0
176
     1
  0
VISUALSTYLE
  5
32
102
{ACAD_REACTORS
330
29
102
}
330
29
100
AcDbVisualStyle
  2
Conceptual
 70
     9
177
     2
291
     0
 71
     3
176
     1
 72
     2
176
     1
 73
     0
176
     1
 90
        0
176
     1
 40
0.6
176
     1
 41
30.0
176
     1
 63
     7
421
 16777215
176
     1
 74
     2
176
     1
 91
        2
176
     1
 64
     7
176
     1
 65
   257
176
     1
 75
     1
176
     1
175
     1
176
     1
 42
179.0
176
     1
 92
        8
176
     1
 66
     7
176
     1
 43
1.0
176
     1
 76
     1
176
     1
 77
     6
176
     1
 78
     2
176
     1
 67
     7
176
     1
 79
     3
176
     1
170
     0
176
     1
171
     0
176
     1
290
     0
176
     1
 93
        1
176
     1
 44
0.0
176
     1
173
     0
176
     1
  0
VISUALSTYLE
  5
34
102
{ACAD_REACTORS
330
29
102
}
330
29
100
AcDbVisualStyle
  2
Dim
 70
    11
177
     2
291
     1
 71
     2
176
     1
 72
     2
176
     1
 73
     0
176
     1
 90
        0
176
     1
 40
0.6
176
     1
 41
30.0
176
     1
 63
     7
421
 16777215
176
     1
 74
     1
176
     1
 91
        4
176
     1
 64
     7
176
     1
 65
   257
176
     1
 75
     1
176
     1
175
     1
176
     1
 42
1.0
176
     1
 92
        8
176
     1
 66
     7
176
     1
 43
1.0
176
     1
 76
     1
176
     1
 77
     6
176
     1
 78
     2
176
     1
 67
     7
176
     1
 79
     5
176
     1
170
     0
176
     1
171
     0
176
     1
290
     0
176
     1
 93
        1
176
     1
 44
-50.0
176
     1
173
     0
176
     1
  0
VISUALSTYLE
  5
41
102
{ACAD_REACTORS
330
29
102
}
330
29
100
AcDbVisualStyle
  2
EdgeColorOff
 70
    22
177
     2
291
     1
 71
     2
176
     0
 72
     2
176
     0
 73
     0
176
     0
 90
        0
176
     0
 40
0.6
176
     0
 41
30.0
176
     0
 63
     7
421
 16777215
176
     0
 74
     1
176
     0
 91
        4
176
     0
 64
     7
176
     0
 65
   257
176
     0
 75
     1
176
     0
175
     1
176
     0
 42
1.0
176
     0
 92
        8
176
     2
 66
     7
176
     0
 43
1.0
176
     0
 76
     1
176
     0
 77
     6
176
     0
 78
     2
176
     0
 67
     7
176
     0
 79
     5
176
     0
170
     0
176
     0
171
     0
176
     0
290
     0
176
     0
 93
        1
176
     0
 44
0.0
176
     0
173
     0
176
     0
  0
VISUALSTYLE
  5
38
102
{ACAD_REACTORS
330
29
102
}
330
29
100
AcDbVisualStyle
  2
Facepattern
 70
    15
177
     2
291
     1
 71
     2
176
     1
 72
     2
176
     1
 73
     0
176
     1
 90
        0
176
     1
 40
0.6
176
     1
 41
30.0
176
     1
 63
     7
421
 16777215
176
     1
 74
     1
176
     1
 91
        4
176
     1
 64
     7
176
     1
 65
   257
176
     1
 75
     1
176
     1
175
     1
176
     1
 42
1.0
176
     1
 92
        8
176
     1
 66
     7
176
     1
 43
1.0
176
     1
 76
     1
176
     1
 77
     6
176
     1
 78
     2
176
     1
 67
     7
176
     1
 79
     5
176
     1
170
     0
176
     1
171
     0
176
     1
290
     0
176
     1
 93
        1
176
     1
 44
0.0
176
     1
173
     0
176
     1
  0
VISUALSTYLE
  5
2A
102
{ACAD_REACTORS
330
29
102
}
330
29
100
AcDbVisualStyle
  2
Flat
 70
     0
177
     2
291
     1
 71
     2
176
     1
 72
     1
176
     1
 73
     1
176
     1
 90
        2
176
     1
 40
0.6
176
     1
 41
30.0
176
     1
 63
     7
421
 16777215
176
     1
 74
     0
176
     1
 91
        0
176
     1
 64
     7
176
     1
 65
   257
176
     1
 75
     1
176
     1
175
     1
176
     1
 42
1.0
176
     1
 92
        8
176
     1
 66
     7
176
     1
 43
1.0
176
     1
 76
     1
176
     1
 77
     6
176
     1
 78
     2
176
     1
 67
     7
176
     1
 79
     5
176
     1
170
     0
176
     1
171
     0
176
     1
290
     0
176
     1
 93
       13
176
     1
 44
0.0
176
     1
173
     0
176
     1
  0
VISUALSTYLE
  5
2B
102
{ACAD_REACTORS
330
29
102
}
330
29
100
AcDbVisualStyle
  2
FlatWithEdges
 70
     1
177
     2
291
     1
 71
     2
176
     1
 72
     1
176
     1
 73
     1
176
     1
 90
        2
176
     1
 40
0.6
176
     1
 41
30.0
176
     1
 63
     7
421
 16777215
176
     1
 74
     1
176
     1
 91
        0
176
     1
 64
     7
176
     1
 65
   257
176
     1
 75
     1
176
     1
175
     1
176
     1
 42
1.0
176
     1
 92
        0
176
     1
 66
   257
176
     1
 43
1.0
176
     1
 76
     1
176
     1
 77
     6
176
     1
 78
     2
176
     1
 67
     7
176
     1
 79
     5
176
     1
170
     0
176
     1
171
     0
176
     1
290
     0
176
     1
 93
       13
176
     1
 44
0.0
176
     1
173
     0
176
     1
  0
VISUALSTYLE
  5
2C
102
{ACAD_REACTORS
330
29
102
}
330
29
100
AcDbVisualStyle
  2
Gouraud
 70
     2
177
     2
291
     1
 71
     2
176
     1
 72
     2
176
     1
 73
     1
176
     1
 90
        2
176
     1
 40
0.6
176
     1
 41
30.0
176
     1
 63
     7
421
 16777215
176
     1
 74
     0
176
     1
 91
        0
176
     1
 64
     7
176
     1
 65
   257
176
     1
 75
     1
176
     1
175
     1
176
     1
 42
1.0
176
     1
 92
        0
176
     1
 66
     7
176
     1
 43
1.0
176
     1
 76
     1
176
     1
 77
     6
176
     1
 78
     2
176
     1
 67
     7
176
     1
 79
     5
176
     1
170
     0
176
     1
171
     0
176
     1
290
     0
176
     1
 93
       13
176
     1
 44
0.0
176
     1
173
     0
176
     1
  0
VISUALSTYLE
  5
2D
102
{ACAD_REACTORS
330
29
102
}
330
29
100
AcDbVisualStyle
  2
GouraudWithEdges
 70
     3
177
     2
291
     1
 71
     2
176
     1
 72
     2
176
     1
 73
     1
176
     1
 90
        2
176
     1
 40
0.6
176
     1
 41
30.0
176
     1
 63
     7
421
 16777215
176
     1
 74
     1
176
     1
 91
        0
176
     1
 64
     7
176
     1
 65
   257
176
     1
 75
     1
176
     1
175
     1
176
     1
 42
1.0
176
     1
 92
        0
176
     1
 66
   257
176
     1
 43
1.0
176
     1
 76
     1
176
     1
 77
     6
176
     1
 78
     2
176
     1
 67
     7
176
     1
 79
     5
176
     1
170
     0
176
     1
171
     0
176
     1
290
     0
176
     1
 93
       13
176
     1
 44
0.0
176
     1
173
     0
176
     1
  0
VISUALSTYLE
  5
31
102
{ACAD_REACTORS
330
29
102
}
330
29
100
AcDbVisualStyle
  2
Hidden
 70
     6
177
     2
291
     0
 71
     1
176
     1
 72
     2
176
     1
 73
     2
176
     1
 90
        0
176
     1
 40
0.6
176
     1
 41
30.0
176
     1
 63
     7
421
 16777215
176
     1
 74
     2
176
     1
 91
        2
176
     1
 64
     7
176
     1
 65
   257
176
     1
 75
     2
176
     1
175
     1
176
     1
 42
40.0
176
     1
 92
        0
176
     1
 66
   257
176
     1
 43
1.0
176
     1
 76
     1
176
     1
 77
     6
176
     1
 78
     2
176
     1
 67
     7
176
     1
 79
     3
176
     1
170
     0
176
     1
171
     0
176
     1
290
     0
176
     1
 93
        1
176
     1
 44
0.0
176
     1
173
     0
176
     1
  0
VISUALSTYLE
  5
3F
102
{ACAD_REACTORS
330
29
102
}
330
29
100
AcDbVisualStyle
  2
JitterOff
 70
    20
177
     2
291
     1
 71
     2
176
     0
 72
     2
176
     0
 73
     0
176
     0
 90
        0
176
     0
 40
0.6
176
     0
 41
30.0
176
     0
 63
     7
421
 16777215
176
     0
 74
     1
176
     0
 91
        4
176
     0
 64
     7
176
     0
 65
   257
176
     0
 75
     1
176
     0
175
     1
176
     0
 42
1.0
176
     0
 92
       10
176
     2
 66
     7
176
     0
 43
1.0
176
     0
 76
     1
176
     0
 77
     6
176
     0
 78
     2
176
     0
 67
     7
176
     0
 79
     5
176
     0
170
     0
176
     0
171
     0
176
     0
290
     0
176
     0
 93
        1
176
     0
 44
0.0
176
     0
173
     0
176
     0
  0
VISUALSTYLE
  5
37
102
{ACAD_REACTORS
330
29
102
}
330
29
100
AcDbVisualStyle
  2
Linepattern
 70
    14
177
     2
291
     1
 71
     2
176
     1
 72
     2
176
     1
 73
     0
176
     1
 90
        0
176
     1
 40
0.6
176
     1
 41
30.0
176
     1
 63
     7
421
 16777215
176
     1
 74
     1
176
     1
 91
        4
176
     1
 64
     7
176
     1
 65
   257
176
     1
 75
     7
176
     1
175
     7
176
     1
 42
1.0
176
     1
 92
        8
176
     1
 66
     7
176
     1
 43
1.0
176
     1
 76
     1
176
     1
 77
     6
176
     1
 78
     2
176
     1
 67
     7
176
     1
 79
     5
176
     1
170
     0
176
     1
171
     0
176
     1
290
     0
176
     1
 93
        1
176
     1
 44
0.0
176
     1
173
     0
176
     1
  0
VISUALSTYLE
  5
40
102
{ACAD_REACTORS
330
29
102
}
330
29
100
AcDbVisualStyle
  2
OverhangOff
 70
    21
177
     2
291
     1
 71
     2
176
     0
 72
     2
176
     0
 73
     0
176
     0
 90
        0
176
     0
 40
0.6
176
     0
 41
30.0
176
     0
 63
     7
421
 16777215
176
     0
 74
     1
176
     0
 91
        4
176
     0
 64
     7
176
     0
 65
   257
176
     0
 75
     1
176
     0
175
     1
176
     0
 42
1.0
176
     0
 92
        9
176
     2
 66
     7
176
     0
 43
1.0
176
     0
 76
     1
176
     0
 77
     6
176
     0
 78
     2
176
     0
 67
     7
176
     0
 79
     5
176
     0
170
     0
176
     0
171
     0
176
     0
290
     0
176
     0
 93
        1
176
     0
 44
0.0
176
     0
173
     0
176
     0
  0
VISUALSTYLE
  5
33
102
{ACAD_REACTORS
330
29
102
}
330
29
100
AcDbVisualStyle
  2
Realistic
 70
     8
177
     2
291
     0
 71
     2
176
     1
 72
     3
176
     1
 73
     0
176
     1
 90
        2
176
     1
 40
0.6
176
     1
 41
30.0
176
     1
 63
     7
421
 16777215
176
     1
 74
     0
176
     1
 91
        0
176
     1
 64
     7
176
     1
 65
   257
176
     1
 75
     1
176
     1
175
     1
176
     1
 42
1.0
176
     1
 92
        8
176
     1
 66
   257
176
     1
 43
1.0
176
     1
 76
     1
176
     1
 77
     6
176
     1
 78
     2
176
     1
 67
     7
176
     1
 79
     3
176
     1
170
     0
176
     1
171
     0
176
     1
290
     0
176
     1
 93
       13
176
     1
 44
0.0
176
     1
173
     0
176
     1
  0
VISUALSTYLE
  5
3E
102
{ACAD_REACTORS
330
29
102
}
330
29
100
AcDbVisualStyle
  2
Shaded
 70
    27
177
     2
291
     0
 71
     2
176
     1
 72
     2
176
     1
 73
     1
176
     1
 90
        2
176
     1
 40
0.6
176
     1
 41
30.0
176
     1
 63
     7
421
 16777215
176
     1
 74
     0
176
     1
 91
        4
176
     1
 64
     7
176
     1
 65
   257
176
     1
 75
     1
176
     1
175
     1
176
     1
 42
1.0
176
     1
 92
        8
176
     1
 66
   257
176
     1
 43
1.0
176
     1
 76
     1
176
     1
 77
     6
176
     1
 78
     2
176
     1
 67
     8
425
  7895160
176
     1
 79
     3
176
     1
170
     0
176
     1
171
     0
176
     1
290
     0
176
     1
 93
        5
176
     1
 44
0.0
176
     1
173
     0
176
     1
  0
VISUALSTYLE
  5
3D
102
{ACAD_REACTORS
330
29
102
}
330
29
100
AcDbVisualStyle
  2
Shaded with edges
 70
    26
177
     2
291
     0
 71
     2
176
     1
 72
     2
176
     1
 73
     1
176
     1
 90
        2
176
     1
 40
0.6
176
     1
 41
30.0
176
     1
 63
     7
421
 16777215
176
     1
 74
     1
176
     1
 91
       10
176
     1
 64
     7
176
     1
 65
   257
176
     1
 75
     2
176
     1
175
     1
176
     1
 42
1.0
176
     1
 92
        8
176
     1
 66
   257
176
     1
 43
1.0
176
     1
 76
     1
176
     1
 77
     6
176
     1
 78
     2
176
     1
 67
     7
176
     1
 79
     3
176
     1
170
     0
176
     1
171
     0
176
     1
290
     0
176
     1
 93
        5
176
     1
 44
0.0
176
     1
173
     0
176
     1
  0
VISUALSTYLE
  5
3A
102
{ACAD_REACTORS
330
29
102
}
330
29
100
AcDbVisualStyle
  2
Shades of Gray
 70
    23
177
     2
291
     0
 71
     2
176
     1
 72
     2
176
     1
 73
     3
176
     1
 90
        0
176
     1
 40
0.6
176
     1
 41
30.0
176
     1
 63
     7
421
 16777215
176
     1
 74
     2
176
     1
 91
        2
176
     1
 64
     7
176
     1
 65
     7
176
     1
 75
     1
176
     1
175
     1
176
     1
 42
40.0
176
     1
 92
        8
176
     1
 66
     7
176
     1
 43
1.0
176
     1
 76
     1
176
     1
 77
     6
176
     1
 78
     2
176
     1
 67
     7
176
     1
 79
     3
176
     1
170
     0
176
     1
171
     0
176
     1
290
     0
176
     1
 93
        1
176
     1
 44
0.0
176
     1
173
     0
176
     1
  0
VISUALSTYLE
  5
3B
102
{ACAD_REACTORS
330
29
102
}
330
29
100
AcDbVisualStyle
  2
Sketchy
 70
    24
177
     2
291
     0
 71
     1
176
     1
 72
     2
176
     1
 73
     2
176
     1
 90
        0
176
     1
 40
0.6
176
     1
 41
30.0
176
     1
 63
     7
421
 16777215
176
     1
 74
     2
176
     1
 91
        2
176
     1
 64
     7
176
     1
 65
     7
176
     1
 75
     1
176
     1
175
     1
176
     1
 42
40.0
176
     1
 92
       11
176
     1
 66
     7
176
     1
 43
1.0
176
     1
 76
     1
176
     1
 77
     6
176
     1
 78
     2
176
     1
 67
     7
176
     1
 79
     6
176
     1
170
     0
176
     1
171
     0
176
     1
290
     0
176
     1
 93
        1
176
     1
 44
0.0
176
     1
173
     0
176
     1
  0
VISUALSTYLE
  5
36
102
{ACAD_REACTORS
330
29
102
}
330
29
100
AcDbVisualStyle
  2
Thicken
 70
    13
177
     2
291
     1
 71
     2
176
     1
 72
     2
176
     1
 73
     0
176
     1
 90
        0
176
     1
 40
0.6
176
     1
 41
30.0
176
     1
 63
     7
421
 16777215
176
     1
 74
     1
176
     1
 91
        4
176
     1
 64
     7
176
     1
 65
   257
176
     1
 75
     1
176
     1
175
     1
176
     1
 42
1.0
176
     1
 92
       12
176
     1
 66
     7
176
     1
 43
1.0
176
     1
 76
     1
176
     1
 77
     6
176
     1
 78
     2
176
     1
 67
     7
176
     1
 79
     5
176
     1
170
     0
176
     1
171
     0
176
     1
290
     0
176
     1
 93
        1
176
     1
 44
0.0
176
     1
173
     0
176
     1
  0
VISUALSTYLE
  5
30
102
{ACAD_REACTORS
330
29
102
}
330
29
100
AcDbVisualStyle
  2
Wireframe
 70
     5
177
     2
291
     0
 71
     0
176
     1
 72
     2
176
     1
 73
     0
176
     1
 90
        0
176
     1
 40
0.6
176
     1
 41
30.0
176
     1
 63
     7
421
 16777215
176
     1
 74
     1
176
     1
 91
        4
176
     1
 64
     7
176
     1
 65
   257
176
     1
 75
     1
176
     1
175
     1
176
     1
 42
1.0
176
     1
 92
        0
176
     1
 66
   257
176
     1
 43
1.0
176
     1
 76
     1
176
     1
 77
     6
176
     1
 78
     2
176
     1
 67
     7
176
     1
 79
     3
176
     1
170
     0
176
     1
171
     0
176
     1
290
     0
176
     1
 93
        1
176
     1
 44
0.0
176
     1
173
     0
176
     1
  0
VISUALSTYLE
  5
3C
102
{ACAD_REACTORS
330
29
102
}
330
29
100
AcDbVisualStyle
  2
X-Ray
 70
    25
177
     2
291
     0
 71
     2
176
     1
 72
     2
176
     1
 73
     1
176
     1
 90
        1
176
     1
 40
0.5
176
     1
 41
30.0
176
     1
 63
     7
421
 16777215
176
     1
 74
     1
176
     1
 91
        0
176
     1
 64
     7
176
     1
 65
   257
176
     1
 75
     1
176
     1
175
     1
176
     1
 42
1.0
176
     1
 92
        8
176
     1
 66
     7
176
     1
 43
1.0
176
     1
 76
     1
176
     1
 77
     6
176
     1
 78
     2
176
     1
 67
     7
176
     1
 79
     3
176
     1
170
     0
176
     1
171
     0
176
     1
290
     0
176
     1
 93
       13
176
     1
 44
0.0
176
     1
173
     0
176
     1
  0
DICTIONARYVAR
  5
79
102
{ACAD_REACTORS
330
76
102
}
330
76
100
DictionaryVariables
280
     0
  1
1:1
  0
DICTIONARYVAR
  5
78
102
{ACAD_REACTORS
330
76
102
}
330
76
100
DictionaryVariables
280
     0
  1
STANDARD
  0
DICTIONARYVAR
  5
77
102
{ACAD_REACTORS
330
76
102
}
330
76
100
DictionaryVariables
280
     0
  1
STANDARD
  0
DICTIONARY
  5
1A
330
19
100
AcDbDictionary
280
     1
281
     1
  3
BUMPTILE
360
1C
  3
DIFFUSETILE
360
1B
  3
OPACITYTILE
360
1F
  3
REFLECTIONTILE
360
1E
  3
REFRACTIONTILE
360
20
  3
SPECULARTILE
360
1D
  0
DICTIONARY
  5
12
330
11
100
AcDbDictionary
280
     1
281
     1
  3
BUMPTILE
360
14
  3
DIFFUSETILE
360
13
  3
FBXASSET
360
109
  3
OPACITYTILE
360
17
  3
REFLECTIONTILE
360
16
  3
REFRACTIONTILE
360
18
  3
SPECULARTILE
360
15
  0
DICTIONARY
  5
22
330
21
100
AcDbDictionary
280
     1
281
     1
  3
BUMPTILE
360
24
  3
DIFFUSETILE
360
23
  3
FBXASSET
360
BA
  3
OPACITYTILE
360
27
  3
REFLECTIONTILE
360
26
  3
REFRACTIONTILE
360
28
  3
SPECULARTILE
360
25
  0
DICTIONARY
  5
D73
330
67
100
AcDbDictionary
280
     1
281
     1
  3
ACAD_XREC_ROUNDTRIP
360
D74
  0
DICTIONARY
  5
D71
330
65
100
AcDbDictionary
280
     1
281
     1
  3
ACAD_ROUNDTRIP_2008_TABLESTYLE_CELLSTYLEMAP
360
D72
  0
XRECORD
  5
1C
102
{ACAD_REACTORS
330
1A
102
}
330
1A
100
AcDbXrecord
280
     1
270
     1
271
     1
  0
XRECORD
  5
1B
102
{ACAD_REACTORS
330
1A
102
}
330
1A
100
AcDbXrecord
280
     1
270
     1
271
     1
  0
XRECORD
  5
1F
102
{ACAD_REACTORS
330
1A
102
}
330
1A
100
AcDbXrecord
280
     1
270
     1
271
     1
  0
XRECORD
  5
1E
102
{ACAD_REACTORS
330
1A
102
}
330
1A
100
AcDbXrecord
280
     1
270
     1
271
     1
  0
XRECORD
  5
20
102
{ACAD_REACTORS
330
1A
102
}
330
1A
100
AcDbXrecord
280
     1
270
     1
271
     1
  0
XRECORD
  5
1D
102
{ACAD_REACTORS
330
1A
102
}
330
1A
100
AcDbXrecord
280
     1
270
     1
271
     1
  0
XRECORD
  5
14
102
{ACAD_REACTORS
330
12
102
}
330
12
100
AcDbXrecord
280
     1
270
     1
271
     1
  0
XRECORD
  5
13
102
{ACAD_REACTORS
330
12
102
}
330
12
100
AcDbXrecord
280
     1
270
     1
271
     1
  0
XRECORD
  5
109
102
{ACAD_REACTORS
330
12
102
}
330
12
100
AcDbXrecord
280
     1
 70
     1
 90
1959938040
 71
     1
  1
852163CB-1A1C-449B-8280-900AC402E07A
311
504B03040A00000800008C51E9423DEE336E79000000790000001B0000006175746F6465736B2D64657369676E2D7061636B6167652E786D6C3C3F786D6C2076657273696F6E3D22312E302220656E636F64696E673D227574662D3822203F3E3C666F726D6174733E3C666F726D61743E687474703A2F2F736368656D612E
311
6175746F6465736B2E636F6D2F64657369676E2D7061636B6167652F323030393C2F666F726D61743E3C2F666F726D6174733E504B03041400060808008C51E942D486FD9CA0000000F4000000130000005B436F6E74656E745F54797065735D2E786D6C7D8EC10E82300C865F65E91D8A1E8C310C0EEA1BF002731658846E
311
D98AC1B77784ABF1D8FE5FBFBF75BBCE937A534CCEB38643598122B6FEE978D0B0485F9C41B54DDD7D022595594E1A469170414C76A4D9A4D207E29CF43ECE46F218070CC6BECC4078ACAA135ACF422C856C0E68EA1BF5669944DDD7BCDE7B1F8E415D77AECB980613C2E4AC91FC167A2B244592486606FC29C8FD7F045B9A
311
EF7053A7E60B504B03041400060808008C51E942C5EB4FA5ED0000007C01000008000000636F72652E786D6C8D904D6EC3201085AF82D856D8609CF84798A8D8E9097A01848983128365A0EAF18B13476A775DCDE8CDFB66468F9DBEE73BF8D2AB37CE76906418026D951B8D9D3A18C305D5109C385B9D0BBF6C105839EB0E
311
6E32E46C5A5D5C7649391BB40D49B56ED4BB28BDD70102754F4D07BDBAEA59663286E4F0B76C91EA26279D915797E018CD089E47CC98F6998BD12BE447D10C4D79A648D4E5072AFB6140A23FBFA3BEA2421C682FEA63C5F20DE62C98F9755FAD5A063D425E604211AE106E3E096E49D116E51B3EB414B37CB3FF81E232FE13
311
8AC6065AECEF3E310F39498F3C069CE55B16A93C824A75CB8DFF00504B03041400060808008C51E94255019EA25F0000007C00000007000000636E782E786D6C4DCB3B0E80201045D1AD90E915ED2CF8AC45050C11660C8261F98AB1B07AC9C97D42D718D865D3E909258CFD00CCE24AC6E326A164D74DC0B4128928FF3260
311
38472BA13128B1252AC747C6BAB984FC68F0B87FE8960A5C09FE86CFB69FBA01504B03041400060808008C51E94258CF14BD68010000020300000C0000006662782F636F72652E786D6C8D525B6E833010BC8AE5DF0A6C1E79CA382A243D412FE0804351C046C646397E9747445345518464AC999DDDD90176B83535EAA5E9
311
2AAD121CF81423A9725D54AA4CB0B3176F8BD18133A3B5FD538691128D4CF00063CE4AA35D3B43B956562A0BA8D2859C41D175D26294D770497097FFC846F8C259A8E8AE7E2BF2AB28A51FF840431D679D3560004D438613F3CBF9C6C88473E65C55CC6C55C0B4EA524983F93ADD1D77F129F2D26DFCE5C5D9F1E8A5D9E9D3
311
CB36519AAEA22CDDAE378C0C62CE6CD5DCDDE5460A2B0BCC431A441EDD7874F71DD07D10EEC3F883AEF6116564287F10B9B67853E42A65A370B63BC93ACC03303212FFB685882CEA440F7E08676408115E63C28F41432010B215E7FABEC715A05EE6569B189842BB85EA45ED244CA5687C189958E83C3680CD9EF6095FF479
311
DD033EA05025581316AE676787E96C9A3A47D14AE3F5F68694368DA8177393C5E55C063D95E7BAD6E61D35995725739864F87BF92F504B03041400060808008C51E942F44061827D0000009D0000000B0000006662782F636E782E786D6C4DCCD10AC2201886E15B91FFDCB689FD18A823C3EE63343724A7C334BAFCB6D841
311
471F3C7CBCB2FF2C81BC5D7EF9141574A716888B8F34FA382BA865A20248AF654EA9FCDD80C461710A76062DE79CEA7AD0E8A6A186B269F0F179E09919C44E308A57CE2937F64E8DB808CA90B7B74E58442BA0D1B2F995B6DDC3FA0B504B03041400060808008C51E94221475DC32C01000014020000310000006662782F35
311
324236363138322D364134342D344245462D423839382D3236343043313845363645382F636F72652E786D6C8D515B6EC32010BC0AE22B55850DD8214E84899A2A3D412F4030495162B07854397EA176A4F62F3F2C9A9D991DEDF2FD7DBC816FED8371B687A4C21068ABDC60ECA587299E5107C15E70EF5CFC4383C0CA51F7
311
B0C050F08B77695A20E56CD43666D4BA412FA00C414708D42D7F7A18D4971E652553CC8C70AD26A9AEF2A22B52E576E6091EA2CF01C03CA4BC50ACE98131D251C4DEDA16B587E3073A74DB0E51D6E277D21D193B76BC9E8582A76486456E861CC79C8DF6CF9A14B1E0D18C8FF8CA6B19F50005C5A4417883F0F693E01DA13B
311
DABEE2F5AEC1BC2EF47FA2340D4F8A92B1B1A14BDC5916A020BC9E1B820F2E9D6E8F30FA3E391F4199B70A5ABD40812B4CC8B6E93694D733352F207BB276F10CD1F9BCE0D5F594D9643D1BB356F0BADC2897DF03E65AEE297E00504B03041400060808008C51E94260001D0E4F01000033030000300000006662782F353242
311
36363138322D364134342D344245462D423839382D3236343043313845363645382F636E782E786D6CD593BD6E032110845F05D146F7675F9CC4E2B094224F90222D076B9B9883133F51FCF6596CECB87191320D3ACD0E33AB4F1CDB7C4F867C810FDAD98176754B0958E994B6BB81A6B8AD9E29D970E69D8B37364AAC9860
311
A059A69CEDBC4B7391146C45321155A3EDA1881E824B5E424039DF24C6496130006C9550846904A54091AB11BFB6E0711514C723897B206FAF1FC48D9F2063604D4EE1ACC91D9CE5B334DD982891468430D020F730895AA4E8148443AD441475575FBAEEECF49B44F2854B65F29AE4F281E693F2B2518D1C598343CE42F448
311
AF98E27106CAC53C1B2D4544C8CDC978F67096B48DABBE783582F7E8EE56CBBEC7B0D38CB3A827280EE9414450942FDA6E59B54F55FBF2DEB5EB6EB15EF40FEDE37AD9B226DB391B9D33E512C680773391CE46B091F28E35797C0F5FF111A53DB276FEF8079008A0B49EE95C33FE339FE6F4BE1197C7BF80FF00504B030414
311
00060808008C51E9424A486391A405000081100000340000006662782F35324236363138322D364134342D344245462D423839382D3236343043313845363645382F6F626A656374732E786D6CAD575B8F9B3814FE2B887DD97D20812433CDAC18AA5C3A55D44E5B356AB50F91220386F18EB9C8363399FDF5FB194C026932
311
CDAEFA02D8D8C7E77CE73B17FB6F7719B79EA890ACC86F6D6FE0DA16CDA32266797A6B572A71A6B6F536F04551A8CE32DBCA49466F6D3D6D077E2A8AAA3453314D48C5D5D1ECDDFC2F4B4634A7B6157122E5AD2DA3079A9101A9541153F9388889228334D90DBC41B3B02F3615A47C38125A124173054D319F438AD528E5F5
311
87AE3D0CFCA1FE1FF8FA69568DCFAF1AD6F6F4CF67B954248F7E38EC48CCD89B2CDF8DAE6E9CABC964EC4CAE479E33BF9B2F1DEFCDD85D5C2F1637B3773738582A0149461341133B780F6C048BFC61F32BF02B96ABF1C82C310E1A0AFAC4B4A7EC606479FEB059B3B7CE18794AFDA8C8731AD558018DDA3E233AA625CD63F8
311
9C5109CD3A08B9FDA1A771ECFC1EEBB139B23B7D1902DD1D1D41ADEEEDBBAB6911FE0D13E4250C12926A0636581A431BAEBA0784C3A2E0E61F93564614158C708BB35010F1620758AA97047E4F8C66B2D0D1A02DB00378A1F9DDA70BC2E8E73C3FA5655271AE696C0775146C112B54C95A33F60F1507EDBBC84027F84AB361
311
6A0C522F25B5839B8622D3233635405A0927295C0E33F5CEF1E8C8D0858ED3D5D20E3EDC85BBB58EDDD38797A228A9509A3EA056EBB8F6AD51323A7917794E6FB08F543980F215C87F42A81F5481DF04DB4D7613738A122497492132F8C6722DC7C5C3B5BCFAA9BF3B5FFE70BFB9EFBD7378C2D91AAA5F8067DF86AE2F3B70
311
06FE13085F88B1316D1D118EB471CF7200A44962F10253C8C349B8B38315B21CB23276111E783019EA3EE1D31F1A314814F5499D770E2C8FD2E205091AB0D58C841A0DF98D82073FFD90CEEA83CDB273F05EFD12BACE96EB0FEB4A2424A2F726A69734613953287107DE7415EA61DEB3E891BE3C172286A13FE2BDEEE29D99
311
A324D0D6986BE0D336A7EBC1E1E4DE0111F6A5854E37FE4F4E8011BAB076E4DF331951CE494E8BAA3DF7D5FA81B2D140AC835D33795F600E8505A469FE1CC5208A742458A941DC57AB7DD21C9CB1EEDBEA13186907F3978FE4A59BBDC243EE8D0A5E886DF8B26DD2D249A8BFF7B96D30186A29A07B1D246DFC1BD0B7314B92
311
4A22099EC0F5FB6AD1F59D4E0B4811ADD4265A26B01FC14584216D2B17D55A1054D222DF32D44DC4DDC903BAF201A961402DF09CC692F264CB38AFB26DC238AAD13623E51938FEBFFE6195955B921555AECEC8EEA98EEAD0D7BDC75EF94C54F46007EBFAEDCC917B631A9F2183AE2527B0EAB9767A35F2AEC78BB9E3CDBC85
311
3399DCCC9DE968EA3A37AE3B5B4CDCD13BF7CDACF553A349E0B7A5A61BD1F0124A9B5F0966DCF76D85F83149C00EEE89929BF74D78B6EF6FAB017A617F883DA897FB8DB3F8097D1F8D7F2EE0B0F2A4A05556729AD15C111D43F7FA837F25E8337ACA34F3AB8CA4F402299FDFAF8F8CC1CC05FBBEE878A7CF477BCDEC4207E4
311
4921EAA1CAC29C307EB4316D901C94796AF06B7DB27F3785A61DEA91710C3A53597016230FC6564A8B8C2A64C30B8A90C8A804F5BA3D7D6CEE1E17EC7E6A3A4445424E5B4D1E089A642E1116A05615A9FEBCF51B9A3ADD57DDDA28B783473C4CA6B02D70E6D64693AE5844E5204481D6AD502D1C5CEA76F268FC499E72F4DA
311
CDA6FD78BF4B63D32BC9FB2597F44FC6AE26851B0390464AF40D6888E09D5A99C0AF7533FFA3FF6478AB8E45143EC34AED6D394CEC8DA98F4188364699DB029A984773F40E81FABA59DEA05ED343E4A25BD6AB2468A43A8A88B4BE2968FD8C4AB3E597213A146BF5D92A7995C297974B720405992B1DE06011586164964481
311
AA8B3F375F44819B6C66DD3150C0FA7D37BDFE63B328B2ACC89BA9CDCCDC87ADF5036EB7F106C981EA6B89DC8C5C6FB4A9AF03E686B20D89A40312CB474CC0B382ED81EEB91FBC6CEE8C1E1619F71B4F0CB52B8E18BA5A5AA6B04D0EEBBBB9558383C623A71662485F2975C4741794AFDE0886F552A82AD0CB07FF02504B03
311
041400060800008C51E942000000000000000000000000350000006662782F35324236363138322D364134342D344245462D423839382D3236343043313845363645382F76657274696365732E62696E504B03041400060808008C51E942F270F1330600000004000000360000006662782F35324236363138322D36413434
311
2D344245462D423839382D3236343043313845363645382F747269616E676C65732E62696E636660600000504B03041400060800008C51E942000000000000000000000000370000006662782F35324236363138322D364134342D344245462D423839382D3236343043313845363645382F617474726962757465732E6269
311
6E504B03041400060808008C51E942D5987DFC8F00000041010000360000006662782F35324236363138322D364134342D344245462D423839382D3236343043313845363645382F6469726563746F72792E786D6C858F410EC2201045AF4266AF15DDB800BA74E7C21B903225242D6328188F2FA5C4183471359997F9FF81
311
E89FF3C41E1816475E02DF1F80A11FC8386F25A438EECEC07A250251FC3803E6F58C12560C4AD840E95E91C151A72936F496F35732D860FE635F62C8F2DA16B505C545B74125BAA2FA9E05D7CC053D063734D5C7665FD55B6B8D15D5E9BFEAFD8490FFA45E504B03041400060808008C51E942D640613DFF000000A0010000
311
3B0000006662782F35324236363138322D364134342D344245462D423839382D3236343043313845363645382F7265736F75726365732F636F72652E786D6C8D50596E833010BD0A9ADFCA609604828CA302E9097A01CB4C522BC1465EAA1EBF2650A9FDEBCFCCE82D9AA7C7CE5FF323F944EB94D11DE4298504B53493D2B7
311
0E82BF9206923367D618FF4B0689163376B0C2C0D9CD9AB0EC9034DAA3F611D566C21D14CEA187443EE2D181931F388B54041F15EE9E2E42DEC50DD33C8D74D471E6BC8D0192EDC93A815B742658898E651BCB59086ADA356A8A3FD555A1057EEC4FE3A9BA14A46FAA37520DE348FAE1F24A86BAECFB4339F4CDB166D96AE6
311
CCABF927A3B4283C4EC00B9A9784D6849EDE73DAE6455B542FF4D0969465ABFC8F292CD33F4D41695F167BDCCDE680E731C893E02C5BFB8AEB5966DC6BB7FC1B504B010214000A00000800008C51E9423DEE336E79000000790000001B00000000000000000000000000000000006175746F6465736B2D64657369676E2D70
311
61636B6167652E786D6C504B010214001400060808008C51E942D486FD9CA0000000F40000001300000000000000000000000000B20000005B436F6E74656E745F54797065735D2E786D6C504B010214001400060808008C51E942C5EB4FA5ED0000007C010000080000000000000000000000000083010000636F72652E78
311
6D6C504B010214001400060808008C51E94255019EA25F0000007C000000070000000000000000000000000096020000636E782E786D6C504B010214001400060808008C51E94258CF14BD68010000020300000C000000000000000000000000001A0300006662782F636F72652E786D6C504B010214001400060808008C51
311
E942F44061827D0000009D0000000B00000000000000000000000000AC0400006662782F636E782E786D6C504B010214001400060808008C51E94221475DC32C010000140200003100000000000000000000000000520500006662782F35324236363138322D364134342D344245462D423839382D32363430433138453636
311
45382F636F72652E786D6C504B010214001400060808008C51E94260001D0E4F010000330300003000000000000000000000000000CD0600006662782F35324236363138322D364134342D344245462D423839382D3236343043313845363645382F636E782E786D6C504B010214001400060808008C51E9424A486391A405
311
00008110000034000000000000000000000000006A0800006662782F35324236363138322D364134342D344245462D423839382D3236343043313845363645382F6F626A656374732E786D6C504B010214001400060800008C51E9420000000000000000000000003500000000000000000000000000600E00006662782F35
311
324236363138322D364134342D344245462D423839382D3236343043313845363645382F76657274696365732E62696E504B010214001400060808008C51E942F270F13306000000040000003600000000000000000000000000B30E00006662782F35324236363138322D364134342D344245462D423839382D3236343043
311
313845363645382F747269616E676C65732E62696E504B010214001400060800008C51E94200000000000000000000000037000000000000000000000000000D0F00006662782F35324236363138322D364134342D344245462D423839382D3236343043313845363645382F617474726962757465732E62696E504B010214
311
001400060808008C51E942D5987DFC8F000000410100003600000000000000000000000000620F00006662782F35324236363138322D364134342D344245462D423839382D3236343043313845363645382F6469726563746F72792E786D6C504B010214001400060808008C51E942D640613DFF000000A00100003B000000
311
00000000000000000000451000006662782F35324236363138322D364134342D344245462D423839382D3236343043313845363645382F7265736F75726365732F636F72652E786D6C504B0506000000000E000E00800400009D1100000000
310
504B03040A00000800008C51E9423DEE336E79000000790000001B0000006175746F6465736B2D64657369676E2D7061636B6167652E786D6C3C3F786D6C2076657273696F6E3D22312E302220656E636F64696E673D227574662D3822203F3E3C666F726D6174733E3C666F726D61743E687474703A2F2F736368656D612E
310
6175746F6465736B2E636F6D2F64657369676E2D7061636B6167652F323030393C2F666F726D61743E3C2F666F726D6174733E504B03041400060808008C51E942D486FD9CA0000000F4000000130000005B436F6E74656E745F54797065735D2E786D6C7D8EC10E82300C865F65E91D8A1E8C310C0EEA1BF002731658846E
310
D98AC1B77784ABF1D8FE5FBFBF75BBCE937A534CCEB38643598122B6FEE978D0B0485F9C41B54DDD7D022595594E1A469170414C76A4D9A4D207E29CF43ECE46F218070CC6BECC4078ACAA135ACF422C856C0E68EA1BF5669944DDD7BCDE7B1F8E415D77AECB980613C2E4AC91FC167A2B244592486606FC29C8FD7F045B9A
310
EF7053A7E60B504B03041400060808008C51E942F3ABDBEFEA0000007C01000008000000636F72652E786D6C8D90416EC3201045AF82665BE100B66BC7C24489649FA01740405C94182C03558F5F9C3852BBEB6A467FFE9B197D7EFA9EEFE8CBACC17AD7032D0820E394D7D64D3DA478C52DA093E0ABF7F1970D9093B3E961
310
9341F069F569D925E55D342E66D5796D76518660222075CF4D0F417D9A591632C5EC08B76291EA262753D05797E194AC46CF2356E77DF66ACD0A626C9BB16AEA231E2E971A576736E0968E037EAFCF4D59B694514AF86183058F767EDD57AB91D168108CD012930693E307251D651DABDE48DD9519DAEC7FA0B4E87F42C9BA
310
58B2FDDD271640D0FCC86320F861CB22974750B96EB9891F504B03041400060808008C51E94255019EA25F0000007C00000007000000636E782E786D6C4DCB3B0E80201045D1AD90E915ED2CF8AC45050C11660C8261F98AB1B07AC9C97D42D718D865D3E909258CFD00CCE24AC6E326A164D74DC0B4128928FF326038472B
310
A13128B1252AC747C6BAB984FC68F0B87FE8960A5C09FE86CFB69FBA01504B03041400060808008C51E942E05CA5B667010000020300000C0000006662782F636F72652E786D6C8D52ED8A8330107C9590BF8726F1E36C4B4C69A17D827B8154534FAA89C444FAF8B77E14AF47298710C3CCCEEEEC28DFDFDB060DCAF6B5D1
310
396621C548E9C294B5AE72ECDD35D860B417DC1AE37E9561A465AB723CC258F0CA1ADF2D5061B453DA01AA4DA91650F6BD7218150D5C72DC17DFAA95A1F40E2AFA5BD8C9E2262B15B21068A813BC77160CA079C8786271BDDC399971C1BDAFCB85AD4B98565F6B65B1386FB27392A5DBE0743CA64172884EC1869D4FC1677A
310
C8E278C322C62827A3587057B70F778555D2A9128B88B238A05940B75F8CEE58B48B920F9AEE62108DE54F22DF95FF14F95ABB385AECCEB21E0B064626E2CFB6109143BD1CC00F119C8C21C26B4AF8396808044276F2D23CF6B80134A8C2199B00531ABF52836CBC82A9144D0F27330B9DA706B0D9CB3ED19B3EEF7BC00794
310
BA026BD2C1F5E2DD389DCF5397283A6583C1DD9136B695CD6A6EB6B89EEBA097F2C234C6FE474D9655C9122619FF5EF103504B03041400060808008C51E942437EB3957D0000009D0000000B0000006662782F636E782E786D6C4DCCD10A83201886E15B91FFDCA5B646821AE6E83E6259C84CC3E9D8E5AF46073BFAE0E1E3
310
15DD67F5E86DD3CBC520815E08201B1E7172619150F28C5B409D1229C6FC770314C6D54A38189458522CDB49939DC7E2F3AEDE85E789BCAFDBC698065333107CADC91D73AA09EE077AE36CD04C33069512D5AFB4EF11565F504B03041400060808008C51E942416704F52A01000014020000310000006662782F3942333835
310
4343352D314346302D343330442D393141302D4246313639324641324132322F636F72652E786D6C8D515B6EC32010BC0AE22B55850DD87938C24449AA9CA01720405294182C1E558E5FA81DA9FDCB0F8B66676647BB6CF718EEE05BFB609CED21A93004DA4AA78CBDF630C50BDA40B0E3CC3B17FFD020B062D03D2C30E4EC
310
EA5D1A67483A1BB58D19B54EE9191421E80881BCE74F0F83FCD283A8448A99116ED528E44D5C7545AADCCE3CCE42F4390098869417F2EED06C96C7E31291E309A3B6C11FA8237B8C0E27B2EAE8694FF794B27A1272969251B3DCA81CC75C8CF6AF9A143167D10CCFF8D26B11B5829C62D220BC46B8FB24784BE896B6EF78B9
310
6D30AB0BFD9F288DEA4551323636748E3BC902E484D5538333E5D2F9FE0CA31FA3F31194798BA0E51BE4B8CAB1305D97054CD4BC80ECB96A67CF109DCF0B5EDCCE99DDCCC6AB96B3BADC2897DF03E65AEEC97F00504B03041400060808008C51E94206A7D2195601000033030000300000006662782F39423338354343352D
310
314346302D343330442D393141302D4246313639324641324132322F636E782E786D6CBD93CD6EC32010845F0571ADFCEFA6698489D4439FA0875E096C121A0C16E0AA79FB2E094973C9A152D50BB2668799D527CCD65FA3219FE0837676A04D595302563AA5ED6EA073DC164B4AD69C79E7E28D8D122B4618689229673BEF
310
E6294B0AB662361155A3ED218B1E829BBD848072BA498C93C26000D8624611C60D28058A5C8DF8B5058FABA0B83992B807F2FAF24EDCE603640CAC4A299C55A983B374E6A61B1325D28810061AE41E46518A393A05E1502A1145D99497AE3B3BFD249174E152397B4D52F940D34979DEA8448EACC22167217AA4974DF13801
310
E5629A8C962222E4EA643C7B389BB58D8B3E7B3582F7E8EEDAC5728961A71967518F901DD28388A0286FEBA62BEAA7A27E7E6BEA55D3AEDAFEA17E5C7535AB929DB38D73265FC218F06E22D2D9083652DEB02A8DEFE1CB3EA2B447D6CE1F7F011201E4D6339D6BC65FF269165DDFFF239FEAF4BE1197C7BF807F03504B0304
310
1400060808008C51E942BB7A8C68630700009A1B0000340000006662782F39423338354343352D314346302D343330442D393141302D4246313639324641324132322F6F626A656374732E786D6CED59DD73A33610FF5718FAD23E1883EDA44987D0499CBB1BCF35ED4DDDBBE98367181964A246084612B9B87F7D571F6020
310
26C1BDF4AD0F3620A4D5EE6F3FB5843F3FE5D479C45C90825DB981E7BB0E66499112965DB995DC4D2E5CE7E728E445215BD35C87A11C5FB96AD88DC28C1755698752BC431595BDD1F7377F3A22C10CBB4E42911057AE48EE718E3C54C922C5E2C14B91445EB67BF202CF4CEC92CD382AEF7B444BC43193C0298C33A0E218A6
310
82EEA3EF4EA370AADE47A1FAB7B3E6A3662D86674DB5D45D2E091312B1E4194B3D32F3512CCD83C5EDBBD9D9E5E46CB1984F16E7B36072F3FEE67612FC38F797E7CBE5E5F5BB4B606F5B14D4CA94E212B314F4B777A3209CAA378DE81681635C27056338D14002545AAC3E4182056CD582CFEF3E064AA2D66B2D61EB79A1DE
310
5B165AC3F32E95A159E380E8D00541EC76B5C4F5B52D5FB1FD0B0417638C920B2C815B213968D7C2C3C12BDCC80FA766340AB7075D10E1E448624E107528D972C4412930554D8942B3C09251CEC18194A324D09A33AFBBB6059EF9BAEB1CE3725751AA3CC38DB463C5E07E580ACD19F91BF303F76D64802790B6224C5E582E
310
E5BEC46E74194EF56014AACB7C665F1A209D1D4599D08898B73D4197CAF557B76EF4F1FDF669ADC2C1F1CD4B5E94984B65744A8F9A2F30647B5528D96D83519A530B401803AA5D7900E57740FE57881E0756406F9C3C2D9E1676AEE488895DC173D08DE33B131FFE7C27D0FFEABE75174E9BC55DED0DE1096EAAA0BAF8763C
310
BB3268AC2CFF2D38A3F0110CBEE073FB6A9D200AF67C471800A48CC4A1050C4168DF6D9FDC68058113023DAC42340A406460F7116EC3A92573D04AED5ED6EB18206AF7988F5112C0A62D12D818D0D307C81E9C240735B5451C82F7EC4DCCF5FA76FD715DF11D4AF09DF5E95BBC238C48C89AC719EA60DE91E801EFBF163C05
310
419FE3BD6EE39DDBAD04A0AD3057C0673508EAE1B073678304D665850A37E12B3B80102A57B7E8DF1191604A11C34555EFDB443765A88DC7DB9AC18D6606E2F9AC67C21C3F12555580D31C66741885BC9F70522A10DDE88391AC099ADE80749F57BF824536F30766AD18845E86E81F3A681DC1A163D935D2168846E0ED219C
310
27052D78BCDDC726D2B9504B001B5D6FF9D2210AB1DE284951010FD27E578794CC481BA764B7AB04C4D5232C7E592DDBE6E07BF3E0CC69FFF79C7101D1167C1771EB77BD3D6292A30CC73B940E6DD7DEADA12D34C901D21CEF28C8451E89DCC748C67E8AB353A03989F8E59B52CF682104615840BE3A0A7E1B0DDF834062B4
310
59B3ACB4DA039A8838C712D15310506406C0D56947D7B809940EAFF3D858EF4B1A6B13FD8F2C8223A8250B161328452187BCCA78E09D410CE9A26B50EEE10BD656D3D662D00A4A88641F7FC524BB97A7A06EC80FE09EC091A4927151A204CC7A04D967BEA294DAE37D8B9207953FE2A4A26F652002D35D4C28ADF2187E84C1
310
C9638C6B3781E945145AC44DEC933887A20CC98A8FD9E4FCCC7FB68FA919FA21B0B5D18E5008DB718ECA01D43B0151D7234E03BEA53EA0D46D959731CA8B8A8D32146FDEF7264BBEAF56457624BFAA5484B2B1266C09462161B2C9AA75CC0653D78115DC4807AA7D2C505E52730A7B25F1048D3769CA831B70EBA76FBB410E
310
85DF80F6DA117551C36079EC1406E22B92C9BD1BADF5757203F5778AD343AAAF6BCD76050888A9485E716255F47905E58DADD1DCE80E49B1F960B26E7DFDBCF2A0FB114E610DD42ECDC295023AC74C225599DCA91BFA3B8210DCA161C6572AA79E42E53A4D75D588E87B32A4CE4E19D1D934275E798F5991C38F6D084B6895
310
E20D4AC5437C2769BC268A752BA597931AE31705FCEDC3BA070F8C8C10E9932AF0F0D7DE5A3BBA54E5D25122F2BECAB70C1108821DD132A31BAF6499D548ADE5E6AACE145077818159152FFE3F59B4DB11FF9F2C326B18DF74B2B8D9FF82F6EDBE482B9D27CAAE4F3A0634F94951798B63806E3B34549B2C6292B995DF3A53
310
0C41B18EF2A3ABB13A681882431CFFEBAC3D9405CD763DFE4FCBDAC1B38AE3A4ACD299ACBA54472AD7553B875D9CCD82F3F9F266125C07CBC962717933B9985DF8934BDFBF5E2EFCD93BFFC7EB064DEDA851D804339DBBE0D904B57A583D590CA02B2B0A4A5238CDA74E8621E64B38D38F689FF31C0B489EED66776A9BF223
310
563F9A3EA7445B8A6B4EEE113488A980B40E185589EC8E3BDF416B52C241FBCA85A691F7007FD62A5D0732CF950BAD0249122CBC2DB49954434F138794AB73BF2506F82096A994681635CFCD2A854D27FC3753C6A4012B57A78701855B09DDAF4E8742F366794A4E12BC66C741126EB795846ACDC872186884D1DB1CD46F64
310
A3843DD8AD9FC0755F162BF0F49C0E22A33E19BC680486EA44229EE97EB762CCB2747DFB690A7D3667F59B53D22A035D8EA734E1188CB952051558115885A5592209A6BAFC69F38917F08927777455E47CFF7471FEC36659E479C1CCD0E61A4E65297C2872D6F7F0D927DD40F18055735D6C667E30DBE8A6B6EDB3C75B24B0
310
A7AA2218A88B092548CFE4C02E9F35A86CFB72AA54D19BBEBA756C10856680B1A3673D5EF391CB011F529F5394C7683FAFA57DB1AF3DD553C1263874A4A37F00504B03041400060800008C51E942000000000000000000000000350000006662782F39423338354343352D314346302D343330442D393141302D4246313639
310
324641324132322F76657274696365732E62696E504B03041400060808008C51E942F270F1330600000004000000360000006662782F39423338354343352D314346302D343330442D393141302D4246313639324641324132322F747269616E676C65732E62696E636660600000504B03041400060800008C51E942000000
310
000000000000000000370000006662782F39423338354343352D314346302D343330442D393141302D4246313639324641324132322F617474726962757465732E62696E504B03041400060808008C51E942D5987DFC8F00000041010000360000006662782F39423338354343352D314346302D343330442D393141302D42
310
46313639324641324132322F6469726563746F72792E786D6C858F410EC2201045AF4266AF15DDB800BA74E7C21B903225242D6328188F2FA5C4183471359997F9FF81E89FF3C41E1816475E02DF1F80A11FC8386F25A438EECEC07A250251FC3803E6F58C12560C4AD840E95E91C151A72936F496F35732D860FE635F62C8
310
F2DA16B505C545B74125BAA2FA9E05D7CC053D063734D5C7665FD55B6B8D15D5E9BFEAFD8490FFA45E504B03041400060808008C51E942E000F577FD000000A00100003B0000006662782F39423338354343352D314346302D343330442D393141302D4246313639324641324132322F7265736F75726365732F636F72652E
310
786D6C8D50596E833010BD0A9ADFCAC46629141947890427E8052C33A156828DBC543D7E4DA052FBD79F99D15B344F8F9FBF9647F689CE6B6B7A6039850C8DB29336730F31DC480BD95970676DF82583CCC8057BD860107C7636AE07A4AC096842428D9DF000A5F71820538F74F4E0D5072E3297312485BFE7AB54773963CE
310
F244279DE03EB81420DB9F6C1384436FA353E8F96967058F514F87464FE9A7BE697420C6B619ABA66EC970BDD6A4BA140369D93890D7FAD29465CB0AC6283F6D66C1835E7E322A8732E004A2A0AC24B421F4ED9DD18E155D51BDD0BA2B936993FF31C575FAA7296A13CAE288BBDB3C0896823C09C14F5B5F693DCB4C7BEB56
310
7C03504B010214000A00000800008C51E9423DEE336E79000000790000001B00000000000000000000000000000000006175746F6465736B2D64657369676E2D7061636B6167652E786D6C504B010214001400060808008C51E942D486FD9CA0000000F40000001300000000000000000000000000B20000005B436F6E7465
310
6E745F54797065735D2E786D6C504B010214001400060808008C51E942F3ABDBEFEA0000007C010000080000000000000000000000000083010000636F72652E786D6C504B010214001400060808008C51E94255019EA25F0000007C000000070000000000000000000000000093020000636E782E786D6C504B0102140014
310
00060808008C51E942E05CA5B667010000020300000C00000000000000000000000000170300006662782F636F72652E786D6C504B010214001400060808008C51E942437EB3957D0000009D0000000B00000000000000000000000000A80400006662782F636E782E786D6C504B010214001400060808008C51E942416704
310
F52A0100001402000031000000000000000000000000004E0500006662782F39423338354343352D314346302D343330442D393141302D4246313639324641324132322F636F72652E786D6C504B010214001400060808008C51E94206A7D21956010000330300003000000000000000000000000000C70600006662782F39
310
423338354343352D314346302D343330442D393141302D4246313639324641324132322F636E782E786D6C504B010214001400060808008C51E942BB7A8C68630700009A1B000034000000000000000000000000006B0800006662782F39423338354343352D314346302D343330442D393141302D42463136393246413241
310
32322F6F626A656374732E786D6C504B010214001400060800008C51E9420000000000000000000000003500000000000000000000000000201000006662782F39423338354343352D314346302D343330442D393141302D4246313639324641324132322F76657274696365732E62696E504B010214001400060808008C51
310
E942F270F13306000000040000003600000000000000000000000000731000006662782F39423338354343352D314346302D343330442D393141302D4246313639324641324132322F747269616E676C65732E62696E504B010214001400060800008C51E94200000000000000000000000037000000000000000000000000
310
00CD1000006662782F39423338354343352D314346302D343330442D393141302D4246313639324641324132322F617474726962757465732E62696E504B010214001400060808008C51E942D5987DFC8F000000410100003600000000000000000000000000221100006662782F39423338354343352D314346302D343330
310
442D393141302D4246313639324641324132322F6469726563746F72792E786D6C504B010214001400060808008C51E942E000F577FD000000A00100003B00000000000000000000000000051200006662782F39423338354343352D314346302D343330442D393141302D4246313639324641324132322F7265736F757263
310
65732F636F72652E786D6C504B0506000000000E000E00800400005B1300000000
  0
XRECORD
  5
17
102
{ACAD_REACTORS
330
12
102
}
330
12
100
AcDbXrecord
280
     1
270
     1
271
     1
  0
XRECORD
  5
16
102
{ACAD_REACTORS
330
12
102
}
330
12
100
AcDbXrecord
280
     1
270
     1
271
     1
  0
XRECORD
  5
18
102
{ACAD_REACTORS
330
12
102
}
330
12
100
AcDbXrecord
280
     1
270
     1
271
     1
  0
XRECORD
  5
15
102
{ACAD_REACTORS
330
12
102
}
330
12
100
AcDbXrecord
280
     1
270
     1
271
     1
  0
XRECORD
  5
24
102
{ACAD_REACTORS
330
22
102
}
330
22
100
AcDbXrecord
280
     1
270
     1
271
     1
  0
XRECORD
  5
23
102
{ACAD_REACTORS
330
22
102
}
330
22
100
AcDbXrecord
280
     1
270
     1
271
     1
  0
XRECORD
  5
BA
102
{ACAD_REACTORS
330
22
102
}
330
22
100
AcDbXrecord
280
     1
 70
     1
 90
1959938040
 71
     1
  1
0A192A60-52BC-4BDB-91B1-DFF3640A2DF1
311
504B03040A00000800008A51E9423DEE336E79000000790000001B0000006175746F6465736B2D64657369676E2D7061636B6167652E786D6C3C3F786D6C2076657273696F6E3D22312E302220656E636F64696E673D227574662D3822203F3E3C666F726D6174733E3C666F726D61743E687474703A2F2F736368656D612E
311
6175746F6465736B2E636F6D2F64657369676E2D7061636B6167652F323030393C2F666F726D61743E3C2F666F726D6174733E504B03041400060808008A51E942D486FD9CA0000000F4000000130000005B436F6E74656E745F54797065735D2E786D6C7D8EC10E82300C865F65E91D8A1E8C310C0EEA1BF002731658846E
311
D98AC1B77784ABF1D8FE5FBFBF75BBCE937A534CCEB38643598122B6FEE978D0B0485F9C41B54DDD7D022595594E1A469170414C76A4D9A4D207E29CF43ECE46F218070CC6BECC4078ACAA135ACF422C856C0E68EA1BF5669944DDD7BCDE7B1F8E415D77AECB980613C2E4AC91FC167A2B244592486606FC29C8FD7F045B9A
311
EF7053A7E60B504B03041400060808008A51E942939D8326EB0000007C01000008000000636F72652E786D6C8D904D6EC3201085AF62CDB6C2E6C7891D0B1339516ED00B20200E4A0C9681AAC72F4E1CA9DD7535A337EF9B193D7EFC9E1EC5975982F5AE075262288C535E5B37F690E215B5501C055FBC8FBF6C503839991E
311
5619041F179FE64D52DE45E362569DD7661365082642A11EB9E921A89B99642953CC8E702F67A9EE7234257977194EC9EAE275C4EABCCF5EAD594034B81E28C67B74385D0654B3B641437DA688347BC62EE7969CE88E572B2C78B4D3FBBE5A8C8C4683A09830841B840F9F04778476947CE05DC730AF56FB1F28CDFA9F50B2
311
2E32BABDFBC20208921F790E04AFD62C72790695EB9A9BF801504B03041400060808008A51E94255019EA25F0000007C00000007000000636E782E786D6C4DCB3B0E80201045D1AD90E915ED2CF8AC45050C11660C8261F98AB1B07AC9C97D42D718D865D3E909258CFD00CCE24AC6E326A164D74DC0B4128928FF32603847
311
2BA13128B1252AC747C6BAB984FC68F0B87FE8960A5C09FE86CFB69FBA01504B03041400060808008A51E942913C939466010000020300000C0000006662782F636F72652E786D6C8D52ED8E8230107C95A67F2FD01650D4941A35BEC1BD4085CA11A125A5253EFE2D1F86F3628C2129CDCCCEEEEC00DFDF9B1AF5CA7695D1
311
196621C548E9DC14952E33ECDD35D860B417DC1AE3FE9461A465A3323CC058F0D21ADFCE506EB453DA01AA4DA16650769D7218E5355C32DCE53FAA91A1F40E2ABA5BD8CAFC264B15B21068A813BC73160CA069C8706271BDDC399970C1BDAF8A99AD0A98565D2B65B148697288285D07DBE3F91024F1260D0EC9290A58BA8E
311
E3F369C38ED18A93412CB8AB9A87BBDC2AE954814544591CD034A0DB6F46772CDA45EC8BAE7631E564287F12F9B6F850E42BEDE268B63BC93A2C181819897FDB42440E75B2073F4470328408AF31E1E7A0211008D9C94BFDD8E30650AF72676C024C61FC42F5B2F60AA652343E9C4C2C741E1BC0662FFB446FFABCEF011F50
311
EA12AC4907D78B77C3743E4D9DA368950D7A7747DAD846D68BB9C9E2722E835ECA73531BFB899ACCAB92394C32FCBDE217504B03041400060808008A51E942858A6E907E0000009D0000000B0000006662782F636E782E786D6C4DCCD10E82201886E15B61FF398991841BE04CE53E5CA263213482D6E5A7CD838EBEEDD9B7
311
57349FD5A1B7892F1BBC84F24400197F0F93F58B849C66CC01354AC410D2DF0D901F57236167506289213F0F9ACC3C66973675D63F0EE443A739A95A3CD0BEC597B2D2B866EC8A4B4E28BBD1FADC771A0A258A5F69DB3DACBE504B03041400060808008A51E9427D9E6C612C01000014020000310000006662782F38454346
311
383035412D453344412D343135462D393636372D3138303336423339324443462F636F72652E786D6C8D515B6EC32010BC0AE22B55850D7EC58E30519AC7097A0107488A1283C5A3CAF10BB523B57FF961D1ECCCEC68976E1FE31D7C4BEB94D13D241986406A6E84D2D71E067F412D045B46AD31FE0F0D023D8CB28709868C
311
5EAD09D30271A3BDD43EA2DA08B9808373D243C0EFF1D343C7BFE4386443F091E16ED934F0DB709519C9623BF21875DEC600601E925EC8DAE3FED4E27A878EE561872A529F50D7346B445A5C361F65571CF6279ACF4246435062912B11E3A88B92F655932466D4ABF1199F5B397829202B3029115E23DC7D12BC21C5A620EF
311
B8DE9498E689FE4F1426F1A22828EDCB62893BCB1C6484E673835161C2F9FE0C231F93B11EA4792B27F91B6438C3A46830692B9ACFD4B880E8D9548BA7F3C6C605AF6EE7C826F56CDC548CE6E946B1FC1E30D6744FF603504B03041400060808008A51E9422447F8624F01000033030000300000006662782F384543463830
311
35412D453344412D343135462D393636372D3138303336423339324443462F636E782E786D6CD593CD6E022114855F85B06D9C19D4DAD6309874D127E8A25B06AE4A6560C24F53DFBE1745EBC64597DD90C9B987736EBE307CF33D5AF205211AEF7ACA9A8E1270CA6BE3763DCD693B7BA6642378F03EDDD8287172849E1699
311
0ABE0B3E4F55D2B095D92654AD71872A06883E070511E5729358AFA4C50070B38C228C03680D9A5C8DF8B58580ABA0381C49DA03797BFD207EF80495226F4B8AE06DE910BC9CB5E9C64489B232C69E46B58751363227AF211E1A2D936C5873E9BAB3D36F1229172E95391852CA7B5A4E2AEA460D72E42D0E058F2920BD6A4A
311
C709A890D3648D920921B727E3D92378362EAD96D56B107C40375B2D964B0C3BCD044F6684EA500164024DC5BC638B59F734EB5EDE59B766F3F59C3D748FEB45C7DB62177CF0DED64B1803C14F447997C0252A186FCBF81EBEEA23DA0464EDC3F10F2011406D3DD3B966FC673EEDE97D23AE807F81F801504B030414000608
311
08008A51E9420C96F0ACA305000080100000340000006662782F38454346383035412D453344412D343135462D393636372D3138303336423339324443462F6F626A656374732E786D6CAD57DB6EDB3810FD1541FBB2FBE08B6C274D168A0A5FEAC228D2163552EC8301839228851B4A14282A75F6EBF750A26E8E9D7A177D
311
B12C6A389C3973E642F7FD21E1D633953913E99DED0CC7B645D340842C8DEFEC4245831BDB7AEFB95208D511B3AD9424F4CED6CBB6E7C6521499590A69440AAE8E56D78BBFAC3CA029B5AD80933CBFB3F3E0912664480A25429A3F0D43A2C8308E0E43675809F6D5C692648F474A332269AA6029D65368B12AA39CFEEBD81E
311
79EE487FF75CFD6BA4A6E7A546A53FFDF3599A2B9206AF0E3B52337566AB0F93ABDBC1D56C361DCCAE27CE60B15EAC06CEBBE97879BD5CDECE3FDCE2E05C49683296481AD9DE47602359E08EAA4F9E5BB0544D2746C4046824E933D391B2BD89E5B8A34AA6F1CE3879CAFC40A4290D4AAC8046E99F511DD28CA62162CE680E
311
CB3A088DFBAF8EC6B1F379AADFCD91DDE5CB10E8EEE828AA6DAF9F5D4B85FF375CC82F6190CCA9666085A571B4E2EAB845D817829B6F2CB712A2A864845B9CF992C817DB83A816F1DC9E1ACD64A9B3417B607B8842F5B94F17A4D1CF797ECACAA8E05CD3D8F6CA2CD82357A8CA4BCBD83F54B6D67791814D889566C38D7148
311
BD64D4F66E2B8ADC1CB1A902D28A38891172B8A9774E27478E2E759E6E56B6F769ED1FB63A774F1F9E499151A9347D40AD3A70F553A3646C722E8A9CDE601F99D282F20DC87F46AAB7A6206E921D66879939454992E691900962638DADC1183F63CB297FF5FFCE3F77D46CEE47EF1C9E08B686EA17E0D9F7A11BCB0E9C9EFB
311
0CC20B3935AE6D03C25136EE590A8034492C2EB0843A1CF907DBDBA0CAA12A6317E19E039761EE33FEBA23A30685A23CA9F34C81E55159BCA04003B6929130A322BF31B08DD3AB72561E6CC4CEC17BF54BE83A5F6D3F6D0B199180DE9B9C5ED188A54CA1C5B5BCE91AD4C3BCE7D1137DF9216408475FE3BDEDE29D98A372A0
311
AD31D7C0C7754DD72FEDC9BD0302EC8B852E37EE4F4E8013BAB176F4DFB33CA09C93948AA23EF7CDFE81B65141AC935D33B969306D630169AA2F473988261D489669109B6ED514CDE119EF1E369FC148C873E113DE0AF96DE90D041772EFBFECABAA7412E9EF7D6A1B08465A0BD85EE6489DFE06F37DC8A2A8C851034FC0FA
311
7DB3EC864E570554885A6B952C33B88FDC22D270B6D68B662D091AA948F70C6D136977F280AE7E206A08502A3C67714E79B4679C17C93E621CCD689F90EC0C1CFFDF7EBF48B23D494491AA33BA7BA6A339F46DEF9137FF4154F0687BDBF23958A0F486346CC3DC13D6ADE40456BDD08EE7CEED647E3D1E5C4D16CBC16CB15A
311
0C6E9D853358ADD7D3EBD9783E59AD5B34CB19CA73EB4ED34D6844099DCD2D2433E17BD8207D4C0DB0BD7BA2F2DDC72A3BEBE7C3668851D81D610FDA65B3711E3E63ECA3E1CF15B49227156D928CD384A68AE814BAD77FF8378231A3674CB5BE49484C2FD0F2E5E3F6C819AC5CB0EFAB4E77FAE368AF595DEA843CA9443D16
311
899F12C68F36C61592C32C8D0D7E754C9A67D567EA57FD660283C134179C852883A115539150856278410F9209CD41BDEE481F9AABC705BB9FAB0151119FD3DA9247821999E7480BF0B608547FDDFA0D339D1EABEE6C74DBE1137E4CA5B02D70E6CEC68CAE5840F3A18FFEAC27A15239B8D41DE4C15992C61CA376B5A9796F
311
76696C7A1DB911B9647C327E5515DC38803292616CC03C84E894C6786E699BF91EFC27C76B732CA2F0D72F54E34BBBD038531E8314AD9C329705CC304FE6E80312F56DB79C6129D343E4A24BD69B24A8B40E1491717951D0F61993E6ABAF230C28D6E68B95F122462C2FD7349014642E748283456085D1991105AA2EFFDC7D
311
950217D9C45A3350C0FAFD7073FDC76E299244A4D5D26E6EAEC3D6F61197DB7087E240F5AD24DF4DC6CE6457DE06CC0565EF939C0E49983F61019195AC01BA177EF0B2BA32A272561F1AB9910EC51143372BCB34B619941ABA746BAB060773474A2DE490BE51EA8CE90A646F5E0846A5284C9018E5BD7F01504B0304140006
311
0800008A51E942000000000000000000000000350000006662782F38454346383035412D453344412D343135462D393636372D3138303336423339324443462F76657274696365732E62696E504B03041400060808008A51E942F270F1330600000004000000360000006662782F38454346383035412D453344412D343135
311
462D393636372D3138303336423339324443462F747269616E676C65732E62696E636660600000504B03041400060800008A51E942000000000000000000000000370000006662782F38454346383035412D453344412D343135462D393636372D3138303336423339324443462F617474726962757465732E62696E504B03
311
041400060808008A51E942D5987DFC8F00000041010000360000006662782F38454346383035412D453344412D343135462D393636372D3138303336423339324443462F6469726563746F72792E786D6C858F410EC2201045AF4266AF15DDB800BA74E7C21B903225242D6328188F2FA5C4183471359997F9FF81E89FF3C4
311
1E1816475E02DF1F80A11FC8386F25A438EECEC07A250251FC3803E6F58C12560C4AD840E95E91C151A72936F496F35732D860FE635F62C8F2DA16B505C545B74125BAA2FA9E05D7CC053D063734D5C7665FD55B6B8D15D5E9BFEAFD8490FFA45E504B03041400060808008A51E942FB77DE17FD000000A00100003B000000
311
6662782F38454346383035412D453344412D343135462D393636372D3138303336423339324443462F7265736F75726365732F636F72652E786D6C8D50596EC23010BD4A34BF95132FA401E41801E206BD80E50CC182D8C84BD5E3D721A9D4FEF56766F416CDD39387AFE9517D6288D6BB1E584DA14267FC60DDD8434E57B2
311
85EAA064F03EFD9241E5F4843DCC302839069F9F2B64BC4BE852419D1F7005758C98A0328F72F410CD0D275DEB9C8A22DEEBA736773D62CDEA42179D92318512A05A9ECC1354C0E873301865B3B04AE66C87556387F2D35E2D06501DDD1C39A52DD99D2E47B211DB8E1C37674E58F72EC4E5BC6527DECA66362B99ECF493D1
311
04D40907509C32416847E8EE83D13DE37BCEDE68BB175436B3FC8F293F877F9AB27549F035EE628BA05809F222946CE6BECA7A9559F6DCADFA06504B010214000A00000800008A51E9423DEE336E79000000790000001B00000000000000000000000000000000006175746F6465736B2D64657369676E2D7061636B616765
311
2E786D6C504B010214001400060808008A51E942D486FD9CA0000000F40000001300000000000000000000000000B20000005B436F6E74656E745F54797065735D2E786D6C504B010214001400060808008A51E942939D8326EB0000007C010000080000000000000000000000000083010000636F72652E786D6C504B0102
311
14001400060808008A51E94255019EA25F0000007C000000070000000000000000000000000094020000636E782E786D6C504B010214001400060808008A51E942913C939466010000020300000C00000000000000000000000000180300006662782F636F72652E786D6C504B010214001400060808008A51E942858A6E90
311
7E0000009D0000000B00000000000000000000000000A80400006662782F636E782E786D6C504B010214001400060808008A51E9427D9E6C612C0100001402000031000000000000000000000000004F0500006662782F38454346383035412D453344412D343135462D393636372D3138303336423339324443462F636F72
311
652E786D6C504B010214001400060808008A51E9422447F8624F010000330300003000000000000000000000000000CA0600006662782F38454346383035412D453344412D343135462D393636372D3138303336423339324443462F636E782E786D6C504B010214001400060808008A51E9420C96F0ACA305000080100000
311
3400000000000000000000000000670800006662782F38454346383035412D453344412D343135462D393636372D3138303336423339324443462F6F626A656374732E786D6C504B010214001400060800008A51E94200000000000000000000000035000000000000000000000000005C0E00006662782F38454346383035
311
412D453344412D343135462D393636372D3138303336423339324443462F76657274696365732E62696E504B010214001400060808008A51E942F270F13306000000040000003600000000000000000000000000AF0E00006662782F38454346383035412D453344412D343135462D393636372D3138303336423339324443
311
462F747269616E676C65732E62696E504B010214001400060800008A51E9420000000000000000000000003700000000000000000000000000090F00006662782F38454346383035412D453344412D343135462D393636372D3138303336423339324443462F617474726962757465732E62696E504B010214001400060808
311
008A51E942D5987DFC8F0000004101000036000000000000000000000000005E0F00006662782F38454346383035412D453344412D343135462D393636372D3138303336423339324443462F6469726563746F72792E786D6C504B010214001400060808008A51E942FB77DE17FD000000A00100003B000000000000000000
311
00000000411000006662782F38454346383035412D453344412D343135462D393636372D3138303336423339324443462F7265736F75726365732F636F72652E786D6C504B0506000000000E000E0080040000971100000000
310
504B03040A00000800008A51E9423DEE336E79000000790000001B0000006175746F6465736B2D64657369676E2D7061636B6167652E786D6C3C3F786D6C2076657273696F6E3D22312E302220656E636F64696E673D227574662D3822203F3E3C666F726D6174733E3C666F726D61743E687474703A2F2F736368656D612E
310
6175746F6465736B2E636F6D2F64657369676E2D7061636B6167652F323030393C2F666F726D61743E3C2F666F726D6174733E504B03041400060808008A51E942D486FD9CA0000000F4000000130000005B436F6E74656E745F54797065735D2E786D6C7D8EC10E82300C865F65E91D8A1E8C310C0EEA1BF002731658846E
310
D98AC1B77784ABF1D8FE5FBFBF75BBCE937A534CCEB38643598122B6FEE978D0B0485F9C41B54DDD7D022595594E1A469170414C76A4D9A4D207E29CF43ECE46F218070CC6BECC4078ACAA135ACF422C856C0E68EA1BF5669944DDD7BCDE7B1F8E415D77AECB980613C2E4AC91FC167A2B244592486606FC29C8FD7F045B9A
310
EF7053A7E60B504B03041400060808008A51E942A48870E0EC0000007C01000008000000636F72652E786D6C8D904D6EC3201085AF82665BE1008E1BDBC244FEE90D7A01848983128365A0EAF18B13476A775DCDE8CDFB66468F9FBFE73BFAD2AB37CE36403302485BE54663A70662B8E012D059F0D5B9F0CB06C8CA5937B0
310
C920F8B4BAB8EC927236681B926ADDA877517AAF0320754F4D035E5DF52C33194372F85BB648759393CEE8AB4B708C6644CF23664CFBCCC5E815C4A91FBAAEAA8E9892BEC447C67ADCF5ED07CECBB628DF5957B4C3C00F1B2C7830F3EBBE5AB50C7A04C108CD313961527D5252535633FA468A3A27FCB0D9FF407119FF0945
310
6343CEF6779F980741D3238F81E0872D8B541E41A5BAE5267E00504B03041400060808008A51E94255019EA25F0000007C00000007000000636E782E786D6C4DCB3B0E80201045D1AD90E915ED2CF8AC45050C11660C8261F98AB1B07AC9C97D42D718D865D3E909258CFD00CCE24AC6E326A164D74DC0B4128928FF326038
310
472BA13128B1252AC747C6BAB984FC68F0B87FE8960A5C09FE86CFB69FBA01504B03041400060808008A51E942957D5F8468010000020300000C0000006662782F636F72652E786D6C8D52ED8E8320107C15C2DF0B82DA5E3F8234D5DE1BDC0B50A59EA98241307DFC5B3F1AAF97A6694C90CCECECCE8EF2C3ADA951AF6C57
310
199DE0306018299D9BA2D26582BDBB902D4607C1AD31EE4F19465A362AC1038C052FADF1ED0CE5463BA51DA0DA146A0665D72987515EC325C15DFEA31A1948EFA0A2BB06ADCCAFB2544118000D758277CE8201340D194E2C2EE71BA7132EB8F75531B35501D3AA4BA52C169BEC94A6BBDD8A842CDB9255146524CD8E5F24DE
310
1ED7DBCF285D1F4F274E07B1E0AE6AEEEE72ABA4530516110B63C23684EDBE43B60FA37D147EB0F53E669C0EE50F22DF166F8A7CA55D1CCD7627598745084646E2DFB61091439DECC10F159C0E21C26B4CF8316808044276F25CDFF7B802D4ABDC19BB02A6307EA17A597B0553191A1F4E27163A8F0D60B3A77DA2177D5EF7
310
800F287509D6A483EBD9BB613A9FA6CE51B4CA92DEDD9036B691F5626EB2B89CCBA0A7F2DCD4C6BEA3A6F3AA740E930E7FAFF805504B03041400060808008A51E94220BC066A7D0000009D0000000B0000006662782F636E782E786D6C4DCCD10A83201886E15B91FFDC9599C3408D19791FB12C64A6C3E9D8E5AF46073BFA
310
E0E1E315FD67F3E86DD3CBC520815C6A4036DCE3ECC22AA1E4057340BD1229C6FC770314A6CD4A38189458532CCF9366BB4CC5E75DBD0B8F138DE1AC35DA60AE35C56DA307ACC7F18619ABAF43433ADA51029512D5AFB4EF11565F504B03041400060808008A51E9429E7CDCD42D01000014020000310000006662782F4646
310
3835344642462D384242332D343242432D424545412D3535303643323139333933312F636F72652E786D6C8D515B6EC32010BC0AE22B5585CDC376E20813D5517C825EC0B1498A1283C5A3CAF10BB523B57FF901343B333BECF2C363BA836F699D32BA8124C310483D9851E96B0383BFA01D0407C1AD31FE0F0D02DD4FB281
310
0986825FAD09F30A0D467BA97D44B519E50AF6CE490FC1708F8F06BAE14B4E7DD6071F19EE96CDFD70EBAF3223592C479EE0CEDB18002C4DD20945D7EDCAA26B3BB46B5B860ADA1E517B3A7DA0B2C4D591929AD58CF07C110A1E821A57B91A631C7551D2BE6A92C4827B353DE30F56F65E8E50504C18C25B84EB4F82F784EE
310
2979C7E59E619E27FA3F5198C717454169CFE81A77913928E26F9682E0A309E7FB338C7CCCC67A90FA6D9C1CDEA0C0192EEA82555BCAF3851A07103DAB62F574DED838E0CDED1CD9694CC9B82A04CFD38EE2F5BBC078A77D8A1F504B03041400060808008A51E94242E037755701000033030000300000006662782F464638
310
35344642462D384242332D343242432D424545412D3535303643323139333933312F636E782E786D6CBD93CD6EC32010845F0571ADFC839DA6698489D4439FA0875E316C121A1B2CC055F3F65D1292E69243A5AA1764CD0E33AB4F986FBEC6817C820FC6D98EB2B2A604AC72DAD85D47E7B82D56946C04F7CEC51B1B25568E
310
D0D12453C177DECD5396346CE53C445407630F59F410DCEC150494D34D323825070C005BCC28C2D883D6A0C9D5885F5BF0B80A8AFD91C43D90D79777E2FA0F5031F02AA5085EA50EC1D3999B6E4C94A84186D0D1A0F630CA52CED169088752CB284B565EBAEEECF49344D2854BE5EC0D49E51D4D271579A31239F20A878287
310
E8915E36C5E30454C8691A8C9211215727E3D923F86C6C5C2EB2D720788FEEB659AE5618769A091ECD08D9A13CC8089A8AA6666D513F15F5F31BABD7AC5937ECA17E5CB735AF925DF0DEB9215FC218F06E22CAD9083652C17895C6F7F0651FD1C6236BE78FBF00890072EB99CE35E32FF9B065BB58FC239FEAF4BE1197C7BF
310
407C03504B03041400060808008A51E9423B36405D61070000991B0000340000006662782F46463835344642462D384242332D343242432D424545412D3535303643323139333933312F6F626A656374732E786D6CED595B739B3814FE2B0CFBB2FB606C6C279BEC103A89DD743C9DB49D7ADBD907CF3032C8441B211849E4
310
B2BF7E8F2E602026C1DBEC5B1F6C404847E77CE7AA43F0EE31A3CE3DE682E4ECC2F5BD89EB6016E70961E9855BCADDE8CC75DE8501CF73D998E63A0C65F8C255C36E18A43C2F0B3B94E01D2AA9EC8C5E5FFDE5881833EC3A3145425CB822BEC519F25029F3048B3B2F411279E9EED1F33D33B14D36E5A8B8ED102D10C74C02
310
A730CE808A6398F2DB8F13771C0663F53E0CD4BF9D351B346BDE3F6BACA56E7349989088C5CF58EA90990D6269E6CF97EFA727E7A393F97C369A9F4EFDD1D5F5D572E4FF3E9B2C4E178BF3CBF7E7C0DE36CFA99529C1056609E8EFC90DFD60ACDED4A25B040E711DE78CE15803095069B1BA040916B05503BE49FBD1571235
310
5E6B091BCF73F5DEB2D0189EB5A9F4CD1A06448B2E0862B7AB24AEAE4DF9F2EDDF20B81862945C6009DC0AC941BB161E0E5EE18693606C46C360BBD705114E8624E6045187922D471C940253D59430300B2C19E51C1C48394A02AD39F3BA6D5BE099AFBBCE212E7725A5CA33DC503B5604EE87A5D09C917F30DF73DF440678
310
02694BC2E499E5523E15D80DCF83B11E0C0375994DED4B03A4B3A328151A11F3B623E842B9FE6AE9861FAFB78F6B150E0E6F5EF0BCC05C2AA3537AD47C8121DBAB42C96EEB0FD29C5A00C21850EDCA3D285F01F94F103DF6AC80DE38799C3FCEED5CC91113BB9C67A01B67E28C26F037717CFDAFEE1B77C1B85EDCD65E1F9E
310
E0A60AAAB31FC7B32D83C6CAF2DF80330CEEC1E0733EB3AFD631A260CF37840140CA481C9AC31084F6DDF6D10D57103821D0C32A44431F440676EFE136185B327BAD54EE65BD8E01A2768FD91025016CDA22818D1E3D7D80ECC149BC575353C43E784FDEC45C2F97EB8FEB92EF508C6FAC4F2FF18E3022216B1E66A885794B
310
A23BFCF490F304047D8EF7BA897766B71280B6C25C019F5620A887FDCEAD0D625897E62ADC04AFEC0042A85CDDA07F43448C29450CE765B56F1DDD94A1D61E6F6B06379C1A8867D38E09737C4F5455014EB39FD16214F27ECC49A14074C30F46B23A687A3DD27D5B7D028BACE7F7CC5A3108BD0CD13F75D03A8043CBB22BA4
310
2D10B5C0DB7D388F739AF368FB149948E7422D016CB4BDE57B8B28C47AA32445053C48FB5D155252236D9490DDAE1410570FB0F87DB5689AC3C49BF9274EF3BFE38C7388B6E0BB885BBFEBEC11910CA538DAA1A46FBBE66E356DA149F690E67847412E724FE45384643449707A0C3447113F7F53EA29CD85200C0BC85707C1
310
6FA231F12090186D562C2BAD76802622CAB044F4180414991E7075DAD1356E0CA5C3EB3CD6D6FB92C69A44FF278BE0086AC99C45044A51C821AF32EE7B271043DAE81A943BF882B555B4B518B48412227E8A1E30496FE531A81BF23DB8C77024296594172806B31E40F699AF28A57678DFA2F84EE58F282EE95B1988C07417
310
114ACB2C821F6170F218E2DA75607A1185067113FB24CEA02843B2E44336393D993CDBC7D40CDD10D8D868472884ED2843450FEAAD80A8EB11A706DF52EF51EAB6CC8A086579C906198A37EB7A9325DF55AB223B905F552A42D95811B604C380305967D52A6683A9EBC00A6EA403D55324505650730A7B25F1F8B53769CABD
310
1B70EBA76FBB4106855F8FF69A11755EC160796C1506E201C9F8D60DD7FA3ABA82FA3BC1C93ED557B566B30204C454242F39B12AFAB682F2C6D6686E7883A4D87C3059B7BA7E5B79D0FD08C6B0066A977AE14A019D612691AA4C6ED40DFD8A2004B76898F195CAA9C750B94C125D35227A4DFAD4D92A235A9B66C42B6E31CB
310
33F8B10D61312D13BC4189B88B6E248DD644B16EA5F4325261FCA2809F3FAC3BF0C0C80091BEA8020F3F74D6DAD1852A970E1291B765B6658840106C89961ADD78054BAD462A2DD75775A680BA0B0CCCAA78FEF364D16C47FC3C59A4D6307EEC6441F32DA2FB68D3C8E6B132EBA34E01757A5254DEE214A0BB0E35D53A8998
310
5C6EC5B7BE14414CAC82FCE062AC8A1986601FC7FF3969F72541B35D87FFE392B6FFACE0382AA9B426AB26D581C275D54C61934BFF7C7A793A199D4CAF16A3F9D5F26A74EE5FF9A3E5F5F5EC743EB99C2EAF6B3D19E26150C7329DBAE0D9C4B46A583D590CA0292B724A1238CC274E8A21E44B38D20FE89EF30C0BC89DCD5E
310
77627BF20356DF9B36A7445B8A2B4E6E11F487A980AC0E6294B16C8F3BBF406752C239FBC2859E9177077FD62A5D0712CF850B9D0249622CBC2D7499543F4F13878CAB53BF2506710CB1546544B3A87EAE57296C5AD1BF9E32240B58B95A2D0CA8DB0A687EB51A149A37CB537C94E0153B0E9270BB2D25146B4696FD402D8C
310
DE66AF7E231B25ECCE6EFD08AEFBB258BEA7E7B41019F4C5E0452330544712F154B7BB156396A5CBE59731B4D99CD567A7A0650ABA1C4E69C4311873A9EA29B022B00A4BB340124C75F1C7E60BCFE10B4FE6E8A2C8F9F5F1ECF4B7CD22CFB29C99A1CD251CCA12F84EE4AC6FE1AB4FB281DA01ABDEBAD84C27FE74A37BDAB6
310
CD1E6D91C09E2A8A60A0AA2594201D9303BB7CD69FB2DDCBB1524567FA6AE9D8200ABD006347CF5ABCE61B97033EA4BEA6288FD17E5E49FB625B7BACA7824D70684887FF02504B03041400060800008A51E942000000000000000000000000350000006662782F46463835344642462D384242332D343242432D424545412D
310
3535303643323139333933312F76657274696365732E62696E504B03041400060808008A51E942F270F1330600000004000000360000006662782F46463835344642462D384242332D343242432D424545412D3535303643323139333933312F747269616E676C65732E62696E636660600000504B03041400060800008A51
310
E942000000000000000000000000370000006662782F46463835344642462D384242332D343242432D424545412D3535303643323139333933312F617474726962757465732E62696E504B03041400060808008A51E942D5987DFC8F00000041010000360000006662782F46463835344642462D384242332D343242432D42
310
4545412D3535303643323139333933312F6469726563746F72792E786D6C858F410EC2201045AF4266AF15DDB800BA74E7C21B903225242D6328188F2FA5C4183471359997F9FF81E89FF3C41E1816475E02DF1F80A11FC8386F25A438EECEC07A250251FC3803E6F58C12560C4AD840E95E91C151A72936F496F35732D860
310
FE635F62C8F2DA16B505C545B74125BAA2FA9E05D7CC053D063734D5C7665FD55B6B8D15D5E9BFEAFD8490FFA45E504B03041400060808008A51E9427BE6BA58FE000000A00100003B0000006662782F46463835344642462D384242332D343242432D424545412D3535303643323139333933312F7265736F75726365732F
310
636F72652E786D6C8D504B6E833010BD0A9A6D65B04D6920328E80F406BD80652689956047FE543D7E4D42A576D7CDCCE87D344F4F1CBE965BF1893E18677B60258502AD76B3B1E71E523C91168A8314DEB9F84B0685550BF6B0C220C5D9BB74DF20ED6C441B336ADD8C1BA842C00885BEE5A387A02FB8A852A59815E15ADE
310
95BEAA3396ACCC74D64911A2CF018AE7937582F4185CF21A83A89EAC14299979D39839FF3427831EE46E3A8E63D7D584D1A925AF9C4F649C867752B743D3BEF1B1198E4751AD6629A2597E326A8F2AE20C92535613BA23B4FB6074CFF89EB317DAEC6B2AAA55FEC794EEF33F4DC9D858F32DEED31640B21CE4414851AD7DE5
310
F52833EFB55BF90D504B010214000A00000800008A51E9423DEE336E79000000790000001B00000000000000000000000000000000006175746F6465736B2D64657369676E2D7061636B6167652E786D6C504B010214001400060808008A51E942D486FD9CA0000000F40000001300000000000000000000000000B2000000
310
5B436F6E74656E745F54797065735D2E786D6C504B010214001400060808008A51E942A48870E0EC0000007C010000080000000000000000000000000083010000636F72652E786D6C504B010214001400060808008A51E94255019EA25F0000007C000000070000000000000000000000000095020000636E782E786D6C50
310
4B010214001400060808008A51E942957D5F8468010000020300000C00000000000000000000000000190300006662782F636F72652E786D6C504B010214001400060808008A51E94220BC066A7D0000009D0000000B00000000000000000000000000AB0400006662782F636E782E786D6C504B010214001400060808008A
310
51E9429E7CDCD42D010000140200003100000000000000000000000000510500006662782F46463835344642462D384242332D343242432D424545412D3535303643323139333933312F636F72652E786D6C504B010214001400060808008A51E94242E0377557010000330300003000000000000000000000000000CD0600
310
006662782F46463835344642462D384242332D343242432D424545412D3535303643323139333933312F636E782E786D6C504B010214001400060808008A51E9423B36405D61070000991B00003400000000000000000000000000720800006662782F46463835344642462D384242332D343242432D424545412D35353036
310
43323139333933312F6F626A656374732E786D6C504B010214001400060800008A51E9420000000000000000000000003500000000000000000000000000251000006662782F46463835344642462D384242332D343242432D424545412D3535303643323139333933312F76657274696365732E62696E504B010214001400
310
060808008A51E942F270F13306000000040000003600000000000000000000000000781000006662782F46463835344642462D384242332D343242432D424545412D3535303643323139333933312F747269616E676C65732E62696E504B010214001400060800008A51E94200000000000000000000000037000000000000
310
00000000000000D21000006662782F46463835344642462D384242332D343242432D424545412D3535303643323139333933312F617474726962757465732E62696E504B010214001400060808008A51E942D5987DFC8F000000410100003600000000000000000000000000271100006662782F46463835344642462D3842
310
42332D343242432D424545412D3535303643323139333933312F6469726563746F72792E786D6C504B010214001400060808008A51E9427BE6BA58FE000000A00100003B000000000000000000000000000A1200006662782F46463835344642462D384242332D343242432D424545412D3535303643323139333933312F72
310
65736F75726365732F636F72652E786D6C504B0506000000000E000E0080040000611300000000
  0
XRECORD
  5
27
102
{ACAD_REACTORS
330
22
102
}
330
22
100
AcDbXrecord
280
     1
270
     1
271
     1
  0
XRECORD
  5
26
102
{ACAD_REACTORS
330
22
102
}
330
22
100
AcDbXrecord
280
     1
270
     1
271
     1
  0
XRECORD
  5
28
102
{ACAD_REACTORS
330
22
102
}
330
22
100
AcDbXrecord
280
     1
270
     1
271
     1
  0
XRECORD
  5
25
102
{ACAD_REACTORS
330
22
102
}
330
22
100
AcDbXrecord
280
     1
270
     1
271
     1
  0
XRECORD
  5
D74
102
{ACAD_REACTORS
330
D73
102
}
330
D73
100
AcDbXrecord
280
     1
102
ACAD_ROUNDTRIP_2012_MLEADER_STYLE
298
     1
  0
CELLSTYLEMAP
  5
D72
102
{ACAD_REACTORS
330
D71
102
}
330
D71
100
AcDbCellStyleMap
 90
        3
300
CELLSTYLE
  1
TABLEFORMAT_BEGIN
 90
        5
170
     1
 91
        0
 92
    32768
 62
   257
 93
        1
300
CONTENTFORMAT
  1
CONTENTFORMAT_BEGIN
 90
        0
 91
        0
 92
      512
 93
        0
300

 40
0.0
140
1.0
 94
        5
 62
     0
340
55
144
0.25
309
CONTENTFORMAT_END
171
     0
 94
        0
309
TABLEFORMAT_END
  1
CELLSTYLE_BEGIN
 90
        1
 91
        1
300
_TITLE
309
CELLSTYLE_END
300
CELLSTYLE
  1
TABLEFORMAT_BEGIN
 90
        5
170
     1
 91
        0
 92
        0
 62
   257
 93
        1
300
CONTENTFORMAT
  1
CONTENTFORMAT_BEGIN
 90
        0
 91
        0
 92
      512
 93
        0
300

 40
0.0
140
1.0
 94
        5
 62
     0
340
55
144
0.18
309
CONTENTFORMAT_END
171
     0
 94
        0
309
TABLEFORMAT_END
  1
CELLSTYLE_BEGIN
 90
        2
 91
        1
300
_HEADER
309
CELLSTYLE_END
300
CELLSTYLE
  1
TABLEFORMAT_BEGIN
 90
        5
170
     1
 91
        0
 92
        0
 62
   257
 93
        1
300
CONTENTFORMAT
  1
CONTENTFORMAT_BEGIN
 90
        0
 91
        0
 92
      512
 93
        0
300

 40
0.0
140
1.0
 94
        2
 62
     0
340
55
144
0.18
309
CONTENTFORMAT_END
171
     0
 94
        0
309
TABLEFORMAT_END
  1
CELLSTYLE_BEGIN
 90
        3
 91
        2
300
_DATA
309
CELLSTYLE_END
  0
ENDSEC
  0
EOF
