  0
SECTION
  2
HEADER
  9
$ACADVER
  1
AC1024
  9
$ACADMAINTVER
 70
    63
  9
$DWGCODEPAGE
  3
ANSI_1252
  9
$AUTHOR
  1
MS
  9
$REVISIONNUMBER
  1
-
  9
$CUSTOMPROPERTYTAG
  1
Manager
  9
$CUSTOMPROPERTY
  1

  9
$CUSTOMPROPERTYTAG
  1
Company
  9
$CUSTOMPROPERTY
  1

  9
$CUSTOMPROPERTYTAG
  1
Category
  9
$CUSTOMPROPERTY
  1

  9
$CUSTOMPROPERTYTAG
  1
Part Number
  9
$CUSTOMPROPERTY
  1
NPDD4260
  9
$CUSTOMPROPERTYTAG
  1
Description
  9
$CUSTOMPROPERTY
  1
NPDD PANEL MASTER VIEW
  9
$CUSTOMPROPERTYTAG
  1
Project
  9
$CUSTOMPROPERTY
  1

  9
$CUSTOMPROPERTYTAG
  1
Designer
  9
$CUSTOMPROPERTY
  1
MS
  9
$CUSTOMPROPERTYTAG
  1
Engineer
  9
$CUSTOMPROPERTY
  1

  9
$CUSTOMPROPERTYTAG
  1
Authority
  9
$CUSTOMPROPERTY
  1

  9
$CUSTOMPROPERTYTAG
  1
Cost Center
  9
$CUSTOMPROPERTY
  1

  9
$CUSTOMPROPERTYTAG
  1
Vendor
  9
$CUSTOMPROPERTY
  1

  9
$CUSTOMPROPERTYTAG
  1
User Status
  9
$CUSTOMPROPERTY
  1

  9
$CUSTOMPROPERTYTAG
  1
Design Status
  9
$CUSTOMPROPERTY
  1
WorkInProgress
  9
$CUSTOMPROPERTYTAG
  1
Checked by
  9
$CUSTOMPROPERTY
  1
NJ
  9
$CUSTOMPROPERTYTAG
  1
Date Checked
  9
$CUSTOMPROPERTY
  1
06/19/2013
  9
$CUSTOMPROPERTYTAG
  1
Engr Approved by
  9
$CUSTOMPROPERTY
  1

  9
$CUSTOMPROPERTYTAG
  1
Mfg Approved by
  9
$CUSTOMPROPERTY
  1

  9
$CUSTOMPROPERTYTAG
  1
DWG. NO
  9
$CUSTOMPROPERTY
  1

  9
$CUSTOMPROPERTYTAG
  1
NUMBER OF SHEETS
  9
$CUSTOMPROPERTY
  1
2
  9
$CUSTOMPROPERTYTAG
  1
DRAWING #
  9
$CUSTOMPROPERTY
  1
1
  9
$INSBASE
 10
0.0
 20
0.0
 30
0.0
  9
$EXTMIN
 10
0.0
 20
0.0
 30
0.0
  9
$EXTMAX
 10
187.0
 20
121.0
 30
0.0
  9
$LIMMIN
 10
0.0
 20
0.0
  9
$LIMMAX
 10
187.0
 20
121.0
  9
$ORTHOMODE
 70
     0
  9
$REGENMODE
 70
     1
  9
$FILLMODE
 70
     1
  9
$QTEXTMODE
 70
     0
  9
$MIRRTEXT
 70
     0
  9
$LTSCALE
 40
11.0
  9
$ATTMODE
 70
     1
  9
$TEXTSIZE
 40
0.2
  9
$TRACEWID
 40
0.05
  9
$TEXTSTYLE
  7
Standard
  9
$CLAYER
  8
0
  9
$CELTYPE
  6
ByLayer
  9
$CECOLOR
 62
   256
  9
$CELTSCALE
 40
1.0
  9
$DISPSILH
 70
     0
  9
$DIMSCALE
 40
1.0
  9
$DIMASZ
 40
0.0708661417322835
  9
$DIMEXO
 40
0.0625
  9
$DIMDLI
 40
0.38
  9
$DIMRND
 40
0.0
  9
$DIMDLE
 40
0.0
  9
$DIMEXE
 40
0.18
  9
$DIMTP
 40
0.0
  9
$DIMTM
 40
0.0
  9
$DIMTXT
 40
0.0708661417322835
  9
$DIMCEN
 40
0.09
  9
$DIMTSZ
 40
0.0
  9
$DIMTOL
 70
     0
  9
$DIMLIM
 70
     0
  9
$DIMTIH
 70
     1
  9
$DIMTOH
 70
     1
  9
$DIMSE1
 70
     0
  9
$DIMSE2
 70
     0
  9
$DIMTAD
 70
     0
  9
$DIMZIN
 70
     0
  9
$DIMBLK
  1

  9
$DIMASO
 70
     1
  9
$DIMSHO
 70
     1
  9
$DIMPOST
  1

  9
$DIMAPOST
  1

  9
$DIMALT
 70
     0
  9
$DIMALTD
 70
     2
  9
$DIMALTF
 40
25.4
  9
$DIMLFAC
 40
1.0
  9
$DIMTOFL
 70
     0
  9
$DIMTVP
 40
0.0
  9
$DIMTIX
 70
     0
  9
$DIMSOXD
 70
     0
  9
$DIMSAH
 70
     0
  9
$DIMBLK1
  1

  9
$DIMBLK2
  1

  9
$DIMSTYLE
  2
STANDARD
  9
$DIMCLRD
 70
     0
  9
$DIMCLRE
 70
     0
  9
$DIMCLRT
 70
     0
  9
$DIMTFAC
 40
1.0
  9
$DIMGAP
 40
0.09
  9
$DIMJUST
 70
     0
  9
$DIMSD1
 70
     0
  9
$DIMSD2
 70
     0
  9
$DIMTOLJ
 70
     1
  9
$DIMTZIN
 70
     0
  9
$DIMALTZ
 70
     0
  9
$DIMALTTZ
 70
     0
  9
$DIMUPT
 70
     0
  9
$DIMDEC
 70
     4
  9
$DIMTDEC
 70
     4
  9
$DIMALTU
 70
     2
  9
$DIMALTTD
 70
     2
  9
$DIMTXSTY
  7
Standard
  9
$DIMAUNIT
 70
     0
  9
$DIMADEC
 70
     0
  9
$DIMALTRND
 40
0.0
  9
$DIMAZIN
 70
     0
  9
$DIMDSEP
 70
    46
  9
$DIMATFIT
 70
     3
  9
$DIMFRAC
 70
     0
  9
$DIMLDRBLK
  1

  9
$DIMLUNIT
 70
     2
  9
$DIMLWD
 70
    -2
  9
$DIMLWE
 70
    -2
  9
$DIMTMOVE
 70
     0
  9
$DIMFXL
 40
1.0
  9
$DIMFXLON
 70
     0
  9
$DIMJOGANG
 40
0.7853981633974483
  9
$DIMTFILL
 70
     0
  9
$DIMTFILLCLR
 70
     0
  9
$DIMARCSYM
 70
     0
  9
$DIMLTYPE
  6

  9
$DIMLTEX1
  6

  9
$DIMLTEX2
  6

  9
$DIMTXTDIRECTION
 70
     0
  9
$LUNITS
 70
     2
  9
$LUPREC
 70
     4
  9
$SKETCHINC
 40
0.1
  9
$FILLETRAD
 40
0.0
  9
$AUNITS
 70
     0
  9
$AUPREC
 70
     0
  9
$MENU
  1
.
  9
$ELEVATION
 40
0.0
  9
$PELEVATION
 40
0.0
  9
$THICKNESS
 40
0.0
  9
$LIMCHECK
 70
     0
  9
$CHAMFERA
 40
0.0
  9
$CHAMFERB
 40
0.0
  9
$CHAMFERC
 40
0.0
  9
$CHAMFERD
 40
0.0
  9
$SKPOLY
 70
     0
  9
$TDCREATE
 40
2456465.441664873
  9
$TDUCREATE
 40
2456465.212498206
  9
$TDUPDATE
 40
2456465.441664884
  9
$TDUUPDATE
 40
2456465.212498218
  9
$TDINDWG
 40
0.0000455440
  9
$TDUSRTIMER
 40
0.0000455440
  9
$USRTIMER
 70
     1
  9
$ANGBASE
 50
0.0
  9
$ANGDIR
 70
     0
  9
$PDMODE
 70
     0
  9
$PDSIZE
 40
0.0
  9
$PLINEWID
 40
0.0
  9
$SPLFRAME
 70
     0
  9
$SPLINETYPE
 70
     6
  9
$SPLINESEGS
 70
     8
  9
$HANDSEED
  5
D8B
  9
$SURFTAB1
 70
     6
  9
$SURFTAB2
 70
     6
  9
$SURFTYPE
 70
     6
  9
$SURFU
 70
     6
  9
$SURFV
 70
     6
  9
$UCSBASE
  2

  9
$UCSNAME
  2

  9
$UCSORG
 10
0.0
 20
0.0
 30
0.0
  9
$UCSXDIR
 10
1.0
 20
0.0
 30
0.0
  9
$UCSYDIR
 10
0.0
 20
1.0
 30
0.0
  9
$UCSORTHOREF
  2

  9
$UCSORTHOVIEW
 70
     0
  9
$UCSORGTOP
 10
0.0
 20
0.0
 30
0.0
  9
$UCSORGBOTTOM
 10
0.0
 20
0.0
 30
0.0
  9
$UCSORGLEFT
 10
0.0
 20
0.0
 30
0.0
  9
$UCSORGRIGHT
 10
0.0
 20
0.0
 30
0.0
  9
$UCSORGFRONT
 10
0.0
 20
0.0
 30
0.0
  9
$UCSORGBACK
 10
0.0
 20
0.0
 30
0.0
  9
$PUCSBASE
  2

  9
$PUCSNAME
  2

  9
$PUCSORG
 10
0.0
 20
0.0
 30
0.0
  9
$PUCSXDIR
 10
1.0
 20
0.0
 30
0.0
  9
$PUCSYDIR
 10
0.0
 20
1.0
 30
0.0
  9
$PUCSORTHOREF
  2

  9
$PUCSORTHOVIEW
 70
     0
  9
$PUCSORGTOP
 10
0.0
 20
0.0
 30
0.0
  9
$PUCSORGBOTTOM
 10
0.0
 20
0.0
 30
0.0
  9
$PUCSORGLEFT
 10
0.0
 20
0.0
 30
0.0
  9
$PUCSORGRIGHT
 10
0.0
 20
0.0
 30
0.0
  9
$PUCSORGFRONT
 10
0.0
 20
0.0
 30
0.0
  9
$PUCSORGBACK
 10
0.0
 20
0.0
 30
0.0
  9
$USERI1
 70
     0
  9
$USERI2
 70
     0
  9
$USERI3
 70
     0
  9
$USERI4
 70
     0
  9
$USERI5
 70
     0
  9
$USERR1
 40
0.0
  9
$USERR2
 40
0.0
  9
$USERR3
 40
0.0
  9
$USERR4
 40
0.0
  9
$USERR5
 40
0.0
  9
$WORLDVIEW
 70
     1
  9
$SHADEDGE
 70
     3
  9
$SHADEDIF
 70
    70
  9
$TILEMODE
 70
     1
  9
$MAXACTVP
 70
    64
  9
$PINSBASE
 10
0.0
 20
0.0
 30
0.0
  9
$PLIMCHECK
 70
     0
  9
$PEXTMIN
 10
0.0
 20
0.0
 30
0.0
  9
$PEXTMAX
 10
187.0
 20
121.0
 30
0.0
  9
$PLIMMIN
 10
0.0
 20
0.0
  9
$PLIMMAX
 10
187.0
 20
121.0
  9
$UNITMODE
 70
     0
  9
$VISRETAIN
 70
     1
  9
$PLINEGEN
 70
     0
  9
$PSLTSCALE
 70
     1
  9
$TREEDEPTH
 70
  3020
  9
$CMLSTYLE
  2
Standard
  9
$CMLJUST
 70
     0
  9
$CMLSCALE
 40
1.0
  9
$PROXYGRAPHICS
 70
     1
  9
$MEASUREMENT
 70
     0
  9
$CELWEIGHT
370
    -1
  9
$ENDCAPS
280
     0
  9
$JOINSTYLE
280
     0
  9
$LWDISPLAY
290
     0
  9
$INSUNITS
 70
     1
  9
$HYPERLINKBASE
  1

  9
$STYLESHEET
  1

  9
$XEDIT
290
     1
  9
$CEPSNTYPE
380
     0
  9
$PSTYLEMODE
290
     1
  9
$FINGERPRINTGUID
  2
{38095724-4D58-4B47-9C8A-CDDB8E7A2F27}
  9
$VERSIONGUID
  2
{B540C1EB-84F7-4483-A00A-70EF0E9AFE6E}
  9
$EXTNAMES
290
     1
  9
$PSVPSCALE
 40
0.0
  9
$OLESTARTUP
290
     0
  9
$SORTENTS
280
   127
  9
$INDEXCTL
280
     0
  9
$HIDETEXT
280
     1
  9
$XCLIPFRAME
280
     2
  9
$HALOGAP
280
     0
  9
$OBSCOLOR
 70
   257
  9
$OBSLTYPE
280
     0
  9
$INTERSECTIONDISPLAY
280
     0
  9
$INTERSECTIONCOLOR
 70
   257
  9
$DIMASSOC
280
     1
  9
$PROJECTNAME
  1

  9
$CAMERADISPLAY
290
     0
  9
$LENSLENGTH
 40
50.0
  9
$CAMERAHEIGHT
 40
0.0
  9
$STEPSPERSEC
 40
2.0
  9
$STEPSIZE
 40
6.0
  9
$3DDWFPREC
 40
2.0
  9
$PSOLWIDTH
 40
0.25
  9
$PSOLHEIGHT
 40
4.0
  9
$LOFTANG1
 40
1.570796326794896
  9
$LOFTANG2
 40
1.570796326794896
  9
$LOFTMAG1
 40
0.0
  9
$LOFTMAG2
 40
0.0
  9
$LOFTPARAM
 70
     7
  9
$LOFTNORMALS
280
     1
  9
$LATITUDE
 40
37.795
  9
$LONGITUDE
 40
-122.394
  9
$NORTHDIRECTION
 40
0.0
  9
$TIMEZONE
 70
 -8000
  9
$LIGHTGLYPHDISPLAY
280
     1
  9
$TILEMODELIGHTSYNCH
280
     1
  9
$CMATERIAL
347
11
  9
$SOLIDHIST
280
     0
  9
$SHOWHIST
280
     1
  9
$DWFFRAME
280
     2
  9
$DGNFRAME
280
     0
  9
$REALWORLDSCALE
290
     1
  9
$INTERFERECOLOR
 62
     1
  9
$INTERFEREOBJVS
345
33
  9
$INTERFEREVPVS
346
30
  9
$CSHADOW
280
     0
  9
$SHADOWPLANELOCATION
 40
0.0
  0
ENDSEC
  0
SECTION
  2
CLASSES
  0
CLASS
  1
ACDBDICTIONARYWDFLT
  2
AcDbDictionaryWithDefault
  3
ObjectDBX Classes
 90
        0
 91
        1
280
     0
281
     0
  0
CLASS
  1
MATERIAL
  2
AcDbMaterial
  3
ObjectDBX Classes
 90
     1153
 91
        3
280
     0
281
     0
  0
CLASS
  1
VISUALSTYLE
  2
AcDbVisualStyle
  3
ObjectDBX Classes
 90
     4095
 91
       24
280
     0
281
     0
  0
CLASS
  1
SCALE
  2
AcDbScale
  3
ObjectDBX Classes
 90
     1153
 91
       17
280
     0
281
     0
  0
CLASS
  1
TABLESTYLE
  2
AcDbTableStyle
  3
ObjectDBX Classes
 90
     4095
 91
        1
280
     0
281
     0
  0
CLASS
  1
MLEADERSTYLE
  2
AcDbMLeaderStyle
  3
ACDB_MLEADERSTYLE_CLASS
 90
     4095
 91
        1
280
     0
281
     0
  0
CLASS
  1
DICTIONARYVAR
  2
AcDbDictionaryVar
  3
ObjectDBX Classes
 90
        0
 91
        3
280
     0
281
     0
  0
CLASS
  1
CELLSTYLEMAP
  2
AcDbCellStyleMap
  3
ObjectDBX Classes
 90
     1152
 91
        1
280
     0
281
     0
  0
ENDSEC
  0
SECTION
  2
TABLES
  0
TABLE
  2
VPORT
  5
8
330
0
100
AcDbSymbolTable
 70
     1
  0
VPORT
  5
57
330
8
100
AcDbSymbolTableRecord
100
AcDbViewportTableRecord
  2
*Active
 70
     0
 10
0.0
 20
0.0
 11
1.0
 21
1.0
 12
93.49999999999999
 22
60.5
 13
0.0
 23
0.0
 14
1.0
 24
1.0
 15
0.0
 25
0.0
 16
0.0
 26
0.0
 36
1.0
 17
0.0
 27
0.0
 37
0.0
 40
121.0
 41
1.545454545454545
 42
50.0
 43
0.0
 44
0.0
 50
0.0
 51
0.0
 71
     0
 72
   100
 73
     1
 74
     1
 75
     0
 76
     0
 77
     0
 78
     0
281
     0
 65
     1
110
0.0
120
0.0
130
0.0
111
1.0
121
0.0
131
0.0
112
0.0
122
1.0
132
0.0
 79
     0
146
0.0
 60
     3
 61
     5
292
     1
282
     1
141
0.0
142
0.0
 63
   250
421
  3355443
  0
ENDTAB
  0
TABLE
  2
LTYPE
  5
5
330
0
100
AcDbSymbolTable
 70
    59
  0
LTYPE
  5
5B
330
5
100
AcDbSymbolTableRecord
100
AcDbLinetypeTableRecord
  2
ByBlock
 70
     0
  3

 72
    65
 73
     0
 40
0.0
  0
LTYPE
  5
5C
330
5
100
AcDbSymbolTableRecord
100
AcDbLinetypeTableRecord
  2
ByLayer
 70
     0
  3

 72
    65
 73
     0
 40
0.0
  0
LTYPE
  5
5D
330
5
100
AcDbSymbolTableRecord
100
AcDbLinetypeTableRecord
  2
Continuous
 70
     0
  3
Solid line
 72
    65
 73
     0
 40
0.0
  0
LTYPE
  5
7C
330
5
100
AcDbSymbolTableRecord
100
AcDbLinetypeTableRecord
  2
BY_STANDARD
 70
     0
  3
By Standard ____________    ____    ____   _
 72
    65
 73
     6
 40
1.240299999999999
 49
0.6614
 74
     0
 49
-0.0827
 74
     0
 49
0.1654
 74
     0
 49
-0.0827
 74
     0
 49
0.1654
 74
     0
 49
-0.0827
 74
     0
  0
LTYPE
  5
7D
330
5
100
AcDbSymbolTableRecord
100
AcDbLinetypeTableRecord
  2
CHAIN
 70
     0
  3
Chain ____ _ ____ _ ____ _ ____ _ ____ _ ____
 72
    65
 73
     4
 40
0.7087
 49
0.4724000000000001
 74
     0
 49
-0.0591
 74
     0
 49
0.1181
 74
     0
 49
-0.0591
 74
     0
  0
LTYPE
  5
7E
330
5
100
AcDbSymbolTableRecord
100
AcDbLinetypeTableRecord
  2
DASH_DOT
 70
     0
  3
Dash dot __ . __ . __ . __ . __ . __ . __ . __
 72
    65
 73
     4
 40
0.37
 49
0.24
 74
     0
 49
-0.06
 74
     0
 49
0.01
 74
     0
 49
-0.06
 74
     0
  0
LTYPE
  5
7F
330
5
100
AcDbSymbolTableRecord
100
AcDbLinetypeTableRecord
  2
DOUBLE_DASH_DOT
 70
     0
  3
Double-Dash Dot __ __ . __ __ . __ __ . __ _
 72
    65
 73
     6
 40
0.4398
 49
0.24
 74
     0
 49
-0.06
 74
     0
 49
0.0098
 74
     0
 49
-0.06
 74
     0
 49
0.01
 74
     0
 49
-0.06
 74
     0
  0
LTYPE
  5
80
330
5
100
AcDbSymbolTableRecord
100
AcDbLinetypeTableRecord
  2
DASH_TRIPLE_DOT
 70
     0
  3
Dash Triple-Dot _ . . . _ . . . _ . . . _
 72
    65
 73
     8
 40
0.51
 49
0.24
 74
     0
 49
-0.06
 74
     0
 49
0.01
 74
     0
 49
-0.06
 74
     0
 49
0.01
 74
     0
 49
-0.06
 74
     0
 49
0.01
 74
     0
 49
-0.06
 74
     0
  0
LTYPE
  5
81
330
5
100
AcDbSymbolTableRecord
100
AcDbLinetypeTableRecord
  2
DASHED
 70
     0
  3
Dashed __ __ __ __ __ __ __ __ __ __ __ __ __ _
 72
    65
 73
     2
 40
0.2067
 49
0.1654
 74
     0
 49
-0.0413
 74
     0
  0
LTYPE
  5
82
330
5
100
AcDbSymbolTableRecord
100
AcDbLinetypeTableRecord
  2
DASH_DOUBLE_DOT
 70
     0
  3
Dash Double-Dot __ . . __ . . __ . . __ . .
 72
    65
 73
     6
 40
0.4398
 49
0.24
 74
     0
 49
-0.06
 74
     0
 49
0.0098
 74
     0
 49
-0.06
 74
     0
 49
0.01
 74
     0
 49
-0.06
 74
     0
  0
LTYPE
  5
83
330
5
100
AcDbSymbolTableRecord
100
AcDbLinetypeTableRecord
  2
DASHED_SPACE
 70
     0
  3
Dashed Space __ __ __ __ __ __ __ __ __ __ __ _
 72
    65
 73
     2
 40
0.2067
 49
0.1654
 74
     0
 49
-0.0413
 74
     0
  0
LTYPE
  5
84
330
5
100
AcDbSymbolTableRecord
100
AcDbLinetypeTableRecord
  2
DOTTED
 70
     0
  3
Dotted . . . . . . . . . . . . . . . . . . . . 
 72
    65
 73
     2
 40
0.0482
 49
0.0069
 74
     0
 49
-0.0413
 74
     0
  0
LTYPE
  5
85
330
5
100
AcDbSymbolTableRecord
100
AcDbLinetypeTableRecord
  2
DOUBLE_DASH_CHAIN
 70
     0
  3
Double-Dash Chain ______  __  __  ______  __  _
 72
    65
 73
     6
 40
1.240299999999999
 49
0.6614
 74
     0
 49
-0.0827
 74
     0
 49
0.1654
 74
     0
 49
-0.0827
 74
     0
 49
0.1654
 74
     0
 49
-0.0827
 74
     0
  0
LTYPE
  5
87
330
5
100
AcDbSymbolTableRecord
100
AcDbLinetypeTableRecord
  2
DOUBLE_DASH_DOUBLE_DOT
 70
     0
  3
Double-Dash Double-dot _ _ . . _ _ . . _
 72
    65
 73
     8
 40
0.7400000000000001
 49
0.24
 74
     0
 49
-0.06
 74
     0
 49
0.24
 74
     0
 49
-0.06
 74
     0
 49
0.01
 74
     0
 49
-0.06
 74
     0
 49
0.01
 74
     0
 49
-0.06
 74
     0
  0
LTYPE
  5
88
330
5
100
AcDbSymbolTableRecord
100
AcDbLinetypeTableRecord
  2
DOUBLE_DASH_TRIPLE_DOT
 70
     0
  3
Double Dash Triple Dot __ __ . . . __ __ . .
 72
    65
 73
    10
 40
0.8100000000000001
 49
0.24
 74
     0
 49
-0.06
 74
     0
 49
0.24
 74
     0
 49
-0.06
 74
     0
 49
0.01
 74
     0
 49
-0.06
 74
     0
 49
0.01
 74
     0
 49
-0.06
 74
     0
 49
0.01
 74
     0
 49
-0.06
 74
     0
  0
LTYPE
  5
89
330
5
100
AcDbSymbolTableRecord
100
AcDbLinetypeTableRecord
  2
LONG_DASH_DOTTED
 70
     0
  3
Long Dash Dotted ____ . ____ . ____ . ____ . _
 72
    65
 73
     4
 40
0.3543
 49
0.2362
 74
     0
 49
-0.0295
 74
     0
 49
0.0591
 74
     0
 49
-0.0295
 74
     0
  0
LTYPE
  5
8A
330
5
100
AcDbSymbolTableRecord
100
AcDbLinetypeTableRecord
  2
LONG_DASH_DOUBLE_DOT
 70
     0
  3
Long Dash Double Dot ________  .  .  ________  
 72
    65
 73
     6
 40
0.6799999999999999
 49
0.48
 74
     0
 49
-0.06
 74
     0
 49
0.01
 74
     0
 49
-0.06
 74
     0
 49
0.01
 74
     0
 49
-0.06
 74
     0
  0
LTYPE
  5
8B
330
5
100
AcDbSymbolTableRecord
100
AcDbLinetypeTableRecord
  2
LONG_DASH_TRIPLE_DOT
 70
     0
  3
Long Dash Triple Dot ____ ... ____ ... ____
 72
    65
 73
     8
 40
0.3689
 49
0.2362
 74
     0
 49
-0.0295
 74
     0
 49
0.0049
 74
     0
 49
-0.0295
 74
     0
 49
0.0049
 74
     0
 49
-0.0295
 74
     0
 49
0.0049
 74
     0
 49
-0.0295
 74
     0
  0
LTYPE
  5
8C
330
5
100
AcDbSymbolTableRecord
100
AcDbLinetypeTableRecord
  2
BORDER
 70
     0
  3
Border __ __ . __ __ . __ __ . __ __ . __ __ .
 72
    65
 73
     6
 40
1.75
 49
0.5
 74
     0
 49
-0.25
 74
     0
 49
0.5
 74
     0
 49
-0.25
 74
     0
 49
0.0
 74
     0
 49
-0.25
 74
     0
  0
LTYPE
  5
8D
330
5
100
AcDbSymbolTableRecord
100
AcDbLinetypeTableRecord
  2
BORDER2
 70
     0
  3
Border (.5x) __.__.__.__.__.__.__.__.__.__.__.
 72
    65
 73
     6
 40
0.875
 49
0.25
 74
     0
 49
-0.125
 74
     0
 49
0.25
 74
     0
 49
-0.125
 74
     0
 49
0.0
 74
     0
 49
-0.125
 74
     0
  0
LTYPE
  5
8E
330
5
100
AcDbSymbolTableRecord
100
AcDbLinetypeTableRecord
  2
BORDERX2
 70
     0
  3
Border (2x) ____  ____  .  ____  ____  .  ___
 72
    65
 73
     6
 40
3.5
 49
1.0
 74
     0
 49
-0.5
 74
     0
 49
1.0
 74
     0
 49
-0.5
 74
     0
 49
0.0
 74
     0
 49
-0.5
 74
     0
  0
LTYPE
  5
8F
330
5
100
AcDbSymbolTableRecord
100
AcDbLinetypeTableRecord
  2
CENTER
 70
     0
  3
Center ____ _ ____ _ ____ _ ____ _ ____ _ ____
 72
    65
 73
     4
 40
2.0
 49
1.25
 74
     0
 49
-0.25
 74
     0
 49
0.25
 74
     0
 49
-0.25
 74
     0
  0
LTYPE
  5
90
330
5
100
AcDbSymbolTableRecord
100
AcDbLinetypeTableRecord
  2
CENTER2
 70
     0
  3
Center (.5x) ___ _ ___ _ ___ _ ___ _ ___ _ ___
 72
    65
 73
     4
 40
1.125
 49
0.75
 74
     0
 49
-0.125
 74
     0
 49
0.125
 74
     0
 49
-0.125
 74
     0
  0
LTYPE
  5
91
330
5
100
AcDbSymbolTableRecord
100
AcDbLinetypeTableRecord
  2
CENTERX2
 70
     0
  3
Center (2x) ________  __  ________  __  _____
 72
    65
 73
     4
 40
4.0
 49
2.5
 74
     0
 49
-0.5
 74
     0
 49
0.5
 74
     0
 49
-0.5
 74
     0
  0
LTYPE
  5
92
330
5
100
AcDbSymbolTableRecord
100
AcDbLinetypeTableRecord
  2
DASHDOT2
 70
     0
  3
Dash dot (.5x) _._._._._._._._._._._._._._._.
 72
    65
 73
     4
 40
0.5
 49
0.25
 74
     0
 49
-0.125
 74
     0
 49
0.0
 74
     0
 49
-0.125
 74
     0
  0
LTYPE
  5
93
330
5
100
AcDbSymbolTableRecord
100
AcDbLinetypeTableRecord
  2
DASHDOTX2
 70
     0
  3
Dash dot (2x) ____  .  ____  .  ____  .  ___
 72
    65
 73
     4
 40
2.0
 49
1.0
 74
     0
 49
-0.5
 74
     0
 49
0.0
 74
     0
 49
-0.5
 74
     0
  0
LTYPE
  5
95
330
5
100
AcDbSymbolTableRecord
100
AcDbLinetypeTableRecord
  2
DASHED2
 70
     0
  3
Dashed (.5x) _ _ _ _ _ _ _ _ _ _ _ _ _ _ _ _ _
 72
    65
 73
     2
 40
0.375
 49
0.25
 74
     0
 49
-0.125
 74
     0
  0
LTYPE
  5
96
330
5
100
AcDbSymbolTableRecord
100
AcDbLinetypeTableRecord
  2
DASHEDX2
 70
     0
  3
Dashed (2x) ____  ____  ____  ____  ____  ___
 72
    65
 73
     2
 40
1.5
 49
1.0
 74
     0
 49
-0.5
 74
     0
  0
LTYPE
  5
97
330
5
100
AcDbSymbolTableRecord
100
AcDbLinetypeTableRecord
  2
DIVIDE
 70
     0
  3
Divide ____ . . ____ . . ____ . . ____ . . ____
 72
    65
 73
     6
 40
1.25
 49
0.5
 74
     0
 49
-0.25
 74
     0
 49
0.0
 74
     0
 49
-0.25
 74
     0
 49
0.0
 74
     0
 49
-0.25
 74
     0
  0
LTYPE
  5
98
330
5
100
AcDbSymbolTableRecord
100
AcDbLinetypeTableRecord
  2
DIVIDE2
 70
     0
  3
Divide (.5x) __..__..__..__..__..__..__..__.._
 72
    65
 73
     6
 40
0.625
 49
0.25
 74
     0
 49
-0.125
 74
     0
 49
0.0
 74
     0
 49
-0.125
 74
     0
 49
0.0
 74
     0
 49
-0.125
 74
     0
  0
LTYPE
  5
99
330
5
100
AcDbSymbolTableRecord
100
AcDbLinetypeTableRecord
  2
DIVIDEX2
 70
     0
  3
Divide (2x) ________  .  .  ________  .  .  _
 72
    65
 73
     6
 40
2.5
 49
1.0
 74
     0
 49
-0.5
 74
     0
 49
0.0
 74
     0
 49
-0.5
 74
     0
 49
0.0
 74
     0
 49
-0.5
 74
     0
  0
LTYPE
  5
9A
330
5
100
AcDbSymbolTableRecord
100
AcDbLinetypeTableRecord
  2
DOT
 70
     0
  3
Dot . . . . . . . . . . . . . . . . . . . . . .
 72
    65
 73
     2
 40
0.25
 49
0.0
 74
     0
 49
-0.25
 74
     0
  0
LTYPE
  5
9B
330
5
100
AcDbSymbolTableRecord
100
AcDbLinetypeTableRecord
  2
DOT2
 70
     0
  3
Dot (.5x) .....................................
 72
    65
 73
     2
 40
0.125
 49
0.0
 74
     0
 49
-0.125
 74
     0
  0
LTYPE
  5
9C
330
5
100
AcDbSymbolTableRecord
100
AcDbLinetypeTableRecord
  2
DOTX2
 70
     0
  3
Dot (2x) .  .  .  .  .  .  .  .  .  .  .  .  . 
 72
    65
 73
     2
 40
0.5
 49
0.0
 74
     0
 49
-0.5
 74
     0
  0
LTYPE
  5
9D
330
5
100
AcDbSymbolTableRecord
100
AcDbLinetypeTableRecord
  2
HIDDEN
 70
     0
  3
Hidden __ __ __ __ __ __ __ __ __ __ __ __ __ _
 72
    65
 73
     2
 40
0.375
 49
0.25
 74
     0
 49
-0.125
 74
     0
  0
LTYPE
  5
9E
330
5
100
AcDbSymbolTableRecord
100
AcDbLinetypeTableRecord
  2
HIDDEN2
 70
     0
  3
Hidden (.5x) _ _ _ _ _ _ _ _ _ _ _ _ _ _ _ _ _
 72
    65
 73
     2
 40
0.1875
 49
0.125
 74
     0
 49
-0.0625
 74
     0
  0
LTYPE
  5
9F
330
5
100
AcDbSymbolTableRecord
100
AcDbLinetypeTableRecord
  2
HIDDENX2
 70
     0
  3
Hidden (2x) ____ ____ ____ ____ ____ ____ ____
 72
    65
 73
     2
 40
0.75
 49
0.5
 74
     0
 49
-0.25
 74
     0
  0
LTYPE
  5
A0
330
5
100
AcDbSymbolTableRecord
100
AcDbLinetypeTableRecord
  2
PHANTOM
 70
     0
  3
Phantom ______  __  __  ______  __  __  ______
 72
    65
 73
     6
 40
2.5
 49
1.25
 74
     0
 49
-0.25
 74
     0
 49
0.25
 74
     0
 49
-0.25
 74
     0
 49
0.25
 74
     0
 49
-0.25
 74
     0
  0
LTYPE
  5
A1
330
5
100
AcDbSymbolTableRecord
100
AcDbLinetypeTableRecord
  2
PHANTOM2
 70
     0
  3
Phantom (.5x) ___ _ _ ___ _ _ ___ _ _ ___ _ _
 72
    65
 73
     6
 40
1.25
 49
0.625
 74
     0
 49
-0.125
 74
     0
 49
0.125
 74
     0
 49
-0.125
 74
     0
 49
0.125
 74
     0
 49
-0.125
 74
     0
  0
LTYPE
  5
A2
330
5
100
AcDbSymbolTableRecord
100
AcDbLinetypeTableRecord
  2
PHANTOMX2
 70
     0
  3
Phantom (2x) ____________    ____    ____   _
 72
    65
 73
     6
 40
5.0
 49
2.5
 74
     0
 49
-0.5
 74
     0
 49
0.5
 74
     0
 49
-0.5
 74
     0
 49
0.5
 74
     0
 49
-0.5
 74
     0
  0
LTYPE
  5
A3
330
5
100
AcDbSymbolTableRecord
100
AcDbLinetypeTableRecord
  2
ACAD_ISO02W100
 70
     0
  3
ISO dash __ __ __ __ __ __ __ __ __ __ __ __ __
 72
    65
 73
     2
 40
0.59
 49
0.47
 74
     0
 49
-0.12
 74
     0
  0
LTYPE
  5
A4
330
5
100
AcDbSymbolTableRecord
100
AcDbLinetypeTableRecord
  2
ACAD_ISO03W100
 70
     0
  3
ISO dash space __    __    __    __    __    __
 72
    65
 73
     2
 40
1.179999999999999
 49
0.47
 74
     0
 49
-0.71
 74
     0
  0
LTYPE
  5
A5
330
5
100
AcDbSymbolTableRecord
100
AcDbLinetypeTableRecord
  2
ACAD_ISO04W100
 70
     0
  3
ISO long-dash dot ____ . ____ . ____ . ____ . _
 72
    65
 73
     4
 40
1.179999999999999
 49
0.9399999999999998
 74
     0
 49
-0.12
 74
     0
 49
0.0
 74
     0
 49
-0.12
 74
     0
  0
LTYPE
  5
A6
330
5
100
AcDbSymbolTableRecord
100
AcDbLinetypeTableRecord
  2
ACAD_ISO05W100
 70
     0
  3
ISO long-dash double-dot ____ .. ____ .. ____ .
 72
    65
 73
     6
 40
1.299999999999999
 49
0.9399999999999998
 74
     0
 49
-0.12
 74
     0
 49
0.0
 74
     0
 49
-0.12
 74
     0
 49
0.0
 74
     0
 49
-0.12
 74
     0
  0
LTYPE
  5
A7
330
5
100
AcDbSymbolTableRecord
100
AcDbLinetypeTableRecord
  2
ACAD_ISO06W100
 70
     0
  3
ISO long-dash triple-dot ____ ... ____ ... ____
 72
    65
 73
     8
 40
1.419999999999999
 49
0.9399999999999998
 74
     0
 49
-0.12
 74
     0
 49
0.0
 74
     0
 49
-0.12
 74
     0
 49
0.0
 74
     0
 49
-0.12
 74
     0
 49
0.0
 74
     0
 49
-0.12
 74
     0
  0
LTYPE
  5
A8
330
5
100
AcDbSymbolTableRecord
100
AcDbLinetypeTableRecord
  2
ACAD_ISO07W100
 70
     0
  3
ISO dot . . . . . . . . . . . . . . . . . . . .
 72
    65
 73
     2
 40
0.12
 49
0.0
 74
     0
 49
-0.12
 74
     0
  0
LTYPE
  5
A9
330
5
100
AcDbSymbolTableRecord
100
AcDbLinetypeTableRecord
  2
ACAD_ISO08W100
 70
     0
  3
ISO long-dash short-dash ____ __ ____ __ ____ _
 72
    65
 73
     4
 40
0.95
 49
0.47
 74
     0
 49
-0.12
 74
     0
 49
0.24
 74
     0
 49
-0.12
 74
     0
  0
LTYPE
  5
AA
330
5
100
AcDbSymbolTableRecord
100
AcDbLinetypeTableRecord
  2
ACAD_ISO09W100
 70
     0
  3
ISO long-dash double-short-dash ____ __ __ ____
 72
    65
 73
     6
 40
1.31
 49
0.47
 74
     0
 49
-0.12
 74
     0
 49
0.24
 74
     0
 49
-0.12
 74
     0
 49
0.24
 74
     0
 49
-0.12
 74
     0
  0
LTYPE
  5
AB
330
5
100
AcDbSymbolTableRecord
100
AcDbLinetypeTableRecord
  2
ACAD_ISO10W100
 70
     0
  3
ISO dash dot __ . __ . __ . __ . __ . __ . __ .
 72
    65
 73
     4
 40
0.71
 49
0.47
 74
     0
 49
-0.12
 74
     0
 49
0.0
 74
     0
 49
-0.12
 74
     0
  0
LTYPE
  5
AC
330
5
100
AcDbSymbolTableRecord
100
AcDbLinetypeTableRecord
  2
ACAD_ISO11W100
 70
     0
  3
ISO double-dash dot __ __ . __ __ . __ __ . __ 
 72
    65
 73
     6
 40
1.299999999999999
 49
0.47
 74
     0
 49
-0.12
 74
     0
 49
0.47
 74
     0
 49
-0.12
 74
     0
 49
0.0
 74
     0
 49
-0.12
 74
     0
  0
LTYPE
  5
AD
330
5
100
AcDbSymbolTableRecord
100
AcDbLinetypeTableRecord
  2
ACAD_ISO12W100
 70
     0
  3
ISO dash double-dot __ . . __ . . __ . . __ . .
 72
    65
 73
     6
 40
0.8299999999999998
 49
0.47
 74
     0
 49
-0.12
 74
     0
 49
0.0
 74
     0
 49
-0.12
 74
     0
 49
0.0
 74
     0
 49
-0.12
 74
     0
  0
LTYPE
  5
AE
330
5
100
AcDbSymbolTableRecord
100
AcDbLinetypeTableRecord
  2
ACAD_ISO13W100
 70
     0
  3
ISO double-dash double-dot __ __ . . __ __ . . 
 72
    65
 73
     8
 40
1.419999999999999
 49
0.47
 74
     0
 49
-0.12
 74
     0
 49
0.47
 74
     0
 49
-0.12
 74
     0
 49
0.0
 74
     0
 49
-0.12
 74
     0
 49
0.0
 74
     0
 49
-0.12
 74
     0
  0
LTYPE
  5
AF
330
5
100
AcDbSymbolTableRecord
100
AcDbLinetypeTableRecord
  2
ACAD_ISO14W100
 70
     0
  3
ISO dash triple-dot __ . . . __ . . . __ . . . 
 72
    65
 73
     8
 40
0.95
 49
0.47
 74
     0
 49
-0.12
 74
     0
 49
0.0
 74
     0
 49
-0.12
 74
     0
 49
0.0
 74
     0
 49
-0.12
 74
     0
 49
0.0
 74
     0
 49
-0.12
 74
     0
  0
LTYPE
  5
B0
330
5
100
AcDbSymbolTableRecord
100
AcDbLinetypeTableRecord
  2
ACAD_ISO15W100
 70
     0
  3
ISO double-dash triple-dot __ __ . . . __ __ . 
 72
    65
 73
    10
 40
1.539999999999999
 49
0.47
 74
     0
 49
-0.12
 74
     0
 49
0.47
 74
     0
 49
-0.12
 74
     0
 49
0.0
 74
     0
 49
-0.12
 74
     0
 49
0.0
 74
     0
 49
-0.12
 74
     0
 49
0.0
 74
     0
 49
-0.12
 74
     0
  0
LTYPE
  5
B3
330
5
100
AcDbSymbolTableRecord
100
AcDbLinetypeTableRecord
  2
FENCELINE1
 70
     0
  3
Fenceline circle ----0-----0----0-----0----0---
 72
    65
 73
     4
 40
1.45
 49
0.25
 74
     0
 49
-0.1
 74
     4
 75
   133
340
B2
 46
0.1
 50
0.0
 44
-0.1
 45
0.0
 49
-0.1
 74
     0
 49
1.0
 74
     0
  0
LTYPE
  5
B4
330
5
100
AcDbSymbolTableRecord
100
AcDbLinetypeTableRecord
  2
FENCELINE2
 70
     0
  3
Fenceline square ----[]-----[]----[]-----[]----
 72
    65
 73
     4
 40
1.45
 49
0.25
 74
     0
 49
-0.1
 74
     4
 75
   132
340
B2
 46
0.1
 50
0.0
 44
-0.1
 45
0.0
 49
-0.1
 74
     0
 49
1.0
 74
     0
  0
LTYPE
  5
B5
330
5
100
AcDbSymbolTableRecord
100
AcDbLinetypeTableRecord
  2
TRACKS
 70
     0
  3
Tracks -|-|-|-|-|-|-|-|-|-|-|-|-|-|-|-|-|-|-|-|
 72
    65
 73
     2
 40
0.3
 49
0.15
 74
     4
 75
   130
340
B2
 46
0.25
 50
0.0
 44
0.0
 45
0.0
 49
0.15
 74
     0
  0
LTYPE
  5
B6
330
5
100
AcDbSymbolTableRecord
100
AcDbLinetypeTableRecord
  2
BATTING
 70
     0
  3
Batting SSSSSSSSSSSSSSSSSSSSSSSSSSSSSSSSSSSSSSS
 72
    65
 73
     4
 40
0.4001000000000001
 49
0.0001
 74
     0
 49
-0.1
 74
     4
 75
   134
340
B2
 46
0.1
 50
0.0
 44
-0.1
 45
0.0
 49
-0.2
 74
     4
 75
   134
340
B2
 46
0.1
 50
180.0
 44
0.1
 45
0.0
 49
-0.1
 74
     0
  0
LTYPE
  5
B7
330
5
100
AcDbSymbolTableRecord
100
AcDbLinetypeTableRecord
  2
HOT_WATER_SUPPLY
 70
     0
  3
Hot water supply ---- HW ---- HW ---- HW ----
 72
    65
 73
     3
 40
0.9
 49
0.5
 74
     0
 49
-0.2
 74
     2
 75
     0
340
55
 46
0.1
 50
0.0
 44
-0.1
 45
-0.05
  9
HW
 49
-0.2
 74
     0
  0
LTYPE
  5
B8
330
5
100
AcDbSymbolTableRecord
100
AcDbLinetypeTableRecord
  2
GAS_LINE
 70
     0
  3
Gas line ----GAS----GAS----GAS----GAS----GAS---
 72
    65
 73
     3
 40
0.95
 49
0.5
 74
     0
 49
-0.2
 74
     2
 75
     0
340
55
 46
0.1
 50
0.0
 44
-0.1
 45
-0.05
  9
GAS
 49
-0.25
 74
     0
  0
LTYPE
  5
B9
330
5
100
AcDbSymbolTableRecord
100
AcDbLinetypeTableRecord
  2
ZIGZAG
 70
     0
  3
Zig zag /\/\/\/\/\/\/\/\/\/\/\/\/\/\/\/\/\/\/\/
 72
    65
 73
     4
 40
0.8001000000000001
 49
0.0001
 74
     0
 49
-0.2
 74
     4
 75
   131
340
B2
 46
0.2
 50
0.0
 44
-0.2
 45
0.0
 49
-0.4
 74
     4
 75
   131
340
B2
 46
0.2
 50
180.0
 44
0.2
 45
0.0
 49
-0.2
 74
     0
  0
ENDTAB
  0
TABLE
  2
LAYER
  5
2
330
0
100
AcDbSymbolTable
 70
    27
  0
LAYER
  5
54
330
2
100
AcDbSymbolTableRecord
100
AcDbLayerTableRecord
  2
0
 70
     0
 62
     7
  6
Continuous
370
    18
390
F
347
21
  0
LAYER
  5
C0
330
2
100
AcDbSymbolTableRecord
100
AcDbLayerTableRecord
  2
Center Mark (ANSI)
 70
     0
 62
     7
  6
Continuous
370
    15
390
F
347
21
  0
LAYER
  5
C1
330
2
100
AcDbSymbolTableRecord
100
AcDbLayerTableRecord
  2
Centerline (ANSI)
 70
     0
 62
     7
  6
Continuous
370
    15
390
F
347
21
  0
LAYER
  5
C3
330
2
100
AcDbSymbolTableRecord
100
AcDbLayerTableRecord
  2
Dimension (ANSI)
 70
     0
 62
     7
  6
Continuous
370
    13
390
F
347
21
  0
LAYER
  5
CC
330
2
100
AcDbSymbolTableRecord
100
AcDbLayerTableRecord
  2
Symbol (ANSI)
 70
     0
 62
     7
  6
Continuous
370
    18
390
F
347
21
  0
LAYER
  5
CF
330
2
100
AcDbSymbolTableRecord
100
AcDbLayerTableRecord
  2
Visible (ANSI)
 70
     0
 62
     7
  6
Continuous
370
    13
390
F
347
21
  0
LAYER
  5
D0
330
2
100
AcDbSymbolTableRecord
100
AcDbLayerTableRecord
  2
Visible Narrow (ANSI)
 70
     0
 62
     7
  6
Continuous
370
    18
390
F
347
21
  0
LAYER
  5
2E9
330
2
100
AcDbSymbolTableRecord
100
AcDbLayerTableRecord
  2
Defpoints
 70
     0
 62
     7
  6
Continuous
290
     0
370
    -3
390
F
347
21
  0
ENDTAB
  0
TABLE
  2
STYLE
  5
3
330
0
100
AcDbSymbolTable
 70
    17
  0
STYLE
  5
55
330
3
100
AcDbSymbolTableRecord
100
AcDbTextStyleTableRecord
  2
Standard
 70
     0
 40
0.0
 41
1.0
 50
0.0
 71
     0
 42
0.2
  3
txt
  4

  0
STYLE
  5
5A
330
3
100
AcDbSymbolTableRecord
100
AcDbTextStyleTableRecord
  2
Annotative
 70
     0
 40
0.0
 41
1.0
 50
0.0
 71
     0
 42
0.2
  3
txt
  4

1001
AcadAnnotative
1000
AnnotativeData
1002
{
1070
     1
1070
     1
1002
}
  0
STYLE
  5
B2
330
3
100
AcDbSymbolTableRecord
100
AcDbTextStyleTableRecord
  2

 70
     1
 40
0.0
 41
1.0
 50
0.0
 71
     0
 42
0.2
  3
ltypeshp.shx
  4

  0
STYLE
  5
D4
330
3
100
AcDbSymbolTableRecord
100
AcDbTextStyleTableRecord
  2
ITALICC_120
 70
     0
 40
0.0
 41
1.0
 50
0.0
 71
     0
 42
0.2
  3
italicc.shx
  4

  0
STYLE
  5
D5
330
3
100
AcDbSymbolTableRecord
100
AcDbTextStyleTableRecord
  2
Label Text (ANSI)
 70
     0
 40
0.0
 41
1.0
 50
0.0
 71
     0
 42
0.2
  3
tahoma.ttf
  4

1001
ACAD
1000
Tahoma
1071
      256
  0
STYLE
  5
D6
330
3
100
AcDbSymbolTableRecord
100
AcDbTextStyleTableRecord
  2
Note Text (ANSI)
 70
     0
 40
0.0
 41
1.0
 50
0.0
 71
     0
 42
0.2
  3
tahoma.ttf
  4

1001
ACAD
1000
Tahoma
1071
      256
  0
STYLE
  5
D7
330
3
100
AcDbSymbolTableRecord
100
AcDbTextStyleTableRecord
  2
ROMANS
 70
     0
 40
0.0
 41
1.0
 50
0.0
 71
     0
 42
0.2
  3
romans.shx
  4

  0
STYLE
  5
D8
330
3
100
AcDbSymbolTableRecord
100
AcDbTextStyleTableRecord
  2
SANSSERIF_114
 70
     0
 40
0.0
 41
1.0
 50
0.0
 71
     0
 42
0.2
  3
tahoma.ttf
  4

1001
ACAD
1000
Tahoma
1071
      256
  0
STYLE
  5
D9
330
3
100
AcDbSymbolTableRecord
100
AcDbTextStyleTableRecord
  2
SANSSERIF_117
 70
     0
 40
0.0
 41
1.0
 50
0.0
 71
     0
 42
0.2
  3
tahoma.ttf
  4

1001
ACAD
1000
Tahoma
1071
      256
  0
STYLE
  5
DA
330
3
100
AcDbSymbolTableRecord
100
AcDbTextStyleTableRecord
  2
STANDARDAM_ANSI
 70
     0
 40
0.0
 41
1.0
 50
0.0
 71
     0
 42
0.2
  3
txt.shx
  4

  0
STYLE
  5
DB
330
3
100
AcDbSymbolTableRecord
100
AcDbTextStyleTableRecord
  2
StandardAM_ANSI$0
 70
     0
 40
0.0
 41
1.0
 50
0.0
 71
     0
 42
0.2
  3
txt.shx
  4

  0
STYLE
  5
DC
330
3
100
AcDbSymbolTableRecord
100
AcDbTextStyleTableRecord
  2
STANDARDAM_ANSI$3
 70
     0
 40
0.0
 41
1.0
 50
0.0
 71
     0
 42
0.2
  3
txt.shx
  4

  0
STYLE
  5
DD
330
3
100
AcDbSymbolTableRecord
100
AcDbTextStyleTableRecord
  2
STANDARDAM_ANSI$4
 70
     0
 40
0.0
 41
1.0
 50
0.0
 71
     0
 42
0.2
  3
txt.shx
  4

  0
STYLE
  5
DE
330
3
100
AcDbSymbolTableRecord
100
AcDbTextStyleTableRecord
  2
STANDARDAM_ANSI$7
 70
     0
 40
0.0
 41
1.0
 50
0.0
 71
     0
 42
0.2
  3
txt.shx
  4

  0
STYLE
  5
DF
330
3
100
AcDbSymbolTableRecord
100
AcDbTextStyleTableRecord
  2
STANDARDAM_ANSI$SF
 70
     0
 40
0.0
 41
1.0
 50
0.0
 71
     0
 42
0.2
  3
txt.shx
  4

  0
STYLE
  5
E0
330
3
100
AcDbSymbolTableRecord
100
AcDbTextStyleTableRecord
  2
STANDARDAM_ANSI$SH
 70
     0
 40
0.0
 41
1.0
 50
0.0
 71
     0
 42
0.2
  3
txt.shx
  4

  0
STYLE
  5
E1
330
3
100
AcDbSymbolTableRecord
100
AcDbTextStyleTableRecord
  2
STANDARDSTANDARD
 70
     0
 40
0.0
 41
1.0
 50
0.0
 71
     0
 42
0.2
  3
txt.shx
  4

  0
ENDTAB
  0
TABLE
  2
VIEW
  5
6
330
0
100
AcDbSymbolTable
 70
     0
  0
ENDTAB
  0
TABLE
  2
UCS
  5
7
330
0
100
AcDbSymbolTable
 70
     0
  0
ENDTAB
  0
TABLE
  2
APPID
  5
9
330
0
100
AcDbSymbolTable
 70
     3
  0
APPID
  5
56
330
9
100
AcDbSymbolTableRecord
100
AcDbRegAppTableRecord
  2
ACAD
 70
     0
  0
APPID
  5
5E
330
9
100
AcDbSymbolTableRecord
100
AcDbRegAppTableRecord
  2
AcadAnnotative
 70
     0
  0
APPID
  5
D4A
330
9
100
AcDbSymbolTableRecord
100
AcDbRegAppTableRecord
  2
ACAD_DSTYLE_DIMRADIAL_EXTENSION
 70
     0
  0
ENDTAB
  0
TABLE
  2
DIMSTYLE
  5
A
330
0
100
AcDbSymbolTable
 70
    27
100
AcDbDimStyleTable
 71
     2
340
F6
340
58
  0
DIMSTYLE
105
58
330
A
100
AcDbSymbolTableRecord
100
AcDbDimStyleTableRecord
  2
STANDARD
 70
     0
 41
0.1800000071525573
 42
0.0625
140
0.1800000071525574
144
1.0
147
0.0900000035762787
176
   256
177
   256
178
   256
274
     3
340
55
371
    -1
372
    -1
  0
DIMSTYLE
105
59
330
A
100
AcDbSymbolTableRecord
100
AcDbDimStyleTableRecord
  2
Annotative
 70
     0
340
55
1001
AcadAnnotative
1000
AnnotativeData
1002
{
1070
     1
1070
     1
1002
}
  0
DIMSTYLE
105
E2
330
A
100
AcDbSymbolTableRecord
100
AcDbDimStyleTableRecord
  2
AM_ANSI
 70
     0
  4
 mm
 40
11.0
 41
0.119999997317791
 42
0.05
 43
0.5
 44
0.1
 45
0.00000001
 78
     4
 79
     2
140
0.1200000047683716
146
0.7099999189376831
147
0.0599999986588955
176
   256
177
   256
178
     2
284
     4
340
DA
371
    -1
372
    -1
  0
DIMSTYLE
105
E3
330
A
100
AcDbSymbolTableRecord
100
AcDbDimStyleTableRecord
  2
AM_ANSI$7
 70
     0
  4
 mm
 40
11.0
 41
0.119999997317791
 42
0.05
 43
0.5
 44
0.1
 45
0.00000001
 78
     4
 79
     2
140
0.1200000047683716
146
0.7099999189376831
147
0.0599999986588955
176
   256
177
   256
178
     2
284
     4
340
DA
371
    -1
372
    -1
  0
DIMSTYLE
105
E4
330
A
100
AcDbSymbolTableRecord
100
AcDbDimStyleTableRecord
  2
AM_ANSI$0
 70
     0
  4
 mm
 40
11.0
 41
0.119999997317791
 42
0.05
 43
0.5
 44
0.1
 45
0.00000001
 78
     4
 79
     2
140
0.1200000047683716
146
0.7099999189376831
147
0.0599999986588955
176
   256
177
   256
178
     2
284
     4
340
DB
371
    -1
372
    -1
  0
DIMSTYLE
105
E5
330
A
100
AcDbSymbolTableRecord
100
AcDbDimStyleTableRecord
  2
AM_ANSI$0$7
 70
     0
  4
 mm
 40
11.0
 41
0.119999997317791
 42
0.05
 43
0.5
 44
0.1
 45
0.00000001
 78
     4
 79
     2
140
0.1200000047683716
146
0.7099999189376831
147
0.0599999986588955
176
   256
177
   256
178
     2
284
     4
340
DB
371
    -1
372
    -1
  0
DIMSTYLE
105
E6
330
A
100
AcDbSymbolTableRecord
100
AcDbDimStyleTableRecord
  2
AM_ANSI$3
 70
     0
  4
 mm
 40
11.0
 41
0.119999997317791
 42
0.05
 43
0.5
 44
0.1
 45
0.00000001
 78
     4
 79
     2
140
0.1200000047683716
146
0.7099999189376831
147
0.0599999986588955
176
   256
177
   256
178
     2
284
     4
340
DC
371
    -1
372
    -1
  0
DIMSTYLE
105
E7
330
A
100
AcDbSymbolTableRecord
100
AcDbDimStyleTableRecord
  2
AM_ANSI$3$7
 70
     0
  4
 mm
 40
11.0
 41
0.119999997317791
 42
0.05
 43
0.5
 44
0.1
 45
0.00000001
 78
     4
 79
     2
140
0.1200000047683716
146
0.7099999189376831
147
0.0599999986588955
176
   256
177
   256
178
     2
284
     4
340
DC
371
    -1
372
    -1
  0
DIMSTYLE
105
E8
330
A
100
AcDbSymbolTableRecord
100
AcDbDimStyleTableRecord
  2
AM_ANSI$4
 70
     0
  4
 mm
 40
11.0
 41
0.119999997317791
 42
0.05
 43
0.5
 44
0.1
 45
0.00000001
 78
     4
 79
     2
140
0.1200000047683716
146
0.7099999189376831
147
0.0599999986588955
176
   256
177
   256
178
     2
284
     4
340
DD
371
    -1
372
    -1
  0
DIMSTYLE
105
E9
330
A
100
AcDbSymbolTableRecord
100
AcDbDimStyleTableRecord
  2
AM_ANSI$4$7
 70
     0
  4
 mm
 40
11.0
 41
0.119999997317791
 42
0.05
 43
0.5
 44
0.1
 45
0.00000001
 78
     4
 79
     2
140
0.1200000047683716
146
0.7099999189376831
147
0.0599999986588955
176
   256
177
   256
178
     2
284
     4
340
DD
371
    -1
372
    -1
  0
DIMSTYLE
105
EA
330
A
100
AcDbSymbolTableRecord
100
AcDbDimStyleTableRecord
  2
AM_ANSI$SF
 70
     0
  4
 mm
 40
11.0
 41
0.119999997317791
 42
0.05
 43
0.5
 44
0.1
 45
0.00000001
 75
     1
 76
     1
 78
     4
 79
     2
140
0.1200000047683716
146
0.7099999189376831
147
0.0599999986588955
176
   256
177
   256
178
     2
284
     4
340
DF
371
    -1
372
    -1
  0
DIMSTYLE
105
EB
330
A
100
AcDbSymbolTableRecord
100
AcDbDimStyleTableRecord
  2
AM_ANSI$SF$7
 70
     0
  4
 mm
 40
11.0
 41
0.119999997317791
 42
0.05
 43
0.5
 44
0.1
 45
0.00000001
 75
     1
 76
     1
 78
     4
 79
     2
140
0.1200000047683716
146
0.7099999189376831
147
0.0599999986588955
176
   256
177
   256
178
     2
284
     4
340
DF
371
    -1
372
    -1
  0
DIMSTYLE
105
EC
330
A
100
AcDbSymbolTableRecord
100
AcDbDimStyleTableRecord
  2
AM_ANSI$SH
 70
     0
  4
 mm
 40
11.0
 41
0.119999997317791
 42
0.05
 43
0.5
 44
0.1
 45
0.00000001
 75
     1
 76
     1
 78
     4
 79
     2
140
0.1200000047683716
146
0.7099999189376831
147
0.0599999986588955
176
   256
177
   256
178
     2
284
     4
340
E0
371
    -1
372
    -1
  0
DIMSTYLE
105
ED
330
A
100
AcDbSymbolTableRecord
100
AcDbDimStyleTableRecord
  2
AM_ANSI$SH$7
 70
     0
  4
 mm
 40
11.0
 41
0.119999997317791
 42
0.05
 43
0.5
 44
0.1
 45
0.00000001
 75
     1
 76
     1
 78
     4
 79
     2
140
0.1200000047683716
146
0.7099999189376831
147
0.0599999986588955
176
   256
177
   256
178
     2
284
     4
340
E0
371
    -1
372
    -1
  0
DIMSTYLE
105
EE
330
A
100
AcDbSymbolTableRecord
100
AcDbDimStyleTableRecord
  2
Architectural (ANSI)
 70
     0
 40
11.0
 41
0.0984251946210861
 43
0.2362204724409449
 44
0.125
 45
0.00000001
 46
0.3937007874015748
 78
     3
 79
     3
140
0.1200000047683716
147
0.031496062992126
171
     1
176
   256
177
   256
178
   256
272
     2
274
     1
276
     2
277
     4
284
    12
285
     4
286
    12
340
D6
371
    -1
372
    -1
  0
DIMSTYLE
105
EF
330
A
100
AcDbSymbolTableRecord
100
AcDbDimStyleTableRecord
  2
Architectural (ANSI)$7
 70
     0
 40
11.0
 41
0.0984251946210861
 43
0.2362204724409449
 44
0.125
 45
0.00000001
 46
0.3937007874015748
 78
     3
 79
     3
140
0.1200000047683716
147
0.031496062992126
171
     1
176
   256
177
   256
178
   256
272
     2
274
     1
276
     2
277
     4
284
    12
285
     4
286
    12
340
D6
371
    -1
372
    -1
  0
DIMSTYLE
105
F0
330
A
100
AcDbSymbolTableRecord
100
AcDbDimStyleTableRecord
  2
Default - Fraction (ANSI)
 70
     0
 40
11.0
 41
0.0984251946210861
 43
0.2362204724409449
 44
0.125
 45
0.00000001
 46
0.3937007874015748
 79
     3
140
0.1200000047683716
147
0.031496062992126
171
     1
176
   256
177
   256
178
   256
272
     2
274
     1
276
     2
277
     5
284
    12
285
     4
286
    12
340
D6
371
    -1
372
    -1
  0
DIMSTYLE
105
F1
330
A
100
AcDbSymbolTableRecord
100
AcDbDimStyleTableRecord
  2
Default - Fraction (ANSI)$7
 70
     0
 40
11.0
 41
0.0984251946210861
 43
0.2362204724409449
 44
0.125
 45
0.00000001
 46
0.3937007874015748
 79
     3
140
0.1200000047683716
147
0.031496062992126
171
     1
176
   256
177
   256
178
   256
272
     2
274
     1
276
     2
277
     5
284
    12
285
     4
286
    12
340
D6
371
    -1
372
    -1
  0
DIMSTYLE
105
F2
330
A
100
AcDbSymbolTableRecord
100
AcDbDimStyleTableRecord
  2
Default - mm (ANSI)
 70
     0
 40
11.0
 41
0.0984251946210861
 42
0.063
 43
0.2362204724409449
 44
0.125
 45
0.00000001
 46
0.3937007874015748
 73
     0
 78
     4
 79
     1
140
0.1200000047683716
143
1.0
144
25.4
147
0.031496062992126
171
     1
176
   256
177
   256
178
   256
179
     1
271
     2
272
     2
274
     1
284
     4
285
     4
340
D6
371
    -1
372
    -1
  0
DIMSTYLE
105
F3
330
A
100
AcDbSymbolTableRecord
100
AcDbDimStyleTableRecord
  2
Default - mm (ANSI)$7
 70
     0
 40
11.0
 41
0.0984251946210861
 42
0.063
 43
0.2362204724409449
 44
0.125
 45
0.00000001
 46
0.3937007874015748
 73
     0
 78
     4
 79
     1
140
0.1200000047683716
143
1.0
144
25.4
147
0.031496062992126
171
     1
176
   256
177
   256
178
   256
179
     1
271
     2
272
     2
274
     1
284
     4
285
     4
340
D6
371
    -1
372
    -1
  0
DIMSTYLE
105
F4
330
A
100
AcDbSymbolTableRecord
100
AcDbDimStyleTableRecord
  2
Default - mm [in] (ANSI)
 70
     0
  4
 in
 40
11.0
 41
0.0984251946210861
 42
0.063
 43
0.25
 44
0.125
 45
0.00000001
 46
0.3937007874015748
 73
     0
 78
     4
 79
     1
140
0.1200000047683716
143
0.03937
144
25.4
147
0.031496062992126
170
     1
171
     3
176
   256
177
   256
178
   256
179
     1
271
     2
272
     2
274
     3
284
     4
285
     4
286
     4
340
D6
371
    -1
372
    -1
  0
DIMSTYLE
105
F5
330
A
100
AcDbSymbolTableRecord
100
AcDbDimStyleTableRecord
  2
Default - mm [in] (ANSI)$7
 70
     0
  4
 in
 40
11.0
 41
0.0984251946210861
 42
0.063
 43
0.25
 44
0.125
 45
0.00000001
 46
0.3937007874015748
 73
     0
 78
     4
 79
     1
140
0.1200000047683716
143
0.03937
144
25.4
147
0.031496062992126
170
     1
171
     3
176
   256
177
   256
178
   256
179
     1
271
     2
272
     2
274
     3
284
     4
285
     4
286
     4
340
D6
371
    -1
372
    -1
  0
DIMSTYLE
105
F6
102
{ACAD_REACTORS
330
2E7
330
3D4
330
4C4
330
5AE
330
698
330
782
330
86C
330
984
330
A82
330
CB0
102
}
330
A
100
AcDbSymbolTableRecord
100
AcDbDimStyleTableRecord
  2
Default (ANSI)
 70
     0
 40
11.0
 41
0.0984251946210861
 43
0.2362204724409449
 44
0.125
 45
0.00000001
 46
0.3937007874015748
 79
     1
140
0.1200000047683716
147
0.031496062992126
171
     1
176
   256
177
   256
178
   256
271
     2
272
     2
274
     1
284
     4
285
     4
340
D6
371
    -1
372
    -1
  0
DIMSTYLE
105
F7
330
A
100
AcDbSymbolTableRecord
100
AcDbDimStyleTableRecord
  2
Default (ANSI)$7
 70
     0
 40
11.0
 41
0.0984251946210861
 43
0.2362204724409449
 44
0.125
 45
0.00000001
 46
0.3937007874015748
 79
     1
140
0.1200000047683716
147
0.031496062992126
171
     1
176
   256
177
   256
178
   256
271
     2
272
     2
274
     1
284
     4
285
     4
340
D6
371
    -1
372
    -1
  0
DIMSTYLE
105
F8
330
A
100
AcDbSymbolTableRecord
100
AcDbDimStyleTableRecord
  2
Alternate (ANSI)
 70
     0
 40
11.0
 41
0.0979999974370003
340
55
342
F9
  0
DIMSTYLE
105
10B
330
A
100
AcDbSymbolTableRecord
100
AcDbDimStyleTableRecord
  2
Datum (ANSI)
 70
     0
 40
11.0
 41
0.0979999974370003
340
55
342
F9
  0
DIMSTYLE
105
11A
330
A
100
AcDbSymbolTableRecord
100
AcDbDimStyleTableRecord
  2
Large (ANSI)
 70
     0
 40
11.0
 41
0.1959999948740005
340
55
342
F9
  0
ENDTAB
  0
TABLE
  2
BLOCK_RECORD
  5
1
330
0
100
AcDbSymbolTable
 70
    14
  0
BLOCK_RECORD
  5
6C
330
1
100
AcDbSymbolTableRecord
100
AcDbBlockTableRecord
  2
*Model_Space
340
6F
 70
     0
280
     1
281
     0
  0
BLOCK_RECORD
  5
68
330
1
100
AcDbSymbolTableRecord
100
AcDbBlockTableRecord
  2
*Paper_Space
340
6B
 70
     0
280
     1
281
     0
  0
BLOCK_RECORD
  5
70
330
1
100
AcDbSymbolTableRecord
100
AcDbBlockTableRecord
  2
*Paper_Space0
340
73
 70
     0
280
     1
281
     0
  0
BLOCK_RECORD
  5
F9
330
1
100
AcDbSymbolTableRecord
100
AcDbBlockTableRecord
  2
_Closed
340
0
 70
     0
280
     1
281
     0
  0
BLOCK_RECORD
  5
100
330
1
100
AcDbSymbolTableRecord
100
AcDbBlockTableRecord
  2
DatumFilled45
340
0
 70
     0
280
     1
281
     0
  0
BLOCK_RECORD
  5
10C
330
1
100
AcDbSymbolTableRecord
100
AcDbBlockTableRecord
  2
Filled-1
340
0
 70
     0
280
     1
281
     0
  0
BLOCK_RECORD
  5
2EA
330
1
100
AcDbSymbolTableRecord
100
AcDbBlockTableRecord
  2
*D4
340
0
 70
     0
280
     1
281
     0
  0
BLOCK_RECORD
  5
3D5
330
1
100
AcDbSymbolTableRecord
100
AcDbBlockTableRecord
  2
*D5
340
0
 70
     0
280
     1
281
     0
  0
BLOCK_RECORD
  5
4C5
330
1
100
AcDbSymbolTableRecord
100
AcDbBlockTableRecord
  2
*D6
340
0
 70
     0
280
     1
281
     0
  0
BLOCK_RECORD
  5
5AF
330
1
100
AcDbSymbolTableRecord
100
AcDbBlockTableRecord
  2
*D7
340
0
 70
     0
280
     1
281
     0
  0
BLOCK_RECORD
  5
699
330
1
100
AcDbSymbolTableRecord
100
AcDbBlockTableRecord
  2
*D8
340
0
 70
     0
280
     1
281
     0
  0
BLOCK_RECORD
  5
783
330
1
100
AcDbSymbolTableRecord
100
AcDbBlockTableRecord
  2
*D9
340
0
 70
     0
280
     1
281
     0
  0
BLOCK_RECORD
  5
86D
330
1
100
AcDbSymbolTableRecord
100
AcDbBlockTableRecord
  2
*D10
340
0
 70
     0
280
     1
281
     0
  0
BLOCK_RECORD
  5
985
330
1
100
AcDbSymbolTableRecord
100
AcDbBlockTableRecord
  2
*D11
340
0
 70
     0
280
     1
281
     0
  0
BLOCK_RECORD
  5
A83
330
1
100
AcDbSymbolTableRecord
100
AcDbBlockTableRecord
  2
*D12
340
0
 70
     0
280
     1
281
     0
  0
BLOCK_RECORD
  5
CB1
330
1
100
AcDbSymbolTableRecord
100
AcDbBlockTableRecord
  2
*D13
340
0
 70
     0
280
     1
281
     0
  0
ENDTAB
  0
ENDSEC
  0
SECTION
  2
BLOCKS
  0
BLOCK
  5
6D
330
6C
100
AcDbEntity
  8
0
100
AcDbBlockBegin
  2
*Model_Space
 70
     0
 10
0.0
 20
0.0
 30
0.0
  3
*Model_Space
  1

  0
ENDBLK
  5
6E
330
6C
100
AcDbEntity
  8
0
100
AcDbBlockEnd
  0
BLOCK
  5
69
330
68
100
AcDbEntity
 67
     1
  8
0
100
AcDbBlockBegin
  2
*Paper_Space
 70
     0
 10
0.0
 20
0.0
 30
0.0
  3
*Paper_Space
  1

  0
ENDBLK
  5
6A
330
68
100
AcDbEntity
 67
     1
  8
0
100
AcDbBlockEnd
  0
BLOCK
  5
71
330
70
100
AcDbEntity
 67
     1
  8
0
100
AcDbBlockBegin
  2
*Paper_Space0
 70
     0
 10
0.0
 20
0.0
 30
0.0
  3
*Paper_Space0
  1

  0
ENDBLK
  5
72
330
70
100
AcDbEntity
 67
     1
  8
0
100
AcDbBlockEnd
  0
BLOCK
  5
FE
330
F9
100
AcDbEntity
  8
0
100
AcDbBlockBegin
  2
_Closed
 70
     0
 10
0.0
 20
0.0
 30
0.0
  3
_Closed
  1

  0
LINE
  5
FA
330
F9
100
AcDbEntity
  8
0
  6
ByBlock
 62
     0
370
    -2
100
AcDbLine
 10
-1.0
 20
0.1666666666666666
 30
0.0
 11
0.0
 21
0.0
 31
0.0
  0
LINE
  5
FB
330
F9
100
AcDbEntity
  8
0
  6
ByBlock
 62
     0
370
    -2
100
AcDbLine
 10
0.0
 20
0.0
 30
0.0
 11
-1.0
 21
-0.1666666666666666
 31
0.0
  0
LINE
  5
FC
330
F9
100
AcDbEntity
  8
0
  6
ByBlock
 62
     0
370
    -2
100
AcDbLine
 10
-1.0
 20
0.1666666666666666
 30
0.0
 11
-1.0
 21
-0.1666666666666666
 31
0.0
  0
LINE
  5
FD
330
F9
100
AcDbEntity
  8
0
  6
ByBlock
 62
     0
370
    -2
100
AcDbLine
 10
0.0
 20
0.0
 30
0.0
 11
-1.0
 21
0.0
 31
0.0
  0
ENDBLK
  5
FF
330
F9
100
AcDbEntity
  8
0
100
AcDbBlockEnd
  0
BLOCK
  5
101
330
100
100
AcDbEntity
  8
0
100
AcDbBlockBegin
  2
DatumFilled45
 70
     0
 10
0.0
 20
0.0
 30
0.0
  3
DatumFilled45
  1

  0
POLYLINE
  5
103
330
100
100
AcDbEntity
  8
0
 62
     0
100
AcDb2dPolyline
 66
     1
 10
0.0
 20
0.0
 30
0.0
 70
   128
  0
VERTEX
  5
104
330
103
100
AcDbEntity
  8
0
 62
     0
100
AcDbVertex
100
AcDb2dVertex
 10
0.0
 20
0.9999999999999998
 30
0.0
  0
VERTEX
  5
105
330
103
100
AcDbEntity
  8
0
 62
     0
100
AcDbVertex
100
AcDb2dVertex
 10
0.0
 20
-0.9999999999999998
 30
0.0
  0
VERTEX
  5
107
330
103
100
AcDbEntity
  8
0
 62
     0
100
AcDbVertex
100
AcDb2dVertex
 10
-0.9999999999999998
 20
0.0
 30
0.0
  0
VERTEX
  5
108
330
103
100
AcDbEntity
  8
0
 62
     0
100
AcDbVertex
100
AcDb2dVertex
 10
0.0
 20
0.9999999999999998
 30
0.0
  0
SEQEND
  5
106
330
103
100
AcDbEntity
  8
0
 62
     0
  0
SOLID
  5
10A
330
100
100
AcDbEntity
  8
0
 62
     0
100
AcDbTrace
 10
0.0
 20
0.9999999999999998
 30
0.0
 11
0.0
 21
-0.9999999999999998
 31
0.0
 12
-0.9999999999999998
 22
0.0
 32
0.0
 13
0.0
 23
0.9999999999999998
 33
0.0
  0
ENDBLK
  5
102
330
100
100
AcDbEntity
  8
0
100
AcDbBlockEnd
  0
BLOCK
  5
10D
330
10C
100
AcDbEntity
  8
0
100
AcDbBlockBegin
  2
Filled-1
 70
     0
 10
0.0
 20
0.0
 30
0.0
  3
Filled-1
  1

  0
LINE
  5
10F
330
10C
100
AcDbEntity
  8
0
 62
     0
100
AcDbLine
 10
-0.9999999999999998
 20
0.0
 30
0.0
 11
0.0
 21
0.0
 31
0.0
  0
POLYLINE
  5
110
330
10C
100
AcDbEntity
  8
0
 62
     0
100
AcDb2dPolyline
 66
     1
 10
0.0
 20
0.0
 30
0.0
 70
   128
  0
VERTEX
  5
111
330
110
100
AcDbEntity
  8
0
 62
     0
100
AcDbVertex
100
AcDb2dVertex
 10
-0.9999999999999998
 20
-0.0994897959183674
 30
0.0
  0
VERTEX
  5
112
330
110
100
AcDbEntity
  8
0
 62
     0
100
AcDbVertex
100
AcDb2dVertex
 10
0.0
 20
0.0
 30
0.0
  0
VERTEX
  5
114
330
110
100
AcDbEntity
  8
0
 62
     0
100
AcDbVertex
100
AcDb2dVertex
 10
-0.9999999999999998
 20
0.0994897959183674
 30
0.0
  0
VERTEX
  5
115
330
110
100
AcDbEntity
  8
0
 62
     0
100
AcDbVertex
100
AcDb2dVertex
 10
-0.9999999999999998
 20
-0.0994897959183674
 30
0.0
  0
SEQEND
  5
113
330
110
100
AcDbEntity
  8
0
 62
     0
  0
SOLID
  5
116
330
10C
100
AcDbEntity
  8
0
 62
     0
100
AcDbTrace
 10
-0.9999999999999998
 20
-0.0994897959183674
 30
0.0
 11
0.0
 21
0.0
 31
0.0
 12
-0.9999999999999998
 22
0.0994897959183674
 32
0.0
 13
-0.9999999999999998
 23
-0.0994897959183674
 33
0.0
  0
LINE
  5
117
330
10C
100
AcDbEntity
  8
0
 62
     0
100
AcDbLine
 10
-0.9999999999999998
 20
-0.0994897959183674
 30
0.0
 11
0.0
 21
0.0
 31
0.0
  0
LINE
  5
118
330
10C
100
AcDbEntity
  8
0
 62
     0
100
AcDbLine
 10
0.0
 20
0.0
 30
0.0
 11
-0.9999999999999998
 21
0.0994897959183674
 31
0.0
  0
LINE
  5
119
330
10C
100
AcDbEntity
  8
0
 62
     0
100
AcDbLine
 10
-0.9999999999999998
 20
0.0994897959183674
 30
0.0
 11
-0.9999999999999998
 21
-0.0994897959183674
 31
0.0
  0
ENDBLK
  5
10E
330
10C
100
AcDbEntity
  8
0
100
AcDbBlockEnd
  0
BLOCK
  5
2EB
330
2EA
100
AcDbEntity
  8
0
100
AcDbBlockBegin
  2
*D4
 70
     1
 10
0.0
 20
0.0
 30
0.0
  3
*D4
  1

  0
LINE
  5
3CA
330
2EA
100
AcDbEntity
  8
Dimension (ANSI)
440
 16777216
100
AcDbLine
 10
33.77259449657911
 20
41.25247706687757
 30
0.0
 11
13.16383465405943
 21
41.25247706687757
 31
0.0
  0
LINE
  5
3CB
330
2EA
100
AcDbEntity
  8
Dimension (ANSI)
440
 16777216
100
AcDbLine
 10
33.77259449657911
 20
79.25247706687757
 30
0.0
 11
13.16383465405944
 21
79.25247706687759
 31
0.0
  0
LINE
  5
3CC
330
2EA
100
AcDbEntity
  8
Dimension (ANSI)
440
 16777216
100
AcDbLine
 10
14.53883465405943
 20
42.33515420770951
 30
0.0
 11
14.53883465405944
 21
59.2158793167483
 31
0.0
  0
LINE
  5
3CD
330
2EA
100
AcDbEntity
  8
Dimension (ANSI)
440
 16777216
100
AcDbLine
 10
14.53883465405944
 20
78.16979992604564
 30
0.0
 11
14.53883465405944
 21
61.28907481700683
 31
0.0
  0
SOLID
  5
3CE
330
2EA
100
AcDbEntity
  8
Dimension (ANSI)
440
 16777216
100
AcDbTrace
 10
14.35838846392077
 20
42.33515420770951
 30
0.0
 11
14.71928084419809
 21
42.33515420770951
 31
0.0
 12
14.53883465405943
 22
41.25247706687757
 32
0.0
 13
14.53883465405943
 23
41.25247706687757
 33
0.0
  0
SOLID
  5
3CF
330
2EA
100
AcDbEntity
  8
Dimension (ANSI)
440
 16777216
100
AcDbTrace
 10
14.35838846392078
 20
78.16979992604564
 30
0.0
 11
14.7192808441981
 21
78.16979992604564
 31
0.0
 12
14.53883465405944
 22
79.25247706687759
 32
0.0
 13
14.53883465405944
 23
79.25247706687759
 33
0.0
  0
MTEXT
  5
3D0
330
2EA
100
AcDbEntity
  8
Dimension (ANSI)
440
 16777216
100
AcDbMText
 10
12.361588107467
 20
60.94261812409345
 30
0.0
 40
1.320000052452087
 41
0.0
 46
0.0
 71
     1
 72
     1
  1
\A1;38.00
  7
Note Text (ANSI)
 73
     1
 44
1.0
  0
POINT
  5
3D1
330
2EA
100
AcDbEntity
  8
Defpoints
 62
     0
440
 16777216
100
AcDbPoint
 10
34.46009449657911
 20
41.25247706687757
 30
0.0
  0
POINT
  5
3D2
330
2EA
100
AcDbEntity
  8
Defpoints
 62
     0
440
 16777216
100
AcDbPoint
 10
34.46009449657911
 20
79.25247706687757
 30
0.0
  0
POINT
  5
3D3
330
2EA
100
AcDbEntity
  8
Defpoints
 62
     0
440
 16777216
100
AcDbPoint
 10
14.53883465405944
 20
79.25247706687759
 30
0.0
  0
ENDBLK
  5
2EC
330
2EA
100
AcDbEntity
  8
0
100
AcDbBlockEnd
  0
BLOCK
  5
3D6
330
3D5
100
AcDbEntity
  8
0
100
AcDbBlockBegin
  2
*D5
 70
     1
 10
0.0
 20
0.0
 30
0.0
  3
*D5
  1

  0
LINE
  5
4BA
330
3D5
100
AcDbEntity
  8
Dimension (ANSI)
440
 16777216
100
AcDbLine
 10
34.43420614893078
 20
42.12747706687756
 30
0.0
 11
28.04079229380223
 21
42.12747706687756
 31
0.0
  0
LINE
  5
4BB
330
3D5
100
AcDbEntity
  8
Dimension (ANSI)
440
 16777216
100
AcDbLine
 10
34.43420614893078
 20
60.25247706687756
 30
0.0
 11
28.04079229380223
 21
60.25247706687756
 31
0.0
  0
LINE
  5
4BC
330
3D5
100
AcDbEntity
  8
Dimension (ANSI)
440
 16777216
100
AcDbLine
 10
29.41579229380223
 20
43.2101542077095
 30
0.0
 11
29.41579229380223
 21
50.15337931674828
 31
0.0
  0
LINE
  5
4BD
330
3D5
100
AcDbEntity
  8
Dimension (ANSI)
440
 16777216
100
AcDbLine
 10
29.41579229380223
 20
59.16979992604561
 30
0.0
 11
29.41579229380223
 21
52.22657481700682
 31
0.0
  0
SOLID
  5
4BE
330
3D5
100
AcDbEntity
  8
Dimension (ANSI)
440
 16777216
100
AcDbTrace
 10
29.23534610366357
 20
43.2101542077095
 30
0.0
 11
29.59623848394088
 21
43.2101542077095
 31
0.0
 12
29.41579229380223
 22
42.12747706687756
 32
0.0
 13
29.41579229380223
 23
42.12747706687756
 33
0.0
  0
SOLID
  5
4BF
330
3D5
100
AcDbEntity
  8
Dimension (ANSI)
440
 16777216
100
AcDbTrace
 10
29.23534610366358
 20
59.16979992604561
 30
0.0
 11
29.59623848394089
 21
59.16979992604561
 31
0.0
 12
29.41579229380223
 22
60.25247706687756
 32
0.0
 13
29.41579229380223
 23
60.25247706687756
 33
0.0
  0
MTEXT
  5
4C0
330
3D5
100
AcDbEntity
  8
Dimension (ANSI)
440
 16777216
100
AcDbMText
 10
27.31035233119758
 20
51.88011812409344
 30
0.0
 40
1.320000052452087
 41
0.0
 46
0.0
 71
     1
 72
     1
  1
\A1;18.13
  7
Note Text (ANSI)
 73
     1
 44
1.0
  0
POINT
  5
4C1
330
3D5
100
AcDbEntity
  8
Defpoints
 62
     0
440
 16777216
100
AcDbPoint
 10
35.12170614893078
 20
42.12747706687756
 30
0.0
  0
POINT
  5
4C2
330
3D5
100
AcDbEntity
  8
Defpoints
 62
     0
440
 16777216
100
AcDbPoint
 10
35.12170614893078
 20
60.25247706687756
 30
0.0
  0
POINT
  5
4C3
330
3D5
100
AcDbEntity
  8
Defpoints
 62
     0
440
 16777216
100
AcDbPoint
 10
29.41579229380223
 20
60.25247706687756
 30
0.0
  0
ENDBLK
  5
3D7
330
3D5
100
AcDbEntity
  8
0
100
AcDbBlockEnd
  0
BLOCK
  5
4C6
330
4C5
100
AcDbEntity
  8
0
100
AcDbBlockBegin
  2
*D6
 70
     1
 10
0.0
 20
0.0
 30
0.0
  3
*D6
  1

  0
LINE
  5
5A4
330
4C5
100
AcDbEntity
  8
Dimension (ANSI)
440
 16777216
100
AcDbLine
 10
34.43420614893078
 20
42.12747706687756
 30
0.0
 11
21.62072189696229
 21
42.12747706687756
 31
0.0
  0
LINE
  5
5A5
330
4C5
100
AcDbEntity
  8
Dimension (ANSI)
440
 16777216
100
AcDbLine
 10
34.43420614893078
 20
78.37747706687756
 30
0.0
 11
21.6207218969623
 21
78.37747706687757
 31
0.0
  0
LINE
  5
5A6
330
4C5
100
AcDbEntity
  8
Dimension (ANSI)
440
 16777216
100
AcDbLine
 10
22.99572189696229
 20
43.2101542077095
 30
0.0
 11
22.99572189696229
 21
59.21853881985895
 31
0.0
  0
LINE
  5
5A7
330
4C5
100
AcDbEntity
  8
Dimension (ANSI)
440
 16777216
100
AcDbLine
 10
22.9957218969623
 20
77.29479992604563
 30
0.0
 11
22.99572189696229
 21
61.28641531389615
 31
0.0
  0
SOLID
  5
5A8
330
4C5
100
AcDbEntity
  8
Dimension (ANSI)
440
 16777216
100
AcDbTrace
 10
22.81527570682364
 20
43.2101542077095
 30
0.0
 11
23.17616808710095
 21
43.2101542077095
 31
0.0
 12
22.99572189696229
 22
42.12747706687756
 32
0.0
 13
22.99572189696229
 23
42.12747706687756
 33
0.0
  0
SOLID
  5
5A9
330
4C5
100
AcDbEntity
  8
Dimension (ANSI)
440
 16777216
100
AcDbTrace
 10
22.81527570682364
 20
77.29479992604563
 30
0.0
 11
23.17616808710095
 21
77.29479992604563
 31
0.0
 12
22.9957218969623
 22
78.37747706687757
 32
0.0
 13
22.9957218969623
 23
78.37747706687757
 33
0.0
  0
MTEXT
  5
5AA
330
4C5
100
AcDbEntity
  8
Dimension (ANSI)
440
 16777216
100
AcDbMText
 10
20.8291133628125
 20
60.93995862098278
 30
0.0
 40
1.320000052452087
 41
0.0
 46
0.0
 71
     1
 72
     1
  1
\A1;36.25
  7
Note Text (ANSI)
 73
     1
 44
1.0
  0
POINT
  5
5AB
330
4C5
100
AcDbEntity
  8
Defpoints
 62
     0
440
 16777216
100
AcDbPoint
 10
35.12170614893078
 20
42.12747706687756
 30
0.0
  0
POINT
  5
5AC
330
4C5
100
AcDbEntity
  8
Defpoints
 62
     0
440
 16777216
100
AcDbPoint
 10
35.12170614893078
 20
78.37747706687756
 30
0.0
  0
POINT
  5
5AD
330
4C5
100
AcDbEntity
  8
Defpoints
 62
     0
440
 16777216
100
AcDbPoint
 10
22.9957218969623
 20
78.37747706687757
 30
0.0
  0
ENDBLK
  5
4C7
330
4C5
100
AcDbEntity
  8
0
100
AcDbBlockEnd
  0
BLOCK
  5
5B0
330
5AF
100
AcDbEntity
  8
0
100
AcDbBlockBegin
  2
*D7
 70
     1
 10
0.0
 20
0.0
 30
0.0
  3
*D7
  1

  0
LINE
  5
68E
330
5AF
100
AcDbEntity
  8
Dimension (ANSI)
440
 16777216
100
AcDbLine
 10
34.24670614893079
 20
79.72658871922924
 30
0.0
 11
34.24670614893079
 21
92.54007297119775
 31
0.0
  0
LINE
  5
68F
330
5AF
100
AcDbEntity
  8
Dimension (ANSI)
440
 16777216
100
AcDbLine
 10
90.24670614893079
 20
79.72658871922924
 30
0.0
 11
90.24670614893079
 21
92.54007297119775
 31
0.0
  0
LINE
  5
690
330
5AF
100
AcDbEntity
  8
Dimension (ANSI)
440
 16777216
100
AcDbLine
 10
35.32938328976273
 20
91.16507297119774
 30
0.0
 11
59.73497067342294
 21
91.16507297119774
 31
0.0
  0
LINE
  5
691
330
5AF
100
AcDbEntity
  8
Dimension (ANSI)
440
 16777216
100
AcDbLine
 10
89.16402900809883
 20
91.16507297119774
 30
0.0
 11
64.75844162443863
 21
91.16507297119774
 31
0.0
  0
SOLID
  5
692
330
5AF
100
AcDbEntity
  8
Dimension (ANSI)
440
 16777216
100
AcDbTrace
 10
35.32938328976273
 20
91.3455191613364
 30
0.0
 11
35.32938328976273
 21
90.98462678105908
 31
0.0
 12
34.24670614893079
 22
91.16507297119774
 32
0.0
 13
34.24670614893079
 23
91.16507297119774
 33
0.0
  0
SOLID
  5
693
330
5AF
100
AcDbEntity
  8
Dimension (ANSI)
440
 16777216
100
AcDbTrace
 10
89.16402900809883
 20
91.3455191613364
 30
0.0
 11
89.16402900809883
 21
90.98462678105908
 31
0.0
 12
90.24670614893079
 22
91.16507297119774
 32
0.0
 13
90.24670614893079
 23
91.16507297119774
 33
0.0
  0
MTEXT
  5
694
330
5AF
100
AcDbEntity
  8
Dimension (ANSI)
440
 16777216
100
AcDbMText
 10
60.08142736633633
 20
91.85211127478451
 30
0.0
 40
1.320000052452087
 41
0.0
 46
0.0
 71
     1
 72
     1
  1
\A1;56.00
  7
Note Text (ANSI)
 73
     1
 44
1.0
  0
POINT
  5
695
330
5AF
100
AcDbEntity
  8
Defpoints
 62
     0
440
 16777216
100
AcDbPoint
 10
34.24670614893079
 20
79.03908871922924
 30
0.0
  0
POINT
  5
696
330
5AF
100
AcDbEntity
  8
Defpoints
 62
     0
440
 16777216
100
AcDbPoint
 10
90.24670614893079
 20
79.03908871922924
 30
0.0
  0
POINT
  5
697
330
5AF
100
AcDbEntity
  8
Defpoints
 62
     0
440
 16777216
100
AcDbPoint
 10
90.24670614893079
 20
91.16507297119774
 30
0.0
  0
ENDBLK
  5
5B1
330
5AF
100
AcDbEntity
  8
0
100
AcDbBlockEnd
  0
BLOCK
  5
69A
330
699
100
AcDbEntity
  8
0
100
AcDbBlockBegin
  2
*D8
 70
     1
 10
0.0
 20
0.0
 30
0.0
  3
*D8
  1

  0
LINE
  5
778
330
699
100
AcDbEntity
  8
Dimension (ANSI)
440
 16777216
100
AcDbLine
 10
35.12170614893078
 20
79.06497706687756
 30
0.0
 11
35.12170614893078
 21
87.91756314091371
 31
0.0
  0
LINE
  5
779
330
699
100
AcDbEntity
  8
Dimension (ANSI)
440
 16777216
100
AcDbLine
 10
89.37170614893078
 20
79.06497706687756
 30
0.0
 11
89.37170614893078
 21
87.91756314091371
 31
0.0
  0
LINE
  5
77A
330
699
100
AcDbEntity
  8
Dimension (ANSI)
440
 16777216
100
AcDbLine
 10
36.20438328976273
 20
86.54256314091369
 30
0.0
 11
59.74560868586557
 21
86.54256314091369
 31
0.0
  0
LINE
  5
77B
330
699
100
AcDbEntity
  8
Dimension (ANSI)
440
 16777216
100
AcDbLine
 10
88.28902900809884
 20
86.54256314091369
 30
0.0
 11
64.74780361199599
 21
86.54256314091369
 31
0.0
  0
SOLID
  5
77C
330
699
100
AcDbEntity
  8
Dimension (ANSI)
440
 16777216
100
AcDbTrace
 10
36.20438328976273
 20
86.72300933105235
 30
0.0
 11
36.20438328976273
 21
86.36211695077504
 31
0.0
 12
35.12170614893078
 22
86.54256314091369
 32
0.0
 13
35.12170614893078
 23
86.54256314091369
 33
0.0
  0
SOLID
  5
77D
330
699
100
AcDbEntity
  8
Dimension (ANSI)
440
 16777216
100
AcDbTrace
 10
88.28902900809884
 20
86.72300933105235
 30
0.0
 11
88.28902900809884
 21
86.36211695077504
 31
0.0
 12
89.37170614893078
 22
86.54256314091369
 32
0.0
 13
89.37170614893078
 23
86.54256314091369
 33
0.0
  0
MTEXT
  5
77E
330
699
100
AcDbEntity
  8
Dimension (ANSI)
440
 16777216
100
AcDbMText
 10
60.09206537877895
 20
87.23004469501892
 30
0.0
 40
1.320000052452087
 41
0.0
 46
0.0
 71
     1
 72
     1
  1
\A1;54.25
  7
Note Text (ANSI)
 73
     1
 44
1.0
  0
POINT
  5
77F
330
699
100
AcDbEntity
  8
Defpoints
 62
     0
440
 16777216
100
AcDbPoint
 10
35.12170614893078
 20
78.37747706687756
 30
0.0
  0
POINT
  5
780
330
699
100
AcDbEntity
  8
Defpoints
 62
     0
440
 16777216
100
AcDbPoint
 10
89.37170614893078
 20
78.37747706687756
 30
0.0
  0
POINT
  5
781
330
699
100
AcDbEntity
  8
Defpoints
 62
     0
440
 16777216
100
AcDbPoint
 10
89.37170614893078
 20
86.54256314091369
 30
0.0
  0
ENDBLK
  5
69B
330
699
100
AcDbEntity
  8
0
100
AcDbBlockEnd
  0
BLOCK
  5
784
330
783
100
AcDbEntity
  8
0
100
AcDbBlockBegin
  2
*D9
 70
     1
 10
0.0
 20
0.0
 30
0.0
  3
*D9
  1

  0
LINE
  5
862
330
783
100
AcDbEntity
  8
Dimension (ANSI)
440
 16777216
100
AcDbLine
 10
35.12170614893078
 20
79.06497706687756
 30
0.0
 11
35.12170614893078
 21
83.65766528001191
 31
0.0
  0
LINE
  5
863
330
783
100
AcDbEntity
  8
Dimension (ANSI)
440
 16777216
100
AcDbLine
 10
62.24670614893078
 20
79.06497706687756
 30
0.0
 11
62.24670614893078
 21
83.65766528001191
 31
0.0
  0
LINE
  5
864
330
783
100
AcDbEntity
  8
Dimension (ANSI)
440
 16777216
100
AcDbLine
 10
36.20438328976273
 20
82.2826652800119
 30
0.0
 11
46.18044918275492
 21
82.2826652800119
 31
0.0
  0
LINE
  5
865
330
783
100
AcDbEntity
  8
Dimension (ANSI)
440
 16777216
100
AcDbLine
 10
61.16402900809884
 20
82.2826652800119
 30
0.0
 11
51.18796311510666
 21
82.2826652800119
 31
0.0
  0
SOLID
  5
866
330
783
100
AcDbEntity
  8
Dimension (ANSI)
440
 16777216
100
AcDbTrace
 10
36.20438328976273
 20
82.46311147015056
 30
0.0
 11
36.20438328976273
 21
82.10221908987326
 31
0.0
 12
35.12170614893078
 22
82.2826652800119
 32
0.0
 13
35.12170614893078
 23
82.2826652800119
 33
0.0
  0
SOLID
  5
867
330
783
100
AcDbEntity
  8
Dimension (ANSI)
440
 16777216
100
AcDbTrace
 10
61.16402900809884
 20
82.46311147015056
 30
0.0
 11
61.16402900809884
 21
82.10221908987326
 31
0.0
 12
62.24670614893078
 22
82.2826652800119
 32
0.0
 13
62.24670614893078
 23
82.2826652800119
 33
0.0
  0
MTEXT
  5
868
330
783
100
AcDbEntity
  8
Dimension (ANSI)
440
 16777216
100
AcDbMText
 10
46.5269058756683
 20
82.97014683411713
 30
0.0
 40
1.320000052452087
 41
0.0
 46
0.0
 71
     1
 72
     1
  1
\A1;27.13
  7
Note Text (ANSI)
 73
     1
 44
1.0
  0
POINT
  5
869
330
783
100
AcDbEntity
  8
Defpoints
 62
     0
440
 16777216
100
AcDbPoint
 10
35.12170614893078
 20
78.37747706687756
 30
0.0
  0
POINT
  5
86A
330
783
100
AcDbEntity
  8
Defpoints
 62
     0
440
 16777216
100
AcDbPoint
 10
62.24670614893078
 20
78.37747706687756
 30
0.0
  0
POINT
  5
86B
330
783
100
AcDbEntity
  8
Defpoints
 62
     0
440
 16777216
100
AcDbPoint
 10
62.24670614893078
 20
82.2826652800119
 30
0.0
  0
ENDBLK
  5
785
330
783
100
AcDbEntity
  8
0
100
AcDbBlockEnd
  0
BLOCK
  5
86E
330
86D
100
AcDbEntity
  8
0
100
AcDbBlockBegin
  2
*D10
 70
     1
 10
0.0
 20
0.0
 30
0.0
  3
*D10
  1

  0
LINE
  5
978
330
86D
100
AcDbEntity
  8
Dimension (ANSI)
440
 16777216
100
AcDbLine
 10
90.72081780128247
 20
41.25247706687757
 30
0.0
 11
99.29222336490946
 21
41.25247706687757
 31
0.0
  0
LINE
  5
979
330
86D
100
AcDbEntity
  8
Dimension (ANSI)
440
 16777216
100
AcDbLine
 10
90.0592061489308
 20
42.12747706687757
 30
0.0
 11
99.29222336490946
 21
42.12747706687757
 31
0.0
  0
LINE
  5
97A
330
86D
100
AcDbEntity
  8
Dimension (ANSI)
440
 16777216
100
AcDbLine
 10
97.91722336490947
 20
40.16979992604563
 30
0.0
 11
97.91722336490947
 21
39.08712278521369
 31
0.0
  0
LINE
  5
97B
330
86D
100
AcDbEntity
  8
Dimension (ANSI)
440
 16777216
100
AcDbLine
 10
97.91722336490947
 20
43.21015420770952
 30
0.0
 11
97.91722336490947
 21
44.29283134854147
 31
0.0
  0
LINE
  5
97C
330
86D
100
AcDbEntity
  8
Dimension (ANSI)
440
 16777216
100
AcDbLine
 10
98.99990050574141
 20
37.06282647460495
 30
0.0
 11
97.91722336490947
 21
37.06282647460495
 31
0.0
  0
LINE
  5
97D
330
86D
100
AcDbEntity
  8
Dimension (ANSI)
440
 16777216
100
AcDbLine
 10
97.91722336490947
 20
37.06282647460495
 30
0.0
 11
97.91722336490947
 21
39.08712278521369
 31
0.0
  0
MTEXT
  5
97E
330
86D
100
AcDbEntity
  8
Dimension (ANSI)
440
 16777216
100
AcDbMText
 10
99.34635719865479
 20
37.95036176625441
 30
0.0
 40
1.320000052452087
 41
0.0
 46
0.0
 71
     1
 72
     1
  1
\A1;0.88{ \PTYP.}
  7
Note Text (ANSI)
 73
     1
 44
1.0
  0
SOLID
  5
97F
330
86D
100
AcDbEntity
  8
Dimension (ANSI)
440
 16777216
100
AcDbTrace
 10
97.73677717477081
 20
40.16979992604563
 30
0.0
 11
98.09766955504812
 21
40.16979992604563
 31
0.0
 12
97.91722336490947
 22
41.25247706687757
 32
0.0
 13
97.91722336490947
 23
41.25247706687757
 33
0.0
  0
SOLID
  5
980
330
86D
100
AcDbEntity
  8
Dimension (ANSI)
440
 16777216
100
AcDbTrace
 10
97.73677717477081
 20
43.21015420770952
 30
0.0
 11
98.09766955504812
 21
43.21015420770952
 31
0.0
 12
97.91722336490947
 22
42.12747706687757
 32
0.0
 13
97.91722336490947
 23
42.12747706687757
 33
0.0
  0
POINT
  5
981
330
86D
100
AcDbEntity
  8
Defpoints
 62
     0
440
 16777216
100
AcDbPoint
 10
90.03331780128247
 20
41.25247706687757
 30
0.0
  0
POINT
  5
982
330
86D
100
AcDbEntity
  8
Defpoints
 62
     0
440
 16777216
100
AcDbPoint
 10
89.3717061489308
 20
42.12747706687757
 30
0.0
  0
POINT
  5
983
330
86D
100
AcDbEntity
  8
Defpoints
 62
     0
440
 16777216
100
AcDbPoint
 10
97.91722336490947
 20
42.12747706687757
 30
0.0
  0
ENDBLK
  5
86F
330
86D
100
AcDbEntity
  8
0
100
AcDbBlockEnd
  0
BLOCK
  5
986
330
985
100
AcDbEntity
  8
0
100
AcDbBlockBegin
  2
*D11
 70
     1
 10
0.0
 20
0.0
 30
0.0
  3
*D11
  1

  0
LINE
  5
A78
330
985
100
AcDbEntity
  8
Dimension (ANSI)
440
 16777216
100
AcDbLine
 10
90.24670614893079
 20
40.77836541452589
 30
0.0
 11
90.24670614893079
 21
36.63569360125948
 31
0.0
  0
LINE
  5
A79
330
985
100
AcDbEntity
  8
Dimension (ANSI)
440
 16777216
100
AcDbLine
 10
89.3717061489308
 20
41.43997706687757
 30
0.0
 11
89.3717061489308
 21
36.63569360125948
 31
0.0
  0
LINE
  5
A7A
330
985
100
AcDbEntity
  8
Dimension (ANSI)
440
 16777216
100
AcDbLine
 10
91.32938328976273
 20
38.01069360125949
 30
0.0
 11
92.41206043059468
 21
38.01069360125949
 31
0.0
  0
LINE
  5
A7B
330
985
100
AcDbEntity
  8
Dimension (ANSI)
440
 16777216
100
AcDbLine
 10
88.28902900809884
 20
38.01069360125949
 30
0.0
 11
86.59690536178707
 21
38.01069360125949
 31
0.0
  0
SOLID
  5
A7C
330
985
100
AcDbEntity
  8
Dimension (ANSI)
440
 16777216
100
AcDbTrace
 10
91.32938328976273
 20
38.19113979139814
 30
0.0
 11
91.32938328976273
 21
37.83024741112082
 31
0.0
 12
90.24670614893079
 22
38.01069360125949
 32
0.0
 13
90.24670614893079
 23
38.01069360125949
 33
0.0
  0
SOLID
  5
A7D
330
985
100
AcDbEntity
  8
Dimension (ANSI)
440
 16777216
100
AcDbTrace
 10
88.28902900809884
 20
38.19113979139814
 30
0.0
 11
88.28902900809884
 21
37.83024741112082
 31
0.0
 12
89.3717061489308
 22
38.01069360125949
 32
0.0
 13
89.3717061489308
 23
38.01069360125949
 33
0.0
  0
MTEXT
  5
A7E
330
985
100
AcDbEntity
  8
Dimension (ANSI)
440
 16777216
100
AcDbMText
 10
82.76295358976351
 20
38.89822889290893
 30
0.0
 40
1.320000052452087
 41
0.0
 46
0.0
 71
     1
 72
     1
  1
\A1;0.88{\PTYP.}
  7
Note Text (ANSI)
 73
     1
 44
1.0
  0
POINT
  5
A7F
330
985
100
AcDbEntity
  8
Defpoints
 62
     0
440
 16777216
100
AcDbPoint
 10
90.24670614893079
 20
41.4658654145259
 30
0.0
  0
POINT
  5
A80
330
985
100
AcDbEntity
  8
Defpoints
 62
     0
440
 16777216
100
AcDbPoint
 10
89.3717061489308
 20
42.12747706687757
 30
0.0
  0
POINT
  5
A81
330
985
100
AcDbEntity
  8
Defpoints
 62
     0
440
 16777216
100
AcDbPoint
 10
89.3717061489308
 20
38.01069360125949
 30
0.0
  0
ENDBLK
  5
987
330
985
100
AcDbEntity
  8
0
100
AcDbBlockEnd
  0
BLOCK
  5
A84
330
A83
100
AcDbEntity
  8
0
100
AcDbBlockBegin
  2
*D12
 70
     1
 10
0.0
 20
0.0
 30
0.0
  3
*D12
  1

  0
LINE
  5
B62
330
A83
100
AcDbEntity
  8
Dimension (ANSI)
440
 16777216
100
AcDbLine
 10
125.3333575491141
 20
79.78372706687757
 30
0.0
 11
125.3333575491141
 21
83.77708336609014
 31
0.0
  0
LINE
  5
B63
330
A83
100
AcDbEntity
  8
Dimension (ANSI)
440
 16777216
100
AcDbLine
 10
126.2083575491141
 20
79.93997706687757
 30
0.0
 11
126.2083575491141
 21
83.77708336609014
 31
0.0
  0
LINE
  5
B64
330
A83
100
AcDbEntity
  8
Dimension (ANSI)
440
 16777216
100
AcDbLine
 10
127.291034689946
 20
82.40208336609013
 30
0.0
 11
128.3737118307779
 21
82.40208336609013
 31
0.0
  0
LINE
  5
B65
330
A83
100
AcDbEntity
  8
Dimension (ANSI)
440
 16777216
100
AcDbLine
 10
124.2506804082821
 20
82.40208336609013
 30
0.0
 11
122.6085846310916
 21
82.40208336609013
 31
0.0
  0
SOLID
  5
B66
330
A83
100
AcDbEntity
  8
Dimension (ANSI)
440
 16777216
100
AcDbTrace
 10
127.291034689946
 20
82.58252955622879
 30
0.0
 11
127.291034689946
 21
82.22163717595149
 31
0.0
 12
126.2083575491141
 22
82.40208336609013
 32
0.0
 13
126.2083575491141
 23
82.40208336609013
 33
0.0
  0
SOLID
  5
B67
330
A83
100
AcDbEntity
  8
Dimension (ANSI)
440
 16777216
100
AcDbTrace
 10
124.2506804082821
 20
82.58252955622879
 30
0.0
 11
124.2506804082821
 21
82.22163717595149
 31
0.0
 12
125.3333575491141
 22
82.40208336609013
 32
0.0
 13
125.3333575491141
 23
82.40208336609013
 33
0.0
  0
MTEXT
  5
B68
330
A83
100
AcDbEntity
  8
Dimension (ANSI)
440
 16777216
100
AcDbMText
 10
118.8783534803837
 20
83.09222442330602
 30
0.0
 40
1.320000052452087
 41
0.0
 46
0.0
 71
     1
 72
     1
  1
\A1;0.88
  7
Note Text (ANSI)
 73
     1
 44
1.0
  0
POINT
  5
B69
330
A83
100
AcDbEntity
  8
Defpoints
 62
     0
440
 16777216
100
AcDbPoint
 10
125.3333575491141
 20
79.09622706687757
 30
0.0
  0
POINT
  5
B6A
330
A83
100
AcDbEntity
  8
Defpoints
 62
     0
440
 16777216
100
AcDbPoint
 10
126.2083575491141
 20
79.25247706687757
 30
0.0
  0
POINT
  5
B6B
330
A83
100
AcDbEntity
  8
Defpoints
 62
     0
440
 16777216
100
AcDbPoint
 10
126.2083575491141
 20
82.40208336609013
 30
0.0
  0
ENDBLK
  5
A85
330
A83
100
AcDbEntity
  8
0
100
AcDbBlockEnd
  0
BLOCK
  5
CB2
330
CB1
100
AcDbEntity
  8
0
100
AcDbBlockBegin
  2
*D13
 70
     1
 10
0.0
 20
0.0
 30
0.0
  3
*D13
  1

  0
LINE
  5
D63
330
CB1
100
AcDbEntity
  8
Dimension (ANSI)
440
 16777216
100
AcDbLine
 10
94.21311918758418
 20
68.31055657246981
 30
0.0
 11
92.80371644104713
 21
68.31055657246981
 31
0.0
  0
LINE
  5
D64
330
CB1
100
AcDbEntity
  8
Dimension (ANSI)
440
 16777216
100
AcDbLine
 10
92.80371644104713
 20
68.31055657246981
 30
0.0
 11
89.90625766426481
 21
61.50756031073935
 31
0.0
  0
MTEXT
  5
D65
330
CB1
100
AcDbEntity
  8
Dimension (ANSI)
440
 16777216
100
AcDbMText
 10
94.55957588049754
 20
69.30887063218623
 30
0.0
 40
1.320000052452087
 41
0.0
 46
0.0
 71
     1
 72
     1
  1
\A1;∅0.563{\P(8PL.)}
  7
Note Text (ANSI)
 73
     1
 44
1.0
  0
SOLID
  5
D66
330
CB1
100
AcDbEntity
  8
Dimension (ANSI)
440
 16777216
100
AcDbTrace
 10
89.74024184206475
 20
61.57826797874502
 30
0.0
 11
90.07227348646486
 21
61.43685264273368
 31
0.0
 12
89.48201165623078
 22
60.51146537753908
 32
0.0
 13
89.48201165623078
 23
60.51146537753908
 33
0.0
  0
LINE
  5
D67
330
CB1
100
AcDbEntity
  8
Dimension (ANSI)
440
 16777216
100
AcDbLine
 10
88.38170614893078
 20
60.2524770668776
 30
0.0
 11
90.36170614893078
 21
60.25247706687758
 31
0.0
  0
LINE
  5
D68
330
CB1
100
AcDbEntity
  8
Dimension (ANSI)
440
 16777216
100
AcDbLine
 10
89.3717061489308
 20
59.26247706687759
 30
0.0
 11
89.3717061489308
 21
61.24247706687759
 31
0.0
  0
POINT
  5
D69
330
CB1
100
AcDbEntity
  8
Defpoints
 62
     0
440
 16777216
100
AcDbPoint
 10
89.48201165623078
 20
60.51146537753908
 30
0.0
  0
POINT
  5
D6A
330
CB1
100
AcDbEntity
  8
Defpoints
 62
     0
440
 16777216
100
AcDbPoint
 10
89.26140064163078
 20
59.9934887562161
 30
0.0
  0
ENDBLK
  5
CB3
330
CB1
100
AcDbEntity
  8
0
100
AcDbBlockEnd
  0
ENDSEC
  0
SECTION
  2
ENTITIES
  0
CIRCLE
  5
11B
330
6C
100
AcDbEntity
  8
Visible (ANSI)
100
AcDbCircle
 10
62.24670614893079
 20
42.12747706687756
 30
0.0
 40
0.2814999999999999
  0
CIRCLE
  5
11C
330
6C
100
AcDbEntity
  8
Visible (ANSI)
100
AcDbCircle
 10
89.3717061489308
 20
60.25247706687757
 30
0.0
 40
0.2814999999999999
  0
CIRCLE
  5
11D
330
6C
100
AcDbEntity
  8
Visible (ANSI)
100
AcDbCircle
 10
89.3717061489308
 20
42.12747706687757
 30
0.0
 40
0.2814999999999999
  0
CIRCLE
  5
11E
330
6C
100
AcDbEntity
  8
Visible (ANSI)
100
AcDbCircle
 10
35.12170614893078
 20
42.12747706687756
 30
0.0
 40
0.2814999999999999
  0
CIRCLE
  5
11F
330
6C
100
AcDbEntity
  8
Visible (ANSI)
100
AcDbCircle
 10
35.12170614893078
 20
60.25247706687756
 30
0.0
 40
0.2814999999999999
  0
CIRCLE
  5
120
330
6C
100
AcDbEntity
  8
Visible (ANSI)
100
AcDbCircle
 10
89.37170614893078
 20
78.37747706687756
 30
0.0
 40
0.2814999999999999
  0
CIRCLE
  5
121
330
6C
100
AcDbEntity
  8
Visible (ANSI)
100
AcDbCircle
 10
62.24670614893078
 20
78.37747706687756
 30
0.0
 40
0.2814999999999999
  0
CIRCLE
  5
122
330
6C
100
AcDbEntity
  8
Visible (ANSI)
100
AcDbCircle
 10
35.12170614893078
 20
78.37747706687756
 30
0.0
 40
0.2814999999999999
  0
LINE
  5
123
330
6C
100
AcDbEntity
  8
Visible (ANSI)
100
AcDbLine
 10
90.03331780128247
 20
41.25247706687757
 30
0.0
 11
34.46009449657911
 21
41.25247706687757
 31
0.0
  0
LINE
  5
124
330
6C
100
AcDbEntity
  8
Visible (ANSI)
100
AcDbLine
 10
90.2467061489308
 20
79.03908871922924
 30
0.0
 11
90.2467061489308
 21
41.4658654145259
 31
0.0
  0
LINE
  5
125
330
6C
100
AcDbEntity
  8
Visible (ANSI)
100
AcDbLine
 10
34.46009449657911
 20
79.25247706687757
 30
0.0
 11
90.03331780128247
 21
79.25247706687757
 31
0.0
  0
LINE
  5
126
330
6C
100
AcDbEntity
  8
Visible (ANSI)
100
AcDbLine
 10
34.24670614893079
 20
41.46586541452588
 30
0.0
 11
34.24670614893079
 21
79.03908871922924
 31
0.0
  0
POLYLINE
  5
127
330
6C
100
AcDbEntity
  8
Visible (ANSI)
100
AcDb2dPolyline
 66
     1
 10
0.0
 20
0.0
 30
0.0
 70
   128
  0
VERTEX
  5
128
330
127
100
AcDbEntity
  8
Visible (ANSI)
100
AcDbVertex
100
AcDb2dVertex
 10
90.0904559086349
 20
41.40872706453092
 30
0.0
  0
VERTEX
  5
129
330
127
100
AcDbEntity
  8
Visible (ANSI)
100
AcDbVertex
100
AcDb2dVertex
 10
90.08807697931649
 20
41.39850782471778
 30
0.0
  0
VERTEX
  5
12B
330
127
100
AcDbEntity
  8
Visible (ANSI)
100
AcDbVertex
100
AcDb2dVertex
 10
90.08569204260082
 20
41.38833234973241
 30
0.0
  0
VERTEX
  5
12C
330
127
100
AcDbEntity
  8
Visible (ANSI)
100
AcDbVertex
100
AcDb2dVertex
 10
90.08331311328239
 20
41.37824420493819
 30
0.0
  0
VERTEX
  5
12D
330
127
100
AcDbEntity
  8
Visible (ANSI)
100
AcDbVertex
100
AcDb2dVertex
 10
90.08093418396398
 20
41.36828659196939
 30
0.0
  0
VERTEX
  5
12E
330
127
100
AcDbEntity
  8
Visible (ANSI)
100
AcDbVertex
100
AcDb2dVertex
 10
90.0785552546456
 20
41.35850214926676
 30
0.0
  0
VERTEX
  5
12F
330
127
100
AcDbEntity
  8
Visible (ANSI)
100
AcDbVertex
100
AcDb2dVertex
 10
90.07617031792992
 20
41.34893278194624
 30
0.0
  0
VERTEX
  5
130
330
127
100
AcDbEntity
  8
Visible (ANSI)
100
AcDbVertex
100
AcDb2dVertex
 10
90.07379138861152
 20
41.33961945646791
 30
0.0
  0
VERTEX
  5
131
330
127
100
AcDbEntity
  8
Visible (ANSI)
100
AcDbVertex
100
AcDb2dVertex
 10
90.07141245929311
 20
41.33060206570425
 30
0.0
  0
VERTEX
  5
132
330
127
100
AcDbEntity
  8
Visible (ANSI)
100
AcDbVertex
100
AcDb2dVertex
 10
90.06902752257742
 20
41.32191921774258
 30
0.0
  0
VERTEX
  5
133
330
127
100
AcDbEntity
  8
Visible (ANSI)
100
AcDbVertex
100
AcDb2dVertex
 10
90.06664859325901
 20
41.3136080950867
 30
0.0
  0
VERTEX
  5
134
330
127
100
AcDbEntity
  8
Visible (ANSI)
100
AcDbVertex
100
AcDb2dVertex
 10
90.06426966394062
 20
41.30570428452553
 30
0.0
  0
VERTEX
  5
135
330
127
100
AcDbEntity
  8
Visible (ANSI)
100
AcDbVertex
100
AcDb2dVertex
 10
90.06188472722495
 20
41.29824163340138
 30
0.0
  0
VERTEX
  5
136
330
127
100
AcDbEntity
  8
Visible (ANSI)
100
AcDbVertex
100
AcDb2dVertex
 10
90.05950579790654
 20
41.29125209707843
 30
0.0
  0
VERTEX
  5
137
330
127
100
AcDbEntity
  8
Visible (ANSI)
100
AcDbVertex
100
AcDb2dVertex
 10
90.05712686858814
 20
41.28476560694426
 30
0.0
  0
VERTEX
  5
138
330
127
100
AcDbEntity
  8
Visible (ANSI)
100
AcDbVertex
100
AcDb2dVertex
 10
90.05474193187247
 20
41.27880994134462
 30
0.0
  0
VERTEX
  5
139
330
127
100
AcDbEntity
  8
Visible (ANSI)
100
AcDbVertex
100
AcDb2dVertex
 10
90.05236300255406
 20
41.27341059798496
 30
0.0
  0
VERTEX
  5
13A
330
127
100
AcDbEntity
  8
Visible (ANSI)
100
AcDbVertex
100
AcDb2dVertex
 10
90.04998407323567
 20
41.26859070153147
 30
0.0
  0
VERTEX
  5
13B
330
127
100
AcDbEntity
  8
Visible (ANSI)
100
AcDbVertex
100
AcDb2dVertex
 10
90.04760514391724
 20
41.26437088994577
 30
0.0
  0
VERTEX
  5
13C
330
127
100
AcDbEntity
  8
Visible (ANSI)
100
AcDbVertex
100
AcDb2dVertex
 10
90.04522020720157
 20
41.26076923381908
 30
0.0
  0
VERTEX
  5
13D
330
127
100
AcDbEntity
  8
Visible (ANSI)
100
AcDbVertex
100
AcDb2dVertex
 10
90.04284127788315
 20
41.2578011564399
 30
0.0
  0
VERTEX
  5
13E
330
127
100
AcDbEntity
  8
Visible (ANSI)
100
AcDbVertex
100
AcDb2dVertex
 10
90.04046234856476
 20
41.25547936687807
 30
0.0
  0
VERTEX
  5
13F
330
127
100
AcDbEntity
  8
Visible (ANSI)
100
AcDbVertex
100
AcDb2dVertex
 10
90.03807741184909
 20
41.25381380727708
 30
0.0
  0
VERTEX
  5
140
330
127
100
AcDbEntity
  8
Visible (ANSI)
100
AcDbVertex
100
AcDb2dVertex
 10
90.03569848253068
 20
41.25281161011497
 30
0.0
  0
VERTEX
  5
141
330
127
100
AcDbEntity
  8
Visible (ANSI)
100
AcDbVertex
100
AcDb2dVertex
 10
90.03331955321227
 20
41.25247706687757
 30
0.0
  0
SEQEND
  5
12A
330
127
100
AcDbEntity
  8
Visible (ANSI)
  0
POLYLINE
  5
142
330
6C
100
AcDbEntity
  8
Visible (ANSI)
100
AcDb2dPolyline
 66
     1
 10
0.0
 20
0.0
 30
0.0
 70
   128
  0
VERTEX
  5
143
330
142
100
AcDbEntity
  8
Visible (ANSI)
100
AcDbVertex
100
AcDb2dVertex
 10
34.46009448491718
 20
41.25247706687757
 30
0.0
  0
VERTEX
  5
144
330
142
100
AcDbEntity
  8
Visible (ANSI)
100
AcDbVertex
100
AcDb2dVertex
 10
34.45771372521992
 20
41.25281161011497
 30
0.0
  0
VERTEX
  5
146
330
142
100
AcDbEntity
  8
Visible (ANSI)
100
AcDbVertex
100
AcDb2dVertex
 10
34.45533296552266
 20
41.25381380727708
 30
0.0
  0
VERTEX
  5
147
330
142
100
AcDbEntity
  8
Visible (ANSI)
100
AcDbVertex
100
AcDb2dVertex
 10
34.4529522058254
 20
41.25547936687807
 30
0.0
  0
VERTEX
  5
148
330
142
100
AcDbEntity
  8
Visible (ANSI)
100
AcDbVertex
100
AcDb2dVertex
 10
34.45057144612814
 20
41.2578011564399
 30
0.0
  0
VERTEX
  5
149
330
142
100
AcDbEntity
  8
Visible (ANSI)
100
AcDbVertex
100
AcDb2dVertex
 10
34.44819066296449
 20
41.26076923381908
 30
0.0
  0
VERTEX
  5
14A
330
142
100
AcDbEntity
  8
Visible (ANSI)
100
AcDbVertex
100
AcDb2dVertex
 10
34.44580990326723
 20
41.26437088994577
 30
0.0
  0
VERTEX
  5
14B
330
142
100
AcDbEntity
  8
Visible (ANSI)
100
AcDbVertex
100
AcDb2dVertex
 10
34.44342914356997
 20
41.26859070153147
 30
0.0
  0
VERTEX
  5
14C
330
142
100
AcDbEntity
  8
Visible (ANSI)
100
AcDbVertex
100
AcDb2dVertex
 10
34.4410483838727
 20
41.27341059798496
 30
0.0
  0
VERTEX
  5
14D
330
142
100
AcDbEntity
  8
Visible (ANSI)
100
AcDbVertex
100
AcDb2dVertex
 10
34.43866761244225
 20
41.27880994134462
 30
0.0
  0
VERTEX
  5
14E
330
142
100
AcDbEntity
  8
Visible (ANSI)
100
AcDbVertex
100
AcDb2dVertex
 10
34.43628685274499
 20
41.28476560694426
 30
0.0
  0
VERTEX
  5
14F
330
142
100
AcDbEntity
  8
Visible (ANSI)
100
AcDbVertex
100
AcDb2dVertex
 10
34.43390609304773
 20
41.29125209707843
 30
0.0
  0
VERTEX
  5
150
330
142
100
AcDbEntity
  8
Visible (ANSI)
100
AcDbVertex
100
AcDb2dVertex
 10
34.43152532161727
 20
41.29824163340138
 30
0.0
  0
VERTEX
  5
151
330
142
100
AcDbEntity
  8
Visible (ANSI)
100
AcDbVertex
100
AcDb2dVertex
 10
34.42914456192001
 20
41.30570428452553
 30
0.0
  0
VERTEX
  5
152
330
142
100
AcDbEntity
  8
Visible (ANSI)
100
AcDbVertex
100
AcDb2dVertex
 10
34.42676379048954
 20
41.3136080950867
 30
0.0
  0
VERTEX
  5
153
330
142
100
AcDbEntity
  8
Visible (ANSI)
100
AcDbVertex
100
AcDb2dVertex
 10
34.42438303079228
 20
41.32191921774258
 30
0.0
  0
VERTEX
  5
154
330
142
100
AcDbEntity
  8
Visible (ANSI)
100
AcDbVertex
100
AcDb2dVertex
 10
34.42200225936183
 20
41.33060206570425
 30
0.0
  0
VERTEX
  5
155
330
142
100
AcDbEntity
  8
Visible (ANSI)
100
AcDbVertex
100
AcDb2dVertex
 10
34.41962149966457
 20
41.33961945646791
 30
0.0
  0
VERTEX
  5
156
330
142
100
AcDbEntity
  8
Visible (ANSI)
100
AcDbVertex
100
AcDb2dVertex
 10
34.41724073996731
 20
41.34893278194624
 30
0.0
  0
VERTEX
  5
157
330
142
100
AcDbEntity
  8
Visible (ANSI)
100
AcDbVertex
100
AcDb2dVertex
 10
34.41485996853685
 20
41.35850214926676
 30
0.0
  0
VERTEX
  5
158
330
142
100
AcDbEntity
  8
Visible (ANSI)
100
AcDbVertex
100
AcDb2dVertex
 10
34.41247920883959
 20
41.36828659196939
 30
0.0
  0
VERTEX
  5
159
330
142
100
AcDbEntity
  8
Visible (ANSI)
100
AcDbVertex
100
AcDb2dVertex
 10
34.41009843740913
 20
41.37824420493819
 30
0.0
  0
VERTEX
  5
15A
330
142
100
AcDbEntity
  8
Visible (ANSI)
100
AcDbVertex
100
AcDb2dVertex
 10
34.40771767771187
 20
41.38833234973241
 30
0.0
  0
VERTEX
  5
15B
330
142
100
AcDbEntity
  8
Visible (ANSI)
100
AcDbVertex
100
AcDb2dVertex
 10
34.40533691801461
 20
41.39850782471778
 30
0.0
  0
VERTEX
  5
15C
330
142
100
AcDbEntity
  8
Visible (ANSI)
100
AcDbVertex
100
AcDb2dVertex
 10
34.40295614658415
 20
41.40872706453092
 30
0.0
  0
SEQEND
  5
145
330
142
100
AcDbEntity
  8
Visible (ANSI)
  0
POLYLINE
  5
15D
330
6C
100
AcDbEntity
  8
Visible (ANSI)
100
AcDb2dPolyline
 66
     1
 10
0.0
 20
0.0
 30
0.0
 70
   128
  0
VERTEX
  5
15E
330
15D
100
AcDbEntity
  8
Visible (ANSI)
100
AcDbVertex
100
AcDb2dVertex
 10
90.0904559086349
 20
79.0962263459899
 30
0.0
  0
VERTEX
  5
15F
330
15D
100
AcDbEntity
  8
Visible (ANSI)
100
AcDbVertex
100
AcDb2dVertex
 10
90.10067449138894
 20
79.0938474166715
 30
0.0
  0
VERTEX
  5
161
330
15D
100
AcDbEntity
  8
Visible (ANSI)
100
AcDbVertex
100
AcDb2dVertex
 10
90.11085102236213
 20
79.09146548365446
 30
0.0
  0
VERTEX
  5
162
330
15D
100
AcDbEntity
  8
Visible (ANSI)
100
AcDbVertex
100
AcDb2dVertex
 10
90.12093744237629
 20
79.0890835506374
 30
0.0
  0
VERTEX
  5
163
330
15D
100
AcDbEntity
  8
Visible (ANSI)
100
AcDbVertex
100
AcDb2dVertex
 10
90.13089770704779
 20
79.086704621319
 30
0.0
  0
VERTEX
  5
164
330
15D
100
AcDbEntity
  8
Visible (ANSI)
100
AcDbVertex
100
AcDb2dVertex
 10
90.14068375719849
 20
79.08432268830196
 30
0.0
  0
VERTEX
  5
165
330
15D
100
AcDbEntity
  8
Visible (ANSI)
100
AcDbVertex
100
AcDb2dVertex
 10
90.15024753365027
 20
79.08194375898355
 30
0.0
  0
VERTEX
  5
166
330
15D
100
AcDbEntity
  8
Visible (ANSI)
100
AcDbVertex
100
AcDb2dVertex
 10
90.15956500681403
 20
79.07956182596651
 30
0.0
  0
VERTEX
  5
167
330
15D
100
AcDbEntity
  8
Visible (ANSI)
100
AcDbVertex
100
AcDb2dVertex
 10
90.16858211011435
 20
79.07717989294946
 30
0.0
  0
VERTEX
  5
168
330
15D
100
AcDbEntity
  8
Visible (ANSI)
100
AcDbVertex
100
AcDb2dVertex
 10
90.17726279916761
 20
79.07480096363106
 30
0.0
  0
VERTEX
  5
169
330
15D
100
AcDbEntity
  8
Visible (ANSI)
100
AcDbVertex
100
AcDb2dVertex
 10
90.1855770369875
 20
79.07241903061403
 30
0.0
  0
VERTEX
  5
16A
330
15D
100
AcDbEntity
  8
Visible (ANSI)
100
AcDbVertex
100
AcDb2dVertex
 10
90.19347676439585
 20
79.07004010129561
 30
0.0
  0
VERTEX
  5
16B
330
15D
100
AcDbEntity
  8
Visible (ANSI)
100
AcDbVertex
100
AcDb2dVertex
 10
90.20094395920084
 20
79.06765816827858
 30
0.0
  0
VERTEX
  5
16C
330
15D
100
AcDbEntity
  8
Visible (ANSI)
100
AcDbVertex
100
AcDb2dVertex
 10
90.20793056222432
 20
79.06527623526155
 30
0.0
  0
VERTEX
  5
16D
330
15D
100
AcDbEntity
  8
Visible (ANSI)
100
AcDbVertex
100
AcDb2dVertex
 10
90.21441855127454
 20
79.06289730594314
 30
0.0
  0
VERTEX
  5
16E
330
15D
100
AcDbEntity
  8
Visible (ANSI)
100
AcDbVertex
100
AcDb2dVertex
 10
90.22037188196781
 20
79.06051537292611
 30
0.0
  0
VERTEX
  5
16F
330
15D
100
AcDbEntity
  8
Visible (ANSI)
100
AcDbVertex
100
AcDb2dVertex
 10
90.22577253211236
 20
79.05813343990906
 30
0.0
  0
VERTEX
  5
170
330
15D
100
AcDbEntity
  8
Visible (ANSI)
100
AcDbVertex
100
AcDb2dVertex
 10
90.23059046472187
 20
79.05575451059066
 30
0.0
  0
VERTEX
  5
171
330
15D
100
AcDbEntity
  8
Visible (ANSI)
100
AcDbVertex
100
AcDb2dVertex
 10
90.23481366500176
 20
79.05337257757363
 30
0.0
  0
VERTEX
  5
172
330
15D
100
AcDbEntity
  8
Visible (ANSI)
100
AcDbVertex
100
AcDb2dVertex
 10
90.23841209596573
 20
79.05099364825521
 30
0.0
  0
VERTEX
  5
173
330
15D
100
AcDbEntity
  8
Visible (ANSI)
100
AcDbVertex
100
AcDb2dVertex
 10
90.24137975021645
 20
79.04861171523818
 30
0.0
  0
VERTEX
  5
174
330
15D
100
AcDbEntity
  8
Visible (ANSI)
100
AcDbVertex
100
AcDb2dVertex
 10
90.24370461295944
 20
79.04622978222113
 30
0.0
  0
VERTEX
  5
175
330
15D
100
AcDbEntity
  8
Visible (ANSI)
100
AcDbVertex
100
AcDb2dVertex
 10
90.24536866200289
 20
79.04385085290272
 30
0.0
  0
VERTEX
  5
176
330
15D
100
AcDbEntity
  8
Visible (ANSI)
100
AcDbVertex
100
AcDb2dVertex
 10
90.24637189734674
 20
79.04146891988569
 30
0.0
  0
VERTEX
  5
177
330
15D
100
AcDbEntity
  8
Visible (ANSI)
100
AcDbVertex
100
AcDb2dVertex
 10
90.24670831159381
 20
79.03908999056728
 30
0.0
  0
SEQEND
  5
160
330
15D
100
AcDbEntity
  8
Visible (ANSI)
  0
POLYLINE
  5
178
330
6C
100
AcDbEntity
  8
Visible (ANSI)
100
AcDb2dPolyline
 66
     1
 10
0.0
 20
0.0
 30
0.0
 70
   128
  0
VERTEX
  5
179
330
178
100
AcDbEntity
  8
Visible (ANSI)
100
AcDbVertex
100
AcDb2dVertex
 10
90.24670831159381
 20
41.46586540286396
 30
0.0
  0
VERTEX
  5
17A
330
178
100
AcDbEntity
  8
Visible (ANSI)
100
AcDbVertex
100
AcDb2dVertex
 10
90.24637189734674
 20
41.4634846431667
 30
0.0
  0
VERTEX
  5
17C
330
178
100
AcDbEntity
  8
Visible (ANSI)
100
AcDbVertex
100
AcDb2dVertex
 10
90.24536866200289
 20
41.46110388346944
 30
0.0
  0
VERTEX
  5
17D
330
178
100
AcDbEntity
  8
Visible (ANSI)
100
AcDbVertex
100
AcDb2dVertex
 10
90.24370461295944
 20
41.45872312377218
 30
0.0
  0
VERTEX
  5
17E
330
178
100
AcDbEntity
  8
Visible (ANSI)
100
AcDbVertex
100
AcDb2dVertex
 10
90.24137975021645
 20
41.45634236407492
 30
0.0
  0
VERTEX
  5
17F
330
178
100
AcDbEntity
  8
Visible (ANSI)
100
AcDbVertex
100
AcDb2dVertex
 10
90.23841209596573
 20
41.45396158091126
 30
0.0
  0
VERTEX
  5
180
330
178
100
AcDbEntity
  8
Visible (ANSI)
100
AcDbVertex
100
AcDb2dVertex
 10
90.23481366500176
 20
41.451580821214
 30
0.0
  0
VERTEX
  5
181
330
178
100
AcDbEntity
  8
Visible (ANSI)
100
AcDbVertex
100
AcDb2dVertex
 10
90.23059046472187
 20
41.44920006151674
 30
0.0
  0
VERTEX
  5
182
330
178
100
AcDbEntity
  8
Visible (ANSI)
100
AcDbVertex
100
AcDb2dVertex
 10
90.22577253211236
 20
41.44681930181948
 30
0.0
  0
VERTEX
  5
183
330
178
100
AcDbEntity
  8
Visible (ANSI)
100
AcDbVertex
100
AcDb2dVertex
 10
90.22037188196781
 20
41.44443853038903
 30
0.0
  0
VERTEX
  5
184
330
178
100
AcDbEntity
  8
Visible (ANSI)
100
AcDbVertex
100
AcDb2dVertex
 10
90.21441855127454
 20
41.44205777069177
 30
0.0
  0
VERTEX
  5
185
330
178
100
AcDbEntity
  8
Visible (ANSI)
100
AcDbVertex
100
AcDb2dVertex
 10
90.20793056222432
 20
41.43967701099451
 30
0.0
  0
VERTEX
  5
186
330
178
100
AcDbEntity
  8
Visible (ANSI)
100
AcDbVertex
100
AcDb2dVertex
 10
90.20094395920084
 20
41.43729623956404
 30
0.0
  0
VERTEX
  5
187
330
178
100
AcDbEntity
  8
Visible (ANSI)
100
AcDbVertex
100
AcDb2dVertex
 10
90.19347676439585
 20
41.43491547986678
 30
0.0
  0
VERTEX
  5
188
330
178
100
AcDbEntity
  8
Visible (ANSI)
100
AcDbVertex
100
AcDb2dVertex
 10
90.1855770369875
 20
41.43253470843632
 30
0.0
  0
VERTEX
  5
189
330
178
100
AcDbEntity
  8
Visible (ANSI)
100
AcDbVertex
100
AcDb2dVertex
 10
90.17726279916761
 20
41.43015394873906
 30
0.0
  0
VERTEX
  5
18A
330
178
100
AcDbEntity
  8
Visible (ANSI)
100
AcDbVertex
100
AcDb2dVertex
 10
90.16858211011435
 20
41.4277731773086
 30
0.0
  0
VERTEX
  5
18B
330
178
100
AcDbEntity
  8
Visible (ANSI)
100
AcDbVertex
100
AcDb2dVertex
 10
90.15956500681403
 20
41.42539241761134
 30
0.0
  0
VERTEX
  5
18C
330
178
100
AcDbEntity
  8
Visible (ANSI)
100
AcDbVertex
100
AcDb2dVertex
 10
90.15024753365027
 20
41.42301165791407
 30
0.0
  0
VERTEX
  5
18D
330
178
100
AcDbEntity
  8
Visible (ANSI)
100
AcDbVertex
100
AcDb2dVertex
 10
90.14068375719849
 20
41.42063088648362
 30
0.0
  0
VERTEX
  5
18E
330
178
100
AcDbEntity
  8
Visible (ANSI)
100
AcDbVertex
100
AcDb2dVertex
 10
90.13089770704779
 20
41.41825012678636
 30
0.0
  0
VERTEX
  5
18F
330
178
100
AcDbEntity
  8
Visible (ANSI)
100
AcDbVertex
100
AcDb2dVertex
 10
90.12093744237629
 20
41.4158693553559
 30
0.0
  0
VERTEX
  5
190
330
178
100
AcDbEntity
  8
Visible (ANSI)
100
AcDbVertex
100
AcDb2dVertex
 10
90.11085102236213
 20
41.41348859565864
 30
0.0
  0
VERTEX
  5
191
330
178
100
AcDbEntity
  8
Visible (ANSI)
100
AcDbVertex
100
AcDb2dVertex
 10
90.10067449138894
 20
41.41110783596139
 30
0.0
  0
VERTEX
  5
192
330
178
100
AcDbEntity
  8
Visible (ANSI)
100
AcDbVertex
100
AcDb2dVertex
 10
90.0904559086349
 20
41.40872706453092
 30
0.0
  0
SEQEND
  5
17B
330
178
100
AcDbEntity
  8
Visible (ANSI)
  0
POLYLINE
  5
193
330
6C
100
AcDbEntity
  8
Visible (ANSI)
100
AcDb2dPolyline
 66
     1
 10
0.0
 20
0.0
 30
0.0
 70
   128
  0
VERTEX
  5
194
330
193
100
AcDbEntity
  8
Visible (ANSI)
100
AcDbVertex
100
AcDb2dVertex
 10
34.40295614658415
 20
79.0962263459899
 30
0.0
  0
VERTEX
  5
195
330
193
100
AcDbEntity
  8
Visible (ANSI)
100
AcDbVertex
100
AcDb2dVertex
 10
34.40533691801461
 20
79.10644492874395
 30
0.0
  0
VERTEX
  5
197
330
193
100
AcDbEntity
  8
Visible (ANSI)
100
AcDbVertex
100
AcDb2dVertex
 10
34.40771767771187
 20
79.11662145971712
 30
0.0
  0
VERTEX
  5
198
330
193
100
AcDbEntity
  8
Visible (ANSI)
100
AcDbVertex
100
AcDb2dVertex
 10
34.41009843740913
 20
79.12671088342989
 30
0.0
  0
VERTEX
  5
199
330
193
100
AcDbEntity
  8
Visible (ANSI)
100
AcDbVertex
100
AcDb2dVertex
 10
34.41247920883959
 20
79.13666814440279
 30
0.0
  0
VERTEX
  5
19A
330
193
100
AcDbEntity
  8
Visible (ANSI)
100
AcDbVertex
100
AcDb2dVertex
 10
34.41485996853685
 20
79.14645119085486
 30
0.0
  0
VERTEX
  5
19B
330
193
100
AcDbEntity
  8
Visible (ANSI)
100
AcDbVertex
100
AcDb2dVertex
 10
34.41724073996731
 20
79.1560209747039
 30
0.0
  0
VERTEX
  5
19C
330
193
100
AcDbEntity
  8
Visible (ANSI)
100
AcDbVertex
100
AcDb2dVertex
 10
34.41962149966457
 20
79.16533544416902
 30
0.0
  0
VERTEX
  5
19D
330
193
100
AcDbEntity
  8
Visible (ANSI)
100
AcDbVertex
100
AcDb2dVertex
 10
34.42200225936183
 20
79.17435254746933
 30
0.0
  0
VERTEX
  5
19E
330
193
100
AcDbEntity
  8
Visible (ANSI)
100
AcDbVertex
100
AcDb2dVertex
 10
34.42438303079228
 20
79.18303624022124
 30
0.0
  0
VERTEX
  5
19F
330
193
100
AcDbEntity
  8
Visible (ANSI)
100
AcDbVertex
100
AcDb2dVertex
 10
34.42676379048954
 20
79.19134747434251
 30
0.0
  0
VERTEX
  5
1A0
330
193
100
AcDbEntity
  8
Visible (ANSI)
100
AcDbVertex
100
AcDb2dVertex
 10
34.42914456192001
 20
79.19925020544948
 30
0.0
  0
VERTEX
  5
1A1
330
193
100
AcDbEntity
  8
Visible (ANSI)
100
AcDbVertex
100
AcDb2dVertex
 10
34.43152532161727
 20
79.20671139285722
 30
0.0
  0
VERTEX
  5
1A2
330
193
100
AcDbEntity
  8
Visible (ANSI)
100
AcDbVertex
100
AcDb2dVertex
 10
34.43390609304773
 20
79.21370099957933
 30
0.0
  0
VERTEX
  5
1A3
330
193
100
AcDbEntity
  8
Visible (ANSI)
100
AcDbVertex
100
AcDb2dVertex
 10
34.43628685274499
 20
79.22018898862953
 30
0.0
  0
VERTEX
  5
1A4
330
193
100
AcDbEntity
  8
Visible (ANSI)
100
AcDbVertex
100
AcDb2dVertex
 10
34.43866761244225
 20
79.22614532302145
 30
0.0
  0
VERTEX
  5
1A5
330
193
100
AcDbEntity
  8
Visible (ANSI)
100
AcDbVertex
100
AcDb2dVertex
 10
34.4410483838727
 20
79.23154296946737
 30
0.0
  0
VERTEX
  5
1A6
330
193
100
AcDbEntity
  8
Visible (ANSI)
100
AcDbVertex
100
AcDb2dVertex
 10
34.44342914356997
 20
79.2363639057755
 30
0.0
  0
VERTEX
  5
1A7
330
193
100
AcDbEntity
  8
Visible (ANSI)
100
AcDbVertex
100
AcDb2dVertex
 10
34.44580990326723
 20
79.24058410235677
 30
0.0
  0
VERTEX
  5
1A8
330
193
100
AcDbEntity
  8
Visible (ANSI)
100
AcDbVertex
100
AcDb2dVertex
 10
34.44819066296449
 20
79.24418553701936
 30
0.0
  0
VERTEX
  5
1A9
330
193
100
AcDbEntity
  8
Visible (ANSI)
100
AcDbVertex
100
AcDb2dVertex
 10
34.45057144612814
 20
79.2471531912701
 30
0.0
  0
VERTEX
  5
1AA
330
193
100
AcDbEntity
  8
Visible (ANSI)
100
AcDbVertex
100
AcDb2dVertex
 10
34.4529522058254
 20
79.24947505031444
 30
0.0
  0
VERTEX
  5
1AB
330
193
100
AcDbEntity
  8
Visible (ANSI)
100
AcDbVertex
100
AcDb2dVertex
 10
34.45533296552266
 20
79.25113909935787
 30
0.0
  0
VERTEX
  5
1AC
330
193
100
AcDbEntity
  8
Visible (ANSI)
100
AcDbVertex
100
AcDb2dVertex
 10
34.45771372521992
 20
79.25214233470176
 30
0.0
  0
VERTEX
  5
1AD
330
193
100
AcDbEntity
  8
Visible (ANSI)
100
AcDbVertex
100
AcDb2dVertex
 10
34.46009448491718
 20
79.25247574525016
 30
0.0
  0
SEQEND
  5
196
330
193
100
AcDbEntity
  8
Visible (ANSI)
  0
POLYLINE
  5
1AE
330
6C
100
AcDbEntity
  8
Visible (ANSI)
100
AcDb2dPolyline
 66
     1
 10
0.0
 20
0.0
 30
0.0
 70
   128
  0
VERTEX
  5
1AF
330
1AE
100
AcDbEntity
  8
Visible (ANSI)
100
AcDbVertex
100
AcDb2dVertex
 10
90.03331955321227
 20
79.25247574525016
 30
0.0
  0
VERTEX
  5
1B0
330
1AE
100
AcDbEntity
  8
Visible (ANSI)
100
AcDbVertex
100
AcDb2dVertex
 10
90.03569848253068
 20
79.25214233470176
 30
0.0
  0
VERTEX
  5
1B2
330
1AE
100
AcDbEntity
  8
Visible (ANSI)
100
AcDbVertex
100
AcDb2dVertex
 10
90.03807741184909
 20
79.25113909935787
 30
0.0
  0
VERTEX
  5
1B3
330
1AE
100
AcDbEntity
  8
Visible (ANSI)
100
AcDbVertex
100
AcDb2dVertex
 10
90.04046234856476
 20
79.24947505031444
 30
0.0
  0
VERTEX
  5
1B4
330
1AE
100
AcDbEntity
  8
Visible (ANSI)
100
AcDbVertex
100
AcDb2dVertex
 10
90.04284127788315
 20
79.2471531912701
 30
0.0
  0
VERTEX
  5
1B5
330
1AE
100
AcDbEntity
  8
Visible (ANSI)
100
AcDbVertex
100
AcDb2dVertex
 10
90.04522020720157
 20
79.24418553701936
 30
0.0
  0
VERTEX
  5
1B6
330
1AE
100
AcDbEntity
  8
Visible (ANSI)
100
AcDbVertex
100
AcDb2dVertex
 10
90.04760514391724
 20
79.24058410235677
 30
0.0
  0
VERTEX
  5
1B7
330
1AE
100
AcDbEntity
  8
Visible (ANSI)
100
AcDbVertex
100
AcDb2dVertex
 10
90.04998407323567
 20
79.2363639057755
 30
0.0
  0
VERTEX
  5
1B8
330
1AE
100
AcDbEntity
  8
Visible (ANSI)
100
AcDbVertex
100
AcDb2dVertex
 10
90.05236300255406
 20
79.23154296946737
 30
0.0
  0
VERTEX
  5
1B9
330
1AE
100
AcDbEntity
  8
Visible (ANSI)
100
AcDbVertex
100
AcDb2dVertex
 10
90.05474193187247
 20
79.22614532302145
 30
0.0
  0
VERTEX
  5
1BA
330
1AE
100
AcDbEntity
  8
Visible (ANSI)
100
AcDbVertex
100
AcDb2dVertex
 10
90.05712686858814
 20
79.22018898862953
 30
0.0
  0
VERTEX
  5
1BB
330
1AE
100
AcDbEntity
  8
Visible (ANSI)
100
AcDbVertex
100
AcDb2dVertex
 10
90.05950579790654
 20
79.21370099957933
 30
0.0
  0
VERTEX
  5
1BC
330
1AE
100
AcDbEntity
  8
Visible (ANSI)
100
AcDbVertex
100
AcDb2dVertex
 10
90.06188472722495
 20
79.20671139285722
 30
0.0
  0
VERTEX
  5
1BD
330
1AE
100
AcDbEntity
  8
Visible (ANSI)
100
AcDbVertex
100
AcDb2dVertex
 10
90.06426966394062
 20
79.19925020544948
 30
0.0
  0
VERTEX
  5
1BE
330
1AE
100
AcDbEntity
  8
Visible (ANSI)
100
AcDbVertex
100
AcDb2dVertex
 10
90.06664859325901
 20
79.19134747434251
 30
0.0
  0
VERTEX
  5
1BF
330
1AE
100
AcDbEntity
  8
Visible (ANSI)
100
AcDbVertex
100
AcDb2dVertex
 10
90.06902752257742
 20
79.18303624022124
 30
0.0
  0
VERTEX
  5
1C0
330
1AE
100
AcDbEntity
  8
Visible (ANSI)
100
AcDbVertex
100
AcDb2dVertex
 10
90.07141245929311
 20
79.17435254746933
 30
0.0
  0
VERTEX
  5
1C1
330
1AE
100
AcDbEntity
  8
Visible (ANSI)
100
AcDbVertex
100
AcDb2dVertex
 10
90.07379138861152
 20
79.16533544416902
 30
0.0
  0
VERTEX
  5
1C2
330
1AE
100
AcDbEntity
  8
Visible (ANSI)
100
AcDbVertex
100
AcDb2dVertex
 10
90.07617031792992
 20
79.1560209747039
 30
0.0
  0
VERTEX
  5
1C3
330
1AE
100
AcDbEntity
  8
Visible (ANSI)
100
AcDbVertex
100
AcDb2dVertex
 10
90.0785552546456
 20
79.14645119085486
 30
0.0
  0
VERTEX
  5
1C4
330
1AE
100
AcDbEntity
  8
Visible (ANSI)
100
AcDbVertex
100
AcDb2dVertex
 10
90.08093418396398
 20
79.13666814440279
 30
0.0
  0
VERTEX
  5
1C5
330
1AE
100
AcDbEntity
  8
Visible (ANSI)
100
AcDbVertex
100
AcDb2dVertex
 10
90.08331311328239
 20
79.12671088342989
 30
0.0
  0
VERTEX
  5
1C6
330
1AE
100
AcDbEntity
  8
Visible (ANSI)
100
AcDbVertex
100
AcDb2dVertex
 10
90.08569204260082
 20
79.11662145971712
 30
0.0
  0
VERTEX
  5
1C7
330
1AE
100
AcDbEntity
  8
Visible (ANSI)
100
AcDbVertex
100
AcDb2dVertex
 10
90.08807697931649
 20
79.10644492874395
 30
0.0
  0
VERTEX
  5
1C8
330
1AE
100
AcDbEntity
  8
Visible (ANSI)
100
AcDbVertex
100
AcDb2dVertex
 10
90.0904559086349
 20
79.0962263459899
 30
0.0
  0
SEQEND
  5
1B1
330
1AE
100
AcDbEntity
  8
Visible (ANSI)
  0
POLYLINE
  5
1C9
330
6C
100
AcDbEntity
  8
Visible (ANSI)
100
AcDb2dPolyline
 66
     1
 10
0.0
 20
0.0
 30
0.0
 70
   128
  0
VERTEX
  5
1CA
330
1C9
100
AcDbEntity
  8
Visible (ANSI)
100
AcDbVertex
100
AcDb2dVertex
 10
34.40295614658415
 20
41.40872706453092
 30
0.0
  0
VERTEX
  5
1CB
330
1C9
100
AcDbEntity
  8
Visible (ANSI)
100
AcDbVertex
100
AcDb2dVertex
 10
34.39273690677101
 20
41.41110783596139
 30
0.0
  0
VERTEX
  5
1CD
330
1C9
100
AcDbEntity
  8
Visible (ANSI)
100
AcDbVertex
100
AcDb2dVertex
 10
34.38256143178563
 20
41.41348859565864
 30
0.0
  0
VERTEX
  5
1CE
330
1C9
100
AcDbEntity
  8
Visible (ANSI)
100
AcDbVertex
100
AcDb2dVertex
 10
34.37247328699141
 20
41.4158693553559
 30
0.0
  0
VERTEX
  5
1CF
330
1C9
100
AcDbEntity
  8
Visible (ANSI)
100
AcDbVertex
100
AcDb2dVertex
 10
34.36251567402261
 20
41.41825012678636
 30
0.0
  0
VERTEX
  5
1D0
330
1C9
100
AcDbEntity
  8
Visible (ANSI)
100
AcDbVertex
100
AcDb2dVertex
 10
34.35273123131999
 20
41.42063088648362
 30
0.0
  0
VERTEX
  5
1D1
330
1C9
100
AcDbEntity
  8
Visible (ANSI)
100
AcDbVertex
100
AcDb2dVertex
 10
34.34316186399947
 20
41.42301165791407
 30
0.0
  0
VERTEX
  5
1D2
330
1C9
100
AcDbEntity
  8
Visible (ANSI)
100
AcDbVertex
100
AcDb2dVertex
 10
34.33384853852113
 20
41.42539241761134
 30
0.0
  0
VERTEX
  5
1D3
330
1C9
100
AcDbEntity
  8
Visible (ANSI)
100
AcDbVertex
100
AcDb2dVertex
 10
34.32483114775747
 20
41.4277731773086
 30
0.0
  0
VERTEX
  5
1D4
330
1C9
100
AcDbEntity
  8
Visible (ANSI)
100
AcDbVertex
100
AcDb2dVertex
 10
34.3161482997958
 20
41.43015394873906
 30
0.0
  0
VERTEX
  5
1D5
330
1C9
100
AcDbEntity
  8
Visible (ANSI)
100
AcDbVertex
100
AcDb2dVertex
 10
34.30783717713993
 20
41.43253470843632
 30
0.0
  0
VERTEX
  5
1D6
330
1C9
100
AcDbEntity
  8
Visible (ANSI)
100
AcDbVertex
100
AcDb2dVertex
 10
34.29993336657876
 20
41.43491547986678
 30
0.0
  0
VERTEX
  5
1D7
330
1C9
100
AcDbEntity
  8
Visible (ANSI)
100
AcDbVertex
100
AcDb2dVertex
 10
34.29247071545461
 20
41.43729623956404
 30
0.0
  0
VERTEX
  5
1D8
330
1C9
100
AcDbEntity
  8
Visible (ANSI)
100
AcDbVertex
100
AcDb2dVertex
 10
34.28548117913166
 20
41.43967701099451
 30
0.0
  0
VERTEX
  5
1D9
330
1C9
100
AcDbEntity
  8
Visible (ANSI)
100
AcDbVertex
100
AcDb2dVertex
 10
34.27899468899749
 20
41.44205777069177
 30
0.0
  0
VERTEX
  5
1DA
330
1C9
100
AcDbEntity
  8
Visible (ANSI)
100
AcDbVertex
100
AcDb2dVertex
 10
34.27303902339783
 20
41.44443853038903
 30
0.0
  0
VERTEX
  5
1DB
330
1C9
100
AcDbEntity
  8
Visible (ANSI)
100
AcDbVertex
100
AcDb2dVertex
 10
34.26763968003818
 20
41.44681930181948
 30
0.0
  0
VERTEX
  5
1DC
330
1C9
100
AcDbEntity
  8
Visible (ANSI)
100
AcDbVertex
100
AcDb2dVertex
 10
34.26281978358471
 20
41.44920006151674
 30
0.0
  0
VERTEX
  5
1DD
330
1C9
100
AcDbEntity
  8
Visible (ANSI)
100
AcDbVertex
100
AcDb2dVertex
 10
34.258599971999
 20
41.451580821214
 30
0.0
  0
VERTEX
  5
1DE
330
1C9
100
AcDbEntity
  8
Visible (ANSI)
100
AcDbVertex
100
AcDb2dVertex
 10
34.2549983158723
 20
41.45396158091126
 30
0.0
  0
VERTEX
  5
1DF
330
1C9
100
AcDbEntity
  8
Visible (ANSI)
100
AcDbVertex
100
AcDb2dVertex
 10
34.25203023849312
 20
41.45634236407492
 30
0.0
  0
VERTEX
  5
1E0
330
1C9
100
AcDbEntity
  8
Visible (ANSI)
100
AcDbVertex
100
AcDb2dVertex
 10
34.2497084489313
 20
41.45872312377218
 30
0.0
  0
VERTEX
  5
1E1
330
1C9
100
AcDbEntity
  8
Visible (ANSI)
100
AcDbVertex
100
AcDb2dVertex
 10
34.24804288933032
 20
41.46110388346944
 30
0.0
  0
VERTEX
  5
1E2
330
1C9
100
AcDbEntity
  8
Visible (ANSI)
100
AcDbVertex
100
AcDb2dVertex
 10
34.2470406921682
 20
41.4634846431667
 30
0.0
  0
VERTEX
  5
1E3
330
1C9
100
AcDbEntity
  8
Visible (ANSI)
100
AcDbVertex
100
AcDb2dVertex
 10
34.24670614893079
 20
41.46586540286396
 30
0.0
  0
SEQEND
  5
1CC
330
1C9
100
AcDbEntity
  8
Visible (ANSI)
  0
POLYLINE
  5
1E4
330
6C
100
AcDbEntity
  8
Visible (ANSI)
100
AcDb2dPolyline
 66
     1
 10
0.0
 20
0.0
 30
0.0
 70
   128
  0
VERTEX
  5
1E5
330
1E4
100
AcDbEntity
  8
Visible (ANSI)
100
AcDbVertex
100
AcDb2dVertex
 10
34.24670614893079
 20
79.03908999056728
 30
0.0
  0
VERTEX
  5
1E6
330
1E4
100
AcDbEntity
  8
Visible (ANSI)
100
AcDbVertex
100
AcDb2dVertex
 10
34.2470406921682
 20
79.04146891988569
 30
0.0
  0
VERTEX
  5
1E8
330
1E4
100
AcDbEntity
  8
Visible (ANSI)
100
AcDbVertex
100
AcDb2dVertex
 10
34.24804288933032
 20
79.04385085290272
 30
0.0
  0
VERTEX
  5
1E9
330
1E4
100
AcDbEntity
  8
Visible (ANSI)
100
AcDbVertex
100
AcDb2dVertex
 10
34.2497084489313
 20
79.04622978222113
 30
0.0
  0
VERTEX
  5
1EA
330
1E4
100
AcDbEntity
  8
Visible (ANSI)
100
AcDbVertex
100
AcDb2dVertex
 10
34.25203023849312
 20
79.04861171523818
 30
0.0
  0
VERTEX
  5
1EB
330
1E4
100
AcDbEntity
  8
Visible (ANSI)
100
AcDbVertex
100
AcDb2dVertex
 10
34.2549983158723
 20
79.05099364825521
 30
0.0
  0
VERTEX
  5
1EC
330
1E4
100
AcDbEntity
  8
Visible (ANSI)
100
AcDbVertex
100
AcDb2dVertex
 10
34.258599971999
 20
79.05337257757363
 30
0.0
  0
VERTEX
  5
1ED
330
1E4
100
AcDbEntity
  8
Visible (ANSI)
100
AcDbVertex
100
AcDb2dVertex
 10
34.26281978358471
 20
79.05575451059066
 30
0.0
  0
VERTEX
  5
1EE
330
1E4
100
AcDbEntity
  8
Visible (ANSI)
100
AcDbVertex
100
AcDb2dVertex
 10
34.26763968003818
 20
79.05813343990906
 30
0.0
  0
VERTEX
  5
1EF
330
1E4
100
AcDbEntity
  8
Visible (ANSI)
100
AcDbVertex
100
AcDb2dVertex
 10
34.27303902339783
 20
79.06051537292611
 30
0.0
  0
VERTEX
  5
1F0
330
1E4
100
AcDbEntity
  8
Visible (ANSI)
100
AcDbVertex
100
AcDb2dVertex
 10
34.27899468899749
 20
79.06289730594314
 30
0.0
  0
VERTEX
  5
1F1
330
1E4
100
AcDbEntity
  8
Visible (ANSI)
100
AcDbVertex
100
AcDb2dVertex
 10
34.28548117913166
 20
79.06527623526155
 30
0.0
  0
VERTEX
  5
1F2
330
1E4
100
AcDbEntity
  8
Visible (ANSI)
100
AcDbVertex
100
AcDb2dVertex
 10
34.29247071545461
 20
79.06765816827858
 30
0.0
  0
VERTEX
  5
1F3
330
1E4
100
AcDbEntity
  8
Visible (ANSI)
100
AcDbVertex
100
AcDb2dVertex
 10
34.29993336657876
 20
79.07004010129561
 30
0.0
  0
VERTEX
  5
1F4
330
1E4
100
AcDbEntity
  8
Visible (ANSI)
100
AcDbVertex
100
AcDb2dVertex
 10
34.30783717713993
 20
79.07241903061403
 30
0.0
  0
VERTEX
  5
1F5
330
1E4
100
AcDbEntity
  8
Visible (ANSI)
100
AcDbVertex
100
AcDb2dVertex
 10
34.3161482997958
 20
79.07480096363106
 30
0.0
  0
VERTEX
  5
1F6
330
1E4
100
AcDbEntity
  8
Visible (ANSI)
100
AcDbVertex
100
AcDb2dVertex
 10
34.32483114775747
 20
79.07717989294946
 30
0.0
  0
VERTEX
  5
1F7
330
1E4
100
AcDbEntity
  8
Visible (ANSI)
100
AcDbVertex
100
AcDb2dVertex
 10
34.33384853852113
 20
79.07956182596651
 30
0.0
  0
VERTEX
  5
1F8
330
1E4
100
AcDbEntity
  8
Visible (ANSI)
100
AcDbVertex
100
AcDb2dVertex
 10
34.34316186399947
 20
79.08194375898355
 30
0.0
  0
VERTEX
  5
1F9
330
1E4
100
AcDbEntity
  8
Visible (ANSI)
100
AcDbVertex
100
AcDb2dVertex
 10
34.35273123131999
 20
79.08432268830196
 30
0.0
  0
VERTEX
  5
1FA
330
1E4
100
AcDbEntity
  8
Visible (ANSI)
100
AcDbVertex
100
AcDb2dVertex
 10
34.36251567402261
 20
79.086704621319
 30
0.0
  0
VERTEX
  5
1FB
330
1E4
100
AcDbEntity
  8
Visible (ANSI)
100
AcDbVertex
100
AcDb2dVertex
 10
34.37247328699141
 20
79.0890835506374
 30
0.0
  0
VERTEX
  5
1FC
330
1E4
100
AcDbEntity
  8
Visible (ANSI)
100
AcDbVertex
100
AcDb2dVertex
 10
34.38256143178563
 20
79.09146548365446
 30
0.0
  0
VERTEX
  5
1FD
330
1E4
100
AcDbEntity
  8
Visible (ANSI)
100
AcDbVertex
100
AcDb2dVertex
 10
34.39273690677101
 20
79.0938474166715
 30
0.0
  0
VERTEX
  5
1FE
330
1E4
100
AcDbEntity
  8
Visible (ANSI)
100
AcDbVertex
100
AcDb2dVertex
 10
34.40295614658415
 20
79.0962263459899
 30
0.0
  0
SEQEND
  5
1E7
330
1E4
100
AcDbEntity
  8
Visible (ANSI)
  0
POLYLINE
  5
1FF
330
6C
100
AcDbEntity
  8
Visible (ANSI)
100
AcDb2dPolyline
 66
     1
 10
0.0
 20
0.0
 30
0.0
 70
   128
  0
VERTEX
  5
200
330
1FF
100
AcDbEntity
  8
Visible (ANSI)
100
AcDbVertex
100
AcDb2dVertex
 10
125.3333575509914
 20
41.40872706453092
 30
0.0
  0
VERTEX
  5
201
330
1FF
100
AcDbEntity
  8
Visible (ANSI)
100
AcDbVertex
100
AcDb2dVertex
 10
125.3336920879268
 20
41.39850782471778
 30
0.0
  0
VERTEX
  5
203
330
1FF
100
AcDbEntity
  8
Visible (ANSI)
100
AcDbVertex
100
AcDb2dVertex
 10
125.3346942907493
 20
41.38833234973241
 30
0.0
  0
VERTEX
  5
204
330
1FF
100
AcDbEntity
  8
Visible (ANSI)
100
AcDbVertex
100
AcDb2dVertex
 10
125.3363598533752
 20
41.37824420493819
 30
0.0
  0
VERTEX
  5
205
330
1FF
100
AcDbEntity
  8
Visible (ANSI)
100
AcDbVertex
100
AcDb2dVertex
 10
125.3386816420204
 20
41.36828659196939
 30
0.0
  0
VERTEX
  5
206
330
1FF
100
AcDbEntity
  8
Visible (ANSI)
100
AcDbVertex
100
AcDb2dVertex
 10
125.3416497186662
 20
41.35850214926676
 30
0.0
  0
VERTEX
  5
207
330
1FF
100
AcDbEntity
  8
Visible (ANSI)
100
AcDbVertex
100
AcDb2dVertex
 10
125.3452513762596
 20
41.34893278194624
 30
0.0
  0
VERTEX
  5
208
330
1FF
100
AcDbEntity
  8
Visible (ANSI)
100
AcDbVertex
100
AcDb2dVertex
 10
125.3494711856453
 20
41.33961945646791
 30
0.0
  0
VERTEX
  5
209
330
1FF
100
AcDbEntity
  8
Visible (ANSI)
100
AcDbVertex
100
AcDb2dVertex
 10
125.3542910776988
 20
41.33060206570425
 30
0.0
  0
VERTEX
  5
20A
330
1FF
100
AcDbEntity
  8
Visible (ANSI)
100
AcDbVertex
100
AcDb2dVertex
 10
125.3596904254584
 20
41.32191921774258
 30
0.0
  0
VERTEX
  5
20B
330
1FF
100
AcDbEntity
  8
Visible (ANSI)
100
AcDbVertex
100
AcDb2dVertex
 10
125.3656460910581
 20
41.3136080950867
 30
0.0
  0
VERTEX
  5
20C
330
1FF
100
AcDbEntity
  8
Visible (ANSI)
100
AcDbVertex
100
AcDb2dVertex
 10
125.372132578259
 20
41.30570428452553
 30
0.0
  0
VERTEX
  5
20D
330
1FF
100
AcDbEntity
  8
Visible (ANSI)
100
AcDbVertex
100
AcDb2dVertex
 10
125.3791221145819
 20
41.29824163340138
 30
0.0
  0
VERTEX
  5
20E
330
1FF
100
AcDbEntity
  8
Visible (ANSI)
100
AcDbVertex
100
AcDb2dVertex
 10
125.3865847627728
 20
41.29125209707843
 30
0.0
  0
VERTEX
  5
20F
330
1FF
100
AcDbEntity
  8
Visible (ANSI)
100
AcDbVertex
100
AcDb2dVertex
 10
125.3944885733339
 20
41.28476560694426
 30
0.0
  0
VERTEX
  5
210
330
1FF
100
AcDbEntity
  8
Visible (ANSI)
100
AcDbVertex
100
AcDb2dVertex
 10
125.4027997018564
 20
41.27880994134462
 30
0.0
  0
VERTEX
  5
211
330
1FF
100
AcDbEntity
  8
Visible (ANSI)
100
AcDbVertex
100
AcDb2dVertex
 10
125.4114825498181
 20
41.27341059798496
 30
0.0
  0
VERTEX
  5
212
330
1FF
100
AcDbEntity
  8
Visible (ANSI)
100
AcDbVertex
100
AcDb2dVertex
 10
125.4204999405817
 20
41.26859070153147
 30
0.0
  0
VERTEX
  5
213
330
1FF
100
AcDbEntity
  8
Visible (ANSI)
100
AcDbVertex
100
AcDb2dVertex
 10
125.4298132631268
 20
41.26437088994577
 30
0.0
  0
VERTEX
  5
214
330
1FF
100
AcDbEntity
  8
Visible (ANSI)
100
AcDbVertex
100
AcDb2dVertex
 10
125.4393826333806
 20
41.26076923381908
 30
0.0
  0
VERTEX
  5
215
330
1FF
100
AcDbEntity
  8
Visible (ANSI)
100
AcDbVertex
100
AcDb2dVertex
 10
125.4491670731499
 20
41.2578011564399
 30
0.0
  0
VERTEX
  5
216
330
1FF
100
AcDbEntity
  8
Visible (ANSI)
100
AcDbVertex
100
AcDb2dVertex
 10
125.459124686302
 20
41.25547936687807
 30
0.0
  0
VERTEX
  5
217
330
1FF
100
AcDbEntity
  8
Visible (ANSI)
100
AcDbVertex
100
AcDb2dVertex
 10
125.4692128316462
 20
41.25381380727708
 30
0.0
  0
VERTEX
  5
218
330
1FF
100
AcDbEntity
  8
Visible (ANSI)
100
AcDbVertex
100
AcDb2dVertex
 10
125.4793883102982
 20
41.25281161011497
 30
0.0
  0
VERTEX
  5
219
330
1FF
100
AcDbEntity
  8
Visible (ANSI)
100
AcDbVertex
100
AcDb2dVertex
 10
125.4896075486447
 20
41.25247706687757
 30
0.0
  0
SEQEND
  5
202
330
1FF
100
AcDbEntity
  8
Visible (ANSI)
  0
LINE
  5
21A
330
6C
100
AcDbEntity
  8
Visible (ANSI)
100
AcDbLine
 10
125.4896075491141
 20
41.37747706687757
 30
0.0
 11
126.2083575491141
 21
41.37747706687757
 31
0.0
  0
LINE
  5
21B
330
6C
100
AcDbEntity
  8
Visible (ANSI)
100
AcDbLine
 10
125.4896075491141
 20
41.37747706687757
 30
0.0
 11
125.4896075491141
 21
41.25247706687757
 31
0.0
  0
POLYLINE
  5
21C
330
6C
100
AcDbEntity
  8
Visible (ANSI)
100
AcDb2dPolyline
 66
     1
 10
0.0
 20
0.0
 30
0.0
 70
   128
  0
VERTEX
  5
21D
330
21C
100
AcDbEntity
  8
Visible (ANSI)
100
AcDbVertex
100
AcDb2dVertex
 10
125.4583575491141
 20
41.40872706453092
 30
0.0
  0
VERTEX
  5
21E
330
21C
100
AcDbEntity
  8
Visible (ANSI)
100
AcDbVertex
100
AcDb2dVertex
 10
125.4584244577604
 20
41.40668322360822
 30
0.0
  0
VERTEX
  5
220
330
21C
100
AcDbEntity
  8
Visible (ANSI)
100
AcDbVertex
100
AcDb2dVertex
 10
125.4586248971986
 20
41.40464812391786
 30
0.0
  0
VERTEX
  5
221
330
21C
100
AcDbEntity
  8
Visible (ANSI)
100
AcDbVertex
100
AcDb2dVertex
 10
125.4589580091233
 20
41.40263049495901
 30
0.0
  0
VERTEX
  5
222
330
21C
100
AcDbEntity
  8
Visible (ANSI)
100
AcDbVertex
100
AcDb2dVertex
 10
125.4594223670632
 20
41.40063897236525
 30
0.0
  0
VERTEX
  5
223
330
21C
100
AcDbEntity
  8
Visible (ANSI)
100
AcDbVertex
100
AcDb2dVertex
 10
125.460015982539
 20
41.39868208617137
 30
0.0
  0
VERTEX
  5
224
330
21C
100
AcDbEntity
  8
Visible (ANSI)
100
AcDbVertex
100
AcDb2dVertex
 10
125.460736313801
 20
41.39676821388059
 30
0.0
  0
VERTEX
  5
225
330
21C
100
AcDbEntity
  8
Visible (ANSI)
100
AcDbVertex
100
AcDb2dVertex
 10
125.4615802761182
 20
41.39490554526496
 30
0.0
  0
VERTEX
  5
226
330
21C
100
AcDbEntity
  8
Visible (ANSI)
100
AcDbVertex
100
AcDb2dVertex
 10
125.4625442551155
 20
41.39310207063219
 30
0.0
  0
VERTEX
  5
227
330
21C
100
AcDbEntity
  8
Visible (ANSI)
100
AcDbVertex
100
AcDb2dVertex
 10
125.4636241236408
 20
41.39136549869322
 30
0.0
  0
VERTEX
  5
228
330
21C
100
AcDbEntity
  8
Visible (ANSI)
100
AcDbVertex
100
AcDb2dVertex
 10
125.4648152569807
 20
41.38970326829544
 30
0.0
  0
VERTEX
  5
229
330
21C
100
AcDbEntity
  8
Visible (ANSI)
100
AcDbVertex
100
AcDb2dVertex
 10
125.4661125548609
 20
41.38812251322312
 30
0.0
  0
VERTEX
  5
22A
330
21C
100
AcDbEntity
  8
Visible (ANSI)
100
AcDbVertex
100
AcDb2dVertex
 10
125.4675104619788
 20
41.386629980065
 30
0.0
  0
VERTEX
  5
22B
330
21C
100
AcDbEntity
  8
Visible (ANSI)
100
AcDbVertex
100
AcDb2dVertex
 10
125.4690029922037
 20
41.38523207514705
 30
0.0
  0
VERTEX
  5
22C
330
21C
100
AcDbEntity
  8
Visible (ANSI)
100
AcDbVertex
100
AcDb2dVertex
 10
125.4705837546092
 20
41.38393477066695
 30
0.0
  0
VERTEX
  5
22D
330
21C
100
AcDbEntity
  8
Visible (ANSI)
100
AcDbVertex
100
AcDb2dVertex
 10
125.4722459798737
 20
41.38274363989366
 30
0.0
  0
VERTEX
  5
22E
330
21C
100
AcDbEntity
  8
Visible (ANSI)
100
AcDbVertex
100
AcDb2dVertex
 10
125.4739825488794
 20
41.38166377503502
 30
0.0
  0
VERTEX
  5
22F
330
21C
100
AcDbEntity
  8
Visible (ANSI)
100
AcDbVertex
100
AcDb2dVertex
 10
125.4757860279121
 20
41.38069979897095
 30
0.0
  0
VERTEX
  5
230
330
21C
100
AcDbEntity
  8
Visible (ANSI)
100
AcDbVertex
100
AcDb2dVertex
 10
125.4776486921278
 20
41.37985583005389
 30
0.0
  0
VERTEX
  5
231
330
21C
100
AcDbEntity
  8
Visible (ANSI)
100
AcDbVertex
100
AcDb2dVertex
 10
125.4795625658852
 20
41.37913550557514
 30
0.0
  0
VERTEX
  5
232
330
21C
100
AcDbEntity
  8
Visible (ANSI)
100
AcDbVertex
100
AcDb2dVertex
 10
125.4815194535458
 20
41.37854188789932
 30
0.0
  0
VERTEX
  5
233
330
21C
100
AcDbEntity
  8
Visible (ANSI)
100
AcDbVertex
100
AcDb2dVertex
 10
125.4835109761395
 20
41.37807752313037
 30
0.0
  0
VERTEX
  5
234
330
21C
100
AcDbEntity
  8
Visible (ANSI)
100
AcDbVertex
100
AcDb2dVertex
 10
125.4855286050984
 20
41.37774441764511
 30
0.0
  0
VERTEX
  5
235
330
21C
100
AcDbEntity
  8
Visible (ANSI)
100
AcDbVertex
100
AcDb2dVertex
 10
125.4875637018554
 20
41.37754397942725
 30
0.0
  0
VERTEX
  5
236
330
21C
100
AcDbEntity
  8
Visible (ANSI)
100
AcDbVertex
100
AcDb2dVertex
 10
125.4896075486447
 20
41.37747706500025
 30
0.0
  0
SEQEND
  5
21F
330
21C
100
AcDbEntity
  8
Visible (ANSI)
  0
LINE
  5
237
330
6C
100
AcDbEntity
  8
Visible (ANSI)
100
AcDbLine
 10
125.4583575491141
 20
41.40872706687757
 30
0.0
 11
125.4532321472407
 21
41.40872706687757
 31
0.0
  0
LINE
  5
238
330
6C
100
AcDbEntity
  8
Visible (ANSI)
100
AcDbLine
 10
125.4532321472407
 20
41.40872706687757
 30
0.0
 11
125.333357549114
 21
41.40872706687757
 31
0.0
  0
LINE
  5
239
330
6C
100
AcDbEntity
  8
Visible (ANSI)
100
AcDbLine
 10
125.4896075491141
 20
41.25247706687757
 30
0.0
 11
126.2083575491141
 21
41.25247706687757
 31
0.0
  0
LINE
  5
23A
330
6C
100
AcDbEntity
  8
Visible (ANSI)
100
AcDbLine
 10
126.2083575491141
 20
41.37747706687757
 30
0.0
 11
126.2083575491141
 21
41.25247706687757
 31
0.0
  0
POLYLINE
  5
23B
330
6C
100
AcDbEntity
  8
Visible (ANSI)
100
AcDb2dPolyline
 66
     1
 10
0.0
 20
0.0
 30
0.0
 70
   128
  0
VERTEX
  5
23C
330
23B
100
AcDbEntity
  8
Visible (ANSI)
100
AcDbVertex
100
AcDb2dVertex
 10
125.3333575509914
 20
79.0962263459899
 30
0.0
  0
VERTEX
  5
23D
330
23B
100
AcDbEntity
  8
Visible (ANSI)
100
AcDbVertex
100
AcDb2dVertex
 10
125.3336920879268
 20
79.0938474166715
 30
0.0
  0
VERTEX
  5
23F
330
23B
100
AcDbEntity
  8
Visible (ANSI)
100
AcDbVertex
100
AcDb2dVertex
 10
125.3346942907493
 20
79.09146548365446
 30
0.0
  0
VERTEX
  5
240
330
23B
100
AcDbEntity
  8
Visible (ANSI)
100
AcDbVertex
100
AcDb2dVertex
 10
125.3363598533752
 20
79.0890835506374
 30
0.0
  0
VERTEX
  5
241
330
23B
100
AcDbEntity
  8
Visible (ANSI)
100
AcDbVertex
100
AcDb2dVertex
 10
125.3386816420204
 20
79.086704621319
 30
0.0
  0
VERTEX
  5
242
330
23B
100
AcDbEntity
  8
Visible (ANSI)
100
AcDbVertex
100
AcDb2dVertex
 10
125.3416497186662
 20
79.08432268830196
 30
0.0
  0
VERTEX
  5
243
330
23B
100
AcDbEntity
  8
Visible (ANSI)
100
AcDbVertex
100
AcDb2dVertex
 10
125.3452513762596
 20
79.08194375898355
 30
0.0
  0
VERTEX
  5
244
330
23B
100
AcDbEntity
  8
Visible (ANSI)
100
AcDbVertex
100
AcDb2dVertex
 10
125.3494711856453
 20
79.07956182596651
 30
0.0
  0
VERTEX
  5
245
330
23B
100
AcDbEntity
  8
Visible (ANSI)
100
AcDbVertex
100
AcDb2dVertex
 10
125.3542910776989
 20
79.07717989294946
 30
0.0
  0
VERTEX
  5
246
330
23B
100
AcDbEntity
  8
Visible (ANSI)
100
AcDbVertex
100
AcDb2dVertex
 10
125.3596904254585
 20
79.07480096363106
 30
0.0
  0
VERTEX
  5
247
330
23B
100
AcDbEntity
  8
Visible (ANSI)
100
AcDbVertex
100
AcDb2dVertex
 10
125.3656460910581
 20
79.07241903061403
 30
0.0
  0
VERTEX
  5
248
330
23B
100
AcDbEntity
  8
Visible (ANSI)
100
AcDbVertex
100
AcDb2dVertex
 10
125.372132578259
 20
79.07004010129561
 30
0.0
  0
VERTEX
  5
249
330
23B
100
AcDbEntity
  8
Visible (ANSI)
100
AcDbVertex
100
AcDb2dVertex
 10
125.3791221145819
 20
79.06765816827858
 30
0.0
  0
VERTEX
  5
24A
330
23B
100
AcDbEntity
  8
Visible (ANSI)
100
AcDbVertex
100
AcDb2dVertex
 10
125.3865847627728
 20
79.06527623526155
 30
0.0
  0
VERTEX
  5
24B
330
23B
100
AcDbEntity
  8
Visible (ANSI)
100
AcDbVertex
100
AcDb2dVertex
 10
125.394488573334
 20
79.06289730594314
 30
0.0
  0
VERTEX
  5
24C
330
23B
100
AcDbEntity
  8
Visible (ANSI)
100
AcDbVertex
100
AcDb2dVertex
 10
125.4027997018564
 20
79.06051537292611
 30
0.0
  0
VERTEX
  5
24D
330
23B
100
AcDbEntity
  8
Visible (ANSI)
100
AcDbVertex
100
AcDb2dVertex
 10
125.4114825498181
 20
79.05813343990906
 30
0.0
  0
VERTEX
  5
24E
330
23B
100
AcDbEntity
  8
Visible (ANSI)
100
AcDbVertex
100
AcDb2dVertex
 10
125.4204999405818
 20
79.05575451059066
 30
0.0
  0
VERTEX
  5
24F
330
23B
100
AcDbEntity
  8
Visible (ANSI)
100
AcDbVertex
100
AcDb2dVertex
 10
125.4298132631268
 20
79.05337257757363
 30
0.0
  0
VERTEX
  5
250
330
23B
100
AcDbEntity
  8
Visible (ANSI)
100
AcDbVertex
100
AcDb2dVertex
 10
125.4393826333806
 20
79.05099364825521
 30
0.0
  0
VERTEX
  5
251
330
23B
100
AcDbEntity
  8
Visible (ANSI)
100
AcDbVertex
100
AcDb2dVertex
 10
125.44916707315
 20
79.04861171523818
 30
0.0
  0
VERTEX
  5
252
330
23B
100
AcDbEntity
  8
Visible (ANSI)
100
AcDbVertex
100
AcDb2dVertex
 10
125.4591246863021
 20
79.04622978222113
 30
0.0
  0
VERTEX
  5
253
330
23B
100
AcDbEntity
  8
Visible (ANSI)
100
AcDbVertex
100
AcDb2dVertex
 10
125.4692128316463
 20
79.04385085290272
 30
0.0
  0
VERTEX
  5
254
330
23B
100
AcDbEntity
  8
Visible (ANSI)
100
AcDbVertex
100
AcDb2dVertex
 10
125.4793883102983
 20
79.04146891988569
 30
0.0
  0
VERTEX
  5
255
330
23B
100
AcDbEntity
  8
Visible (ANSI)
100
AcDbVertex
100
AcDb2dVertex
 10
125.4896075486448
 20
79.03908999056728
 30
0.0
  0
SEQEND
  5
23E
330
23B
100
AcDbEntity
  8
Visible (ANSI)
  0
POLYLINE
  5
256
330
6C
100
AcDbEntity
  8
Visible (ANSI)
100
AcDb2dPolyline
 66
     1
 10
0.0
 20
0.0
 30
0.0
 70
   128
  0
VERTEX
  5
257
330
256
100
AcDbEntity
  8
Visible (ANSI)
100
AcDbVertex
100
AcDb2dVertex
 10
125.4896075486448
 20
41.46586540286396
 30
0.0
  0
VERTEX
  5
258
330
256
100
AcDbEntity
  8
Visible (ANSI)
100
AcDbVertex
100
AcDb2dVertex
 10
125.4793883102983
 20
41.4634846431667
 30
0.0
  0
VERTEX
  5
25A
330
256
100
AcDbEntity
  8
Visible (ANSI)
100
AcDbVertex
100
AcDb2dVertex
 10
125.4692128316463
 20
41.46110388346944
 30
0.0
  0
VERTEX
  5
25B
330
256
100
AcDbEntity
  8
Visible (ANSI)
100
AcDbVertex
100
AcDb2dVertex
 10
125.4591246863021
 20
41.45872312377218
 30
0.0
  0
VERTEX
  5
25C
330
256
100
AcDbEntity
  8
Visible (ANSI)
100
AcDbVertex
100
AcDb2dVertex
 10
125.44916707315
 20
41.45634236407492
 30
0.0
  0
VERTEX
  5
25D
330
256
100
AcDbEntity
  8
Visible (ANSI)
100
AcDbVertex
100
AcDb2dVertex
 10
125.4393826333806
 20
41.45396158091126
 30
0.0
  0
VERTEX
  5
25E
330
256
100
AcDbEntity
  8
Visible (ANSI)
100
AcDbVertex
100
AcDb2dVertex
 10
125.4298132631268
 20
41.451580821214
 30
0.0
  0
VERTEX
  5
25F
330
256
100
AcDbEntity
  8
Visible (ANSI)
100
AcDbVertex
100
AcDb2dVertex
 10
125.4204999405818
 20
41.44920006151674
 30
0.0
  0
VERTEX
  5
260
330
256
100
AcDbEntity
  8
Visible (ANSI)
100
AcDbVertex
100
AcDb2dVertex
 10
125.4114825498181
 20
41.44681930181948
 30
0.0
  0
VERTEX
  5
261
330
256
100
AcDbEntity
  8
Visible (ANSI)
100
AcDbVertex
100
AcDb2dVertex
 10
125.4027997018564
 20
41.44443853038903
 30
0.0
  0
VERTEX
  5
262
330
256
100
AcDbEntity
  8
Visible (ANSI)
100
AcDbVertex
100
AcDb2dVertex
 10
125.394488573334
 20
41.44205777069177
 30
0.0
  0
VERTEX
  5
263
330
256
100
AcDbEntity
  8
Visible (ANSI)
100
AcDbVertex
100
AcDb2dVertex
 10
125.3865847627728
 20
41.43967701099451
 30
0.0
  0
VERTEX
  5
264
330
256
100
AcDbEntity
  8
Visible (ANSI)
100
AcDbVertex
100
AcDb2dVertex
 10
125.3791221145819
 20
41.43729623956404
 30
0.0
  0
VERTEX
  5
265
330
256
100
AcDbEntity
  8
Visible (ANSI)
100
AcDbVertex
100
AcDb2dVertex
 10
125.372132578259
 20
41.43491547986678
 30
0.0
  0
VERTEX
  5
266
330
256
100
AcDbEntity
  8
Visible (ANSI)
100
AcDbVertex
100
AcDb2dVertex
 10
125.3656460910581
 20
41.43253470843632
 30
0.0
  0
VERTEX
  5
267
330
256
100
AcDbEntity
  8
Visible (ANSI)
100
AcDbVertex
100
AcDb2dVertex
 10
125.3596904254585
 20
41.43015394873906
 30
0.0
  0
VERTEX
  5
268
330
256
100
AcDbEntity
  8
Visible (ANSI)
100
AcDbVertex
100
AcDb2dVertex
 10
125.3542910776989
 20
41.4277731773086
 30
0.0
  0
VERTEX
  5
269
330
256
100
AcDbEntity
  8
Visible (ANSI)
100
AcDbVertex
100
AcDb2dVertex
 10
125.3494711856453
 20
41.42539241761134
 30
0.0
  0
VERTEX
  5
26A
330
256
100
AcDbEntity
  8
Visible (ANSI)
100
AcDbVertex
100
AcDb2dVertex
 10
125.3452513762596
 20
41.42301165791407
 30
0.0
  0
VERTEX
  5
26B
330
256
100
AcDbEntity
  8
Visible (ANSI)
100
AcDbVertex
100
AcDb2dVertex
 10
125.3416497186662
 20
41.42063088648362
 30
0.0
  0
VERTEX
  5
26C
330
256
100
AcDbEntity
  8
Visible (ANSI)
100
AcDbVertex
100
AcDb2dVertex
 10
125.3386816420204
 20
41.41825012678636
 30
0.0
  0
VERTEX
  5
26D
330
256
100
AcDbEntity
  8
Visible (ANSI)
100
AcDbVertex
100
AcDb2dVertex
 10
125.3363598533752
 20
41.4158693553559
 30
0.0
  0
VERTEX
  5
26E
330
256
100
AcDbEntity
  8
Visible (ANSI)
100
AcDbVertex
100
AcDb2dVertex
 10
125.3346942907493
 20
41.41348859565864
 30
0.0
  0
VERTEX
  5
26F
330
256
100
AcDbEntity
  8
Visible (ANSI)
100
AcDbVertex
100
AcDb2dVertex
 10
125.3336920879268
 20
41.41110783596139
 30
0.0
  0
VERTEX
  5
270
330
256
100
AcDbEntity
  8
Visible (ANSI)
100
AcDbVertex
100
AcDb2dVertex
 10
125.3333575509914
 20
41.40872706453092
 30
0.0
  0
SEQEND
  5
259
330
256
100
AcDbEntity
  8
Visible (ANSI)
  0
LINE
  5
271
330
6C
100
AcDbEntity
  8
Visible (ANSI)
100
AcDbLine
 10
126.2083575491141
 20
41.4658654145259
 30
0.0
 11
125.4896075491141
 21
41.4658654145259
 31
0.0
  0
POLYLINE
  5
272
330
6C
100
AcDbEntity
  8
Visible (ANSI)
100
AcDb2dPolyline
 66
     1
 10
0.0
 20
0.0
 30
0.0
 70
   128
  0
VERTEX
  5
273
330
272
100
AcDbEntity
  8
Visible (ANSI)
100
AcDbVertex
100
AcDb2dVertex
 10
125.4583575491141
 20
41.40872706453092
 30
0.0
  0
VERTEX
  5
274
330
272
100
AcDbEntity
  8
Visible (ANSI)
100
AcDbVertex
100
AcDb2dVertex
 10
125.4584244577604
 20
41.41110783596139
 30
0.0
  0
VERTEX
  5
276
330
272
100
AcDbEntity
  8
Visible (ANSI)
100
AcDbVertex
100
AcDb2dVertex
 10
125.4586248971986
 20
41.41348859565864
 30
0.0
  0
VERTEX
  5
277
330
272
100
AcDbEntity
  8
Visible (ANSI)
100
AcDbVertex
100
AcDb2dVertex
 10
125.4589580091233
 20
41.4158693553559
 30
0.0
  0
VERTEX
  5
278
330
272
100
AcDbEntity
  8
Visible (ANSI)
100
AcDbVertex
100
AcDb2dVertex
 10
125.4594223670632
 20
41.41825012678636
 30
0.0
  0
VERTEX
  5
279
330
272
100
AcDbEntity
  8
Visible (ANSI)
100
AcDbVertex
100
AcDb2dVertex
 10
125.460015982539
 20
41.42063088648362
 30
0.0
  0
VERTEX
  5
27A
330
272
100
AcDbEntity
  8
Visible (ANSI)
100
AcDbVertex
100
AcDb2dVertex
 10
125.4607363138011
 20
41.42301165791407
 30
0.0
  0
VERTEX
  5
27B
330
272
100
AcDbEntity
  8
Visible (ANSI)
100
AcDbVertex
100
AcDb2dVertex
 10
125.4615802761182
 20
41.42539241761134
 30
0.0
  0
VERTEX
  5
27C
330
272
100
AcDbEntity
  8
Visible (ANSI)
100
AcDbVertex
100
AcDb2dVertex
 10
125.4625442551156
 20
41.4277731773086
 30
0.0
  0
VERTEX
  5
27D
330
272
100
AcDbEntity
  8
Visible (ANSI)
100
AcDbVertex
100
AcDb2dVertex
 10
125.4636241236408
 20
41.43015394873906
 30
0.0
  0
VERTEX
  5
27E
330
272
100
AcDbEntity
  8
Visible (ANSI)
100
AcDbVertex
100
AcDb2dVertex
 10
125.4648152569807
 20
41.43253470843632
 30
0.0
  0
VERTEX
  5
27F
330
272
100
AcDbEntity
  8
Visible (ANSI)
100
AcDbVertex
100
AcDb2dVertex
 10
125.4661125548609
 20
41.43491547986678
 30
0.0
  0
VERTEX
  5
280
330
272
100
AcDbEntity
  8
Visible (ANSI)
100
AcDbVertex
100
AcDb2dVertex
 10
125.4675104619789
 20
41.43729623956404
 30
0.0
  0
VERTEX
  5
281
330
272
100
AcDbEntity
  8
Visible (ANSI)
100
AcDbVertex
100
AcDb2dVertex
 10
125.4690029922037
 20
41.43967701099451
 30
0.0
  0
VERTEX
  5
282
330
272
100
AcDbEntity
  8
Visible (ANSI)
100
AcDbVertex
100
AcDb2dVertex
 10
125.4705837546092
 20
41.44205777069177
 30
0.0
  0
VERTEX
  5
283
330
272
100
AcDbEntity
  8
Visible (ANSI)
100
AcDbVertex
100
AcDb2dVertex
 10
125.4722459798737
 20
41.44443853038903
 30
0.0
  0
VERTEX
  5
284
330
272
100
AcDbEntity
  8
Visible (ANSI)
100
AcDbVertex
100
AcDb2dVertex
 10
125.4739825488794
 20
41.44681930181948
 30
0.0
  0
VERTEX
  5
285
330
272
100
AcDbEntity
  8
Visible (ANSI)
100
AcDbVertex
100
AcDb2dVertex
 10
125.4757860279121
 20
41.44920006151674
 30
0.0
  0
VERTEX
  5
286
330
272
100
AcDbEntity
  8
Visible (ANSI)
100
AcDbVertex
100
AcDb2dVertex
 10
125.4776486921278
 20
41.451580821214
 30
0.0
  0
VERTEX
  5
287
330
272
100
AcDbEntity
  8
Visible (ANSI)
100
AcDbVertex
100
AcDb2dVertex
 10
125.4795625658853
 20
41.45396158091126
 30
0.0
  0
VERTEX
  5
288
330
272
100
AcDbEntity
  8
Visible (ANSI)
100
AcDbVertex
100
AcDb2dVertex
 10
125.4815194535458
 20
41.45634236407492
 30
0.0
  0
VERTEX
  5
289
330
272
100
AcDbEntity
  8
Visible (ANSI)
100
AcDbVertex
100
AcDb2dVertex
 10
125.4835109761395
 20
41.45872312377218
 30
0.0
  0
VERTEX
  5
28A
330
272
100
AcDbEntity
  8
Visible (ANSI)
100
AcDbVertex
100
AcDb2dVertex
 10
125.4855286050984
 20
41.46110388346944
 30
0.0
  0
VERTEX
  5
28B
330
272
100
AcDbEntity
  8
Visible (ANSI)
100
AcDbVertex
100
AcDb2dVertex
 10
125.4875637018554
 20
41.4634846431667
 30
0.0
  0
VERTEX
  5
28C
330
272
100
AcDbEntity
  8
Visible (ANSI)
100
AcDbVertex
100
AcDb2dVertex
 10
125.4896075486447
 20
41.46586540286396
 30
0.0
  0
SEQEND
  5
275
330
272
100
AcDbEntity
  8
Visible (ANSI)
  0
POLYLINE
  5
28D
330
6C
100
AcDbEntity
  8
Visible (ANSI)
100
AcDb2dPolyline
 66
     1
 10
0.0
 20
0.0
 30
0.0
 70
   128
  0
VERTEX
  5
28E
330
28D
100
AcDbEntity
  8
Visible (ANSI)
100
AcDbVertex
100
AcDb2dVertex
 10
125.4583575491141
 20
79.0962263459899
 30
0.0
  0
VERTEX
  5
28F
330
28D
100
AcDbEntity
  8
Visible (ANSI)
100
AcDbVertex
100
AcDb2dVertex
 10
125.4584244577604
 20
79.0938474166715
 30
0.0
  0
VERTEX
  5
291
330
28D
100
AcDbEntity
  8
Visible (ANSI)
100
AcDbVertex
100
AcDb2dVertex
 10
125.4586248971986
 20
79.09146548365446
 30
0.0
  0
VERTEX
  5
292
330
28D
100
AcDbEntity
  8
Visible (ANSI)
100
AcDbVertex
100
AcDb2dVertex
 10
125.4589580091233
 20
79.0890835506374
 30
0.0
  0
VERTEX
  5
293
330
28D
100
AcDbEntity
  8
Visible (ANSI)
100
AcDbVertex
100
AcDb2dVertex
 10
125.4594223670632
 20
79.086704621319
 30
0.0
  0
VERTEX
  5
294
330
28D
100
AcDbEntity
  8
Visible (ANSI)
100
AcDbVertex
100
AcDb2dVertex
 10
125.460015982539
 20
79.08432268830196
 30
0.0
  0
VERTEX
  5
295
330
28D
100
AcDbEntity
  8
Visible (ANSI)
100
AcDbVertex
100
AcDb2dVertex
 10
125.4607363138011
 20
79.08194375898355
 30
0.0
  0
VERTEX
  5
296
330
28D
100
AcDbEntity
  8
Visible (ANSI)
100
AcDbVertex
100
AcDb2dVertex
 10
125.4615802761182
 20
79.07956182596651
 30
0.0
  0
VERTEX
  5
297
330
28D
100
AcDbEntity
  8
Visible (ANSI)
100
AcDbVertex
100
AcDb2dVertex
 10
125.4625442551156
 20
79.07717989294946
 30
0.0
  0
VERTEX
  5
298
330
28D
100
AcDbEntity
  8
Visible (ANSI)
100
AcDbVertex
100
AcDb2dVertex
 10
125.4636241236408
 20
79.07480096363106
 30
0.0
  0
VERTEX
  5
299
330
28D
100
AcDbEntity
  8
Visible (ANSI)
100
AcDbVertex
100
AcDb2dVertex
 10
125.4648152569807
 20
79.07241903061403
 30
0.0
  0
VERTEX
  5
29A
330
28D
100
AcDbEntity
  8
Visible (ANSI)
100
AcDbVertex
100
AcDb2dVertex
 10
125.4661125548609
 20
79.07004010129561
 30
0.0
  0
VERTEX
  5
29B
330
28D
100
AcDbEntity
  8
Visible (ANSI)
100
AcDbVertex
100
AcDb2dVertex
 10
125.4675104619789
 20
79.06765816827858
 30
0.0
  0
VERTEX
  5
29C
330
28D
100
AcDbEntity
  8
Visible (ANSI)
100
AcDbVertex
100
AcDb2dVertex
 10
125.4690029922037
 20
79.06527623526155
 30
0.0
  0
VERTEX
  5
29D
330
28D
100
AcDbEntity
  8
Visible (ANSI)
100
AcDbVertex
100
AcDb2dVertex
 10
125.4705837546092
 20
79.06289730594314
 30
0.0
  0
VERTEX
  5
29E
330
28D
100
AcDbEntity
  8
Visible (ANSI)
100
AcDbVertex
100
AcDb2dVertex
 10
125.4722459798737
 20
79.06051537292611
 30
0.0
  0
VERTEX
  5
29F
330
28D
100
AcDbEntity
  8
Visible (ANSI)
100
AcDbVertex
100
AcDb2dVertex
 10
125.4739825488794
 20
79.05813343990906
 30
0.0
  0
VERTEX
  5
2A0
330
28D
100
AcDbEntity
  8
Visible (ANSI)
100
AcDbVertex
100
AcDb2dVertex
 10
125.4757860279121
 20
79.05575451059066
 30
0.0
  0
VERTEX
  5
2A1
330
28D
100
AcDbEntity
  8
Visible (ANSI)
100
AcDbVertex
100
AcDb2dVertex
 10
125.4776486921278
 20
79.05337257757363
 30
0.0
  0
VERTEX
  5
2A2
330
28D
100
AcDbEntity
  8
Visible (ANSI)
100
AcDbVertex
100
AcDb2dVertex
 10
125.4795625658853
 20
79.05099364825521
 30
0.0
  0
VERTEX
  5
2A3
330
28D
100
AcDbEntity
  8
Visible (ANSI)
100
AcDbVertex
100
AcDb2dVertex
 10
125.4815194535458
 20
79.04861171523818
 30
0.0
  0
VERTEX
  5
2A4
330
28D
100
AcDbEntity
  8
Visible (ANSI)
100
AcDbVertex
100
AcDb2dVertex
 10
125.4835109761395
 20
79.04622978222113
 30
0.0
  0
VERTEX
  5
2A5
330
28D
100
AcDbEntity
  8
Visible (ANSI)
100
AcDbVertex
100
AcDb2dVertex
 10
125.4855286050984
 20
79.04385085290272
 30
0.0
  0
VERTEX
  5
2A6
330
28D
100
AcDbEntity
  8
Visible (ANSI)
100
AcDbVertex
100
AcDb2dVertex
 10
125.4875637018554
 20
79.04146891988569
 30
0.0
  0
VERTEX
  5
2A7
330
28D
100
AcDbEntity
  8
Visible (ANSI)
100
AcDbVertex
100
AcDb2dVertex
 10
125.4896075486447
 20
79.03908999056728
 30
0.0
  0
SEQEND
  5
290
330
28D
100
AcDbEntity
  8
Visible (ANSI)
  0
LINE
  5
2A8
330
6C
100
AcDbEntity
  8
Visible (ANSI)
100
AcDbLine
 10
125.4583575491141
 20
79.09622706687756
 30
0.0
 11
125.4532321472407
 21
79.09622706687757
 31
0.0
  0
LINE
  5
2A9
330
6C
100
AcDbEntity
  8
Visible (ANSI)
100
AcDbLine
 10
125.4532321472407
 20
79.09622706687757
 30
0.0
 11
125.333357549114
 21
79.09622706687756
 31
0.0
  0
LINE
  5
2AA
330
6C
100
AcDbEntity
  8
Visible (ANSI)
100
AcDbLine
 10
125.4896075491141
 20
79.03908871922924
 30
0.0
 11
126.2083575491141
 21
79.03908871922924
 31
0.0
  0
POLYLINE
  5
2AB
330
6C
100
AcDbEntity
  8
Visible (ANSI)
100
AcDb2dPolyline
 66
     1
 10
0.0
 20
0.0
 30
0.0
 70
   128
  0
VERTEX
  5
2AC
330
2AB
100
AcDbEntity
  8
Visible (ANSI)
100
AcDbVertex
100
AcDb2dVertex
 10
125.4896075486447
 20
79.25247574525016
 30
0.0
  0
VERTEX
  5
2AD
330
2AB
100
AcDbEntity
  8
Visible (ANSI)
100
AcDbVertex
100
AcDb2dVertex
 10
125.4793883102982
 20
79.25214233470176
 30
0.0
  0
VERTEX
  5
2AF
330
2AB
100
AcDbEntity
  8
Visible (ANSI)
100
AcDbVertex
100
AcDb2dVertex
 10
125.4692128316462
 20
79.25113909935787
 30
0.0
  0
VERTEX
  5
2B0
330
2AB
100
AcDbEntity
  8
Visible (ANSI)
100
AcDbVertex
100
AcDb2dVertex
 10
125.459124686302
 20
79.24947505031444
 30
0.0
  0
VERTEX
  5
2B1
330
2AB
100
AcDbEntity
  8
Visible (ANSI)
100
AcDbVertex
100
AcDb2dVertex
 10
125.4491670731499
 20
79.2471531912701
 30
0.0
  0
VERTEX
  5
2B2
330
2AB
100
AcDbEntity
  8
Visible (ANSI)
100
AcDbVertex
100
AcDb2dVertex
 10
125.4393826333806
 20
79.24418553701936
 30
0.0
  0
VERTEX
  5
2B3
330
2AB
100
AcDbEntity
  8
Visible (ANSI)
100
AcDbVertex
100
AcDb2dVertex
 10
125.4298132631268
 20
79.24058410235677
 30
0.0
  0
VERTEX
  5
2B4
330
2AB
100
AcDbEntity
  8
Visible (ANSI)
100
AcDbVertex
100
AcDb2dVertex
 10
125.4204999405817
 20
79.2363639057755
 30
0.0
  0
VERTEX
  5
2B5
330
2AB
100
AcDbEntity
  8
Visible (ANSI)
100
AcDbVertex
100
AcDb2dVertex
 10
125.4114825498181
 20
79.23154296946737
 30
0.0
  0
VERTEX
  5
2B6
330
2AB
100
AcDbEntity
  8
Visible (ANSI)
100
AcDbVertex
100
AcDb2dVertex
 10
125.4027997018564
 20
79.22614532302145
 30
0.0
  0
VERTEX
  5
2B7
330
2AB
100
AcDbEntity
  8
Visible (ANSI)
100
AcDbVertex
100
AcDb2dVertex
 10
125.3944885733339
 20
79.22018898862953
 30
0.0
  0
VERTEX
  5
2B8
330
2AB
100
AcDbEntity
  8
Visible (ANSI)
100
AcDbVertex
100
AcDb2dVertex
 10
125.3865847627728
 20
79.21370099957933
 30
0.0
  0
VERTEX
  5
2B9
330
2AB
100
AcDbEntity
  8
Visible (ANSI)
100
AcDbVertex
100
AcDb2dVertex
 10
125.3791221145819
 20
79.20671139285722
 30
0.0
  0
VERTEX
  5
2BA
330
2AB
100
AcDbEntity
  8
Visible (ANSI)
100
AcDbVertex
100
AcDb2dVertex
 10
125.372132578259
 20
79.19925020544948
 30
0.0
  0
VERTEX
  5
2BB
330
2AB
100
AcDbEntity
  8
Visible (ANSI)
100
AcDbVertex
100
AcDb2dVertex
 10
125.3656460910581
 20
79.19134747434251
 30
0.0
  0
VERTEX
  5
2BC
330
2AB
100
AcDbEntity
  8
Visible (ANSI)
100
AcDbVertex
100
AcDb2dVertex
 10
125.3596904254584
 20
79.18303624022124
 30
0.0
  0
VERTEX
  5
2BD
330
2AB
100
AcDbEntity
  8
Visible (ANSI)
100
AcDbVertex
100
AcDb2dVertex
 10
125.3542910776988
 20
79.17435254746933
 30
0.0
  0
VERTEX
  5
2BE
330
2AB
100
AcDbEntity
  8
Visible (ANSI)
100
AcDbVertex
100
AcDb2dVertex
 10
125.3494711856453
 20
79.16533544416902
 30
0.0
  0
VERTEX
  5
2BF
330
2AB
100
AcDbEntity
  8
Visible (ANSI)
100
AcDbVertex
100
AcDb2dVertex
 10
125.3452513762596
 20
79.1560209747039
 30
0.0
  0
VERTEX
  5
2C0
330
2AB
100
AcDbEntity
  8
Visible (ANSI)
100
AcDbVertex
100
AcDb2dVertex
 10
125.3416497186662
 20
79.14645119085486
 30
0.0
  0
VERTEX
  5
2C1
330
2AB
100
AcDbEntity
  8
Visible (ANSI)
100
AcDbVertex
100
AcDb2dVertex
 10
125.3386816420204
 20
79.13666814440279
 30
0.0
  0
VERTEX
  5
2C2
330
2AB
100
AcDbEntity
  8
Visible (ANSI)
100
AcDbVertex
100
AcDb2dVertex
 10
125.3363598533752
 20
79.12671088342989
 30
0.0
  0
VERTEX
  5
2C3
330
2AB
100
AcDbEntity
  8
Visible (ANSI)
100
AcDbVertex
100
AcDb2dVertex
 10
125.3346942907493
 20
79.11662145971712
 30
0.0
  0
VERTEX
  5
2C4
330
2AB
100
AcDbEntity
  8
Visible (ANSI)
100
AcDbVertex
100
AcDb2dVertex
 10
125.3336920879268
 20
79.10644492874395
 30
0.0
  0
VERTEX
  5
2C5
330
2AB
100
AcDbEntity
  8
Visible (ANSI)
100
AcDbVertex
100
AcDb2dVertex
 10
125.3333575509914
 20
79.0962263459899
 30
0.0
  0
SEQEND
  5
2AE
330
2AB
100
AcDbEntity
  8
Visible (ANSI)
  0
LINE
  5
2C6
330
6C
100
AcDbEntity
  8
Visible (ANSI)
100
AcDbLine
 10
125.4896075491141
 20
79.12747706687757
 30
0.0
 11
126.2083575491141
 21
79.12747706687757
 31
0.0
  0
LINE
  5
2C7
330
6C
100
AcDbEntity
  8
Visible (ANSI)
100
AcDbLine
 10
126.2083575491141
 20
79.25247706687757
 30
0.0
 11
125.4896075491141
 21
79.25247706687757
 31
0.0
  0
LINE
  5
2C8
330
6C
100
AcDbEntity
  8
Visible (ANSI)
100
AcDbLine
 10
125.4896075491141
 20
79.12747706687757
 30
0.0
 11
125.4896075491141
 21
79.25247706687757
 31
0.0
  0
LINE
  5
2C9
330
6C
100
AcDbEntity
  8
Visible (ANSI)
100
AcDbLine
 10
126.2083575491141
 20
79.12747706687757
 30
0.0
 11
126.2083575491141
 21
79.25247706687757
 31
0.0
  0
POLYLINE
  5
2CA
330
6C
100
AcDbEntity
  8
Visible (ANSI)
100
AcDb2dPolyline
 66
     1
 10
0.0
 20
0.0
 30
0.0
 70
   128
  0
VERTEX
  5
2CB
330
2CA
100
AcDbEntity
  8
Visible (ANSI)
100
AcDbVertex
100
AcDb2dVertex
 10
125.4583575491141
 20
79.0962263459899
 30
0.0
  0
VERTEX
  5
2CC
330
2CA
100
AcDbEntity
  8
Visible (ANSI)
100
AcDbVertex
100
AcDb2dVertex
 10
125.4584244577604
 20
79.0982718647599
 30
0.0
  0
VERTEX
  5
2CE
330
2CA
100
AcDbEntity
  8
Visible (ANSI)
100
AcDbVertex
100
AcDb2dVertex
 10
125.4586248971986
 20
79.10030536873533
 30
0.0
  0
VERTEX
  5
2CF
330
2CA
100
AcDbEntity
  8
Visible (ANSI)
100
AcDbVertex
100
AcDb2dVertex
 10
125.4589580091233
 20
79.10232385421761
 30
0.0
  0
VERTEX
  5
2D0
330
2CA
100
AcDbEntity
  8
Visible (ANSI)
100
AcDbVertex
100
AcDb2dVertex
 10
125.4594223670632
 20
79.10431530641218
 30
0.0
  0
VERTEX
  5
2D1
330
2CA
100
AcDbEntity
  8
Visible (ANSI)
100
AcDbVertex
100
AcDb2dVertex
 10
125.460015982539
 20
79.10627071422317
 30
0.0
  0
VERTEX
  5
2D2
330
2CA
100
AcDbEntity
  8
Visible (ANSI)
100
AcDbVertex
100
AcDb2dVertex
 10
125.460736313801
 20
79.10818707395188
 30
0.0
  0
VERTEX
  5
2D3
330
2CA
100
AcDbEntity
  8
Visible (ANSI)
100
AcDbVertex
100
AcDb2dVertex
 10
125.4615802761182
 20
79.11004936710516
 30
0.0
  0
VERTEX
  5
2D4
330
2CA
100
AcDbEntity
  8
Visible (ANSI)
100
AcDbVertex
100
AcDb2dVertex
 10
125.4625442551155
 20
79.1118515862858
 30
0.0
  0
VERTEX
  5
2D5
330
2CA
100
AcDbEntity
  8
Visible (ANSI)
100
AcDbVertex
100
AcDb2dVertex
 10
125.4636241236408
 20
79.11358772409643
 30
0.0
  0
VERTEX
  5
2D6
330
2CA
100
AcDbEntity
  8
Visible (ANSI)
100
AcDbVertex
100
AcDb2dVertex
 10
125.4648152569807
 20
79.11525177313986
 30
0.0
  0
VERTEX
  5
2D7
330
2CA
100
AcDbEntity
  8
Visible (ANSI)
100
AcDbVertex
100
AcDb2dVertex
 10
125.4661125548609
 20
79.11683171862152
 30
0.0
  0
VERTEX
  5
2D8
330
2CA
100
AcDbEntity
  8
Visible (ANSI)
100
AcDbVertex
100
AcDb2dVertex
 10
125.4675104619788
 20
79.1183245568428
 30
0.0
  0
VERTEX
  5
2D9
330
2CA
100
AcDbEntity
  8
Visible (ANSI)
100
AcDbVertex
100
AcDb2dVertex
 10
125.4690029922037
 20
79.11972127670778
 30
0.0
  0
VERTEX
  5
2DA
330
2CA
100
AcDbEntity
  8
Visible (ANSI)
100
AcDbVertex
100
AcDb2dVertex
 10
125.4705837546092
 20
79.12101887451782
 30
0.0
  0
VERTEX
  5
2DB
330
2CA
100
AcDbEntity
  8
Visible (ANSI)
100
AcDbVertex
100
AcDb2dVertex
 10
125.4722459798737
 20
79.12221134287564
 30
0.0
  0
VERTEX
  5
2DC
330
2CA
100
AcDbEntity
  8
Visible (ANSI)
100
AcDbVertex
100
AcDb2dVertex
 10
125.4739825488794
 20
79.12328967068539
 30
0.0
  0
VERTEX
  5
2DD
330
2CA
100
AcDbEntity
  8
Visible (ANSI)
100
AcDbVertex
100
AcDb2dVertex
 10
125.4757860279121
 20
79.12425385794701
 30
0.0
  0
VERTEX
  5
2DE
330
2CA
100
AcDbEntity
  8
Visible (ANSI)
100
AcDbVertex
100
AcDb2dVertex
 10
125.4776486921278
 20
79.12509789726326
 30
0.0
  0
VERTEX
  5
2DF
330
2CA
100
AcDbEntity
  8
Visible (ANSI)
100
AcDbVertex
100
AcDb2dVertex
 10
125.4795625658852
 20
79.12581878493551
 30
0.0
  0
VERTEX
  5
2E0
330
2CA
100
AcDbEntity
  8
Visible (ANSI)
100
AcDbVertex
100
AcDb2dVertex
 10
125.4815194535458
 20
79.1264135172651
 30
0.0
  0
VERTEX
  5
2E1
330
2CA
100
AcDbEntity
  8
Visible (ANSI)
100
AcDbVertex
100
AcDb2dVertex
 10
125.4835109761395
 20
79.12687608685479
 30
0.0
  0
VERTEX
  5
2E2
330
2CA
100
AcDbEntity
  8
Visible (ANSI)
100
AcDbVertex
100
AcDb2dVertex
 10
125.4855286050984
 20
79.12720949740322
 30
0.0
  0
VERTEX
  5
2E3
330
2CA
100
AcDbEntity
  8
Visible (ANSI)
100
AcDbVertex
100
AcDb2dVertex
 10
125.4875637018554
 20
79.12741074521171
 30
0.0
  0
VERTEX
  5
2E4
330
2CA
100
AcDbEntity
  8
Visible (ANSI)
100
AcDbVertex
100
AcDb2dVertex
 10
125.4896075486447
 20
79.12747682658167
 30
0.0
  0
SEQEND
  5
2CD
330
2CA
100
AcDbEntity
  8
Visible (ANSI)
  0
LINE
  5
2E5
330
6C
100
AcDbEntity
  8
Visible (ANSI)
100
AcDbLine
 10
125.333357549114
 20
41.40872706687757
 30
0.0
 11
125.333357549114
 21
79.09622706687756
 31
0.0
  0
LINE
  5
2E6
330
6C
100
AcDbEntity
  8
Visible (ANSI)
100
AcDbLine
 10
126.2083575491141
 20
79.03908871922924
 30
0.0
 11
126.2083575491141
 21
41.4658654145259
 31
0.0
  0
DIMENSION
  5
2E7
330
6C
100
AcDbEntity
  8
Dimension (ANSI)
100
AcDbDimension
280
     0
  2
*D4
 10
14.53883465405944
 20
79.25247706687759
 30
0.0
 11
14.53883465405943
 21
60.25247706687757
 31
0.0
 70
   160
  1
<>
 42
38.00000000000002
 73
     0
 74
     0
 75
     0
  3
Default (ANSI)
100
AcDbAlignedDimension
 13
34.46009449657911
 23
41.25247706687757
 33
0.0
 14
34.46009449657911
 24
79.25247706687757
 34
0.0
 50
90.0
100
AcDbRotatedDimension
1001
ACAD
1000
DSTYLE
1002
{
1070
   289
1070
     1
1070
   271
1070
     2
1070
   272
1070
     2
1070
    48
1040
0.0
1070
    47
1040
0.0
1002
}
  0
DIMENSION
  5
3D4
330
6C
100
AcDbEntity
  8
Dimension (ANSI)
100
AcDbDimension
280
     0
  2
*D5
 10
29.41579229380223
 20
60.25247706687756
 30
0.0
 11
29.41579229380222
 21
51.18997706687756
 31
0.0
 70
   160
  1
<>
 42
18.125
 73
     0
 74
     0
 75
     0
  3
Default (ANSI)
100
AcDbAlignedDimension
 13
35.12170614893078
 23
42.12747706687756
 33
0.0
 14
35.12170614893078
 24
60.25247706687756
 34
0.0
 50
90.0
100
AcDbRotatedDimension
1001
ACAD
1000
DSTYLE
1002
{
1070
   289
1070
     1
1070
   271
1070
     2
1070
   272
1070
     3
1070
    48
1040
0.0
1070
    47
1040
0.0
1002
}
  0
DIMENSION
  5
4C4
330
6C
100
AcDbEntity
  8
Dimension (ANSI)
100
AcDbDimension
280
     0
  2
*D6
 10
22.9957218969623
 20
78.37747706687757
 30
0.0
 11
22.99572189696228
 21
60.25247706687756
 31
0.0
 70
   160
  1
<>
 42
36.25000000000001
 73
     0
 74
     0
 75
     0
  3
Default (ANSI)
100
AcDbAlignedDimension
 13
35.12170614893078
 23
42.12747706687756
 33
0.0
 14
35.12170614893078
 24
78.37747706687756
 34
0.0
 50
90.0
100
AcDbRotatedDimension
1001
ACAD
1000
DSTYLE
1002
{
1070
   289
1070
     1
1070
   271
1070
     2
1070
   272
1070
     3
1070
    48
1040
0.0
1070
    47
1040
0.0
1002
}
  0
DIMENSION
  5
5AE
330
6C
100
AcDbEntity
  8
Dimension (ANSI)
100
AcDbDimension
280
     0
  2
*D7
 10
90.24670614893079
 20
91.16507297119774
 30
0.0
 11
62.24670614893079
 21
91.16507297119774
 31
0.0
 70
   160
  1
<>
 42
56.0
 73
     0
 74
     0
 75
     0
  3
Default (ANSI)
100
AcDbAlignedDimension
 13
34.24670614893079
 23
79.03908871922924
 33
0.0
 14
90.24670614893079
 24
79.03908871922924
 34
0.0
100
AcDbRotatedDimension
1001
ACAD
1000
DSTYLE
1002
{
1070
   289
1070
     1
1070
    73
1070
     0
1070
    74
1070
     0
1070
   271
1070
     2
1070
   272
1070
     2
1070
    48
1040
0.0
1070
    47
1040
0.0
1002
}
  0
DIMENSION
  5
698
330
6C
100
AcDbEntity
  8
Dimension (ANSI)
100
AcDbDimension
280
     0
  2
*D8
 10
89.37170614893078
 20
86.54256314091369
 30
0.0
 11
62.24670614893078
 21
86.54256314091369
 31
0.0
 70
   160
  1
<>
 42
54.25
 73
     0
 74
     0
 75
     0
  3
Default (ANSI)
100
AcDbAlignedDimension
 13
35.12170614893078
 23
78.37747706687756
 33
0.0
 14
89.37170614893078
 24
78.37747706687756
 34
0.0
 50
180.0
100
AcDbRotatedDimension
1001
ACAD
1000
DSTYLE
1002
{
1070
   289
1070
     1
1070
    73
1070
     0
1070
    74
1070
     0
1070
   271
1070
     2
1070
   272
1070
     3
1070
    48
1040
0.0
1070
    47
1040
0.0
1002
}
  0
DIMENSION
  5
782
330
6C
100
AcDbEntity
  8
Dimension (ANSI)
100
AcDbDimension
280
     0
  2
*D9
 10
62.24670614893078
 20
82.2826652800119
 30
0.0
 11
48.68420614893079
 21
82.2826652800119
 31
0.0
 70
   160
  1
<>
 42
27.125
 73
     0
 74
     0
 75
     0
  3
Default (ANSI)
100
AcDbAlignedDimension
 13
35.12170614893078
 23
78.37747706687756
 33
0.0
 14
62.24670614893078
 24
78.37747706687756
 34
0.0
 50
180.0
100
AcDbRotatedDimension
1001
ACAD
1000
DSTYLE
1002
{
1070
   289
1070
     1
1070
    73
1070
     0
1070
    74
1070
     0
1070
   271
1070
     2
1070
   272
1070
     3
1070
    48
1040
0.0
1070
    47
1040
0.0
1002
}
  0
DIMENSION
  5
86C
330
6C
100
AcDbEntity
  8
Dimension (ANSI)
100
AcDbDimension
280
     0
  2
*D10
 10
97.91722336490947
 20
42.12747706687757
 30
0.0
 11
97.99798237773023
 21
37.06282647460496
 31
0.0
 70
   160
  1
<>{ \PTYP.}
 42
0.8749999999999928
 73
     0
 74
     0
 75
     0
  3
Default (ANSI)
100
AcDbAlignedDimension
 13
90.03331780128247
 23
41.25247706687757
 33
0.0
 14
89.3717061489308
 24
42.12747706687757
 34
0.0
 50
90.0
100
AcDbRotatedDimension
1001
ACAD
1000
DSTYLE
1002
{
1070
   289
1070
     1
1070
   279
1070
     1
1070
   145
1040
-0.25
1070
   271
1070
     2
1070
   272
1070
     2
1070
    48
1040
0.0
1070
    47
1040
0.0
1002
}
  0
DIMENSION
  5
984
330
6C
100
AcDbEntity
  8
Dimension (ANSI)
100
AcDbDimension
280
     0
  2
*D11
 10
89.3717061489308
 20
38.01069360125949
 30
0.0
 11
84.50670112931859
 21
38.01069360125949
 31
0.0
 70
   160
  1
<>{\PTYP.}
 42
0.8749999999999857
 73
     0
 74
     0
 75
     0
  3
Default (ANSI)
100
AcDbAlignedDimension
 13
90.24670614893079
 23
41.4658654145259
 33
0.0
 14
89.3717061489308
 24
42.12747706687757
 34
0.0
 50
180.0
100
AcDbRotatedDimension
1001
ACAD
1000
DSTYLE
1002
{
1070
   289
1070
     1
1070
    73
1070
     0
1070
    74
1070
     0
1070
   145
1040
-0.25
1070
   271
1070
     2
1070
   272
1070
     2
1070
    48
1040
0.0
1070
    47
1040
0.0
1002
}
  0
DIMENSION
  5
A82
330
6C
100
AcDbEntity
  8
Dimension (ANSI)
100
AcDbDimension
280
     0
  2
*D12
 10
126.2083575491141
 20
82.40208336609013
 30
0.0
 11
120.5702407092809
 21
82.40208336609013
 31
0.0
 70
   160
  1
<>
 42
0.8749999999999857
 73
     0
 74
     0
 75
     0
  3
Default (ANSI)
100
AcDbAlignedDimension
 13
125.3333575491141
 23
79.09622706687757
 33
0.0
 14
126.2083575491141
 24
79.25247706687757
 34
0.0
100
AcDbRotatedDimension
1001
ACAD
1000
DSTYLE
1002
{
1070
   289
1070
     1
1070
    73
1070
     0
1070
    74
1070
     0
1070
   271
1070
     2
1070
   272
1070
     2
1070
    48
1040
0.0
1070
    47
1040
0.0
1002
}
  0
ELLIPSE
  5
B6C
330
6C
100
AcDbEntity
  8
Visible (ANSI)
100
AcDbEllipse
 10
162.4093652570576
 20
54.15058583347082
 30
0.0
 11
-0.0965783276981949
 21
0.1677109756264705
 31
0.0
210
0.0
220
0.0
230
1.0
 40
0.5780931159158129
 41
0.0
 42
6.283185307179586
  0
ELLIPSE
  5
B6D
330
6C
100
AcDbEntity
  8
Visible (ANSI)
100
AcDbEllipse
 10
162.4701322460658
 20
54.18557921512487
 30
0.0
 11
-0.0965783276981935
 21
0.1677109756264681
 31
0.0
210
0.0
220
0.0
230
1.0
 40
0.5780931159158129
 41
0.3187556839588916
 42
2.822836969630836
  0
ELLIPSE
  5
B6E
330
6C
100
AcDbEntity
  8
Visible (ANSI)
100
AcDbEllipse
 10
175.5958018718431
 20
56.74442564051535
 30
0.0
 11
-0.0965783276981949
 21
0.1677109756264705
 31
0.0
210
0.0
220
0.0
230
1.0
 40
0.5780931159158129
 41
0.0
 42
6.283185307179586
  0
ELLIPSE
  5
B6F
330
6C
100
AcDbEntity
  8
Visible (ANSI)
100
AcDbEllipse
 10
175.6565688608513
 20
56.77941902216938
 30
0.0
 11
-0.0965783276981953
 21
0.1677109756264712
 31
0.0
210
0.0
220
0.0
230
0.9999999999999998
 40
0.5780931159158129
 41
0.3187556839588481
 42
2.822836969630835
  0
ELLIPSE
  5
B70
330
6C
100
AcDbEntity
  8
Visible (ANSI)
100
AcDbEllipse
 10
175.5958018718431
 20
46.55702201454777
 30
0.0
 11
-0.0965783276981949
 21
0.1677109756264705
 31
0.0
210
0.0
220
0.0
230
1.0
 40
0.5780931159158129
 41
0.0
 42
6.283185307179586
  0
ELLIPSE
  5
B71
330
6C
100
AcDbEntity
  8
Visible (ANSI)
100
AcDbEllipse
 10
175.6565688608513
 20
46.5920153962018
 30
0.0
 11
-0.0965783276981954
 21
0.1677109756264715
 31
0.0
210
0.0
220
0.0
230
0.9999999999999998
 40
0.5780931159158128
 41
0.3187556839588055
 42
2.822836969630835
  0
ELLIPSE
  5
B72
330
6C
100
AcDbEntity
  8
Visible (ANSI)
100
AcDbEllipse
 10
149.2229286422721
 20
61.74414965239389
 30
0.0
 11
-0.0965783276981949
 21
0.1677109756264705
 31
0.0
210
0.0
220
0.0
230
1.0
 40
0.5780931159158129
 41
0.0
 42
6.283185307179586
  0
ELLIPSE
  5
B73
330
6C
100
AcDbEntity
  8
Visible (ANSI)
100
AcDbEllipse
 10
149.2836956312803
 20
61.77914303404794
 30
0.0
 11
-0.0965783276981949
 21
0.1677109756264705
 31
0.0
210
0.0
220
0.0
230
1.0
 40
0.5780931159158129
 41
0.3187556839588481
 42
2.822836969630835
  0
ELLIPSE
  5
B74
330
6C
100
AcDbEntity
  8
Visible (ANSI)
100
AcDbEllipse
 10
149.2229286422721
 20
71.93155327836149
 30
0.0
 11
-0.0965783276981949
 21
0.1677109756264705
 31
0.0
210
0.0
220
0.0
230
1.0
 40
0.5780931159158129
 41
0.0
 42
6.283185307179586
  0
ELLIPSE
  5
B75
330
6C
100
AcDbEntity
  8
Visible (ANSI)
100
AcDbEllipse
 10
149.2836956312803
 20
71.96654666001553
 30
0.0
 11
-0.0965783276981947
 21
0.1677109756264702
 31
0.0
210
0.0
220
0.0
230
1.0
 40
0.5780931159158129
 41
0.3187556839588485
 42
2.822836969630857
  0
ELLIPSE
  5
B76
330
6C
100
AcDbEntity
  8
Visible (ANSI)
100
AcDbEllipse
 10
175.5958018718431
 20
66.93182926648292
 30
0.0
 11
-0.0965783276981949
 21
0.1677109756264705
 31
0.0
210
0.0
220
0.0
230
1.0
 40
0.5780931159158129
 41
0.0
 42
6.283185307179586
  0
ELLIPSE
  5
B77
330
6C
100
AcDbEntity
  8
Visible (ANSI)
100
AcDbEllipse
 10
175.6565688608513
 20
66.96682264813695
 30
0.0
 11
-0.0965783276981949
 21
0.1677109756264704
 31
0.0
210
0.0
220
0.0
230
1.0
 40
0.5780931159158129
 41
0.3187556839588481
 42
2.822836969630835
  0
ELLIPSE
  5
B78
330
6C
100
AcDbEntity
  8
Visible (ANSI)
100
AcDbEllipse
 10
162.4093652570576
 20
74.52539308540599
 30
0.0
 11
-0.0965783276981949
 21
0.1677109756264705
 31
0.0
210
0.0
220
0.0
230
1.0
 40
0.5780931159158129
 41
0.0
 42
6.283185307179586
  0
ELLIPSE
  5
B79
330
6C
100
AcDbEntity
  8
Visible (ANSI)
100
AcDbEllipse
 10
162.4701322460658
 20
74.56038646706002
 30
0.0
 11
-0.0965783276981931
 21
0.1677109756264675
 31
0.0
210
0.0
220
0.0
230
0.9999999999999998
 40
0.5780931159158129
 41
0.3187556839588481
 42
2.822836969630857
  0
ELLIPSE
  5
B7A
330
6C
100
AcDbEntity
  8
Visible (ANSI)
100
AcDbEllipse
 10
149.2229286422721
 20
82.11895690432907
 30
0.0
 11
-0.0965783276981949
 21
0.1677109756264705
 31
0.0
210
0.0
220
0.0
230
1.0
 40
0.5780931159158129
 41
0.0
 42
6.283185307179586
  0
ELLIPSE
  5
B7B
330
6C
100
AcDbEntity
  8
Visible (ANSI)
100
AcDbEllipse
 10
149.2836956312803
 20
82.1539502859831
 30
0.0
 11
-0.0965783276981947
 21
0.1677109756264702
 31
0.0
210
0.0
220
0.0
230
1.0
 40
0.5780931159158129
 41
0.3187556839588485
 42
2.822836969630857
  0
POLYLINE
  5
B7C
330
6C
100
AcDbEntity
  8
Visible (ANSI)
100
AcDb2dPolyline
 66
     1
 10
0.0
 20
0.0
 30
0.0
 70
   128
  0
VERTEX
  5
B7D
330
B7C
100
AcDbEntity
  8
Visible (ANSI)
100
AcDbVertex
100
AcDb2dVertex
 10
175.9452119427366
 20
45.9518268892772
 30
0.0
  0
VERTEX
  5
B7E
330
B7C
100
AcDbEntity
  8
Visible (ANSI)
100
AcDbVertex
100
AcDb2dVertex
 10
175.9442180901809
 20
45.94684265294647
 30
0.0
  0
VERTEX
  5
B80
330
B7C
100
AcDbEntity
  8
Visible (ANSI)
100
AcDbVertex
100
AcDb2dVertex
 10
175.9435458935785
 20
45.94207160808529
 30
0.0
  0
VERTEX
  5
B81
330
B7C
100
AcDbEntity
  8
Visible (ANSI)
100
AcDbVertex
100
AcDb2dVertex
 10
175.9431991004109
 20
45.93753367221903
 30
0.0
  0
VERTEX
  5
B82
330
B7C
100
AcDbEntity
  8
Visible (ANSI)
100
AcDbVertex
100
AcDb2dVertex
 10
175.9431713222776
 20
45.9332528120871
 30
0.0
  0
VERTEX
  5
B83
330
B7C
100
AcDbEntity
  8
Visible (ANSI)
100
AcDbVertex
100
AcDb2dVertex
 10
175.9434577279509
 20
45.92925021108811
 30
0.0
  0
VERTEX
  5
B84
330
B7C
100
AcDbEntity
  8
Visible (ANSI)
100
AcDbVertex
100
AcDb2dVertex
 10
175.9440492196645
 20
45.92554754701544
 30
0.0
  0
VERTEX
  5
B85
330
B7C
100
AcDbEntity
  8
Visible (ANSI)
100
AcDbVertex
100
AcDb2dVertex
 10
175.9449441375751
 20
45.92216016277428
 30
0.0
  0
VERTEX
  5
B86
330
B7C
100
AcDbEntity
  8
Visible (ANSI)
100
AcDbVertex
100
AcDb2dVertex
 10
175.9461307772206
 20
45.91910710405307
 30
0.0
  0
VERTEX
  5
B87
330
B7C
100
AcDbEntity
  8
Visible (ANSI)
100
AcDbVertex
100
AcDb2dVertex
 10
175.9475961906828
 20
45.91640597835023
 30
0.0
  0
VERTEX
  5
B88
330
B7C
100
AcDbEntity
  8
Visible (ANSI)
100
AcDbVertex
100
AcDb2dVertex
 10
175.9493349706371
 20
45.91406784371574
 30
0.0
  0
VERTEX
  5
B89
330
B7C
100
AcDbEntity
  8
Visible (ANSI)
100
AcDbVertex
100
AcDb2dVertex
 10
175.9513318020347
 20
45.91210724634628
 30
0.0
  0
VERTEX
  5
B8A
330
B7C
100
AcDbEntity
  8
Visible (ANSI)
100
AcDbVertex
100
AcDb2dVertex
 10
175.9535702632645
 20
45.91053711753199
 30
0.0
  0
VERTEX
  5
B8B
330
B7C
100
AcDbEntity
  8
Visible (ANSI)
100
AcDbVertex
100
AcDb2dVertex
 10
175.9560416415752
 20
45.90936367386906
 30
0.0
  0
VERTEX
  5
B8C
330
B7C
100
AcDbEntity
  8
Visible (ANSI)
100
AcDbVertex
100
AcDb2dVertex
 10
175.9587274847572
 20
45.90859647628784
 30
0.0
  0
VERTEX
  5
B8D
330
B7C
100
AcDbEntity
  8
Visible (ANSI)
100
AcDbVertex
100
AcDb2dVertex
 10
175.9616084194163
 20
45.90824334509727
 30
0.0
  0
VERTEX
  5
B8E
330
B7C
100
AcDbEntity
  8
Visible (ANSI)
100
AcDbVertex
100
AcDb2dVertex
 10
175.9646729806555
 20
45.90830528242302
 30
0.0
  0
VERTEX
  5
B8F
330
B7C
100
AcDbEntity
  8
Visible (ANSI)
100
AcDbVertex
100
AcDb2dVertex
 10
175.9679001751649
 20
45.90878656006249
 30
0.0
  0
VERTEX
  5
B90
330
B7C
100
AcDbEntity
  8
Visible (ANSI)
100
AcDbVertex
100
AcDb2dVertex
 10
175.9712712327408
 20
45.90968796882218
 30
0.0
  0
VERTEX
  5
B91
330
B7C
100
AcDbEntity
  8
Visible (ANSI)
100
AcDbVertex
100
AcDb2dVertex
 10
175.9747638438915
 20
45.91101018184913
 30
0.0
  0
VERTEX
  5
B92
330
B7C
100
AcDbEntity
  8
Visible (ANSI)
100
AcDbVertex
100
AcDb2dVertex
 10
175.9783639284689
 20
45.91274703278234
 30
0.0
  0
VERTEX
  5
B93
330
B7C
100
AcDbEntity
  8
Visible (ANSI)
100
AcDbVertex
100
AcDb2dVertex
 10
175.9820481988466
 20
45.91489561798227
 30
0.0
  0
VERTEX
  5
B94
330
B7C
100
AcDbEntity
  8
Visible (ANSI)
100
AcDbVertex
100
AcDb2dVertex
 10
175.9857930051991
 20
45.91745127004383
 30
0.0
  0
VERTEX
  5
B95
330
B7C
100
AcDbEntity
  8
Visible (ANSI)
100
AcDbVertex
100
AcDb2dVertex
 10
175.9895831878203
 20
45.92040254096693
 30
0.0
  0
VERTEX
  5
B96
330
B7C
100
AcDbEntity
  8
Visible (ANSI)
100
AcDbVertex
100
AcDb2dVertex
 10
175.9933946436006
 20
45.9237413262883
 30
0.0
  0
SEQEND
  5
B7F
330
B7C
100
AcDbEntity
  8
Visible (ANSI)
  0
POLYLINE
  5
B97
330
6C
100
AcDbEntity
  8
Visible (ANSI)
100
AcDb2dPolyline
 66
     1
 10
0.0
 20
0.0
 30
0.0
 70
   128
  0
VERTEX
  5
B98
330
B97
100
AcDbEntity
  8
Visible (ANSI)
100
AcDbVertex
100
AcDb2dVertex
 10
148.9097929127813
 20
61.48401251214369
 30
0.0
  0
VERTEX
  5
B99
330
B97
100
AcDbEntity
  8
Visible (ANSI)
100
AcDbVertex
100
AcDb2dVertex
 10
148.907476541588
 20
61.48541311788208
 30
0.0
  0
VERTEX
  5
B9B
330
B97
100
AcDbEntity
  8
Visible (ANSI)
100
AcDbVertex
100
AcDb2dVertex
 10
148.9052197251153
 20
61.48691275020149
 30
0.0
  0
VERTEX
  5
B9C
330
B97
100
AcDbEntity
  8
Visible (ANSI)
100
AcDbVertex
100
AcDb2dVertex
 10
148.9030242715087
 20
61.48851015535182
 30
0.0
  0
VERTEX
  5
B9D
330
B97
100
AcDbEntity
  8
Visible (ANSI)
100
AcDbVertex
100
AcDb2dVertex
 10
148.9008919119107
 20
61.49020397258926
 30
0.0
  0
VERTEX
  5
B9E
330
B97
100
AcDbEntity
  8
Visible (ANSI)
100
AcDbVertex
100
AcDb2dVertex
 10
148.8988243232762
 20
61.49199274401755
 30
0.0
  0
VERTEX
  5
B9F
330
B97
100
AcDbEntity
  8
Visible (ANSI)
100
AcDbVertex
100
AcDb2dVertex
 10
148.8968230998535
 20
61.49387489486725
 30
0.0
  0
VERTEX
  5
BA0
330
B97
100
AcDbEntity
  8
Visible (ANSI)
100
AcDbVertex
100
AcDb2dVertex
 10
148.8948897759993
 20
61.49584876641876
 30
0.0
  0
VERTEX
  5
BA1
330
B97
100
AcDbEntity
  8
Visible (ANSI)
100
AcDbVertex
100
AcDb2dVertex
 10
148.8930258062155
 20
61.49791259131641
 30
0.0
  0
VERTEX
  5
BA2
330
B97
100
AcDbEntity
  8
Visible (ANSI)
100
AcDbVertex
100
AcDb2dVertex
 10
148.8912325765568
 20
61.50006451003005
 30
0.0
  0
VERTEX
  5
BA3
330
B97
100
AcDbEntity
  8
Visible (ANSI)
100
AcDbVertex
100
AcDb2dVertex
 10
148.889511381815
 20
61.50230256101366
 30
0.0
  0
VERTEX
  5
BA4
330
B97
100
AcDbEntity
  8
Visible (ANSI)
100
AcDbVertex
100
AcDb2dVertex
 10
148.8878634597427
 20
61.50462470371089
 30
0.0
  0
VERTEX
  5
BA5
330
B97
100
AcDbEntity
  8
Visible (ANSI)
100
AcDbVertex
100
AcDb2dVertex
 10
148.8862899568296
 20
61.50702879554958
 30
0.0
  0
VERTEX
  5
BA6
330
B97
100
AcDbEntity
  8
Visible (ANSI)
100
AcDbVertex
100
AcDb2dVertex
 10
148.8847919397103
 20
61.50951260510586
 30
0.0
  0
VERTEX
  5
BA7
330
B97
100
AcDbEntity
  8
Visible (ANSI)
100
AcDbVertex
100
AcDb2dVertex
 10
148.8833703951646
 20
61.51207381869904
 30
0.0
  0
VERTEX
  5
BA8
330
B97
100
AcDbEntity
  8
Visible (ANSI)
100
AcDbVertex
100
AcDb2dVertex
 10
148.8820262301171
 20
61.51471004698636
 30
0.0
  0
VERTEX
  5
BA9
330
B97
100
AcDbEntity
  8
Visible (ANSI)
100
AcDbVertex
100
AcDb2dVertex
 10
148.8807602716376
 20
61.5174188051786
 30
0.0
  0
VERTEX
  5
BAA
330
B97
100
AcDbEntity
  8
Visible (ANSI)
100
AcDbVertex
100
AcDb2dVertex
 10
148.8795732498288
 20
61.52019754605227
 30
0.0
  0
VERTEX
  5
BAB
330
B97
100
AcDbEntity
  8
Visible (ANSI)
100
AcDbVertex
100
AcDb2dVertex
 10
148.8784658263465
 20
61.52304363020936
 30
0.0
  0
VERTEX
  5
BAC
330
B97
100
AcDbEntity
  8
Visible (ANSI)
100
AcDbVertex
100
AcDb2dVertex
 10
148.8774385601758
 20
61.52595435912772
 30
0.0
  0
VERTEX
  5
BAD
330
B97
100
AcDbEntity
  8
Visible (ANSI)
100
AcDbVertex
100
AcDb2dVertex
 10
148.8764919418546
 20
61.52892696189508
 30
0.0
  0
VERTEX
  5
BAE
330
B97
100
AcDbEntity
  8
Visible (ANSI)
100
AcDbVertex
100
AcDb2dVertex
 10
148.875626353546
 20
61.53195859200079
 30
0.0
  0
VERTEX
  5
BAF
330
B97
100
AcDbEntity
  8
Visible (ANSI)
100
AcDbVertex
100
AcDb2dVertex
 10
148.87484211467
 20
61.53504635361315
 30
0.0
  0
VERTEX
  5
BB0
330
B97
100
AcDbEntity
  8
Visible (ANSI)
100
AcDbVertex
100
AcDb2dVertex
 10
148.8741394362722
 20
61.53818728189685
 30
0.0
  0
VERTEX
  5
BB1
330
B97
100
AcDbEntity
  8
Visible (ANSI)
100
AcDbVertex
100
AcDb2dVertex
 10
148.8735184552466
 20
61.54137834953141
 30
0.0
  0
SEQEND
  5
B9A
330
B97
100
AcDbEntity
  8
Visible (ANSI)
  0
LINE
  5
BB2
330
6C
100
AcDbEntity
  8
Visible (ANSI)
100
AcDbLine
 10
149.2114216911956
 20
61.68640796864684
 30
0.0
 11
149.3266643812802
 21
61.75277182018512
 31
0.0
  0
LINE
  5
BB3
330
6C
100
AcDbEntity
  8
Visible (ANSI)
100
AcDbLine
 10
175.9933937921528
 20
45.94652247439962
 30
0.0
 11
175.9933937921528
 21
45.92374181686728
 31
0.0
  0
LINE
  5
BB4
330
6C
100
AcDbEntity
  8
Visible (ANSI)
100
AcDbLine
 10
175.9933937921528
 20
45.92374181686728
 30
0.0
 11
176.0563662859099
 21
45.96000526423757
 31
0.0
  0
LINE
  5
BB5
330
6C
100
AcDbEntity
  8
Visible (ANSI)
100
AcDbLine
 10
176.0952955746063
 20
45.98242315064442
 30
0.0
 11
176.3428039789499
 21
46.12495376137799
 31
0.0
  0
LINE
  5
BB6
330
6C
100
AcDbEntity
  8
Visible (ANSI)
100
AcDbLine
 10
176.3428039789499
 20
46.12541671633166
 30
0.0
 11
176.3428039789499
 21
46.12495376137799
 31
0.0
  0
POLYLINE
  5
BB7
330
6C
100
AcDbEntity
  8
Visible (ANSI)
100
AcDb2dPolyline
 66
     1
 10
0.0
 20
0.0
 30
0.0
 70
   128
  0
VERTEX
  5
BB8
330
BB7
100
AcDbEntity
  8
Visible (ANSI)
100
AcDbVertex
100
AcDb2dVertex
 10
175.9452119427366
 20
67.13460023181986
 30
0.0
  0
VERTEX
  5
BB9
330
BB7
100
AcDbEntity
  8
Visible (ANSI)
100
AcDbVertex
100
AcDb2dVertex
 10
175.950342193202
 20
67.1304961126271
 30
0.0
  0
VERTEX
  5
BBB
330
BB7
100
AcDbEntity
  8
Visible (ANSI)
100
AcDbVertex
100
AcDb2dVertex
 10
175.9557765771515
 20
67.12658898853428
 30
0.0
  0
VERTEX
  5
BBC
330
BB7
100
AcDbEntity
  8
Visible (ANSI)
100
AcDbVertex
100
AcDb2dVertex
 10
175.9614896379508
 20
67.12289279636113
 30
0.0
  0
VERTEX
  5
BBD
330
BB7
100
AcDbEntity
  8
Visible (ANSI)
100
AcDbVertex
100
AcDb2dVertex
 10
175.9674603851419
 20
67.11941731781455
 30
0.0
  0
VERTEX
  5
BBE
330
BB7
100
AcDbEntity
  8
Visible (ANSI)
100
AcDbVertex
100
AcDb2dVertex
 10
175.9736606242048
 20
67.11616984826122
 30
0.0
  0
VERTEX
  5
BBF
330
BB7
100
AcDbEntity
  8
Visible (ANSI)
100
AcDbVertex
100
AcDb2dVertex
 10
175.980060814492
 20
67.11316366096396
 30
0.0
  0
VERTEX
  5
BC0
330
BB7
100
AcDbEntity
  8
Visible (ANSI)
100
AcDbVertex
100
AcDb2dVertex
 10
175.9866417736911
 20
67.11039778704931
 30
0.0
  0
VERTEX
  5
BC1
330
BB7
100
AcDbEntity
  8
Visible (ANSI)
100
AcDbVertex
100
AcDb2dVertex
 10
175.9933684340477
 20
67.10788399216735
 30
0.0
  0
VERTEX
  5
BC2
330
BB7
100
AcDbEntity
  8
Visible (ANSI)
100
AcDbVertex
100
AcDb2dVertex
 10
176.0002132455857
 20
67.10562828064971
 30
0.0
  0
VERTEX
  5
BC3
330
BB7
100
AcDbEntity
  8
Visible (ANSI)
100
AcDbVertex
100
AcDb2dVertex
 10
176.0071503580996
 20
67.10362920734517
 30
0.0
  0
VERTEX
  5
BC4
330
BB7
100
AcDbEntity
  8
Visible (ANSI)
100
AcDbVertex
100
AcDb2dVertex
 10
176.0141440136598
 20
67.10189646522178
 30
0.0
  0
VERTEX
  5
BC5
330
BB7
100
AcDbEntity
  8
Visible (ANSI)
100
AcDbVertex
100
AcDb2dVertex
 10
176.0211719498322
 20
67.10042394817564
 30
0.0
  0
VERTEX
  5
BC6
330
BB7
100
AcDbEntity
  8
Visible (ANSI)
100
AcDbVertex
100
AcDb2dVertex
 10
176.02819624975
 20
67.09921841765582
 30
0.0
  0
VERTEX
  5
BC7
330
BB7
100
AcDbEntity
  8
Visible (ANSI)
100
AcDbVertex
100
AcDb2dVertex
 10
176.0351926203803
 20
67.09827766302389
 30
0.0
  0
VERTEX
  5
BC8
330
BB7
100
AcDbEntity
  8
Visible (ANSI)
100
AcDbVertex
100
AcDb2dVertex
 10
176.0421270862713
 20
67.09759892361666
 30
0.0
  0
VERTEX
  5
BC9
330
BB7
100
AcDbEntity
  8
Visible (ANSI)
100
AcDbVertex
100
AcDb2dVertex
 10
176.0489735804682
 20
67.09717896726205
 30
0.0
  0
VERTEX
  5
BCA
330
BB7
100
AcDbEntity
  8
Visible (ANSI)
100
AcDbVertex
100
AcDb2dVertex
 10
176.055699428015
 20
67.09701748350567
 30
0.0
  0
VERTEX
  5
BCB
330
BB7
100
AcDbEntity
  8
Visible (ANSI)
100
AcDbVertex
100
AcDb2dVertex
 10
176.0622800178847
 20
67.09710365027274
 30
0.0
  0
VERTEX
  5
BCC
330
BB7
100
AcDbEntity
  8
Visible (ANSI)
100
AcDbVertex
100
AcDb2dVertex
 10
176.0686813589396
 20
67.09743808744017
 30
0.0
  0
VERTEX
  5
BCD
330
BB7
100
AcDbEntity
  8
Visible (ANSI)
100
AcDbVertex
100
AcDb2dVertex
 10
176.0748806097967
 20
67.09800762849697
 30
0.0
  0
VERTEX
  5
BCE
330
BB7
100
AcDbEntity
  8
Visible (ANSI)
100
AcDbVertex
100
AcDb2dVertex
 10
176.0808515624185
 20
67.09880559652043
 30
0.0
  0
VERTEX
  5
BCF
330
BB7
100
AcDbEntity
  8
Visible (ANSI)
100
AcDbVertex
100
AcDb2dVertex
 10
176.0865647261559
 20
67.09982678776416
 30
0.0
  0
VERTEX
  5
BD0
330
BB7
100
AcDbEntity
  8
Visible (ANSI)
100
AcDbVertex
100
AcDb2dVertex
 10
176.0919991004799
 20
67.10105573228817
 30
0.0
  0
VERTEX
  5
BD1
330
BB7
100
AcDbEntity
  8
Visible (ANSI)
100
AcDbVertex
100
AcDb2dVertex
 10
176.097130582281
 20
67.10248529008061
 30
0.0
  0
SEQEND
  5
BBA
330
BB7
100
AcDbEntity
  8
Visible (ANSI)
  0
POLYLINE
  5
BD2
330
6C
100
AcDbEntity
  8
Visible (ANSI)
100
AcDb2dPolyline
 66
     1
 10
0.0
 20
0.0
 30
0.0
 70
   128
  0
VERTEX
  5
BD3
330
BD2
100
AcDbEntity
  8
Visible (ANSI)
100
AcDbVertex
100
AcDb2dVertex
 10
176.097130582281
 20
45.98394159882194
 30
0.0
  0
VERTEX
  5
BD4
330
BD2
100
AcDbEntity
  8
Visible (ANSI)
100
AcDbVertex
100
AcDb2dVertex
 10
176.09199910048
 20
45.97983679285646
 30
0.0
  0
VERTEX
  5
BD6
330
BD2
100
AcDbEntity
  8
Visible (ANSI)
100
AcDbVertex
100
AcDb2dVertex
 10
176.0865647261559
 20
45.97593091188958
 30
0.0
  0
VERTEX
  5
BD7
330
BD2
100
AcDbEntity
  8
Visible (ANSI)
100
AcDbVertex
100
AcDb2dVertex
 10
176.0808515624185
 20
45.97223447247279
 30
0.0
  0
VERTEX
  5
BD8
330
BD2
100
AcDbEntity
  8
Visible (ANSI)
100
AcDbVertex
100
AcDb2dVertex
 10
176.0748806097967
 20
45.96875956800645
 30
0.0
  0
VERTEX
  5
BD9
330
BD2
100
AcDbEntity
  8
Visible (ANSI)
100
AcDbVertex
100
AcDb2dVertex
 10
176.0686813589396
 20
45.96551307731717
 30
0.0
  0
VERTEX
  5
BDA
330
BD2
100
AcDbEntity
  8
Visible (ANSI)
100
AcDbVertex
100
AcDb2dVertex
 10
176.0622800178847
 20
45.9625033919767
 30
0.0
  0
VERTEX
  5
BDB
330
BD2
100
AcDbEntity
  8
Visible (ANSI)
100
AcDbVertex
100
AcDb2dVertex
 10
176.055699428015
 20
45.95974028876674
 30
0.0
  0
VERTEX
  5
BDC
330
BD2
100
AcDbEntity
  8
Visible (ANSI)
100
AcDbVertex
100
AcDb2dVertex
 10
176.0489735804682
 20
45.95722652435007
 30
0.0
  0
VERTEX
  5
BDD
330
BD2
100
AcDbEntity
  8
Visible (ANSI)
100
AcDbVertex
100
AcDb2dVertex
 10
176.0421270862713
 20
45.95496953766701
 30
0.0
  0
VERTEX
  5
BDE
330
BD2
100
AcDbEntity
  8
Visible (ANSI)
100
AcDbVertex
100
AcDb2dVertex
 10
176.0351926203803
 20
45.95297134063137
 30
0.0
  0
VERTEX
  5
BDF
330
BD2
100
AcDbEntity
  8
Visible (ANSI)
100
AcDbVertex
100
AcDb2dVertex
 10
176.02819624975
 20
45.95123684709022
 30
0.0
  0
VERTEX
  5
BE0
330
BD2
100
AcDbEntity
  8
Visible (ANSI)
100
AcDbVertex
100
AcDb2dVertex
 10
176.0211719498322
 20
45.94976543457239
 30
0.0
  0
VERTEX
  5
BE1
330
BD2
100
AcDbEntity
  8
Visible (ANSI)
100
AcDbVertex
100
AcDb2dVertex
 10
176.0141440136599
 20
45.94856101517565
 30
0.0
  0
VERTEX
  5
BE2
330
BD2
100
AcDbEntity
  8
Visible (ANSI)
100
AcDbVertex
100
AcDb2dVertex
 10
176.0071503580996
 20
45.9476185025312
 30
0.0
  0
VERTEX
  5
BE3
330
BD2
100
AcDbEntity
  8
Visible (ANSI)
100
AcDbVertex
100
AcDb2dVertex
 10
176.0002132455857
 20
45.94694063939285
 30
0.0
  0
VERTEX
  5
BE4
330
BD2
100
AcDbEntity
  8
Visible (ANSI)
100
AcDbVertex
100
AcDb2dVertex
 10
175.9933684340477
 20
45.94652109614261
 30
0.0
  0
VERTEX
  5
BE5
330
BD2
100
AcDbEntity
  8
Visible (ANSI)
100
AcDbVertex
100
AcDb2dVertex
 10
175.9866417736911
 20
45.94635795458171
 30
0.0
  0
VERTEX
  5
BE6
330
BD2
100
AcDbEntity
  8
Visible (ANSI)
100
AcDbVertex
100
AcDb2dVertex
 10
175.980060814492
 20
45.9464468920535
 30
0.0
  0
VERTEX
  5
BE7
330
BD2
100
AcDbEntity
  8
Visible (ANSI)
100
AcDbVertex
100
AcDb2dVertex
 10
175.9736606242048
 20
45.9467778245829
 30
0.0
  0
VERTEX
  5
BE8
330
BD2
100
AcDbEntity
  8
Visible (ANSI)
100
AcDbVertex
100
AcDb2dVertex
 10
175.9674603851419
 20
45.94734835769336
 30
0.0
  0
VERTEX
  5
BE9
330
BD2
100
AcDbEntity
  8
Visible (ANSI)
100
AcDbVertex
100
AcDb2dVertex
 10
175.9614896379508
 20
45.94814858147207
 30
0.0
  0
VERTEX
  5
BEA
330
BD2
100
AcDbEntity
  8
Visible (ANSI)
100
AcDbVertex
100
AcDb2dVertex
 10
175.9557765771515
 20
45.94916783720235
 30
0.0
  0
VERTEX
  5
BEB
330
BD2
100
AcDbEntity
  8
Visible (ANSI)
100
AcDbVertex
100
AcDb2dVertex
 10
175.950342193202
 20
45.95039802485229
 30
0.0
  0
VERTEX
  5
BEC
330
BD2
100
AcDbEntity
  8
Visible (ANSI)
100
AcDbVertex
100
AcDb2dVertex
 10
175.9452119427366
 20
45.9518268892772
 30
0.0
  0
SEQEND
  5
BD5
330
BD2
100
AcDbEntity
  8
Visible (ANSI)
  0
LINE
  5
BED
330
6C
100
AcDbEntity
  8
Visible (ANSI)
100
AcDbLine
 10
176.0364531965732
 20
67.13753076713302
 30
0.0
 11
176.3857727289499
 21
67.33869050723495
 31
0.0
  0
LINE
  5
BEE
330
6C
100
AcDbEntity
  8
Visible (ANSI)
100
AcDbLine
 10
176.4465397179582
 20
46.18515415544993
 30
0.0
 11
176.097129531161
 21
45.98394221093921
 31
0.0
  0
LINE
  5
BEF
330
6C
100
AcDbEntity
  8
Visible (ANSI)
100
AcDbLine
 10
176.0389227056905
 20
67.13600426259458
 30
0.0
 11
176.097129531161
 21
67.10248518107023
 31
0.0
  0
POLYLINE
  5
BF0
330
6C
100
AcDbEntity
  8
Visible (ANSI)
100
AcDb2dPolyline
 66
     1
 10
0.0
 20
0.0
 30
0.0
 70
   128
  0
VERTEX
  5
BF1
330
BF0
100
AcDbEntity
  8
Visible (ANSI)
100
AcDbVertex
100
AcDb2dVertex
 10
176.0059789308322
 20
67.16959361294835
 30
0.0
  0
VERTEX
  5
BF2
330
BF0
100
AcDbEntity
  8
Visible (ANSI)
100
AcDbVertex
100
AcDb2dVertex
 10
176.0069143386244
 20
67.16786392065881
 30
0.0
  0
VERTEX
  5
BF4
330
BF0
100
AcDbEntity
  8
Visible (ANSI)
100
AcDbVertex
100
AcDb2dVertex
 10
176.0079010484938
 20
67.16616713477698
 30
0.0
  0
VERTEX
  5
BF5
330
BF0
100
AcDbEntity
  8
Visible (ANSI)
100
AcDbVertex
100
AcDb2dVertex
 10
176.0089329286305
 20
67.16450476297126
 30
0.0
  0
VERTEX
  5
BF6
330
BF0
100
AcDbEntity
  8
Visible (ANSI)
100
AcDbVertex
100
AcDb2dVertex
 10
176.0100124156063
 20
67.16287822140339
 30
0.0
  0
VERTEX
  5
BF7
330
BF0
100
AcDbEntity
  8
Visible (ANSI)
100
AcDbVertex
100
AcDb2dVertex
 10
176.0111271528621
 20
67.1612921601597
 30
0.0
  0
VERTEX
  5
BF8
330
BF0
100
AcDbEntity
  8
Visible (ANSI)
100
AcDbVertex
100
AcDb2dVertex
 10
176.0122821175215
 20
67.15974271836235
 30
0.0
  0
VERTEX
  5
BF9
330
BF0
100
AcDbEntity
  8
Visible (ANSI)
100
AcDbVertex
100
AcDb2dVertex
 10
176.0134674992725
 20
67.15823264887757
 30
0.0
  0
VERTEX
  5
BFA
330
BF0
100
AcDbEntity
  8
Visible (ANSI)
100
AcDbVertex
100
AcDb2dVertex
 10
176.0146791464571
 20
67.15676630097046
 30
0.0
  0
VERTEX
  5
BFB
330
BF0
100
AcDbEntity
  8
Visible (ANSI)
100
AcDbVertex
100
AcDb2dVertex
 10
176.0159156505613
 20
67.15534117526198
 30
0.0
  0
VERTEX
  5
BFC
330
BF0
100
AcDbEntity
  8
Visible (ANSI)
100
AcDbVertex
100
AcDb2dVertex
 10
176.0171695897934
 20
67.15395972483917
 30
0.0
  0
VERTEX
  5
BFD
330
BF0
100
AcDbEntity
  8
Visible (ANSI)
100
AcDbVertex
100
AcDb2dVertex
 10
176.0184392164339
 20
67.15261925498753
 30
0.0
  0
VERTEX
  5
BFE
330
BF0
100
AcDbEntity
  8
Visible (ANSI)
100
AcDbVertex
100
AcDb2dVertex
 10
176.0197167816957
 20
67.15132540702949
 30
0.0
  0
VERTEX
  5
BFF
330
BF0
100
AcDbEntity
  8
Visible (ANSI)
100
AcDbVertex
100
AcDb2dVertex
 10
176.0210002230735
 20
67.15007530497761
 30
0.0
  0
VERTEX
  5
C00
330
BF0
100
AcDbEntity
  8
Visible (ANSI)
100
AcDbVertex
100
AcDb2dVertex
 10
176.0222844123791
 20
67.14886935921086
 30
0.0
  0
VERTEX
  5
C01
330
BF0
100
AcDbEntity
  8
Visible (ANSI)
100
AcDbVertex
100
AcDb2dVertex
 10
176.023564082747
 20
67.14770621197978
 30
0.0
  0
VERTEX
  5
C02
330
BF0
100
AcDbEntity
  8
Visible (ANSI)
100
AcDbVertex
100
AcDb2dVertex
 10
176.0248367568897
 20
67.14658781324892
 30
0.0
  0
VERTEX
  5
C03
330
BF0
100
AcDbEntity
  8
Visible (ANSI)
100
AcDbVertex
100
AcDb2dVertex
 10
176.0260969166127
 20
67.1455126605379
 30
0.0
  0
VERTEX
  5
C04
330
BF0
100
AcDbEntity
  8
Visible (ANSI)
100
AcDbVertex
100
AcDb2dVertex
 10
176.0273360117266
 20
67.14448255713278
 30
0.0
  0
VERTEX
  5
C05
330
BF0
100
AcDbEntity
  8
Visible (ANSI)
100
AcDbVertex
100
AcDb2dVertex
 10
176.0285570703046
 20
67.14349083150252
 30
0.0
  0
VERTEX
  5
C06
330
BF0
100
AcDbEntity
  8
Visible (ANSI)
100
AcDbVertex
100
AcDb2dVertex
 10
176.0297484278122
 20
67.14254423354707
 30
0.0
  0
VERTEX
  5
C07
330
BF0
100
AcDbEntity
  8
Visible (ANSI)
100
AcDbVertex
100
AcDb2dVertex
 10
176.0309100186544
 20
67.14163767371653
 30
0.0
  0
VERTEX
  5
C08
330
BF0
100
AcDbEntity
  8
Visible (ANSI)
100
AcDbVertex
100
AcDb2dVertex
 10
176.0320387855253
 20
67.14076939142557
 30
0.0
  0
VERTEX
  5
C09
330
BF0
100
AcDbEntity
  8
Visible (ANSI)
100
AcDbVertex
100
AcDb2dVertex
 10
176.0331257718306
 20
67.13993926765747
 30
0.0
  0
VERTEX
  5
C0A
330
BF0
100
AcDbEntity
  8
Visible (ANSI)
100
AcDbVertex
100
AcDb2dVertex
 10
176.0341707287365
 20
67.1391471721516
 30
0.0
  0
SEQEND
  5
BF3
330
BF0
100
AcDbEntity
  8
Visible (ANSI)
  0
LINE
  5
C0B
330
6C
100
AcDbEntity
  8
Visible (ANSI)
100
AcDbLine
 10
176.0059790476486
 20
67.16959395086298
 30
0.0
 11
176.0034874057342
 21
67.16815910971191
 31
0.0
  0
LINE
  5
C0C
330
6C
100
AcDbEntity
  8
Visible (ANSI)
100
AcDbLine
 10
176.0034874057342
 20
67.16815910971191
 30
0.0
 11
175.9452120586404
 21
67.13460056920894
 31
0.0
  0
LINE
  5
C0D
330
6C
100
AcDbEntity
  8
Visible (ANSI)
100
AcDbLine
 10
176.097129531161
 20
67.10248518107023
 30
0.0
 11
176.4465397179582
 21
67.30369712558093
 31
0.0
  0
LINE
  5
C0E
330
6C
100
AcDbEntity
  8
Visible (ANSI)
100
AcDbLine
 10
176.3857727289499
 20
67.33869050723495
 30
0.0
 11
176.4465397179582
 21
67.30369712558093
 31
0.0
  0
POLYLINE
  5
C0F
330
6C
100
AcDbEntity
  8
Visible (ANSI)
100
AcDb2dPolyline
 66
     1
 10
0.0
 20
0.0
 30
0.0
 70
   128
  0
VERTEX
  5
C10
330
C0F
100
AcDbEntity
  8
Visible (ANSI)
100
AcDbVertex
100
AcDb2dVertex
 10
148.8735184552466
 20
82.72415169207407
 30
0.0
  0
VERTEX
  5
C11
330
C0F
100
AcDbEntity
  8
Visible (ANSI)
100
AcDbVertex
100
AcDb2dVertex
 10
148.8748384641556
 20
82.72932234866045
 30
0.0
  0
VERTEX
  5
C13
330
C0F
100
AcDbEntity
  8
Visible (ANSI)
100
AcDbVertex
100
AcDb2dVertex
 10
148.8764830437256
 20
82.73465628385178
 30
0.0
  0
VERTEX
  5
C14
330
C0F
100
AcDbEntity
  8
Visible (ANSI)
100
AcDbVertex
100
AcDb2dVertex
 10
148.8784501063187
 20
82.74012696484071
 30
0.0
  0
VERTEX
  5
C15
330
C0F
100
AcDbEntity
  8
Visible (ANSI)
100
AcDbVertex
100
AcDb2dVertex
 10
148.8807361896501
 20
82.74570706721355
 30
0.0
  0
VERTEX
  5
C16
330
C0F
100
AcDbEntity
  8
Visible (ANSI)
100
AcDbVertex
100
AcDb2dVertex
 10
148.8833364510843
 20
82.75137017964327
 30
0.0
  0
VERTEX
  5
C17
330
C0F
100
AcDbEntity
  8
Visible (ANSI)
100
AcDbVertex
100
AcDb2dVertex
 10
148.8862447246741
 20
82.75709079075081
 30
0.0
  0
VERTEX
  5
C18
330
C0F
100
AcDbEntity
  8
Visible (ANSI)
100
AcDbVertex
100
AcDb2dVertex
 10
148.8894534983454
 20
82.76284095198167
 30
0.0
  0
VERTEX
  5
C19
330
C0F
100
AcDbEntity
  8
Visible (ANSI)
100
AcDbVertex
100
AcDb2dVertex
 10
148.8929539937518
 20
82.76859196587558
 30
0.0
  0
VERTEX
  5
C1A
330
C0F
100
AcDbEntity
  8
Visible (ANSI)
100
AcDbVertex
100
AcDb2dVertex
 10
148.8967361890902
 20
82.77431779545301
 30
0.0
  0
VERTEX
  5
C1B
330
C0F
100
AcDbEntity
  8
Visible (ANSI)
100
AcDbVertex
100
AcDb2dVertex
 10
148.9007888248053
 20
82.77999002239827
 30
0.0
  0
VERTEX
  5
C1C
330
C0F
100
AcDbEntity
  8
Visible (ANSI)
100
AcDbVertex
100
AcDb2dVertex
 10
148.9050995176676
 20
82.78558124330734
 30
0.0
  0
VERTEX
  5
C1D
330
C0F
100
AcDbEntity
  8
Visible (ANSI)
100
AcDbVertex
100
AcDb2dVertex
 10
148.9096547550697
 20
82.79106511895797
 30
0.0
  0
VERTEX
  5
C1E
330
C0F
100
AcDbEntity
  8
Visible (ANSI)
100
AcDbVertex
100
AcDb2dVertex
 10
148.9144399948451
 20
82.79641637923658
 30
0.0
  0
VERTEX
  5
C1F
330
C0F
100
AcDbEntity
  8
Visible (ANSI)
100
AcDbVertex
100
AcDb2dVertex
 10
148.9194396937879
 20
82.80160920384664
 30
0.0
  0
VERTEX
  5
C20
330
C0F
100
AcDbEntity
  8
Visible (ANSI)
100
AcDbVertex
100
AcDb2dVertex
 10
148.9246374046194
 20
82.80661723216281
 30
0.0
  0
VERTEX
  5
C21
330
C0F
100
AcDbEntity
  8
Visible (ANSI)
100
AcDbVertex
100
AcDb2dVertex
 10
148.9300158273233
 20
82.81141530077077
 30
0.0
  0
VERTEX
  5
C22
330
C0F
100
AcDbEntity
  8
Visible (ANSI)
100
AcDbVertex
100
AcDb2dVertex
 10
148.9355568775935
 20
82.81598287913091
 30
0.0
  0
VERTEX
  5
C23
330
C0F
100
AcDbEntity
  8
Visible (ANSI)
100
AcDbVertex
100
AcDb2dVertex
 10
148.9412417909301
 20
82.82029564875863
 30
0.0
  0
VERTEX
  5
C24
330
C0F
100
AcDbEntity
  8
Visible (ANSI)
100
AcDbVertex
100
AcDb2dVertex
 10
148.9470511782531
 20
82.82433231460643
 30
0.0
  0
VERTEX
  5
C25
330
C0F
100
AcDbEntity
  8
Visible (ANSI)
100
AcDbVertex
100
AcDb2dVertex
 10
148.9529651299991
 20
82.82807295703149
 30
0.0
  0
VERTEX
  5
C26
330
C0F
100
AcDbEntity
  8
Visible (ANSI)
100
AcDbVertex
100
AcDb2dVertex
 10
148.9589632561377
 20
82.83149910739433
 30
0.0
  0
VERTEX
  5
C27
330
C0F
100
AcDbEntity
  8
Visible (ANSI)
100
AcDbVertex
100
AcDb2dVertex
 10
148.9650248386625
 20
82.83459206877067
 30
0.0
  0
VERTEX
  5
C28
330
C0F
100
AcDbEntity
  8
Visible (ANSI)
100
AcDbVertex
100
AcDb2dVertex
 10
148.9711288770445
 20
82.83733805949033
 30
0.0
  0
VERTEX
  5
C29
330
C0F
100
AcDbEntity
  8
Visible (ANSI)
100
AcDbVertex
100
AcDb2dVertex
 10
148.9772541885856
 20
82.83971981643924
 30
0.0
  0
SEQEND
  5
C12
330
C0F
100
AcDbEntity
  8
Visible (ANSI)
  0
POLYLINE
  5
C2A
330
6C
100
AcDbEntity
  8
Visible (ANSI)
100
AcDb2dPolyline
 66
     1
 10
0.0
 20
0.0
 30
0.0
 70
   128
  0
VERTEX
  5
C2B
330
C2A
100
AcDbEntity
  8
Visible (ANSI)
100
AcDbVertex
100
AcDb2dVertex
 10
175.9933946436006
 20
67.28215921996095
 30
0.0
  0
VERTEX
  5
C2C
330
C2A
100
AcDbEntity
  8
Visible (ANSI)
100
AcDbVertex
100
AcDb2dVertex
 10
175.9895831878203
 20
67.2784450020978
 30
0.0
  0
VERTEX
  5
C2E
330
C2A
100
AcDbEntity
  8
Visible (ANSI)
100
AcDbVertex
100
AcDb2dVertex
 10
175.9857930051991
 20
67.27436655046389
 30
0.0
  0
VERTEX
  5
C2F
330
C2A
100
AcDbEntity
  8
Visible (ANSI)
100
AcDbVertex
100
AcDb2dVertex
 10
175.9820481988466
 20
67.26993944642015
 30
0.0
  0
VERTEX
  5
C30
330
C2A
100
AcDbEntity
  8
Visible (ANSI)
100
AcDbVertex
100
AcDb2dVertex
 10
175.9783639284689
 20
67.26518083514307
 30
0.0
  0
VERTEX
  5
C31
330
C2A
100
AcDbEntity
  8
Visible (ANSI)
100
AcDbVertex
100
AcDb2dVertex
 10
175.9747638438915
 20
67.26010772523443
 30
0.0
  0
VERTEX
  5
C32
330
C2A
100
AcDbEntity
  8
Visible (ANSI)
100
AcDbVertex
100
AcDb2dVertex
 10
175.9712712327408
 20
67.25473691671922
 30
0.0
  0
VERTEX
  5
C33
330
C2A
100
AcDbEntity
  8
Visible (ANSI)
100
AcDbVertex
100
AcDb2dVertex
 10
175.9679001751649
 20
67.24909168617728
 30
0.0
  0
VERTEX
  5
C34
330
C2A
100
AcDbEntity
  8
Visible (ANSI)
100
AcDbVertex
100
AcDb2dVertex
 10
175.9646729806555
 20
67.24319164690289
 30
0.0
  0
VERTEX
  5
C35
330
C2A
100
AcDbEntity
  8
Visible (ANSI)
100
AcDbVertex
100
AcDb2dVertex
 10
175.9616084194163
 20
67.23706111409604
 30
0.0
  0
VERTEX
  5
C36
330
C2A
100
AcDbEntity
  8
Visible (ANSI)
100
AcDbVertex
100
AcDb2dVertex
 10
175.9587274847572
 20
67.23071894311245
 30
0.0
  0
VERTEX
  5
C37
330
C2A
100
AcDbEntity
  8
Visible (ANSI)
100
AcDbVertex
100
AcDb2dVertex
 10
175.9560416415752
 20
67.22419365758813
 30
0.0
  0
VERTEX
  5
C38
330
C2A
100
AcDbEntity
  8
Visible (ANSI)
100
AcDbVertex
100
AcDb2dVertex
 10
175.9535702632645
 20
67.21750993311063
 30
0.0
  0
VERTEX
  5
C39
330
C2A
100
AcDbEntity
  8
Visible (ANSI)
100
AcDbVertex
100
AcDb2dVertex
 10
175.9513318020347
 20
67.2106919147926
 30
0.0
  0
VERTEX
  5
C3A
330
C2A
100
AcDbEntity
  8
Visible (ANSI)
100
AcDbVertex
100
AcDb2dVertex
 10
175.9493349706371
 20
67.2037682296846
 30
0.0
  0
VERTEX
  5
C3B
330
C2A
100
AcDbEntity
  8
Visible (ANSI)
100
AcDbVertex
100
AcDb2dVertex
 10
175.9475961906828
 20
67.1967635418251
 30
0.0
  0
VERTEX
  5
C3C
330
C2A
100
AcDbEntity
  8
Visible (ANSI)
100
AcDbVertex
100
AcDb2dVertex
 10
175.9461307772206
 20
67.18970356629561
 30
0.0
  0
VERTEX
  5
C3D
330
C2A
100
AcDbEntity
  8
Visible (ANSI)
100
AcDbVertex
100
AcDb2dVertex
 10
175.9449441375751
 20
67.18262009148746
 30
0.0
  0
VERTEX
  5
C3E
330
C2A
100
AcDbEntity
  8
Visible (ANSI)
100
AcDbVertex
100
AcDb2dVertex
 10
175.9440492196645
 20
67.17553746934237
 30
0.0
  0
VERTEX
  5
C3F
330
C2A
100
AcDbEntity
  8
Visible (ANSI)
100
AcDbVertex
100
AcDb2dVertex
 10
175.9434577279509
 20
67.16848271228275
 30
0.0
  0
VERTEX
  5
C40
330
C2A
100
AcDbEntity
  8
Visible (ANSI)
100
AcDbVertex
100
AcDb2dVertex
 10
175.9431713222776
 20
67.16148713893881
 30
0.0
  0
VERTEX
  5
C41
330
C2A
100
AcDbEntity
  8
Visible (ANSI)
100
AcDbVertex
100
AcDb2dVertex
 10
175.9431991004109
 20
67.15457457236706
 30
0.0
  0
VERTEX
  5
C42
330
C2A
100
AcDbEntity
  8
Visible (ANSI)
100
AcDbVertex
100
AcDb2dVertex
 10
175.9435458935785
 20
67.14777143046387
 30
0.0
  0
VERTEX
  5
C43
330
C2A
100
AcDbEntity
  8
Visible (ANSI)
100
AcDbVertex
100
AcDb2dVertex
 10
175.9442180901809
 20
67.14110335260516
 30
0.0
  0
VERTEX
  5
C44
330
C2A
100
AcDbEntity
  8
Visible (ANSI)
100
AcDbVertex
100
AcDb2dVertex
 10
175.9452119427366
 20
67.13460023181986
 30
0.0
  0
SEQEND
  5
C2D
330
C2A
100
AcDbEntity
  8
Visible (ANSI)
  0
LINE
  5
C45
330
6C
100
AcDbEntity
  8
Visible (ANSI)
100
AcDbLine
 10
175.9934803388031
 20
67.2119523362388
 30
0.0
 11
176.3428039789499
 21
67.41311444184818
 31
0.0
  0
LINE
  5
C46
330
6C
100
AcDbEntity
  8
Visible (ANSI)
100
AcDbLine
 10
176.3428039789499
 20
67.48337239788932
 30
0.0
 11
175.9933937921528
 21
67.28216045337863
 31
0.0
  0
LINE
  5
C47
330
6C
100
AcDbEntity
  8
Visible (ANSI)
100
AcDbLine
 10
175.9933937921528
 20
67.21478329941357
 30
0.0
 11
175.9933937921528
 21
67.28216045337863
 31
0.0
  0
LINE
  5
C48
330
6C
100
AcDbEntity
  8
Visible (ANSI)
100
AcDbLine
 10
176.3428039789499
 20
67.41311444184818
 30
0.0
 11
176.3428039789499
 21
67.48337239788932
 31
0.0
  0
POLYLINE
  5
C49
330
6C
100
AcDbEntity
  8
Visible (ANSI)
100
AcDb2dPolyline
 66
     1
 10
0.0
 20
0.0
 30
0.0
 70
   128
  0
VERTEX
  5
C4A
330
C49
100
AcDbEntity
  8
Visible (ANSI)
100
AcDbVertex
100
AcDb2dVertex
 10
176.0059789308322
 20
67.16959361294835
 30
0.0
  0
VERTEX
  5
C4B
330
C49
100
AcDbEntity
  8
Visible (ANSI)
100
AcDbVertex
100
AcDb2dVertex
 10
176.004946075644
 20
67.17127157609256
 30
0.0
  0
VERTEX
  5
C4D
330
C49
100
AcDbEntity
  8
Visible (ANSI)
100
AcDbVertex
100
AcDb2dVertex
 10
176.0039705514854
 20
67.17297581393504
 30
0.0
  0
VERTEX
  5
C4E
330
C49
100
AcDbEntity
  8
Visible (ANSI)
100
AcDbVertex
100
AcDb2dVertex
 10
176.0030462245301
 20
67.17470445644337
 30
0.0
  0
VERTEX
  5
C4F
330
C49
100
AcDbEntity
  8
Visible (ANSI)
100
AcDbVertex
100
AcDb2dVertex
 10
176.0021755279745
 20
67.17645385302599
 30
0.0
  0
VERTEX
  5
C50
330
C49
100
AcDbEntity
  8
Visible (ANSI)
100
AcDbVertex
100
AcDb2dVertex
 10
176.0013577822155
 20
67.17821685924628
 30
0.0
  0
VERTEX
  5
C51
330
C49
100
AcDbEntity
  8
Visible (ANSI)
100
AcDbVertex
100
AcDb2dVertex
 10
176.0005950380605
 20
67.1799912925794
 30
0.0
  0
VERTEX
  5
C52
330
C49
100
AcDbEntity
  8
Visible (ANSI)
100
AcDbVertex
100
AcDb2dVertex
 10
175.9998803982566
 20
67.18177315509485
 30
0.0
  0
VERTEX
  5
C53
330
C49
100
AcDbEntity
  8
Visible (ANSI)
100
AcDbVertex
100
AcDb2dVertex
 10
175.999215543591
 20
67.18356005118739
 30
0.0
  0
VERTEX
  5
C54
330
C49
100
AcDbEntity
  8
Visible (ANSI)
100
AcDbVertex
100
AcDb2dVertex
 10
175.9985990558353
 20
67.18534441107433
 30
0.0
  0
VERTEX
  5
C55
330
C49
100
AcDbEntity
  8
Visible (ANSI)
100
AcDbVertex
100
AcDb2dVertex
 10
175.9980293433262
 20
67.18712362990782
 30
0.0
  0
VERTEX
  5
C56
330
C49
100
AcDbEntity
  8
Visible (ANSI)
100
AcDbVertex
100
AcDb2dVertex
 10
175.9975075669912
 20
67.18889163617572
 30
0.0
  0
VERTEX
  5
C57
330
C49
100
AcDbEntity
  8
Visible (ANSI)
100
AcDbVertex
100
AcDb2dVertex
 10
175.9970259646746
 20
67.19064731042279
 30
0.0
  0
VERTEX
  5
C58
330
C49
100
AcDbEntity
  8
Visible (ANSI)
100
AcDbVertex
100
AcDb2dVertex
 10
175.996585381449
 20
67.19238439924808
 30
0.0
  0
VERTEX
  5
C59
330
C49
100
AcDbEntity
  8
Visible (ANSI)
100
AcDbVertex
100
AcDb2dVertex
 10
175.9961835942082
 20
67.19410162244985
 30
0.0
  0
VERTEX
  5
C5A
330
C49
100
AcDbEntity
  8
Visible (ANSI)
100
AcDbVertex
100
AcDb2dVertex
 10
175.9958211612243
 20
67.19578918492998
 30
0.0
  0
VERTEX
  5
C5B
330
C49
100
AcDbEntity
  8
Visible (ANSI)
100
AcDbVertex
100
AcDb2dVertex
 10
175.9954897494136
 20
67.1974490149975
 30
0.0
  0
VERTEX
  5
C5C
330
C49
100
AcDbEntity
  8
Visible (ANSI)
100
AcDbVertex
100
AcDb2dVertex
 10
175.99518966358
 20
67.19907623640104
 30
0.0
  0
VERTEX
  5
C5D
330
C49
100
AcDbEntity
  8
Visible (ANSI)
100
AcDbVertex
100
AcDb2dVertex
 10
175.9949181779584
 20
67.20066590293733
 30
0.0
  0
VERTEX
  5
C5E
330
C49
100
AcDbEntity
  8
Visible (ANSI)
100
AcDbVertex
100
AcDb2dVertex
 10
175.9946753823857
 20
67.20221301456383
 30
0.0
  0
VERTEX
  5
C5F
330
C49
100
AcDbEntity
  8
Visible (ANSI)
100
AcDbVertex
100
AcDb2dVertex
 10
175.9944525142013
 20
67.20371756394275
 30
0.0
  0
VERTEX
  5
C60
330
C49
100
AcDbEntity
  8
Visible (ANSI)
100
AcDbVertex
100
AcDb2dVertex
 10
175.9942494899853
 20
67.20517613952937
 30
0.0
  0
VERTEX
  5
C61
330
C49
100
AcDbEntity
  8
Visible (ANSI)
100
AcDbVertex
100
AcDb2dVertex
 10
175.9940632346069
 20
67.20658190566432
 30
0.0
  0
VERTEX
  5
C62
330
C49
100
AcDbEntity
  8
Visible (ANSI)
100
AcDbVertex
100
AcDb2dVertex
 10
175.9938935320299
 20
67.20793475097387
 30
0.0
  0
VERTEX
  5
C63
330
C49
100
AcDbEntity
  8
Visible (ANSI)
100
AcDbVertex
100
AcDb2dVertex
 10
175.993731359352
 20
67.20923282998713
 30
0.0
  0
SEQEND
  5
C4C
330
C49
100
AcDbEntity
  8
Visible (ANSI)
  0
LINE
  5
C64
330
6C
100
AcDbEntity
  8
Visible (ANSI)
100
AcDbLine
 10
148.977254194483
 20
82.8397205561446
 30
0.0
 11
149.3266643812802
 21
83.04093250065532
 31
0.0
  0
POLYLINE
  5
C65
330
6C
100
AcDbEntity
  8
Visible (ANSI)
100
AcDb2dPolyline
 66
     1
 10
0.0
 20
0.0
 30
0.0
 70
   128
  0
VERTEX
  5
C66
330
C65
100
AcDbEntity
  8
Visible (ANSI)
100
AcDbVertex
100
AcDb2dVertex
 10
148.8735184552466
 20
61.54137834953141
 30
0.0
  0
VERTEX
  5
C67
330
C65
100
AcDbEntity
  8
Visible (ANSI)
100
AcDbVertex
100
AcDb2dVertex
 10
148.87107382551
 20
61.54350202686375
 30
0.0
  0
VERTEX
  5
C69
330
C65
100
AcDbEntity
  8
Visible (ANSI)
100
AcDbVertex
100
AcDb2dVertex
 10
148.8687131461977
 20
61.54567099330868
 30
0.0
  0
VERTEX
  5
C6A
330
C65
100
AcDbEntity
  8
Visible (ANSI)
100
AcDbVertex
100
AcDb2dVertex
 10
148.8664389555578
 20
61.54788362947092
 30
0.0
  0
VERTEX
  5
C6B
330
C65
100
AcDbEntity
  8
Visible (ANSI)
100
AcDbVertex
100
AcDb2dVertex
 10
148.8642536891681
 20
61.5501382897542
 30
0.0
  0
VERTEX
  5
C6C
330
C65
100
AcDbEntity
  8
Visible (ANSI)
100
AcDbVertex
100
AcDb2dVertex
 10
148.8621596742315
 20
61.5524332726973
 30
0.0
  0
VERTEX
  5
C6D
330
C65
100
AcDbEntity
  8
Visible (ANSI)
100
AcDbVertex
100
AcDb2dVertex
 10
148.8601591695038
 20
61.55476684399227
 30
0.0
  0
VERTEX
  5
C6E
330
C65
100
AcDbEntity
  8
Visible (ANSI)
100
AcDbVertex
100
AcDb2dVertex
 10
148.8582543025504
 20
61.55713722008649
 30
0.0
  0
VERTEX
  5
C6F
330
C65
100
AcDbEntity
  8
Visible (ANSI)
100
AcDbVertex
100
AcDb2dVertex
 10
148.8564471210818
 20
61.55954257136559
 30
0.0
  0
VERTEX
  5
C70
330
C65
100
AcDbEntity
  8
Visible (ANSI)
100
AcDbVertex
100
AcDb2dVertex
 10
148.8547395587299
 20
61.5619810420141
 30
0.0
  0
VERTEX
  5
C71
330
C65
100
AcDbEntity
  8
Visible (ANSI)
100
AcDbVertex
100
AcDb2dVertex
 10
148.8531334407519
 20
61.56445074005972
 30
0.0
  0
VERTEX
  5
C72
330
C65
100
AcDbEntity
  8
Visible (ANSI)
100
AcDbVertex
100
AcDb2dVertex
 10
148.8516304897342
 20
61.56694973411405
 30
0.0
  0
VERTEX
  5
C73
330
C65
100
AcDbEntity
  8
Visible (ANSI)
100
AcDbVertex
100
AcDb2dVertex
 10
148.8502323227407
 20
61.56947607474844
 30
0.0
  0
VERTEX
  5
C74
330
C65
100
AcDbEntity
  8
Visible (ANSI)
100
AcDbVertex
100
AcDb2dVertex
 10
148.8489404227929
 20
61.57202775826076
 30
0.0
  0
VERTEX
  5
C75
330
C65
100
AcDbEntity
  8
Visible (ANSI)
100
AcDbVertex
100
AcDb2dVertex
 10
148.8477561816494
 20
61.57460277445586
 30
0.0
  0
VERTEX
  5
C76
330
C65
100
AcDbEntity
  8
Visible (ANSI)
100
AcDbVertex
100
AcDb2dVertex
 10
148.8466808655824
 20
61.57719908026647
 30
0.0
  0
VERTEX
  5
C77
330
C65
100
AcDbEntity
  8
Visible (ANSI)
100
AcDbVertex
100
AcDb2dVertex
 10
148.8457156267856
 20
61.57981461948653
 30
0.0
  0
VERTEX
  5
C78
330
C65
100
AcDbEntity
  8
Visible (ANSI)
100
AcDbVertex
100
AcDb2dVertex
 10
148.8448615033739
 20
61.58244730965809
 30
0.0
  0
VERTEX
  5
C79
330
C65
100
AcDbEntity
  8
Visible (ANSI)
100
AcDbVertex
100
AcDb2dVertex
 10
148.84411939942
 20
61.58509503375777
 30
0.0
  0
VERTEX
  5
C7A
330
C65
100
AcDbEntity
  8
Visible (ANSI)
100
AcDbVertex
100
AcDb2dVertex
 10
148.8434901134742
 20
61.58775567976555
 30
0.0
  0
VERTEX
  5
C7B
330
C65
100
AcDbEntity
  8
Visible (ANSI)
100
AcDbVertex
100
AcDb2dVertex
 10
148.8429743271557
 20
61.59042711757024
 30
0.0
  0
VERTEX
  5
C7C
330
C65
100
AcDbEntity
  8
Visible (ANSI)
100
AcDbVertex
100
AcDb2dVertex
 10
148.8425725823379
 20
61.5931072022796
 30
0.0
  0
VERTEX
  5
C7D
330
C65
100
AcDbEntity
  8
Visible (ANSI)
100
AcDbVertex
100
AcDb2dVertex
 10
148.8422853153712
 20
61.5957937840999
 30
0.0
  0
VERTEX
  5
C7E
330
C65
100
AcDbEntity
  8
Visible (ANSI)
100
AcDbVertex
100
AcDb2dVertex
 10
148.842112831416
 20
61.59848469345291
 30
0.0
  0
VERTEX
  5
C7F
330
C65
100
AcDbEntity
  8
Visible (ANSI)
100
AcDbVertex
100
AcDb2dVertex
 10
148.8420553172758
 20
61.60117776986971
 30
0.0
  0
SEQEND
  5
C68
330
C65
100
AcDbEntity
  8
Visible (ANSI)
  0
POLYLINE
  5
C80
330
6C
100
AcDbEntity
  8
Visible (ANSI)
100
AcDb2dPolyline
 66
     1
 10
0.0
 20
0.0
 30
0.0
 70
   128
  0
VERTEX
  5
C81
330
C80
100
AcDbEntity
  8
Visible (ANSI)
100
AcDbVertex
100
AcDb2dVertex
 10
148.8735184552466
 20
82.77952087651419
 30
0.0
  0
VERTEX
  5
C82
330
C80
100
AcDbEntity
  8
Visible (ANSI)
100
AcDbVertex
100
AcDb2dVertex
 10
148.8687131499743
 20
82.77790348615114
 30
0.0
  0
VERTEX
  5
C84
330
C80
100
AcDbEntity
  8
Visible (ANSI)
100
AcDbVertex
100
AcDb2dVertex
 10
148.8642536884105
 20
82.77611312670662
 30
0.0
  0
VERTEX
  5
C85
330
C80
100
AcDbEntity
  8
Visible (ANSI)
100
AcDbVertex
100
AcDb2dVertex
 10
148.8601591670083
 20
82.77415982133449
 30
0.0
  0
VERTEX
  5
C86
330
C80
100
AcDbEntity
  8
Visible (ANSI)
100
AcDbVertex
100
AcDb2dVertex
 10
148.8564471189429
 20
82.7720610366909
 30
0.0
  0
VERTEX
  5
C87
330
C80
100
AcDbEntity
  8
Visible (ANSI)
100
AcDbVertex
100
AcDb2dVertex
 10
148.8531334403953
 20
82.76982980505552
 30
0.0
  0
VERTEX
  5
C88
330
C80
100
AcDbEntity
  8
Visible (ANSI)
100
AcDbVertex
100
AcDb2dVertex
 10
148.8502323202452
 20
82.76747972472406
 30
0.0
  0
VERTEX
  5
C89
330
C80
100
AcDbEntity
  8
Visible (ANSI)
100
AcDbVertex
100
AcDb2dVertex
 10
148.8477561816494
 20
82.76502996166481
 30
0.0
  0
VERTEX
  5
C8A
330
C80
100
AcDbEntity
  8
Visible (ANSI)
100
AcDbVertex
100
AcDb2dVertex
 10
148.8457156289245
 20
82.76249336357546
 30
0.0
  0
VERTEX
  5
C8B
330
C80
100
AcDbEntity
  8
Visible (ANSI)
100
AcDbVertex
100
AcDb2dVertex
 10
148.84411939942
 20
82.75988989357363
 30
0.0
  0
VERTEX
  5
C8C
330
C80
100
AcDbEntity
  8
Visible (ANSI)
100
AcDbVertex
100
AcDb2dVertex
 10
148.8429743243037
 20
82.75723474456169
 30
0.0
  0
VERTEX
  5
C8D
330
C80
100
AcDbEntity
  8
Visible (ANSI)
100
AcDbVertex
100
AcDb2dVertex
 10
148.8422853139453
 20
82.75454333197874
 30
0.0
  0
VERTEX
  5
C8E
330
C80
100
AcDbEntity
  8
Visible (ANSI)
100
AcDbVertex
100
AcDb2dVertex
 10
148.8420553172758
 20
82.75183628347297
 30
0.0
  0
VERTEX
  5
C8F
330
C80
100
AcDbEntity
  8
Visible (ANSI)
100
AcDbVertex
100
AcDb2dVertex
 10
148.8422853153712
 20
82.74912923414602
 30
0.0
  0
VERTEX
  5
C90
330
C80
100
AcDbEntity
  8
Visible (ANSI)
100
AcDbVertex
100
AcDb2dVertex
 10
148.8429743271557
 20
82.74643782238422
 30
0.0
  0
VERTEX
  5
C91
330
C80
100
AcDbEntity
  8
Visible (ANSI)
100
AcDbVertex
100
AcDb2dVertex
 10
148.84411939942
 20
82.74378267501464
 30
0.0
  0
VERTEX
  5
C92
330
C80
100
AcDbEntity
  8
Visible (ANSI)
100
AcDbVertex
100
AcDb2dVertex
 10
148.8457156267856
 20
82.74117751551125
 30
0.0
  0
VERTEX
  5
C93
330
C80
100
AcDbEntity
  8
Visible (ANSI)
100
AcDbVertex
100
AcDb2dVertex
 10
148.8477561816494
 20
82.73864260692347
 30
0.0
  0
VERTEX
  5
C94
330
C80
100
AcDbEntity
  8
Visible (ANSI)
100
AcDbVertex
100
AcDb2dVertex
 10
148.8502323227407
 20
82.7361928436589
 30
0.0
  0
VERTEX
  5
C95
330
C80
100
AcDbEntity
  8
Visible (ANSI)
100
AcDbVertex
100
AcDb2dVertex
 10
148.8531334407519
 20
82.73384276373803
 30
0.0
  0
VERTEX
  5
C96
330
C80
100
AcDbEntity
  8
Visible (ANSI)
100
AcDbVertex
100
AcDb2dVertex
 10
148.8564471210818
 20
82.73161153148679
 30
0.0
  0
VERTEX
  5
C97
330
C80
100
AcDbEntity
  8
Visible (ANSI)
100
AcDbVertex
100
AcDb2dVertex
 10
148.8601591695038
 20
82.72951105888131
 30
0.0
  0
VERTEX
  5
C98
330
C80
100
AcDbEntity
  8
Visible (ANSI)
100
AcDbVertex
100
AcDb2dVertex
 10
148.8642536891681
 20
82.72755944108613
 30
0.0
  0
VERTEX
  5
C99
330
C80
100
AcDbEntity
  8
Visible (ANSI)
100
AcDbVertex
100
AcDb2dVertex
 10
148.8687131461976
 20
82.72576908108348
 30
0.0
  0
VERTEX
  5
C9A
330
C80
100
AcDbEntity
  8
Visible (ANSI)
100
AcDbVertex
100
AcDb2dVertex
 10
148.8735184552466
 20
82.72415169207407
 30
0.0
  0
SEQEND
  5
C83
330
C80
100
AcDbEntity
  8
Visible (ANSI)
  0
LINE
  5
C9B
330
6C
100
AcDbEntity
  8
Visible (ANSI)
100
AcDbLine
 10
149.1682334359078
 20
61.7607054985717
 30
0.0
 11
149.2836956312802
 21
61.82719575479834
 31
0.0
  0
LINE
  5
C9C
330
6C
100
AcDbEntity
  8
Visible (ANSI)
100
AcDbLine
 10
148.9324067616368
 20
82.81343168222731
 30
0.0
 11
148.8735184554748
 21
82.77952016207271
 31
0.0
  0
LINE
  5
C9D
330
6C
100
AcDbEntity
  8
Visible (ANSI)
100
AcDbLine
 10
148.8928315881342
 20
82.7683984686481
 30
0.0
 11
148.8735184554748
 21
82.77952016207271
 31
0.0
  0
LINE
  5
C9E
330
6C
100
AcDbEntity
  8
Visible (ANSI)
100
AcDbLine
 10
176.0341707287365
 20
67.1391471721516
 30
0.0
 11
176.0389238596707
 21
67.13600431237171
 31
0.0
  0
LINE
  5
C9F
330
6C
100
AcDbEntity
  8
Visible (ANSI)
100
AcDbLine
 10
175.9933946436006
 20
67.21478205999773
 30
0.0
 11
175.993731359352
 21
67.20923282998713
 31
0.0
  0
LINE
  5
CA0
330
6C
100
AcDbEntity
  8
Visible Narrow (ANSI)
100
AcDbLine
 10
148.8735184554748
 20
61.54137834966789
 30
0.0
 11
175.9452120586404
 21
45.95182682280048
 31
0.0
  0
LINE
  5
CA1
330
6C
100
AcDbEntity
  8
Visible Narrow (ANSI)
100
AcDbLine
 10
176.097129531161
 20
67.10248518107023
 30
0.0
 11
176.097129531161
 21
45.98394221093921
 31
0.0
  0
LINE
  5
CA2
330
6C
100
AcDbEntity
  8
Visible Narrow (ANSI)
100
AcDbLine
 10
175.9452120586404
 20
45.95182682280048
 30
0.0
 11
175.9452120586404
 21
67.13460056920894
 31
0.0
  0
LINE
  5
CA3
330
6C
100
AcDbEntity
  8
Visible Narrow (ANSI)
100
AcDbLine
 10
148.977254194483
 20
82.8397205561446
 30
0.0
 11
175.9933937921528
 21
67.28216045337863
 31
0.0
  0
LINE
  5
CA4
330
6C
100
AcDbEntity
  8
Visible Narrow (ANSI)
100
AcDbLine
 10
175.9452120586404
 20
67.13460056920894
 30
0.0
 11
148.8735184554748
 21
82.72415209607634
 31
0.0
  0
LINE
  5
CA5
330
6C
100
AcDbEntity
  8
Visible Narrow (ANSI)
100
AcDbLine
 10
148.8735184554748
 20
82.72415209607634
 30
0.0
 11
148.8735184554748
 21
61.54137834966789
 31
0.0
  0
LINE
  5
CA6
330
6C
100
AcDbEntity
  8
Visible (ANSI)
100
AcDbLine
 10
148.9097929117739
 20
61.48401251184177
 30
0.0
 11
175.9536411231544
 21
45.91049607965234
 31
0.0
  0
LINE
  5
CA7
330
6C
100
AcDbEntity
  8
Visible (ANSI)
100
AcDbLine
 10
148.842055316735
 20
82.75183612907452
 30
0.0
 11
148.842055316735
 21
61.60117777080479
 31
0.0
  0
LINE
  5
CA8
330
6C
100
AcDbEntity
  8
Visible (ANSI)
100
AcDbLine
 10
175.7192174175603
 20
46.55431133537247
 30
0.0
 11
175.5197288384352
 21
46.66918916787454
 31
0.0
  0
LINE
  5
CA9
330
6C
100
AcDbEntity
  8
Visible (ANSI)
100
AcDbLine
 10
162.5327808027748
 20
54.14787515429553
 30
0.0
 11
162.3332922236497
 21
54.26275298679762
 31
0.0
  0
LINE
  5
CAA
330
6C
100
AcDbEntity
  8
Visible (ANSI)
100
AcDbLine
 10
149.3463441879893
 20
61.7414389732186
 30
0.0
 11
149.3266643812802
 21
61.75277182018512
 31
0.0
  0
LINE
  5
CAB
330
6C
100
AcDbEntity
  8
Visible (ANSI)
100
AcDbLine
 10
176.4465397179582
 20
67.30369712558093
 30
0.0
 11
176.4465397179582
 21
46.18515415544993
 31
0.0
  0
LINE
  5
CAC
330
6C
100
AcDbEntity
  8
Visible (ANSI)
100
AcDbLine
 10
149.3266643812802
 20
83.04093250065532
 30
0.0
 11
176.3428039789499
 21
67.48337239788932
 31
0.0
  0
LINE
  5
CAD
330
6C
100
AcDbEntity
  8
Visible (ANSI)
100
AcDbLine
 10
149.2836956312802
 20
61.82719575479834
 30
0.0
 11
149.2836956312802
 21
61.85092255090114
 31
0.0
  0
LINE
  5
CAE
330
6C
100
AcDbEntity
  8
Visible (ANSI)
100
AcDbLine
 10
149.2836956312802
 20
71.80832574301089
 30
0.0
 11
149.2836956312802
 21
72.03832617686872
 31
0.0
  0
LINE
  5
CAF
330
6C
100
AcDbEntity
  8
Visible (ANSI)
100
AcDbLine
 10
149.2836956312802
 20
81.99572936897849
 30
0.0
 11
149.2836956312802
 21
82.22572980283631
 31
0.0
  0
DIMENSION
  5
CB0
330
6C
100
AcDbEntity
  8
Dimension (ANSI)
100
AcDbDimension
280
     0
  2
*D13
 10
89.26140064163078
 20
59.9934887562161
 30
0.0
 11
97.44499949533327
 21
68.31055657246982
 31
0.0
 70
   163
  1
<>{\P(8PL.)}
 42
0.5629999999999999
 73
     0
 74
     0
 75
     0
  3
Default (ANSI)
100
AcDbDiametricDimension
 15
89.48201165623078
 25
60.51146537753908
 35
0.0
 40
0.0
1001
ACAD_DSTYLE_DIMRADIAL_EXTENSION
1070
   387
1070
     1
1070
   388
1040
0.0
1070
   390
1040
0.0
1001
ACAD
1000
DSTYLE
1002
{
1070
   145
1040
-0.25
1070
   144
1040
0.9999999999999705
1070
   271
1070
     3
1070
   272
1070
     2
1070
    48
1040
0.0
1070
    47
1040
0.0
1002
}
  0
MTEXT
  5
D6B
102
{ACAD_REACTORS
330
D6C
102
}
330
6C
100
AcDbEntity
  8
Symbol (ANSI)
100
AcDbMText
 10
119.4502046012077
 20
52.26495302431402
 30
0.0
 40
1.320000016313838
 41
5.398735896808894
 46
0.0
 71
     3
 72
     1
  1
{10 GA.\PC.R.S}
  7
Note Text (ANSI)
 73
     2
 44
0.9878841638565063
  0
LEADER
  5
D6C
330
6C
100
AcDbEntity
  8
Symbol (ANSI)
100
AcDbLeader
  3
Default (ANSI)$7
 73
     0
 40
3.933345209096401
 41
5.030006745583289
 76
     3
 10
125.3333575491141
 20
46.93887229265095
 30
0.0
 10
121.0982821236709
 20
51.60342530232064
 30
0.0
 10
119.7966612941211
 20
51.60495301615711
 30
0.0
340
D6B
210
0.0
220
0.0
230
-1.0
213
0.0
223
-0.6600000081569191
233
0.0
1001
ACAD
1000
DSTYLE
1002
{
1070
    77
1070
     0
1002
}
  0
LINE
  5
D6D
330
6C
100
AcDbEntity
  8
Center Mark (ANSI)
  6
Continuous
100
AcDbLine
 10
36.77820614893079
 20
78.37747706687756
 30
0.0
 11
33.46520614893079
 21
78.37747706687756
 31
0.0
  0
LINE
  5
D6E
330
6C
100
AcDbEntity
  8
Center Mark (ANSI)
  6
Continuous
100
AcDbLine
 10
35.12170614893078
 20
80.03397706687755
 30
0.0
 11
35.12170614893078
 21
76.72097706687758
 31
0.0
  0
LINE
  5
D6F
330
6C
100
AcDbEntity
  8
Center Mark (ANSI)
  6
Continuous
100
AcDbLine
 10
33.46520614893079
 20
42.12747706687756
 30
0.0
 11
36.77820614893079
 21
42.12747706687756
 31
0.0
  0
LINE
  5
D70
330
6C
100
AcDbEntity
  8
Center Mark (ANSI)
  6
Continuous
100
AcDbLine
 10
33.46520614893079
 20
78.37747706687756
 30
0.0
 11
36.77820614893079
 21
78.37747706687756
 31
0.0
  0
LINE
  5
D71
330
6C
100
AcDbEntity
  8
Centerline (ANSI)
  6
Continuous
100
AcDbLine
 10
35.12170614893078
 20
40.47097706687756
 30
0.0
 11
35.12170614893078
 21
80.03397706687755
 31
0.0
  0
LINE
  5
D72
330
6C
100
AcDbEntity
  8
Center Mark (ANSI)
  6
Continuous
100
AcDbLine
 10
63.90320614893078
 20
78.37747706687756
 30
0.0
 11
60.59020614893078
 21
78.37747706687756
 31
0.0
  0
LINE
  5
D73
330
6C
100
AcDbEntity
  8
Center Mark (ANSI)
  6
Continuous
100
AcDbLine
 10
63.90320614893079
 20
42.12747706687756
 30
0.0
 11
60.59020614893078
 21
42.12747706687756
 31
0.0
  0
LINE
  5
D74
330
6C
100
AcDbEntity
  8
Centerline (ANSI)
  6
Continuous
100
AcDbLine
 10
62.24670614893078
 20
80.03397706687755
 30
0.0
 11
62.24670614893079
 21
40.47097706687757
 31
0.0
  0
LINE
  5
D75
330
6C
100
AcDbEntity
  8
Center Mark (ANSI)
  6
Continuous
100
AcDbLine
 10
87.71520614893081
 20
42.12747706687757
 30
0.0
 11
91.02820614893079
 21
42.12747706687757
 31
0.0
  0
LINE
  5
D76
330
6C
100
AcDbEntity
  8
Center Mark (ANSI)
  6
Continuous
100
AcDbLine
 10
87.71520614893079
 20
78.37747706687756
 30
0.0
 11
91.02820614893078
 21
78.37747706687756
 31
0.0
  0
LINE
  5
D77
330
6C
100
AcDbEntity
  8
Centerline (ANSI)
  6
Continuous
100
AcDbLine
 10
89.3717061489308
 20
40.47097706687757
 30
0.0
 11
89.37170614893078
 21
80.03397706687755
 31
0.0
  0
LINE
  5
D78
330
6C
100
AcDbEntity
  8
Center Mark (ANSI)
  6
Continuous
100
AcDbLine
 10
35.12170614893078
 20
61.90897706687756
 30
0.0
 11
35.12170614893078
 21
58.59597706687756
 31
0.0
  0
LINE
  5
D79
330
6C
100
AcDbEntity
  8
Center Mark (ANSI)
  6
Continuous
100
AcDbLine
 10
89.3717061489308
 20
61.90897706687757
 30
0.0
 11
89.3717061489308
 21
58.59597706687758
 31
0.0
  0
LINE
  5
D7A
330
6C
100
AcDbEntity
  8
Centerline (ANSI)
  6
Continuous
100
AcDbLine
 10
33.46520614893079
 20
60.25247706687756
 30
0.0
 11
91.02820614893079
 21
60.25247706687757
 31
0.0
  0
LINE
  5
D7B
330
6C
100
AcDbEntity
  8
Center Mark (ANSI)
  6
Continuous
100
AcDbLine
 10
35.12170614893078
 20
43.78397706687755
 30
0.0
 11
35.12170614893078
 21
40.47097706687756
 31
0.0
  0
LINE
  5
D7C
330
6C
100
AcDbEntity
  8
Center Mark (ANSI)
  6
Continuous
100
AcDbLine
 10
89.3717061489308
 20
43.78397706687757
 30
0.0
 11
89.3717061489308
 21
40.47097706687757
 31
0.0
  0
LINE
  5
D7D
330
6C
100
AcDbEntity
  8
Centerline (ANSI)
  6
Continuous
100
AcDbLine
 10
33.46520614893079
 20
42.12747706687756
 30
0.0
 11
91.02820614893079
 21
42.12747706687757
 31
0.0
  0
LINE
  5
D7E
330
6C
100
AcDbEntity
  8
Center Mark (ANSI)
  6
Continuous
100
AcDbLine
 10
35.12170614893078
 20
80.03397706687755
 30
0.0
 11
35.12170614893078
 21
76.72097706687758
 31
0.0
  0
LINE
  5
D7F
330
6C
100
AcDbEntity
  8
Center Mark (ANSI)
  6
Continuous
100
AcDbLine
 10
89.37170614893078
 20
80.03397706687755
 30
0.0
 11
89.37170614893078
 21
76.72097706687758
 31
0.0
  0
LINE
  5
D80
330
6C
100
AcDbEntity
  8
Centerline (ANSI)
  6
Continuous
100
AcDbLine
 10
33.46520614893079
 20
78.37747706687756
 30
0.0
 11
91.02820614893078
 21
78.37747706687756
 31
0.0
  0
MTEXT
  5
D81
102
{ACAD_XDICTIONARY
360
D88
102
}
330
6C
100
AcDbEntity
  8
Symbol (ANSI)
100
AcDbMText
 10
103.1799931439253
 20
10.47129269351146
 30
0.0
 40
1.100000035105727
 41
81.2172581830363
 46
0.0
 71
     4
 72
     1
  3
{\fRomanS|b0|i0|c0|p2;\H2x;PART#: NPDD4260\P(DATA SUBJECT TO CHANGE WITHOUT NOTICE)\H1.6157x; \H0.61894x;\P \H1.352x; \H0.73963x;\P\H0.6x;THIS DRAWING IS PROPERTY OF HUBBELL INC. WIEGMANN\H1.5633x; \H0.63966x;\PALL INFORMATION IS PROPRIETARY AND NOT 
  1
TO BE DUPLICATED\H1.234x; \H0.81039x;\P\H1.2571x; }
  7
Note Text (ANSI)
 73
     1
 44
0.8026435375213623
  0
ENDSEC
  0
SECTION
  2
OBJECTS
  0
DICTIONARY
  5
C
330
0
100
AcDbDictionary
281
     1
  3
ACAD_CIP_PREVIOUS_PRODUCT_INFO
350
D83
  3
ACAD_COLOR
350
63
  3
ACAD_GROUP
350
D
  3
ACAD_LAYOUT
350
62
  3
ACAD_MATERIAL
350
10
  3
ACAD_MLEADERSTYLE
350
66
  3
ACAD_MLINESTYLE
350
5F
  3
ACAD_PLOTSETTINGS
350
61
  3
ACAD_PLOTSTYLENAME
350
E
  3
ACAD_SCALELIST
350
42
  3
ACAD_TABLESTYLE
350
64
  3
ACAD_VISUALSTYLE
350
29
  3
ACDB_RECOMPOSE_DATA
350
D8A
  3
AcDbVariableDictionary
350
76
  0
DICTIONARY
  5
D88
330
D81
100
AcDbDictionary
280
     1
281
     1
  3
ACAD_MTEXT_2008_RT
360
D89
  0
XRECORD
  5
D83
102
{ACAD_REACTORS
330
C
102
}
330
C
100
AcDbXrecord
280
     1
300
INVNTOR
300
2012
300
PDSP_F_S
  0
DICTIONARY
  5
63
102
{ACAD_REACTORS
330
C
102
}
330
C
100
AcDbDictionary
281
     1
  0
DICTIONARY
  5
D
102
{ACAD_REACTORS
330
C
102
}
330
C
100
AcDbDictionary
281
     1
  0
DICTIONARY
  5
62
102
{ACAD_REACTORS
330
C
102
}
330
C
100
AcDbDictionary
281
     1
  3
Layout1
350
6B
  3
Layout2
350
73
  3
Model
350
6F
  0
DICTIONARY
  5
10
102
{ACAD_REACTORS
330
C
102
}
330
C
100
AcDbDictionary
281
     1
  3
ByBlock
350
19
  3
ByLayer
350
11
  3
Global
350
21
  0
DICTIONARY
  5
66
102
{ACAD_REACTORS
330
C
102
}
330
C
100
AcDbDictionary
281
     1
  3
Standard
350
67
  0
DICTIONARY
  5
5F
102
{ACAD_REACTORS
330
C
102
}
330
C
100
AcDbDictionary
281
     1
  3
Standard
350
60
  0
DICTIONARY
  5
61
102
{ACAD_REACTORS
330
C
102
}
330
C
100
AcDbDictionary
281
     1
  0
ACDBDICTIONARYWDFLT
  5
E
102
{ACAD_REACTORS
330
C
102
}
330
C
100
AcDbDictionary
281
     1
  3
Normal
350
F
100
AcDbDictionaryWithDefault
340
F
  0
DICTIONARY
  5
42
102
{ACAD_REACTORS
330
C
102
}
330
C
100
AcDbDictionary
281
     1
  3
A0
350
43
  3
A1
350
44
  3
A2
350
45
  3
A3
350
46
  3
A4
350
47
  3
A5
350
48
  3
A6
350
49
  3
A7
350
4A
  3
A8
350
4B
  3
A9
350
4C
  3
B0
350
4D
  3
B1
350
4E
  3
B2
350
4F
  3
B3
350
50
  3
B4
350
51
  3
B5
350
52
  3
B6
350
53
  0
DICTIONARY
  5
64
102
{ACAD_REACTORS
330
C
102
}
330
C
100
AcDbDictionary
281
     1
  3
Standard
350
65
  0
DICTIONARY
  5
29
102
{ACAD_REACTORS
330
C
102
}
330
C
100
AcDbDictionary
281
     1
  3
2dWireframe
350
2F
  3
Basic
350
2E
  3
Brighten
350
35
  3
ColorChange
350
39
  3
Conceptual
350
32
  3
Dim
350
34
  3
EdgeColorOff
350
41
  3
Facepattern
350
38
  3
Flat
350
2A
  3
FlatWithEdges
350
2B
  3
Gouraud
350
2C
  3
GouraudWithEdges
350
2D
  3
Hidden
350
31
  3
JitterOff
350
3F
  3
Linepattern
350
37
  3
OverhangOff
350
40
  3
Realistic
350
33
  3
Shaded
350
3E
  3
Shaded with edges
350
3D
  3
Shades of Gray
350
3A
  3
Sketchy
350
3B
  3
Thicken
350
36
  3
Wireframe
350
30
  3
X-Ray
350
3C
  0
XRECORD
  5
D8A
102
{ACAD_REACTORS
330
C
102
}
330
C
100
AcDbXrecord
280
     1
 90
        1
330
65
330
D81
  0
DICTIONARY
  5
76
102
{ACAD_REACTORS
330
C
102
}
330
C
100
AcDbDictionary
281
     1
  3
CANNOSCALE
350
79
  3
CMLEADERSTYLE
350
78
  3
CTABLESTYLE
350
77
  0
XRECORD
  5
D89
102
{ACAD_REACTORS
330
D88
102
}
330
D88
100
AcDbXrecord
280
     1
 40
3068385.0
  1
\pxsm0.94;{\fRomanS|b0|i0;\H2.2000;PART#: NPDD4260\P(DATA SUBJECT TO CHANGE WITHOUT NOTICE)\P \P\fRomanS|b0|i0;\H1.3200;THIS DRAWING IS PROPERTY OF HUBBELL INC. WIEGMANN\PALL INFORMATION IS PROPRIETARY AND NOT TO BE DUPLICATED\P}
  0
LAYOUT
  5
6B
102
{ACAD_REACTORS
330
62
102
}
330
62
100
AcDbPlotSettings
  1

  2

  4

  6

 40
0.0
 41
0.0
 42
0.0
 43
0.0
 44
0.0
 45
0.0
 46
0.0
 47
0.0
 48
0.0
 49
0.0
140
0.0
141
0.0
142
1.0
143
1.0
 70
   688
 72
     0
 73
     0
 74
     5
  7

 75
    16
147
1.0
 76
     0
 77
     2
 78
   300
148
0.0
149
0.0
100
AcDbLayout
  1
Layout1
 70
     1
 71
     1
 10
0.0
 20
0.0
 11
12.0
 21
9.0
 12
0.0
 22
0.0
 32
0.0
 14
0.0
 24
0.0
 34
0.0
 15
0.0
 25
0.0
 35
0.0
146
0.0
 13
0.0
 23
0.0
 33
0.0
 16
1.0
 26
0.0
 36
0.0
 17
0.0
 27
1.0
 37
0.0
 76
     0
330
68
  0
LAYOUT
  5
73
102
{ACAD_REACTORS
330
62
102
}
330
62
100
AcDbPlotSettings
  1

  2

  4

  6

 40
0.0
 41
0.0
 42
0.0
 43
0.0
 44
0.0
 45
0.0
 46
0.0
 47
0.0
 48
0.0
 49
0.0
140
0.0
141
0.0
142
1.0
143
1.0
 70
   688
 72
     0
 73
     0
 74
     5
  7

 75
    16
147
1.0
 76
     0
 77
     2
 78
   300
148
0.0
149
0.0
100
AcDbLayout
  1
Layout2
 70
     1
 71
     2
 10
0.0
 20
0.0
 11
12.0
 21
9.0
 12
0.0
 22
0.0
 32
0.0
 14
0.0
 24
0.0
 34
0.0
 15
0.0
 25
0.0
 35
0.0
146
0.0
 13
0.0
 23
0.0
 33
0.0
 16
1.0
 26
0.0
 36
0.0
 17
0.0
 27
1.0
 37
0.0
 76
     0
330
70
  0
LAYOUT
  5
6F
102
{ACAD_REACTORS
330
62
102
}
330
62
100
AcDbPlotSettings
  1

  2

  4

  6

 40
0.0
 41
0.0
 42
0.0
 43
0.0
 44
0.0
 45
0.0
 46
0.0
 47
0.0
 48
0.0
 49
0.0
140
0.0
141
0.0
142
1.0
143
1.0
 70
  1712
 72
     0
 73
     0
 74
     0
  7

 75
     0
147
1.0
 76
     0
 77
     2
 78
   300
148
0.0
149
0.0
100
AcDbLayout
  1
Model
 70
     1
 71
     0
 10
0.0
 20
0.0
 11
12.0
 21
9.0
 12
0.0
 22
0.0
 32
0.0
 14
0.0
 24
0.0
 34
0.0
 15
0.0
 25
0.0
 35
0.0
146
0.0
 13
0.0
 23
0.0
 33
0.0
 16
1.0
 26
0.0
 36
0.0
 17
0.0
 27
1.0
 37
0.0
 76
     0
330
6C
  0
MATERIAL
  5
19
102
{ACAD_XDICTIONARY
360
1A
102
}
102
{ACAD_REACTORS
330
10
102
}
330
10
100
AcDbMaterial
  1
ByBlock
 72
     0
 43
0.0208333333333333
 43
0.0
 43
0.0
 43
0.0
 43
0.0
 43
0.0208333333333333
 43
0.0
 43
0.0
 43
0.0
 43
0.0
 43
1.0
 43
0.0
 43
0.0
 43
0.0
 43
0.0
 43
1.0
 77
     0
 47
0.0208333333333333
 47
0.0
 47
0.0
 47
0.0
 47
0.0
 47
0.0208333333333333
 47
0.0
 47
0.0
 47
0.0
 47
0.0
 47
1.0
 47
0.0
 47
0.0
 47
0.0
 47
0.0
 47
1.0
171
     0
 49
0.0208333333333333
 49
0.0
 49
0.0
 49
0.0
 49
0.0
 49
0.0208333333333333
 49
0.0
 49
0.0
 49
0.0
 49
0.0
 49
1.0
 49
0.0
 49
0.0
 49
0.0
 49
0.0
 49
1.0
175
     0
142
0.0208333333333333
142
0.0
142
0.0
142
0.0
142
0.0
142
0.0208333333333333
142
0.0
142
0.0
142
0.0
142
0.0
142
1.0
142
0.0
142
0.0
142
0.0
142
0.0
142
1.0
179
     0
144
0.0208333333333333
144
0.0
144
0.0
144
0.0
144
0.0
144
0.0208333333333333
144
0.0
144
0.0
144
0.0
144
0.0
144
1.0
144
0.0
144
0.0
144
0.0
144
0.0
144
1.0
147
0.0208333333333333
147
0.0
147
0.0
147
0.0
147
0.0
147
0.0208333333333333
147
0.0
147
0.0
147
0.0
147
0.0
147
1.0
147
0.0
147
0.0
147
0.0
147
0.0
147
1.0
  0
MATERIAL
  5
11
102
{ACAD_XDICTIONARY
360
12
102
}
102
{ACAD_REACTORS
330
10
102
}
330
10
100
AcDbMaterial
  1
ByLayer
 72
     0
 43
0.0208333333333333
 43
0.0
 43
0.0
 43
0.0
 43
0.0
 43
0.0208333333333333
 43
0.0
 43
0.0
 43
0.0
 43
0.0
 43
1.0
 43
0.0
 43
0.0
 43
0.0
 43
0.0
 43
1.0
 77
     0
 47
0.0208333333333333
 47
0.0
 47
0.0
 47
0.0
 47
0.0
 47
0.0208333333333333
 47
0.0
 47
0.0
 47
0.0
 47
0.0
 47
1.0
 47
0.0
 47
0.0
 47
0.0
 47
0.0
 47
1.0
171
     0
 49
0.0208333333333333
 49
0.0
 49
0.0
 49
0.0
 49
0.0
 49
0.0208333333333333
 49
0.0
 49
0.0
 49
0.0
 49
0.0
 49
1.0
 49
0.0
 49
0.0
 49
0.0
 49
0.0
 49
1.0
175
     0
142
0.0208333333333333
142
0.0
142
0.0
142
0.0
142
0.0
142
0.0208333333333333
142
0.0
142
0.0
142
0.0
142
0.0
142
1.0
142
0.0
142
0.0
142
0.0
142
0.0
142
1.0
179
     0
144
0.0208333333333333
144
0.0
144
0.0
144
0.0
144
0.0
144
0.0208333333333333
144
0.0
144
0.0
144
0.0
144
0.0
144
1.0
144
0.0
144
0.0
144
0.0
144
0.0
144
1.0
147
0.0208333333333333
147
0.0
147
0.0
147
0.0
147
0.0
147
0.0208333333333333
147
0.0
147
0.0
147
0.0
147
0.0
147
1.0
147
0.0
147
0.0
147
0.0
147
0.0
147
1.0
  0
MATERIAL
  5
21
102
{ACAD_XDICTIONARY
360
22
102
}
102
{ACAD_REACTORS
330
10
102
}
330
10
100
AcDbMaterial
  1
Global
 72
     0
 43
0.0208333333333333
 43
0.0
 43
0.0
 43
0.0
 43
0.0
 43
0.0208333333333333
 43
0.0
 43
0.0
 43
0.0
 43
0.0
 43
1.0
 43
0.0
 43
0.0
 43
0.0
 43
0.0
 43
1.0
 77
     0
 47
0.0208333333333333
 47
0.0
 47
0.0
 47
0.0
 47
0.0
 47
0.0208333333333333
 47
0.0
 47
0.0
 47
0.0
 47
0.0
 47
1.0
 47
0.0
 47
0.0
 47
0.0
 47
0.0
 47
1.0
171
     0
 49
0.0208333333333333
 49
0.0
 49
0.0
 49
0.0
 49
0.0
 49
0.0208333333333333
 49
0.0
 49
0.0
 49
0.0
 49
0.0
 49
1.0
 49
0.0
 49
0.0
 49
0.0
 49
0.0
 49
1.0
175
     0
142
0.0208333333333333
142
0.0
142
0.0
142
0.0
142
0.0
142
0.0208333333333333
142
0.0
142
0.0
142
0.0
142
0.0
142
1.0
142
0.0
142
0.0
142
0.0
142
0.0
142
1.0
179
     0
144
0.0208333333333333
144
0.0
144
0.0
144
0.0
144
0.0
144
0.0208333333333333
144
0.0
144
0.0
144
0.0
144
0.0
144
1.0
144
0.0
144
0.0
144
0.0
144
0.0
144
1.0
147
0.0208333333333333
147
0.0
147
0.0
147
0.0
147
0.0
147
0.0208333333333333
147
0.0
147
0.0
147
0.0
147
0.0
147
1.0
147
0.0
147
0.0
147
0.0
147
0.0
147
1.0
  0
MLEADERSTYLE
  5
67
102
{ACAD_XDICTIONARY
360
D86
102
}
102
{ACAD_REACTORS
330
66
102
}
330
66
100
AcDbMLeaderStyle
179
     2
170
     2
171
     1
172
     0
 90
        2
 40
0.0
 41
0.0
173
     1
 91
-1056964608
340
5B
 92
       -2
290
     1
 42
0.09
291
     1
 43
0.36
  3
Standard
 44
0.18
300

342
55
174
     1
178
     6
175
     1
176
     0
 93
-1056964608
 45
0.18
292
     0
297
     0
 46
0.18
 94
-1056964608
 47
1.0
 49
1.0
140
1.0
293
     1
141
0.0
294
     1
177
     0
142
1.0
295
     0
296
     0
143
0.125
271
     0
272
     9
273
     9
  0
MLINESTYLE
  5
60
102
{ACAD_REACTORS
330
5F
102
}
330
5F
100
AcDbMlineStyle
  2
STANDARD
 70
     0
  3

 62
   256
 51
90.0
 52
90.0
 71
     2
 49
0.5
 62
   256
  6
BYLAYER
 49
-0.5
 62
   256
  6
BYLAYER
  0
ACDBPLACEHOLDER
  5
F
102
{ACAD_REACTORS
330
E
102
}
330
E
  0
SCALE
  5
43
102
{ACAD_REACTORS
330
42
102
}
330
42
100
AcDbScale
 70
     0
300
1:1
140
1.0
141
1.0
290
     1
  0
SCALE
  5
44
102
{ACAD_REACTORS
330
42
102
}
330
42
100
AcDbScale
 70
     0
300
1/128" = 1'-0"
140
0.0078125
141
12.0
290
     0
  0
SCALE
  5
45
102
{ACAD_REACTORS
330
42
102
}
330
42
100
AcDbScale
 70
     0
300
1/64" = 1'-0"
140
0.015625
141
12.0
290
     0
  0
SCALE
  5
46
102
{ACAD_REACTORS
330
42
102
}
330
42
100
AcDbScale
 70
     0
300
1/32" = 1'-0"
140
0.03125
141
12.0
290
     0
  0
SCALE
  5
47
102
{ACAD_REACTORS
330
42
102
}
330
42
100
AcDbScale
 70
     0
300
1/16" = 1'-0"
140
0.0625
141
12.0
290
     0
  0
SCALE
  5
48
102
{ACAD_REACTORS
330
42
102
}
330
42
100
AcDbScale
 70
     0
300
3/32" = 1'-0"
140
0.09375
141
12.0
290
     0
  0
SCALE
  5
49
102
{ACAD_REACTORS
330
42
102
}
330
42
100
AcDbScale
 70
     0
300
1/8" = 1'-0"
140
0.125
141
12.0
290
     0
  0
SCALE
  5
4A
102
{ACAD_REACTORS
330
42
102
}
330
42
100
AcDbScale
 70
     0
300
3/16" = 1'-0"
140
0.1875
141
12.0
290
     0
  0
SCALE
  5
4B
102
{ACAD_REACTORS
330
42
102
}
330
42
100
AcDbScale
 70
     0
300
1/4" = 1'-0"
140
0.25
141
12.0
290
     0
  0
SCALE
  5
4C
102
{ACAD_REACTORS
330
42
102
}
330
42
100
AcDbScale
 70
     0
300
3/8" = 1'-0"
140
0.375
141
12.0
290
     0
  0
SCALE
  5
4D
102
{ACAD_REACTORS
330
42
102
}
330
42
100
AcDbScale
 70
     0
300
1/2" = 1'-0"
140
0.5
141
12.0
290
     0
  0
SCALE
  5
4E
102
{ACAD_REACTORS
330
42
102
}
330
42
100
AcDbScale
 70
     0
300
3/4" = 1'-0"
140
0.75
141
12.0
290
     0
  0
SCALE
  5
4F
102
{ACAD_REACTORS
330
42
102
}
330
42
100
AcDbScale
 70
     0
300
1" = 1'-0"
140
1.0
141
12.0
290
     0
  0
SCALE
  5
50
102
{ACAD_REACTORS
330
42
102
}
330
42
100
AcDbScale
 70
     0
300
1-1/2" = 1'-0"
140
1.5
141
12.0
290
     0
  0
SCALE
  5
51
102
{ACAD_REACTORS
330
42
102
}
330
42
100
AcDbScale
 70
     0
300
3" = 1'-0"
140
3.0
141
12.0
290
     0
  0
SCALE
  5
52
102
{ACAD_REACTORS
330
42
102
}
330
42
100
AcDbScale
 70
     0
300
6" = 1'-0"
140
6.0
141
12.0
290
     0
  0
SCALE
  5
53
102
{ACAD_REACTORS
330
42
102
}
330
42
100
AcDbScale
 70
     0
300
1'-0" = 1'-0"
140
12.0
141
12.0
290
     0
  0
TABLESTYLE
  5
65
102
{ACAD_XDICTIONARY
360
D84
102
}
102
{ACAD_REACTORS
330
64
102
}
330
64
100
AcDbTableStyle
280
     0
  3
Standard
 70
     0
 71
     0
 40
0.06
 41
0.06
280
     0
281
     0
  7
Standard
140
0.18
170
     2
 62
     0
 63
     7
283
     0
 90
      512
 91
        0
  1

274
    -2
284
     1
 64
     0
275
    -2
285
     1
 65
     0
276
    -2
286
     1
 66
     0
277
    -2
287
     1
 67
     0
278
    -2
288
     1
 68
     0
279
    -2
289
     1
 69
     0
  7
Standard
140
0.25
170
     5
 62
     0
 63
     7
283
     0
 90
      512
 91
        0
  1

274
    -2
284
     1
 64
     0
275
    -2
285
     1
 65
     0
276
    -2
286
     1
 66
     0
277
    -2
287
     1
 67
     0
278
    -2
288
     1
 68
     0
279
    -2
289
     1
 69
     0
  7
Standard
140
0.18
170
     5
 62
     0
 63
     7
283
     0
 90
      512
 91
        0
  1

274
    -2
284
     1
 64
     0
275
    -2
285
     1
 65
     0
276
    -2
286
     1
 66
     0
277
    -2
287
     1
 67
     0
278
    -2
288
     1
 68
     0
279
    -2
289
     1
 69
     0
  0
VISUALSTYLE
  5
2F
102
{ACAD_REACTORS
330
29
102
}
330
29
100
AcDbVisualStyle
  2
2dWireframe
 70
     4
177
     2
291
     0
 71
     0
176
     1
 72
     2
176
     1
 73
     0
176
     1
 90
        0
176
     1
 40
0.6
176
     1
 41
30.0
176
     1
 63
     7
421
 16777215
176
     1
 74
     1
176
     1
 91
        4
176
     1
 64
     7
176
     1
 65
   257
176
     1
 75
     1
176
     1
175
     1
176
     1
 42
1.0
176
     1
 92
        0
176
     1
 66
   257
176
     1
 43
1.0
176
     1
 76
     1
176
     1
 77
     6
176
     1
 78
     2
176
     1
 67
     7
176
     1
 79
     5
176
     1
170
     0
176
     1
171
     0
176
     1
290
     0
176
     1
 93
        1
176
     1
 44
0.0
176
     1
173
     0
176
     1
  0
VISUALSTYLE
  5
2E
102
{ACAD_REACTORS
330
29
102
}
330
29
100
AcDbVisualStyle
  2
Basic
 70
     7
177
     2
291
     1
 71
     1
176
     1
 72
     0
176
     1
 73
     1
176
     1
 90
        0
176
     1
 40
0.6
176
     1
 41
30.0
176
     1
 63
     7
421
 16777215
176
     1
 74
     0
176
     1
 91
        4
176
     1
 64
     7
176
     1
 65
   257
176
     1
 75
     1
176
     1
175
     1
176
     1
 42
1.0
176
     1
 92
        8
176
     1
 66
     7
176
     1
 43
1.0
176
     1
 76
     1
176
     1
 77
     6
176
     1
 78
     2
176
     1
 67
     7
176
     1
 79
     5
176
     1
170
     0
176
     1
171
     0
176
     1
290
     0
176
     1
 93
        1
176
     1
 44
0.0
176
     1
173
     0
176
     1
  0
VISUALSTYLE
  5
35
102
{ACAD_REACTORS
330
29
102
}
330
29
100
AcDbVisualStyle
  2
Brighten
 70
    12
177
     2
291
     1
 71
     2
176
     1
 72
     2
176
     1
 73
     0
176
     1
 90
        0
176
     1
 40
0.6
176
     1
 41
30.0
176
     1
 63
     7
421
 16777215
176
     1
 74
     1
176
     1
 91
        4
176
     1
 64
     7
176
     1
 65
   257
176
     1
 75
     1
176
     1
175
     1
176
     1
 42
1.0
176
     1
 92
        8
176
     1
 66
     7
176
     1
 43
1.0
176
     1
 76
     1
176
     1
 77
     6
176
     1
 78
     2
176
     1
 67
     7
176
     1
 79
     5
176
     1
170
     0
176
     1
171
     0
176
     1
290
     0
176
     1
 93
        1
176
     1
 44
50.0
176
     1
173
     0
176
     1
  0
VISUALSTYLE
  5
39
102
{ACAD_REACTORS
330
29
102
}
330
29
100
AcDbVisualStyle
  2
ColorChange
 70
    16
177
     2
291
     1
 71
     2
176
     1
 72
     2
176
     1
 73
     3
176
     1
 90
        0
176
     1
 40
0.6
176
     1
 41
30.0
176
     1
 63
     8
421
  8421504
176
     1
 74
     1
176
     1
 91
        4
176
     1
 64
     7
176
     1
 65
   257
176
     1
 75
     1
176
     1
175
     1
176
     1
 42
1.0
176
     1
 92
        8
176
     1
 66
     8
424
  8421504
176
     1
 43
1.0
176
     1
 76
     1
176
     1
 77
     6
176
     1
 78
     2
176
     1
 67
     7
176
     1
 79
     5
176
     1
170
     0
176
     1
171
     0
176
     1
290
     0
176
     1
 93
        1
176
     1
 44
0.0
176
     1
173
     0
176
     1
  0
VISUALSTYLE
  5
32
102
{ACAD_REACTORS
330
29
102
}
330
29
100
AcDbVisualStyle
  2
Conceptual
 70
     9
177
     2
291
     0
 71
     3
176
     1
 72
     2
176
     1
 73
     0
176
     1
 90
        0
176
     1
 40
0.6
176
     1
 41
30.0
176
     1
 63
     7
421
 16777215
176
     1
 74
     2
176
     1
 91
        2
176
     1
 64
     7
176
     1
 65
   257
176
     1
 75
     1
176
     1
175
     1
176
     1
 42
179.0
176
     1
 92
        8
176
     1
 66
     7
176
     1
 43
1.0
176
     1
 76
     1
176
     1
 77
     6
176
     1
 78
     2
176
     1
 67
     7
176
     1
 79
     3
176
     1
170
     0
176
     1
171
     0
176
     1
290
     0
176
     1
 93
        1
176
     1
 44
0.0
176
     1
173
     0
176
     1
  0
VISUALSTYLE
  5
34
102
{ACAD_REACTORS
330
29
102
}
330
29
100
AcDbVisualStyle
  2
Dim
 70
    11
177
     2
291
     1
 71
     2
176
     1
 72
     2
176
     1
 73
     0
176
     1
 90
        0
176
     1
 40
0.6
176
     1
 41
30.0
176
     1
 63
     7
421
 16777215
176
     1
 74
     1
176
     1
 91
        4
176
     1
 64
     7
176
     1
 65
   257
176
     1
 75
     1
176
     1
175
     1
176
     1
 42
1.0
176
     1
 92
        8
176
     1
 66
     7
176
     1
 43
1.0
176
     1
 76
     1
176
     1
 77
     6
176
     1
 78
     2
176
     1
 67
     7
176
     1
 79
     5
176
     1
170
     0
176
     1
171
     0
176
     1
290
     0
176
     1
 93
        1
176
     1
 44
-50.0
176
     1
173
     0
176
     1
  0
VISUALSTYLE
  5
41
102
{ACAD_REACTORS
330
29
102
}
330
29
100
AcDbVisualStyle
  2
EdgeColorOff
 70
    22
177
     2
291
     1
 71
     2
176
     0
 72
     2
176
     0
 73
     0
176
     0
 90
        0
176
     0
 40
0.6
176
     0
 41
30.0
176
     0
 63
     7
421
 16777215
176
     0
 74
     1
176
     0
 91
        4
176
     0
 64
     7
176
     0
 65
   257
176
     0
 75
     1
176
     0
175
     1
176
     0
 42
1.0
176
     0
 92
        8
176
     2
 66
     7
176
     0
 43
1.0
176
     0
 76
     1
176
     0
 77
     6
176
     0
 78
     2
176
     0
 67
     7
176
     0
 79
     5
176
     0
170
     0
176
     0
171
     0
176
     0
290
     0
176
     0
 93
        1
176
     0
 44
0.0
176
     0
173
     0
176
     0
  0
VISUALSTYLE
  5
38
102
{ACAD_REACTORS
330
29
102
}
330
29
100
AcDbVisualStyle
  2
Facepattern
 70
    15
177
     2
291
     1
 71
     2
176
     1
 72
     2
176
     1
 73
     0
176
     1
 90
        0
176
     1
 40
0.6
176
     1
 41
30.0
176
     1
 63
     7
421
 16777215
176
     1
 74
     1
176
     1
 91
        4
176
     1
 64
     7
176
     1
 65
   257
176
     1
 75
     1
176
     1
175
     1
176
     1
 42
1.0
176
     1
 92
        8
176
     1
 66
     7
176
     1
 43
1.0
176
     1
 76
     1
176
     1
 77
     6
176
     1
 78
     2
176
     1
 67
     7
176
     1
 79
     5
176
     1
170
     0
176
     1
171
     0
176
     1
290
     0
176
     1
 93
        1
176
     1
 44
0.0
176
     1
173
     0
176
     1
  0
VISUALSTYLE
  5
2A
102
{ACAD_REACTORS
330
29
102
}
330
29
100
AcDbVisualStyle
  2
Flat
 70
     0
177
     2
291
     1
 71
     2
176
     1
 72
     1
176
     1
 73
     1
176
     1
 90
        2
176
     1
 40
0.6
176
     1
 41
30.0
176
     1
 63
     7
421
 16777215
176
     1
 74
     0
176
     1
 91
        0
176
     1
 64
     7
176
     1
 65
   257
176
     1
 75
     1
176
     1
175
     1
176
     1
 42
1.0
176
     1
 92
        8
176
     1
 66
     7
176
     1
 43
1.0
176
     1
 76
     1
176
     1
 77
     6
176
     1
 78
     2
176
     1
 67
     7
176
     1
 79
     5
176
     1
170
     0
176
     1
171
     0
176
     1
290
     0
176
     1
 93
       13
176
     1
 44
0.0
176
     1
173
     0
176
     1
  0
VISUALSTYLE
  5
2B
102
{ACAD_REACTORS
330
29
102
}
330
29
100
AcDbVisualStyle
  2
FlatWithEdges
 70
     1
177
     2
291
     1
 71
     2
176
     1
 72
     1
176
     1
 73
     1
176
     1
 90
        2
176
     1
 40
0.6
176
     1
 41
30.0
176
     1
 63
     7
421
 16777215
176
     1
 74
     1
176
     1
 91
        0
176
     1
 64
     7
176
     1
 65
   257
176
     1
 75
     1
176
     1
175
     1
176
     1
 42
1.0
176
     1
 92
        0
176
     1
 66
   257
176
     1
 43
1.0
176
     1
 76
     1
176
     1
 77
     6
176
     1
 78
     2
176
     1
 67
     7
176
     1
 79
     5
176
     1
170
     0
176
     1
171
     0
176
     1
290
     0
176
     1
 93
       13
176
     1
 44
0.0
176
     1
173
     0
176
     1
  0
VISUALSTYLE
  5
2C
102
{ACAD_REACTORS
330
29
102
}
330
29
100
AcDbVisualStyle
  2
Gouraud
 70
     2
177
     2
291
     1
 71
     2
176
     1
 72
     2
176
     1
 73
     1
176
     1
 90
        2
176
     1
 40
0.6
176
     1
 41
30.0
176
     1
 63
     7
421
 16777215
176
     1
 74
     0
176
     1
 91
        0
176
     1
 64
     7
176
     1
 65
   257
176
     1
 75
     1
176
     1
175
     1
176
     1
 42
1.0
176
     1
 92
        0
176
     1
 66
     7
176
     1
 43
1.0
176
     1
 76
     1
176
     1
 77
     6
176
     1
 78
     2
176
     1
 67
     7
176
     1
 79
     5
176
     1
170
     0
176
     1
171
     0
176
     1
290
     0
176
     1
 93
       13
176
     1
 44
0.0
176
     1
173
     0
176
     1
  0
VISUALSTYLE
  5
2D
102
{ACAD_REACTORS
330
29
102
}
330
29
100
AcDbVisualStyle
  2
GouraudWithEdges
 70
     3
177
     2
291
     1
 71
     2
176
     1
 72
     2
176
     1
 73
     1
176
     1
 90
        2
176
     1
 40
0.6
176
     1
 41
30.0
176
     1
 63
     7
421
 16777215
176
     1
 74
     1
176
     1
 91
        0
176
     1
 64
     7
176
     1
 65
   257
176
     1
 75
     1
176
     1
175
     1
176
     1
 42
1.0
176
     1
 92
        0
176
     1
 66
   257
176
     1
 43
1.0
176
     1
 76
     1
176
     1
 77
     6
176
     1
 78
     2
176
     1
 67
     7
176
     1
 79
     5
176
     1
170
     0
176
     1
171
     0
176
     1
290
     0
176
     1
 93
       13
176
     1
 44
0.0
176
     1
173
     0
176
     1
  0
VISUALSTYLE
  5
31
102
{ACAD_REACTORS
330
29
102
}
330
29
100
AcDbVisualStyle
  2
Hidden
 70
     6
177
     2
291
     0
 71
     1
176
     1
 72
     2
176
     1
 73
     2
176
     1
 90
        0
176
     1
 40
0.6
176
     1
 41
30.0
176
     1
 63
     7
421
 16777215
176
     1
 74
     2
176
     1
 91
        2
176
     1
 64
     7
176
     1
 65
   257
176
     1
 75
     2
176
     1
175
     1
176
     1
 42
40.0
176
     1
 92
        0
176
     1
 66
   257
176
     1
 43
1.0
176
     1
 76
     1
176
     1
 77
     6
176
     1
 78
     2
176
     1
 67
     7
176
     1
 79
     3
176
     1
170
     0
176
     1
171
     0
176
     1
290
     0
176
     1
 93
        1
176
     1
 44
0.0
176
     1
173
     0
176
     1
  0
VISUALSTYLE
  5
3F
102
{ACAD_REACTORS
330
29
102
}
330
29
100
AcDbVisualStyle
  2
JitterOff
 70
    20
177
     2
291
     1
 71
     2
176
     0
 72
     2
176
     0
 73
     0
176
     0
 90
        0
176
     0
 40
0.6
176
     0
 41
30.0
176
     0
 63
     7
421
 16777215
176
     0
 74
     1
176
     0
 91
        4
176
     0
 64
     7
176
     0
 65
   257
176
     0
 75
     1
176
     0
175
     1
176
     0
 42
1.0
176
     0
 92
       10
176
     2
 66
     7
176
     0
 43
1.0
176
     0
 76
     1
176
     0
 77
     6
176
     0
 78
     2
176
     0
 67
     7
176
     0
 79
     5
176
     0
170
     0
176
     0
171
     0
176
     0
290
     0
176
     0
 93
        1
176
     0
 44
0.0
176
     0
173
     0
176
     0
  0
VISUALSTYLE
  5
37
102
{ACAD_REACTORS
330
29
102
}
330
29
100
AcDbVisualStyle
  2
Linepattern
 70
    14
177
     2
291
     1
 71
     2
176
     1
 72
     2
176
     1
 73
     0
176
     1
 90
        0
176
     1
 40
0.6
176
     1
 41
30.0
176
     1
 63
     7
421
 16777215
176
     1
 74
     1
176
     1
 91
        4
176
     1
 64
     7
176
     1
 65
   257
176
     1
 75
     7
176
     1
175
     7
176
     1
 42
1.0
176
     1
 92
        8
176
     1
 66
     7
176
     1
 43
1.0
176
     1
 76
     1
176
     1
 77
     6
176
     1
 78
     2
176
     1
 67
     7
176
     1
 79
     5
176
     1
170
     0
176
     1
171
     0
176
     1
290
     0
176
     1
 93
        1
176
     1
 44
0.0
176
     1
173
     0
176
     1
  0
VISUALSTYLE
  5
40
102
{ACAD_REACTORS
330
29
102
}
330
29
100
AcDbVisualStyle
  2
OverhangOff
 70
    21
177
     2
291
     1
 71
     2
176
     0
 72
     2
176
     0
 73
     0
176
     0
 90
        0
176
     0
 40
0.6
176
     0
 41
30.0
176
     0
 63
     7
421
 16777215
176
     0
 74
     1
176
     0
 91
        4
176
     0
 64
     7
176
     0
 65
   257
176
     0
 75
     1
176
     0
175
     1
176
     0
 42
1.0
176
     0
 92
        9
176
     2
 66
     7
176
     0
 43
1.0
176
     0
 76
     1
176
     0
 77
     6
176
     0
 78
     2
176
     0
 67
     7
176
     0
 79
     5
176
     0
170
     0
176
     0
171
     0
176
     0
290
     0
176
     0
 93
        1
176
     0
 44
0.0
176
     0
173
     0
176
     0
  0
VISUALSTYLE
  5
33
102
{ACAD_REACTORS
330
29
102
}
330
29
100
AcDbVisualStyle
  2
Realistic
 70
     8
177
     2
291
     0
 71
     2
176
     1
 72
     3
176
     1
 73
     0
176
     1
 90
        2
176
     1
 40
0.6
176
     1
 41
30.0
176
     1
 63
     7
421
 16777215
176
     1
 74
     0
176
     1
 91
        0
176
     1
 64
     7
176
     1
 65
   257
176
     1
 75
     1
176
     1
175
     1
176
     1
 42
1.0
176
     1
 92
        8
176
     1
 66
   257
176
     1
 43
1.0
176
     1
 76
     1
176
     1
 77
     6
176
     1
 78
     2
176
     1
 67
     7
176
     1
 79
     3
176
     1
170
     0
176
     1
171
     0
176
     1
290
     0
176
     1
 93
       13
176
     1
 44
0.0
176
     1
173
     0
176
     1
  0
VISUALSTYLE
  5
3E
102
{ACAD_REACTORS
330
29
102
}
330
29
100
AcDbVisualStyle
  2
Shaded
 70
    27
177
     2
291
     0
 71
     2
176
     1
 72
     2
176
     1
 73
     1
176
     1
 90
        2
176
     1
 40
0.6
176
     1
 41
30.0
176
     1
 63
     7
421
 16777215
176
     1
 74
     0
176
     1
 91
        4
176
     1
 64
     7
176
     1
 65
   257
176
     1
 75
     1
176
     1
175
     1
176
     1
 42
1.0
176
     1
 92
        8
176
     1
 66
   257
176
     1
 43
1.0
176
     1
 76
     1
176
     1
 77
     6
176
     1
 78
     2
176
     1
 67
     8
425
  7895160
176
     1
 79
     3
176
     1
170
     0
176
     1
171
     0
176
     1
290
     0
176
     1
 93
        5
176
     1
 44
0.0
176
     1
173
     0
176
     1
  0
VISUALSTYLE
  5
3D
102
{ACAD_REACTORS
330
29
102
}
330
29
100
AcDbVisualStyle
  2
Shaded with edges
 70
    26
177
     2
291
     0
 71
     2
176
     1
 72
     2
176
     1
 73
     1
176
     1
 90
        2
176
     1
 40
0.6
176
     1
 41
30.0
176
     1
 63
     7
421
 16777215
176
     1
 74
     1
176
     1
 91
       10
176
     1
 64
     7
176
     1
 65
   257
176
     1
 75
     2
176
     1
175
     1
176
     1
 42
1.0
176
     1
 92
        8
176
     1
 66
   257
176
     1
 43
1.0
176
     1
 76
     1
176
     1
 77
     6
176
     1
 78
     2
176
     1
 67
     7
176
     1
 79
     3
176
     1
170
     0
176
     1
171
     0
176
     1
290
     0
176
     1
 93
        5
176
     1
 44
0.0
176
     1
173
     0
176
     1
  0
VISUALSTYLE
  5
3A
102
{ACAD_REACTORS
330
29
102
}
330
29
100
AcDbVisualStyle
  2
Shades of Gray
 70
    23
177
     2
291
     0
 71
     2
176
     1
 72
     2
176
     1
 73
     3
176
     1
 90
        0
176
     1
 40
0.6
176
     1
 41
30.0
176
     1
 63
     7
421
 16777215
176
     1
 74
     2
176
     1
 91
        2
176
     1
 64
     7
176
     1
 65
     7
176
     1
 75
     1
176
     1
175
     1
176
     1
 42
40.0
176
     1
 92
        8
176
     1
 66
     7
176
     1
 43
1.0
176
     1
 76
     1
176
     1
 77
     6
176
     1
 78
     2
176
     1
 67
     7
176
     1
 79
     3
176
     1
170
     0
176
     1
171
     0
176
     1
290
     0
176
     1
 93
        1
176
     1
 44
0.0
176
     1
173
     0
176
     1
  0
VISUALSTYLE
  5
3B
102
{ACAD_REACTORS
330
29
102
}
330
29
100
AcDbVisualStyle
  2
Sketchy
 70
    24
177
     2
291
     0
 71
     1
176
     1
 72
     2
176
     1
 73
     2
176
     1
 90
        0
176
     1
 40
0.6
176
     1
 41
30.0
176
     1
 63
     7
421
 16777215
176
     1
 74
     2
176
     1
 91
        2
176
     1
 64
     7
176
     1
 65
     7
176
     1
 75
     1
176
     1
175
     1
176
     1
 42
40.0
176
     1
 92
       11
176
     1
 66
     7
176
     1
 43
1.0
176
     1
 76
     1
176
     1
 77
     6
176
     1
 78
     2
176
     1
 67
     7
176
     1
 79
     6
176
     1
170
     0
176
     1
171
     0
176
     1
290
     0
176
     1
 93
        1
176
     1
 44
0.0
176
     1
173
     0
176
     1
  0
VISUALSTYLE
  5
36
102
{ACAD_REACTORS
330
29
102
}
330
29
100
AcDbVisualStyle
  2
Thicken
 70
    13
177
     2
291
     1
 71
     2
176
     1
 72
     2
176
     1
 73
     0
176
     1
 90
        0
176
     1
 40
0.6
176
     1
 41
30.0
176
     1
 63
     7
421
 16777215
176
     1
 74
     1
176
     1
 91
        4
176
     1
 64
     7
176
     1
 65
   257
176
     1
 75
     1
176
     1
175
     1
176
     1
 42
1.0
176
     1
 92
       12
176
     1
 66
     7
176
     1
 43
1.0
176
     1
 76
     1
176
     1
 77
     6
176
     1
 78
     2
176
     1
 67
     7
176
     1
 79
     5
176
     1
170
     0
176
     1
171
     0
176
     1
290
     0
176
     1
 93
        1
176
     1
 44
0.0
176
     1
173
     0
176
     1
  0
VISUALSTYLE
  5
30
102
{ACAD_REACTORS
330
29
102
}
330
29
100
AcDbVisualStyle
  2
Wireframe
 70
     5
177
     2
291
     0
 71
     0
176
     1
 72
     2
176
     1
 73
     0
176
     1
 90
        0
176
     1
 40
0.6
176
     1
 41
30.0
176
     1
 63
     7
421
 16777215
176
     1
 74
     1
176
     1
 91
        4
176
     1
 64
     7
176
     1
 65
   257
176
     1
 75
     1
176
     1
175
     1
176
     1
 42
1.0
176
     1
 92
        0
176
     1
 66
   257
176
     1
 43
1.0
176
     1
 76
     1
176
     1
 77
     6
176
     1
 78
     2
176
     1
 67
     7
176
     1
 79
     3
176
     1
170
     0
176
     1
171
     0
176
     1
290
     0
176
     1
 93
        1
176
     1
 44
0.0
176
     1
173
     0
176
     1
  0
VISUALSTYLE
  5
3C
102
{ACAD_REACTORS
330
29
102
}
330
29
100
AcDbVisualStyle
  2
X-Ray
 70
    25
177
     2
291
     0
 71
     2
176
     1
 72
     2
176
     1
 73
     1
176
     1
 90
        1
176
     1
 40
0.5
176
     1
 41
30.0
176
     1
 63
     7
421
 16777215
176
     1
 74
     1
176
     1
 91
        0
176
     1
 64
     7
176
     1
 65
   257
176
     1
 75
     1
176
     1
175
     1
176
     1
 42
1.0
176
     1
 92
        8
176
     1
 66
     7
176
     1
 43
1.0
176
     1
 76
     1
176
     1
 77
     6
176
     1
 78
     2
176
     1
 67
     7
176
     1
 79
     3
176
     1
170
     0
176
     1
171
     0
176
     1
290
     0
176
     1
 93
       13
176
     1
 44
0.0
176
     1
173
     0
176
     1
  0
DICTIONARYVAR
  5
79
102
{ACAD_REACTORS
330
76
102
}
330
76
100
DictionaryVariables
280
     0
  1
1:1
  0
DICTIONARYVAR
  5
78
102
{ACAD_REACTORS
330
76
102
}
330
76
100
DictionaryVariables
280
     0
  1
STANDARD
  0
DICTIONARYVAR
  5
77
102
{ACAD_REACTORS
330
76
102
}
330
76
100
DictionaryVariables
280
     0
  1
STANDARD
  0
DICTIONARY
  5
1A
330
19
100
AcDbDictionary
280
     1
281
     1
  3
BUMPTILE
360
1C
  3
DIFFUSETILE
360
1B
  3
OPACITYTILE
360
1F
  3
REFLECTIONTILE
360
1E
  3
REFRACTIONTILE
360
20
  3
SPECULARTILE
360
1D
  0
DICTIONARY
  5
12
330
11
100
AcDbDictionary
280
     1
281
     1
  3
BUMPTILE
360
14
  3
DIFFUSETILE
360
13
  3
FBXASSET
360
109
  3
OPACITYTILE
360
17
  3
REFLECTIONTILE
360
16
  3
REFRACTIONTILE
360
18
  3
SPECULARTILE
360
15
  0
DICTIONARY
  5
22
330
21
100
AcDbDictionary
280
     1
281
     1
  3
BUMPTILE
360
24
  3
DIFFUSETILE
360
23
  3
FBXASSET
360
BA
  3
OPACITYTILE
360
27
  3
REFLECTIONTILE
360
26
  3
REFRACTIONTILE
360
28
  3
SPECULARTILE
360
25
  0
DICTIONARY
  5
D86
330
67
100
AcDbDictionary
280
     1
281
     1
  3
ACAD_XREC_ROUNDTRIP
360
D87
  0
DICTIONARY
  5
D84
330
65
100
AcDbDictionary
280
     1
281
     1
  3
ACAD_ROUNDTRIP_2008_TABLESTYLE_CELLSTYLEMAP
360
D85
  0
XRECORD
  5
1C
102
{ACAD_REACTORS
330
1A
102
}
330
1A
100
AcDbXrecord
280
     1
270
     1
271
     1
  0
XRECORD
  5
1B
102
{ACAD_REACTORS
330
1A
102
}
330
1A
100
AcDbXrecord
280
     1
270
     1
271
     1
  0
XRECORD
  5
1F
102
{ACAD_REACTORS
330
1A
102
}
330
1A
100
AcDbXrecord
280
     1
270
     1
271
     1
  0
XRECORD
  5
1E
102
{ACAD_REACTORS
330
1A
102
}
330
1A
100
AcDbXrecord
280
     1
270
     1
271
     1
  0
XRECORD
  5
20
102
{ACAD_REACTORS
330
1A
102
}
330
1A
100
AcDbXrecord
280
     1
270
     1
271
     1
  0
XRECORD
  5
1D
102
{ACAD_REACTORS
330
1A
102
}
330
1A
100
AcDbXrecord
280
     1
270
     1
271
     1
  0
XRECORD
  5
14
102
{ACAD_REACTORS
330
12
102
}
330
12
100
AcDbXrecord
280
     1
270
     1
271
     1
  0
XRECORD
  5
13
102
{ACAD_REACTORS
330
12
102
}
330
12
100
AcDbXrecord
280
     1
270
     1
271
     1
  0
XRECORD
  5
109
102
{ACAD_REACTORS
330
12
102
}
330
12
100
AcDbXrecord
280
     1
 70
     1
 90
1959938040
 71
     1
  1
0E795395-EF73-43CC-B37D-C8A6257C2FDB
311
504B03040A00000800008154D5423DEE336E79000000790000001B0000006175746F6465736B2D64657369676E2D7061636B6167652E786D6C3C3F786D6C2076657273696F6E3D22312E302220656E636F64696E673D227574662D3822203F3E3C666F726D6174733E3C666F726D61743E687474703A2F2F736368656D612E
311
6175746F6465736B2E636F6D2F64657369676E2D7061636B6167652F323030393C2F666F726D61743E3C2F666F726D6174733E504B03041400060808008154D542D486FD9CA0000000F4000000130000005B436F6E74656E745F54797065735D2E786D6C7D8EC10E82300C865F65E91D8A1E8C310C0EEA1BF002731658846E
311
D98AC1B77784ABF1D8FE5FBFBF75BBCE937A534CCEB38643598122B6FEE978D0B0485F9C41B54DDD7D022595594E1A469170414C76A4D9A4D207E29CF43ECE46F218070CC6BECC4078ACAA135ACF422C856C0E68EA1BF5669944DDD7BCDE7B1F8E415D77AECB980613C2E4AC91FC167A2B244592486606FC29C8FD7F045B9A
311
EF7053A7E60B504B03041400060808008154D542D54D49D3EB0000007C01000008000000636F72652E786D6C8D90416EC3201045AF82665B618389EDD4C244AAEB9CA01740405C94182C03558F5F9C3852BBEB6A467FFE9B197D7EFA9E6FE8CBACC17AD7032D0820E394D7D64D3DA478C1474027C157EFE32F1B202767D3C3
311
2683E0D3EAD3B24BCABB685CCCAAF3DAECA20CC14440EA969B1E82FA34B32C648AD911AEC522D5554EA6A0CF2EC329598D1E47ACCEFBECC59A15C4C846360C6F048F4DF58A0FECFD8C8F87E1889B613CD72D195A52B7BCDC60C1A39D9FF7D56A64341A444528C3A4C115FDA0A4634D47D80BA93B4678B9D9FF4069D1FF8492
311
759155FBBB0F2C80A0F991FB40F072CB22977B50B96EB9891F504B03041400060808008154D54255019EA25F0000007C00000007000000636E782E786D6C4DCB3B0E80201045D1AD90E915ED2CF8AC45050C11660C8261F98AB1B07AC9C97D42D718D865D3E909258CFD00CCE24AC6E326A164D74DC0B4128928FF32603847
311
2BA13128B1252AC747C6BAB984FC68F0B87FE8960A5C09FE86CFB69FBA01504B03041400060808008154D542156509A368010000020300000C0000006662782F636F72652E786D6C8D525B6E833010BC8AE5DFCAD84042D2C838522939412FE0804351C046C646397E9747445345518564AC999DDDD9017EBCB50D1A94ED6B
311
A3531C060C23A50B53D6BA4AB17717B2C7E828B835C6FD2AC348CB56A57884B1E09535BE5BA0C268A7B403549B522DA0EC7BE5302A1AB8A4B82FBE552B03E91D54F4D7A093C555562A0803A0A14EF0DE593080E621E389C5E57CE374C605F7BE2E17B62E615A7DA995C5228FF338CB3E18C993E89D6CE2CF13D96FB23D49B2
311
FCB4DDB16CC7B63B4E47B1E0AE6EEFEE0AABA4532516110B63C21212855F213BC4C981C56F6C7B8819A763F983C877E53F45BED62E8E16BBB3ACC722042313F1675B88C8A15E0EE0870A4EC710E13525FC18340402213B796EEE7B5C011A54E18CDD00531ABF52836CBC82A90C4D0FA7330B9DA706B0D9D33ED18B3EAF7BC0
311
0794BA026BD2C1F5ECDD389DCF5397283A65C9E06E481BDBCA6635375B5CCF75D05379611A63FFA3A6CBAA7409938E7FAFF801504B03041400060808008154D542B33F1AF17E0000009D0000000B0000006662782F636E782E786D6C4DCCD10A83201886E15B91FFDCE57459811AB1F23E625948A6C3E9D8E5AF46073BFAE0
311
E1E315ED6773E86DE2CB062FE17A21808C7F84C9FA45424E33AE01B54AC410D2DF0D901F3723E160506289213F4F9ACC3C66977675D6AF2796A5D6947186356B067CABEA0A375C53DC0F0365A4235DCFEF502851FC4AFB1E61F505504B03041400060808008154D542379AABE72C01000014020000310000006662782F3535
311
4646323336332D463339452D343738372D393646322D4445453233304130414436432F636F72652E786D6C8D515B6EC32010BC8AC557AA0A9B474C1EC24451139FA0177080B82831583CAA1CBFB876A4F62F3F2C9A9D991DEDF2C363B817DFDA07E36C03708940A1AD74CAD8BE01295EE1161407C1BD73F10F0D14B61B7403
311
261808DE7B97C60592CE466D6346AD537A01BB10740485BCE74F0382FCD2435776296646B89563276F5DAF4B5CE676E6091EA2CF018A79C8F40251D76D4B28A3B0A5BB335C6FB61BB8632D81A7F399507444C713FBE0D52C143C25A316B951398EB91AED5F3599C48247333CE34BAFBBA8151004610A1183047F62B4A76C8F
311
E83BAAF714F16AA2FF13A551BD284AC6464A96B8B32C008179353704572E5DEECF30FA313A1F8B69DE2A68F906042A11260C13BCE3D54CCD0BC89E6CBD7886E87C5EF0EA76C96C5CCFC66C2D7835DD2897DF03E63ADD53FC00504B03041400060808008154D54283FBD7584E01000033030000300000006662782F35354646
311
323336332D463339452D343738372D393646322D4445453233304130414436432F636E782E786D6CD593CD6EC32010845F0571ADFC17A756156122F5D027E8A1570C9B840683C54FD5BC7D9784A4B9E4D0632FC89A1D66569F30DB7ECF867C810FDAD99176754B0958E994B6FB91A6B8AB5E28D972E69D8B77364AAC9861A4
311
59A69CEDBD4B4B9114EC44321155A3EDB1881E824B5E424039DF24C6496130006C9550847902A540919B11BF76E0711514A7138907206FAF1FC44D9F2063604D4EE1ACC91D9CE5B334DD992891468430D2200F308B5AA4E8148463AD441475575FBB1EECF49B44F2856B65F29AE4F291E693F2B2518D1C598343CE42F448AF
311
98E26901CAC5B2182D4544C8CDD978F17096B48DC3BA783582F7E8EE867EBDC6B0F38CB3A867280EE941445094AFDAAEAFDAA15A75EF5DBBE9874DDB3FB5CF9BBE654DB673363967CA258C01EF16229D8D6023E51D6BF2F811BEE2234A7B64EDFCE90F20114069BDD0B965FC673ECDF97D232E8F7F01FF01504B0304140006
311
0808008154D5425FEF6DFAA405000081100000340000006662782F35354646323336332D463339452D343738372D393646322D4445453233304130414436432F6F626A656374732E786D6CAD57D98EDB3614FD15417D691F2C799BADD0A818DB3381914E12C448D00703062D511A76A8052435F1F4EB7B2852B2E4D813B7C8
311
8B162E97F79E7BEEC2E08F5DC69D172A242BF25B77E40D5D87E65111B33CBD752B950CAE5DE78F301045A13ACB5C272719BD75F5B01B06A928AAD20EC53421155707A30FB3BF1C19D19CBA4EC48994B7AE8C9E68463C52A922A6F2D98B89225E9AECBC916716F6C5A682944F07424B2268AEA029C67348718C52A3FEEFD0F5
311
C3C0D7F361A09F76D5E4F42ABFB6A77F3ECBA52279F4DD61076226A3E9E27E7C7133B8984E2783E9E57834983DCC1683D1D56438BF9CCF6FEEEE6F70B0540292AC2682266EF80ED8081605BE990A838AE56A32B64BAC837C415F98F6941B8E9D51E09B35AD75D6C863EA47459ED3A8C60A68D4F659D1312D691EC3E78C4A68
311
D64168D8FF1D691C3BD313FD6F8FEC0E9F874077474750A37BF3EE6A5A6CFF8609F21C06094935030D96D650C3D5E11EE16D51703BC7A49311450523DCE16C2B887875432CD54BC2A027463359E868D016B821BC60A6FB744118FD98E7C7B44C2ACE358DDDB08E820D62852A596BC6FEA162AF7D1719E8045F69365C5B83D4
311
6B49DDF0C650E4FA804D064827E12485CB61A6DE39191F183AD771BA5CB8E1FB87ED6EA563F7F8E1A5284A2A94A60FA8D538AE796B94AC4EA3B33CA737B807AAEC41F90CE43F20D4F7AAC06F82EDA6BBA93D450992CBA410197CE30C9DC1108FA133AA9FFABBF315F8EDE6BEF74EE109676BA87E029E7D1BBABEECC019062F
311
207C2126D6B4554438D2C623CB01902689C30B0C210F27DB9D1B2E91E59095B18BF0700493A1EE0B3E03DF8A41A2A84FEABC7360799016CF48D080AD6624D430E4B70AEEFDF45D3AAB0FB6CB4EC17BF153E87AB758BD5F552221117DB431BDA009CB994289DBF3A6AB500FF39E45CFF4F55B216218FA3DDEAB2EDE993D4A02
311
6D8DB9063E6D72BAFED99FDC3B20C2BEB4D0E926F8C109304217D68EFC472623CA39C9695135E7BE593F50360CC43AD83593DB02B32F2C208D9939884114E948B05283D856AB36697A27ACFBB2FC0046BAE1ECF54FF2DACD5EDB7DEE8D0A5E88CDF67563D2D251A8BFF6B96D31F0B514D0BD0E9226FE2DE89B982549259104
311
8FE0FA7539EFFA4EA705A48846AA899629EC4770116149DBC845B5160495B4C8370C75137177F480AE7C406A19500B3CA5B1A43CD930CEAB6C93308E6AB4C94879028EFFAFFFB6CACA0DC98A2A572764F7544775E8EBDE63AFFC4654F4E486ABFA3D9821F7C6343E41065D4B8E60D573EDF0FEEAE662727331B87FB842FF34
311
99CF07B3C9D56230BFBEBB1C5F5CCDC70F8B59E327A3491834A5A61BD1F0124A5B500966DDF76589F8B149C00D1F8992EB77263C9BF797A5875E38F0B107F5B2DD7817BFA0EFA3F18F05EC571E15B4CC4A4E339A2BA263E8517FF0CF047D464F1933BECC484ACF90F2F1DDEAC0188C9CB1EF938E77FAED60AF1D9DEB803C2A
311
443D55D936278C1F6C4C0D925E99A716BFC627EDDB149AE657FF59C7A03395056731F260ECA4B4C8A842363CA308898C4A50AFDBD3C7F6EE71C6EE17D3212AB2E5B4D1E489A049E61261016A5591EA8F3BBFA0A9D37DD5AD8B72EB3DE3613385EB8033B72E9A74C5222ABD2D0AB46E856AE1E052B79347E34FF294A3D7369B
311
DAFF7697C6A65792DB25E7F44FD62E93C2AD01482325FA063444F04EAD4C18D4BAD9F9E83F19DEA8E31085CF6DA55A5BF603AD31F53108516394BD2DA08979B647EF10A86F9B35F2EA353D44CEBA65BD49022375A08848EB9B82D6CFAA74B7F8E4A34371961F9D9257297C79BEA481A02073A5031C2C022BACCC92285075FE
311
FBFA93287093CD9C07060A38BFEEAE2F7F5BCF8B2C2B7233B4BEB3F76167F584DB6DBC4672A0FA5A22D7E3E168BCAEAF03F686B2D912493D12CB670CC0B382B540F7DC0F5E9A3B23EA909968D7F9DA15070C5D2E1C5BD8A6106AE9D2CDAD1A1C341E39751043FA4AA923A6BBA07CF346E0D74BA182402F1FFE0B504B030414
311
00060800008154D542000000000000000000000000350000006662782F35354646323336332D463339452D343738372D393646322D4445453233304130414436432F76657274696365732E62696E504B03041400060808008154D542F270F1330600000004000000360000006662782F35354646323336332D463339452D34
311
3738372D393646322D4445453233304130414436432F747269616E676C65732E62696E636660600000504B03041400060800008154D542000000000000000000000000370000006662782F35354646323336332D463339452D343738372D393646322D4445453233304130414436432F617474726962757465732E62696E50
311
4B03041400060808008154D542D5987DFC8F00000041010000360000006662782F35354646323336332D463339452D343738372D393646322D4445453233304130414436432F6469726563746F72792E786D6C858F410EC2201045AF4266AF15DDB800BA74E7C21B903225242D6328188F2FA5C4183471359997F9FF81E89F
311
F3C41E1816475E02DF1F80A11FC8386F25A438EECEC07A250251FC3803E6F58C12560C4AD840E95E91C151A72936F496F35732D860FE635F62C8F2DA16B505C545B74125BAA2FA9E05D7CC053D063734D5C7665FD55B6B8D15D5E9BFEAFD8490FFA45E504B03041400060808008154D542A47BE9B3FE000000A00100003B00
311
00006662782F35354646323336332D463339452D343738372D393646322D4445453233304130414436432F7265736F75726365732F636F72652E786D6C8D504B6E833010BD0A9A6D65B0710249641C55144ED00B586642AD043BF2A7EAF16B122AB5BB6E6646EFA3797AE2FCB5DC8A4FF4C138DB012B291468B59B8C9D3B48
311
F1420E509CA5F0CEC55F3228AC5AB08315062966EFD27D83B4B3116DCCA875136EA00A012314FA968F0E82FEC045952AC5AC08D7F2AEF455CD58B232D3592745883E07289E4FD609D26370C96B0CA27AB252A464A64D63A6FCD35C0C7A90031F78DFBF8E6468EA23D9F1B7911C76FD8134FD30EE5BDAB774DF8A6A354B11CD
311
F293517B5411279035659CD086D4EC9DD1136F4E94BFD0FD895351ADF23FA6749FFE694AC6465E6F719FB60092E5200F428A6AED2BAF479979AFDDCA6F504B010214000A00000800008154D5423DEE336E79000000790000001B00000000000000000000000000000000006175746F6465736B2D64657369676E2D7061636B
311
6167652E786D6C504B010214001400060808008154D542D486FD9CA0000000F40000001300000000000000000000000000B20000005B436F6E74656E745F54797065735D2E786D6C504B010214001400060808008154D542D54D49D3EB0000007C010000080000000000000000000000000083010000636F72652E786D6C50
311
4B010214001400060808008154D54255019EA25F0000007C000000070000000000000000000000000094020000636E782E786D6C504B010214001400060808008154D542156509A368010000020300000C00000000000000000000000000180300006662782F636F72652E786D6C504B010214001400060808008154D542B3
311
3F1AF17E0000009D0000000B00000000000000000000000000AA0400006662782F636E782E786D6C504B010214001400060808008154D542379AABE72C010000140200003100000000000000000000000000510500006662782F35354646323336332D463339452D343738372D393646322D4445453233304130414436432F
311
636F72652E786D6C504B010214001400060808008154D54283FBD7584E010000330300003000000000000000000000000000CC0600006662782F35354646323336332D463339452D343738372D393646322D4445453233304130414436432F636E782E786D6C504B010214001400060808008154D5425FEF6DFAA405000081
311
1000003400000000000000000000000000680800006662782F35354646323336332D463339452D343738372D393646322D4445453233304130414436432F6F626A656374732E786D6C504B010214001400060800008154D54200000000000000000000000035000000000000000000000000005E0E00006662782F35354646
311
323336332D463339452D343738372D393646322D4445453233304130414436432F76657274696365732E62696E504B010214001400060808008154D542F270F13306000000040000003600000000000000000000000000B10E00006662782F35354646323336332D463339452D343738372D393646322D4445453233304130
311
414436432F747269616E676C65732E62696E504B010214001400060800008154D54200000000000000000000000037000000000000000000000000000B0F00006662782F35354646323336332D463339452D343738372D393646322D4445453233304130414436432F617474726962757465732E62696E504B010214001400
311
060808008154D542D5987DFC8F000000410100003600000000000000000000000000600F00006662782F35354646323336332D463339452D343738372D393646322D4445453233304130414436432F6469726563746F72792E786D6C504B010214001400060808008154D542A47BE9B3FE000000A00100003B000000000000
311
00000000000000431000006662782F35354646323336332D463339452D343738372D393646322D4445453233304130414436432F7265736F75726365732F636F72652E786D6C504B0506000000000E000E00800400009A1100000000
310
504B03040A00000800008154D5423DEE336E79000000790000001B0000006175746F6465736B2D64657369676E2D7061636B6167652E786D6C3C3F786D6C2076657273696F6E3D22312E302220656E636F64696E673D227574662D3822203F3E3C666F726D6174733E3C666F726D61743E687474703A2F2F736368656D612E
310
6175746F6465736B2E636F6D2F64657369676E2D7061636B6167652F323030393C2F666F726D61743E3C2F666F726D6174733E504B03041400060808008154D542D486FD9CA0000000F4000000130000005B436F6E74656E745F54797065735D2E786D6C7D8EC10E82300C865F65E91D8A1E8C310C0EEA1BF002731658846E
310
D98AC1B77784ABF1D8FE5FBFBF75BBCE937A534CCEB38643598122B6FEE978D0B0485F9C41B54DDD7D022595594E1A469170414C76A4D9A4D207E29CF43ECE46F218070CC6BECC4078ACAA135ACF422C856C0E68EA1BF5669944DDD7BCDE7B1F8E415D77AECB980613C2E4AC91FC167A2B244592486606FC29C8FD7F045B9A
310
EF7053A7E60B504B03041400060808008154D5422B67E7DFEC0000007C01000008000000636F72652E786D6C8D904D6EC3201085AF82665B6103FE896D61A2C4ED0D7A01848983128365A0EAF18B13476A775DCDE8CDFB66468F1FBFE73BFAD2AB37CEF6403302485BE54663A71E62B8E006D051F0D5B9F0CB06C8CA59F7B0
310
C920F8B4BAB8EC927236681B926ADDA877517AAF0320754F4D0F5E5DF52C33194372F85BB648759393CEE8AB4B708C6644CF23664CFBCCC5E815C470FAA8CBC350E2C3501D70399C096E187BC7F4DCD0A622ECD4B62DCF3758F060E6D77DB56A19F40882115A605263463F29E98ABA23C51BA9BA82F07CB3FF81E232FE138A
310
C68682EDEF3E310F82A6471E03C1F32D8B541E41A5BAE5267E00504B03041400060808008154D54255019EA25F0000007C00000007000000636E782E786D6C4DCB3B0E80201045D1AD90E915ED2CF8AC45050C11660C8261F98AB1B07AC9C97D42D718D865D3E909258CFD00CCE24AC6E326A164D74DC0B4128928FF326038
310
472BA13128B1252AC747C6BAB984FC68F0B87FE8960A5C09FE86CFB69FBA01504B03041400060808008154D542D66149E367010000020300000C0000006662782F636F72652E786D6C8D525B6E833010BC8AE5DFCAD83CF2947194D0DEA01770C0A128602363A31CBFCB23A2A9A2284232D6CCCEEEEC003FDC9A1AF5CA7695
310
D1290E038691D2B9292A5DA6D8BB0BD9627410DC1AE3FE9461A465A3523CC058F0D21ADFCE506EB453DA01AA4DA16650769D7218E5355C52DCE53FAA9181F40E2ABA6BD0CAFC2A4B158401D0502778E72C1840D390E1C4E272BE713AE1827B5F15335B1530ADBA54CA62911DBFD6C9264BC8265B6D48929D18D946D127094F
310
DB70BB62D171B7DB713A880577557377975B259D2AB088581813B62651F81DB27DBCDEB3F883ADF631E374287F10F9B67853E42BEDE268B63BC93A2C42303212FFB685881CEA640F7EA8E07408115E63C28F41432010B293E7FABEC715A05EE5CED80498C2F885EA65ED154C65687C389D58E83C3680CD9EF6895EF479DD03
310
3EA0D42558930EAE67EF86E97C9A3A47D12A4B7A7743DAD846D68BB9C9E2722E839ECA73531BFB8E9ACEABD2394C3AFCBDE217504B03041400060808008154D5423151A0807E0000009D0000000B0000006662782F636E782E786D6C4DCCD10A83201886E15B91FFDCE5B698096A58F2DF472C8B98E9703A76F9ABD1C18E3E
310
78F87865FB593D79BBF45A6250703E31202EDCE3B8845941C9136D80B45AA618F3DF0D481856A76067D0724EB13C0F1ADD34149F37F54B781C88573482F5965ADB21AD7BC36983D851861C2F356737210C545A56BFD2B67B587F01504B03041400060808008154D542114ADDE22C01000014020000310000006662782F4633
310
4641393043442D444442462D344341372D384646422D3046374632343730363939412F636F72652E786D6C8D515B6EC32010BC0AE22B55850DC6B1930813E5219FA017A098A42831583CAA1CBF503B52FB971F16CDCECC8E76D9FE31DEC1B7725E5BD341526008949176D0E6DAC1182E6803C19E33676DF84383C088517530
310
C390B3ABB3715A20694D502624D4D8412DA0F05E0508E43D7D3AE8E5971A452162480C7F2B26216FE2AA0A52A476E271E6834B01C03C24BF90F7B43F6CF1E98CCEE7638FEAD3A1459BBE3F22DCB77D55B7B8D96E0FAC9C859CC5A88745AE8714475FB472AF9A643167418FCFF8D22911D40079850945B84115F92078479B1D
310
A6EF78BDA3989599FE4F14A7E14551D426D06A893BCB3CE484957383B3C1C6CFFB338C7A4CD60590E7ADBC926F90E30293AA5DAF6BCACA999A16903C9B7AF1F4C1BAB4E0D5ED33B1E962DCD49C95F946A9FC1E30D57C4FFE03504B03041400060808008154D542E55C184F5501000033030000300000006662782F46334641
310
393043442D444442462D344341372D384646422D3046374632343730363939412F636E782E786D6CBD93CD6E022114855F85B06DE6CFB11363184CBAE81374D12DC255A90C4CF869EADBF7A268DDB868D2744326E71ECEB9F9C2B0CDD764C827F8A09D1D6957B79480954E69BB1F698ABB6A45C98633EF5CBCB35162C50423
310
CD32E56CEF5D9A8BA460279289A81A6D8F45F4105CF21202CAF926314E0A830160AB84224C5B500A14B919F16B071E5741717B22F100E4F5E59DB8ED07C818589353386B720767F92C4D77264AA411218C34C8034CA216293A05E1582B1145DDD5D7AE073BFD24917CE15A99BC26B97CA4F9A4BC6C542347D6E090B3103DD2
310
2BA6789A817231CF464B11117273365E3C9C256DE3B02C5E8DE03DBAFBC5B05A61D879C659D4131487F4202228CA176DD757ED502DBAB7AE5DF7C3BAED9FDAE775DFB226DB39DB3A67CA258C01EF66229D8D6023E51D6BF2F811BEE2234A7B64EDFCE91720114069BDD0B965FC259F6EE897CB7FE4D39CDF37E2F2F817F06F
310
504B03041400060808008154D5420CC5311F660700009A1B0000340000006662782F46334641393043442D444442462D344341372D384646422D3046374632343730363939412F6F626A656374732E786D6CED595B73A33816FE2B14FBB2F3606C7CC9658B3095D89D2ED76C66BAC6DB5DF3E02A4A0699682304258974BCBF
310
7E8F2E602026C1D399B779B001211D9DF39DAB0EC1CF2F19759E3117246737AEEF4D5C07B3384F084B6FDC52EE4757AEF37318F03C978D69AEC350866F5C35EC8641CAF3B2B04309DEA392CACEE8FDDD1F8E8831C3AE135324C48D2BE2479C210F95324FB078F212249197EE5F3CDF3313DB64538E8AC70ED10271CC24700A
310
E30CA8388629BFFD3871C7613056EFC340FDDB59B341B3E6FDB3C65AEA369784098958FC8AA50E99D9209666FE7CF569BAB81E2DE6F3D9687E31F54777F777AB917F399B2C2F96CBEBDB4FD7C0DE2ECFA99529C1056609E8EFE0867E30566F6AD12D02A7B88E73C670AC8104A8B4585D82040BD8AA01DFA4FDE82B891AAFB5
310
848DE7B97A6F59680CCFDA54FA660D03A2451704B1DB551257D7A67CF9EEBF20B81862945C6009DC0AC941BB161E0E5EE18693606C46C36077D405114E8624E6045187921D471C940253D59430300B2C19E51C1C48394A02AD39F3BA6D5BE099EFBBCE292EF725A5CA33DC503B5604EE87A5D09C91FF617EE4BE890CF004D2
310
9684C92BCBA53C14D80DAF83B11E0C0375994DED4B03A4B3A728151A11F3B623E852B9FE7AE586BFDCEF5E362A1C9CDEBCE07981B95446A7F4A8F90243B6578592DDD61FA439B5008431A0DA9547507E07E47F85E8716405F4C6C9CBFC656EE74A8E98D8E73C03DD3813673481BF89E3EB7F75DFB80BC6F5E2B6F6FAF00437
310
55505DFD389E6D19345696FF069C61F00C069FF3997DB58911057B7E200C005246E2D01C8620B4EF772F6EB886C009811E56211AFA2032B0FB0CB7C1D892396AA5722FEB750C10B57BCC86280960D316096CF4E8E933640F4EE2A39A9A22F6C1BBF81073BD5D6D7ED9947C8F62FC607D7A85F784110959F334432DCC5B123D
310
E1C3F79C2720E86BBC374DBC33BB9500B415E60AF8B402413D1C776E6D10C3BA3457E1267867071042E5EA06FD0722624C2962382FAB7DEBE8A60CB5F6785B33B8E1D4403C9B764C98E367A2AA0A709AE38C16A390F7634E0A05A21B7E3692D541D3EB91EEEBFA57B0C87A7ECFAC3583D0CB10FD8F0E5A277068597685B405
310
A21678770CE7714E731EED0E9189742ED412C046DB5BBEB58842AC374A5254C083B4DF55212535D24609D9EF4B0171F5048BDFD6CBA6394CBC99BF709AFF1D679C43B405DF45DCFA5D678F886428C5D11E257DDB3577AB690B4DB28734C77B0A729167220F1192D124C1E939D09C45FCFA43A9A7341782302C205F9D04BF89
310
C6C4834062B459B1ACB4DA019A8828C312D1731050647AC0D56947D7B831940EEFF3585BEF5B1A6B12FD8B2C8223A82573161128452187BCCBB8EF2D2086B4D1352877F0056BAB686B31680925447C88BE63923ECA735037E47B708FE14852CA282F500C663D80EC2B5F514AEDF0BE43F193CA1F515CD28F321081E93E2294
310
9659043FC2E0E431C4B5EBC0F4260A0DE226F6499C41518664C9876C72B198BCDAC7D40CDD10D8D8684F2884ED2843450FEAAD80A8EB11A706DF52EF51EAAECC8A086579C906198A37EB7A9325DF55AB223B905F552A42D95811B604C380305967D52A6683A9EBC00A6EA403D52112282BA83985BD9378FCDA9B34E5DE0DB8
310
F5D38FDD2083C2AF477BCD883AAF60B03CB60A03F11DC9F8D10D37FA3ABA83FA3BC1C931D557B566B30204C454242F39B12AFABA86F2C6D6686EF880A4D87E3659B7BA7E5D7BD0FD08C6B0066A977AE15A019D612691AA4C1ED40DFD1D41086ED130E36B9553CFA1729B24BA6A44F49EF4A9B35546B436CD88573C629667F0
310
635BC2625A26788B12F1143D481A6D8862DD4AE965A4C2F84D017FFBBCE9C003230344FAA20A3CFCBDB3D68E2E55B97492887C2CB31D430482604BB4D4E8C62B586A355269B9BEAA3305D45D606056C5F3BF4F16CD76C4DF278BD41AC60F9D2CEE0EFF4687665FA491CE6365D7671D03EAFCA4A87CC43140B71D6AAA751631
310
C9DCCA6F9D2982A05845F9C1D55815340CC13E8EFF74D6EECB8266BB0EFFE7656DFF55C5715656694D565DAA1395EBBA99C3269F2EAF17B3EBC5E8D3FD25346867CBE5E86E76B91A2DAF6E2FA68BCBE5F47E7557A3A91D350CEA60A673173C9BA0560DAB278B017465454E4902A7F9C44931C47C0967FA01ED739E6101C9B3
310
D9EC4E6C537EC0EA67D3E794684771C5C9238206311590D601A33296ED71E71FD09A9470D0BE71A169E43DC19FB54AD781CC73E342AB4092180B6F076D26D5D0D3C421E5EADC6F89013E88A52A259A45F573BD4A61D30AFFF5942169C0CAD5EA6140E15640F7ABD5A1D0BC599EE2B304AFD8719084DB5D29A15A33B21C076A
310
61F43647F51BD928614F76EB1770DDB7C5F23D3DA785C8A04F066F1A81A13A9288A7BADFAD18B32CDDAEBE8CA1CFE6AC7F730A5AA6A0CBE194461C833197AAA0022B02ABB0340B24C15497FFDA7EE1397CE2C91C5D1539FF7CB9BAF869BBCCB32C6766687B0BA7B2043E14399B47F8EC936CA178C0AAB92EB6D3893FDDEAA6
310
B6EDB3473B24B0A7AA2218A88A092548C7E4C02E5F35A86CFB72AC54D199BE5E3936884233C0D8D1AB1EAFF9C8E5800FA9CF29CA63B49F57D2BED9D71EEBA960131C3AD2E1FF01504B03041400060800008154D542000000000000000000000000350000006662782F46334641393043442D444442462D344341372D384646
310
422D3046374632343730363939412F76657274696365732E62696E504B03041400060808008154D542F270F1330600000004000000360000006662782F46334641393043442D444442462D344341372D384646422D3046374632343730363939412F747269616E676C65732E62696E636660600000504B0304140006080000
310
8154D542000000000000000000000000370000006662782F46334641393043442D444442462D344341372D384646422D3046374632343730363939412F617474726962757465732E62696E504B03041400060808008154D542D5987DFC8F00000041010000360000006662782F46334641393043442D444442462D34434137
310
2D384646422D3046374632343730363939412F6469726563746F72792E786D6C858F410EC2201045AF4266AF15DDB800BA74E7C21B903225242D6328188F2FA5C4183471359997F9FF81E89FF3C41E1816475E02DF1F80A11FC8386F25A438EECEC07A250251FC3803E6F58C12560C4AD840E95E91C151A72936F496F35732
310
D860FE635F62C8F2DA16B505C545B74125BAA2FA9E05D7CC053D063734D5C7665FD55B6B8D15D5E9BFEAFD8490FFA45E504B03041400060808008154D542F4092D67FE000000A00100003B0000006662782F46334641393043442D444442462D344341372D384646422D3046374632343730363939412F7265736F75726365
310
732F636F72652E786D6C8D504B6E833010BD0A9A6D65B0211040C651427B835EC032136A25D8C89FAAC7AF49A8D4EEBA9919BD8FE6E9F1D3D772CF3ED1796DCD002CA790A15176D2661E20862B69213B09EEAC0DBF649019B9E0001B0C82CFCEC675879435014D48A8B113EEA0F41E0364EA9E8E01BCFAC045E63286A4F0B7
310
7C95EA2667CC599EE8A413DC07970264CF27DB04E1D0DBE8147A5E3C59C163D4D3AED153FAA9AF1A1D88F1FCD61C8E63458E637D2487F142495B96AF845D5AD6D6B43C775DC78BCD2C78D0CB4F46E550069C409494558436A464EF8CF655D3D3EA85D67D4579B1C9FF98E23AFDD314B50955B9C77DDA3C0896823C08C18BAD
310
AFB41E65A6BD752BBE01504B010214000A00000800008154D5423DEE336E79000000790000001B00000000000000000000000000000000006175746F6465736B2D64657369676E2D7061636B6167652E786D6C504B010214001400060808008154D542D486FD9CA0000000F40000001300000000000000000000000000B200
310
00005B436F6E74656E745F54797065735D2E786D6C504B010214001400060808008154D5422B67E7DFEC0000007C010000080000000000000000000000000083010000636F72652E786D6C504B010214001400060808008154D54255019EA25F0000007C000000070000000000000000000000000095020000636E782E786D
310
6C504B010214001400060808008154D542D66149E367010000020300000C00000000000000000000000000190300006662782F636F72652E786D6C504B010214001400060808008154D5423151A0807E0000009D0000000B00000000000000000000000000AA0400006662782F636E782E786D6C504B010214001400060808
310
008154D542114ADDE22C010000140200003100000000000000000000000000510500006662782F46334641393043442D444442462D344341372D384646422D3046374632343730363939412F636F72652E786D6C504B010214001400060808008154D542E55C184F55010000330300003000000000000000000000000000CC
310
0600006662782F46334641393043442D444442462D344341372D384646422D3046374632343730363939412F636E782E786D6C504B010214001400060808008154D5420CC5311F660700009A1B000034000000000000000000000000006F0800006662782F46334641393043442D444442462D344341372D384646422D3046
310
374632343730363939412F6F626A656374732E786D6C504B010214001400060800008154D5420000000000000000000000003500000000000000000000000000271000006662782F46334641393043442D444442462D344341372D384646422D3046374632343730363939412F76657274696365732E62696E504B01021400
310
1400060808008154D542F270F133060000000400000036000000000000000000000000007A1000006662782F46334641393043442D444442462D344341372D384646422D3046374632343730363939412F747269616E676C65732E62696E504B010214001400060800008154D5420000000000000000000000003700000000
310
000000000000000000D41000006662782F46334641393043442D444442462D344341372D384646422D3046374632343730363939412F617474726962757465732E62696E504B010214001400060808008154D542D5987DFC8F000000410100003600000000000000000000000000291100006662782F46334641393043442D
310
444442462D344341372D384646422D3046374632343730363939412F6469726563746F72792E786D6C504B010214001400060808008154D542F4092D67FE000000A00100003B000000000000000000000000000C1200006662782F46334641393043442D444442462D344341372D384646422D304637463234373036393941
310
2F7265736F75726365732F636F72652E786D6C504B0506000000000E000E0080040000631300000000
  0
XRECORD
  5
17
102
{ACAD_REACTORS
330
12
102
}
330
12
100
AcDbXrecord
280
     1
270
     1
271
     1
  0
XRECORD
  5
16
102
{ACAD_REACTORS
330
12
102
}
330
12
100
AcDbXrecord
280
     1
270
     1
271
     1
  0
XRECORD
  5
18
102
{ACAD_REACTORS
330
12
102
}
330
12
100
AcDbXrecord
280
     1
270
     1
271
     1
  0
XRECORD
  5
15
102
{ACAD_REACTORS
330
12
102
}
330
12
100
AcDbXrecord
280
     1
270
     1
271
     1
  0
XRECORD
  5
24
102
{ACAD_REACTORS
330
22
102
}
330
22
100
AcDbXrecord
280
     1
270
     1
271
     1
  0
XRECORD
  5
23
102
{ACAD_REACTORS
330
22
102
}
330
22
100
AcDbXrecord
280
     1
270
     1
271
     1
  0
XRECORD
  5
BA
102
{ACAD_REACTORS
330
22
102
}
330
22
100
AcDbXrecord
280
     1
 70
     1
 90
1959938040
 71
     1
  1
BCC09921-F095-4221-BA21-5E780DA3A805
311
504B03040A00000800008054D5423DEE336E79000000790000001B0000006175746F6465736B2D64657369676E2D7061636B6167652E786D6C3C3F786D6C2076657273696F6E3D22312E302220656E636F64696E673D227574662D3822203F3E3C666F726D6174733E3C666F726D61743E687474703A2F2F736368656D612E
311
6175746F6465736B2E636F6D2F64657369676E2D7061636B6167652F323030393C2F666F726D61743E3C2F666F726D6174733E504B03041400060808008054D542D486FD9CA0000000F4000000130000005B436F6E74656E745F54797065735D2E786D6C7D8EC10E82300C865F65E91D8A1E8C310C0EEA1BF002731658846E
311
D98AC1B77784ABF1D8FE5FBFBF75BBCE937A534CCEB38643598122B6FEE978D0B0485F9C41B54DDD7D022595594E1A469170414C76A4D9A4D207E29CF43ECE46F218070CC6BECC4078ACAA135ACF422C856C0E68EA1BF5669944DDD7BCDE7B1F8E415D77AECB980613C2E4AC91FC167A2B244592486606FC29C8FD7F045B9A
311
EF7053A7E60B504B03041400060808008054D542A8572C02EB0000007C01000008000000636F72652E786D6C8D904D6EC3201085AF82D856D8839D388E85891CA53E412F8080B8283158FC543D7E71E248EDAEAB19BD79DFCCE8B1D3F77C475FDA07E36C8F690118692B9D3276EA718A57D26274E2CC3B177FD930B262D63D
311
5E65CCD9E45D5A36493A1BB58D59B54EE94D1421E88891BCE7A6C7417EEA591422C5EC08B76211F226265DD05797E1948C42CF2346E57DE66AB4C7BC1A8601A06DC9E14C5BB23BEE0F64181B4AEA6684CB3B6DCF9771C7CA15E62C9AF9755F7A2DA25699075A136848453F287475D301BCC1BEAB8195ABFD0F9416F54F2819
311
1BEB6A7BF78905CC697EE431E0AC5CB3C8E51154AE6B6EFC07504B03041400060808008054D54255019EA25F0000007C00000007000000636E782E786D6C4DCB3B0E80201045D1AD90E915ED2CF8AC45050C11660C8261F98AB1B07AC9C97D42D718D865D3E909258CFD00CCE24AC6E326A164D74DC0B4128928FF32603847
311
2BA13128B1252AC747C6BAB984FC68F0B87FE8960A5C09FE86CFB69FBA01504B03041400060808008054D542E0D74E4A67010000020300000C0000006662782F636F72652E786D6C8D52ED8E8230107C95A67F2FD0161439536A309E4F702F50A17244684969898F7FCB87F1BC1863484A33B3B33B3BC077D7B64183B27D6D
311
748659483152BA3065ADAB0C7B770E528C76825B63DC9F328CB46C558647180B5E59E3BB052A8C764A3B40B529D502CABE570EA3A2814B86FBE247B53294DE41457F093B595C64A54216020D7582F7CE8201340F194F2CCEA72B27332EB8F775B9B07509D3EA73AD2C16519EE794A669B0D9B334587DAE37417E4C58102747
311
7AF862E9FE705C71328A0577757B735758259D2A414F591CD02488D837A3DB38D952FA41D7DB987232963F887C57BE29F2B57671B4D89D653D160C8C4CC4BF6D2122877A39801F2238194384D794F063D0100884ECE4A9B9ED71016850853376054C69FC9D1A64E3154CA5687A389959E83C3580CD9EF6895EF479DD033EA0
311
D41558930EAE27EFC6E97C9EBA44D1291B0CEE8AB4B1AD6CEEE6668BF7F33EE8A9BC308DB1EFA8C9B22A59C224E3DF2B7E01504B03041400060808008054D5429C70881E7E0000009D0000000B0000006662782F636E782E786D6C4DCCD10A83201886E15B91FFDCD2B9B5066A24E67DC4B290990EA76397BF1A1DECE88387
311
8F97779FD5A3B74D2F1783005A114036DCE3E4C222A0E419B7803AC9538CF9EF06288CAB15B03348BEA4589E074D761E8BCF9B7A171E076A464FDAE806B7AC19F0F9A608564C29ACC885B1E16A4CAF29D492D7BFD2B67B587E01504B03041400060808008054D542AC5F606C2C01000014020000310000006662782F443331
311
32444644362D383336452D343942302D423342422D4230353333453746464144312F636F72652E786D6C8D515B6EC32010BC0AE22B55850D2676D30813D57272825EC001E2A2C460F1A872FC42ED48ED5F7E58343B333BB0EC709F6EE05B39AFAD6921293004CA082BB5195B18C305ED203870E6AC0D7F68109861522DCC30
311
E46C7436CE2B24AC09CA84841A2BD50A0EDEAB0081B8A54B0BBDF852D3500C312486BF16F320AEC3A80A52A476E271E6834B01C032249F90F79454FDA96FD08E3647B47DEF30EA68D7A10ED7941EDF4EA78F9EB072117216A396AB5CCB14475FB472CF9A643167414F8FF8C2A921280979850945B84115F924784F9B3DC6AF
311
B8DE53CCCA4CFF278AB37C5214B509B45AE32E320F797ACDD2E04CDA78BE3DC2A8FB6C5D0079DEC62BF102392E302135C6B462E5424D1F903C9BEDEAE98375E98337D77362939A95D9B8D97256E61DA5F2BBC054F33EF90F504B03041400060808008054D54280C45BCA4E01000033030000300000006662782F4433313244
311
4644362D383336452D343942302D423342422D4230353333453746464144312F636E782E786D6CD593CD6EC32010845F0571ADFC17A756156122F5D027E8A1570C9B840683C54FD5BC7D9784A4B9E4D0632FC89A1D66569F30DB7ECF867C810FDAD99176754B0958E994B6FB91A6B8AB5E28D972E69D8B77364AAC9861A459
311
A69CEDBD4B4B9114EC44321155A3EDB1881E824B5E424039DF24C6496130006C9550847902A540919B11BF76E0711514A7138907206FAF1FC44D9F2063604D4EE1ACC91D9CE5B334DD992891468430D2200F308B5AA4E8148463AD441475575FBB1EECF49B44F2856B65F29AE4F291E693F2B2518D1C598343CE42F448AF98
311
E26901CAC5B2182D4544C8CDD978F17096B48DC3BA783582F7E8EE867EBDC6B0F38CB3A867280EE941445094AFDAAEAFDAA15A75EF5DBBE9874DDB3EB5CF9BBE654DB673363967CA258C01EF16229D8D6023E51D6BF2F811BEE2234A7B64EDFCE90F20114069BDD0B965FC673ECDF97D232E8F7F01FF01504B030414000608
311
08008054D542D5340999A205000080100000340000006662782F44333132444644362D383336452D343942302D423342422D4230353333453746464144312F6F626A656374732E786D6CAD57DB6EDB3810FD1541FBB2FB605BBEA48D178A0AC76E0AA3485BD468B10F060C4AA2146E285120A9C4D9AFDF43899225D74EBD8B
311
BEE8C2CB70E6CC990BFD77FB8C3B4F542A26F21B773CF45C87E69188599EDEB8A54E06D7AEF32EF0A510BAB3CC757292D11BD70CBB819F4A51167628A60929B93E1ABDBBFDCB5111CDA9EB449C2875E3AAE8816664484A2D62AA1E8731D1649826FBE178582FEC8B4D25291E8E841644D25C43538CE790E2D44A8DFBBF9E3B
311
0AFC91990F7CF3B4ABA6E7578D2A7BFAE7B35C6992473F1C7624663A9EADDE4FAEE683ABD96C3A98BD998C07B777B7ABC1F8EDD45BBE592EE78BF7731CACB48424AB89A4891B7C00369245FEA89E0AFC92E57A3AB14BAC8346923E31E329379838637F54AF69ADB3469E523F12794EA30A2BA051D96745C7B4A0790C9F33AA
311
A0590721AFFF3B363876A6A7E6DF1ED91DBE0C81EE8E8EA046F7E6DDD554847FC304750983A4A286813596D6D09AABDE01E150086EE7987232A2A964843B9C8592C81737C052B324F07B620C93A5890663811BC00BF5749F2E08A39FF3FC949649C9B9A1B11B5451B043AC50AD2ACDD83F541EB4EF22039DE02BC3866B6B90
311
7E29A81BCC6B8A5C1FB1A906D2493849E1729869764E2747862E4D9CAE576EF0F12EDC6F4CEC9E3EBC90A2A0521BFA805A8DE39AB741C9EA34BEC87366837BA4CA0194AF40FE1342FDA00AFC26D97EB69FD953B424B94A84CCE01BC773061E1E9E33AE9EE6BBF3E58FDACD7DEF9DC313CE3650FD023CFB36747DD98133F09F
311
407821A7D6B44D4438D2C63DCB01902189C3058690879370EF066B64396465EC223C18C364A8FB844F7F64C52051542775DE39B03C4A8B172468C05631126AD4E4B70A1EFCF4433AAB0EB6CBCEC17BF54BE8BA586D3E6E4A999088DEDB985ED184E54CA3C41D78D355A88779CFA247FAF22C640C437FC47BD3C53BB34729A0
311
6D3037C0A74D4E373F87937B0744D8970A936EFC9F9C00234C61EDC8BF672AA29C939C8AB239F7D5FA81B251436C82DD30B92D3087C202D2D433473188221D49561810DB6AD526CDE119EBBEAD3F819158CF4548F861517848BD91E042EEC2975D9D954E22FDBD4F6D0BC1C84801DBAB1869C2DF62BE8B5992940A39F004AC
311
DFD7CBAEEB4C56408668A4D6C13283F9882D222D671BB928D692A0908A7CC750361176270FE8CA07A2960095C0731A2BCA931DE3BCCC7609E32846BB8C1467E0F8FFFA876556EC4826CA5C9F91DD531DC5A1AF7B8FBCEA99E8E8C10D36D57B708BD41BD3F8E0E6DE62534A4E60D573EDED72E9CDE7689AEEBCF9D56036C1D7
311
ED028FABF76FAFBDD562BAB8F69024AC46550F15F84DA5E90634BC84CAE6979259F77D5B237C6C0E70837BA2D5F6431D9DCDFBDB7A8856D81F610FCA65BB71113FA1EDA3F1CF051C569E14B4CE0A4E339A6B6242E8DE7CF0AF046D464F997A7C9D91945E20E5F387CD913118B960DF1713EEF4F968AF1D5D9A803C29443F94
311
599813C68F36A63592C3224F2D7E8D4FDA775D679A5FF3671D83C65409CE62A4C1D849A9C8A84632BCA006C98C2A50AFDBD2C7F6EA71C1EEA7BA41D424E4B4D1E481A047E60A6101DE9691EE8F3BBFA1A7336DD58D8B6A3B7CC4C3660AD701676E5CF4E89A45540D43D467D30955C2C1A56E230FCE923CE568B5EB4DED7FBB
311
CB60D3ABC8ED924BDA276B579DC1AD01482305DA06F443F04EA54CE057BAD9F9E83F19DEA8E3108DCFB0D4AD2D8781D698EA1884686D94BD2CA08779B447EF11A8AF9B351E566B7A885C74C97A9504B5D4812632AD2E0A463FABD262F5658406C5597F760A5EA6F0E5E592069282CCA50970B008ACB0320BA241D5E59FDB2F
311
52E0229B39770C14707EDF5FBFF963BB145926F27A68BBB0D76167F380CB6DBC4572A0E656A2B6136F3CD956B7017B41D98544D12189D52306E059C95AA07BEE072FEB2B23EA503DD1AE1B19571C3174BD726C619B41A8A54B37B71A70D077E4D4410C991BA58998EE82E2D50BC1A85A0A15245AF9E05F504B030414000608
311
00008054D542000000000000000000000000350000006662782F44333132444644362D383336452D343942302D423342422D4230353333453746464144312F76657274696365732E62696E504B03041400060808008054D542F270F1330600000004000000360000006662782F44333132444644362D383336452D34394230
311
2D423342422D4230353333453746464144312F747269616E676C65732E62696E636660600000504B03041400060800008054D542000000000000000000000000370000006662782F44333132444644362D383336452D343942302D423342422D4230353333453746464144312F617474726962757465732E62696E504B0304
311
1400060808008054D542D5987DFC8F00000041010000360000006662782F44333132444644362D383336452D343942302D423342422D4230353333453746464144312F6469726563746F72792E786D6C858F410EC2201045AF4266AF15DDB800BA74E7C21B903225242D6328188F2FA5C4183471359997F9FF81E89FF3C41E
311
1816475E02DF1F80A11FC8386F25A438EECEC07A250251FC3803E6F58C12560C4AD840E95E91C151A72936F496F35732D860FE635F62C8F2DA16B505C545B74125BAA2FA9E05D7CC053D063734D5C7665FD55B6B8D15D5E9BFEAFD8490FFA45E504B03041400060808008054D5425836B872FD000000A00100003B00000066
311
62782F44333132444644362D383336452D343942302D423342422D4230353333453746464144312F7265736F75726365732F636F72652E786D6C8D504B6E833010BD8AE56D65B02121141947442927E8052C33A156828DFCA97AFCDA814AEDAE9B99D1FB689E1E3F7F2D0FF409CE6B6B7ACC0A8A111865276DE61EC770232D
311
4667C19DB5E1970C232317E87186B1E0B3B371DD21654D0013126AEC043B28BD8780917AA4A3C75E7DC0220B194352F87BB14A75973314AC4874D209EE834B01D0F6244F2C1C781B9D02CFCB8D153C463DED1A3DA59FFAA6C161510DC340697B22A70B6BC9E1F57822C3D830523723BDBEB1F6721D0FBCCC66C1835E7E322A
311
0732C094FC94D58436A462EF8C7675D351FA428F5D4D7999E57F4C719DFE698ADA84BADAE36E368F054B419E84E065EE2BAD679969E76EC537504B010214000A00000800008054D5423DEE336E79000000790000001B00000000000000000000000000000000006175746F6465736B2D64657369676E2D7061636B6167652E
311
786D6C504B010214001400060808008054D542D486FD9CA0000000F40000001300000000000000000000000000B20000005B436F6E74656E745F54797065735D2E786D6C504B010214001400060808008054D542A8572C02EB0000007C010000080000000000000000000000000083010000636F72652E786D6C504B010214
311
001400060808008054D54255019EA25F0000007C000000070000000000000000000000000094020000636E782E786D6C504B010214001400060808008054D542E0D74E4A67010000020300000C00000000000000000000000000180300006662782F636F72652E786D6C504B010214001400060808008054D5429C70881E7E
311
0000009D0000000B00000000000000000000000000A90400006662782F636E782E786D6C504B010214001400060808008054D542AC5F606C2C010000140200003100000000000000000000000000500500006662782F44333132444644362D383336452D343942302D423342422D4230353333453746464144312F636F7265
311
2E786D6C504B010214001400060808008054D54280C45BCA4E010000330300003000000000000000000000000000CB0600006662782F44333132444644362D383336452D343942302D423342422D4230353333453746464144312F636E782E786D6C504B010214001400060808008054D542D5340999A20500008010000034
311
00000000000000000000000000670800006662782F44333132444644362D383336452D343942302D423342422D4230353333453746464144312F6F626A656374732E786D6C504B010214001400060800008054D54200000000000000000000000035000000000000000000000000005B0E00006662782F4433313244464436
311
2D383336452D343942302D423342422D4230353333453746464144312F76657274696365732E62696E504B010214001400060808008054D542F270F13306000000040000003600000000000000000000000000AE0E00006662782F44333132444644362D383336452D343942302D423342422D423035333345374646414431
311
2F747269616E676C65732E62696E504B010214001400060800008054D5420000000000000000000000003700000000000000000000000000080F00006662782F44333132444644362D383336452D343942302D423342422D4230353333453746464144312F617474726962757465732E62696E504B01021400140006080800
311
8054D542D5987DFC8F0000004101000036000000000000000000000000005D0F00006662782F44333132444644362D383336452D343942302D423342422D4230353333453746464144312F6469726563746F72792E786D6C504B010214001400060808008054D5425836B872FD000000A00100003B00000000000000000000
311
000000401000006662782F44333132444644362D383336452D343942302D423342422D4230353333453746464144312F7265736F75726365732F636F72652E786D6C504B0506000000000E000E0080040000961100000000
310
504B03040A00000800008054D5423DEE336E79000000790000001B0000006175746F6465736B2D64657369676E2D7061636B6167652E786D6C3C3F786D6C2076657273696F6E3D22312E302220656E636F64696E673D227574662D3822203F3E3C666F726D6174733E3C666F726D61743E687474703A2F2F736368656D612E
310
6175746F6465736B2E636F6D2F64657369676E2D7061636B6167652F323030393C2F666F726D61743E3C2F666F726D6174733E504B03041400060808008054D542D486FD9CA0000000F4000000130000005B436F6E74656E745F54797065735D2E786D6C7D8EC10E82300C865F65E91D8A1E8C310C0EEA1BF002731658846E
310
D98AC1B77784ABF1D8FE5FBFBF75BBCE937A534CCEB38643598122B6FEE978D0B0485F9C41B54DDD7D022595594E1A469170414C76A4D9A4D207E29CF43ECE46F218070CC6BECC4078ACAA135ACF422C856C0E68EA1BF5669944DDD7BCDE7B1F8E415D77AECB980613C2E4AC91FC167A2B244592486606FC29C8FD7F045B9A
310
EF7053A7E60B504B03041400060808008054D542BDE557B6EA0000007C01000008000000636F72652E786D6C8D90416EC3201045AF82665B6103765CC7C2444A239FA01740401C94182C03518E5F9C3852BBEB6A467FFE9B197D7E784C3774374BB0DEF5400B02C838E5B575630F299E710BE820F8E27DFC6503E4E4647A58
310
65107C5C7C9A374979178D8B59755E9B4D9421980848DD72D343501733C942A6981DE15ACC525DE5680AFAEE329C92D5E875C4EABCCF9EAD59409CD8D77062ACC1F4F84970DD1EF7784FAA060F94D635AD7735195A5EAEB0E0D14EEFFB6A31321A0D82115A61D26046BF29E9AAA623E483ECBA8AF072B5FF81D2ACFF0925EB
310
62C5B6775F580041F323CF81E0E59A452ECFA0725D73133F504B03041400060808008054D54255019EA25F0000007C00000007000000636E782E786D6C4DCB3B0E80201045D1AD90E915ED2CF8AC45050C11660C8261F98AB1B07AC9C97D42D718D865D3E909258CFD00CCE24AC6E326A164D74DC0B4128928FF326038472B
310
A13128B1252AC747C6BAB984FC68F0B87FE8960A5C09FE86CFB69FBA01504B03041400060808008054D542F04BB01F66010000020300000C0000006662782F636F72652E786D6C8D52ED8E8230107C95A67F2FA52D20A7A6D4C4333EC1BD4085CA11A125A5253EFE2D1FC6F3628C2129CDCCCEEEEC80D85DDB060DDAF5B535
310
39E611C3489BC296B5A9721CFC99AC31DA49E1ACF57FCA3032AAD5391E612C45E56CE816A8B0C66BE30135B6D40BA8FA5E7B8C8A062E39EE8B1FDDAA48050F15FD25EA547151958E780434D449D17B0706D03C643CB13C9FAE82CEB81421D4E5C2D6254CABCFB576581EE2AFE3218E33C2F79F8CA4EBFD866C58929123E769
310
CAD355CA8E6B4147B114BE6E6FEE0AA795D7259631E309611989F93767DB24DB32F6C156DB84093A963F884257BE290AB5F149BCD89D653D961C8C4CC4BF6D21228F7A35801F2A051D4384D794F063D0100884ECD5A9B9ED710168D085B72E05A6B4E14E0DAA091AA632343D82CE2C749E1AC0664FFBC42FFABCEE011F5099
310
0AAC290FD753F0E374314F5DA2E8B42383BF22635DAB9ABBB9D9E2FDBC0F7A2A2F6C63DD3B6ABAAC4A9730E9F8F7CA5F504B03041400060808008054D542E141C1C57C0000009D0000000B0000006662782F636E782E786D6C4DCCD10A83201886E15B91FFDCB29866A0868C751FB12C64A6E13476F9B3D1C18E3E78F878C5
310
F0D91C3A4C7CDBE02534150164FC33CCD6AF12725A300734281143487F37407EDA8C849341893586BC5F349B65CA2E1575D6BF2E64ECD1F38E53DCB723C3B7B6D3989391E03B216528D58DA6502B51FF4A65CFB0FA02504B03041400060808008054D542FCB8003E2A01000014020000310000006662782F36364539383738
310
352D393246362D343237412D383046302D4330303046303535413141352F636F72652E786D6C8D515B6E833010BC8AE5AF5415B086E040641C455573825E801827B5126CE44795E37729546AFFF2E3B566676647BBE2F018EFE44BFB609CED28CB81126D951B8CBD7634C54BD6507290C23B17FFD028B1FDA83B3AC3548AAB
310
77695A21E56CD436226ADDA057B00F41474AD41D3F1D0DEA538F7DDEA7888C70CBA75EDDFAABCE598E6DE44911A2C700641932BF5472FEDE36BBA6CEDAF2C4B36DB93B660D9C207B03C052D74776AC45B108A548C90CABDC0C18C75C8CF6CF9ACC6229A2197FE32BAFFBA8072A4B6055063C2BD907837DC5F700AF50EF2B10
310
C54CFF274AD3F0A428191BAB728DBBC802954C144B438AC1A5F3FD378C7E4CCE4732CFDB04AD5EA8841C5809BBB6E5A258A8B800F4E4DBD53344E771C19BDB19D9D56ACCB75214F38DB0FC1C10EB7C4FF90D504B03041400060808008054D542E66394DD5601000033030000300000006662782F36364539383738352D3932
310
46362D343237412D383046302D4330303046303535413141352F636E782E786D6CBD93C16EC32010447F0571AD6CE338B5A20813A9877E410FBD12D82434182CC055F3F75D1292E69243A5AA1764CD0E33AB27CC375FA3259F10A2F16EA06DCD2801A7BC366E3FD039EDAA15251BC183F7E9CE468993230C34CB54F07DF0F3
310
54240D3B39DB84AA35EE58C400D1CF41414439DF24D62B6931005C35A308E316B4064D6E46FCDA41C05550DC9E483A00797D79277EFB012A45DEE414C19BDC21783E4BD39D891265658C038DEA00A3ACE59CBC8678ACB54CB26EEB6BD7839D7E9248BE70AD9C8321B97CA0F9A4A26C542347DEE050F09802D22BA6749A800A
310
394DD62899107273365E3C82CFC6A57E59BC06C10774778B7EB5C2B0F34CF06446280E154026D0542C58DB55ACAF16ED5BCBD65DBF66EC893DAF3BC69B6C177CEBBD2D973006829F88F22E814B54B4BCC9E347F88A8F681390B50FA75F804400A5F542E796F1977CDABE5B2EFF914F737EDF882BE05F20BE01504B03041400
310
060808008054D542364C2CC25F070000991B0000340000006662782F36364539383738352D393246362D343237412D383046302D4330303046303535413141352F6F626A656374732E786D6CED595B739B3814FE2B0CFBB2FB600CB1D3263B849DC469329E4EDA4EBDEDEC8367181964A28D108C2472D95FBF4717301093E0
310
6DF6AD0FC620A4A373BE73D521FCE331A7CE3DE68214ECCC0D3CDF75304B8A94B0ECCCADE47672E23A7F44212F0AD99AE63A0CE5F8CC55C36E1466BCA84A3B94E22DAAA8EC8D5E5DFCE5880433EC3A0945429CB922B9C539F250258B148B3B2F451279D9F6D10B3C33B14B36E3A8BCED112D11C74C02A730CE808A63980ABA
310
8FBE3B8DC2A97A1F85EA6A67CD46CD9A0FCF9A6AA9BB5C12262462C933967A6466A3589A05F3CB0F47C7A793E3F97C3699BF3B0A261757179793E0FDCC5FBC5B2C4ECF3F9C027B9BA2A056A6149798A5A0BF27370AC2A97AD3886E11D8C775523086130D2440A5C5EA132458C0562DF8FCEE63A0246ABDD612B69EE7EABD65
310
A1353CEB52199A350E880E5D10C46E574B5CFFB7E52B367F83E0628C51728125702B2407ED5A783878851BF9E1D48C46E166A70B229C1C49CC09A20E251B8E382805A6AA295168165832CA3938907294045A73E675D7B6C0335F779D7D5C6E2B4A9567B89176AC18DC0F4BA13923FF60BEE3BE8D0CF004D25684C913CBA57C
310
2AB11B9D86533D1885EA6F76645F1A209D2D4599D08898B73D4117CAF597976EF4F16AF3B852E160FFE6252F4ACCA5323AA547CD1718B2FD5728D96D83519A530B401803AA5DB903E52B20FF09A2C78E15D01B278FF3C7B99D2B3962625BF01C74E3F8CEC4878BEF04FAAAEE5B77E1B459DCD5DE109EE0A60AAA931FC7B32B
310
83C6CAF2DF82330AEFC1E00B3EB3AF5609A260CF37840140CA481C5AC01084F6EDE6D18D96103821D0C32A44A300440676EFE1369C5A323BADD4EE65BD8E01A2768FD91825016CDA22818D013D5D43F6E024D9A9A92DE210BCC76F62AEE797AB8FAB8A6F51826FAC4F5FE22D614442D6DCCF5007F38E4477F8E9A1E02908FA
310
1CEF551BEFDC6E25006D85B9023EAB41500FBB9D3B1B24B02E2B54B8095FD9018450B9BA45FF868804538A182EAA7ADF26BA29436D3CDED60C6E7464209E1DF54C98E37BA2AA0A709ADD8C0EA390F7134E4A05A21B5D1BC99AA0E90D48F76DF9092CB2993F306BC920F43244FFD4416B0F0E1DCBAE91B64034026F76E13C29
310
68C1E3CD536C229D0BB504B0D1F596EF1DA210EB8D921415F020ED777548C98CB4714AB6DB4A405CDDC3E2F7E5A26D0EBE370B8E9DF6B5E78C7388B6E0BB885BBFEBED11931C6538DEA27468BBF66E0D6DA1490E90E6784B412E724FE4538C64ECA7383B049A83889FBE29F58C1642108605E4ABBDE0B7D1F03D0824469B35
310
CB4AAB3DA08988732C113D04014566005C9D76748D9B40E9F03A8F8DF5BEA4B136D1FFC92238825AB2603181521472C8AB8C07DE31C4902EBA06E51EBE606D356D2D06ADA084489EE2074CB25B7908EA86FC00EE091C492A1917254AC0AC47907DE62B4AA93DDE3728B953F9234E2AFA56062230DDC684D22A8FE147189C3C
310
C6B87613985E44A145DCC43E897328CA90ACF8984DDE1DFBCFF63135433F04B636DA120A613BCE5139807A2720EA7AC469C0B7D40794BAA9F232467951B15186E2CDFADE64C9F7D5AAC88EE457958A5036D6842DC128244C3659B58ED960EA3AB0821BE940F5140B9497D49CC25E493C41E34D9AF2E006DCFAE9DB6E9043E1
310
37A0BD76449DD730581E3B8581784032B975A395FE9F5C40FD9DE27497EAEB5AB35D0102622A92579C58157D5B4279636B3437BA4152ACAF4DD6ADFFBF2D3DE87E84535803B54BB370A980CE319348552637EA867E4510823B34CCF852E5D443A89CA7A9AE1A11BD2243EAEC94119D4D73E295B7981539FCD89AB08456295E
310
A354DCC53792C62BA258B7527A39A9317E51C0CFD7AB1E3C303242A42FAAC0C30FBDB57674A1CAA5BD44E46D956F182210043BA26546375EC932AB915ACBCDBF3A5340DD050666553CFF79B268B7237E9E2C326B183F76B2A0C506D15DB46965F34499F541A780263D292A6F710AD05D87866A93444C2EB7E25B5F8A2126D6
310
417E743156C70C437088E3FF9CB48792A0D9AEC7FF61493B7856701C94543A9355936A4FE1BA6CA7B08BC5C23F3D85AEEC957F7A3C991FC1DDC5395C8E3FBC3FF12FCF67E727FEEED4A0FD340A9B58A653173C9B98560FAB278B0134654541490A87F9D4C930847C0947FA11DD739E6301B9B3DDEB4E6D4F7EC4EA7BD3E694
310
684371CDC92D82FE301590D501A32A91DD71E717E84C4A38679FB9D033F2EEE062ADD27520F19CB9D0299024C1C2DB409749F5F33471C8B83AF55B62800F6299CA886651F3DCAC52D874A27F33654C16B072755A1850B795D0FCEA3428346F96A7E420C16B761C24E176534928D68C2CBB814618BDCD4EFD46364AD89DDDFA
310
115CF765B1024FCFE92032EA8BC18B4660A84E24E2996E772BC62C4BE7975FA6D06673969F9D925619E8723CA509C760CC95AAA7C08AC02A2CCD124930D5C5EFEB2FBC802F3CB9A38B22E7D7C79377BFAD17459E17CC0CADCFE15096C2772267750B5F7DD235D40E58F5D6C5FAC80F8ED6BAA76DDBECF10609ECA9A20806EA
310
5A4209D23339B0CB67FD29DBBD9C2A55F4A62F2F1D1B44C1AB8D1D3D6BF19A6F5C0EF890FA9AA23C46FB792DED8B6DEDA99E0A36C1A1211DFD0B504B03041400060800008054D542000000000000000000000000350000006662782F36364539383738352D393246362D343237412D383046302D4330303046303535413141
310
352F76657274696365732E62696E504B03041400060808008054D542F270F1330600000004000000360000006662782F36364539383738352D393246362D343237412D383046302D4330303046303535413141352F747269616E676C65732E62696E636660600000504B03041400060800008054D542000000000000000000
310
000000370000006662782F36364539383738352D393246362D343237412D383046302D4330303046303535413141352F617474726962757465732E62696E504B03041400060808008054D542D5987DFC8F00000041010000360000006662782F36364539383738352D393246362D343237412D383046302D43303030463035
310
35413141352F6469726563746F72792E786D6C858F410EC2201045AF4266AF15DDB800BA74E7C21B903225242D6328188F2FA5C4183471359997F9FF81E89FF3C41E1816475E02DF1F80A11FC8386F25A438EECEC07A250251FC3803E6F58C12560C4AD840E95E91C151A72936F496F35732D860FE635F62C8F2DA16B505C5
310
45B74125BAA2FA9E05D7CC053D063734D5C7665FD55B6B8D15D5E9BFEAFD8490FFA45E504B03041400060808008054D542D50F0A87FC000000A00100003B0000006662782F36364539383738352D393246362D343237412D383046302D4330303046303535413141352F7265736F75726365732F636F72652E786D6C8D5059
310
6AC33010BD8A99DF225BF256C7C80AA4C127E805843C714562C968293D7EE5D885F6AF3F33C35B98C7E3E7AFE5917DA2F3DA9A01584E2143A3ECA4CD3C400C37D2417616DC591B7EC9203372C1013618049F9D8DEB01296B029A905063273C40E93D06C8D4231D0378F5818BCC650C49E1EFF92AD55DCE98B33CD14927B80F
310
2E05C8F627DB04E1D0DBE8147A5EECACE031EAE9D0E829FDD4378D0EC4B57C1BAF65D9107679A5A4EE2E2772A2554B46C6EA9AD54D4DC78E179B59F0A0979F8CCAA10C38812829AB086D49C9DE19EDABB6A7F485367D4579B1C9FF98E23AFDD314B5095579C4DD6D1E044B419E84E0C5D6575ACF32D3DEBA15DF504B010214
310
000A00000800008054D5423DEE336E79000000790000001B00000000000000000000000000000000006175746F6465736B2D64657369676E2D7061636B6167652E786D6C504B010214001400060808008054D542D486FD9CA0000000F40000001300000000000000000000000000B20000005B436F6E74656E745F54797065
310
735D2E786D6C504B010214001400060808008054D542BDE557B6EA0000007C010000080000000000000000000000000083010000636F72652E786D6C504B010214001400060808008054D54255019EA25F0000007C000000070000000000000000000000000093020000636E782E786D6C504B010214001400060808008054
310
D542F04BB01F66010000020300000C00000000000000000000000000170300006662782F636F72652E786D6C504B010214001400060808008054D542E141C1C57C0000009D0000000B00000000000000000000000000A70400006662782F636E782E786D6C504B010214001400060808008054D542FCB8003E2A0100001402
310
000031000000000000000000000000004C0500006662782F36364539383738352D393246362D343237412D383046302D4330303046303535413141352F636F72652E786D6C504B010214001400060808008054D542E66394DD56010000330300003000000000000000000000000000C50600006662782F3636453938373835
310
2D393246362D343237412D383046302D4330303046303535413141352F636E782E786D6C504B010214001400060808008054D542364C2CC25F070000991B00003400000000000000000000000000690800006662782F36364539383738352D393246362D343237412D383046302D4330303046303535413141352F6F626A65
310
6374732E786D6C504B010214001400060800008054D54200000000000000000000000035000000000000000000000000001A1000006662782F36364539383738352D393246362D343237412D383046302D4330303046303535413141352F76657274696365732E62696E504B010214001400060808008054D542F270F13306
310
0000000400000036000000000000000000000000006D1000006662782F36364539383738352D393246362D343237412D383046302D4330303046303535413141352F747269616E676C65732E62696E504B010214001400060800008054D5420000000000000000000000003700000000000000000000000000C71000006662
310
782F36364539383738352D393246362D343237412D383046302D4330303046303535413141352F617474726962757465732E62696E504B010214001400060808008054D542D5987DFC8F0000004101000036000000000000000000000000001C1100006662782F36364539383738352D393246362D343237412D383046302D
310
4330303046303535413141352F6469726563746F72792E786D6C504B010214001400060808008054D542D50F0A87FC000000A00100003B00000000000000000000000000FF1100006662782F36364539383738352D393246362D343237412D383046302D4330303046303535413141352F7265736F75726365732F636F7265
310
2E786D6C504B0506000000000E000E0080040000541300000000
  0
XRECORD
  5
27
102
{ACAD_REACTORS
330
22
102
}
330
22
100
AcDbXrecord
280
     1
270
     1
271
     1
  0
XRECORD
  5
26
102
{ACAD_REACTORS
330
22
102
}
330
22
100
AcDbXrecord
280
     1
270
     1
271
     1
  0
XRECORD
  5
28
102
{ACAD_REACTORS
330
22
102
}
330
22
100
AcDbXrecord
280
     1
270
     1
271
     1
  0
XRECORD
  5
25
102
{ACAD_REACTORS
330
22
102
}
330
22
100
AcDbXrecord
280
     1
270
     1
271
     1
  0
XRECORD
  5
D87
102
{ACAD_REACTORS
330
D86
102
}
330
D86
100
AcDbXrecord
280
     1
102
ACAD_ROUNDTRIP_2012_MLEADER_STYLE
298
     1
  0
CELLSTYLEMAP
  5
D85
102
{ACAD_REACTORS
330
D84
102
}
330
D84
100
AcDbCellStyleMap
 90
        3
300
CELLSTYLE
  1
TABLEFORMAT_BEGIN
 90
        5
170
     1
 91
        0
 92
    32768
 62
   257
 93
        1
300
CONTENTFORMAT
  1
CONTENTFORMAT_BEGIN
 90
        0
 91
        0
 92
      512
 93
        0
300

 40
0.0
140
1.0
 94
        5
 62
     0
340
55
144
0.25
309
CONTENTFORMAT_END
171
     0
 94
        0
309
TABLEFORMAT_END
  1
CELLSTYLE_BEGIN
 90
        1
 91
        1
300
_TITLE
309
CELLSTYLE_END
300
CELLSTYLE
  1
TABLEFORMAT_BEGIN
 90
        5
170
     1
 91
        0
 92
        0
 62
   257
 93
        1
300
CONTENTFORMAT
  1
CONTENTFORMAT_BEGIN
 90
        0
 91
        0
 92
      512
 93
        0
300

 40
0.0
140
1.0
 94
        5
 62
     0
340
55
144
0.18
309
CONTENTFORMAT_END
171
     0
 94
        0
309
TABLEFORMAT_END
  1
CELLSTYLE_BEGIN
 90
        2
 91
        1
300
_HEADER
309
CELLSTYLE_END
300
CELLSTYLE
  1
TABLEFORMAT_BEGIN
 90
        5
170
     1
 91
        0
 92
        0
 62
   257
 93
        1
300
CONTENTFORMAT
  1
CONTENTFORMAT_BEGIN
 90
        0
 91
        0
 92
      512
 93
        0
300

 40
0.0
140
1.0
 94
        2
 62
     0
340
55
144
0.18
309
CONTENTFORMAT_END
171
     0
 94
        0
309
TABLEFORMAT_END
  1
CELLSTYLE_BEGIN
 90
        3
 91
        2
300
_DATA
309
CELLSTYLE_END
  0
ENDSEC
  0
EOF
