  0
SECTION
  2
HEADER
  9
$ACADVER
  1
AC1024
  9
$ACADMAINTVER
 70
    63
  9
$DWGCODEPAGE
  3
ANSI_1252
  9
$AUTHOR
  1
GN
  9
$REVISIONNUMBER
  1
-
  9
$CUSTOMPROPERTYTAG
  1
Manager
  9
$CUSTOMPROPERTY
  1

  9
$CUSTOMPROPERTYTAG
  1
Company
  9
$CUSTOMPROPERTY
  1

  9
$CUSTOMPROPERTYTAG
  1
Category
  9
$CUSTOMPROPERTY
  1

  9
$CUSTOMPROPERTYTAG
  1
Part Number
  9
$CUSTOMPROPERTY
  1
NPDD4260G-S
  9
$CUSTOMPROPERTYTAG
  1
Description
  9
$CUSTOMPROPERTY
  1
NPDD PANEL MASTER VIEW
  9
$CUSTOMPROPERTYTAG
  1
Project
  9
$CUSTOMPROPERTY
  1

  9
$CUSTOMPROPERTYTAG
  1
Designer
  9
$CUSTOMPROPERTY
  1
GN
  9
$CUSTOMPROPERTYTAG
  1
Engineer
  9
$CUSTOMPROPERTY
  1

  9
$CUSTOMPROPERTYTAG
  1
Authority
  9
$CUSTOMPROPERTY
  1

  9
$CUSTOMPROPERTYTAG
  1
Cost Center
  9
$CUSTOMPROPERTY
  1

  9
$CUSTOMPROPERTYTAG
  1
Vendor
  9
$CUSTOMPROPERTY
  1

  9
$CUSTOMPROPERTYTAG
  1
User Status
  9
$CUSTOMPROPERTY
  1

  9
$CUSTOMPROPERTYTAG
  1
Design Status
  9
$CUSTOMPROPERTY
  1
WorkInProgress
  9
$CUSTOMPROPERTYTAG
  1
Checked by
  9
$CUSTOMPROPERTY
  1
NJ
  9
$CUSTOMPROPERTYTAG
  1
Date Checked
  9
$CUSTOMPROPERTY
  1
07/08/2013
  9
$CUSTOMPROPERTYTAG
  1
Engr Approved by
  9
$CUSTOMPROPERTY
  1

  9
$CUSTOMPROPERTYTAG
  1
Mfg Approved by
  9
$CUSTOMPROPERTY
  1

  9
$CUSTOMPROPERTYTAG
  1
DWG. NO
  9
$CUSTOMPROPERTY
  1

  9
$CUSTOMPROPERTYTAG
  1
NUMBER OF SHEETS
  9
$CUSTOMPROPERTY
  1
2
  9
$CUSTOMPROPERTYTAG
  1
DRAWING #
  9
$CUSTOMPROPERTY
  1
1
  9
$INSBASE
 10
0.0
 20
0.0
 30
0.0
  9
$EXTMIN
 10
0.0
 20
0.0
 30
0.0
  9
$EXTMAX
 10
187.0
 20
121.0
 30
0.0
  9
$LIMMIN
 10
0.0
 20
0.0
  9
$LIMMAX
 10
187.0
 20
121.0
  9
$ORTHOMODE
 70
     0
  9
$REGENMODE
 70
     1
  9
$FILLMODE
 70
     1
  9
$QTEXTMODE
 70
     0
  9
$MIRRTEXT
 70
     0
  9
$LTSCALE
 40
11.0
  9
$ATTMODE
 70
     1
  9
$TEXTSIZE
 40
0.2
  9
$TRACEWID
 40
0.05
  9
$TEXTSTYLE
  7
Standard
  9
$CLAYER
  8
0
  9
$CELTYPE
  6
ByLayer
  9
$CECOLOR
 62
   256
  9
$CELTSCALE
 40
1.0
  9
$DISPSILH
 70
     0
  9
$DIMSCALE
 40
1.0
  9
$DIMASZ
 40
0.0708661417322835
  9
$DIMEXO
 40
0.0625
  9
$DIMDLI
 40
0.38
  9
$DIMRND
 40
0.0
  9
$DIMDLE
 40
0.0
  9
$DIMEXE
 40
0.18
  9
$DIMTP
 40
0.0
  9
$DIMTM
 40
0.0
  9
$DIMTXT
 40
0.0708661417322835
  9
$DIMCEN
 40
0.09
  9
$DIMTSZ
 40
0.0
  9
$DIMTOL
 70
     0
  9
$DIMLIM
 70
     0
  9
$DIMTIH
 70
     1
  9
$DIMTOH
 70
     1
  9
$DIMSE1
 70
     0
  9
$DIMSE2
 70
     0
  9
$DIMTAD
 70
     0
  9
$DIMZIN
 70
     0
  9
$DIMBLK
  1

  9
$DIMASO
 70
     1
  9
$DIMSHO
 70
     1
  9
$DIMPOST
  1

  9
$DIMAPOST
  1

  9
$DIMALT
 70
     0
  9
$DIMALTD
 70
     2
  9
$DIMALTF
 40
25.4
  9
$DIMLFAC
 40
1.0
  9
$DIMTOFL
 70
     0
  9
$DIMTVP
 40
0.0
  9
$DIMTIX
 70
     0
  9
$DIMSOXD
 70
     0
  9
$DIMSAH
 70
     0
  9
$DIMBLK1
  1

  9
$DIMBLK2
  1

  9
$DIMSTYLE
  2
STANDARD
  9
$DIMCLRD
 70
     0
  9
$DIMCLRE
 70
     0
  9
$DIMCLRT
 70
     0
  9
$DIMTFAC
 40
1.0
  9
$DIMGAP
 40
0.09
  9
$DIMJUST
 70
     0
  9
$DIMSD1
 70
     0
  9
$DIMSD2
 70
     0
  9
$DIMTOLJ
 70
     1
  9
$DIMTZIN
 70
     0
  9
$DIMALTZ
 70
     0
  9
$DIMALTTZ
 70
     0
  9
$DIMUPT
 70
     0
  9
$DIMDEC
 70
     4
  9
$DIMTDEC
 70
     4
  9
$DIMALTU
 70
     2
  9
$DIMALTTD
 70
     2
  9
$DIMTXSTY
  7
Standard
  9
$DIMAUNIT
 70
     0
  9
$DIMADEC
 70
     0
  9
$DIMALTRND
 40
0.0
  9
$DIMAZIN
 70
     0
  9
$DIMDSEP
 70
    46
  9
$DIMATFIT
 70
     3
  9
$DIMFRAC
 70
     0
  9
$DIMLDRBLK
  1

  9
$DIMLUNIT
 70
     2
  9
$DIMLWD
 70
    -2
  9
$DIMLWE
 70
    -2
  9
$DIMTMOVE
 70
     0
  9
$DIMFXL
 40
1.0
  9
$DIMFXLON
 70
     0
  9
$DIMJOGANG
 40
0.7853981633974483
  9
$DIMTFILL
 70
     0
  9
$DIMTFILLCLR
 70
     0
  9
$DIMARCSYM
 70
     0
  9
$DIMLTYPE
  6

  9
$DIMLTEX1
  6

  9
$DIMLTEX2
  6

  9
$DIMTXTDIRECTION
 70
     0
  9
$LUNITS
 70
     2
  9
$LUPREC
 70
     4
  9
$SKETCHINC
 40
0.1
  9
$FILLETRAD
 40
0.0
  9
$AUNITS
 70
     0
  9
$AUPREC
 70
     0
  9
$MENU
  1
.
  9
$ELEVATION
 40
0.0
  9
$PELEVATION
 40
0.0
  9
$THICKNESS
 40
0.0
  9
$LIMCHECK
 70
     0
  9
$CHAMFERA
 40
0.0
  9
$CHAMFERB
 40
0.0
  9
$CHAMFERC
 40
0.0
  9
$CHAMFERD
 40
0.0
  9
$SKPOLY
 70
     0
  9
$TDCREATE
 40
2456483.425463160
  9
$TDUCREATE
 40
2456483.196296493
  9
$TDUPDATE
 40
2456483.425463171
  9
$TDUUPDATE
 40
2456483.196296505
  9
$TDINDWG
 40
0.0000459838
  9
$TDUSRTIMER
 40
0.0000459838
  9
$USRTIMER
 70
     1
  9
$ANGBASE
 50
0.0
  9
$ANGDIR
 70
     0
  9
$PDMODE
 70
     0
  9
$PDSIZE
 40
0.0
  9
$PLINEWID
 40
0.0
  9
$SPLFRAME
 70
     0
  9
$SPLINETYPE
 70
     6
  9
$SPLINESEGS
 70
     8
  9
$HANDSEED
  5
D78
  9
$SURFTAB1
 70
     6
  9
$SURFTAB2
 70
     6
  9
$SURFTYPE
 70
     6
  9
$SURFU
 70
     6
  9
$SURFV
 70
     6
  9
$UCSBASE
  2

  9
$UCSNAME
  2

  9
$UCSORG
 10
0.0
 20
0.0
 30
0.0
  9
$UCSXDIR
 10
1.0
 20
0.0
 30
0.0
  9
$UCSYDIR
 10
0.0
 20
1.0
 30
0.0
  9
$UCSORTHOREF
  2

  9
$UCSORTHOVIEW
 70
     0
  9
$UCSORGTOP
 10
0.0
 20
0.0
 30
0.0
  9
$UCSORGBOTTOM
 10
0.0
 20
0.0
 30
0.0
  9
$UCSORGLEFT
 10
0.0
 20
0.0
 30
0.0
  9
$UCSORGRIGHT
 10
0.0
 20
0.0
 30
0.0
  9
$UCSORGFRONT
 10
0.0
 20
0.0
 30
0.0
  9
$UCSORGBACK
 10
0.0
 20
0.0
 30
0.0
  9
$PUCSBASE
  2

  9
$PUCSNAME
  2

  9
$PUCSORG
 10
0.0
 20
0.0
 30
0.0
  9
$PUCSXDIR
 10
1.0
 20
0.0
 30
0.0
  9
$PUCSYDIR
 10
0.0
 20
1.0
 30
0.0
  9
$PUCSORTHOREF
  2

  9
$PUCSORTHOVIEW
 70
     0
  9
$PUCSORGTOP
 10
0.0
 20
0.0
 30
0.0
  9
$PUCSORGBOTTOM
 10
0.0
 20
0.0
 30
0.0
  9
$PUCSORGLEFT
 10
0.0
 20
0.0
 30
0.0
  9
$PUCSORGRIGHT
 10
0.0
 20
0.0
 30
0.0
  9
$PUCSORGFRONT
 10
0.0
 20
0.0
 30
0.0
  9
$PUCSORGBACK
 10
0.0
 20
0.0
 30
0.0
  9
$USERI1
 70
     0
  9
$USERI2
 70
     0
  9
$USERI3
 70
     0
  9
$USERI4
 70
     0
  9
$USERI5
 70
     0
  9
$USERR1
 40
0.0
  9
$USERR2
 40
0.0
  9
$USERR3
 40
0.0
  9
$USERR4
 40
0.0
  9
$USERR5
 40
0.0
  9
$WORLDVIEW
 70
     1
  9
$SHADEDGE
 70
     3
  9
$SHADEDIF
 70
    70
  9
$TILEMODE
 70
     1
  9
$MAXACTVP
 70
    64
  9
$PINSBASE
 10
0.0
 20
0.0
 30
0.0
  9
$PLIMCHECK
 70
     0
  9
$PEXTMIN
 10
0.0
 20
0.0
 30
0.0
  9
$PEXTMAX
 10
187.0
 20
121.0
 30
0.0
  9
$PLIMMIN
 10
0.0
 20
0.0
  9
$PLIMMAX
 10
187.0
 20
121.0
  9
$UNITMODE
 70
     0
  9
$VISRETAIN
 70
     1
  9
$PLINEGEN
 70
     0
  9
$PSLTSCALE
 70
     1
  9
$TREEDEPTH
 70
  3020
  9
$CMLSTYLE
  2
Standard
  9
$CMLJUST
 70
     0
  9
$CMLSCALE
 40
1.0
  9
$PROXYGRAPHICS
 70
     1
  9
$MEASUREMENT
 70
     0
  9
$CELWEIGHT
370
    -1
  9
$ENDCAPS
280
     0
  9
$JOINSTYLE
280
     0
  9
$LWDISPLAY
290
     0
  9
$INSUNITS
 70
     1
  9
$HYPERLINKBASE
  1

  9
$STYLESHEET
  1

  9
$XEDIT
290
     1
  9
$CEPSNTYPE
380
     0
  9
$PSTYLEMODE
290
     1
  9
$FINGERPRINTGUID
  2
{C0BFA786-E693-497B-B0CA-F26AC470ED44}
  9
$VERSIONGUID
  2
{1CE910ED-9D5B-4D68-A7A8-632F3167B457}
  9
$EXTNAMES
290
     1
  9
$PSVPSCALE
 40
0.0
  9
$OLESTARTUP
290
     0
  9
$SORTENTS
280
   127
  9
$INDEXCTL
280
     0
  9
$HIDETEXT
280
     1
  9
$XCLIPFRAME
280
     2
  9
$HALOGAP
280
     0
  9
$OBSCOLOR
 70
   257
  9
$OBSLTYPE
280
     0
  9
$INTERSECTIONDISPLAY
280
     0
  9
$INTERSECTIONCOLOR
 70
   257
  9
$DIMASSOC
280
     1
  9
$PROJECTNAME
  1

  9
$CAMERADISPLAY
290
     0
  9
$LENSLENGTH
 40
50.0
  9
$CAMERAHEIGHT
 40
0.0
  9
$STEPSPERSEC
 40
2.0
  9
$STEPSIZE
 40
6.0
  9
$3DDWFPREC
 40
2.0
  9
$PSOLWIDTH
 40
0.25
  9
$PSOLHEIGHT
 40
4.0
  9
$LOFTANG1
 40
1.570796326794896
  9
$LOFTANG2
 40
1.570796326794896
  9
$LOFTMAG1
 40
0.0
  9
$LOFTMAG2
 40
0.0
  9
$LOFTPARAM
 70
     7
  9
$LOFTNORMALS
280
     1
  9
$LATITUDE
 40
37.795
  9
$LONGITUDE
 40
-122.394
  9
$NORTHDIRECTION
 40
0.0
  9
$TIMEZONE
 70
 -8000
  9
$LIGHTGLYPHDISPLAY
280
     1
  9
$TILEMODELIGHTSYNCH
280
     1
  9
$CMATERIAL
347
11
  9
$SOLIDHIST
280
     0
  9
$SHOWHIST
280
     1
  9
$DWFFRAME
280
     2
  9
$DGNFRAME
280
     0
  9
$REALWORLDSCALE
290
     1
  9
$INTERFERECOLOR
 62
     1
  9
$INTERFEREOBJVS
345
33
  9
$INTERFEREVPVS
346
30
  9
$CSHADOW
280
     0
  9
$SHADOWPLANELOCATION
 40
0.0
  0
ENDSEC
  0
SECTION
  2
CLASSES
  0
CLASS
  1
ACDBDICTIONARYWDFLT
  2
AcDbDictionaryWithDefault
  3
ObjectDBX Classes
 90
        0
 91
        1
280
     0
281
     0
  0
CLASS
  1
MATERIAL
  2
AcDbMaterial
  3
ObjectDBX Classes
 90
     1153
 91
        3
280
     0
281
     0
  0
CLASS
  1
VISUALSTYLE
  2
AcDbVisualStyle
  3
ObjectDBX Classes
 90
     4095
 91
       24
280
     0
281
     0
  0
CLASS
  1
SCALE
  2
AcDbScale
  3
ObjectDBX Classes
 90
     1153
 91
       17
280
     0
281
     0
  0
CLASS
  1
TABLESTYLE
  2
AcDbTableStyle
  3
ObjectDBX Classes
 90
     4095
 91
        1
280
     0
281
     0
  0
CLASS
  1
MLEADERSTYLE
  2
AcDbMLeaderStyle
  3
ACDB_MLEADERSTYLE_CLASS
 90
     4095
 91
        1
280
     0
281
     0
  0
CLASS
  1
DICTIONARYVAR
  2
AcDbDictionaryVar
  3
ObjectDBX Classes
 90
        0
 91
        3
280
     0
281
     0
  0
CLASS
  1
CELLSTYLEMAP
  2
AcDbCellStyleMap
  3
ObjectDBX Classes
 90
     1152
 91
        1
280
     0
281
     0
  0
ENDSEC
  0
SECTION
  2
TABLES
  0
TABLE
  2
VPORT
  5
8
330
0
100
AcDbSymbolTable
 70
     1
  0
VPORT
  5
57
330
8
100
AcDbSymbolTableRecord
100
AcDbViewportTableRecord
  2
*Active
 70
     0
 10
0.0
 20
0.0
 11
1.0
 21
1.0
 12
93.49999999999999
 22
60.5
 13
0.0
 23
0.0
 14
1.0
 24
1.0
 15
0.0
 25
0.0
 16
0.0
 26
0.0
 36
1.0
 17
0.0
 27
0.0
 37
0.0
 40
121.0
 41
1.545454545454545
 42
50.0
 43
0.0
 44
0.0
 50
0.0
 51
0.0
 71
     0
 72
   100
 73
     1
 74
     1
 75
     0
 76
     0
 77
     0
 78
     0
281
     0
 65
     1
110
0.0
120
0.0
130
0.0
111
1.0
121
0.0
131
0.0
112
0.0
122
1.0
132
0.0
 79
     0
146
0.0
 60
     3
 61
     5
292
     1
282
     1
141
0.0
142
0.0
 63
   250
421
  3355443
  0
ENDTAB
  0
TABLE
  2
LTYPE
  5
5
330
0
100
AcDbSymbolTable
 70
    59
  0
LTYPE
  5
5B
330
5
100
AcDbSymbolTableRecord
100
AcDbLinetypeTableRecord
  2
ByBlock
 70
     0
  3

 72
    65
 73
     0
 40
0.0
  0
LTYPE
  5
5C
330
5
100
AcDbSymbolTableRecord
100
AcDbLinetypeTableRecord
  2
ByLayer
 70
     0
  3

 72
    65
 73
     0
 40
0.0
  0
LTYPE
  5
5D
330
5
100
AcDbSymbolTableRecord
100
AcDbLinetypeTableRecord
  2
Continuous
 70
     0
  3
Solid line
 72
    65
 73
     0
 40
0.0
  0
LTYPE
  5
7C
330
5
100
AcDbSymbolTableRecord
100
AcDbLinetypeTableRecord
  2
BY_STANDARD
 70
     0
  3
By Standard ____________    ____    ____   _
 72
    65
 73
     6
 40
1.240299999999999
 49
0.6614
 74
     0
 49
-0.0827
 74
     0
 49
0.1654
 74
     0
 49
-0.0827
 74
     0
 49
0.1654
 74
     0
 49
-0.0827
 74
     0
  0
LTYPE
  5
7D
330
5
100
AcDbSymbolTableRecord
100
AcDbLinetypeTableRecord
  2
CHAIN
 70
     0
  3
Chain ____ _ ____ _ ____ _ ____ _ ____ _ ____
 72
    65
 73
     4
 40
0.7087
 49
0.4724000000000001
 74
     0
 49
-0.0591
 74
     0
 49
0.1181
 74
     0
 49
-0.0591
 74
     0
  0
LTYPE
  5
7E
330
5
100
AcDbSymbolTableRecord
100
AcDbLinetypeTableRecord
  2
DASH_DOT
 70
     0
  3
Dash dot __ . __ . __ . __ . __ . __ . __ . __
 72
    65
 73
     4
 40
0.37
 49
0.24
 74
     0
 49
-0.06
 74
     0
 49
0.01
 74
     0
 49
-0.06
 74
     0
  0
LTYPE
  5
7F
330
5
100
AcDbSymbolTableRecord
100
AcDbLinetypeTableRecord
  2
DOUBLE_DASH_DOT
 70
     0
  3
Double-Dash Dot __ __ . __ __ . __ __ . __ _
 72
    65
 73
     6
 40
0.4398
 49
0.24
 74
     0
 49
-0.06
 74
     0
 49
0.0098
 74
     0
 49
-0.06
 74
     0
 49
0.01
 74
     0
 49
-0.06
 74
     0
  0
LTYPE
  5
80
330
5
100
AcDbSymbolTableRecord
100
AcDbLinetypeTableRecord
  2
DASH_TRIPLE_DOT
 70
     0
  3
Dash Triple-Dot _ . . . _ . . . _ . . . _
 72
    65
 73
     8
 40
0.51
 49
0.24
 74
     0
 49
-0.06
 74
     0
 49
0.01
 74
     0
 49
-0.06
 74
     0
 49
0.01
 74
     0
 49
-0.06
 74
     0
 49
0.01
 74
     0
 49
-0.06
 74
     0
  0
LTYPE
  5
81
330
5
100
AcDbSymbolTableRecord
100
AcDbLinetypeTableRecord
  2
DASHED
 70
     0
  3
Dashed __ __ __ __ __ __ __ __ __ __ __ __ __ _
 72
    65
 73
     2
 40
0.2067
 49
0.1654
 74
     0
 49
-0.0413
 74
     0
  0
LTYPE
  5
82
330
5
100
AcDbSymbolTableRecord
100
AcDbLinetypeTableRecord
  2
DASH_DOUBLE_DOT
 70
     0
  3
Dash Double-Dot __ . . __ . . __ . . __ . .
 72
    65
 73
     6
 40
0.4398
 49
0.24
 74
     0
 49
-0.06
 74
     0
 49
0.0098
 74
     0
 49
-0.06
 74
     0
 49
0.01
 74
     0
 49
-0.06
 74
     0
  0
LTYPE
  5
83
330
5
100
AcDbSymbolTableRecord
100
AcDbLinetypeTableRecord
  2
DASHED_SPACE
 70
     0
  3
Dashed Space __ __ __ __ __ __ __ __ __ __ __ _
 72
    65
 73
     2
 40
0.2067
 49
0.1654
 74
     0
 49
-0.0413
 74
     0
  0
LTYPE
  5
84
330
5
100
AcDbSymbolTableRecord
100
AcDbLinetypeTableRecord
  2
DOTTED
 70
     0
  3
Dotted . . . . . . . . . . . . . . . . . . . . 
 72
    65
 73
     2
 40
0.0482
 49
0.0069
 74
     0
 49
-0.0413
 74
     0
  0
LTYPE
  5
85
330
5
100
AcDbSymbolTableRecord
100
AcDbLinetypeTableRecord
  2
DOUBLE_DASH_CHAIN
 70
     0
  3
Double-Dash Chain ______  __  __  ______  __  _
 72
    65
 73
     6
 40
1.240299999999999
 49
0.6614
 74
     0
 49
-0.0827
 74
     0
 49
0.1654
 74
     0
 49
-0.0827
 74
     0
 49
0.1654
 74
     0
 49
-0.0827
 74
     0
  0
LTYPE
  5
87
330
5
100
AcDbSymbolTableRecord
100
AcDbLinetypeTableRecord
  2
DOUBLE_DASH_DOUBLE_DOT
 70
     0
  3
Double-Dash Double-dot _ _ . . _ _ . . _
 72
    65
 73
     8
 40
0.7400000000000001
 49
0.24
 74
     0
 49
-0.06
 74
     0
 49
0.24
 74
     0
 49
-0.06
 74
     0
 49
0.01
 74
     0
 49
-0.06
 74
     0
 49
0.01
 74
     0
 49
-0.06
 74
     0
  0
LTYPE
  5
88
330
5
100
AcDbSymbolTableRecord
100
AcDbLinetypeTableRecord
  2
DOUBLE_DASH_TRIPLE_DOT
 70
     0
  3
Double Dash Triple Dot __ __ . . . __ __ . .
 72
    65
 73
    10
 40
0.8100000000000001
 49
0.24
 74
     0
 49
-0.06
 74
     0
 49
0.24
 74
     0
 49
-0.06
 74
     0
 49
0.01
 74
     0
 49
-0.06
 74
     0
 49
0.01
 74
     0
 49
-0.06
 74
     0
 49
0.01
 74
     0
 49
-0.06
 74
     0
  0
LTYPE
  5
89
330
5
100
AcDbSymbolTableRecord
100
AcDbLinetypeTableRecord
  2
LONG_DASH_DOTTED
 70
     0
  3
Long Dash Dotted ____ . ____ . ____ . ____ . _
 72
    65
 73
     4
 40
0.3543
 49
0.2362
 74
     0
 49
-0.0295
 74
     0
 49
0.0591
 74
     0
 49
-0.0295
 74
     0
  0
LTYPE
  5
8A
330
5
100
AcDbSymbolTableRecord
100
AcDbLinetypeTableRecord
  2
LONG_DASH_DOUBLE_DOT
 70
     0
  3
Long Dash Double Dot ________  .  .  ________  
 72
    65
 73
     6
 40
0.6799999999999999
 49
0.48
 74
     0
 49
-0.06
 74
     0
 49
0.01
 74
     0
 49
-0.06
 74
     0
 49
0.01
 74
     0
 49
-0.06
 74
     0
  0
LTYPE
  5
8B
330
5
100
AcDbSymbolTableRecord
100
AcDbLinetypeTableRecord
  2
LONG_DASH_TRIPLE_DOT
 70
     0
  3
Long Dash Triple Dot ____ ... ____ ... ____
 72
    65
 73
     8
 40
0.3689
 49
0.2362
 74
     0
 49
-0.0295
 74
     0
 49
0.0049
 74
     0
 49
-0.0295
 74
     0
 49
0.0049
 74
     0
 49
-0.0295
 74
     0
 49
0.0049
 74
     0
 49
-0.0295
 74
     0
  0
LTYPE
  5
8C
330
5
100
AcDbSymbolTableRecord
100
AcDbLinetypeTableRecord
  2
BORDER
 70
     0
  3
Border __ __ . __ __ . __ __ . __ __ . __ __ .
 72
    65
 73
     6
 40
1.75
 49
0.5
 74
     0
 49
-0.25
 74
     0
 49
0.5
 74
     0
 49
-0.25
 74
     0
 49
0.0
 74
     0
 49
-0.25
 74
     0
  0
LTYPE
  5
8D
330
5
100
AcDbSymbolTableRecord
100
AcDbLinetypeTableRecord
  2
BORDER2
 70
     0
  3
Border (.5x) __.__.__.__.__.__.__.__.__.__.__.
 72
    65
 73
     6
 40
0.875
 49
0.25
 74
     0
 49
-0.125
 74
     0
 49
0.25
 74
     0
 49
-0.125
 74
     0
 49
0.0
 74
     0
 49
-0.125
 74
     0
  0
LTYPE
  5
8E
330
5
100
AcDbSymbolTableRecord
100
AcDbLinetypeTableRecord
  2
BORDERX2
 70
     0
  3
Border (2x) ____  ____  .  ____  ____  .  ___
 72
    65
 73
     6
 40
3.5
 49
1.0
 74
     0
 49
-0.5
 74
     0
 49
1.0
 74
     0
 49
-0.5
 74
     0
 49
0.0
 74
     0
 49
-0.5
 74
     0
  0
LTYPE
  5
8F
330
5
100
AcDbSymbolTableRecord
100
AcDbLinetypeTableRecord
  2
CENTER
 70
     0
  3
Center ____ _ ____ _ ____ _ ____ _ ____ _ ____
 72
    65
 73
     4
 40
2.0
 49
1.25
 74
     0
 49
-0.25
 74
     0
 49
0.25
 74
     0
 49
-0.25
 74
     0
  0
LTYPE
  5
90
330
5
100
AcDbSymbolTableRecord
100
AcDbLinetypeTableRecord
  2
CENTER2
 70
     0
  3
Center (.5x) ___ _ ___ _ ___ _ ___ _ ___ _ ___
 72
    65
 73
     4
 40
1.125
 49
0.75
 74
     0
 49
-0.125
 74
     0
 49
0.125
 74
     0
 49
-0.125
 74
     0
  0
LTYPE
  5
91
330
5
100
AcDbSymbolTableRecord
100
AcDbLinetypeTableRecord
  2
CENTERX2
 70
     0
  3
Center (2x) ________  __  ________  __  _____
 72
    65
 73
     4
 40
4.0
 49
2.5
 74
     0
 49
-0.5
 74
     0
 49
0.5
 74
     0
 49
-0.5
 74
     0
  0
LTYPE
  5
92
330
5
100
AcDbSymbolTableRecord
100
AcDbLinetypeTableRecord
  2
DASHDOT2
 70
     0
  3
Dash dot (.5x) _._._._._._._._._._._._._._._.
 72
    65
 73
     4
 40
0.5
 49
0.25
 74
     0
 49
-0.125
 74
     0
 49
0.0
 74
     0
 49
-0.125
 74
     0
  0
LTYPE
  5
93
330
5
100
AcDbSymbolTableRecord
100
AcDbLinetypeTableRecord
  2
DASHDOTX2
 70
     0
  3
Dash dot (2x) ____  .  ____  .  ____  .  ___
 72
    65
 73
     4
 40
2.0
 49
1.0
 74
     0
 49
-0.5
 74
     0
 49
0.0
 74
     0
 49
-0.5
 74
     0
  0
LTYPE
  5
95
330
5
100
AcDbSymbolTableRecord
100
AcDbLinetypeTableRecord
  2
DASHED2
 70
     0
  3
Dashed (.5x) _ _ _ _ _ _ _ _ _ _ _ _ _ _ _ _ _
 72
    65
 73
     2
 40
0.375
 49
0.25
 74
     0
 49
-0.125
 74
     0
  0
LTYPE
  5
96
330
5
100
AcDbSymbolTableRecord
100
AcDbLinetypeTableRecord
  2
DASHEDX2
 70
     0
  3
Dashed (2x) ____  ____  ____  ____  ____  ___
 72
    65
 73
     2
 40
1.5
 49
1.0
 74
     0
 49
-0.5
 74
     0
  0
LTYPE
  5
97
330
5
100
AcDbSymbolTableRecord
100
AcDbLinetypeTableRecord
  2
DIVIDE
 70
     0
  3
Divide ____ . . ____ . . ____ . . ____ . . ____
 72
    65
 73
     6
 40
1.25
 49
0.5
 74
     0
 49
-0.25
 74
     0
 49
0.0
 74
     0
 49
-0.25
 74
     0
 49
0.0
 74
     0
 49
-0.25
 74
     0
  0
LTYPE
  5
98
330
5
100
AcDbSymbolTableRecord
100
AcDbLinetypeTableRecord
  2
DIVIDE2
 70
     0
  3
Divide (.5x) __..__..__..__..__..__..__..__.._
 72
    65
 73
     6
 40
0.625
 49
0.25
 74
     0
 49
-0.125
 74
     0
 49
0.0
 74
     0
 49
-0.125
 74
     0
 49
0.0
 74
     0
 49
-0.125
 74
     0
  0
LTYPE
  5
99
330
5
100
AcDbSymbolTableRecord
100
AcDbLinetypeTableRecord
  2
DIVIDEX2
 70
     0
  3
Divide (2x) ________  .  .  ________  .  .  _
 72
    65
 73
     6
 40
2.5
 49
1.0
 74
     0
 49
-0.5
 74
     0
 49
0.0
 74
     0
 49
-0.5
 74
     0
 49
0.0
 74
     0
 49
-0.5
 74
     0
  0
LTYPE
  5
9A
330
5
100
AcDbSymbolTableRecord
100
AcDbLinetypeTableRecord
  2
DOT
 70
     0
  3
Dot . . . . . . . . . . . . . . . . . . . . . .
 72
    65
 73
     2
 40
0.25
 49
0.0
 74
     0
 49
-0.25
 74
     0
  0
LTYPE
  5
9B
330
5
100
AcDbSymbolTableRecord
100
AcDbLinetypeTableRecord
  2
DOT2
 70
     0
  3
Dot (.5x) .....................................
 72
    65
 73
     2
 40
0.125
 49
0.0
 74
     0
 49
-0.125
 74
     0
  0
LTYPE
  5
9C
330
5
100
AcDbSymbolTableRecord
100
AcDbLinetypeTableRecord
  2
DOTX2
 70
     0
  3
Dot (2x) .  .  .  .  .  .  .  .  .  .  .  .  . 
 72
    65
 73
     2
 40
0.5
 49
0.0
 74
     0
 49
-0.5
 74
     0
  0
LTYPE
  5
9D
330
5
100
AcDbSymbolTableRecord
100
AcDbLinetypeTableRecord
  2
HIDDEN
 70
     0
  3
Hidden __ __ __ __ __ __ __ __ __ __ __ __ __ _
 72
    65
 73
     2
 40
0.375
 49
0.25
 74
     0
 49
-0.125
 74
     0
  0
LTYPE
  5
9E
330
5
100
AcDbSymbolTableRecord
100
AcDbLinetypeTableRecord
  2
HIDDEN2
 70
     0
  3
Hidden (.5x) _ _ _ _ _ _ _ _ _ _ _ _ _ _ _ _ _
 72
    65
 73
     2
 40
0.1875
 49
0.125
 74
     0
 49
-0.0625
 74
     0
  0
LTYPE
  5
9F
330
5
100
AcDbSymbolTableRecord
100
AcDbLinetypeTableRecord
  2
HIDDENX2
 70
     0
  3
Hidden (2x) ____ ____ ____ ____ ____ ____ ____
 72
    65
 73
     2
 40
0.75
 49
0.5
 74
     0
 49
-0.25
 74
     0
  0
LTYPE
  5
A0
330
5
100
AcDbSymbolTableRecord
100
AcDbLinetypeTableRecord
  2
PHANTOM
 70
     0
  3
Phantom ______  __  __  ______  __  __  ______
 72
    65
 73
     6
 40
2.5
 49
1.25
 74
     0
 49
-0.25
 74
     0
 49
0.25
 74
     0
 49
-0.25
 74
     0
 49
0.25
 74
     0
 49
-0.25
 74
     0
  0
LTYPE
  5
A1
330
5
100
AcDbSymbolTableRecord
100
AcDbLinetypeTableRecord
  2
PHANTOM2
 70
     0
  3
Phantom (.5x) ___ _ _ ___ _ _ ___ _ _ ___ _ _
 72
    65
 73
     6
 40
1.25
 49
0.625
 74
     0
 49
-0.125
 74
     0
 49
0.125
 74
     0
 49
-0.125
 74
     0
 49
0.125
 74
     0
 49
-0.125
 74
     0
  0
LTYPE
  5
A2
330
5
100
AcDbSymbolTableRecord
100
AcDbLinetypeTableRecord
  2
PHANTOMX2
 70
     0
  3
Phantom (2x) ____________    ____    ____   _
 72
    65
 73
     6
 40
5.0
 49
2.5
 74
     0
 49
-0.5
 74
     0
 49
0.5
 74
     0
 49
-0.5
 74
     0
 49
0.5
 74
     0
 49
-0.5
 74
     0
  0
LTYPE
  5
A3
330
5
100
AcDbSymbolTableRecord
100
AcDbLinetypeTableRecord
  2
ACAD_ISO02W100
 70
     0
  3
ISO dash __ __ __ __ __ __ __ __ __ __ __ __ __
 72
    65
 73
     2
 40
0.59
 49
0.47
 74
     0
 49
-0.12
 74
     0
  0
LTYPE
  5
A4
330
5
100
AcDbSymbolTableRecord
100
AcDbLinetypeTableRecord
  2
ACAD_ISO03W100
 70
     0
  3
ISO dash space __    __    __    __    __    __
 72
    65
 73
     2
 40
1.179999999999999
 49
0.47
 74
     0
 49
-0.71
 74
     0
  0
LTYPE
  5
A5
330
5
100
AcDbSymbolTableRecord
100
AcDbLinetypeTableRecord
  2
ACAD_ISO04W100
 70
     0
  3
ISO long-dash dot ____ . ____ . ____ . ____ . _
 72
    65
 73
     4
 40
1.179999999999999
 49
0.9399999999999998
 74
     0
 49
-0.12
 74
     0
 49
0.0
 74
     0
 49
-0.12
 74
     0
  0
LTYPE
  5
A6
330
5
100
AcDbSymbolTableRecord
100
AcDbLinetypeTableRecord
  2
ACAD_ISO05W100
 70
     0
  3
ISO long-dash double-dot ____ .. ____ .. ____ .
 72
    65
 73
     6
 40
1.299999999999999
 49
0.9399999999999998
 74
     0
 49
-0.12
 74
     0
 49
0.0
 74
     0
 49
-0.12
 74
     0
 49
0.0
 74
     0
 49
-0.12
 74
     0
  0
LTYPE
  5
A7
330
5
100
AcDbSymbolTableRecord
100
AcDbLinetypeTableRecord
  2
ACAD_ISO06W100
 70
     0
  3
ISO long-dash triple-dot ____ ... ____ ... ____
 72
    65
 73
     8
 40
1.419999999999999
 49
0.9399999999999998
 74
     0
 49
-0.12
 74
     0
 49
0.0
 74
     0
 49
-0.12
 74
     0
 49
0.0
 74
     0
 49
-0.12
 74
     0
 49
0.0
 74
     0
 49
-0.12
 74
     0
  0
LTYPE
  5
A8
330
5
100
AcDbSymbolTableRecord
100
AcDbLinetypeTableRecord
  2
ACAD_ISO07W100
 70
     0
  3
ISO dot . . . . . . . . . . . . . . . . . . . .
 72
    65
 73
     2
 40
0.12
 49
0.0
 74
     0
 49
-0.12
 74
     0
  0
LTYPE
  5
A9
330
5
100
AcDbSymbolTableRecord
100
AcDbLinetypeTableRecord
  2
ACAD_ISO08W100
 70
     0
  3
ISO long-dash short-dash ____ __ ____ __ ____ _
 72
    65
 73
     4
 40
0.95
 49
0.47
 74
     0
 49
-0.12
 74
     0
 49
0.24
 74
     0
 49
-0.12
 74
     0
  0
LTYPE
  5
AA
330
5
100
AcDbSymbolTableRecord
100
AcDbLinetypeTableRecord
  2
ACAD_ISO09W100
 70
     0
  3
ISO long-dash double-short-dash ____ __ __ ____
 72
    65
 73
     6
 40
1.31
 49
0.47
 74
     0
 49
-0.12
 74
     0
 49
0.24
 74
     0
 49
-0.12
 74
     0
 49
0.24
 74
     0
 49
-0.12
 74
     0
  0
LTYPE
  5
AB
330
5
100
AcDbSymbolTableRecord
100
AcDbLinetypeTableRecord
  2
ACAD_ISO10W100
 70
     0
  3
ISO dash dot __ . __ . __ . __ . __ . __ . __ .
 72
    65
 73
     4
 40
0.71
 49
0.47
 74
     0
 49
-0.12
 74
     0
 49
0.0
 74
     0
 49
-0.12
 74
     0
  0
LTYPE
  5
AC
330
5
100
AcDbSymbolTableRecord
100
AcDbLinetypeTableRecord
  2
ACAD_ISO11W100
 70
     0
  3
ISO double-dash dot __ __ . __ __ . __ __ . __ 
 72
    65
 73
     6
 40
1.299999999999999
 49
0.47
 74
     0
 49
-0.12
 74
     0
 49
0.47
 74
     0
 49
-0.12
 74
     0
 49
0.0
 74
     0
 49
-0.12
 74
     0
  0
LTYPE
  5
AD
330
5
100
AcDbSymbolTableRecord
100
AcDbLinetypeTableRecord
  2
ACAD_ISO12W100
 70
     0
  3
ISO dash double-dot __ . . __ . . __ . . __ . .
 72
    65
 73
     6
 40
0.8299999999999998
 49
0.47
 74
     0
 49
-0.12
 74
     0
 49
0.0
 74
     0
 49
-0.12
 74
     0
 49
0.0
 74
     0
 49
-0.12
 74
     0
  0
LTYPE
  5
AE
330
5
100
AcDbSymbolTableRecord
100
AcDbLinetypeTableRecord
  2
ACAD_ISO13W100
 70
     0
  3
ISO double-dash double-dot __ __ . . __ __ . . 
 72
    65
 73
     8
 40
1.419999999999999
 49
0.47
 74
     0
 49
-0.12
 74
     0
 49
0.47
 74
     0
 49
-0.12
 74
     0
 49
0.0
 74
     0
 49
-0.12
 74
     0
 49
0.0
 74
     0
 49
-0.12
 74
     0
  0
LTYPE
  5
AF
330
5
100
AcDbSymbolTableRecord
100
AcDbLinetypeTableRecord
  2
ACAD_ISO14W100
 70
     0
  3
ISO dash triple-dot __ . . . __ . . . __ . . . 
 72
    65
 73
     8
 40
0.95
 49
0.47
 74
     0
 49
-0.12
 74
     0
 49
0.0
 74
     0
 49
-0.12
 74
     0
 49
0.0
 74
     0
 49
-0.12
 74
     0
 49
0.0
 74
     0
 49
-0.12
 74
     0
  0
LTYPE
  5
B0
330
5
100
AcDbSymbolTableRecord
100
AcDbLinetypeTableRecord
  2
ACAD_ISO15W100
 70
     0
  3
ISO double-dash triple-dot __ __ . . . __ __ . 
 72
    65
 73
    10
 40
1.539999999999999
 49
0.47
 74
     0
 49
-0.12
 74
     0
 49
0.47
 74
     0
 49
-0.12
 74
     0
 49
0.0
 74
     0
 49
-0.12
 74
     0
 49
0.0
 74
     0
 49
-0.12
 74
     0
 49
0.0
 74
     0
 49
-0.12
 74
     0
  0
LTYPE
  5
B3
330
5
100
AcDbSymbolTableRecord
100
AcDbLinetypeTableRecord
  2
FENCELINE1
 70
     0
  3
Fenceline circle ----0-----0----0-----0----0---
 72
    65
 73
     4
 40
1.45
 49
0.25
 74
     0
 49
-0.1
 74
     4
 75
   133
340
B2
 46
0.1
 50
0.0
 44
-0.1
 45
0.0
 49
-0.1
 74
     0
 49
1.0
 74
     0
  0
LTYPE
  5
B4
330
5
100
AcDbSymbolTableRecord
100
AcDbLinetypeTableRecord
  2
FENCELINE2
 70
     0
  3
Fenceline square ----[]-----[]----[]-----[]----
 72
    65
 73
     4
 40
1.45
 49
0.25
 74
     0
 49
-0.1
 74
     4
 75
   132
340
B2
 46
0.1
 50
0.0
 44
-0.1
 45
0.0
 49
-0.1
 74
     0
 49
1.0
 74
     0
  0
LTYPE
  5
B5
330
5
100
AcDbSymbolTableRecord
100
AcDbLinetypeTableRecord
  2
TRACKS
 70
     0
  3
Tracks -|-|-|-|-|-|-|-|-|-|-|-|-|-|-|-|-|-|-|-|
 72
    65
 73
     2
 40
0.3
 49
0.15
 74
     4
 75
   130
340
B2
 46
0.25
 50
0.0
 44
0.0
 45
0.0
 49
0.15
 74
     0
  0
LTYPE
  5
B6
330
5
100
AcDbSymbolTableRecord
100
AcDbLinetypeTableRecord
  2
BATTING
 70
     0
  3
Batting SSSSSSSSSSSSSSSSSSSSSSSSSSSSSSSSSSSSSSS
 72
    65
 73
     4
 40
0.4001000000000001
 49
0.0001
 74
     0
 49
-0.1
 74
     4
 75
   134
340
B2
 46
0.1
 50
0.0
 44
-0.1
 45
0.0
 49
-0.2
 74
     4
 75
   134
340
B2
 46
0.1
 50
180.0
 44
0.1
 45
0.0
 49
-0.1
 74
     0
  0
LTYPE
  5
B7
330
5
100
AcDbSymbolTableRecord
100
AcDbLinetypeTableRecord
  2
HOT_WATER_SUPPLY
 70
     0
  3
Hot water supply ---- HW ---- HW ---- HW ----
 72
    65
 73
     3
 40
0.9
 49
0.5
 74
     0
 49
-0.2
 74
     2
 75
     0
340
55
 46
0.1
 50
0.0
 44
-0.1
 45
-0.05
  9
HW
 49
-0.2
 74
     0
  0
LTYPE
  5
B8
330
5
100
AcDbSymbolTableRecord
100
AcDbLinetypeTableRecord
  2
GAS_LINE
 70
     0
  3
Gas line ----GAS----GAS----GAS----GAS----GAS---
 72
    65
 73
     3
 40
0.95
 49
0.5
 74
     0
 49
-0.2
 74
     2
 75
     0
340
55
 46
0.1
 50
0.0
 44
-0.1
 45
-0.05
  9
GAS
 49
-0.25
 74
     0
  0
LTYPE
  5
B9
330
5
100
AcDbSymbolTableRecord
100
AcDbLinetypeTableRecord
  2
ZIGZAG
 70
     0
  3
Zig zag /\/\/\/\/\/\/\/\/\/\/\/\/\/\/\/\/\/\/\/
 72
    65
 73
     4
 40
0.8001000000000001
 49
0.0001
 74
     0
 49
-0.2
 74
     4
 75
   131
340
B2
 46
0.2
 50
0.0
 44
-0.2
 45
0.0
 49
-0.4
 74
     4
 75
   131
340
B2
 46
0.2
 50
180.0
 44
0.2
 45
0.0
 49
-0.2
 74
     0
  0
ENDTAB
  0
TABLE
  2
LAYER
  5
2
330
0
100
AcDbSymbolTable
 70
    27
  0
LAYER
  5
54
330
2
100
AcDbSymbolTableRecord
100
AcDbLayerTableRecord
  2
0
 70
     0
 62
     7
  6
Continuous
370
    18
390
F
347
21
  0
LAYER
  5
C0
330
2
100
AcDbSymbolTableRecord
100
AcDbLayerTableRecord
  2
Center Mark (ANSI)
 70
     0
 62
     7
  6
Continuous
370
    15
390
F
347
21
  0
LAYER
  5
C1
330
2
100
AcDbSymbolTableRecord
100
AcDbLayerTableRecord
  2
Centerline (ANSI)
 70
     0
 62
     7
  6
Continuous
370
    15
390
F
347
21
  0
LAYER
  5
C3
330
2
100
AcDbSymbolTableRecord
100
AcDbLayerTableRecord
  2
Dimension (ANSI)
 70
     0
 62
     7
  6
Continuous
370
    13
390
F
347
21
  0
LAYER
  5
CC
330
2
100
AcDbSymbolTableRecord
100
AcDbLayerTableRecord
  2
Symbol (ANSI)
 70
     0
 62
     7
  6
Continuous
370
    18
390
F
347
21
  0
LAYER
  5
CF
330
2
100
AcDbSymbolTableRecord
100
AcDbLayerTableRecord
  2
Visible (ANSI)
 70
     0
 62
     7
  6
Continuous
370
    13
390
F
347
21
  0
LAYER
  5
D0
330
2
100
AcDbSymbolTableRecord
100
AcDbLayerTableRecord
  2
Visible Narrow (ANSI)
 70
     0
 62
     7
  6
Continuous
370
    18
390
F
347
21
  0
LAYER
  5
2EF
330
2
100
AcDbSymbolTableRecord
100
AcDbLayerTableRecord
  2
Defpoints
 70
     0
 62
     7
  6
Continuous
290
     0
370
    -3
390
F
347
21
  0
ENDTAB
  0
TABLE
  2
STYLE
  5
3
330
0
100
AcDbSymbolTable
 70
    18
  0
STYLE
  5
55
330
3
100
AcDbSymbolTableRecord
100
AcDbTextStyleTableRecord
  2
Standard
 70
     0
 40
0.0
 41
1.0
 50
0.0
 71
     0
 42
0.2
  3
txt
  4

  0
STYLE
  5
5A
330
3
100
AcDbSymbolTableRecord
100
AcDbTextStyleTableRecord
  2
Annotative
 70
     0
 40
0.0
 41
1.0
 50
0.0
 71
     0
 42
0.2
  3
txt
  4

1001
AcadAnnotative
1000
AnnotativeData
1002
{
1070
     1
1070
     1
1002
}
  0
STYLE
  5
B2
330
3
100
AcDbSymbolTableRecord
100
AcDbTextStyleTableRecord
  2

 70
     1
 40
0.0
 41
1.0
 50
0.0
 71
     0
 42
0.2
  3
ltypeshp.shx
  4

  0
STYLE
  5
D4
330
3
100
AcDbSymbolTableRecord
100
AcDbTextStyleTableRecord
  2
ITALICC_120
 70
     0
 40
0.0
 41
1.0
 50
0.0
 71
     0
 42
0.2
  3
italicc.shx
  4

  0
STYLE
  5
D5
330
3
100
AcDbSymbolTableRecord
100
AcDbTextStyleTableRecord
  2
Label Text (ANSI)
 70
     0
 40
0.0
 41
1.0
 50
0.0
 71
     0
 42
0.2
  3
tahoma.ttf
  4

1001
ACAD
1000
Tahoma
1071
      256
  0
STYLE
  5
D6
330
3
100
AcDbSymbolTableRecord
100
AcDbTextStyleTableRecord
  2
Note Text (ANSI)
 70
     0
 40
0.0
 41
1.0
 50
0.0
 71
     0
 42
0.2
  3
tahoma.ttf
  4

1001
ACAD
1000
Tahoma
1071
      256
  0
STYLE
  5
D7
330
3
100
AcDbSymbolTableRecord
100
AcDbTextStyleTableRecord
  2
ROMANS
 70
     0
 40
0.0
 41
1.0
 50
0.0
 71
     0
 42
0.2
  3
romans.shx
  4

  0
STYLE
  5
D8
330
3
100
AcDbSymbolTableRecord
100
AcDbTextStyleTableRecord
  2
SANSSERIF_114
 70
     0
 40
0.0
 41
1.0
 50
0.0
 71
     0
 42
0.2
  3
tahoma.ttf
  4

1001
ACAD
1000
Tahoma
1071
      256
  0
STYLE
  5
D9
330
3
100
AcDbSymbolTableRecord
100
AcDbTextStyleTableRecord
  2
SANSSERIF_117
 70
     0
 40
0.0
 41
1.0
 50
0.0
 71
     0
 42
0.2
  3
tahoma.ttf
  4

1001
ACAD
1000
Tahoma
1071
      256
  0
STYLE
  5
DA
330
3
100
AcDbSymbolTableRecord
100
AcDbTextStyleTableRecord
  2
STANDARDAM_ANSI
 70
     0
 40
0.0
 41
1.0
 50
0.0
 71
     0
 42
0.2
  3
txt.shx
  4

  0
STYLE
  5
DB
330
3
100
AcDbSymbolTableRecord
100
AcDbTextStyleTableRecord
  2
StandardAM_ANSI$0
 70
     0
 40
0.0
 41
1.0
 50
0.0
 71
     0
 42
0.2
  3
txt.shx
  4

  0
STYLE
  5
DC
330
3
100
AcDbSymbolTableRecord
100
AcDbTextStyleTableRecord
  2
STANDARDAM_ANSI$3
 70
     0
 40
0.0
 41
1.0
 50
0.0
 71
     0
 42
0.2
  3
txt.shx
  4

  0
STYLE
  5
DD
330
3
100
AcDbSymbolTableRecord
100
AcDbTextStyleTableRecord
  2
STANDARDAM_ANSI$4
 70
     0
 40
0.0
 41
1.0
 50
0.0
 71
     0
 42
0.2
  3
txt.shx
  4

  0
STYLE
  5
DE
330
3
100
AcDbSymbolTableRecord
100
AcDbTextStyleTableRecord
  2
STANDARDAM_ANSI$7
 70
     0
 40
0.0
 41
1.0
 50
0.0
 71
     0
 42
0.2
  3
txt.shx
  4

  0
STYLE
  5
DF
330
3
100
AcDbSymbolTableRecord
100
AcDbTextStyleTableRecord
  2
STANDARDAM_ANSI$SF
 70
     0
 40
0.0
 41
1.0
 50
0.0
 71
     0
 42
0.2
  3
txt.shx
  4

  0
STYLE
  5
E0
330
3
100
AcDbSymbolTableRecord
100
AcDbTextStyleTableRecord
  2
STANDARDAM_ANSI$SH
 70
     0
 40
0.0
 41
1.0
 50
0.0
 71
     0
 42
0.2
  3
txt.shx
  4

  0
STYLE
  5
E1
330
3
100
AcDbSymbolTableRecord
100
AcDbTextStyleTableRecord
  2
STANDARDSTANDARD
 70
     0
 40
0.0
 41
1.0
 50
0.0
 71
     0
 42
0.2
  3
txt.shx
  4

  0
STYLE
  5
1FF
330
3
100
AcDbSymbolTableRecord
100
AcDbTextStyleTableRecord
  2
Text Style154
 70
     0
 40
0.0
 41
1.0
 50
0.0
 71
     0
 42
0.2
  3
tahoma.ttf
  4

1001
ACAD
1000
Tahoma
1071
      256
  0
ENDTAB
  0
TABLE
  2
VIEW
  5
6
330
0
100
AcDbSymbolTable
 70
     0
  0
ENDTAB
  0
TABLE
  2
UCS
  5
7
330
0
100
AcDbSymbolTable
 70
     0
  0
ENDTAB
  0
TABLE
  2
APPID
  5
9
330
0
100
AcDbSymbolTable
 70
     3
  0
APPID
  5
56
330
9
100
AcDbSymbolTableRecord
100
AcDbRegAppTableRecord
  2
ACAD
 70
     0
  0
APPID
  5
5E
330
9
100
AcDbSymbolTableRecord
100
AcDbRegAppTableRecord
  2
AcadAnnotative
 70
     0
  0
APPID
  5
B4D
330
9
100
AcDbSymbolTableRecord
100
AcDbRegAppTableRecord
  2
ACAD_DSTYLE_DIMRADIAL_EXTENSION
 70
     0
  0
ENDTAB
  0
TABLE
  2
DIMSTYLE
  5
A
330
0
100
AcDbSymbolTable
 70
    27
100
AcDbDimStyleTable
 71
     2
340
F6
340
58
  0
DIMSTYLE
105
58
330
A
100
AcDbSymbolTableRecord
100
AcDbDimStyleTableRecord
  2
STANDARD
 70
     0
 41
0.1800000071525573
 42
0.0625
140
0.1800000071525574
144
1.0
147
0.0900000035762787
176
   256
177
   256
178
   256
274
     3
340
55
371
    -1
372
    -1
  0
DIMSTYLE
105
59
330
A
100
AcDbSymbolTableRecord
100
AcDbDimStyleTableRecord
  2
Annotative
 70
     0
340
55
1001
AcadAnnotative
1000
AnnotativeData
1002
{
1070
     1
1070
     1
1002
}
  0
DIMSTYLE
105
E2
330
A
100
AcDbSymbolTableRecord
100
AcDbDimStyleTableRecord
  2
AM_ANSI
 70
     0
  4
 mm
 40
11.0
 41
0.119999997317791
 42
0.05
 43
0.5
 44
0.1
 45
0.00000001
 78
     4
 79
     2
140
0.1200000047683716
146
0.7099999189376831
147
0.0599999986588955
176
   256
177
   256
178
     2
284
     4
340
DA
371
    -1
372
    -1
  0
DIMSTYLE
105
E3
330
A
100
AcDbSymbolTableRecord
100
AcDbDimStyleTableRecord
  2
AM_ANSI$7
 70
     0
  4
 mm
 40
11.0
 41
0.119999997317791
 42
0.05
 43
0.5
 44
0.1
 45
0.00000001
 78
     4
 79
     2
140
0.1200000047683716
146
0.7099999189376831
147
0.0599999986588955
176
   256
177
   256
178
     2
284
     4
340
DA
371
    -1
372
    -1
  0
DIMSTYLE
105
E4
330
A
100
AcDbSymbolTableRecord
100
AcDbDimStyleTableRecord
  2
AM_ANSI$0
 70
     0
  4
 mm
 40
11.0
 41
0.119999997317791
 42
0.05
 43
0.5
 44
0.1
 45
0.00000001
 78
     4
 79
     2
140
0.1200000047683716
146
0.7099999189376831
147
0.0599999986588955
176
   256
177
   256
178
     2
284
     4
340
DB
371
    -1
372
    -1
  0
DIMSTYLE
105
E5
330
A
100
AcDbSymbolTableRecord
100
AcDbDimStyleTableRecord
  2
AM_ANSI$0$7
 70
     0
  4
 mm
 40
11.0
 41
0.119999997317791
 42
0.05
 43
0.5
 44
0.1
 45
0.00000001
 78
     4
 79
     2
140
0.1200000047683716
146
0.7099999189376831
147
0.0599999986588955
176
   256
177
   256
178
     2
284
     4
340
DB
371
    -1
372
    -1
  0
DIMSTYLE
105
E6
330
A
100
AcDbSymbolTableRecord
100
AcDbDimStyleTableRecord
  2
AM_ANSI$3
 70
     0
  4
 mm
 40
11.0
 41
0.119999997317791
 42
0.05
 43
0.5
 44
0.1
 45
0.00000001
 78
     4
 79
     2
140
0.1200000047683716
146
0.7099999189376831
147
0.0599999986588955
176
   256
177
   256
178
     2
284
     4
340
DC
371
    -1
372
    -1
  0
DIMSTYLE
105
E7
330
A
100
AcDbSymbolTableRecord
100
AcDbDimStyleTableRecord
  2
AM_ANSI$3$7
 70
     0
  4
 mm
 40
11.0
 41
0.119999997317791
 42
0.05
 43
0.5
 44
0.1
 45
0.00000001
 78
     4
 79
     2
140
0.1200000047683716
146
0.7099999189376831
147
0.0599999986588955
176
   256
177
   256
178
     2
284
     4
340
DC
371
    -1
372
    -1
  0
DIMSTYLE
105
E8
330
A
100
AcDbSymbolTableRecord
100
AcDbDimStyleTableRecord
  2
AM_ANSI$4
 70
     0
  4
 mm
 40
11.0
 41
0.119999997317791
 42
0.05
 43
0.5
 44
0.1
 45
0.00000001
 78
     4
 79
     2
140
0.1200000047683716
146
0.7099999189376831
147
0.0599999986588955
176
   256
177
   256
178
     2
284
     4
340
DD
371
    -1
372
    -1
  0
DIMSTYLE
105
E9
330
A
100
AcDbSymbolTableRecord
100
AcDbDimStyleTableRecord
  2
AM_ANSI$4$7
 70
     0
  4
 mm
 40
11.0
 41
0.119999997317791
 42
0.05
 43
0.5
 44
0.1
 45
0.00000001
 78
     4
 79
     2
140
0.1200000047683716
146
0.7099999189376831
147
0.0599999986588955
176
   256
177
   256
178
     2
284
     4
340
DD
371
    -1
372
    -1
  0
DIMSTYLE
105
EA
330
A
100
AcDbSymbolTableRecord
100
AcDbDimStyleTableRecord
  2
AM_ANSI$SF
 70
     0
  4
 mm
 40
11.0
 41
0.119999997317791
 42
0.05
 43
0.5
 44
0.1
 45
0.00000001
 75
     1
 76
     1
 78
     4
 79
     2
140
0.1200000047683716
146
0.7099999189376831
147
0.0599999986588955
176
   256
177
   256
178
     2
284
     4
340
DF
371
    -1
372
    -1
  0
DIMSTYLE
105
EB
330
A
100
AcDbSymbolTableRecord
100
AcDbDimStyleTableRecord
  2
AM_ANSI$SF$7
 70
     0
  4
 mm
 40
11.0
 41
0.119999997317791
 42
0.05
 43
0.5
 44
0.1
 45
0.00000001
 75
     1
 76
     1
 78
     4
 79
     2
140
0.1200000047683716
146
0.7099999189376831
147
0.0599999986588955
176
   256
177
   256
178
     2
284
     4
340
DF
371
    -1
372
    -1
  0
DIMSTYLE
105
EC
330
A
100
AcDbSymbolTableRecord
100
AcDbDimStyleTableRecord
  2
AM_ANSI$SH
 70
     0
  4
 mm
 40
11.0
 41
0.119999997317791
 42
0.05
 43
0.5
 44
0.1
 45
0.00000001
 75
     1
 76
     1
 78
     4
 79
     2
140
0.1200000047683716
146
0.7099999189376831
147
0.0599999986588955
176
   256
177
   256
178
     2
284
     4
340
E0
371
    -1
372
    -1
  0
DIMSTYLE
105
ED
330
A
100
AcDbSymbolTableRecord
100
AcDbDimStyleTableRecord
  2
AM_ANSI$SH$7
 70
     0
  4
 mm
 40
11.0
 41
0.119999997317791
 42
0.05
 43
0.5
 44
0.1
 45
0.00000001
 75
     1
 76
     1
 78
     4
 79
     2
140
0.1200000047683716
146
0.7099999189376831
147
0.0599999986588955
176
   256
177
   256
178
     2
284
     4
340
E0
371
    -1
372
    -1
  0
DIMSTYLE
105
EE
330
A
100
AcDbSymbolTableRecord
100
AcDbDimStyleTableRecord
  2
Architectural (ANSI)
 70
     0
 40
11.0
 41
0.0984251946210861
 43
0.2362204724409449
 44
0.125
 45
0.00000001
 46
0.3937007874015748
 78
     3
 79
     3
140
0.1200000047683716
147
0.031496062992126
171
     1
176
   256
177
   256
178
   256
272
     2
274
     1
276
     2
277
     4
284
    12
285
     4
286
    12
340
D6
371
    -1
372
    -1
  0
DIMSTYLE
105
EF
330
A
100
AcDbSymbolTableRecord
100
AcDbDimStyleTableRecord
  2
Architectural (ANSI)$7
 70
     0
 40
11.0
 41
0.0984251946210861
 43
0.2362204724409449
 44
0.125
 45
0.00000001
 46
0.3937007874015748
 78
     3
 79
     3
140
0.1200000047683716
147
0.031496062992126
171
     1
176
   256
177
   256
178
   256
272
     2
274
     1
276
     2
277
     4
284
    12
285
     4
286
    12
340
D6
371
    -1
372
    -1
  0
DIMSTYLE
105
F0
330
A
100
AcDbSymbolTableRecord
100
AcDbDimStyleTableRecord
  2
Default - Fraction (ANSI)
 70
     0
 40
11.0
 41
0.0984251946210861
 43
0.2362204724409449
 44
0.125
 45
0.00000001
 46
0.3937007874015748
 79
     3
140
0.1200000047683716
147
0.031496062992126
171
     1
176
   256
177
   256
178
   256
272
     2
274
     1
276
     2
277
     5
284
    12
285
     4
286
    12
340
D6
371
    -1
372
    -1
  0
DIMSTYLE
105
F1
330
A
100
AcDbSymbolTableRecord
100
AcDbDimStyleTableRecord
  2
Default - Fraction (ANSI)$7
 70
     0
 40
11.0
 41
0.0984251946210861
 43
0.2362204724409449
 44
0.125
 45
0.00000001
 46
0.3937007874015748
 79
     3
140
0.1200000047683716
147
0.031496062992126
171
     1
176
   256
177
   256
178
   256
272
     2
274
     1
276
     2
277
     5
284
    12
285
     4
286
    12
340
D6
371
    -1
372
    -1
  0
DIMSTYLE
105
F2
330
A
100
AcDbSymbolTableRecord
100
AcDbDimStyleTableRecord
  2
Default - mm (ANSI)
 70
     0
 40
11.0
 41
0.0984251946210861
 42
0.063
 43
0.2362204724409449
 44
0.125
 45
0.00000001
 46
0.3937007874015748
 73
     0
 78
     4
 79
     1
140
0.1200000047683716
143
1.0
144
25.4
147
0.031496062992126
171
     1
176
   256
177
   256
178
   256
179
     1
271
     2
272
     2
274
     1
284
     4
285
     4
340
D6
371
    -1
372
    -1
  0
DIMSTYLE
105
F3
330
A
100
AcDbSymbolTableRecord
100
AcDbDimStyleTableRecord
  2
Default - mm (ANSI)$7
 70
     0
 40
11.0
 41
0.0984251946210861
 42
0.063
 43
0.2362204724409449
 44
0.125
 45
0.00000001
 46
0.3937007874015748
 73
     0
 78
     4
 79
     1
140
0.1200000047683716
143
1.0
144
25.4
147
0.031496062992126
171
     1
176
   256
177
   256
178
   256
179
     1
271
     2
272
     2
274
     1
284
     4
285
     4
340
D6
371
    -1
372
    -1
  0
DIMSTYLE
105
F4
330
A
100
AcDbSymbolTableRecord
100
AcDbDimStyleTableRecord
  2
Default - mm [in] (ANSI)
 70
     0
  4
 in
 40
11.0
 41
0.0984251946210861
 42
0.063
 43
0.25
 44
0.125
 45
0.00000001
 46
0.3937007874015748
 73
     0
 78
     4
 79
     1
140
0.1200000047683716
143
0.03937
144
25.4
147
0.031496062992126
170
     1
171
     3
176
   256
177
   256
178
   256
179
     1
271
     2
272
     2
274
     3
284
     4
285
     4
286
     4
340
D6
371
    -1
372
    -1
  0
DIMSTYLE
105
F5
330
A
100
AcDbSymbolTableRecord
100
AcDbDimStyleTableRecord
  2
Default - mm [in] (ANSI)$7
 70
     0
  4
 in
 40
11.0
 41
0.0984251946210861
 42
0.063
 43
0.25
 44
0.125
 45
0.00000001
 46
0.3937007874015748
 73
     0
 78
     4
 79
     1
140
0.1200000047683716
143
0.03937
144
25.4
147
0.031496062992126
170
     1
171
     3
176
   256
177
   256
178
   256
179
     1
271
     2
272
     2
274
     3
284
     4
285
     4
286
     4
340
D6
371
    -1
372
    -1
  0
DIMSTYLE
105
F6
102
{ACAD_REACTORS
330
2ED
330
3D9
330
4C9
330
5B3
330
69D
330
787
330
871
330
AB3
330
B84
330
C84
102
}
330
A
100
AcDbSymbolTableRecord
100
AcDbDimStyleTableRecord
  2
Default (ANSI)
 70
     0
 40
11.0
 41
0.0984251946210861
 43
0.2362204724409449
 44
0.125
 45
0.00000001
 46
0.3937007874015748
 79
     1
140
0.1200000047683716
147
0.031496062992126
171
     1
176
   256
177
   256
178
   256
271
     2
272
     2
274
     1
284
     4
285
     4
340
D6
371
    -1
372
    -1
  0
DIMSTYLE
105
F7
330
A
100
AcDbSymbolTableRecord
100
AcDbDimStyleTableRecord
  2
Default (ANSI)$7
 70
     0
 40
11.0
 41
0.0984251946210861
 43
0.2362204724409449
 44
0.125
 45
0.00000001
 46
0.3937007874015748
 79
     1
140
0.1200000047683716
147
0.031496062992126
171
     1
176
   256
177
   256
178
   256
271
     2
272
     2
274
     1
284
     4
285
     4
340
D6
371
    -1
372
    -1
  0
DIMSTYLE
105
F8
330
A
100
AcDbSymbolTableRecord
100
AcDbDimStyleTableRecord
  2
Alternate (ANSI)
 70
     0
 40
11.0
 41
0.0979999974370003
340
55
342
F9
  0
DIMSTYLE
105
10B
330
A
100
AcDbSymbolTableRecord
100
AcDbDimStyleTableRecord
  2
Datum (ANSI)
 70
     0
 40
11.0
 41
0.0979999974370003
340
55
342
F9
  0
DIMSTYLE
105
11A
330
A
100
AcDbSymbolTableRecord
100
AcDbDimStyleTableRecord
  2
Large (ANSI)
 70
     0
 40
11.0
 41
0.1959999948740005
340
55
342
F9
  0
ENDTAB
  0
TABLE
  2
BLOCK_RECORD
  5
1
330
0
100
AcDbSymbolTable
 70
    14
  0
BLOCK_RECORD
  5
6C
330
1
100
AcDbSymbolTableRecord
100
AcDbBlockTableRecord
  2
*Model_Space
340
6F
 70
     0
280
     1
281
     0
  0
BLOCK_RECORD
  5
68
330
1
100
AcDbSymbolTableRecord
100
AcDbBlockTableRecord
  2
*Paper_Space
340
6B
 70
     0
280
     1
281
     0
  0
BLOCK_RECORD
  5
70
330
1
100
AcDbSymbolTableRecord
100
AcDbBlockTableRecord
  2
*Paper_Space0
340
73
 70
     0
280
     1
281
     0
  0
BLOCK_RECORD
  5
F9
330
1
100
AcDbSymbolTableRecord
100
AcDbBlockTableRecord
  2
_Closed
340
0
 70
     0
280
     1
281
     0
  0
BLOCK_RECORD
  5
100
330
1
100
AcDbSymbolTableRecord
100
AcDbBlockTableRecord
  2
DatumFilled45
340
0
 70
     0
280
     1
281
     0
  0
BLOCK_RECORD
  5
10C
330
1
100
AcDbSymbolTableRecord
100
AcDbBlockTableRecord
  2
Filled-1
340
0
 70
     0
280
     1
281
     0
  0
BLOCK_RECORD
  5
2F0
330
1
100
AcDbSymbolTableRecord
100
AcDbBlockTableRecord
  2
*D4
340
0
 70
     0
280
     1
281
     0
  0
BLOCK_RECORD
  5
3DA
330
1
100
AcDbSymbolTableRecord
100
AcDbBlockTableRecord
  2
*D5
340
0
 70
     0
280
     1
281
     0
  0
BLOCK_RECORD
  5
4CA
330
1
100
AcDbSymbolTableRecord
100
AcDbBlockTableRecord
  2
*D6
340
0
 70
     0
280
     1
281
     0
  0
BLOCK_RECORD
  5
5B4
330
1
100
AcDbSymbolTableRecord
100
AcDbBlockTableRecord
  2
*D7
340
0
 70
     0
280
     1
281
     0
  0
BLOCK_RECORD
  5
69E
330
1
100
AcDbSymbolTableRecord
100
AcDbBlockTableRecord
  2
*D8
340
0
 70
     0
280
     1
281
     0
  0
BLOCK_RECORD
  5
788
330
1
100
AcDbSymbolTableRecord
100
AcDbBlockTableRecord
  2
*D9
340
0
 70
     0
280
     1
281
     0
  0
BLOCK_RECORD
  5
872
330
1
100
AcDbSymbolTableRecord
100
AcDbBlockTableRecord
  2
*D10
340
0
 70
     0
280
     1
281
     0
  0
BLOCK_RECORD
  5
AB4
330
1
100
AcDbSymbolTableRecord
100
AcDbBlockTableRecord
  2
*D11
340
0
 70
     0
280
     1
281
     0
  0
BLOCK_RECORD
  5
B85
330
1
100
AcDbSymbolTableRecord
100
AcDbBlockTableRecord
  2
*D12
340
0
 70
     0
280
     1
281
     0
  0
BLOCK_RECORD
  5
C85
330
1
100
AcDbSymbolTableRecord
100
AcDbBlockTableRecord
  2
*D13
340
0
 70
     0
280
     1
281
     0
  0
ENDTAB
  0
ENDSEC
  0
SECTION
  2
BLOCKS
  0
BLOCK
  5
6D
330
6C
100
AcDbEntity
  8
0
100
AcDbBlockBegin
  2
*Model_Space
 70
     0
 10
0.0
 20
0.0
 30
0.0
  3
*Model_Space
  1

  0
ENDBLK
  5
6E
330
6C
100
AcDbEntity
  8
0
100
AcDbBlockEnd
  0
BLOCK
  5
69
330
68
100
AcDbEntity
 67
     1
  8
0
100
AcDbBlockBegin
  2
*Paper_Space
 70
     0
 10
0.0
 20
0.0
 30
0.0
  3
*Paper_Space
  1

  0
ENDBLK
  5
6A
330
68
100
AcDbEntity
 67
     1
  8
0
100
AcDbBlockEnd
  0
BLOCK
  5
71
330
70
100
AcDbEntity
 67
     1
  8
0
100
AcDbBlockBegin
  2
*Paper_Space0
 70
     0
 10
0.0
 20
0.0
 30
0.0
  3
*Paper_Space0
  1

  0
ENDBLK
  5
72
330
70
100
AcDbEntity
 67
     1
  8
0
100
AcDbBlockEnd
  0
BLOCK
  5
FE
330
F9
100
AcDbEntity
  8
0
100
AcDbBlockBegin
  2
_Closed
 70
     0
 10
0.0
 20
0.0
 30
0.0
  3
_Closed
  1

  0
LINE
  5
FA
330
F9
100
AcDbEntity
  8
0
  6
ByBlock
 62
     0
370
    -2
100
AcDbLine
 10
-1.0
 20
0.1666666666666666
 30
0.0
 11
0.0
 21
0.0
 31
0.0
  0
LINE
  5
FB
330
F9
100
AcDbEntity
  8
0
  6
ByBlock
 62
     0
370
    -2
100
AcDbLine
 10
0.0
 20
0.0
 30
0.0
 11
-1.0
 21
-0.1666666666666666
 31
0.0
  0
LINE
  5
FC
330
F9
100
AcDbEntity
  8
0
  6
ByBlock
 62
     0
370
    -2
100
AcDbLine
 10
-1.0
 20
0.1666666666666666
 30
0.0
 11
-1.0
 21
-0.1666666666666666
 31
0.0
  0
LINE
  5
FD
330
F9
100
AcDbEntity
  8
0
  6
ByBlock
 62
     0
370
    -2
100
AcDbLine
 10
0.0
 20
0.0
 30
0.0
 11
-1.0
 21
0.0
 31
0.0
  0
ENDBLK
  5
FF
330
F9
100
AcDbEntity
  8
0
100
AcDbBlockEnd
  0
BLOCK
  5
101
330
100
100
AcDbEntity
  8
0
100
AcDbBlockBegin
  2
DatumFilled45
 70
     0
 10
0.0
 20
0.0
 30
0.0
  3
DatumFilled45
  1

  0
POLYLINE
  5
103
330
100
100
AcDbEntity
  8
0
 62
     0
100
AcDb2dPolyline
 66
     1
 10
0.0
 20
0.0
 30
0.0
 70
   128
  0
VERTEX
  5
104
330
103
100
AcDbEntity
  8
0
 62
     0
100
AcDbVertex
100
AcDb2dVertex
 10
0.0
 20
0.9999999999999998
 30
0.0
  0
VERTEX
  5
105
330
103
100
AcDbEntity
  8
0
 62
     0
100
AcDbVertex
100
AcDb2dVertex
 10
0.0
 20
-0.9999999999999998
 30
0.0
  0
VERTEX
  5
107
330
103
100
AcDbEntity
  8
0
 62
     0
100
AcDbVertex
100
AcDb2dVertex
 10
-0.9999999999999998
 20
0.0
 30
0.0
  0
VERTEX
  5
108
330
103
100
AcDbEntity
  8
0
 62
     0
100
AcDbVertex
100
AcDb2dVertex
 10
0.0
 20
0.9999999999999998
 30
0.0
  0
SEQEND
  5
106
330
103
100
AcDbEntity
  8
0
 62
     0
  0
SOLID
  5
10A
330
100
100
AcDbEntity
  8
0
 62
     0
100
AcDbTrace
 10
0.0
 20
0.9999999999999998
 30
0.0
 11
0.0
 21
-0.9999999999999998
 31
0.0
 12
-0.9999999999999998
 22
0.0
 32
0.0
 13
0.0
 23
0.9999999999999998
 33
0.0
  0
ENDBLK
  5
102
330
100
100
AcDbEntity
  8
0
100
AcDbBlockEnd
  0
BLOCK
  5
10D
330
10C
100
AcDbEntity
  8
0
100
AcDbBlockBegin
  2
Filled-1
 70
     0
 10
0.0
 20
0.0
 30
0.0
  3
Filled-1
  1

  0
LINE
  5
10F
330
10C
100
AcDbEntity
  8
0
 62
     0
100
AcDbLine
 10
-0.9999999999999998
 20
0.0
 30
0.0
 11
0.0
 21
0.0
 31
0.0
  0
POLYLINE
  5
110
330
10C
100
AcDbEntity
  8
0
 62
     0
100
AcDb2dPolyline
 66
     1
 10
0.0
 20
0.0
 30
0.0
 70
   128
  0
VERTEX
  5
111
330
110
100
AcDbEntity
  8
0
 62
     0
100
AcDbVertex
100
AcDb2dVertex
 10
-0.9999999999999998
 20
-0.0994897959183674
 30
0.0
  0
VERTEX
  5
112
330
110
100
AcDbEntity
  8
0
 62
     0
100
AcDbVertex
100
AcDb2dVertex
 10
0.0
 20
0.0
 30
0.0
  0
VERTEX
  5
114
330
110
100
AcDbEntity
  8
0
 62
     0
100
AcDbVertex
100
AcDb2dVertex
 10
-0.9999999999999998
 20
0.0994897959183674
 30
0.0
  0
VERTEX
  5
115
330
110
100
AcDbEntity
  8
0
 62
     0
100
AcDbVertex
100
AcDb2dVertex
 10
-0.9999999999999998
 20
-0.0994897959183674
 30
0.0
  0
SEQEND
  5
113
330
110
100
AcDbEntity
  8
0
 62
     0
  0
SOLID
  5
116
330
10C
100
AcDbEntity
  8
0
 62
     0
100
AcDbTrace
 10
-0.9999999999999998
 20
-0.0994897959183674
 30
0.0
 11
0.0
 21
0.0
 31
0.0
 12
-0.9999999999999998
 22
0.0994897959183674
 32
0.0
 13
-0.9999999999999998
 23
-0.0994897959183674
 33
0.0
  0
LINE
  5
117
330
10C
100
AcDbEntity
  8
0
 62
     0
100
AcDbLine
 10
-0.9999999999999998
 20
-0.0994897959183674
 30
0.0
 11
0.0
 21
0.0
 31
0.0
  0
LINE
  5
118
330
10C
100
AcDbEntity
  8
0
 62
     0
100
AcDbLine
 10
0.0
 20
0.0
 30
0.0
 11
-0.9999999999999998
 21
0.0994897959183674
 31
0.0
  0
LINE
  5
119
330
10C
100
AcDbEntity
  8
0
 62
     0
100
AcDbLine
 10
-0.9999999999999998
 20
0.0994897959183674
 30
0.0
 11
-0.9999999999999998
 21
-0.0994897959183674
 31
0.0
  0
ENDBLK
  5
10E
330
10C
100
AcDbEntity
  8
0
100
AcDbBlockEnd
  0
BLOCK
  5
2F1
330
2F0
100
AcDbEntity
  8
0
100
AcDbBlockBegin
  2
*D4
 70
     1
 10
0.0
 20
0.0
 30
0.0
  3
*D4
  1

  0
LINE
  5
3CF
330
2F0
100
AcDbEntity
  8
Dimension (ANSI)
440
 16777216
100
AcDbLine
 10
33.77259449657911
 20
41.25247706687757
 30
0.0
 11
14.10249580143102
 21
41.25247706687757
 31
0.0
  0
LINE
  5
3D0
330
2F0
100
AcDbEntity
  8
Dimension (ANSI)
440
 16777216
100
AcDbLine
 10
33.77259449657911
 20
79.25247706687757
 30
0.0
 11
14.10249580143103
 21
79.25247706687759
 31
0.0
  0
LINE
  5
3D1
330
2F0
100
AcDbEntity
  8
Dimension (ANSI)
440
 16777216
100
AcDbLine
 10
15.47749580143102
 20
42.33515420770951
 30
0.0
 11
15.47749580143102
 21
59.2158793167483
 31
0.0
  0
LINE
  5
3D2
330
2F0
100
AcDbEntity
  8
Dimension (ANSI)
440
 16777216
100
AcDbLine
 10
15.47749580143103
 20
78.16979992604564
 30
0.0
 11
15.47749580143102
 21
61.28907481700683
 31
0.0
  0
SOLID
  5
3D3
330
2F0
100
AcDbEntity
  8
Dimension (ANSI)
440
 16777216
100
AcDbTrace
 10
15.29704961129236
 20
42.33515420770951
 30
0.0
 11
15.65794199156967
 21
42.33515420770951
 31
0.0
 12
15.47749580143102
 22
41.25247706687757
 32
0.0
 13
15.47749580143102
 23
41.25247706687757
 33
0.0
  0
SOLID
  5
3D4
330
2F0
100
AcDbEntity
  8
Dimension (ANSI)
440
 16777216
100
AcDbTrace
 10
15.29704961129237
 20
78.16979992604564
 30
0.0
 11
15.65794199156968
 21
78.16979992604564
 31
0.0
 12
15.47749580143103
 22
79.25247706687759
 32
0.0
 13
15.47749580143103
 23
79.25247706687759
 33
0.0
  0
MTEXT
  5
3D5
330
2F0
100
AcDbEntity
  8
Dimension (ANSI)
440
 16777216
100
AcDbMText
 10
13.30024925483859
 20
60.94261812409345
 30
0.0
 40
1.320000052452087
 41
0.0
 46
0.0
 71
     1
 72
     1
  1
\A1;38.00
  7
Note Text (ANSI)
 73
     1
 44
1.0
  0
POINT
  5
3D6
330
2F0
100
AcDbEntity
  8
Defpoints
 62
     0
440
 16777216
100
AcDbPoint
 10
34.46009449657911
 20
41.25247706687757
 30
0.0
  0
POINT
  5
3D7
330
2F0
100
AcDbEntity
  8
Defpoints
 62
     0
440
 16777216
100
AcDbPoint
 10
34.46009449657911
 20
79.25247706687757
 30
0.0
  0
POINT
  5
3D8
330
2F0
100
AcDbEntity
  8
Defpoints
 62
     0
440
 16777216
100
AcDbPoint
 10
15.47749580143103
 20
79.25247706687759
 30
0.0
  0
ENDBLK
  5
2F2
330
2F0
100
AcDbEntity
  8
0
100
AcDbBlockEnd
  0
BLOCK
  5
3DB
330
3DA
100
AcDbEntity
  8
0
100
AcDbBlockBegin
  2
*D5
 70
     1
 10
0.0
 20
0.0
 30
0.0
  3
*D5
  1

  0
LINE
  5
4BF
330
3DA
100
AcDbEntity
  8
Dimension (ANSI)
440
 16777216
100
AcDbLine
 10
34.43420614893078
 20
42.12747706687756
 30
0.0
 11
28.54697056315448
 21
42.12747706687756
 31
0.0
  0
LINE
  5
4C0
330
3DA
100
AcDbEntity
  8
Dimension (ANSI)
440
 16777216
100
AcDbLine
 10
34.43420614893078
 20
60.25247706687756
 30
0.0
 11
28.54697056315448
 21
60.25247706687756
 31
0.0
  0
LINE
  5
4C1
330
3DA
100
AcDbEntity
  8
Dimension (ANSI)
440
 16777216
100
AcDbLine
 10
29.92197056315447
 20
43.2101542077095
 30
0.0
 11
29.92197056315447
 21
50.15337931674828
 31
0.0
  0
LINE
  5
4C2
330
3DA
100
AcDbEntity
  8
Dimension (ANSI)
440
 16777216
100
AcDbLine
 10
29.92197056315448
 20
59.16979992604561
 30
0.0
 11
29.92197056315447
 21
52.22657481700682
 31
0.0
  0
SOLID
  5
4C3
330
3DA
100
AcDbEntity
  8
Dimension (ANSI)
440
 16777216
100
AcDbTrace
 10
29.74152437301582
 20
43.2101542077095
 30
0.0
 11
30.10241675329313
 21
43.2101542077095
 31
0.0
 12
29.92197056315447
 22
42.12747706687756
 32
0.0
 13
29.92197056315447
 23
42.12747706687756
 33
0.0
  0
SOLID
  5
4C4
330
3DA
100
AcDbEntity
  8
Dimension (ANSI)
440
 16777216
100
AcDbTrace
 10
29.74152437301582
 20
59.16979992604561
 30
0.0
 11
30.10241675329313
 21
59.16979992604561
 31
0.0
 12
29.92197056315448
 22
60.25247706687756
 32
0.0
 13
29.92197056315448
 23
60.25247706687756
 33
0.0
  0
MTEXT
  5
4C5
330
3DA
100
AcDbEntity
  8
Dimension (ANSI)
440
 16777216
100
AcDbMText
 10
27.81653060054983
 20
51.88011812409344
 30
0.0
 40
1.320000052452087
 41
0.0
 46
0.0
 71
     1
 72
     1
  1
\A1;18.13
  7
Note Text (ANSI)
 73
     1
 44
1.0
  0
POINT
  5
4C6
330
3DA
100
AcDbEntity
  8
Defpoints
 62
     0
440
 16777216
100
AcDbPoint
 10
35.12170614893078
 20
42.12747706687756
 30
0.0
  0
POINT
  5
4C7
330
3DA
100
AcDbEntity
  8
Defpoints
 62
     0
440
 16777216
100
AcDbPoint
 10
35.12170614893078
 20
60.25247706687756
 30
0.0
  0
POINT
  5
4C8
330
3DA
100
AcDbEntity
  8
Defpoints
 62
     0
440
 16777216
100
AcDbPoint
 10
29.92197056315448
 20
60.25247706687756
 30
0.0
  0
ENDBLK
  5
3DC
330
3DA
100
AcDbEntity
  8
0
100
AcDbBlockEnd
  0
BLOCK
  5
4CB
330
4CA
100
AcDbEntity
  8
0
100
AcDbBlockBegin
  2
*D6
 70
     1
 10
0.0
 20
0.0
 30
0.0
  3
*D6
  1

  0
LINE
  5
5A9
330
4CA
100
AcDbEntity
  8
Dimension (ANSI)
440
 16777216
100
AcDbLine
 10
34.43420614893078
 20
42.12747706687756
 30
0.0
 11
21.62072189696229
 21
42.12747706687756
 31
0.0
  0
LINE
  5
5AA
330
4CA
100
AcDbEntity
  8
Dimension (ANSI)
440
 16777216
100
AcDbLine
 10
34.43420614893078
 20
78.37747706687756
 30
0.0
 11
21.6207218969623
 21
78.37747706687757
 31
0.0
  0
LINE
  5
5AB
330
4CA
100
AcDbEntity
  8
Dimension (ANSI)
440
 16777216
100
AcDbLine
 10
22.99572189696229
 20
43.2101542077095
 30
0.0
 11
22.99572189696229
 21
59.21853881985895
 31
0.0
  0
LINE
  5
5AC
330
4CA
100
AcDbEntity
  8
Dimension (ANSI)
440
 16777216
100
AcDbLine
 10
22.9957218969623
 20
77.29479992604563
 30
0.0
 11
22.99572189696229
 21
61.28641531389615
 31
0.0
  0
SOLID
  5
5AD
330
4CA
100
AcDbEntity
  8
Dimension (ANSI)
440
 16777216
100
AcDbTrace
 10
22.81527570682364
 20
43.2101542077095
 30
0.0
 11
23.17616808710095
 21
43.2101542077095
 31
0.0
 12
22.99572189696229
 22
42.12747706687756
 32
0.0
 13
22.99572189696229
 23
42.12747706687756
 33
0.0
  0
SOLID
  5
5AE
330
4CA
100
AcDbEntity
  8
Dimension (ANSI)
440
 16777216
100
AcDbTrace
 10
22.81527570682364
 20
77.29479992604563
 30
0.0
 11
23.17616808710095
 21
77.29479992604563
 31
0.0
 12
22.9957218969623
 22
78.37747706687757
 32
0.0
 13
22.9957218969623
 23
78.37747706687757
 33
0.0
  0
MTEXT
  5
5AF
330
4CA
100
AcDbEntity
  8
Dimension (ANSI)
440
 16777216
100
AcDbMText
 10
20.8291133628125
 20
60.93995862098278
 30
0.0
 40
1.320000052452087
 41
0.0
 46
0.0
 71
     1
 72
     1
  1
\A1;36.25
  7
Note Text (ANSI)
 73
     1
 44
1.0
  0
POINT
  5
5B0
330
4CA
100
AcDbEntity
  8
Defpoints
 62
     0
440
 16777216
100
AcDbPoint
 10
35.12170614893078
 20
42.12747706687756
 30
0.0
  0
POINT
  5
5B1
330
4CA
100
AcDbEntity
  8
Defpoints
 62
     0
440
 16777216
100
AcDbPoint
 10
35.12170614893078
 20
78.37747706687756
 30
0.0
  0
POINT
  5
5B2
330
4CA
100
AcDbEntity
  8
Defpoints
 62
     0
440
 16777216
100
AcDbPoint
 10
22.9957218969623
 20
78.37747706687757
 30
0.0
  0
ENDBLK
  5
4CC
330
4CA
100
AcDbEntity
  8
0
100
AcDbBlockEnd
  0
BLOCK
  5
5B5
330
5B4
100
AcDbEntity
  8
0
100
AcDbBlockBegin
  2
*D7
 70
     1
 10
0.0
 20
0.0
 30
0.0
  3
*D7
  1

  0
LINE
  5
693
330
5B4
100
AcDbEntity
  8
Dimension (ANSI)
440
 16777216
100
AcDbLine
 10
34.24670614893079
 20
79.72658871922924
 30
0.0
 11
34.24670614893079
 21
92.54007297119775
 31
0.0
  0
LINE
  5
694
330
5B4
100
AcDbEntity
  8
Dimension (ANSI)
440
 16777216
100
AcDbLine
 10
90.24670614893079
 20
79.72658871922924
 30
0.0
 11
90.24670614893079
 21
92.54007297119775
 31
0.0
  0
LINE
  5
695
330
5B4
100
AcDbEntity
  8
Dimension (ANSI)
440
 16777216
100
AcDbLine
 10
35.32938328976273
 20
91.16507297119774
 30
0.0
 11
59.73497067342294
 21
91.16507297119774
 31
0.0
  0
LINE
  5
696
330
5B4
100
AcDbEntity
  8
Dimension (ANSI)
440
 16777216
100
AcDbLine
 10
89.16402900809883
 20
91.16507297119774
 30
0.0
 11
64.75844162443863
 21
91.16507297119774
 31
0.0
  0
SOLID
  5
697
330
5B4
100
AcDbEntity
  8
Dimension (ANSI)
440
 16777216
100
AcDbTrace
 10
35.32938328976273
 20
91.3455191613364
 30
0.0
 11
35.32938328976273
 21
90.98462678105908
 31
0.0
 12
34.24670614893079
 22
91.16507297119774
 32
0.0
 13
34.24670614893079
 23
91.16507297119774
 33
0.0
  0
SOLID
  5
698
330
5B4
100
AcDbEntity
  8
Dimension (ANSI)
440
 16777216
100
AcDbTrace
 10
89.16402900809883
 20
91.3455191613364
 30
0.0
 11
89.16402900809883
 21
90.98462678105908
 31
0.0
 12
90.24670614893079
 22
91.16507297119774
 32
0.0
 13
90.24670614893079
 23
91.16507297119774
 33
0.0
  0
MTEXT
  5
699
330
5B4
100
AcDbEntity
  8
Dimension (ANSI)
440
 16777216
100
AcDbMText
 10
60.08142736633633
 20
91.85211127478451
 30
0.0
 40
1.320000052452087
 41
0.0
 46
0.0
 71
     1
 72
     1
  1
\A1;56.00
  7
Note Text (ANSI)
 73
     1
 44
1.0
  0
POINT
  5
69A
330
5B4
100
AcDbEntity
  8
Defpoints
 62
     0
440
 16777216
100
AcDbPoint
 10
34.24670614893079
 20
79.03908871922924
 30
0.0
  0
POINT
  5
69B
330
5B4
100
AcDbEntity
  8
Defpoints
 62
     0
440
 16777216
100
AcDbPoint
 10
90.24670614893079
 20
79.03908871922924
 30
0.0
  0
POINT
  5
69C
330
5B4
100
AcDbEntity
  8
Defpoints
 62
     0
440
 16777216
100
AcDbPoint
 10
90.24670614893079
 20
91.16507297119774
 30
0.0
  0
ENDBLK
  5
5B6
330
5B4
100
AcDbEntity
  8
0
100
AcDbBlockEnd
  0
BLOCK
  5
69F
330
69E
100
AcDbEntity
  8
0
100
AcDbBlockBegin
  2
*D8
 70
     1
 10
0.0
 20
0.0
 30
0.0
  3
*D8
  1

  0
LINE
  5
77D
330
69E
100
AcDbEntity
  8
Dimension (ANSI)
440
 16777216
100
AcDbLine
 10
35.12170614893078
 20
79.06497706687756
 30
0.0
 11
35.12170614893078
 21
88.30016241283376
 31
0.0
  0
LINE
  5
77E
330
69E
100
AcDbEntity
  8
Dimension (ANSI)
440
 16777216
100
AcDbLine
 10
89.37170614893078
 20
79.06497706687756
 30
0.0
 11
89.37170614893078
 21
88.30016241283376
 31
0.0
  0
LINE
  5
77F
330
69E
100
AcDbEntity
  8
Dimension (ANSI)
440
 16777216
100
AcDbLine
 10
36.20438328976273
 20
86.92516241283376
 30
0.0
 11
59.74560868586557
 21
86.92516241283376
 31
0.0
  0
LINE
  5
780
330
69E
100
AcDbEntity
  8
Dimension (ANSI)
440
 16777216
100
AcDbLine
 10
88.28902900809884
 20
86.92516241283376
 30
0.0
 11
64.74780361199599
 21
86.92516241283376
 31
0.0
  0
SOLID
  5
781
330
69E
100
AcDbEntity
  8
Dimension (ANSI)
440
 16777216
100
AcDbTrace
 10
36.20438328976273
 20
87.1056086029724
 30
0.0
 11
36.20438328976273
 21
86.74471622269511
 31
0.0
 12
35.12170614893078
 22
86.92516241283376
 32
0.0
 13
35.12170614893078
 23
86.92516241283376
 33
0.0
  0
SOLID
  5
782
330
69E
100
AcDbEntity
  8
Dimension (ANSI)
440
 16777216
100
AcDbTrace
 10
88.28902900809884
 20
87.1056086029724
 30
0.0
 11
88.28902900809884
 21
86.74471622269511
 31
0.0
 12
89.37170614893078
 22
86.92516241283376
 32
0.0
 13
89.37170614893078
 23
86.92516241283376
 33
0.0
  0
MTEXT
  5
783
330
69E
100
AcDbEntity
  8
Dimension (ANSI)
440
 16777216
100
AcDbMText
 10
60.09206537877895
 20
87.61264396693897
 30
0.0
 40
1.320000052452087
 41
0.0
 46
0.0
 71
     1
 72
     1
  1
\A1;54.25
  7
Note Text (ANSI)
 73
     1
 44
1.0
  0
POINT
  5
784
330
69E
100
AcDbEntity
  8
Defpoints
 62
     0
440
 16777216
100
AcDbPoint
 10
35.12170614893078
 20
78.37747706687756
 30
0.0
  0
POINT
  5
785
330
69E
100
AcDbEntity
  8
Defpoints
 62
     0
440
 16777216
100
AcDbPoint
 10
89.37170614893078
 20
78.37747706687756
 30
0.0
  0
POINT
  5
786
330
69E
100
AcDbEntity
  8
Defpoints
 62
     0
440
 16777216
100
AcDbPoint
 10
89.37170614893078
 20
86.92516241283376
 30
0.0
  0
ENDBLK
  5
6A0
330
69E
100
AcDbEntity
  8
0
100
AcDbBlockEnd
  0
BLOCK
  5
789
330
788
100
AcDbEntity
  8
0
100
AcDbBlockBegin
  2
*D9
 70
     1
 10
0.0
 20
0.0
 30
0.0
  3
*D9
  1

  0
LINE
  5
867
330
788
100
AcDbEntity
  8
Dimension (ANSI)
440
 16777216
100
AcDbLine
 10
35.12170614893078
 20
79.06497706687756
 30
0.0
 11
35.12170614893078
 21
84.0831857282949
 31
0.0
  0
LINE
  5
868
330
788
100
AcDbEntity
  8
Dimension (ANSI)
440
 16777216
100
AcDbLine
 10
62.24670614893078
 20
79.06497706687756
 30
0.0
 11
62.24670614893078
 21
84.0831857282949
 31
0.0
  0
LINE
  5
869
330
788
100
AcDbEntity
  8
Dimension (ANSI)
440
 16777216
100
AcDbLine
 10
36.20438328976273
 20
82.70818572829488
 30
0.0
 11
46.18044918275492
 21
82.70818572829488
 31
0.0
  0
LINE
  5
86A
330
788
100
AcDbEntity
  8
Dimension (ANSI)
440
 16777216
100
AcDbLine
 10
61.16402900809884
 20
82.70818572829488
 30
0.0
 11
51.18796311510666
 21
82.70818572829488
 31
0.0
  0
SOLID
  5
86B
330
788
100
AcDbEntity
  8
Dimension (ANSI)
440
 16777216
100
AcDbTrace
 10
36.20438328976273
 20
82.88863191843354
 30
0.0
 11
36.20438328976273
 21
82.52773953815625
 31
0.0
 12
35.12170614893078
 22
82.70818572829488
 32
0.0
 13
35.12170614893078
 23
82.70818572829488
 33
0.0
  0
SOLID
  5
86C
330
788
100
AcDbEntity
  8
Dimension (ANSI)
440
 16777216
100
AcDbTrace
 10
61.16402900809884
 20
82.88863191843354
 30
0.0
 11
61.16402900809884
 21
82.52773953815625
 31
0.0
 12
62.24670614893078
 22
82.70818572829488
 32
0.0
 13
62.24670614893078
 23
82.70818572829488
 33
0.0
  0
MTEXT
  5
86D
330
788
100
AcDbEntity
  8
Dimension (ANSI)
440
 16777216
100
AcDbMText
 10
46.5269058756683
 20
83.39566728240011
 30
0.0
 40
1.320000052452087
 41
0.0
 46
0.0
 71
     1
 72
     1
  1
\A1;27.13
  7
Note Text (ANSI)
 73
     1
 44
1.0
  0
POINT
  5
86E
330
788
100
AcDbEntity
  8
Defpoints
 62
     0
440
 16777216
100
AcDbPoint
 10
35.12170614893078
 20
78.37747706687756
 30
0.0
  0
POINT
  5
86F
330
788
100
AcDbEntity
  8
Defpoints
 62
     0
440
 16777216
100
AcDbPoint
 10
62.24670614893078
 20
78.37747706687756
 30
0.0
  0
POINT
  5
870
330
788
100
AcDbEntity
  8
Defpoints
 62
     0
440
 16777216
100
AcDbPoint
 10
62.24670614893078
 20
82.70818572829488
 30
0.0
  0
ENDBLK
  5
78A
330
788
100
AcDbEntity
  8
0
100
AcDbBlockEnd
  0
BLOCK
  5
873
330
872
100
AcDbEntity
  8
0
100
AcDbBlockBegin
  2
*D10
 70
     1
 10
0.0
 20
0.0
 30
0.0
  3
*D10
  1

  0
LINE
  5
965
330
872
100
AcDbEntity
  8
Dimension (ANSI)
440
 16777216
100
AcDbLine
 10
125.3333575491141
 20
79.78372706687757
 30
0.0
 11
125.3333575491141
 21
83.77708336609014
 31
0.0
  0
LINE
  5
966
330
872
100
AcDbEntity
  8
Dimension (ANSI)
440
 16777216
100
AcDbLine
 10
126.2083575491141
 20
79.93997706687757
 30
0.0
 11
126.2083575491141
 21
83.77708336609014
 31
0.0
  0
LINE
  5
967
330
872
100
AcDbEntity
  8
Dimension (ANSI)
440
 16777216
100
AcDbLine
 10
127.291034689946
 20
82.40208336609013
 30
0.0
 11
128.3737118307779
 21
82.40208336609013
 31
0.0
  0
LINE
  5
968
330
872
100
AcDbEntity
  8
Dimension (ANSI)
440
 16777216
100
AcDbLine
 10
124.2506804082821
 20
82.40208336609013
 30
0.0
 11
122.5585567619704
 21
82.40208336609013
 31
0.0
  0
SOLID
  5
969
330
872
100
AcDbEntity
  8
Dimension (ANSI)
440
 16777216
100
AcDbTrace
 10
127.291034689946
 20
82.58252955622879
 30
0.0
 11
127.291034689946
 21
82.22163717595149
 31
0.0
 12
126.2083575491141
 22
82.40208336609013
 32
0.0
 13
126.2083575491141
 23
82.40208336609013
 33
0.0
  0
SOLID
  5
96A
330
872
100
AcDbEntity
  8
Dimension (ANSI)
440
 16777216
100
AcDbTrace
 10
124.2506804082821
 20
82.58252955622879
 30
0.0
 11
124.2506804082821
 21
82.22163717595149
 31
0.0
 12
125.3333575491141
 22
82.40208336609013
 32
0.0
 13
125.3333575491141
 23
82.40208336609013
 33
0.0
  0
MTEXT
  5
96B
330
872
100
AcDbEntity
  8
Dimension (ANSI)
440
 16777216
100
AcDbMText
 10
118.7246049899468
 20
83.28961865773958
 30
0.0
 40
1.320000052452087
 41
0.0
 46
0.0
 71
     1
 72
     1
  1
\A1;0.88{\PTYP.}
  7
Note Text (ANSI)
 73
     1
 44
1.0
  0
POINT
  5
96C
330
872
100
AcDbEntity
  8
Defpoints
 62
     0
440
 16777216
100
AcDbPoint
 10
125.3333575491141
 20
79.09622706687757
 30
0.0
  0
POINT
  5
96D
330
872
100
AcDbEntity
  8
Defpoints
 62
     0
440
 16777216
100
AcDbPoint
 10
126.2083575491141
 20
79.25247706687757
 30
0.0
  0
POINT
  5
96E
330
872
100
AcDbEntity
  8
Defpoints
 62
     0
440
 16777216
100
AcDbPoint
 10
126.2083575491141
 20
82.40208336609013
 30
0.0
  0
ENDBLK
  5
874
330
872
100
AcDbEntity
  8
0
100
AcDbBlockEnd
  0
BLOCK
  5
AB5
330
AB4
100
AcDbEntity
  8
0
100
AcDbBlockBegin
  2
*D11
 70
     1
 10
0.0
 20
0.0
 30
0.0
  3
*D11
  1

  0
LINE
  5
B66
330
AB4
100
AcDbEntity
  8
Dimension (ANSI)
440
 16777216
100
AcDbLine
 10
94.21311918758418
 20
68.31055657246981
 30
0.0
 11
92.80371644104713
 21
68.31055657246981
 31
0.0
  0
LINE
  5
B67
330
AB4
100
AcDbEntity
  8
Dimension (ANSI)
440
 16777216
100
AcDbLine
 10
92.80371644104713
 20
68.31055657246981
 30
0.0
 11
89.90625766426481
 21
61.50756031073935
 31
0.0
  0
MTEXT
  5
B68
330
AB4
100
AcDbEntity
  8
Dimension (ANSI)
440
 16777216
100
AcDbMText
 10
94.55957588049754
 20
69.30887063218623
 30
0.0
 40
1.320000052452087
 41
0.0
 46
0.0
 71
     1
 72
     1
  1
\A1;∅0.563{\P(8PL.)}
  7
Note Text (ANSI)
 73
     1
 44
1.0
  0
SOLID
  5
B69
330
AB4
100
AcDbEntity
  8
Dimension (ANSI)
440
 16777216
100
AcDbTrace
 10
89.74024184206475
 20
61.57826797874502
 30
0.0
 11
90.07227348646486
 21
61.43685264273368
 31
0.0
 12
89.48201165623078
 22
60.51146537753908
 32
0.0
 13
89.48201165623078
 23
60.51146537753908
 33
0.0
  0
LINE
  5
B6A
330
AB4
100
AcDbEntity
  8
Dimension (ANSI)
440
 16777216
100
AcDbLine
 10
88.38170614893078
 20
60.2524770668776
 30
0.0
 11
90.36170614893078
 21
60.25247706687758
 31
0.0
  0
LINE
  5
B6B
330
AB4
100
AcDbEntity
  8
Dimension (ANSI)
440
 16777216
100
AcDbLine
 10
89.3717061489308
 20
59.26247706687759
 30
0.0
 11
89.3717061489308
 21
61.24247706687759
 31
0.0
  0
POINT
  5
B6C
330
AB4
100
AcDbEntity
  8
Defpoints
 62
     0
440
 16777216
100
AcDbPoint
 10
89.48201165623078
 20
60.51146537753908
 30
0.0
  0
POINT
  5
B6D
330
AB4
100
AcDbEntity
  8
Defpoints
 62
     0
440
 16777216
100
AcDbPoint
 10
89.26140064163078
 20
59.9934887562161
 30
0.0
  0
ENDBLK
  5
AB6
330
AB4
100
AcDbEntity
  8
0
100
AcDbBlockEnd
  0
BLOCK
  5
B86
330
B85
100
AcDbEntity
  8
0
100
AcDbBlockBegin
  2
*D12
 70
     1
 10
0.0
 20
0.0
 30
0.0
  3
*D12
  1

  0
LINE
  5
C79
330
B85
100
AcDbEntity
  8
Dimension (ANSI)
440
 16777216
100
AcDbLine
 10
33.77259449657911
 20
41.25247706687757
 30
0.0
 11
31.65377590405695
 21
41.25247706687757
 31
0.0
  0
LINE
  5
C7A
330
B85
100
AcDbEntity
  8
Dimension (ANSI)
440
 16777216
100
AcDbLine
 10
32.77770614893079
 20
42.12747706687756
 30
0.0
 11
31.65377590405695
 21
42.12747706687756
 31
0.0
  0
LINE
  5
C7B
330
B85
100
AcDbEntity
  8
Dimension (ANSI)
440
 16777216
100
AcDbLine
 10
33.02877590405695
 20
43.2101542077095
 30
0.0
 11
33.02877590405695
 21
44.29283134854145
 31
0.0
  0
LINE
  5
C7C
330
B85
100
AcDbEntity
  8
Dimension (ANSI)
440
 16777216
100
AcDbLine
 10
33.02877590405695
 20
40.16979992604562
 30
0.0
 11
33.02877590405695
 21
38.09550274217403
 31
0.0
  0
LINE
  5
C7D
330
B85
100
AcDbEntity
  8
Dimension (ANSI)
440
 16777216
100
AcDbLine
 10
33.02877590405695
 20
38.09550274217403
 30
0.0
 11
31.946098763225
 21
38.09550274217403
 31
0.0
  0
SOLID
  5
C7E
330
B85
100
AcDbEntity
  8
Dimension (ANSI)
440
 16777216
100
AcDbTrace
 10
32.84832971391828
 20
43.2101542077095
 30
0.0
 11
33.2092220941956
 21
43.2101542077095
 31
0.0
 12
33.02877590405695
 22
42.12747706687756
 32
0.0
 13
33.02877590405695
 23
42.12747706687756
 33
0.0
  0
SOLID
  5
C7F
330
B85
100
AcDbEntity
  8
Dimension (ANSI)
440
 16777216
100
AcDbTrace
 10
32.84832971391828
 20
40.16979992604562
 30
0.0
 11
33.2092220941956
 21
40.16979992604562
 31
0.0
 12
33.02877590405695
 22
41.25247706687757
 32
0.0
 13
33.02877590405695
 23
41.25247706687757
 33
0.0
  0
MTEXT
  5
C80
330
B85
100
AcDbEntity
  8
Dimension (ANSI)
440
 16777216
100
AcDbMText
 10
28.21586761251711
 20
38.78564379938992
 30
0.0
 40
1.320000052452087
 41
0.0
 46
0.0
 71
     1
 72
     1
  1
\A1;0.88
  7
Note Text (ANSI)
 73
     1
 44
1.0
  0
POINT
  5
C81
330
B85
100
AcDbEntity
  8
Defpoints
 62
     0
440
 16777216
100
AcDbPoint
 10
34.46009449657911
 20
41.25247706687757
 30
0.0
  0
POINT
  5
C82
330
B85
100
AcDbEntity
  8
Defpoints
 62
     0
440
 16777216
100
AcDbPoint
 10
33.46520614893079
 20
42.12747706687756
 30
0.0
  0
POINT
  5
C83
330
B85
100
AcDbEntity
  8
Defpoints
 62
     0
440
 16777216
100
AcDbPoint
 10
33.02877590405695
 20
42.12747706687756
 30
0.0
  0
ENDBLK
  5
B87
330
B85
100
AcDbEntity
  8
0
100
AcDbBlockEnd
  0
BLOCK
  5
C86
330
C85
100
AcDbEntity
  8
0
100
AcDbBlockBegin
  2
*D13
 70
     1
 10
0.0
 20
0.0
 30
0.0
  3
*D13
  1

  0
LINE
  5
D64
330
C85
100
AcDbEntity
  8
Dimension (ANSI)
440
 16777216
100
AcDbLine
 10
35.12170614893078
 20
80.72147706687756
 30
0.0
 11
35.12170614893078
 21
84.08845824219534
 31
0.0
  0
LINE
  5
D65
330
C85
100
AcDbEntity
  8
Dimension (ANSI)
440
 16777216
100
AcDbLine
 10
34.24670614893079
 20
79.72658871922924
 30
0.0
 11
34.24670614893079
 21
84.08845824219534
 31
0.0
  0
LINE
  5
D66
330
C85
100
AcDbEntity
  8
Dimension (ANSI)
440
 16777216
100
AcDbLine
 10
36.20438328976273
 20
82.71345824219535
 30
0.0
 11
37.28706043059468
 21
82.71345824219535
 31
0.0
  0
LINE
  5
D67
330
C85
100
AcDbEntity
  8
Dimension (ANSI)
440
 16777216
100
AcDbLine
 10
33.16402900809884
 20
82.71345824219535
 30
0.0
 11
31.44015126366629
 21
82.71345824219535
 31
0.0
  0
SOLID
  5
D68
330
C85
100
AcDbEntity
  8
Dimension (ANSI)
440
 16777216
100
AcDbTrace
 10
36.20438328976273
 20
82.89390443233399
 30
0.0
 11
36.20438328976273
 21
82.53301205205669
 31
0.0
 12
35.12170614893078
 22
82.71345824219535
 32
0.0
 13
35.12170614893078
 23
82.71345824219535
 33
0.0
  0
SOLID
  5
D69
330
C85
100
AcDbEntity
  8
Dimension (ANSI)
440
 16777216
100
AcDbTrace
 10
33.16402900809884
 20
82.89390443233399
 30
0.0
 11
33.16402900809884
 21
82.53301205205669
 31
0.0
 12
34.24670614893079
 22
82.71345824219535
 32
0.0
 13
34.24670614893079
 23
82.71345824219535
 33
0.0
  0
MTEXT
  5
D6A
330
C85
100
AcDbEntity
  8
Dimension (ANSI)
440
 16777216
100
AcDbMText
 10
27.70992011295841
 20
83.40359929941122
 30
0.0
 40
1.320000052452087
 41
0.0
 46
0.0
 71
     1
 72
     1
  1
\A1;0.88
  7
Note Text (ANSI)
 73
     1
 44
1.0
  0
POINT
  5
D6B
330
C85
100
AcDbEntity
  8
Defpoints
 62
     0
440
 16777216
100
AcDbPoint
 10
35.12170614893078
 20
80.03397706687755
 30
0.0
  0
POINT
  5
D6C
330
C85
100
AcDbEntity
  8
Defpoints
 62
     0
440
 16777216
100
AcDbPoint
 10
34.24670614893079
 20
79.03908871922924
 30
0.0
  0
POINT
  5
D6D
330
C85
100
AcDbEntity
  8
Defpoints
 62
     0
440
 16777216
100
AcDbPoint
 10
34.24670614893079
 20
82.71345824219535
 30
0.0
  0
ENDBLK
  5
C87
330
C85
100
AcDbEntity
  8
0
100
AcDbBlockEnd
  0
ENDSEC
  0
SECTION
  2
ENTITIES
  0
CIRCLE
  5
11B
330
6C
100
AcDbEntity
  8
Visible (ANSI)
100
AcDbCircle
 10
62.24670614893079
 20
42.12747706687756
 30
0.0
 40
0.2814999999999999
  0
CIRCLE
  5
11C
330
6C
100
AcDbEntity
  8
Visible (ANSI)
100
AcDbCircle
 10
89.3717061489308
 20
60.25247706687757
 30
0.0
 40
0.2814999999999999
  0
CIRCLE
  5
11D
330
6C
100
AcDbEntity
  8
Visible (ANSI)
100
AcDbCircle
 10
89.3717061489308
 20
42.12747706687757
 30
0.0
 40
0.2814999999999999
  0
CIRCLE
  5
11E
330
6C
100
AcDbEntity
  8
Visible (ANSI)
100
AcDbCircle
 10
35.12170614893078
 20
42.12747706687756
 30
0.0
 40
0.2814999999999999
  0
CIRCLE
  5
11F
330
6C
100
AcDbEntity
  8
Visible (ANSI)
100
AcDbCircle
 10
35.12170614893078
 20
60.25247706687756
 30
0.0
 40
0.2814999999999999
  0
CIRCLE
  5
120
330
6C
100
AcDbEntity
  8
Visible (ANSI)
100
AcDbCircle
 10
89.37170614893078
 20
78.37747706687756
 30
0.0
 40
0.2814999999999999
  0
CIRCLE
  5
121
330
6C
100
AcDbEntity
  8
Visible (ANSI)
100
AcDbCircle
 10
62.24670614893078
 20
78.37747706687756
 30
0.0
 40
0.2814999999999999
  0
CIRCLE
  5
122
330
6C
100
AcDbEntity
  8
Visible (ANSI)
100
AcDbCircle
 10
35.12170614893078
 20
78.37747706687756
 30
0.0
 40
0.2814999999999999
  0
LINE
  5
123
330
6C
100
AcDbEntity
  8
Visible (ANSI)
100
AcDbLine
 10
90.03331780128247
 20
41.25247706687757
 30
0.0
 11
34.46009449657911
 21
41.25247706687757
 31
0.0
  0
LINE
  5
124
330
6C
100
AcDbEntity
  8
Visible (ANSI)
100
AcDbLine
 10
90.2467061489308
 20
79.03908871922924
 30
0.0
 11
90.2467061489308
 21
41.4658654145259
 31
0.0
  0
LINE
  5
125
330
6C
100
AcDbEntity
  8
Visible (ANSI)
100
AcDbLine
 10
34.46009449657911
 20
79.25247706687757
 30
0.0
 11
90.03331780128247
 21
79.25247706687757
 31
0.0
  0
LINE
  5
126
330
6C
100
AcDbEntity
  8
Visible (ANSI)
100
AcDbLine
 10
34.24670614893079
 20
41.46586541452588
 30
0.0
 11
34.24670614893079
 21
79.03908871922924
 31
0.0
  0
POLYLINE
  5
127
330
6C
100
AcDbEntity
  8
Visible (ANSI)
100
AcDb2dPolyline
 66
     1
 10
0.0
 20
0.0
 30
0.0
 70
   128
  0
VERTEX
  5
128
330
127
100
AcDbEntity
  8
Visible (ANSI)
100
AcDbVertex
100
AcDb2dVertex
 10
90.0904559086349
 20
41.40872706453092
 30
0.0
  0
VERTEX
  5
129
330
127
100
AcDbEntity
  8
Visible (ANSI)
100
AcDbVertex
100
AcDb2dVertex
 10
90.08807697931649
 20
41.39850782471778
 30
0.0
  0
VERTEX
  5
12B
330
127
100
AcDbEntity
  8
Visible (ANSI)
100
AcDbVertex
100
AcDb2dVertex
 10
90.08569204260082
 20
41.38833234973241
 30
0.0
  0
VERTEX
  5
12C
330
127
100
AcDbEntity
  8
Visible (ANSI)
100
AcDbVertex
100
AcDb2dVertex
 10
90.08331311328239
 20
41.37824420493819
 30
0.0
  0
VERTEX
  5
12D
330
127
100
AcDbEntity
  8
Visible (ANSI)
100
AcDbVertex
100
AcDb2dVertex
 10
90.08093418396398
 20
41.36828659196939
 30
0.0
  0
VERTEX
  5
12E
330
127
100
AcDbEntity
  8
Visible (ANSI)
100
AcDbVertex
100
AcDb2dVertex
 10
90.0785552546456
 20
41.35850214926676
 30
0.0
  0
VERTEX
  5
12F
330
127
100
AcDbEntity
  8
Visible (ANSI)
100
AcDbVertex
100
AcDb2dVertex
 10
90.07617031792992
 20
41.34893278194624
 30
0.0
  0
VERTEX
  5
130
330
127
100
AcDbEntity
  8
Visible (ANSI)
100
AcDbVertex
100
AcDb2dVertex
 10
90.07379138861152
 20
41.33961945646791
 30
0.0
  0
VERTEX
  5
131
330
127
100
AcDbEntity
  8
Visible (ANSI)
100
AcDbVertex
100
AcDb2dVertex
 10
90.07141245929311
 20
41.33060206570425
 30
0.0
  0
VERTEX
  5
132
330
127
100
AcDbEntity
  8
Visible (ANSI)
100
AcDbVertex
100
AcDb2dVertex
 10
90.06902752257742
 20
41.32191921774258
 30
0.0
  0
VERTEX
  5
133
330
127
100
AcDbEntity
  8
Visible (ANSI)
100
AcDbVertex
100
AcDb2dVertex
 10
90.06664859325901
 20
41.3136080950867
 30
0.0
  0
VERTEX
  5
134
330
127
100
AcDbEntity
  8
Visible (ANSI)
100
AcDbVertex
100
AcDb2dVertex
 10
90.06426966394062
 20
41.30570428452553
 30
0.0
  0
VERTEX
  5
135
330
127
100
AcDbEntity
  8
Visible (ANSI)
100
AcDbVertex
100
AcDb2dVertex
 10
90.06188472722495
 20
41.29824163340138
 30
0.0
  0
VERTEX
  5
136
330
127
100
AcDbEntity
  8
Visible (ANSI)
100
AcDbVertex
100
AcDb2dVertex
 10
90.05950579790654
 20
41.29125209707843
 30
0.0
  0
VERTEX
  5
137
330
127
100
AcDbEntity
  8
Visible (ANSI)
100
AcDbVertex
100
AcDb2dVertex
 10
90.05712686858814
 20
41.28476560694426
 30
0.0
  0
VERTEX
  5
138
330
127
100
AcDbEntity
  8
Visible (ANSI)
100
AcDbVertex
100
AcDb2dVertex
 10
90.05474193187247
 20
41.27880994134462
 30
0.0
  0
VERTEX
  5
139
330
127
100
AcDbEntity
  8
Visible (ANSI)
100
AcDbVertex
100
AcDb2dVertex
 10
90.05236300255406
 20
41.27341059798496
 30
0.0
  0
VERTEX
  5
13A
330
127
100
AcDbEntity
  8
Visible (ANSI)
100
AcDbVertex
100
AcDb2dVertex
 10
90.04998407323567
 20
41.26859070153147
 30
0.0
  0
VERTEX
  5
13B
330
127
100
AcDbEntity
  8
Visible (ANSI)
100
AcDbVertex
100
AcDb2dVertex
 10
90.04760514391724
 20
41.26437088994577
 30
0.0
  0
VERTEX
  5
13C
330
127
100
AcDbEntity
  8
Visible (ANSI)
100
AcDbVertex
100
AcDb2dVertex
 10
90.04522020720157
 20
41.26076923381908
 30
0.0
  0
VERTEX
  5
13D
330
127
100
AcDbEntity
  8
Visible (ANSI)
100
AcDbVertex
100
AcDb2dVertex
 10
90.04284127788315
 20
41.2578011564399
 30
0.0
  0
VERTEX
  5
13E
330
127
100
AcDbEntity
  8
Visible (ANSI)
100
AcDbVertex
100
AcDb2dVertex
 10
90.04046234856476
 20
41.25547936687807
 30
0.0
  0
VERTEX
  5
13F
330
127
100
AcDbEntity
  8
Visible (ANSI)
100
AcDbVertex
100
AcDb2dVertex
 10
90.03807741184909
 20
41.25381380727708
 30
0.0
  0
VERTEX
  5
140
330
127
100
AcDbEntity
  8
Visible (ANSI)
100
AcDbVertex
100
AcDb2dVertex
 10
90.03569848253068
 20
41.25281161011497
 30
0.0
  0
VERTEX
  5
141
330
127
100
AcDbEntity
  8
Visible (ANSI)
100
AcDbVertex
100
AcDb2dVertex
 10
90.03331955321227
 20
41.25247706687757
 30
0.0
  0
SEQEND
  5
12A
330
127
100
AcDbEntity
  8
Visible (ANSI)
  0
POLYLINE
  5
142
330
6C
100
AcDbEntity
  8
Visible (ANSI)
100
AcDb2dPolyline
 66
     1
 10
0.0
 20
0.0
 30
0.0
 70
   128
  0
VERTEX
  5
143
330
142
100
AcDbEntity
  8
Visible (ANSI)
100
AcDbVertex
100
AcDb2dVertex
 10
34.46009448491718
 20
41.25247706687757
 30
0.0
  0
VERTEX
  5
144
330
142
100
AcDbEntity
  8
Visible (ANSI)
100
AcDbVertex
100
AcDb2dVertex
 10
34.45771372521992
 20
41.25281161011497
 30
0.0
  0
VERTEX
  5
146
330
142
100
AcDbEntity
  8
Visible (ANSI)
100
AcDbVertex
100
AcDb2dVertex
 10
34.45533296552266
 20
41.25381380727708
 30
0.0
  0
VERTEX
  5
147
330
142
100
AcDbEntity
  8
Visible (ANSI)
100
AcDbVertex
100
AcDb2dVertex
 10
34.4529522058254
 20
41.25547936687807
 30
0.0
  0
VERTEX
  5
148
330
142
100
AcDbEntity
  8
Visible (ANSI)
100
AcDbVertex
100
AcDb2dVertex
 10
34.45057144612814
 20
41.2578011564399
 30
0.0
  0
VERTEX
  5
149
330
142
100
AcDbEntity
  8
Visible (ANSI)
100
AcDbVertex
100
AcDb2dVertex
 10
34.44819066296449
 20
41.26076923381908
 30
0.0
  0
VERTEX
  5
14A
330
142
100
AcDbEntity
  8
Visible (ANSI)
100
AcDbVertex
100
AcDb2dVertex
 10
34.44580990326723
 20
41.26437088994577
 30
0.0
  0
VERTEX
  5
14B
330
142
100
AcDbEntity
  8
Visible (ANSI)
100
AcDbVertex
100
AcDb2dVertex
 10
34.44342914356997
 20
41.26859070153147
 30
0.0
  0
VERTEX
  5
14C
330
142
100
AcDbEntity
  8
Visible (ANSI)
100
AcDbVertex
100
AcDb2dVertex
 10
34.4410483838727
 20
41.27341059798496
 30
0.0
  0
VERTEX
  5
14D
330
142
100
AcDbEntity
  8
Visible (ANSI)
100
AcDbVertex
100
AcDb2dVertex
 10
34.43866761244225
 20
41.27880994134462
 30
0.0
  0
VERTEX
  5
14E
330
142
100
AcDbEntity
  8
Visible (ANSI)
100
AcDbVertex
100
AcDb2dVertex
 10
34.43628685274499
 20
41.28476560694426
 30
0.0
  0
VERTEX
  5
14F
330
142
100
AcDbEntity
  8
Visible (ANSI)
100
AcDbVertex
100
AcDb2dVertex
 10
34.43390609304773
 20
41.29125209707843
 30
0.0
  0
VERTEX
  5
150
330
142
100
AcDbEntity
  8
Visible (ANSI)
100
AcDbVertex
100
AcDb2dVertex
 10
34.43152532161727
 20
41.29824163340138
 30
0.0
  0
VERTEX
  5
151
330
142
100
AcDbEntity
  8
Visible (ANSI)
100
AcDbVertex
100
AcDb2dVertex
 10
34.42914456192001
 20
41.30570428452553
 30
0.0
  0
VERTEX
  5
152
330
142
100
AcDbEntity
  8
Visible (ANSI)
100
AcDbVertex
100
AcDb2dVertex
 10
34.42676379048954
 20
41.3136080950867
 30
0.0
  0
VERTEX
  5
153
330
142
100
AcDbEntity
  8
Visible (ANSI)
100
AcDbVertex
100
AcDb2dVertex
 10
34.42438303079228
 20
41.32191921774258
 30
0.0
  0
VERTEX
  5
154
330
142
100
AcDbEntity
  8
Visible (ANSI)
100
AcDbVertex
100
AcDb2dVertex
 10
34.42200225936183
 20
41.33060206570425
 30
0.0
  0
VERTEX
  5
155
330
142
100
AcDbEntity
  8
Visible (ANSI)
100
AcDbVertex
100
AcDb2dVertex
 10
34.41962149966457
 20
41.33961945646791
 30
0.0
  0
VERTEX
  5
156
330
142
100
AcDbEntity
  8
Visible (ANSI)
100
AcDbVertex
100
AcDb2dVertex
 10
34.41724073996731
 20
41.34893278194624
 30
0.0
  0
VERTEX
  5
157
330
142
100
AcDbEntity
  8
Visible (ANSI)
100
AcDbVertex
100
AcDb2dVertex
 10
34.41485996853685
 20
41.35850214926676
 30
0.0
  0
VERTEX
  5
158
330
142
100
AcDbEntity
  8
Visible (ANSI)
100
AcDbVertex
100
AcDb2dVertex
 10
34.41247920883959
 20
41.36828659196939
 30
0.0
  0
VERTEX
  5
159
330
142
100
AcDbEntity
  8
Visible (ANSI)
100
AcDbVertex
100
AcDb2dVertex
 10
34.41009843740913
 20
41.37824420493819
 30
0.0
  0
VERTEX
  5
15A
330
142
100
AcDbEntity
  8
Visible (ANSI)
100
AcDbVertex
100
AcDb2dVertex
 10
34.40771767771187
 20
41.38833234973241
 30
0.0
  0
VERTEX
  5
15B
330
142
100
AcDbEntity
  8
Visible (ANSI)
100
AcDbVertex
100
AcDb2dVertex
 10
34.40533691801461
 20
41.39850782471778
 30
0.0
  0
VERTEX
  5
15C
330
142
100
AcDbEntity
  8
Visible (ANSI)
100
AcDbVertex
100
AcDb2dVertex
 10
34.40295614658415
 20
41.40872706453092
 30
0.0
  0
SEQEND
  5
145
330
142
100
AcDbEntity
  8
Visible (ANSI)
  0
POLYLINE
  5
15D
330
6C
100
AcDbEntity
  8
Visible (ANSI)
100
AcDb2dPolyline
 66
     1
 10
0.0
 20
0.0
 30
0.0
 70
   128
  0
VERTEX
  5
15E
330
15D
100
AcDbEntity
  8
Visible (ANSI)
100
AcDbVertex
100
AcDb2dVertex
 10
90.0904559086349
 20
79.0962263459899
 30
0.0
  0
VERTEX
  5
15F
330
15D
100
AcDbEntity
  8
Visible (ANSI)
100
AcDbVertex
100
AcDb2dVertex
 10
90.10067449138894
 20
79.0938474166715
 30
0.0
  0
VERTEX
  5
161
330
15D
100
AcDbEntity
  8
Visible (ANSI)
100
AcDbVertex
100
AcDb2dVertex
 10
90.11085102236213
 20
79.09146548365446
 30
0.0
  0
VERTEX
  5
162
330
15D
100
AcDbEntity
  8
Visible (ANSI)
100
AcDbVertex
100
AcDb2dVertex
 10
90.12093744237629
 20
79.0890835506374
 30
0.0
  0
VERTEX
  5
163
330
15D
100
AcDbEntity
  8
Visible (ANSI)
100
AcDbVertex
100
AcDb2dVertex
 10
90.13089770704779
 20
79.086704621319
 30
0.0
  0
VERTEX
  5
164
330
15D
100
AcDbEntity
  8
Visible (ANSI)
100
AcDbVertex
100
AcDb2dVertex
 10
90.14068375719849
 20
79.08432268830196
 30
0.0
  0
VERTEX
  5
165
330
15D
100
AcDbEntity
  8
Visible (ANSI)
100
AcDbVertex
100
AcDb2dVertex
 10
90.15024753365027
 20
79.08194375898355
 30
0.0
  0
VERTEX
  5
166
330
15D
100
AcDbEntity
  8
Visible (ANSI)
100
AcDbVertex
100
AcDb2dVertex
 10
90.15956500681403
 20
79.07956182596651
 30
0.0
  0
VERTEX
  5
167
330
15D
100
AcDbEntity
  8
Visible (ANSI)
100
AcDbVertex
100
AcDb2dVertex
 10
90.16858211011435
 20
79.07717989294946
 30
0.0
  0
VERTEX
  5
168
330
15D
100
AcDbEntity
  8
Visible (ANSI)
100
AcDbVertex
100
AcDb2dVertex
 10
90.17726279916761
 20
79.07480096363106
 30
0.0
  0
VERTEX
  5
169
330
15D
100
AcDbEntity
  8
Visible (ANSI)
100
AcDbVertex
100
AcDb2dVertex
 10
90.1855770369875
 20
79.07241903061403
 30
0.0
  0
VERTEX
  5
16A
330
15D
100
AcDbEntity
  8
Visible (ANSI)
100
AcDbVertex
100
AcDb2dVertex
 10
90.19347676439585
 20
79.07004010129561
 30
0.0
  0
VERTEX
  5
16B
330
15D
100
AcDbEntity
  8
Visible (ANSI)
100
AcDbVertex
100
AcDb2dVertex
 10
90.20094395920084
 20
79.06765816827858
 30
0.0
  0
VERTEX
  5
16C
330
15D
100
AcDbEntity
  8
Visible (ANSI)
100
AcDbVertex
100
AcDb2dVertex
 10
90.20793056222432
 20
79.06527623526155
 30
0.0
  0
VERTEX
  5
16D
330
15D
100
AcDbEntity
  8
Visible (ANSI)
100
AcDbVertex
100
AcDb2dVertex
 10
90.21441855127454
 20
79.06289730594314
 30
0.0
  0
VERTEX
  5
16E
330
15D
100
AcDbEntity
  8
Visible (ANSI)
100
AcDbVertex
100
AcDb2dVertex
 10
90.22037188196781
 20
79.06051537292611
 30
0.0
  0
VERTEX
  5
16F
330
15D
100
AcDbEntity
  8
Visible (ANSI)
100
AcDbVertex
100
AcDb2dVertex
 10
90.22577253211236
 20
79.05813343990906
 30
0.0
  0
VERTEX
  5
170
330
15D
100
AcDbEntity
  8
Visible (ANSI)
100
AcDbVertex
100
AcDb2dVertex
 10
90.23059046472187
 20
79.05575451059066
 30
0.0
  0
VERTEX
  5
171
330
15D
100
AcDbEntity
  8
Visible (ANSI)
100
AcDbVertex
100
AcDb2dVertex
 10
90.23481366500176
 20
79.05337257757363
 30
0.0
  0
VERTEX
  5
172
330
15D
100
AcDbEntity
  8
Visible (ANSI)
100
AcDbVertex
100
AcDb2dVertex
 10
90.23841209596573
 20
79.05099364825521
 30
0.0
  0
VERTEX
  5
173
330
15D
100
AcDbEntity
  8
Visible (ANSI)
100
AcDbVertex
100
AcDb2dVertex
 10
90.24137975021645
 20
79.04861171523818
 30
0.0
  0
VERTEX
  5
174
330
15D
100
AcDbEntity
  8
Visible (ANSI)
100
AcDbVertex
100
AcDb2dVertex
 10
90.24370461295944
 20
79.04622978222113
 30
0.0
  0
VERTEX
  5
175
330
15D
100
AcDbEntity
  8
Visible (ANSI)
100
AcDbVertex
100
AcDb2dVertex
 10
90.24536866200289
 20
79.04385085290272
 30
0.0
  0
VERTEX
  5
176
330
15D
100
AcDbEntity
  8
Visible (ANSI)
100
AcDbVertex
100
AcDb2dVertex
 10
90.24637189734674
 20
79.04146891988569
 30
0.0
  0
VERTEX
  5
177
330
15D
100
AcDbEntity
  8
Visible (ANSI)
100
AcDbVertex
100
AcDb2dVertex
 10
90.24670831159381
 20
79.03908999056728
 30
0.0
  0
SEQEND
  5
160
330
15D
100
AcDbEntity
  8
Visible (ANSI)
  0
POLYLINE
  5
178
330
6C
100
AcDbEntity
  8
Visible (ANSI)
100
AcDb2dPolyline
 66
     1
 10
0.0
 20
0.0
 30
0.0
 70
   128
  0
VERTEX
  5
179
330
178
100
AcDbEntity
  8
Visible (ANSI)
100
AcDbVertex
100
AcDb2dVertex
 10
90.24670831159381
 20
41.46586540286396
 30
0.0
  0
VERTEX
  5
17A
330
178
100
AcDbEntity
  8
Visible (ANSI)
100
AcDbVertex
100
AcDb2dVertex
 10
90.24637189734674
 20
41.4634846431667
 30
0.0
  0
VERTEX
  5
17C
330
178
100
AcDbEntity
  8
Visible (ANSI)
100
AcDbVertex
100
AcDb2dVertex
 10
90.24536866200289
 20
41.46110388346944
 30
0.0
  0
VERTEX
  5
17D
330
178
100
AcDbEntity
  8
Visible (ANSI)
100
AcDbVertex
100
AcDb2dVertex
 10
90.24370461295944
 20
41.45872312377218
 30
0.0
  0
VERTEX
  5
17E
330
178
100
AcDbEntity
  8
Visible (ANSI)
100
AcDbVertex
100
AcDb2dVertex
 10
90.24137975021645
 20
41.45634236407492
 30
0.0
  0
VERTEX
  5
17F
330
178
100
AcDbEntity
  8
Visible (ANSI)
100
AcDbVertex
100
AcDb2dVertex
 10
90.23841209596573
 20
41.45396158091126
 30
0.0
  0
VERTEX
  5
180
330
178
100
AcDbEntity
  8
Visible (ANSI)
100
AcDbVertex
100
AcDb2dVertex
 10
90.23481366500176
 20
41.451580821214
 30
0.0
  0
VERTEX
  5
181
330
178
100
AcDbEntity
  8
Visible (ANSI)
100
AcDbVertex
100
AcDb2dVertex
 10
90.23059046472187
 20
41.44920006151674
 30
0.0
  0
VERTEX
  5
182
330
178
100
AcDbEntity
  8
Visible (ANSI)
100
AcDbVertex
100
AcDb2dVertex
 10
90.22577253211236
 20
41.44681930181948
 30
0.0
  0
VERTEX
  5
183
330
178
100
AcDbEntity
  8
Visible (ANSI)
100
AcDbVertex
100
AcDb2dVertex
 10
90.22037188196781
 20
41.44443853038903
 30
0.0
  0
VERTEX
  5
184
330
178
100
AcDbEntity
  8
Visible (ANSI)
100
AcDbVertex
100
AcDb2dVertex
 10
90.21441855127454
 20
41.44205777069177
 30
0.0
  0
VERTEX
  5
185
330
178
100
AcDbEntity
  8
Visible (ANSI)
100
AcDbVertex
100
AcDb2dVertex
 10
90.20793056222432
 20
41.43967701099451
 30
0.0
  0
VERTEX
  5
186
330
178
100
AcDbEntity
  8
Visible (ANSI)
100
AcDbVertex
100
AcDb2dVertex
 10
90.20094395920084
 20
41.43729623956404
 30
0.0
  0
VERTEX
  5
187
330
178
100
AcDbEntity
  8
Visible (ANSI)
100
AcDbVertex
100
AcDb2dVertex
 10
90.19347676439585
 20
41.43491547986678
 30
0.0
  0
VERTEX
  5
188
330
178
100
AcDbEntity
  8
Visible (ANSI)
100
AcDbVertex
100
AcDb2dVertex
 10
90.1855770369875
 20
41.43253470843632
 30
0.0
  0
VERTEX
  5
189
330
178
100
AcDbEntity
  8
Visible (ANSI)
100
AcDbVertex
100
AcDb2dVertex
 10
90.17726279916761
 20
41.43015394873906
 30
0.0
  0
VERTEX
  5
18A
330
178
100
AcDbEntity
  8
Visible (ANSI)
100
AcDbVertex
100
AcDb2dVertex
 10
90.16858211011435
 20
41.4277731773086
 30
0.0
  0
VERTEX
  5
18B
330
178
100
AcDbEntity
  8
Visible (ANSI)
100
AcDbVertex
100
AcDb2dVertex
 10
90.15956500681403
 20
41.42539241761134
 30
0.0
  0
VERTEX
  5
18C
330
178
100
AcDbEntity
  8
Visible (ANSI)
100
AcDbVertex
100
AcDb2dVertex
 10
90.15024753365027
 20
41.42301165791407
 30
0.0
  0
VERTEX
  5
18D
330
178
100
AcDbEntity
  8
Visible (ANSI)
100
AcDbVertex
100
AcDb2dVertex
 10
90.14068375719849
 20
41.42063088648362
 30
0.0
  0
VERTEX
  5
18E
330
178
100
AcDbEntity
  8
Visible (ANSI)
100
AcDbVertex
100
AcDb2dVertex
 10
90.13089770704779
 20
41.41825012678636
 30
0.0
  0
VERTEX
  5
18F
330
178
100
AcDbEntity
  8
Visible (ANSI)
100
AcDbVertex
100
AcDb2dVertex
 10
90.12093744237629
 20
41.4158693553559
 30
0.0
  0
VERTEX
  5
190
330
178
100
AcDbEntity
  8
Visible (ANSI)
100
AcDbVertex
100
AcDb2dVertex
 10
90.11085102236213
 20
41.41348859565864
 30
0.0
  0
VERTEX
  5
191
330
178
100
AcDbEntity
  8
Visible (ANSI)
100
AcDbVertex
100
AcDb2dVertex
 10
90.10067449138894
 20
41.41110783596139
 30
0.0
  0
VERTEX
  5
192
330
178
100
AcDbEntity
  8
Visible (ANSI)
100
AcDbVertex
100
AcDb2dVertex
 10
90.0904559086349
 20
41.40872706453092
 30
0.0
  0
SEQEND
  5
17B
330
178
100
AcDbEntity
  8
Visible (ANSI)
  0
POLYLINE
  5
193
330
6C
100
AcDbEntity
  8
Visible (ANSI)
100
AcDb2dPolyline
 66
     1
 10
0.0
 20
0.0
 30
0.0
 70
   128
  0
VERTEX
  5
194
330
193
100
AcDbEntity
  8
Visible (ANSI)
100
AcDbVertex
100
AcDb2dVertex
 10
34.40295614658415
 20
79.0962263459899
 30
0.0
  0
VERTEX
  5
195
330
193
100
AcDbEntity
  8
Visible (ANSI)
100
AcDbVertex
100
AcDb2dVertex
 10
34.40533691801461
 20
79.10644492874395
 30
0.0
  0
VERTEX
  5
197
330
193
100
AcDbEntity
  8
Visible (ANSI)
100
AcDbVertex
100
AcDb2dVertex
 10
34.40771767771187
 20
79.11662145971712
 30
0.0
  0
VERTEX
  5
198
330
193
100
AcDbEntity
  8
Visible (ANSI)
100
AcDbVertex
100
AcDb2dVertex
 10
34.41009843740913
 20
79.12671088342989
 30
0.0
  0
VERTEX
  5
199
330
193
100
AcDbEntity
  8
Visible (ANSI)
100
AcDbVertex
100
AcDb2dVertex
 10
34.41247920883959
 20
79.13666814440279
 30
0.0
  0
VERTEX
  5
19A
330
193
100
AcDbEntity
  8
Visible (ANSI)
100
AcDbVertex
100
AcDb2dVertex
 10
34.41485996853685
 20
79.14645119085486
 30
0.0
  0
VERTEX
  5
19B
330
193
100
AcDbEntity
  8
Visible (ANSI)
100
AcDbVertex
100
AcDb2dVertex
 10
34.41724073996731
 20
79.1560209747039
 30
0.0
  0
VERTEX
  5
19C
330
193
100
AcDbEntity
  8
Visible (ANSI)
100
AcDbVertex
100
AcDb2dVertex
 10
34.41962149966457
 20
79.16533544416902
 30
0.0
  0
VERTEX
  5
19D
330
193
100
AcDbEntity
  8
Visible (ANSI)
100
AcDbVertex
100
AcDb2dVertex
 10
34.42200225936183
 20
79.17435254746933
 30
0.0
  0
VERTEX
  5
19E
330
193
100
AcDbEntity
  8
Visible (ANSI)
100
AcDbVertex
100
AcDb2dVertex
 10
34.42438303079228
 20
79.18303624022124
 30
0.0
  0
VERTEX
  5
19F
330
193
100
AcDbEntity
  8
Visible (ANSI)
100
AcDbVertex
100
AcDb2dVertex
 10
34.42676379048954
 20
79.19134747434251
 30
0.0
  0
VERTEX
  5
1A0
330
193
100
AcDbEntity
  8
Visible (ANSI)
100
AcDbVertex
100
AcDb2dVertex
 10
34.42914456192001
 20
79.19925020544948
 30
0.0
  0
VERTEX
  5
1A1
330
193
100
AcDbEntity
  8
Visible (ANSI)
100
AcDbVertex
100
AcDb2dVertex
 10
34.43152532161727
 20
79.20671139285722
 30
0.0
  0
VERTEX
  5
1A2
330
193
100
AcDbEntity
  8
Visible (ANSI)
100
AcDbVertex
100
AcDb2dVertex
 10
34.43390609304773
 20
79.21370099957933
 30
0.0
  0
VERTEX
  5
1A3
330
193
100
AcDbEntity
  8
Visible (ANSI)
100
AcDbVertex
100
AcDb2dVertex
 10
34.43628685274499
 20
79.22018898862953
 30
0.0
  0
VERTEX
  5
1A4
330
193
100
AcDbEntity
  8
Visible (ANSI)
100
AcDbVertex
100
AcDb2dVertex
 10
34.43866761244225
 20
79.22614532302145
 30
0.0
  0
VERTEX
  5
1A5
330
193
100
AcDbEntity
  8
Visible (ANSI)
100
AcDbVertex
100
AcDb2dVertex
 10
34.4410483838727
 20
79.23154296946737
 30
0.0
  0
VERTEX
  5
1A6
330
193
100
AcDbEntity
  8
Visible (ANSI)
100
AcDbVertex
100
AcDb2dVertex
 10
34.44342914356997
 20
79.2363639057755
 30
0.0
  0
VERTEX
  5
1A7
330
193
100
AcDbEntity
  8
Visible (ANSI)
100
AcDbVertex
100
AcDb2dVertex
 10
34.44580990326723
 20
79.24058410235677
 30
0.0
  0
VERTEX
  5
1A8
330
193
100
AcDbEntity
  8
Visible (ANSI)
100
AcDbVertex
100
AcDb2dVertex
 10
34.44819066296449
 20
79.24418553701936
 30
0.0
  0
VERTEX
  5
1A9
330
193
100
AcDbEntity
  8
Visible (ANSI)
100
AcDbVertex
100
AcDb2dVertex
 10
34.45057144612814
 20
79.2471531912701
 30
0.0
  0
VERTEX
  5
1AA
330
193
100
AcDbEntity
  8
Visible (ANSI)
100
AcDbVertex
100
AcDb2dVertex
 10
34.4529522058254
 20
79.24947505031444
 30
0.0
  0
VERTEX
  5
1AB
330
193
100
AcDbEntity
  8
Visible (ANSI)
100
AcDbVertex
100
AcDb2dVertex
 10
34.45533296552266
 20
79.25113909935787
 30
0.0
  0
VERTEX
  5
1AC
330
193
100
AcDbEntity
  8
Visible (ANSI)
100
AcDbVertex
100
AcDb2dVertex
 10
34.45771372521992
 20
79.25214233470176
 30
0.0
  0
VERTEX
  5
1AD
330
193
100
AcDbEntity
  8
Visible (ANSI)
100
AcDbVertex
100
AcDb2dVertex
 10
34.46009448491718
 20
79.25247574525016
 30
0.0
  0
SEQEND
  5
196
330
193
100
AcDbEntity
  8
Visible (ANSI)
  0
POLYLINE
  5
1AE
330
6C
100
AcDbEntity
  8
Visible (ANSI)
100
AcDb2dPolyline
 66
     1
 10
0.0
 20
0.0
 30
0.0
 70
   128
  0
VERTEX
  5
1AF
330
1AE
100
AcDbEntity
  8
Visible (ANSI)
100
AcDbVertex
100
AcDb2dVertex
 10
90.03331955321227
 20
79.25247574525016
 30
0.0
  0
VERTEX
  5
1B0
330
1AE
100
AcDbEntity
  8
Visible (ANSI)
100
AcDbVertex
100
AcDb2dVertex
 10
90.03569848253068
 20
79.25214233470176
 30
0.0
  0
VERTEX
  5
1B2
330
1AE
100
AcDbEntity
  8
Visible (ANSI)
100
AcDbVertex
100
AcDb2dVertex
 10
90.03807741184909
 20
79.25113909935787
 30
0.0
  0
VERTEX
  5
1B3
330
1AE
100
AcDbEntity
  8
Visible (ANSI)
100
AcDbVertex
100
AcDb2dVertex
 10
90.04046234856476
 20
79.24947505031444
 30
0.0
  0
VERTEX
  5
1B4
330
1AE
100
AcDbEntity
  8
Visible (ANSI)
100
AcDbVertex
100
AcDb2dVertex
 10
90.04284127788315
 20
79.2471531912701
 30
0.0
  0
VERTEX
  5
1B5
330
1AE
100
AcDbEntity
  8
Visible (ANSI)
100
AcDbVertex
100
AcDb2dVertex
 10
90.04522020720157
 20
79.24418553701936
 30
0.0
  0
VERTEX
  5
1B6
330
1AE
100
AcDbEntity
  8
Visible (ANSI)
100
AcDbVertex
100
AcDb2dVertex
 10
90.04760514391724
 20
79.24058410235677
 30
0.0
  0
VERTEX
  5
1B7
330
1AE
100
AcDbEntity
  8
Visible (ANSI)
100
AcDbVertex
100
AcDb2dVertex
 10
90.04998407323567
 20
79.2363639057755
 30
0.0
  0
VERTEX
  5
1B8
330
1AE
100
AcDbEntity
  8
Visible (ANSI)
100
AcDbVertex
100
AcDb2dVertex
 10
90.05236300255406
 20
79.23154296946737
 30
0.0
  0
VERTEX
  5
1B9
330
1AE
100
AcDbEntity
  8
Visible (ANSI)
100
AcDbVertex
100
AcDb2dVertex
 10
90.05474193187247
 20
79.22614532302145
 30
0.0
  0
VERTEX
  5
1BA
330
1AE
100
AcDbEntity
  8
Visible (ANSI)
100
AcDbVertex
100
AcDb2dVertex
 10
90.05712686858814
 20
79.22018898862953
 30
0.0
  0
VERTEX
  5
1BB
330
1AE
100
AcDbEntity
  8
Visible (ANSI)
100
AcDbVertex
100
AcDb2dVertex
 10
90.05950579790654
 20
79.21370099957933
 30
0.0
  0
VERTEX
  5
1BC
330
1AE
100
AcDbEntity
  8
Visible (ANSI)
100
AcDbVertex
100
AcDb2dVertex
 10
90.06188472722495
 20
79.20671139285722
 30
0.0
  0
VERTEX
  5
1BD
330
1AE
100
AcDbEntity
  8
Visible (ANSI)
100
AcDbVertex
100
AcDb2dVertex
 10
90.06426966394062
 20
79.19925020544948
 30
0.0
  0
VERTEX
  5
1BE
330
1AE
100
AcDbEntity
  8
Visible (ANSI)
100
AcDbVertex
100
AcDb2dVertex
 10
90.06664859325901
 20
79.19134747434251
 30
0.0
  0
VERTEX
  5
1BF
330
1AE
100
AcDbEntity
  8
Visible (ANSI)
100
AcDbVertex
100
AcDb2dVertex
 10
90.06902752257742
 20
79.18303624022124
 30
0.0
  0
VERTEX
  5
1C0
330
1AE
100
AcDbEntity
  8
Visible (ANSI)
100
AcDbVertex
100
AcDb2dVertex
 10
90.07141245929311
 20
79.17435254746933
 30
0.0
  0
VERTEX
  5
1C1
330
1AE
100
AcDbEntity
  8
Visible (ANSI)
100
AcDbVertex
100
AcDb2dVertex
 10
90.07379138861152
 20
79.16533544416902
 30
0.0
  0
VERTEX
  5
1C2
330
1AE
100
AcDbEntity
  8
Visible (ANSI)
100
AcDbVertex
100
AcDb2dVertex
 10
90.07617031792992
 20
79.1560209747039
 30
0.0
  0
VERTEX
  5
1C3
330
1AE
100
AcDbEntity
  8
Visible (ANSI)
100
AcDbVertex
100
AcDb2dVertex
 10
90.0785552546456
 20
79.14645119085486
 30
0.0
  0
VERTEX
  5
1C4
330
1AE
100
AcDbEntity
  8
Visible (ANSI)
100
AcDbVertex
100
AcDb2dVertex
 10
90.08093418396398
 20
79.13666814440279
 30
0.0
  0
VERTEX
  5
1C5
330
1AE
100
AcDbEntity
  8
Visible (ANSI)
100
AcDbVertex
100
AcDb2dVertex
 10
90.08331311328239
 20
79.12671088342989
 30
0.0
  0
VERTEX
  5
1C6
330
1AE
100
AcDbEntity
  8
Visible (ANSI)
100
AcDbVertex
100
AcDb2dVertex
 10
90.08569204260082
 20
79.11662145971712
 30
0.0
  0
VERTEX
  5
1C7
330
1AE
100
AcDbEntity
  8
Visible (ANSI)
100
AcDbVertex
100
AcDb2dVertex
 10
90.08807697931649
 20
79.10644492874395
 30
0.0
  0
VERTEX
  5
1C8
330
1AE
100
AcDbEntity
  8
Visible (ANSI)
100
AcDbVertex
100
AcDb2dVertex
 10
90.0904559086349
 20
79.0962263459899
 30
0.0
  0
SEQEND
  5
1B1
330
1AE
100
AcDbEntity
  8
Visible (ANSI)
  0
POLYLINE
  5
1C9
330
6C
100
AcDbEntity
  8
Visible (ANSI)
100
AcDb2dPolyline
 66
     1
 10
0.0
 20
0.0
 30
0.0
 70
   128
  0
VERTEX
  5
1CA
330
1C9
100
AcDbEntity
  8
Visible (ANSI)
100
AcDbVertex
100
AcDb2dVertex
 10
34.40295614658415
 20
41.40872706453092
 30
0.0
  0
VERTEX
  5
1CB
330
1C9
100
AcDbEntity
  8
Visible (ANSI)
100
AcDbVertex
100
AcDb2dVertex
 10
34.39273690677101
 20
41.41110783596139
 30
0.0
  0
VERTEX
  5
1CD
330
1C9
100
AcDbEntity
  8
Visible (ANSI)
100
AcDbVertex
100
AcDb2dVertex
 10
34.38256143178563
 20
41.41348859565864
 30
0.0
  0
VERTEX
  5
1CE
330
1C9
100
AcDbEntity
  8
Visible (ANSI)
100
AcDbVertex
100
AcDb2dVertex
 10
34.37247328699141
 20
41.4158693553559
 30
0.0
  0
VERTEX
  5
1CF
330
1C9
100
AcDbEntity
  8
Visible (ANSI)
100
AcDbVertex
100
AcDb2dVertex
 10
34.36251567402261
 20
41.41825012678636
 30
0.0
  0
VERTEX
  5
1D0
330
1C9
100
AcDbEntity
  8
Visible (ANSI)
100
AcDbVertex
100
AcDb2dVertex
 10
34.35273123131999
 20
41.42063088648362
 30
0.0
  0
VERTEX
  5
1D1
330
1C9
100
AcDbEntity
  8
Visible (ANSI)
100
AcDbVertex
100
AcDb2dVertex
 10
34.34316186399947
 20
41.42301165791407
 30
0.0
  0
VERTEX
  5
1D2
330
1C9
100
AcDbEntity
  8
Visible (ANSI)
100
AcDbVertex
100
AcDb2dVertex
 10
34.33384853852113
 20
41.42539241761134
 30
0.0
  0
VERTEX
  5
1D3
330
1C9
100
AcDbEntity
  8
Visible (ANSI)
100
AcDbVertex
100
AcDb2dVertex
 10
34.32483114775747
 20
41.4277731773086
 30
0.0
  0
VERTEX
  5
1D4
330
1C9
100
AcDbEntity
  8
Visible (ANSI)
100
AcDbVertex
100
AcDb2dVertex
 10
34.3161482997958
 20
41.43015394873906
 30
0.0
  0
VERTEX
  5
1D5
330
1C9
100
AcDbEntity
  8
Visible (ANSI)
100
AcDbVertex
100
AcDb2dVertex
 10
34.30783717713993
 20
41.43253470843632
 30
0.0
  0
VERTEX
  5
1D6
330
1C9
100
AcDbEntity
  8
Visible (ANSI)
100
AcDbVertex
100
AcDb2dVertex
 10
34.29993336657876
 20
41.43491547986678
 30
0.0
  0
VERTEX
  5
1D7
330
1C9
100
AcDbEntity
  8
Visible (ANSI)
100
AcDbVertex
100
AcDb2dVertex
 10
34.29247071545461
 20
41.43729623956404
 30
0.0
  0
VERTEX
  5
1D8
330
1C9
100
AcDbEntity
  8
Visible (ANSI)
100
AcDbVertex
100
AcDb2dVertex
 10
34.28548117913166
 20
41.43967701099451
 30
0.0
  0
VERTEX
  5
1D9
330
1C9
100
AcDbEntity
  8
Visible (ANSI)
100
AcDbVertex
100
AcDb2dVertex
 10
34.27899468899749
 20
41.44205777069177
 30
0.0
  0
VERTEX
  5
1DA
330
1C9
100
AcDbEntity
  8
Visible (ANSI)
100
AcDbVertex
100
AcDb2dVertex
 10
34.27303902339783
 20
41.44443853038903
 30
0.0
  0
VERTEX
  5
1DB
330
1C9
100
AcDbEntity
  8
Visible (ANSI)
100
AcDbVertex
100
AcDb2dVertex
 10
34.26763968003818
 20
41.44681930181948
 30
0.0
  0
VERTEX
  5
1DC
330
1C9
100
AcDbEntity
  8
Visible (ANSI)
100
AcDbVertex
100
AcDb2dVertex
 10
34.26281978358471
 20
41.44920006151674
 30
0.0
  0
VERTEX
  5
1DD
330
1C9
100
AcDbEntity
  8
Visible (ANSI)
100
AcDbVertex
100
AcDb2dVertex
 10
34.258599971999
 20
41.451580821214
 30
0.0
  0
VERTEX
  5
1DE
330
1C9
100
AcDbEntity
  8
Visible (ANSI)
100
AcDbVertex
100
AcDb2dVertex
 10
34.2549983158723
 20
41.45396158091126
 30
0.0
  0
VERTEX
  5
1DF
330
1C9
100
AcDbEntity
  8
Visible (ANSI)
100
AcDbVertex
100
AcDb2dVertex
 10
34.25203023849312
 20
41.45634236407492
 30
0.0
  0
VERTEX
  5
1E0
330
1C9
100
AcDbEntity
  8
Visible (ANSI)
100
AcDbVertex
100
AcDb2dVertex
 10
34.2497084489313
 20
41.45872312377218
 30
0.0
  0
VERTEX
  5
1E1
330
1C9
100
AcDbEntity
  8
Visible (ANSI)
100
AcDbVertex
100
AcDb2dVertex
 10
34.24804288933032
 20
41.46110388346944
 30
0.0
  0
VERTEX
  5
1E2
330
1C9
100
AcDbEntity
  8
Visible (ANSI)
100
AcDbVertex
100
AcDb2dVertex
 10
34.2470406921682
 20
41.4634846431667
 30
0.0
  0
VERTEX
  5
1E3
330
1C9
100
AcDbEntity
  8
Visible (ANSI)
100
AcDbVertex
100
AcDb2dVertex
 10
34.24670614893079
 20
41.46586540286396
 30
0.0
  0
SEQEND
  5
1CC
330
1C9
100
AcDbEntity
  8
Visible (ANSI)
  0
POLYLINE
  5
1E4
330
6C
100
AcDbEntity
  8
Visible (ANSI)
100
AcDb2dPolyline
 66
     1
 10
0.0
 20
0.0
 30
0.0
 70
   128
  0
VERTEX
  5
1E5
330
1E4
100
AcDbEntity
  8
Visible (ANSI)
100
AcDbVertex
100
AcDb2dVertex
 10
34.24670614893079
 20
79.03908999056728
 30
0.0
  0
VERTEX
  5
1E6
330
1E4
100
AcDbEntity
  8
Visible (ANSI)
100
AcDbVertex
100
AcDb2dVertex
 10
34.2470406921682
 20
79.04146891988569
 30
0.0
  0
VERTEX
  5
1E8
330
1E4
100
AcDbEntity
  8
Visible (ANSI)
100
AcDbVertex
100
AcDb2dVertex
 10
34.24804288933032
 20
79.04385085290272
 30
0.0
  0
VERTEX
  5
1E9
330
1E4
100
AcDbEntity
  8
Visible (ANSI)
100
AcDbVertex
100
AcDb2dVertex
 10
34.2497084489313
 20
79.04622978222113
 30
0.0
  0
VERTEX
  5
1EA
330
1E4
100
AcDbEntity
  8
Visible (ANSI)
100
AcDbVertex
100
AcDb2dVertex
 10
34.25203023849312
 20
79.04861171523818
 30
0.0
  0
VERTEX
  5
1EB
330
1E4
100
AcDbEntity
  8
Visible (ANSI)
100
AcDbVertex
100
AcDb2dVertex
 10
34.2549983158723
 20
79.05099364825521
 30
0.0
  0
VERTEX
  5
1EC
330
1E4
100
AcDbEntity
  8
Visible (ANSI)
100
AcDbVertex
100
AcDb2dVertex
 10
34.258599971999
 20
79.05337257757363
 30
0.0
  0
VERTEX
  5
1ED
330
1E4
100
AcDbEntity
  8
Visible (ANSI)
100
AcDbVertex
100
AcDb2dVertex
 10
34.26281978358471
 20
79.05575451059066
 30
0.0
  0
VERTEX
  5
1EE
330
1E4
100
AcDbEntity
  8
Visible (ANSI)
100
AcDbVertex
100
AcDb2dVertex
 10
34.26763968003818
 20
79.05813343990906
 30
0.0
  0
VERTEX
  5
1EF
330
1E4
100
AcDbEntity
  8
Visible (ANSI)
100
AcDbVertex
100
AcDb2dVertex
 10
34.27303902339783
 20
79.06051537292611
 30
0.0
  0
VERTEX
  5
1F0
330
1E4
100
AcDbEntity
  8
Visible (ANSI)
100
AcDbVertex
100
AcDb2dVertex
 10
34.27899468899749
 20
79.06289730594314
 30
0.0
  0
VERTEX
  5
1F1
330
1E4
100
AcDbEntity
  8
Visible (ANSI)
100
AcDbVertex
100
AcDb2dVertex
 10
34.28548117913166
 20
79.06527623526155
 30
0.0
  0
VERTEX
  5
1F2
330
1E4
100
AcDbEntity
  8
Visible (ANSI)
100
AcDbVertex
100
AcDb2dVertex
 10
34.29247071545461
 20
79.06765816827858
 30
0.0
  0
VERTEX
  5
1F3
330
1E4
100
AcDbEntity
  8
Visible (ANSI)
100
AcDbVertex
100
AcDb2dVertex
 10
34.29993336657876
 20
79.07004010129561
 30
0.0
  0
VERTEX
  5
1F4
330
1E4
100
AcDbEntity
  8
Visible (ANSI)
100
AcDbVertex
100
AcDb2dVertex
 10
34.30783717713993
 20
79.07241903061403
 30
0.0
  0
VERTEX
  5
1F5
330
1E4
100
AcDbEntity
  8
Visible (ANSI)
100
AcDbVertex
100
AcDb2dVertex
 10
34.3161482997958
 20
79.07480096363106
 30
0.0
  0
VERTEX
  5
1F6
330
1E4
100
AcDbEntity
  8
Visible (ANSI)
100
AcDbVertex
100
AcDb2dVertex
 10
34.32483114775747
 20
79.07717989294946
 30
0.0
  0
VERTEX
  5
1F7
330
1E4
100
AcDbEntity
  8
Visible (ANSI)
100
AcDbVertex
100
AcDb2dVertex
 10
34.33384853852113
 20
79.07956182596651
 30
0.0
  0
VERTEX
  5
1F8
330
1E4
100
AcDbEntity
  8
Visible (ANSI)
100
AcDbVertex
100
AcDb2dVertex
 10
34.34316186399947
 20
79.08194375898355
 30
0.0
  0
VERTEX
  5
1F9
330
1E4
100
AcDbEntity
  8
Visible (ANSI)
100
AcDbVertex
100
AcDb2dVertex
 10
34.35273123131999
 20
79.08432268830196
 30
0.0
  0
VERTEX
  5
1FA
330
1E4
100
AcDbEntity
  8
Visible (ANSI)
100
AcDbVertex
100
AcDb2dVertex
 10
34.36251567402261
 20
79.086704621319
 30
0.0
  0
VERTEX
  5
1FB
330
1E4
100
AcDbEntity
  8
Visible (ANSI)
100
AcDbVertex
100
AcDb2dVertex
 10
34.37247328699141
 20
79.0890835506374
 30
0.0
  0
VERTEX
  5
1FC
330
1E4
100
AcDbEntity
  8
Visible (ANSI)
100
AcDbVertex
100
AcDb2dVertex
 10
34.38256143178563
 20
79.09146548365446
 30
0.0
  0
VERTEX
  5
1FD
330
1E4
100
AcDbEntity
  8
Visible (ANSI)
100
AcDbVertex
100
AcDb2dVertex
 10
34.39273690677101
 20
79.0938474166715
 30
0.0
  0
VERTEX
  5
1FE
330
1E4
100
AcDbEntity
  8
Visible (ANSI)
100
AcDbVertex
100
AcDb2dVertex
 10
34.40295614658415
 20
79.0962263459899
 30
0.0
  0
SEQEND
  5
1E7
330
1E4
100
AcDbEntity
  8
Visible (ANSI)
  0
MTEXT
  5
200
330
6C
100
AcDbEntity
  8
Symbol (ANSI)
100
AcDbMText
 10
57.07250004624332
 20
34.34556583937914
 30
0.0
 40
1.320000016313838
 41
0.0
 46
0.0
 71
     7
 72
     1
  1
FRONT VIEW
  7
Text Style154
 73
     1
 44
1.0
  0
LINE
  5
202
330
6C
100
AcDbEntity
  8
Symbol (ANSI)
370
    30
100
AcDbLine
 10
56.94049970669107
 20
34.07637782825535
 30
0.0
 11
67.55291475383351
 21
34.07637782825535
 31
0.0
  0
POLYLINE
  5
203
330
6C
100
AcDbEntity
  8
Visible (ANSI)
100
AcDb2dPolyline
 66
     1
 10
0.0
 20
0.0
 30
0.0
 70
   128
  0
VERTEX
  5
204
330
203
100
AcDbEntity
  8
Visible (ANSI)
100
AcDbVertex
100
AcDb2dVertex
 10
125.3333575509914
 20
41.40872706453092
 30
0.0
  0
VERTEX
  5
205
330
203
100
AcDbEntity
  8
Visible (ANSI)
100
AcDbVertex
100
AcDb2dVertex
 10
125.3336920879268
 20
41.39850782471778
 30
0.0
  0
VERTEX
  5
207
330
203
100
AcDbEntity
  8
Visible (ANSI)
100
AcDbVertex
100
AcDb2dVertex
 10
125.3346942907493
 20
41.38833234973241
 30
0.0
  0
VERTEX
  5
208
330
203
100
AcDbEntity
  8
Visible (ANSI)
100
AcDbVertex
100
AcDb2dVertex
 10
125.3363598533752
 20
41.37824420493819
 30
0.0
  0
VERTEX
  5
209
330
203
100
AcDbEntity
  8
Visible (ANSI)
100
AcDbVertex
100
AcDb2dVertex
 10
125.3386816420204
 20
41.36828659196939
 30
0.0
  0
VERTEX
  5
20A
330
203
100
AcDbEntity
  8
Visible (ANSI)
100
AcDbVertex
100
AcDb2dVertex
 10
125.3416497186662
 20
41.35850214926676
 30
0.0
  0
VERTEX
  5
20B
330
203
100
AcDbEntity
  8
Visible (ANSI)
100
AcDbVertex
100
AcDb2dVertex
 10
125.3452513762596
 20
41.34893278194624
 30
0.0
  0
VERTEX
  5
20C
330
203
100
AcDbEntity
  8
Visible (ANSI)
100
AcDbVertex
100
AcDb2dVertex
 10
125.3494711856453
 20
41.33961945646791
 30
0.0
  0
VERTEX
  5
20D
330
203
100
AcDbEntity
  8
Visible (ANSI)
100
AcDbVertex
100
AcDb2dVertex
 10
125.3542910776988
 20
41.33060206570425
 30
0.0
  0
VERTEX
  5
20E
330
203
100
AcDbEntity
  8
Visible (ANSI)
100
AcDbVertex
100
AcDb2dVertex
 10
125.3596904254584
 20
41.32191921774258
 30
0.0
  0
VERTEX
  5
20F
330
203
100
AcDbEntity
  8
Visible (ANSI)
100
AcDbVertex
100
AcDb2dVertex
 10
125.3656460910581
 20
41.3136080950867
 30
0.0
  0
VERTEX
  5
210
330
203
100
AcDbEntity
  8
Visible (ANSI)
100
AcDbVertex
100
AcDb2dVertex
 10
125.372132578259
 20
41.30570428452553
 30
0.0
  0
VERTEX
  5
211
330
203
100
AcDbEntity
  8
Visible (ANSI)
100
AcDbVertex
100
AcDb2dVertex
 10
125.3791221145819
 20
41.29824163340138
 30
0.0
  0
VERTEX
  5
212
330
203
100
AcDbEntity
  8
Visible (ANSI)
100
AcDbVertex
100
AcDb2dVertex
 10
125.3865847627728
 20
41.29125209707843
 30
0.0
  0
VERTEX
  5
213
330
203
100
AcDbEntity
  8
Visible (ANSI)
100
AcDbVertex
100
AcDb2dVertex
 10
125.3944885733339
 20
41.28476560694426
 30
0.0
  0
VERTEX
  5
214
330
203
100
AcDbEntity
  8
Visible (ANSI)
100
AcDbVertex
100
AcDb2dVertex
 10
125.4027997018564
 20
41.27880994134462
 30
0.0
  0
VERTEX
  5
215
330
203
100
AcDbEntity
  8
Visible (ANSI)
100
AcDbVertex
100
AcDb2dVertex
 10
125.4114825498181
 20
41.27341059798496
 30
0.0
  0
VERTEX
  5
216
330
203
100
AcDbEntity
  8
Visible (ANSI)
100
AcDbVertex
100
AcDb2dVertex
 10
125.4204999405817
 20
41.26859070153147
 30
0.0
  0
VERTEX
  5
217
330
203
100
AcDbEntity
  8
Visible (ANSI)
100
AcDbVertex
100
AcDb2dVertex
 10
125.4298132631268
 20
41.26437088994577
 30
0.0
  0
VERTEX
  5
218
330
203
100
AcDbEntity
  8
Visible (ANSI)
100
AcDbVertex
100
AcDb2dVertex
 10
125.4393826333806
 20
41.26076923381908
 30
0.0
  0
VERTEX
  5
219
330
203
100
AcDbEntity
  8
Visible (ANSI)
100
AcDbVertex
100
AcDb2dVertex
 10
125.4491670731499
 20
41.2578011564399
 30
0.0
  0
VERTEX
  5
21A
330
203
100
AcDbEntity
  8
Visible (ANSI)
100
AcDbVertex
100
AcDb2dVertex
 10
125.459124686302
 20
41.25547936687807
 30
0.0
  0
VERTEX
  5
21B
330
203
100
AcDbEntity
  8
Visible (ANSI)
100
AcDbVertex
100
AcDb2dVertex
 10
125.4692128316462
 20
41.25381380727708
 30
0.0
  0
VERTEX
  5
21C
330
203
100
AcDbEntity
  8
Visible (ANSI)
100
AcDbVertex
100
AcDb2dVertex
 10
125.4793883102982
 20
41.25281161011497
 30
0.0
  0
VERTEX
  5
21D
330
203
100
AcDbEntity
  8
Visible (ANSI)
100
AcDbVertex
100
AcDb2dVertex
 10
125.4896075486447
 20
41.25247706687757
 30
0.0
  0
SEQEND
  5
206
330
203
100
AcDbEntity
  8
Visible (ANSI)
  0
LINE
  5
21E
330
6C
100
AcDbEntity
  8
Visible (ANSI)
100
AcDbLine
 10
125.4896075491141
 20
41.37747706687757
 30
0.0
 11
126.2083575491141
 21
41.37747706687757
 31
0.0
  0
LINE
  5
21F
330
6C
100
AcDbEntity
  8
Visible (ANSI)
100
AcDbLine
 10
125.4896075491141
 20
41.37747706687757
 30
0.0
 11
125.4896075491141
 21
41.25247706687757
 31
0.0
  0
POLYLINE
  5
220
330
6C
100
AcDbEntity
  8
Visible (ANSI)
100
AcDb2dPolyline
 66
     1
 10
0.0
 20
0.0
 30
0.0
 70
   128
  0
VERTEX
  5
221
330
220
100
AcDbEntity
  8
Visible (ANSI)
100
AcDbVertex
100
AcDb2dVertex
 10
125.4583575491141
 20
41.40872706453092
 30
0.0
  0
VERTEX
  5
222
330
220
100
AcDbEntity
  8
Visible (ANSI)
100
AcDbVertex
100
AcDb2dVertex
 10
125.4584244577604
 20
41.40668322360822
 30
0.0
  0
VERTEX
  5
224
330
220
100
AcDbEntity
  8
Visible (ANSI)
100
AcDbVertex
100
AcDb2dVertex
 10
125.4586248971986
 20
41.40464812391786
 30
0.0
  0
VERTEX
  5
225
330
220
100
AcDbEntity
  8
Visible (ANSI)
100
AcDbVertex
100
AcDb2dVertex
 10
125.4589580091233
 20
41.40263049495901
 30
0.0
  0
VERTEX
  5
226
330
220
100
AcDbEntity
  8
Visible (ANSI)
100
AcDbVertex
100
AcDb2dVertex
 10
125.4594223670632
 20
41.40063897236525
 30
0.0
  0
VERTEX
  5
227
330
220
100
AcDbEntity
  8
Visible (ANSI)
100
AcDbVertex
100
AcDb2dVertex
 10
125.460015982539
 20
41.39868208617137
 30
0.0
  0
VERTEX
  5
228
330
220
100
AcDbEntity
  8
Visible (ANSI)
100
AcDbVertex
100
AcDb2dVertex
 10
125.460736313801
 20
41.39676821388059
 30
0.0
  0
VERTEX
  5
229
330
220
100
AcDbEntity
  8
Visible (ANSI)
100
AcDbVertex
100
AcDb2dVertex
 10
125.4615802761182
 20
41.39490554526496
 30
0.0
  0
VERTEX
  5
22A
330
220
100
AcDbEntity
  8
Visible (ANSI)
100
AcDbVertex
100
AcDb2dVertex
 10
125.4625442551155
 20
41.39310207063219
 30
0.0
  0
VERTEX
  5
22B
330
220
100
AcDbEntity
  8
Visible (ANSI)
100
AcDbVertex
100
AcDb2dVertex
 10
125.4636241236408
 20
41.39136549869322
 30
0.0
  0
VERTEX
  5
22C
330
220
100
AcDbEntity
  8
Visible (ANSI)
100
AcDbVertex
100
AcDb2dVertex
 10
125.4648152569807
 20
41.38970326829544
 30
0.0
  0
VERTEX
  5
22D
330
220
100
AcDbEntity
  8
Visible (ANSI)
100
AcDbVertex
100
AcDb2dVertex
 10
125.4661125548609
 20
41.38812251322312
 30
0.0
  0
VERTEX
  5
22E
330
220
100
AcDbEntity
  8
Visible (ANSI)
100
AcDbVertex
100
AcDb2dVertex
 10
125.4675104619788
 20
41.386629980065
 30
0.0
  0
VERTEX
  5
22F
330
220
100
AcDbEntity
  8
Visible (ANSI)
100
AcDbVertex
100
AcDb2dVertex
 10
125.4690029922037
 20
41.38523207514705
 30
0.0
  0
VERTEX
  5
230
330
220
100
AcDbEntity
  8
Visible (ANSI)
100
AcDbVertex
100
AcDb2dVertex
 10
125.4705837546092
 20
41.38393477066695
 30
0.0
  0
VERTEX
  5
231
330
220
100
AcDbEntity
  8
Visible (ANSI)
100
AcDbVertex
100
AcDb2dVertex
 10
125.4722459798737
 20
41.38274363989366
 30
0.0
  0
VERTEX
  5
232
330
220
100
AcDbEntity
  8
Visible (ANSI)
100
AcDbVertex
100
AcDb2dVertex
 10
125.4739825488794
 20
41.38166377503502
 30
0.0
  0
VERTEX
  5
233
330
220
100
AcDbEntity
  8
Visible (ANSI)
100
AcDbVertex
100
AcDb2dVertex
 10
125.4757860279121
 20
41.38069979897095
 30
0.0
  0
VERTEX
  5
234
330
220
100
AcDbEntity
  8
Visible (ANSI)
100
AcDbVertex
100
AcDb2dVertex
 10
125.4776486921278
 20
41.37985583005389
 30
0.0
  0
VERTEX
  5
235
330
220
100
AcDbEntity
  8
Visible (ANSI)
100
AcDbVertex
100
AcDb2dVertex
 10
125.4795625658852
 20
41.37913550557514
 30
0.0
  0
VERTEX
  5
236
330
220
100
AcDbEntity
  8
Visible (ANSI)
100
AcDbVertex
100
AcDb2dVertex
 10
125.4815194535458
 20
41.37854188789932
 30
0.0
  0
VERTEX
  5
237
330
220
100
AcDbEntity
  8
Visible (ANSI)
100
AcDbVertex
100
AcDb2dVertex
 10
125.4835109761395
 20
41.37807752313037
 30
0.0
  0
VERTEX
  5
238
330
220
100
AcDbEntity
  8
Visible (ANSI)
100
AcDbVertex
100
AcDb2dVertex
 10
125.4855286050984
 20
41.37774441764511
 30
0.0
  0
VERTEX
  5
239
330
220
100
AcDbEntity
  8
Visible (ANSI)
100
AcDbVertex
100
AcDb2dVertex
 10
125.4875637018554
 20
41.37754397942725
 30
0.0
  0
VERTEX
  5
23A
330
220
100
AcDbEntity
  8
Visible (ANSI)
100
AcDbVertex
100
AcDb2dVertex
 10
125.4896075486447
 20
41.37747706500025
 30
0.0
  0
SEQEND
  5
223
330
220
100
AcDbEntity
  8
Visible (ANSI)
  0
LINE
  5
23B
330
6C
100
AcDbEntity
  8
Visible (ANSI)
100
AcDbLine
 10
125.4583575491141
 20
41.40872706687757
 30
0.0
 11
125.4532321472407
 21
41.40872706687757
 31
0.0
  0
LINE
  5
23C
330
6C
100
AcDbEntity
  8
Visible (ANSI)
100
AcDbLine
 10
125.4532321472407
 20
41.40872706687757
 30
0.0
 11
125.333357549114
 21
41.40872706687757
 31
0.0
  0
LINE
  5
23D
330
6C
100
AcDbEntity
  8
Visible (ANSI)
100
AcDbLine
 10
125.4896075491141
 20
41.25247706687757
 30
0.0
 11
126.2083575491141
 21
41.25247706687757
 31
0.0
  0
LINE
  5
23E
330
6C
100
AcDbEntity
  8
Visible (ANSI)
100
AcDbLine
 10
126.2083575491141
 20
41.37747706687757
 30
0.0
 11
126.2083575491141
 21
41.25247706687757
 31
0.0
  0
POLYLINE
  5
23F
330
6C
100
AcDbEntity
  8
Visible (ANSI)
100
AcDb2dPolyline
 66
     1
 10
0.0
 20
0.0
 30
0.0
 70
   128
  0
VERTEX
  5
240
330
23F
100
AcDbEntity
  8
Visible (ANSI)
100
AcDbVertex
100
AcDb2dVertex
 10
125.3333575509914
 20
79.0962263459899
 30
0.0
  0
VERTEX
  5
241
330
23F
100
AcDbEntity
  8
Visible (ANSI)
100
AcDbVertex
100
AcDb2dVertex
 10
125.3336920879268
 20
79.0938474166715
 30
0.0
  0
VERTEX
  5
243
330
23F
100
AcDbEntity
  8
Visible (ANSI)
100
AcDbVertex
100
AcDb2dVertex
 10
125.3346942907493
 20
79.09146548365446
 30
0.0
  0
VERTEX
  5
244
330
23F
100
AcDbEntity
  8
Visible (ANSI)
100
AcDbVertex
100
AcDb2dVertex
 10
125.3363598533752
 20
79.0890835506374
 30
0.0
  0
VERTEX
  5
245
330
23F
100
AcDbEntity
  8
Visible (ANSI)
100
AcDbVertex
100
AcDb2dVertex
 10
125.3386816420204
 20
79.086704621319
 30
0.0
  0
VERTEX
  5
246
330
23F
100
AcDbEntity
  8
Visible (ANSI)
100
AcDbVertex
100
AcDb2dVertex
 10
125.3416497186662
 20
79.08432268830196
 30
0.0
  0
VERTEX
  5
247
330
23F
100
AcDbEntity
  8
Visible (ANSI)
100
AcDbVertex
100
AcDb2dVertex
 10
125.3452513762596
 20
79.08194375898355
 30
0.0
  0
VERTEX
  5
248
330
23F
100
AcDbEntity
  8
Visible (ANSI)
100
AcDbVertex
100
AcDb2dVertex
 10
125.3494711856453
 20
79.07956182596651
 30
0.0
  0
VERTEX
  5
249
330
23F
100
AcDbEntity
  8
Visible (ANSI)
100
AcDbVertex
100
AcDb2dVertex
 10
125.3542910776989
 20
79.07717989294946
 30
0.0
  0
VERTEX
  5
24A
330
23F
100
AcDbEntity
  8
Visible (ANSI)
100
AcDbVertex
100
AcDb2dVertex
 10
125.3596904254585
 20
79.07480096363106
 30
0.0
  0
VERTEX
  5
24B
330
23F
100
AcDbEntity
  8
Visible (ANSI)
100
AcDbVertex
100
AcDb2dVertex
 10
125.3656460910581
 20
79.07241903061403
 30
0.0
  0
VERTEX
  5
24C
330
23F
100
AcDbEntity
  8
Visible (ANSI)
100
AcDbVertex
100
AcDb2dVertex
 10
125.372132578259
 20
79.07004010129561
 30
0.0
  0
VERTEX
  5
24D
330
23F
100
AcDbEntity
  8
Visible (ANSI)
100
AcDbVertex
100
AcDb2dVertex
 10
125.3791221145819
 20
79.06765816827858
 30
0.0
  0
VERTEX
  5
24E
330
23F
100
AcDbEntity
  8
Visible (ANSI)
100
AcDbVertex
100
AcDb2dVertex
 10
125.3865847627728
 20
79.06527623526155
 30
0.0
  0
VERTEX
  5
24F
330
23F
100
AcDbEntity
  8
Visible (ANSI)
100
AcDbVertex
100
AcDb2dVertex
 10
125.394488573334
 20
79.06289730594314
 30
0.0
  0
VERTEX
  5
250
330
23F
100
AcDbEntity
  8
Visible (ANSI)
100
AcDbVertex
100
AcDb2dVertex
 10
125.4027997018564
 20
79.06051537292611
 30
0.0
  0
VERTEX
  5
251
330
23F
100
AcDbEntity
  8
Visible (ANSI)
100
AcDbVertex
100
AcDb2dVertex
 10
125.4114825498181
 20
79.05813343990906
 30
0.0
  0
VERTEX
  5
252
330
23F
100
AcDbEntity
  8
Visible (ANSI)
100
AcDbVertex
100
AcDb2dVertex
 10
125.4204999405818
 20
79.05575451059066
 30
0.0
  0
VERTEX
  5
253
330
23F
100
AcDbEntity
  8
Visible (ANSI)
100
AcDbVertex
100
AcDb2dVertex
 10
125.4298132631268
 20
79.05337257757363
 30
0.0
  0
VERTEX
  5
254
330
23F
100
AcDbEntity
  8
Visible (ANSI)
100
AcDbVertex
100
AcDb2dVertex
 10
125.4393826333806
 20
79.05099364825521
 30
0.0
  0
VERTEX
  5
255
330
23F
100
AcDbEntity
  8
Visible (ANSI)
100
AcDbVertex
100
AcDb2dVertex
 10
125.44916707315
 20
79.04861171523818
 30
0.0
  0
VERTEX
  5
256
330
23F
100
AcDbEntity
  8
Visible (ANSI)
100
AcDbVertex
100
AcDb2dVertex
 10
125.4591246863021
 20
79.04622978222113
 30
0.0
  0
VERTEX
  5
257
330
23F
100
AcDbEntity
  8
Visible (ANSI)
100
AcDbVertex
100
AcDb2dVertex
 10
125.4692128316463
 20
79.04385085290272
 30
0.0
  0
VERTEX
  5
258
330
23F
100
AcDbEntity
  8
Visible (ANSI)
100
AcDbVertex
100
AcDb2dVertex
 10
125.4793883102983
 20
79.04146891988569
 30
0.0
  0
VERTEX
  5
259
330
23F
100
AcDbEntity
  8
Visible (ANSI)
100
AcDbVertex
100
AcDb2dVertex
 10
125.4896075486448
 20
79.03908999056728
 30
0.0
  0
SEQEND
  5
242
330
23F
100
AcDbEntity
  8
Visible (ANSI)
  0
POLYLINE
  5
25A
330
6C
100
AcDbEntity
  8
Visible (ANSI)
100
AcDb2dPolyline
 66
     1
 10
0.0
 20
0.0
 30
0.0
 70
   128
  0
VERTEX
  5
25B
330
25A
100
AcDbEntity
  8
Visible (ANSI)
100
AcDbVertex
100
AcDb2dVertex
 10
125.4896075486448
 20
41.46586540286396
 30
0.0
  0
VERTEX
  5
25C
330
25A
100
AcDbEntity
  8
Visible (ANSI)
100
AcDbVertex
100
AcDb2dVertex
 10
125.4793883102983
 20
41.4634846431667
 30
0.0
  0
VERTEX
  5
25E
330
25A
100
AcDbEntity
  8
Visible (ANSI)
100
AcDbVertex
100
AcDb2dVertex
 10
125.4692128316463
 20
41.46110388346944
 30
0.0
  0
VERTEX
  5
25F
330
25A
100
AcDbEntity
  8
Visible (ANSI)
100
AcDbVertex
100
AcDb2dVertex
 10
125.4591246863021
 20
41.45872312377218
 30
0.0
  0
VERTEX
  5
260
330
25A
100
AcDbEntity
  8
Visible (ANSI)
100
AcDbVertex
100
AcDb2dVertex
 10
125.44916707315
 20
41.45634236407492
 30
0.0
  0
VERTEX
  5
261
330
25A
100
AcDbEntity
  8
Visible (ANSI)
100
AcDbVertex
100
AcDb2dVertex
 10
125.4393826333806
 20
41.45396158091126
 30
0.0
  0
VERTEX
  5
262
330
25A
100
AcDbEntity
  8
Visible (ANSI)
100
AcDbVertex
100
AcDb2dVertex
 10
125.4298132631268
 20
41.451580821214
 30
0.0
  0
VERTEX
  5
263
330
25A
100
AcDbEntity
  8
Visible (ANSI)
100
AcDbVertex
100
AcDb2dVertex
 10
125.4204999405818
 20
41.44920006151674
 30
0.0
  0
VERTEX
  5
264
330
25A
100
AcDbEntity
  8
Visible (ANSI)
100
AcDbVertex
100
AcDb2dVertex
 10
125.4114825498181
 20
41.44681930181948
 30
0.0
  0
VERTEX
  5
265
330
25A
100
AcDbEntity
  8
Visible (ANSI)
100
AcDbVertex
100
AcDb2dVertex
 10
125.4027997018564
 20
41.44443853038903
 30
0.0
  0
VERTEX
  5
266
330
25A
100
AcDbEntity
  8
Visible (ANSI)
100
AcDbVertex
100
AcDb2dVertex
 10
125.394488573334
 20
41.44205777069177
 30
0.0
  0
VERTEX
  5
267
330
25A
100
AcDbEntity
  8
Visible (ANSI)
100
AcDbVertex
100
AcDb2dVertex
 10
125.3865847627728
 20
41.43967701099451
 30
0.0
  0
VERTEX
  5
268
330
25A
100
AcDbEntity
  8
Visible (ANSI)
100
AcDbVertex
100
AcDb2dVertex
 10
125.3791221145819
 20
41.43729623956404
 30
0.0
  0
VERTEX
  5
269
330
25A
100
AcDbEntity
  8
Visible (ANSI)
100
AcDbVertex
100
AcDb2dVertex
 10
125.372132578259
 20
41.43491547986678
 30
0.0
  0
VERTEX
  5
26A
330
25A
100
AcDbEntity
  8
Visible (ANSI)
100
AcDbVertex
100
AcDb2dVertex
 10
125.3656460910581
 20
41.43253470843632
 30
0.0
  0
VERTEX
  5
26B
330
25A
100
AcDbEntity
  8
Visible (ANSI)
100
AcDbVertex
100
AcDb2dVertex
 10
125.3596904254585
 20
41.43015394873906
 30
0.0
  0
VERTEX
  5
26C
330
25A
100
AcDbEntity
  8
Visible (ANSI)
100
AcDbVertex
100
AcDb2dVertex
 10
125.3542910776989
 20
41.4277731773086
 30
0.0
  0
VERTEX
  5
26D
330
25A
100
AcDbEntity
  8
Visible (ANSI)
100
AcDbVertex
100
AcDb2dVertex
 10
125.3494711856453
 20
41.42539241761134
 30
0.0
  0
VERTEX
  5
26E
330
25A
100
AcDbEntity
  8
Visible (ANSI)
100
AcDbVertex
100
AcDb2dVertex
 10
125.3452513762596
 20
41.42301165791407
 30
0.0
  0
VERTEX
  5
26F
330
25A
100
AcDbEntity
  8
Visible (ANSI)
100
AcDbVertex
100
AcDb2dVertex
 10
125.3416497186662
 20
41.42063088648362
 30
0.0
  0
VERTEX
  5
270
330
25A
100
AcDbEntity
  8
Visible (ANSI)
100
AcDbVertex
100
AcDb2dVertex
 10
125.3386816420204
 20
41.41825012678636
 30
0.0
  0
VERTEX
  5
271
330
25A
100
AcDbEntity
  8
Visible (ANSI)
100
AcDbVertex
100
AcDb2dVertex
 10
125.3363598533752
 20
41.4158693553559
 30
0.0
  0
VERTEX
  5
272
330
25A
100
AcDbEntity
  8
Visible (ANSI)
100
AcDbVertex
100
AcDb2dVertex
 10
125.3346942907493
 20
41.41348859565864
 30
0.0
  0
VERTEX
  5
273
330
25A
100
AcDbEntity
  8
Visible (ANSI)
100
AcDbVertex
100
AcDb2dVertex
 10
125.3336920879268
 20
41.41110783596139
 30
0.0
  0
VERTEX
  5
274
330
25A
100
AcDbEntity
  8
Visible (ANSI)
100
AcDbVertex
100
AcDb2dVertex
 10
125.3333575509914
 20
41.40872706453092
 30
0.0
  0
SEQEND
  5
25D
330
25A
100
AcDbEntity
  8
Visible (ANSI)
  0
LINE
  5
275
330
6C
100
AcDbEntity
  8
Visible (ANSI)
100
AcDbLine
 10
126.2083575491141
 20
41.4658654145259
 30
0.0
 11
125.4896075491141
 21
41.4658654145259
 31
0.0
  0
POLYLINE
  5
276
330
6C
100
AcDbEntity
  8
Visible (ANSI)
100
AcDb2dPolyline
 66
     1
 10
0.0
 20
0.0
 30
0.0
 70
   128
  0
VERTEX
  5
277
330
276
100
AcDbEntity
  8
Visible (ANSI)
100
AcDbVertex
100
AcDb2dVertex
 10
125.4583575491141
 20
41.40872706453092
 30
0.0
  0
VERTEX
  5
278
330
276
100
AcDbEntity
  8
Visible (ANSI)
100
AcDbVertex
100
AcDb2dVertex
 10
125.4584244577604
 20
41.41110783596139
 30
0.0
  0
VERTEX
  5
27A
330
276
100
AcDbEntity
  8
Visible (ANSI)
100
AcDbVertex
100
AcDb2dVertex
 10
125.4586248971986
 20
41.41348859565864
 30
0.0
  0
VERTEX
  5
27B
330
276
100
AcDbEntity
  8
Visible (ANSI)
100
AcDbVertex
100
AcDb2dVertex
 10
125.4589580091233
 20
41.4158693553559
 30
0.0
  0
VERTEX
  5
27C
330
276
100
AcDbEntity
  8
Visible (ANSI)
100
AcDbVertex
100
AcDb2dVertex
 10
125.4594223670632
 20
41.41825012678636
 30
0.0
  0
VERTEX
  5
27D
330
276
100
AcDbEntity
  8
Visible (ANSI)
100
AcDbVertex
100
AcDb2dVertex
 10
125.460015982539
 20
41.42063088648362
 30
0.0
  0
VERTEX
  5
27E
330
276
100
AcDbEntity
  8
Visible (ANSI)
100
AcDbVertex
100
AcDb2dVertex
 10
125.4607363138011
 20
41.42301165791407
 30
0.0
  0
VERTEX
  5
27F
330
276
100
AcDbEntity
  8
Visible (ANSI)
100
AcDbVertex
100
AcDb2dVertex
 10
125.4615802761182
 20
41.42539241761134
 30
0.0
  0
VERTEX
  5
280
330
276
100
AcDbEntity
  8
Visible (ANSI)
100
AcDbVertex
100
AcDb2dVertex
 10
125.4625442551156
 20
41.4277731773086
 30
0.0
  0
VERTEX
  5
281
330
276
100
AcDbEntity
  8
Visible (ANSI)
100
AcDbVertex
100
AcDb2dVertex
 10
125.4636241236408
 20
41.43015394873906
 30
0.0
  0
VERTEX
  5
282
330
276
100
AcDbEntity
  8
Visible (ANSI)
100
AcDbVertex
100
AcDb2dVertex
 10
125.4648152569807
 20
41.43253470843632
 30
0.0
  0
VERTEX
  5
283
330
276
100
AcDbEntity
  8
Visible (ANSI)
100
AcDbVertex
100
AcDb2dVertex
 10
125.4661125548609
 20
41.43491547986678
 30
0.0
  0
VERTEX
  5
284
330
276
100
AcDbEntity
  8
Visible (ANSI)
100
AcDbVertex
100
AcDb2dVertex
 10
125.4675104619789
 20
41.43729623956404
 30
0.0
  0
VERTEX
  5
285
330
276
100
AcDbEntity
  8
Visible (ANSI)
100
AcDbVertex
100
AcDb2dVertex
 10
125.4690029922037
 20
41.43967701099451
 30
0.0
  0
VERTEX
  5
286
330
276
100
AcDbEntity
  8
Visible (ANSI)
100
AcDbVertex
100
AcDb2dVertex
 10
125.4705837546092
 20
41.44205777069177
 30
0.0
  0
VERTEX
  5
287
330
276
100
AcDbEntity
  8
Visible (ANSI)
100
AcDbVertex
100
AcDb2dVertex
 10
125.4722459798737
 20
41.44443853038903
 30
0.0
  0
VERTEX
  5
288
330
276
100
AcDbEntity
  8
Visible (ANSI)
100
AcDbVertex
100
AcDb2dVertex
 10
125.4739825488794
 20
41.44681930181948
 30
0.0
  0
VERTEX
  5
289
330
276
100
AcDbEntity
  8
Visible (ANSI)
100
AcDbVertex
100
AcDb2dVertex
 10
125.4757860279121
 20
41.44920006151674
 30
0.0
  0
VERTEX
  5
28A
330
276
100
AcDbEntity
  8
Visible (ANSI)
100
AcDbVertex
100
AcDb2dVertex
 10
125.4776486921278
 20
41.451580821214
 30
0.0
  0
VERTEX
  5
28B
330
276
100
AcDbEntity
  8
Visible (ANSI)
100
AcDbVertex
100
AcDb2dVertex
 10
125.4795625658853
 20
41.45396158091126
 30
0.0
  0
VERTEX
  5
28C
330
276
100
AcDbEntity
  8
Visible (ANSI)
100
AcDbVertex
100
AcDb2dVertex
 10
125.4815194535458
 20
41.45634236407492
 30
0.0
  0
VERTEX
  5
28D
330
276
100
AcDbEntity
  8
Visible (ANSI)
100
AcDbVertex
100
AcDb2dVertex
 10
125.4835109761395
 20
41.45872312377218
 30
0.0
  0
VERTEX
  5
28E
330
276
100
AcDbEntity
  8
Visible (ANSI)
100
AcDbVertex
100
AcDb2dVertex
 10
125.4855286050984
 20
41.46110388346944
 30
0.0
  0
VERTEX
  5
28F
330
276
100
AcDbEntity
  8
Visible (ANSI)
100
AcDbVertex
100
AcDb2dVertex
 10
125.4875637018554
 20
41.4634846431667
 30
0.0
  0
VERTEX
  5
290
330
276
100
AcDbEntity
  8
Visible (ANSI)
100
AcDbVertex
100
AcDb2dVertex
 10
125.4896075486447
 20
41.46586540286396
 30
0.0
  0
SEQEND
  5
279
330
276
100
AcDbEntity
  8
Visible (ANSI)
  0
POLYLINE
  5
291
330
6C
100
AcDbEntity
  8
Visible (ANSI)
100
AcDb2dPolyline
 66
     1
 10
0.0
 20
0.0
 30
0.0
 70
   128
  0
VERTEX
  5
292
330
291
100
AcDbEntity
  8
Visible (ANSI)
100
AcDbVertex
100
AcDb2dVertex
 10
125.4583575491141
 20
79.0962263459899
 30
0.0
  0
VERTEX
  5
293
330
291
100
AcDbEntity
  8
Visible (ANSI)
100
AcDbVertex
100
AcDb2dVertex
 10
125.4584244577604
 20
79.0938474166715
 30
0.0
  0
VERTEX
  5
295
330
291
100
AcDbEntity
  8
Visible (ANSI)
100
AcDbVertex
100
AcDb2dVertex
 10
125.4586248971986
 20
79.09146548365446
 30
0.0
  0
VERTEX
  5
296
330
291
100
AcDbEntity
  8
Visible (ANSI)
100
AcDbVertex
100
AcDb2dVertex
 10
125.4589580091233
 20
79.0890835506374
 30
0.0
  0
VERTEX
  5
297
330
291
100
AcDbEntity
  8
Visible (ANSI)
100
AcDbVertex
100
AcDb2dVertex
 10
125.4594223670632
 20
79.086704621319
 30
0.0
  0
VERTEX
  5
298
330
291
100
AcDbEntity
  8
Visible (ANSI)
100
AcDbVertex
100
AcDb2dVertex
 10
125.460015982539
 20
79.08432268830196
 30
0.0
  0
VERTEX
  5
299
330
291
100
AcDbEntity
  8
Visible (ANSI)
100
AcDbVertex
100
AcDb2dVertex
 10
125.4607363138011
 20
79.08194375898355
 30
0.0
  0
VERTEX
  5
29A
330
291
100
AcDbEntity
  8
Visible (ANSI)
100
AcDbVertex
100
AcDb2dVertex
 10
125.4615802761182
 20
79.07956182596651
 30
0.0
  0
VERTEX
  5
29B
330
291
100
AcDbEntity
  8
Visible (ANSI)
100
AcDbVertex
100
AcDb2dVertex
 10
125.4625442551156
 20
79.07717989294946
 30
0.0
  0
VERTEX
  5
29C
330
291
100
AcDbEntity
  8
Visible (ANSI)
100
AcDbVertex
100
AcDb2dVertex
 10
125.4636241236408
 20
79.07480096363106
 30
0.0
  0
VERTEX
  5
29D
330
291
100
AcDbEntity
  8
Visible (ANSI)
100
AcDbVertex
100
AcDb2dVertex
 10
125.4648152569807
 20
79.07241903061403
 30
0.0
  0
VERTEX
  5
29E
330
291
100
AcDbEntity
  8
Visible (ANSI)
100
AcDbVertex
100
AcDb2dVertex
 10
125.4661125548609
 20
79.07004010129561
 30
0.0
  0
VERTEX
  5
29F
330
291
100
AcDbEntity
  8
Visible (ANSI)
100
AcDbVertex
100
AcDb2dVertex
 10
125.4675104619789
 20
79.06765816827858
 30
0.0
  0
VERTEX
  5
2A0
330
291
100
AcDbEntity
  8
Visible (ANSI)
100
AcDbVertex
100
AcDb2dVertex
 10
125.4690029922037
 20
79.06527623526155
 30
0.0
  0
VERTEX
  5
2A1
330
291
100
AcDbEntity
  8
Visible (ANSI)
100
AcDbVertex
100
AcDb2dVertex
 10
125.4705837546092
 20
79.06289730594314
 30
0.0
  0
VERTEX
  5
2A2
330
291
100
AcDbEntity
  8
Visible (ANSI)
100
AcDbVertex
100
AcDb2dVertex
 10
125.4722459798737
 20
79.06051537292611
 30
0.0
  0
VERTEX
  5
2A3
330
291
100
AcDbEntity
  8
Visible (ANSI)
100
AcDbVertex
100
AcDb2dVertex
 10
125.4739825488794
 20
79.05813343990906
 30
0.0
  0
VERTEX
  5
2A4
330
291
100
AcDbEntity
  8
Visible (ANSI)
100
AcDbVertex
100
AcDb2dVertex
 10
125.4757860279121
 20
79.05575451059066
 30
0.0
  0
VERTEX
  5
2A5
330
291
100
AcDbEntity
  8
Visible (ANSI)
100
AcDbVertex
100
AcDb2dVertex
 10
125.4776486921278
 20
79.05337257757363
 30
0.0
  0
VERTEX
  5
2A6
330
291
100
AcDbEntity
  8
Visible (ANSI)
100
AcDbVertex
100
AcDb2dVertex
 10
125.4795625658853
 20
79.05099364825521
 30
0.0
  0
VERTEX
  5
2A7
330
291
100
AcDbEntity
  8
Visible (ANSI)
100
AcDbVertex
100
AcDb2dVertex
 10
125.4815194535458
 20
79.04861171523818
 30
0.0
  0
VERTEX
  5
2A8
330
291
100
AcDbEntity
  8
Visible (ANSI)
100
AcDbVertex
100
AcDb2dVertex
 10
125.4835109761395
 20
79.04622978222113
 30
0.0
  0
VERTEX
  5
2A9
330
291
100
AcDbEntity
  8
Visible (ANSI)
100
AcDbVertex
100
AcDb2dVertex
 10
125.4855286050984
 20
79.04385085290272
 30
0.0
  0
VERTEX
  5
2AA
330
291
100
AcDbEntity
  8
Visible (ANSI)
100
AcDbVertex
100
AcDb2dVertex
 10
125.4875637018554
 20
79.04146891988569
 30
0.0
  0
VERTEX
  5
2AB
330
291
100
AcDbEntity
  8
Visible (ANSI)
100
AcDbVertex
100
AcDb2dVertex
 10
125.4896075486447
 20
79.03908999056728
 30
0.0
  0
SEQEND
  5
294
330
291
100
AcDbEntity
  8
Visible (ANSI)
  0
LINE
  5
2AC
330
6C
100
AcDbEntity
  8
Visible (ANSI)
100
AcDbLine
 10
125.4583575491141
 20
79.09622706687756
 30
0.0
 11
125.4532321472407
 21
79.09622706687757
 31
0.0
  0
LINE
  5
2AD
330
6C
100
AcDbEntity
  8
Visible (ANSI)
100
AcDbLine
 10
125.4532321472407
 20
79.09622706687757
 30
0.0
 11
125.333357549114
 21
79.09622706687756
 31
0.0
  0
LINE
  5
2AE
330
6C
100
AcDbEntity
  8
Visible (ANSI)
100
AcDbLine
 10
125.4896075491141
 20
79.03908871922924
 30
0.0
 11
126.2083575491141
 21
79.03908871922924
 31
0.0
  0
POLYLINE
  5
2AF
330
6C
100
AcDbEntity
  8
Visible (ANSI)
100
AcDb2dPolyline
 66
     1
 10
0.0
 20
0.0
 30
0.0
 70
   128
  0
VERTEX
  5
2B0
330
2AF
100
AcDbEntity
  8
Visible (ANSI)
100
AcDbVertex
100
AcDb2dVertex
 10
125.4896075486447
 20
79.25247574525016
 30
0.0
  0
VERTEX
  5
2B1
330
2AF
100
AcDbEntity
  8
Visible (ANSI)
100
AcDbVertex
100
AcDb2dVertex
 10
125.4793883102982
 20
79.25214233470176
 30
0.0
  0
VERTEX
  5
2B3
330
2AF
100
AcDbEntity
  8
Visible (ANSI)
100
AcDbVertex
100
AcDb2dVertex
 10
125.4692128316462
 20
79.25113909935787
 30
0.0
  0
VERTEX
  5
2B4
330
2AF
100
AcDbEntity
  8
Visible (ANSI)
100
AcDbVertex
100
AcDb2dVertex
 10
125.459124686302
 20
79.24947505031444
 30
0.0
  0
VERTEX
  5
2B5
330
2AF
100
AcDbEntity
  8
Visible (ANSI)
100
AcDbVertex
100
AcDb2dVertex
 10
125.4491670731499
 20
79.2471531912701
 30
0.0
  0
VERTEX
  5
2B6
330
2AF
100
AcDbEntity
  8
Visible (ANSI)
100
AcDbVertex
100
AcDb2dVertex
 10
125.4393826333806
 20
79.24418553701936
 30
0.0
  0
VERTEX
  5
2B7
330
2AF
100
AcDbEntity
  8
Visible (ANSI)
100
AcDbVertex
100
AcDb2dVertex
 10
125.4298132631268
 20
79.24058410235677
 30
0.0
  0
VERTEX
  5
2B8
330
2AF
100
AcDbEntity
  8
Visible (ANSI)
100
AcDbVertex
100
AcDb2dVertex
 10
125.4204999405817
 20
79.2363639057755
 30
0.0
  0
VERTEX
  5
2B9
330
2AF
100
AcDbEntity
  8
Visible (ANSI)
100
AcDbVertex
100
AcDb2dVertex
 10
125.4114825498181
 20
79.23154296946737
 30
0.0
  0
VERTEX
  5
2BA
330
2AF
100
AcDbEntity
  8
Visible (ANSI)
100
AcDbVertex
100
AcDb2dVertex
 10
125.4027997018564
 20
79.22614532302145
 30
0.0
  0
VERTEX
  5
2BB
330
2AF
100
AcDbEntity
  8
Visible (ANSI)
100
AcDbVertex
100
AcDb2dVertex
 10
125.3944885733339
 20
79.22018898862953
 30
0.0
  0
VERTEX
  5
2BC
330
2AF
100
AcDbEntity
  8
Visible (ANSI)
100
AcDbVertex
100
AcDb2dVertex
 10
125.3865847627728
 20
79.21370099957933
 30
0.0
  0
VERTEX
  5
2BD
330
2AF
100
AcDbEntity
  8
Visible (ANSI)
100
AcDbVertex
100
AcDb2dVertex
 10
125.3791221145819
 20
79.20671139285722
 30
0.0
  0
VERTEX
  5
2BE
330
2AF
100
AcDbEntity
  8
Visible (ANSI)
100
AcDbVertex
100
AcDb2dVertex
 10
125.372132578259
 20
79.19925020544948
 30
0.0
  0
VERTEX
  5
2BF
330
2AF
100
AcDbEntity
  8
Visible (ANSI)
100
AcDbVertex
100
AcDb2dVertex
 10
125.3656460910581
 20
79.19134747434251
 30
0.0
  0
VERTEX
  5
2C0
330
2AF
100
AcDbEntity
  8
Visible (ANSI)
100
AcDbVertex
100
AcDb2dVertex
 10
125.3596904254584
 20
79.18303624022124
 30
0.0
  0
VERTEX
  5
2C1
330
2AF
100
AcDbEntity
  8
Visible (ANSI)
100
AcDbVertex
100
AcDb2dVertex
 10
125.3542910776988
 20
79.17435254746933
 30
0.0
  0
VERTEX
  5
2C2
330
2AF
100
AcDbEntity
  8
Visible (ANSI)
100
AcDbVertex
100
AcDb2dVertex
 10
125.3494711856453
 20
79.16533544416902
 30
0.0
  0
VERTEX
  5
2C3
330
2AF
100
AcDbEntity
  8
Visible (ANSI)
100
AcDbVertex
100
AcDb2dVertex
 10
125.3452513762596
 20
79.1560209747039
 30
0.0
  0
VERTEX
  5
2C4
330
2AF
100
AcDbEntity
  8
Visible (ANSI)
100
AcDbVertex
100
AcDb2dVertex
 10
125.3416497186662
 20
79.14645119085486
 30
0.0
  0
VERTEX
  5
2C5
330
2AF
100
AcDbEntity
  8
Visible (ANSI)
100
AcDbVertex
100
AcDb2dVertex
 10
125.3386816420204
 20
79.13666814440279
 30
0.0
  0
VERTEX
  5
2C6
330
2AF
100
AcDbEntity
  8
Visible (ANSI)
100
AcDbVertex
100
AcDb2dVertex
 10
125.3363598533752
 20
79.12671088342989
 30
0.0
  0
VERTEX
  5
2C7
330
2AF
100
AcDbEntity
  8
Visible (ANSI)
100
AcDbVertex
100
AcDb2dVertex
 10
125.3346942907493
 20
79.11662145971712
 30
0.0
  0
VERTEX
  5
2C8
330
2AF
100
AcDbEntity
  8
Visible (ANSI)
100
AcDbVertex
100
AcDb2dVertex
 10
125.3336920879268
 20
79.10644492874395
 30
0.0
  0
VERTEX
  5
2C9
330
2AF
100
AcDbEntity
  8
Visible (ANSI)
100
AcDbVertex
100
AcDb2dVertex
 10
125.3333575509914
 20
79.0962263459899
 30
0.0
  0
SEQEND
  5
2B2
330
2AF
100
AcDbEntity
  8
Visible (ANSI)
  0
LINE
  5
2CA
330
6C
100
AcDbEntity
  8
Visible (ANSI)
100
AcDbLine
 10
125.4896075491141
 20
79.12747706687757
 30
0.0
 11
126.2083575491141
 21
79.12747706687757
 31
0.0
  0
LINE
  5
2CB
330
6C
100
AcDbEntity
  8
Visible (ANSI)
100
AcDbLine
 10
126.2083575491141
 20
79.25247706687757
 30
0.0
 11
125.4896075491141
 21
79.25247706687757
 31
0.0
  0
LINE
  5
2CC
330
6C
100
AcDbEntity
  8
Visible (ANSI)
100
AcDbLine
 10
125.4896075491141
 20
79.12747706687757
 30
0.0
 11
125.4896075491141
 21
79.25247706687757
 31
0.0
  0
LINE
  5
2CD
330
6C
100
AcDbEntity
  8
Visible (ANSI)
100
AcDbLine
 10
126.2083575491141
 20
79.12747706687757
 30
0.0
 11
126.2083575491141
 21
79.25247706687757
 31
0.0
  0
POLYLINE
  5
2CE
330
6C
100
AcDbEntity
  8
Visible (ANSI)
100
AcDb2dPolyline
 66
     1
 10
0.0
 20
0.0
 30
0.0
 70
   128
  0
VERTEX
  5
2CF
330
2CE
100
AcDbEntity
  8
Visible (ANSI)
100
AcDbVertex
100
AcDb2dVertex
 10
125.4583575491141
 20
79.0962263459899
 30
0.0
  0
VERTEX
  5
2D0
330
2CE
100
AcDbEntity
  8
Visible (ANSI)
100
AcDbVertex
100
AcDb2dVertex
 10
125.4584244577604
 20
79.0982718647599
 30
0.0
  0
VERTEX
  5
2D2
330
2CE
100
AcDbEntity
  8
Visible (ANSI)
100
AcDbVertex
100
AcDb2dVertex
 10
125.4586248971986
 20
79.10030536873533
 30
0.0
  0
VERTEX
  5
2D3
330
2CE
100
AcDbEntity
  8
Visible (ANSI)
100
AcDbVertex
100
AcDb2dVertex
 10
125.4589580091233
 20
79.10232385421761
 30
0.0
  0
VERTEX
  5
2D4
330
2CE
100
AcDbEntity
  8
Visible (ANSI)
100
AcDbVertex
100
AcDb2dVertex
 10
125.4594223670632
 20
79.10431530641218
 30
0.0
  0
VERTEX
  5
2D5
330
2CE
100
AcDbEntity
  8
Visible (ANSI)
100
AcDbVertex
100
AcDb2dVertex
 10
125.460015982539
 20
79.10627071422317
 30
0.0
  0
VERTEX
  5
2D6
330
2CE
100
AcDbEntity
  8
Visible (ANSI)
100
AcDbVertex
100
AcDb2dVertex
 10
125.460736313801
 20
79.10818707395188
 30
0.0
  0
VERTEX
  5
2D7
330
2CE
100
AcDbEntity
  8
Visible (ANSI)
100
AcDbVertex
100
AcDb2dVertex
 10
125.4615802761182
 20
79.11004936710516
 30
0.0
  0
VERTEX
  5
2D8
330
2CE
100
AcDbEntity
  8
Visible (ANSI)
100
AcDbVertex
100
AcDb2dVertex
 10
125.4625442551155
 20
79.1118515862858
 30
0.0
  0
VERTEX
  5
2D9
330
2CE
100
AcDbEntity
  8
Visible (ANSI)
100
AcDbVertex
100
AcDb2dVertex
 10
125.4636241236408
 20
79.11358772409643
 30
0.0
  0
VERTEX
  5
2DA
330
2CE
100
AcDbEntity
  8
Visible (ANSI)
100
AcDbVertex
100
AcDb2dVertex
 10
125.4648152569807
 20
79.11525177313986
 30
0.0
  0
VERTEX
  5
2DB
330
2CE
100
AcDbEntity
  8
Visible (ANSI)
100
AcDbVertex
100
AcDb2dVertex
 10
125.4661125548609
 20
79.11683171862152
 30
0.0
  0
VERTEX
  5
2DC
330
2CE
100
AcDbEntity
  8
Visible (ANSI)
100
AcDbVertex
100
AcDb2dVertex
 10
125.4675104619788
 20
79.1183245568428
 30
0.0
  0
VERTEX
  5
2DD
330
2CE
100
AcDbEntity
  8
Visible (ANSI)
100
AcDbVertex
100
AcDb2dVertex
 10
125.4690029922037
 20
79.11972127670778
 30
0.0
  0
VERTEX
  5
2DE
330
2CE
100
AcDbEntity
  8
Visible (ANSI)
100
AcDbVertex
100
AcDb2dVertex
 10
125.4705837546092
 20
79.12101887451782
 30
0.0
  0
VERTEX
  5
2DF
330
2CE
100
AcDbEntity
  8
Visible (ANSI)
100
AcDbVertex
100
AcDb2dVertex
 10
125.4722459798737
 20
79.12221134287564
 30
0.0
  0
VERTEX
  5
2E0
330
2CE
100
AcDbEntity
  8
Visible (ANSI)
100
AcDbVertex
100
AcDb2dVertex
 10
125.4739825488794
 20
79.12328967068539
 30
0.0
  0
VERTEX
  5
2E1
330
2CE
100
AcDbEntity
  8
Visible (ANSI)
100
AcDbVertex
100
AcDb2dVertex
 10
125.4757860279121
 20
79.12425385794701
 30
0.0
  0
VERTEX
  5
2E2
330
2CE
100
AcDbEntity
  8
Visible (ANSI)
100
AcDbVertex
100
AcDb2dVertex
 10
125.4776486921278
 20
79.12509789726326
 30
0.0
  0
VERTEX
  5
2E3
330
2CE
100
AcDbEntity
  8
Visible (ANSI)
100
AcDbVertex
100
AcDb2dVertex
 10
125.4795625658852
 20
79.12581878493551
 30
0.0
  0
VERTEX
  5
2E4
330
2CE
100
AcDbEntity
  8
Visible (ANSI)
100
AcDbVertex
100
AcDb2dVertex
 10
125.4815194535458
 20
79.1264135172651
 30
0.0
  0
VERTEX
  5
2E5
330
2CE
100
AcDbEntity
  8
Visible (ANSI)
100
AcDbVertex
100
AcDb2dVertex
 10
125.4835109761395
 20
79.12687608685479
 30
0.0
  0
VERTEX
  5
2E6
330
2CE
100
AcDbEntity
  8
Visible (ANSI)
100
AcDbVertex
100
AcDb2dVertex
 10
125.4855286050984
 20
79.12720949740322
 30
0.0
  0
VERTEX
  5
2E7
330
2CE
100
AcDbEntity
  8
Visible (ANSI)
100
AcDbVertex
100
AcDb2dVertex
 10
125.4875637018554
 20
79.12741074521171
 30
0.0
  0
VERTEX
  5
2E8
330
2CE
100
AcDbEntity
  8
Visible (ANSI)
100
AcDbVertex
100
AcDb2dVertex
 10
125.4896075486447
 20
79.12747682658167
 30
0.0
  0
SEQEND
  5
2D1
330
2CE
100
AcDbEntity
  8
Visible (ANSI)
  0
LINE
  5
2E9
330
6C
100
AcDbEntity
  8
Visible (ANSI)
100
AcDbLine
 10
125.333357549114
 20
41.40872706687757
 30
0.0
 11
125.333357549114
 21
79.09622706687756
 31
0.0
  0
LINE
  5
2EA
330
6C
100
AcDbEntity
  8
Visible (ANSI)
100
AcDbLine
 10
126.2083575491141
 20
79.03908871922924
 30
0.0
 11
126.2083575491141
 21
41.4658654145259
 31
0.0
  0
MTEXT
  5
2EB
330
6C
100
AcDbEntity
  8
Symbol (ANSI)
100
AcDbMText
 10
121.3783607107346
 20
35.83575606139163
 30
0.0
 40
1.320000016313838
 41
0.0
 46
0.0
 71
     7
 72
     1
  1
SIDE VIEW
  7
Text Style154
 73
     1
 44
1.0
  0
LINE
  5
2EC
330
6C
100
AcDbEntity
  8
Symbol (ANSI)
370
    30
100
AcDbLine
 10
121.3107765368839
 20
35.56228928357985
 30
0.0
 11
130.2309385613443
 21
35.56228928357985
 31
0.0
  0
DIMENSION
  5
2ED
330
6C
100
AcDbEntity
  8
Dimension (ANSI)
100
AcDbDimension
280
     0
  2
*D4
 10
15.47749580143103
 20
79.25247706687759
 30
0.0
 11
15.47749580143101
 21
60.25247706687757
 31
0.0
 70
   160
  1
<>
 42
38.00000000000002
 73
     0
 74
     0
 75
     0
  3
Default (ANSI)
100
AcDbAlignedDimension
 13
34.46009449657911
 23
41.25247706687757
 33
0.0
 14
34.46009449657911
 24
79.25247706687757
 34
0.0
 50
90.0
100
AcDbRotatedDimension
1001
ACAD
1000
DSTYLE
1002
{
1070
   289
1070
     1
1070
   271
1070
     2
1070
   272
1070
     2
1070
    48
1040
0.0
1070
    47
1040
0.0
1002
}
  0
DIMENSION
  5
3D9
330
6C
100
AcDbEntity
  8
Dimension (ANSI)
100
AcDbDimension
280
     0
  2
*D5
 10
29.92197056315448
 20
60.25247706687756
 30
0.0
 11
29.92197056315447
 21
51.18997706687756
 31
0.0
 70
   160
  1
<>
 42
18.125
 73
     0
 74
     0
 75
     0
  3
Default (ANSI)
100
AcDbAlignedDimension
 13
35.12170614893078
 23
42.12747706687756
 33
0.0
 14
35.12170614893078
 24
60.25247706687756
 34
0.0
 50
90.0
100
AcDbRotatedDimension
1001
ACAD
1000
DSTYLE
1002
{
1070
   289
1070
     1
1070
   271
1070
     2
1070
   272
1070
     3
1070
    48
1040
0.0
1070
    47
1040
0.0
1002
}
  0
DIMENSION
  5
4C9
330
6C
100
AcDbEntity
  8
Dimension (ANSI)
100
AcDbDimension
280
     0
  2
*D6
 10
22.9957218969623
 20
78.37747706687757
 30
0.0
 11
22.99572189696228
 21
60.25247706687756
 31
0.0
 70
   160
  1
<>
 42
36.25000000000001
 73
     0
 74
     0
 75
     0
  3
Default (ANSI)
100
AcDbAlignedDimension
 13
35.12170614893078
 23
42.12747706687756
 33
0.0
 14
35.12170614893078
 24
78.37747706687756
 34
0.0
 50
90.0
100
AcDbRotatedDimension
1001
ACAD
1000
DSTYLE
1002
{
1070
   289
1070
     1
1070
   271
1070
     2
1070
   272
1070
     3
1070
    48
1040
0.0
1070
    47
1040
0.0
1002
}
  0
DIMENSION
  5
5B3
330
6C
100
AcDbEntity
  8
Dimension (ANSI)
100
AcDbDimension
280
     0
  2
*D7
 10
90.24670614893079
 20
91.16507297119774
 30
0.0
 11
62.24670614893079
 21
91.16507297119774
 31
0.0
 70
   160
  1
<>
 42
56.0
 73
     0
 74
     0
 75
     0
  3
Default (ANSI)
100
AcDbAlignedDimension
 13
34.24670614893079
 23
79.03908871922924
 33
0.0
 14
90.24670614893079
 24
79.03908871922924
 34
0.0
100
AcDbRotatedDimension
1001
ACAD
1000
DSTYLE
1002
{
1070
   289
1070
     1
1070
    73
1070
     0
1070
    74
1070
     0
1070
   271
1070
     2
1070
   272
1070
     2
1070
    48
1040
0.0
1070
    47
1040
0.0
1002
}
  0
DIMENSION
  5
69D
330
6C
100
AcDbEntity
  8
Dimension (ANSI)
100
AcDbDimension
280
     0
  2
*D8
 10
89.37170614893078
 20
86.92516241283376
 30
0.0
 11
62.24670614893078
 21
86.92516241283376
 31
0.0
 70
   160
  1
<>
 42
54.25
 73
     0
 74
     0
 75
     0
  3
Default (ANSI)
100
AcDbAlignedDimension
 13
35.12170614893078
 23
78.37747706687756
 33
0.0
 14
89.37170614893078
 24
78.37747706687756
 34
0.0
 50
180.0
100
AcDbRotatedDimension
1001
ACAD
1000
DSTYLE
1002
{
1070
   289
1070
     1
1070
    73
1070
     0
1070
    74
1070
     0
1070
   271
1070
     2
1070
   272
1070
     3
1070
    48
1040
0.0
1070
    47
1040
0.0
1002
}
  0
DIMENSION
  5
787
330
6C
100
AcDbEntity
  8
Dimension (ANSI)
100
AcDbDimension
280
     0
  2
*D9
 10
62.24670614893078
 20
82.70818572829488
 30
0.0
 11
48.68420614893079
 21
82.70818572829488
 31
0.0
 70
   160
  1
<>
 42
27.125
 73
     0
 74
     0
 75
     0
  3
Default (ANSI)
100
AcDbAlignedDimension
 13
35.12170614893078
 23
78.37747706687756
 33
0.0
 14
62.24670614893078
 24
78.37747706687756
 34
0.0
 50
180.0
100
AcDbRotatedDimension
1001
ACAD
1000
DSTYLE
1002
{
1070
   289
1070
     1
1070
    73
1070
     0
1070
    74
1070
     0
1070
   271
1070
     2
1070
   272
1070
     3
1070
    48
1040
0.0
1070
    47
1040
0.0
1002
}
  0
DIMENSION
  5
871
330
6C
100
AcDbEntity
  8
Dimension (ANSI)
100
AcDbDimension
280
     0
  2
*D10
 10
126.2083575491141
 20
82.40208336609013
 30
0.0
 11
120.4683525295019
 21
82.40208336609013
 31
0.0
 70
   160
  1
<>{\PTYP.}
 42
0.8749999999999857
 73
     0
 74
     0
 75
     0
  3
Default (ANSI)
100
AcDbAlignedDimension
 13
125.3333575491141
 23
79.09622706687757
 33
0.0
 14
126.2083575491141
 24
79.25247706687757
 34
0.0
100
AcDbRotatedDimension
1001
ACAD
1000
DSTYLE
1002
{
1070
   289
1070
     1
1070
    73
1070
     0
1070
    74
1070
     0
1070
   145
1040
-0.25
1070
   271
1070
     2
1070
   272
1070
     2
1070
    48
1040
0.0
1070
    47
1040
0.0
1002
}
  0
ELLIPSE
  5
96F
330
6C
100
AcDbEntity
  8
Visible (ANSI)
100
AcDbEllipse
 10
162.4093652570576
 20
54.15058583347084
 30
0.0
 11
-0.0965783276981949
 21
0.1677109756264705
 31
0.0
210
0.0
220
0.0
230
1.0
 40
0.5780931159158129
 41
0.0
 42
6.283185307179586
  0
ELLIPSE
  5
970
330
6C
100
AcDbEntity
  8
Visible (ANSI)
100
AcDbEllipse
 10
162.4701322460658
 20
54.18557921512487
 30
0.0
 11
-0.0965783276981935
 21
0.1677109756264681
 31
0.0
210
0.0
220
0.0
230
1.0
 40
0.5780931159158129
 41
0.3187556839588916
 42
2.822836969630836
  0
ELLIPSE
  5
971
330
6C
100
AcDbEntity
  8
Visible (ANSI)
100
AcDbEllipse
 10
175.5958018718431
 20
56.74442564051535
 30
0.0
 11
-0.0965783276981949
 21
0.1677109756264705
 31
0.0
210
0.0
220
0.0
230
1.0
 40
0.5780931159158129
 41
0.0
 42
6.283185307179586
  0
ELLIPSE
  5
972
330
6C
100
AcDbEntity
  8
Visible (ANSI)
100
AcDbEllipse
 10
175.6565688608513
 20
56.77941902216939
 30
0.0
 11
-0.0965783276981953
 21
0.1677109756264712
 31
0.0
210
0.0
220
0.0
230
0.9999999999999998
 40
0.5780931159158129
 41
0.3187556839588481
 42
2.822836969630835
  0
ELLIPSE
  5
973
330
6C
100
AcDbEntity
  8
Visible (ANSI)
100
AcDbEllipse
 10
175.5958018718431
 20
46.55702201454777
 30
0.0
 11
-0.0965783276981949
 21
0.1677109756264705
 31
0.0
210
0.0
220
0.0
230
1.0
 40
0.5780931159158129
 41
0.0
 42
6.283185307179586
  0
ELLIPSE
  5
974
330
6C
100
AcDbEntity
  8
Visible (ANSI)
100
AcDbEllipse
 10
175.6565688608513
 20
46.5920153962018
 30
0.0
 11
-0.0965783276981954
 21
0.1677109756264715
 31
0.0
210
0.0
220
0.0
230
0.9999999999999998
 40
0.5780931159158128
 41
0.3187556839588055
 42
2.822836969630835
  0
ELLIPSE
  5
975
330
6C
100
AcDbEntity
  8
Visible (ANSI)
100
AcDbEllipse
 10
149.2229286422721
 20
61.7441496523939
 30
0.0
 11
-0.0965783276981949
 21
0.1677109756264705
 31
0.0
210
0.0
220
0.0
230
1.0
 40
0.5780931159158129
 41
0.0
 42
6.283185307179586
  0
ELLIPSE
  5
976
330
6C
100
AcDbEntity
  8
Visible (ANSI)
100
AcDbEllipse
 10
149.2836956312803
 20
61.77914303404794
 30
0.0
 11
-0.0965783276981949
 21
0.1677109756264705
 31
0.0
210
0.0
220
0.0
230
1.0
 40
0.5780931159158129
 41
0.3187556839588481
 42
2.822836969630835
  0
ELLIPSE
  5
977
330
6C
100
AcDbEntity
  8
Visible (ANSI)
100
AcDbEllipse
 10
149.2229286422721
 20
71.93155327836149
 30
0.0
 11
-0.0965783276981949
 21
0.1677109756264705
 31
0.0
210
0.0
220
0.0
230
1.0
 40
0.5780931159158129
 41
0.0
 42
6.283185307179586
  0
ELLIPSE
  5
978
330
6C
100
AcDbEntity
  8
Visible (ANSI)
100
AcDbEllipse
 10
149.2836956312803
 20
71.96654666001553
 30
0.0
 11
-0.0965783276981947
 21
0.1677109756264702
 31
0.0
210
0.0
220
0.0
230
1.0
 40
0.5780931159158129
 41
0.3187556839588485
 42
2.822836969630857
  0
ELLIPSE
  5
979
330
6C
100
AcDbEntity
  8
Visible (ANSI)
100
AcDbEllipse
 10
175.5958018718431
 20
66.93182926648294
 30
0.0
 11
-0.0965783276981949
 21
0.1677109756264705
 31
0.0
210
0.0
220
0.0
230
1.0
 40
0.5780931159158129
 41
0.0
 42
6.283185307179586
  0
ELLIPSE
  5
97A
330
6C
100
AcDbEntity
  8
Visible (ANSI)
100
AcDbEllipse
 10
175.6565688608513
 20
66.96682264813697
 30
0.0
 11
-0.0965783276981949
 21
0.1677109756264704
 31
0.0
210
0.0
220
0.0
230
1.0
 40
0.5780931159158129
 41
0.3187556839588481
 42
2.822836969630835
  0
ELLIPSE
  5
97B
330
6C
100
AcDbEntity
  8
Visible (ANSI)
100
AcDbEllipse
 10
162.4093652570576
 20
74.52539308540599
 30
0.0
 11
-0.0965783276981949
 21
0.1677109756264705
 31
0.0
210
0.0
220
0.0
230
1.0
 40
0.5780931159158129
 41
0.0
 42
6.283185307179586
  0
ELLIPSE
  5
97C
330
6C
100
AcDbEntity
  8
Visible (ANSI)
100
AcDbEllipse
 10
162.4701322460658
 20
74.56038646706002
 30
0.0
 11
-0.0965783276981931
 21
0.1677109756264675
 31
0.0
210
0.0
220
0.0
230
0.9999999999999998
 40
0.5780931159158129
 41
0.3187556839588481
 42
2.822836969630857
  0
ELLIPSE
  5
97D
330
6C
100
AcDbEntity
  8
Visible (ANSI)
100
AcDbEllipse
 10
149.2229286422721
 20
82.11895690432907
 30
0.0
 11
-0.0965783276981949
 21
0.1677109756264705
 31
0.0
210
0.0
220
0.0
230
1.0
 40
0.5780931159158129
 41
0.0
 42
6.283185307179586
  0
ELLIPSE
  5
97E
330
6C
100
AcDbEntity
  8
Visible (ANSI)
100
AcDbEllipse
 10
149.2836956312803
 20
82.1539502859831
 30
0.0
 11
-0.0965783276981947
 21
0.1677109756264702
 31
0.0
210
0.0
220
0.0
230
1.0
 40
0.5780931159158129
 41
0.3187556839588485
 42
2.822836969630857
  0
POLYLINE
  5
97F
330
6C
100
AcDbEntity
  8
Visible (ANSI)
100
AcDb2dPolyline
 66
     1
 10
0.0
 20
0.0
 30
0.0
 70
   128
  0
VERTEX
  5
980
330
97F
100
AcDbEntity
  8
Visible (ANSI)
100
AcDbVertex
100
AcDb2dVertex
 10
175.9452119427366
 20
45.9518268892772
 30
0.0
  0
VERTEX
  5
981
330
97F
100
AcDbEntity
  8
Visible (ANSI)
100
AcDbVertex
100
AcDb2dVertex
 10
175.9442180901809
 20
45.94684265294647
 30
0.0
  0
VERTEX
  5
983
330
97F
100
AcDbEntity
  8
Visible (ANSI)
100
AcDbVertex
100
AcDb2dVertex
 10
175.9435458935785
 20
45.9420716080853
 30
0.0
  0
VERTEX
  5
984
330
97F
100
AcDbEntity
  8
Visible (ANSI)
100
AcDbVertex
100
AcDb2dVertex
 10
175.9431991004109
 20
45.93753367221903
 30
0.0
  0
VERTEX
  5
985
330
97F
100
AcDbEntity
  8
Visible (ANSI)
100
AcDbVertex
100
AcDb2dVertex
 10
175.9431713222776
 20
45.93325281208711
 30
0.0
  0
VERTEX
  5
986
330
97F
100
AcDbEntity
  8
Visible (ANSI)
100
AcDbVertex
100
AcDb2dVertex
 10
175.9434577279509
 20
45.92925021108811
 30
0.0
  0
VERTEX
  5
987
330
97F
100
AcDbEntity
  8
Visible (ANSI)
100
AcDbVertex
100
AcDb2dVertex
 10
175.9440492196645
 20
45.92554754701545
 30
0.0
  0
VERTEX
  5
988
330
97F
100
AcDbEntity
  8
Visible (ANSI)
100
AcDbVertex
100
AcDb2dVertex
 10
175.9449441375751
 20
45.92216016277429
 30
0.0
  0
VERTEX
  5
989
330
97F
100
AcDbEntity
  8
Visible (ANSI)
100
AcDbVertex
100
AcDb2dVertex
 10
175.9461307772206
 20
45.91910710405308
 30
0.0
  0
VERTEX
  5
98A
330
97F
100
AcDbEntity
  8
Visible (ANSI)
100
AcDbVertex
100
AcDb2dVertex
 10
175.9475961906828
 20
45.91640597835023
 30
0.0
  0
VERTEX
  5
98B
330
97F
100
AcDbEntity
  8
Visible (ANSI)
100
AcDbVertex
100
AcDb2dVertex
 10
175.9493349706371
 20
45.91406784371575
 30
0.0
  0
VERTEX
  5
98C
330
97F
100
AcDbEntity
  8
Visible (ANSI)
100
AcDbVertex
100
AcDb2dVertex
 10
175.9513318020347
 20
45.91210724634628
 30
0.0
  0
VERTEX
  5
98D
330
97F
100
AcDbEntity
  8
Visible (ANSI)
100
AcDbVertex
100
AcDb2dVertex
 10
175.9535702632645
 20
45.910537117532
 30
0.0
  0
VERTEX
  5
98E
330
97F
100
AcDbEntity
  8
Visible (ANSI)
100
AcDbVertex
100
AcDb2dVertex
 10
175.9560416415752
 20
45.90936367386907
 30
0.0
  0
VERTEX
  5
98F
330
97F
100
AcDbEntity
  8
Visible (ANSI)
100
AcDbVertex
100
AcDb2dVertex
 10
175.9587274847572
 20
45.90859647628785
 30
0.0
  0
VERTEX
  5
990
330
97F
100
AcDbEntity
  8
Visible (ANSI)
100
AcDbVertex
100
AcDb2dVertex
 10
175.9616084194163
 20
45.90824334509728
 30
0.0
  0
VERTEX
  5
991
330
97F
100
AcDbEntity
  8
Visible (ANSI)
100
AcDbVertex
100
AcDb2dVertex
 10
175.9646729806555
 20
45.90830528242303
 30
0.0
  0
VERTEX
  5
992
330
97F
100
AcDbEntity
  8
Visible (ANSI)
100
AcDbVertex
100
AcDb2dVertex
 10
175.9679001751649
 20
45.90878656006249
 30
0.0
  0
VERTEX
  5
993
330
97F
100
AcDbEntity
  8
Visible (ANSI)
100
AcDbVertex
100
AcDb2dVertex
 10
175.9712712327408
 20
45.90968796882219
 30
0.0
  0
VERTEX
  5
994
330
97F
100
AcDbEntity
  8
Visible (ANSI)
100
AcDbVertex
100
AcDb2dVertex
 10
175.9747638438915
 20
45.91101018184913
 30
0.0
  0
VERTEX
  5
995
330
97F
100
AcDbEntity
  8
Visible (ANSI)
100
AcDbVertex
100
AcDb2dVertex
 10
175.9783639284689
 20
45.91274703278235
 30
0.0
  0
VERTEX
  5
996
330
97F
100
AcDbEntity
  8
Visible (ANSI)
100
AcDbVertex
100
AcDb2dVertex
 10
175.9820481988466
 20
45.91489561798229
 30
0.0
  0
VERTEX
  5
997
330
97F
100
AcDbEntity
  8
Visible (ANSI)
100
AcDbVertex
100
AcDb2dVertex
 10
175.9857930051991
 20
45.91745127004384
 30
0.0
  0
VERTEX
  5
998
330
97F
100
AcDbEntity
  8
Visible (ANSI)
100
AcDbVertex
100
AcDb2dVertex
 10
175.9895831878203
 20
45.92040254096693
 30
0.0
  0
VERTEX
  5
999
330
97F
100
AcDbEntity
  8
Visible (ANSI)
100
AcDbVertex
100
AcDb2dVertex
 10
175.9933946436006
 20
45.92374132628832
 30
0.0
  0
SEQEND
  5
982
330
97F
100
AcDbEntity
  8
Visible (ANSI)
  0
POLYLINE
  5
99A
330
6C
100
AcDbEntity
  8
Visible (ANSI)
100
AcDb2dPolyline
 66
     1
 10
0.0
 20
0.0
 30
0.0
 70
   128
  0
VERTEX
  5
99B
330
99A
100
AcDbEntity
  8
Visible (ANSI)
100
AcDbVertex
100
AcDb2dVertex
 10
148.9097929127813
 20
61.48401251214369
 30
0.0
  0
VERTEX
  5
99C
330
99A
100
AcDbEntity
  8
Visible (ANSI)
100
AcDbVertex
100
AcDb2dVertex
 10
148.907476541588
 20
61.4854131178821
 30
0.0
  0
VERTEX
  5
99E
330
99A
100
AcDbEntity
  8
Visible (ANSI)
100
AcDbVertex
100
AcDb2dVertex
 10
148.9052197251153
 20
61.4869127502015
 30
0.0
  0
VERTEX
  5
99F
330
99A
100
AcDbEntity
  8
Visible (ANSI)
100
AcDbVertex
100
AcDb2dVertex
 10
148.9030242715087
 20
61.48851015535182
 30
0.0
  0
VERTEX
  5
9A0
330
99A
100
AcDbEntity
  8
Visible (ANSI)
100
AcDbVertex
100
AcDb2dVertex
 10
148.9008919119107
 20
61.49020397258926
 30
0.0
  0
VERTEX
  5
9A1
330
99A
100
AcDbEntity
  8
Visible (ANSI)
100
AcDbVertex
100
AcDb2dVertex
 10
148.8988243232762
 20
61.49199274401756
 30
0.0
  0
VERTEX
  5
9A2
330
99A
100
AcDbEntity
  8
Visible (ANSI)
100
AcDbVertex
100
AcDb2dVertex
 10
148.8968230998535
 20
61.49387489486726
 30
0.0
  0
VERTEX
  5
9A3
330
99A
100
AcDbEntity
  8
Visible (ANSI)
100
AcDbVertex
100
AcDb2dVertex
 10
148.8948897759993
 20
61.49584876641877
 30
0.0
  0
VERTEX
  5
9A4
330
99A
100
AcDbEntity
  8
Visible (ANSI)
100
AcDbVertex
100
AcDb2dVertex
 10
148.8930258062155
 20
61.49791259131642
 30
0.0
  0
VERTEX
  5
9A5
330
99A
100
AcDbEntity
  8
Visible (ANSI)
100
AcDbVertex
100
AcDb2dVertex
 10
148.8912325765568
 20
61.50006451003005
 30
0.0
  0
VERTEX
  5
9A6
330
99A
100
AcDbEntity
  8
Visible (ANSI)
100
AcDbVertex
100
AcDb2dVertex
 10
148.889511381815
 20
61.50230256101366
 30
0.0
  0
VERTEX
  5
9A7
330
99A
100
AcDbEntity
  8
Visible (ANSI)
100
AcDbVertex
100
AcDb2dVertex
 10
148.8878634597427
 20
61.5046247037109
 30
0.0
  0
VERTEX
  5
9A8
330
99A
100
AcDbEntity
  8
Visible (ANSI)
100
AcDbVertex
100
AcDb2dVertex
 10
148.8862899568296
 20
61.50702879554959
 30
0.0
  0
VERTEX
  5
9A9
330
99A
100
AcDbEntity
  8
Visible (ANSI)
100
AcDbVertex
100
AcDb2dVertex
 10
148.8847919397103
 20
61.50951260510587
 30
0.0
  0
VERTEX
  5
9AA
330
99A
100
AcDbEntity
  8
Visible (ANSI)
100
AcDbVertex
100
AcDb2dVertex
 10
148.8833703951646
 20
61.51207381869905
 30
0.0
  0
VERTEX
  5
9AB
330
99A
100
AcDbEntity
  8
Visible (ANSI)
100
AcDbVertex
100
AcDb2dVertex
 10
148.8820262301171
 20
61.51471004698638
 30
0.0
  0
VERTEX
  5
9AC
330
99A
100
AcDbEntity
  8
Visible (ANSI)
100
AcDbVertex
100
AcDb2dVertex
 10
148.8807602716376
 20
61.51741880517861
 30
0.0
  0
VERTEX
  5
9AD
330
99A
100
AcDbEntity
  8
Visible (ANSI)
100
AcDbVertex
100
AcDb2dVertex
 10
148.8795732498288
 20
61.52019754605228
 30
0.0
  0
VERTEX
  5
9AE
330
99A
100
AcDbEntity
  8
Visible (ANSI)
100
AcDbVertex
100
AcDb2dVertex
 10
148.8784658263465
 20
61.52304363020937
 30
0.0
  0
VERTEX
  5
9AF
330
99A
100
AcDbEntity
  8
Visible (ANSI)
100
AcDbVertex
100
AcDb2dVertex
 10
148.8774385601758
 20
61.52595435912772
 30
0.0
  0
VERTEX
  5
9B0
330
99A
100
AcDbEntity
  8
Visible (ANSI)
100
AcDbVertex
100
AcDb2dVertex
 10
148.8764919418546
 20
61.52892696189509
 30
0.0
  0
VERTEX
  5
9B1
330
99A
100
AcDbEntity
  8
Visible (ANSI)
100
AcDbVertex
100
AcDb2dVertex
 10
148.875626353546
 20
61.53195859200081
 30
0.0
  0
VERTEX
  5
9B2
330
99A
100
AcDbEntity
  8
Visible (ANSI)
100
AcDbVertex
100
AcDb2dVertex
 10
148.87484211467
 20
61.53504635361316
 30
0.0
  0
VERTEX
  5
9B3
330
99A
100
AcDbEntity
  8
Visible (ANSI)
100
AcDbVertex
100
AcDb2dVertex
 10
148.8741394362722
 20
61.53818728189686
 30
0.0
  0
VERTEX
  5
9B4
330
99A
100
AcDbEntity
  8
Visible (ANSI)
100
AcDbVertex
100
AcDb2dVertex
 10
148.8735184552466
 20
61.54137834953142
 30
0.0
  0
SEQEND
  5
99D
330
99A
100
AcDbEntity
  8
Visible (ANSI)
  0
LINE
  5
9B5
330
6C
100
AcDbEntity
  8
Visible (ANSI)
100
AcDbLine
 10
149.2114216911956
 20
61.68640796864685
 30
0.0
 11
149.3266643812802
 21
61.75277182018513
 31
0.0
  0
LINE
  5
9B6
330
6C
100
AcDbEntity
  8
Visible (ANSI)
100
AcDbLine
 10
175.9933937921528
 20
45.94652247439962
 30
0.0
 11
175.9933937921528
 21
45.92374181686729
 31
0.0
  0
LINE
  5
9B7
330
6C
100
AcDbEntity
  8
Visible (ANSI)
100
AcDbLine
 10
175.9933937921528
 20
45.92374181686729
 30
0.0
 11
176.0563662859099
 21
45.96000526423758
 31
0.0
  0
LINE
  5
9B8
330
6C
100
AcDbEntity
  8
Visible (ANSI)
100
AcDbLine
 10
176.0952955746063
 20
45.98242315064442
 30
0.0
 11
176.3428039789499
 21
46.124953761378
 31
0.0
  0
LINE
  5
9B9
330
6C
100
AcDbEntity
  8
Visible (ANSI)
100
AcDbLine
 10
176.3428039789499
 20
46.12541671633166
 30
0.0
 11
176.3428039789499
 21
46.124953761378
 31
0.0
  0
POLYLINE
  5
9BA
330
6C
100
AcDbEntity
  8
Visible (ANSI)
100
AcDb2dPolyline
 66
     1
 10
0.0
 20
0.0
 30
0.0
 70
   128
  0
VERTEX
  5
9BB
330
9BA
100
AcDbEntity
  8
Visible (ANSI)
100
AcDbVertex
100
AcDb2dVertex
 10
175.9452119427366
 20
67.13460023181987
 30
0.0
  0
VERTEX
  5
9BC
330
9BA
100
AcDbEntity
  8
Visible (ANSI)
100
AcDbVertex
100
AcDb2dVertex
 10
175.950342193202
 20
67.1304961126271
 30
0.0
  0
VERTEX
  5
9BE
330
9BA
100
AcDbEntity
  8
Visible (ANSI)
100
AcDbVertex
100
AcDb2dVertex
 10
175.9557765771515
 20
67.1265889885343
 30
0.0
  0
VERTEX
  5
9BF
330
9BA
100
AcDbEntity
  8
Visible (ANSI)
100
AcDbVertex
100
AcDb2dVertex
 10
175.9614896379508
 20
67.12289279636114
 30
0.0
  0
VERTEX
  5
9C0
330
9BA
100
AcDbEntity
  8
Visible (ANSI)
100
AcDbVertex
100
AcDb2dVertex
 10
175.9674603851419
 20
67.11941731781457
 30
0.0
  0
VERTEX
  5
9C1
330
9BA
100
AcDbEntity
  8
Visible (ANSI)
100
AcDbVertex
100
AcDb2dVertex
 10
175.9736606242048
 20
67.11616984826124
 30
0.0
  0
VERTEX
  5
9C2
330
9BA
100
AcDbEntity
  8
Visible (ANSI)
100
AcDbVertex
100
AcDb2dVertex
 10
175.980060814492
 20
67.11316366096397
 30
0.0
  0
VERTEX
  5
9C3
330
9BA
100
AcDbEntity
  8
Visible (ANSI)
100
AcDbVertex
100
AcDb2dVertex
 10
175.9866417736911
 20
67.11039778704931
 30
0.0
  0
VERTEX
  5
9C4
330
9BA
100
AcDbEntity
  8
Visible (ANSI)
100
AcDbVertex
100
AcDb2dVertex
 10
175.9933684340477
 20
67.10788399216735
 30
0.0
  0
VERTEX
  5
9C5
330
9BA
100
AcDbEntity
  8
Visible (ANSI)
100
AcDbVertex
100
AcDb2dVertex
 10
176.0002132455857
 20
67.10562828064971
 30
0.0
  0
VERTEX
  5
9C6
330
9BA
100
AcDbEntity
  8
Visible (ANSI)
100
AcDbVertex
100
AcDb2dVertex
 10
176.0071503580996
 20
67.10362920734521
 30
0.0
  0
VERTEX
  5
9C7
330
9BA
100
AcDbEntity
  8
Visible (ANSI)
100
AcDbVertex
100
AcDb2dVertex
 10
176.0141440136598
 20
67.10189646522178
 30
0.0
  0
VERTEX
  5
9C8
330
9BA
100
AcDbEntity
  8
Visible (ANSI)
100
AcDbVertex
100
AcDb2dVertex
 10
176.0211719498322
 20
67.10042394817566
 30
0.0
  0
VERTEX
  5
9C9
330
9BA
100
AcDbEntity
  8
Visible (ANSI)
100
AcDbVertex
100
AcDb2dVertex
 10
176.02819624975
 20
67.09921841765583
 30
0.0
  0
VERTEX
  5
9CA
330
9BA
100
AcDbEntity
  8
Visible (ANSI)
100
AcDbVertex
100
AcDb2dVertex
 10
176.0351926203803
 20
67.09827766302391
 30
0.0
  0
VERTEX
  5
9CB
330
9BA
100
AcDbEntity
  8
Visible (ANSI)
100
AcDbVertex
100
AcDb2dVertex
 10
176.0421270862713
 20
67.09759892361667
 30
0.0
  0
VERTEX
  5
9CC
330
9BA
100
AcDbEntity
  8
Visible (ANSI)
100
AcDbVertex
100
AcDb2dVertex
 10
176.0489735804682
 20
67.09717896726207
 30
0.0
  0
VERTEX
  5
9CD
330
9BA
100
AcDbEntity
  8
Visible (ANSI)
100
AcDbVertex
100
AcDb2dVertex
 10
176.055699428015
 20
67.09701748350568
 30
0.0
  0
VERTEX
  5
9CE
330
9BA
100
AcDbEntity
  8
Visible (ANSI)
100
AcDbVertex
100
AcDb2dVertex
 10
176.0622800178847
 20
67.09710365027276
 30
0.0
  0
VERTEX
  5
9CF
330
9BA
100
AcDbEntity
  8
Visible (ANSI)
100
AcDbVertex
100
AcDb2dVertex
 10
176.0686813589396
 20
67.09743808744017
 30
0.0
  0
VERTEX
  5
9D0
330
9BA
100
AcDbEntity
  8
Visible (ANSI)
100
AcDbVertex
100
AcDb2dVertex
 10
176.0748806097967
 20
67.09800762849697
 30
0.0
  0
VERTEX
  5
9D1
330
9BA
100
AcDbEntity
  8
Visible (ANSI)
100
AcDbVertex
100
AcDb2dVertex
 10
176.0808515624185
 20
67.09880559652045
 30
0.0
  0
VERTEX
  5
9D2
330
9BA
100
AcDbEntity
  8
Visible (ANSI)
100
AcDbVertex
100
AcDb2dVertex
 10
176.0865647261559
 20
67.09982678776417
 30
0.0
  0
VERTEX
  5
9D3
330
9BA
100
AcDbEntity
  8
Visible (ANSI)
100
AcDbVertex
100
AcDb2dVertex
 10
176.0919991004799
 20
67.10105573228817
 30
0.0
  0
VERTEX
  5
9D4
330
9BA
100
AcDbEntity
  8
Visible (ANSI)
100
AcDbVertex
100
AcDb2dVertex
 10
176.097130582281
 20
67.10248529008061
 30
0.0
  0
SEQEND
  5
9BD
330
9BA
100
AcDbEntity
  8
Visible (ANSI)
  0
POLYLINE
  5
9D5
330
6C
100
AcDbEntity
  8
Visible (ANSI)
100
AcDb2dPolyline
 66
     1
 10
0.0
 20
0.0
 30
0.0
 70
   128
  0
VERTEX
  5
9D6
330
9D5
100
AcDbEntity
  8
Visible (ANSI)
100
AcDbVertex
100
AcDb2dVertex
 10
176.097130582281
 20
45.98394159882195
 30
0.0
  0
VERTEX
  5
9D7
330
9D5
100
AcDbEntity
  8
Visible (ANSI)
100
AcDbVertex
100
AcDb2dVertex
 10
176.09199910048
 20
45.97983679285646
 30
0.0
  0
VERTEX
  5
9D9
330
9D5
100
AcDbEntity
  8
Visible (ANSI)
100
AcDbVertex
100
AcDb2dVertex
 10
176.0865647261559
 20
45.97593091188959
 30
0.0
  0
VERTEX
  5
9DA
330
9D5
100
AcDbEntity
  8
Visible (ANSI)
100
AcDbVertex
100
AcDb2dVertex
 10
176.0808515624185
 20
45.97223447247279
 30
0.0
  0
VERTEX
  5
9DB
330
9D5
100
AcDbEntity
  8
Visible (ANSI)
100
AcDbVertex
100
AcDb2dVertex
 10
176.0748806097967
 20
45.96875956800646
 30
0.0
  0
VERTEX
  5
9DC
330
9D5
100
AcDbEntity
  8
Visible (ANSI)
100
AcDbVertex
100
AcDb2dVertex
 10
176.0686813589396
 20
45.96551307731717
 30
0.0
  0
VERTEX
  5
9DD
330
9D5
100
AcDbEntity
  8
Visible (ANSI)
100
AcDbVertex
100
AcDb2dVertex
 10
176.0622800178847
 20
45.96250339197671
 30
0.0
  0
VERTEX
  5
9DE
330
9D5
100
AcDbEntity
  8
Visible (ANSI)
100
AcDbVertex
100
AcDb2dVertex
 10
176.055699428015
 20
45.95974028876675
 30
0.0
  0
VERTEX
  5
9DF
330
9D5
100
AcDbEntity
  8
Visible (ANSI)
100
AcDbVertex
100
AcDb2dVertex
 10
176.0489735804682
 20
45.95722652435008
 30
0.0
  0
VERTEX
  5
9E0
330
9D5
100
AcDbEntity
  8
Visible (ANSI)
100
AcDbVertex
100
AcDb2dVertex
 10
176.0421270862713
 20
45.95496953766701
 30
0.0
  0
VERTEX
  5
9E1
330
9D5
100
AcDbEntity
  8
Visible (ANSI)
100
AcDbVertex
100
AcDb2dVertex
 10
176.0351926203803
 20
45.95297134063138
 30
0.0
  0
VERTEX
  5
9E2
330
9D5
100
AcDbEntity
  8
Visible (ANSI)
100
AcDbVertex
100
AcDb2dVertex
 10
176.02819624975
 20
45.95123684709025
 30
0.0
  0
VERTEX
  5
9E3
330
9D5
100
AcDbEntity
  8
Visible (ANSI)
100
AcDbVertex
100
AcDb2dVertex
 10
176.0211719498322
 20
45.9497654345724
 30
0.0
  0
VERTEX
  5
9E4
330
9D5
100
AcDbEntity
  8
Visible (ANSI)
100
AcDbVertex
100
AcDb2dVertex
 10
176.0141440136599
 20
45.94856101517565
 30
0.0
  0
VERTEX
  5
9E5
330
9D5
100
AcDbEntity
  8
Visible (ANSI)
100
AcDbVertex
100
AcDb2dVertex
 10
176.0071503580996
 20
45.9476185025312
 30
0.0
  0
VERTEX
  5
9E6
330
9D5
100
AcDbEntity
  8
Visible (ANSI)
100
AcDbVertex
100
AcDb2dVertex
 10
176.0002132455857
 20
45.94694063939285
 30
0.0
  0
VERTEX
  5
9E7
330
9D5
100
AcDbEntity
  8
Visible (ANSI)
100
AcDbVertex
100
AcDb2dVertex
 10
175.9933684340477
 20
45.94652109614262
 30
0.0
  0
VERTEX
  5
9E8
330
9D5
100
AcDbEntity
  8
Visible (ANSI)
100
AcDbVertex
100
AcDb2dVertex
 10
175.9866417736911
 20
45.94635795458172
 30
0.0
  0
VERTEX
  5
9E9
330
9D5
100
AcDbEntity
  8
Visible (ANSI)
100
AcDbVertex
100
AcDb2dVertex
 10
175.980060814492
 20
45.94644689205351
 30
0.0
  0
VERTEX
  5
9EA
330
9D5
100
AcDbEntity
  8
Visible (ANSI)
100
AcDbVertex
100
AcDb2dVertex
 10
175.9736606242048
 20
45.9467778245829
 30
0.0
  0
VERTEX
  5
9EB
330
9D5
100
AcDbEntity
  8
Visible (ANSI)
100
AcDbVertex
100
AcDb2dVertex
 10
175.9674603851419
 20
45.94734835769336
 30
0.0
  0
VERTEX
  5
9EC
330
9D5
100
AcDbEntity
  8
Visible (ANSI)
100
AcDbVertex
100
AcDb2dVertex
 10
175.9614896379508
 20
45.94814858147208
 30
0.0
  0
VERTEX
  5
9ED
330
9D5
100
AcDbEntity
  8
Visible (ANSI)
100
AcDbVertex
100
AcDb2dVertex
 10
175.9557765771515
 20
45.94916783720235
 30
0.0
  0
VERTEX
  5
9EE
330
9D5
100
AcDbEntity
  8
Visible (ANSI)
100
AcDbVertex
100
AcDb2dVertex
 10
175.950342193202
 20
45.9503980248523
 30
0.0
  0
VERTEX
  5
9EF
330
9D5
100
AcDbEntity
  8
Visible (ANSI)
100
AcDbVertex
100
AcDb2dVertex
 10
175.9452119427366
 20
45.9518268892772
 30
0.0
  0
SEQEND
  5
9D8
330
9D5
100
AcDbEntity
  8
Visible (ANSI)
  0
LINE
  5
9F0
330
6C
100
AcDbEntity
  8
Visible (ANSI)
100
AcDbLine
 10
176.0364531965732
 20
67.13753076713302
 30
0.0
 11
176.3857727289499
 21
67.33869050723497
 31
0.0
  0
LINE
  5
9F1
330
6C
100
AcDbEntity
  8
Visible (ANSI)
100
AcDbLine
 10
176.4465397179582
 20
46.18515415544994
 30
0.0
 11
176.097129531161
 21
45.98394221093922
 31
0.0
  0
LINE
  5
9F2
330
6C
100
AcDbEntity
  8
Visible (ANSI)
100
AcDbLine
 10
176.0389227056905
 20
67.13600426259458
 30
0.0
 11
176.097129531161
 21
67.10248518107023
 31
0.0
  0
POLYLINE
  5
9F3
330
6C
100
AcDbEntity
  8
Visible (ANSI)
100
AcDb2dPolyline
 66
     1
 10
0.0
 20
0.0
 30
0.0
 70
   128
  0
VERTEX
  5
9F4
330
9F3
100
AcDbEntity
  8
Visible (ANSI)
100
AcDbVertex
100
AcDb2dVertex
 10
176.0059789308322
 20
67.16959361294835
 30
0.0
  0
VERTEX
  5
9F5
330
9F3
100
AcDbEntity
  8
Visible (ANSI)
100
AcDbVertex
100
AcDb2dVertex
 10
176.0069143386244
 20
67.16786392065883
 30
0.0
  0
VERTEX
  5
9F7
330
9F3
100
AcDbEntity
  8
Visible (ANSI)
100
AcDbVertex
100
AcDb2dVertex
 10
176.0079010484938
 20
67.166167134777
 30
0.0
  0
VERTEX
  5
9F8
330
9F3
100
AcDbEntity
  8
Visible (ANSI)
100
AcDbVertex
100
AcDb2dVertex
 10
176.0089329286305
 20
67.16450476297127
 30
0.0
  0
VERTEX
  5
9F9
330
9F3
100
AcDbEntity
  8
Visible (ANSI)
100
AcDbVertex
100
AcDb2dVertex
 10
176.0100124156063
 20
67.16287822140341
 30
0.0
  0
VERTEX
  5
9FA
330
9F3
100
AcDbEntity
  8
Visible (ANSI)
100
AcDbVertex
100
AcDb2dVertex
 10
176.0111271528621
 20
67.1612921601597
 30
0.0
  0
VERTEX
  5
9FB
330
9F3
100
AcDbEntity
  8
Visible (ANSI)
100
AcDbVertex
100
AcDb2dVertex
 10
176.0122821175215
 20
67.15974271836235
 30
0.0
  0
VERTEX
  5
9FC
330
9F3
100
AcDbEntity
  8
Visible (ANSI)
100
AcDbVertex
100
AcDb2dVertex
 10
176.0134674992725
 20
67.15823264887757
 30
0.0
  0
VERTEX
  5
9FD
330
9F3
100
AcDbEntity
  8
Visible (ANSI)
100
AcDbVertex
100
AcDb2dVertex
 10
176.0146791464571
 20
67.15676630097046
 30
0.0
  0
VERTEX
  5
9FE
330
9F3
100
AcDbEntity
  8
Visible (ANSI)
100
AcDbVertex
100
AcDb2dVertex
 10
176.0159156505613
 20
67.15534117526198
 30
0.0
  0
VERTEX
  5
9FF
330
9F3
100
AcDbEntity
  8
Visible (ANSI)
100
AcDbVertex
100
AcDb2dVertex
 10
176.0171695897934
 20
67.15395972483918
 30
0.0
  0
VERTEX
  5
A00
330
9F3
100
AcDbEntity
  8
Visible (ANSI)
100
AcDbVertex
100
AcDb2dVertex
 10
176.0184392164339
 20
67.15261925498753
 30
0.0
  0
VERTEX
  5
A01
330
9F3
100
AcDbEntity
  8
Visible (ANSI)
100
AcDbVertex
100
AcDb2dVertex
 10
176.0197167816957
 20
67.15132540702949
 30
0.0
  0
VERTEX
  5
A02
330
9F3
100
AcDbEntity
  8
Visible (ANSI)
100
AcDbVertex
100
AcDb2dVertex
 10
176.0210002230735
 20
67.15007530497762
 30
0.0
  0
VERTEX
  5
A03
330
9F3
100
AcDbEntity
  8
Visible (ANSI)
100
AcDbVertex
100
AcDb2dVertex
 10
176.0222844123791
 20
67.14886935921088
 30
0.0
  0
VERTEX
  5
A04
330
9F3
100
AcDbEntity
  8
Visible (ANSI)
100
AcDbVertex
100
AcDb2dVertex
 10
176.023564082747
 20
67.14770621197978
 30
0.0
  0
VERTEX
  5
A05
330
9F3
100
AcDbEntity
  8
Visible (ANSI)
100
AcDbVertex
100
AcDb2dVertex
 10
176.0248367568897
 20
67.14658781324894
 30
0.0
  0
VERTEX
  5
A06
330
9F3
100
AcDbEntity
  8
Visible (ANSI)
100
AcDbVertex
100
AcDb2dVertex
 10
176.0260969166127
 20
67.14551266053792
 30
0.0
  0
VERTEX
  5
A07
330
9F3
100
AcDbEntity
  8
Visible (ANSI)
100
AcDbVertex
100
AcDb2dVertex
 10
176.0273360117266
 20
67.1444825571328
 30
0.0
  0
VERTEX
  5
A08
330
9F3
100
AcDbEntity
  8
Visible (ANSI)
100
AcDbVertex
100
AcDb2dVertex
 10
176.0285570703046
 20
67.14349083150253
 30
0.0
  0
VERTEX
  5
A09
330
9F3
100
AcDbEntity
  8
Visible (ANSI)
100
AcDbVertex
100
AcDb2dVertex
 10
176.0297484278122
 20
67.14254423354707
 30
0.0
  0
VERTEX
  5
A0A
330
9F3
100
AcDbEntity
  8
Visible (ANSI)
100
AcDbVertex
100
AcDb2dVertex
 10
176.0309100186544
 20
67.14163767371655
 30
0.0
  0
VERTEX
  5
A0B
330
9F3
100
AcDbEntity
  8
Visible (ANSI)
100
AcDbVertex
100
AcDb2dVertex
 10
176.0320387855253
 20
67.14076939142559
 30
0.0
  0
VERTEX
  5
A0C
330
9F3
100
AcDbEntity
  8
Visible (ANSI)
100
AcDbVertex
100
AcDb2dVertex
 10
176.0331257718306
 20
67.13993926765748
 30
0.0
  0
VERTEX
  5
A0D
330
9F3
100
AcDbEntity
  8
Visible (ANSI)
100
AcDbVertex
100
AcDb2dVertex
 10
176.0341707287365
 20
67.1391471721516
 30
0.0
  0
SEQEND
  5
9F6
330
9F3
100
AcDbEntity
  8
Visible (ANSI)
  0
LINE
  5
A0E
330
6C
100
AcDbEntity
  8
Visible (ANSI)
100
AcDbLine
 10
176.0059790476486
 20
67.16959395086298
 30
0.0
 11
176.0034874057342
 21
67.16815910971192
 31
0.0
  0
LINE
  5
A0F
330
6C
100
AcDbEntity
  8
Visible (ANSI)
100
AcDbLine
 10
176.0034874057342
 20
67.16815910971192
 30
0.0
 11
175.9452120586404
 21
67.13460056920894
 31
0.0
  0
LINE
  5
A10
330
6C
100
AcDbEntity
  8
Visible (ANSI)
100
AcDbLine
 10
176.097129531161
 20
67.10248518107023
 30
0.0
 11
176.4465397179582
 21
67.30369712558095
 31
0.0
  0
LINE
  5
A11
330
6C
100
AcDbEntity
  8
Visible (ANSI)
100
AcDbLine
 10
176.3857727289499
 20
67.33869050723497
 30
0.0
 11
176.4465397179582
 21
67.30369712558095
 31
0.0
  0
POLYLINE
  5
A12
330
6C
100
AcDbEntity
  8
Visible (ANSI)
100
AcDb2dPolyline
 66
     1
 10
0.0
 20
0.0
 30
0.0
 70
   128
  0
VERTEX
  5
A13
330
A12
100
AcDbEntity
  8
Visible (ANSI)
100
AcDbVertex
100
AcDb2dVertex
 10
148.8735184552466
 20
82.72415169207409
 30
0.0
  0
VERTEX
  5
A14
330
A12
100
AcDbEntity
  8
Visible (ANSI)
100
AcDbVertex
100
AcDb2dVertex
 10
148.8748384641556
 20
82.72932234866045
 30
0.0
  0
VERTEX
  5
A16
330
A12
100
AcDbEntity
  8
Visible (ANSI)
100
AcDbVertex
100
AcDb2dVertex
 10
148.8764830437256
 20
82.73465628385178
 30
0.0
  0
VERTEX
  5
A17
330
A12
100
AcDbEntity
  8
Visible (ANSI)
100
AcDbVertex
100
AcDb2dVertex
 10
148.8784501063187
 20
82.74012696484073
 30
0.0
  0
VERTEX
  5
A18
330
A12
100
AcDbEntity
  8
Visible (ANSI)
100
AcDbVertex
100
AcDb2dVertex
 10
148.8807361896501
 20
82.74570706721357
 30
0.0
  0
VERTEX
  5
A19
330
A12
100
AcDbEntity
  8
Visible (ANSI)
100
AcDbVertex
100
AcDb2dVertex
 10
148.8833364510843
 20
82.75137017964327
 30
0.0
  0
VERTEX
  5
A1A
330
A12
100
AcDbEntity
  8
Visible (ANSI)
100
AcDbVertex
100
AcDb2dVertex
 10
148.8862447246741
 20
82.75709079075083
 30
0.0
  0
VERTEX
  5
A1B
330
A12
100
AcDbEntity
  8
Visible (ANSI)
100
AcDbVertex
100
AcDb2dVertex
 10
148.8894534983454
 20
82.76284095198167
 30
0.0
  0
VERTEX
  5
A1C
330
A12
100
AcDbEntity
  8
Visible (ANSI)
100
AcDbVertex
100
AcDb2dVertex
 10
148.8929539937518
 20
82.76859196587558
 30
0.0
  0
VERTEX
  5
A1D
330
A12
100
AcDbEntity
  8
Visible (ANSI)
100
AcDbVertex
100
AcDb2dVertex
 10
148.8967361890902
 20
82.77431779545301
 30
0.0
  0
VERTEX
  5
A1E
330
A12
100
AcDbEntity
  8
Visible (ANSI)
100
AcDbVertex
100
AcDb2dVertex
 10
148.9007888248053
 20
82.77999002239827
 30
0.0
  0
VERTEX
  5
A1F
330
A12
100
AcDbEntity
  8
Visible (ANSI)
100
AcDbVertex
100
AcDb2dVertex
 10
148.9050995176676
 20
82.78558124330736
 30
0.0
  0
VERTEX
  5
A20
330
A12
100
AcDbEntity
  8
Visible (ANSI)
100
AcDbVertex
100
AcDb2dVertex
 10
148.9096547550697
 20
82.79106511895797
 30
0.0
  0
VERTEX
  5
A21
330
A12
100
AcDbEntity
  8
Visible (ANSI)
100
AcDbVertex
100
AcDb2dVertex
 10
148.9144399948451
 20
82.79641637923658
 30
0.0
  0
VERTEX
  5
A22
330
A12
100
AcDbEntity
  8
Visible (ANSI)
100
AcDbVertex
100
AcDb2dVertex
 10
148.9194396937879
 20
82.80160920384664
 30
0.0
  0
VERTEX
  5
A23
330
A12
100
AcDbEntity
  8
Visible (ANSI)
100
AcDbVertex
100
AcDb2dVertex
 10
148.9246374046194
 20
82.80661723216283
 30
0.0
  0
VERTEX
  5
A24
330
A12
100
AcDbEntity
  8
Visible (ANSI)
100
AcDbVertex
100
AcDb2dVertex
 10
148.9300158273233
 20
82.81141530077078
 30
0.0
  0
VERTEX
  5
A25
330
A12
100
AcDbEntity
  8
Visible (ANSI)
100
AcDbVertex
100
AcDb2dVertex
 10
148.9355568775935
 20
82.81598287913091
 30
0.0
  0
VERTEX
  5
A26
330
A12
100
AcDbEntity
  8
Visible (ANSI)
100
AcDbVertex
100
AcDb2dVertex
 10
148.9412417909301
 20
82.82029564875864
 30
0.0
  0
VERTEX
  5
A27
330
A12
100
AcDbEntity
  8
Visible (ANSI)
100
AcDbVertex
100
AcDb2dVertex
 10
148.9470511782531
 20
82.82433231460645
 30
0.0
  0
VERTEX
  5
A28
330
A12
100
AcDbEntity
  8
Visible (ANSI)
100
AcDbVertex
100
AcDb2dVertex
 10
148.9529651299991
 20
82.82807295703149
 30
0.0
  0
VERTEX
  5
A29
330
A12
100
AcDbEntity
  8
Visible (ANSI)
100
AcDbVertex
100
AcDb2dVertex
 10
148.9589632561377
 20
82.83149910739433
 30
0.0
  0
VERTEX
  5
A2A
330
A12
100
AcDbEntity
  8
Visible (ANSI)
100
AcDbVertex
100
AcDb2dVertex
 10
148.9650248386625
 20
82.83459206877067
 30
0.0
  0
VERTEX
  5
A2B
330
A12
100
AcDbEntity
  8
Visible (ANSI)
100
AcDbVertex
100
AcDb2dVertex
 10
148.9711288770445
 20
82.83733805949035
 30
0.0
  0
VERTEX
  5
A2C
330
A12
100
AcDbEntity
  8
Visible (ANSI)
100
AcDbVertex
100
AcDb2dVertex
 10
148.9772541885856
 20
82.83971981643926
 30
0.0
  0
SEQEND
  5
A15
330
A12
100
AcDbEntity
  8
Visible (ANSI)
  0
POLYLINE
  5
A2D
330
6C
100
AcDbEntity
  8
Visible (ANSI)
100
AcDb2dPolyline
 66
     1
 10
0.0
 20
0.0
 30
0.0
 70
   128
  0
VERTEX
  5
A2E
330
A2D
100
AcDbEntity
  8
Visible (ANSI)
100
AcDbVertex
100
AcDb2dVertex
 10
175.9933946436006
 20
67.28215921996095
 30
0.0
  0
VERTEX
  5
A2F
330
A2D
100
AcDbEntity
  8
Visible (ANSI)
100
AcDbVertex
100
AcDb2dVertex
 10
175.9895831878203
 20
67.2784450020978
 30
0.0
  0
VERTEX
  5
A31
330
A2D
100
AcDbEntity
  8
Visible (ANSI)
100
AcDbVertex
100
AcDb2dVertex
 10
175.9857930051991
 20
67.27436655046389
 30
0.0
  0
VERTEX
  5
A32
330
A2D
100
AcDbEntity
  8
Visible (ANSI)
100
AcDbVertex
100
AcDb2dVertex
 10
175.9820481988466
 20
67.26993944642017
 30
0.0
  0
VERTEX
  5
A33
330
A2D
100
AcDbEntity
  8
Visible (ANSI)
100
AcDbVertex
100
AcDb2dVertex
 10
175.9783639284689
 20
67.26518083514308
 30
0.0
  0
VERTEX
  5
A34
330
A2D
100
AcDbEntity
  8
Visible (ANSI)
100
AcDbVertex
100
AcDb2dVertex
 10
175.9747638438915
 20
67.26010772523444
 30
0.0
  0
VERTEX
  5
A35
330
A2D
100
AcDbEntity
  8
Visible (ANSI)
100
AcDbVertex
100
AcDb2dVertex
 10
175.9712712327408
 20
67.25473691671922
 30
0.0
  0
VERTEX
  5
A36
330
A2D
100
AcDbEntity
  8
Visible (ANSI)
100
AcDbVertex
100
AcDb2dVertex
 10
175.9679001751649
 20
67.24909168617728
 30
0.0
  0
VERTEX
  5
A37
330
A2D
100
AcDbEntity
  8
Visible (ANSI)
100
AcDbVertex
100
AcDb2dVertex
 10
175.9646729806555
 20
67.2431916469029
 30
0.0
  0
VERTEX
  5
A38
330
A2D
100
AcDbEntity
  8
Visible (ANSI)
100
AcDbVertex
100
AcDb2dVertex
 10
175.9616084194163
 20
67.23706111409605
 30
0.0
  0
VERTEX
  5
A39
330
A2D
100
AcDbEntity
  8
Visible (ANSI)
100
AcDbVertex
100
AcDb2dVertex
 10
175.9587274847572
 20
67.23071894311245
 30
0.0
  0
VERTEX
  5
A3A
330
A2D
100
AcDbEntity
  8
Visible (ANSI)
100
AcDbVertex
100
AcDb2dVertex
 10
175.9560416415752
 20
67.22419365758814
 30
0.0
  0
VERTEX
  5
A3B
330
A2D
100
AcDbEntity
  8
Visible (ANSI)
100
AcDbVertex
100
AcDb2dVertex
 10
175.9535702632645
 20
67.21750993311065
 30
0.0
  0
VERTEX
  5
A3C
330
A2D
100
AcDbEntity
  8
Visible (ANSI)
100
AcDbVertex
100
AcDb2dVertex
 10
175.9513318020347
 20
67.21069191479262
 30
0.0
  0
VERTEX
  5
A3D
330
A2D
100
AcDbEntity
  8
Visible (ANSI)
100
AcDbVertex
100
AcDb2dVertex
 10
175.9493349706371
 20
67.20376822968461
 30
0.0
  0
VERTEX
  5
A3E
330
A2D
100
AcDbEntity
  8
Visible (ANSI)
100
AcDbVertex
100
AcDb2dVertex
 10
175.9475961906828
 20
67.19676354182512
 30
0.0
  0
VERTEX
  5
A3F
330
A2D
100
AcDbEntity
  8
Visible (ANSI)
100
AcDbVertex
100
AcDb2dVertex
 10
175.9461307772206
 20
67.18970356629563
 30
0.0
  0
VERTEX
  5
A40
330
A2D
100
AcDbEntity
  8
Visible (ANSI)
100
AcDbVertex
100
AcDb2dVertex
 10
175.9449441375751
 20
67.18262009148748
 30
0.0
  0
VERTEX
  5
A41
330
A2D
100
AcDbEntity
  8
Visible (ANSI)
100
AcDbVertex
100
AcDb2dVertex
 10
175.9440492196645
 20
67.17553746934239
 30
0.0
  0
VERTEX
  5
A42
330
A2D
100
AcDbEntity
  8
Visible (ANSI)
100
AcDbVertex
100
AcDb2dVertex
 10
175.9434577279509
 20
67.16848271228276
 30
0.0
  0
VERTEX
  5
A43
330
A2D
100
AcDbEntity
  8
Visible (ANSI)
100
AcDbVertex
100
AcDb2dVertex
 10
175.9431713222776
 20
67.16148713893883
 30
0.0
  0
VERTEX
  5
A44
330
A2D
100
AcDbEntity
  8
Visible (ANSI)
100
AcDbVertex
100
AcDb2dVertex
 10
175.9431991004109
 20
67.15457457236706
 30
0.0
  0
VERTEX
  5
A45
330
A2D
100
AcDbEntity
  8
Visible (ANSI)
100
AcDbVertex
100
AcDb2dVertex
 10
175.9435458935785
 20
67.14777143046387
 30
0.0
  0
VERTEX
  5
A46
330
A2D
100
AcDbEntity
  8
Visible (ANSI)
100
AcDbVertex
100
AcDb2dVertex
 10
175.9442180901809
 20
67.14110335260517
 30
0.0
  0
VERTEX
  5
A47
330
A2D
100
AcDbEntity
  8
Visible (ANSI)
100
AcDbVertex
100
AcDb2dVertex
 10
175.9452119427366
 20
67.13460023181987
 30
0.0
  0
SEQEND
  5
A30
330
A2D
100
AcDbEntity
  8
Visible (ANSI)
  0
LINE
  5
A48
330
6C
100
AcDbEntity
  8
Visible (ANSI)
100
AcDbLine
 10
175.9934803388031
 20
67.2119523362388
 30
0.0
 11
176.3428039789499
 21
67.41311444184818
 31
0.0
  0
LINE
  5
A49
330
6C
100
AcDbEntity
  8
Visible (ANSI)
100
AcDbLine
 10
176.3428039789499
 20
67.48337239788934
 30
0.0
 11
175.9933937921528
 21
67.28216045337865
 31
0.0
  0
LINE
  5
A4A
330
6C
100
AcDbEntity
  8
Visible (ANSI)
100
AcDbLine
 10
175.9933937921528
 20
67.21478329941357
 30
0.0
 11
175.9933937921528
 21
67.28216045337865
 31
0.0
  0
LINE
  5
A4B
330
6C
100
AcDbEntity
  8
Visible (ANSI)
100
AcDbLine
 10
176.3428039789499
 20
67.41311444184818
 30
0.0
 11
176.3428039789499
 21
67.48337239788934
 31
0.0
  0
POLYLINE
  5
A4C
330
6C
100
AcDbEntity
  8
Visible (ANSI)
100
AcDb2dPolyline
 66
     1
 10
0.0
 20
0.0
 30
0.0
 70
   128
  0
VERTEX
  5
A4D
330
A4C
100
AcDbEntity
  8
Visible (ANSI)
100
AcDbVertex
100
AcDb2dVertex
 10
176.0059789308322
 20
67.16959361294835
 30
0.0
  0
VERTEX
  5
A4E
330
A4C
100
AcDbEntity
  8
Visible (ANSI)
100
AcDbVertex
100
AcDb2dVertex
 10
176.004946075644
 20
67.17127157609258
 30
0.0
  0
VERTEX
  5
A50
330
A4C
100
AcDbEntity
  8
Visible (ANSI)
100
AcDbVertex
100
AcDb2dVertex
 10
176.0039705514854
 20
67.17297581393506
 30
0.0
  0
VERTEX
  5
A51
330
A4C
100
AcDbEntity
  8
Visible (ANSI)
100
AcDbVertex
100
AcDb2dVertex
 10
176.0030462245301
 20
67.17470445644337
 30
0.0
  0
VERTEX
  5
A52
330
A4C
100
AcDbEntity
  8
Visible (ANSI)
100
AcDbVertex
100
AcDb2dVertex
 10
176.0021755279745
 20
67.176453853026
 30
0.0
  0
VERTEX
  5
A53
330
A4C
100
AcDbEntity
  8
Visible (ANSI)
100
AcDbVertex
100
AcDb2dVertex
 10
176.0013577822155
 20
67.17821685924629
 30
0.0
  0
VERTEX
  5
A54
330
A4C
100
AcDbEntity
  8
Visible (ANSI)
100
AcDbVertex
100
AcDb2dVertex
 10
176.0005950380605
 20
67.17999129257941
 30
0.0
  0
VERTEX
  5
A55
330
A4C
100
AcDbEntity
  8
Visible (ANSI)
100
AcDbVertex
100
AcDb2dVertex
 10
175.9998803982566
 20
67.18177315509485
 30
0.0
  0
VERTEX
  5
A56
330
A4C
100
AcDbEntity
  8
Visible (ANSI)
100
AcDbVertex
100
AcDb2dVertex
 10
175.999215543591
 20
67.1835600511874
 30
0.0
  0
VERTEX
  5
A57
330
A4C
100
AcDbEntity
  8
Visible (ANSI)
100
AcDbVertex
100
AcDb2dVertex
 10
175.9985990558353
 20
67.18534441107434
 30
0.0
  0
VERTEX
  5
A58
330
A4C
100
AcDbEntity
  8
Visible (ANSI)
100
AcDbVertex
100
AcDb2dVertex
 10
175.9980293433262
 20
67.18712362990782
 30
0.0
  0
VERTEX
  5
A59
330
A4C
100
AcDbEntity
  8
Visible (ANSI)
100
AcDbVertex
100
AcDb2dVertex
 10
175.9975075669912
 20
67.18889163617574
 30
0.0
  0
VERTEX
  5
A5A
330
A4C
100
AcDbEntity
  8
Visible (ANSI)
100
AcDbVertex
100
AcDb2dVertex
 10
175.9970259646746
 20
67.1906473104228
 30
0.0
  0
VERTEX
  5
A5B
330
A4C
100
AcDbEntity
  8
Visible (ANSI)
100
AcDbVertex
100
AcDb2dVertex
 10
175.996585381449
 20
67.1923843992481
 30
0.0
  0
VERTEX
  5
A5C
330
A4C
100
AcDbEntity
  8
Visible (ANSI)
100
AcDbVertex
100
AcDb2dVertex
 10
175.9961835942082
 20
67.19410162244985
 30
0.0
  0
VERTEX
  5
A5D
330
A4C
100
AcDbEntity
  8
Visible (ANSI)
100
AcDbVertex
100
AcDb2dVertex
 10
175.9958211612243
 20
67.19578918492998
 30
0.0
  0
VERTEX
  5
A5E
330
A4C
100
AcDbEntity
  8
Visible (ANSI)
100
AcDbVertex
100
AcDb2dVertex
 10
175.9954897494136
 20
67.1974490149975
 30
0.0
  0
VERTEX
  5
A5F
330
A4C
100
AcDbEntity
  8
Visible (ANSI)
100
AcDbVertex
100
AcDb2dVertex
 10
175.99518966358
 20
67.19907623640104
 30
0.0
  0
VERTEX
  5
A60
330
A4C
100
AcDbEntity
  8
Visible (ANSI)
100
AcDbVertex
100
AcDb2dVertex
 10
175.9949181779584
 20
67.20066590293733
 30
0.0
  0
VERTEX
  5
A61
330
A4C
100
AcDbEntity
  8
Visible (ANSI)
100
AcDbVertex
100
AcDb2dVertex
 10
175.9946753823857
 20
67.20221301456383
 30
0.0
  0
VERTEX
  5
A62
330
A4C
100
AcDbEntity
  8
Visible (ANSI)
100
AcDbVertex
100
AcDb2dVertex
 10
175.9944525142013
 20
67.20371756394276
 30
0.0
  0
VERTEX
  5
A63
330
A4C
100
AcDbEntity
  8
Visible (ANSI)
100
AcDbVertex
100
AcDb2dVertex
 10
175.9942494899853
 20
67.20517613952939
 30
0.0
  0
VERTEX
  5
A64
330
A4C
100
AcDbEntity
  8
Visible (ANSI)
100
AcDbVertex
100
AcDb2dVertex
 10
175.9940632346069
 20
67.20658190566433
 30
0.0
  0
VERTEX
  5
A65
330
A4C
100
AcDbEntity
  8
Visible (ANSI)
100
AcDbVertex
100
AcDb2dVertex
 10
175.9938935320299
 20
67.20793475097387
 30
0.0
  0
VERTEX
  5
A66
330
A4C
100
AcDbEntity
  8
Visible (ANSI)
100
AcDbVertex
100
AcDb2dVertex
 10
175.993731359352
 20
67.20923282998713
 30
0.0
  0
SEQEND
  5
A4F
330
A4C
100
AcDbEntity
  8
Visible (ANSI)
  0
LINE
  5
A67
330
6C
100
AcDbEntity
  8
Visible (ANSI)
100
AcDbLine
 10
148.977254194483
 20
82.83972055614464
 30
0.0
 11
149.3266643812802
 21
83.04093250065532
 31
0.0
  0
POLYLINE
  5
A68
330
6C
100
AcDbEntity
  8
Visible (ANSI)
100
AcDb2dPolyline
 66
     1
 10
0.0
 20
0.0
 30
0.0
 70
   128
  0
VERTEX
  5
A69
330
A68
100
AcDbEntity
  8
Visible (ANSI)
100
AcDbVertex
100
AcDb2dVertex
 10
148.8735184552466
 20
61.54137834953142
 30
0.0
  0
VERTEX
  5
A6A
330
A68
100
AcDbEntity
  8
Visible (ANSI)
100
AcDbVertex
100
AcDb2dVertex
 10
148.87107382551
 20
61.54350202686376
 30
0.0
  0
VERTEX
  5
A6C
330
A68
100
AcDbEntity
  8
Visible (ANSI)
100
AcDbVertex
100
AcDb2dVertex
 10
148.8687131461977
 20
61.54567099330868
 30
0.0
  0
VERTEX
  5
A6D
330
A68
100
AcDbEntity
  8
Visible (ANSI)
100
AcDbVertex
100
AcDb2dVertex
 10
148.8664389555578
 20
61.54788362947093
 30
0.0
  0
VERTEX
  5
A6E
330
A68
100
AcDbEntity
  8
Visible (ANSI)
100
AcDbVertex
100
AcDb2dVertex
 10
148.8642536891681
 20
61.5501382897542
 30
0.0
  0
VERTEX
  5
A6F
330
A68
100
AcDbEntity
  8
Visible (ANSI)
100
AcDbVertex
100
AcDb2dVertex
 10
148.8621596742315
 20
61.5524332726973
 30
0.0
  0
VERTEX
  5
A70
330
A68
100
AcDbEntity
  8
Visible (ANSI)
100
AcDbVertex
100
AcDb2dVertex
 10
148.8601591695038
 20
61.55476684399228
 30
0.0
  0
VERTEX
  5
A71
330
A68
100
AcDbEntity
  8
Visible (ANSI)
100
AcDbVertex
100
AcDb2dVertex
 10
148.8582543025504
 20
61.5571372200865
 30
0.0
  0
VERTEX
  5
A72
330
A68
100
AcDbEntity
  8
Visible (ANSI)
100
AcDbVertex
100
AcDb2dVertex
 10
148.8564471210818
 20
61.5595425713656
 30
0.0
  0
VERTEX
  5
A73
330
A68
100
AcDbEntity
  8
Visible (ANSI)
100
AcDbVertex
100
AcDb2dVertex
 10
148.8547395587299
 20
61.56198104201411
 30
0.0
  0
VERTEX
  5
A74
330
A68
100
AcDbEntity
  8
Visible (ANSI)
100
AcDbVertex
100
AcDb2dVertex
 10
148.8531334407519
 20
61.56445074005972
 30
0.0
  0
VERTEX
  5
A75
330
A68
100
AcDbEntity
  8
Visible (ANSI)
100
AcDbVertex
100
AcDb2dVertex
 10
148.8516304897342
 20
61.56694973411406
 30
0.0
  0
VERTEX
  5
A76
330
A68
100
AcDbEntity
  8
Visible (ANSI)
100
AcDbVertex
100
AcDb2dVertex
 10
148.8502323227407
 20
61.56947607474846
 30
0.0
  0
VERTEX
  5
A77
330
A68
100
AcDbEntity
  8
Visible (ANSI)
100
AcDbVertex
100
AcDb2dVertex
 10
148.8489404227929
 20
61.57202775826077
 30
0.0
  0
VERTEX
  5
A78
330
A68
100
AcDbEntity
  8
Visible (ANSI)
100
AcDbVertex
100
AcDb2dVertex
 10
148.8477561816494
 20
61.57460277445587
 30
0.0
  0
VERTEX
  5
A79
330
A68
100
AcDbEntity
  8
Visible (ANSI)
100
AcDbVertex
100
AcDb2dVertex
 10
148.8466808655824
 20
61.57719908026648
 30
0.0
  0
VERTEX
  5
A7A
330
A68
100
AcDbEntity
  8
Visible (ANSI)
100
AcDbVertex
100
AcDb2dVertex
 10
148.8457156267856
 20
61.57981461948653
 30
0.0
  0
VERTEX
  5
A7B
330
A68
100
AcDbEntity
  8
Visible (ANSI)
100
AcDbVertex
100
AcDb2dVertex
 10
148.8448615033739
 20
61.5824473096581
 30
0.0
  0
VERTEX
  5
A7C
330
A68
100
AcDbEntity
  8
Visible (ANSI)
100
AcDbVertex
100
AcDb2dVertex
 10
148.84411939942
 20
61.58509503375778
 30
0.0
  0
VERTEX
  5
A7D
330
A68
100
AcDbEntity
  8
Visible (ANSI)
100
AcDbVertex
100
AcDb2dVertex
 10
148.8434901134742
 20
61.58775567976555
 30
0.0
  0
VERTEX
  5
A7E
330
A68
100
AcDbEntity
  8
Visible (ANSI)
100
AcDbVertex
100
AcDb2dVertex
 10
148.8429743271557
 20
61.59042711757024
 30
0.0
  0
VERTEX
  5
A7F
330
A68
100
AcDbEntity
  8
Visible (ANSI)
100
AcDbVertex
100
AcDb2dVertex
 10
148.8425725823379
 20
61.59310720227961
 30
0.0
  0
VERTEX
  5
A80
330
A68
100
AcDbEntity
  8
Visible (ANSI)
100
AcDbVertex
100
AcDb2dVertex
 10
148.8422853153712
 20
61.5957937840999
 30
0.0
  0
VERTEX
  5
A81
330
A68
100
AcDbEntity
  8
Visible (ANSI)
100
AcDbVertex
100
AcDb2dVertex
 10
148.842112831416
 20
61.59848469345292
 30
0.0
  0
VERTEX
  5
A82
330
A68
100
AcDbEntity
  8
Visible (ANSI)
100
AcDbVertex
100
AcDb2dVertex
 10
148.8420553172758
 20
61.60117776986972
 30
0.0
  0
SEQEND
  5
A6B
330
A68
100
AcDbEntity
  8
Visible (ANSI)
  0
POLYLINE
  5
A83
330
6C
100
AcDbEntity
  8
Visible (ANSI)
100
AcDb2dPolyline
 66
     1
 10
0.0
 20
0.0
 30
0.0
 70
   128
  0
VERTEX
  5
A84
330
A83
100
AcDbEntity
  8
Visible (ANSI)
100
AcDbVertex
100
AcDb2dVertex
 10
148.8735184552466
 20
82.77952087651419
 30
0.0
  0
VERTEX
  5
A85
330
A83
100
AcDbEntity
  8
Visible (ANSI)
100
AcDbVertex
100
AcDb2dVertex
 10
148.8687131499743
 20
82.77790348615116
 30
0.0
  0
VERTEX
  5
A87
330
A83
100
AcDbEntity
  8
Visible (ANSI)
100
AcDbVertex
100
AcDb2dVertex
 10
148.8642536884105
 20
82.77611312670664
 30
0.0
  0
VERTEX
  5
A88
330
A83
100
AcDbEntity
  8
Visible (ANSI)
100
AcDbVertex
100
AcDb2dVertex
 10
148.8601591670083
 20
82.77415982133449
 30
0.0
  0
VERTEX
  5
A89
330
A83
100
AcDbEntity
  8
Visible (ANSI)
100
AcDbVertex
100
AcDb2dVertex
 10
148.8564471189429
 20
82.77206103669092
 30
0.0
  0
VERTEX
  5
A8A
330
A83
100
AcDbEntity
  8
Visible (ANSI)
100
AcDbVertex
100
AcDb2dVertex
 10
148.8531334403953
 20
82.76982980505554
 30
0.0
  0
VERTEX
  5
A8B
330
A83
100
AcDbEntity
  8
Visible (ANSI)
100
AcDbVertex
100
AcDb2dVertex
 10
148.8502323202452
 20
82.76747972472406
 30
0.0
  0
VERTEX
  5
A8C
330
A83
100
AcDbEntity
  8
Visible (ANSI)
100
AcDbVertex
100
AcDb2dVertex
 10
148.8477561816494
 20
82.76502996166481
 30
0.0
  0
VERTEX
  5
A8D
330
A83
100
AcDbEntity
  8
Visible (ANSI)
100
AcDbVertex
100
AcDb2dVertex
 10
148.8457156289245
 20
82.76249336357546
 30
0.0
  0
VERTEX
  5
A8E
330
A83
100
AcDbEntity
  8
Visible (ANSI)
100
AcDbVertex
100
AcDb2dVertex
 10
148.84411939942
 20
82.75988989357363
 30
0.0
  0
VERTEX
  5
A8F
330
A83
100
AcDbEntity
  8
Visible (ANSI)
100
AcDbVertex
100
AcDb2dVertex
 10
148.8429743243037
 20
82.75723474456171
 30
0.0
  0
VERTEX
  5
A90
330
A83
100
AcDbEntity
  8
Visible (ANSI)
100
AcDbVertex
100
AcDb2dVertex
 10
148.8422853139453
 20
82.75454333197876
 30
0.0
  0
VERTEX
  5
A91
330
A83
100
AcDbEntity
  8
Visible (ANSI)
100
AcDbVertex
100
AcDb2dVertex
 10
148.8420553172758
 20
82.75183628347297
 30
0.0
  0
VERTEX
  5
A92
330
A83
100
AcDbEntity
  8
Visible (ANSI)
100
AcDbVertex
100
AcDb2dVertex
 10
148.8422853153712
 20
82.74912923414603
 30
0.0
  0
VERTEX
  5
A93
330
A83
100
AcDbEntity
  8
Visible (ANSI)
100
AcDbVertex
100
AcDb2dVertex
 10
148.8429743271557
 20
82.74643782238422
 30
0.0
  0
VERTEX
  5
A94
330
A83
100
AcDbEntity
  8
Visible (ANSI)
100
AcDbVertex
100
AcDb2dVertex
 10
148.84411939942
 20
82.74378267501466
 30
0.0
  0
VERTEX
  5
A95
330
A83
100
AcDbEntity
  8
Visible (ANSI)
100
AcDbVertex
100
AcDb2dVertex
 10
148.8457156267856
 20
82.74117751551127
 30
0.0
  0
VERTEX
  5
A96
330
A83
100
AcDbEntity
  8
Visible (ANSI)
100
AcDbVertex
100
AcDb2dVertex
 10
148.8477561816494
 20
82.73864260692347
 30
0.0
  0
VERTEX
  5
A97
330
A83
100
AcDbEntity
  8
Visible (ANSI)
100
AcDbVertex
100
AcDb2dVertex
 10
148.8502323227407
 20
82.73619284365892
 30
0.0
  0
VERTEX
  5
A98
330
A83
100
AcDbEntity
  8
Visible (ANSI)
100
AcDbVertex
100
AcDb2dVertex
 10
148.8531334407519
 20
82.73384276373805
 30
0.0
  0
VERTEX
  5
A99
330
A83
100
AcDbEntity
  8
Visible (ANSI)
100
AcDbVertex
100
AcDb2dVertex
 10
148.8564471210818
 20
82.73161153148679
 30
0.0
  0
VERTEX
  5
A9A
330
A83
100
AcDbEntity
  8
Visible (ANSI)
100
AcDbVertex
100
AcDb2dVertex
 10
148.8601591695038
 20
82.72951105888132
 30
0.0
  0
VERTEX
  5
A9B
330
A83
100
AcDbEntity
  8
Visible (ANSI)
100
AcDbVertex
100
AcDb2dVertex
 10
148.8642536891681
 20
82.72755944108613
 30
0.0
  0
VERTEX
  5
A9C
330
A83
100
AcDbEntity
  8
Visible (ANSI)
100
AcDbVertex
100
AcDb2dVertex
 10
148.8687131461976
 20
82.72576908108348
 30
0.0
  0
VERTEX
  5
A9D
330
A83
100
AcDbEntity
  8
Visible (ANSI)
100
AcDbVertex
100
AcDb2dVertex
 10
148.8735184552466
 20
82.72415169207409
 30
0.0
  0
SEQEND
  5
A86
330
A83
100
AcDbEntity
  8
Visible (ANSI)
  0
LINE
  5
A9E
330
6C
100
AcDbEntity
  8
Visible (ANSI)
100
AcDbLine
 10
149.1682334359078
 20
61.76070549857171
 30
0.0
 11
149.2836956312802
 21
61.82719575479835
 31
0.0
  0
LINE
  5
A9F
330
6C
100
AcDbEntity
  8
Visible (ANSI)
100
AcDbLine
 10
148.9324067616368
 20
82.81343168222731
 30
0.0
 11
148.8735184554748
 21
82.77952016207271
 31
0.0
  0
LINE
  5
AA0
330
6C
100
AcDbEntity
  8
Visible (ANSI)
100
AcDbLine
 10
148.8928315881342
 20
82.7683984686481
 30
0.0
 11
148.8735184554748
 21
82.77952016207271
 31
0.0
  0
LINE
  5
AA1
330
6C
100
AcDbEntity
  8
Visible (ANSI)
100
AcDbLine
 10
176.0341707287365
 20
67.1391471721516
 30
0.0
 11
176.0389238596707
 21
67.13600431237172
 31
0.0
  0
LINE
  5
AA2
330
6C
100
AcDbEntity
  8
Visible (ANSI)
100
AcDbLine
 10
175.9933946436006
 20
67.21478205999773
 30
0.0
 11
175.993731359352
 21
67.20923282998713
 31
0.0
  0
LINE
  5
AA3
330
6C
100
AcDbEntity
  8
Visible Narrow (ANSI)
100
AcDbLine
 10
148.8735184554748
 20
61.54137834966789
 30
0.0
 11
175.9452120586404
 21
45.95182682280049
 31
0.0
  0
LINE
  5
AA4
330
6C
100
AcDbEntity
  8
Visible Narrow (ANSI)
100
AcDbLine
 10
176.097129531161
 20
67.10248518107023
 30
0.0
 11
176.097129531161
 21
45.98394221093922
 31
0.0
  0
LINE
  5
AA5
330
6C
100
AcDbEntity
  8
Visible Narrow (ANSI)
100
AcDbLine
 10
175.9452120586404
 20
45.95182682280049
 30
0.0
 11
175.9452120586404
 21
67.13460056920894
 31
0.0
  0
LINE
  5
AA6
330
6C
100
AcDbEntity
  8
Visible Narrow (ANSI)
100
AcDbLine
 10
148.977254194483
 20
82.83972055614464
 30
0.0
 11
175.9933937921528
 21
67.28216045337865
 31
0.0
  0
LINE
  5
AA7
330
6C
100
AcDbEntity
  8
Visible Narrow (ANSI)
100
AcDbLine
 10
175.9452120586404
 20
67.13460056920894
 30
0.0
 11
148.8735184554748
 21
82.72415209607636
 31
0.0
  0
LINE
  5
AA8
330
6C
100
AcDbEntity
  8
Visible Narrow (ANSI)
100
AcDbLine
 10
148.8735184554748
 20
82.72415209607636
 30
0.0
 11
148.8735184554748
 21
61.54137834966789
 31
0.0
  0
LINE
  5
AA9
330
6C
100
AcDbEntity
  8
Visible (ANSI)
100
AcDbLine
 10
148.9097929117739
 20
61.48401251184178
 30
0.0
 11
175.9536411231544
 21
45.91049607965234
 31
0.0
  0
LINE
  5
AAA
330
6C
100
AcDbEntity
  8
Visible (ANSI)
100
AcDbLine
 10
148.842055316735
 20
82.75183612907452
 30
0.0
 11
148.842055316735
 21
61.60117777080479
 31
0.0
  0
LINE
  5
AAB
330
6C
100
AcDbEntity
  8
Visible (ANSI)
100
AcDbLine
 10
175.7192174175603
 20
46.55431133537248
 30
0.0
 11
175.5197288384352
 21
46.66918916787455
 31
0.0
  0
LINE
  5
AAC
330
6C
100
AcDbEntity
  8
Visible (ANSI)
100
AcDbLine
 10
162.5327808027748
 20
54.14787515429554
 30
0.0
 11
162.3332922236497
 21
54.26275298679762
 31
0.0
  0
LINE
  5
AAD
330
6C
100
AcDbEntity
  8
Visible (ANSI)
100
AcDbLine
 10
149.3463441879893
 20
61.74143897321861
 30
0.0
 11
149.3266643812802
 21
61.75277182018513
 31
0.0
  0
LINE
  5
AAE
330
6C
100
AcDbEntity
  8
Visible (ANSI)
100
AcDbLine
 10
176.4465397179582
 20
67.30369712558095
 30
0.0
 11
176.4465397179582
 21
46.18515415544994
 31
0.0
  0
LINE
  5
AAF
330
6C
100
AcDbEntity
  8
Visible (ANSI)
100
AcDbLine
 10
149.3266643812802
 20
83.04093250065532
 30
0.0
 11
176.3428039789499
 21
67.48337239788934
 31
0.0
  0
LINE
  5
AB0
330
6C
100
AcDbEntity
  8
Visible (ANSI)
100
AcDbLine
 10
149.2836956312802
 20
61.82719575479835
 30
0.0
 11
149.2836956312802
 21
61.85092255090115
 31
0.0
  0
LINE
  5
AB1
330
6C
100
AcDbEntity
  8
Visible (ANSI)
100
AcDbLine
 10
149.2836956312802
 20
71.80832574301091
 30
0.0
 11
149.2836956312802
 21
72.03832617686874
 31
0.0
  0
LINE
  5
AB2
330
6C
100
AcDbEntity
  8
Visible (ANSI)
100
AcDbLine
 10
149.2836956312802
 20
81.99572936897849
 30
0.0
 11
149.2836956312802
 21
82.22572980283633
 31
0.0
  0
DIMENSION
  5
AB3
330
6C
100
AcDbEntity
  8
Dimension (ANSI)
100
AcDbDimension
280
     0
  2
*D11
 10
89.26140064163078
 20
59.9934887562161
 30
0.0
 11
97.44499949533327
 21
68.31055657246982
 31
0.0
 70
   163
  1
<>{\P(8PL.)}
 42
0.5629999999999999
 73
     0
 74
     0
 75
     0
  3
Default (ANSI)
100
AcDbDiametricDimension
 15
89.48201165623078
 25
60.51146537753908
 35
0.0
 40
0.0
1001
ACAD_DSTYLE_DIMRADIAL_EXTENSION
1070
   387
1070
     1
1070
   388
1040
0.0
1070
   390
1040
0.0
1001
ACAD
1000
DSTYLE
1002
{
1070
   145
1040
-0.25
1070
   144
1040
0.9999999999999705
1070
   271
1070
     3
1070
   272
1070
     2
1070
    48
1040
0.0
1070
    47
1040
0.0
1002
}
  0
MTEXT
  5
B6E
102
{ACAD_REACTORS
330
B6F
102
}
330
6C
100
AcDbEntity
  8
Symbol (ANSI)
100
AcDbMText
 10
119.4502046012077
 20
52.26495302431402
 30
0.0
 40
1.320000016313838
 41
5.398735896808894
 46
0.0
 71
     3
 72
     1
  1
{10 GA.\P }
  7
Note Text (ANSI)
 73
     2
 44
0.9878841638565063
  0
LEADER
  5
B6F
330
6C
100
AcDbEntity
  8
Symbol (ANSI)
100
AcDbLeader
  3
Default (ANSI)$7
 73
     0
 40
3.933345209096401
 41
5.030006745583289
 76
     3
 10
125.3333575491141
 20
46.93887229265095
 30
0.0
 10
121.0982821236709
 20
51.60342530232064
 30
0.0
 10
119.7966612941211
 20
51.60495301615711
 30
0.0
340
B6E
210
0.0
220
0.0
230
-1.0
213
0.0
223
-0.6600000081569191
233
0.0
1001
ACAD
1000
DSTYLE
1002
{
1070
    77
1070
     0
1002
}
  0
LINE
  5
B70
330
6C
100
AcDbEntity
  8
Center Mark (ANSI)
  6
Continuous
100
AcDbLine
 10
36.77820614893079
 20
78.37747706687756
 30
0.0
 11
33.46520614893079
 21
78.37747706687756
 31
0.0
  0
LINE
  5
B71
330
6C
100
AcDbEntity
  8
Center Mark (ANSI)
  6
Continuous
100
AcDbLine
 10
35.12170614893078
 20
80.03397706687755
 30
0.0
 11
35.12170614893078
 21
76.72097706687758
 31
0.0
  0
LINE
  5
B72
330
6C
100
AcDbEntity
  8
Center Mark (ANSI)
  6
Continuous
100
AcDbLine
 10
33.46520614893079
 20
42.12747706687756
 30
0.0
 11
36.77820614893079
 21
42.12747706687756
 31
0.0
  0
LINE
  5
B73
330
6C
100
AcDbEntity
  8
Center Mark (ANSI)
  6
Continuous
100
AcDbLine
 10
33.46520614893079
 20
78.37747706687756
 30
0.0
 11
36.77820614893079
 21
78.37747706687756
 31
0.0
  0
LINE
  5
B74
330
6C
100
AcDbEntity
  8
Centerline (ANSI)
  6
Continuous
100
AcDbLine
 10
35.12170614893078
 20
40.47097706687756
 30
0.0
 11
35.12170614893078
 21
80.03397706687755
 31
0.0
  0
LINE
  5
B75
330
6C
100
AcDbEntity
  8
Center Mark (ANSI)
  6
Continuous
100
AcDbLine
 10
63.90320614893078
 20
78.37747706687756
 30
0.0
 11
60.59020614893078
 21
78.37747706687756
 31
0.0
  0
LINE
  5
B76
330
6C
100
AcDbEntity
  8
Center Mark (ANSI)
  6
Continuous
100
AcDbLine
 10
63.90320614893079
 20
42.12747706687756
 30
0.0
 11
60.59020614893078
 21
42.12747706687756
 31
0.0
  0
LINE
  5
B77
330
6C
100
AcDbEntity
  8
Centerline (ANSI)
  6
Continuous
100
AcDbLine
 10
62.24670614893078
 20
80.03397706687755
 30
0.0
 11
62.24670614893079
 21
40.47097706687757
 31
0.0
  0
LINE
  5
B78
330
6C
100
AcDbEntity
  8
Center Mark (ANSI)
  6
Continuous
100
AcDbLine
 10
87.71520614893081
 20
42.12747706687757
 30
0.0
 11
91.02820614893079
 21
42.12747706687757
 31
0.0
  0
LINE
  5
B79
330
6C
100
AcDbEntity
  8
Center Mark (ANSI)
  6
Continuous
100
AcDbLine
 10
87.71520614893079
 20
78.37747706687756
 30
0.0
 11
91.02820614893078
 21
78.37747706687756
 31
0.0
  0
LINE
  5
B7A
330
6C
100
AcDbEntity
  8
Centerline (ANSI)
  6
Continuous
100
AcDbLine
 10
89.3717061489308
 20
40.47097706687757
 30
0.0
 11
89.37170614893078
 21
80.03397706687755
 31
0.0
  0
LINE
  5
B7B
330
6C
100
AcDbEntity
  8
Center Mark (ANSI)
  6
Continuous
100
AcDbLine
 10
35.12170614893078
 20
61.90897706687756
 30
0.0
 11
35.12170614893078
 21
58.59597706687756
 31
0.0
  0
LINE
  5
B7C
330
6C
100
AcDbEntity
  8
Center Mark (ANSI)
  6
Continuous
100
AcDbLine
 10
89.3717061489308
 20
61.90897706687757
 30
0.0
 11
89.3717061489308
 21
58.59597706687758
 31
0.0
  0
LINE
  5
B7D
330
6C
100
AcDbEntity
  8
Centerline (ANSI)
  6
Continuous
100
AcDbLine
 10
33.46520614893079
 20
60.25247706687756
 30
0.0
 11
91.02820614893079
 21
60.25247706687757
 31
0.0
  0
LINE
  5
B7E
330
6C
100
AcDbEntity
  8
Center Mark (ANSI)
  6
Continuous
100
AcDbLine
 10
35.12170614893078
 20
43.78397706687755
 30
0.0
 11
35.12170614893078
 21
40.47097706687756
 31
0.0
  0
LINE
  5
B7F
330
6C
100
AcDbEntity
  8
Center Mark (ANSI)
  6
Continuous
100
AcDbLine
 10
89.3717061489308
 20
43.78397706687757
 30
0.0
 11
89.3717061489308
 21
40.47097706687757
 31
0.0
  0
LINE
  5
B80
330
6C
100
AcDbEntity
  8
Centerline (ANSI)
  6
Continuous
100
AcDbLine
 10
33.46520614893079
 20
42.12747706687756
 30
0.0
 11
91.02820614893079
 21
42.12747706687757
 31
0.0
  0
LINE
  5
B81
330
6C
100
AcDbEntity
  8
Center Mark (ANSI)
  6
Continuous
100
AcDbLine
 10
35.12170614893078
 20
80.03397706687755
 30
0.0
 11
35.12170614893078
 21
76.72097706687758
 31
0.0
  0
LINE
  5
B82
330
6C
100
AcDbEntity
  8
Center Mark (ANSI)
  6
Continuous
100
AcDbLine
 10
89.37170614893078
 20
80.03397706687755
 30
0.0
 11
89.37170614893078
 21
76.72097706687758
 31
0.0
  0
LINE
  5
B83
330
6C
100
AcDbEntity
  8
Centerline (ANSI)
  6
Continuous
100
AcDbLine
 10
33.46520614893079
 20
78.37747706687756
 30
0.0
 11
91.02820614893078
 21
78.37747706687756
 31
0.0
  0
DIMENSION
  5
B84
330
6C
100
AcDbEntity
  8
Dimension (ANSI)
100
AcDbDimension
280
     0
  2
*D12
 10
33.02877590405695
 20
42.12747706687756
 30
0.0
 11
29.90775484141435
 21
38.09550274217404
 31
0.0
 70
   160
  1
<>
 42
0.8749999999999928
 73
     0
 74
     0
 75
     0
  3
Default (ANSI)
100
AcDbAlignedDimension
 13
34.46009449657911
 23
41.25247706687757
 33
0.0
 14
33.46520614893079
 24
42.12747706687756
 34
0.0
 50
90.0
100
AcDbRotatedDimension
1001
ACAD
1000
DSTYLE
1002
{
1070
   289
1070
     1
1070
   271
1070
     2
1070
   272
1070
     2
1070
    48
1040
0.0
1070
    47
1040
0.0
1002
}
  0
DIMENSION
  5
C84
330
6C
100
AcDbEntity
  8
Dimension (ANSI)
100
AcDbDimension
280
     0
  2
*D13
 10
34.24670614893079
 20
82.71345824219535
 30
0.0
 11
29.40180734185566
 21
82.71345824219535
 31
0.0
 70
   160
  1
<>
 42
0.875
 73
     0
 74
     0
 75
     0
  3
Default (ANSI)
100
AcDbAlignedDimension
 13
35.12170614893078
 23
80.03397706687755
 33
0.0
 14
34.24670614893079
 24
79.03908871922924
 34
0.0
 50
180.0
100
AcDbRotatedDimension
1001
ACAD
1000
DSTYLE
1002
{
1070
   289
1070
     1
1070
    73
1070
     0
1070
    74
1070
     0
1070
   271
1070
     2
1070
   272
1070
     2
1070
    48
1040
0.0
1070
    47
1040
0.0
1002
}
  0
MTEXT
  5
D6E
102
{ACAD_XDICTIONARY
360
D75
102
}
330
6C
100
AcDbEntity
  8
Symbol (ANSI)
100
AcDbMText
 10
102.331582756146
 20
11.13572058664368
 30
0.0
 40
1.100000035105727
 41
81.21725818303628
 46
0.0
 71
     4
 72
     1
  3
{\fRomanS|b0|i0|c0|p2;\H2x;PART#: NPDD4260G\P(DATA SUBJECT TO CHANGE WITHOUT NOTICE)\H1.6157x; \H0.61894x;\P \H1.352x; \H0.73963x;\P\H0.6x;THIS DRAWING IS PROPERTY OF HUBBELL INC. WIEGMANN\H1.5633x; \H0.63966x;\PALL INFORMATION IS PROPRIETARY AND NOT
  1
 TO BE DUPLICATED\H1.234x; \H0.81039x;\P\H1.2571x; }
  7
Note Text (ANSI)
 73
     1
 44
0.8026435375213623
  0
ENDSEC
  0
SECTION
  2
OBJECTS
  0
DICTIONARY
  5
C
330
0
100
AcDbDictionary
281
     1
  3
ACAD_CIP_PREVIOUS_PRODUCT_INFO
350
D70
  3
ACAD_COLOR
350
63
  3
ACAD_GROUP
350
D
  3
ACAD_LAYOUT
350
62
  3
ACAD_MATERIAL
350
10
  3
ACAD_MLEADERSTYLE
350
66
  3
ACAD_MLINESTYLE
350
5F
  3
ACAD_PLOTSETTINGS
350
61
  3
ACAD_PLOTSTYLENAME
350
E
  3
ACAD_SCALELIST
350
42
  3
ACAD_TABLESTYLE
350
64
  3
ACAD_VISUALSTYLE
350
29
  3
ACDB_RECOMPOSE_DATA
350
D77
  3
AcDbVariableDictionary
350
76
  0
DICTIONARY
  5
D75
330
D6E
100
AcDbDictionary
280
     1
281
     1
  3
ACAD_MTEXT_2008_RT
360
D76
  0
XRECORD
  5
D70
102
{ACAD_REACTORS
330
C
102
}
330
C
100
AcDbXrecord
280
     1
300
INVNTOR
300
2012
300
PDSP_F_S
  0
DICTIONARY
  5
63
102
{ACAD_REACTORS
330
C
102
}
330
C
100
AcDbDictionary
281
     1
  0
DICTIONARY
  5
D
102
{ACAD_REACTORS
330
C
102
}
330
C
100
AcDbDictionary
281
     1
  0
DICTIONARY
  5
62
102
{ACAD_REACTORS
330
C
102
}
330
C
100
AcDbDictionary
281
     1
  3
Layout1
350
6B
  3
Layout2
350
73
  3
Model
350
6F
  0
DICTIONARY
  5
10
102
{ACAD_REACTORS
330
C
102
}
330
C
100
AcDbDictionary
281
     1
  3
ByBlock
350
19
  3
ByLayer
350
11
  3
Global
350
21
  0
DICTIONARY
  5
66
102
{ACAD_REACTORS
330
C
102
}
330
C
100
AcDbDictionary
281
     1
  3
Standard
350
67
  0
DICTIONARY
  5
5F
102
{ACAD_REACTORS
330
C
102
}
330
C
100
AcDbDictionary
281
     1
  3
Standard
350
60
  0
DICTIONARY
  5
61
102
{ACAD_REACTORS
330
C
102
}
330
C
100
AcDbDictionary
281
     1
  0
ACDBDICTIONARYWDFLT
  5
E
102
{ACAD_REACTORS
330
C
102
}
330
C
100
AcDbDictionary
281
     1
  3
Normal
350
F
100
AcDbDictionaryWithDefault
340
F
  0
DICTIONARY
  5
42
102
{ACAD_REACTORS
330
C
102
}
330
C
100
AcDbDictionary
281
     1
  3
A0
350
43
  3
A1
350
44
  3
A2
350
45
  3
A3
350
46
  3
A4
350
47
  3
A5
350
48
  3
A6
350
49
  3
A7
350
4A
  3
A8
350
4B
  3
A9
350
4C
  3
B0
350
4D
  3
B1
350
4E
  3
B2
350
4F
  3
B3
350
50
  3
B4
350
51
  3
B5
350
52
  3
B6
350
53
  0
DICTIONARY
  5
64
102
{ACAD_REACTORS
330
C
102
}
330
C
100
AcDbDictionary
281
     1
  3
Standard
350
65
  0
DICTIONARY
  5
29
102
{ACAD_REACTORS
330
C
102
}
330
C
100
AcDbDictionary
281
     1
  3
2dWireframe
350
2F
  3
Basic
350
2E
  3
Brighten
350
35
  3
ColorChange
350
39
  3
Conceptual
350
32
  3
Dim
350
34
  3
EdgeColorOff
350
41
  3
Facepattern
350
38
  3
Flat
350
2A
  3
FlatWithEdges
350
2B
  3
Gouraud
350
2C
  3
GouraudWithEdges
350
2D
  3
Hidden
350
31
  3
JitterOff
350
3F
  3
Linepattern
350
37
  3
OverhangOff
350
40
  3
Realistic
350
33
  3
Shaded
350
3E
  3
Shaded with edges
350
3D
  3
Shades of Gray
350
3A
  3
Sketchy
350
3B
  3
Thicken
350
36
  3
Wireframe
350
30
  3
X-Ray
350
3C
  0
XRECORD
  5
D77
102
{ACAD_REACTORS
330
C
102
}
330
C
100
AcDbXrecord
280
     1
 90
        1
330
65
330
D6E
  0
DICTIONARY
  5
76
102
{ACAD_REACTORS
330
C
102
}
330
C
100
AcDbDictionary
281
     1
  3
CANNOSCALE
350
79
  3
CMLEADERSTYLE
350
78
  3
CTABLESTYLE
350
77
  0
XRECORD
  5
D76
102
{ACAD_REACTORS
330
D75
102
}
330
D75
100
AcDbXrecord
280
     1
 40
3088894.0
  1
\pxsm0.94;{\fRomanS|b0|i0;\H2.2000;PART#: NPDD4260G\P(DATA SUBJECT TO CHANGE WITHOUT NOTICE)\P \P\fRomanS|b0|i0;\H1.3200;THIS DRAWING IS PROPERTY OF HUBBELL INC. WIEGMANN\PALL INFORMATION IS PROPRIETARY AND NOT TO BE DUPLICATED\P}
  0
LAYOUT
  5
6B
102
{ACAD_REACTORS
330
62
102
}
330
62
100
AcDbPlotSettings
  1

  2

  4

  6

 40
0.0
 41
0.0
 42
0.0
 43
0.0
 44
0.0
 45
0.0
 46
0.0
 47
0.0
 48
0.0
 49
0.0
140
0.0
141
0.0
142
1.0
143
1.0
 70
   688
 72
     0
 73
     0
 74
     5
  7

 75
    16
147
1.0
 76
     0
 77
     2
 78
   300
148
0.0
149
0.0
100
AcDbLayout
  1
Layout1
 70
     1
 71
     1
 10
0.0
 20
0.0
 11
12.0
 21
9.0
 12
0.0
 22
0.0
 32
0.0
 14
0.0
 24
0.0
 34
0.0
 15
0.0
 25
0.0
 35
0.0
146
0.0
 13
0.0
 23
0.0
 33
0.0
 16
1.0
 26
0.0
 36
0.0
 17
0.0
 27
1.0
 37
0.0
 76
     0
330
68
  0
LAYOUT
  5
73
102
{ACAD_REACTORS
330
62
102
}
330
62
100
AcDbPlotSettings
  1

  2

  4

  6

 40
0.0
 41
0.0
 42
0.0
 43
0.0
 44
0.0
 45
0.0
 46
0.0
 47
0.0
 48
0.0
 49
0.0
140
0.0
141
0.0
142
1.0
143
1.0
 70
   688
 72
     0
 73
     0
 74
     5
  7

 75
    16
147
1.0
 76
     0
 77
     2
 78
   300
148
0.0
149
0.0
100
AcDbLayout
  1
Layout2
 70
     1
 71
     2
 10
0.0
 20
0.0
 11
12.0
 21
9.0
 12
0.0
 22
0.0
 32
0.0
 14
0.0
 24
0.0
 34
0.0
 15
0.0
 25
0.0
 35
0.0
146
0.0
 13
0.0
 23
0.0
 33
0.0
 16
1.0
 26
0.0
 36
0.0
 17
0.0
 27
1.0
 37
0.0
 76
     0
330
70
  0
LAYOUT
  5
6F
102
{ACAD_REACTORS
330
62
102
}
330
62
100
AcDbPlotSettings
  1

  2

  4

  6

 40
0.0
 41
0.0
 42
0.0
 43
0.0
 44
0.0
 45
0.0
 46
0.0
 47
0.0
 48
0.0
 49
0.0
140
0.0
141
0.0
142
1.0
143
1.0
 70
  1712
 72
     0
 73
     0
 74
     0
  7

 75
     0
147
1.0
 76
     0
 77
     2
 78
   300
148
0.0
149
0.0
100
AcDbLayout
  1
Model
 70
     1
 71
     0
 10
0.0
 20
0.0
 11
12.0
 21
9.0
 12
0.0
 22
0.0
 32
0.0
 14
0.0
 24
0.0
 34
0.0
 15
0.0
 25
0.0
 35
0.0
146
0.0
 13
0.0
 23
0.0
 33
0.0
 16
1.0
 26
0.0
 36
0.0
 17
0.0
 27
1.0
 37
0.0
 76
     0
330
6C
  0
MATERIAL
  5
19
102
{ACAD_XDICTIONARY
360
1A
102
}
102
{ACAD_REACTORS
330
10
102
}
330
10
100
AcDbMaterial
  1
ByBlock
 72
     0
 43
0.0208333333333333
 43
0.0
 43
0.0
 43
0.0
 43
0.0
 43
0.0208333333333333
 43
0.0
 43
0.0
 43
0.0
 43
0.0
 43
1.0
 43
0.0
 43
0.0
 43
0.0
 43
0.0
 43
1.0
 77
     0
 47
0.0208333333333333
 47
0.0
 47
0.0
 47
0.0
 47
0.0
 47
0.0208333333333333
 47
0.0
 47
0.0
 47
0.0
 47
0.0
 47
1.0
 47
0.0
 47
0.0
 47
0.0
 47
0.0
 47
1.0
171
     0
 49
0.0208333333333333
 49
0.0
 49
0.0
 49
0.0
 49
0.0
 49
0.0208333333333333
 49
0.0
 49
0.0
 49
0.0
 49
0.0
 49
1.0
 49
0.0
 49
0.0
 49
0.0
 49
0.0
 49
1.0
175
     0
142
0.0208333333333333
142
0.0
142
0.0
142
0.0
142
0.0
142
0.0208333333333333
142
0.0
142
0.0
142
0.0
142
0.0
142
1.0
142
0.0
142
0.0
142
0.0
142
0.0
142
1.0
179
     0
144
0.0208333333333333
144
0.0
144
0.0
144
0.0
144
0.0
144
0.0208333333333333
144
0.0
144
0.0
144
0.0
144
0.0
144
1.0
144
0.0
144
0.0
144
0.0
144
0.0
144
1.0
147
0.0208333333333333
147
0.0
147
0.0
147
0.0
147
0.0
147
0.0208333333333333
147
0.0
147
0.0
147
0.0
147
0.0
147
1.0
147
0.0
147
0.0
147
0.0
147
0.0
147
1.0
  0
MATERIAL
  5
11
102
{ACAD_XDICTIONARY
360
12
102
}
102
{ACAD_REACTORS
330
10
102
}
330
10
100
AcDbMaterial
  1
ByLayer
 72
     0
 43
0.0208333333333333
 43
0.0
 43
0.0
 43
0.0
 43
0.0
 43
0.0208333333333333
 43
0.0
 43
0.0
 43
0.0
 43
0.0
 43
1.0
 43
0.0
 43
0.0
 43
0.0
 43
0.0
 43
1.0
 77
     0
 47
0.0208333333333333
 47
0.0
 47
0.0
 47
0.0
 47
0.0
 47
0.0208333333333333
 47
0.0
 47
0.0
 47
0.0
 47
0.0
 47
1.0
 47
0.0
 47
0.0
 47
0.0
 47
0.0
 47
1.0
171
     0
 49
0.0208333333333333
 49
0.0
 49
0.0
 49
0.0
 49
0.0
 49
0.0208333333333333
 49
0.0
 49
0.0
 49
0.0
 49
0.0
 49
1.0
 49
0.0
 49
0.0
 49
0.0
 49
0.0
 49
1.0
175
     0
142
0.0208333333333333
142
0.0
142
0.0
142
0.0
142
0.0
142
0.0208333333333333
142
0.0
142
0.0
142
0.0
142
0.0
142
1.0
142
0.0
142
0.0
142
0.0
142
0.0
142
1.0
179
     0
144
0.0208333333333333
144
0.0
144
0.0
144
0.0
144
0.0
144
0.0208333333333333
144
0.0
144
0.0
144
0.0
144
0.0
144
1.0
144
0.0
144
0.0
144
0.0
144
0.0
144
1.0
147
0.0208333333333333
147
0.0
147
0.0
147
0.0
147
0.0
147
0.0208333333333333
147
0.0
147
0.0
147
0.0
147
0.0
147
1.0
147
0.0
147
0.0
147
0.0
147
0.0
147
1.0
  0
MATERIAL
  5
21
102
{ACAD_XDICTIONARY
360
22
102
}
102
{ACAD_REACTORS
330
10
102
}
330
10
100
AcDbMaterial
  1
Global
 72
     0
 43
0.0208333333333333
 43
0.0
 43
0.0
 43
0.0
 43
0.0
 43
0.0208333333333333
 43
0.0
 43
0.0
 43
0.0
 43
0.0
 43
1.0
 43
0.0
 43
0.0
 43
0.0
 43
0.0
 43
1.0
 77
     0
 47
0.0208333333333333
 47
0.0
 47
0.0
 47
0.0
 47
0.0
 47
0.0208333333333333
 47
0.0
 47
0.0
 47
0.0
 47
0.0
 47
1.0
 47
0.0
 47
0.0
 47
0.0
 47
0.0
 47
1.0
171
     0
 49
0.0208333333333333
 49
0.0
 49
0.0
 49
0.0
 49
0.0
 49
0.0208333333333333
 49
0.0
 49
0.0
 49
0.0
 49
0.0
 49
1.0
 49
0.0
 49
0.0
 49
0.0
 49
0.0
 49
1.0
175
     0
142
0.0208333333333333
142
0.0
142
0.0
142
0.0
142
0.0
142
0.0208333333333333
142
0.0
142
0.0
142
0.0
142
0.0
142
1.0
142
0.0
142
0.0
142
0.0
142
0.0
142
1.0
179
     0
144
0.0208333333333333
144
0.0
144
0.0
144
0.0
144
0.0
144
0.0208333333333333
144
0.0
144
0.0
144
0.0
144
0.0
144
1.0
144
0.0
144
0.0
144
0.0
144
0.0
144
1.0
147
0.0208333333333333
147
0.0
147
0.0
147
0.0
147
0.0
147
0.0208333333333333
147
0.0
147
0.0
147
0.0
147
0.0
147
1.0
147
0.0
147
0.0
147
0.0
147
0.0
147
1.0
  0
MLEADERSTYLE
  5
67
102
{ACAD_XDICTIONARY
360
D73
102
}
102
{ACAD_REACTORS
330
66
102
}
330
66
100
AcDbMLeaderStyle
179
     2
170
     2
171
     1
172
     0
 90
        2
 40
0.0
 41
0.0
173
     1
 91
-1056964608
340
5B
 92
       -2
290
     1
 42
0.09
291
     1
 43
0.36
  3
Standard
 44
0.18
300

342
55
174
     1
178
     6
175
     1
176
     0
 93
-1056964608
 45
0.18
292
     0
297
     0
 46
0.18
 94
-1056964608
 47
1.0
 49
1.0
140
1.0
293
     1
141
0.0
294
     1
177
     0
142
1.0
295
     0
296
     0
143
0.125
271
     0
272
     9
273
     9
  0
MLINESTYLE
  5
60
102
{ACAD_REACTORS
330
5F
102
}
330
5F
100
AcDbMlineStyle
  2
STANDARD
 70
     0
  3

 62
   256
 51
90.0
 52
90.0
 71
     2
 49
0.5
 62
   256
  6
BYLAYER
 49
-0.5
 62
   256
  6
BYLAYER
  0
ACDBPLACEHOLDER
  5
F
102
{ACAD_REACTORS
330
E
102
}
330
E
  0
SCALE
  5
43
102
{ACAD_REACTORS
330
42
102
}
330
42
100
AcDbScale
 70
     0
300
1:1
140
1.0
141
1.0
290
     1
  0
SCALE
  5
44
102
{ACAD_REACTORS
330
42
102
}
330
42
100
AcDbScale
 70
     0
300
1/128" = 1'-0"
140
0.0078125
141
12.0
290
     0
  0
SCALE
  5
45
102
{ACAD_REACTORS
330
42
102
}
330
42
100
AcDbScale
 70
     0
300
1/64" = 1'-0"
140
0.015625
141
12.0
290
     0
  0
SCALE
  5
46
102
{ACAD_REACTORS
330
42
102
}
330
42
100
AcDbScale
 70
     0
300
1/32" = 1'-0"
140
0.03125
141
12.0
290
     0
  0
SCALE
  5
47
102
{ACAD_REACTORS
330
42
102
}
330
42
100
AcDbScale
 70
     0
300
1/16" = 1'-0"
140
0.0625
141
12.0
290
     0
  0
SCALE
  5
48
102
{ACAD_REACTORS
330
42
102
}
330
42
100
AcDbScale
 70
     0
300
3/32" = 1'-0"
140
0.09375
141
12.0
290
     0
  0
SCALE
  5
49
102
{ACAD_REACTORS
330
42
102
}
330
42
100
AcDbScale
 70
     0
300
1/8" = 1'-0"
140
0.125
141
12.0
290
     0
  0
SCALE
  5
4A
102
{ACAD_REACTORS
330
42
102
}
330
42
100
AcDbScale
 70
     0
300
3/16" = 1'-0"
140
0.1875
141
12.0
290
     0
  0
SCALE
  5
4B
102
{ACAD_REACTORS
330
42
102
}
330
42
100
AcDbScale
 70
     0
300
1/4" = 1'-0"
140
0.25
141
12.0
290
     0
  0
SCALE
  5
4C
102
{ACAD_REACTORS
330
42
102
}
330
42
100
AcDbScale
 70
     0
300
3/8" = 1'-0"
140
0.375
141
12.0
290
     0
  0
SCALE
  5
4D
102
{ACAD_REACTORS
330
42
102
}
330
42
100
AcDbScale
 70
     0
300
1/2" = 1'-0"
140
0.5
141
12.0
290
     0
  0
SCALE
  5
4E
102
{ACAD_REACTORS
330
42
102
}
330
42
100
AcDbScale
 70
     0
300
3/4" = 1'-0"
140
0.75
141
12.0
290
     0
  0
SCALE
  5
4F
102
{ACAD_REACTORS
330
42
102
}
330
42
100
AcDbScale
 70
     0
300
1" = 1'-0"
140
1.0
141
12.0
290
     0
  0
SCALE
  5
50
102
{ACAD_REACTORS
330
42
102
}
330
42
100
AcDbScale
 70
     0
300
1-1/2" = 1'-0"
140
1.5
141
12.0
290
     0
  0
SCALE
  5
51
102
{ACAD_REACTORS
330
42
102
}
330
42
100
AcDbScale
 70
     0
300
3" = 1'-0"
140
3.0
141
12.0
290
     0
  0
SCALE
  5
52
102
{ACAD_REACTORS
330
42
102
}
330
42
100
AcDbScale
 70
     0
300
6" = 1'-0"
140
6.0
141
12.0
290
     0
  0
SCALE
  5
53
102
{ACAD_REACTORS
330
42
102
}
330
42
100
AcDbScale
 70
     0
300
1'-0" = 1'-0"
140
12.0
141
12.0
290
     0
  0
TABLESTYLE
  5
65
102
{ACAD_XDICTIONARY
360
D71
102
}
102
{ACAD_REACTORS
330
64
102
}
330
64
100
AcDbTableStyle
280
     0
  3
Standard
 70
     0
 71
     0
 40
0.06
 41
0.06
280
     0
281
     0
  7
Standard
140
0.18
170
     2
 62
     0
 63
     7
283
     0
 90
      512
 91
        0
  1

274
    -2
284
     1
 64
     0
275
    -2
285
     1
 65
     0
276
    -2
286
     1
 66
     0
277
    -2
287
     1
 67
     0
278
    -2
288
     1
 68
     0
279
    -2
289
     1
 69
     0
  7
Standard
140
0.25
170
     5
 62
     0
 63
     7
283
     0
 90
      512
 91
        0
  1

274
    -2
284
     1
 64
     0
275
    -2
285
     1
 65
     0
276
    -2
286
     1
 66
     0
277
    -2
287
     1
 67
     0
278
    -2
288
     1
 68
     0
279
    -2
289
     1
 69
     0
  7
Standard
140
0.18
170
     5
 62
     0
 63
     7
283
     0
 90
      512
 91
        0
  1

274
    -2
284
     1
 64
     0
275
    -2
285
     1
 65
     0
276
    -2
286
     1
 66
     0
277
    -2
287
     1
 67
     0
278
    -2
288
     1
 68
     0
279
    -2
289
     1
 69
     0
  0
VISUALSTYLE
  5
2F
102
{ACAD_REACTORS
330
29
102
}
330
29
100
AcDbVisualStyle
  2
2dWireframe
 70
     4
177
     2
291
     0
 71
     0
176
     1
 72
     2
176
     1
 73
     0
176
     1
 90
        0
176
     1
 40
0.6
176
     1
 41
30.0
176
     1
 63
     7
421
 16777215
176
     1
 74
     1
176
     1
 91
        4
176
     1
 64
     7
176
     1
 65
   257
176
     1
 75
     1
176
     1
175
     1
176
     1
 42
1.0
176
     1
 92
        0
176
     1
 66
   257
176
     1
 43
1.0
176
     1
 76
     1
176
     1
 77
     6
176
     1
 78
     2
176
     1
 67
     7
176
     1
 79
     5
176
     1
170
     0
176
     1
171
     0
176
     1
290
     0
176
     1
 93
        1
176
     1
 44
0.0
176
     1
173
     0
176
     1
  0
VISUALSTYLE
  5
2E
102
{ACAD_REACTORS
330
29
102
}
330
29
100
AcDbVisualStyle
  2
Basic
 70
     7
177
     2
291
     1
 71
     1
176
     1
 72
     0
176
     1
 73
     1
176
     1
 90
        0
176
     1
 40
0.6
176
     1
 41
30.0
176
     1
 63
     7
421
 16777215
176
     1
 74
     0
176
     1
 91
        4
176
     1
 64
     7
176
     1
 65
   257
176
     1
 75
     1
176
     1
175
     1
176
     1
 42
1.0
176
     1
 92
        8
176
     1
 66
     7
176
     1
 43
1.0
176
     1
 76
     1
176
     1
 77
     6
176
     1
 78
     2
176
     1
 67
     7
176
     1
 79
     5
176
     1
170
     0
176
     1
171
     0
176
     1
290
     0
176
     1
 93
        1
176
     1
 44
0.0
176
     1
173
     0
176
     1
  0
VISUALSTYLE
  5
35
102
{ACAD_REACTORS
330
29
102
}
330
29
100
AcDbVisualStyle
  2
Brighten
 70
    12
177
     2
291
     1
 71
     2
176
     1
 72
     2
176
     1
 73
     0
176
     1
 90
        0
176
     1
 40
0.6
176
     1
 41
30.0
176
     1
 63
     7
421
 16777215
176
     1
 74
     1
176
     1
 91
        4
176
     1
 64
     7
176
     1
 65
   257
176
     1
 75
     1
176
     1
175
     1
176
     1
 42
1.0
176
     1
 92
        8
176
     1
 66
     7
176
     1
 43
1.0
176
     1
 76
     1
176
     1
 77
     6
176
     1
 78
     2
176
     1
 67
     7
176
     1
 79
     5
176
     1
170
     0
176
     1
171
     0
176
     1
290
     0
176
     1
 93
        1
176
     1
 44
50.0
176
     1
173
     0
176
     1
  0
VISUALSTYLE
  5
39
102
{ACAD_REACTORS
330
29
102
}
330
29
100
AcDbVisualStyle
  2
ColorChange
 70
    16
177
     2
291
     1
 71
     2
176
     1
 72
     2
176
     1
 73
     3
176
     1
 90
        0
176
     1
 40
0.6
176
     1
 41
30.0
176
     1
 63
     8
421
  8421504
176
     1
 74
     1
176
     1
 91
        4
176
     1
 64
     7
176
     1
 65
   257
176
     1
 75
     1
176
     1
175
     1
176
     1
 42
1.0
176
     1
 92
        8
176
     1
 66
     8
424
  8421504
176
     1
 43
1.0
176
     1
 76
     1
176
     1
 77
     6
176
     1
 78
     2
176
     1
 67
     7
176
     1
 79
     5
176
     1
170
     0
176
     1
171
     0
176
     1
290
     0
176
     1
 93
        1
176
     1
 44
0.0
176
     1
173
     0
176
     1
  0
VISUALSTYLE
  5
32
102
{ACAD_REACTORS
330
29
102
}
330
29
100
AcDbVisualStyle
  2
Conceptual
 70
     9
177
     2
291
     0
 71
     3
176
     1
 72
     2
176
     1
 73
     0
176
     1
 90
        0
176
     1
 40
0.6
176
     1
 41
30.0
176
     1
 63
     7
421
 16777215
176
     1
 74
     2
176
     1
 91
        2
176
     1
 64
     7
176
     1
 65
   257
176
     1
 75
     1
176
     1
175
     1
176
     1
 42
179.0
176
     1
 92
        8
176
     1
 66
     7
176
     1
 43
1.0
176
     1
 76
     1
176
     1
 77
     6
176
     1
 78
     2
176
     1
 67
     7
176
     1
 79
     3
176
     1
170
     0
176
     1
171
     0
176
     1
290
     0
176
     1
 93
        1
176
     1
 44
0.0
176
     1
173
     0
176
     1
  0
VISUALSTYLE
  5
34
102
{ACAD_REACTORS
330
29
102
}
330
29
100
AcDbVisualStyle
  2
Dim
 70
    11
177
     2
291
     1
 71
     2
176
     1
 72
     2
176
     1
 73
     0
176
     1
 90
        0
176
     1
 40
0.6
176
     1
 41
30.0
176
     1
 63
     7
421
 16777215
176
     1
 74
     1
176
     1
 91
        4
176
     1
 64
     7
176
     1
 65
   257
176
     1
 75
     1
176
     1
175
     1
176
     1
 42
1.0
176
     1
 92
        8
176
     1
 66
     7
176
     1
 43
1.0
176
     1
 76
     1
176
     1
 77
     6
176
     1
 78
     2
176
     1
 67
     7
176
     1
 79
     5
176
     1
170
     0
176
     1
171
     0
176
     1
290
     0
176
     1
 93
        1
176
     1
 44
-50.0
176
     1
173
     0
176
     1
  0
VISUALSTYLE
  5
41
102
{ACAD_REACTORS
330
29
102
}
330
29
100
AcDbVisualStyle
  2
EdgeColorOff
 70
    22
177
     2
291
     1
 71
     2
176
     0
 72
     2
176
     0
 73
     0
176
     0
 90
        0
176
     0
 40
0.6
176
     0
 41
30.0
176
     0
 63
     7
421
 16777215
176
     0
 74
     1
176
     0
 91
        4
176
     0
 64
     7
176
     0
 65
   257
176
     0
 75
     1
176
     0
175
     1
176
     0
 42
1.0
176
     0
 92
        8
176
     2
 66
     7
176
     0
 43
1.0
176
     0
 76
     1
176
     0
 77
     6
176
     0
 78
     2
176
     0
 67
     7
176
     0
 79
     5
176
     0
170
     0
176
     0
171
     0
176
     0
290
     0
176
     0
 93
        1
176
     0
 44
0.0
176
     0
173
     0
176
     0
  0
VISUALSTYLE
  5
38
102
{ACAD_REACTORS
330
29
102
}
330
29
100
AcDbVisualStyle
  2
Facepattern
 70
    15
177
     2
291
     1
 71
     2
176
     1
 72
     2
176
     1
 73
     0
176
     1
 90
        0
176
     1
 40
0.6
176
     1
 41
30.0
176
     1
 63
     7
421
 16777215
176
     1
 74
     1
176
     1
 91
        4
176
     1
 64
     7
176
     1
 65
   257
176
     1
 75
     1
176
     1
175
     1
176
     1
 42
1.0
176
     1
 92
        8
176
     1
 66
     7
176
     1
 43
1.0
176
     1
 76
     1
176
     1
 77
     6
176
     1
 78
     2
176
     1
 67
     7
176
     1
 79
     5
176
     1
170
     0
176
     1
171
     0
176
     1
290
     0
176
     1
 93
        1
176
     1
 44
0.0
176
     1
173
     0
176
     1
  0
VISUALSTYLE
  5
2A
102
{ACAD_REACTORS
330
29
102
}
330
29
100
AcDbVisualStyle
  2
Flat
 70
     0
177
     2
291
     1
 71
     2
176
     1
 72
     1
176
     1
 73
     1
176
     1
 90
        2
176
     1
 40
0.6
176
     1
 41
30.0
176
     1
 63
     7
421
 16777215
176
     1
 74
     0
176
     1
 91
        0
176
     1
 64
     7
176
     1
 65
   257
176
     1
 75
     1
176
     1
175
     1
176
     1
 42
1.0
176
     1
 92
        8
176
     1
 66
     7
176
     1
 43
1.0
176
     1
 76
     1
176
     1
 77
     6
176
     1
 78
     2
176
     1
 67
     7
176
     1
 79
     5
176
     1
170
     0
176
     1
171
     0
176
     1
290
     0
176
     1
 93
       13
176
     1
 44
0.0
176
     1
173
     0
176
     1
  0
VISUALSTYLE
  5
2B
102
{ACAD_REACTORS
330
29
102
}
330
29
100
AcDbVisualStyle
  2
FlatWithEdges
 70
     1
177
     2
291
     1
 71
     2
176
     1
 72
     1
176
     1
 73
     1
176
     1
 90
        2
176
     1
 40
0.6
176
     1
 41
30.0
176
     1
 63
     7
421
 16777215
176
     1
 74
     1
176
     1
 91
        0
176
     1
 64
     7
176
     1
 65
   257
176
     1
 75
     1
176
     1
175
     1
176
     1
 42
1.0
176
     1
 92
        0
176
     1
 66
   257
176
     1
 43
1.0
176
     1
 76
     1
176
     1
 77
     6
176
     1
 78
     2
176
     1
 67
     7
176
     1
 79
     5
176
     1
170
     0
176
     1
171
     0
176
     1
290
     0
176
     1
 93
       13
176
     1
 44
0.0
176
     1
173
     0
176
     1
  0
VISUALSTYLE
  5
2C
102
{ACAD_REACTORS
330
29
102
}
330
29
100
AcDbVisualStyle
  2
Gouraud
 70
     2
177
     2
291
     1
 71
     2
176
     1
 72
     2
176
     1
 73
     1
176
     1
 90
        2
176
     1
 40
0.6
176
     1
 41
30.0
176
     1
 63
     7
421
 16777215
176
     1
 74
     0
176
     1
 91
        0
176
     1
 64
     7
176
     1
 65
   257
176
     1
 75
     1
176
     1
175
     1
176
     1
 42
1.0
176
     1
 92
        0
176
     1
 66
     7
176
     1
 43
1.0
176
     1
 76
     1
176
     1
 77
     6
176
     1
 78
     2
176
     1
 67
     7
176
     1
 79
     5
176
     1
170
     0
176
     1
171
     0
176
     1
290
     0
176
     1
 93
       13
176
     1
 44
0.0
176
     1
173
     0
176
     1
  0
VISUALSTYLE
  5
2D
102
{ACAD_REACTORS
330
29
102
}
330
29
100
AcDbVisualStyle
  2
GouraudWithEdges
 70
     3
177
     2
291
     1
 71
     2
176
     1
 72
     2
176
     1
 73
     1
176
     1
 90
        2
176
     1
 40
0.6
176
     1
 41
30.0
176
     1
 63
     7
421
 16777215
176
     1
 74
     1
176
     1
 91
        0
176
     1
 64
     7
176
     1
 65
   257
176
     1
 75
     1
176
     1
175
     1
176
     1
 42
1.0
176
     1
 92
        0
176
     1
 66
   257
176
     1
 43
1.0
176
     1
 76
     1
176
     1
 77
     6
176
     1
 78
     2
176
     1
 67
     7
176
     1
 79
     5
176
     1
170
     0
176
     1
171
     0
176
     1
290
     0
176
     1
 93
       13
176
     1
 44
0.0
176
     1
173
     0
176
     1
  0
VISUALSTYLE
  5
31
102
{ACAD_REACTORS
330
29
102
}
330
29
100
AcDbVisualStyle
  2
Hidden
 70
     6
177
     2
291
     0
 71
     1
176
     1
 72
     2
176
     1
 73
     2
176
     1
 90
        0
176
     1
 40
0.6
176
     1
 41
30.0
176
     1
 63
     7
421
 16777215
176
     1
 74
     2
176
     1
 91
        2
176
     1
 64
     7
176
     1
 65
   257
176
     1
 75
     2
176
     1
175
     1
176
     1
 42
40.0
176
     1
 92
        0
176
     1
 66
   257
176
     1
 43
1.0
176
     1
 76
     1
176
     1
 77
     6
176
     1
 78
     2
176
     1
 67
     7
176
     1
 79
     3
176
     1
170
     0
176
     1
171
     0
176
     1
290
     0
176
     1
 93
        1
176
     1
 44
0.0
176
     1
173
     0
176
     1
  0
VISUALSTYLE
  5
3F
102
{ACAD_REACTORS
330
29
102
}
330
29
100
AcDbVisualStyle
  2
JitterOff
 70
    20
177
     2
291
     1
 71
     2
176
     0
 72
     2
176
     0
 73
     0
176
     0
 90
        0
176
     0
 40
0.6
176
     0
 41
30.0
176
     0
 63
     7
421
 16777215
176
     0
 74
     1
176
     0
 91
        4
176
     0
 64
     7
176
     0
 65
   257
176
     0
 75
     1
176
     0
175
     1
176
     0
 42
1.0
176
     0
 92
       10
176
     2
 66
     7
176
     0
 43
1.0
176
     0
 76
     1
176
     0
 77
     6
176
     0
 78
     2
176
     0
 67
     7
176
     0
 79
     5
176
     0
170
     0
176
     0
171
     0
176
     0
290
     0
176
     0
 93
        1
176
     0
 44
0.0
176
     0
173
     0
176
     0
  0
VISUALSTYLE
  5
37
102
{ACAD_REACTORS
330
29
102
}
330
29
100
AcDbVisualStyle
  2
Linepattern
 70
    14
177
     2
291
     1
 71
     2
176
     1
 72
     2
176
     1
 73
     0
176
     1
 90
        0
176
     1
 40
0.6
176
     1
 41
30.0
176
     1
 63
     7
421
 16777215
176
     1
 74
     1
176
     1
 91
        4
176
     1
 64
     7
176
     1
 65
   257
176
     1
 75
     7
176
     1
175
     7
176
     1
 42
1.0
176
     1
 92
        8
176
     1
 66
     7
176
     1
 43
1.0
176
     1
 76
     1
176
     1
 77
     6
176
     1
 78
     2
176
     1
 67
     7
176
     1
 79
     5
176
     1
170
     0
176
     1
171
     0
176
     1
290
     0
176
     1
 93
        1
176
     1
 44
0.0
176
     1
173
     0
176
     1
  0
VISUALSTYLE
  5
40
102
{ACAD_REACTORS
330
29
102
}
330
29
100
AcDbVisualStyle
  2
OverhangOff
 70
    21
177
     2
291
     1
 71
     2
176
     0
 72
     2
176
     0
 73
     0
176
     0
 90
        0
176
     0
 40
0.6
176
     0
 41
30.0
176
     0
 63
     7
421
 16777215
176
     0
 74
     1
176
     0
 91
        4
176
     0
 64
     7
176
     0
 65
   257
176
     0
 75
     1
176
     0
175
     1
176
     0
 42
1.0
176
     0
 92
        9
176
     2
 66
     7
176
     0
 43
1.0
176
     0
 76
     1
176
     0
 77
     6
176
     0
 78
     2
176
     0
 67
     7
176
     0
 79
     5
176
     0
170
     0
176
     0
171
     0
176
     0
290
     0
176
     0
 93
        1
176
     0
 44
0.0
176
     0
173
     0
176
     0
  0
VISUALSTYLE
  5
33
102
{ACAD_REACTORS
330
29
102
}
330
29
100
AcDbVisualStyle
  2
Realistic
 70
     8
177
     2
291
     0
 71
     2
176
     1
 72
     3
176
     1
 73
     0
176
     1
 90
        2
176
     1
 40
0.6
176
     1
 41
30.0
176
     1
 63
     7
421
 16777215
176
     1
 74
     0
176
     1
 91
        0
176
     1
 64
     7
176
     1
 65
   257
176
     1
 75
     1
176
     1
175
     1
176
     1
 42
1.0
176
     1
 92
        8
176
     1
 66
   257
176
     1
 43
1.0
176
     1
 76
     1
176
     1
 77
     6
176
     1
 78
     2
176
     1
 67
     7
176
     1
 79
     3
176
     1
170
     0
176
     1
171
     0
176
     1
290
     0
176
     1
 93
       13
176
     1
 44
0.0
176
     1
173
     0
176
     1
  0
VISUALSTYLE
  5
3E
102
{ACAD_REACTORS
330
29
102
}
330
29
100
AcDbVisualStyle
  2
Shaded
 70
    27
177
     2
291
     0
 71
     2
176
     1
 72
     2
176
     1
 73
     1
176
     1
 90
        2
176
     1
 40
0.6
176
     1
 41
30.0
176
     1
 63
     7
421
 16777215
176
     1
 74
     0
176
     1
 91
        4
176
     1
 64
     7
176
     1
 65
   257
176
     1
 75
     1
176
     1
175
     1
176
     1
 42
1.0
176
     1
 92
        8
176
     1
 66
   257
176
     1
 43
1.0
176
     1
 76
     1
176
     1
 77
     6
176
     1
 78
     2
176
     1
 67
     8
425
  7895160
176
     1
 79
     3
176
     1
170
     0
176
     1
171
     0
176
     1
290
     0
176
     1
 93
        5
176
     1
 44
0.0
176
     1
173
     0
176
     1
  0
VISUALSTYLE
  5
3D
102
{ACAD_REACTORS
330
29
102
}
330
29
100
AcDbVisualStyle
  2
Shaded with edges
 70
    26
177
     2
291
     0
 71
     2
176
     1
 72
     2
176
     1
 73
     1
176
     1
 90
        2
176
     1
 40
0.6
176
     1
 41
30.0
176
     1
 63
     7
421
 16777215
176
     1
 74
     1
176
     1
 91
       10
176
     1
 64
     7
176
     1
 65
   257
176
     1
 75
     2
176
     1
175
     1
176
     1
 42
1.0
176
     1
 92
        8
176
     1
 66
   257
176
     1
 43
1.0
176
     1
 76
     1
176
     1
 77
     6
176
     1
 78
     2
176
     1
 67
     7
176
     1
 79
     3
176
     1
170
     0
176
     1
171
     0
176
     1
290
     0
176
     1
 93
        5
176
     1
 44
0.0
176
     1
173
     0
176
     1
  0
VISUALSTYLE
  5
3A
102
{ACAD_REACTORS
330
29
102
}
330
29
100
AcDbVisualStyle
  2
Shades of Gray
 70
    23
177
     2
291
     0
 71
     2
176
     1
 72
     2
176
     1
 73
     3
176
     1
 90
        0
176
     1
 40
0.6
176
     1
 41
30.0
176
     1
 63
     7
421
 16777215
176
     1
 74
     2
176
     1
 91
        2
176
     1
 64
     7
176
     1
 65
     7
176
     1
 75
     1
176
     1
175
     1
176
     1
 42
40.0
176
     1
 92
        8
176
     1
 66
     7
176
     1
 43
1.0
176
     1
 76
     1
176
     1
 77
     6
176
     1
 78
     2
176
     1
 67
     7
176
     1
 79
     3
176
     1
170
     0
176
     1
171
     0
176
     1
290
     0
176
     1
 93
        1
176
     1
 44
0.0
176
     1
173
     0
176
     1
  0
VISUALSTYLE
  5
3B
102
{ACAD_REACTORS
330
29
102
}
330
29
100
AcDbVisualStyle
  2
Sketchy
 70
    24
177
     2
291
     0
 71
     1
176
     1
 72
     2
176
     1
 73
     2
176
     1
 90
        0
176
     1
 40
0.6
176
     1
 41
30.0
176
     1
 63
     7
421
 16777215
176
     1
 74
     2
176
     1
 91
        2
176
     1
 64
     7
176
     1
 65
     7
176
     1
 75
     1
176
     1
175
     1
176
     1
 42
40.0
176
     1
 92
       11
176
     1
 66
     7
176
     1
 43
1.0
176
     1
 76
     1
176
     1
 77
     6
176
     1
 78
     2
176
     1
 67
     7
176
     1
 79
     6
176
     1
170
     0
176
     1
171
     0
176
     1
290
     0
176
     1
 93
        1
176
     1
 44
0.0
176
     1
173
     0
176
     1
  0
VISUALSTYLE
  5
36
102
{ACAD_REACTORS
330
29
102
}
330
29
100
AcDbVisualStyle
  2
Thicken
 70
    13
177
     2
291
     1
 71
     2
176
     1
 72
     2
176
     1
 73
     0
176
     1
 90
        0
176
     1
 40
0.6
176
     1
 41
30.0
176
     1
 63
     7
421
 16777215
176
     1
 74
     1
176
     1
 91
        4
176
     1
 64
     7
176
     1
 65
   257
176
     1
 75
     1
176
     1
175
     1
176
     1
 42
1.0
176
     1
 92
       12
176
     1
 66
     7
176
     1
 43
1.0
176
     1
 76
     1
176
     1
 77
     6
176
     1
 78
     2
176
     1
 67
     7
176
     1
 79
     5
176
     1
170
     0
176
     1
171
     0
176
     1
290
     0
176
     1
 93
        1
176
     1
 44
0.0
176
     1
173
     0
176
     1
  0
VISUALSTYLE
  5
30
102
{ACAD_REACTORS
330
29
102
}
330
29
100
AcDbVisualStyle
  2
Wireframe
 70
     5
177
     2
291
     0
 71
     0
176
     1
 72
     2
176
     1
 73
     0
176
     1
 90
        0
176
     1
 40
0.6
176
     1
 41
30.0
176
     1
 63
     7
421
 16777215
176
     1
 74
     1
176
     1
 91
        4
176
     1
 64
     7
176
     1
 65
   257
176
     1
 75
     1
176
     1
175
     1
176
     1
 42
1.0
176
     1
 92
        0
176
     1
 66
   257
176
     1
 43
1.0
176
     1
 76
     1
176
     1
 77
     6
176
     1
 78
     2
176
     1
 67
     7
176
     1
 79
     3
176
     1
170
     0
176
     1
171
     0
176
     1
290
     0
176
     1
 93
        1
176
     1
 44
0.0
176
     1
173
     0
176
     1
  0
VISUALSTYLE
  5
3C
102
{ACAD_REACTORS
330
29
102
}
330
29
100
AcDbVisualStyle
  2
X-Ray
 70
    25
177
     2
291
     0
 71
     2
176
     1
 72
     2
176
     1
 73
     1
176
     1
 90
        1
176
     1
 40
0.5
176
     1
 41
30.0
176
     1
 63
     7
421
 16777215
176
     1
 74
     1
176
     1
 91
        0
176
     1
 64
     7
176
     1
 65
   257
176
     1
 75
     1
176
     1
175
     1
176
     1
 42
1.0
176
     1
 92
        8
176
     1
 66
     7
176
     1
 43
1.0
176
     1
 76
     1
176
     1
 77
     6
176
     1
 78
     2
176
     1
 67
     7
176
     1
 79
     3
176
     1
170
     0
176
     1
171
     0
176
     1
290
     0
176
     1
 93
       13
176
     1
 44
0.0
176
     1
173
     0
176
     1
  0
DICTIONARYVAR
  5
79
102
{ACAD_REACTORS
330
76
102
}
330
76
100
DictionaryVariables
280
     0
  1
1:1
  0
DICTIONARYVAR
  5
78
102
{ACAD_REACTORS
330
76
102
}
330
76
100
DictionaryVariables
280
     0
  1
STANDARD
  0
DICTIONARYVAR
  5
77
102
{ACAD_REACTORS
330
76
102
}
330
76
100
DictionaryVariables
280
     0
  1
STANDARD
  0
DICTIONARY
  5
1A
330
19
100
AcDbDictionary
280
     1
281
     1
  3
BUMPTILE
360
1C
  3
DIFFUSETILE
360
1B
  3
OPACITYTILE
360
1F
  3
REFLECTIONTILE
360
1E
  3
REFRACTIONTILE
360
20
  3
SPECULARTILE
360
1D
  0
DICTIONARY
  5
12
330
11
100
AcDbDictionary
280
     1
281
     1
  3
BUMPTILE
360
14
  3
DIFFUSETILE
360
13
  3
FBXASSET
360
109
  3
OPACITYTILE
360
17
  3
REFLECTIONTILE
360
16
  3
REFRACTIONTILE
360
18
  3
SPECULARTILE
360
15
  0
DICTIONARY
  5
22
330
21
100
AcDbDictionary
280
     1
281
     1
  3
BUMPTILE
360
24
  3
DIFFUSETILE
360
23
  3
FBXASSET
360
BA
  3
OPACITYTILE
360
27
  3
REFLECTIONTILE
360
26
  3
REFRACTIONTILE
360
28
  3
SPECULARTILE
360
25
  0
DICTIONARY
  5
D73
330
67
100
AcDbDictionary
280
     1
281
     1
  3
ACAD_XREC_ROUNDTRIP
360
D74
  0
DICTIONARY
  5
D71
330
65
100
AcDbDictionary
280
     1
281
     1
  3
ACAD_ROUNDTRIP_2008_TABLESTYLE_CELLSTYLEMAP
360
D72
  0
XRECORD
  5
1C
102
{ACAD_REACTORS
330
1A
102
}
330
1A
100
AcDbXrecord
280
     1
270
     1
271
     1
  0
XRECORD
  5
1B
102
{ACAD_REACTORS
330
1A
102
}
330
1A
100
AcDbXrecord
280
     1
270
     1
271
     1
  0
XRECORD
  5
1F
102
{ACAD_REACTORS
330
1A
102
}
330
1A
100
AcDbXrecord
280
     1
270
     1
271
     1
  0
XRECORD
  5
1E
102
{ACAD_REACTORS
330
1A
102
}
330
1A
100
AcDbXrecord
280
     1
270
     1
271
     1
  0
XRECORD
  5
20
102
{ACAD_REACTORS
330
1A
102
}
330
1A
100
AcDbXrecord
280
     1
270
     1
271
     1
  0
XRECORD
  5
1D
102
{ACAD_REACTORS
330
1A
102
}
330
1A
100
AcDbXrecord
280
     1
270
     1
271
     1
  0
XRECORD
  5
14
102
{ACAD_REACTORS
330
12
102
}
330
12
100
AcDbXrecord
280
     1
270
     1
271
     1
  0
XRECORD
  5
13
102
{ACAD_REACTORS
330
12
102
}
330
12
100
AcDbXrecord
280
     1
270
     1
271
     1
  0
XRECORD
  5
109
102
{ACAD_REACTORS
330
12
102
}
330
12
100
AcDbXrecord
280
     1
 70
     1
 90
1959938040
 71
     1
  1
6AB64F66-C088-43F7-9C34-8FF65773FE9F
311
504B03040A00000800009551E9423DEE336E79000000790000001B0000006175746F6465736B2D64657369676E2D7061636B6167652E786D6C3C3F786D6C2076657273696F6E3D22312E302220656E636F64696E673D227574662D3822203F3E3C666F726D6174733E3C666F726D61743E687474703A2F2F736368656D612E
311
6175746F6465736B2E636F6D2F64657369676E2D7061636B6167652F323030393C2F666F726D61743E3C2F666F726D6174733E504B03041400060808009551E942D486FD9CA0000000F4000000130000005B436F6E74656E745F54797065735D2E786D6C7D8EC10E82300C865F65E91D8A1E8C310C0EEA1BF002731658846E
311
D98AC1B77784ABF1D8FE5FBFBF75BBCE937A534CCEB38643598122B6FEE978D0B0485F9C41B54DDD7D022595594E1A469170414C76A4D9A4D207E29CF43ECE46F218070CC6BECC4078ACAA135ACF422C856C0E68EA1BF5669944DDD7BCDE7B1F8E415D77AECB980613C2E4AC91FC167A2B244592486606FC29C8FD7F045B9A
311
EF7053A7E60B504B03041400060808009551E942CD1DCFBCEC0000007C01000008000000636F72652E786D6C8D90D18E832010457F85CCEB0605AD5A0DD2A456BF607F8020B5A4158CC0663F7FB1B5C9EEDB3ECDE4CE3D3393CB4EDFF3037DA9D5696B5AA00901A48CB4A336530BC15FF111D089B3D55AFFCB06C88859B5B0
311
C9C0D9B4DAB0EC92B4C62BE3A36AECA8765138A73C20F9884D0B4EDED42C12117C74B87BB2087917934AE8BB8B70087A44AF237A8CFBF455AB15785FD1AABBD0331E86BEC4075214B83EF7479C75DD507697B22AB39AA51BCC99D7F3FBBE5C95F06A049E119A635261527F52D2D0AC39E41FA46872C2D2CDFE070ACBF84F28
311
68E3F36C7FF78539E0343EF21C70966E59C4F20C2AD62D37FE03504B03041400060808009551E94255019EA25F0000007C00000007000000636E782E786D6C4DCB3B0E80201045D1AD90E915ED2CF8AC45050C11660C8261F98AB1B07AC9C97D42D718D865D3E909258CFD00CCE24AC6E326A164D74DC0B4128928FF326038
311
472BA13128B1252AC747C6BAB984FC68F0B87FE8960A5C09FE86CFB69FBA01504B03041400060808009551E94232DDA16468010000020300000C0000006662782F636F72652E786D6C8D52ED8E8230107C95A67F2FD0020A6A4A4D447D827B810A9523424B4A4B7CFC5B3E0CE7C51843529A999DDDD901B6BF3735EAA5E92A
311
AD521CF81423A9725D54AA4CB1B3576F83D19E33A3B5FD538691128D4CF10063CE4AA35D3B43B956562A0BA8D2859C41D175D26294D770497197FFC846F8C259A8E86E7E2BF29B28A51FF840431D679D3560004D438613F3EBE5CEC88473E65C55CC6C55C0B4EA5A4983F9290992EC181CBCF3F9147B2BBA5E7BDBC369E385
311
59768EB3639CC4E1969141CC99AD9A87BBDC48616581794883C8A38947B7DF01DD05E16E157DD1F52EA28C0CE54F22D7161F8A5CA56C14CE7627598779004646E2DFB61091459DE8C10FE18C0C21C26B4CF83968080442B6E2523FF6B801D4CBDC6AB302A6D06EA17A513B0953291A1F4626163A8F0D60B3977DC2377DDEF7
311
800F285409D68485EBC5D9613A9BA6CE51B4D278BDBD23A54D23EAC5DC64713997412FE5B9AEB5F9444DE655C91C2619FE5EFE0B504B03041400060808009551E942F647693A7B0000009D0000000B0000006662782F636E782E786D6C4DCCD10A83201886E15B91FFDCA5284C410D27BB90581632D3701A5DFE6A74B0A30F
311
1E3E5ED5EF4B449B2F9F9093067A23807C7AE531A45943AB1316807AA34ACEF5EF06280D8BD77032183597DCD68B463F0D2DD6436348EF0BC59312411CC5964A8EB9B00E4B41187692DBFB434A471883CEA8EE573AF60C9B2F504B03041400060808009551E9427B83B3CB2A01000014020000310000006662782F38453130
311
383043312D413139342D343841432D393830332D4339344137423939433033332F636F72652E786D6C8D515B6EC32010BC0AE22B55850DC671EC0813A5566FD00B104C1294182C1E558E5FA81DA9FDCB0F8B66676647BBECF098EEE05B39AFADE921293004CA483B6A73E9610C67D44270E0CC591BFED0203062523DCC30E4
311
ECE26C9C57485A139409093576542B28BC570102794F9F1E7A79559328440C89E16FC52CE44D5C54418AD44E3CCE7C7029005886E417F2F693E0160F041D4957A3BA3D0EA86B314543571F771F5D37604A59B908398B518FAB5C8F298E3E6BE55E35C962CE829E9EF1A55322A811F20A138AF00EE1EE8BE03DA9F6357DC7DB
311
3DC5ACCCF47FA2388F2F8AA23681566BDC45E62127AC5C1A9C8D369EEECF30EA315B17409EB7F14ABE418E8B14ABEA48D3B072A1A60524CFA65E3D7DB02E2D78733B2536D92EC64DCD59996F94CAEF0153CDF7E43F504B03041400060808009551E9426DD0B6694F01000033030000300000006662782F3845313038304331
311
2D413139342D343841432D393830332D4339344137423939433033332F636E782E786D6CD593BD6E032110845F05D146F7E7739CC4E2B094224F90222D076B9B9883133F51FCF6596CECB87191320D3ACD0E33AB4F1CDB7C4F867C810FDAD98176754B0958E994B6BB81A6B8AD9E29D970E69D8B37364AAC9860A059A69CED
311
BC4B7391146C45321155A3EDA1881E824B5E424039DF24C6496130006C9550846904A54091AB11BFB6E0711514C723897B206FAF1FC48D9F2063604D4EE1ACC91D9CE5B334DD982891468430D020F730895AA4E8148443AD441475575FBAEEECF49B44F2854B65F29AE4F281E693F2B2518D1C598343CE42F448AF98E27106
311
CAC53C1B2D4544C8CDC978F67096B48DAB65F16A04EFD1DDADFAE512C34E33CEA29EA038A407114151BE68BBBE6A9FAAF6E5BD6BD7DD62BDEC1FDAC775DFB226DB391B9D33E512C680773391CE46B091F28E35797C0F5FF111A53DB276FEF8079008A0B49EE95C33FE339FE6F4BE1197C7BF80FF00504B0304140006080800
311
9551E9424AF25A56A505000081100000340000006662782F38453130383043312D413139342D343841432D393830332D4339344137423939433033332F6F626A656374732E786D6CAD57D96EDB3814FD1541F332F360CB5B1C67A0A848ECBA30DAB4458D16F360C0A0254AE1845A4052A9335F3F8722254BAE9D7A067DD1C2
311
E5F2DE73CF5DE8BFD9A7DC79A642B23CBB7587FD81EBD02CCC239625B76EA9E2DECC75DE04BEC873D55AE63A1949E9ADAB87DDC04F445E167628A23129B93A1A5DDEFFE5C89066D475424EA4BC7565F84853D227A5CA232A9FFA1151A49FC4FBFEB06F1676C52682148F47420B2268A6A029C63348718C52C3EEEFC0F502DF
311
D3F381AF9F76D5F8FC2AAFB2A77B3ECBA42259F8C3614762C6C3C9E2EDE8EAA67735998C7B93E968D8BB5FDE2F7AC3EBF1603E9DCF6FEEDEDEE060A90424594D048DDDE01DB0112CF43D3315F825CBD4786497580779823E33ED2937183943DF336B1AEBAC91A7D40FF32CA3618515D0A8ECB3A2235AD02C82CF1995D0AC85
311
D0A0FB3BD438B6A6C7FADF1ED91EBE0C81F68E96A05AF7FADDD634DFFD0D13E4250C12926A061A2CADA186AB8303C2BB3CE7768E4927258A0A46B8C3D94E10F1E20658AA97047E478C66B2D0D1A02D700378C14C77E98230FA39CF4F6919979C6B1ABB4115055BC40A55B2D28CFD43C541FB3632D009BED26C985983D44B41
311
DDE0C6506476C42603A4137392C0E53053EF1C8F8E0C9DEB385D2DDCE0FD72B75FEBD83D7D7821F2820AA5E9036AD58EABDF1A25ABD3F022CFE90DEE912A0750BE00F98F08F5832AF09B60FBC97E624F51826432CE450ADF3803A737C063E00CABA7FE6E7DF95EB3B9EBBD7378C2D91AAA5F8067D786B62F5B7006FE33089F
311
8BB1356D1D128EB4F1C03200A449E2F01C43C8C3F16EEF062B64396465EC223C18C264A8FB8C4FDFB3629028AA935AEF0C581EA5C50B123460AB1809350CF9AD82073FFD90CEAA83EDB273F05EFD12BADE2DD6EFD7A58849481F6C4C2F68CC32A650E20EBC692BD4C1BC63D1137DF99E8B0886FE88F7BA8D776A8F92405B63
311
AE814FEA9CAE7F0E27770E08B12FC975BAF17F72028CD085B525FF81C990724E329A97F5B9AFD60F940D03B10E76CDE4A6C01C0A0B4863668E6210453A14ACD02036D5AA499AFD33D67D5D7D0423DDE0FEE503796967AFDD21F78639CFC576F7B23569E924D4DFBADCB618785A0AE85E05491DFF16F46DC4E2B89448822770
311
FDB69AB77DA7D30252442DD544CB04F623B888B0A4ADE5A25A0B824A9A675B86BA89B83B79405B3E20B50CA8049ED358521E6F19E765BA8D194735DAA6A43803C7FFD77F57A6C596A47999A933B23BAAA33A7475EFB0577E272A7C748375F5EEDD23F746343A43065D4B4E60D571EDF4EE7E3A594EA7BDF96036EB4DC6CBEB
311
DECD7C3CE9CD96CBE9D5F5F578F9F66659FBC96812F875A9694734BC84D2E6978259F77D5D217E6C12708307A2E4E69D09CFFAFD75D5472FEC7BD8837AD96CBC8B9ED1F7D1E8E7020E2B4F0A5AA505A729CD14D131F4A03FF817823EA3A38C195FA524A11748F9F46E7D640C462ED8F759C73BFD7EB4D78ECE75409E14A21E
311
CB749711C68F362606C97E912516BFDA27CDDB149AFA57FF59C7A03395396711F260E424344FA94236BCA00889944A50AFDDD347F6EE71C1EE67D3212AB2E3B4D6E491A049E61261016A95A1EA8E3BBFA1A9D37DD5AD8B72DB7FC2C3660AD701676E5D34E98A8554F67728D0BA15AA84834BED4E1E8D3FC9128E5EDB6C6AFE
311
9B5D1A9B4E496E965CD23F59BB4C0AB706208D14E81BD010C13B9532815FE966E7C3FF6478AD8E43143E77A56A6C390C34C654C720448D51F6B68026E6C91EBD47A0BE6ED6B05FADE92072D12DEB551218A93D454452DD14B47E56A5BBC5670F1D8AB3FAE414BC4CE0CBCB25F50405994B1DE06011586165164481AAF33F37
311
9F458E9B6CEA2C1928E0FCBE9F4DFFD8CCF334CD3333B4B9B3F76167FD88DB6DB44172A0FA5A2237A3C170B4A9AE03F686B2DD1149FB24924F188067056B80EEB81FBC347746D42133D1ACF3B42B8E18BA5A38B6B04D20D4D2A59D5B3538683C32EA2086F49552474C7B41F1EA8DC0AB964205815E3EF817504B0304140006
311
0800009551E942000000000000000000000000350000006662782F38453130383043312D413139342D343841432D393830332D4339344137423939433033332F76657274696365732E62696E504B03041400060808009551E942F270F1330600000004000000360000006662782F38453130383043312D413139342D343841
311
432D393830332D4339344137423939433033332F747269616E676C65732E62696E636660600000504B03041400060800009551E942000000000000000000000000370000006662782F38453130383043312D413139342D343841432D393830332D4339344137423939433033332F617474726962757465732E62696E504B03
311
041400060808009551E942D5987DFC8F00000041010000360000006662782F38453130383043312D413139342D343841432D393830332D4339344137423939433033332F6469726563746F72792E786D6C858F410EC2201045AF4266AF15DDB800BA74E7C21B903225242D6328188F2FA5C4183471359997F9FF81E89FF3C4
311
1E1816475E02DF1F80A11FC8386F25A438EECEC07A250251FC3803E6F58C12560C4AD840E95E91C151A72936F496F35732D860FE635F62C8F2DA16B505C545B74125BAA2FA9E05D7CC053D063734D5C7665FD55B6B8D15D5E9BFEAFD8490FFA45E504B03041400060808009551E942A5F7928DFF000000A00100003B000000
311
6662782F38453130383043312D413139342D343841432D393830332D4339344137423939433033332F7265736F75726365732F636F72652E786D6C8D504B6E833010BD0A9A6D65B02140828CA3962427E8052C3349AD041BF953F5F835814AEDAE9B99D1FB689E1E3F7E4D8FEC139DD7D6F4C0720A191A65476D6E3DC47025
311
7BC88E823B6BC32F1964464ED8C30283E03767E3BC41CA9A802624D4D81137507A8F0132F548470F5E7DE02473194352F87B3E4B759737CC599EE8A413DC07970264EB93658270E86D740A3D2F5656F018F5B869F4987EEAAB4607E2DCB27638B15772B99C1BB2A3754D0E6FE73D2987E1D20CA7A66DCA032F16B3E0414F3F
311
19954319700451525611DA127A7867B46365B7AB5E68DD5594178BFC8F29CEE33F4D519B50955BDCD5E641B014E449085E2C7DA5F52C33EDA55BF10D504B010214000A00000800009551E9423DEE336E79000000790000001B00000000000000000000000000000000006175746F6465736B2D64657369676E2D7061636B61
311
67652E786D6C504B010214001400060808009551E942D486FD9CA0000000F40000001300000000000000000000000000B20000005B436F6E74656E745F54797065735D2E786D6C504B010214001400060808009551E942CD1DCFBCEC0000007C010000080000000000000000000000000083010000636F72652E786D6C504B
311
010214001400060808009551E94255019EA25F0000007C000000070000000000000000000000000095020000636E782E786D6C504B010214001400060808009551E94232DDA16468010000020300000C00000000000000000000000000190300006662782F636F72652E786D6C504B010214001400060808009551E942F647
311
693A7B0000009D0000000B00000000000000000000000000AB0400006662782F636E782E786D6C504B010214001400060808009551E9427B83B3CB2A0100001402000031000000000000000000000000004F0500006662782F38453130383043312D413139342D343841432D393830332D4339344137423939433033332F63
311
6F72652E786D6C504B010214001400060808009551E9426DD0B6694F010000330300003000000000000000000000000000C80600006662782F38453130383043312D413139342D343841432D393830332D4339344137423939433033332F636E782E786D6C504B010214001400060808009551E9424AF25A56A50500008110
311
00003400000000000000000000000000650800006662782F38453130383043312D413139342D343841432D393830332D4339344137423939433033332F6F626A656374732E786D6C504B010214001400060800009551E94200000000000000000000000035000000000000000000000000005C0E00006662782F3845313038
311
3043312D413139342D343841432D393830332D4339344137423939433033332F76657274696365732E62696E504B010214001400060808009551E942F270F13306000000040000003600000000000000000000000000AF0E00006662782F38453130383043312D413139342D343841432D393830332D433934413742393943
311
3033332F747269616E676C65732E62696E504B010214001400060800009551E9420000000000000000000000003700000000000000000000000000090F00006662782F38453130383043312D413139342D343841432D393830332D4339344137423939433033332F617474726962757465732E62696E504B01021400140006
311
0808009551E942D5987DFC8F0000004101000036000000000000000000000000005E0F00006662782F38453130383043312D413139342D343841432D393830332D4339344137423939433033332F6469726563746F72792E786D6C504B010214001400060808009551E942A5F7928DFF000000A00100003B00000000000000
311
000000000000411000006662782F38453130383043312D413139342D343841432D393830332D4339344137423939433033332F7265736F75726365732F636F72652E786D6C504B0506000000000E000E0080040000991100000000
310
504B03040A00000800009551E9423DEE336E79000000790000001B0000006175746F6465736B2D64657369676E2D7061636B6167652E786D6C3C3F786D6C2076657273696F6E3D22312E302220656E636F64696E673D227574662D3822203F3E3C666F726D6174733E3C666F726D61743E687474703A2F2F736368656D612E
310
6175746F6465736B2E636F6D2F64657369676E2D7061636B6167652F323030393C2F666F726D61743E3C2F666F726D6174733E504B03041400060808009551E942D486FD9CA0000000F4000000130000005B436F6E74656E745F54797065735D2E786D6C7D8EC10E82300C865F65E91D8A1E8C310C0EEA1BF002731658846E
310
D98AC1B77784ABF1D8FE5FBFBF75BBCE937A534CCEB38643598122B6FEE978D0B0485F9C41B54DDD7D022595594E1A469170414C76A4D9A4D207E29CF43ECE46F218070CC6BECC4078ACAA135ACF422C856C0E68EA1BF5669944DDD7BCDE7B1F8E415D77AECB980613C2E4AC91FC167A2B244592486606FC29C8FD7F045B9A
310
EF7053A7E60B504B03041400060808009551E942BC259145E90000007C01000008000000636F72652E786D6C8D90416EC3201045AF82D856D80338B16361222B524FD00B20202E4A0C9681AAC72F4E1CA9DD7535A33FFFCD8CBE387FCF77F465D7E8821F30AD0023EB7530CE4F03CEE94A3A8CCE52AC21A45F368CBC9AED80
310
37194B31AD212FBBA4834FD6A7A2FA60EC2EAA186DC248DF4B33E0A83FEDAC2A955371C45BB5287D5393ADE8AB2B70CECEA0E71167CA3E777576C5B2E3EFFCD28D2381F170214DD70219399CC8B1650D700640D951D41B2C4572F3EBBE5EAD4AD660C98072022D81D307859EB2BEE16F70E839887AB3FF81F262FE0965E713
310
67FBBB4F2C6249CB238F8114F59645298FA04ADD72933F504B03041400060808009551E94255019EA25F0000007C00000007000000636E782E786D6C4DCB3B0E80201045D1AD90E915ED2CF8AC45050C11660C8261F98AB1B07AC9C97D42D718D865D3E909258CFD00CCE24AC6E326A164D74DC0B4128928FF326038472BA1
310
3128B1252AC747C6BAB984FC68F0B87FE8960A5C09FE86CFB69FBA01504B03041400060808009551E9429074ADF465010000020300000C0000006662782F636F72652E786D6C8D52ED8A8330107C9590BF87261AFB494C91C23DC1BD40AAA927D544F2217DFC5B3F8AD7A39443886166677776949FEE5D8B06655D63748E93
310
9862A47469AA46D7390EFE1AED313A096E8DF1BFCA30D2B253391E612C786D4DE817A834DA2BED01D5A6520B289D531EA3B2854B8E5DF9AD3A19CBE0A1C2DDE25E963759AB388981863AC19DB76000CD43C6138BEBE5CEC98C0B1E42532D6C53C1B4E6DA288BC59E7DB2F3BE28225A6CCE51B6DFD1A860F4106D776946594A
310
69926E3919C582FBA67BB82BAD925E5558A4346111DD45F4F095D063921E33F6413747463919CB9F44A1AFFE290A8DF62C5DECCE328745024626E2CFB61091474E0EE087084EC610E13525FC1C340402217B79691F7BDC001A54E98DCD80A94C58A941B641C1548AA687939985CE5303D8EC659FF44D9FF73DE0034A5D8335
310
E9E17A097E9CCEE7A94B14BDB2D1E0EF481BDBC97635375B5CCF75D04B79695A63FFA326CBAA6409938C7FAFF801504B03041400060808009551E9424975EA347D0000009D0000000B0000006662782F636E782E786D6C4DCCD10A83201886E15B91FFDC65C356821A68751FB12C64A6C36974F9ABD1C18E3E78F87879BBAF
310
0E6D267E6CF002CA1B0164FC334CD62F02729A7103A8953C8690FE6E80FCB81A012783E44B0CF97DD164E631BB74A8B3FE75A1221DA56A50B867EC8E69A33BCCCA8A6246EBA1228F9E695D432179F12B1D7B86E517504B03041400060808009551E9422D4FF0812C01000014020000310000006662782F4230443434424642
310
2D453939322D343843442D393135342D3934374635303645394343372F636F72652E786D6C8D515B6EC32010BC0AE22B55651B6C12C71126525E27E805884D1294182C1E558EDFA576A4F62F3F2C9A9D991DEDF2ED7378A06FE5BCB6A6C534271829D3D95E9B6B8B63B8646B8CB6823B6BC31F1A46460EAAC509C6825F9D8D
310
E30C75D6046502A0C6F66A06A5F72A60D43DE0D362DFDDD42073190330FC3D1F6577975795D31CDAC013DC070701D03424BD58ECC881B1DD69971D9BA6CCD87A7FC81ABA6459C3EAD392AC8ECD7E5FF362120A1EA3EE67B9EE218EBE68E5DE354962C1831E5EF13BA764503D1625A15546EA8C345F946C68B961D527596E2A
310
C28B44FF278A63FFA6286A13AA728E3BC93C1694175343F0DEC6F3E315463D47EB024AF3165E751F58901C62AD695D8264A2C202C073C5664F1FAC83052FEE676057C04AC62B2678916E04E5F78050D33DC50F504B03041400060808009551E9420B77797E5601000033030000300000006662782F42304434344246422D45
310
3939322D343843442D393135342D3934374635303645394343372F636E782E786D6CBD93CD6EC32010845F0571ADFC17BB691A6122F5D027E8A1570C9B84068305B86ADEBE4B42D25C72A854F582ACD96166F509B3CDD768C827F8A09DED6953D69480954E69BBEBE91CB7C58A920D67DEB97863A3C48A117A9A64CAD9CEBB
310
79CA9282AD984D44D5687BC8A287E0662F21A09C6E12E3A4301800B69851847100A54091AB11BFB6E07115148723897B20AF2FEFC40D1F206360554AE1AC4A1D9CA53337DD9828914684D0D320F7308A52CCD1290887528928CAA6BC74DDD9E92789A40B97CAD96B92CA7B9A4ECAF346257264150E390BD123BD6C8AC70928
310
17D364B41411215727E3D9C3D9AC6D5C76D9AB11BC4777BB58AE5618769A7116F508D9213D88088AF245DDB445FD54D4CF6F4DBD6E16EBAE7DA81FD76DCDAA64E76C70CEE44B1803DE4D443A1BC146CA1B56A5F13D7CD94794F6C8DAF9E32F402280DC7AA673CDF84B3ECDB2EDBA7FE4539DDE37E2F2F817F06F504B030414
310
00060808009551E94295444F8B640700009A1B0000340000006662782F42304434344246422D453939322D343843442D393135342D3934374635303645394343372F6F626A656374732E786D6CED59DD73A33610FF5718FAD23E189BD8F1251DC24DE29C6F3CD75C6FEA5EA70F9E616490891A211849E4E2FEF55D7D808198
310
04B7E9DB3DD8809056BBBFFDD412BC7FCAA8F388B92039BB727D6FE23A98C57942587AE5967237BA709DF761C0F35C36A6B90E4319BE72D5B01B0629CFCBC20E2578874A2A3BA3CB9B3F1D1163865D27A648882B57C4F738431E2A659E60F1E02548222FDD3D79BE6726B6C9A61C15F71DA205E29849E014C61950710C537E
310
FB71E28EC360ACDE8781FAB7B3A68366CDFA678DB5D46D2E091312B1F8194B1D32D3412C4DFDD9ED87B3F3CBD1F96C361DCDE667FEE86679733BF2DF4D278BF9627179FDE112D8DBE639B53225B8C02C01FDEDDDD00FC6EA4D2DBA45E018D771CE188E3590009516AB4B9060015B35E09BB41F7D2551E3B596B0F13C53EF2D
310
0B8DE1699B4ADFAC6140B4E8822076BB4AE2EADA942FDFFE05828B2146C90596C0AD901CB46BE1E1E0156E3809C666340CB6075D10E16448624E107528D972C4412930554D0903B3C09251CEC18194A324D09A33AFDBB6059EF9BAEB1CE3725752AA3CC30DB56345E07E580ACD19F91BF303F74D64802790B6244C5E582EE5
310
BEC06E78198CF56018A8CBF4CCBE34403A3B8A52A111316F3B822E94EBAF6EDDF0D372FBB456E1E0F8E605CF0BCCA5323AA547CD1718B2BD2A94ECB6FE20CDA905208C01D5AE3C80F21B20FF19A2C78115D01B274FB3A7999D2B39626297F30C74E34C9CD104FE268EAFFFD57DE32E18D78BDBDAEBC313DC544175F1DFF16C
310
CBA0B1B2FC37E00C834730F89C4FEDAB758C28D8F31D610090321287E63004A17DB77D72C315044E08F4B00AD1D0079181DD47B80DC696CC412B957B59AF6380A8DD633A4449009BB64860A3474F1F217B70121FD4D414B10FDEF33731D7EBDBF5A775C97728C677D6A76FF18E3022216B1E67A885794BA207BCFF96F30404
310
7D8EF7BA897766B71280B6C25C019F5620A887C3CEAD0D625897E62ADC04AFEC0042A85CDDA07F47448C29450CE765B56F1DDD94A1D61E6F6B06373C33104FCF3A26CCF12351550538CD61468B51C8FB31278502D10D3F1AC9EAA0E9F548F775F5192CB29EDF336BC520F432447FD741EB080E2DCBAE90B640D4026F0FE13C
310
CE69CEA3ED3E3291CE855A02D8687BCB1F2DA210EB8D921415F020ED775548498DB4514276BB52405C3DC2E21FAB45D31C26DED43F779AFF1D679C41B405DF45DCFA5D678F886428C5D10E257DDB3577AB690B4DB28734C73B0A72914722F71192D124C1E929D09C44FCF24DA9A7341782302C205F1D05BF89C6C4834062B4
310
59B1ACB4DA019A8828C312D1531050647AC0D56947D7B831940EAFF3585BEF4B1A6B12FD9F2C8223A82573161128452187BCCAB8EF9D430C69A36B50EEE00BD656D1D662D0124A88781F7DC324BD97A7A06EC8F7E01EC391A494515EA018CC7A00D967BEA294DAE17D8BE207953FA2B8A46F652002D35D44282DB3087E84C1
310
C963886BD781E945141AC44DEC933883A20CC9920FD9647E3E79B68FA919BA21B0B1D18E5008DB51868A1ED45B0151D7234E0DBEA5DEA3D46D991511CAF2920D32146FDAF5264BBEAB56457620BFAA5484B2B1226C09860161B2CEAA55CC0653D78115DC4807AA7D24505650730A7B25F1F8B53769CABD1B70EBA76FBB4106
310
855F8FF69A117556C160796C1506E21B92F1BD1BAEF5757403F577829343AAAF6ACD66050888A9485E726255F47505E58DADD1DCF00E49B1F968B26E75FDBAF2A0FB118C610DD42EF5C295023AC34C225599DCA91BFA1B8210DCA261C6572AA79E42E53A4974D588E892F4A9B35546B436CD8857DC639667F0631BC2625A26
310
788312F110DD491AAD8962DD4AE965A4C2F845017FFDB8EEC003230344FAA20A3CFCADB3D68E2E54B9749488BC2FB32D430482604BB4D4E8C62B586A355269B9BEAA3305D45D606056C5B3EF278B663BE2FBC922B586F19F4E1637FB5FD0BED91769A4F358D9F549C7803A3F292A6F710CD06D879A6A9D454C32B7F25B678A
310
202856517E703556050D43B08FE37F9DB5FBB2A0D9AEC3FF6959DB7F56719C94555A935597EA48E5BA6AE6B0F9F5CD7CB69CCF478BC9C5C568365DBE1B5D2EA6B3D1C572393F7FF76EBAFC70B9ACD1D48E1A067530D3B90B9E4D50AB86D593C500BAB222A72481D37CE2A41862BE8433FD80F639CFB080E4D96C7627B6293F
310
60F5A3E9734AB4A5B8E2E41E4183980A48EB805119CBF6B8F303B426251CB4AF5C681A790FF067ADD27520F35CB9D02A9024C6C2DB429B4935F4347148B93AF75B62800F62A94A896651FD5CAF52D8B4C27F3D65481AB072B57A1850B815D0FD6A7528346F96A7F824C12B761C24E1765B4AA8D68C2C87815A18BDCD41FD46
310
364AD883DDFA095CF765B17C4FCF692132E893C18B4660A88E24E2A9EE772BC62C4BD7B75FC6D0677356BF3A052D53D0E5704A238EC1984B555081158155589A059260AA8B9F375F780E9F7832475745CE8F4F17F39F368B3CCB72668636D7702A4BE04391B3BE87CF3EC9068A07AC9AEB627336F1CF36BAA96DFBECD11609
310
ECA9AA0806AA624209D23139B0CB670D2ADBBE1C2B5574A6AF6E1D1B44A11960ECE8598FD77CE472C087D4E714E531DACF2B695FEC6B8FF554B0090E1DE9F01F504B03041400060800009551E942000000000000000000000000350000006662782F42304434344246422D453939322D343843442D393135342D3934374635
310
303645394343372F76657274696365732E62696E504B03041400060808009551E942F270F1330600000004000000360000006662782F42304434344246422D453939322D343843442D393135342D3934374635303645394343372F747269616E676C65732E62696E636660600000504B03041400060800009551E942000000
310
000000000000000000370000006662782F42304434344246422D453939322D343843442D393135342D3934374635303645394343372F617474726962757465732E62696E504B03041400060808009551E942D5987DFC8F00000041010000360000006662782F42304434344246422D453939322D343843442D393135342D39
310
34374635303645394343372F6469726563746F72792E786D6C858F410EC2201045AF4266AF15DDB800BA74E7C21B903225242D6328188F2FA5C4183471359997F9FF81E89FF3C41E1816475E02DF1F80A11FC8386F25A438EECEC07A250251FC3803E6F58C12560C4AD840E95E91C151A72936F496F35732D860FE635F62C8
310
F2DA16B505C545B74125BAA2FA9E05D7CC053D063734D5C7665FD55B6B8D15D5E9BFEAFD8490FFA45E504B03041400060808009551E94201ECF284FC000000A00100003B0000006662782F42304434344246422D453939322D343843442D393135342D3934374635303645394343372F7265736F75726365732F636F72652E
310
786D6C8D504B6AC33010BD8A996D913DB29CC409B24208F404BD80902789482C057D4A8F5F3976A1DD753333BC0FF378F2F8353DAA4F0AD17A3700AF112A72C68FD65D07C8E9C27AA88E4A06EFD32F19544E4F34C00C8392D7E0F373858C77895C2AA8F323ADA08E911254E6518E01A2B9D1A46B9D5351C47BFDD4E6AEAF54
310
F3BAD045A7644CA104A89627F3041528FA1C0C45D92CAC9239DB71D5D8B1FCB4174B01542FDEC5B93FED199E3667D6F53B6427817BB6DDB51D8A1691B75BD9CC6625939D7E329A403AD108AA452E18EE18EE3F381E787BE8C41B6E0E026533CBFF98F273FCA7295B9744BBC65D6C11142F415E8492CDDC5759AF32CB9EBB55
310
DF504B010214000A00000800009551E9423DEE336E79000000790000001B00000000000000000000000000000000006175746F6465736B2D64657369676E2D7061636B6167652E786D6C504B010214001400060808009551E942D486FD9CA0000000F40000001300000000000000000000000000B20000005B436F6E74656E
310
745F54797065735D2E786D6C504B010214001400060808009551E942BC259145E90000007C010000080000000000000000000000000083010000636F72652E786D6C504B010214001400060808009551E94255019EA25F0000007C000000070000000000000000000000000092020000636E782E786D6C504B010214001400
310
060808009551E9429074ADF465010000020300000C00000000000000000000000000160300006662782F636F72652E786D6C504B010214001400060808009551E9424975EA347D0000009D0000000B00000000000000000000000000A50400006662782F636E782E786D6C504B010214001400060808009551E9422D4FF081
310
2C0100001402000031000000000000000000000000004B0500006662782F42304434344246422D453939322D343843442D393135342D3934374635303645394343372F636F72652E786D6C504B010214001400060808009551E9420B77797E56010000330300003000000000000000000000000000C60600006662782F4230
310
4434344246422D453939322D343843442D393135342D3934374635303645394343372F636E782E786D6C504B010214001400060808009551E94295444F8B640700009A1B000034000000000000000000000000006A0800006662782F42304434344246422D453939322D343843442D393135342D3934374635303645394343
310
372F6F626A656374732E786D6C504B010214001400060800009551E9420000000000000000000000003500000000000000000000000000201000006662782F42304434344246422D453939322D343843442D393135342D3934374635303645394343372F76657274696365732E62696E504B010214001400060808009551E9
310
42F270F13306000000040000003600000000000000000000000000731000006662782F42304434344246422D453939322D343843442D393135342D3934374635303645394343372F747269616E676C65732E62696E504B010214001400060800009551E9420000000000000000000000003700000000000000000000000000
310
CD1000006662782F42304434344246422D453939322D343843442D393135342D3934374635303645394343372F617474726962757465732E62696E504B010214001400060808009551E942D5987DFC8F000000410100003600000000000000000000000000221100006662782F42304434344246422D453939322D34384344
310
2D393135342D3934374635303645394343372F6469726563746F72792E786D6C504B010214001400060808009551E94201ECF284FC000000A00100003B00000000000000000000000000051200006662782F42304434344246422D453939322D343843442D393135342D3934374635303645394343372F7265736F75726365
310
732F636F72652E786D6C504B0506000000000E000E00800400005A1300000000
  0
XRECORD
  5
17
102
{ACAD_REACTORS
330
12
102
}
330
12
100
AcDbXrecord
280
     1
270
     1
271
     1
  0
XRECORD
  5
16
102
{ACAD_REACTORS
330
12
102
}
330
12
100
AcDbXrecord
280
     1
270
     1
271
     1
  0
XRECORD
  5
18
102
{ACAD_REACTORS
330
12
102
}
330
12
100
AcDbXrecord
280
     1
270
     1
271
     1
  0
XRECORD
  5
15
102
{ACAD_REACTORS
330
12
102
}
330
12
100
AcDbXrecord
280
     1
270
     1
271
     1
  0
XRECORD
  5
24
102
{ACAD_REACTORS
330
22
102
}
330
22
100
AcDbXrecord
280
     1
270
     1
271
     1
  0
XRECORD
  5
23
102
{ACAD_REACTORS
330
22
102
}
330
22
100
AcDbXrecord
280
     1
270
     1
271
     1
  0
XRECORD
  5
BA
102
{ACAD_REACTORS
330
22
102
}
330
22
100
AcDbXrecord
280
     1
 70
     1
 90
1959938040
 71
     1
  1
78478B88-E5BB-4FD9-8C7A-CCD1790E9893
311
504B03040A00000800009451E9423DEE336E79000000790000001B0000006175746F6465736B2D64657369676E2D7061636B6167652E786D6C3C3F786D6C2076657273696F6E3D22312E302220656E636F64696E673D227574662D3822203F3E3C666F726D6174733E3C666F726D61743E687474703A2F2F736368656D612E
311
6175746F6465736B2E636F6D2F64657369676E2D7061636B6167652F323030393C2F666F726D61743E3C2F666F726D6174733E504B03041400060808009451E942D486FD9CA0000000F4000000130000005B436F6E74656E745F54797065735D2E786D6C7D8EC10E82300C865F65E91D8A1E8C310C0EEA1BF002731658846E
311
D98AC1B77784ABF1D8FE5FBFBF75BBCE937A534CCEB38643598122B6FEE978D0B0485F9C41B54DDD7D022595594E1A469170414C76A4D9A4D207E29CF43ECE46F218070CC6BECC4078ACAA135ACF422C856C0E68EA1BF5669944DDD7BCDE7B1F8E415D77AECB980613C2E4AC91FC167A2B244592486606FC29C8FD7F045B9A
311
EF7053A7E60B504B03041400060808009451E942B680E4D8EB0000007C01000008000000636F72652E786D6C8D905B6EC3201444B782F8ADB07938F5439828699A15740308888B128365A0EAF20B8923B57FFDBA57C31CEE68F8FE7BBE812FB306EBDD08498521304E796DDD34C2142FA883602FF8EA7DFC6583C0C9D98CB0
311
C850F069F569D924E55D342E66D5796D365186602204EA96971106F5696659C914B3235CAB45AAAB9C4C459E5B8653B21A3C8E589DFFB3176B5628488B8F3BDC1E11614D8B9A73F78A7AC628226FF4FD703EF5DD891E785D60C1A39D9FF7D56A64341A0A8A0943B845B8FF2078207468F00BDE0D0CF3BAD8FF4069D1FF8492
311
7591D12DEE030B396B0E727F10BC2E5DE4712F2ACFD29BF801504B03041400060808009451E94255019EA25F0000007C00000007000000636E782E786D6C4DCB3B0E80201045D1AD90E915ED2CF8AC45050C11660C8261F98AB1B07AC9C97D42D718D865D3E909258CFD00CCE24AC6E326A164D74DC0B4128928FF32603847
311
2BA13128B1252AC747C6BAB984FC68F0B87FE8960A5C09FE86CFB69FBA01504B03041400060808009451E942625B2AE268010000020300000C0000006662782F636F72652E786D6C8D52ED8E8230107C95A67F2FD016F050536AF43C9FE05EA042E588D092D2121FFF960FC37931E642529A999DDDD901BEBB3535EA95ED2A
311
A333CC428A91D2B9292A5D66D8BB4BB0C66827B835C6FD2AC348CB46657880B1E0A535BE9DA1DC68A7B403549B42CDA0EC3AE530CA6BB864B8CBBF552343E91D5474D7B095F955962A6421D0502778E72C1840D390E1C4E272BE7132E1827B5F15335B1530ADBA54CA62C1527A58D1F410B0384983E4B47E0F36711C05EC23
311
FADC9F8E9BF531DA7332880577557377975B259D2AB088288B039A0674F3C5E89645DB84BED1D536A69C0CE50F22DF16FF14F94ABB389AED4EB20EBC829191F8B32D44E450277BF04304274388F01A137E0C1A0281909D3CD7F73DAE00F52A77C626C014C62F542F6BAF602A45E3C3C9C442E7B1016CF6B44FF4A2CFEB1EF0
311
01A52EC19A74703D7B374CE7D3D4398A56D9A07737A48D6D64BD989B2C2EE732E8A93C37B5B1FF5193795532874986BF57FC00504B03041400060808009451E9427A75E61D7D0000009D0000000B0000006662782F636E782E786D6C4DCCD10AC2201805E05791FFDEA629B4813A52D77B8CE686B46998468F9F8B5D74750E
311
1F8723FACFB6A2B74B2F1F83047A22805CB8C7C9874542C9336E01F54AA418F3DF0C501837276167506249B13C0F9ADC3C9635575D7D781C6808D1969E6F78E0DA624EC905B783A9AD33FCCA2C331DD3D028D1FC9E6AEEC7EA0B504B03041400060808009451E942978D32B02A01000014020000310000006662782F433030
311
42443132462D453442442D343130372D384543442D3439433441334433433933422F636F72652E786D6C8D515B6EC32010BC0AE2AB55651B0C790A13354E7A825EC00192A2C460F1A872FCAE6B476AFFF2C3A2D999D9D1AED8DDFB1BFA36215AEF1A4C4B829171CA6BEB2E0DCEE95CAC31DA4911BC4F7F6818B9AE370D1E61
311
2CC525F83CCC90F22E199700755E9B19EC6234092375834F83A3FA327D57763901235ECBA153D7EE624A5A421B7852C41420009A868C2F962D21FB03AD3F8A23DF1F0A4EC9AA581F5BF86D5AFECE0EACDDB0BDA826A114395B3DCBAD8638F66C4D78D664144B916CFF88AF82E992D158D684B2022693CD27255B5A6F397923
311
8B2D23A21AE9FF4479D04F8AB27589D573DC4916B1A4A29A1A52689F4FB74718731F7C48689CF7128D7AC5929484D68C33B212D544850580E792CF9E31F9000B7EB99E804D1793F1924B518D3782F27B40A8E33DE50F504B03041400060808009451E9426EEF3AFB4F01000033030000300000006662782F43303042443132
311
462D453442442D343130372D384543442D3439433441334433433933422F636E782E786D6CD593BD6E032110845F05D146F7675F9CC4E2B094224F90222D076B9B9883133F51FCF6596CECB87191320D3ACD0E33AB4F1CDB7C4F867C810FDAD98176754B0958E994B6BB81A6B8AD9E29D970E69D8B37364AAC9860A059A69C
311
EDBC4B7391146C45321155A3EDA1881E824B5E424039DF24C6496130006C9550846904A54091AB11BFB6E0711514C723897B206FAF1FC48D9F2063604D4EE1ACC91D9CE5B334DD982891468430D020F730895AA4E8148443AD441475575FBAEEECF49B44F2854B65F29AE4F281E693F2B2518D1C598343CE42F448AF98E271
311
06CAC53C1B2D4544C8CDC978F67096B48DABBE783582F7E8EE56CBBEC7B0D38CB3A827280EE9414450942FDA6E59B54F55FBF2DEB5EB6EB1EEDB87F671BD6C5993ED9C8DCE99720963C0BB99486723D84879C79A3CBE87AFF888D21E593B7FFC034804505ACF74AE19FF994F737ADF88CBE35FC07F00504B03041400060808
311
009451E942403501B4A505000080100000340000006662782F43303042443132462D453442442D343130372D384543442D3439433441334433433933422F6F626A656374732E786D6CAD57DB6EDB3810FD1541FBB2FBE08B6CA7B1178A8AD84E0AA3485BD468B10F060C4AA2146E2851A0A8C4D9AFDF4389BAB976EA5DF4C5
311
B2A8E170E6CC990BDDF787845BCF54E64CA437B6331CDB164D0311B234BEB10B150DE6B6F5DE73A510AA23665B2949E88DAD976DCF8DA52832B314D288145C1DADDE2FFFB2F280A6D4B6024EF2FCC6CE83479A902129940869FE340C8922C3383A0C9D6125D8571B4B923D1E29CD88A4A982A5584FA1C5AA8C72FAAF637BE4
311
B923FDDD73F5AF919A9E971A95FEF4CF6769AE481AFC70D8919AA9335BDF4DAE1683ABD96C3A98BD9B3883E5FD723D70AEA7E3D5BBD56A717BB7C0C1B992D0642C9134B2BD0FC046B2C01D559F3CB760A99A4E8C8809D048D267A623657B13CB7147954CE39D71F294F98148531A9458018DD23FA33AA4194D43C49CD11C96
311
75101AF75F1D8D63E7F354BF9B23BBCB9721D0DDD15154DB5E3FBB960AFF6FB8905FC2209953CDC00A4BE368C5D5718BB02F0437DF586E254451C908B738F32591AFB607512DE2B93D359AC9526783F6C0F61085EA739F2E48A39FF3FC949551C1B9A6B1ED9559B047AE50959796B17FA86CADEF22039B102BCD86B97148BD
311
66D4F6161545E6476CAA80B4224E62841C6EEA9DD3C991A32B9DA79BB5ED7DBCF70F5B9DBBA70FCFA4C8A8549A3EA0561DB8FAA95132363917454E6FB08F4C6941F90AE43F21D55B531037C90EB3C3CC9CA22449F348C804B1B1C6D6608C9FB1E594BFFA7FE79F3B6A36F7A3770E4F045B43F50BF0ECFBD08D65074ECF7D06
311
E1859C1AD7B601E1281B0F2C05409A24161758421D8EFC83ED6D50E55095B18B70CF81CB30F7197FDD91518342519ED479A6C0F2A82C5E50A0015BC948985191DF18D8C6E98772561E6CC4CEC17BF54BE87ABBDE7EDC163222017D3039BDA6114B99428B6B79D335A88779CFA327FAFA226408477FC47BDBC53B3147E5405B
311
63AE818FEB9AAE5FDA937B0704D8170B5D6EDC9F9C00277463EDE87F60794039272915457DEE9BFD036DA3825827BB6672D360DAC602D2545F8E72104D3A902CD32036DDAA299AC333DE7DDB7C022321CF854F782BE4B7A537105CC8BDFFBAAFAAD249A4BFF7A96D2018692D607B992375FA1BCCF7218BA222470D3C01EBF7
311
CDAA1B3A5D1550216AAD55B2CCE03E728B48C3D95A2F9AB52468A422DD33B44DA4DDC903BAFA81A82140A9F09CC539E5D19E715E24FB887134A37D42B23370FC7FFBFD22C9F6241145AACEE8EE998EE6D0B7BD47DEFC85A8E0D1F6B6E573B044E90D69D886B927AC5BC909AC7AA1BD9ECFAEE7CBF97C7077B55C0E66F7EBC5
311
60BEBABE1DAC566BE77A31BE5BCC17D33A4E9572CFAD3B4D37A111257436B790CC84EFDB06E9636A80ED3D1095EF3E54D9593FBF6D861885DD11F6A05D361B6FC3678C7D34FCB98256F2A4A24D92719AD054119D420FFA0FFF4A3066F48CA9D6370989E9055A3E7FD81E3983950BF67DD1E94E5F8EF69AD5954EC8934AD463
311
91F82961FC68635C2139CCD2D8E057C7A479567DA67ED56F2630184C73C1598832185A31150955288617F42099D01CD4EB8EF4A1B97A5CB0FBB91A1015F139AD2D79249891798EB400B58A40F5D7ADDF30D3E9B1EAC646B71D3EE1C7540ADB02676E6CCCE88A05341FFAE8CF7A122A95834BDD411E733F49638E51BBDAD4BC
311
37BB3436BD8EDC885C323E19BFAA0A6E1C4019C93036601E42744A633CB7B4CD7C0FFE93E3B5391651F8EB17AAF1A55D689C298F418A564E99CB0266982773F40189FAB65BCEB094E92172D125EB4D12545A078AC8B8BC2868FB8C49B7EB2F230C28D6E6B395F122462C2FD7349014642E748283456085D1991105AAAEFEDC
311
7D910217D9C4BA67A080F5FB61FEEE8FDD4A248948ABA5DDADB90E5BDB475C6EC31D8A03D5B7927C37193B935D791B301794BD4F723A2461FE84054456B206E85EF8C1CBEACA883E547D68E4463A14470CDDAC2DD3D866506AE8D2ADAD1A1CCC1D29B59043FA46A933A62B90BD79211895A230416294F7FE05504B03041400
311
060800009451E942000000000000000000000000350000006662782F43303042443132462D453442442D343130372D384543442D3439433441334433433933422F76657274696365732E62696E504B03041400060808009451E942F270F1330600000004000000360000006662782F43303042443132462D453442442D3431
311
30372D384543442D3439433441334433433933422F747269616E676C65732E62696E636660600000504B03041400060800009451E942000000000000000000000000370000006662782F43303042443132462D453442442D343130372D384543442D3439433441334433433933422F617474726962757465732E62696E504B
311
03041400060808009451E942D5987DFC8F00000041010000360000006662782F43303042443132462D453442442D343130372D384543442D3439433441334433433933422F6469726563746F72792E786D6C858F410EC2201045AF4266AF15DDB800BA74E7C21B903225242D6328188F2FA5C4183471359997F9FF81E89FF3
311
C41E1816475E02DF1F80A11FC8386F25A438EECEC07A250251FC3803E6F58C12560C4AD840E95E91C151A72936F496F35732D860FE635F62C8F2DA16B505C545B74125BAA2FA9E05D7CC053D063734D5C7665FD55B6B8D15D5E9BFEAFD8490FFA45E504B03041400060808009451E942DE6AB9E9FE000000A00100003B0000
311
006662782F43303042443132462D453442442D343130372D384543442D3439433441334433433933422F7265736F75726365732F636F72652E786D6C8D504B6E833010BD8AE56D65B08194808C23DA3427E8052C33A156828DFCA97AFCDA814AEDAE9B99D1FB689E1E3F7D2D77F409CE6B6B06CC0A8A111865276DE601C770
311
25478C4E823B6BC32F1946462E30E00C63C16767E3BA43CA9A002624D4D80976507A0F0123754FC780BDFA8045163286A4F0B76295EA2667285891E8A413DC079702A0ED499E5838F0363A059E971B2B788C7ADA357A4A3FF55583C382B5F4E540DB91B0BA694973393E93AEAE2BC25EABB7F172EE8EE76AE465360B1EF4F2
311
9351399001262C2ACA6A425B42BB77467B56F50D7DA287BEA6BCCCF23FA6B84EFF34456D425DED71379B4F59539007217899FB4AEB5166DAB95BF10D504B010214000A00000800009451E9423DEE336E79000000790000001B00000000000000000000000000000000006175746F6465736B2D64657369676E2D7061636B61
311
67652E786D6C504B010214001400060808009451E942D486FD9CA0000000F40000001300000000000000000000000000B20000005B436F6E74656E745F54797065735D2E786D6C504B010214001400060808009451E942B680E4D8EB0000007C010000080000000000000000000000000083010000636F72652E786D6C504B
311
010214001400060808009451E94255019EA25F0000007C000000070000000000000000000000000094020000636E782E786D6C504B010214001400060808009451E942625B2AE268010000020300000C00000000000000000000000000180300006662782F636F72652E786D6C504B010214001400060808009451E9427A75
311
E61D7D0000009D0000000B00000000000000000000000000AA0400006662782F636E782E786D6C504B010214001400060808009451E942978D32B02A010000140200003100000000000000000000000000500500006662782F43303042443132462D453442442D343130372D384543442D3439433441334433433933422F63
311
6F72652E786D6C504B010214001400060808009451E9426EEF3AFB4F010000330300003000000000000000000000000000C90600006662782F43303042443132462D453442442D343130372D384543442D3439433441334433433933422F636E782E786D6C504B010214001400060808009451E942403501B4A50500008010
311
00003400000000000000000000000000660800006662782F43303042443132462D453442442D343130372D384543442D3439433441334433433933422F6F626A656374732E786D6C504B010214001400060800009451E94200000000000000000000000035000000000000000000000000005D0E00006662782F4330304244
311
3132462D453442442D343130372D384543442D3439433441334433433933422F76657274696365732E62696E504B010214001400060808009451E942F270F13306000000040000003600000000000000000000000000B00E00006662782F43303042443132462D453442442D343130372D384543442D343943344133443343
311
3933422F747269616E676C65732E62696E504B010214001400060800009451E94200000000000000000000000037000000000000000000000000000A0F00006662782F43303042443132462D453442442D343130372D384543442D3439433441334433433933422F617474726962757465732E62696E504B01021400140006
311
0808009451E942D5987DFC8F0000004101000036000000000000000000000000005F0F00006662782F43303042443132462D453442442D343130372D384543442D3439433441334433433933422F6469726563746F72792E786D6C504B010214001400060808009451E942DE6AB9E9FE000000A00100003B00000000000000
311
000000000000421000006662782F43303042443132462D453442442D343130372D384543442D3439433441334433433933422F7265736F75726365732F636F72652E786D6C504B0506000000000E000E0080040000991100000000
310
504B03040A00000800009451E9423DEE336E79000000790000001B0000006175746F6465736B2D64657369676E2D7061636B6167652E786D6C3C3F786D6C2076657273696F6E3D22312E302220656E636F64696E673D227574662D3822203F3E3C666F726D6174733E3C666F726D61743E687474703A2F2F736368656D612E
310
6175746F6465736B2E636F6D2F64657369676E2D7061636B6167652F323030393C2F666F726D61743E3C2F666F726D6174733E504B03041400060808009451E942D486FD9CA0000000F4000000130000005B436F6E74656E745F54797065735D2E786D6C7D8EC10E82300C865F65E91D8A1E8C310C0EEA1BF002731658846E
310
D98AC1B77784ABF1D8FE5FBFBF75BBCE937A534CCEB38643598122B6FEE978D0B0485F9C41B54DDD7D022595594E1A469170414C76A4D9A4D207E29CF43ECE46F218070CC6BECC4078ACAA135ACF422C856C0E68EA1BF5669944DDD7BCDE7B1F8E415D77AECB980613C2E4AC91FC167A2B244592486606FC29C8FD7F045B9A
310
EF7053A7E60B504B03041400060808009451E9429A259B49EC0000007C01000008000000636F72652E786D6C8D904D6EC3201085AF82665B6183B1E31F612257694ED00B204C1C94182C03558F5F9C3852BBEB6A466FDE37337AFCF83DDFD1975EBD71B6079A1140DA2A371A3BF510C30537808E82AFCE855F364056CEBA87
310
4D06C1A7D5C5659794B341DB9054EB46BD8BD27B1D00A97B6A7AF0EAAA6799C91892C3DFB245AA9B9C74465F5D826334237A1E3163DA672E46AF200676664DDB0CF85055052EDB92E1F7929EF0A9A6646869DD1CCE1F3CDF60C183995FF7D5AA65D02388825086498D49FB4949478BAE246FA4EA18E1F966FF03C565FC2714
310
8D0DACD8DF7D621E044D8F3C0682E75B16A93C824A75CB4DFC00504B03041400060808009451E94255019EA25F0000007C00000007000000636E782E786D6C4DCB3B0E80201045D1AD90E915ED2CF8AC45050C11660C8261F98AB1B07AC9C97D42D718D865D3E909258CFD00CCE24AC6E326A164D74DC0B4128928FF326038
310
472BA13128B1252AC747C6BAB984FC68F0B87FE8960A5C09FE86CFB69FBA01504B03041400060808009451E942D7F4255F68010000020300000C0000006662782F636F72652E786D6C8D52ED8E8320107C15C2DF8B026A3F6C90A6975E9FE05E802AF54C150C82E9E3DFFAD178BD344D6382646667777694EF6F4D8D7A65BB
310
CAE80CB39062A4746E8A4A9719F6EE126C31DA0B6E8D717FCA30D2B251191E602C78698D6F672837DA29ED00D5A6503328BB4E398CF21A2E19EEF21FD5C8507A0715DD356C657E95A50A590834D409DE390B06D0346438B1B89C6F9C4CB8E0DE57C5CC56054CAB2E95B2581CE253BC4DB78760BD5A4541922671F099B06370
310
DC307A48D966BB3E7D7132880577557377975B259D2AB088288B03BA0968FACDE88E45BB847ED0D52EA69C0CE50F22DF166F8A7CA55D1CCD7627598705032323F16F5B88C8A14EF6E087084E8610E13526FC18340402213B79AEEF7B5C01EA55EE8C4D80298C5FA85ED65EC1548AC687938985CE6303D8EC699FE8459FD73D
310
E0034A5D8235E9E07AF66E98CEA7A97314ADB241EF6E481BDBC87A3137595CCE65D053796E6A63DF5193795532874986BF57FC02504B03041400060808009451E9423E091A487E0000009D0000000B0000006662782F636E782E786D6C4DCCD10E82201886E15B61FF399966811BE004E33E5CA263213484D6E5A7CD838EBE
310
EDD9B797B59FC5A1B789AB0D9E43793A0332FE1146EB670E394D98026A058B21A4BF1B203F2C86C3CE20D81C437E1D349A69C82E6DEAAC7F1E48C95DF59526B8D25D83EB6B5363AA6F1253592A49FA0B254A432158F12B6DBB87C517504B03041400060808009451E942404AA0DF2D01000014020000310000006662782F38
310
374543443246372D324641392D343539342D384636422D3842314342374433383743462F636F72652E786D6C8D515B6EC32010BC0AE22B55850DB6633B11266A92FA04BD8003244189C1E251E5F885DA91DABFFCB068766676B44B778FF10EBEA575CAE80E920C4320353742E94B07833FA316821DA3D618FF8706811E46D9
310
C10443462FD6846981B8D15E6A1F516D845CC0C139E921E0F7F8E9A0E357390ED9107C64B85B360DFC365C6446B2D88E3C469DB731009887A417B2B6F93C1C8BBE4145FFB141D57A53A1B6AFF7A8DD93C3BE39966D73E8693E0B190D418945AE448CA3CE4ADA574D929851AFC6677C6EE5E0A580ACC0A444B84178F345F096
310
14DB0ABFE3F5B6C4344FF47FA23089174541695F164BDC59E62023349F1B8C0A134EF76718F9988CF520CD5B39C9DF20C3598CD5B425A9693E53E302A2675D2D9ECE1B1B17BCBA9D22BB5C8CEB8AD13CDD2896DF03C69AEEC97E00504B03041400060808009451E9420848F5EC5601000033030000300000006662782F3837
310
4543443246372D324641392D343539342D384636422D3842314342374433383743462F636E782E786D6CBD93CD6EC32010845F0571ADFC17BB691A6122F5D027E8A1570C9B84068305B86ADEBE4B42D25C72A854F582ACD96166F509B3CDD768C827F8A09DED6953D69480954E69BBEBE91CB7C58A920D67DEB97863A3C48A
310
117A9A64CAD9CEBB79CA9282AD984D44D5687BC8A287E0662F21A09C6E12E3A4301800B69851847100A54091AB11BFB6E07115148723897B20AF2FEFC40D1F206360554AE1AC4A1D9CA53337DD9828914684D0D320F7308A52CCD1290887528928CAA6BC74DDD9E92789A40B97CAD96B92CA7B9A4ECAF346257264150E390B
310
D123BD6C8AC7092817D364B41411215727E3D9C3D9AC6D5C76D9AB11BC4777BB58AE5618769A7116F508D9213D88088AF245DDB445FD54D4CF6F4DBD6E16EBAE7EA81FD76DCDAA64E76C70CEE44B1803DE4D443A1BC146CA1B56A5F13D7CD94794F6C8DAF9E32F402280DC7AA673CDF84B3ECDB2EDBA7FE4539DDE37E2F2F8
310
17F06F504B03041400060808009451E942A09152CE63070000991B0000340000006662782F38374543443246372D324641392D343539342D384636422D3842314342374433383743462F6F626A656374732E786D6CED59DD73A33610FF5718FAD23E189BD8B9D81D4227B12F379E9BB437E7DE4D1F3CC3C8201335423092C8
310
25FDEBBBFA00033109EEA56FF76003425AEDFEF6534BF0DB63469D07CC05C9D9A5EB7B13D7C12CCE13C2D24BB794FBD1DC757E0B039EE7B231CD7518CAF0A5AB86DD3048795E167628C17B5452D919BDB9FECB113166D875628A84B874457C8733E4A152E60916F75E8224F2D2FDA3E77B66629B6CCA5171D7215A208E9904
310
4E619C0115C730E5B71F27EE380CC6EA7D18A87F3B6B3A68D6AC7FD6584BDDE6923021118B9FB1D421331DC4D2D49FADDE9F9D2F46E7B3D974347B77E68FAE6FAE5723FF623A59BE5B2E1757EF17C0DE2ECFA99529C1056609E8EFC90DFD60ACDED4A25B048E711DE78CE15803095069B1BA040916B05503BE49FBD1571235
310
5E6B091BCF33F5DEB2D0189EB6A9F4CD1A06448B2E0862B7AB24AEAE4DF9F2DDDF20B81862945C6009DC0AC941BB161E0E5EE18693606C46C36077D005114E8624E6045187921D471C940253D59430300B2C19E51C1C48394A02AD39F3BA6D5BE099AFBBCE312EF725A5CA33DC503B5604EE87A5D09C917F303F70DF440678
310
02694BC2E4DC72299F0AEC868B60AC07C3405DA667F6A501D2D953940A8D8879DB1174A95C7FBD72C38F37BBC78D0A07C7372F785E602E95D1293D6ABEC090ED55A164B7F507694E2D00610CA876E50194CF80FCEF103D0EAC80DE38799C3DCEEC5CC91113FB9C67A01B67E28C26F037717CFDAFEE1B77C1B85EDCD65E1F9E
310
E0A60AAAF9F7E3D996416365F96FC019060F60F0399FDA579B1851B0E75BC2002065240ECD610842FB7EF7E8866B089C10E86115A2A10F2203BB0F701B8C2D9983562AF7B25EC70051BBC774889200366D91C0468F9E3E40F6E0243EA8A929621FBCE76F62AE57ABCDC74DC9F728C6B7D6A757784F189190358F33D4C2BC25
310
D13D7EFA96F304047D8EF7A6897766B71280B6C25C019F5620A887C3CEAD0D625897E62ADC04AFEC0042A85CDDA07F4B448C29450CE765B56F1DDD94A1D61E6F6B06373C33104FCF3A26CCF10351550538CD61468B51C8FB31278502D10D3F18C9EAA0E9F548F765FD3B58643DBF67D69A41E86588FEA983D6111C5A965D21
310
6D81A805DE1DC2799CD39C47BBA7C8443A176A0960A3ED2D5F5B4421D61B25292AE041DAEFAA90921A69A384ECF7A580B87A84C5AFEB65D31C26DED43F779AFF1D679C41B405DF45DCFA5D678F886428C5D11E257DDB3577AB690B4DB28734C77B0A729107229F2224A34982D353A03989F8E24DA9A7341782302C205F1D05
310
BF89C6C4834062B459B1ACB4DA019A8828C312D1531050647AC0D56947D7B831940EAFF3585BEF4B1A6B12FD9F2C8223A82573161128452187BCCAB8EF9D430C69A36B50EEE00BD656D1D662D0124A88F829FA86497A274F41DD90EFC13D86234929A3BC403198F500B2CF7C4529B5C3FB0EC5F72A7F447149DFCA4004A6FB
310
88505A6611FC088393C710D7AE03D38B2834889BD8277106451992251FB2C9BBF3C9B37D4CCDD00D818D8DF68442D88E3254F4A0DE0A88BA1E716AF02DF51EA5EECAAC885096976C90A178D3AE3759F25DB52AB203F955A522948D15614B300C08937556AD623698BA0EACE0463A503D4502650535A7B057128F5F7B93A6DC
310
BB01B77EFAB61B6450F8F568AF195167150C96C7566120BE2119DFB9E1465F47D7507F273839A4FAAAD66C568080988AE4252756455FD650DED81ACD0D6F9114DB0F26EB56D72F6B0FBA1FC118D640ED522F5C2BA033CC245295C9ADBAA19F1184E0160D33BE5639F5142A5749A2AB46446F489F3A5B65446BD38C78C51D66
310
79063FB6252CA66582B72811F7D1ADA4D18628D6AD945E462A8C5F14F08F0F9B0E3C303240A44FAAC0C3DF3A6BEDE852954B4789C8BB32DB31442008B6444B8D6EBC82A556239596EBAB3A5340DD050666553CFB71B268B6237E9C2C526B18DF77B2A0F90ED143B46964F35899F549A7803A3D292A6F710AD05D879A6A9D44
310
4C2EB7E25B5F8A202656417E703156C50C43B08FE3FF9CB4FB92A0D9AEC3FF6949DB7F56709C94545A935593EA48E1BA6EA6B08BF9EC627E3D9F8FDE9F5F5F8F6637ABC568BEBCB81A2D972BFF623179BF982F0E5584F6D330A863994E5DF06C625A35AC9E2C06D094153925091CE61327C510F2251CE90774CF798605E4CE
310
66AF3BB13DF901AB1F4C9B53A21DC515277708FAC3544056078CCA58B6C79D9FA03329E19C7DE942CFC8BB873F6B95AE0389E7D2854E81243116DE0EBA4CAA9FA78943C6D5A9DF12037C104B5546348BEAE77A95C2A615FDEB2943B28095ABD5C280BAAD80E657AB41A179B33CC527095EB1E32009B7BB5242B16664390CD4
310
C2E86D0EEA37B251C2EEEDD68FE0BA2F8BE57B7A4E0B91415F0C5E3402437524114F75BB5B316659BA5A7D1A439BCD59FFE114B44C4197C3298D3806632E553D055604566169164882A92E7FDD7EE2397CE1C91C5D14393F3FCEDFFDB25DE659963333B4BD82435902DF899CCD1D7CF549B6503B60D55B17DBB3897FB6D53D
310
6DDB668F7648604F15453050D5124A908EC9815D3EEB4FD9EEE558A9A2337DBD726C10855E80B1A3672D5EF38DCB011F525F5394C7683FAFA47DB1AD3DD653C1263834A4C37F01504B03041400060800009451E942000000000000000000000000350000006662782F38374543443246372D324641392D343539342D384636
310
422D3842314342374433383743462F76657274696365732E62696E504B03041400060808009451E942F270F1330600000004000000360000006662782F38374543443246372D324641392D343539342D384636422D3842314342374433383743462F747269616E676C65732E62696E636660600000504B0304140006080000
310
9451E942000000000000000000000000370000006662782F38374543443246372D324641392D343539342D384636422D3842314342374433383743462F617474726962757465732E62696E504B03041400060808009451E942D5987DFC8F00000041010000360000006662782F38374543443246372D324641392D34353934
310
2D384636422D3842314342374433383743462F6469726563746F72792E786D6C858F410EC2201045AF4266AF15DDB800BA74E7C21B903225242D6328188F2FA5C4183471359997F9FF81E89FF3C41E1816475E02DF1F80A11FC8386F25A438EECEC07A250251FC3803E6F58C12560C4AD840E95E91C151A72936F496F35732
310
D860FE635F62C8F2DA16B505C545B74125BAA2FA9E05D7CC053D063734D5C7665FD55B6B8D15D5E9BFEAFD8490FFA45E504B03041400060808009451E94227ECF888FE000000A00100003B0000006662782F38374543443246372D324641392D343539342D384636422D3842314342374433383743462F7265736F75726365
310
732F636F72652E786D6C8D50596E833010BD0A9ADFCA60B324808CA354694ED00B586642AD041B79A97AFC9A40A5F6AF3F33A3B7689E1E3F7DCD8FEC139DD7D60CC0720A191A65476DA60162B89116B293E0CEDAF04B069991330EB0C220F8E46C5C76485913D084841A3BE20E4AEF3140A61EE918C0AB0F9C652E63480A7F
310
CF17A9EE72C29CE5894E3AC17D702940B63D59270887DE46A7D0F36263058F518FBB468FE9A7BE697420CED5B56ABBB62387A62949DDD51579ADD9855C8E8C9E3B766C0FD7375EAC66C1839E7F322A8732E008A2A4AC22F44868F7CE68CFCABEA62FB4E92BCA8B55FEC71497F19FA6A84DA8CA3DEE66F320580AF224042FD6
310
BED27A9699F6DAADF806504B010214000A00000800009451E9423DEE336E79000000790000001B00000000000000000000000000000000006175746F6465736B2D64657369676E2D7061636B6167652E786D6C504B010214001400060808009451E942D486FD9CA0000000F40000001300000000000000000000000000B200
310
00005B436F6E74656E745F54797065735D2E786D6C504B010214001400060808009451E9429A259B49EC0000007C010000080000000000000000000000000083010000636F72652E786D6C504B010214001400060808009451E94255019EA25F0000007C000000070000000000000000000000000095020000636E782E786D
310
6C504B010214001400060808009451E942D7F4255F68010000020300000C00000000000000000000000000190300006662782F636F72652E786D6C504B010214001400060808009451E9423E091A487E0000009D0000000B00000000000000000000000000AB0400006662782F636E782E786D6C504B010214001400060808
310
009451E942404AA0DF2D010000140200003100000000000000000000000000520500006662782F38374543443246372D324641392D343539342D384636422D3842314342374433383743462F636F72652E786D6C504B010214001400060808009451E9420848F5EC56010000330300003000000000000000000000000000CE
310
0600006662782F38374543443246372D324641392D343539342D384636422D3842314342374433383743462F636E782E786D6C504B010214001400060808009451E942A09152CE63070000991B00003400000000000000000000000000720800006662782F38374543443246372D324641392D343539342D384636422D3842
310
314342374433383743462F6F626A656374732E786D6C504B010214001400060800009451E9420000000000000000000000003500000000000000000000000000271000006662782F38374543443246372D324641392D343539342D384636422D3842314342374433383743462F76657274696365732E62696E504B01021400
310
1400060808009451E942F270F133060000000400000036000000000000000000000000007A1000006662782F38374543443246372D324641392D343539342D384636422D3842314342374433383743462F747269616E676C65732E62696E504B010214001400060800009451E9420000000000000000000000003700000000
310
000000000000000000D41000006662782F38374543443246372D324641392D343539342D384636422D3842314342374433383743462F617474726962757465732E62696E504B010214001400060808009451E942D5987DFC8F000000410100003600000000000000000000000000291100006662782F38374543443246372D
310
324641392D343539342D384636422D3842314342374433383743462F6469726563746F72792E786D6C504B010214001400060808009451E94227ECF888FE000000A00100003B000000000000000000000000000C1200006662782F38374543443246372D324641392D343539342D384636422D384231434237443338374346
310
2F7265736F75726365732F636F72652E786D6C504B0506000000000E000E0080040000631300000000
  0
XRECORD
  5
27
102
{ACAD_REACTORS
330
22
102
}
330
22
100
AcDbXrecord
280
     1
270
     1
271
     1
  0
XRECORD
  5
26
102
{ACAD_REACTORS
330
22
102
}
330
22
100
AcDbXrecord
280
     1
270
     1
271
     1
  0
XRECORD
  5
28
102
{ACAD_REACTORS
330
22
102
}
330
22
100
AcDbXrecord
280
     1
270
     1
271
     1
  0
XRECORD
  5
25
102
{ACAD_REACTORS
330
22
102
}
330
22
100
AcDbXrecord
280
     1
270
     1
271
     1
  0
XRECORD
  5
D74
102
{ACAD_REACTORS
330
D73
102
}
330
D73
100
AcDbXrecord
280
     1
102
ACAD_ROUNDTRIP_2012_MLEADER_STYLE
298
     1
  0
CELLSTYLEMAP
  5
D72
102
{ACAD_REACTORS
330
D71
102
}
330
D71
100
AcDbCellStyleMap
 90
        3
300
CELLSTYLE
  1
TABLEFORMAT_BEGIN
 90
        5
170
     1
 91
        0
 92
    32768
 62
   257
 93
        1
300
CONTENTFORMAT
  1
CONTENTFORMAT_BEGIN
 90
        0
 91
        0
 92
      512
 93
        0
300

 40
0.0
140
1.0
 94
        5
 62
     0
340
55
144
0.25
309
CONTENTFORMAT_END
171
     0
 94
        0
309
TABLEFORMAT_END
  1
CELLSTYLE_BEGIN
 90
        1
 91
        1
300
_TITLE
309
CELLSTYLE_END
300
CELLSTYLE
  1
TABLEFORMAT_BEGIN
 90
        5
170
     1
 91
        0
 92
        0
 62
   257
 93
        1
300
CONTENTFORMAT
  1
CONTENTFORMAT_BEGIN
 90
        0
 91
        0
 92
      512
 93
        0
300

 40
0.0
140
1.0
 94
        5
 62
     0
340
55
144
0.18
309
CONTENTFORMAT_END
171
     0
 94
        0
309
TABLEFORMAT_END
  1
CELLSTYLE_BEGIN
 90
        2
 91
        1
300
_HEADER
309
CELLSTYLE_END
300
CELLSTYLE
  1
TABLEFORMAT_BEGIN
 90
        5
170
     1
 91
        0
 92
        0
 62
   257
 93
        1
300
CONTENTFORMAT
  1
CONTENTFORMAT_BEGIN
 90
        0
 91
        0
 92
      512
 93
        0
300

 40
0.0
140
1.0
 94
        2
 62
     0
340
55
144
0.18
309
CONTENTFORMAT_END
171
     0
 94
        0
309
TABLEFORMAT_END
  1
CELLSTYLE_BEGIN
 90
        3
 91
        2
300
_DATA
309
CELLSTYLE_END
  0
ENDSEC
  0
EOF
