  0
SECTION
  2
HEADER
  9
$ACADVER
  1
AC1024
  9
$ACADMAINTVER
 70
    63
  9
$DWGCODEPAGE
  3
ANSI_1252
  9
$AUTHOR
  1
GN
  9
$REVISIONNUMBER
  1
-
  9
$CUSTOMPROPERTYTAG
  1
Manager
  9
$CUSTOMPROPERTY
  1

  9
$CUSTOMPROPERTYTAG
  1
Company
  9
$CUSTOMPROPERTY
  1

  9
$CUSTOMPROPERTYTAG
  1
Category
  9
$CUSTOMPROPERTY
  1

  9
$CUSTOMPROPERTYTAG
  1
Part Number
  9
$CUSTOMPROPERTY
  1
NPDD4842G-S
  9
$CUSTOMPROPERTYTAG
  1
Description
  9
$CUSTOMPROPERTY
  1
NPDD PANEL MASTER VIEW
  9
$CUSTOMPROPERTYTAG
  1
Project
  9
$CUSTOMPROPERTY
  1

  9
$CUSTOMPROPERTYTAG
  1
Designer
  9
$CUSTOMPROPERTY
  1
GN
  9
$CUSTOMPROPERTYTAG
  1
Engineer
  9
$CUSTOMPROPERTY
  1

  9
$CUSTOMPROPERTYTAG
  1
Authority
  9
$CUSTOMPROPERTY
  1

  9
$CUSTOMPROPERTYTAG
  1
Cost Center
  9
$CUSTOMPROPERTY
  1

  9
$CUSTOMPROPERTYTAG
  1
Vendor
  9
$CUSTOMPROPERTY
  1

  9
$CUSTOMPROPERTYTAG
  1
User Status
  9
$CUSTOMPROPERTY
  1

  9
$CUSTOMPROPERTYTAG
  1
Design Status
  9
$CUSTOMPROPERTY
  1
WorkInProgress
  9
$CUSTOMPROPERTYTAG
  1
Checked by
  9
$CUSTOMPROPERTY
  1
NJ
  9
$CUSTOMPROPERTYTAG
  1
Date Checked
  9
$CUSTOMPROPERTY
  1
07/08/2013
  9
$CUSTOMPROPERTYTAG
  1
Engr Approved by
  9
$CUSTOMPROPERTY
  1

  9
$CUSTOMPROPERTYTAG
  1
Mfg Approved by
  9
$CUSTOMPROPERTY
  1

  9
$CUSTOMPROPERTYTAG
  1
DWG. NO
  9
$CUSTOMPROPERTY
  1

  9
$CUSTOMPROPERTYTAG
  1
NUMBER OF SHEETS
  9
$CUSTOMPROPERTY
  1
2
  9
$CUSTOMPROPERTYTAG
  1
DRAWING #
  9
$CUSTOMPROPERTY
  1
1
  9
$INSBASE
 10
0.0
 20
0.0
 30
0.0
  9
$EXTMIN
 10
0.0
 20
0.0
 30
0.0
  9
$EXTMAX
 10
187.0
 20
121.0
 30
0.0
  9
$LIMMIN
 10
0.0
 20
0.0
  9
$LIMMAX
 10
187.0
 20
121.0
  9
$ORTHOMODE
 70
     0
  9
$REGENMODE
 70
     1
  9
$FILLMODE
 70
     1
  9
$QTEXTMODE
 70
     0
  9
$MIRRTEXT
 70
     0
  9
$LTSCALE
 40
11.0
  9
$ATTMODE
 70
     1
  9
$TEXTSIZE
 40
0.2
  9
$TRACEWID
 40
0.05
  9
$TEXTSTYLE
  7
Standard
  9
$CLAYER
  8
0
  9
$CELTYPE
  6
ByLayer
  9
$CECOLOR
 62
   256
  9
$CELTSCALE
 40
1.0
  9
$DISPSILH
 70
     0
  9
$DIMSCALE
 40
1.0
  9
$DIMASZ
 40
0.0708661417322835
  9
$DIMEXO
 40
0.0625
  9
$DIMDLI
 40
0.38
  9
$DIMRND
 40
0.0
  9
$DIMDLE
 40
0.0
  9
$DIMEXE
 40
0.18
  9
$DIMTP
 40
0.0
  9
$DIMTM
 40
0.0
  9
$DIMTXT
 40
0.0708661417322835
  9
$DIMCEN
 40
0.09
  9
$DIMTSZ
 40
0.0
  9
$DIMTOL
 70
     0
  9
$DIMLIM
 70
     0
  9
$DIMTIH
 70
     1
  9
$DIMTOH
 70
     1
  9
$DIMSE1
 70
     0
  9
$DIMSE2
 70
     0
  9
$DIMTAD
 70
     0
  9
$DIMZIN
 70
     0
  9
$DIMBLK
  1

  9
$DIMASO
 70
     1
  9
$DIMSHO
 70
     1
  9
$DIMPOST
  1

  9
$DIMAPOST
  1

  9
$DIMALT
 70
     0
  9
$DIMALTD
 70
     2
  9
$DIMALTF
 40
25.4
  9
$DIMLFAC
 40
1.0
  9
$DIMTOFL
 70
     0
  9
$DIMTVP
 40
0.0
  9
$DIMTIX
 70
     0
  9
$DIMSOXD
 70
     0
  9
$DIMSAH
 70
     0
  9
$DIMBLK1
  1

  9
$DIMBLK2
  1

  9
$DIMSTYLE
  2
STANDARD
  9
$DIMCLRD
 70
     0
  9
$DIMCLRE
 70
     0
  9
$DIMCLRT
 70
     0
  9
$DIMTFAC
 40
1.0
  9
$DIMGAP
 40
0.09
  9
$DIMJUST
 70
     0
  9
$DIMSD1
 70
     0
  9
$DIMSD2
 70
     0
  9
$DIMTOLJ
 70
     1
  9
$DIMTZIN
 70
     0
  9
$DIMALTZ
 70
     0
  9
$DIMALTTZ
 70
     0
  9
$DIMUPT
 70
     0
  9
$DIMDEC
 70
     4
  9
$DIMTDEC
 70
     4
  9
$DIMALTU
 70
     2
  9
$DIMALTTD
 70
     2
  9
$DIMTXSTY
  7
Standard
  9
$DIMAUNIT
 70
     0
  9
$DIMADEC
 70
     0
  9
$DIMALTRND
 40
0.0
  9
$DIMAZIN
 70
     0
  9
$DIMDSEP
 70
    46
  9
$DIMATFIT
 70
     3
  9
$DIMFRAC
 70
     0
  9
$DIMLDRBLK
  1

  9
$DIMLUNIT
 70
     2
  9
$DIMLWD
 70
    -2
  9
$DIMLWE
 70
    -2
  9
$DIMTMOVE
 70
     0
  9
$DIMFXL
 40
1.0
  9
$DIMFXLON
 70
     0
  9
$DIMJOGANG
 40
0.7853981633974483
  9
$DIMTFILL
 70
     0
  9
$DIMTFILLCLR
 70
     0
  9
$DIMARCSYM
 70
     0
  9
$DIMLTYPE
  6

  9
$DIMLTEX1
  6

  9
$DIMLTEX2
  6

  9
$DIMTXTDIRECTION
 70
     0
  9
$LUNITS
 70
     2
  9
$LUPREC
 70
     4
  9
$SKETCHINC
 40
0.1
  9
$FILLETRAD
 40
0.0
  9
$AUNITS
 70
     0
  9
$AUPREC
 70
     0
  9
$MENU
  1
.
  9
$ELEVATION
 40
0.0
  9
$PELEVATION
 40
0.0
  9
$THICKNESS
 40
0.0
  9
$LIMCHECK
 70
     0
  9
$CHAMFERA
 40
0.0
  9
$CHAMFERB
 40
0.0
  9
$CHAMFERC
 40
0.0
  9
$CHAMFERD
 40
0.0
  9
$SKPOLY
 70
     0
  9
$TDCREATE
 40
2456483.425650891
  9
$TDUCREATE
 40
2456483.196484224
  9
$TDUPDATE
 40
2456483.425650903
  9
$TDUUPDATE
 40
2456483.196484236
  9
$TDINDWG
 40
0.0000459606
  9
$TDUSRTIMER
 40
0.0000459606
  9
$USRTIMER
 70
     1
  9
$ANGBASE
 50
0.0
  9
$ANGDIR
 70
     0
  9
$PDMODE
 70
     0
  9
$PDSIZE
 40
0.0
  9
$PLINEWID
 40
0.0
  9
$SPLFRAME
 70
     0
  9
$SPLINETYPE
 70
     6
  9
$SPLINESEGS
 70
     8
  9
$HANDSEED
  5
D72
  9
$SURFTAB1
 70
     6
  9
$SURFTAB2
 70
     6
  9
$SURFTYPE
 70
     6
  9
$SURFU
 70
     6
  9
$SURFV
 70
     6
  9
$UCSBASE
  2

  9
$UCSNAME
  2

  9
$UCSORG
 10
0.0
 20
0.0
 30
0.0
  9
$UCSXDIR
 10
1.0
 20
0.0
 30
0.0
  9
$UCSYDIR
 10
0.0
 20
1.0
 30
0.0
  9
$UCSORTHOREF
  2

  9
$UCSORTHOVIEW
 70
     0
  9
$UCSORGTOP
 10
0.0
 20
0.0
 30
0.0
  9
$UCSORGBOTTOM
 10
0.0
 20
0.0
 30
0.0
  9
$UCSORGLEFT
 10
0.0
 20
0.0
 30
0.0
  9
$UCSORGRIGHT
 10
0.0
 20
0.0
 30
0.0
  9
$UCSORGFRONT
 10
0.0
 20
0.0
 30
0.0
  9
$UCSORGBACK
 10
0.0
 20
0.0
 30
0.0
  9
$PUCSBASE
  2

  9
$PUCSNAME
  2

  9
$PUCSORG
 10
0.0
 20
0.0
 30
0.0
  9
$PUCSXDIR
 10
1.0
 20
0.0
 30
0.0
  9
$PUCSYDIR
 10
0.0
 20
1.0
 30
0.0
  9
$PUCSORTHOREF
  2

  9
$PUCSORTHOVIEW
 70
     0
  9
$PUCSORGTOP
 10
0.0
 20
0.0
 30
0.0
  9
$PUCSORGBOTTOM
 10
0.0
 20
0.0
 30
0.0
  9
$PUCSORGLEFT
 10
0.0
 20
0.0
 30
0.0
  9
$PUCSORGRIGHT
 10
0.0
 20
0.0
 30
0.0
  9
$PUCSORGFRONT
 10
0.0
 20
0.0
 30
0.0
  9
$PUCSORGBACK
 10
0.0
 20
0.0
 30
0.0
  9
$USERI1
 70
     0
  9
$USERI2
 70
     0
  9
$USERI3
 70
     0
  9
$USERI4
 70
     0
  9
$USERI5
 70
     0
  9
$USERR1
 40
0.0
  9
$USERR2
 40
0.0
  9
$USERR3
 40
0.0
  9
$USERR4
 40
0.0
  9
$USERR5
 40
0.0
  9
$WORLDVIEW
 70
     1
  9
$SHADEDGE
 70
     3
  9
$SHADEDIF
 70
    70
  9
$TILEMODE
 70
     1
  9
$MAXACTVP
 70
    64
  9
$PINSBASE
 10
0.0
 20
0.0
 30
0.0
  9
$PLIMCHECK
 70
     0
  9
$PEXTMIN
 10
0.0
 20
0.0
 30
0.0
  9
$PEXTMAX
 10
187.0
 20
121.0
 30
0.0
  9
$PLIMMIN
 10
0.0
 20
0.0
  9
$PLIMMAX
 10
187.0
 20
121.0
  9
$UNITMODE
 70
     0
  9
$VISRETAIN
 70
     1
  9
$PLINEGEN
 70
     0
  9
$PSLTSCALE
 70
     1
  9
$TREEDEPTH
 70
  3020
  9
$CMLSTYLE
  2
Standard
  9
$CMLJUST
 70
     0
  9
$CMLSCALE
 40
1.0
  9
$PROXYGRAPHICS
 70
     1
  9
$MEASUREMENT
 70
     0
  9
$CELWEIGHT
370
    -1
  9
$ENDCAPS
280
     0
  9
$JOINSTYLE
280
     0
  9
$LWDISPLAY
290
     0
  9
$INSUNITS
 70
     1
  9
$HYPERLINKBASE
  1

  9
$STYLESHEET
  1

  9
$XEDIT
290
     1
  9
$CEPSNTYPE
380
     0
  9
$PSTYLEMODE
290
     1
  9
$FINGERPRINTGUID
  2
{0DB32F36-8AC7-4C2D-A7A0-ADFB6CA9CE19}
  9
$VERSIONGUID
  2
{7DFA0111-2E4E-4629-9505-D61F94398B8A}
  9
$EXTNAMES
290
     1
  9
$PSVPSCALE
 40
0.0
  9
$OLESTARTUP
290
     0
  9
$SORTENTS
280
   127
  9
$INDEXCTL
280
     0
  9
$HIDETEXT
280
     1
  9
$XCLIPFRAME
280
     2
  9
$HALOGAP
280
     0
  9
$OBSCOLOR
 70
   257
  9
$OBSLTYPE
280
     0
  9
$INTERSECTIONDISPLAY
280
     0
  9
$INTERSECTIONCOLOR
 70
   257
  9
$DIMASSOC
280
     1
  9
$PROJECTNAME
  1

  9
$CAMERADISPLAY
290
     0
  9
$LENSLENGTH
 40
50.0
  9
$CAMERAHEIGHT
 40
0.0
  9
$STEPSPERSEC
 40
2.0
  9
$STEPSIZE
 40
6.0
  9
$3DDWFPREC
 40
2.0
  9
$PSOLWIDTH
 40
0.25
  9
$PSOLHEIGHT
 40
4.0
  9
$LOFTANG1
 40
1.570796326794896
  9
$LOFTANG2
 40
1.570796326794896
  9
$LOFTMAG1
 40
0.0
  9
$LOFTMAG2
 40
0.0
  9
$LOFTPARAM
 70
     7
  9
$LOFTNORMALS
280
     1
  9
$LATITUDE
 40
37.795
  9
$LONGITUDE
 40
-122.394
  9
$NORTHDIRECTION
 40
0.0
  9
$TIMEZONE
 70
 -8000
  9
$LIGHTGLYPHDISPLAY
280
     1
  9
$TILEMODELIGHTSYNCH
280
     1
  9
$CMATERIAL
347
11
  9
$SOLIDHIST
280
     0
  9
$SHOWHIST
280
     1
  9
$DWFFRAME
280
     2
  9
$DGNFRAME
280
     0
  9
$REALWORLDSCALE
290
     1
  9
$INTERFERECOLOR
 62
     1
  9
$INTERFEREOBJVS
345
33
  9
$INTERFEREVPVS
346
30
  9
$CSHADOW
280
     0
  9
$SHADOWPLANELOCATION
 40
0.0
  0
ENDSEC
  0
SECTION
  2
CLASSES
  0
CLASS
  1
ACDBDICTIONARYWDFLT
  2
AcDbDictionaryWithDefault
  3
ObjectDBX Classes
 90
        0
 91
        1
280
     0
281
     0
  0
CLASS
  1
MATERIAL
  2
AcDbMaterial
  3
ObjectDBX Classes
 90
     1153
 91
        3
280
     0
281
     0
  0
CLASS
  1
VISUALSTYLE
  2
AcDbVisualStyle
  3
ObjectDBX Classes
 90
     4095
 91
       24
280
     0
281
     0
  0
CLASS
  1
SCALE
  2
AcDbScale
  3
ObjectDBX Classes
 90
     1153
 91
       17
280
     0
281
     0
  0
CLASS
  1
TABLESTYLE
  2
AcDbTableStyle
  3
ObjectDBX Classes
 90
     4095
 91
        1
280
     0
281
     0
  0
CLASS
  1
MLEADERSTYLE
  2
AcDbMLeaderStyle
  3
ACDB_MLEADERSTYLE_CLASS
 90
     4095
 91
        1
280
     0
281
     0
  0
CLASS
  1
DICTIONARYVAR
  2
AcDbDictionaryVar
  3
ObjectDBX Classes
 90
        0
 91
        3
280
     0
281
     0
  0
CLASS
  1
CELLSTYLEMAP
  2
AcDbCellStyleMap
  3
ObjectDBX Classes
 90
     1152
 91
        1
280
     0
281
     0
  0
ENDSEC
  0
SECTION
  2
TABLES
  0
TABLE
  2
VPORT
  5
8
330
0
100
AcDbSymbolTable
 70
     1
  0
VPORT
  5
57
330
8
100
AcDbSymbolTableRecord
100
AcDbViewportTableRecord
  2
*Active
 70
     0
 10
0.0
 20
0.0
 11
1.0
 21
1.0
 12
93.49999999999999
 22
60.5
 13
0.0
 23
0.0
 14
1.0
 24
1.0
 15
0.0
 25
0.0
 16
0.0
 26
0.0
 36
1.0
 17
0.0
 27
0.0
 37
0.0
 40
121.0
 41
1.545454545454545
 42
50.0
 43
0.0
 44
0.0
 50
0.0
 51
0.0
 71
     0
 72
   100
 73
     1
 74
     1
 75
     0
 76
     0
 77
     0
 78
     0
281
     0
 65
     1
110
0.0
120
0.0
130
0.0
111
1.0
121
0.0
131
0.0
112
0.0
122
1.0
132
0.0
 79
     0
146
0.0
 60
     3
 61
     5
292
     1
282
     1
141
0.0
142
0.0
 63
   250
421
  3355443
  0
ENDTAB
  0
TABLE
  2
LTYPE
  5
5
330
0
100
AcDbSymbolTable
 70
    59
  0
LTYPE
  5
5B
330
5
100
AcDbSymbolTableRecord
100
AcDbLinetypeTableRecord
  2
ByBlock
 70
     0
  3

 72
    65
 73
     0
 40
0.0
  0
LTYPE
  5
5C
330
5
100
AcDbSymbolTableRecord
100
AcDbLinetypeTableRecord
  2
ByLayer
 70
     0
  3

 72
    65
 73
     0
 40
0.0
  0
LTYPE
  5
5D
330
5
100
AcDbSymbolTableRecord
100
AcDbLinetypeTableRecord
  2
Continuous
 70
     0
  3
Solid line
 72
    65
 73
     0
 40
0.0
  0
LTYPE
  5
7C
330
5
100
AcDbSymbolTableRecord
100
AcDbLinetypeTableRecord
  2
BY_STANDARD
 70
     0
  3
By Standard ____________    ____    ____   _
 72
    65
 73
     6
 40
1.240299999999999
 49
0.6614
 74
     0
 49
-0.0827
 74
     0
 49
0.1654
 74
     0
 49
-0.0827
 74
     0
 49
0.1654
 74
     0
 49
-0.0827
 74
     0
  0
LTYPE
  5
7D
330
5
100
AcDbSymbolTableRecord
100
AcDbLinetypeTableRecord
  2
CHAIN
 70
     0
  3
Chain ____ _ ____ _ ____ _ ____ _ ____ _ ____
 72
    65
 73
     4
 40
0.7087
 49
0.4724000000000001
 74
     0
 49
-0.0591
 74
     0
 49
0.1181
 74
     0
 49
-0.0591
 74
     0
  0
LTYPE
  5
7E
330
5
100
AcDbSymbolTableRecord
100
AcDbLinetypeTableRecord
  2
DASH_DOT
 70
     0
  3
Dash dot __ . __ . __ . __ . __ . __ . __ . __
 72
    65
 73
     4
 40
0.37
 49
0.24
 74
     0
 49
-0.06
 74
     0
 49
0.01
 74
     0
 49
-0.06
 74
     0
  0
LTYPE
  5
7F
330
5
100
AcDbSymbolTableRecord
100
AcDbLinetypeTableRecord
  2
DOUBLE_DASH_DOT
 70
     0
  3
Double-Dash Dot __ __ . __ __ . __ __ . __ _
 72
    65
 73
     6
 40
0.4398
 49
0.24
 74
     0
 49
-0.06
 74
     0
 49
0.0098
 74
     0
 49
-0.06
 74
     0
 49
0.01
 74
     0
 49
-0.06
 74
     0
  0
LTYPE
  5
80
330
5
100
AcDbSymbolTableRecord
100
AcDbLinetypeTableRecord
  2
DASH_TRIPLE_DOT
 70
     0
  3
Dash Triple-Dot _ . . . _ . . . _ . . . _
 72
    65
 73
     8
 40
0.51
 49
0.24
 74
     0
 49
-0.06
 74
     0
 49
0.01
 74
     0
 49
-0.06
 74
     0
 49
0.01
 74
     0
 49
-0.06
 74
     0
 49
0.01
 74
     0
 49
-0.06
 74
     0
  0
LTYPE
  5
81
330
5
100
AcDbSymbolTableRecord
100
AcDbLinetypeTableRecord
  2
DASHED
 70
     0
  3
Dashed __ __ __ __ __ __ __ __ __ __ __ __ __ _
 72
    65
 73
     2
 40
0.2067
 49
0.1654
 74
     0
 49
-0.0413
 74
     0
  0
LTYPE
  5
82
330
5
100
AcDbSymbolTableRecord
100
AcDbLinetypeTableRecord
  2
DASH_DOUBLE_DOT
 70
     0
  3
Dash Double-Dot __ . . __ . . __ . . __ . .
 72
    65
 73
     6
 40
0.4398
 49
0.24
 74
     0
 49
-0.06
 74
     0
 49
0.0098
 74
     0
 49
-0.06
 74
     0
 49
0.01
 74
     0
 49
-0.06
 74
     0
  0
LTYPE
  5
83
330
5
100
AcDbSymbolTableRecord
100
AcDbLinetypeTableRecord
  2
DASHED_SPACE
 70
     0
  3
Dashed Space __ __ __ __ __ __ __ __ __ __ __ _
 72
    65
 73
     2
 40
0.2067
 49
0.1654
 74
     0
 49
-0.0413
 74
     0
  0
LTYPE
  5
84
330
5
100
AcDbSymbolTableRecord
100
AcDbLinetypeTableRecord
  2
DOTTED
 70
     0
  3
Dotted . . . . . . . . . . . . . . . . . . . . 
 72
    65
 73
     2
 40
0.0482
 49
0.0069
 74
     0
 49
-0.0413
 74
     0
  0
LTYPE
  5
85
330
5
100
AcDbSymbolTableRecord
100
AcDbLinetypeTableRecord
  2
DOUBLE_DASH_CHAIN
 70
     0
  3
Double-Dash Chain ______  __  __  ______  __  _
 72
    65
 73
     6
 40
1.240299999999999
 49
0.6614
 74
     0
 49
-0.0827
 74
     0
 49
0.1654
 74
     0
 49
-0.0827
 74
     0
 49
0.1654
 74
     0
 49
-0.0827
 74
     0
  0
LTYPE
  5
87
330
5
100
AcDbSymbolTableRecord
100
AcDbLinetypeTableRecord
  2
DOUBLE_DASH_DOUBLE_DOT
 70
     0
  3
Double-Dash Double-dot _ _ . . _ _ . . _
 72
    65
 73
     8
 40
0.7400000000000001
 49
0.24
 74
     0
 49
-0.06
 74
     0
 49
0.24
 74
     0
 49
-0.06
 74
     0
 49
0.01
 74
     0
 49
-0.06
 74
     0
 49
0.01
 74
     0
 49
-0.06
 74
     0
  0
LTYPE
  5
88
330
5
100
AcDbSymbolTableRecord
100
AcDbLinetypeTableRecord
  2
DOUBLE_DASH_TRIPLE_DOT
 70
     0
  3
Double Dash Triple Dot __ __ . . . __ __ . .
 72
    65
 73
    10
 40
0.8100000000000001
 49
0.24
 74
     0
 49
-0.06
 74
     0
 49
0.24
 74
     0
 49
-0.06
 74
     0
 49
0.01
 74
     0
 49
-0.06
 74
     0
 49
0.01
 74
     0
 49
-0.06
 74
     0
 49
0.01
 74
     0
 49
-0.06
 74
     0
  0
LTYPE
  5
89
330
5
100
AcDbSymbolTableRecord
100
AcDbLinetypeTableRecord
  2
LONG_DASH_DOTTED
 70
     0
  3
Long Dash Dotted ____ . ____ . ____ . ____ . _
 72
    65
 73
     4
 40
0.3543
 49
0.2362
 74
     0
 49
-0.0295
 74
     0
 49
0.0591
 74
     0
 49
-0.0295
 74
     0
  0
LTYPE
  5
8A
330
5
100
AcDbSymbolTableRecord
100
AcDbLinetypeTableRecord
  2
LONG_DASH_DOUBLE_DOT
 70
     0
  3
Long Dash Double Dot ________  .  .  ________  
 72
    65
 73
     6
 40
0.6799999999999999
 49
0.48
 74
     0
 49
-0.06
 74
     0
 49
0.01
 74
     0
 49
-0.06
 74
     0
 49
0.01
 74
     0
 49
-0.06
 74
     0
  0
LTYPE
  5
8B
330
5
100
AcDbSymbolTableRecord
100
AcDbLinetypeTableRecord
  2
LONG_DASH_TRIPLE_DOT
 70
     0
  3
Long Dash Triple Dot ____ ... ____ ... ____
 72
    65
 73
     8
 40
0.3689
 49
0.2362
 74
     0
 49
-0.0295
 74
     0
 49
0.0049
 74
     0
 49
-0.0295
 74
     0
 49
0.0049
 74
     0
 49
-0.0295
 74
     0
 49
0.0049
 74
     0
 49
-0.0295
 74
     0
  0
LTYPE
  5
8C
330
5
100
AcDbSymbolTableRecord
100
AcDbLinetypeTableRecord
  2
BORDER
 70
     0
  3
Border __ __ . __ __ . __ __ . __ __ . __ __ .
 72
    65
 73
     6
 40
1.75
 49
0.5
 74
     0
 49
-0.25
 74
     0
 49
0.5
 74
     0
 49
-0.25
 74
     0
 49
0.0
 74
     0
 49
-0.25
 74
     0
  0
LTYPE
  5
8D
330
5
100
AcDbSymbolTableRecord
100
AcDbLinetypeTableRecord
  2
BORDER2
 70
     0
  3
Border (.5x) __.__.__.__.__.__.__.__.__.__.__.
 72
    65
 73
     6
 40
0.875
 49
0.25
 74
     0
 49
-0.125
 74
     0
 49
0.25
 74
     0
 49
-0.125
 74
     0
 49
0.0
 74
     0
 49
-0.125
 74
     0
  0
LTYPE
  5
8E
330
5
100
AcDbSymbolTableRecord
100
AcDbLinetypeTableRecord
  2
BORDERX2
 70
     0
  3
Border (2x) ____  ____  .  ____  ____  .  ___
 72
    65
 73
     6
 40
3.5
 49
1.0
 74
     0
 49
-0.5
 74
     0
 49
1.0
 74
     0
 49
-0.5
 74
     0
 49
0.0
 74
     0
 49
-0.5
 74
     0
  0
LTYPE
  5
8F
330
5
100
AcDbSymbolTableRecord
100
AcDbLinetypeTableRecord
  2
CENTER
 70
     0
  3
Center ____ _ ____ _ ____ _ ____ _ ____ _ ____
 72
    65
 73
     4
 40
2.0
 49
1.25
 74
     0
 49
-0.25
 74
     0
 49
0.25
 74
     0
 49
-0.25
 74
     0
  0
LTYPE
  5
90
330
5
100
AcDbSymbolTableRecord
100
AcDbLinetypeTableRecord
  2
CENTER2
 70
     0
  3
Center (.5x) ___ _ ___ _ ___ _ ___ _ ___ _ ___
 72
    65
 73
     4
 40
1.125
 49
0.75
 74
     0
 49
-0.125
 74
     0
 49
0.125
 74
     0
 49
-0.125
 74
     0
  0
LTYPE
  5
91
330
5
100
AcDbSymbolTableRecord
100
AcDbLinetypeTableRecord
  2
CENTERX2
 70
     0
  3
Center (2x) ________  __  ________  __  _____
 72
    65
 73
     4
 40
4.0
 49
2.5
 74
     0
 49
-0.5
 74
     0
 49
0.5
 74
     0
 49
-0.5
 74
     0
  0
LTYPE
  5
92
330
5
100
AcDbSymbolTableRecord
100
AcDbLinetypeTableRecord
  2
DASHDOT2
 70
     0
  3
Dash dot (.5x) _._._._._._._._._._._._._._._.
 72
    65
 73
     4
 40
0.5
 49
0.25
 74
     0
 49
-0.125
 74
     0
 49
0.0
 74
     0
 49
-0.125
 74
     0
  0
LTYPE
  5
93
330
5
100
AcDbSymbolTableRecord
100
AcDbLinetypeTableRecord
  2
DASHDOTX2
 70
     0
  3
Dash dot (2x) ____  .  ____  .  ____  .  ___
 72
    65
 73
     4
 40
2.0
 49
1.0
 74
     0
 49
-0.5
 74
     0
 49
0.0
 74
     0
 49
-0.5
 74
     0
  0
LTYPE
  5
95
330
5
100
AcDbSymbolTableRecord
100
AcDbLinetypeTableRecord
  2
DASHED2
 70
     0
  3
Dashed (.5x) _ _ _ _ _ _ _ _ _ _ _ _ _ _ _ _ _
 72
    65
 73
     2
 40
0.375
 49
0.25
 74
     0
 49
-0.125
 74
     0
  0
LTYPE
  5
96
330
5
100
AcDbSymbolTableRecord
100
AcDbLinetypeTableRecord
  2
DASHEDX2
 70
     0
  3
Dashed (2x) ____  ____  ____  ____  ____  ___
 72
    65
 73
     2
 40
1.5
 49
1.0
 74
     0
 49
-0.5
 74
     0
  0
LTYPE
  5
97
330
5
100
AcDbSymbolTableRecord
100
AcDbLinetypeTableRecord
  2
DIVIDE
 70
     0
  3
Divide ____ . . ____ . . ____ . . ____ . . ____
 72
    65
 73
     6
 40
1.25
 49
0.5
 74
     0
 49
-0.25
 74
     0
 49
0.0
 74
     0
 49
-0.25
 74
     0
 49
0.0
 74
     0
 49
-0.25
 74
     0
  0
LTYPE
  5
98
330
5
100
AcDbSymbolTableRecord
100
AcDbLinetypeTableRecord
  2
DIVIDE2
 70
     0
  3
Divide (.5x) __..__..__..__..__..__..__..__.._
 72
    65
 73
     6
 40
0.625
 49
0.25
 74
     0
 49
-0.125
 74
     0
 49
0.0
 74
     0
 49
-0.125
 74
     0
 49
0.0
 74
     0
 49
-0.125
 74
     0
  0
LTYPE
  5
99
330
5
100
AcDbSymbolTableRecord
100
AcDbLinetypeTableRecord
  2
DIVIDEX2
 70
     0
  3
Divide (2x) ________  .  .  ________  .  .  _
 72
    65
 73
     6
 40
2.5
 49
1.0
 74
     0
 49
-0.5
 74
     0
 49
0.0
 74
     0
 49
-0.5
 74
     0
 49
0.0
 74
     0
 49
-0.5
 74
     0
  0
LTYPE
  5
9A
330
5
100
AcDbSymbolTableRecord
100
AcDbLinetypeTableRecord
  2
DOT
 70
     0
  3
Dot . . . . . . . . . . . . . . . . . . . . . .
 72
    65
 73
     2
 40
0.25
 49
0.0
 74
     0
 49
-0.25
 74
     0
  0
LTYPE
  5
9B
330
5
100
AcDbSymbolTableRecord
100
AcDbLinetypeTableRecord
  2
DOT2
 70
     0
  3
Dot (.5x) .....................................
 72
    65
 73
     2
 40
0.125
 49
0.0
 74
     0
 49
-0.125
 74
     0
  0
LTYPE
  5
9C
330
5
100
AcDbSymbolTableRecord
100
AcDbLinetypeTableRecord
  2
DOTX2
 70
     0
  3
Dot (2x) .  .  .  .  .  .  .  .  .  .  .  .  . 
 72
    65
 73
     2
 40
0.5
 49
0.0
 74
     0
 49
-0.5
 74
     0
  0
LTYPE
  5
9D
330
5
100
AcDbSymbolTableRecord
100
AcDbLinetypeTableRecord
  2
HIDDEN
 70
     0
  3
Hidden __ __ __ __ __ __ __ __ __ __ __ __ __ _
 72
    65
 73
     2
 40
0.375
 49
0.25
 74
     0
 49
-0.125
 74
     0
  0
LTYPE
  5
9E
330
5
100
AcDbSymbolTableRecord
100
AcDbLinetypeTableRecord
  2
HIDDEN2
 70
     0
  3
Hidden (.5x) _ _ _ _ _ _ _ _ _ _ _ _ _ _ _ _ _
 72
    65
 73
     2
 40
0.1875
 49
0.125
 74
     0
 49
-0.0625
 74
     0
  0
LTYPE
  5
9F
330
5
100
AcDbSymbolTableRecord
100
AcDbLinetypeTableRecord
  2
HIDDENX2
 70
     0
  3
Hidden (2x) ____ ____ ____ ____ ____ ____ ____
 72
    65
 73
     2
 40
0.75
 49
0.5
 74
     0
 49
-0.25
 74
     0
  0
LTYPE
  5
A0
330
5
100
AcDbSymbolTableRecord
100
AcDbLinetypeTableRecord
  2
PHANTOM
 70
     0
  3
Phantom ______  __  __  ______  __  __  ______
 72
    65
 73
     6
 40
2.5
 49
1.25
 74
     0
 49
-0.25
 74
     0
 49
0.25
 74
     0
 49
-0.25
 74
     0
 49
0.25
 74
     0
 49
-0.25
 74
     0
  0
LTYPE
  5
A1
330
5
100
AcDbSymbolTableRecord
100
AcDbLinetypeTableRecord
  2
PHANTOM2
 70
     0
  3
Phantom (.5x) ___ _ _ ___ _ _ ___ _ _ ___ _ _
 72
    65
 73
     6
 40
1.25
 49
0.625
 74
     0
 49
-0.125
 74
     0
 49
0.125
 74
     0
 49
-0.125
 74
     0
 49
0.125
 74
     0
 49
-0.125
 74
     0
  0
LTYPE
  5
A2
330
5
100
AcDbSymbolTableRecord
100
AcDbLinetypeTableRecord
  2
PHANTOMX2
 70
     0
  3
Phantom (2x) ____________    ____    ____   _
 72
    65
 73
     6
 40
5.0
 49
2.5
 74
     0
 49
-0.5
 74
     0
 49
0.5
 74
     0
 49
-0.5
 74
     0
 49
0.5
 74
     0
 49
-0.5
 74
     0
  0
LTYPE
  5
A3
330
5
100
AcDbSymbolTableRecord
100
AcDbLinetypeTableRecord
  2
ACAD_ISO02W100
 70
     0
  3
ISO dash __ __ __ __ __ __ __ __ __ __ __ __ __
 72
    65
 73
     2
 40
0.59
 49
0.47
 74
     0
 49
-0.12
 74
     0
  0
LTYPE
  5
A4
330
5
100
AcDbSymbolTableRecord
100
AcDbLinetypeTableRecord
  2
ACAD_ISO03W100
 70
     0
  3
ISO dash space __    __    __    __    __    __
 72
    65
 73
     2
 40
1.179999999999999
 49
0.47
 74
     0
 49
-0.71
 74
     0
  0
LTYPE
  5
A5
330
5
100
AcDbSymbolTableRecord
100
AcDbLinetypeTableRecord
  2
ACAD_ISO04W100
 70
     0
  3
ISO long-dash dot ____ . ____ . ____ . ____ . _
 72
    65
 73
     4
 40
1.179999999999999
 49
0.9399999999999998
 74
     0
 49
-0.12
 74
     0
 49
0.0
 74
     0
 49
-0.12
 74
     0
  0
LTYPE
  5
A6
330
5
100
AcDbSymbolTableRecord
100
AcDbLinetypeTableRecord
  2
ACAD_ISO05W100
 70
     0
  3
ISO long-dash double-dot ____ .. ____ .. ____ .
 72
    65
 73
     6
 40
1.299999999999999
 49
0.9399999999999998
 74
     0
 49
-0.12
 74
     0
 49
0.0
 74
     0
 49
-0.12
 74
     0
 49
0.0
 74
     0
 49
-0.12
 74
     0
  0
LTYPE
  5
A7
330
5
100
AcDbSymbolTableRecord
100
AcDbLinetypeTableRecord
  2
ACAD_ISO06W100
 70
     0
  3
ISO long-dash triple-dot ____ ... ____ ... ____
 72
    65
 73
     8
 40
1.419999999999999
 49
0.9399999999999998
 74
     0
 49
-0.12
 74
     0
 49
0.0
 74
     0
 49
-0.12
 74
     0
 49
0.0
 74
     0
 49
-0.12
 74
     0
 49
0.0
 74
     0
 49
-0.12
 74
     0
  0
LTYPE
  5
A8
330
5
100
AcDbSymbolTableRecord
100
AcDbLinetypeTableRecord
  2
ACAD_ISO07W100
 70
     0
  3
ISO dot . . . . . . . . . . . . . . . . . . . .
 72
    65
 73
     2
 40
0.12
 49
0.0
 74
     0
 49
-0.12
 74
     0
  0
LTYPE
  5
A9
330
5
100
AcDbSymbolTableRecord
100
AcDbLinetypeTableRecord
  2
ACAD_ISO08W100
 70
     0
  3
ISO long-dash short-dash ____ __ ____ __ ____ _
 72
    65
 73
     4
 40
0.95
 49
0.47
 74
     0
 49
-0.12
 74
     0
 49
0.24
 74
     0
 49
-0.12
 74
     0
  0
LTYPE
  5
AA
330
5
100
AcDbSymbolTableRecord
100
AcDbLinetypeTableRecord
  2
ACAD_ISO09W100
 70
     0
  3
ISO long-dash double-short-dash ____ __ __ ____
 72
    65
 73
     6
 40
1.31
 49
0.47
 74
     0
 49
-0.12
 74
     0
 49
0.24
 74
     0
 49
-0.12
 74
     0
 49
0.24
 74
     0
 49
-0.12
 74
     0
  0
LTYPE
  5
AB
330
5
100
AcDbSymbolTableRecord
100
AcDbLinetypeTableRecord
  2
ACAD_ISO10W100
 70
     0
  3
ISO dash dot __ . __ . __ . __ . __ . __ . __ .
 72
    65
 73
     4
 40
0.71
 49
0.47
 74
     0
 49
-0.12
 74
     0
 49
0.0
 74
     0
 49
-0.12
 74
     0
  0
LTYPE
  5
AC
330
5
100
AcDbSymbolTableRecord
100
AcDbLinetypeTableRecord
  2
ACAD_ISO11W100
 70
     0
  3
ISO double-dash dot __ __ . __ __ . __ __ . __ 
 72
    65
 73
     6
 40
1.299999999999999
 49
0.47
 74
     0
 49
-0.12
 74
     0
 49
0.47
 74
     0
 49
-0.12
 74
     0
 49
0.0
 74
     0
 49
-0.12
 74
     0
  0
LTYPE
  5
AD
330
5
100
AcDbSymbolTableRecord
100
AcDbLinetypeTableRecord
  2
ACAD_ISO12W100
 70
     0
  3
ISO dash double-dot __ . . __ . . __ . . __ . .
 72
    65
 73
     6
 40
0.8299999999999998
 49
0.47
 74
     0
 49
-0.12
 74
     0
 49
0.0
 74
     0
 49
-0.12
 74
     0
 49
0.0
 74
     0
 49
-0.12
 74
     0
  0
LTYPE
  5
AE
330
5
100
AcDbSymbolTableRecord
100
AcDbLinetypeTableRecord
  2
ACAD_ISO13W100
 70
     0
  3
ISO double-dash double-dot __ __ . . __ __ . . 
 72
    65
 73
     8
 40
1.419999999999999
 49
0.47
 74
     0
 49
-0.12
 74
     0
 49
0.47
 74
     0
 49
-0.12
 74
     0
 49
0.0
 74
     0
 49
-0.12
 74
     0
 49
0.0
 74
     0
 49
-0.12
 74
     0
  0
LTYPE
  5
AF
330
5
100
AcDbSymbolTableRecord
100
AcDbLinetypeTableRecord
  2
ACAD_ISO14W100
 70
     0
  3
ISO dash triple-dot __ . . . __ . . . __ . . . 
 72
    65
 73
     8
 40
0.95
 49
0.47
 74
     0
 49
-0.12
 74
     0
 49
0.0
 74
     0
 49
-0.12
 74
     0
 49
0.0
 74
     0
 49
-0.12
 74
     0
 49
0.0
 74
     0
 49
-0.12
 74
     0
  0
LTYPE
  5
B0
330
5
100
AcDbSymbolTableRecord
100
AcDbLinetypeTableRecord
  2
ACAD_ISO15W100
 70
     0
  3
ISO double-dash triple-dot __ __ . . . __ __ . 
 72
    65
 73
    10
 40
1.539999999999999
 49
0.47
 74
     0
 49
-0.12
 74
     0
 49
0.47
 74
     0
 49
-0.12
 74
     0
 49
0.0
 74
     0
 49
-0.12
 74
     0
 49
0.0
 74
     0
 49
-0.12
 74
     0
 49
0.0
 74
     0
 49
-0.12
 74
     0
  0
LTYPE
  5
B3
330
5
100
AcDbSymbolTableRecord
100
AcDbLinetypeTableRecord
  2
FENCELINE1
 70
     0
  3
Fenceline circle ----0-----0----0-----0----0---
 72
    65
 73
     4
 40
1.45
 49
0.25
 74
     0
 49
-0.1
 74
     4
 75
   133
340
B2
 46
0.1
 50
0.0
 44
-0.1
 45
0.0
 49
-0.1
 74
     0
 49
1.0
 74
     0
  0
LTYPE
  5
B4
330
5
100
AcDbSymbolTableRecord
100
AcDbLinetypeTableRecord
  2
FENCELINE2
 70
     0
  3
Fenceline square ----[]-----[]----[]-----[]----
 72
    65
 73
     4
 40
1.45
 49
0.25
 74
     0
 49
-0.1
 74
     4
 75
   132
340
B2
 46
0.1
 50
0.0
 44
-0.1
 45
0.0
 49
-0.1
 74
     0
 49
1.0
 74
     0
  0
LTYPE
  5
B5
330
5
100
AcDbSymbolTableRecord
100
AcDbLinetypeTableRecord
  2
TRACKS
 70
     0
  3
Tracks -|-|-|-|-|-|-|-|-|-|-|-|-|-|-|-|-|-|-|-|
 72
    65
 73
     2
 40
0.3
 49
0.15
 74
     4
 75
   130
340
B2
 46
0.25
 50
0.0
 44
0.0
 45
0.0
 49
0.15
 74
     0
  0
LTYPE
  5
B6
330
5
100
AcDbSymbolTableRecord
100
AcDbLinetypeTableRecord
  2
BATTING
 70
     0
  3
Batting SSSSSSSSSSSSSSSSSSSSSSSSSSSSSSSSSSSSSSS
 72
    65
 73
     4
 40
0.4001000000000001
 49
0.0001
 74
     0
 49
-0.1
 74
     4
 75
   134
340
B2
 46
0.1
 50
0.0
 44
-0.1
 45
0.0
 49
-0.2
 74
     4
 75
   134
340
B2
 46
0.1
 50
180.0
 44
0.1
 45
0.0
 49
-0.1
 74
     0
  0
LTYPE
  5
B7
330
5
100
AcDbSymbolTableRecord
100
AcDbLinetypeTableRecord
  2
HOT_WATER_SUPPLY
 70
     0
  3
Hot water supply ---- HW ---- HW ---- HW ----
 72
    65
 73
     3
 40
0.9
 49
0.5
 74
     0
 49
-0.2
 74
     2
 75
     0
340
55
 46
0.1
 50
0.0
 44
-0.1
 45
-0.05
  9
HW
 49
-0.2
 74
     0
  0
LTYPE
  5
B8
330
5
100
AcDbSymbolTableRecord
100
AcDbLinetypeTableRecord
  2
GAS_LINE
 70
     0
  3
Gas line ----GAS----GAS----GAS----GAS----GAS---
 72
    65
 73
     3
 40
0.95
 49
0.5
 74
     0
 49
-0.2
 74
     2
 75
     0
340
55
 46
0.1
 50
0.0
 44
-0.1
 45
-0.05
  9
GAS
 49
-0.25
 74
     0
  0
LTYPE
  5
B9
330
5
100
AcDbSymbolTableRecord
100
AcDbLinetypeTableRecord
  2
ZIGZAG
 70
     0
  3
Zig zag /\/\/\/\/\/\/\/\/\/\/\/\/\/\/\/\/\/\/\/
 72
    65
 73
     4
 40
0.8001000000000001
 49
0.0001
 74
     0
 49
-0.2
 74
     4
 75
   131
340
B2
 46
0.2
 50
0.0
 44
-0.2
 45
0.0
 49
-0.4
 74
     4
 75
   131
340
B2
 46
0.2
 50
180.0
 44
0.2
 45
0.0
 49
-0.2
 74
     0
  0
ENDTAB
  0
TABLE
  2
LAYER
  5
2
330
0
100
AcDbSymbolTable
 70
    27
  0
LAYER
  5
54
330
2
100
AcDbSymbolTableRecord
100
AcDbLayerTableRecord
  2
0
 70
     0
 62
     7
  6
Continuous
370
    18
390
F
347
21
  0
LAYER
  5
C0
330
2
100
AcDbSymbolTableRecord
100
AcDbLayerTableRecord
  2
Center Mark (ANSI)
 70
     0
 62
     7
  6
Continuous
370
    15
390
F
347
21
  0
LAYER
  5
C1
330
2
100
AcDbSymbolTableRecord
100
AcDbLayerTableRecord
  2
Centerline (ANSI)
 70
     0
 62
     7
  6
Continuous
370
    15
390
F
347
21
  0
LAYER
  5
C3
330
2
100
AcDbSymbolTableRecord
100
AcDbLayerTableRecord
  2
Dimension (ANSI)
 70
     0
 62
     7
  6
Continuous
370
    13
390
F
347
21
  0
LAYER
  5
CC
330
2
100
AcDbSymbolTableRecord
100
AcDbLayerTableRecord
  2
Symbol (ANSI)
 70
     0
 62
     7
  6
Continuous
370
    18
390
F
347
21
  0
LAYER
  5
CF
330
2
100
AcDbSymbolTableRecord
100
AcDbLayerTableRecord
  2
Visible (ANSI)
 70
     0
 62
     7
  6
Continuous
370
    13
390
F
347
21
  0
LAYER
  5
D0
330
2
100
AcDbSymbolTableRecord
100
AcDbLayerTableRecord
  2
Visible Narrow (ANSI)
 70
     0
 62
     7
  6
Continuous
370
    18
390
F
347
21
  0
LAYER
  5
2EF
330
2
100
AcDbSymbolTableRecord
100
AcDbLayerTableRecord
  2
Defpoints
 70
     0
 62
     7
  6
Continuous
290
     0
370
    -3
390
F
347
21
  0
ENDTAB
  0
TABLE
  2
STYLE
  5
3
330
0
100
AcDbSymbolTable
 70
    18
  0
STYLE
  5
55
330
3
100
AcDbSymbolTableRecord
100
AcDbTextStyleTableRecord
  2
Standard
 70
     0
 40
0.0
 41
1.0
 50
0.0
 71
     0
 42
0.2
  3
txt
  4

  0
STYLE
  5
5A
330
3
100
AcDbSymbolTableRecord
100
AcDbTextStyleTableRecord
  2
Annotative
 70
     0
 40
0.0
 41
1.0
 50
0.0
 71
     0
 42
0.2
  3
txt
  4

1001
AcadAnnotative
1000
AnnotativeData
1002
{
1070
     1
1070
     1
1002
}
  0
STYLE
  5
B2
330
3
100
AcDbSymbolTableRecord
100
AcDbTextStyleTableRecord
  2

 70
     1
 40
0.0
 41
1.0
 50
0.0
 71
     0
 42
0.2
  3
ltypeshp.shx
  4

  0
STYLE
  5
D4
330
3
100
AcDbSymbolTableRecord
100
AcDbTextStyleTableRecord
  2
ITALICC_120
 70
     0
 40
0.0
 41
1.0
 50
0.0
 71
     0
 42
0.2
  3
italicc.shx
  4

  0
STYLE
  5
D5
330
3
100
AcDbSymbolTableRecord
100
AcDbTextStyleTableRecord
  2
Label Text (ANSI)
 70
     0
 40
0.0
 41
1.0
 50
0.0
 71
     0
 42
0.2
  3
tahoma.ttf
  4

1001
ACAD
1000
Tahoma
1071
      256
  0
STYLE
  5
D6
330
3
100
AcDbSymbolTableRecord
100
AcDbTextStyleTableRecord
  2
Note Text (ANSI)
 70
     0
 40
0.0
 41
1.0
 50
0.0
 71
     0
 42
0.2
  3
tahoma.ttf
  4

1001
ACAD
1000
Tahoma
1071
      256
  0
STYLE
  5
D7
330
3
100
AcDbSymbolTableRecord
100
AcDbTextStyleTableRecord
  2
ROMANS
 70
     0
 40
0.0
 41
1.0
 50
0.0
 71
     0
 42
0.2
  3
romans.shx
  4

  0
STYLE
  5
D8
330
3
100
AcDbSymbolTableRecord
100
AcDbTextStyleTableRecord
  2
SANSSERIF_114
 70
     0
 40
0.0
 41
1.0
 50
0.0
 71
     0
 42
0.2
  3
tahoma.ttf
  4

1001
ACAD
1000
Tahoma
1071
      256
  0
STYLE
  5
D9
330
3
100
AcDbSymbolTableRecord
100
AcDbTextStyleTableRecord
  2
SANSSERIF_117
 70
     0
 40
0.0
 41
1.0
 50
0.0
 71
     0
 42
0.2
  3
tahoma.ttf
  4

1001
ACAD
1000
Tahoma
1071
      256
  0
STYLE
  5
DA
330
3
100
AcDbSymbolTableRecord
100
AcDbTextStyleTableRecord
  2
STANDARDAM_ANSI
 70
     0
 40
0.0
 41
1.0
 50
0.0
 71
     0
 42
0.2
  3
txt.shx
  4

  0
STYLE
  5
DB
330
3
100
AcDbSymbolTableRecord
100
AcDbTextStyleTableRecord
  2
StandardAM_ANSI$0
 70
     0
 40
0.0
 41
1.0
 50
0.0
 71
     0
 42
0.2
  3
txt.shx
  4

  0
STYLE
  5
DC
330
3
100
AcDbSymbolTableRecord
100
AcDbTextStyleTableRecord
  2
STANDARDAM_ANSI$3
 70
     0
 40
0.0
 41
1.0
 50
0.0
 71
     0
 42
0.2
  3
txt.shx
  4

  0
STYLE
  5
DD
330
3
100
AcDbSymbolTableRecord
100
AcDbTextStyleTableRecord
  2
STANDARDAM_ANSI$4
 70
     0
 40
0.0
 41
1.0
 50
0.0
 71
     0
 42
0.2
  3
txt.shx
  4

  0
STYLE
  5
DE
330
3
100
AcDbSymbolTableRecord
100
AcDbTextStyleTableRecord
  2
STANDARDAM_ANSI$7
 70
     0
 40
0.0
 41
1.0
 50
0.0
 71
     0
 42
0.2
  3
txt.shx
  4

  0
STYLE
  5
DF
330
3
100
AcDbSymbolTableRecord
100
AcDbTextStyleTableRecord
  2
STANDARDAM_ANSI$SF
 70
     0
 40
0.0
 41
1.0
 50
0.0
 71
     0
 42
0.2
  3
txt.shx
  4

  0
STYLE
  5
E0
330
3
100
AcDbSymbolTableRecord
100
AcDbTextStyleTableRecord
  2
STANDARDAM_ANSI$SH
 70
     0
 40
0.0
 41
1.0
 50
0.0
 71
     0
 42
0.2
  3
txt.shx
  4

  0
STYLE
  5
E1
330
3
100
AcDbSymbolTableRecord
100
AcDbTextStyleTableRecord
  2
STANDARDSTANDARD
 70
     0
 40
0.0
 41
1.0
 50
0.0
 71
     0
 42
0.2
  3
txt.shx
  4

  0
STYLE
  5
1FF
330
3
100
AcDbSymbolTableRecord
100
AcDbTextStyleTableRecord
  2
Text Style154
 70
     0
 40
0.0
 41
1.0
 50
0.0
 71
     0
 42
0.2
  3
tahoma.ttf
  4

1001
ACAD
1000
Tahoma
1071
      256
  0
ENDTAB
  0
TABLE
  2
VIEW
  5
6
330
0
100
AcDbSymbolTable
 70
     0
  0
ENDTAB
  0
TABLE
  2
UCS
  5
7
330
0
100
AcDbSymbolTable
 70
     0
  0
ENDTAB
  0
TABLE
  2
APPID
  5
9
330
0
100
AcDbSymbolTable
 70
     3
  0
APPID
  5
56
330
9
100
AcDbSymbolTableRecord
100
AcDbRegAppTableRecord
  2
ACAD
 70
     0
  0
APPID
  5
5E
330
9
100
AcDbSymbolTableRecord
100
AcDbRegAppTableRecord
  2
AcadAnnotative
 70
     0
  0
APPID
  5
B47
330
9
100
AcDbSymbolTableRecord
100
AcDbRegAppTableRecord
  2
ACAD_DSTYLE_DIMRADIAL_EXTENSION
 70
     0
  0
ENDTAB
  0
TABLE
  2
DIMSTYLE
  5
A
330
0
100
AcDbSymbolTable
 70
    27
100
AcDbDimStyleTable
 71
     2
340
F6
340
58
  0
DIMSTYLE
105
58
330
A
100
AcDbSymbolTableRecord
100
AcDbDimStyleTableRecord
  2
STANDARD
 70
     0
 41
0.1800000071525573
 42
0.0625
140
0.1800000071525574
144
1.0
147
0.0900000035762787
176
   256
177
   256
178
   256
274
     3
340
55
371
    -1
372
    -1
  0
DIMSTYLE
105
59
330
A
100
AcDbSymbolTableRecord
100
AcDbDimStyleTableRecord
  2
Annotative
 70
     0
340
55
1001
AcadAnnotative
1000
AnnotativeData
1002
{
1070
     1
1070
     1
1002
}
  0
DIMSTYLE
105
E2
330
A
100
AcDbSymbolTableRecord
100
AcDbDimStyleTableRecord
  2
AM_ANSI
 70
     0
  4
 mm
 40
11.0
 41
0.119999997317791
 42
0.05
 43
0.5
 44
0.1
 45
0.00000001
 78
     4
 79
     2
140
0.1200000047683716
146
0.7099999189376831
147
0.0599999986588955
176
   256
177
   256
178
     2
284
     4
340
DA
371
    -1
372
    -1
  0
DIMSTYLE
105
E3
330
A
100
AcDbSymbolTableRecord
100
AcDbDimStyleTableRecord
  2
AM_ANSI$7
 70
     0
  4
 mm
 40
11.0
 41
0.119999997317791
 42
0.05
 43
0.5
 44
0.1
 45
0.00000001
 78
     4
 79
     2
140
0.1200000047683716
146
0.7099999189376831
147
0.0599999986588955
176
   256
177
   256
178
     2
284
     4
340
DA
371
    -1
372
    -1
  0
DIMSTYLE
105
E4
330
A
100
AcDbSymbolTableRecord
100
AcDbDimStyleTableRecord
  2
AM_ANSI$0
 70
     0
  4
 mm
 40
11.0
 41
0.119999997317791
 42
0.05
 43
0.5
 44
0.1
 45
0.00000001
 78
     4
 79
     2
140
0.1200000047683716
146
0.7099999189376831
147
0.0599999986588955
176
   256
177
   256
178
     2
284
     4
340
DB
371
    -1
372
    -1
  0
DIMSTYLE
105
E5
330
A
100
AcDbSymbolTableRecord
100
AcDbDimStyleTableRecord
  2
AM_ANSI$0$7
 70
     0
  4
 mm
 40
11.0
 41
0.119999997317791
 42
0.05
 43
0.5
 44
0.1
 45
0.00000001
 78
     4
 79
     2
140
0.1200000047683716
146
0.7099999189376831
147
0.0599999986588955
176
   256
177
   256
178
     2
284
     4
340
DB
371
    -1
372
    -1
  0
DIMSTYLE
105
E6
330
A
100
AcDbSymbolTableRecord
100
AcDbDimStyleTableRecord
  2
AM_ANSI$3
 70
     0
  4
 mm
 40
11.0
 41
0.119999997317791
 42
0.05
 43
0.5
 44
0.1
 45
0.00000001
 78
     4
 79
     2
140
0.1200000047683716
146
0.7099999189376831
147
0.0599999986588955
176
   256
177
   256
178
     2
284
     4
340
DC
371
    -1
372
    -1
  0
DIMSTYLE
105
E7
330
A
100
AcDbSymbolTableRecord
100
AcDbDimStyleTableRecord
  2
AM_ANSI$3$7
 70
     0
  4
 mm
 40
11.0
 41
0.119999997317791
 42
0.05
 43
0.5
 44
0.1
 45
0.00000001
 78
     4
 79
     2
140
0.1200000047683716
146
0.7099999189376831
147
0.0599999986588955
176
   256
177
   256
178
     2
284
     4
340
DC
371
    -1
372
    -1
  0
DIMSTYLE
105
E8
330
A
100
AcDbSymbolTableRecord
100
AcDbDimStyleTableRecord
  2
AM_ANSI$4
 70
     0
  4
 mm
 40
11.0
 41
0.119999997317791
 42
0.05
 43
0.5
 44
0.1
 45
0.00000001
 78
     4
 79
     2
140
0.1200000047683716
146
0.7099999189376831
147
0.0599999986588955
176
   256
177
   256
178
     2
284
     4
340
DD
371
    -1
372
    -1
  0
DIMSTYLE
105
E9
330
A
100
AcDbSymbolTableRecord
100
AcDbDimStyleTableRecord
  2
AM_ANSI$4$7
 70
     0
  4
 mm
 40
11.0
 41
0.119999997317791
 42
0.05
 43
0.5
 44
0.1
 45
0.00000001
 78
     4
 79
     2
140
0.1200000047683716
146
0.7099999189376831
147
0.0599999986588955
176
   256
177
   256
178
     2
284
     4
340
DD
371
    -1
372
    -1
  0
DIMSTYLE
105
EA
330
A
100
AcDbSymbolTableRecord
100
AcDbDimStyleTableRecord
  2
AM_ANSI$SF
 70
     0
  4
 mm
 40
11.0
 41
0.119999997317791
 42
0.05
 43
0.5
 44
0.1
 45
0.00000001
 75
     1
 76
     1
 78
     4
 79
     2
140
0.1200000047683716
146
0.7099999189376831
147
0.0599999986588955
176
   256
177
   256
178
     2
284
     4
340
DF
371
    -1
372
    -1
  0
DIMSTYLE
105
EB
330
A
100
AcDbSymbolTableRecord
100
AcDbDimStyleTableRecord
  2
AM_ANSI$SF$7
 70
     0
  4
 mm
 40
11.0
 41
0.119999997317791
 42
0.05
 43
0.5
 44
0.1
 45
0.00000001
 75
     1
 76
     1
 78
     4
 79
     2
140
0.1200000047683716
146
0.7099999189376831
147
0.0599999986588955
176
   256
177
   256
178
     2
284
     4
340
DF
371
    -1
372
    -1
  0
DIMSTYLE
105
EC
330
A
100
AcDbSymbolTableRecord
100
AcDbDimStyleTableRecord
  2
AM_ANSI$SH
 70
     0
  4
 mm
 40
11.0
 41
0.119999997317791
 42
0.05
 43
0.5
 44
0.1
 45
0.00000001
 75
     1
 76
     1
 78
     4
 79
     2
140
0.1200000047683716
146
0.7099999189376831
147
0.0599999986588955
176
   256
177
   256
178
     2
284
     4
340
E0
371
    -1
372
    -1
  0
DIMSTYLE
105
ED
330
A
100
AcDbSymbolTableRecord
100
AcDbDimStyleTableRecord
  2
AM_ANSI$SH$7
 70
     0
  4
 mm
 40
11.0
 41
0.119999997317791
 42
0.05
 43
0.5
 44
0.1
 45
0.00000001
 75
     1
 76
     1
 78
     4
 79
     2
140
0.1200000047683716
146
0.7099999189376831
147
0.0599999986588955
176
   256
177
   256
178
     2
284
     4
340
E0
371
    -1
372
    -1
  0
DIMSTYLE
105
EE
330
A
100
AcDbSymbolTableRecord
100
AcDbDimStyleTableRecord
  2
Architectural (ANSI)
 70
     0
 40
11.0
 41
0.0984251946210861
 43
0.2362204724409449
 44
0.125
 45
0.00000001
 46
0.3937007874015748
 78
     3
 79
     3
140
0.1200000047683716
147
0.031496062992126
171
     1
176
   256
177
   256
178
   256
272
     2
274
     1
276
     2
277
     4
284
    12
285
     4
286
    12
340
D6
371
    -1
372
    -1
  0
DIMSTYLE
105
EF
330
A
100
AcDbSymbolTableRecord
100
AcDbDimStyleTableRecord
  2
Architectural (ANSI)$7
 70
     0
 40
11.0
 41
0.0984251946210861
 43
0.2362204724409449
 44
0.125
 45
0.00000001
 46
0.3937007874015748
 78
     3
 79
     3
140
0.1200000047683716
147
0.031496062992126
171
     1
176
   256
177
   256
178
   256
272
     2
274
     1
276
     2
277
     4
284
    12
285
     4
286
    12
340
D6
371
    -1
372
    -1
  0
DIMSTYLE
105
F0
330
A
100
AcDbSymbolTableRecord
100
AcDbDimStyleTableRecord
  2
Default - Fraction (ANSI)
 70
     0
 40
11.0
 41
0.0984251946210861
 43
0.2362204724409449
 44
0.125
 45
0.00000001
 46
0.3937007874015748
 79
     3
140
0.1200000047683716
147
0.031496062992126
171
     1
176
   256
177
   256
178
   256
272
     2
274
     1
276
     2
277
     5
284
    12
285
     4
286
    12
340
D6
371
    -1
372
    -1
  0
DIMSTYLE
105
F1
330
A
100
AcDbSymbolTableRecord
100
AcDbDimStyleTableRecord
  2
Default - Fraction (ANSI)$7
 70
     0
 40
11.0
 41
0.0984251946210861
 43
0.2362204724409449
 44
0.125
 45
0.00000001
 46
0.3937007874015748
 79
     3
140
0.1200000047683716
147
0.031496062992126
171
     1
176
   256
177
   256
178
   256
272
     2
274
     1
276
     2
277
     5
284
    12
285
     4
286
    12
340
D6
371
    -1
372
    -1
  0
DIMSTYLE
105
F2
330
A
100
AcDbSymbolTableRecord
100
AcDbDimStyleTableRecord
  2
Default - mm (ANSI)
 70
     0
 40
11.0
 41
0.0984251946210861
 42
0.063
 43
0.2362204724409449
 44
0.125
 45
0.00000001
 46
0.3937007874015748
 73
     0
 78
     4
 79
     1
140
0.1200000047683716
143
1.0
144
25.4
147
0.031496062992126
171
     1
176
   256
177
   256
178
   256
179
     1
271
     2
272
     2
274
     1
284
     4
285
     4
340
D6
371
    -1
372
    -1
  0
DIMSTYLE
105
F3
330
A
100
AcDbSymbolTableRecord
100
AcDbDimStyleTableRecord
  2
Default - mm (ANSI)$7
 70
     0
 40
11.0
 41
0.0984251946210861
 42
0.063
 43
0.2362204724409449
 44
0.125
 45
0.00000001
 46
0.3937007874015748
 73
     0
 78
     4
 79
     1
140
0.1200000047683716
143
1.0
144
25.4
147
0.031496062992126
171
     1
176
   256
177
   256
178
   256
179
     1
271
     2
272
     2
274
     1
284
     4
285
     4
340
D6
371
    -1
372
    -1
  0
DIMSTYLE
105
F4
330
A
100
AcDbSymbolTableRecord
100
AcDbDimStyleTableRecord
  2
Default - mm [in] (ANSI)
 70
     0
  4
 in
 40
11.0
 41
0.0984251946210861
 42
0.063
 43
0.25
 44
0.125
 45
0.00000001
 46
0.3937007874015748
 73
     0
 78
     4
 79
     1
140
0.1200000047683716
143
0.03937
144
25.4
147
0.031496062992126
170
     1
171
     3
176
   256
177
   256
178
   256
179
     1
271
     2
272
     2
274
     3
284
     4
285
     4
286
     4
340
D6
371
    -1
372
    -1
  0
DIMSTYLE
105
F5
330
A
100
AcDbSymbolTableRecord
100
AcDbDimStyleTableRecord
  2
Default - mm [in] (ANSI)$7
 70
     0
  4
 in
 40
11.0
 41
0.0984251946210861
 42
0.063
 43
0.25
 44
0.125
 45
0.00000001
 46
0.3937007874015748
 73
     0
 78
     4
 79
     1
140
0.1200000047683716
143
0.03937
144
25.4
147
0.031496062992126
170
     1
171
     3
176
   256
177
   256
178
   256
179
     1
271
     2
272
     2
274
     3
284
     4
285
     4
286
     4
340
D6
371
    -1
372
    -1
  0
DIMSTYLE
105
F6
102
{ACAD_REACTORS
330
2ED
330
3D9
330
4C3
330
5AD
330
697
330
781
330
86B
330
AAD
330
B7E
330
C7E
102
}
330
A
100
AcDbSymbolTableRecord
100
AcDbDimStyleTableRecord
  2
Default (ANSI)
 70
     0
 40
11.0
 41
0.0984251946210861
 43
0.2362204724409449
 44
0.125
 45
0.00000001
 46
0.3937007874015748
 79
     1
140
0.1200000047683716
147
0.031496062992126
171
     1
176
   256
177
   256
178
   256
271
     2
272
     2
274
     1
284
     4
285
     4
340
D6
371
    -1
372
    -1
  0
DIMSTYLE
105
F7
330
A
100
AcDbSymbolTableRecord
100
AcDbDimStyleTableRecord
  2
Default (ANSI)$7
 70
     0
 40
11.0
 41
0.0984251946210861
 43
0.2362204724409449
 44
0.125
 45
0.00000001
 46
0.3937007874015748
 79
     1
140
0.1200000047683716
147
0.031496062992126
171
     1
176
   256
177
   256
178
   256
271
     2
272
     2
274
     1
284
     4
285
     4
340
D6
371
    -1
372
    -1
  0
DIMSTYLE
105
F8
330
A
100
AcDbSymbolTableRecord
100
AcDbDimStyleTableRecord
  2
Alternate (ANSI)
 70
     0
 40
11.0
 41
0.0979999974370003
340
55
342
F9
  0
DIMSTYLE
105
10B
330
A
100
AcDbSymbolTableRecord
100
AcDbDimStyleTableRecord
  2
Datum (ANSI)
 70
     0
 40
11.0
 41
0.0979999974370003
340
55
342
F9
  0
DIMSTYLE
105
11A
330
A
100
AcDbSymbolTableRecord
100
AcDbDimStyleTableRecord
  2
Large (ANSI)
 70
     0
 40
11.0
 41
0.1959999948740005
340
55
342
F9
  0
ENDTAB
  0
TABLE
  2
BLOCK_RECORD
  5
1
330
0
100
AcDbSymbolTable
 70
    14
  0
BLOCK_RECORD
  5
6C
330
1
100
AcDbSymbolTableRecord
100
AcDbBlockTableRecord
  2
*Model_Space
340
6F
 70
     0
280
     1
281
     0
  0
BLOCK_RECORD
  5
68
330
1
100
AcDbSymbolTableRecord
100
AcDbBlockTableRecord
  2
*Paper_Space
340
6B
 70
     0
280
     1
281
     0
  0
BLOCK_RECORD
  5
70
330
1
100
AcDbSymbolTableRecord
100
AcDbBlockTableRecord
  2
*Paper_Space0
340
73
 70
     0
280
     1
281
     0
  0
BLOCK_RECORD
  5
F9
330
1
100
AcDbSymbolTableRecord
100
AcDbBlockTableRecord
  2
_Closed
340
0
 70
     0
280
     1
281
     0
  0
BLOCK_RECORD
  5
100
330
1
100
AcDbSymbolTableRecord
100
AcDbBlockTableRecord
  2
DatumFilled45
340
0
 70
     0
280
     1
281
     0
  0
BLOCK_RECORD
  5
10C
330
1
100
AcDbSymbolTableRecord
100
AcDbBlockTableRecord
  2
Filled-1
340
0
 70
     0
280
     1
281
     0
  0
BLOCK_RECORD
  5
2F0
330
1
100
AcDbSymbolTableRecord
100
AcDbBlockTableRecord
  2
*D4
340
0
 70
     0
280
     1
281
     0
  0
BLOCK_RECORD
  5
3DA
330
1
100
AcDbSymbolTableRecord
100
AcDbBlockTableRecord
  2
*D5
340
0
 70
     0
280
     1
281
     0
  0
BLOCK_RECORD
  5
4C4
330
1
100
AcDbSymbolTableRecord
100
AcDbBlockTableRecord
  2
*D6
340
0
 70
     0
280
     1
281
     0
  0
BLOCK_RECORD
  5
5AE
330
1
100
AcDbSymbolTableRecord
100
AcDbBlockTableRecord
  2
*D7
340
0
 70
     0
280
     1
281
     0
  0
BLOCK_RECORD
  5
698
330
1
100
AcDbSymbolTableRecord
100
AcDbBlockTableRecord
  2
*D8
340
0
 70
     0
280
     1
281
     0
  0
BLOCK_RECORD
  5
782
330
1
100
AcDbSymbolTableRecord
100
AcDbBlockTableRecord
  2
*D9
340
0
 70
     0
280
     1
281
     0
  0
BLOCK_RECORD
  5
86C
330
1
100
AcDbSymbolTableRecord
100
AcDbBlockTableRecord
  2
*D10
340
0
 70
     0
280
     1
281
     0
  0
BLOCK_RECORD
  5
AAE
330
1
100
AcDbSymbolTableRecord
100
AcDbBlockTableRecord
  2
*D11
340
0
 70
     0
280
     1
281
     0
  0
BLOCK_RECORD
  5
B7F
330
1
100
AcDbSymbolTableRecord
100
AcDbBlockTableRecord
  2
*D12
340
0
 70
     0
280
     1
281
     0
  0
BLOCK_RECORD
  5
C7F
330
1
100
AcDbSymbolTableRecord
100
AcDbBlockTableRecord
  2
*D13
340
0
 70
     0
280
     1
281
     0
  0
ENDTAB
  0
ENDSEC
  0
SECTION
  2
BLOCKS
  0
BLOCK
  5
6D
330
6C
100
AcDbEntity
  8
0
100
AcDbBlockBegin
  2
*Model_Space
 70
     0
 10
0.0
 20
0.0
 30
0.0
  3
*Model_Space
  1

  0
ENDBLK
  5
6E
330
6C
100
AcDbEntity
  8
0
100
AcDbBlockEnd
  0
BLOCK
  5
69
330
68
100
AcDbEntity
 67
     1
  8
0
100
AcDbBlockBegin
  2
*Paper_Space
 70
     0
 10
0.0
 20
0.0
 30
0.0
  3
*Paper_Space
  1

  0
ENDBLK
  5
6A
330
68
100
AcDbEntity
 67
     1
  8
0
100
AcDbBlockEnd
  0
BLOCK
  5
71
330
70
100
AcDbEntity
 67
     1
  8
0
100
AcDbBlockBegin
  2
*Paper_Space0
 70
     0
 10
0.0
 20
0.0
 30
0.0
  3
*Paper_Space0
  1

  0
ENDBLK
  5
72
330
70
100
AcDbEntity
 67
     1
  8
0
100
AcDbBlockEnd
  0
BLOCK
  5
FE
330
F9
100
AcDbEntity
  8
0
100
AcDbBlockBegin
  2
_Closed
 70
     0
 10
0.0
 20
0.0
 30
0.0
  3
_Closed
  1

  0
LINE
  5
FA
330
F9
100
AcDbEntity
  8
0
  6
ByBlock
 62
     0
370
    -2
100
AcDbLine
 10
-1.0
 20
0.1666666666666666
 30
0.0
 11
0.0
 21
0.0
 31
0.0
  0
LINE
  5
FB
330
F9
100
AcDbEntity
  8
0
  6
ByBlock
 62
     0
370
    -2
100
AcDbLine
 10
0.0
 20
0.0
 30
0.0
 11
-1.0
 21
-0.1666666666666666
 31
0.0
  0
LINE
  5
FC
330
F9
100
AcDbEntity
  8
0
  6
ByBlock
 62
     0
370
    -2
100
AcDbLine
 10
-1.0
 20
0.1666666666666666
 30
0.0
 11
-1.0
 21
-0.1666666666666666
 31
0.0
  0
LINE
  5
FD
330
F9
100
AcDbEntity
  8
0
  6
ByBlock
 62
     0
370
    -2
100
AcDbLine
 10
0.0
 20
0.0
 30
0.0
 11
-1.0
 21
0.0
 31
0.0
  0
ENDBLK
  5
FF
330
F9
100
AcDbEntity
  8
0
100
AcDbBlockEnd
  0
BLOCK
  5
101
330
100
100
AcDbEntity
  8
0
100
AcDbBlockBegin
  2
DatumFilled45
 70
     0
 10
0.0
 20
0.0
 30
0.0
  3
DatumFilled45
  1

  0
POLYLINE
  5
103
330
100
100
AcDbEntity
  8
0
 62
     0
100
AcDb2dPolyline
 66
     1
 10
0.0
 20
0.0
 30
0.0
 70
   128
  0
VERTEX
  5
104
330
103
100
AcDbEntity
  8
0
 62
     0
100
AcDbVertex
100
AcDb2dVertex
 10
0.0
 20
0.9999999999999998
 30
0.0
  0
VERTEX
  5
105
330
103
100
AcDbEntity
  8
0
 62
     0
100
AcDbVertex
100
AcDb2dVertex
 10
0.0
 20
-0.9999999999999998
 30
0.0
  0
VERTEX
  5
107
330
103
100
AcDbEntity
  8
0
 62
     0
100
AcDbVertex
100
AcDb2dVertex
 10
-0.9999999999999998
 20
0.0
 30
0.0
  0
VERTEX
  5
108
330
103
100
AcDbEntity
  8
0
 62
     0
100
AcDbVertex
100
AcDb2dVertex
 10
0.0
 20
0.9999999999999998
 30
0.0
  0
SEQEND
  5
106
330
103
100
AcDbEntity
  8
0
 62
     0
  0
SOLID
  5
10A
330
100
100
AcDbEntity
  8
0
 62
     0
100
AcDbTrace
 10
0.0
 20
0.9999999999999998
 30
0.0
 11
0.0
 21
-0.9999999999999998
 31
0.0
 12
-0.9999999999999998
 22
0.0
 32
0.0
 13
0.0
 23
0.9999999999999998
 33
0.0
  0
ENDBLK
  5
102
330
100
100
AcDbEntity
  8
0
100
AcDbBlockEnd
  0
BLOCK
  5
10D
330
10C
100
AcDbEntity
  8
0
100
AcDbBlockBegin
  2
Filled-1
 70
     0
 10
0.0
 20
0.0
 30
0.0
  3
Filled-1
  1

  0
LINE
  5
10F
330
10C
100
AcDbEntity
  8
0
 62
     0
100
AcDbLine
 10
-0.9999999999999998
 20
0.0
 30
0.0
 11
0.0
 21
0.0
 31
0.0
  0
POLYLINE
  5
110
330
10C
100
AcDbEntity
  8
0
 62
     0
100
AcDb2dPolyline
 66
     1
 10
0.0
 20
0.0
 30
0.0
 70
   128
  0
VERTEX
  5
111
330
110
100
AcDbEntity
  8
0
 62
     0
100
AcDbVertex
100
AcDb2dVertex
 10
-0.9999999999999998
 20
-0.0994897959183674
 30
0.0
  0
VERTEX
  5
112
330
110
100
AcDbEntity
  8
0
 62
     0
100
AcDbVertex
100
AcDb2dVertex
 10
0.0
 20
0.0
 30
0.0
  0
VERTEX
  5
114
330
110
100
AcDbEntity
  8
0
 62
     0
100
AcDbVertex
100
AcDb2dVertex
 10
-0.9999999999999998
 20
0.0994897959183674
 30
0.0
  0
VERTEX
  5
115
330
110
100
AcDbEntity
  8
0
 62
     0
100
AcDbVertex
100
AcDb2dVertex
 10
-0.9999999999999998
 20
-0.0994897959183674
 30
0.0
  0
SEQEND
  5
113
330
110
100
AcDbEntity
  8
0
 62
     0
  0
SOLID
  5
116
330
10C
100
AcDbEntity
  8
0
 62
     0
100
AcDbTrace
 10
-0.9999999999999998
 20
-0.0994897959183674
 30
0.0
 11
0.0
 21
0.0
 31
0.0
 12
-0.9999999999999998
 22
0.0994897959183674
 32
0.0
 13
-0.9999999999999998
 23
-0.0994897959183674
 33
0.0
  0
LINE
  5
117
330
10C
100
AcDbEntity
  8
0
 62
     0
100
AcDbLine
 10
-0.9999999999999998
 20
-0.0994897959183674
 30
0.0
 11
0.0
 21
0.0
 31
0.0
  0
LINE
  5
118
330
10C
100
AcDbEntity
  8
0
 62
     0
100
AcDbLine
 10
0.0
 20
0.0
 30
0.0
 11
-0.9999999999999998
 21
0.0994897959183674
 31
0.0
  0
LINE
  5
119
330
10C
100
AcDbEntity
  8
0
 62
     0
100
AcDbLine
 10
-0.9999999999999998
 20
0.0994897959183674
 30
0.0
 11
-0.9999999999999998
 21
-0.0994897959183674
 31
0.0
  0
ENDBLK
  5
10E
330
10C
100
AcDbEntity
  8
0
100
AcDbBlockEnd
  0
BLOCK
  5
2F1
330
2F0
100
AcDbEntity
  8
0
100
AcDbBlockBegin
  2
*D4
 70
     1
 10
0.0
 20
0.0
 30
0.0
  3
*D4
  1

  0
LINE
  5
3CF
330
2F0
100
AcDbEntity
  8
Dimension (ANSI)
440
 16777216
100
AcDbLine
 10
42.2725944965791
 20
37.75247706687758
 30
0.0
 11
22.95456372481678
 21
37.75247706687758
 31
0.0
  0
LINE
  5
3D0
330
2F0
100
AcDbEntity
  8
Dimension (ANSI)
440
 16777216
100
AcDbLine
 10
42.2725944965791
 20
82.75247706687759
 30
0.0
 11
22.95456372481679
 21
82.7524770668776
 31
0.0
  0
LINE
  5
3D1
330
2F0
100
AcDbEntity
  8
Dimension (ANSI)
440
 16777216
100
AcDbLine
 10
24.32956372481678
 20
38.83515420770953
 30
0.0
 11
24.32956372481679
 21
59.21898207037741
 31
0.0
  0
LINE
  5
3D2
330
2F0
100
AcDbEntity
  8
Dimension (ANSI)
440
 16777216
100
AcDbLine
 10
24.3295637248168
 20
81.66979992604565
 30
0.0
 11
24.32956372481679
 21
61.28597206337774
 31
0.0
  0
SOLID
  5
3D3
330
2F0
100
AcDbEntity
  8
Dimension (ANSI)
440
 16777216
100
AcDbTrace
 10
24.14911753467813
 20
38.83515420770953
 30
0.0
 11
24.51000991495544
 21
38.83515420770953
 31
0.0
 12
24.32956372481678
 22
37.75247706687758
 32
0.0
 13
24.32956372481678
 23
37.75247706687758
 33
0.0
  0
SOLID
  5
3D4
330
2F0
100
AcDbEntity
  8
Dimension (ANSI)
440
 16777216
100
AcDbTrace
 10
24.14911753467814
 20
81.66979992604565
 30
0.0
 11
24.51000991495545
 21
81.66979992604565
 31
0.0
 12
24.3295637248168
 22
82.7524770668776
 32
0.0
 13
24.3295637248168
 23
82.7524770668776
 33
0.0
  0
MTEXT
  5
3D5
330
2F0
100
AcDbEntity
  8
Dimension (ANSI)
440
 16777216
100
AcDbMText
 10
22.1270518986731
 20
60.93951537046436
 30
0.0
 40
1.320000052452087
 41
0.0
 46
0.0
 71
     1
 72
     1
  1
\A1;45.00
  7
Note Text (ANSI)
 73
     1
 44
1.0
  0
POINT
  5
3D6
330
2F0
100
AcDbEntity
  8
Defpoints
 62
     0
440
 16777216
100
AcDbPoint
 10
42.9600944965791
 20
37.75247706687758
 30
0.0
  0
POINT
  5
3D7
330
2F0
100
AcDbEntity
  8
Defpoints
 62
     0
440
 16777216
100
AcDbPoint
 10
42.96009449657909
 20
82.75247706687759
 30
0.0
  0
POINT
  5
3D8
330
2F0
100
AcDbEntity
  8
Defpoints
 62
     0
440
 16777216
100
AcDbPoint
 10
24.3295637248168
 20
82.7524770668776
 30
0.0
  0
ENDBLK
  5
2F2
330
2F0
100
AcDbEntity
  8
0
100
AcDbBlockEnd
  0
BLOCK
  5
3DB
330
3DA
100
AcDbEntity
  8
0
100
AcDbBlockBegin
  2
*D5
 70
     1
 10
0.0
 20
0.0
 30
0.0
  3
*D5
  1

  0
LINE
  5
4B9
330
3DA
100
AcDbEntity
  8
Dimension (ANSI)
440
 16777216
100
AcDbLine
 10
42.93420614893078
 20
38.62747706687758
 30
0.0
 11
37.04697056315447
 21
38.62747706687758
 31
0.0
  0
LINE
  5
4BA
330
3DA
100
AcDbEntity
  8
Dimension (ANSI)
440
 16777216
100
AcDbLine
 10
42.93420614893078
 20
60.25247706687758
 30
0.0
 11
37.04697056315448
 21
60.25247706687758
 31
0.0
  0
LINE
  5
4BB
330
3DA
100
AcDbEntity
  8
Dimension (ANSI)
440
 16777216
100
AcDbLine
 10
38.42197056315447
 20
39.71015420770953
 30
0.0
 11
38.42197056315447
 21
48.40603881985897
 31
0.0
  0
LINE
  5
4BC
330
3DA
100
AcDbEntity
  8
Dimension (ANSI)
440
 16777216
100
AcDbLine
 10
38.42197056315447
 20
59.16979992604563
 30
0.0
 11
38.42197056315447
 21
50.47391531389617
 31
0.0
  0
SOLID
  5
4BD
330
3DA
100
AcDbEntity
  8
Dimension (ANSI)
440
 16777216
100
AcDbTrace
 10
38.24152437301581
 20
39.71015420770953
 30
0.0
 11
38.60241675329313
 21
39.71015420770953
 31
0.0
 12
38.42197056315447
 22
38.62747706687758
 32
0.0
 13
38.42197056315447
 23
38.62747706687758
 33
0.0
  0
SOLID
  5
4BE
330
3DA
100
AcDbEntity
  8
Dimension (ANSI)
440
 16777216
100
AcDbTrace
 10
38.24152437301581
 20
59.16979992604563
 30
0.0
 11
38.60241675329314
 21
59.16979992604563
 31
0.0
 12
38.42197056315447
 22
60.25247706687758
 32
0.0
 13
38.42197056315447
 23
60.25247706687758
 33
0.0
  0
MTEXT
  5
4BF
330
3DA
100
AcDbEntity
  8
Dimension (ANSI)
440
 16777216
100
AcDbMText
 10
36.26467028989198
 20
50.1274586209828
 30
0.0
 40
1.320000052452087
 41
0.0
 46
0.0
 71
     1
 72
     1
  1
\A1;21.63
  7
Note Text (ANSI)
 73
     1
 44
1.0
  0
POINT
  5
4C0
330
3DA
100
AcDbEntity
  8
Defpoints
 62
     0
440
 16777216
100
AcDbPoint
 10
43.62170614893077
 20
38.62747706687758
 30
0.0
  0
POINT
  5
4C1
330
3DA
100
AcDbEntity
  8
Defpoints
 62
     0
440
 16777216
100
AcDbPoint
 10
43.62170614893077
 20
60.25247706687758
 30
0.0
  0
POINT
  5
4C2
330
3DA
100
AcDbEntity
  8
Defpoints
 62
     0
440
 16777216
100
AcDbPoint
 10
38.42197056315447
 20
60.25247706687758
 30
0.0
  0
ENDBLK
  5
3DC
330
3DA
100
AcDbEntity
  8
0
100
AcDbBlockEnd
  0
BLOCK
  5
4C5
330
4C4
100
AcDbEntity
  8
0
100
AcDbBlockBegin
  2
*D6
 70
     1
 10
0.0
 20
0.0
 30
0.0
  3
*D6
  1

  0
LINE
  5
5A3
330
4C4
100
AcDbEntity
  8
Dimension (ANSI)
440
 16777216
100
AcDbLine
 10
42.93420614893078
 20
38.62747706687758
 30
0.0
 11
30.47278982034806
 21
38.62747706687758
 31
0.0
  0
LINE
  5
5A4
330
4C4
100
AcDbEntity
  8
Dimension (ANSI)
440
 16777216
100
AcDbLine
 10
42.93420614893078
 20
81.87747706687758
 30
0.0
 11
30.47278982034807
 21
81.8774770668776
 31
0.0
  0
LINE
  5
5A5
330
4C4
100
AcDbEntity
  8
Dimension (ANSI)
440
 16777216
100
AcDbLine
 10
31.84778982034806
 20
39.71015420770953
 30
0.0
 11
31.84778982034806
 21
59.21853881985897
 31
0.0
  0
LINE
  5
5A6
330
4C4
100
AcDbEntity
  8
Dimension (ANSI)
440
 16777216
100
AcDbLine
 10
31.84778982034807
 20
80.79479992604566
 30
0.0
 11
31.84778982034806
 21
61.28641531389618
 31
0.0
  0
SOLID
  5
5A7
330
4C4
100
AcDbEntity
  8
Dimension (ANSI)
440
 16777216
100
AcDbTrace
 10
31.6673436302094
 20
39.71015420770953
 30
0.0
 11
32.02823601048672
 21
39.71015420770953
 31
0.0
 12
31.84778982034806
 22
38.62747706687758
 32
0.0
 13
31.84778982034806
 23
38.62747706687758
 33
0.0
  0
SOLID
  5
5A8
330
4C4
100
AcDbEntity
  8
Dimension (ANSI)
440
 16777216
100
AcDbTrace
 10
31.66734363020941
 20
80.79479992604566
 30
0.0
 11
32.02823601048673
 21
80.79479992604564
 31
0.0
 12
31.84778982034807
 22
81.8774770668776
 32
0.0
 13
31.84778982034807
 23
81.8774770668776
 33
0.0
  0
MTEXT
  5
5A9
330
4C4
100
AcDbEntity
  8
Dimension (ANSI)
440
 16777216
100
AcDbMText
 10
29.65591600664701
 20
60.9399586209828
 30
0.0
 40
1.320000052452087
 41
0.0
 46
0.0
 71
     1
 72
     1
  1
\A1;43.25
  7
Note Text (ANSI)
 73
     1
 44
1.0
  0
POINT
  5
5AA
330
4C4
100
AcDbEntity
  8
Defpoints
 62
     0
440
 16777216
100
AcDbPoint
 10
43.62170614893077
 20
38.62747706687758
 30
0.0
  0
POINT
  5
5AB
330
4C4
100
AcDbEntity
  8
Defpoints
 62
     0
440
 16777216
100
AcDbPoint
 10
43.62170614893077
 20
81.87747706687758
 30
0.0
  0
POINT
  5
5AC
330
4C4
100
AcDbEntity
  8
Defpoints
 62
     0
440
 16777216
100
AcDbPoint
 10
31.84778982034807
 20
81.8774770668776
 30
0.0
  0
ENDBLK
  5
4C6
330
4C4
100
AcDbEntity
  8
0
100
AcDbBlockEnd
  0
BLOCK
  5
5AF
330
5AE
100
AcDbEntity
  8
0
100
AcDbBlockBegin
  2
*D7
 70
     1
 10
0.0
 20
0.0
 30
0.0
  3
*D7
  1

  0
LINE
  5
68D
330
5AE
100
AcDbEntity
  8
Dimension (ANSI)
440
 16777216
100
AcDbLine
 10
42.74670614893078
 20
83.22658871922923
 30
0.0
 11
42.74670614893078
 21
96.04007297119775
 31
0.0
  0
LINE
  5
68E
330
5AE
100
AcDbEntity
  8
Dimension (ANSI)
440
 16777216
100
AcDbLine
 10
81.74670614893077
 20
83.22658871922923
 30
0.0
 11
81.74670614893077
 21
96.04007297119775
 31
0.0
  0
LINE
  5
68F
330
5AE
100
AcDbEntity
  8
Dimension (ANSI)
440
 16777216
100
AcDbLine
 10
43.82938328976272
 20
94.66507297119774
 30
0.0
 11
59.72300290942496
 21
94.66507297119774
 31
0.0
  0
LINE
  5
690
330
5AE
100
AcDbEntity
  8
Dimension (ANSI)
440
 16777216
100
AcDbLine
 10
80.66402900809881
 20
94.66507297119774
 30
0.0
 11
64.77040938843657
 21
94.66507297119774
 31
0.0
  0
SOLID
  5
691
330
5AE
100
AcDbEntity
  8
Dimension (ANSI)
440
 16777216
100
AcDbTrace
 10
43.82938328976272
 20
94.84551916133639
 30
0.0
 11
43.82938328976272
 21
94.4846267810591
 31
0.0
 12
42.74670614893078
 22
94.66507297119774
 32
0.0
 13
42.74670614893078
 23
94.66507297119774
 33
0.0
  0
SOLID
  5
692
330
5AE
100
AcDbEntity
  8
Dimension (ANSI)
440
 16777216
100
AcDbTrace
 10
80.66402900809881
 20
94.84551916133639
 30
0.0
 11
80.66402900809881
 21
94.4846267810591
 31
0.0
 12
81.74670614893077
 22
94.66507297119774
 32
0.0
 13
81.74670614893077
 23
94.66507297119774
 33
0.0
  0
MTEXT
  5
693
330
5AE
100
AcDbEntity
  8
Dimension (ANSI)
440
 16777216
100
AcDbMText
 10
60.06945960233835
 20
95.35255452530297
 30
0.0
 40
1.320000052452087
 41
0.0
 46
0.0
 71
     1
 72
     1
  1
\A1;39.00
  7
Note Text (ANSI)
 73
     1
 44
1.0
  0
POINT
  5
694
330
5AE
100
AcDbEntity
  8
Defpoints
 62
     0
440
 16777216
100
AcDbPoint
 10
42.74670614893078
 20
82.53908871922924
 30
0.0
  0
POINT
  5
695
330
5AE
100
AcDbEntity
  8
Defpoints
 62
     0
440
 16777216
100
AcDbPoint
 10
81.74670614893077
 20
82.53908871922924
 30
0.0
  0
POINT
  5
696
330
5AE
100
AcDbEntity
  8
Defpoints
 62
     0
440
 16777216
100
AcDbPoint
 10
81.74670614893077
 20
94.66507297119774
 30
0.0
  0
ENDBLK
  5
5B0
330
5AE
100
AcDbEntity
  8
0
100
AcDbBlockEnd
  0
BLOCK
  5
699
330
698
100
AcDbEntity
  8
0
100
AcDbBlockBegin
  2
*D8
 70
     1
 10
0.0
 20
0.0
 30
0.0
  3
*D8
  1

  0
LINE
  5
777
330
698
100
AcDbEntity
  8
Dimension (ANSI)
440
 16777216
100
AcDbLine
 10
43.62170614893077
 20
82.56497706687758
 30
0.0
 11
43.62170614893077
 21
91.80016241283377
 31
0.0
  0
LINE
  5
778
330
698
100
AcDbEntity
  8
Dimension (ANSI)
440
 16777216
100
AcDbLine
 10
80.87170614893077
 20
82.56497706687758
 30
0.0
 11
80.87170614893077
 21
91.80016241283377
 31
0.0
  0
LINE
  5
779
330
698
100
AcDbEntity
  8
Dimension (ANSI)
440
 16777216
100
AcDbLine
 10
44.70438328976272
 20
90.42516241283378
 30
0.0
 11
59.73364092186761
 21
90.42516241283378
 31
0.0
  0
LINE
  5
77A
330
698
100
AcDbEntity
  8
Dimension (ANSI)
440
 16777216
100
AcDbLine
 10
79.78902900809882
 20
90.42516241283378
 30
0.0
 11
64.75977137599397
 21
90.42516241283378
 31
0.0
  0
SOLID
  5
77B
330
698
100
AcDbEntity
  8
Dimension (ANSI)
440
 16777216
100
AcDbTrace
 10
44.70438328976272
 20
90.60560860297242
 30
0.0
 11
44.70438328976272
 21
90.24471622269512
 31
0.0
 12
43.62170614893077
 22
90.42516241283378
 32
0.0
 13
43.62170614893077
 23
90.42516241283378
 33
0.0
  0
SOLID
  5
77C
330
698
100
AcDbEntity
  8
Dimension (ANSI)
440
 16777216
100
AcDbTrace
 10
79.78902900809882
 20
90.60560860297242
 30
0.0
 11
79.78902900809882
 21
90.24471622269512
 31
0.0
 12
80.87170614893077
 22
90.42516241283378
 32
0.0
 13
80.87170614893077
 23
90.42516241283378
 33
0.0
  0
MTEXT
  5
77D
330
698
100
AcDbEntity
  8
Dimension (ANSI)
440
 16777216
100
AcDbMText
 10
60.08009761478099
 20
91.11264396693899
 30
0.0
 40
1.320000052452087
 41
0.0
 46
0.0
 71
     1
 72
     1
  1
\A1;37.25
  7
Note Text (ANSI)
 73
     1
 44
1.0
  0
POINT
  5
77E
330
698
100
AcDbEntity
  8
Defpoints
 62
     0
440
 16777216
100
AcDbPoint
 10
43.62170614893077
 20
81.87747706687758
 30
0.0
  0
POINT
  5
77F
330
698
100
AcDbEntity
  8
Defpoints
 62
     0
440
 16777216
100
AcDbPoint
 10
80.87170614893077
 20
81.87747706687758
 30
0.0
  0
POINT
  5
780
330
698
100
AcDbEntity
  8
Defpoints
 62
     0
440
 16777216
100
AcDbPoint
 10
80.87170614893077
 20
90.42516241283378
 30
0.0
  0
ENDBLK
  5
69A
330
698
100
AcDbEntity
  8
0
100
AcDbBlockEnd
  0
BLOCK
  5
783
330
782
100
AcDbEntity
  8
0
100
AcDbBlockBegin
  2
*D9
 70
     1
 10
0.0
 20
0.0
 30
0.0
  3
*D9
  1

  0
LINE
  5
861
330
782
100
AcDbEntity
  8
Dimension (ANSI)
440
 16777216
100
AcDbLine
 10
43.62170614893077
 20
82.56497706687758
 30
0.0
 11
43.62170614893077
 21
87.58318572829491
 31
0.0
  0
LINE
  5
862
330
782
100
AcDbEntity
  8
Dimension (ANSI)
440
 16777216
100
AcDbLine
 10
62.24670614893078
 20
82.56497706687758
 30
0.0
 11
62.24670614893078
 21
87.58318572829491
 31
0.0
  0
LINE
  5
863
330
782
100
AcDbEntity
  8
Dimension (ANSI)
440
 16777216
100
AcDbLine
 10
44.70438328976272
 20
86.2081857282949
 30
0.0
 11
50.48230949341275
 21
86.2081857282949
 31
0.0
  0
LINE
  5
864
330
782
100
AcDbEntity
  8
Dimension (ANSI)
440
 16777216
100
AcDbLine
 10
61.16402900809883
 20
86.2081857282949
 30
0.0
 11
55.3861028044488
 21
86.2081857282949
 31
0.0
  0
SOLID
  5
865
330
782
100
AcDbEntity
  8
Dimension (ANSI)
440
 16777216
100
AcDbTrace
 10
44.70438328976272
 20
86.38863191843356
 30
0.0
 11
44.70438328976272
 21
86.02773953815626
 31
0.0
 12
43.62170614893077
 22
86.2081857282949
 32
0.0
 13
43.62170614893077
 23
86.2081857282949
 33
0.0
  0
SOLID
  5
866
330
782
100
AcDbEntity
  8
Dimension (ANSI)
440
 16777216
100
AcDbTrace
 10
61.16402900809883
 20
86.38863191843356
 30
0.0
 11
61.16402900809883
 21
86.02773953815626
 31
0.0
 12
62.24670614893078
 22
86.2081857282949
 32
0.0
 13
62.24670614893078
 23
86.2081857282949
 33
0.0
  0
MTEXT
  5
867
330
782
100
AcDbEntity
  8
Dimension (ANSI)
440
 16777216
100
AcDbMText
 10
50.82876618632614
 20
86.89832678551079
 30
0.0
 40
1.320000052452087
 41
0.0
 46
0.0
 71
     1
 72
     1
  1
\A1;18.63
  7
Note Text (ANSI)
 73
     1
 44
1.0
  0
POINT
  5
868
330
782
100
AcDbEntity
  8
Defpoints
 62
     0
440
 16777216
100
AcDbPoint
 10
43.62170614893077
 20
81.87747706687758
 30
0.0
  0
POINT
  5
869
330
782
100
AcDbEntity
  8
Defpoints
 62
     0
440
 16777216
100
AcDbPoint
 10
62.24670614893078
 20
81.87747706687758
 30
0.0
  0
POINT
  5
86A
330
782
100
AcDbEntity
  8
Defpoints
 62
     0
440
 16777216
100
AcDbPoint
 10
62.24670614893078
 20
86.2081857282949
 30
0.0
  0
ENDBLK
  5
784
330
782
100
AcDbEntity
  8
0
100
AcDbBlockEnd
  0
BLOCK
  5
86D
330
86C
100
AcDbEntity
  8
0
100
AcDbBlockBegin
  2
*D10
 70
     1
 10
0.0
 20
0.0
 30
0.0
  3
*D10
  1

  0
LINE
  5
95F
330
86C
100
AcDbEntity
  8
Dimension (ANSI)
440
 16777216
100
AcDbLine
 10
125.3333575491115
 20
83.28372706687757
 30
0.0
 11
125.3333575491115
 21
87.27708336609014
 31
0.0
  0
LINE
  5
960
330
86C
100
AcDbEntity
  8
Dimension (ANSI)
440
 16777216
100
AcDbLine
 10
126.2083575491115
 20
83.43997706687762
 30
0.0
 11
126.2083575491115
 21
87.27708336609014
 31
0.0
  0
LINE
  5
961
330
86C
100
AcDbEntity
  8
Dimension (ANSI)
440
 16777216
100
AcDbLine
 10
127.2910346899434
 20
85.90208336609014
 30
0.0
 11
128.3737118307754
 21
85.90208336609014
 31
0.0
  0
LINE
  5
962
330
86C
100
AcDbEntity
  8
Dimension (ANSI)
440
 16777216
100
AcDbLine
 10
124.2506804082796
 20
85.90208336609014
 30
0.0
 11
122.5585567619678
 21
85.90208336609014
 31
0.0
  0
SOLID
  5
963
330
86C
100
AcDbEntity
  8
Dimension (ANSI)
440
 16777216
100
AcDbTrace
 10
127.2910346899434
 20
86.08252955622878
 30
0.0
 11
127.2910346899434
 21
85.72163717595149
 31
0.0
 12
126.2083575491115
 22
85.90208336609014
 32
0.0
 13
126.2083575491115
 23
85.90208336609014
 33
0.0
  0
SOLID
  5
964
330
86C
100
AcDbEntity
  8
Dimension (ANSI)
440
 16777216
100
AcDbTrace
 10
124.2506804082796
 20
86.08252955622878
 30
0.0
 11
124.2506804082796
 21
85.72163717595149
 31
0.0
 12
125.3333575491115
 22
85.90208336609014
 32
0.0
 13
125.3333575491115
 23
85.90208336609014
 33
0.0
  0
MTEXT
  5
965
330
86C
100
AcDbEntity
  8
Dimension (ANSI)
440
 16777216
100
AcDbMText
 10
118.7246049899442
 20
86.78961865773958
 30
0.0
 40
1.320000052452087
 41
0.0
 46
0.0
 71
     1
 72
     1
  1
\A1;0.88{\PTYP.}
  7
Note Text (ANSI)
 73
     1
 44
1.0
  0
POINT
  5
966
330
86C
100
AcDbEntity
  8
Defpoints
 62
     0
440
 16777216
100
AcDbPoint
 10
125.3333575491115
 20
82.59622706687757
 30
0.0
  0
POINT
  5
967
330
86C
100
AcDbEntity
  8
Defpoints
 62
     0
440
 16777216
100
AcDbPoint
 10
126.2083575491115
 20
82.75247706687762
 30
0.0
  0
POINT
  5
968
330
86C
100
AcDbEntity
  8
Defpoints
 62
     0
440
 16777216
100
AcDbPoint
 10
126.2083575491115
 20
85.90208336609014
 30
0.0
  0
ENDBLK
  5
86E
330
86C
100
AcDbEntity
  8
0
100
AcDbBlockEnd
  0
BLOCK
  5
AAF
330
AAE
100
AcDbEntity
  8
0
100
AcDbBlockBegin
  2
*D11
 70
     1
 10
0.0
 20
0.0
 30
0.0
  3
*D11
  1

  0
LINE
  5
B60
330
AAE
100
AcDbEntity
  8
Dimension (ANSI)
440
 16777216
100
AcDbLine
 10
85.71311918758411
 20
68.31055657246981
 30
0.0
 11
84.30371644104774
 21
68.31055657246981
 31
0.0
  0
LINE
  5
B61
330
AAE
100
AcDbEntity
  8
Dimension (ANSI)
440
 16777216
100
AcDbLine
 10
84.30371644104774
 20
68.31055657246981
 30
0.0
 11
81.4062576642649
 21
61.50756031073928
 31
0.0
  0
MTEXT
  5
B62
330
AAE
100
AcDbEntity
  8
Dimension (ANSI)
440
 16777216
100
AcDbMText
 10
86.05957588049751
 20
69.30887063218624
 30
0.0
 40
1.320000052452087
 41
0.0
 46
0.0
 71
     1
 72
     1
  1
\A1;∅0.563{\P(8PL.)}
  7
Note Text (ANSI)
 73
     1
 44
1.0
  0
SOLID
  5
B63
330
AAE
100
AcDbEntity
  8
Dimension (ANSI)
440
 16777216
100
AcDbTrace
 10
81.24024184206485
 20
61.57826797874496
 30
0.0
 11
81.57227348646493
 21
61.4368526427336
 31
0.0
 12
80.98201165623081
 22
60.51146537753904
 32
0.0
 13
80.98201165623081
 23
60.51146537753904
 33
0.0
  0
LINE
  5
B64
330
AAE
100
AcDbEntity
  8
Dimension (ANSI)
440
 16777216
100
AcDbLine
 10
79.88170614893078
 20
60.25247706687757
 30
0.0
 11
81.86170614893079
 21
60.25247706687759
 31
0.0
  0
LINE
  5
B65
330
AAE
100
AcDbEntity
  8
Dimension (ANSI)
440
 16777216
100
AcDbLine
 10
80.8717061489308
 20
59.26247706687759
 30
0.0
 11
80.8717061489308
 21
61.24247706687759
 31
0.0
  0
POINT
  5
B66
330
AAE
100
AcDbEntity
  8
Defpoints
 62
     0
440
 16777216
100
AcDbPoint
 10
80.98201165623081
 20
60.51146537753904
 30
0.0
  0
POINT
  5
B67
330
AAE
100
AcDbEntity
  8
Defpoints
 62
     0
440
 16777216
100
AcDbPoint
 10
80.76140064163078
 20
59.99348875621612
 30
0.0
  0
ENDBLK
  5
AB0
330
AAE
100
AcDbEntity
  8
0
100
AcDbBlockEnd
  0
BLOCK
  5
B80
330
B7F
100
AcDbEntity
  8
0
100
AcDbBlockBegin
  2
*D12
 70
     1
 10
0.0
 20
0.0
 30
0.0
  3
*D12
  1

  0
LINE
  5
C73
330
B7F
100
AcDbEntity
  8
Dimension (ANSI)
440
 16777216
100
AcDbLine
 10
42.27259449657911
 20
37.75247706687758
 30
0.0
 11
40.1176447263114
 21
37.75247706687758
 31
0.0
  0
LINE
  5
C74
330
B7F
100
AcDbEntity
  8
Dimension (ANSI)
440
 16777216
100
AcDbLine
 10
41.27770614893077
 20
38.62747706687758
 30
0.0
 11
40.1176447263114
 21
38.62747706687758
 31
0.0
  0
LINE
  5
C75
330
B7F
100
AcDbEntity
  8
Dimension (ANSI)
440
 16777216
100
AcDbLine
 10
41.4926447263114
 20
39.71015420770953
 30
0.0
 11
41.4926447263114
 21
40.79283134854147
 31
0.0
  0
LINE
  5
C76
330
B7F
100
AcDbEntity
  8
Dimension (ANSI)
440
 16777216
100
AcDbLine
 10
41.4926447263114
 20
36.66979992604563
 30
0.0
 11
41.4926447263114
 21
34.59550274217404
 31
0.0
  0
LINE
  5
C77
330
B7F
100
AcDbEntity
  8
Dimension (ANSI)
440
 16777216
100
AcDbLine
 10
41.4926447263114
 20
34.59550274217404
 30
0.0
 11
40.40996758547946
 21
34.59550274217404
 31
0.0
  0
SOLID
  5
C78
330
B7F
100
AcDbEntity
  8
Dimension (ANSI)
440
 16777216
100
AcDbTrace
 10
41.31219853617274
 20
39.71015420770953
 30
0.0
 11
41.67309091645006
 21
39.71015420770953
 31
0.0
 12
41.4926447263114
 22
38.62747706687758
 32
0.0
 13
41.4926447263114
 23
38.62747706687758
 33
0.0
  0
SOLID
  5
C79
330
B7F
100
AcDbEntity
  8
Dimension (ANSI)
440
 16777216
100
AcDbTrace
 10
41.31219853617274
 20
36.66979992604563
 30
0.0
 11
41.67309091645006
 21
36.66979992604563
 31
0.0
 12
41.4926447263114
 22
37.75247706687758
 32
0.0
 13
41.4926447263114
 23
37.75247706687758
 33
0.0
  0
MTEXT
  5
C7A
330
B7F
100
AcDbEntity
  8
Dimension (ANSI)
440
 16777216
100
AcDbMText
 10
36.67973643477157
 20
35.28564379938992
 30
0.0
 40
1.320000052452087
 41
0.0
 46
0.0
 71
     1
 72
     1
  1
\A1;0.88
  7
Note Text (ANSI)
 73
     1
 44
1.0
  0
POINT
  5
C7B
330
B7F
100
AcDbEntity
  8
Defpoints
 62
     0
440
 16777216
100
AcDbPoint
 10
42.96009449657911
 20
37.75247706687758
 30
0.0
  0
POINT
  5
C7C
330
B7F
100
AcDbEntity
  8
Defpoints
 62
     0
440
 16777216
100
AcDbPoint
 10
41.96520614893077
 20
38.62747706687758
 30
0.0
  0
POINT
  5
C7D
330
B7F
100
AcDbEntity
  8
Defpoints
 62
     0
440
 16777216
100
AcDbPoint
 10
41.4926447263114
 20
38.62747706687758
 30
0.0
  0
ENDBLK
  5
B81
330
B7F
100
AcDbEntity
  8
0
100
AcDbBlockEnd
  0
BLOCK
  5
C80
330
C7F
100
AcDbEntity
  8
0
100
AcDbBlockBegin
  2
*D13
 70
     1
 10
0.0
 20
0.0
 30
0.0
  3
*D13
  1

  0
LINE
  5
D5E
330
C7F
100
AcDbEntity
  8
Dimension (ANSI)
440
 16777216
100
AcDbLine
 10
42.74670614893078
 20
83.22658871922923
 30
0.0
 11
42.74670614893078
 21
87.58318572829491
 31
0.0
  0
LINE
  5
D5F
330
C7F
100
AcDbEntity
  8
Dimension (ANSI)
440
 16777216
100
AcDbLine
 10
43.62170614893077
 20
84.22147706687757
 30
0.0
 11
43.62170614893077
 21
87.58318572829491
 31
0.0
  0
LINE
  5
D60
330
C7F
100
AcDbEntity
  8
Dimension (ANSI)
440
 16777216
100
AcDbLine
 10
44.70438328976272
 20
86.2081857282949
 30
0.0
 11
45.78706043059467
 21
86.2081857282949
 31
0.0
  0
LINE
  5
D61
330
C7F
100
AcDbEntity
  8
Dimension (ANSI)
440
 16777216
100
AcDbLine
 10
41.66402900809883
 20
86.2081857282949
 30
0.0
 11
40.02193323090826
 21
86.2081857282949
 31
0.0
  0
SOLID
  5
D62
330
C7F
100
AcDbEntity
  8
Dimension (ANSI)
440
 16777216
100
AcDbTrace
 10
44.70438328976272
 20
86.38863191843356
 30
0.0
 11
44.70438328976272
 21
86.02773953815626
 31
0.0
 12
43.62170614893077
 22
86.2081857282949
 32
0.0
 13
43.62170614893077
 23
86.2081857282949
 33
0.0
  0
SOLID
  5
D63
330
C7F
100
AcDbEntity
  8
Dimension (ANSI)
440
 16777216
100
AcDbTrace
 10
41.66402900809883
 20
86.38863191843356
 30
0.0
 11
41.66402900809883
 21
86.02773953815626
 31
0.0
 12
42.74670614893078
 22
86.2081857282949
 32
0.0
 13
42.74670614893078
 23
86.2081857282949
 33
0.0
  0
MTEXT
  5
D64
330
C7F
100
AcDbEntity
  8
Dimension (ANSI)
440
 16777216
100
AcDbMText
 10
36.29170208020038
 20
86.89832678551079
 30
0.0
 40
1.320000052452087
 41
0.0
 46
0.0
 71
     1
 72
     1
  1
\A1;0.88
  7
Note Text (ANSI)
 73
     1
 44
1.0
  0
POINT
  5
D65
330
C7F
100
AcDbEntity
  8
Defpoints
 62
     0
440
 16777216
100
AcDbPoint
 10
42.74670614893078
 20
82.53908871922924
 30
0.0
  0
POINT
  5
D66
330
C7F
100
AcDbEntity
  8
Defpoints
 62
     0
440
 16777216
100
AcDbPoint
 10
43.62170614893077
 20
83.53397706687758
 30
0.0
  0
POINT
  5
D67
330
C7F
100
AcDbEntity
  8
Defpoints
 62
     0
440
 16777216
100
AcDbPoint
 10
43.62170614893077
 20
86.2081857282949
 30
0.0
  0
ENDBLK
  5
C81
330
C7F
100
AcDbEntity
  8
0
100
AcDbBlockEnd
  0
ENDSEC
  0
SECTION
  2
ENTITIES
  0
CIRCLE
  5
11B
330
6C
100
AcDbEntity
  8
Visible (ANSI)
100
AcDbCircle
 10
62.24670614893078
 20
38.62747706687758
 30
0.0
 40
0.2814999999999999
  0
CIRCLE
  5
11C
330
6C
100
AcDbEntity
  8
Visible (ANSI)
100
AcDbCircle
 10
80.87170614893077
 20
60.25247706687757
 30
0.0
 40
0.2814999999999999
  0
CIRCLE
  5
11D
330
6C
100
AcDbEntity
  8
Visible (ANSI)
100
AcDbCircle
 10
80.87170614893079
 20
38.62747706687758
 30
0.0
 40
0.2814999999999999
  0
CIRCLE
  5
11E
330
6C
100
AcDbEntity
  8
Visible (ANSI)
100
AcDbCircle
 10
43.62170614893076
 20
38.62747706687759
 30
0.0
 40
0.2814999999999999
  0
CIRCLE
  5
11F
330
6C
100
AcDbEntity
  8
Visible (ANSI)
100
AcDbCircle
 10
43.62170614893076
 20
60.25247706687758
 30
0.0
 40
0.2814999999999999
  0
CIRCLE
  5
120
330
6C
100
AcDbEntity
  8
Visible (ANSI)
100
AcDbCircle
 10
80.87170614893077
 20
81.87747706687758
 30
0.0
 40
0.2814999999999999
  0
CIRCLE
  5
121
330
6C
100
AcDbEntity
  8
Visible (ANSI)
100
AcDbCircle
 10
62.24670614893078
 20
81.87747706687758
 30
0.0
 40
0.2814999999999999
  0
CIRCLE
  5
122
330
6C
100
AcDbEntity
  8
Visible (ANSI)
100
AcDbCircle
 10
43.62170614893076
 20
81.87747706687758
 30
0.0
 40
0.2814999999999999
  0
LINE
  5
123
330
6C
100
AcDbEntity
  8
Visible (ANSI)
100
AcDbLine
 10
81.53331780128246
 20
37.75247706687759
 30
0.0
 11
42.96009449657909
 21
37.75247706687758
 31
0.0
  0
LINE
  5
124
330
6C
100
AcDbEntity
  8
Visible (ANSI)
100
AcDbLine
 10
81.74670614893077
 20
82.53908871922924
 30
0.0
 11
81.74670614893079
 21
37.96586541452592
 31
0.0
  0
LINE
  5
125
330
6C
100
AcDbEntity
  8
Visible (ANSI)
100
AcDbLine
 10
42.96009449657909
 20
82.75247706687759
 30
0.0
 11
81.53331780128246
 21
82.75247706687759
 31
0.0
  0
LINE
  5
126
330
6C
100
AcDbEntity
  8
Visible (ANSI)
100
AcDbLine
 10
42.74670614893078
 20
37.9658654145259
 30
0.0
 11
42.74670614893078
 21
82.53908871922924
 31
0.0
  0
POLYLINE
  5
127
330
6C
100
AcDbEntity
  8
Visible (ANSI)
100
AcDb2dPolyline
 66
     1
 10
0.0
 20
0.0
 30
0.0
 70
   128
  0
VERTEX
  5
128
330
127
100
AcDbEntity
  8
Visible (ANSI)
100
AcDbVertex
100
AcDb2dVertex
 10
81.59045578848694
 20
37.90872706453094
 30
0.0
  0
VERTEX
  5
129
330
127
100
AcDbEntity
  8
Visible (ANSI)
100
AcDbVertex
100
AcDb2dVertex
 10
81.58807685916853
 20
37.89850782471781
 30
0.0
  0
VERTEX
  5
12B
330
127
100
AcDbEntity
  8
Visible (ANSI)
100
AcDbVertex
100
AcDb2dVertex
 10
81.58569492615148
 20
37.88833234973243
 30
0.0
  0
VERTEX
  5
12C
330
127
100
AcDbEntity
  8
Visible (ANSI)
100
AcDbVertex
100
AcDb2dVertex
 10
81.58331299313443
 20
37.87824420493821
 30
0.0
  0
VERTEX
  5
12D
330
127
100
AcDbEntity
  8
Visible (ANSI)
100
AcDbVertex
100
AcDb2dVertex
 10
81.58093406381603
 20
37.8682865919694
 30
0.0
  0
VERTEX
  5
12E
330
127
100
AcDbEntity
  8
Visible (ANSI)
100
AcDbVertex
100
AcDb2dVertex
 10
81.578552130799
 20
37.85850214926678
 30
0.0
  0
VERTEX
  5
12F
330
127
100
AcDbEntity
  8
Visible (ANSI)
100
AcDbVertex
100
AcDb2dVertex
 10
81.57617019778196
 20
37.84893278194626
 30
0.0
  0
VERTEX
  5
130
330
127
100
AcDbEntity
  8
Visible (ANSI)
100
AcDbVertex
100
AcDb2dVertex
 10
81.57379126846356
 20
37.83961945646793
 30
0.0
  0
VERTEX
  5
131
330
127
100
AcDbEntity
  8
Visible (ANSI)
100
AcDbVertex
100
AcDb2dVertex
 10
81.57140933544651
 20
37.83060206570426
 30
0.0
  0
VERTEX
  5
132
330
127
100
AcDbEntity
  8
Visible (ANSI)
100
AcDbVertex
100
AcDb2dVertex
 10
81.5690304061281
 20
37.8219192177426
 30
0.0
  0
VERTEX
  5
133
330
127
100
AcDbEntity
  8
Visible (ANSI)
100
AcDbVertex
100
AcDb2dVertex
 10
81.56664847311107
 20
37.81360809508672
 30
0.0
  0
VERTEX
  5
134
330
127
100
AcDbEntity
  8
Visible (ANSI)
100
AcDbVertex
100
AcDb2dVertex
 10
81.56426654009404
 20
37.80570428452556
 30
0.0
  0
VERTEX
  5
135
330
127
100
AcDbEntity
  8
Visible (ANSI)
100
AcDbVertex
100
AcDb2dVertex
 10
81.56188761077563
 20
37.79824163340141
 30
0.0
  0
VERTEX
  5
136
330
127
100
AcDbEntity
  8
Visible (ANSI)
100
AcDbVertex
100
AcDb2dVertex
 10
81.55950567775859
 20
37.79125209707845
 30
0.0
  0
VERTEX
  5
137
330
127
100
AcDbEntity
  8
Visible (ANSI)
100
AcDbVertex
100
AcDb2dVertex
 10
81.5571267484402
 20
37.78476560694428
 30
0.0
  0
VERTEX
  5
138
330
127
100
AcDbEntity
  8
Visible (ANSI)
100
AcDbVertex
100
AcDb2dVertex
 10
81.55474481542315
 20
37.77880994134463
 30
0.0
  0
VERTEX
  5
139
330
127
100
AcDbEntity
  8
Visible (ANSI)
100
AcDbVertex
100
AcDb2dVertex
 10
81.5523628824061
 20
37.77341059798498
 30
0.0
  0
VERTEX
  5
13A
330
127
100
AcDbEntity
  8
Visible (ANSI)
100
AcDbVertex
100
AcDb2dVertex
 10
81.54998395308769
 20
37.76859070153149
 30
0.0
  0
VERTEX
  5
13B
330
127
100
AcDbEntity
  8
Visible (ANSI)
100
AcDbVertex
100
AcDb2dVertex
 10
81.54760202007066
 20
37.76437088994579
 30
0.0
  0
VERTEX
  5
13C
330
127
100
AcDbEntity
  8
Visible (ANSI)
100
AcDbVertex
100
AcDb2dVertex
 10
81.54522309075225
 20
37.76076923381909
 30
0.0
  0
VERTEX
  5
13D
330
127
100
AcDbEntity
  8
Visible (ANSI)
100
AcDbVertex
100
AcDb2dVertex
 10
81.54284115773519
 20
37.75780115643991
 30
0.0
  0
VERTEX
  5
13E
330
127
100
AcDbEntity
  8
Visible (ANSI)
100
AcDbVertex
100
AcDb2dVertex
 10
81.54045922471816
 20
37.75547936687809
 30
0.0
  0
VERTEX
  5
13F
330
127
100
AcDbEntity
  8
Visible (ANSI)
100
AcDbVertex
100
AcDb2dVertex
 10
81.53808029539975
 20
37.75381380727711
 30
0.0
  0
VERTEX
  5
140
330
127
100
AcDbEntity
  8
Visible (ANSI)
100
AcDbVertex
100
AcDb2dVertex
 10
81.53569836238272
 20
37.75281161011499
 30
0.0
  0
VERTEX
  5
141
330
127
100
AcDbEntity
  8
Visible (ANSI)
100
AcDbVertex
100
AcDb2dVertex
 10
81.53331642936569
 20
37.75247706687759
 30
0.0
  0
SEQEND
  5
12A
330
127
100
AcDbEntity
  8
Visible (ANSI)
  0
POLYLINE
  5
142
330
6C
100
AcDbEntity
  8
Visible (ANSI)
100
AcDb2dPolyline
 66
     1
 10
0.0
 20
0.0
 30
0.0
 70
   128
  0
VERTEX
  5
143
330
142
100
AcDbEntity
  8
Visible (ANSI)
100
AcDbVertex
100
AcDb2dVertex
 10
42.96009448491717
 20
37.75247706687758
 30
0.0
  0
VERTEX
  5
144
330
142
100
AcDbEntity
  8
Visible (ANSI)
100
AcDbVertex
100
AcDb2dVertex
 10
42.95771372521991
 20
37.75281161011499
 30
0.0
  0
VERTEX
  5
146
330
142
100
AcDbEntity
  8
Visible (ANSI)
100
AcDbVertex
100
AcDb2dVertex
 10
42.95533296552265
 20
37.75381380727711
 30
0.0
  0
VERTEX
  5
147
330
142
100
AcDbEntity
  8
Visible (ANSI)
100
AcDbVertex
100
AcDb2dVertex
 10
42.95295220582539
 20
37.75547936687809
 30
0.0
  0
VERTEX
  5
148
330
142
100
AcDbEntity
  8
Visible (ANSI)
100
AcDbVertex
100
AcDb2dVertex
 10
42.95057144612813
 20
37.75780115643991
 30
0.0
  0
VERTEX
  5
149
330
142
100
AcDbEntity
  8
Visible (ANSI)
100
AcDbVertex
100
AcDb2dVertex
 10
42.94819066296447
 20
37.76076923381909
 30
0.0
  0
VERTEX
  5
14A
330
142
100
AcDbEntity
  8
Visible (ANSI)
100
AcDbVertex
100
AcDb2dVertex
 10
42.94580990326721
 20
37.76437088994579
 30
0.0
  0
VERTEX
  5
14B
330
142
100
AcDbEntity
  8
Visible (ANSI)
100
AcDbVertex
100
AcDb2dVertex
 10
42.94342914356994
 20
37.76859070153149
 30
0.0
  0
VERTEX
  5
14C
330
142
100
AcDbEntity
  8
Visible (ANSI)
100
AcDbVertex
100
AcDb2dVertex
 10
42.94104838387268
 20
37.77341059798498
 30
0.0
  0
VERTEX
  5
14D
330
142
100
AcDbEntity
  8
Visible (ANSI)
100
AcDbVertex
100
AcDb2dVertex
 10
42.93866761244223
 20
37.77880994134463
 30
0.0
  0
VERTEX
  5
14E
330
142
100
AcDbEntity
  8
Visible (ANSI)
100
AcDbVertex
100
AcDb2dVertex
 10
42.93628685274497
 20
37.78476560694428
 30
0.0
  0
VERTEX
  5
14F
330
142
100
AcDbEntity
  8
Visible (ANSI)
100
AcDbVertex
100
AcDb2dVertex
 10
42.93390609304771
 20
37.79125209707845
 30
0.0
  0
VERTEX
  5
150
330
142
100
AcDbEntity
  8
Visible (ANSI)
100
AcDbVertex
100
AcDb2dVertex
 10
42.93152532161725
 20
37.79824163340141
 30
0.0
  0
VERTEX
  5
151
330
142
100
AcDbEntity
  8
Visible (ANSI)
100
AcDbVertex
100
AcDb2dVertex
 10
42.92914456191999
 20
37.80570428452556
 30
0.0
  0
VERTEX
  5
152
330
142
100
AcDbEntity
  8
Visible (ANSI)
100
AcDbVertex
100
AcDb2dVertex
 10
42.92676379048953
 20
37.81360809508672
 30
0.0
  0
VERTEX
  5
153
330
142
100
AcDbEntity
  8
Visible (ANSI)
100
AcDbVertex
100
AcDb2dVertex
 10
42.92438303079227
 20
37.8219192177426
 30
0.0
  0
VERTEX
  5
154
330
142
100
AcDbEntity
  8
Visible (ANSI)
100
AcDbVertex
100
AcDb2dVertex
 10
42.92200225936182
 20
37.83060206570426
 30
0.0
  0
VERTEX
  5
155
330
142
100
AcDbEntity
  8
Visible (ANSI)
100
AcDbVertex
100
AcDb2dVertex
 10
42.91962149966455
 20
37.83961945646793
 30
0.0
  0
VERTEX
  5
156
330
142
100
AcDbEntity
  8
Visible (ANSI)
100
AcDbVertex
100
AcDb2dVertex
 10
42.91724073996729
 20
37.84893278194626
 30
0.0
  0
VERTEX
  5
157
330
142
100
AcDbEntity
  8
Visible (ANSI)
100
AcDbVertex
100
AcDb2dVertex
 10
42.91485996853683
 20
37.85850214926678
 30
0.0
  0
VERTEX
  5
158
330
142
100
AcDbEntity
  8
Visible (ANSI)
100
AcDbVertex
100
AcDb2dVertex
 10
42.91247920883957
 20
37.8682865919694
 30
0.0
  0
VERTEX
  5
159
330
142
100
AcDbEntity
  8
Visible (ANSI)
100
AcDbVertex
100
AcDb2dVertex
 10
42.91009843740911
 20
37.87824420493821
 30
0.0
  0
VERTEX
  5
15A
330
142
100
AcDbEntity
  8
Visible (ANSI)
100
AcDbVertex
100
AcDb2dVertex
 10
42.90771767771185
 20
37.88833234973243
 30
0.0
  0
VERTEX
  5
15B
330
142
100
AcDbEntity
  8
Visible (ANSI)
100
AcDbVertex
100
AcDb2dVertex
 10
42.90533691801459
 20
37.89850782471781
 30
0.0
  0
VERTEX
  5
15C
330
142
100
AcDbEntity
  8
Visible (ANSI)
100
AcDbVertex
100
AcDb2dVertex
 10
42.90295614658413
 20
37.90872706453094
 30
0.0
  0
SEQEND
  5
145
330
142
100
AcDbEntity
  8
Visible (ANSI)
  0
POLYLINE
  5
15D
330
6C
100
AcDbEntity
  8
Visible (ANSI)
100
AcDb2dPolyline
 66
     1
 10
0.0
 20
0.0
 30
0.0
 70
   128
  0
VERTEX
  5
15E
330
15D
100
AcDbEntity
  8
Visible (ANSI)
100
AcDbVertex
100
AcDb2dVertex
 10
81.59045578848694
 20
82.59622586539812
 30
0.0
  0
VERTEX
  5
15F
330
15D
100
AcDbEntity
  8
Visible (ANSI)
100
AcDbVertex
100
AcDb2dVertex
 10
81.600674371241
 20
82.59384693607973
 30
0.0
  0
VERTEX
  5
161
330
15D
100
AcDbEntity
  8
Visible (ANSI)
100
AcDbVertex
100
AcDb2dVertex
 10
81.61085090221417
 20
82.59146500306268
 30
0.0
  0
VERTEX
  5
162
330
15D
100
AcDbEntity
  8
Visible (ANSI)
100
AcDbVertex
100
AcDb2dVertex
 10
81.62094032592696
 20
82.58908607374428
 30
0.0
  0
VERTEX
  5
163
330
15D
100
AcDbEntity
  8
Visible (ANSI)
100
AcDbVertex
100
AcDb2dVertex
 10
81.63089758689983
 20
82.58670414072723
 30
0.0
  0
VERTEX
  5
164
330
15D
100
AcDbEntity
  8
Visible (ANSI)
100
AcDbVertex
100
AcDb2dVertex
 10
81.64068063335191
 20
82.58432220771018
 30
0.0
  0
VERTEX
  5
165
330
15D
100
AcDbEntity
  8
Visible (ANSI)
100
AcDbVertex
100
AcDb2dVertex
 10
81.65025041720094
 20
82.58194327839179
 30
0.0
  0
VERTEX
  5
166
330
15D
100
AcDbEntity
  8
Visible (ANSI)
100
AcDbVertex
100
AcDb2dVertex
 10
81.65956488666607
 20
82.57956134537472
 30
0.0
  0
VERTEX
  5
167
330
15D
100
AcDbEntity
  8
Visible (ANSI)
100
AcDbVertex
100
AcDb2dVertex
 10
81.66858198996639
 20
82.57718241605633
 30
0.0
  0
VERTEX
  5
168
330
15D
100
AcDbEntity
  8
Visible (ANSI)
100
AcDbVertex
100
AcDb2dVertex
 10
81.67726267901967
 20
82.5748004830393
 30
0.0
  0
VERTEX
  5
169
330
15D
100
AcDbEntity
  8
Visible (ANSI)
100
AcDbVertex
100
AcDb2dVertex
 10
81.6855739131409
 20
82.57241855002225
 30
0.0
  0
VERTEX
  5
16A
330
15D
100
AcDbEntity
  8
Visible (ANSI)
100
AcDbVertex
100
AcDb2dVertex
 10
81.69347964794651
 20
82.57003962070385
 30
0.0
  0
VERTEX
  5
16B
330
15D
100
AcDbEntity
  8
Visible (ANSI)
100
AcDbVertex
100
AcDb2dVertex
 10
81.70094083535422
 20
82.56765768768682
 30
0.0
  0
VERTEX
  5
16C
330
15D
100
AcDbEntity
  8
Visible (ANSI)
100
AcDbVertex
100
AcDb2dVertex
 10
81.70793044207638
 20
82.56527575466977
 30
0.0
  0
VERTEX
  5
16D
330
15D
100
AcDbEntity
  8
Visible (ANSI)
100
AcDbVertex
100
AcDb2dVertex
 10
81.71441843112656
 20
82.56289682535138
 30
0.0
  0
VERTEX
  5
16E
330
15D
100
AcDbEntity
  8
Visible (ANSI)
100
AcDbVertex
100
AcDb2dVertex
 10
81.72037476551848
 20
82.56051489233433
 30
0.0
  0
VERTEX
  5
16F
330
15D
100
AcDbEntity
  8
Visible (ANSI)
100
AcDbVertex
100
AcDb2dVertex
 10
81.72577241196442
 20
82.55813596301592
 30
0.0
  0
VERTEX
  5
170
330
15D
100
AcDbEntity
  8
Visible (ANSI)
100
AcDbVertex
100
AcDb2dVertex
 10
81.73059334827255
 20
82.55575402999889
 30
0.0
  0
VERTEX
  5
171
330
15D
100
AcDbEntity
  8
Visible (ANSI)
100
AcDbVertex
100
AcDb2dVertex
 10
81.7348135448538
 20
82.55337209698184
 30
0.0
  0
VERTEX
  5
172
330
15D
100
AcDbEntity
  8
Visible (ANSI)
100
AcDbVertex
100
AcDb2dVertex
 10
81.7384149795164
 20
82.55099316766346
 30
0.0
  0
VERTEX
  5
173
330
15D
100
AcDbEntity
  8
Visible (ANSI)
100
AcDbVertex
100
AcDb2dVertex
 10
81.74138263376713
 20
82.54861123464641
 30
0.0
  0
VERTEX
  5
174
330
15D
100
AcDbEntity
  8
Visible (ANSI)
100
AcDbVertex
100
AcDb2dVertex
 10
81.7437044928115
 20
82.546232305328
 30
0.0
  0
VERTEX
  5
175
330
15D
100
AcDbEntity
  8
Visible (ANSI)
100
AcDbVertex
100
AcDb2dVertex
 10
81.74536854185491
 20
82.54385037231095
 30
0.0
  0
VERTEX
  5
176
330
15D
100
AcDbEntity
  8
Visible (ANSI)
100
AcDbVertex
100
AcDb2dVertex
 10
81.74637177719878
 20
82.5414684392939
 30
0.0
  0
VERTEX
  5
177
330
15D
100
AcDbEntity
  8
Visible (ANSI)
100
AcDbVertex
100
AcDb2dVertex
 10
81.74670518774721
 20
82.53908950997551
 30
0.0
  0
SEQEND
  5
160
330
15D
100
AcDbEntity
  8
Visible (ANSI)
  0
POLYLINE
  5
178
330
6C
100
AcDbEntity
  8
Visible (ANSI)
100
AcDb2dPolyline
 66
     1
 10
0.0
 20
0.0
 30
0.0
 70
   128
  0
VERTEX
  5
179
330
178
100
AcDbEntity
  8
Visible (ANSI)
100
AcDbVertex
100
AcDb2dVertex
 10
81.74670518774721
 20
37.96586540286398
 30
0.0
  0
VERTEX
  5
17A
330
178
100
AcDbEntity
  8
Visible (ANSI)
100
AcDbVertex
100
AcDb2dVertex
 10
81.74637177719878
 20
37.96348464316672
 30
0.0
  0
VERTEX
  5
17C
330
178
100
AcDbEntity
  8
Visible (ANSI)
100
AcDbVertex
100
AcDb2dVertex
 10
81.74536854185491
 20
37.96110388346946
 30
0.0
  0
VERTEX
  5
17D
330
178
100
AcDbEntity
  8
Visible (ANSI)
100
AcDbVertex
100
AcDb2dVertex
 10
81.7437044928115
 20
37.9587231237722
 30
0.0
  0
VERTEX
  5
17E
330
178
100
AcDbEntity
  8
Visible (ANSI)
100
AcDbVertex
100
AcDb2dVertex
 10
81.74138263376713
 20
37.95634236407494
 30
0.0
  0
VERTEX
  5
17F
330
178
100
AcDbEntity
  8
Visible (ANSI)
100
AcDbVertex
100
AcDb2dVertex
 10
81.7384149795164
 20
37.95396158091128
 30
0.0
  0
VERTEX
  5
180
330
178
100
AcDbEntity
  8
Visible (ANSI)
100
AcDbVertex
100
AcDb2dVertex
 10
81.7348135448538
 20
37.95158082121402
 30
0.0
  0
VERTEX
  5
181
330
178
100
AcDbEntity
  8
Visible (ANSI)
100
AcDbVertex
100
AcDb2dVertex
 10
81.73059334827255
 20
37.94920006151676
 30
0.0
  0
VERTEX
  5
182
330
178
100
AcDbEntity
  8
Visible (ANSI)
100
AcDbVertex
100
AcDb2dVertex
 10
81.72577241196442
 20
37.9468193018195
 30
0.0
  0
VERTEX
  5
183
330
178
100
AcDbEntity
  8
Visible (ANSI)
100
AcDbVertex
100
AcDb2dVertex
 10
81.72037476551848
 20
37.94443853038905
 30
0.0
  0
VERTEX
  5
184
330
178
100
AcDbEntity
  8
Visible (ANSI)
100
AcDbVertex
100
AcDb2dVertex
 10
81.71441843112656
 20
37.94205777069179
 30
0.0
  0
VERTEX
  5
185
330
178
100
AcDbEntity
  8
Visible (ANSI)
100
AcDbVertex
100
AcDb2dVertex
 10
81.70793044207638
 20
37.93967701099453
 30
0.0
  0
VERTEX
  5
186
330
178
100
AcDbEntity
  8
Visible (ANSI)
100
AcDbVertex
100
AcDb2dVertex
 10
81.70094083535422
 20
37.93729623956406
 30
0.0
  0
VERTEX
  5
187
330
178
100
AcDbEntity
  8
Visible (ANSI)
100
AcDbVertex
100
AcDb2dVertex
 10
81.69347964794651
 20
37.93491547986679
 30
0.0
  0
VERTEX
  5
188
330
178
100
AcDbEntity
  8
Visible (ANSI)
100
AcDbVertex
100
AcDb2dVertex
 10
81.6855739131409
 20
37.93253470843634
 30
0.0
  0
VERTEX
  5
189
330
178
100
AcDbEntity
  8
Visible (ANSI)
100
AcDbVertex
100
AcDb2dVertex
 10
81.67726267901967
 20
37.93015394873908
 30
0.0
  0
VERTEX
  5
18A
330
178
100
AcDbEntity
  8
Visible (ANSI)
100
AcDbVertex
100
AcDb2dVertex
 10
81.66858198996639
 20
37.92777317730863
 30
0.0
  0
VERTEX
  5
18B
330
178
100
AcDbEntity
  8
Visible (ANSI)
100
AcDbVertex
100
AcDb2dVertex
 10
81.65956488666607
 20
37.92539241761136
 30
0.0
  0
VERTEX
  5
18C
330
178
100
AcDbEntity
  8
Visible (ANSI)
100
AcDbVertex
100
AcDb2dVertex
 10
81.65025041720094
 20
37.9230116579141
 30
0.0
  0
VERTEX
  5
18D
330
178
100
AcDbEntity
  8
Visible (ANSI)
100
AcDbVertex
100
AcDb2dVertex
 10
81.64068063335191
 20
37.92063088648364
 30
0.0
  0
VERTEX
  5
18E
330
178
100
AcDbEntity
  8
Visible (ANSI)
100
AcDbVertex
100
AcDb2dVertex
 10
81.63089758689983
 20
37.91825012678638
 30
0.0
  0
VERTEX
  5
18F
330
178
100
AcDbEntity
  8
Visible (ANSI)
100
AcDbVertex
100
AcDb2dVertex
 10
81.62094032592696
 20
37.91586935535592
 30
0.0
  0
VERTEX
  5
190
330
178
100
AcDbEntity
  8
Visible (ANSI)
100
AcDbVertex
100
AcDb2dVertex
 10
81.61085090221417
 20
37.91348859565866
 30
0.0
  0
VERTEX
  5
191
330
178
100
AcDbEntity
  8
Visible (ANSI)
100
AcDbVertex
100
AcDb2dVertex
 10
81.600674371241
 20
37.91110783596141
 30
0.0
  0
VERTEX
  5
192
330
178
100
AcDbEntity
  8
Visible (ANSI)
100
AcDbVertex
100
AcDb2dVertex
 10
81.59045578848694
 20
37.90872706453094
 30
0.0
  0
SEQEND
  5
17B
330
178
100
AcDbEntity
  8
Visible (ANSI)
  0
POLYLINE
  5
193
330
6C
100
AcDbEntity
  8
Visible (ANSI)
100
AcDb2dPolyline
 66
     1
 10
0.0
 20
0.0
 30
0.0
 70
   128
  0
VERTEX
  5
194
330
193
100
AcDbEntity
  8
Visible (ANSI)
100
AcDbVertex
100
AcDb2dVertex
 10
42.90295614658413
 20
82.59622586539812
 30
0.0
  0
VERTEX
  5
195
330
193
100
AcDbEntity
  8
Visible (ANSI)
100
AcDbVertex
100
AcDb2dVertex
 10
42.90533691801459
 20
82.6064474518508
 30
0.0
  0
VERTEX
  5
197
330
193
100
AcDbEntity
  8
Visible (ANSI)
100
AcDbVertex
100
AcDb2dVertex
 10
42.90771767771185
 20
82.61662097912536
 30
0.0
  0
VERTEX
  5
198
330
193
100
AcDbEntity
  8
Visible (ANSI)
100
AcDbVertex
100
AcDb2dVertex
 10
42.91009843740911
 20
82.62671040283812
 30
0.0
  0
VERTEX
  5
199
330
193
100
AcDbEntity
  8
Visible (ANSI)
100
AcDbVertex
100
AcDb2dVertex
 10
42.91247920883957
 20
82.63666766381103
 30
0.0
  0
VERTEX
  5
19A
330
193
100
AcDbEntity
  8
Visible (ANSI)
100
AcDbVertex
100
AcDb2dVertex
 10
42.91485996853683
 20
82.64645071026309
 30
0.0
  0
VERTEX
  5
19B
330
193
100
AcDbEntity
  8
Visible (ANSI)
100
AcDbVertex
100
AcDb2dVertex
 10
42.91724073996729
 20
82.65602049411214
 30
0.0
  0
VERTEX
  5
19C
330
193
100
AcDbEntity
  8
Visible (ANSI)
100
AcDbVertex
100
AcDb2dVertex
 10
42.91962149966455
 20
82.66533496357723
 30
0.0
  0
VERTEX
  5
19D
330
193
100
AcDbEntity
  8
Visible (ANSI)
100
AcDbVertex
100
AcDb2dVertex
 10
42.92200225936182
 20
82.67435206687755
 30
0.0
  0
VERTEX
  5
19E
330
193
100
AcDbEntity
  8
Visible (ANSI)
100
AcDbVertex
100
AcDb2dVertex
 10
42.92438303079227
 20
82.68303575962947
 30
0.0
  0
VERTEX
  5
19F
330
193
100
AcDbEntity
  8
Visible (ANSI)
100
AcDbVertex
100
AcDb2dVertex
 10
42.92676379048953
 20
82.69134699375074
 30
0.0
  0
VERTEX
  5
1A0
330
193
100
AcDbEntity
  8
Visible (ANSI)
100
AcDbVertex
100
AcDb2dVertex
 10
42.92914456191999
 20
82.69924972485771
 30
0.0
  0
VERTEX
  5
1A1
330
193
100
AcDbEntity
  8
Visible (ANSI)
100
AcDbVertex
100
AcDb2dVertex
 10
42.93152532161725
 20
82.70671391596406
 30
0.0
  0
VERTEX
  5
1A2
330
193
100
AcDbEntity
  8
Visible (ANSI)
100
AcDbVertex
100
AcDb2dVertex
 10
42.93390609304771
 20
82.71370352268618
 30
0.0
  0
VERTEX
  5
1A3
330
193
100
AcDbEntity
  8
Visible (ANSI)
100
AcDbVertex
100
AcDb2dVertex
 10
42.93628685274497
 20
82.72018850803776
 30
0.0
  0
VERTEX
  5
1A4
330
193
100
AcDbEntity
  8
Visible (ANSI)
100
AcDbVertex
100
AcDb2dVertex
 10
42.93866761244223
 20
82.7261448424297
 30
0.0
  0
VERTEX
  5
1A5
330
193
100
AcDbEntity
  8
Visible (ANSI)
100
AcDbVertex
100
AcDb2dVertex
 10
42.94104838387268
 20
82.73154248887561
 30
0.0
  0
VERTEX
  5
1A6
330
193
100
AcDbEntity
  8
Visible (ANSI)
100
AcDbVertex
100
AcDb2dVertex
 10
42.94342914356994
 20
82.73636342518374
 30
0.0
  0
VERTEX
  5
1A7
330
193
100
AcDbEntity
  8
Visible (ANSI)
100
AcDbVertex
100
AcDb2dVertex
 10
42.94580990326721
 20
82.74058362176502
 30
0.0
  0
VERTEX
  5
1A8
330
193
100
AcDbEntity
  8
Visible (ANSI)
100
AcDbVertex
100
AcDb2dVertex
 10
42.94819066296447
 20
82.7441850564276
 30
0.0
  0
VERTEX
  5
1A9
330
193
100
AcDbEntity
  8
Visible (ANSI)
100
AcDbVertex
100
AcDb2dVertex
 10
42.95057144612813
 20
82.74715271067833
 30
0.0
  0
VERTEX
  5
1AA
330
193
100
AcDbEntity
  8
Visible (ANSI)
100
AcDbVertex
100
AcDb2dVertex
 10
42.95295220582539
 20
82.74947456972268
 30
0.0
  0
VERTEX
  5
1AB
330
193
100
AcDbEntity
  8
Visible (ANSI)
100
AcDbVertex
100
AcDb2dVertex
 10
42.95533296552265
 20
82.75114162246472
 30
0.0
  0
VERTEX
  5
1AC
330
193
100
AcDbEntity
  8
Visible (ANSI)
100
AcDbVertex
100
AcDb2dVertex
 10
42.95771372521991
 20
82.75214185411
 30
0.0
  0
VERTEX
  5
1AD
330
193
100
AcDbEntity
  8
Visible (ANSI)
100
AcDbVertex
100
AcDb2dVertex
 10
42.96009448491717
 20
82.75247826835704
 30
0.0
  0
SEQEND
  5
196
330
193
100
AcDbEntity
  8
Visible (ANSI)
  0
POLYLINE
  5
1AE
330
6C
100
AcDbEntity
  8
Visible (ANSI)
100
AcDb2dPolyline
 66
     1
 10
0.0
 20
0.0
 30
0.0
 70
   128
  0
VERTEX
  5
1AF
330
1AE
100
AcDbEntity
  8
Visible (ANSI)
100
AcDbVertex
100
AcDb2dVertex
 10
81.53331642936569
 20
82.75247826835704
 30
0.0
  0
VERTEX
  5
1B0
330
1AE
100
AcDbEntity
  8
Visible (ANSI)
100
AcDbVertex
100
AcDb2dVertex
 10
81.53569836238272
 20
82.75214185411
 30
0.0
  0
VERTEX
  5
1B2
330
1AE
100
AcDbEntity
  8
Visible (ANSI)
100
AcDbVertex
100
AcDb2dVertex
 10
81.53808029539975
 20
82.75114162246472
 30
0.0
  0
VERTEX
  5
1B3
330
1AE
100
AcDbEntity
  8
Visible (ANSI)
100
AcDbVertex
100
AcDb2dVertex
 10
81.54045922471816
 20
82.74947456972268
 30
0.0
  0
VERTEX
  5
1B4
330
1AE
100
AcDbEntity
  8
Visible (ANSI)
100
AcDbVertex
100
AcDb2dVertex
 10
81.54284115773519
 20
82.74715271067833
 30
0.0
  0
VERTEX
  5
1B5
330
1AE
100
AcDbEntity
  8
Visible (ANSI)
100
AcDbVertex
100
AcDb2dVertex
 10
81.54522309075225
 20
82.7441850564276
 30
0.0
  0
VERTEX
  5
1B6
330
1AE
100
AcDbEntity
  8
Visible (ANSI)
100
AcDbVertex
100
AcDb2dVertex
 10
81.54760202007066
 20
82.74058362176502
 30
0.0
  0
VERTEX
  5
1B7
330
1AE
100
AcDbEntity
  8
Visible (ANSI)
100
AcDbVertex
100
AcDb2dVertex
 10
81.54998395308769
 20
82.73636342518374
 30
0.0
  0
VERTEX
  5
1B8
330
1AE
100
AcDbEntity
  8
Visible (ANSI)
100
AcDbVertex
100
AcDb2dVertex
 10
81.5523628824061
 20
82.73154248887561
 30
0.0
  0
VERTEX
  5
1B9
330
1AE
100
AcDbEntity
  8
Visible (ANSI)
100
AcDbVertex
100
AcDb2dVertex
 10
81.55474481542315
 20
82.7261448424297
 30
0.0
  0
VERTEX
  5
1BA
330
1AE
100
AcDbEntity
  8
Visible (ANSI)
100
AcDbVertex
100
AcDb2dVertex
 10
81.5571267484402
 20
82.72018850803776
 30
0.0
  0
VERTEX
  5
1BB
330
1AE
100
AcDbEntity
  8
Visible (ANSI)
100
AcDbVertex
100
AcDb2dVertex
 10
81.55950567775859
 20
82.71370352268618
 30
0.0
  0
VERTEX
  5
1BC
330
1AE
100
AcDbEntity
  8
Visible (ANSI)
100
AcDbVertex
100
AcDb2dVertex
 10
81.56188761077563
 20
82.70671391596406
 30
0.0
  0
VERTEX
  5
1BD
330
1AE
100
AcDbEntity
  8
Visible (ANSI)
100
AcDbVertex
100
AcDb2dVertex
 10
81.56426654009404
 20
82.69924972485771
 30
0.0
  0
VERTEX
  5
1BE
330
1AE
100
AcDbEntity
  8
Visible (ANSI)
100
AcDbVertex
100
AcDb2dVertex
 10
81.56664847311107
 20
82.69134699375074
 30
0.0
  0
VERTEX
  5
1BF
330
1AE
100
AcDbEntity
  8
Visible (ANSI)
100
AcDbVertex
100
AcDb2dVertex
 10
81.5690304061281
 20
82.68303575962947
 30
0.0
  0
VERTEX
  5
1C0
330
1AE
100
AcDbEntity
  8
Visible (ANSI)
100
AcDbVertex
100
AcDb2dVertex
 10
81.57140933544651
 20
82.67435206687755
 30
0.0
  0
VERTEX
  5
1C1
330
1AE
100
AcDbEntity
  8
Visible (ANSI)
100
AcDbVertex
100
AcDb2dVertex
 10
81.57379126846356
 20
82.66533496357723
 30
0.0
  0
VERTEX
  5
1C2
330
1AE
100
AcDbEntity
  8
Visible (ANSI)
100
AcDbVertex
100
AcDb2dVertex
 10
81.57617019778196
 20
82.65602049411214
 30
0.0
  0
VERTEX
  5
1C3
330
1AE
100
AcDbEntity
  8
Visible (ANSI)
100
AcDbVertex
100
AcDb2dVertex
 10
81.578552130799
 20
82.64645071026309
 30
0.0
  0
VERTEX
  5
1C4
330
1AE
100
AcDbEntity
  8
Visible (ANSI)
100
AcDbVertex
100
AcDb2dVertex
 10
81.58093406381603
 20
82.63666766381103
 30
0.0
  0
VERTEX
  5
1C5
330
1AE
100
AcDbEntity
  8
Visible (ANSI)
100
AcDbVertex
100
AcDb2dVertex
 10
81.58331299313443
 20
82.62671040283812
 30
0.0
  0
VERTEX
  5
1C6
330
1AE
100
AcDbEntity
  8
Visible (ANSI)
100
AcDbVertex
100
AcDb2dVertex
 10
81.58569492615148
 20
82.61662097912536
 30
0.0
  0
VERTEX
  5
1C7
330
1AE
100
AcDbEntity
  8
Visible (ANSI)
100
AcDbVertex
100
AcDb2dVertex
 10
81.58807685916853
 20
82.6064474518508
 30
0.0
  0
VERTEX
  5
1C8
330
1AE
100
AcDbEntity
  8
Visible (ANSI)
100
AcDbVertex
100
AcDb2dVertex
 10
81.59045578848694
 20
82.59622586539812
 30
0.0
  0
SEQEND
  5
1B1
330
1AE
100
AcDbEntity
  8
Visible (ANSI)
  0
POLYLINE
  5
1C9
330
6C
100
AcDbEntity
  8
Visible (ANSI)
100
AcDb2dPolyline
 66
     1
 10
0.0
 20
0.0
 30
0.0
 70
   128
  0
VERTEX
  5
1CA
330
1C9
100
AcDbEntity
  8
Visible (ANSI)
100
AcDbVertex
100
AcDb2dVertex
 10
42.90295614658413
 20
37.90872706453094
 30
0.0
  0
VERTEX
  5
1CB
330
1C9
100
AcDbEntity
  8
Visible (ANSI)
100
AcDbVertex
100
AcDb2dVertex
 10
42.892736906771
 20
37.91110783596141
 30
0.0
  0
VERTEX
  5
1CD
330
1C9
100
AcDbEntity
  8
Visible (ANSI)
100
AcDbVertex
100
AcDb2dVertex
 10
42.88256143178562
 20
37.91348859565866
 30
0.0
  0
VERTEX
  5
1CE
330
1C9
100
AcDbEntity
  8
Visible (ANSI)
100
AcDbVertex
100
AcDb2dVertex
 10
42.8724732869914
 20
37.91586935535592
 30
0.0
  0
VERTEX
  5
1CF
330
1C9
100
AcDbEntity
  8
Visible (ANSI)
100
AcDbVertex
100
AcDb2dVertex
 10
42.86251567402259
 20
37.91825012678638
 30
0.0
  0
VERTEX
  5
1D0
330
1C9
100
AcDbEntity
  8
Visible (ANSI)
100
AcDbVertex
100
AcDb2dVertex
 10
42.85273123131997
 20
37.92063088648364
 30
0.0
  0
VERTEX
  5
1D1
330
1C9
100
AcDbEntity
  8
Visible (ANSI)
100
AcDbVertex
100
AcDb2dVertex
 10
42.84316186399945
 20
37.9230116579141
 30
0.0
  0
VERTEX
  5
1D2
330
1C9
100
AcDbEntity
  8
Visible (ANSI)
100
AcDbVertex
100
AcDb2dVertex
 10
42.83384853852111
 20
37.92539241761136
 30
0.0
  0
VERTEX
  5
1D3
330
1C9
100
AcDbEntity
  8
Visible (ANSI)
100
AcDbVertex
100
AcDb2dVertex
 10
42.82483114775745
 20
37.92777317730863
 30
0.0
  0
VERTEX
  5
1D4
330
1C9
100
AcDbEntity
  8
Visible (ANSI)
100
AcDbVertex
100
AcDb2dVertex
 10
42.81614829979579
 20
37.93015394873908
 30
0.0
  0
VERTEX
  5
1D5
330
1C9
100
AcDbEntity
  8
Visible (ANSI)
100
AcDbVertex
100
AcDb2dVertex
 10
42.80783717713991
 20
37.93253470843634
 30
0.0
  0
VERTEX
  5
1D6
330
1C9
100
AcDbEntity
  8
Visible (ANSI)
100
AcDbVertex
100
AcDb2dVertex
 10
42.79993336657875
 20
37.93491547986679
 30
0.0
  0
VERTEX
  5
1D7
330
1C9
100
AcDbEntity
  8
Visible (ANSI)
100
AcDbVertex
100
AcDb2dVertex
 10
42.7924707154546
 20
37.93729623956406
 30
0.0
  0
VERTEX
  5
1D8
330
1C9
100
AcDbEntity
  8
Visible (ANSI)
100
AcDbVertex
100
AcDb2dVertex
 10
42.78548117913164
 20
37.93967701099453
 30
0.0
  0
VERTEX
  5
1D9
330
1C9
100
AcDbEntity
  8
Visible (ANSI)
100
AcDbVertex
100
AcDb2dVertex
 10
42.77899468899747
 20
37.94205777069179
 30
0.0
  0
VERTEX
  5
1DA
330
1C9
100
AcDbEntity
  8
Visible (ANSI)
100
AcDbVertex
100
AcDb2dVertex
 10
42.77303902339783
 20
37.94443853038905
 30
0.0
  0
VERTEX
  5
1DB
330
1C9
100
AcDbEntity
  8
Visible (ANSI)
100
AcDbVertex
100
AcDb2dVertex
 10
42.76763968003817
 20
37.9468193018195
 30
0.0
  0
VERTEX
  5
1DC
330
1C9
100
AcDbEntity
  8
Visible (ANSI)
100
AcDbVertex
100
AcDb2dVertex
 10
42.76281978358468
 20
37.94920006151676
 30
0.0
  0
VERTEX
  5
1DD
330
1C9
100
AcDbEntity
  8
Visible (ANSI)
100
AcDbVertex
100
AcDb2dVertex
 10
42.75859997199898
 20
37.95158082121402
 30
0.0
  0
VERTEX
  5
1DE
330
1C9
100
AcDbEntity
  8
Visible (ANSI)
100
AcDbVertex
100
AcDb2dVertex
 10
42.75499831587228
 20
37.95396158091128
 30
0.0
  0
VERTEX
  5
1DF
330
1C9
100
AcDbEntity
  8
Visible (ANSI)
100
AcDbVertex
100
AcDb2dVertex
 10
42.7520302384931
 20
37.95634236407494
 30
0.0
  0
VERTEX
  5
1E0
330
1C9
100
AcDbEntity
  8
Visible (ANSI)
100
AcDbVertex
100
AcDb2dVertex
 10
42.74970844893128
 20
37.9587231237722
 30
0.0
  0
VERTEX
  5
1E1
330
1C9
100
AcDbEntity
  8
Visible (ANSI)
100
AcDbVertex
100
AcDb2dVertex
 10
42.74804288933029
 20
37.96110388346946
 30
0.0
  0
VERTEX
  5
1E2
330
1C9
100
AcDbEntity
  8
Visible (ANSI)
100
AcDbVertex
100
AcDb2dVertex
 10
42.74704069216818
 20
37.96348464316672
 30
0.0
  0
VERTEX
  5
1E3
330
1C9
100
AcDbEntity
  8
Visible (ANSI)
100
AcDbVertex
100
AcDb2dVertex
 10
42.74670614893078
 20
37.96586540286398
 30
0.0
  0
SEQEND
  5
1CC
330
1C9
100
AcDbEntity
  8
Visible (ANSI)
  0
POLYLINE
  5
1E4
330
6C
100
AcDbEntity
  8
Visible (ANSI)
100
AcDb2dPolyline
 66
     1
 10
0.0
 20
0.0
 30
0.0
 70
   128
  0
VERTEX
  5
1E5
330
1E4
100
AcDbEntity
  8
Visible (ANSI)
100
AcDbVertex
100
AcDb2dVertex
 10
42.74670614893078
 20
82.53908950997551
 30
0.0
  0
VERTEX
  5
1E6
330
1E4
100
AcDbEntity
  8
Visible (ANSI)
100
AcDbVertex
100
AcDb2dVertex
 10
42.74704069216818
 20
82.5414684392939
 30
0.0
  0
VERTEX
  5
1E8
330
1E4
100
AcDbEntity
  8
Visible (ANSI)
100
AcDbVertex
100
AcDb2dVertex
 10
42.74804288933029
 20
82.54385037231095
 30
0.0
  0
VERTEX
  5
1E9
330
1E4
100
AcDbEntity
  8
Visible (ANSI)
100
AcDbVertex
100
AcDb2dVertex
 10
42.74970844893128
 20
82.546232305328
 30
0.0
  0
VERTEX
  5
1EA
330
1E4
100
AcDbEntity
  8
Visible (ANSI)
100
AcDbVertex
100
AcDb2dVertex
 10
42.7520302384931
 20
82.54861123464641
 30
0.0
  0
VERTEX
  5
1EB
330
1E4
100
AcDbEntity
  8
Visible (ANSI)
100
AcDbVertex
100
AcDb2dVertex
 10
42.75499831587228
 20
82.55099316766346
 30
0.0
  0
VERTEX
  5
1EC
330
1E4
100
AcDbEntity
  8
Visible (ANSI)
100
AcDbVertex
100
AcDb2dVertex
 10
42.75859997199898
 20
82.55337209698184
 30
0.0
  0
VERTEX
  5
1ED
330
1E4
100
AcDbEntity
  8
Visible (ANSI)
100
AcDbVertex
100
AcDb2dVertex
 10
42.76281978358468
 20
82.55575402999889
 30
0.0
  0
VERTEX
  5
1EE
330
1E4
100
AcDbEntity
  8
Visible (ANSI)
100
AcDbVertex
100
AcDb2dVertex
 10
42.76763968003817
 20
82.55813596301592
 30
0.0
  0
VERTEX
  5
1EF
330
1E4
100
AcDbEntity
  8
Visible (ANSI)
100
AcDbVertex
100
AcDb2dVertex
 10
42.77303902339783
 20
82.56051489233433
 30
0.0
  0
VERTEX
  5
1F0
330
1E4
100
AcDbEntity
  8
Visible (ANSI)
100
AcDbVertex
100
AcDb2dVertex
 10
42.77899468899747
 20
82.56289682535138
 30
0.0
  0
VERTEX
  5
1F1
330
1E4
100
AcDbEntity
  8
Visible (ANSI)
100
AcDbVertex
100
AcDb2dVertex
 10
42.78548117913164
 20
82.56527575466977
 30
0.0
  0
VERTEX
  5
1F2
330
1E4
100
AcDbEntity
  8
Visible (ANSI)
100
AcDbVertex
100
AcDb2dVertex
 10
42.7924707154546
 20
82.56765768768682
 30
0.0
  0
VERTEX
  5
1F3
330
1E4
100
AcDbEntity
  8
Visible (ANSI)
100
AcDbVertex
100
AcDb2dVertex
 10
42.79993336657875
 20
82.57003962070385
 30
0.0
  0
VERTEX
  5
1F4
330
1E4
100
AcDbEntity
  8
Visible (ANSI)
100
AcDbVertex
100
AcDb2dVertex
 10
42.80783717713991
 20
82.57241855002225
 30
0.0
  0
VERTEX
  5
1F5
330
1E4
100
AcDbEntity
  8
Visible (ANSI)
100
AcDbVertex
100
AcDb2dVertex
 10
42.81614829979579
 20
82.5748004830393
 30
0.0
  0
VERTEX
  5
1F6
330
1E4
100
AcDbEntity
  8
Visible (ANSI)
100
AcDbVertex
100
AcDb2dVertex
 10
42.82483114775745
 20
82.57718241605633
 30
0.0
  0
VERTEX
  5
1F7
330
1E4
100
AcDbEntity
  8
Visible (ANSI)
100
AcDbVertex
100
AcDb2dVertex
 10
42.83384853852111
 20
82.57956134537472
 30
0.0
  0
VERTEX
  5
1F8
330
1E4
100
AcDbEntity
  8
Visible (ANSI)
100
AcDbVertex
100
AcDb2dVertex
 10
42.84316186399945
 20
82.58194327839179
 30
0.0
  0
VERTEX
  5
1F9
330
1E4
100
AcDbEntity
  8
Visible (ANSI)
100
AcDbVertex
100
AcDb2dVertex
 10
42.85273123131997
 20
82.58432220771018
 30
0.0
  0
VERTEX
  5
1FA
330
1E4
100
AcDbEntity
  8
Visible (ANSI)
100
AcDbVertex
100
AcDb2dVertex
 10
42.86251567402259
 20
82.58670414072723
 30
0.0
  0
VERTEX
  5
1FB
330
1E4
100
AcDbEntity
  8
Visible (ANSI)
100
AcDbVertex
100
AcDb2dVertex
 10
42.8724732869914
 20
82.58908607374428
 30
0.0
  0
VERTEX
  5
1FC
330
1E4
100
AcDbEntity
  8
Visible (ANSI)
100
AcDbVertex
100
AcDb2dVertex
 10
42.88256143178562
 20
82.59146500306268
 30
0.0
  0
VERTEX
  5
1FD
330
1E4
100
AcDbEntity
  8
Visible (ANSI)
100
AcDbVertex
100
AcDb2dVertex
 10
42.892736906771
 20
82.59384693607973
 30
0.0
  0
VERTEX
  5
1FE
330
1E4
100
AcDbEntity
  8
Visible (ANSI)
100
AcDbVertex
100
AcDb2dVertex
 10
42.90295614658413
 20
82.59622586539812
 30
0.0
  0
SEQEND
  5
1E7
330
1E4
100
AcDbEntity
  8
Visible (ANSI)
  0
MTEXT
  5
200
330
6C
100
AcDbEntity
  8
Symbol (ANSI)
100
AcDbMText
 10
57.07249896491181
 20
31.21597401103411
 30
0.0
 40
1.320000016313838
 41
0.0
 46
0.0
 71
     7
 72
     1
  1
FRONT VIEW
  7
Text Style154
 73
     1
 44
1.0
  0
LINE
  5
202
330
6C
100
AcDbEntity
  8
Symbol (ANSI)
370
    30
100
AcDbLine
 10
56.94049862535956
 20
30.94678599991032
 30
0.0
 11
67.552913672502
 21
30.94678599991032
 31
0.0
  0
POLYLINE
  5
203
330
6C
100
AcDbEntity
  8
Visible (ANSI)
100
AcDb2dPolyline
 66
     1
 10
0.0
 20
0.0
 30
0.0
 70
   128
  0
VERTEX
  5
204
330
203
100
AcDbEntity
  8
Visible (ANSI)
100
AcDbVertex
100
AcDb2dVertex
 10
125.3333575509888
 20
37.90872706453094
 30
0.0
  0
VERTEX
  5
205
330
203
100
AcDbEntity
  8
Visible (ANSI)
100
AcDbVertex
100
AcDb2dVertex
 10
125.3336920879242
 20
37.89850782471781
 30
0.0
  0
VERTEX
  5
207
330
203
100
AcDbEntity
  8
Visible (ANSI)
100
AcDbVertex
100
AcDb2dVertex
 10
125.3346942907467
 20
37.88833234973243
 30
0.0
  0
VERTEX
  5
208
330
203
100
AcDbEntity
  8
Visible (ANSI)
100
AcDbVertex
100
AcDb2dVertex
 10
125.3363598533727
 20
37.87824420493821
 30
0.0
  0
VERTEX
  5
209
330
203
100
AcDbEntity
  8
Visible (ANSI)
100
AcDbVertex
100
AcDb2dVertex
 10
125.3386816420178
 20
37.8682865919694
 30
0.0
  0
VERTEX
  5
20A
330
203
100
AcDbEntity
  8
Visible (ANSI)
100
AcDbVertex
100
AcDb2dVertex
 10
125.3416497186637
 20
37.85850214926678
 30
0.0
  0
VERTEX
  5
20B
330
203
100
AcDbEntity
  8
Visible (ANSI)
100
AcDbVertex
100
AcDb2dVertex
 10
125.345251376257
 20
37.84893278194626
 30
0.0
  0
VERTEX
  5
20C
330
203
100
AcDbEntity
  8
Visible (ANSI)
100
AcDbVertex
100
AcDb2dVertex
 10
125.3494711856428
 20
37.83961945646793
 30
0.0
  0
VERTEX
  5
20D
330
203
100
AcDbEntity
  8
Visible (ANSI)
100
AcDbVertex
100
AcDb2dVertex
 10
125.3542910776963
 20
37.83060206570426
 30
0.0
  0
VERTEX
  5
20E
330
203
100
AcDbEntity
  8
Visible (ANSI)
100
AcDbVertex
100
AcDb2dVertex
 10
125.3596904254559
 20
37.8219192177426
 30
0.0
  0
VERTEX
  5
20F
330
203
100
AcDbEntity
  8
Visible (ANSI)
100
AcDbVertex
100
AcDb2dVertex
 10
125.3656460910555
 20
37.81360809508672
 30
0.0
  0
VERTEX
  5
210
330
203
100
AcDbEntity
  8
Visible (ANSI)
100
AcDbVertex
100
AcDb2dVertex
 10
125.3721325782564
 20
37.80570428452556
 30
0.0
  0
VERTEX
  5
211
330
203
100
AcDbEntity
  8
Visible (ANSI)
100
AcDbVertex
100
AcDb2dVertex
 10
125.3791221145793
 20
37.79824163340141
 30
0.0
  0
VERTEX
  5
212
330
203
100
AcDbEntity
  8
Visible (ANSI)
100
AcDbVertex
100
AcDb2dVertex
 10
125.3865847627702
 20
37.79125209707845
 30
0.0
  0
VERTEX
  5
213
330
203
100
AcDbEntity
  8
Visible (ANSI)
100
AcDbVertex
100
AcDb2dVertex
 10
125.3944885733314
 20
37.78476560694428
 30
0.0
  0
VERTEX
  5
214
330
203
100
AcDbEntity
  8
Visible (ANSI)
100
AcDbVertex
100
AcDb2dVertex
 10
125.4027997018538
 20
37.77880994134463
 30
0.0
  0
VERTEX
  5
215
330
203
100
AcDbEntity
  8
Visible (ANSI)
100
AcDbVertex
100
AcDb2dVertex
 10
125.4114825498155
 20
37.77341059798498
 30
0.0
  0
VERTEX
  5
216
330
203
100
AcDbEntity
  8
Visible (ANSI)
100
AcDbVertex
100
AcDb2dVertex
 10
125.4204999405792
 20
37.76859070153149
 30
0.0
  0
VERTEX
  5
217
330
203
100
AcDbEntity
  8
Visible (ANSI)
100
AcDbVertex
100
AcDb2dVertex
 10
125.4298132631242
 20
37.76437088994579
 30
0.0
  0
VERTEX
  5
218
330
203
100
AcDbEntity
  8
Visible (ANSI)
100
AcDbVertex
100
AcDb2dVertex
 10
125.439382633378
 20
37.76076923381909
 30
0.0
  0
VERTEX
  5
219
330
203
100
AcDbEntity
  8
Visible (ANSI)
100
AcDbVertex
100
AcDb2dVertex
 10
125.4491670731473
 20
37.75780115643991
 30
0.0
  0
VERTEX
  5
21A
330
203
100
AcDbEntity
  8
Visible (ANSI)
100
AcDbVertex
100
AcDb2dVertex
 10
125.4591246862995
 20
37.75547936687809
 30
0.0
  0
VERTEX
  5
21B
330
203
100
AcDbEntity
  8
Visible (ANSI)
100
AcDbVertex
100
AcDb2dVertex
 10
125.4692128316437
 20
37.75381380727711
 30
0.0
  0
VERTEX
  5
21C
330
203
100
AcDbEntity
  8
Visible (ANSI)
100
AcDbVertex
100
AcDb2dVertex
 10
125.4793883102957
 20
37.75281161011499
 30
0.0
  0
VERTEX
  5
21D
330
203
100
AcDbEntity
  8
Visible (ANSI)
100
AcDbVertex
100
AcDb2dVertex
 10
125.4896075486422
 20
37.75247706687759
 30
0.0
  0
SEQEND
  5
206
330
203
100
AcDbEntity
  8
Visible (ANSI)
  0
LINE
  5
21E
330
6C
100
AcDbEntity
  8
Visible (ANSI)
100
AcDbLine
 10
125.4896075491115
 20
37.87747706687759
 30
0.0
 11
126.2083575491115
 21
37.87747706687759
 31
0.0
  0
LINE
  5
21F
330
6C
100
AcDbEntity
  8
Visible (ANSI)
100
AcDbLine
 10
125.4896075491115
 20
37.87747706687759
 30
0.0
 11
125.4896075491115
 21
37.75247706687759
 31
0.0
  0
POLYLINE
  5
220
330
6C
100
AcDbEntity
  8
Visible (ANSI)
100
AcDb2dPolyline
 66
     1
 10
0.0
 20
0.0
 30
0.0
 70
   128
  0
VERTEX
  5
221
330
220
100
AcDbEntity
  8
Visible (ANSI)
100
AcDbVertex
100
AcDb2dVertex
 10
125.4583575491115
 20
37.90872706453094
 30
0.0
  0
VERTEX
  5
222
330
220
100
AcDbEntity
  8
Visible (ANSI)
100
AcDbVertex
100
AcDb2dVertex
 10
125.4584244577578
 20
37.90668322360823
 30
0.0
  0
VERTEX
  5
224
330
220
100
AcDbEntity
  8
Visible (ANSI)
100
AcDbVertex
100
AcDb2dVertex
 10
125.458624897196
 20
37.90464812391788
 30
0.0
  0
VERTEX
  5
225
330
220
100
AcDbEntity
  8
Visible (ANSI)
100
AcDbVertex
100
AcDb2dVertex
 10
125.4589580091208
 20
37.90263049495903
 30
0.0
  0
VERTEX
  5
226
330
220
100
AcDbEntity
  8
Visible (ANSI)
100
AcDbVertex
100
AcDb2dVertex
 10
125.4594223670607
 20
37.90063897236527
 30
0.0
  0
VERTEX
  5
227
330
220
100
AcDbEntity
  8
Visible (ANSI)
100
AcDbVertex
100
AcDb2dVertex
 10
125.4600159825365
 20
37.89868208617139
 30
0.0
  0
VERTEX
  5
228
330
220
100
AcDbEntity
  8
Visible (ANSI)
100
AcDbVertex
100
AcDb2dVertex
 10
125.4607363137985
 20
37.89676821388061
 30
0.0
  0
VERTEX
  5
229
330
220
100
AcDbEntity
  8
Visible (ANSI)
100
AcDbVertex
100
AcDb2dVertex
 10
125.4615802761156
 20
37.89490554526498
 30
0.0
  0
VERTEX
  5
22A
330
220
100
AcDbEntity
  8
Visible (ANSI)
100
AcDbVertex
100
AcDb2dVertex
 10
125.462544255113
 20
37.8931020706322
 30
0.0
  0
VERTEX
  5
22B
330
220
100
AcDbEntity
  8
Visible (ANSI)
100
AcDbVertex
100
AcDb2dVertex
 10
125.4636241236383
 20
37.89136549869323
 30
0.0
  0
VERTEX
  5
22C
330
220
100
AcDbEntity
  8
Visible (ANSI)
100
AcDbVertex
100
AcDb2dVertex
 10
125.4648152569782
 20
37.88970326829546
 30
0.0
  0
VERTEX
  5
22D
330
220
100
AcDbEntity
  8
Visible (ANSI)
100
AcDbVertex
100
AcDb2dVertex
 10
125.4661125548584
 20
37.88812251322314
 30
0.0
  0
VERTEX
  5
22E
330
220
100
AcDbEntity
  8
Visible (ANSI)
100
AcDbVertex
100
AcDb2dVertex
 10
125.4675104619763
 20
37.88662998006502
 30
0.0
  0
VERTEX
  5
22F
330
220
100
AcDbEntity
  8
Visible (ANSI)
100
AcDbVertex
100
AcDb2dVertex
 10
125.4690029922011
 20
37.88523207514707
 30
0.0
  0
VERTEX
  5
230
330
220
100
AcDbEntity
  8
Visible (ANSI)
100
AcDbVertex
100
AcDb2dVertex
 10
125.4705837546067
 20
37.88393477066697
 30
0.0
  0
VERTEX
  5
231
330
220
100
AcDbEntity
  8
Visible (ANSI)
100
AcDbVertex
100
AcDb2dVertex
 10
125.4722459798712
 20
37.88274363989368
 30
0.0
  0
VERTEX
  5
232
330
220
100
AcDbEntity
  8
Visible (ANSI)
100
AcDbVertex
100
AcDb2dVertex
 10
125.4739825488768
 20
37.88166377503504
 30
0.0
  0
VERTEX
  5
233
330
220
100
AcDbEntity
  8
Visible (ANSI)
100
AcDbVertex
100
AcDb2dVertex
 10
125.4757860279096
 20
37.88069979897097
 30
0.0
  0
VERTEX
  5
234
330
220
100
AcDbEntity
  8
Visible (ANSI)
100
AcDbVertex
100
AcDb2dVertex
 10
125.4776486921253
 20
37.87985583005391
 30
0.0
  0
VERTEX
  5
235
330
220
100
AcDbEntity
  8
Visible (ANSI)
100
AcDbVertex
100
AcDb2dVertex
 10
125.4795625658827
 20
37.87913550557516
 30
0.0
  0
VERTEX
  5
236
330
220
100
AcDbEntity
  8
Visible (ANSI)
100
AcDbVertex
100
AcDb2dVertex
 10
125.4815194535432
 20
37.87854188789935
 30
0.0
  0
VERTEX
  5
237
330
220
100
AcDbEntity
  8
Visible (ANSI)
100
AcDbVertex
100
AcDb2dVertex
 10
125.483510976137
 20
37.87807752313039
 30
0.0
  0
VERTEX
  5
238
330
220
100
AcDbEntity
  8
Visible (ANSI)
100
AcDbVertex
100
AcDb2dVertex
 10
125.4855286050958
 20
37.87774441764513
 30
0.0
  0
VERTEX
  5
239
330
220
100
AcDbEntity
  8
Visible (ANSI)
100
AcDbVertex
100
AcDb2dVertex
 10
125.4875637018529
 20
37.87754397942727
 30
0.0
  0
VERTEX
  5
23A
330
220
100
AcDbEntity
  8
Visible (ANSI)
100
AcDbVertex
100
AcDb2dVertex
 10
125.4896075486422
 20
37.87747706500027
 30
0.0
  0
SEQEND
  5
223
330
220
100
AcDbEntity
  8
Visible (ANSI)
  0
LINE
  5
23B
330
6C
100
AcDbEntity
  8
Visible (ANSI)
100
AcDbLine
 10
125.4583575491115
 20
37.90872706687758
 30
0.0
 11
125.4532321472382
 21
37.90872706687758
 31
0.0
  0
LINE
  5
23C
330
6C
100
AcDbEntity
  8
Visible (ANSI)
100
AcDbLine
 10
125.4532321472382
 20
37.90872706687758
 30
0.0
 11
125.3333575491115
 21
37.90872706687758
 31
0.0
  0
LINE
  5
23D
330
6C
100
AcDbEntity
  8
Visible (ANSI)
100
AcDbLine
 10
125.4896075491115
 20
37.75247706687759
 30
0.0
 11
126.2083575491115
 21
37.75247706687759
 31
0.0
  0
LINE
  5
23E
330
6C
100
AcDbEntity
  8
Visible (ANSI)
100
AcDbLine
 10
126.2083575491115
 20
37.87747706687759
 30
0.0
 11
126.2083575491115
 21
37.75247706687759
 31
0.0
  0
POLYLINE
  5
23F
330
6C
100
AcDbEntity
  8
Visible (ANSI)
100
AcDb2dPolyline
 66
     1
 10
0.0
 20
0.0
 30
0.0
 70
   128
  0
VERTEX
  5
240
330
23F
100
AcDbEntity
  8
Visible (ANSI)
100
AcDbVertex
100
AcDb2dVertex
 10
125.3333575509888
 20
82.59622586539812
 30
0.0
  0
VERTEX
  5
241
330
23F
100
AcDbEntity
  8
Visible (ANSI)
100
AcDbVertex
100
AcDb2dVertex
 10
125.3336920879243
 20
82.59384693607973
 30
0.0
  0
VERTEX
  5
243
330
23F
100
AcDbEntity
  8
Visible (ANSI)
100
AcDbVertex
100
AcDb2dVertex
 10
125.3346942907467
 20
82.59146500306268
 30
0.0
  0
VERTEX
  5
244
330
23F
100
AcDbEntity
  8
Visible (ANSI)
100
AcDbVertex
100
AcDb2dVertex
 10
125.3363598533727
 20
82.58908607374428
 30
0.0
  0
VERTEX
  5
245
330
23F
100
AcDbEntity
  8
Visible (ANSI)
100
AcDbVertex
100
AcDb2dVertex
 10
125.3386816420178
 20
82.58670414072723
 30
0.0
  0
VERTEX
  5
246
330
23F
100
AcDbEntity
  8
Visible (ANSI)
100
AcDbVertex
100
AcDb2dVertex
 10
125.3416497186637
 20
82.58432220771018
 30
0.0
  0
VERTEX
  5
247
330
23F
100
AcDbEntity
  8
Visible (ANSI)
100
AcDbVertex
100
AcDb2dVertex
 10
125.345251376257
 20
82.58194327839179
 30
0.0
  0
VERTEX
  5
248
330
23F
100
AcDbEntity
  8
Visible (ANSI)
100
AcDbVertex
100
AcDb2dVertex
 10
125.3494711856428
 20
82.57956134537472
 30
0.0
  0
VERTEX
  5
249
330
23F
100
AcDbEntity
  8
Visible (ANSI)
100
AcDbVertex
100
AcDb2dVertex
 10
125.3542910776963
 20
82.57718241605633
 30
0.0
  0
VERTEX
  5
24A
330
23F
100
AcDbEntity
  8
Visible (ANSI)
100
AcDbVertex
100
AcDb2dVertex
 10
125.3596904254559
 20
82.5748004830393
 30
0.0
  0
VERTEX
  5
24B
330
23F
100
AcDbEntity
  8
Visible (ANSI)
100
AcDbVertex
100
AcDb2dVertex
 10
125.3656460910556
 20
82.57241855002225
 30
0.0
  0
VERTEX
  5
24C
330
23F
100
AcDbEntity
  8
Visible (ANSI)
100
AcDbVertex
100
AcDb2dVertex
 10
125.3721325782565
 20
82.57003962070385
 30
0.0
  0
VERTEX
  5
24D
330
23F
100
AcDbEntity
  8
Visible (ANSI)
100
AcDbVertex
100
AcDb2dVertex
 10
125.3791221145794
 20
82.56765768768682
 30
0.0
  0
VERTEX
  5
24E
330
23F
100
AcDbEntity
  8
Visible (ANSI)
100
AcDbVertex
100
AcDb2dVertex
 10
125.3865847627702
 20
82.56527575466977
 30
0.0
  0
VERTEX
  5
24F
330
23F
100
AcDbEntity
  8
Visible (ANSI)
100
AcDbVertex
100
AcDb2dVertex
 10
125.3944885733314
 20
82.56289682535138
 30
0.0
  0
VERTEX
  5
250
330
23F
100
AcDbEntity
  8
Visible (ANSI)
100
AcDbVertex
100
AcDb2dVertex
 10
125.4027997018539
 20
82.56051489233433
 30
0.0
  0
VERTEX
  5
251
330
23F
100
AcDbEntity
  8
Visible (ANSI)
100
AcDbVertex
100
AcDb2dVertex
 10
125.4114825498156
 20
82.55813596301592
 30
0.0
  0
VERTEX
  5
252
330
23F
100
AcDbEntity
  8
Visible (ANSI)
100
AcDbVertex
100
AcDb2dVertex
 10
125.4204999405792
 20
82.55575402999889
 30
0.0
  0
VERTEX
  5
253
330
23F
100
AcDbEntity
  8
Visible (ANSI)
100
AcDbVertex
100
AcDb2dVertex
 10
125.4298132631243
 20
82.55337209698184
 30
0.0
  0
VERTEX
  5
254
330
23F
100
AcDbEntity
  8
Visible (ANSI)
100
AcDbVertex
100
AcDb2dVertex
 10
125.4393826333781
 20
82.55099316766346
 30
0.0
  0
VERTEX
  5
255
330
23F
100
AcDbEntity
  8
Visible (ANSI)
100
AcDbVertex
100
AcDb2dVertex
 10
125.4491670731474
 20
82.54861123464641
 30
0.0
  0
VERTEX
  5
256
330
23F
100
AcDbEntity
  8
Visible (ANSI)
100
AcDbVertex
100
AcDb2dVertex
 10
125.4591246862996
 20
82.546232305328
 30
0.0
  0
VERTEX
  5
257
330
23F
100
AcDbEntity
  8
Visible (ANSI)
100
AcDbVertex
100
AcDb2dVertex
 10
125.4692128316438
 20
82.54385037231095
 30
0.0
  0
VERTEX
  5
258
330
23F
100
AcDbEntity
  8
Visible (ANSI)
100
AcDbVertex
100
AcDb2dVertex
 10
125.4793883102957
 20
82.5414684392939
 30
0.0
  0
VERTEX
  5
259
330
23F
100
AcDbEntity
  8
Visible (ANSI)
100
AcDbVertex
100
AcDb2dVertex
 10
125.4896075486423
 20
82.53908950997551
 30
0.0
  0
SEQEND
  5
242
330
23F
100
AcDbEntity
  8
Visible (ANSI)
  0
POLYLINE
  5
25A
330
6C
100
AcDbEntity
  8
Visible (ANSI)
100
AcDb2dPolyline
 66
     1
 10
0.0
 20
0.0
 30
0.0
 70
   128
  0
VERTEX
  5
25B
330
25A
100
AcDbEntity
  8
Visible (ANSI)
100
AcDbVertex
100
AcDb2dVertex
 10
125.4896075486423
 20
37.96586540286398
 30
0.0
  0
VERTEX
  5
25C
330
25A
100
AcDbEntity
  8
Visible (ANSI)
100
AcDbVertex
100
AcDb2dVertex
 10
125.4793883102957
 20
37.96348464316672
 30
0.0
  0
VERTEX
  5
25E
330
25A
100
AcDbEntity
  8
Visible (ANSI)
100
AcDbVertex
100
AcDb2dVertex
 10
125.4692128316438
 20
37.96110388346946
 30
0.0
  0
VERTEX
  5
25F
330
25A
100
AcDbEntity
  8
Visible (ANSI)
100
AcDbVertex
100
AcDb2dVertex
 10
125.4591246862996
 20
37.9587231237722
 30
0.0
  0
VERTEX
  5
260
330
25A
100
AcDbEntity
  8
Visible (ANSI)
100
AcDbVertex
100
AcDb2dVertex
 10
125.4491670731474
 20
37.95634236407494
 30
0.0
  0
VERTEX
  5
261
330
25A
100
AcDbEntity
  8
Visible (ANSI)
100
AcDbVertex
100
AcDb2dVertex
 10
125.4393826333781
 20
37.95396158091128
 30
0.0
  0
VERTEX
  5
262
330
25A
100
AcDbEntity
  8
Visible (ANSI)
100
AcDbVertex
100
AcDb2dVertex
 10
125.4298132631243
 20
37.95158082121402
 30
0.0
  0
VERTEX
  5
263
330
25A
100
AcDbEntity
  8
Visible (ANSI)
100
AcDbVertex
100
AcDb2dVertex
 10
125.4204999405792
 20
37.94920006151676
 30
0.0
  0
VERTEX
  5
264
330
25A
100
AcDbEntity
  8
Visible (ANSI)
100
AcDbVertex
100
AcDb2dVertex
 10
125.4114825498156
 20
37.9468193018195
 30
0.0
  0
VERTEX
  5
265
330
25A
100
AcDbEntity
  8
Visible (ANSI)
100
AcDbVertex
100
AcDb2dVertex
 10
125.4027997018539
 20
37.94443853038905
 30
0.0
  0
VERTEX
  5
266
330
25A
100
AcDbEntity
  8
Visible (ANSI)
100
AcDbVertex
100
AcDb2dVertex
 10
125.3944885733314
 20
37.94205777069179
 30
0.0
  0
VERTEX
  5
267
330
25A
100
AcDbEntity
  8
Visible (ANSI)
100
AcDbVertex
100
AcDb2dVertex
 10
125.3865847627702
 20
37.93967701099453
 30
0.0
  0
VERTEX
  5
268
330
25A
100
AcDbEntity
  8
Visible (ANSI)
100
AcDbVertex
100
AcDb2dVertex
 10
125.3791221145794
 20
37.93729623956406
 30
0.0
  0
VERTEX
  5
269
330
25A
100
AcDbEntity
  8
Visible (ANSI)
100
AcDbVertex
100
AcDb2dVertex
 10
125.3721325782565
 20
37.93491547986679
 30
0.0
  0
VERTEX
  5
26A
330
25A
100
AcDbEntity
  8
Visible (ANSI)
100
AcDbVertex
100
AcDb2dVertex
 10
125.3656460910556
 20
37.93253470843634
 30
0.0
  0
VERTEX
  5
26B
330
25A
100
AcDbEntity
  8
Visible (ANSI)
100
AcDbVertex
100
AcDb2dVertex
 10
125.3596904254559
 20
37.93015394873908
 30
0.0
  0
VERTEX
  5
26C
330
25A
100
AcDbEntity
  8
Visible (ANSI)
100
AcDbVertex
100
AcDb2dVertex
 10
125.3542910776963
 20
37.92777317730863
 30
0.0
  0
VERTEX
  5
26D
330
25A
100
AcDbEntity
  8
Visible (ANSI)
100
AcDbVertex
100
AcDb2dVertex
 10
125.3494711856428
 20
37.92539241761136
 30
0.0
  0
VERTEX
  5
26E
330
25A
100
AcDbEntity
  8
Visible (ANSI)
100
AcDbVertex
100
AcDb2dVertex
 10
125.345251376257
 20
37.9230116579141
 30
0.0
  0
VERTEX
  5
26F
330
25A
100
AcDbEntity
  8
Visible (ANSI)
100
AcDbVertex
100
AcDb2dVertex
 10
125.3416497186637
 20
37.92063088648364
 30
0.0
  0
VERTEX
  5
270
330
25A
100
AcDbEntity
  8
Visible (ANSI)
100
AcDbVertex
100
AcDb2dVertex
 10
125.3386816420178
 20
37.91825012678638
 30
0.0
  0
VERTEX
  5
271
330
25A
100
AcDbEntity
  8
Visible (ANSI)
100
AcDbVertex
100
AcDb2dVertex
 10
125.3363598533727
 20
37.91586935535592
 30
0.0
  0
VERTEX
  5
272
330
25A
100
AcDbEntity
  8
Visible (ANSI)
100
AcDbVertex
100
AcDb2dVertex
 10
125.3346942907467
 20
37.91348859565866
 30
0.0
  0
VERTEX
  5
273
330
25A
100
AcDbEntity
  8
Visible (ANSI)
100
AcDbVertex
100
AcDb2dVertex
 10
125.3336920879243
 20
37.91110783596141
 30
0.0
  0
VERTEX
  5
274
330
25A
100
AcDbEntity
  8
Visible (ANSI)
100
AcDbVertex
100
AcDb2dVertex
 10
125.3333575509888
 20
37.90872706453094
 30
0.0
  0
SEQEND
  5
25D
330
25A
100
AcDbEntity
  8
Visible (ANSI)
  0
LINE
  5
275
330
6C
100
AcDbEntity
  8
Visible (ANSI)
100
AcDbLine
 10
126.2083575491116
 20
37.96586541452591
 30
0.0
 11
125.4896075491116
 21
37.96586541452591
 31
0.0
  0
POLYLINE
  5
276
330
6C
100
AcDbEntity
  8
Visible (ANSI)
100
AcDb2dPolyline
 66
     1
 10
0.0
 20
0.0
 30
0.0
 70
   128
  0
VERTEX
  5
277
330
276
100
AcDbEntity
  8
Visible (ANSI)
100
AcDbVertex
100
AcDb2dVertex
 10
125.4583575491115
 20
37.90872706453094
 30
0.0
  0
VERTEX
  5
278
330
276
100
AcDbEntity
  8
Visible (ANSI)
100
AcDbVertex
100
AcDb2dVertex
 10
125.4584244577579
 20
37.91110783596141
 30
0.0
  0
VERTEX
  5
27A
330
276
100
AcDbEntity
  8
Visible (ANSI)
100
AcDbVertex
100
AcDb2dVertex
 10
125.458624897196
 20
37.91348859565866
 30
0.0
  0
VERTEX
  5
27B
330
276
100
AcDbEntity
  8
Visible (ANSI)
100
AcDbVertex
100
AcDb2dVertex
 10
125.4589580091208
 20
37.91586935535592
 30
0.0
  0
VERTEX
  5
27C
330
276
100
AcDbEntity
  8
Visible (ANSI)
100
AcDbVertex
100
AcDb2dVertex
 10
125.4594223670607
 20
37.91825012678638
 30
0.0
  0
VERTEX
  5
27D
330
276
100
AcDbEntity
  8
Visible (ANSI)
100
AcDbVertex
100
AcDb2dVertex
 10
125.4600159825365
 20
37.92063088648364
 30
0.0
  0
VERTEX
  5
27E
330
276
100
AcDbEntity
  8
Visible (ANSI)
100
AcDbVertex
100
AcDb2dVertex
 10
125.4607363137985
 20
37.9230116579141
 30
0.0
  0
VERTEX
  5
27F
330
276
100
AcDbEntity
  8
Visible (ANSI)
100
AcDbVertex
100
AcDb2dVertex
 10
125.4615802761156
 20
37.92539241761136
 30
0.0
  0
VERTEX
  5
280
330
276
100
AcDbEntity
  8
Visible (ANSI)
100
AcDbVertex
100
AcDb2dVertex
 10
125.462544255113
 20
37.92777317730863
 30
0.0
  0
VERTEX
  5
281
330
276
100
AcDbEntity
  8
Visible (ANSI)
100
AcDbVertex
100
AcDb2dVertex
 10
125.4636241236383
 20
37.93015394873908
 30
0.0
  0
VERTEX
  5
282
330
276
100
AcDbEntity
  8
Visible (ANSI)
100
AcDbVertex
100
AcDb2dVertex
 10
125.4648152569782
 20
37.93253470843634
 30
0.0
  0
VERTEX
  5
283
330
276
100
AcDbEntity
  8
Visible (ANSI)
100
AcDbVertex
100
AcDb2dVertex
 10
125.4661125548584
 20
37.93491547986679
 30
0.0
  0
VERTEX
  5
284
330
276
100
AcDbEntity
  8
Visible (ANSI)
100
AcDbVertex
100
AcDb2dVertex
 10
125.4675104619763
 20
37.93729623956406
 30
0.0
  0
VERTEX
  5
285
330
276
100
AcDbEntity
  8
Visible (ANSI)
100
AcDbVertex
100
AcDb2dVertex
 10
125.4690029922011
 20
37.93967701099453
 30
0.0
  0
VERTEX
  5
286
330
276
100
AcDbEntity
  8
Visible (ANSI)
100
AcDbVertex
100
AcDb2dVertex
 10
125.4705837546067
 20
37.94205777069179
 30
0.0
  0
VERTEX
  5
287
330
276
100
AcDbEntity
  8
Visible (ANSI)
100
AcDbVertex
100
AcDb2dVertex
 10
125.4722459798712
 20
37.94443853038905
 30
0.0
  0
VERTEX
  5
288
330
276
100
AcDbEntity
  8
Visible (ANSI)
100
AcDbVertex
100
AcDb2dVertex
 10
125.4739825488769
 20
37.9468193018195
 30
0.0
  0
VERTEX
  5
289
330
276
100
AcDbEntity
  8
Visible (ANSI)
100
AcDbVertex
100
AcDb2dVertex
 10
125.4757860279096
 20
37.94920006151676
 30
0.0
  0
VERTEX
  5
28A
330
276
100
AcDbEntity
  8
Visible (ANSI)
100
AcDbVertex
100
AcDb2dVertex
 10
125.4776486921253
 20
37.95158082121402
 30
0.0
  0
VERTEX
  5
28B
330
276
100
AcDbEntity
  8
Visible (ANSI)
100
AcDbVertex
100
AcDb2dVertex
 10
125.4795625658827
 20
37.95396158091128
 30
0.0
  0
VERTEX
  5
28C
330
276
100
AcDbEntity
  8
Visible (ANSI)
100
AcDbVertex
100
AcDb2dVertex
 10
125.4815194535432
 20
37.95634236407494
 30
0.0
  0
VERTEX
  5
28D
330
276
100
AcDbEntity
  8
Visible (ANSI)
100
AcDbVertex
100
AcDb2dVertex
 10
125.483510976137
 20
37.9587231237722
 30
0.0
  0
VERTEX
  5
28E
330
276
100
AcDbEntity
  8
Visible (ANSI)
100
AcDbVertex
100
AcDb2dVertex
 10
125.4855286050958
 20
37.96110388346946
 30
0.0
  0
VERTEX
  5
28F
330
276
100
AcDbEntity
  8
Visible (ANSI)
100
AcDbVertex
100
AcDb2dVertex
 10
125.4875637018529
 20
37.96348464316672
 30
0.0
  0
VERTEX
  5
290
330
276
100
AcDbEntity
  8
Visible (ANSI)
100
AcDbVertex
100
AcDb2dVertex
 10
125.4896075486422
 20
37.96586540286398
 30
0.0
  0
SEQEND
  5
279
330
276
100
AcDbEntity
  8
Visible (ANSI)
  0
POLYLINE
  5
291
330
6C
100
AcDbEntity
  8
Visible (ANSI)
100
AcDb2dPolyline
 66
     1
 10
0.0
 20
0.0
 30
0.0
 70
   128
  0
VERTEX
  5
292
330
291
100
AcDbEntity
  8
Visible (ANSI)
100
AcDbVertex
100
AcDb2dVertex
 10
125.4583575491115
 20
82.59622586539812
 30
0.0
  0
VERTEX
  5
293
330
291
100
AcDbEntity
  8
Visible (ANSI)
100
AcDbVertex
100
AcDb2dVertex
 10
125.4584244577579
 20
82.59384693607973
 30
0.0
  0
VERTEX
  5
295
330
291
100
AcDbEntity
  8
Visible (ANSI)
100
AcDbVertex
100
AcDb2dVertex
 10
125.458624897196
 20
82.59146500306268
 30
0.0
  0
VERTEX
  5
296
330
291
100
AcDbEntity
  8
Visible (ANSI)
100
AcDbVertex
100
AcDb2dVertex
 10
125.4589580091208
 20
82.58908607374428
 30
0.0
  0
VERTEX
  5
297
330
291
100
AcDbEntity
  8
Visible (ANSI)
100
AcDbVertex
100
AcDb2dVertex
 10
125.4594223670607
 20
82.58670414072723
 30
0.0
  0
VERTEX
  5
298
330
291
100
AcDbEntity
  8
Visible (ANSI)
100
AcDbVertex
100
AcDb2dVertex
 10
125.4600159825365
 20
82.58432220771018
 30
0.0
  0
VERTEX
  5
299
330
291
100
AcDbEntity
  8
Visible (ANSI)
100
AcDbVertex
100
AcDb2dVertex
 10
125.4607363137985
 20
82.58194327839179
 30
0.0
  0
VERTEX
  5
29A
330
291
100
AcDbEntity
  8
Visible (ANSI)
100
AcDbVertex
100
AcDb2dVertex
 10
125.4615802761156
 20
82.57956134537472
 30
0.0
  0
VERTEX
  5
29B
330
291
100
AcDbEntity
  8
Visible (ANSI)
100
AcDbVertex
100
AcDb2dVertex
 10
125.462544255113
 20
82.57718241605633
 30
0.0
  0
VERTEX
  5
29C
330
291
100
AcDbEntity
  8
Visible (ANSI)
100
AcDbVertex
100
AcDb2dVertex
 10
125.4636241236383
 20
82.5748004830393
 30
0.0
  0
VERTEX
  5
29D
330
291
100
AcDbEntity
  8
Visible (ANSI)
100
AcDbVertex
100
AcDb2dVertex
 10
125.4648152569782
 20
82.57241855002225
 30
0.0
  0
VERTEX
  5
29E
330
291
100
AcDbEntity
  8
Visible (ANSI)
100
AcDbVertex
100
AcDb2dVertex
 10
125.4661125548584
 20
82.57003962070385
 30
0.0
  0
VERTEX
  5
29F
330
291
100
AcDbEntity
  8
Visible (ANSI)
100
AcDbVertex
100
AcDb2dVertex
 10
125.4675104619763
 20
82.56765768768682
 30
0.0
  0
VERTEX
  5
2A0
330
291
100
AcDbEntity
  8
Visible (ANSI)
100
AcDbVertex
100
AcDb2dVertex
 10
125.4690029922011
 20
82.56527575466977
 30
0.0
  0
VERTEX
  5
2A1
330
291
100
AcDbEntity
  8
Visible (ANSI)
100
AcDbVertex
100
AcDb2dVertex
 10
125.4705837546067
 20
82.56289682535138
 30
0.0
  0
VERTEX
  5
2A2
330
291
100
AcDbEntity
  8
Visible (ANSI)
100
AcDbVertex
100
AcDb2dVertex
 10
125.4722459798712
 20
82.56051489233433
 30
0.0
  0
VERTEX
  5
2A3
330
291
100
AcDbEntity
  8
Visible (ANSI)
100
AcDbVertex
100
AcDb2dVertex
 10
125.4739825488769
 20
82.55813596301592
 30
0.0
  0
VERTEX
  5
2A4
330
291
100
AcDbEntity
  8
Visible (ANSI)
100
AcDbVertex
100
AcDb2dVertex
 10
125.4757860279096
 20
82.55575402999889
 30
0.0
  0
VERTEX
  5
2A5
330
291
100
AcDbEntity
  8
Visible (ANSI)
100
AcDbVertex
100
AcDb2dVertex
 10
125.4776486921253
 20
82.55337209698184
 30
0.0
  0
VERTEX
  5
2A6
330
291
100
AcDbEntity
  8
Visible (ANSI)
100
AcDbVertex
100
AcDb2dVertex
 10
125.4795625658827
 20
82.55099316766346
 30
0.0
  0
VERTEX
  5
2A7
330
291
100
AcDbEntity
  8
Visible (ANSI)
100
AcDbVertex
100
AcDb2dVertex
 10
125.4815194535432
 20
82.54861123464641
 30
0.0
  0
VERTEX
  5
2A8
330
291
100
AcDbEntity
  8
Visible (ANSI)
100
AcDbVertex
100
AcDb2dVertex
 10
125.483510976137
 20
82.546232305328
 30
0.0
  0
VERTEX
  5
2A9
330
291
100
AcDbEntity
  8
Visible (ANSI)
100
AcDbVertex
100
AcDb2dVertex
 10
125.4855286050958
 20
82.54385037231095
 30
0.0
  0
VERTEX
  5
2AA
330
291
100
AcDbEntity
  8
Visible (ANSI)
100
AcDbVertex
100
AcDb2dVertex
 10
125.4875637018529
 20
82.5414684392939
 30
0.0
  0
VERTEX
  5
2AB
330
291
100
AcDbEntity
  8
Visible (ANSI)
100
AcDbVertex
100
AcDb2dVertex
 10
125.4896075486422
 20
82.53908950997551
 30
0.0
  0
SEQEND
  5
294
330
291
100
AcDbEntity
  8
Visible (ANSI)
  0
LINE
  5
2AC
330
6C
100
AcDbEntity
  8
Visible (ANSI)
100
AcDbLine
 10
125.4583575491115
 20
82.59622706687757
 30
0.0
 11
125.4532321472382
 21
82.59622706687757
 31
0.0
  0
LINE
  5
2AD
330
6C
100
AcDbEntity
  8
Visible (ANSI)
100
AcDbLine
 10
125.4532321472382
 20
82.59622706687757
 30
0.0
 11
125.3333575491115
 21
82.59622706687757
 31
0.0
  0
LINE
  5
2AE
330
6C
100
AcDbEntity
  8
Visible (ANSI)
100
AcDbLine
 10
125.4896075491116
 20
82.53908871922924
 30
0.0
 11
126.2083575491116
 21
82.53908871922924
 31
0.0
  0
POLYLINE
  5
2AF
330
6C
100
AcDbEntity
  8
Visible (ANSI)
100
AcDb2dPolyline
 66
     1
 10
0.0
 20
0.0
 30
0.0
 70
   128
  0
VERTEX
  5
2B0
330
2AF
100
AcDbEntity
  8
Visible (ANSI)
100
AcDbVertex
100
AcDb2dVertex
 10
125.4896075486422
 20
82.75247826835704
 30
0.0
  0
VERTEX
  5
2B1
330
2AF
100
AcDbEntity
  8
Visible (ANSI)
100
AcDbVertex
100
AcDb2dVertex
 10
125.4793883102957
 20
82.75214185411
 30
0.0
  0
VERTEX
  5
2B3
330
2AF
100
AcDbEntity
  8
Visible (ANSI)
100
AcDbVertex
100
AcDb2dVertex
 10
125.4692128316437
 20
82.75114162246472
 30
0.0
  0
VERTEX
  5
2B4
330
2AF
100
AcDbEntity
  8
Visible (ANSI)
100
AcDbVertex
100
AcDb2dVertex
 10
125.4591246862995
 20
82.74947456972268
 30
0.0
  0
VERTEX
  5
2B5
330
2AF
100
AcDbEntity
  8
Visible (ANSI)
100
AcDbVertex
100
AcDb2dVertex
 10
125.4491670731473
 20
82.74715271067833
 30
0.0
  0
VERTEX
  5
2B6
330
2AF
100
AcDbEntity
  8
Visible (ANSI)
100
AcDbVertex
100
AcDb2dVertex
 10
125.439382633378
 20
82.7441850564276
 30
0.0
  0
VERTEX
  5
2B7
330
2AF
100
AcDbEntity
  8
Visible (ANSI)
100
AcDbVertex
100
AcDb2dVertex
 10
125.4298132631242
 20
82.74058362176502
 30
0.0
  0
VERTEX
  5
2B8
330
2AF
100
AcDbEntity
  8
Visible (ANSI)
100
AcDbVertex
100
AcDb2dVertex
 10
125.4204999405792
 20
82.73636342518374
 30
0.0
  0
VERTEX
  5
2B9
330
2AF
100
AcDbEntity
  8
Visible (ANSI)
100
AcDbVertex
100
AcDb2dVertex
 10
125.4114825498155
 20
82.73154248887561
 30
0.0
  0
VERTEX
  5
2BA
330
2AF
100
AcDbEntity
  8
Visible (ANSI)
100
AcDbVertex
100
AcDb2dVertex
 10
125.4027997018538
 20
82.7261448424297
 30
0.0
  0
VERTEX
  5
2BB
330
2AF
100
AcDbEntity
  8
Visible (ANSI)
100
AcDbVertex
100
AcDb2dVertex
 10
125.3944885733314
 20
82.72018850803776
 30
0.0
  0
VERTEX
  5
2BC
330
2AF
100
AcDbEntity
  8
Visible (ANSI)
100
AcDbVertex
100
AcDb2dVertex
 10
125.3865847627702
 20
82.71370352268618
 30
0.0
  0
VERTEX
  5
2BD
330
2AF
100
AcDbEntity
  8
Visible (ANSI)
100
AcDbVertex
100
AcDb2dVertex
 10
125.3791221145793
 20
82.70671391596406
 30
0.0
  0
VERTEX
  5
2BE
330
2AF
100
AcDbEntity
  8
Visible (ANSI)
100
AcDbVertex
100
AcDb2dVertex
 10
125.3721325782564
 20
82.69924972485771
 30
0.0
  0
VERTEX
  5
2BF
330
2AF
100
AcDbEntity
  8
Visible (ANSI)
100
AcDbVertex
100
AcDb2dVertex
 10
125.3656460910555
 20
82.69134699375074
 30
0.0
  0
VERTEX
  5
2C0
330
2AF
100
AcDbEntity
  8
Visible (ANSI)
100
AcDbVertex
100
AcDb2dVertex
 10
125.3596904254559
 20
82.68303575962947
 30
0.0
  0
VERTEX
  5
2C1
330
2AF
100
AcDbEntity
  8
Visible (ANSI)
100
AcDbVertex
100
AcDb2dVertex
 10
125.3542910776963
 20
82.67435206687755
 30
0.0
  0
VERTEX
  5
2C2
330
2AF
100
AcDbEntity
  8
Visible (ANSI)
100
AcDbVertex
100
AcDb2dVertex
 10
125.3494711856428
 20
82.66533496357723
 30
0.0
  0
VERTEX
  5
2C3
330
2AF
100
AcDbEntity
  8
Visible (ANSI)
100
AcDbVertex
100
AcDb2dVertex
 10
125.345251376257
 20
82.65602049411214
 30
0.0
  0
VERTEX
  5
2C4
330
2AF
100
AcDbEntity
  8
Visible (ANSI)
100
AcDbVertex
100
AcDb2dVertex
 10
125.3416497186637
 20
82.64645071026309
 30
0.0
  0
VERTEX
  5
2C5
330
2AF
100
AcDbEntity
  8
Visible (ANSI)
100
AcDbVertex
100
AcDb2dVertex
 10
125.3386816420178
 20
82.63666766381103
 30
0.0
  0
VERTEX
  5
2C6
330
2AF
100
AcDbEntity
  8
Visible (ANSI)
100
AcDbVertex
100
AcDb2dVertex
 10
125.3363598533727
 20
82.62671040283812
 30
0.0
  0
VERTEX
  5
2C7
330
2AF
100
AcDbEntity
  8
Visible (ANSI)
100
AcDbVertex
100
AcDb2dVertex
 10
125.3346942907467
 20
82.61662097912536
 30
0.0
  0
VERTEX
  5
2C8
330
2AF
100
AcDbEntity
  8
Visible (ANSI)
100
AcDbVertex
100
AcDb2dVertex
 10
125.3336920879242
 20
82.6064474518508
 30
0.0
  0
VERTEX
  5
2C9
330
2AF
100
AcDbEntity
  8
Visible (ANSI)
100
AcDbVertex
100
AcDb2dVertex
 10
125.3333575509888
 20
82.59622586539812
 30
0.0
  0
SEQEND
  5
2B2
330
2AF
100
AcDbEntity
  8
Visible (ANSI)
  0
LINE
  5
2CA
330
6C
100
AcDbEntity
  8
Visible (ANSI)
100
AcDbLine
 10
125.4896075491115
 20
82.62747706687758
 30
0.0
 11
126.2083575491115
 21
82.62747706687759
 31
0.0
  0
LINE
  5
2CB
330
6C
100
AcDbEntity
  8
Visible (ANSI)
100
AcDbLine
 10
126.2083575491115
 20
82.75247706687762
 30
0.0
 11
125.4896075491115
 21
82.75247706687759
 31
0.0
  0
LINE
  5
2CC
330
6C
100
AcDbEntity
  8
Visible (ANSI)
100
AcDbLine
 10
125.4896075491115
 20
82.62747706687758
 30
0.0
 11
125.4896075491115
 21
82.75247706687759
 31
0.0
  0
LINE
  5
2CD
330
6C
100
AcDbEntity
  8
Visible (ANSI)
100
AcDbLine
 10
126.2083575491115
 20
82.62747706687759
 30
0.0
 11
126.2083575491115
 21
82.75247706687762
 31
0.0
  0
POLYLINE
  5
2CE
330
6C
100
AcDbEntity
  8
Visible (ANSI)
100
AcDb2dPolyline
 66
     1
 10
0.0
 20
0.0
 30
0.0
 70
   128
  0
VERTEX
  5
2CF
330
2CE
100
AcDbEntity
  8
Visible (ANSI)
100
AcDbVertex
100
AcDb2dVertex
 10
125.4583575491115
 20
82.59622586539812
 30
0.0
  0
VERTEX
  5
2D0
330
2CE
100
AcDbEntity
  8
Visible (ANSI)
100
AcDbVertex
100
AcDb2dVertex
 10
125.4584244577578
 20
82.59827138416813
 30
0.0
  0
VERTEX
  5
2D2
330
2CE
100
AcDbEntity
  8
Visible (ANSI)
100
AcDbVertex
100
AcDb2dVertex
 10
125.458624897196
 20
82.60030488814356
 30
0.0
  0
VERTEX
  5
2D3
330
2CE
100
AcDbEntity
  8
Visible (ANSI)
100
AcDbVertex
100
AcDb2dVertex
 10
125.4589580091208
 20
82.60232337362586
 30
0.0
  0
VERTEX
  5
2D4
330
2CE
100
AcDbEntity
  8
Visible (ANSI)
100
AcDbVertex
100
AcDb2dVertex
 10
125.4594223670607
 20
82.60431482582042
 30
0.0
  0
VERTEX
  5
2D5
330
2CE
100
AcDbEntity
  8
Visible (ANSI)
100
AcDbVertex
100
AcDb2dVertex
 10
125.4600159825365
 20
82.60627323733002
 30
0.0
  0
VERTEX
  5
2D6
330
2CE
100
AcDbEntity
  8
Visible (ANSI)
100
AcDbVertex
100
AcDb2dVertex
 10
125.4607363137985
 20
82.60818659336012
 30
0.0
  0
VERTEX
  5
2D7
330
2CE
100
AcDbEntity
  8
Visible (ANSI)
100
AcDbVertex
100
AcDb2dVertex
 10
125.4615802761156
 20
82.6100488865134
 30
0.0
  0
VERTEX
  5
2D8
330
2CE
100
AcDbEntity
  8
Visible (ANSI)
100
AcDbVertex
100
AcDb2dVertex
 10
125.462544255113
 20
82.61185110569403
 30
0.0
  0
VERTEX
  5
2D9
330
2CE
100
AcDbEntity
  8
Visible (ANSI)
100
AcDbVertex
100
AcDb2dVertex
 10
125.4636241236383
 20
82.61358724350467
 30
0.0
  0
VERTEX
  5
2DA
330
2CE
100
AcDbEntity
  8
Visible (ANSI)
100
AcDbVertex
100
AcDb2dVertex
 10
125.4648152569782
 20
82.6152512925481
 30
0.0
  0
VERTEX
  5
2DB
330
2CE
100
AcDbEntity
  8
Visible (ANSI)
100
AcDbVertex
100
AcDb2dVertex
 10
125.4661125548584
 20
82.61683123802976
 30
0.0
  0
VERTEX
  5
2DC
330
2CE
100
AcDbEntity
  8
Visible (ANSI)
100
AcDbVertex
100
AcDb2dVertex
 10
125.4675104619763
 20
82.61832407625105
 30
0.0
  0
VERTEX
  5
2DD
330
2CE
100
AcDbEntity
  8
Visible (ANSI)
100
AcDbVertex
100
AcDb2dVertex
 10
125.4690029922011
 20
82.619720796116
 30
0.0
  0
VERTEX
  5
2DE
330
2CE
100
AcDbEntity
  8
Visible (ANSI)
100
AcDbVertex
100
AcDb2dVertex
 10
125.4705837546067
 20
82.62101839392604
 30
0.0
  0
VERTEX
  5
2DF
330
2CE
100
AcDbEntity
  8
Visible (ANSI)
100
AcDbVertex
100
AcDb2dVertex
 10
125.4722459798712
 20
82.62221086228388
 30
0.0
  0
VERTEX
  5
2E0
330
2CE
100
AcDbEntity
  8
Visible (ANSI)
100
AcDbVertex
100
AcDb2dVertex
 10
125.4739825488768
 20
82.62328919009362
 30
0.0
  0
VERTEX
  5
2E1
330
2CE
100
AcDbEntity
  8
Visible (ANSI)
100
AcDbVertex
100
AcDb2dVertex
 10
125.4757860279096
 20
82.62425337735525
 30
0.0
  0
VERTEX
  5
2E2
330
2CE
100
AcDbEntity
  8
Visible (ANSI)
100
AcDbVertex
100
AcDb2dVertex
 10
125.4776486921253
 20
82.6250974166715
 30
0.0
  0
VERTEX
  5
2E3
330
2CE
100
AcDbEntity
  8
Visible (ANSI)
100
AcDbVertex
100
AcDb2dVertex
 10
125.4795625658827
 20
82.62581830434372
 30
0.0
  0
VERTEX
  5
2E4
330
2CE
100
AcDbEntity
  8
Visible (ANSI)
100
AcDbVertex
100
AcDb2dVertex
 10
125.4815194535432
 20
82.62641303667333
 30
0.0
  0
VERTEX
  5
2E5
330
2CE
100
AcDbEntity
  8
Visible (ANSI)
100
AcDbVertex
100
AcDb2dVertex
 10
125.483510976137
 20
82.62687560626302
 30
0.0
  0
VERTEX
  5
2E6
330
2CE
100
AcDbEntity
  8
Visible (ANSI)
100
AcDbVertex
100
AcDb2dVertex
 10
125.4855286050958
 20
82.62720901681145
 30
0.0
  0
VERTEX
  5
2E7
330
2CE
100
AcDbEntity
  8
Visible (ANSI)
100
AcDbVertex
100
AcDb2dVertex
 10
125.4875637018529
 20
82.62741026461993
 30
0.0
  0
VERTEX
  5
2E8
330
2CE
100
AcDbEntity
  8
Visible (ANSI)
100
AcDbVertex
100
AcDb2dVertex
 10
125.4896075486422
 20
82.62747634598991
 30
0.0
  0
SEQEND
  5
2D1
330
2CE
100
AcDbEntity
  8
Visible (ANSI)
  0
LINE
  5
2E9
330
6C
100
AcDbEntity
  8
Visible (ANSI)
100
AcDbLine
 10
125.3333575491115
 20
37.90872706687758
 30
0.0
 11
125.3333575491115
 21
82.59622706687757
 31
0.0
  0
LINE
  5
2EA
330
6C
100
AcDbEntity
  8
Visible (ANSI)
100
AcDbLine
 10
126.2083575491116
 20
82.53908871922924
 30
0.0
 11
126.2083575491116
 21
37.96586541452591
 31
0.0
  0
MTEXT
  5
2EB
330
6C
100
AcDbEntity
  8
Symbol (ANSI)
100
AcDbMText
 10
121.1314219380214
 20
31.84187849918501
 30
0.0
 40
1.320000016313838
 41
0.0
 46
0.0
 71
     7
 72
     1
  1
SIDE VIEW
  7
Text Style154
 73
     1
 44
1.0
  0
LINE
  5
2EC
330
6C
100
AcDbEntity
  8
Symbol (ANSI)
370
    30
100
AcDbLine
 10
121.0638377641707
 20
31.56841172137324
 30
0.0
 11
129.9839997886311
 21
31.56841172137324
 31
0.0
  0
DIMENSION
  5
2ED
330
6C
100
AcDbEntity
  8
Dimension (ANSI)
100
AcDbDimension
280
     0
  2
*D4
 10
24.3295637248168
 20
82.7524770668776
 30
0.0
 11
24.32956372481678
 21
60.25247706687758
 31
0.0
 70
   160
  1
<>
 42
45.00000000000001
 73
     0
 74
     0
 75
     0
  3
Default (ANSI)
100
AcDbAlignedDimension
 13
42.9600944965791
 23
37.75247706687758
 33
0.0
 14
42.96009449657909
 24
82.75247706687759
 34
0.0
 50
90.0
100
AcDbRotatedDimension
1001
ACAD
1000
DSTYLE
1002
{
1070
   289
1070
     1
1070
   271
1070
     2
1070
   272
1070
     2
1070
    48
1040
0.0
1070
    47
1040
0.0
1002
}
  0
DIMENSION
  5
3D9
330
6C
100
AcDbEntity
  8
Dimension (ANSI)
100
AcDbDimension
280
     0
  2
*D5
 10
38.42197056315447
 20
60.25247706687758
 30
0.0
 11
38.42197056315446
 21
49.43997706687758
 31
0.0
 70
   160
  1
<>
 42
21.625
 73
     0
 74
     0
 75
     0
  3
Default (ANSI)
100
AcDbAlignedDimension
 13
43.62170614893077
 23
38.62747706687758
 33
0.0
 14
43.62170614893077
 24
60.25247706687758
 34
0.0
 50
90.0
100
AcDbRotatedDimension
1001
ACAD
1000
DSTYLE
1002
{
1070
   289
1070
     1
1070
   271
1070
     2
1070
   272
1070
     3
1070
    48
1040
0.0
1070
    47
1040
0.0
1002
}
  0
DIMENSION
  5
4C3
330
6C
100
AcDbEntity
  8
Dimension (ANSI)
100
AcDbDimension
280
     0
  2
*D6
 10
31.84778982034807
 20
81.8774770668776
 30
0.0
 11
31.84778982034805
 21
60.25247706687758
 31
0.0
 70
   160
  1
<>
 42
43.25000000000001
 73
     0
 74
     0
 75
     0
  3
Default (ANSI)
100
AcDbAlignedDimension
 13
43.62170614893077
 23
38.62747706687758
 33
0.0
 14
43.62170614893077
 24
81.87747706687758
 34
0.0
 50
90.0
100
AcDbRotatedDimension
1001
ACAD
1000
DSTYLE
1002
{
1070
   289
1070
     1
1070
   271
1070
     2
1070
   272
1070
     3
1070
    48
1040
0.0
1070
    47
1040
0.0
1002
}
  0
DIMENSION
  5
5AD
330
6C
100
AcDbEntity
  8
Dimension (ANSI)
100
AcDbDimension
280
     0
  2
*D7
 10
81.74670614893077
 20
94.66507297119774
 30
0.0
 11
62.24670614893077
 21
94.66507297119774
 31
0.0
 70
   160
  1
<>
 42
39.0
 73
     0
 74
     0
 75
     0
  3
Default (ANSI)
100
AcDbAlignedDimension
 13
42.74670614893078
 23
82.53908871922924
 33
0.0
 14
81.74670614893077
 24
82.53908871922924
 34
0.0
100
AcDbRotatedDimension
1001
ACAD
1000
DSTYLE
1002
{
1070
   289
1070
     1
1070
    73
1070
     0
1070
    74
1070
     0
1070
   271
1070
     2
1070
   272
1070
     2
1070
    48
1040
0.0
1070
    47
1040
0.0
1002
}
  0
DIMENSION
  5
697
330
6C
100
AcDbEntity
  8
Dimension (ANSI)
100
AcDbDimension
280
     0
  2
*D8
 10
80.87170614893077
 20
90.42516241283378
 30
0.0
 11
62.24670614893078
 21
90.42516241283378
 31
0.0
 70
   160
  1
<>
 42
37.25
 73
     0
 74
     0
 75
     0
  3
Default (ANSI)
100
AcDbAlignedDimension
 13
43.62170614893077
 23
81.87747706687758
 33
0.0
 14
80.87170614893077
 24
81.87747706687758
 34
0.0
 50
180.0
100
AcDbRotatedDimension
1001
ACAD
1000
DSTYLE
1002
{
1070
   289
1070
     1
1070
    73
1070
     0
1070
    74
1070
     0
1070
   271
1070
     2
1070
   272
1070
     3
1070
    48
1040
0.0
1070
    47
1040
0.0
1002
}
  0
DIMENSION
  5
781
330
6C
100
AcDbEntity
  8
Dimension (ANSI)
100
AcDbDimension
280
     0
  2
*D9
 10
62.24670614893078
 20
86.2081857282949
 30
0.0
 11
52.93420614893078
 21
86.2081857282949
 31
0.0
 70
   160
  1
<>
 42
18.625
 73
     0
 74
     0
 75
     0
  3
Default (ANSI)
100
AcDbAlignedDimension
 13
43.62170614893077
 23
81.87747706687758
 33
0.0
 14
62.24670614893078
 24
81.87747706687758
 34
0.0
 50
180.0
100
AcDbRotatedDimension
1001
ACAD
1000
DSTYLE
1002
{
1070
   289
1070
     1
1070
    73
1070
     0
1070
    74
1070
     0
1070
   271
1070
     2
1070
   272
1070
     3
1070
    48
1040
0.0
1070
    47
1040
0.0
1002
}
  0
DIMENSION
  5
86B
330
6C
100
AcDbEntity
  8
Dimension (ANSI)
100
AcDbDimension
280
     0
  2
*D10
 10
126.2083575491115
 20
85.90208336609014
 30
0.0
 11
120.4683525294993
 21
85.90208336609014
 31
0.0
 70
   160
  1
<>{\PTYP.}
 42
0.8749999999999715
 73
     0
 74
     0
 75
     0
  3
Default (ANSI)
100
AcDbAlignedDimension
 13
125.3333575491115
 23
82.59622706687757
 33
0.0
 14
126.2083575491115
 24
82.75247706687762
 34
0.0
100
AcDbRotatedDimension
1001
ACAD
1000
DSTYLE
1002
{
1070
   289
1070
     1
1070
    73
1070
     0
1070
    74
1070
     0
1070
   145
1040
-0.25
1070
   271
1070
     2
1070
   272
1070
     2
1070
    48
1040
0.0
1070
    47
1040
0.0
1002
}
  0
ELLIPSE
  5
969
330
6C
100
AcDbEntity
  8
Visible (ANSI)
100
AcDbEllipse
 10
162.4093652570576
 20
52.18336306431847
 30
0.0
 11
-0.0965783276981949
 21
0.1677109756264705
 31
0.0
210
0.0
220
0.0
230
1.0
 40
0.5780931159158129
 41
0.0
 42
6.283185307179586
  0
ELLIPSE
  5
96A
330
6C
100
AcDbEntity
  8
Visible (ANSI)
100
AcDbEllipse
 10
162.4701322460658
 20
52.21835644597252
 30
0.0
 11
-0.096578327698195
 21
0.1677109756264707
 31
0.0
210
0.0
220
0.0
230
0.9999999999999998
 40
0.578093115915813
 41
0.3187556839588481
 42
2.822836969630835
  0
ELLIPSE
  5
96B
330
6C
100
AcDbEntity
  8
Visible (ANSI)
100
AcDbEllipse
 10
171.4636466192836
 20
59.12397559298895
 30
0.0
 11
-0.0965783276981949
 21
0.1677109756264705
 31
0.0
210
0.0
220
0.0
230
1.0
 40
0.5780931159158129
 41
0.0
 42
6.283185307179586
  0
ELLIPSE
  5
96C
330
6C
100
AcDbEntity
  8
Visible (ANSI)
100
AcDbEllipse
 10
171.5244136082918
 20
59.15896897464298
 30
0.0
 11
-0.0965783276981935
 21
0.1677109756264683
 31
0.0
210
0.0
220
0.0
230
0.9999999999999998
 40
0.5780931159158128
 41
0.3187556839588921
 42
2.822836969630836
  0
ELLIPSE
  5
96D
330
6C
100
AcDbEntity
  8
Visible (ANSI)
100
AcDbEllipse
 10
171.4636466192836
 20
46.969349197869
 30
0.0
 11
-0.0965783276981949
 21
0.1677109756264705
 31
0.0
210
0.0
220
0.0
230
1.0
 40
0.5780931159158129
 41
0.0
 42
6.283185307179586
  0
ELLIPSE
  5
96E
330
6C
100
AcDbEntity
  8
Visible (ANSI)
100
AcDbEllipse
 10
171.5244136082918
 20
47.00434257952303
 30
0.0
 11
-0.096578327698195
 21
0.1677109756264707
 31
0.0
210
0.0
220
0.0
230
0.9999999999999998
 40
0.578093115915813
 41
0.3187556839588481
 42
2.822836969630835
  0
ELLIPSE
  5
96F
330
6C
100
AcDbEntity
  8
Visible (ANSI)
100
AcDbEllipse
 10
153.3550838948316
 20
57.39737693076797
 30
0.0
 11
-0.0965783276981949
 21
0.1677109756264705
 31
0.0
210
0.0
220
0.0
230
1.0
 40
0.5780931159158129
 41
0.0
 42
6.283185307179586
  0
ELLIPSE
  5
970
330
6C
100
AcDbEntity
  8
Visible (ANSI)
100
AcDbEllipse
 10
153.4158508838398
 20
57.432370312422
 30
0.0
 11
-0.0965783276981949
 21
0.1677109756264705
 31
0.0
210
0.0
220
0.0
230
1.0
 40
0.5780931159158129
 41
0.3187556839588481
 42
2.822836969630835
  0
ELLIPSE
  5
971
330
6C
100
AcDbEntity
  8
Visible (ANSI)
100
AcDbEllipse
 10
153.3550838948316
 20
69.55200332588791
 30
0.0
 11
-0.0965783276981949
 21
0.1677109756264705
 31
0.0
210
0.0
220
0.0
230
1.0
 40
0.5780931159158129
 41
0.0
 42
6.283185307179586
  0
ELLIPSE
  5
972
330
6C
100
AcDbEntity
  8
Visible (ANSI)
100
AcDbEllipse
 10
153.4158508838398
 20
69.58699670754194
 30
0.0
 11
-0.0965783276981947
 21
0.1677109756264702
 31
0.0
210
0.0
220
0.0
230
1.0
 40
0.5780931159158129
 41
0.3187556839588485
 42
2.822836969630857
  0
ELLIPSE
  5
973
330
6C
100
AcDbEntity
  8
Visible (ANSI)
100
AcDbEllipse
 10
171.4636466192836
 20
71.2786019881089
 30
0.0
 11
-0.0965783276981949
 21
0.1677109756264705
 31
0.0
210
0.0
220
0.0
230
1.0
 40
0.5780931159158129
 41
0.0
 42
6.283185307179586
  0
ELLIPSE
  5
974
330
6C
100
AcDbEntity
  8
Visible (ANSI)
100
AcDbEllipse
 10
171.5244136082918
 20
71.31359536976294
 30
0.0
 11
-0.0965783276981931
 21
0.1677109756264675
 31
0.0
210
0.0
220
0.0
230
0.9999999999999998
 40
0.5780931159158129
 41
0.3187556839588481
 42
2.822836969630857
  0
ELLIPSE
  5
975
330
6C
100
AcDbEntity
  8
Visible (ANSI)
100
AcDbEllipse
 10
162.4093652570576
 20
76.49261585455838
 30
0.0
 11
-0.0965783276981949
 21
0.1677109756264705
 31
0.0
210
0.0
220
0.0
230
1.0
 40
0.5780931159158129
 41
0.0
 42
6.283185307179586
  0
ELLIPSE
  5
976
330
6C
100
AcDbEntity
  8
Visible (ANSI)
100
AcDbEllipse
 10
162.4701322460658
 20
76.52760923621241
 30
0.0
 11
-0.096578327698194
 21
0.167710975626469
 31
0.0
210
0.0
220
0.0
230
0.9999999999999998
 40
0.5780931159158128
 41
0.3187556839588481
 42
2.822836969630857
  0
ELLIPSE
  5
977
330
6C
100
AcDbEntity
  8
Visible (ANSI)
100
AcDbEllipse
 10
153.3550838948316
 20
81.70662972100785
 30
0.0
 11
-0.0965783276981949
 21
0.1677109756264705
 31
0.0
210
0.0
220
0.0
230
1.0
 40
0.5780931159158129
 41
0.0
 42
6.283185307179586
  0
ELLIPSE
  5
978
330
6C
100
AcDbEntity
  8
Visible (ANSI)
100
AcDbEllipse
 10
153.4158508838398
 20
81.74162310266188
 30
0.0
 11
-0.0965783276981947
 21
0.1677109756264702
 31
0.0
210
0.0
220
0.0
230
1.0
 40
0.5780931159158129
 41
0.3187556839588485
 42
2.822836969630857
  0
POLYLINE
  5
979
330
6C
100
AcDbEntity
  8
Visible (ANSI)
100
AcDb2dPolyline
 66
     1
 10
0.0
 20
0.0
 30
0.0
 70
   128
  0
VERTEX
  5
97A
330
979
100
AcDbEntity
  8
Visible (ANSI)
100
AcDbVertex
100
AcDb2dVertex
 10
171.8130566317688
 20
46.3641541062335
 30
0.0
  0
VERTEX
  5
97B
330
979
100
AcDbEntity
  8
Visible (ANSI)
100
AcDbVertex
100
AcDb2dVertex
 10
171.8120627792131
 20
46.35916986990276
 30
0.0
  0
VERTEX
  5
97D
330
979
100
AcDbEntity
  8
Visible (ANSI)
100
AcDbVertex
100
AcDb2dVertex
 10
171.8113920428166
 20
46.35439798416501
 30
0.0
  0
VERTEX
  5
97E
330
979
100
AcDbEntity
  8
Visible (ANSI)
100
AcDbVertex
100
AcDb2dVertex
 10
171.8110437894431
 20
46.34986088917532
 30
0.0
  0
VERTEX
  5
97F
330
979
100
AcDbEntity
  8
Visible (ANSI)
100
AcDbVertex
100
AcDb2dVertex
 10
171.8110160113098
 20
46.3455800290434
 30
0.0
  0
VERTEX
  5
980
330
979
100
AcDbEntity
  8
Visible (ANSI)
100
AcDbVertex
100
AcDb2dVertex
 10
171.8113009567774
 20
46.34157826892099
 30
0.0
  0
VERTEX
  5
981
330
979
100
AcDbEntity
  8
Visible (ANSI)
100
AcDbVertex
100
AcDb2dVertex
 10
171.8118939086968
 20
46.33787476397174
 30
0.0
  0
VERTEX
  5
982
330
979
100
AcDbEntity
  8
Visible (ANSI)
100
AcDbVertex
100
AcDb2dVertex
 10
171.8127888266073
 20
46.33448737973059
 30
0.0
  0
VERTEX
  5
983
330
979
100
AcDbEntity
  8
Visible (ANSI)
100
AcDbVertex
100
AcDb2dVertex
 10
171.8139740060471
 20
46.33143516188595
 30
0.0
  0
VERTEX
  5
984
330
979
100
AcDbEntity
  8
Visible (ANSI)
100
AcDbVertex
100
AcDb2dVertex
 10
171.8154423399208
 20
46.32873235442994
 30
0.0
  0
VERTEX
  5
985
330
979
100
AcDbEntity
  8
Visible (ANSI)
100
AcDbVertex
100
AcDb2dVertex
 10
171.8171796596693
 20
46.32639506067205
 30
0.0
  0
VERTEX
  5
986
330
979
100
AcDbEntity
  8
Visible (ANSI)
100
AcDbVertex
100
AcDb2dVertex
 10
171.8191750308611
 20
46.32443530417916
 30
0.0
  0
VERTEX
  5
987
330
979
100
AcDbEntity
  8
Visible (ANSI)
100
AcDbVertex
100
AcDb2dVertex
 10
171.8214164125025
 20
46.32286349361172
 30
0.0
  0
VERTEX
  5
988
330
979
100
AcDbEntity
  8
Visible (ANSI)
100
AcDbVertex
100
AcDb2dVertex
 10
171.8238863306074
 20
46.32169089082537
 30
0.0
  0
VERTEX
  5
989
330
979
100
AcDbEntity
  8
Visible (ANSI)
100
AcDbVertex
100
AcDb2dVertex
 10
171.8265721737894
 20
46.32092369324414
 30
0.0
  0
VERTEX
  5
98A
330
979
100
AcDbEntity
  8
Visible (ANSI)
100
AcDbVertex
100
AcDb2dVertex
 10
171.8294545686543
 20
46.320569721177
 30
0.0
  0
VERTEX
  5
98B
330
979
100
AcDbEntity
  8
Visible (ANSI)
100
AcDbVertex
100
AcDb2dVertex
 10
171.8325176696877
 20
46.32063249937933
 30
0.0
  0
VERTEX
  5
98C
330
979
100
AcDbEntity
  8
Visible (ANSI)
100
AcDbVertex
100
AcDb2dVertex
 10
171.8357448641971
 20
46.32111377701879
 30
0.0
  0
VERTEX
  5
98D
330
979
100
AcDbEntity
  8
Visible (ANSI)
100
AcDbVertex
100
AcDb2dVertex
 10
171.8391144615672
 20
46.32201602665506
 30
0.0
  0
VERTEX
  5
98E
330
979
100
AcDbEntity
  8
Visible (ANSI)
100
AcDbVertex
100
AcDb2dVertex
 10
171.8426099931295
 20
46.32333655792884
 30
0.0
  0
VERTEX
  5
98F
330
979
100
AcDbEntity
  8
Visible (ANSI)
100
AcDbVertex
100
AcDb2dVertex
 10
171.8462086175011
 20
46.32507424973865
 30
0.0
  0
VERTEX
  5
990
330
979
100
AcDbEntity
  8
Visible (ANSI)
100
AcDbVertex
100
AcDb2dVertex
 10
171.8498914276731
 20
46.32722367581516
 30
0.0
  0
VERTEX
  5
991
330
979
100
AcDbEntity
  8
Visible (ANSI)
100
AcDbVertex
100
AcDb2dVertex
 10
171.8536391544371
 20
46.32977764612355
 30
0.0
  0
VERTEX
  5
992
330
979
100
AcDbEntity
  8
Visible (ANSI)
100
AcDbVertex
100
AcDb2dVertex
 10
171.8574278768526
 20
46.33272975792324
 30
0.0
  0
VERTEX
  5
993
330
979
100
AcDbEntity
  8
Visible (ANSI)
100
AcDbVertex
100
AcDb2dVertex
 10
171.861237872427
 20
46.33606938412119
 30
0.0
  0
SEQEND
  5
97C
330
979
100
AcDbEntity
  8
Visible (ANSI)
  0
POLYLINE
  5
994
330
6C
100
AcDbEntity
  8
Visible (ANSI)
100
AcDb2dPolyline
 66
     1
 10
0.0
 20
0.0
 30
0.0
 70
   128
  0
VERTEX
  5
995
330
994
100
AcDbEntity
  8
Visible (ANSI)
100
AcDbVertex
100
AcDb2dVertex
 10
153.0419481653408
 20
57.13723979051774
 30
0.0
  0
VERTEX
  5
996
330
994
100
AcDbEntity
  8
Visible (ANSI)
100
AcDbVertex
100
AcDb2dVertex
 10
153.0396317941475
 20
57.13864039625615
 30
0.0
  0
VERTEX
  5
998
330
994
100
AcDbEntity
  8
Visible (ANSI)
100
AcDbVertex
100
AcDb2dVertex
 10
153.0373749776748
 20
57.14014002857555
 30
0.0
  0
VERTEX
  5
999
330
994
100
AcDbEntity
  8
Visible (ANSI)
100
AcDbVertex
100
AcDb2dVertex
 10
153.0351795240682
 20
57.14173743372588
 30
0.0
  0
VERTEX
  5
99A
330
994
100
AcDbEntity
  8
Visible (ANSI)
100
AcDbVertex
100
AcDb2dVertex
 10
153.0330471644702
 20
57.14343125096331
 30
0.0
  0
VERTEX
  5
99B
330
994
100
AcDbEntity
  8
Visible (ANSI)
100
AcDbVertex
100
AcDb2dVertex
 10
153.0309795758357
 20
57.14522002239163
 30
0.0
  0
VERTEX
  5
99C
330
994
100
AcDbEntity
  8
Visible (ANSI)
100
AcDbVertex
100
AcDb2dVertex
 10
153.028978352413
 20
57.14710217324132
 30
0.0
  0
VERTEX
  5
99D
330
994
100
AcDbEntity
  8
Visible (ANSI)
100
AcDbVertex
100
AcDb2dVertex
 10
153.0270450285588
 20
57.14907604479282
 30
0.0
  0
VERTEX
  5
99E
330
994
100
AcDbEntity
  8
Visible (ANSI)
100
AcDbVertex
100
AcDb2dVertex
 10
153.025181058775
 20
57.15113986969047
 30
0.0
  0
VERTEX
  5
99F
330
994
100
AcDbEntity
  8
Visible (ANSI)
100
AcDbVertex
100
AcDb2dVertex
 10
153.0233878291163
 20
57.1532917884041
 30
0.0
  0
VERTEX
  5
9A0
330
994
100
AcDbEntity
  8
Visible (ANSI)
100
AcDbVertex
100
AcDb2dVertex
 10
153.0216666343745
 20
57.15552983938771
 30
0.0
  0
VERTEX
  5
9A1
330
994
100
AcDbEntity
  8
Visible (ANSI)
100
AcDbVertex
100
AcDb2dVertex
 10
153.0200187123022
 20
57.15785198208496
 30
0.0
  0
VERTEX
  5
9A2
330
994
100
AcDbEntity
  8
Visible (ANSI)
100
AcDbVertex
100
AcDb2dVertex
 10
153.0184452093891
 20
57.16025607392364
 30
0.0
  0
VERTEX
  5
9A3
330
994
100
AcDbEntity
  8
Visible (ANSI)
100
AcDbVertex
100
AcDb2dVertex
 10
153.0169471922698
 20
57.16273988347992
 30
0.0
  0
VERTEX
  5
9A4
330
994
100
AcDbEntity
  8
Visible (ANSI)
100
AcDbVertex
100
AcDb2dVertex
 10
153.0155256477241
 20
57.1653010970731
 30
0.0
  0
VERTEX
  5
9A5
330
994
100
AcDbEntity
  8
Visible (ANSI)
100
AcDbVertex
100
AcDb2dVertex
 10
153.0141814826766
 20
57.16793732536043
 30
0.0
  0
VERTEX
  5
9A6
330
994
100
AcDbEntity
  8
Visible (ANSI)
100
AcDbVertex
100
AcDb2dVertex
 10
153.0129155241971
 20
57.17064608355267
 30
0.0
  0
VERTEX
  5
9A7
330
994
100
AcDbEntity
  8
Visible (ANSI)
100
AcDbVertex
100
AcDb2dVertex
 10
153.0117285023883
 20
57.17342482442633
 30
0.0
  0
VERTEX
  5
9A8
330
994
100
AcDbEntity
  8
Visible (ANSI)
100
AcDbVertex
100
AcDb2dVertex
 10
153.010621078906
 20
57.17627090858343
 30
0.0
  0
VERTEX
  5
9A9
330
994
100
AcDbEntity
  8
Visible (ANSI)
100
AcDbVertex
100
AcDb2dVertex
 10
153.0095938127353
 20
57.17918163750178
 30
0.0
  0
VERTEX
  5
9AA
330
994
100
AcDbEntity
  8
Visible (ANSI)
100
AcDbVertex
100
AcDb2dVertex
 10
153.0086471944141
 20
57.18215424026915
 30
0.0
  0
VERTEX
  5
9AB
330
994
100
AcDbEntity
  8
Visible (ANSI)
100
AcDbVertex
100
AcDb2dVertex
 10
153.0077816061055
 20
57.18518587037486
 30
0.0
  0
VERTEX
  5
9AC
330
994
100
AcDbEntity
  8
Visible (ANSI)
100
AcDbVertex
100
AcDb2dVertex
 10
153.0069973672295
 20
57.18827363198721
 30
0.0
  0
VERTEX
  5
9AD
330
994
100
AcDbEntity
  8
Visible (ANSI)
100
AcDbVertex
100
AcDb2dVertex
 10
153.0062946888317
 20
57.19141456027092
 30
0.0
  0
VERTEX
  5
9AE
330
994
100
AcDbEntity
  8
Visible (ANSI)
100
AcDbVertex
100
AcDb2dVertex
 10
153.0056737078061
 20
57.19460562790548
 30
0.0
  0
SEQEND
  5
997
330
994
100
AcDbEntity
  8
Visible (ANSI)
  0
LINE
  5
9AF
330
6C
100
AcDbEntity
  8
Visible (ANSI)
100
AcDbLine
 10
153.3435769437551
 20
57.3396352470209
 30
0.0
 11
153.4588196338397
 21
57.40599909855919
 31
0.0
  0
LINE
  5
9B0
330
6C
100
AcDbEntity
  8
Visible (ANSI)
100
AcDbLine
 10
171.8612385395932
 20
46.35884965772087
 30
0.0
 11
171.8612385395932
 21
46.33606900018853
 31
0.0
  0
LINE
  5
9B1
330
6C
100
AcDbEntity
  8
Visible (ANSI)
100
AcDbLine
 10
171.8612385395932
 20
46.33606900018853
 30
0.0
 11
171.9242110333503
 21
46.3723324475588
 31
0.0
  0
LINE
  5
9B2
330
6C
100
AcDbEntity
  8
Visible (ANSI)
100
AcDbLine
 10
171.9631403220468
 20
46.39475033396568
 30
0.0
 11
172.2106487263904
 21
46.53728094469922
 31
0.0
  0
LINE
  5
9B3
330
6C
100
AcDbEntity
  8
Visible (ANSI)
100
AcDbLine
 10
172.2106487263904
 20
46.53774389965287
 30
0.0
 11
172.2106487263904
 21
46.53728094469922
 31
0.0
  0
POLYLINE
  5
9B4
330
6C
100
AcDbEntity
  8
Visible (ANSI)
100
AcDb2dPolyline
 66
     1
 10
0.0
 20
0.0
 30
0.0
 70
   128
  0
VERTEX
  5
9B5
330
9B4
100
AcDbEntity
  8
Visible (ANSI)
100
AcDbVertex
100
AcDb2dVertex
 10
171.8130566317688
 20
71.4813727169577
 30
0.0
  0
VERTEX
  5
9B6
330
9B4
100
AcDbEntity
  8
Visible (ANSI)
100
AcDbVertex
100
AcDb2dVertex
 10
171.8181868822342
 20
71.47726859776494
 30
0.0
  0
VERTEX
  5
9B8
330
9B4
100
AcDbEntity
  8
Visible (ANSI)
100
AcDbVertex
100
AcDb2dVertex
 10
171.8236212661837
 20
71.47336147367214
 30
0.0
  0
VERTEX
  5
9B9
330
9B4
100
AcDbEntity
  8
Visible (ANSI)
100
AcDbVertex
100
AcDb2dVertex
 10
171.8293357871888
 20
71.46966612889221
 30
0.0
  0
VERTEX
  5
9BA
330
9B4
100
AcDbEntity
  8
Visible (ANSI)
100
AcDbVertex
100
AcDb2dVertex
 10
171.8353050741742
 20
71.46618980295241
 30
0.0
  0
VERTEX
  5
9BB
330
9B4
100
AcDbEntity
  8
Visible (ANSI)
100
AcDbVertex
100
AcDb2dVertex
 10
171.8415038530312
 20
71.46294317427567
 30
0.0
  0
VERTEX
  5
9BC
330
9B4
100
AcDbEntity
  8
Visible (ANSI)
100
AcDbVertex
100
AcDb2dVertex
 10
171.8479069637301
 20
71.45993530522524
 30
0.0
  0
VERTEX
  5
9BD
330
9B4
100
AcDbEntity
  8
Visible (ANSI)
100
AcDbVertex
100
AcDb2dVertex
 10
171.8544864627234
 20
71.45717027218717
 30
0.0
  0
VERTEX
  5
9BE
330
9B4
100
AcDbEntity
  8
Visible (ANSI)
100
AcDbVertex
100
AcDb2dVertex
 10
171.8612131230799
 20
71.45465816557501
 30
0.0
  0
VERTEX
  5
9BF
330
9B4
100
AcDbEntity
  8
Visible (ANSI)
100
AcDbVertex
100
AcDb2dVertex
 10
171.8680579346179
 20
71.45240076578757
 30
0.0
  0
VERTEX
  5
9C0
330
9B4
100
AcDbEntity
  8
Visible (ANSI)
100
AcDbVertex
100
AcDb2dVertex
 10
171.8749935869261
 20
71.45040253335963
 30
0.0
  0
VERTEX
  5
9C1
330
9B4
100
AcDbEntity
  8
Visible (ANSI)
100
AcDbVertex
100
AcDb2dVertex
 10
171.8819901628978
 20
71.44866810948307
 30
0.0
  0
VERTEX
  5
9C2
330
9B4
100
AcDbEntity
  8
Visible (ANSI)
100
AcDbVertex
100
AcDb2dVertex
 10
171.8890151786587
 20
71.44719727419007
 30
0.0
  0
VERTEX
  5
9C3
330
9B4
100
AcDbEntity
  8
Visible (ANSI)
100
AcDbVertex
100
AcDb2dVertex
 10
171.8960409387822
 20
71.44599090279367
 30
0.0
  0
VERTEX
  5
9C4
330
9B4
100
AcDbEntity
  8
Visible (ANSI)
100
AcDbVertex
100
AcDb2dVertex
 10
171.9030373094126
 20
71.44505014816175
 30
0.0
  0
VERTEX
  5
9C5
330
9B4
100
AcDbEntity
  8
Visible (ANSI)
100
AcDbVertex
100
AcDb2dVertex
 10
171.9099732355093
 20
71.44437056787793
 30
0.0
  0
VERTEX
  5
9C6
330
9B4
100
AcDbEntity
  8
Visible (ANSI)
100
AcDbVertex
100
AcDb2dVertex
 10
171.9168182695005
 20
71.44395314066973
 30
0.0
  0
VERTEX
  5
9C7
330
9B4
100
AcDbEntity
  8
Visible (ANSI)
100
AcDbVertex
100
AcDb2dVertex
 10
171.923545577253
 20
71.44378912776694
 30
0.0
  0
VERTEX
  5
9C8
330
9B4
100
AcDbEntity
  8
Visible (ANSI)
100
AcDbVertex
100
AcDb2dVertex
 10
171.9301247069169
 20
71.4438761354106
 30
0.0
  0
VERTEX
  5
9C9
330
9B4
100
AcDbEntity
  8
Visible (ANSI)
100
AcDbVertex
100
AcDb2dVertex
 10
171.9365275081776
 20
71.44420973170142
 30
0.0
  0
VERTEX
  5
9CA
330
9B4
100
AcDbEntity
  8
Visible (ANSI)
100
AcDbVertex
100
AcDb2dVertex
 10
171.9427267590348
 20
71.44477927275826
 30
0.0
  0
VERTEX
  5
9CB
330
9B4
100
AcDbEntity
  8
Visible (ANSI)
100
AcDbVertex
100
AcDb2dVertex
 10
171.9486962514507
 20
71.4455797699281
 30
0.0
  0
VERTEX
  5
9CC
330
9B4
100
AcDbEntity
  8
Visible (ANSI)
100
AcDbVertex
100
AcDb2dVertex
 10
171.9544094151881
 20
71.44659927290202
 30
0.0
  0
VERTEX
  5
9CD
330
9B4
100
AcDbEntity
  8
Visible (ANSI)
100
AcDbVertex
100
AcDb2dVertex
 10
171.9598437895122
 20
71.44782821742602
 30
0.0
  0
VERTEX
  5
9CE
330
9B4
100
AcDbEntity
  8
Visible (ANSI)
100
AcDbVertex
100
AcDb2dVertex
 10
171.9649738111075
 20
71.44925861609505
 30
0.0
  0
SEQEND
  5
9B7
330
9B4
100
AcDbEntity
  8
Visible (ANSI)
  0
POLYLINE
  5
9CF
330
6C
100
AcDbEntity
  8
Visible (ANSI)
100
AcDb2dPolyline
 66
     1
 10
0.0
 20
0.0
 30
0.0
 70
   128
  0
VERTEX
  5
9D0
330
9CF
100
AcDbEntity
  8
Visible (ANSI)
100
AcDbVertex
100
AcDb2dVertex
 10
171.9649738111075
 20
46.39626965665483
 30
0.0
  0
VERTEX
  5
9D1
330
9CF
100
AcDbEntity
  8
Visible (ANSI)
100
AcDbVertex
100
AcDb2dVertex
 10
171.9598437895122
 20
46.39216400981276
 30
0.0
  0
VERTEX
  5
9D3
330
9CF
100
AcDbEntity
  8
Visible (ANSI)
100
AcDbVertex
100
AcDb2dVertex
 10
171.9544094151881
 20
46.38825812884588
 30
0.0
  0
VERTEX
  5
9D4
330
9CF
100
AcDbEntity
  8
Visible (ANSI)
100
AcDbVertex
100
AcDb2dVertex
 10
171.9486962514507
 20
46.3845616894291
 30
0.0
  0
VERTEX
  5
9D5
330
9CF
100
AcDbEntity
  8
Visible (ANSI)
100
AcDbVertex
100
AcDb2dVertex
 10
171.9427267590348
 20
46.38108594408618
 30
0.0
  0
VERTEX
  5
9D6
330
9CF
100
AcDbEntity
  8
Visible (ANSI)
100
AcDbVertex
100
AcDb2dVertex
 10
171.9365275081776
 20
46.37783945339688
 30
0.0
  0
VERTEX
  5
9D7
330
9CF
100
AcDbEntity
  8
Visible (ANSI)
100
AcDbVertex
100
AcDb2dVertex
 10
171.9301247069169
 20
46.374830608933
 30
0.0
  0
VERTEX
  5
9D8
330
9CF
100
AcDbEntity
  8
Visible (ANSI)
100
AcDbVertex
100
AcDb2dVertex
 10
171.923545577253
 20
46.37206666484646
 30
0.0
  0
VERTEX
  5
9D9
330
9CF
100
AcDbEntity
  8
Visible (ANSI)
100
AcDbVertex
100
AcDb2dVertex
 10
171.9168182695005
 20
46.36955374130638
 30
0.0
  0
VERTEX
  5
9DA
330
9CF
100
AcDbEntity
  8
Visible (ANSI)
100
AcDbVertex
100
AcDb2dVertex
 10
171.9099732355093
 20
46.36729591374673
 30
0.0
  0
VERTEX
  5
9DB
330
9CF
100
AcDbEntity
  8
Visible (ANSI)
100
AcDbVertex
100
AcDb2dVertex
 10
171.9030373094126
 20
46.36529855758768
 30
0.0
  0
VERTEX
  5
9DC
330
9CF
100
AcDbEntity
  8
Visible (ANSI)
100
AcDbVertex
100
AcDb2dVertex
 10
171.8960409387822
 20
46.36356406404654
 30
0.0
  0
VERTEX
  5
9DD
330
9CF
100
AcDbEntity
  8
Visible (ANSI)
100
AcDbVertex
100
AcDb2dVertex
 10
171.8890151786587
 20
46.36209349240528
 30
0.0
  0
VERTEX
  5
9DE
330
9CF
100
AcDbEntity
  8
Visible (ANSI)
100
AcDbVertex
100
AcDb2dVertex
 10
171.8819901628978
 20
46.36088739125537
 30
0.0
  0
VERTEX
  5
9DF
330
9CF
100
AcDbEntity
  8
Visible (ANSI)
100
AcDbVertex
100
AcDb2dVertex
 10
171.8749935869261
 20
46.35994656036408
 30
0.0
  0
VERTEX
  5
9E0
330
9CF
100
AcDbEntity
  8
Visible (ANSI)
100
AcDbVertex
100
AcDb2dVertex
 10
171.8680579346179
 20
46.35926785634915
 30
0.0
  0
VERTEX
  5
9E1
330
9CF
100
AcDbEntity
  8
Visible (ANSI)
100
AcDbVertex
100
AcDb2dVertex
 10
171.86121312308
 20
46.35884831309892
 30
0.0
  0
VERTEX
  5
9E2
330
9CF
100
AcDbEntity
  8
Visible (ANSI)
100
AcDbVertex
100
AcDb2dVertex
 10
171.8544864627234
 20
46.35868517153801
 30
0.0
  0
VERTEX
  5
9E3
330
9CF
100
AcDbEntity
  8
Visible (ANSI)
100
AcDbVertex
100
AcDb2dVertex
 10
171.8479069637301
 20
46.35877326813321
 30
0.0
  0
VERTEX
  5
9E4
330
9CF
100
AcDbEntity
  8
Visible (ANSI)
100
AcDbVertex
100
AcDb2dVertex
 10
171.8415038530312
 20
46.35910588241578
 30
0.0
  0
VERTEX
  5
9E5
330
9CF
100
AcDbEntity
  8
Visible (ANSI)
100
AcDbVertex
100
AcDb2dVertex
 10
171.8353050741742
 20
46.35967557464965
 30
0.0
  0
VERTEX
  5
9E6
330
9CF
100
AcDbEntity
  8
Visible (ANSI)
100
AcDbVertex
100
AcDb2dVertex
 10
171.8293357871888
 20
46.3604749575518
 30
0.0
  0
VERTEX
  5
9E7
330
9CF
100
AcDbEntity
  8
Visible (ANSI)
100
AcDbVertex
100
AcDb2dVertex
 10
171.8236212661837
 20
46.36149505415866
 30
0.0
  0
VERTEX
  5
9E8
330
9CF
100
AcDbEntity
  8
Visible (ANSI)
100
AcDbVertex
100
AcDb2dVertex
 10
171.8181868822342
 20
46.36272524180859
 30
0.0
  0
VERTEX
  5
9E9
330
9CF
100
AcDbEntity
  8
Visible (ANSI)
100
AcDbVertex
100
AcDb2dVertex
 10
171.8130566317688
 20
46.3641541062335
 30
0.0
  0
SEQEND
  5
9D2
330
9CF
100
AcDbEntity
  8
Visible (ANSI)
  0
LINE
  5
9EA
330
6C
100
AcDbEntity
  8
Visible (ANSI)
100
AcDbLine
 10
171.9042979440136
 20
71.48430348875898
 30
0.0
 11
172.2536174763904
 21
71.68546322886091
 31
0.0
  0
LINE
  5
9EB
330
6C
100
AcDbEntity
  8
Visible (ANSI)
100
AcDbLine
 10
172.3143844653987
 20
46.59748133877116
 30
0.0
 11
171.9649742786015
 21
46.39626939426046
 31
0.0
  0
LINE
  5
9EC
330
6C
100
AcDbEntity
  8
Visible (ANSI)
100
AcDbLine
 10
171.906767453131
 20
71.48277698422053
 30
0.0
 11
171.9649742786015
 21
71.44925790269619
 31
0.0
  0
POLYLINE
  5
9ED
330
6C
100
AcDbEntity
  8
Visible (ANSI)
100
AcDb2dPolyline
 66
     1
 10
0.0
 20
0.0
 30
0.0
 70
   128
  0
VERTEX
  5
9EE
330
9ED
100
AcDbEntity
  8
Visible (ANSI)
100
AcDbVertex
100
AcDb2dVertex
 10
171.8738236198644
 20
71.51636609808619
 30
0.0
  0
VERTEX
  5
9EF
330
9ED
100
AcDbEntity
  8
Visible (ANSI)
100
AcDbVertex
100
AcDb2dVertex
 10
171.8747590276567
 20
71.51463640579668
 30
0.0
  0
VERTEX
  5
9F1
330
9ED
100
AcDbEntity
  8
Visible (ANSI)
100
AcDbVertex
100
AcDb2dVertex
 10
171.8757457375261
 20
71.51293961991483
 30
0.0
  0
VERTEX
  5
9F2
330
9ED
100
AcDbEntity
  8
Visible (ANSI)
100
AcDbVertex
100
AcDb2dVertex
 10
171.8767790778685
 20
71.51127809550236
 30
0.0
  0
VERTEX
  5
9F3
330
9ED
100
AcDbEntity
  8
Visible (ANSI)
100
AcDbVertex
100
AcDb2dVertex
 10
171.8778556444327
 20
71.50965154741783
 30
0.0
  0
VERTEX
  5
9F4
330
9ED
100
AcDbEntity
  8
Visible (ANSI)
100
AcDbVertex
100
AcDb2dVertex
 10
171.8789733021001
 20
71.50806380442097
 30
0.0
  0
VERTEX
  5
9F5
330
9ED
100
AcDbEntity
  8
Visible (ANSI)
100
AcDbVertex
100
AcDb2dVertex
 10
171.8801268065538
 20
71.50651520350018
 30
0.0
  0
VERTEX
  5
9F6
330
9ED
100
AcDbEntity
  8
Visible (ANSI)
100
AcDbVertex
100
AcDb2dVertex
 10
171.881310728099
 20
71.50500766316182
 30
0.0
  0
VERTEX
  5
9F7
330
9ED
100
AcDbEntity
  8
Visible (ANSI)
100
AcDbVertex
100
AcDb2dVertex
 10
171.8825238354893
 20
71.50353878610831
 30
0.0
  0
VERTEX
  5
9F8
330
9ED
100
AcDbEntity
  8
Visible (ANSI)
100
AcDbVertex
100
AcDb2dVertex
 10
171.8837588793878
 20
71.50211450127642
 30
0.0
  0
VERTEX
  5
9F9
330
9ED
100
AcDbEntity
  8
Visible (ANSI)
100
AcDbVertex
100
AcDb2dVertex
 10
171.8850142788256
 20
71.50073220997701
 30
0.0
  0
VERTEX
  5
9FA
330
9ED
100
AcDbEntity
  8
Visible (ANSI)
100
AcDbVertex
100
AcDb2dVertex
 10
171.8862824452604
 20
71.49939426927177
 30
0.0
  0
VERTEX
  5
9FB
330
9ED
100
AcDbEntity
  8
Visible (ANSI)
100
AcDbVertex
100
AcDb2dVertex
 10
171.8875614707279
 20
71.49809789216734
 30
0.0
  0
VERTEX
  5
9FC
330
9ED
100
AcDbEntity
  8
Visible (ANSI)
100
AcDbVertex
100
AcDb2dVertex
 10
171.8888449121058
 20
71.49684779011547
 30
0.0
  0
VERTEX
  5
9FD
330
9ED
100
AcDbEntity
  8
Visible (ANSI)
100
AcDbVertex
100
AcDb2dVertex
 10
171.8901291014113
 20
71.49564184434871
 30
0.0
  0
VERTEX
  5
9FE
330
9ED
100
AcDbEntity
  8
Visible (ANSI)
100
AcDbVertex
100
AcDb2dVertex
 10
171.891410231985
 20
71.49447954451087
 30
0.0
  0
VERTEX
  5
9FF
330
9ED
100
AcDbEntity
  8
Visible (ANSI)
100
AcDbVertex
100
AcDb2dVertex
 10
171.892681445922
 20
71.49336029838678
 30
0.0
  0
VERTEX
  5
A00
330
9ED
100
AcDbEntity
  8
Visible (ANSI)
100
AcDbVertex
100
AcDb2dVertex
 10
171.8939401454392
 20
71.49228598655234
 30
0.0
  0
VERTEX
  5
A01
330
9ED
100
AcDbEntity
  8
Visible (ANSI)
100
AcDbVertex
100
AcDb2dVertex
 10
171.8951821609646
 20
71.49125420139407
 30
0.0
  0
VERTEX
  5
A02
330
9ED
100
AcDbEntity
  8
Visible (ANSI)
100
AcDbVertex
100
AcDb2dVertex
 10
171.896400299131
 20
71.49026584578677
 30
0.0
  0
VERTEX
  5
A03
330
9ED
100
AcDbEntity
  8
Visible (ANSI)
100
AcDbVertex
100
AcDb2dVertex
 10
171.8975931168445
 20
71.48931671868492
 30
0.0
  0
VERTEX
  5
A04
330
9ED
100
AcDbEntity
  8
Visible (ANSI)
100
AcDbVertex
100
AcDb2dVertex
 10
171.8987547076867
 20
71.48841015885437
 30
0.0
  0
VERTEX
  5
A05
330
9ED
100
AcDbEntity
  8
Visible (ANSI)
100
AcDbVertex
100
AcDb2dVertex
 10
171.8998820143517
 20
71.48754271744
 30
0.0
  0
VERTEX
  5
A06
330
9ED
100
AcDbEntity
  8
Visible (ANSI)
100
AcDbVertex
100
AcDb2dVertex
 10
171.9009704608628
 20
71.48671344106515
 30
0.0
  0
VERTEX
  5
A07
330
9ED
100
AcDbEntity
  8
Visible (ANSI)
100
AcDbVertex
100
AcDb2dVertex
 10
171.9020168779745
 20
71.48591881641287
 30
0.0
  0
SEQEND
  5
9F0
330
9ED
100
AcDbEntity
  8
Visible (ANSI)
  0
LINE
  5
A08
330
6C
100
AcDbEntity
  8
Visible (ANSI)
100
AcDbLine
 10
171.8738237950891
 20
71.51636667248893
 30
0.0
 11
171.8713321531747
 21
71.51493183133786
 31
0.0
  0
LINE
  5
A09
330
6C
100
AcDbEntity
  8
Visible (ANSI)
100
AcDbLine
 10
171.8713321531747
 20
71.51493183133786
 30
0.0
 11
171.8130568060809
 21
71.48137329083489
 31
0.0
  0
LINE
  5
A0A
330
6C
100
AcDbEntity
  8
Visible (ANSI)
100
AcDbLine
 10
171.9649742786015
 20
71.44925790269619
 30
0.0
 11
172.3143844653986
 21
71.65046984720689
 31
0.0
  0
LINE
  5
A0B
330
6C
100
AcDbEntity
  8
Visible (ANSI)
100
AcDbLine
 10
172.2536174763904
 20
71.68546322886091
 30
0.0
 11
172.3143844653986
 21
71.65046984720689
 31
0.0
  0
POLYLINE
  5
A0C
330
6C
100
AcDbEntity
  8
Visible (ANSI)
100
AcDb2dPolyline
 66
     1
 10
0.0
 20
0.0
 30
0.0
 70
   128
  0
VERTEX
  5
A0D
330
A0C
100
AcDbEntity
  8
Visible (ANSI)
100
AcDbVertex
100
AcDb2dVertex
 10
153.0056737078061
 20
82.3118242386297
 30
0.0
  0
VERTEX
  5
A0E
330
A0C
100
AcDbEntity
  8
Visible (ANSI)
100
AcDbVertex
100
AcDb2dVertex
 10
153.0069937167151
 20
82.31699658348588
 30
0.0
  0
VERTEX
  5
A10
330
A0C
100
AcDbEntity
  8
Visible (ANSI)
100
AcDbVertex
100
AcDb2dVertex
 10
153.0086382962851
 20
82.32232883040738
 30
0.0
  0
VERTEX
  5
A11
330
A0C
100
AcDbEntity
  8
Visible (ANSI)
100
AcDbVertex
100
AcDb2dVertex
 10
153.0106053588782
 20
82.32779951139633
 30
0.0
  0
VERTEX
  5
A12
330
A0C
100
AcDbEntity
  8
Visible (ANSI)
100
AcDbVertex
100
AcDb2dVertex
 10
153.0128914422096
 20
82.33337961376918
 30
0.0
  0
VERTEX
  5
A13
330
A0C
100
AcDbEntity
  8
Visible (ANSI)
100
AcDbVertex
100
AcDb2dVertex
 10
153.0154917036438
 20
82.33904272619888
 30
0.0
  0
VERTEX
  5
A14
330
A0C
100
AcDbEntity
  8
Visible (ANSI)
100
AcDbVertex
100
AcDb2dVertex
 10
153.0183999772337
 20
82.34476333730643
 30
0.0
  0
VERTEX
  5
A15
330
A0C
100
AcDbEntity
  8
Visible (ANSI)
100
AcDbVertex
100
AcDb2dVertex
 10
153.0216087509049
 20
82.35051349853728
 30
0.0
  0
VERTEX
  5
A16
330
A0C
100
AcDbEntity
  8
Visible (ANSI)
100
AcDbVertex
100
AcDb2dVertex
 10
153.0251092463113
 20
82.35626451243119
 30
0.0
  0
VERTEX
  5
A17
330
A0C
100
AcDbEntity
  8
Visible (ANSI)
100
AcDbVertex
100
AcDb2dVertex
 10
153.0288914416497
 20
82.36199034200861
 30
0.0
  0
VERTEX
  5
A18
330
A0C
100
AcDbEntity
  8
Visible (ANSI)
100
AcDbVertex
100
AcDb2dVertex
 10
153.0329440773648
 20
82.36766256895387
 30
0.0
  0
VERTEX
  5
A19
330
A0C
100
AcDbEntity
  8
Visible (ANSI)
100
AcDbVertex
100
AcDb2dVertex
 10
153.0372547702271
 20
82.37325378986296
 30
0.0
  0
VERTEX
  5
A1A
330
A0C
100
AcDbEntity
  8
Visible (ANSI)
100
AcDbVertex
100
AcDb2dVertex
 10
153.0418100076292
 20
82.3787393537834
 30
0.0
  0
VERTEX
  5
A1B
330
A0C
100
AcDbEntity
  8
Visible (ANSI)
100
AcDbVertex
100
AcDb2dVertex
 10
153.0465952474046
 20
82.38409061406199
 30
0.0
  0
VERTEX
  5
A1C
330
A0C
100
AcDbEntity
  8
Visible (ANSI)
100
AcDbVertex
100
AcDb2dVertex
 10
153.0515949463474
 20
82.38928175040227
 30
0.0
  0
VERTEX
  5
A1D
330
A0C
100
AcDbEntity
  8
Visible (ANSI)
100
AcDbVertex
100
AcDb2dVertex
 10
153.0567926571789
 20
82.39428977871844
 30
0.0
  0
VERTEX
  5
A1E
330
A0C
100
AcDbEntity
  8
Visible (ANSI)
100
AcDbVertex
100
AcDb2dVertex
 10
153.0621710798828
 20
82.39908784732639
 30
0.0
  0
VERTEX
  5
A1F
330
A0C
100
AcDbEntity
  8
Visible (ANSI)
100
AcDbVertex
100
AcDb2dVertex
 10
153.0677121301529
 20
82.40365542568651
 30
0.0
  0
VERTEX
  5
A20
330
A0C
100
AcDbEntity
  8
Visible (ANSI)
100
AcDbVertex
100
AcDb2dVertex
 10
153.0733970434896
 20
82.40796819531423
 30
0.0
  0
VERTEX
  5
A21
330
A0C
100
AcDbEntity
  8
Visible (ANSI)
100
AcDbVertex
100
AcDb2dVertex
 10
153.0792064308126
 20
82.41200486116206
 30
0.0
  0
VERTEX
  5
A22
330
A0C
100
AcDbEntity
  8
Visible (ANSI)
100
AcDbVertex
100
AcDb2dVertex
 10
153.0851203825586
 20
82.41574550358711
 30
0.0
  0
VERTEX
  5
A23
330
A0C
100
AcDbEntity
  8
Visible (ANSI)
100
AcDbVertex
100
AcDb2dVertex
 10
153.0911185086972
 20
82.41917165394996
 30
0.0
  0
VERTEX
  5
A24
330
A0C
100
AcDbEntity
  8
Visible (ANSI)
100
AcDbVertex
100
AcDb2dVertex
 10
153.097180091222
 20
82.4222663035961
 30
0.0
  0
VERTEX
  5
A25
330
A0C
100
AcDbEntity
  8
Visible (ANSI)
100
AcDbVertex
100
AcDb2dVertex
 10
153.1032841296041
 20
82.42501060604595
 30
0.0
  0
VERTEX
  5
A26
330
A0C
100
AcDbEntity
  8
Visible (ANSI)
100
AcDbVertex
100
AcDb2dVertex
 10
153.1094094411451
 20
82.42739405126467
 30
0.0
  0
SEQEND
  5
A0F
330
A0C
100
AcDbEntity
  8
Visible (ANSI)
  0
POLYLINE
  5
A27
330
6C
100
AcDbEntity
  8
Visible (ANSI)
100
AcDb2dPolyline
 66
     1
 10
0.0
 20
0.0
 30
0.0
 70
   128
  0
VERTEX
  5
A28
330
A27
100
AcDbEntity
  8
Visible (ANSI)
100
AcDbVertex
100
AcDb2dVertex
 10
171.861237872427
 20
71.62893423424519
 30
0.0
  0
VERTEX
  5
A29
330
A27
100
AcDbEntity
  8
Visible (ANSI)
100
AcDbVertex
100
AcDb2dVertex
 10
171.8574278768526
 20
71.62521748723564
 30
0.0
  0
VERTEX
  5
A2B
330
A27
100
AcDbEntity
  8
Visible (ANSI)
100
AcDbVertex
100
AcDb2dVertex
 10
171.8536391544371
 20
71.62113988299498
 30
0.0
  0
VERTEX
  5
A2C
330
A27
100
AcDbEntity
  8
Visible (ANSI)
100
AcDbVertex
100
AcDb2dVertex
 10
171.8498914276731
 20
71.61671277243458
 30
0.0
  0
VERTEX
  5
A2D
330
A27
100
AcDbEntity
  8
Visible (ANSI)
100
AcDbVertex
100
AcDb2dVertex
 10
171.8462086175011
 20
71.61195332028092
 30
0.0
  0
VERTEX
  5
A2E
330
A27
100
AcDbEntity
  8
Visible (ANSI)
100
AcDbVertex
100
AcDb2dVertex
 10
171.8426099931295
 20
71.60687936949571
 30
0.0
  0
VERTEX
  5
A2F
330
A27
100
AcDbEntity
  8
Visible (ANSI)
100
AcDbVertex
100
AcDb2dVertex
 10
171.8391144615672
 20
71.60151024273367
 30
0.0
  0
VERTEX
  5
A30
330
A27
100
AcDbEntity
  8
Visible (ANSI)
100
AcDbVertex
100
AcDb2dVertex
 10
171.8357448641971
 20
71.59586417131513
 30
0.0
  0
VERTEX
  5
A31
330
A27
100
AcDbEntity
  8
Visible (ANSI)
100
AcDbVertex
100
AcDb2dVertex
 10
171.8325176696877
 20
71.58996413204075
 30
0.0
  0
VERTEX
  5
A32
330
A27
100
AcDbEntity
  8
Visible (ANSI)
100
AcDbVertex
100
AcDb2dVertex
 10
171.8294545686543
 20
71.5838327583573
 30
0.0
  0
VERTEX
  5
A33
330
A27
100
AcDbEntity
  8
Visible (ANSI)
100
AcDbVertex
100
AcDb2dVertex
 10
171.8265721737894
 20
71.57749142825029
 30
0.0
  0
VERTEX
  5
A34
330
A27
100
AcDbEntity
  8
Visible (ANSI)
100
AcDbVertex
100
AcDb2dVertex
 10
171.8238863306074
 20
71.57096783099581
 30
0.0
  0
VERTEX
  5
A35
330
A27
100
AcDbEntity
  8
Visible (ANSI)
100
AcDbVertex
100
AcDb2dVertex
 10
171.8214164125024
 20
71.56428326564172
 30
0.0
  0
VERTEX
  5
A36
330
A27
100
AcDbEntity
  8
Visible (ANSI)
100
AcDbVertex
100
AcDb2dVertex
 10
171.8191750308611
 20
71.55746524080704
 30
0.0
  0
VERTEX
  5
A37
330
A27
100
AcDbEntity
  8
Visible (ANSI)
100
AcDbVertex
100
AcDb2dVertex
 10
171.8171796596693
 20
71.55054071482246
 30
0.0
  0
VERTEX
  5
A38
330
A27
100
AcDbEntity
  8
Visible (ANSI)
100
AcDbVertex
100
AcDb2dVertex
 10
171.8154423399208
 20
71.54353518608639
 30
0.0
  0
VERTEX
  5
A39
330
A27
100
AcDbEntity
  8
Visible (ANSI)
100
AcDbVertex
100
AcDb2dVertex
 10
171.8139740060471
 20
71.53647689231006
 30
0.0
  0
VERTEX
  5
A3A
330
A27
100
AcDbEntity
  8
Visible (ANSI)
100
AcDbVertex
100
AcDb2dVertex
 10
171.8127888266073
 20
71.52939257662531
 30
0.0
  0
VERTEX
  5
A3B
330
A27
100
AcDbEntity
  8
Visible (ANSI)
100
AcDbVertex
100
AcDb2dVertex
 10
171.8118939086968
 20
71.52230995448023
 30
0.0
  0
VERTEX
  5
A3C
330
A27
100
AcDbEntity
  8
Visible (ANSI)
100
AcDbVertex
100
AcDb2dVertex
 10
171.8113009567774
 20
71.51525603829718
 30
0.0
  0
VERTEX
  5
A3D
330
A27
100
AcDbEntity
  8
Visible (ANSI)
100
AcDbVertex
100
AcDb2dVertex
 10
171.8110160113098
 20
71.50825962407667
 30
0.0
  0
VERTEX
  5
A3E
330
A27
100
AcDbEntity
  8
Visible (ANSI)
100
AcDbVertex
100
AcDb2dVertex
 10
171.8110437894431
 20
71.50134705750492
 30
0.0
  0
VERTEX
  5
A3F
330
A27
100
AcDbEntity
  8
Visible (ANSI)
100
AcDbVertex
100
AcDb2dVertex
 10
171.8113920428166
 20
71.49454307472514
 30
0.0
  0
VERTEX
  5
A40
330
A27
100
AcDbEntity
  8
Visible (ANSI)
100
AcDbVertex
100
AcDb2dVertex
 10
171.8120627792131
 20
71.48787752601283
 30
0.0
  0
VERTEX
  5
A41
330
A27
100
AcDbEntity
  8
Visible (ANSI)
100
AcDbVertex
100
AcDb2dVertex
 10
171.8130566317688
 20
71.4813727169577
 30
0.0
  0
SEQEND
  5
A2A
330
A27
100
AcDbEntity
  8
Visible (ANSI)
  0
LINE
  5
A42
330
6C
100
AcDbEntity
  8
Visible (ANSI)
100
AcDbLine
 10
171.8613250862436
 20
71.55872505786476
 30
0.0
 11
172.2106487263904
 21
71.75988716347416
 31
0.0
  0
LINE
  5
A43
330
6C
100
AcDbEntity
  8
Visible (ANSI)
100
AcDbLine
 10
172.2106487263904
 20
71.83014511951532
 30
0.0
 11
171.8612385395932
 21
71.6289331750046
 31
0.0
  0
LINE
  5
A44
330
6C
100
AcDbEntity
  8
Visible (ANSI)
100
AcDbLine
 10
171.8612385395932
 20
71.56155602103952
 30
0.0
 11
171.8612385395932
 21
71.6289331750046
 31
0.0
  0
LINE
  5
A45
330
6C
100
AcDbEntity
  8
Visible (ANSI)
100
AcDbLine
 10
172.2106487263904
 20
71.75988716347416
 30
0.0
 11
172.2106487263904
 21
71.83014511951532
 31
0.0
  0
POLYLINE
  5
A46
330
6C
100
AcDbEntity
  8
Visible (ANSI)
100
AcDb2dPolyline
 66
     1
 10
0.0
 20
0.0
 30
0.0
 70
   128
  0
VERTEX
  5
A47
330
A46
100
AcDbEntity
  8
Visible (ANSI)
100
AcDbVertex
100
AcDb2dVertex
 10
171.8738236198644
 20
71.51636609808619
 30
0.0
  0
VERTEX
  5
A48
330
A46
100
AcDbEntity
  8
Visible (ANSI)
100
AcDbVertex
100
AcDb2dVertex
 10
171.872792224882
 20
71.51804322035385
 30
0.0
  0
VERTEX
  5
A4A
330
A46
100
AcDbEntity
  8
Visible (ANSI)
100
AcDbVertex
100
AcDb2dVertex
 10
171.8718137803118
 20
71.51974913994947
 30
0.0
  0
VERTEX
  5
A4B
330
A46
100
AcDbEntity
  8
Visible (ANSI)
100
AcDbVertex
100
AcDb2dVertex
 10
171.8708909135624
 20
71.52147694158123
 30
0.0
  0
VERTEX
  5
A4C
330
A46
100
AcDbEntity
  8
Visible (ANSI)
100
AcDbVertex
100
AcDb2dVertex
 10
171.8700202170067
 20
71.52322633816385
 30
0.0
  0
VERTEX
  5
A4D
330
A46
100
AcDbEntity
  8
Visible (ANSI)
100
AcDbVertex
100
AcDb2dVertex
 10
171.8692039314535
 20
71.52498850350756
 30
0.0
  0
VERTEX
  5
A4E
330
A46
100
AcDbEntity
  8
Visible (ANSI)
100
AcDbVertex
100
AcDb2dVertex
 10
171.868438266887
 20
71.52676461859384
 30
0.0
  0
VERTEX
  5
A4F
330
A46
100
AcDbEntity
  8
Visible (ANSI)
100
AcDbVertex
100
AcDb2dVertex
 10
171.8677250872888
 20
71.52854732850251
 30
0.0
  0
VERTEX
  5
A50
330
A46
100
AcDbEntity
  8
Visible (ANSI)
100
AcDbVertex
100
AcDb2dVertex
 10
171.8670602326232
 20
71.53033253632523
 30
0.0
  0
VERTEX
  5
A51
330
A46
100
AcDbEntity
  8
Visible (ANSI)
100
AcDbVertex
100
AcDb2dVertex
 10
171.8664452050733
 20
71.5321160553356
 30
0.0
  0
VERTEX
  5
A52
330
A46
100
AcDbEntity
  8
Visible (ANSI)
100
AcDbVertex
100
AcDb2dVertex
 10
171.8658754925642
 20
71.53389527416909
 30
0.0
  0
VERTEX
  5
A53
330
A46
100
AcDbEntity
  8
Visible (ANSI)
100
AcDbVertex
100
AcDb2dVertex
 10
171.8653507958177
 20
71.53566496219015
 30
0.0
  0
VERTEX
  5
A54
330
A46
100
AcDbEntity
  8
Visible (ANSI)
100
AcDbVertex
100
AcDb2dVertex
 10
171.8648706537068
 20
71.53741979556065
 30
0.0
  0
VERTEX
  5
A55
330
A46
100
AcDbEntity
  8
Visible (ANSI)
100
AcDbVertex
100
AcDb2dVertex
 10
171.8644300704812
 20
71.53915688438594
 30
0.0
  0
VERTEX
  5
A56
330
A46
100
AcDbEntity
  8
Visible (ANSI)
100
AcDbVertex
100
AcDb2dVertex
 10
171.8640297434462
 20
71.5408732667111
 30
0.0
  0
VERTEX
  5
A57
330
A46
100
AcDbEntity
  8
Visible (ANSI)
100
AcDbVertex
100
AcDb2dVertex
 10
171.8636643900507
 20
71.54256251094442
 30
0.0
  0
VERTEX
  5
A58
330
A46
100
AcDbEntity
  8
Visible (ANSI)
100
AcDbVertex
100
AcDb2dVertex
 10
171.8633344384458
 20
71.54422150013535
 30
0.0
  0
VERTEX
  5
A59
330
A46
100
AcDbEntity
  8
Visible (ANSI)
100
AcDbVertex
100
AcDb2dVertex
 10
171.8630343526122
 20
71.54584872153889
 30
0.0
  0
VERTEX
  5
A5A
330
A46
100
AcDbEntity
  8
Visible (ANSI)
100
AcDbVertex
100
AcDb2dVertex
 10
171.8627643271964
 20
71.54743754719859
 30
0.0
  0
VERTEX
  5
A5B
330
A46
100
AcDbEntity
  8
Visible (ANSI)
100
AcDbVertex
100
AcDb2dVertex
 10
171.8625186112122
 20
71.54898634057826
 30
0.0
  0
VERTEX
  5
A5C
330
A46
100
AcDbEntity
  8
Visible (ANSI)
100
AcDbVertex
100
AcDb2dVertex
 10
171.8622972032335
 20
71.55049004908059
 30
0.0
  0
VERTEX
  5
A5D
330
A46
100
AcDbEntity
  8
Visible (ANSI)
100
AcDbVertex
100
AcDb2dVertex
 10
171.8620941790175
 20
71.55194862466723
 30
0.0
  0
VERTEX
  5
A5E
330
A46
100
AcDbEntity
  8
Visible (ANSI)
100
AcDbVertex
100
AcDb2dVertex
 10
171.8619093838449
 20
71.55335523819541
 30
0.0
  0
VERTEX
  5
A5F
330
A46
100
AcDbEntity
  8
Visible (ANSI)
100
AcDbVertex
100
AcDb2dVertex
 10
171.8617367608564
 20
71.5547080769883
 30
0.0
  0
VERTEX
  5
A60
330
A46
100
AcDbEntity
  8
Visible (ANSI)
100
AcDbVertex
100
AcDb2dVertex
 10
171.8615760483842
 20
71.55600531512497
 30
0.0
  0
SEQEND
  5
A49
330
A46
100
AcDbEntity
  8
Visible (ANSI)
  0
LINE
  5
A61
330
6C
100
AcDbEntity
  8
Visible (ANSI)
100
AcDbLine
 10
153.1094094470425
 20
82.42739337282342
 30
0.0
 11
153.4588196338397
 21
82.62860531733414
 31
0.0
  0
POLYLINE
  5
A62
330
6C
100
AcDbEntity
  8
Visible (ANSI)
100
AcDb2dPolyline
 66
     1
 10
0.0
 20
0.0
 30
0.0
 70
   128
  0
VERTEX
  5
A63
330
A62
100
AcDbEntity
  8
Visible (ANSI)
100
AcDbVertex
100
AcDb2dVertex
 10
153.0056737078061
 20
57.19460562790548
 30
0.0
  0
VERTEX
  5
A64
330
A62
100
AcDbEntity
  8
Visible (ANSI)
100
AcDbVertex
100
AcDb2dVertex
 10
153.0032290780695
 20
57.19672930523781
 30
0.0
  0
VERTEX
  5
A66
330
A62
100
AcDbEntity
  8
Visible (ANSI)
100
AcDbVertex
100
AcDb2dVertex
 10
153.0008683987572
 20
57.19889827168273
 30
0.0
  0
VERTEX
  5
A67
330
A62
100
AcDbEntity
  8
Visible (ANSI)
100
AcDbVertex
100
AcDb2dVertex
 10
152.9985942081173
 20
57.20111090784499
 30
0.0
  0
VERTEX
  5
A68
330
A62
100
AcDbEntity
  8
Visible (ANSI)
100
AcDbVertex
100
AcDb2dVertex
 10
152.9964089417276
 20
57.20336556812825
 30
0.0
  0
VERTEX
  5
A69
330
A62
100
AcDbEntity
  8
Visible (ANSI)
100
AcDbVertex
100
AcDb2dVertex
 10
152.994314926791
 20
57.20566055107136
 30
0.0
  0
VERTEX
  5
A6A
330
A62
100
AcDbEntity
  8
Visible (ANSI)
100
AcDbVertex
100
AcDb2dVertex
 10
152.9923144220633
 20
57.20799412236633
 30
0.0
  0
VERTEX
  5
A6B
330
A62
100
AcDbEntity
  8
Visible (ANSI)
100
AcDbVertex
100
AcDb2dVertex
 10
152.9904095551099
 20
57.21036449846057
 30
0.0
  0
VERTEX
  5
A6C
330
A62
100
AcDbEntity
  8
Visible (ANSI)
100
AcDbVertex
100
AcDb2dVertex
 10
152.9886023736414
 20
57.21276984973965
 30
0.0
  0
VERTEX
  5
A6D
330
A62
100
AcDbEntity
  8
Visible (ANSI)
100
AcDbVertex
100
AcDb2dVertex
 10
152.9868948112894
 20
57.21520832038816
 30
0.0
  0
VERTEX
  5
A6E
330
A62
100
AcDbEntity
  8
Visible (ANSI)
100
AcDbVertex
100
AcDb2dVertex
 10
152.9852886933114
 20
57.21767801843378
 30
0.0
  0
VERTEX
  5
A6F
330
A62
100
AcDbEntity
  8
Visible (ANSI)
100
AcDbVertex
100
AcDb2dVertex
 10
152.9837857422937
 20
57.22017701248812
 30
0.0
  0
VERTEX
  5
A70
330
A62
100
AcDbEntity
  8
Visible (ANSI)
100
AcDbVertex
100
AcDb2dVertex
 10
152.9823875753002
 20
57.22270335312251
 30
0.0
  0
VERTEX
  5
A71
330
A62
100
AcDbEntity
  8
Visible (ANSI)
100
AcDbVertex
100
AcDb2dVertex
 10
152.9810956753524
 20
57.22525503663483
 30
0.0
  0
VERTEX
  5
A72
330
A62
100
AcDbEntity
  8
Visible (ANSI)
100
AcDbVertex
100
AcDb2dVertex
 10
152.9799114342089
 20
57.22783005282994
 30
0.0
  0
VERTEX
  5
A73
330
A62
100
AcDbEntity
  8
Visible (ANSI)
100
AcDbVertex
100
AcDb2dVertex
 10
152.9788361181419
 20
57.23042635864054
 30
0.0
  0
VERTEX
  5
A74
330
A62
100
AcDbEntity
  8
Visible (ANSI)
100
AcDbVertex
100
AcDb2dVertex
 10
152.9778708793451
 20
57.23304189786059
 30
0.0
  0
VERTEX
  5
A75
330
A62
100
AcDbEntity
  8
Visible (ANSI)
100
AcDbVertex
100
AcDb2dVertex
 10
152.9770167559334
 20
57.23567458803215
 30
0.0
  0
VERTEX
  5
A76
330
A62
100
AcDbEntity
  8
Visible (ANSI)
100
AcDbVertex
100
AcDb2dVertex
 10
152.9762746519796
 20
57.23832231213184
 30
0.0
  0
VERTEX
  5
A77
330
A62
100
AcDbEntity
  8
Visible (ANSI)
100
AcDbVertex
100
AcDb2dVertex
 10
152.9756453660337
 20
57.24098295813962
 30
0.0
  0
VERTEX
  5
A78
330
A62
100
AcDbEntity
  8
Visible (ANSI)
100
AcDbVertex
100
AcDb2dVertex
 10
152.9751295797152
 20
57.24365439594429
 30
0.0
  0
VERTEX
  5
A79
330
A62
100
AcDbEntity
  8
Visible (ANSI)
100
AcDbVertex
100
AcDb2dVertex
 10
152.9747278348974
 20
57.24633448065366
 30
0.0
  0
VERTEX
  5
A7A
330
A62
100
AcDbEntity
  8
Visible (ANSI)
100
AcDbVertex
100
AcDb2dVertex
 10
152.9744405679307
 20
57.24902106247395
 30
0.0
  0
VERTEX
  5
A7B
330
A62
100
AcDbEntity
  8
Visible (ANSI)
100
AcDbVertex
100
AcDb2dVertex
 10
152.9742680839755
 20
57.25171197182698
 30
0.0
  0
VERTEX
  5
A7C
330
A62
100
AcDbEntity
  8
Visible (ANSI)
100
AcDbVertex
100
AcDb2dVertex
 10
152.9742105698353
 20
57.25440504824377
 30
0.0
  0
SEQEND
  5
A65
330
A62
100
AcDbEntity
  8
Visible (ANSI)
  0
POLYLINE
  5
A7D
330
6C
100
AcDbEntity
  8
Visible (ANSI)
100
AcDb2dPolyline
 66
     1
 10
0.0
 20
0.0
 30
0.0
 70
   128
  0
VERTEX
  5
A7E
330
A7D
100
AcDbEntity
  8
Visible (ANSI)
100
AcDbVertex
100
AcDb2dVertex
 10
153.0056737078061
 20
82.36719342306981
 30
0.0
  0
VERTEX
  5
A7F
330
A7D
100
AcDbEntity
  8
Visible (ANSI)
100
AcDbVertex
100
AcDb2dVertex
 10
153.0008684025338
 20
82.36557603270677
 30
0.0
  0
VERTEX
  5
A81
330
A7D
100
AcDbEntity
  8
Visible (ANSI)
100
AcDbVertex
100
AcDb2dVertex
 10
152.99640894097
 20
82.36378567326225
 30
0.0
  0
VERTEX
  5
A82
330
A7D
100
AcDbEntity
  8
Visible (ANSI)
100
AcDbVertex
100
AcDb2dVertex
 10
152.9923144195678
 20
82.36183405615992
 30
0.0
  0
VERTEX
  5
A83
330
A7D
100
AcDbEntity
  8
Visible (ANSI)
100
AcDbVertex
100
AcDb2dVertex
 10
152.9886023715024
 20
82.35973358324653
 30
0.0
  0
VERTEX
  5
A84
330
A7D
100
AcDbEntity
  8
Visible (ANSI)
100
AcDbVertex
100
AcDb2dVertex
 10
152.9852886929548
 20
82.35750235161113
 30
0.0
  0
VERTEX
  5
A85
330
A7D
100
AcDbEntity
  8
Visible (ANSI)
100
AcDbVertex
100
AcDb2dVertex
 10
152.9823875728047
 20
82.35515227127967
 30
0.0
  0
VERTEX
  5
A86
330
A7D
100
AcDbEntity
  8
Visible (ANSI)
100
AcDbVertex
100
AcDb2dVertex
 10
152.9799114342089
 20
82.35270250822042
 30
0.0
  0
VERTEX
  5
A87
330
A7D
100
AcDbEntity
  8
Visible (ANSI)
100
AcDbVertex
100
AcDb2dVertex
 10
152.977870881484
 20
82.35016759840089
 30
0.0
  0
VERTEX
  5
A88
330
A7D
100
AcDbEntity
  8
Visible (ANSI)
100
AcDbVertex
100
AcDb2dVertex
 10
152.9762746519796
 20
82.34756244012926
 30
0.0
  0
VERTEX
  5
A89
330
A7D
100
AcDbEntity
  8
Visible (ANSI)
100
AcDbVertex
100
AcDb2dVertex
 10
152.9751295768632
 20
82.34490729111731
 30
0.0
  0
VERTEX
  5
A8A
330
A7D
100
AcDbEntity
  8
Visible (ANSI)
100
AcDbVertex
100
AcDb2dVertex
 10
152.9744405665048
 20
82.34221587853435
 30
0.0
  0
VERTEX
  5
A8B
330
A7D
100
AcDbEntity
  8
Visible (ANSI)
100
AcDbVertex
100
AcDb2dVertex
 10
152.9742105698353
 20
82.33950883002858
 30
0.0
  0
VERTEX
  5
A8C
330
A7D
100
AcDbEntity
  8
Visible (ANSI)
100
AcDbVertex
100
AcDb2dVertex
 10
152.9744405679307
 20
82.33680178070164
 30
0.0
  0
VERTEX
  5
A8D
330
A7D
100
AcDbEntity
  8
Visible (ANSI)
100
AcDbVertex
100
AcDb2dVertex
 10
152.9751295797152
 20
82.33411036893985
 30
0.0
  0
VERTEX
  5
A8E
330
A7D
100
AcDbEntity
  8
Visible (ANSI)
100
AcDbVertex
100
AcDb2dVertex
 10
152.9762746519796
 20
82.33145522157025
 30
0.0
  0
VERTEX
  5
A8F
330
A7D
100
AcDbEntity
  8
Visible (ANSI)
100
AcDbVertex
100
AcDb2dVertex
 10
152.9778708793451
 20
82.32885175033668
 30
0.0
  0
VERTEX
  5
A90
330
A7D
100
AcDbEntity
  8
Visible (ANSI)
100
AcDbVertex
100
AcDb2dVertex
 10
152.9799114342089
 20
82.32631515347909
 30
0.0
  0
VERTEX
  5
A91
330
A7D
100
AcDbEntity
  8
Visible (ANSI)
100
AcDbVertex
100
AcDb2dVertex
 10
152.9823875753002
 20
82.32386539021453
 30
0.0
  0
VERTEX
  5
A92
330
A7D
100
AcDbEntity
  8
Visible (ANSI)
100
AcDbVertex
100
AcDb2dVertex
 10
152.9852886933114
 20
82.32151531029366
 30
0.0
  0
VERTEX
  5
A93
330
A7D
100
AcDbEntity
  8
Visible (ANSI)
100
AcDbVertex
100
AcDb2dVertex
 10
152.9886023736414
 20
82.3192840780424
 30
0.0
  0
VERTEX
  5
A94
330
A7D
100
AcDbEntity
  8
Visible (ANSI)
100
AcDbVertex
100
AcDb2dVertex
 10
152.9923144220633
 20
82.31718529370674
 30
0.0
  0
VERTEX
  5
A95
330
A7D
100
AcDbEntity
  8
Visible (ANSI)
100
AcDbVertex
100
AcDb2dVertex
 10
152.9964089417276
 20
82.31523198764175
 30
0.0
  0
VERTEX
  5
A96
330
A7D
100
AcDbEntity
  8
Visible (ANSI)
100
AcDbVertex
100
AcDb2dVertex
 10
153.0008683987571
 20
82.31344162763909
 30
0.0
  0
VERTEX
  5
A97
330
A7D
100
AcDbEntity
  8
Visible (ANSI)
100
AcDbVertex
100
AcDb2dVertex
 10
153.0056737078061
 20
82.3118242386297
 30
0.0
  0
SEQEND
  5
A80
330
A7D
100
AcDbEntity
  8
Visible (ANSI)
  0
LINE
  5
A98
330
6C
100
AcDbEntity
  8
Visible (ANSI)
100
AcDbLine
 10
153.3003886884673
 20
57.41393277694577
 30
0.0
 11
153.4158508838397
 21
57.48042303317241
 31
0.0
  0
LINE
  5
A99
330
6C
100
AcDbEntity
  8
Visible (ANSI)
100
AcDbLine
 10
153.0645620141962
 20
82.40110449890607
 30
0.0
 11
153.0056737080343
 21
82.36719297875149
 31
0.0
  0
LINE
  5
A9A
330
6C
100
AcDbEntity
  8
Visible (ANSI)
100
AcDbLine
 10
153.0249868406937
 20
82.3560712853269
 30
0.0
 11
153.0056737080343
 21
82.36719297875149
 31
0.0
  0
LINE
  5
A9B
330
6C
100
AcDbEntity
  8
Visible (ANSI)
100
AcDbLine
 10
171.9020168779745
 20
71.48591881641287
 30
0.0
 11
171.9067670884972
 21
71.48277763838615
 31
0.0
  0
LINE
  5
A9C
330
6C
100
AcDbEntity
  8
Visible (ANSI)
100
AcDbLine
 10
171.861237872427
 20
71.56155707428197
 30
0.0
 11
171.8615760483842
 21
71.55600531512497
 31
0.0
  0
LINE
  5
A9D
330
6C
100
AcDbEntity
  8
Visible Narrow (ANSI)
100
AcDbLine
 10
153.0056737080343
 20
57.19460562804195
 30
0.0
 11
171.8130568060809
 21
46.36415400612173
 31
0.0
  0
LINE
  5
A9E
330
6C
100
AcDbEntity
  8
Visible Narrow (ANSI)
100
AcDbLine
 10
171.9649742786015
 20
71.44925790269619
 30
0.0
 11
171.9649742786015
 21
46.39626939426046
 31
0.0
  0
LINE
  5
A9F
330
6C
100
AcDbEntity
  8
Visible Narrow (ANSI)
100
AcDbLine
 10
171.8130568060809
 20
46.36415400612173
 30
0.0
 11
171.8130568060809
 21
71.48137329083491
 31
0.0
  0
LINE
  5
AA0
330
6C
100
AcDbEntity
  8
Visible Narrow (ANSI)
100
AcDbLine
 10
153.1094094470425
 20
82.42739337282342
 30
0.0
 11
171.8612385395932
 21
71.6289331750046
 31
0.0
  0
LINE
  5
AA1
330
6C
100
AcDbEntity
  8
Visible Narrow (ANSI)
100
AcDbLine
 10
171.8130568060809
 20
71.48137329083489
 30
0.0
 11
153.0056737080343
 21
82.31182491275513
 31
0.0
  0
LINE
  5
AA2
330
6C
100
AcDbEntity
  8
Visible Narrow (ANSI)
100
AcDbLine
 10
153.0056737080343
 20
82.31182491275513
 30
0.0
 11
153.0056737080343
 21
57.19460562804195
 31
0.0
  0
LINE
  5
AA3
330
6C
100
AcDbEntity
  8
Visible (ANSI)
100
AcDbLine
 10
153.0419481643334
 20
57.13723979021583
 30
0.0
 11
171.8214858705948
 21
46.32282326297358
 31
0.0
  0
LINE
  5
AA4
330
6C
100
AcDbEntity
  8
Visible (ANSI)
100
AcDbLine
 10
152.9742105692945
 20
82.33950894575331
 30
0.0
 11
152.9742105692945
 21
57.25440504917886
 31
0.0
  0
LINE
  5
AA5
330
6C
100
AcDbEntity
  8
Visible (ANSI)
100
AcDbLine
 10
171.5870621650008
 20
46.9666385186937
 30
0.0
 11
171.3875735858757
 21
47.08151635119579
 31
0.0
  0
LINE
  5
AA6
330
6C
100
AcDbEntity
  8
Visible (ANSI)
100
AcDbLine
 10
162.5327808027748
 20
52.18065238514318
 30
0.0
 11
162.3332922236497
 21
52.29553021764527
 31
0.0
  0
LINE
  5
AA7
330
6C
100
AcDbEntity
  8
Visible (ANSI)
100
AcDbLine
 10
153.4784994405488
 20
57.39466625159266
 30
0.0
 11
153.4588196338397
 21
57.40599909855919
 31
0.0
  0
LINE
  5
AA8
330
6C
100
AcDbEntity
  8
Visible (ANSI)
100
AcDbLine
 10
172.3143844653986
 20
71.65046984720689
 30
0.0
 11
172.3143844653987
 21
46.59748133877115
 31
0.0
  0
LINE
  5
AA9
330
6C
100
AcDbEntity
  8
Visible (ANSI)
100
AcDbLine
 10
153.4588196338397
 20
82.62860531733414
 30
0.0
 11
172.2106487263904
 21
71.83014511951532
 31
0.0
  0
LINE
  5
AAA
330
6C
100
AcDbEntity
  8
Visible (ANSI)
100
AcDbLine
 10
153.4158508838397
 20
57.48042303317241
 30
0.0
 11
153.4158508838397
 21
57.50414982927521
 31
0.0
  0
LINE
  5
AAB
330
6C
100
AcDbEntity
  8
Visible (ANSI)
100
AcDbLine
 10
153.4158508838397
 20
69.42877579053733
 30
0.0
 11
153.4158508838397
 21
69.65877622439515
 31
0.0
  0
LINE
  5
AAC
330
6C
100
AcDbEntity
  8
Visible (ANSI)
100
AcDbLine
 10
153.4158508838397
 20
81.58340218565726
 30
0.0
 11
153.4158508838397
 21
81.81340261951511
 31
0.0
  0
DIMENSION
  5
AAD
330
6C
100
AcDbEntity
  8
Dimension (ANSI)
100
AcDbDimension
280
     0
  2
*D11
 10
80.76140064163078
 20
59.99348875621612
 30
0.0
 11
88.94499949533324
 21
68.31055657246984
 31
0.0
 70
   163
  1
<>{\P(8PL.)}
 42
0.5629999999999999
 73
     0
 74
     0
 75
     0
  3
Default (ANSI)
100
AcDbDiametricDimension
 15
80.98201165623081
 25
60.51146537753904
 35
0.0
 40
0.0
1001
ACAD_DSTYLE_DIMRADIAL_EXTENSION
1070
   387
1070
     1
1070
   388
1040
0.0
1070
   390
1040
0.0
1001
ACAD
1000
DSTYLE
1002
{
1070
   145
1040
-0.25
1070
   144
1040
1.000000000000046
1070
   271
1070
     3
1070
   272
1070
     2
1070
    48
1040
0.0
1070
    47
1040
0.0
1002
}
  0
MTEXT
  5
B68
102
{ACAD_REACTORS
330
B69
102
}
330
6C
100
AcDbEntity
  8
Symbol (ANSI)
100
AcDbMText
 10
119.4502046012052
 20
49.79211100986397
 30
0.0
 40
1.320000016313838
 41
5.398735896808894
 46
0.0
 71
     3
 72
     1
  1
{10 GA.\P }
  7
Note Text (ANSI)
 73
     2
 44
0.9878841638565063
  0
LEADER
  5
B69
330
6C
100
AcDbEntity
  8
Symbol (ANSI)
100
AcDbLeader
  3
Default (ANSI)$7
 73
     0
 40
3.933345209096401
 41
5.030006745583289
 76
     3
 10
125.3333575491115
 20
44.46603027820089
 30
0.0
 10
121.0982821236683
 20
49.13058328787059
 30
0.0
 10
119.7966612941186
 20
49.13211100170705
 30
0.0
340
B68
210
0.0
220
0.0
230
-1.0
213
0.0
223
-0.6600000081569191
233
0.0
1001
ACAD
1000
DSTYLE
1002
{
1070
    77
1070
     0
1002
}
  0
LINE
  5
B6A
330
6C
100
AcDbEntity
  8
Center Mark (ANSI)
  6
Continuous
100
AcDbLine
 10
45.27820614893077
 20
81.87747706687758
 30
0.0
 11
41.96520614893077
 21
81.87747706687758
 31
0.0
  0
LINE
  5
B6B
330
6C
100
AcDbEntity
  8
Center Mark (ANSI)
  6
Continuous
100
AcDbLine
 10
43.62170614893077
 20
83.53397706687758
 30
0.0
 11
43.62170614893077
 21
80.22097706687759
 31
0.0
  0
LINE
  5
B6C
330
6C
100
AcDbEntity
  8
Center Mark (ANSI)
  6
Continuous
100
AcDbLine
 10
41.96520614893077
 20
38.62747706687758
 30
0.0
 11
45.27820614893077
 21
38.62747706687758
 31
0.0
  0
LINE
  5
B6D
330
6C
100
AcDbEntity
  8
Center Mark (ANSI)
  6
Continuous
100
AcDbLine
 10
41.96520614893077
 20
81.87747706687758
 30
0.0
 11
45.27820614893077
 21
81.87747706687758
 31
0.0
  0
LINE
  5
B6E
330
6C
100
AcDbEntity
  8
Centerline (ANSI)
  6
Continuous
100
AcDbLine
 10
43.62170614893077
 20
36.97097706687758
 30
0.0
 11
43.62170614893077
 21
83.53397706687758
 31
0.0
  0
LINE
  5
B6F
330
6C
100
AcDbEntity
  8
Center Mark (ANSI)
  6
Continuous
100
AcDbLine
 10
63.90320614893077
 20
81.87747706687758
 30
0.0
 11
60.59020614893078
 21
81.87747706687758
 31
0.0
  0
LINE
  5
B70
330
6C
100
AcDbEntity
  8
Center Mark (ANSI)
  6
Continuous
100
AcDbLine
 10
63.90320614893078
 20
38.62747706687758
 30
0.0
 11
60.59020614893078
 21
38.62747706687758
 31
0.0
  0
LINE
  5
B71
330
6C
100
AcDbEntity
  8
Centerline (ANSI)
  6
Continuous
100
AcDbLine
 10
62.24670614893078
 20
83.53397706687758
 30
0.0
 11
62.24670614893078
 21
36.97097706687758
 31
0.0
  0
LINE
  5
B72
330
6C
100
AcDbEntity
  8
Center Mark (ANSI)
  6
Continuous
100
AcDbLine
 10
79.21520614893079
 20
38.62747706687758
 30
0.0
 11
82.52820614893078
 21
38.62747706687758
 31
0.0
  0
LINE
  5
B73
330
6C
100
AcDbEntity
  8
Center Mark (ANSI)
  6
Continuous
100
AcDbLine
 10
79.21520614893077
 20
81.87747706687758
 30
0.0
 11
82.52820614893076
 21
81.87747706687758
 31
0.0
  0
LINE
  5
B74
330
6C
100
AcDbEntity
  8
Centerline (ANSI)
  6
Continuous
100
AcDbLine
 10
80.87170614893079
 20
36.97097706687758
 30
0.0
 11
80.87170614893077
 21
83.53397706687758
 31
0.0
  0
LINE
  5
B75
330
6C
100
AcDbEntity
  8
Center Mark (ANSI)
  6
Continuous
100
AcDbLine
 10
43.62170614893077
 20
61.90897706687758
 30
0.0
 11
43.62170614893077
 21
58.59597706687758
 31
0.0
  0
LINE
  5
B76
330
6C
100
AcDbEntity
  8
Center Mark (ANSI)
  6
Continuous
100
AcDbLine
 10
80.87170614893077
 20
61.90897706687757
 30
0.0
 11
80.87170614893077
 21
58.59597706687758
 31
0.0
  0
LINE
  5
B77
330
6C
100
AcDbEntity
  8
Centerline (ANSI)
  6
Continuous
100
AcDbLine
 10
41.96520614893077
 20
60.25247706687758
 30
0.0
 11
82.52820614893076
 21
60.25247706687757
 31
0.0
  0
LINE
  5
B78
330
6C
100
AcDbEntity
  8
Center Mark (ANSI)
  6
Continuous
100
AcDbLine
 10
43.62170614893077
 20
40.28397706687758
 30
0.0
 11
43.62170614893077
 21
36.97097706687758
 31
0.0
  0
LINE
  5
B79
330
6C
100
AcDbEntity
  8
Center Mark (ANSI)
  6
Continuous
100
AcDbLine
 10
80.87170614893079
 20
40.28397706687758
 30
0.0
 11
80.87170614893079
 21
36.97097706687758
 31
0.0
  0
LINE
  5
B7A
330
6C
100
AcDbEntity
  8
Centerline (ANSI)
  6
Continuous
100
AcDbLine
 10
41.96520614893077
 20
38.62747706687758
 30
0.0
 11
82.52820614893078
 21
38.62747706687758
 31
0.0
  0
LINE
  5
B7B
330
6C
100
AcDbEntity
  8
Center Mark (ANSI)
  6
Continuous
100
AcDbLine
 10
43.62170614893077
 20
83.53397706687758
 30
0.0
 11
43.62170614893077
 21
80.22097706687759
 31
0.0
  0
LINE
  5
B7C
330
6C
100
AcDbEntity
  8
Center Mark (ANSI)
  6
Continuous
100
AcDbLine
 10
80.87170614893077
 20
83.53397706687758
 30
0.0
 11
80.87170614893077
 21
80.22097706687759
 31
0.0
  0
LINE
  5
B7D
330
6C
100
AcDbEntity
  8
Centerline (ANSI)
  6
Continuous
100
AcDbLine
 10
41.96520614893077
 20
81.87747706687758
 30
0.0
 11
82.52820614893076
 21
81.87747706687758
 31
0.0
  0
DIMENSION
  5
B7E
330
6C
100
AcDbEntity
  8
Dimension (ANSI)
100
AcDbDimension
280
     0
  2
*D12
 10
41.4926447263114
 20
38.62747706687758
 30
0.0
 11
38.37162366366881
 21
34.59550274217404
 31
0.0
 70
   160
  1
<>
 42
0.875
 73
     0
 74
     0
 75
     0
  3
Default (ANSI)
100
AcDbAlignedDimension
 13
42.96009449657911
 23
37.75247706687758
 33
0.0
 14
41.96520614893077
 24
38.62747706687758
 34
0.0
 50
90.0
100
AcDbRotatedDimension
1001
ACAD
1000
DSTYLE
1002
{
1070
   289
1070
     1
1070
   271
1070
     2
1070
   272
1070
     2
1070
    48
1040
0.0
1070
    47
1040
0.0
1002
}
  0
DIMENSION
  5
C7E
330
6C
100
AcDbEntity
  8
Dimension (ANSI)
100
AcDbDimension
280
     0
  2
*D13
 10
43.62170614893077
 20
86.2081857282949
 30
0.0
 11
37.98358930909762
 21
86.2081857282949
 31
0.0
 70
   160
  1
<>
 42
0.875
 73
     0
 74
     0
 75
     0
  3
Default (ANSI)
100
AcDbAlignedDimension
 13
42.74670614893078
 23
82.53908871922924
 33
0.0
 14
43.62170614893077
 24
83.53397706687758
 34
0.0
100
AcDbRotatedDimension
1001
ACAD
1000
DSTYLE
1002
{
1070
   289
1070
     1
1070
    73
1070
     0
1070
    74
1070
     0
1070
   271
1070
     2
1070
   272
1070
     2
1070
    48
1040
0.0
1070
    47
1040
0.0
1002
}
  0
MTEXT
  5
D68
102
{ACAD_XDICTIONARY
360
D6F
102
}
330
6C
100
AcDbEntity
  8
Symbol (ANSI)
100
AcDbMText
 10
101.6574161839832
 20
11.13572058664368
 30
0.0
 40
1.100000035105727
 41
81.21725818303628
 46
0.0
 71
     4
 72
     1
  3
{\fRomanS|b0|i0|c0|p2;\H2x;PART#: NPDD4842G\P(DATA SUBJECT TO CHANGE WITHOUT NOTICE)\H1.6157x; \H0.61894x;\P \H1.352x; \H0.73963x;\P\H0.6x;THIS DRAWING IS PROPERTY OF HUBBELL INC. WIEGMANN\H1.5633x; \H0.63966x;\PALL INFORMATION IS PROPRIETARY AND NOT
  1
 TO BE DUPLICATED\H1.234x; \H0.81039x;\P\H1.2571x; }
  7
Note Text (ANSI)
 73
     1
 44
0.8026435375213623
  0
ENDSEC
  0
SECTION
  2
OBJECTS
  0
DICTIONARY
  5
C
330
0
100
AcDbDictionary
281
     1
  3
ACAD_CIP_PREVIOUS_PRODUCT_INFO
350
D6A
  3
ACAD_COLOR
350
63
  3
ACAD_GROUP
350
D
  3
ACAD_LAYOUT
350
62
  3
ACAD_MATERIAL
350
10
  3
ACAD_MLEADERSTYLE
350
66
  3
ACAD_MLINESTYLE
350
5F
  3
ACAD_PLOTSETTINGS
350
61
  3
ACAD_PLOTSTYLENAME
350
E
  3
ACAD_SCALELIST
350
42
  3
ACAD_TABLESTYLE
350
64
  3
ACAD_VISUALSTYLE
350
29
  3
ACDB_RECOMPOSE_DATA
350
D71
  3
AcDbVariableDictionary
350
76
  0
DICTIONARY
  5
D6F
330
D68
100
AcDbDictionary
280
     1
281
     1
  3
ACAD_MTEXT_2008_RT
360
D70
  0
XRECORD
  5
D6A
102
{ACAD_REACTORS
330
C
102
}
330
C
100
AcDbXrecord
280
     1
300
INVNTOR
300
2012
300
PDSP_F_S
  0
DICTIONARY
  5
63
102
{ACAD_REACTORS
330
C
102
}
330
C
100
AcDbDictionary
281
     1
  0
DICTIONARY
  5
D
102
{ACAD_REACTORS
330
C
102
}
330
C
100
AcDbDictionary
281
     1
  0
DICTIONARY
  5
62
102
{ACAD_REACTORS
330
C
102
}
330
C
100
AcDbDictionary
281
     1
  3
Layout1
350
6B
  3
Layout2
350
73
  3
Model
350
6F
  0
DICTIONARY
  5
10
102
{ACAD_REACTORS
330
C
102
}
330
C
100
AcDbDictionary
281
     1
  3
ByBlock
350
19
  3
ByLayer
350
11
  3
Global
350
21
  0
DICTIONARY
  5
66
102
{ACAD_REACTORS
330
C
102
}
330
C
100
AcDbDictionary
281
     1
  3
Standard
350
67
  0
DICTIONARY
  5
5F
102
{ACAD_REACTORS
330
C
102
}
330
C
100
AcDbDictionary
281
     1
  3
Standard
350
60
  0
DICTIONARY
  5
61
102
{ACAD_REACTORS
330
C
102
}
330
C
100
AcDbDictionary
281
     1
  0
ACDBDICTIONARYWDFLT
  5
E
102
{ACAD_REACTORS
330
C
102
}
330
C
100
AcDbDictionary
281
     1
  3
Normal
350
F
100
AcDbDictionaryWithDefault
340
F
  0
DICTIONARY
  5
42
102
{ACAD_REACTORS
330
C
102
}
330
C
100
AcDbDictionary
281
     1
  3
A0
350
43
  3
A1
350
44
  3
A2
350
45
  3
A3
350
46
  3
A4
350
47
  3
A5
350
48
  3
A6
350
49
  3
A7
350
4A
  3
A8
350
4B
  3
A9
350
4C
  3
B0
350
4D
  3
B1
350
4E
  3
B2
350
4F
  3
B3
350
50
  3
B4
350
51
  3
B5
350
52
  3
B6
350
53
  0
DICTIONARY
  5
64
102
{ACAD_REACTORS
330
C
102
}
330
C
100
AcDbDictionary
281
     1
  3
Standard
350
65
  0
DICTIONARY
  5
29
102
{ACAD_REACTORS
330
C
102
}
330
C
100
AcDbDictionary
281
     1
  3
2dWireframe
350
2F
  3
Basic
350
2E
  3
Brighten
350
35
  3
ColorChange
350
39
  3
Conceptual
350
32
  3
Dim
350
34
  3
EdgeColorOff
350
41
  3
Facepattern
350
38
  3
Flat
350
2A
  3
FlatWithEdges
350
2B
  3
Gouraud
350
2C
  3
GouraudWithEdges
350
2D
  3
Hidden
350
31
  3
JitterOff
350
3F
  3
Linepattern
350
37
  3
OverhangOff
350
40
  3
Realistic
350
33
  3
Shaded
350
3E
  3
Shaded with edges
350
3D
  3
Shades of Gray
350
3A
  3
Sketchy
350
3B
  3
Thicken
350
36
  3
Wireframe
350
30
  3
X-Ray
350
3C
  0
XRECORD
  5
D71
102
{ACAD_REACTORS
330
C
102
}
330
C
100
AcDbXrecord
280
     1
 90
        1
330
65
330
D68
  0
DICTIONARY
  5
76
102
{ACAD_REACTORS
330
C
102
}
330
C
100
AcDbDictionary
281
     1
  3
CANNOSCALE
350
79
  3
CMLEADERSTYLE
350
78
  3
CTABLESTYLE
350
77
  0
XRECORD
  5
D70
102
{ACAD_REACTORS
330
D6F
102
}
330
D6F
100
AcDbXrecord
280
     1
 40
3089136.0
  1
\pxsm0.94;{\fRomanS|b0|i0;\H2.2000;PART#: NPDD4842G\P(DATA SUBJECT TO CHANGE WITHOUT NOTICE)\P \P\fRomanS|b0|i0;\H1.3200;THIS DRAWING IS PROPERTY OF HUBBELL INC. WIEGMANN\PALL INFORMATION IS PROPRIETARY AND NOT TO BE DUPLICATED\P}
  0
LAYOUT
  5
6B
102
{ACAD_REACTORS
330
62
102
}
330
62
100
AcDbPlotSettings
  1

  2

  4

  6

 40
0.0
 41
0.0
 42
0.0
 43
0.0
 44
0.0
 45
0.0
 46
0.0
 47
0.0
 48
0.0
 49
0.0
140
0.0
141
0.0
142
1.0
143
1.0
 70
   688
 72
     0
 73
     0
 74
     5
  7

 75
    16
147
1.0
 76
     0
 77
     2
 78
   300
148
0.0
149
0.0
100
AcDbLayout
  1
Layout1
 70
     1
 71
     1
 10
0.0
 20
0.0
 11
12.0
 21
9.0
 12
0.0
 22
0.0
 32
0.0
 14
0.0
 24
0.0
 34
0.0
 15
0.0
 25
0.0
 35
0.0
146
0.0
 13
0.0
 23
0.0
 33
0.0
 16
1.0
 26
0.0
 36
0.0
 17
0.0
 27
1.0
 37
0.0
 76
     0
330
68
  0
LAYOUT
  5
73
102
{ACAD_REACTORS
330
62
102
}
330
62
100
AcDbPlotSettings
  1

  2

  4

  6

 40
0.0
 41
0.0
 42
0.0
 43
0.0
 44
0.0
 45
0.0
 46
0.0
 47
0.0
 48
0.0
 49
0.0
140
0.0
141
0.0
142
1.0
143
1.0
 70
   688
 72
     0
 73
     0
 74
     5
  7

 75
    16
147
1.0
 76
     0
 77
     2
 78
   300
148
0.0
149
0.0
100
AcDbLayout
  1
Layout2
 70
     1
 71
     2
 10
0.0
 20
0.0
 11
12.0
 21
9.0
 12
0.0
 22
0.0
 32
0.0
 14
0.0
 24
0.0
 34
0.0
 15
0.0
 25
0.0
 35
0.0
146
0.0
 13
0.0
 23
0.0
 33
0.0
 16
1.0
 26
0.0
 36
0.0
 17
0.0
 27
1.0
 37
0.0
 76
     0
330
70
  0
LAYOUT
  5
6F
102
{ACAD_REACTORS
330
62
102
}
330
62
100
AcDbPlotSettings
  1

  2

  4

  6

 40
0.0
 41
0.0
 42
0.0
 43
0.0
 44
0.0
 45
0.0
 46
0.0
 47
0.0
 48
0.0
 49
0.0
140
0.0
141
0.0
142
1.0
143
1.0
 70
  1712
 72
     0
 73
     0
 74
     0
  7

 75
     0
147
1.0
 76
     0
 77
     2
 78
   300
148
0.0
149
0.0
100
AcDbLayout
  1
Model
 70
     1
 71
     0
 10
0.0
 20
0.0
 11
12.0
 21
9.0
 12
0.0
 22
0.0
 32
0.0
 14
0.0
 24
0.0
 34
0.0
 15
0.0
 25
0.0
 35
0.0
146
0.0
 13
0.0
 23
0.0
 33
0.0
 16
1.0
 26
0.0
 36
0.0
 17
0.0
 27
1.0
 37
0.0
 76
     0
330
6C
  0
MATERIAL
  5
19
102
{ACAD_XDICTIONARY
360
1A
102
}
102
{ACAD_REACTORS
330
10
102
}
330
10
100
AcDbMaterial
  1
ByBlock
 72
     0
 43
0.0208333333333333
 43
0.0
 43
0.0
 43
0.0
 43
0.0
 43
0.0208333333333333
 43
0.0
 43
0.0
 43
0.0
 43
0.0
 43
1.0
 43
0.0
 43
0.0
 43
0.0
 43
0.0
 43
1.0
 77
     0
 47
0.0208333333333333
 47
0.0
 47
0.0
 47
0.0
 47
0.0
 47
0.0208333333333333
 47
0.0
 47
0.0
 47
0.0
 47
0.0
 47
1.0
 47
0.0
 47
0.0
 47
0.0
 47
0.0
 47
1.0
171
     0
 49
0.0208333333333333
 49
0.0
 49
0.0
 49
0.0
 49
0.0
 49
0.0208333333333333
 49
0.0
 49
0.0
 49
0.0
 49
0.0
 49
1.0
 49
0.0
 49
0.0
 49
0.0
 49
0.0
 49
1.0
175
     0
142
0.0208333333333333
142
0.0
142
0.0
142
0.0
142
0.0
142
0.0208333333333333
142
0.0
142
0.0
142
0.0
142
0.0
142
1.0
142
0.0
142
0.0
142
0.0
142
0.0
142
1.0
179
     0
144
0.0208333333333333
144
0.0
144
0.0
144
0.0
144
0.0
144
0.0208333333333333
144
0.0
144
0.0
144
0.0
144
0.0
144
1.0
144
0.0
144
0.0
144
0.0
144
0.0
144
1.0
147
0.0208333333333333
147
0.0
147
0.0
147
0.0
147
0.0
147
0.0208333333333333
147
0.0
147
0.0
147
0.0
147
0.0
147
1.0
147
0.0
147
0.0
147
0.0
147
0.0
147
1.0
  0
MATERIAL
  5
11
102
{ACAD_XDICTIONARY
360
12
102
}
102
{ACAD_REACTORS
330
10
102
}
330
10
100
AcDbMaterial
  1
ByLayer
 72
     0
 43
0.0208333333333333
 43
0.0
 43
0.0
 43
0.0
 43
0.0
 43
0.0208333333333333
 43
0.0
 43
0.0
 43
0.0
 43
0.0
 43
1.0
 43
0.0
 43
0.0
 43
0.0
 43
0.0
 43
1.0
 77
     0
 47
0.0208333333333333
 47
0.0
 47
0.0
 47
0.0
 47
0.0
 47
0.0208333333333333
 47
0.0
 47
0.0
 47
0.0
 47
0.0
 47
1.0
 47
0.0
 47
0.0
 47
0.0
 47
0.0
 47
1.0
171
     0
 49
0.0208333333333333
 49
0.0
 49
0.0
 49
0.0
 49
0.0
 49
0.0208333333333333
 49
0.0
 49
0.0
 49
0.0
 49
0.0
 49
1.0
 49
0.0
 49
0.0
 49
0.0
 49
0.0
 49
1.0
175
     0
142
0.0208333333333333
142
0.0
142
0.0
142
0.0
142
0.0
142
0.0208333333333333
142
0.0
142
0.0
142
0.0
142
0.0
142
1.0
142
0.0
142
0.0
142
0.0
142
0.0
142
1.0
179
     0
144
0.0208333333333333
144
0.0
144
0.0
144
0.0
144
0.0
144
0.0208333333333333
144
0.0
144
0.0
144
0.0
144
0.0
144
1.0
144
0.0
144
0.0
144
0.0
144
0.0
144
1.0
147
0.0208333333333333
147
0.0
147
0.0
147
0.0
147
0.0
147
0.0208333333333333
147
0.0
147
0.0
147
0.0
147
0.0
147
1.0
147
0.0
147
0.0
147
0.0
147
0.0
147
1.0
  0
MATERIAL
  5
21
102
{ACAD_XDICTIONARY
360
22
102
}
102
{ACAD_REACTORS
330
10
102
}
330
10
100
AcDbMaterial
  1
Global
 72
     0
 43
0.0208333333333333
 43
0.0
 43
0.0
 43
0.0
 43
0.0
 43
0.0208333333333333
 43
0.0
 43
0.0
 43
0.0
 43
0.0
 43
1.0
 43
0.0
 43
0.0
 43
0.0
 43
0.0
 43
1.0
 77
     0
 47
0.0208333333333333
 47
0.0
 47
0.0
 47
0.0
 47
0.0
 47
0.0208333333333333
 47
0.0
 47
0.0
 47
0.0
 47
0.0
 47
1.0
 47
0.0
 47
0.0
 47
0.0
 47
0.0
 47
1.0
171
     0
 49
0.0208333333333333
 49
0.0
 49
0.0
 49
0.0
 49
0.0
 49
0.0208333333333333
 49
0.0
 49
0.0
 49
0.0
 49
0.0
 49
1.0
 49
0.0
 49
0.0
 49
0.0
 49
0.0
 49
1.0
175
     0
142
0.0208333333333333
142
0.0
142
0.0
142
0.0
142
0.0
142
0.0208333333333333
142
0.0
142
0.0
142
0.0
142
0.0
142
1.0
142
0.0
142
0.0
142
0.0
142
0.0
142
1.0
179
     0
144
0.0208333333333333
144
0.0
144
0.0
144
0.0
144
0.0
144
0.0208333333333333
144
0.0
144
0.0
144
0.0
144
0.0
144
1.0
144
0.0
144
0.0
144
0.0
144
0.0
144
1.0
147
0.0208333333333333
147
0.0
147
0.0
147
0.0
147
0.0
147
0.0208333333333333
147
0.0
147
0.0
147
0.0
147
0.0
147
1.0
147
0.0
147
0.0
147
0.0
147
0.0
147
1.0
  0
MLEADERSTYLE
  5
67
102
{ACAD_XDICTIONARY
360
D6D
102
}
102
{ACAD_REACTORS
330
66
102
}
330
66
100
AcDbMLeaderStyle
179
     2
170
     2
171
     1
172
     0
 90
        2
 40
0.0
 41
0.0
173
     1
 91
-1056964608
340
5B
 92
       -2
290
     1
 42
0.09
291
     1
 43
0.36
  3
Standard
 44
0.18
300

342
55
174
     1
178
     6
175
     1
176
     0
 93
-1056964608
 45
0.18
292
     0
297
     0
 46
0.18
 94
-1056964608
 47
1.0
 49
1.0
140
1.0
293
     1
141
0.0
294
     1
177
     0
142
1.0
295
     0
296
     0
143
0.125
271
     0
272
     9
273
     9
  0
MLINESTYLE
  5
60
102
{ACAD_REACTORS
330
5F
102
}
330
5F
100
AcDbMlineStyle
  2
STANDARD
 70
     0
  3

 62
   256
 51
90.0
 52
90.0
 71
     2
 49
0.5
 62
   256
  6
BYLAYER
 49
-0.5
 62
   256
  6
BYLAYER
  0
ACDBPLACEHOLDER
  5
F
102
{ACAD_REACTORS
330
E
102
}
330
E
  0
SCALE
  5
43
102
{ACAD_REACTORS
330
42
102
}
330
42
100
AcDbScale
 70
     0
300
1:1
140
1.0
141
1.0
290
     1
  0
SCALE
  5
44
102
{ACAD_REACTORS
330
42
102
}
330
42
100
AcDbScale
 70
     0
300
1/128" = 1'-0"
140
0.0078125
141
12.0
290
     0
  0
SCALE
  5
45
102
{ACAD_REACTORS
330
42
102
}
330
42
100
AcDbScale
 70
     0
300
1/64" = 1'-0"
140
0.015625
141
12.0
290
     0
  0
SCALE
  5
46
102
{ACAD_REACTORS
330
42
102
}
330
42
100
AcDbScale
 70
     0
300
1/32" = 1'-0"
140
0.03125
141
12.0
290
     0
  0
SCALE
  5
47
102
{ACAD_REACTORS
330
42
102
}
330
42
100
AcDbScale
 70
     0
300
1/16" = 1'-0"
140
0.0625
141
12.0
290
     0
  0
SCALE
  5
48
102
{ACAD_REACTORS
330
42
102
}
330
42
100
AcDbScale
 70
     0
300
3/32" = 1'-0"
140
0.09375
141
12.0
290
     0
  0
SCALE
  5
49
102
{ACAD_REACTORS
330
42
102
}
330
42
100
AcDbScale
 70
     0
300
1/8" = 1'-0"
140
0.125
141
12.0
290
     0
  0
SCALE
  5
4A
102
{ACAD_REACTORS
330
42
102
}
330
42
100
AcDbScale
 70
     0
300
3/16" = 1'-0"
140
0.1875
141
12.0
290
     0
  0
SCALE
  5
4B
102
{ACAD_REACTORS
330
42
102
}
330
42
100
AcDbScale
 70
     0
300
1/4" = 1'-0"
140
0.25
141
12.0
290
     0
  0
SCALE
  5
4C
102
{ACAD_REACTORS
330
42
102
}
330
42
100
AcDbScale
 70
     0
300
3/8" = 1'-0"
140
0.375
141
12.0
290
     0
  0
SCALE
  5
4D
102
{ACAD_REACTORS
330
42
102
}
330
42
100
AcDbScale
 70
     0
300
1/2" = 1'-0"
140
0.5
141
12.0
290
     0
  0
SCALE
  5
4E
102
{ACAD_REACTORS
330
42
102
}
330
42
100
AcDbScale
 70
     0
300
3/4" = 1'-0"
140
0.75
141
12.0
290
     0
  0
SCALE
  5
4F
102
{ACAD_REACTORS
330
42
102
}
330
42
100
AcDbScale
 70
     0
300
1" = 1'-0"
140
1.0
141
12.0
290
     0
  0
SCALE
  5
50
102
{ACAD_REACTORS
330
42
102
}
330
42
100
AcDbScale
 70
     0
300
1-1/2" = 1'-0"
140
1.5
141
12.0
290
     0
  0
SCALE
  5
51
102
{ACAD_REACTORS
330
42
102
}
330
42
100
AcDbScale
 70
     0
300
3" = 1'-0"
140
3.0
141
12.0
290
     0
  0
SCALE
  5
52
102
{ACAD_REACTORS
330
42
102
}
330
42
100
AcDbScale
 70
     0
300
6" = 1'-0"
140
6.0
141
12.0
290
     0
  0
SCALE
  5
53
102
{ACAD_REACTORS
330
42
102
}
330
42
100
AcDbScale
 70
     0
300
1'-0" = 1'-0"
140
12.0
141
12.0
290
     0
  0
TABLESTYLE
  5
65
102
{ACAD_XDICTIONARY
360
D6B
102
}
102
{ACAD_REACTORS
330
64
102
}
330
64
100
AcDbTableStyle
280
     0
  3
Standard
 70
     0
 71
     0
 40
0.06
 41
0.06
280
     0
281
     0
  7
Standard
140
0.18
170
     2
 62
     0
 63
     7
283
     0
 90
      512
 91
        0
  1

274
    -2
284
     1
 64
     0
275
    -2
285
     1
 65
     0
276
    -2
286
     1
 66
     0
277
    -2
287
     1
 67
     0
278
    -2
288
     1
 68
     0
279
    -2
289
     1
 69
     0
  7
Standard
140
0.25
170
     5
 62
     0
 63
     7
283
     0
 90
      512
 91
        0
  1

274
    -2
284
     1
 64
     0
275
    -2
285
     1
 65
     0
276
    -2
286
     1
 66
     0
277
    -2
287
     1
 67
     0
278
    -2
288
     1
 68
     0
279
    -2
289
     1
 69
     0
  7
Standard
140
0.18
170
     5
 62
     0
 63
     7
283
     0
 90
      512
 91
        0
  1

274
    -2
284
     1
 64
     0
275
    -2
285
     1
 65
     0
276
    -2
286
     1
 66
     0
277
    -2
287
     1
 67
     0
278
    -2
288
     1
 68
     0
279
    -2
289
     1
 69
     0
  0
VISUALSTYLE
  5
2F
102
{ACAD_REACTORS
330
29
102
}
330
29
100
AcDbVisualStyle
  2
2dWireframe
 70
     4
177
     2
291
     0
 71
     0
176
     1
 72
     2
176
     1
 73
     0
176
     1
 90
        0
176
     1
 40
0.6
176
     1
 41
30.0
176
     1
 63
     7
421
 16777215
176
     1
 74
     1
176
     1
 91
        4
176
     1
 64
     7
176
     1
 65
   257
176
     1
 75
     1
176
     1
175
     1
176
     1
 42
1.0
176
     1
 92
        0
176
     1
 66
   257
176
     1
 43
1.0
176
     1
 76
     1
176
     1
 77
     6
176
     1
 78
     2
176
     1
 67
     7
176
     1
 79
     5
176
     1
170
     0
176
     1
171
     0
176
     1
290
     0
176
     1
 93
        1
176
     1
 44
0.0
176
     1
173
     0
176
     1
  0
VISUALSTYLE
  5
2E
102
{ACAD_REACTORS
330
29
102
}
330
29
100
AcDbVisualStyle
  2
Basic
 70
     7
177
     2
291
     1
 71
     1
176
     1
 72
     0
176
     1
 73
     1
176
     1
 90
        0
176
     1
 40
0.6
176
     1
 41
30.0
176
     1
 63
     7
421
 16777215
176
     1
 74
     0
176
     1
 91
        4
176
     1
 64
     7
176
     1
 65
   257
176
     1
 75
     1
176
     1
175
     1
176
     1
 42
1.0
176
     1
 92
        8
176
     1
 66
     7
176
     1
 43
1.0
176
     1
 76
     1
176
     1
 77
     6
176
     1
 78
     2
176
     1
 67
     7
176
     1
 79
     5
176
     1
170
     0
176
     1
171
     0
176
     1
290
     0
176
     1
 93
        1
176
     1
 44
0.0
176
     1
173
     0
176
     1
  0
VISUALSTYLE
  5
35
102
{ACAD_REACTORS
330
29
102
}
330
29
100
AcDbVisualStyle
  2
Brighten
 70
    12
177
     2
291
     1
 71
     2
176
     1
 72
     2
176
     1
 73
     0
176
     1
 90
        0
176
     1
 40
0.6
176
     1
 41
30.0
176
     1
 63
     7
421
 16777215
176
     1
 74
     1
176
     1
 91
        4
176
     1
 64
     7
176
     1
 65
   257
176
     1
 75
     1
176
     1
175
     1
176
     1
 42
1.0
176
     1
 92
        8
176
     1
 66
     7
176
     1
 43
1.0
176
     1
 76
     1
176
     1
 77
     6
176
     1
 78
     2
176
     1
 67
     7
176
     1
 79
     5
176
     1
170
     0
176
     1
171
     0
176
     1
290
     0
176
     1
 93
        1
176
     1
 44
50.0
176
     1
173
     0
176
     1
  0
VISUALSTYLE
  5
39
102
{ACAD_REACTORS
330
29
102
}
330
29
100
AcDbVisualStyle
  2
ColorChange
 70
    16
177
     2
291
     1
 71
     2
176
     1
 72
     2
176
     1
 73
     3
176
     1
 90
        0
176
     1
 40
0.6
176
     1
 41
30.0
176
     1
 63
     8
421
  8421504
176
     1
 74
     1
176
     1
 91
        4
176
     1
 64
     7
176
     1
 65
   257
176
     1
 75
     1
176
     1
175
     1
176
     1
 42
1.0
176
     1
 92
        8
176
     1
 66
     8
424
  8421504
176
     1
 43
1.0
176
     1
 76
     1
176
     1
 77
     6
176
     1
 78
     2
176
     1
 67
     7
176
     1
 79
     5
176
     1
170
     0
176
     1
171
     0
176
     1
290
     0
176
     1
 93
        1
176
     1
 44
0.0
176
     1
173
     0
176
     1
  0
VISUALSTYLE
  5
32
102
{ACAD_REACTORS
330
29
102
}
330
29
100
AcDbVisualStyle
  2
Conceptual
 70
     9
177
     2
291
     0
 71
     3
176
     1
 72
     2
176
     1
 73
     0
176
     1
 90
        0
176
     1
 40
0.6
176
     1
 41
30.0
176
     1
 63
     7
421
 16777215
176
     1
 74
     2
176
     1
 91
        2
176
     1
 64
     7
176
     1
 65
   257
176
     1
 75
     1
176
     1
175
     1
176
     1
 42
179.0
176
     1
 92
        8
176
     1
 66
     7
176
     1
 43
1.0
176
     1
 76
     1
176
     1
 77
     6
176
     1
 78
     2
176
     1
 67
     7
176
     1
 79
     3
176
     1
170
     0
176
     1
171
     0
176
     1
290
     0
176
     1
 93
        1
176
     1
 44
0.0
176
     1
173
     0
176
     1
  0
VISUALSTYLE
  5
34
102
{ACAD_REACTORS
330
29
102
}
330
29
100
AcDbVisualStyle
  2
Dim
 70
    11
177
     2
291
     1
 71
     2
176
     1
 72
     2
176
     1
 73
     0
176
     1
 90
        0
176
     1
 40
0.6
176
     1
 41
30.0
176
     1
 63
     7
421
 16777215
176
     1
 74
     1
176
     1
 91
        4
176
     1
 64
     7
176
     1
 65
   257
176
     1
 75
     1
176
     1
175
     1
176
     1
 42
1.0
176
     1
 92
        8
176
     1
 66
     7
176
     1
 43
1.0
176
     1
 76
     1
176
     1
 77
     6
176
     1
 78
     2
176
     1
 67
     7
176
     1
 79
     5
176
     1
170
     0
176
     1
171
     0
176
     1
290
     0
176
     1
 93
        1
176
     1
 44
-50.0
176
     1
173
     0
176
     1
  0
VISUALSTYLE
  5
41
102
{ACAD_REACTORS
330
29
102
}
330
29
100
AcDbVisualStyle
  2
EdgeColorOff
 70
    22
177
     2
291
     1
 71
     2
176
     0
 72
     2
176
     0
 73
     0
176
     0
 90
        0
176
     0
 40
0.6
176
     0
 41
30.0
176
     0
 63
     7
421
 16777215
176
     0
 74
     1
176
     0
 91
        4
176
     0
 64
     7
176
     0
 65
   257
176
     0
 75
     1
176
     0
175
     1
176
     0
 42
1.0
176
     0
 92
        8
176
     2
 66
     7
176
     0
 43
1.0
176
     0
 76
     1
176
     0
 77
     6
176
     0
 78
     2
176
     0
 67
     7
176
     0
 79
     5
176
     0
170
     0
176
     0
171
     0
176
     0
290
     0
176
     0
 93
        1
176
     0
 44
0.0
176
     0
173
     0
176
     0
  0
VISUALSTYLE
  5
38
102
{ACAD_REACTORS
330
29
102
}
330
29
100
AcDbVisualStyle
  2
Facepattern
 70
    15
177
     2
291
     1
 71
     2
176
     1
 72
     2
176
     1
 73
     0
176
     1
 90
        0
176
     1
 40
0.6
176
     1
 41
30.0
176
     1
 63
     7
421
 16777215
176
     1
 74
     1
176
     1
 91
        4
176
     1
 64
     7
176
     1
 65
   257
176
     1
 75
     1
176
     1
175
     1
176
     1
 42
1.0
176
     1
 92
        8
176
     1
 66
     7
176
     1
 43
1.0
176
     1
 76
     1
176
     1
 77
     6
176
     1
 78
     2
176
     1
 67
     7
176
     1
 79
     5
176
     1
170
     0
176
     1
171
     0
176
     1
290
     0
176
     1
 93
        1
176
     1
 44
0.0
176
     1
173
     0
176
     1
  0
VISUALSTYLE
  5
2A
102
{ACAD_REACTORS
330
29
102
}
330
29
100
AcDbVisualStyle
  2
Flat
 70
     0
177
     2
291
     1
 71
     2
176
     1
 72
     1
176
     1
 73
     1
176
     1
 90
        2
176
     1
 40
0.6
176
     1
 41
30.0
176
     1
 63
     7
421
 16777215
176
     1
 74
     0
176
     1
 91
        0
176
     1
 64
     7
176
     1
 65
   257
176
     1
 75
     1
176
     1
175
     1
176
     1
 42
1.0
176
     1
 92
        8
176
     1
 66
     7
176
     1
 43
1.0
176
     1
 76
     1
176
     1
 77
     6
176
     1
 78
     2
176
     1
 67
     7
176
     1
 79
     5
176
     1
170
     0
176
     1
171
     0
176
     1
290
     0
176
     1
 93
       13
176
     1
 44
0.0
176
     1
173
     0
176
     1
  0
VISUALSTYLE
  5
2B
102
{ACAD_REACTORS
330
29
102
}
330
29
100
AcDbVisualStyle
  2
FlatWithEdges
 70
     1
177
     2
291
     1
 71
     2
176
     1
 72
     1
176
     1
 73
     1
176
     1
 90
        2
176
     1
 40
0.6
176
     1
 41
30.0
176
     1
 63
     7
421
 16777215
176
     1
 74
     1
176
     1
 91
        0
176
     1
 64
     7
176
     1
 65
   257
176
     1
 75
     1
176
     1
175
     1
176
     1
 42
1.0
176
     1
 92
        0
176
     1
 66
   257
176
     1
 43
1.0
176
     1
 76
     1
176
     1
 77
     6
176
     1
 78
     2
176
     1
 67
     7
176
     1
 79
     5
176
     1
170
     0
176
     1
171
     0
176
     1
290
     0
176
     1
 93
       13
176
     1
 44
0.0
176
     1
173
     0
176
     1
  0
VISUALSTYLE
  5
2C
102
{ACAD_REACTORS
330
29
102
}
330
29
100
AcDbVisualStyle
  2
Gouraud
 70
     2
177
     2
291
     1
 71
     2
176
     1
 72
     2
176
     1
 73
     1
176
     1
 90
        2
176
     1
 40
0.6
176
     1
 41
30.0
176
     1
 63
     7
421
 16777215
176
     1
 74
     0
176
     1
 91
        0
176
     1
 64
     7
176
     1
 65
   257
176
     1
 75
     1
176
     1
175
     1
176
     1
 42
1.0
176
     1
 92
        0
176
     1
 66
     7
176
     1
 43
1.0
176
     1
 76
     1
176
     1
 77
     6
176
     1
 78
     2
176
     1
 67
     7
176
     1
 79
     5
176
     1
170
     0
176
     1
171
     0
176
     1
290
     0
176
     1
 93
       13
176
     1
 44
0.0
176
     1
173
     0
176
     1
  0
VISUALSTYLE
  5
2D
102
{ACAD_REACTORS
330
29
102
}
330
29
100
AcDbVisualStyle
  2
GouraudWithEdges
 70
     3
177
     2
291
     1
 71
     2
176
     1
 72
     2
176
     1
 73
     1
176
     1
 90
        2
176
     1
 40
0.6
176
     1
 41
30.0
176
     1
 63
     7
421
 16777215
176
     1
 74
     1
176
     1
 91
        0
176
     1
 64
     7
176
     1
 65
   257
176
     1
 75
     1
176
     1
175
     1
176
     1
 42
1.0
176
     1
 92
        0
176
     1
 66
   257
176
     1
 43
1.0
176
     1
 76
     1
176
     1
 77
     6
176
     1
 78
     2
176
     1
 67
     7
176
     1
 79
     5
176
     1
170
     0
176
     1
171
     0
176
     1
290
     0
176
     1
 93
       13
176
     1
 44
0.0
176
     1
173
     0
176
     1
  0
VISUALSTYLE
  5
31
102
{ACAD_REACTORS
330
29
102
}
330
29
100
AcDbVisualStyle
  2
Hidden
 70
     6
177
     2
291
     0
 71
     1
176
     1
 72
     2
176
     1
 73
     2
176
     1
 90
        0
176
     1
 40
0.6
176
     1
 41
30.0
176
     1
 63
     7
421
 16777215
176
     1
 74
     2
176
     1
 91
        2
176
     1
 64
     7
176
     1
 65
   257
176
     1
 75
     2
176
     1
175
     1
176
     1
 42
40.0
176
     1
 92
        0
176
     1
 66
   257
176
     1
 43
1.0
176
     1
 76
     1
176
     1
 77
     6
176
     1
 78
     2
176
     1
 67
     7
176
     1
 79
     3
176
     1
170
     0
176
     1
171
     0
176
     1
290
     0
176
     1
 93
        1
176
     1
 44
0.0
176
     1
173
     0
176
     1
  0
VISUALSTYLE
  5
3F
102
{ACAD_REACTORS
330
29
102
}
330
29
100
AcDbVisualStyle
  2
JitterOff
 70
    20
177
     2
291
     1
 71
     2
176
     0
 72
     2
176
     0
 73
     0
176
     0
 90
        0
176
     0
 40
0.6
176
     0
 41
30.0
176
     0
 63
     7
421
 16777215
176
     0
 74
     1
176
     0
 91
        4
176
     0
 64
     7
176
     0
 65
   257
176
     0
 75
     1
176
     0
175
     1
176
     0
 42
1.0
176
     0
 92
       10
176
     2
 66
     7
176
     0
 43
1.0
176
     0
 76
     1
176
     0
 77
     6
176
     0
 78
     2
176
     0
 67
     7
176
     0
 79
     5
176
     0
170
     0
176
     0
171
     0
176
     0
290
     0
176
     0
 93
        1
176
     0
 44
0.0
176
     0
173
     0
176
     0
  0
VISUALSTYLE
  5
37
102
{ACAD_REACTORS
330
29
102
}
330
29
100
AcDbVisualStyle
  2
Linepattern
 70
    14
177
     2
291
     1
 71
     2
176
     1
 72
     2
176
     1
 73
     0
176
     1
 90
        0
176
     1
 40
0.6
176
     1
 41
30.0
176
     1
 63
     7
421
 16777215
176
     1
 74
     1
176
     1
 91
        4
176
     1
 64
     7
176
     1
 65
   257
176
     1
 75
     7
176
     1
175
     7
176
     1
 42
1.0
176
     1
 92
        8
176
     1
 66
     7
176
     1
 43
1.0
176
     1
 76
     1
176
     1
 77
     6
176
     1
 78
     2
176
     1
 67
     7
176
     1
 79
     5
176
     1
170
     0
176
     1
171
     0
176
     1
290
     0
176
     1
 93
        1
176
     1
 44
0.0
176
     1
173
     0
176
     1
  0
VISUALSTYLE
  5
40
102
{ACAD_REACTORS
330
29
102
}
330
29
100
AcDbVisualStyle
  2
OverhangOff
 70
    21
177
     2
291
     1
 71
     2
176
     0
 72
     2
176
     0
 73
     0
176
     0
 90
        0
176
     0
 40
0.6
176
     0
 41
30.0
176
     0
 63
     7
421
 16777215
176
     0
 74
     1
176
     0
 91
        4
176
     0
 64
     7
176
     0
 65
   257
176
     0
 75
     1
176
     0
175
     1
176
     0
 42
1.0
176
     0
 92
        9
176
     2
 66
     7
176
     0
 43
1.0
176
     0
 76
     1
176
     0
 77
     6
176
     0
 78
     2
176
     0
 67
     7
176
     0
 79
     5
176
     0
170
     0
176
     0
171
     0
176
     0
290
     0
176
     0
 93
        1
176
     0
 44
0.0
176
     0
173
     0
176
     0
  0
VISUALSTYLE
  5
33
102
{ACAD_REACTORS
330
29
102
}
330
29
100
AcDbVisualStyle
  2
Realistic
 70
     8
177
     2
291
     0
 71
     2
176
     1
 72
     3
176
     1
 73
     0
176
     1
 90
        2
176
     1
 40
0.6
176
     1
 41
30.0
176
     1
 63
     7
421
 16777215
176
     1
 74
     0
176
     1
 91
        0
176
     1
 64
     7
176
     1
 65
   257
176
     1
 75
     1
176
     1
175
     1
176
     1
 42
1.0
176
     1
 92
        8
176
     1
 66
   257
176
     1
 43
1.0
176
     1
 76
     1
176
     1
 77
     6
176
     1
 78
     2
176
     1
 67
     7
176
     1
 79
     3
176
     1
170
     0
176
     1
171
     0
176
     1
290
     0
176
     1
 93
       13
176
     1
 44
0.0
176
     1
173
     0
176
     1
  0
VISUALSTYLE
  5
3E
102
{ACAD_REACTORS
330
29
102
}
330
29
100
AcDbVisualStyle
  2
Shaded
 70
    27
177
     2
291
     0
 71
     2
176
     1
 72
     2
176
     1
 73
     1
176
     1
 90
        2
176
     1
 40
0.6
176
     1
 41
30.0
176
     1
 63
     7
421
 16777215
176
     1
 74
     0
176
     1
 91
        4
176
     1
 64
     7
176
     1
 65
   257
176
     1
 75
     1
176
     1
175
     1
176
     1
 42
1.0
176
     1
 92
        8
176
     1
 66
   257
176
     1
 43
1.0
176
     1
 76
     1
176
     1
 77
     6
176
     1
 78
     2
176
     1
 67
     8
425
  7895160
176
     1
 79
     3
176
     1
170
     0
176
     1
171
     0
176
     1
290
     0
176
     1
 93
        5
176
     1
 44
0.0
176
     1
173
     0
176
     1
  0
VISUALSTYLE
  5
3D
102
{ACAD_REACTORS
330
29
102
}
330
29
100
AcDbVisualStyle
  2
Shaded with edges
 70
    26
177
     2
291
     0
 71
     2
176
     1
 72
     2
176
     1
 73
     1
176
     1
 90
        2
176
     1
 40
0.6
176
     1
 41
30.0
176
     1
 63
     7
421
 16777215
176
     1
 74
     1
176
     1
 91
       10
176
     1
 64
     7
176
     1
 65
   257
176
     1
 75
     2
176
     1
175
     1
176
     1
 42
1.0
176
     1
 92
        8
176
     1
 66
   257
176
     1
 43
1.0
176
     1
 76
     1
176
     1
 77
     6
176
     1
 78
     2
176
     1
 67
     7
176
     1
 79
     3
176
     1
170
     0
176
     1
171
     0
176
     1
290
     0
176
     1
 93
        5
176
     1
 44
0.0
176
     1
173
     0
176
     1
  0
VISUALSTYLE
  5
3A
102
{ACAD_REACTORS
330
29
102
}
330
29
100
AcDbVisualStyle
  2
Shades of Gray
 70
    23
177
     2
291
     0
 71
     2
176
     1
 72
     2
176
     1
 73
     3
176
     1
 90
        0
176
     1
 40
0.6
176
     1
 41
30.0
176
     1
 63
     7
421
 16777215
176
     1
 74
     2
176
     1
 91
        2
176
     1
 64
     7
176
     1
 65
     7
176
     1
 75
     1
176
     1
175
     1
176
     1
 42
40.0
176
     1
 92
        8
176
     1
 66
     7
176
     1
 43
1.0
176
     1
 76
     1
176
     1
 77
     6
176
     1
 78
     2
176
     1
 67
     7
176
     1
 79
     3
176
     1
170
     0
176
     1
171
     0
176
     1
290
     0
176
     1
 93
        1
176
     1
 44
0.0
176
     1
173
     0
176
     1
  0
VISUALSTYLE
  5
3B
102
{ACAD_REACTORS
330
29
102
}
330
29
100
AcDbVisualStyle
  2
Sketchy
 70
    24
177
     2
291
     0
 71
     1
176
     1
 72
     2
176
     1
 73
     2
176
     1
 90
        0
176
     1
 40
0.6
176
     1
 41
30.0
176
     1
 63
     7
421
 16777215
176
     1
 74
     2
176
     1
 91
        2
176
     1
 64
     7
176
     1
 65
     7
176
     1
 75
     1
176
     1
175
     1
176
     1
 42
40.0
176
     1
 92
       11
176
     1
 66
     7
176
     1
 43
1.0
176
     1
 76
     1
176
     1
 77
     6
176
     1
 78
     2
176
     1
 67
     7
176
     1
 79
     6
176
     1
170
     0
176
     1
171
     0
176
     1
290
     0
176
     1
 93
        1
176
     1
 44
0.0
176
     1
173
     0
176
     1
  0
VISUALSTYLE
  5
36
102
{ACAD_REACTORS
330
29
102
}
330
29
100
AcDbVisualStyle
  2
Thicken
 70
    13
177
     2
291
     1
 71
     2
176
     1
 72
     2
176
     1
 73
     0
176
     1
 90
        0
176
     1
 40
0.6
176
     1
 41
30.0
176
     1
 63
     7
421
 16777215
176
     1
 74
     1
176
     1
 91
        4
176
     1
 64
     7
176
     1
 65
   257
176
     1
 75
     1
176
     1
175
     1
176
     1
 42
1.0
176
     1
 92
       12
176
     1
 66
     7
176
     1
 43
1.0
176
     1
 76
     1
176
     1
 77
     6
176
     1
 78
     2
176
     1
 67
     7
176
     1
 79
     5
176
     1
170
     0
176
     1
171
     0
176
     1
290
     0
176
     1
 93
        1
176
     1
 44
0.0
176
     1
173
     0
176
     1
  0
VISUALSTYLE
  5
30
102
{ACAD_REACTORS
330
29
102
}
330
29
100
AcDbVisualStyle
  2
Wireframe
 70
     5
177
     2
291
     0
 71
     0
176
     1
 72
     2
176
     1
 73
     0
176
     1
 90
        0
176
     1
 40
0.6
176
     1
 41
30.0
176
     1
 63
     7
421
 16777215
176
     1
 74
     1
176
     1
 91
        4
176
     1
 64
     7
176
     1
 65
   257
176
     1
 75
     1
176
     1
175
     1
176
     1
 42
1.0
176
     1
 92
        0
176
     1
 66
   257
176
     1
 43
1.0
176
     1
 76
     1
176
     1
 77
     6
176
     1
 78
     2
176
     1
 67
     7
176
     1
 79
     3
176
     1
170
     0
176
     1
171
     0
176
     1
290
     0
176
     1
 93
        1
176
     1
 44
0.0
176
     1
173
     0
176
     1
  0
VISUALSTYLE
  5
3C
102
{ACAD_REACTORS
330
29
102
}
330
29
100
AcDbVisualStyle
  2
X-Ray
 70
    25
177
     2
291
     0
 71
     2
176
     1
 72
     2
176
     1
 73
     1
176
     1
 90
        1
176
     1
 40
0.5
176
     1
 41
30.0
176
     1
 63
     7
421
 16777215
176
     1
 74
     1
176
     1
 91
        0
176
     1
 64
     7
176
     1
 65
   257
176
     1
 75
     1
176
     1
175
     1
176
     1
 42
1.0
176
     1
 92
        8
176
     1
 66
     7
176
     1
 43
1.0
176
     1
 76
     1
176
     1
 77
     6
176
     1
 78
     2
176
     1
 67
     7
176
     1
 79
     3
176
     1
170
     0
176
     1
171
     0
176
     1
290
     0
176
     1
 93
       13
176
     1
 44
0.0
176
     1
173
     0
176
     1
  0
DICTIONARYVAR
  5
79
102
{ACAD_REACTORS
330
76
102
}
330
76
100
DictionaryVariables
280
     0
  1
1:1
  0
DICTIONARYVAR
  5
78
102
{ACAD_REACTORS
330
76
102
}
330
76
100
DictionaryVariables
280
     0
  1
STANDARD
  0
DICTIONARYVAR
  5
77
102
{ACAD_REACTORS
330
76
102
}
330
76
100
DictionaryVariables
280
     0
  1
STANDARD
  0
DICTIONARY
  5
1A
330
19
100
AcDbDictionary
280
     1
281
     1
  3
BUMPTILE
360
1C
  3
DIFFUSETILE
360
1B
  3
OPACITYTILE
360
1F
  3
REFLECTIONTILE
360
1E
  3
REFRACTIONTILE
360
20
  3
SPECULARTILE
360
1D
  0
DICTIONARY
  5
12
330
11
100
AcDbDictionary
280
     1
281
     1
  3
BUMPTILE
360
14
  3
DIFFUSETILE
360
13
  3
FBXASSET
360
109
  3
OPACITYTILE
360
17
  3
REFLECTIONTILE
360
16
  3
REFRACTIONTILE
360
18
  3
SPECULARTILE
360
15
  0
DICTIONARY
  5
22
330
21
100
AcDbDictionary
280
     1
281
     1
  3
BUMPTILE
360
24
  3
DIFFUSETILE
360
23
  3
FBXASSET
360
BA
  3
OPACITYTILE
360
27
  3
REFLECTIONTILE
360
26
  3
REFRACTIONTILE
360
28
  3
SPECULARTILE
360
25
  0
DICTIONARY
  5
D6D
330
67
100
AcDbDictionary
280
     1
281
     1
  3
ACAD_XREC_ROUNDTRIP
360
D6E
  0
DICTIONARY
  5
D6B
330
65
100
AcDbDictionary
280
     1
281
     1
  3
ACAD_ROUNDTRIP_2008_TABLESTYLE_CELLSTYLEMAP
360
D6C
  0
XRECORD
  5
1C
102
{ACAD_REACTORS
330
1A
102
}
330
1A
100
AcDbXrecord
280
     1
270
     1
271
     1
  0
XRECORD
  5
1B
102
{ACAD_REACTORS
330
1A
102
}
330
1A
100
AcDbXrecord
280
     1
270
     1
271
     1
  0
XRECORD
  5
1F
102
{ACAD_REACTORS
330
1A
102
}
330
1A
100
AcDbXrecord
280
     1
270
     1
271
     1
  0
XRECORD
  5
1E
102
{ACAD_REACTORS
330
1A
102
}
330
1A
100
AcDbXrecord
280
     1
270
     1
271
     1
  0
XRECORD
  5
20
102
{ACAD_REACTORS
330
1A
102
}
330
1A
100
AcDbXrecord
280
     1
270
     1
271
     1
  0
XRECORD
  5
1D
102
{ACAD_REACTORS
330
1A
102
}
330
1A
100
AcDbXrecord
280
     1
270
     1
271
     1
  0
XRECORD
  5
14
102
{ACAD_REACTORS
330
12
102
}
330
12
100
AcDbXrecord
280
     1
270
     1
271
     1
  0
XRECORD
  5
13
102
{ACAD_REACTORS
330
12
102
}
330
12
100
AcDbXrecord
280
     1
270
     1
271
     1
  0
XRECORD
  5
109
102
{ACAD_REACTORS
330
12
102
}
330
12
100
AcDbXrecord
280
     1
 70
     1
 90
1959938040
 71
     1
  1
6EFA451E-B9FB-4074-9C54-5CD886BE83E5
311
504B03040A00000800009D51E9423DEE336E79000000790000001B0000006175746F6465736B2D64657369676E2D7061636B6167652E786D6C3C3F786D6C2076657273696F6E3D22312E302220656E636F64696E673D227574662D3822203F3E3C666F726D6174733E3C666F726D61743E687474703A2F2F736368656D612E
311
6175746F6465736B2E636F6D2F64657369676E2D7061636B6167652F323030393C2F666F726D61743E3C2F666F726D6174733E504B03041400060808009D51E942D486FD9CA0000000F4000000130000005B436F6E74656E745F54797065735D2E786D6C7D8EC10E82300C865F65E91D8A1E8C310C0EEA1BF002731658846E
311
D98AC1B77784ABF1D8FE5FBFBF75BBCE937A534CCEB38643598122B6FEE978D0B0485F9C41B54DDD7D022595594E1A469170414C76A4D9A4D207E29CF43ECE46F218070CC6BECC4078ACAA135ACF422C856C0E68EA1BF5669944DDD7BCDE7B1F8E415D77AECB980613C2E4AC91FC167A2B244592486606FC29C8FD7F045B9A
311
EF7053A7E60B504B03041400060808009D51E9424FCD3AD7EA0000007C01000008000000636F72652E786D6C8D90516EC3201044AF82F6B7C2061C37B685891ACB3D412F8080B828315806AA1EBF3871A4F6AF5FBB1AE6B1A3E1A7EFF986BECC1AAC773DD08200324E796DDDD4438A17DC003A09BE7A1F7FD90039399B1E36
311
19049F569F965D52DE45E362569DD766176508260252B7BCF410D4A799652153CC8E702D16A9AE7232057D6E194EC96AF4386275FECF5EAC5941D0F19D0CC38160F6DA327C181A86DB734DF199BE11DAB07164C79A971B2C78B4F3F3BE5A8D8C4683608456981C31693F28E928EBEAF685D45D4578B9D9FF4069D1FF849275
311
B1627BDC071672D61CE4FE2078B97591C7BDA83CB7DEC40F504B03041400060808009D51E94255019EA25F0000007C00000007000000636E782E786D6C4DCB3B0E80201045D1AD90E915ED2CF8AC45050C11660C8261F98AB1B07AC9C97D42D718D865D3E909258CFD00CCE24AC6E326A164D74DC0B4128928FF326038472B
311
A13128B1252AC747C6BAB984FC68F0B87FE8960A5C09FE86CFB69FBA01504B03041400060808009D51E9423179033367010000020300000C0000006662782F636F72652E786D6C8D525B6E833010BC8AE5DF0AFC486842641C35517A825EC00187A2808D8C8D72FC2E8F88A68AA20AC958333BBBB303627F6B6AD46BD755D6
311
6498C514236D725B54A6CC70F097688BD15E0A67ADFF558691518DCEF00063294A67433B43B9355E1B0FA8B1859E41D575DA6394D770C970977FEB46C52A78A8E8AE71ABF2AB2A75CC62A0A14E8ACE3B3080A621C389E5E57C1364C2A508A12A66B62A605A75A9B4C3929D3EE9F1B8A6117F4F79B43E6E79941E12161DD807
311
655B7E3AF14D22C82096C257CDDD5DEEB4F2BAC09253B68AE826A2E917A33BC67749FA4693DD8A0A32943F88425BFC53142AE3577CB63BC93AF00A4646E2CFB61091479DEAC10F91820C21C26B4CF83168080442F6EA5CDFF7B802D4EBDC5BB706A6B061A17A55070D53291A1F4126163A8F0D60B3A77DF88B3EAF7BC00754
311
A6046BCAC3F51CFC305D4C53E7285AEDA2DEDF90B1AE51F5626EB2B89CCBA0A7F2DCD6D6FD474DE655C91C2619FE5EF903504B03041400060808009D51E942CF74E3A47D0000009D0000000B0000006662782F636E782E786D6C4DCCD10A83201886E15B91FFDCD52F2B14D458CCEE239685CC349C8E5DFE6A74B0A30F1E3E
311
5ED97D564FDE36BD5C0C0AF05203B1E1112717160525CF9403E9B44C31E6BF1B9030AE56C1C1A0E59262D94E9AEC3C169F77F52E3C4F14A6690432A42D7241AF8CF7540CCCD01BF69CA169F9BD1EA0D2B2FA95F63DC2FA0B504B03041400060808009D51E942067749DF2B01000014020000310000006662782F3945353539
311
3132312D363138392D343238422D394632452D4131423832314536384430462F636F72652E786D6C8D515B6EC32010BC0AE22B55850DF8113BC2448D9A9CA0177080A42831583CAA1CBF50BB52FB971F16CDCECC8E76D9FE31DDC197725E5B33405260089411566A731D600C17D441B0E7CC591BFED02030E3A4069861C8D9
311
D5D938AF90B0262813126AAC542B387AAF0204E29E3E03F4E2534D6331C69018FE56CCA3B88D57559022B5138F331F5C0A009621F985BC3F364D4F28412DE97A54D3EE80FA133DA23772E82839B6DD3B3EB172117216A396AB5CCB14475FB472CF9A643167414FBFF18553635012728A4985F016E1FE83E01DA1BBA67FC5CD
311
AEC2ACCCF47FA238CB2745519B50D135EE22F39013562E0DCEA48DE7FB6F18F598AD0B20CFDB78255E20C70526B4DE562D65E5424D0B489E6DBD7AFA605D5AF0E6764E6CD22CC66DCD59996F94CACF0153CDF7E4DF504B03041400060808009D51E94266EA0AC74E01000033030000300000006662782F3945353539313231
311
2D363138392D343238422D394632452D4131423832314536384430462F636E782E786D6CD593BB6E032110457F05D146FBF22BB1C5622945BE20455A16C636310B2B1E51FCF7196CECB87191320D5ADDB9DC3B3A62D9F67B34E40B7CD0CEF6B4AB5B4AC04AA7B4DDF734C55DF542C99633EF5CBCB35162C5083DCD32E56CEF
311
5D9A8AA460279289A81A6D8F45F4105CF21202CAF926314E0A830160AB84228C0328058ADC8CF8B5038FABA0389C483C00797BFD206EF80419036B720A674DEEE02C9FA5E9CE44893422849E06798051D42245A7201C6B25A2A8BBFADAF560A7DF24922F5C2B93D72497F7349F94978D6AE4C81A1C7216A2477AC5144F1350
311
2EA6C9682922426ECEC68B87B3A46D5C2D8A5723788FEE6E355F2C30EC3CE32CEA118A437A101114E5B3B69B57ED73D5AEDFBB76D3CD36CBF553BBDCCC5BD6643B678373A65CC218F06E22D2D9083652DEB1268F1FE12B3EA2B447D6CE9FFE00120194D60B9D5BC67FE6D39CDF37E2F2F817F01F504B03041400060808009D
311
51E942E28058B5A705000081100000340000006662782F39453535393132312D363138392D343238422D394632452D4131423832314536384430462F6F626A656374732E786D6CAD57DB6EDB3810FD1541FBB2FB60CBB29DD459282A623B298C366D5123C53E1830288952B8A12E20A9D4D9AFDF43899225C74EBD8BBEE8C2
311
CB70E6CC990BBDF7BB945BCF54489667D7B63B1CD916CDC23C6259726D972A1ECC6CEBBDEF893C579D65B69591945EDB7AD8F6BD44E4656186221A9392AB83D1BBF95F960C69466D2BE444CA6B5B868F34254352AA3CA2F2691811458649BC1BBAC37A615F6C2248F17820B42082660A9A623C8314AB56CAEDFF8E6CC7F71C
311
3DEF7BFA69564D4EAF722A7BFAE7B34C2A9285AF0E3B103371A7CBDBF1C5D5E0623A9D0CA697637730BF9B2F07EEBBC96871B9585CDDDC5EE160A90424194D048D6DFF03B0112CF49C7ACAF74A96A9C9D82C310E72047D66DA53B63FB65CCFA9D7B4D619238FA91FE65946C30A2BA051D9674447B4A059049F332AA15907A1
311
51FFD7D53876A627FADF1CD91D3E0F81EE8E8EA046F7E6DDD5340FFE8609F21C06094935036B2C8DA13557477B84833CE7668E492B258A0A46B8C559208878B17D2CD54B7CAF27463359E868D016D83EBC504FF7E98230FA39CF8F6919979C6B1ADB7E15055BC40A55B2D28CFD43C55EFB2E32D009BED26C981983D44B416D
311
FFAAA6C8EC804D359056CC490297C34CBD73323E3074A1E374B5B4FD8F77C16EAD63F7F8E185C80B2A94A60FA8D538AE796B948C4EEE599ED31BEC0355F6A07C03F29F11EA7B55E037C176D3DDD49CA204C9649C8B14BEB146D66084C7C872ABA7FEEE7C794EBBB9EFBD5378C2D91AAA5F8067DF86AE2F3B70FADE33089F8B
311
89316D1D128EB471CF3200A44962F11C43C8C371B0B3FD15B21CB2327611EEBB3019EA3EE3D3738C18248AEAA4CE3B03960769F18C040DD82A46428D9AFC46C1BD9F5EA5B3EA60B3EC14BC17BF84AE37CBF5C775296212D27B13D34B1AB38C2994B83D6FBA0AF530EF59F4445F7EE42282A1AFF15E77F14ECD5112686BCC35
311
F04993D3F5CFFEE4DE0121F625B94E37DE4F4E8011BAB076E4DF331952CE4946F3B239F7CDFA81B25143AC835D33B92D30FBC202D2D433073188221D0A566810DB6AD526CDE109EB1E569FC148DB9FBF7C222FDDEC15EC736F98F35C6C83976D9D968E42FDBDCF6D8381A3A580EE559034F16F40DF462C8E4B89247804D7EF
311
AB45D7773A2D20453452EB6899C27E04171186B48D5C546B415049F36CCB50371177470FE8CA07A4860195C0531A4BCAE32DE3BC4CB731E3A846DB941427E0F8FFFA07655A6C499A97993A21BBA73AAA435FF71E7BE50FA2C247DB5F57EFC11CB937A2D10932E85A7204AB9E6B2F6FEF6EA617EEED607E75371F4C47EFA683
311
ABC5C57470B158CE6697F3DBD9E41659C268543551BED7949A6E44C34B286D5E299871DFC30AF1639280EDDF1325371FEAF06CDE0FAB217A61CFC11ED4CB76E34DF48CBE8F463F17B05F7954D02A2D384D69A6888EA17BFDC1BF11F4193D65EAF1554A127A86942F1FD607C660E48C7D5F75BCD31F077BCDE84207E45121EA
311
B14C838C307EB031A9911C165962F06B7CD2BEEB42D3FCEA3FE31874A632E72C421E8CAC84E62955C886671421915209EA757BFAC8DC3DCED8FD5C77888A049C369A3C1234C95C222C40F23254FD71EB373475BAAFBAB6516E874F78984C615BE0CCB58D265DB190CA618002AD5BA14A38B8D4EDE4C15992251CBD76BDA9FD
311
6F77696C7A25B95D724EFF64ECAA53B8310069A440DF808608DEA994F1BD4A37331FFE27C31B752CA2F01994AAB5653FD01A531D8310AD8D32B70534314FE6E81D02F56DB3DC61B5A687C859B7AC3749504B1D282292EAA6A0F5332ADD2CBF3AE850ACD517ABE065025F9E2F692028C85CEA00078BC00A23B3200A545DFCB9
311
F92A72DC6453EB8E8102D6EFBBD9E51F9B459EA679560F6D6ECC7DD85A3FE2761B6D901CA8BE96C8CD78E48E37D575C0DC50B60191744822F984017856B016E89EFBC1CBFACE883A544FB4EB1CED8A0386AE9696296C53083574E9E6560D0E1A8F8C5A88217DA5D411D35D50BC792370AAA55041A097F7FF05504B03041400
311
060800009D51E942000000000000000000000000350000006662782F39453535393132312D363138392D343238422D394632452D4131423832314536384430462F76657274696365732E62696E504B03041400060808009D51E942F270F1330600000004000000360000006662782F39453535393132312D363138392D3432
311
38422D394632452D4131423832314536384430462F747269616E676C65732E62696E636660600000504B03041400060800009D51E942000000000000000000000000370000006662782F39453535393132312D363138392D343238422D394632452D4131423832314536384430462F617474726962757465732E62696E504B
311
03041400060808009D51E942D5987DFC8F00000041010000360000006662782F39453535393132312D363138392D343238422D394632452D4131423832314536384430462F6469726563746F72792E786D6C858F410EC2201045AF4266AF15DDB800BA74E7C21B903225242D6328188F2FA5C4183471359997F9FF81E89FF3
311
C41E1816475E02DF1F80A11FC8386F25A438EECEC07A250251FC3803E6F58C12560C4AD840E95E91C151A72936F496F35732D860FE635F62C8F2DA16B505C545B74125BAA2FA9E05D7CC053D063734D5C7665FD55B6B8D15D5E9BFEAFD8490FFA45E504B03041400060808009D51E942954A16E2FD000000A00100003B0000
311
006662782F39453535393132312D363138392D343238422D394632452D4131423832314536384430462F7265736F75726365732F636F72652E786D6C8D504B6E833010BD0AF2B632D8A6340119470D2227E8052C332156828DFCA97AFCDA814AEDAE9B99D1FB689E1E3F7D2D8FE2139CD7D6F48896041560949DB4997B14C3
311
151F517112DC591B7EC95061E4023DCA30127C7636AE3BA4AC096042428D9D6007A5F71050A11EE9E891573758642963480A7F2F57A9EE72869296894E3AC17D702940B13DC9130907DE46A7C0F36A63058F514FBB464FE9A7BE6A7048D0F14286A1BE60F6D632FC3A1C196ECF0DC567FA4EE8918D233B34BCCA66C1835E7E
311
322A0732C0840423B4C6E48049FB41494759D7B42FA4E96AC2AB2CFF638AEBF44F53D426D46C8FBBD97CCA9A823C09C1ABDC575ACF32D3CEDD8A6F504B010214000A00000800009D51E9423DEE336E79000000790000001B00000000000000000000000000000000006175746F6465736B2D64657369676E2D7061636B6167
311
652E786D6C504B010214001400060808009D51E942D486FD9CA0000000F40000001300000000000000000000000000B20000005B436F6E74656E745F54797065735D2E786D6C504B010214001400060808009D51E9424FCD3AD7EA0000007C010000080000000000000000000000000083010000636F72652E786D6C504B01
311
0214001400060808009D51E94255019EA25F0000007C000000070000000000000000000000000093020000636E782E786D6C504B010214001400060808009D51E9423179033367010000020300000C00000000000000000000000000170300006662782F636F72652E786D6C504B010214001400060808009D51E942CF74E3
311
A47D0000009D0000000B00000000000000000000000000A80400006662782F636E782E786D6C504B010214001400060808009D51E942067749DF2B0100001402000031000000000000000000000000004E0500006662782F39453535393132312D363138392D343238422D394632452D4131423832314536384430462F636F
311
72652E786D6C504B010214001400060808009D51E94266EA0AC74E010000330300003000000000000000000000000000C80600006662782F39453535393132312D363138392D343238422D394632452D4131423832314536384430462F636E782E786D6C504B010214001400060808009D51E942E28058B5A7050000811000
311
003400000000000000000000000000640800006662782F39453535393132312D363138392D343238422D394632452D4131423832314536384430462F6F626A656374732E786D6C504B010214001400060800009D51E94200000000000000000000000035000000000000000000000000005D0E00006662782F394535353931
311
32312D363138392D343238422D394632452D4131423832314536384430462F76657274696365732E62696E504B010214001400060808009D51E942F270F13306000000040000003600000000000000000000000000B00E00006662782F39453535393132312D363138392D343238422D394632452D41314238323145363844
311
30462F747269616E676C65732E62696E504B010214001400060800009D51E94200000000000000000000000037000000000000000000000000000A0F00006662782F39453535393132312D363138392D343238422D394632452D4131423832314536384430462F617474726962757465732E62696E504B0102140014000608
311
08009D51E942D5987DFC8F0000004101000036000000000000000000000000005F0F00006662782F39453535393132312D363138392D343238422D394632452D4131423832314536384430462F6469726563746F72792E786D6C504B010214001400060808009D51E942954A16E2FD000000A00100003B0000000000000000
311
0000000000421000006662782F39453535393132312D363138392D343238422D394632452D4131423832314536384430462F7265736F75726365732F636F72652E786D6C504B0506000000000E000E0080040000981100000000
310
504B03040A00000800009D51E9423DEE336E79000000790000001B0000006175746F6465736B2D64657369676E2D7061636B6167652E786D6C3C3F786D6C2076657273696F6E3D22312E302220656E636F64696E673D227574662D3822203F3E3C666F726D6174733E3C666F726D61743E687474703A2F2F736368656D612E
310
6175746F6465736B2E636F6D2F64657369676E2D7061636B6167652F323030393C2F666F726D61743E3C2F666F726D6174733E504B03041400060808009D51E942D486FD9CA0000000F4000000130000005B436F6E74656E745F54797065735D2E786D6C7D8EC10E82300C865F65E91D8A1E8C310C0EEA1BF002731658846E
310
D98AC1B77784ABF1D8FE5FBFBF75BBCE937A534CCEB38643598122B6FEE978D0B0485F9C41B54DDD7D022595594E1A469170414C76A4D9A4D207E29CF43ECE46F218070CC6BECC4078ACAA135ACF422C856C0E68EA1BF5669944DDD7BCDE7B1F8E415D77AECB980613C2E4AC91FC167A2B244592486606FC29C8FD7F045B9A
310
EF7053A7E60B504B03041400060808009D51E94286D1502FEC0000007C01000008000000636F72652E786D6C8D90416EC3201045AF82665B6183B1E3C4C2446EEA9CA01740983828315806AA1EBF3871A476D7D58CFEFC3733FAFCF83DDDD1975EBC71B6059A1140DA2A37183BB610C305EF011D055F9C0BBF6C80AC9C740B
310
AB0C828F8B8BF326296783B621A9D60D7A13A5F73A0052F7D4B4E0D5554F3293312487BF65B3543739EA8CBEBA04C76806F43C6286B4CF5C8C5E40BCF7DDF9E3B42F31E98B0A97E599E0FDA9EB704F8B9AD43BB66394F17C85050F667ADD578B96410F200A4219263526874F4A1A5A34D5E18D540D233C5FED7FA0380FFF84
310
A2B18115DBBB4FCC83A0E991C740F07CCD22954750A9AEB9891F504B03041400060808009D51E94255019EA25F0000007C00000007000000636E782E786D6C4DCB3B0E80201045D1AD90E915ED2CF8AC45050C11660C8261F98AB1B07AC9C97D42D718D865D3E909258CFD00CCE24AC6E326A164D74DC0B4128928FF326038
310
472BA13128B1252AC747C6BAB984FC68F0B87FE8960A5C09FE86CFB69FBA01504B03041400060808009D51E94239AD0B9168010000020300000C0000006662782F636F72652E786D6C8D52ED8E8320107C15C2DF8B026A3F8334BD5EFB04F70254A967AA60104C1FFFD68FC6EBA5691A1324333BBBB3A37C77AB2BD429DB96
310
46A798851423A5339397BA48B17797608DD14E706B8CFB53869196B54A710F63C10B6B7C334199D14E6907A836B99A40D9B6CA6194557049719BFDA85A86D23BA868AF6123B3AB2C54C842A0A14EF0D6593080C621FD89C5E57CE364C405F7BECC27B6CC615A792995C5E2F3B83F7D1DD649408FD1224892130DD687FD3E38
310
B2684557CB7819B398935E2CB82BEBBBBBCC2AE9548E4544591CD0554037DF8C6E59B45D6C3EE8621B534EFAF207916FF23745BED42E8E26BBA3ACC582819181F8B72D44E4502B3BF04304277D88F01A127E0C1A0281909D3C57F73DAE00752A73C626C0E4C6CF54272BAF602A45C3C3C9C842E7A1016CF6B44FF4A2CFEB1E
310
F001A52EC09A74703D7BD74FE7E3D4298A46D9A07337A48DAD65359B1B2DCEE73CE8A93C3395B1EFA8C9B42A99C224FDDF2B7E01504B03041400060808009D51E942BA03FC667E0000009D0000000B0000006662782F636E782E786D6C4DCCD10E82201886E15B61FF396902651BE0FA2DEFC3253A264223685D7EDA3CE8E8
310
DB9E7D7B65F3591C799BF8B2C12B381E4A20C63FC260FDA420A791D6401A2D6308E9EF06C4F78B51B0316839C5909F3B0D66ECB34BAB3AEBE71DC5BDC4B6C38AA24046797D651439EBE84560C5B0E56776BA41A165F12BADBB85F517504B03041400060808009D51E9424A4E99892C01000014020000310000006662782F35
310
453042434642322D423542332D343841332D423433462D3935423233424334373336442F636F72652E786D6C8D515B6EC32010BC8AC557AA0A1B1B3FE2081395B439412F4030495162B07854397EA176A4F62F3F2C9A9D991DED92FD7DBA65DFD23A65F400CA1C814C6A6146A52F0308FE0CB720DB53628DF17F6820D37C92
310
034830A0E4624D98574818EDA5F611D566942BC89D931E64E2163F0370E24B4E3CE7C14786BBE63317577E917999C776E451E2BC8D01B265487A016D3E103B1C590559C330ACB76F18B21A1F61DFB00AB343DDE1F69D148B909210D4B8CAD518E3A8B392F6599324A6C4ABE9115F58C9BD1C01AD508921EA20EA3F4BB42BAB
310
5DD3BFA26687112912FD9F28CCE393A2A0B4C7D51A779139404B522C0D4A46134EB74718799F8DF5599AB77152BC008A725456B8EDBB2D29166A5C40F46CEBD5D37963E38237D75364E3D5B8AD2929D28D62F93D60ACE99EF407504B03041400060808009D51E942004DC5D05601000033030000300000006662782F354530
310
42434642322D423542332D343841332D423433462D3935423233424334373336442F636E782E786D6CBD93CD6E022114855F85B06DE6CF51AB86C1A48B3E4117DD3270552A0313609AFAF6BD285A372E9A34DD90C9B987736EBE306CFB3518F2093E68673BDA94352560A553DAEE3B3AC55DB1A264CB99772EDED928B16280
310
8E269972B6F76E1AB3A4602726135135DA1EB3E821B8C94B0828A79BC438290C06802D261461E8412950E466C4AF1D785C05C5FE44E201C8EBCB3B71FD07C81858955238AB520767E9CC4D77264AA411217434C8030CA21453740AC2B154228AB229AF5D0F76FA4922E9C2B572F29AA4F28EA693F2BC51891C598543CE42F4
310
482F9BE26904CAC5381A2D4544C8D5D978F17036691B97F3ECD508DEA3BB9D2D572B0C3BCF388B7A80EC901E440445F9AC6EDAA27E2EEAF55B536F9AD966B17EAA179BB66655B273D63B67F2258C01EF46229D8D6023E50DABD2F811BEEC234A7B64EDFCE9172011406EBDD0B965FC259F66D9CEE7FFC8A73ABF6FC4E5F12F
310
E0DF504B03041400060808009D51E94214CE509A630700009A1B0000340000006662782F35453042434642322D423542332D343841332D423433462D3935423233424334373336442F6F626A656374732E786D6CED59DD73A33610FF5718FAD23E189BD8CE251D422771921BCF35D79BBA77D307CF3032C8448D108C2492B8
310
7F7D571F602026C1BDF4AD0F3620A4D5EE6F3FB504BF3C67D479C45C909C5DB8BE37711DCCE23C212CBD704BB91D9DB9CE2F61C0F35C36A6B90E4319BE70D5B01B0629CFCBC20E25788B4A2A3BA3B7577F3A22C60CBB4E4C911017AE88EF71863C54CA3CC1E2C14B90445EBA7DF67CCF4C6C934D392AEE3B440BC43193C029
310
8C33A0E218A6FCF6E3C41D87C158BD0F03F56F674D07CD9AF5CF1A6BA9DB5C12262462F10B963A64A683589AFAB3EB9B93F9F9683E9B4D47B3D3137F74757B753DF23F4C278BD3C5E2FCF2E61CD8DBE439B53225B8C02C01FDEDDCD00FC6EA4D2DBA45E010D771CE188E3590009516AB4B9060015B35E09BB41F7D2551E3B5
310
96B0F13C53EF2D0B8DE1699B4ADFAC6140B4E8822076BB4AE2EADA942FDFFC05828B2146C90596C0AD901CB46BE1E1E0156E3809C666340C367B5D10E16448624E107528D970C4412930554D0903B3C09251CEC18194A324D09A33AFDBB6059EF9B6EB1CE2725B52AA3CC30DB56345E07E580ACD19F91BF33DF74D64802790
310
B6244C9E592EE5AEC06E781E8CF56018A8CBF4C4BE34403A5B8A52A111316F3B822E94EB2FAFDDF0D3EDE679A5C2C1E1CD0B9E17984B65744A8F9A2F30647B5528D96DFD419A530B401803AA5DB907E57740FE33448F3D2BA0374E9E67CF333B5772C4C436E719E8C69938A309FC4D1C5FFFABFBC65D30AE17B7B5D78727B8
310
A982EAECFBF16CCBA0B1B2FC37E00C834730F89C4FEDAB558C28D8F31D610090321287E63004A17DBB7976C325044E08F4B00AD1D0079181DD47B80DC696CC5E2B957B59AF6380A8DD633A4449009BB64860A3474F1F217B7012EFD5D414B10FDEF9BB98EBE5F5EAD3AAE45B14E33BEBD3D7784B189190350F33D4C2BC25D1
310
03DE3DE53C01415FE2BD6AE29DD9AD04A0AD3057C0A71508EA61BF736B8318D6A5B90A37C11B3B80102A5737E8DF1111634A11C37959ED5B473765A8B5C7DB9AC10D4F0CC4D3938E0973FC485455014EB39FD16214F27ECC49A14074C38F46B23A687A3DD27D5D7E068BACE7F7CC5A3208BD0CD13F74D03A8043CBB22BA42D
310
10B5C09B7D388F739AF368B38B4CA473A1960036DADEF2AD451462BD5192A2021EA4FDAE0A29A991364AC8765B0A88AB0758FCB65C34CD61E24DFDB9D3FCEF38E30CA22DF82EE2D6EF3A7B442443298EB628E9DBAEB95B4D5B68923DA439DE52908B3C12B98B908C26094E8F81E628E2E7EF4A3DA5B910846101F9EA20F84D
310
34261E0412A3CD8A65A5D50ED044441996881E838022D303AE4E3BBAC68DA174789BC7DA7A5FD35893E87F64111C412D99B38840290A39E44DC67D6F0E31A48DAE41B9832F585B455B8B414B2821E25DF484497A2F8F41DD90EFC13D86234929A3BC403198F500B22F7C4529B5C3FB06C50F2A7F447149DFCB4004A6DB8850
310
5A6611FC088393C710D7AE03D3AB2834889BD8277106451992251FB2C9E97CF2621F533374436063A32DA110B6A30C153DA8B702A2AE479C1A7C4BBD47A99B322B2294E5251B6428DEB4EB4D967C57AD8AEC407E55A908656345D8120C03C2649D55AB980DA6AE032BB8910E54BB48A0ACA0E614F646E2F16B6FD2947B37E0
310
D64FDF77830C0ABF1EED3523EAAC82C1F2D82A0CC41392F1BD1BAEF4757405F57782937DAAAF6ACD66050888A9485E726255F47509E58DADD1DCF00E49B1FE68B26E75FDBAF4A0FB118C610DD42EF5C2A5023AC34C225599DCA91BFA3B8210DCA261C6972AA71E43E5324974D588E82DE95367AB8C686D9A11AFB8C72CCFE0
310
C7D684C5B44CF01A25E221BA93345A11C5BA95D2CB4885F1AB02FEF671D58107460688F4451578F8A9B3D68E2E54B9749088BC2FB30D430482604BB4D4E8C62B586A355269B9BEAA3305D45D606056C5B3FF4F16CD76C4FF278BD41AC6779D2CAE76BFA25DB32FD248E7B1B2EBA38E01757E5254DEE318A0DB0E35D53A8B98
310
646EE5B7CE144150ACA2FCE06AAC0A1A86601FC7FF3A6BF76541B35D87FFE3B2B6FFA2E2382AABB426AB2ED581CA75D9CC61A737B797B3B97F33BA3ABFBD1ACD261F66A3F3C57C369A2FAECFCE4EAF6ECEA637FB638376D430A88399CE5DF06C825A35AC9E2C06D095153925099CE61327C510F3259CE907B4CF79860524CF
310
66B33BB14DF901AB1F4D9F53A20DC51527F7081AC454405A078CCA58B6C79D1FA03529E1A07DE142D3C87B803F6B95AE0399E7C2855681243116DE06DA4CAAA1A78943CAD5B9DF12037C104B554A348BEAE77A95C2A615FEEB2943D28095ABD5C380C2AD80EE57AB43A179B33CC547095EB1E32009B79B5242B56664D90FD4
310
C2E86DF6EA37B251C21EECD6CFE0BAAF8BE57B7A4E0B91419F0C5E3502437524114F75BF5B316659BABCFE32863E9BB3FCCD296899822E87531A710CC65CAA820AAC08ACC2D22C9004535DFCBCFEC273F8C49339BA2A727E7C3E3BFD69BDC8B32C6766687D09A7B2043E1439AB7BF8EC93ACA178C0AAB92ED62713FF64AD9B
310
DAB6CF1E6D90C09EAA8A60A02A2694201D9303BB7CD1A0B2EDCBB1524567FAF2DAB14114BCDAD8D18B1EAFF9C8E5800FA9CF29CA63B49F57D2BEDAD71EEBA960131C3AD2E13F504B03041400060800009D51E942000000000000000000000000350000006662782F35453042434642322D423542332D343841332D42343346
310
2D3935423233424334373336442F76657274696365732E62696E504B03041400060808009D51E942F270F1330600000004000000360000006662782F35453042434642322D423542332D343841332D423433462D3935423233424334373336442F747269616E676C65732E62696E636660600000504B03041400060800009D
310
51E942000000000000000000000000370000006662782F35453042434642322D423542332D343841332D423433462D3935423233424334373336442F617474726962757465732E62696E504B03041400060808009D51E942D5987DFC8F00000041010000360000006662782F35453042434642322D423542332D343841332D
310
423433462D3935423233424334373336442F6469726563746F72792E786D6C858F410EC2201045AF4266AF15DDB800BA74E7C21B903225242D6328188F2FA5C4183471359997F9FF81E89FF3C41E1816475E02DF1F80A11FC8386F25A438EECEC07A250251FC3803E6F58C12560C4AD840E95E91C151A72936F496F35732D8
310
60FE635F62C8F2DA16B505C545B74125BAA2FA9E05D7CC053D063734D5C7665FD55B6B8D15D5E9BFEAFD8490FFA45E504B03041400060808009D51E94259BF9A97FE000000A00100003B0000006662782F35453042434642322D423542332D343841332D423433462D3935423233424334373336442F7265736F7572636573
310
2F636F72652E786D6C8D504B6E833010BD0A9A6D05D8100241C6114DC9097A01CB4CA89560237FAA1EBF2650A9DD7533337A1FCDD363E7AFF9917CA275CAE80E684620412DCDA8F4D441F0B7B481E4CC9935C6FF9241A2C58C1DAC3070365913961D92467BD43EA2DA8CB883C239F490C8473C3A70F203679189E0A3C2DDB3
310
45C8BB9830A359A4A38E33E76D0C906C4FD609DCA233C14A742CDF58CE4250E3AE5163FCA96E0A2DF0D7A1BFBE5D9A32254351A587C395A4CDA5EFD3811635A98FE5B1A425CB5733675ECD3F19A545E171045E101ABD754A4EEF94B4B468ABD30BA9DA92B07C95FF318565FCA72928EDCB628FBBD91C701A833C09CEF2B5AF
310
B89E65C6BD76CBBF01504B010214000A00000800009D51E9423DEE336E79000000790000001B00000000000000000000000000000000006175746F6465736B2D64657369676E2D7061636B6167652E786D6C504B010214001400060808009D51E942D486FD9CA0000000F40000001300000000000000000000000000B20000
310
005B436F6E74656E745F54797065735D2E786D6C504B010214001400060808009D51E94286D1502FEC0000007C010000080000000000000000000000000083010000636F72652E786D6C504B010214001400060808009D51E94255019EA25F0000007C000000070000000000000000000000000095020000636E782E786D6C
310
504B010214001400060808009D51E94239AD0B9168010000020300000C00000000000000000000000000190300006662782F636F72652E786D6C504B010214001400060808009D51E942BA03FC667E0000009D0000000B00000000000000000000000000AB0400006662782F636E782E786D6C504B01021400140006080800
310
9D51E9424A4E99892C010000140200003100000000000000000000000000520500006662782F35453042434642322D423542332D343841332D423433462D3935423233424334373336442F636F72652E786D6C504B010214001400060808009D51E942004DC5D056010000330300003000000000000000000000000000CD06
310
00006662782F35453042434642322D423542332D343841332D423433462D3935423233424334373336442F636E782E786D6C504B010214001400060808009D51E94214CE509A630700009A1B00003400000000000000000000000000710800006662782F35453042434642322D423542332D343841332D423433462D393542
310
3233424334373336442F6F626A656374732E786D6C504B010214001400060800009D51E9420000000000000000000000003500000000000000000000000000261000006662782F35453042434642322D423542332D343841332D423433462D3935423233424334373336442F76657274696365732E62696E504B0102140014
310
00060808009D51E942F270F13306000000040000003600000000000000000000000000791000006662782F35453042434642322D423542332D343841332D423433462D3935423233424334373336442F747269616E676C65732E62696E504B010214001400060800009D51E942000000000000000000000000370000000000
310
0000000000000000D31000006662782F35453042434642322D423542332D343841332D423433462D3935423233424334373336442F617474726962757465732E62696E504B010214001400060808009D51E942D5987DFC8F000000410100003600000000000000000000000000281100006662782F35453042434642322D42
310
3542332D343841332D423433462D3935423233424334373336442F6469726563746F72792E786D6C504B010214001400060808009D51E94259BF9A97FE000000A00100003B000000000000000000000000000B1200006662782F35453042434642322D423542332D343841332D423433462D3935423233424334373336442F
310
7265736F75726365732F636F72652E786D6C504B0506000000000E000E0080040000621300000000
  0
XRECORD
  5
17
102
{ACAD_REACTORS
330
12
102
}
330
12
100
AcDbXrecord
280
     1
270
     1
271
     1
  0
XRECORD
  5
16
102
{ACAD_REACTORS
330
12
102
}
330
12
100
AcDbXrecord
280
     1
270
     1
271
     1
  0
XRECORD
  5
18
102
{ACAD_REACTORS
330
12
102
}
330
12
100
AcDbXrecord
280
     1
270
     1
271
     1
  0
XRECORD
  5
15
102
{ACAD_REACTORS
330
12
102
}
330
12
100
AcDbXrecord
280
     1
270
     1
271
     1
  0
XRECORD
  5
24
102
{ACAD_REACTORS
330
22
102
}
330
22
100
AcDbXrecord
280
     1
270
     1
271
     1
  0
XRECORD
  5
23
102
{ACAD_REACTORS
330
22
102
}
330
22
100
AcDbXrecord
280
     1
270
     1
271
     1
  0
XRECORD
  5
BA
102
{ACAD_REACTORS
330
22
102
}
330
22
100
AcDbXrecord
280
     1
 70
     1
 90
1959938040
 71
     1
  1
FAB5EAAD-57C3-47AF-981F-F5D97B1699CB
311
504B03040A00000800009C51E9423DEE336E79000000790000001B0000006175746F6465736B2D64657369676E2D7061636B6167652E786D6C3C3F786D6C2076657273696F6E3D22312E302220656E636F64696E673D227574662D3822203F3E3C666F726D6174733E3C666F726D61743E687474703A2F2F736368656D612E
311
6175746F6465736B2E636F6D2F64657369676E2D7061636B6167652F323030393C2F666F726D61743E3C2F666F726D6174733E504B03041400060808009C51E942D486FD9CA0000000F4000000130000005B436F6E74656E745F54797065735D2E786D6C7D8EC10E82300C865F65E91D8A1E8C310C0EEA1BF002731658846E
311
D98AC1B77784ABF1D8FE5FBFBF75BBCE937A534CCEB38643598122B6FEE978D0B0485F9C41B54DDD7D022595594E1A469170414C76A4D9A4D207E29CF43ECE46F218070CC6BECC4078ACAA135ACF422C856C0E68EA1BF5669944DDD7BCDE7B1F8E415D77AECB980613C2E4AC91FC167A2B244592486606FC29C8FD7F045B9A
311
EF7053A7E60B504B03041400060808009C51E94239648040EA0000007C01000008000000636F72652E786D6C8D90516EC3201044AF82F6B7C2061363D7C24471AA9EA0174098B828315806AA1EBF3871A4F6AF5FB31AE6B1AB11C7EFF986BECC1AAC773DD08200324EFBD1BAA987142FB805749462F53EFE8A01726A363D6C
311
364831AD3E2DBBA5BD8BC6C5EC3A3F9ADD5421980848DFF2D043D09F6656854A3127C2B55894BEAAC914F4396538253BA2C7123BE6FFECC59A1564C329AFF9D0E2F7ACF8F076E0B86DCE03A635AB4FFC549D191B44B9C152443B3FF7EBD5A868469015A10C930693D70F4A3A5A75357F2175C78828B7F81F282DE33FA1645D
311
64D57EEE030B20693EE4FE2045B97591E55E54D6AD37F903504B03041400060808009C51E94255019EA25F0000007C00000007000000636E782E786D6C4DCB3B0E80201045D1AD90E915ED2CF8AC45050C11660C8261F98AB1B07AC9C97D42D718D865D3E909258CFD00CCE24AC6E326A164D74DC0B4128928FF326038472B
311
A13128B1252AC747C6BAB984FC68F0B87FE8960A5C09FE86CFB69FBA01504B03041400060808009C51E9422FA5211667010000020300000C0000006662782F636F72652E786D6C8D525B6E833010BC8AE5DFCA98472069641C25A97A825EC001875A011BF98172FC2E8F284D15451592B16676766707D8EEDAB56890D629A3
311
4B9C4431465257A656BA2971F067B2C168C79935C6FF2AC3488B4E96788431678D35A15FA0CA682FB507549B5A2EA0704E7A8CAA162E2576D5B7EC442482870A77897A515D4423A324021AEA3873DE8201340F194FCCCFA72BA333CE5908AA5E5855C3347556D262BE2E92222F0E1BF2096FB2FA581564B33E1E489267F9BE
311
D8A7C72C3B303A8A39F3AABBB9ABAC145ED698A7719291784DE2F7AF24DE26E9362FDEE27C9BC58C8EE50FA2D0D7FF1405A57D962E766799C33C012313F1675B88C8232706F04339A36388F09A127E0C1A028190BD38B5B73D2E000DB2F2C6AE80A94DB85383688384A9319A1E4667163A4F0D60B3A77DD2177D5EF7800F28
311
7403D68487EB29F8713A9BA72E51F4D292C15F9136B613EDDDDC6CF17EDE073D9557A635F63F6ABAAC4A9730E9F8F7F21F504B03041400060808009C51E9427267B7557D0000009D0000000B0000006662782F636E782E786D6C4DCCD10A83201886E15B91FFDC95522D410DCA791FB12C64A6C3E9E8F2ABD1C18E3E78F878
311
79B7AD0E7D4DFCD8E005905B09C8F86798AC5F04E434E3165027790C21FDDD00F97135024E06C99718F2FBA2C9CC6376E95067FDEB425AD594E9B6C19AF60C570DA971FFB8333CD08150CD94D2A58242F2E2573AF60CCB1D504B03041400060808009C51E942C83D65202B01000014020000310000006662782F3234353239
311
4638362D463242392D343631352D424537392D4332433132463944444630442F636F72652E786D6C8D515B6EC32010BC0AE22B55850DC476E2081329497D825EC00192A2C460F1A872FC42ED48ED5F7E58343B333BDA65FBC77807DFCA796D4D07498121504658A9CDB583315CD016823D67CEDAF08706811946D5C10C43CE
311
AECEC6698184354199905063A55AC0C17B152010F7F4E9A0175F6A1C8A2186C4F0B7621AC46DB8AA8214A99D789CF9E05200300FC92FE4B4AA69DB6F1BD4D3438BAA86D4E8F0B169D1911E09EDDBD3A9C72756CE42CE62D472916B99E2E88B56EE55932CE62CE8F1195F38350425931E9335C21B84DB4F827784EEEAE61DD7
311
BB356665A6FF13C549BE288ADA84355DE2CE320F3961E5DCE04CDA78BE3FC3A8C7645D0079DECA2BF106392E30212DA93165E54C4D0B489E4DB578FA605D5AF0EA764E6C52CFC64DC559996F94CAEF0153CDF7E43F504B03041400060808009C51E942AA2325724E01000033030000300000006662782F3234353239463836
311
2D463242392D343631352D424537392D4332433132463944444630442F636E782E786D6CD593BB6E032110457F05D146FBF22BB1C5622945BE20455A16C636310B2B1E51FCF7196CECB87191320D5ADDB9DC3B3A62D9F67B34E40B7CD0CEF6B4AB5B4AC04AA7B4DDF734C55DF542C99633EF5CBCB35162C5083DCD32E56CEF
311
5D9A8AA460279289A81A6D8F45F4105CF21202CAF926314E0A830160AB84228C0328058ADC8CF8B5038FABA0389C483C00797BFD206EF80419036B720A674DEEE02C9FA5E9CE44893422849E06798051D42245A7201C6B25A2A8BBFADAF560A7DF24922F5C2B93D72497F7349F94978D6AE4C81A1C7216A2477AC5144F1350
311
2EA6C9682922426ECEC68B87B3A46D5C2D8A5723788FEE6E355F2C30EC3CE32CEA118A437A101114E5B3B69B57ED73D5AEDFBB76D3CD36CBD553BBDCCC5BD6643B678373A65CC218F06E22D2D9083652DEB1268F1FE12B3EA2B447D6CE9FFE00120194D60B9D5BC67FE6D39CDF37E2F2F817F01F504B03041400060808009C
311
51E94290FE1CC2A405000080100000340000006662782F32343532394638362D463242392D343631352D424537392D4332433132463944444630442F6F626A656374732E786D6CAD57DB8EA33810FD15C4BEEC3EE44292BE644533CA65328A463D339A6846FB10293260686F1B8C8CE94EEFD7EF311802E9A43BBB9A97104C
311
B95C75EAD4C5EE877DC2AD272A7326D23BDBE90F6D8BA68108591ADFD9858A7AB7B6F5C173A510AA25665B2949E89DAD976DCF8DA52832B314D288145C1DADAEE67F597940536A5B0127797E67E7C1034D489F144A84347FEC8744917E1CEDFB4EBF12ECAA8D25C91E8E946644D254C152ACA7D062554639DDD7A13DF0DC81
311
FEEEB9FAD7488DCF4B0D4A7FBAE7B33457240D5E1D76A466EC4C961F4757D3DED56432EE4DAE474E6FBE9A2F7BCECD78B8B85E2CA6B38F531C9C2B094DC6124923DBFB046C240BDC41F5C9730B96AAF1C88898000D247D623A52B637B21C7750C934DE19274F991F8834A5418915D028FD33AA439AD13444CC19CD61590BA1
311
61F7D5D138B63E8FF5BB39B2BD7C1902ED1D2D45B5EDF5B36DA9F0FF860BF9250C9239D50CACB0348E565C1D1E10F685E0E61BCBAD84282A19E11667BE24F2C5F620AA453CB7A3463359EA6CD01ED81EA2507DEED20569F43ECF4F5919159C6B1ADB5E99053BE40A55796919FB87CA83F56D64601362A5D9706B1C522F19B5
311
BD694591DB233655405A112731420E37F5CEF1E8C8D185CED3F5D2F63EAFFCFD46E7EEE9C33329322A95A60FA85507AE7E6A948C4DCE4591D31BEC23530EA07C07F25F90EA07531037C9F693FDC49CA22449F348C804B1B186566F889FA1E594BFFA7FEB9F3B683677A3770E4F045B43F50BF0ECFAD08E650B4ECF7D02E185
311
1C1BD73601E1281BF72C05409A24161758421D8EFCBDEDAD51E55095B18B70CF81CB30F7097FDD81518342519ED47AA6C0F2A82C5E50A0015BC948985191DF187888D3AB72561E6CC4CEC17BF54BE83A5B6E3E6F0A199180DE9B9C5ED288A54CA1C51D78D336A88379C7A347FAF22C6408475FE3BD69E39D98A372A0AD31D7
311
C0C7754DD72F87933B0704D8170B5D6EDC774E8013BAB1B6F4DFB33CA09C93948AA23EF7CDFE81B65141AC935D33B9693087C602D2545F8E72104D3A902CD32036DDAA299AFD33DEFD587F012321CF854FF841C83F94DE40702177FECBAEAA4A2791FED9A5B68160A0B580ED658ED4E96F30DF852C8A8A1C35F004AC3FD78B
311
76E874554085A8B556C93281FBC82D220D676BBD68D692A0918A74C7D0369176270F68EB07A28600A5C27316E794473BC67991EC22C6D18C7609C9CEC0F1FFEDF78B24DB914414A93AA3BB633A9A43D7F60E79F367A28207DBDB94CFDE1CA537A4E121CC1D61DD4A4E60D509ED6A36BFFA389B2D7B57370B8C4F37B3556F7A
311
EBAC7AABABE5F466EE5C4FA78B791DA74AB9E7D69DA69DD088123A9B5B4866C2F7638DF43135C0F6EE89CAB79FAAECAC9F3FD67D8CC2EE007BD02E9B8DB3F009631F0DDF5770903CA9689D649C26345544A7D0BDFEC3BF138C191D63AAF57542627A8196AF9F3647CE60E5827DDF74BAD3E7A3BD6675A113F2A412F550247E
311
4A183FDA185748F6B33436F8D531699E559FA95FF59B090C06D35C7016A20C86564C4542158AE1053D48263407F5DA237D68AE1E17EC7EAA0644457C4E6B4B1E0866649E232D40AD2250DD75EB37CC747AACBAB3D16DFB8FF83195C2B6C0993B1B33BA6201CDFB3EFAB39E844AE5E0527B90C7DC4FD29863D4AE3635EFCD2E
311
8D4DA7233722978C4FC6AFAA821B075046328C0D9887109DD218CF2D6D33DF83FFE4786D8E4514FEFA856A7C392C34CE94C720452BA7CC650133CCA3397A8F447DDB2DA75FCA7410B9E892F526092AAD3D45645C5E14B47DC6A4D9F2DB00038AB5FE6A65BC8811CBCB35F52405990B9DE06011586174664481AA8B3FB7DFA4
311
C04536B1560C14B07EDFDF5EFFB15D88241169B5B49D99EBB0B579C0E536DCA238507D2BC9B7A3A133DA96B7017341D9F924A77D12E68F584064256B80EE841FBCACAE8CE843D587466EA04371C4D0F5D2328D6D02A5862EEDDAAAC1C1DC91520B39A46F943A63DA02D99B178241290A13244679EF5F504B03041400060800
311
009C51E942000000000000000000000000350000006662782F32343532394638362D463242392D343631352D424537392D4332433132463944444630442F76657274696365732E62696E504B03041400060808009C51E942F270F1330600000004000000360000006662782F32343532394638362D463242392D343631352D
311
424537392D4332433132463944444630442F747269616E676C65732E62696E636660600000504B03041400060800009C51E942000000000000000000000000370000006662782F32343532394638362D463242392D343631352D424537392D4332433132463944444630442F617474726962757465732E62696E504B030414
311
00060808009C51E942D5987DFC8F00000041010000360000006662782F32343532394638362D463242392D343631352D424537392D4332433132463944444630442F6469726563746F72792E786D6C858F410EC2201045AF4266AF15DDB800BA74E7C21B903225242D6328188F2FA5C4183471359997F9FF81E89FF3C41E18
311
16475E02DF1F80A11FC8386F25A438EECEC07A250251FC3803E6F58C12560C4AD840E95E91C151A72936F496F35732D860FE635F62C8F2DA16B505C545B74125BAA2FA9E05D7CC053D063734D5C7665FD55B6B8D15D5E9BFEAFD8490FFA45E504B03041400060808009C51E942C9051430FC000000A00100003B0000006662
311
782F32343532394638362D463242392D343631352D424537392D4332433132463944444630442F7265736F75726365732F636F72652E786D6C8D504B6E833014BC0A7ADBCA60438004194721554FD00B58E6855A0936F2A7EAF16B0295DA5D371E6B3E7AA3E1E7AFF9917DA2F3DA9A1E584E2143A3ECA8CDD4430C377284EC
311
2CB8B336FCB24166E48C3DAC34083E391B979D52D6043421B1C68EB893D27B0C90A947FAF4E0D507CE3297312487BFE78B54773961CEF224279FE03EB85420DB8EAC2F0887DE46A7D0F36253058F518FBB478FE9A6BE697420DA86357533B4E42D2139BC1E1A726CAF036175555F9A4B79ADAA81176B58F0A0E79F8ECAA10C
311
38822829AB086D093DBD33DAB1B2AB9B175A7715E5C56AFF138ACBF8CF50D42654E55E778B79102C15790A8217EB5E099E63265CB715DF504B010214000A00000800009C51E9423DEE336E79000000790000001B00000000000000000000000000000000006175746F6465736B2D64657369676E2D7061636B6167652E786D
311
6C504B010214001400060808009C51E942D486FD9CA0000000F40000001300000000000000000000000000B20000005B436F6E74656E745F54797065735D2E786D6C504B010214001400060808009C51E94239648040EA0000007C010000080000000000000000000000000083010000636F72652E786D6C504B0102140014
311
00060808009C51E94255019EA25F0000007C000000070000000000000000000000000093020000636E782E786D6C504B010214001400060808009C51E9422FA5211667010000020300000C00000000000000000000000000170300006662782F636F72652E786D6C504B010214001400060808009C51E9427267B7557D0000
311
009D0000000B00000000000000000000000000A80400006662782F636E782E786D6C504B010214001400060808009C51E942C83D65202B0100001402000031000000000000000000000000004E0500006662782F32343532394638362D463242392D343631352D424537392D4332433132463944444630442F636F72652E78
311
6D6C504B010214001400060808009C51E942AA2325724E010000330300003000000000000000000000000000C80600006662782F32343532394638362D463242392D343631352D424537392D4332433132463944444630442F636E782E786D6C504B010214001400060808009C51E94290FE1CC2A405000080100000340000
311
0000000000000000000000640800006662782F32343532394638362D463242392D343631352D424537392D4332433132463944444630442F6F626A656374732E786D6C504B010214001400060800009C51E94200000000000000000000000035000000000000000000000000005A0E00006662782F32343532394638362D46
311
3242392D343631352D424537392D4332433132463944444630442F76657274696365732E62696E504B010214001400060808009C51E942F270F13306000000040000003600000000000000000000000000AD0E00006662782F32343532394638362D463242392D343631352D424537392D4332433132463944444630442F74
311
7269616E676C65732E62696E504B010214001400060800009C51E9420000000000000000000000003700000000000000000000000000070F00006662782F32343532394638362D463242392D343631352D424537392D4332433132463944444630442F617474726962757465732E62696E504B010214001400060808009C51
311
E942D5987DFC8F0000004101000036000000000000000000000000005C0F00006662782F32343532394638362D463242392D343631352D424537392D4332433132463944444630442F6469726563746F72792E786D6C504B010214001400060808009C51E942C9051430FC000000A00100003B000000000000000000000000
311
003F1000006662782F32343532394638362D463242392D343631352D424537392D4332433132463944444630442F7265736F75726365732F636F72652E786D6C504B0506000000000E000E0080040000941100000000
310
504B03040A00000800009C51E9423DEE336E79000000790000001B0000006175746F6465736B2D64657369676E2D7061636B6167652E786D6C3C3F786D6C2076657273696F6E3D22312E302220656E636F64696E673D227574662D3822203F3E3C666F726D6174733E3C666F726D61743E687474703A2F2F736368656D612E
310
6175746F6465736B2E636F6D2F64657369676E2D7061636B6167652F323030393C2F666F726D61743E3C2F666F726D6174733E504B03041400060808009C51E942D486FD9CA0000000F4000000130000005B436F6E74656E745F54797065735D2E786D6C7D8EC10E82300C865F65E91D8A1E8C310C0EEA1BF002731658846E
310
D98AC1B77784ABF1D8FE5FBFBF75BBCE937A534CCEB38643598122B6FEE978D0B0485F9C41B54DDD7D022595594E1A469170414C76A4D9A4D207E29CF43ECE46F218070CC6BECC4078ACAA135ACF422C856C0E68EA1BF5669944DDD7BCDE7B1F8E415D77AECB980613C2E4AC91FC167A2B244592486606FC29C8FD7F045B9A
310
EF7053A7E60B504B03041400060808009C51E942CC3A513FED0000007C01000008000000636F72652E786D6C8D90416EC3201045AF82665B6183899DC4C244751D9FA01740983828315806AA1EBF3871A476D7D58CFEFC3733FAFCF43DDDD1975EBC71B6019A1140DA2A37183B3610C3051F009D045F9C0BBF6C80AC9C7403
310
AB0C828F8B8BF326296783B621A9D60D7A13A5F73A0052F7D434E0D5554F3293312487BF65B3543739EA8CBEBA04C76806F43C6286B4CF5C8C5E40F445D777878F1E1F497BC6BBC399E177462BBCEBAAAA6D59498A76CFF315163C98E9755F2D5A063D8028086598EC31397E5252D3A22EAB3752D68CF07CB5FF81E23CFC13
310
8AC606566CEF3E310F82A6471E03C1F3358B541E41A5BAE6267E00504B03041400060808009C51E94255019EA25F0000007C00000007000000636E782E786D6C4DCB3B0E80201045D1AD90E915ED2CF8AC45050C11660C8261F98AB1B07AC9C97D42D718D865D3E909258CFD00CCE24AC6E326A164D74DC0B4128928FF3260
310
38472BA13128B1252AC747C6BAB984FC68F0B87FE8960A5C09FE86CFB69FBA01504B03041400060808009C51E942BE152C6169010000020300000C0000006662782F636F72652E786D6C8D52ED8E8230107C95A67F2FD0028A1F2935C7A94F702F50A1728DD092D2121FFF960FE37931C69094666667777680EDAE4D8D7A69
310
3B657486A390622475614AA5AB0C7B770ED618ED38B3C6B83F651869D1C80C0F30E6ACB2C6B7335418EDA476806A53CA19145D271D46450D970C77C58F6C4428BC838AEE12B6A2B8884A86510834D471D6390B06D0346438313F9FAE8C4C3867DEAB72665509D3D459498BF931DE1FF7EBAF63B0A1F92158AC0F49F0994469
310
B0D8A7699E274B1AE72B460631674E3537778595C2C912F3984649405701DD7C47741BC5DB65FA4197DB843232943F887C5BBE29F24ABB249EED4EB20EF3088C8CC4BF6D2122873AD1831FC219194284D798F063D0100884ECC4A9BEED7101A897853376014C69FC9DEA45ED254CA5687C189958E83C3680CD9EF6895FF479
310
DD033EA0D01558130EAE27EF86E96C9A3A47D14A1BF4EE8AB4B18DA8EFE6268BF7F33EE8A9BC30B5B1EFA8C9BC2A99C324C3DFCB7F01504B03041400060808009C51E942F5E985687E0000009D0000000B0000006662782F636E782E786D6C4DCCD10A83201886E15B91FFDC55A8CD03355AEA7DC4B290950EA76397BF1A1D
310
ECE883878F57749F6D456F975E3E0609CDA506E4C23D4E3E2C124A9E3107D4299162CC7F374061DC9C8483418925C5F23C6972F358D6BCEBEAC3E344CE7A6E34B1D868C330E59AE05EB714D3F63ADC6C53DB8111A894A87EA57D8FB0FA02504B03041400060808009C51E9426D49D45A2C0100001402000031000000666278
310
2F38354138454433462D454445352D343844332D414436342D3436374342463130464335332F636F72652E786D6C8D515B6EC32010BC0AE22B55850D7E854498288D9313F4020E901425068B4795E317D78ED4FEE58745B333B3A35DB67B0C77F0AD9CD7D6B490641802658495DA5C5B18C3055108769C396BC31F1A04A61F
310
540B2718727675368E0B24AC09CA84841A2BD502F6DEAB0081B8A74F0BBDF852439FF5312486BF65632F6EFD5565244BEDC4E3CC0797028079C8F4424EEB3D3D76E5091DBB638D2ADA9568DF3515AA9AF5E1E344F0E950972C9F859CC5A8E522D732C5D117ADDCAB269398B3A087677CE1541F9484BCC0A444788DF0E693E0
310
2D29B675F38EEB6D89593ED1FF89E2285F14456D42592C716799879CB07C6E70266D3CDF9F61D463B42E8069DECA2BF10639CE302968D150CAF2999A16903C9B6AF1F4C1BAB4E0D5ED9CD8E562DC549CE5D38D52F93D60AAD33DF90F504B03041400060808009C51E942CC84EA655701000033030000300000006662782F38
310
354138454433462D454445352D343844332D414436342D3436374342463130464335332F636E782E786D6CBD93CD6EC32010845F0571ADFC17276E1A6122F5D027E8A1570C9B84068305B86ADEBE4B42D25C7AA854F582ACD96166F509B3EDE768C807F8A09DED6953D69480954E69BBEFE91C77C59A922D67DEB97867A3C4
310
8A117A9A64CAD9DEBB79CA92829D984D44D5687BCCA287E0662F21A09C6E12E3A4301800B69851847100A540919B11BF76E071151487138907202FCF6FC40DEF206360554AE1AC4A1D9CA53337DD9928914684D0D3200F308A52CCD12908C7528928CAA6BC76FDB0D377124917AE95B3D72495F7349D94E78D4AE4C82A1C72
310
16A2477AD9144F13502EA6C968292242AECEC68B87B359DBD82DB35723788FEE76D1ADD718769E7116F508D9213D88088AF245DDB445FD58D44FAF4DBD69169B55F750AF366DCDAA64E76C70CEE44B1803DE4D443A1BC146CA1B56A5F14FF8B28F28ED91B5F3A75F804400B9F542E796F1977C9AAE5D2EFF914F757EDF88CB
310
E35FC0BF00504B03041400060808009C51E9420B59A2DB62070000991B0000340000006662782F38354138454433462D454445352D343844332D414436342D3436374342463130464335332F6F626A656374732E786D6CED59DD73A33610FF5718FAD23E189BD8CEC51D42C7B12F379E9BB43775AFD307CF3032C8448D108C
310
247249FFFAAE3EC0404C82DBF4AD0F3620A4D5EE6F3FB5043F3D65D479C45C909C5DBBBE37711DCCE23C212CBD764B79185DB9CE4F61C0F35C36A6B90E4319BE76D5B01B0629CFCBC20E25F8804A2A3BA3B7377F3822C60CBB4E4C9110D7AE88EF71863C54CA3CC1E2C14B90445E7A78F27CCF4C6C934D392AEE3B440BC431
310
93C0298C33A0E218A6FCF6E3C41D87C158BD0F03F56F674D07CD9AF5CF1A6BA9DB5C12262462F10B963A64A683589AFAB3F5C78BF962349FCDA6A3D9E5853FBAB9BD598FFC0FD3C9EA72B55A2C3F2E80BD7D9E532B53820BCC12D0DFB31BFAC158BDA945B7089CE23ACE19C3B10612A0D2627509122C60AB067C93F6A3AF24
310
6ABCD612369E67EABD65A1313C6D53E99B350C88165D10C46E57495C5D9BF2E5FB3F417031C428B9C012B8159283762D3C1CBCC20D27C1D88C86C1FEA80B229C0C49CC09A20E257B8E382805A6AA296160165832CA3938907294045A73E675DBB6C033DF769D535C1E4A4A9567B8A176AC08DC0F4BA139237F617EE4BE890C
310
F004D29684C92BCBA57C2EB01B2E82B11E0C0375995ED8970648E740512A3422E66D47D09572FDCDDA0D3FDFEE9FB62A1C9CDEBCE07981B95446A7F4A8F90243B6578592DDD61FA439B5008431A0DA9547507E05E47F86E8716405F4C6C9D3EC6966E74A8E9838E43C03DD3813673481BF89E3EB7F75DFB80BC6F5E2B6F6FA
310
F0043755505DFD7B3CDB3268AC2CFF0D38C3E0110C3EE753FB6A1B230AF67C471800A48CC4A1390C41683FEC9FDC70038113023DAC4234F4416460F7116E83B12573D44AE55ED6EB18206AF7980E5112C0A62D12D8E8D1D327C81E9CC447353545EC8377FE2EE6BA5C6F3F6F4B7E4031BEB33EBDC607C28884AC799AA116E6
310
2D891EF0F3B79C2720E84BBCB74DBC33BB9500B415E60AF8B402413D1C776E6D10C3BA3457E1267863071042E5EA06FD3B22624C2962382FAB7DEBE8A60CB5F6785B33B8E18581787AD131618E1F89AA2AC0698E335A8C42DE8F392914886EF8C94856074DAF47BAAF9B9FC122EBF93DB3360C422F43F4371DB44EE0D0B2EC
310
0A690B442DF0FE18CEE39CE63CDA3F4726D2B9504B001B6D6FF9BD451462BD5192A2021EA4FDAE0A29A991364AC8E1500A88AB2758FC7DB36A9AC3C49BFA73A7F9DF71C619445BF05DC4ADDF75F6884886521C1D50D2B75D73B79AB6D0247B48737CA020177924F23942329A24383D079AB3882FDE957A4A732108C302F2D5
310
49F09B684C3C0824469B15CB4AAB1DA08988322C113D070145A6075C9D76748D1B43E9F0368FB5F5BEA6B126D1FFC82238825A32671181521472C89B8CFBDE1C62481B5D8372075FB0B68AB61683965042C4CFD1374CD27B790EEA867C0FEE311C494A19E5058AC1AC07907DE12B4AA91DDEF7287E50F9238A4BFA5E062230
310
3D4484D2328BE047189C3C86B8761D985E45A141DCC43E893328CA902CF9904D2EE79317FB989AA11B021B1B1D0885B01D65A8E841BD1510753DE2D4E05BEA3D4ADD975911A12C2FD92043F1A65D6FB2E4BB6A556407F2AB4A45281B2BC29660181026EBAC5AC56C30751D58C18D74A07A8E04CA0A6A4E616F241EBFF6264D
310
B977036EFDF47D37C8A0F0EBD15E33A2CE2A182C8FADC2407C4332BE77C3ADBE8E6EA0FE4E70724CF555ADD9AC00013115C94B4EAC8ABE6EA0BCB1359A1BDE2129769F4CD6ADAE5F371E743F8231AC81DAA55EB85140679849A42A933B75437F4510825B34CCF846E5D473A82C9344578D88DE923E75B6CA88D6A619F18A7B
310
CCF20C7E6C47584CCB04EF50221EA23B49A32D51AC5B29BD8C5418BF2AE02F9FB61D78606480485F548187BF75D6DAD1952A974E1291F765B6678840106C89961ADD78054BAD462A2DD75775A680BA0B0CCCAA78F6FFC9A2D98EF8FF64915AC3F877270B9AEF113D469B46368F95599F750AA8D393A2F21EA700DD75A8A9D6
310
49C4E4722BBEF5A508626215E407176355CC3004FB38FEC749BB2F099AED3AFC9F97B4FD1705C75949A5355935A94E14AE9B660ABB5DDECC3F2E97EBD1FCC30AFAB31F96B7A3C5957F3BBA9DAF171F6EFCCBC5627553A3A9FD340CEA58A653173C9B98560DAB278B013465454E490287F9C44931847C0947FA01DD739E6101
310
B9B3D9EB4E6C4F7EC0EA47D3E694684F71C5C93D82FE301590D501A33296ED71E73BE84C4A38675FBBD033F21EE0CF5AA5EB40E2B976A15320498C85B7872E93EAE769E2907175EAB7C4001FC4529511CDA2FAB95EA5B06945FF7ACA902C60E56AB530A06E2BA0F9D56A5068DE2C4FF1598257EC3848C2EDBE9450AC19598E
310
03B5307A9BA3FA8D6C94B007BBF513B8EEEB62F99E9ED34264D01783578DC0501D49C453DDEE568C599696EB2F6368B3399B5F9C829629E87238A511C760CCA5AAA7C08AC02A2CCD024930D5D58FBB2F3C872F3C99A38B22E7FBA7ABCB1F76AB3CCB726686764B389425F09DC8D9DEC3579F6407B50356BD75B1BB98F8173B
310
DDD3B66DF6688F04F654510403552DA104E9981CD8E58BFE94ED5E8E952A3AD3376BC70651E805183B7AD1E235DFB81CF021F53545798CF6F34ADA57DBDA633D156C8243433AFC1B504B03041400060800009C51E942000000000000000000000000350000006662782F38354138454433462D454445352D343844332D4144
310
36342D3436374342463130464335332F76657274696365732E62696E504B03041400060808009C51E942F270F1330600000004000000360000006662782F38354138454433462D454445352D343844332D414436342D3436374342463130464335332F747269616E676C65732E62696E636660600000504B03041400060800
310
009C51E942000000000000000000000000370000006662782F38354138454433462D454445352D343844332D414436342D3436374342463130464335332F617474726962757465732E62696E504B03041400060808009C51E942D5987DFC8F00000041010000360000006662782F38354138454433462D454445352D343844
310
332D414436342D3436374342463130464335332F6469726563746F72792E786D6C858F410EC2201045AF4266AF15DDB800BA74E7C21B903225242D6328188F2FA5C4183471359997F9FF81E89FF3C41E1816475E02DF1F80A11FC8386F25A438EECEC07A250251FC3803E6F58C12560C4AD840E95E91C151A72936F496F357
310
32D860FE635F62C8F2DA16B505C545B74125BAA2FA9E05D7CC053D063734D5C7665FD55B6B8D15D5E9BFEAFD8490FFA45E504B03041400060808009C51E942A4D00C0EFF000000A00100003B0000006662782F38354138454433462D454445352D343844332D414436342D3436374342463130464335332F7265736F757263
310
65732F636F72652E786D6C8D50596E833010BD0A9ADFCA60E3842C328E4A434ED00B586642AD043BF252F5F835814AED5F7F66466FD13C3D71FA9AEEC527FA609C6D8195140AB4DA0DC68E2DA478257B284E5278E7E22F1914564DD8C20C8314A377E9B142DAD9883666D4BA0157508580110A7DCF470B417FE0A44A956256
310
845BF950FAA6462C5999E9AC9322449F0314CB937982F4185CF21A83A816568A94CCB06ACC907F9AAB410FF2529F2FE7FD5B4F0EB4EBC966DF73F2CA594336E7A6E93ABEA575B713D56C96229AE927A3F6A8220E206BCA38A13B420FEF8C1E597DDC362F747BE45454B3FC8F293D867F9A92B191D76BDCC51640B21CE44948
310
51CD7DE5F52C33EFB95BF90D504B010214000A00000800009C51E9423DEE336E79000000790000001B00000000000000000000000000000000006175746F6465736B2D64657369676E2D7061636B6167652E786D6C504B010214001400060808009C51E942D486FD9CA0000000F40000001300000000000000000000000000
310
B20000005B436F6E74656E745F54797065735D2E786D6C504B010214001400060808009C51E942CC3A513FED0000007C010000080000000000000000000000000083010000636F72652E786D6C504B010214001400060808009C51E94255019EA25F0000007C000000070000000000000000000000000096020000636E782E
310
786D6C504B010214001400060808009C51E942BE152C6169010000020300000C000000000000000000000000001A0300006662782F636F72652E786D6C504B010214001400060808009C51E942F5E985687E0000009D0000000B00000000000000000000000000AD0400006662782F636E782E786D6C504B01021400140006
310
0808009C51E9426D49D45A2C010000140200003100000000000000000000000000540500006662782F38354138454433462D454445352D343844332D414436342D3436374342463130464335332F636F72652E786D6C504B010214001400060808009C51E942CC84EA65570100003303000030000000000000000000000000
310
00CF0600006662782F38354138454433462D454445352D343844332D414436342D3436374342463130464335332F636E782E786D6C504B010214001400060808009C51E9420B59A2DB62070000991B00003400000000000000000000000000740800006662782F38354138454433462D454445352D343844332D414436342D
310
3436374342463130464335332F6F626A656374732E786D6C504B010214001400060800009C51E9420000000000000000000000003500000000000000000000000000281000006662782F38354138454433462D454445352D343844332D414436342D3436374342463130464335332F76657274696365732E62696E504B0102
310
14001400060808009C51E942F270F133060000000400000036000000000000000000000000007B1000006662782F38354138454433462D454445352D343844332D414436342D3436374342463130464335332F747269616E676C65732E62696E504B010214001400060800009C51E942000000000000000000000000370000
310
0000000000000000000000D51000006662782F38354138454433462D454445352D343844332D414436342D3436374342463130464335332F617474726962757465732E62696E504B010214001400060808009C51E942D5987DFC8F0000004101000036000000000000000000000000002A1100006662782F38354138454433
310
462D454445352D343844332D414436342D3436374342463130464335332F6469726563746F72792E786D6C504B010214001400060808009C51E942A4D00C0EFF000000A00100003B000000000000000000000000000D1200006662782F38354138454433462D454445352D343844332D414436342D34363743424631304643
310
35332F7265736F75726365732F636F72652E786D6C504B0506000000000E000E0080040000651300000000
  0
XRECORD
  5
27
102
{ACAD_REACTORS
330
22
102
}
330
22
100
AcDbXrecord
280
     1
270
     1
271
     1
  0
XRECORD
  5
26
102
{ACAD_REACTORS
330
22
102
}
330
22
100
AcDbXrecord
280
     1
270
     1
271
     1
  0
XRECORD
  5
28
102
{ACAD_REACTORS
330
22
102
}
330
22
100
AcDbXrecord
280
     1
270
     1
271
     1
  0
XRECORD
  5
25
102
{ACAD_REACTORS
330
22
102
}
330
22
100
AcDbXrecord
280
     1
270
     1
271
     1
  0
XRECORD
  5
D6E
102
{ACAD_REACTORS
330
D6D
102
}
330
D6D
100
AcDbXrecord
280
     1
102
ACAD_ROUNDTRIP_2012_MLEADER_STYLE
298
     1
  0
CELLSTYLEMAP
  5
D6C
102
{ACAD_REACTORS
330
D6B
102
}
330
D6B
100
AcDbCellStyleMap
 90
        3
300
CELLSTYLE
  1
TABLEFORMAT_BEGIN
 90
        5
170
     1
 91
        0
 92
    32768
 62
   257
 93
        1
300
CONTENTFORMAT
  1
CONTENTFORMAT_BEGIN
 90
        0
 91
        0
 92
      512
 93
        0
300

 40
0.0
140
1.0
 94
        5
 62
     0
340
55
144
0.25
309
CONTENTFORMAT_END
171
     0
 94
        0
309
TABLEFORMAT_END
  1
CELLSTYLE_BEGIN
 90
        1
 91
        1
300
_TITLE
309
CELLSTYLE_END
300
CELLSTYLE
  1
TABLEFORMAT_BEGIN
 90
        5
170
     1
 91
        0
 92
        0
 62
   257
 93
        1
300
CONTENTFORMAT
  1
CONTENTFORMAT_BEGIN
 90
        0
 91
        0
 92
      512
 93
        0
300

 40
0.0
140
1.0
 94
        5
 62
     0
340
55
144
0.18
309
CONTENTFORMAT_END
171
     0
 94
        0
309
TABLEFORMAT_END
  1
CELLSTYLE_BEGIN
 90
        2
 91
        1
300
_HEADER
309
CELLSTYLE_END
300
CELLSTYLE
  1
TABLEFORMAT_BEGIN
 90
        5
170
     1
 91
        0
 92
        0
 62
   257
 93
        1
300
CONTENTFORMAT
  1
CONTENTFORMAT_BEGIN
 90
        0
 91
        0
 92
      512
 93
        0
300

 40
0.0
140
1.0
 94
        2
 62
     0
340
55
144
0.18
309
CONTENTFORMAT_END
171
     0
 94
        0
309
TABLEFORMAT_END
  1
CELLSTYLE_BEGIN
 90
        3
 91
        2
300
_DATA
309
CELLSTYLE_END
  0
ENDSEC
  0
EOF
