  0
SECTION
  2
HEADER
  9
$ACADVER
  1
AC1024
  9
$ACADMAINTVER
 70
    63
  9
$DWGCODEPAGE
  3
ANSI_1252
  9
$AUTHOR
  1
MS
  9
$REVISIONNUMBER
  1
-
  9
$CUSTOMPROPERTYTAG
  1
Manager
  9
$CUSTOMPROPERTY
  1

  9
$CUSTOMPROPERTYTAG
  1
Company
  9
$CUSTOMPROPERTY
  1

  9
$CUSTOMPROPERTYTAG
  1
Category
  9
$CUSTOMPROPERTY
  1

  9
$CUSTOMPROPERTYTAG
  1
Part Number
  9
$CUSTOMPROPERTY
  1
NPDD4848
  9
$CUSTOMPROPERTYTAG
  1
Description
  9
$CUSTOMPROPERTY
  1
NPDD PANEL MASTER VIEW
  9
$CUSTOMPROPERTYTAG
  1
Project
  9
$CUSTOMPROPERTY
  1

  9
$CUSTOMPROPERTYTAG
  1
Designer
  9
$CUSTOMPROPERTY
  1
MS
  9
$CUSTOMPROPERTYTAG
  1
Engineer
  9
$CUSTOMPROPERTY
  1

  9
$CUSTOMPROPERTYTAG
  1
Authority
  9
$CUSTOMPROPERTY
  1

  9
$CUSTOMPROPERTYTAG
  1
Cost Center
  9
$CUSTOMPROPERTY
  1

  9
$CUSTOMPROPERTYTAG
  1
Vendor
  9
$CUSTOMPROPERTY
  1

  9
$CUSTOMPROPERTYTAG
  1
User Status
  9
$CUSTOMPROPERTY
  1

  9
$CUSTOMPROPERTYTAG
  1
Design Status
  9
$CUSTOMPROPERTY
  1
WorkInProgress
  9
$CUSTOMPROPERTYTAG
  1
Checked by
  9
$CUSTOMPROPERTY
  1
NJ
  9
$CUSTOMPROPERTYTAG
  1
Date Checked
  9
$CUSTOMPROPERTY
  1
06/19/2013
  9
$CUSTOMPROPERTYTAG
  1
Engr Approved by
  9
$CUSTOMPROPERTY
  1

  9
$CUSTOMPROPERTYTAG
  1
Mfg Approved by
  9
$CUSTOMPROPERTY
  1

  9
$CUSTOMPROPERTYTAG
  1
DWG. NO
  9
$CUSTOMPROPERTY
  1

  9
$CUSTOMPROPERTYTAG
  1
NUMBER OF SHEETS
  9
$CUSTOMPROPERTY
  1
2
  9
$CUSTOMPROPERTYTAG
  1
DRAWING #
  9
$CUSTOMPROPERTY
  1
1
  9
$INSBASE
 10
0.0
 20
0.0
 30
0.0
  9
$EXTMIN
 10
0.0
 20
0.0
 30
0.0
  9
$EXTMAX
 10
187.0
 20
121.0
 30
0.0
  9
$LIMMIN
 10
0.0
 20
0.0
  9
$LIMMAX
 10
187.0
 20
121.0
  9
$ORTHOMODE
 70
     0
  9
$REGENMODE
 70
     1
  9
$FILLMODE
 70
     1
  9
$QTEXTMODE
 70
     0
  9
$MIRRTEXT
 70
     0
  9
$LTSCALE
 40
11.0
  9
$ATTMODE
 70
     1
  9
$TEXTSIZE
 40
0.2
  9
$TRACEWID
 40
0.05
  9
$TEXTSTYLE
  7
Standard
  9
$CLAYER
  8
0
  9
$CELTYPE
  6
ByLayer
  9
$CECOLOR
 62
   256
  9
$CELTSCALE
 40
1.0
  9
$DISPSILH
 70
     0
  9
$DIMSCALE
 40
1.0
  9
$DIMASZ
 40
0.0708661417322835
  9
$DIMEXO
 40
0.0625
  9
$DIMDLI
 40
0.38
  9
$DIMRND
 40
0.0
  9
$DIMDLE
 40
0.0
  9
$DIMEXE
 40
0.18
  9
$DIMTP
 40
0.0
  9
$DIMTM
 40
0.0
  9
$DIMTXT
 40
0.0708661417322835
  9
$DIMCEN
 40
0.09
  9
$DIMTSZ
 40
0.0
  9
$DIMTOL
 70
     0
  9
$DIMLIM
 70
     0
  9
$DIMTIH
 70
     1
  9
$DIMTOH
 70
     1
  9
$DIMSE1
 70
     0
  9
$DIMSE2
 70
     0
  9
$DIMTAD
 70
     0
  9
$DIMZIN
 70
     0
  9
$DIMBLK
  1

  9
$DIMASO
 70
     1
  9
$DIMSHO
 70
     1
  9
$DIMPOST
  1

  9
$DIMAPOST
  1

  9
$DIMALT
 70
     0
  9
$DIMALTD
 70
     2
  9
$DIMALTF
 40
25.4
  9
$DIMLFAC
 40
1.0
  9
$DIMTOFL
 70
     0
  9
$DIMTVP
 40
0.0
  9
$DIMTIX
 70
     0
  9
$DIMSOXD
 70
     0
  9
$DIMSAH
 70
     0
  9
$DIMBLK1
  1

  9
$DIMBLK2
  1

  9
$DIMSTYLE
  2
STANDARD
  9
$DIMCLRD
 70
     0
  9
$DIMCLRE
 70
     0
  9
$DIMCLRT
 70
     0
  9
$DIMTFAC
 40
1.0
  9
$DIMGAP
 40
0.09
  9
$DIMJUST
 70
     0
  9
$DIMSD1
 70
     0
  9
$DIMSD2
 70
     0
  9
$DIMTOLJ
 70
     1
  9
$DIMTZIN
 70
     0
  9
$DIMALTZ
 70
     0
  9
$DIMALTTZ
 70
     0
  9
$DIMUPT
 70
     0
  9
$DIMDEC
 70
     4
  9
$DIMTDEC
 70
     4
  9
$DIMALTU
 70
     2
  9
$DIMALTTD
 70
     2
  9
$DIMTXSTY
  7
Standard
  9
$DIMAUNIT
 70
     0
  9
$DIMADEC
 70
     0
  9
$DIMALTRND
 40
0.0
  9
$DIMAZIN
 70
     0
  9
$DIMDSEP
 70
    46
  9
$DIMATFIT
 70
     3
  9
$DIMFRAC
 70
     0
  9
$DIMLDRBLK
  1

  9
$DIMLUNIT
 70
     2
  9
$DIMLWD
 70
    -2
  9
$DIMLWE
 70
    -2
  9
$DIMTMOVE
 70
     0
  9
$DIMFXL
 40
1.0
  9
$DIMFXLON
 70
     0
  9
$DIMJOGANG
 40
0.7853981633974483
  9
$DIMTFILL
 70
     0
  9
$DIMTFILLCLR
 70
     0
  9
$DIMARCSYM
 70
     0
  9
$DIMLTYPE
  6

  9
$DIMLTEX1
  6

  9
$DIMLTEX2
  6

  9
$DIMTXTDIRECTION
 70
     0
  9
$LUNITS
 70
     2
  9
$LUPREC
 70
     4
  9
$SKETCHINC
 40
0.1
  9
$FILLETRAD
 40
0.0
  9
$AUNITS
 70
     0
  9
$AUPREC
 70
     0
  9
$MENU
  1
.
  9
$ELEVATION
 40
0.0
  9
$PELEVATION
 40
0.0
  9
$THICKNESS
 40
0.0
  9
$LIMCHECK
 70
     0
  9
$CHAMFERA
 40
0.0
  9
$CHAMFERB
 40
0.0
  9
$CHAMFERC
 40
0.0
  9
$CHAMFERD
 40
0.0
  9
$SKPOLY
 70
     0
  9
$TDCREATE
 40
2456465.442010857
  9
$TDUCREATE
 40
2456465.212844190
  9
$TDUPDATE
 40
2456465.442010868
  9
$TDUUPDATE
 40
2456465.212844201
  9
$TDINDWG
 40
0.0000446181
  9
$TDUSRTIMER
 40
0.0000446181
  9
$USRTIMER
 70
     1
  9
$ANGBASE
 50
0.0
  9
$ANGDIR
 70
     0
  9
$PDMODE
 70
     0
  9
$PDSIZE
 40
0.0
  9
$PLINEWID
 40
0.0
  9
$SPLFRAME
 70
     0
  9
$SPLINETYPE
 70
     6
  9
$SPLINESEGS
 70
     8
  9
$HANDSEED
  5
D8B
  9
$SURFTAB1
 70
     6
  9
$SURFTAB2
 70
     6
  9
$SURFTYPE
 70
     6
  9
$SURFU
 70
     6
  9
$SURFV
 70
     6
  9
$UCSBASE
  2

  9
$UCSNAME
  2

  9
$UCSORG
 10
0.0
 20
0.0
 30
0.0
  9
$UCSXDIR
 10
1.0
 20
0.0
 30
0.0
  9
$UCSYDIR
 10
0.0
 20
1.0
 30
0.0
  9
$UCSORTHOREF
  2

  9
$UCSORTHOVIEW
 70
     0
  9
$UCSORGTOP
 10
0.0
 20
0.0
 30
0.0
  9
$UCSORGBOTTOM
 10
0.0
 20
0.0
 30
0.0
  9
$UCSORGLEFT
 10
0.0
 20
0.0
 30
0.0
  9
$UCSORGRIGHT
 10
0.0
 20
0.0
 30
0.0
  9
$UCSORGFRONT
 10
0.0
 20
0.0
 30
0.0
  9
$UCSORGBACK
 10
0.0
 20
0.0
 30
0.0
  9
$PUCSBASE
  2

  9
$PUCSNAME
  2

  9
$PUCSORG
 10
0.0
 20
0.0
 30
0.0
  9
$PUCSXDIR
 10
1.0
 20
0.0
 30
0.0
  9
$PUCSYDIR
 10
0.0
 20
1.0
 30
0.0
  9
$PUCSORTHOREF
  2

  9
$PUCSORTHOVIEW
 70
     0
  9
$PUCSORGTOP
 10
0.0
 20
0.0
 30
0.0
  9
$PUCSORGBOTTOM
 10
0.0
 20
0.0
 30
0.0
  9
$PUCSORGLEFT
 10
0.0
 20
0.0
 30
0.0
  9
$PUCSORGRIGHT
 10
0.0
 20
0.0
 30
0.0
  9
$PUCSORGFRONT
 10
0.0
 20
0.0
 30
0.0
  9
$PUCSORGBACK
 10
0.0
 20
0.0
 30
0.0
  9
$USERI1
 70
     0
  9
$USERI2
 70
     0
  9
$USERI3
 70
     0
  9
$USERI4
 70
     0
  9
$USERI5
 70
     0
  9
$USERR1
 40
0.0
  9
$USERR2
 40
0.0
  9
$USERR3
 40
0.0
  9
$USERR4
 40
0.0
  9
$USERR5
 40
0.0
  9
$WORLDVIEW
 70
     1
  9
$SHADEDGE
 70
     3
  9
$SHADEDIF
 70
    70
  9
$TILEMODE
 70
     1
  9
$MAXACTVP
 70
    64
  9
$PINSBASE
 10
0.0
 20
0.0
 30
0.0
  9
$PLIMCHECK
 70
     0
  9
$PEXTMIN
 10
0.0
 20
0.0
 30
0.0
  9
$PEXTMAX
 10
187.0
 20
121.0
 30
0.0
  9
$PLIMMIN
 10
0.0
 20
0.0
  9
$PLIMMAX
 10
187.0
 20
121.0
  9
$UNITMODE
 70
     0
  9
$VISRETAIN
 70
     1
  9
$PLINEGEN
 70
     0
  9
$PSLTSCALE
 70
     1
  9
$TREEDEPTH
 70
  3020
  9
$CMLSTYLE
  2
Standard
  9
$CMLJUST
 70
     0
  9
$CMLSCALE
 40
1.0
  9
$PROXYGRAPHICS
 70
     1
  9
$MEASUREMENT
 70
     0
  9
$CELWEIGHT
370
    -1
  9
$ENDCAPS
280
     0
  9
$JOINSTYLE
280
     0
  9
$LWDISPLAY
290
     0
  9
$INSUNITS
 70
     1
  9
$HYPERLINKBASE
  1

  9
$STYLESHEET
  1

  9
$XEDIT
290
     1
  9
$CEPSNTYPE
380
     0
  9
$PSTYLEMODE
290
     1
  9
$FINGERPRINTGUID
  2
{0059F777-DC3C-493F-A56B-61F5C4BD2795}
  9
$VERSIONGUID
  2
{C4C5CAA3-1712-4C26-9AD5-36A4D0FA6E69}
  9
$EXTNAMES
290
     1
  9
$PSVPSCALE
 40
0.0
  9
$OLESTARTUP
290
     0
  9
$SORTENTS
280
   127
  9
$INDEXCTL
280
     0
  9
$HIDETEXT
280
     1
  9
$XCLIPFRAME
280
     2
  9
$HALOGAP
280
     0
  9
$OBSCOLOR
 70
   257
  9
$OBSLTYPE
280
     0
  9
$INTERSECTIONDISPLAY
280
     0
  9
$INTERSECTIONCOLOR
 70
   257
  9
$DIMASSOC
280
     1
  9
$PROJECTNAME
  1

  9
$CAMERADISPLAY
290
     0
  9
$LENSLENGTH
 40
50.0
  9
$CAMERAHEIGHT
 40
0.0
  9
$STEPSPERSEC
 40
2.0
  9
$STEPSIZE
 40
6.0
  9
$3DDWFPREC
 40
2.0
  9
$PSOLWIDTH
 40
0.25
  9
$PSOLHEIGHT
 40
4.0
  9
$LOFTANG1
 40
1.570796326794896
  9
$LOFTANG2
 40
1.570796326794896
  9
$LOFTMAG1
 40
0.0
  9
$LOFTMAG2
 40
0.0
  9
$LOFTPARAM
 70
     7
  9
$LOFTNORMALS
280
     1
  9
$LATITUDE
 40
37.795
  9
$LONGITUDE
 40
-122.394
  9
$NORTHDIRECTION
 40
0.0
  9
$TIMEZONE
 70
 -8000
  9
$LIGHTGLYPHDISPLAY
280
     1
  9
$TILEMODELIGHTSYNCH
280
     1
  9
$CMATERIAL
347
11
  9
$SOLIDHIST
280
     0
  9
$SHOWHIST
280
     1
  9
$DWFFRAME
280
     2
  9
$DGNFRAME
280
     0
  9
$REALWORLDSCALE
290
     1
  9
$INTERFERECOLOR
 62
     1
  9
$INTERFEREOBJVS
345
33
  9
$INTERFEREVPVS
346
30
  9
$CSHADOW
280
     0
  9
$SHADOWPLANELOCATION
 40
0.0
  0
ENDSEC
  0
SECTION
  2
CLASSES
  0
CLASS
  1
ACDBDICTIONARYWDFLT
  2
AcDbDictionaryWithDefault
  3
ObjectDBX Classes
 90
        0
 91
        1
280
     0
281
     0
  0
CLASS
  1
MATERIAL
  2
AcDbMaterial
  3
ObjectDBX Classes
 90
     1153
 91
        3
280
     0
281
     0
  0
CLASS
  1
VISUALSTYLE
  2
AcDbVisualStyle
  3
ObjectDBX Classes
 90
     4095
 91
       24
280
     0
281
     0
  0
CLASS
  1
SCALE
  2
AcDbScale
  3
ObjectDBX Classes
 90
     1153
 91
       17
280
     0
281
     0
  0
CLASS
  1
TABLESTYLE
  2
AcDbTableStyle
  3
ObjectDBX Classes
 90
     4095
 91
        1
280
     0
281
     0
  0
CLASS
  1
MLEADERSTYLE
  2
AcDbMLeaderStyle
  3
ACDB_MLEADERSTYLE_CLASS
 90
     4095
 91
        1
280
     0
281
     0
  0
CLASS
  1
DICTIONARYVAR
  2
AcDbDictionaryVar
  3
ObjectDBX Classes
 90
        0
 91
        3
280
     0
281
     0
  0
CLASS
  1
CELLSTYLEMAP
  2
AcDbCellStyleMap
  3
ObjectDBX Classes
 90
     1152
 91
        1
280
     0
281
     0
  0
ENDSEC
  0
SECTION
  2
TABLES
  0
TABLE
  2
VPORT
  5
8
330
0
100
AcDbSymbolTable
 70
     1
  0
VPORT
  5
57
330
8
100
AcDbSymbolTableRecord
100
AcDbViewportTableRecord
  2
*Active
 70
     0
 10
0.0
 20
0.0
 11
1.0
 21
1.0
 12
93.49999999999999
 22
60.5
 13
0.0
 23
0.0
 14
1.0
 24
1.0
 15
0.0
 25
0.0
 16
0.0
 26
0.0
 36
1.0
 17
0.0
 27
0.0
 37
0.0
 40
121.0
 41
1.545454545454545
 42
50.0
 43
0.0
 44
0.0
 50
0.0
 51
0.0
 71
     0
 72
   100
 73
     1
 74
     1
 75
     0
 76
     0
 77
     0
 78
     0
281
     0
 65
     1
110
0.0
120
0.0
130
0.0
111
1.0
121
0.0
131
0.0
112
0.0
122
1.0
132
0.0
 79
     0
146
0.0
 60
     3
 61
     5
292
     1
282
     1
141
0.0
142
0.0
 63
   250
421
  3355443
  0
ENDTAB
  0
TABLE
  2
LTYPE
  5
5
330
0
100
AcDbSymbolTable
 70
    59
  0
LTYPE
  5
5B
330
5
100
AcDbSymbolTableRecord
100
AcDbLinetypeTableRecord
  2
ByBlock
 70
     0
  3

 72
    65
 73
     0
 40
0.0
  0
LTYPE
  5
5C
330
5
100
AcDbSymbolTableRecord
100
AcDbLinetypeTableRecord
  2
ByLayer
 70
     0
  3

 72
    65
 73
     0
 40
0.0
  0
LTYPE
  5
5D
330
5
100
AcDbSymbolTableRecord
100
AcDbLinetypeTableRecord
  2
Continuous
 70
     0
  3
Solid line
 72
    65
 73
     0
 40
0.0
  0
LTYPE
  5
7C
330
5
100
AcDbSymbolTableRecord
100
AcDbLinetypeTableRecord
  2
BY_STANDARD
 70
     0
  3
By Standard ____________    ____    ____   _
 72
    65
 73
     6
 40
1.240299999999999
 49
0.6614
 74
     0
 49
-0.0827
 74
     0
 49
0.1654
 74
     0
 49
-0.0827
 74
     0
 49
0.1654
 74
     0
 49
-0.0827
 74
     0
  0
LTYPE
  5
7D
330
5
100
AcDbSymbolTableRecord
100
AcDbLinetypeTableRecord
  2
CHAIN
 70
     0
  3
Chain ____ _ ____ _ ____ _ ____ _ ____ _ ____
 72
    65
 73
     4
 40
0.7087
 49
0.4724000000000001
 74
     0
 49
-0.0591
 74
     0
 49
0.1181
 74
     0
 49
-0.0591
 74
     0
  0
LTYPE
  5
7E
330
5
100
AcDbSymbolTableRecord
100
AcDbLinetypeTableRecord
  2
DASH_DOT
 70
     0
  3
Dash dot __ . __ . __ . __ . __ . __ . __ . __
 72
    65
 73
     4
 40
0.37
 49
0.24
 74
     0
 49
-0.06
 74
     0
 49
0.01
 74
     0
 49
-0.06
 74
     0
  0
LTYPE
  5
7F
330
5
100
AcDbSymbolTableRecord
100
AcDbLinetypeTableRecord
  2
DOUBLE_DASH_DOT
 70
     0
  3
Double-Dash Dot __ __ . __ __ . __ __ . __ _
 72
    65
 73
     6
 40
0.4398
 49
0.24
 74
     0
 49
-0.06
 74
     0
 49
0.0098
 74
     0
 49
-0.06
 74
     0
 49
0.01
 74
     0
 49
-0.06
 74
     0
  0
LTYPE
  5
80
330
5
100
AcDbSymbolTableRecord
100
AcDbLinetypeTableRecord
  2
DASH_TRIPLE_DOT
 70
     0
  3
Dash Triple-Dot _ . . . _ . . . _ . . . _
 72
    65
 73
     8
 40
0.51
 49
0.24
 74
     0
 49
-0.06
 74
     0
 49
0.01
 74
     0
 49
-0.06
 74
     0
 49
0.01
 74
     0
 49
-0.06
 74
     0
 49
0.01
 74
     0
 49
-0.06
 74
     0
  0
LTYPE
  5
81
330
5
100
AcDbSymbolTableRecord
100
AcDbLinetypeTableRecord
  2
DASHED
 70
     0
  3
Dashed __ __ __ __ __ __ __ __ __ __ __ __ __ _
 72
    65
 73
     2
 40
0.2067
 49
0.1654
 74
     0
 49
-0.0413
 74
     0
  0
LTYPE
  5
82
330
5
100
AcDbSymbolTableRecord
100
AcDbLinetypeTableRecord
  2
DASH_DOUBLE_DOT
 70
     0
  3
Dash Double-Dot __ . . __ . . __ . . __ . .
 72
    65
 73
     6
 40
0.4398
 49
0.24
 74
     0
 49
-0.06
 74
     0
 49
0.0098
 74
     0
 49
-0.06
 74
     0
 49
0.01
 74
     0
 49
-0.06
 74
     0
  0
LTYPE
  5
83
330
5
100
AcDbSymbolTableRecord
100
AcDbLinetypeTableRecord
  2
DASHED_SPACE
 70
     0
  3
Dashed Space __ __ __ __ __ __ __ __ __ __ __ _
 72
    65
 73
     2
 40
0.2067
 49
0.1654
 74
     0
 49
-0.0413
 74
     0
  0
LTYPE
  5
84
330
5
100
AcDbSymbolTableRecord
100
AcDbLinetypeTableRecord
  2
DOTTED
 70
     0
  3
Dotted . . . . . . . . . . . . . . . . . . . . 
 72
    65
 73
     2
 40
0.0482
 49
0.0069
 74
     0
 49
-0.0413
 74
     0
  0
LTYPE
  5
85
330
5
100
AcDbSymbolTableRecord
100
AcDbLinetypeTableRecord
  2
DOUBLE_DASH_CHAIN
 70
     0
  3
Double-Dash Chain ______  __  __  ______  __  _
 72
    65
 73
     6
 40
1.240299999999999
 49
0.6614
 74
     0
 49
-0.0827
 74
     0
 49
0.1654
 74
     0
 49
-0.0827
 74
     0
 49
0.1654
 74
     0
 49
-0.0827
 74
     0
  0
LTYPE
  5
87
330
5
100
AcDbSymbolTableRecord
100
AcDbLinetypeTableRecord
  2
DOUBLE_DASH_DOUBLE_DOT
 70
     0
  3
Double-Dash Double-dot _ _ . . _ _ . . _
 72
    65
 73
     8
 40
0.7400000000000001
 49
0.24
 74
     0
 49
-0.06
 74
     0
 49
0.24
 74
     0
 49
-0.06
 74
     0
 49
0.01
 74
     0
 49
-0.06
 74
     0
 49
0.01
 74
     0
 49
-0.06
 74
     0
  0
LTYPE
  5
88
330
5
100
AcDbSymbolTableRecord
100
AcDbLinetypeTableRecord
  2
DOUBLE_DASH_TRIPLE_DOT
 70
     0
  3
Double Dash Triple Dot __ __ . . . __ __ . .
 72
    65
 73
    10
 40
0.8100000000000001
 49
0.24
 74
     0
 49
-0.06
 74
     0
 49
0.24
 74
     0
 49
-0.06
 74
     0
 49
0.01
 74
     0
 49
-0.06
 74
     0
 49
0.01
 74
     0
 49
-0.06
 74
     0
 49
0.01
 74
     0
 49
-0.06
 74
     0
  0
LTYPE
  5
89
330
5
100
AcDbSymbolTableRecord
100
AcDbLinetypeTableRecord
  2
LONG_DASH_DOTTED
 70
     0
  3
Long Dash Dotted ____ . ____ . ____ . ____ . _
 72
    65
 73
     4
 40
0.3543
 49
0.2362
 74
     0
 49
-0.0295
 74
     0
 49
0.0591
 74
     0
 49
-0.0295
 74
     0
  0
LTYPE
  5
8A
330
5
100
AcDbSymbolTableRecord
100
AcDbLinetypeTableRecord
  2
LONG_DASH_DOUBLE_DOT
 70
     0
  3
Long Dash Double Dot ________  .  .  ________  
 72
    65
 73
     6
 40
0.6799999999999999
 49
0.48
 74
     0
 49
-0.06
 74
     0
 49
0.01
 74
     0
 49
-0.06
 74
     0
 49
0.01
 74
     0
 49
-0.06
 74
     0
  0
LTYPE
  5
8B
330
5
100
AcDbSymbolTableRecord
100
AcDbLinetypeTableRecord
  2
LONG_DASH_TRIPLE_DOT
 70
     0
  3
Long Dash Triple Dot ____ ... ____ ... ____
 72
    65
 73
     8
 40
0.3689
 49
0.2362
 74
     0
 49
-0.0295
 74
     0
 49
0.0049
 74
     0
 49
-0.0295
 74
     0
 49
0.0049
 74
     0
 49
-0.0295
 74
     0
 49
0.0049
 74
     0
 49
-0.0295
 74
     0
  0
LTYPE
  5
8C
330
5
100
AcDbSymbolTableRecord
100
AcDbLinetypeTableRecord
  2
BORDER
 70
     0
  3
Border __ __ . __ __ . __ __ . __ __ . __ __ .
 72
    65
 73
     6
 40
1.75
 49
0.5
 74
     0
 49
-0.25
 74
     0
 49
0.5
 74
     0
 49
-0.25
 74
     0
 49
0.0
 74
     0
 49
-0.25
 74
     0
  0
LTYPE
  5
8D
330
5
100
AcDbSymbolTableRecord
100
AcDbLinetypeTableRecord
  2
BORDER2
 70
     0
  3
Border (.5x) __.__.__.__.__.__.__.__.__.__.__.
 72
    65
 73
     6
 40
0.875
 49
0.25
 74
     0
 49
-0.125
 74
     0
 49
0.25
 74
     0
 49
-0.125
 74
     0
 49
0.0
 74
     0
 49
-0.125
 74
     0
  0
LTYPE
  5
8E
330
5
100
AcDbSymbolTableRecord
100
AcDbLinetypeTableRecord
  2
BORDERX2
 70
     0
  3
Border (2x) ____  ____  .  ____  ____  .  ___
 72
    65
 73
     6
 40
3.5
 49
1.0
 74
     0
 49
-0.5
 74
     0
 49
1.0
 74
     0
 49
-0.5
 74
     0
 49
0.0
 74
     0
 49
-0.5
 74
     0
  0
LTYPE
  5
8F
330
5
100
AcDbSymbolTableRecord
100
AcDbLinetypeTableRecord
  2
CENTER
 70
     0
  3
Center ____ _ ____ _ ____ _ ____ _ ____ _ ____
 72
    65
 73
     4
 40
2.0
 49
1.25
 74
     0
 49
-0.25
 74
     0
 49
0.25
 74
     0
 49
-0.25
 74
     0
  0
LTYPE
  5
90
330
5
100
AcDbSymbolTableRecord
100
AcDbLinetypeTableRecord
  2
CENTER2
 70
     0
  3
Center (.5x) ___ _ ___ _ ___ _ ___ _ ___ _ ___
 72
    65
 73
     4
 40
1.125
 49
0.75
 74
     0
 49
-0.125
 74
     0
 49
0.125
 74
     0
 49
-0.125
 74
     0
  0
LTYPE
  5
91
330
5
100
AcDbSymbolTableRecord
100
AcDbLinetypeTableRecord
  2
CENTERX2
 70
     0
  3
Center (2x) ________  __  ________  __  _____
 72
    65
 73
     4
 40
4.0
 49
2.5
 74
     0
 49
-0.5
 74
     0
 49
0.5
 74
     0
 49
-0.5
 74
     0
  0
LTYPE
  5
92
330
5
100
AcDbSymbolTableRecord
100
AcDbLinetypeTableRecord
  2
DASHDOT2
 70
     0
  3
Dash dot (.5x) _._._._._._._._._._._._._._._.
 72
    65
 73
     4
 40
0.5
 49
0.25
 74
     0
 49
-0.125
 74
     0
 49
0.0
 74
     0
 49
-0.125
 74
     0
  0
LTYPE
  5
93
330
5
100
AcDbSymbolTableRecord
100
AcDbLinetypeTableRecord
  2
DASHDOTX2
 70
     0
  3
Dash dot (2x) ____  .  ____  .  ____  .  ___
 72
    65
 73
     4
 40
2.0
 49
1.0
 74
     0
 49
-0.5
 74
     0
 49
0.0
 74
     0
 49
-0.5
 74
     0
  0
LTYPE
  5
95
330
5
100
AcDbSymbolTableRecord
100
AcDbLinetypeTableRecord
  2
DASHED2
 70
     0
  3
Dashed (.5x) _ _ _ _ _ _ _ _ _ _ _ _ _ _ _ _ _
 72
    65
 73
     2
 40
0.375
 49
0.25
 74
     0
 49
-0.125
 74
     0
  0
LTYPE
  5
96
330
5
100
AcDbSymbolTableRecord
100
AcDbLinetypeTableRecord
  2
DASHEDX2
 70
     0
  3
Dashed (2x) ____  ____  ____  ____  ____  ___
 72
    65
 73
     2
 40
1.5
 49
1.0
 74
     0
 49
-0.5
 74
     0
  0
LTYPE
  5
97
330
5
100
AcDbSymbolTableRecord
100
AcDbLinetypeTableRecord
  2
DIVIDE
 70
     0
  3
Divide ____ . . ____ . . ____ . . ____ . . ____
 72
    65
 73
     6
 40
1.25
 49
0.5
 74
     0
 49
-0.25
 74
     0
 49
0.0
 74
     0
 49
-0.25
 74
     0
 49
0.0
 74
     0
 49
-0.25
 74
     0
  0
LTYPE
  5
98
330
5
100
AcDbSymbolTableRecord
100
AcDbLinetypeTableRecord
  2
DIVIDE2
 70
     0
  3
Divide (.5x) __..__..__..__..__..__..__..__.._
 72
    65
 73
     6
 40
0.625
 49
0.25
 74
     0
 49
-0.125
 74
     0
 49
0.0
 74
     0
 49
-0.125
 74
     0
 49
0.0
 74
     0
 49
-0.125
 74
     0
  0
LTYPE
  5
99
330
5
100
AcDbSymbolTableRecord
100
AcDbLinetypeTableRecord
  2
DIVIDEX2
 70
     0
  3
Divide (2x) ________  .  .  ________  .  .  _
 72
    65
 73
     6
 40
2.5
 49
1.0
 74
     0
 49
-0.5
 74
     0
 49
0.0
 74
     0
 49
-0.5
 74
     0
 49
0.0
 74
     0
 49
-0.5
 74
     0
  0
LTYPE
  5
9A
330
5
100
AcDbSymbolTableRecord
100
AcDbLinetypeTableRecord
  2
DOT
 70
     0
  3
Dot . . . . . . . . . . . . . . . . . . . . . .
 72
    65
 73
     2
 40
0.25
 49
0.0
 74
     0
 49
-0.25
 74
     0
  0
LTYPE
  5
9B
330
5
100
AcDbSymbolTableRecord
100
AcDbLinetypeTableRecord
  2
DOT2
 70
     0
  3
Dot (.5x) .....................................
 72
    65
 73
     2
 40
0.125
 49
0.0
 74
     0
 49
-0.125
 74
     0
  0
LTYPE
  5
9C
330
5
100
AcDbSymbolTableRecord
100
AcDbLinetypeTableRecord
  2
DOTX2
 70
     0
  3
Dot (2x) .  .  .  .  .  .  .  .  .  .  .  .  . 
 72
    65
 73
     2
 40
0.5
 49
0.0
 74
     0
 49
-0.5
 74
     0
  0
LTYPE
  5
9D
330
5
100
AcDbSymbolTableRecord
100
AcDbLinetypeTableRecord
  2
HIDDEN
 70
     0
  3
Hidden __ __ __ __ __ __ __ __ __ __ __ __ __ _
 72
    65
 73
     2
 40
0.375
 49
0.25
 74
     0
 49
-0.125
 74
     0
  0
LTYPE
  5
9E
330
5
100
AcDbSymbolTableRecord
100
AcDbLinetypeTableRecord
  2
HIDDEN2
 70
     0
  3
Hidden (.5x) _ _ _ _ _ _ _ _ _ _ _ _ _ _ _ _ _
 72
    65
 73
     2
 40
0.1875
 49
0.125
 74
     0
 49
-0.0625
 74
     0
  0
LTYPE
  5
9F
330
5
100
AcDbSymbolTableRecord
100
AcDbLinetypeTableRecord
  2
HIDDENX2
 70
     0
  3
Hidden (2x) ____ ____ ____ ____ ____ ____ ____
 72
    65
 73
     2
 40
0.75
 49
0.5
 74
     0
 49
-0.25
 74
     0
  0
LTYPE
  5
A0
330
5
100
AcDbSymbolTableRecord
100
AcDbLinetypeTableRecord
  2
PHANTOM
 70
     0
  3
Phantom ______  __  __  ______  __  __  ______
 72
    65
 73
     6
 40
2.5
 49
1.25
 74
     0
 49
-0.25
 74
     0
 49
0.25
 74
     0
 49
-0.25
 74
     0
 49
0.25
 74
     0
 49
-0.25
 74
     0
  0
LTYPE
  5
A1
330
5
100
AcDbSymbolTableRecord
100
AcDbLinetypeTableRecord
  2
PHANTOM2
 70
     0
  3
Phantom (.5x) ___ _ _ ___ _ _ ___ _ _ ___ _ _
 72
    65
 73
     6
 40
1.25
 49
0.625
 74
     0
 49
-0.125
 74
     0
 49
0.125
 74
     0
 49
-0.125
 74
     0
 49
0.125
 74
     0
 49
-0.125
 74
     0
  0
LTYPE
  5
A2
330
5
100
AcDbSymbolTableRecord
100
AcDbLinetypeTableRecord
  2
PHANTOMX2
 70
     0
  3
Phantom (2x) ____________    ____    ____   _
 72
    65
 73
     6
 40
5.0
 49
2.5
 74
     0
 49
-0.5
 74
     0
 49
0.5
 74
     0
 49
-0.5
 74
     0
 49
0.5
 74
     0
 49
-0.5
 74
     0
  0
LTYPE
  5
A3
330
5
100
AcDbSymbolTableRecord
100
AcDbLinetypeTableRecord
  2
ACAD_ISO02W100
 70
     0
  3
ISO dash __ __ __ __ __ __ __ __ __ __ __ __ __
 72
    65
 73
     2
 40
0.59
 49
0.47
 74
     0
 49
-0.12
 74
     0
  0
LTYPE
  5
A4
330
5
100
AcDbSymbolTableRecord
100
AcDbLinetypeTableRecord
  2
ACAD_ISO03W100
 70
     0
  3
ISO dash space __    __    __    __    __    __
 72
    65
 73
     2
 40
1.179999999999999
 49
0.47
 74
     0
 49
-0.71
 74
     0
  0
LTYPE
  5
A5
330
5
100
AcDbSymbolTableRecord
100
AcDbLinetypeTableRecord
  2
ACAD_ISO04W100
 70
     0
  3
ISO long-dash dot ____ . ____ . ____ . ____ . _
 72
    65
 73
     4
 40
1.179999999999999
 49
0.9399999999999998
 74
     0
 49
-0.12
 74
     0
 49
0.0
 74
     0
 49
-0.12
 74
     0
  0
LTYPE
  5
A6
330
5
100
AcDbSymbolTableRecord
100
AcDbLinetypeTableRecord
  2
ACAD_ISO05W100
 70
     0
  3
ISO long-dash double-dot ____ .. ____ .. ____ .
 72
    65
 73
     6
 40
1.299999999999999
 49
0.9399999999999998
 74
     0
 49
-0.12
 74
     0
 49
0.0
 74
     0
 49
-0.12
 74
     0
 49
0.0
 74
     0
 49
-0.12
 74
     0
  0
LTYPE
  5
A7
330
5
100
AcDbSymbolTableRecord
100
AcDbLinetypeTableRecord
  2
ACAD_ISO06W100
 70
     0
  3
ISO long-dash triple-dot ____ ... ____ ... ____
 72
    65
 73
     8
 40
1.419999999999999
 49
0.9399999999999998
 74
     0
 49
-0.12
 74
     0
 49
0.0
 74
     0
 49
-0.12
 74
     0
 49
0.0
 74
     0
 49
-0.12
 74
     0
 49
0.0
 74
     0
 49
-0.12
 74
     0
  0
LTYPE
  5
A8
330
5
100
AcDbSymbolTableRecord
100
AcDbLinetypeTableRecord
  2
ACAD_ISO07W100
 70
     0
  3
ISO dot . . . . . . . . . . . . . . . . . . . .
 72
    65
 73
     2
 40
0.12
 49
0.0
 74
     0
 49
-0.12
 74
     0
  0
LTYPE
  5
A9
330
5
100
AcDbSymbolTableRecord
100
AcDbLinetypeTableRecord
  2
ACAD_ISO08W100
 70
     0
  3
ISO long-dash short-dash ____ __ ____ __ ____ _
 72
    65
 73
     4
 40
0.95
 49
0.47
 74
     0
 49
-0.12
 74
     0
 49
0.24
 74
     0
 49
-0.12
 74
     0
  0
LTYPE
  5
AA
330
5
100
AcDbSymbolTableRecord
100
AcDbLinetypeTableRecord
  2
ACAD_ISO09W100
 70
     0
  3
ISO long-dash double-short-dash ____ __ __ ____
 72
    65
 73
     6
 40
1.31
 49
0.47
 74
     0
 49
-0.12
 74
     0
 49
0.24
 74
     0
 49
-0.12
 74
     0
 49
0.24
 74
     0
 49
-0.12
 74
     0
  0
LTYPE
  5
AB
330
5
100
AcDbSymbolTableRecord
100
AcDbLinetypeTableRecord
  2
ACAD_ISO10W100
 70
     0
  3
ISO dash dot __ . __ . __ . __ . __ . __ . __ .
 72
    65
 73
     4
 40
0.71
 49
0.47
 74
     0
 49
-0.12
 74
     0
 49
0.0
 74
     0
 49
-0.12
 74
     0
  0
LTYPE
  5
AC
330
5
100
AcDbSymbolTableRecord
100
AcDbLinetypeTableRecord
  2
ACAD_ISO11W100
 70
     0
  3
ISO double-dash dot __ __ . __ __ . __ __ . __ 
 72
    65
 73
     6
 40
1.299999999999999
 49
0.47
 74
     0
 49
-0.12
 74
     0
 49
0.47
 74
     0
 49
-0.12
 74
     0
 49
0.0
 74
     0
 49
-0.12
 74
     0
  0
LTYPE
  5
AD
330
5
100
AcDbSymbolTableRecord
100
AcDbLinetypeTableRecord
  2
ACAD_ISO12W100
 70
     0
  3
ISO dash double-dot __ . . __ . . __ . . __ . .
 72
    65
 73
     6
 40
0.8299999999999998
 49
0.47
 74
     0
 49
-0.12
 74
     0
 49
0.0
 74
     0
 49
-0.12
 74
     0
 49
0.0
 74
     0
 49
-0.12
 74
     0
  0
LTYPE
  5
AE
330
5
100
AcDbSymbolTableRecord
100
AcDbLinetypeTableRecord
  2
ACAD_ISO13W100
 70
     0
  3
ISO double-dash double-dot __ __ . . __ __ . . 
 72
    65
 73
     8
 40
1.419999999999999
 49
0.47
 74
     0
 49
-0.12
 74
     0
 49
0.47
 74
     0
 49
-0.12
 74
     0
 49
0.0
 74
     0
 49
-0.12
 74
     0
 49
0.0
 74
     0
 49
-0.12
 74
     0
  0
LTYPE
  5
AF
330
5
100
AcDbSymbolTableRecord
100
AcDbLinetypeTableRecord
  2
ACAD_ISO14W100
 70
     0
  3
ISO dash triple-dot __ . . . __ . . . __ . . . 
 72
    65
 73
     8
 40
0.95
 49
0.47
 74
     0
 49
-0.12
 74
     0
 49
0.0
 74
     0
 49
-0.12
 74
     0
 49
0.0
 74
     0
 49
-0.12
 74
     0
 49
0.0
 74
     0
 49
-0.12
 74
     0
  0
LTYPE
  5
B0
330
5
100
AcDbSymbolTableRecord
100
AcDbLinetypeTableRecord
  2
ACAD_ISO15W100
 70
     0
  3
ISO double-dash triple-dot __ __ . . . __ __ . 
 72
    65
 73
    10
 40
1.539999999999999
 49
0.47
 74
     0
 49
-0.12
 74
     0
 49
0.47
 74
     0
 49
-0.12
 74
     0
 49
0.0
 74
     0
 49
-0.12
 74
     0
 49
0.0
 74
     0
 49
-0.12
 74
     0
 49
0.0
 74
     0
 49
-0.12
 74
     0
  0
LTYPE
  5
B3
330
5
100
AcDbSymbolTableRecord
100
AcDbLinetypeTableRecord
  2
FENCELINE1
 70
     0
  3
Fenceline circle ----0-----0----0-----0----0---
 72
    65
 73
     4
 40
1.45
 49
0.25
 74
     0
 49
-0.1
 74
     4
 75
   133
340
B2
 46
0.1
 50
0.0
 44
-0.1
 45
0.0
 49
-0.1
 74
     0
 49
1.0
 74
     0
  0
LTYPE
  5
B4
330
5
100
AcDbSymbolTableRecord
100
AcDbLinetypeTableRecord
  2
FENCELINE2
 70
     0
  3
Fenceline square ----[]-----[]----[]-----[]----
 72
    65
 73
     4
 40
1.45
 49
0.25
 74
     0
 49
-0.1
 74
     4
 75
   132
340
B2
 46
0.1
 50
0.0
 44
-0.1
 45
0.0
 49
-0.1
 74
     0
 49
1.0
 74
     0
  0
LTYPE
  5
B5
330
5
100
AcDbSymbolTableRecord
100
AcDbLinetypeTableRecord
  2
TRACKS
 70
     0
  3
Tracks -|-|-|-|-|-|-|-|-|-|-|-|-|-|-|-|-|-|-|-|
 72
    65
 73
     2
 40
0.3
 49
0.15
 74
     4
 75
   130
340
B2
 46
0.25
 50
0.0
 44
0.0
 45
0.0
 49
0.15
 74
     0
  0
LTYPE
  5
B6
330
5
100
AcDbSymbolTableRecord
100
AcDbLinetypeTableRecord
  2
BATTING
 70
     0
  3
Batting SSSSSSSSSSSSSSSSSSSSSSSSSSSSSSSSSSSSSSS
 72
    65
 73
     4
 40
0.4001000000000001
 49
0.0001
 74
     0
 49
-0.1
 74
     4
 75
   134
340
B2
 46
0.1
 50
0.0
 44
-0.1
 45
0.0
 49
-0.2
 74
     4
 75
   134
340
B2
 46
0.1
 50
180.0
 44
0.1
 45
0.0
 49
-0.1
 74
     0
  0
LTYPE
  5
B7
330
5
100
AcDbSymbolTableRecord
100
AcDbLinetypeTableRecord
  2
HOT_WATER_SUPPLY
 70
     0
  3
Hot water supply ---- HW ---- HW ---- HW ----
 72
    65
 73
     3
 40
0.9
 49
0.5
 74
     0
 49
-0.2
 74
     2
 75
     0
340
55
 46
0.1
 50
0.0
 44
-0.1
 45
-0.05
  9
HW
 49
-0.2
 74
     0
  0
LTYPE
  5
B8
330
5
100
AcDbSymbolTableRecord
100
AcDbLinetypeTableRecord
  2
GAS_LINE
 70
     0
  3
Gas line ----GAS----GAS----GAS----GAS----GAS---
 72
    65
 73
     3
 40
0.95
 49
0.5
 74
     0
 49
-0.2
 74
     2
 75
     0
340
55
 46
0.1
 50
0.0
 44
-0.1
 45
-0.05
  9
GAS
 49
-0.25
 74
     0
  0
LTYPE
  5
B9
330
5
100
AcDbSymbolTableRecord
100
AcDbLinetypeTableRecord
  2
ZIGZAG
 70
     0
  3
Zig zag /\/\/\/\/\/\/\/\/\/\/\/\/\/\/\/\/\/\/\/
 72
    65
 73
     4
 40
0.8001000000000001
 49
0.0001
 74
     0
 49
-0.2
 74
     4
 75
   131
340
B2
 46
0.2
 50
0.0
 44
-0.2
 45
0.0
 49
-0.4
 74
     4
 75
   131
340
B2
 46
0.2
 50
180.0
 44
0.2
 45
0.0
 49
-0.2
 74
     0
  0
ENDTAB
  0
TABLE
  2
LAYER
  5
2
330
0
100
AcDbSymbolTable
 70
    27
  0
LAYER
  5
54
330
2
100
AcDbSymbolTableRecord
100
AcDbLayerTableRecord
  2
0
 70
     0
 62
     7
  6
Continuous
370
    18
390
F
347
21
  0
LAYER
  5
C0
330
2
100
AcDbSymbolTableRecord
100
AcDbLayerTableRecord
  2
Center Mark (ANSI)
 70
     0
 62
     7
  6
Continuous
370
    15
390
F
347
21
  0
LAYER
  5
C1
330
2
100
AcDbSymbolTableRecord
100
AcDbLayerTableRecord
  2
Centerline (ANSI)
 70
     0
 62
     7
  6
Continuous
370
    15
390
F
347
21
  0
LAYER
  5
C3
330
2
100
AcDbSymbolTableRecord
100
AcDbLayerTableRecord
  2
Dimension (ANSI)
 70
     0
 62
     7
  6
Continuous
370
    13
390
F
347
21
  0
LAYER
  5
CC
330
2
100
AcDbSymbolTableRecord
100
AcDbLayerTableRecord
  2
Symbol (ANSI)
 70
     0
 62
     7
  6
Continuous
370
    18
390
F
347
21
  0
LAYER
  5
CF
330
2
100
AcDbSymbolTableRecord
100
AcDbLayerTableRecord
  2
Visible (ANSI)
 70
     0
 62
     7
  6
Continuous
370
    13
390
F
347
21
  0
LAYER
  5
D0
330
2
100
AcDbSymbolTableRecord
100
AcDbLayerTableRecord
  2
Visible Narrow (ANSI)
 70
     0
 62
     7
  6
Continuous
370
    18
390
F
347
21
  0
LAYER
  5
2E9
330
2
100
AcDbSymbolTableRecord
100
AcDbLayerTableRecord
  2
Defpoints
 70
     0
 62
     7
  6
Continuous
290
     0
370
    -3
390
F
347
21
  0
ENDTAB
  0
TABLE
  2
STYLE
  5
3
330
0
100
AcDbSymbolTable
 70
    17
  0
STYLE
  5
55
330
3
100
AcDbSymbolTableRecord
100
AcDbTextStyleTableRecord
  2
Standard
 70
     0
 40
0.0
 41
1.0
 50
0.0
 71
     0
 42
0.2
  3
txt
  4

  0
STYLE
  5
5A
330
3
100
AcDbSymbolTableRecord
100
AcDbTextStyleTableRecord
  2
Annotative
 70
     0
 40
0.0
 41
1.0
 50
0.0
 71
     0
 42
0.2
  3
txt
  4

1001
AcadAnnotative
1000
AnnotativeData
1002
{
1070
     1
1070
     1
1002
}
  0
STYLE
  5
B2
330
3
100
AcDbSymbolTableRecord
100
AcDbTextStyleTableRecord
  2

 70
     1
 40
0.0
 41
1.0
 50
0.0
 71
     0
 42
0.2
  3
ltypeshp.shx
  4

  0
STYLE
  5
D4
330
3
100
AcDbSymbolTableRecord
100
AcDbTextStyleTableRecord
  2
ITALICC_120
 70
     0
 40
0.0
 41
1.0
 50
0.0
 71
     0
 42
0.2
  3
italicc.shx
  4

  0
STYLE
  5
D5
330
3
100
AcDbSymbolTableRecord
100
AcDbTextStyleTableRecord
  2
Label Text (ANSI)
 70
     0
 40
0.0
 41
1.0
 50
0.0
 71
     0
 42
0.2
  3
tahoma.ttf
  4

1001
ACAD
1000
Tahoma
1071
      256
  0
STYLE
  5
D6
330
3
100
AcDbSymbolTableRecord
100
AcDbTextStyleTableRecord
  2
Note Text (ANSI)
 70
     0
 40
0.0
 41
1.0
 50
0.0
 71
     0
 42
0.2
  3
tahoma.ttf
  4

1001
ACAD
1000
Tahoma
1071
      256
  0
STYLE
  5
D7
330
3
100
AcDbSymbolTableRecord
100
AcDbTextStyleTableRecord
  2
ROMANS
 70
     0
 40
0.0
 41
1.0
 50
0.0
 71
     0
 42
0.2
  3
romans.shx
  4

  0
STYLE
  5
D8
330
3
100
AcDbSymbolTableRecord
100
AcDbTextStyleTableRecord
  2
SANSSERIF_114
 70
     0
 40
0.0
 41
1.0
 50
0.0
 71
     0
 42
0.2
  3
tahoma.ttf
  4

1001
ACAD
1000
Tahoma
1071
      256
  0
STYLE
  5
D9
330
3
100
AcDbSymbolTableRecord
100
AcDbTextStyleTableRecord
  2
SANSSERIF_117
 70
     0
 40
0.0
 41
1.0
 50
0.0
 71
     0
 42
0.2
  3
tahoma.ttf
  4

1001
ACAD
1000
Tahoma
1071
      256
  0
STYLE
  5
DA
330
3
100
AcDbSymbolTableRecord
100
AcDbTextStyleTableRecord
  2
STANDARDAM_ANSI
 70
     0
 40
0.0
 41
1.0
 50
0.0
 71
     0
 42
0.2
  3
txt.shx
  4

  0
STYLE
  5
DB
330
3
100
AcDbSymbolTableRecord
100
AcDbTextStyleTableRecord
  2
StandardAM_ANSI$0
 70
     0
 40
0.0
 41
1.0
 50
0.0
 71
     0
 42
0.2
  3
txt.shx
  4

  0
STYLE
  5
DC
330
3
100
AcDbSymbolTableRecord
100
AcDbTextStyleTableRecord
  2
STANDARDAM_ANSI$3
 70
     0
 40
0.0
 41
1.0
 50
0.0
 71
     0
 42
0.2
  3
txt.shx
  4

  0
STYLE
  5
DD
330
3
100
AcDbSymbolTableRecord
100
AcDbTextStyleTableRecord
  2
STANDARDAM_ANSI$4
 70
     0
 40
0.0
 41
1.0
 50
0.0
 71
     0
 42
0.2
  3
txt.shx
  4

  0
STYLE
  5
DE
330
3
100
AcDbSymbolTableRecord
100
AcDbTextStyleTableRecord
  2
STANDARDAM_ANSI$7
 70
     0
 40
0.0
 41
1.0
 50
0.0
 71
     0
 42
0.2
  3
txt.shx
  4

  0
STYLE
  5
DF
330
3
100
AcDbSymbolTableRecord
100
AcDbTextStyleTableRecord
  2
STANDARDAM_ANSI$SF
 70
     0
 40
0.0
 41
1.0
 50
0.0
 71
     0
 42
0.2
  3
txt.shx
  4

  0
STYLE
  5
E0
330
3
100
AcDbSymbolTableRecord
100
AcDbTextStyleTableRecord
  2
STANDARDAM_ANSI$SH
 70
     0
 40
0.0
 41
1.0
 50
0.0
 71
     0
 42
0.2
  3
txt.shx
  4

  0
STYLE
  5
E1
330
3
100
AcDbSymbolTableRecord
100
AcDbTextStyleTableRecord
  2
STANDARDSTANDARD
 70
     0
 40
0.0
 41
1.0
 50
0.0
 71
     0
 42
0.2
  3
txt.shx
  4

  0
ENDTAB
  0
TABLE
  2
VIEW
  5
6
330
0
100
AcDbSymbolTable
 70
     0
  0
ENDTAB
  0
TABLE
  2
UCS
  5
7
330
0
100
AcDbSymbolTable
 70
     0
  0
ENDTAB
  0
TABLE
  2
APPID
  5
9
330
0
100
AcDbSymbolTable
 70
     3
  0
APPID
  5
56
330
9
100
AcDbSymbolTableRecord
100
AcDbRegAppTableRecord
  2
ACAD
 70
     0
  0
APPID
  5
5E
330
9
100
AcDbSymbolTableRecord
100
AcDbRegAppTableRecord
  2
AcadAnnotative
 70
     0
  0
APPID
  5
D4A
330
9
100
AcDbSymbolTableRecord
100
AcDbRegAppTableRecord
  2
ACAD_DSTYLE_DIMRADIAL_EXTENSION
 70
     0
  0
ENDTAB
  0
TABLE
  2
DIMSTYLE
  5
A
330
0
100
AcDbSymbolTable
 70
    27
100
AcDbDimStyleTable
 71
     2
340
F6
340
58
  0
DIMSTYLE
105
58
330
A
100
AcDbSymbolTableRecord
100
AcDbDimStyleTableRecord
  2
STANDARD
 70
     0
 41
0.1800000071525573
 42
0.0625
140
0.1800000071525574
144
1.0
147
0.0900000035762787
176
   256
177
   256
178
   256
274
     3
340
55
371
    -1
372
    -1
  0
DIMSTYLE
105
59
330
A
100
AcDbSymbolTableRecord
100
AcDbDimStyleTableRecord
  2
Annotative
 70
     0
340
55
1001
AcadAnnotative
1000
AnnotativeData
1002
{
1070
     1
1070
     1
1002
}
  0
DIMSTYLE
105
E2
330
A
100
AcDbSymbolTableRecord
100
AcDbDimStyleTableRecord
  2
AM_ANSI
 70
     0
  4
 mm
 40
11.0
 41
0.119999997317791
 42
0.05
 43
0.5
 44
0.1
 45
0.00000001
 78
     4
 79
     2
140
0.1200000047683716
146
0.7099999189376831
147
0.0599999986588955
176
   256
177
   256
178
     2
284
     4
340
DA
371
    -1
372
    -1
  0
DIMSTYLE
105
E3
330
A
100
AcDbSymbolTableRecord
100
AcDbDimStyleTableRecord
  2
AM_ANSI$7
 70
     0
  4
 mm
 40
11.0
 41
0.119999997317791
 42
0.05
 43
0.5
 44
0.1
 45
0.00000001
 78
     4
 79
     2
140
0.1200000047683716
146
0.7099999189376831
147
0.0599999986588955
176
   256
177
   256
178
     2
284
     4
340
DA
371
    -1
372
    -1
  0
DIMSTYLE
105
E4
330
A
100
AcDbSymbolTableRecord
100
AcDbDimStyleTableRecord
  2
AM_ANSI$0
 70
     0
  4
 mm
 40
11.0
 41
0.119999997317791
 42
0.05
 43
0.5
 44
0.1
 45
0.00000001
 78
     4
 79
     2
140
0.1200000047683716
146
0.7099999189376831
147
0.0599999986588955
176
   256
177
   256
178
     2
284
     4
340
DB
371
    -1
372
    -1
  0
DIMSTYLE
105
E5
330
A
100
AcDbSymbolTableRecord
100
AcDbDimStyleTableRecord
  2
AM_ANSI$0$7
 70
     0
  4
 mm
 40
11.0
 41
0.119999997317791
 42
0.05
 43
0.5
 44
0.1
 45
0.00000001
 78
     4
 79
     2
140
0.1200000047683716
146
0.7099999189376831
147
0.0599999986588955
176
   256
177
   256
178
     2
284
     4
340
DB
371
    -1
372
    -1
  0
DIMSTYLE
105
E6
330
A
100
AcDbSymbolTableRecord
100
AcDbDimStyleTableRecord
  2
AM_ANSI$3
 70
     0
  4
 mm
 40
11.0
 41
0.119999997317791
 42
0.05
 43
0.5
 44
0.1
 45
0.00000001
 78
     4
 79
     2
140
0.1200000047683716
146
0.7099999189376831
147
0.0599999986588955
176
   256
177
   256
178
     2
284
     4
340
DC
371
    -1
372
    -1
  0
DIMSTYLE
105
E7
330
A
100
AcDbSymbolTableRecord
100
AcDbDimStyleTableRecord
  2
AM_ANSI$3$7
 70
     0
  4
 mm
 40
11.0
 41
0.119999997317791
 42
0.05
 43
0.5
 44
0.1
 45
0.00000001
 78
     4
 79
     2
140
0.1200000047683716
146
0.7099999189376831
147
0.0599999986588955
176
   256
177
   256
178
     2
284
     4
340
DC
371
    -1
372
    -1
  0
DIMSTYLE
105
E8
330
A
100
AcDbSymbolTableRecord
100
AcDbDimStyleTableRecord
  2
AM_ANSI$4
 70
     0
  4
 mm
 40
11.0
 41
0.119999997317791
 42
0.05
 43
0.5
 44
0.1
 45
0.00000001
 78
     4
 79
     2
140
0.1200000047683716
146
0.7099999189376831
147
0.0599999986588955
176
   256
177
   256
178
     2
284
     4
340
DD
371
    -1
372
    -1
  0
DIMSTYLE
105
E9
330
A
100
AcDbSymbolTableRecord
100
AcDbDimStyleTableRecord
  2
AM_ANSI$4$7
 70
     0
  4
 mm
 40
11.0
 41
0.119999997317791
 42
0.05
 43
0.5
 44
0.1
 45
0.00000001
 78
     4
 79
     2
140
0.1200000047683716
146
0.7099999189376831
147
0.0599999986588955
176
   256
177
   256
178
     2
284
     4
340
DD
371
    -1
372
    -1
  0
DIMSTYLE
105
EA
330
A
100
AcDbSymbolTableRecord
100
AcDbDimStyleTableRecord
  2
AM_ANSI$SF
 70
     0
  4
 mm
 40
11.0
 41
0.119999997317791
 42
0.05
 43
0.5
 44
0.1
 45
0.00000001
 75
     1
 76
     1
 78
     4
 79
     2
140
0.1200000047683716
146
0.7099999189376831
147
0.0599999986588955
176
   256
177
   256
178
     2
284
     4
340
DF
371
    -1
372
    -1
  0
DIMSTYLE
105
EB
330
A
100
AcDbSymbolTableRecord
100
AcDbDimStyleTableRecord
  2
AM_ANSI$SF$7
 70
     0
  4
 mm
 40
11.0
 41
0.119999997317791
 42
0.05
 43
0.5
 44
0.1
 45
0.00000001
 75
     1
 76
     1
 78
     4
 79
     2
140
0.1200000047683716
146
0.7099999189376831
147
0.0599999986588955
176
   256
177
   256
178
     2
284
     4
340
DF
371
    -1
372
    -1
  0
DIMSTYLE
105
EC
330
A
100
AcDbSymbolTableRecord
100
AcDbDimStyleTableRecord
  2
AM_ANSI$SH
 70
     0
  4
 mm
 40
11.0
 41
0.119999997317791
 42
0.05
 43
0.5
 44
0.1
 45
0.00000001
 75
     1
 76
     1
 78
     4
 79
     2
140
0.1200000047683716
146
0.7099999189376831
147
0.0599999986588955
176
   256
177
   256
178
     2
284
     4
340
E0
371
    -1
372
    -1
  0
DIMSTYLE
105
ED
330
A
100
AcDbSymbolTableRecord
100
AcDbDimStyleTableRecord
  2
AM_ANSI$SH$7
 70
     0
  4
 mm
 40
11.0
 41
0.119999997317791
 42
0.05
 43
0.5
 44
0.1
 45
0.00000001
 75
     1
 76
     1
 78
     4
 79
     2
140
0.1200000047683716
146
0.7099999189376831
147
0.0599999986588955
176
   256
177
   256
178
     2
284
     4
340
E0
371
    -1
372
    -1
  0
DIMSTYLE
105
EE
330
A
100
AcDbSymbolTableRecord
100
AcDbDimStyleTableRecord
  2
Architectural (ANSI)
 70
     0
 40
11.0
 41
0.0984251946210861
 43
0.2362204724409449
 44
0.125
 45
0.00000001
 46
0.3937007874015748
 78
     3
 79
     3
140
0.1200000047683716
147
0.031496062992126
171
     1
176
   256
177
   256
178
   256
272
     2
274
     1
276
     2
277
     4
284
    12
285
     4
286
    12
340
D6
371
    -1
372
    -1
  0
DIMSTYLE
105
EF
330
A
100
AcDbSymbolTableRecord
100
AcDbDimStyleTableRecord
  2
Architectural (ANSI)$7
 70
     0
 40
11.0
 41
0.0984251946210861
 43
0.2362204724409449
 44
0.125
 45
0.00000001
 46
0.3937007874015748
 78
     3
 79
     3
140
0.1200000047683716
147
0.031496062992126
171
     1
176
   256
177
   256
178
   256
272
     2
274
     1
276
     2
277
     4
284
    12
285
     4
286
    12
340
D6
371
    -1
372
    -1
  0
DIMSTYLE
105
F0
330
A
100
AcDbSymbolTableRecord
100
AcDbDimStyleTableRecord
  2
Default - Fraction (ANSI)
 70
     0
 40
11.0
 41
0.0984251946210861
 43
0.2362204724409449
 44
0.125
 45
0.00000001
 46
0.3937007874015748
 79
     3
140
0.1200000047683716
147
0.031496062992126
171
     1
176
   256
177
   256
178
   256
272
     2
274
     1
276
     2
277
     5
284
    12
285
     4
286
    12
340
D6
371
    -1
372
    -1
  0
DIMSTYLE
105
F1
330
A
100
AcDbSymbolTableRecord
100
AcDbDimStyleTableRecord
  2
Default - Fraction (ANSI)$7
 70
     0
 40
11.0
 41
0.0984251946210861
 43
0.2362204724409449
 44
0.125
 45
0.00000001
 46
0.3937007874015748
 79
     3
140
0.1200000047683716
147
0.031496062992126
171
     1
176
   256
177
   256
178
   256
272
     2
274
     1
276
     2
277
     5
284
    12
285
     4
286
    12
340
D6
371
    -1
372
    -1
  0
DIMSTYLE
105
F2
330
A
100
AcDbSymbolTableRecord
100
AcDbDimStyleTableRecord
  2
Default - mm (ANSI)
 70
     0
 40
11.0
 41
0.0984251946210861
 42
0.063
 43
0.2362204724409449
 44
0.125
 45
0.00000001
 46
0.3937007874015748
 73
     0
 78
     4
 79
     1
140
0.1200000047683716
143
1.0
144
25.4
147
0.031496062992126
171
     1
176
   256
177
   256
178
   256
179
     1
271
     2
272
     2
274
     1
284
     4
285
     4
340
D6
371
    -1
372
    -1
  0
DIMSTYLE
105
F3
330
A
100
AcDbSymbolTableRecord
100
AcDbDimStyleTableRecord
  2
Default - mm (ANSI)$7
 70
     0
 40
11.0
 41
0.0984251946210861
 42
0.063
 43
0.2362204724409449
 44
0.125
 45
0.00000001
 46
0.3937007874015748
 73
     0
 78
     4
 79
     1
140
0.1200000047683716
143
1.0
144
25.4
147
0.031496062992126
171
     1
176
   256
177
   256
178
   256
179
     1
271
     2
272
     2
274
     1
284
     4
285
     4
340
D6
371
    -1
372
    -1
  0
DIMSTYLE
105
F4
330
A
100
AcDbSymbolTableRecord
100
AcDbDimStyleTableRecord
  2
Default - mm [in] (ANSI)
 70
     0
  4
 in
 40
11.0
 41
0.0984251946210861
 42
0.063
 43
0.25
 44
0.125
 45
0.00000001
 46
0.3937007874015748
 73
     0
 78
     4
 79
     1
140
0.1200000047683716
143
0.03937
144
25.4
147
0.031496062992126
170
     1
171
     3
176
   256
177
   256
178
   256
179
     1
271
     2
272
     2
274
     3
284
     4
285
     4
286
     4
340
D6
371
    -1
372
    -1
  0
DIMSTYLE
105
F5
330
A
100
AcDbSymbolTableRecord
100
AcDbDimStyleTableRecord
  2
Default - mm [in] (ANSI)$7
 70
     0
  4
 in
 40
11.0
 41
0.0984251946210861
 42
0.063
 43
0.25
 44
0.125
 45
0.00000001
 46
0.3937007874015748
 73
     0
 78
     4
 79
     1
140
0.1200000047683716
143
0.03937
144
25.4
147
0.031496062992126
170
     1
171
     3
176
   256
177
   256
178
   256
179
     1
271
     2
272
     2
274
     3
284
     4
285
     4
286
     4
340
D6
371
    -1
372
    -1
  0
DIMSTYLE
105
F6
102
{ACAD_REACTORS
330
2E7
330
3D4
330
4C4
330
5AE
330
698
330
782
330
86C
330
984
330
A82
330
CB0
102
}
330
A
100
AcDbSymbolTableRecord
100
AcDbDimStyleTableRecord
  2
Default (ANSI)
 70
     0
 40
11.0
 41
0.0984251946210861
 43
0.2362204724409449
 44
0.125
 45
0.00000001
 46
0.3937007874015748
 79
     1
140
0.1200000047683716
147
0.031496062992126
171
     1
176
   256
177
   256
178
   256
271
     2
272
     2
274
     1
284
     4
285
     4
340
D6
371
    -1
372
    -1
  0
DIMSTYLE
105
F7
330
A
100
AcDbSymbolTableRecord
100
AcDbDimStyleTableRecord
  2
Default (ANSI)$7
 70
     0
 40
11.0
 41
0.0984251946210861
 43
0.2362204724409449
 44
0.125
 45
0.00000001
 46
0.3937007874015748
 79
     1
140
0.1200000047683716
147
0.031496062992126
171
     1
176
   256
177
   256
178
   256
271
     2
272
     2
274
     1
284
     4
285
     4
340
D6
371
    -1
372
    -1
  0
DIMSTYLE
105
F8
330
A
100
AcDbSymbolTableRecord
100
AcDbDimStyleTableRecord
  2
Alternate (ANSI)
 70
     0
 40
11.0
 41
0.0979999974370003
340
55
342
F9
  0
DIMSTYLE
105
10B
330
A
100
AcDbSymbolTableRecord
100
AcDbDimStyleTableRecord
  2
Datum (ANSI)
 70
     0
 40
11.0
 41
0.0979999974370003
340
55
342
F9
  0
DIMSTYLE
105
11A
330
A
100
AcDbSymbolTableRecord
100
AcDbDimStyleTableRecord
  2
Large (ANSI)
 70
     0
 40
11.0
 41
0.1959999948740005
340
55
342
F9
  0
ENDTAB
  0
TABLE
  2
BLOCK_RECORD
  5
1
330
0
100
AcDbSymbolTable
 70
    14
  0
BLOCK_RECORD
  5
6C
330
1
100
AcDbSymbolTableRecord
100
AcDbBlockTableRecord
  2
*Model_Space
340
6F
 70
     0
280
     1
281
     0
  0
BLOCK_RECORD
  5
68
330
1
100
AcDbSymbolTableRecord
100
AcDbBlockTableRecord
  2
*Paper_Space
340
6B
 70
     0
280
     1
281
     0
  0
BLOCK_RECORD
  5
70
330
1
100
AcDbSymbolTableRecord
100
AcDbBlockTableRecord
  2
*Paper_Space0
340
73
 70
     0
280
     1
281
     0
  0
BLOCK_RECORD
  5
F9
330
1
100
AcDbSymbolTableRecord
100
AcDbBlockTableRecord
  2
_Closed
340
0
 70
     0
280
     1
281
     0
  0
BLOCK_RECORD
  5
100
330
1
100
AcDbSymbolTableRecord
100
AcDbBlockTableRecord
  2
DatumFilled45
340
0
 70
     0
280
     1
281
     0
  0
BLOCK_RECORD
  5
10C
330
1
100
AcDbSymbolTableRecord
100
AcDbBlockTableRecord
  2
Filled-1
340
0
 70
     0
280
     1
281
     0
  0
BLOCK_RECORD
  5
2EA
330
1
100
AcDbSymbolTableRecord
100
AcDbBlockTableRecord
  2
*D4
340
0
 70
     0
280
     1
281
     0
  0
BLOCK_RECORD
  5
3D5
330
1
100
AcDbSymbolTableRecord
100
AcDbBlockTableRecord
  2
*D5
340
0
 70
     0
280
     1
281
     0
  0
BLOCK_RECORD
  5
4C5
330
1
100
AcDbSymbolTableRecord
100
AcDbBlockTableRecord
  2
*D6
340
0
 70
     0
280
     1
281
     0
  0
BLOCK_RECORD
  5
5AF
330
1
100
AcDbSymbolTableRecord
100
AcDbBlockTableRecord
  2
*D7
340
0
 70
     0
280
     1
281
     0
  0
BLOCK_RECORD
  5
699
330
1
100
AcDbSymbolTableRecord
100
AcDbBlockTableRecord
  2
*D8
340
0
 70
     0
280
     1
281
     0
  0
BLOCK_RECORD
  5
783
330
1
100
AcDbSymbolTableRecord
100
AcDbBlockTableRecord
  2
*D9
340
0
 70
     0
280
     1
281
     0
  0
BLOCK_RECORD
  5
86D
330
1
100
AcDbSymbolTableRecord
100
AcDbBlockTableRecord
  2
*D10
340
0
 70
     0
280
     1
281
     0
  0
BLOCK_RECORD
  5
985
330
1
100
AcDbSymbolTableRecord
100
AcDbBlockTableRecord
  2
*D11
340
0
 70
     0
280
     1
281
     0
  0
BLOCK_RECORD
  5
A83
330
1
100
AcDbSymbolTableRecord
100
AcDbBlockTableRecord
  2
*D12
340
0
 70
     0
280
     1
281
     0
  0
BLOCK_RECORD
  5
CB1
330
1
100
AcDbSymbolTableRecord
100
AcDbBlockTableRecord
  2
*D13
340
0
 70
     0
280
     1
281
     0
  0
ENDTAB
  0
ENDSEC
  0
SECTION
  2
BLOCKS
  0
BLOCK
  5
6D
330
6C
100
AcDbEntity
  8
0
100
AcDbBlockBegin
  2
*Model_Space
 70
     0
 10
0.0
 20
0.0
 30
0.0
  3
*Model_Space
  1

  0
ENDBLK
  5
6E
330
6C
100
AcDbEntity
  8
0
100
AcDbBlockEnd
  0
BLOCK
  5
69
330
68
100
AcDbEntity
 67
     1
  8
0
100
AcDbBlockBegin
  2
*Paper_Space
 70
     0
 10
0.0
 20
0.0
 30
0.0
  3
*Paper_Space
  1

  0
ENDBLK
  5
6A
330
68
100
AcDbEntity
 67
     1
  8
0
100
AcDbBlockEnd
  0
BLOCK
  5
71
330
70
100
AcDbEntity
 67
     1
  8
0
100
AcDbBlockBegin
  2
*Paper_Space0
 70
     0
 10
0.0
 20
0.0
 30
0.0
  3
*Paper_Space0
  1

  0
ENDBLK
  5
72
330
70
100
AcDbEntity
 67
     1
  8
0
100
AcDbBlockEnd
  0
BLOCK
  5
FE
330
F9
100
AcDbEntity
  8
0
100
AcDbBlockBegin
  2
_Closed
 70
     0
 10
0.0
 20
0.0
 30
0.0
  3
_Closed
  1

  0
LINE
  5
FA
330
F9
100
AcDbEntity
  8
0
  6
ByBlock
 62
     0
370
    -2
100
AcDbLine
 10
-1.0
 20
0.1666666666666666
 30
0.0
 11
0.0
 21
0.0
 31
0.0
  0
LINE
  5
FB
330
F9
100
AcDbEntity
  8
0
  6
ByBlock
 62
     0
370
    -2
100
AcDbLine
 10
0.0
 20
0.0
 30
0.0
 11
-1.0
 21
-0.1666666666666666
 31
0.0
  0
LINE
  5
FC
330
F9
100
AcDbEntity
  8
0
  6
ByBlock
 62
     0
370
    -2
100
AcDbLine
 10
-1.0
 20
0.1666666666666666
 30
0.0
 11
-1.0
 21
-0.1666666666666666
 31
0.0
  0
LINE
  5
FD
330
F9
100
AcDbEntity
  8
0
  6
ByBlock
 62
     0
370
    -2
100
AcDbLine
 10
0.0
 20
0.0
 30
0.0
 11
-1.0
 21
0.0
 31
0.0
  0
ENDBLK
  5
FF
330
F9
100
AcDbEntity
  8
0
100
AcDbBlockEnd
  0
BLOCK
  5
101
330
100
100
AcDbEntity
  8
0
100
AcDbBlockBegin
  2
DatumFilled45
 70
     0
 10
0.0
 20
0.0
 30
0.0
  3
DatumFilled45
  1

  0
POLYLINE
  5
103
330
100
100
AcDbEntity
  8
0
 62
     0
100
AcDb2dPolyline
 66
     1
 10
0.0
 20
0.0
 30
0.0
 70
   128
  0
VERTEX
  5
104
330
103
100
AcDbEntity
  8
0
 62
     0
100
AcDbVertex
100
AcDb2dVertex
 10
0.0
 20
0.9999999999999998
 30
0.0
  0
VERTEX
  5
105
330
103
100
AcDbEntity
  8
0
 62
     0
100
AcDbVertex
100
AcDb2dVertex
 10
0.0
 20
-0.9999999999999998
 30
0.0
  0
VERTEX
  5
107
330
103
100
AcDbEntity
  8
0
 62
     0
100
AcDbVertex
100
AcDb2dVertex
 10
-0.9999999999999998
 20
0.0
 30
0.0
  0
VERTEX
  5
108
330
103
100
AcDbEntity
  8
0
 62
     0
100
AcDbVertex
100
AcDb2dVertex
 10
0.0
 20
0.9999999999999998
 30
0.0
  0
SEQEND
  5
106
330
103
100
AcDbEntity
  8
0
 62
     0
  0
SOLID
  5
10A
330
100
100
AcDbEntity
  8
0
 62
     0
100
AcDbTrace
 10
0.0
 20
0.9999999999999998
 30
0.0
 11
0.0
 21
-0.9999999999999998
 31
0.0
 12
-0.9999999999999998
 22
0.0
 32
0.0
 13
0.0
 23
0.9999999999999998
 33
0.0
  0
ENDBLK
  5
102
330
100
100
AcDbEntity
  8
0
100
AcDbBlockEnd
  0
BLOCK
  5
10D
330
10C
100
AcDbEntity
  8
0
100
AcDbBlockBegin
  2
Filled-1
 70
     0
 10
0.0
 20
0.0
 30
0.0
  3
Filled-1
  1

  0
LINE
  5
10F
330
10C
100
AcDbEntity
  8
0
 62
     0
100
AcDbLine
 10
-0.9999999999999998
 20
0.0
 30
0.0
 11
0.0
 21
0.0
 31
0.0
  0
POLYLINE
  5
110
330
10C
100
AcDbEntity
  8
0
 62
     0
100
AcDb2dPolyline
 66
     1
 10
0.0
 20
0.0
 30
0.0
 70
   128
  0
VERTEX
  5
111
330
110
100
AcDbEntity
  8
0
 62
     0
100
AcDbVertex
100
AcDb2dVertex
 10
-0.9999999999999998
 20
-0.0994897959183674
 30
0.0
  0
VERTEX
  5
112
330
110
100
AcDbEntity
  8
0
 62
     0
100
AcDbVertex
100
AcDb2dVertex
 10
0.0
 20
0.0
 30
0.0
  0
VERTEX
  5
114
330
110
100
AcDbEntity
  8
0
 62
     0
100
AcDbVertex
100
AcDb2dVertex
 10
-0.9999999999999998
 20
0.0994897959183674
 30
0.0
  0
VERTEX
  5
115
330
110
100
AcDbEntity
  8
0
 62
     0
100
AcDbVertex
100
AcDb2dVertex
 10
-0.9999999999999998
 20
-0.0994897959183674
 30
0.0
  0
SEQEND
  5
113
330
110
100
AcDbEntity
  8
0
 62
     0
  0
SOLID
  5
116
330
10C
100
AcDbEntity
  8
0
 62
     0
100
AcDbTrace
 10
-0.9999999999999998
 20
-0.0994897959183674
 30
0.0
 11
0.0
 21
0.0
 31
0.0
 12
-0.9999999999999998
 22
0.0994897959183674
 32
0.0
 13
-0.9999999999999998
 23
-0.0994897959183674
 33
0.0
  0
LINE
  5
117
330
10C
100
AcDbEntity
  8
0
 62
     0
100
AcDbLine
 10
-0.9999999999999998
 20
-0.0994897959183674
 30
0.0
 11
0.0
 21
0.0
 31
0.0
  0
LINE
  5
118
330
10C
100
AcDbEntity
  8
0
 62
     0
100
AcDbLine
 10
0.0
 20
0.0
 30
0.0
 11
-0.9999999999999998
 21
0.0994897959183674
 31
0.0
  0
LINE
  5
119
330
10C
100
AcDbEntity
  8
0
 62
     0
100
AcDbLine
 10
-0.9999999999999998
 20
0.0994897959183674
 30
0.0
 11
-0.9999999999999998
 21
-0.0994897959183674
 31
0.0
  0
ENDBLK
  5
10E
330
10C
100
AcDbEntity
  8
0
100
AcDbBlockEnd
  0
BLOCK
  5
2EB
330
2EA
100
AcDbEntity
  8
0
100
AcDbBlockBegin
  2
*D4
 70
     1
 10
0.0
 20
0.0
 30
0.0
  3
*D4
  1

  0
LINE
  5
3CA
330
2EA
100
AcDbEntity
  8
Dimension (ANSI)
440
 16777216
100
AcDbLine
 10
39.77259449657911
 20
38.25247706687758
 30
0.0
 11
19.16383465405943
 21
38.25247706687758
 31
0.0
  0
LINE
  5
3CB
330
2EA
100
AcDbEntity
  8
Dimension (ANSI)
440
 16777216
100
AcDbLine
 10
39.77259449657911
 20
82.25247706687758
 30
0.0
 11
19.16383465405944
 21
82.25247706687758
 31
0.0
  0
LINE
  5
3CC
330
2EA
100
AcDbEntity
  8
Dimension (ANSI)
440
 16777216
100
AcDbLine
 10
20.53883465405943
 20
39.33515420770952
 30
0.0
 11
20.53883465405943
 21
59.2189820703774
 31
0.0
  0
LINE
  5
3CD
330
2EA
100
AcDbEntity
  8
Dimension (ANSI)
440
 16777216
100
AcDbLine
 10
20.53883465405944
 20
81.16979992604564
 30
0.0
 11
20.53883465405943
 21
61.28597206337773
 31
0.0
  0
SOLID
  5
3CE
330
2EA
100
AcDbEntity
  8
Dimension (ANSI)
440
 16777216
100
AcDbTrace
 10
20.35838846392077
 20
39.33515420770952
 30
0.0
 11
20.71928084419809
 21
39.33515420770952
 31
0.0
 12
20.53883465405943
 22
38.25247706687758
 32
0.0
 13
20.53883465405943
 23
38.25247706687758
 33
0.0
  0
SOLID
  5
3CF
330
2EA
100
AcDbEntity
  8
Dimension (ANSI)
440
 16777216
100
AcDbTrace
 10
20.35838846392078
 20
81.16979992604564
 30
0.0
 11
20.7192808441981
 21
81.16979992604564
 31
0.0
 12
20.53883465405944
 22
82.25247706687758
 32
0.0
 13
20.53883465405944
 23
82.25247706687758
 33
0.0
  0
MTEXT
  5
3D0
330
2EA
100
AcDbEntity
  8
Dimension (ANSI)
440
 16777216
100
AcDbMText
 10
18.33632282791574
 20
60.93951537046436
 30
0.0
 40
1.320000052452087
 41
0.0
 46
0.0
 71
     1
 72
     1
  1
\A1;44.00
  7
Note Text (ANSI)
 73
     1
 44
1.0
  0
POINT
  5
3D1
330
2EA
100
AcDbEntity
  8
Defpoints
 62
     0
440
 16777216
100
AcDbPoint
 10
40.4600944965791
 20
38.25247706687758
 30
0.0
  0
POINT
  5
3D2
330
2EA
100
AcDbEntity
  8
Defpoints
 62
     0
440
 16777216
100
AcDbPoint
 10
40.46009449657911
 20
82.25247706687758
 30
0.0
  0
POINT
  5
3D3
330
2EA
100
AcDbEntity
  8
Defpoints
 62
     0
440
 16777216
100
AcDbPoint
 10
20.53883465405944
 20
82.25247706687758
 30
0.0
  0
ENDBLK
  5
2EC
330
2EA
100
AcDbEntity
  8
0
100
AcDbBlockEnd
  0
BLOCK
  5
3D6
330
3D5
100
AcDbEntity
  8
0
100
AcDbBlockBegin
  2
*D5
 70
     1
 10
0.0
 20
0.0
 30
0.0
  3
*D5
  1

  0
LINE
  5
4BA
330
3D5
100
AcDbEntity
  8
Dimension (ANSI)
440
 16777216
100
AcDbLine
 10
40.43420614893078
 20
39.12747706687758
 30
0.0
 11
34.04079229380223
 21
39.12747706687758
 31
0.0
  0
LINE
  5
4BB
330
3D5
100
AcDbEntity
  8
Dimension (ANSI)
440
 16777216
100
AcDbLine
 10
40.43420614893078
 20
60.25247706687757
 30
0.0
 11
34.04079229380224
 21
60.25247706687757
 31
0.0
  0
LINE
  5
4BC
330
3D5
100
AcDbEntity
  8
Dimension (ANSI)
440
 16777216
100
AcDbLine
 10
35.41579229380223
 20
40.21015420770953
 30
0.0
 11
35.41579229380224
 21
48.65603881985897
 31
0.0
  0
LINE
  5
4BD
330
3D5
100
AcDbEntity
  8
Dimension (ANSI)
440
 16777216
100
AcDbLine
 10
35.41579229380224
 20
59.16979992604563
 30
0.0
 11
35.41579229380224
 21
50.72391531389618
 31
0.0
  0
SOLID
  5
4BE
330
3D5
100
AcDbEntity
  8
Dimension (ANSI)
440
 16777216
100
AcDbTrace
 10
35.23534610366357
 20
40.21015420770953
 30
0.0
 11
35.59623848394089
 21
40.21015420770953
 31
0.0
 12
35.41579229380223
 22
39.12747706687758
 32
0.0
 13
35.41579229380223
 23
39.12747706687758
 33
0.0
  0
SOLID
  5
4BF
330
3D5
100
AcDbEntity
  8
Dimension (ANSI)
440
 16777216
100
AcDbTrace
 10
35.23534610366358
 20
59.16979992604563
 30
0.0
 11
35.59623848394089
 21
59.16979992604563
 31
0.0
 12
35.41579229380224
 22
60.25247706687757
 32
0.0
 13
35.41579229380224
 23
60.25247706687757
 33
0.0
  0
MTEXT
  5
4C0
330
3D5
100
AcDbEntity
  8
Dimension (ANSI)
440
 16777216
100
AcDbMText
 10
33.25849202053973
 20
50.3774586209828
 30
0.0
 40
1.320000052452087
 41
0.0
 46
0.0
 71
     1
 72
     1
  1
\A1;21.13
  7
Note Text (ANSI)
 73
     1
 44
1.0
  0
POINT
  5
4C1
330
3D5
100
AcDbEntity
  8
Defpoints
 62
     0
440
 16777216
100
AcDbPoint
 10
41.12170614893078
 20
39.12747706687758
 30
0.0
  0
POINT
  5
4C2
330
3D5
100
AcDbEntity
  8
Defpoints
 62
     0
440
 16777216
100
AcDbPoint
 10
41.12170614893078
 20
60.25247706687757
 30
0.0
  0
POINT
  5
4C3
330
3D5
100
AcDbEntity
  8
Defpoints
 62
     0
440
 16777216
100
AcDbPoint
 10
35.41579229380224
 20
60.25247706687757
 30
0.0
  0
ENDBLK
  5
3D7
330
3D5
100
AcDbEntity
  8
0
100
AcDbBlockEnd
  0
BLOCK
  5
4C6
330
4C5
100
AcDbEntity
  8
0
100
AcDbBlockBegin
  2
*D6
 70
     1
 10
0.0
 20
0.0
 30
0.0
  3
*D6
  1

  0
LINE
  5
5A4
330
4C5
100
AcDbEntity
  8
Dimension (ANSI)
440
 16777216
100
AcDbLine
 10
40.43420614893078
 20
39.12747706687758
 30
0.0
 11
27.62072189696228
 21
39.12747706687758
 31
0.0
  0
LINE
  5
5A5
330
4C5
100
AcDbEntity
  8
Dimension (ANSI)
440
 16777216
100
AcDbLine
 10
40.43420614893078
 20
81.37747706687758
 30
0.0
 11
27.6207218969623
 21
81.37747706687759
 31
0.0
  0
LINE
  5
5A6
330
4C5
100
AcDbEntity
  8
Dimension (ANSI)
440
 16777216
100
AcDbLine
 10
28.99572189696229
 20
40.21015420770953
 30
0.0
 11
28.99572189696229
 21
59.21853881985896
 31
0.0
  0
LINE
  5
5A7
330
4C5
100
AcDbEntity
  8
Dimension (ANSI)
440
 16777216
100
AcDbLine
 10
28.99572189696229
 20
80.29479992604564
 30
0.0
 11
28.99572189696229
 21
61.28641531389617
 31
0.0
  0
SOLID
  5
5A8
330
4C5
100
AcDbEntity
  8
Dimension (ANSI)
440
 16777216
100
AcDbTrace
 10
28.81527570682363
 20
40.21015420770953
 30
0.0
 11
29.17616808710095
 21
40.21015420770953
 31
0.0
 12
28.99572189696229
 22
39.12747706687758
 32
0.0
 13
28.99572189696229
 23
39.12747706687758
 33
0.0
  0
SOLID
  5
5A9
330
4C5
100
AcDbEntity
  8
Dimension (ANSI)
440
 16777216
100
AcDbTrace
 10
28.81527570682364
 20
80.29479992604564
 30
0.0
 11
29.17616808710095
 21
80.29479992604564
 31
0.0
 12
28.99572189696229
 22
81.37747706687759
 32
0.0
 13
28.99572189696229
 23
81.37747706687759
 33
0.0
  0
MTEXT
  5
5AA
330
4C5
100
AcDbEntity
  8
Dimension (ANSI)
440
 16777216
100
AcDbMText
 10
26.80384808326124
 20
60.93995862098279
 30
0.0
 40
1.320000052452087
 41
0.0
 46
0.0
 71
     1
 72
     1
  1
\A1;42.25
  7
Note Text (ANSI)
 73
     1
 44
1.0
  0
POINT
  5
5AB
330
4C5
100
AcDbEntity
  8
Defpoints
 62
     0
440
 16777216
100
AcDbPoint
 10
41.12170614893078
 20
39.12747706687758
 30
0.0
  0
POINT
  5
5AC
330
4C5
100
AcDbEntity
  8
Defpoints
 62
     0
440
 16777216
100
AcDbPoint
 10
41.12170614893078
 20
81.37747706687758
 30
0.0
  0
POINT
  5
5AD
330
4C5
100
AcDbEntity
  8
Defpoints
 62
     0
440
 16777216
100
AcDbPoint
 10
28.99572189696229
 20
81.37747706687759
 30
0.0
  0
ENDBLK
  5
4C7
330
4C5
100
AcDbEntity
  8
0
100
AcDbBlockEnd
  0
BLOCK
  5
5B0
330
5AF
100
AcDbEntity
  8
0
100
AcDbBlockBegin
  2
*D7
 70
     1
 10
0.0
 20
0.0
 30
0.0
  3
*D7
  1

  0
LINE
  5
68E
330
5AF
100
AcDbEntity
  8
Dimension (ANSI)
440
 16777216
100
AcDbLine
 10
40.24670614893078
 20
82.72658871922924
 30
0.0
 11
40.24670614893078
 21
95.54007297119774
 31
0.0
  0
LINE
  5
68F
330
5AF
100
AcDbEntity
  8
Dimension (ANSI)
440
 16777216
100
AcDbLine
 10
84.24670614893075
 20
82.72658871922924
 30
0.0
 11
84.24670614893075
 21
95.54007297119774
 31
0.0
  0
LINE
  5
690
330
5AF
100
AcDbEntity
  8
Dimension (ANSI)
440
 16777216
100
AcDbLine
 10
41.32938328976273
 20
94.16507297119775
 30
0.0
 11
59.6977376298737
 21
94.16507297119775
 31
0.0
  0
LINE
  5
691
330
5AF
100
AcDbEntity
  8
Dimension (ANSI)
440
 16777216
100
AcDbLine
 10
83.16402900809881
 20
94.16507297119775
 30
0.0
 11
64.79567466798783
 21
94.16507297119775
 31
0.0
  0
SOLID
  5
692
330
5AF
100
AcDbEntity
  8
Dimension (ANSI)
440
 16777216
100
AcDbTrace
 10
41.32938328976273
 20
94.3455191613364
 30
0.0
 11
41.32938328976273
 21
93.98462678105909
 31
0.0
 12
40.24670614893078
 22
94.16507297119775
 32
0.0
 13
40.24670614893078
 23
94.16507297119775
 33
0.0
  0
SOLID
  5
693
330
5AF
100
AcDbEntity
  8
Dimension (ANSI)
440
 16777216
100
AcDbTrace
 10
83.16402900809881
 20
94.3455191613364
 30
0.0
 11
83.16402900809881
 21
93.98462678105909
 31
0.0
 12
84.24670614893075
 22
94.16507297119775
 32
0.0
 13
84.24670614893075
 23
94.16507297119775
 33
0.0
  0
MTEXT
  5
694
330
5AF
100
AcDbEntity
  8
Dimension (ANSI)
440
 16777216
100
AcDbMText
 10
60.04419432278709
 20
94.85211127478452
 30
0.0
 40
1.320000052452087
 41
0.0
 46
0.0
 71
     1
 72
     1
  1
\A1;44.00
  7
Note Text (ANSI)
 73
     1
 44
1.0
  0
POINT
  5
695
330
5AF
100
AcDbEntity
  8
Defpoints
 62
     0
440
 16777216
100
AcDbPoint
 10
40.24670614893078
 20
82.03908871922925
 30
0.0
  0
POINT
  5
696
330
5AF
100
AcDbEntity
  8
Defpoints
 62
     0
440
 16777216
100
AcDbPoint
 10
84.24670614893075
 20
82.03908871922925
 30
0.0
  0
POINT
  5
697
330
5AF
100
AcDbEntity
  8
Defpoints
 62
     0
440
 16777216
100
AcDbPoint
 10
84.24670614893075
 20
94.16507297119775
 30
0.0
  0
ENDBLK
  5
5B1
330
5AF
100
AcDbEntity
  8
0
100
AcDbBlockEnd
  0
BLOCK
  5
69A
330
699
100
AcDbEntity
  8
0
100
AcDbBlockBegin
  2
*D8
 70
     1
 10
0.0
 20
0.0
 30
0.0
  3
*D8
  1

  0
LINE
  5
778
330
699
100
AcDbEntity
  8
Dimension (ANSI)
440
 16777216
100
AcDbLine
 10
41.12170614893078
 20
82.06497706687757
 30
0.0
 11
41.12170614893078
 21
91.61349695651058
 31
0.0
  0
LINE
  5
779
330
699
100
AcDbEntity
  8
Dimension (ANSI)
440
 16777216
100
AcDbLine
 10
83.37170614893079
 20
82.06497706687757
 30
0.0
 11
83.37170614893079
 21
91.61349695651058
 31
0.0
  0
LINE
  5
77A
330
699
100
AcDbEntity
  8
Dimension (ANSI)
440
 16777216
100
AcDbLine
 10
42.20438328976273
 20
90.23849695651056
 30
0.0
 11
59.70837564231636
 21
90.23849695651056
 31
0.0
  0
LINE
  5
77B
330
699
100
AcDbEntity
  8
Dimension (ANSI)
440
 16777216
100
AcDbLine
 10
82.28902900809883
 20
90.23849695651056
 30
0.0
 11
64.78503665554521
 21
90.23849695651056
 31
0.0
  0
SOLID
  5
77C
330
699
100
AcDbEntity
  8
Dimension (ANSI)
440
 16777216
100
AcDbTrace
 10
42.20438328976273
 20
90.41894314664922
 30
0.0
 11
42.20438328976273
 21
90.05805076637193
 31
0.0
 12
41.12170614893078
 22
90.23849695651056
 32
0.0
 13
41.12170614893078
 23
90.23849695651056
 33
0.0
  0
SOLID
  5
77D
330
699
100
AcDbEntity
  8
Dimension (ANSI)
440
 16777216
100
AcDbTrace
 10
82.28902900809883
 20
90.41894314664922
 30
0.0
 11
82.28902900809883
 21
90.05805076637193
 31
0.0
 12
83.37170614893079
 22
90.23849695651056
 32
0.0
 13
83.37170614893079
 23
90.23849695651056
 33
0.0
  0
MTEXT
  5
77E
330
699
100
AcDbEntity
  8
Dimension (ANSI)
440
 16777216
100
AcDbMText
 10
60.05483233522973
 20
90.92597851061579
 30
0.0
 40
1.320000052452087
 41
0.0
 46
0.0
 71
     1
 72
     1
  1
\A1;42.25
  7
Note Text (ANSI)
 73
     1
 44
1.0
  0
POINT
  5
77F
330
699
100
AcDbEntity
  8
Defpoints
 62
     0
440
 16777216
100
AcDbPoint
 10
41.12170614893078
 20
81.37747706687758
 30
0.0
  0
POINT
  5
780
330
699
100
AcDbEntity
  8
Defpoints
 62
     0
440
 16777216
100
AcDbPoint
 10
83.37170614893079
 20
81.37747706687758
 30
0.0
  0
POINT
  5
781
330
699
100
AcDbEntity
  8
Defpoints
 62
     0
440
 16777216
100
AcDbPoint
 10
83.37170614893079
 20
90.23849695651056
 30
0.0
  0
ENDBLK
  5
69B
330
699
100
AcDbEntity
  8
0
100
AcDbBlockEnd
  0
BLOCK
  5
784
330
783
100
AcDbEntity
  8
0
100
AcDbBlockBegin
  2
*D9
 70
     1
 10
0.0
 20
0.0
 30
0.0
  3
*D9
  1

  0
LINE
  5
862
330
783
100
AcDbEntity
  8
Dimension (ANSI)
440
 16777216
100
AcDbLine
 10
41.12170614893078
 20
82.06497706687757
 30
0.0
 11
41.12170614893078
 21
86.65766528001192
 31
0.0
  0
LINE
  5
863
330
783
100
AcDbEntity
  8
Dimension (ANSI)
440
 16777216
100
AcDbLine
 10
62.24670614893078
 20
82.06497706687757
 30
0.0
 11
62.24670614893078
 21
86.65766528001192
 31
0.0
  0
LINE
  5
864
330
783
100
AcDbEntity
  8
Dimension (ANSI)
440
 16777216
100
AcDbLine
 10
42.20438328976273
 20
85.28266528001193
 30
0.0
 11
49.18044918275491
 21
85.28266528001193
 31
0.0
  0
LINE
  5
865
330
783
100
AcDbEntity
  8
Dimension (ANSI)
440
 16777216
100
AcDbLine
 10
61.16402900809884
 20
85.28266528001193
 30
0.0
 11
54.18796311510665
 21
85.28266528001193
 31
0.0
  0
SOLID
  5
866
330
783
100
AcDbEntity
  8
Dimension (ANSI)
440
 16777216
100
AcDbTrace
 10
42.20438328976273
 20
85.46311147015059
 30
0.0
 11
42.20438328976273
 21
85.10221908987327
 31
0.0
 12
41.12170614893078
 22
85.28266528001193
 32
0.0
 13
41.12170614893078
 23
85.28266528001193
 33
0.0
  0
SOLID
  5
867
330
783
100
AcDbEntity
  8
Dimension (ANSI)
440
 16777216
100
AcDbTrace
 10
61.16402900809884
 20
85.46311147015059
 30
0.0
 11
61.16402900809884
 21
85.10221908987327
 31
0.0
 12
62.24670614893078
 22
85.28266528001193
 32
0.0
 13
62.24670614893078
 23
85.28266528001193
 33
0.0
  0
MTEXT
  5
868
330
783
100
AcDbEntity
  8
Dimension (ANSI)
440
 16777216
100
AcDbMText
 10
49.5269058756683
 20
85.97014683411714
 30
0.0
 40
1.320000052452087
 41
0.0
 46
0.0
 71
     1
 72
     1
  1
\A1;21.13
  7
Note Text (ANSI)
 73
     1
 44
1.0
  0
POINT
  5
869
330
783
100
AcDbEntity
  8
Defpoints
 62
     0
440
 16777216
100
AcDbPoint
 10
41.12170614893078
 20
81.37747706687758
 30
0.0
  0
POINT
  5
86A
330
783
100
AcDbEntity
  8
Defpoints
 62
     0
440
 16777216
100
AcDbPoint
 10
62.24670614893078
 20
81.37747706687758
 30
0.0
  0
POINT
  5
86B
330
783
100
AcDbEntity
  8
Defpoints
 62
     0
440
 16777216
100
AcDbPoint
 10
62.24670614893078
 20
85.28266528001193
 30
0.0
  0
ENDBLK
  5
785
330
783
100
AcDbEntity
  8
0
100
AcDbBlockEnd
  0
BLOCK
  5
86E
330
86D
100
AcDbEntity
  8
0
100
AcDbBlockBegin
  2
*D10
 70
     1
 10
0.0
 20
0.0
 30
0.0
  3
*D10
  1

  0
LINE
  5
978
330
86D
100
AcDbEntity
  8
Dimension (ANSI)
440
 16777216
100
AcDbLine
 10
84.72081780128245
 20
38.25247706687758
 30
0.0
 11
93.29222336490946
 21
38.25247706687758
 31
0.0
  0
LINE
  5
979
330
86D
100
AcDbEntity
  8
Dimension (ANSI)
440
 16777216
100
AcDbLine
 10
84.05920614893078
 20
39.12747706687759
 30
0.0
 11
93.29222336490946
 21
39.12747706687759
 31
0.0
  0
LINE
  5
97A
330
86D
100
AcDbEntity
  8
Dimension (ANSI)
440
 16777216
100
AcDbLine
 10
91.91722336490945
 20
37.16979992604564
 30
0.0
 11
91.91722336490945
 21
36.08712278521369
 31
0.0
  0
LINE
  5
97B
330
86D
100
AcDbEntity
  8
Dimension (ANSI)
440
 16777216
100
AcDbLine
 10
91.91722336490945
 20
40.21015420770953
 30
0.0
 11
91.91722336490945
 21
41.29283134854148
 31
0.0
  0
LINE
  5
97C
330
86D
100
AcDbEntity
  8
Dimension (ANSI)
440
 16777216
100
AcDbLine
 10
92.99990050574141
 20
34.06282647460494
 30
0.0
 11
91.91722336490945
 21
34.06282647460494
 31
0.0
  0
LINE
  5
97D
330
86D
100
AcDbEntity
  8
Dimension (ANSI)
440
 16777216
100
AcDbLine
 10
91.91722336490945
 20
34.06282647460494
 30
0.0
 11
91.91722336490945
 21
36.08712278521369
 31
0.0
  0
MTEXT
  5
97E
330
86D
100
AcDbEntity
  8
Dimension (ANSI)
440
 16777216
100
AcDbMText
 10
93.34635719865479
 20
34.9503617662544
 30
0.0
 40
1.320000052452087
 41
0.0
 46
0.0
 71
     1
 72
     1
  1
\A1;0.88{ \PTYP.}
  7
Note Text (ANSI)
 73
     1
 44
1.0
  0
SOLID
  5
97F
330
86D
100
AcDbEntity
  8
Dimension (ANSI)
440
 16777216
100
AcDbTrace
 10
91.73677717477081
 20
37.16979992604564
 30
0.0
 11
92.09766955504811
 21
37.16979992604564
 31
0.0
 12
91.91722336490945
 22
38.25247706687758
 32
0.0
 13
91.91722336490945
 23
38.25247706687758
 33
0.0
  0
SOLID
  5
980
330
86D
100
AcDbEntity
  8
Dimension (ANSI)
440
 16777216
100
AcDbTrace
 10
91.73677717477081
 20
40.21015420770953
 30
0.0
 11
92.09766955504811
 21
40.21015420770953
 31
0.0
 12
91.91722336490945
 22
39.12747706687759
 32
0.0
 13
91.91722336490945
 23
39.12747706687759
 33
0.0
  0
POINT
  5
981
330
86D
100
AcDbEntity
  8
Defpoints
 62
     0
440
 16777216
100
AcDbPoint
 10
84.03331780128246
 20
38.25247706687758
 30
0.0
  0
POINT
  5
982
330
86D
100
AcDbEntity
  8
Defpoints
 62
     0
440
 16777216
100
AcDbPoint
 10
83.37170614893079
 20
39.12747706687759
 30
0.0
  0
POINT
  5
983
330
86D
100
AcDbEntity
  8
Defpoints
 62
     0
440
 16777216
100
AcDbPoint
 10
91.91722336490945
 20
39.12747706687759
 30
0.0
  0
ENDBLK
  5
86F
330
86D
100
AcDbEntity
  8
0
100
AcDbBlockEnd
  0
BLOCK
  5
986
330
985
100
AcDbEntity
  8
0
100
AcDbBlockBegin
  2
*D11
 70
     1
 10
0.0
 20
0.0
 30
0.0
  3
*D11
  1

  0
LINE
  5
A78
330
985
100
AcDbEntity
  8
Dimension (ANSI)
440
 16777216
100
AcDbLine
 10
84.24670614893079
 20
37.7783654145259
 30
0.0
 11
84.24670614893079
 21
33.63569360125949
 31
0.0
  0
LINE
  5
A79
330
985
100
AcDbEntity
  8
Dimension (ANSI)
440
 16777216
100
AcDbLine
 10
83.37170614893079
 20
38.43997706687759
 30
0.0
 11
83.37170614893079
 21
33.63569360125949
 31
0.0
  0
LINE
  5
A7A
330
985
100
AcDbEntity
  8
Dimension (ANSI)
440
 16777216
100
AcDbLine
 10
85.32938328976273
 20
35.01069360125948
 30
0.0
 11
86.41206043059467
 21
35.01069360125948
 31
0.0
  0
LINE
  5
A7B
330
985
100
AcDbEntity
  8
Dimension (ANSI)
440
 16777216
100
AcDbLine
 10
82.28902900809883
 20
35.01069360125948
 30
0.0
 11
80.59690536178706
 21
35.01069360125948
 31
0.0
  0
SOLID
  5
A7C
330
985
100
AcDbEntity
  8
Dimension (ANSI)
440
 16777216
100
AcDbTrace
 10
85.32938328976273
 20
35.19113979139814
 30
0.0
 11
85.32938328976273
 21
34.83024741112082
 31
0.0
 12
84.24670614893079
 22
35.01069360125948
 32
0.0
 13
84.24670614893079
 23
35.01069360125948
 33
0.0
  0
SOLID
  5
A7D
330
985
100
AcDbEntity
  8
Dimension (ANSI)
440
 16777216
100
AcDbTrace
 10
82.28902900809883
 20
35.19113979139814
 30
0.0
 11
82.28902900809883
 21
34.83024741112082
 31
0.0
 12
83.37170614893079
 22
35.01069360125948
 32
0.0
 13
83.37170614893079
 23
35.01069360125948
 33
0.0
  0
MTEXT
  5
A7E
330
985
100
AcDbEntity
  8
Dimension (ANSI)
440
 16777216
100
AcDbMText
 10
76.7629535897635
 20
35.89822889290893
 30
0.0
 40
1.320000052452087
 41
0.0
 46
0.0
 71
     1
 72
     1
  1
\A1;0.88{\PTYP.}
  7
Note Text (ANSI)
 73
     1
 44
1.0
  0
POINT
  5
A7F
330
985
100
AcDbEntity
  8
Defpoints
 62
     0
440
 16777216
100
AcDbPoint
 10
84.24670614893079
 20
38.4658654145259
 30
0.0
  0
POINT
  5
A80
330
985
100
AcDbEntity
  8
Defpoints
 62
     0
440
 16777216
100
AcDbPoint
 10
83.37170614893079
 20
39.12747706687759
 30
0.0
  0
POINT
  5
A81
330
985
100
AcDbEntity
  8
Defpoints
 62
     0
440
 16777216
100
AcDbPoint
 10
83.37170614893079
 20
35.01069360125948
 30
0.0
  0
ENDBLK
  5
987
330
985
100
AcDbEntity
  8
0
100
AcDbBlockEnd
  0
BLOCK
  5
A84
330
A83
100
AcDbEntity
  8
0
100
AcDbBlockBegin
  2
*D12
 70
     1
 10
0.0
 20
0.0
 30
0.0
  3
*D12
  1

  0
LINE
  5
B62
330
A83
100
AcDbEntity
  8
Dimension (ANSI)
440
 16777216
100
AcDbLine
 10
125.3333575491123
 20
82.78372706687758
 30
0.0
 11
125.3333575491123
 21
86.77708336609013
 31
0.0
  0
LINE
  5
B63
330
A83
100
AcDbEntity
  8
Dimension (ANSI)
440
 16777216
100
AcDbLine
 10
126.2083575491123
 20
82.93997706687752
 30
0.0
 11
126.2083575491123
 21
86.77708336609013
 31
0.0
  0
LINE
  5
B64
330
A83
100
AcDbEntity
  8
Dimension (ANSI)
440
 16777216
100
AcDbLine
 10
127.2910346899442
 20
85.40208336609012
 30
0.0
 11
128.3737118307762
 21
85.40208336609012
 31
0.0
  0
LINE
  5
B65
330
A83
100
AcDbEntity
  8
Dimension (ANSI)
440
 16777216
100
AcDbLine
 10
124.2506804082803
 20
85.40208336609012
 30
0.0
 11
122.6085846310898
 21
85.40208336609012
 31
0.0
  0
SOLID
  5
B66
330
A83
100
AcDbEntity
  8
Dimension (ANSI)
440
 16777216
100
AcDbTrace
 10
127.2910346899442
 20
85.58252955622878
 30
0.0
 11
127.2910346899442
 21
85.22163717595146
 31
0.0
 12
126.2083575491123
 22
85.40208336609012
 32
0.0
 13
126.2083575491123
 23
85.40208336609012
 33
0.0
  0
SOLID
  5
B67
330
A83
100
AcDbEntity
  8
Dimension (ANSI)
440
 16777216
100
AcDbTrace
 10
124.2506804082803
 20
85.58252955622878
 30
0.0
 11
124.2506804082803
 21
85.22163717595146
 31
0.0
 12
125.3333575491123
 22
85.40208336609012
 32
0.0
 13
125.3333575491123
 23
85.40208336609012
 33
0.0
  0
MTEXT
  5
B68
330
A83
100
AcDbEntity
  8
Dimension (ANSI)
440
 16777216
100
AcDbMText
 10
118.8783534803819
 20
86.09222442330601
 30
0.0
 40
1.320000052452087
 41
0.0
 46
0.0
 71
     1
 72
     1
  1
\A1;0.88
  7
Note Text (ANSI)
 73
     1
 44
1.0
  0
POINT
  5
B69
330
A83
100
AcDbEntity
  8
Defpoints
 62
     0
440
 16777216
100
AcDbPoint
 10
125.3333575491123
 20
82.09622706687758
 30
0.0
  0
POINT
  5
B6A
330
A83
100
AcDbEntity
  8
Defpoints
 62
     0
440
 16777216
100
AcDbPoint
 10
126.2083575491123
 20
82.25247706687751
 30
0.0
  0
POINT
  5
B6B
330
A83
100
AcDbEntity
  8
Defpoints
 62
     0
440
 16777216
100
AcDbPoint
 10
126.2083575491123
 20
85.40208336609012
 30
0.0
  0
ENDBLK
  5
A85
330
A83
100
AcDbEntity
  8
0
100
AcDbBlockEnd
  0
BLOCK
  5
CB2
330
CB1
100
AcDbEntity
  8
0
100
AcDbBlockBegin
  2
*D13
 70
     1
 10
0.0
 20
0.0
 30
0.0
  3
*D13
  1

  0
LINE
  5
D63
330
CB1
100
AcDbEntity
  8
Dimension (ANSI)
440
 16777216
100
AcDbLine
 10
88.2131191875842
 20
68.31055657246981
 30
0.0
 11
86.80371644104635
 21
68.31055657246982
 31
0.0
  0
LINE
  5
D64
330
CB1
100
AcDbEntity
  8
Dimension (ANSI)
440
 16777216
100
AcDbLine
 10
86.80371644104635
 20
68.31055657246982
 30
0.0
 11
83.90625766426467
 21
61.50756031073935
 31
0.0
  0
MTEXT
  5
D65
330
CB1
100
AcDbEntity
  8
Dimension (ANSI)
440
 16777216
100
AcDbMText
 10
88.55957588049758
 20
69.30887063218624
 30
0.0
 40
1.320000052452087
 41
0.0
 46
0.0
 71
     1
 72
     1
  1
\A1;∅0.563{\P(8PL.)}
  7
Note Text (ANSI)
 73
     1
 44
1.0
  0
SOLID
  5
D66
330
CB1
100
AcDbEntity
  8
Dimension (ANSI)
440
 16777216
100
AcDbTrace
 10
83.74024184206461
 20
61.578267978745
 30
0.0
 11
84.07227348646472
 21
61.43685264273369
 31
0.0
 12
83.48201165623073
 22
60.51146537753905
 32
0.0
 13
83.48201165623073
 23
60.51146537753905
 33
0.0
  0
LINE
  5
D67
330
CB1
100
AcDbEntity
  8
Dimension (ANSI)
440
 16777216
100
AcDbLine
 10
82.38170614893078
 20
60.25247706687754
 30
0.0
 11
84.36170614893077
 21
60.25247706687753
 31
0.0
  0
LINE
  5
D68
330
CB1
100
AcDbEntity
  8
Dimension (ANSI)
440
 16777216
100
AcDbLine
 10
83.37170614893077
 20
59.26247706687755
 30
0.0
 11
83.37170614893077
 21
61.24247706687755
 31
0.0
  0
POINT
  5
D69
330
CB1
100
AcDbEntity
  8
Defpoints
 62
     0
440
 16777216
100
AcDbPoint
 10
83.48201165623073
 20
60.51146537753905
 30
0.0
  0
POINT
  5
D6A
330
CB1
100
AcDbEntity
  8
Defpoints
 62
     0
440
 16777216
100
AcDbPoint
 10
83.26140064163078
 20
59.99348875621605
 30
0.0
  0
ENDBLK
  5
CB3
330
CB1
100
AcDbEntity
  8
0
100
AcDbBlockEnd
  0
ENDSEC
  0
SECTION
  2
ENTITIES
  0
CIRCLE
  5
11B
330
6C
100
AcDbEntity
  8
Visible (ANSI)
100
AcDbCircle
 10
62.24670614893078
 20
39.12747706687758
 30
0.0
 40
0.2814999999999999
  0
CIRCLE
  5
11C
330
6C
100
AcDbEntity
  8
Visible (ANSI)
100
AcDbCircle
 10
83.37170614893075
 20
60.25247706687759
 30
0.0
 40
0.2814999999999999
  0
CIRCLE
  5
11D
330
6C
100
AcDbEntity
  8
Visible (ANSI)
100
AcDbCircle
 10
83.37170614893079
 20
39.12747706687759
 30
0.0
 40
0.2814999999999999
  0
CIRCLE
  5
11E
330
6C
100
AcDbEntity
  8
Visible (ANSI)
100
AcDbCircle
 10
41.12170614893078
 20
39.12747706687758
 30
0.0
 40
0.2814999999999999
  0
CIRCLE
  5
11F
330
6C
100
AcDbEntity
  8
Visible (ANSI)
100
AcDbCircle
 10
41.12170614893078
 20
60.25247706687757
 30
0.0
 40
0.2814999999999999
  0
CIRCLE
  5
120
330
6C
100
AcDbEntity
  8
Visible (ANSI)
100
AcDbCircle
 10
83.37170614893079
 20
81.37747706687758
 30
0.0
 40
0.2814999999999999
  0
CIRCLE
  5
121
330
6C
100
AcDbEntity
  8
Visible (ANSI)
100
AcDbCircle
 10
62.24670614893078
 20
81.37747706687758
 30
0.0
 40
0.2814999999999999
  0
CIRCLE
  5
122
330
6C
100
AcDbEntity
  8
Visible (ANSI)
100
AcDbCircle
 10
41.12170614893078
 20
81.37747706687758
 30
0.0
 40
0.2814999999999999
  0
LINE
  5
123
330
6C
100
AcDbEntity
  8
Visible (ANSI)
100
AcDbLine
 10
84.03331780128246
 20
38.25247706687758
 30
0.0
 11
40.4600944965791
 21
38.25247706687758
 31
0.0
  0
LINE
  5
124
330
6C
100
AcDbEntity
  8
Visible (ANSI)
100
AcDbLine
 10
84.24670614893077
 20
82.03908871922925
 30
0.0
 11
84.24670614893079
 21
38.46586541452591
 31
0.0
  0
LINE
  5
125
330
6C
100
AcDbEntity
  8
Visible (ANSI)
100
AcDbLine
 10
40.4600944965791
 20
82.25247706687758
 30
0.0
 11
84.03331780128246
 21
82.25247706687754
 31
0.0
  0
LINE
  5
126
330
6C
100
AcDbEntity
  8
Visible (ANSI)
100
AcDbLine
 10
40.24670614893078
 20
38.4658654145259
 30
0.0
 11
40.24670614893078
 21
82.03908871922925
 31
0.0
  0
POLYLINE
  5
127
330
6C
100
AcDbEntity
  8
Visible (ANSI)
100
AcDb2dPolyline
 66
     1
 10
0.0
 20
0.0
 30
0.0
 70
   128
  0
VERTEX
  5
128
330
127
100
AcDbEntity
  8
Visible (ANSI)
100
AcDbVertex
100
AcDb2dVertex
 10
84.09045759070613
 20
38.40872706453093
 30
0.0
  0
VERTEX
  5
129
330
127
100
AcDbEntity
  8
Visible (ANSI)
100
AcDbVertex
100
AcDb2dVertex
 10
84.08807565768908
 20
38.3985078247178
 30
0.0
  0
VERTEX
  5
12B
330
127
100
AcDbEntity
  8
Visible (ANSI)
100
AcDbVertex
100
AcDb2dVertex
 10
84.08569372467205
 20
38.38833234973242
 30
0.0
  0
VERTEX
  5
12C
330
127
100
AcDbEntity
  8
Visible (ANSI)
100
AcDbVertex
100
AcDb2dVertex
 10
84.08331479535364
 20
38.3782442049382
 30
0.0
  0
VERTEX
  5
12D
330
127
100
AcDbEntity
  8
Visible (ANSI)
100
AcDbVertex
100
AcDb2dVertex
 10
84.08093286233659
 20
38.36828659196939
 30
0.0
  0
VERTEX
  5
12E
330
127
100
AcDbEntity
  8
Visible (ANSI)
100
AcDbVertex
100
AcDb2dVertex
 10
84.07855092931955
 20
38.35850214926677
 30
0.0
  0
VERTEX
  5
12F
330
127
100
AcDbEntity
  8
Visible (ANSI)
100
AcDbVertex
100
AcDb2dVertex
 10
84.07617200000116
 20
38.34893278194626
 30
0.0
  0
VERTEX
  5
130
330
127
100
AcDbEntity
  8
Visible (ANSI)
100
AcDbVertex
100
AcDb2dVertex
 10
84.07379006698411
 20
38.33961945646791
 30
0.0
  0
VERTEX
  5
131
330
127
100
AcDbEntity
  8
Visible (ANSI)
100
AcDbVertex
100
AcDb2dVertex
 10
84.0714111376657
 20
38.33060206570425
 30
0.0
  0
VERTEX
  5
132
330
127
100
AcDbEntity
  8
Visible (ANSI)
100
AcDbVertex
100
AcDb2dVertex
 10
84.06902920464867
 20
38.32191921774259
 30
0.0
  0
VERTEX
  5
133
330
127
100
AcDbEntity
  8
Visible (ANSI)
100
AcDbVertex
100
AcDb2dVertex
 10
84.06664727163164
 20
38.31360809508672
 30
0.0
  0
VERTEX
  5
134
330
127
100
AcDbEntity
  8
Visible (ANSI)
100
AcDbVertex
100
AcDb2dVertex
 10
84.06426834231323
 20
38.30570428452555
 30
0.0
  0
VERTEX
  5
135
330
127
100
AcDbEntity
  8
Visible (ANSI)
100
AcDbVertex
100
AcDb2dVertex
 10
84.06188640929618
 20
38.2982416334014
 30
0.0
  0
VERTEX
  5
136
330
127
100
AcDbEntity
  8
Visible (ANSI)
100
AcDbVertex
100
AcDb2dVertex
 10
84.05950747997778
 20
38.29125209707844
 30
0.0
  0
VERTEX
  5
137
330
127
100
AcDbEntity
  8
Visible (ANSI)
100
AcDbVertex
100
AcDb2dVertex
 10
84.05712554696075
 20
38.28476560694427
 30
0.0
  0
VERTEX
  5
138
330
127
100
AcDbEntity
  8
Visible (ANSI)
100
AcDbVertex
100
AcDb2dVertex
 10
84.05474361394372
 20
38.27880994134463
 30
0.0
  0
VERTEX
  5
139
330
127
100
AcDbEntity
  8
Visible (ANSI)
100
AcDbVertex
100
AcDb2dVertex
 10
84.05236468462531
 20
38.27341059798497
 30
0.0
  0
VERTEX
  5
13A
330
127
100
AcDbEntity
  8
Visible (ANSI)
100
AcDbVertex
100
AcDb2dVertex
 10
84.04998275160826
 20
38.26859070153149
 30
0.0
  0
VERTEX
  5
13B
330
127
100
AcDbEntity
  8
Visible (ANSI)
100
AcDbVertex
100
AcDb2dVertex
 10
84.04760382228984
 20
38.26437088994578
 30
0.0
  0
VERTEX
  5
13C
330
127
100
AcDbEntity
  8
Visible (ANSI)
100
AcDbVertex
100
AcDb2dVertex
 10
84.0452218892728
 20
38.26076923381908
 30
0.0
  0
VERTEX
  5
13D
330
127
100
AcDbEntity
  8
Visible (ANSI)
100
AcDbVertex
100
AcDb2dVertex
 10
84.04283995625577
 20
38.2578011564399
 30
0.0
  0
VERTEX
  5
13E
330
127
100
AcDbEntity
  8
Visible (ANSI)
100
AcDbVertex
100
AcDb2dVertex
 10
84.04046102693737
 20
38.25547936687808
 30
0.0
  0
VERTEX
  5
13F
330
127
100
AcDbEntity
  8
Visible (ANSI)
100
AcDbVertex
100
AcDb2dVertex
 10
84.03807909392032
 20
38.2538138072771
 30
0.0
  0
VERTEX
  5
140
330
127
100
AcDbEntity
  8
Visible (ANSI)
100
AcDbVertex
100
AcDb2dVertex
 10
84.03569716090329
 20
38.25281161011498
 30
0.0
  0
VERTEX
  5
141
330
127
100
AcDbEntity
  8
Visible (ANSI)
100
AcDbVertex
100
AcDb2dVertex
 10
84.03331823158486
 20
38.25247706687758
 30
0.0
  0
SEQEND
  5
12A
330
127
100
AcDbEntity
  8
Visible (ANSI)
  0
POLYLINE
  5
142
330
6C
100
AcDbEntity
  8
Visible (ANSI)
100
AcDb2dPolyline
 66
     1
 10
0.0
 20
0.0
 30
0.0
 70
   128
  0
VERTEX
  5
143
330
142
100
AcDbEntity
  8
Visible (ANSI)
100
AcDbVertex
100
AcDb2dVertex
 10
40.46009448491719
 20
38.25247706687758
 30
0.0
  0
VERTEX
  5
144
330
142
100
AcDbEntity
  8
Visible (ANSI)
100
AcDbVertex
100
AcDb2dVertex
 10
40.45771372521993
 20
38.25281161011498
 30
0.0
  0
VERTEX
  5
146
330
142
100
AcDbEntity
  8
Visible (ANSI)
100
AcDbVertex
100
AcDb2dVertex
 10
40.45533296552267
 20
38.2538138072771
 30
0.0
  0
VERTEX
  5
147
330
142
100
AcDbEntity
  8
Visible (ANSI)
100
AcDbVertex
100
AcDb2dVertex
 10
40.4529522058254
 20
38.25547936687808
 30
0.0
  0
VERTEX
  5
148
330
142
100
AcDbEntity
  8
Visible (ANSI)
100
AcDbVertex
100
AcDb2dVertex
 10
40.45057144612814
 20
38.2578011564399
 30
0.0
  0
VERTEX
  5
149
330
142
100
AcDbEntity
  8
Visible (ANSI)
100
AcDbVertex
100
AcDb2dVertex
 10
40.44819066296449
 20
38.26076923381908
 30
0.0
  0
VERTEX
  5
14A
330
142
100
AcDbEntity
  8
Visible (ANSI)
100
AcDbVertex
100
AcDb2dVertex
 10
40.44580990326722
 20
38.26437088994578
 30
0.0
  0
VERTEX
  5
14B
330
142
100
AcDbEntity
  8
Visible (ANSI)
100
AcDbVertex
100
AcDb2dVertex
 10
40.44342914356996
 20
38.26859070153149
 30
0.0
  0
VERTEX
  5
14C
330
142
100
AcDbEntity
  8
Visible (ANSI)
100
AcDbVertex
100
AcDb2dVertex
 10
40.4410483838727
 20
38.27341059798497
 30
0.0
  0
VERTEX
  5
14D
330
142
100
AcDbEntity
  8
Visible (ANSI)
100
AcDbVertex
100
AcDb2dVertex
 10
40.43866761244225
 20
38.27880994134463
 30
0.0
  0
VERTEX
  5
14E
330
142
100
AcDbEntity
  8
Visible (ANSI)
100
AcDbVertex
100
AcDb2dVertex
 10
40.43628685274498
 20
38.28476560694427
 30
0.0
  0
VERTEX
  5
14F
330
142
100
AcDbEntity
  8
Visible (ANSI)
100
AcDbVertex
100
AcDb2dVertex
 10
40.43390609304772
 20
38.29125209707844
 30
0.0
  0
VERTEX
  5
150
330
142
100
AcDbEntity
  8
Visible (ANSI)
100
AcDbVertex
100
AcDb2dVertex
 10
40.43152532161726
 20
38.2982416334014
 30
0.0
  0
VERTEX
  5
151
330
142
100
AcDbEntity
  8
Visible (ANSI)
100
AcDbVertex
100
AcDb2dVertex
 10
40.42914456192
 20
38.30570428452555
 30
0.0
  0
VERTEX
  5
152
330
142
100
AcDbEntity
  8
Visible (ANSI)
100
AcDbVertex
100
AcDb2dVertex
 10
40.42676379048955
 20
38.31360809508672
 30
0.0
  0
VERTEX
  5
153
330
142
100
AcDbEntity
  8
Visible (ANSI)
100
AcDbVertex
100
AcDb2dVertex
 10
40.42438303079229
 20
38.32191921774259
 30
0.0
  0
VERTEX
  5
154
330
142
100
AcDbEntity
  8
Visible (ANSI)
100
AcDbVertex
100
AcDb2dVertex
 10
40.42200225936182
 20
38.33060206570425
 30
0.0
  0
VERTEX
  5
155
330
142
100
AcDbEntity
  8
Visible (ANSI)
100
AcDbVertex
100
AcDb2dVertex
 10
40.41962149966456
 20
38.33961945646791
 30
0.0
  0
VERTEX
  5
156
330
142
100
AcDbEntity
  8
Visible (ANSI)
100
AcDbVertex
100
AcDb2dVertex
 10
40.4172407399673
 20
38.34893278194626
 30
0.0
  0
VERTEX
  5
157
330
142
100
AcDbEntity
  8
Visible (ANSI)
100
AcDbVertex
100
AcDb2dVertex
 10
40.41485996853685
 20
38.35850214926677
 30
0.0
  0
VERTEX
  5
158
330
142
100
AcDbEntity
  8
Visible (ANSI)
100
AcDbVertex
100
AcDb2dVertex
 10
40.41247920883958
 20
38.36828659196939
 30
0.0
  0
VERTEX
  5
159
330
142
100
AcDbEntity
  8
Visible (ANSI)
100
AcDbVertex
100
AcDb2dVertex
 10
40.41009843740912
 20
38.3782442049382
 30
0.0
  0
VERTEX
  5
15A
330
142
100
AcDbEntity
  8
Visible (ANSI)
100
AcDbVertex
100
AcDb2dVertex
 10
40.40771767771186
 20
38.38833234973242
 30
0.0
  0
VERTEX
  5
15B
330
142
100
AcDbEntity
  8
Visible (ANSI)
100
AcDbVertex
100
AcDb2dVertex
 10
40.40533691801461
 20
38.3985078247178
 30
0.0
  0
VERTEX
  5
15C
330
142
100
AcDbEntity
  8
Visible (ANSI)
100
AcDbVertex
100
AcDb2dVertex
 10
40.40295614658414
 20
38.40872706453093
 30
0.0
  0
SEQEND
  5
145
330
142
100
AcDbEntity
  8
Visible (ANSI)
  0
POLYLINE
  5
15D
330
6C
100
AcDbEntity
  8
Visible (ANSI)
100
AcDb2dPolyline
 66
     1
 10
0.0
 20
0.0
 30
0.0
 70
   128
  0
VERTEX
  5
15E
330
15D
100
AcDbEntity
  8
Visible (ANSI)
100
AcDbVertex
100
AcDb2dVertex
 10
84.09045759070613
 20
82.09622850865292
 30
0.0
  0
VERTEX
  5
15F
330
15D
100
AcDbEntity
  8
Visible (ANSI)
100
AcDbVertex
100
AcDb2dVertex
 10
84.10067617346019
 20
82.09384657563587
 30
0.0
  0
VERTEX
  5
161
330
15D
100
AcDbEntity
  8
Visible (ANSI)
100
AcDbVertex
100
AcDb2dVertex
 10
84.11084970073472
 20
82.09146464261882
 30
0.0
  0
VERTEX
  5
162
330
15D
100
AcDbEntity
  8
Visible (ANSI)
100
AcDbVertex
100
AcDb2dVertex
 10
84.12093912444751
 20
82.08908571330043
 30
0.0
  0
VERTEX
  5
163
330
15D
100
AcDbEntity
  8
Visible (ANSI)
100
AcDbVertex
100
AcDb2dVertex
 10
84.13089638542038
 20
82.08670378028337
 30
0.0
  0
VERTEX
  5
164
330
15D
100
AcDbEntity
  8
Visible (ANSI)
100
AcDbVertex
100
AcDb2dVertex
 10
84.1406824355711
 20
82.08432184726634
 30
0.0
  0
VERTEX
  5
165
330
15D
100
AcDbEntity
  8
Visible (ANSI)
100
AcDbVertex
100
AcDb2dVertex
 10
84.1502492157215
 20
82.08194291794793
 30
0.0
  0
VERTEX
  5
166
330
15D
100
AcDbEntity
  8
Visible (ANSI)
100
AcDbVertex
100
AcDb2dVertex
 10
84.15956368518662
 20
82.0795609849309
 30
0.0
  0
VERTEX
  5
167
330
15D
100
AcDbEntity
  8
Visible (ANSI)
100
AcDbVertex
100
AcDb2dVertex
 10
84.16858078848695
 20
82.07718205561249
 30
0.0
  0
VERTEX
  5
168
330
15D
100
AcDbEntity
  8
Visible (ANSI)
100
AcDbVertex
100
AcDb2dVertex
 10
84.17726448123884
 20
82.07480012259544
 30
0.0
  0
VERTEX
  5
169
330
15D
100
AcDbEntity
  8
Visible (ANSI)
100
AcDbVertex
100
AcDb2dVertex
 10
84.18557571536011
 20
82.07241818957841
 30
0.0
  0
VERTEX
  5
16A
330
15D
100
AcDbEntity
  8
Visible (ANSI)
100
AcDbVertex
100
AcDb2dVertex
 10
84.19347844646706
 20
82.07003926026002
 30
0.0
  0
VERTEX
  5
16B
330
15D
100
AcDbEntity
  8
Visible (ANSI)
100
AcDbVertex
100
AcDb2dVertex
 10
84.20094263757343
 20
82.06765732724297
 30
0.0
  0
VERTEX
  5
16C
330
15D
100
AcDbEntity
  8
Visible (ANSI)
100
AcDbVertex
100
AcDb2dVertex
 10
84.20793224429557
 20
82.06527839792457
 30
0.0
  0
VERTEX
  5
16D
330
15D
100
AcDbEntity
  8
Visible (ANSI)
100
AcDbVertex
100
AcDb2dVertex
 10
84.21441722964713
 20
82.06289646490754
 30
0.0
  0
VERTEX
  5
16E
330
15D
100
AcDbEntity
  8
Visible (ANSI)
100
AcDbVertex
100
AcDb2dVertex
 10
84.22037356403905
 20
82.06051453189049
 30
0.0
  0
VERTEX
  5
16F
330
15D
100
AcDbEntity
  8
Visible (ANSI)
100
AcDbVertex
100
AcDb2dVertex
 10
84.22577121048497
 20
82.0581356025721
 30
0.0
  0
VERTEX
  5
170
330
15D
100
AcDbEntity
  8
Visible (ANSI)
100
AcDbVertex
100
AcDb2dVertex
 10
84.23059214679311
 20
82.05575366955503
 30
0.0
  0
VERTEX
  5
171
330
15D
100
AcDbEntity
  8
Visible (ANSI)
100
AcDbVertex
100
AcDb2dVertex
 10
84.23481234337437
 20
82.05337474023663
 30
0.0
  0
VERTEX
  5
172
330
15D
100
AcDbEntity
  8
Visible (ANSI)
100
AcDbVertex
100
AcDb2dVertex
 10
84.23841377803695
 20
82.0509928072196
 30
0.0
  0
VERTEX
  5
173
330
15D
100
AcDbEntity
  8
Visible (ANSI)
100
AcDbVertex
100
AcDb2dVertex
 10
84.2413814322877
 20
82.04861087420255
 30
0.0
  0
VERTEX
  5
174
330
15D
100
AcDbEntity
  8
Visible (ANSI)
100
AcDbVertex
100
AcDb2dVertex
 10
84.24370329133205
 20
82.04623194488416
 30
0.0
  0
VERTEX
  5
175
330
15D
100
AcDbEntity
  8
Visible (ANSI)
100
AcDbVertex
100
AcDb2dVertex
 10
84.24537034407411
 20
82.04385001186709
 30
0.0
  0
VERTEX
  5
176
330
15D
100
AcDbEntity
  8
Visible (ANSI)
100
AcDbVertex
100
AcDb2dVertex
 10
84.24637057571935
 20
82.04146807885006
 30
0.0
  0
VERTEX
  5
177
330
15D
100
AcDbEntity
  8
Visible (ANSI)
100
AcDbVertex
100
AcDb2dVertex
 10
84.2467069899664
 20
82.03908914953165
 30
0.0
  0
SEQEND
  5
160
330
15D
100
AcDbEntity
  8
Visible (ANSI)
  0
POLYLINE
  5
178
330
6C
100
AcDbEntity
  8
Visible (ANSI)
100
AcDb2dPolyline
 66
     1
 10
0.0
 20
0.0
 30
0.0
 70
   128
  0
VERTEX
  5
179
330
178
100
AcDbEntity
  8
Visible (ANSI)
100
AcDbVertex
100
AcDb2dVertex
 10
84.2467069899664
 20
38.46586540286397
 30
0.0
  0
VERTEX
  5
17A
330
178
100
AcDbEntity
  8
Visible (ANSI)
100
AcDbVertex
100
AcDb2dVertex
 10
84.24637057571935
 20
38.46348464316671
 30
0.0
  0
VERTEX
  5
17C
330
178
100
AcDbEntity
  8
Visible (ANSI)
100
AcDbVertex
100
AcDb2dVertex
 10
84.24537034407411
 20
38.46110388346945
 30
0.0
  0
VERTEX
  5
17D
330
178
100
AcDbEntity
  8
Visible (ANSI)
100
AcDbVertex
100
AcDb2dVertex
 10
84.24370329133205
 20
38.45872312377219
 30
0.0
  0
VERTEX
  5
17E
330
178
100
AcDbEntity
  8
Visible (ANSI)
100
AcDbVertex
100
AcDb2dVertex
 10
84.2413814322877
 20
38.45634236407493
 30
0.0
  0
VERTEX
  5
17F
330
178
100
AcDbEntity
  8
Visible (ANSI)
100
AcDbVertex
100
AcDb2dVertex
 10
84.23841377803695
 20
38.45396158091128
 30
0.0
  0
VERTEX
  5
180
330
178
100
AcDbEntity
  8
Visible (ANSI)
100
AcDbVertex
100
AcDb2dVertex
 10
84.23481234337437
 20
38.45158082121402
 30
0.0
  0
VERTEX
  5
181
330
178
100
AcDbEntity
  8
Visible (ANSI)
100
AcDbVertex
100
AcDb2dVertex
 10
84.23059214679311
 20
38.44920006151675
 30
0.0
  0
VERTEX
  5
182
330
178
100
AcDbEntity
  8
Visible (ANSI)
100
AcDbVertex
100
AcDb2dVertex
 10
84.22577121048497
 20
38.44681930181949
 30
0.0
  0
VERTEX
  5
183
330
178
100
AcDbEntity
  8
Visible (ANSI)
100
AcDbVertex
100
AcDb2dVertex
 10
84.22037356403905
 20
38.44443853038903
 30
0.0
  0
VERTEX
  5
184
330
178
100
AcDbEntity
  8
Visible (ANSI)
100
AcDbVertex
100
AcDb2dVertex
 10
84.21441722964713
 20
38.44205777069177
 30
0.0
  0
VERTEX
  5
185
330
178
100
AcDbEntity
  8
Visible (ANSI)
100
AcDbVertex
100
AcDb2dVertex
 10
84.20793224429557
 20
38.43967701099451
 30
0.0
  0
VERTEX
  5
186
330
178
100
AcDbEntity
  8
Visible (ANSI)
100
AcDbVertex
100
AcDb2dVertex
 10
84.20094263757343
 20
38.43729623956405
 30
0.0
  0
VERTEX
  5
187
330
178
100
AcDbEntity
  8
Visible (ANSI)
100
AcDbVertex
100
AcDb2dVertex
 10
84.19347844646706
 20
38.43491547986679
 30
0.0
  0
VERTEX
  5
188
330
178
100
AcDbEntity
  8
Visible (ANSI)
100
AcDbVertex
100
AcDb2dVertex
 10
84.18557571536011
 20
38.43253470843633
 30
0.0
  0
VERTEX
  5
189
330
178
100
AcDbEntity
  8
Visible (ANSI)
100
AcDbVertex
100
AcDb2dVertex
 10
84.17726448123884
 20
38.43015394873907
 30
0.0
  0
VERTEX
  5
18A
330
178
100
AcDbEntity
  8
Visible (ANSI)
100
AcDbVertex
100
AcDb2dVertex
 10
84.16858078848695
 20
38.42777317730862
 30
0.0
  0
VERTEX
  5
18B
330
178
100
AcDbEntity
  8
Visible (ANSI)
100
AcDbVertex
100
AcDb2dVertex
 10
84.15956368518662
 20
38.42539241761135
 30
0.0
  0
VERTEX
  5
18C
330
178
100
AcDbEntity
  8
Visible (ANSI)
100
AcDbVertex
100
AcDb2dVertex
 10
84.1502492157215
 20
38.42301165791409
 30
0.0
  0
VERTEX
  5
18D
330
178
100
AcDbEntity
  8
Visible (ANSI)
100
AcDbVertex
100
AcDb2dVertex
 10
84.1406824355711
 20
38.42063088648364
 30
0.0
  0
VERTEX
  5
18E
330
178
100
AcDbEntity
  8
Visible (ANSI)
100
AcDbVertex
100
AcDb2dVertex
 10
84.13089638542038
 20
38.41825012678638
 30
0.0
  0
VERTEX
  5
18F
330
178
100
AcDbEntity
  8
Visible (ANSI)
100
AcDbVertex
100
AcDb2dVertex
 10
84.12093912444751
 20
38.41586935535591
 30
0.0
  0
VERTEX
  5
190
330
178
100
AcDbEntity
  8
Visible (ANSI)
100
AcDbVertex
100
AcDb2dVertex
 10
84.11084970073472
 20
38.41348859565865
 30
0.0
  0
VERTEX
  5
191
330
178
100
AcDbEntity
  8
Visible (ANSI)
100
AcDbVertex
100
AcDb2dVertex
 10
84.10067617346019
 20
38.41110783596139
 30
0.0
  0
VERTEX
  5
192
330
178
100
AcDbEntity
  8
Visible (ANSI)
100
AcDbVertex
100
AcDb2dVertex
 10
84.09045759070613
 20
38.40872706453093
 30
0.0
  0
SEQEND
  5
17B
330
178
100
AcDbEntity
  8
Visible (ANSI)
  0
POLYLINE
  5
193
330
6C
100
AcDbEntity
  8
Visible (ANSI)
100
AcDb2dPolyline
 66
     1
 10
0.0
 20
0.0
 30
0.0
 70
   128
  0
VERTEX
  5
194
330
193
100
AcDbEntity
  8
Visible (ANSI)
100
AcDbVertex
100
AcDb2dVertex
 10
40.40295614658414
 20
82.09622850865292
 30
0.0
  0
VERTEX
  5
195
330
193
100
AcDbEntity
  8
Visible (ANSI)
100
AcDbVertex
100
AcDb2dVertex
 10
40.40533691801461
 20
82.10644709140698
 30
0.0
  0
VERTEX
  5
197
330
193
100
AcDbEntity
  8
Visible (ANSI)
100
AcDbVertex
100
AcDb2dVertex
 10
40.40771767771186
 20
82.11662061868151
 30
0.0
  0
VERTEX
  5
198
330
193
100
AcDbEntity
  8
Visible (ANSI)
100
AcDbVertex
100
AcDb2dVertex
 10
40.41009843740912
 20
82.1267100423943
 30
0.0
  0
VERTEX
  5
199
330
193
100
AcDbEntity
  8
Visible (ANSI)
100
AcDbVertex
100
AcDb2dVertex
 10
40.41247920883958
 20
82.13666730336717
 30
0.0
  0
VERTEX
  5
19A
330
193
100
AcDbEntity
  8
Visible (ANSI)
100
AcDbVertex
100
AcDb2dVertex
 10
40.41485996853685
 20
82.14645335351789
 30
0.0
  0
VERTEX
  5
19B
330
193
100
AcDbEntity
  8
Visible (ANSI)
100
AcDbVertex
100
AcDb2dVertex
 10
40.4172407399673
 20
82.15602013366828
 30
0.0
  0
VERTEX
  5
19C
330
193
100
AcDbEntity
  8
Visible (ANSI)
100
AcDbVertex
100
AcDb2dVertex
 10
40.41962149966456
 20
82.16533460313341
 30
0.0
  0
VERTEX
  5
19D
330
193
100
AcDbEntity
  8
Visible (ANSI)
100
AcDbVertex
100
AcDb2dVertex
 10
40.42200225936182
 20
82.17435170643373
 30
0.0
  0
VERTEX
  5
19E
330
193
100
AcDbEntity
  8
Visible (ANSI)
100
AcDbVertex
100
AcDb2dVertex
 10
40.42438303079229
 20
82.18303539918563
 30
0.0
  0
VERTEX
  5
19F
330
193
100
AcDbEntity
  8
Visible (ANSI)
100
AcDbVertex
100
AcDb2dVertex
 10
40.42676379048955
 20
82.1913466333069
 30
0.0
  0
VERTEX
  5
1A0
330
193
100
AcDbEntity
  8
Visible (ANSI)
100
AcDbVertex
100
AcDb2dVertex
 10
40.42914456192
 20
82.19924936441385
 30
0.0
  0
VERTEX
  5
1A1
330
193
100
AcDbEntity
  8
Visible (ANSI)
100
AcDbVertex
100
AcDb2dVertex
 10
40.43152532161726
 20
82.20671355552022
 30
0.0
  0
VERTEX
  5
1A2
330
193
100
AcDbEntity
  8
Visible (ANSI)
100
AcDbVertex
100
AcDb2dVertex
 10
40.43390609304772
 20
82.21370316224236
 30
0.0
  0
VERTEX
  5
1A3
330
193
100
AcDbEntity
  8
Visible (ANSI)
100
AcDbVertex
100
AcDb2dVertex
 10
40.43628685274498
 20
82.2201881475939
 30
0.0
  0
VERTEX
  5
1A4
330
193
100
AcDbEntity
  8
Visible (ANSI)
100
AcDbVertex
100
AcDb2dVertex
 10
40.43866761244225
 20
82.22614448198582
 30
0.0
  0
VERTEX
  5
1A5
330
193
100
AcDbEntity
  8
Visible (ANSI)
100
AcDbVertex
100
AcDb2dVertex
 10
40.4410483838727
 20
82.23154212843176
 30
0.0
  0
VERTEX
  5
1A6
330
193
100
AcDbEntity
  8
Visible (ANSI)
100
AcDbVertex
100
AcDb2dVertex
 10
40.44342914356996
 20
82.2363630647399
 30
0.0
  0
VERTEX
  5
1A7
330
193
100
AcDbEntity
  8
Visible (ANSI)
100
AcDbVertex
100
AcDb2dVertex
 10
40.44580990326722
 20
82.24058326132114
 30
0.0
  0
VERTEX
  5
1A8
330
193
100
AcDbEntity
  8
Visible (ANSI)
100
AcDbVertex
100
AcDb2dVertex
 10
40.44819066296449
 20
82.24418469598374
 30
0.0
  0
VERTEX
  5
1A9
330
193
100
AcDbEntity
  8
Visible (ANSI)
100
AcDbVertex
100
AcDb2dVertex
 10
40.45057144612814
 20
82.24715235023449
 30
0.0
  0
VERTEX
  5
1AA
330
193
100
AcDbEntity
  8
Visible (ANSI)
100
AcDbVertex
100
AcDb2dVertex
 10
40.4529522058254
 20
82.24947420927884
 30
0.0
  0
VERTEX
  5
1AB
330
193
100
AcDbEntity
  8
Visible (ANSI)
100
AcDbVertex
100
AcDb2dVertex
 10
40.45533296552267
 20
82.2511412620209
 30
0.0
  0
VERTEX
  5
1AC
330
193
100
AcDbEntity
  8
Visible (ANSI)
100
AcDbVertex
100
AcDb2dVertex
 10
40.45771372521993
 20
82.25214149366614
 30
0.0
  0
VERTEX
  5
1AD
330
193
100
AcDbEntity
  8
Visible (ANSI)
100
AcDbVertex
100
AcDb2dVertex
 10
40.46009448491719
 20
82.25247790791318
 30
0.0
  0
SEQEND
  5
196
330
193
100
AcDbEntity
  8
Visible (ANSI)
  0
POLYLINE
  5
1AE
330
6C
100
AcDbEntity
  8
Visible (ANSI)
100
AcDb2dPolyline
 66
     1
 10
0.0
 20
0.0
 30
0.0
 70
   128
  0
VERTEX
  5
1AF
330
1AE
100
AcDbEntity
  8
Visible (ANSI)
100
AcDbVertex
100
AcDb2dVertex
 10
84.03331823158486
 20
82.25247790791318
 30
0.0
  0
VERTEX
  5
1B0
330
1AE
100
AcDbEntity
  8
Visible (ANSI)
100
AcDbVertex
100
AcDb2dVertex
 10
84.03569716090329
 20
82.25214149366614
 30
0.0
  0
VERTEX
  5
1B2
330
1AE
100
AcDbEntity
  8
Visible (ANSI)
100
AcDbVertex
100
AcDb2dVertex
 10
84.03807909392032
 20
82.2511412620209
 30
0.0
  0
VERTEX
  5
1B3
330
1AE
100
AcDbEntity
  8
Visible (ANSI)
100
AcDbVertex
100
AcDb2dVertex
 10
84.04046102693737
 20
82.24947420927884
 30
0.0
  0
VERTEX
  5
1B4
330
1AE
100
AcDbEntity
  8
Visible (ANSI)
100
AcDbVertex
100
AcDb2dVertex
 10
84.04283995625577
 20
82.24715235023449
 30
0.0
  0
VERTEX
  5
1B5
330
1AE
100
AcDbEntity
  8
Visible (ANSI)
100
AcDbVertex
100
AcDb2dVertex
 10
84.0452218892728
 20
82.24418469598374
 30
0.0
  0
VERTEX
  5
1B6
330
1AE
100
AcDbEntity
  8
Visible (ANSI)
100
AcDbVertex
100
AcDb2dVertex
 10
84.04760382228984
 20
82.24058326132114
 30
0.0
  0
VERTEX
  5
1B7
330
1AE
100
AcDbEntity
  8
Visible (ANSI)
100
AcDbVertex
100
AcDb2dVertex
 10
84.04998275160826
 20
82.2363630647399
 30
0.0
  0
VERTEX
  5
1B8
330
1AE
100
AcDbEntity
  8
Visible (ANSI)
100
AcDbVertex
100
AcDb2dVertex
 10
84.05236468462531
 20
82.23154212843176
 30
0.0
  0
VERTEX
  5
1B9
330
1AE
100
AcDbEntity
  8
Visible (ANSI)
100
AcDbVertex
100
AcDb2dVertex
 10
84.05474361394372
 20
82.22614448198582
 30
0.0
  0
VERTEX
  5
1BA
330
1AE
100
AcDbEntity
  8
Visible (ANSI)
100
AcDbVertex
100
AcDb2dVertex
 10
84.05712554696075
 20
82.2201881475939
 30
0.0
  0
VERTEX
  5
1BB
330
1AE
100
AcDbEntity
  8
Visible (ANSI)
100
AcDbVertex
100
AcDb2dVertex
 10
84.05950747997778
 20
82.21370316224236
 30
0.0
  0
VERTEX
  5
1BC
330
1AE
100
AcDbEntity
  8
Visible (ANSI)
100
AcDbVertex
100
AcDb2dVertex
 10
84.06188640929618
 20
82.20671355552022
 30
0.0
  0
VERTEX
  5
1BD
330
1AE
100
AcDbEntity
  8
Visible (ANSI)
100
AcDbVertex
100
AcDb2dVertex
 10
84.06426834231323
 20
82.19924936441385
 30
0.0
  0
VERTEX
  5
1BE
330
1AE
100
AcDbEntity
  8
Visible (ANSI)
100
AcDbVertex
100
AcDb2dVertex
 10
84.06664727163164
 20
82.1913466333069
 30
0.0
  0
VERTEX
  5
1BF
330
1AE
100
AcDbEntity
  8
Visible (ANSI)
100
AcDbVertex
100
AcDb2dVertex
 10
84.06902920464867
 20
82.18303539918563
 30
0.0
  0
VERTEX
  5
1C0
330
1AE
100
AcDbEntity
  8
Visible (ANSI)
100
AcDbVertex
100
AcDb2dVertex
 10
84.0714111376657
 20
82.17435170643373
 30
0.0
  0
VERTEX
  5
1C1
330
1AE
100
AcDbEntity
  8
Visible (ANSI)
100
AcDbVertex
100
AcDb2dVertex
 10
84.07379006698411
 20
82.16533460313341
 30
0.0
  0
VERTEX
  5
1C2
330
1AE
100
AcDbEntity
  8
Visible (ANSI)
100
AcDbVertex
100
AcDb2dVertex
 10
84.07617200000116
 20
82.15602013366828
 30
0.0
  0
VERTEX
  5
1C3
330
1AE
100
AcDbEntity
  8
Visible (ANSI)
100
AcDbVertex
100
AcDb2dVertex
 10
84.07855092931955
 20
82.14645335351789
 30
0.0
  0
VERTEX
  5
1C4
330
1AE
100
AcDbEntity
  8
Visible (ANSI)
100
AcDbVertex
100
AcDb2dVertex
 10
84.08093286233659
 20
82.13666730336717
 30
0.0
  0
VERTEX
  5
1C5
330
1AE
100
AcDbEntity
  8
Visible (ANSI)
100
AcDbVertex
100
AcDb2dVertex
 10
84.08331479535364
 20
82.1267100423943
 30
0.0
  0
VERTEX
  5
1C6
330
1AE
100
AcDbEntity
  8
Visible (ANSI)
100
AcDbVertex
100
AcDb2dVertex
 10
84.08569372467205
 20
82.11662061868151
 30
0.0
  0
VERTEX
  5
1C7
330
1AE
100
AcDbEntity
  8
Visible (ANSI)
100
AcDbVertex
100
AcDb2dVertex
 10
84.08807565768908
 20
82.10644709140698
 30
0.0
  0
VERTEX
  5
1C8
330
1AE
100
AcDbEntity
  8
Visible (ANSI)
100
AcDbVertex
100
AcDb2dVertex
 10
84.09045759070613
 20
82.09622850865292
 30
0.0
  0
SEQEND
  5
1B1
330
1AE
100
AcDbEntity
  8
Visible (ANSI)
  0
POLYLINE
  5
1C9
330
6C
100
AcDbEntity
  8
Visible (ANSI)
100
AcDb2dPolyline
 66
     1
 10
0.0
 20
0.0
 30
0.0
 70
   128
  0
VERTEX
  5
1CA
330
1C9
100
AcDbEntity
  8
Visible (ANSI)
100
AcDbVertex
100
AcDb2dVertex
 10
40.40295614658414
 20
38.40872706453093
 30
0.0
  0
VERTEX
  5
1CB
330
1C9
100
AcDbEntity
  8
Visible (ANSI)
100
AcDbVertex
100
AcDb2dVertex
 10
40.39273690677101
 20
38.41110783596139
 30
0.0
  0
VERTEX
  5
1CD
330
1C9
100
AcDbEntity
  8
Visible (ANSI)
100
AcDbVertex
100
AcDb2dVertex
 10
40.38256143178563
 20
38.41348859565865
 30
0.0
  0
VERTEX
  5
1CE
330
1C9
100
AcDbEntity
  8
Visible (ANSI)
100
AcDbVertex
100
AcDb2dVertex
 10
40.37247328699141
 20
38.41586935535591
 30
0.0
  0
VERTEX
  5
1CF
330
1C9
100
AcDbEntity
  8
Visible (ANSI)
100
AcDbVertex
100
AcDb2dVertex
 10
40.36251567402261
 20
38.41825012678638
 30
0.0
  0
VERTEX
  5
1D0
330
1C9
100
AcDbEntity
  8
Visible (ANSI)
100
AcDbVertex
100
AcDb2dVertex
 10
40.35273123131998
 20
38.42063088648364
 30
0.0
  0
VERTEX
  5
1D1
330
1C9
100
AcDbEntity
  8
Visible (ANSI)
100
AcDbVertex
100
AcDb2dVertex
 10
40.34316186399947
 20
38.42301165791409
 30
0.0
  0
VERTEX
  5
1D2
330
1C9
100
AcDbEntity
  8
Visible (ANSI)
100
AcDbVertex
100
AcDb2dVertex
 10
40.33384853852113
 20
38.42539241761135
 30
0.0
  0
VERTEX
  5
1D3
330
1C9
100
AcDbEntity
  8
Visible (ANSI)
100
AcDbVertex
100
AcDb2dVertex
 10
40.32483114775746
 20
38.42777317730862
 30
0.0
  0
VERTEX
  5
1D4
330
1C9
100
AcDbEntity
  8
Visible (ANSI)
100
AcDbVertex
100
AcDb2dVertex
 10
40.3161482997958
 20
38.43015394873907
 30
0.0
  0
VERTEX
  5
1D5
330
1C9
100
AcDbEntity
  8
Visible (ANSI)
100
AcDbVertex
100
AcDb2dVertex
 10
40.30783717713993
 20
38.43253470843633
 30
0.0
  0
VERTEX
  5
1D6
330
1C9
100
AcDbEntity
  8
Visible (ANSI)
100
AcDbVertex
100
AcDb2dVertex
 10
40.29993336657876
 20
38.43491547986679
 30
0.0
  0
VERTEX
  5
1D7
330
1C9
100
AcDbEntity
  8
Visible (ANSI)
100
AcDbVertex
100
AcDb2dVertex
 10
40.29247071545461
 20
38.43729623956405
 30
0.0
  0
VERTEX
  5
1D8
330
1C9
100
AcDbEntity
  8
Visible (ANSI)
100
AcDbVertex
100
AcDb2dVertex
 10
40.28548117913166
 20
38.43967701099451
 30
0.0
  0
VERTEX
  5
1D9
330
1C9
100
AcDbEntity
  8
Visible (ANSI)
100
AcDbVertex
100
AcDb2dVertex
 10
40.27899468899748
 20
38.44205777069177
 30
0.0
  0
VERTEX
  5
1DA
330
1C9
100
AcDbEntity
  8
Visible (ANSI)
100
AcDbVertex
100
AcDb2dVertex
 10
40.27303902339784
 20
38.44443853038903
 30
0.0
  0
VERTEX
  5
1DB
330
1C9
100
AcDbEntity
  8
Visible (ANSI)
100
AcDbVertex
100
AcDb2dVertex
 10
40.26763968003819
 20
38.44681930181949
 30
0.0
  0
VERTEX
  5
1DC
330
1C9
100
AcDbEntity
  8
Visible (ANSI)
100
AcDbVertex
100
AcDb2dVertex
 10
40.2628197835847
 20
38.44920006151675
 30
0.0
  0
VERTEX
  5
1DD
330
1C9
100
AcDbEntity
  8
Visible (ANSI)
100
AcDbVertex
100
AcDb2dVertex
 10
40.258599971999
 20
38.45158082121402
 30
0.0
  0
VERTEX
  5
1DE
330
1C9
100
AcDbEntity
  8
Visible (ANSI)
100
AcDbVertex
100
AcDb2dVertex
 10
40.2549983158723
 20
38.45396158091128
 30
0.0
  0
VERTEX
  5
1DF
330
1C9
100
AcDbEntity
  8
Visible (ANSI)
100
AcDbVertex
100
AcDb2dVertex
 10
40.25203023849312
 20
38.45634236407493
 30
0.0
  0
VERTEX
  5
1E0
330
1C9
100
AcDbEntity
  8
Visible (ANSI)
100
AcDbVertex
100
AcDb2dVertex
 10
40.24970844893129
 20
38.45872312377219
 30
0.0
  0
VERTEX
  5
1E1
330
1C9
100
AcDbEntity
  8
Visible (ANSI)
100
AcDbVertex
100
AcDb2dVertex
 10
40.24804288933031
 20
38.46110388346945
 30
0.0
  0
VERTEX
  5
1E2
330
1C9
100
AcDbEntity
  8
Visible (ANSI)
100
AcDbVertex
100
AcDb2dVertex
 10
40.24704069216819
 20
38.46348464316671
 30
0.0
  0
VERTEX
  5
1E3
330
1C9
100
AcDbEntity
  8
Visible (ANSI)
100
AcDbVertex
100
AcDb2dVertex
 10
40.24670614893078
 20
38.46586540286397
 30
0.0
  0
SEQEND
  5
1CC
330
1C9
100
AcDbEntity
  8
Visible (ANSI)
  0
POLYLINE
  5
1E4
330
6C
100
AcDbEntity
  8
Visible (ANSI)
100
AcDb2dPolyline
 66
     1
 10
0.0
 20
0.0
 30
0.0
 70
   128
  0
VERTEX
  5
1E5
330
1E4
100
AcDbEntity
  8
Visible (ANSI)
100
AcDbVertex
100
AcDb2dVertex
 10
40.24670614893078
 20
82.03908914953165
 30
0.0
  0
VERTEX
  5
1E6
330
1E4
100
AcDbEntity
  8
Visible (ANSI)
100
AcDbVertex
100
AcDb2dVertex
 10
40.24704069216819
 20
82.04146807885006
 30
0.0
  0
VERTEX
  5
1E8
330
1E4
100
AcDbEntity
  8
Visible (ANSI)
100
AcDbVertex
100
AcDb2dVertex
 10
40.24804288933031
 20
82.04385001186709
 30
0.0
  0
VERTEX
  5
1E9
330
1E4
100
AcDbEntity
  8
Visible (ANSI)
100
AcDbVertex
100
AcDb2dVertex
 10
40.24970844893129
 20
82.04623194488416
 30
0.0
  0
VERTEX
  5
1EA
330
1E4
100
AcDbEntity
  8
Visible (ANSI)
100
AcDbVertex
100
AcDb2dVertex
 10
40.25203023849312
 20
82.04861087420255
 30
0.0
  0
VERTEX
  5
1EB
330
1E4
100
AcDbEntity
  8
Visible (ANSI)
100
AcDbVertex
100
AcDb2dVertex
 10
40.2549983158723
 20
82.0509928072196
 30
0.0
  0
VERTEX
  5
1EC
330
1E4
100
AcDbEntity
  8
Visible (ANSI)
100
AcDbVertex
100
AcDb2dVertex
 10
40.258599971999
 20
82.05337474023663
 30
0.0
  0
VERTEX
  5
1ED
330
1E4
100
AcDbEntity
  8
Visible (ANSI)
100
AcDbVertex
100
AcDb2dVertex
 10
40.2628197835847
 20
82.05575366955503
 30
0.0
  0
VERTEX
  5
1EE
330
1E4
100
AcDbEntity
  8
Visible (ANSI)
100
AcDbVertex
100
AcDb2dVertex
 10
40.26763968003819
 20
82.0581356025721
 30
0.0
  0
VERTEX
  5
1EF
330
1E4
100
AcDbEntity
  8
Visible (ANSI)
100
AcDbVertex
100
AcDb2dVertex
 10
40.27303902339784
 20
82.06051453189049
 30
0.0
  0
VERTEX
  5
1F0
330
1E4
100
AcDbEntity
  8
Visible (ANSI)
100
AcDbVertex
100
AcDb2dVertex
 10
40.27899468899748
 20
82.06289646490754
 30
0.0
  0
VERTEX
  5
1F1
330
1E4
100
AcDbEntity
  8
Visible (ANSI)
100
AcDbVertex
100
AcDb2dVertex
 10
40.28548117913166
 20
82.06527839792457
 30
0.0
  0
VERTEX
  5
1F2
330
1E4
100
AcDbEntity
  8
Visible (ANSI)
100
AcDbVertex
100
AcDb2dVertex
 10
40.29247071545461
 20
82.06765732724297
 30
0.0
  0
VERTEX
  5
1F3
330
1E4
100
AcDbEntity
  8
Visible (ANSI)
100
AcDbVertex
100
AcDb2dVertex
 10
40.29993336657876
 20
82.07003926026002
 30
0.0
  0
VERTEX
  5
1F4
330
1E4
100
AcDbEntity
  8
Visible (ANSI)
100
AcDbVertex
100
AcDb2dVertex
 10
40.30783717713993
 20
82.07241818957841
 30
0.0
  0
VERTEX
  5
1F5
330
1E4
100
AcDbEntity
  8
Visible (ANSI)
100
AcDbVertex
100
AcDb2dVertex
 10
40.3161482997958
 20
82.07480012259544
 30
0.0
  0
VERTEX
  5
1F6
330
1E4
100
AcDbEntity
  8
Visible (ANSI)
100
AcDbVertex
100
AcDb2dVertex
 10
40.32483114775746
 20
82.07718205561249
 30
0.0
  0
VERTEX
  5
1F7
330
1E4
100
AcDbEntity
  8
Visible (ANSI)
100
AcDbVertex
100
AcDb2dVertex
 10
40.33384853852113
 20
82.0795609849309
 30
0.0
  0
VERTEX
  5
1F8
330
1E4
100
AcDbEntity
  8
Visible (ANSI)
100
AcDbVertex
100
AcDb2dVertex
 10
40.34316186399947
 20
82.08194291794793
 30
0.0
  0
VERTEX
  5
1F9
330
1E4
100
AcDbEntity
  8
Visible (ANSI)
100
AcDbVertex
100
AcDb2dVertex
 10
40.35273123131998
 20
82.08432184726634
 30
0.0
  0
VERTEX
  5
1FA
330
1E4
100
AcDbEntity
  8
Visible (ANSI)
100
AcDbVertex
100
AcDb2dVertex
 10
40.36251567402261
 20
82.08670378028337
 30
0.0
  0
VERTEX
  5
1FB
330
1E4
100
AcDbEntity
  8
Visible (ANSI)
100
AcDbVertex
100
AcDb2dVertex
 10
40.37247328699141
 20
82.08908571330043
 30
0.0
  0
VERTEX
  5
1FC
330
1E4
100
AcDbEntity
  8
Visible (ANSI)
100
AcDbVertex
100
AcDb2dVertex
 10
40.38256143178563
 20
82.09146464261882
 30
0.0
  0
VERTEX
  5
1FD
330
1E4
100
AcDbEntity
  8
Visible (ANSI)
100
AcDbVertex
100
AcDb2dVertex
 10
40.39273690677101
 20
82.09384657563587
 30
0.0
  0
VERTEX
  5
1FE
330
1E4
100
AcDbEntity
  8
Visible (ANSI)
100
AcDbVertex
100
AcDb2dVertex
 10
40.40295614658414
 20
82.09622850865292
 30
0.0
  0
SEQEND
  5
1E7
330
1E4
100
AcDbEntity
  8
Visible (ANSI)
  0
POLYLINE
  5
1FF
330
6C
100
AcDbEntity
  8
Visible (ANSI)
100
AcDb2dPolyline
 66
     1
 10
0.0
 20
0.0
 30
0.0
 70
   128
  0
VERTEX
  5
200
330
1FF
100
AcDbEntity
  8
Visible (ANSI)
100
AcDbVertex
100
AcDb2dVertex
 10
125.3333575509896
 20
38.40872706453093
 30
0.0
  0
VERTEX
  5
201
330
1FF
100
AcDbEntity
  8
Visible (ANSI)
100
AcDbVertex
100
AcDb2dVertex
 10
125.333692087925
 20
38.3985078247178
 30
0.0
  0
VERTEX
  5
203
330
1FF
100
AcDbEntity
  8
Visible (ANSI)
100
AcDbVertex
100
AcDb2dVertex
 10
125.3346942907475
 20
38.38833234973242
 30
0.0
  0
VERTEX
  5
204
330
1FF
100
AcDbEntity
  8
Visible (ANSI)
100
AcDbVertex
100
AcDb2dVertex
 10
125.3363598533734
 20
38.3782442049382
 30
0.0
  0
VERTEX
  5
205
330
1FF
100
AcDbEntity
  8
Visible (ANSI)
100
AcDbVertex
100
AcDb2dVertex
 10
125.3386816420186
 20
38.36828659196939
 30
0.0
  0
VERTEX
  5
206
330
1FF
100
AcDbEntity
  8
Visible (ANSI)
100
AcDbVertex
100
AcDb2dVertex
 10
125.3416497186644
 20
38.35850214926677
 30
0.0
  0
VERTEX
  5
207
330
1FF
100
AcDbEntity
  8
Visible (ANSI)
100
AcDbVertex
100
AcDb2dVertex
 10
125.3452513762578
 20
38.34893278194626
 30
0.0
  0
VERTEX
  5
208
330
1FF
100
AcDbEntity
  8
Visible (ANSI)
100
AcDbVertex
100
AcDb2dVertex
 10
125.3494711856435
 20
38.33961945646791
 30
0.0
  0
VERTEX
  5
209
330
1FF
100
AcDbEntity
  8
Visible (ANSI)
100
AcDbVertex
100
AcDb2dVertex
 10
125.354291077697
 20
38.33060206570425
 30
0.0
  0
VERTEX
  5
20A
330
1FF
100
AcDbEntity
  8
Visible (ANSI)
100
AcDbVertex
100
AcDb2dVertex
 10
125.3596904254566
 20
38.32191921774259
 30
0.0
  0
VERTEX
  5
20B
330
1FF
100
AcDbEntity
  8
Visible (ANSI)
100
AcDbVertex
100
AcDb2dVertex
 10
125.3656460910563
 20
38.31360809508672
 30
0.0
  0
VERTEX
  5
20C
330
1FF
100
AcDbEntity
  8
Visible (ANSI)
100
AcDbVertex
100
AcDb2dVertex
 10
125.3721325782572
 20
38.30570428452555
 30
0.0
  0
VERTEX
  5
20D
330
1FF
100
AcDbEntity
  8
Visible (ANSI)
100
AcDbVertex
100
AcDb2dVertex
 10
125.3791221145801
 20
38.2982416334014
 30
0.0
  0
VERTEX
  5
20E
330
1FF
100
AcDbEntity
  8
Visible (ANSI)
100
AcDbVertex
100
AcDb2dVertex
 10
125.386584762771
 20
38.29125209707844
 30
0.0
  0
VERTEX
  5
20F
330
1FF
100
AcDbEntity
  8
Visible (ANSI)
100
AcDbVertex
100
AcDb2dVertex
 10
125.3944885733321
 20
38.28476560694427
 30
0.0
  0
VERTEX
  5
210
330
1FF
100
AcDbEntity
  8
Visible (ANSI)
100
AcDbVertex
100
AcDb2dVertex
 10
125.4027997018546
 20
38.27880994134463
 30
0.0
  0
VERTEX
  5
211
330
1FF
100
AcDbEntity
  8
Visible (ANSI)
100
AcDbVertex
100
AcDb2dVertex
 10
125.4114825498163
 20
38.27341059798497
 30
0.0
  0
VERTEX
  5
212
330
1FF
100
AcDbEntity
  8
Visible (ANSI)
100
AcDbVertex
100
AcDb2dVertex
 10
125.4204999405799
 20
38.26859070153149
 30
0.0
  0
VERTEX
  5
213
330
1FF
100
AcDbEntity
  8
Visible (ANSI)
100
AcDbVertex
100
AcDb2dVertex
 10
125.429813263125
 20
38.26437088994578
 30
0.0
  0
VERTEX
  5
214
330
1FF
100
AcDbEntity
  8
Visible (ANSI)
100
AcDbVertex
100
AcDb2dVertex
 10
125.4393826333788
 20
38.26076923381908
 30
0.0
  0
VERTEX
  5
215
330
1FF
100
AcDbEntity
  8
Visible (ANSI)
100
AcDbVertex
100
AcDb2dVertex
 10
125.4491670731481
 20
38.2578011564399
 30
0.0
  0
VERTEX
  5
216
330
1FF
100
AcDbEntity
  8
Visible (ANSI)
100
AcDbVertex
100
AcDb2dVertex
 10
125.4591246863002
 20
38.25547936687808
 30
0.0
  0
VERTEX
  5
217
330
1FF
100
AcDbEntity
  8
Visible (ANSI)
100
AcDbVertex
100
AcDb2dVertex
 10
125.4692128316444
 20
38.2538138072771
 30
0.0
  0
VERTEX
  5
218
330
1FF
100
AcDbEntity
  8
Visible (ANSI)
100
AcDbVertex
100
AcDb2dVertex
 10
125.4793883102965
 20
38.25281161011498
 30
0.0
  0
VERTEX
  5
219
330
1FF
100
AcDbEntity
  8
Visible (ANSI)
100
AcDbVertex
100
AcDb2dVertex
 10
125.4896075486429
 20
38.25247706687758
 30
0.0
  0
SEQEND
  5
202
330
1FF
100
AcDbEntity
  8
Visible (ANSI)
  0
LINE
  5
21A
330
6C
100
AcDbEntity
  8
Visible (ANSI)
100
AcDbLine
 10
125.4896075491123
 20
38.37747706687758
 30
0.0
 11
126.2083575491123
 21
38.37747706687758
 31
0.0
  0
LINE
  5
21B
330
6C
100
AcDbEntity
  8
Visible (ANSI)
100
AcDbLine
 10
125.4896075491123
 20
38.37747706687758
 30
0.0
 11
125.4896075491123
 21
38.25247706687758
 31
0.0
  0
POLYLINE
  5
21C
330
6C
100
AcDbEntity
  8
Visible (ANSI)
100
AcDb2dPolyline
 66
     1
 10
0.0
 20
0.0
 30
0.0
 70
   128
  0
VERTEX
  5
21D
330
21C
100
AcDbEntity
  8
Visible (ANSI)
100
AcDbVertex
100
AcDb2dVertex
 10
125.4583575491123
 20
38.40872706453093
 30
0.0
  0
VERTEX
  5
21E
330
21C
100
AcDbEntity
  8
Visible (ANSI)
100
AcDbVertex
100
AcDb2dVertex
 10
125.4584244577586
 20
38.40668322360823
 30
0.0
  0
VERTEX
  5
220
330
21C
100
AcDbEntity
  8
Visible (ANSI)
100
AcDbVertex
100
AcDb2dVertex
 10
125.4586248971968
 20
38.40464812391788
 30
0.0
  0
VERTEX
  5
221
330
21C
100
AcDbEntity
  8
Visible (ANSI)
100
AcDbVertex
100
AcDb2dVertex
 10
125.4589580091215
 20
38.40263049495902
 30
0.0
  0
VERTEX
  5
222
330
21C
100
AcDbEntity
  8
Visible (ANSI)
100
AcDbVertex
100
AcDb2dVertex
 10
125.4594223670614
 20
38.40063897236527
 30
0.0
  0
VERTEX
  5
223
330
21C
100
AcDbEntity
  8
Visible (ANSI)
100
AcDbVertex
100
AcDb2dVertex
 10
125.4600159825372
 20
38.39868208617139
 30
0.0
  0
VERTEX
  5
224
330
21C
100
AcDbEntity
  8
Visible (ANSI)
100
AcDbVertex
100
AcDb2dVertex
 10
125.4607363137993
 20
38.3967682138806
 30
0.0
  0
VERTEX
  5
225
330
21C
100
AcDbEntity
  8
Visible (ANSI)
100
AcDbVertex
100
AcDb2dVertex
 10
125.4615802761164
 20
38.39490554526497
 30
0.0
  0
VERTEX
  5
226
330
21C
100
AcDbEntity
  8
Visible (ANSI)
100
AcDbVertex
100
AcDb2dVertex
 10
125.4625442551138
 20
38.3931020706322
 30
0.0
  0
VERTEX
  5
227
330
21C
100
AcDbEntity
  8
Visible (ANSI)
100
AcDbVertex
100
AcDb2dVertex
 10
125.463624123639
 20
38.39136549869322
 30
0.0
  0
VERTEX
  5
228
330
21C
100
AcDbEntity
  8
Visible (ANSI)
100
AcDbVertex
100
AcDb2dVertex
 10
125.4648152569789
 20
38.38970326829545
 30
0.0
  0
VERTEX
  5
229
330
21C
100
AcDbEntity
  8
Visible (ANSI)
100
AcDbVertex
100
AcDb2dVertex
 10
125.4661125548591
 20
38.38812251322313
 30
0.0
  0
VERTEX
  5
22A
330
21C
100
AcDbEntity
  8
Visible (ANSI)
100
AcDbVertex
100
AcDb2dVertex
 10
125.467510461977
 20
38.38662998006501
 30
0.0
  0
VERTEX
  5
22B
330
21C
100
AcDbEntity
  8
Visible (ANSI)
100
AcDbVertex
100
AcDb2dVertex
 10
125.4690029922019
 20
38.38523207514706
 30
0.0
  0
VERTEX
  5
22C
330
21C
100
AcDbEntity
  8
Visible (ANSI)
100
AcDbVertex
100
AcDb2dVertex
 10
125.4705837546074
 20
38.38393477066696
 30
0.0
  0
VERTEX
  5
22D
330
21C
100
AcDbEntity
  8
Visible (ANSI)
100
AcDbVertex
100
AcDb2dVertex
 10
125.4722459798719
 20
38.38274363989367
 30
0.0
  0
VERTEX
  5
22E
330
21C
100
AcDbEntity
  8
Visible (ANSI)
100
AcDbVertex
100
AcDb2dVertex
 10
125.4739825488776
 20
38.38166377503503
 30
0.0
  0
VERTEX
  5
22F
330
21C
100
AcDbEntity
  8
Visible (ANSI)
100
AcDbVertex
100
AcDb2dVertex
 10
125.4757860279103
 20
38.38069979897097
 30
0.0
  0
VERTEX
  5
230
330
21C
100
AcDbEntity
  8
Visible (ANSI)
100
AcDbVertex
100
AcDb2dVertex
 10
125.477648692126
 20
38.37985583005389
 30
0.0
  0
VERTEX
  5
231
330
21C
100
AcDbEntity
  8
Visible (ANSI)
100
AcDbVertex
100
AcDb2dVertex
 10
125.4795625658834
 20
38.37913550557515
 30
0.0
  0
VERTEX
  5
232
330
21C
100
AcDbEntity
  8
Visible (ANSI)
100
AcDbVertex
100
AcDb2dVertex
 10
125.4815194535439
 20
38.37854188789934
 30
0.0
  0
VERTEX
  5
233
330
21C
100
AcDbEntity
  8
Visible (ANSI)
100
AcDbVertex
100
AcDb2dVertex
 10
125.4835109761377
 20
38.37807752313038
 30
0.0
  0
VERTEX
  5
234
330
21C
100
AcDbEntity
  8
Visible (ANSI)
100
AcDbVertex
100
AcDb2dVertex
 10
125.4855286050966
 20
38.37774441764511
 30
0.0
  0
VERTEX
  5
235
330
21C
100
AcDbEntity
  8
Visible (ANSI)
100
AcDbVertex
100
AcDb2dVertex
 10
125.4875637018536
 20
38.37754397942726
 30
0.0
  0
VERTEX
  5
236
330
21C
100
AcDbEntity
  8
Visible (ANSI)
100
AcDbVertex
100
AcDb2dVertex
 10
125.4896075486429
 20
38.37747706500027
 30
0.0
  0
SEQEND
  5
21F
330
21C
100
AcDbEntity
  8
Visible (ANSI)
  0
LINE
  5
237
330
6C
100
AcDbEntity
  8
Visible (ANSI)
100
AcDbLine
 10
125.4583575491123
 20
38.40872706687759
 30
0.0
 11
125.453232147239
 21
38.40872706687758
 31
0.0
  0
LINE
  5
238
330
6C
100
AcDbEntity
  8
Visible (ANSI)
100
AcDbLine
 10
125.453232147239
 20
38.40872706687758
 30
0.0
 11
125.3333575491123
 21
38.40872706687759
 31
0.0
  0
LINE
  5
239
330
6C
100
AcDbEntity
  8
Visible (ANSI)
100
AcDbLine
 10
125.4896075491123
 20
38.25247706687758
 30
0.0
 11
126.2083575491123
 21
38.25247706687758
 31
0.0
  0
LINE
  5
23A
330
6C
100
AcDbEntity
  8
Visible (ANSI)
100
AcDbLine
 10
126.2083575491123
 20
38.37747706687758
 30
0.0
 11
126.2083575491123
 21
38.25247706687758
 31
0.0
  0
POLYLINE
  5
23B
330
6C
100
AcDbEntity
  8
Visible (ANSI)
100
AcDb2dPolyline
 66
     1
 10
0.0
 20
0.0
 30
0.0
 70
   128
  0
VERTEX
  5
23C
330
23B
100
AcDbEntity
  8
Visible (ANSI)
100
AcDbVertex
100
AcDb2dVertex
 10
125.3333575509896
 20
82.09622850865292
 30
0.0
  0
VERTEX
  5
23D
330
23B
100
AcDbEntity
  8
Visible (ANSI)
100
AcDbVertex
100
AcDb2dVertex
 10
125.333692087925
 20
82.09384657563587
 30
0.0
  0
VERTEX
  5
23F
330
23B
100
AcDbEntity
  8
Visible (ANSI)
100
AcDbVertex
100
AcDb2dVertex
 10
125.3346942907475
 20
82.09146464261882
 30
0.0
  0
VERTEX
  5
240
330
23B
100
AcDbEntity
  8
Visible (ANSI)
100
AcDbVertex
100
AcDb2dVertex
 10
125.3363598533734
 20
82.08908571330043
 30
0.0
  0
VERTEX
  5
241
330
23B
100
AcDbEntity
  8
Visible (ANSI)
100
AcDbVertex
100
AcDb2dVertex
 10
125.3386816420186
 20
82.08670378028337
 30
0.0
  0
VERTEX
  5
242
330
23B
100
AcDbEntity
  8
Visible (ANSI)
100
AcDbVertex
100
AcDb2dVertex
 10
125.3416497186644
 20
82.08432184726634
 30
0.0
  0
VERTEX
  5
243
330
23B
100
AcDbEntity
  8
Visible (ANSI)
100
AcDbVertex
100
AcDb2dVertex
 10
125.3452513762578
 20
82.08194291794793
 30
0.0
  0
VERTEX
  5
244
330
23B
100
AcDbEntity
  8
Visible (ANSI)
100
AcDbVertex
100
AcDb2dVertex
 10
125.3494711856435
 20
82.0795609849309
 30
0.0
  0
VERTEX
  5
245
330
23B
100
AcDbEntity
  8
Visible (ANSI)
100
AcDbVertex
100
AcDb2dVertex
 10
125.3542910776971
 20
82.07718205561249
 30
0.0
  0
VERTEX
  5
246
330
23B
100
AcDbEntity
  8
Visible (ANSI)
100
AcDbVertex
100
AcDb2dVertex
 10
125.3596904254567
 20
82.07480012259544
 30
0.0
  0
VERTEX
  5
247
330
23B
100
AcDbEntity
  8
Visible (ANSI)
100
AcDbVertex
100
AcDb2dVertex
 10
125.3656460910563
 20
82.07241818957841
 30
0.0
  0
VERTEX
  5
248
330
23B
100
AcDbEntity
  8
Visible (ANSI)
100
AcDbVertex
100
AcDb2dVertex
 10
125.3721325782572
 20
82.07003926026002
 30
0.0
  0
VERTEX
  5
249
330
23B
100
AcDbEntity
  8
Visible (ANSI)
100
AcDbVertex
100
AcDb2dVertex
 10
125.3791221145801
 20
82.06765732724297
 30
0.0
  0
VERTEX
  5
24A
330
23B
100
AcDbEntity
  8
Visible (ANSI)
100
AcDbVertex
100
AcDb2dVertex
 10
125.386584762771
 20
82.06527839792457
 30
0.0
  0
VERTEX
  5
24B
330
23B
100
AcDbEntity
  8
Visible (ANSI)
100
AcDbVertex
100
AcDb2dVertex
 10
125.3944885733322
 20
82.06289646490754
 30
0.0
  0
VERTEX
  5
24C
330
23B
100
AcDbEntity
  8
Visible (ANSI)
100
AcDbVertex
100
AcDb2dVertex
 10
125.4027997018547
 20
82.06051453189049
 30
0.0
  0
VERTEX
  5
24D
330
23B
100
AcDbEntity
  8
Visible (ANSI)
100
AcDbVertex
100
AcDb2dVertex
 10
125.4114825498163
 20
82.0581356025721
 30
0.0
  0
VERTEX
  5
24E
330
23B
100
AcDbEntity
  8
Visible (ANSI)
100
AcDbVertex
100
AcDb2dVertex
 10
125.42049994058
 20
82.05575366955503
 30
0.0
  0
VERTEX
  5
24F
330
23B
100
AcDbEntity
  8
Visible (ANSI)
100
AcDbVertex
100
AcDb2dVertex
 10
125.429813263125
 20
82.05337474023663
 30
0.0
  0
VERTEX
  5
250
330
23B
100
AcDbEntity
  8
Visible (ANSI)
100
AcDbVertex
100
AcDb2dVertex
 10
125.4393826333789
 20
82.0509928072196
 30
0.0
  0
VERTEX
  5
251
330
23B
100
AcDbEntity
  8
Visible (ANSI)
100
AcDbVertex
100
AcDb2dVertex
 10
125.4491670731481
 20
82.04861087420255
 30
0.0
  0
VERTEX
  5
252
330
23B
100
AcDbEntity
  8
Visible (ANSI)
100
AcDbVertex
100
AcDb2dVertex
 10
125.4591246863003
 20
82.04623194488416
 30
0.0
  0
VERTEX
  5
253
330
23B
100
AcDbEntity
  8
Visible (ANSI)
100
AcDbVertex
100
AcDb2dVertex
 10
125.4692128316445
 20
82.04385001186709
 30
0.0
  0
VERTEX
  5
254
330
23B
100
AcDbEntity
  8
Visible (ANSI)
100
AcDbVertex
100
AcDb2dVertex
 10
125.4793883102965
 20
82.04146807885006
 30
0.0
  0
VERTEX
  5
255
330
23B
100
AcDbEntity
  8
Visible (ANSI)
100
AcDbVertex
100
AcDb2dVertex
 10
125.489607548643
 20
82.03908914953165
 30
0.0
  0
SEQEND
  5
23E
330
23B
100
AcDbEntity
  8
Visible (ANSI)
  0
POLYLINE
  5
256
330
6C
100
AcDbEntity
  8
Visible (ANSI)
100
AcDb2dPolyline
 66
     1
 10
0.0
 20
0.0
 30
0.0
 70
   128
  0
VERTEX
  5
257
330
256
100
AcDbEntity
  8
Visible (ANSI)
100
AcDbVertex
100
AcDb2dVertex
 10
125.489607548643
 20
38.46586540286397
 30
0.0
  0
VERTEX
  5
258
330
256
100
AcDbEntity
  8
Visible (ANSI)
100
AcDbVertex
100
AcDb2dVertex
 10
125.4793883102965
 20
38.46348464316671
 30
0.0
  0
VERTEX
  5
25A
330
256
100
AcDbEntity
  8
Visible (ANSI)
100
AcDbVertex
100
AcDb2dVertex
 10
125.4692128316445
 20
38.46110388346945
 30
0.0
  0
VERTEX
  5
25B
330
256
100
AcDbEntity
  8
Visible (ANSI)
100
AcDbVertex
100
AcDb2dVertex
 10
125.4591246863003
 20
38.45872312377219
 30
0.0
  0
VERTEX
  5
25C
330
256
100
AcDbEntity
  8
Visible (ANSI)
100
AcDbVertex
100
AcDb2dVertex
 10
125.4491670731481
 20
38.45634236407493
 30
0.0
  0
VERTEX
  5
25D
330
256
100
AcDbEntity
  8
Visible (ANSI)
100
AcDbVertex
100
AcDb2dVertex
 10
125.4393826333789
 20
38.45396158091128
 30
0.0
  0
VERTEX
  5
25E
330
256
100
AcDbEntity
  8
Visible (ANSI)
100
AcDbVertex
100
AcDb2dVertex
 10
125.429813263125
 20
38.45158082121402
 30
0.0
  0
VERTEX
  5
25F
330
256
100
AcDbEntity
  8
Visible (ANSI)
100
AcDbVertex
100
AcDb2dVertex
 10
125.42049994058
 20
38.44920006151675
 30
0.0
  0
VERTEX
  5
260
330
256
100
AcDbEntity
  8
Visible (ANSI)
100
AcDbVertex
100
AcDb2dVertex
 10
125.4114825498163
 20
38.44681930181949
 30
0.0
  0
VERTEX
  5
261
330
256
100
AcDbEntity
  8
Visible (ANSI)
100
AcDbVertex
100
AcDb2dVertex
 10
125.4027997018547
 20
38.44443853038903
 30
0.0
  0
VERTEX
  5
262
330
256
100
AcDbEntity
  8
Visible (ANSI)
100
AcDbVertex
100
AcDb2dVertex
 10
125.3944885733322
 20
38.44205777069177
 30
0.0
  0
VERTEX
  5
263
330
256
100
AcDbEntity
  8
Visible (ANSI)
100
AcDbVertex
100
AcDb2dVertex
 10
125.386584762771
 20
38.43967701099451
 30
0.0
  0
VERTEX
  5
264
330
256
100
AcDbEntity
  8
Visible (ANSI)
100
AcDbVertex
100
AcDb2dVertex
 10
125.3791221145801
 20
38.43729623956405
 30
0.0
  0
VERTEX
  5
265
330
256
100
AcDbEntity
  8
Visible (ANSI)
100
AcDbVertex
100
AcDb2dVertex
 10
125.3721325782572
 20
38.43491547986679
 30
0.0
  0
VERTEX
  5
266
330
256
100
AcDbEntity
  8
Visible (ANSI)
100
AcDbVertex
100
AcDb2dVertex
 10
125.3656460910563
 20
38.43253470843633
 30
0.0
  0
VERTEX
  5
267
330
256
100
AcDbEntity
  8
Visible (ANSI)
100
AcDbVertex
100
AcDb2dVertex
 10
125.3596904254567
 20
38.43015394873907
 30
0.0
  0
VERTEX
  5
268
330
256
100
AcDbEntity
  8
Visible (ANSI)
100
AcDbVertex
100
AcDb2dVertex
 10
125.3542910776971
 20
38.42777317730862
 30
0.0
  0
VERTEX
  5
269
330
256
100
AcDbEntity
  8
Visible (ANSI)
100
AcDbVertex
100
AcDb2dVertex
 10
125.3494711856435
 20
38.42539241761135
 30
0.0
  0
VERTEX
  5
26A
330
256
100
AcDbEntity
  8
Visible (ANSI)
100
AcDbVertex
100
AcDb2dVertex
 10
125.3452513762578
 20
38.42301165791409
 30
0.0
  0
VERTEX
  5
26B
330
256
100
AcDbEntity
  8
Visible (ANSI)
100
AcDbVertex
100
AcDb2dVertex
 10
125.3416497186644
 20
38.42063088648364
 30
0.0
  0
VERTEX
  5
26C
330
256
100
AcDbEntity
  8
Visible (ANSI)
100
AcDbVertex
100
AcDb2dVertex
 10
125.3386816420186
 20
38.41825012678638
 30
0.0
  0
VERTEX
  5
26D
330
256
100
AcDbEntity
  8
Visible (ANSI)
100
AcDbVertex
100
AcDb2dVertex
 10
125.3363598533734
 20
38.41586935535591
 30
0.0
  0
VERTEX
  5
26E
330
256
100
AcDbEntity
  8
Visible (ANSI)
100
AcDbVertex
100
AcDb2dVertex
 10
125.3346942907475
 20
38.41348859565865
 30
0.0
  0
VERTEX
  5
26F
330
256
100
AcDbEntity
  8
Visible (ANSI)
100
AcDbVertex
100
AcDb2dVertex
 10
125.333692087925
 20
38.41110783596139
 30
0.0
  0
VERTEX
  5
270
330
256
100
AcDbEntity
  8
Visible (ANSI)
100
AcDbVertex
100
AcDb2dVertex
 10
125.3333575509896
 20
38.40872706453093
 30
0.0
  0
SEQEND
  5
259
330
256
100
AcDbEntity
  8
Visible (ANSI)
  0
LINE
  5
271
330
6C
100
AcDbEntity
  8
Visible (ANSI)
100
AcDbLine
 10
126.2083575491123
 20
38.46586541452591
 30
0.0
 11
125.4896075491123
 21
38.46586541452591
 31
0.0
  0
POLYLINE
  5
272
330
6C
100
AcDbEntity
  8
Visible (ANSI)
100
AcDb2dPolyline
 66
     1
 10
0.0
 20
0.0
 30
0.0
 70
   128
  0
VERTEX
  5
273
330
272
100
AcDbEntity
  8
Visible (ANSI)
100
AcDbVertex
100
AcDb2dVertex
 10
125.4583575491123
 20
38.40872706453093
 30
0.0
  0
VERTEX
  5
274
330
272
100
AcDbEntity
  8
Visible (ANSI)
100
AcDbVertex
100
AcDb2dVertex
 10
125.4584244577586
 20
38.41110783596139
 30
0.0
  0
VERTEX
  5
276
330
272
100
AcDbEntity
  8
Visible (ANSI)
100
AcDbVertex
100
AcDb2dVertex
 10
125.4586248971968
 20
38.41348859565865
 30
0.0
  0
VERTEX
  5
277
330
272
100
AcDbEntity
  8
Visible (ANSI)
100
AcDbVertex
100
AcDb2dVertex
 10
125.4589580091215
 20
38.41586935535591
 30
0.0
  0
VERTEX
  5
278
330
272
100
AcDbEntity
  8
Visible (ANSI)
100
AcDbVertex
100
AcDb2dVertex
 10
125.4594223670614
 20
38.41825012678638
 30
0.0
  0
VERTEX
  5
279
330
272
100
AcDbEntity
  8
Visible (ANSI)
100
AcDbVertex
100
AcDb2dVertex
 10
125.4600159825372
 20
38.42063088648364
 30
0.0
  0
VERTEX
  5
27A
330
272
100
AcDbEntity
  8
Visible (ANSI)
100
AcDbVertex
100
AcDb2dVertex
 10
125.4607363137993
 20
38.42301165791409
 30
0.0
  0
VERTEX
  5
27B
330
272
100
AcDbEntity
  8
Visible (ANSI)
100
AcDbVertex
100
AcDb2dVertex
 10
125.4615802761164
 20
38.42539241761135
 30
0.0
  0
VERTEX
  5
27C
330
272
100
AcDbEntity
  8
Visible (ANSI)
100
AcDbVertex
100
AcDb2dVertex
 10
125.4625442551138
 20
38.42777317730862
 30
0.0
  0
VERTEX
  5
27D
330
272
100
AcDbEntity
  8
Visible (ANSI)
100
AcDbVertex
100
AcDb2dVertex
 10
125.463624123639
 20
38.43015394873907
 30
0.0
  0
VERTEX
  5
27E
330
272
100
AcDbEntity
  8
Visible (ANSI)
100
AcDbVertex
100
AcDb2dVertex
 10
125.464815256979
 20
38.43253470843633
 30
0.0
  0
VERTEX
  5
27F
330
272
100
AcDbEntity
  8
Visible (ANSI)
100
AcDbVertex
100
AcDb2dVertex
 10
125.4661125548591
 20
38.43491547986679
 30
0.0
  0
VERTEX
  5
280
330
272
100
AcDbEntity
  8
Visible (ANSI)
100
AcDbVertex
100
AcDb2dVertex
 10
125.4675104619771
 20
38.43729623956405
 30
0.0
  0
VERTEX
  5
281
330
272
100
AcDbEntity
  8
Visible (ANSI)
100
AcDbVertex
100
AcDb2dVertex
 10
125.4690029922019
 20
38.43967701099451
 30
0.0
  0
VERTEX
  5
282
330
272
100
AcDbEntity
  8
Visible (ANSI)
100
AcDbVertex
100
AcDb2dVertex
 10
125.4705837546074
 20
38.44205777069177
 30
0.0
  0
VERTEX
  5
283
330
272
100
AcDbEntity
  8
Visible (ANSI)
100
AcDbVertex
100
AcDb2dVertex
 10
125.4722459798719
 20
38.44443853038903
 30
0.0
  0
VERTEX
  5
284
330
272
100
AcDbEntity
  8
Visible (ANSI)
100
AcDbVertex
100
AcDb2dVertex
 10
125.4739825488776
 20
38.44681930181949
 30
0.0
  0
VERTEX
  5
285
330
272
100
AcDbEntity
  8
Visible (ANSI)
100
AcDbVertex
100
AcDb2dVertex
 10
125.4757860279104
 20
38.44920006151675
 30
0.0
  0
VERTEX
  5
286
330
272
100
AcDbEntity
  8
Visible (ANSI)
100
AcDbVertex
100
AcDb2dVertex
 10
125.477648692126
 20
38.45158082121402
 30
0.0
  0
VERTEX
  5
287
330
272
100
AcDbEntity
  8
Visible (ANSI)
100
AcDbVertex
100
AcDb2dVertex
 10
125.4795625658835
 20
38.45396158091128
 30
0.0
  0
VERTEX
  5
288
330
272
100
AcDbEntity
  8
Visible (ANSI)
100
AcDbVertex
100
AcDb2dVertex
 10
125.481519453544
 20
38.45634236407493
 30
0.0
  0
VERTEX
  5
289
330
272
100
AcDbEntity
  8
Visible (ANSI)
100
AcDbVertex
100
AcDb2dVertex
 10
125.4835109761378
 20
38.45872312377219
 30
0.0
  0
VERTEX
  5
28A
330
272
100
AcDbEntity
  8
Visible (ANSI)
100
AcDbVertex
100
AcDb2dVertex
 10
125.4855286050966
 20
38.46110388346945
 30
0.0
  0
VERTEX
  5
28B
330
272
100
AcDbEntity
  8
Visible (ANSI)
100
AcDbVertex
100
AcDb2dVertex
 10
125.4875637018537
 20
38.46348464316671
 30
0.0
  0
VERTEX
  5
28C
330
272
100
AcDbEntity
  8
Visible (ANSI)
100
AcDbVertex
100
AcDb2dVertex
 10
125.489607548643
 20
38.46586540286397
 30
0.0
  0
SEQEND
  5
275
330
272
100
AcDbEntity
  8
Visible (ANSI)
  0
POLYLINE
  5
28D
330
6C
100
AcDbEntity
  8
Visible (ANSI)
100
AcDb2dPolyline
 66
     1
 10
0.0
 20
0.0
 30
0.0
 70
   128
  0
VERTEX
  5
28E
330
28D
100
AcDbEntity
  8
Visible (ANSI)
100
AcDbVertex
100
AcDb2dVertex
 10
125.4583575491123
 20
82.09622850865292
 30
0.0
  0
VERTEX
  5
28F
330
28D
100
AcDbEntity
  8
Visible (ANSI)
100
AcDbVertex
100
AcDb2dVertex
 10
125.4584244577586
 20
82.09384657563587
 30
0.0
  0
VERTEX
  5
291
330
28D
100
AcDbEntity
  8
Visible (ANSI)
100
AcDbVertex
100
AcDb2dVertex
 10
125.4586248971968
 20
82.09146464261882
 30
0.0
  0
VERTEX
  5
292
330
28D
100
AcDbEntity
  8
Visible (ANSI)
100
AcDbVertex
100
AcDb2dVertex
 10
125.4589580091215
 20
82.08908571330043
 30
0.0
  0
VERTEX
  5
293
330
28D
100
AcDbEntity
  8
Visible (ANSI)
100
AcDbVertex
100
AcDb2dVertex
 10
125.4594223670614
 20
82.08670378028337
 30
0.0
  0
VERTEX
  5
294
330
28D
100
AcDbEntity
  8
Visible (ANSI)
100
AcDbVertex
100
AcDb2dVertex
 10
125.4600159825372
 20
82.08432184726634
 30
0.0
  0
VERTEX
  5
295
330
28D
100
AcDbEntity
  8
Visible (ANSI)
100
AcDbVertex
100
AcDb2dVertex
 10
125.4607363137993
 20
82.08194291794793
 30
0.0
  0
VERTEX
  5
296
330
28D
100
AcDbEntity
  8
Visible (ANSI)
100
AcDbVertex
100
AcDb2dVertex
 10
125.4615802761164
 20
82.0795609849309
 30
0.0
  0
VERTEX
  5
297
330
28D
100
AcDbEntity
  8
Visible (ANSI)
100
AcDbVertex
100
AcDb2dVertex
 10
125.4625442551138
 20
82.07718205561249
 30
0.0
  0
VERTEX
  5
298
330
28D
100
AcDbEntity
  8
Visible (ANSI)
100
AcDbVertex
100
AcDb2dVertex
 10
125.463624123639
 20
82.07480012259544
 30
0.0
  0
VERTEX
  5
299
330
28D
100
AcDbEntity
  8
Visible (ANSI)
100
AcDbVertex
100
AcDb2dVertex
 10
125.464815256979
 20
82.07241818957841
 30
0.0
  0
VERTEX
  5
29A
330
28D
100
AcDbEntity
  8
Visible (ANSI)
100
AcDbVertex
100
AcDb2dVertex
 10
125.4661125548591
 20
82.07003926026002
 30
0.0
  0
VERTEX
  5
29B
330
28D
100
AcDbEntity
  8
Visible (ANSI)
100
AcDbVertex
100
AcDb2dVertex
 10
125.4675104619771
 20
82.06765732724297
 30
0.0
  0
VERTEX
  5
29C
330
28D
100
AcDbEntity
  8
Visible (ANSI)
100
AcDbVertex
100
AcDb2dVertex
 10
125.4690029922019
 20
82.06527839792457
 30
0.0
  0
VERTEX
  5
29D
330
28D
100
AcDbEntity
  8
Visible (ANSI)
100
AcDbVertex
100
AcDb2dVertex
 10
125.4705837546074
 20
82.06289646490754
 30
0.0
  0
VERTEX
  5
29E
330
28D
100
AcDbEntity
  8
Visible (ANSI)
100
AcDbVertex
100
AcDb2dVertex
 10
125.4722459798719
 20
82.06051453189049
 30
0.0
  0
VERTEX
  5
29F
330
28D
100
AcDbEntity
  8
Visible (ANSI)
100
AcDbVertex
100
AcDb2dVertex
 10
125.4739825488776
 20
82.0581356025721
 30
0.0
  0
VERTEX
  5
2A0
330
28D
100
AcDbEntity
  8
Visible (ANSI)
100
AcDbVertex
100
AcDb2dVertex
 10
125.4757860279104
 20
82.05575366955503
 30
0.0
  0
VERTEX
  5
2A1
330
28D
100
AcDbEntity
  8
Visible (ANSI)
100
AcDbVertex
100
AcDb2dVertex
 10
125.477648692126
 20
82.05337474023663
 30
0.0
  0
VERTEX
  5
2A2
330
28D
100
AcDbEntity
  8
Visible (ANSI)
100
AcDbVertex
100
AcDb2dVertex
 10
125.4795625658835
 20
82.0509928072196
 30
0.0
  0
VERTEX
  5
2A3
330
28D
100
AcDbEntity
  8
Visible (ANSI)
100
AcDbVertex
100
AcDb2dVertex
 10
125.481519453544
 20
82.04861087420255
 30
0.0
  0
VERTEX
  5
2A4
330
28D
100
AcDbEntity
  8
Visible (ANSI)
100
AcDbVertex
100
AcDb2dVertex
 10
125.4835109761378
 20
82.04623194488416
 30
0.0
  0
VERTEX
  5
2A5
330
28D
100
AcDbEntity
  8
Visible (ANSI)
100
AcDbVertex
100
AcDb2dVertex
 10
125.4855286050966
 20
82.04385001186709
 30
0.0
  0
VERTEX
  5
2A6
330
28D
100
AcDbEntity
  8
Visible (ANSI)
100
AcDbVertex
100
AcDb2dVertex
 10
125.4875637018537
 20
82.04146807885006
 30
0.0
  0
VERTEX
  5
2A7
330
28D
100
AcDbEntity
  8
Visible (ANSI)
100
AcDbVertex
100
AcDb2dVertex
 10
125.489607548643
 20
82.03908914953165
 30
0.0
  0
SEQEND
  5
290
330
28D
100
AcDbEntity
  8
Visible (ANSI)
  0
LINE
  5
2A8
330
6C
100
AcDbEntity
  8
Visible (ANSI)
100
AcDbLine
 10
125.4583575491123
 20
82.09622706687758
 30
0.0
 11
125.4532321472389
 21
82.09622706687756
 31
0.0
  0
LINE
  5
2A9
330
6C
100
AcDbEntity
  8
Visible (ANSI)
100
AcDbLine
 10
125.4532321472389
 20
82.09622706687756
 30
0.0
 11
125.3333575491123
 21
82.09622706687758
 31
0.0
  0
LINE
  5
2AA
330
6C
100
AcDbEntity
  8
Visible (ANSI)
100
AcDbLine
 10
125.4896075491123
 20
82.03908871922925
 30
0.0
 11
126.2083575491123
 21
82.03908871922925
 31
0.0
  0
POLYLINE
  5
2AB
330
6C
100
AcDbEntity
  8
Visible (ANSI)
100
AcDb2dPolyline
 66
     1
 10
0.0
 20
0.0
 30
0.0
 70
   128
  0
VERTEX
  5
2AC
330
2AB
100
AcDbEntity
  8
Visible (ANSI)
100
AcDbVertex
100
AcDb2dVertex
 10
125.4896075486429
 20
82.25247790791318
 30
0.0
  0
VERTEX
  5
2AD
330
2AB
100
AcDbEntity
  8
Visible (ANSI)
100
AcDbVertex
100
AcDb2dVertex
 10
125.4793883102965
 20
82.25214149366614
 30
0.0
  0
VERTEX
  5
2AF
330
2AB
100
AcDbEntity
  8
Visible (ANSI)
100
AcDbVertex
100
AcDb2dVertex
 10
125.4692128316444
 20
82.2511412620209
 30
0.0
  0
VERTEX
  5
2B0
330
2AB
100
AcDbEntity
  8
Visible (ANSI)
100
AcDbVertex
100
AcDb2dVertex
 10
125.4591246863002
 20
82.24947420927884
 30
0.0
  0
VERTEX
  5
2B1
330
2AB
100
AcDbEntity
  8
Visible (ANSI)
100
AcDbVertex
100
AcDb2dVertex
 10
125.4491670731481
 20
82.24715235023449
 30
0.0
  0
VERTEX
  5
2B2
330
2AB
100
AcDbEntity
  8
Visible (ANSI)
100
AcDbVertex
100
AcDb2dVertex
 10
125.4393826333788
 20
82.24418469598374
 30
0.0
  0
VERTEX
  5
2B3
330
2AB
100
AcDbEntity
  8
Visible (ANSI)
100
AcDbVertex
100
AcDb2dVertex
 10
125.429813263125
 20
82.24058326132114
 30
0.0
  0
VERTEX
  5
2B4
330
2AB
100
AcDbEntity
  8
Visible (ANSI)
100
AcDbVertex
100
AcDb2dVertex
 10
125.4204999405799
 20
82.2363630647399
 30
0.0
  0
VERTEX
  5
2B5
330
2AB
100
AcDbEntity
  8
Visible (ANSI)
100
AcDbVertex
100
AcDb2dVertex
 10
125.4114825498163
 20
82.23154212843176
 30
0.0
  0
VERTEX
  5
2B6
330
2AB
100
AcDbEntity
  8
Visible (ANSI)
100
AcDbVertex
100
AcDb2dVertex
 10
125.4027997018546
 20
82.22614448198582
 30
0.0
  0
VERTEX
  5
2B7
330
2AB
100
AcDbEntity
  8
Visible (ANSI)
100
AcDbVertex
100
AcDb2dVertex
 10
125.3944885733321
 20
82.2201881475939
 30
0.0
  0
VERTEX
  5
2B8
330
2AB
100
AcDbEntity
  8
Visible (ANSI)
100
AcDbVertex
100
AcDb2dVertex
 10
125.386584762771
 20
82.21370316224236
 30
0.0
  0
VERTEX
  5
2B9
330
2AB
100
AcDbEntity
  8
Visible (ANSI)
100
AcDbVertex
100
AcDb2dVertex
 10
125.3791221145801
 20
82.20671355552022
 30
0.0
  0
VERTEX
  5
2BA
330
2AB
100
AcDbEntity
  8
Visible (ANSI)
100
AcDbVertex
100
AcDb2dVertex
 10
125.3721325782572
 20
82.19924936441385
 30
0.0
  0
VERTEX
  5
2BB
330
2AB
100
AcDbEntity
  8
Visible (ANSI)
100
AcDbVertex
100
AcDb2dVertex
 10
125.3656460910563
 20
82.1913466333069
 30
0.0
  0
VERTEX
  5
2BC
330
2AB
100
AcDbEntity
  8
Visible (ANSI)
100
AcDbVertex
100
AcDb2dVertex
 10
125.3596904254566
 20
82.18303539918563
 30
0.0
  0
VERTEX
  5
2BD
330
2AB
100
AcDbEntity
  8
Visible (ANSI)
100
AcDbVertex
100
AcDb2dVertex
 10
125.354291077697
 20
82.17435170643373
 30
0.0
  0
VERTEX
  5
2BE
330
2AB
100
AcDbEntity
  8
Visible (ANSI)
100
AcDbVertex
100
AcDb2dVertex
 10
125.3494711856435
 20
82.16533460313341
 30
0.0
  0
VERTEX
  5
2BF
330
2AB
100
AcDbEntity
  8
Visible (ANSI)
100
AcDbVertex
100
AcDb2dVertex
 10
125.3452513762578
 20
82.15602013366828
 30
0.0
  0
VERTEX
  5
2C0
330
2AB
100
AcDbEntity
  8
Visible (ANSI)
100
AcDbVertex
100
AcDb2dVertex
 10
125.3416497186644
 20
82.14645335351789
 30
0.0
  0
VERTEX
  5
2C1
330
2AB
100
AcDbEntity
  8
Visible (ANSI)
100
AcDbVertex
100
AcDb2dVertex
 10
125.3386816420186
 20
82.13666730336717
 30
0.0
  0
VERTEX
  5
2C2
330
2AB
100
AcDbEntity
  8
Visible (ANSI)
100
AcDbVertex
100
AcDb2dVertex
 10
125.3363598533734
 20
82.1267100423943
 30
0.0
  0
VERTEX
  5
2C3
330
2AB
100
AcDbEntity
  8
Visible (ANSI)
100
AcDbVertex
100
AcDb2dVertex
 10
125.3346942907475
 20
82.11662061868151
 30
0.0
  0
VERTEX
  5
2C4
330
2AB
100
AcDbEntity
  8
Visible (ANSI)
100
AcDbVertex
100
AcDb2dVertex
 10
125.333692087925
 20
82.10644709140698
 30
0.0
  0
VERTEX
  5
2C5
330
2AB
100
AcDbEntity
  8
Visible (ANSI)
100
AcDbVertex
100
AcDb2dVertex
 10
125.3333575509896
 20
82.09622850865292
 30
0.0
  0
SEQEND
  5
2AE
330
2AB
100
AcDbEntity
  8
Visible (ANSI)
  0
LINE
  5
2C6
330
6C
100
AcDbEntity
  8
Visible (ANSI)
100
AcDbLine
 10
125.4896075491123
 20
82.12747706687755
 30
0.0
 11
126.2083575491123
 21
82.1274770668775
 31
0.0
  0
LINE
  5
2C7
330
6C
100
AcDbEntity
  8
Visible (ANSI)
100
AcDbLine
 10
126.2083575491123
 20
82.25247706687751
 30
0.0
 11
125.4896075491123
 21
82.25247706687754
 31
0.0
  0
LINE
  5
2C8
330
6C
100
AcDbEntity
  8
Visible (ANSI)
100
AcDbLine
 10
125.4896075491123
 20
82.12747706687755
 30
0.0
 11
125.4896075491123
 21
82.25247706687754
 31
0.0
  0
LINE
  5
2C9
330
6C
100
AcDbEntity
  8
Visible (ANSI)
100
AcDbLine
 10
126.2083575491123
 20
82.1274770668775
 30
0.0
 11
126.2083575491123
 21
82.25247706687751
 31
0.0
  0
POLYLINE
  5
2CA
330
6C
100
AcDbEntity
  8
Visible (ANSI)
100
AcDb2dPolyline
 66
     1
 10
0.0
 20
0.0
 30
0.0
 70
   128
  0
VERTEX
  5
2CB
330
2CA
100
AcDbEntity
  8
Visible (ANSI)
100
AcDbVertex
100
AcDb2dVertex
 10
125.4583575491123
 20
82.09622850865292
 30
0.0
  0
VERTEX
  5
2CC
330
2CA
100
AcDbEntity
  8
Visible (ANSI)
100
AcDbVertex
100
AcDb2dVertex
 10
125.4584244577586
 20
82.09827102372427
 30
0.0
  0
VERTEX
  5
2CE
330
2CA
100
AcDbEntity
  8
Visible (ANSI)
100
AcDbVertex
100
AcDb2dVertex
 10
125.4586248971968
 20
82.10030452769972
 30
0.0
  0
VERTEX
  5
2CF
330
2CA
100
AcDbEntity
  8
Visible (ANSI)
100
AcDbVertex
100
AcDb2dVertex
 10
125.4589580091215
 20
82.102323013182
 30
0.0
  0
VERTEX
  5
2D0
330
2CA
100
AcDbEntity
  8
Visible (ANSI)
100
AcDbVertex
100
AcDb2dVertex
 10
125.4594223670614
 20
82.10431446537658
 30
0.0
  0
VERTEX
  5
2D1
330
2CA
100
AcDbEntity
  8
Visible (ANSI)
100
AcDbVertex
100
AcDb2dVertex
 10
125.4600159825372
 20
82.10627287688618
 30
0.0
  0
VERTEX
  5
2D2
330
2CA
100
AcDbEntity
  8
Visible (ANSI)
100
AcDbVertex
100
AcDb2dVertex
 10
125.4607363137993
 20
82.10818623291626
 30
0.0
  0
VERTEX
  5
2D3
330
2CA
100
AcDbEntity
  8
Visible (ANSI)
100
AcDbVertex
100
AcDb2dVertex
 10
125.4615802761164
 20
82.11004852606956
 30
0.0
  0
VERTEX
  5
2D4
330
2CA
100
AcDbEntity
  8
Visible (ANSI)
100
AcDbVertex
100
AcDb2dVertex
 10
125.4625442551138
 20
82.11185074525017
 30
0.0
  0
VERTEX
  5
2D5
330
2CA
100
AcDbEntity
  8
Visible (ANSI)
100
AcDbVertex
100
AcDb2dVertex
 10
125.463624123639
 20
82.11358988675945
 30
0.0
  0
VERTEX
  5
2D6
330
2CA
100
AcDbEntity
  8
Visible (ANSI)
100
AcDbVertex
100
AcDb2dVertex
 10
125.4648152569789
 20
82.11525093210424
 30
0.0
  0
VERTEX
  5
2D7
330
2CA
100
AcDbEntity
  8
Visible (ANSI)
100
AcDbVertex
100
AcDb2dVertex
 10
125.4661125548591
 20
82.11683087758592
 30
0.0
  0
VERTEX
  5
2D8
330
2CA
100
AcDbEntity
  8
Visible (ANSI)
100
AcDbVertex
100
AcDb2dVertex
 10
125.467510461977
 20
82.11832371580717
 30
0.0
  0
VERTEX
  5
2D9
330
2CA
100
AcDbEntity
  8
Visible (ANSI)
100
AcDbVertex
100
AcDb2dVertex
 10
125.4690029922019
 20
82.11972343937082
 30
0.0
  0
VERTEX
  5
2DA
330
2CA
100
AcDbEntity
  8
Visible (ANSI)
100
AcDbVertex
100
AcDb2dVertex
 10
125.4705837546074
 20
82.12101803348222
 30
0.0
  0
VERTEX
  5
2DB
330
2CA
100
AcDbEntity
  8
Visible (ANSI)
100
AcDbVertex
100
AcDb2dVertex
 10
125.4722459798719
 20
82.12221050184004
 30
0.0
  0
VERTEX
  5
2DC
330
2CA
100
AcDbEntity
  8
Visible (ANSI)
100
AcDbVertex
100
AcDb2dVertex
 10
125.4739825488776
 20
82.12329183334842
 30
0.0
  0
VERTEX
  5
2DD
330
2CA
100
AcDbEntity
  8
Visible (ANSI)
100
AcDbVertex
100
AcDb2dVertex
 10
125.4757860279103
 20
82.12425301691141
 30
0.0
  0
VERTEX
  5
2DE
330
2CA
100
AcDbEntity
  8
Visible (ANSI)
100
AcDbVertex
100
AcDb2dVertex
 10
125.477648692126
 20
82.12509705622764
 30
0.0
  0
VERTEX
  5
2DF
330
2CA
100
AcDbEntity
  8
Visible (ANSI)
100
AcDbVertex
100
AcDb2dVertex
 10
125.4795625658834
 20
82.12581794389988
 30
0.0
  0
VERTEX
  5
2E0
330
2CA
100
AcDbEntity
  8
Visible (ANSI)
100
AcDbVertex
100
AcDb2dVertex
 10
125.4815194535439
 20
82.12641267622949
 30
0.0
  0
VERTEX
  5
2E1
330
2CA
100
AcDbEntity
  8
Visible (ANSI)
100
AcDbVertex
100
AcDb2dVertex
 10
125.4835109761377
 20
82.12687524581918
 30
0.0
  0
VERTEX
  5
2E2
330
2CA
100
AcDbEntity
  8
Visible (ANSI)
100
AcDbVertex
100
AcDb2dVertex
 10
125.4855286050966
 20
82.12720865636759
 30
0.0
  0
VERTEX
  5
2E3
330
2CA
100
AcDbEntity
  8
Visible (ANSI)
100
AcDbVertex
100
AcDb2dVertex
 10
125.4875637018536
 20
82.12740990417609
 30
0.0
  0
VERTEX
  5
2E4
330
2CA
100
AcDbEntity
  8
Visible (ANSI)
100
AcDbVertex
100
AcDb2dVertex
 10
125.4896075486429
 20
82.12747598554605
 30
0.0
  0
SEQEND
  5
2CD
330
2CA
100
AcDbEntity
  8
Visible (ANSI)
  0
LINE
  5
2E5
330
6C
100
AcDbEntity
  8
Visible (ANSI)
100
AcDbLine
 10
125.3333575491123
 20
38.40872706687759
 30
0.0
 11
125.3333575491123
 21
82.09622706687758
 31
0.0
  0
LINE
  5
2E6
330
6C
100
AcDbEntity
  8
Visible (ANSI)
100
AcDbLine
 10
126.2083575491123
 20
82.03908871922925
 30
0.0
 11
126.2083575491123
 21
38.46586541452591
 31
0.0
  0
DIMENSION
  5
2E7
330
6C
100
AcDbEntity
  8
Dimension (ANSI)
100
AcDbDimension
280
     0
  2
*D4
 10
20.53883465405944
 20
82.25247706687758
 30
0.0
 11
20.53883465405943
 21
60.25247706687757
 31
0.0
 70
   160
  1
<>
 42
44.00000000000001
 73
     0
 74
     0
 75
     0
  3
Default (ANSI)
100
AcDbAlignedDimension
 13
40.4600944965791
 23
38.25247706687758
 33
0.0
 14
40.46009449657911
 24
82.25247706687758
 34
0.0
 50
90.0
100
AcDbRotatedDimension
1001
ACAD
1000
DSTYLE
1002
{
1070
   289
1070
     1
1070
   271
1070
     2
1070
   272
1070
     2
1070
    48
1040
0.0
1070
    47
1040
0.0
1002
}
  0
DIMENSION
  5
3D4
330
6C
100
AcDbEntity
  8
Dimension (ANSI)
100
AcDbDimension
280
     0
  2
*D5
 10
35.41579229380224
 20
60.25247706687757
 30
0.0
 11
35.41579229380222
 21
49.68997706687758
 31
0.0
 70
   160
  1
<>
 42
21.12499999999999
 73
     0
 74
     0
 75
     0
  3
Default (ANSI)
100
AcDbAlignedDimension
 13
41.12170614893078
 23
39.12747706687758
 33
0.0
 14
41.12170614893078
 24
60.25247706687757
 34
0.0
 50
90.0
100
AcDbRotatedDimension
1001
ACAD
1000
DSTYLE
1002
{
1070
   289
1070
     1
1070
   271
1070
     2
1070
   272
1070
     3
1070
    48
1040
0.0
1070
    47
1040
0.0
1002
}
  0
DIMENSION
  5
4C4
330
6C
100
AcDbEntity
  8
Dimension (ANSI)
100
AcDbDimension
280
     0
  2
*D6
 10
28.99572189696229
 20
81.37747706687759
 30
0.0
 11
28.99572189696228
 21
60.25247706687757
 31
0.0
 70
   160
  1
<>
 42
42.25
 73
     0
 74
     0
 75
     0
  3
Default (ANSI)
100
AcDbAlignedDimension
 13
41.12170614893078
 23
39.12747706687758
 33
0.0
 14
41.12170614893078
 24
81.37747706687758
 34
0.0
 50
90.0
100
AcDbRotatedDimension
1001
ACAD
1000
DSTYLE
1002
{
1070
   289
1070
     1
1070
   271
1070
     2
1070
   272
1070
     3
1070
    48
1040
0.0
1070
    47
1040
0.0
1002
}
  0
DIMENSION
  5
5AE
330
6C
100
AcDbEntity
  8
Dimension (ANSI)
100
AcDbDimension
280
     0
  2
*D7
 10
84.24670614893075
 20
94.16507297119775
 30
0.0
 11
62.24670614893076
 21
94.16507297119775
 31
0.0
 70
   160
  1
<>
 42
43.99999999999997
 73
     0
 74
     0
 75
     0
  3
Default (ANSI)
100
AcDbAlignedDimension
 13
40.24670614893078
 23
82.03908871922925
 33
0.0
 14
84.24670614893075
 24
82.03908871922925
 34
0.0
100
AcDbRotatedDimension
1001
ACAD
1000
DSTYLE
1002
{
1070
   289
1070
     1
1070
    73
1070
     0
1070
    74
1070
     0
1070
   271
1070
     2
1070
   272
1070
     2
1070
    48
1040
0.0
1070
    47
1040
0.0
1002
}
  0
DIMENSION
  5
698
330
6C
100
AcDbEntity
  8
Dimension (ANSI)
100
AcDbDimension
280
     0
  2
*D8
 10
83.37170614893079
 20
90.23849695651056
 30
0.0
 11
62.24670614893078
 21
90.23849695651056
 31
0.0
 70
   160
  1
<>
 42
42.25
 73
     0
 74
     0
 75
     0
  3
Default (ANSI)
100
AcDbAlignedDimension
 13
41.12170614893078
 23
81.37747706687758
 33
0.0
 14
83.37170614893079
 24
81.37747706687758
 34
0.0
 50
180.0
100
AcDbRotatedDimension
1001
ACAD
1000
DSTYLE
1002
{
1070
   289
1070
     1
1070
    73
1070
     0
1070
    74
1070
     0
1070
   271
1070
     2
1070
   272
1070
     3
1070
    48
1040
0.0
1070
    47
1040
0.0
1002
}
  0
DIMENSION
  5
782
330
6C
100
AcDbEntity
  8
Dimension (ANSI)
100
AcDbDimension
280
     0
  2
*D9
 10
62.24670614893078
 20
85.28266528001193
 30
0.0
 11
51.68420614893078
 21
85.28266528001193
 31
0.0
 70
   160
  1
<>
 42
21.125
 73
     0
 74
     0
 75
     0
  3
Default (ANSI)
100
AcDbAlignedDimension
 13
41.12170614893078
 23
81.37747706687758
 33
0.0
 14
62.24670614893078
 24
81.37747706687758
 34
0.0
 50
180.0
100
AcDbRotatedDimension
1001
ACAD
1000
DSTYLE
1002
{
1070
   289
1070
     1
1070
    73
1070
     0
1070
    74
1070
     0
1070
   271
1070
     2
1070
   272
1070
     3
1070
    48
1040
0.0
1070
    47
1040
0.0
1002
}
  0
DIMENSION
  5
86C
330
6C
100
AcDbEntity
  8
Dimension (ANSI)
100
AcDbDimension
280
     0
  2
*D10
 10
91.91722336490945
 20
39.12747706687759
 30
0.0
 11
91.99798237773022
 21
34.06282647460495
 31
0.0
 70
   160
  1
<>{ \PTYP.}
 42
0.8750000000000071
 73
     0
 74
     0
 75
     0
  3
Default (ANSI)
100
AcDbAlignedDimension
 13
84.03331780128246
 23
38.25247706687758
 33
0.0
 14
83.37170614893079
 24
39.12747706687759
 34
0.0
 50
90.0
100
AcDbRotatedDimension
1001
ACAD
1000
DSTYLE
1002
{
1070
   289
1070
     1
1070
   279
1070
     1
1070
   145
1040
-0.25
1070
   271
1070
     2
1070
   272
1070
     2
1070
    48
1040
0.0
1070
    47
1040
0.0
1002
}
  0
DIMENSION
  5
984
330
6C
100
AcDbEntity
  8
Dimension (ANSI)
100
AcDbDimension
280
     0
  2
*D11
 10
83.37170614893079
 20
35.01069360125948
 30
0.0
 11
78.50670112931858
 21
35.01069360125948
 31
0.0
 70
   160
  1
<>{\PTYP.}
 42
0.875
 73
     0
 74
     0
 75
     0
  3
Default (ANSI)
100
AcDbAlignedDimension
 13
84.24670614893079
 23
38.4658654145259
 33
0.0
 14
83.37170614893079
 24
39.12747706687759
 34
0.0
 50
180.0
100
AcDbRotatedDimension
1001
ACAD
1000
DSTYLE
1002
{
1070
   289
1070
     1
1070
    73
1070
     0
1070
    74
1070
     0
1070
   145
1040
-0.25
1070
   271
1070
     2
1070
   272
1070
     2
1070
    48
1040
0.0
1070
    47
1040
0.0
1002
}
  0
DIMENSION
  5
A82
330
6C
100
AcDbEntity
  8
Dimension (ANSI)
100
AcDbDimension
280
     0
  2
*D12
 10
126.2083575491123
 20
85.40208336609012
 30
0.0
 11
120.5702407092791
 21
85.40208336609012
 31
0.0
 70
   160
  1
<>
 42
0.8749999999999715
 73
     0
 74
     0
 75
     0
  3
Default (ANSI)
100
AcDbAlignedDimension
 13
125.3333575491123
 23
82.09622706687758
 33
0.0
 14
126.2083575491123
 24
82.25247706687751
 34
0.0
100
AcDbRotatedDimension
1001
ACAD
1000
DSTYLE
1002
{
1070
   289
1070
     1
1070
    73
1070
     0
1070
    74
1070
     0
1070
   271
1070
     2
1070
   272
1070
     2
1070
    48
1040
0.0
1070
    47
1040
0.0
1002
}
  0
ELLIPSE
  5
B6C
330
6C
100
AcDbEntity
  8
Visible (ANSI)
100
AcDbEllipse
 10
162.4093652570576
 20
52.46439488848309
 30
0.0
 11
-0.0965783276981949
 21
0.1677109756264705
 31
0.0
210
0.0
220
0.0
230
1.0
 40
0.5780931159158129
 41
0.0
 42
6.283185307179586
  0
ELLIPSE
  5
B6D
330
6C
100
AcDbEntity
  8
Visible (ANSI)
100
AcDbEllipse
 10
162.4701322460658
 20
52.49938827013713
 30
0.0
 11
-0.096578327698195
 21
0.1677109756264707
 31
0.0
210
0.0
220
0.0
230
0.9999999999999998
 40
0.578093115915813
 41
0.3187556839588481
 42
2.822836969630835
  0
ELLIPSE
  5
B6E
330
6C
100
AcDbEntity
  8
Visible (ANSI)
100
AcDbEllipse
 10
172.6789863994481
 20
58.42410795990848
 30
0.0
 11
-0.0965783276981949
 21
0.1677109756264705
 31
0.0
210
0.0
220
0.0
230
1.0
 40
0.5780931159158129
 41
0.0
 42
6.283185307179586
  0
ELLIPSE
  5
B6F
330
6C
100
AcDbEntity
  8
Visible (ANSI)
100
AcDbEllipse
 10
172.7397533884563
 20
58.45910134156252
 30
0.0
 11
-0.0965783276981919
 21
0.1677109756264652
 31
0.0
210
0.0
220
0.0
230
1.0
 40
0.5780931159158129
 41
0.3187556839588914
 42
2.822836969630835
  0
ELLIPSE
  5
B70
330
6C
100
AcDbEntity
  8
Visible (ANSI)
100
AcDbEllipse
 10
172.6789863994482
 20
46.55051338895315
 30
0.0
 11
-0.0965783276981949
 21
0.1677109756264705
 31
0.0
210
0.0
220
0.0
230
1.0
 40
0.5780931159158129
 41
0.0
 42
6.283185307179586
  0
ELLIPSE
  5
B71
330
6C
100
AcDbEntity
  8
Visible (ANSI)
100
AcDbEllipse
 10
172.7397533884564
 20
46.58550677060719
 30
0.0
 11
-0.096578327698195
 21
0.1677109756264707
 31
0.0
210
0.0
220
0.0
230
0.9999999999999998
 40
0.578093115915813
 41
0.3187556839588481
 42
2.822836969630835
  0
ELLIPSE
  5
B72
330
6C
100
AcDbEntity
  8
Visible (ANSI)
100
AcDbEllipse
 10
152.139744114667
 20
58.37827638801305
 30
0.0
 11
-0.0965783276981949
 21
0.1677109756264705
 31
0.0
210
0.0
220
0.0
230
1.0
 40
0.5780931159158129
 41
0.0
 42
6.283185307179586
  0
ELLIPSE
  5
B73
330
6C
100
AcDbEntity
  8
Visible (ANSI)
100
AcDbEllipse
 10
152.2005111036752
 20
58.41326976966708
 30
0.0
 11
-0.0965783276981949
 21
0.1677109756264705
 31
0.0
210
0.0
220
0.0
230
1.0
 40
0.5780931159158129
 41
0.3187556839588481
 42
2.822836969630835
  0
ELLIPSE
  5
B74
330
6C
100
AcDbEntity
  8
Visible (ANSI)
100
AcDbEllipse
 10
152.139744114667
 20
70.25187095896836
 30
0.0
 11
-0.0965783276981949
 21
0.1677109756264705
 31
0.0
210
0.0
220
0.0
230
1.0
 40
0.5780931159158129
 41
0.0
 42
6.283185307179586
  0
ELLIPSE
  5
B75
330
6C
100
AcDbEntity
  8
Visible (ANSI)
100
AcDbEllipse
 10
152.2005111036752
 20
70.2868643406224
 30
0.0
 11
-0.0965783276981947
 21
0.1677109756264702
 31
0.0
210
0.0
220
0.0
230
1.0
 40
0.5780931159158129
 41
0.3187556839588485
 42
2.822836969630857
  0
ELLIPSE
  5
B76
330
6C
100
AcDbEntity
  8
Visible (ANSI)
100
AcDbEllipse
 10
172.6789863994481
 20
70.29770253086379
 30
0.0
 11
-0.0965783276981949
 21
0.1677109756264705
 31
0.0
210
0.0
220
0.0
230
1.0
 40
0.5780931159158129
 41
0.0
 42
6.283185307179586
  0
ELLIPSE
  5
B77
330
6C
100
AcDbEntity
  8
Visible (ANSI)
100
AcDbEllipse
 10
172.7397533884563
 20
70.33269591251784
 30
0.0
 11
-0.0965783276981931
 21
0.1677109756264675
 31
0.0
210
0.0
220
0.0
230
0.9999999999999998
 40
0.5780931159158129
 41
0.3187556839588481
 42
2.822836969630857
  0
ELLIPSE
  5
B78
330
6C
100
AcDbEntity
  8
Visible (ANSI)
100
AcDbEllipse
 10
162.4093652570576
 20
76.21158403039373
 30
0.0
 11
-0.0965783276981949
 21
0.1677109756264705
 31
0.0
210
0.0
220
0.0
230
1.0
 40
0.5780931159158129
 41
0.0
 42
6.283185307179586
  0
ELLIPSE
  5
B79
330
6C
100
AcDbEntity
  8
Visible (ANSI)
100
AcDbEllipse
 10
162.4701322460658
 20
76.24657741204777
 30
0.0
 11
-0.096578327698194
 21
0.167710975626469
 31
0.0
210
0.0
220
0.0
230
0.9999999999999998
 40
0.5780931159158128
 41
0.3187556839588481
 42
2.822836969630857
  0
ELLIPSE
  5
B7A
330
6C
100
AcDbEntity
  8
Visible (ANSI)
100
AcDbEllipse
 10
152.139744114667
 20
82.12546552992369
 30
0.0
 11
-0.0965783276981949
 21
0.1677109756264705
 31
0.0
210
0.0
220
0.0
230
1.0
 40
0.5780931159158129
 41
0.0
 42
6.283185307179586
  0
ELLIPSE
  5
B7B
330
6C
100
AcDbEntity
  8
Visible (ANSI)
100
AcDbEllipse
 10
152.2005111036752
 20
82.16045891157774
 30
0.0
 11
-0.0965783276981947
 21
0.1677109756264702
 31
0.0
210
0.0
220
0.0
230
1.0
 40
0.5780931159158129
 41
0.3187556839588485
 42
2.822836969630857
  0
POLYLINE
  5
B7C
330
6C
100
AcDbEntity
  8
Visible (ANSI)
100
AcDb2dPolyline
 66
     1
 10
0.0
 20
0.0
 30
0.0
 70
   128
  0
VERTEX
  5
B7D
330
B7C
100
AcDbEntity
  8
Visible (ANSI)
100
AcDbVertex
100
AcDb2dVertex
 10
173.0283972880569
 20
45.9453177927917
 30
0.0
  0
VERTEX
  5
B7E
330
B7C
100
AcDbEntity
  8
Visible (ANSI)
100
AcDbVertex
100
AcDb2dVertex
 10
173.0274019752954
 20
45.94033439733755
 30
0.0
  0
VERTEX
  5
B80
330
B7C
100
AcDbEntity
  8
Visible (ANSI)
100
AcDbVertex
100
AcDb2dVertex
 10
173.0267312388988
 20
45.9355625115998
 30
0.0
  0
VERTEX
  5
B81
330
B7C
100
AcDbEntity
  8
Visible (ANSI)
100
AcDbVertex
100
AcDb2dVertex
 10
173.0263844457311
 20
45.93102457573352
 30
0.0
  0
VERTEX
  5
B82
330
B7C
100
AcDbEntity
  8
Visible (ANSI)
100
AcDbVertex
100
AcDb2dVertex
 10
173.026355207392
 20
45.92674455647818
 30
0.0
  0
VERTEX
  5
B83
330
B7C
100
AcDbEntity
  8
Visible (ANSI)
100
AcDbVertex
100
AcDb2dVertex
 10
173.0266401528596
 20
45.92274279635577
 30
0.0
  0
VERTEX
  5
B84
330
B7C
100
AcDbEntity
  8
Visible (ANSI)
100
AcDbVertex
100
AcDb2dVertex
 10
173.0272345649848
 20
45.91903845052994
 30
0.0
  0
VERTEX
  5
B85
330
B7C
100
AcDbEntity
  8
Visible (ANSI)
100
AcDbVertex
100
AcDb2dVertex
 10
173.0281280226895
 20
45.91565190716536
 30
0.0
  0
VERTEX
  5
B86
330
B7C
100
AcDbEntity
  8
Visible (ANSI)
100
AcDbVertex
100
AcDb2dVertex
 10
173.0293146623351
 20
45.91259884844415
 30
0.0
  0
VERTEX
  5
B87
330
B7C
100
AcDbEntity
  8
Visible (ANSI)
100
AcDbVertex
100
AcDb2dVertex
 10
173.0307815360031
 20
45.90989688186472
 30
0.0
  0
VERTEX
  5
B88
330
B7C
100
AcDbEntity
  8
Visible (ANSI)
100
AcDbVertex
100
AcDb2dVertex
 10
173.0325188557516
 20
45.90755958810682
 30
0.0
  0
VERTEX
  5
B89
330
B7C
100
AcDbEntity
  8
Visible (ANSI)
100
AcDbVertex
100
AcDb2dVertex
 10
173.0345156871492
 20
45.90559899073737
 30
0.0
  0
VERTEX
  5
B8A
330
B7C
100
AcDbEntity
  8
Visible (ANSI)
100
AcDbVertex
100
AcDb2dVertex
 10
173.0367556085847
 20
45.90402802104649
 30
0.0
  0
VERTEX
  5
B8B
330
B7C
100
AcDbEntity
  8
Visible (ANSI)
100
AcDbVertex
100
AcDb2dVertex
 10
173.0392269868954
 20
45.90285457738356
 30
0.0
  0
VERTEX
  5
B8C
330
B7C
100
AcDbEntity
  8
Visible (ANSI)
100
AcDbVertex
100
AcDb2dVertex
 10
173.0419113698717
 20
45.90208822067892
 30
0.0
  0
VERTEX
  5
B8D
330
B7C
100
AcDbEntity
  8
Visible (ANSI)
100
AcDbVertex
100
AcDb2dVertex
 10
173.0447937647365
 20
45.90173424861177
 30
0.0
  0
VERTEX
  5
B8E
330
B7C
100
AcDbEntity
  8
Visible (ANSI)
100
AcDbVertex
100
AcDb2dVertex
 10
173.0478583259758
 20
45.90179618593754
 30
0.0
  0
VERTEX
  5
B8F
330
B7C
100
AcDbEntity
  8
Visible (ANSI)
100
AcDbVertex
100
AcDb2dVertex
 10
173.0510840602794
 20
45.90227830445356
 30
0.0
  0
VERTEX
  5
B90
330
B7C
100
AcDbEntity
  8
Visible (ANSI)
100
AcDbVertex
100
AcDb2dVertex
 10
173.0544551178552
 20
45.90317971321327
 30
0.0
  0
VERTEX
  5
B91
330
B7C
100
AcDbEntity
  8
Visible (ANSI)
100
AcDbVertex
100
AcDb2dVertex
 10
173.0579491892117
 20
45.90450108536362
 30
0.0
  0
VERTEX
  5
B92
330
B7C
100
AcDbEntity
  8
Visible (ANSI)
100
AcDbVertex
100
AcDb2dVertex
 10
173.0615478135833
 20
45.90623877717343
 30
0.0
  0
VERTEX
  5
B93
330
B7C
100
AcDbEntity
  8
Visible (ANSI)
100
AcDbVertex
100
AcDb2dVertex
 10
173.0652320839611
 20
45.90838736237336
 30
0.0
  0
VERTEX
  5
B94
330
B7C
100
AcDbEntity
  8
Visible (ANSI)
100
AcDbVertex
100
AcDb2dVertex
 10
173.0689783505193
 20
45.91094217355832
 30
0.0
  0
VERTEX
  5
B95
330
B7C
100
AcDbEntity
  8
Visible (ANSI)
100
AcDbVertex
100
AcDb2dVertex
 10
173.0727670729348
 20
45.91389428535801
 30
0.0
  0
VERTEX
  5
B96
330
B7C
100
AcDbEntity
  8
Visible (ANSI)
100
AcDbVertex
100
AcDb2dVertex
 10
173.0765785287151
 20
45.91723307067939
 30
0.0
  0
SEQEND
  5
B7F
330
B7C
100
AcDbEntity
  8
Visible (ANSI)
  0
POLYLINE
  5
B97
330
6C
100
AcDbEntity
  8
Visible (ANSI)
100
AcDb2dPolyline
 66
     1
 10
0.0
 20
0.0
 30
0.0
 70
   128
  0
VERTEX
  5
B98
330
B97
100
AcDbEntity
  8
Visible (ANSI)
100
AcDbVertex
100
AcDb2dVertex
 10
151.8266083851763
 20
58.11813924776283
 30
0.0
  0
VERTEX
  5
B99
330
B97
100
AcDbEntity
  8
Visible (ANSI)
100
AcDbVertex
100
AcDb2dVertex
 10
151.8242920139829
 20
58.11953985350123
 30
0.0
  0
VERTEX
  5
B9B
330
B97
100
AcDbEntity
  8
Visible (ANSI)
100
AcDbVertex
100
AcDb2dVertex
 10
151.8220351975102
 20
58.12103948582063
 30
0.0
  0
VERTEX
  5
B9C
330
B97
100
AcDbEntity
  8
Visible (ANSI)
100
AcDbVertex
100
AcDb2dVertex
 10
151.8198397439037
 20
58.12263689097096
 30
0.0
  0
VERTEX
  5
B9D
330
B97
100
AcDbEntity
  8
Visible (ANSI)
100
AcDbVertex
100
AcDb2dVertex
 10
151.8177073843056
 20
58.1243307082084
 30
0.0
  0
VERTEX
  5
B9E
330
B97
100
AcDbEntity
  8
Visible (ANSI)
100
AcDbVertex
100
AcDb2dVertex
 10
151.8156397956712
 20
58.1261194796367
 30
0.0
  0
VERTEX
  5
B9F
330
B97
100
AcDbEntity
  8
Visible (ANSI)
100
AcDbVertex
100
AcDb2dVertex
 10
151.8136385722484
 20
58.12800163048639
 30
0.0
  0
VERTEX
  5
BA0
330
B97
100
AcDbEntity
  8
Visible (ANSI)
100
AcDbVertex
100
AcDb2dVertex
 10
151.8117052483942
 20
58.1299755020379
 30
0.0
  0
VERTEX
  5
BA1
330
B97
100
AcDbEntity
  8
Visible (ANSI)
100
AcDbVertex
100
AcDb2dVertex
 10
151.8098412786104
 20
58.13203932693555
 30
0.0
  0
VERTEX
  5
BA2
330
B97
100
AcDbEntity
  8
Visible (ANSI)
100
AcDbVertex
100
AcDb2dVertex
 10
151.8080480489517
 20
58.13419124564918
 30
0.0
  0
VERTEX
  5
BA3
330
B97
100
AcDbEntity
  8
Visible (ANSI)
100
AcDbVertex
100
AcDb2dVertex
 10
151.8063268542099
 20
58.1364292966328
 30
0.0
  0
VERTEX
  5
BA4
330
B97
100
AcDbEntity
  8
Visible (ANSI)
100
AcDbVertex
100
AcDb2dVertex
 10
151.8046789321376
 20
58.13875143933003
 30
0.0
  0
VERTEX
  5
BA5
330
B97
100
AcDbEntity
  8
Visible (ANSI)
100
AcDbVertex
100
AcDb2dVertex
 10
151.8031054292245
 20
58.14115553116872
 30
0.0
  0
VERTEX
  5
BA6
330
B97
100
AcDbEntity
  8
Visible (ANSI)
100
AcDbVertex
100
AcDb2dVertex
 10
151.8016074121053
 20
58.143639340725
 30
0.0
  0
VERTEX
  5
BA7
330
B97
100
AcDbEntity
  8
Visible (ANSI)
100
AcDbVertex
100
AcDb2dVertex
 10
151.8001858675596
 20
58.14620055431818
 30
0.0
  0
VERTEX
  5
BA8
330
B97
100
AcDbEntity
  8
Visible (ANSI)
100
AcDbVertex
100
AcDb2dVertex
 10
151.798841702512
 20
58.14883678260551
 30
0.0
  0
VERTEX
  5
BA9
330
B97
100
AcDbEntity
  8
Visible (ANSI)
100
AcDbVertex
100
AcDb2dVertex
 10
151.7975757440325
 20
58.15154554079775
 30
0.0
  0
VERTEX
  5
BAA
330
B97
100
AcDbEntity
  8
Visible (ANSI)
100
AcDbVertex
100
AcDb2dVertex
 10
151.7963887222237
 20
58.15432428167142
 30
0.0
  0
VERTEX
  5
BAB
330
B97
100
AcDbEntity
  8
Visible (ANSI)
100
AcDbVertex
100
AcDb2dVertex
 10
151.7952812987414
 20
58.1571703658285
 30
0.0
  0
VERTEX
  5
BAC
330
B97
100
AcDbEntity
  8
Visible (ANSI)
100
AcDbVertex
100
AcDb2dVertex
 10
151.7942540325707
 20
58.16008109474687
 30
0.0
  0
VERTEX
  5
BAD
330
B97
100
AcDbEntity
  8
Visible (ANSI)
100
AcDbVertex
100
AcDb2dVertex
 10
151.7933074142495
 20
58.16305369751423
 30
0.0
  0
VERTEX
  5
BAE
330
B97
100
AcDbEntity
  8
Visible (ANSI)
100
AcDbVertex
100
AcDb2dVertex
 10
151.7924418259409
 20
58.16608532761994
 30
0.0
  0
VERTEX
  5
BAF
330
B97
100
AcDbEntity
  8
Visible (ANSI)
100
AcDbVertex
100
AcDb2dVertex
 10
151.791657587065
 20
58.1691730892323
 30
0.0
  0
VERTEX
  5
BB0
330
B97
100
AcDbEntity
  8
Visible (ANSI)
100
AcDbVertex
100
AcDb2dVertex
 10
151.7909549086671
 20
58.17231401751599
 30
0.0
  0
VERTEX
  5
BB1
330
B97
100
AcDbEntity
  8
Visible (ANSI)
100
AcDbVertex
100
AcDb2dVertex
 10
151.7903339276415
 20
58.17550508515055
 30
0.0
  0
SEQEND
  5
B9A
330
B97
100
AcDbEntity
  8
Visible (ANSI)
  0
LINE
  5
BB2
330
6C
100
AcDbEntity
  8
Visible (ANSI)
100
AcDbLine
 10
152.1282371635905
 20
58.32053470426599
 30
0.0
 11
152.2434798536751
 21
58.38689855580428
 31
0.0
  0
LINE
  5
BB3
330
6C
100
AcDbEntity
  8
Visible (ANSI)
100
AcDbLine
 10
173.0765783197577
 20
45.94001384880502
 30
0.0
 11
173.0765783197577
 21
45.91723319127267
 31
0.0
  0
LINE
  5
BB4
330
6C
100
AcDbEntity
  8
Visible (ANSI)
100
AcDbLine
 10
173.0765783197577
 20
45.91723319127267
 30
0.0
 11
173.1395508135149
 21
45.95349663864296
 31
0.0
  0
LINE
  5
BB5
330
6C
100
AcDbEntity
  8
Visible (ANSI)
100
AcDbLine
 10
173.1784801022113
 20
45.97591452504981
 30
0.0
 11
173.425988506555
 21
46.11844513578336
 31
0.0
  0
LINE
  5
BB6
330
6C
100
AcDbEntity
  8
Visible (ANSI)
100
AcDbLine
 10
173.425988506555
 20
46.11890809073702
 30
0.0
 11
173.425988506555
 21
46.11844513578336
 31
0.0
  0
POLYLINE
  5
BB7
330
6C
100
AcDbEntity
  8
Visible (ANSI)
100
AcDb2dPolyline
 66
     1
 10
0.0
 20
0.0
 30
0.0
 70
   128
  0
VERTEX
  5
BB8
330
BB7
100
AcDbEntity
  8
Visible (ANSI)
100
AcDbVertex
100
AcDb2dVertex
 10
173.0283972880569
 20
70.50047424086409
 30
0.0
  0
VERTEX
  5
BB9
330
BB7
100
AcDbEntity
  8
Visible (ANSI)
100
AcDbVertex
100
AcDb2dVertex
 10
173.0335275385222
 20
70.49636843340152
 30
0.0
  0
VERTEX
  5
BBB
330
BB7
100
AcDbEntity
  8
Visible (ANSI)
100
AcDbVertex
100
AcDb2dVertex
 10
173.0389604622659
 20
70.49246215018529
 30
0.0
  0
VERTEX
  5
BBC
330
BB7
100
AcDbEntity
  8
Visible (ANSI)
100
AcDbVertex
100
AcDb2dVertex
 10
173.044674983271
 20
70.48876680540537
 30
0.0
  0
VERTEX
  5
BBD
330
BB7
100
AcDbEntity
  8
Visible (ANSI)
100
AcDbVertex
100
AcDb2dVertex
 10
173.0506442702564
 20
70.48529047946556
 30
0.0
  0
VERTEX
  5
BBE
330
BB7
100
AcDbEntity
  8
Visible (ANSI)
100
AcDbVertex
100
AcDb2dVertex
 10
173.0568445093192
 20
70.48204300991223
 30
0.0
  0
VERTEX
  5
BBF
330
BB7
100
AcDbEntity
  8
Visible (ANSI)
100
AcDbVertex
100
AcDb2dVertex
 10
173.0632461598123
 20
70.47903598173839
 30
0.0
  0
VERTEX
  5
BC0
330
BB7
100
AcDbEntity
  8
Visible (ANSI)
100
AcDbVertex
100
AcDb2dVertex
 10
173.0698256588056
 20
70.47627094870032
 30
0.0
  0
VERTEX
  5
BC1
330
BB7
100
AcDbEntity
  8
Visible (ANSI)
100
AcDbVertex
100
AcDb2dVertex
 10
173.0765523191622
 20
70.47375884208816
 30
0.0
  0
VERTEX
  5
BC2
330
BB7
100
AcDbEntity
  8
Visible (ANSI)
100
AcDbVertex
100
AcDb2dVertex
 10
173.0833985909059
 20
70.47150060142413
 30
0.0
  0
VERTEX
  5
BC3
330
BB7
100
AcDbEntity
  8
Visible (ANSI)
100
AcDbVertex
100
AcDb2dVertex
 10
173.0903342432141
 20
70.4695023689962
 30
0.0
  0
VERTEX
  5
BC4
330
BB7
100
AcDbEntity
  8
Visible (ANSI)
100
AcDbVertex
100
AcDb2dVertex
 10
173.0973293589801
 20
70.46776878599621
 30
0.0
  0
VERTEX
  5
BC5
330
BB7
100
AcDbEntity
  8
Visible (ANSI)
100
AcDbVertex
100
AcDb2dVertex
 10
173.1043558349467
 20
70.46629710982665
 30
0.0
  0
VERTEX
  5
BC6
330
BB7
100
AcDbEntity
  8
Visible (ANSI)
100
AcDbVertex
100
AcDb2dVertex
 10
173.1113815950702
 20
70.46509242670005
 30
0.0
  0
VERTEX
  5
BC7
330
BB7
100
AcDbEntity
  8
Visible (ANSI)
100
AcDbVertex
100
AcDb2dVertex
 10
173.1183765054948
 20
70.46415082467492
 30
0.0
  0
VERTEX
  5
BC8
330
BB7
100
AcDbEntity
  8
Visible (ANSI)
100
AcDbVertex
100
AcDb2dVertex
 10
173.1253124315915
 20
70.4634712443911
 30
0.0
  0
VERTEX
  5
BC9
330
BB7
100
AcDbEntity
  8
Visible (ANSI)
100
AcDbVertex
100
AcDb2dVertex
 10
173.1321574655827
 20
70.46305381718288
 30
0.0
  0
VERTEX
  5
BCA
330
BB7
100
AcDbEntity
  8
Visible (ANSI)
100
AcDbVertex
100
AcDb2dVertex
 10
173.1388847733352
 20
70.46288980428009
 30
0.0
  0
VERTEX
  5
BCB
330
BB7
100
AcDbEntity
  8
Visible (ANSI)
100
AcDbVertex
100
AcDb2dVertex
 10
173.1454639029992
 20
70.46297850019357
 30
0.0
  0
VERTEX
  5
BCC
330
BB7
100
AcDbEntity
  8
Visible (ANSI)
100
AcDbVertex
100
AcDb2dVertex
 10
173.1518667042598
 20
70.46331040821458
 30
0.0
  0
VERTEX
  5
BCD
330
BB7
100
AcDbEntity
  8
Visible (ANSI)
100
AcDbVertex
100
AcDb2dVertex
 10
173.158065955117
 20
70.4638799492714
 30
0.0
  0
VERTEX
  5
BCE
330
BB7
100
AcDbEntity
  8
Visible (ANSI)
100
AcDbVertex
100
AcDb2dVertex
 10
173.1640354475329
 20
70.46468044644126
 30
0.0
  0
VERTEX
  5
BCF
330
BB7
100
AcDbEntity
  8
Visible (ANSI)
100
AcDbVertex
100
AcDb2dVertex
 10
173.1697500714761
 20
70.46569910853858
 30
0.0
  0
VERTEX
  5
BD0
330
BB7
100
AcDbEntity
  8
Visible (ANSI)
100
AcDbVertex
100
AcDb2dVertex
 10
173.1751829855944
 20
70.46692889393918
 30
0.0
  0
VERTEX
  5
BD1
330
BB7
100
AcDbEntity
  8
Visible (ANSI)
100
AcDbVertex
100
AcDb2dVertex
 10
173.1803144673954
 20
70.46835845173162
 30
0.0
  0
SEQEND
  5
BBA
330
BB7
100
AcDbEntity
  8
Visible (ANSI)
  0
POLYLINE
  5
BD2
330
6C
100
AcDbEntity
  8
Visible (ANSI)
100
AcDb2dPolyline
 66
     1
 10
0.0
 20
0.0
 30
0.0
 70
   128
  0
VERTEX
  5
BD3
330
BD2
100
AcDbEntity
  8
Visible (ANSI)
100
AcDbVertex
100
AcDb2dVertex
 10
173.1803144673954
 20
45.97743334321303
 30
0.0
  0
VERTEX
  5
BD4
330
BD2
100
AcDbEntity
  8
Visible (ANSI)
100
AcDbVertex
100
AcDb2dVertex
 10
173.1751829855944
 20
45.97332853724753
 30
0.0
  0
VERTEX
  5
BD6
330
BD2
100
AcDbEntity
  8
Visible (ANSI)
100
AcDbVertex
100
AcDb2dVertex
 10
173.1697500714761
 20
45.96942181540407
 30
0.0
  0
VERTEX
  5
BD7
330
BD2
100
AcDbEntity
  8
Visible (ANSI)
100
AcDbVertex
100
AcDb2dVertex
 10
173.1640354475329
 20
45.96572621686386
 30
0.0
  0
VERTEX
  5
BD8
330
BD2
100
AcDbEntity
  8
Visible (ANSI)
100
AcDbVertex
100
AcDb2dVertex
 10
173.158065955117
 20
45.96225047152095
 30
0.0
  0
VERTEX
  5
BD9
330
BD2
100
AcDbEntity
  8
Visible (ANSI)
100
AcDbVertex
100
AcDb2dVertex
 10
173.1518667042598
 20
45.95900398083167
 30
0.0
  0
VERTEX
  5
BDA
330
BD2
100
AcDbEntity
  8
Visible (ANSI)
100
AcDbVertex
100
AcDb2dVertex
 10
173.1454639029992
 20
45.95599513636778
 30
0.0
  0
VERTEX
  5
BDB
330
BD2
100
AcDbEntity
  8
Visible (ANSI)
100
AcDbVertex
100
AcDb2dVertex
 10
173.1388847733352
 20
45.95323119228124
 30
0.0
  0
VERTEX
  5
BDC
330
BD2
100
AcDbEntity
  8
Visible (ANSI)
100
AcDbVertex
100
AcDb2dVertex
 10
173.1321574655827
 20
45.95071826874115
 30
0.0
  0
VERTEX
  5
BDD
330
BD2
100
AcDbEntity
  8
Visible (ANSI)
100
AcDbVertex
100
AcDb2dVertex
 10
173.1253124315915
 20
45.94846044118151
 30
0.0
  0
VERTEX
  5
BDE
330
BD2
100
AcDbEntity
  8
Visible (ANSI)
100
AcDbVertex
100
AcDb2dVertex
 10
173.1183765054948
 20
45.94646308502245
 30
0.0
  0
VERTEX
  5
BDF
330
BD2
100
AcDbEntity
  8
Visible (ANSI)
100
AcDbVertex
100
AcDb2dVertex
 10
173.1113815950702
 20
45.94472775060473
 30
0.0
  0
VERTEX
  5
BE0
330
BD2
100
AcDbEntity
  8
Visible (ANSI)
100
AcDbVertex
100
AcDb2dVertex
 10
173.1043558349467
 20
45.94325717896347
 30
0.0
  0
VERTEX
  5
BE1
330
BD2
100
AcDbEntity
  8
Visible (ANSI)
100
AcDbVertex
100
AcDb2dVertex
 10
173.0973293589801
 20
45.94205191869015
 30
0.0
  0
VERTEX
  5
BE2
330
BD2
100
AcDbEntity
  8
Visible (ANSI)
100
AcDbVertex
100
AcDb2dVertex
 10
173.0903342432141
 20
45.94111024692227
 30
0.0
  0
VERTEX
  5
BE3
330
BD2
100
AcDbEntity
  8
Visible (ANSI)
100
AcDbVertex
100
AcDb2dVertex
 10
173.0833985909059
 20
45.94043154290734
 30
0.0
  0
VERTEX
  5
BE4
330
BD2
100
AcDbEntity
  8
Visible (ANSI)
100
AcDbVertex
100
AcDb2dVertex
 10
173.0765523191622
 20
45.9400128405337
 30
0.0
  0
VERTEX
  5
BE5
330
BD2
100
AcDbEntity
  8
Visible (ANSI)
100
AcDbVertex
100
AcDb2dVertex
 10
173.0698256588056
 20
45.93984969897279
 30
0.0
  0
VERTEX
  5
BE6
330
BD2
100
AcDbEntity
  8
Visible (ANSI)
100
AcDbVertex
100
AcDb2dVertex
 10
173.0632461598123
 20
45.93993779556799
 30
0.0
  0
VERTEX
  5
BE7
330
BD2
100
AcDbEntity
  8
Visible (ANSI)
100
AcDbVertex
100
AcDb2dVertex
 10
173.0568445093192
 20
45.94026956897397
 30
0.0
  0
VERTEX
  5
BE8
330
BD2
100
AcDbEntity
  8
Visible (ANSI)
100
AcDbVertex
100
AcDb2dVertex
 10
173.0506442702564
 20
45.94084010208444
 30
0.0
  0
VERTEX
  5
BE9
330
BD2
100
AcDbEntity
  8
Visible (ANSI)
100
AcDbVertex
100
AcDb2dVertex
 10
173.044674983271
 20
45.94163948498657
 30
0.0
  0
VERTEX
  5
BEA
330
BD2
100
AcDbEntity
  8
Visible (ANSI)
100
AcDbVertex
100
AcDb2dVertex
 10
173.0389604622659
 20
45.94265958159343
 30
0.0
  0
VERTEX
  5
BEB
330
BD2
100
AcDbEntity
  8
Visible (ANSI)
100
AcDbVertex
100
AcDb2dVertex
 10
173.0335275385222
 20
45.94388892836678
 30
0.0
  0
VERTEX
  5
BEC
330
BD2
100
AcDbEntity
  8
Visible (ANSI)
100
AcDbVertex
100
AcDb2dVertex
 10
173.0283972880569
 20
45.9453177927917
 30
0.0
  0
SEQEND
  5
BD5
330
BD2
100
AcDbEntity
  8
Visible (ANSI)
  0
LINE
  5
BED
330
6C
100
AcDbEntity
  8
Visible (ANSI)
100
AcDbLine
 10
173.1196377241782
 20
70.50340403151387
 30
0.0
 11
173.468957256555
 21
70.70456377161582
 31
0.0
  0
LINE
  5
BEE
330
6C
100
AcDbEntity
  8
Visible (ANSI)
100
AcDbLine
 10
173.5297242455632
 20
46.17864552985531
 30
0.0
 11
173.180314058766
 21
45.97743358534461
 31
0.0
  0
LINE
  5
BEF
330
6C
100
AcDbEntity
  8
Visible (ANSI)
100
AcDbLine
 10
173.1221072332956
 20
70.50187752697543
 30
0.0
 11
173.180314058766
 21
70.46835844545109
 31
0.0
  0
POLYLINE
  5
BF0
330
6C
100
AcDbEntity
  8
Visible (ANSI)
100
AcDb2dPolyline
 66
     1
 10
0.0
 20
0.0
 30
0.0
 70
   128
  0
VERTEX
  5
BF1
330
BF0
100
AcDbEntity
  8
Visible (ANSI)
100
AcDbVertex
100
AcDb2dVertex
 10
173.0891642761524
 20
70.53546762199258
 30
0.0
  0
VERTEX
  5
BF2
330
BF0
100
AcDbEntity
  8
Visible (ANSI)
100
AcDbVertex
100
AcDb2dVertex
 10
173.0900982237389
 20
70.53373708230982
 30
0.0
  0
VERTEX
  5
BF4
330
BF0
100
AcDbEntity
  8
Visible (ANSI)
100
AcDbVertex
100
AcDb2dVertex
 10
173.0910849336083
 20
70.53204029642799
 30
0.0
  0
VERTEX
  5
BF5
330
BF0
100
AcDbEntity
  8
Visible (ANSI)
100
AcDbVertex
100
AcDb2dVertex
 10
173.0921182739507
 20
70.53037877201551
 30
0.0
  0
VERTEX
  5
BF6
330
BF0
100
AcDbEntity
  8
Visible (ANSI)
100
AcDbVertex
100
AcDb2dVertex
 10
173.0931963007208
 20
70.52875307132421
 30
0.0
  0
VERTEX
  5
BF7
330
BF0
100
AcDbEntity
  8
Visible (ANSI)
100
AcDbVertex
100
AcDb2dVertex
 10
173.0943124981824
 20
70.52716448093413
 30
0.0
  0
VERTEX
  5
BF8
330
BF0
100
AcDbEntity
  8
Visible (ANSI)
100
AcDbVertex
100
AcDb2dVertex
 10
173.095466002636
 20
70.52561588001336
 30
0.0
  0
VERTEX
  5
BF9
330
BF0
100
AcDbEntity
  8
Visible (ANSI)
100
AcDbVertex
100
AcDb2dVertex
 10
173.096651384387
 20
70.52410749879839
 30
0.0
  0
VERTEX
  5
BFA
330
BF0
100
AcDbEntity
  8
Visible (ANSI)
100
AcDbVertex
100
AcDb2dVertex
 10
173.0978630315716
 20
70.52263946262147
 30
0.0
  0
VERTEX
  5
BFB
330
BF0
100
AcDbEntity
  8
Visible (ANSI)
100
AcDbVertex
100
AcDb2dVertex
 10
173.0990995356758
 20
70.52121433691301
 30
0.0
  0
VERTEX
  5
BFC
330
BF0
100
AcDbEntity
  8
Visible (ANSI)
100
AcDbVertex
100
AcDb2dVertex
 10
173.1003534749079
 20
70.51983288649018
 30
0.0
  0
VERTEX
  5
BFD
330
BF0
100
AcDbEntity
  8
Visible (ANSI)
100
AcDbVertex
100
AcDb2dVertex
 10
173.1016231015484
 20
70.51849410490834
 30
0.0
  0
VERTEX
  5
BFE
330
BF0
100
AcDbEntity
  8
Visible (ANSI)
100
AcDbVertex
100
AcDb2dVertex
 10
173.1029006668101
 20
70.5171985686805
 30
0.0
  0
VERTEX
  5
BFF
330
BF0
100
AcDbEntity
  8
Visible (ANSI)
100
AcDbVertex
100
AcDb2dVertex
 10
173.1041855683938
 20
70.51594762575203
 30
0.0
  0
VERTEX
  5
C00
330
BF0
100
AcDbEntity
  8
Visible (ANSI)
100
AcDbVertex
100
AcDb2dVertex
 10
173.1054697576993
 20
70.51474167998529
 30
0.0
  0
VERTEX
  5
C01
330
BF0
100
AcDbEntity
  8
Visible (ANSI)
100
AcDbVertex
100
AcDb2dVertex
 10
173.1067494280672
 20
70.51358022102402
 30
0.0
  0
VERTEX
  5
C02
330
BF0
100
AcDbEntity
  8
Visible (ANSI)
100
AcDbVertex
100
AcDb2dVertex
 10
173.10802210221
 20
70.51246013402337
 30
0.0
  0
VERTEX
  5
C03
330
BF0
100
AcDbEntity
  8
Visible (ANSI)
100
AcDbVertex
100
AcDb2dVertex
 10
173.1092808017272
 20
70.51138582218891
 30
0.0
  0
VERTEX
  5
C04
330
BF0
100
AcDbEntity
  8
Visible (ANSI)
100
AcDbVertex
100
AcDb2dVertex
 10
173.1105213570468
 20
70.51035487790722
 30
0.0
  0
VERTEX
  5
C05
330
BF0
100
AcDbEntity
  8
Visible (ANSI)
100
AcDbVertex
100
AcDb2dVertex
 10
173.111740955419
 20
70.50936568142335
 30
0.0
  0
VERTEX
  5
C06
330
BF0
100
AcDbEntity
  8
Visible (ANSI)
100
AcDbVertex
100
AcDb2dVertex
 10
173.1129337731325
 20
70.5084165543215
 30
0.0
  0
VERTEX
  5
C07
330
BF0
100
AcDbEntity
  8
Visible (ANSI)
100
AcDbVertex
100
AcDb2dVertex
 10
173.1140953639747
 20
70.50750999449097
 30
0.0
  0
VERTEX
  5
C08
330
BF0
100
AcDbEntity
  8
Visible (ANSI)
100
AcDbVertex
100
AcDb2dVertex
 10
173.1152226706398
 20
70.50664255307658
 30
0.0
  0
VERTEX
  5
C09
330
BF0
100
AcDbEntity
  8
Visible (ANSI)
100
AcDbVertex
100
AcDb2dVertex
 10
173.1163111171509
 20
70.50581327670172
 30
0.0
  0
VERTEX
  5
C0A
330
BF0
100
AcDbEntity
  8
Visible (ANSI)
100
AcDbVertex
100
AcDb2dVertex
 10
173.1173560740568
 20
70.50501949292602
 30
0.0
  0
SEQEND
  5
BF3
330
BF0
100
AcDbEntity
  8
Visible (ANSI)
  0
LINE
  5
C0B
330
6C
100
AcDbEntity
  8
Visible (ANSI)
100
AcDbLine
 10
173.0891635752537
 20
70.53546721524384
 30
0.0
 11
173.0866719333392
 21
70.53403237409276
 31
0.0
  0
LINE
  5
C0C
330
6C
100
AcDbEntity
  8
Visible (ANSI)
100
AcDbLine
 10
173.0866719333392
 20
70.53403237409276
 30
0.0
 11
173.0283965862455
 21
70.50047383358981
 31
0.0
  0
LINE
  5
C0D
330
6C
100
AcDbEntity
  8
Visible (ANSI)
100
AcDbLine
 10
173.180314058766
 20
70.46835844545109
 30
0.0
 11
173.5297242455632
 21
70.66957038996179
 31
0.0
  0
LINE
  5
C0E
330
6C
100
AcDbEntity
  8
Visible (ANSI)
100
AcDbLine
 10
173.468957256555
 20
70.70456377161582
 30
0.0
 11
173.5297242455632
 21
70.66957038996179
 31
0.0
  0
POLYLINE
  5
C0F
330
6C
100
AcDbEntity
  8
Visible (ANSI)
100
AcDb2dPolyline
 66
     1
 10
0.0
 20
0.0
 30
0.0
 70
   128
  0
VERTEX
  5
C10
330
C0F
100
AcDbEntity
  8
Visible (ANSI)
100
AcDbVertex
100
AcDb2dVertex
 10
151.7903339276415
 20
82.73066153322295
 30
0.0
  0
VERTEX
  5
C11
330
C0F
100
AcDbEntity
  8
Visible (ANSI)
100
AcDbVertex
100
AcDb2dVertex
 10
151.7916539365505
 20
82.73583218980935
 30
0.0
  0
VERTEX
  5
C13
330
C0F
100
AcDbEntity
  8
Visible (ANSI)
100
AcDbVertex
100
AcDb2dVertex
 10
151.7932985161205
 20
82.74116443673085
 30
0.0
  0
VERTEX
  5
C14
330
C0F
100
AcDbEntity
  8
Visible (ANSI)
100
AcDbVertex
100
AcDb2dVertex
 10
151.7952655787136
 20
82.74663511771979
 30
0.0
  0
VERTEX
  5
C15
330
C0F
100
AcDbEntity
  8
Visible (ANSI)
100
AcDbVertex
100
AcDb2dVertex
 10
151.7975516620451
 20
82.75221522009264
 30
0.0
  0
VERTEX
  5
C16
330
C0F
100
AcDbEntity
  8
Visible (ANSI)
100
AcDbVertex
100
AcDb2dVertex
 10
151.8001519234792
 20
82.75788002079215
 30
0.0
  0
VERTEX
  5
C17
330
C0F
100
AcDbEntity
  8
Visible (ANSI)
100
AcDbVertex
100
AcDb2dVertex
 10
151.8030601970691
 20
82.76359894362988
 30
0.0
  0
VERTEX
  5
C18
330
C0F
100
AcDbEntity
  8
Visible (ANSI)
100
AcDbVertex
100
AcDb2dVertex
 10
151.8062689707404
 20
82.76934910486074
 30
0.0
  0
VERTEX
  5
C19
330
C0F
100
AcDbEntity
  8
Visible (ANSI)
100
AcDbVertex
100
AcDb2dVertex
 10
151.8097694661467
 20
82.77510011875467
 30
0.0
  0
VERTEX
  5
C1A
330
C0F
100
AcDbEntity
  8
Visible (ANSI)
100
AcDbVertex
100
AcDb2dVertex
 10
151.8135516614852
 20
82.78082594833206
 30
0.0
  0
VERTEX
  5
C1B
330
C0F
100
AcDbEntity
  8
Visible (ANSI)
100
AcDbVertex
100
AcDb2dVertex
 10
151.8176042972002
 20
82.78649817527734
 30
0.0
  0
VERTEX
  5
C1C
330
C0F
100
AcDbEntity
  8
Visible (ANSI)
100
AcDbVertex
100
AcDb2dVertex
 10
151.8219149900625
 20
82.79208939618643
 30
0.0
  0
VERTEX
  5
C1D
330
C0F
100
AcDbEntity
  8
Visible (ANSI)
100
AcDbVertex
100
AcDb2dVertex
 10
151.8264702274646
 20
82.79757496010686
 30
0.0
  0
VERTEX
  5
C1E
330
C0F
100
AcDbEntity
  8
Visible (ANSI)
100
AcDbVertex
100
AcDb2dVertex
 10
151.8312554672401
 20
82.80292622038544
 30
0.0
  0
VERTEX
  5
C1F
330
C0F
100
AcDbEntity
  8
Visible (ANSI)
100
AcDbVertex
100
AcDb2dVertex
 10
151.8362551661829
 20
82.80811735672571
 30
0.0
  0
VERTEX
  5
C20
330
C0F
100
AcDbEntity
  8
Visible (ANSI)
100
AcDbVertex
100
AcDb2dVertex
 10
151.8414528770143
 20
82.8131253850419
 30
0.0
  0
VERTEX
  5
C21
330
C0F
100
AcDbEntity
  8
Visible (ANSI)
100
AcDbVertex
100
AcDb2dVertex
 10
151.8468312997182
 20
82.81792345364985
 30
0.0
  0
VERTEX
  5
C22
330
C0F
100
AcDbEntity
  8
Visible (ANSI)
100
AcDbVertex
100
AcDb2dVertex
 10
151.8523723499884
 20
82.82249103200999
 30
0.0
  0
VERTEX
  5
C23
330
C0F
100
AcDbEntity
  8
Visible (ANSI)
100
AcDbVertex
100
AcDb2dVertex
 10
151.858057263325
 20
82.82680380163771
 30
0.0
  0
VERTEX
  5
C24
330
C0F
100
AcDbEntity
  8
Visible (ANSI)
100
AcDbVertex
100
AcDb2dVertex
 10
151.8638666506481
 20
82.83084046748552
 30
0.0
  0
VERTEX
  5
C25
330
C0F
100
AcDbEntity
  8
Visible (ANSI)
100
AcDbVertex
100
AcDb2dVertex
 10
151.8697806023941
 20
82.83458110991057
 30
0.0
  0
VERTEX
  5
C26
330
C0F
100
AcDbEntity
  8
Visible (ANSI)
100
AcDbVertex
100
AcDb2dVertex
 10
151.8757787285326
 20
82.83800726027342
 30
0.0
  0
VERTEX
  5
C27
330
C0F
100
AcDbEntity
  8
Visible (ANSI)
100
AcDbVertex
100
AcDb2dVertex
 10
151.8818403110574
 20
82.84110190991956
 30
0.0
  0
VERTEX
  5
C28
330
C0F
100
AcDbEntity
  8
Visible (ANSI)
100
AcDbVertex
100
AcDb2dVertex
 10
151.8879443494395
 20
82.84384621236942
 30
0.0
  0
VERTEX
  5
C29
330
C0F
100
AcDbEntity
  8
Visible (ANSI)
100
AcDbVertex
100
AcDb2dVertex
 10
151.8940696609805
 20
82.84622965758812
 30
0.0
  0
SEQEND
  5
C12
330
C0F
100
AcDbEntity
  8
Visible (ANSI)
  0
POLYLINE
  5
C2A
330
6C
100
AcDbEntity
  8
Visible (ANSI)
100
AcDb2dPolyline
 66
     1
 10
0.0
 20
0.0
 30
0.0
 70
   128
  0
VERTEX
  5
C2B
330
C2A
100
AcDbEntity
  8
Visible (ANSI)
100
AcDbVertex
100
AcDb2dVertex
 10
173.0765785287151
 20
70.64803406988175
 30
0.0
  0
VERTEX
  5
C2C
330
C2A
100
AcDbEntity
  8
Visible (ANSI)
100
AcDbVertex
100
AcDb2dVertex
 10
173.0727670729348
 20
70.64431816374879
 30
0.0
  0
VERTEX
  5
C2E
330
C2A
100
AcDbEntity
  8
Visible (ANSI)
100
AcDbVertex
100
AcDb2dVertex
 10
173.0689783505193
 20
70.64024055950813
 30
0.0
  0
VERTEX
  5
C2F
330
C2A
100
AcDbEntity
  8
Visible (ANSI)
100
AcDbVertex
100
AcDb2dVertex
 10
173.0652320839611
 20
70.63581260807116
 30
0.0
  0
VERTEX
  5
C30
330
C2A
100
AcDbEntity
  8
Visible (ANSI)
100
AcDbVertex
100
AcDb2dVertex
 10
173.0615478135833
 20
70.63105399679407
 30
0.0
  0
VERTEX
  5
C31
330
C2A
100
AcDbEntity
  8
Visible (ANSI)
100
AcDbVertex
100
AcDb2dVertex
 10
173.0579491892117
 20
70.62598004600886
 30
0.0
  0
VERTEX
  5
C32
330
C2A
100
AcDbEntity
  8
Visible (ANSI)
100
AcDbVertex
100
AcDb2dVertex
 10
173.0544551178552
 20
70.62061007837023
 30
0.0
  0
VERTEX
  5
C33
330
C2A
100
AcDbEntity
  8
Visible (ANSI)
100
AcDbVertex
100
AcDb2dVertex
 10
173.0510840602794
 20
70.61496484782828
 30
0.0
  0
VERTEX
  5
C34
330
C2A
100
AcDbEntity
  8
Visible (ANSI)
100
AcDbVertex
100
AcDb2dVertex
 10
173.0478583259758
 20
70.60906396767731
 30
0.0
  0
VERTEX
  5
C35
330
C2A
100
AcDbEntity
  8
Visible (ANSI)
100
AcDbVertex
100
AcDb2dVertex
 10
173.0447937647365
 20
70.60293343487046
 30
0.0
  0
VERTEX
  5
C36
330
C2A
100
AcDbEntity
  8
Visible (ANSI)
100
AcDbVertex
100
AcDb2dVertex
 10
173.0419113698717
 20
70.59659210476346
 30
0.0
  0
VERTEX
  5
C37
330
C2A
100
AcDbEntity
  8
Visible (ANSI)
100
AcDbVertex
100
AcDb2dVertex
 10
173.0392269868954
 20
70.59006766663237
 30
0.0
  0
VERTEX
  5
C38
330
C2A
100
AcDbEntity
  8
Visible (ANSI)
100
AcDbVertex
100
AcDb2dVertex
 10
173.0367556085847
 20
70.58338394215486
 30
0.0
  0
VERTEX
  5
C39
330
C2A
100
AcDbEntity
  8
Visible (ANSI)
100
AcDbVertex
100
AcDb2dVertex
 10
173.0345156871491
 20
70.57656507644363
 30
0.0
  0
VERTEX
  5
C3A
330
C2A
100
AcDbEntity
  8
Visible (ANSI)
100
AcDbVertex
100
AcDb2dVertex
 10
173.0325188557516
 20
70.56964139133562
 30
0.0
  0
VERTEX
  5
C3B
330
C2A
100
AcDbEntity
  8
Visible (ANSI)
100
AcDbVertex
100
AcDb2dVertex
 10
173.0307815360031
 20
70.56263586259953
 30
0.0
  0
VERTEX
  5
C3C
330
C2A
100
AcDbEntity
  8
Visible (ANSI)
100
AcDbVertex
100
AcDb2dVertex
 10
173.0293146623351
 20
70.55557672794662
 30
0.0
  0
VERTEX
  5
C3D
330
C2A
100
AcDbEntity
  8
Visible (ANSI)
100
AcDbVertex
100
AcDb2dVertex
 10
173.0281280226895
 20
70.54849325313847
 30
0.0
  0
VERTEX
  5
C3E
330
C2A
100
AcDbEntity
  8
Visible (ANSI)
100
AcDbVertex
100
AcDb2dVertex
 10
173.0272345649848
 20
70.5414097901168
 30
0.0
  0
VERTEX
  5
C3F
330
C2A
100
AcDbEntity
  8
Visible (ANSI)
100
AcDbVertex
100
AcDb2dVertex
 10
173.0266401528596
 20
70.53435840308016
 30
0.0
  0
VERTEX
  5
C40
330
C2A
100
AcDbEntity
  8
Visible (ANSI)
100
AcDbVertex
100
AcDb2dVertex
 10
173.026355207392
 20
70.52736030058984
 30
0.0
  0
VERTEX
  5
C41
330
C2A
100
AcDbEntity
  8
Visible (ANSI)
100
AcDbVertex
100
AcDb2dVertex
 10
173.0263844457311
 20
70.52044689314148
 30
0.0
  0
VERTEX
  5
C42
330
C2A
100
AcDbEntity
  8
Visible (ANSI)
100
AcDbVertex
100
AcDb2dVertex
 10
173.0267312388988
 20
70.51364375123829
 30
0.0
  0
VERTEX
  5
C43
330
C2A
100
AcDbEntity
  8
Visible (ANSI)
100
AcDbVertex
100
AcDb2dVertex
 10
173.0274019752954
 20
70.50697820252598
 30
0.0
  0
VERTEX
  5
C44
330
C2A
100
AcDbEntity
  8
Visible (ANSI)
100
AcDbVertex
100
AcDb2dVertex
 10
173.0283972880569
 20
70.50047424086409
 30
0.0
  0
SEQEND
  5
C2D
330
C2A
100
AcDbEntity
  8
Visible (ANSI)
  0
LINE
  5
C45
330
6C
100
AcDbEntity
  8
Visible (ANSI)
100
AcDbLine
 10
173.0766648664082
 20
70.57782560061965
 30
0.0
 11
173.425988506555
 21
70.778987706229
 31
0.0
  0
LINE
  5
C46
330
6C
100
AcDbEntity
  8
Visible (ANSI)
100
AcDbLine
 10
173.425988506555
 20
70.84924566227016
 30
0.0
 11
173.0765783197577
 21
70.64803371775949
 31
0.0
  0
LINE
  5
C47
330
6C
100
AcDbEntity
  8
Visible (ANSI)
100
AcDbLine
 10
173.0765783197577
 20
70.58065656379442
 30
0.0
 11
173.0765783197577
 21
70.64803371775949
 31
0.0
  0
LINE
  5
C48
330
6C
100
AcDbEntity
  8
Visible (ANSI)
100
AcDbLine
 10
173.425988506555
 20
70.778987706229
 30
0.0
 11
173.425988506555
 21
70.84924566227016
 31
0.0
  0
POLYLINE
  5
C49
330
6C
100
AcDbEntity
  8
Visible (ANSI)
100
AcDb2dPolyline
 66
     1
 10
0.0
 20
0.0
 30
0.0
 70
   128
  0
VERTEX
  5
C4A
330
C49
100
AcDbEntity
  8
Visible (ANSI)
100
AcDbVertex
100
AcDb2dVertex
 10
173.0891642761524
 20
70.53546762199258
 30
0.0
  0
VERTEX
  5
C4B
330
C49
100
AcDbEntity
  8
Visible (ANSI)
100
AcDbVertex
100
AcDb2dVertex
 10
173.0881314209643
 20
70.537143896867
 30
0.0
  0
VERTEX
  5
C4D
330
C49
100
AcDbEntity
  8
Visible (ANSI)
100
AcDbVertex
100
AcDb2dVertex
 10
173.0871529763941
 20
70.53884981646262
 30
0.0
  0
VERTEX
  5
C4E
330
C49
100
AcDbEntity
  8
Visible (ANSI)
100
AcDbVertex
100
AcDb2dVertex
 10
173.0862301096446
 20
70.54057761809438
 30
0.0
  0
VERTEX
  5
C4F
330
C49
100
AcDbEntity
  8
Visible (ANSI)
100
AcDbVertex
100
AcDb2dVertex
 10
173.085359413089
 20
70.542327014677
 30
0.0
  0
VERTEX
  5
C50
330
C49
100
AcDbEntity
  8
Visible (ANSI)
100
AcDbVertex
100
AcDb2dVertex
 10
173.0845431275357
 20
70.54409086829052
 30
0.0
  0
VERTEX
  5
C51
330
C49
100
AcDbEntity
  8
Visible (ANSI)
100
AcDbVertex
100
AcDb2dVertex
 10
173.0837774629692
 20
70.54586529510699
 30
0.0
  0
VERTEX
  5
C52
330
C49
100
AcDbEntity
  8
Visible (ANSI)
100
AcDbVertex
100
AcDb2dVertex
 10
173.083064283371
 20
70.54764800501567
 30
0.0
  0
VERTEX
  5
C53
330
C49
100
AcDbEntity
  8
Visible (ANSI)
100
AcDbVertex
100
AcDb2dVertex
 10
173.0823994287054
 20
70.5494332128384
 30
0.0
  0
VERTEX
  5
C54
330
C49
100
AcDbEntity
  8
Visible (ANSI)
100
AcDbVertex
100
AcDb2dVertex
 10
173.0817844011556
 20
70.55121673184877
 30
0.0
  0
VERTEX
  5
C55
330
C49
100
AcDbEntity
  8
Visible (ANSI)
100
AcDbVertex
100
AcDb2dVertex
 10
173.0812146886464
 20
70.55299595068224
 30
0.0
  0
VERTEX
  5
C56
330
C49
100
AcDbEntity
  8
Visible (ANSI)
100
AcDbVertex
100
AcDb2dVertex
 10
173.0806914521057
 20
70.55476479782673
 30
0.0
  0
VERTEX
  5
C57
330
C49
100
AcDbEntity
  8
Visible (ANSI)
100
AcDbVertex
100
AcDb2dVertex
 10
173.080209849789
 20
70.55652047207381
 30
0.0
  0
VERTEX
  5
C58
330
C49
100
AcDbEntity
  8
Visible (ANSI)
100
AcDbVertex
100
AcDb2dVertex
 10
173.0797707267693
 20
70.55825840829233
 30
0.0
  0
VERTEX
  5
C59
330
C49
100
AcDbEntity
  8
Visible (ANSI)
100
AcDbVertex
100
AcDb2dVertex
 10
173.0793689395285
 20
70.55997394322428
 30
0.0
  0
VERTEX
  5
C5A
330
C49
100
AcDbEntity
  8
Visible (ANSI)
100
AcDbVertex
100
AcDb2dVertex
 10
173.0790050463387
 20
70.56166234658099
 30
0.0
  0
VERTEX
  5
C5B
330
C49
100
AcDbEntity
  8
Visible (ANSI)
100
AcDbVertex
100
AcDb2dVertex
 10
173.0786736345281
 20
70.56332386491833
 30
0.0
  0
VERTEX
  5
C5C
330
C49
100
AcDbEntity
  8
Visible (ANSI)
100
AcDbVertex
100
AcDb2dVertex
 10
173.0783750089002
 20
70.56494855717547
 30
0.0
  0
VERTEX
  5
C5D
330
C49
100
AcDbEntity
  8
Visible (ANSI)
100
AcDbVertex
100
AcDb2dVertex
 10
173.0781035232786
 20
70.56653822371176
 30
0.0
  0
VERTEX
  5
C5E
330
C49
100
AcDbEntity
  8
Visible (ANSI)
100
AcDbVertex
100
AcDb2dVertex
 10
173.0778592675001
 20
70.56808617621484
 30
0.0
  0
VERTEX
  5
C5F
330
C49
100
AcDbEntity
  8
Visible (ANSI)
100
AcDbVertex
100
AcDb2dVertex
 10
173.0776363993158
 20
70.56959072559376
 30
0.0
  0
VERTEX
  5
C60
330
C49
100
AcDbEntity
  8
Visible (ANSI)
100
AcDbVertex
100
AcDb2dVertex
 10
173.0774348353055
 20
70.5710484603038
 30
0.0
  0
VERTEX
  5
C61
330
C49
100
AcDbEntity
  8
Visible (ANSI)
100
AcDbVertex
100
AcDb2dVertex
 10
173.0772485799272
 20
70.57245591470857
 30
0.0
  0
VERTEX
  5
C62
330
C49
100
AcDbEntity
  8
Visible (ANSI)
100
AcDbVertex
100
AcDb2dVertex
 10
173.0770774171444
 20
70.57380791262487
 30
0.0
  0
VERTEX
  5
C63
330
C49
100
AcDbEntity
  8
Visible (ANSI)
100
AcDbVertex
100
AcDb2dVertex
 10
173.0769152444665
 20
70.57510767990796
 30
0.0
  0
SEQEND
  5
C4C
330
C49
100
AcDbEntity
  8
Visible (ANSI)
  0
LINE
  5
C64
330
6C
100
AcDbEntity
  8
Visible (ANSI)
100
AcDbLine
 10
151.8940696668779
 20
82.84622918173925
 30
0.0
 11
152.2434798536751
 21
83.04744112624993
 31
0.0
  0
POLYLINE
  5
C65
330
6C
100
AcDbEntity
  8
Visible (ANSI)
100
AcDb2dPolyline
 66
     1
 10
0.0
 20
0.0
 30
0.0
 70
   128
  0
VERTEX
  5
C66
330
C65
100
AcDbEntity
  8
Visible (ANSI)
100
AcDbVertex
100
AcDb2dVertex
 10
151.7903339276415
 20
58.17550508515055
 30
0.0
  0
VERTEX
  5
C67
330
C65
100
AcDbEntity
  8
Visible (ANSI)
100
AcDbVertex
100
AcDb2dVertex
 10
151.7878892979049
 20
58.17762876248289
 30
0.0
  0
VERTEX
  5
C69
330
C65
100
AcDbEntity
  8
Visible (ANSI)
100
AcDbVertex
100
AcDb2dVertex
 10
151.7855286185926
 20
58.17979772892782
 30
0.0
  0
VERTEX
  5
C6A
330
C65
100
AcDbEntity
  8
Visible (ANSI)
100
AcDbVertex
100
AcDb2dVertex
 10
151.7832544279528
 20
58.18201036509006
 30
0.0
  0
VERTEX
  5
C6B
330
C65
100
AcDbEntity
  8
Visible (ANSI)
100
AcDbVertex
100
AcDb2dVertex
 10
151.781069161563
 20
58.18426502537334
 30
0.0
  0
VERTEX
  5
C6C
330
C65
100
AcDbEntity
  8
Visible (ANSI)
100
AcDbVertex
100
AcDb2dVertex
 10
151.7789751466264
 20
58.18656000831644
 30
0.0
  0
VERTEX
  5
C6D
330
C65
100
AcDbEntity
  8
Visible (ANSI)
100
AcDbVertex
100
AcDb2dVertex
 10
151.7769746418987
 20
58.18889357961141
 30
0.0
  0
VERTEX
  5
C6E
330
C65
100
AcDbEntity
  8
Visible (ANSI)
100
AcDbVertex
100
AcDb2dVertex
 10
151.7750697749453
 20
58.19126395570564
 30
0.0
  0
VERTEX
  5
C6F
330
C65
100
AcDbEntity
  8
Visible (ANSI)
100
AcDbVertex
100
AcDb2dVertex
 10
151.7732625934768
 20
58.19366930698473
 30
0.0
  0
VERTEX
  5
C70
330
C65
100
AcDbEntity
  8
Visible (ANSI)
100
AcDbVertex
100
AcDb2dVertex
 10
151.7715550311248
 20
58.19610777763324
 30
0.0
  0
VERTEX
  5
C71
330
C65
100
AcDbEntity
  8
Visible (ANSI)
100
AcDbVertex
100
AcDb2dVertex
 10
151.7699489131468
 20
58.19857747567886
 30
0.0
  0
VERTEX
  5
C72
330
C65
100
AcDbEntity
  8
Visible (ANSI)
100
AcDbVertex
100
AcDb2dVertex
 10
151.7684459621291
 20
58.20107646973319
 30
0.0
  0
VERTEX
  5
C73
330
C65
100
AcDbEntity
  8
Visible (ANSI)
100
AcDbVertex
100
AcDb2dVertex
 10
151.7670477951356
 20
58.20360281036759
 30
0.0
  0
VERTEX
  5
C74
330
C65
100
AcDbEntity
  8
Visible (ANSI)
100
AcDbVertex
100
AcDb2dVertex
 10
151.7657558951878
 20
58.2061544938799
 30
0.0
  0
VERTEX
  5
C75
330
C65
100
AcDbEntity
  8
Visible (ANSI)
100
AcDbVertex
100
AcDb2dVertex
 10
151.7645716540443
 20
58.20872951007501
 30
0.0
  0
VERTEX
  5
C76
330
C65
100
AcDbEntity
  8
Visible (ANSI)
100
AcDbVertex
100
AcDb2dVertex
 10
151.7634963379773
 20
58.21132581588561
 30
0.0
  0
VERTEX
  5
C77
330
C65
100
AcDbEntity
  8
Visible (ANSI)
100
AcDbVertex
100
AcDb2dVertex
 10
151.7625310991805
 20
58.21394135510566
 30
0.0
  0
VERTEX
  5
C78
330
C65
100
AcDbEntity
  8
Visible (ANSI)
100
AcDbVertex
100
AcDb2dVertex
 10
151.7616769757688
 20
58.21657404527723
 30
0.0
  0
VERTEX
  5
C79
330
C65
100
AcDbEntity
  8
Visible (ANSI)
100
AcDbVertex
100
AcDb2dVertex
 10
151.760934871815
 20
58.21922176937692
 30
0.0
  0
VERTEX
  5
C7A
330
C65
100
AcDbEntity
  8
Visible (ANSI)
100
AcDbVertex
100
AcDb2dVertex
 10
151.7603055858691
 20
58.22188241538469
 30
0.0
  0
VERTEX
  5
C7B
330
C65
100
AcDbEntity
  8
Visible (ANSI)
100
AcDbVertex
100
AcDb2dVertex
 10
151.7597897995506
 20
58.22455385318938
 30
0.0
  0
VERTEX
  5
C7C
330
C65
100
AcDbEntity
  8
Visible (ANSI)
100
AcDbVertex
100
AcDb2dVertex
 10
151.7593880547328
 20
58.22723393789875
 30
0.0
  0
VERTEX
  5
C7D
330
C65
100
AcDbEntity
  8
Visible (ANSI)
100
AcDbVertex
100
AcDb2dVertex
 10
151.7591007877662
 20
58.22992051971904
 30
0.0
  0
VERTEX
  5
C7E
330
C65
100
AcDbEntity
  8
Visible (ANSI)
100
AcDbVertex
100
AcDb2dVertex
 10
151.7589283038109
 20
58.23261142907206
 30
0.0
  0
VERTEX
  5
C7F
330
C65
100
AcDbEntity
  8
Visible (ANSI)
100
AcDbVertex
100
AcDb2dVertex
 10
151.7588707896708
 20
58.23530450548886
 30
0.0
  0
SEQEND
  5
C68
330
C65
100
AcDbEntity
  8
Visible (ANSI)
  0
POLYLINE
  5
C80
330
6C
100
AcDbEntity
  8
Visible (ANSI)
100
AcDb2dPolyline
 66
     1
 10
0.0
 20
0.0
 30
0.0
 70
   128
  0
VERTEX
  5
C81
330
C80
100
AcDbEntity
  8
Visible (ANSI)
100
AcDbVertex
100
AcDb2dVertex
 10
151.7903339276415
 20
82.78602902939327
 30
0.0
  0
VERTEX
  5
C82
330
C80
100
AcDbEntity
  8
Visible (ANSI)
100
AcDbVertex
100
AcDb2dVertex
 10
151.7855286223692
 20
82.78441163903023
 30
0.0
  0
VERTEX
  5
C84
330
C80
100
AcDbEntity
  8
Visible (ANSI)
100
AcDbVertex
100
AcDb2dVertex
 10
151.7810691608055
 20
82.78262127958571
 30
0.0
  0
VERTEX
  5
C85
330
C80
100
AcDbEntity
  8
Visible (ANSI)
100
AcDbVertex
100
AcDb2dVertex
 10
151.7769746394032
 20
82.78066966248337
 30
0.0
  0
VERTEX
  5
C86
330
C80
100
AcDbEntity
  8
Visible (ANSI)
100
AcDbVertex
100
AcDb2dVertex
 10
151.7732625913378
 20
82.77856918956997
 30
0.0
  0
VERTEX
  5
C87
330
C80
100
AcDbEntity
  8
Visible (ANSI)
100
AcDbVertex
100
AcDb2dVertex
 10
151.7699489127903
 20
82.77633795793459
 30
0.0
  0
VERTEX
  5
C88
330
C80
100
AcDbEntity
  8
Visible (ANSI)
100
AcDbVertex
100
AcDb2dVertex
 10
151.7670477926401
 20
82.77398956587296
 30
0.0
  0
VERTEX
  5
C89
330
C80
100
AcDbEntity
  8
Visible (ANSI)
100
AcDbVertex
100
AcDb2dVertex
 10
151.7645716540443
 20
82.77153811454388
 30
0.0
  0
VERTEX
  5
C8A
330
C80
100
AcDbEntity
  8
Visible (ANSI)
100
AcDbVertex
100
AcDb2dVertex
 10
151.7625311013194
 20
82.76900320472433
 30
0.0
  0
VERTEX
  5
C8B
330
C80
100
AcDbEntity
  8
Visible (ANSI)
100
AcDbVertex
100
AcDb2dVertex
 10
151.760934871815
 20
82.7663980464527
 30
0.0
  0
VERTEX
  5
C8C
330
C80
100
AcDbEntity
  8
Visible (ANSI)
100
AcDbVertex
100
AcDb2dVertex
 10
151.7597897966986
 20
82.76374289744078
 30
0.0
  0
VERTEX
  5
C8D
330
C80
100
AcDbEntity
  8
Visible (ANSI)
100
AcDbVertex
100
AcDb2dVertex
 10
151.7591007863402
 20
82.76105317312762
 30
0.0
  0
VERTEX
  5
C8E
330
C80
100
AcDbEntity
  8
Visible (ANSI)
100
AcDbVertex
100
AcDb2dVertex
 10
151.7588707896708
 20
82.75834443635204
 30
0.0
  0
VERTEX
  5
C8F
330
C80
100
AcDbEntity
  8
Visible (ANSI)
100
AcDbVertex
100
AcDb2dVertex
 10
151.7591007877662
 20
82.7556373870251
 30
0.0
  0
VERTEX
  5
C90
330
C80
100
AcDbEntity
  8
Visible (ANSI)
100
AcDbVertex
100
AcDb2dVertex
 10
151.7597897995506
 20
82.75294597526331
 30
0.0
  0
VERTEX
  5
C91
330
C80
100
AcDbEntity
  8
Visible (ANSI)
100
AcDbVertex
100
AcDb2dVertex
 10
151.760934871815
 20
82.75029082789371
 30
0.0
  0
VERTEX
  5
C92
330
C80
100
AcDbEntity
  8
Visible (ANSI)
100
AcDbVertex
100
AcDb2dVertex
 10
151.7625310991805
 20
82.74768735666013
 30
0.0
  0
VERTEX
  5
C93
330
C80
100
AcDbEntity
  8
Visible (ANSI)
100
AcDbVertex
100
AcDb2dVertex
 10
151.7645716540443
 20
82.74515075980254
 30
0.0
  0
VERTEX
  5
C94
330
C80
100
AcDbEntity
  8
Visible (ANSI)
100
AcDbVertex
100
AcDb2dVertex
 10
151.7670477951356
 20
82.74270099653799
 30
0.0
  0
VERTEX
  5
C95
330
C80
100
AcDbEntity
  8
Visible (ANSI)
100
AcDbVertex
100
AcDb2dVertex
 10
151.7699489131468
 20
82.74035091661712
 30
0.0
  0
VERTEX
  5
C96
330
C80
100
AcDbEntity
  8
Visible (ANSI)
100
AcDbVertex
100
AcDb2dVertex
 10
151.7732625934768
 20
82.73811968436588
 30
0.0
  0
VERTEX
  5
C97
330
C80
100
AcDbEntity
  8
Visible (ANSI)
100
AcDbVertex
100
AcDb2dVertex
 10
151.7769746418987
 20
82.7360209000302
 30
0.0
  0
VERTEX
  5
C98
330
C80
100
AcDbEntity
  8
Visible (ANSI)
100
AcDbVertex
100
AcDb2dVertex
 10
151.781069161563
 20
82.7340675939652
 30
0.0
  0
VERTEX
  5
C99
330
C80
100
AcDbEntity
  8
Visible (ANSI)
100
AcDbVertex
100
AcDb2dVertex
 10
151.7855286185926
 20
82.73227723396255
 30
0.0
  0
VERTEX
  5
C9A
330
C80
100
AcDbEntity
  8
Visible (ANSI)
100
AcDbVertex
100
AcDb2dVertex
 10
151.7903339276415
 20
82.73066153322295
 30
0.0
  0
SEQEND
  5
C83
330
C80
100
AcDbEntity
  8
Visible (ANSI)
  0
LINE
  5
C9B
330
6C
100
AcDbEntity
  8
Visible (ANSI)
100
AcDbLine
 10
152.0850489083028
 20
58.39483223419085
 30
0.0
 11
152.2005111036751
 21
58.46132249041749
 31
0.0
  0
LINE
  5
C9C
330
6C
100
AcDbEntity
  8
Visible (ANSI)
100
AcDbLine
 10
151.8492222340317
 20
82.81994030782193
 30
0.0
 11
151.7903339278697
 21
82.78602878766731
 31
0.0
  0
LINE
  5
C9D
330
6C
100
AcDbEntity
  8
Visible (ANSI)
100
AcDbLine
 10
151.8096470605291
 20
82.7749070942427
 30
0.0
 11
151.7903339278697
 21
82.78602878766731
 31
0.0
  0
LINE
  5
C9E
330
6C
100
AcDbEntity
  8
Visible (ANSI)
100
AcDbLine
 10
173.1173560740568
 20
70.50501949292602
 30
0.0
 11
173.1221077447852
 21
70.50187747402273
 31
0.0
  0
LINE
  5
C9F
330
6C
100
AcDbEntity
  8
Visible (ANSI)
100
AcDbLine
 10
173.0765785287151
 20
70.58065690991854
 30
0.0
 11
173.0769152444665
 21
70.57510767990796
 31
0.0
  0
LINE
  5
CA0
330
6C
100
AcDbEntity
  8
Visible Narrow (ANSI)
100
AcDbLine
 10
151.7903339278697
 20
58.17550508528703
 30
0.0
 11
173.0283965862455
 21
45.94531819720589
 31
0.0
  0
LINE
  5
CA1
330
6C
100
AcDbEntity
  8
Visible Narrow (ANSI)
100
AcDbLine
 10
173.180314058766
 20
70.46835844545109
 30
0.0
 11
173.180314058766
 21
45.97743358534461
 31
0.0
  0
LINE
  5
CA2
330
6C
100
AcDbEntity
  8
Visible Narrow (ANSI)
100
AcDbLine
 10
173.0283965862455
 20
45.94531819720589
 30
0.0
 11
173.0283965862455
 21
70.50047383358981
 31
0.0
  0
LINE
  5
CA3
330
6C
100
AcDbEntity
  8
Visible Narrow (ANSI)
100
AcDbLine
 10
151.8940696668779
 20
82.84622918173925
 30
0.0
 11
173.0765783197577
 21
70.64803371775949
 31
0.0
  0
LINE
  5
CA4
330
6C
100
AcDbEntity
  8
Visible Narrow (ANSI)
100
AcDbLine
 10
173.0283965862455
 20
70.50047383358981
 30
0.0
 11
151.7903339278697
 21
82.73066072167097
 31
0.0
  0
LINE
  5
CA5
330
6C
100
AcDbEntity
  8
Visible Narrow (ANSI)
100
AcDbLine
 10
151.7903339278697
 20
82.73066072167097
 30
0.0
 11
151.7903339278697
 21
58.17550508528703
 31
0.0
  0
LINE
  5
CA6
330
6C
100
AcDbEntity
  8
Visible (ANSI)
100
AcDbLine
 10
151.8266083841688
 20
58.11813924746091
 30
0.0
 11
173.0368256507594
 21
45.90398745405773
 31
0.0
  0
LINE
  5
CA7
330
6C
100
AcDbEntity
  8
Visible (ANSI)
100
AcDbLine
 10
151.75887078913
 20
82.75834475466915
 30
0.0
 11
151.75887078913
 21
58.23530450642394
 31
0.0
  0
LINE
  5
CA8
330
6C
100
AcDbEntity
  8
Visible (ANSI)
100
AcDbLine
 10
172.8024019451653
 20
46.54780270977784
 30
0.0
 11
172.6029133660402
 21
46.66268054227994
 31
0.0
  0
LINE
  5
CA9
330
6C
100
AcDbEntity
  8
Visible (ANSI)
100
AcDbLine
 10
162.5327808027748
 20
52.46168420930779
 30
0.0
 11
162.3332922236496
 21
52.57656204180989
 31
0.0
  0
LINE
  5
CAA
330
6C
100
AcDbEntity
  8
Visible (ANSI)
100
AcDbLine
 10
152.2631596603842
 20
58.37556570883774
 30
0.0
 11
152.2434798536751
 21
58.38689855580428
 31
0.0
  0
LINE
  5
CAB
330
6C
100
AcDbEntity
  8
Visible (ANSI)
100
AcDbLine
 10
173.5297242455632
 20
70.66957038996179
 30
0.0
 11
173.5297242455632
 21
46.17864552985531
 31
0.0
  0
LINE
  5
CAC
330
6C
100
AcDbEntity
  8
Visible (ANSI)
100
AcDbLine
 10
152.2434798536751
 20
83.04744112624993
 30
0.0
 11
173.425988506555
 21
70.84924566227016
 31
0.0
  0
LINE
  5
CAD
330
6C
100
AcDbEntity
  8
Visible (ANSI)
100
AcDbLine
 10
152.2005111036751
 20
58.46132249041749
 30
0.0
 11
152.2005111036751
 21
58.4850492865203
 31
0.0
  0
LINE
  5
CAE
330
6C
100
AcDbEntity
  8
Visible (ANSI)
100
AcDbLine
 10
152.2005111036751
 20
70.12864342361779
 30
0.0
 11
152.2005111036751
 21
70.35864385747562
 31
0.0
  0
LINE
  5
CAF
330
6C
100
AcDbEntity
  8
Visible (ANSI)
100
AcDbLine
 10
152.2005111036751
 20
82.0022379945731
 30
0.0
 11
152.2005111036751
 21
82.23223842843095
 31
0.0
  0
DIMENSION
  5
CB0
330
6C
100
AcDbEntity
  8
Dimension (ANSI)
100
AcDbDimension
280
     0
  2
*D13
 10
83.26140064163078
 20
59.99348875621605
 30
0.0
 11
91.44499949533331
 21
68.31055657246984
 31
0.0
 70
   163
  1
<>{\P(8PL.)}
 42
0.5629999999999999
 73
     0
 74
     0
 75
     0
  3
Default (ANSI)
100
AcDbDiametricDimension
 15
83.48201165623073
 25
60.51146537753905
 35
0.0
 40
0.0
1001
ACAD_DSTYLE_DIMRADIAL_EXTENSION
1070
   387
1070
     1
1070
   388
1040
0.0
1070
   390
1040
0.0
1001
ACAD
1000
DSTYLE
1002
{
1070
   145
1040
-0.25
1070
   144
1040
0.9999999999999705
1070
   271
1070
     3
1070
   272
1070
     2
1070
    48
1040
0.0
1070
    47
1040
0.0
1002
}
  0
MTEXT
  5
D6B
102
{ACAD_REACTORS
330
D6C
102
}
330
6C
100
AcDbEntity
  8
Symbol (ANSI)
100
AcDbMText
 10
119.4502046012059
 20
50.14537415478541
 30
0.0
 40
1.320000016313838
 41
5.398735896808894
 46
0.0
 71
     3
 72
     1
  1
{10 GA.\PC.R.S}
  7
Note Text (ANSI)
 73
     2
 44
0.9878841638565063
  0
LEADER
  5
D6C
330
6C
100
AcDbEntity
  8
Symbol (ANSI)
100
AcDbLeader
  3
Default (ANSI)$7
 73
     0
 40
3.933345209096401
 41
5.030006745583289
 76
     3
 10
125.3333575491123
 20
44.81929342312233
 30
0.0
 10
121.0982821236691
 20
49.48384643279203
 30
0.0
 10
119.7966612941193
 20
49.48537414662848
 30
0.0
340
D6B
210
0.0
220
0.0
230
-1.0
213
0.0
223
-0.6600000081569191
233
0.0
1001
ACAD
1000
DSTYLE
1002
{
1070
    77
1070
     0
1002
}
  0
LINE
  5
D6D
330
6C
100
AcDbEntity
  8
Center Mark (ANSI)
  6
Continuous
100
AcDbLine
 10
42.77820614893078
 20
81.37747706687758
 30
0.0
 11
39.46520614893078
 21
81.37747706687758
 31
0.0
  0
LINE
  5
D6E
330
6C
100
AcDbEntity
  8
Center Mark (ANSI)
  6
Continuous
100
AcDbLine
 10
41.12170614893078
 20
83.03397706687757
 30
0.0
 11
41.12170614893078
 21
79.72097706687758
 31
0.0
  0
LINE
  5
D6F
330
6C
100
AcDbEntity
  8
Center Mark (ANSI)
  6
Continuous
100
AcDbLine
 10
39.46520614893078
 20
39.12747706687758
 30
0.0
 11
42.77820614893078
 21
39.12747706687758
 31
0.0
  0
LINE
  5
D70
330
6C
100
AcDbEntity
  8
Center Mark (ANSI)
  6
Continuous
100
AcDbLine
 10
39.46520614893078
 20
81.37747706687758
 30
0.0
 11
42.77820614893078
 21
81.37747706687758
 31
0.0
  0
LINE
  5
D71
330
6C
100
AcDbEntity
  8
Centerline (ANSI)
  6
Continuous
100
AcDbLine
 10
41.12170614893078
 20
37.47097706687758
 30
0.0
 11
41.12170614893078
 21
83.03397706687757
 31
0.0
  0
LINE
  5
D72
330
6C
100
AcDbEntity
  8
Center Mark (ANSI)
  6
Continuous
100
AcDbLine
 10
63.90320614893078
 20
81.37747706687758
 30
0.0
 11
60.59020614893078
 21
81.37747706687758
 31
0.0
  0
LINE
  5
D73
330
6C
100
AcDbEntity
  8
Center Mark (ANSI)
  6
Continuous
100
AcDbLine
 10
63.90320614893078
 20
39.12747706687759
 30
0.0
 11
60.59020614893078
 21
39.12747706687759
 31
0.0
  0
LINE
  5
D74
330
6C
100
AcDbEntity
  8
Centerline (ANSI)
  6
Continuous
100
AcDbLine
 10
62.24670614893078
 20
83.03397706687757
 30
0.0
 11
62.24670614893078
 21
37.47097706687759
 31
0.0
  0
LINE
  5
D75
330
6C
100
AcDbEntity
  8
Center Mark (ANSI)
  6
Continuous
100
AcDbLine
 10
81.71520614893079
 20
39.12747706687759
 30
0.0
 11
85.02820614893076
 21
39.12747706687759
 31
0.0
  0
LINE
  5
D76
330
6C
100
AcDbEntity
  8
Center Mark (ANSI)
  6
Continuous
100
AcDbLine
 10
81.71520614893079
 20
81.37747706687758
 30
0.0
 11
85.02820614893076
 21
81.37747706687758
 31
0.0
  0
LINE
  5
D77
330
6C
100
AcDbEntity
  8
Centerline (ANSI)
  6
Continuous
100
AcDbLine
 10
83.37170614893079
 20
37.47097706687759
 30
0.0
 11
83.37170614893079
 21
83.03397706687757
 31
0.0
  0
LINE
  5
D78
330
6C
100
AcDbEntity
  8
Center Mark (ANSI)
  6
Continuous
100
AcDbLine
 10
41.12170614893078
 20
61.90897706687757
 30
0.0
 11
41.12170614893078
 21
58.59597706687758
 31
0.0
  0
LINE
  5
D79
330
6C
100
AcDbEntity
  8
Center Mark (ANSI)
  6
Continuous
100
AcDbLine
 10
83.37170614893075
 20
61.90897706687758
 30
0.0
 11
83.37170614893075
 21
58.59597706687758
 31
0.0
  0
LINE
  5
D7A
330
6C
100
AcDbEntity
  8
Centerline (ANSI)
  6
Continuous
100
AcDbLine
 10
39.46520614893078
 20
60.25247706687757
 30
0.0
 11
85.02820614893074
 21
60.25247706687758
 31
0.0
  0
LINE
  5
D7B
330
6C
100
AcDbEntity
  8
Center Mark (ANSI)
  6
Continuous
100
AcDbLine
 10
41.12170614893078
 20
40.78397706687758
 30
0.0
 11
41.12170614893078
 21
37.47097706687758
 31
0.0
  0
LINE
  5
D7C
330
6C
100
AcDbEntity
  8
Center Mark (ANSI)
  6
Continuous
100
AcDbLine
 10
83.37170614893079
 20
40.78397706687758
 30
0.0
 11
83.37170614893079
 21
37.47097706687759
 31
0.0
  0
LINE
  5
D7D
330
6C
100
AcDbEntity
  8
Centerline (ANSI)
  6
Continuous
100
AcDbLine
 10
39.46520614893078
 20
39.12747706687758
 30
0.0
 11
85.02820614893076
 21
39.12747706687759
 31
0.0
  0
LINE
  5
D7E
330
6C
100
AcDbEntity
  8
Center Mark (ANSI)
  6
Continuous
100
AcDbLine
 10
41.12170614893078
 20
83.03397706687757
 30
0.0
 11
41.12170614893078
 21
79.72097706687758
 31
0.0
  0
LINE
  5
D7F
330
6C
100
AcDbEntity
  8
Center Mark (ANSI)
  6
Continuous
100
AcDbLine
 10
83.37170614893079
 20
83.03397706687757
 30
0.0
 11
83.37170614893079
 21
79.72097706687758
 31
0.0
  0
LINE
  5
D80
330
6C
100
AcDbEntity
  8
Centerline (ANSI)
  6
Continuous
100
AcDbLine
 10
39.46520614893078
 20
81.37747706687758
 30
0.0
 11
85.02820614893076
 21
81.37747706687758
 31
0.0
  0
MTEXT
  5
D81
102
{ACAD_XDICTIONARY
360
D88
102
}
330
6C
100
AcDbEntity
  8
Symbol (ANSI)
100
AcDbMText
 10
103.3030968052571
 20
10.02114269245016
 30
0.0
 40
1.100000035105727
 41
81.2172581830363
 46
0.0
 71
     4
 72
     1
  3
{\fRomanS|b0|i0|c0|p2;\H2x;PART#: NPDD4848\P(DATA SUBJECT TO CHANGE WITHOUT NOTICE)\H1.6157x; \H0.61894x;\P \H1.352x; \H0.73963x;\P\H0.6x;THIS DRAWING IS PROPERTY OF HUBBELL INC. WIEGMANN\H1.5633x; \H0.63966x;\PALL INFORMATION IS PROPRIETARY AND NOT 
  1
TO BE DUPLICATED\H1.234x; \H0.81039x;\P\H1.2571x; }
  7
Note Text (ANSI)
 73
     1
 44
0.8026435375213623
  0
ENDSEC
  0
SECTION
  2
OBJECTS
  0
DICTIONARY
  5
C
330
0
100
AcDbDictionary
281
     1
  3
ACAD_CIP_PREVIOUS_PRODUCT_INFO
350
D83
  3
ACAD_COLOR
350
63
  3
ACAD_GROUP
350
D
  3
ACAD_LAYOUT
350
62
  3
ACAD_MATERIAL
350
10
  3
ACAD_MLEADERSTYLE
350
66
  3
ACAD_MLINESTYLE
350
5F
  3
ACAD_PLOTSETTINGS
350
61
  3
ACAD_PLOTSTYLENAME
350
E
  3
ACAD_SCALELIST
350
42
  3
ACAD_TABLESTYLE
350
64
  3
ACAD_VISUALSTYLE
350
29
  3
ACDB_RECOMPOSE_DATA
350
D8A
  3
AcDbVariableDictionary
350
76
  0
DICTIONARY
  5
D88
330
D81
100
AcDbDictionary
280
     1
281
     1
  3
ACAD_MTEXT_2008_RT
360
D89
  0
XRECORD
  5
D83
102
{ACAD_REACTORS
330
C
102
}
330
C
100
AcDbXrecord
280
     1
300
INVNTOR
300
2012
300
PDSP_F_S
  0
DICTIONARY
  5
63
102
{ACAD_REACTORS
330
C
102
}
330
C
100
AcDbDictionary
281
     1
  0
DICTIONARY
  5
D
102
{ACAD_REACTORS
330
C
102
}
330
C
100
AcDbDictionary
281
     1
  0
DICTIONARY
  5
62
102
{ACAD_REACTORS
330
C
102
}
330
C
100
AcDbDictionary
281
     1
  3
Layout1
350
6B
  3
Layout2
350
73
  3
Model
350
6F
  0
DICTIONARY
  5
10
102
{ACAD_REACTORS
330
C
102
}
330
C
100
AcDbDictionary
281
     1
  3
ByBlock
350
19
  3
ByLayer
350
11
  3
Global
350
21
  0
DICTIONARY
  5
66
102
{ACAD_REACTORS
330
C
102
}
330
C
100
AcDbDictionary
281
     1
  3
Standard
350
67
  0
DICTIONARY
  5
5F
102
{ACAD_REACTORS
330
C
102
}
330
C
100
AcDbDictionary
281
     1
  3
Standard
350
60
  0
DICTIONARY
  5
61
102
{ACAD_REACTORS
330
C
102
}
330
C
100
AcDbDictionary
281
     1
  0
ACDBDICTIONARYWDFLT
  5
E
102
{ACAD_REACTORS
330
C
102
}
330
C
100
AcDbDictionary
281
     1
  3
Normal
350
F
100
AcDbDictionaryWithDefault
340
F
  0
DICTIONARY
  5
42
102
{ACAD_REACTORS
330
C
102
}
330
C
100
AcDbDictionary
281
     1
  3
A0
350
43
  3
A1
350
44
  3
A2
350
45
  3
A3
350
46
  3
A4
350
47
  3
A5
350
48
  3
A6
350
49
  3
A7
350
4A
  3
A8
350
4B
  3
A9
350
4C
  3
B0
350
4D
  3
B1
350
4E
  3
B2
350
4F
  3
B3
350
50
  3
B4
350
51
  3
B5
350
52
  3
B6
350
53
  0
DICTIONARY
  5
64
102
{ACAD_REACTORS
330
C
102
}
330
C
100
AcDbDictionary
281
     1
  3
Standard
350
65
  0
DICTIONARY
  5
29
102
{ACAD_REACTORS
330
C
102
}
330
C
100
AcDbDictionary
281
     1
  3
2dWireframe
350
2F
  3
Basic
350
2E
  3
Brighten
350
35
  3
ColorChange
350
39
  3
Conceptual
350
32
  3
Dim
350
34
  3
EdgeColorOff
350
41
  3
Facepattern
350
38
  3
Flat
350
2A
  3
FlatWithEdges
350
2B
  3
Gouraud
350
2C
  3
GouraudWithEdges
350
2D
  3
Hidden
350
31
  3
JitterOff
350
3F
  3
Linepattern
350
37
  3
OverhangOff
350
40
  3
Realistic
350
33
  3
Shaded
350
3E
  3
Shaded with edges
350
3D
  3
Shades of Gray
350
3A
  3
Sketchy
350
3B
  3
Thicken
350
36
  3
Wireframe
350
30
  3
X-Ray
350
3C
  0
XRECORD
  5
D8A
102
{ACAD_REACTORS
330
C
102
}
330
C
100
AcDbXrecord
280
     1
 90
        1
330
65
330
D81
  0
DICTIONARY
  5
76
102
{ACAD_REACTORS
330
C
102
}
330
C
100
AcDbDictionary
281
     1
  3
CANNOSCALE
350
79
  3
CMLEADERSTYLE
350
78
  3
CTABLESTYLE
350
77
  0
XRECORD
  5
D89
102
{ACAD_REACTORS
330
D88
102
}
330
D88
100
AcDbXrecord
280
     1
 40
3068879.0
  1
\pxsm0.94;{\fRomanS|b0|i0;\H2.2000;PART#: NPDD4848\P(DATA SUBJECT TO CHANGE WITHOUT NOTICE)\P \P\fRomanS|b0|i0;\H1.3200;THIS DRAWING IS PROPERTY OF HUBBELL INC. WIEGMANN\PALL INFORMATION IS PROPRIETARY AND NOT TO BE DUPLICATED\P}
  0
LAYOUT
  5
6B
102
{ACAD_REACTORS
330
62
102
}
330
62
100
AcDbPlotSettings
  1

  2

  4

  6

 40
0.0
 41
0.0
 42
0.0
 43
0.0
 44
0.0
 45
0.0
 46
0.0
 47
0.0
 48
0.0
 49
0.0
140
0.0
141
0.0
142
1.0
143
1.0
 70
   688
 72
     0
 73
     0
 74
     5
  7

 75
    16
147
1.0
 76
     0
 77
     2
 78
   300
148
0.0
149
0.0
100
AcDbLayout
  1
Layout1
 70
     1
 71
     1
 10
0.0
 20
0.0
 11
12.0
 21
9.0
 12
0.0
 22
0.0
 32
0.0
 14
0.0
 24
0.0
 34
0.0
 15
0.0
 25
0.0
 35
0.0
146
0.0
 13
0.0
 23
0.0
 33
0.0
 16
1.0
 26
0.0
 36
0.0
 17
0.0
 27
1.0
 37
0.0
 76
     0
330
68
  0
LAYOUT
  5
73
102
{ACAD_REACTORS
330
62
102
}
330
62
100
AcDbPlotSettings
  1

  2

  4

  6

 40
0.0
 41
0.0
 42
0.0
 43
0.0
 44
0.0
 45
0.0
 46
0.0
 47
0.0
 48
0.0
 49
0.0
140
0.0
141
0.0
142
1.0
143
1.0
 70
   688
 72
     0
 73
     0
 74
     5
  7

 75
    16
147
1.0
 76
     0
 77
     2
 78
   300
148
0.0
149
0.0
100
AcDbLayout
  1
Layout2
 70
     1
 71
     2
 10
0.0
 20
0.0
 11
12.0
 21
9.0
 12
0.0
 22
0.0
 32
0.0
 14
0.0
 24
0.0
 34
0.0
 15
0.0
 25
0.0
 35
0.0
146
0.0
 13
0.0
 23
0.0
 33
0.0
 16
1.0
 26
0.0
 36
0.0
 17
0.0
 27
1.0
 37
0.0
 76
     0
330
70
  0
LAYOUT
  5
6F
102
{ACAD_REACTORS
330
62
102
}
330
62
100
AcDbPlotSettings
  1

  2

  4

  6

 40
0.0
 41
0.0
 42
0.0
 43
0.0
 44
0.0
 45
0.0
 46
0.0
 47
0.0
 48
0.0
 49
0.0
140
0.0
141
0.0
142
1.0
143
1.0
 70
  1712
 72
     0
 73
     0
 74
     0
  7

 75
     0
147
1.0
 76
     0
 77
     2
 78
   300
148
0.0
149
0.0
100
AcDbLayout
  1
Model
 70
     1
 71
     0
 10
0.0
 20
0.0
 11
12.0
 21
9.0
 12
0.0
 22
0.0
 32
0.0
 14
0.0
 24
0.0
 34
0.0
 15
0.0
 25
0.0
 35
0.0
146
0.0
 13
0.0
 23
0.0
 33
0.0
 16
1.0
 26
0.0
 36
0.0
 17
0.0
 27
1.0
 37
0.0
 76
     0
330
6C
  0
MATERIAL
  5
19
102
{ACAD_XDICTIONARY
360
1A
102
}
102
{ACAD_REACTORS
330
10
102
}
330
10
100
AcDbMaterial
  1
ByBlock
 72
     0
 43
0.0208333333333333
 43
0.0
 43
0.0
 43
0.0
 43
0.0
 43
0.0208333333333333
 43
0.0
 43
0.0
 43
0.0
 43
0.0
 43
1.0
 43
0.0
 43
0.0
 43
0.0
 43
0.0
 43
1.0
 77
     0
 47
0.0208333333333333
 47
0.0
 47
0.0
 47
0.0
 47
0.0
 47
0.0208333333333333
 47
0.0
 47
0.0
 47
0.0
 47
0.0
 47
1.0
 47
0.0
 47
0.0
 47
0.0
 47
0.0
 47
1.0
171
     0
 49
0.0208333333333333
 49
0.0
 49
0.0
 49
0.0
 49
0.0
 49
0.0208333333333333
 49
0.0
 49
0.0
 49
0.0
 49
0.0
 49
1.0
 49
0.0
 49
0.0
 49
0.0
 49
0.0
 49
1.0
175
     0
142
0.0208333333333333
142
0.0
142
0.0
142
0.0
142
0.0
142
0.0208333333333333
142
0.0
142
0.0
142
0.0
142
0.0
142
1.0
142
0.0
142
0.0
142
0.0
142
0.0
142
1.0
179
     0
144
0.0208333333333333
144
0.0
144
0.0
144
0.0
144
0.0
144
0.0208333333333333
144
0.0
144
0.0
144
0.0
144
0.0
144
1.0
144
0.0
144
0.0
144
0.0
144
0.0
144
1.0
147
0.0208333333333333
147
0.0
147
0.0
147
0.0
147
0.0
147
0.0208333333333333
147
0.0
147
0.0
147
0.0
147
0.0
147
1.0
147
0.0
147
0.0
147
0.0
147
0.0
147
1.0
  0
MATERIAL
  5
11
102
{ACAD_XDICTIONARY
360
12
102
}
102
{ACAD_REACTORS
330
10
102
}
330
10
100
AcDbMaterial
  1
ByLayer
 72
     0
 43
0.0208333333333333
 43
0.0
 43
0.0
 43
0.0
 43
0.0
 43
0.0208333333333333
 43
0.0
 43
0.0
 43
0.0
 43
0.0
 43
1.0
 43
0.0
 43
0.0
 43
0.0
 43
0.0
 43
1.0
 77
     0
 47
0.0208333333333333
 47
0.0
 47
0.0
 47
0.0
 47
0.0
 47
0.0208333333333333
 47
0.0
 47
0.0
 47
0.0
 47
0.0
 47
1.0
 47
0.0
 47
0.0
 47
0.0
 47
0.0
 47
1.0
171
     0
 49
0.0208333333333333
 49
0.0
 49
0.0
 49
0.0
 49
0.0
 49
0.0208333333333333
 49
0.0
 49
0.0
 49
0.0
 49
0.0
 49
1.0
 49
0.0
 49
0.0
 49
0.0
 49
0.0
 49
1.0
175
     0
142
0.0208333333333333
142
0.0
142
0.0
142
0.0
142
0.0
142
0.0208333333333333
142
0.0
142
0.0
142
0.0
142
0.0
142
1.0
142
0.0
142
0.0
142
0.0
142
0.0
142
1.0
179
     0
144
0.0208333333333333
144
0.0
144
0.0
144
0.0
144
0.0
144
0.0208333333333333
144
0.0
144
0.0
144
0.0
144
0.0
144
1.0
144
0.0
144
0.0
144
0.0
144
0.0
144
1.0
147
0.0208333333333333
147
0.0
147
0.0
147
0.0
147
0.0
147
0.0208333333333333
147
0.0
147
0.0
147
0.0
147
0.0
147
1.0
147
0.0
147
0.0
147
0.0
147
0.0
147
1.0
  0
MATERIAL
  5
21
102
{ACAD_XDICTIONARY
360
22
102
}
102
{ACAD_REACTORS
330
10
102
}
330
10
100
AcDbMaterial
  1
Global
 72
     0
 43
0.0208333333333333
 43
0.0
 43
0.0
 43
0.0
 43
0.0
 43
0.0208333333333333
 43
0.0
 43
0.0
 43
0.0
 43
0.0
 43
1.0
 43
0.0
 43
0.0
 43
0.0
 43
0.0
 43
1.0
 77
     0
 47
0.0208333333333333
 47
0.0
 47
0.0
 47
0.0
 47
0.0
 47
0.0208333333333333
 47
0.0
 47
0.0
 47
0.0
 47
0.0
 47
1.0
 47
0.0
 47
0.0
 47
0.0
 47
0.0
 47
1.0
171
     0
 49
0.0208333333333333
 49
0.0
 49
0.0
 49
0.0
 49
0.0
 49
0.0208333333333333
 49
0.0
 49
0.0
 49
0.0
 49
0.0
 49
1.0
 49
0.0
 49
0.0
 49
0.0
 49
0.0
 49
1.0
175
     0
142
0.0208333333333333
142
0.0
142
0.0
142
0.0
142
0.0
142
0.0208333333333333
142
0.0
142
0.0
142
0.0
142
0.0
142
1.0
142
0.0
142
0.0
142
0.0
142
0.0
142
1.0
179
     0
144
0.0208333333333333
144
0.0
144
0.0
144
0.0
144
0.0
144
0.0208333333333333
144
0.0
144
0.0
144
0.0
144
0.0
144
1.0
144
0.0
144
0.0
144
0.0
144
0.0
144
1.0
147
0.0208333333333333
147
0.0
147
0.0
147
0.0
147
0.0
147
0.0208333333333333
147
0.0
147
0.0
147
0.0
147
0.0
147
1.0
147
0.0
147
0.0
147
0.0
147
0.0
147
1.0
  0
MLEADERSTYLE
  5
67
102
{ACAD_XDICTIONARY
360
D86
102
}
102
{ACAD_REACTORS
330
66
102
}
330
66
100
AcDbMLeaderStyle
179
     2
170
     2
171
     1
172
     0
 90
        2
 40
0.0
 41
0.0
173
     1
 91
-1056964608
340
5B
 92
       -2
290
     1
 42
0.09
291
     1
 43
0.36
  3
Standard
 44
0.18
300

342
55
174
     1
178
     6
175
     1
176
     0
 93
-1056964608
 45
0.18
292
     0
297
     0
 46
0.18
 94
-1056964608
 47
1.0
 49
1.0
140
1.0
293
     1
141
0.0
294
     1
177
     0
142
1.0
295
     0
296
     0
143
0.125
271
     0
272
     9
273
     9
  0
MLINESTYLE
  5
60
102
{ACAD_REACTORS
330
5F
102
}
330
5F
100
AcDbMlineStyle
  2
STANDARD
 70
     0
  3

 62
   256
 51
90.0
 52
90.0
 71
     2
 49
0.5
 62
   256
  6
BYLAYER
 49
-0.5
 62
   256
  6
BYLAYER
  0
ACDBPLACEHOLDER
  5
F
102
{ACAD_REACTORS
330
E
102
}
330
E
  0
SCALE
  5
43
102
{ACAD_REACTORS
330
42
102
}
330
42
100
AcDbScale
 70
     0
300
1:1
140
1.0
141
1.0
290
     1
  0
SCALE
  5
44
102
{ACAD_REACTORS
330
42
102
}
330
42
100
AcDbScale
 70
     0
300
1/128" = 1'-0"
140
0.0078125
141
12.0
290
     0
  0
SCALE
  5
45
102
{ACAD_REACTORS
330
42
102
}
330
42
100
AcDbScale
 70
     0
300
1/64" = 1'-0"
140
0.015625
141
12.0
290
     0
  0
SCALE
  5
46
102
{ACAD_REACTORS
330
42
102
}
330
42
100
AcDbScale
 70
     0
300
1/32" = 1'-0"
140
0.03125
141
12.0
290
     0
  0
SCALE
  5
47
102
{ACAD_REACTORS
330
42
102
}
330
42
100
AcDbScale
 70
     0
300
1/16" = 1'-0"
140
0.0625
141
12.0
290
     0
  0
SCALE
  5
48
102
{ACAD_REACTORS
330
42
102
}
330
42
100
AcDbScale
 70
     0
300
3/32" = 1'-0"
140
0.09375
141
12.0
290
     0
  0
SCALE
  5
49
102
{ACAD_REACTORS
330
42
102
}
330
42
100
AcDbScale
 70
     0
300
1/8" = 1'-0"
140
0.125
141
12.0
290
     0
  0
SCALE
  5
4A
102
{ACAD_REACTORS
330
42
102
}
330
42
100
AcDbScale
 70
     0
300
3/16" = 1'-0"
140
0.1875
141
12.0
290
     0
  0
SCALE
  5
4B
102
{ACAD_REACTORS
330
42
102
}
330
42
100
AcDbScale
 70
     0
300
1/4" = 1'-0"
140
0.25
141
12.0
290
     0
  0
SCALE
  5
4C
102
{ACAD_REACTORS
330
42
102
}
330
42
100
AcDbScale
 70
     0
300
3/8" = 1'-0"
140
0.375
141
12.0
290
     0
  0
SCALE
  5
4D
102
{ACAD_REACTORS
330
42
102
}
330
42
100
AcDbScale
 70
     0
300
1/2" = 1'-0"
140
0.5
141
12.0
290
     0
  0
SCALE
  5
4E
102
{ACAD_REACTORS
330
42
102
}
330
42
100
AcDbScale
 70
     0
300
3/4" = 1'-0"
140
0.75
141
12.0
290
     0
  0
SCALE
  5
4F
102
{ACAD_REACTORS
330
42
102
}
330
42
100
AcDbScale
 70
     0
300
1" = 1'-0"
140
1.0
141
12.0
290
     0
  0
SCALE
  5
50
102
{ACAD_REACTORS
330
42
102
}
330
42
100
AcDbScale
 70
     0
300
1-1/2" = 1'-0"
140
1.5
141
12.0
290
     0
  0
SCALE
  5
51
102
{ACAD_REACTORS
330
42
102
}
330
42
100
AcDbScale
 70
     0
300
3" = 1'-0"
140
3.0
141
12.0
290
     0
  0
SCALE
  5
52
102
{ACAD_REACTORS
330
42
102
}
330
42
100
AcDbScale
 70
     0
300
6" = 1'-0"
140
6.0
141
12.0
290
     0
  0
SCALE
  5
53
102
{ACAD_REACTORS
330
42
102
}
330
42
100
AcDbScale
 70
     0
300
1'-0" = 1'-0"
140
12.0
141
12.0
290
     0
  0
TABLESTYLE
  5
65
102
{ACAD_XDICTIONARY
360
D84
102
}
102
{ACAD_REACTORS
330
64
102
}
330
64
100
AcDbTableStyle
280
     0
  3
Standard
 70
     0
 71
     0
 40
0.06
 41
0.06
280
     0
281
     0
  7
Standard
140
0.18
170
     2
 62
     0
 63
     7
283
     0
 90
      512
 91
        0
  1

274
    -2
284
     1
 64
     0
275
    -2
285
     1
 65
     0
276
    -2
286
     1
 66
     0
277
    -2
287
     1
 67
     0
278
    -2
288
     1
 68
     0
279
    -2
289
     1
 69
     0
  7
Standard
140
0.25
170
     5
 62
     0
 63
     7
283
     0
 90
      512
 91
        0
  1

274
    -2
284
     1
 64
     0
275
    -2
285
     1
 65
     0
276
    -2
286
     1
 66
     0
277
    -2
287
     1
 67
     0
278
    -2
288
     1
 68
     0
279
    -2
289
     1
 69
     0
  7
Standard
140
0.18
170
     5
 62
     0
 63
     7
283
     0
 90
      512
 91
        0
  1

274
    -2
284
     1
 64
     0
275
    -2
285
     1
 65
     0
276
    -2
286
     1
 66
     0
277
    -2
287
     1
 67
     0
278
    -2
288
     1
 68
     0
279
    -2
289
     1
 69
     0
  0
VISUALSTYLE
  5
2F
102
{ACAD_REACTORS
330
29
102
}
330
29
100
AcDbVisualStyle
  2
2dWireframe
 70
     4
177
     2
291
     0
 71
     0
176
     1
 72
     2
176
     1
 73
     0
176
     1
 90
        0
176
     1
 40
0.6
176
     1
 41
30.0
176
     1
 63
     7
421
 16777215
176
     1
 74
     1
176
     1
 91
        4
176
     1
 64
     7
176
     1
 65
   257
176
     1
 75
     1
176
     1
175
     1
176
     1
 42
1.0
176
     1
 92
        0
176
     1
 66
   257
176
     1
 43
1.0
176
     1
 76
     1
176
     1
 77
     6
176
     1
 78
     2
176
     1
 67
     7
176
     1
 79
     5
176
     1
170
     0
176
     1
171
     0
176
     1
290
     0
176
     1
 93
        1
176
     1
 44
0.0
176
     1
173
     0
176
     1
  0
VISUALSTYLE
  5
2E
102
{ACAD_REACTORS
330
29
102
}
330
29
100
AcDbVisualStyle
  2
Basic
 70
     7
177
     2
291
     1
 71
     1
176
     1
 72
     0
176
     1
 73
     1
176
     1
 90
        0
176
     1
 40
0.6
176
     1
 41
30.0
176
     1
 63
     7
421
 16777215
176
     1
 74
     0
176
     1
 91
        4
176
     1
 64
     7
176
     1
 65
   257
176
     1
 75
     1
176
     1
175
     1
176
     1
 42
1.0
176
     1
 92
        8
176
     1
 66
     7
176
     1
 43
1.0
176
     1
 76
     1
176
     1
 77
     6
176
     1
 78
     2
176
     1
 67
     7
176
     1
 79
     5
176
     1
170
     0
176
     1
171
     0
176
     1
290
     0
176
     1
 93
        1
176
     1
 44
0.0
176
     1
173
     0
176
     1
  0
VISUALSTYLE
  5
35
102
{ACAD_REACTORS
330
29
102
}
330
29
100
AcDbVisualStyle
  2
Brighten
 70
    12
177
     2
291
     1
 71
     2
176
     1
 72
     2
176
     1
 73
     0
176
     1
 90
        0
176
     1
 40
0.6
176
     1
 41
30.0
176
     1
 63
     7
421
 16777215
176
     1
 74
     1
176
     1
 91
        4
176
     1
 64
     7
176
     1
 65
   257
176
     1
 75
     1
176
     1
175
     1
176
     1
 42
1.0
176
     1
 92
        8
176
     1
 66
     7
176
     1
 43
1.0
176
     1
 76
     1
176
     1
 77
     6
176
     1
 78
     2
176
     1
 67
     7
176
     1
 79
     5
176
     1
170
     0
176
     1
171
     0
176
     1
290
     0
176
     1
 93
        1
176
     1
 44
50.0
176
     1
173
     0
176
     1
  0
VISUALSTYLE
  5
39
102
{ACAD_REACTORS
330
29
102
}
330
29
100
AcDbVisualStyle
  2
ColorChange
 70
    16
177
     2
291
     1
 71
     2
176
     1
 72
     2
176
     1
 73
     3
176
     1
 90
        0
176
     1
 40
0.6
176
     1
 41
30.0
176
     1
 63
     8
421
  8421504
176
     1
 74
     1
176
     1
 91
        4
176
     1
 64
     7
176
     1
 65
   257
176
     1
 75
     1
176
     1
175
     1
176
     1
 42
1.0
176
     1
 92
        8
176
     1
 66
     8
424
  8421504
176
     1
 43
1.0
176
     1
 76
     1
176
     1
 77
     6
176
     1
 78
     2
176
     1
 67
     7
176
     1
 79
     5
176
     1
170
     0
176
     1
171
     0
176
     1
290
     0
176
     1
 93
        1
176
     1
 44
0.0
176
     1
173
     0
176
     1
  0
VISUALSTYLE
  5
32
102
{ACAD_REACTORS
330
29
102
}
330
29
100
AcDbVisualStyle
  2
Conceptual
 70
     9
177
     2
291
     0
 71
     3
176
     1
 72
     2
176
     1
 73
     0
176
     1
 90
        0
176
     1
 40
0.6
176
     1
 41
30.0
176
     1
 63
     7
421
 16777215
176
     1
 74
     2
176
     1
 91
        2
176
     1
 64
     7
176
     1
 65
   257
176
     1
 75
     1
176
     1
175
     1
176
     1
 42
179.0
176
     1
 92
        8
176
     1
 66
     7
176
     1
 43
1.0
176
     1
 76
     1
176
     1
 77
     6
176
     1
 78
     2
176
     1
 67
     7
176
     1
 79
     3
176
     1
170
     0
176
     1
171
     0
176
     1
290
     0
176
     1
 93
        1
176
     1
 44
0.0
176
     1
173
     0
176
     1
  0
VISUALSTYLE
  5
34
102
{ACAD_REACTORS
330
29
102
}
330
29
100
AcDbVisualStyle
  2
Dim
 70
    11
177
     2
291
     1
 71
     2
176
     1
 72
     2
176
     1
 73
     0
176
     1
 90
        0
176
     1
 40
0.6
176
     1
 41
30.0
176
     1
 63
     7
421
 16777215
176
     1
 74
     1
176
     1
 91
        4
176
     1
 64
     7
176
     1
 65
   257
176
     1
 75
     1
176
     1
175
     1
176
     1
 42
1.0
176
     1
 92
        8
176
     1
 66
     7
176
     1
 43
1.0
176
     1
 76
     1
176
     1
 77
     6
176
     1
 78
     2
176
     1
 67
     7
176
     1
 79
     5
176
     1
170
     0
176
     1
171
     0
176
     1
290
     0
176
     1
 93
        1
176
     1
 44
-50.0
176
     1
173
     0
176
     1
  0
VISUALSTYLE
  5
41
102
{ACAD_REACTORS
330
29
102
}
330
29
100
AcDbVisualStyle
  2
EdgeColorOff
 70
    22
177
     2
291
     1
 71
     2
176
     0
 72
     2
176
     0
 73
     0
176
     0
 90
        0
176
     0
 40
0.6
176
     0
 41
30.0
176
     0
 63
     7
421
 16777215
176
     0
 74
     1
176
     0
 91
        4
176
     0
 64
     7
176
     0
 65
   257
176
     0
 75
     1
176
     0
175
     1
176
     0
 42
1.0
176
     0
 92
        8
176
     2
 66
     7
176
     0
 43
1.0
176
     0
 76
     1
176
     0
 77
     6
176
     0
 78
     2
176
     0
 67
     7
176
     0
 79
     5
176
     0
170
     0
176
     0
171
     0
176
     0
290
     0
176
     0
 93
        1
176
     0
 44
0.0
176
     0
173
     0
176
     0
  0
VISUALSTYLE
  5
38
102
{ACAD_REACTORS
330
29
102
}
330
29
100
AcDbVisualStyle
  2
Facepattern
 70
    15
177
     2
291
     1
 71
     2
176
     1
 72
     2
176
     1
 73
     0
176
     1
 90
        0
176
     1
 40
0.6
176
     1
 41
30.0
176
     1
 63
     7
421
 16777215
176
     1
 74
     1
176
     1
 91
        4
176
     1
 64
     7
176
     1
 65
   257
176
     1
 75
     1
176
     1
175
     1
176
     1
 42
1.0
176
     1
 92
        8
176
     1
 66
     7
176
     1
 43
1.0
176
     1
 76
     1
176
     1
 77
     6
176
     1
 78
     2
176
     1
 67
     7
176
     1
 79
     5
176
     1
170
     0
176
     1
171
     0
176
     1
290
     0
176
     1
 93
        1
176
     1
 44
0.0
176
     1
173
     0
176
     1
  0
VISUALSTYLE
  5
2A
102
{ACAD_REACTORS
330
29
102
}
330
29
100
AcDbVisualStyle
  2
Flat
 70
     0
177
     2
291
     1
 71
     2
176
     1
 72
     1
176
     1
 73
     1
176
     1
 90
        2
176
     1
 40
0.6
176
     1
 41
30.0
176
     1
 63
     7
421
 16777215
176
     1
 74
     0
176
     1
 91
        0
176
     1
 64
     7
176
     1
 65
   257
176
     1
 75
     1
176
     1
175
     1
176
     1
 42
1.0
176
     1
 92
        8
176
     1
 66
     7
176
     1
 43
1.0
176
     1
 76
     1
176
     1
 77
     6
176
     1
 78
     2
176
     1
 67
     7
176
     1
 79
     5
176
     1
170
     0
176
     1
171
     0
176
     1
290
     0
176
     1
 93
       13
176
     1
 44
0.0
176
     1
173
     0
176
     1
  0
VISUALSTYLE
  5
2B
102
{ACAD_REACTORS
330
29
102
}
330
29
100
AcDbVisualStyle
  2
FlatWithEdges
 70
     1
177
     2
291
     1
 71
     2
176
     1
 72
     1
176
     1
 73
     1
176
     1
 90
        2
176
     1
 40
0.6
176
     1
 41
30.0
176
     1
 63
     7
421
 16777215
176
     1
 74
     1
176
     1
 91
        0
176
     1
 64
     7
176
     1
 65
   257
176
     1
 75
     1
176
     1
175
     1
176
     1
 42
1.0
176
     1
 92
        0
176
     1
 66
   257
176
     1
 43
1.0
176
     1
 76
     1
176
     1
 77
     6
176
     1
 78
     2
176
     1
 67
     7
176
     1
 79
     5
176
     1
170
     0
176
     1
171
     0
176
     1
290
     0
176
     1
 93
       13
176
     1
 44
0.0
176
     1
173
     0
176
     1
  0
VISUALSTYLE
  5
2C
102
{ACAD_REACTORS
330
29
102
}
330
29
100
AcDbVisualStyle
  2
Gouraud
 70
     2
177
     2
291
     1
 71
     2
176
     1
 72
     2
176
     1
 73
     1
176
     1
 90
        2
176
     1
 40
0.6
176
     1
 41
30.0
176
     1
 63
     7
421
 16777215
176
     1
 74
     0
176
     1
 91
        0
176
     1
 64
     7
176
     1
 65
   257
176
     1
 75
     1
176
     1
175
     1
176
     1
 42
1.0
176
     1
 92
        0
176
     1
 66
     7
176
     1
 43
1.0
176
     1
 76
     1
176
     1
 77
     6
176
     1
 78
     2
176
     1
 67
     7
176
     1
 79
     5
176
     1
170
     0
176
     1
171
     0
176
     1
290
     0
176
     1
 93
       13
176
     1
 44
0.0
176
     1
173
     0
176
     1
  0
VISUALSTYLE
  5
2D
102
{ACAD_REACTORS
330
29
102
}
330
29
100
AcDbVisualStyle
  2
GouraudWithEdges
 70
     3
177
     2
291
     1
 71
     2
176
     1
 72
     2
176
     1
 73
     1
176
     1
 90
        2
176
     1
 40
0.6
176
     1
 41
30.0
176
     1
 63
     7
421
 16777215
176
     1
 74
     1
176
     1
 91
        0
176
     1
 64
     7
176
     1
 65
   257
176
     1
 75
     1
176
     1
175
     1
176
     1
 42
1.0
176
     1
 92
        0
176
     1
 66
   257
176
     1
 43
1.0
176
     1
 76
     1
176
     1
 77
     6
176
     1
 78
     2
176
     1
 67
     7
176
     1
 79
     5
176
     1
170
     0
176
     1
171
     0
176
     1
290
     0
176
     1
 93
       13
176
     1
 44
0.0
176
     1
173
     0
176
     1
  0
VISUALSTYLE
  5
31
102
{ACAD_REACTORS
330
29
102
}
330
29
100
AcDbVisualStyle
  2
Hidden
 70
     6
177
     2
291
     0
 71
     1
176
     1
 72
     2
176
     1
 73
     2
176
     1
 90
        0
176
     1
 40
0.6
176
     1
 41
30.0
176
     1
 63
     7
421
 16777215
176
     1
 74
     2
176
     1
 91
        2
176
     1
 64
     7
176
     1
 65
   257
176
     1
 75
     2
176
     1
175
     1
176
     1
 42
40.0
176
     1
 92
        0
176
     1
 66
   257
176
     1
 43
1.0
176
     1
 76
     1
176
     1
 77
     6
176
     1
 78
     2
176
     1
 67
     7
176
     1
 79
     3
176
     1
170
     0
176
     1
171
     0
176
     1
290
     0
176
     1
 93
        1
176
     1
 44
0.0
176
     1
173
     0
176
     1
  0
VISUALSTYLE
  5
3F
102
{ACAD_REACTORS
330
29
102
}
330
29
100
AcDbVisualStyle
  2
JitterOff
 70
    20
177
     2
291
     1
 71
     2
176
     0
 72
     2
176
     0
 73
     0
176
     0
 90
        0
176
     0
 40
0.6
176
     0
 41
30.0
176
     0
 63
     7
421
 16777215
176
     0
 74
     1
176
     0
 91
        4
176
     0
 64
     7
176
     0
 65
   257
176
     0
 75
     1
176
     0
175
     1
176
     0
 42
1.0
176
     0
 92
       10
176
     2
 66
     7
176
     0
 43
1.0
176
     0
 76
     1
176
     0
 77
     6
176
     0
 78
     2
176
     0
 67
     7
176
     0
 79
     5
176
     0
170
     0
176
     0
171
     0
176
     0
290
     0
176
     0
 93
        1
176
     0
 44
0.0
176
     0
173
     0
176
     0
  0
VISUALSTYLE
  5
37
102
{ACAD_REACTORS
330
29
102
}
330
29
100
AcDbVisualStyle
  2
Linepattern
 70
    14
177
     2
291
     1
 71
     2
176
     1
 72
     2
176
     1
 73
     0
176
     1
 90
        0
176
     1
 40
0.6
176
     1
 41
30.0
176
     1
 63
     7
421
 16777215
176
     1
 74
     1
176
     1
 91
        4
176
     1
 64
     7
176
     1
 65
   257
176
     1
 75
     7
176
     1
175
     7
176
     1
 42
1.0
176
     1
 92
        8
176
     1
 66
     7
176
     1
 43
1.0
176
     1
 76
     1
176
     1
 77
     6
176
     1
 78
     2
176
     1
 67
     7
176
     1
 79
     5
176
     1
170
     0
176
     1
171
     0
176
     1
290
     0
176
     1
 93
        1
176
     1
 44
0.0
176
     1
173
     0
176
     1
  0
VISUALSTYLE
  5
40
102
{ACAD_REACTORS
330
29
102
}
330
29
100
AcDbVisualStyle
  2
OverhangOff
 70
    21
177
     2
291
     1
 71
     2
176
     0
 72
     2
176
     0
 73
     0
176
     0
 90
        0
176
     0
 40
0.6
176
     0
 41
30.0
176
     0
 63
     7
421
 16777215
176
     0
 74
     1
176
     0
 91
        4
176
     0
 64
     7
176
     0
 65
   257
176
     0
 75
     1
176
     0
175
     1
176
     0
 42
1.0
176
     0
 92
        9
176
     2
 66
     7
176
     0
 43
1.0
176
     0
 76
     1
176
     0
 77
     6
176
     0
 78
     2
176
     0
 67
     7
176
     0
 79
     5
176
     0
170
     0
176
     0
171
     0
176
     0
290
     0
176
     0
 93
        1
176
     0
 44
0.0
176
     0
173
     0
176
     0
  0
VISUALSTYLE
  5
33
102
{ACAD_REACTORS
330
29
102
}
330
29
100
AcDbVisualStyle
  2
Realistic
 70
     8
177
     2
291
     0
 71
     2
176
     1
 72
     3
176
     1
 73
     0
176
     1
 90
        2
176
     1
 40
0.6
176
     1
 41
30.0
176
     1
 63
     7
421
 16777215
176
     1
 74
     0
176
     1
 91
        0
176
     1
 64
     7
176
     1
 65
   257
176
     1
 75
     1
176
     1
175
     1
176
     1
 42
1.0
176
     1
 92
        8
176
     1
 66
   257
176
     1
 43
1.0
176
     1
 76
     1
176
     1
 77
     6
176
     1
 78
     2
176
     1
 67
     7
176
     1
 79
     3
176
     1
170
     0
176
     1
171
     0
176
     1
290
     0
176
     1
 93
       13
176
     1
 44
0.0
176
     1
173
     0
176
     1
  0
VISUALSTYLE
  5
3E
102
{ACAD_REACTORS
330
29
102
}
330
29
100
AcDbVisualStyle
  2
Shaded
 70
    27
177
     2
291
     0
 71
     2
176
     1
 72
     2
176
     1
 73
     1
176
     1
 90
        2
176
     1
 40
0.6
176
     1
 41
30.0
176
     1
 63
     7
421
 16777215
176
     1
 74
     0
176
     1
 91
        4
176
     1
 64
     7
176
     1
 65
   257
176
     1
 75
     1
176
     1
175
     1
176
     1
 42
1.0
176
     1
 92
        8
176
     1
 66
   257
176
     1
 43
1.0
176
     1
 76
     1
176
     1
 77
     6
176
     1
 78
     2
176
     1
 67
     8
425
  7895160
176
     1
 79
     3
176
     1
170
     0
176
     1
171
     0
176
     1
290
     0
176
     1
 93
        5
176
     1
 44
0.0
176
     1
173
     0
176
     1
  0
VISUALSTYLE
  5
3D
102
{ACAD_REACTORS
330
29
102
}
330
29
100
AcDbVisualStyle
  2
Shaded with edges
 70
    26
177
     2
291
     0
 71
     2
176
     1
 72
     2
176
     1
 73
     1
176
     1
 90
        2
176
     1
 40
0.6
176
     1
 41
30.0
176
     1
 63
     7
421
 16777215
176
     1
 74
     1
176
     1
 91
       10
176
     1
 64
     7
176
     1
 65
   257
176
     1
 75
     2
176
     1
175
     1
176
     1
 42
1.0
176
     1
 92
        8
176
     1
 66
   257
176
     1
 43
1.0
176
     1
 76
     1
176
     1
 77
     6
176
     1
 78
     2
176
     1
 67
     7
176
     1
 79
     3
176
     1
170
     0
176
     1
171
     0
176
     1
290
     0
176
     1
 93
        5
176
     1
 44
0.0
176
     1
173
     0
176
     1
  0
VISUALSTYLE
  5
3A
102
{ACAD_REACTORS
330
29
102
}
330
29
100
AcDbVisualStyle
  2
Shades of Gray
 70
    23
177
     2
291
     0
 71
     2
176
     1
 72
     2
176
     1
 73
     3
176
     1
 90
        0
176
     1
 40
0.6
176
     1
 41
30.0
176
     1
 63
     7
421
 16777215
176
     1
 74
     2
176
     1
 91
        2
176
     1
 64
     7
176
     1
 65
     7
176
     1
 75
     1
176
     1
175
     1
176
     1
 42
40.0
176
     1
 92
        8
176
     1
 66
     7
176
     1
 43
1.0
176
     1
 76
     1
176
     1
 77
     6
176
     1
 78
     2
176
     1
 67
     7
176
     1
 79
     3
176
     1
170
     0
176
     1
171
     0
176
     1
290
     0
176
     1
 93
        1
176
     1
 44
0.0
176
     1
173
     0
176
     1
  0
VISUALSTYLE
  5
3B
102
{ACAD_REACTORS
330
29
102
}
330
29
100
AcDbVisualStyle
  2
Sketchy
 70
    24
177
     2
291
     0
 71
     1
176
     1
 72
     2
176
     1
 73
     2
176
     1
 90
        0
176
     1
 40
0.6
176
     1
 41
30.0
176
     1
 63
     7
421
 16777215
176
     1
 74
     2
176
     1
 91
        2
176
     1
 64
     7
176
     1
 65
     7
176
     1
 75
     1
176
     1
175
     1
176
     1
 42
40.0
176
     1
 92
       11
176
     1
 66
     7
176
     1
 43
1.0
176
     1
 76
     1
176
     1
 77
     6
176
     1
 78
     2
176
     1
 67
     7
176
     1
 79
     6
176
     1
170
     0
176
     1
171
     0
176
     1
290
     0
176
     1
 93
        1
176
     1
 44
0.0
176
     1
173
     0
176
     1
  0
VISUALSTYLE
  5
36
102
{ACAD_REACTORS
330
29
102
}
330
29
100
AcDbVisualStyle
  2
Thicken
 70
    13
177
     2
291
     1
 71
     2
176
     1
 72
     2
176
     1
 73
     0
176
     1
 90
        0
176
     1
 40
0.6
176
     1
 41
30.0
176
     1
 63
     7
421
 16777215
176
     1
 74
     1
176
     1
 91
        4
176
     1
 64
     7
176
     1
 65
   257
176
     1
 75
     1
176
     1
175
     1
176
     1
 42
1.0
176
     1
 92
       12
176
     1
 66
     7
176
     1
 43
1.0
176
     1
 76
     1
176
     1
 77
     6
176
     1
 78
     2
176
     1
 67
     7
176
     1
 79
     5
176
     1
170
     0
176
     1
171
     0
176
     1
290
     0
176
     1
 93
        1
176
     1
 44
0.0
176
     1
173
     0
176
     1
  0
VISUALSTYLE
  5
30
102
{ACAD_REACTORS
330
29
102
}
330
29
100
AcDbVisualStyle
  2
Wireframe
 70
     5
177
     2
291
     0
 71
     0
176
     1
 72
     2
176
     1
 73
     0
176
     1
 90
        0
176
     1
 40
0.6
176
     1
 41
30.0
176
     1
 63
     7
421
 16777215
176
     1
 74
     1
176
     1
 91
        4
176
     1
 64
     7
176
     1
 65
   257
176
     1
 75
     1
176
     1
175
     1
176
     1
 42
1.0
176
     1
 92
        0
176
     1
 66
   257
176
     1
 43
1.0
176
     1
 76
     1
176
     1
 77
     6
176
     1
 78
     2
176
     1
 67
     7
176
     1
 79
     3
176
     1
170
     0
176
     1
171
     0
176
     1
290
     0
176
     1
 93
        1
176
     1
 44
0.0
176
     1
173
     0
176
     1
  0
VISUALSTYLE
  5
3C
102
{ACAD_REACTORS
330
29
102
}
330
29
100
AcDbVisualStyle
  2
X-Ray
 70
    25
177
     2
291
     0
 71
     2
176
     1
 72
     2
176
     1
 73
     1
176
     1
 90
        1
176
     1
 40
0.5
176
     1
 41
30.0
176
     1
 63
     7
421
 16777215
176
     1
 74
     1
176
     1
 91
        0
176
     1
 64
     7
176
     1
 65
   257
176
     1
 75
     1
176
     1
175
     1
176
     1
 42
1.0
176
     1
 92
        8
176
     1
 66
     7
176
     1
 43
1.0
176
     1
 76
     1
176
     1
 77
     6
176
     1
 78
     2
176
     1
 67
     7
176
     1
 79
     3
176
     1
170
     0
176
     1
171
     0
176
     1
290
     0
176
     1
 93
       13
176
     1
 44
0.0
176
     1
173
     0
176
     1
  0
DICTIONARYVAR
  5
79
102
{ACAD_REACTORS
330
76
102
}
330
76
100
DictionaryVariables
280
     0
  1
1:1
  0
DICTIONARYVAR
  5
78
102
{ACAD_REACTORS
330
76
102
}
330
76
100
DictionaryVariables
280
     0
  1
STANDARD
  0
DICTIONARYVAR
  5
77
102
{ACAD_REACTORS
330
76
102
}
330
76
100
DictionaryVariables
280
     0
  1
STANDARD
  0
DICTIONARY
  5
1A
330
19
100
AcDbDictionary
280
     1
281
     1
  3
BUMPTILE
360
1C
  3
DIFFUSETILE
360
1B
  3
OPACITYTILE
360
1F
  3
REFLECTIONTILE
360
1E
  3
REFRACTIONTILE
360
20
  3
SPECULARTILE
360
1D
  0
DICTIONARY
  5
12
330
11
100
AcDbDictionary
280
     1
281
     1
  3
BUMPTILE
360
14
  3
DIFFUSETILE
360
13
  3
FBXASSET
360
109
  3
OPACITYTILE
360
17
  3
REFLECTIONTILE
360
16
  3
REFRACTIONTILE
360
18
  3
SPECULARTILE
360
15
  0
DICTIONARY
  5
22
330
21
100
AcDbDictionary
280
     1
281
     1
  3
BUMPTILE
360
24
  3
DIFFUSETILE
360
23
  3
FBXASSET
360
BA
  3
OPACITYTILE
360
27
  3
REFLECTIONTILE
360
26
  3
REFRACTIONTILE
360
28
  3
SPECULARTILE
360
25
  0
DICTIONARY
  5
D86
330
67
100
AcDbDictionary
280
     1
281
     1
  3
ACAD_XREC_ROUNDTRIP
360
D87
  0
DICTIONARY
  5
D84
330
65
100
AcDbDictionary
280
     1
281
     1
  3
ACAD_ROUNDTRIP_2008_TABLESTYLE_CELLSTYLEMAP
360
D85
  0
XRECORD
  5
1C
102
{ACAD_REACTORS
330
1A
102
}
330
1A
100
AcDbXrecord
280
     1
270
     1
271
     1
  0
XRECORD
  5
1B
102
{ACAD_REACTORS
330
1A
102
}
330
1A
100
AcDbXrecord
280
     1
270
     1
271
     1
  0
XRECORD
  5
1F
102
{ACAD_REACTORS
330
1A
102
}
330
1A
100
AcDbXrecord
280
     1
270
     1
271
     1
  0
XRECORD
  5
1E
102
{ACAD_REACTORS
330
1A
102
}
330
1A
100
AcDbXrecord
280
     1
270
     1
271
     1
  0
XRECORD
  5
20
102
{ACAD_REACTORS
330
1A
102
}
330
1A
100
AcDbXrecord
280
     1
270
     1
271
     1
  0
XRECORD
  5
1D
102
{ACAD_REACTORS
330
1A
102
}
330
1A
100
AcDbXrecord
280
     1
270
     1
271
     1
  0
XRECORD
  5
14
102
{ACAD_REACTORS
330
12
102
}
330
12
100
AcDbXrecord
280
     1
270
     1
271
     1
  0
XRECORD
  5
13
102
{ACAD_REACTORS
330
12
102
}
330
12
100
AcDbXrecord
280
     1
270
     1
271
     1
  0
XRECORD
  5
109
102
{ACAD_REACTORS
330
12
102
}
330
12
100
AcDbXrecord
280
     1
 70
     1
 90
1959938040
 71
     1
  1
EC1A5D89-7200-4285-AB20-32330CFAFA4C
311
504B03040A00000800009054D5423DEE336E79000000790000001B0000006175746F6465736B2D64657369676E2D7061636B6167652E786D6C3C3F786D6C2076657273696F6E3D22312E302220656E636F64696E673D227574662D3822203F3E3C666F726D6174733E3C666F726D61743E687474703A2F2F736368656D612E
311
6175746F6465736B2E636F6D2F64657369676E2D7061636B6167652F323030393C2F666F726D61743E3C2F666F726D6174733E504B03041400060808009054D542D486FD9CA0000000F4000000130000005B436F6E74656E745F54797065735D2E786D6C7D8EC10E82300C865F65E91D8A1E8C310C0EEA1BF002731658846E
311
D98AC1B77784ABF1D8FE5FBFBF75BBCE937A534CCEB38643598122B6FEE978D0B0485F9C41B54DDD7D022595594E1A469170414C76A4D9A4D207E29CF43ECE46F218070CC6BECC4078ACAA135ACF422C856C0E68EA1BF5669944DDD7BCDE7B1F8E415D77AECB980613C2E4AC91FC167A2B244592486606FC29C8FD7F045B9A
311
EF7053A7E60B504B03041400060808009054D542ED0B82F2EB0000007C01000008000000636F72652E786D6C8D90416EC3201045AF82665B6183719CC4C24472139FA01740405C94182C03558F5F9C3852BBEB86197DFE9B197D7EFA9EEEE8CB2CC17AD7012D0820E394D7D68D1DA478C5074027C117EFE32F1B202727D3C1
311
2A83E0E3E2D3BC49CABB685CCCAAF3DA6CA20CC14440EA9E9B0E82FA34932C648AD9116EC52CD54D8EA6A0AF2EC329598D9E4BACCEF3ECD59A05C4AEEADFCF75D3E3231D18AE0F970A1F1ADAE46718684FF6977A7FE6E50A0B1EEDF4DAAF1623A3D1202A4219260DAEE807252D6B5AC6DEC8AE658497ABFD0F9466FD4F2859
311
1759B59DFBC402089A0F797C085EAE59E4F2082AD73537F103504B03041400060808009054D54255019EA25F0000007C00000007000000636E782E786D6C4DCB3B0E80201045D1AD90E915ED2CF8AC45050C11660C8261F98AB1B07AC9C97D42D718D865D3E909258CFD00CCE24AC6E326A164D74DC0B4128928FF32603847
311
2BA13128B1252AC747C6BAB984FC68F0B87FE8960A5C09FE86CFB69FBA01504B03041400060808009054D5427DB1D86167010000020300000C0000006662782F636F72652E786D6C8D52ED8E8230107C95A67F2F500A889E2935F1D427B817A850B946684969898F7FCB87E1BC1863484A33B3B33B3BC076B7A646BDB49D32
311
3AC7348C3092BA30A5D2558EBDBB041B8C769C5963DC9F328CB468648E0718735659E3DB192A8C76523B40B529E50C8AAE930EA3A2864B8EBBE247362214DE4145770D5B515C4525431A020D759C75CE8201340D194ECC2FE71B2313CE99F7AA9C5955C2347551D262BE8AF75F8734DB079FF49404E9E618079B8C66709C4E
311
741FAD8FE9FAC0C820E6CCA9E6EEAEB0523859621E473409A22C88E9378DB649B64D928F68B54D224686F207916FCB37455E6997C4B3DD49D6614EC1C848FCDB162272A8133DF8219C912144788D093F060D8140C84E9CEBFB1E57807A59386353604AE317AA17B597303542E3C3C8C442E7B1016CF6B44FFCA2CFEB1EF001
311
85AEC09A70703D7B374C67D3D4398A56DAA07737A48D6D44BD989B2C2EE732E8A9BC30B5B1EFA8C9BC2A99C324C3DFCB7F01504B03041400060808009054D542C591D4E87D0000009D0000000B0000006662782F636E782E786D6C4DCCDF0A83201C86E15B91DFB995A04B418DF6C7FB886521330DA7B1CB5F8D0E76F4C1C3
311
C72BBBCFE2D166D3DBC5A080540D201B9E7174615650F28439A04ECB1463FEBB010AC362151C0C5ACE2996F5A4D14E43F17957EFC2EB442A3833A66F30BF5F1F98B28BC03DA702B784514A446B98B841AD65FD2BED7B84F517504B03041400060808009054D5424377A4CF2A01000010020000310000006662782F34393835
311
464641302D384442452D343536392D413834392D3731353434313937463539432F636F72652E786D6C8D515B6EC32010BC0AE2AB55850D3676EC0813A58F9CA0177080A42831583CAA1CBF503B52FB971F16CDCECC0E2CDBDDA62BF856CE6B6B06480A0C8132C24A6DCE038CE1843A08769C396BC31F1A04669CD400330C39
311
3B3B1BE71512D6046542428D956A0547EF5580405CD365805E7CA9692CC61812C35F8A791497F1AC0A52A476E271E6834B01C032249F90D3BE6B0E873D46DDFBEB07A24DDBA37D477BB4210DA5A4DF1C9AFE8D958B90B318B55CE55AA638FAA4957BD4248B390B7ABAC7174E8D4149C82B4C6A845B54914F82B775BBADEB17
311
DC6C6BCCCA4CFF278AB37C5014B50975B5C65D641E72C2CAA5C199B4F178BD8751B7D9BA00F2BC27AFC433E4B8C0A46A58B9D0D2E3935F4B573F1FAC4B9FFB7439262649AC6CDA52CECABC9F547E97976ADE25FF01504B03041400060808009054D54206264CC14E01000033030000300000006662782F3439383546464130
311
2D384442452D343536392D413834392D3731353434313937463539432F636E782E786D6CD593CD6EC32010845F0571ADFC17A756156122F5D027E8A1570C9B840683C54FD5BC7D9784A4B9E4D0632FC89A1D66569F30DB7ECF867C810FDAD99176754B0958E994B6FB91A6B8AB5E28D972E69D8B77364AAC9861A459A69CED
311
BD4B4B9114EC44321155A3EDB1881E824B5E424039DF24C6496130006C9550847902A540919B11BF76E0711514A7138907206FAF1FC44D9F2063604D4EE1ACC91D9CE5B334DD992891468430D2200F308B5AA4E8148463AD441475575FBB1EECF49B44F2856B65F29AE4F291E693F2B2518D1C598343CE42F448AF98E26901
311
CAC5B2182D4544C8CDD978F17096B48DC3BA783582F7E8EE867EBDC6B0F38CB3A867280EE941445094AFDAAEAFDAA15A75EF5DBBE9874DDF3FB5CF9BBE654DB673363967CA258C01EF16229D8D6023E51D6BF2F811BEE2234A7B64EDFCE90F20114069BDD0B965FC673ECDF97D232E8F7F01FF01504B030414000608080090
311
54D542EDE3B5E0A505000081100000340000006662782F34393835464641302D384442452D343536392D413834392D3731353434313937463539432F6F626A656374732E786D6CAD57DB6EDB3810FD1541FBB2FB20CBB29D3659282A1CBB298C366D5123C53E1830288952B8A12E20A9D4D9AFDF43899225C74EBD8BBEE8C2
311
CB70E6CC990BFD77BB8C5B4F544856E4D7B6371ADB16CDA32266797A6D572A712E6DEB5DE08BA250BD65B695938C5EDB7AD80EFC5414556986629A908AAB83D1DB9BBF2C19D19CDA56C48994D7B68C1E684646A452454CE5E328268A8CD26437F246CDC2A1D85490F2E140684904CD1534C5780E2956A39437FC1DDB6EE0BB
311
7A3EF0F5D3AC9A9E5EE5D6F60CCF67B954248F5E1C762066EACD96EF271757CEC56C3675666F269E73737BB374BCB7D3F1E2CD6271357F7F8583A5129064341134B1830FC046B0C8779BA9C0AF58AEA613B3C438C815F489694FD9C1C4F27CB759D359678C3CA67E54E4398D6AAC80466D9F111DD392E6317CCEA884663D84
311
C6C35F4FE3D89B9EEA7F73647FF83C04FA3B7A825ADDDB775FD322FC1B26C873182424D50C6CB03486365C1DEF110E8B829B3926AD8C282A18E11667A120E2D90EB0542F09FC8118CD64A1A3415B6007F042333DA40BC2E8E73C3FA6655271AE696C0775146C112B54C95A33F60F157BEDFBC84027F84AB3E1D218A49E4B6A
311
07570D452E0FD8D40069259CA47039CCD43BA7930343173A4E574B3BF8781BEED63A768F1F5E8AA2A44269FA805AADE3DAB746C9E8E49DE539BDC13E50650FCA3720FF19A1BE57057E136C37DBCDCC294A905C2685C8E01B6B6C39633CC696573FF577EFCB77BBCD43EF9DC213CED650FD023C8736F47DD98333F09F40F842
311
4C8D69EB8870A48D3B9603204D128B1718421E4EC29D1DAC90E59095B18BF0C083C950F7099FBE6BC42051D427F5DE39B03C488B672468C05633126A34E4370AEEFDF4229DD5079B65A7E0BDF825749D2FD71FD795484844EF4C4C2F69C272A650E2F6BCE92B34C07C60D1237DFE51881886BEC47BDDC73B334749A0AD31D7
311
C0A76D4ED73FFB93070744D897163ADDF83F390146E8C2DA937FC764443927392DAAF6DC57EB07CA4603B10E76CDE4AEC0EC0B0B48D3CC1CC4208A742458A941ECAA5597344727ACBB5F7D0623EDE0E6F91379EE67AF709F7BA38217621B3E6F9BB47414EAEF436E1B0C5C2D0574AF83A48D7F03FA366649524924C123B87E
311
5F2DFABED3690129A295DA44CB0CF623B88830A46DE5A25A0B824A5AE45B86BA89B83B7A405F3E20350CA8059ED258529E6C19E755B64D184735DA66A43C01C7FFD73FACB2724BB2A2CAD509D903D5511D86BA0FD82B7F10153DD8C1BA7E3B37C8BD318D4F9041D79223580D5CFB7EE1CD2F969757CEDBC978ECCC269717CE
311
FC663276A693291AA8DBF9ED7C06D38D46751315F86DA9E94734BC84D2E6578219F7DDAF103F2609D8C11D5172F3A109CFF67DBF1AA117F65DEC41BDEC36CEE327F47D34FEB980FDCAA3825659C969467345740CDDE90FFE8DA0CF1828D38CAF3292D233A47CF9B03E30062367ECFBAAE39DFE38D86B46173A208F0A510F55
311
16E684F1838D6983E4A8CC53835FEB93EEDD149AF657FF19C7A03395056731F2606CA5B4C8A842363CA308898C4A50AFDFD3C7E6EE71C6EEA7A6435424E4B4D5E481A049E61261019257911A8E5BBFA1A9D37DD5B58D723B7AC4C3640ADB0267AE6D34E98A45548E421468DD0AD5C2C1A57E270FCE923CE5E8B59B4DDD7FB7
311
4B633328C9DD9273FA27635793C28D01482325FA063444F04EAD4CE0D7BA99F9E83F19DEAA631185CFB0529D2DFB81CE98FA1884686394B92DA089793447EF10A8AF9BE58DEA350344CEBA65BD4A8246AAA38848EB9B82D6CFA8345F7E75D1A158AB2F56C9AB14BE3C5F922328C85CE900078BC00A23B3240A545DFCB9F92A
311
0ADC6433EB968102D6EFBBCB377F6C164596157933B4999BFBB0B57EC0ED36DE2039507D2D919BC9D89B6CEAEB80B9A16C4322E988C4F21103F0AC601DD003F78397CD9D1175A899E8D6B9DA15070C5D2D2D53D866106AE8D2CFAD1A1C341E39B51043FA4AA923A6BFA07CF546E0D64BA182402F1FFC0B504B030414000608
311
00009054D542000000000000000000000000350000006662782F34393835464641302D384442452D343536392D413834392D3731353434313937463539432F76657274696365732E62696E504B03041400060808009054D542F270F1330600000004000000360000006662782F34393835464641302D384442452D34353639
311
2D413834392D3731353434313937463539432F747269616E676C65732E62696E636660600000504B03041400060800009054D542000000000000000000000000370000006662782F34393835464641302D384442452D343536392D413834392D3731353434313937463539432F617474726962757465732E62696E504B0304
311
1400060808009054D542D5987DFC8F00000041010000360000006662782F34393835464641302D384442452D343536392D413834392D3731353434313937463539432F6469726563746F72792E786D6C858F410EC2201045AF4266AF15DDB800BA74E7C21B903225242D6328188F2FA5C4183471359997F9FF81E89FF3C41E
311
1816475E02DF1F80A11FC8386F25A438EECEC07A250251FC3803E6F58C12560C4AD840E95E91C151A72936F496F35732D860FE635F62C8F2DA16B505C545B74125BAA2FA9E05D7CC053D063734D5C7665FD55B6B8D15D5E9BFEAFD8490FFA45E504B03041400060808009054D54285E1DFC3FD000000A00100003B00000066
311
62782F34393835464641302D384442452D343536392D413834392D3731353434313937463539432F7265736F75726365732F636F72652E786D6C8D504B6E833010BD0A9A6D05D898900419474D134ED00B586642AD041BF953F5F835814AEDAE9B99D1FB689E1E3F7D4D8FEC139DD7D674400B02191A65076DC60E62B8E507
311
C84E823B6BC32F1964464ED8C10283E0A3B371DE20654D4013126AEC801B28BDC700997AA4A303AF3E7092858C2129FCBD98A5BACB110B5A243AE904F7C1A500D9FA6499201C7A1B9D42CFCB95153C463D6C1A3DA49FFAA6D181D855E7B74BDDBCE647DAB3BC3E5CABFCD0D0268DBEA767B2BFD6FB0B2F17B3E0414F3F1995
311
431970005111CA72D2E4157DA7A4654DCBD80BD9B58CF07291FF31C579F8A7296A1358B5C55D6D1E044D419E84E0E5D2575ACF32D35EBA15DF504B010214000A00000800009054D5423DEE336E79000000790000001B00000000000000000000000000000000006175746F6465736B2D64657369676E2D7061636B6167652E
311
786D6C504B010214001400060808009054D542D486FD9CA0000000F40000001300000000000000000000000000B20000005B436F6E74656E745F54797065735D2E786D6C504B010214001400060808009054D542ED0B82F2EB0000007C010000080000000000000000000000000083010000636F72652E786D6C504B010214
311
001400060808009054D54255019EA25F0000007C000000070000000000000000000000000094020000636E782E786D6C504B010214001400060808009054D5427DB1D86167010000020300000C00000000000000000000000000180300006662782F636F72652E786D6C504B010214001400060808009054D542C591D4E87D
311
0000009D0000000B00000000000000000000000000A90400006662782F636E782E786D6C504B010214001400060808009054D5424377A4CF2A0100001002000031000000000000000000000000004F0500006662782F34393835464641302D384442452D343536392D413834392D3731353434313937463539432F636F7265
311
2E786D6C504B010214001400060808009054D54206264CC14E010000330300003000000000000000000000000000C80600006662782F34393835464641302D384442452D343536392D413834392D3731353434313937463539432F636E782E786D6C504B010214001400060808009054D542EDE3B5E0A50500008110000034
311
00000000000000000000000000640800006662782F34393835464641302D384442452D343536392D413834392D3731353434313937463539432F6F626A656374732E786D6C504B010214001400060800009054D54200000000000000000000000035000000000000000000000000005B0E00006662782F3439383546464130
311
2D384442452D343536392D413834392D3731353434313937463539432F76657274696365732E62696E504B010214001400060808009054D542F270F13306000000040000003600000000000000000000000000AE0E00006662782F34393835464641302D384442452D343536392D413834392D373135343431393746353943
311
2F747269616E676C65732E62696E504B010214001400060800009054D5420000000000000000000000003700000000000000000000000000080F00006662782F34393835464641302D384442452D343536392D413834392D3731353434313937463539432F617474726962757465732E62696E504B01021400140006080800
311
9054D542D5987DFC8F0000004101000036000000000000000000000000005D0F00006662782F34393835464641302D384442452D343536392D413834392D3731353434313937463539432F6469726563746F72792E786D6C504B010214001400060808009054D54285E1DFC3FD000000A00100003B00000000000000000000
311
000000401000006662782F34393835464641302D384442452D343536392D413834392D3731353434313937463539432F7265736F75726365732F636F72652E786D6C504B0506000000000E000E0080040000961100000000
310
504B03040A00000800009054D5423DEE336E79000000790000001B0000006175746F6465736B2D64657369676E2D7061636B6167652E786D6C3C3F786D6C2076657273696F6E3D22312E302220656E636F64696E673D227574662D3822203F3E3C666F726D6174733E3C666F726D61743E687474703A2F2F736368656D612E
310
6175746F6465736B2E636F6D2F64657369676E2D7061636B6167652F323030393C2F666F726D61743E3C2F666F726D6174733E504B03041400060808009054D542D486FD9CA0000000F4000000130000005B436F6E74656E745F54797065735D2E786D6C7D8EC10E82300C865F65E91D8A1E8C310C0EEA1BF002731658846E
310
D98AC1B77784ABF1D8FE5FBFBF75BBCE937A534CCEB38643598122B6FEE978D0B0485F9C41B54DDD7D022595594E1A469170414C76A4D9A4D207E29CF43ECE46F218070CC6BECC4078ACAA135ACF422C856C0E68EA1BF5669944DDD7BCDE7B1F8E415D77AECB980613C2E4AC91FC167A2B244592486606FC29C8FD7F045B9A
310
EF7053A7E60B504B03041400060808009054D542A9D53383EA0000007C01000008000000636F72652E786D6C8D90D16E842010457F85CC6B8382A83106D96C6DFD82FE0001D6925DC10834FDFCE2AE9BB46F7D9AC99D7B6626979FBE971BFA325BB0DE0D400B02C838E5B575F300295E7007E824F8E67DFC6503E4E46206D8
310
65107CDE7C5A0F4979178D8B59755E9B439421980848DD723340509F6691854C313BC2B558A5BACAD914F4D9653825ABD1E388D5799FBD58B38118C76E1A2BDAE0A6AEDF715DB309BF76E70A8F8C4C533B9D47CADE78B9C38247BB3CEFABCDC86834888A5086498B2BFA4149CFDA9EB117D2F48CF072B7FF81D2AAFF0925EB
310
22AB8E771F580041F323F781E0E59E452EF7A072DD73133F504B03041400060808009054D54255019EA25F0000007C00000007000000636E782E786D6C4DCB3B0E80201045D1AD90E915ED2CF8AC45050C11660C8261F98AB1B07AC9C97D42D718D865D3E909258CFD00CCE24AC6E326A164D74DC0B4128928FF326038472B
310
A13128B1252AC747C6BAB984FC68F0B87FE8960A5C09FE86CFB69FBA01504B03041400060808009054D54299993D2167010000020300000C0000006662782F636F72652E786D6C8D525B6E833010BC8AE5DF0A6C3089A2C8384A6939412FE0804351C0467EA01CBFCB234A5345518564AC999DDDD9017EB8F61D1A9575ADD1
310
394E628A91D295A95BDDE438F873B4C3E820B835C6FF2AC348CB5EE57882B1E08D356158A1CA68AFB407549B5AADA0744E798CAA0E2E3976D5B7EA652C83870A778907595D64A3E224061AEA0477DE8201B40C994E2CCEA72B270B2E78086DBDB26D0DD3DA73AB2C1645B12B8B34D9449B2CFB8CB28C95D1FBEE984605A365
310
B92D8F45C23E3899C482FBB6BFB9ABAC925ED558A4346111DD4669F295D03DDBEE197BA39B3DA39C4CE50FA230D4FF1485567B96AE761799C322012333F1675B88C8232747F04304275388F09A137E0C1A028190BD3C75B73D2E008DAAF2C666C0D426DCA9517641C1548AE687938585CE7303D8EC699FF4459FD73DE0034A
310
DD8035E9E17A0A7E9ACE97A96B1483B2D1E8AF481BDBCBEE6E6EB1783FEF839ECA2BD319FB1F355957256B9864FA7BC50F504B03041400060808009054D542CBA666847E0000009D0000000B0000006662782F636E782E786D6C4DCCD10E82201886E15B61FF39F9175AB0012EC3EEC3253AA64223685D7EDA3CE8E8DB9E7D
310
7B65FD5966F2B6F1E58257703C2010EB1FA1777E5490D34039905ACB1842FABB01F1DD62156C0C5A8E31E4E74EBD1DBA3CA75567E7A71D056F6E2D67865EDA0A6969CC950A713F5134153B23678865038596C5AFB4EE16D65F504B03041400060808009054D542BB7F2AFF2C01000014020000310000006662782F39384243
310
453833442D374535302D344444412D393946322D3044353336303833303034422F636F72652E786D6C8D515B6E833010BC8AE5AF5695C1C64049641C35253D412F40C049AD041BF951E5F85D1722B57FF9F15AB333B3A35DB1BB4D57F4AD9CD7D6B49865142365063B6A736E710C27D260B493C2591BFED03032FDA45A9C60
310
2CC5D9D938AFD0604D5026006AECA856B0F75E058C862B7C5AEC872F35F5591F0330FC259BFBE1D29F55C63268034F0A1F1C0440CB90F462B969F6EF878677E4F550515276DD1BD96C3E0A42BB8AD7B4E194967B912F422962D4E32AD723C4D127ADDCA326492C45D0D33DFEE0541FD48865411927B42605FB6474CBEB2DE7
310
2FB4DA722AF244FF278AF3F8A0286A1378B1C65D641E4B26F2A521C568E3F17A0FA36EB37501A5794F5E0DCF58D28CB2A2A4550592850A0B00CFBA5C3D7DB00E16FC7439029B032B19D7A51479BA1194DF03424DF7943F504B03041400060808009054D542608183D65501000033030000300000006662782F393842434538
310
33442D374535302D344444412D393946322D3044353336303833303034422F636E782E786D6CBD93CD6E022114855F85B06DE6CFB11363184CBAE81374D12DC255A90C4CF869EADBF7A268DDB868D2744326E71ECEB9F9C2B0CDD764C827F8A09D1D6957B79480954E69BB1F698ABB6A45C98633EF5CBCB35162C50423CD32
310
E56CEF5D9A8BA460279289A81A6D8F45F4105CF21202CAF926314E0A830160AB84224C5B500A14B919F16B071E5741717B22F100E4F5E59DB8ED07C818589353386B720767F92C4D77264AA411218C34C8034CA216293A05E1582B1145DDD5D7AE073BFD24917CE15A99BC26B97CA4F9A4BC6C542347D6E090B3103DD22BA6
310
789A817231CF464B11117273365E3C9C256DE3B02C5E8DE03DBAFBC5B05A61D879C659D4131487F4202228CA176DD757ED502DBAB7AE5DF7C3BAEF9FDAE775DFB226DB39DB3A67CA258C01EF66229D8D6023E51D6BF2F811BEE2234A7B64EDFCE91720114069BDD0B965FC259F6EE897CB7FE4D39CDF37E2F2F817F06F504B
310
03041400060808009054D5423B7F8DCE630700009A1B0000340000006662782F39384243453833442D374535302D344444412D393946322D3044353336303833303034422F6F626A656374732E786D6CED59DD73A33610FF5718FAD23E181BDBB94B3A848EE35C6E3CD75C6FEADE4D1F3CC3C820133542309248E2FEF55D7D
310
80819804F7D2B73ED8809056BBBFFDD412FCF29451E70173417276E9FADEC475308BF384B0F4D22DE56E74EE3ABF8401CF73D998E63A0C65F8D255C36E18A43C2F0B3B94E01D2AA9EC8CDE5CFDE9881833EC3A3145425CBA22BEC319F25029F3048B7B2F411279E9EEC9F33D33B14D36E5A8B8EB102D10C74C02A730CE808A
310
6398F2DB8F13771C0663F53E0CD4BF9D351B346BDE3F6BACA56E7349989088C5CF58EA90990D6269E6CFAF3F4CCF2E4667F3F96C347F37F547573757D723FFFD6CB27CB75C5E2C3E5C007BDB3CA756A604179825A0BFBD1BFAC158BDA945B7081CE33ACE19C3B10612A0D2627509122C60AB067C93F6A3AF246ABCD612369E
310
E7EABD65A1313C6B53E99B350C88165D10C46E57495C5D9BF2E5DBBF407031C428B9C012B8159283762D3C1CBCC20D27C1D88C86C1F6A00B229C0C49CC09A20E255B8E382805A6AA296160165832CA3938907294045A73E675DBB6C0335F779D635CEE4A4A9567B8A176AC08DC0F4BA139237F637EE0BE890CF004D29684C9
310
73CBA5DC17D80D2F82B11E0C0375994DED4B03A4B3A328151A11F3B623E852B9FEEADA0D3FDD6C9FD62A1C1CDFBCE07981B95446A7F4A8F90243B6578592DDD61FA439B5008431A0DA9507507E07E43F43F438B0027AE3E469FE34B77325474CEC729E816E9C89339AC0DFC4F1F5BFBA6FDC05E37A715B7B7D78829B2AA8CE
310
BF1FCFB60C1A2BCB7F03CE30780083CFF9CCBE5AC788823DDF120600292371680E4310DA77DB27375C41E084400FAB100D7D1019D87D80DB606CC91CB452B997F53A0688DA3D66439404B0698B04367AF4F411B20727F1414D4D11FBE03D7B13735D5CAF3FAD4BBE4331BEB53E7D8D7784110959F338432DCC5B12DDE3FD63
310
CE1310F439DEEB26DE99DD4A00DA0A73057C5A81A01E0E3BB73688615D9AAB7013BCB20308A1727583FE2D1131A614319C97D5BE757453865A7BBCAD19DC706A209E4D3B26CCF10351550538CD61468B51C8FB31278502D10D3F1AC9EAA0E9F548F775F5192CB29EDF336BC520F43244FFD041EB080E2DCBAE90B640D4026F
310
0FE13CCE69CEA3ED3E3291CE855A02D8687BCBB7165188F546498A0A7890F6BB2AA4A446DA2821BB5D2920AE1E61F1DB6AD934878937F3CF9CE67FC719E7106DC17711B77ED7D92322194A71B44349DF76CDDD6ADA4293EC21CDF18E825CE481C87D84643449707A0A342711BF7853EA29CD85200C0BC85747C16FA231F120
310
90186D562C2BAD76802622CAB044F4140414991E7075DAD1356E0CA5C3EB3CD6D6FB92C69A44FF238BE0086AC99C45044A51C821AF32EE7B671043DAE81A943BF882B555B4B518B4841222DE478F98A477F214D40DF91EDC6338929432CA0B1483590F20FBCC5794523BBC6F517CAFF2471497F4AD0C4460BA8B08A56516C1
310
8F3038790C71ED3A30BD884283B8897D126750942159F2219BBC3B9B3CDBC7D40CDD10D8D868472884ED2843450FEAAD80A8EB11A706DF52EF51EAB6CC8A086579C906198A37EB7A9325DF55AB223B905F552A42D95811B604C380305967D52A6683A9EBC00A6EA403D53E12282BA83985BD9278FCDA9B34E5DE0DB8F5D3B7
310
DD2083C2AF477BCD883AAF60B03CB60A03F188647CE7866B7D1D5D41FD9DE0E490EAAB5AB3590102622A92979C58157D5D4179636B3437BC45526C3E9AAC5B5DBFAE3CE87E04635803B54BBD70A580CE3093485526B7EA86FE8E2004B76898F195CAA9A750592489AE1A11BD217DEA6C9511AD4D33E2157798E519FCD886B0
310
989609DEA044DC47B792466BA258B7527A19A9307E51C0DF3EAE3BF0C0C80091BEA8020F3F76D6DAD1A52A978E12917765B6658840106C89961ADD78054BAD462A2DD75775A680BA0B0CCCAA78FEFFC9A2D98EF8FF64915AC3F8AE93C5D5FE57B46FF6451AE93C56767DD231A0CE4F8ACA5B1C0374DBA1A65A671193CCADFC
310
D69922088A55941F5C8D5541C310ECE3F85F67EDBE2C68B6EBF07F5AD6F69F551C276595D664D5A53A52B9AE9A39ECC3D25F9C5D9F5F8CDE4F2793D17C7A7E365A5C4D27A3D974061DDA9BC5CD62BEACD1D48E1A067530D3B90B9E4D50AB86D593C500BAB222A72481D37CE2A41862BE8433FD80F639CFB080E4D96C7627B6
310
293F60F583E9734AB4A5B8E2E40E4183980A48EB805119CBF6B8F303B426251CB42F5D681A79F7F067ADD27520F35CBAD02A9024C6C2DB429B4935F4347148B93AF75B62800F62A94A896651FD5CAF52D8B4C27F3D65481AB072B57A1850B815D0FD6A7528346F96A7F824C12B761C24E1765B4AA8D68C2C87815A18BDCD41
310
FD46364AD8BDDDFA095CF765B17C4FCF692132E893C18B4660A88E24E2A9EE772BC62C4B8BEB2F63E8B339ABDF9C829629E87238A511C760CCA52AA8C08AC02A2CCD024930D5E5CF9B2F3C874F3C99A3AB22E7C7A7F3773F6D967996E5CC0C6D16702A4BE04391B3BE83CF3EC9068A07AC9AEB62339DF8D38D6E6ADB3E7BB4
310
45027BAA2A8281AA985082744C0EECF25983CAB62FC74A159DE9AB6BC706516806183B7AD6E3351FB91CF021F53945798CF6F34ADA17FBDA633D156C8243473AFC07504B03041400060800009054D542000000000000000000000000350000006662782F39384243453833442D374535302D344444412D393946322D304435
310
3336303833303034422F76657274696365732E62696E504B03041400060808009054D542F270F1330600000004000000360000006662782F39384243453833442D374535302D344444412D393946322D3044353336303833303034422F747269616E676C65732E62696E636660600000504B03041400060800009054D54200
310
0000000000000000000000370000006662782F39384243453833442D374535302D344444412D393946322D3044353336303833303034422F617474726962757465732E62696E504B03041400060808009054D542D5987DFC8F00000041010000360000006662782F39384243453833442D374535302D344444412D39394632
310
2D3044353336303833303034422F6469726563746F72792E786D6C858F410EC2201045AF4266AF15DDB800BA74E7C21B903225242D6328188F2FA5C4183471359997F9FF81E89FF3C41E1816475E02DF1F80A11FC8386F25A438EECEC07A250251FC3803E6F58C12560C4AD840E95E91C151A72936F496F35732D860FE635F
310
62C8F2DA16B505C545B74125BAA2FA9E05D7CC053D063734D5C7665FD55B6B8D15D5E9BFEAFD8490FFA45E504B03041400060808009054D542BA7E1D1BFD000000A00100003B0000006662782F39384243453833442D374535302D344444412D393946322D3044353336303833303034422F7265736F75726365732F636F72
310
652E786D6C8D504B6E833010BD0A9A6D65B0314151641CA5B49CA017B0CC84580936F2A7EAF16B0295DA5D3733A3F7D13C3D71FE9A1FC527FA609CED8095140AB4DA8DC64E1DA478254728CE5278E7E22F191456CDD8C10A8314937769D921ED6C441B336ADD883BA842C008857EE4A383A06F38AB52A59815E15E2E4ADFD5
310
84252B339D755284E87380627BB24E901E834B5E6310D5C64A919219778D19F34F7335E841F6FD71E86BD69043D3BC93A6E103793D5E6AD2733A0CED70E9197F13D56A96229AF927A3F6A8228E206BCA38A12DA9D907A327DE9E387FA18713A7A25AE57F4C6919FF694AC6465EEF71375B00C97290272145B5F695D7B3CCBC
310
D76EE537504B010214000A00000800009054D5423DEE336E79000000790000001B00000000000000000000000000000000006175746F6465736B2D64657369676E2D7061636B6167652E786D6C504B010214001400060808009054D542D486FD9CA0000000F40000001300000000000000000000000000B20000005B436F6E
310
74656E745F54797065735D2E786D6C504B010214001400060808009054D542A9D53383EA0000007C010000080000000000000000000000000083010000636F72652E786D6C504B010214001400060808009054D54255019EA25F0000007C000000070000000000000000000000000093020000636E782E786D6C504B010214
310
001400060808009054D54299993D2167010000020300000C00000000000000000000000000170300006662782F636F72652E786D6C504B010214001400060808009054D542CBA666847E0000009D0000000B00000000000000000000000000A80400006662782F636E782E786D6C504B010214001400060808009054D542BB
310
7F2AFF2C0100001402000031000000000000000000000000004F0500006662782F39384243453833442D374535302D344444412D393946322D3044353336303833303034422F636F72652E786D6C504B010214001400060808009054D542608183D655010000330300003000000000000000000000000000CA060000666278
310
2F39384243453833442D374535302D344444412D393946322D3044353336303833303034422F636E782E786D6C504B010214001400060808009054D5423B7F8DCE630700009A1B000034000000000000000000000000006D0800006662782F39384243453833442D374535302D344444412D393946322D3044353336303833
310
303034422F6F626A656374732E786D6C504B010214001400060800009054D5420000000000000000000000003500000000000000000000000000221000006662782F39384243453833442D374535302D344444412D393946322D3044353336303833303034422F76657274696365732E62696E504B01021400140006080800
310
9054D542F270F13306000000040000003600000000000000000000000000751000006662782F39384243453833442D374535302D344444412D393946322D3044353336303833303034422F747269616E676C65732E62696E504B010214001400060800009054D5420000000000000000000000003700000000000000000000
310
000000CF1000006662782F39384243453833442D374535302D344444412D393946322D3044353336303833303034422F617474726962757465732E62696E504B010214001400060808009054D542D5987DFC8F000000410100003600000000000000000000000000241100006662782F39384243453833442D374535302D34
310
4444412D393946322D3044353336303833303034422F6469726563746F72792E786D6C504B010214001400060808009054D542BA7E1D1BFD000000A00100003B00000000000000000000000000071200006662782F39384243453833442D374535302D344444412D393946322D3044353336303833303034422F7265736F75
310
726365732F636F72652E786D6C504B0506000000000E000E00800400005D1300000000
  0
XRECORD
  5
17
102
{ACAD_REACTORS
330
12
102
}
330
12
100
AcDbXrecord
280
     1
270
     1
271
     1
  0
XRECORD
  5
16
102
{ACAD_REACTORS
330
12
102
}
330
12
100
AcDbXrecord
280
     1
270
     1
271
     1
  0
XRECORD
  5
18
102
{ACAD_REACTORS
330
12
102
}
330
12
100
AcDbXrecord
280
     1
270
     1
271
     1
  0
XRECORD
  5
15
102
{ACAD_REACTORS
330
12
102
}
330
12
100
AcDbXrecord
280
     1
270
     1
271
     1
  0
XRECORD
  5
24
102
{ACAD_REACTORS
330
22
102
}
330
22
100
AcDbXrecord
280
     1
270
     1
271
     1
  0
XRECORD
  5
23
102
{ACAD_REACTORS
330
22
102
}
330
22
100
AcDbXrecord
280
     1
270
     1
271
     1
  0
XRECORD
  5
BA
102
{ACAD_REACTORS
330
22
102
}
330
22
100
AcDbXrecord
280
     1
 70
     1
 90
1959938040
 71
     1
  1
607018B1-F3B7-4885-8335-7EF4D613FD4E
311
504B03040A00000800008F54D5423DEE336E79000000790000001B0000006175746F6465736B2D64657369676E2D7061636B6167652E786D6C3C3F786D6C2076657273696F6E3D22312E302220656E636F64696E673D227574662D3822203F3E3C666F726D6174733E3C666F726D61743E687474703A2F2F736368656D612E
311
6175746F6465736B2E636F6D2F64657369676E2D7061636B6167652F323030393C2F666F726D61743E3C2F666F726D6174733E504B03041400060808008F54D542D486FD9CA0000000F4000000130000005B436F6E74656E745F54797065735D2E786D6C7D8EC10E82300C865F65E91D8A1E8C310C0EEA1BF002731658846E
311
D98AC1B77784ABF1D8FE5FBFBF75BBCE937A534CCEB38643598122B6FEE978D0B0485F9C41B54DDD7D022595594E1A469170414C76A4D9A4D207E29CF43ECE46F218070CC6BECC4078ACAA135ACF422C856C0E68EA1BF5669944DDD7BCDE7B1F8E415D77AECB980613C2E4AC91FC167A2B244592486606FC29C8FD7F045B9A
311
EF7053A7E60B504B03041400060808008F54D542374DCECBE90000007C01000008000000636F72652E786D6C8D90416EC3201045AF82665BE1805D5327C244B29A9CA0174030715162B00C543D7E71E248EDAE1B66F4F87F66F4E5F17BBA912F5CA20BBE075E3120E84DB0CE8F3DE474A11D90A3924B08E9970C88D713F6B0
311
6250725C429E3764824FE853A13E58DCA08E111310732B4D0FD17CE2A42B9D5351C46B356B73D52356FCD91573CECE92C71267CB3C7771B8807A1B4EDDC03B4ECFFBD33B7D15E79A0EA213B4A066686B26867D2B77AB59C9E4A6E77EB3A04E6841D58C3794095AF30FCE0E8D3834EC85B5E595BB55FEC79467FB4F53763E35
311
F576EEC31641F172C8FD43C9DD9A4529F7A04A5D73533F504B03041400060808008F54D54255019EA25F0000007C00000007000000636E782E786D6C4DCB3B0E80201045D1AD90E915ED2CF8AC45050C11660C8261F98AB1B07AC9C97D42D718D865D3E909258CFD00CCE24AC6E326A164D74DC0B4128928FF326038472BA1
311
3128B1252AC747C6BAB984FC68F0B87FE8960A5C09FE86CFB69FBA01504B03041400060808008F54D542337706F865010000020300000C0000006662782F636F72652E786D6C8D52ED8A8330107C9590BF87266AEBD91253906B9FE05E20D5D4936A22F9903EFEAD1FC5EB514A116298D9D99D1D65875BD7A2411ADB6895E3
311
28A4184955EAAA51758EBDBB04194607CE8CD6EE4F19464A7432C7238C39AB8DF6FD02955A39A91CA04A57720185B5D26154B670C9B12D7F642742E11D54D86BD88BF22A6A194621D050C79975060CA079C878627E39DF189971CEBC6FAA856D2A98D65C1A6930FF2C8E5911655170DA1DBF824D7A8A8322CDD200A0A4D8C6
311
342D765B46463167AEE9EEEE4A23859315E6318D9280A6411C7D47749FA4FB847ED02D9C8C8CE50F22DF576F8A7CA35C122F766799C53C022313F16F5B88C8212B06F04338236388F09A127E0C1A0281909D38B7F73DAE000DB274DA6C80A9B45FA941B45EC2548AA687919985CE5303D8EC699FF8459FD73DE0030A558335
311
E1E07AF66E9CCEE6A94B14BD34C1E06E4869D3897635375B5CCF75D05379A95B6DDE51936555B28449C6BF97FF02504B03041400060808008F54D54276A65CE47E0000009D0000000B0000006662782F636E782E786D6C4DCCD10E82201886E15B61FF3909A1601BE02AEC3E5CA263213482D6E5A7CD838EBEEDD9B757769F
311
C5A3B74D2F1783027A20806CB8C7D1855941C9136E01755AA618F3DF0D501816AB6063D0724EB13C771AED34149F57F52E3C763C094E18BBB4585073C5754F393E337EC347C30D21ACA9FB4640A565F52BADBB85F517504B03041400060808008F54D54265B0701F2901000013020000310000006662782F39373630333342
311
382D373144432D344531362D413336462D3244364430303335344535372F636F72652E786D6C8D515B6EC32010BC0AE22B55850DC6C6698489DA263D412FE0D8C44589C1E251E5F85DD78ED4FEE58745B333B3032BF7B7F18ABEB50FC6D906B38C62A46DE77A638706A778265B8CF64A7AE7E21F1A46B61D758367182B3978
311
97A615EA9C8DDA4640ADEBF50AB621E8885177854B8343F7A5C7366B530446B86453DB5DDA41672C8336F0940CD14300B40C994FAC5E6A41397FDB929A1DDE49796482BC72F1418A833850CAABF258D5325F844AA664FA556E7A8863CE46FB474D66B192D18CF7F89DD76DD43D5605659C50410AF6C9E88E8B1DA7CFB48253
311
E633FD9F284DFD83A2646CE4C51A779105AC98CC978692BD4BA7EB3D8CBE4DCE4734CFDB04DD3D614533CA18AF19281626BC1F2C45B95A86E83CFCEFE6720232AB165F512A99CF2B82F2BB3FA8F33AD50F504B03041400060808008F54D5420519C0534D01000033030000300000006662782F39373630333342382D373144
311
432D344531362D413336462D3244364430303335344535372F636E782E786D6CD593BB6EC3300C457F45D05AF815A74611C80AD0A15FD0A1AB2C31891A5932F4289ABF2F952869960C1DBB10C6E5252F7120B3EDF76CC817F8A09D1D6957B79480954E69BB1F698ABBEA85922D67DEB97867A3C48A19469A65CAD9DEBBB414
311
49C14E24135135DA1E8BE821B8E4250494F324314E0A830BC05609459827500A14B919F16B071E4F41713A917800F2F6FA41DCF4093206D6E42D9C353983B35C4BD29D8912694408230DF200B3A8458A4E4138D64A445177F535EBC14DBF9B481EB84626AF490E1F69AE94978B6AE4C81A6C7216A2477AC5144F0B502E96C5
311
682922426ECEC68B87B3A46D1CD6C5AB11BC477737F4EB352E3BF7388B7A86E2901E440445F9AAEDFAAA1DAA55F7DEB59B7ED8F4ED53FB8C9535D9CED9E49C2943B806BC5B887436828D9477ACC9ED47F88A8F28ED91B5F3A73F80440025F542E7B6E33FF369CEEF1B7179FC0BF80F504B03041400060808008F54D54204B7
311
918BA505000080100000340000006662782F39373630333342382D373144432D344531362D413336462D3244364430303335344535372F6F626A656374732E786D6CAD57DB6EDB3810FD1541FBB2FBE08B6C2771168A8AC44E0AA3485BD468B10F060C4AA2146E2851A0A8D4D9AFDF43919225D74EBD8BBE5816351CCE9C39
311
73A1FF6E9771E785CA9289FCC6F58663D7A179246296A7376EA592C1DC75DE05BE144275C45C272719BD71F5B21BF8A914556197629A908AAB83D587BBBF9C32A239759D8893B2BC71CBE8896664482A25625A3E0F63A2C8304D76436F6804FB6A53498AA703A505913457B014EB39B438C628AFFF3A7647813FD2DF035FFF
311
5AA9E969A951ED4FFF7C96978AE4D10F871DA8997AB3E5FDE4E27A70319B4D07B3CB8937B87BB85B0EBCABE97871B9585CDFDE5FE3E0524968B296489AB8C17B602359E48FCCA7C0AF58AEA6132B62033492F485E948B9C1C4F1FC919169BDB34E1E333F12794EA31A2BA051FB6755C7B4A0798C98335AC2B20E42E3FEABA7
311
71EC7C9EEA777B6477F93C04BA3B3A8A1ADB9B67D75211FE0D17CA7318244BAA1968B0B48E1AAE8EF708874270FB8D954E4614958C7087B35012F9EA0610D52281DF53A3992C7536680FDC0051309FFB74411AFD9CE7C7AC4C2ACE358DDDA0CE822D7285AAB2B68CFD43E5DEFA2E32B009B1D26C985B87D46B41DDE0DA5064
311
7EC02603A493709222E47053EF9C4E0E1C5DE83C5D2DDDE0C343B85BEBDC3D7E78214541A5D2F401B59AC0354F8D92B5C93B2B727A837B60CA1E942F40FE23527D6F0AE226D96EB69BD9539424799908992136CED8198CF13376BCFA57FFEFFCF347EDE67EF44EE189606BA87E019E7D1FBAB1ECC019F82F20BC9053EBDA3A
311
221C65E391E5004893C4E1024BA8C349B8738315AA1CAA3276111E787019E6BEE0AF3FB26A5028EA933ACF1C581E94C5330A3460AB1909330CF9AD81FB38FD50CEEA83ADD829782F7E095D6F97EB0FEB4A2624A28F36A7973461395368717BDE740DEA61DEF3E899BE7E173286A33FE2BDEEE29DD9A34AA0AD31D7C0A74D4D
311
D72FFB937B0744D8970A5D6EFC9F9C00277463EDE87F646544392739155573EE9BFD036DC340AC935D33B96D30FBC602D2982F073988261D49566810DB6ED516CDE109EFBEAE3E829190E722247C2F14EE4B6F24B890DBF0756BAAD251A4BFF5A96D2118692D607B9D234DFA5BCCB7314B92AA440D3C02EBB7D5A21B3A5D15
311
50211AAD265966701FB945A4E56CA317CD5A123452916F19DA26D2EEE8015DFD40D412A05678CAE292F264CB38AFB26DC2389AD13623C50938FEBFFD6195155B92892A572774F74C4773E8DBDE236FF99DA8E8C90DD6F5737087D21BD3781FE69EB06E2547B0EA85F6727C35F6E677DEE0617A773598CDE71783F9747A31B8
311
BA7F982D2FBDE9C37276DFC4C9280FFCA6D374131A514267F32BC96CF8BEAE903EB606B8C12351E5E6BDC9CEE6F97535C428EC8FB007EDB2DD781BBF60ECA3F1CF15EC258F2A5A6505A719CD15D129F4A8FFF02F046346CF18B3BECA484ACFD0F2E9FDFAC019AC9CB1EFB34E77FAFD60AF5D5DE8843CAA443D55599813C60F
311
36A606C96191A716BF2626EDD3F499E655BFD9C060302D056731CA60ECA4546454A1189ED18364464B50AF3BD2C7F6EA71C6EE1733202A1272DA58F2443023F31269016A5591EAAF3BBF61A6D363D58D8B6E3B7CC68FAD14AE03CEDCB898D1158B68390CD19FF524542B0797BA833CE67E92A71CA3B6D9D4BEB7BB3436BD8E
311
DC8A9C333E59BF4C05B70EA08C14181B300F213AB531815FDB66BF47FFC9F1C61C8728FC0D2BD5FAB25F689DA98F418A1AA7EC650133CCB33D7A87447DDB2D6F58CBF41039EB92F526098CD6812232AD2F0ADA3E6BD2EDF2F308038AB3FAE414BC4A11CBF3350D2405992B9DE06011586175164481AA8B3F379FA5C0453673
311
1E1828E0FCBE9B5FFEB159882C13B959DADCDAEBB0B37EC2E536DEA038507D2B293793B137D9D4B7017B41D986A4A4431297CF584064256B81EE851FBC345746F421F3A1951BE9501C3074B5746C639B41A9A54BB7B66A703077E4D4410EE91BA5CE98AE40F1E68560548BC20489513EF817504B03041400060800008F54D5
311
42000000000000000000000000350000006662782F39373630333342382D373144432D344531362D413336462D3244364430303335344535372F76657274696365732E62696E504B03041400060808008F54D542F270F1330600000004000000360000006662782F39373630333342382D373144432D344531362D41333646
311
2D3244364430303335344535372F747269616E676C65732E62696E636660600000504B03041400060800008F54D542000000000000000000000000370000006662782F39373630333342382D373144432D344531362D413336462D3244364430303335344535372F617474726962757465732E62696E504B03041400060808
311
008F54D542D5987DFC8F00000041010000360000006662782F39373630333342382D373144432D344531362D413336462D3244364430303335344535372F6469726563746F72792E786D6C858F410EC2201045AF4266AF15DDB800BA74E7C21B903225242D6328188F2FA5C4183471359997F9FF81E89FF3C41E1816475E02
311
DF1F80A11FC8386F25A438EECEC07A250251FC3803E6F58C12560C4AD840E95E91C151A72936F496F35732D860FE635F62C8F2DA16B505C545B74125BAA2FA9E05D7CC053D063734D5C7665FD55B6B8D15D5E9BFEAFD8490FFA45E504B03041400060808008F54D54224E6E053FC000000A00100003B0000006662782F3937
311
3630333342382D373144432D344531362D413336462D3244364430303335344535372F7265736F75726365732F636F72652E786D6C8D504B6E833010BD0A9A6D65B0A1B824328E849A9CA017B0CC84580936F2A7EAF16B0295DA5D3733A3F7D13C3D71FA9A1FC527FA609CED8195140AB4DA8DC64E3DA478251D142729BC73
311
F1970C0AAB66EC6185418AC9BBB4EC907636A28D19B56EC41D54216084423FF2D143D0379C55A952CC8A702F17A5EF6AC2929599CE3A2942F43940B13D5927488FC125AF31886A63A548C98CBBC68CF9A7B91AF420DF867337B08E92CBE1FC4E5EF9A52603EF38611D6B86B6A67C38B4A25ACD524433FF64D41E55C411644D
311
5943282735FB60F4D8F063435F689BA7A856F91F535AC67F9A92B1B1A9F7B89B2D806439C89390A25AFBCAEB5966DE6BB7F21B504B010214000A00000800008F54D5423DEE336E79000000790000001B00000000000000000000000000000000006175746F6465736B2D64657369676E2D7061636B6167652E786D6C504B01
311
0214001400060808008F54D542D486FD9CA0000000F40000001300000000000000000000000000B20000005B436F6E74656E745F54797065735D2E786D6C504B010214001400060808008F54D542374DCECBE90000007C010000080000000000000000000000000083010000636F72652E786D6C504B010214001400060808
311
008F54D54255019EA25F0000007C000000070000000000000000000000000092020000636E782E786D6C504B010214001400060808008F54D542337706F865010000020300000C00000000000000000000000000160300006662782F636F72652E786D6C504B010214001400060808008F54D54276A65CE47E0000009D0000
311
000B00000000000000000000000000A50400006662782F636E782E786D6C504B010214001400060808008F54D54265B0701F290100001302000031000000000000000000000000004C0500006662782F39373630333342382D373144432D344531362D413336462D3244364430303335344535372F636F72652E786D6C504B
311
010214001400060808008F54D5420519C0534D010000330300003000000000000000000000000000C40600006662782F39373630333342382D373144432D344531362D413336462D3244364430303335344535372F636E782E786D6C504B010214001400060808008F54D54204B7918BA50500008010000034000000000000
311
000000000000005F0800006662782F39373630333342382D373144432D344531362D413336462D3244364430303335344535372F6F626A656374732E786D6C504B010214001400060800008F54D5420000000000000000000000003500000000000000000000000000560E00006662782F39373630333342382D373144432D
311
344531362D413336462D3244364430303335344535372F76657274696365732E62696E504B010214001400060808008F54D542F270F13306000000040000003600000000000000000000000000A90E00006662782F39373630333342382D373144432D344531362D413336462D3244364430303335344535372F747269616E
311
676C65732E62696E504B010214001400060800008F54D5420000000000000000000000003700000000000000000000000000030F00006662782F39373630333342382D373144432D344531362D413336462D3244364430303335344535372F617474726962757465732E62696E504B010214001400060808008F54D542D598
311
7DFC8F000000410100003600000000000000000000000000580F00006662782F39373630333342382D373144432D344531362D413336462D3244364430303335344535372F6469726563746F72792E786D6C504B010214001400060808008F54D54224E6E053FC000000A00100003B000000000000000000000000003B1000
311
006662782F39373630333342382D373144432D344531362D413336462D3244364430303335344535372F7265736F75726365732F636F72652E786D6C504B0506000000000E000E0080040000901100000000
310
504B03040A00000800008F54D5423DEE336E79000000790000001B0000006175746F6465736B2D64657369676E2D7061636B6167652E786D6C3C3F786D6C2076657273696F6E3D22312E302220656E636F64696E673D227574662D3822203F3E3C666F726D6174733E3C666F726D61743E687474703A2F2F736368656D612E
310
6175746F6465736B2E636F6D2F64657369676E2D7061636B6167652F323030393C2F666F726D61743E3C2F666F726D6174733E504B03041400060808008F54D542D486FD9CA0000000F4000000130000005B436F6E74656E745F54797065735D2E786D6C7D8EC10E82300C865F65E91D8A1E8C310C0EEA1BF002731658846E
310
D98AC1B77784ABF1D8FE5FBFBF75BBCE937A534CCEB38643598122B6FEE978D0B0485F9C41B54DDD7D022595594E1A469170414C76A4D9A4D207E29CF43ECE46F218070CC6BECC4078ACAA135ACF422C856C0E68EA1BF5669944DDD7BCDE7B1F8E415D77AECB980613C2E4AC91FC167A2B244592486606FC29C8FD7F045B9A
310
EF7053A7E60B504B03041400060808008F54D542404BA3B4EB0000007C01000008000000636F72652E786D6C8D904D6EC3201085AF82665B61837F223BC244B5939EA01740401C94182C03558E1F9C3852BBEB86193DDE37337AEC709F6EE8472FDE38DB01CD08206DA553C68E1DC470C60DA003678B73E1970D901593EE60
310
9581B3717171DE24E96CD03624D53AA5375178AF0320794B4D075E5EF42432114372F86B360B7915A3CEE8BB4B708C46A1D712A3D23C73367A01FED5F6A42F9A1A13726C70550D147F9276C0F474ECEBB6390D554158BEC29C0533BDF7CB458BA015F082D012931D2EE83725FB72B72FC907A9D3CBF2D5FE078AB3FA27148D
310
0D65B19DFBC23C709A0E797E7096AF59A4F20C2AD53537FE00504B03041400060808008F54D54255019EA25F0000007C00000007000000636E782E786D6C4DCB3B0E80201045D1AD90E915ED2CF8AC45050C11660C8261F98AB1B07AC9C97D42D718D865D3E909258CFD00CCE24AC6E326A164D74DC0B4128928FF32603847
310
2BA13128B1252AC747C6BAB984FC68F0B87FE8960A5C09FE86CFB69FBA01504B03041400060808008F54D542191E182A67010000020300000C0000006662782F636F72652E786D6C8D525B6E833010BC8AE5DFCAD83C1291C8386A1E3D412FE0804351C046C646397E9747445345518464AC999DDDD901BEBB3535EA95ED2A
310
A3331C060C23A5735354BACCB077179262B413DC1AE3FE9461A465A3323CC058F0D21ADFCE506EB453DA01AA4DA16650769D7218E5355C32DCE53FAA9181F40E2ABA6BD0CAFC2A4B158401D0502778E72C1840D390E1C4E272BE713AE1827B5F15335B1530ADBA54CA62F1B5D9B37D94AE0863C79424C921249F6C7320E1E9
310
B85F6DD2D3218918A783587057357777B955D2A9028B888531616B1285DF21DBC6EB6DCC3ED80A4E4E87F207916F8B3745BED22E8E66BB93ACC322042323F16F5B88C8A14EF6E0870A4E8710E13526FC18340402213B79AEEF7B5C01EA55EE8C4D80298C5FA85ED65EC15486C687D38985CE6303D8EC699FE8459FD73DE003
310
4A5D8235E9E07AF66E98CEA7A97314ADB2A47737A48D6D64BD989B2C2EE732E8A93C37B5B1EFA8E9BC2A9DC3A4C3DF2B7E01504B03041400060808008F54D542D77F1FEC7D0000009D0000000B0000006662782F636E782E786D6C4DCCD10AC2201886E15B91FFDC369748823A72E67D8CE686E4344CA3CB6F8B1D74F4C1C3
310
C72BFACF1AD0DBE5974F510239B5805CBCA7C9C745422D33BE00EA95C82995BF1BA038AE4EC2CEA0C492537D1E34B979ACA16C1A7C7C1C68CFCC32622826DC0C981A3E607D6B29E657AB09E394EACE42A344F32B6DBB87D517504B03041400060808008F54D54287E3A7802A01000014020000310000006662782F46333646
310
363144342D313944432D344439432D424530342D3941464231363934344232462F636F72652E786D6C8D51ED6AC3300C7C15E35F1DC3899D64A1298ECBDA2E4FB017701337336DECE08FD1C79FBCA4B0FD2B06C94877A743E2FBFB7443DFCA796D4D8B59463152A6B78336638B63B8902D467BC19DB5E10F0C232327D5E254
310
C6828FCEC6792DF5D6046502548D1DD45A94DEAB80517F834F8B7DFFA52699C91800E1AFD92CFBAB1C55C63268034E701F1C1840CB9014B1E8CABAABD9A922AC391D49756A8EE4F0412BD2BC770756375575283A9E2F44C163D4C34AD703D8D117ADDCB322892C78D0D3C37EEF940C6AC0A2A0AC24B42605FB647457D6BB92
310
BED237883C4FF07FA4380F4F92A236A12C56BB0BCD63C178BE34041F6C3CDF1E66D47DB62EA0346FE355FF8205CD28635B780DCF17282C0034EB6AD5F4C13A58F0E67A0674B90AD795E079BA11A4DF03424EF7143F504B03041400060808008F54D54263BE0F445501000033030000300000006662782F4633364636314434
310
2D313944432D344439432D424530342D3941464231363934344232462F636E782E786D6CBD93CB6EC23010457FC5F2B6CA8BD00821C7485DF40BBAE8D6D803B83876E44755FEBE6330940D8B4A5537A3E8CE9DB9A323876DBE26433EC107EDEC48BBBAA504AC744ADBFD4853DC552B4A369C79E7E29D8D122B261869962967
310
7BEFD25C24053B914C44D5687B2CA287E092971050CE93C438290C2E005B251461DA8252A0C8CD885F3BF0780A8ADB13890720AF2FEFC46D3F40C6C09ABC85B3266770966B49BA3351228D0861A4411E6012B548D12908C75A8928EAAEBE663DB8E96713C903D7C8E435C9E123CD95F272518D1C59834DCE42F448AF98E269
310
06CAC53C1B2D4544C8CDD978F17096B48DC3B2783582F7E8EE17C36A85CBCE3DCEA29EA038A407114151BE68BBBE6A876AD1BD75EDBA1FD67DFBD43E63654DB673B675CE94215C03DECD443A1BC146CA3BD6E4F6237CC54794F6C8DAF9D32F402280927AA173DBF1977CBAA15F2EFF914F737EDF88CBE35FC0BF01504B0304
310
1400060808008F54D5428EA44D1462070000991B0000340000006662782F46333646363144342D313944432D344439432D424530342D3941464231363934344232462F6F626A656374732E786D6CED595B73A33614FE2B0C7D691F8C4D6CE7D221749238D9F1EC647767DDDDE98367181964A246084612B9F4D7F7E8020662
310
12DC4DDFF6C106847474CE77AE3A047F3C65D479C05C909C9DBBBE37711DCCE23C212C3D774BB91D9DBACE1F61C0F35C36A6B90E43193E77D5B01B0629CFCBC20E25788B4A2A3BA337977F3922C60CBB4E4C9110E7AE88EF70863C54CA3CC1E2DE4B90445EBA7DF27CCF4C6C934D392AEE3A440BC43193C0298C33A0E218A6
310
FCF6E3C41D87C158BD0F03F56F674D07CD9AF5CF1A6BA9DB5C12262462F10B963A64A683589AFAB3C5F5D1FC6C349FCDA6A3D9F1913FBABCB95C8CFC93E9E4EAF8EAEAECE2FA0CD8DBE439B53225B8C02C01FD3DBBA11F8CD59B5A748BC03EAEE39C311C6B20012A2D569720C102B66AC037693FFA4AA2C66B2D61E379A6DE
310
5B161AC3D33695BE59C38068D10541EC7695C4D5B5295FBEF91B0417438C920B2C815B213968D7C2C3C12BDC70128CCD68186C76BA20C2C990C49C20EA50B2E188835260AA9A1206668125A39C8303294749A035675EB76D0B3CF36DD7D9C7E5B6A45479861B6AC78AC0FDB0149A33F20FE63BEE9BC8004F206D49983CB55C
310
CAE702BBE15930D68361A02ED323FBD200E96C294A8546C4BCED087AA55C7FB970C38F379BA7950A07FB372F785E602E95D1293D6ABEC090ED55A164B7F507694E2D00610CA876E50E94AF80FC27881E3B56406F9C3CCD9E6676AEE488896DCE33D08D33714613F89B38BEFE57F78DBB605C2F6E6BAF0F4F705305D5E98FE3
310
D996416365F96FC019060F60F0399FDA57AB1851B0E75BC2002065240ECD610842FB76F3E4864B089C10E86115A2A10F2203BB0F701B8C2D999D562AF7B25EC70051BBC774889200366D91C0468F9E3E40F6E024DEA9A929621FBCF37731D78BC5EAE3AAE45B14E35BEBD30BBC258C48C89AFB196A61DE92E81E3F3FE63C01
310
415FE2BD6AE29DD9AD04A0AD3057C0A71508EA61B7736B8318D6A5B90A37C11B3B80102A5737E8DF1211634A11C37959ED5B473765A8B5C7DB9AC10D8F0CC4D3A38E0973FC405455014EB39BD16214F27ECC49A14074C30F46B23A687A3DD27D5B7E028BACE7F7CC5A3208BD0CD13F75D0DA8343CBB22BA42D10B5C09B5D38
310
8F739AF368F31C9948E7422D016CB4BDE57B8B28C47AA32445053C48FB5D155252236D9490EDB6141057F7B0F87D79D534878937F5E74EF3BFE38C3388B6E0BB885BBFEBEC11910CA538DAA2A46FBBE66E356DA149F690E6784B412EF240E47384643449707A083407113F7B57EA29CD85200C0BC8577BC16FA231F1209018
310
6D562C2BAD76802622CAB044F4100414991E7075DAD1356E0CA5C3DB3CD6D6FB9AC69A44FF278BE0086AC99C45044A51C8216F32EE7B7388216D740DCA1D7CC1DA2ADA5A0C5A4209113F478F98A477F210D40DF91EDC6338929432CA0B1483590F20FBC25794523BBC6F507CAFF2471497F4BD0C4460BA8D08A56516C18F30
310
38790C71ED3A30BD8A4283B8897D126750942159F2219B1CCF272FF631354337043636DA120A613BCA50D1837A2B20EA7AC4A9C1B7D47B94BA29B32242595EB24186E24DBBDE64C977D5AAC80EE457958A503656842DC130204CD659B58AD960EA3AB0821BE940F51C099415D49CC2DE483C7EED4D9A72EF06DCFAE9FB6E90
310
41E1D7A3BD66449D5530581E5B8581784432BE73C395BE8E2EA1FE4E70B24BF555ADD9AC00013115C94B4EAC8ABE2DA1BCB1359A1BDE2229D61F4CD6ADAEDF961E743F8231AC81DAA55EB85440679849A42A935B7543BF2208C12D1A667CA972EA21542E9244578D88DE903E75B6CA88D6A619F18A3BCCF20C7E6C4D584CCB
310
04AF5122EEA35B49A31551AC5B29BD8C5418BF2AE0E70FAB0E3C303240A42FAAC0C38F9DB576F44A954B7B89C8BB32DB30442008B6444B8D6EBC82A556239596EBAB3A5340DD050666553CFB79B268B6237E9E2C526B183F76B2A0F906D15DB46964F35899F541A7803A3D292AEF710AD05D879A6A9D444C2EB7E25B5F8A20
310
2656417E703156C50C43B08FE3FF9CB4FB92A0D9AEC3FF6149DB7F51701C94545A9355936A4FE1BA6CA6B0E3C9C9C43FBDF44737D3CB93D1ECF4743E3A9D4EE7A393EB9BD9E2D89FDE2C66D7359ADA4FC3A08E653A75C1B38969D5B07AB218405356E4942470984F9C1443C89770A41FD03DE71916903B9BBDEEC4F6E407AC
310
7E306D4E893614579CDC21E80F5301591D302A63D91E777E81CEA48473F6B90B3D23EF1EFEAC55BA0E249E73173A0592C458781BE832A97E9E260E1957A77E4B0CF0412C5519D12CAA9FEB550A9B56F4AFA70CC90256AE560B03EAB6029A5FAD0685E6CDF2141F2478C58E8324DC6E4A09C59A916537500BA3B7D9A9DFC846
310
09BBB75B3F81EBBE2E96EFE9392D44067D3178D5080CD591443CD5ED6EC59865E962F1650C6D3667F9D9296899822E87531A710CC65CAA7A0AAC08ACC2D22C900453BDFA7DFD85E7F08527737451E4FCFA747AFCDBFA2ACFB29C99A1F5051CCA12F84EE4ACEEE0AB4FB286DA01ABDEBA581F4DFCA3B5EE69DB367BB441027B
310
AA288281AA965082744C0EECF2457FCA762FC74A159DE9CB856383E81C886ADB7DD1E235DFB81CF021F53545798CF6F34ADA57DBDA633D156C8243433AFC17504B03041400060800008F54D542000000000000000000000000350000006662782F46333646363144342D313944432D344439432D424530342D394146423136
310
3934344232462F76657274696365732E62696E504B03041400060808008F54D542F270F1330600000004000000360000006662782F46333646363144342D313944432D344439432D424530342D3941464231363934344232462F747269616E676C65732E62696E636660600000504B03041400060800008F54D54200000000
310
0000000000000000370000006662782F46333646363144342D313944432D344439432D424530342D3941464231363934344232462F617474726962757465732E62696E504B03041400060808008F54D542D5987DFC8F00000041010000360000006662782F46333646363144342D313944432D344439432D424530342D3941
310
464231363934344232462F6469726563746F72792E786D6C858F410EC2201045AF4266AF15DDB800BA74E7C21B903225242D6328188F2FA5C4183471359997F9FF81E89FF3C41E1816475E02DF1F80A11FC8386F25A438EECEC07A250251FC3803E6F58C12560C4AD840E95E91C151A72936F496F35732D860FE635F62C8F2
310
DA16B505C545B74125BAA2FA9E05D7CC053D063734D5C7665FD55B6B8D15D5E9BFEAFD8490FFA45E504B03041400060808008F54D54253E08D2CFC000000A00100003B0000006662782F46333646363144342D313944432D344439432D424530342D3941464231363934344232462F7265736F75726365732F636F72652E78
310
6D6C8D504B6E833010BD0A9A6D65B0814410194785A427E8052C33A156828DFCA97AFC9A40A576D7CDCCE87D344F8F9FBFE647F689CE6B6B3A6039850C8DB2A336530731DC4803D95970676DF82583CCC8193B5861107C72362E3BA4AC096842428D1D7107A5F71820538F7474E0D507CE3297312485BFE78B54773961CEF2
310
44279DE03EB81420DB9EAC1384436FA353E879B1B182C7A8C75DA3C7F453DF343A106F6D4FFBB2A909A59786D4F5C0C82B6D07C2AE97FED036D7A12E292F56B3E041CF3F199543197004515256117A24257B67F4541D4F157DA1873479B1CAFF98E232FED314B50955B9C7DD6C1E044B419E84E0C5DA575ACF32D35EBB15DF
310
504B010214000A00000800008F54D5423DEE336E79000000790000001B00000000000000000000000000000000006175746F6465736B2D64657369676E2D7061636B6167652E786D6C504B010214001400060808008F54D542D486FD9CA0000000F40000001300000000000000000000000000B20000005B436F6E74656E74
310
5F54797065735D2E786D6C504B010214001400060808008F54D542404BA3B4EB0000007C010000080000000000000000000000000083010000636F72652E786D6C504B010214001400060808008F54D54255019EA25F0000007C000000070000000000000000000000000094020000636E782E786D6C504B01021400140006
310
0808008F54D542191E182A67010000020300000C00000000000000000000000000180300006662782F636F72652E786D6C504B010214001400060808008F54D542D77F1FEC7D0000009D0000000B00000000000000000000000000A90400006662782F636E782E786D6C504B010214001400060808008F54D54287E3A7802A
310
0100001402000031000000000000000000000000004F0500006662782F46333646363144342D313944432D344439432D424530342D3941464231363934344232462F636F72652E786D6C504B010214001400060808008F54D54263BE0F4455010000330300003000000000000000000000000000C80600006662782F463336
310
46363144342D313944432D344439432D424530342D3941464231363934344232462F636E782E786D6C504B010214001400060808008F54D5428EA44D1462070000991B000034000000000000000000000000006B0800006662782F46333646363144342D313944432D344439432D424530342D394146423136393434423246
310
2F6F626A656374732E786D6C504B010214001400060800008F54D54200000000000000000000000035000000000000000000000000001F1000006662782F46333646363144342D313944432D344439432D424530342D3941464231363934344232462F76657274696365732E62696E504B010214001400060808008F54D542
310
F270F13306000000040000003600000000000000000000000000721000006662782F46333646363144342D313944432D344439432D424530342D3941464231363934344232462F747269616E676C65732E62696E504B010214001400060800008F54D5420000000000000000000000003700000000000000000000000000CC
310
1000006662782F46333646363144342D313944432D344439432D424530342D3941464231363934344232462F617474726962757465732E62696E504B010214001400060808008F54D542D5987DFC8F000000410100003600000000000000000000000000211100006662782F46333646363144342D313944432D344439432D
310
424530342D3941464231363934344232462F6469726563746F72792E786D6C504B010214001400060808008F54D54253E08D2CFC000000A00100003B00000000000000000000000000041200006662782F46333646363144342D313944432D344439432D424530342D3941464231363934344232462F7265736F7572636573
310
2F636F72652E786D6C504B0506000000000E000E0080040000591300000000
  0
XRECORD
  5
27
102
{ACAD_REACTORS
330
22
102
}
330
22
100
AcDbXrecord
280
     1
270
     1
271
     1
  0
XRECORD
  5
26
102
{ACAD_REACTORS
330
22
102
}
330
22
100
AcDbXrecord
280
     1
270
     1
271
     1
  0
XRECORD
  5
28
102
{ACAD_REACTORS
330
22
102
}
330
22
100
AcDbXrecord
280
     1
270
     1
271
     1
  0
XRECORD
  5
25
102
{ACAD_REACTORS
330
22
102
}
330
22
100
AcDbXrecord
280
     1
270
     1
271
     1
  0
XRECORD
  5
D87
102
{ACAD_REACTORS
330
D86
102
}
330
D86
100
AcDbXrecord
280
     1
102
ACAD_ROUNDTRIP_2012_MLEADER_STYLE
298
     1
  0
CELLSTYLEMAP
  5
D85
102
{ACAD_REACTORS
330
D84
102
}
330
D84
100
AcDbCellStyleMap
 90
        3
300
CELLSTYLE
  1
TABLEFORMAT_BEGIN
 90
        5
170
     1
 91
        0
 92
    32768
 62
   257
 93
        1
300
CONTENTFORMAT
  1
CONTENTFORMAT_BEGIN
 90
        0
 91
        0
 92
      512
 93
        0
300

 40
0.0
140
1.0
 94
        5
 62
     0
340
55
144
0.25
309
CONTENTFORMAT_END
171
     0
 94
        0
309
TABLEFORMAT_END
  1
CELLSTYLE_BEGIN
 90
        1
 91
        1
300
_TITLE
309
CELLSTYLE_END
300
CELLSTYLE
  1
TABLEFORMAT_BEGIN
 90
        5
170
     1
 91
        0
 92
        0
 62
   257
 93
        1
300
CONTENTFORMAT
  1
CONTENTFORMAT_BEGIN
 90
        0
 91
        0
 92
      512
 93
        0
300

 40
0.0
140
1.0
 94
        5
 62
     0
340
55
144
0.18
309
CONTENTFORMAT_END
171
     0
 94
        0
309
TABLEFORMAT_END
  1
CELLSTYLE_BEGIN
 90
        2
 91
        1
300
_HEADER
309
CELLSTYLE_END
300
CELLSTYLE
  1
TABLEFORMAT_BEGIN
 90
        5
170
     1
 91
        0
 92
        0
 62
   257
 93
        1
300
CONTENTFORMAT
  1
CONTENTFORMAT_BEGIN
 90
        0
 91
        0
 92
      512
 93
        0
300

 40
0.0
140
1.0
 94
        2
 62
     0
340
55
144
0.18
309
CONTENTFORMAT_END
171
     0
 94
        0
309
TABLEFORMAT_END
  1
CELLSTYLE_BEGIN
 90
        3
 91
        2
300
_DATA
309
CELLSTYLE_END
  0
ENDSEC
  0
EOF
