  0
SECTION
  2
HEADER
  9
$ACADVER
  1
AC1024
  9
$ACADMAINTVER
 70
    63
  9
$DWGCODEPAGE
  3
ANSI_1252
  9
$AUTHOR
  1
MS
  9
$REVISIONNUMBER
  1
-
  9
$CUSTOMPROPERTYTAG
  1
Manager
  9
$CUSTOMPROPERTY
  1

  9
$CUSTOMPROPERTYTAG
  1
Company
  9
$CUSTOMPROPERTY
  1

  9
$CUSTOMPROPERTYTAG
  1
Category
  9
$CUSTOMPROPERTY
  1

  9
$CUSTOMPROPERTYTAG
  1
Part Number
  9
$CUSTOMPROPERTY
  1
NPDD5442
  9
$CUSTOMPROPERTYTAG
  1
Description
  9
$CUSTOMPROPERTY
  1
NPDD PANEL MASTER VIEW
  9
$CUSTOMPROPERTYTAG
  1
Project
  9
$CUSTOMPROPERTY
  1

  9
$CUSTOMPROPERTYTAG
  1
Designer
  9
$CUSTOMPROPERTY
  1
MS
  9
$CUSTOMPROPERTYTAG
  1
Engineer
  9
$CUSTOMPROPERTY
  1

  9
$CUSTOMPROPERTYTAG
  1
Authority
  9
$CUSTOMPROPERTY
  1

  9
$CUSTOMPROPERTYTAG
  1
Cost Center
  9
$CUSTOMPROPERTY
  1

  9
$CUSTOMPROPERTYTAG
  1
Vendor
  9
$CUSTOMPROPERTY
  1

  9
$CUSTOMPROPERTYTAG
  1
User Status
  9
$CUSTOMPROPERTY
  1

  9
$CUSTOMPROPERTYTAG
  1
Design Status
  9
$CUSTOMPROPERTY
  1
WorkInProgress
  9
$CUSTOMPROPERTYTAG
  1
Checked by
  9
$CUSTOMPROPERTY
  1
NJ
  9
$CUSTOMPROPERTYTAG
  1
Date Checked
  9
$CUSTOMPROPERTY
  1
06/19/2013
  9
$CUSTOMPROPERTYTAG
  1
Engr Approved by
  9
$CUSTOMPROPERTY
  1

  9
$CUSTOMPROPERTYTAG
  1
Mfg Approved by
  9
$CUSTOMPROPERTY
  1

  9
$CUSTOMPROPERTYTAG
  1
DWG. NO
  9
$CUSTOMPROPERTY
  1

  9
$CUSTOMPROPERTYTAG
  1
NUMBER OF SHEETS
  9
$CUSTOMPROPERTY
  1
2
  9
$CUSTOMPROPERTYTAG
  1
DRAWING #
  9
$CUSTOMPROPERTY
  1
1
  9
$INSBASE
 10
0.0
 20
0.0
 30
0.0
  9
$EXTMIN
 10
0.0
 20
0.0
 30
0.0
  9
$EXTMAX
 10
187.0
 20
121.0
 30
0.0
  9
$LIMMIN
 10
0.0
 20
0.0
  9
$LIMMAX
 10
187.0
 20
121.0
  9
$ORTHOMODE
 70
     0
  9
$REGENMODE
 70
     1
  9
$FILLMODE
 70
     1
  9
$QTEXTMODE
 70
     0
  9
$MIRRTEXT
 70
     0
  9
$LTSCALE
 40
11.0
  9
$ATTMODE
 70
     1
  9
$TEXTSIZE
 40
0.2
  9
$TRACEWID
 40
0.05
  9
$TEXTSTYLE
  7
Standard
  9
$CLAYER
  8
0
  9
$CELTYPE
  6
ByLayer
  9
$CECOLOR
 62
   256
  9
$CELTSCALE
 40
1.0
  9
$DISPSILH
 70
     0
  9
$DIMSCALE
 40
1.0
  9
$DIMASZ
 40
0.0708661417322835
  9
$DIMEXO
 40
0.0625
  9
$DIMDLI
 40
0.38
  9
$DIMRND
 40
0.0
  9
$DIMDLE
 40
0.0
  9
$DIMEXE
 40
0.18
  9
$DIMTP
 40
0.0
  9
$DIMTM
 40
0.0
  9
$DIMTXT
 40
0.0708661417322835
  9
$DIMCEN
 40
0.09
  9
$DIMTSZ
 40
0.0
  9
$DIMTOL
 70
     0
  9
$DIMLIM
 70
     0
  9
$DIMTIH
 70
     1
  9
$DIMTOH
 70
     1
  9
$DIMSE1
 70
     0
  9
$DIMSE2
 70
     0
  9
$DIMTAD
 70
     0
  9
$DIMZIN
 70
     0
  9
$DIMBLK
  1

  9
$DIMASO
 70
     1
  9
$DIMSHO
 70
     1
  9
$DIMPOST
  1

  9
$DIMAPOST
  1

  9
$DIMALT
 70
     0
  9
$DIMALTD
 70
     2
  9
$DIMALTF
 40
25.4
  9
$DIMLFAC
 40
1.0
  9
$DIMTOFL
 70
     0
  9
$DIMTVP
 40
0.0
  9
$DIMTIX
 70
     0
  9
$DIMSOXD
 70
     0
  9
$DIMSAH
 70
     0
  9
$DIMBLK1
  1

  9
$DIMBLK2
  1

  9
$DIMSTYLE
  2
STANDARD
  9
$DIMCLRD
 70
     0
  9
$DIMCLRE
 70
     0
  9
$DIMCLRT
 70
     0
  9
$DIMTFAC
 40
1.0
  9
$DIMGAP
 40
0.09
  9
$DIMJUST
 70
     0
  9
$DIMSD1
 70
     0
  9
$DIMSD2
 70
     0
  9
$DIMTOLJ
 70
     1
  9
$DIMTZIN
 70
     0
  9
$DIMALTZ
 70
     0
  9
$DIMALTTZ
 70
     0
  9
$DIMUPT
 70
     0
  9
$DIMDEC
 70
     4
  9
$DIMTDEC
 70
     4
  9
$DIMALTU
 70
     2
  9
$DIMALTTD
 70
     2
  9
$DIMTXSTY
  7
Standard
  9
$DIMAUNIT
 70
     0
  9
$DIMADEC
 70
     0
  9
$DIMALTRND
 40
0.0
  9
$DIMAZIN
 70
     0
  9
$DIMDSEP
 70
    46
  9
$DIMATFIT
 70
     3
  9
$DIMFRAC
 70
     0
  9
$DIMLDRBLK
  1

  9
$DIMLUNIT
 70
     2
  9
$DIMLWD
 70
    -2
  9
$DIMLWE
 70
    -2
  9
$DIMTMOVE
 70
     0
  9
$DIMFXL
 40
1.0
  9
$DIMFXLON
 70
     0
  9
$DIMJOGANG
 40
0.7853981633974483
  9
$DIMTFILL
 70
     0
  9
$DIMTFILLCLR
 70
     0
  9
$DIMARCSYM
 70
     0
  9
$DIMLTYPE
  6

  9
$DIMLTEX1
  6

  9
$DIMLTEX2
  6

  9
$DIMTXTDIRECTION
 70
     0
  9
$LUNITS
 70
     2
  9
$LUPREC
 70
     4
  9
$SKETCHINC
 40
0.1
  9
$FILLETRAD
 40
0.0
  9
$AUNITS
 70
     0
  9
$AUPREC
 70
     0
  9
$MENU
  1
.
  9
$ELEVATION
 40
0.0
  9
$PELEVATION
 40
0.0
  9
$THICKNESS
 40
0.0
  9
$LIMCHECK
 70
     0
  9
$CHAMFERA
 40
0.0
  9
$CHAMFERB
 40
0.0
  9
$CHAMFERC
 40
0.0
  9
$CHAMFERD
 40
0.0
  9
$SKPOLY
 70
     0
  9
$TDCREATE
 40
2456465.442173634
  9
$TDUCREATE
 40
2456465.213006968
  9
$TDUPDATE
 40
2456465.442173646
  9
$TDUUPDATE
 40
2456465.213006979
  9
$TDINDWG
 40
0.0000467014
  9
$TDUSRTIMER
 40
0.0000467014
  9
$USRTIMER
 70
     1
  9
$ANGBASE
 50
0.0
  9
$ANGDIR
 70
     0
  9
$PDMODE
 70
     0
  9
$PDSIZE
 40
0.0
  9
$PLINEWID
 40
0.0
  9
$SPLFRAME
 70
     0
  9
$SPLINETYPE
 70
     6
  9
$SPLINESEGS
 70
     8
  9
$HANDSEED
  5
E79
  9
$SURFTAB1
 70
     6
  9
$SURFTAB2
 70
     6
  9
$SURFTYPE
 70
     6
  9
$SURFU
 70
     6
  9
$SURFV
 70
     6
  9
$UCSBASE
  2

  9
$UCSNAME
  2

  9
$UCSORG
 10
0.0
 20
0.0
 30
0.0
  9
$UCSXDIR
 10
1.0
 20
0.0
 30
0.0
  9
$UCSYDIR
 10
0.0
 20
1.0
 30
0.0
  9
$UCSORTHOREF
  2

  9
$UCSORTHOVIEW
 70
     0
  9
$UCSORGTOP
 10
0.0
 20
0.0
 30
0.0
  9
$UCSORGBOTTOM
 10
0.0
 20
0.0
 30
0.0
  9
$UCSORGLEFT
 10
0.0
 20
0.0
 30
0.0
  9
$UCSORGRIGHT
 10
0.0
 20
0.0
 30
0.0
  9
$UCSORGFRONT
 10
0.0
 20
0.0
 30
0.0
  9
$UCSORGBACK
 10
0.0
 20
0.0
 30
0.0
  9
$PUCSBASE
  2

  9
$PUCSNAME
  2

  9
$PUCSORG
 10
0.0
 20
0.0
 30
0.0
  9
$PUCSXDIR
 10
1.0
 20
0.0
 30
0.0
  9
$PUCSYDIR
 10
0.0
 20
1.0
 30
0.0
  9
$PUCSORTHOREF
  2

  9
$PUCSORTHOVIEW
 70
     0
  9
$PUCSORGTOP
 10
0.0
 20
0.0
 30
0.0
  9
$PUCSORGBOTTOM
 10
0.0
 20
0.0
 30
0.0
  9
$PUCSORGLEFT
 10
0.0
 20
0.0
 30
0.0
  9
$PUCSORGRIGHT
 10
0.0
 20
0.0
 30
0.0
  9
$PUCSORGFRONT
 10
0.0
 20
0.0
 30
0.0
  9
$PUCSORGBACK
 10
0.0
 20
0.0
 30
0.0
  9
$USERI1
 70
     0
  9
$USERI2
 70
     0
  9
$USERI3
 70
     0
  9
$USERI4
 70
     0
  9
$USERI5
 70
     0
  9
$USERR1
 40
0.0
  9
$USERR2
 40
0.0
  9
$USERR3
 40
0.0
  9
$USERR4
 40
0.0
  9
$USERR5
 40
0.0
  9
$WORLDVIEW
 70
     1
  9
$SHADEDGE
 70
     3
  9
$SHADEDIF
 70
    70
  9
$TILEMODE
 70
     1
  9
$MAXACTVP
 70
    64
  9
$PINSBASE
 10
0.0
 20
0.0
 30
0.0
  9
$PLIMCHECK
 70
     0
  9
$PEXTMIN
 10
0.0
 20
0.0
 30
0.0
  9
$PEXTMAX
 10
187.0
 20
121.0
 30
0.0
  9
$PLIMMIN
 10
0.0
 20
0.0
  9
$PLIMMAX
 10
187.0
 20
121.0
  9
$UNITMODE
 70
     0
  9
$VISRETAIN
 70
     1
  9
$PLINEGEN
 70
     0
  9
$PSLTSCALE
 70
     1
  9
$TREEDEPTH
 70
  3020
  9
$CMLSTYLE
  2
Standard
  9
$CMLJUST
 70
     0
  9
$CMLSCALE
 40
1.0
  9
$PROXYGRAPHICS
 70
     1
  9
$MEASUREMENT
 70
     0
  9
$CELWEIGHT
370
    -1
  9
$ENDCAPS
280
     0
  9
$JOINSTYLE
280
     0
  9
$LWDISPLAY
290
     0
  9
$INSUNITS
 70
     1
  9
$HYPERLINKBASE
  1

  9
$STYLESHEET
  1

  9
$XEDIT
290
     1
  9
$CEPSNTYPE
380
     0
  9
$PSTYLEMODE
290
     1
  9
$FINGERPRINTGUID
  2
{8F33E2B6-161D-4A58-8BBF-103A23936FAB}
  9
$VERSIONGUID
  2
{F78C52F1-2B58-40D4-B81F-8B25BF5473BC}
  9
$EXTNAMES
290
     1
  9
$PSVPSCALE
 40
0.0
  9
$OLESTARTUP
290
     0
  9
$SORTENTS
280
   127
  9
$INDEXCTL
280
     0
  9
$HIDETEXT
280
     1
  9
$XCLIPFRAME
280
     2
  9
$HALOGAP
280
     0
  9
$OBSCOLOR
 70
   257
  9
$OBSLTYPE
280
     0
  9
$INTERSECTIONDISPLAY
280
     0
  9
$INTERSECTIONCOLOR
 70
   257
  9
$DIMASSOC
280
     1
  9
$PROJECTNAME
  1

  9
$CAMERADISPLAY
290
     0
  9
$LENSLENGTH
 40
50.0
  9
$CAMERAHEIGHT
 40
0.0
  9
$STEPSPERSEC
 40
2.0
  9
$STEPSIZE
 40
6.0
  9
$3DDWFPREC
 40
2.0
  9
$PSOLWIDTH
 40
0.25
  9
$PSOLHEIGHT
 40
4.0
  9
$LOFTANG1
 40
1.570796326794896
  9
$LOFTANG2
 40
1.570796326794896
  9
$LOFTMAG1
 40
0.0
  9
$LOFTMAG2
 40
0.0
  9
$LOFTPARAM
 70
     7
  9
$LOFTNORMALS
280
     1
  9
$LATITUDE
 40
37.795
  9
$LONGITUDE
 40
-122.394
  9
$NORTHDIRECTION
 40
0.0
  9
$TIMEZONE
 70
 -8000
  9
$LIGHTGLYPHDISPLAY
280
     1
  9
$TILEMODELIGHTSYNCH
280
     1
  9
$CMATERIAL
347
11
  9
$SOLIDHIST
280
     0
  9
$SHOWHIST
280
     1
  9
$DWFFRAME
280
     2
  9
$DGNFRAME
280
     0
  9
$REALWORLDSCALE
290
     1
  9
$INTERFERECOLOR
 62
     1
  9
$INTERFEREOBJVS
345
33
  9
$INTERFEREVPVS
346
30
  9
$CSHADOW
280
     0
  9
$SHADOWPLANELOCATION
 40
0.0
  0
ENDSEC
  0
SECTION
  2
CLASSES
  0
CLASS
  1
ACDBDICTIONARYWDFLT
  2
AcDbDictionaryWithDefault
  3
ObjectDBX Classes
 90
        0
 91
        1
280
     0
281
     0
  0
CLASS
  1
MATERIAL
  2
AcDbMaterial
  3
ObjectDBX Classes
 90
     1153
 91
        3
280
     0
281
     0
  0
CLASS
  1
VISUALSTYLE
  2
AcDbVisualStyle
  3
ObjectDBX Classes
 90
     4095
 91
       24
280
     0
281
     0
  0
CLASS
  1
SCALE
  2
AcDbScale
  3
ObjectDBX Classes
 90
     1153
 91
       17
280
     0
281
     0
  0
CLASS
  1
TABLESTYLE
  2
AcDbTableStyle
  3
ObjectDBX Classes
 90
     4095
 91
        1
280
     0
281
     0
  0
CLASS
  1
MLEADERSTYLE
  2
AcDbMLeaderStyle
  3
ACDB_MLEADERSTYLE_CLASS
 90
     4095
 91
        1
280
     0
281
     0
  0
CLASS
  1
DICTIONARYVAR
  2
AcDbDictionaryVar
  3
ObjectDBX Classes
 90
        0
 91
        3
280
     0
281
     0
  0
CLASS
  1
CELLSTYLEMAP
  2
AcDbCellStyleMap
  3
ObjectDBX Classes
 90
     1152
 91
        1
280
     0
281
     0
  0
ENDSEC
  0
SECTION
  2
TABLES
  0
TABLE
  2
VPORT
  5
8
330
0
100
AcDbSymbolTable
 70
     1
  0
VPORT
  5
57
330
8
100
AcDbSymbolTableRecord
100
AcDbViewportTableRecord
  2
*Active
 70
     0
 10
0.0
 20
0.0
 11
1.0
 21
1.0
 12
93.49999999999999
 22
60.5
 13
0.0
 23
0.0
 14
1.0
 24
1.0
 15
0.0
 25
0.0
 16
0.0
 26
0.0
 36
1.0
 17
0.0
 27
0.0
 37
0.0
 40
121.0
 41
1.545454545454545
 42
50.0
 43
0.0
 44
0.0
 50
0.0
 51
0.0
 71
     0
 72
   100
 73
     1
 74
     1
 75
     0
 76
     0
 77
     0
 78
     0
281
     0
 65
     1
110
0.0
120
0.0
130
0.0
111
1.0
121
0.0
131
0.0
112
0.0
122
1.0
132
0.0
 79
     0
146
0.0
 60
     3
 61
     5
292
     1
282
     1
141
0.0
142
0.0
 63
   250
421
  3355443
  0
ENDTAB
  0
TABLE
  2
LTYPE
  5
5
330
0
100
AcDbSymbolTable
 70
    59
  0
LTYPE
  5
5B
330
5
100
AcDbSymbolTableRecord
100
AcDbLinetypeTableRecord
  2
ByBlock
 70
     0
  3

 72
    65
 73
     0
 40
0.0
  0
LTYPE
  5
5C
330
5
100
AcDbSymbolTableRecord
100
AcDbLinetypeTableRecord
  2
ByLayer
 70
     0
  3

 72
    65
 73
     0
 40
0.0
  0
LTYPE
  5
5D
330
5
100
AcDbSymbolTableRecord
100
AcDbLinetypeTableRecord
  2
Continuous
 70
     0
  3
Solid line
 72
    65
 73
     0
 40
0.0
  0
LTYPE
  5
7C
330
5
100
AcDbSymbolTableRecord
100
AcDbLinetypeTableRecord
  2
BY_STANDARD
 70
     0
  3
By Standard ____________    ____    ____   _
 72
    65
 73
     6
 40
1.240299999999999
 49
0.6614
 74
     0
 49
-0.0827
 74
     0
 49
0.1654
 74
     0
 49
-0.0827
 74
     0
 49
0.1654
 74
     0
 49
-0.0827
 74
     0
  0
LTYPE
  5
7D
330
5
100
AcDbSymbolTableRecord
100
AcDbLinetypeTableRecord
  2
CHAIN
 70
     0
  3
Chain ____ _ ____ _ ____ _ ____ _ ____ _ ____
 72
    65
 73
     4
 40
0.7087
 49
0.4724000000000001
 74
     0
 49
-0.0591
 74
     0
 49
0.1181
 74
     0
 49
-0.0591
 74
     0
  0
LTYPE
  5
7E
330
5
100
AcDbSymbolTableRecord
100
AcDbLinetypeTableRecord
  2
DASH_DOT
 70
     0
  3
Dash dot __ . __ . __ . __ . __ . __ . __ . __
 72
    65
 73
     4
 40
0.37
 49
0.24
 74
     0
 49
-0.06
 74
     0
 49
0.01
 74
     0
 49
-0.06
 74
     0
  0
LTYPE
  5
7F
330
5
100
AcDbSymbolTableRecord
100
AcDbLinetypeTableRecord
  2
DOUBLE_DASH_DOT
 70
     0
  3
Double-Dash Dot __ __ . __ __ . __ __ . __ _
 72
    65
 73
     6
 40
0.4398
 49
0.24
 74
     0
 49
-0.06
 74
     0
 49
0.0098
 74
     0
 49
-0.06
 74
     0
 49
0.01
 74
     0
 49
-0.06
 74
     0
  0
LTYPE
  5
80
330
5
100
AcDbSymbolTableRecord
100
AcDbLinetypeTableRecord
  2
DASH_TRIPLE_DOT
 70
     0
  3
Dash Triple-Dot _ . . . _ . . . _ . . . _
 72
    65
 73
     8
 40
0.51
 49
0.24
 74
     0
 49
-0.06
 74
     0
 49
0.01
 74
     0
 49
-0.06
 74
     0
 49
0.01
 74
     0
 49
-0.06
 74
     0
 49
0.01
 74
     0
 49
-0.06
 74
     0
  0
LTYPE
  5
81
330
5
100
AcDbSymbolTableRecord
100
AcDbLinetypeTableRecord
  2
DASHED
 70
     0
  3
Dashed __ __ __ __ __ __ __ __ __ __ __ __ __ _
 72
    65
 73
     2
 40
0.2067
 49
0.1654
 74
     0
 49
-0.0413
 74
     0
  0
LTYPE
  5
82
330
5
100
AcDbSymbolTableRecord
100
AcDbLinetypeTableRecord
  2
DASH_DOUBLE_DOT
 70
     0
  3
Dash Double-Dot __ . . __ . . __ . . __ . .
 72
    65
 73
     6
 40
0.4398
 49
0.24
 74
     0
 49
-0.06
 74
     0
 49
0.0098
 74
     0
 49
-0.06
 74
     0
 49
0.01
 74
     0
 49
-0.06
 74
     0
  0
LTYPE
  5
83
330
5
100
AcDbSymbolTableRecord
100
AcDbLinetypeTableRecord
  2
DASHED_SPACE
 70
     0
  3
Dashed Space __ __ __ __ __ __ __ __ __ __ __ _
 72
    65
 73
     2
 40
0.2067
 49
0.1654
 74
     0
 49
-0.0413
 74
     0
  0
LTYPE
  5
84
330
5
100
AcDbSymbolTableRecord
100
AcDbLinetypeTableRecord
  2
DOTTED
 70
     0
  3
Dotted . . . . . . . . . . . . . . . . . . . . 
 72
    65
 73
     2
 40
0.0482
 49
0.0069
 74
     0
 49
-0.0413
 74
     0
  0
LTYPE
  5
85
330
5
100
AcDbSymbolTableRecord
100
AcDbLinetypeTableRecord
  2
DOUBLE_DASH_CHAIN
 70
     0
  3
Double-Dash Chain ______  __  __  ______  __  _
 72
    65
 73
     6
 40
1.240299999999999
 49
0.6614
 74
     0
 49
-0.0827
 74
     0
 49
0.1654
 74
     0
 49
-0.0827
 74
     0
 49
0.1654
 74
     0
 49
-0.0827
 74
     0
  0
LTYPE
  5
87
330
5
100
AcDbSymbolTableRecord
100
AcDbLinetypeTableRecord
  2
DOUBLE_DASH_DOUBLE_DOT
 70
     0
  3
Double-Dash Double-dot _ _ . . _ _ . . _
 72
    65
 73
     8
 40
0.7400000000000001
 49
0.24
 74
     0
 49
-0.06
 74
     0
 49
0.24
 74
     0
 49
-0.06
 74
     0
 49
0.01
 74
     0
 49
-0.06
 74
     0
 49
0.01
 74
     0
 49
-0.06
 74
     0
  0
LTYPE
  5
88
330
5
100
AcDbSymbolTableRecord
100
AcDbLinetypeTableRecord
  2
DOUBLE_DASH_TRIPLE_DOT
 70
     0
  3
Double Dash Triple Dot __ __ . . . __ __ . .
 72
    65
 73
    10
 40
0.8100000000000001
 49
0.24
 74
     0
 49
-0.06
 74
     0
 49
0.24
 74
     0
 49
-0.06
 74
     0
 49
0.01
 74
     0
 49
-0.06
 74
     0
 49
0.01
 74
     0
 49
-0.06
 74
     0
 49
0.01
 74
     0
 49
-0.06
 74
     0
  0
LTYPE
  5
89
330
5
100
AcDbSymbolTableRecord
100
AcDbLinetypeTableRecord
  2
LONG_DASH_DOTTED
 70
     0
  3
Long Dash Dotted ____ . ____ . ____ . ____ . _
 72
    65
 73
     4
 40
0.3543
 49
0.2362
 74
     0
 49
-0.0295
 74
     0
 49
0.0591
 74
     0
 49
-0.0295
 74
     0
  0
LTYPE
  5
8A
330
5
100
AcDbSymbolTableRecord
100
AcDbLinetypeTableRecord
  2
LONG_DASH_DOUBLE_DOT
 70
     0
  3
Long Dash Double Dot ________  .  .  ________  
 72
    65
 73
     6
 40
0.6799999999999999
 49
0.48
 74
     0
 49
-0.06
 74
     0
 49
0.01
 74
     0
 49
-0.06
 74
     0
 49
0.01
 74
     0
 49
-0.06
 74
     0
  0
LTYPE
  5
8B
330
5
100
AcDbSymbolTableRecord
100
AcDbLinetypeTableRecord
  2
LONG_DASH_TRIPLE_DOT
 70
     0
  3
Long Dash Triple Dot ____ ... ____ ... ____
 72
    65
 73
     8
 40
0.3689
 49
0.2362
 74
     0
 49
-0.0295
 74
     0
 49
0.0049
 74
     0
 49
-0.0295
 74
     0
 49
0.0049
 74
     0
 49
-0.0295
 74
     0
 49
0.0049
 74
     0
 49
-0.0295
 74
     0
  0
LTYPE
  5
8C
330
5
100
AcDbSymbolTableRecord
100
AcDbLinetypeTableRecord
  2
BORDER
 70
     0
  3
Border __ __ . __ __ . __ __ . __ __ . __ __ .
 72
    65
 73
     6
 40
1.75
 49
0.5
 74
     0
 49
-0.25
 74
     0
 49
0.5
 74
     0
 49
-0.25
 74
     0
 49
0.0
 74
     0
 49
-0.25
 74
     0
  0
LTYPE
  5
8D
330
5
100
AcDbSymbolTableRecord
100
AcDbLinetypeTableRecord
  2
BORDER2
 70
     0
  3
Border (.5x) __.__.__.__.__.__.__.__.__.__.__.
 72
    65
 73
     6
 40
0.875
 49
0.25
 74
     0
 49
-0.125
 74
     0
 49
0.25
 74
     0
 49
-0.125
 74
     0
 49
0.0
 74
     0
 49
-0.125
 74
     0
  0
LTYPE
  5
8E
330
5
100
AcDbSymbolTableRecord
100
AcDbLinetypeTableRecord
  2
BORDERX2
 70
     0
  3
Border (2x) ____  ____  .  ____  ____  .  ___
 72
    65
 73
     6
 40
3.5
 49
1.0
 74
     0
 49
-0.5
 74
     0
 49
1.0
 74
     0
 49
-0.5
 74
     0
 49
0.0
 74
     0
 49
-0.5
 74
     0
  0
LTYPE
  5
8F
330
5
100
AcDbSymbolTableRecord
100
AcDbLinetypeTableRecord
  2
CENTER
 70
     0
  3
Center ____ _ ____ _ ____ _ ____ _ ____ _ ____
 72
    65
 73
     4
 40
2.0
 49
1.25
 74
     0
 49
-0.25
 74
     0
 49
0.25
 74
     0
 49
-0.25
 74
     0
  0
LTYPE
  5
90
330
5
100
AcDbSymbolTableRecord
100
AcDbLinetypeTableRecord
  2
CENTER2
 70
     0
  3
Center (.5x) ___ _ ___ _ ___ _ ___ _ ___ _ ___
 72
    65
 73
     4
 40
1.125
 49
0.75
 74
     0
 49
-0.125
 74
     0
 49
0.125
 74
     0
 49
-0.125
 74
     0
  0
LTYPE
  5
91
330
5
100
AcDbSymbolTableRecord
100
AcDbLinetypeTableRecord
  2
CENTERX2
 70
     0
  3
Center (2x) ________  __  ________  __  _____
 72
    65
 73
     4
 40
4.0
 49
2.5
 74
     0
 49
-0.5
 74
     0
 49
0.5
 74
     0
 49
-0.5
 74
     0
  0
LTYPE
  5
92
330
5
100
AcDbSymbolTableRecord
100
AcDbLinetypeTableRecord
  2
DASHDOT2
 70
     0
  3
Dash dot (.5x) _._._._._._._._._._._._._._._.
 72
    65
 73
     4
 40
0.5
 49
0.25
 74
     0
 49
-0.125
 74
     0
 49
0.0
 74
     0
 49
-0.125
 74
     0
  0
LTYPE
  5
93
330
5
100
AcDbSymbolTableRecord
100
AcDbLinetypeTableRecord
  2
DASHDOTX2
 70
     0
  3
Dash dot (2x) ____  .  ____  .  ____  .  ___
 72
    65
 73
     4
 40
2.0
 49
1.0
 74
     0
 49
-0.5
 74
     0
 49
0.0
 74
     0
 49
-0.5
 74
     0
  0
LTYPE
  5
95
330
5
100
AcDbSymbolTableRecord
100
AcDbLinetypeTableRecord
  2
DASHED2
 70
     0
  3
Dashed (.5x) _ _ _ _ _ _ _ _ _ _ _ _ _ _ _ _ _
 72
    65
 73
     2
 40
0.375
 49
0.25
 74
     0
 49
-0.125
 74
     0
  0
LTYPE
  5
96
330
5
100
AcDbSymbolTableRecord
100
AcDbLinetypeTableRecord
  2
DASHEDX2
 70
     0
  3
Dashed (2x) ____  ____  ____  ____  ____  ___
 72
    65
 73
     2
 40
1.5
 49
1.0
 74
     0
 49
-0.5
 74
     0
  0
LTYPE
  5
97
330
5
100
AcDbSymbolTableRecord
100
AcDbLinetypeTableRecord
  2
DIVIDE
 70
     0
  3
Divide ____ . . ____ . . ____ . . ____ . . ____
 72
    65
 73
     6
 40
1.25
 49
0.5
 74
     0
 49
-0.25
 74
     0
 49
0.0
 74
     0
 49
-0.25
 74
     0
 49
0.0
 74
     0
 49
-0.25
 74
     0
  0
LTYPE
  5
98
330
5
100
AcDbSymbolTableRecord
100
AcDbLinetypeTableRecord
  2
DIVIDE2
 70
     0
  3
Divide (.5x) __..__..__..__..__..__..__..__.._
 72
    65
 73
     6
 40
0.625
 49
0.25
 74
     0
 49
-0.125
 74
     0
 49
0.0
 74
     0
 49
-0.125
 74
     0
 49
0.0
 74
     0
 49
-0.125
 74
     0
  0
LTYPE
  5
99
330
5
100
AcDbSymbolTableRecord
100
AcDbLinetypeTableRecord
  2
DIVIDEX2
 70
     0
  3
Divide (2x) ________  .  .  ________  .  .  _
 72
    65
 73
     6
 40
2.5
 49
1.0
 74
     0
 49
-0.5
 74
     0
 49
0.0
 74
     0
 49
-0.5
 74
     0
 49
0.0
 74
     0
 49
-0.5
 74
     0
  0
LTYPE
  5
9A
330
5
100
AcDbSymbolTableRecord
100
AcDbLinetypeTableRecord
  2
DOT
 70
     0
  3
Dot . . . . . . . . . . . . . . . . . . . . . .
 72
    65
 73
     2
 40
0.25
 49
0.0
 74
     0
 49
-0.25
 74
     0
  0
LTYPE
  5
9B
330
5
100
AcDbSymbolTableRecord
100
AcDbLinetypeTableRecord
  2
DOT2
 70
     0
  3
Dot (.5x) .....................................
 72
    65
 73
     2
 40
0.125
 49
0.0
 74
     0
 49
-0.125
 74
     0
  0
LTYPE
  5
9C
330
5
100
AcDbSymbolTableRecord
100
AcDbLinetypeTableRecord
  2
DOTX2
 70
     0
  3
Dot (2x) .  .  .  .  .  .  .  .  .  .  .  .  . 
 72
    65
 73
     2
 40
0.5
 49
0.0
 74
     0
 49
-0.5
 74
     0
  0
LTYPE
  5
9D
330
5
100
AcDbSymbolTableRecord
100
AcDbLinetypeTableRecord
  2
HIDDEN
 70
     0
  3
Hidden __ __ __ __ __ __ __ __ __ __ __ __ __ _
 72
    65
 73
     2
 40
0.375
 49
0.25
 74
     0
 49
-0.125
 74
     0
  0
LTYPE
  5
9E
330
5
100
AcDbSymbolTableRecord
100
AcDbLinetypeTableRecord
  2
HIDDEN2
 70
     0
  3
Hidden (.5x) _ _ _ _ _ _ _ _ _ _ _ _ _ _ _ _ _
 72
    65
 73
     2
 40
0.1875
 49
0.125
 74
     0
 49
-0.0625
 74
     0
  0
LTYPE
  5
9F
330
5
100
AcDbSymbolTableRecord
100
AcDbLinetypeTableRecord
  2
HIDDENX2
 70
     0
  3
Hidden (2x) ____ ____ ____ ____ ____ ____ ____
 72
    65
 73
     2
 40
0.75
 49
0.5
 74
     0
 49
-0.25
 74
     0
  0
LTYPE
  5
A0
330
5
100
AcDbSymbolTableRecord
100
AcDbLinetypeTableRecord
  2
PHANTOM
 70
     0
  3
Phantom ______  __  __  ______  __  __  ______
 72
    65
 73
     6
 40
2.5
 49
1.25
 74
     0
 49
-0.25
 74
     0
 49
0.25
 74
     0
 49
-0.25
 74
     0
 49
0.25
 74
     0
 49
-0.25
 74
     0
  0
LTYPE
  5
A1
330
5
100
AcDbSymbolTableRecord
100
AcDbLinetypeTableRecord
  2
PHANTOM2
 70
     0
  3
Phantom (.5x) ___ _ _ ___ _ _ ___ _ _ ___ _ _
 72
    65
 73
     6
 40
1.25
 49
0.625
 74
     0
 49
-0.125
 74
     0
 49
0.125
 74
     0
 49
-0.125
 74
     0
 49
0.125
 74
     0
 49
-0.125
 74
     0
  0
LTYPE
  5
A2
330
5
100
AcDbSymbolTableRecord
100
AcDbLinetypeTableRecord
  2
PHANTOMX2
 70
     0
  3
Phantom (2x) ____________    ____    ____   _
 72
    65
 73
     6
 40
5.0
 49
2.5
 74
     0
 49
-0.5
 74
     0
 49
0.5
 74
     0
 49
-0.5
 74
     0
 49
0.5
 74
     0
 49
-0.5
 74
     0
  0
LTYPE
  5
A3
330
5
100
AcDbSymbolTableRecord
100
AcDbLinetypeTableRecord
  2
ACAD_ISO02W100
 70
     0
  3
ISO dash __ __ __ __ __ __ __ __ __ __ __ __ __
 72
    65
 73
     2
 40
0.59
 49
0.47
 74
     0
 49
-0.12
 74
     0
  0
LTYPE
  5
A4
330
5
100
AcDbSymbolTableRecord
100
AcDbLinetypeTableRecord
  2
ACAD_ISO03W100
 70
     0
  3
ISO dash space __    __    __    __    __    __
 72
    65
 73
     2
 40
1.179999999999999
 49
0.47
 74
     0
 49
-0.71
 74
     0
  0
LTYPE
  5
A5
330
5
100
AcDbSymbolTableRecord
100
AcDbLinetypeTableRecord
  2
ACAD_ISO04W100
 70
     0
  3
ISO long-dash dot ____ . ____ . ____ . ____ . _
 72
    65
 73
     4
 40
1.179999999999999
 49
0.9399999999999998
 74
     0
 49
-0.12
 74
     0
 49
0.0
 74
     0
 49
-0.12
 74
     0
  0
LTYPE
  5
A6
330
5
100
AcDbSymbolTableRecord
100
AcDbLinetypeTableRecord
  2
ACAD_ISO05W100
 70
     0
  3
ISO long-dash double-dot ____ .. ____ .. ____ .
 72
    65
 73
     6
 40
1.299999999999999
 49
0.9399999999999998
 74
     0
 49
-0.12
 74
     0
 49
0.0
 74
     0
 49
-0.12
 74
     0
 49
0.0
 74
     0
 49
-0.12
 74
     0
  0
LTYPE
  5
A7
330
5
100
AcDbSymbolTableRecord
100
AcDbLinetypeTableRecord
  2
ACAD_ISO06W100
 70
     0
  3
ISO long-dash triple-dot ____ ... ____ ... ____
 72
    65
 73
     8
 40
1.419999999999999
 49
0.9399999999999998
 74
     0
 49
-0.12
 74
     0
 49
0.0
 74
     0
 49
-0.12
 74
     0
 49
0.0
 74
     0
 49
-0.12
 74
     0
 49
0.0
 74
     0
 49
-0.12
 74
     0
  0
LTYPE
  5
A8
330
5
100
AcDbSymbolTableRecord
100
AcDbLinetypeTableRecord
  2
ACAD_ISO07W100
 70
     0
  3
ISO dot . . . . . . . . . . . . . . . . . . . .
 72
    65
 73
     2
 40
0.12
 49
0.0
 74
     0
 49
-0.12
 74
     0
  0
LTYPE
  5
A9
330
5
100
AcDbSymbolTableRecord
100
AcDbLinetypeTableRecord
  2
ACAD_ISO08W100
 70
     0
  3
ISO long-dash short-dash ____ __ ____ __ ____ _
 72
    65
 73
     4
 40
0.95
 49
0.47
 74
     0
 49
-0.12
 74
     0
 49
0.24
 74
     0
 49
-0.12
 74
     0
  0
LTYPE
  5
AA
330
5
100
AcDbSymbolTableRecord
100
AcDbLinetypeTableRecord
  2
ACAD_ISO09W100
 70
     0
  3
ISO long-dash double-short-dash ____ __ __ ____
 72
    65
 73
     6
 40
1.31
 49
0.47
 74
     0
 49
-0.12
 74
     0
 49
0.24
 74
     0
 49
-0.12
 74
     0
 49
0.24
 74
     0
 49
-0.12
 74
     0
  0
LTYPE
  5
AB
330
5
100
AcDbSymbolTableRecord
100
AcDbLinetypeTableRecord
  2
ACAD_ISO10W100
 70
     0
  3
ISO dash dot __ . __ . __ . __ . __ . __ . __ .
 72
    65
 73
     4
 40
0.71
 49
0.47
 74
     0
 49
-0.12
 74
     0
 49
0.0
 74
     0
 49
-0.12
 74
     0
  0
LTYPE
  5
AC
330
5
100
AcDbSymbolTableRecord
100
AcDbLinetypeTableRecord
  2
ACAD_ISO11W100
 70
     0
  3
ISO double-dash dot __ __ . __ __ . __ __ . __ 
 72
    65
 73
     6
 40
1.299999999999999
 49
0.47
 74
     0
 49
-0.12
 74
     0
 49
0.47
 74
     0
 49
-0.12
 74
     0
 49
0.0
 74
     0
 49
-0.12
 74
     0
  0
LTYPE
  5
AD
330
5
100
AcDbSymbolTableRecord
100
AcDbLinetypeTableRecord
  2
ACAD_ISO12W100
 70
     0
  3
ISO dash double-dot __ . . __ . . __ . . __ . .
 72
    65
 73
     6
 40
0.8299999999999998
 49
0.47
 74
     0
 49
-0.12
 74
     0
 49
0.0
 74
     0
 49
-0.12
 74
     0
 49
0.0
 74
     0
 49
-0.12
 74
     0
  0
LTYPE
  5
AE
330
5
100
AcDbSymbolTableRecord
100
AcDbLinetypeTableRecord
  2
ACAD_ISO13W100
 70
     0
  3
ISO double-dash double-dot __ __ . . __ __ . . 
 72
    65
 73
     8
 40
1.419999999999999
 49
0.47
 74
     0
 49
-0.12
 74
     0
 49
0.47
 74
     0
 49
-0.12
 74
     0
 49
0.0
 74
     0
 49
-0.12
 74
     0
 49
0.0
 74
     0
 49
-0.12
 74
     0
  0
LTYPE
  5
AF
330
5
100
AcDbSymbolTableRecord
100
AcDbLinetypeTableRecord
  2
ACAD_ISO14W100
 70
     0
  3
ISO dash triple-dot __ . . . __ . . . __ . . . 
 72
    65
 73
     8
 40
0.95
 49
0.47
 74
     0
 49
-0.12
 74
     0
 49
0.0
 74
     0
 49
-0.12
 74
     0
 49
0.0
 74
     0
 49
-0.12
 74
     0
 49
0.0
 74
     0
 49
-0.12
 74
     0
  0
LTYPE
  5
B0
330
5
100
AcDbSymbolTableRecord
100
AcDbLinetypeTableRecord
  2
ACAD_ISO15W100
 70
     0
  3
ISO double-dash triple-dot __ __ . . . __ __ . 
 72
    65
 73
    10
 40
1.539999999999999
 49
0.47
 74
     0
 49
-0.12
 74
     0
 49
0.47
 74
     0
 49
-0.12
 74
     0
 49
0.0
 74
     0
 49
-0.12
 74
     0
 49
0.0
 74
     0
 49
-0.12
 74
     0
 49
0.0
 74
     0
 49
-0.12
 74
     0
  0
LTYPE
  5
B3
330
5
100
AcDbSymbolTableRecord
100
AcDbLinetypeTableRecord
  2
FENCELINE1
 70
     0
  3
Fenceline circle ----0-----0----0-----0----0---
 72
    65
 73
     4
 40
1.45
 49
0.25
 74
     0
 49
-0.1
 74
     4
 75
   133
340
B2
 46
0.1
 50
0.0
 44
-0.1
 45
0.0
 49
-0.1
 74
     0
 49
1.0
 74
     0
  0
LTYPE
  5
B4
330
5
100
AcDbSymbolTableRecord
100
AcDbLinetypeTableRecord
  2
FENCELINE2
 70
     0
  3
Fenceline square ----[]-----[]----[]-----[]----
 72
    65
 73
     4
 40
1.45
 49
0.25
 74
     0
 49
-0.1
 74
     4
 75
   132
340
B2
 46
0.1
 50
0.0
 44
-0.1
 45
0.0
 49
-0.1
 74
     0
 49
1.0
 74
     0
  0
LTYPE
  5
B5
330
5
100
AcDbSymbolTableRecord
100
AcDbLinetypeTableRecord
  2
TRACKS
 70
     0
  3
Tracks -|-|-|-|-|-|-|-|-|-|-|-|-|-|-|-|-|-|-|-|
 72
    65
 73
     2
 40
0.3
 49
0.15
 74
     4
 75
   130
340
B2
 46
0.25
 50
0.0
 44
0.0
 45
0.0
 49
0.15
 74
     0
  0
LTYPE
  5
B6
330
5
100
AcDbSymbolTableRecord
100
AcDbLinetypeTableRecord
  2
BATTING
 70
     0
  3
Batting SSSSSSSSSSSSSSSSSSSSSSSSSSSSSSSSSSSSSSS
 72
    65
 73
     4
 40
0.4001000000000001
 49
0.0001
 74
     0
 49
-0.1
 74
     4
 75
   134
340
B2
 46
0.1
 50
0.0
 44
-0.1
 45
0.0
 49
-0.2
 74
     4
 75
   134
340
B2
 46
0.1
 50
180.0
 44
0.1
 45
0.0
 49
-0.1
 74
     0
  0
LTYPE
  5
B7
330
5
100
AcDbSymbolTableRecord
100
AcDbLinetypeTableRecord
  2
HOT_WATER_SUPPLY
 70
     0
  3
Hot water supply ---- HW ---- HW ---- HW ----
 72
    65
 73
     3
 40
0.9
 49
0.5
 74
     0
 49
-0.2
 74
     2
 75
     0
340
55
 46
0.1
 50
0.0
 44
-0.1
 45
-0.05
  9
HW
 49
-0.2
 74
     0
  0
LTYPE
  5
B8
330
5
100
AcDbSymbolTableRecord
100
AcDbLinetypeTableRecord
  2
GAS_LINE
 70
     0
  3
Gas line ----GAS----GAS----GAS----GAS----GAS---
 72
    65
 73
     3
 40
0.95
 49
0.5
 74
     0
 49
-0.2
 74
     2
 75
     0
340
55
 46
0.1
 50
0.0
 44
-0.1
 45
-0.05
  9
GAS
 49
-0.25
 74
     0
  0
LTYPE
  5
B9
330
5
100
AcDbSymbolTableRecord
100
AcDbLinetypeTableRecord
  2
ZIGZAG
 70
     0
  3
Zig zag /\/\/\/\/\/\/\/\/\/\/\/\/\/\/\/\/\/\/\/
 72
    65
 73
     4
 40
0.8001000000000001
 49
0.0001
 74
     0
 49
-0.2
 74
     4
 75
   131
340
B2
 46
0.2
 50
0.0
 44
-0.2
 45
0.0
 49
-0.4
 74
     4
 75
   131
340
B2
 46
0.2
 50
180.0
 44
0.2
 45
0.0
 49
-0.2
 74
     0
  0
ENDTAB
  0
TABLE
  2
LAYER
  5
2
330
0
100
AcDbSymbolTable
 70
    27
  0
LAYER
  5
54
330
2
100
AcDbSymbolTableRecord
100
AcDbLayerTableRecord
  2
0
 70
     0
 62
     7
  6
Continuous
370
    18
390
F
347
21
  0
LAYER
  5
C0
330
2
100
AcDbSymbolTableRecord
100
AcDbLayerTableRecord
  2
Center Mark (ANSI)
 70
     0
 62
     7
  6
Continuous
370
    15
390
F
347
21
  0
LAYER
  5
C1
330
2
100
AcDbSymbolTableRecord
100
AcDbLayerTableRecord
  2
Centerline (ANSI)
 70
     0
 62
     7
  6
Continuous
370
    15
390
F
347
21
  0
LAYER
  5
C3
330
2
100
AcDbSymbolTableRecord
100
AcDbLayerTableRecord
  2
Dimension (ANSI)
 70
     0
 62
     7
  6
Continuous
370
    13
390
F
347
21
  0
LAYER
  5
CC
330
2
100
AcDbSymbolTableRecord
100
AcDbLayerTableRecord
  2
Symbol (ANSI)
 70
     0
 62
     7
  6
Continuous
370
    18
390
F
347
21
  0
LAYER
  5
CF
330
2
100
AcDbSymbolTableRecord
100
AcDbLayerTableRecord
  2
Visible (ANSI)
 70
     0
 62
     7
  6
Continuous
370
    13
390
F
347
21
  0
LAYER
  5
D0
330
2
100
AcDbSymbolTableRecord
100
AcDbLayerTableRecord
  2
Visible Narrow (ANSI)
 70
     0
 62
     7
  6
Continuous
370
    18
390
F
347
21
  0
LAYER
  5
2EB
330
2
100
AcDbSymbolTableRecord
100
AcDbLayerTableRecord
  2
Defpoints
 70
     0
 62
     7
  6
Continuous
290
     0
370
    -3
390
F
347
21
  0
ENDTAB
  0
TABLE
  2
STYLE
  5
3
330
0
100
AcDbSymbolTable
 70
    17
  0
STYLE
  5
55
330
3
100
AcDbSymbolTableRecord
100
AcDbTextStyleTableRecord
  2
Standard
 70
     0
 40
0.0
 41
1.0
 50
0.0
 71
     0
 42
0.2
  3
txt
  4

  0
STYLE
  5
5A
330
3
100
AcDbSymbolTableRecord
100
AcDbTextStyleTableRecord
  2
Annotative
 70
     0
 40
0.0
 41
1.0
 50
0.0
 71
     0
 42
0.2
  3
txt
  4

1001
AcadAnnotative
1000
AnnotativeData
1002
{
1070
     1
1070
     1
1002
}
  0
STYLE
  5
B2
330
3
100
AcDbSymbolTableRecord
100
AcDbTextStyleTableRecord
  2

 70
     1
 40
0.0
 41
1.0
 50
0.0
 71
     0
 42
0.2
  3
ltypeshp.shx
  4

  0
STYLE
  5
D4
330
3
100
AcDbSymbolTableRecord
100
AcDbTextStyleTableRecord
  2
ITALICC_120
 70
     0
 40
0.0
 41
1.0
 50
0.0
 71
     0
 42
0.2
  3
italicc.shx
  4

  0
STYLE
  5
D5
330
3
100
AcDbSymbolTableRecord
100
AcDbTextStyleTableRecord
  2
Label Text (ANSI)
 70
     0
 40
0.0
 41
1.0
 50
0.0
 71
     0
 42
0.2
  3
tahoma.ttf
  4

1001
ACAD
1000
Tahoma
1071
      256
  0
STYLE
  5
D6
330
3
100
AcDbSymbolTableRecord
100
AcDbTextStyleTableRecord
  2
Note Text (ANSI)
 70
     0
 40
0.0
 41
1.0
 50
0.0
 71
     0
 42
0.2
  3
tahoma.ttf
  4

1001
ACAD
1000
Tahoma
1071
      256
  0
STYLE
  5
D7
330
3
100
AcDbSymbolTableRecord
100
AcDbTextStyleTableRecord
  2
ROMANS
 70
     0
 40
0.0
 41
1.0
 50
0.0
 71
     0
 42
0.2
  3
romans.shx
  4

  0
STYLE
  5
D8
330
3
100
AcDbSymbolTableRecord
100
AcDbTextStyleTableRecord
  2
SANSSERIF_114
 70
     0
 40
0.0
 41
1.0
 50
0.0
 71
     0
 42
0.2
  3
tahoma.ttf
  4

1001
ACAD
1000
Tahoma
1071
      256
  0
STYLE
  5
D9
330
3
100
AcDbSymbolTableRecord
100
AcDbTextStyleTableRecord
  2
SANSSERIF_117
 70
     0
 40
0.0
 41
1.0
 50
0.0
 71
     0
 42
0.2
  3
tahoma.ttf
  4

1001
ACAD
1000
Tahoma
1071
      256
  0
STYLE
  5
DA
330
3
100
AcDbSymbolTableRecord
100
AcDbTextStyleTableRecord
  2
STANDARDAM_ANSI
 70
     0
 40
0.0
 41
1.0
 50
0.0
 71
     0
 42
0.2
  3
txt.shx
  4

  0
STYLE
  5
DB
330
3
100
AcDbSymbolTableRecord
100
AcDbTextStyleTableRecord
  2
StandardAM_ANSI$0
 70
     0
 40
0.0
 41
1.0
 50
0.0
 71
     0
 42
0.2
  3
txt.shx
  4

  0
STYLE
  5
DC
330
3
100
AcDbSymbolTableRecord
100
AcDbTextStyleTableRecord
  2
STANDARDAM_ANSI$3
 70
     0
 40
0.0
 41
1.0
 50
0.0
 71
     0
 42
0.2
  3
txt.shx
  4

  0
STYLE
  5
DD
330
3
100
AcDbSymbolTableRecord
100
AcDbTextStyleTableRecord
  2
STANDARDAM_ANSI$4
 70
     0
 40
0.0
 41
1.0
 50
0.0
 71
     0
 42
0.2
  3
txt.shx
  4

  0
STYLE
  5
DE
330
3
100
AcDbSymbolTableRecord
100
AcDbTextStyleTableRecord
  2
STANDARDAM_ANSI$7
 70
     0
 40
0.0
 41
1.0
 50
0.0
 71
     0
 42
0.2
  3
txt.shx
  4

  0
STYLE
  5
DF
330
3
100
AcDbSymbolTableRecord
100
AcDbTextStyleTableRecord
  2
STANDARDAM_ANSI$SF
 70
     0
 40
0.0
 41
1.0
 50
0.0
 71
     0
 42
0.2
  3
txt.shx
  4

  0
STYLE
  5
E0
330
3
100
AcDbSymbolTableRecord
100
AcDbTextStyleTableRecord
  2
STANDARDAM_ANSI$SH
 70
     0
 40
0.0
 41
1.0
 50
0.0
 71
     0
 42
0.2
  3
txt.shx
  4

  0
STYLE
  5
E1
330
3
100
AcDbSymbolTableRecord
100
AcDbTextStyleTableRecord
  2
STANDARDSTANDARD
 70
     0
 40
0.0
 41
1.0
 50
0.0
 71
     0
 42
0.2
  3
txt.shx
  4

  0
ENDTAB
  0
TABLE
  2
VIEW
  5
6
330
0
100
AcDbSymbolTable
 70
     0
  0
ENDTAB
  0
TABLE
  2
UCS
  5
7
330
0
100
AcDbSymbolTable
 70
     0
  0
ENDTAB
  0
TABLE
  2
APPID
  5
9
330
0
100
AcDbSymbolTable
 70
     3
  0
APPID
  5
56
330
9
100
AcDbSymbolTableRecord
100
AcDbRegAppTableRecord
  2
ACAD
 70
     0
  0
APPID
  5
5E
330
9
100
AcDbSymbolTableRecord
100
AcDbRegAppTableRecord
  2
AcadAnnotative
 70
     0
  0
APPID
  5
D4B
330
9
100
AcDbSymbolTableRecord
100
AcDbRegAppTableRecord
  2
ACAD_DSTYLE_DIMRADIAL_EXTENSION
 70
     0
  0
ENDTAB
  0
TABLE
  2
DIMSTYLE
  5
A
330
0
100
AcDbSymbolTable
 70
    27
100
AcDbDimStyleTable
 71
     2
340
F6
340
58
  0
DIMSTYLE
105
58
330
A
100
AcDbSymbolTableRecord
100
AcDbDimStyleTableRecord
  2
STANDARD
 70
     0
 41
0.1800000071525573
 42
0.0625
140
0.1800000071525574
144
1.0
147
0.0900000035762787
176
   256
177
   256
178
   256
274
     3
340
55
371
    -1
372
    -1
  0
DIMSTYLE
105
59
330
A
100
AcDbSymbolTableRecord
100
AcDbDimStyleTableRecord
  2
Annotative
 70
     0
340
55
1001
AcadAnnotative
1000
AnnotativeData
1002
{
1070
     1
1070
     1
1002
}
  0
DIMSTYLE
105
E2
330
A
100
AcDbSymbolTableRecord
100
AcDbDimStyleTableRecord
  2
AM_ANSI
 70
     0
  4
 mm
 40
11.0
 41
0.119999997317791
 42
0.05
 43
0.5
 44
0.1
 45
0.00000001
 78
     4
 79
     2
140
0.1200000047683716
146
0.7099999189376831
147
0.0599999986588955
176
   256
177
   256
178
     2
284
     4
340
DA
371
    -1
372
    -1
  0
DIMSTYLE
105
E3
330
A
100
AcDbSymbolTableRecord
100
AcDbDimStyleTableRecord
  2
AM_ANSI$7
 70
     0
  4
 mm
 40
11.0
 41
0.119999997317791
 42
0.05
 43
0.5
 44
0.1
 45
0.00000001
 78
     4
 79
     2
140
0.1200000047683716
146
0.7099999189376831
147
0.0599999986588955
176
   256
177
   256
178
     2
284
     4
340
DA
371
    -1
372
    -1
  0
DIMSTYLE
105
E4
330
A
100
AcDbSymbolTableRecord
100
AcDbDimStyleTableRecord
  2
AM_ANSI$0
 70
     0
  4
 mm
 40
11.0
 41
0.119999997317791
 42
0.05
 43
0.5
 44
0.1
 45
0.00000001
 78
     4
 79
     2
140
0.1200000047683716
146
0.7099999189376831
147
0.0599999986588955
176
   256
177
   256
178
     2
284
     4
340
DB
371
    -1
372
    -1
  0
DIMSTYLE
105
E5
330
A
100
AcDbSymbolTableRecord
100
AcDbDimStyleTableRecord
  2
AM_ANSI$0$7
 70
     0
  4
 mm
 40
11.0
 41
0.119999997317791
 42
0.05
 43
0.5
 44
0.1
 45
0.00000001
 78
     4
 79
     2
140
0.1200000047683716
146
0.7099999189376831
147
0.0599999986588955
176
   256
177
   256
178
     2
284
     4
340
DB
371
    -1
372
    -1
  0
DIMSTYLE
105
E6
330
A
100
AcDbSymbolTableRecord
100
AcDbDimStyleTableRecord
  2
AM_ANSI$3
 70
     0
  4
 mm
 40
11.0
 41
0.119999997317791
 42
0.05
 43
0.5
 44
0.1
 45
0.00000001
 78
     4
 79
     2
140
0.1200000047683716
146
0.7099999189376831
147
0.0599999986588955
176
   256
177
   256
178
     2
284
     4
340
DC
371
    -1
372
    -1
  0
DIMSTYLE
105
E7
330
A
100
AcDbSymbolTableRecord
100
AcDbDimStyleTableRecord
  2
AM_ANSI$3$7
 70
     0
  4
 mm
 40
11.0
 41
0.119999997317791
 42
0.05
 43
0.5
 44
0.1
 45
0.00000001
 78
     4
 79
     2
140
0.1200000047683716
146
0.7099999189376831
147
0.0599999986588955
176
   256
177
   256
178
     2
284
     4
340
DC
371
    -1
372
    -1
  0
DIMSTYLE
105
E8
330
A
100
AcDbSymbolTableRecord
100
AcDbDimStyleTableRecord
  2
AM_ANSI$4
 70
     0
  4
 mm
 40
11.0
 41
0.119999997317791
 42
0.05
 43
0.5
 44
0.1
 45
0.00000001
 78
     4
 79
     2
140
0.1200000047683716
146
0.7099999189376831
147
0.0599999986588955
176
   256
177
   256
178
     2
284
     4
340
DD
371
    -1
372
    -1
  0
DIMSTYLE
105
E9
330
A
100
AcDbSymbolTableRecord
100
AcDbDimStyleTableRecord
  2
AM_ANSI$4$7
 70
     0
  4
 mm
 40
11.0
 41
0.119999997317791
 42
0.05
 43
0.5
 44
0.1
 45
0.00000001
 78
     4
 79
     2
140
0.1200000047683716
146
0.7099999189376831
147
0.0599999986588955
176
   256
177
   256
178
     2
284
     4
340
DD
371
    -1
372
    -1
  0
DIMSTYLE
105
EA
330
A
100
AcDbSymbolTableRecord
100
AcDbDimStyleTableRecord
  2
AM_ANSI$SF
 70
     0
  4
 mm
 40
11.0
 41
0.119999997317791
 42
0.05
 43
0.5
 44
0.1
 45
0.00000001
 75
     1
 76
     1
 78
     4
 79
     2
140
0.1200000047683716
146
0.7099999189376831
147
0.0599999986588955
176
   256
177
   256
178
     2
284
     4
340
DF
371
    -1
372
    -1
  0
DIMSTYLE
105
EB
330
A
100
AcDbSymbolTableRecord
100
AcDbDimStyleTableRecord
  2
AM_ANSI$SF$7
 70
     0
  4
 mm
 40
11.0
 41
0.119999997317791
 42
0.05
 43
0.5
 44
0.1
 45
0.00000001
 75
     1
 76
     1
 78
     4
 79
     2
140
0.1200000047683716
146
0.7099999189376831
147
0.0599999986588955
176
   256
177
   256
178
     2
284
     4
340
DF
371
    -1
372
    -1
  0
DIMSTYLE
105
EC
330
A
100
AcDbSymbolTableRecord
100
AcDbDimStyleTableRecord
  2
AM_ANSI$SH
 70
     0
  4
 mm
 40
11.0
 41
0.119999997317791
 42
0.05
 43
0.5
 44
0.1
 45
0.00000001
 75
     1
 76
     1
 78
     4
 79
     2
140
0.1200000047683716
146
0.7099999189376831
147
0.0599999986588955
176
   256
177
   256
178
     2
284
     4
340
E0
371
    -1
372
    -1
  0
DIMSTYLE
105
ED
330
A
100
AcDbSymbolTableRecord
100
AcDbDimStyleTableRecord
  2
AM_ANSI$SH$7
 70
     0
  4
 mm
 40
11.0
 41
0.119999997317791
 42
0.05
 43
0.5
 44
0.1
 45
0.00000001
 75
     1
 76
     1
 78
     4
 79
     2
140
0.1200000047683716
146
0.7099999189376831
147
0.0599999986588955
176
   256
177
   256
178
     2
284
     4
340
E0
371
    -1
372
    -1
  0
DIMSTYLE
105
EE
330
A
100
AcDbSymbolTableRecord
100
AcDbDimStyleTableRecord
  2
Architectural (ANSI)
 70
     0
 40
11.0
 41
0.0984251946210861
 43
0.2362204724409449
 44
0.125
 45
0.00000001
 46
0.3937007874015748
 78
     3
 79
     3
140
0.1200000047683716
147
0.031496062992126
171
     1
176
   256
177
   256
178
   256
272
     2
274
     1
276
     2
277
     4
284
    12
285
     4
286
    12
340
D6
371
    -1
372
    -1
  0
DIMSTYLE
105
EF
330
A
100
AcDbSymbolTableRecord
100
AcDbDimStyleTableRecord
  2
Architectural (ANSI)$7
 70
     0
 40
11.0
 41
0.0984251946210861
 43
0.2362204724409449
 44
0.125
 45
0.00000001
 46
0.3937007874015748
 78
     3
 79
     3
140
0.1200000047683716
147
0.031496062992126
171
     1
176
   256
177
   256
178
   256
272
     2
274
     1
276
     2
277
     4
284
    12
285
     4
286
    12
340
D6
371
    -1
372
    -1
  0
DIMSTYLE
105
F0
330
A
100
AcDbSymbolTableRecord
100
AcDbDimStyleTableRecord
  2
Default - Fraction (ANSI)
 70
     0
 40
11.0
 41
0.0984251946210861
 43
0.2362204724409449
 44
0.125
 45
0.00000001
 46
0.3937007874015748
 79
     3
140
0.1200000047683716
147
0.031496062992126
171
     1
176
   256
177
   256
178
   256
272
     2
274
     1
276
     2
277
     5
284
    12
285
     4
286
    12
340
D6
371
    -1
372
    -1
  0
DIMSTYLE
105
F1
330
A
100
AcDbSymbolTableRecord
100
AcDbDimStyleTableRecord
  2
Default - Fraction (ANSI)$7
 70
     0
 40
11.0
 41
0.0984251946210861
 43
0.2362204724409449
 44
0.125
 45
0.00000001
 46
0.3937007874015748
 79
     3
140
0.1200000047683716
147
0.031496062992126
171
     1
176
   256
177
   256
178
   256
272
     2
274
     1
276
     2
277
     5
284
    12
285
     4
286
    12
340
D6
371
    -1
372
    -1
  0
DIMSTYLE
105
F2
330
A
100
AcDbSymbolTableRecord
100
AcDbDimStyleTableRecord
  2
Default - mm (ANSI)
 70
     0
 40
11.0
 41
0.0984251946210861
 42
0.063
 43
0.2362204724409449
 44
0.125
 45
0.00000001
 46
0.3937007874015748
 73
     0
 78
     4
 79
     1
140
0.1200000047683716
143
1.0
144
25.4
147
0.031496062992126
171
     1
176
   256
177
   256
178
   256
179
     1
271
     2
272
     2
274
     1
284
     4
285
     4
340
D6
371
    -1
372
    -1
  0
DIMSTYLE
105
F3
330
A
100
AcDbSymbolTableRecord
100
AcDbDimStyleTableRecord
  2
Default - mm (ANSI)$7
 70
     0
 40
11.0
 41
0.0984251946210861
 42
0.063
 43
0.2362204724409449
 44
0.125
 45
0.00000001
 46
0.3937007874015748
 73
     0
 78
     4
 79
     1
140
0.1200000047683716
143
1.0
144
25.4
147
0.031496062992126
171
     1
176
   256
177
   256
178
   256
179
     1
271
     2
272
     2
274
     1
284
     4
285
     4
340
D6
371
    -1
372
    -1
  0
DIMSTYLE
105
F4
330
A
100
AcDbSymbolTableRecord
100
AcDbDimStyleTableRecord
  2
Default - mm [in] (ANSI)
 70
     0
  4
 in
 40
11.0
 41
0.0984251946210861
 42
0.063
 43
0.25
 44
0.125
 45
0.00000001
 46
0.3937007874015748
 73
     0
 78
     4
 79
     1
140
0.1200000047683716
143
0.03937
144
25.4
147
0.031496062992126
170
     1
171
     3
176
   256
177
   256
178
   256
179
     1
271
     2
272
     2
274
     3
284
     4
285
     4
286
     4
340
D6
371
    -1
372
    -1
  0
DIMSTYLE
105
F5
330
A
100
AcDbSymbolTableRecord
100
AcDbDimStyleTableRecord
  2
Default - mm [in] (ANSI)$7
 70
     0
  4
 in
 40
11.0
 41
0.0984251946210861
 42
0.063
 43
0.25
 44
0.125
 45
0.00000001
 46
0.3937007874015748
 73
     0
 78
     4
 79
     1
140
0.1200000047683716
143
0.03937
144
25.4
147
0.031496062992126
170
     1
171
     3
176
   256
177
   256
178
   256
179
     1
271
     2
272
     2
274
     3
284
     4
285
     4
286
     4
340
D6
371
    -1
372
    -1
  0
DIMSTYLE
105
F6
102
{ACAD_REACTORS
330
2E9
330
3D6
330
4C0
330
5AA
330
694
330
77E
330
868
330
980
330
A7E
330
CB1
330
D6C
102
}
330
A
100
AcDbSymbolTableRecord
100
AcDbDimStyleTableRecord
  2
Default (ANSI)
 70
     0
 40
11.0
 41
0.0984251946210861
 43
0.2362204724409449
 44
0.125
 45
0.00000001
 46
0.3937007874015748
 79
     1
140
0.1200000047683716
147
0.031496062992126
171
     1
176
   256
177
   256
178
   256
271
     2
272
     2
274
     1
284
     4
285
     4
340
D6
371
    -1
372
    -1
  0
DIMSTYLE
105
F7
330
A
100
AcDbSymbolTableRecord
100
AcDbDimStyleTableRecord
  2
Default (ANSI)$7
 70
     0
 40
11.0
 41
0.0984251946210861
 43
0.2362204724409449
 44
0.125
 45
0.00000001
 46
0.3937007874015748
 79
     1
140
0.1200000047683716
147
0.031496062992126
171
     1
176
   256
177
   256
178
   256
271
     2
272
     2
274
     1
284
     4
285
     4
340
D6
371
    -1
372
    -1
  0
DIMSTYLE
105
F8
330
A
100
AcDbSymbolTableRecord
100
AcDbDimStyleTableRecord
  2
Alternate (ANSI)
 70
     0
 40
11.0
 41
0.0979999974370003
340
55
342
F9
  0
DIMSTYLE
105
10B
330
A
100
AcDbSymbolTableRecord
100
AcDbDimStyleTableRecord
  2
Datum (ANSI)
 70
     0
 40
11.0
 41
0.0979999974370003
340
55
342
F9
  0
DIMSTYLE
105
11A
330
A
100
AcDbSymbolTableRecord
100
AcDbDimStyleTableRecord
  2
Large (ANSI)
 70
     0
 40
11.0
 41
0.1959999948740005
340
55
342
F9
  0
ENDTAB
  0
TABLE
  2
BLOCK_RECORD
  5
1
330
0
100
AcDbSymbolTable
 70
    15
  0
BLOCK_RECORD
  5
6C
330
1
100
AcDbSymbolTableRecord
100
AcDbBlockTableRecord
  2
*Model_Space
340
6F
 70
     0
280
     1
281
     0
  0
BLOCK_RECORD
  5
68
330
1
100
AcDbSymbolTableRecord
100
AcDbBlockTableRecord
  2
*Paper_Space
340
6B
 70
     0
280
     1
281
     0
  0
BLOCK_RECORD
  5
70
330
1
100
AcDbSymbolTableRecord
100
AcDbBlockTableRecord
  2
*Paper_Space0
340
73
 70
     0
280
     1
281
     0
  0
BLOCK_RECORD
  5
F9
330
1
100
AcDbSymbolTableRecord
100
AcDbBlockTableRecord
  2
_Closed
340
0
 70
     0
280
     1
281
     0
  0
BLOCK_RECORD
  5
100
330
1
100
AcDbSymbolTableRecord
100
AcDbBlockTableRecord
  2
DatumFilled45
340
0
 70
     0
280
     1
281
     0
  0
BLOCK_RECORD
  5
10C
330
1
100
AcDbSymbolTableRecord
100
AcDbBlockTableRecord
  2
Filled-1
340
0
 70
     0
280
     1
281
     0
  0
BLOCK_RECORD
  5
2EC
330
1
100
AcDbSymbolTableRecord
100
AcDbBlockTableRecord
  2
*D4
340
0
 70
     0
280
     1
281
     0
  0
BLOCK_RECORD
  5
3D7
330
1
100
AcDbSymbolTableRecord
100
AcDbBlockTableRecord
  2
*D5
340
0
 70
     0
280
     1
281
     0
  0
BLOCK_RECORD
  5
4C1
330
1
100
AcDbSymbolTableRecord
100
AcDbBlockTableRecord
  2
*D6
340
0
 70
     0
280
     1
281
     0
  0
BLOCK_RECORD
  5
5AB
330
1
100
AcDbSymbolTableRecord
100
AcDbBlockTableRecord
  2
*D7
340
0
 70
     0
280
     1
281
     0
  0
BLOCK_RECORD
  5
695
330
1
100
AcDbSymbolTableRecord
100
AcDbBlockTableRecord
  2
*D8
340
0
 70
     0
280
     1
281
     0
  0
BLOCK_RECORD
  5
77F
330
1
100
AcDbSymbolTableRecord
100
AcDbBlockTableRecord
  2
*D9
340
0
 70
     0
280
     1
281
     0
  0
BLOCK_RECORD
  5
869
330
1
100
AcDbSymbolTableRecord
100
AcDbBlockTableRecord
  2
*D10
340
0
 70
     0
280
     1
281
     0
  0
BLOCK_RECORD
  5
981
330
1
100
AcDbSymbolTableRecord
100
AcDbBlockTableRecord
  2
*D11
340
0
 70
     0
280
     1
281
     0
  0
BLOCK_RECORD
  5
A7F
330
1
100
AcDbSymbolTableRecord
100
AcDbBlockTableRecord
  2
*D12
340
0
 70
     0
280
     1
281
     0
  0
BLOCK_RECORD
  5
CB2
330
1
100
AcDbSymbolTableRecord
100
AcDbBlockTableRecord
  2
*D13
340
0
 70
     0
280
     1
281
     0
  0
BLOCK_RECORD
  5
D6D
330
1
100
AcDbSymbolTableRecord
100
AcDbBlockTableRecord
  2
*D14
340
0
 70
     0
280
     1
281
     0
  0
ENDTAB
  0
ENDSEC
  0
SECTION
  2
BLOCKS
  0
BLOCK
  5
6D
330
6C
100
AcDbEntity
  8
0
100
AcDbBlockBegin
  2
*Model_Space
 70
     0
 10
0.0
 20
0.0
 30
0.0
  3
*Model_Space
  1

  0
ENDBLK
  5
6E
330
6C
100
AcDbEntity
  8
0
100
AcDbBlockEnd
  0
BLOCK
  5
69
330
68
100
AcDbEntity
 67
     1
  8
0
100
AcDbBlockBegin
  2
*Paper_Space
 70
     0
 10
0.0
 20
0.0
 30
0.0
  3
*Paper_Space
  1

  0
ENDBLK
  5
6A
330
68
100
AcDbEntity
 67
     1
  8
0
100
AcDbBlockEnd
  0
BLOCK
  5
71
330
70
100
AcDbEntity
 67
     1
  8
0
100
AcDbBlockBegin
  2
*Paper_Space0
 70
     0
 10
0.0
 20
0.0
 30
0.0
  3
*Paper_Space0
  1

  0
ENDBLK
  5
72
330
70
100
AcDbEntity
 67
     1
  8
0
100
AcDbBlockEnd
  0
BLOCK
  5
FE
330
F9
100
AcDbEntity
  8
0
100
AcDbBlockBegin
  2
_Closed
 70
     0
 10
0.0
 20
0.0
 30
0.0
  3
_Closed
  1

  0
LINE
  5
FA
330
F9
100
AcDbEntity
  8
0
  6
ByBlock
 62
     0
370
    -2
100
AcDbLine
 10
-1.0
 20
0.1666666666666666
 30
0.0
 11
0.0
 21
0.0
 31
0.0
  0
LINE
  5
FB
330
F9
100
AcDbEntity
  8
0
  6
ByBlock
 62
     0
370
    -2
100
AcDbLine
 10
0.0
 20
0.0
 30
0.0
 11
-1.0
 21
-0.1666666666666666
 31
0.0
  0
LINE
  5
FC
330
F9
100
AcDbEntity
  8
0
  6
ByBlock
 62
     0
370
    -2
100
AcDbLine
 10
-1.0
 20
0.1666666666666666
 30
0.0
 11
-1.0
 21
-0.1666666666666666
 31
0.0
  0
LINE
  5
FD
330
F9
100
AcDbEntity
  8
0
  6
ByBlock
 62
     0
370
    -2
100
AcDbLine
 10
0.0
 20
0.0
 30
0.0
 11
-1.0
 21
0.0
 31
0.0
  0
ENDBLK
  5
FF
330
F9
100
AcDbEntity
  8
0
100
AcDbBlockEnd
  0
BLOCK
  5
101
330
100
100
AcDbEntity
  8
0
100
AcDbBlockBegin
  2
DatumFilled45
 70
     0
 10
0.0
 20
0.0
 30
0.0
  3
DatumFilled45
  1

  0
POLYLINE
  5
103
330
100
100
AcDbEntity
  8
0
 62
     0
100
AcDb2dPolyline
 66
     1
 10
0.0
 20
0.0
 30
0.0
 70
   128
  0
VERTEX
  5
104
330
103
100
AcDbEntity
  8
0
 62
     0
100
AcDbVertex
100
AcDb2dVertex
 10
0.0
 20
0.9999999999999998
 30
0.0
  0
VERTEX
  5
105
330
103
100
AcDbEntity
  8
0
 62
     0
100
AcDbVertex
100
AcDb2dVertex
 10
0.0
 20
-0.9999999999999998
 30
0.0
  0
VERTEX
  5
107
330
103
100
AcDbEntity
  8
0
 62
     0
100
AcDbVertex
100
AcDb2dVertex
 10
-0.9999999999999998
 20
0.0
 30
0.0
  0
VERTEX
  5
108
330
103
100
AcDbEntity
  8
0
 62
     0
100
AcDbVertex
100
AcDb2dVertex
 10
0.0
 20
0.9999999999999998
 30
0.0
  0
SEQEND
  5
106
330
103
100
AcDbEntity
  8
0
 62
     0
  0
SOLID
  5
10A
330
100
100
AcDbEntity
  8
0
 62
     0
100
AcDbTrace
 10
0.0
 20
0.9999999999999998
 30
0.0
 11
0.0
 21
-0.9999999999999998
 31
0.0
 12
-0.9999999999999998
 22
0.0
 32
0.0
 13
0.0
 23
0.9999999999999998
 33
0.0
  0
ENDBLK
  5
102
330
100
100
AcDbEntity
  8
0
100
AcDbBlockEnd
  0
BLOCK
  5
10D
330
10C
100
AcDbEntity
  8
0
100
AcDbBlockBegin
  2
Filled-1
 70
     0
 10
0.0
 20
0.0
 30
0.0
  3
Filled-1
  1

  0
LINE
  5
10F
330
10C
100
AcDbEntity
  8
0
 62
     0
100
AcDbLine
 10
-0.9999999999999998
 20
0.0
 30
0.0
 11
0.0
 21
0.0
 31
0.0
  0
POLYLINE
  5
110
330
10C
100
AcDbEntity
  8
0
 62
     0
100
AcDb2dPolyline
 66
     1
 10
0.0
 20
0.0
 30
0.0
 70
   128
  0
VERTEX
  5
111
330
110
100
AcDbEntity
  8
0
 62
     0
100
AcDbVertex
100
AcDb2dVertex
 10
-0.9999999999999998
 20
-0.0994897959183674
 30
0.0
  0
VERTEX
  5
112
330
110
100
AcDbEntity
  8
0
 62
     0
100
AcDbVertex
100
AcDb2dVertex
 10
0.0
 20
0.0
 30
0.0
  0
VERTEX
  5
114
330
110
100
AcDbEntity
  8
0
 62
     0
100
AcDbVertex
100
AcDb2dVertex
 10
-0.9999999999999998
 20
0.0994897959183674
 30
0.0
  0
VERTEX
  5
115
330
110
100
AcDbEntity
  8
0
 62
     0
100
AcDbVertex
100
AcDb2dVertex
 10
-0.9999999999999998
 20
-0.0994897959183674
 30
0.0
  0
SEQEND
  5
113
330
110
100
AcDbEntity
  8
0
 62
     0
  0
SOLID
  5
116
330
10C
100
AcDbEntity
  8
0
 62
     0
100
AcDbTrace
 10
-0.9999999999999998
 20
-0.0994897959183674
 30
0.0
 11
0.0
 21
0.0
 31
0.0
 12
-0.9999999999999998
 22
0.0994897959183674
 32
0.0
 13
-0.9999999999999998
 23
-0.0994897959183674
 33
0.0
  0
LINE
  5
117
330
10C
100
AcDbEntity
  8
0
 62
     0
100
AcDbLine
 10
-0.9999999999999998
 20
-0.0994897959183674
 30
0.0
 11
0.0
 21
0.0
 31
0.0
  0
LINE
  5
118
330
10C
100
AcDbEntity
  8
0
 62
     0
100
AcDbLine
 10
0.0
 20
0.0
 30
0.0
 11
-0.9999999999999998
 21
0.0994897959183674
 31
0.0
  0
LINE
  5
119
330
10C
100
AcDbEntity
  8
0
 62
     0
100
AcDbLine
 10
-0.9999999999999998
 20
0.0994897959183674
 30
0.0
 11
-0.9999999999999998
 21
-0.0994897959183674
 31
0.0
  0
ENDBLK
  5
10E
330
10C
100
AcDbEntity
  8
0
100
AcDbBlockEnd
  0
BLOCK
  5
2ED
330
2EC
100
AcDbEntity
  8
0
100
AcDbBlockBegin
  2
*D4
 70
     1
 10
0.0
 20
0.0
 30
0.0
  3
*D4
  1

  0
LINE
  5
3CC
330
2EC
100
AcDbEntity
  8
Dimension (ANSI)
440
 16777216
100
AcDbLine
 10
42.7725944965791
 20
35.25247706687757
 30
0.0
 11
22.16383465405943
 21
35.25247706687757
 31
0.0
  0
LINE
  5
3CD
330
2EC
100
AcDbEntity
  8
Dimension (ANSI)
440
 16777216
100
AcDbLine
 10
42.7725944965791
 20
85.25247706687757
 30
0.0
 11
22.16383465405944
 21
85.25247706687759
 31
0.0
  0
LINE
  5
3CE
330
2EC
100
AcDbEntity
  8
Dimension (ANSI)
440
 16777216
100
AcDbLine
 10
23.53883465405943
 20
36.33515420770952
 30
0.0
 11
23.53883465405944
 21
59.21898207037739
 31
0.0
  0
LINE
  5
3CF
330
2EC
100
AcDbEntity
  8
Dimension (ANSI)
440
 16777216
100
AcDbLine
 10
23.53883465405944
 20
84.16979992604565
 30
0.0
 11
23.53883465405944
 21
61.28597206337772
 31
0.0
  0
SOLID
  5
3D0
330
2EC
100
AcDbEntity
  8
Dimension (ANSI)
440
 16777216
100
AcDbTrace
 10
23.35838846392078
 20
36.33515420770952
 30
0.0
 11
23.71928084419809
 21
36.33515420770952
 31
0.0
 12
23.53883465405943
 22
35.25247706687757
 32
0.0
 13
23.53883465405943
 23
35.25247706687757
 33
0.0
  0
SOLID
  5
3D1
330
2EC
100
AcDbEntity
  8
Dimension (ANSI)
440
 16777216
100
AcDbTrace
 10
23.35838846392078
 20
84.16979992604565
 30
0.0
 11
23.7192808441981
 21
84.16979992604565
 31
0.0
 12
23.53883465405944
 22
85.25247706687759
 32
0.0
 13
23.53883465405944
 23
85.25247706687759
 33
0.0
  0
MTEXT
  5
3D2
330
2EC
100
AcDbEntity
  8
Dimension (ANSI)
440
 16777216
100
AcDbMText
 10
21.37355587146497
 20
60.93951537046435
 30
0.0
 40
1.320000052452087
 41
0.0
 46
0.0
 71
     1
 72
     1
  1
\A1;50.00
  7
Note Text (ANSI)
 73
     1
 44
1.0
  0
POINT
  5
3D3
330
2EC
100
AcDbEntity
  8
Defpoints
 62
     0
440
 16777216
100
AcDbPoint
 10
43.46009449657911
 20
35.25247706687757
 30
0.0
  0
POINT
  5
3D4
330
2EC
100
AcDbEntity
  8
Defpoints
 62
     0
440
 16777216
100
AcDbPoint
 10
43.4600944965791
 20
85.25247706687757
 30
0.0
  0
POINT
  5
3D5
330
2EC
100
AcDbEntity
  8
Defpoints
 62
     0
440
 16777216
100
AcDbPoint
 10
23.53883465405944
 20
85.25247706687759
 30
0.0
  0
ENDBLK
  5
2EE
330
2EC
100
AcDbEntity
  8
0
100
AcDbBlockEnd
  0
BLOCK
  5
3D8
330
3D7
100
AcDbEntity
  8
0
100
AcDbBlockBegin
  2
*D5
 70
     1
 10
0.0
 20
0.0
 30
0.0
  3
*D5
  1

  0
LINE
  5
4B6
330
3D7
100
AcDbEntity
  8
Dimension (ANSI)
440
 16777216
100
AcDbLine
 10
43.43420614893078
 20
36.12747706687758
 30
0.0
 11
37.04079229380223
 21
36.12747706687758
 31
0.0
  0
LINE
  5
4B7
330
3D7
100
AcDbEntity
  8
Dimension (ANSI)
440
 16777216
100
AcDbLine
 10
43.43420614893078
 20
60.25247706687757
 30
0.0
 11
37.04079229380223
 21
60.25247706687757
 31
0.0
  0
LINE
  5
4B8
330
3D7
100
AcDbEntity
  8
Dimension (ANSI)
440
 16777216
100
AcDbLine
 10
38.41579229380223
 20
37.21015420770953
 30
0.0
 11
38.41579229380223
 21
47.15603881985897
 31
0.0
  0
LINE
  5
4B9
330
3D7
100
AcDbEntity
  8
Dimension (ANSI)
440
 16777216
100
AcDbLine
 10
38.41579229380224
 20
59.16979992604563
 30
0.0
 11
38.41579229380224
 21
49.22391531389617
 31
0.0
  0
SOLID
  5
4BA
330
3D7
100
AcDbEntity
  8
Dimension (ANSI)
440
 16777216
100
AcDbTrace
 10
38.23534610366357
 20
37.21015420770953
 30
0.0
 11
38.59623848394089
 21
37.21015420770953
 31
0.0
 12
38.41579229380223
 22
36.12747706687758
 32
0.0
 13
38.41579229380223
 23
36.12747706687758
 33
0.0
  0
SOLID
  5
4BB
330
3D7
100
AcDbEntity
  8
Dimension (ANSI)
440
 16777216
100
AcDbTrace
 10
38.23534610366357
 20
59.16979992604563
 30
0.0
 11
38.5962384839409
 21
59.16979992604563
 31
0.0
 12
38.41579229380224
 22
60.25247706687757
 32
0.0
 13
38.41579229380224
 23
60.25247706687757
 33
0.0
  0
MTEXT
  5
4BC
330
3D7
100
AcDbEntity
  8
Dimension (ANSI)
440
 16777216
100
AcDbMText
 10
36.25849202053974
 20
48.8774586209828
 30
0.0
 40
1.320000052452087
 41
0.0
 46
0.0
 71
     1
 72
     1
  1
\A1;24.13
  7
Note Text (ANSI)
 73
     1
 44
1.0
  0
POINT
  5
4BD
330
3D7
100
AcDbEntity
  8
Defpoints
 62
     0
440
 16777216
100
AcDbPoint
 10
44.12170614893078
 20
36.12747706687758
 30
0.0
  0
POINT
  5
4BE
330
3D7
100
AcDbEntity
  8
Defpoints
 62
     0
440
 16777216
100
AcDbPoint
 10
44.12170614893078
 20
60.25247706687757
 30
0.0
  0
POINT
  5
4BF
330
3D7
100
AcDbEntity
  8
Defpoints
 62
     0
440
 16777216
100
AcDbPoint
 10
38.41579229380224
 20
60.25247706687757
 30
0.0
  0
ENDBLK
  5
3D9
330
3D7
100
AcDbEntity
  8
0
100
AcDbBlockEnd
  0
BLOCK
  5
4C2
330
4C1
100
AcDbEntity
  8
0
100
AcDbBlockBegin
  2
*D6
 70
     1
 10
0.0
 20
0.0
 30
0.0
  3
*D6
  1

  0
LINE
  5
5A0
330
4C1
100
AcDbEntity
  8
Dimension (ANSI)
440
 16777216
100
AcDbLine
 10
43.43420614893078
 20
36.12747706687758
 30
0.0
 11
30.62072189696229
 21
36.12747706687758
 31
0.0
  0
LINE
  5
5A1
330
4C1
100
AcDbEntity
  8
Dimension (ANSI)
440
 16777216
100
AcDbLine
 10
43.43420614893078
 20
84.37747706687757
 30
0.0
 11
30.6207218969623
 21
84.37747706687758
 31
0.0
  0
LINE
  5
5A2
330
4C1
100
AcDbEntity
  8
Dimension (ANSI)
440
 16777216
100
AcDbLine
 10
31.99572189696229
 20
37.21015420770953
 30
0.0
 11
31.9957218969623
 21
59.2158793167483
 31
0.0
  0
LINE
  5
5A3
330
4C1
100
AcDbEntity
  8
Dimension (ANSI)
440
 16777216
100
AcDbLine
 10
31.9957218969623
 20
83.29479992604564
 30
0.0
 11
31.9957218969623
 21
61.28907481700683
 31
0.0
  0
SOLID
  5
5A4
330
4C1
100
AcDbEntity
  8
Dimension (ANSI)
440
 16777216
100
AcDbTrace
 10
31.81527570682363
 20
37.21015420770953
 30
0.0
 11
32.17616808710095
 21
37.21015420770953
 31
0.0
 12
31.99572189696229
 22
36.12747706687758
 32
0.0
 13
31.99572189696229
 23
36.12747706687758
 33
0.0
  0
SOLID
  5
5A5
330
4C1
100
AcDbEntity
  8
Dimension (ANSI)
440
 16777216
100
AcDbTrace
 10
31.81527570682364
 20
83.29479992604564
 30
0.0
 11
32.17616808710096
 21
83.29479992604563
 31
0.0
 12
31.9957218969623
 22
84.37747706687758
 32
0.0
 13
31.9957218969623
 23
84.37747706687758
 33
0.0
  0
MTEXT
  5
5A6
330
4C1
100
AcDbEntity
  8
Dimension (ANSI)
440
 16777216
100
AcDbMText
 10
29.80384808326124
 20
60.94261812409346
 30
0.0
 40
1.320000052452087
 41
0.0
 46
0.0
 71
     1
 72
     1
  1
\A1;48.25
  7
Note Text (ANSI)
 73
     1
 44
1.0
  0
POINT
  5
5A7
330
4C1
100
AcDbEntity
  8
Defpoints
 62
     0
440
 16777216
100
AcDbPoint
 10
44.12170614893078
 20
36.12747706687758
 30
0.0
  0
POINT
  5
5A8
330
4C1
100
AcDbEntity
  8
Defpoints
 62
     0
440
 16777216
100
AcDbPoint
 10
44.12170614893078
 20
84.37747706687757
 30
0.0
  0
POINT
  5
5A9
330
4C1
100
AcDbEntity
  8
Defpoints
 62
     0
440
 16777216
100
AcDbPoint
 10
31.9957218969623
 20
84.37747706687758
 30
0.0
  0
ENDBLK
  5
4C3
330
4C1
100
AcDbEntity
  8
0
100
AcDbBlockEnd
  0
BLOCK
  5
5AC
330
5AB
100
AcDbEntity
  8
0
100
AcDbBlockBegin
  2
*D7
 70
     1
 10
0.0
 20
0.0
 30
0.0
  3
*D7
  1

  0
LINE
  5
68A
330
5AB
100
AcDbEntity
  8
Dimension (ANSI)
440
 16777216
100
AcDbLine
 10
43.24670614893078
 20
85.72658871922925
 30
0.0
 11
43.24670614893078
 21
98.54007297119776
 31
0.0
  0
LINE
  5
68B
330
5AB
100
AcDbEntity
  8
Dimension (ANSI)
440
 16777216
100
AcDbLine
 10
81.24670614893078
 20
85.72658871922925
 30
0.0
 11
81.24670614893078
 21
98.54007297119776
 31
0.0
  0
LINE
  5
68C
330
5AB
100
AcDbEntity
  8
Dimension (ANSI)
440
 16777216
100
AcDbLine
 10
44.32938328976272
 20
97.16507297119775
 30
0.0
 11
59.72300290942498
 21
97.16507297119775
 31
0.0
  0
LINE
  5
68D
330
5AB
100
AcDbEntity
  8
Dimension (ANSI)
440
 16777216
100
AcDbLine
 10
80.16402900809884
 20
97.16507297119775
 30
0.0
 11
64.77040938843659
 21
97.16507297119775
 31
0.0
  0
SOLID
  5
68E
330
5AB
100
AcDbEntity
  8
Dimension (ANSI)
440
 16777216
100
AcDbTrace
 10
44.32938328976272
 20
97.34551916133641
 30
0.0
 11
44.32938328976272
 21
96.98462678105912
 31
0.0
 12
43.24670614893078
 22
97.16507297119775
 32
0.0
 13
43.24670614893078
 23
97.16507297119775
 33
0.0
  0
SOLID
  5
68F
330
5AB
100
AcDbEntity
  8
Dimension (ANSI)
440
 16777216
100
AcDbTrace
 10
80.16402900809884
 20
97.34551916133641
 30
0.0
 11
80.16402900809884
 21
96.98462678105912
 31
0.0
 12
81.24670614893078
 22
97.16507297119775
 32
0.0
 13
81.24670614893078
 23
97.16507297119775
 33
0.0
  0
MTEXT
  5
690
330
5AB
100
AcDbEntity
  8
Dimension (ANSI)
440
 16777216
100
AcDbMText
 10
60.06945960233836
 20
97.85521402841364
 30
0.0
 40
1.320000052452087
 41
0.0
 46
0.0
 71
     1
 72
     1
  1
\A1;38.00
  7
Note Text (ANSI)
 73
     1
 44
1.0
  0
POINT
  5
691
330
5AB
100
AcDbEntity
  8
Defpoints
 62
     0
440
 16777216
100
AcDbPoint
 10
43.24670614893078
 20
85.03908871922925
 30
0.0
  0
POINT
  5
692
330
5AB
100
AcDbEntity
  8
Defpoints
 62
     0
440
 16777216
100
AcDbPoint
 10
81.24670614893078
 20
85.03908871922925
 30
0.0
  0
POINT
  5
693
330
5AB
100
AcDbEntity
  8
Defpoints
 62
     0
440
 16777216
100
AcDbPoint
 10
81.24670614893078
 20
97.16507297119775
 30
0.0
  0
ENDBLK
  5
5AD
330
5AB
100
AcDbEntity
  8
0
100
AcDbBlockEnd
  0
BLOCK
  5
696
330
695
100
AcDbEntity
  8
0
100
AcDbBlockBegin
  2
*D8
 70
     1
 10
0.0
 20
0.0
 30
0.0
  3
*D8
  1

  0
LINE
  5
774
330
695
100
AcDbEntity
  8
Dimension (ANSI)
440
 16777216
100
AcDbLine
 10
44.12170614893078
 20
85.06497706687758
 30
0.0
 11
44.12170614893078
 21
94.61349695651056
 31
0.0
  0
LINE
  5
775
330
695
100
AcDbEntity
  8
Dimension (ANSI)
440
 16777216
100
AcDbLine
 10
80.37170614893078
 20
85.06497706687758
 30
0.0
 11
80.37170614893078
 21
94.61349695651056
 31
0.0
  0
LINE
  5
776
330
695
100
AcDbEntity
  8
Dimension (ANSI)
440
 16777216
100
AcDbLine
 10
45.20438328976273
 20
93.23849695651057
 30
0.0
 11
59.73364092186761
 21
93.23849695651057
 31
0.0
  0
LINE
  5
777
330
695
100
AcDbEntity
  8
Dimension (ANSI)
440
 16777216
100
AcDbLine
 10
79.28902900809884
 20
93.23849695651057
 30
0.0
 11
64.75977137599397
 21
93.23849695651057
 31
0.0
  0
SOLID
  5
778
330
695
100
AcDbEntity
  8
Dimension (ANSI)
440
 16777216
100
AcDbTrace
 10
45.20438328976273
 20
93.41894314664923
 30
0.0
 11
45.20438328976273
 21
93.05805076637192
 31
0.0
 12
44.12170614893078
 22
93.23849695651057
 32
0.0
 13
44.12170614893078
 23
93.23849695651057
 33
0.0
  0
SOLID
  5
779
330
695
100
AcDbEntity
  8
Dimension (ANSI)
440
 16777216
100
AcDbTrace
 10
79.28902900809884
 20
93.41894314664923
 30
0.0
 11
79.28902900809884
 21
93.05805076637192
 31
0.0
 12
80.37170614893078
 22
93.23849695651057
 32
0.0
 13
80.37170614893078
 23
93.23849695651057
 33
0.0
  0
MTEXT
  5
77A
330
695
100
AcDbEntity
  8
Dimension (ANSI)
440
 16777216
100
AcDbMText
 10
60.08009761478099
 20
93.92597851061578
 30
0.0
 40
1.320000052452087
 41
0.0
 46
0.0
 71
     1
 72
     1
  1
\A1;36.25
  7
Note Text (ANSI)
 73
     1
 44
1.0
  0
POINT
  5
77B
330
695
100
AcDbEntity
  8
Defpoints
 62
     0
440
 16777216
100
AcDbPoint
 10
44.12170614893078
 20
84.37747706687757
 30
0.0
  0
POINT
  5
77C
330
695
100
AcDbEntity
  8
Defpoints
 62
     0
440
 16777216
100
AcDbPoint
 10
80.37170614893078
 20
84.37747706687757
 30
0.0
  0
POINT
  5
77D
330
695
100
AcDbEntity
  8
Defpoints
 62
     0
440
 16777216
100
AcDbPoint
 10
80.37170614893078
 20
93.23849695651057
 30
0.0
  0
ENDBLK
  5
697
330
695
100
AcDbEntity
  8
0
100
AcDbBlockEnd
  0
BLOCK
  5
780
330
77F
100
AcDbEntity
  8
0
100
AcDbBlockBegin
  2
*D9
 70
     1
 10
0.0
 20
0.0
 30
0.0
  3
*D9
  1

  0
LINE
  5
85E
330
77F
100
AcDbEntity
  8
Dimension (ANSI)
440
 16777216
100
AcDbLine
 10
44.12170614893078
 20
85.06497706687758
 30
0.0
 11
44.12170614893078
 21
89.65766528001193
 31
0.0
  0
LINE
  5
85F
330
77F
100
AcDbEntity
  8
Dimension (ANSI)
440
 16777216
100
AcDbLine
 10
62.24670614893078
 20
85.06497706687758
 30
0.0
 11
62.24670614893078
 21
89.65766528001193
 31
0.0
  0
LINE
  5
860
330
77F
100
AcDbEntity
  8
Dimension (ANSI)
440
 16777216
100
AcDbLine
 10
45.20438328976273
 20
88.28266528001192
 30
0.0
 11
50.73230949341276
 21
88.28266528001192
 31
0.0
  0
LINE
  5
861
330
77F
100
AcDbEntity
  8
Dimension (ANSI)
440
 16777216
100
AcDbLine
 10
61.16402900809884
 20
88.28266528001192
 30
0.0
 11
55.63610280444882
 21
88.28266528001192
 31
0.0
  0
SOLID
  5
862
330
77F
100
AcDbEntity
  8
Dimension (ANSI)
440
 16777216
100
AcDbTrace
 10
45.20438328976273
 20
88.46311147015057
 30
0.0
 11
45.20438328976273
 21
88.10221908987328
 31
0.0
 12
44.12170614893078
 22
88.28266528001192
 32
0.0
 13
44.12170614893078
 23
88.28266528001192
 33
0.0
  0
SOLID
  5
863
330
77F
100
AcDbEntity
  8
Dimension (ANSI)
440
 16777216
100
AcDbTrace
 10
61.16402900809884
 20
88.46311147015057
 30
0.0
 11
61.16402900809884
 21
88.10221908987328
 31
0.0
 12
62.24670614893078
 22
88.28266528001192
 32
0.0
 13
62.24670614893078
 23
88.28266528001192
 33
0.0
  0
MTEXT
  5
864
330
77F
100
AcDbEntity
  8
Dimension (ANSI)
440
 16777216
100
AcDbMText
 10
51.07876618632615
 20
88.97280633722781
 30
0.0
 40
1.320000052452087
 41
0.0
 46
0.0
 71
     1
 72
     1
  1
\A1;18.13
  7
Note Text (ANSI)
 73
     1
 44
1.0
  0
POINT
  5
865
330
77F
100
AcDbEntity
  8
Defpoints
 62
     0
440
 16777216
100
AcDbPoint
 10
44.12170614893078
 20
84.37747706687757
 30
0.0
  0
POINT
  5
866
330
77F
100
AcDbEntity
  8
Defpoints
 62
     0
440
 16777216
100
AcDbPoint
 10
62.24670614893078
 20
84.37747706687757
 30
0.0
  0
POINT
  5
867
330
77F
100
AcDbEntity
  8
Defpoints
 62
     0
440
 16777216
100
AcDbPoint
 10
62.24670614893078
 20
88.28266528001192
 30
0.0
  0
ENDBLK
  5
781
330
77F
100
AcDbEntity
  8
0
100
AcDbBlockEnd
  0
BLOCK
  5
86A
330
869
100
AcDbEntity
  8
0
100
AcDbBlockBegin
  2
*D10
 70
     1
 10
0.0
 20
0.0
 30
0.0
  3
*D10
  1

  0
LINE
  5
974
330
869
100
AcDbEntity
  8
Dimension (ANSI)
440
 16777216
100
AcDbLine
 10
81.72081780128246
 20
35.25247706687758
 30
0.0
 11
90.29222336490946
 21
35.25247706687758
 31
0.0
  0
LINE
  5
975
330
869
100
AcDbEntity
  8
Dimension (ANSI)
440
 16777216
100
AcDbLine
 10
81.05920614893078
 20
36.12747706687758
 30
0.0
 11
90.29222336490946
 21
36.12747706687758
 31
0.0
  0
LINE
  5
976
330
869
100
AcDbEntity
  8
Dimension (ANSI)
440
 16777216
100
AcDbLine
 10
88.91722336490946
 20
34.16979992604563
 30
0.0
 11
88.91722336490946
 21
33.08712278521369
 31
0.0
  0
LINE
  5
977
330
869
100
AcDbEntity
  8
Dimension (ANSI)
440
 16777216
100
AcDbLine
 10
88.91722336490946
 20
37.21015420770953
 30
0.0
 11
88.91722336490946
 21
38.29283134854147
 31
0.0
  0
LINE
  5
978
330
869
100
AcDbEntity
  8
Dimension (ANSI)
440
 16777216
100
AcDbLine
 10
89.99990050574139
 20
31.06282647460495
 30
0.0
 11
88.91722336490945
 21
31.06282647460495
 31
0.0
  0
LINE
  5
979
330
869
100
AcDbEntity
  8
Dimension (ANSI)
440
 16777216
100
AcDbLine
 10
88.91722336490945
 20
31.06282647460495
 30
0.0
 11
88.91722336490946
 21
33.08712278521369
 31
0.0
  0
MTEXT
  5
97A
330
869
100
AcDbEntity
  8
Dimension (ANSI)
440
 16777216
100
AcDbMText
 10
90.34635719865478
 20
31.9503617662544
 30
0.0
 40
1.320000052452087
 41
0.0
 46
0.0
 71
     1
 72
     1
  1
\A1;0.88{ \PTYP.}
  7
Note Text (ANSI)
 73
     1
 44
1.0
  0
SOLID
  5
97B
330
869
100
AcDbEntity
  8
Dimension (ANSI)
440
 16777216
100
AcDbTrace
 10
88.73677717477081
 20
34.16979992604563
 30
0.0
 11
89.09766955504812
 21
34.16979992604563
 31
0.0
 12
88.91722336490946
 22
35.25247706687758
 32
0.0
 13
88.91722336490946
 23
35.25247706687758
 33
0.0
  0
SOLID
  5
97C
330
869
100
AcDbEntity
  8
Dimension (ANSI)
440
 16777216
100
AcDbTrace
 10
88.73677717477081
 20
37.21015420770953
 30
0.0
 11
89.09766955504812
 21
37.21015420770953
 31
0.0
 12
88.91722336490946
 22
36.12747706687758
 32
0.0
 13
88.91722336490946
 23
36.12747706687758
 33
0.0
  0
POINT
  5
97D
330
869
100
AcDbEntity
  8
Defpoints
 62
     0
440
 16777216
100
AcDbPoint
 10
81.03331780128247
 20
35.25247706687758
 30
0.0
  0
POINT
  5
97E
330
869
100
AcDbEntity
  8
Defpoints
 62
     0
440
 16777216
100
AcDbPoint
 10
80.37170614893078
 20
36.12747706687758
 30
0.0
  0
POINT
  5
97F
330
869
100
AcDbEntity
  8
Defpoints
 62
     0
440
 16777216
100
AcDbPoint
 10
88.91722336490946
 20
36.12747706687758
 30
0.0
  0
ENDBLK
  5
86B
330
869
100
AcDbEntity
  8
0
100
AcDbBlockEnd
  0
BLOCK
  5
982
330
981
100
AcDbEntity
  8
0
100
AcDbBlockBegin
  2
*D11
 70
     1
 10
0.0
 20
0.0
 30
0.0
  3
*D11
  1

  0
LINE
  5
A74
330
981
100
AcDbEntity
  8
Dimension (ANSI)
440
 16777216
100
AcDbLine
 10
81.24670614893078
 20
34.7783654145259
 30
0.0
 11
81.24670614893078
 21
30.63569360125949
 31
0.0
  0
LINE
  5
A75
330
981
100
AcDbEntity
  8
Dimension (ANSI)
440
 16777216
100
AcDbLine
 10
80.37170614893078
 20
35.43997706687758
 30
0.0
 11
80.37170614893078
 21
30.63569360125949
 31
0.0
  0
LINE
  5
A76
330
981
100
AcDbEntity
  8
Dimension (ANSI)
440
 16777216
100
AcDbLine
 10
82.32938328976272
 20
32.01069360125949
 30
0.0
 11
83.41206043059468
 21
32.01069360125949
 31
0.0
  0
LINE
  5
A77
330
981
100
AcDbEntity
  8
Dimension (ANSI)
440
 16777216
100
AcDbLine
 10
79.28902900809884
 20
32.01069360125949
 30
0.0
 11
77.59690536178706
 21
32.01069360125949
 31
0.0
  0
SOLID
  5
A78
330
981
100
AcDbEntity
  8
Dimension (ANSI)
440
 16777216
100
AcDbTrace
 10
82.32938328976272
 20
32.19113979139815
 30
0.0
 11
82.32938328976272
 21
31.83024741112083
 31
0.0
 12
81.24670614893078
 22
32.01069360125949
 32
0.0
 13
81.24670614893078
 23
32.01069360125949
 33
0.0
  0
SOLID
  5
A79
330
981
100
AcDbEntity
  8
Dimension (ANSI)
440
 16777216
100
AcDbTrace
 10
79.28902900809884
 20
32.19113979139815
 30
0.0
 11
79.28902900809884
 21
31.83024741112083
 31
0.0
 12
80.37170614893078
 22
32.01069360125949
 32
0.0
 13
80.37170614893078
 23
32.01069360125949
 33
0.0
  0
MTEXT
  5
A7A
330
981
100
AcDbEntity
  8
Dimension (ANSI)
440
 16777216
100
AcDbMText
 10
73.76295358976349
 20
32.89822889290893
 30
0.0
 40
1.320000052452087
 41
0.0
 46
0.0
 71
     1
 72
     1
  1
\A1;0.88{\PTYP.}
  7
Note Text (ANSI)
 73
     1
 44
1.0
  0
POINT
  5
A7B
330
981
100
AcDbEntity
  8
Defpoints
 62
     0
440
 16777216
100
AcDbPoint
 10
81.24670614893078
 20
35.4658654145259
 30
0.0
  0
POINT
  5
A7C
330
981
100
AcDbEntity
  8
Defpoints
 62
     0
440
 16777216
100
AcDbPoint
 10
80.37170614893078
 20
36.12747706687758
 30
0.0
  0
POINT
  5
A7D
330
981
100
AcDbEntity
  8
Defpoints
 62
     0
440
 16777216
100
AcDbPoint
 10
80.37170614893078
 20
32.01069360125949
 30
0.0
  0
ENDBLK
  5
983
330
981
100
AcDbEntity
  8
0
100
AcDbBlockEnd
  0
BLOCK
  5
A80
330
A7F
100
AcDbEntity
  8
0
100
AcDbBlockBegin
  2
*D12
 70
     1
 10
0.0
 20
0.0
 30
0.0
  3
*D12
  1

  0
LINE
  5
B5E
330
A7F
100
AcDbEntity
  8
Dimension (ANSI)
440
 16777216
100
AcDbLine
 10
125.3333575491114
 20
85.78372706687757
 30
0.0
 11
125.3333575491114
 21
89.77708336609014
 31
0.0
  0
LINE
  5
B5F
330
A7F
100
AcDbEntity
  8
Dimension (ANSI)
440
 16777216
100
AcDbLine
 10
126.2083575491113
 20
85.93997706687762
 30
0.0
 11
126.2083575491113
 21
89.77708336609014
 31
0.0
  0
LINE
  5
B60
330
A7F
100
AcDbEntity
  8
Dimension (ANSI)
440
 16777216
100
AcDbLine
 10
127.2910346899433
 20
88.40208336609014
 30
0.0
 11
128.3737118307753
 21
88.40208336609014
 31
0.0
  0
LINE
  5
B61
330
A7F
100
AcDbEntity
  8
Dimension (ANSI)
440
 16777216
100
AcDbLine
 10
124.2506804082794
 20
88.40208336609014
 30
0.0
 11
122.6085846310889
 21
88.40208336609014
 31
0.0
  0
SOLID
  5
B62
330
A7F
100
AcDbEntity
  8
Dimension (ANSI)
440
 16777216
100
AcDbTrace
 10
127.2910346899433
 20
88.58252955622878
 30
0.0
 11
127.2910346899433
 21
88.22163717595149
 31
0.0
 12
126.2083575491113
 22
88.40208336609014
 32
0.0
 13
126.2083575491113
 23
88.40208336609014
 33
0.0
  0
SOLID
  5
B63
330
A7F
100
AcDbEntity
  8
Dimension (ANSI)
440
 16777216
100
AcDbTrace
 10
124.2506804082794
 20
88.58252955622878
 30
0.0
 11
124.2506804082794
 21
88.22163717595149
 31
0.0
 12
125.3333575491114
 22
88.40208336609014
 32
0.0
 13
125.3333575491114
 23
88.40208336609014
 33
0.0
  0
MTEXT
  5
B64
330
A7F
100
AcDbEntity
  8
Dimension (ANSI)
440
 16777216
100
AcDbMText
 10
118.878353480381
 20
89.09222442330602
 30
0.0
 40
1.320000052452087
 41
0.0
 46
0.0
 71
     1
 72
     1
  1
\A1;0.88
  7
Note Text (ANSI)
 73
     1
 44
1.0
  0
POINT
  5
B65
330
A7F
100
AcDbEntity
  8
Defpoints
 62
     0
440
 16777216
100
AcDbPoint
 10
125.3333575491114
 20
85.09622706687757
 30
0.0
  0
POINT
  5
B66
330
A7F
100
AcDbEntity
  8
Defpoints
 62
     0
440
 16777216
100
AcDbPoint
 10
126.2083575491113
 20
85.25247706687762
 30
0.0
  0
POINT
  5
B67
330
A7F
100
AcDbEntity
  8
Defpoints
 62
     0
440
 16777216
100
AcDbPoint
 10
126.2083575491113
 20
88.40208336609014
 30
0.0
  0
ENDBLK
  5
A81
330
A7F
100
AcDbEntity
  8
0
100
AcDbBlockEnd
  0
BLOCK
  5
CB3
330
CB2
100
AcDbEntity
  8
0
100
AcDbBlockBegin
  2
*D13
 70
     1
 10
0.0
 20
0.0
 30
0.0
  3
*D13
  1

  0
LINE
  5
D64
330
CB2
100
AcDbEntity
  8
Dimension (ANSI)
440
 16777216
100
AcDbLine
 10
85.21311918758417
 20
68.31055657246982
 30
0.0
 11
83.80371644104773
 21
68.31055657246984
 31
0.0
  0
LINE
  5
D65
330
CB2
100
AcDbEntity
  8
Dimension (ANSI)
440
 16777216
100
AcDbLine
 10
83.80371644104773
 20
68.31055657246984
 30
0.0
 11
80.90625766426489
 21
61.50756031073942
 31
0.0
  0
MTEXT
  5
D66
330
CB2
100
AcDbEntity
  8
Dimension (ANSI)
440
 16777216
100
AcDbMText
 10
85.55957588049755
 20
69.30887063218623
 30
0.0
 40
1.320000052452087
 41
0.0
 46
0.0
 71
     1
 72
     1
  1
\A1;∅0.563{\P(10PL.)}
  7
Note Text (ANSI)
 73
     1
 44
1.0
  0
SOLID
  5
D67
330
CB2
100
AcDbEntity
  8
Dimension (ANSI)
440
 16777216
100
AcDbTrace
 10
80.74024184206486
 20
61.5782679787451
 30
0.0
 11
81.07227348646494
 21
61.43685264273374
 31
0.0
 12
80.48201165623082
 22
60.51146537753919
 32
0.0
 13
80.48201165623082
 23
60.51146537753919
 33
0.0
  0
LINE
  5
D68
330
CB2
100
AcDbEntity
  8
Dimension (ANSI)
440
 16777216
100
AcDbLine
 10
79.3817061489308
 20
60.25247706687766
 30
0.0
 11
81.3617061489308
 21
60.25247706687765
 31
0.0
  0
LINE
  5
D69
330
CB2
100
AcDbEntity
  8
Dimension (ANSI)
440
 16777216
100
AcDbLine
 10
80.3717061489308
 20
59.26247706687765
 30
0.0
 11
80.3717061489308
 21
61.24247706687765
 31
0.0
  0
POINT
  5
D6A
330
CB2
100
AcDbEntity
  8
Defpoints
 62
     0
440
 16777216
100
AcDbPoint
 10
80.48201165623082
 20
60.51146537753919
 30
0.0
  0
POINT
  5
D6B
330
CB2
100
AcDbEntity
  8
Defpoints
 62
     0
440
 16777216
100
AcDbPoint
 10
80.26140064163076
 20
59.99348875621613
 30
0.0
  0
ENDBLK
  5
CB4
330
CB2
100
AcDbEntity
  8
0
100
AcDbBlockEnd
  0
BLOCK
  5
D6E
330
D6D
100
AcDbEntity
  8
0
100
AcDbBlockBegin
  2
*D14
 70
     1
 10
0.0
 20
0.0
 30
0.0
  3
*D14
  1

  0
LINE
  5
E4C
330
D6D
100
AcDbEntity
  8
Dimension (ANSI)
440
 16777216
100
AcDbLine
 10
81.05920614893078
 20
50.25247706687758
 30
0.0
 11
86.78607622767096
 21
50.25247706687758
 31
0.0
  0
LINE
  5
E4D
330
D6D
100
AcDbEntity
  8
Dimension (ANSI)
440
 16777216
100
AcDbLine
 10
81.05920614893078
 20
60.25247706687758
 30
0.0
 11
86.78607622767096
 21
60.25247706687758
 31
0.0
  0
LINE
  5
E4E
330
D6D
100
AcDbEntity
  8
Dimension (ANSI)
440
 16777216
100
AcDbLine
 10
85.41107622767096
 20
51.33515420770953
 30
0.0
 11
85.41107622767096
 21
54.21898207037739
 31
0.0
  0
LINE
  5
E4F
330
D6D
100
AcDbEntity
  8
Dimension (ANSI)
440
 16777216
100
AcDbLine
 10
85.41107622767096
 20
59.16979992604563
 30
0.0
 11
85.41107622767096
 21
56.28597206337772
 31
0.0
  0
SOLID
  5
E50
330
D6D
100
AcDbEntity
  8
Dimension (ANSI)
440
 16777216
100
AcDbTrace
 10
85.23063003753231
 20
51.33515420770953
 30
0.0
 11
85.59152241780962
 21
51.33515420770953
 31
0.0
 12
85.41107622767096
 22
50.25247706687758
 32
0.0
 13
85.41107622767096
 23
50.25247706687758
 33
0.0
  0
SOLID
  5
E51
330
D6D
100
AcDbEntity
  8
Dimension (ANSI)
440
 16777216
100
AcDbTrace
 10
85.23063003753231
 20
59.16979992604563
 30
0.0
 11
85.59152241780962
 21
59.16979992604563
 31
0.0
 12
85.41107622767096
 22
60.25247706687758
 32
0.0
 13
85.41107622767096
 23
60.25247706687758
 33
0.0
  0
MTEXT
  5
E52
330
D6D
100
AcDbEntity
  8
Dimension (ANSI)
440
 16777216
100
AcDbMText
 10
83.29100899795767
 20
55.93951537046436
 30
0.0
 40
1.320000052452087
 41
0.0
 46
0.0
 71
     1
 72
     1
  1
\A1;10.00
  7
Note Text (ANSI)
 73
     1
 44
1.0
  0
POINT
  5
E53
330
D6D
100
AcDbEntity
  8
Defpoints
 62
     0
440
 16777216
100
AcDbPoint
 10
80.37170614893078
 20
50.25247706687758
 30
0.0
  0
POINT
  5
E54
330
D6D
100
AcDbEntity
  8
Defpoints
 62
     0
440
 16777216
100
AcDbPoint
 10
80.37170614893078
 20
60.25247706687758
 30
0.0
  0
POINT
  5
E55
330
D6D
100
AcDbEntity
  8
Defpoints
 62
     0
440
 16777216
100
AcDbPoint
 10
85.41107622767096
 20
60.25247706687758
 30
0.0
  0
ENDBLK
  5
D6F
330
D6D
100
AcDbEntity
  8
0
100
AcDbBlockEnd
  0
ENDSEC
  0
SECTION
  2
ENTITIES
  0
CIRCLE
  5
11B
330
6C
100
AcDbEntity
  8
Visible (ANSI)
100
AcDbCircle
 10
80.37170614893078
 20
50.25247706687758
 30
0.0
 40
0.2814999999999999
  0
CIRCLE
  5
11C
330
6C
100
AcDbEntity
  8
Visible (ANSI)
100
AcDbCircle
 10
44.12170614893078
 20
50.25247706687758
 30
0.0
 40
0.2814999999999999
  0
CIRCLE
  5
11D
330
6C
100
AcDbEntity
  8
Visible (ANSI)
100
AcDbCircle
 10
62.24670614893078
 20
36.12747706687758
 30
0.0
 40
0.2814999999999999
  0
CIRCLE
  5
11E
330
6C
100
AcDbEntity
  8
Visible (ANSI)
100
AcDbCircle
 10
80.37170614893078
 20
60.25247706687757
 30
0.0
 40
0.2814999999999999
  0
CIRCLE
  5
11F
330
6C
100
AcDbEntity
  8
Visible (ANSI)
100
AcDbCircle
 10
80.37170614893078
 20
36.12747706687758
 30
0.0
 40
0.2814999999999999
  0
CIRCLE
  5
120
330
6C
100
AcDbEntity
  8
Visible (ANSI)
100
AcDbCircle
 10
44.12170614893078
 20
36.12747706687758
 30
0.0
 40
0.2814999999999999
  0
CIRCLE
  5
121
330
6C
100
AcDbEntity
  8
Visible (ANSI)
100
AcDbCircle
 10
44.12170614893078
 20
60.25247706687757
 30
0.0
 40
0.2814999999999999
  0
CIRCLE
  5
122
330
6C
100
AcDbEntity
  8
Visible (ANSI)
100
AcDbCircle
 10
80.37170614893078
 20
84.37747706687757
 30
0.0
 40
0.2814999999999999
  0
CIRCLE
  5
123
330
6C
100
AcDbEntity
  8
Visible (ANSI)
100
AcDbCircle
 10
62.24670614893078
 20
84.37747706687757
 30
0.0
 40
0.2814999999999999
  0
CIRCLE
  5
124
330
6C
100
AcDbEntity
  8
Visible (ANSI)
100
AcDbCircle
 10
44.12170614893078
 20
84.37747706687757
 30
0.0
 40
0.2814999999999999
  0
LINE
  5
125
330
6C
100
AcDbEntity
  8
Visible (ANSI)
100
AcDbLine
 10
81.03331780128247
 20
35.25247706687758
 30
0.0
 11
43.4600944965791
 21
35.25247706687757
 31
0.0
  0
LINE
  5
126
330
6C
100
AcDbEntity
  8
Visible (ANSI)
100
AcDbLine
 10
81.24670614893078
 20
85.03908871922925
 30
0.0
 11
81.24670614893078
 21
35.4658654145259
 31
0.0
  0
LINE
  5
127
330
6C
100
AcDbEntity
  8
Visible (ANSI)
100
AcDbLine
 10
43.4600944965791
 20
85.25247706687755
 30
0.0
 11
81.03331780128247
 21
85.25247706687755
 31
0.0
  0
LINE
  5
128
330
6C
100
AcDbEntity
  8
Visible (ANSI)
100
AcDbLine
 10
43.24670614893078
 20
35.46586541452589
 30
0.0
 11
43.24670614893078
 21
85.03908871922925
 31
0.0
  0
POLYLINE
  5
129
330
6C
100
AcDbEntity
  8
Visible (ANSI)
100
AcDb2dPolyline
 66
     1
 10
0.0
 20
0.0
 30
0.0
 70
   128
  0
VERTEX
  5
12A
330
129
100
AcDbEntity
  8
Visible (ANSI)
100
AcDbVertex
100
AcDb2dVertex
 10
81.09045542804311
 20
35.40872706453094
 30
0.0
  0
VERTEX
  5
12B
330
129
100
AcDbEntity
  8
Visible (ANSI)
100
AcDbVertex
100
AcDb2dVertex
 10
81.08807649872471
 20
35.39850782471781
 30
0.0
  0
VERTEX
  5
12D
330
129
100
AcDbEntity
  8
Visible (ANSI)
100
AcDbVertex
100
AcDb2dVertex
 10
81.08569456570767
 20
35.38833234973243
 30
0.0
  0
VERTEX
  5
12E
330
129
100
AcDbEntity
  8
Visible (ANSI)
100
AcDbVertex
100
AcDb2dVertex
 10
81.08331263269063
 20
35.3782442049382
 30
0.0
  0
VERTEX
  5
12F
330
129
100
AcDbEntity
  8
Visible (ANSI)
100
AcDbVertex
100
AcDb2dVertex
 10
81.0809337033722
 20
35.3682865919694
 30
0.0
  0
VERTEX
  5
130
330
129
100
AcDbEntity
  8
Visible (ANSI)
100
AcDbVertex
100
AcDb2dVertex
 10
81.07855177035517
 20
35.35850214926678
 30
0.0
  0
VERTEX
  5
131
330
129
100
AcDbEntity
  8
Visible (ANSI)
100
AcDbVertex
100
AcDb2dVertex
 10
81.07617284103676
 20
35.34893278194626
 30
0.0
  0
VERTEX
  5
132
330
129
100
AcDbEntity
  8
Visible (ANSI)
100
AcDbVertex
100
AcDb2dVertex
 10
81.07379090801972
 20
35.33961945646793
 30
0.0
  0
VERTEX
  5
133
330
129
100
AcDbEntity
  8
Visible (ANSI)
100
AcDbVertex
100
AcDb2dVertex
 10
81.07140897500269
 20
35.33060206570425
 30
0.0
  0
VERTEX
  5
134
330
129
100
AcDbEntity
  8
Visible (ANSI)
100
AcDbVertex
100
AcDb2dVertex
 10
81.06903004568428
 20
35.3219192177426
 30
0.0
  0
VERTEX
  5
135
330
129
100
AcDbEntity
  8
Visible (ANSI)
100
AcDbVertex
100
AcDb2dVertex
 10
81.06664811266723
 20
35.31360809508672
 30
0.0
  0
VERTEX
  5
136
330
129
100
AcDbEntity
  8
Visible (ANSI)
100
AcDbVertex
100
AcDb2dVertex
 10
81.06426918334882
 20
35.30570428452556
 30
0.0
  0
VERTEX
  5
137
330
129
100
AcDbEntity
  8
Visible (ANSI)
100
AcDbVertex
100
AcDb2dVertex
 10
81.06188725033179
 20
35.2982416334014
 30
0.0
  0
VERTEX
  5
138
330
129
100
AcDbEntity
  8
Visible (ANSI)
100
AcDbVertex
100
AcDb2dVertex
 10
81.05950531731476
 20
35.29125209707845
 30
0.0
  0
VERTEX
  5
139
330
129
100
AcDbEntity
  8
Visible (ANSI)
100
AcDbVertex
100
AcDb2dVertex
 10
81.05712638799635
 20
35.28476560694428
 30
0.0
  0
VERTEX
  5
13A
330
129
100
AcDbEntity
  8
Visible (ANSI)
100
AcDbVertex
100
AcDb2dVertex
 10
81.05474445497931
 20
35.27880994134463
 30
0.0
  0
VERTEX
  5
13B
330
129
100
AcDbEntity
  8
Visible (ANSI)
100
AcDbVertex
100
AcDb2dVertex
 10
81.05236252196228
 20
35.27341059798497
 30
0.0
  0
VERTEX
  5
13C
330
129
100
AcDbEntity
  8
Visible (ANSI)
100
AcDbVertex
100
AcDb2dVertex
 10
81.04998359264387
 20
35.26859070153149
 30
0.0
  0
VERTEX
  5
13D
330
129
100
AcDbEntity
  8
Visible (ANSI)
100
AcDbVertex
100
AcDb2dVertex
 10
81.04760165962684
 20
35.26437088994579
 30
0.0
  0
VERTEX
  5
13E
330
129
100
AcDbEntity
  8
Visible (ANSI)
100
AcDbVertex
100
AcDb2dVertex
 10
81.04522273030843
 20
35.26076923381908
 30
0.0
  0
VERTEX
  5
13F
330
129
100
AcDbEntity
  8
Visible (ANSI)
100
AcDbVertex
100
AcDb2dVertex
 10
81.04284079729138
 20
35.25780115643991
 30
0.0
  0
VERTEX
  5
140
330
129
100
AcDbEntity
  8
Visible (ANSI)
100
AcDbVertex
100
AcDb2dVertex
 10
81.04045886427433
 20
35.25547936687809
 30
0.0
  0
VERTEX
  5
141
330
129
100
AcDbEntity
  8
Visible (ANSI)
100
AcDbVertex
100
AcDb2dVertex
 10
81.03807993495593
 20
35.25381380727711
 30
0.0
  0
VERTEX
  5
142
330
129
100
AcDbEntity
  8
Visible (ANSI)
100
AcDbVertex
100
AcDb2dVertex
 10
81.0356980019389
 20
35.25281161011499
 30
0.0
  0
VERTEX
  5
143
330
129
100
AcDbEntity
  8
Visible (ANSI)
100
AcDbVertex
100
AcDb2dVertex
 10
81.03331907262049
 20
35.25247706687758
 30
0.0
  0
SEQEND
  5
12C
330
129
100
AcDbEntity
  8
Visible (ANSI)
  0
POLYLINE
  5
144
330
6C
100
AcDbEntity
  8
Visible (ANSI)
100
AcDb2dPolyline
 66
     1
 10
0.0
 20
0.0
 30
0.0
 70
   128
  0
VERTEX
  5
145
330
144
100
AcDbEntity
  8
Visible (ANSI)
100
AcDbVertex
100
AcDb2dVertex
 10
43.46009448491717
 20
35.25247706687757
 30
0.0
  0
VERTEX
  5
146
330
144
100
AcDbEntity
  8
Visible (ANSI)
100
AcDbVertex
100
AcDb2dVertex
 10
43.45771372521991
 20
35.25281161011499
 30
0.0
  0
VERTEX
  5
148
330
144
100
AcDbEntity
  8
Visible (ANSI)
100
AcDbVertex
100
AcDb2dVertex
 10
43.45533296552265
 20
35.25381380727711
 30
0.0
  0
VERTEX
  5
149
330
144
100
AcDbEntity
  8
Visible (ANSI)
100
AcDbVertex
100
AcDb2dVertex
 10
43.45295220582539
 20
35.25547936687809
 30
0.0
  0
VERTEX
  5
14A
330
144
100
AcDbEntity
  8
Visible (ANSI)
100
AcDbVertex
100
AcDb2dVertex
 10
43.45057144612813
 20
35.25780115643991
 30
0.0
  0
VERTEX
  5
14B
330
144
100
AcDbEntity
  8
Visible (ANSI)
100
AcDbVertex
100
AcDb2dVertex
 10
43.44819066296448
 20
35.26076923381908
 30
0.0
  0
VERTEX
  5
14C
330
144
100
AcDbEntity
  8
Visible (ANSI)
100
AcDbVertex
100
AcDb2dVertex
 10
43.44580990326722
 20
35.26437088994579
 30
0.0
  0
VERTEX
  5
14D
330
144
100
AcDbEntity
  8
Visible (ANSI)
100
AcDbVertex
100
AcDb2dVertex
 10
43.44342914356995
 20
35.26859070153149
 30
0.0
  0
VERTEX
  5
14E
330
144
100
AcDbEntity
  8
Visible (ANSI)
100
AcDbVertex
100
AcDb2dVertex
 10
43.44104838387269
 20
35.27341059798497
 30
0.0
  0
VERTEX
  5
14F
330
144
100
AcDbEntity
  8
Visible (ANSI)
100
AcDbVertex
100
AcDb2dVertex
 10
43.43866761244224
 20
35.27880994134463
 30
0.0
  0
VERTEX
  5
150
330
144
100
AcDbEntity
  8
Visible (ANSI)
100
AcDbVertex
100
AcDb2dVertex
 10
43.43628685274498
 20
35.28476560694428
 30
0.0
  0
VERTEX
  5
151
330
144
100
AcDbEntity
  8
Visible (ANSI)
100
AcDbVertex
100
AcDb2dVertex
 10
43.43390609304772
 20
35.29125209707845
 30
0.0
  0
VERTEX
  5
152
330
144
100
AcDbEntity
  8
Visible (ANSI)
100
AcDbVertex
100
AcDb2dVertex
 10
43.43152532161726
 20
35.2982416334014
 30
0.0
  0
VERTEX
  5
153
330
144
100
AcDbEntity
  8
Visible (ANSI)
100
AcDbVertex
100
AcDb2dVertex
 10
43.42914456192
 20
35.30570428452556
 30
0.0
  0
VERTEX
  5
154
330
144
100
AcDbEntity
  8
Visible (ANSI)
100
AcDbVertex
100
AcDb2dVertex
 10
43.42676379048953
 20
35.31360809508672
 30
0.0
  0
VERTEX
  5
155
330
144
100
AcDbEntity
  8
Visible (ANSI)
100
AcDbVertex
100
AcDb2dVertex
 10
43.42438303079227
 20
35.3219192177426
 30
0.0
  0
VERTEX
  5
156
330
144
100
AcDbEntity
  8
Visible (ANSI)
100
AcDbVertex
100
AcDb2dVertex
 10
43.42200225936182
 20
35.33060206570425
 30
0.0
  0
VERTEX
  5
157
330
144
100
AcDbEntity
  8
Visible (ANSI)
100
AcDbVertex
100
AcDb2dVertex
 10
43.41962149966455
 20
35.33961945646793
 30
0.0
  0
VERTEX
  5
158
330
144
100
AcDbEntity
  8
Visible (ANSI)
100
AcDbVertex
100
AcDb2dVertex
 10
43.41724073996729
 20
35.34893278194626
 30
0.0
  0
VERTEX
  5
159
330
144
100
AcDbEntity
  8
Visible (ANSI)
100
AcDbVertex
100
AcDb2dVertex
 10
43.41485996853684
 20
35.35850214926678
 30
0.0
  0
VERTEX
  5
15A
330
144
100
AcDbEntity
  8
Visible (ANSI)
100
AcDbVertex
100
AcDb2dVertex
 10
43.41247920883958
 20
35.3682865919694
 30
0.0
  0
VERTEX
  5
15B
330
144
100
AcDbEntity
  8
Visible (ANSI)
100
AcDbVertex
100
AcDb2dVertex
 10
43.41009843740912
 20
35.3782442049382
 30
0.0
  0
VERTEX
  5
15C
330
144
100
AcDbEntity
  8
Visible (ANSI)
100
AcDbVertex
100
AcDb2dVertex
 10
43.40771767771186
 20
35.38833234973243
 30
0.0
  0
VERTEX
  5
15D
330
144
100
AcDbEntity
  8
Visible (ANSI)
100
AcDbVertex
100
AcDb2dVertex
 10
43.4053369180146
 20
35.39850782471781
 30
0.0
  0
VERTEX
  5
15E
330
144
100
AcDbEntity
  8
Visible (ANSI)
100
AcDbVertex
100
AcDb2dVertex
 10
43.40295614658414
 20
35.40872706453094
 30
0.0
  0
SEQEND
  5
147
330
144
100
AcDbEntity
  8
Visible (ANSI)
  0
POLYLINE
  5
15F
330
6C
100
AcDbEntity
  8
Visible (ANSI)
100
AcDb2dPolyline
 66
     1
 10
0.0
 20
0.0
 30
0.0
 70
   128
  0
VERTEX
  5
160
330
15F
100
AcDbEntity
  8
Visible (ANSI)
100
AcDbVertex
100
AcDb2dVertex
 10
81.09045542804311
 20
85.09622766761728
 30
0.0
  0
VERTEX
  5
161
330
15F
100
AcDbEntity
  8
Visible (ANSI)
100
AcDbVertex
100
AcDb2dVertex
 10
81.10067401079716
 20
85.09384573460025
 30
0.0
  0
VERTEX
  5
163
330
15F
100
AcDbEntity
  8
Visible (ANSI)
100
AcDbVertex
100
AcDb2dVertex
 10
81.11085054177035
 20
85.09146680528184
 30
0.0
  0
VERTEX
  5
164
330
15F
100
AcDbEntity
  8
Visible (ANSI)
100
AcDbVertex
100
AcDb2dVertex
 10
81.12093996548312
 20
85.08908487226481
 30
0.0
  0
VERTEX
  5
165
330
15F
100
AcDbEntity
  8
Visible (ANSI)
100
AcDbVertex
100
AcDb2dVertex
 10
81.130897226456
 20
85.08670293924778
 30
0.0
  0
VERTEX
  5
166
330
15F
100
AcDbEntity
  8
Visible (ANSI)
100
AcDbVertex
100
AcDb2dVertex
 10
81.14068027290809
 20
85.08432400992935
 30
0.0
  0
VERTEX
  5
167
330
15F
100
AcDbEntity
  8
Visible (ANSI)
100
AcDbVertex
100
AcDb2dVertex
 10
81.15025005675711
 20
85.08194207691232
 30
0.0
  0
VERTEX
  5
168
330
15F
100
AcDbEntity
  8
Visible (ANSI)
100
AcDbVertex
100
AcDb2dVertex
 10
81.15956452622222
 20
85.07956314759391
 30
0.0
  0
VERTEX
  5
169
330
15F
100
AcDbEntity
  8
Visible (ANSI)
100
AcDbVertex
100
AcDb2dVertex
 10
81.16858162952254
 20
85.07718121457688
 30
0.0
  0
VERTEX
  5
16A
330
15F
100
AcDbEntity
  8
Visible (ANSI)
100
AcDbVertex
100
AcDb2dVertex
 10
81.17726532227447
 20
85.07479928155985
 30
0.0
  0
VERTEX
  5
16B
330
15F
100
AcDbEntity
  8
Visible (ANSI)
100
AcDbVertex
100
AcDb2dVertex
 10
81.18557655639573
 20
85.07242035224143
 30
0.0
  0
VERTEX
  5
16C
330
15F
100
AcDbEntity
  8
Visible (ANSI)
100
AcDbVertex
100
AcDb2dVertex
 10
81.1934792875027
 20
85.0700384192244
 30
0.0
  0
VERTEX
  5
16D
330
15F
100
AcDbEntity
  8
Visible (ANSI)
100
AcDbVertex
100
AcDb2dVertex
 10
81.20094047491042
 20
85.06765648620737
 30
0.0
  0
VERTEX
  5
16E
330
15F
100
AcDbEntity
  8
Visible (ANSI)
100
AcDbVertex
100
AcDb2dVertex
 10
81.20793008163254
 20
85.06527755688896
 30
0.0
  0
VERTEX
  5
16F
330
15F
100
AcDbEntity
  8
Visible (ANSI)
100
AcDbVertex
100
AcDb2dVertex
 10
81.21441807068274
 20
85.06289562387191
 30
0.0
  0
VERTEX
  5
170
330
15F
100
AcDbEntity
  8
Visible (ANSI)
100
AcDbVertex
100
AcDb2dVertex
 10
81.22037440507467
 20
85.0605166945535
 30
0.0
  0
VERTEX
  5
171
330
15F
100
AcDbEntity
  8
Visible (ANSI)
100
AcDbVertex
100
AcDb2dVertex
 10
81.22577205152058
 20
85.05813476153646
 30
0.0
  0
VERTEX
  5
172
330
15F
100
AcDbEntity
  8
Visible (ANSI)
100
AcDbVertex
100
AcDb2dVertex
 10
81.23059298782871
 20
85.05575282851941
 30
0.0
  0
VERTEX
  5
173
330
15F
100
AcDbEntity
  8
Visible (ANSI)
100
AcDbVertex
100
AcDb2dVertex
 10
81.23481318440999
 20
85.053373899201
 30
0.0
  0
VERTEX
  5
174
330
15F
100
AcDbEntity
  8
Visible (ANSI)
100
AcDbVertex
100
AcDb2dVertex
 10
81.23841461907257
 20
85.05099196618397
 30
0.0
  0
VERTEX
  5
175
330
15F
100
AcDbEntity
  8
Visible (ANSI)
100
AcDbVertex
100
AcDb2dVertex
 10
81.24138227332332
 20
85.04861303686556
 30
0.0
  0
VERTEX
  5
176
330
15F
100
AcDbEntity
  8
Visible (ANSI)
100
AcDbVertex
100
AcDb2dVertex
 10
81.24370413236766
 20
85.04623110384853
 30
0.0
  0
VERTEX
  5
177
330
15F
100
AcDbEntity
  8
Visible (ANSI)
100
AcDbVertex
100
AcDb2dVertex
 10
81.24536818141107
 20
85.04384917083148
 30
0.0
  0
VERTEX
  5
178
330
15F
100
AcDbEntity
  8
Visible (ANSI)
100
AcDbVertex
100
AcDb2dVertex
 10
81.24637141675497
 20
85.04147024151308
 30
0.0
  0
VERTEX
  5
179
330
15F
100
AcDbEntity
  8
Visible (ANSI)
100
AcDbVertex
100
AcDb2dVertex
 10
81.24670482730339
 20
85.03908830849605
 30
0.0
  0
SEQEND
  5
162
330
15F
100
AcDbEntity
  8
Visible (ANSI)
  0
POLYLINE
  5
17A
330
6C
100
AcDbEntity
  8
Visible (ANSI)
100
AcDb2dPolyline
 66
     1
 10
0.0
 20
0.0
 30
0.0
 70
   128
  0
VERTEX
  5
17B
330
17A
100
AcDbEntity
  8
Visible (ANSI)
100
AcDbVertex
100
AcDb2dVertex
 10
81.24670482730339
 20
35.46586540286398
 30
0.0
  0
VERTEX
  5
17C
330
17A
100
AcDbEntity
  8
Visible (ANSI)
100
AcDbVertex
100
AcDb2dVertex
 10
81.24637141675497
 20
35.46348464316672
 30
0.0
  0
VERTEX
  5
17E
330
17A
100
AcDbEntity
  8
Visible (ANSI)
100
AcDbVertex
100
AcDb2dVertex
 10
81.24536818141107
 20
35.46110388346946
 30
0.0
  0
VERTEX
  5
17F
330
17A
100
AcDbEntity
  8
Visible (ANSI)
100
AcDbVertex
100
AcDb2dVertex
 10
81.24370413236766
 20
35.45872312377219
 30
0.0
  0
VERTEX
  5
180
330
17A
100
AcDbEntity
  8
Visible (ANSI)
100
AcDbVertex
100
AcDb2dVertex
 10
81.24138227332332
 20
35.45634236407493
 30
0.0
  0
VERTEX
  5
181
330
17A
100
AcDbEntity
  8
Visible (ANSI)
100
AcDbVertex
100
AcDb2dVertex
 10
81.23841461907257
 20
35.45396158091128
 30
0.0
  0
VERTEX
  5
182
330
17A
100
AcDbEntity
  8
Visible (ANSI)
100
AcDbVertex
100
AcDb2dVertex
 10
81.23481318440999
 20
35.45158082121402
 30
0.0
  0
VERTEX
  5
183
330
17A
100
AcDbEntity
  8
Visible (ANSI)
100
AcDbVertex
100
AcDb2dVertex
 10
81.23059298782871
 20
35.44920006151676
 30
0.0
  0
VERTEX
  5
184
330
17A
100
AcDbEntity
  8
Visible (ANSI)
100
AcDbVertex
100
AcDb2dVertex
 10
81.22577205152058
 20
35.4468193018195
 30
0.0
  0
VERTEX
  5
185
330
17A
100
AcDbEntity
  8
Visible (ANSI)
100
AcDbVertex
100
AcDb2dVertex
 10
81.22037440507467
 20
35.44443853038905
 30
0.0
  0
VERTEX
  5
186
330
17A
100
AcDbEntity
  8
Visible (ANSI)
100
AcDbVertex
100
AcDb2dVertex
 10
81.21441807068274
 20
35.44205777069178
 30
0.0
  0
VERTEX
  5
187
330
17A
100
AcDbEntity
  8
Visible (ANSI)
100
AcDbVertex
100
AcDb2dVertex
 10
81.20793008163254
 20
35.43967701099452
 30
0.0
  0
VERTEX
  5
188
330
17A
100
AcDbEntity
  8
Visible (ANSI)
100
AcDbVertex
100
AcDb2dVertex
 10
81.20094047491042
 20
35.43729623956406
 30
0.0
  0
VERTEX
  5
189
330
17A
100
AcDbEntity
  8
Visible (ANSI)
100
AcDbVertex
100
AcDb2dVertex
 10
81.1934792875027
 20
35.43491547986679
 30
0.0
  0
VERTEX
  5
18A
330
17A
100
AcDbEntity
  8
Visible (ANSI)
100
AcDbVertex
100
AcDb2dVertex
 10
81.18557655639573
 20
35.43253470843634
 30
0.0
  0
VERTEX
  5
18B
330
17A
100
AcDbEntity
  8
Visible (ANSI)
100
AcDbVertex
100
AcDb2dVertex
 10
81.17726532227447
 20
35.43015394873908
 30
0.0
  0
VERTEX
  5
18C
330
17A
100
AcDbEntity
  8
Visible (ANSI)
100
AcDbVertex
100
AcDb2dVertex
 10
81.16858162952254
 20
35.42777317730862
 30
0.0
  0
VERTEX
  5
18D
330
17A
100
AcDbEntity
  8
Visible (ANSI)
100
AcDbVertex
100
AcDb2dVertex
 10
81.15956452622222
 20
35.42539241761136
 30
0.0
  0
VERTEX
  5
18E
330
17A
100
AcDbEntity
  8
Visible (ANSI)
100
AcDbVertex
100
AcDb2dVertex
 10
81.15025005675711
 20
35.4230116579141
 30
0.0
  0
VERTEX
  5
18F
330
17A
100
AcDbEntity
  8
Visible (ANSI)
100
AcDbVertex
100
AcDb2dVertex
 10
81.14068027290809
 20
35.42063088648364
 30
0.0
  0
VERTEX
  5
190
330
17A
100
AcDbEntity
  8
Visible (ANSI)
100
AcDbVertex
100
AcDb2dVertex
 10
81.130897226456
 20
35.41825012678638
 30
0.0
  0
VERTEX
  5
191
330
17A
100
AcDbEntity
  8
Visible (ANSI)
100
AcDbVertex
100
AcDb2dVertex
 10
81.12093996548312
 20
35.41586935535592
 30
0.0
  0
VERTEX
  5
192
330
17A
100
AcDbEntity
  8
Visible (ANSI)
100
AcDbVertex
100
AcDb2dVertex
 10
81.11085054177035
 20
35.41348859565866
 30
0.0
  0
VERTEX
  5
193
330
17A
100
AcDbEntity
  8
Visible (ANSI)
100
AcDbVertex
100
AcDb2dVertex
 10
81.10067401079716
 20
35.41110783596141
 30
0.0
  0
VERTEX
  5
194
330
17A
100
AcDbEntity
  8
Visible (ANSI)
100
AcDbVertex
100
AcDb2dVertex
 10
81.09045542804311
 20
35.40872706453094
 30
0.0
  0
SEQEND
  5
17D
330
17A
100
AcDbEntity
  8
Visible (ANSI)
  0
POLYLINE
  5
195
330
6C
100
AcDbEntity
  8
Visible (ANSI)
100
AcDb2dPolyline
 66
     1
 10
0.0
 20
0.0
 30
0.0
 70
   128
  0
VERTEX
  5
196
330
195
100
AcDbEntity
  8
Visible (ANSI)
100
AcDbVertex
100
AcDb2dVertex
 10
43.40295614658414
 20
85.09622766761728
 30
0.0
  0
VERTEX
  5
197
330
195
100
AcDbEntity
  8
Visible (ANSI)
100
AcDbVertex
100
AcDb2dVertex
 10
43.4053369180146
 20
85.10644625037135
 30
0.0
  0
VERTEX
  5
199
330
195
100
AcDbEntity
  8
Visible (ANSI)
100
AcDbVertex
100
AcDb2dVertex
 10
43.40771767771186
 20
85.11662278134455
 30
0.0
  0
VERTEX
  5
19A
330
195
100
AcDbEntity
  8
Visible (ANSI)
100
AcDbVertex
100
AcDb2dVertex
 10
43.41009843740912
 20
85.12670920135869
 30
0.0
  0
VERTEX
  5
19B
330
195
100
AcDbEntity
  8
Visible (ANSI)
100
AcDbVertex
100
AcDb2dVertex
 10
43.41247920883958
 20
85.13666646233154
 30
0.0
  0
VERTEX
  5
19C
330
195
100
AcDbEntity
  8
Visible (ANSI)
100
AcDbVertex
100
AcDb2dVertex
 10
43.41485996853684
 20
85.14645251248227
 30
0.0
  0
VERTEX
  5
19D
330
195
100
AcDbEntity
  8
Visible (ANSI)
100
AcDbVertex
100
AcDb2dVertex
 10
43.41724073996729
 20
85.15602229633131
 30
0.0
  0
VERTEX
  5
19E
330
195
100
AcDbEntity
  8
Visible (ANSI)
100
AcDbVertex
100
AcDb2dVertex
 10
43.41962149966455
 20
85.1653337620978
 30
0.0
  0
VERTEX
  5
19F
330
195
100
AcDbEntity
  8
Visible (ANSI)
100
AcDbVertex
100
AcDb2dVertex
 10
43.42200225936182
 20
85.17435086539812
 30
0.0
  0
VERTEX
  5
1A0
330
195
100
AcDbEntity
  8
Visible (ANSI)
100
AcDbVertex
100
AcDb2dVertex
 10
43.42438303079227
 20
85.18303455815004
 30
0.0
  0
VERTEX
  5
1A1
330
195
100
AcDbEntity
  8
Visible (ANSI)
100
AcDbVertex
100
AcDb2dVertex
 10
43.42676379048953
 20
85.19134579227126
 30
0.0
  0
VERTEX
  5
1A2
330
195
100
AcDbEntity
  8
Visible (ANSI)
100
AcDbVertex
100
AcDb2dVertex
 10
43.42914456192
 20
85.19924852337823
 30
0.0
  0
VERTEX
  5
1A3
330
195
100
AcDbEntity
  8
Visible (ANSI)
100
AcDbVertex
100
AcDb2dVertex
 10
43.43152532161726
 20
85.2067127144846
 30
0.0
  0
VERTEX
  5
1A4
330
195
100
AcDbEntity
  8
Visible (ANSI)
100
AcDbVertex
100
AcDb2dVertex
 10
43.43390609304772
 20
85.21370232120675
 30
0.0
  0
VERTEX
  5
1A5
330
195
100
AcDbEntity
  8
Visible (ANSI)
100
AcDbVertex
100
AcDb2dVertex
 10
43.43628685274498
 20
85.2201873065583
 30
0.0
  0
VERTEX
  5
1A6
330
195
100
AcDbEntity
  8
Visible (ANSI)
100
AcDbVertex
100
AcDb2dVertex
 10
43.43866761244224
 20
85.22614364095021
 30
0.0
  0
VERTEX
  5
1A7
330
195
100
AcDbEntity
  8
Visible (ANSI)
100
AcDbVertex
100
AcDb2dVertex
 10
43.44104838387269
 20
85.2315442910948
 30
0.0
  0
VERTEX
  5
1A8
330
195
100
AcDbEntity
  8
Visible (ANSI)
100
AcDbVertex
100
AcDb2dVertex
 10
43.44342914356995
 20
85.23636222370429
 30
0.0
  0
VERTEX
  5
1A9
330
195
100
AcDbEntity
  8
Visible (ANSI)
100
AcDbVertex
100
AcDb2dVertex
 10
43.44580990326722
 20
85.24058242028553
 30
0.0
  0
VERTEX
  5
1AA
330
195
100
AcDbEntity
  8
Visible (ANSI)
100
AcDbVertex
100
AcDb2dVertex
 10
43.44819066296448
 20
85.24418385494811
 30
0.0
  0
VERTEX
  5
1AB
330
195
100
AcDbEntity
  8
Visible (ANSI)
100
AcDbVertex
100
AcDb2dVertex
 10
43.45057144612813
 20
85.24715150919886
 30
0.0
  0
VERTEX
  5
1AC
330
195
100
AcDbEntity
  8
Visible (ANSI)
100
AcDbVertex
100
AcDb2dVertex
 10
43.45295220582539
 20
85.24947336824322
 30
0.0
  0
VERTEX
  5
1AD
330
195
100
AcDbEntity
  8
Visible (ANSI)
100
AcDbVertex
100
AcDb2dVertex
 10
43.45533296552265
 20
85.25114042098529
 30
0.0
  0
VERTEX
  5
1AE
330
195
100
AcDbEntity
  8
Visible (ANSI)
100
AcDbVertex
100
AcDb2dVertex
 10
43.45771372521991
 20
85.25214365632916
 30
0.0
  0
VERTEX
  5
1AF
330
195
100
AcDbEntity
  8
Visible (ANSI)
100
AcDbVertex
100
AcDb2dVertex
 10
43.46009448491717
 20
85.25247706687755
 30
0.0
  0
SEQEND
  5
198
330
195
100
AcDbEntity
  8
Visible (ANSI)
  0
POLYLINE
  5
1B0
330
6C
100
AcDbEntity
  8
Visible (ANSI)
100
AcDb2dPolyline
 66
     1
 10
0.0
 20
0.0
 30
0.0
 70
   128
  0
VERTEX
  5
1B1
330
1B0
100
AcDbEntity
  8
Visible (ANSI)
100
AcDbVertex
100
AcDb2dVertex
 10
81.03331907262049
 20
85.25247706687755
 30
0.0
  0
VERTEX
  5
1B2
330
1B0
100
AcDbEntity
  8
Visible (ANSI)
100
AcDbVertex
100
AcDb2dVertex
 10
81.0356980019389
 20
85.25214365632916
 30
0.0
  0
VERTEX
  5
1B4
330
1B0
100
AcDbEntity
  8
Visible (ANSI)
100
AcDbVertex
100
AcDb2dVertex
 10
81.03807993495593
 20
85.25114042098529
 30
0.0
  0
VERTEX
  5
1B5
330
1B0
100
AcDbEntity
  8
Visible (ANSI)
100
AcDbVertex
100
AcDb2dVertex
 10
81.04045886427433
 20
85.24947336824322
 30
0.0
  0
VERTEX
  5
1B6
330
1B0
100
AcDbEntity
  8
Visible (ANSI)
100
AcDbVertex
100
AcDb2dVertex
 10
81.04284079729138
 20
85.24715150919886
 30
0.0
  0
VERTEX
  5
1B7
330
1B0
100
AcDbEntity
  8
Visible (ANSI)
100
AcDbVertex
100
AcDb2dVertex
 10
81.04522273030843
 20
85.24418385494811
 30
0.0
  0
VERTEX
  5
1B8
330
1B0
100
AcDbEntity
  8
Visible (ANSI)
100
AcDbVertex
100
AcDb2dVertex
 10
81.04760165962684
 20
85.24058242028553
 30
0.0
  0
VERTEX
  5
1B9
330
1B0
100
AcDbEntity
  8
Visible (ANSI)
100
AcDbVertex
100
AcDb2dVertex
 10
81.04998359264387
 20
85.23636222370429
 30
0.0
  0
VERTEX
  5
1BA
330
1B0
100
AcDbEntity
  8
Visible (ANSI)
100
AcDbVertex
100
AcDb2dVertex
 10
81.05236252196228
 20
85.2315442910948
 30
0.0
  0
VERTEX
  5
1BB
330
1B0
100
AcDbEntity
  8
Visible (ANSI)
100
AcDbVertex
100
AcDb2dVertex
 10
81.05474445497931
 20
85.22614364095021
 30
0.0
  0
VERTEX
  5
1BC
330
1B0
100
AcDbEntity
  8
Visible (ANSI)
100
AcDbVertex
100
AcDb2dVertex
 10
81.05712638799635
 20
85.2201873065583
 30
0.0
  0
VERTEX
  5
1BD
330
1B0
100
AcDbEntity
  8
Visible (ANSI)
100
AcDbVertex
100
AcDb2dVertex
 10
81.05950531731476
 20
85.21370232120675
 30
0.0
  0
VERTEX
  5
1BE
330
1B0
100
AcDbEntity
  8
Visible (ANSI)
100
AcDbVertex
100
AcDb2dVertex
 10
81.06188725033179
 20
85.2067127144846
 30
0.0
  0
VERTEX
  5
1BF
330
1B0
100
AcDbEntity
  8
Visible (ANSI)
100
AcDbVertex
100
AcDb2dVertex
 10
81.06426918334882
 20
85.19924852337823
 30
0.0
  0
VERTEX
  5
1C0
330
1B0
100
AcDbEntity
  8
Visible (ANSI)
100
AcDbVertex
100
AcDb2dVertex
 10
81.06664811266723
 20
85.19134579227126
 30
0.0
  0
VERTEX
  5
1C1
330
1B0
100
AcDbEntity
  8
Visible (ANSI)
100
AcDbVertex
100
AcDb2dVertex
 10
81.06903004568428
 20
85.18303455815004
 30
0.0
  0
VERTEX
  5
1C2
330
1B0
100
AcDbEntity
  8
Visible (ANSI)
100
AcDbVertex
100
AcDb2dVertex
 10
81.07140897500269
 20
85.17435086539812
 30
0.0
  0
VERTEX
  5
1C3
330
1B0
100
AcDbEntity
  8
Visible (ANSI)
100
AcDbVertex
100
AcDb2dVertex
 10
81.07379090801972
 20
85.1653337620978
 30
0.0
  0
VERTEX
  5
1C4
330
1B0
100
AcDbEntity
  8
Visible (ANSI)
100
AcDbVertex
100
AcDb2dVertex
 10
81.07617284103676
 20
85.15602229633131
 30
0.0
  0
VERTEX
  5
1C5
330
1B0
100
AcDbEntity
  8
Visible (ANSI)
100
AcDbVertex
100
AcDb2dVertex
 10
81.07855177035517
 20
85.14645251248227
 30
0.0
  0
VERTEX
  5
1C6
330
1B0
100
AcDbEntity
  8
Visible (ANSI)
100
AcDbVertex
100
AcDb2dVertex
 10
81.0809337033722
 20
85.13666646233154
 30
0.0
  0
VERTEX
  5
1C7
330
1B0
100
AcDbEntity
  8
Visible (ANSI)
100
AcDbVertex
100
AcDb2dVertex
 10
81.08331263269063
 20
85.12670920135869
 30
0.0
  0
VERTEX
  5
1C8
330
1B0
100
AcDbEntity
  8
Visible (ANSI)
100
AcDbVertex
100
AcDb2dVertex
 10
81.08569456570767
 20
85.11662278134455
 30
0.0
  0
VERTEX
  5
1C9
330
1B0
100
AcDbEntity
  8
Visible (ANSI)
100
AcDbVertex
100
AcDb2dVertex
 10
81.08807649872471
 20
85.10644625037135
 30
0.0
  0
VERTEX
  5
1CA
330
1B0
100
AcDbEntity
  8
Visible (ANSI)
100
AcDbVertex
100
AcDb2dVertex
 10
81.09045542804311
 20
85.09622766761728
 30
0.0
  0
SEQEND
  5
1B3
330
1B0
100
AcDbEntity
  8
Visible (ANSI)
  0
POLYLINE
  5
1CB
330
6C
100
AcDbEntity
  8
Visible (ANSI)
100
AcDb2dPolyline
 66
     1
 10
0.0
 20
0.0
 30
0.0
 70
   128
  0
VERTEX
  5
1CC
330
1CB
100
AcDbEntity
  8
Visible (ANSI)
100
AcDbVertex
100
AcDb2dVertex
 10
43.40295614658414
 20
35.40872706453094
 30
0.0
  0
VERTEX
  5
1CD
330
1CB
100
AcDbEntity
  8
Visible (ANSI)
100
AcDbVertex
100
AcDb2dVertex
 10
43.392736906771
 20
35.41110783596141
 30
0.0
  0
VERTEX
  5
1CF
330
1CB
100
AcDbEntity
  8
Visible (ANSI)
100
AcDbVertex
100
AcDb2dVertex
 10
43.38256143178563
 20
35.41348859565866
 30
0.0
  0
VERTEX
  5
1D0
330
1CB
100
AcDbEntity
  8
Visible (ANSI)
100
AcDbVertex
100
AcDb2dVertex
 10
43.37247328699141
 20
35.41586935535592
 30
0.0
  0
VERTEX
  5
1D1
330
1CB
100
AcDbEntity
  8
Visible (ANSI)
100
AcDbVertex
100
AcDb2dVertex
 10
43.3625156740226
 20
35.41825012678638
 30
0.0
  0
VERTEX
  5
1D2
330
1CB
100
AcDbEntity
  8
Visible (ANSI)
100
AcDbVertex
100
AcDb2dVertex
 10
43.35273123131997
 20
35.42063088648364
 30
0.0
  0
VERTEX
  5
1D3
330
1CB
100
AcDbEntity
  8
Visible (ANSI)
100
AcDbVertex
100
AcDb2dVertex
 10
43.34316186399946
 20
35.4230116579141
 30
0.0
  0
VERTEX
  5
1D4
330
1CB
100
AcDbEntity
  8
Visible (ANSI)
100
AcDbVertex
100
AcDb2dVertex
 10
43.33384853852112
 20
35.42539241761136
 30
0.0
  0
VERTEX
  5
1D5
330
1CB
100
AcDbEntity
  8
Visible (ANSI)
100
AcDbVertex
100
AcDb2dVertex
 10
43.32483114775746
 20
35.42777317730862
 30
0.0
  0
VERTEX
  5
1D6
330
1CB
100
AcDbEntity
  8
Visible (ANSI)
100
AcDbVertex
100
AcDb2dVertex
 10
43.3161482997958
 20
35.43015394873908
 30
0.0
  0
VERTEX
  5
1D7
330
1CB
100
AcDbEntity
  8
Visible (ANSI)
100
AcDbVertex
100
AcDb2dVertex
 10
43.30783717713992
 20
35.43253470843634
 30
0.0
  0
VERTEX
  5
1D8
330
1CB
100
AcDbEntity
  8
Visible (ANSI)
100
AcDbVertex
100
AcDb2dVertex
 10
43.29993336657875
 20
35.43491547986679
 30
0.0
  0
VERTEX
  5
1D9
330
1CB
100
AcDbEntity
  8
Visible (ANSI)
100
AcDbVertex
100
AcDb2dVertex
 10
43.2924707154546
 20
35.43729623956406
 30
0.0
  0
VERTEX
  5
1DA
330
1CB
100
AcDbEntity
  8
Visible (ANSI)
100
AcDbVertex
100
AcDb2dVertex
 10
43.28548117913165
 20
35.43967701099452
 30
0.0
  0
VERTEX
  5
1DB
330
1CB
100
AcDbEntity
  8
Visible (ANSI)
100
AcDbVertex
100
AcDb2dVertex
 10
43.27899468899747
 20
35.44205777069178
 30
0.0
  0
VERTEX
  5
1DC
330
1CB
100
AcDbEntity
  8
Visible (ANSI)
100
AcDbVertex
100
AcDb2dVertex
 10
43.27303902339783
 20
35.44443853038905
 30
0.0
  0
VERTEX
  5
1DD
330
1CB
100
AcDbEntity
  8
Visible (ANSI)
100
AcDbVertex
100
AcDb2dVertex
 10
43.26763968003818
 20
35.4468193018195
 30
0.0
  0
VERTEX
  5
1DE
330
1CB
100
AcDbEntity
  8
Visible (ANSI)
100
AcDbVertex
100
AcDb2dVertex
 10
43.26281978358469
 20
35.44920006151676
 30
0.0
  0
VERTEX
  5
1DF
330
1CB
100
AcDbEntity
  8
Visible (ANSI)
100
AcDbVertex
100
AcDb2dVertex
 10
43.25859997199898
 20
35.45158082121402
 30
0.0
  0
VERTEX
  5
1E0
330
1CB
100
AcDbEntity
  8
Visible (ANSI)
100
AcDbVertex
100
AcDb2dVertex
 10
43.25499831587229
 20
35.45396158091128
 30
0.0
  0
VERTEX
  5
1E1
330
1CB
100
AcDbEntity
  8
Visible (ANSI)
100
AcDbVertex
100
AcDb2dVertex
 10
43.25203023849311
 20
35.45634236407493
 30
0.0
  0
VERTEX
  5
1E2
330
1CB
100
AcDbEntity
  8
Visible (ANSI)
100
AcDbVertex
100
AcDb2dVertex
 10
43.24970844893129
 20
35.45872312377219
 30
0.0
  0
VERTEX
  5
1E3
330
1CB
100
AcDbEntity
  8
Visible (ANSI)
100
AcDbVertex
100
AcDb2dVertex
 10
43.2480428893303
 20
35.46110388346946
 30
0.0
  0
VERTEX
  5
1E4
330
1CB
100
AcDbEntity
  8
Visible (ANSI)
100
AcDbVertex
100
AcDb2dVertex
 10
43.24704069216819
 20
35.46348464316672
 30
0.0
  0
VERTEX
  5
1E5
330
1CB
100
AcDbEntity
  8
Visible (ANSI)
100
AcDbVertex
100
AcDb2dVertex
 10
43.24670614893078
 20
35.46586540286398
 30
0.0
  0
SEQEND
  5
1CE
330
1CB
100
AcDbEntity
  8
Visible (ANSI)
  0
POLYLINE
  5
1E6
330
6C
100
AcDbEntity
  8
Visible (ANSI)
100
AcDb2dPolyline
 66
     1
 10
0.0
 20
0.0
 30
0.0
 70
   128
  0
VERTEX
  5
1E7
330
1E6
100
AcDbEntity
  8
Visible (ANSI)
100
AcDbVertex
100
AcDb2dVertex
 10
43.24670614893078
 20
85.03908830849605
 30
0.0
  0
VERTEX
  5
1E8
330
1E6
100
AcDbEntity
  8
Visible (ANSI)
100
AcDbVertex
100
AcDb2dVertex
 10
43.24704069216819
 20
85.04147024151308
 30
0.0
  0
VERTEX
  5
1EA
330
1E6
100
AcDbEntity
  8
Visible (ANSI)
100
AcDbVertex
100
AcDb2dVertex
 10
43.2480428893303
 20
85.04384917083148
 30
0.0
  0
VERTEX
  5
1EB
330
1E6
100
AcDbEntity
  8
Visible (ANSI)
100
AcDbVertex
100
AcDb2dVertex
 10
43.24970844893129
 20
85.04623110384853
 30
0.0
  0
VERTEX
  5
1EC
330
1E6
100
AcDbEntity
  8
Visible (ANSI)
100
AcDbVertex
100
AcDb2dVertex
 10
43.25203023849311
 20
85.04861303686556
 30
0.0
  0
VERTEX
  5
1ED
330
1E6
100
AcDbEntity
  8
Visible (ANSI)
100
AcDbVertex
100
AcDb2dVertex
 10
43.25499831587229
 20
85.05099196618397
 30
0.0
  0
VERTEX
  5
1EE
330
1E6
100
AcDbEntity
  8
Visible (ANSI)
100
AcDbVertex
100
AcDb2dVertex
 10
43.25859997199898
 20
85.053373899201
 30
0.0
  0
VERTEX
  5
1EF
330
1E6
100
AcDbEntity
  8
Visible (ANSI)
100
AcDbVertex
100
AcDb2dVertex
 10
43.26281978358469
 20
85.05575282851941
 30
0.0
  0
VERTEX
  5
1F0
330
1E6
100
AcDbEntity
  8
Visible (ANSI)
100
AcDbVertex
100
AcDb2dVertex
 10
43.26763968003818
 20
85.05813476153646
 30
0.0
  0
VERTEX
  5
1F1
330
1E6
100
AcDbEntity
  8
Visible (ANSI)
100
AcDbVertex
100
AcDb2dVertex
 10
43.27303902339783
 20
85.0605166945535
 30
0.0
  0
VERTEX
  5
1F2
330
1E6
100
AcDbEntity
  8
Visible (ANSI)
100
AcDbVertex
100
AcDb2dVertex
 10
43.27899468899747
 20
85.06289562387191
 30
0.0
  0
VERTEX
  5
1F3
330
1E6
100
AcDbEntity
  8
Visible (ANSI)
100
AcDbVertex
100
AcDb2dVertex
 10
43.28548117913165
 20
85.06527755688896
 30
0.0
  0
VERTEX
  5
1F4
330
1E6
100
AcDbEntity
  8
Visible (ANSI)
100
AcDbVertex
100
AcDb2dVertex
 10
43.2924707154546
 20
85.06765648620737
 30
0.0
  0
VERTEX
  5
1F5
330
1E6
100
AcDbEntity
  8
Visible (ANSI)
100
AcDbVertex
100
AcDb2dVertex
 10
43.29993336657875
 20
85.0700384192244
 30
0.0
  0
VERTEX
  5
1F6
330
1E6
100
AcDbEntity
  8
Visible (ANSI)
100
AcDbVertex
100
AcDb2dVertex
 10
43.30783717713992
 20
85.07242035224143
 30
0.0
  0
VERTEX
  5
1F7
330
1E6
100
AcDbEntity
  8
Visible (ANSI)
100
AcDbVertex
100
AcDb2dVertex
 10
43.3161482997958
 20
85.07479928155985
 30
0.0
  0
VERTEX
  5
1F8
330
1E6
100
AcDbEntity
  8
Visible (ANSI)
100
AcDbVertex
100
AcDb2dVertex
 10
43.32483114775746
 20
85.07718121457688
 30
0.0
  0
VERTEX
  5
1F9
330
1E6
100
AcDbEntity
  8
Visible (ANSI)
100
AcDbVertex
100
AcDb2dVertex
 10
43.33384853852112
 20
85.07956314759391
 30
0.0
  0
VERTEX
  5
1FA
330
1E6
100
AcDbEntity
  8
Visible (ANSI)
100
AcDbVertex
100
AcDb2dVertex
 10
43.34316186399946
 20
85.08194207691232
 30
0.0
  0
VERTEX
  5
1FB
330
1E6
100
AcDbEntity
  8
Visible (ANSI)
100
AcDbVertex
100
AcDb2dVertex
 10
43.35273123131997
 20
85.08432400992935
 30
0.0
  0
VERTEX
  5
1FC
330
1E6
100
AcDbEntity
  8
Visible (ANSI)
100
AcDbVertex
100
AcDb2dVertex
 10
43.3625156740226
 20
85.08670293924778
 30
0.0
  0
VERTEX
  5
1FD
330
1E6
100
AcDbEntity
  8
Visible (ANSI)
100
AcDbVertex
100
AcDb2dVertex
 10
43.37247328699141
 20
85.08908487226481
 30
0.0
  0
VERTEX
  5
1FE
330
1E6
100
AcDbEntity
  8
Visible (ANSI)
100
AcDbVertex
100
AcDb2dVertex
 10
43.38256143178563
 20
85.09146680528184
 30
0.0
  0
VERTEX
  5
1FF
330
1E6
100
AcDbEntity
  8
Visible (ANSI)
100
AcDbVertex
100
AcDb2dVertex
 10
43.392736906771
 20
85.09384573460025
 30
0.0
  0
VERTEX
  5
200
330
1E6
100
AcDbEntity
  8
Visible (ANSI)
100
AcDbVertex
100
AcDb2dVertex
 10
43.40295614658414
 20
85.09622766761728
 30
0.0
  0
SEQEND
  5
1E9
330
1E6
100
AcDbEntity
  8
Visible (ANSI)
  0
POLYLINE
  5
201
330
6C
100
AcDbEntity
  8
Visible (ANSI)
100
AcDb2dPolyline
 66
     1
 10
0.0
 20
0.0
 30
0.0
 70
   128
  0
VERTEX
  5
202
330
201
100
AcDbEntity
  8
Visible (ANSI)
100
AcDbVertex
100
AcDb2dVertex
 10
125.3333575509887
 20
35.40872706453094
 30
0.0
  0
VERTEX
  5
203
330
201
100
AcDbEntity
  8
Visible (ANSI)
100
AcDbVertex
100
AcDb2dVertex
 10
125.3336920879241
 20
35.39850782471781
 30
0.0
  0
VERTEX
  5
205
330
201
100
AcDbEntity
  8
Visible (ANSI)
100
AcDbVertex
100
AcDb2dVertex
 10
125.3346942907466
 20
35.38833234973243
 30
0.0
  0
VERTEX
  5
206
330
201
100
AcDbEntity
  8
Visible (ANSI)
100
AcDbVertex
100
AcDb2dVertex
 10
125.3363598533725
 20
35.3782442049382
 30
0.0
  0
VERTEX
  5
207
330
201
100
AcDbEntity
  8
Visible (ANSI)
100
AcDbVertex
100
AcDb2dVertex
 10
125.3386816420176
 20
35.3682865919694
 30
0.0
  0
VERTEX
  5
208
330
201
100
AcDbEntity
  8
Visible (ANSI)
100
AcDbVertex
100
AcDb2dVertex
 10
125.3416497186635
 20
35.35850214926678
 30
0.0
  0
VERTEX
  5
209
330
201
100
AcDbEntity
  8
Visible (ANSI)
100
AcDbVertex
100
AcDb2dVertex
 10
125.3452513762569
 20
35.34893278194626
 30
0.0
  0
VERTEX
  5
20A
330
201
100
AcDbEntity
  8
Visible (ANSI)
100
AcDbVertex
100
AcDb2dVertex
 10
125.3494711856426
 20
35.33961945646793
 30
0.0
  0
VERTEX
  5
20B
330
201
100
AcDbEntity
  8
Visible (ANSI)
100
AcDbVertex
100
AcDb2dVertex
 10
125.3542910776961
 20
35.33060206570425
 30
0.0
  0
VERTEX
  5
20C
330
201
100
AcDbEntity
  8
Visible (ANSI)
100
AcDbVertex
100
AcDb2dVertex
 10
125.3596904254557
 20
35.3219192177426
 30
0.0
  0
VERTEX
  5
20D
330
201
100
AcDbEntity
  8
Visible (ANSI)
100
AcDbVertex
100
AcDb2dVertex
 10
125.3656460910554
 20
35.31360809508672
 30
0.0
  0
VERTEX
  5
20E
330
201
100
AcDbEntity
  8
Visible (ANSI)
100
AcDbVertex
100
AcDb2dVertex
 10
125.3721325782563
 20
35.30570428452556
 30
0.0
  0
VERTEX
  5
20F
330
201
100
AcDbEntity
  8
Visible (ANSI)
100
AcDbVertex
100
AcDb2dVertex
 10
125.3791221145792
 20
35.2982416334014
 30
0.0
  0
VERTEX
  5
210
330
201
100
AcDbEntity
  8
Visible (ANSI)
100
AcDbVertex
100
AcDb2dVertex
 10
125.38658476277
 20
35.29125209707845
 30
0.0
  0
VERTEX
  5
211
330
201
100
AcDbEntity
  8
Visible (ANSI)
100
AcDbVertex
100
AcDb2dVertex
 10
125.3944885733312
 20
35.28476560694428
 30
0.0
  0
VERTEX
  5
212
330
201
100
AcDbEntity
  8
Visible (ANSI)
100
AcDbVertex
100
AcDb2dVertex
 10
125.4027997018537
 20
35.27880994134463
 30
0.0
  0
VERTEX
  5
213
330
201
100
AcDbEntity
  8
Visible (ANSI)
100
AcDbVertex
100
AcDb2dVertex
 10
125.4114825498154
 20
35.27341059798497
 30
0.0
  0
VERTEX
  5
214
330
201
100
AcDbEntity
  8
Visible (ANSI)
100
AcDbVertex
100
AcDb2dVertex
 10
125.420499940579
 20
35.26859070153149
 30
0.0
  0
VERTEX
  5
215
330
201
100
AcDbEntity
  8
Visible (ANSI)
100
AcDbVertex
100
AcDb2dVertex
 10
125.4298132631241
 20
35.26437088994579
 30
0.0
  0
VERTEX
  5
216
330
201
100
AcDbEntity
  8
Visible (ANSI)
100
AcDbVertex
100
AcDb2dVertex
 10
125.4393826333779
 20
35.26076923381908
 30
0.0
  0
VERTEX
  5
217
330
201
100
AcDbEntity
  8
Visible (ANSI)
100
AcDbVertex
100
AcDb2dVertex
 10
125.4491670731472
 20
35.25780115643991
 30
0.0
  0
VERTEX
  5
218
330
201
100
AcDbEntity
  8
Visible (ANSI)
100
AcDbVertex
100
AcDb2dVertex
 10
125.4591246862993
 20
35.25547936687809
 30
0.0
  0
VERTEX
  5
219
330
201
100
AcDbEntity
  8
Visible (ANSI)
100
AcDbVertex
100
AcDb2dVertex
 10
125.4692128316436
 20
35.25381380727711
 30
0.0
  0
VERTEX
  5
21A
330
201
100
AcDbEntity
  8
Visible (ANSI)
100
AcDbVertex
100
AcDb2dVertex
 10
125.4793883102955
 20
35.25281161011499
 30
0.0
  0
VERTEX
  5
21B
330
201
100
AcDbEntity
  8
Visible (ANSI)
100
AcDbVertex
100
AcDb2dVertex
 10
125.489607548642
 20
35.25247706687758
 30
0.0
  0
SEQEND
  5
204
330
201
100
AcDbEntity
  8
Visible (ANSI)
  0
LINE
  5
21C
330
6C
100
AcDbEntity
  8
Visible (ANSI)
100
AcDbLine
 10
125.4896075491114
 20
35.37747706687759
 30
0.0
 11
126.2083575491114
 21
35.37747706687759
 31
0.0
  0
LINE
  5
21D
330
6C
100
AcDbEntity
  8
Visible (ANSI)
100
AcDbLine
 10
125.4896075491114
 20
35.37747706687759
 30
0.0
 11
125.4896075491114
 21
35.25247706687758
 31
0.0
  0
POLYLINE
  5
21E
330
6C
100
AcDbEntity
  8
Visible (ANSI)
100
AcDb2dPolyline
 66
     1
 10
0.0
 20
0.0
 30
0.0
 70
   128
  0
VERTEX
  5
21F
330
21E
100
AcDbEntity
  8
Visible (ANSI)
100
AcDbVertex
100
AcDb2dVertex
 10
125.4583575491114
 20
35.40872706453094
 30
0.0
  0
VERTEX
  5
220
330
21E
100
AcDbEntity
  8
Visible (ANSI)
100
AcDbVertex
100
AcDb2dVertex
 10
125.4584244577577
 20
35.40668322360823
 30
0.0
  0
VERTEX
  5
222
330
21E
100
AcDbEntity
  8
Visible (ANSI)
100
AcDbVertex
100
AcDb2dVertex
 10
125.4586248971959
 20
35.40464812391788
 30
0.0
  0
VERTEX
  5
223
330
21E
100
AcDbEntity
  8
Visible (ANSI)
100
AcDbVertex
100
AcDb2dVertex
 10
125.4589580091206
 20
35.40263049495903
 30
0.0
  0
VERTEX
  5
224
330
21E
100
AcDbEntity
  8
Visible (ANSI)
100
AcDbVertex
100
AcDb2dVertex
 10
125.4594223670605
 20
35.40063897236527
 30
0.0
  0
VERTEX
  5
225
330
21E
100
AcDbEntity
  8
Visible (ANSI)
100
AcDbVertex
100
AcDb2dVertex
 10
125.4600159825363
 20
35.39868208617139
 30
0.0
  0
VERTEX
  5
226
330
21E
100
AcDbEntity
  8
Visible (ANSI)
100
AcDbVertex
100
AcDb2dVertex
 10
125.4607363137983
 20
35.3967682138806
 30
0.0
  0
VERTEX
  5
227
330
21E
100
AcDbEntity
  8
Visible (ANSI)
100
AcDbVertex
100
AcDb2dVertex
 10
125.4615802761155
 20
35.39490554526498
 30
0.0
  0
VERTEX
  5
228
330
21E
100
AcDbEntity
  8
Visible (ANSI)
100
AcDbVertex
100
AcDb2dVertex
 10
125.4625442551128
 20
35.3931020706322
 30
0.0
  0
VERTEX
  5
229
330
21E
100
AcDbEntity
  8
Visible (ANSI)
100
AcDbVertex
100
AcDb2dVertex
 10
125.4636241236381
 20
35.39136549869323
 30
0.0
  0
VERTEX
  5
22A
330
21E
100
AcDbEntity
  8
Visible (ANSI)
100
AcDbVertex
100
AcDb2dVertex
 10
125.464815256978
 20
35.38970326829546
 30
0.0
  0
VERTEX
  5
22B
330
21E
100
AcDbEntity
  8
Visible (ANSI)
100
AcDbVertex
100
AcDb2dVertex
 10
125.4661125548582
 20
35.38812251322314
 30
0.0
  0
VERTEX
  5
22C
330
21E
100
AcDbEntity
  8
Visible (ANSI)
100
AcDbVertex
100
AcDb2dVertex
 10
125.4675104619761
 20
35.38662998006501
 30
0.0
  0
VERTEX
  5
22D
330
21E
100
AcDbEntity
  8
Visible (ANSI)
100
AcDbVertex
100
AcDb2dVertex
 10
125.469002992201
 20
35.38523207514707
 30
0.0
  0
VERTEX
  5
22E
330
21E
100
AcDbEntity
  8
Visible (ANSI)
100
AcDbVertex
100
AcDb2dVertex
 10
125.4705837546065
 20
35.38393477066697
 30
0.0
  0
VERTEX
  5
22F
330
21E
100
AcDbEntity
  8
Visible (ANSI)
100
AcDbVertex
100
AcDb2dVertex
 10
125.472245979871
 20
35.38274363989368
 30
0.0
  0
VERTEX
  5
230
330
21E
100
AcDbEntity
  8
Visible (ANSI)
100
AcDbVertex
100
AcDb2dVertex
 10
125.4739825488767
 20
35.38166377503503
 30
0.0
  0
VERTEX
  5
231
330
21E
100
AcDbEntity
  8
Visible (ANSI)
100
AcDbVertex
100
AcDb2dVertex
 10
125.4757860279094
 20
35.38069979897097
 30
0.0
  0
VERTEX
  5
232
330
21E
100
AcDbEntity
  8
Visible (ANSI)
100
AcDbVertex
100
AcDb2dVertex
 10
125.4776486921251
 20
35.3798558300539
 30
0.0
  0
VERTEX
  5
233
330
21E
100
AcDbEntity
  8
Visible (ANSI)
100
AcDbVertex
100
AcDb2dVertex
 10
125.4795625658825
 20
35.37913550557516
 30
0.0
  0
VERTEX
  5
234
330
21E
100
AcDbEntity
  8
Visible (ANSI)
100
AcDbVertex
100
AcDb2dVertex
 10
125.4815194535431
 20
35.37854188789934
 30
0.0
  0
VERTEX
  5
235
330
21E
100
AcDbEntity
  8
Visible (ANSI)
100
AcDbVertex
100
AcDb2dVertex
 10
125.4835109761368
 20
35.37807752313039
 30
0.0
  0
VERTEX
  5
236
330
21E
100
AcDbEntity
  8
Visible (ANSI)
100
AcDbVertex
100
AcDb2dVertex
 10
125.4855286050956
 20
35.37774441764512
 30
0.0
  0
VERTEX
  5
237
330
21E
100
AcDbEntity
  8
Visible (ANSI)
100
AcDbVertex
100
AcDb2dVertex
 10
125.4875637018527
 20
35.37754397942727
 30
0.0
  0
VERTEX
  5
238
330
21E
100
AcDbEntity
  8
Visible (ANSI)
100
AcDbVertex
100
AcDb2dVertex
 10
125.489607548642
 20
35.37747706500027
 30
0.0
  0
SEQEND
  5
221
330
21E
100
AcDbEntity
  8
Visible (ANSI)
  0
LINE
  5
239
330
6C
100
AcDbEntity
  8
Visible (ANSI)
100
AcDbLine
 10
125.4583575491114
 20
35.40872706687758
 30
0.0
 11
125.453232147238
 21
35.40872706687758
 31
0.0
  0
LINE
  5
23A
330
6C
100
AcDbEntity
  8
Visible (ANSI)
100
AcDbLine
 10
125.453232147238
 20
35.40872706687758
 30
0.0
 11
125.3333575491114
 21
35.40872706687758
 31
0.0
  0
LINE
  5
23B
330
6C
100
AcDbEntity
  8
Visible (ANSI)
100
AcDbLine
 10
125.4896075491114
 20
35.25247706687758
 30
0.0
 11
126.2083575491114
 21
35.25247706687758
 31
0.0
  0
LINE
  5
23C
330
6C
100
AcDbEntity
  8
Visible (ANSI)
100
AcDbLine
 10
126.2083575491114
 20
35.37747706687759
 30
0.0
 11
126.2083575491114
 21
35.25247706687758
 31
0.0
  0
POLYLINE
  5
23D
330
6C
100
AcDbEntity
  8
Visible (ANSI)
100
AcDb2dPolyline
 66
     1
 10
0.0
 20
0.0
 30
0.0
 70
   128
  0
VERTEX
  5
23E
330
23D
100
AcDbEntity
  8
Visible (ANSI)
100
AcDbVertex
100
AcDb2dVertex
 10
125.3333575509887
 20
85.09622766761728
 30
0.0
  0
VERTEX
  5
23F
330
23D
100
AcDbEntity
  8
Visible (ANSI)
100
AcDbVertex
100
AcDb2dVertex
 10
125.3336920879241
 20
85.09384573460025
 30
0.0
  0
VERTEX
  5
241
330
23D
100
AcDbEntity
  8
Visible (ANSI)
100
AcDbVertex
100
AcDb2dVertex
 10
125.3346942907466
 20
85.09146680528184
 30
0.0
  0
VERTEX
  5
242
330
23D
100
AcDbEntity
  8
Visible (ANSI)
100
AcDbVertex
100
AcDb2dVertex
 10
125.3363598533725
 20
85.08908487226481
 30
0.0
  0
VERTEX
  5
243
330
23D
100
AcDbEntity
  8
Visible (ANSI)
100
AcDbVertex
100
AcDb2dVertex
 10
125.3386816420177
 20
85.08670293924778
 30
0.0
  0
VERTEX
  5
244
330
23D
100
AcDbEntity
  8
Visible (ANSI)
100
AcDbVertex
100
AcDb2dVertex
 10
125.3416497186635
 20
85.08432400992935
 30
0.0
  0
VERTEX
  5
245
330
23D
100
AcDbEntity
  8
Visible (ANSI)
100
AcDbVertex
100
AcDb2dVertex
 10
125.3452513762569
 20
85.08194207691232
 30
0.0
  0
VERTEX
  5
246
330
23D
100
AcDbEntity
  8
Visible (ANSI)
100
AcDbVertex
100
AcDb2dVertex
 10
125.3494711856426
 20
85.07956314759391
 30
0.0
  0
VERTEX
  5
247
330
23D
100
AcDbEntity
  8
Visible (ANSI)
100
AcDbVertex
100
AcDb2dVertex
 10
125.3542910776962
 20
85.07718121457688
 30
0.0
  0
VERTEX
  5
248
330
23D
100
AcDbEntity
  8
Visible (ANSI)
100
AcDbVertex
100
AcDb2dVertex
 10
125.3596904254558
 20
85.07479928155985
 30
0.0
  0
VERTEX
  5
249
330
23D
100
AcDbEntity
  8
Visible (ANSI)
100
AcDbVertex
100
AcDb2dVertex
 10
125.3656460910554
 20
85.07242035224143
 30
0.0
  0
VERTEX
  5
24A
330
23D
100
AcDbEntity
  8
Visible (ANSI)
100
AcDbVertex
100
AcDb2dVertex
 10
125.3721325782563
 20
85.0700384192244
 30
0.0
  0
VERTEX
  5
24B
330
23D
100
AcDbEntity
  8
Visible (ANSI)
100
AcDbVertex
100
AcDb2dVertex
 10
125.3791221145792
 20
85.06765648620737
 30
0.0
  0
VERTEX
  5
24C
330
23D
100
AcDbEntity
  8
Visible (ANSI)
100
AcDbVertex
100
AcDb2dVertex
 10
125.3865847627701
 20
85.06527755688896
 30
0.0
  0
VERTEX
  5
24D
330
23D
100
AcDbEntity
  8
Visible (ANSI)
100
AcDbVertex
100
AcDb2dVertex
 10
125.3944885733313
 20
85.06289562387191
 30
0.0
  0
VERTEX
  5
24E
330
23D
100
AcDbEntity
  8
Visible (ANSI)
100
AcDbVertex
100
AcDb2dVertex
 10
125.4027997018537
 20
85.0605166945535
 30
0.0
  0
VERTEX
  5
24F
330
23D
100
AcDbEntity
  8
Visible (ANSI)
100
AcDbVertex
100
AcDb2dVertex
 10
125.4114825498154
 20
85.05813476153646
 30
0.0
  0
VERTEX
  5
250
330
23D
100
AcDbEntity
  8
Visible (ANSI)
100
AcDbVertex
100
AcDb2dVertex
 10
125.4204999405791
 20
85.05575282851941
 30
0.0
  0
VERTEX
  5
251
330
23D
100
AcDbEntity
  8
Visible (ANSI)
100
AcDbVertex
100
AcDb2dVertex
 10
125.4298132631241
 20
85.053373899201
 30
0.0
  0
VERTEX
  5
252
330
23D
100
AcDbEntity
  8
Visible (ANSI)
100
AcDbVertex
100
AcDb2dVertex
 10
125.4393826333779
 20
85.05099196618397
 30
0.0
  0
VERTEX
  5
253
330
23D
100
AcDbEntity
  8
Visible (ANSI)
100
AcDbVertex
100
AcDb2dVertex
 10
125.4491670731472
 20
85.04861303686556
 30
0.0
  0
VERTEX
  5
254
330
23D
100
AcDbEntity
  8
Visible (ANSI)
100
AcDbVertex
100
AcDb2dVertex
 10
125.4591246862994
 20
85.04623110384853
 30
0.0
  0
VERTEX
  5
255
330
23D
100
AcDbEntity
  8
Visible (ANSI)
100
AcDbVertex
100
AcDb2dVertex
 10
125.4692128316436
 20
85.04384917083148
 30
0.0
  0
VERTEX
  5
256
330
23D
100
AcDbEntity
  8
Visible (ANSI)
100
AcDbVertex
100
AcDb2dVertex
 10
125.4793883102956
 20
85.04147024151308
 30
0.0
  0
VERTEX
  5
257
330
23D
100
AcDbEntity
  8
Visible (ANSI)
100
AcDbVertex
100
AcDb2dVertex
 10
125.4896075486421
 20
85.03908830849605
 30
0.0
  0
SEQEND
  5
240
330
23D
100
AcDbEntity
  8
Visible (ANSI)
  0
POLYLINE
  5
258
330
6C
100
AcDbEntity
  8
Visible (ANSI)
100
AcDb2dPolyline
 66
     1
 10
0.0
 20
0.0
 30
0.0
 70
   128
  0
VERTEX
  5
259
330
258
100
AcDbEntity
  8
Visible (ANSI)
100
AcDbVertex
100
AcDb2dVertex
 10
125.4896075486421
 20
35.46586540286398
 30
0.0
  0
VERTEX
  5
25A
330
258
100
AcDbEntity
  8
Visible (ANSI)
100
AcDbVertex
100
AcDb2dVertex
 10
125.4793883102956
 20
35.46348464316672
 30
0.0
  0
VERTEX
  5
25C
330
258
100
AcDbEntity
  8
Visible (ANSI)
100
AcDbVertex
100
AcDb2dVertex
 10
125.4692128316436
 20
35.46110388346946
 30
0.0
  0
VERTEX
  5
25D
330
258
100
AcDbEntity
  8
Visible (ANSI)
100
AcDbVertex
100
AcDb2dVertex
 10
125.4591246862994
 20
35.45872312377219
 30
0.0
  0
VERTEX
  5
25E
330
258
100
AcDbEntity
  8
Visible (ANSI)
100
AcDbVertex
100
AcDb2dVertex
 10
125.4491670731472
 20
35.45634236407493
 30
0.0
  0
VERTEX
  5
25F
330
258
100
AcDbEntity
  8
Visible (ANSI)
100
AcDbVertex
100
AcDb2dVertex
 10
125.4393826333779
 20
35.45396158091128
 30
0.0
  0
VERTEX
  5
260
330
258
100
AcDbEntity
  8
Visible (ANSI)
100
AcDbVertex
100
AcDb2dVertex
 10
125.4298132631241
 20
35.45158082121402
 30
0.0
  0
VERTEX
  5
261
330
258
100
AcDbEntity
  8
Visible (ANSI)
100
AcDbVertex
100
AcDb2dVertex
 10
125.4204999405791
 20
35.44920006151676
 30
0.0
  0
VERTEX
  5
262
330
258
100
AcDbEntity
  8
Visible (ANSI)
100
AcDbVertex
100
AcDb2dVertex
 10
125.4114825498154
 20
35.4468193018195
 30
0.0
  0
VERTEX
  5
263
330
258
100
AcDbEntity
  8
Visible (ANSI)
100
AcDbVertex
100
AcDb2dVertex
 10
125.4027997018537
 20
35.44443853038905
 30
0.0
  0
VERTEX
  5
264
330
258
100
AcDbEntity
  8
Visible (ANSI)
100
AcDbVertex
100
AcDb2dVertex
 10
125.3944885733313
 20
35.44205777069178
 30
0.0
  0
VERTEX
  5
265
330
258
100
AcDbEntity
  8
Visible (ANSI)
100
AcDbVertex
100
AcDb2dVertex
 10
125.3865847627701
 20
35.43967701099452
 30
0.0
  0
VERTEX
  5
266
330
258
100
AcDbEntity
  8
Visible (ANSI)
100
AcDbVertex
100
AcDb2dVertex
 10
125.3791221145792
 20
35.43729623956406
 30
0.0
  0
VERTEX
  5
267
330
258
100
AcDbEntity
  8
Visible (ANSI)
100
AcDbVertex
100
AcDb2dVertex
 10
125.3721325782563
 20
35.43491547986679
 30
0.0
  0
VERTEX
  5
268
330
258
100
AcDbEntity
  8
Visible (ANSI)
100
AcDbVertex
100
AcDb2dVertex
 10
125.3656460910554
 20
35.43253470843634
 30
0.0
  0
VERTEX
  5
269
330
258
100
AcDbEntity
  8
Visible (ANSI)
100
AcDbVertex
100
AcDb2dVertex
 10
125.3596904254558
 20
35.43015394873908
 30
0.0
  0
VERTEX
  5
26A
330
258
100
AcDbEntity
  8
Visible (ANSI)
100
AcDbVertex
100
AcDb2dVertex
 10
125.3542910776962
 20
35.42777317730862
 30
0.0
  0
VERTEX
  5
26B
330
258
100
AcDbEntity
  8
Visible (ANSI)
100
AcDbVertex
100
AcDb2dVertex
 10
125.3494711856426
 20
35.42539241761136
 30
0.0
  0
VERTEX
  5
26C
330
258
100
AcDbEntity
  8
Visible (ANSI)
100
AcDbVertex
100
AcDb2dVertex
 10
125.3452513762569
 20
35.4230116579141
 30
0.0
  0
VERTEX
  5
26D
330
258
100
AcDbEntity
  8
Visible (ANSI)
100
AcDbVertex
100
AcDb2dVertex
 10
125.3416497186635
 20
35.42063088648364
 30
0.0
  0
VERTEX
  5
26E
330
258
100
AcDbEntity
  8
Visible (ANSI)
100
AcDbVertex
100
AcDb2dVertex
 10
125.3386816420177
 20
35.41825012678638
 30
0.0
  0
VERTEX
  5
26F
330
258
100
AcDbEntity
  8
Visible (ANSI)
100
AcDbVertex
100
AcDb2dVertex
 10
125.3363598533725
 20
35.41586935535592
 30
0.0
  0
VERTEX
  5
270
330
258
100
AcDbEntity
  8
Visible (ANSI)
100
AcDbVertex
100
AcDb2dVertex
 10
125.3346942907466
 20
35.41348859565866
 30
0.0
  0
VERTEX
  5
271
330
258
100
AcDbEntity
  8
Visible (ANSI)
100
AcDbVertex
100
AcDb2dVertex
 10
125.3336920879241
 20
35.41110783596141
 30
0.0
  0
VERTEX
  5
272
330
258
100
AcDbEntity
  8
Visible (ANSI)
100
AcDbVertex
100
AcDb2dVertex
 10
125.3333575509887
 20
35.40872706453094
 30
0.0
  0
SEQEND
  5
25B
330
258
100
AcDbEntity
  8
Visible (ANSI)
  0
LINE
  5
273
330
6C
100
AcDbEntity
  8
Visible (ANSI)
100
AcDbLine
 10
126.2083575491114
 20
35.4658654145259
 30
0.0
 11
125.4896075491114
 21
35.4658654145259
 31
0.0
  0
POLYLINE
  5
274
330
6C
100
AcDbEntity
  8
Visible (ANSI)
100
AcDb2dPolyline
 66
     1
 10
0.0
 20
0.0
 30
0.0
 70
   128
  0
VERTEX
  5
275
330
274
100
AcDbEntity
  8
Visible (ANSI)
100
AcDbVertex
100
AcDb2dVertex
 10
125.4583575491114
 20
35.40872706453094
 30
0.0
  0
VERTEX
  5
276
330
274
100
AcDbEntity
  8
Visible (ANSI)
100
AcDbVertex
100
AcDb2dVertex
 10
125.4584244577577
 20
35.41110783596141
 30
0.0
  0
VERTEX
  5
278
330
274
100
AcDbEntity
  8
Visible (ANSI)
100
AcDbVertex
100
AcDb2dVertex
 10
125.4586248971959
 20
35.41348859565866
 30
0.0
  0
VERTEX
  5
279
330
274
100
AcDbEntity
  8
Visible (ANSI)
100
AcDbVertex
100
AcDb2dVertex
 10
125.4589580091206
 20
35.41586935535592
 30
0.0
  0
VERTEX
  5
27A
330
274
100
AcDbEntity
  8
Visible (ANSI)
100
AcDbVertex
100
AcDb2dVertex
 10
125.4594223670605
 20
35.41825012678638
 30
0.0
  0
VERTEX
  5
27B
330
274
100
AcDbEntity
  8
Visible (ANSI)
100
AcDbVertex
100
AcDb2dVertex
 10
125.4600159825363
 20
35.42063088648364
 30
0.0
  0
VERTEX
  5
27C
330
274
100
AcDbEntity
  8
Visible (ANSI)
100
AcDbVertex
100
AcDb2dVertex
 10
125.4607363137983
 20
35.4230116579141
 30
0.0
  0
VERTEX
  5
27D
330
274
100
AcDbEntity
  8
Visible (ANSI)
100
AcDbVertex
100
AcDb2dVertex
 10
125.4615802761155
 20
35.42539241761136
 30
0.0
  0
VERTEX
  5
27E
330
274
100
AcDbEntity
  8
Visible (ANSI)
100
AcDbVertex
100
AcDb2dVertex
 10
125.4625442551128
 20
35.42777317730862
 30
0.0
  0
VERTEX
  5
27F
330
274
100
AcDbEntity
  8
Visible (ANSI)
100
AcDbVertex
100
AcDb2dVertex
 10
125.4636241236381
 20
35.43015394873908
 30
0.0
  0
VERTEX
  5
280
330
274
100
AcDbEntity
  8
Visible (ANSI)
100
AcDbVertex
100
AcDb2dVertex
 10
125.4648152569781
 20
35.43253470843634
 30
0.0
  0
VERTEX
  5
281
330
274
100
AcDbEntity
  8
Visible (ANSI)
100
AcDbVertex
100
AcDb2dVertex
 10
125.4661125548582
 20
35.43491547986679
 30
0.0
  0
VERTEX
  5
282
330
274
100
AcDbEntity
  8
Visible (ANSI)
100
AcDbVertex
100
AcDb2dVertex
 10
125.4675104619761
 20
35.43729623956406
 30
0.0
  0
VERTEX
  5
283
330
274
100
AcDbEntity
  8
Visible (ANSI)
100
AcDbVertex
100
AcDb2dVertex
 10
125.469002992201
 20
35.43967701099452
 30
0.0
  0
VERTEX
  5
284
330
274
100
AcDbEntity
  8
Visible (ANSI)
100
AcDbVertex
100
AcDb2dVertex
 10
125.4705837546065
 20
35.44205777069178
 30
0.0
  0
VERTEX
  5
285
330
274
100
AcDbEntity
  8
Visible (ANSI)
100
AcDbVertex
100
AcDb2dVertex
 10
125.472245979871
 20
35.44443853038905
 30
0.0
  0
VERTEX
  5
286
330
274
100
AcDbEntity
  8
Visible (ANSI)
100
AcDbVertex
100
AcDb2dVertex
 10
125.4739825488767
 20
35.4468193018195
 30
0.0
  0
VERTEX
  5
287
330
274
100
AcDbEntity
  8
Visible (ANSI)
100
AcDbVertex
100
AcDb2dVertex
 10
125.4757860279094
 20
35.44920006151676
 30
0.0
  0
VERTEX
  5
288
330
274
100
AcDbEntity
  8
Visible (ANSI)
100
AcDbVertex
100
AcDb2dVertex
 10
125.4776486921251
 20
35.45158082121402
 30
0.0
  0
VERTEX
  5
289
330
274
100
AcDbEntity
  8
Visible (ANSI)
100
AcDbVertex
100
AcDb2dVertex
 10
125.4795625658825
 20
35.45396158091128
 30
0.0
  0
VERTEX
  5
28A
330
274
100
AcDbEntity
  8
Visible (ANSI)
100
AcDbVertex
100
AcDb2dVertex
 10
125.4815194535431
 20
35.45634236407493
 30
0.0
  0
VERTEX
  5
28B
330
274
100
AcDbEntity
  8
Visible (ANSI)
100
AcDbVertex
100
AcDb2dVertex
 10
125.4835109761369
 20
35.45872312377219
 30
0.0
  0
VERTEX
  5
28C
330
274
100
AcDbEntity
  8
Visible (ANSI)
100
AcDbVertex
100
AcDb2dVertex
 10
125.4855286050957
 20
35.46110388346946
 30
0.0
  0
VERTEX
  5
28D
330
274
100
AcDbEntity
  8
Visible (ANSI)
100
AcDbVertex
100
AcDb2dVertex
 10
125.4875637018527
 20
35.46348464316672
 30
0.0
  0
VERTEX
  5
28E
330
274
100
AcDbEntity
  8
Visible (ANSI)
100
AcDbVertex
100
AcDb2dVertex
 10
125.4896075486421
 20
35.46586540286398
 30
0.0
  0
SEQEND
  5
277
330
274
100
AcDbEntity
  8
Visible (ANSI)
  0
POLYLINE
  5
28F
330
6C
100
AcDbEntity
  8
Visible (ANSI)
100
AcDb2dPolyline
 66
     1
 10
0.0
 20
0.0
 30
0.0
 70
   128
  0
VERTEX
  5
290
330
28F
100
AcDbEntity
  8
Visible (ANSI)
100
AcDbVertex
100
AcDb2dVertex
 10
125.4583575491114
 20
85.09622766761728
 30
0.0
  0
VERTEX
  5
291
330
28F
100
AcDbEntity
  8
Visible (ANSI)
100
AcDbVertex
100
AcDb2dVertex
 10
125.4584244577577
 20
85.09384573460025
 30
0.0
  0
VERTEX
  5
293
330
28F
100
AcDbEntity
  8
Visible (ANSI)
100
AcDbVertex
100
AcDb2dVertex
 10
125.4586248971959
 20
85.09146680528184
 30
0.0
  0
VERTEX
  5
294
330
28F
100
AcDbEntity
  8
Visible (ANSI)
100
AcDbVertex
100
AcDb2dVertex
 10
125.4589580091206
 20
85.08908487226481
 30
0.0
  0
VERTEX
  5
295
330
28F
100
AcDbEntity
  8
Visible (ANSI)
100
AcDbVertex
100
AcDb2dVertex
 10
125.4594223670605
 20
85.08670293924778
 30
0.0
  0
VERTEX
  5
296
330
28F
100
AcDbEntity
  8
Visible (ANSI)
100
AcDbVertex
100
AcDb2dVertex
 10
125.4600159825363
 20
85.08432400992935
 30
0.0
  0
VERTEX
  5
297
330
28F
100
AcDbEntity
  8
Visible (ANSI)
100
AcDbVertex
100
AcDb2dVertex
 10
125.4607363137983
 20
85.08194207691232
 30
0.0
  0
VERTEX
  5
298
330
28F
100
AcDbEntity
  8
Visible (ANSI)
100
AcDbVertex
100
AcDb2dVertex
 10
125.4615802761155
 20
85.07956314759391
 30
0.0
  0
VERTEX
  5
299
330
28F
100
AcDbEntity
  8
Visible (ANSI)
100
AcDbVertex
100
AcDb2dVertex
 10
125.4625442551128
 20
85.07718121457688
 30
0.0
  0
VERTEX
  5
29A
330
28F
100
AcDbEntity
  8
Visible (ANSI)
100
AcDbVertex
100
AcDb2dVertex
 10
125.4636241236381
 20
85.07479928155985
 30
0.0
  0
VERTEX
  5
29B
330
28F
100
AcDbEntity
  8
Visible (ANSI)
100
AcDbVertex
100
AcDb2dVertex
 10
125.4648152569781
 20
85.07242035224143
 30
0.0
  0
VERTEX
  5
29C
330
28F
100
AcDbEntity
  8
Visible (ANSI)
100
AcDbVertex
100
AcDb2dVertex
 10
125.4661125548582
 20
85.0700384192244
 30
0.0
  0
VERTEX
  5
29D
330
28F
100
AcDbEntity
  8
Visible (ANSI)
100
AcDbVertex
100
AcDb2dVertex
 10
125.4675104619761
 20
85.06765648620737
 30
0.0
  0
VERTEX
  5
29E
330
28F
100
AcDbEntity
  8
Visible (ANSI)
100
AcDbVertex
100
AcDb2dVertex
 10
125.469002992201
 20
85.06527755688896
 30
0.0
  0
VERTEX
  5
29F
330
28F
100
AcDbEntity
  8
Visible (ANSI)
100
AcDbVertex
100
AcDb2dVertex
 10
125.4705837546065
 20
85.06289562387191
 30
0.0
  0
VERTEX
  5
2A0
330
28F
100
AcDbEntity
  8
Visible (ANSI)
100
AcDbVertex
100
AcDb2dVertex
 10
125.472245979871
 20
85.0605166945535
 30
0.0
  0
VERTEX
  5
2A1
330
28F
100
AcDbEntity
  8
Visible (ANSI)
100
AcDbVertex
100
AcDb2dVertex
 10
125.4739825488767
 20
85.05813476153646
 30
0.0
  0
VERTEX
  5
2A2
330
28F
100
AcDbEntity
  8
Visible (ANSI)
100
AcDbVertex
100
AcDb2dVertex
 10
125.4757860279094
 20
85.05575282851941
 30
0.0
  0
VERTEX
  5
2A3
330
28F
100
AcDbEntity
  8
Visible (ANSI)
100
AcDbVertex
100
AcDb2dVertex
 10
125.4776486921251
 20
85.053373899201
 30
0.0
  0
VERTEX
  5
2A4
330
28F
100
AcDbEntity
  8
Visible (ANSI)
100
AcDbVertex
100
AcDb2dVertex
 10
125.4795625658825
 20
85.05099196618397
 30
0.0
  0
VERTEX
  5
2A5
330
28F
100
AcDbEntity
  8
Visible (ANSI)
100
AcDbVertex
100
AcDb2dVertex
 10
125.4815194535431
 20
85.04861303686556
 30
0.0
  0
VERTEX
  5
2A6
330
28F
100
AcDbEntity
  8
Visible (ANSI)
100
AcDbVertex
100
AcDb2dVertex
 10
125.4835109761369
 20
85.04623110384853
 30
0.0
  0
VERTEX
  5
2A7
330
28F
100
AcDbEntity
  8
Visible (ANSI)
100
AcDbVertex
100
AcDb2dVertex
 10
125.4855286050957
 20
85.04384917083148
 30
0.0
  0
VERTEX
  5
2A8
330
28F
100
AcDbEntity
  8
Visible (ANSI)
100
AcDbVertex
100
AcDb2dVertex
 10
125.4875637018527
 20
85.04147024151308
 30
0.0
  0
VERTEX
  5
2A9
330
28F
100
AcDbEntity
  8
Visible (ANSI)
100
AcDbVertex
100
AcDb2dVertex
 10
125.4896075486421
 20
85.03908830849605
 30
0.0
  0
SEQEND
  5
292
330
28F
100
AcDbEntity
  8
Visible (ANSI)
  0
LINE
  5
2AA
330
6C
100
AcDbEntity
  8
Visible (ANSI)
100
AcDbLine
 10
125.4583575491114
 20
85.09622706687757
 30
0.0
 11
125.453232147238
 21
85.09622706687757
 31
0.0
  0
LINE
  5
2AB
330
6C
100
AcDbEntity
  8
Visible (ANSI)
100
AcDbLine
 10
125.453232147238
 20
85.09622706687757
 30
0.0
 11
125.3333575491114
 21
85.09622706687757
 31
0.0
  0
LINE
  5
2AC
330
6C
100
AcDbEntity
  8
Visible (ANSI)
100
AcDbLine
 10
125.4896075491114
 20
85.03908871922925
 30
0.0
 11
126.2083575491114
 21
85.03908871922925
 31
0.0
  0
POLYLINE
  5
2AD
330
6C
100
AcDbEntity
  8
Visible (ANSI)
100
AcDb2dPolyline
 66
     1
 10
0.0
 20
0.0
 30
0.0
 70
   128
  0
VERTEX
  5
2AE
330
2AD
100
AcDbEntity
  8
Visible (ANSI)
100
AcDbVertex
100
AcDb2dVertex
 10
125.489607548642
 20
85.25247706687755
 30
0.0
  0
VERTEX
  5
2AF
330
2AD
100
AcDbEntity
  8
Visible (ANSI)
100
AcDbVertex
100
AcDb2dVertex
 10
125.4793883102955
 20
85.25214365632916
 30
0.0
  0
VERTEX
  5
2B1
330
2AD
100
AcDbEntity
  8
Visible (ANSI)
100
AcDbVertex
100
AcDb2dVertex
 10
125.4692128316436
 20
85.25114042098529
 30
0.0
  0
VERTEX
  5
2B2
330
2AD
100
AcDbEntity
  8
Visible (ANSI)
100
AcDbVertex
100
AcDb2dVertex
 10
125.4591246862993
 20
85.24947336824322
 30
0.0
  0
VERTEX
  5
2B3
330
2AD
100
AcDbEntity
  8
Visible (ANSI)
100
AcDbVertex
100
AcDb2dVertex
 10
125.4491670731472
 20
85.24715150919886
 30
0.0
  0
VERTEX
  5
2B4
330
2AD
100
AcDbEntity
  8
Visible (ANSI)
100
AcDbVertex
100
AcDb2dVertex
 10
125.4393826333779
 20
85.24418385494811
 30
0.0
  0
VERTEX
  5
2B5
330
2AD
100
AcDbEntity
  8
Visible (ANSI)
100
AcDbVertex
100
AcDb2dVertex
 10
125.4298132631241
 20
85.24058242028553
 30
0.0
  0
VERTEX
  5
2B6
330
2AD
100
AcDbEntity
  8
Visible (ANSI)
100
AcDbVertex
100
AcDb2dVertex
 10
125.420499940579
 20
85.23636222370429
 30
0.0
  0
VERTEX
  5
2B7
330
2AD
100
AcDbEntity
  8
Visible (ANSI)
100
AcDbVertex
100
AcDb2dVertex
 10
125.4114825498154
 20
85.2315442910948
 30
0.0
  0
VERTEX
  5
2B8
330
2AD
100
AcDbEntity
  8
Visible (ANSI)
100
AcDbVertex
100
AcDb2dVertex
 10
125.4027997018537
 20
85.22614364095021
 30
0.0
  0
VERTEX
  5
2B9
330
2AD
100
AcDbEntity
  8
Visible (ANSI)
100
AcDbVertex
100
AcDb2dVertex
 10
125.3944885733312
 20
85.2201873065583
 30
0.0
  0
VERTEX
  5
2BA
330
2AD
100
AcDbEntity
  8
Visible (ANSI)
100
AcDbVertex
100
AcDb2dVertex
 10
125.38658476277
 20
85.21370232120675
 30
0.0
  0
VERTEX
  5
2BB
330
2AD
100
AcDbEntity
  8
Visible (ANSI)
100
AcDbVertex
100
AcDb2dVertex
 10
125.3791221145792
 20
85.2067127144846
 30
0.0
  0
VERTEX
  5
2BC
330
2AD
100
AcDbEntity
  8
Visible (ANSI)
100
AcDbVertex
100
AcDb2dVertex
 10
125.3721325782563
 20
85.19924852337823
 30
0.0
  0
VERTEX
  5
2BD
330
2AD
100
AcDbEntity
  8
Visible (ANSI)
100
AcDbVertex
100
AcDb2dVertex
 10
125.3656460910554
 20
85.19134579227126
 30
0.0
  0
VERTEX
  5
2BE
330
2AD
100
AcDbEntity
  8
Visible (ANSI)
100
AcDbVertex
100
AcDb2dVertex
 10
125.3596904254557
 20
85.18303455815004
 30
0.0
  0
VERTEX
  5
2BF
330
2AD
100
AcDbEntity
  8
Visible (ANSI)
100
AcDbVertex
100
AcDb2dVertex
 10
125.3542910776961
 20
85.17435086539812
 30
0.0
  0
VERTEX
  5
2C0
330
2AD
100
AcDbEntity
  8
Visible (ANSI)
100
AcDbVertex
100
AcDb2dVertex
 10
125.3494711856426
 20
85.1653337620978
 30
0.0
  0
VERTEX
  5
2C1
330
2AD
100
AcDbEntity
  8
Visible (ANSI)
100
AcDbVertex
100
AcDb2dVertex
 10
125.3452513762569
 20
85.15602229633131
 30
0.0
  0
VERTEX
  5
2C2
330
2AD
100
AcDbEntity
  8
Visible (ANSI)
100
AcDbVertex
100
AcDb2dVertex
 10
125.3416497186635
 20
85.14645251248227
 30
0.0
  0
VERTEX
  5
2C3
330
2AD
100
AcDbEntity
  8
Visible (ANSI)
100
AcDbVertex
100
AcDb2dVertex
 10
125.3386816420176
 20
85.13666646233154
 30
0.0
  0
VERTEX
  5
2C4
330
2AD
100
AcDbEntity
  8
Visible (ANSI)
100
AcDbVertex
100
AcDb2dVertex
 10
125.3363598533725
 20
85.12670920135869
 30
0.0
  0
VERTEX
  5
2C5
330
2AD
100
AcDbEntity
  8
Visible (ANSI)
100
AcDbVertex
100
AcDb2dVertex
 10
125.3346942907466
 20
85.11662278134455
 30
0.0
  0
VERTEX
  5
2C6
330
2AD
100
AcDbEntity
  8
Visible (ANSI)
100
AcDbVertex
100
AcDb2dVertex
 10
125.3336920879241
 20
85.10644625037135
 30
0.0
  0
VERTEX
  5
2C7
330
2AD
100
AcDbEntity
  8
Visible (ANSI)
100
AcDbVertex
100
AcDb2dVertex
 10
125.3333575509887
 20
85.09622766761728
 30
0.0
  0
SEQEND
  5
2B0
330
2AD
100
AcDbEntity
  8
Visible (ANSI)
  0
LINE
  5
2C8
330
6C
100
AcDbEntity
  8
Visible (ANSI)
100
AcDbLine
 10
125.4896075491114
 20
85.12747706687758
 30
0.0
 11
126.2083575491113
 21
85.12747706687761
 31
0.0
  0
LINE
  5
2C9
330
6C
100
AcDbEntity
  8
Visible (ANSI)
100
AcDbLine
 10
126.2083575491113
 20
85.25247706687762
 30
0.0
 11
125.4896075491114
 21
85.25247706687755
 31
0.0
  0
LINE
  5
2CA
330
6C
100
AcDbEntity
  8
Visible (ANSI)
100
AcDbLine
 10
125.4896075491114
 20
85.12747706687758
 30
0.0
 11
125.4896075491114
 21
85.25247706687755
 31
0.0
  0
LINE
  5
2CB
330
6C
100
AcDbEntity
  8
Visible (ANSI)
100
AcDbLine
 10
126.2083575491113
 20
85.12747706687761
 30
0.0
 11
126.2083575491113
 21
85.25247706687762
 31
0.0
  0
POLYLINE
  5
2CC
330
6C
100
AcDbEntity
  8
Visible (ANSI)
100
AcDb2dPolyline
 66
     1
 10
0.0
 20
0.0
 30
0.0
 70
   128
  0
VERTEX
  5
2CD
330
2CC
100
AcDbEntity
  8
Visible (ANSI)
100
AcDbVertex
100
AcDb2dVertex
 10
125.4583575491114
 20
85.09622766761728
 30
0.0
  0
VERTEX
  5
2CE
330
2CC
100
AcDbEntity
  8
Visible (ANSI)
100
AcDbVertex
100
AcDb2dVertex
 10
125.4584244577577
 20
85.09827018268865
 30
0.0
  0
VERTEX
  5
2D0
330
2CC
100
AcDbEntity
  8
Visible (ANSI)
100
AcDbVertex
100
AcDb2dVertex
 10
125.4586248971959
 20
85.10030669036275
 30
0.0
  0
VERTEX
  5
2D1
330
2CC
100
AcDbEntity
  8
Visible (ANSI)
100
AcDbVertex
100
AcDb2dVertex
 10
125.4589580091206
 20
85.10232217214641
 30
0.0
  0
VERTEX
  5
2D2
330
2CC
100
AcDbEntity
  8
Visible (ANSI)
100
AcDbVertex
100
AcDb2dVertex
 10
125.4594223670605
 20
85.10431662803959
 30
0.0
  0
VERTEX
  5
2D3
330
2CC
100
AcDbEntity
  8
Visible (ANSI)
100
AcDbVertex
100
AcDb2dVertex
 10
125.4600159825363
 20
85.10627203585055
 30
0.0
  0
VERTEX
  5
2D4
330
2CC
100
AcDbEntity
  8
Visible (ANSI)
100
AcDbVertex
100
AcDb2dVertex
 10
125.4607363137983
 20
85.10818539188063
 30
0.0
  0
VERTEX
  5
2D5
330
2CC
100
AcDbEntity
  8
Visible (ANSI)
100
AcDbVertex
100
AcDb2dVertex
 10
125.4615802761155
 20
85.11004768503395
 30
0.0
  0
VERTEX
  5
2D6
330
2CC
100
AcDbEntity
  8
Visible (ANSI)
100
AcDbVertex
100
AcDb2dVertex
 10
125.4625442551128
 20
85.11185290791317
 30
0.0
  0
VERTEX
  5
2D7
330
2CC
100
AcDbEntity
  8
Visible (ANSI)
100
AcDbVertex
100
AcDb2dVertex
 10
125.4636241236381
 20
85.11358904572386
 30
0.0
  0
VERTEX
  5
2D8
330
2CC
100
AcDbEntity
  8
Visible (ANSI)
100
AcDbVertex
100
AcDb2dVertex
 10
125.464815256978
 20
85.11525009106863
 30
0.0
  0
VERTEX
  5
2D9
330
2CC
100
AcDbEntity
  8
Visible (ANSI)
100
AcDbVertex
100
AcDb2dVertex
 10
125.4661125548582
 20
85.11683304024895
 30
0.0
  0
VERTEX
  5
2DA
330
2CC
100
AcDbEntity
  8
Visible (ANSI)
100
AcDbVertex
100
AcDb2dVertex
 10
125.4675104619761
 20
85.11832287477158
 30
0.0
  0
VERTEX
  5
2DB
330
2CC
100
AcDbEntity
  8
Visible (ANSI)
100
AcDbVertex
100
AcDb2dVertex
 10
125.469002992201
 20
85.11972259833518
 30
0.0
  0
VERTEX
  5
2DC
330
2CC
100
AcDbEntity
  8
Visible (ANSI)
100
AcDbVertex
100
AcDb2dVertex
 10
125.4705837546065
 20
85.12102019614523
 30
0.0
  0
VERTEX
  5
2DD
330
2CC
100
AcDbEntity
  8
Visible (ANSI)
100
AcDbVertex
100
AcDb2dVertex
 10
125.472245979871
 20
85.12220966080445
 30
0.0
  0
VERTEX
  5
2DE
330
2CC
100
AcDbEntity
  8
Visible (ANSI)
100
AcDbVertex
100
AcDb2dVertex
 10
125.4739825488767
 20
85.1232909923128
 30
0.0
  0
VERTEX
  5
2DF
330
2CC
100
AcDbEntity
  8
Visible (ANSI)
100
AcDbVertex
100
AcDb2dVertex
 10
125.4757860279094
 20
85.12425517957444
 30
0.0
  0
VERTEX
  5
2E0
330
2CC
100
AcDbEntity
  8
Visible (ANSI)
100
AcDbVertex
100
AcDb2dVertex
 10
125.4776486921251
 20
85.12509921889067
 30
0.0
  0
VERTEX
  5
2E1
330
2CC
100
AcDbEntity
  8
Visible (ANSI)
100
AcDbVertex
100
AcDb2dVertex
 10
125.4795625658825
 20
85.12582010656291
 30
0.0
  0
VERTEX
  5
2E2
330
2CC
100
AcDbEntity
  8
Visible (ANSI)
100
AcDbVertex
100
AcDb2dVertex
 10
125.4815194535431
 20
85.1264118351939
 30
0.0
  0
VERTEX
  5
2E3
330
2CC
100
AcDbEntity
  8
Visible (ANSI)
100
AcDbVertex
100
AcDb2dVertex
 10
125.4835109761368
 20
85.12687740848221
 30
0.0
  0
VERTEX
  5
2E4
330
2CC
100
AcDbEntity
  8
Visible (ANSI)
100
AcDbVertex
100
AcDb2dVertex
 10
125.4855286050956
 20
85.12721081903062
 30
0.0
  0
VERTEX
  5
2E5
330
2CC
100
AcDbEntity
  8
Visible (ANSI)
100
AcDbVertex
100
AcDb2dVertex
 10
125.4875637018527
 20
85.12740906314048
 30
0.0
  0
VERTEX
  5
2E6
330
2CC
100
AcDbEntity
  8
Visible (ANSI)
100
AcDbVertex
100
AcDb2dVertex
 10
125.489607548642
 20
85.12747814820908
 30
0.0
  0
SEQEND
  5
2CF
330
2CC
100
AcDbEntity
  8
Visible (ANSI)
  0
LINE
  5
2E7
330
6C
100
AcDbEntity
  8
Visible (ANSI)
100
AcDbLine
 10
125.3333575491114
 20
35.40872706687758
 30
0.0
 11
125.3333575491114
 21
85.09622706687757
 31
0.0
  0
LINE
  5
2E8
330
6C
100
AcDbEntity
  8
Visible (ANSI)
100
AcDbLine
 10
126.2083575491114
 20
85.03908871922925
 30
0.0
 11
126.2083575491114
 21
35.46586541452591
 31
0.0
  0
DIMENSION
  5
2E9
330
6C
100
AcDbEntity
  8
Dimension (ANSI)
100
AcDbDimension
280
     0
  2
*D4
 10
23.53883465405944
 20
85.25247706687759
 30
0.0
 11
23.53883465405943
 21
60.25247706687757
 31
0.0
 70
   160
  1
<>
 42
50.0
 73
     0
 74
     0
 75
     0
  3
Default (ANSI)
100
AcDbAlignedDimension
 13
43.46009449657911
 23
35.25247706687757
 33
0.0
 14
43.4600944965791
 24
85.25247706687757
 34
0.0
 50
90.0
100
AcDbRotatedDimension
1001
ACAD
1000
DSTYLE
1002
{
1070
   289
1070
     1
1070
   271
1070
     2
1070
   272
1070
     2
1070
    48
1040
0.0
1070
    47
1040
0.0
1002
}
  0
DIMENSION
  5
3D6
330
6C
100
AcDbEntity
  8
Dimension (ANSI)
100
AcDbDimension
280
     0
  2
*D5
 10
38.41579229380224
 20
60.25247706687757
 30
0.0
 11
38.41579229380222
 21
48.18997706687758
 31
0.0
 70
   160
  1
<>
 42
24.125
 73
     0
 74
     0
 75
     0
  3
Default (ANSI)
100
AcDbAlignedDimension
 13
44.12170614893078
 23
36.12747706687758
 33
0.0
 14
44.12170614893078
 24
60.25247706687757
 34
0.0
 50
90.0
100
AcDbRotatedDimension
1001
ACAD
1000
DSTYLE
1002
{
1070
   289
1070
     1
1070
   271
1070
     2
1070
   272
1070
     3
1070
    48
1040
0.0
1070
    47
1040
0.0
1002
}
  0
DIMENSION
  5
4C0
330
6C
100
AcDbEntity
  8
Dimension (ANSI)
100
AcDbDimension
280
     0
  2
*D6
 10
31.9957218969623
 20
84.37747706687758
 30
0.0
 11
31.99572189696228
 21
60.25247706687757
 31
0.0
 70
   160
  1
<>
 42
48.25
 73
     0
 74
     0
 75
     0
  3
Default (ANSI)
100
AcDbAlignedDimension
 13
44.12170614893078
 23
36.12747706687758
 33
0.0
 14
44.12170614893078
 24
84.37747706687757
 34
0.0
 50
90.0
100
AcDbRotatedDimension
1001
ACAD
1000
DSTYLE
1002
{
1070
   289
1070
     1
1070
   271
1070
     2
1070
   272
1070
     3
1070
    48
1040
0.0
1070
    47
1040
0.0
1002
}
  0
DIMENSION
  5
5AA
330
6C
100
AcDbEntity
  8
Dimension (ANSI)
100
AcDbDimension
280
     0
  2
*D7
 10
81.24670614893078
 20
97.16507297119775
 30
0.0
 11
62.24670614893078
 21
97.16507297119775
 31
0.0
 70
   160
  1
<>
 42
38.0
 73
     0
 74
     0
 75
     0
  3
Default (ANSI)
100
AcDbAlignedDimension
 13
43.24670614893078
 23
85.03908871922925
 33
0.0
 14
81.24670614893078
 24
85.03908871922925
 34
0.0
100
AcDbRotatedDimension
1001
ACAD
1000
DSTYLE
1002
{
1070
   289
1070
     1
1070
    73
1070
     0
1070
    74
1070
     0
1070
   271
1070
     2
1070
   272
1070
     2
1070
    48
1040
0.0
1070
    47
1040
0.0
1002
}
  0
DIMENSION
  5
694
330
6C
100
AcDbEntity
  8
Dimension (ANSI)
100
AcDbDimension
280
     0
  2
*D8
 10
80.37170614893078
 20
93.23849695651057
 30
0.0
 11
62.24670614893078
 21
93.23849695651057
 31
0.0
 70
   160
  1
<>
 42
36.25
 73
     0
 74
     0
 75
     0
  3
Default (ANSI)
100
AcDbAlignedDimension
 13
44.12170614893078
 23
84.37747706687757
 33
0.0
 14
80.37170614893078
 24
84.37747706687757
 34
0.0
 50
180.0
100
AcDbRotatedDimension
1001
ACAD
1000
DSTYLE
1002
{
1070
   289
1070
     1
1070
    73
1070
     0
1070
    74
1070
     0
1070
   271
1070
     2
1070
   272
1070
     3
1070
    48
1040
0.0
1070
    47
1040
0.0
1002
}
  0
DIMENSION
  5
77E
330
6C
100
AcDbEntity
  8
Dimension (ANSI)
100
AcDbDimension
280
     0
  2
*D9
 10
62.24670614893078
 20
88.28266528001192
 30
0.0
 11
53.18420614893079
 21
88.28266528001192
 31
0.0
 70
   160
  1
<>
 42
18.125
 73
     0
 74
     0
 75
     0
  3
Default (ANSI)
100
AcDbAlignedDimension
 13
44.12170614893078
 23
84.37747706687757
 33
0.0
 14
62.24670614893078
 24
84.37747706687757
 34
0.0
 50
180.0
100
AcDbRotatedDimension
1001
ACAD
1000
DSTYLE
1002
{
1070
   289
1070
     1
1070
    73
1070
     0
1070
    74
1070
     0
1070
   271
1070
     2
1070
   272
1070
     3
1070
    48
1040
0.0
1070
    47
1040
0.0
1002
}
  0
DIMENSION
  5
868
330
6C
100
AcDbEntity
  8
Dimension (ANSI)
100
AcDbDimension
280
     0
  2
*D10
 10
88.91722336490946
 20
36.12747706687758
 30
0.0
 11
88.99798237773023
 21
31.06282647460496
 31
0.0
 70
   160
  1
<>{ \PTYP.}
 42
0.875
 73
     0
 74
     0
 75
     0
  3
Default (ANSI)
100
AcDbAlignedDimension
 13
81.03331780128247
 23
35.25247706687758
 33
0.0
 14
80.37170614893078
 24
36.12747706687758
 34
0.0
 50
90.0
100
AcDbRotatedDimension
1001
ACAD
1000
DSTYLE
1002
{
1070
   289
1070
     1
1070
   279
1070
     1
1070
   145
1040
-0.25
1070
   271
1070
     2
1070
   272
1070
     2
1070
    48
1040
0.0
1070
    47
1040
0.0
1002
}
  0
DIMENSION
  5
980
330
6C
100
AcDbEntity
  8
Dimension (ANSI)
100
AcDbDimension
280
     0
  2
*D11
 10
80.37170614893078
 20
32.01069360125949
 30
0.0
 11
75.50670112931858
 21
32.01069360125949
 31
0.0
 70
   160
  1
<>{\PTYP.}
 42
0.875
 73
     0
 74
     0
 75
     0
  3
Default (ANSI)
100
AcDbAlignedDimension
 13
81.24670614893078
 23
35.4658654145259
 33
0.0
 14
80.37170614893078
 24
36.12747706687758
 34
0.0
 50
180.0
100
AcDbRotatedDimension
1001
ACAD
1000
DSTYLE
1002
{
1070
   289
1070
     1
1070
    73
1070
     0
1070
    74
1070
     0
1070
   145
1040
-0.25
1070
   271
1070
     2
1070
   272
1070
     2
1070
    48
1040
0.0
1070
    47
1040
0.0
1002
}
  0
DIMENSION
  5
A7E
330
6C
100
AcDbEntity
  8
Dimension (ANSI)
100
AcDbDimension
280
     0
  2
*D12
 10
126.2083575491113
 20
88.40208336609014
 30
0.0
 11
120.5702407092782
 21
88.40208336609014
 31
0.0
 70
   160
  1
<>
 42
0.8749999999999715
 73
     0
 74
     0
 75
     0
  3
Default (ANSI)
100
AcDbAlignedDimension
 13
125.3333575491114
 23
85.09622706687757
 33
0.0
 14
126.2083575491113
 24
85.25247706687762
 34
0.0
100
AcDbRotatedDimension
1001
ACAD
1000
DSTYLE
1002
{
1070
   289
1070
     1
1070
    73
1070
     0
1070
    74
1070
     0
1070
   271
1070
     2
1070
   272
1070
     2
1070
    48
1040
0.0
1070
    47
1040
0.0
1002
}
  0
ELLIPSE
  5
B68
330
6C
100
AcDbEntity
  8
Visible (ANSI)
100
AcDbEllipse
 10
171.2205786632507
 20
53.64331263631257
 30
0.0
 11
-0.0965783276981949
 21
0.1677109756264705
 31
0.0
210
0.0
220
0.0
230
0.9999999999999998
 40
0.5780931159158128
 41
0.0
 42
6.283185307179586
  0
ELLIPSE
  5
B69
330
6C
100
AcDbEntity
  8
Visible (ANSI)
100
AcDbEllipse
 10
171.2813456522589
 20
53.67830601796661
 30
0.0
 11
-0.0965783276981949
 21
0.1677109756264705
 31
0.0
210
0.0
220
0.0
230
1.0
 40
0.5780931159158128
 41
0.3187556839588481
 42
2.822836969630835
  0
ELLIPSE
  5
B6A
330
6C
100
AcDbEntity
  8
Visible (ANSI)
100
AcDbEllipse
 10
153.5981518508645
 20
63.79139331597935
 30
0.0
 11
-0.0965783276981949
 21
0.1677109756264705
 31
0.0
210
0.0
220
0.0
230
0.9999999999999998
 40
0.5780931159158128
 41
0.0
 42
6.283185307179586
  0
ELLIPSE
  5
B6B
330
6C
100
AcDbEntity
  8
Visible (ANSI)
100
AcDbEllipse
 10
153.6589188398727
 20
63.82638669763338
 30
0.0
 11
-0.0965783276981947
 21
0.1677109756264703
 31
0.0
210
0.0
220
0.0
230
1.0
 40
0.5780931159158129
 41
0.318755683958849
 42
2.822836969630836
  0
ELLIPSE
  5
B6C
330
6C
100
AcDbEntity
  8
Visible (ANSI)
100
AcDbEllipse
 10
162.4093652570576
 20
50.77820394349536
 30
0.0
 11
-0.0965783276981949
 21
0.1677109756264705
 31
0.0
210
0.0
220
0.0
230
0.9999999999999998
 40
0.5780931159158128
 41
0.0
 42
6.283185307179586
  0
ELLIPSE
  5
B6D
330
6C
100
AcDbEntity
  8
Visible (ANSI)
100
AcDbEllipse
 10
162.4701322460658
 20
50.81319732514939
 30
0.0
 11
-0.0965783276981938
 21
0.1677109756264688
 31
0.0
210
0.0
220
0.0
230
0.9999999999999998
 40
0.5780931159158126
 41
0.3187556839588916
 42
2.822836969630835
  0
ELLIPSE
  5
B6E
330
6C
100
AcDbEntity
  8
Visible (ANSI)
100
AcDbEllipse
 10
171.2205786632507
 20
59.26394911960503
 30
0.0
 11
-0.0965783276981949
 21
0.1677109756264705
 31
0.0
210
0.0
220
0.0
230
0.9999999999999998
 40
0.5780931159158128
 41
0.0
 42
6.283185307179586
  0
ELLIPSE
  5
B6F
330
6C
100
AcDbEntity
  8
Visible (ANSI)
100
AcDbEllipse
 10
171.2813456522589
 20
59.29894250125907
 30
0.0
 11
-0.0965783276981949
 21
0.1677109756264705
 31
0.0
210
0.0
220
0.0
230
1.0
 40
0.5780931159158128
 41
0.3187556839588481
 42
2.822836969630835
  0
ELLIPSE
  5
B70
330
6C
100
AcDbEntity
  8
Visible (ANSI)
100
AcDbEllipse
 10
171.2205786632507
 20
45.70416360366198
 30
0.0
 11
-0.0965783276981949
 21
0.1677109756264705
 31
0.0
210
0.0
220
0.0
230
0.9999999999999998
 40
0.5780931159158128
 41
0.0
 42
6.283185307179586
  0
ELLIPSE
  5
B71
330
6C
100
AcDbEntity
  8
Visible (ANSI)
100
AcDbEllipse
 10
171.2813456522589
 20
45.739156985316
 30
0.0
 11
-0.096578327698195
 21
0.1677109756264707
 31
0.0
210
0.0
220
0.0
230
1.0
 40
0.578093115915813
 41
0.318755683958849
 42
2.822836969630836
  0
ELLIPSE
  5
B72
330
6C
100
AcDbEntity
  8
Visible (ANSI)
100
AcDbEllipse
 10
153.5981518508645
 20
55.85224428332875
 30
0.0
 11
-0.0965783276981949
 21
0.1677109756264705
 31
0.0
210
0.0
220
0.0
230
0.9999999999999998
 40
0.5780931159158128
 41
0.0
 42
6.283185307179586
  0
ELLIPSE
  5
B73
330
6C
100
AcDbEntity
  8
Visible (ANSI)
100
AcDbEllipse
 10
153.6589188398727
 20
55.88723766498278
 30
0.0
 11
-0.0965783276981948
 21
0.1677109756264705
 31
0.0
210
0.0
220
0.0
230
1.0
 40
0.578093115915813
 41
0.3187556839588481
 42
2.822836969630835
  0
ELLIPSE
  5
B74
330
6C
100
AcDbEntity
  8
Visible (ANSI)
100
AcDbEllipse
 10
153.5981518508645
 20
69.4120297992718
 30
0.0
 11
-0.0965783276981949
 21
0.1677109756264705
 31
0.0
210
0.0
220
0.0
230
0.9999999999999998
 40
0.5780931159158128
 41
0.0
 42
6.283185307179586
  0
ELLIPSE
  5
B75
330
6C
100
AcDbEntity
  8
Visible (ANSI)
100
AcDbEllipse
 10
153.6589188398727
 20
69.44702318092584
 30
0.0
 11
-0.0965783276981947
 21
0.1677109756264703
 31
0.0
210
0.0
220
0.0
230
1.0
 40
0.5780931159158129
 41
0.3187556839588486
 42
2.822836969630814
  0
ELLIPSE
  5
B76
330
6C
100
AcDbEntity
  8
Visible (ANSI)
100
AcDbEllipse
 10
171.2205786632507
 20
72.82373463554809
 30
0.0
 11
-0.0965783276981949
 21
0.1677109756264705
 31
0.0
210
0.0
220
0.0
230
0.9999999999999998
 40
0.5780931159158128
 41
0.0
 42
6.283185307179586
  0
ELLIPSE
  5
B77
330
6C
100
AcDbEntity
  8
Visible (ANSI)
100
AcDbEllipse
 10
171.2813456522589
 20
72.85872801720213
 30
0.0
 11
-0.0965783276981931
 21
0.1677109756264675
 31
0.0
210
0.0
220
0.0
230
1.0
 40
0.5780931159158129
 41
0.3187556839588487
 42
2.822836969630857
  0
ELLIPSE
  5
B78
330
6C
100
AcDbEntity
  8
Visible (ANSI)
100
AcDbEllipse
 10
162.4093652570576
 20
77.89777497538148
 30
0.0
 11
-0.0965783276981949
 21
0.1677109756264705
 31
0.0
210
0.0
220
0.0
230
0.9999999999999998
 40
0.5780931159158128
 41
0.0
 42
6.283185307179586
  0
ELLIPSE
  5
B79
330
6C
100
AcDbEntity
  8
Visible (ANSI)
100
AcDbEllipse
 10
162.4701322460658
 20
77.93276835703551
 30
0.0
 11
-0.096578327698194
 21
0.167710975626469
 31
0.0
210
0.0
220
0.0
230
0.9999999999999996
 40
0.5780931159158129
 41
0.3187556839588487
 42
2.822836969630857
  0
ELLIPSE
  5
B7A
330
6C
100
AcDbEntity
  8
Visible (ANSI)
100
AcDbEllipse
 10
153.5981518508645
 20
82.97181531521486
 30
0.0
 11
-0.0965783276981949
 21
0.1677109756264705
 31
0.0
210
0.0
220
0.0
230
0.9999999999999998
 40
0.5780931159158128
 41
0.0
 42
6.283185307179586
  0
ELLIPSE
  5
B7B
330
6C
100
AcDbEntity
  8
Visible (ANSI)
100
AcDbEllipse
 10
153.6589188398727
 20
83.00680869686891
 30
0.0
 11
-0.0965783276981947
 21
0.1677109756264703
 31
0.0
210
0.0
220
0.0
230
1.0
 40
0.5780931159158129
 41
0.3187556839588486
 42
2.822836969630857
  0
POLYLINE
  5
B7C
330
6C
100
AcDbEntity
  8
Visible (ANSI)
100
AcDb2dPolyline
 66
     1
 10
0.0
 20
0.0
 30
0.0
 70
   128
  0
VERTEX
  5
B7D
330
B7C
100
AcDbEntity
  8
Visible (ANSI)
100
AcDbVertex
100
AcDb2dVertex
 10
171.5699885005112
 20
45.09896861293166
 30
0.0
  0
VERTEX
  5
B7E
330
B7C
100
AcDbEntity
  8
Visible (ANSI)
100
AcDbVertex
100
AcDb2dVertex
 10
171.5689946479555
 20
45.09398437660093
 30
0.0
  0
VERTEX
  5
B80
330
B7C
100
AcDbEntity
  8
Visible (ANSI)
100
AcDbVertex
100
AcDb2dVertex
 10
171.568323911559
 20
45.08921249086316
 30
0.0
  0
VERTEX
  5
B81
330
B7C
100
AcDbEntity
  8
Visible (ANSI)
100
AcDbVertex
100
AcDb2dVertex
 10
171.5679756581855
 20
45.08467539587349
 30
0.0
  0
VERTEX
  5
B82
330
B7C
100
AcDbEntity
  8
Visible (ANSI)
100
AcDbVertex
100
AcDb2dVertex
 10
171.5679478800522
 20
45.08039453574157
 30
0.0
  0
VERTEX
  5
B83
330
B7C
100
AcDbEntity
  8
Visible (ANSI)
100
AcDbVertex
100
AcDb2dVertex
 10
171.5682328255198
 20
45.07639277561915
 30
0.0
  0
VERTEX
  5
B84
330
B7C
100
AcDbEntity
  8
Visible (ANSI)
100
AcDbVertex
100
AcDb2dVertex
 10
171.568827237645
 20
45.07268842979332
 30
0.0
  0
VERTEX
  5
B85
330
B7C
100
AcDbEntity
  8
Visible (ANSI)
100
AcDbVertex
100
AcDb2dVertex
 10
171.5697206953497
 20
45.06930188642875
 30
0.0
  0
VERTEX
  5
B86
330
B7C
100
AcDbEntity
  8
Visible (ANSI)
100
AcDbVertex
100
AcDb2dVertex
 10
171.5709058747895
 20
45.06624966858411
 30
0.0
  0
VERTEX
  5
B87
330
B7C
100
AcDbEntity
  8
Visible (ANSI)
100
AcDbVertex
100
AcDb2dVertex
 10
171.5723742086632
 20
45.0635468611281
 30
0.0
  0
VERTEX
  5
B88
330
B7C
100
AcDbEntity
  8
Visible (ANSI)
100
AcDbVertex
100
AcDb2dVertex
 10
171.5741115284117
 20
45.06120956737021
 30
0.0
  0
VERTEX
  5
B89
330
B7C
100
AcDbEntity
  8
Visible (ANSI)
100
AcDbVertex
100
AcDb2dVertex
 10
171.5761083598093
 20
45.05924897000073
 30
0.0
  0
VERTEX
  5
B8A
330
B7C
100
AcDbEntity
  8
Visible (ANSI)
100
AcDbVertex
100
AcDb2dVertex
 10
171.5783482812449
 20
45.05767800030988
 30
0.0
  0
VERTEX
  5
B8B
330
B7C
100
AcDbEntity
  8
Visible (ANSI)
100
AcDbVertex
100
AcDb2dVertex
 10
171.5808181993498
 20
45.05650539752353
 30
0.0
  0
VERTEX
  5
B8C
330
B7C
100
AcDbEntity
  8
Visible (ANSI)
100
AcDbVertex
100
AcDb2dVertex
 10
171.5835040425318
 20
45.0557381999423
 30
0.0
  0
VERTEX
  5
B8D
330
B7C
100
AcDbEntity
  8
Visible (ANSI)
100
AcDbVertex
100
AcDb2dVertex
 10
171.5863864373967
 20
45.05538422787515
 30
0.0
  0
VERTEX
  5
B8E
330
B7C
100
AcDbEntity
  8
Visible (ANSI)
100
AcDbVertex
100
AcDb2dVertex
 10
171.5894495384301
 20
45.05544700607749
 30
0.0
  0
VERTEX
  5
B8F
330
B7C
100
AcDbEntity
  8
Visible (ANSI)
100
AcDbVertex
100
AcDb2dVertex
 10
171.5926767329395
 20
45.05592828371695
 30
0.0
  0
VERTEX
  5
B90
330
B7C
100
AcDbEntity
  8
Visible (ANSI)
100
AcDbVertex
100
AcDb2dVertex
 10
171.5960463303096
 20
45.05683053335323
 30
0.0
  0
VERTEX
  5
B91
330
B7C
100
AcDbEntity
  8
Visible (ANSI)
100
AcDbVertex
100
AcDb2dVertex
 10
171.5995418618719
 20
45.05815106462701
 30
0.0
  0
VERTEX
  5
B92
330
B7C
100
AcDbEntity
  8
Visible (ANSI)
100
AcDbVertex
100
AcDb2dVertex
 10
171.6031404862435
 20
45.0598887564368
 30
0.0
  0
VERTEX
  5
B93
330
B7C
100
AcDbEntity
  8
Visible (ANSI)
100
AcDbVertex
100
AcDb2dVertex
 10
171.6068232964155
 20
45.06203818251331
 30
0.0
  0
VERTEX
  5
B94
330
B7C
100
AcDbEntity
  8
Visible (ANSI)
100
AcDbVertex
100
AcDb2dVertex
 10
171.6105710231795
 20
45.06459215282172
 30
0.0
  0
VERTEX
  5
B95
330
B7C
100
AcDbEntity
  8
Visible (ANSI)
100
AcDbVertex
100
AcDb2dVertex
 10
171.614359745595
 20
45.0675442646214
 30
0.0
  0
VERTEX
  5
B96
330
B7C
100
AcDbEntity
  8
Visible (ANSI)
100
AcDbVertex
100
AcDb2dVertex
 10
171.6181712013752
 20
45.07088304994277
 30
0.0
  0
SEQEND
  5
B7F
330
B7C
100
AcDbEntity
  8
Visible (ANSI)
  0
POLYLINE
  5
B97
330
6C
100
AcDbEntity
  8
Visible (ANSI)
100
AcDb2dPolyline
 66
     1
 10
0.0
 20
0.0
 30
0.0
 70
   128
  0
VERTEX
  5
B98
330
B97
100
AcDbEntity
  8
Visible (ANSI)
100
AcDbVertex
100
AcDb2dVertex
 10
153.2850161213738
 20
55.59210714307853
 30
0.0
  0
VERTEX
  5
B99
330
B97
100
AcDbEntity
  8
Visible (ANSI)
100
AcDbVertex
100
AcDb2dVertex
 10
153.2826997501804
 20
55.59350774881693
 30
0.0
  0
VERTEX
  5
B9B
330
B97
100
AcDbEntity
  8
Visible (ANSI)
100
AcDbVertex
100
AcDb2dVertex
 10
153.2804429337077
 20
55.59500738113634
 30
0.0
  0
VERTEX
  5
B9C
330
B97
100
AcDbEntity
  8
Visible (ANSI)
100
AcDbVertex
100
AcDb2dVertex
 10
153.2782474801011
 20
55.59660478628667
 30
0.0
  0
VERTEX
  5
B9D
330
B97
100
AcDbEntity
  8
Visible (ANSI)
100
AcDbVertex
100
AcDb2dVertex
 10
153.2761151205031
 20
55.59829860352411
 30
0.0
  0
VERTEX
  5
B9E
330
B97
100
AcDbEntity
  8
Visible (ANSI)
100
AcDbVertex
100
AcDb2dVertex
 10
153.2740475318687
 20
55.60008737495241
 30
0.0
  0
VERTEX
  5
B9F
330
B97
100
AcDbEntity
  8
Visible (ANSI)
100
AcDbVertex
100
AcDb2dVertex
 10
153.2720463084459
 20
55.6019695258021
 30
0.0
  0
VERTEX
  5
BA0
330
B97
100
AcDbEntity
  8
Visible (ANSI)
100
AcDbVertex
100
AcDb2dVertex
 10
153.2701129845917
 20
55.60394339735361
 30
0.0
  0
VERTEX
  5
BA1
330
B97
100
AcDbEntity
  8
Visible (ANSI)
100
AcDbVertex
100
AcDb2dVertex
 10
153.2682490148079
 20
55.60600722225126
 30
0.0
  0
VERTEX
  5
BA2
330
B97
100
AcDbEntity
  8
Visible (ANSI)
100
AcDbVertex
100
AcDb2dVertex
 10
153.2664557851492
 20
55.60815914096489
 30
0.0
  0
VERTEX
  5
BA3
330
B97
100
AcDbEntity
  8
Visible (ANSI)
100
AcDbVertex
100
AcDb2dVertex
 10
153.2647345904074
 20
55.61039719194851
 30
0.0
  0
VERTEX
  5
BA4
330
B97
100
AcDbEntity
  8
Visible (ANSI)
100
AcDbVertex
100
AcDb2dVertex
 10
153.2630866683352
 20
55.61271933464574
 30
0.0
  0
VERTEX
  5
BA5
330
B97
100
AcDbEntity
  8
Visible (ANSI)
100
AcDbVertex
100
AcDb2dVertex
 10
153.261513165422
 20
55.61512342648443
 30
0.0
  0
VERTEX
  5
BA6
330
B97
100
AcDbEntity
  8
Visible (ANSI)
100
AcDbVertex
100
AcDb2dVertex
 10
153.2600151483027
 20
55.6176072360407
 30
0.0
  0
VERTEX
  5
BA7
330
B97
100
AcDbEntity
  8
Visible (ANSI)
100
AcDbVertex
100
AcDb2dVertex
 10
153.2585936037571
 20
55.62016844963389
 30
0.0
  0
VERTEX
  5
BA8
330
B97
100
AcDbEntity
  8
Visible (ANSI)
100
AcDbVertex
100
AcDb2dVertex
 10
153.2572494387095
 20
55.62280467792121
 30
0.0
  0
VERTEX
  5
BA9
330
B97
100
AcDbEntity
  8
Visible (ANSI)
100
AcDbVertex
100
AcDb2dVertex
 10
153.25598348023
 20
55.62551343611345
 30
0.0
  0
VERTEX
  5
BAA
330
B97
100
AcDbEntity
  8
Visible (ANSI)
100
AcDbVertex
100
AcDb2dVertex
 10
153.2547964584212
 20
55.62829217698713
 30
0.0
  0
VERTEX
  5
BAB
330
B97
100
AcDbEntity
  8
Visible (ANSI)
100
AcDbVertex
100
AcDb2dVertex
 10
153.2536890349389
 20
55.63113826114421
 30
0.0
  0
VERTEX
  5
BAC
330
B97
100
AcDbEntity
  8
Visible (ANSI)
100
AcDbVertex
100
AcDb2dVertex
 10
153.2526617687682
 20
55.63404899006257
 30
0.0
  0
VERTEX
  5
BAD
330
B97
100
AcDbEntity
  8
Visible (ANSI)
100
AcDbVertex
100
AcDb2dVertex
 10
153.251715150447
 20
55.63702159282993
 30
0.0
  0
VERTEX
  5
BAE
330
B97
100
AcDbEntity
  8
Visible (ANSI)
100
AcDbVertex
100
AcDb2dVertex
 10
153.2508495621384
 20
55.64005322293564
 30
0.0
  0
VERTEX
  5
BAF
330
B97
100
AcDbEntity
  8
Visible (ANSI)
100
AcDbVertex
100
AcDb2dVertex
 10
153.2500653232625
 20
55.64314098454801
 30
0.0
  0
VERTEX
  5
BB0
330
B97
100
AcDbEntity
  8
Visible (ANSI)
100
AcDbVertex
100
AcDb2dVertex
 10
153.2493626448646
 20
55.6462819128317
 30
0.0
  0
VERTEX
  5
BB1
330
B97
100
AcDbEntity
  8
Visible (ANSI)
100
AcDbVertex
100
AcDb2dVertex
 10
153.2487416638391
 20
55.64947298046626
 30
0.0
  0
SEQEND
  5
B9A
330
B97
100
AcDbEntity
  8
Visible (ANSI)
  0
LINE
  5
BB2
330
6C
100
AcDbEntity
  8
Visible (ANSI)
100
AcDbLine
 10
153.586644899788
 20
55.7945025995817
 30
0.0
 11
153.7018875898726
 21
55.86086645111997
 31
0.0
  0
LINE
  5
BB3
330
6C
100
AcDbEntity
  8
Visible (ANSI)
100
AcDbLine
 10
171.6181705835603
 20
45.09366406351383
 30
0.0
 11
171.6181705835603
 21
45.0708834059815
 31
0.0
  0
LINE
  5
BB4
330
6C
100
AcDbEntity
  8
Visible (ANSI)
100
AcDbLine
 10
171.6181705835603
 20
45.0708834059815
 30
0.0
 11
171.6811430773175
 21
45.10714685335178
 31
0.0
  0
LINE
  5
BB5
330
6C
100
AcDbEntity
  8
Visible (ANSI)
100
AcDbLine
 10
171.7200723660138
 20
45.12956473975863
 30
0.0
 11
171.9675807703575
 21
45.27209535049219
 31
0.0
  0
LINE
  5
BB6
330
6C
100
AcDbEntity
  8
Visible (ANSI)
100
AcDbLine
 10
171.9675807703575
 20
45.27255830544585
 30
0.0
 11
171.9675807703575
 21
45.27209535049219
 31
0.0
  0
POLYLINE
  5
BB7
330
6C
100
AcDbEntity
  8
Visible (ANSI)
100
AcDb2dPolyline
 66
     1
 10
0.0
 20
0.0
 30
0.0
 70
   128
  0
VERTEX
  5
BB8
330
BB7
100
AcDbEntity
  8
Visible (ANSI)
100
AcDbVertex
100
AcDb2dVertex
 10
171.5699885005112
 20
73.026506478264
 30
0.0
  0
VERTEX
  5
BB9
330
BB7
100
AcDbEntity
  8
Visible (ANSI)
100
AcDbVertex
100
AcDb2dVertex
 10
171.5751187509766
 20
73.02240067080141
 30
0.0
  0
VERTEX
  5
BBB
330
BB7
100
AcDbEntity
  8
Visible (ANSI)
100
AcDbVertex
100
AcDb2dVertex
 10
171.5805531349261
 20
73.01849523497843
 30
0.0
  0
VERTEX
  5
BBC
330
BB7
100
AcDbEntity
  8
Visible (ANSI)
100
AcDbVertex
100
AcDb2dVertex
 10
171.5862676559312
 20
73.01479820192868
 30
0.0
  0
VERTEX
  5
BBD
330
BB7
100
AcDbEntity
  8
Visible (ANSI)
100
AcDbVertex
100
AcDb2dVertex
 10
171.5922369429166
 20
73.01132187598888
 30
0.0
  0
VERTEX
  5
BBE
330
BB7
100
AcDbEntity
  8
Visible (ANSI)
100
AcDbVertex
100
AcDb2dVertex
 10
171.5984357217736
 20
73.00807693558194
 30
0.0
  0
VERTEX
  5
BBF
330
BB7
100
AcDbEntity
  8
Visible (ANSI)
100
AcDbVertex
100
AcDb2dVertex
 10
171.6048388324725
 20
73.0050673782617
 30
0.0
  0
VERTEX
  5
BC0
330
BB7
100
AcDbEntity
  8
Visible (ANSI)
100
AcDbVertex
100
AcDb2dVertex
 10
171.6114183314658
 20
73.00230403349345
 30
0.0
  0
VERTEX
  5
BC1
330
BB7
100
AcDbEntity
  8
Visible (ANSI)
100
AcDbVertex
100
AcDb2dVertex
 10
171.6181449918224
 20
72.99979023861148
 30
0.0
  0
VERTEX
  5
BC2
330
BB7
100
AcDbEntity
  8
Visible (ANSI)
100
AcDbVertex
100
AcDb2dVertex
 10
171.6249912635661
 20
72.99753199794745
 30
0.0
  0
VERTEX
  5
BC3
330
BB7
100
AcDbEntity
  8
Visible (ANSI)
100
AcDbVertex
100
AcDb2dVertex
 10
171.6319269158743
 20
72.99553545378931
 30
0.0
  0
VERTEX
  5
BC4
330
BB7
100
AcDbEntity
  8
Visible (ANSI)
100
AcDbVertex
100
AcDb2dVertex
 10
171.6389220316403
 20
72.99380018251953
 30
0.0
  0
VERTEX
  5
BC5
330
BB7
100
AcDbEntity
  8
Visible (ANSI)
100
AcDbVertex
100
AcDb2dVertex
 10
171.6459470474011
 20
72.99232934722654
 30
0.0
  0
VERTEX
  5
BC6
330
BB7
100
AcDbEntity
  8
Visible (ANSI)
100
AcDbVertex
100
AcDb2dVertex
 10
171.6529728075246
 20
72.99112466409996
 30
0.0
  0
VERTEX
  5
BC7
330
BB7
100
AcDbEntity
  8
Visible (ANSI)
100
AcDbVertex
100
AcDb2dVertex
 10
171.659969178155
 20
72.99018222119823
 30
0.0
  0
VERTEX
  5
BC8
330
BB7
100
AcDbEntity
  8
Visible (ANSI)
100
AcDbVertex
100
AcDb2dVertex
 10
171.6669051042517
 20
72.98950432918421
 30
0.0
  0
VERTEX
  5
BC9
330
BB7
100
AcDbEntity
  8
Visible (ANSI)
100
AcDbVertex
100
AcDb2dVertex
 10
171.6737501382429
 20
72.9890852137062
 30
0.0
  0
VERTEX
  5
BCA
330
BB7
100
AcDbEntity
  8
Visible (ANSI)
100
AcDbVertex
100
AcDb2dVertex
 10
171.6804774459954
 20
72.98892120080342
 30
0.0
  0
VERTEX
  5
BCB
330
BB7
100
AcDbEntity
  8
Visible (ANSI)
100
AcDbVertex
100
AcDb2dVertex
 10
171.6870565756593
 20
72.98900989671688
 30
0.0
  0
VERTEX
  5
BCC
330
BB7
100
AcDbEntity
  8
Visible (ANSI)
100
AcDbVertex
100
AcDb2dVertex
 10
171.69345937692
 20
72.98934180473789
 30
0.0
  0
VERTEX
  5
BCD
330
BB7
100
AcDbEntity
  8
Visible (ANSI)
100
AcDbVertex
100
AcDb2dVertex
 10
171.6996586277772
 20
72.98991303406452
 30
0.0
  0
VERTEX
  5
BCE
330
BB7
100
AcDbEntity
  8
Visible (ANSI)
100
AcDbVertex
100
AcDb2dVertex
 10
171.7056281201931
 20
72.99071184296455
 30
0.0
  0
VERTEX
  5
BCF
330
BB7
100
AcDbEntity
  8
Visible (ANSI)
100
AcDbVertex
100
AcDb2dVertex
 10
171.7113412839305
 20
72.99173134593849
 30
0.0
  0
VERTEX
  5
BD0
330
BB7
100
AcDbEntity
  8
Visible (ANSI)
100
AcDbVertex
100
AcDb2dVertex
 10
171.7167756582546
 20
72.99296197873229
 30
0.0
  0
VERTEX
  5
BD1
330
BB7
100
AcDbEntity
  8
Visible (ANSI)
100
AcDbVertex
100
AcDb2dVertex
 10
171.7219056798498
 20
72.99439068913152
 30
0.0
  0
SEQEND
  5
BBA
330
BB7
100
AcDbEntity
  8
Visible (ANSI)
  0
POLYLINE
  5
BD2
330
6C
100
AcDbEntity
  8
Visible (ANSI)
100
AcDb2dPolyline
 66
     1
 10
0.0
 20
0.0
 30
0.0
 70
   128
  0
VERTEX
  5
BD3
330
BD2
100
AcDbEntity
  8
Visible (ANSI)
100
AcDbVertex
100
AcDb2dVertex
 10
171.7219056798498
 20
45.13108416335298
 30
0.0
  0
VERTEX
  5
BD4
330
BD2
100
AcDbEntity
  8
Visible (ANSI)
100
AcDbVertex
100
AcDb2dVertex
 10
171.7167756582546
 20
45.12697851651092
 30
0.0
  0
VERTEX
  5
BD6
330
BD2
100
AcDbEntity
  8
Visible (ANSI)
100
AcDbVertex
100
AcDb2dVertex
 10
171.7113412839305
 20
45.12307263554403
 30
0.0
  0
VERTEX
  5
BD7
330
BD2
100
AcDbEntity
  8
Visible (ANSI)
100
AcDbVertex
100
AcDb2dVertex
 10
171.7056281201931
 20
45.11937619612725
 30
0.0
  0
VERTEX
  5
BD8
330
BD2
100
AcDbEntity
  8
Visible (ANSI)
100
AcDbVertex
100
AcDb2dVertex
 10
171.6996586277772
 20
45.11590045078434
 30
0.0
  0
VERTEX
  5
BD9
330
BD2
100
AcDbEntity
  8
Visible (ANSI)
100
AcDbVertex
100
AcDb2dVertex
 10
171.69345937692
 20
45.11265396009505
 30
0.0
  0
VERTEX
  5
BDA
330
BD2
100
AcDbEntity
  8
Visible (ANSI)
100
AcDbVertex
100
AcDb2dVertex
 10
171.6870565756593
 20
45.10964511563116
 30
0.0
  0
VERTEX
  5
BDB
330
BD2
100
AcDbEntity
  8
Visible (ANSI)
100
AcDbVertex
100
AcDb2dVertex
 10
171.6804774459954
 20
45.10688117154463
 30
0.0
  0
VERTEX
  5
BDC
330
BD2
100
AcDbEntity
  8
Visible (ANSI)
100
AcDbVertex
100
AcDb2dVertex
 10
171.6737501382429
 20
45.10436824800454
 30
0.0
  0
VERTEX
  5
BDD
330
BD2
100
AcDbEntity
  8
Visible (ANSI)
100
AcDbVertex
100
AcDb2dVertex
 10
171.6669051042517
 20
45.10211042044488
 30
0.0
  0
VERTEX
  5
BDE
330
BD2
100
AcDbEntity
  8
Visible (ANSI)
100
AcDbVertex
100
AcDb2dVertex
 10
171.659969178155
 20
45.10011306428584
 30
0.0
  0
VERTEX
  5
BDF
330
BD2
100
AcDbEntity
  8
Visible (ANSI)
100
AcDbVertex
100
AcDb2dVertex
 10
171.6529728075246
 20
45.09837857074469
 30
0.0
  0
VERTEX
  5
BE0
330
BD2
100
AcDbEntity
  8
Visible (ANSI)
100
AcDbVertex
100
AcDb2dVertex
 10
171.6459470474011
 20
45.09690799910343
 30
0.0
  0
VERTEX
  5
BE1
330
BD2
100
AcDbEntity
  8
Visible (ANSI)
100
AcDbVertex
100
AcDb2dVertex
 10
171.6389220316403
 20
45.09570189795353
 30
0.0
  0
VERTEX
  5
BE2
330
BD2
100
AcDbEntity
  8
Visible (ANSI)
100
AcDbVertex
100
AcDb2dVertex
 10
171.6319269158743
 20
45.09476022618566
 30
0.0
  0
VERTEX
  5
BE3
330
BD2
100
AcDbEntity
  8
Visible (ANSI)
100
AcDbVertex
100
AcDb2dVertex
 10
171.6249912635661
 20
45.09408152217073
 30
0.0
  0
VERTEX
  5
BE4
330
BD2
100
AcDbEntity
  8
Visible (ANSI)
100
AcDbVertex
100
AcDb2dVertex
 10
171.6181449918224
 20
45.09366281979708
 30
0.0
  0
VERTEX
  5
BE5
330
BD2
100
AcDbEntity
  8
Visible (ANSI)
100
AcDbVertex
100
AcDb2dVertex
 10
171.6114183314658
 20
45.09349967823617
 30
0.0
  0
VERTEX
  5
BE6
330
BD2
100
AcDbEntity
  8
Visible (ANSI)
100
AcDbVertex
100
AcDb2dVertex
 10
171.6048388324725
 20
45.09358777483138
 30
0.0
  0
VERTEX
  5
BE7
330
BD2
100
AcDbEntity
  8
Visible (ANSI)
100
AcDbVertex
100
AcDb2dVertex
 10
171.5984357217736
 20
45.09392038911394
 30
0.0
  0
VERTEX
  5
BE8
330
BD2
100
AcDbEntity
  8
Visible (ANSI)
100
AcDbVertex
100
AcDb2dVertex
 10
171.5922369429166
 20
45.09449008134782
 30
0.0
  0
VERTEX
  5
BE9
330
BD2
100
AcDbEntity
  8
Visible (ANSI)
100
AcDbVertex
100
AcDb2dVertex
 10
171.5862676559312
 20
45.09528946424995
 30
0.0
  0
VERTEX
  5
BEA
330
BD2
100
AcDbEntity
  8
Visible (ANSI)
100
AcDbVertex
100
AcDb2dVertex
 10
171.5805531349261
 20
45.09630956085681
 30
0.0
  0
VERTEX
  5
BEB
330
BD2
100
AcDbEntity
  8
Visible (ANSI)
100
AcDbVertex
100
AcDb2dVertex
 10
171.5751187509766
 20
45.09753974850675
 30
0.0
  0
VERTEX
  5
BEC
330
BD2
100
AcDbEntity
  8
Visible (ANSI)
100
AcDbVertex
100
AcDb2dVertex
 10
171.5699885005112
 20
45.09896861293166
 30
0.0
  0
SEQEND
  5
BD5
330
BD2
100
AcDbEntity
  8
Visible (ANSI)
  0
LINE
  5
BED
330
6C
100
AcDbEntity
  8
Visible (ANSI)
100
AcDbLine
 10
171.6612299879808
 20
73.02943613619817
 30
0.0
 11
172.0105495203575
 21
73.23059587630011
 31
0.0
  0
LINE
  5
BEE
330
6C
100
AcDbEntity
  8
Visible (ANSI)
100
AcDbLine
 10
172.0713165093657
 20
45.33229574456412
 30
0.0
 11
171.7219063225686
 21
45.13108380005341
 31
0.0
  0
LINE
  5
BEF
330
6C
100
AcDbEntity
  8
Visible (ANSI)
100
AcDbLine
 10
171.6636994970981
 20
73.02790963165975
 30
0.0
 11
171.7219063225686
 21
72.99439055013539
 31
0.0
  0
POLYLINE
  5
BF0
330
6C
100
AcDbEntity
  8
Visible (ANSI)
100
AcDb2dPolyline
 66
     1
 10
0.0
 20
0.0
 30
0.0
 70
   128
  0
VERTEX
  5
BF1
330
BF0
100
AcDbEntity
  8
Visible (ANSI)
100
AcDbVertex
100
AcDb2dVertex
 10
171.6307554886068
 20
73.06149985939248
 30
0.0
  0
VERTEX
  5
BF2
330
BF0
100
AcDbEntity
  8
Visible (ANSI)
100
AcDbVertex
100
AcDb2dVertex
 10
171.6316908963991
 20
73.05977016710295
 30
0.0
  0
VERTEX
  5
BF4
330
BF0
100
AcDbEntity
  8
Visible (ANSI)
100
AcDbVertex
100
AcDb2dVertex
 10
171.6326776062684
 20
73.0580716929513
 30
0.0
  0
VERTEX
  5
BF5
330
BF0
100
AcDbEntity
  8
Visible (ANSI)
100
AcDbVertex
100
AcDb2dVertex
 10
171.6337109466109
 20
73.05641016853882
 30
0.0
  0
VERTEX
  5
BF6
330
BF0
100
AcDbEntity
  8
Visible (ANSI)
100
AcDbVertex
100
AcDb2dVertex
 10
171.6347875131751
 20
73.0547853087241
 30
0.0
  0
VERTEX
  5
BF7
330
BF0
100
AcDbEntity
  8
Visible (ANSI)
100
AcDbVertex
100
AcDb2dVertex
 10
171.6359051708426
 20
73.05319756572725
 30
0.0
  0
VERTEX
  5
BF8
330
BF0
100
AcDbEntity
  8
Visible (ANSI)
100
AcDbVertex
100
AcDb2dVertex
 10
171.6370586752961
 20
73.05164727653665
 30
0.0
  0
VERTEX
  5
BF9
330
BF0
100
AcDbEntity
  8
Visible (ANSI)
100
AcDbVertex
100
AcDb2dVertex
 10
171.6382440570472
 20
73.05013889532171
 30
0.0
  0
VERTEX
  5
BFA
330
BF0
100
AcDbEntity
  8
Visible (ANSI)
100
AcDbVertex
100
AcDb2dVertex
 10
171.6394557042318
 20
73.04867254741459
 30
0.0
  0
VERTEX
  5
BFB
330
BF0
100
AcDbEntity
  8
Visible (ANSI)
100
AcDbVertex
100
AcDb2dVertex
 10
171.6406922083359
 20
73.04724742170612
 30
0.0
  0
VERTEX
  5
BFC
330
BF0
100
AcDbEntity
  8
Visible (ANSI)
100
AcDbVertex
100
AcDb2dVertex
 10
171.641946147568
 20
73.0458642830135
 30
0.0
  0
VERTEX
  5
BFD
330
BF0
100
AcDbEntity
  8
Visible (ANSI)
100
AcDbVertex
100
AcDb2dVertex
 10
171.6432143140028
 20
73.04452634230824
 30
0.0
  0
VERTEX
  5
BFE
330
BF0
100
AcDbEntity
  8
Visible (ANSI)
100
AcDbVertex
100
AcDb2dVertex
 10
171.6444933394703
 20
73.04323165347362
 30
0.0
  0
VERTEX
  5
BFF
330
BF0
100
AcDbEntity
  8
Visible (ANSI)
100
AcDbVertex
100
AcDb2dVertex
 10
171.6457767808482
 20
73.04198155142174
 30
0.0
  0
VERTEX
  5
C00
330
BF0
100
AcDbEntity
  8
Visible (ANSI)
100
AcDbVertex
100
AcDb2dVertex
 10
171.6470609701537
 20
73.04077391738518
 30
0.0
  0
VERTEX
  5
C01
330
BF0
100
AcDbEntity
  8
Visible (ANSI)
100
AcDbVertex
100
AcDb2dVertex
 10
171.6483421007274
 20
73.03961161754732
 30
0.0
  0
VERTEX
  5
C02
330
BF0
100
AcDbEntity
  8
Visible (ANSI)
100
AcDbVertex
100
AcDb2dVertex
 10
171.6496133146644
 20
73.03849405969308
 30
0.0
  0
VERTEX
  5
C03
330
BF0
100
AcDbEntity
  8
Visible (ANSI)
100
AcDbVertex
100
AcDb2dVertex
 10
171.6508720141816
 20
73.03741805958882
 30
0.0
  0
VERTEX
  5
C04
330
BF0
100
AcDbEntity
  8
Visible (ANSI)
100
AcDbVertex
100
AcDb2dVertex
 10
171.652114029707
 20
73.03638627443054
 30
0.0
  0
VERTEX
  5
C05
330
BF0
100
AcDbEntity
  8
Visible (ANSI)
100
AcDbVertex
100
AcDb2dVertex
 10
171.6533321678734
 20
73.03539791882323
 30
0.0
  0
VERTEX
  5
C06
330
BF0
100
AcDbEntity
  8
Visible (ANSI)
100
AcDbVertex
100
AcDb2dVertex
 10
171.6545249855869
 20
73.03445047999121
 30
0.0
  0
VERTEX
  5
C07
330
BF0
100
AcDbEntity
  8
Visible (ANSI)
100
AcDbVertex
100
AcDb2dVertex
 10
171.6556880366348
 20
73.03354139101426
 30
0.0
  0
VERTEX
  5
C08
330
BF0
100
AcDbEntity
  8
Visible (ANSI)
100
AcDbVertex
100
AcDb2dVertex
 10
171.6568138830941
 20
73.03267479047647
 30
0.0
  0
VERTEX
  5
C09
330
BF0
100
AcDbEntity
  8
Visible (ANSI)
100
AcDbVertex
100
AcDb2dVertex
 10
171.6579023296053
 20
73.03184551410161
 30
0.0
  0
VERTEX
  5
C0A
330
BF0
100
AcDbEntity
  8
Visible (ANSI)
100
AcDbVertex
100
AcDb2dVertex
 10
171.6589487467169
 20
73.03105257771915
 30
0.0
  0
SEQEND
  5
BF3
330
BF0
100
AcDbEntity
  8
Visible (ANSI)
  0
LINE
  5
C0B
330
6C
100
AcDbEntity
  8
Visible (ANSI)
100
AcDbLine
 10
171.6307558390562
 20
73.06149931992814
 30
0.0
 11
171.6282641971418
 21
73.06006447877706
 31
0.0
  0
LINE
  5
C0C
330
6C
100
AcDbEntity
  8
Visible (ANSI)
100
AcDbLine
 10
171.6282641971418
 20
73.06006447877706
 30
0.0
 11
171.569988850048
 21
73.02650593827411
 31
0.0
  0
LINE
  5
C0D
330
6C
100
AcDbEntity
  8
Visible (ANSI)
100
AcDbLine
 10
171.7219063225686
 20
72.99439055013539
 30
0.0
 11
172.0713165093657
 21
73.19560249464608
 31
0.0
  0
LINE
  5
C0E
330
6C
100
AcDbEntity
  8
Visible (ANSI)
100
AcDbLine
 10
172.0105495203575
 20
73.23059587630011
 30
0.0
 11
172.0713165093657
 21
73.19560249464608
 31
0.0
  0
POLYLINE
  5
C0F
330
6C
100
AcDbEntity
  8
Visible (ANSI)
100
AcDb2dPolyline
 66
     1
 10
0.0
 20
0.0
 30
0.0
 70
   128
  0
VERTEX
  5
C10
330
C0F
100
AcDbEntity
  8
Visible (ANSI)
100
AcDbVertex
100
AcDb2dVertex
 10
153.2487416638391
 20
83.57701084579858
 30
0.0
  0
VERTEX
  5
C11
330
C0F
100
AcDbEntity
  8
Visible (ANSI)
100
AcDbVertex
100
AcDb2dVertex
 10
153.250061672748
 20
83.58218150238498
 30
0.0
  0
VERTEX
  5
C13
330
C0F
100
AcDbEntity
  8
Visible (ANSI)
100
AcDbVertex
100
AcDb2dVertex
 10
153.251706252318
 20
83.5875154375763
 30
0.0
  0
VERTEX
  5
C14
330
C0F
100
AcDbEntity
  8
Visible (ANSI)
100
AcDbVertex
100
AcDb2dVertex
 10
153.2536733149111
 20
83.59298443029542
 30
0.0
  0
VERTEX
  5
C15
330
C0F
100
AcDbEntity
  8
Visible (ANSI)
100
AcDbVertex
100
AcDb2dVertex
 10
153.2559593982425
 20
83.59856453266827
 30
0.0
  0
VERTEX
  5
C16
330
C0F
100
AcDbEntity
  8
Visible (ANSI)
100
AcDbVertex
100
AcDb2dVertex
 10
153.2585596596767
 20
83.6042293333678
 30
0.0
  0
VERTEX
  5
C17
330
C0F
100
AcDbEntity
  8
Visible (ANSI)
100
AcDbVertex
100
AcDb2dVertex
 10
153.2614679332666
 20
83.60994994447535
 30
0.0
  0
VERTEX
  5
C18
330
C0F
100
AcDbEntity
  8
Visible (ANSI)
100
AcDbVertex
100
AcDb2dVertex
 10
153.2646767069379
 20
83.61569841743637
 30
0.0
  0
VERTEX
  5
C19
330
C0F
100
AcDbEntity
  8
Visible (ANSI)
100
AcDbVertex
100
AcDb2dVertex
 10
153.2681772023442
 20
83.6214494313303
 30
0.0
  0
VERTEX
  5
C1A
330
C0F
100
AcDbEntity
  8
Visible (ANSI)
100
AcDbVertex
100
AcDb2dVertex
 10
153.2719593976826
 20
83.6271752609077
 30
0.0
  0
VERTEX
  5
C1B
330
C0F
100
AcDbEntity
  8
Visible (ANSI)
100
AcDbVertex
100
AcDb2dVertex
 10
153.2760120333977
 20
83.63284748785297
 30
0.0
  0
VERTEX
  5
C1C
330
C0F
100
AcDbEntity
  8
Visible (ANSI)
100
AcDbVertex
100
AcDb2dVertex
 10
153.28032272626
 20
83.63843870876207
 30
0.0
  0
VERTEX
  5
C1D
330
C0F
100
AcDbEntity
  8
Visible (ANSI)
100
AcDbVertex
100
AcDb2dVertex
 10
153.2848779636621
 20
83.64392427268249
 30
0.0
  0
VERTEX
  5
C1E
330
C0F
100
AcDbEntity
  8
Visible (ANSI)
100
AcDbVertex
100
AcDb2dVertex
 10
153.2896632034375
 20
83.64927553296109
 30
0.0
  0
VERTEX
  5
C1F
330
C0F
100
AcDbEntity
  8
Visible (ANSI)
100
AcDbVertex
100
AcDb2dVertex
 10
153.2946629023803
 20
83.65446666930136
 30
0.0
  0
VERTEX
  5
C20
330
C0F
100
AcDbEntity
  8
Visible (ANSI)
100
AcDbVertex
100
AcDb2dVertex
 10
153.2998606132118
 20
83.65947469761755
 30
0.0
  0
VERTEX
  5
C21
330
C0F
100
AcDbEntity
  8
Visible (ANSI)
100
AcDbVertex
100
AcDb2dVertex
 10
153.3052390359157
 20
83.66427445449529
 30
0.0
  0
VERTEX
  5
C22
330
C0F
100
AcDbEntity
  8
Visible (ANSI)
100
AcDbVertex
100
AcDb2dVertex
 10
153.3107800861859
 20
83.66884034458562
 30
0.0
  0
VERTEX
  5
C23
330
C0F
100
AcDbEntity
  8
Visible (ANSI)
100
AcDbVertex
100
AcDb2dVertex
 10
153.3164649995225
 20
83.67315311421334
 30
0.0
  0
VERTEX
  5
C24
330
C0F
100
AcDbEntity
  8
Visible (ANSI)
100
AcDbVertex
100
AcDb2dVertex
 10
153.3222743868456
 20
83.67718978006115
 30
0.0
  0
VERTEX
  5
C25
330
C0F
100
AcDbEntity
  8
Visible (ANSI)
100
AcDbVertex
100
AcDb2dVertex
 10
153.3281883385916
 20
83.6809304224862
 30
0.0
  0
VERTEX
  5
C26
330
C0F
100
AcDbEntity
  8
Visible (ANSI)
100
AcDbVertex
100
AcDb2dVertex
 10
153.3341864647301
 20
83.68435657284903
 30
0.0
  0
VERTEX
  5
C27
330
C0F
100
AcDbEntity
  8
Visible (ANSI)
100
AcDbVertex
100
AcDb2dVertex
 10
153.3402480472549
 20
83.68745122249519
 30
0.0
  0
VERTEX
  5
C28
330
C0F
100
AcDbEntity
  8
Visible (ANSI)
100
AcDbVertex
100
AcDb2dVertex
 10
153.346352085637
 20
83.69019721321485
 30
0.0
  0
VERTEX
  5
C29
330
C0F
100
AcDbEntity
  8
Visible (ANSI)
100
AcDbVertex
100
AcDb2dVertex
 10
153.352477397178
 20
83.69257897016378
 30
0.0
  0
SEQEND
  5
C12
330
C0F
100
AcDbEntity
  8
Visible (ANSI)
  0
POLYLINE
  5
C2A
330
6C
100
AcDbEntity
  8
Visible (ANSI)
100
AcDb2dPolyline
 66
     1
 10
0.0
 20
0.0
 30
0.0
 70
   128
  0
VERTEX
  5
C2B
330
C2A
100
AcDbEntity
  8
Visible (ANSI)
100
AcDbVertex
100
AcDb2dVertex
 10
171.6181712013752
 20
73.17406546640507
 30
0.0
  0
VERTEX
  5
C2C
330
C2A
100
AcDbEntity
  8
Visible (ANSI)
100
AcDbVertex
100
AcDb2dVertex
 10
171.614359745595
 20
73.17035124854192
 30
0.0
  0
VERTEX
  5
C2E
330
C2A
100
AcDbEntity
  8
Visible (ANSI)
100
AcDbVertex
100
AcDb2dVertex
 10
171.6105710231795
 20
73.16627195603145
 30
0.0
  0
VERTEX
  5
C2F
330
C2A
100
AcDbEntity
  8
Visible (ANSI)
100
AcDbVertex
100
AcDb2dVertex
 10
171.6068232964155
 20
73.16184484547105
 30
0.0
  0
VERTEX
  5
C30
330
C2A
100
AcDbEntity
  8
Visible (ANSI)
100
AcDbVertex
100
AcDb2dVertex
 10
171.6031404862435
 20
73.1570853933174
 30
0.0
  0
VERTEX
  5
C31
330
C2A
100
AcDbEntity
  8
Visible (ANSI)
100
AcDbVertex
100
AcDb2dVertex
 10
171.5995418618719
 20
73.15201144253219
 30
0.0
  0
VERTEX
  5
C32
330
C2A
100
AcDbEntity
  8
Visible (ANSI)
100
AcDbVertex
100
AcDb2dVertex
 10
171.5960463303096
 20
73.14664231577012
 30
0.0
  0
VERTEX
  5
C33
330
C2A
100
AcDbEntity
  8
Visible (ANSI)
100
AcDbVertex
100
AcDb2dVertex
 10
171.5926767329395
 20
73.1409962443516
 30
0.0
  0
VERTEX
  5
C34
330
C2A
100
AcDbEntity
  8
Visible (ANSI)
100
AcDbVertex
100
AcDb2dVertex
 10
171.5894495384301
 20
73.13509789334702
 30
0.0
  0
VERTEX
  5
C35
330
C2A
100
AcDbEntity
  8
Visible (ANSI)
100
AcDbVertex
100
AcDb2dVertex
 10
171.5863864373967
 20
73.12896483139377
 30
0.0
  0
VERTEX
  5
C36
330
C2A
100
AcDbEntity
  8
Visible (ANSI)
100
AcDbVertex
100
AcDb2dVertex
 10
171.5835040425318
 20
73.12262350128676
 30
0.0
  0
VERTEX
  5
C37
330
C2A
100
AcDbEntity
  8
Visible (ANSI)
100
AcDbVertex
100
AcDb2dVertex
 10
171.5808181993498
 20
73.11609990403228
 30
0.0
  0
VERTEX
  5
C38
330
C2A
100
AcDbEntity
  8
Visible (ANSI)
100
AcDbVertex
100
AcDb2dVertex
 10
171.5783482812449
 20
73.10941533867818
 30
0.0
  0
VERTEX
  5
C39
330
C2A
100
AcDbEntity
  8
Visible (ANSI)
100
AcDbVertex
100
AcDb2dVertex
 10
171.5761083598093
 20
73.10259647296692
 30
0.0
  0
VERTEX
  5
C3A
330
C2A
100
AcDbEntity
  8
Visible (ANSI)
100
AcDbVertex
100
AcDb2dVertex
 10
171.5741115284117
 20
73.09567278785893
 30
0.0
  0
VERTEX
  5
C3B
330
C2A
100
AcDbEntity
  8
Visible (ANSI)
100
AcDbVertex
100
AcDb2dVertex
 10
171.5723742086632
 20
73.08866725912285
 30
0.0
  0
VERTEX
  5
C3C
330
C2A
100
AcDbEntity
  8
Visible (ANSI)
100
AcDbVertex
100
AcDb2dVertex
 10
171.5709058747895
 20
73.08160896534651
 30
0.0
  0
VERTEX
  5
C3D
330
C2A
100
AcDbEntity
  8
Visible (ANSI)
100
AcDbVertex
100
AcDb2dVertex
 10
171.5697206953497
 20
73.07452464966178
 30
0.0
  0
VERTEX
  5
C3E
330
C2A
100
AcDbEntity
  8
Visible (ANSI)
100
AcDbVertex
100
AcDb2dVertex
 10
171.568827237645
 20
73.06744287490994
 30
0.0
  0
VERTEX
  5
C3F
330
C2A
100
AcDbEntity
  8
Visible (ANSI)
100
AcDbVertex
100
AcDb2dVertex
 10
171.5682328255198
 20
73.06038979960347
 30
0.0
  0
VERTEX
  5
C40
330
C2A
100
AcDbEntity
  8
Visible (ANSI)
100
AcDbVertex
100
AcDb2dVertex
 10
171.5679478800522
 20
73.05339169711313
 30
0.0
  0
VERTEX
  5
C41
330
C2A
100
AcDbEntity
  8
Visible (ANSI)
100
AcDbVertex
100
AcDb2dVertex
 10
171.5679756581855
 20
73.04647913054137
 30
0.0
  0
VERTEX
  5
C42
330
C2A
100
AcDbEntity
  8
Visible (ANSI)
100
AcDbVertex
100
AcDb2dVertex
 10
171.568323911559
 20
73.03967683603142
 30
0.0
  0
VERTEX
  5
C43
330
C2A
100
AcDbEntity
  8
Visible (ANSI)
100
AcDbVertex
100
AcDb2dVertex
 10
171.5689946479555
 20
73.03300959904929
 30
0.0
  0
VERTEX
  5
C44
330
C2A
100
AcDbEntity
  8
Visible (ANSI)
100
AcDbVertex
100
AcDb2dVertex
 10
171.5699885005112
 20
73.026506478264
 30
0.0
  0
SEQEND
  5
C2D
330
C2A
100
AcDbEntity
  8
Visible (ANSI)
  0
LINE
  5
C45
330
6C
100
AcDbEntity
  8
Visible (ANSI)
100
AcDbLine
 10
171.6182571302107
 20
73.10385770530395
 30
0.0
 11
171.9675807703575
 21
73.30501981091336
 31
0.0
  0
LINE
  5
C46
330
6C
100
AcDbEntity
  8
Visible (ANSI)
100
AcDbLine
 10
171.9675807703575
 20
73.37527776695451
 30
0.0
 11
171.6181705835603
 21
73.1740658224438
 31
0.0
  0
LINE
  5
C47
330
6C
100
AcDbEntity
  8
Visible (ANSI)
100
AcDbLine
 10
171.6181705835603
 20
73.10668866847874
 30
0.0
 11
171.6181705835603
 21
73.1740658224438
 31
0.0
  0
LINE
  5
C48
330
6C
100
AcDbEntity
  8
Visible (ANSI)
100
AcDbLine
 10
171.9675807703575
 20
73.30501981091336
 30
0.0
 11
171.9675807703575
 21
73.37527776695451
 31
0.0
  0
POLYLINE
  5
C49
330
6C
100
AcDbEntity
  8
Visible (ANSI)
100
AcDb2dPolyline
 66
     1
 10
0.0
 20
0.0
 30
0.0
 70
   128
  0
VERTEX
  5
C4A
330
C49
100
AcDbEntity
  8
Visible (ANSI)
100
AcDbVertex
100
AcDb2dVertex
 10
171.6307554886068
 20
73.06149985939248
 30
0.0
  0
VERTEX
  5
C4B
330
C49
100
AcDbEntity
  8
Visible (ANSI)
100
AcDbVertex
100
AcDb2dVertex
 10
171.6297240936244
 20
73.06317698166012
 30
0.0
  0
VERTEX
  5
C4D
330
C49
100
AcDbEntity
  8
Visible (ANSI)
100
AcDbVertex
100
AcDb2dVertex
 10
171.6287456490542
 20
73.06488121298594
 30
0.0
  0
VERTEX
  5
C4E
330
C49
100
AcDbEntity
  8
Visible (ANSI)
100
AcDbVertex
100
AcDb2dVertex
 10
171.6278227823047
 20
73.0666107028875
 30
0.0
  0
VERTEX
  5
C4F
330
C49
100
AcDbEntity
  8
Visible (ANSI)
100
AcDbVertex
100
AcDb2dVertex
 10
171.6269520857491
 20
73.06835841120032
 30
0.0
  0
VERTEX
  5
C50
330
C49
100
AcDbEntity
  8
Visible (ANSI)
100
AcDbVertex
100
AcDb2dVertex
 10
171.6261358001959
 20
73.07012226481383
 30
0.0
  0
VERTEX
  5
C51
330
C49
100
AcDbEntity
  8
Visible (ANSI)
100
AcDbVertex
100
AcDb2dVertex
 10
171.6253701356294
 20
73.0718966916303
 30
0.0
  0
VERTEX
  5
C52
330
C49
100
AcDbEntity
  8
Visible (ANSI)
100
AcDbVertex
100
AcDb2dVertex
 10
171.6246569560312
 20
73.07367940153898
 30
0.0
  0
VERTEX
  5
C53
330
C49
100
AcDbEntity
  8
Visible (ANSI)
100
AcDbVertex
100
AcDb2dVertex
 10
171.6239921013656
 20
73.0754646093617
 30
0.0
  0
VERTEX
  5
C54
330
C49
100
AcDbEntity
  8
Visible (ANSI)
100
AcDbVertex
100
AcDb2dVertex
 10
171.6233770738158
 20
73.07724812837207
 30
0.0
  0
VERTEX
  5
C55
330
C49
100
AcDbEntity
  8
Visible (ANSI)
100
AcDbVertex
100
AcDb2dVertex
 10
171.6228073613066
 20
73.07902734720556
 30
0.0
  0
VERTEX
  5
C56
330
C49
100
AcDbEntity
  8
Visible (ANSI)
100
AcDbVertex
100
AcDb2dVertex
 10
171.6222841247659
 20
73.08079619435004
 30
0.0
  0
VERTEX
  5
C57
330
C49
100
AcDbEntity
  8
Visible (ANSI)
100
AcDbVertex
100
AcDb2dVertex
 10
171.6218025224492
 20
73.08255186859712
 30
0.0
  0
VERTEX
  5
C58
330
C49
100
AcDbEntity
  8
Visible (ANSI)
100
AcDbVertex
100
AcDb2dVertex
 10
171.6213633994294
 20
73.08428980481564
 30
0.0
  0
VERTEX
  5
C59
330
C49
100
AcDbEntity
  8
Visible (ANSI)
100
AcDbVertex
100
AcDb2dVertex
 10
171.6209616121886
 20
73.08600533974758
 30
0.0
  0
VERTEX
  5
C5A
330
C49
100
AcDbEntity
  8
Visible (ANSI)
100
AcDbVertex
100
AcDb2dVertex
 10
171.6205977189989
 20
73.08769543137412
 30
0.0
  0
VERTEX
  5
C5B
330
C49
100
AcDbEntity
  8
Visible (ANSI)
100
AcDbVertex
100
AcDb2dVertex
 10
171.6202663071882
 20
73.08935526144162
 30
0.0
  0
VERTEX
  5
C5C
330
C49
100
AcDbEntity
  8
Visible (ANSI)
100
AcDbVertex
100
AcDb2dVertex
 10
171.6199676815604
 20
73.0909816419686
 30
0.0
  0
VERTEX
  5
C5D
330
C49
100
AcDbEntity
  8
Visible (ANSI)
100
AcDbVertex
100
AcDb2dVertex
 10
171.6196961959388
 20
73.09257130850487
 30
0.0
  0
VERTEX
  5
C5E
330
C49
100
AcDbEntity
  8
Visible (ANSI)
100
AcDbVertex
100
AcDb2dVertex
 10
171.6194519401603
 20
73.09411926100796
 30
0.0
  0
VERTEX
  5
C5F
330
C49
100
AcDbEntity
  8
Visible (ANSI)
100
AcDbVertex
100
AcDb2dVertex
 10
171.6192290719759
 20
73.09562381038687
 30
0.0
  0
VERTEX
  5
C60
330
C49
100
AcDbEntity
  8
Visible (ANSI)
100
AcDbVertex
100
AcDb2dVertex
 10
171.6190260477599
 20
73.09708069770369
 30
0.0
  0
VERTEX
  5
C61
330
C49
100
AcDbEntity
  8
Visible (ANSI)
100
AcDbVertex
100
AcDb2dVertex
 10
171.6188412525873
 20
73.09848731123188
 30
0.0
  0
VERTEX
  5
C62
330
C49
100
AcDbEntity
  8
Visible (ANSI)
100
AcDbVertex
100
AcDb2dVertex
 10
171.6186686295988
 20
73.0998418382946
 30
0.0
  0
VERTEX
  5
C63
330
C49
100
AcDbEntity
  8
Visible (ANSI)
100
AcDbVertex
100
AcDb2dVertex
 10
171.6185079171267
 20
73.10113907643125
 30
0.0
  0
SEQEND
  5
C4C
330
C49
100
AcDbEntity
  8
Visible (ANSI)
  0
LINE
  5
C64
330
6C
100
AcDbEntity
  8
Visible (ANSI)
100
AcDbLine
 10
153.3524774030754
 20
83.69257896703043
 30
0.0
 11
153.7018875898726
 21
83.89379091154117
 31
0.0
  0
POLYLINE
  5
C65
330
6C
100
AcDbEntity
  8
Visible (ANSI)
100
AcDb2dPolyline
 66
     1
 10
0.0
 20
0.0
 30
0.0
 70
   128
  0
VERTEX
  5
C66
330
C65
100
AcDbEntity
  8
Visible (ANSI)
100
AcDbVertex
100
AcDb2dVertex
 10
153.2487416638391
 20
55.64947298046626
 30
0.0
  0
VERTEX
  5
C67
330
C65
100
AcDbEntity
  8
Visible (ANSI)
100
AcDbVertex
100
AcDb2dVertex
 10
153.2462970341024
 20
55.6515966577986
 30
0.0
  0
VERTEX
  5
C69
330
C65
100
AcDbEntity
  8
Visible (ANSI)
100
AcDbVertex
100
AcDb2dVertex
 10
153.2439363547901
 20
55.65376562424352
 30
0.0
  0
VERTEX
  5
C6A
330
C65
100
AcDbEntity
  8
Visible (ANSI)
100
AcDbVertex
100
AcDb2dVertex
 10
153.2416621641502
 20
55.65597826040576
 30
0.0
  0
VERTEX
  5
C6B
330
C65
100
AcDbEntity
  8
Visible (ANSI)
100
AcDbVertex
100
AcDb2dVertex
 10
153.2394768977605
 20
55.65823292068905
 30
0.0
  0
VERTEX
  5
C6C
330
C65
100
AcDbEntity
  8
Visible (ANSI)
100
AcDbVertex
100
AcDb2dVertex
 10
153.2373828828239
 20
55.66052790363215
 30
0.0
  0
VERTEX
  5
C6D
330
C65
100
AcDbEntity
  8
Visible (ANSI)
100
AcDbVertex
100
AcDb2dVertex
 10
153.2353823780962
 20
55.66286147492712
 30
0.0
  0
VERTEX
  5
C6E
330
C65
100
AcDbEntity
  8
Visible (ANSI)
100
AcDbVertex
100
AcDb2dVertex
 10
153.2334775111428
 20
55.66523185102134
 30
0.0
  0
VERTEX
  5
C6F
330
C65
100
AcDbEntity
  8
Visible (ANSI)
100
AcDbVertex
100
AcDb2dVertex
 10
153.2316703296743
 20
55.66763720230044
 30
0.0
  0
VERTEX
  5
C70
330
C65
100
AcDbEntity
  8
Visible (ANSI)
100
AcDbVertex
100
AcDb2dVertex
 10
153.2299627673223
 20
55.67007567294895
 30
0.0
  0
VERTEX
  5
C71
330
C65
100
AcDbEntity
  8
Visible (ANSI)
100
AcDbVertex
100
AcDb2dVertex
 10
153.2283566493443
 20
55.67254537099457
 30
0.0
  0
VERTEX
  5
C72
330
C65
100
AcDbEntity
  8
Visible (ANSI)
100
AcDbVertex
100
AcDb2dVertex
 10
153.2268536983266
 20
55.6750443650489
 30
0.0
  0
VERTEX
  5
C73
330
C65
100
AcDbEntity
  8
Visible (ANSI)
100
AcDbVertex
100
AcDb2dVertex
 10
153.2254555313331
 20
55.6775707056833
 30
0.0
  0
VERTEX
  5
C74
330
C65
100
AcDbEntity
  8
Visible (ANSI)
100
AcDbVertex
100
AcDb2dVertex
 10
153.2241636313853
 20
55.6801223891956
 30
0.0
  0
VERTEX
  5
C75
330
C65
100
AcDbEntity
  8
Visible (ANSI)
100
AcDbVertex
100
AcDb2dVertex
 10
153.2229793902418
 20
55.68269740539072
 30
0.0
  0
VERTEX
  5
C76
330
C65
100
AcDbEntity
  8
Visible (ANSI)
100
AcDbVertex
100
AcDb2dVertex
 10
153.2219040741748
 20
55.68529371120132
 30
0.0
  0
VERTEX
  5
C77
330
C65
100
AcDbEntity
  8
Visible (ANSI)
100
AcDbVertex
100
AcDb2dVertex
 10
153.220938835378
 20
55.68790925042137
 30
0.0
  0
VERTEX
  5
C78
330
C65
100
AcDbEntity
  8
Visible (ANSI)
100
AcDbVertex
100
AcDb2dVertex
 10
153.2200847119663
 20
55.69054194059294
 30
0.0
  0
VERTEX
  5
C79
330
C65
100
AcDbEntity
  8
Visible (ANSI)
100
AcDbVertex
100
AcDb2dVertex
 10
153.2193426080125
 20
55.69318966469262
 30
0.0
  0
VERTEX
  5
C7A
330
C65
100
AcDbEntity
  8
Visible (ANSI)
100
AcDbVertex
100
AcDb2dVertex
 10
153.2187133220666
 20
55.6958503107004
 30
0.0
  0
VERTEX
  5
C7B
330
C65
100
AcDbEntity
  8
Visible (ANSI)
100
AcDbVertex
100
AcDb2dVertex
 10
153.2181975357481
 20
55.69852174850508
 30
0.0
  0
VERTEX
  5
C7C
330
C65
100
AcDbEntity
  8
Visible (ANSI)
100
AcDbVertex
100
AcDb2dVertex
 10
153.2177957909303
 20
55.70120183321446
 30
0.0
  0
VERTEX
  5
C7D
330
C65
100
AcDbEntity
  8
Visible (ANSI)
100
AcDbVertex
100
AcDb2dVertex
 10
153.2175085239637
 20
55.70388841503474
 30
0.0
  0
VERTEX
  5
C7E
330
C65
100
AcDbEntity
  8
Visible (ANSI)
100
AcDbVertex
100
AcDb2dVertex
 10
153.2173360400084
 20
55.70657932438777
 30
0.0
  0
VERTEX
  5
C7F
330
C65
100
AcDbEntity
  8
Visible (ANSI)
100
AcDbVertex
100
AcDb2dVertex
 10
153.2172785258683
 20
55.70927240080456
 30
0.0
  0
SEQEND
  5
C68
330
C65
100
AcDbEntity
  8
Visible (ANSI)
  0
POLYLINE
  5
C80
330
6C
100
AcDbEntity
  8
Visible (ANSI)
100
AcDb2dPolyline
 66
     1
 10
0.0
 20
0.0
 30
0.0
 70
   128
  0
VERTEX
  5
C81
330
C80
100
AcDbEntity
  8
Visible (ANSI)
100
AcDbVertex
100
AcDb2dVertex
 10
153.248741663839
 20
83.6323783419689
 30
0.0
  0
VERTEX
  5
C82
330
C80
100
AcDbEntity
  8
Visible (ANSI)
100
AcDbVertex
100
AcDb2dVertex
 10
153.2439363585667
 20
83.63076263987567
 30
0.0
  0
VERTEX
  5
C84
330
C80
100
AcDbEntity
  8
Visible (ANSI)
100
AcDbVertex
100
AcDb2dVertex
 10
153.239476897003
 20
83.62897059216136
 30
0.0
  0
VERTEX
  5
C85
330
C80
100
AcDbEntity
  8
Visible (ANSI)
100
AcDbVertex
100
AcDb2dVertex
 10
153.2353823756007
 20
83.62701897505901
 30
0.0
  0
VERTEX
  5
C86
330
C80
100
AcDbEntity
  8
Visible (ANSI)
100
AcDbVertex
100
AcDb2dVertex
 10
153.2316703275353
 20
83.62492019041541
 30
0.0
  0
VERTEX
  5
C87
330
C80
100
AcDbEntity
  8
Visible (ANSI)
100
AcDbVertex
100
AcDb2dVertex
 10
153.2283566489878
 20
83.62268727051024
 30
0.0
  0
VERTEX
  5
C88
330
C80
100
AcDbEntity
  8
Visible (ANSI)
100
AcDbVertex
100
AcDb2dVertex
 10
153.2254555288377
 20
83.62033887844859
 30
0.0
  0
VERTEX
  5
C89
330
C80
100
AcDbEntity
  8
Visible (ANSI)
100
AcDbVertex
100
AcDb2dVertex
 10
153.2229793902418
 20
83.61788742711951
 30
0.0
  0
VERTEX
  5
C8A
330
C80
100
AcDbEntity
  8
Visible (ANSI)
100
AcDbVertex
100
AcDb2dVertex
 10
153.220938837517
 20
83.61535251729998
 30
0.0
  0
VERTEX
  5
C8B
330
C80
100
AcDbEntity
  8
Visible (ANSI)
100
AcDbVertex
100
AcDb2dVertex
 10
153.2193426080125
 20
83.61274904729816
 30
0.0
  0
VERTEX
  5
C8C
330
C80
100
AcDbEntity
  8
Visible (ANSI)
100
AcDbVertex
100
AcDb2dVertex
 10
153.2181975328962
 20
83.61009221001642
 30
0.0
  0
VERTEX
  5
C8D
330
C80
100
AcDbEntity
  8
Visible (ANSI)
100
AcDbVertex
100
AcDb2dVertex
 10
153.2175085225377
 20
83.60740248570326
 30
0.0
  0
VERTEX
  5
C8E
330
C80
100
AcDbEntity
  8
Visible (ANSI)
100
AcDbVertex
100
AcDb2dVertex
 10
153.2172785258683
 20
83.60469374892769
 30
0.0
  0
VERTEX
  5
C8F
330
C80
100
AcDbEntity
  8
Visible (ANSI)
100
AcDbVertex
100
AcDb2dVertex
 10
153.2175085239637
 20
83.60198669960075
 30
0.0
  0
VERTEX
  5
C90
330
C80
100
AcDbEntity
  8
Visible (ANSI)
100
AcDbVertex
100
AcDb2dVertex
 10
153.2181975357481
 20
83.59929697610875
 30
0.0
  0
VERTEX
  5
C91
330
C80
100
AcDbEntity
  8
Visible (ANSI)
100
AcDbVertex
100
AcDb2dVertex
 10
153.2193426080125
 20
83.59664014046936
 30
0.0
  0
VERTEX
  5
C92
330
C80
100
AcDbEntity
  8
Visible (ANSI)
100
AcDbVertex
100
AcDb2dVertex
 10
153.220938835378
 20
83.59403666923578
 30
0.0
  0
VERTEX
  5
C93
330
C80
100
AcDbEntity
  8
Visible (ANSI)
100
AcDbVertex
100
AcDb2dVertex
 10
153.2229793902418
 20
83.59150176064799
 30
0.0
  0
VERTEX
  5
C94
330
C80
100
AcDbEntity
  8
Visible (ANSI)
100
AcDbVertex
100
AcDb2dVertex
 10
153.2254555313331
 20
83.58905030911364
 30
0.0
  0
VERTEX
  5
C95
330
C80
100
AcDbEntity
  8
Visible (ANSI)
100
AcDbVertex
100
AcDb2dVertex
 10
153.2283566493443
 20
83.58670191746256
 30
0.0
  0
VERTEX
  5
C96
330
C80
100
AcDbEntity
  8
Visible (ANSI)
100
AcDbVertex
100
AcDb2dVertex
 10
153.2316703296743
 20
83.58446899694149
 30
0.0
  0
VERTEX
  5
C97
330
C80
100
AcDbEntity
  8
Visible (ANSI)
100
AcDbVertex
100
AcDb2dVertex
 10
153.2353823780962
 20
83.58237021260585
 30
0.0
  0
VERTEX
  5
C98
330
C80
100
AcDbEntity
  8
Visible (ANSI)
100
AcDbVertex
100
AcDb2dVertex
 10
153.2394768977605
 20
83.58041859481065
 30
0.0
  0
VERTEX
  5
C99
330
C80
100
AcDbEntity
  8
Visible (ANSI)
100
AcDbVertex
100
AcDb2dVertex
 10
153.2439363547901
 20
83.57862654653819
 30
0.0
  0
VERTEX
  5
C9A
330
C80
100
AcDbEntity
  8
Visible (ANSI)
100
AcDbVertex
100
AcDb2dVertex
 10
153.2487416638391
 20
83.57701084579858
 30
0.0
  0
SEQEND
  5
C83
330
C80
100
AcDbEntity
  8
Visible (ANSI)
  0
LINE
  5
C9B
330
6C
100
AcDbEntity
  8
Visible (ANSI)
100
AcDbLine
 10
153.5434566445003
 20
55.86880012950655
 30
0.0
 11
153.6589188398726
 21
55.93529038573319
 31
0.0
  0
LINE
  5
C9C
330
6C
100
AcDbEntity
  8
Visible (ANSI)
100
AcDbLine
 10
153.3076299702292
 20
83.6662900931131
 30
0.0
 11
153.2487416640672
 21
83.6323785729585
 31
0.0
  0
LINE
  5
C9D
330
6C
100
AcDbEntity
  8
Visible (ANSI)
100
AcDbLine
 10
153.2680547967266
 20
83.6212568795339
 30
0.0
 11
153.2487416640672
 21
83.6323785729585
 31
0.0
  0
LINE
  5
C9E
330
6C
100
AcDbEntity
  8
Visible (ANSI)
100
AcDbLine
 10
171.6589487467169
 20
73.03105257771915
 30
0.0
 11
171.6636989572396
 21
73.02790971142262
 31
0.0
  0
LINE
  5
C9F
330
6C
100
AcDbEntity
  8
Visible (ANSI)
100
AcDbLine
 10
171.6181712013752
 20
73.10668830644186
 30
0.0
 11
171.6185079171267
 21
73.10113907643125
 31
0.0
  0
LINE
  5
CA0
330
6C
100
AcDbEntity
  8
Visible Narrow (ANSI)
100
AcDbLine
 10
153.2487416640672
 20
55.64947298060274
 30
0.0
 11
171.569988850048
 21
45.09896841191469
 31
0.0
  0
LINE
  5
CA1
330
6C
100
AcDbEntity
  8
Visible Narrow (ANSI)
100
AcDbLine
 10
171.7219063225686
 20
72.99439055013539
 30
0.0
 11
171.7219063225686
 21
45.13108380005341
 31
0.0
  0
LINE
  5
CA2
330
6C
100
AcDbEntity
  8
Visible Narrow (ANSI)
100
AcDbLine
 10
171.569988850048
 20
45.09896841191469
 30
0.0
 11
171.569988850048
 21
73.02650593827411
 31
0.0
  0
LINE
  5
CA3
330
6C
100
AcDbEntity
  8
Visible Narrow (ANSI)
100
AcDbLine
 10
153.3524774030754
 20
83.69257896703043
 30
0.0
 11
171.6181705835603
 21
73.1740658224438
 31
0.0
  0
LINE
  5
CA4
330
6C
100
AcDbEntity
  8
Visible Narrow (ANSI)
100
AcDbLine
 10
171.569988850048
 20
73.02650593827411
 30
0.0
 11
153.2487416640672
 21
83.57701050696213
 31
0.0
  0
LINE
  5
CA5
330
6C
100
AcDbEntity
  8
Visible Narrow (ANSI)
100
AcDbLine
 10
153.2487416640672
 20
83.57701050696213
 30
0.0
 11
153.2487416640672
 21
55.64947298060274
 31
0.0
  0
LINE
  5
CA6
330
6C
100
AcDbEntity
  8
Visible (ANSI)
100
AcDbLine
 10
153.2850161203663
 20
55.59210714277662
 30
0.0
 11
171.5784179145619
 21
45.05763766876654
 31
0.0
  0
LINE
  5
CA7
330
6C
100
AcDbEntity
  8
Visible (ANSI)
100
AcDbLine
 10
153.2172785253275
 20
83.60469453996033
 30
0.0
 11
153.2172785253275
 21
55.70927240173964
 31
0.0
  0
LINE
  5
CA8
330
6C
100
AcDbEntity
  8
Visible (ANSI)
100
AcDbLine
 10
171.3439942089678
 20
45.70145292448667
 30
0.0
 11
171.1445056298428
 21
45.81633075698875
 31
0.0
  0
LINE
  5
CA9
330
6C
100
AcDbEntity
  8
Visible (ANSI)
100
AcDbLine
 10
162.5327808027748
 20
50.77549326432006
 30
0.0
 11
162.3332922236497
 21
50.89037109682214
 31
0.0
  0
LINE
  5
CAA
330
6C
100
AcDbEntity
  8
Visible (ANSI)
100
AcDbLine
 10
153.7215673965817
 20
55.84953360415344
 30
0.0
 11
153.7018875898726
 21
55.86086645111997
 31
0.0
  0
LINE
  5
CAB
330
6C
100
AcDbEntity
  8
Visible (ANSI)
100
AcDbLine
 10
172.0713165093657
 20
73.19560249464608
 30
0.0
 11
172.0713165093657
 21
45.33229574456412
 31
0.0
  0
LINE
  5
CAC
330
6C
100
AcDbEntity
  8
Visible (ANSI)
100
AcDbLine
 10
153.7018875898726
 20
83.89379091154117
 30
0.0
 11
171.9675807703575
 21
73.37527776695451
 31
0.0
  0
LINE
  5
CAD
330
6C
100
AcDbEntity
  8
Visible (ANSI)
100
AcDbLine
 10
153.6589188398726
 20
55.93529038573319
 30
0.0
 11
153.6589188398726
 21
55.959017181836
 31
0.0
  0
LINE
  5
CAE
330
6C
100
AcDbEntity
  8
Visible (ANSI)
100
AcDbLine
 10
153.6589188398726
 20
63.66816578062877
 30
0.0
 11
153.6589188398726
 21
63.89816621448659
 31
0.0
  0
LINE
  5
CAF
330
6C
100
AcDbEntity
  8
Visible (ANSI)
100
AcDbLine
 10
153.6589188398726
 20
69.28880226392123
 30
0.0
 11
153.6589188398726
 21
69.51880269777906
 31
0.0
  0
LINE
  5
CB0
330
6C
100
AcDbEntity
  8
Visible (ANSI)
100
AcDbLine
 10
153.6589188398726
 20
82.84858777986428
 30
0.0
 11
153.6589188398726
 21
83.07858821372212
 31
0.0
  0
DIMENSION
  5
CB1
330
6C
100
AcDbEntity
  8
Dimension (ANSI)
100
AcDbDimension
280
     0
  2
*D13
 10
80.26140064163076
 20
59.99348875621613
 30
0.0
 11
88.4449994953333
 21
68.31055657246982
 31
0.0
 70
   163
  1
<>{\P(10PL.)}
 42
0.5629999999999999
 73
     0
 74
     0
 75
     0
  3
Default (ANSI)
100
AcDbDiametricDimension
 15
80.48201165623082
 25
60.51146537753919
 35
0.0
 40
0.0
1001
ACAD_DSTYLE_DIMRADIAL_EXTENSION
1070
   387
1070
     1
1070
   388
1040
0.0
1070
   390
1040
0.0
1001
ACAD
1000
DSTYLE
1002
{
1070
   145
1040
-0.25
1070
   144
1040
0.9999999999998189
1070
   271
1070
     3
1070
   272
1070
     2
1070
    48
1040
0.0
1070
    47
1040
0.0
1002
}
  0
DIMENSION
  5
D6C
330
6C
100
AcDbEntity
  8
Dimension (ANSI)
100
AcDbDimension
280
     0
  2
*D14
 10
85.41107622767096
 20
60.25247706687758
 30
0.0
 11
85.41107622767095
 21
55.25247706687757
 31
0.0
 70
   160
  1
<>
 42
10.0
 73
     0
 74
     0
 75
     0
  3
Default (ANSI)
100
AcDbAlignedDimension
 13
80.37170614893078
 23
50.25247706687758
 33
0.0
 14
80.37170614893078
 24
60.25247706687758
 34
0.0
 50
90.0
100
AcDbRotatedDimension
1001
ACAD
1000
DSTYLE
1002
{
1070
   289
1070
     1
1070
   271
1070
     2
1070
   272
1070
     3
1070
    48
1040
0.0
1070
    47
1040
0.0
1002
}
  0
MTEXT
  5
E56
102
{ACAD_REACTORS
330
E57
102
}
330
6C
100
AcDbEntity
  8
Symbol (ANSI)
100
AcDbMText
 10
119.450204601205
 20
48.02579528525679
 30
0.0
 40
1.320000016313838
 41
5.398735896808894
 46
0.0
 71
     3
 72
     1
  1
{10 GA.\PC.R.S}
  7
Note Text (ANSI)
 73
     2
 44
0.9878841638565063
  0
LEADER
  5
E57
330
6C
100
AcDbEntity
  8
Symbol (ANSI)
100
AcDbLeader
  3
Default (ANSI)$7
 73
     0
 40
3.933345209096401
 41
5.030006745583289
 76
     3
 10
125.3333575491114
 20
42.69971455359372
 30
0.0
 10
121.0982821236681
 20
47.3642675632634
 30
0.0
 10
119.7966612941184
 20
47.36579527709987
 30
0.0
340
E56
210
0.0
220
0.0
230
-1.0
213
0.0
223
-0.6600000081569191
233
0.0
1001
ACAD
1000
DSTYLE
1002
{
1070
    77
1070
     0
1002
}
  0
LINE
  5
E58
330
6C
100
AcDbEntity
  8
Center Mark (ANSI)
  6
Continuous
100
AcDbLine
 10
45.77820614893078
 20
84.37747706687757
 30
0.0
 11
42.46520614893078
 21
84.37747706687757
 31
0.0
  0
LINE
  5
E59
330
6C
100
AcDbEntity
  8
Center Mark (ANSI)
  6
Continuous
100
AcDbLine
 10
44.12170614893078
 20
86.03397706687756
 30
0.0
 11
44.12170614893078
 21
82.72097706687757
 31
0.0
  0
LINE
  5
E5A
330
6C
100
AcDbEntity
  8
Center Mark (ANSI)
  6
Continuous
100
AcDbLine
 10
42.46520614893078
 20
36.12747706687758
 30
0.0
 11
45.77820614893078
 21
36.12747706687758
 31
0.0
  0
LINE
  5
E5B
330
6C
100
AcDbEntity
  8
Center Mark (ANSI)
  6
Continuous
100
AcDbLine
 10
42.46520614893078
 20
84.37747706687757
 30
0.0
 11
45.77820614893078
 21
84.37747706687757
 31
0.0
  0
LINE
  5
E5C
330
6C
100
AcDbEntity
  8
Centerline (ANSI)
  6
Continuous
100
AcDbLine
 10
44.12170614893078
 20
34.47097706687758
 30
0.0
 11
44.12170614893078
 21
86.03397706687756
 31
0.0
  0
LINE
  5
E5D
330
6C
100
AcDbEntity
  8
Center Mark (ANSI)
  6
Continuous
100
AcDbLine
 10
63.90320614893078
 20
84.37747706687757
 30
0.0
 11
60.59020614893078
 21
84.37747706687757
 31
0.0
  0
LINE
  5
E5E
330
6C
100
AcDbEntity
  8
Center Mark (ANSI)
  6
Continuous
100
AcDbLine
 10
63.90320614893078
 20
36.12747706687758
 30
0.0
 11
60.59020614893078
 21
36.12747706687758
 31
0.0
  0
LINE
  5
E5F
330
6C
100
AcDbEntity
  8
Centerline (ANSI)
  6
Continuous
100
AcDbLine
 10
62.24670614893078
 20
86.03397706687756
 30
0.0
 11
62.24670614893078
 21
34.47097706687758
 31
0.0
  0
LINE
  5
E60
330
6C
100
AcDbEntity
  8
Center Mark (ANSI)
  6
Continuous
100
AcDbLine
 10
78.71520614893078
 20
36.12747706687758
 30
0.0
 11
82.02820614893077
 21
36.12747706687758
 31
0.0
  0
LINE
  5
E61
330
6C
100
AcDbEntity
  8
Center Mark (ANSI)
  6
Continuous
100
AcDbLine
 10
78.71520614893078
 20
84.37747706687757
 30
0.0
 11
82.02820614893077
 21
84.37747706687757
 31
0.0
  0
LINE
  5
E62
330
6C
100
AcDbEntity
  8
Centerline (ANSI)
  6
Continuous
100
AcDbLine
 10
80.37170614893078
 20
34.47097706687758
 30
0.0
 11
80.37170614893078
 21
86.03397706687756
 31
0.0
  0
LINE
  5
E63
330
6C
100
AcDbEntity
  8
Center Mark (ANSI)
  6
Continuous
100
AcDbLine
 10
44.12170614893078
 20
61.90897706687757
 30
0.0
 11
44.12170614893078
 21
58.59597706687758
 31
0.0
  0
LINE
  5
E64
330
6C
100
AcDbEntity
  8
Center Mark (ANSI)
  6
Continuous
100
AcDbLine
 10
80.37170614893078
 20
61.90897706687758
 30
0.0
 11
80.37170614893078
 21
58.59597706687758
 31
0.0
  0
LINE
  5
E65
330
6C
100
AcDbEntity
  8
Centerline (ANSI)
  6
Continuous
100
AcDbLine
 10
42.46520614893078
 20
60.25247706687757
 30
0.0
 11
82.02820614893077
 21
60.25247706687758
 31
0.0
  0
LINE
  5
E66
330
6C
100
AcDbEntity
  8
Center Mark (ANSI)
  6
Continuous
100
AcDbLine
 10
44.12170614893078
 20
51.90897706687758
 30
0.0
 11
44.12170614893078
 21
48.59597706687758
 31
0.0
  0
LINE
  5
E67
330
6C
100
AcDbEntity
  8
Center Mark (ANSI)
  6
Continuous
100
AcDbLine
 10
80.37170614893078
 20
51.90897706687758
 30
0.0
 11
80.37170614893078
 21
48.59597706687758
 31
0.0
  0
LINE
  5
E68
330
6C
100
AcDbEntity
  8
Centerline (ANSI)
  6
Continuous
100
AcDbLine
 10
42.46520614893078
 20
50.25247706687758
 30
0.0
 11
82.02820614893077
 21
50.25247706687758
 31
0.0
  0
LINE
  5
E69
330
6C
100
AcDbEntity
  8
Center Mark (ANSI)
  6
Continuous
100
AcDbLine
 10
44.12170614893078
 20
37.78397706687758
 30
0.0
 11
44.12170614893078
 21
34.47097706687758
 31
0.0
  0
LINE
  5
E6A
330
6C
100
AcDbEntity
  8
Center Mark (ANSI)
  6
Continuous
100
AcDbLine
 10
80.37170614893078
 20
37.78397706687758
 30
0.0
 11
80.37170614893078
 21
34.47097706687758
 31
0.0
  0
LINE
  5
E6B
330
6C
100
AcDbEntity
  8
Centerline (ANSI)
  6
Continuous
100
AcDbLine
 10
42.46520614893078
 20
36.12747706687758
 30
0.0
 11
82.02820614893077
 21
36.12747706687758
 31
0.0
  0
LINE
  5
E6C
330
6C
100
AcDbEntity
  8
Center Mark (ANSI)
  6
Continuous
100
AcDbLine
 10
44.12170614893078
 20
86.03397706687756
 30
0.0
 11
44.12170614893078
 21
82.72097706687757
 31
0.0
  0
LINE
  5
E6D
330
6C
100
AcDbEntity
  8
Center Mark (ANSI)
  6
Continuous
100
AcDbLine
 10
80.37170614893078
 20
86.03397706687756
 30
0.0
 11
80.37170614893078
 21
82.72097706687757
 31
0.0
  0
LINE
  5
E6E
330
6C
100
AcDbEntity
  8
Centerline (ANSI)
  6
Continuous
100
AcDbLine
 10
42.46520614893078
 20
84.37747706687757
 30
0.0
 11
82.02820614893077
 21
84.37747706687757
 31
0.0
  0
MTEXT
  5
E6F
102
{ACAD_XDICTIONARY
360
E76
102
}
330
6C
100
AcDbEntity
  8
Symbol (ANSI)
100
AcDbMText
 10
102.9178285272505
 20
10.58662830388208
 30
0.0
 40
1.100000035105727
 41
81.2172581830363
 46
0.0
 71
     4
 72
     1
  3
{\fRomanS|b0|i0|c0|p2;\H2x;PART#: NPDD5442\P(DATA SUBJECT TO CHANGE WITHOUT NOTICE)\H1.6157x; \H0.61894x;\P \H1.352x; \H0.73963x;\P\H0.6x;THIS DRAWING IS PROPERTY OF HUBBELL INC. WIEGMANN\H1.5633x; \H0.63966x;\PALL INFORMATION IS PROPRIETARY AND NOT 
  1
TO BE DUPLICATED\H1.234x; \H0.81039x;\P\H1.2571x; }
  7
Note Text (ANSI)
 73
     1
 44
0.8026435375213623
  0
ENDSEC
  0
SECTION
  2
OBJECTS
  0
DICTIONARY
  5
C
330
0
100
AcDbDictionary
281
     1
  3
ACAD_CIP_PREVIOUS_PRODUCT_INFO
350
E71
  3
ACAD_COLOR
350
63
  3
ACAD_GROUP
350
D
  3
ACAD_LAYOUT
350
62
  3
ACAD_MATERIAL
350
10
  3
ACAD_MLEADERSTYLE
350
66
  3
ACAD_MLINESTYLE
350
5F
  3
ACAD_PLOTSETTINGS
350
61
  3
ACAD_PLOTSTYLENAME
350
E
  3
ACAD_SCALELIST
350
42
  3
ACAD_TABLESTYLE
350
64
  3
ACAD_VISUALSTYLE
350
29
  3
ACDB_RECOMPOSE_DATA
350
E78
  3
AcDbVariableDictionary
350
76
  0
DICTIONARY
  5
E76
330
E6F
100
AcDbDictionary
280
     1
281
     1
  3
ACAD_MTEXT_2008_RT
360
E77
  0
XRECORD
  5
E71
102
{ACAD_REACTORS
330
C
102
}
330
C
100
AcDbXrecord
280
     1
300
INVNTOR
300
2012
300
PDSP_F_S
  0
DICTIONARY
  5
63
102
{ACAD_REACTORS
330
C
102
}
330
C
100
AcDbDictionary
281
     1
  0
DICTIONARY
  5
D
102
{ACAD_REACTORS
330
C
102
}
330
C
100
AcDbDictionary
281
     1
  0
DICTIONARY
  5
62
102
{ACAD_REACTORS
330
C
102
}
330
C
100
AcDbDictionary
281
     1
  3
Layout1
350
6B
  3
Layout2
350
73
  3
Model
350
6F
  0
DICTIONARY
  5
10
102
{ACAD_REACTORS
330
C
102
}
330
C
100
AcDbDictionary
281
     1
  3
ByBlock
350
19
  3
ByLayer
350
11
  3
Global
350
21
  0
DICTIONARY
  5
66
102
{ACAD_REACTORS
330
C
102
}
330
C
100
AcDbDictionary
281
     1
  3
Standard
350
67
  0
DICTIONARY
  5
5F
102
{ACAD_REACTORS
330
C
102
}
330
C
100
AcDbDictionary
281
     1
  3
Standard
350
60
  0
DICTIONARY
  5
61
102
{ACAD_REACTORS
330
C
102
}
330
C
100
AcDbDictionary
281
     1
  0
ACDBDICTIONARYWDFLT
  5
E
102
{ACAD_REACTORS
330
C
102
}
330
C
100
AcDbDictionary
281
     1
  3
Normal
350
F
100
AcDbDictionaryWithDefault
340
F
  0
DICTIONARY
  5
42
102
{ACAD_REACTORS
330
C
102
}
330
C
100
AcDbDictionary
281
     1
  3
A0
350
43
  3
A1
350
44
  3
A2
350
45
  3
A3
350
46
  3
A4
350
47
  3
A5
350
48
  3
A6
350
49
  3
A7
350
4A
  3
A8
350
4B
  3
A9
350
4C
  3
B0
350
4D
  3
B1
350
4E
  3
B2
350
4F
  3
B3
350
50
  3
B4
350
51
  3
B5
350
52
  3
B6
350
53
  0
DICTIONARY
  5
64
102
{ACAD_REACTORS
330
C
102
}
330
C
100
AcDbDictionary
281
     1
  3
Standard
350
65
  0
DICTIONARY
  5
29
102
{ACAD_REACTORS
330
C
102
}
330
C
100
AcDbDictionary
281
     1
  3
2dWireframe
350
2F
  3
Basic
350
2E
  3
Brighten
350
35
  3
ColorChange
350
39
  3
Conceptual
350
32
  3
Dim
350
34
  3
EdgeColorOff
350
41
  3
Facepattern
350
38
  3
Flat
350
2A
  3
FlatWithEdges
350
2B
  3
Gouraud
350
2C
  3
GouraudWithEdges
350
2D
  3
Hidden
350
31
  3
JitterOff
350
3F
  3
Linepattern
350
37
  3
OverhangOff
350
40
  3
Realistic
350
33
  3
Shaded
350
3E
  3
Shaded with edges
350
3D
  3
Shades of Gray
350
3A
  3
Sketchy
350
3B
  3
Thicken
350
36
  3
Wireframe
350
30
  3
X-Ray
350
3C
  0
XRECORD
  5
E78
102
{ACAD_REACTORS
330
C
102
}
330
C
100
AcDbXrecord
280
     1
 90
        1
330
65
330
E6F
  0
DICTIONARY
  5
76
102
{ACAD_REACTORS
330
C
102
}
330
C
100
AcDbDictionary
281
     1
  3
CANNOSCALE
350
79
  3
CMLEADERSTYLE
350
78
  3
CTABLESTYLE
350
77
  0
XRECORD
  5
E77
102
{ACAD_REACTORS
330
E76
102
}
330
E76
100
AcDbXrecord
280
     1
 40
3068506.0
  1
\pxsm0.94;{\fRomanS|b0|i0;\H2.2000;PART#: NPDD5442\P(DATA SUBJECT TO CHANGE WITHOUT NOTICE)\P \P\fRomanS|b0|i0;\H1.3200;THIS DRAWING IS PROPERTY OF HUBBELL INC. WIEGMANN\PALL INFORMATION IS PROPRIETARY AND NOT TO BE DUPLICATED\P}
  0
LAYOUT
  5
6B
102
{ACAD_REACTORS
330
62
102
}
330
62
100
AcDbPlotSettings
  1

  2

  4

  6

 40
0.0
 41
0.0
 42
0.0
 43
0.0
 44
0.0
 45
0.0
 46
0.0
 47
0.0
 48
0.0
 49
0.0
140
0.0
141
0.0
142
1.0
143
1.0
 70
   688
 72
     0
 73
     0
 74
     5
  7

 75
    16
147
1.0
 76
     0
 77
     2
 78
   300
148
0.0
149
0.0
100
AcDbLayout
  1
Layout1
 70
     1
 71
     1
 10
0.0
 20
0.0
 11
12.0
 21
9.0
 12
0.0
 22
0.0
 32
0.0
 14
0.0
 24
0.0
 34
0.0
 15
0.0
 25
0.0
 35
0.0
146
0.0
 13
0.0
 23
0.0
 33
0.0
 16
1.0
 26
0.0
 36
0.0
 17
0.0
 27
1.0
 37
0.0
 76
     0
330
68
  0
LAYOUT
  5
73
102
{ACAD_REACTORS
330
62
102
}
330
62
100
AcDbPlotSettings
  1

  2

  4

  6

 40
0.0
 41
0.0
 42
0.0
 43
0.0
 44
0.0
 45
0.0
 46
0.0
 47
0.0
 48
0.0
 49
0.0
140
0.0
141
0.0
142
1.0
143
1.0
 70
   688
 72
     0
 73
     0
 74
     5
  7

 75
    16
147
1.0
 76
     0
 77
     2
 78
   300
148
0.0
149
0.0
100
AcDbLayout
  1
Layout2
 70
     1
 71
     2
 10
0.0
 20
0.0
 11
12.0
 21
9.0
 12
0.0
 22
0.0
 32
0.0
 14
0.0
 24
0.0
 34
0.0
 15
0.0
 25
0.0
 35
0.0
146
0.0
 13
0.0
 23
0.0
 33
0.0
 16
1.0
 26
0.0
 36
0.0
 17
0.0
 27
1.0
 37
0.0
 76
     0
330
70
  0
LAYOUT
  5
6F
102
{ACAD_REACTORS
330
62
102
}
330
62
100
AcDbPlotSettings
  1

  2

  4

  6

 40
0.0
 41
0.0
 42
0.0
 43
0.0
 44
0.0
 45
0.0
 46
0.0
 47
0.0
 48
0.0
 49
0.0
140
0.0
141
0.0
142
1.0
143
1.0
 70
  1712
 72
     0
 73
     0
 74
     0
  7

 75
     0
147
1.0
 76
     0
 77
     2
 78
   300
148
0.0
149
0.0
100
AcDbLayout
  1
Model
 70
     1
 71
     0
 10
0.0
 20
0.0
 11
12.0
 21
9.0
 12
0.0
 22
0.0
 32
0.0
 14
0.0
 24
0.0
 34
0.0
 15
0.0
 25
0.0
 35
0.0
146
0.0
 13
0.0
 23
0.0
 33
0.0
 16
1.0
 26
0.0
 36
0.0
 17
0.0
 27
1.0
 37
0.0
 76
     0
330
6C
  0
MATERIAL
  5
19
102
{ACAD_XDICTIONARY
360
1A
102
}
102
{ACAD_REACTORS
330
10
102
}
330
10
100
AcDbMaterial
  1
ByBlock
 72
     0
 43
0.0208333333333333
 43
0.0
 43
0.0
 43
0.0
 43
0.0
 43
0.0208333333333333
 43
0.0
 43
0.0
 43
0.0
 43
0.0
 43
1.0
 43
0.0
 43
0.0
 43
0.0
 43
0.0
 43
1.0
 77
     0
 47
0.0208333333333333
 47
0.0
 47
0.0
 47
0.0
 47
0.0
 47
0.0208333333333333
 47
0.0
 47
0.0
 47
0.0
 47
0.0
 47
1.0
 47
0.0
 47
0.0
 47
0.0
 47
0.0
 47
1.0
171
     0
 49
0.0208333333333333
 49
0.0
 49
0.0
 49
0.0
 49
0.0
 49
0.0208333333333333
 49
0.0
 49
0.0
 49
0.0
 49
0.0
 49
1.0
 49
0.0
 49
0.0
 49
0.0
 49
0.0
 49
1.0
175
     0
142
0.0208333333333333
142
0.0
142
0.0
142
0.0
142
0.0
142
0.0208333333333333
142
0.0
142
0.0
142
0.0
142
0.0
142
1.0
142
0.0
142
0.0
142
0.0
142
0.0
142
1.0
179
     0
144
0.0208333333333333
144
0.0
144
0.0
144
0.0
144
0.0
144
0.0208333333333333
144
0.0
144
0.0
144
0.0
144
0.0
144
1.0
144
0.0
144
0.0
144
0.0
144
0.0
144
1.0
147
0.0208333333333333
147
0.0
147
0.0
147
0.0
147
0.0
147
0.0208333333333333
147
0.0
147
0.0
147
0.0
147
0.0
147
1.0
147
0.0
147
0.0
147
0.0
147
0.0
147
1.0
  0
MATERIAL
  5
11
102
{ACAD_XDICTIONARY
360
12
102
}
102
{ACAD_REACTORS
330
10
102
}
330
10
100
AcDbMaterial
  1
ByLayer
 72
     0
 43
0.0208333333333333
 43
0.0
 43
0.0
 43
0.0
 43
0.0
 43
0.0208333333333333
 43
0.0
 43
0.0
 43
0.0
 43
0.0
 43
1.0
 43
0.0
 43
0.0
 43
0.0
 43
0.0
 43
1.0
 77
     0
 47
0.0208333333333333
 47
0.0
 47
0.0
 47
0.0
 47
0.0
 47
0.0208333333333333
 47
0.0
 47
0.0
 47
0.0
 47
0.0
 47
1.0
 47
0.0
 47
0.0
 47
0.0
 47
0.0
 47
1.0
171
     0
 49
0.0208333333333333
 49
0.0
 49
0.0
 49
0.0
 49
0.0
 49
0.0208333333333333
 49
0.0
 49
0.0
 49
0.0
 49
0.0
 49
1.0
 49
0.0
 49
0.0
 49
0.0
 49
0.0
 49
1.0
175
     0
142
0.0208333333333333
142
0.0
142
0.0
142
0.0
142
0.0
142
0.0208333333333333
142
0.0
142
0.0
142
0.0
142
0.0
142
1.0
142
0.0
142
0.0
142
0.0
142
0.0
142
1.0
179
     0
144
0.0208333333333333
144
0.0
144
0.0
144
0.0
144
0.0
144
0.0208333333333333
144
0.0
144
0.0
144
0.0
144
0.0
144
1.0
144
0.0
144
0.0
144
0.0
144
0.0
144
1.0
147
0.0208333333333333
147
0.0
147
0.0
147
0.0
147
0.0
147
0.0208333333333333
147
0.0
147
0.0
147
0.0
147
0.0
147
1.0
147
0.0
147
0.0
147
0.0
147
0.0
147
1.0
  0
MATERIAL
  5
21
102
{ACAD_XDICTIONARY
360
22
102
}
102
{ACAD_REACTORS
330
10
102
}
330
10
100
AcDbMaterial
  1
Global
 72
     0
 43
0.0208333333333333
 43
0.0
 43
0.0
 43
0.0
 43
0.0
 43
0.0208333333333333
 43
0.0
 43
0.0
 43
0.0
 43
0.0
 43
1.0
 43
0.0
 43
0.0
 43
0.0
 43
0.0
 43
1.0
 77
     0
 47
0.0208333333333333
 47
0.0
 47
0.0
 47
0.0
 47
0.0
 47
0.0208333333333333
 47
0.0
 47
0.0
 47
0.0
 47
0.0
 47
1.0
 47
0.0
 47
0.0
 47
0.0
 47
0.0
 47
1.0
171
     0
 49
0.0208333333333333
 49
0.0
 49
0.0
 49
0.0
 49
0.0
 49
0.0208333333333333
 49
0.0
 49
0.0
 49
0.0
 49
0.0
 49
1.0
 49
0.0
 49
0.0
 49
0.0
 49
0.0
 49
1.0
175
     0
142
0.0208333333333333
142
0.0
142
0.0
142
0.0
142
0.0
142
0.0208333333333333
142
0.0
142
0.0
142
0.0
142
0.0
142
1.0
142
0.0
142
0.0
142
0.0
142
0.0
142
1.0
179
     0
144
0.0208333333333333
144
0.0
144
0.0
144
0.0
144
0.0
144
0.0208333333333333
144
0.0
144
0.0
144
0.0
144
0.0
144
1.0
144
0.0
144
0.0
144
0.0
144
0.0
144
1.0
147
0.0208333333333333
147
0.0
147
0.0
147
0.0
147
0.0
147
0.0208333333333333
147
0.0
147
0.0
147
0.0
147
0.0
147
1.0
147
0.0
147
0.0
147
0.0
147
0.0
147
1.0
  0
MLEADERSTYLE
  5
67
102
{ACAD_XDICTIONARY
360
E74
102
}
102
{ACAD_REACTORS
330
66
102
}
330
66
100
AcDbMLeaderStyle
179
     2
170
     2
171
     1
172
     0
 90
        2
 40
0.0
 41
0.0
173
     1
 91
-1056964608
340
5B
 92
       -2
290
     1
 42
0.09
291
     1
 43
0.36
  3
Standard
 44
0.18
300

342
55
174
     1
178
     6
175
     1
176
     0
 93
-1056964608
 45
0.18
292
     0
297
     0
 46
0.18
 94
-1056964608
 47
1.0
 49
1.0
140
1.0
293
     1
141
0.0
294
     1
177
     0
142
1.0
295
     0
296
     0
143
0.125
271
     0
272
     9
273
     9
  0
MLINESTYLE
  5
60
102
{ACAD_REACTORS
330
5F
102
}
330
5F
100
AcDbMlineStyle
  2
STANDARD
 70
     0
  3

 62
   256
 51
90.0
 52
90.0
 71
     2
 49
0.5
 62
   256
  6
BYLAYER
 49
-0.5
 62
   256
  6
BYLAYER
  0
ACDBPLACEHOLDER
  5
F
102
{ACAD_REACTORS
330
E
102
}
330
E
  0
SCALE
  5
43
102
{ACAD_REACTORS
330
42
102
}
330
42
100
AcDbScale
 70
     0
300
1:1
140
1.0
141
1.0
290
     1
  0
SCALE
  5
44
102
{ACAD_REACTORS
330
42
102
}
330
42
100
AcDbScale
 70
     0
300
1/128" = 1'-0"
140
0.0078125
141
12.0
290
     0
  0
SCALE
  5
45
102
{ACAD_REACTORS
330
42
102
}
330
42
100
AcDbScale
 70
     0
300
1/64" = 1'-0"
140
0.015625
141
12.0
290
     0
  0
SCALE
  5
46
102
{ACAD_REACTORS
330
42
102
}
330
42
100
AcDbScale
 70
     0
300
1/32" = 1'-0"
140
0.03125
141
12.0
290
     0
  0
SCALE
  5
47
102
{ACAD_REACTORS
330
42
102
}
330
42
100
AcDbScale
 70
     0
300
1/16" = 1'-0"
140
0.0625
141
12.0
290
     0
  0
SCALE
  5
48
102
{ACAD_REACTORS
330
42
102
}
330
42
100
AcDbScale
 70
     0
300
3/32" = 1'-0"
140
0.09375
141
12.0
290
     0
  0
SCALE
  5
49
102
{ACAD_REACTORS
330
42
102
}
330
42
100
AcDbScale
 70
     0
300
1/8" = 1'-0"
140
0.125
141
12.0
290
     0
  0
SCALE
  5
4A
102
{ACAD_REACTORS
330
42
102
}
330
42
100
AcDbScale
 70
     0
300
3/16" = 1'-0"
140
0.1875
141
12.0
290
     0
  0
SCALE
  5
4B
102
{ACAD_REACTORS
330
42
102
}
330
42
100
AcDbScale
 70
     0
300
1/4" = 1'-0"
140
0.25
141
12.0
290
     0
  0
SCALE
  5
4C
102
{ACAD_REACTORS
330
42
102
}
330
42
100
AcDbScale
 70
     0
300
3/8" = 1'-0"
140
0.375
141
12.0
290
     0
  0
SCALE
  5
4D
102
{ACAD_REACTORS
330
42
102
}
330
42
100
AcDbScale
 70
     0
300
1/2" = 1'-0"
140
0.5
141
12.0
290
     0
  0
SCALE
  5
4E
102
{ACAD_REACTORS
330
42
102
}
330
42
100
AcDbScale
 70
     0
300
3/4" = 1'-0"
140
0.75
141
12.0
290
     0
  0
SCALE
  5
4F
102
{ACAD_REACTORS
330
42
102
}
330
42
100
AcDbScale
 70
     0
300
1" = 1'-0"
140
1.0
141
12.0
290
     0
  0
SCALE
  5
50
102
{ACAD_REACTORS
330
42
102
}
330
42
100
AcDbScale
 70
     0
300
1-1/2" = 1'-0"
140
1.5
141
12.0
290
     0
  0
SCALE
  5
51
102
{ACAD_REACTORS
330
42
102
}
330
42
100
AcDbScale
 70
     0
300
3" = 1'-0"
140
3.0
141
12.0
290
     0
  0
SCALE
  5
52
102
{ACAD_REACTORS
330
42
102
}
330
42
100
AcDbScale
 70
     0
300
6" = 1'-0"
140
6.0
141
12.0
290
     0
  0
SCALE
  5
53
102
{ACAD_REACTORS
330
42
102
}
330
42
100
AcDbScale
 70
     0
300
1'-0" = 1'-0"
140
12.0
141
12.0
290
     0
  0
TABLESTYLE
  5
65
102
{ACAD_XDICTIONARY
360
E72
102
}
102
{ACAD_REACTORS
330
64
102
}
330
64
100
AcDbTableStyle
280
     0
  3
Standard
 70
     0
 71
     0
 40
0.06
 41
0.06
280
     0
281
     0
  7
Standard
140
0.18
170
     2
 62
     0
 63
     7
283
     0
 90
      512
 91
        0
  1

274
    -2
284
     1
 64
     0
275
    -2
285
     1
 65
     0
276
    -2
286
     1
 66
     0
277
    -2
287
     1
 67
     0
278
    -2
288
     1
 68
     0
279
    -2
289
     1
 69
     0
  7
Standard
140
0.25
170
     5
 62
     0
 63
     7
283
     0
 90
      512
 91
        0
  1

274
    -2
284
     1
 64
     0
275
    -2
285
     1
 65
     0
276
    -2
286
     1
 66
     0
277
    -2
287
     1
 67
     0
278
    -2
288
     1
 68
     0
279
    -2
289
     1
 69
     0
  7
Standard
140
0.18
170
     5
 62
     0
 63
     7
283
     0
 90
      512
 91
        0
  1

274
    -2
284
     1
 64
     0
275
    -2
285
     1
 65
     0
276
    -2
286
     1
 66
     0
277
    -2
287
     1
 67
     0
278
    -2
288
     1
 68
     0
279
    -2
289
     1
 69
     0
  0
VISUALSTYLE
  5
2F
102
{ACAD_REACTORS
330
29
102
}
330
29
100
AcDbVisualStyle
  2
2dWireframe
 70
     4
177
     2
291
     0
 71
     0
176
     1
 72
     2
176
     1
 73
     0
176
     1
 90
        0
176
     1
 40
0.6
176
     1
 41
30.0
176
     1
 63
     7
421
 16777215
176
     1
 74
     1
176
     1
 91
        4
176
     1
 64
     7
176
     1
 65
   257
176
     1
 75
     1
176
     1
175
     1
176
     1
 42
1.0
176
     1
 92
        0
176
     1
 66
   257
176
     1
 43
1.0
176
     1
 76
     1
176
     1
 77
     6
176
     1
 78
     2
176
     1
 67
     7
176
     1
 79
     5
176
     1
170
     0
176
     1
171
     0
176
     1
290
     0
176
     1
 93
        1
176
     1
 44
0.0
176
     1
173
     0
176
     1
  0
VISUALSTYLE
  5
2E
102
{ACAD_REACTORS
330
29
102
}
330
29
100
AcDbVisualStyle
  2
Basic
 70
     7
177
     2
291
     1
 71
     1
176
     1
 72
     0
176
     1
 73
     1
176
     1
 90
        0
176
     1
 40
0.6
176
     1
 41
30.0
176
     1
 63
     7
421
 16777215
176
     1
 74
     0
176
     1
 91
        4
176
     1
 64
     7
176
     1
 65
   257
176
     1
 75
     1
176
     1
175
     1
176
     1
 42
1.0
176
     1
 92
        8
176
     1
 66
     7
176
     1
 43
1.0
176
     1
 76
     1
176
     1
 77
     6
176
     1
 78
     2
176
     1
 67
     7
176
     1
 79
     5
176
     1
170
     0
176
     1
171
     0
176
     1
290
     0
176
     1
 93
        1
176
     1
 44
0.0
176
     1
173
     0
176
     1
  0
VISUALSTYLE
  5
35
102
{ACAD_REACTORS
330
29
102
}
330
29
100
AcDbVisualStyle
  2
Brighten
 70
    12
177
     2
291
     1
 71
     2
176
     1
 72
     2
176
     1
 73
     0
176
     1
 90
        0
176
     1
 40
0.6
176
     1
 41
30.0
176
     1
 63
     7
421
 16777215
176
     1
 74
     1
176
     1
 91
        4
176
     1
 64
     7
176
     1
 65
   257
176
     1
 75
     1
176
     1
175
     1
176
     1
 42
1.0
176
     1
 92
        8
176
     1
 66
     7
176
     1
 43
1.0
176
     1
 76
     1
176
     1
 77
     6
176
     1
 78
     2
176
     1
 67
     7
176
     1
 79
     5
176
     1
170
     0
176
     1
171
     0
176
     1
290
     0
176
     1
 93
        1
176
     1
 44
50.0
176
     1
173
     0
176
     1
  0
VISUALSTYLE
  5
39
102
{ACAD_REACTORS
330
29
102
}
330
29
100
AcDbVisualStyle
  2
ColorChange
 70
    16
177
     2
291
     1
 71
     2
176
     1
 72
     2
176
     1
 73
     3
176
     1
 90
        0
176
     1
 40
0.6
176
     1
 41
30.0
176
     1
 63
     8
421
  8421504
176
     1
 74
     1
176
     1
 91
        4
176
     1
 64
     7
176
     1
 65
   257
176
     1
 75
     1
176
     1
175
     1
176
     1
 42
1.0
176
     1
 92
        8
176
     1
 66
     8
424
  8421504
176
     1
 43
1.0
176
     1
 76
     1
176
     1
 77
     6
176
     1
 78
     2
176
     1
 67
     7
176
     1
 79
     5
176
     1
170
     0
176
     1
171
     0
176
     1
290
     0
176
     1
 93
        1
176
     1
 44
0.0
176
     1
173
     0
176
     1
  0
VISUALSTYLE
  5
32
102
{ACAD_REACTORS
330
29
102
}
330
29
100
AcDbVisualStyle
  2
Conceptual
 70
     9
177
     2
291
     0
 71
     3
176
     1
 72
     2
176
     1
 73
     0
176
     1
 90
        0
176
     1
 40
0.6
176
     1
 41
30.0
176
     1
 63
     7
421
 16777215
176
     1
 74
     2
176
     1
 91
        2
176
     1
 64
     7
176
     1
 65
   257
176
     1
 75
     1
176
     1
175
     1
176
     1
 42
179.0
176
     1
 92
        8
176
     1
 66
     7
176
     1
 43
1.0
176
     1
 76
     1
176
     1
 77
     6
176
     1
 78
     2
176
     1
 67
     7
176
     1
 79
     3
176
     1
170
     0
176
     1
171
     0
176
     1
290
     0
176
     1
 93
        1
176
     1
 44
0.0
176
     1
173
     0
176
     1
  0
VISUALSTYLE
  5
34
102
{ACAD_REACTORS
330
29
102
}
330
29
100
AcDbVisualStyle
  2
Dim
 70
    11
177
     2
291
     1
 71
     2
176
     1
 72
     2
176
     1
 73
     0
176
     1
 90
        0
176
     1
 40
0.6
176
     1
 41
30.0
176
     1
 63
     7
421
 16777215
176
     1
 74
     1
176
     1
 91
        4
176
     1
 64
     7
176
     1
 65
   257
176
     1
 75
     1
176
     1
175
     1
176
     1
 42
1.0
176
     1
 92
        8
176
     1
 66
     7
176
     1
 43
1.0
176
     1
 76
     1
176
     1
 77
     6
176
     1
 78
     2
176
     1
 67
     7
176
     1
 79
     5
176
     1
170
     0
176
     1
171
     0
176
     1
290
     0
176
     1
 93
        1
176
     1
 44
-50.0
176
     1
173
     0
176
     1
  0
VISUALSTYLE
  5
41
102
{ACAD_REACTORS
330
29
102
}
330
29
100
AcDbVisualStyle
  2
EdgeColorOff
 70
    22
177
     2
291
     1
 71
     2
176
     0
 72
     2
176
     0
 73
     0
176
     0
 90
        0
176
     0
 40
0.6
176
     0
 41
30.0
176
     0
 63
     7
421
 16777215
176
     0
 74
     1
176
     0
 91
        4
176
     0
 64
     7
176
     0
 65
   257
176
     0
 75
     1
176
     0
175
     1
176
     0
 42
1.0
176
     0
 92
        8
176
     2
 66
     7
176
     0
 43
1.0
176
     0
 76
     1
176
     0
 77
     6
176
     0
 78
     2
176
     0
 67
     7
176
     0
 79
     5
176
     0
170
     0
176
     0
171
     0
176
     0
290
     0
176
     0
 93
        1
176
     0
 44
0.0
176
     0
173
     0
176
     0
  0
VISUALSTYLE
  5
38
102
{ACAD_REACTORS
330
29
102
}
330
29
100
AcDbVisualStyle
  2
Facepattern
 70
    15
177
     2
291
     1
 71
     2
176
     1
 72
     2
176
     1
 73
     0
176
     1
 90
        0
176
     1
 40
0.6
176
     1
 41
30.0
176
     1
 63
     7
421
 16777215
176
     1
 74
     1
176
     1
 91
        4
176
     1
 64
     7
176
     1
 65
   257
176
     1
 75
     1
176
     1
175
     1
176
     1
 42
1.0
176
     1
 92
        8
176
     1
 66
     7
176
     1
 43
1.0
176
     1
 76
     1
176
     1
 77
     6
176
     1
 78
     2
176
     1
 67
     7
176
     1
 79
     5
176
     1
170
     0
176
     1
171
     0
176
     1
290
     0
176
     1
 93
        1
176
     1
 44
0.0
176
     1
173
     0
176
     1
  0
VISUALSTYLE
  5
2A
102
{ACAD_REACTORS
330
29
102
}
330
29
100
AcDbVisualStyle
  2
Flat
 70
     0
177
     2
291
     1
 71
     2
176
     1
 72
     1
176
     1
 73
     1
176
     1
 90
        2
176
     1
 40
0.6
176
     1
 41
30.0
176
     1
 63
     7
421
 16777215
176
     1
 74
     0
176
     1
 91
        0
176
     1
 64
     7
176
     1
 65
   257
176
     1
 75
     1
176
     1
175
     1
176
     1
 42
1.0
176
     1
 92
        8
176
     1
 66
     7
176
     1
 43
1.0
176
     1
 76
     1
176
     1
 77
     6
176
     1
 78
     2
176
     1
 67
     7
176
     1
 79
     5
176
     1
170
     0
176
     1
171
     0
176
     1
290
     0
176
     1
 93
       13
176
     1
 44
0.0
176
     1
173
     0
176
     1
  0
VISUALSTYLE
  5
2B
102
{ACAD_REACTORS
330
29
102
}
330
29
100
AcDbVisualStyle
  2
FlatWithEdges
 70
     1
177
     2
291
     1
 71
     2
176
     1
 72
     1
176
     1
 73
     1
176
     1
 90
        2
176
     1
 40
0.6
176
     1
 41
30.0
176
     1
 63
     7
421
 16777215
176
     1
 74
     1
176
     1
 91
        0
176
     1
 64
     7
176
     1
 65
   257
176
     1
 75
     1
176
     1
175
     1
176
     1
 42
1.0
176
     1
 92
        0
176
     1
 66
   257
176
     1
 43
1.0
176
     1
 76
     1
176
     1
 77
     6
176
     1
 78
     2
176
     1
 67
     7
176
     1
 79
     5
176
     1
170
     0
176
     1
171
     0
176
     1
290
     0
176
     1
 93
       13
176
     1
 44
0.0
176
     1
173
     0
176
     1
  0
VISUALSTYLE
  5
2C
102
{ACAD_REACTORS
330
29
102
}
330
29
100
AcDbVisualStyle
  2
Gouraud
 70
     2
177
     2
291
     1
 71
     2
176
     1
 72
     2
176
     1
 73
     1
176
     1
 90
        2
176
     1
 40
0.6
176
     1
 41
30.0
176
     1
 63
     7
421
 16777215
176
     1
 74
     0
176
     1
 91
        0
176
     1
 64
     7
176
     1
 65
   257
176
     1
 75
     1
176
     1
175
     1
176
     1
 42
1.0
176
     1
 92
        0
176
     1
 66
     7
176
     1
 43
1.0
176
     1
 76
     1
176
     1
 77
     6
176
     1
 78
     2
176
     1
 67
     7
176
     1
 79
     5
176
     1
170
     0
176
     1
171
     0
176
     1
290
     0
176
     1
 93
       13
176
     1
 44
0.0
176
     1
173
     0
176
     1
  0
VISUALSTYLE
  5
2D
102
{ACAD_REACTORS
330
29
102
}
330
29
100
AcDbVisualStyle
  2
GouraudWithEdges
 70
     3
177
     2
291
     1
 71
     2
176
     1
 72
     2
176
     1
 73
     1
176
     1
 90
        2
176
     1
 40
0.6
176
     1
 41
30.0
176
     1
 63
     7
421
 16777215
176
     1
 74
     1
176
     1
 91
        0
176
     1
 64
     7
176
     1
 65
   257
176
     1
 75
     1
176
     1
175
     1
176
     1
 42
1.0
176
     1
 92
        0
176
     1
 66
   257
176
     1
 43
1.0
176
     1
 76
     1
176
     1
 77
     6
176
     1
 78
     2
176
     1
 67
     7
176
     1
 79
     5
176
     1
170
     0
176
     1
171
     0
176
     1
290
     0
176
     1
 93
       13
176
     1
 44
0.0
176
     1
173
     0
176
     1
  0
VISUALSTYLE
  5
31
102
{ACAD_REACTORS
330
29
102
}
330
29
100
AcDbVisualStyle
  2
Hidden
 70
     6
177
     2
291
     0
 71
     1
176
     1
 72
     2
176
     1
 73
     2
176
     1
 90
        0
176
     1
 40
0.6
176
     1
 41
30.0
176
     1
 63
     7
421
 16777215
176
     1
 74
     2
176
     1
 91
        2
176
     1
 64
     7
176
     1
 65
   257
176
     1
 75
     2
176
     1
175
     1
176
     1
 42
40.0
176
     1
 92
        0
176
     1
 66
   257
176
     1
 43
1.0
176
     1
 76
     1
176
     1
 77
     6
176
     1
 78
     2
176
     1
 67
     7
176
     1
 79
     3
176
     1
170
     0
176
     1
171
     0
176
     1
290
     0
176
     1
 93
        1
176
     1
 44
0.0
176
     1
173
     0
176
     1
  0
VISUALSTYLE
  5
3F
102
{ACAD_REACTORS
330
29
102
}
330
29
100
AcDbVisualStyle
  2
JitterOff
 70
    20
177
     2
291
     1
 71
     2
176
     0
 72
     2
176
     0
 73
     0
176
     0
 90
        0
176
     0
 40
0.6
176
     0
 41
30.0
176
     0
 63
     7
421
 16777215
176
     0
 74
     1
176
     0
 91
        4
176
     0
 64
     7
176
     0
 65
   257
176
     0
 75
     1
176
     0
175
     1
176
     0
 42
1.0
176
     0
 92
       10
176
     2
 66
     7
176
     0
 43
1.0
176
     0
 76
     1
176
     0
 77
     6
176
     0
 78
     2
176
     0
 67
     7
176
     0
 79
     5
176
     0
170
     0
176
     0
171
     0
176
     0
290
     0
176
     0
 93
        1
176
     0
 44
0.0
176
     0
173
     0
176
     0
  0
VISUALSTYLE
  5
37
102
{ACAD_REACTORS
330
29
102
}
330
29
100
AcDbVisualStyle
  2
Linepattern
 70
    14
177
     2
291
     1
 71
     2
176
     1
 72
     2
176
     1
 73
     0
176
     1
 90
        0
176
     1
 40
0.6
176
     1
 41
30.0
176
     1
 63
     7
421
 16777215
176
     1
 74
     1
176
     1
 91
        4
176
     1
 64
     7
176
     1
 65
   257
176
     1
 75
     7
176
     1
175
     7
176
     1
 42
1.0
176
     1
 92
        8
176
     1
 66
     7
176
     1
 43
1.0
176
     1
 76
     1
176
     1
 77
     6
176
     1
 78
     2
176
     1
 67
     7
176
     1
 79
     5
176
     1
170
     0
176
     1
171
     0
176
     1
290
     0
176
     1
 93
        1
176
     1
 44
0.0
176
     1
173
     0
176
     1
  0
VISUALSTYLE
  5
40
102
{ACAD_REACTORS
330
29
102
}
330
29
100
AcDbVisualStyle
  2
OverhangOff
 70
    21
177
     2
291
     1
 71
     2
176
     0
 72
     2
176
     0
 73
     0
176
     0
 90
        0
176
     0
 40
0.6
176
     0
 41
30.0
176
     0
 63
     7
421
 16777215
176
     0
 74
     1
176
     0
 91
        4
176
     0
 64
     7
176
     0
 65
   257
176
     0
 75
     1
176
     0
175
     1
176
     0
 42
1.0
176
     0
 92
        9
176
     2
 66
     7
176
     0
 43
1.0
176
     0
 76
     1
176
     0
 77
     6
176
     0
 78
     2
176
     0
 67
     7
176
     0
 79
     5
176
     0
170
     0
176
     0
171
     0
176
     0
290
     0
176
     0
 93
        1
176
     0
 44
0.0
176
     0
173
     0
176
     0
  0
VISUALSTYLE
  5
33
102
{ACAD_REACTORS
330
29
102
}
330
29
100
AcDbVisualStyle
  2
Realistic
 70
     8
177
     2
291
     0
 71
     2
176
     1
 72
     3
176
     1
 73
     0
176
     1
 90
        2
176
     1
 40
0.6
176
     1
 41
30.0
176
     1
 63
     7
421
 16777215
176
     1
 74
     0
176
     1
 91
        0
176
     1
 64
     7
176
     1
 65
   257
176
     1
 75
     1
176
     1
175
     1
176
     1
 42
1.0
176
     1
 92
        8
176
     1
 66
   257
176
     1
 43
1.0
176
     1
 76
     1
176
     1
 77
     6
176
     1
 78
     2
176
     1
 67
     7
176
     1
 79
     3
176
     1
170
     0
176
     1
171
     0
176
     1
290
     0
176
     1
 93
       13
176
     1
 44
0.0
176
     1
173
     0
176
     1
  0
VISUALSTYLE
  5
3E
102
{ACAD_REACTORS
330
29
102
}
330
29
100
AcDbVisualStyle
  2
Shaded
 70
    27
177
     2
291
     0
 71
     2
176
     1
 72
     2
176
     1
 73
     1
176
     1
 90
        2
176
     1
 40
0.6
176
     1
 41
30.0
176
     1
 63
     7
421
 16777215
176
     1
 74
     0
176
     1
 91
        4
176
     1
 64
     7
176
     1
 65
   257
176
     1
 75
     1
176
     1
175
     1
176
     1
 42
1.0
176
     1
 92
        8
176
     1
 66
   257
176
     1
 43
1.0
176
     1
 76
     1
176
     1
 77
     6
176
     1
 78
     2
176
     1
 67
     8
425
  7895160
176
     1
 79
     3
176
     1
170
     0
176
     1
171
     0
176
     1
290
     0
176
     1
 93
        5
176
     1
 44
0.0
176
     1
173
     0
176
     1
  0
VISUALSTYLE
  5
3D
102
{ACAD_REACTORS
330
29
102
}
330
29
100
AcDbVisualStyle
  2
Shaded with edges
 70
    26
177
     2
291
     0
 71
     2
176
     1
 72
     2
176
     1
 73
     1
176
     1
 90
        2
176
     1
 40
0.6
176
     1
 41
30.0
176
     1
 63
     7
421
 16777215
176
     1
 74
     1
176
     1
 91
       10
176
     1
 64
     7
176
     1
 65
   257
176
     1
 75
     2
176
     1
175
     1
176
     1
 42
1.0
176
     1
 92
        8
176
     1
 66
   257
176
     1
 43
1.0
176
     1
 76
     1
176
     1
 77
     6
176
     1
 78
     2
176
     1
 67
     7
176
     1
 79
     3
176
     1
170
     0
176
     1
171
     0
176
     1
290
     0
176
     1
 93
        5
176
     1
 44
0.0
176
     1
173
     0
176
     1
  0
VISUALSTYLE
  5
3A
102
{ACAD_REACTORS
330
29
102
}
330
29
100
AcDbVisualStyle
  2
Shades of Gray
 70
    23
177
     2
291
     0
 71
     2
176
     1
 72
     2
176
     1
 73
     3
176
     1
 90
        0
176
     1
 40
0.6
176
     1
 41
30.0
176
     1
 63
     7
421
 16777215
176
     1
 74
     2
176
     1
 91
        2
176
     1
 64
     7
176
     1
 65
     7
176
     1
 75
     1
176
     1
175
     1
176
     1
 42
40.0
176
     1
 92
        8
176
     1
 66
     7
176
     1
 43
1.0
176
     1
 76
     1
176
     1
 77
     6
176
     1
 78
     2
176
     1
 67
     7
176
     1
 79
     3
176
     1
170
     0
176
     1
171
     0
176
     1
290
     0
176
     1
 93
        1
176
     1
 44
0.0
176
     1
173
     0
176
     1
  0
VISUALSTYLE
  5
3B
102
{ACAD_REACTORS
330
29
102
}
330
29
100
AcDbVisualStyle
  2
Sketchy
 70
    24
177
     2
291
     0
 71
     1
176
     1
 72
     2
176
     1
 73
     2
176
     1
 90
        0
176
     1
 40
0.6
176
     1
 41
30.0
176
     1
 63
     7
421
 16777215
176
     1
 74
     2
176
     1
 91
        2
176
     1
 64
     7
176
     1
 65
     7
176
     1
 75
     1
176
     1
175
     1
176
     1
 42
40.0
176
     1
 92
       11
176
     1
 66
     7
176
     1
 43
1.0
176
     1
 76
     1
176
     1
 77
     6
176
     1
 78
     2
176
     1
 67
     7
176
     1
 79
     6
176
     1
170
     0
176
     1
171
     0
176
     1
290
     0
176
     1
 93
        1
176
     1
 44
0.0
176
     1
173
     0
176
     1
  0
VISUALSTYLE
  5
36
102
{ACAD_REACTORS
330
29
102
}
330
29
100
AcDbVisualStyle
  2
Thicken
 70
    13
177
     2
291
     1
 71
     2
176
     1
 72
     2
176
     1
 73
     0
176
     1
 90
        0
176
     1
 40
0.6
176
     1
 41
30.0
176
     1
 63
     7
421
 16777215
176
     1
 74
     1
176
     1
 91
        4
176
     1
 64
     7
176
     1
 65
   257
176
     1
 75
     1
176
     1
175
     1
176
     1
 42
1.0
176
     1
 92
       12
176
     1
 66
     7
176
     1
 43
1.0
176
     1
 76
     1
176
     1
 77
     6
176
     1
 78
     2
176
     1
 67
     7
176
     1
 79
     5
176
     1
170
     0
176
     1
171
     0
176
     1
290
     0
176
     1
 93
        1
176
     1
 44
0.0
176
     1
173
     0
176
     1
  0
VISUALSTYLE
  5
30
102
{ACAD_REACTORS
330
29
102
}
330
29
100
AcDbVisualStyle
  2
Wireframe
 70
     5
177
     2
291
     0
 71
     0
176
     1
 72
     2
176
     1
 73
     0
176
     1
 90
        0
176
     1
 40
0.6
176
     1
 41
30.0
176
     1
 63
     7
421
 16777215
176
     1
 74
     1
176
     1
 91
        4
176
     1
 64
     7
176
     1
 65
   257
176
     1
 75
     1
176
     1
175
     1
176
     1
 42
1.0
176
     1
 92
        0
176
     1
 66
   257
176
     1
 43
1.0
176
     1
 76
     1
176
     1
 77
     6
176
     1
 78
     2
176
     1
 67
     7
176
     1
 79
     3
176
     1
170
     0
176
     1
171
     0
176
     1
290
     0
176
     1
 93
        1
176
     1
 44
0.0
176
     1
173
     0
176
     1
  0
VISUALSTYLE
  5
3C
102
{ACAD_REACTORS
330
29
102
}
330
29
100
AcDbVisualStyle
  2
X-Ray
 70
    25
177
     2
291
     0
 71
     2
176
     1
 72
     2
176
     1
 73
     1
176
     1
 90
        1
176
     1
 40
0.5
176
     1
 41
30.0
176
     1
 63
     7
421
 16777215
176
     1
 74
     1
176
     1
 91
        0
176
     1
 64
     7
176
     1
 65
   257
176
     1
 75
     1
176
     1
175
     1
176
     1
 42
1.0
176
     1
 92
        8
176
     1
 66
     7
176
     1
 43
1.0
176
     1
 76
     1
176
     1
 77
     6
176
     1
 78
     2
176
     1
 67
     7
176
     1
 79
     3
176
     1
170
     0
176
     1
171
     0
176
     1
290
     0
176
     1
 93
       13
176
     1
 44
0.0
176
     1
173
     0
176
     1
  0
DICTIONARYVAR
  5
79
102
{ACAD_REACTORS
330
76
102
}
330
76
100
DictionaryVariables
280
     0
  1
1:1
  0
DICTIONARYVAR
  5
78
102
{ACAD_REACTORS
330
76
102
}
330
76
100
DictionaryVariables
280
     0
  1
STANDARD
  0
DICTIONARYVAR
  5
77
102
{ACAD_REACTORS
330
76
102
}
330
76
100
DictionaryVariables
280
     0
  1
STANDARD
  0
DICTIONARY
  5
1A
330
19
100
AcDbDictionary
280
     1
281
     1
  3
BUMPTILE
360
1C
  3
DIFFUSETILE
360
1B
  3
OPACITYTILE
360
1F
  3
REFLECTIONTILE
360
1E
  3
REFRACTIONTILE
360
20
  3
SPECULARTILE
360
1D
  0
DICTIONARY
  5
12
330
11
100
AcDbDictionary
280
     1
281
     1
  3
BUMPTILE
360
14
  3
DIFFUSETILE
360
13
  3
FBXASSET
360
109
  3
OPACITYTILE
360
17
  3
REFLECTIONTILE
360
16
  3
REFRACTIONTILE
360
18
  3
SPECULARTILE
360
15
  0
DICTIONARY
  5
22
330
21
100
AcDbDictionary
280
     1
281
     1
  3
BUMPTILE
360
24
  3
DIFFUSETILE
360
23
  3
FBXASSET
360
BA
  3
OPACITYTILE
360
27
  3
REFLECTIONTILE
360
26
  3
REFRACTIONTILE
360
28
  3
SPECULARTILE
360
25
  0
DICTIONARY
  5
E74
330
67
100
AcDbDictionary
280
     1
281
     1
  3
ACAD_XREC_ROUNDTRIP
360
E75
  0
DICTIONARY
  5
E72
330
65
100
AcDbDictionary
280
     1
281
     1
  3
ACAD_ROUNDTRIP_2008_TABLESTYLE_CELLSTYLEMAP
360
E73
  0
XRECORD
  5
1C
102
{ACAD_REACTORS
330
1A
102
}
330
1A
100
AcDbXrecord
280
     1
270
     1
271
     1
  0
XRECORD
  5
1B
102
{ACAD_REACTORS
330
1A
102
}
330
1A
100
AcDbXrecord
280
     1
270
     1
271
     1
  0
XRECORD
  5
1F
102
{ACAD_REACTORS
330
1A
102
}
330
1A
100
AcDbXrecord
280
     1
270
     1
271
     1
  0
XRECORD
  5
1E
102
{ACAD_REACTORS
330
1A
102
}
330
1A
100
AcDbXrecord
280
     1
270
     1
271
     1
  0
XRECORD
  5
20
102
{ACAD_REACTORS
330
1A
102
}
330
1A
100
AcDbXrecord
280
     1
270
     1
271
     1
  0
XRECORD
  5
1D
102
{ACAD_REACTORS
330
1A
102
}
330
1A
100
AcDbXrecord
280
     1
270
     1
271
     1
  0
XRECORD
  5
14
102
{ACAD_REACTORS
330
12
102
}
330
12
100
AcDbXrecord
280
     1
270
     1
271
     1
  0
XRECORD
  5
13
102
{ACAD_REACTORS
330
12
102
}
330
12
100
AcDbXrecord
280
     1
270
     1
271
     1
  0
XRECORD
  5
109
102
{ACAD_REACTORS
330
12
102
}
330
12
100
AcDbXrecord
280
     1
 70
     1
 90
1959938040
 71
     1
  1
833722BA-AD4F-4040-9CBF-C70A566646D6
311
504B03040A00000800009754D5423DEE336E79000000790000001B0000006175746F6465736B2D64657369676E2D7061636B6167652E786D6C3C3F786D6C2076657273696F6E3D22312E302220656E636F64696E673D227574662D3822203F3E3C666F726D6174733E3C666F726D61743E687474703A2F2F736368656D612E
311
6175746F6465736B2E636F6D2F64657369676E2D7061636B6167652F323030393C2F666F726D61743E3C2F666F726D6174733E504B03041400060808009754D542D486FD9CA0000000F4000000130000005B436F6E74656E745F54797065735D2E786D6C7D8EC10E82300C865F65E91D8A1E8C310C0EEA1BF002731658846E
311
D98AC1B77784ABF1D8FE5FBFBF75BBCE937A534CCEB38643598122B6FEE978D0B0485F9C41B54DDD7D022595594E1A469170414C76A4D9A4D207E29CF43ECE46F218070CC6BECC4078ACAA135ACF422C856C0E68EA1BF5669944DDD7BCDE7B1F8E415D77AECB980613C2E4AC91FC167A2B244592486606FC29C8FD7F045B9A
311
EF7053A7E60B504B03041400060808009754D542B2B54F9CEB0000007C01000008000000636F72652E786D6C8D904D6EC3201085AF82665B61837F630B13C55173825E0001715162B00C543D7E71E248EDAEAB19BD79DFCCE8B1E3F77C475F7AF5C6D901684600692B9D32761A20862B3E003A72B63A177ED9005931EB0136
311
19389B5617975D92CE066D4352AD537A1785F73A0092F7D40CE0E5A79E452662480E7FCB16216F62D2197D75098ED128F43C6254DA67AE46AFC0DB437BBA90F68C495D105C91AAC363476B3C9E0F63359E2E63F3DEB17C83390B667EDD97AB16412BE005A125260D2EE807257DD9F455FB46EABE242CDFEC7FA0B8A87F42D1
311
D85016FBBB4FCC03A7E991C780B37CCB22954750A96EB9F11F504B03041400060808009754D54255019EA25F0000007C00000007000000636E782E786D6C4DCB3B0E80201045D1AD90E915ED2CF8AC45050C11660C8261F98AB1B07AC9C97D42D718D865D3E909258CFD00CCE24AC6E326A164D74DC0B4128928FF32603847
311
2BA13128B1252AC747C6BAB984FC68F0B87FE8960A5C09FE86CFB69FBA01504B03041400060808009754D5425DA7DED568010000020300000C0000006662782F636F72652E786D6C8D525B6E833010BC8AE5DFCAD83CF2947114A2E604BD80030E45011B191BE5F85D1E114D15451592B16676766707F8E1DED4A857B6AB8C
311
4E7118308C94CE4D51E932C5DE5DC916A383E0D618F7AB0C232D1B95E201C68297D6F8768672A39DD20E506D0A3583B2EB94C328AFE192E22EFF568D0CA47750D1DD8256E63759AA200C80863AC13B67C1009A860C2716D7CB9DD30917DCFBAA98D9AA8069D5B552168BCD76733CB3CD89B055C448C2921DC976E18A64A76D
311
9664C773B6FEDC713A88057755F370975B259D2AB088581813B62651F815B27DBCDE279B0FB6DAC78CD3A1FC49E4DBE29F225F691747B3DD49D66111829191F8B32D44E450277BF04305A74388F01A137E0E1A0281909DBCD48F3D6E00F52A77C626C014C62F542F6BAF602A43E3C3E9C442E7B1016CF6B24FF4A6CFFB1EF0
311
01A52EC19A7470BD78374CE7D3D4398A5659D2BB3BD2C636B25ECC4D16977319F4529E9BDAD8FFA8E9BC2A9DC3A4C3DF2B7E00504B03041400060808009754D54208272FCE7D0000009D0000000B0000006662782F636E782E786D6C4DCCD10A83201886E15B91FFDC5273A3400D21BB8F581632D3E13476F9ABD1C18E3E78
311
F87845FFD93CDA6D7ABB1824D08A00B2E11167175609252FB805D42B9162CC7F374061DAAC8493418935C5F2BA68B6CB547C3ED4BBF0BC90DF34E12D1F31D37AC0BC2304EBC6307C3794513D36860C1DD44AD4BFD2B167587D01504B03041400060808009754D54276F8BC792B01000014020000310000006662782F343541
311
30343834462D324141442D343930302D413345322D3645313231414633453044392F636F72652E786D6C8D515B6EC32010BC0AE22B5585CDCBCE4398C8529213F402C426094A0C168F2AC72FAE1DA9FDCB0F8B66676647BB62FF1C1EE05BFB609C6D20293004DA76AE37F6DAC0142F6803C15E0AEF5CFC4383C0AA41377082
311
A11457EFD2B8409DB351DB9851EB7ABD802A041D21E81EF9D3C0D0DDF4A00A956266847B31AAEEAEAEBA20456E679E1421FA1C00CC43A6174A5EB5986FF809D1B63D20BEC518B5EC48517D2494B42776C487AD2867A11429997E919B3EC73117A3FDBB2693588A688657FCCE6B15750F25C584215C234ABE08DEB17AC7D79F
311
B8DA312CCA89FE4F94C6FE4D51323632BAC49D65014A22CAB92145EFD2F9F10AA39FA3F3114CF35641771F50E20213BA5D57848972A6E60564CF9A2F9E213A9F17BCBA9F339B54B371CDA528A71BE5F27BC05CA77BCA1F504B03041400060808009754D5428B7D1D434E01000033030000300000006662782F343541303438
311
34462D324141442D343930302D413345322D3645313231414633453044392F636E782E786D6CD593CD6EC32010845F0571ADFC17BB6E156122F5D027E8A157029B860683C54FD5BC7D9784A4B9E4D0632FC89A1D66569F30DB7CCF867C810FDAD98976754B0958E994B61F134D71573D53B2E1CC3B176F6C945831C344B34C
311
39FBF02E2D4552B013C944548DB687227A082E790901E57C93182785C100B0554211E62D28058A5C8DF8B5038FABA0B83D92B807F2FAF24EDCF613640CACC9299C35B983B37C96A61B1325D28810261AE41E66518B149D8270A89588A2EEEA4BD79D9D7E9348BE70A94C5E935C3ED17C525E36AA91236B70C859881EE91553
311
3C2E40B95816A3A58808B93919CF1ECE92B6711C8A5723788FEE6EEC8701C34E33CEA29EA138A407114151BE6ABBBE6AC76AD5BD75EDBA1FD7C3D343FBB8EE5BD6643B675BE74CB98431E0DD42A4B3116CA4BC634D1EDFC3577C44698FAC9D3FFE01240228AD673AD78CFFCCA739BD6FC4E5F12FE03F504B03041400060808
311
009754D5424044FD63A405000081100000340000006662782F34354130343834462D324141442D343930302D413345322D3645313231414633453044392F6F626A656374732E786D6CAD57D96EDB3814FD1541F332F360CB5BDC64A0A8F0D214469BB6A8D1621E0C18B444299C500B482A71E6EBE750A464C9B553CFA02F5A
311
B85CDE7BEEB90BFDB7FB943B4F54489667B7EEB03F701D9A8579C4B2E4D62D55DCBB769DB7812FF25CB596B94E46527AEBEA6137F0139197851D8A684C4AAE8E46EFE67F3932A419759D9013296F5D193ED094F449A9F288CAC77E4414E927F1BE3FEC9B855DB18920C5C391D082089A29688AF10C521CA3D4B0FB3B70BDC0
311
F7F47CE0EBA75D353EBFCAABECE99ECF32A94816FE70D89198F170B27C37BABAE95D4D26E3DE643A1AF6E677F3656FF8663C584C178B9BD9BB1B1C2C958024AB89A0B11BBC07368285BE67A602BF64991A8FEC12EB204FD027A63DE5062367E87B664D639D35F294FA619E6534ACB0021A957D5674440B9A45F039A3129AB5
311
101A747F871AC7D6F458FFDB23DBC39721D0DED11254EB5EBFDB9AE6BBBF6182BC84414252CD4083A535D4707570407897E7DCCE31E9A44451C1087738DB09225EDC004BF592C0EF88D14C163A1AB4056E002F98E92E5D10463FE7F9292DE392734D6337A8A2608B58A14A569AB17FA83868DF46063AC1579A0DD7D620F552
311
5037B83114B93E629301D2893949E07298A9778E4747862E749CAE966EF0E16EB75FEBD83D7D7821F2820AA5E9036AD58EABDF1A25ABD3F022CFE90DEE912A0750BE02F94F08F5832AF09B60FBC97E624F51826432CE450ADF3803A737C063E00CABA7FE6E7DF95EB3B9EBBD7378C2D91AAA5F8067D786B62F5B7006FE1308
311
9F8BB1356D1D128EB471CF3200A449E2F01C43C8C3F16EEF062B64396465EC223C18C264A8FB844FDFB3629028AA935AEF0C581EA5C50B123460AB1809350CF9AD82073FFD90CEAA83EDB273F05EFD12BACE96EB0FEB52C424A4F736A69734661953287107DEB415EA60DEB1E891BE3CE72282A13FE2BD6EE39DDAA324D0D6
311
986BE0933AA7EB9FC3C99D0342EC4B729D6EFC9F9C002374616DC9BF6732A49C938CE6657DEEABF50365C340AC835D33B9293087C202D29899A31844910E052B34884DB56A9266FF8C75DF569FC0483798BF7C242FEDECB53BE4DE30E7B9D8EE5EB6262D9D84FA7B97DB16034F4B01DDAB20A9E3DF82BE8D581C971249F004
311
AEDF578BB6EF745A408AA8A59A6899C07E04171196B4B55C546B415049F36CCB50371177270F68CB07A4960195C0731A4BCAE32DE3BC4CB731E3A846DB941467E0F8FFFAEFCAB4D892342F3375467647755487AEEE1DF6CA67A2C207375857EFDE1CB937A2D11932E85A7202AB8E6BAFC7E337A3D17CD69B2D2777BDC96032
311
E8DD2CE677BDC59BC1EC6A3A9D4EA6CB69ED27A349E0D7A5A61DD1F0124A9B5F0A66DDF76D85F8B149C00DEE89929BF7263CEBF7B7551FBDB0EF610FEA65B371163DA1EFA3D1CF051C569E14B44A0B4E539A29A263E85E7FF0AF047D46471933BE4A49422F90F2F9FDFAC8188C5CB0EF8B8E77FA7CB4D78E2E74409E14A21E
311
CA749711C68F362606C97E912516BFDA27CDDB149AFA57FF59C7A03395396711F260E424344FA94236BCA00889944A50AFDDD347F6EE71C1EE27D3212AB2E3B4D6E481A049E61261016A95A1EA8E3BBFA1A9D37DD5AD8B72DB7FC4C3660AD701676E5D34E98A8554F67728D0BA15AA84834BED4E1E8D3FC9128E5EDB6C6AFE
311
9B5D1A9B4E496E965CD23F59BB4C0AB706208D14E81BD010C13B9532815FE966E7C3FF6478AD8E43143E77A56A6C390C34C654C720448D51F6B68026E6D11EBD47A0BE6ED6B05FADE92072D12DEB551218A93D454452DD14B47E56A5D9F28B870EC5597D760A5E26F0E5E5927A8282CCA50E70B008ACB0320BA240D5C59F9B
311
2F22C74D3675EE1828E0FCBEBF9EFEB159E4699A67666833B3F76167FD80DB6DB44172A0FA5A2237A3C170B4A9AE03F686B2DD1149FB24928F188067056B80EEB81FBC347746D42133D1ACF3B42B8E18BA5A3AB6B04D20D4D2A59D5B3538683C32EA2086F49552474C7B41F1EA8DC0AB964205815E3EF817504B0304140006
311
0800009754D542000000000000000000000000350000006662782F34354130343834462D324141442D343930302D413345322D3645313231414633453044392F76657274696365732E62696E504B03041400060808009754D542F270F1330600000004000000360000006662782F34354130343834462D324141442D343930
311
302D413345322D3645313231414633453044392F747269616E676C65732E62696E636660600000504B03041400060800009754D542000000000000000000000000370000006662782F34354130343834462D324141442D343930302D413345322D3645313231414633453044392F617474726962757465732E62696E504B03
311
041400060808009754D542D5987DFC8F00000041010000360000006662782F34354130343834462D324141442D343930302D413345322D3645313231414633453044392F6469726563746F72792E786D6C858F410EC2201045AF4266AF15DDB800BA74E7C21B903225242D6328188F2FA5C4183471359997F9FF81E89FF3C4
311
1E1816475E02DF1F80A11FC8386F25A438EECEC07A250251FC3803E6F58C12560C4AD840E95E91C151A72936F496F35732D860FE635F62C8F2DA16B505C545B74125BAA2FA9E05D7CC053D063734D5C7665FD55B6B8D15D5E9BFEAFD8490FFA45E504B03041400060808009754D542A11E6104FE000000A00100003B000000
311
6662782F34354130343834462D324141442D343930302D413345322D3645313231414633453044392F7265736F75726365732F636F72652E786D6C8D50596AC33010BD8A99DF225BF212C74156884B73825E40C8935424968296D2E3578A5D68FFFA3333BC85793C7EFC5AEEC5273AAFAD198195140A34CACEDA5C4788E142
311
F6501C0577D6865F32288C5C70840C83E05767E363839435014D48A8B1336EA0F41E0314EA9E8E11BCFAC045963286A4F0B7F221D54D5EB16465A2934E701F5C0A50AC4FF204E1D0DBE8147A5EADACE031EA79D3E839FDD4178D0E44BFEF4F67DA4F847635252D6D07320DAC23D3EB7E6AA7D379DABD0DBCCA66C1835E7E32
311
2A8732E00CA2A6AC2174476AF6CEE8A1D91DDAFE85768786F22ACBFF98E263FEA7296A139A7A8BBBDA3C0896823C09C1ABDC575ACF32D3CEDD8A6F504B010214000A00000800009754D5423DEE336E79000000790000001B00000000000000000000000000000000006175746F6465736B2D64657369676E2D7061636B6167
311
652E786D6C504B010214001400060808009754D542D486FD9CA0000000F40000001300000000000000000000000000B20000005B436F6E74656E745F54797065735D2E786D6C504B010214001400060808009754D542B2B54F9CEB0000007C010000080000000000000000000000000083010000636F72652E786D6C504B01
311
0214001400060808009754D54255019EA25F0000007C000000070000000000000000000000000094020000636E782E786D6C504B010214001400060808009754D5425DA7DED568010000020300000C00000000000000000000000000180300006662782F636F72652E786D6C504B010214001400060808009754D54208272F
311
CE7D0000009D0000000B00000000000000000000000000AA0400006662782F636E782E786D6C504B010214001400060808009754D54276F8BC792B010000140200003100000000000000000000000000500500006662782F34354130343834462D324141442D343930302D413345322D3645313231414633453044392F636F
311
72652E786D6C504B010214001400060808009754D5428B7D1D434E010000330300003000000000000000000000000000CA0600006662782F34354130343834462D324141442D343930302D413345322D3645313231414633453044392F636E782E786D6C504B010214001400060808009754D5424044FD63A4050000811000
311
003400000000000000000000000000660800006662782F34354130343834462D324141442D343930302D413345322D3645313231414633453044392F6F626A656374732E786D6C504B010214001400060800009754D54200000000000000000000000035000000000000000000000000005C0E00006662782F343541303438
311
34462D324141442D343930302D413345322D3645313231414633453044392F76657274696365732E62696E504B010214001400060808009754D542F270F13306000000040000003600000000000000000000000000AF0E00006662782F34354130343834462D324141442D343930302D413345322D36453132314146334530
311
44392F747269616E676C65732E62696E504B010214001400060800009754D5420000000000000000000000003700000000000000000000000000090F00006662782F34354130343834462D324141442D343930302D413345322D3645313231414633453044392F617474726962757465732E62696E504B0102140014000608
311
08009754D542D5987DFC8F0000004101000036000000000000000000000000005E0F00006662782F34354130343834462D324141442D343930302D413345322D3645313231414633453044392F6469726563746F72792E786D6C504B010214001400060808009754D542A11E6104FE000000A00100003B0000000000000000
311
0000000000411000006662782F34354130343834462D324141442D343930302D413345322D3645313231414633453044392F7265736F75726365732F636F72652E786D6C504B0506000000000E000E0080040000981100000000
310
504B03040A00000800009754D5423DEE336E79000000790000001B0000006175746F6465736B2D64657369676E2D7061636B6167652E786D6C3C3F786D6C2076657273696F6E3D22312E302220656E636F64696E673D227574662D3822203F3E3C666F726D6174733E3C666F726D61743E687474703A2F2F736368656D612E
310
6175746F6465736B2E636F6D2F64657369676E2D7061636B6167652F323030393C2F666F726D61743E3C2F666F726D6174733E504B03041400060808009754D542D486FD9CA0000000F4000000130000005B436F6E74656E745F54797065735D2E786D6C7D8EC10E82300C865F65E91D8A1E8C310C0EEA1BF002731658846E
310
D98AC1B77784ABF1D8FE5FBFBF75BBCE937A534CCEB38643598122B6FEE978D0B0485F9C41B54DDD7D022595594E1A469170414C76A4D9A4D207E29CF43ECE46F218070CC6BECC4078ACAA135ACF422C856C0E68EA1BF5669944DDD7BCDE7B1F8E415D77AECB980613C2E4AC91FC167A2B244592486606FC29C8FD7F045B9A
310
EF7053A7E60B504B03041400060808009754D5425878891DEC0000007C01000008000000636F72652E786D6C8D90416EC3201045AF82665BE180EDDAD4C2448E529FA01740405C94182C03558F5F9C3852BBEB6A467FFE9B197D7EFC9E6FE8CBACC17AD7032D0820E394D7D64D3DA478C10CD051F0D5FBF8CB06C8C9D9F4B0
310
C920F8B4FAB4EC92F22E1A17B3EABC36BB2843301190BAE5A687A03ECD2C0B996276846BB14875959329E8B3CB704A56A3C711ABF33E7BB16605C1183D8FE7A6C56CA809AEDB91E1A1390D783CBDD3B1AE583BBCB5FCB0C182473B3FEFABD5C868348892D00A930697F48392AE6ABABA7D21AF5D45F861B3FF81D2A2FF0925
310
EB6255EEEF3EB00082E647EE03C10F5B16B9DC83CA75CB4DFC00504B03041400060808009754D54255019EA25F0000007C00000007000000636E782E786D6C4DCB3B0E80201045D1AD90E915ED2CF8AC45050C11660C8261F98AB1B07AC9C97D42D718D865D3E909258CFD00CCE24AC6E326A164D74DC0B4128928FF326038
310
472BA13128B1252AC747C6BAB984FC68F0B87FE8960A5C09FE86CFB69FBA01504B03041400060808009754D542720354A668010000020300000C0000006662782F636F72652E786D6C8D525B6E833010BC8AE5DFCA98578146C61151CA097A01071C8A02363236CAF1BB3CA23455145548C69AD9D99D1D60FB6BDFA1499AB1
310
D52AC781E7632455A5EB56353976F64C328CF69C19ADEDAF328C94E8658E671873D618ED860DAAB4B252594095AEE5068A719416A3AA834B8EC7EA5BF6C213CE42C578F106515D4423BDC0031AEA381BAD0103681D329F989F4F5746579C33E7DA7A63DB1AA6B5E7561ACCB32C3896C724255911FB244ECB8C14C9A120E5E1
310
3328E3284B8B8F94D159CC996DFB9BBBCA4861658D79E80711F11312065F81BF8B925D9CBEF9EFBBC867742E7F10B9A1FEA7C8B5CA46E16677958D9807606421FE6C0B1159348A09FC50CEE81C22BC96841F83864020642B4EDD6D8F0B4093ACAC363130B576776A129D9330D547CBC3E8CA42E7A5016CF6B44FF8A2CFEB1E
310
F001856AC09AB0703D393B4F67EBD42D8A411A32D92B52DAF4A2BB9B5B2DDECFFBA0A7F24A77DAFC474DB755E916269DFF5EFE03504B03041400060808009754D5421EE434957E0000009D0000000B0000006662782F636E782E786D6C4DCCD10A83201886E15B91FFDCB274E4408D9AED3E6259C84C87E9D8E5AF46073BFA
310
E0E1E315ED6775E86DE266839750150490F18F3059BF48C869C61C50AB440C21FDDD00F97135120E06259618F2EBA4C9CC6376695767FDF3444E7AAAB5AE707D673D66E4D6617E651D6E341D1A46091FEA0B944A94BFD2BE47587D01504B03041400060808009754D54202D570C02C01000014020000310000006662782F38
310
304233444444312D324634422D343043412D383934412D3744334537343330384532352F636F72652E786D6C8D515B6EC32010BC0AE22B55651B0CB19D081325757A825EC0C1244189C1E251E5F885DA91DABFFCB068766676B4CB768FF10EBEA575CAE816E21C4120B53083D29716067FCE1A08769C5963FC1F1A04BA1F65
310
0B130C39BB5813A60512467BA97D44B519E402F6CE490F81B8C74F0B9DB8CAB1CFFBE023C3DDF2A917B7FE22739CC776E471E6BC8D01C03C24BD9037E840BAAEC359F9490F19451FFBACD9D07D5677E45853829A63B966C52CE42C04352C7235C438EAACA47DD5248939F36A7CC61756F65E0E909708930C555989BF30DA92
310
6A4BEB77B4DE12C48A44FF270AD3F0A22828ED49B9C49D650E72CC8AB9C1D960C2E9FE0C231F93B11EA4792B27C51BE42847B8DCD49856AC98A97101D1B3A28BA7F3C6C605AF6EA7C8268B7145392BD28D62F93D60ACE99EFC07504B03041400060808009754D542EDDAD2545601000033030000300000006662782F383042
310
33444444312D324634422D343043412D383934412D3744334537343330384532352F636E782E786D6CBD93CD6EC32010845F0571ADFC17BB6E146122F5D027E8A1570C9B86068305B86ADEBE4B42D25C72A854F582ACD96166F509B3EDD764C827F8A09D1D6853D69480954E69FB3ED025EE8A35255BCEBC73F1C646891513
310
0C34C994B377EF96394B0A7662311155A3ED218B1E825BBC848072BA498C93C26000D8624111A611940245AE46FCDA81C755501C8F24EE81BC3CBF11377E808C81552985B32A757096CEDC7463A2441A11C24083DCC3244AB144A7201C4A25A2289BF2D27567A79F24922E5C2A17AF492A1F683A29CF1B95C8915538E42C44
310
8FF4B2291E67A05CCCB3D15244845C9D8C670F678BB6B1EFB25723788FEE76D5AFD718769A7116F504D9213D88088AF255DDB445DD17ABE6B5A9376DBFE99E1EEAC74D5BB32AD9391B9D33F912C680773391CE46B091F28655697C0F5FF611A53DB276FEF80B900820B79EE95C33FE924FD3B75DF78F7CAAD3FB465C1EFF02
310
FE0D504B03041400060808009754D5425808C9D2630700009A1B0000340000006662782F38304233444444312D324634422D343043412D383934412D3744334537343330384532352F6F626A656374732E786D6CED59DD73A33610FF5718FAD23E181BDBF1251D4227B19B1BCF35ED4DDDEBF4C1338C0C3251230423895CDC
310
BFBEAB0F301093E0367DEB830D0869B5FBDB4F2DC10FCF19759E30172467D7AEEF4D5C07B3384F084BAFDD52EE4797AEF34318F03C978D69AEC35086AF5D35EC8641CAF3B2B04309DEA392CACEE8DDED1F8E8831C3AE135324C4B52BE2079C210F95324FB078F412249197EE9F3DDF3313DB64538E8A870ED10271CC24700A
310
E30CA8388629BFFD3871C7613056EFC340FDDB59B341B3E6FDB3C65AEA369784098958FC82A50E99D9209666FE7CF5E3F4E26A74319FCF46F3C5D41FDDDEDDAE46FE87D964B9582EAF6E7EBC02F676794EAD4C092E304B407F0737F483B17A538B6E1138C5759C3386630D2440A5C5EA122458C0560DF826ED475F49D478AD
310
256C3CCFD57BCB426378D6A6D2376B18102DBA2088DDAE92B8BA36E5CB777F82E0628851728125702B2407ED5A783878851B4E82B1190D83DD5117443819929813441D4A761C71500A4C5553C2C02CB06494737020E52809B4E6CCEBB66D8167BEED3AA7B8DC97942ACF7043ED5811B81F96427346FEC2FCC87D1319E009A4
310
2D099397964B7928B01B5E05633D1806EA329BDA970648674F512A3422E66D47D0A572FDF5CA0D3FDDED9E372A1C9CDEBCE07981B95446A7F4A8F90243B6578592DDD61FA439B5008431A0DA9547507E05E47F86E8716405F4C6C9F3FC796EE74A8E98D8E73C03DD3813673481BF89E3EB7F75DFB80BC6F5E2B6F6FAF00437
310
55505DFE7B3CDB3268AC2CFF0D38C3E0090C3EE733FB6A13230AF67C4F1800A48CC4A1390C4168DFEF9EDD700D8113023DAC4234F4416460F7096E83B12573D44AE55ED6EB18206AF7980D5112C0A62D12D8E8D1D347C81E9CC447353545EC83F7E25DCCF566B5F9B429F91EC5F8DEFAF40AEF092312B2E669865A98B7247A
310
C487AF394F40D097786F9A7867762B01682BCC15F06905827A38EEDCDA20867569AEC24DF0C60E2084CAD50DFAF744C49852C4705E56FBD6D14D196AEDF1B66670C3A9817836ED9830C74F445515E034C7192D4621EFC79C140A4437FC6824AB83A6D723DD97F5CF6091F5FC9E596B06A19721FA9B0E5A277068597685B405
310
A21678770CE7714E731EED0E9189742ED412C046DB5B7E6F1185586F94A4A8800769BFAB424A6AA48D12B2DF9702E2EA09167F5F2F9BE630F166FE85D3FCEF38E31CA22DF82EE2D6EF3A7B442443298EF628E9DBAEB95B4D5B68923DA439DE53908B3C117988908C26094ECF81E62CE257EF4A3DA5B910846101F9EA24F84D
310
34261E0412A3CD8A65A5D50ED044441996889E838022D303AE4E3BBAC68DA174789BC7DA7A5FD35893E87F64111C412D99B38840290A39E44DC67DEF0262481B5D8372075FB0B68AB61683965042C487E82B26E9833C077543BE07F7188E24A58CF202C560D603C8BEF015A5D40EEF3B143FAAFC11C5257D2F031198EE2342
310
699945F0230C4E1E435CBB0E4CAFA2D0206E629FC419146548967CC8268B8BC98B7D4CCDD00D818D8DF68442D88E3254F4A0DE0A88BA1E716AF02DF51EA5EECAAC885096976C90A178B3AE3759F25DB52AB203F955A522948D15614B300C08937556AD623698BA0EACE0463A501D2281B2829A53D81B89C7AFBD4953EEDD80
310
5B3F7DDF0D3228FC7AB4D78CA8F30A06CB63AB30105F918C1FDC70A3AFA35BA8BF139C1C537D556B362B40404C45F29213ABA22F6B286F6C8DE686F7488AED479375ABEB97B507DD8F600C6BA076A917AE15D0196612A9CAE45EDDD05F1184E0160D33BE5639F51C2A3749A2AB4644EF489F3A5B65446BD38C78C503667906
310
3FB6252CA66582B728118FD1BDA4D18628D6AD945E462A8C5F15F0978F9B0E3C303240A4CFAAC0C35F3B6BEDE852954B2789C88732DB31442008B6444B8D6EBC82A556239596EBAB3A5340DD050666553CFFFF64D16C47FC7FB248AD61FCAB93C5EDE1277468F6451AE93C56767DD631A0CE4F8ACA7B1C0374DBA1A65A6711
310
93CCADFCD69922088A55941F5C8D5541C310ECE3F81F67EDBE2C68B6EBF07F5ED6F65F541C676595D664D5A53A51B9AE9B39EC7236FB309DDEDE8C6E56F3BBD17C329F8CAE96B777A3E587C9CDC562B1982F568B1A4DEDA8615007339DBBE0D904B56A583D590CA02B2B724A1238CD274E8A21E64B38D30F689FF30C0B489E
310
CD6677629BF203563F993EA7443B8A2B4E1E103488A980B40E1895B16C8F3BDF406B52C241FBDA85A691F7087FD62A5D0732CFB50BAD0249622CBC1DB49954434F138794AB73BF2506F82096AA946816D5CFF52A854D2BFCD75386A4012B57AB8701855B01DDAF568742F366798ACF12BC62C741126E77A5846ACDC8721CA8
310
85D1DB1CD56F64A3843DDAAD9FC1755F17CBF7F49C1622833E19BC6A0486EA48229EEA7EB762CCB274B3FA3C863E9BB3FEC5296899822E87531A710CC65CAA820AAC08ACC2D22C9004535D7EBFFDCC73F8C49339BA2A72BE7DBE5C7CB75DE659963333B4BD815359021F8A9CCD037CF649B6503C60D55C17DBE9C49F6E7553
310
DBF6D9A31D12D85355110C54C58412A4637260972F1A54B67D3956AAE84C5FAF1C1B44A11960ECE8458FD77CE472C087D4E714E531DACF2B695FED6B8FF554B0090E1DE9F06F504B03041400060800009754D542000000000000000000000000350000006662782F38304233444444312D324634422D343043412D38393441
310
2D3744334537343330384532352F76657274696365732E62696E504B03041400060808009754D542F270F1330600000004000000360000006662782F38304233444444312D324634422D343043412D383934412D3744334537343330384532352F747269616E676C65732E62696E636660600000504B030414000608000097
310
54D542000000000000000000000000370000006662782F38304233444444312D324634422D343043412D383934412D3744334537343330384532352F617474726962757465732E62696E504B03041400060808009754D542D5987DFC8F00000041010000360000006662782F38304233444444312D324634422D343043412D
310
383934412D3744334537343330384532352F6469726563746F72792E786D6C858F410EC2201045AF4266AF15DDB800BA74E7C21B903225242D6328188F2FA5C4183471359997F9FF81E89FF3C41E1816475E02DF1F80A11FC8386F25A438EECEC07A250251FC3803E6F58C12560C4AD840E95E91C151A72936F496F35732D8
310
60FE635F62C8F2DA16B505C545B74125BAA2FA9E05D7CC053D063734D5C7665FD55B6B8D15D5E9BFEAFD8490FFA45E504B03041400060808009754D5424BD3A785FE000000A00100003B0000006662782F38304233444444312D324634422D343043412D383934412D3744334537343330384532352F7265736F7572636573
310
2F636F72652E786D6C8D504B6E833010BD0A9A6D65B00305121947442927E8052C33A156828DFCA97AFC9A40A576D7CDCCE87D344F8F9FBFE647F689CE6B6B3A6039850C8DB2A336530731DC480BD95970676DF82583CCC8193B5861107C72362E3BA4AC096842428D1D7107A5F71820538F7474E0D507CE3297312485BFE7
310
8B54773961CEF244279DE03EB81420DB9EAC1384436FA353E879B1B182C7A8C75DA3C7F453DF343A106DCBAEC3B5AE49DB579454CDD092BEBEF464B8BCB1A12ADBA63F36BC58CD82073DFF64540E65C011C481B292D09A1CD83BA3A7B23E55CD0B7D3D959417ABFC8F292EE33F4D519B501EF6B89BCD836029C89310BC58FB
310
4AEB5966DA6BB7E21B504B010214000A00000800009754D5423DEE336E79000000790000001B00000000000000000000000000000000006175746F6465736B2D64657369676E2D7061636B6167652E786D6C504B010214001400060808009754D542D486FD9CA0000000F40000001300000000000000000000000000B20000
310
005B436F6E74656E745F54797065735D2E786D6C504B010214001400060808009754D5425878891DEC0000007C010000080000000000000000000000000083010000636F72652E786D6C504B010214001400060808009754D54255019EA25F0000007C000000070000000000000000000000000095020000636E782E786D6C
310
504B010214001400060808009754D542720354A668010000020300000C00000000000000000000000000190300006662782F636F72652E786D6C504B010214001400060808009754D5421EE434957E0000009D0000000B00000000000000000000000000AB0400006662782F636E782E786D6C504B01021400140006080800
310
9754D54202D570C02C010000140200003100000000000000000000000000520500006662782F38304233444444312D324634422D343043412D383934412D3744334537343330384532352F636F72652E786D6C504B010214001400060808009754D542EDDAD25456010000330300003000000000000000000000000000CD06
310
00006662782F38304233444444312D324634422D343043412D383934412D3744334537343330384532352F636E782E786D6C504B010214001400060808009754D5425808C9D2630700009A1B00003400000000000000000000000000710800006662782F38304233444444312D324634422D343043412D383934412D374433
310
4537343330384532352F6F626A656374732E786D6C504B010214001400060800009754D5420000000000000000000000003500000000000000000000000000261000006662782F38304233444444312D324634422D343043412D383934412D3744334537343330384532352F76657274696365732E62696E504B0102140014
310
00060808009754D542F270F13306000000040000003600000000000000000000000000791000006662782F38304233444444312D324634422D343043412D383934412D3744334537343330384532352F747269616E676C65732E62696E504B010214001400060800009754D542000000000000000000000000370000000000
310
0000000000000000D31000006662782F38304233444444312D324634422D343043412D383934412D3744334537343330384532352F617474726962757465732E62696E504B010214001400060808009754D542D5987DFC8F000000410100003600000000000000000000000000281100006662782F38304233444444312D32
310
4634422D343043412D383934412D3744334537343330384532352F6469726563746F72792E786D6C504B010214001400060808009754D5424BD3A785FE000000A00100003B000000000000000000000000000B1200006662782F38304233444444312D324634422D343043412D383934412D3744334537343330384532352F
310
7265736F75726365732F636F72652E786D6C504B0506000000000E000E0080040000621300000000
  0
XRECORD
  5
17
102
{ACAD_REACTORS
330
12
102
}
330
12
100
AcDbXrecord
280
     1
270
     1
271
     1
  0
XRECORD
  5
16
102
{ACAD_REACTORS
330
12
102
}
330
12
100
AcDbXrecord
280
     1
270
     1
271
     1
  0
XRECORD
  5
18
102
{ACAD_REACTORS
330
12
102
}
330
12
100
AcDbXrecord
280
     1
270
     1
271
     1
  0
XRECORD
  5
15
102
{ACAD_REACTORS
330
12
102
}
330
12
100
AcDbXrecord
280
     1
270
     1
271
     1
  0
XRECORD
  5
24
102
{ACAD_REACTORS
330
22
102
}
330
22
100
AcDbXrecord
280
     1
270
     1
271
     1
  0
XRECORD
  5
23
102
{ACAD_REACTORS
330
22
102
}
330
22
100
AcDbXrecord
280
     1
270
     1
271
     1
  0
XRECORD
  5
BA
102
{ACAD_REACTORS
330
22
102
}
330
22
100
AcDbXrecord
280
     1
 70
     1
 90
1959938040
 71
     1
  1
C4D0CDE6-2BFE-417F-9BCD-8C5E5D8B542D
311
504B03040A00000800009654D5423DEE336E79000000790000001B0000006175746F6465736B2D64657369676E2D7061636B6167652E786D6C3C3F786D6C2076657273696F6E3D22312E302220656E636F64696E673D227574662D3822203F3E3C666F726D6174733E3C666F726D61743E687474703A2F2F736368656D612E
311
6175746F6465736B2E636F6D2F64657369676E2D7061636B6167652F323030393C2F666F726D61743E3C2F666F726D6174733E504B03041400060808009654D542D486FD9CA0000000F4000000130000005B436F6E74656E745F54797065735D2E786D6C7D8EC10E82300C865F65E91D8A1E8C310C0EEA1BF002731658846E
311
D98AC1B77784ABF1D8FE5FBFBF75BBCE937A534CCEB38643598122B6FEE978D0B0485F9C41B54DDD7D022595594E1A469170414C76A4D9A4D207E29CF43ECE46F218070CC6BECC4078ACAA135ACF422C856C0E68EA1BF5669944DDD7BCDE7B1F8E415D77AECB980613C2E4AC91FC167A2B244592486606FC29C8FD7F045B9A
311
EF7053A7E60B504B03041400060808009654D542FFE645E5EA0000007C01000008000000636F72652E786D6C8D90516EC3201044AF82F6B7C206DBB11C0B13A56E72825E0001715062B00C543D7E2171A4F6AF5F3B1AE6B1AB6187EFF98EBEF4EA8DB303D08200D2563A65EC34400C17DC013A70B63A177EC5005931EB01B2
311
0D9C4DAB8BCB66496783B621B9D629BD99C27B1D00C97B12037879D5B328440C29E16FC522E44D4CBAA02F95E0188D42CF2546A5FFCCC5E815F8D8905D33D2137E3FB5356EBA2349AA3BE3B63A7FD0B1ADF6C73D656586390B667EED97AB16412BE015A135262DAEE827257DDDF64DF346767D4D5899E37FA0B8A87F42D1D8
311
5057DBB94FCC03CF873C1E382B7317693C8A4A33F7C67F00504B03041400060808009654D54255019EA25F0000007C00000007000000636E782E786D6C4DCB3B0E80201045D1AD90E915ED2CF8AC45050C11660C8261F98AB1B07AC9C97D42D718D865D3E909258CFD00CCE24AC6E326A164D74DC0B4128928FF326038472B
311
A13128B1252AC747C6BAB984FC68F0B87FE8960A5C09FE86CFB69FBA01504B03041400060808009654D542C15EB80966010000020300000C0000006662782F636F72652E786D6C8D52ED8E8230107C95A67F2FD01690A829359EA74F702F50A17244684969898F7FCB87E1BC1863484A33B3B33B3BC077B7A646BDB25D6574
311
86594831523A3745A5CB0C7B7709D618ED04B7C6B83F651869D9A80C0F3016BCB4C6B733941BED9476806A53A819945DA71C46790D970C77F98F6A6428BD838AEE1AB632BFCA52852C041AEA04EF9C0503681A329C585CCE374E265C70EFAB6266AB02A655974A592C0E095D2507760C3E8F691C24EB3D85DBFA14A4D1E98B
311
1DD268B3DF304E06B1E0AE6AEEEE72ABA453051611657140D32062DF8C6EE3749B241F74B58D292743F983C8B7C59B225F691747B3DD49D661311819897FDB42440E75B2073F4470328408AF31E1C7A0211008D9C9737DDFE30A50AF72676C024C61FC42F5B2F60AA652343E9C4C2C741E1BC0664FFB442FFABCEE011F50EA
311
12AC4907D7B377C3743E4D9DA368950D7A7743DAD846D68BB9C9E2722E839ECA73531BFB8E9ACCAB92394C32FCBDE217504B03041400060808009654D542503D59AD7E0000009D0000000B0000006662782F636E782E786D6C4DCCD10A83201886E15B91FFDC65A2AE408DB5D97DC4B290990EA76397BF1A1DECE883878F57
311
769FD5A3B74D2F178382FA4400D9708F930B8B829267DC00EAB44C31E6BF1BA030AE56C1CEA0E59262791E34D9792C3E6FEA5D781C38704A0CE50DA6A4BE61D6F6065F4C6BB0B80E8CB2B310BCA7506959FD4ADBEE61FD05504B03041400060808009654D5421A56D0F42C01000014020000310000006662782F4635323045
311
3235382D323031442D343942452D414539452D3643463432343736363542322F636F72652E786D6C8D515B6EC32010BC0AE22B55850D36260F61A2A6754ED00B3898A42831583CAA1CBF503B52FB971F16CDCECC8E76F9FE3EDEC0B7725E5BD342526008949176D0E6D2C218CE6803C15E70676DF84383C0F4A36A6186A1E0
311
1767E3B440D29AA04C48A8B1835AC0DE7B152090B7F469A1975F6AEC8B3E86C4F0D762EAE5B5BFA88214A99D7882FBE05200300FC92F14C7A6C25DD56C5085C907A2DB4387DEBA6D87D8FB915674CD5873A878390B058F510F8B5C0F298E3E6BE59E35C962C1831E1FF1A5537D50031469768D304315F9247857B31DA5AFB8
311
D9D5989799FE4F14A7E14951D426D4D51277967928082FE786E0838DA7DB238CBA4FD60590E7ADBC922F50E0021352D3A6DEF272A6A605244F46174F1FAC4B0B5E5D4F894D9AD99851C1CB7CA3547E0F986ABEA7F801504B03041400060808009654D542884291D14E01000033030000300000006662782F46353230453235
311
382D323031442D343942452D414539452D3643463432343736363542322F636E782E786D6CD593CD6EC32010845F0571ADFC17BB51156122F5D027E8A1570C9B840683C54FD5BC7D9784A4B9E4D0632FC89A1D66569F30DB7ECF867C810FDAD99176754B0958E994B6FB91A6B8AB5E28D972E69D8B77364AAC9861A459A69C
311
EDBD4B4B9114EC44321155A3EDB1881E824B5E424039DF24C6496130006C9550847902A540919B11BF76E0711514A7138907206FAF1FC44D9F2063604D4EE1ACC91D9CE5B334DD992891468430D2200F308B5AA4E8148463AD441475575FBB1EECF49B44F2856B65F29AE4F291E693F2B2518D1C598343CE42F448AF98E269
311
01CAC5B2182D4544C8CDD978F17096B48DEBA1783582F7E8EED6FD3060D879C659D4331487F4202228CA576DD757EDBA5A75EF5DBBE9D79B61786A9F377DCB9A6CE76C72CE944B1803DE2D443A1BC146CA3BD6E4F1237CC54794F6C8DAF9D31F402280D27AA173CBF8CF7C9AF3FB465C1EFF02FE03504B0304140006080800
311
9654D542FC168379A505000080100000340000006662782F46353230453235382D323031442D343942452D414539452D3643463432343736363542322F6F626A656374732E786D6CAD57DB6EDB3810FD1541FBB2FBE08B6C274D168A8AD84E0AA3485BD468B10F060C4AA2146E2851A0A8C4D9AFDF43919225D74EBD8BBE58
311
16351CCE9C3973A1FF7E9771E799CA9289FCC6F58663D7A179246296A7376EA592C195EBBC0F7C2984EA88B94E4E327AE3EA6537F05329AAC22EC53421155707ABF7F3BF9C32A239759D8893B2BC71CBE8916664482A25625A3E0D63A2C8304D76436F6804FB6A53498AC703A505913457B014EB39B438C628AFFF3A764781
311
3FD2DF035FFF5AA9E969A951ED4FFF7C96978AE4D10F871DA8997AB3E5DDE4E27A70319B4D07B3CB893798DFCF9703EFDD74BCB85C2CAE6FEFAE7170A92434594B244DDCE003B0912CF247E653E0572C57D38915B1011A49FACC74A4DC60E278FEC8C8B4DE59278F991F893CA7518D15D0A8FDB3AA635AD03C46CC192D6159
311
07A171FFD5D338763E4FF5BB3DB2BB7C1E02DD1D1D458DEDCDB36BA908FF860BE5390C9225D50C34585A470D57C77B844321B8FDC64A27238A4A46B8C35928897C7503886A91C0EFA9D14C963A1BB4076E802898CF7DBA208D7ECEF363562615E79AC66E5067C116B94255595BC6FEA1726F7D1719D8845869365C5987D46B
311
41DDE0DA50E4EA804D064827E12445C8E1A6DE399D1C38BAD079BA5ABAC1C7FB70B7D6B97BFCF0428A824AA5E9036A35816B9E1A256B937756E4F406F7C0943D285F81FC27A4FADE14C44DB2DD6C37B3A72849F2321132436C9CB13318E367EC78F5AFFEDFF9E78FDACDFDE89DC213C1D650FD023CFB3E7463D98133F09F41
311
7821A7D6B5754438CAC603CB01902689C3059650879370E7062B54395465EC223CF0E032CC7DC65F7F64D5A050D427759E39B03C288B671468C05633126618F25B03F771FAA19CD5075BB153F05EFC12BADE2ED71FD7954C48441F6C4E2F69C272A6D0E2F6BCE91AD4C3BCE7D1137D7D113286A33FE2BDEEE29DD9A34AA0AD
311
31D7C0A74D4DD72FFB937B0744D8970A5D6EFC9F9C00277463EDE87F606544392739155573EE9BFD036DC340AC935D33B96D30FBC602D2982F073988261D49566810DB6ED516CDE109EFBEAD3E819190E722247C2F14EE4B6F24B890DBF0756BAAD251A4BFF7A96D2118692D607B9D234DFA5BCCB7314B92AA440D3C02EBF7
311
D5A21B3A5D1550211AAD265966701FB945A4E56CA317CD5A123452916F19DA26D2EEE8015DFD40D412A05678CAE292F264CB38AFB26DC2389AD13623C50938FEBFFD6195155B92892A572774F74C4773E8DBDE236FF94254F4E806EBFA3998A3F4C634DE87B927AC5BC911AC7AA15DCC96E3C5F2EE723099DFDF0D66DEBBFB
311
C1F57CB11C5C2D2EEE2E9657F38BD964D9C4C9280FFCA6D374131A514267F32BC96CF8BEAD903EB606B8C10351E5E683C9CEE6F96D35C428EC8FB007EDB2DD781B3F63ECA3F1CF15EC258F2A5A6505A719CD15D129F4A0FFF0AF046346CF18B3BECA484ACFD0F2F9C3FAC019AC9CB1EF8B4E77FA72B0D7AE2E74421E55A21E
311
AB2CCC09E3071B5383E4B0C8538B5F1393F669FA4CF3AADF6C6030989682B318653076522A32AA500CCFE84132A325A8D71DE9637BF53863F7B319101509396D2C792498917989B400B5AA48F5D79DDF30D3E9B1EAC645B71D3EE1C7560AD701676E5CCCE88A45B41C86E8CF7A12AA95834BDD411E733FC9538E51DB6C6ADF
311
DB5D1A9B5E476E45CE199FAC5FA6825B0750460A8C0D9887109DDA98C0AF6DB3DFA3FFE478638E4314FE86956A7DD92FB4CED4C720458D53F6B28019E6C91EBD43A2BEED9637AC657A889C75C97A930446EB401199D617056D9F35E976F9658401C5597D760A5EA588E5F99A069282CC954E70B008ACB03A0BA240D5C59F9B
311
2F52E0229B39F70C14707EDF5D5DFEB159882C13B959DADCDAEBB0B37EC4E536DEA038507D2B293793B137D9D4B7017B41D986A4A44312974F584064256B81EE851FBC345746F421F3A1951BE9501C3074B5746C639B41A9A54BB7B66A703077E4D4410EE91BA5CE98AE40F1E68560548BC20489513EF817504B0304140006
311
0800009654D542000000000000000000000000350000006662782F46353230453235382D323031442D343942452D414539452D3643463432343736363542322F76657274696365732E62696E504B03041400060808009654D542F270F1330600000004000000360000006662782F46353230453235382D323031442D343942
311
452D414539452D3643463432343736363542322F747269616E676C65732E62696E636660600000504B03041400060800009654D542000000000000000000000000370000006662782F46353230453235382D323031442D343942452D414539452D3643463432343736363542322F617474726962757465732E62696E504B03
311
041400060808009654D542D5987DFC8F00000041010000360000006662782F46353230453235382D323031442D343942452D414539452D3643463432343736363542322F6469726563746F72792E786D6C858F410EC2201045AF4266AF15DDB800BA74E7C21B903225242D6328188F2FA5C4183471359997F9FF81E89FF3C4
311
1E1816475E02DF1F80A11FC8386F25A438EECEC07A250251FC3803E6F58C12560C4AD840E95E91C151A72936F496F35732D860FE635F62C8F2DA16B505C545B74125BAA2FA9E05D7CC053D063734D5C7665FD55B6B8D15D5E9BFEAFD8490FFA45E504B03041400060808009654D542EC4D6B7DFC000000A00100003B000000
311
6662782F46353230453235382D323031442D343942452D414539452D3643463432343736363542322F7265736F75726365732F636F72652E786D6C8D504B6E833010BD0A9A6D05D8401041C6514A9A13F4029699502BC146FE543D7EED40A576D7CDCCE87D344F8F9DBE9647F689D629A307A005810CB53493D2F300C1DFF2
311
0EB21367D618FF4B0699160B0E9060E06CB626AC3B248DF6A87D44B59970078573E821938F780CE0E4072EA210C14785BB17AB90773163418B48471D67CEDB1820DB9EA409DCA233C14A74ACDC58CE4250D3AE5153FCA96E0A2DF0B1218766A497FCF5ADADF3A63B937875D7BCADAE173AB6D5F17CA4AC4C66CEBC5A7E324A
311
8BC2E304BC22B4CE499B57F49D92BE6EFBA6792187BE26AC4CF23FA6B04EFF3405A57D5DED71379B039E823C09CECAD4575CCF32E34EDDF26F504B010214000A00000800009654D5423DEE336E79000000790000001B00000000000000000000000000000000006175746F6465736B2D64657369676E2D7061636B6167652E
311
786D6C504B010214001400060808009654D542D486FD9CA0000000F40000001300000000000000000000000000B20000005B436F6E74656E745F54797065735D2E786D6C504B010214001400060808009654D542FFE645E5EA0000007C010000080000000000000000000000000083010000636F72652E786D6C504B010214
311
001400060808009654D54255019EA25F0000007C000000070000000000000000000000000093020000636E782E786D6C504B010214001400060808009654D542C15EB80966010000020300000C00000000000000000000000000170300006662782F636F72652E786D6C504B010214001400060808009654D542503D59AD7E
311
0000009D0000000B00000000000000000000000000A70400006662782F636E782E786D6C504B010214001400060808009654D5421A56D0F42C0100001402000031000000000000000000000000004E0500006662782F46353230453235382D323031442D343942452D414539452D3643463432343736363542322F636F7265
311
2E786D6C504B010214001400060808009654D542884291D14E010000330300003000000000000000000000000000C90600006662782F46353230453235382D323031442D343942452D414539452D3643463432343736363542322F636E782E786D6C504B010214001400060808009654D542FC168379A50500008010000034
311
00000000000000000000000000650800006662782F46353230453235382D323031442D343942452D414539452D3643463432343736363542322F6F626A656374732E786D6C504B010214001400060800009654D54200000000000000000000000035000000000000000000000000005C0E00006662782F4635323045323538
311
2D323031442D343942452D414539452D3643463432343736363542322F76657274696365732E62696E504B010214001400060808009654D542F270F13306000000040000003600000000000000000000000000AF0E00006662782F46353230453235382D323031442D343942452D414539452D364346343234373636354232
311
2F747269616E676C65732E62696E504B010214001400060800009654D5420000000000000000000000003700000000000000000000000000090F00006662782F46353230453235382D323031442D343942452D414539452D3643463432343736363542322F617474726962757465732E62696E504B01021400140006080800
311
9654D542D5987DFC8F0000004101000036000000000000000000000000005E0F00006662782F46353230453235382D323031442D343942452D414539452D3643463432343736363542322F6469726563746F72792E786D6C504B010214001400060808009654D542EC4D6B7DFC000000A00100003B00000000000000000000
311
000000411000006662782F46353230453235382D323031442D343942452D414539452D3643463432343736363542322F7265736F75726365732F636F72652E786D6C504B0506000000000E000E0080040000961100000000
310
504B03040A00000800009654D5423DEE336E79000000790000001B0000006175746F6465736B2D64657369676E2D7061636B6167652E786D6C3C3F786D6C2076657273696F6E3D22312E302220656E636F64696E673D227574662D3822203F3E3C666F726D6174733E3C666F726D61743E687474703A2F2F736368656D612E
310
6175746F6465736B2E636F6D2F64657369676E2D7061636B6167652F323030393C2F666F726D61743E3C2F666F726D6174733E504B03041400060808009654D542D486FD9CA0000000F4000000130000005B436F6E74656E745F54797065735D2E786D6C7D8EC10E82300C865F65E91D8A1E8C310C0EEA1BF002731658846E
310
D98AC1B77784ABF1D8FE5FBFBF75BBCE937A534CCEB38643598122B6FEE978D0B0485F9C41B54DDD7D022595594E1A469170414C76A4D9A4D207E29CF43ECE46F218070CC6BECC4078ACAA135ACF422C856C0E68EA1BF5669944DDD7BCDE7B1F8E415D77AECB980613C2E4AC91FC167A2B244592486606FC29C8FD7F045B9A
310
EF7053A7E60B504B03041400060808009654D54207ED8139EC0000007C01000008000000636F72652E786D6C8D90416E83301045AF62CDB632D8180820E328A2CD097A01CB38C44AB011B6AB1EBF262152BBEB6A467FFE9B197D7EFC9EEFE84BAFDE38DB03CD08206D951B8D9D7A88E1821B4047C157E7C22F1B202B67DDC3
310
2683E0D3EAE2B24BCAD9A06D48AA75A3DE45E9BD0E80D43D353D7875D5B3CC640CC9E16FD922D54D4E3AA3AF2EC1319A113D8F9831ED3317A3571055D19CEBE6A3C6CDE15CE292152D3E55ED013703ABDE4F64182ADAF27C83050F667EDD57AB96418F200A421926352EE827251DABBBB27C2355C708CF37FB1F282EE33FA1
310
686C60C5FEEE13F320687AE431103CDFB248E51154AA5B6EE207504B03041400060808009654D54255019EA25F0000007C00000007000000636E782E786D6C4DCB3B0E80201045D1AD90E915ED2CF8AC45050C11660C8261F98AB1B07AC9C97D42D718D865D3E909258CFD00CCE24AC6E326A164D74DC0B4128928FF326038
310
472BA13128B1252AC747C6BAB984FC68F0B87FE8960A5C09FE86CFB69FBA01504B03041400060808009654D5426355C4CC67010000020300000C0000006662782F636F72652E786D6C8D52ED8A8330107C9590BF478CDFB525A694DEF509EE05524D3DA9261213E9E3DFFA51BC1EA5142186999DDDD951B6BFB50D1AA4E96B
310
AD721C783E465215BAAC559563672F24C368CF99D1DAFE29C3488956E67884316795D1AE5BA0422B2B950554E9522EA0E87B69312A1AB8E4B82F7E642B3CE12C54F457AF13C55554D20B3CA0A18EB3DE1A3080E621E389F9E57C6374C63973AE2E17B62E615A7DA9A5C13C09B3539A7DA524DB9C621247E1961C92ED8664C7
310
28F93CF8C763126C191DC59CD9BABDBB2B8C14569698877E10113F2561F01DF8BB28DDC5F1879FEC229FD1B1FC41E4BAF24D91AB958DC2C5EE2CEB310FC0C844FCDB1622B2A81703F8A19CD13144784D093F060D8140C8569C9BFB1E57800659586D62604AED566A108D9330D547D3C3E8CC42E7A9016CF6B44FF8A2CFEB1E
310
F00185AAC09AB0703D3B3B4E67F3D4258A4E1A32D81B52DAB4A259CDCD16D7731DF4545EE8469B77D47459952E61D2F1EFE5BF504B03041400060808009654D542EF4623087E0000009D0000000B0000006662782F636E782E786D6C4DCCD10A83201886E15B91FFDCA5ACE9023566E57DC4B290990EA76397BF1A1DECE883
310
878F57B49FD5A3B74D2F1783047A22806CB8C7C9854542C933BE026A954831E6BF1BA030AE56C2CEA0C49262791E34D9792C3E6FEA5D781C38984B37F09EE0869C39AE19D5B8A1B5C6CC74DAD09EDD34E1502951FD4ADBEE61F505504B03041400060808009654D5425CB25F732C01000014020000310000006662782F4546
310
3543453744302D393033372D343631422D393134422D3646434246314436414230372F636F72652E786D6C8D515B6EC32010BC0AE22B55850D7EE024C244751E27E805884D5294182C1E558E5FA81DA9FDCB0F8B66676647BB6CF718EFE05B5AA78C6E21C9300452F76650FADAC2E02F680DC18E336B8CFF4383408B51B630
310
C190B3AB35615AA0DE682FB58FA836835C40E19CF410F4F7F869A1EBBFE42832117C64B85B3689FE26AE3223596C471E67CEDB1800CC43D20BF9F154EF8FCD01A30D2E1B5451D2A10DA93A444FFBEE440EF4A3C30DCB67216721A86191AB21C6511725EDAB2649CC9957E3337E6FA5F07280BCC0A44498A2827C12BC2DE9B6
310
AADE71BD2D31CB13FD9F284CC38BA2A0B42F8B25EE2C73901396CF0DCE0613CEF76718F9988CF520CD5B39D9BF418E334C0ADCD49B9AE533352E207AD26AF174DED8B8E0D5ED1CD9E5624C2BCEF274A3587E0F186BBA27FF01504B03041400060808009654D542EEE55EC65501000033030000300000006662782F45463543
310
453744302D393033372D343631422D393134422D3646434246314436414230372F636E782E786D6CBD93CD6EC32010845F0571ADFC17BB56146122F5D027E8A1570C9B84068305B86ADEBE4B42D25C72A854F582ACD96166F509B3EDD764C827F8A09D1D6853D69480954E69BB1FE81277C59A922D67DEB97867A3C48A0906
310
9A64CAD9DEBB65CE92829D584C44D5687BCCA287E0162F21A09C6E12E3A4301800B65850846904A540919B11BF76E0711514C713890720AF2FEFC48D1F206360554AE1AC4A1D9CA53337DD992891468430D0200F3089522CD12908C7528928CAA6BC763DD8E92789A40BD7CAC56B92CA079A4ECAF346257264150E390BD123
310
BD6C8AA7192817F36CB41411215767E3C5C3D9A26DECBBECD508DEA3BB5DF5EB35869D679C453D4176480F2282A27C55376D51F7C5AA796BEA4DDB6FBAEEA97EDEB435AB929DB3D139932F610C783713E96C041B296F5895C68FF0651F51DA236BE74FBF00890072EB85CE2DE32FF9347DDB75FFC8A73ABF6FC4E5F12FE0DF
310
504B03041400060808009654D5426115E86D62070000991B0000340000006662782F45463543453744302D393033372D343631422D393134422D3646434246314436414230372F6F626A656374732E786D6CED595B73A33614FE2B0C7D691F8C8D2FD9A443E82476B2E3D9C9EE4EDDEDF4C1338C0C3251230423896CD25FDF
310
A30B188849709BBEF5C106847474CE77AE3A04BF3C65D479C45C909C5DBABE37711DCCE23C212CBD744BB91F9DBBCE2F61C0F35C36A6B90E4319BE74D5B01B0629CFCBC20E25788F4A2A3BA3B7D77F3822C60CBB4E4C911097AE88EF71863C54CA3CC1E2C14B90445EBA7FF27CCF4C6C934D392AEE3B440BC43193C0298C33
310
A0E218A6FCF6E3C41D87C158BD0F03F56F67CD06CD9AF7CF1A6BA9DB5C12262462F10B963A646683589AF9F3D5CD7471315ACCE7B3D1FC6CEA8FAE6FAF5723FFC36CB23C5B2E2FAE6E2E80BD5D9E532B53820BCC12D0DFB31BFAC158BDA945B7081CE33ACE19C3B10612A0D2627509122C60AB067C93F6A3AF246ABCD61236
310
9EE7EABD65A1313C6B53E99B350C88165D10C46E57495C5D9BF2E5BB3F417031C428B9C012B8159283762D3C1CBCC20D27C1D88C86C1EEA00B229C0C49CC09A20E253B8E382805A6AA296160165832CA3938907294045A73E675DBB6C033DF769D635CEE4B4A9567B8A176AC08DC0F4BA139237F617EE0BE890CF004D29684
310
C973CBA57C2EB01B5E04633D1806EA329BDA970648674F512A3422E66D47D0A572FDF5CA0D3FDDEE9E362A1C1CDFBCE07981B95446A7F4A8F90243B6578592DDD61FA439B5008431A0DA9507507E05E43F43F438B0027AE3E469FE34B77325474CEC739E816E9C89339AC0DFC4F1F5BFBA6FDC05E37A715B7B7D78829B2AA8
310
CEFF3D9E6D19345696FF069C61F008069FF3997DB58911057BBE230C005246E2D01C8620B4EF774F6EB886C009811E56211AFA2032B0FB08B7C1D8923968A5722FEB750C10B57BCC86280960D316096CF4E8E923640F4EE2839A9A22F6C1BB781773BD5A6D3E6D4ABE4731BEB33EBDC27BC28884AC799CA116E62D891EF0F3
310
F79C2720E84BBC374DBC33BB9500B415E60AF8B402413D1C766E6D10C3BA3457E1267863071042E5EA06FD3B22624C2962382FAB7DEBE8A60CB5F6785B33B8E1D4403C9B764C98E347A2AA0A709AC38C16A390F7634E0A05A21B7E3492D541D3EB91EEDBFA3358643DBF67D69A41E86588FEA683D6111C5A965D216D81A805
310
DE1DC2799CD39C47BBE7C8443A176A0960A3ED2DBFB78842AC374A5254C083B4DF55212535D24609D9EF4B0171F5088BBFAF974D739878337FE134FF3BCE3887680BBE8BB8F5BBCE1E11C9508AA33D4AFAB66BEE56D3169A640F698EF714E4228F443E4748469304A7A7407312F18B77A59ED25C08C2B0807C7514FC261A13
310
0F0289D166C5B2D26A076822A20C4B444F414091E90157A71D5DE3C6503ABCCD636DBDAF69AC49F43FB2088EA096CC5944A014851CF226E3BEB78018D246D7A0DCC117ACADA2ADC5A0259410F173F41D93F45E9E82BA21DF837B0C4792524679816230EB01645FF88A526A87F71D8A1F54FE88E292BE9781084CF711A1B4CC
310
22F81106278F21AE5D07A65751681037B14FE20C8A32244B3E6493B3C5E4C53EA666E886C0C6467B42216C47192A7A506F05445D8F3835F8967A8F527765564428CB4B36C850BC59D79B2CF9AE5A15D981FCAA5211CAC68AB025180684C93AAB56311B4C5D075670231DA89E2381B2829A53D81B89C7AFBD4953EEDD805B3F
310
7DDF0D3228FC7AB4D78CA8F30A06CB63AB3010DF918CEFDD70A3AFA36BA8BF139C1C527D556B362B40404C45F29213ABA26F6B286F6C8DE68677488AED479375ABEBB7B507DD8F600C6BA076A917AE15D0196612A9CAE44EDDD05F1184E0160D33BE5639F5142A5749A2AB46446F499F3A5B65446BD38C78C53D6679063FB6
310
252CA66582B728110FD19DA4D18628D6AD945E462A8C5F15F0CBC74D071E181920D25755E0E1EF9DB57674A9CAA5A344E47D99ED182210045BA2A546375EC152AB914ACBF5559D29A0EE0203B32A9EFF7FB268B623FE3F59A4D630FEDDC982E63B440FD1A691CD6365D6279D02EAF4A4A8BCC72940771D6AAA751231B9DC8A
310
6F7D2982985805F9C1C55815330CC13E8EFF71D2EE4B8266BB0EFFA7256DFF45C1715252694D564DAA2385EBBA99C296F3D564B9BA391B4DAF6F6F4673FFC3EDE8E27AB91A9D2F17378BD5F9F5623E5DD5686A3F0D833A96E9D405CF26A655C3EAC962004D59915392C0613E71520C215FC2917E40F79C675840EE6CF6BA13
310
DB931FB0FAD1B43925DA515C71728FA03F4C056475C0A88C657BDCF9013A9312CED9972EF48CBC07F8B356E93A90782E5DE814481263E1EDA0CBA4FA799A38645C9DFA2D31C007B1546544B3A87EAE57296C5AD1BF9E32240B58B95A2D0CA8DB0A687EB51A149A37CB537C92E0153B0E9270BB2B25146B4696C3402D8CDEE6
310
A07E231B25ECC16EFD04AEFBBA58BEA7E7B41019F4C5E0552330544712F154B7BB156396A5ABD5D731B4D99CF517A7A0650ABA1C4E69C4311873A9EA29B022B00A4BB340124C75F9F3F62BCFE10B4FE6E8A2C8F9F1E9FCECA7ED32CFB29C99A1ED151CCA12F84EE46CEEE1AB4FB285DA01ABDEBAD84E27FE74AB7BDAB6CD1E
310
ED90C09E2A8A60A0AA2594201D9303BB7CD19FB2DDCBB1524567FA7AE5D8200ABD0063472F5ABCE61B97033EA4BEA6288FD17E5E49FB6A5B7BACA7824D706848877F03504B03041400060800009654D542000000000000000000000000350000006662782F45463543453744302D393033372D343631422D393134422D3646
310
434246314436414230372F76657274696365732E62696E504B03041400060808009654D542F270F1330600000004000000360000006662782F45463543453744302D393033372D343631422D393134422D3646434246314436414230372F747269616E676C65732E62696E636660600000504B03041400060800009654D542
310
000000000000000000000000370000006662782F45463543453744302D393033372D343631422D393134422D3646434246314436414230372F617474726962757465732E62696E504B03041400060808009654D542D5987DFC8F00000041010000360000006662782F45463543453744302D393033372D343631422D393134
310
422D3646434246314436414230372F6469726563746F72792E786D6C858F410EC2201045AF4266AF15DDB800BA74E7C21B903225242D6328188F2FA5C4183471359997F9FF81E89FF3C41E1816475E02DF1F80A11FC8386F25A438EECEC07A250251FC3803E6F58C12560C4AD840E95E91C151A72936F496F35732D860FE63
310
5F62C8F2DA16B505C545B74125BAA2FA9E05D7CC053D063734D5C7665FD55B6B8D15D5E9BFEAFD8490FFA45E504B03041400060808009654D5426F07DC08FF000000A00100003B0000006662782F45463543453744302D393033372D343631422D393134422D3646434246314436414230372F7265736F75726365732F636F
310
72652E786D6C8D504B6E833010BD0A9A6D65B03124808CA3286D4ED00B586642AD043BF2A7EAF16B122AB5BB6E6646EFA3797AE2F0B5DC8A4FF4C1383B022B291468B59B8C9D4748F1423A280E5278E7E22F1914562D38C20A8314B377E9BE41DAD9883666D4BA0937508580110A7DCBC708417FE0A24A956256846B7957FA
310
AA662C5999E9AC9322449F0314CF27EB04E931B8E43506513D59295232D3A63153FE692E063DC8B6EECEBBEEAD25DDFEDC9086D73D39B6FD9E7427DEBE1EE9E9D4B25E54AB598A68969F8CDAA38A3881AC29E384EE48CDDE191DF86E689A17DA0E9C8A6A95FF31A5FBF44F533236F27A8BFBB405902C07791052546B5F793D
310
CACC7BED567E03504B010214000A00000800009654D5423DEE336E79000000790000001B00000000000000000000000000000000006175746F6465736B2D64657369676E2D7061636B6167652E786D6C504B010214001400060808009654D542D486FD9CA0000000F40000001300000000000000000000000000B20000005B
310
436F6E74656E745F54797065735D2E786D6C504B010214001400060808009654D54207ED8139EC0000007C010000080000000000000000000000000083010000636F72652E786D6C504B010214001400060808009654D54255019EA25F0000007C000000070000000000000000000000000095020000636E782E786D6C504B
310
010214001400060808009654D5426355C4CC67010000020300000C00000000000000000000000000190300006662782F636F72652E786D6C504B010214001400060808009654D542EF4623087E0000009D0000000B00000000000000000000000000AA0400006662782F636E782E786D6C504B010214001400060808009654
310
D5425CB25F732C010000140200003100000000000000000000000000510500006662782F45463543453744302D393033372D343631422D393134422D3646434246314436414230372F636F72652E786D6C504B010214001400060808009654D542EEE55EC655010000330300003000000000000000000000000000CC060000
310
6662782F45463543453744302D393033372D343631422D393134422D3646434246314436414230372F636E782E786D6C504B010214001400060808009654D5426115E86D62070000991B000034000000000000000000000000006F0800006662782F45463543453744302D393033372D343631422D393134422D3646434246
310
314436414230372F6F626A656374732E786D6C504B010214001400060800009654D5420000000000000000000000003500000000000000000000000000231000006662782F45463543453744302D393033372D343631422D393134422D3646434246314436414230372F76657274696365732E62696E504B01021400140006
310
0808009654D542F270F13306000000040000003600000000000000000000000000761000006662782F45463543453744302D393033372D343631422D393134422D3646434246314436414230372F747269616E676C65732E62696E504B010214001400060800009654D5420000000000000000000000003700000000000000
310
000000000000D01000006662782F45463543453744302D393033372D343631422D393134422D3646434246314436414230372F617474726962757465732E62696E504B010214001400060808009654D542D5987DFC8F000000410100003600000000000000000000000000251100006662782F45463543453744302D393033
310
372D343631422D393134422D3646434246314436414230372F6469726563746F72792E786D6C504B010214001400060808009654D5426F07DC08FF000000A00100003B00000000000000000000000000081200006662782F45463543453744302D393033372D343631422D393134422D3646434246314436414230372F7265
310
736F75726365732F636F72652E786D6C504B0506000000000E000E0080040000601300000000
  0
XRECORD
  5
27
102
{ACAD_REACTORS
330
22
102
}
330
22
100
AcDbXrecord
280
     1
270
     1
271
     1
  0
XRECORD
  5
26
102
{ACAD_REACTORS
330
22
102
}
330
22
100
AcDbXrecord
280
     1
270
     1
271
     1
  0
XRECORD
  5
28
102
{ACAD_REACTORS
330
22
102
}
330
22
100
AcDbXrecord
280
     1
270
     1
271
     1
  0
XRECORD
  5
25
102
{ACAD_REACTORS
330
22
102
}
330
22
100
AcDbXrecord
280
     1
270
     1
271
     1
  0
XRECORD
  5
E75
102
{ACAD_REACTORS
330
E74
102
}
330
E74
100
AcDbXrecord
280
     1
102
ACAD_ROUNDTRIP_2012_MLEADER_STYLE
298
     1
  0
CELLSTYLEMAP
  5
E73
102
{ACAD_REACTORS
330
E72
102
}
330
E72
100
AcDbCellStyleMap
 90
        3
300
CELLSTYLE
  1
TABLEFORMAT_BEGIN
 90
        5
170
     1
 91
        0
 92
    32768
 62
   257
 93
        1
300
CONTENTFORMAT
  1
CONTENTFORMAT_BEGIN
 90
        0
 91
        0
 92
      512
 93
        0
300

 40
0.0
140
1.0
 94
        5
 62
     0
340
55
144
0.25
309
CONTENTFORMAT_END
171
     0
 94
        0
309
TABLEFORMAT_END
  1
CELLSTYLE_BEGIN
 90
        1
 91
        1
300
_TITLE
309
CELLSTYLE_END
300
CELLSTYLE
  1
TABLEFORMAT_BEGIN
 90
        5
170
     1
 91
        0
 92
        0
 62
   257
 93
        1
300
CONTENTFORMAT
  1
CONTENTFORMAT_BEGIN
 90
        0
 91
        0
 92
      512
 93
        0
300

 40
0.0
140
1.0
 94
        5
 62
     0
340
55
144
0.18
309
CONTENTFORMAT_END
171
     0
 94
        0
309
TABLEFORMAT_END
  1
CELLSTYLE_BEGIN
 90
        2
 91
        1
300
_HEADER
309
CELLSTYLE_END
300
CELLSTYLE
  1
TABLEFORMAT_BEGIN
 90
        5
170
     1
 91
        0
 92
        0
 62
   257
 93
        1
300
CONTENTFORMAT
  1
CONTENTFORMAT_BEGIN
 90
        0
 91
        0
 92
      512
 93
        0
300

 40
0.0
140
1.0
 94
        2
 62
     0
340
55
144
0.18
309
CONTENTFORMAT_END
171
     0
 94
        0
309
TABLEFORMAT_END
  1
CELLSTYLE_BEGIN
 90
        3
 91
        2
300
_DATA
309
CELLSTYLE_END
  0
ENDSEC
  0
EOF
