  0
SECTION
  2
HEADER
  9
$ACADVER
  1
AC1024
  9
$ACADMAINTVER
 70
    63
  9
$DWGCODEPAGE
  3
ANSI_1252
  9
$AUTHOR
  1
GN
  9
$REVISIONNUMBER
  1
-
  9
$CUSTOMPROPERTYTAG
  1
Manager
  9
$CUSTOMPROPERTY
  1

  9
$CUSTOMPROPERTYTAG
  1
Company
  9
$CUSTOMPROPERTY
  1

  9
$CUSTOMPROPERTYTAG
  1
Category
  9
$CUSTOMPROPERTY
  1

  9
$CUSTOMPROPERTYTAG
  1
Part Number
  9
$CUSTOMPROPERTY
  1
NPDD5442G-S
  9
$CUSTOMPROPERTYTAG
  1
Description
  9
$CUSTOMPROPERTY
  1
NPDD PANEL MASTER VIEW
  9
$CUSTOMPROPERTYTAG
  1
Project
  9
$CUSTOMPROPERTY
  1

  9
$CUSTOMPROPERTYTAG
  1
Designer
  9
$CUSTOMPROPERTY
  1
GN
  9
$CUSTOMPROPERTYTAG
  1
Engineer
  9
$CUSTOMPROPERTY
  1

  9
$CUSTOMPROPERTYTAG
  1
Authority
  9
$CUSTOMPROPERTY
  1

  9
$CUSTOMPROPERTYTAG
  1
Cost Center
  9
$CUSTOMPROPERTY
  1

  9
$CUSTOMPROPERTYTAG
  1
Vendor
  9
$CUSTOMPROPERTY
  1

  9
$CUSTOMPROPERTYTAG
  1
User Status
  9
$CUSTOMPROPERTY
  1

  9
$CUSTOMPROPERTYTAG
  1
Design Status
  9
$CUSTOMPROPERTY
  1
WorkInProgress
  9
$CUSTOMPROPERTYTAG
  1
Checked by
  9
$CUSTOMPROPERTY
  1
NJ
  9
$CUSTOMPROPERTYTAG
  1
Date Checked
  9
$CUSTOMPROPERTY
  1
07/08/2013
  9
$CUSTOMPROPERTYTAG
  1
Engr Approved by
  9
$CUSTOMPROPERTY
  1

  9
$CUSTOMPROPERTYTAG
  1
Mfg Approved by
  9
$CUSTOMPROPERTY
  1

  9
$CUSTOMPROPERTYTAG
  1
DWG. NO
  9
$CUSTOMPROPERTY
  1

  9
$CUSTOMPROPERTYTAG
  1
NUMBER OF SHEETS
  9
$CUSTOMPROPERTY
  1
2
  9
$CUSTOMPROPERTYTAG
  1
DRAWING #
  9
$CUSTOMPROPERTY
  1
1
  9
$INSBASE
 10
0.0
 20
0.0
 30
0.0
  9
$EXTMIN
 10
0.0
 20
0.0
 30
0.0
  9
$EXTMAX
 10
187.0
 20
121.0
 30
0.0
  9
$LIMMIN
 10
0.0
 20
0.0
  9
$LIMMAX
 10
187.0
 20
121.0
  9
$ORTHOMODE
 70
     0
  9
$REGENMODE
 70
     1
  9
$FILLMODE
 70
     1
  9
$QTEXTMODE
 70
     0
  9
$MIRRTEXT
 70
     0
  9
$LTSCALE
 40
11.0
  9
$ATTMODE
 70
     1
  9
$TEXTSIZE
 40
0.2
  9
$TRACEWID
 40
0.05
  9
$TEXTSTYLE
  7
Standard
  9
$CLAYER
  8
0
  9
$CELTYPE
  6
ByLayer
  9
$CECOLOR
 62
   256
  9
$CELTSCALE
 40
1.0
  9
$DISPSILH
 70
     0
  9
$DIMSCALE
 40
1.0
  9
$DIMASZ
 40
0.0708661417322835
  9
$DIMEXO
 40
0.0625
  9
$DIMDLI
 40
0.38
  9
$DIMRND
 40
0.0
  9
$DIMDLE
 40
0.0
  9
$DIMEXE
 40
0.18
  9
$DIMTP
 40
0.0
  9
$DIMTM
 40
0.0
  9
$DIMTXT
 40
0.0708661417322835
  9
$DIMCEN
 40
0.09
  9
$DIMTSZ
 40
0.0
  9
$DIMTOL
 70
     0
  9
$DIMLIM
 70
     0
  9
$DIMTIH
 70
     1
  9
$DIMTOH
 70
     1
  9
$DIMSE1
 70
     0
  9
$DIMSE2
 70
     0
  9
$DIMTAD
 70
     0
  9
$DIMZIN
 70
     0
  9
$DIMBLK
  1

  9
$DIMASO
 70
     1
  9
$DIMSHO
 70
     1
  9
$DIMPOST
  1

  9
$DIMAPOST
  1

  9
$DIMALT
 70
     0
  9
$DIMALTD
 70
     2
  9
$DIMALTF
 40
25.4
  9
$DIMLFAC
 40
1.0
  9
$DIMTOFL
 70
     0
  9
$DIMTVP
 40
0.0
  9
$DIMTIX
 70
     0
  9
$DIMSOXD
 70
     0
  9
$DIMSAH
 70
     0
  9
$DIMBLK1
  1

  9
$DIMBLK2
  1

  9
$DIMSTYLE
  2
STANDARD
  9
$DIMCLRD
 70
     0
  9
$DIMCLRE
 70
     0
  9
$DIMCLRT
 70
     0
  9
$DIMTFAC
 40
1.0
  9
$DIMGAP
 40
0.09
  9
$DIMJUST
 70
     0
  9
$DIMSD1
 70
     0
  9
$DIMSD2
 70
     0
  9
$DIMTOLJ
 70
     1
  9
$DIMTZIN
 70
     0
  9
$DIMALTZ
 70
     0
  9
$DIMALTTZ
 70
     0
  9
$DIMUPT
 70
     0
  9
$DIMDEC
 70
     4
  9
$DIMTDEC
 70
     4
  9
$DIMALTU
 70
     2
  9
$DIMALTTD
 70
     2
  9
$DIMTXSTY
  7
Standard
  9
$DIMAUNIT
 70
     0
  9
$DIMADEC
 70
     0
  9
$DIMALTRND
 40
0.0
  9
$DIMAZIN
 70
     0
  9
$DIMDSEP
 70
    46
  9
$DIMATFIT
 70
     3
  9
$DIMFRAC
 70
     0
  9
$DIMLDRBLK
  1

  9
$DIMLUNIT
 70
     2
  9
$DIMLWD
 70
    -2
  9
$DIMLWE
 70
    -2
  9
$DIMTMOVE
 70
     0
  9
$DIMFXL
 40
1.0
  9
$DIMFXLON
 70
     0
  9
$DIMJOGANG
 40
0.7853981633974483
  9
$DIMTFILL
 70
     0
  9
$DIMTFILLCLR
 70
     0
  9
$DIMARCSYM
 70
     0
  9
$DIMLTYPE
  6

  9
$DIMLTEX1
  6

  9
$DIMLTEX2
  6

  9
$DIMTXTDIRECTION
 70
     0
  9
$LUNITS
 70
     2
  9
$LUPREC
 70
     4
  9
$SKETCHINC
 40
0.1
  9
$FILLETRAD
 40
0.0
  9
$AUNITS
 70
     0
  9
$AUPREC
 70
     0
  9
$MENU
  1
.
  9
$ELEVATION
 40
0.0
  9
$PELEVATION
 40
0.0
  9
$THICKNESS
 40
0.0
  9
$LIMCHECK
 70
     0
  9
$CHAMFERA
 40
0.0
  9
$CHAMFERB
 40
0.0
  9
$CHAMFERC
 40
0.0
  9
$CHAMFERD
 40
0.0
  9
$SKPOLY
 70
     0
  9
$TDCREATE
 40
2456483.425993056
  9
$TDUCREATE
 40
2456483.196826389
  9
$TDUPDATE
 40
2456483.425993067
  9
$TDUUPDATE
 40
2456483.196826400
  9
$TDINDWG
 40
0.0000460764
  9
$TDUSRTIMER
 40
0.0000460764
  9
$USRTIMER
 70
     1
  9
$ANGBASE
 50
0.0
  9
$ANGDIR
 70
     0
  9
$PDMODE
 70
     0
  9
$PDSIZE
 40
0.0
  9
$PLINEWID
 40
0.0
  9
$SPLFRAME
 70
     0
  9
$SPLINETYPE
 70
     6
  9
$SPLINESEGS
 70
     8
  9
$HANDSEED
  5
E66
  9
$SURFTAB1
 70
     6
  9
$SURFTAB2
 70
     6
  9
$SURFTYPE
 70
     6
  9
$SURFU
 70
     6
  9
$SURFV
 70
     6
  9
$UCSBASE
  2

  9
$UCSNAME
  2

  9
$UCSORG
 10
0.0
 20
0.0
 30
0.0
  9
$UCSXDIR
 10
1.0
 20
0.0
 30
0.0
  9
$UCSYDIR
 10
0.0
 20
1.0
 30
0.0
  9
$UCSORTHOREF
  2

  9
$UCSORTHOVIEW
 70
     0
  9
$UCSORGTOP
 10
0.0
 20
0.0
 30
0.0
  9
$UCSORGBOTTOM
 10
0.0
 20
0.0
 30
0.0
  9
$UCSORGLEFT
 10
0.0
 20
0.0
 30
0.0
  9
$UCSORGRIGHT
 10
0.0
 20
0.0
 30
0.0
  9
$UCSORGFRONT
 10
0.0
 20
0.0
 30
0.0
  9
$UCSORGBACK
 10
0.0
 20
0.0
 30
0.0
  9
$PUCSBASE
  2

  9
$PUCSNAME
  2

  9
$PUCSORG
 10
0.0
 20
0.0
 30
0.0
  9
$PUCSXDIR
 10
1.0
 20
0.0
 30
0.0
  9
$PUCSYDIR
 10
0.0
 20
1.0
 30
0.0
  9
$PUCSORTHOREF
  2

  9
$PUCSORTHOVIEW
 70
     0
  9
$PUCSORGTOP
 10
0.0
 20
0.0
 30
0.0
  9
$PUCSORGBOTTOM
 10
0.0
 20
0.0
 30
0.0
  9
$PUCSORGLEFT
 10
0.0
 20
0.0
 30
0.0
  9
$PUCSORGRIGHT
 10
0.0
 20
0.0
 30
0.0
  9
$PUCSORGFRONT
 10
0.0
 20
0.0
 30
0.0
  9
$PUCSORGBACK
 10
0.0
 20
0.0
 30
0.0
  9
$USERI1
 70
     0
  9
$USERI2
 70
     0
  9
$USERI3
 70
     0
  9
$USERI4
 70
     0
  9
$USERI5
 70
     0
  9
$USERR1
 40
0.0
  9
$USERR2
 40
0.0
  9
$USERR3
 40
0.0
  9
$USERR4
 40
0.0
  9
$USERR5
 40
0.0
  9
$WORLDVIEW
 70
     1
  9
$SHADEDGE
 70
     3
  9
$SHADEDIF
 70
    70
  9
$TILEMODE
 70
     1
  9
$MAXACTVP
 70
    64
  9
$PINSBASE
 10
0.0
 20
0.0
 30
0.0
  9
$PLIMCHECK
 70
     0
  9
$PEXTMIN
 10
0.0
 20
0.0
 30
0.0
  9
$PEXTMAX
 10
187.0
 20
121.0
 30
0.0
  9
$PLIMMIN
 10
0.0
 20
0.0
  9
$PLIMMAX
 10
187.0
 20
121.0
  9
$UNITMODE
 70
     0
  9
$VISRETAIN
 70
     1
  9
$PLINEGEN
 70
     0
  9
$PSLTSCALE
 70
     1
  9
$TREEDEPTH
 70
  3020
  9
$CMLSTYLE
  2
Standard
  9
$CMLJUST
 70
     0
  9
$CMLSCALE
 40
1.0
  9
$PROXYGRAPHICS
 70
     1
  9
$MEASUREMENT
 70
     0
  9
$CELWEIGHT
370
    -1
  9
$ENDCAPS
280
     0
  9
$JOINSTYLE
280
     0
  9
$LWDISPLAY
290
     0
  9
$INSUNITS
 70
     1
  9
$HYPERLINKBASE
  1

  9
$STYLESHEET
  1

  9
$XEDIT
290
     1
  9
$CEPSNTYPE
380
     0
  9
$PSTYLEMODE
290
     1
  9
$FINGERPRINTGUID
  2
{148B8AF7-B8D3-4872-8CB3-13F66000A5CA}
  9
$VERSIONGUID
  2
{078D9222-9BE1-4722-916D-0D8CAD5F3E37}
  9
$EXTNAMES
290
     1
  9
$PSVPSCALE
 40
0.0
  9
$OLESTARTUP
290
     0
  9
$SORTENTS
280
   127
  9
$INDEXCTL
280
     0
  9
$HIDETEXT
280
     1
  9
$XCLIPFRAME
280
     2
  9
$HALOGAP
280
     0
  9
$OBSCOLOR
 70
   257
  9
$OBSLTYPE
280
     0
  9
$INTERSECTIONDISPLAY
280
     0
  9
$INTERSECTIONCOLOR
 70
   257
  9
$DIMASSOC
280
     1
  9
$PROJECTNAME
  1

  9
$CAMERADISPLAY
290
     0
  9
$LENSLENGTH
 40
50.0
  9
$CAMERAHEIGHT
 40
0.0
  9
$STEPSPERSEC
 40
2.0
  9
$STEPSIZE
 40
6.0
  9
$3DDWFPREC
 40
2.0
  9
$PSOLWIDTH
 40
0.25
  9
$PSOLHEIGHT
 40
4.0
  9
$LOFTANG1
 40
1.570796326794896
  9
$LOFTANG2
 40
1.570796326794896
  9
$LOFTMAG1
 40
0.0
  9
$LOFTMAG2
 40
0.0
  9
$LOFTPARAM
 70
     7
  9
$LOFTNORMALS
280
     1
  9
$LATITUDE
 40
37.795
  9
$LONGITUDE
 40
-122.394
  9
$NORTHDIRECTION
 40
0.0
  9
$TIMEZONE
 70
 -8000
  9
$LIGHTGLYPHDISPLAY
280
     1
  9
$TILEMODELIGHTSYNCH
280
     1
  9
$CMATERIAL
347
11
  9
$SOLIDHIST
280
     0
  9
$SHOWHIST
280
     1
  9
$DWFFRAME
280
     2
  9
$DGNFRAME
280
     0
  9
$REALWORLDSCALE
290
     1
  9
$INTERFERECOLOR
 62
     1
  9
$INTERFEREOBJVS
345
33
  9
$INTERFEREVPVS
346
30
  9
$CSHADOW
280
     0
  9
$SHADOWPLANELOCATION
 40
0.0
  0
ENDSEC
  0
SECTION
  2
CLASSES
  0
CLASS
  1
ACDBDICTIONARYWDFLT
  2
AcDbDictionaryWithDefault
  3
ObjectDBX Classes
 90
        0
 91
        1
280
     0
281
     0
  0
CLASS
  1
MATERIAL
  2
AcDbMaterial
  3
ObjectDBX Classes
 90
     1153
 91
        3
280
     0
281
     0
  0
CLASS
  1
VISUALSTYLE
  2
AcDbVisualStyle
  3
ObjectDBX Classes
 90
     4095
 91
       24
280
     0
281
     0
  0
CLASS
  1
SCALE
  2
AcDbScale
  3
ObjectDBX Classes
 90
     1153
 91
       17
280
     0
281
     0
  0
CLASS
  1
TABLESTYLE
  2
AcDbTableStyle
  3
ObjectDBX Classes
 90
     4095
 91
        1
280
     0
281
     0
  0
CLASS
  1
MLEADERSTYLE
  2
AcDbMLeaderStyle
  3
ACDB_MLEADERSTYLE_CLASS
 90
     4095
 91
        1
280
     0
281
     0
  0
CLASS
  1
DICTIONARYVAR
  2
AcDbDictionaryVar
  3
ObjectDBX Classes
 90
        0
 91
        3
280
     0
281
     0
  0
CLASS
  1
CELLSTYLEMAP
  2
AcDbCellStyleMap
  3
ObjectDBX Classes
 90
     1152
 91
        1
280
     0
281
     0
  0
ENDSEC
  0
SECTION
  2
TABLES
  0
TABLE
  2
VPORT
  5
8
330
0
100
AcDbSymbolTable
 70
     1
  0
VPORT
  5
57
330
8
100
AcDbSymbolTableRecord
100
AcDbViewportTableRecord
  2
*Active
 70
     0
 10
0.0
 20
0.0
 11
1.0
 21
1.0
 12
93.49999999999999
 22
60.5
 13
0.0
 23
0.0
 14
1.0
 24
1.0
 15
0.0
 25
0.0
 16
0.0
 26
0.0
 36
1.0
 17
0.0
 27
0.0
 37
0.0
 40
121.0
 41
1.545454545454545
 42
50.0
 43
0.0
 44
0.0
 50
0.0
 51
0.0
 71
     0
 72
   100
 73
     1
 74
     1
 75
     0
 76
     0
 77
     0
 78
     0
281
     0
 65
     1
110
0.0
120
0.0
130
0.0
111
1.0
121
0.0
131
0.0
112
0.0
122
1.0
132
0.0
 79
     0
146
0.0
 60
     3
 61
     5
292
     1
282
     1
141
0.0
142
0.0
 63
   250
421
  3355443
  0
ENDTAB
  0
TABLE
  2
LTYPE
  5
5
330
0
100
AcDbSymbolTable
 70
    59
  0
LTYPE
  5
5B
330
5
100
AcDbSymbolTableRecord
100
AcDbLinetypeTableRecord
  2
ByBlock
 70
     0
  3

 72
    65
 73
     0
 40
0.0
  0
LTYPE
  5
5C
330
5
100
AcDbSymbolTableRecord
100
AcDbLinetypeTableRecord
  2
ByLayer
 70
     0
  3

 72
    65
 73
     0
 40
0.0
  0
LTYPE
  5
5D
330
5
100
AcDbSymbolTableRecord
100
AcDbLinetypeTableRecord
  2
Continuous
 70
     0
  3
Solid line
 72
    65
 73
     0
 40
0.0
  0
LTYPE
  5
7C
330
5
100
AcDbSymbolTableRecord
100
AcDbLinetypeTableRecord
  2
BY_STANDARD
 70
     0
  3
By Standard ____________    ____    ____   _
 72
    65
 73
     6
 40
1.240299999999999
 49
0.6614
 74
     0
 49
-0.0827
 74
     0
 49
0.1654
 74
     0
 49
-0.0827
 74
     0
 49
0.1654
 74
     0
 49
-0.0827
 74
     0
  0
LTYPE
  5
7D
330
5
100
AcDbSymbolTableRecord
100
AcDbLinetypeTableRecord
  2
CHAIN
 70
     0
  3
Chain ____ _ ____ _ ____ _ ____ _ ____ _ ____
 72
    65
 73
     4
 40
0.7087
 49
0.4724000000000001
 74
     0
 49
-0.0591
 74
     0
 49
0.1181
 74
     0
 49
-0.0591
 74
     0
  0
LTYPE
  5
7E
330
5
100
AcDbSymbolTableRecord
100
AcDbLinetypeTableRecord
  2
DASH_DOT
 70
     0
  3
Dash dot __ . __ . __ . __ . __ . __ . __ . __
 72
    65
 73
     4
 40
0.37
 49
0.24
 74
     0
 49
-0.06
 74
     0
 49
0.01
 74
     0
 49
-0.06
 74
     0
  0
LTYPE
  5
7F
330
5
100
AcDbSymbolTableRecord
100
AcDbLinetypeTableRecord
  2
DOUBLE_DASH_DOT
 70
     0
  3
Double-Dash Dot __ __ . __ __ . __ __ . __ _
 72
    65
 73
     6
 40
0.4398
 49
0.24
 74
     0
 49
-0.06
 74
     0
 49
0.0098
 74
     0
 49
-0.06
 74
     0
 49
0.01
 74
     0
 49
-0.06
 74
     0
  0
LTYPE
  5
80
330
5
100
AcDbSymbolTableRecord
100
AcDbLinetypeTableRecord
  2
DASH_TRIPLE_DOT
 70
     0
  3
Dash Triple-Dot _ . . . _ . . . _ . . . _
 72
    65
 73
     8
 40
0.51
 49
0.24
 74
     0
 49
-0.06
 74
     0
 49
0.01
 74
     0
 49
-0.06
 74
     0
 49
0.01
 74
     0
 49
-0.06
 74
     0
 49
0.01
 74
     0
 49
-0.06
 74
     0
  0
LTYPE
  5
81
330
5
100
AcDbSymbolTableRecord
100
AcDbLinetypeTableRecord
  2
DASHED
 70
     0
  3
Dashed __ __ __ __ __ __ __ __ __ __ __ __ __ _
 72
    65
 73
     2
 40
0.2067
 49
0.1654
 74
     0
 49
-0.0413
 74
     0
  0
LTYPE
  5
82
330
5
100
AcDbSymbolTableRecord
100
AcDbLinetypeTableRecord
  2
DASH_DOUBLE_DOT
 70
     0
  3
Dash Double-Dot __ . . __ . . __ . . __ . .
 72
    65
 73
     6
 40
0.4398
 49
0.24
 74
     0
 49
-0.06
 74
     0
 49
0.0098
 74
     0
 49
-0.06
 74
     0
 49
0.01
 74
     0
 49
-0.06
 74
     0
  0
LTYPE
  5
83
330
5
100
AcDbSymbolTableRecord
100
AcDbLinetypeTableRecord
  2
DASHED_SPACE
 70
     0
  3
Dashed Space __ __ __ __ __ __ __ __ __ __ __ _
 72
    65
 73
     2
 40
0.2067
 49
0.1654
 74
     0
 49
-0.0413
 74
     0
  0
LTYPE
  5
84
330
5
100
AcDbSymbolTableRecord
100
AcDbLinetypeTableRecord
  2
DOTTED
 70
     0
  3
Dotted . . . . . . . . . . . . . . . . . . . . 
 72
    65
 73
     2
 40
0.0482
 49
0.0069
 74
     0
 49
-0.0413
 74
     0
  0
LTYPE
  5
85
330
5
100
AcDbSymbolTableRecord
100
AcDbLinetypeTableRecord
  2
DOUBLE_DASH_CHAIN
 70
     0
  3
Double-Dash Chain ______  __  __  ______  __  _
 72
    65
 73
     6
 40
1.240299999999999
 49
0.6614
 74
     0
 49
-0.0827
 74
     0
 49
0.1654
 74
     0
 49
-0.0827
 74
     0
 49
0.1654
 74
     0
 49
-0.0827
 74
     0
  0
LTYPE
  5
87
330
5
100
AcDbSymbolTableRecord
100
AcDbLinetypeTableRecord
  2
DOUBLE_DASH_DOUBLE_DOT
 70
     0
  3
Double-Dash Double-dot _ _ . . _ _ . . _
 72
    65
 73
     8
 40
0.7400000000000001
 49
0.24
 74
     0
 49
-0.06
 74
     0
 49
0.24
 74
     0
 49
-0.06
 74
     0
 49
0.01
 74
     0
 49
-0.06
 74
     0
 49
0.01
 74
     0
 49
-0.06
 74
     0
  0
LTYPE
  5
88
330
5
100
AcDbSymbolTableRecord
100
AcDbLinetypeTableRecord
  2
DOUBLE_DASH_TRIPLE_DOT
 70
     0
  3
Double Dash Triple Dot __ __ . . . __ __ . .
 72
    65
 73
    10
 40
0.8100000000000001
 49
0.24
 74
     0
 49
-0.06
 74
     0
 49
0.24
 74
     0
 49
-0.06
 74
     0
 49
0.01
 74
     0
 49
-0.06
 74
     0
 49
0.01
 74
     0
 49
-0.06
 74
     0
 49
0.01
 74
     0
 49
-0.06
 74
     0
  0
LTYPE
  5
89
330
5
100
AcDbSymbolTableRecord
100
AcDbLinetypeTableRecord
  2
LONG_DASH_DOTTED
 70
     0
  3
Long Dash Dotted ____ . ____ . ____ . ____ . _
 72
    65
 73
     4
 40
0.3543
 49
0.2362
 74
     0
 49
-0.0295
 74
     0
 49
0.0591
 74
     0
 49
-0.0295
 74
     0
  0
LTYPE
  5
8A
330
5
100
AcDbSymbolTableRecord
100
AcDbLinetypeTableRecord
  2
LONG_DASH_DOUBLE_DOT
 70
     0
  3
Long Dash Double Dot ________  .  .  ________  
 72
    65
 73
     6
 40
0.6799999999999999
 49
0.48
 74
     0
 49
-0.06
 74
     0
 49
0.01
 74
     0
 49
-0.06
 74
     0
 49
0.01
 74
     0
 49
-0.06
 74
     0
  0
LTYPE
  5
8B
330
5
100
AcDbSymbolTableRecord
100
AcDbLinetypeTableRecord
  2
LONG_DASH_TRIPLE_DOT
 70
     0
  3
Long Dash Triple Dot ____ ... ____ ... ____
 72
    65
 73
     8
 40
0.3689
 49
0.2362
 74
     0
 49
-0.0295
 74
     0
 49
0.0049
 74
     0
 49
-0.0295
 74
     0
 49
0.0049
 74
     0
 49
-0.0295
 74
     0
 49
0.0049
 74
     0
 49
-0.0295
 74
     0
  0
LTYPE
  5
8C
330
5
100
AcDbSymbolTableRecord
100
AcDbLinetypeTableRecord
  2
BORDER
 70
     0
  3
Border __ __ . __ __ . __ __ . __ __ . __ __ .
 72
    65
 73
     6
 40
1.75
 49
0.5
 74
     0
 49
-0.25
 74
     0
 49
0.5
 74
     0
 49
-0.25
 74
     0
 49
0.0
 74
     0
 49
-0.25
 74
     0
  0
LTYPE
  5
8D
330
5
100
AcDbSymbolTableRecord
100
AcDbLinetypeTableRecord
  2
BORDER2
 70
     0
  3
Border (.5x) __.__.__.__.__.__.__.__.__.__.__.
 72
    65
 73
     6
 40
0.875
 49
0.25
 74
     0
 49
-0.125
 74
     0
 49
0.25
 74
     0
 49
-0.125
 74
     0
 49
0.0
 74
     0
 49
-0.125
 74
     0
  0
LTYPE
  5
8E
330
5
100
AcDbSymbolTableRecord
100
AcDbLinetypeTableRecord
  2
BORDERX2
 70
     0
  3
Border (2x) ____  ____  .  ____  ____  .  ___
 72
    65
 73
     6
 40
3.5
 49
1.0
 74
     0
 49
-0.5
 74
     0
 49
1.0
 74
     0
 49
-0.5
 74
     0
 49
0.0
 74
     0
 49
-0.5
 74
     0
  0
LTYPE
  5
8F
330
5
100
AcDbSymbolTableRecord
100
AcDbLinetypeTableRecord
  2
CENTER
 70
     0
  3
Center ____ _ ____ _ ____ _ ____ _ ____ _ ____
 72
    65
 73
     4
 40
2.0
 49
1.25
 74
     0
 49
-0.25
 74
     0
 49
0.25
 74
     0
 49
-0.25
 74
     0
  0
LTYPE
  5
90
330
5
100
AcDbSymbolTableRecord
100
AcDbLinetypeTableRecord
  2
CENTER2
 70
     0
  3
Center (.5x) ___ _ ___ _ ___ _ ___ _ ___ _ ___
 72
    65
 73
     4
 40
1.125
 49
0.75
 74
     0
 49
-0.125
 74
     0
 49
0.125
 74
     0
 49
-0.125
 74
     0
  0
LTYPE
  5
91
330
5
100
AcDbSymbolTableRecord
100
AcDbLinetypeTableRecord
  2
CENTERX2
 70
     0
  3
Center (2x) ________  __  ________  __  _____
 72
    65
 73
     4
 40
4.0
 49
2.5
 74
     0
 49
-0.5
 74
     0
 49
0.5
 74
     0
 49
-0.5
 74
     0
  0
LTYPE
  5
92
330
5
100
AcDbSymbolTableRecord
100
AcDbLinetypeTableRecord
  2
DASHDOT2
 70
     0
  3
Dash dot (.5x) _._._._._._._._._._._._._._._.
 72
    65
 73
     4
 40
0.5
 49
0.25
 74
     0
 49
-0.125
 74
     0
 49
0.0
 74
     0
 49
-0.125
 74
     0
  0
LTYPE
  5
93
330
5
100
AcDbSymbolTableRecord
100
AcDbLinetypeTableRecord
  2
DASHDOTX2
 70
     0
  3
Dash dot (2x) ____  .  ____  .  ____  .  ___
 72
    65
 73
     4
 40
2.0
 49
1.0
 74
     0
 49
-0.5
 74
     0
 49
0.0
 74
     0
 49
-0.5
 74
     0
  0
LTYPE
  5
95
330
5
100
AcDbSymbolTableRecord
100
AcDbLinetypeTableRecord
  2
DASHED2
 70
     0
  3
Dashed (.5x) _ _ _ _ _ _ _ _ _ _ _ _ _ _ _ _ _
 72
    65
 73
     2
 40
0.375
 49
0.25
 74
     0
 49
-0.125
 74
     0
  0
LTYPE
  5
96
330
5
100
AcDbSymbolTableRecord
100
AcDbLinetypeTableRecord
  2
DASHEDX2
 70
     0
  3
Dashed (2x) ____  ____  ____  ____  ____  ___
 72
    65
 73
     2
 40
1.5
 49
1.0
 74
     0
 49
-0.5
 74
     0
  0
LTYPE
  5
97
330
5
100
AcDbSymbolTableRecord
100
AcDbLinetypeTableRecord
  2
DIVIDE
 70
     0
  3
Divide ____ . . ____ . . ____ . . ____ . . ____
 72
    65
 73
     6
 40
1.25
 49
0.5
 74
     0
 49
-0.25
 74
     0
 49
0.0
 74
     0
 49
-0.25
 74
     0
 49
0.0
 74
     0
 49
-0.25
 74
     0
  0
LTYPE
  5
98
330
5
100
AcDbSymbolTableRecord
100
AcDbLinetypeTableRecord
  2
DIVIDE2
 70
     0
  3
Divide (.5x) __..__..__..__..__..__..__..__.._
 72
    65
 73
     6
 40
0.625
 49
0.25
 74
     0
 49
-0.125
 74
     0
 49
0.0
 74
     0
 49
-0.125
 74
     0
 49
0.0
 74
     0
 49
-0.125
 74
     0
  0
LTYPE
  5
99
330
5
100
AcDbSymbolTableRecord
100
AcDbLinetypeTableRecord
  2
DIVIDEX2
 70
     0
  3
Divide (2x) ________  .  .  ________  .  .  _
 72
    65
 73
     6
 40
2.5
 49
1.0
 74
     0
 49
-0.5
 74
     0
 49
0.0
 74
     0
 49
-0.5
 74
     0
 49
0.0
 74
     0
 49
-0.5
 74
     0
  0
LTYPE
  5
9A
330
5
100
AcDbSymbolTableRecord
100
AcDbLinetypeTableRecord
  2
DOT
 70
     0
  3
Dot . . . . . . . . . . . . . . . . . . . . . .
 72
    65
 73
     2
 40
0.25
 49
0.0
 74
     0
 49
-0.25
 74
     0
  0
LTYPE
  5
9B
330
5
100
AcDbSymbolTableRecord
100
AcDbLinetypeTableRecord
  2
DOT2
 70
     0
  3
Dot (.5x) .....................................
 72
    65
 73
     2
 40
0.125
 49
0.0
 74
     0
 49
-0.125
 74
     0
  0
LTYPE
  5
9C
330
5
100
AcDbSymbolTableRecord
100
AcDbLinetypeTableRecord
  2
DOTX2
 70
     0
  3
Dot (2x) .  .  .  .  .  .  .  .  .  .  .  .  . 
 72
    65
 73
     2
 40
0.5
 49
0.0
 74
     0
 49
-0.5
 74
     0
  0
LTYPE
  5
9D
330
5
100
AcDbSymbolTableRecord
100
AcDbLinetypeTableRecord
  2
HIDDEN
 70
     0
  3
Hidden __ __ __ __ __ __ __ __ __ __ __ __ __ _
 72
    65
 73
     2
 40
0.375
 49
0.25
 74
     0
 49
-0.125
 74
     0
  0
LTYPE
  5
9E
330
5
100
AcDbSymbolTableRecord
100
AcDbLinetypeTableRecord
  2
HIDDEN2
 70
     0
  3
Hidden (.5x) _ _ _ _ _ _ _ _ _ _ _ _ _ _ _ _ _
 72
    65
 73
     2
 40
0.1875
 49
0.125
 74
     0
 49
-0.0625
 74
     0
  0
LTYPE
  5
9F
330
5
100
AcDbSymbolTableRecord
100
AcDbLinetypeTableRecord
  2
HIDDENX2
 70
     0
  3
Hidden (2x) ____ ____ ____ ____ ____ ____ ____
 72
    65
 73
     2
 40
0.75
 49
0.5
 74
     0
 49
-0.25
 74
     0
  0
LTYPE
  5
A0
330
5
100
AcDbSymbolTableRecord
100
AcDbLinetypeTableRecord
  2
PHANTOM
 70
     0
  3
Phantom ______  __  __  ______  __  __  ______
 72
    65
 73
     6
 40
2.5
 49
1.25
 74
     0
 49
-0.25
 74
     0
 49
0.25
 74
     0
 49
-0.25
 74
     0
 49
0.25
 74
     0
 49
-0.25
 74
     0
  0
LTYPE
  5
A1
330
5
100
AcDbSymbolTableRecord
100
AcDbLinetypeTableRecord
  2
PHANTOM2
 70
     0
  3
Phantom (.5x) ___ _ _ ___ _ _ ___ _ _ ___ _ _
 72
    65
 73
     6
 40
1.25
 49
0.625
 74
     0
 49
-0.125
 74
     0
 49
0.125
 74
     0
 49
-0.125
 74
     0
 49
0.125
 74
     0
 49
-0.125
 74
     0
  0
LTYPE
  5
A2
330
5
100
AcDbSymbolTableRecord
100
AcDbLinetypeTableRecord
  2
PHANTOMX2
 70
     0
  3
Phantom (2x) ____________    ____    ____   _
 72
    65
 73
     6
 40
5.0
 49
2.5
 74
     0
 49
-0.5
 74
     0
 49
0.5
 74
     0
 49
-0.5
 74
     0
 49
0.5
 74
     0
 49
-0.5
 74
     0
  0
LTYPE
  5
A3
330
5
100
AcDbSymbolTableRecord
100
AcDbLinetypeTableRecord
  2
ACAD_ISO02W100
 70
     0
  3
ISO dash __ __ __ __ __ __ __ __ __ __ __ __ __
 72
    65
 73
     2
 40
0.59
 49
0.47
 74
     0
 49
-0.12
 74
     0
  0
LTYPE
  5
A4
330
5
100
AcDbSymbolTableRecord
100
AcDbLinetypeTableRecord
  2
ACAD_ISO03W100
 70
     0
  3
ISO dash space __    __    __    __    __    __
 72
    65
 73
     2
 40
1.179999999999999
 49
0.47
 74
     0
 49
-0.71
 74
     0
  0
LTYPE
  5
A5
330
5
100
AcDbSymbolTableRecord
100
AcDbLinetypeTableRecord
  2
ACAD_ISO04W100
 70
     0
  3
ISO long-dash dot ____ . ____ . ____ . ____ . _
 72
    65
 73
     4
 40
1.179999999999999
 49
0.9399999999999998
 74
     0
 49
-0.12
 74
     0
 49
0.0
 74
     0
 49
-0.12
 74
     0
  0
LTYPE
  5
A6
330
5
100
AcDbSymbolTableRecord
100
AcDbLinetypeTableRecord
  2
ACAD_ISO05W100
 70
     0
  3
ISO long-dash double-dot ____ .. ____ .. ____ .
 72
    65
 73
     6
 40
1.299999999999999
 49
0.9399999999999998
 74
     0
 49
-0.12
 74
     0
 49
0.0
 74
     0
 49
-0.12
 74
     0
 49
0.0
 74
     0
 49
-0.12
 74
     0
  0
LTYPE
  5
A7
330
5
100
AcDbSymbolTableRecord
100
AcDbLinetypeTableRecord
  2
ACAD_ISO06W100
 70
     0
  3
ISO long-dash triple-dot ____ ... ____ ... ____
 72
    65
 73
     8
 40
1.419999999999999
 49
0.9399999999999998
 74
     0
 49
-0.12
 74
     0
 49
0.0
 74
     0
 49
-0.12
 74
     0
 49
0.0
 74
     0
 49
-0.12
 74
     0
 49
0.0
 74
     0
 49
-0.12
 74
     0
  0
LTYPE
  5
A8
330
5
100
AcDbSymbolTableRecord
100
AcDbLinetypeTableRecord
  2
ACAD_ISO07W100
 70
     0
  3
ISO dot . . . . . . . . . . . . . . . . . . . .
 72
    65
 73
     2
 40
0.12
 49
0.0
 74
     0
 49
-0.12
 74
     0
  0
LTYPE
  5
A9
330
5
100
AcDbSymbolTableRecord
100
AcDbLinetypeTableRecord
  2
ACAD_ISO08W100
 70
     0
  3
ISO long-dash short-dash ____ __ ____ __ ____ _
 72
    65
 73
     4
 40
0.95
 49
0.47
 74
     0
 49
-0.12
 74
     0
 49
0.24
 74
     0
 49
-0.12
 74
     0
  0
LTYPE
  5
AA
330
5
100
AcDbSymbolTableRecord
100
AcDbLinetypeTableRecord
  2
ACAD_ISO09W100
 70
     0
  3
ISO long-dash double-short-dash ____ __ __ ____
 72
    65
 73
     6
 40
1.31
 49
0.47
 74
     0
 49
-0.12
 74
     0
 49
0.24
 74
     0
 49
-0.12
 74
     0
 49
0.24
 74
     0
 49
-0.12
 74
     0
  0
LTYPE
  5
AB
330
5
100
AcDbSymbolTableRecord
100
AcDbLinetypeTableRecord
  2
ACAD_ISO10W100
 70
     0
  3
ISO dash dot __ . __ . __ . __ . __ . __ . __ .
 72
    65
 73
     4
 40
0.71
 49
0.47
 74
     0
 49
-0.12
 74
     0
 49
0.0
 74
     0
 49
-0.12
 74
     0
  0
LTYPE
  5
AC
330
5
100
AcDbSymbolTableRecord
100
AcDbLinetypeTableRecord
  2
ACAD_ISO11W100
 70
     0
  3
ISO double-dash dot __ __ . __ __ . __ __ . __ 
 72
    65
 73
     6
 40
1.299999999999999
 49
0.47
 74
     0
 49
-0.12
 74
     0
 49
0.47
 74
     0
 49
-0.12
 74
     0
 49
0.0
 74
     0
 49
-0.12
 74
     0
  0
LTYPE
  5
AD
330
5
100
AcDbSymbolTableRecord
100
AcDbLinetypeTableRecord
  2
ACAD_ISO12W100
 70
     0
  3
ISO dash double-dot __ . . __ . . __ . . __ . .
 72
    65
 73
     6
 40
0.8299999999999998
 49
0.47
 74
     0
 49
-0.12
 74
     0
 49
0.0
 74
     0
 49
-0.12
 74
     0
 49
0.0
 74
     0
 49
-0.12
 74
     0
  0
LTYPE
  5
AE
330
5
100
AcDbSymbolTableRecord
100
AcDbLinetypeTableRecord
  2
ACAD_ISO13W100
 70
     0
  3
ISO double-dash double-dot __ __ . . __ __ . . 
 72
    65
 73
     8
 40
1.419999999999999
 49
0.47
 74
     0
 49
-0.12
 74
     0
 49
0.47
 74
     0
 49
-0.12
 74
     0
 49
0.0
 74
     0
 49
-0.12
 74
     0
 49
0.0
 74
     0
 49
-0.12
 74
     0
  0
LTYPE
  5
AF
330
5
100
AcDbSymbolTableRecord
100
AcDbLinetypeTableRecord
  2
ACAD_ISO14W100
 70
     0
  3
ISO dash triple-dot __ . . . __ . . . __ . . . 
 72
    65
 73
     8
 40
0.95
 49
0.47
 74
     0
 49
-0.12
 74
     0
 49
0.0
 74
     0
 49
-0.12
 74
     0
 49
0.0
 74
     0
 49
-0.12
 74
     0
 49
0.0
 74
     0
 49
-0.12
 74
     0
  0
LTYPE
  5
B0
330
5
100
AcDbSymbolTableRecord
100
AcDbLinetypeTableRecord
  2
ACAD_ISO15W100
 70
     0
  3
ISO double-dash triple-dot __ __ . . . __ __ . 
 72
    65
 73
    10
 40
1.539999999999999
 49
0.47
 74
     0
 49
-0.12
 74
     0
 49
0.47
 74
     0
 49
-0.12
 74
     0
 49
0.0
 74
     0
 49
-0.12
 74
     0
 49
0.0
 74
     0
 49
-0.12
 74
     0
 49
0.0
 74
     0
 49
-0.12
 74
     0
  0
LTYPE
  5
B3
330
5
100
AcDbSymbolTableRecord
100
AcDbLinetypeTableRecord
  2
FENCELINE1
 70
     0
  3
Fenceline circle ----0-----0----0-----0----0---
 72
    65
 73
     4
 40
1.45
 49
0.25
 74
     0
 49
-0.1
 74
     4
 75
   133
340
B2
 46
0.1
 50
0.0
 44
-0.1
 45
0.0
 49
-0.1
 74
     0
 49
1.0
 74
     0
  0
LTYPE
  5
B4
330
5
100
AcDbSymbolTableRecord
100
AcDbLinetypeTableRecord
  2
FENCELINE2
 70
     0
  3
Fenceline square ----[]-----[]----[]-----[]----
 72
    65
 73
     4
 40
1.45
 49
0.25
 74
     0
 49
-0.1
 74
     4
 75
   132
340
B2
 46
0.1
 50
0.0
 44
-0.1
 45
0.0
 49
-0.1
 74
     0
 49
1.0
 74
     0
  0
LTYPE
  5
B5
330
5
100
AcDbSymbolTableRecord
100
AcDbLinetypeTableRecord
  2
TRACKS
 70
     0
  3
Tracks -|-|-|-|-|-|-|-|-|-|-|-|-|-|-|-|-|-|-|-|
 72
    65
 73
     2
 40
0.3
 49
0.15
 74
     4
 75
   130
340
B2
 46
0.25
 50
0.0
 44
0.0
 45
0.0
 49
0.15
 74
     0
  0
LTYPE
  5
B6
330
5
100
AcDbSymbolTableRecord
100
AcDbLinetypeTableRecord
  2
BATTING
 70
     0
  3
Batting SSSSSSSSSSSSSSSSSSSSSSSSSSSSSSSSSSSSSSS
 72
    65
 73
     4
 40
0.4001000000000001
 49
0.0001
 74
     0
 49
-0.1
 74
     4
 75
   134
340
B2
 46
0.1
 50
0.0
 44
-0.1
 45
0.0
 49
-0.2
 74
     4
 75
   134
340
B2
 46
0.1
 50
180.0
 44
0.1
 45
0.0
 49
-0.1
 74
     0
  0
LTYPE
  5
B7
330
5
100
AcDbSymbolTableRecord
100
AcDbLinetypeTableRecord
  2
HOT_WATER_SUPPLY
 70
     0
  3
Hot water supply ---- HW ---- HW ---- HW ----
 72
    65
 73
     3
 40
0.9
 49
0.5
 74
     0
 49
-0.2
 74
     2
 75
     0
340
55
 46
0.1
 50
0.0
 44
-0.1
 45
-0.05
  9
HW
 49
-0.2
 74
     0
  0
LTYPE
  5
B8
330
5
100
AcDbSymbolTableRecord
100
AcDbLinetypeTableRecord
  2
GAS_LINE
 70
     0
  3
Gas line ----GAS----GAS----GAS----GAS----GAS---
 72
    65
 73
     3
 40
0.95
 49
0.5
 74
     0
 49
-0.2
 74
     2
 75
     0
340
55
 46
0.1
 50
0.0
 44
-0.1
 45
-0.05
  9
GAS
 49
-0.25
 74
     0
  0
LTYPE
  5
B9
330
5
100
AcDbSymbolTableRecord
100
AcDbLinetypeTableRecord
  2
ZIGZAG
 70
     0
  3
Zig zag /\/\/\/\/\/\/\/\/\/\/\/\/\/\/\/\/\/\/\/
 72
    65
 73
     4
 40
0.8001000000000001
 49
0.0001
 74
     0
 49
-0.2
 74
     4
 75
   131
340
B2
 46
0.2
 50
0.0
 44
-0.2
 45
0.0
 49
-0.4
 74
     4
 75
   131
340
B2
 46
0.2
 50
180.0
 44
0.2
 45
0.0
 49
-0.2
 74
     0
  0
ENDTAB
  0
TABLE
  2
LAYER
  5
2
330
0
100
AcDbSymbolTable
 70
    27
  0
LAYER
  5
54
330
2
100
AcDbSymbolTableRecord
100
AcDbLayerTableRecord
  2
0
 70
     0
 62
     7
  6
Continuous
370
    18
390
F
347
21
  0
LAYER
  5
C0
330
2
100
AcDbSymbolTableRecord
100
AcDbLayerTableRecord
  2
Center Mark (ANSI)
 70
     0
 62
     7
  6
Continuous
370
    15
390
F
347
21
  0
LAYER
  5
C1
330
2
100
AcDbSymbolTableRecord
100
AcDbLayerTableRecord
  2
Centerline (ANSI)
 70
     0
 62
     7
  6
Continuous
370
    15
390
F
347
21
  0
LAYER
  5
C3
330
2
100
AcDbSymbolTableRecord
100
AcDbLayerTableRecord
  2
Dimension (ANSI)
 70
     0
 62
     7
  6
Continuous
370
    13
390
F
347
21
  0
LAYER
  5
CC
330
2
100
AcDbSymbolTableRecord
100
AcDbLayerTableRecord
  2
Symbol (ANSI)
 70
     0
 62
     7
  6
Continuous
370
    18
390
F
347
21
  0
LAYER
  5
CF
330
2
100
AcDbSymbolTableRecord
100
AcDbLayerTableRecord
  2
Visible (ANSI)
 70
     0
 62
     7
  6
Continuous
370
    13
390
F
347
21
  0
LAYER
  5
D0
330
2
100
AcDbSymbolTableRecord
100
AcDbLayerTableRecord
  2
Visible Narrow (ANSI)
 70
     0
 62
     7
  6
Continuous
370
    18
390
F
347
21
  0
LAYER
  5
2F1
330
2
100
AcDbSymbolTableRecord
100
AcDbLayerTableRecord
  2
Defpoints
 70
     0
 62
     7
  6
Continuous
290
     0
370
    -3
390
F
347
21
  0
ENDTAB
  0
TABLE
  2
STYLE
  5
3
330
0
100
AcDbSymbolTable
 70
    18
  0
STYLE
  5
55
330
3
100
AcDbSymbolTableRecord
100
AcDbTextStyleTableRecord
  2
Standard
 70
     0
 40
0.0
 41
1.0
 50
0.0
 71
     0
 42
0.2
  3
txt
  4

  0
STYLE
  5
5A
330
3
100
AcDbSymbolTableRecord
100
AcDbTextStyleTableRecord
  2
Annotative
 70
     0
 40
0.0
 41
1.0
 50
0.0
 71
     0
 42
0.2
  3
txt
  4

1001
AcadAnnotative
1000
AnnotativeData
1002
{
1070
     1
1070
     1
1002
}
  0
STYLE
  5
B2
330
3
100
AcDbSymbolTableRecord
100
AcDbTextStyleTableRecord
  2

 70
     1
 40
0.0
 41
1.0
 50
0.0
 71
     0
 42
0.2
  3
ltypeshp.shx
  4

  0
STYLE
  5
D4
330
3
100
AcDbSymbolTableRecord
100
AcDbTextStyleTableRecord
  2
ITALICC_120
 70
     0
 40
0.0
 41
1.0
 50
0.0
 71
     0
 42
0.2
  3
italicc.shx
  4

  0
STYLE
  5
D5
330
3
100
AcDbSymbolTableRecord
100
AcDbTextStyleTableRecord
  2
Label Text (ANSI)
 70
     0
 40
0.0
 41
1.0
 50
0.0
 71
     0
 42
0.2
  3
tahoma.ttf
  4

1001
ACAD
1000
Tahoma
1071
      256
  0
STYLE
  5
D6
330
3
100
AcDbSymbolTableRecord
100
AcDbTextStyleTableRecord
  2
Note Text (ANSI)
 70
     0
 40
0.0
 41
1.0
 50
0.0
 71
     0
 42
0.2
  3
tahoma.ttf
  4

1001
ACAD
1000
Tahoma
1071
      256
  0
STYLE
  5
D7
330
3
100
AcDbSymbolTableRecord
100
AcDbTextStyleTableRecord
  2
ROMANS
 70
     0
 40
0.0
 41
1.0
 50
0.0
 71
     0
 42
0.2
  3
romans.shx
  4

  0
STYLE
  5
D8
330
3
100
AcDbSymbolTableRecord
100
AcDbTextStyleTableRecord
  2
SANSSERIF_114
 70
     0
 40
0.0
 41
1.0
 50
0.0
 71
     0
 42
0.2
  3
tahoma.ttf
  4

1001
ACAD
1000
Tahoma
1071
      256
  0
STYLE
  5
D9
330
3
100
AcDbSymbolTableRecord
100
AcDbTextStyleTableRecord
  2
SANSSERIF_117
 70
     0
 40
0.0
 41
1.0
 50
0.0
 71
     0
 42
0.2
  3
tahoma.ttf
  4

1001
ACAD
1000
Tahoma
1071
      256
  0
STYLE
  5
DA
330
3
100
AcDbSymbolTableRecord
100
AcDbTextStyleTableRecord
  2
STANDARDAM_ANSI
 70
     0
 40
0.0
 41
1.0
 50
0.0
 71
     0
 42
0.2
  3
txt.shx
  4

  0
STYLE
  5
DB
330
3
100
AcDbSymbolTableRecord
100
AcDbTextStyleTableRecord
  2
StandardAM_ANSI$0
 70
     0
 40
0.0
 41
1.0
 50
0.0
 71
     0
 42
0.2
  3
txt.shx
  4

  0
STYLE
  5
DC
330
3
100
AcDbSymbolTableRecord
100
AcDbTextStyleTableRecord
  2
STANDARDAM_ANSI$3
 70
     0
 40
0.0
 41
1.0
 50
0.0
 71
     0
 42
0.2
  3
txt.shx
  4

  0
STYLE
  5
DD
330
3
100
AcDbSymbolTableRecord
100
AcDbTextStyleTableRecord
  2
STANDARDAM_ANSI$4
 70
     0
 40
0.0
 41
1.0
 50
0.0
 71
     0
 42
0.2
  3
txt.shx
  4

  0
STYLE
  5
DE
330
3
100
AcDbSymbolTableRecord
100
AcDbTextStyleTableRecord
  2
STANDARDAM_ANSI$7
 70
     0
 40
0.0
 41
1.0
 50
0.0
 71
     0
 42
0.2
  3
txt.shx
  4

  0
STYLE
  5
DF
330
3
100
AcDbSymbolTableRecord
100
AcDbTextStyleTableRecord
  2
STANDARDAM_ANSI$SF
 70
     0
 40
0.0
 41
1.0
 50
0.0
 71
     0
 42
0.2
  3
txt.shx
  4

  0
STYLE
  5
E0
330
3
100
AcDbSymbolTableRecord
100
AcDbTextStyleTableRecord
  2
STANDARDAM_ANSI$SH
 70
     0
 40
0.0
 41
1.0
 50
0.0
 71
     0
 42
0.2
  3
txt.shx
  4

  0
STYLE
  5
E1
330
3
100
AcDbSymbolTableRecord
100
AcDbTextStyleTableRecord
  2
STANDARDSTANDARD
 70
     0
 40
0.0
 41
1.0
 50
0.0
 71
     0
 42
0.2
  3
txt.shx
  4

  0
STYLE
  5
201
330
3
100
AcDbSymbolTableRecord
100
AcDbTextStyleTableRecord
  2
Text Style154
 70
     0
 40
0.0
 41
1.0
 50
0.0
 71
     0
 42
0.2
  3
tahoma.ttf
  4

1001
ACAD
1000
Tahoma
1071
      256
  0
ENDTAB
  0
TABLE
  2
VIEW
  5
6
330
0
100
AcDbSymbolTable
 70
     0
  0
ENDTAB
  0
TABLE
  2
UCS
  5
7
330
0
100
AcDbSymbolTable
 70
     0
  0
ENDTAB
  0
TABLE
  2
APPID
  5
9
330
0
100
AcDbSymbolTable
 70
     3
  0
APPID
  5
56
330
9
100
AcDbSymbolTableRecord
100
AcDbRegAppTableRecord
  2
ACAD
 70
     0
  0
APPID
  5
5E
330
9
100
AcDbSymbolTableRecord
100
AcDbRegAppTableRecord
  2
AcadAnnotative
 70
     0
  0
APPID
  5
B4E
330
9
100
AcDbSymbolTableRecord
100
AcDbRegAppTableRecord
  2
ACAD_DSTYLE_DIMRADIAL_EXTENSION
 70
     0
  0
ENDTAB
  0
TABLE
  2
DIMSTYLE
  5
A
330
0
100
AcDbSymbolTable
 70
    27
100
AcDbDimStyleTable
 71
     2
340
F6
340
58
  0
DIMSTYLE
105
58
330
A
100
AcDbSymbolTableRecord
100
AcDbDimStyleTableRecord
  2
STANDARD
 70
     0
 41
0.1800000071525573
 42
0.0625
140
0.1800000071525574
144
1.0
147
0.0900000035762787
176
   256
177
   256
178
   256
274
     3
340
55
371
    -1
372
    -1
  0
DIMSTYLE
105
59
330
A
100
AcDbSymbolTableRecord
100
AcDbDimStyleTableRecord
  2
Annotative
 70
     0
340
55
1001
AcadAnnotative
1000
AnnotativeData
1002
{
1070
     1
1070
     1
1002
}
  0
DIMSTYLE
105
E2
330
A
100
AcDbSymbolTableRecord
100
AcDbDimStyleTableRecord
  2
AM_ANSI
 70
     0
  4
 mm
 40
11.0
 41
0.119999997317791
 42
0.05
 43
0.5
 44
0.1
 45
0.00000001
 78
     4
 79
     2
140
0.1200000047683716
146
0.7099999189376831
147
0.0599999986588955
176
   256
177
   256
178
     2
284
     4
340
DA
371
    -1
372
    -1
  0
DIMSTYLE
105
E3
330
A
100
AcDbSymbolTableRecord
100
AcDbDimStyleTableRecord
  2
AM_ANSI$7
 70
     0
  4
 mm
 40
11.0
 41
0.119999997317791
 42
0.05
 43
0.5
 44
0.1
 45
0.00000001
 78
     4
 79
     2
140
0.1200000047683716
146
0.7099999189376831
147
0.0599999986588955
176
   256
177
   256
178
     2
284
     4
340
DA
371
    -1
372
    -1
  0
DIMSTYLE
105
E4
330
A
100
AcDbSymbolTableRecord
100
AcDbDimStyleTableRecord
  2
AM_ANSI$0
 70
     0
  4
 mm
 40
11.0
 41
0.119999997317791
 42
0.05
 43
0.5
 44
0.1
 45
0.00000001
 78
     4
 79
     2
140
0.1200000047683716
146
0.7099999189376831
147
0.0599999986588955
176
   256
177
   256
178
     2
284
     4
340
DB
371
    -1
372
    -1
  0
DIMSTYLE
105
E5
330
A
100
AcDbSymbolTableRecord
100
AcDbDimStyleTableRecord
  2
AM_ANSI$0$7
 70
     0
  4
 mm
 40
11.0
 41
0.119999997317791
 42
0.05
 43
0.5
 44
0.1
 45
0.00000001
 78
     4
 79
     2
140
0.1200000047683716
146
0.7099999189376831
147
0.0599999986588955
176
   256
177
   256
178
     2
284
     4
340
DB
371
    -1
372
    -1
  0
DIMSTYLE
105
E6
330
A
100
AcDbSymbolTableRecord
100
AcDbDimStyleTableRecord
  2
AM_ANSI$3
 70
     0
  4
 mm
 40
11.0
 41
0.119999997317791
 42
0.05
 43
0.5
 44
0.1
 45
0.00000001
 78
     4
 79
     2
140
0.1200000047683716
146
0.7099999189376831
147
0.0599999986588955
176
   256
177
   256
178
     2
284
     4
340
DC
371
    -1
372
    -1
  0
DIMSTYLE
105
E7
330
A
100
AcDbSymbolTableRecord
100
AcDbDimStyleTableRecord
  2
AM_ANSI$3$7
 70
     0
  4
 mm
 40
11.0
 41
0.119999997317791
 42
0.05
 43
0.5
 44
0.1
 45
0.00000001
 78
     4
 79
     2
140
0.1200000047683716
146
0.7099999189376831
147
0.0599999986588955
176
   256
177
   256
178
     2
284
     4
340
DC
371
    -1
372
    -1
  0
DIMSTYLE
105
E8
330
A
100
AcDbSymbolTableRecord
100
AcDbDimStyleTableRecord
  2
AM_ANSI$4
 70
     0
  4
 mm
 40
11.0
 41
0.119999997317791
 42
0.05
 43
0.5
 44
0.1
 45
0.00000001
 78
     4
 79
     2
140
0.1200000047683716
146
0.7099999189376831
147
0.0599999986588955
176
   256
177
   256
178
     2
284
     4
340
DD
371
    -1
372
    -1
  0
DIMSTYLE
105
E9
330
A
100
AcDbSymbolTableRecord
100
AcDbDimStyleTableRecord
  2
AM_ANSI$4$7
 70
     0
  4
 mm
 40
11.0
 41
0.119999997317791
 42
0.05
 43
0.5
 44
0.1
 45
0.00000001
 78
     4
 79
     2
140
0.1200000047683716
146
0.7099999189376831
147
0.0599999986588955
176
   256
177
   256
178
     2
284
     4
340
DD
371
    -1
372
    -1
  0
DIMSTYLE
105
EA
330
A
100
AcDbSymbolTableRecord
100
AcDbDimStyleTableRecord
  2
AM_ANSI$SF
 70
     0
  4
 mm
 40
11.0
 41
0.119999997317791
 42
0.05
 43
0.5
 44
0.1
 45
0.00000001
 75
     1
 76
     1
 78
     4
 79
     2
140
0.1200000047683716
146
0.7099999189376831
147
0.0599999986588955
176
   256
177
   256
178
     2
284
     4
340
DF
371
    -1
372
    -1
  0
DIMSTYLE
105
EB
330
A
100
AcDbSymbolTableRecord
100
AcDbDimStyleTableRecord
  2
AM_ANSI$SF$7
 70
     0
  4
 mm
 40
11.0
 41
0.119999997317791
 42
0.05
 43
0.5
 44
0.1
 45
0.00000001
 75
     1
 76
     1
 78
     4
 79
     2
140
0.1200000047683716
146
0.7099999189376831
147
0.0599999986588955
176
   256
177
   256
178
     2
284
     4
340
DF
371
    -1
372
    -1
  0
DIMSTYLE
105
EC
330
A
100
AcDbSymbolTableRecord
100
AcDbDimStyleTableRecord
  2
AM_ANSI$SH
 70
     0
  4
 mm
 40
11.0
 41
0.119999997317791
 42
0.05
 43
0.5
 44
0.1
 45
0.00000001
 75
     1
 76
     1
 78
     4
 79
     2
140
0.1200000047683716
146
0.7099999189376831
147
0.0599999986588955
176
   256
177
   256
178
     2
284
     4
340
E0
371
    -1
372
    -1
  0
DIMSTYLE
105
ED
330
A
100
AcDbSymbolTableRecord
100
AcDbDimStyleTableRecord
  2
AM_ANSI$SH$7
 70
     0
  4
 mm
 40
11.0
 41
0.119999997317791
 42
0.05
 43
0.5
 44
0.1
 45
0.00000001
 75
     1
 76
     1
 78
     4
 79
     2
140
0.1200000047683716
146
0.7099999189376831
147
0.0599999986588955
176
   256
177
   256
178
     2
284
     4
340
E0
371
    -1
372
    -1
  0
DIMSTYLE
105
EE
330
A
100
AcDbSymbolTableRecord
100
AcDbDimStyleTableRecord
  2
Architectural (ANSI)
 70
     0
 40
11.0
 41
0.0984251946210861
 43
0.2362204724409449
 44
0.125
 45
0.00000001
 46
0.3937007874015748
 78
     3
 79
     3
140
0.1200000047683716
147
0.031496062992126
171
     1
176
   256
177
   256
178
   256
272
     2
274
     1
276
     2
277
     4
284
    12
285
     4
286
    12
340
D6
371
    -1
372
    -1
  0
DIMSTYLE
105
EF
330
A
100
AcDbSymbolTableRecord
100
AcDbDimStyleTableRecord
  2
Architectural (ANSI)$7
 70
     0
 40
11.0
 41
0.0984251946210861
 43
0.2362204724409449
 44
0.125
 45
0.00000001
 46
0.3937007874015748
 78
     3
 79
     3
140
0.1200000047683716
147
0.031496062992126
171
     1
176
   256
177
   256
178
   256
272
     2
274
     1
276
     2
277
     4
284
    12
285
     4
286
    12
340
D6
371
    -1
372
    -1
  0
DIMSTYLE
105
F0
330
A
100
AcDbSymbolTableRecord
100
AcDbDimStyleTableRecord
  2
Default - Fraction (ANSI)
 70
     0
 40
11.0
 41
0.0984251946210861
 43
0.2362204724409449
 44
0.125
 45
0.00000001
 46
0.3937007874015748
 79
     3
140
0.1200000047683716
147
0.031496062992126
171
     1
176
   256
177
   256
178
   256
272
     2
274
     1
276
     2
277
     5
284
    12
285
     4
286
    12
340
D6
371
    -1
372
    -1
  0
DIMSTYLE
105
F1
330
A
100
AcDbSymbolTableRecord
100
AcDbDimStyleTableRecord
  2
Default - Fraction (ANSI)$7
 70
     0
 40
11.0
 41
0.0984251946210861
 43
0.2362204724409449
 44
0.125
 45
0.00000001
 46
0.3937007874015748
 79
     3
140
0.1200000047683716
147
0.031496062992126
171
     1
176
   256
177
   256
178
   256
272
     2
274
     1
276
     2
277
     5
284
    12
285
     4
286
    12
340
D6
371
    -1
372
    -1
  0
DIMSTYLE
105
F2
330
A
100
AcDbSymbolTableRecord
100
AcDbDimStyleTableRecord
  2
Default - mm (ANSI)
 70
     0
 40
11.0
 41
0.0984251946210861
 42
0.063
 43
0.2362204724409449
 44
0.125
 45
0.00000001
 46
0.3937007874015748
 73
     0
 78
     4
 79
     1
140
0.1200000047683716
143
1.0
144
25.4
147
0.031496062992126
171
     1
176
   256
177
   256
178
   256
179
     1
271
     2
272
     2
274
     1
284
     4
285
     4
340
D6
371
    -1
372
    -1
  0
DIMSTYLE
105
F3
330
A
100
AcDbSymbolTableRecord
100
AcDbDimStyleTableRecord
  2
Default - mm (ANSI)$7
 70
     0
 40
11.0
 41
0.0984251946210861
 42
0.063
 43
0.2362204724409449
 44
0.125
 45
0.00000001
 46
0.3937007874015748
 73
     0
 78
     4
 79
     1
140
0.1200000047683716
143
1.0
144
25.4
147
0.031496062992126
171
     1
176
   256
177
   256
178
   256
179
     1
271
     2
272
     2
274
     1
284
     4
285
     4
340
D6
371
    -1
372
    -1
  0
DIMSTYLE
105
F4
330
A
100
AcDbSymbolTableRecord
100
AcDbDimStyleTableRecord
  2
Default - mm [in] (ANSI)
 70
     0
  4
 in
 40
11.0
 41
0.0984251946210861
 42
0.063
 43
0.25
 44
0.125
 45
0.00000001
 46
0.3937007874015748
 73
     0
 78
     4
 79
     1
140
0.1200000047683716
143
0.03937
144
25.4
147
0.031496062992126
170
     1
171
     3
176
   256
177
   256
178
   256
179
     1
271
     2
272
     2
274
     3
284
     4
285
     4
286
     4
340
D6
371
    -1
372
    -1
  0
DIMSTYLE
105
F5
330
A
100
AcDbSymbolTableRecord
100
AcDbDimStyleTableRecord
  2
Default - mm [in] (ANSI)$7
 70
     0
  4
 in
 40
11.0
 41
0.0984251946210861
 42
0.063
 43
0.25
 44
0.125
 45
0.00000001
 46
0.3937007874015748
 73
     0
 78
     4
 79
     1
140
0.1200000047683716
143
0.03937
144
25.4
147
0.031496062992126
170
     1
171
     3
176
   256
177
   256
178
   256
179
     1
271
     2
272
     2
274
     3
284
     4
285
     4
286
     4
340
D6
371
    -1
372
    -1
  0
DIMSTYLE
105
F6
102
{ACAD_REACTORS
330
2EF
330
3DB
330
4C5
330
5AF
330
699
330
783
330
86D
330
AB4
330
B88
330
C88
330
D72
102
}
330
A
100
AcDbSymbolTableRecord
100
AcDbDimStyleTableRecord
  2
Default (ANSI)
 70
     0
 40
11.0
 41
0.0984251946210861
 43
0.2362204724409449
 44
0.125
 45
0.00000001
 46
0.3937007874015748
 79
     1
140
0.1200000047683716
147
0.031496062992126
171
     1
176
   256
177
   256
178
   256
271
     2
272
     2
274
     1
284
     4
285
     4
340
D6
371
    -1
372
    -1
  0
DIMSTYLE
105
F7
330
A
100
AcDbSymbolTableRecord
100
AcDbDimStyleTableRecord
  2
Default (ANSI)$7
 70
     0
 40
11.0
 41
0.0984251946210861
 43
0.2362204724409449
 44
0.125
 45
0.00000001
 46
0.3937007874015748
 79
     1
140
0.1200000047683716
147
0.031496062992126
171
     1
176
   256
177
   256
178
   256
271
     2
272
     2
274
     1
284
     4
285
     4
340
D6
371
    -1
372
    -1
  0
DIMSTYLE
105
F8
330
A
100
AcDbSymbolTableRecord
100
AcDbDimStyleTableRecord
  2
Alternate (ANSI)
 70
     0
 40
11.0
 41
0.0979999974370003
340
55
342
F9
  0
DIMSTYLE
105
10B
330
A
100
AcDbSymbolTableRecord
100
AcDbDimStyleTableRecord
  2
Datum (ANSI)
 70
     0
 40
11.0
 41
0.0979999974370003
340
55
342
F9
  0
DIMSTYLE
105
11A
330
A
100
AcDbSymbolTableRecord
100
AcDbDimStyleTableRecord
  2
Large (ANSI)
 70
     0
 40
11.0
 41
0.1959999948740005
340
55
342
F9
  0
ENDTAB
  0
TABLE
  2
BLOCK_RECORD
  5
1
330
0
100
AcDbSymbolTable
 70
    15
  0
BLOCK_RECORD
  5
6C
330
1
100
AcDbSymbolTableRecord
100
AcDbBlockTableRecord
  2
*Model_Space
340
6F
 70
     0
280
     1
281
     0
  0
BLOCK_RECORD
  5
68
330
1
100
AcDbSymbolTableRecord
100
AcDbBlockTableRecord
  2
*Paper_Space
340
6B
 70
     0
280
     1
281
     0
  0
BLOCK_RECORD
  5
70
330
1
100
AcDbSymbolTableRecord
100
AcDbBlockTableRecord
  2
*Paper_Space0
340
73
 70
     0
280
     1
281
     0
  0
BLOCK_RECORD
  5
F9
330
1
100
AcDbSymbolTableRecord
100
AcDbBlockTableRecord
  2
_Closed
340
0
 70
     0
280
     1
281
     0
  0
BLOCK_RECORD
  5
100
330
1
100
AcDbSymbolTableRecord
100
AcDbBlockTableRecord
  2
DatumFilled45
340
0
 70
     0
280
     1
281
     0
  0
BLOCK_RECORD
  5
10C
330
1
100
AcDbSymbolTableRecord
100
AcDbBlockTableRecord
  2
Filled-1
340
0
 70
     0
280
     1
281
     0
  0
BLOCK_RECORD
  5
2F2
330
1
100
AcDbSymbolTableRecord
100
AcDbBlockTableRecord
  2
*D4
340
0
 70
     0
280
     1
281
     0
  0
BLOCK_RECORD
  5
3DC
330
1
100
AcDbSymbolTableRecord
100
AcDbBlockTableRecord
  2
*D5
340
0
 70
     0
280
     1
281
     0
  0
BLOCK_RECORD
  5
4C6
330
1
100
AcDbSymbolTableRecord
100
AcDbBlockTableRecord
  2
*D6
340
0
 70
     0
280
     1
281
     0
  0
BLOCK_RECORD
  5
5B0
330
1
100
AcDbSymbolTableRecord
100
AcDbBlockTableRecord
  2
*D7
340
0
 70
     0
280
     1
281
     0
  0
BLOCK_RECORD
  5
69A
330
1
100
AcDbSymbolTableRecord
100
AcDbBlockTableRecord
  2
*D8
340
0
 70
     0
280
     1
281
     0
  0
BLOCK_RECORD
  5
784
330
1
100
AcDbSymbolTableRecord
100
AcDbBlockTableRecord
  2
*D9
340
0
 70
     0
280
     1
281
     0
  0
BLOCK_RECORD
  5
86E
330
1
100
AcDbSymbolTableRecord
100
AcDbBlockTableRecord
  2
*D10
340
0
 70
     0
280
     1
281
     0
  0
BLOCK_RECORD
  5
AB5
330
1
100
AcDbSymbolTableRecord
100
AcDbBlockTableRecord
  2
*D11
340
0
 70
     0
280
     1
281
     0
  0
BLOCK_RECORD
  5
B89
330
1
100
AcDbSymbolTableRecord
100
AcDbBlockTableRecord
  2
*D12
340
0
 70
     0
280
     1
281
     0
  0
BLOCK_RECORD
  5
C89
330
1
100
AcDbSymbolTableRecord
100
AcDbBlockTableRecord
  2
*D13
340
0
 70
     0
280
     1
281
     0
  0
BLOCK_RECORD
  5
D73
330
1
100
AcDbSymbolTableRecord
100
AcDbBlockTableRecord
  2
*D14
340
0
 70
     0
280
     1
281
     0
  0
ENDTAB
  0
ENDSEC
  0
SECTION
  2
BLOCKS
  0
BLOCK
  5
6D
330
6C
100
AcDbEntity
  8
0
100
AcDbBlockBegin
  2
*Model_Space
 70
     0
 10
0.0
 20
0.0
 30
0.0
  3
*Model_Space
  1

  0
ENDBLK
  5
6E
330
6C
100
AcDbEntity
  8
0
100
AcDbBlockEnd
  0
BLOCK
  5
69
330
68
100
AcDbEntity
 67
     1
  8
0
100
AcDbBlockBegin
  2
*Paper_Space
 70
     0
 10
0.0
 20
0.0
 30
0.0
  3
*Paper_Space
  1

  0
ENDBLK
  5
6A
330
68
100
AcDbEntity
 67
     1
  8
0
100
AcDbBlockEnd
  0
BLOCK
  5
71
330
70
100
AcDbEntity
 67
     1
  8
0
100
AcDbBlockBegin
  2
*Paper_Space0
 70
     0
 10
0.0
 20
0.0
 30
0.0
  3
*Paper_Space0
  1

  0
ENDBLK
  5
72
330
70
100
AcDbEntity
 67
     1
  8
0
100
AcDbBlockEnd
  0
BLOCK
  5
FE
330
F9
100
AcDbEntity
  8
0
100
AcDbBlockBegin
  2
_Closed
 70
     0
 10
0.0
 20
0.0
 30
0.0
  3
_Closed
  1

  0
LINE
  5
FA
330
F9
100
AcDbEntity
  8
0
  6
ByBlock
 62
     0
370
    -2
100
AcDbLine
 10
-1.0
 20
0.1666666666666666
 30
0.0
 11
0.0
 21
0.0
 31
0.0
  0
LINE
  5
FB
330
F9
100
AcDbEntity
  8
0
  6
ByBlock
 62
     0
370
    -2
100
AcDbLine
 10
0.0
 20
0.0
 30
0.0
 11
-1.0
 21
-0.1666666666666666
 31
0.0
  0
LINE
  5
FC
330
F9
100
AcDbEntity
  8
0
  6
ByBlock
 62
     0
370
    -2
100
AcDbLine
 10
-1.0
 20
0.1666666666666666
 30
0.0
 11
-1.0
 21
-0.1666666666666666
 31
0.0
  0
LINE
  5
FD
330
F9
100
AcDbEntity
  8
0
  6
ByBlock
 62
     0
370
    -2
100
AcDbLine
 10
0.0
 20
0.0
 30
0.0
 11
-1.0
 21
0.0
 31
0.0
  0
ENDBLK
  5
FF
330
F9
100
AcDbEntity
  8
0
100
AcDbBlockEnd
  0
BLOCK
  5
101
330
100
100
AcDbEntity
  8
0
100
AcDbBlockBegin
  2
DatumFilled45
 70
     0
 10
0.0
 20
0.0
 30
0.0
  3
DatumFilled45
  1

  0
POLYLINE
  5
103
330
100
100
AcDbEntity
  8
0
 62
     0
100
AcDb2dPolyline
 66
     1
 10
0.0
 20
0.0
 30
0.0
 70
   128
  0
VERTEX
  5
104
330
103
100
AcDbEntity
  8
0
 62
     0
100
AcDbVertex
100
AcDb2dVertex
 10
0.0
 20
0.9999999999999998
 30
0.0
  0
VERTEX
  5
105
330
103
100
AcDbEntity
  8
0
 62
     0
100
AcDbVertex
100
AcDb2dVertex
 10
0.0
 20
-0.9999999999999998
 30
0.0
  0
VERTEX
  5
107
330
103
100
AcDbEntity
  8
0
 62
     0
100
AcDbVertex
100
AcDb2dVertex
 10
-0.9999999999999998
 20
0.0
 30
0.0
  0
VERTEX
  5
108
330
103
100
AcDbEntity
  8
0
 62
     0
100
AcDbVertex
100
AcDb2dVertex
 10
0.0
 20
0.9999999999999998
 30
0.0
  0
SEQEND
  5
106
330
103
100
AcDbEntity
  8
0
 62
     0
  0
SOLID
  5
10A
330
100
100
AcDbEntity
  8
0
 62
     0
100
AcDbTrace
 10
0.0
 20
0.9999999999999998
 30
0.0
 11
0.0
 21
-0.9999999999999998
 31
0.0
 12
-0.9999999999999998
 22
0.0
 32
0.0
 13
0.0
 23
0.9999999999999998
 33
0.0
  0
ENDBLK
  5
102
330
100
100
AcDbEntity
  8
0
100
AcDbBlockEnd
  0
BLOCK
  5
10D
330
10C
100
AcDbEntity
  8
0
100
AcDbBlockBegin
  2
Filled-1
 70
     0
 10
0.0
 20
0.0
 30
0.0
  3
Filled-1
  1

  0
LINE
  5
10F
330
10C
100
AcDbEntity
  8
0
 62
     0
100
AcDbLine
 10
-0.9999999999999998
 20
0.0
 30
0.0
 11
0.0
 21
0.0
 31
0.0
  0
POLYLINE
  5
110
330
10C
100
AcDbEntity
  8
0
 62
     0
100
AcDb2dPolyline
 66
     1
 10
0.0
 20
0.0
 30
0.0
 70
   128
  0
VERTEX
  5
111
330
110
100
AcDbEntity
  8
0
 62
     0
100
AcDbVertex
100
AcDb2dVertex
 10
-0.9999999999999998
 20
-0.0994897959183674
 30
0.0
  0
VERTEX
  5
112
330
110
100
AcDbEntity
  8
0
 62
     0
100
AcDbVertex
100
AcDb2dVertex
 10
0.0
 20
0.0
 30
0.0
  0
VERTEX
  5
114
330
110
100
AcDbEntity
  8
0
 62
     0
100
AcDbVertex
100
AcDb2dVertex
 10
-0.9999999999999998
 20
0.0994897959183674
 30
0.0
  0
VERTEX
  5
115
330
110
100
AcDbEntity
  8
0
 62
     0
100
AcDbVertex
100
AcDb2dVertex
 10
-0.9999999999999998
 20
-0.0994897959183674
 30
0.0
  0
SEQEND
  5
113
330
110
100
AcDbEntity
  8
0
 62
     0
  0
SOLID
  5
116
330
10C
100
AcDbEntity
  8
0
 62
     0
100
AcDbTrace
 10
-0.9999999999999998
 20
-0.0994897959183674
 30
0.0
 11
0.0
 21
0.0
 31
0.0
 12
-0.9999999999999998
 22
0.0994897959183674
 32
0.0
 13
-0.9999999999999998
 23
-0.0994897959183674
 33
0.0
  0
LINE
  5
117
330
10C
100
AcDbEntity
  8
0
 62
     0
100
AcDbLine
 10
-0.9999999999999998
 20
-0.0994897959183674
 30
0.0
 11
0.0
 21
0.0
 31
0.0
  0
LINE
  5
118
330
10C
100
AcDbEntity
  8
0
 62
     0
100
AcDbLine
 10
0.0
 20
0.0
 30
0.0
 11
-0.9999999999999998
 21
0.0994897959183674
 31
0.0
  0
LINE
  5
119
330
10C
100
AcDbEntity
  8
0
 62
     0
100
AcDbLine
 10
-0.9999999999999998
 20
0.0994897959183674
 30
0.0
 11
-0.9999999999999998
 21
-0.0994897959183674
 31
0.0
  0
ENDBLK
  5
10E
330
10C
100
AcDbEntity
  8
0
100
AcDbBlockEnd
  0
BLOCK
  5
2F3
330
2F2
100
AcDbEntity
  8
0
100
AcDbBlockBegin
  2
*D4
 70
     1
 10
0.0
 20
0.0
 30
0.0
  3
*D4
  1

  0
LINE
  5
3D1
330
2F2
100
AcDbEntity
  8
Dimension (ANSI)
440
 16777216
100
AcDbLine
 10
42.7725944965791
 20
35.25247706687757
 30
0.0
 11
20.46109403991125
 21
35.25247706687757
 31
0.0
  0
LINE
  5
3D2
330
2F2
100
AcDbEntity
  8
Dimension (ANSI)
440
 16777216
100
AcDbLine
 10
42.77259449657909
 20
85.25247706687757
 30
0.0
 11
20.46109403991126
 21
85.25247706687759
 31
0.0
  0
LINE
  5
3D3
330
2F2
100
AcDbEntity
  8
Dimension (ANSI)
440
 16777216
100
AcDbLine
 10
21.83609403991125
 20
36.33515420770952
 30
0.0
 11
21.83609403991126
 21
59.21898207037739
 31
0.0
  0
LINE
  5
3D4
330
2F2
100
AcDbEntity
  8
Dimension (ANSI)
440
 16777216
100
AcDbLine
 10
21.83609403991126
 20
84.16979992604565
 30
0.0
 11
21.83609403991126
 21
61.28597206337772
 31
0.0
  0
SOLID
  5
3D5
330
2F2
100
AcDbEntity
  8
Dimension (ANSI)
440
 16777216
100
AcDbTrace
 10
21.65564784977259
 20
36.33515420770952
 30
0.0
 11
22.01654023004991
 21
36.33515420770952
 31
0.0
 12
21.83609403991125
 22
35.25247706687757
 32
0.0
 13
21.83609403991125
 23
35.25247706687757
 33
0.0
  0
SOLID
  5
3D6
330
2F2
100
AcDbEntity
  8
Dimension (ANSI)
440
 16777216
100
AcDbTrace
 10
21.65564784977261
 20
84.16979992604565
 30
0.0
 11
22.01654023004992
 21
84.16979992604565
 31
0.0
 12
21.83609403991126
 22
85.25247706687759
 32
0.0
 13
21.83609403991126
 23
85.25247706687759
 33
0.0
  0
MTEXT
  5
3D7
330
2F2
100
AcDbEntity
  8
Dimension (ANSI)
440
 16777216
100
AcDbMText
 10
19.67081525731679
 20
60.93951537046435
 30
0.0
 40
1.320000052452087
 41
0.0
 46
0.0
 71
     1
 72
     1
  1
\A1;50.00
  7
Note Text (ANSI)
 73
     1
 44
1.0
  0
POINT
  5
3D8
330
2F2
100
AcDbEntity
  8
Defpoints
 62
     0
440
 16777216
100
AcDbPoint
 10
43.4600944965791
 20
35.25247706687757
 30
0.0
  0
POINT
  5
3D9
330
2F2
100
AcDbEntity
  8
Defpoints
 62
     0
440
 16777216
100
AcDbPoint
 10
43.46009449657908
 20
85.25247706687757
 30
0.0
  0
POINT
  5
3DA
330
2F2
100
AcDbEntity
  8
Defpoints
 62
     0
440
 16777216
100
AcDbPoint
 10
21.83609403991126
 20
85.25247706687759
 30
0.0
  0
ENDBLK
  5
2F4
330
2F2
100
AcDbEntity
  8
0
100
AcDbBlockEnd
  0
BLOCK
  5
3DD
330
3DC
100
AcDbEntity
  8
0
100
AcDbBlockBegin
  2
*D5
 70
     1
 10
0.0
 20
0.0
 30
0.0
  3
*D5
  1

  0
LINE
  5
4BB
330
3DC
100
AcDbEntity
  8
Dimension (ANSI)
440
 16777216
100
AcDbLine
 10
43.43420614893078
 20
36.12747706687758
 30
0.0
 11
34.42505057730836
 21
36.12747706687758
 31
0.0
  0
LINE
  5
4BC
330
3DC
100
AcDbEntity
  8
Dimension (ANSI)
440
 16777216
100
AcDbLine
 10
42.55920614893078
 20
60.25247706687757
 30
0.0
 11
34.42505057730837
 21
60.25247706687757
 31
0.0
  0
LINE
  5
4BD
330
3DC
100
AcDbEntity
  8
Dimension (ANSI)
440
 16777216
100
AcDbLine
 10
35.80005057730836
 20
37.21015420770953
 30
0.0
 11
35.80005057730836
 21
47.15603881985897
 31
0.0
  0
LINE
  5
4BE
330
3DC
100
AcDbEntity
  8
Dimension (ANSI)
440
 16777216
100
AcDbLine
 10
35.80005057730837
 20
59.16979992604562
 30
0.0
 11
35.80005057730837
 21
49.22391531389617
 31
0.0
  0
SOLID
  5
4BF
330
3DC
100
AcDbEntity
  8
Dimension (ANSI)
440
 16777216
100
AcDbTrace
 10
35.6196043871697
 20
37.21015420770953
 30
0.0
 11
35.98049676744702
 21
37.21015420770953
 31
0.0
 12
35.80005057730836
 22
36.12747706687758
 32
0.0
 13
35.80005057730836
 23
36.12747706687758
 33
0.0
  0
SOLID
  5
4C0
330
3DC
100
AcDbEntity
  8
Dimension (ANSI)
440
 16777216
100
AcDbTrace
 10
35.61960438716971
 20
59.16979992604562
 30
0.0
 11
35.98049676744703
 21
59.16979992604562
 31
0.0
 12
35.80005057730837
 22
60.25247706687757
 32
0.0
 13
35.80005057730837
 23
60.25247706687757
 33
0.0
  0
MTEXT
  5
4C1
330
3DC
100
AcDbEntity
  8
Dimension (ANSI)
440
 16777216
100
AcDbMText
 10
33.64275030404587
 20
48.8774586209828
 30
0.0
 40
1.320000052452087
 41
0.0
 46
0.0
 71
     1
 72
     1
  1
\A1;24.13
  7
Note Text (ANSI)
 73
     1
 44
1.0
  0
POINT
  5
4C2
330
3DC
100
AcDbEntity
  8
Defpoints
 62
     0
440
 16777216
100
AcDbPoint
 10
44.12170614893078
 20
36.12747706687758
 30
0.0
  0
POINT
  5
4C3
330
3DC
100
AcDbEntity
  8
Defpoints
 62
     0
440
 16777216
100
AcDbPoint
 10
43.24670614893078
 20
60.25247706687757
 30
0.0
  0
POINT
  5
4C4
330
3DC
100
AcDbEntity
  8
Defpoints
 62
     0
440
 16777216
100
AcDbPoint
 10
35.80005057730837
 20
60.25247706687757
 30
0.0
  0
ENDBLK
  5
3DE
330
3DC
100
AcDbEntity
  8
0
100
AcDbBlockEnd
  0
BLOCK
  5
4C7
330
4C6
100
AcDbEntity
  8
0
100
AcDbBlockBegin
  2
*D6
 70
     1
 10
0.0
 20
0.0
 30
0.0
  3
*D6
  1

  0
LINE
  5
5A5
330
4C6
100
AcDbEntity
  8
Dimension (ANSI)
440
 16777216
100
AcDbLine
 10
43.43420614893078
 20
36.12747706687758
 30
0.0
 11
28.02229670011189
 21
36.12747706687758
 31
0.0
  0
LINE
  5
5A6
330
4C6
100
AcDbEntity
  8
Dimension (ANSI)
440
 16777216
100
AcDbLine
 10
43.43420614893078
 20
84.37747706687757
 30
0.0
 11
28.0222967001119
 21
84.37747706687758
 31
0.0
  0
LINE
  5
5A7
330
4C6
100
AcDbEntity
  8
Dimension (ANSI)
440
 16777216
100
AcDbLine
 10
29.39729670011189
 20
37.21015420770953
 30
0.0
 11
29.3972967001119
 21
59.2158793167483
 31
0.0
  0
LINE
  5
5A8
330
4C6
100
AcDbEntity
  8
Dimension (ANSI)
440
 16777216
100
AcDbLine
 10
29.3972967001119
 20
83.29479992604564
 30
0.0
 11
29.3972967001119
 21
61.28907481700683
 31
0.0
  0
SOLID
  5
5A9
330
4C6
100
AcDbEntity
  8
Dimension (ANSI)
440
 16777216
100
AcDbTrace
 10
29.21685050997324
 20
37.21015420770953
 30
0.0
 11
29.57774289025055
 21
37.21015420770953
 31
0.0
 12
29.39729670011189
 22
36.12747706687758
 32
0.0
 13
29.39729670011189
 23
36.12747706687758
 33
0.0
  0
SOLID
  5
5AA
330
4C6
100
AcDbEntity
  8
Dimension (ANSI)
440
 16777216
100
AcDbTrace
 10
29.21685050997325
 20
83.29479992604564
 30
0.0
 11
29.57774289025056
 21
83.29479992604564
 31
0.0
 12
29.3972967001119
 22
84.37747706687758
 32
0.0
 13
29.3972967001119
 23
84.37747706687758
 33
0.0
  0
MTEXT
  5
5AB
330
4C6
100
AcDbEntity
  8
Dimension (ANSI)
440
 16777216
100
AcDbMText
 10
27.20542288641084
 20
60.94261812409346
 30
0.0
 40
1.320000052452087
 41
0.0
 46
0.0
 71
     1
 72
     1
  1
\A1;48.25
  7
Note Text (ANSI)
 73
     1
 44
1.0
  0
POINT
  5
5AC
330
4C6
100
AcDbEntity
  8
Defpoints
 62
     0
440
 16777216
100
AcDbPoint
 10
44.12170614893078
 20
36.12747706687758
 30
0.0
  0
POINT
  5
5AD
330
4C6
100
AcDbEntity
  8
Defpoints
 62
     0
440
 16777216
100
AcDbPoint
 10
44.12170614893078
 20
84.37747706687757
 30
0.0
  0
POINT
  5
5AE
330
4C6
100
AcDbEntity
  8
Defpoints
 62
     0
440
 16777216
100
AcDbPoint
 10
29.3972967001119
 20
84.37747706687758
 30
0.0
  0
ENDBLK
  5
4C8
330
4C6
100
AcDbEntity
  8
0
100
AcDbBlockEnd
  0
BLOCK
  5
5B1
330
5B0
100
AcDbEntity
  8
0
100
AcDbBlockBegin
  2
*D7
 70
     1
 10
0.0
 20
0.0
 30
0.0
  3
*D7
  1

  0
LINE
  5
68F
330
5B0
100
AcDbEntity
  8
Dimension (ANSI)
440
 16777216
100
AcDbLine
 10
43.24670614893078
 20
85.72658871922925
 30
0.0
 11
43.24670614893078
 21
98.54007297119776
 31
0.0
  0
LINE
  5
690
330
5B0
100
AcDbEntity
  8
Dimension (ANSI)
440
 16777216
100
AcDbLine
 10
81.24670614893075
 20
85.72658871922925
 30
0.0
 11
81.24670614893075
 21
98.54007297119776
 31
0.0
  0
LINE
  5
691
330
5B0
100
AcDbEntity
  8
Dimension (ANSI)
440
 16777216
100
AcDbLine
 10
44.32938328976272
 20
97.16507297119775
 30
0.0
 11
59.72300290942496
 21
97.16507297119775
 31
0.0
  0
LINE
  5
692
330
5B0
100
AcDbEntity
  8
Dimension (ANSI)
440
 16777216
100
AcDbLine
 10
80.16402900809881
 20
97.16507297119775
 30
0.0
 11
64.77040938843657
 21
97.16507297119775
 31
0.0
  0
SOLID
  5
693
330
5B0
100
AcDbEntity
  8
Dimension (ANSI)
440
 16777216
100
AcDbTrace
 10
44.32938328976272
 20
97.34551916133641
 30
0.0
 11
44.32938328976272
 21
96.98462678105912
 31
0.0
 12
43.24670614893078
 22
97.16507297119775
 32
0.0
 13
43.24670614893078
 23
97.16507297119775
 33
0.0
  0
SOLID
  5
694
330
5B0
100
AcDbEntity
  8
Dimension (ANSI)
440
 16777216
100
AcDbTrace
 10
80.16402900809881
 20
97.34551916133641
 30
0.0
 11
80.16402900809881
 21
96.98462678105912
 31
0.0
 12
81.24670614893075
 22
97.16507297119775
 32
0.0
 13
81.24670614893075
 23
97.16507297119775
 33
0.0
  0
MTEXT
  5
695
330
5B0
100
AcDbEntity
  8
Dimension (ANSI)
440
 16777216
100
AcDbMText
 10
60.06945960233835
 20
97.85521402841364
 30
0.0
 40
1.320000052452087
 41
0.0
 46
0.0
 71
     1
 72
     1
  1
\A1;38.00
  7
Note Text (ANSI)
 73
     1
 44
1.0
  0
POINT
  5
696
330
5B0
100
AcDbEntity
  8
Defpoints
 62
     0
440
 16777216
100
AcDbPoint
 10
43.24670614893078
 20
85.03908871922925
 30
0.0
  0
POINT
  5
697
330
5B0
100
AcDbEntity
  8
Defpoints
 62
     0
440
 16777216
100
AcDbPoint
 10
81.24670614893075
 20
85.03908871922925
 30
0.0
  0
POINT
  5
698
330
5B0
100
AcDbEntity
  8
Defpoints
 62
     0
440
 16777216
100
AcDbPoint
 10
81.24670614893075
 20
97.16507297119775
 30
0.0
  0
ENDBLK
  5
5B2
330
5B0
100
AcDbEntity
  8
0
100
AcDbBlockEnd
  0
BLOCK
  5
69B
330
69A
100
AcDbEntity
  8
0
100
AcDbBlockBegin
  2
*D8
 70
     1
 10
0.0
 20
0.0
 30
0.0
  3
*D8
  1

  0
LINE
  5
779
330
69A
100
AcDbEntity
  8
Dimension (ANSI)
440
 16777216
100
AcDbLine
 10
44.12170614893078
 20
85.06497706687758
 30
0.0
 11
44.12170614893078
 21
94.30016241283377
 31
0.0
  0
LINE
  5
77A
330
69A
100
AcDbEntity
  8
Dimension (ANSI)
440
 16777216
100
AcDbLine
 10
80.37170614893078
 20
85.06497706687758
 30
0.0
 11
80.37170614893078
 21
94.30016241283377
 31
0.0
  0
LINE
  5
77B
330
69A
100
AcDbEntity
  8
Dimension (ANSI)
440
 16777216
100
AcDbLine
 10
45.20438328976273
 20
92.92516241283378
 30
0.0
 11
59.73364092186761
 21
92.92516241283378
 31
0.0
  0
LINE
  5
77C
330
69A
100
AcDbEntity
  8
Dimension (ANSI)
440
 16777216
100
AcDbLine
 10
79.28902900809884
 20
92.92516241283378
 30
0.0
 11
64.75977137599397
 21
92.92516241283378
 31
0.0
  0
SOLID
  5
77D
330
69A
100
AcDbEntity
  8
Dimension (ANSI)
440
 16777216
100
AcDbTrace
 10
45.20438328976273
 20
93.10560860297242
 30
0.0
 11
45.20438328976273
 21
92.74471622269512
 31
0.0
 12
44.12170614893078
 22
92.92516241283378
 32
0.0
 13
44.12170614893078
 23
92.92516241283378
 33
0.0
  0
SOLID
  5
77E
330
69A
100
AcDbEntity
  8
Dimension (ANSI)
440
 16777216
100
AcDbTrace
 10
79.28902900809884
 20
93.10560860297242
 30
0.0
 11
79.28902900809884
 21
92.74471622269512
 31
0.0
 12
80.37170614893078
 22
92.92516241283378
 32
0.0
 13
80.37170614893078
 23
92.92516241283378
 33
0.0
  0
MTEXT
  5
77F
330
69A
100
AcDbEntity
  8
Dimension (ANSI)
440
 16777216
100
AcDbMText
 10
60.08009761478099
 20
93.61264396693899
 30
0.0
 40
1.320000052452087
 41
0.0
 46
0.0
 71
     1
 72
     1
  1
\A1;36.25
  7
Note Text (ANSI)
 73
     1
 44
1.0
  0
POINT
  5
780
330
69A
100
AcDbEntity
  8
Defpoints
 62
     0
440
 16777216
100
AcDbPoint
 10
44.12170614893078
 20
84.37747706687757
 30
0.0
  0
POINT
  5
781
330
69A
100
AcDbEntity
  8
Defpoints
 62
     0
440
 16777216
100
AcDbPoint
 10
80.37170614893078
 20
84.37747706687757
 30
0.0
  0
POINT
  5
782
330
69A
100
AcDbEntity
  8
Defpoints
 62
     0
440
 16777216
100
AcDbPoint
 10
80.37170614893078
 20
92.92516241283378
 30
0.0
  0
ENDBLK
  5
69C
330
69A
100
AcDbEntity
  8
0
100
AcDbBlockEnd
  0
BLOCK
  5
785
330
784
100
AcDbEntity
  8
0
100
AcDbBlockBegin
  2
*D9
 70
     1
 10
0.0
 20
0.0
 30
0.0
  3
*D9
  1

  0
LINE
  5
863
330
784
100
AcDbEntity
  8
Dimension (ANSI)
440
 16777216
100
AcDbLine
 10
44.12170614893078
 20
85.06497706687758
 30
0.0
 11
44.12170614893078
 21
90.08318572829489
 31
0.0
  0
LINE
  5
864
330
784
100
AcDbEntity
  8
Dimension (ANSI)
440
 16777216
100
AcDbLine
 10
62.24670614893078
 20
85.06497706687758
 30
0.0
 11
62.24670614893078
 21
90.08318572829489
 31
0.0
  0
LINE
  5
865
330
784
100
AcDbEntity
  8
Dimension (ANSI)
440
 16777216
100
AcDbLine
 10
45.20438328976273
 20
88.7081857282949
 30
0.0
 11
50.73230949341276
 21
88.7081857282949
 31
0.0
  0
LINE
  5
866
330
784
100
AcDbEntity
  8
Dimension (ANSI)
440
 16777216
100
AcDbLine
 10
61.16402900809884
 20
88.7081857282949
 30
0.0
 11
55.63610280444882
 21
88.7081857282949
 31
0.0
  0
SOLID
  5
867
330
784
100
AcDbEntity
  8
Dimension (ANSI)
440
 16777216
100
AcDbTrace
 10
45.20438328976273
 20
88.88863191843354
 30
0.0
 11
45.20438328976273
 21
88.52773953815624
 31
0.0
 12
44.12170614893078
 22
88.7081857282949
 32
0.0
 13
44.12170614893078
 23
88.7081857282949
 33
0.0
  0
SOLID
  5
868
330
784
100
AcDbEntity
  8
Dimension (ANSI)
440
 16777216
100
AcDbTrace
 10
61.16402900809884
 20
88.88863191843354
 30
0.0
 11
61.16402900809884
 21
88.52773953815624
 31
0.0
 12
62.24670614893078
 22
88.7081857282949
 32
0.0
 13
62.24670614893078
 23
88.7081857282949
 33
0.0
  0
MTEXT
  5
869
330
784
100
AcDbEntity
  8
Dimension (ANSI)
440
 16777216
100
AcDbMText
 10
51.07876618632615
 20
89.39832678551077
 30
0.0
 40
1.320000052452087
 41
0.0
 46
0.0
 71
     1
 72
     1
  1
\A1;18.13
  7
Note Text (ANSI)
 73
     1
 44
1.0
  0
POINT
  5
86A
330
784
100
AcDbEntity
  8
Defpoints
 62
     0
440
 16777216
100
AcDbPoint
 10
44.12170614893078
 20
84.37747706687757
 30
0.0
  0
POINT
  5
86B
330
784
100
AcDbEntity
  8
Defpoints
 62
     0
440
 16777216
100
AcDbPoint
 10
62.24670614893078
 20
84.37747706687757
 30
0.0
  0
POINT
  5
86C
330
784
100
AcDbEntity
  8
Defpoints
 62
     0
440
 16777216
100
AcDbPoint
 10
62.24670614893078
 20
88.7081857282949
 30
0.0
  0
ENDBLK
  5
786
330
784
100
AcDbEntity
  8
0
100
AcDbBlockEnd
  0
BLOCK
  5
86F
330
86E
100
AcDbEntity
  8
0
100
AcDbBlockBegin
  2
*D10
 70
     1
 10
0.0
 20
0.0
 30
0.0
  3
*D10
  1

  0
LINE
  5
961
330
86E
100
AcDbEntity
  8
Dimension (ANSI)
440
 16777216
100
AcDbLine
 10
125.3333575491114
 20
85.78372706687757
 30
0.0
 11
125.3333575491114
 21
89.77708336609014
 31
0.0
  0
LINE
  5
962
330
86E
100
AcDbEntity
  8
Dimension (ANSI)
440
 16777216
100
AcDbLine
 10
126.2083575491113
 20
85.93997706687762
 30
0.0
 11
126.2083575491113
 21
89.77708336609014
 31
0.0
  0
LINE
  5
963
330
86E
100
AcDbEntity
  8
Dimension (ANSI)
440
 16777216
100
AcDbLine
 10
127.2910346899433
 20
88.40208336609014
 30
0.0
 11
128.3737118307753
 21
88.40208336609014
 31
0.0
  0
LINE
  5
964
330
86E
100
AcDbEntity
  8
Dimension (ANSI)
440
 16777216
100
AcDbLine
 10
124.2506804082794
 20
88.40208336609014
 30
0.0
 11
122.5585567619676
 21
88.40208336609014
 31
0.0
  0
SOLID
  5
965
330
86E
100
AcDbEntity
  8
Dimension (ANSI)
440
 16777216
100
AcDbTrace
 10
127.2910346899433
 20
88.58252955622878
 30
0.0
 11
127.2910346899433
 21
88.22163717595149
 31
0.0
 12
126.2083575491113
 22
88.40208336609014
 32
0.0
 13
126.2083575491113
 23
88.40208336609014
 33
0.0
  0
SOLID
  5
966
330
86E
100
AcDbEntity
  8
Dimension (ANSI)
440
 16777216
100
AcDbTrace
 10
124.2506804082794
 20
88.58252955622878
 30
0.0
 11
124.2506804082794
 21
88.22163717595149
 31
0.0
 12
125.3333575491114
 22
88.40208336609014
 32
0.0
 13
125.3333575491114
 23
88.40208336609014
 33
0.0
  0
MTEXT
  5
967
330
86E
100
AcDbEntity
  8
Dimension (ANSI)
440
 16777216
100
AcDbMText
 10
118.7246049899441
 20
89.28961865773958
 30
0.0
 40
1.320000052452087
 41
0.0
 46
0.0
 71
     1
 72
     1
  1
\A1;0.88{\PTYP.}
  7
Note Text (ANSI)
 73
     1
 44
1.0
  0
POINT
  5
968
330
86E
100
AcDbEntity
  8
Defpoints
 62
     0
440
 16777216
100
AcDbPoint
 10
125.3333575491114
 20
85.09622706687757
 30
0.0
  0
POINT
  5
969
330
86E
100
AcDbEntity
  8
Defpoints
 62
     0
440
 16777216
100
AcDbPoint
 10
126.2083575491113
 20
85.25247706687762
 30
0.0
  0
POINT
  5
96A
330
86E
100
AcDbEntity
  8
Defpoints
 62
     0
440
 16777216
100
AcDbPoint
 10
126.2083575491113
 20
88.40208336609014
 30
0.0
  0
ENDBLK
  5
870
330
86E
100
AcDbEntity
  8
0
100
AcDbBlockEnd
  0
BLOCK
  5
AB6
330
AB5
100
AcDbEntity
  8
0
100
AcDbBlockBegin
  2
*D11
 70
     1
 10
0.0
 20
0.0
 30
0.0
  3
*D11
  1

  0
LINE
  5
B67
330
AB5
100
AcDbEntity
  8
Dimension (ANSI)
440
 16777216
100
AcDbLine
 10
85.19818837667441
 20
68.31055657246982
 30
0.0
 11
83.80371644104718
 21
68.31055657246981
 31
0.0
  0
LINE
  5
B68
330
AB5
100
AcDbEntity
  8
Dimension (ANSI)
440
 16777216
100
AcDbLine
 10
83.80371644104718
 20
68.31055657246981
 30
0.0
 11
80.90625766426482
 21
61.50756031073933
 31
0.0
  0
MTEXT
  5
B69
330
AB5
100
AcDbEntity
  8
Dimension (ANSI)
440
 16777216
100
AcDbMText
 10
85.5446450695878
 20
69.30887063218623
 30
0.0
 40
1.320000052452087
 41
0.0
 46
0.0
 71
     1
 72
     1
  1
\A1;∅0.563{\P(10 PL.)}
  7
Note Text (ANSI)
 73
     1
 44
1.0
  0
SOLID
  5
B6A
330
AB5
100
AcDbEntity
  8
Dimension (ANSI)
440
 16777216
100
AcDbTrace
 10
80.74024184206477
 20
61.578267978745
 30
0.0
 11
81.07227348646485
 21
61.43685264273365
 31
0.0
 12
80.48201165623078
 22
60.51146537753906
 32
0.0
 13
80.48201165623078
 23
60.51146537753906
 33
0.0
  0
LINE
  5
B6B
330
AB5
100
AcDbEntity
  8
Dimension (ANSI)
440
 16777216
100
AcDbLine
 10
79.3817061489308
 20
60.25247706687757
 30
0.0
 11
81.3617061489308
 21
60.25247706687757
 31
0.0
  0
LINE
  5
B6C
330
AB5
100
AcDbEntity
  8
Dimension (ANSI)
440
 16777216
100
AcDbLine
 10
80.3717061489308
 20
59.26247706687757
 30
0.0
 11
80.3717061489308
 21
61.24247706687758
 31
0.0
  0
POINT
  5
B6D
330
AB5
100
AcDbEntity
  8
Defpoints
 62
     0
440
 16777216
100
AcDbPoint
 10
80.48201165623078
 20
60.51146537753906
 30
0.0
  0
POINT
  5
B6E
330
AB5
100
AcDbEntity
  8
Defpoints
 62
     0
440
 16777216
100
AcDbPoint
 10
80.26140064163078
 20
59.99348875621609
 30
0.0
  0
ENDBLK
  5
AB7
330
AB5
100
AcDbEntity
  8
0
100
AcDbBlockEnd
  0
BLOCK
  5
B8A
330
B89
100
AcDbEntity
  8
0
100
AcDbBlockBegin
  2
*D12
 70
     1
 10
0.0
 20
0.0
 30
0.0
  3
*D12
  1

  0
LINE
  5
C7D
330
B89
100
AcDbEntity
  8
Dimension (ANSI)
440
 16777216
100
AcDbLine
 10
42.7725944965791
 20
35.25247706687757
 30
0.0
 11
37.54607163995095
 21
35.25247706687757
 31
0.0
  0
LINE
  5
C7E
330
B89
100
AcDbEntity
  8
Dimension (ANSI)
440
 16777216
100
AcDbLine
 10
41.77770614893078
 20
36.12747706687758
 30
0.0
 11
37.54607163995095
 21
36.12747706687758
 31
0.0
  0
LINE
  5
C7F
330
B89
100
AcDbEntity
  8
Dimension (ANSI)
440
 16777216
100
AcDbLine
 10
38.92107163995095
 20
37.21015420770953
 30
0.0
 11
38.92107163995095
 21
38.29283134854147
 31
0.0
  0
LINE
  5
C80
330
B89
100
AcDbEntity
  8
Dimension (ANSI)
440
 16777216
100
AcDbLine
 10
38.92107163995095
 20
34.16979992604563
 30
0.0
 11
38.92107163995095
 21
32.09550274217403
 31
0.0
  0
LINE
  5
C81
330
B89
100
AcDbEntity
  8
Dimension (ANSI)
440
 16777216
100
AcDbLine
 10
38.92107163995095
 20
32.09550274217403
 30
0.0
 11
37.838394499119
 21
32.09550274217403
 31
0.0
  0
SOLID
  5
C82
330
B89
100
AcDbEntity
  8
Dimension (ANSI)
440
 16777216
100
AcDbTrace
 10
38.74062544981228
 20
37.21015420770953
 30
0.0
 11
39.10151783008961
 21
37.21015420770953
 31
0.0
 12
38.92107163995095
 22
36.12747706687758
 32
0.0
 13
38.92107163995095
 23
36.12747706687758
 33
0.0
  0
SOLID
  5
C83
330
B89
100
AcDbEntity
  8
Dimension (ANSI)
440
 16777216
100
AcDbTrace
 10
38.74062544981228
 20
34.16979992604563
 30
0.0
 11
39.10151783008961
 21
34.16979992604563
 31
0.0
 12
38.92107163995095
 22
35.25247706687757
 32
0.0
 13
38.92107163995095
 23
35.25247706687757
 33
0.0
  0
MTEXT
  5
C84
330
B89
100
AcDbEntity
  8
Dimension (ANSI)
440
 16777216
100
AcDbMText
 10
34.10816334841111
 20
32.78564379938992
 30
0.0
 40
1.320000052452087
 41
0.0
 46
0.0
 71
     1
 72
     1
  1
\A1;0.88
  7
Note Text (ANSI)
 73
     1
 44
1.0
  0
POINT
  5
C85
330
B89
100
AcDbEntity
  8
Defpoints
 62
     0
440
 16777216
100
AcDbPoint
 10
43.4600944965791
 20
35.25247706687757
 30
0.0
  0
POINT
  5
C86
330
B89
100
AcDbEntity
  8
Defpoints
 62
     0
440
 16777216
100
AcDbPoint
 10
42.46520614893078
 20
36.12747706687758
 30
0.0
  0
POINT
  5
C87
330
B89
100
AcDbEntity
  8
Defpoints
 62
     0
440
 16777216
100
AcDbPoint
 10
38.92107163995095
 20
36.12747706687758
 30
0.0
  0
ENDBLK
  5
B8B
330
B89
100
AcDbEntity
  8
0
100
AcDbBlockEnd
  0
BLOCK
  5
C8A
330
C89
100
AcDbEntity
  8
0
100
AcDbBlockBegin
  2
*D13
 70
     1
 10
0.0
 20
0.0
 30
0.0
  3
*D13
  1

  0
LINE
  5
D68
330
C89
100
AcDbEntity
  8
Dimension (ANSI)
440
 16777216
100
AcDbLine
 10
43.24670614893078
 20
85.72658871922925
 30
0.0
 11
43.24670614893078
 21
90.08507532477393
 31
0.0
  0
LINE
  5
D69
330
C89
100
AcDbEntity
  8
Dimension (ANSI)
440
 16777216
100
AcDbLine
 10
44.12170614893078
 20
86.72147706687757
 30
0.0
 11
44.12170614893078
 21
90.08507532477393
 31
0.0
  0
LINE
  5
D6A
330
C89
100
AcDbEntity
  8
Dimension (ANSI)
440
 16777216
100
AcDbLine
 10
45.20438328976273
 20
88.71007532477394
 30
0.0
 11
46.28706043059468
 21
88.71007532477394
 31
0.0
  0
LINE
  5
D6B
330
C89
100
AcDbEntity
  8
Dimension (ANSI)
440
 16777216
100
AcDbLine
 10
42.16402900809884
 20
88.71007532477394
 30
0.0
 11
40.52193323090826
 21
88.71007532477394
 31
0.0
  0
SOLID
  5
D6C
330
C89
100
AcDbEntity
  8
Dimension (ANSI)
440
 16777216
100
AcDbTrace
 10
45.20438328976273
 20
88.89052151491259
 30
0.0
 11
45.20438328976273
 21
88.52962913463528
 31
0.0
 12
44.12170614893078
 22
88.71007532477394
 32
0.0
 13
44.12170614893078
 23
88.71007532477394
 33
0.0
  0
SOLID
  5
D6D
330
C89
100
AcDbEntity
  8
Dimension (ANSI)
440
 16777216
100
AcDbTrace
 10
42.16402900809884
 20
88.89052151491259
 30
0.0
 11
42.16402900809884
 21
88.52962913463528
 31
0.0
 12
43.24670614893078
 22
88.71007532477394
 32
0.0
 13
43.24670614893078
 23
88.71007532477394
 33
0.0
  0
MTEXT
  5
D6E
330
C89
100
AcDbEntity
  8
Dimension (ANSI)
440
 16777216
100
AcDbMText
 10
36.79170208020039
 20
89.40021638198983
 30
0.0
 40
1.320000052452087
 41
0.0
 46
0.0
 71
     1
 72
     1
  1
\A1;0.88
  7
Note Text (ANSI)
 73
     1
 44
1.0
  0
POINT
  5
D6F
330
C89
100
AcDbEntity
  8
Defpoints
 62
     0
440
 16777216
100
AcDbPoint
 10
43.24670614893078
 20
85.03908871922925
 30
0.0
  0
POINT
  5
D70
330
C89
100
AcDbEntity
  8
Defpoints
 62
     0
440
 16777216
100
AcDbPoint
 10
44.12170614893078
 20
86.03397706687756
 30
0.0
  0
POINT
  5
D71
330
C89
100
AcDbEntity
  8
Defpoints
 62
     0
440
 16777216
100
AcDbPoint
 10
44.12170614893078
 20
88.71007532477394
 30
0.0
  0
ENDBLK
  5
C8B
330
C89
100
AcDbEntity
  8
0
100
AcDbBlockEnd
  0
BLOCK
  5
D74
330
D73
100
AcDbEntity
  8
0
100
AcDbBlockBegin
  2
*D14
 70
     1
 10
0.0
 20
0.0
 30
0.0
  3
*D14
  1

  0
LINE
  5
E52
330
D73
100
AcDbEntity
  8
Dimension (ANSI)
440
 16777216
100
AcDbLine
 10
82.71570614893077
 20
60.25247706687757
 30
0.0
 11
87.73391481034812
 21
60.25247706687757
 31
0.0
  0
LINE
  5
E53
330
D73
100
AcDbEntity
  8
Dimension (ANSI)
440
 16777216
100
AcDbLine
 10
82.71570614893077
 20
50.25247706687758
 30
0.0
 11
87.73391481034812
 21
50.25247706687758
 31
0.0
  0
LINE
  5
E54
330
D73
100
AcDbEntity
  8
Dimension (ANSI)
440
 16777216
100
AcDbLine
 10
86.35891481034811
 20
59.16979992604563
 30
0.0
 11
86.35891481034811
 21
56.28597206337772
 31
0.0
  0
LINE
  5
E55
330
D73
100
AcDbEntity
  8
Dimension (ANSI)
440
 16777216
100
AcDbLine
 10
86.35891481034811
 20
51.33515420770953
 30
0.0
 11
86.35891481034811
 21
54.21898207037739
 31
0.0
  0
SOLID
  5
E56
330
D73
100
AcDbEntity
  8
Dimension (ANSI)
440
 16777216
100
AcDbTrace
 10
86.17846862020945
 20
59.16979992604563
 30
0.0
 11
86.53936100048676
 21
59.16979992604563
 31
0.0
 12
86.35891481034811
 22
60.25247706687757
 32
0.0
 13
86.35891481034811
 23
60.25247706687757
 33
0.0
  0
SOLID
  5
E57
330
D73
100
AcDbEntity
  8
Dimension (ANSI)
440
 16777216
100
AcDbTrace
 10
86.17846862020945
 20
51.33515420770953
 30
0.0
 11
86.53936100048676
 21
51.33515420770953
 31
0.0
 12
86.35891481034811
 22
50.25247706687758
 32
0.0
 13
86.35891481034811
 23
50.25247706687758
 33
0.0
  0
MTEXT
  5
E58
330
D73
100
AcDbEntity
  8
Dimension (ANSI)
440
 16777216
100
AcDbMText
 10
84.23884758063483
 20
55.93951537046436
 30
0.0
 40
1.320000052452087
 41
0.0
 46
0.0
 71
     1
 72
     1
  1
\A1;10.00
  7
Note Text (ANSI)
 73
     1
 44
1.0
  0
POINT
  5
E59
330
D73
100
AcDbEntity
  8
Defpoints
 62
     0
440
 16777216
100
AcDbPoint
 10
82.02820614893077
 20
60.25247706687757
 30
0.0
  0
POINT
  5
E5A
330
D73
100
AcDbEntity
  8
Defpoints
 62
     0
440
 16777216
100
AcDbPoint
 10
82.02820614893077
 20
50.25247706687758
 30
0.0
  0
POINT
  5
E5B
330
D73
100
AcDbEntity
  8
Defpoints
 62
     0
440
 16777216
100
AcDbPoint
 10
86.35891481034811
 20
50.25247706687758
 30
0.0
  0
ENDBLK
  5
D75
330
D73
100
AcDbEntity
  8
0
100
AcDbBlockEnd
  0
ENDSEC
  0
SECTION
  2
ENTITIES
  0
CIRCLE
  5
11B
330
6C
100
AcDbEntity
  8
Visible (ANSI)
100
AcDbCircle
 10
80.37170614893078
 20
50.25247706687758
 30
0.0
 40
0.2814999999999999
  0
CIRCLE
  5
11C
330
6C
100
AcDbEntity
  8
Visible (ANSI)
100
AcDbCircle
 10
44.12170614893078
 20
50.25247706687758
 30
0.0
 40
0.2814999999999999
  0
CIRCLE
  5
11D
330
6C
100
AcDbEntity
  8
Visible (ANSI)
100
AcDbCircle
 10
62.24670614893078
 20
36.12747706687758
 30
0.0
 40
0.2814999999999999
  0
CIRCLE
  5
11E
330
6C
100
AcDbEntity
  8
Visible (ANSI)
100
AcDbCircle
 10
80.37170614893078
 20
60.25247706687757
 30
0.0
 40
0.2814999999999999
  0
CIRCLE
  5
11F
330
6C
100
AcDbEntity
  8
Visible (ANSI)
100
AcDbCircle
 10
80.37170614893078
 20
36.12747706687758
 30
0.0
 40
0.2814999999999999
  0
CIRCLE
  5
120
330
6C
100
AcDbEntity
  8
Visible (ANSI)
100
AcDbCircle
 10
44.12170614893078
 20
36.12747706687758
 30
0.0
 40
0.2814999999999999
  0
CIRCLE
  5
121
330
6C
100
AcDbEntity
  8
Visible (ANSI)
100
AcDbCircle
 10
44.12170614893078
 20
60.25247706687757
 30
0.0
 40
0.2814999999999999
  0
CIRCLE
  5
122
330
6C
100
AcDbEntity
  8
Visible (ANSI)
100
AcDbCircle
 10
80.37170614893078
 20
84.37747706687757
 30
0.0
 40
0.2814999999999999
  0
CIRCLE
  5
123
330
6C
100
AcDbEntity
  8
Visible (ANSI)
100
AcDbCircle
 10
62.24670614893078
 20
84.37747706687757
 30
0.0
 40
0.2814999999999999
  0
CIRCLE
  5
124
330
6C
100
AcDbEntity
  8
Visible (ANSI)
100
AcDbCircle
 10
44.12170614893078
 20
84.37747706687757
 30
0.0
 40
0.2814999999999999
  0
LINE
  5
125
330
6C
100
AcDbEntity
  8
Visible (ANSI)
100
AcDbLine
 10
81.03331780128247
 20
35.25247706687758
 30
0.0
 11
43.4600944965791
 21
35.25247706687757
 31
0.0
  0
LINE
  5
126
330
6C
100
AcDbEntity
  8
Visible (ANSI)
100
AcDbLine
 10
81.24670614893075
 20
85.03908871922925
 30
0.0
 11
81.24670614893078
 21
35.4658654145259
 31
0.0
  0
LINE
  5
127
330
6C
100
AcDbEntity
  8
Visible (ANSI)
100
AcDbLine
 10
43.4600944965791
 20
85.25247706687755
 30
0.0
 11
81.03331780128245
 21
85.25247706687755
 31
0.0
  0
LINE
  5
128
330
6C
100
AcDbEntity
  8
Visible (ANSI)
100
AcDbLine
 10
43.24670614893078
 20
35.46586541452589
 30
0.0
 11
43.24670614893078
 21
85.03908871922925
 31
0.0
  0
POLYLINE
  5
129
330
6C
100
AcDbEntity
  8
Visible (ANSI)
100
AcDb2dPolyline
 66
     1
 10
0.0
 20
0.0
 30
0.0
 70
   128
  0
VERTEX
  5
12A
330
129
100
AcDbEntity
  8
Visible (ANSI)
100
AcDbVertex
100
AcDb2dVertex
 10
81.09045542804311
 20
35.40872706453094
 30
0.0
  0
VERTEX
  5
12B
330
129
100
AcDbEntity
  8
Visible (ANSI)
100
AcDbVertex
100
AcDb2dVertex
 10
81.08807649872471
 20
35.39850782471781
 30
0.0
  0
VERTEX
  5
12D
330
129
100
AcDbEntity
  8
Visible (ANSI)
100
AcDbVertex
100
AcDb2dVertex
 10
81.08569456570767
 20
35.38833234973243
 30
0.0
  0
VERTEX
  5
12E
330
129
100
AcDbEntity
  8
Visible (ANSI)
100
AcDbVertex
100
AcDb2dVertex
 10
81.08331263269063
 20
35.3782442049382
 30
0.0
  0
VERTEX
  5
12F
330
129
100
AcDbEntity
  8
Visible (ANSI)
100
AcDbVertex
100
AcDb2dVertex
 10
81.0809337033722
 20
35.3682865919694
 30
0.0
  0
VERTEX
  5
130
330
129
100
AcDbEntity
  8
Visible (ANSI)
100
AcDbVertex
100
AcDb2dVertex
 10
81.07855177035517
 20
35.35850214926678
 30
0.0
  0
VERTEX
  5
131
330
129
100
AcDbEntity
  8
Visible (ANSI)
100
AcDbVertex
100
AcDb2dVertex
 10
81.07617284103676
 20
35.34893278194626
 30
0.0
  0
VERTEX
  5
132
330
129
100
AcDbEntity
  8
Visible (ANSI)
100
AcDbVertex
100
AcDb2dVertex
 10
81.07379090801972
 20
35.33961945646793
 30
0.0
  0
VERTEX
  5
133
330
129
100
AcDbEntity
  8
Visible (ANSI)
100
AcDbVertex
100
AcDb2dVertex
 10
81.07140897500269
 20
35.33060206570425
 30
0.0
  0
VERTEX
  5
134
330
129
100
AcDbEntity
  8
Visible (ANSI)
100
AcDbVertex
100
AcDb2dVertex
 10
81.06903004568428
 20
35.3219192177426
 30
0.0
  0
VERTEX
  5
135
330
129
100
AcDbEntity
  8
Visible (ANSI)
100
AcDbVertex
100
AcDb2dVertex
 10
81.06664811266723
 20
35.31360809508672
 30
0.0
  0
VERTEX
  5
136
330
129
100
AcDbEntity
  8
Visible (ANSI)
100
AcDbVertex
100
AcDb2dVertex
 10
81.06426918334882
 20
35.30570428452556
 30
0.0
  0
VERTEX
  5
137
330
129
100
AcDbEntity
  8
Visible (ANSI)
100
AcDbVertex
100
AcDb2dVertex
 10
81.06188725033179
 20
35.2982416334014
 30
0.0
  0
VERTEX
  5
138
330
129
100
AcDbEntity
  8
Visible (ANSI)
100
AcDbVertex
100
AcDb2dVertex
 10
81.05950531731476
 20
35.29125209707845
 30
0.0
  0
VERTEX
  5
139
330
129
100
AcDbEntity
  8
Visible (ANSI)
100
AcDbVertex
100
AcDb2dVertex
 10
81.05712638799635
 20
35.28476560694428
 30
0.0
  0
VERTEX
  5
13A
330
129
100
AcDbEntity
  8
Visible (ANSI)
100
AcDbVertex
100
AcDb2dVertex
 10
81.05474445497931
 20
35.27880994134463
 30
0.0
  0
VERTEX
  5
13B
330
129
100
AcDbEntity
  8
Visible (ANSI)
100
AcDbVertex
100
AcDb2dVertex
 10
81.05236252196228
 20
35.27341059798497
 30
0.0
  0
VERTEX
  5
13C
330
129
100
AcDbEntity
  8
Visible (ANSI)
100
AcDbVertex
100
AcDb2dVertex
 10
81.04998359264387
 20
35.26859070153149
 30
0.0
  0
VERTEX
  5
13D
330
129
100
AcDbEntity
  8
Visible (ANSI)
100
AcDbVertex
100
AcDb2dVertex
 10
81.04760165962684
 20
35.26437088994579
 30
0.0
  0
VERTEX
  5
13E
330
129
100
AcDbEntity
  8
Visible (ANSI)
100
AcDbVertex
100
AcDb2dVertex
 10
81.04522273030843
 20
35.26076923381908
 30
0.0
  0
VERTEX
  5
13F
330
129
100
AcDbEntity
  8
Visible (ANSI)
100
AcDbVertex
100
AcDb2dVertex
 10
81.04284079729138
 20
35.25780115643991
 30
0.0
  0
VERTEX
  5
140
330
129
100
AcDbEntity
  8
Visible (ANSI)
100
AcDbVertex
100
AcDb2dVertex
 10
81.04045886427433
 20
35.25547936687809
 30
0.0
  0
VERTEX
  5
141
330
129
100
AcDbEntity
  8
Visible (ANSI)
100
AcDbVertex
100
AcDb2dVertex
 10
81.03807993495593
 20
35.25381380727711
 30
0.0
  0
VERTEX
  5
142
330
129
100
AcDbEntity
  8
Visible (ANSI)
100
AcDbVertex
100
AcDb2dVertex
 10
81.0356980019389
 20
35.25281161011499
 30
0.0
  0
VERTEX
  5
143
330
129
100
AcDbEntity
  8
Visible (ANSI)
100
AcDbVertex
100
AcDb2dVertex
 10
81.03331907262049
 20
35.25247706687758
 30
0.0
  0
SEQEND
  5
12C
330
129
100
AcDbEntity
  8
Visible (ANSI)
  0
POLYLINE
  5
144
330
6C
100
AcDbEntity
  8
Visible (ANSI)
100
AcDb2dPolyline
 66
     1
 10
0.0
 20
0.0
 30
0.0
 70
   128
  0
VERTEX
  5
145
330
144
100
AcDbEntity
  8
Visible (ANSI)
100
AcDbVertex
100
AcDb2dVertex
 10
43.46009448491717
 20
35.25247706687757
 30
0.0
  0
VERTEX
  5
146
330
144
100
AcDbEntity
  8
Visible (ANSI)
100
AcDbVertex
100
AcDb2dVertex
 10
43.45771372521991
 20
35.25281161011499
 30
0.0
  0
VERTEX
  5
148
330
144
100
AcDbEntity
  8
Visible (ANSI)
100
AcDbVertex
100
AcDb2dVertex
 10
43.45533296552265
 20
35.25381380727711
 30
0.0
  0
VERTEX
  5
149
330
144
100
AcDbEntity
  8
Visible (ANSI)
100
AcDbVertex
100
AcDb2dVertex
 10
43.45295220582539
 20
35.25547936687809
 30
0.0
  0
VERTEX
  5
14A
330
144
100
AcDbEntity
  8
Visible (ANSI)
100
AcDbVertex
100
AcDb2dVertex
 10
43.45057144612813
 20
35.25780115643991
 30
0.0
  0
VERTEX
  5
14B
330
144
100
AcDbEntity
  8
Visible (ANSI)
100
AcDbVertex
100
AcDb2dVertex
 10
43.44819066296448
 20
35.26076923381908
 30
0.0
  0
VERTEX
  5
14C
330
144
100
AcDbEntity
  8
Visible (ANSI)
100
AcDbVertex
100
AcDb2dVertex
 10
43.44580990326722
 20
35.26437088994579
 30
0.0
  0
VERTEX
  5
14D
330
144
100
AcDbEntity
  8
Visible (ANSI)
100
AcDbVertex
100
AcDb2dVertex
 10
43.44342914356995
 20
35.26859070153149
 30
0.0
  0
VERTEX
  5
14E
330
144
100
AcDbEntity
  8
Visible (ANSI)
100
AcDbVertex
100
AcDb2dVertex
 10
43.44104838387269
 20
35.27341059798497
 30
0.0
  0
VERTEX
  5
14F
330
144
100
AcDbEntity
  8
Visible (ANSI)
100
AcDbVertex
100
AcDb2dVertex
 10
43.43866761244224
 20
35.27880994134463
 30
0.0
  0
VERTEX
  5
150
330
144
100
AcDbEntity
  8
Visible (ANSI)
100
AcDbVertex
100
AcDb2dVertex
 10
43.43628685274498
 20
35.28476560694428
 30
0.0
  0
VERTEX
  5
151
330
144
100
AcDbEntity
  8
Visible (ANSI)
100
AcDbVertex
100
AcDb2dVertex
 10
43.43390609304772
 20
35.29125209707845
 30
0.0
  0
VERTEX
  5
152
330
144
100
AcDbEntity
  8
Visible (ANSI)
100
AcDbVertex
100
AcDb2dVertex
 10
43.43152532161726
 20
35.2982416334014
 30
0.0
  0
VERTEX
  5
153
330
144
100
AcDbEntity
  8
Visible (ANSI)
100
AcDbVertex
100
AcDb2dVertex
 10
43.42914456192
 20
35.30570428452556
 30
0.0
  0
VERTEX
  5
154
330
144
100
AcDbEntity
  8
Visible (ANSI)
100
AcDbVertex
100
AcDb2dVertex
 10
43.42676379048953
 20
35.31360809508672
 30
0.0
  0
VERTEX
  5
155
330
144
100
AcDbEntity
  8
Visible (ANSI)
100
AcDbVertex
100
AcDb2dVertex
 10
43.42438303079227
 20
35.3219192177426
 30
0.0
  0
VERTEX
  5
156
330
144
100
AcDbEntity
  8
Visible (ANSI)
100
AcDbVertex
100
AcDb2dVertex
 10
43.42200225936182
 20
35.33060206570425
 30
0.0
  0
VERTEX
  5
157
330
144
100
AcDbEntity
  8
Visible (ANSI)
100
AcDbVertex
100
AcDb2dVertex
 10
43.41962149966455
 20
35.33961945646793
 30
0.0
  0
VERTEX
  5
158
330
144
100
AcDbEntity
  8
Visible (ANSI)
100
AcDbVertex
100
AcDb2dVertex
 10
43.41724073996729
 20
35.34893278194626
 30
0.0
  0
VERTEX
  5
159
330
144
100
AcDbEntity
  8
Visible (ANSI)
100
AcDbVertex
100
AcDb2dVertex
 10
43.41485996853684
 20
35.35850214926678
 30
0.0
  0
VERTEX
  5
15A
330
144
100
AcDbEntity
  8
Visible (ANSI)
100
AcDbVertex
100
AcDb2dVertex
 10
43.41247920883958
 20
35.3682865919694
 30
0.0
  0
VERTEX
  5
15B
330
144
100
AcDbEntity
  8
Visible (ANSI)
100
AcDbVertex
100
AcDb2dVertex
 10
43.41009843740912
 20
35.3782442049382
 30
0.0
  0
VERTEX
  5
15C
330
144
100
AcDbEntity
  8
Visible (ANSI)
100
AcDbVertex
100
AcDb2dVertex
 10
43.40771767771186
 20
35.38833234973243
 30
0.0
  0
VERTEX
  5
15D
330
144
100
AcDbEntity
  8
Visible (ANSI)
100
AcDbVertex
100
AcDb2dVertex
 10
43.4053369180146
 20
35.39850782471781
 30
0.0
  0
VERTEX
  5
15E
330
144
100
AcDbEntity
  8
Visible (ANSI)
100
AcDbVertex
100
AcDb2dVertex
 10
43.40295614658414
 20
35.40872706453094
 30
0.0
  0
SEQEND
  5
147
330
144
100
AcDbEntity
  8
Visible (ANSI)
  0
POLYLINE
  5
15F
330
6C
100
AcDbEntity
  8
Visible (ANSI)
100
AcDb2dPolyline
 66
     1
 10
0.0
 20
0.0
 30
0.0
 70
   128
  0
VERTEX
  5
160
330
15F
100
AcDbEntity
  8
Visible (ANSI)
100
AcDbVertex
100
AcDb2dVertex
 10
81.09045542804311
 20
85.09622766761728
 30
0.0
  0
VERTEX
  5
161
330
15F
100
AcDbEntity
  8
Visible (ANSI)
100
AcDbVertex
100
AcDb2dVertex
 10
81.10067401079716
 20
85.09384573460025
 30
0.0
  0
VERTEX
  5
163
330
15F
100
AcDbEntity
  8
Visible (ANSI)
100
AcDbVertex
100
AcDb2dVertex
 10
81.11085054177035
 20
85.09146680528184
 30
0.0
  0
VERTEX
  5
164
330
15F
100
AcDbEntity
  8
Visible (ANSI)
100
AcDbVertex
100
AcDb2dVertex
 10
81.12093996548312
 20
85.08908487226481
 30
0.0
  0
VERTEX
  5
165
330
15F
100
AcDbEntity
  8
Visible (ANSI)
100
AcDbVertex
100
AcDb2dVertex
 10
81.130897226456
 20
85.08670293924778
 30
0.0
  0
VERTEX
  5
166
330
15F
100
AcDbEntity
  8
Visible (ANSI)
100
AcDbVertex
100
AcDb2dVertex
 10
81.14068027290809
 20
85.08432400992935
 30
0.0
  0
VERTEX
  5
167
330
15F
100
AcDbEntity
  8
Visible (ANSI)
100
AcDbVertex
100
AcDb2dVertex
 10
81.15025005675711
 20
85.08194207691232
 30
0.0
  0
VERTEX
  5
168
330
15F
100
AcDbEntity
  8
Visible (ANSI)
100
AcDbVertex
100
AcDb2dVertex
 10
81.15956452622222
 20
85.07956314759391
 30
0.0
  0
VERTEX
  5
169
330
15F
100
AcDbEntity
  8
Visible (ANSI)
100
AcDbVertex
100
AcDb2dVertex
 10
81.16858162952254
 20
85.07718121457688
 30
0.0
  0
VERTEX
  5
16A
330
15F
100
AcDbEntity
  8
Visible (ANSI)
100
AcDbVertex
100
AcDb2dVertex
 10
81.17726532227447
 20
85.07479928155985
 30
0.0
  0
VERTEX
  5
16B
330
15F
100
AcDbEntity
  8
Visible (ANSI)
100
AcDbVertex
100
AcDb2dVertex
 10
81.18557655639573
 20
85.07242035224143
 30
0.0
  0
VERTEX
  5
16C
330
15F
100
AcDbEntity
  8
Visible (ANSI)
100
AcDbVertex
100
AcDb2dVertex
 10
81.1934792875027
 20
85.0700384192244
 30
0.0
  0
VERTEX
  5
16D
330
15F
100
AcDbEntity
  8
Visible (ANSI)
100
AcDbVertex
100
AcDb2dVertex
 10
81.20094047491042
 20
85.06765648620737
 30
0.0
  0
VERTEX
  5
16E
330
15F
100
AcDbEntity
  8
Visible (ANSI)
100
AcDbVertex
100
AcDb2dVertex
 10
81.20793008163254
 20
85.06527755688896
 30
0.0
  0
VERTEX
  5
16F
330
15F
100
AcDbEntity
  8
Visible (ANSI)
100
AcDbVertex
100
AcDb2dVertex
 10
81.21441807068274
 20
85.06289562387191
 30
0.0
  0
VERTEX
  5
170
330
15F
100
AcDbEntity
  8
Visible (ANSI)
100
AcDbVertex
100
AcDb2dVertex
 10
81.22037440507467
 20
85.0605166945535
 30
0.0
  0
VERTEX
  5
171
330
15F
100
AcDbEntity
  8
Visible (ANSI)
100
AcDbVertex
100
AcDb2dVertex
 10
81.22577205152058
 20
85.05813476153646
 30
0.0
  0
VERTEX
  5
172
330
15F
100
AcDbEntity
  8
Visible (ANSI)
100
AcDbVertex
100
AcDb2dVertex
 10
81.23059298782871
 20
85.05575282851941
 30
0.0
  0
VERTEX
  5
173
330
15F
100
AcDbEntity
  8
Visible (ANSI)
100
AcDbVertex
100
AcDb2dVertex
 10
81.23481318440999
 20
85.053373899201
 30
0.0
  0
VERTEX
  5
174
330
15F
100
AcDbEntity
  8
Visible (ANSI)
100
AcDbVertex
100
AcDb2dVertex
 10
81.23841461907257
 20
85.05099196618397
 30
0.0
  0
VERTEX
  5
175
330
15F
100
AcDbEntity
  8
Visible (ANSI)
100
AcDbVertex
100
AcDb2dVertex
 10
81.24138227332332
 20
85.04861303686556
 30
0.0
  0
VERTEX
  5
176
330
15F
100
AcDbEntity
  8
Visible (ANSI)
100
AcDbVertex
100
AcDb2dVertex
 10
81.24370413236766
 20
85.04623110384853
 30
0.0
  0
VERTEX
  5
177
330
15F
100
AcDbEntity
  8
Visible (ANSI)
100
AcDbVertex
100
AcDb2dVertex
 10
81.24536818141107
 20
85.04384917083148
 30
0.0
  0
VERTEX
  5
178
330
15F
100
AcDbEntity
  8
Visible (ANSI)
100
AcDbVertex
100
AcDb2dVertex
 10
81.24637141675497
 20
85.04147024151308
 30
0.0
  0
VERTEX
  5
179
330
15F
100
AcDbEntity
  8
Visible (ANSI)
100
AcDbVertex
100
AcDb2dVertex
 10
81.24670482730339
 20
85.03908830849605
 30
0.0
  0
SEQEND
  5
162
330
15F
100
AcDbEntity
  8
Visible (ANSI)
  0
POLYLINE
  5
17A
330
6C
100
AcDbEntity
  8
Visible (ANSI)
100
AcDb2dPolyline
 66
     1
 10
0.0
 20
0.0
 30
0.0
 70
   128
  0
VERTEX
  5
17B
330
17A
100
AcDbEntity
  8
Visible (ANSI)
100
AcDbVertex
100
AcDb2dVertex
 10
81.24670482730339
 20
35.46586540286398
 30
0.0
  0
VERTEX
  5
17C
330
17A
100
AcDbEntity
  8
Visible (ANSI)
100
AcDbVertex
100
AcDb2dVertex
 10
81.24637141675497
 20
35.46348464316672
 30
0.0
  0
VERTEX
  5
17E
330
17A
100
AcDbEntity
  8
Visible (ANSI)
100
AcDbVertex
100
AcDb2dVertex
 10
81.24536818141107
 20
35.46110388346946
 30
0.0
  0
VERTEX
  5
17F
330
17A
100
AcDbEntity
  8
Visible (ANSI)
100
AcDbVertex
100
AcDb2dVertex
 10
81.24370413236766
 20
35.45872312377219
 30
0.0
  0
VERTEX
  5
180
330
17A
100
AcDbEntity
  8
Visible (ANSI)
100
AcDbVertex
100
AcDb2dVertex
 10
81.24138227332332
 20
35.45634236407493
 30
0.0
  0
VERTEX
  5
181
330
17A
100
AcDbEntity
  8
Visible (ANSI)
100
AcDbVertex
100
AcDb2dVertex
 10
81.23841461907257
 20
35.45396158091128
 30
0.0
  0
VERTEX
  5
182
330
17A
100
AcDbEntity
  8
Visible (ANSI)
100
AcDbVertex
100
AcDb2dVertex
 10
81.23481318440999
 20
35.45158082121402
 30
0.0
  0
VERTEX
  5
183
330
17A
100
AcDbEntity
  8
Visible (ANSI)
100
AcDbVertex
100
AcDb2dVertex
 10
81.23059298782871
 20
35.44920006151676
 30
0.0
  0
VERTEX
  5
184
330
17A
100
AcDbEntity
  8
Visible (ANSI)
100
AcDbVertex
100
AcDb2dVertex
 10
81.22577205152058
 20
35.4468193018195
 30
0.0
  0
VERTEX
  5
185
330
17A
100
AcDbEntity
  8
Visible (ANSI)
100
AcDbVertex
100
AcDb2dVertex
 10
81.22037440507467
 20
35.44443853038905
 30
0.0
  0
VERTEX
  5
186
330
17A
100
AcDbEntity
  8
Visible (ANSI)
100
AcDbVertex
100
AcDb2dVertex
 10
81.21441807068274
 20
35.44205777069178
 30
0.0
  0
VERTEX
  5
187
330
17A
100
AcDbEntity
  8
Visible (ANSI)
100
AcDbVertex
100
AcDb2dVertex
 10
81.20793008163254
 20
35.43967701099452
 30
0.0
  0
VERTEX
  5
188
330
17A
100
AcDbEntity
  8
Visible (ANSI)
100
AcDbVertex
100
AcDb2dVertex
 10
81.20094047491042
 20
35.43729623956406
 30
0.0
  0
VERTEX
  5
189
330
17A
100
AcDbEntity
  8
Visible (ANSI)
100
AcDbVertex
100
AcDb2dVertex
 10
81.1934792875027
 20
35.43491547986679
 30
0.0
  0
VERTEX
  5
18A
330
17A
100
AcDbEntity
  8
Visible (ANSI)
100
AcDbVertex
100
AcDb2dVertex
 10
81.18557655639573
 20
35.43253470843634
 30
0.0
  0
VERTEX
  5
18B
330
17A
100
AcDbEntity
  8
Visible (ANSI)
100
AcDbVertex
100
AcDb2dVertex
 10
81.17726532227447
 20
35.43015394873908
 30
0.0
  0
VERTEX
  5
18C
330
17A
100
AcDbEntity
  8
Visible (ANSI)
100
AcDbVertex
100
AcDb2dVertex
 10
81.16858162952254
 20
35.42777317730862
 30
0.0
  0
VERTEX
  5
18D
330
17A
100
AcDbEntity
  8
Visible (ANSI)
100
AcDbVertex
100
AcDb2dVertex
 10
81.15956452622222
 20
35.42539241761136
 30
0.0
  0
VERTEX
  5
18E
330
17A
100
AcDbEntity
  8
Visible (ANSI)
100
AcDbVertex
100
AcDb2dVertex
 10
81.15025005675711
 20
35.4230116579141
 30
0.0
  0
VERTEX
  5
18F
330
17A
100
AcDbEntity
  8
Visible (ANSI)
100
AcDbVertex
100
AcDb2dVertex
 10
81.14068027290809
 20
35.42063088648364
 30
0.0
  0
VERTEX
  5
190
330
17A
100
AcDbEntity
  8
Visible (ANSI)
100
AcDbVertex
100
AcDb2dVertex
 10
81.130897226456
 20
35.41825012678638
 30
0.0
  0
VERTEX
  5
191
330
17A
100
AcDbEntity
  8
Visible (ANSI)
100
AcDbVertex
100
AcDb2dVertex
 10
81.12093996548312
 20
35.41586935535592
 30
0.0
  0
VERTEX
  5
192
330
17A
100
AcDbEntity
  8
Visible (ANSI)
100
AcDbVertex
100
AcDb2dVertex
 10
81.11085054177035
 20
35.41348859565866
 30
0.0
  0
VERTEX
  5
193
330
17A
100
AcDbEntity
  8
Visible (ANSI)
100
AcDbVertex
100
AcDb2dVertex
 10
81.10067401079716
 20
35.41110783596141
 30
0.0
  0
VERTEX
  5
194
330
17A
100
AcDbEntity
  8
Visible (ANSI)
100
AcDbVertex
100
AcDb2dVertex
 10
81.09045542804311
 20
35.40872706453094
 30
0.0
  0
SEQEND
  5
17D
330
17A
100
AcDbEntity
  8
Visible (ANSI)
  0
POLYLINE
  5
195
330
6C
100
AcDbEntity
  8
Visible (ANSI)
100
AcDb2dPolyline
 66
     1
 10
0.0
 20
0.0
 30
0.0
 70
   128
  0
VERTEX
  5
196
330
195
100
AcDbEntity
  8
Visible (ANSI)
100
AcDbVertex
100
AcDb2dVertex
 10
43.40295614658414
 20
85.09622766761728
 30
0.0
  0
VERTEX
  5
197
330
195
100
AcDbEntity
  8
Visible (ANSI)
100
AcDbVertex
100
AcDb2dVertex
 10
43.4053369180146
 20
85.10644625037135
 30
0.0
  0
VERTEX
  5
199
330
195
100
AcDbEntity
  8
Visible (ANSI)
100
AcDbVertex
100
AcDb2dVertex
 10
43.40771767771186
 20
85.11662278134455
 30
0.0
  0
VERTEX
  5
19A
330
195
100
AcDbEntity
  8
Visible (ANSI)
100
AcDbVertex
100
AcDb2dVertex
 10
43.41009843740912
 20
85.12670920135869
 30
0.0
  0
VERTEX
  5
19B
330
195
100
AcDbEntity
  8
Visible (ANSI)
100
AcDbVertex
100
AcDb2dVertex
 10
43.41247920883958
 20
85.13666646233154
 30
0.0
  0
VERTEX
  5
19C
330
195
100
AcDbEntity
  8
Visible (ANSI)
100
AcDbVertex
100
AcDb2dVertex
 10
43.41485996853684
 20
85.14645251248227
 30
0.0
  0
VERTEX
  5
19D
330
195
100
AcDbEntity
  8
Visible (ANSI)
100
AcDbVertex
100
AcDb2dVertex
 10
43.41724073996729
 20
85.15602229633131
 30
0.0
  0
VERTEX
  5
19E
330
195
100
AcDbEntity
  8
Visible (ANSI)
100
AcDbVertex
100
AcDb2dVertex
 10
43.41962149966455
 20
85.1653337620978
 30
0.0
  0
VERTEX
  5
19F
330
195
100
AcDbEntity
  8
Visible (ANSI)
100
AcDbVertex
100
AcDb2dVertex
 10
43.42200225936182
 20
85.17435086539812
 30
0.0
  0
VERTEX
  5
1A0
330
195
100
AcDbEntity
  8
Visible (ANSI)
100
AcDbVertex
100
AcDb2dVertex
 10
43.42438303079227
 20
85.18303455815004
 30
0.0
  0
VERTEX
  5
1A1
330
195
100
AcDbEntity
  8
Visible (ANSI)
100
AcDbVertex
100
AcDb2dVertex
 10
43.42676379048953
 20
85.19134579227126
 30
0.0
  0
VERTEX
  5
1A2
330
195
100
AcDbEntity
  8
Visible (ANSI)
100
AcDbVertex
100
AcDb2dVertex
 10
43.42914456192
 20
85.19924852337823
 30
0.0
  0
VERTEX
  5
1A3
330
195
100
AcDbEntity
  8
Visible (ANSI)
100
AcDbVertex
100
AcDb2dVertex
 10
43.43152532161726
 20
85.2067127144846
 30
0.0
  0
VERTEX
  5
1A4
330
195
100
AcDbEntity
  8
Visible (ANSI)
100
AcDbVertex
100
AcDb2dVertex
 10
43.43390609304772
 20
85.21370232120675
 30
0.0
  0
VERTEX
  5
1A5
330
195
100
AcDbEntity
  8
Visible (ANSI)
100
AcDbVertex
100
AcDb2dVertex
 10
43.43628685274498
 20
85.2201873065583
 30
0.0
  0
VERTEX
  5
1A6
330
195
100
AcDbEntity
  8
Visible (ANSI)
100
AcDbVertex
100
AcDb2dVertex
 10
43.43866761244224
 20
85.22614364095021
 30
0.0
  0
VERTEX
  5
1A7
330
195
100
AcDbEntity
  8
Visible (ANSI)
100
AcDbVertex
100
AcDb2dVertex
 10
43.44104838387269
 20
85.2315442910948
 30
0.0
  0
VERTEX
  5
1A8
330
195
100
AcDbEntity
  8
Visible (ANSI)
100
AcDbVertex
100
AcDb2dVertex
 10
43.44342914356995
 20
85.23636222370429
 30
0.0
  0
VERTEX
  5
1A9
330
195
100
AcDbEntity
  8
Visible (ANSI)
100
AcDbVertex
100
AcDb2dVertex
 10
43.44580990326722
 20
85.24058242028553
 30
0.0
  0
VERTEX
  5
1AA
330
195
100
AcDbEntity
  8
Visible (ANSI)
100
AcDbVertex
100
AcDb2dVertex
 10
43.44819066296448
 20
85.24418385494811
 30
0.0
  0
VERTEX
  5
1AB
330
195
100
AcDbEntity
  8
Visible (ANSI)
100
AcDbVertex
100
AcDb2dVertex
 10
43.45057144612813
 20
85.24715150919886
 30
0.0
  0
VERTEX
  5
1AC
330
195
100
AcDbEntity
  8
Visible (ANSI)
100
AcDbVertex
100
AcDb2dVertex
 10
43.45295220582539
 20
85.24947336824322
 30
0.0
  0
VERTEX
  5
1AD
330
195
100
AcDbEntity
  8
Visible (ANSI)
100
AcDbVertex
100
AcDb2dVertex
 10
43.45533296552265
 20
85.25114042098529
 30
0.0
  0
VERTEX
  5
1AE
330
195
100
AcDbEntity
  8
Visible (ANSI)
100
AcDbVertex
100
AcDb2dVertex
 10
43.45771372521991
 20
85.25214365632916
 30
0.0
  0
VERTEX
  5
1AF
330
195
100
AcDbEntity
  8
Visible (ANSI)
100
AcDbVertex
100
AcDb2dVertex
 10
43.46009448491717
 20
85.25247706687755
 30
0.0
  0
SEQEND
  5
198
330
195
100
AcDbEntity
  8
Visible (ANSI)
  0
POLYLINE
  5
1B0
330
6C
100
AcDbEntity
  8
Visible (ANSI)
100
AcDb2dPolyline
 66
     1
 10
0.0
 20
0.0
 30
0.0
 70
   128
  0
VERTEX
  5
1B1
330
1B0
100
AcDbEntity
  8
Visible (ANSI)
100
AcDbVertex
100
AcDb2dVertex
 10
81.03331907262049
 20
85.25247706687755
 30
0.0
  0
VERTEX
  5
1B2
330
1B0
100
AcDbEntity
  8
Visible (ANSI)
100
AcDbVertex
100
AcDb2dVertex
 10
81.0356980019389
 20
85.25214365632916
 30
0.0
  0
VERTEX
  5
1B4
330
1B0
100
AcDbEntity
  8
Visible (ANSI)
100
AcDbVertex
100
AcDb2dVertex
 10
81.03807993495593
 20
85.25114042098529
 30
0.0
  0
VERTEX
  5
1B5
330
1B0
100
AcDbEntity
  8
Visible (ANSI)
100
AcDbVertex
100
AcDb2dVertex
 10
81.04045886427433
 20
85.24947336824322
 30
0.0
  0
VERTEX
  5
1B6
330
1B0
100
AcDbEntity
  8
Visible (ANSI)
100
AcDbVertex
100
AcDb2dVertex
 10
81.04284079729138
 20
85.24715150919886
 30
0.0
  0
VERTEX
  5
1B7
330
1B0
100
AcDbEntity
  8
Visible (ANSI)
100
AcDbVertex
100
AcDb2dVertex
 10
81.04522273030843
 20
85.24418385494811
 30
0.0
  0
VERTEX
  5
1B8
330
1B0
100
AcDbEntity
  8
Visible (ANSI)
100
AcDbVertex
100
AcDb2dVertex
 10
81.04760165962684
 20
85.24058242028553
 30
0.0
  0
VERTEX
  5
1B9
330
1B0
100
AcDbEntity
  8
Visible (ANSI)
100
AcDbVertex
100
AcDb2dVertex
 10
81.04998359264387
 20
85.23636222370429
 30
0.0
  0
VERTEX
  5
1BA
330
1B0
100
AcDbEntity
  8
Visible (ANSI)
100
AcDbVertex
100
AcDb2dVertex
 10
81.05236252196228
 20
85.2315442910948
 30
0.0
  0
VERTEX
  5
1BB
330
1B0
100
AcDbEntity
  8
Visible (ANSI)
100
AcDbVertex
100
AcDb2dVertex
 10
81.05474445497931
 20
85.22614364095021
 30
0.0
  0
VERTEX
  5
1BC
330
1B0
100
AcDbEntity
  8
Visible (ANSI)
100
AcDbVertex
100
AcDb2dVertex
 10
81.05712638799635
 20
85.2201873065583
 30
0.0
  0
VERTEX
  5
1BD
330
1B0
100
AcDbEntity
  8
Visible (ANSI)
100
AcDbVertex
100
AcDb2dVertex
 10
81.05950531731476
 20
85.21370232120675
 30
0.0
  0
VERTEX
  5
1BE
330
1B0
100
AcDbEntity
  8
Visible (ANSI)
100
AcDbVertex
100
AcDb2dVertex
 10
81.06188725033179
 20
85.2067127144846
 30
0.0
  0
VERTEX
  5
1BF
330
1B0
100
AcDbEntity
  8
Visible (ANSI)
100
AcDbVertex
100
AcDb2dVertex
 10
81.06426918334882
 20
85.19924852337823
 30
0.0
  0
VERTEX
  5
1C0
330
1B0
100
AcDbEntity
  8
Visible (ANSI)
100
AcDbVertex
100
AcDb2dVertex
 10
81.06664811266723
 20
85.19134579227126
 30
0.0
  0
VERTEX
  5
1C1
330
1B0
100
AcDbEntity
  8
Visible (ANSI)
100
AcDbVertex
100
AcDb2dVertex
 10
81.06903004568428
 20
85.18303455815004
 30
0.0
  0
VERTEX
  5
1C2
330
1B0
100
AcDbEntity
  8
Visible (ANSI)
100
AcDbVertex
100
AcDb2dVertex
 10
81.07140897500269
 20
85.17435086539812
 30
0.0
  0
VERTEX
  5
1C3
330
1B0
100
AcDbEntity
  8
Visible (ANSI)
100
AcDbVertex
100
AcDb2dVertex
 10
81.07379090801972
 20
85.1653337620978
 30
0.0
  0
VERTEX
  5
1C4
330
1B0
100
AcDbEntity
  8
Visible (ANSI)
100
AcDbVertex
100
AcDb2dVertex
 10
81.07617284103676
 20
85.15602229633131
 30
0.0
  0
VERTEX
  5
1C5
330
1B0
100
AcDbEntity
  8
Visible (ANSI)
100
AcDbVertex
100
AcDb2dVertex
 10
81.07855177035517
 20
85.14645251248227
 30
0.0
  0
VERTEX
  5
1C6
330
1B0
100
AcDbEntity
  8
Visible (ANSI)
100
AcDbVertex
100
AcDb2dVertex
 10
81.0809337033722
 20
85.13666646233154
 30
0.0
  0
VERTEX
  5
1C7
330
1B0
100
AcDbEntity
  8
Visible (ANSI)
100
AcDbVertex
100
AcDb2dVertex
 10
81.08331263269063
 20
85.12670920135869
 30
0.0
  0
VERTEX
  5
1C8
330
1B0
100
AcDbEntity
  8
Visible (ANSI)
100
AcDbVertex
100
AcDb2dVertex
 10
81.08569456570767
 20
85.11662278134455
 30
0.0
  0
VERTEX
  5
1C9
330
1B0
100
AcDbEntity
  8
Visible (ANSI)
100
AcDbVertex
100
AcDb2dVertex
 10
81.08807649872471
 20
85.10644625037135
 30
0.0
  0
VERTEX
  5
1CA
330
1B0
100
AcDbEntity
  8
Visible (ANSI)
100
AcDbVertex
100
AcDb2dVertex
 10
81.09045542804311
 20
85.09622766761728
 30
0.0
  0
SEQEND
  5
1B3
330
1B0
100
AcDbEntity
  8
Visible (ANSI)
  0
POLYLINE
  5
1CB
330
6C
100
AcDbEntity
  8
Visible (ANSI)
100
AcDb2dPolyline
 66
     1
 10
0.0
 20
0.0
 30
0.0
 70
   128
  0
VERTEX
  5
1CC
330
1CB
100
AcDbEntity
  8
Visible (ANSI)
100
AcDbVertex
100
AcDb2dVertex
 10
43.40295614658414
 20
35.40872706453094
 30
0.0
  0
VERTEX
  5
1CD
330
1CB
100
AcDbEntity
  8
Visible (ANSI)
100
AcDbVertex
100
AcDb2dVertex
 10
43.392736906771
 20
35.41110783596141
 30
0.0
  0
VERTEX
  5
1CF
330
1CB
100
AcDbEntity
  8
Visible (ANSI)
100
AcDbVertex
100
AcDb2dVertex
 10
43.38256143178563
 20
35.41348859565866
 30
0.0
  0
VERTEX
  5
1D0
330
1CB
100
AcDbEntity
  8
Visible (ANSI)
100
AcDbVertex
100
AcDb2dVertex
 10
43.37247328699141
 20
35.41586935535592
 30
0.0
  0
VERTEX
  5
1D1
330
1CB
100
AcDbEntity
  8
Visible (ANSI)
100
AcDbVertex
100
AcDb2dVertex
 10
43.3625156740226
 20
35.41825012678638
 30
0.0
  0
VERTEX
  5
1D2
330
1CB
100
AcDbEntity
  8
Visible (ANSI)
100
AcDbVertex
100
AcDb2dVertex
 10
43.35273123131997
 20
35.42063088648364
 30
0.0
  0
VERTEX
  5
1D3
330
1CB
100
AcDbEntity
  8
Visible (ANSI)
100
AcDbVertex
100
AcDb2dVertex
 10
43.34316186399946
 20
35.4230116579141
 30
0.0
  0
VERTEX
  5
1D4
330
1CB
100
AcDbEntity
  8
Visible (ANSI)
100
AcDbVertex
100
AcDb2dVertex
 10
43.33384853852112
 20
35.42539241761136
 30
0.0
  0
VERTEX
  5
1D5
330
1CB
100
AcDbEntity
  8
Visible (ANSI)
100
AcDbVertex
100
AcDb2dVertex
 10
43.32483114775746
 20
35.42777317730862
 30
0.0
  0
VERTEX
  5
1D6
330
1CB
100
AcDbEntity
  8
Visible (ANSI)
100
AcDbVertex
100
AcDb2dVertex
 10
43.3161482997958
 20
35.43015394873908
 30
0.0
  0
VERTEX
  5
1D7
330
1CB
100
AcDbEntity
  8
Visible (ANSI)
100
AcDbVertex
100
AcDb2dVertex
 10
43.30783717713992
 20
35.43253470843634
 30
0.0
  0
VERTEX
  5
1D8
330
1CB
100
AcDbEntity
  8
Visible (ANSI)
100
AcDbVertex
100
AcDb2dVertex
 10
43.29993336657875
 20
35.43491547986679
 30
0.0
  0
VERTEX
  5
1D9
330
1CB
100
AcDbEntity
  8
Visible (ANSI)
100
AcDbVertex
100
AcDb2dVertex
 10
43.2924707154546
 20
35.43729623956406
 30
0.0
  0
VERTEX
  5
1DA
330
1CB
100
AcDbEntity
  8
Visible (ANSI)
100
AcDbVertex
100
AcDb2dVertex
 10
43.28548117913165
 20
35.43967701099452
 30
0.0
  0
VERTEX
  5
1DB
330
1CB
100
AcDbEntity
  8
Visible (ANSI)
100
AcDbVertex
100
AcDb2dVertex
 10
43.27899468899747
 20
35.44205777069178
 30
0.0
  0
VERTEX
  5
1DC
330
1CB
100
AcDbEntity
  8
Visible (ANSI)
100
AcDbVertex
100
AcDb2dVertex
 10
43.27303902339783
 20
35.44443853038905
 30
0.0
  0
VERTEX
  5
1DD
330
1CB
100
AcDbEntity
  8
Visible (ANSI)
100
AcDbVertex
100
AcDb2dVertex
 10
43.26763968003818
 20
35.4468193018195
 30
0.0
  0
VERTEX
  5
1DE
330
1CB
100
AcDbEntity
  8
Visible (ANSI)
100
AcDbVertex
100
AcDb2dVertex
 10
43.26281978358469
 20
35.44920006151676
 30
0.0
  0
VERTEX
  5
1DF
330
1CB
100
AcDbEntity
  8
Visible (ANSI)
100
AcDbVertex
100
AcDb2dVertex
 10
43.25859997199898
 20
35.45158082121402
 30
0.0
  0
VERTEX
  5
1E0
330
1CB
100
AcDbEntity
  8
Visible (ANSI)
100
AcDbVertex
100
AcDb2dVertex
 10
43.25499831587229
 20
35.45396158091128
 30
0.0
  0
VERTEX
  5
1E1
330
1CB
100
AcDbEntity
  8
Visible (ANSI)
100
AcDbVertex
100
AcDb2dVertex
 10
43.25203023849311
 20
35.45634236407493
 30
0.0
  0
VERTEX
  5
1E2
330
1CB
100
AcDbEntity
  8
Visible (ANSI)
100
AcDbVertex
100
AcDb2dVertex
 10
43.24970844893129
 20
35.45872312377219
 30
0.0
  0
VERTEX
  5
1E3
330
1CB
100
AcDbEntity
  8
Visible (ANSI)
100
AcDbVertex
100
AcDb2dVertex
 10
43.2480428893303
 20
35.46110388346946
 30
0.0
  0
VERTEX
  5
1E4
330
1CB
100
AcDbEntity
  8
Visible (ANSI)
100
AcDbVertex
100
AcDb2dVertex
 10
43.24704069216819
 20
35.46348464316672
 30
0.0
  0
VERTEX
  5
1E5
330
1CB
100
AcDbEntity
  8
Visible (ANSI)
100
AcDbVertex
100
AcDb2dVertex
 10
43.24670614893078
 20
35.46586540286398
 30
0.0
  0
SEQEND
  5
1CE
330
1CB
100
AcDbEntity
  8
Visible (ANSI)
  0
POLYLINE
  5
1E6
330
6C
100
AcDbEntity
  8
Visible (ANSI)
100
AcDb2dPolyline
 66
     1
 10
0.0
 20
0.0
 30
0.0
 70
   128
  0
VERTEX
  5
1E7
330
1E6
100
AcDbEntity
  8
Visible (ANSI)
100
AcDbVertex
100
AcDb2dVertex
 10
43.24670614893078
 20
85.03908830849605
 30
0.0
  0
VERTEX
  5
1E8
330
1E6
100
AcDbEntity
  8
Visible (ANSI)
100
AcDbVertex
100
AcDb2dVertex
 10
43.24704069216819
 20
85.04147024151308
 30
0.0
  0
VERTEX
  5
1EA
330
1E6
100
AcDbEntity
  8
Visible (ANSI)
100
AcDbVertex
100
AcDb2dVertex
 10
43.2480428893303
 20
85.04384917083148
 30
0.0
  0
VERTEX
  5
1EB
330
1E6
100
AcDbEntity
  8
Visible (ANSI)
100
AcDbVertex
100
AcDb2dVertex
 10
43.24970844893129
 20
85.04623110384853
 30
0.0
  0
VERTEX
  5
1EC
330
1E6
100
AcDbEntity
  8
Visible (ANSI)
100
AcDbVertex
100
AcDb2dVertex
 10
43.25203023849311
 20
85.04861303686556
 30
0.0
  0
VERTEX
  5
1ED
330
1E6
100
AcDbEntity
  8
Visible (ANSI)
100
AcDbVertex
100
AcDb2dVertex
 10
43.25499831587229
 20
85.05099196618397
 30
0.0
  0
VERTEX
  5
1EE
330
1E6
100
AcDbEntity
  8
Visible (ANSI)
100
AcDbVertex
100
AcDb2dVertex
 10
43.25859997199898
 20
85.053373899201
 30
0.0
  0
VERTEX
  5
1EF
330
1E6
100
AcDbEntity
  8
Visible (ANSI)
100
AcDbVertex
100
AcDb2dVertex
 10
43.26281978358469
 20
85.05575282851941
 30
0.0
  0
VERTEX
  5
1F0
330
1E6
100
AcDbEntity
  8
Visible (ANSI)
100
AcDbVertex
100
AcDb2dVertex
 10
43.26763968003818
 20
85.05813476153646
 30
0.0
  0
VERTEX
  5
1F1
330
1E6
100
AcDbEntity
  8
Visible (ANSI)
100
AcDbVertex
100
AcDb2dVertex
 10
43.27303902339783
 20
85.0605166945535
 30
0.0
  0
VERTEX
  5
1F2
330
1E6
100
AcDbEntity
  8
Visible (ANSI)
100
AcDbVertex
100
AcDb2dVertex
 10
43.27899468899747
 20
85.06289562387191
 30
0.0
  0
VERTEX
  5
1F3
330
1E6
100
AcDbEntity
  8
Visible (ANSI)
100
AcDbVertex
100
AcDb2dVertex
 10
43.28548117913165
 20
85.06527755688896
 30
0.0
  0
VERTEX
  5
1F4
330
1E6
100
AcDbEntity
  8
Visible (ANSI)
100
AcDbVertex
100
AcDb2dVertex
 10
43.2924707154546
 20
85.06765648620737
 30
0.0
  0
VERTEX
  5
1F5
330
1E6
100
AcDbEntity
  8
Visible (ANSI)
100
AcDbVertex
100
AcDb2dVertex
 10
43.29993336657875
 20
85.0700384192244
 30
0.0
  0
VERTEX
  5
1F6
330
1E6
100
AcDbEntity
  8
Visible (ANSI)
100
AcDbVertex
100
AcDb2dVertex
 10
43.30783717713992
 20
85.07242035224143
 30
0.0
  0
VERTEX
  5
1F7
330
1E6
100
AcDbEntity
  8
Visible (ANSI)
100
AcDbVertex
100
AcDb2dVertex
 10
43.3161482997958
 20
85.07479928155985
 30
0.0
  0
VERTEX
  5
1F8
330
1E6
100
AcDbEntity
  8
Visible (ANSI)
100
AcDbVertex
100
AcDb2dVertex
 10
43.32483114775746
 20
85.07718121457688
 30
0.0
  0
VERTEX
  5
1F9
330
1E6
100
AcDbEntity
  8
Visible (ANSI)
100
AcDbVertex
100
AcDb2dVertex
 10
43.33384853852112
 20
85.07956314759391
 30
0.0
  0
VERTEX
  5
1FA
330
1E6
100
AcDbEntity
  8
Visible (ANSI)
100
AcDbVertex
100
AcDb2dVertex
 10
43.34316186399946
 20
85.08194207691232
 30
0.0
  0
VERTEX
  5
1FB
330
1E6
100
AcDbEntity
  8
Visible (ANSI)
100
AcDbVertex
100
AcDb2dVertex
 10
43.35273123131997
 20
85.08432400992935
 30
0.0
  0
VERTEX
  5
1FC
330
1E6
100
AcDbEntity
  8
Visible (ANSI)
100
AcDbVertex
100
AcDb2dVertex
 10
43.3625156740226
 20
85.08670293924778
 30
0.0
  0
VERTEX
  5
1FD
330
1E6
100
AcDbEntity
  8
Visible (ANSI)
100
AcDbVertex
100
AcDb2dVertex
 10
43.37247328699141
 20
85.08908487226481
 30
0.0
  0
VERTEX
  5
1FE
330
1E6
100
AcDbEntity
  8
Visible (ANSI)
100
AcDbVertex
100
AcDb2dVertex
 10
43.38256143178563
 20
85.09146680528184
 30
0.0
  0
VERTEX
  5
1FF
330
1E6
100
AcDbEntity
  8
Visible (ANSI)
100
AcDbVertex
100
AcDb2dVertex
 10
43.392736906771
 20
85.09384573460025
 30
0.0
  0
VERTEX
  5
200
330
1E6
100
AcDbEntity
  8
Visible (ANSI)
100
AcDbVertex
100
AcDb2dVertex
 10
43.40295614658414
 20
85.09622766761728
 30
0.0
  0
SEQEND
  5
1E9
330
1E6
100
AcDbEntity
  8
Visible (ANSI)
  0
MTEXT
  5
202
330
6C
100
AcDbEntity
  8
Symbol (ANSI)
100
AcDbMText
 10
57.07249896491181
 20
28.96291279213743
 30
0.0
 40
1.320000016313838
 41
0.0
 46
0.0
 71
     7
 72
     1
  1
FRONT VIEW
  7
Text Style154
 73
     1
 44
1.0
  0
LINE
  5
204
330
6C
100
AcDbEntity
  8
Symbol (ANSI)
370
    30
100
AcDbLine
 10
56.94049862535956
 20
28.69372478101364
 30
0.0
 11
67.552913672502
 21
28.69372478101364
 31
0.0
  0
POLYLINE
  5
205
330
6C
100
AcDbEntity
  8
Visible (ANSI)
100
AcDb2dPolyline
 66
     1
 10
0.0
 20
0.0
 30
0.0
 70
   128
  0
VERTEX
  5
206
330
205
100
AcDbEntity
  8
Visible (ANSI)
100
AcDbVertex
100
AcDb2dVertex
 10
125.3333575509887
 20
35.40872706453094
 30
0.0
  0
VERTEX
  5
207
330
205
100
AcDbEntity
  8
Visible (ANSI)
100
AcDbVertex
100
AcDb2dVertex
 10
125.3336920879241
 20
35.39850782471781
 30
0.0
  0
VERTEX
  5
209
330
205
100
AcDbEntity
  8
Visible (ANSI)
100
AcDbVertex
100
AcDb2dVertex
 10
125.3346942907466
 20
35.38833234973243
 30
0.0
  0
VERTEX
  5
20A
330
205
100
AcDbEntity
  8
Visible (ANSI)
100
AcDbVertex
100
AcDb2dVertex
 10
125.3363598533725
 20
35.3782442049382
 30
0.0
  0
VERTEX
  5
20B
330
205
100
AcDbEntity
  8
Visible (ANSI)
100
AcDbVertex
100
AcDb2dVertex
 10
125.3386816420177
 20
35.3682865919694
 30
0.0
  0
VERTEX
  5
20C
330
205
100
AcDbEntity
  8
Visible (ANSI)
100
AcDbVertex
100
AcDb2dVertex
 10
125.3416497186635
 20
35.35850214926678
 30
0.0
  0
VERTEX
  5
20D
330
205
100
AcDbEntity
  8
Visible (ANSI)
100
AcDbVertex
100
AcDb2dVertex
 10
125.3452513762569
 20
35.34893278194626
 30
0.0
  0
VERTEX
  5
20E
330
205
100
AcDbEntity
  8
Visible (ANSI)
100
AcDbVertex
100
AcDb2dVertex
 10
125.3494711856426
 20
35.33961945646793
 30
0.0
  0
VERTEX
  5
20F
330
205
100
AcDbEntity
  8
Visible (ANSI)
100
AcDbVertex
100
AcDb2dVertex
 10
125.3542910776961
 20
35.33060206570425
 30
0.0
  0
VERTEX
  5
210
330
205
100
AcDbEntity
  8
Visible (ANSI)
100
AcDbVertex
100
AcDb2dVertex
 10
125.3596904254557
 20
35.3219192177426
 30
0.0
  0
VERTEX
  5
211
330
205
100
AcDbEntity
  8
Visible (ANSI)
100
AcDbVertex
100
AcDb2dVertex
 10
125.3656460910554
 20
35.31360809508672
 30
0.0
  0
VERTEX
  5
212
330
205
100
AcDbEntity
  8
Visible (ANSI)
100
AcDbVertex
100
AcDb2dVertex
 10
125.3721325782563
 20
35.30570428452556
 30
0.0
  0
VERTEX
  5
213
330
205
100
AcDbEntity
  8
Visible (ANSI)
100
AcDbVertex
100
AcDb2dVertex
 10
125.3791221145792
 20
35.2982416334014
 30
0.0
  0
VERTEX
  5
214
330
205
100
AcDbEntity
  8
Visible (ANSI)
100
AcDbVertex
100
AcDb2dVertex
 10
125.3865847627701
 20
35.29125209707845
 30
0.0
  0
VERTEX
  5
215
330
205
100
AcDbEntity
  8
Visible (ANSI)
100
AcDbVertex
100
AcDb2dVertex
 10
125.3944885733312
 20
35.28476560694428
 30
0.0
  0
VERTEX
  5
216
330
205
100
AcDbEntity
  8
Visible (ANSI)
100
AcDbVertex
100
AcDb2dVertex
 10
125.4027997018537
 20
35.27880994134463
 30
0.0
  0
VERTEX
  5
217
330
205
100
AcDbEntity
  8
Visible (ANSI)
100
AcDbVertex
100
AcDb2dVertex
 10
125.4114825498154
 20
35.27341059798497
 30
0.0
  0
VERTEX
  5
218
330
205
100
AcDbEntity
  8
Visible (ANSI)
100
AcDbVertex
100
AcDb2dVertex
 10
125.420499940579
 20
35.26859070153149
 30
0.0
  0
VERTEX
  5
219
330
205
100
AcDbEntity
  8
Visible (ANSI)
100
AcDbVertex
100
AcDb2dVertex
 10
125.4298132631241
 20
35.26437088994579
 30
0.0
  0
VERTEX
  5
21A
330
205
100
AcDbEntity
  8
Visible (ANSI)
100
AcDbVertex
100
AcDb2dVertex
 10
125.4393826333779
 20
35.26076923381908
 30
0.0
  0
VERTEX
  5
21B
330
205
100
AcDbEntity
  8
Visible (ANSI)
100
AcDbVertex
100
AcDb2dVertex
 10
125.4491670731472
 20
35.25780115643991
 30
0.0
  0
VERTEX
  5
21C
330
205
100
AcDbEntity
  8
Visible (ANSI)
100
AcDbVertex
100
AcDb2dVertex
 10
125.4591246862993
 20
35.25547936687809
 30
0.0
  0
VERTEX
  5
21D
330
205
100
AcDbEntity
  8
Visible (ANSI)
100
AcDbVertex
100
AcDb2dVertex
 10
125.4692128316436
 20
35.25381380727711
 30
0.0
  0
VERTEX
  5
21E
330
205
100
AcDbEntity
  8
Visible (ANSI)
100
AcDbVertex
100
AcDb2dVertex
 10
125.4793883102955
 20
35.25281161011499
 30
0.0
  0
VERTEX
  5
21F
330
205
100
AcDbEntity
  8
Visible (ANSI)
100
AcDbVertex
100
AcDb2dVertex
 10
125.489607548642
 20
35.25247706687758
 30
0.0
  0
SEQEND
  5
208
330
205
100
AcDbEntity
  8
Visible (ANSI)
  0
LINE
  5
220
330
6C
100
AcDbEntity
  8
Visible (ANSI)
100
AcDbLine
 10
125.4896075491114
 20
35.37747706687759
 30
0.0
 11
126.2083575491114
 21
35.37747706687759
 31
0.0
  0
LINE
  5
221
330
6C
100
AcDbEntity
  8
Visible (ANSI)
100
AcDbLine
 10
125.4896075491114
 20
35.37747706687759
 30
0.0
 11
125.4896075491114
 21
35.25247706687758
 31
0.0
  0
POLYLINE
  5
222
330
6C
100
AcDbEntity
  8
Visible (ANSI)
100
AcDb2dPolyline
 66
     1
 10
0.0
 20
0.0
 30
0.0
 70
   128
  0
VERTEX
  5
223
330
222
100
AcDbEntity
  8
Visible (ANSI)
100
AcDbVertex
100
AcDb2dVertex
 10
125.4583575491114
 20
35.40872706453094
 30
0.0
  0
VERTEX
  5
224
330
222
100
AcDbEntity
  8
Visible (ANSI)
100
AcDbVertex
100
AcDb2dVertex
 10
125.4584244577577
 20
35.40668322360823
 30
0.0
  0
VERTEX
  5
226
330
222
100
AcDbEntity
  8
Visible (ANSI)
100
AcDbVertex
100
AcDb2dVertex
 10
125.4586248971959
 20
35.40464812391788
 30
0.0
  0
VERTEX
  5
227
330
222
100
AcDbEntity
  8
Visible (ANSI)
100
AcDbVertex
100
AcDb2dVertex
 10
125.4589580091206
 20
35.40263049495903
 30
0.0
  0
VERTEX
  5
228
330
222
100
AcDbEntity
  8
Visible (ANSI)
100
AcDbVertex
100
AcDb2dVertex
 10
125.4594223670605
 20
35.40063897236527
 30
0.0
  0
VERTEX
  5
229
330
222
100
AcDbEntity
  8
Visible (ANSI)
100
AcDbVertex
100
AcDb2dVertex
 10
125.4600159825363
 20
35.39868208617139
 30
0.0
  0
VERTEX
  5
22A
330
222
100
AcDbEntity
  8
Visible (ANSI)
100
AcDbVertex
100
AcDb2dVertex
 10
125.4607363137983
 20
35.3967682138806
 30
0.0
  0
VERTEX
  5
22B
330
222
100
AcDbEntity
  8
Visible (ANSI)
100
AcDbVertex
100
AcDb2dVertex
 10
125.4615802761155
 20
35.39490554526498
 30
0.0
  0
VERTEX
  5
22C
330
222
100
AcDbEntity
  8
Visible (ANSI)
100
AcDbVertex
100
AcDb2dVertex
 10
125.4625442551129
 20
35.3931020706322
 30
0.0
  0
VERTEX
  5
22D
330
222
100
AcDbEntity
  8
Visible (ANSI)
100
AcDbVertex
100
AcDb2dVertex
 10
125.4636241236381
 20
35.39136549869323
 30
0.0
  0
VERTEX
  5
22E
330
222
100
AcDbEntity
  8
Visible (ANSI)
100
AcDbVertex
100
AcDb2dVertex
 10
125.4648152569781
 20
35.38970326829546
 30
0.0
  0
VERTEX
  5
22F
330
222
100
AcDbEntity
  8
Visible (ANSI)
100
AcDbVertex
100
AcDb2dVertex
 10
125.4661125548582
 20
35.38812251322314
 30
0.0
  0
VERTEX
  5
230
330
222
100
AcDbEntity
  8
Visible (ANSI)
100
AcDbVertex
100
AcDb2dVertex
 10
125.4675104619761
 20
35.38662998006501
 30
0.0
  0
VERTEX
  5
231
330
222
100
AcDbEntity
  8
Visible (ANSI)
100
AcDbVertex
100
AcDb2dVertex
 10
125.469002992201
 20
35.38523207514707
 30
0.0
  0
VERTEX
  5
232
330
222
100
AcDbEntity
  8
Visible (ANSI)
100
AcDbVertex
100
AcDb2dVertex
 10
125.4705837546065
 20
35.38393477066697
 30
0.0
  0
VERTEX
  5
233
330
222
100
AcDbEntity
  8
Visible (ANSI)
100
AcDbVertex
100
AcDb2dVertex
 10
125.472245979871
 20
35.38274363989368
 30
0.0
  0
VERTEX
  5
234
330
222
100
AcDbEntity
  8
Visible (ANSI)
100
AcDbVertex
100
AcDb2dVertex
 10
125.4739825488767
 20
35.38166377503503
 30
0.0
  0
VERTEX
  5
235
330
222
100
AcDbEntity
  8
Visible (ANSI)
100
AcDbVertex
100
AcDb2dVertex
 10
125.4757860279094
 20
35.38069979897097
 30
0.0
  0
VERTEX
  5
236
330
222
100
AcDbEntity
  8
Visible (ANSI)
100
AcDbVertex
100
AcDb2dVertex
 10
125.4776486921251
 20
35.3798558300539
 30
0.0
  0
VERTEX
  5
237
330
222
100
AcDbEntity
  8
Visible (ANSI)
100
AcDbVertex
100
AcDb2dVertex
 10
125.4795625658825
 20
35.37913550557516
 30
0.0
  0
VERTEX
  5
238
330
222
100
AcDbEntity
  8
Visible (ANSI)
100
AcDbVertex
100
AcDb2dVertex
 10
125.4815194535431
 20
35.37854188789934
 30
0.0
  0
VERTEX
  5
239
330
222
100
AcDbEntity
  8
Visible (ANSI)
100
AcDbVertex
100
AcDb2dVertex
 10
125.4835109761368
 20
35.37807752313039
 30
0.0
  0
VERTEX
  5
23A
330
222
100
AcDbEntity
  8
Visible (ANSI)
100
AcDbVertex
100
AcDb2dVertex
 10
125.4855286050957
 20
35.37774441764512
 30
0.0
  0
VERTEX
  5
23B
330
222
100
AcDbEntity
  8
Visible (ANSI)
100
AcDbVertex
100
AcDb2dVertex
 10
125.4875637018527
 20
35.37754397942727
 30
0.0
  0
VERTEX
  5
23C
330
222
100
AcDbEntity
  8
Visible (ANSI)
100
AcDbVertex
100
AcDb2dVertex
 10
125.489607548642
 20
35.37747706500027
 30
0.0
  0
SEQEND
  5
225
330
222
100
AcDbEntity
  8
Visible (ANSI)
  0
LINE
  5
23D
330
6C
100
AcDbEntity
  8
Visible (ANSI)
100
AcDbLine
 10
125.4583575491114
 20
35.40872706687758
 30
0.0
 11
125.4532321472381
 21
35.40872706687758
 31
0.0
  0
LINE
  5
23E
330
6C
100
AcDbEntity
  8
Visible (ANSI)
100
AcDbLine
 10
125.4532321472381
 20
35.40872706687758
 30
0.0
 11
125.3333575491114
 21
35.40872706687758
 31
0.0
  0
LINE
  5
23F
330
6C
100
AcDbEntity
  8
Visible (ANSI)
100
AcDbLine
 10
125.4896075491114
 20
35.25247706687758
 30
0.0
 11
126.2083575491114
 21
35.25247706687758
 31
0.0
  0
LINE
  5
240
330
6C
100
AcDbEntity
  8
Visible (ANSI)
100
AcDbLine
 10
126.2083575491114
 20
35.37747706687759
 30
0.0
 11
126.2083575491114
 21
35.25247706687758
 31
0.0
  0
POLYLINE
  5
241
330
6C
100
AcDbEntity
  8
Visible (ANSI)
100
AcDb2dPolyline
 66
     1
 10
0.0
 20
0.0
 30
0.0
 70
   128
  0
VERTEX
  5
242
330
241
100
AcDbEntity
  8
Visible (ANSI)
100
AcDbVertex
100
AcDb2dVertex
 10
125.3333575509887
 20
85.09622766761728
 30
0.0
  0
VERTEX
  5
243
330
241
100
AcDbEntity
  8
Visible (ANSI)
100
AcDbVertex
100
AcDb2dVertex
 10
125.3336920879241
 20
85.09384573460025
 30
0.0
  0
VERTEX
  5
245
330
241
100
AcDbEntity
  8
Visible (ANSI)
100
AcDbVertex
100
AcDb2dVertex
 10
125.3346942907466
 20
85.09146680528184
 30
0.0
  0
VERTEX
  5
246
330
241
100
AcDbEntity
  8
Visible (ANSI)
100
AcDbVertex
100
AcDb2dVertex
 10
125.3363598533725
 20
85.08908487226481
 30
0.0
  0
VERTEX
  5
247
330
241
100
AcDbEntity
  8
Visible (ANSI)
100
AcDbVertex
100
AcDb2dVertex
 10
125.3386816420177
 20
85.08670293924778
 30
0.0
  0
VERTEX
  5
248
330
241
100
AcDbEntity
  8
Visible (ANSI)
100
AcDbVertex
100
AcDb2dVertex
 10
125.3416497186635
 20
85.08432400992935
 30
0.0
  0
VERTEX
  5
249
330
241
100
AcDbEntity
  8
Visible (ANSI)
100
AcDbVertex
100
AcDb2dVertex
 10
125.3452513762569
 20
85.08194207691232
 30
0.0
  0
VERTEX
  5
24A
330
241
100
AcDbEntity
  8
Visible (ANSI)
100
AcDbVertex
100
AcDb2dVertex
 10
125.3494711856426
 20
85.07956314759391
 30
0.0
  0
VERTEX
  5
24B
330
241
100
AcDbEntity
  8
Visible (ANSI)
100
AcDbVertex
100
AcDb2dVertex
 10
125.3542910776962
 20
85.07718121457688
 30
0.0
  0
VERTEX
  5
24C
330
241
100
AcDbEntity
  8
Visible (ANSI)
100
AcDbVertex
100
AcDb2dVertex
 10
125.3596904254558
 20
85.07479928155985
 30
0.0
  0
VERTEX
  5
24D
330
241
100
AcDbEntity
  8
Visible (ANSI)
100
AcDbVertex
100
AcDb2dVertex
 10
125.3656460910554
 20
85.07242035224143
 30
0.0
  0
VERTEX
  5
24E
330
241
100
AcDbEntity
  8
Visible (ANSI)
100
AcDbVertex
100
AcDb2dVertex
 10
125.3721325782563
 20
85.0700384192244
 30
0.0
  0
VERTEX
  5
24F
330
241
100
AcDbEntity
  8
Visible (ANSI)
100
AcDbVertex
100
AcDb2dVertex
 10
125.3791221145792
 20
85.06765648620737
 30
0.0
  0
VERTEX
  5
250
330
241
100
AcDbEntity
  8
Visible (ANSI)
100
AcDbVertex
100
AcDb2dVertex
 10
125.3865847627701
 20
85.06527755688896
 30
0.0
  0
VERTEX
  5
251
330
241
100
AcDbEntity
  8
Visible (ANSI)
100
AcDbVertex
100
AcDb2dVertex
 10
125.3944885733313
 20
85.06289562387191
 30
0.0
  0
VERTEX
  5
252
330
241
100
AcDbEntity
  8
Visible (ANSI)
100
AcDbVertex
100
AcDb2dVertex
 10
125.4027997018537
 20
85.0605166945535
 30
0.0
  0
VERTEX
  5
253
330
241
100
AcDbEntity
  8
Visible (ANSI)
100
AcDbVertex
100
AcDb2dVertex
 10
125.4114825498154
 20
85.05813476153646
 30
0.0
  0
VERTEX
  5
254
330
241
100
AcDbEntity
  8
Visible (ANSI)
100
AcDbVertex
100
AcDb2dVertex
 10
125.4204999405791
 20
85.05575282851941
 30
0.0
  0
VERTEX
  5
255
330
241
100
AcDbEntity
  8
Visible (ANSI)
100
AcDbVertex
100
AcDb2dVertex
 10
125.4298132631241
 20
85.053373899201
 30
0.0
  0
VERTEX
  5
256
330
241
100
AcDbEntity
  8
Visible (ANSI)
100
AcDbVertex
100
AcDb2dVertex
 10
125.4393826333779
 20
85.05099196618397
 30
0.0
  0
VERTEX
  5
257
330
241
100
AcDbEntity
  8
Visible (ANSI)
100
AcDbVertex
100
AcDb2dVertex
 10
125.4491670731473
 20
85.04861303686556
 30
0.0
  0
VERTEX
  5
258
330
241
100
AcDbEntity
  8
Visible (ANSI)
100
AcDbVertex
100
AcDb2dVertex
 10
125.4591246862994
 20
85.04623110384853
 30
0.0
  0
VERTEX
  5
259
330
241
100
AcDbEntity
  8
Visible (ANSI)
100
AcDbVertex
100
AcDb2dVertex
 10
125.4692128316436
 20
85.04384917083148
 30
0.0
  0
VERTEX
  5
25A
330
241
100
AcDbEntity
  8
Visible (ANSI)
100
AcDbVertex
100
AcDb2dVertex
 10
125.4793883102956
 20
85.04147024151308
 30
0.0
  0
VERTEX
  5
25B
330
241
100
AcDbEntity
  8
Visible (ANSI)
100
AcDbVertex
100
AcDb2dVertex
 10
125.4896075486421
 20
85.03908830849605
 30
0.0
  0
SEQEND
  5
244
330
241
100
AcDbEntity
  8
Visible (ANSI)
  0
POLYLINE
  5
25C
330
6C
100
AcDbEntity
  8
Visible (ANSI)
100
AcDb2dPolyline
 66
     1
 10
0.0
 20
0.0
 30
0.0
 70
   128
  0
VERTEX
  5
25D
330
25C
100
AcDbEntity
  8
Visible (ANSI)
100
AcDbVertex
100
AcDb2dVertex
 10
125.4896075486421
 20
35.46586540286398
 30
0.0
  0
VERTEX
  5
25E
330
25C
100
AcDbEntity
  8
Visible (ANSI)
100
AcDbVertex
100
AcDb2dVertex
 10
125.4793883102956
 20
35.46348464316672
 30
0.0
  0
VERTEX
  5
260
330
25C
100
AcDbEntity
  8
Visible (ANSI)
100
AcDbVertex
100
AcDb2dVertex
 10
125.4692128316436
 20
35.46110388346946
 30
0.0
  0
VERTEX
  5
261
330
25C
100
AcDbEntity
  8
Visible (ANSI)
100
AcDbVertex
100
AcDb2dVertex
 10
125.4591246862994
 20
35.45872312377219
 30
0.0
  0
VERTEX
  5
262
330
25C
100
AcDbEntity
  8
Visible (ANSI)
100
AcDbVertex
100
AcDb2dVertex
 10
125.4491670731473
 20
35.45634236407493
 30
0.0
  0
VERTEX
  5
263
330
25C
100
AcDbEntity
  8
Visible (ANSI)
100
AcDbVertex
100
AcDb2dVertex
 10
125.4393826333779
 20
35.45396158091128
 30
0.0
  0
VERTEX
  5
264
330
25C
100
AcDbEntity
  8
Visible (ANSI)
100
AcDbVertex
100
AcDb2dVertex
 10
125.4298132631241
 20
35.45158082121402
 30
0.0
  0
VERTEX
  5
265
330
25C
100
AcDbEntity
  8
Visible (ANSI)
100
AcDbVertex
100
AcDb2dVertex
 10
125.4204999405791
 20
35.44920006151676
 30
0.0
  0
VERTEX
  5
266
330
25C
100
AcDbEntity
  8
Visible (ANSI)
100
AcDbVertex
100
AcDb2dVertex
 10
125.4114825498154
 20
35.4468193018195
 30
0.0
  0
VERTEX
  5
267
330
25C
100
AcDbEntity
  8
Visible (ANSI)
100
AcDbVertex
100
AcDb2dVertex
 10
125.4027997018537
 20
35.44443853038905
 30
0.0
  0
VERTEX
  5
268
330
25C
100
AcDbEntity
  8
Visible (ANSI)
100
AcDbVertex
100
AcDb2dVertex
 10
125.3944885733313
 20
35.44205777069178
 30
0.0
  0
VERTEX
  5
269
330
25C
100
AcDbEntity
  8
Visible (ANSI)
100
AcDbVertex
100
AcDb2dVertex
 10
125.3865847627701
 20
35.43967701099452
 30
0.0
  0
VERTEX
  5
26A
330
25C
100
AcDbEntity
  8
Visible (ANSI)
100
AcDbVertex
100
AcDb2dVertex
 10
125.3791221145792
 20
35.43729623956406
 30
0.0
  0
VERTEX
  5
26B
330
25C
100
AcDbEntity
  8
Visible (ANSI)
100
AcDbVertex
100
AcDb2dVertex
 10
125.3721325782563
 20
35.43491547986679
 30
0.0
  0
VERTEX
  5
26C
330
25C
100
AcDbEntity
  8
Visible (ANSI)
100
AcDbVertex
100
AcDb2dVertex
 10
125.3656460910554
 20
35.43253470843634
 30
0.0
  0
VERTEX
  5
26D
330
25C
100
AcDbEntity
  8
Visible (ANSI)
100
AcDbVertex
100
AcDb2dVertex
 10
125.3596904254558
 20
35.43015394873908
 30
0.0
  0
VERTEX
  5
26E
330
25C
100
AcDbEntity
  8
Visible (ANSI)
100
AcDbVertex
100
AcDb2dVertex
 10
125.3542910776962
 20
35.42777317730862
 30
0.0
  0
VERTEX
  5
26F
330
25C
100
AcDbEntity
  8
Visible (ANSI)
100
AcDbVertex
100
AcDb2dVertex
 10
125.3494711856426
 20
35.42539241761136
 30
0.0
  0
VERTEX
  5
270
330
25C
100
AcDbEntity
  8
Visible (ANSI)
100
AcDbVertex
100
AcDb2dVertex
 10
125.3452513762569
 20
35.4230116579141
 30
0.0
  0
VERTEX
  5
271
330
25C
100
AcDbEntity
  8
Visible (ANSI)
100
AcDbVertex
100
AcDb2dVertex
 10
125.3416497186635
 20
35.42063088648364
 30
0.0
  0
VERTEX
  5
272
330
25C
100
AcDbEntity
  8
Visible (ANSI)
100
AcDbVertex
100
AcDb2dVertex
 10
125.3386816420177
 20
35.41825012678638
 30
0.0
  0
VERTEX
  5
273
330
25C
100
AcDbEntity
  8
Visible (ANSI)
100
AcDbVertex
100
AcDb2dVertex
 10
125.3363598533725
 20
35.41586935535592
 30
0.0
  0
VERTEX
  5
274
330
25C
100
AcDbEntity
  8
Visible (ANSI)
100
AcDbVertex
100
AcDb2dVertex
 10
125.3346942907466
 20
35.41348859565866
 30
0.0
  0
VERTEX
  5
275
330
25C
100
AcDbEntity
  8
Visible (ANSI)
100
AcDbVertex
100
AcDb2dVertex
 10
125.3336920879241
 20
35.41110783596141
 30
0.0
  0
VERTEX
  5
276
330
25C
100
AcDbEntity
  8
Visible (ANSI)
100
AcDbVertex
100
AcDb2dVertex
 10
125.3333575509887
 20
35.40872706453094
 30
0.0
  0
SEQEND
  5
25F
330
25C
100
AcDbEntity
  8
Visible (ANSI)
  0
LINE
  5
277
330
6C
100
AcDbEntity
  8
Visible (ANSI)
100
AcDbLine
 10
126.2083575491114
 20
35.46586541452591
 30
0.0
 11
125.4896075491114
 21
35.4658654145259
 31
0.0
  0
POLYLINE
  5
278
330
6C
100
AcDbEntity
  8
Visible (ANSI)
100
AcDb2dPolyline
 66
     1
 10
0.0
 20
0.0
 30
0.0
 70
   128
  0
VERTEX
  5
279
330
278
100
AcDbEntity
  8
Visible (ANSI)
100
AcDbVertex
100
AcDb2dVertex
 10
125.4583575491114
 20
35.40872706453094
 30
0.0
  0
VERTEX
  5
27A
330
278
100
AcDbEntity
  8
Visible (ANSI)
100
AcDbVertex
100
AcDb2dVertex
 10
125.4584244577577
 20
35.41110783596141
 30
0.0
  0
VERTEX
  5
27C
330
278
100
AcDbEntity
  8
Visible (ANSI)
100
AcDbVertex
100
AcDb2dVertex
 10
125.4586248971959
 20
35.41348859565866
 30
0.0
  0
VERTEX
  5
27D
330
278
100
AcDbEntity
  8
Visible (ANSI)
100
AcDbVertex
100
AcDb2dVertex
 10
125.4589580091207
 20
35.41586935535592
 30
0.0
  0
VERTEX
  5
27E
330
278
100
AcDbEntity
  8
Visible (ANSI)
100
AcDbVertex
100
AcDb2dVertex
 10
125.4594223670605
 20
35.41825012678638
 30
0.0
  0
VERTEX
  5
27F
330
278
100
AcDbEntity
  8
Visible (ANSI)
100
AcDbVertex
100
AcDb2dVertex
 10
125.4600159825364
 20
35.42063088648364
 30
0.0
  0
VERTEX
  5
280
330
278
100
AcDbEntity
  8
Visible (ANSI)
100
AcDbVertex
100
AcDb2dVertex
 10
125.4607363137984
 20
35.4230116579141
 30
0.0
  0
VERTEX
  5
281
330
278
100
AcDbEntity
  8
Visible (ANSI)
100
AcDbVertex
100
AcDb2dVertex
 10
125.4615802761155
 20
35.42539241761136
 30
0.0
  0
VERTEX
  5
282
330
278
100
AcDbEntity
  8
Visible (ANSI)
100
AcDbVertex
100
AcDb2dVertex
 10
125.4625442551129
 20
35.42777317730862
 30
0.0
  0
VERTEX
  5
283
330
278
100
AcDbEntity
  8
Visible (ANSI)
100
AcDbVertex
100
AcDb2dVertex
 10
125.4636241236381
 20
35.43015394873908
 30
0.0
  0
VERTEX
  5
284
330
278
100
AcDbEntity
  8
Visible (ANSI)
100
AcDbVertex
100
AcDb2dVertex
 10
125.4648152569781
 20
35.43253470843634
 30
0.0
  0
VERTEX
  5
285
330
278
100
AcDbEntity
  8
Visible (ANSI)
100
AcDbVertex
100
AcDb2dVertex
 10
125.4661125548582
 20
35.43491547986679
 30
0.0
  0
VERTEX
  5
286
330
278
100
AcDbEntity
  8
Visible (ANSI)
100
AcDbVertex
100
AcDb2dVertex
 10
125.4675104619762
 20
35.43729623956406
 30
0.0
  0
VERTEX
  5
287
330
278
100
AcDbEntity
  8
Visible (ANSI)
100
AcDbVertex
100
AcDb2dVertex
 10
125.469002992201
 20
35.43967701099452
 30
0.0
  0
VERTEX
  5
288
330
278
100
AcDbEntity
  8
Visible (ANSI)
100
AcDbVertex
100
AcDb2dVertex
 10
125.4705837546066
 20
35.44205777069178
 30
0.0
  0
VERTEX
  5
289
330
278
100
AcDbEntity
  8
Visible (ANSI)
100
AcDbVertex
100
AcDb2dVertex
 10
125.472245979871
 20
35.44443853038905
 30
0.0
  0
VERTEX
  5
28A
330
278
100
AcDbEntity
  8
Visible (ANSI)
100
AcDbVertex
100
AcDb2dVertex
 10
125.4739825488767
 20
35.4468193018195
 30
0.0
  0
VERTEX
  5
28B
330
278
100
AcDbEntity
  8
Visible (ANSI)
100
AcDbVertex
100
AcDb2dVertex
 10
125.4757860279094
 20
35.44920006151676
 30
0.0
  0
VERTEX
  5
28C
330
278
100
AcDbEntity
  8
Visible (ANSI)
100
AcDbVertex
100
AcDb2dVertex
 10
125.4776486921251
 20
35.45158082121402
 30
0.0
  0
VERTEX
  5
28D
330
278
100
AcDbEntity
  8
Visible (ANSI)
100
AcDbVertex
100
AcDb2dVertex
 10
125.4795625658826
 20
35.45396158091128
 30
0.0
  0
VERTEX
  5
28E
330
278
100
AcDbEntity
  8
Visible (ANSI)
100
AcDbVertex
100
AcDb2dVertex
 10
125.4815194535431
 20
35.45634236407493
 30
0.0
  0
VERTEX
  5
28F
330
278
100
AcDbEntity
  8
Visible (ANSI)
100
AcDbVertex
100
AcDb2dVertex
 10
125.4835109761369
 20
35.45872312377219
 30
0.0
  0
VERTEX
  5
290
330
278
100
AcDbEntity
  8
Visible (ANSI)
100
AcDbVertex
100
AcDb2dVertex
 10
125.4855286050957
 20
35.46110388346946
 30
0.0
  0
VERTEX
  5
291
330
278
100
AcDbEntity
  8
Visible (ANSI)
100
AcDbVertex
100
AcDb2dVertex
 10
125.4875637018528
 20
35.46348464316672
 30
0.0
  0
VERTEX
  5
292
330
278
100
AcDbEntity
  8
Visible (ANSI)
100
AcDbVertex
100
AcDb2dVertex
 10
125.4896075486421
 20
35.46586540286398
 30
0.0
  0
SEQEND
  5
27B
330
278
100
AcDbEntity
  8
Visible (ANSI)
  0
POLYLINE
  5
293
330
6C
100
AcDbEntity
  8
Visible (ANSI)
100
AcDb2dPolyline
 66
     1
 10
0.0
 20
0.0
 30
0.0
 70
   128
  0
VERTEX
  5
294
330
293
100
AcDbEntity
  8
Visible (ANSI)
100
AcDbVertex
100
AcDb2dVertex
 10
125.4583575491114
 20
85.09622766761728
 30
0.0
  0
VERTEX
  5
295
330
293
100
AcDbEntity
  8
Visible (ANSI)
100
AcDbVertex
100
AcDb2dVertex
 10
125.4584244577577
 20
85.09384573460025
 30
0.0
  0
VERTEX
  5
297
330
293
100
AcDbEntity
  8
Visible (ANSI)
100
AcDbVertex
100
AcDb2dVertex
 10
125.4586248971959
 20
85.09146680528184
 30
0.0
  0
VERTEX
  5
298
330
293
100
AcDbEntity
  8
Visible (ANSI)
100
AcDbVertex
100
AcDb2dVertex
 10
125.4589580091207
 20
85.08908487226481
 30
0.0
  0
VERTEX
  5
299
330
293
100
AcDbEntity
  8
Visible (ANSI)
100
AcDbVertex
100
AcDb2dVertex
 10
125.4594223670605
 20
85.08670293924778
 30
0.0
  0
VERTEX
  5
29A
330
293
100
AcDbEntity
  8
Visible (ANSI)
100
AcDbVertex
100
AcDb2dVertex
 10
125.4600159825364
 20
85.08432400992935
 30
0.0
  0
VERTEX
  5
29B
330
293
100
AcDbEntity
  8
Visible (ANSI)
100
AcDbVertex
100
AcDb2dVertex
 10
125.4607363137984
 20
85.08194207691232
 30
0.0
  0
VERTEX
  5
29C
330
293
100
AcDbEntity
  8
Visible (ANSI)
100
AcDbVertex
100
AcDb2dVertex
 10
125.4615802761155
 20
85.07956314759391
 30
0.0
  0
VERTEX
  5
29D
330
293
100
AcDbEntity
  8
Visible (ANSI)
100
AcDbVertex
100
AcDb2dVertex
 10
125.4625442551129
 20
85.07718121457688
 30
0.0
  0
VERTEX
  5
29E
330
293
100
AcDbEntity
  8
Visible (ANSI)
100
AcDbVertex
100
AcDb2dVertex
 10
125.4636241236381
 20
85.07479928155985
 30
0.0
  0
VERTEX
  5
29F
330
293
100
AcDbEntity
  8
Visible (ANSI)
100
AcDbVertex
100
AcDb2dVertex
 10
125.4648152569781
 20
85.07242035224143
 30
0.0
  0
VERTEX
  5
2A0
330
293
100
AcDbEntity
  8
Visible (ANSI)
100
AcDbVertex
100
AcDb2dVertex
 10
125.4661125548582
 20
85.0700384192244
 30
0.0
  0
VERTEX
  5
2A1
330
293
100
AcDbEntity
  8
Visible (ANSI)
100
AcDbVertex
100
AcDb2dVertex
 10
125.4675104619762
 20
85.06765648620737
 30
0.0
  0
VERTEX
  5
2A2
330
293
100
AcDbEntity
  8
Visible (ANSI)
100
AcDbVertex
100
AcDb2dVertex
 10
125.469002992201
 20
85.06527755688896
 30
0.0
  0
VERTEX
  5
2A3
330
293
100
AcDbEntity
  8
Visible (ANSI)
100
AcDbVertex
100
AcDb2dVertex
 10
125.4705837546066
 20
85.06289562387191
 30
0.0
  0
VERTEX
  5
2A4
330
293
100
AcDbEntity
  8
Visible (ANSI)
100
AcDbVertex
100
AcDb2dVertex
 10
125.472245979871
 20
85.0605166945535
 30
0.0
  0
VERTEX
  5
2A5
330
293
100
AcDbEntity
  8
Visible (ANSI)
100
AcDbVertex
100
AcDb2dVertex
 10
125.4739825488767
 20
85.05813476153646
 30
0.0
  0
VERTEX
  5
2A6
330
293
100
AcDbEntity
  8
Visible (ANSI)
100
AcDbVertex
100
AcDb2dVertex
 10
125.4757860279094
 20
85.05575282851941
 30
0.0
  0
VERTEX
  5
2A7
330
293
100
AcDbEntity
  8
Visible (ANSI)
100
AcDbVertex
100
AcDb2dVertex
 10
125.4776486921251
 20
85.053373899201
 30
0.0
  0
VERTEX
  5
2A8
330
293
100
AcDbEntity
  8
Visible (ANSI)
100
AcDbVertex
100
AcDb2dVertex
 10
125.4795625658826
 20
85.05099196618397
 30
0.0
  0
VERTEX
  5
2A9
330
293
100
AcDbEntity
  8
Visible (ANSI)
100
AcDbVertex
100
AcDb2dVertex
 10
125.4815194535431
 20
85.04861303686556
 30
0.0
  0
VERTEX
  5
2AA
330
293
100
AcDbEntity
  8
Visible (ANSI)
100
AcDbVertex
100
AcDb2dVertex
 10
125.4835109761369
 20
85.04623110384853
 30
0.0
  0
VERTEX
  5
2AB
330
293
100
AcDbEntity
  8
Visible (ANSI)
100
AcDbVertex
100
AcDb2dVertex
 10
125.4855286050957
 20
85.04384917083148
 30
0.0
  0
VERTEX
  5
2AC
330
293
100
AcDbEntity
  8
Visible (ANSI)
100
AcDbVertex
100
AcDb2dVertex
 10
125.4875637018528
 20
85.04147024151308
 30
0.0
  0
VERTEX
  5
2AD
330
293
100
AcDbEntity
  8
Visible (ANSI)
100
AcDbVertex
100
AcDb2dVertex
 10
125.4896075486421
 20
85.03908830849605
 30
0.0
  0
SEQEND
  5
296
330
293
100
AcDbEntity
  8
Visible (ANSI)
  0
LINE
  5
2AE
330
6C
100
AcDbEntity
  8
Visible (ANSI)
100
AcDbLine
 10
125.4583575491114
 20
85.09622706687757
 30
0.0
 11
125.453232147238
 21
85.09622706687757
 31
0.0
  0
LINE
  5
2AF
330
6C
100
AcDbEntity
  8
Visible (ANSI)
100
AcDbLine
 10
125.453232147238
 20
85.09622706687757
 30
0.0
 11
125.3333575491114
 21
85.09622706687757
 31
0.0
  0
LINE
  5
2B0
330
6C
100
AcDbEntity
  8
Visible (ANSI)
100
AcDbLine
 10
125.4896075491114
 20
85.03908871922925
 30
0.0
 11
126.2083575491114
 21
85.03908871922925
 31
0.0
  0
POLYLINE
  5
2B1
330
6C
100
AcDbEntity
  8
Visible (ANSI)
100
AcDb2dPolyline
 66
     1
 10
0.0
 20
0.0
 30
0.0
 70
   128
  0
VERTEX
  5
2B2
330
2B1
100
AcDbEntity
  8
Visible (ANSI)
100
AcDbVertex
100
AcDb2dVertex
 10
125.489607548642
 20
85.25247706687755
 30
0.0
  0
VERTEX
  5
2B3
330
2B1
100
AcDbEntity
  8
Visible (ANSI)
100
AcDbVertex
100
AcDb2dVertex
 10
125.4793883102955
 20
85.25214365632916
 30
0.0
  0
VERTEX
  5
2B5
330
2B1
100
AcDbEntity
  8
Visible (ANSI)
100
AcDbVertex
100
AcDb2dVertex
 10
125.4692128316436
 20
85.25114042098529
 30
0.0
  0
VERTEX
  5
2B6
330
2B1
100
AcDbEntity
  8
Visible (ANSI)
100
AcDbVertex
100
AcDb2dVertex
 10
125.4591246862993
 20
85.24947336824322
 30
0.0
  0
VERTEX
  5
2B7
330
2B1
100
AcDbEntity
  8
Visible (ANSI)
100
AcDbVertex
100
AcDb2dVertex
 10
125.4491670731472
 20
85.24715150919886
 30
0.0
  0
VERTEX
  5
2B8
330
2B1
100
AcDbEntity
  8
Visible (ANSI)
100
AcDbVertex
100
AcDb2dVertex
 10
125.4393826333779
 20
85.24418385494811
 30
0.0
  0
VERTEX
  5
2B9
330
2B1
100
AcDbEntity
  8
Visible (ANSI)
100
AcDbVertex
100
AcDb2dVertex
 10
125.4298132631241
 20
85.24058242028553
 30
0.0
  0
VERTEX
  5
2BA
330
2B1
100
AcDbEntity
  8
Visible (ANSI)
100
AcDbVertex
100
AcDb2dVertex
 10
125.420499940579
 20
85.23636222370429
 30
0.0
  0
VERTEX
  5
2BB
330
2B1
100
AcDbEntity
  8
Visible (ANSI)
100
AcDbVertex
100
AcDb2dVertex
 10
125.4114825498154
 20
85.2315442910948
 30
0.0
  0
VERTEX
  5
2BC
330
2B1
100
AcDbEntity
  8
Visible (ANSI)
100
AcDbVertex
100
AcDb2dVertex
 10
125.4027997018537
 20
85.22614364095021
 30
0.0
  0
VERTEX
  5
2BD
330
2B1
100
AcDbEntity
  8
Visible (ANSI)
100
AcDbVertex
100
AcDb2dVertex
 10
125.3944885733312
 20
85.2201873065583
 30
0.0
  0
VERTEX
  5
2BE
330
2B1
100
AcDbEntity
  8
Visible (ANSI)
100
AcDbVertex
100
AcDb2dVertex
 10
125.3865847627701
 20
85.21370232120675
 30
0.0
  0
VERTEX
  5
2BF
330
2B1
100
AcDbEntity
  8
Visible (ANSI)
100
AcDbVertex
100
AcDb2dVertex
 10
125.3791221145792
 20
85.2067127144846
 30
0.0
  0
VERTEX
  5
2C0
330
2B1
100
AcDbEntity
  8
Visible (ANSI)
100
AcDbVertex
100
AcDb2dVertex
 10
125.3721325782563
 20
85.19924852337823
 30
0.0
  0
VERTEX
  5
2C1
330
2B1
100
AcDbEntity
  8
Visible (ANSI)
100
AcDbVertex
100
AcDb2dVertex
 10
125.3656460910554
 20
85.19134579227126
 30
0.0
  0
VERTEX
  5
2C2
330
2B1
100
AcDbEntity
  8
Visible (ANSI)
100
AcDbVertex
100
AcDb2dVertex
 10
125.3596904254557
 20
85.18303455815004
 30
0.0
  0
VERTEX
  5
2C3
330
2B1
100
AcDbEntity
  8
Visible (ANSI)
100
AcDbVertex
100
AcDb2dVertex
 10
125.3542910776961
 20
85.17435086539812
 30
0.0
  0
VERTEX
  5
2C4
330
2B1
100
AcDbEntity
  8
Visible (ANSI)
100
AcDbVertex
100
AcDb2dVertex
 10
125.3494711856426
 20
85.1653337620978
 30
0.0
  0
VERTEX
  5
2C5
330
2B1
100
AcDbEntity
  8
Visible (ANSI)
100
AcDbVertex
100
AcDb2dVertex
 10
125.3452513762569
 20
85.15602229633131
 30
0.0
  0
VERTEX
  5
2C6
330
2B1
100
AcDbEntity
  8
Visible (ANSI)
100
AcDbVertex
100
AcDb2dVertex
 10
125.3416497186635
 20
85.14645251248227
 30
0.0
  0
VERTEX
  5
2C7
330
2B1
100
AcDbEntity
  8
Visible (ANSI)
100
AcDbVertex
100
AcDb2dVertex
 10
125.3386816420177
 20
85.13666646233154
 30
0.0
  0
VERTEX
  5
2C8
330
2B1
100
AcDbEntity
  8
Visible (ANSI)
100
AcDbVertex
100
AcDb2dVertex
 10
125.3363598533725
 20
85.12670920135869
 30
0.0
  0
VERTEX
  5
2C9
330
2B1
100
AcDbEntity
  8
Visible (ANSI)
100
AcDbVertex
100
AcDb2dVertex
 10
125.3346942907466
 20
85.11662278134455
 30
0.0
  0
VERTEX
  5
2CA
330
2B1
100
AcDbEntity
  8
Visible (ANSI)
100
AcDbVertex
100
AcDb2dVertex
 10
125.3336920879241
 20
85.10644625037135
 30
0.0
  0
VERTEX
  5
2CB
330
2B1
100
AcDbEntity
  8
Visible (ANSI)
100
AcDbVertex
100
AcDb2dVertex
 10
125.3333575509887
 20
85.09622766761728
 30
0.0
  0
SEQEND
  5
2B4
330
2B1
100
AcDbEntity
  8
Visible (ANSI)
  0
LINE
  5
2CC
330
6C
100
AcDbEntity
  8
Visible (ANSI)
100
AcDbLine
 10
125.4896075491114
 20
85.12747706687758
 30
0.0
 11
126.2083575491114
 21
85.12747706687761
 31
0.0
  0
LINE
  5
2CD
330
6C
100
AcDbEntity
  8
Visible (ANSI)
100
AcDbLine
 10
126.2083575491114
 20
85.25247706687762
 30
0.0
 11
125.4896075491114
 21
85.25247706687755
 31
0.0
  0
LINE
  5
2CE
330
6C
100
AcDbEntity
  8
Visible (ANSI)
100
AcDbLine
 10
125.4896075491114
 20
85.12747706687758
 30
0.0
 11
125.4896075491114
 21
85.25247706687755
 31
0.0
  0
LINE
  5
2CF
330
6C
100
AcDbEntity
  8
Visible (ANSI)
100
AcDbLine
 10
126.2083575491114
 20
85.12747706687761
 30
0.0
 11
126.2083575491114
 21
85.25247706687762
 31
0.0
  0
POLYLINE
  5
2D0
330
6C
100
AcDbEntity
  8
Visible (ANSI)
100
AcDb2dPolyline
 66
     1
 10
0.0
 20
0.0
 30
0.0
 70
   128
  0
VERTEX
  5
2D1
330
2D0
100
AcDbEntity
  8
Visible (ANSI)
100
AcDbVertex
100
AcDb2dVertex
 10
125.4583575491114
 20
85.09622766761728
 30
0.0
  0
VERTEX
  5
2D2
330
2D0
100
AcDbEntity
  8
Visible (ANSI)
100
AcDbVertex
100
AcDb2dVertex
 10
125.4584244577577
 20
85.09827018268865
 30
0.0
  0
VERTEX
  5
2D4
330
2D0
100
AcDbEntity
  8
Visible (ANSI)
100
AcDbVertex
100
AcDb2dVertex
 10
125.4586248971959
 20
85.10030669036275
 30
0.0
  0
VERTEX
  5
2D5
330
2D0
100
AcDbEntity
  8
Visible (ANSI)
100
AcDbVertex
100
AcDb2dVertex
 10
125.4589580091206
 20
85.10232217214641
 30
0.0
  0
VERTEX
  5
2D6
330
2D0
100
AcDbEntity
  8
Visible (ANSI)
100
AcDbVertex
100
AcDb2dVertex
 10
125.4594223670605
 20
85.10431662803959
 30
0.0
  0
VERTEX
  5
2D7
330
2D0
100
AcDbEntity
  8
Visible (ANSI)
100
AcDbVertex
100
AcDb2dVertex
 10
125.4600159825363
 20
85.10627203585055
 30
0.0
  0
VERTEX
  5
2D8
330
2D0
100
AcDbEntity
  8
Visible (ANSI)
100
AcDbVertex
100
AcDb2dVertex
 10
125.4607363137983
 20
85.10818539188063
 30
0.0
  0
VERTEX
  5
2D9
330
2D0
100
AcDbEntity
  8
Visible (ANSI)
100
AcDbVertex
100
AcDb2dVertex
 10
125.4615802761155
 20
85.11004768503395
 30
0.0
  0
VERTEX
  5
2DA
330
2D0
100
AcDbEntity
  8
Visible (ANSI)
100
AcDbVertex
100
AcDb2dVertex
 10
125.4625442551129
 20
85.11185290791317
 30
0.0
  0
VERTEX
  5
2DB
330
2D0
100
AcDbEntity
  8
Visible (ANSI)
100
AcDbVertex
100
AcDb2dVertex
 10
125.4636241236381
 20
85.11358904572386
 30
0.0
  0
VERTEX
  5
2DC
330
2D0
100
AcDbEntity
  8
Visible (ANSI)
100
AcDbVertex
100
AcDb2dVertex
 10
125.4648152569781
 20
85.11525009106863
 30
0.0
  0
VERTEX
  5
2DD
330
2D0
100
AcDbEntity
  8
Visible (ANSI)
100
AcDbVertex
100
AcDb2dVertex
 10
125.4661125548582
 20
85.11683304024895
 30
0.0
  0
VERTEX
  5
2DE
330
2D0
100
AcDbEntity
  8
Visible (ANSI)
100
AcDbVertex
100
AcDb2dVertex
 10
125.4675104619761
 20
85.11832287477158
 30
0.0
  0
VERTEX
  5
2DF
330
2D0
100
AcDbEntity
  8
Visible (ANSI)
100
AcDbVertex
100
AcDb2dVertex
 10
125.469002992201
 20
85.11972259833518
 30
0.0
  0
VERTEX
  5
2E0
330
2D0
100
AcDbEntity
  8
Visible (ANSI)
100
AcDbVertex
100
AcDb2dVertex
 10
125.4705837546065
 20
85.12102019614523
 30
0.0
  0
VERTEX
  5
2E1
330
2D0
100
AcDbEntity
  8
Visible (ANSI)
100
AcDbVertex
100
AcDb2dVertex
 10
125.472245979871
 20
85.12220966080445
 30
0.0
  0
VERTEX
  5
2E2
330
2D0
100
AcDbEntity
  8
Visible (ANSI)
100
AcDbVertex
100
AcDb2dVertex
 10
125.4739825488767
 20
85.1232909923128
 30
0.0
  0
VERTEX
  5
2E3
330
2D0
100
AcDbEntity
  8
Visible (ANSI)
100
AcDbVertex
100
AcDb2dVertex
 10
125.4757860279094
 20
85.12425517957444
 30
0.0
  0
VERTEX
  5
2E4
330
2D0
100
AcDbEntity
  8
Visible (ANSI)
100
AcDbVertex
100
AcDb2dVertex
 10
125.4776486921251
 20
85.12509921889067
 30
0.0
  0
VERTEX
  5
2E5
330
2D0
100
AcDbEntity
  8
Visible (ANSI)
100
AcDbVertex
100
AcDb2dVertex
 10
125.4795625658825
 20
85.12582010656291
 30
0.0
  0
VERTEX
  5
2E6
330
2D0
100
AcDbEntity
  8
Visible (ANSI)
100
AcDbVertex
100
AcDb2dVertex
 10
125.4815194535431
 20
85.1264118351939
 30
0.0
  0
VERTEX
  5
2E7
330
2D0
100
AcDbEntity
  8
Visible (ANSI)
100
AcDbVertex
100
AcDb2dVertex
 10
125.4835109761368
 20
85.12687740848221
 30
0.0
  0
VERTEX
  5
2E8
330
2D0
100
AcDbEntity
  8
Visible (ANSI)
100
AcDbVertex
100
AcDb2dVertex
 10
125.4855286050957
 20
85.12721081903062
 30
0.0
  0
VERTEX
  5
2E9
330
2D0
100
AcDbEntity
  8
Visible (ANSI)
100
AcDbVertex
100
AcDb2dVertex
 10
125.4875637018527
 20
85.12740906314048
 30
0.0
  0
VERTEX
  5
2EA
330
2D0
100
AcDbEntity
  8
Visible (ANSI)
100
AcDbVertex
100
AcDb2dVertex
 10
125.489607548642
 20
85.12747814820908
 30
0.0
  0
SEQEND
  5
2D3
330
2D0
100
AcDbEntity
  8
Visible (ANSI)
  0
LINE
  5
2EB
330
6C
100
AcDbEntity
  8
Visible (ANSI)
100
AcDbLine
 10
125.3333575491114
 20
35.40872706687758
 30
0.0
 11
125.3333575491114
 21
85.09622706687757
 31
0.0
  0
LINE
  5
2EC
330
6C
100
AcDbEntity
  8
Visible (ANSI)
100
AcDbLine
 10
126.2083575491114
 20
85.03908871922925
 30
0.0
 11
126.2083575491114
 21
35.46586541452591
 31
0.0
  0
MTEXT
  5
2ED
330
6C
100
AcDbEntity
  8
Symbol (ANSI)
100
AcDbMText
 10
121.3783607107319
 20
29.57241752652728
 30
0.0
 40
1.320000016313838
 41
0.0
 46
0.0
 71
     7
 72
     1
  1
SIDE VIEW
  7
Text Style154
 73
     1
 44
1.0
  0
LINE
  5
2EE
330
6C
100
AcDbEntity
  8
Symbol (ANSI)
370
    30
100
AcDbLine
 10
121.3107765368812
 20
29.2989507487155
 30
0.0
 11
130.2309385613416
 21
29.2989507487155
 31
0.0
  0
DIMENSION
  5
2EF
330
6C
100
AcDbEntity
  8
Dimension (ANSI)
100
AcDbDimension
280
     0
  2
*D4
 10
21.83609403991126
 20
85.25247706687759
 30
0.0
 11
21.83609403991125
 21
60.25247706687757
 31
0.0
 70
   160
  1
<>
 42
50.0
 73
     0
 74
     0
 75
     0
  3
Default (ANSI)
100
AcDbAlignedDimension
 13
43.4600944965791
 23
35.25247706687757
 33
0.0
 14
43.46009449657908
 24
85.25247706687757
 34
0.0
 50
90.0
100
AcDbRotatedDimension
1001
ACAD
1000
DSTYLE
1002
{
1070
   289
1070
     1
1070
   271
1070
     2
1070
   272
1070
     2
1070
    48
1040
0.0
1070
    47
1040
0.0
1002
}
  0
DIMENSION
  5
3DB
330
6C
100
AcDbEntity
  8
Dimension (ANSI)
100
AcDbDimension
280
     0
  2
*D5
 10
35.80005057730837
 20
60.25247706687757
 30
0.0
 11
35.80005057730835
 21
48.18997706687758
 31
0.0
 70
   160
  1
<>
 42
24.12499999999999
 73
     0
 74
     0
 75
     0
  3
Default (ANSI)
100
AcDbAlignedDimension
 13
44.12170614893078
 23
36.12747706687758
 33
0.0
 14
43.24670614893078
 24
60.25247706687757
 34
0.0
 50
90.0
100
AcDbRotatedDimension
1001
ACAD
1000
DSTYLE
1002
{
1070
   289
1070
     1
1070
   271
1070
     2
1070
   272
1070
     3
1070
    48
1040
0.0
1070
    47
1040
0.0
1002
}
  0
DIMENSION
  5
4C5
330
6C
100
AcDbEntity
  8
Dimension (ANSI)
100
AcDbDimension
280
     0
  2
*D6
 10
29.3972967001119
 20
84.37747706687758
 30
0.0
 11
29.39729670011189
 21
60.25247706687757
 31
0.0
 70
   160
  1
<>
 42
48.25
 73
     0
 74
     0
 75
     0
  3
Default (ANSI)
100
AcDbAlignedDimension
 13
44.12170614893078
 23
36.12747706687758
 33
0.0
 14
44.12170614893078
 24
84.37747706687757
 34
0.0
 50
90.0
100
AcDbRotatedDimension
1001
ACAD
1000
DSTYLE
1002
{
1070
   289
1070
     1
1070
   271
1070
     2
1070
   272
1070
     3
1070
    48
1040
0.0
1070
    47
1040
0.0
1002
}
  0
DIMENSION
  5
5AF
330
6C
100
AcDbEntity
  8
Dimension (ANSI)
100
AcDbDimension
280
     0
  2
*D7
 10
81.24670614893075
 20
97.16507297119775
 30
0.0
 11
62.24670614893077
 21
97.16507297119775
 31
0.0
 70
   160
  1
<>
 42
37.99999999999997
 73
     0
 74
     0
 75
     0
  3
Default (ANSI)
100
AcDbAlignedDimension
 13
43.24670614893078
 23
85.03908871922925
 33
0.0
 14
81.24670614893075
 24
85.03908871922925
 34
0.0
100
AcDbRotatedDimension
1001
ACAD
1000
DSTYLE
1002
{
1070
   289
1070
     1
1070
    73
1070
     0
1070
    74
1070
     0
1070
   271
1070
     2
1070
   272
1070
     2
1070
    48
1040
0.0
1070
    47
1040
0.0
1002
}
  0
DIMENSION
  5
699
330
6C
100
AcDbEntity
  8
Dimension (ANSI)
100
AcDbDimension
280
     0
  2
*D8
 10
80.37170614893078
 20
92.92516241283378
 30
0.0
 11
62.24670614893078
 21
92.92516241283378
 31
0.0
 70
   160
  1
<>
 42
36.25
 73
     0
 74
     0
 75
     0
  3
Default (ANSI)
100
AcDbAlignedDimension
 13
44.12170614893078
 23
84.37747706687757
 33
0.0
 14
80.37170614893078
 24
84.37747706687757
 34
0.0
 50
180.0
100
AcDbRotatedDimension
1001
ACAD
1000
DSTYLE
1002
{
1070
   289
1070
     1
1070
    73
1070
     0
1070
    74
1070
     0
1070
   271
1070
     2
1070
   272
1070
     3
1070
    48
1040
0.0
1070
    47
1040
0.0
1002
}
  0
DIMENSION
  5
783
330
6C
100
AcDbEntity
  8
Dimension (ANSI)
100
AcDbDimension
280
     0
  2
*D9
 10
62.24670614893078
 20
88.7081857282949
 30
0.0
 11
53.18420614893079
 21
88.7081857282949
 31
0.0
 70
   160
  1
<>
 42
18.125
 73
     0
 74
     0
 75
     0
  3
Default (ANSI)
100
AcDbAlignedDimension
 13
44.12170614893078
 23
84.37747706687757
 33
0.0
 14
62.24670614893078
 24
84.37747706687757
 34
0.0
 50
180.0
100
AcDbRotatedDimension
1001
ACAD
1000
DSTYLE
1002
{
1070
   289
1070
     1
1070
    73
1070
     0
1070
    74
1070
     0
1070
   271
1070
     2
1070
   272
1070
     3
1070
    48
1040
0.0
1070
    47
1040
0.0
1002
}
  0
DIMENSION
  5
86D
330
6C
100
AcDbEntity
  8
Dimension (ANSI)
100
AcDbDimension
280
     0
  2
*D10
 10
126.2083575491113
 20
88.40208336609014
 30
0.0
 11
120.4683525294992
 21
88.40208336609014
 31
0.0
 70
   160
  1
<>{\PTYP.}
 42
0.8749999999999715
 73
     0
 74
     0
 75
     0
  3
Default (ANSI)
100
AcDbAlignedDimension
 13
125.3333575491114
 23
85.09622706687757
 33
0.0
 14
126.2083575491113
 24
85.25247706687762
 34
0.0
100
AcDbRotatedDimension
1001
ACAD
1000
DSTYLE
1002
{
1070
   289
1070
     1
1070
    73
1070
     0
1070
    74
1070
     0
1070
   145
1040
-0.25
1070
   271
1070
     2
1070
   272
1070
     2
1070
    48
1040
0.0
1070
    47
1040
0.0
1002
}
  0
ELLIPSE
  5
96B
330
6C
100
AcDbEntity
  8
Visible (ANSI)
100
AcDbEllipse
 10
171.2205786632507
 20
53.64331263631258
 30
0.0
 11
-0.0965783276981949
 21
0.1677109756264705
 31
0.0
210
0.0
220
0.0
230
1.0
 40
0.5780931159158129
 41
0.0
 42
6.283185307179586
  0
ELLIPSE
  5
96C
330
6C
100
AcDbEntity
  8
Visible (ANSI)
100
AcDbEllipse
 10
171.2813456522589
 20
53.67830601796661
 30
0.0
 11
-0.0965783276981949
 21
0.1677109756264704
 31
0.0
210
0.0
220
0.0
230
1.0
 40
0.5780931159158129
 41
0.3187556839588481
 42
2.822836969630835
  0
ELLIPSE
  5
96D
330
6C
100
AcDbEntity
  8
Visible (ANSI)
100
AcDbEllipse
 10
153.5981518508645
 20
63.79139331597935
 30
0.0
 11
-0.0965783276981949
 21
0.1677109756264705
 31
0.0
210
0.0
220
0.0
230
1.0
 40
0.5780931159158129
 41
0.0
 42
6.283185307179586
  0
ELLIPSE
  5
96E
330
6C
100
AcDbEntity
  8
Visible (ANSI)
100
AcDbEllipse
 10
153.6589188398727
 20
63.82638669763338
 30
0.0
 11
-0.0965783276981947
 21
0.1677109756264702
 31
0.0
210
0.0
220
0.0
230
1.0
 40
0.5780931159158129
 41
0.3187556839588481
 42
2.822836969630835
  0
ELLIPSE
  5
96F
330
6C
100
AcDbEntity
  8
Visible (ANSI)
100
AcDbEllipse
 10
162.4093652570576
 20
50.77820394349537
 30
0.0
 11
-0.0965783276981949
 21
0.1677109756264705
 31
0.0
210
0.0
220
0.0
230
1.0
 40
0.5780931159158129
 41
0.0
 42
6.283185307179586
  0
ELLIPSE
  5
970
330
6C
100
AcDbEntity
  8
Visible (ANSI)
100
AcDbEllipse
 10
162.4701322460658
 20
50.81319732514939
 30
0.0
 11
-0.0965783276981943
 21
0.1677109756264695
 31
0.0
210
0.0
220
0.0
230
1.0
 40
0.5780931159158126
 41
0.318755683958892
 42
2.822836969630835
  0
ELLIPSE
  5
971
330
6C
100
AcDbEntity
  8
Visible (ANSI)
100
AcDbEllipse
 10
171.2205786632507
 20
59.26394911960503
 30
0.0
 11
-0.0965783276981949
 21
0.1677109756264705
 31
0.0
210
0.0
220
0.0
230
1.0
 40
0.5780931159158129
 41
0.0
 42
6.283185307179586
  0
ELLIPSE
  5
972
330
6C
100
AcDbEntity
  8
Visible (ANSI)
100
AcDbEllipse
 10
171.2813456522589
 20
59.29894250125907
 30
0.0
 11
-0.096578327698194
 21
0.1677109756264689
 31
0.0
210
0.0
220
0.0
230
1.0
 40
0.578093115915813
 41
0.3187556839588916
 42
2.822836969630835
  0
ELLIPSE
  5
973
330
6C
100
AcDbEntity
  8
Visible (ANSI)
100
AcDbEllipse
 10
171.2205786632507
 20
45.70416360366198
 30
0.0
 11
-0.0965783276981949
 21
0.1677109756264705
 31
0.0
210
0.0
220
0.0
230
1.0
 40
0.5780931159158129
 41
0.0
 42
6.283185307179586
  0
ELLIPSE
  5
974
330
6C
100
AcDbEntity
  8
Visible (ANSI)
100
AcDbEllipse
 10
171.2813456522589
 20
45.739156985316
 30
0.0
 11
-0.096578327698195
 21
0.1677109756264707
 31
0.0
210
0.0
220
0.0
230
0.9999999999999998
 40
0.578093115915813
 41
0.3187556839588481
 42
2.822836969630835
  0
ELLIPSE
  5
975
330
6C
100
AcDbEntity
  8
Visible (ANSI)
100
AcDbEllipse
 10
153.5981518508645
 20
55.85224428332875
 30
0.0
 11
-0.0965783276981949
 21
0.1677109756264705
 31
0.0
210
0.0
220
0.0
230
1.0
 40
0.5780931159158129
 41
0.0
 42
6.283185307179586
  0
ELLIPSE
  5
976
330
6C
100
AcDbEntity
  8
Visible (ANSI)
100
AcDbEllipse
 10
153.6589188398727
 20
55.88723766498278
 30
0.0
 11
-0.0965783276981949
 21
0.1677109756264705
 31
0.0
210
0.0
220
0.0
230
1.0
 40
0.5780931159158129
 41
0.3187556839588481
 42
2.822836969630835
  0
ELLIPSE
  5
977
330
6C
100
AcDbEntity
  8
Visible (ANSI)
100
AcDbEllipse
 10
153.5981518508645
 20
69.4120297992718
 30
0.0
 11
-0.0965783276981949
 21
0.1677109756264705
 31
0.0
210
0.0
220
0.0
230
1.0
 40
0.5780931159158129
 41
0.0
 42
6.283185307179586
  0
ELLIPSE
  5
978
330
6C
100
AcDbEntity
  8
Visible (ANSI)
100
AcDbEllipse
 10
153.6589188398727
 20
69.44702318092584
 30
0.0
 11
-0.0965783276981947
 21
0.1677109756264702
 31
0.0
210
0.0
220
0.0
230
1.0
 40
0.5780931159158129
 41
0.3187556839588485
 42
2.822836969630814
  0
ELLIPSE
  5
979
330
6C
100
AcDbEntity
  8
Visible (ANSI)
100
AcDbEllipse
 10
171.2205786632507
 20
72.82373463554809
 30
0.0
 11
-0.0965783276981949
 21
0.1677109756264705
 31
0.0
210
0.0
220
0.0
230
1.0
 40
0.5780931159158129
 41
0.0
 42
6.283185307179586
  0
ELLIPSE
  5
97A
330
6C
100
AcDbEntity
  8
Visible (ANSI)
100
AcDbEllipse
 10
171.2813456522589
 20
72.85872801720213
 30
0.0
 11
-0.0965783276981931
 21
0.1677109756264675
 31
0.0
210
0.0
220
0.0
230
0.9999999999999998
 40
0.5780931159158129
 41
0.3187556839588481
 42
2.822836969630857
  0
ELLIPSE
  5
97B
330
6C
100
AcDbEntity
  8
Visible (ANSI)
100
AcDbEllipse
 10
162.4093652570576
 20
77.89777497538148
 30
0.0
 11
-0.0965783276981949
 21
0.1677109756264705
 31
0.0
210
0.0
220
0.0
230
1.0
 40
0.5780931159158129
 41
0.0
 42
6.283185307179586
  0
ELLIPSE
  5
97C
330
6C
100
AcDbEntity
  8
Visible (ANSI)
100
AcDbEllipse
 10
162.4701322460658
 20
77.93276835703551
 30
0.0
 11
-0.096578327698194
 21
0.167710975626469
 31
0.0
210
0.0
220
0.0
230
0.9999999999999998
 40
0.5780931159158128
 41
0.3187556839588481
 42
2.822836969630857
  0
ELLIPSE
  5
97D
330
6C
100
AcDbEntity
  8
Visible (ANSI)
100
AcDbEllipse
 10
153.5981518508645
 20
82.97181531521486
 30
0.0
 11
-0.0965783276981949
 21
0.1677109756264705
 31
0.0
210
0.0
220
0.0
230
1.0
 40
0.5780931159158129
 41
0.0
 42
6.283185307179586
  0
ELLIPSE
  5
97E
330
6C
100
AcDbEntity
  8
Visible (ANSI)
100
AcDbEllipse
 10
153.6589188398727
 20
83.00680869686891
 30
0.0
 11
-0.0965783276981947
 21
0.1677109756264702
 31
0.0
210
0.0
220
0.0
230
1.0
 40
0.5780931159158129
 41
0.3187556839588485
 42
2.822836969630857
  0
POLYLINE
  5
97F
330
6C
100
AcDbEntity
  8
Visible (ANSI)
100
AcDb2dPolyline
 66
     1
 10
0.0
 20
0.0
 30
0.0
 70
   128
  0
VERTEX
  5
980
330
97F
100
AcDbEntity
  8
Visible (ANSI)
100
AcDbVertex
100
AcDb2dVertex
 10
171.5699885005112
 20
45.09896861293166
 30
0.0
  0
VERTEX
  5
981
330
97F
100
AcDbEntity
  8
Visible (ANSI)
100
AcDbVertex
100
AcDb2dVertex
 10
171.5689946479555
 20
45.09398437660093
 30
0.0
  0
VERTEX
  5
983
330
97F
100
AcDbEntity
  8
Visible (ANSI)
100
AcDbVertex
100
AcDb2dVertex
 10
171.568323911559
 20
45.08921249086317
 30
0.0
  0
VERTEX
  5
984
330
97F
100
AcDbEntity
  8
Visible (ANSI)
100
AcDbVertex
100
AcDb2dVertex
 10
171.5679756581855
 20
45.08467539587349
 30
0.0
  0
VERTEX
  5
985
330
97F
100
AcDbEntity
  8
Visible (ANSI)
100
AcDbVertex
100
AcDb2dVertex
 10
171.5679478800522
 20
45.08039453574157
 30
0.0
  0
VERTEX
  5
986
330
97F
100
AcDbEntity
  8
Visible (ANSI)
100
AcDbVertex
100
AcDb2dVertex
 10
171.5682328255198
 20
45.07639277561916
 30
0.0
  0
VERTEX
  5
987
330
97F
100
AcDbEntity
  8
Visible (ANSI)
100
AcDbVertex
100
AcDb2dVertex
 10
171.568827237645
 20
45.07268842979333
 30
0.0
  0
VERTEX
  5
988
330
97F
100
AcDbEntity
  8
Visible (ANSI)
100
AcDbVertex
100
AcDb2dVertex
 10
171.5697206953497
 20
45.06930188642875
 30
0.0
  0
VERTEX
  5
989
330
97F
100
AcDbEntity
  8
Visible (ANSI)
100
AcDbVertex
100
AcDb2dVertex
 10
171.5709058747895
 20
45.06624966858411
 30
0.0
  0
VERTEX
  5
98A
330
97F
100
AcDbEntity
  8
Visible (ANSI)
100
AcDbVertex
100
AcDb2dVertex
 10
171.5723742086632
 20
45.06354686112811
 30
0.0
  0
VERTEX
  5
98B
330
97F
100
AcDbEntity
  8
Visible (ANSI)
100
AcDbVertex
100
AcDb2dVertex
 10
171.5741115284117
 20
45.06120956737021
 30
0.0
  0
VERTEX
  5
98C
330
97F
100
AcDbEntity
  8
Visible (ANSI)
100
AcDbVertex
100
AcDb2dVertex
 10
171.5761083598093
 20
45.05924897000074
 30
0.0
  0
VERTEX
  5
98D
330
97F
100
AcDbEntity
  8
Visible (ANSI)
100
AcDbVertex
100
AcDb2dVertex
 10
171.5783482812449
 20
45.05767800030988
 30
0.0
  0
VERTEX
  5
98E
330
97F
100
AcDbEntity
  8
Visible (ANSI)
100
AcDbVertex
100
AcDb2dVertex
 10
171.5808181993498
 20
45.05650539752354
 30
0.0
  0
VERTEX
  5
98F
330
97F
100
AcDbEntity
  8
Visible (ANSI)
100
AcDbVertex
100
AcDb2dVertex
 10
171.5835040425318
 20
45.05573819994231
 30
0.0
  0
VERTEX
  5
990
330
97F
100
AcDbEntity
  8
Visible (ANSI)
100
AcDbVertex
100
AcDb2dVertex
 10
171.5863864373967
 20
45.05538422787515
 30
0.0
  0
VERTEX
  5
991
330
97F
100
AcDbEntity
  8
Visible (ANSI)
100
AcDbVertex
100
AcDb2dVertex
 10
171.5894495384301
 20
45.05544700607749
 30
0.0
  0
VERTEX
  5
992
330
97F
100
AcDbEntity
  8
Visible (ANSI)
100
AcDbVertex
100
AcDb2dVertex
 10
171.5926767329395
 20
45.05592828371695
 30
0.0
  0
VERTEX
  5
993
330
97F
100
AcDbEntity
  8
Visible (ANSI)
100
AcDbVertex
100
AcDb2dVertex
 10
171.5960463303096
 20
45.05683053335323
 30
0.0
  0
VERTEX
  5
994
330
97F
100
AcDbEntity
  8
Visible (ANSI)
100
AcDbVertex
100
AcDb2dVertex
 10
171.5995418618719
 20
45.05815106462701
 30
0.0
  0
VERTEX
  5
995
330
97F
100
AcDbEntity
  8
Visible (ANSI)
100
AcDbVertex
100
AcDb2dVertex
 10
171.6031404862435
 20
45.05988875643681
 30
0.0
  0
VERTEX
  5
996
330
97F
100
AcDbEntity
  8
Visible (ANSI)
100
AcDbVertex
100
AcDb2dVertex
 10
171.6068232964155
 20
45.06203818251331
 30
0.0
  0
VERTEX
  5
997
330
97F
100
AcDbEntity
  8
Visible (ANSI)
100
AcDbVertex
100
AcDb2dVertex
 10
171.6105710231795
 20
45.06459215282172
 30
0.0
  0
VERTEX
  5
998
330
97F
100
AcDbEntity
  8
Visible (ANSI)
100
AcDbVertex
100
AcDb2dVertex
 10
171.614359745595
 20
45.0675442646214
 30
0.0
  0
VERTEX
  5
999
330
97F
100
AcDbEntity
  8
Visible (ANSI)
100
AcDbVertex
100
AcDb2dVertex
 10
171.6181712013752
 20
45.07088304994278
 30
0.0
  0
SEQEND
  5
982
330
97F
100
AcDbEntity
  8
Visible (ANSI)
  0
POLYLINE
  5
99A
330
6C
100
AcDbEntity
  8
Visible (ANSI)
100
AcDb2dPolyline
 66
     1
 10
0.0
 20
0.0
 30
0.0
 70
   128
  0
VERTEX
  5
99B
330
99A
100
AcDbEntity
  8
Visible (ANSI)
100
AcDbVertex
100
AcDb2dVertex
 10
153.2850161213738
 20
55.59210714307853
 30
0.0
  0
VERTEX
  5
99C
330
99A
100
AcDbEntity
  8
Visible (ANSI)
100
AcDbVertex
100
AcDb2dVertex
 10
153.2826997501804
 20
55.59350774881693
 30
0.0
  0
VERTEX
  5
99E
330
99A
100
AcDbEntity
  8
Visible (ANSI)
100
AcDbVertex
100
AcDb2dVertex
 10
153.2804429337077
 20
55.59500738113634
 30
0.0
  0
VERTEX
  5
99F
330
99A
100
AcDbEntity
  8
Visible (ANSI)
100
AcDbVertex
100
AcDb2dVertex
 10
153.2782474801011
 20
55.59660478628667
 30
0.0
  0
VERTEX
  5
9A0
330
99A
100
AcDbEntity
  8
Visible (ANSI)
100
AcDbVertex
100
AcDb2dVertex
 10
153.2761151205031
 20
55.59829860352411
 30
0.0
  0
VERTEX
  5
9A1
330
99A
100
AcDbEntity
  8
Visible (ANSI)
100
AcDbVertex
100
AcDb2dVertex
 10
153.2740475318687
 20
55.60008737495241
 30
0.0
  0
VERTEX
  5
9A2
330
99A
100
AcDbEntity
  8
Visible (ANSI)
100
AcDbVertex
100
AcDb2dVertex
 10
153.2720463084459
 20
55.6019695258021
 30
0.0
  0
VERTEX
  5
9A3
330
99A
100
AcDbEntity
  8
Visible (ANSI)
100
AcDbVertex
100
AcDb2dVertex
 10
153.2701129845917
 20
55.60394339735361
 30
0.0
  0
VERTEX
  5
9A4
330
99A
100
AcDbEntity
  8
Visible (ANSI)
100
AcDbVertex
100
AcDb2dVertex
 10
153.2682490148079
 20
55.60600722225126
 30
0.0
  0
VERTEX
  5
9A5
330
99A
100
AcDbEntity
  8
Visible (ANSI)
100
AcDbVertex
100
AcDb2dVertex
 10
153.2664557851492
 20
55.60815914096489
 30
0.0
  0
VERTEX
  5
9A6
330
99A
100
AcDbEntity
  8
Visible (ANSI)
100
AcDbVertex
100
AcDb2dVertex
 10
153.2647345904074
 20
55.61039719194851
 30
0.0
  0
VERTEX
  5
9A7
330
99A
100
AcDbEntity
  8
Visible (ANSI)
100
AcDbVertex
100
AcDb2dVertex
 10
153.2630866683352
 20
55.61271933464574
 30
0.0
  0
VERTEX
  5
9A8
330
99A
100
AcDbEntity
  8
Visible (ANSI)
100
AcDbVertex
100
AcDb2dVertex
 10
153.261513165422
 20
55.61512342648443
 30
0.0
  0
VERTEX
  5
9A9
330
99A
100
AcDbEntity
  8
Visible (ANSI)
100
AcDbVertex
100
AcDb2dVertex
 10
153.2600151483027
 20
55.6176072360407
 30
0.0
  0
VERTEX
  5
9AA
330
99A
100
AcDbEntity
  8
Visible (ANSI)
100
AcDbVertex
100
AcDb2dVertex
 10
153.2585936037571
 20
55.62016844963389
 30
0.0
  0
VERTEX
  5
9AB
330
99A
100
AcDbEntity
  8
Visible (ANSI)
100
AcDbVertex
100
AcDb2dVertex
 10
153.2572494387095
 20
55.62280467792121
 30
0.0
  0
VERTEX
  5
9AC
330
99A
100
AcDbEntity
  8
Visible (ANSI)
100
AcDbVertex
100
AcDb2dVertex
 10
153.25598348023
 20
55.62551343611345
 30
0.0
  0
VERTEX
  5
9AD
330
99A
100
AcDbEntity
  8
Visible (ANSI)
100
AcDbVertex
100
AcDb2dVertex
 10
153.2547964584212
 20
55.62829217698713
 30
0.0
  0
VERTEX
  5
9AE
330
99A
100
AcDbEntity
  8
Visible (ANSI)
100
AcDbVertex
100
AcDb2dVertex
 10
153.2536890349389
 20
55.63113826114421
 30
0.0
  0
VERTEX
  5
9AF
330
99A
100
AcDbEntity
  8
Visible (ANSI)
100
AcDbVertex
100
AcDb2dVertex
 10
153.2526617687682
 20
55.63404899006257
 30
0.0
  0
VERTEX
  5
9B0
330
99A
100
AcDbEntity
  8
Visible (ANSI)
100
AcDbVertex
100
AcDb2dVertex
 10
153.251715150447
 20
55.63702159282993
 30
0.0
  0
VERTEX
  5
9B1
330
99A
100
AcDbEntity
  8
Visible (ANSI)
100
AcDbVertex
100
AcDb2dVertex
 10
153.2508495621384
 20
55.64005322293564
 30
0.0
  0
VERTEX
  5
9B2
330
99A
100
AcDbEntity
  8
Visible (ANSI)
100
AcDbVertex
100
AcDb2dVertex
 10
153.2500653232625
 20
55.64314098454801
 30
0.0
  0
VERTEX
  5
9B3
330
99A
100
AcDbEntity
  8
Visible (ANSI)
100
AcDbVertex
100
AcDb2dVertex
 10
153.2493626448646
 20
55.6462819128317
 30
0.0
  0
VERTEX
  5
9B4
330
99A
100
AcDbEntity
  8
Visible (ANSI)
100
AcDbVertex
100
AcDb2dVertex
 10
153.2487416638391
 20
55.64947298046626
 30
0.0
  0
SEQEND
  5
99D
330
99A
100
AcDbEntity
  8
Visible (ANSI)
  0
LINE
  5
9B5
330
6C
100
AcDbEntity
  8
Visible (ANSI)
100
AcDbLine
 10
153.586644899788
 20
55.7945025995817
 30
0.0
 11
153.7018875898726
 21
55.86086645111997
 31
0.0
  0
LINE
  5
9B6
330
6C
100
AcDbEntity
  8
Visible (ANSI)
100
AcDbLine
 10
171.6181705835603
 20
45.09366406351385
 30
0.0
 11
171.6181705835603
 21
45.0708834059815
 31
0.0
  0
LINE
  5
9B7
330
6C
100
AcDbEntity
  8
Visible (ANSI)
100
AcDbLine
 10
171.6181705835603
 20
45.0708834059815
 30
0.0
 11
171.6811430773175
 21
45.10714685335178
 31
0.0
  0
LINE
  5
9B8
330
6C
100
AcDbEntity
  8
Visible (ANSI)
100
AcDbLine
 10
171.7200723660138
 20
45.12956473975864
 30
0.0
 11
171.9675807703575
 21
45.27209535049219
 31
0.0
  0
LINE
  5
9B9
330
6C
100
AcDbEntity
  8
Visible (ANSI)
100
AcDbLine
 10
171.9675807703575
 20
45.27255830544585
 30
0.0
 11
171.9675807703575
 21
45.27209535049219
 31
0.0
  0
POLYLINE
  5
9BA
330
6C
100
AcDbEntity
  8
Visible (ANSI)
100
AcDb2dPolyline
 66
     1
 10
0.0
 20
0.0
 30
0.0
 70
   128
  0
VERTEX
  5
9BB
330
9BA
100
AcDbEntity
  8
Visible (ANSI)
100
AcDbVertex
100
AcDb2dVertex
 10
171.5699885005112
 20
73.026506478264
 30
0.0
  0
VERTEX
  5
9BC
330
9BA
100
AcDbEntity
  8
Visible (ANSI)
100
AcDbVertex
100
AcDb2dVertex
 10
171.5751187509766
 20
73.02240067080141
 30
0.0
  0
VERTEX
  5
9BE
330
9BA
100
AcDbEntity
  8
Visible (ANSI)
100
AcDbVertex
100
AcDb2dVertex
 10
171.5805531349261
 20
73.01849523497843
 30
0.0
  0
VERTEX
  5
9BF
330
9BA
100
AcDbEntity
  8
Visible (ANSI)
100
AcDbVertex
100
AcDb2dVertex
 10
171.5862676559312
 20
73.01479820192868
 30
0.0
  0
VERTEX
  5
9C0
330
9BA
100
AcDbEntity
  8
Visible (ANSI)
100
AcDbVertex
100
AcDb2dVertex
 10
171.5922369429166
 20
73.01132187598888
 30
0.0
  0
VERTEX
  5
9C1
330
9BA
100
AcDbEntity
  8
Visible (ANSI)
100
AcDbVertex
100
AcDb2dVertex
 10
171.5984357217736
 20
73.00807693558194
 30
0.0
  0
VERTEX
  5
9C2
330
9BA
100
AcDbEntity
  8
Visible (ANSI)
100
AcDbVertex
100
AcDb2dVertex
 10
171.6048388324724
 20
73.0050673782617
 30
0.0
  0
VERTEX
  5
9C3
330
9BA
100
AcDbEntity
  8
Visible (ANSI)
100
AcDbVertex
100
AcDb2dVertex
 10
171.6114183314657
 20
73.00230403349345
 30
0.0
  0
VERTEX
  5
9C4
330
9BA
100
AcDbEntity
  8
Visible (ANSI)
100
AcDbVertex
100
AcDb2dVertex
 10
171.6181449918224
 20
72.99979023861148
 30
0.0
  0
VERTEX
  5
9C5
330
9BA
100
AcDbEntity
  8
Visible (ANSI)
100
AcDbVertex
100
AcDb2dVertex
 10
171.6249912635661
 20
72.99753199794745
 30
0.0
  0
VERTEX
  5
9C6
330
9BA
100
AcDbEntity
  8
Visible (ANSI)
100
AcDbVertex
100
AcDb2dVertex
 10
171.6319269158743
 20
72.99553545378931
 30
0.0
  0
VERTEX
  5
9C7
330
9BA
100
AcDbEntity
  8
Visible (ANSI)
100
AcDbVertex
100
AcDb2dVertex
 10
171.6389220316403
 20
72.99380018251953
 30
0.0
  0
VERTEX
  5
9C8
330
9BA
100
AcDbEntity
  8
Visible (ANSI)
100
AcDbVertex
100
AcDb2dVertex
 10
171.6459470474011
 20
72.99232934722654
 30
0.0
  0
VERTEX
  5
9C9
330
9BA
100
AcDbEntity
  8
Visible (ANSI)
100
AcDbVertex
100
AcDb2dVertex
 10
171.6529728075246
 20
72.99112466409996
 30
0.0
  0
VERTEX
  5
9CA
330
9BA
100
AcDbEntity
  8
Visible (ANSI)
100
AcDbVertex
100
AcDb2dVertex
 10
171.6599691781549
 20
72.99018222119823
 30
0.0
  0
VERTEX
  5
9CB
330
9BA
100
AcDbEntity
  8
Visible (ANSI)
100
AcDbVertex
100
AcDb2dVertex
 10
171.6669051042517
 20
72.98950432918421
 30
0.0
  0
VERTEX
  5
9CC
330
9BA
100
AcDbEntity
  8
Visible (ANSI)
100
AcDbVertex
100
AcDb2dVertex
 10
171.6737501382428
 20
72.9890852137062
 30
0.0
  0
VERTEX
  5
9CD
330
9BA
100
AcDbEntity
  8
Visible (ANSI)
100
AcDbVertex
100
AcDb2dVertex
 10
171.6804774459954
 20
72.98892120080342
 30
0.0
  0
VERTEX
  5
9CE
330
9BA
100
AcDbEntity
  8
Visible (ANSI)
100
AcDbVertex
100
AcDb2dVertex
 10
171.6870565756593
 20
72.98900989671688
 30
0.0
  0
VERTEX
  5
9CF
330
9BA
100
AcDbEntity
  8
Visible (ANSI)
100
AcDbVertex
100
AcDb2dVertex
 10
171.69345937692
 20
72.98934180473789
 30
0.0
  0
VERTEX
  5
9D0
330
9BA
100
AcDbEntity
  8
Visible (ANSI)
100
AcDbVertex
100
AcDb2dVertex
 10
171.6996586277772
 20
72.98991303406452
 30
0.0
  0
VERTEX
  5
9D1
330
9BA
100
AcDbEntity
  8
Visible (ANSI)
100
AcDbVertex
100
AcDb2dVertex
 10
171.7056281201931
 20
72.99071184296455
 30
0.0
  0
VERTEX
  5
9D2
330
9BA
100
AcDbEntity
  8
Visible (ANSI)
100
AcDbVertex
100
AcDb2dVertex
 10
171.7113412839305
 20
72.99173134593849
 30
0.0
  0
VERTEX
  5
9D3
330
9BA
100
AcDbEntity
  8
Visible (ANSI)
100
AcDbVertex
100
AcDb2dVertex
 10
171.7167756582546
 20
72.99296197873229
 30
0.0
  0
VERTEX
  5
9D4
330
9BA
100
AcDbEntity
  8
Visible (ANSI)
100
AcDbVertex
100
AcDb2dVertex
 10
171.7219056798498
 20
72.99439068913152
 30
0.0
  0
SEQEND
  5
9BD
330
9BA
100
AcDbEntity
  8
Visible (ANSI)
  0
POLYLINE
  5
9D5
330
6C
100
AcDbEntity
  8
Visible (ANSI)
100
AcDb2dPolyline
 66
     1
 10
0.0
 20
0.0
 30
0.0
 70
   128
  0
VERTEX
  5
9D6
330
9D5
100
AcDbEntity
  8
Visible (ANSI)
100
AcDbVertex
100
AcDb2dVertex
 10
171.7219056798498
 20
45.13108416335299
 30
0.0
  0
VERTEX
  5
9D7
330
9D5
100
AcDbEntity
  8
Visible (ANSI)
100
AcDbVertex
100
AcDb2dVertex
 10
171.7167756582546
 20
45.12697851651092
 30
0.0
  0
VERTEX
  5
9D9
330
9D5
100
AcDbEntity
  8
Visible (ANSI)
100
AcDbVertex
100
AcDb2dVertex
 10
171.7113412839305
 20
45.12307263554404
 30
0.0
  0
VERTEX
  5
9DA
330
9D5
100
AcDbEntity
  8
Visible (ANSI)
100
AcDbVertex
100
AcDb2dVertex
 10
171.7056281201931
 20
45.11937619612726
 30
0.0
  0
VERTEX
  5
9DB
330
9D5
100
AcDbEntity
  8
Visible (ANSI)
100
AcDbVertex
100
AcDb2dVertex
 10
171.6996586277772
 20
45.11590045078434
 30
0.0
  0
VERTEX
  5
9DC
330
9D5
100
AcDbEntity
  8
Visible (ANSI)
100
AcDbVertex
100
AcDb2dVertex
 10
171.69345937692
 20
45.11265396009505
 30
0.0
  0
VERTEX
  5
9DD
330
9D5
100
AcDbEntity
  8
Visible (ANSI)
100
AcDbVertex
100
AcDb2dVertex
 10
171.6870565756593
 20
45.10964511563116
 30
0.0
  0
VERTEX
  5
9DE
330
9D5
100
AcDbEntity
  8
Visible (ANSI)
100
AcDbVertex
100
AcDb2dVertex
 10
171.6804774459954
 20
45.10688117154463
 30
0.0
  0
VERTEX
  5
9DF
330
9D5
100
AcDbEntity
  8
Visible (ANSI)
100
AcDbVertex
100
AcDb2dVertex
 10
171.6737501382428
 20
45.10436824800454
 30
0.0
  0
VERTEX
  5
9E0
330
9D5
100
AcDbEntity
  8
Visible (ANSI)
100
AcDbVertex
100
AcDb2dVertex
 10
171.6669051042517
 20
45.1021104204449
 30
0.0
  0
VERTEX
  5
9E1
330
9D5
100
AcDbEntity
  8
Visible (ANSI)
100
AcDbVertex
100
AcDb2dVertex
 10
171.659969178155
 20
45.10011306428584
 30
0.0
  0
VERTEX
  5
9E2
330
9D5
100
AcDbEntity
  8
Visible (ANSI)
100
AcDbVertex
100
AcDb2dVertex
 10
171.6529728075246
 20
45.0983785707447
 30
0.0
  0
VERTEX
  5
9E3
330
9D5
100
AcDbEntity
  8
Visible (ANSI)
100
AcDbVertex
100
AcDb2dVertex
 10
171.6459470474011
 20
45.09690799910344
 30
0.0
  0
VERTEX
  5
9E4
330
9D5
100
AcDbEntity
  8
Visible (ANSI)
100
AcDbVertex
100
AcDb2dVertex
 10
171.6389220316403
 20
45.09570189795353
 30
0.0
  0
VERTEX
  5
9E5
330
9D5
100
AcDbEntity
  8
Visible (ANSI)
100
AcDbVertex
100
AcDb2dVertex
 10
171.6319269158743
 20
45.09476022618566
 30
0.0
  0
VERTEX
  5
9E6
330
9D5
100
AcDbEntity
  8
Visible (ANSI)
100
AcDbVertex
100
AcDb2dVertex
 10
171.6249912635661
 20
45.09408152217074
 30
0.0
  0
VERTEX
  5
9E7
330
9D5
100
AcDbEntity
  8
Visible (ANSI)
100
AcDbVertex
100
AcDb2dVertex
 10
171.6181449918224
 20
45.09366281979708
 30
0.0
  0
VERTEX
  5
9E8
330
9D5
100
AcDbEntity
  8
Visible (ANSI)
100
AcDbVertex
100
AcDb2dVertex
 10
171.6114183314658
 20
45.09349967823618
 30
0.0
  0
VERTEX
  5
9E9
330
9D5
100
AcDbEntity
  8
Visible (ANSI)
100
AcDbVertex
100
AcDb2dVertex
 10
171.6048388324724
 20
45.09358777483138
 30
0.0
  0
VERTEX
  5
9EA
330
9D5
100
AcDbEntity
  8
Visible (ANSI)
100
AcDbVertex
100
AcDb2dVertex
 10
171.5984357217736
 20
45.09392038911395
 30
0.0
  0
VERTEX
  5
9EB
330
9D5
100
AcDbEntity
  8
Visible (ANSI)
100
AcDbVertex
100
AcDb2dVertex
 10
171.5922369429166
 20
45.09449008134782
 30
0.0
  0
VERTEX
  5
9EC
330
9D5
100
AcDbEntity
  8
Visible (ANSI)
100
AcDbVertex
100
AcDb2dVertex
 10
171.5862676559312
 20
45.09528946424995
 30
0.0
  0
VERTEX
  5
9ED
330
9D5
100
AcDbEntity
  8
Visible (ANSI)
100
AcDbVertex
100
AcDb2dVertex
 10
171.5805531349261
 20
45.09630956085681
 30
0.0
  0
VERTEX
  5
9EE
330
9D5
100
AcDbEntity
  8
Visible (ANSI)
100
AcDbVertex
100
AcDb2dVertex
 10
171.5751187509766
 20
45.09753974850676
 30
0.0
  0
VERTEX
  5
9EF
330
9D5
100
AcDbEntity
  8
Visible (ANSI)
100
AcDbVertex
100
AcDb2dVertex
 10
171.5699885005112
 20
45.09896861293166
 30
0.0
  0
SEQEND
  5
9D8
330
9D5
100
AcDbEntity
  8
Visible (ANSI)
  0
LINE
  5
9F0
330
6C
100
AcDbEntity
  8
Visible (ANSI)
100
AcDbLine
 10
171.6612299879807
 20
73.02943613619818
 30
0.0
 11
172.0105495203575
 21
73.23059587630011
 31
0.0
  0
LINE
  5
9F1
330
6C
100
AcDbEntity
  8
Visible (ANSI)
100
AcDbLine
 10
172.0713165093657
 20
45.33229574456413
 30
0.0
 11
171.7219063225686
 21
45.13108380005343
 31
0.0
  0
LINE
  5
9F2
330
6C
100
AcDbEntity
  8
Visible (ANSI)
100
AcDbLine
 10
171.6636994970981
 20
73.02790963165975
 30
0.0
 11
171.7219063225686
 21
72.9943905501354
 31
0.0
  0
POLYLINE
  5
9F3
330
6C
100
AcDbEntity
  8
Visible (ANSI)
100
AcDb2dPolyline
 66
     1
 10
0.0
 20
0.0
 30
0.0
 70
   128
  0
VERTEX
  5
9F4
330
9F3
100
AcDbEntity
  8
Visible (ANSI)
100
AcDbVertex
100
AcDb2dVertex
 10
171.6307554886068
 20
73.06149985939248
 30
0.0
  0
VERTEX
  5
9F5
330
9F3
100
AcDbEntity
  8
Visible (ANSI)
100
AcDbVertex
100
AcDb2dVertex
 10
171.6316908963991
 20
73.05977016710295
 30
0.0
  0
VERTEX
  5
9F7
330
9F3
100
AcDbEntity
  8
Visible (ANSI)
100
AcDbVertex
100
AcDb2dVertex
 10
171.6326776062684
 20
73.0580716929513
 30
0.0
  0
VERTEX
  5
9F8
330
9F3
100
AcDbEntity
  8
Visible (ANSI)
100
AcDbVertex
100
AcDb2dVertex
 10
171.6337109466109
 20
73.05641016853882
 30
0.0
  0
VERTEX
  5
9F9
330
9F3
100
AcDbEntity
  8
Visible (ANSI)
100
AcDbVertex
100
AcDb2dVertex
 10
171.6347875131751
 20
73.0547853087241
 30
0.0
  0
VERTEX
  5
9FA
330
9F3
100
AcDbEntity
  8
Visible (ANSI)
100
AcDbVertex
100
AcDb2dVertex
 10
171.6359051708425
 20
73.05319756572725
 30
0.0
  0
VERTEX
  5
9FB
330
9F3
100
AcDbEntity
  8
Visible (ANSI)
100
AcDbVertex
100
AcDb2dVertex
 10
171.6370586752961
 20
73.05164727653665
 30
0.0
  0
VERTEX
  5
9FC
330
9F3
100
AcDbEntity
  8
Visible (ANSI)
100
AcDbVertex
100
AcDb2dVertex
 10
171.6382440570472
 20
73.05013889532171
 30
0.0
  0
VERTEX
  5
9FD
330
9F3
100
AcDbEntity
  8
Visible (ANSI)
100
AcDbVertex
100
AcDb2dVertex
 10
171.6394557042318
 20
73.04867254741459
 30
0.0
  0
VERTEX
  5
9FE
330
9F3
100
AcDbEntity
  8
Visible (ANSI)
100
AcDbVertex
100
AcDb2dVertex
 10
171.6406922083359
 20
73.04724742170612
 30
0.0
  0
VERTEX
  5
9FF
330
9F3
100
AcDbEntity
  8
Visible (ANSI)
100
AcDbVertex
100
AcDb2dVertex
 10
171.641946147568
 20
73.0458642830135
 30
0.0
  0
VERTEX
  5
A00
330
9F3
100
AcDbEntity
  8
Visible (ANSI)
100
AcDbVertex
100
AcDb2dVertex
 10
171.6432143140028
 20
73.04452634230824
 30
0.0
  0
VERTEX
  5
A01
330
9F3
100
AcDbEntity
  8
Visible (ANSI)
100
AcDbVertex
100
AcDb2dVertex
 10
171.6444933394703
 20
73.04323165347362
 30
0.0
  0
VERTEX
  5
A02
330
9F3
100
AcDbEntity
  8
Visible (ANSI)
100
AcDbVertex
100
AcDb2dVertex
 10
171.6457767808482
 20
73.04198155142174
 30
0.0
  0
VERTEX
  5
A03
330
9F3
100
AcDbEntity
  8
Visible (ANSI)
100
AcDbVertex
100
AcDb2dVertex
 10
171.6470609701537
 20
73.04077391738518
 30
0.0
  0
VERTEX
  5
A04
330
9F3
100
AcDbEntity
  8
Visible (ANSI)
100
AcDbVertex
100
AcDb2dVertex
 10
171.6483421007274
 20
73.03961161754734
 30
0.0
  0
VERTEX
  5
A05
330
9F3
100
AcDbEntity
  8
Visible (ANSI)
100
AcDbVertex
100
AcDb2dVertex
 10
171.6496133146644
 20
73.03849405969308
 30
0.0
  0
VERTEX
  5
A06
330
9F3
100
AcDbEntity
  8
Visible (ANSI)
100
AcDbVertex
100
AcDb2dVertex
 10
171.6508720141816
 20
73.03741805958882
 30
0.0
  0
VERTEX
  5
A07
330
9F3
100
AcDbEntity
  8
Visible (ANSI)
100
AcDbVertex
100
AcDb2dVertex
 10
171.652114029707
 20
73.03638627443054
 30
0.0
  0
VERTEX
  5
A08
330
9F3
100
AcDbEntity
  8
Visible (ANSI)
100
AcDbVertex
100
AcDb2dVertex
 10
171.6533321678734
 20
73.03539791882323
 30
0.0
  0
VERTEX
  5
A09
330
9F3
100
AcDbEntity
  8
Visible (ANSI)
100
AcDbVertex
100
AcDb2dVertex
 10
171.6545249855869
 20
73.03445047999121
 30
0.0
  0
VERTEX
  5
A0A
330
9F3
100
AcDbEntity
  8
Visible (ANSI)
100
AcDbVertex
100
AcDb2dVertex
 10
171.6556880366348
 20
73.03354139101426
 30
0.0
  0
VERTEX
  5
A0B
330
9F3
100
AcDbEntity
  8
Visible (ANSI)
100
AcDbVertex
100
AcDb2dVertex
 10
171.6568138830941
 20
73.03267479047647
 30
0.0
  0
VERTEX
  5
A0C
330
9F3
100
AcDbEntity
  8
Visible (ANSI)
100
AcDbVertex
100
AcDb2dVertex
 10
171.6579023296053
 20
73.03184551410161
 30
0.0
  0
VERTEX
  5
A0D
330
9F3
100
AcDbEntity
  8
Visible (ANSI)
100
AcDbVertex
100
AcDb2dVertex
 10
171.6589487467169
 20
73.03105257771915
 30
0.0
  0
SEQEND
  5
9F6
330
9F3
100
AcDbEntity
  8
Visible (ANSI)
  0
LINE
  5
A0E
330
6C
100
AcDbEntity
  8
Visible (ANSI)
100
AcDbLine
 10
171.6307558390562
 20
73.06149931992814
 30
0.0
 11
171.6282641971418
 21
73.06006447877706
 31
0.0
  0
LINE
  5
A0F
330
6C
100
AcDbEntity
  8
Visible (ANSI)
100
AcDbLine
 10
171.6282641971418
 20
73.06006447877706
 30
0.0
 11
171.569988850048
 21
73.02650593827411
 31
0.0
  0
LINE
  5
A10
330
6C
100
AcDbEntity
  8
Visible (ANSI)
100
AcDbLine
 10
171.7219063225686
 20
72.9943905501354
 30
0.0
 11
172.0713165093657
 21
73.19560249464609
 31
0.0
  0
LINE
  5
A11
330
6C
100
AcDbEntity
  8
Visible (ANSI)
100
AcDbLine
 10
172.0105495203575
 20
73.23059587630011
 30
0.0
 11
172.0713165093657
 21
73.19560249464609
 31
0.0
  0
POLYLINE
  5
A12
330
6C
100
AcDbEntity
  8
Visible (ANSI)
100
AcDb2dPolyline
 66
     1
 10
0.0
 20
0.0
 30
0.0
 70
   128
  0
VERTEX
  5
A13
330
A12
100
AcDbEntity
  8
Visible (ANSI)
100
AcDbVertex
100
AcDb2dVertex
 10
153.2487416638391
 20
83.57701084579858
 30
0.0
  0
VERTEX
  5
A14
330
A12
100
AcDbEntity
  8
Visible (ANSI)
100
AcDbVertex
100
AcDb2dVertex
 10
153.250061672748
 20
83.58218150238498
 30
0.0
  0
VERTEX
  5
A16
330
A12
100
AcDbEntity
  8
Visible (ANSI)
100
AcDbVertex
100
AcDb2dVertex
 10
153.251706252318
 20
83.5875154375763
 30
0.0
  0
VERTEX
  5
A17
330
A12
100
AcDbEntity
  8
Visible (ANSI)
100
AcDbVertex
100
AcDb2dVertex
 10
153.2536733149111
 20
83.59298443029542
 30
0.0
  0
VERTEX
  5
A18
330
A12
100
AcDbEntity
  8
Visible (ANSI)
100
AcDbVertex
100
AcDb2dVertex
 10
153.2559593982425
 20
83.59856453266827
 30
0.0
  0
VERTEX
  5
A19
330
A12
100
AcDbEntity
  8
Visible (ANSI)
100
AcDbVertex
100
AcDb2dVertex
 10
153.2585596596767
 20
83.6042293333678
 30
0.0
  0
VERTEX
  5
A1A
330
A12
100
AcDbEntity
  8
Visible (ANSI)
100
AcDbVertex
100
AcDb2dVertex
 10
153.2614679332666
 20
83.60994994447533
 30
0.0
  0
VERTEX
  5
A1B
330
A12
100
AcDbEntity
  8
Visible (ANSI)
100
AcDbVertex
100
AcDb2dVertex
 10
153.2646767069379
 20
83.61569841743637
 30
0.0
  0
VERTEX
  5
A1C
330
A12
100
AcDbEntity
  8
Visible (ANSI)
100
AcDbVertex
100
AcDb2dVertex
 10
153.2681772023442
 20
83.6214494313303
 30
0.0
  0
VERTEX
  5
A1D
330
A12
100
AcDbEntity
  8
Visible (ANSI)
100
AcDbVertex
100
AcDb2dVertex
 10
153.2719593976826
 20
83.6271752609077
 30
0.0
  0
VERTEX
  5
A1E
330
A12
100
AcDbEntity
  8
Visible (ANSI)
100
AcDbVertex
100
AcDb2dVertex
 10
153.2760120333977
 20
83.63284748785297
 30
0.0
  0
VERTEX
  5
A1F
330
A12
100
AcDbEntity
  8
Visible (ANSI)
100
AcDbVertex
100
AcDb2dVertex
 10
153.28032272626
 20
83.63843870876207
 30
0.0
  0
VERTEX
  5
A20
330
A12
100
AcDbEntity
  8
Visible (ANSI)
100
AcDbVertex
100
AcDb2dVertex
 10
153.2848779636621
 20
83.64392427268249
 30
0.0
  0
VERTEX
  5
A21
330
A12
100
AcDbEntity
  8
Visible (ANSI)
100
AcDbVertex
100
AcDb2dVertex
 10
153.2896632034375
 20
83.64927553296107
 30
0.0
  0
VERTEX
  5
A22
330
A12
100
AcDbEntity
  8
Visible (ANSI)
100
AcDbVertex
100
AcDb2dVertex
 10
153.2946629023803
 20
83.65446666930136
 30
0.0
  0
VERTEX
  5
A23
330
A12
100
AcDbEntity
  8
Visible (ANSI)
100
AcDbVertex
100
AcDb2dVertex
 10
153.2998606132118
 20
83.65947469761755
 30
0.0
  0
VERTEX
  5
A24
330
A12
100
AcDbEntity
  8
Visible (ANSI)
100
AcDbVertex
100
AcDb2dVertex
 10
153.3052390359157
 20
83.66427445449529
 30
0.0
  0
VERTEX
  5
A25
330
A12
100
AcDbEntity
  8
Visible (ANSI)
100
AcDbVertex
100
AcDb2dVertex
 10
153.3107800861859
 20
83.66884034458562
 30
0.0
  0
VERTEX
  5
A26
330
A12
100
AcDbEntity
  8
Visible (ANSI)
100
AcDbVertex
100
AcDb2dVertex
 10
153.3164649995225
 20
83.67315311421334
 30
0.0
  0
VERTEX
  5
A27
330
A12
100
AcDbEntity
  8
Visible (ANSI)
100
AcDbVertex
100
AcDb2dVertex
 10
153.3222743868456
 20
83.67718978006115
 30
0.0
  0
VERTEX
  5
A28
330
A12
100
AcDbEntity
  8
Visible (ANSI)
100
AcDbVertex
100
AcDb2dVertex
 10
153.3281883385916
 20
83.6809304224862
 30
0.0
  0
VERTEX
  5
A29
330
A12
100
AcDbEntity
  8
Visible (ANSI)
100
AcDbVertex
100
AcDb2dVertex
 10
153.3341864647301
 20
83.68435657284903
 30
0.0
  0
VERTEX
  5
A2A
330
A12
100
AcDbEntity
  8
Visible (ANSI)
100
AcDbVertex
100
AcDb2dVertex
 10
153.3402480472549
 20
83.68745122249519
 30
0.0
  0
VERTEX
  5
A2B
330
A12
100
AcDbEntity
  8
Visible (ANSI)
100
AcDbVertex
100
AcDb2dVertex
 10
153.346352085637
 20
83.69019721321485
 30
0.0
  0
VERTEX
  5
A2C
330
A12
100
AcDbEntity
  8
Visible (ANSI)
100
AcDbVertex
100
AcDb2dVertex
 10
153.352477397178
 20
83.69257897016376
 30
0.0
  0
SEQEND
  5
A15
330
A12
100
AcDbEntity
  8
Visible (ANSI)
  0
POLYLINE
  5
A2D
330
6C
100
AcDbEntity
  8
Visible (ANSI)
100
AcDb2dPolyline
 66
     1
 10
0.0
 20
0.0
 30
0.0
 70
   128
  0
VERTEX
  5
A2E
330
A2D
100
AcDbEntity
  8
Visible (ANSI)
100
AcDbVertex
100
AcDb2dVertex
 10
171.6181712013752
 20
73.17406546640507
 30
0.0
  0
VERTEX
  5
A2F
330
A2D
100
AcDbEntity
  8
Visible (ANSI)
100
AcDbVertex
100
AcDb2dVertex
 10
171.614359745595
 20
73.17035124854193
 30
0.0
  0
VERTEX
  5
A31
330
A2D
100
AcDbEntity
  8
Visible (ANSI)
100
AcDbVertex
100
AcDb2dVertex
 10
171.6105710231795
 20
73.16627195603145
 30
0.0
  0
VERTEX
  5
A32
330
A2D
100
AcDbEntity
  8
Visible (ANSI)
100
AcDbVertex
100
AcDb2dVertex
 10
171.6068232964155
 20
73.16184484547105
 30
0.0
  0
VERTEX
  5
A33
330
A2D
100
AcDbEntity
  8
Visible (ANSI)
100
AcDbVertex
100
AcDb2dVertex
 10
171.6031404862435
 20
73.1570853933174
 30
0.0
  0
VERTEX
  5
A34
330
A2D
100
AcDbEntity
  8
Visible (ANSI)
100
AcDbVertex
100
AcDb2dVertex
 10
171.5995418618719
 20
73.15201144253219
 30
0.0
  0
VERTEX
  5
A35
330
A2D
100
AcDbEntity
  8
Visible (ANSI)
100
AcDbVertex
100
AcDb2dVertex
 10
171.5960463303096
 20
73.14664231577012
 30
0.0
  0
VERTEX
  5
A36
330
A2D
100
AcDbEntity
  8
Visible (ANSI)
100
AcDbVertex
100
AcDb2dVertex
 10
171.5926767329395
 20
73.1409962443516
 30
0.0
  0
VERTEX
  5
A37
330
A2D
100
AcDbEntity
  8
Visible (ANSI)
100
AcDbVertex
100
AcDb2dVertex
 10
171.5894495384301
 20
73.13509789334702
 30
0.0
  0
VERTEX
  5
A38
330
A2D
100
AcDbEntity
  8
Visible (ANSI)
100
AcDbVertex
100
AcDb2dVertex
 10
171.5863864373967
 20
73.12896483139377
 30
0.0
  0
VERTEX
  5
A39
330
A2D
100
AcDbEntity
  8
Visible (ANSI)
100
AcDbVertex
100
AcDb2dVertex
 10
171.5835040425318
 20
73.12262350128676
 30
0.0
  0
VERTEX
  5
A3A
330
A2D
100
AcDbEntity
  8
Visible (ANSI)
100
AcDbVertex
100
AcDb2dVertex
 10
171.5808181993498
 20
73.11609990403228
 30
0.0
  0
VERTEX
  5
A3B
330
A2D
100
AcDbEntity
  8
Visible (ANSI)
100
AcDbVertex
100
AcDb2dVertex
 10
171.5783482812449
 20
73.10941533867818
 30
0.0
  0
VERTEX
  5
A3C
330
A2D
100
AcDbEntity
  8
Visible (ANSI)
100
AcDbVertex
100
AcDb2dVertex
 10
171.5761083598093
 20
73.10259647296692
 30
0.0
  0
VERTEX
  5
A3D
330
A2D
100
AcDbEntity
  8
Visible (ANSI)
100
AcDbVertex
100
AcDb2dVertex
 10
171.5741115284117
 20
73.09567278785893
 30
0.0
  0
VERTEX
  5
A3E
330
A2D
100
AcDbEntity
  8
Visible (ANSI)
100
AcDbVertex
100
AcDb2dVertex
 10
171.5723742086632
 20
73.08866725912285
 30
0.0
  0
VERTEX
  5
A3F
330
A2D
100
AcDbEntity
  8
Visible (ANSI)
100
AcDbVertex
100
AcDb2dVertex
 10
171.5709058747895
 20
73.08160896534651
 30
0.0
  0
VERTEX
  5
A40
330
A2D
100
AcDbEntity
  8
Visible (ANSI)
100
AcDbVertex
100
AcDb2dVertex
 10
171.5697206953497
 20
73.07452464966178
 30
0.0
  0
VERTEX
  5
A41
330
A2D
100
AcDbEntity
  8
Visible (ANSI)
100
AcDbVertex
100
AcDb2dVertex
 10
171.5688272376449
 20
73.06744287490994
 30
0.0
  0
VERTEX
  5
A42
330
A2D
100
AcDbEntity
  8
Visible (ANSI)
100
AcDbVertex
100
AcDb2dVertex
 10
171.5682328255198
 20
73.06038979960347
 30
0.0
  0
VERTEX
  5
A43
330
A2D
100
AcDbEntity
  8
Visible (ANSI)
100
AcDbVertex
100
AcDb2dVertex
 10
171.5679478800522
 20
73.05339169711313
 30
0.0
  0
VERTEX
  5
A44
330
A2D
100
AcDbEntity
  8
Visible (ANSI)
100
AcDbVertex
100
AcDb2dVertex
 10
171.5679756581855
 20
73.04647913054137
 30
0.0
  0
VERTEX
  5
A45
330
A2D
100
AcDbEntity
  8
Visible (ANSI)
100
AcDbVertex
100
AcDb2dVertex
 10
171.568323911559
 20
73.03967683603142
 30
0.0
  0
VERTEX
  5
A46
330
A2D
100
AcDbEntity
  8
Visible (ANSI)
100
AcDbVertex
100
AcDb2dVertex
 10
171.5689946479555
 20
73.03300959904929
 30
0.0
  0
VERTEX
  5
A47
330
A2D
100
AcDbEntity
  8
Visible (ANSI)
100
AcDbVertex
100
AcDb2dVertex
 10
171.5699885005112
 20
73.026506478264
 30
0.0
  0
SEQEND
  5
A30
330
A2D
100
AcDbEntity
  8
Visible (ANSI)
  0
LINE
  5
A48
330
6C
100
AcDbEntity
  8
Visible (ANSI)
100
AcDbLine
 10
171.6182571302107
 20
73.10385770530396
 30
0.0
 11
171.9675807703575
 21
73.30501981091336
 31
0.0
  0
LINE
  5
A49
330
6C
100
AcDbEntity
  8
Visible (ANSI)
100
AcDbLine
 10
171.9675807703575
 20
73.37527776695451
 30
0.0
 11
171.6181705835603
 21
73.1740658224438
 31
0.0
  0
LINE
  5
A4A
330
6C
100
AcDbEntity
  8
Visible (ANSI)
100
AcDbLine
 10
171.6181705835603
 20
73.10668866847874
 30
0.0
 11
171.6181705835603
 21
73.1740658224438
 31
0.0
  0
LINE
  5
A4B
330
6C
100
AcDbEntity
  8
Visible (ANSI)
100
AcDbLine
 10
171.9675807703575
 20
73.30501981091336
 30
0.0
 11
171.9675807703575
 21
73.37527776695451
 31
0.0
  0
POLYLINE
  5
A4C
330
6C
100
AcDbEntity
  8
Visible (ANSI)
100
AcDb2dPolyline
 66
     1
 10
0.0
 20
0.0
 30
0.0
 70
   128
  0
VERTEX
  5
A4D
330
A4C
100
AcDbEntity
  8
Visible (ANSI)
100
AcDbVertex
100
AcDb2dVertex
 10
171.6307554886068
 20
73.06149985939248
 30
0.0
  0
VERTEX
  5
A4E
330
A4C
100
AcDbEntity
  8
Visible (ANSI)
100
AcDbVertex
100
AcDb2dVertex
 10
171.6297240936244
 20
73.06317698166012
 30
0.0
  0
VERTEX
  5
A50
330
A4C
100
AcDbEntity
  8
Visible (ANSI)
100
AcDbVertex
100
AcDb2dVertex
 10
171.6287456490542
 20
73.06488121298594
 30
0.0
  0
VERTEX
  5
A51
330
A4C
100
AcDbEntity
  8
Visible (ANSI)
100
AcDbVertex
100
AcDb2dVertex
 10
171.6278227823047
 20
73.0666107028875
 30
0.0
  0
VERTEX
  5
A52
330
A4C
100
AcDbEntity
  8
Visible (ANSI)
100
AcDbVertex
100
AcDb2dVertex
 10
171.6269520857491
 20
73.06835841120032
 30
0.0
  0
VERTEX
  5
A53
330
A4C
100
AcDbEntity
  8
Visible (ANSI)
100
AcDbVertex
100
AcDb2dVertex
 10
171.6261358001959
 20
73.07012226481383
 30
0.0
  0
VERTEX
  5
A54
330
A4C
100
AcDbEntity
  8
Visible (ANSI)
100
AcDbVertex
100
AcDb2dVertex
 10
171.6253701356294
 20
73.0718966916303
 30
0.0
  0
VERTEX
  5
A55
330
A4C
100
AcDbEntity
  8
Visible (ANSI)
100
AcDbVertex
100
AcDb2dVertex
 10
171.6246569560312
 20
73.07367940153898
 30
0.0
  0
VERTEX
  5
A56
330
A4C
100
AcDbEntity
  8
Visible (ANSI)
100
AcDbVertex
100
AcDb2dVertex
 10
171.6239921013656
 20
73.0754646093617
 30
0.0
  0
VERTEX
  5
A57
330
A4C
100
AcDbEntity
  8
Visible (ANSI)
100
AcDbVertex
100
AcDb2dVertex
 10
171.6233770738158
 20
73.07724812837207
 30
0.0
  0
VERTEX
  5
A58
330
A4C
100
AcDbEntity
  8
Visible (ANSI)
100
AcDbVertex
100
AcDb2dVertex
 10
171.6228073613066
 20
73.07902734720556
 30
0.0
  0
VERTEX
  5
A59
330
A4C
100
AcDbEntity
  8
Visible (ANSI)
100
AcDbVertex
100
AcDb2dVertex
 10
171.6222841247659
 20
73.08079619435005
 30
0.0
  0
VERTEX
  5
A5A
330
A4C
100
AcDbEntity
  8
Visible (ANSI)
100
AcDbVertex
100
AcDb2dVertex
 10
171.6218025224492
 20
73.08255186859712
 30
0.0
  0
VERTEX
  5
A5B
330
A4C
100
AcDbEntity
  8
Visible (ANSI)
100
AcDbVertex
100
AcDb2dVertex
 10
171.6213633994294
 20
73.08428980481564
 30
0.0
  0
VERTEX
  5
A5C
330
A4C
100
AcDbEntity
  8
Visible (ANSI)
100
AcDbVertex
100
AcDb2dVertex
 10
171.6209616121886
 20
73.08600533974758
 30
0.0
  0
VERTEX
  5
A5D
330
A4C
100
AcDbEntity
  8
Visible (ANSI)
100
AcDbVertex
100
AcDb2dVertex
 10
171.6205977189989
 20
73.08769543137412
 30
0.0
  0
VERTEX
  5
A5E
330
A4C
100
AcDbEntity
  8
Visible (ANSI)
100
AcDbVertex
100
AcDb2dVertex
 10
171.6202663071882
 20
73.08935526144164
 30
0.0
  0
VERTEX
  5
A5F
330
A4C
100
AcDbEntity
  8
Visible (ANSI)
100
AcDbVertex
100
AcDb2dVertex
 10
171.6199676815604
 20
73.0909816419686
 30
0.0
  0
VERTEX
  5
A60
330
A4C
100
AcDbEntity
  8
Visible (ANSI)
100
AcDbVertex
100
AcDb2dVertex
 10
171.6196961959388
 20
73.09257130850487
 30
0.0
  0
VERTEX
  5
A61
330
A4C
100
AcDbEntity
  8
Visible (ANSI)
100
AcDbVertex
100
AcDb2dVertex
 10
171.6194519401603
 20
73.09411926100796
 30
0.0
  0
VERTEX
  5
A62
330
A4C
100
AcDbEntity
  8
Visible (ANSI)
100
AcDbVertex
100
AcDb2dVertex
 10
171.6192290719759
 20
73.09562381038687
 30
0.0
  0
VERTEX
  5
A63
330
A4C
100
AcDbEntity
  8
Visible (ANSI)
100
AcDbVertex
100
AcDb2dVertex
 10
171.6190260477599
 20
73.0970806977037
 30
0.0
  0
VERTEX
  5
A64
330
A4C
100
AcDbEntity
  8
Visible (ANSI)
100
AcDbVertex
100
AcDb2dVertex
 10
171.6188412525873
 20
73.09848731123188
 30
0.0
  0
VERTEX
  5
A65
330
A4C
100
AcDbEntity
  8
Visible (ANSI)
100
AcDbVertex
100
AcDb2dVertex
 10
171.6186686295988
 20
73.0998418382946
 30
0.0
  0
VERTEX
  5
A66
330
A4C
100
AcDbEntity
  8
Visible (ANSI)
100
AcDbVertex
100
AcDb2dVertex
 10
171.6185079171267
 20
73.10113907643125
 30
0.0
  0
SEQEND
  5
A4F
330
A4C
100
AcDbEntity
  8
Visible (ANSI)
  0
LINE
  5
A67
330
6C
100
AcDbEntity
  8
Visible (ANSI)
100
AcDbLine
 10
153.3524774030754
 20
83.69257896703043
 30
0.0
 11
153.7018875898726
 21
83.89379091154117
 31
0.0
  0
POLYLINE
  5
A68
330
6C
100
AcDbEntity
  8
Visible (ANSI)
100
AcDb2dPolyline
 66
     1
 10
0.0
 20
0.0
 30
0.0
 70
   128
  0
VERTEX
  5
A69
330
A68
100
AcDbEntity
  8
Visible (ANSI)
100
AcDbVertex
100
AcDb2dVertex
 10
153.2487416638391
 20
55.64947298046626
 30
0.0
  0
VERTEX
  5
A6A
330
A68
100
AcDbEntity
  8
Visible (ANSI)
100
AcDbVertex
100
AcDb2dVertex
 10
153.2462970341024
 20
55.6515966577986
 30
0.0
  0
VERTEX
  5
A6C
330
A68
100
AcDbEntity
  8
Visible (ANSI)
100
AcDbVertex
100
AcDb2dVertex
 10
153.2439363547901
 20
55.65376562424352
 30
0.0
  0
VERTEX
  5
A6D
330
A68
100
AcDbEntity
  8
Visible (ANSI)
100
AcDbVertex
100
AcDb2dVertex
 10
153.2416621641502
 20
55.65597826040576
 30
0.0
  0
VERTEX
  5
A6E
330
A68
100
AcDbEntity
  8
Visible (ANSI)
100
AcDbVertex
100
AcDb2dVertex
 10
153.2394768977605
 20
55.65823292068905
 30
0.0
  0
VERTEX
  5
A6F
330
A68
100
AcDbEntity
  8
Visible (ANSI)
100
AcDbVertex
100
AcDb2dVertex
 10
153.2373828828239
 20
55.66052790363215
 30
0.0
  0
VERTEX
  5
A70
330
A68
100
AcDbEntity
  8
Visible (ANSI)
100
AcDbVertex
100
AcDb2dVertex
 10
153.2353823780962
 20
55.66286147492712
 30
0.0
  0
VERTEX
  5
A71
330
A68
100
AcDbEntity
  8
Visible (ANSI)
100
AcDbVertex
100
AcDb2dVertex
 10
153.2334775111428
 20
55.66523185102134
 30
0.0
  0
VERTEX
  5
A72
330
A68
100
AcDbEntity
  8
Visible (ANSI)
100
AcDbVertex
100
AcDb2dVertex
 10
153.2316703296743
 20
55.66763720230044
 30
0.0
  0
VERTEX
  5
A73
330
A68
100
AcDbEntity
  8
Visible (ANSI)
100
AcDbVertex
100
AcDb2dVertex
 10
153.2299627673223
 20
55.67007567294895
 30
0.0
  0
VERTEX
  5
A74
330
A68
100
AcDbEntity
  8
Visible (ANSI)
100
AcDbVertex
100
AcDb2dVertex
 10
153.2283566493443
 20
55.67254537099457
 30
0.0
  0
VERTEX
  5
A75
330
A68
100
AcDbEntity
  8
Visible (ANSI)
100
AcDbVertex
100
AcDb2dVertex
 10
153.2268536983266
 20
55.6750443650489
 30
0.0
  0
VERTEX
  5
A76
330
A68
100
AcDbEntity
  8
Visible (ANSI)
100
AcDbVertex
100
AcDb2dVertex
 10
153.2254555313331
 20
55.6775707056833
 30
0.0
  0
VERTEX
  5
A77
330
A68
100
AcDbEntity
  8
Visible (ANSI)
100
AcDbVertex
100
AcDb2dVertex
 10
153.2241636313853
 20
55.6801223891956
 30
0.0
  0
VERTEX
  5
A78
330
A68
100
AcDbEntity
  8
Visible (ANSI)
100
AcDbVertex
100
AcDb2dVertex
 10
153.2229793902418
 20
55.68269740539072
 30
0.0
  0
VERTEX
  5
A79
330
A68
100
AcDbEntity
  8
Visible (ANSI)
100
AcDbVertex
100
AcDb2dVertex
 10
153.2219040741748
 20
55.68529371120132
 30
0.0
  0
VERTEX
  5
A7A
330
A68
100
AcDbEntity
  8
Visible (ANSI)
100
AcDbVertex
100
AcDb2dVertex
 10
153.220938835378
 20
55.68790925042137
 30
0.0
  0
VERTEX
  5
A7B
330
A68
100
AcDbEntity
  8
Visible (ANSI)
100
AcDbVertex
100
AcDb2dVertex
 10
153.2200847119663
 20
55.69054194059294
 30
0.0
  0
VERTEX
  5
A7C
330
A68
100
AcDbEntity
  8
Visible (ANSI)
100
AcDbVertex
100
AcDb2dVertex
 10
153.2193426080125
 20
55.69318966469262
 30
0.0
  0
VERTEX
  5
A7D
330
A68
100
AcDbEntity
  8
Visible (ANSI)
100
AcDbVertex
100
AcDb2dVertex
 10
153.2187133220666
 20
55.6958503107004
 30
0.0
  0
VERTEX
  5
A7E
330
A68
100
AcDbEntity
  8
Visible (ANSI)
100
AcDbVertex
100
AcDb2dVertex
 10
153.2181975357481
 20
55.69852174850508
 30
0.0
  0
VERTEX
  5
A7F
330
A68
100
AcDbEntity
  8
Visible (ANSI)
100
AcDbVertex
100
AcDb2dVertex
 10
153.2177957909303
 20
55.70120183321446
 30
0.0
  0
VERTEX
  5
A80
330
A68
100
AcDbEntity
  8
Visible (ANSI)
100
AcDbVertex
100
AcDb2dVertex
 10
153.2175085239637
 20
55.70388841503474
 30
0.0
  0
VERTEX
  5
A81
330
A68
100
AcDbEntity
  8
Visible (ANSI)
100
AcDbVertex
100
AcDb2dVertex
 10
153.2173360400084
 20
55.70657932438777
 30
0.0
  0
VERTEX
  5
A82
330
A68
100
AcDbEntity
  8
Visible (ANSI)
100
AcDbVertex
100
AcDb2dVertex
 10
153.2172785258683
 20
55.70927240080456
 30
0.0
  0
SEQEND
  5
A6B
330
A68
100
AcDbEntity
  8
Visible (ANSI)
  0
POLYLINE
  5
A83
330
6C
100
AcDbEntity
  8
Visible (ANSI)
100
AcDb2dPolyline
 66
     1
 10
0.0
 20
0.0
 30
0.0
 70
   128
  0
VERTEX
  5
A84
330
A83
100
AcDbEntity
  8
Visible (ANSI)
100
AcDbVertex
100
AcDb2dVertex
 10
153.248741663839
 20
83.6323783419689
 30
0.0
  0
VERTEX
  5
A85
330
A83
100
AcDbEntity
  8
Visible (ANSI)
100
AcDbVertex
100
AcDb2dVertex
 10
153.2439363585667
 20
83.63076263987567
 30
0.0
  0
VERTEX
  5
A87
330
A83
100
AcDbEntity
  8
Visible (ANSI)
100
AcDbVertex
100
AcDb2dVertex
 10
153.2394768970029
 20
83.62897059216134
 30
0.0
  0
VERTEX
  5
A88
330
A83
100
AcDbEntity
  8
Visible (ANSI)
100
AcDbVertex
100
AcDb2dVertex
 10
153.2353823756007
 20
83.62701897505901
 30
0.0
  0
VERTEX
  5
A89
330
A83
100
AcDbEntity
  8
Visible (ANSI)
100
AcDbVertex
100
AcDb2dVertex
 10
153.2316703275353
 20
83.62492019041541
 30
0.0
  0
VERTEX
  5
A8A
330
A83
100
AcDbEntity
  8
Visible (ANSI)
100
AcDbVertex
100
AcDb2dVertex
 10
153.2283566489878
 20
83.62268727051022
 30
0.0
  0
VERTEX
  5
A8B
330
A83
100
AcDbEntity
  8
Visible (ANSI)
100
AcDbVertex
100
AcDb2dVertex
 10
153.2254555288377
 20
83.62033887844859
 30
0.0
  0
VERTEX
  5
A8C
330
A83
100
AcDbEntity
  8
Visible (ANSI)
100
AcDbVertex
100
AcDb2dVertex
 10
153.2229793902418
 20
83.61788742711951
 30
0.0
  0
VERTEX
  5
A8D
330
A83
100
AcDbEntity
  8
Visible (ANSI)
100
AcDbVertex
100
AcDb2dVertex
 10
153.220938837517
 20
83.61535251729998
 30
0.0
  0
VERTEX
  5
A8E
330
A83
100
AcDbEntity
  8
Visible (ANSI)
100
AcDbVertex
100
AcDb2dVertex
 10
153.2193426080125
 20
83.61274904729816
 30
0.0
  0
VERTEX
  5
A8F
330
A83
100
AcDbEntity
  8
Visible (ANSI)
100
AcDbVertex
100
AcDb2dVertex
 10
153.2181975328962
 20
83.61009221001641
 30
0.0
  0
VERTEX
  5
A90
330
A83
100
AcDbEntity
  8
Visible (ANSI)
100
AcDbVertex
100
AcDb2dVertex
 10
153.2175085225377
 20
83.60740248570326
 30
0.0
  0
VERTEX
  5
A91
330
A83
100
AcDbEntity
  8
Visible (ANSI)
100
AcDbVertex
100
AcDb2dVertex
 10
153.2172785258683
 20
83.60469374892767
 30
0.0
  0
VERTEX
  5
A92
330
A83
100
AcDbEntity
  8
Visible (ANSI)
100
AcDbVertex
100
AcDb2dVertex
 10
153.2175085239637
 20
83.60198669960075
 30
0.0
  0
VERTEX
  5
A93
330
A83
100
AcDbEntity
  8
Visible (ANSI)
100
AcDbVertex
100
AcDb2dVertex
 10
153.2181975357481
 20
83.59929697610875
 30
0.0
  0
VERTEX
  5
A94
330
A83
100
AcDbEntity
  8
Visible (ANSI)
100
AcDbVertex
100
AcDb2dVertex
 10
153.2193426080125
 20
83.59664014046934
 30
0.0
  0
VERTEX
  5
A95
330
A83
100
AcDbEntity
  8
Visible (ANSI)
100
AcDbVertex
100
AcDb2dVertex
 10
153.220938835378
 20
83.59403666923578
 30
0.0
  0
VERTEX
  5
A96
330
A83
100
AcDbEntity
  8
Visible (ANSI)
100
AcDbVertex
100
AcDb2dVertex
 10
153.2229793902418
 20
83.59150176064799
 30
0.0
  0
VERTEX
  5
A97
330
A83
100
AcDbEntity
  8
Visible (ANSI)
100
AcDbVertex
100
AcDb2dVertex
 10
153.2254555313331
 20
83.58905030911362
 30
0.0
  0
VERTEX
  5
A98
330
A83
100
AcDbEntity
  8
Visible (ANSI)
100
AcDbVertex
100
AcDb2dVertex
 10
153.2283566493443
 20
83.58670191746256
 30
0.0
  0
VERTEX
  5
A99
330
A83
100
AcDbEntity
  8
Visible (ANSI)
100
AcDbVertex
100
AcDb2dVertex
 10
153.2316703296743
 20
83.58446899694149
 30
0.0
  0
VERTEX
  5
A9A
330
A83
100
AcDbEntity
  8
Visible (ANSI)
100
AcDbVertex
100
AcDb2dVertex
 10
153.2353823780962
 20
83.58237021260583
 30
0.0
  0
VERTEX
  5
A9B
330
A83
100
AcDbEntity
  8
Visible (ANSI)
100
AcDbVertex
100
AcDb2dVertex
 10
153.2394768977605
 20
83.58041859481065
 30
0.0
  0
VERTEX
  5
A9C
330
A83
100
AcDbEntity
  8
Visible (ANSI)
100
AcDbVertex
100
AcDb2dVertex
 10
153.2439363547901
 20
83.57862654653819
 30
0.0
  0
VERTEX
  5
A9D
330
A83
100
AcDbEntity
  8
Visible (ANSI)
100
AcDbVertex
100
AcDb2dVertex
 10
153.2487416638391
 20
83.57701084579858
 30
0.0
  0
SEQEND
  5
A86
330
A83
100
AcDbEntity
  8
Visible (ANSI)
  0
LINE
  5
A9E
330
6C
100
AcDbEntity
  8
Visible (ANSI)
100
AcDbLine
 10
153.5434566445003
 20
55.86880012950655
 30
0.0
 11
153.6589188398726
 21
55.93529038573319
 31
0.0
  0
LINE
  5
A9F
330
6C
100
AcDbEntity
  8
Visible (ANSI)
100
AcDbLine
 10
153.3076299702292
 20
83.66629009311308
 30
0.0
 11
153.2487416640672
 21
83.6323785729585
 31
0.0
  0
LINE
  5
AA0
330
6C
100
AcDbEntity
  8
Visible (ANSI)
100
AcDbLine
 10
153.2680547967266
 20
83.6212568795339
 30
0.0
 11
153.2487416640672
 21
83.6323785729585
 31
0.0
  0
LINE
  5
AA1
330
6C
100
AcDbEntity
  8
Visible (ANSI)
100
AcDbLine
 10
171.6589487467169
 20
73.03105257771915
 30
0.0
 11
171.6636989572396
 21
73.02790971142262
 31
0.0
  0
LINE
  5
AA2
330
6C
100
AcDbEntity
  8
Visible (ANSI)
100
AcDbLine
 10
171.6181712013752
 20
73.10668830644186
 30
0.0
 11
171.6185079171267
 21
73.10113907643125
 31
0.0
  0
LINE
  5
AA3
330
6C
100
AcDbEntity
  8
Visible Narrow (ANSI)
100
AcDbLine
 10
153.2487416640672
 20
55.64947298060274
 30
0.0
 11
171.569988850048
 21
45.09896841191469
 31
0.0
  0
LINE
  5
AA4
330
6C
100
AcDbEntity
  8
Visible Narrow (ANSI)
100
AcDbLine
 10
171.7219063225686
 20
72.9943905501354
 30
0.0
 11
171.7219063225686
 21
45.13108380005343
 31
0.0
  0
LINE
  5
AA5
330
6C
100
AcDbEntity
  8
Visible Narrow (ANSI)
100
AcDbLine
 10
171.569988850048
 20
45.09896841191469
 30
0.0
 11
171.569988850048
 21
73.02650593827411
 31
0.0
  0
LINE
  5
AA6
330
6C
100
AcDbEntity
  8
Visible Narrow (ANSI)
100
AcDbLine
 10
153.3524774030754
 20
83.69257896703043
 30
0.0
 11
171.6181705835603
 21
73.1740658224438
 31
0.0
  0
LINE
  5
AA7
330
6C
100
AcDbEntity
  8
Visible Narrow (ANSI)
100
AcDbLine
 10
171.569988850048
 20
73.02650593827411
 30
0.0
 11
153.2487416640672
 21
83.57701050696213
 31
0.0
  0
LINE
  5
AA8
330
6C
100
AcDbEntity
  8
Visible Narrow (ANSI)
100
AcDbLine
 10
153.2487416640672
 20
83.57701050696213
 30
0.0
 11
153.2487416640672
 21
55.64947298060274
 31
0.0
  0
LINE
  5
AA9
330
6C
100
AcDbEntity
  8
Visible (ANSI)
100
AcDbLine
 10
153.2850161203662
 20
55.59210714277662
 30
0.0
 11
171.5784179145619
 21
45.05763766876655
 31
0.0
  0
LINE
  5
AAA
330
6C
100
AcDbEntity
  8
Visible (ANSI)
100
AcDbLine
 10
153.2172785253275
 20
83.60469453996032
 30
0.0
 11
153.2172785253275
 21
55.70927240173964
 31
0.0
  0
LINE
  5
AAB
330
6C
100
AcDbEntity
  8
Visible (ANSI)
100
AcDbLine
 10
171.3439942089678
 20
45.70145292448668
 30
0.0
 11
171.1445056298428
 21
45.81633075698875
 31
0.0
  0
LINE
  5
AAC
330
6C
100
AcDbEntity
  8
Visible (ANSI)
100
AcDbLine
 10
162.5327808027748
 20
50.77549326432006
 30
0.0
 11
162.3332922236497
 21
50.89037109682215
 31
0.0
  0
LINE
  5
AAD
330
6C
100
AcDbEntity
  8
Visible (ANSI)
100
AcDbLine
 10
153.7215673965817
 20
55.84953360415344
 30
0.0
 11
153.7018875898726
 21
55.86086645111997
 31
0.0
  0
LINE
  5
AAE
330
6C
100
AcDbEntity
  8
Visible (ANSI)
100
AcDbLine
 10
172.0713165093657
 20
73.19560249464609
 30
0.0
 11
172.0713165093657
 21
45.33229574456413
 31
0.0
  0
LINE
  5
AAF
330
6C
100
AcDbEntity
  8
Visible (ANSI)
100
AcDbLine
 10
153.7018875898726
 20
83.89379091154117
 30
0.0
 11
171.9675807703575
 21
73.37527776695451
 31
0.0
  0
LINE
  5
AB0
330
6C
100
AcDbEntity
  8
Visible (ANSI)
100
AcDbLine
 10
153.6589188398726
 20
55.93529038573319
 30
0.0
 11
153.6589188398726
 21
55.959017181836
 31
0.0
  0
LINE
  5
AB1
330
6C
100
AcDbEntity
  8
Visible (ANSI)
100
AcDbLine
 10
153.6589188398726
 20
63.66816578062877
 30
0.0
 11
153.6589188398726
 21
63.89816621448659
 31
0.0
  0
LINE
  5
AB2
330
6C
100
AcDbEntity
  8
Visible (ANSI)
100
AcDbLine
 10
153.6589188398726
 20
69.28880226392123
 30
0.0
 11
153.6589188398726
 21
69.51880269777905
 31
0.0
  0
LINE
  5
AB3
330
6C
100
AcDbEntity
  8
Visible (ANSI)
100
AcDbLine
 10
153.6589188398726
 20
82.84858777986428
 30
0.0
 11
153.6589188398726
 21
83.07858821372212
 31
0.0
  0
DIMENSION
  5
AB4
330
6C
100
AcDbEntity
  8
Dimension (ANSI)
100
AcDbDimension
280
     0
  2
*D11
 10
80.26140064163078
 20
59.99348875621609
 30
0.0
 11
88.64562569661561
 21
68.31055657246982
 31
0.0
 70
   163
  1
<>{\P(10 PL.)}
 42
0.5629999999999999
 73
     0
 74
     0
 75
     0
  3
Default (ANSI)
100
AcDbDiametricDimension
 15
80.48201165623078
 25
60.51146537753906
 35
0.0
 40
0.0
1001
ACAD_DSTYLE_DIMRADIAL_EXTENSION
1070
   387
1070
     1
1070
   388
1040
0.0
1070
   390
1040
0.0
1001
ACAD
1000
DSTYLE
1002
{
1070
   145
1040
-0.25
1070
   144
1040
0.9999999999999957
1070
   271
1070
     3
1070
   272
1070
     2
1070
    48
1040
0.0
1070
    47
1040
0.0
1002
}
  0
MTEXT
  5
B6F
102
{ACAD_REACTORS
330
B70
102
}
330
6C
100
AcDbEntity
  8
Symbol (ANSI)
100
AcDbMText
 10
119.450204601205
 20
48.02579528525679
 30
0.0
 40
1.320000016313838
 41
5.398735896808894
 46
0.0
 71
     3
 72
     1
  1
{10 GA.\P }
  7
Note Text (ANSI)
 73
     2
 44
0.9878841638565063
  0
LEADER
  5
B70
330
6C
100
AcDbEntity
  8
Symbol (ANSI)
100
AcDbLeader
  3
Default (ANSI)$7
 73
     0
 40
3.933345209096401
 41
5.030006745583289
 76
     3
 10
125.3333575491114
 20
42.69971455359372
 30
0.0
 10
121.0982821236681
 20
47.3642675632634
 30
0.0
 10
119.7966612941184
 20
47.36579527709987
 30
0.0
340
B6F
210
0.0
220
0.0
230
-1.0
213
0.0
223
-0.6600000081569191
233
0.0
1001
ACAD
1000
DSTYLE
1002
{
1070
    77
1070
     0
1002
}
  0
LINE
  5
B71
330
6C
100
AcDbEntity
  8
Center Mark (ANSI)
  6
Continuous
100
AcDbLine
 10
45.77820614893078
 20
84.37747706687757
 30
0.0
 11
42.46520614893078
 21
84.37747706687757
 31
0.0
  0
LINE
  5
B72
330
6C
100
AcDbEntity
  8
Center Mark (ANSI)
  6
Continuous
100
AcDbLine
 10
44.12170614893078
 20
86.03397706687756
 30
0.0
 11
44.12170614893078
 21
82.72097706687757
 31
0.0
  0
LINE
  5
B73
330
6C
100
AcDbEntity
  8
Center Mark (ANSI)
  6
Continuous
100
AcDbLine
 10
42.46520614893078
 20
36.12747706687758
 30
0.0
 11
45.77820614893078
 21
36.12747706687758
 31
0.0
  0
LINE
  5
B74
330
6C
100
AcDbEntity
  8
Center Mark (ANSI)
  6
Continuous
100
AcDbLine
 10
42.46520614893078
 20
84.37747706687757
 30
0.0
 11
45.77820614893078
 21
84.37747706687757
 31
0.0
  0
LINE
  5
B75
330
6C
100
AcDbEntity
  8
Centerline (ANSI)
  6
Continuous
100
AcDbLine
 10
44.12170614893078
 20
34.47097706687758
 30
0.0
 11
44.12170614893078
 21
86.03397706687756
 31
0.0
  0
LINE
  5
B76
330
6C
100
AcDbEntity
  8
Center Mark (ANSI)
  6
Continuous
100
AcDbLine
 10
63.90320614893078
 20
84.37747706687757
 30
0.0
 11
60.59020614893078
 21
84.37747706687757
 31
0.0
  0
LINE
  5
B77
330
6C
100
AcDbEntity
  8
Center Mark (ANSI)
  6
Continuous
100
AcDbLine
 10
63.90320614893078
 20
36.12747706687758
 30
0.0
 11
60.59020614893078
 21
36.12747706687758
 31
0.0
  0
LINE
  5
B78
330
6C
100
AcDbEntity
  8
Centerline (ANSI)
  6
Continuous
100
AcDbLine
 10
62.24670614893078
 20
86.03397706687756
 30
0.0
 11
62.24670614893078
 21
34.47097706687758
 31
0.0
  0
LINE
  5
B79
330
6C
100
AcDbEntity
  8
Center Mark (ANSI)
  6
Continuous
100
AcDbLine
 10
78.71520614893078
 20
36.12747706687758
 30
0.0
 11
82.02820614893077
 21
36.12747706687758
 31
0.0
  0
LINE
  5
B7A
330
6C
100
AcDbEntity
  8
Center Mark (ANSI)
  6
Continuous
100
AcDbLine
 10
78.71520614893078
 20
84.37747706687757
 30
0.0
 11
82.02820614893077
 21
84.37747706687757
 31
0.0
  0
LINE
  5
B7B
330
6C
100
AcDbEntity
  8
Centerline (ANSI)
  6
Continuous
100
AcDbLine
 10
80.37170614893078
 20
34.47097706687758
 30
0.0
 11
80.37170614893078
 21
86.03397706687756
 31
0.0
  0
LINE
  5
B7C
330
6C
100
AcDbEntity
  8
Center Mark (ANSI)
  6
Continuous
100
AcDbLine
 10
44.12170614893078
 20
61.90897706687757
 30
0.0
 11
44.12170614893078
 21
58.59597706687758
 31
0.0
  0
LINE
  5
B7D
330
6C
100
AcDbEntity
  8
Center Mark (ANSI)
  6
Continuous
100
AcDbLine
 10
80.37170614893078
 20
61.90897706687757
 30
0.0
 11
80.37170614893078
 21
58.59597706687758
 31
0.0
  0
LINE
  5
B7E
330
6C
100
AcDbEntity
  8
Centerline (ANSI)
  6
Continuous
100
AcDbLine
 10
42.46520614893078
 20
60.25247706687757
 30
0.0
 11
82.02820614893077
 21
60.25247706687757
 31
0.0
  0
LINE
  5
B7F
330
6C
100
AcDbEntity
  8
Center Mark (ANSI)
  6
Continuous
100
AcDbLine
 10
44.12170614893078
 20
37.78397706687758
 30
0.0
 11
44.12170614893078
 21
34.47097706687758
 31
0.0
  0
LINE
  5
B80
330
6C
100
AcDbEntity
  8
Center Mark (ANSI)
  6
Continuous
100
AcDbLine
 10
80.37170614893078
 20
37.78397706687758
 30
0.0
 11
80.37170614893078
 21
34.47097706687758
 31
0.0
  0
LINE
  5
B81
330
6C
100
AcDbEntity
  8
Centerline (ANSI)
  6
Continuous
100
AcDbLine
 10
42.46520614893078
 20
36.12747706687758
 30
0.0
 11
82.02820614893077
 21
36.12747706687758
 31
0.0
  0
LINE
  5
B82
330
6C
100
AcDbEntity
  8
Center Mark (ANSI)
  6
Continuous
100
AcDbLine
 10
44.12170614893078
 20
86.03397706687756
 30
0.0
 11
44.12170614893078
 21
82.72097706687757
 31
0.0
  0
LINE
  5
B83
330
6C
100
AcDbEntity
  8
Center Mark (ANSI)
  6
Continuous
100
AcDbLine
 10
80.37170614893078
 20
86.03397706687756
 30
0.0
 11
80.37170614893078
 21
82.72097706687757
 31
0.0
  0
LINE
  5
B84
330
6C
100
AcDbEntity
  8
Centerline (ANSI)
  6
Continuous
100
AcDbLine
 10
42.46520614893078
 20
84.37747706687757
 30
0.0
 11
82.02820614893077
 21
84.37747706687757
 31
0.0
  0
LINE
  5
B85
330
6C
100
AcDbEntity
  8
Center Mark (ANSI)
  6
Continuous
100
AcDbLine
 10
44.12170614893078
 20
51.90897706687758
 30
0.0
 11
44.12170614893078
 21
48.59597706687758
 31
0.0
  0
LINE
  5
B86
330
6C
100
AcDbEntity
  8
Center Mark (ANSI)
  6
Continuous
100
AcDbLine
 10
80.37170614893078
 20
51.90897706687758
 30
0.0
 11
80.37170614893078
 21
48.59597706687758
 31
0.0
  0
LINE
  5
B87
330
6C
100
AcDbEntity
  8
Centerline (ANSI)
  6
Continuous
100
AcDbLine
 10
42.46520614893078
 20
50.25247706687758
 30
0.0
 11
82.02820614893077
 21
50.25247706687758
 31
0.0
  0
DIMENSION
  5
B88
330
6C
100
AcDbEntity
  8
Dimension (ANSI)
100
AcDbDimension
280
     0
  2
*D12
 10
38.92107163995095
 20
36.12747706687758
 30
0.0
 11
35.80005057730835
 21
32.09550274217404
 31
0.0
 70
   160
  1
<>
 42
0.8750000000000071
 73
     0
 74
     0
 75
     0
  3
Default (ANSI)
100
AcDbAlignedDimension
 13
43.4600944965791
 23
35.25247706687757
 33
0.0
 14
42.46520614893078
 24
36.12747706687758
 34
0.0
 50
90.0
100
AcDbRotatedDimension
1001
ACAD
1000
DSTYLE
1002
{
1070
   289
1070
     1
1070
   271
1070
     2
1070
   272
1070
     2
1070
    48
1040
0.0
1070
    47
1040
0.0
1002
}
  0
DIMENSION
  5
C88
330
6C
100
AcDbEntity
  8
Dimension (ANSI)
100
AcDbDimension
280
     0
  2
*D13
 10
44.12170614893078
 20
88.71007532477394
 30
0.0
 11
38.48358930909763
 21
88.71007532477394
 31
0.0
 70
   160
  1
<>
 42
0.875
 73
     0
 74
     0
 75
     0
  3
Default (ANSI)
100
AcDbAlignedDimension
 13
43.24670614893078
 23
85.03908871922925
 33
0.0
 14
44.12170614893078
 24
86.03397706687756
 34
0.0
100
AcDbRotatedDimension
1001
ACAD
1000
DSTYLE
1002
{
1070
   289
1070
     1
1070
    73
1070
     0
1070
    74
1070
     0
1070
   271
1070
     2
1070
   272
1070
     2
1070
    48
1040
0.0
1070
    47
1040
0.0
1002
}
  0
DIMENSION
  5
D72
330
6C
100
AcDbEntity
  8
Dimension (ANSI)
100
AcDbDimension
280
     0
  2
*D14
 10
86.35891481034811
 20
50.25247706687758
 30
0.0
 11
86.35891481034809
 21
55.25247706687757
 31
0.0
 70
   160
  1
<>
 42
9.999999999999992
 73
     0
 74
     0
 75
     0
  3
Default (ANSI)
100
AcDbAlignedDimension
 13
82.02820614893077
 23
60.25247706687757
 33
0.0
 14
82.02820614893077
 24
50.25247706687758
 34
0.0
 50
270.0
100
AcDbRotatedDimension
1001
ACAD
1000
DSTYLE
1002
{
1070
   289
1070
     1
1070
   271
1070
     2
1070
   272
1070
     2
1070
    48
1040
0.0
1070
    47
1040
0.0
1002
}
  0
MTEXT
  5
E5C
102
{ACAD_XDICTIONARY
360
E63
102
}
330
6C
100
AcDbEntity
  8
Symbol (ANSI)
100
AcDbMText
 10
103.9495825293366
 20
9.652554144227835
 30
0.0
 40
1.100000035105727
 41
81.21725818303628
 46
0.0
 71
     4
 72
     1
  3
{\fRomanS|b0|i0|c0|p2;\H2x;PART#: NPDD5442G\P(DATA SUBJECT TO CHANGE WITHOUT NOTICE)\H1.6157x; \H0.61894x;\P \H1.352x; \H0.73963x;\P\H0.6x;THIS DRAWING IS PROPERTY OF HUBBELL INC. WIEGMANN\H1.5633x; \H0.63966x;\PALL INFORMATION IS PROPRIETARY AND NOT
  1
 TO BE DUPLICATED\H1.234x; \H0.81039x;\P\H1.2571x; }
  7
Note Text (ANSI)
 73
     1
 44
0.8026435375213623
  0
ENDSEC
  0
SECTION
  2
OBJECTS
  0
DICTIONARY
  5
C
330
0
100
AcDbDictionary
281
     1
  3
ACAD_CIP_PREVIOUS_PRODUCT_INFO
350
E5E
  3
ACAD_COLOR
350
63
  3
ACAD_GROUP
350
D
  3
ACAD_LAYOUT
350
62
  3
ACAD_MATERIAL
350
10
  3
ACAD_MLEADERSTYLE
350
66
  3
ACAD_MLINESTYLE
350
5F
  3
ACAD_PLOTSETTINGS
350
61
  3
ACAD_PLOTSTYLENAME
350
E
  3
ACAD_SCALELIST
350
42
  3
ACAD_TABLESTYLE
350
64
  3
ACAD_VISUALSTYLE
350
29
  3
ACDB_RECOMPOSE_DATA
350
E65
  3
AcDbVariableDictionary
350
76
  0
DICTIONARY
  5
E63
330
E5C
100
AcDbDictionary
280
     1
281
     1
  3
ACAD_MTEXT_2008_RT
360
E64
  0
XRECORD
  5
E5E
102
{ACAD_REACTORS
330
C
102
}
330
C
100
AcDbXrecord
280
     1
300
INVNTOR
300
2012
300
PDSP_F_S
  0
DICTIONARY
  5
63
102
{ACAD_REACTORS
330
C
102
}
330
C
100
AcDbDictionary
281
     1
  0
DICTIONARY
  5
D
102
{ACAD_REACTORS
330
C
102
}
330
C
100
AcDbDictionary
281
     1
  0
DICTIONARY
  5
62
102
{ACAD_REACTORS
330
C
102
}
330
C
100
AcDbDictionary
281
     1
  3
Layout1
350
6B
  3
Layout2
350
73
  3
Model
350
6F
  0
DICTIONARY
  5
10
102
{ACAD_REACTORS
330
C
102
}
330
C
100
AcDbDictionary
281
     1
  3
ByBlock
350
19
  3
ByLayer
350
11
  3
Global
350
21
  0
DICTIONARY
  5
66
102
{ACAD_REACTORS
330
C
102
}
330
C
100
AcDbDictionary
281
     1
  3
Standard
350
67
  0
DICTIONARY
  5
5F
102
{ACAD_REACTORS
330
C
102
}
330
C
100
AcDbDictionary
281
     1
  3
Standard
350
60
  0
DICTIONARY
  5
61
102
{ACAD_REACTORS
330
C
102
}
330
C
100
AcDbDictionary
281
     1
  0
ACDBDICTIONARYWDFLT
  5
E
102
{ACAD_REACTORS
330
C
102
}
330
C
100
AcDbDictionary
281
     1
  3
Normal
350
F
100
AcDbDictionaryWithDefault
340
F
  0
DICTIONARY
  5
42
102
{ACAD_REACTORS
330
C
102
}
330
C
100
AcDbDictionary
281
     1
  3
A0
350
43
  3
A1
350
44
  3
A2
350
45
  3
A3
350
46
  3
A4
350
47
  3
A5
350
48
  3
A6
350
49
  3
A7
350
4A
  3
A8
350
4B
  3
A9
350
4C
  3
B0
350
4D
  3
B1
350
4E
  3
B2
350
4F
  3
B3
350
50
  3
B4
350
51
  3
B5
350
52
  3
B6
350
53
  0
DICTIONARY
  5
64
102
{ACAD_REACTORS
330
C
102
}
330
C
100
AcDbDictionary
281
     1
  3
Standard
350
65
  0
DICTIONARY
  5
29
102
{ACAD_REACTORS
330
C
102
}
330
C
100
AcDbDictionary
281
     1
  3
2dWireframe
350
2F
  3
Basic
350
2E
  3
Brighten
350
35
  3
ColorChange
350
39
  3
Conceptual
350
32
  3
Dim
350
34
  3
EdgeColorOff
350
41
  3
Facepattern
350
38
  3
Flat
350
2A
  3
FlatWithEdges
350
2B
  3
Gouraud
350
2C
  3
GouraudWithEdges
350
2D
  3
Hidden
350
31
  3
JitterOff
350
3F
  3
Linepattern
350
37
  3
OverhangOff
350
40
  3
Realistic
350
33
  3
Shaded
350
3E
  3
Shaded with edges
350
3D
  3
Shades of Gray
350
3A
  3
Sketchy
350
3B
  3
Thicken
350
36
  3
Wireframe
350
30
  3
X-Ray
350
3C
  0
XRECORD
  5
E65
102
{ACAD_REACTORS
330
C
102
}
330
C
100
AcDbXrecord
280
     1
 90
        1
330
65
330
E5C
  0
DICTIONARY
  5
76
102
{ACAD_REACTORS
330
C
102
}
330
C
100
AcDbDictionary
281
     1
  3
CANNOSCALE
350
79
  3
CMLEADERSTYLE
350
78
  3
CTABLESTYLE
350
77
  0
XRECORD
  5
E64
102
{ACAD_REACTORS
330
E63
102
}
330
E63
100
AcDbXrecord
280
     1
 40
3089015.0
  1
\pxsm0.94;{\fRomanS|b0|i0;\H2.2000;PART#: NPDD5442G\P(DATA SUBJECT TO CHANGE WITHOUT NOTICE)\P \P\fRomanS|b0|i0;\H1.3200;THIS DRAWING IS PROPERTY OF HUBBELL INC. WIEGMANN\PALL INFORMATION IS PROPRIETARY AND NOT TO BE DUPLICATED\P}
  0
LAYOUT
  5
6B
102
{ACAD_REACTORS
330
62
102
}
330
62
100
AcDbPlotSettings
  1

  2

  4

  6

 40
0.0
 41
0.0
 42
0.0
 43
0.0
 44
0.0
 45
0.0
 46
0.0
 47
0.0
 48
0.0
 49
0.0
140
0.0
141
0.0
142
1.0
143
1.0
 70
   688
 72
     0
 73
     0
 74
     5
  7

 75
    16
147
1.0
 76
     0
 77
     2
 78
   300
148
0.0
149
0.0
100
AcDbLayout
  1
Layout1
 70
     1
 71
     1
 10
0.0
 20
0.0
 11
12.0
 21
9.0
 12
0.0
 22
0.0
 32
0.0
 14
0.0
 24
0.0
 34
0.0
 15
0.0
 25
0.0
 35
0.0
146
0.0
 13
0.0
 23
0.0
 33
0.0
 16
1.0
 26
0.0
 36
0.0
 17
0.0
 27
1.0
 37
0.0
 76
     0
330
68
  0
LAYOUT
  5
73
102
{ACAD_REACTORS
330
62
102
}
330
62
100
AcDbPlotSettings
  1

  2

  4

  6

 40
0.0
 41
0.0
 42
0.0
 43
0.0
 44
0.0
 45
0.0
 46
0.0
 47
0.0
 48
0.0
 49
0.0
140
0.0
141
0.0
142
1.0
143
1.0
 70
   688
 72
     0
 73
     0
 74
     5
  7

 75
    16
147
1.0
 76
     0
 77
     2
 78
   300
148
0.0
149
0.0
100
AcDbLayout
  1
Layout2
 70
     1
 71
     2
 10
0.0
 20
0.0
 11
12.0
 21
9.0
 12
0.0
 22
0.0
 32
0.0
 14
0.0
 24
0.0
 34
0.0
 15
0.0
 25
0.0
 35
0.0
146
0.0
 13
0.0
 23
0.0
 33
0.0
 16
1.0
 26
0.0
 36
0.0
 17
0.0
 27
1.0
 37
0.0
 76
     0
330
70
  0
LAYOUT
  5
6F
102
{ACAD_REACTORS
330
62
102
}
330
62
100
AcDbPlotSettings
  1

  2

  4

  6

 40
0.0
 41
0.0
 42
0.0
 43
0.0
 44
0.0
 45
0.0
 46
0.0
 47
0.0
 48
0.0
 49
0.0
140
0.0
141
0.0
142
1.0
143
1.0
 70
  1712
 72
     0
 73
     0
 74
     0
  7

 75
     0
147
1.0
 76
     0
 77
     2
 78
   300
148
0.0
149
0.0
100
AcDbLayout
  1
Model
 70
     1
 71
     0
 10
0.0
 20
0.0
 11
12.0
 21
9.0
 12
0.0
 22
0.0
 32
0.0
 14
0.0
 24
0.0
 34
0.0
 15
0.0
 25
0.0
 35
0.0
146
0.0
 13
0.0
 23
0.0
 33
0.0
 16
1.0
 26
0.0
 36
0.0
 17
0.0
 27
1.0
 37
0.0
 76
     0
330
6C
  0
MATERIAL
  5
19
102
{ACAD_XDICTIONARY
360
1A
102
}
102
{ACAD_REACTORS
330
10
102
}
330
10
100
AcDbMaterial
  1
ByBlock
 72
     0
 43
0.0208333333333333
 43
0.0
 43
0.0
 43
0.0
 43
0.0
 43
0.0208333333333333
 43
0.0
 43
0.0
 43
0.0
 43
0.0
 43
1.0
 43
0.0
 43
0.0
 43
0.0
 43
0.0
 43
1.0
 77
     0
 47
0.0208333333333333
 47
0.0
 47
0.0
 47
0.0
 47
0.0
 47
0.0208333333333333
 47
0.0
 47
0.0
 47
0.0
 47
0.0
 47
1.0
 47
0.0
 47
0.0
 47
0.0
 47
0.0
 47
1.0
171
     0
 49
0.0208333333333333
 49
0.0
 49
0.0
 49
0.0
 49
0.0
 49
0.0208333333333333
 49
0.0
 49
0.0
 49
0.0
 49
0.0
 49
1.0
 49
0.0
 49
0.0
 49
0.0
 49
0.0
 49
1.0
175
     0
142
0.0208333333333333
142
0.0
142
0.0
142
0.0
142
0.0
142
0.0208333333333333
142
0.0
142
0.0
142
0.0
142
0.0
142
1.0
142
0.0
142
0.0
142
0.0
142
0.0
142
1.0
179
     0
144
0.0208333333333333
144
0.0
144
0.0
144
0.0
144
0.0
144
0.0208333333333333
144
0.0
144
0.0
144
0.0
144
0.0
144
1.0
144
0.0
144
0.0
144
0.0
144
0.0
144
1.0
147
0.0208333333333333
147
0.0
147
0.0
147
0.0
147
0.0
147
0.0208333333333333
147
0.0
147
0.0
147
0.0
147
0.0
147
1.0
147
0.0
147
0.0
147
0.0
147
0.0
147
1.0
  0
MATERIAL
  5
11
102
{ACAD_XDICTIONARY
360
12
102
}
102
{ACAD_REACTORS
330
10
102
}
330
10
100
AcDbMaterial
  1
ByLayer
 72
     0
 43
0.0208333333333333
 43
0.0
 43
0.0
 43
0.0
 43
0.0
 43
0.0208333333333333
 43
0.0
 43
0.0
 43
0.0
 43
0.0
 43
1.0
 43
0.0
 43
0.0
 43
0.0
 43
0.0
 43
1.0
 77
     0
 47
0.0208333333333333
 47
0.0
 47
0.0
 47
0.0
 47
0.0
 47
0.0208333333333333
 47
0.0
 47
0.0
 47
0.0
 47
0.0
 47
1.0
 47
0.0
 47
0.0
 47
0.0
 47
0.0
 47
1.0
171
     0
 49
0.0208333333333333
 49
0.0
 49
0.0
 49
0.0
 49
0.0
 49
0.0208333333333333
 49
0.0
 49
0.0
 49
0.0
 49
0.0
 49
1.0
 49
0.0
 49
0.0
 49
0.0
 49
0.0
 49
1.0
175
     0
142
0.0208333333333333
142
0.0
142
0.0
142
0.0
142
0.0
142
0.0208333333333333
142
0.0
142
0.0
142
0.0
142
0.0
142
1.0
142
0.0
142
0.0
142
0.0
142
0.0
142
1.0
179
     0
144
0.0208333333333333
144
0.0
144
0.0
144
0.0
144
0.0
144
0.0208333333333333
144
0.0
144
0.0
144
0.0
144
0.0
144
1.0
144
0.0
144
0.0
144
0.0
144
0.0
144
1.0
147
0.0208333333333333
147
0.0
147
0.0
147
0.0
147
0.0
147
0.0208333333333333
147
0.0
147
0.0
147
0.0
147
0.0
147
1.0
147
0.0
147
0.0
147
0.0
147
0.0
147
1.0
  0
MATERIAL
  5
21
102
{ACAD_XDICTIONARY
360
22
102
}
102
{ACAD_REACTORS
330
10
102
}
330
10
100
AcDbMaterial
  1
Global
 72
     0
 43
0.0208333333333333
 43
0.0
 43
0.0
 43
0.0
 43
0.0
 43
0.0208333333333333
 43
0.0
 43
0.0
 43
0.0
 43
0.0
 43
1.0
 43
0.0
 43
0.0
 43
0.0
 43
0.0
 43
1.0
 77
     0
 47
0.0208333333333333
 47
0.0
 47
0.0
 47
0.0
 47
0.0
 47
0.0208333333333333
 47
0.0
 47
0.0
 47
0.0
 47
0.0
 47
1.0
 47
0.0
 47
0.0
 47
0.0
 47
0.0
 47
1.0
171
     0
 49
0.0208333333333333
 49
0.0
 49
0.0
 49
0.0
 49
0.0
 49
0.0208333333333333
 49
0.0
 49
0.0
 49
0.0
 49
0.0
 49
1.0
 49
0.0
 49
0.0
 49
0.0
 49
0.0
 49
1.0
175
     0
142
0.0208333333333333
142
0.0
142
0.0
142
0.0
142
0.0
142
0.0208333333333333
142
0.0
142
0.0
142
0.0
142
0.0
142
1.0
142
0.0
142
0.0
142
0.0
142
0.0
142
1.0
179
     0
144
0.0208333333333333
144
0.0
144
0.0
144
0.0
144
0.0
144
0.0208333333333333
144
0.0
144
0.0
144
0.0
144
0.0
144
1.0
144
0.0
144
0.0
144
0.0
144
0.0
144
1.0
147
0.0208333333333333
147
0.0
147
0.0
147
0.0
147
0.0
147
0.0208333333333333
147
0.0
147
0.0
147
0.0
147
0.0
147
1.0
147
0.0
147
0.0
147
0.0
147
0.0
147
1.0
  0
MLEADERSTYLE
  5
67
102
{ACAD_XDICTIONARY
360
E61
102
}
102
{ACAD_REACTORS
330
66
102
}
330
66
100
AcDbMLeaderStyle
179
     2
170
     2
171
     1
172
     0
 90
        2
 40
0.0
 41
0.0
173
     1
 91
-1056964608
340
5B
 92
       -2
290
     1
 42
0.09
291
     1
 43
0.36
  3
Standard
 44
0.18
300

342
55
174
     1
178
     6
175
     1
176
     0
 93
-1056964608
 45
0.18
292
     0
297
     0
 46
0.18
 94
-1056964608
 47
1.0
 49
1.0
140
1.0
293
     1
141
0.0
294
     1
177
     0
142
1.0
295
     0
296
     0
143
0.125
271
     0
272
     9
273
     9
  0
MLINESTYLE
  5
60
102
{ACAD_REACTORS
330
5F
102
}
330
5F
100
AcDbMlineStyle
  2
STANDARD
 70
     0
  3

 62
   256
 51
90.0
 52
90.0
 71
     2
 49
0.5
 62
   256
  6
BYLAYER
 49
-0.5
 62
   256
  6
BYLAYER
  0
ACDBPLACEHOLDER
  5
F
102
{ACAD_REACTORS
330
E
102
}
330
E
  0
SCALE
  5
43
102
{ACAD_REACTORS
330
42
102
}
330
42
100
AcDbScale
 70
     0
300
1:1
140
1.0
141
1.0
290
     1
  0
SCALE
  5
44
102
{ACAD_REACTORS
330
42
102
}
330
42
100
AcDbScale
 70
     0
300
1/128" = 1'-0"
140
0.0078125
141
12.0
290
     0
  0
SCALE
  5
45
102
{ACAD_REACTORS
330
42
102
}
330
42
100
AcDbScale
 70
     0
300
1/64" = 1'-0"
140
0.015625
141
12.0
290
     0
  0
SCALE
  5
46
102
{ACAD_REACTORS
330
42
102
}
330
42
100
AcDbScale
 70
     0
300
1/32" = 1'-0"
140
0.03125
141
12.0
290
     0
  0
SCALE
  5
47
102
{ACAD_REACTORS
330
42
102
}
330
42
100
AcDbScale
 70
     0
300
1/16" = 1'-0"
140
0.0625
141
12.0
290
     0
  0
SCALE
  5
48
102
{ACAD_REACTORS
330
42
102
}
330
42
100
AcDbScale
 70
     0
300
3/32" = 1'-0"
140
0.09375
141
12.0
290
     0
  0
SCALE
  5
49
102
{ACAD_REACTORS
330
42
102
}
330
42
100
AcDbScale
 70
     0
300
1/8" = 1'-0"
140
0.125
141
12.0
290
     0
  0
SCALE
  5
4A
102
{ACAD_REACTORS
330
42
102
}
330
42
100
AcDbScale
 70
     0
300
3/16" = 1'-0"
140
0.1875
141
12.0
290
     0
  0
SCALE
  5
4B
102
{ACAD_REACTORS
330
42
102
}
330
42
100
AcDbScale
 70
     0
300
1/4" = 1'-0"
140
0.25
141
12.0
290
     0
  0
SCALE
  5
4C
102
{ACAD_REACTORS
330
42
102
}
330
42
100
AcDbScale
 70
     0
300
3/8" = 1'-0"
140
0.375
141
12.0
290
     0
  0
SCALE
  5
4D
102
{ACAD_REACTORS
330
42
102
}
330
42
100
AcDbScale
 70
     0
300
1/2" = 1'-0"
140
0.5
141
12.0
290
     0
  0
SCALE
  5
4E
102
{ACAD_REACTORS
330
42
102
}
330
42
100
AcDbScale
 70
     0
300
3/4" = 1'-0"
140
0.75
141
12.0
290
     0
  0
SCALE
  5
4F
102
{ACAD_REACTORS
330
42
102
}
330
42
100
AcDbScale
 70
     0
300
1" = 1'-0"
140
1.0
141
12.0
290
     0
  0
SCALE
  5
50
102
{ACAD_REACTORS
330
42
102
}
330
42
100
AcDbScale
 70
     0
300
1-1/2" = 1'-0"
140
1.5
141
12.0
290
     0
  0
SCALE
  5
51
102
{ACAD_REACTORS
330
42
102
}
330
42
100
AcDbScale
 70
     0
300
3" = 1'-0"
140
3.0
141
12.0
290
     0
  0
SCALE
  5
52
102
{ACAD_REACTORS
330
42
102
}
330
42
100
AcDbScale
 70
     0
300
6" = 1'-0"
140
6.0
141
12.0
290
     0
  0
SCALE
  5
53
102
{ACAD_REACTORS
330
42
102
}
330
42
100
AcDbScale
 70
     0
300
1'-0" = 1'-0"
140
12.0
141
12.0
290
     0
  0
TABLESTYLE
  5
65
102
{ACAD_XDICTIONARY
360
E5F
102
}
102
{ACAD_REACTORS
330
64
102
}
330
64
100
AcDbTableStyle
280
     0
  3
Standard
 70
     0
 71
     0
 40
0.06
 41
0.06
280
     0
281
     0
  7
Standard
140
0.18
170
     2
 62
     0
 63
     7
283
     0
 90
      512
 91
        0
  1

274
    -2
284
     1
 64
     0
275
    -2
285
     1
 65
     0
276
    -2
286
     1
 66
     0
277
    -2
287
     1
 67
     0
278
    -2
288
     1
 68
     0
279
    -2
289
     1
 69
     0
  7
Standard
140
0.25
170
     5
 62
     0
 63
     7
283
     0
 90
      512
 91
        0
  1

274
    -2
284
     1
 64
     0
275
    -2
285
     1
 65
     0
276
    -2
286
     1
 66
     0
277
    -2
287
     1
 67
     0
278
    -2
288
     1
 68
     0
279
    -2
289
     1
 69
     0
  7
Standard
140
0.18
170
     5
 62
     0
 63
     7
283
     0
 90
      512
 91
        0
  1

274
    -2
284
     1
 64
     0
275
    -2
285
     1
 65
     0
276
    -2
286
     1
 66
     0
277
    -2
287
     1
 67
     0
278
    -2
288
     1
 68
     0
279
    -2
289
     1
 69
     0
  0
VISUALSTYLE
  5
2F
102
{ACAD_REACTORS
330
29
102
}
330
29
100
AcDbVisualStyle
  2
2dWireframe
 70
     4
177
     2
291
     0
 71
     0
176
     1
 72
     2
176
     1
 73
     0
176
     1
 90
        0
176
     1
 40
0.6
176
     1
 41
30.0
176
     1
 63
     7
421
 16777215
176
     1
 74
     1
176
     1
 91
        4
176
     1
 64
     7
176
     1
 65
   257
176
     1
 75
     1
176
     1
175
     1
176
     1
 42
1.0
176
     1
 92
        0
176
     1
 66
   257
176
     1
 43
1.0
176
     1
 76
     1
176
     1
 77
     6
176
     1
 78
     2
176
     1
 67
     7
176
     1
 79
     5
176
     1
170
     0
176
     1
171
     0
176
     1
290
     0
176
     1
 93
        1
176
     1
 44
0.0
176
     1
173
     0
176
     1
  0
VISUALSTYLE
  5
2E
102
{ACAD_REACTORS
330
29
102
}
330
29
100
AcDbVisualStyle
  2
Basic
 70
     7
177
     2
291
     1
 71
     1
176
     1
 72
     0
176
     1
 73
     1
176
     1
 90
        0
176
     1
 40
0.6
176
     1
 41
30.0
176
     1
 63
     7
421
 16777215
176
     1
 74
     0
176
     1
 91
        4
176
     1
 64
     7
176
     1
 65
   257
176
     1
 75
     1
176
     1
175
     1
176
     1
 42
1.0
176
     1
 92
        8
176
     1
 66
     7
176
     1
 43
1.0
176
     1
 76
     1
176
     1
 77
     6
176
     1
 78
     2
176
     1
 67
     7
176
     1
 79
     5
176
     1
170
     0
176
     1
171
     0
176
     1
290
     0
176
     1
 93
        1
176
     1
 44
0.0
176
     1
173
     0
176
     1
  0
VISUALSTYLE
  5
35
102
{ACAD_REACTORS
330
29
102
}
330
29
100
AcDbVisualStyle
  2
Brighten
 70
    12
177
     2
291
     1
 71
     2
176
     1
 72
     2
176
     1
 73
     0
176
     1
 90
        0
176
     1
 40
0.6
176
     1
 41
30.0
176
     1
 63
     7
421
 16777215
176
     1
 74
     1
176
     1
 91
        4
176
     1
 64
     7
176
     1
 65
   257
176
     1
 75
     1
176
     1
175
     1
176
     1
 42
1.0
176
     1
 92
        8
176
     1
 66
     7
176
     1
 43
1.0
176
     1
 76
     1
176
     1
 77
     6
176
     1
 78
     2
176
     1
 67
     7
176
     1
 79
     5
176
     1
170
     0
176
     1
171
     0
176
     1
290
     0
176
     1
 93
        1
176
     1
 44
50.0
176
     1
173
     0
176
     1
  0
VISUALSTYLE
  5
39
102
{ACAD_REACTORS
330
29
102
}
330
29
100
AcDbVisualStyle
  2
ColorChange
 70
    16
177
     2
291
     1
 71
     2
176
     1
 72
     2
176
     1
 73
     3
176
     1
 90
        0
176
     1
 40
0.6
176
     1
 41
30.0
176
     1
 63
     8
421
  8421504
176
     1
 74
     1
176
     1
 91
        4
176
     1
 64
     7
176
     1
 65
   257
176
     1
 75
     1
176
     1
175
     1
176
     1
 42
1.0
176
     1
 92
        8
176
     1
 66
     8
424
  8421504
176
     1
 43
1.0
176
     1
 76
     1
176
     1
 77
     6
176
     1
 78
     2
176
     1
 67
     7
176
     1
 79
     5
176
     1
170
     0
176
     1
171
     0
176
     1
290
     0
176
     1
 93
        1
176
     1
 44
0.0
176
     1
173
     0
176
     1
  0
VISUALSTYLE
  5
32
102
{ACAD_REACTORS
330
29
102
}
330
29
100
AcDbVisualStyle
  2
Conceptual
 70
     9
177
     2
291
     0
 71
     3
176
     1
 72
     2
176
     1
 73
     0
176
     1
 90
        0
176
     1
 40
0.6
176
     1
 41
30.0
176
     1
 63
     7
421
 16777215
176
     1
 74
     2
176
     1
 91
        2
176
     1
 64
     7
176
     1
 65
   257
176
     1
 75
     1
176
     1
175
     1
176
     1
 42
179.0
176
     1
 92
        8
176
     1
 66
     7
176
     1
 43
1.0
176
     1
 76
     1
176
     1
 77
     6
176
     1
 78
     2
176
     1
 67
     7
176
     1
 79
     3
176
     1
170
     0
176
     1
171
     0
176
     1
290
     0
176
     1
 93
        1
176
     1
 44
0.0
176
     1
173
     0
176
     1
  0
VISUALSTYLE
  5
34
102
{ACAD_REACTORS
330
29
102
}
330
29
100
AcDbVisualStyle
  2
Dim
 70
    11
177
     2
291
     1
 71
     2
176
     1
 72
     2
176
     1
 73
     0
176
     1
 90
        0
176
     1
 40
0.6
176
     1
 41
30.0
176
     1
 63
     7
421
 16777215
176
     1
 74
     1
176
     1
 91
        4
176
     1
 64
     7
176
     1
 65
   257
176
     1
 75
     1
176
     1
175
     1
176
     1
 42
1.0
176
     1
 92
        8
176
     1
 66
     7
176
     1
 43
1.0
176
     1
 76
     1
176
     1
 77
     6
176
     1
 78
     2
176
     1
 67
     7
176
     1
 79
     5
176
     1
170
     0
176
     1
171
     0
176
     1
290
     0
176
     1
 93
        1
176
     1
 44
-50.0
176
     1
173
     0
176
     1
  0
VISUALSTYLE
  5
41
102
{ACAD_REACTORS
330
29
102
}
330
29
100
AcDbVisualStyle
  2
EdgeColorOff
 70
    22
177
     2
291
     1
 71
     2
176
     0
 72
     2
176
     0
 73
     0
176
     0
 90
        0
176
     0
 40
0.6
176
     0
 41
30.0
176
     0
 63
     7
421
 16777215
176
     0
 74
     1
176
     0
 91
        4
176
     0
 64
     7
176
     0
 65
   257
176
     0
 75
     1
176
     0
175
     1
176
     0
 42
1.0
176
     0
 92
        8
176
     2
 66
     7
176
     0
 43
1.0
176
     0
 76
     1
176
     0
 77
     6
176
     0
 78
     2
176
     0
 67
     7
176
     0
 79
     5
176
     0
170
     0
176
     0
171
     0
176
     0
290
     0
176
     0
 93
        1
176
     0
 44
0.0
176
     0
173
     0
176
     0
  0
VISUALSTYLE
  5
38
102
{ACAD_REACTORS
330
29
102
}
330
29
100
AcDbVisualStyle
  2
Facepattern
 70
    15
177
     2
291
     1
 71
     2
176
     1
 72
     2
176
     1
 73
     0
176
     1
 90
        0
176
     1
 40
0.6
176
     1
 41
30.0
176
     1
 63
     7
421
 16777215
176
     1
 74
     1
176
     1
 91
        4
176
     1
 64
     7
176
     1
 65
   257
176
     1
 75
     1
176
     1
175
     1
176
     1
 42
1.0
176
     1
 92
        8
176
     1
 66
     7
176
     1
 43
1.0
176
     1
 76
     1
176
     1
 77
     6
176
     1
 78
     2
176
     1
 67
     7
176
     1
 79
     5
176
     1
170
     0
176
     1
171
     0
176
     1
290
     0
176
     1
 93
        1
176
     1
 44
0.0
176
     1
173
     0
176
     1
  0
VISUALSTYLE
  5
2A
102
{ACAD_REACTORS
330
29
102
}
330
29
100
AcDbVisualStyle
  2
Flat
 70
     0
177
     2
291
     1
 71
     2
176
     1
 72
     1
176
     1
 73
     1
176
     1
 90
        2
176
     1
 40
0.6
176
     1
 41
30.0
176
     1
 63
     7
421
 16777215
176
     1
 74
     0
176
     1
 91
        0
176
     1
 64
     7
176
     1
 65
   257
176
     1
 75
     1
176
     1
175
     1
176
     1
 42
1.0
176
     1
 92
        8
176
     1
 66
     7
176
     1
 43
1.0
176
     1
 76
     1
176
     1
 77
     6
176
     1
 78
     2
176
     1
 67
     7
176
     1
 79
     5
176
     1
170
     0
176
     1
171
     0
176
     1
290
     0
176
     1
 93
       13
176
     1
 44
0.0
176
     1
173
     0
176
     1
  0
VISUALSTYLE
  5
2B
102
{ACAD_REACTORS
330
29
102
}
330
29
100
AcDbVisualStyle
  2
FlatWithEdges
 70
     1
177
     2
291
     1
 71
     2
176
     1
 72
     1
176
     1
 73
     1
176
     1
 90
        2
176
     1
 40
0.6
176
     1
 41
30.0
176
     1
 63
     7
421
 16777215
176
     1
 74
     1
176
     1
 91
        0
176
     1
 64
     7
176
     1
 65
   257
176
     1
 75
     1
176
     1
175
     1
176
     1
 42
1.0
176
     1
 92
        0
176
     1
 66
   257
176
     1
 43
1.0
176
     1
 76
     1
176
     1
 77
     6
176
     1
 78
     2
176
     1
 67
     7
176
     1
 79
     5
176
     1
170
     0
176
     1
171
     0
176
     1
290
     0
176
     1
 93
       13
176
     1
 44
0.0
176
     1
173
     0
176
     1
  0
VISUALSTYLE
  5
2C
102
{ACAD_REACTORS
330
29
102
}
330
29
100
AcDbVisualStyle
  2
Gouraud
 70
     2
177
     2
291
     1
 71
     2
176
     1
 72
     2
176
     1
 73
     1
176
     1
 90
        2
176
     1
 40
0.6
176
     1
 41
30.0
176
     1
 63
     7
421
 16777215
176
     1
 74
     0
176
     1
 91
        0
176
     1
 64
     7
176
     1
 65
   257
176
     1
 75
     1
176
     1
175
     1
176
     1
 42
1.0
176
     1
 92
        0
176
     1
 66
     7
176
     1
 43
1.0
176
     1
 76
     1
176
     1
 77
     6
176
     1
 78
     2
176
     1
 67
     7
176
     1
 79
     5
176
     1
170
     0
176
     1
171
     0
176
     1
290
     0
176
     1
 93
       13
176
     1
 44
0.0
176
     1
173
     0
176
     1
  0
VISUALSTYLE
  5
2D
102
{ACAD_REACTORS
330
29
102
}
330
29
100
AcDbVisualStyle
  2
GouraudWithEdges
 70
     3
177
     2
291
     1
 71
     2
176
     1
 72
     2
176
     1
 73
     1
176
     1
 90
        2
176
     1
 40
0.6
176
     1
 41
30.0
176
     1
 63
     7
421
 16777215
176
     1
 74
     1
176
     1
 91
        0
176
     1
 64
     7
176
     1
 65
   257
176
     1
 75
     1
176
     1
175
     1
176
     1
 42
1.0
176
     1
 92
        0
176
     1
 66
   257
176
     1
 43
1.0
176
     1
 76
     1
176
     1
 77
     6
176
     1
 78
     2
176
     1
 67
     7
176
     1
 79
     5
176
     1
170
     0
176
     1
171
     0
176
     1
290
     0
176
     1
 93
       13
176
     1
 44
0.0
176
     1
173
     0
176
     1
  0
VISUALSTYLE
  5
31
102
{ACAD_REACTORS
330
29
102
}
330
29
100
AcDbVisualStyle
  2
Hidden
 70
     6
177
     2
291
     0
 71
     1
176
     1
 72
     2
176
     1
 73
     2
176
     1
 90
        0
176
     1
 40
0.6
176
     1
 41
30.0
176
     1
 63
     7
421
 16777215
176
     1
 74
     2
176
     1
 91
        2
176
     1
 64
     7
176
     1
 65
   257
176
     1
 75
     2
176
     1
175
     1
176
     1
 42
40.0
176
     1
 92
        0
176
     1
 66
   257
176
     1
 43
1.0
176
     1
 76
     1
176
     1
 77
     6
176
     1
 78
     2
176
     1
 67
     7
176
     1
 79
     3
176
     1
170
     0
176
     1
171
     0
176
     1
290
     0
176
     1
 93
        1
176
     1
 44
0.0
176
     1
173
     0
176
     1
  0
VISUALSTYLE
  5
3F
102
{ACAD_REACTORS
330
29
102
}
330
29
100
AcDbVisualStyle
  2
JitterOff
 70
    20
177
     2
291
     1
 71
     2
176
     0
 72
     2
176
     0
 73
     0
176
     0
 90
        0
176
     0
 40
0.6
176
     0
 41
30.0
176
     0
 63
     7
421
 16777215
176
     0
 74
     1
176
     0
 91
        4
176
     0
 64
     7
176
     0
 65
   257
176
     0
 75
     1
176
     0
175
     1
176
     0
 42
1.0
176
     0
 92
       10
176
     2
 66
     7
176
     0
 43
1.0
176
     0
 76
     1
176
     0
 77
     6
176
     0
 78
     2
176
     0
 67
     7
176
     0
 79
     5
176
     0
170
     0
176
     0
171
     0
176
     0
290
     0
176
     0
 93
        1
176
     0
 44
0.0
176
     0
173
     0
176
     0
  0
VISUALSTYLE
  5
37
102
{ACAD_REACTORS
330
29
102
}
330
29
100
AcDbVisualStyle
  2
Linepattern
 70
    14
177
     2
291
     1
 71
     2
176
     1
 72
     2
176
     1
 73
     0
176
     1
 90
        0
176
     1
 40
0.6
176
     1
 41
30.0
176
     1
 63
     7
421
 16777215
176
     1
 74
     1
176
     1
 91
        4
176
     1
 64
     7
176
     1
 65
   257
176
     1
 75
     7
176
     1
175
     7
176
     1
 42
1.0
176
     1
 92
        8
176
     1
 66
     7
176
     1
 43
1.0
176
     1
 76
     1
176
     1
 77
     6
176
     1
 78
     2
176
     1
 67
     7
176
     1
 79
     5
176
     1
170
     0
176
     1
171
     0
176
     1
290
     0
176
     1
 93
        1
176
     1
 44
0.0
176
     1
173
     0
176
     1
  0
VISUALSTYLE
  5
40
102
{ACAD_REACTORS
330
29
102
}
330
29
100
AcDbVisualStyle
  2
OverhangOff
 70
    21
177
     2
291
     1
 71
     2
176
     0
 72
     2
176
     0
 73
     0
176
     0
 90
        0
176
     0
 40
0.6
176
     0
 41
30.0
176
     0
 63
     7
421
 16777215
176
     0
 74
     1
176
     0
 91
        4
176
     0
 64
     7
176
     0
 65
   257
176
     0
 75
     1
176
     0
175
     1
176
     0
 42
1.0
176
     0
 92
        9
176
     2
 66
     7
176
     0
 43
1.0
176
     0
 76
     1
176
     0
 77
     6
176
     0
 78
     2
176
     0
 67
     7
176
     0
 79
     5
176
     0
170
     0
176
     0
171
     0
176
     0
290
     0
176
     0
 93
        1
176
     0
 44
0.0
176
     0
173
     0
176
     0
  0
VISUALSTYLE
  5
33
102
{ACAD_REACTORS
330
29
102
}
330
29
100
AcDbVisualStyle
  2
Realistic
 70
     8
177
     2
291
     0
 71
     2
176
     1
 72
     3
176
     1
 73
     0
176
     1
 90
        2
176
     1
 40
0.6
176
     1
 41
30.0
176
     1
 63
     7
421
 16777215
176
     1
 74
     0
176
     1
 91
        0
176
     1
 64
     7
176
     1
 65
   257
176
     1
 75
     1
176
     1
175
     1
176
     1
 42
1.0
176
     1
 92
        8
176
     1
 66
   257
176
     1
 43
1.0
176
     1
 76
     1
176
     1
 77
     6
176
     1
 78
     2
176
     1
 67
     7
176
     1
 79
     3
176
     1
170
     0
176
     1
171
     0
176
     1
290
     0
176
     1
 93
       13
176
     1
 44
0.0
176
     1
173
     0
176
     1
  0
VISUALSTYLE
  5
3E
102
{ACAD_REACTORS
330
29
102
}
330
29
100
AcDbVisualStyle
  2
Shaded
 70
    27
177
     2
291
     0
 71
     2
176
     1
 72
     2
176
     1
 73
     1
176
     1
 90
        2
176
     1
 40
0.6
176
     1
 41
30.0
176
     1
 63
     7
421
 16777215
176
     1
 74
     0
176
     1
 91
        4
176
     1
 64
     7
176
     1
 65
   257
176
     1
 75
     1
176
     1
175
     1
176
     1
 42
1.0
176
     1
 92
        8
176
     1
 66
   257
176
     1
 43
1.0
176
     1
 76
     1
176
     1
 77
     6
176
     1
 78
     2
176
     1
 67
     8
425
  7895160
176
     1
 79
     3
176
     1
170
     0
176
     1
171
     0
176
     1
290
     0
176
     1
 93
        5
176
     1
 44
0.0
176
     1
173
     0
176
     1
  0
VISUALSTYLE
  5
3D
102
{ACAD_REACTORS
330
29
102
}
330
29
100
AcDbVisualStyle
  2
Shaded with edges
 70
    26
177
     2
291
     0
 71
     2
176
     1
 72
     2
176
     1
 73
     1
176
     1
 90
        2
176
     1
 40
0.6
176
     1
 41
30.0
176
     1
 63
     7
421
 16777215
176
     1
 74
     1
176
     1
 91
       10
176
     1
 64
     7
176
     1
 65
   257
176
     1
 75
     2
176
     1
175
     1
176
     1
 42
1.0
176
     1
 92
        8
176
     1
 66
   257
176
     1
 43
1.0
176
     1
 76
     1
176
     1
 77
     6
176
     1
 78
     2
176
     1
 67
     7
176
     1
 79
     3
176
     1
170
     0
176
     1
171
     0
176
     1
290
     0
176
     1
 93
        5
176
     1
 44
0.0
176
     1
173
     0
176
     1
  0
VISUALSTYLE
  5
3A
102
{ACAD_REACTORS
330
29
102
}
330
29
100
AcDbVisualStyle
  2
Shades of Gray
 70
    23
177
     2
291
     0
 71
     2
176
     1
 72
     2
176
     1
 73
     3
176
     1
 90
        0
176
     1
 40
0.6
176
     1
 41
30.0
176
     1
 63
     7
421
 16777215
176
     1
 74
     2
176
     1
 91
        2
176
     1
 64
     7
176
     1
 65
     7
176
     1
 75
     1
176
     1
175
     1
176
     1
 42
40.0
176
     1
 92
        8
176
     1
 66
     7
176
     1
 43
1.0
176
     1
 76
     1
176
     1
 77
     6
176
     1
 78
     2
176
     1
 67
     7
176
     1
 79
     3
176
     1
170
     0
176
     1
171
     0
176
     1
290
     0
176
     1
 93
        1
176
     1
 44
0.0
176
     1
173
     0
176
     1
  0
VISUALSTYLE
  5
3B
102
{ACAD_REACTORS
330
29
102
}
330
29
100
AcDbVisualStyle
  2
Sketchy
 70
    24
177
     2
291
     0
 71
     1
176
     1
 72
     2
176
     1
 73
     2
176
     1
 90
        0
176
     1
 40
0.6
176
     1
 41
30.0
176
     1
 63
     7
421
 16777215
176
     1
 74
     2
176
     1
 91
        2
176
     1
 64
     7
176
     1
 65
     7
176
     1
 75
     1
176
     1
175
     1
176
     1
 42
40.0
176
     1
 92
       11
176
     1
 66
     7
176
     1
 43
1.0
176
     1
 76
     1
176
     1
 77
     6
176
     1
 78
     2
176
     1
 67
     7
176
     1
 79
     6
176
     1
170
     0
176
     1
171
     0
176
     1
290
     0
176
     1
 93
        1
176
     1
 44
0.0
176
     1
173
     0
176
     1
  0
VISUALSTYLE
  5
36
102
{ACAD_REACTORS
330
29
102
}
330
29
100
AcDbVisualStyle
  2
Thicken
 70
    13
177
     2
291
     1
 71
     2
176
     1
 72
     2
176
     1
 73
     0
176
     1
 90
        0
176
     1
 40
0.6
176
     1
 41
30.0
176
     1
 63
     7
421
 16777215
176
     1
 74
     1
176
     1
 91
        4
176
     1
 64
     7
176
     1
 65
   257
176
     1
 75
     1
176
     1
175
     1
176
     1
 42
1.0
176
     1
 92
       12
176
     1
 66
     7
176
     1
 43
1.0
176
     1
 76
     1
176
     1
 77
     6
176
     1
 78
     2
176
     1
 67
     7
176
     1
 79
     5
176
     1
170
     0
176
     1
171
     0
176
     1
290
     0
176
     1
 93
        1
176
     1
 44
0.0
176
     1
173
     0
176
     1
  0
VISUALSTYLE
  5
30
102
{ACAD_REACTORS
330
29
102
}
330
29
100
AcDbVisualStyle
  2
Wireframe
 70
     5
177
     2
291
     0
 71
     0
176
     1
 72
     2
176
     1
 73
     0
176
     1
 90
        0
176
     1
 40
0.6
176
     1
 41
30.0
176
     1
 63
     7
421
 16777215
176
     1
 74
     1
176
     1
 91
        4
176
     1
 64
     7
176
     1
 65
   257
176
     1
 75
     1
176
     1
175
     1
176
     1
 42
1.0
176
     1
 92
        0
176
     1
 66
   257
176
     1
 43
1.0
176
     1
 76
     1
176
     1
 77
     6
176
     1
 78
     2
176
     1
 67
     7
176
     1
 79
     3
176
     1
170
     0
176
     1
171
     0
176
     1
290
     0
176
     1
 93
        1
176
     1
 44
0.0
176
     1
173
     0
176
     1
  0
VISUALSTYLE
  5
3C
102
{ACAD_REACTORS
330
29
102
}
330
29
100
AcDbVisualStyle
  2
X-Ray
 70
    25
177
     2
291
     0
 71
     2
176
     1
 72
     2
176
     1
 73
     1
176
     1
 90
        1
176
     1
 40
0.5
176
     1
 41
30.0
176
     1
 63
     7
421
 16777215
176
     1
 74
     1
176
     1
 91
        0
176
     1
 64
     7
176
     1
 65
   257
176
     1
 75
     1
176
     1
175
     1
176
     1
 42
1.0
176
     1
 92
        8
176
     1
 66
     7
176
     1
 43
1.0
176
     1
 76
     1
176
     1
 77
     6
176
     1
 78
     2
176
     1
 67
     7
176
     1
 79
     3
176
     1
170
     0
176
     1
171
     0
176
     1
290
     0
176
     1
 93
       13
176
     1
 44
0.0
176
     1
173
     0
176
     1
  0
DICTIONARYVAR
  5
79
102
{ACAD_REACTORS
330
76
102
}
330
76
100
DictionaryVariables
280
     0
  1
1:1
  0
DICTIONARYVAR
  5
78
102
{ACAD_REACTORS
330
76
102
}
330
76
100
DictionaryVariables
280
     0
  1
STANDARD
  0
DICTIONARYVAR
  5
77
102
{ACAD_REACTORS
330
76
102
}
330
76
100
DictionaryVariables
280
     0
  1
STANDARD
  0
DICTIONARY
  5
1A
330
19
100
AcDbDictionary
280
     1
281
     1
  3
BUMPTILE
360
1C
  3
DIFFUSETILE
360
1B
  3
OPACITYTILE
360
1F
  3
REFLECTIONTILE
360
1E
  3
REFRACTIONTILE
360
20
  3
SPECULARTILE
360
1D
  0
DICTIONARY
  5
12
330
11
100
AcDbDictionary
280
     1
281
     1
  3
BUMPTILE
360
14
  3
DIFFUSETILE
360
13
  3
FBXASSET
360
109
  3
OPACITYTILE
360
17
  3
REFLECTIONTILE
360
16
  3
REFRACTIONTILE
360
18
  3
SPECULARTILE
360
15
  0
DICTIONARY
  5
22
330
21
100
AcDbDictionary
280
     1
281
     1
  3
BUMPTILE
360
24
  3
DIFFUSETILE
360
23
  3
FBXASSET
360
BA
  3
OPACITYTILE
360
27
  3
REFLECTIONTILE
360
26
  3
REFRACTIONTILE
360
28
  3
SPECULARTILE
360
25
  0
DICTIONARY
  5
E61
330
67
100
AcDbDictionary
280
     1
281
     1
  3
ACAD_XREC_ROUNDTRIP
360
E62
  0
DICTIONARY
  5
E5F
330
65
100
AcDbDictionary
280
     1
281
     1
  3
ACAD_ROUNDTRIP_2008_TABLESTYLE_CELLSTYLEMAP
360
E60
  0
XRECORD
  5
1C
102
{ACAD_REACTORS
330
1A
102
}
330
1A
100
AcDbXrecord
280
     1
270
     1
271
     1
  0
XRECORD
  5
1B
102
{ACAD_REACTORS
330
1A
102
}
330
1A
100
AcDbXrecord
280
     1
270
     1
271
     1
  0
XRECORD
  5
1F
102
{ACAD_REACTORS
330
1A
102
}
330
1A
100
AcDbXrecord
280
     1
270
     1
271
     1
  0
XRECORD
  5
1E
102
{ACAD_REACTORS
330
1A
102
}
330
1A
100
AcDbXrecord
280
     1
270
     1
271
     1
  0
XRECORD
  5
20
102
{ACAD_REACTORS
330
1A
102
}
330
1A
100
AcDbXrecord
280
     1
270
     1
271
     1
  0
XRECORD
  5
1D
102
{ACAD_REACTORS
330
1A
102
}
330
1A
100
AcDbXrecord
280
     1
270
     1
271
     1
  0
XRECORD
  5
14
102
{ACAD_REACTORS
330
12
102
}
330
12
100
AcDbXrecord
280
     1
270
     1
271
     1
  0
XRECORD
  5
13
102
{ACAD_REACTORS
330
12
102
}
330
12
100
AcDbXrecord
280
     1
270
     1
271
     1
  0
XRECORD
  5
109
102
{ACAD_REACTORS
330
12
102
}
330
12
100
AcDbXrecord
280
     1
 70
     1
 90
1959938040
 71
     1
  1
AAB97225-6735-412C-A531-876013354EA5
311
504B03040A0000080000AE51E9423DEE336E79000000790000001B0000006175746F6465736B2D64657369676E2D7061636B6167652E786D6C3C3F786D6C2076657273696F6E3D22312E302220656E636F64696E673D227574662D3822203F3E3C666F726D6174733E3C666F726D61743E687474703A2F2F736368656D612E
311
6175746F6465736B2E636F6D2F64657369676E2D7061636B6167652F323030393C2F666F726D61743E3C2F666F726D6174733E504B0304140006080800AE51E942D486FD9CA0000000F4000000130000005B436F6E74656E745F54797065735D2E786D6C7D8EC10E82300C865F65E91D8A1E8C310C0EEA1BF002731658846E
311
D98AC1B77784ABF1D8FE5FBFBF75BBCE937A534CCEB38643598122B6FEE978D0B0485F9C41B54DDD7D022595594E1A469170414C76A4D9A4D207E29CF43ECE46F218070CC6BECC4078ACAA135ACF422C856C0E68EA1BF5669944DDD7BCDE7B1F8E415D77AECB980613C2E4AC91FC167A2B244592486606FC29C8FD7F045B9A
311
EF7053A7E60B504B0304140006080800AE51E942D79BA1F5EA0000007C01000008000000636F72652E786D6C8D90416EC3201045AF82665BE180895BDBC2446A6D9FA01740401C94182C03558F5F9C3852BBEB6A467FFE9B197D7EFA9E6FE8CBACC17AD7012D0820E394D7D64D1DA478C635A093E0ABF7F1970D9093B3E960
311
9341F069F569D925E55D342E66D5796D76518660222075CB4D07415DCC2C0B996276846BB14875959329E8B3CB704A56A3C711ABF33E7BB6660551B1E6E3B52F7B7C1C68858F3DAD71435883C7FA7D24E338D4434FF86183058F767EDE57AB91D1681025A10C93374C9A4F4A5ACADAB2792155CB32B4D9FF4069D1FF849275
311
9195FBBB0F2C80A0F991FB40F0C396452EF7A072DD72133F504B0304140006080800AE51E94255019EA25F0000007C00000007000000636E782E786D6C4DCB3B0E80201045D1AD90E915ED2CF8AC45050C11660C8261F98AB1B07AC9C97D42D718D865D3E909258CFD00CCE24AC6E326A164D74DC0B4128928FF326038472B
311
A13128B1252AC747C6BAB984FC68F0B87FE8960A5C09FE86CFB69FBA01504B0304140006080800AE51E9425F8273F367010000020300000C0000006662782F636F72652E786D6C8D525B6E833010BC8AE5DF0A6C206943641CA9259CA01770C0A156C046C646397E9747445345518464AC999DDDD90176B8B60D1AA4ED95D1
311
198E428A91D4A5A994AE33ECDD39D86174E0CC1AE3FE9461A4452B333CC298B3DA1ADF2D5069B493DA01AA4D251750F4BD7418950D5C32DC973FB215A1F00E2AFA4BD889F2226A194621D050C759EF2C1840F390F1C4FC7CBA3232E39C79AFAA8555154C5367252DE6DB24FD7ACFE33CD81CA36DB0C9A35D90D2240D8ADD67
311
418BE2B83BE6949151CC9953EDCD5D69A570B2C23CA65112D08F80A6DF11DD47C93E4EDFE8769F80682CBF13F9AE7A51E4957649BCD89D653DE6111899887FDB42440EF562003F8433328608AF29E1FBA0211008D9895373DBE302D0204B67EC0698CAF8951A44E3254CA5687A189959E83C3580CD1EF6899FF479DE033EA0
311
D03558130EAE27EFC6E96C9EBA44D1491B0CEE8AB4B1AD685673B3C5F55C073D9497A631F615355956254B9864FC7BF92F504B0304140006080800AE51E942F97FF0967E0000009D0000000B0000006662782F636E782E786D6C4DCCDD0A832018C6F15B91F7DC65D9BE408DFCD87DC4B290990EA76397BF1A1DECE8811F0F
311
7FD67D168FDE36BD5C0C1CEA030164C33D8E2ECC1C4A9EF0055027588A31FFDD008561B11C3606C1E614CB73A7D14E43F17955EFC26347459A9EB63782A53414B7466B2C8D54F87C6CAE54F627A2550D9560D5AFB4EE16165F504B0304140006080800AE51E9427C2128AF2E01000014020000310000006662782F43303241
311
333446302D424245332D344544442D424542432D3735323933424136304443312F636F72652E786D6C8D515B6EC32010BC0AE22B5585CDC37938C24471929EA0172036495162B07854397EA176A4F62F3F2C9A9D991D58BE7B0C77F0AD9CD7D63490141802653ADB6B736D600C17B4816027B8B336FCA14160E4A01A986128
311
F8D5D938CE50674D502624D4D85ECDA0F45E0508BA7BBA34D0775F6A90858C2131FCAD1865779357559022B5134F701F5C0A00A621F984E280E99E551F18B5ED89A1EA743CA2F6D41ED07A496BD6EE57F87820BC9C8482C7A8FB59AEFB14475FB472AF9A64B1E0410FCFF89D5332A81E0A8A0943788D70FD49F096B02DADDF
311
F172CB302F33FD9F288EFD8BA2A84D60748E3BC93C14E9355343F0DEC6F3FD19463D46EB02C8F3165E756F50E002135A53C636BC9CA8E90392E7AA9A3D7DB02E7DF0E2764E6CB2E465365E5582977947A9FC2E30D5BC4FF103504B0304140006080800AE51E942C52898844F01000033030000300000006662782F43303241
311
333446302D424245332D344544442D424542432D3735323933424136304443312F636E782E786D6CD593BD6E032110845F05D146F7E7739CD8E2B094224F90222D076B9B9883133F51FCF6596CECB84991320D3ACD0E33AB4F1CDB7E4D867C820FDAD98176754B0958E994B6FB81A6B8AB9E29D972E69D8B77364AAC9860A0
311
59A69CEDBD4B739114EC44321155A3EDB1881E824B5E424039DF24C6496130006C9550846904A540919B11BF76E0711514C713890720AF2FEFC48D1F2063604D4EE1ACC91D9CE5B334DD992891468430D0200F30895AA4E8148463AD441475575FBB7ED9E92789E40BD7CAE435C9E503CD27E565A31A39B206879C85E8915E
311
31C5D30C948B79365A8A88909BB3F1E2E12C691B57CBE2D508DEA3BB5BF5CB25869D679C453D4171480F2282A27CD1767DD53E55EDFAAD6B375DBF59AC1FDAC74DDFB226DB391B9D33E512C680773391CE46B091F28E3579FC1BBEE2234A7B64EDFCE90F20114069BDD0B965FC673ECDF97D232E8F7F01FF06504B03041400
311
06080800AE51E9423E1FA143A505000081100000340000006662782F43303241333446302D424245332D344544442D424542432D3735323933424136304443312F6F626A656374732E786D6CAD57D96EDB3814FD1541F332F320D9F29265A0A870ECA630DAB4458D14F360C0A0254AE1845A4052A9335F3F8712254B8E9D7A
311
067DD1C2E5F2DE73CF5DE8BFDBA5DC7AA642B23CBBB13D77685B340BF38865C98D5DAAD8B9B2AD77812FF25C7596D95646527A63EB613BF013919785198A684C4AAE0E46EF6EFFB26448336A5B212752DED8327CA4297149A9F288CA2737228AB849BC733DB75ED8179B08523C1E082D88A09982A618CF20C5AA95F2FABF43
311
7B10F8033D1FF8FA69568D4FAF1A54F6F4CF679954240B5F1D762066EC4D16EF47D36B673A998C9DC9C5C8736EEF6E178E77391ECE2FE6F3EBD9FB6B1C2C958024A389A0B11D7C00368285FEA09E0AFC92656A3C324B8C8306823E33ED293B18599E3FA8D7B4D619238FA91FE65946C30A2BA051D9674447B4A059049F332A
311
A15907A161FFD7D33876A6C7FADF1CD91D3E0F81EE8E8EA046F7E6DDD534DFFE0D13E4390C12926A06D6581A436BAE0EF7086FF39C9B3926AD94282A18E116675B41C48B1D60A95E12F83D319AC9424783B6C00EE0857ABA4F1784D1CF797E4CCBB8E45CD3D80EAA28D82056A8929566EC1F2AF6DA7791814EF09566C39531
311
48BD14D40EAE6B8A5C1DB0A906D28A3949E07298A9778E470786CE759C2E1776F0F16EBB5BE9D83D7E7821F2820AA5E9036A358E6BDE1A25A3937796E7F406FB40953D28DF80FC6784FA5E15F84DB0DD643731A728413219E722856FACA1E50CF1185A5EF5D4DF9D2F7FD06EEE7BEF149E70B686EA17E0D9B7A1EBCB0E9C81
311
FF0CC2E7626C4C5B8584236DDCB30C006992583CC710F270BCDDD9C112590E5919BB080F3C980C759FF1E90F8C18248AEAA4CE3B03960769F18C040DD82A46428D9AFC46C1BD9F5EA5B3EA60B3EC14BCD35F42D7D962F571558A9884F4DEC4F482C62C630A256ECF9BAE423DCC7B163DD1971FB98860E86BBC575DBC537394
311
04DA1A730D7CD2E474FDB33FB97740887D49AED38DFF931360842EAC1DF9F74C86947392D1BC6CCE7DB37EA06CD410EB60D74C6E0BCCBEB08034F5CC410CA2488782151AC4B65AB549D33D61DDC3F233186907B72F9FC84B377B6DF7B937CC792E36DB974D9D968E42FDBDCF6D83C1404B01DDAB2069E2DF80BE89581C9712
311
49F008AEDF97F3AEEF745A408A68A4D6D13281FD082E220C691BB9A8D682A092E6D986A16E22EE8E1ED0950F480D032A81A7349694C71BC679996E62C6518D3629294EC0F1FFF5DF9669B121695E66EA84EC9EEAA80E7DDD7BEC953F880A1FED6055BD9D5BE4DE884627C8A06BC911AC7AAE9DCD6EAF2F47A3A97371399E3A
311
136F347766D3B1E75C5D5E0CBDF1783A793F4396301A554D54E037A5A61BD1F0124A9B5F0A66DCF7B044FC98246007F744C9F5873A3C9BF7C3D2452FEC0FB007F5B2DD388B9ED1F7D1E8E702F62B8F0A5AA605A729CD14D13174AF3FF837823EA3A74C3DBE4C4942CF90F2E5C3EAC0188C9CB1EFAB8E77FAE360AF199DEB80
311
3C2A443D96E936238C1F6C4C6A24DD224B0C7E8D4FDA775D689A5FFD671C83CE54E69C45C8839195D03CA50AD9F08C2224522A41BD6E4F1F99BBC719BB9FEB0E51912DA78D268F044D3297080B90BC0C557FDCFA0D4D9DEEAB6E6C945BF7090F93296C0B9CB9B1D1A42B1652E96E51A0752B54090797BA9D3C384BB284A3D7
311
AE37B5FFED2E8D4DAF24B74BCEE99F8C5D750A3706208D14E81BD010C13B9532815FE966E6C3FF6478A38E45143EB7A56A6DD90FB4C654C720446BA3CC6D014DCC93397A87407DDB2CCFADD6F41039EB96F526096AA98E2222A96E0A5A3FA3D26CF175800EC55A7EB10A5E26F0E5F9921C4141E652073858045618990551A0
311
EAFCCFF55791E3269B5A770C14B07EDF5D5DFCB19EE7699A67F5D07A66EEC3D6EA11B7DB688DE440F5B544AE47436FB4AEAE03E686B2D912495D12C9270CC0B382B540F7DC0F5ED67746D4A17AA25D37D0AE3860E8726199C236815043976E6ED5E0A0F1C8A88518D2574A1D31DD05C59B378241B5142A08F4F2C1BF504B03
311
04140006080000AE51E942000000000000000000000000350000006662782F43303241333446302D424245332D344544442D424542432D3735323933424136304443312F76657274696365732E62696E504B0304140006080800AE51E942F270F1330600000004000000360000006662782F43303241333446302D42424533
311
2D344544442D424542432D3735323933424136304443312F747269616E676C65732E62696E636660600000504B0304140006080000AE51E942000000000000000000000000370000006662782F43303241333446302D424245332D344544442D424542432D3735323933424136304443312F617474726962757465732E6269
311
6E504B0304140006080800AE51E942D5987DFC8F00000041010000360000006662782F43303241333446302D424245332D344544442D424542432D3735323933424136304443312F6469726563746F72792E786D6C858F410EC2201045AF4266AF15DDB800BA74E7C21B903225242D6328188F2FA5C4183471359997F9FF81
311
E89FF3C41E1816475E02DF1F80A11FC8386F25A438EECEC07A250251FC3803E6F58C12560C4AD840E95E91C151A72936F496F35732D860FE635F62C8F2DA16B505C545B74125BAA2FA9E05D7CC053D063734D5C7665FD55B6B8D15D5E9BFEAFD8490FFA45E504B0304140006080800AE51E94208F56B4DFE000000A0010000
311
3B0000006662782F43303241333446302D424245332D344544442D424542432D3735323933424136304443312F7265736F75726365732F636F72652E786D6C8D504B6E833010BD0A9A6D65B071D242641CA9219CA017B0CC24B1126CE44FD5E3D7042AB5BB6E6646EFA3797AE2F8353D8A4FF4C138DB012B291468B51B8DBD
311
7690E28534501CA5F0CEC55F3228AC9AB083050629AEDEA57983B4B3116DCCA875236EA00A012314FA918F0E82BEE1A44A956256847B392B7D57572C5999E9AC9322449F0314EB936582F4185CF21A83A856568A94CCB869CC987F9A8B410F72CFDBD36B5F9FC8EECCF664D7B386B494B76468DE073A0CE7E6DC53512D6629
311
A2997E326A8F2AE208B2A68C13FA4668FBC1E881F143DDBED0FD8167D322FF634AF3F84F533236F27A8BBBDA024896833C0929AAA5AFBC9E65E6BD742BBF01504B010214000A0000080000AE51E9423DEE336E79000000790000001B00000000000000000000000000000000006175746F6465736B2D64657369676E2D7061
311
636B6167652E786D6C504B01021400140006080800AE51E942D486FD9CA0000000F40000001300000000000000000000000000B20000005B436F6E74656E745F54797065735D2E786D6C504B01021400140006080800AE51E942D79BA1F5EA0000007C010000080000000000000000000000000083010000636F72652E786D
311
6C504B01021400140006080800AE51E94255019EA25F0000007C000000070000000000000000000000000093020000636E782E786D6C504B01021400140006080800AE51E9425F8273F367010000020300000C00000000000000000000000000170300006662782F636F72652E786D6C504B01021400140006080800AE51E9
311
42F97FF0967E0000009D0000000B00000000000000000000000000A80400006662782F636E782E786D6C504B01021400140006080800AE51E9427C2128AF2E0100001402000031000000000000000000000000004F0500006662782F43303241333446302D424245332D344544442D424542432D3735323933424136304443
311
312F636F72652E786D6C504B01021400140006080800AE51E942C52898844F010000330300003000000000000000000000000000CC0600006662782F43303241333446302D424245332D344544442D424542432D3735323933424136304443312F636E782E786D6C504B01021400140006080800AE51E9423E1FA143A50500
311
00811000003400000000000000000000000000690800006662782F43303241333446302D424245332D344544442D424542432D3735323933424136304443312F6F626A656374732E786D6C504B01021400140006080000AE51E9420000000000000000000000003500000000000000000000000000600E00006662782F4330
311
3241333446302D424245332D344544442D424542432D3735323933424136304443312F76657274696365732E62696E504B01021400140006080800AE51E942F270F13306000000040000003600000000000000000000000000B30E00006662782F43303241333446302D424245332D344544442D424542432D373532393342
311
4136304443312F747269616E676C65732E62696E504B01021400140006080000AE51E94200000000000000000000000037000000000000000000000000000D0F00006662782F43303241333446302D424245332D344544442D424542432D3735323933424136304443312F617474726962757465732E62696E504B01021400
311
140006080800AE51E942D5987DFC8F000000410100003600000000000000000000000000620F00006662782F43303241333446302D424245332D344544442D424542432D3735323933424136304443312F6469726563746F72792E786D6C504B01021400140006080800AE51E94208F56B4DFE000000A00100003B00000000
311
000000000000000000451000006662782F43303241333446302D424245332D344544442D424542432D3735323933424136304443312F7265736F75726365732F636F72652E786D6C504B0506000000000E000E00800400009C1100000000
310
504B03040A0000080000AE51E9423DEE336E79000000790000001B0000006175746F6465736B2D64657369676E2D7061636B6167652E786D6C3C3F786D6C2076657273696F6E3D22312E302220656E636F64696E673D227574662D3822203F3E3C666F726D6174733E3C666F726D61743E687474703A2F2F736368656D612E
310
6175746F6465736B2E636F6D2F64657369676E2D7061636B6167652F323030393C2F666F726D61743E3C2F666F726D6174733E504B0304140006080800AE51E942D486FD9CA0000000F4000000130000005B436F6E74656E745F54797065735D2E786D6C7D8EC10E82300C865F65E91D8A1E8C310C0EEA1BF002731658846E
310
D98AC1B77784ABF1D8FE5FBFBF75BBCE937A534CCEB38643598122B6FEE978D0B0485F9C41B54DDD7D022595594E1A469170414C76A4D9A4D207E29CF43ECE46F218070CC6BECC4078ACAA135ACF422C856C0E68EA1BF5669944DDD7BCDE7B1F8E415D77AECB980613C2E4AC91FC167A2B244592486606FC29C8FD7F045B9A
310
EF7053A7E60B504B0304140006080800AE51E942159F43DCEA0000007C01000008000000636F72652E786D6C8D90516EC3201044AF82F6B7C201E3288E858992383E412F80803828315806AA1EBF3871A4F6AF5F3B1AE6B1ABE187EFF181BECC1CAC772DD08200324E796DDDD0428A575C033A083E7B1F7FC50039399A1616
310
1B041F669FA6D552DE45E362769DD7663565082602528F2C5A08EA664659C8147322DC8B49AABB1C4C41DF2AC329598D5E4BACCEFFD9AB353388FE7C3E5E2A76C135AD08AE6877C4A7BE3B61CA763D2BEB6DD61DDF2CB0E0D18EEFFD6A36321A0DA2249461B2C364FF4949435953EE3FC8B661846F96F81F284DFA9F50B22E
310
B2723DF7850510341FF27C107CB37491C7B3A83C97DEC40F504B0304140006080800AE51E94255019EA25F0000007C00000007000000636E782E786D6C4DCB3B0E80201045D1AD90E915ED2CF8AC45050C11660C8261F98AB1B07AC9C97D42D718D865D3E909258CFD00CCE24AC6E326A164D74DC0B4128928FF326038472B
310
A13128B1252AC747C6BAB984FC68F0B87FE8960A5C09FE86CFB69FBA01504B0304140006080800AE51E9427B99DD5366010000020300000C0000006662782F636F72652E786D6C8D52ED8E8320107C15C2DF8B026AD38F204D3F9FE05E802AF54C150C82E9E3DFFAD178BD344D63826466677776946FEF75853A65DBD2E814
310
B39062A47466F2521729F6EE1AAC30DA0A6E8D717FCA30D2B25629EE612C78618D6F262833DA29ED00D526571328DB56398CB20A2E296EB31F55CB507A0715ED2D6C647693850A590834D409DE3A0B06D038A43FB1B85EEE9C8CB8E0DE97F9C496394C2BAFA5B2589C0F87DD29894FC18A253448D87117ECCFC77DC0E2E539
310
8E560BB81F39E9C582BBB27EB8CBAC924EE5584494C5015D0674FDCDE886C59B68FD45179B9872D2973F897C937F28F2A5767134D91D652D160C8C0CC4BF6D2122875AD9811F2238E94384D790F073D0100884ECE4A57AEC7103A8539933360126377EA63A59790553291A1E4E46163A0F0D60B3977DA2377DDEF7800F2875
310
01D6A483EBC5BB7E3A1FA74E5134CA069DBB236D6C2DABD9DC68713EE7412FE599A98CFD444DA655C91426E9FF5EF10B504B0304140006080800AE51E942DE1540C07D0000009D0000000B0000006662782F636E782E786D6C4DCCD10AC2201805E05791FFDEE64AD3401D4DF23D467363E4344CA3C7CFC52EBA3A878FC391
310
DD67F5E8EDD26B8941417B20805CB8C77109B38292272C00755AA618F3DF0C501856A76063D0724EB13C771ADD34149FABFA253C7664FD858AD60ACCCEBDC594D6763D598AE98D7372E4C618C2A0D1B2F93DD5DC8EF517504B0304140006080800AE51E9426AD9BACC2A01000014020000310000006662782F354239343831
310
46382D353642462D343446382D413346342D3445373730323743434330352F636F72652E786D6C8D515B6EC32010BC0AE22B55651BFC7684899AA839412F4080242831583CAA1CBF503B52FB971F16CDCECC8E76C9EE31DDC1B7B44E193D429C2308A4E646287D1961F0E7AC8760478935C6FFA141A0D92447986048C9C59A
310
30AF1037DA4BED23AA8D902BC89C931E027E8F9F113A7E9513CB59F091E16EF9CCF88D5D648EF3D88E3C4A9CB731005886A417D2663FD43D3EF659D3EE8F595DC7DF4775ACB3FAB3EB50D91D0E07D490621152128212AB5C8918479D95B4AF9A2431255E4DCFF8DC4AE6A580B444B8CA5097A1E10BA32DAEB6E5F08E9A6D85
310
4891E8FF4461162F8A82D2BE2AD7B88BCC418A49B1342811269CEECF30F2311BEB419AB77192BF418A7284CBB61CFA9E140B352E207AB6F5EAE9BCB171C19BDB29B2ABD5B8AD2929D28D62F93D60ACE99EF407504B0304140006080800AE51E942A38F57935601000033030000300000006662782F35423934383146382D35
310
3642462D343446382D413346342D3445373730323743434330352F636E782E786D6CBD93CD6E022114855F85B06DE6CFB1560D8349177D822EBA45B82A9581093F4D7DFB5E14AD9B2E9A34DD90C9B987736EBE306CF3391AF2013E686707DAD52D2560A553DAEE079AE2AE5A52B2E1CC3B17EF6C945831C240B34C39DB7B97
310
A62229D8896422AA46DB63113D0497BC848072BE498C93C26000D82AA108E3169402456E46FCDA81C75550DC9E483C0079797E236EFB0E3206D6E414CE9ADCC1593E4BD39D8912694408030DF200A3A8458A4E4138D64A445177F5B5EB879DBE9348BE70AD4C5E935C3ED07C525E36AA91236B70C859881EE915533C4D40B9
310
9826A3A58808B9391B2F1ECE92B671312F5E8DE03DBAFBD962B9C4B0F38CB3A847280EE941445094CFDAAEAFDAA7AA5DBD76EDBAEBD7B3D543FBB8EE5BD6643B675BE74CB98431E0DD44A4B3116CA4BC634D1EFF84AFF888D21E593B7FFA054804505A2F746E197FC9A75BF4F3F93FF269CEEF1B7179FC0BF817504B030414
310
0006080800AE51E94230CFAC3C630700009A1B0000340000006662782F35423934383146382D353642462D343446382D413346342D3445373730323743434330352F6F626A656374732E786D6CED595B73A33614FE2B0C7D691F8C8D2FD9A443E838CEEE8EA74DBB537777FAE019460699A81182914436EEAFEFD1050CC424
310
B89BBEF5C106847474CE77AE3A043F3D65D479C45C909C5DBBBE37711DCCE23C212CBD764BB91F5DBACE4F61C0F35C36A6B90E4319BE76D5B01B0629CFCBC20E25788F4A2A3BA31F6EFE74448C19769D982221AE5D11DFE30C79A8947982C583972089BC74FFE4F99E99D8269B7254DC7788168863268153186740C5314CF9
310
EDC7893B0E83B17A1F06EADFCE9A0D9A35EF9F35D652B7B9244C48C4E2672C75C8CC06B134F3E7B7EFA78BABD1623E9F8DE617537F74F3E1E676E4BF9B4D5617ABD5D5F2FD15B0B7CB736A654A70815902FA3BB8A11F8CD59B5A748BC029AEE39C311C6B20012A2D569720C102B66AC037693FFA4AA2C66B2D61E379AEDE5B
310
161AC3B33695BE59C38068D10541EC7695C4D5B5295FBEFB0B0417438C920B2C815B213968D7C2C3C12BDC70128CCD6818EC8EBA20C2C990C49C20EA50B2E388835260AA9A1206668125A39C8303294749A035675EB76D0B3CF375D739C5E5BEA45479861B6AC78AC0FDB0149A33F237E647EE9BC8004F206D4998BCB45CCA
310
4381DDF02A18EBC1305097D9D4BE34403A7B8A52A111316F3B82AE94EBAF6FDDF0E70FBBA78D0A07A7372F785E602E95D1293D6ABEC090ED55A164B7F507694E2D00610CA876E51194DF01F95F217A1C5901BD71F2347F9ADBB9922326F639CF4037CEC4194DE06FE2F8FA5FDD37EE8271BDB8ADBD3E3CC14D155497DF8E67
310
5B068D95E5BF0167183C82C1E77C665F6D6244C19EEF08038094913834872108EDFBDD931BAE217042A0875588863E880CEC3EC26D30B6648E5AA9DCCB7A1D0344ED1EB3214A02D8B445021B3D7AFA08D98393F8A8A6A6887DF02EDEC45C97B79B9F3725DFA318DF599FBEC57BC28884AC799AA116E62D891EF0E16BCE1310
310
F439DE9B26DE99DD4A00DA0A73057C5A81A01E8E3BB73688615D9AAB7013BCB20308A1727583FE1D1131A614319C97D5BE757453865A7BBCAD19DC706A209E4D3B26CCF12351550538CD71468B51C8FB31278502D10D3F1AC9EAA0E9F548F779FD2B58643DBF67D69A41E86588FEA183D6091C5A965D216D81A805DE1DC379
310
9CD39C47BB4364229D0BB504B0D1F6962F2DA210EB8D921415F020ED775548498DB45142F6FB52405C3DC1E297F5AA690E136FE62F9CE67FC719E7106DC17711B77ED7D92322194A71B44749DF76CDDD6ADA4293EC21CDF19E825CE491C84384643449707A0E346711BF7A53EA29CD85200C0BC85727C16FA231F12090186D
310
562C2BAD76802622CAB044F41C0414991E7075DAD1356E0CA5C3EB3CD6D6FB92C69A44FF238BE0086AC99C45044A51C821AF32EE7B0B88216D740DCA1D7CC1DA2ADA5A0C5A4209111FA2AF98A4F7F21CD40DF91EDC6338929432CA0B1483590F20FBCC5794523BBCEF50FCA0F2471497F4AD0C4460BA8F08A56516C18F3038
310
790C71ED3A30BD884283B8897D126750942159F2219B5C2C26CFF631354337043636DA130A613BCA50D1837A2B20EA7AC4A9C1B7D47B94BA2BB32242595EB24186E2CDBADE64C977D5AAC80EE457958A503656842DC130204CD659B58AD960EA3AB0821BE940758804CA0A6A4E61AF241EBFF6264DB977036EFDF46D37C8A0
310
F0EBD15E33A2CE2B182C8FADC2407C4532BE77C38DBE8E6EA0FE4E70724CF555ADD9AC00013115C94B4EAC8A3EAFA1BCB1359A1BDE2129B61F4DD6ADAE9FD71E743F8231AC81DAA55EB85640679849A42A933B75437F4710825B34CCF85AE5D473A82C9344578D887E207DEA6C9511AD4D33E215F798E519FCD896B0989609
310
DEA2443C447792461BA258B7527A19A9307E51C0DF3E6E3AF0C0C800913EA9020F7FEDACB5A32B552E9D2422EFCB6CC7108120D8122D35BAF10A965A8D545AAEAFEA4C017517189855F1FCFF9345B31DF1FFC922B586F14D278B9BC32FE8D0EC8B34D279ACECFAAC63409D9F1495B73806E8B6434DB5CE2226995BF9AD3345
310
1014AB283FB81AAB828621D8C7F1BFCEDA7D59D06CD7E1FFBCACED3FAB38CECA2AADC9AA4B75A2725D3773D8727973F56E3A5D8C2EDECD16A3B93F5D8D968B993FBA7C7731F167B3C5FCFDF2786CD08E1A067530D3B90B9E4D50AB86D593C500BAB222A72481D37CE2A41862BE8433FD80F639CFB080E4D96C7627B6293F60
310
F5A3E9734AB4A3B8E2E41E4183980A48EB805119CBF6B8F31DB426251CB4AF5D681A790FF067ADD27520F35CBBD02A9024C6C2DB419B4935F4347148B93AF75B62800F62A94A896651FD5CAF52D8B4C27F3D65481AB072B57A1850B815D0FD6A7528346F96A7F82CC12B761C24E176574AA8D68C2CC7815A18BDCD51FD4636
310
4AD883DDFA095CF765B17C4FCF692132E893C18B4660A88E24E2A9EE772BC62C4BCBDB4F63E8B339EBDF9C829629E87238A511C760CCA52AA8C08AC02A2CCD024930D5D58FDB4F3C874F3C99A3AB22E7FBA7CB8B1FB6AB3CCB726686B64B389525F0A1C8D9DCC3679F640BC50356CD75B19D4EFCE95637B56D9F3DDA21813D
310
5515C140554C28413A260776F9AC4165DB9763A58ACEF4F5AD63832878B5B1A3673D5EF391CB011F529F5394C7683FAFA47DB1AF3DD653C1263874A4C37F00504B0304140006080000AE51E942000000000000000000000000350000006662782F35423934383146382D353642462D343446382D413346342D344537373032
310
3743434330352F76657274696365732E62696E504B0304140006080800AE51E942F270F1330600000004000000360000006662782F35423934383146382D353642462D343446382D413346342D3445373730323743434330352F747269616E676C65732E62696E636660600000504B0304140006080000AE51E94200000000
310
0000000000000000370000006662782F35423934383146382D353642462D343446382D413346342D3445373730323743434330352F617474726962757465732E62696E504B0304140006080800AE51E942D5987DFC8F00000041010000360000006662782F35423934383146382D353642462D343446382D413346342D3445
310
373730323743434330352F6469726563746F72792E786D6C858F410EC2201045AF4266AF15DDB800BA74E7C21B903225242D6328188F2FA5C4183471359997F9FF81E89FF3C41E1816475E02DF1F80A11FC8386F25A438EECEC07A250251FC3803E6F58C12560C4AD840E95E91C151A72936F496F35732D860FE635F62C8F2
310
DA16B505C545B74125BAA2FA9E05D7CC053D063734D5C7665FD55B6B8D15D5E9BFEAFD8490FFA45E504B0304140006080800AE51E94206346D44FD000000A00100003B0000006662782F35423934383146382D353642462D343446382D413346342D3445373730323743434330352F7265736F75726365732F636F72652E78
310
6D6C8D504B6EC23010BD4A34DBCA891D8380C83102524ED00B58CE102C888DFCA97AFCDA904AEDAE9B99D1FB689E9ED87FCDF7EA137D30CEF6C06A0A155AED4663A71E52BC902D547B29BC73F1970C2AAB66ECA1C020C5E45D7A2C907636A28D19B56EC405542160844ADFF3D143D0579C55AD52CC8A70AB1F4ADFD48435AB
310
339D755284E87380EAF5A44C901E834B5E6310CD8B952225332E1A33E69FE662D0833C9F4E87F7151FC896AD2859B1E1408EE7E14818DF9C79BB5DE77B104D314B11CDFC93517B541147902D659CD00DA1BB0F463BC6BB76F746D71DA7A229F23FA6F418FF694AC646DE2E715FB60092E5204F428AA6F495D7B3CCBC4BB7F2
310
1B504B010214000A0000080000AE51E9423DEE336E79000000790000001B00000000000000000000000000000000006175746F6465736B2D64657369676E2D7061636B6167652E786D6C504B01021400140006080800AE51E942D486FD9CA0000000F40000001300000000000000000000000000B20000005B436F6E74656E
310
745F54797065735D2E786D6C504B01021400140006080800AE51E942159F43DCEA0000007C010000080000000000000000000000000083010000636F72652E786D6C504B01021400140006080800AE51E94255019EA25F0000007C000000070000000000000000000000000093020000636E782E786D6C504B010214001400
310
06080800AE51E9427B99DD5366010000020300000C00000000000000000000000000170300006662782F636F72652E786D6C504B01021400140006080800AE51E942DE1540C07D0000009D0000000B00000000000000000000000000A70400006662782F636E782E786D6C504B01021400140006080800AE51E9426AD9BACC
310
2A0100001402000031000000000000000000000000004D0500006662782F35423934383146382D353642462D343446382D413346342D3445373730323743434330352F636F72652E786D6C504B01021400140006080800AE51E942A38F579356010000330300003000000000000000000000000000C60600006662782F3542
310
3934383146382D353642462D343446382D413346342D3445373730323743434330352F636E782E786D6C504B01021400140006080800AE51E94230CFAC3C630700009A1B000034000000000000000000000000006A0800006662782F35423934383146382D353642462D343446382D413346342D3445373730323743434330
310
352F6F626A656374732E786D6C504B01021400140006080000AE51E94200000000000000000000000035000000000000000000000000001F1000006662782F35423934383146382D353642462D343446382D413346342D3445373730323743434330352F76657274696365732E62696E504B01021400140006080800AE51E9
310
42F270F13306000000040000003600000000000000000000000000721000006662782F35423934383146382D353642462D343446382D413346342D3445373730323743434330352F747269616E676C65732E62696E504B01021400140006080000AE51E9420000000000000000000000003700000000000000000000000000
310
CC1000006662782F35423934383146382D353642462D343446382D413346342D3445373730323743434330352F617474726962757465732E62696E504B01021400140006080800AE51E942D5987DFC8F000000410100003600000000000000000000000000211100006662782F35423934383146382D353642462D34344638
310
2D413346342D3445373730323743434330352F6469726563746F72792E786D6C504B01021400140006080800AE51E94206346D44FD000000A00100003B00000000000000000000000000041200006662782F35423934383146382D353642462D343446382D413346342D3445373730323743434330352F7265736F75726365
310
732F636F72652E786D6C504B0506000000000E000E00800400005A1300000000
  0
XRECORD
  5
17
102
{ACAD_REACTORS
330
12
102
}
330
12
100
AcDbXrecord
280
     1
270
     1
271
     1
  0
XRECORD
  5
16
102
{ACAD_REACTORS
330
12
102
}
330
12
100
AcDbXrecord
280
     1
270
     1
271
     1
  0
XRECORD
  5
18
102
{ACAD_REACTORS
330
12
102
}
330
12
100
AcDbXrecord
280
     1
270
     1
271
     1
  0
XRECORD
  5
15
102
{ACAD_REACTORS
330
12
102
}
330
12
100
AcDbXrecord
280
     1
270
     1
271
     1
  0
XRECORD
  5
24
102
{ACAD_REACTORS
330
22
102
}
330
22
100
AcDbXrecord
280
     1
270
     1
271
     1
  0
XRECORD
  5
23
102
{ACAD_REACTORS
330
22
102
}
330
22
100
AcDbXrecord
280
     1
270
     1
271
     1
  0
XRECORD
  5
BA
102
{ACAD_REACTORS
330
22
102
}
330
22
100
AcDbXrecord
280
     1
 70
     1
 90
1959938040
 71
     1
  1
2D2BF9D7-B358-49EC-A543-4F7ABA7EA165
311
504B03040A0000080000AD51E9423DEE336E79000000790000001B0000006175746F6465736B2D64657369676E2D7061636B6167652E786D6C3C3F786D6C2076657273696F6E3D22312E302220656E636F64696E673D227574662D3822203F3E3C666F726D6174733E3C666F726D61743E687474703A2F2F736368656D612E
311
6175746F6465736B2E636F6D2F64657369676E2D7061636B6167652F323030393C2F666F726D61743E3C2F666F726D6174733E504B0304140006080800AD51E942D486FD9CA0000000F4000000130000005B436F6E74656E745F54797065735D2E786D6C7D8EC10E82300C865F65E91D8A1E8C310C0EEA1BF002731658846E
311
D98AC1B77784ABF1D8FE5FBFBF75BBCE937A534CCEB38643598122B6FEE978D0B0485F9C41B54DDD7D022595594E1A469170414C76A4D9A4D207E29CF43ECE46F218070CC6BECC4078ACAA135ACF422C856C0E68EA1BF5669944DDD7BCDE7B1F8E415D77AECB980613C2E4AC91FC167A2B244592486606FC29C8FD7F045B9A
311
EF7053A7E60B504B0304140006080800AD51E942091F4AA3EB0000007C01000008000000636F72652E786D6C8D904D6EC3201085AF82665B61F3D3D8AE8589DCD43D412F8030715162B00C543D7E71E248EDAE6C66F478DFCCE889E3F77C455F660DD6BB0E68410019A7FD68DDD4418A67DC003A4AB17A1F7FD90039359B0E
311
3619A498569F965DD2DE45E362569D1FCD2EAA104C04A4AFB9E920E84F33AB42A5981DE1522C4A5FD4640AFAE8329C921DD17D891DF33C7BB66605D90F35AFD8E9809BBA69F0331B06DCD39AE2B7FE54E5F7CED92B13E5064B11EDFCD8AF57A3A219413242392635262F1F94B494B7AC7A22879613516EF63F505AC67F42C9
311
BAC8D97EEE1D0B20693EE4F62145B96591CB2DA85CB7DCE40F504B0304140006080800AD51E94255019EA25F0000007C00000007000000636E782E786D6C4DCB3B0E80201045D1AD90E915ED2CF8AC45050C11660C8261F98AB1B07AC9C97D42D718D865D3E909258CFD00CCE24AC6E326A164D74DC0B4128928FF32603847
311
2BA13128B1252AC747C6BAB984FC68F0B87FE8960A5C09FE86CFB69FBA01504B0304140006080800AD51E9424141AE2E67010000020300000C0000006662782F636F72652E786D6C8D525B6E833010BC8AE5DF0ACC230934328ED2343D412FE01887A2808DFC40397E97474453455140026B6667777680EEAE6D837A696CAD
311
5581E330C2482AA1CB5A5505F6EE1CE418ED18355ABB3F651829DECA020F3066B432DA773324B472523940952EE50C726BA5C348347028B0153FB2E521F70E2AEC25ECB8B8F04A86710834D4316A9D0103681A323C313B9FAE944C38A3DED7E5CCD6254CABCFB53498ED8F59BA490EEB20CFF23C5825C763B08FB338F8DC1F
311
36707DA5C94742C92066D4D5EDCD9D30923B59629644711A445910BD7FC7D1364EB7C9E62D5A6FD38892A1FC4EE4BBF24591AF954B93D9EE24B398C5606424FE6D0B113964790F7E08A36408115E63C2F741432010B2E3A7E6B6C705A05E0AA7CD0A9852FB85EA79E3254C8DD0785332B1D0796C009B3DEC933CE9F3BC077C
311
40AE2AB0C61D1C4FDE0DD3E934758EA29326E8DD15296D5ADE2CE6268BCB7319F4502E74A3CD2B6A32AF4AE630C9F0F7B25F504B0304140006080800AD51E94299A2B22E7D0000009D0000000B0000006662782F636E782E786D6C4DCCD10AC22014C6F15791736F3BAD9D55A00E2C7C8FD1DC909C0ED3E8F1DB62175D7DF0
311
E3E32FBACFECD9DBA6978B41C2F180C06C78C4C1854942C923BF00EB944831E6BF1BB0D0CF56C2C6A0C4946259761AECD8179F57F52E3C7724D437D264F8BD6D8937CD19B946341CAFBAD63519D2E6049512D5AFB4EE16565F504B0304140006080800AD51E942C892FEC02A01000014020000310000006662782F35304243
311
354235462D443636352D343437302D423030462D3039423242323546354246332F636F72652E786D6C8D515B6EC32010BC0AE22B55651B6CE3B41126925BF904BD0031244589C1E251E5F85D6A576AFFF2C3A2D999D9D12E3FDEE71BFAD23E18677B4C4B8291B69353C65E7A9CE2B978C1E828B8772EFEA16164E5AC7B9C61
311
2CF8C5BBB46CD0E46CD436026A9DD21B2843D011A3E9069F1E87E953CFB2942902235CCB454E5779D1252DA10D3CC143F41000AD43F28B0523C31B1BD858BC771D2BDA764F8A8190B120AF433DD46C64C3D8F06A150A9E92519BDC288863CE46FB474DB258F068E6DFF893D7326A85454D6853903D0CFDA0E4409B43DD3D13
311
766808AF32FD9F282DEA4151323636F5167795052C28AFD686E0CAA5D3ED378CBE2FCE4794E7ED829E9EB02025A1754728DDF36AA5C202C0B36B37CF109D8705EFAE276053B61A77ADE055BE11949F0342CDF714DF504B0304140006080800AD51E94209E1B7314F01000033030000300000006662782F3530424335423546
311
2D443636352D343437302D423030462D3039423242323546354246332F636E782E786D6CD593BD6E032110845F05D146F7E7739CC4E2B094224F90222D076B9B9883133F51FCF6596CECB87191320D3ACD0E33AB4F1CDB7C4F867C810FDAD98176754B0958E994B6BB81A6B8AD9E29D970E69D8B37364AAC9860A059A69CED
311
BC4B7391146C45321155A3EDA1881E824B5E424039DF24C6496130006C9550846904A54091AB11BFB6E0711514C723897B206FAF1FC48D9F2063604D4EE1ACC91D9CE5B334DD982891468430D020F730895AA4E8148443AD441475575FBAEEECF49B44F2854B65F29AE4F281E693F2B2518D1C598343CE42F448AF98E27106
311
CAC53C1B2D4544C8CDC978F67096B48DAB65F16A04EFD1DDADFAE512C34E33CEA29EA038A407114151BE68BBBE6A9FAAF6E5BD6BD75DBF5EAC1EDAC775DFB226DB391B9D33E512C680773391CE46B091F28E35797C0F5FF111A53DB276FEF8079008A0B49EE95C33FE339FE6F4BE1197C7BF80FF00504B0304140006080800
311
AD51E942BC9C2CF2A505000080100000340000006662782F35304243354235462D443636352D343437302D423030462D3039423242323546354246332F6F626A656374732E786D6CAD575B8F9B3814FE2B887DD97DC88524735B31549964A68AAA69AB46ADF6215264C030DE3118D9669AD95FBF9FC11048936976D59710CC
311
F1F139DFF9CEC5FEBB5DC69D172A1513F9ADEB0DC7AE43F348C42C4F6FDD5227836BD77917F85208DD11739D9C64F4D635CB6EE0A75294855D8A69424AAE0F561FEEFE72544473EA3A11274ADDBA2A7AA2191992528B98AAE7614C3419A6C96EE80D6BC1BEDA5492E2E940694124CD352CC57A0E2D4E6D94D77F1DBBA3C01F
311
99EF816F7EADD4F4B4D4A8F2A77F3ECB952679F4C361076AA6DE6C793FB9B8195CCC66D3C1EC72E20DEE1EEE9603EF6A3A5E5C2E1637F3FB1B1CACB484266B89A4891BBC07369245FEA8FE14F825CBF57462456C804692BE3013293798389E3FAA655AEFAC93C7CC8F449ED3A8C20A6854FE59D5312D681E23E68C2A58D641
311
68DC7FF50C8E9DCF53F36E8FEC2E9F874077474751637BF3EC5A2AC2BFE1823A87415251C3C01A4BEB68CDD5F11EE150086EBF31E5644453C90877380B2591AF6E00512312F83D3586C9D26483F1C00D1085FA739F2E48A39FF3FC989549C9B9A1B11B5459B045AE50AD2ACBD83F54EEADEF22039B102BC3866BEB907E2DA8
311
1BDCD414B93E60530DA493709222E470D3EC9C4E0E1C5D983C5D2DDDE0C343B85B9BDC3D7E78214541A536F401B59AC0354F8392B5C93B2B7266837B60CA1E942F40FE23527D6F0AE226D96EB69BD953B424B94A84CC101B67EC0CC6F8193B5EF56BFE77FEF9A376733F7AA7F044B00D54BF00CFBE0FDD5876E00CFC17105E
311
C8A9756D1D118EB2F1C872006448E2708125D4E124DCB9C10A550E5519BB080F3CB80C735FF0D71F59352814D5499D670E2C0FCAE219051AB0558C841935F9AD81FB38FD50CEAA83ADD829782F7E095DE7CBF58775291312D1479BD34B9AB09C69B4B83D6FBA06F530EF79F44C5FBF0B19C3D11FF15E77F1CEEC510A681BCC
311
0DF06953D3CDCBFEE4DE0111F6A5C2941BFF2727C009D3583BFA1F998A28E724A7A26CCE7DB37FA06DD4109B64374C6E1BCCBEB18034F597831C44938E242B0C886DB76A8BE6F084775F571FC148C8731112BE170AF7A537125CC86DF8BAADABD251A4BFF5A96D2118192D607B95234DFA5BCCB7314B9252A1061E81F5DB6A
311
D10D9DA90AA8108DD63A5966701FB945A4E56CA317CD5A123452916F19DA26D2EEE8015DFD40D412A05278CA624579B2659C97D936611CCD689B91E2041CFFDFFEB0CC8A2DC94499EB13BA7BA6A339F46DEF91577D273A7A728375F51CDCA1F4C634DE87B9276C5AC911AC7AA19D2C27770F37CBABC1DDF4E27A30BBB95F0C
311
E61766907AB89ADFCDAFEEE7DE258A84B5A89AA102BFE934DD844694D0D9FC52321BBEAF2BA48FAD016EF048B4DABCAFB3B3797E5D0D310AFB23EC41BB6C37CEE3178C7D34FEB982BDE45145ABACE034A3B92626851ECD1FFE8560CCE81953AFAF3292D233B47C7ABF3E70062B67ECFB6CD29D7E3FD86B571726218F2AD14F
311
6516E684F1838D698DE4B0C8538B5F1393F659F799E6D5BCD9C060305582B318653076522A32AA510CCFE84132A30AD4EB8EF4B1BD7A9CB1FBA51E103509396D2C79229891B9425A80B765A4FBEBCE6F98E9CC5875EBA2DB0E9FF1632B85EB8033B72E6674CD22AA8621FAB399842AE5E05277900767499E728CDAF5A6F6BD
311
DD65B0E975E456E49CF1C9FA555770EB00CA4881B101F310A2531913F8956DF67BF49F1C6FCC7188C6DFB0D4AD2FFB85D699EA18A468ED94BD2C608679B647EF90A86FBBE50D2B991E22675DB2DE2441AD75A0894CAB8B82B1CF9A345F7E1E614071569F9C8297296279BEA681A4207369121C2C022BACCE82685075F1E7E6
311
B314B8C866CE0303059CDF77D7977F6C1622CB445E2F6DE6F63AECAC9F70B98D37280ED4DC4AD46632F6269BEA36602F28DB90283A24B17AC602222B590B742FFCE0657D65441FAA3FB47223138A0386AE968E6D6C3328B574E9D656030EE68E9C3AC82173A33419D31528DEBC108C2A51982031CA07FF02504B0304140006
311
080000AD51E942000000000000000000000000350000006662782F35304243354235462D443636352D343437302D423030462D3039423242323546354246332F76657274696365732E62696E504B0304140006080800AD51E942F270F1330600000004000000360000006662782F35304243354235462D443636352D343437
311
302D423030462D3039423242323546354246332F747269616E676C65732E62696E636660600000504B0304140006080000AD51E942000000000000000000000000370000006662782F35304243354235462D443636352D343437302D423030462D3039423242323546354246332F617474726962757465732E62696E504B03
311
04140006080800AD51E942D5987DFC8F00000041010000360000006662782F35304243354235462D443636352D343437302D423030462D3039423242323546354246332F6469726563746F72792E786D6C858F410EC2201045AF4266AF15DDB800BA74E7C21B903225242D6328188F2FA5C4183471359997F9FF81E89FF3C4
311
1E1816475E02DF1F80A11FC8386F25A438EECEC07A250251FC3803E6F58C12560C4AD840E95E91C151A72936F496F35732D860FE635F62C8F2DA16B505C545B74125BAA2FA9E05D7CC053D063734D5C7665FD55B6B8D15D5E9BFEAFD8490FFA45E504B0304140006080800AD51E9421AB4643BFE000000A00100003B000000
311
6662782F35304243354235462D443636352D343437302D423030462D3039423242323546354246332F7265736F75726365732F636F72652E786D6C8D50594EC33010BD4A34BFC88997D2A491E3AA9472022E6039D360B5B12B2F88E3E3B441823FFCE119BD45F3F4E4FE6BBE569F18A2F56E005653A8D0193F5A370D90D399
311
7450ED950CDEA75F32A89C9E7180050625A7E0F36D858C77095D2AA8F323AEA08E111354E65A9601A2F9C059D73AA7A28897FAA6CD454F58B3BAD045A7644CA104A81E47961F54C0E873301865F36095CCD98EABC68EE5A63D5B0CA00EA7566CF97143BAB6EBC8869F4EE4C05A465E0FC76D796F82BF70D92C6625939D7F32
311
9A803AE1088A5326086D09DDBD33DA33D1F3ED137DEE0595CD22FF63CAB7F19FA66C5D127C8DFBB04550AC04B9134A364B5F65DCCB2C73E9567D03504B010214000A0000080000AD51E9423DEE336E79000000790000001B00000000000000000000000000000000006175746F6465736B2D64657369676E2D7061636B6167
311
652E786D6C504B01021400140006080800AD51E942D486FD9CA0000000F40000001300000000000000000000000000B20000005B436F6E74656E745F54797065735D2E786D6C504B01021400140006080800AD51E942091F4AA3EB0000007C010000080000000000000000000000000083010000636F72652E786D6C504B01
311
021400140006080800AD51E94255019EA25F0000007C000000070000000000000000000000000094020000636E782E786D6C504B01021400140006080800AD51E9424141AE2E67010000020300000C00000000000000000000000000180300006662782F636F72652E786D6C504B01021400140006080800AD51E94299A2B2
311
2E7D0000009D0000000B00000000000000000000000000A90400006662782F636E782E786D6C504B01021400140006080800AD51E942C892FEC02A0100001402000031000000000000000000000000004F0500006662782F35304243354235462D443636352D343437302D423030462D3039423242323546354246332F636F
311
72652E786D6C504B01021400140006080800AD51E94209E1B7314F010000330300003000000000000000000000000000C80600006662782F35304243354235462D443636352D343437302D423030462D3039423242323546354246332F636E782E786D6C504B01021400140006080800AD51E942BC9C2CF2A5050000801000
311
003400000000000000000000000000650800006662782F35304243354235462D443636352D343437302D423030462D3039423242323546354246332F6F626A656374732E786D6C504B01021400140006080000AD51E94200000000000000000000000035000000000000000000000000005C0E00006662782F353042433542
311
35462D443636352D343437302D423030462D3039423242323546354246332F76657274696365732E62696E504B01021400140006080800AD51E942F270F13306000000040000003600000000000000000000000000AF0E00006662782F35304243354235462D443636352D343437302D423030462D30394232423235463542
311
46332F747269616E676C65732E62696E504B01021400140006080000AD51E9420000000000000000000000003700000000000000000000000000090F00006662782F35304243354235462D443636352D343437302D423030462D3039423242323546354246332F617474726962757465732E62696E504B0102140014000608
311
0800AD51E942D5987DFC8F0000004101000036000000000000000000000000005E0F00006662782F35304243354235462D443636352D343437302D423030462D3039423242323546354246332F6469726563746F72792E786D6C504B01021400140006080800AD51E9421AB4643BFE000000A00100003B0000000000000000
311
0000000000411000006662782F35304243354235462D443636352D343437302D423030462D3039423242323546354246332F7265736F75726365732F636F72652E786D6C504B0506000000000E000E0080040000981100000000
310
504B03040A0000080000AD51E9423DEE336E79000000790000001B0000006175746F6465736B2D64657369676E2D7061636B6167652E786D6C3C3F786D6C2076657273696F6E3D22312E302220656E636F64696E673D227574662D3822203F3E3C666F726D6174733E3C666F726D61743E687474703A2F2F736368656D612E
310
6175746F6465736B2E636F6D2F64657369676E2D7061636B6167652F323030393C2F666F726D61743E3C2F666F726D6174733E504B0304140006080800AD51E942D486FD9CA0000000F4000000130000005B436F6E74656E745F54797065735D2E786D6C7D8EC10E82300C865F65E91D8A1E8C310C0EEA1BF002731658846E
310
D98AC1B77784ABF1D8FE5FBFBF75BBCE937A534CCEB38643598122B6FEE978D0B0485F9C41B54DDD7D022595594E1A469170414C76A4D9A4D207E29CF43ECE46F218070CC6BECC4078ACAA135ACF422C856C0E68EA1BF5669944DDD7BCDE7B1F8E415D77AECB980613C2E4AC91FC167A2B244592486606FC29C8FD7F045B9A
310
EF7053A7E60B504B0304140006080800AD51E9421EFBDA88EC0000007C01000008000000636F72652E786D6C8D905B6EC4200C45B782FC5B9140983C8808A3569DACA01B408449D14C200A5075F925F390DABF7ED9BABEC7B6AE387E2F57F465B660BD1B8016049071DA4FD6CD03A478C61DA0A3149BF7F1970D90538B1960
310
97418A79F3697D48DABB685CCCAAF39379882A041301E96B6E0608FAD32CAA50296647B814ABD217359B823EBB0CA76427743F62A7BCCF9EADD940B62756D787AAC5F4EDBDC3877664F8F5343698D69C777CE45DC31B51EEB014D12ECFFB7A332A9A09644528C3A4C5847F50D253D657CD0BA97B4644B9DBFF40699DFE0925
310
EB22AB1EEFDEB10092E6476E0329CA3D8B5C6E41E5BAE7267F00504B0304140006080800AD51E94255019EA25F0000007C00000007000000636E782E786D6C4DCB3B0E80201045D1AD90E915ED2CF8AC45050C11660C8261F98AB1B07AC9C97D42D718D865D3E909258CFD00CCE24AC6E326A164D74DC0B4128928FF326038
310
472BA13128B1252AC747C6BAB984FC68F0B87FE8960A5C09FE86CFB69FBA01504B0304140006080800AD51E942EABD9E8068010000020300000C0000006662782F636F72652E786D6C8D525B6E833010BC8AE5DF0ACC23BC22E3A8559313F4028E71280AD8C8D828C7EFF28868AA28AA908C35B3B33B3B400FB7AE45A33443
310
A35589433FC0482AA1AB46D52576F6E2E5181D18355ADB5F651829DEC9124F3066B436DAF52B24B4B252594095AEE40AF261901623D1C2A5C483F8961DF7B9B350315CFD9E8B2BAFA51FFA40431DA3833560002D43A613B3CBF946C98233EA5C53AD6C53C1B4E6D2488359768C936417655EF8F1997BBBEC147BEFC753EA85
310
4951E4C5A9C8D322A56412336A9BEEEE4E18C9ADAC308B8230F682CC0B8AAF30D887F13E4ADF82641F07944CE50F22D757FF14B946D9385AED2EB201B3108CCCC49F6D21228B063E821FC228994284D79CF063D01008846CF9B9BDEF71056894C26AB303A6D26EA346DE3A095303343F942C2C749E1BC0664FFB442FFABCEE
310
011F90AB1AAC710BD7B3B3D374BA4C5DA3E8A5F1467B434A9B8EB79BB9C5E2766E839ECA856EB5F98F9AACAB92354C32FDBDEC07504B0304140006080800AD51E942F2BDEDCF7D0000009D0000000B0000006662782F636E782E786D6C4DCCD10A83201886E15B91FFDC9529B6811AE8F03E6259C84CC3E9D8E5AF46073BFA
310
E0E1E315C3670DE8EDF2CBA728815C5A402E3ED2E4E322A196195F010D4AE494CADF0D501C5727E1605062C9A96E274D6E1E6B28BB061F9F2752DE1BAD2DC77746346684755853C3B1D1B6B71D25ED8D126894687EA57D8FB0FA02504B0304140006080800AD51E9423981F3A92C01000014020000310000006662782F3336
310
3743424246362D443431422D343134322D423343362D4342463746323331303933312F636F72652E786D6C8D515B6EC32010BC0AE22B55850DC6B1930813C9A972825E8018E2A2C460F1A872FC42ED48ED5F7E00CDCECC0EBBECF898EEE05B39AFADE920293004CA0C566A337630862BDA4170E4CC591BFED0203062521DCC
310
30E46C7436CE2B3458139409093556AA1514DEAB00C1704F8F0EFAE14B4DA210312486BF15B3186E625405295239F138F3C1A5006069924FC869D39EFAFEDCA08F9AF4A82675857A7A6AD0A93FB7E78A12BCA784958B90B318B55CE55AA638FAAA957BD5248B390B7A7AC61F9C124149C82B4C28C22DC2FB4F820F841EAAE6
310
1D6F0F14B332D3FF89E22C5F14456D02ADD6B88BCC439E7EB3143893365EEECF30EA315B1740EEB7F16A78831C1798546DBDC53B562ED43480E4D9D4ABA70FD6A5016F6E97C4CE63CAC64DCD59997794AEDF05A63BEF93FF00504B0304140006080800AD51E9426F4678265601000033030000300000006662782F33363743
310
424246362D443431422D343134322D423343362D4342463746323331303933312F636E782E786D6CBD93CD6EC32010845F0571ADFC17A76E1A6122F5D027E8A1570C9B84068305B86ADEBE4B42D25C72A854F582ACD96166F509B3CDD768C827F8A09DED6953D69480954E69BBEBE91CB7C58A920D67DEB97863A3C48A117A
310
9A64CAD9CEBB79CA9282AD984D44D5687BC8A287E0662F21A09C6E12E3A4301800B69851847100A54091AB11BFB6E07115148723897B20AF2FEFC40D1F206360554AE1AC4A1D9CA53337DD9828914684D0D320F7308A52CCD1290887528928CAA6BC74DDD9E92789A40B97CAD96B92CA7B9A4ECAF346257264150E390BD123
310
BD6C8AC7092817D364B41411215727E3D9C3D9AC6DEC96D9AB11BC4777BBE8562B0C3BCD388B7A84EC901E440445F9A26EDAA27E2AEAE7B7A65E37ED7AD13DD48FEBB66655B273363867F2258C01EF26229D8D6023E50DABD2F81EBEEC234A7B64EDFCF1172011406E3DD3B966FC259FA66B97CB7FE4539DDE37E2F2F817F0
310
6F504B0304140006080800AD51E942449AEFCF61070000991B0000340000006662782F33363743424246362D443431422D343134322D423343362D4342463746323331303933312F6F626A656374732E786D6CED59DD73A33610FF5718FAD23E181BDBC9251D42C7B12F379E9BB437E7DE4D1F3CC3C8201335423092C825FD
310
EBBBFA00033109EEA56FF76003425AEDFEF6534BF0DB63469D07CC05C9D995EB7B13D7C12CCE13C2D22BB794FBD185EBFC16063CCF65639AEB3094E12B570DBB6190F2BC2CEC5082F7A8A4B2337A73FD972362CCB0EBC4140971E58AF80E67C843A5CC132CEEBD0449E4A5FB47CFF7CCC436D994A3E2AE43B4401C33099CC2
310
38032A8E61CA6F3F4EDC71188CD5FB3050FF76D66CD0AC79FFACB196BACD25614222163F63A943663688A5993F5FBD9F9E5D8ECEE6F3D9687E3EF547D737D7AB91FF6E36599E2F97978BF797C0DE2ECFA99529C1056609E8EFC90DFD60ACDED4A25B048E711DE78CE15803095069B1BA040916B05503BE49FBD15712355E6B
310
091BCF73F5DEB2D0189EB5A9F4CD1A06448B2E0862B7AB24AEAE4DF9F2DDDF20B81862945C6009DC0AC941BB161E0E5EE18693606C46C36077D005114E8624E6045187921D471C940253D59430300B2C19E51C1C48394A02AD39F3BA6D5BE099AFBBCE312EF725A5CA33DC503B5604EE87A5D09C917F303F70DF4406780269
310
4BC2E485E5523E15D80D2F83B11E0C0375994DED4B03A4B3A728151A11F3B623E852B9FE7AE5861F6F768F1B150E8E6F5EF0BCC05C2AA3537AD47C8121DBAB42C96EEB0FD29C5A00C21850EDCA03289F01F9DF217A1C5801BD71F2387F9CDBB9922326F639CF4037CEC4194DE06FE2F8FA5FDD37EE8271BDB8ADBD3E3CC14D
310
155417DF8F675B068D95E5BF0167183C80C1E77C665F6D6244C19E6F09038094913834872108EDFBDDA31BAE217042A0875588863E880CEC3EC06D30B6640E5AA9DCCB7A1D0344ED1EB3214A02D8B445021B3D7AFA00D98393F8A0A6A6887DF09EBD89B92E569B8F9B92EF518C6FAD4FAFF09E3022216B1E67A885794BA27B
310
FCF42DE70908FA1CEF4D13EFCC6E25006D85B9023EAD40500F879D5B1BC4B02ECD55B8095ED9018450B9BA41FF968818538A18CECB6ADF3ABA2943AD3DDED60C6E383510CFA61D13E6F881A8AA029CE630A3C528E4FD98934281E8861F8C6475D0F47AA4FBB2FE1D2CB29EDF336BCD20F43244FFD441EB080E2DCBAE90B640
310
D402EF0EE13CCE69CEA3DD5364229D0BB504B0D1F696AF2DA210EB8D921415F020ED775548498DB45142F6FB52405C3DC2E2D7F5B2690E136FE69F39CDFF8E33CE21DA82EF226EFDAEB347443294E2688F92BEED9ABBD5B48526D9439AE33D05B9C803914F1192D124C1E929D09C44FCF24DA9A7341782302C205F1D05BF89
310
C6C4834062B459B1ACB4DA019A8828C312D1531050647AC0D56947D7B831940EAFF3585BEF4B1A6B12FD9F2C8223A82573161128452187BCCAB8EF9D410C69A36B50EEE00BD656D1D662D0124A88F829FA86497A274F41DD90EFC13D86234929A3BC403198F500B2CF7C4529B5C3FB0EC5F72A7F447149DFCA4004A6FB8850
310
5A6611FC088393C710D7AE03D38B2834889BD8277106451992251FB2C9F9D9E4D93EA666E886C0C6467B42216C47192A7A506F05445D8F3835F8967A8F527765564428CB4B36C850BC59D79B2CF9AE5A15D981FCAA5211CAC68AB025180684C93AAB56311B4C5D075670231DA89E2281B2829A53D82B89C7AFBD4953EEDD80
310
5B3F7DDB0D3228FC7AB4D78CA8F30A06CB63AB3010DF908CEFDC70A3AFA36BA8BF139C1C527D556B362B40404C45F29213ABA22F6B286F6C8DE686B7488AED079375ABEB97B507DD8F600C6BA076A917AE15D0196612A9CAE456DDD0CF0842708B86195FAB9C7A0A954592E8AA11D11BD2A7CE5619D1DA34235E7187599EC1
310
8F6D098B6999E02D4AC47D742B69B4218A752BA597910AE31705FCE3C3A6030F8C0C10E9932AF0F0B7CE5A3BBA54E5D25122F2AECC760C1108822DD152A31BAF60A9D548A5E5FAAACE14507781815915CF7F9C2C9AED881F278BD41AC6F79D2C68BE43F4106D1AD93C56667DD229A04E4F8ACA5B9C0274D7A1A65A271193CB
310
ADF8D69722888955901F5C8C5531C310ECE3F83F27EDBE2468B6EBF07F5AD2F69F151C272595D664D5A43A52B8AE9B296CBA9A5EDF5CAEDE8DAE676717A3F9E5FBE56871A63AB537EF16D78B77EF17FEF9E1D4A0FD340CEA58A653173C9B98560DAB278B013465454E490287F9C44931847C0947FA01DD739E6101B9B3D9EB
310
4E6C4F7EC0EA07D3E694684771C5C91D82FE301590D501A33296ED71E727E84C4A38675FB9D033F2EEE1CF5AA5EB40E2B972A15320498C85B7832E93EAE769E2907175EAB7C4001FC4529511CDA2FAB95EA5B06945FF7ACA902C60E56AB530A06E2BA0F9D56A5068DE2C4FF1498257EC3848C2EDAE9450AC19590E03B5307A
310
9B83FA8D6C94B07BBBF523B8EECB62F99E9ED34264D01783178DC0501D49C453DDEE568C599616AB4F6368B339EB3F9C829629E87238A511C760CCA5AAA7C08AC02A2CCD024930D5E5AFDB4F3C872F3C99A38B22E7E7C78BF35FB6CB3CCB726686B60B389425F09DC8D9DCC1579F640BB50356BD75B19D4EFCE956F7B46D9B
310
3DDA21813D5514C140554B28413A260776F9AC3F65BB9763A58ACEF4F5CAB14114BCDAD8D1B316AFF9C6E5800FA9AF29CA63B49F57D2BED8D61EEBA960131C1AD2E1BF504B0304140006080000AD51E942000000000000000000000000350000006662782F33363743424246362D443431422D343134322D423343362D4342
310
463746323331303933312F76657274696365732E62696E504B0304140006080800AD51E942F270F1330600000004000000360000006662782F33363743424246362D443431422D343134322D423343362D4342463746323331303933312F747269616E676C65732E62696E636660600000504B0304140006080000AD51E942
310
000000000000000000000000370000006662782F33363743424246362D443431422D343134322D423343362D4342463746323331303933312F617474726962757465732E62696E504B0304140006080800AD51E942D5987DFC8F00000041010000360000006662782F33363743424246362D443431422D343134322D423343
310
362D4342463746323331303933312F6469726563746F72792E786D6C858F410EC2201045AF4266AF15DDB800BA74E7C21B903225242D6328188F2FA5C4183471359997F9FF81E89FF3C41E1816475E02DF1F80A11FC8386F25A438EECEC07A250251FC3803E6F58C12560C4AD840E95E91C151A72936F496F35732D860FE63
310
5F62C8F2DA16B505C545B74125BAA2FA9E05D7CC053D063734D5C7665FD55B6B8D15D5E9BFEAFD8490FFA45E504B0304140006080800AD51E9420D50F410FD000000A00100003B0000006662782F33363743424246362D443431422D343134322D423343362D4342463746323331303933312F7265736F75726365732F636F
310
72652E786D6C8D50596E833010BD0A9ADF0AB021AC328E5A359CA017B0CC84580936F252F5F835814AED5F7F3C9EB7689E1E3B7F2D8FE413AD53460F403302096A6926A5E70182BFA62D2467CEAC31FE970C122D161C608381B3D99AB01E9034DAA3F611D566C20314CEA187443EE26700276FB8884C041F15EE9EAD42DEC5
310
8C19CD221D759C396F6380643FB2BDC02D3A13AC44C7F29DE52C04351D1A35C59BEAAAD0026F2E65559D8A3AA56FEF6D7A6AC6327DBD8C71ADBAAEEDC6AEADBB9AE59B9933AF969F8CD2A2F038012F082D53D2A4A4FBA0A4A7655FD42FA4EA4BC2F24DFEC714D6E99FA6A0B42F8B23EE6E73C0690CF22438CBB7BEE2789619
310
E7D62DFF06504B010214000A0000080000AD51E9423DEE336E79000000790000001B00000000000000000000000000000000006175746F6465736B2D64657369676E2D7061636B6167652E786D6C504B01021400140006080800AD51E942D486FD9CA0000000F40000001300000000000000000000000000B20000005B436F
310
6E74656E745F54797065735D2E786D6C504B01021400140006080800AD51E9421EFBDA88EC0000007C010000080000000000000000000000000083010000636F72652E786D6C504B01021400140006080800AD51E94255019EA25F0000007C000000070000000000000000000000000095020000636E782E786D6C504B0102
310
1400140006080800AD51E942EABD9E8068010000020300000C00000000000000000000000000190300006662782F636F72652E786D6C504B01021400140006080800AD51E942F2BDEDCF7D0000009D0000000B00000000000000000000000000AB0400006662782F636E782E786D6C504B01021400140006080800AD51E942
310
3981F3A92C010000140200003100000000000000000000000000510500006662782F33363743424246362D443431422D343134322D423343362D4342463746323331303933312F636F72652E786D6C504B01021400140006080800AD51E9426F46782656010000330300003000000000000000000000000000CC0600006662
310
782F33363743424246362D443431422D343134322D423343362D4342463746323331303933312F636E782E786D6C504B01021400140006080800AD51E942449AEFCF61070000991B00003400000000000000000000000000700800006662782F33363743424246362D443431422D343134322D423343362D43424637463233
310
31303933312F6F626A656374732E786D6C504B01021400140006080000AD51E9420000000000000000000000003500000000000000000000000000231000006662782F33363743424246362D443431422D343134322D423343362D4342463746323331303933312F76657274696365732E62696E504B010214001400060808
310
00AD51E942F270F13306000000040000003600000000000000000000000000761000006662782F33363743424246362D443431422D343134322D423343362D4342463746323331303933312F747269616E676C65732E62696E504B01021400140006080000AD51E94200000000000000000000000037000000000000000000
310
00000000D01000006662782F33363743424246362D443431422D343134322D423343362D4342463746323331303933312F617474726962757465732E62696E504B01021400140006080800AD51E942D5987DFC8F000000410100003600000000000000000000000000251100006662782F33363743424246362D443431422D
310
343134322D423343362D4342463746323331303933312F6469726563746F72792E786D6C504B01021400140006080800AD51E9420D50F410FD000000A00100003B00000000000000000000000000081200006662782F33363743424246362D443431422D343134322D423343362D4342463746323331303933312F7265736F
310
75726365732F636F72652E786D6C504B0506000000000E000E00800400005E1300000000
  0
XRECORD
  5
27
102
{ACAD_REACTORS
330
22
102
}
330
22
100
AcDbXrecord
280
     1
270
     1
271
     1
  0
XRECORD
  5
26
102
{ACAD_REACTORS
330
22
102
}
330
22
100
AcDbXrecord
280
     1
270
     1
271
     1
  0
XRECORD
  5
28
102
{ACAD_REACTORS
330
22
102
}
330
22
100
AcDbXrecord
280
     1
270
     1
271
     1
  0
XRECORD
  5
25
102
{ACAD_REACTORS
330
22
102
}
330
22
100
AcDbXrecord
280
     1
270
     1
271
     1
  0
XRECORD
  5
E62
102
{ACAD_REACTORS
330
E61
102
}
330
E61
100
AcDbXrecord
280
     1
102
ACAD_ROUNDTRIP_2012_MLEADER_STYLE
298
     1
  0
CELLSTYLEMAP
  5
E60
102
{ACAD_REACTORS
330
E5F
102
}
330
E5F
100
AcDbCellStyleMap
 90
        3
300
CELLSTYLE
  1
TABLEFORMAT_BEGIN
 90
        5
170
     1
 91
        0
 92
    32768
 62
   257
 93
        1
300
CONTENTFORMAT
  1
CONTENTFORMAT_BEGIN
 90
        0
 91
        0
 92
      512
 93
        0
300

 40
0.0
140
1.0
 94
        5
 62
     0
340
55
144
0.25
309
CONTENTFORMAT_END
171
     0
 94
        0
309
TABLEFORMAT_END
  1
CELLSTYLE_BEGIN
 90
        1
 91
        1
300
_TITLE
309
CELLSTYLE_END
300
CELLSTYLE
  1
TABLEFORMAT_BEGIN
 90
        5
170
     1
 91
        0
 92
        0
 62
   257
 93
        1
300
CONTENTFORMAT
  1
CONTENTFORMAT_BEGIN
 90
        0
 91
        0
 92
      512
 93
        0
300

 40
0.0
140
1.0
 94
        5
 62
     0
340
55
144
0.18
309
CONTENTFORMAT_END
171
     0
 94
        0
309
TABLEFORMAT_END
  1
CELLSTYLE_BEGIN
 90
        2
 91
        1
300
_HEADER
309
CELLSTYLE_END
300
CELLSTYLE
  1
TABLEFORMAT_BEGIN
 90
        5
170
     1
 91
        0
 92
        0
 62
   257
 93
        1
300
CONTENTFORMAT
  1
CONTENTFORMAT_BEGIN
 90
        0
 91
        0
 92
      512
 93
        0
300

 40
0.0
140
1.0
 94
        2
 62
     0
340
55
144
0.18
309
CONTENTFORMAT_END
171
     0
 94
        0
309
TABLEFORMAT_END
  1
CELLSTYLE_BEGIN
 90
        3
 91
        2
300
_DATA
309
CELLSTYLE_END
  0
ENDSEC
  0
EOF
