  0
SECTION
  2
HEADER
  9
$ACADVER
  1
AC1024
  9
$ACADMAINTVER
 70
    63
  9
$DWGCODEPAGE
  3
ANSI_1252
  9
$AUTHOR
  1
MS
  9
$REVISIONNUMBER
  1
-
  9
$CUSTOMPROPERTYTAG
  1
Manager
  9
$CUSTOMPROPERTY
  1

  9
$CUSTOMPROPERTYTAG
  1
Company
  9
$CUSTOMPROPERTY
  1

  9
$CUSTOMPROPERTYTAG
  1
Category
  9
$CUSTOMPROPERTY
  1

  9
$CUSTOMPROPERTYTAG
  1
Part Number
  9
$CUSTOMPROPERTY
  1
NPDD6048
  9
$CUSTOMPROPERTYTAG
  1
Description
  9
$CUSTOMPROPERTY
  1
NPDD PANEL MASTER VIEW
  9
$CUSTOMPROPERTYTAG
  1
Project
  9
$CUSTOMPROPERTY
  1

  9
$CUSTOMPROPERTYTAG
  1
Designer
  9
$CUSTOMPROPERTY
  1
MS
  9
$CUSTOMPROPERTYTAG
  1
Engineer
  9
$CUSTOMPROPERTY
  1

  9
$CUSTOMPROPERTYTAG
  1
Authority
  9
$CUSTOMPROPERTY
  1

  9
$CUSTOMPROPERTYTAG
  1
Cost Center
  9
$CUSTOMPROPERTY
  1

  9
$CUSTOMPROPERTYTAG
  1
Vendor
  9
$CUSTOMPROPERTY
  1

  9
$CUSTOMPROPERTYTAG
  1
User Status
  9
$CUSTOMPROPERTY
  1

  9
$CUSTOMPROPERTYTAG
  1
Design Status
  9
$CUSTOMPROPERTY
  1
WorkInProgress
  9
$CUSTOMPROPERTYTAG
  1
Checked by
  9
$CUSTOMPROPERTY
  1
NJ
  9
$CUSTOMPROPERTYTAG
  1
Date Checked
  9
$CUSTOMPROPERTY
  1
06/19/2013
  9
$CUSTOMPROPERTYTAG
  1
Engr Approved by
  9
$CUSTOMPROPERTY
  1

  9
$CUSTOMPROPERTYTAG
  1
Mfg Approved by
  9
$CUSTOMPROPERTY
  1

  9
$CUSTOMPROPERTYTAG
  1
DWG. NO
  9
$CUSTOMPROPERTY
  1

  9
$CUSTOMPROPERTYTAG
  1
NUMBER OF SHEETS
  9
$CUSTOMPROPERTY
  1
2
  9
$CUSTOMPROPERTYTAG
  1
DRAWING #
  9
$CUSTOMPROPERTY
  1
1
  9
$INSBASE
 10
0.0
 20
0.0
 30
0.0
  9
$EXTMIN
 10
0.0
 20
0.0
 30
0.0
  9
$EXTMAX
 10
187.0
 20
121.0
 30
0.0
  9
$LIMMIN
 10
0.0
 20
0.0
  9
$LIMMAX
 10
187.0
 20
121.0
  9
$ORTHOMODE
 70
     0
  9
$REGENMODE
 70
     1
  9
$FILLMODE
 70
     1
  9
$QTEXTMODE
 70
     0
  9
$MIRRTEXT
 70
     0
  9
$LTSCALE
 40
11.0
  9
$ATTMODE
 70
     1
  9
$TEXTSIZE
 40
0.2
  9
$TRACEWID
 40
0.05
  9
$TEXTSTYLE
  7
Standard
  9
$CLAYER
  8
0
  9
$CELTYPE
  6
ByLayer
  9
$CECOLOR
 62
   256
  9
$CELTSCALE
 40
1.0
  9
$DISPSILH
 70
     0
  9
$DIMSCALE
 40
1.0
  9
$DIMASZ
 40
0.0708661417322835
  9
$DIMEXO
 40
0.0625
  9
$DIMDLI
 40
0.38
  9
$DIMRND
 40
0.0
  9
$DIMDLE
 40
0.0
  9
$DIMEXE
 40
0.18
  9
$DIMTP
 40
0.0
  9
$DIMTM
 40
0.0
  9
$DIMTXT
 40
0.0708661417322835
  9
$DIMCEN
 40
0.09
  9
$DIMTSZ
 40
0.0
  9
$DIMTOL
 70
     0
  9
$DIMLIM
 70
     0
  9
$DIMTIH
 70
     1
  9
$DIMTOH
 70
     1
  9
$DIMSE1
 70
     0
  9
$DIMSE2
 70
     0
  9
$DIMTAD
 70
     0
  9
$DIMZIN
 70
     0
  9
$DIMBLK
  1

  9
$DIMASO
 70
     1
  9
$DIMSHO
 70
     1
  9
$DIMPOST
  1

  9
$DIMAPOST
  1

  9
$DIMALT
 70
     0
  9
$DIMALTD
 70
     2
  9
$DIMALTF
 40
25.4
  9
$DIMLFAC
 40
1.0
  9
$DIMTOFL
 70
     0
  9
$DIMTVP
 40
0.0
  9
$DIMTIX
 70
     0
  9
$DIMSOXD
 70
     0
  9
$DIMSAH
 70
     0
  9
$DIMBLK1
  1

  9
$DIMBLK2
  1

  9
$DIMSTYLE
  2
STANDARD
  9
$DIMCLRD
 70
     0
  9
$DIMCLRE
 70
     0
  9
$DIMCLRT
 70
     0
  9
$DIMTFAC
 40
1.0
  9
$DIMGAP
 40
0.09
  9
$DIMJUST
 70
     0
  9
$DIMSD1
 70
     0
  9
$DIMSD2
 70
     0
  9
$DIMTOLJ
 70
     1
  9
$DIMTZIN
 70
     0
  9
$DIMALTZ
 70
     0
  9
$DIMALTTZ
 70
     0
  9
$DIMUPT
 70
     0
  9
$DIMDEC
 70
     4
  9
$DIMTDEC
 70
     4
  9
$DIMALTU
 70
     2
  9
$DIMALTTD
 70
     2
  9
$DIMTXSTY
  7
Standard
  9
$DIMAUNIT
 70
     0
  9
$DIMADEC
 70
     0
  9
$DIMALTRND
 40
0.0
  9
$DIMAZIN
 70
     0
  9
$DIMDSEP
 70
    46
  9
$DIMATFIT
 70
     3
  9
$DIMFRAC
 70
     0
  9
$DIMLDRBLK
  1

  9
$DIMLUNIT
 70
     2
  9
$DIMLWD
 70
    -2
  9
$DIMLWE
 70
    -2
  9
$DIMTMOVE
 70
     0
  9
$DIMFXL
 40
1.0
  9
$DIMFXLON
 70
     0
  9
$DIMJOGANG
 40
0.7853981633974483
  9
$DIMTFILL
 70
     0
  9
$DIMTFILLCLR
 70
     0
  9
$DIMARCSYM
 70
     0
  9
$DIMLTYPE
  6

  9
$DIMLTEX1
  6

  9
$DIMLTEX2
  6

  9
$DIMTXTDIRECTION
 70
     0
  9
$LUNITS
 70
     2
  9
$LUPREC
 70
     4
  9
$SKETCHINC
 40
0.1
  9
$FILLETRAD
 40
0.0
  9
$AUNITS
 70
     0
  9
$AUPREC
 70
     0
  9
$MENU
  1
.
  9
$ELEVATION
 40
0.0
  9
$PELEVATION
 40
0.0
  9
$THICKNESS
 40
0.0
  9
$LIMCHECK
 70
     0
  9
$CHAMFERA
 40
0.0
  9
$CHAMFERB
 40
0.0
  9
$CHAMFERC
 40
0.0
  9
$CHAMFERD
 40
0.0
  9
$SKPOLY
 70
     0
  9
$TDCREATE
 40
2456465.442339121
  9
$TDUCREATE
 40
2456465.213172454
  9
$TDUPDATE
 40
2456465.442339121
  9
$TDUUPDATE
 40
2456465.213172454
  9
$TDINDWG
 40
0.0000458681
  9
$TDUSRTIMER
 40
0.0000458681
  9
$USRTIMER
 70
     1
  9
$ANGBASE
 50
0.0
  9
$ANGDIR
 70
     0
  9
$PDMODE
 70
     0
  9
$PDSIZE
 40
0.0
  9
$PLINEWID
 40
0.0
  9
$SPLFRAME
 70
     0
  9
$SPLINETYPE
 70
     6
  9
$SPLINESEGS
 70
     8
  9
$HANDSEED
  5
E79
  9
$SURFTAB1
 70
     6
  9
$SURFTAB2
 70
     6
  9
$SURFTYPE
 70
     6
  9
$SURFU
 70
     6
  9
$SURFV
 70
     6
  9
$UCSBASE
  2

  9
$UCSNAME
  2

  9
$UCSORG
 10
0.0
 20
0.0
 30
0.0
  9
$UCSXDIR
 10
1.0
 20
0.0
 30
0.0
  9
$UCSYDIR
 10
0.0
 20
1.0
 30
0.0
  9
$UCSORTHOREF
  2

  9
$UCSORTHOVIEW
 70
     0
  9
$UCSORGTOP
 10
0.0
 20
0.0
 30
0.0
  9
$UCSORGBOTTOM
 10
0.0
 20
0.0
 30
0.0
  9
$UCSORGLEFT
 10
0.0
 20
0.0
 30
0.0
  9
$UCSORGRIGHT
 10
0.0
 20
0.0
 30
0.0
  9
$UCSORGFRONT
 10
0.0
 20
0.0
 30
0.0
  9
$UCSORGBACK
 10
0.0
 20
0.0
 30
0.0
  9
$PUCSBASE
  2

  9
$PUCSNAME
  2

  9
$PUCSORG
 10
0.0
 20
0.0
 30
0.0
  9
$PUCSXDIR
 10
1.0
 20
0.0
 30
0.0
  9
$PUCSYDIR
 10
0.0
 20
1.0
 30
0.0
  9
$PUCSORTHOREF
  2

  9
$PUCSORTHOVIEW
 70
     0
  9
$PUCSORGTOP
 10
0.0
 20
0.0
 30
0.0
  9
$PUCSORGBOTTOM
 10
0.0
 20
0.0
 30
0.0
  9
$PUCSORGLEFT
 10
0.0
 20
0.0
 30
0.0
  9
$PUCSORGRIGHT
 10
0.0
 20
0.0
 30
0.0
  9
$PUCSORGFRONT
 10
0.0
 20
0.0
 30
0.0
  9
$PUCSORGBACK
 10
0.0
 20
0.0
 30
0.0
  9
$USERI1
 70
     0
  9
$USERI2
 70
     0
  9
$USERI3
 70
     0
  9
$USERI4
 70
     0
  9
$USERI5
 70
     0
  9
$USERR1
 40
0.0
  9
$USERR2
 40
0.0
  9
$USERR3
 40
0.0
  9
$USERR4
 40
0.0
  9
$USERR5
 40
0.0
  9
$WORLDVIEW
 70
     1
  9
$SHADEDGE
 70
     3
  9
$SHADEDIF
 70
    70
  9
$TILEMODE
 70
     1
  9
$MAXACTVP
 70
    64
  9
$PINSBASE
 10
0.0
 20
0.0
 30
0.0
  9
$PLIMCHECK
 70
     0
  9
$PEXTMIN
 10
0.0
 20
0.0
 30
0.0
  9
$PEXTMAX
 10
187.0
 20
121.0
 30
0.0
  9
$PLIMMIN
 10
0.0
 20
0.0
  9
$PLIMMAX
 10
187.0
 20
121.0
  9
$UNITMODE
 70
     0
  9
$VISRETAIN
 70
     1
  9
$PLINEGEN
 70
     0
  9
$PSLTSCALE
 70
     1
  9
$TREEDEPTH
 70
  3020
  9
$CMLSTYLE
  2
Standard
  9
$CMLJUST
 70
     0
  9
$CMLSCALE
 40
1.0
  9
$PROXYGRAPHICS
 70
     1
  9
$MEASUREMENT
 70
     0
  9
$CELWEIGHT
370
    -1
  9
$ENDCAPS
280
     0
  9
$JOINSTYLE
280
     0
  9
$LWDISPLAY
290
     0
  9
$INSUNITS
 70
     1
  9
$HYPERLINKBASE
  1

  9
$STYLESHEET
  1

  9
$XEDIT
290
     1
  9
$CEPSNTYPE
380
     0
  9
$PSTYLEMODE
290
     1
  9
$FINGERPRINTGUID
  2
{F569F5DD-0E92-4CBF-9A90-840DA1283D5D}
  9
$VERSIONGUID
  2
{0581AF4B-27F4-4D97-93D2-39C85169FD36}
  9
$EXTNAMES
290
     1
  9
$PSVPSCALE
 40
0.0
  9
$OLESTARTUP
290
     0
  9
$SORTENTS
280
   127
  9
$INDEXCTL
280
     0
  9
$HIDETEXT
280
     1
  9
$XCLIPFRAME
280
     2
  9
$HALOGAP
280
     0
  9
$OBSCOLOR
 70
   257
  9
$OBSLTYPE
280
     0
  9
$INTERSECTIONDISPLAY
280
     0
  9
$INTERSECTIONCOLOR
 70
   257
  9
$DIMASSOC
280
     1
  9
$PROJECTNAME
  1

  9
$CAMERADISPLAY
290
     0
  9
$LENSLENGTH
 40
50.0
  9
$CAMERAHEIGHT
 40
0.0
  9
$STEPSPERSEC
 40
2.0
  9
$STEPSIZE
 40
6.0
  9
$3DDWFPREC
 40
2.0
  9
$PSOLWIDTH
 40
0.25
  9
$PSOLHEIGHT
 40
4.0
  9
$LOFTANG1
 40
1.570796326794896
  9
$LOFTANG2
 40
1.570796326794896
  9
$LOFTMAG1
 40
0.0
  9
$LOFTMAG2
 40
0.0
  9
$LOFTPARAM
 70
     7
  9
$LOFTNORMALS
280
     1
  9
$LATITUDE
 40
37.795
  9
$LONGITUDE
 40
-122.394
  9
$NORTHDIRECTION
 40
0.0
  9
$TIMEZONE
 70
 -8000
  9
$LIGHTGLYPHDISPLAY
280
     1
  9
$TILEMODELIGHTSYNCH
280
     1
  9
$CMATERIAL
347
11
  9
$SOLIDHIST
280
     0
  9
$SHOWHIST
280
     1
  9
$DWFFRAME
280
     2
  9
$DGNFRAME
280
     0
  9
$REALWORLDSCALE
290
     1
  9
$INTERFERECOLOR
 62
     1
  9
$INTERFEREOBJVS
345
33
  9
$INTERFEREVPVS
346
30
  9
$CSHADOW
280
     0
  9
$SHADOWPLANELOCATION
 40
0.0
  0
ENDSEC
  0
SECTION
  2
CLASSES
  0
CLASS
  1
ACDBDICTIONARYWDFLT
  2
AcDbDictionaryWithDefault
  3
ObjectDBX Classes
 90
        0
 91
        1
280
     0
281
     0
  0
CLASS
  1
MATERIAL
  2
AcDbMaterial
  3
ObjectDBX Classes
 90
     1153
 91
        3
280
     0
281
     0
  0
CLASS
  1
VISUALSTYLE
  2
AcDbVisualStyle
  3
ObjectDBX Classes
 90
     4095
 91
       24
280
     0
281
     0
  0
CLASS
  1
SCALE
  2
AcDbScale
  3
ObjectDBX Classes
 90
     1153
 91
       17
280
     0
281
     0
  0
CLASS
  1
TABLESTYLE
  2
AcDbTableStyle
  3
ObjectDBX Classes
 90
     4095
 91
        1
280
     0
281
     0
  0
CLASS
  1
MLEADERSTYLE
  2
AcDbMLeaderStyle
  3
ACDB_MLEADERSTYLE_CLASS
 90
     4095
 91
        1
280
     0
281
     0
  0
CLASS
  1
DICTIONARYVAR
  2
AcDbDictionaryVar
  3
ObjectDBX Classes
 90
        0
 91
        3
280
     0
281
     0
  0
CLASS
  1
CELLSTYLEMAP
  2
AcDbCellStyleMap
  3
ObjectDBX Classes
 90
     1152
 91
        1
280
     0
281
     0
  0
ENDSEC
  0
SECTION
  2
TABLES
  0
TABLE
  2
VPORT
  5
8
330
0
100
AcDbSymbolTable
 70
     1
  0
VPORT
  5
57
330
8
100
AcDbSymbolTableRecord
100
AcDbViewportTableRecord
  2
*Active
 70
     0
 10
0.0
 20
0.0
 11
1.0
 21
1.0
 12
93.49999999999999
 22
60.5
 13
0.0
 23
0.0
 14
1.0
 24
1.0
 15
0.0
 25
0.0
 16
0.0
 26
0.0
 36
1.0
 17
0.0
 27
0.0
 37
0.0
 40
121.0
 41
1.545454545454545
 42
50.0
 43
0.0
 44
0.0
 50
0.0
 51
0.0
 71
     0
 72
   100
 73
     1
 74
     1
 75
     0
 76
     0
 77
     0
 78
     0
281
     0
 65
     1
110
0.0
120
0.0
130
0.0
111
1.0
121
0.0
131
0.0
112
0.0
122
1.0
132
0.0
 79
     0
146
0.0
 60
     3
 61
     5
292
     1
282
     1
141
0.0
142
0.0
 63
   250
421
  3355443
  0
ENDTAB
  0
TABLE
  2
LTYPE
  5
5
330
0
100
AcDbSymbolTable
 70
    59
  0
LTYPE
  5
5B
330
5
100
AcDbSymbolTableRecord
100
AcDbLinetypeTableRecord
  2
ByBlock
 70
     0
  3

 72
    65
 73
     0
 40
0.0
  0
LTYPE
  5
5C
330
5
100
AcDbSymbolTableRecord
100
AcDbLinetypeTableRecord
  2
ByLayer
 70
     0
  3

 72
    65
 73
     0
 40
0.0
  0
LTYPE
  5
5D
330
5
100
AcDbSymbolTableRecord
100
AcDbLinetypeTableRecord
  2
Continuous
 70
     0
  3
Solid line
 72
    65
 73
     0
 40
0.0
  0
LTYPE
  5
7C
330
5
100
AcDbSymbolTableRecord
100
AcDbLinetypeTableRecord
  2
BY_STANDARD
 70
     0
  3
By Standard ____________    ____    ____   _
 72
    65
 73
     6
 40
1.240299999999999
 49
0.6614
 74
     0
 49
-0.0827
 74
     0
 49
0.1654
 74
     0
 49
-0.0827
 74
     0
 49
0.1654
 74
     0
 49
-0.0827
 74
     0
  0
LTYPE
  5
7D
330
5
100
AcDbSymbolTableRecord
100
AcDbLinetypeTableRecord
  2
CHAIN
 70
     0
  3
Chain ____ _ ____ _ ____ _ ____ _ ____ _ ____
 72
    65
 73
     4
 40
0.7087
 49
0.4724000000000001
 74
     0
 49
-0.0591
 74
     0
 49
0.1181
 74
     0
 49
-0.0591
 74
     0
  0
LTYPE
  5
7E
330
5
100
AcDbSymbolTableRecord
100
AcDbLinetypeTableRecord
  2
DASH_DOT
 70
     0
  3
Dash dot __ . __ . __ . __ . __ . __ . __ . __
 72
    65
 73
     4
 40
0.37
 49
0.24
 74
     0
 49
-0.06
 74
     0
 49
0.01
 74
     0
 49
-0.06
 74
     0
  0
LTYPE
  5
7F
330
5
100
AcDbSymbolTableRecord
100
AcDbLinetypeTableRecord
  2
DOUBLE_DASH_DOT
 70
     0
  3
Double-Dash Dot __ __ . __ __ . __ __ . __ _
 72
    65
 73
     6
 40
0.4398
 49
0.24
 74
     0
 49
-0.06
 74
     0
 49
0.0098
 74
     0
 49
-0.06
 74
     0
 49
0.01
 74
     0
 49
-0.06
 74
     0
  0
LTYPE
  5
80
330
5
100
AcDbSymbolTableRecord
100
AcDbLinetypeTableRecord
  2
DASH_TRIPLE_DOT
 70
     0
  3
Dash Triple-Dot _ . . . _ . . . _ . . . _
 72
    65
 73
     8
 40
0.51
 49
0.24
 74
     0
 49
-0.06
 74
     0
 49
0.01
 74
     0
 49
-0.06
 74
     0
 49
0.01
 74
     0
 49
-0.06
 74
     0
 49
0.01
 74
     0
 49
-0.06
 74
     0
  0
LTYPE
  5
81
330
5
100
AcDbSymbolTableRecord
100
AcDbLinetypeTableRecord
  2
DASHED
 70
     0
  3
Dashed __ __ __ __ __ __ __ __ __ __ __ __ __ _
 72
    65
 73
     2
 40
0.2067
 49
0.1654
 74
     0
 49
-0.0413
 74
     0
  0
LTYPE
  5
82
330
5
100
AcDbSymbolTableRecord
100
AcDbLinetypeTableRecord
  2
DASH_DOUBLE_DOT
 70
     0
  3
Dash Double-Dot __ . . __ . . __ . . __ . .
 72
    65
 73
     6
 40
0.4398
 49
0.24
 74
     0
 49
-0.06
 74
     0
 49
0.0098
 74
     0
 49
-0.06
 74
     0
 49
0.01
 74
     0
 49
-0.06
 74
     0
  0
LTYPE
  5
83
330
5
100
AcDbSymbolTableRecord
100
AcDbLinetypeTableRecord
  2
DASHED_SPACE
 70
     0
  3
Dashed Space __ __ __ __ __ __ __ __ __ __ __ _
 72
    65
 73
     2
 40
0.2067
 49
0.1654
 74
     0
 49
-0.0413
 74
     0
  0
LTYPE
  5
84
330
5
100
AcDbSymbolTableRecord
100
AcDbLinetypeTableRecord
  2
DOTTED
 70
     0
  3
Dotted . . . . . . . . . . . . . . . . . . . . 
 72
    65
 73
     2
 40
0.0482
 49
0.0069
 74
     0
 49
-0.0413
 74
     0
  0
LTYPE
  5
85
330
5
100
AcDbSymbolTableRecord
100
AcDbLinetypeTableRecord
  2
DOUBLE_DASH_CHAIN
 70
     0
  3
Double-Dash Chain ______  __  __  ______  __  _
 72
    65
 73
     6
 40
1.240299999999999
 49
0.6614
 74
     0
 49
-0.0827
 74
     0
 49
0.1654
 74
     0
 49
-0.0827
 74
     0
 49
0.1654
 74
     0
 49
-0.0827
 74
     0
  0
LTYPE
  5
87
330
5
100
AcDbSymbolTableRecord
100
AcDbLinetypeTableRecord
  2
DOUBLE_DASH_DOUBLE_DOT
 70
     0
  3
Double-Dash Double-dot _ _ . . _ _ . . _
 72
    65
 73
     8
 40
0.7400000000000001
 49
0.24
 74
     0
 49
-0.06
 74
     0
 49
0.24
 74
     0
 49
-0.06
 74
     0
 49
0.01
 74
     0
 49
-0.06
 74
     0
 49
0.01
 74
     0
 49
-0.06
 74
     0
  0
LTYPE
  5
88
330
5
100
AcDbSymbolTableRecord
100
AcDbLinetypeTableRecord
  2
DOUBLE_DASH_TRIPLE_DOT
 70
     0
  3
Double Dash Triple Dot __ __ . . . __ __ . .
 72
    65
 73
    10
 40
0.8100000000000001
 49
0.24
 74
     0
 49
-0.06
 74
     0
 49
0.24
 74
     0
 49
-0.06
 74
     0
 49
0.01
 74
     0
 49
-0.06
 74
     0
 49
0.01
 74
     0
 49
-0.06
 74
     0
 49
0.01
 74
     0
 49
-0.06
 74
     0
  0
LTYPE
  5
89
330
5
100
AcDbSymbolTableRecord
100
AcDbLinetypeTableRecord
  2
LONG_DASH_DOTTED
 70
     0
  3
Long Dash Dotted ____ . ____ . ____ . ____ . _
 72
    65
 73
     4
 40
0.3543
 49
0.2362
 74
     0
 49
-0.0295
 74
     0
 49
0.0591
 74
     0
 49
-0.0295
 74
     0
  0
LTYPE
  5
8A
330
5
100
AcDbSymbolTableRecord
100
AcDbLinetypeTableRecord
  2
LONG_DASH_DOUBLE_DOT
 70
     0
  3
Long Dash Double Dot ________  .  .  ________  
 72
    65
 73
     6
 40
0.6799999999999999
 49
0.48
 74
     0
 49
-0.06
 74
     0
 49
0.01
 74
     0
 49
-0.06
 74
     0
 49
0.01
 74
     0
 49
-0.06
 74
     0
  0
LTYPE
  5
8B
330
5
100
AcDbSymbolTableRecord
100
AcDbLinetypeTableRecord
  2
LONG_DASH_TRIPLE_DOT
 70
     0
  3
Long Dash Triple Dot ____ ... ____ ... ____
 72
    65
 73
     8
 40
0.3689
 49
0.2362
 74
     0
 49
-0.0295
 74
     0
 49
0.0049
 74
     0
 49
-0.0295
 74
     0
 49
0.0049
 74
     0
 49
-0.0295
 74
     0
 49
0.0049
 74
     0
 49
-0.0295
 74
     0
  0
LTYPE
  5
8C
330
5
100
AcDbSymbolTableRecord
100
AcDbLinetypeTableRecord
  2
BORDER
 70
     0
  3
Border __ __ . __ __ . __ __ . __ __ . __ __ .
 72
    65
 73
     6
 40
1.75
 49
0.5
 74
     0
 49
-0.25
 74
     0
 49
0.5
 74
     0
 49
-0.25
 74
     0
 49
0.0
 74
     0
 49
-0.25
 74
     0
  0
LTYPE
  5
8D
330
5
100
AcDbSymbolTableRecord
100
AcDbLinetypeTableRecord
  2
BORDER2
 70
     0
  3
Border (.5x) __.__.__.__.__.__.__.__.__.__.__.
 72
    65
 73
     6
 40
0.875
 49
0.25
 74
     0
 49
-0.125
 74
     0
 49
0.25
 74
     0
 49
-0.125
 74
     0
 49
0.0
 74
     0
 49
-0.125
 74
     0
  0
LTYPE
  5
8E
330
5
100
AcDbSymbolTableRecord
100
AcDbLinetypeTableRecord
  2
BORDERX2
 70
     0
  3
Border (2x) ____  ____  .  ____  ____  .  ___
 72
    65
 73
     6
 40
3.5
 49
1.0
 74
     0
 49
-0.5
 74
     0
 49
1.0
 74
     0
 49
-0.5
 74
     0
 49
0.0
 74
     0
 49
-0.5
 74
     0
  0
LTYPE
  5
8F
330
5
100
AcDbSymbolTableRecord
100
AcDbLinetypeTableRecord
  2
CENTER
 70
     0
  3
Center ____ _ ____ _ ____ _ ____ _ ____ _ ____
 72
    65
 73
     4
 40
2.0
 49
1.25
 74
     0
 49
-0.25
 74
     0
 49
0.25
 74
     0
 49
-0.25
 74
     0
  0
LTYPE
  5
90
330
5
100
AcDbSymbolTableRecord
100
AcDbLinetypeTableRecord
  2
CENTER2
 70
     0
  3
Center (.5x) ___ _ ___ _ ___ _ ___ _ ___ _ ___
 72
    65
 73
     4
 40
1.125
 49
0.75
 74
     0
 49
-0.125
 74
     0
 49
0.125
 74
     0
 49
-0.125
 74
     0
  0
LTYPE
  5
91
330
5
100
AcDbSymbolTableRecord
100
AcDbLinetypeTableRecord
  2
CENTERX2
 70
     0
  3
Center (2x) ________  __  ________  __  _____
 72
    65
 73
     4
 40
4.0
 49
2.5
 74
     0
 49
-0.5
 74
     0
 49
0.5
 74
     0
 49
-0.5
 74
     0
  0
LTYPE
  5
92
330
5
100
AcDbSymbolTableRecord
100
AcDbLinetypeTableRecord
  2
DASHDOT2
 70
     0
  3
Dash dot (.5x) _._._._._._._._._._._._._._._.
 72
    65
 73
     4
 40
0.5
 49
0.25
 74
     0
 49
-0.125
 74
     0
 49
0.0
 74
     0
 49
-0.125
 74
     0
  0
LTYPE
  5
93
330
5
100
AcDbSymbolTableRecord
100
AcDbLinetypeTableRecord
  2
DASHDOTX2
 70
     0
  3
Dash dot (2x) ____  .  ____  .  ____  .  ___
 72
    65
 73
     4
 40
2.0
 49
1.0
 74
     0
 49
-0.5
 74
     0
 49
0.0
 74
     0
 49
-0.5
 74
     0
  0
LTYPE
  5
95
330
5
100
AcDbSymbolTableRecord
100
AcDbLinetypeTableRecord
  2
DASHED2
 70
     0
  3
Dashed (.5x) _ _ _ _ _ _ _ _ _ _ _ _ _ _ _ _ _
 72
    65
 73
     2
 40
0.375
 49
0.25
 74
     0
 49
-0.125
 74
     0
  0
LTYPE
  5
96
330
5
100
AcDbSymbolTableRecord
100
AcDbLinetypeTableRecord
  2
DASHEDX2
 70
     0
  3
Dashed (2x) ____  ____  ____  ____  ____  ___
 72
    65
 73
     2
 40
1.5
 49
1.0
 74
     0
 49
-0.5
 74
     0
  0
LTYPE
  5
97
330
5
100
AcDbSymbolTableRecord
100
AcDbLinetypeTableRecord
  2
DIVIDE
 70
     0
  3
Divide ____ . . ____ . . ____ . . ____ . . ____
 72
    65
 73
     6
 40
1.25
 49
0.5
 74
     0
 49
-0.25
 74
     0
 49
0.0
 74
     0
 49
-0.25
 74
     0
 49
0.0
 74
     0
 49
-0.25
 74
     0
  0
LTYPE
  5
98
330
5
100
AcDbSymbolTableRecord
100
AcDbLinetypeTableRecord
  2
DIVIDE2
 70
     0
  3
Divide (.5x) __..__..__..__..__..__..__..__.._
 72
    65
 73
     6
 40
0.625
 49
0.25
 74
     0
 49
-0.125
 74
     0
 49
0.0
 74
     0
 49
-0.125
 74
     0
 49
0.0
 74
     0
 49
-0.125
 74
     0
  0
LTYPE
  5
99
330
5
100
AcDbSymbolTableRecord
100
AcDbLinetypeTableRecord
  2
DIVIDEX2
 70
     0
  3
Divide (2x) ________  .  .  ________  .  .  _
 72
    65
 73
     6
 40
2.5
 49
1.0
 74
     0
 49
-0.5
 74
     0
 49
0.0
 74
     0
 49
-0.5
 74
     0
 49
0.0
 74
     0
 49
-0.5
 74
     0
  0
LTYPE
  5
9A
330
5
100
AcDbSymbolTableRecord
100
AcDbLinetypeTableRecord
  2
DOT
 70
     0
  3
Dot . . . . . . . . . . . . . . . . . . . . . .
 72
    65
 73
     2
 40
0.25
 49
0.0
 74
     0
 49
-0.25
 74
     0
  0
LTYPE
  5
9B
330
5
100
AcDbSymbolTableRecord
100
AcDbLinetypeTableRecord
  2
DOT2
 70
     0
  3
Dot (.5x) .....................................
 72
    65
 73
     2
 40
0.125
 49
0.0
 74
     0
 49
-0.125
 74
     0
  0
LTYPE
  5
9C
330
5
100
AcDbSymbolTableRecord
100
AcDbLinetypeTableRecord
  2
DOTX2
 70
     0
  3
Dot (2x) .  .  .  .  .  .  .  .  .  .  .  .  . 
 72
    65
 73
     2
 40
0.5
 49
0.0
 74
     0
 49
-0.5
 74
     0
  0
LTYPE
  5
9D
330
5
100
AcDbSymbolTableRecord
100
AcDbLinetypeTableRecord
  2
HIDDEN
 70
     0
  3
Hidden __ __ __ __ __ __ __ __ __ __ __ __ __ _
 72
    65
 73
     2
 40
0.375
 49
0.25
 74
     0
 49
-0.125
 74
     0
  0
LTYPE
  5
9E
330
5
100
AcDbSymbolTableRecord
100
AcDbLinetypeTableRecord
  2
HIDDEN2
 70
     0
  3
Hidden (.5x) _ _ _ _ _ _ _ _ _ _ _ _ _ _ _ _ _
 72
    65
 73
     2
 40
0.1875
 49
0.125
 74
     0
 49
-0.0625
 74
     0
  0
LTYPE
  5
9F
330
5
100
AcDbSymbolTableRecord
100
AcDbLinetypeTableRecord
  2
HIDDENX2
 70
     0
  3
Hidden (2x) ____ ____ ____ ____ ____ ____ ____
 72
    65
 73
     2
 40
0.75
 49
0.5
 74
     0
 49
-0.25
 74
     0
  0
LTYPE
  5
A0
330
5
100
AcDbSymbolTableRecord
100
AcDbLinetypeTableRecord
  2
PHANTOM
 70
     0
  3
Phantom ______  __  __  ______  __  __  ______
 72
    65
 73
     6
 40
2.5
 49
1.25
 74
     0
 49
-0.25
 74
     0
 49
0.25
 74
     0
 49
-0.25
 74
     0
 49
0.25
 74
     0
 49
-0.25
 74
     0
  0
LTYPE
  5
A1
330
5
100
AcDbSymbolTableRecord
100
AcDbLinetypeTableRecord
  2
PHANTOM2
 70
     0
  3
Phantom (.5x) ___ _ _ ___ _ _ ___ _ _ ___ _ _
 72
    65
 73
     6
 40
1.25
 49
0.625
 74
     0
 49
-0.125
 74
     0
 49
0.125
 74
     0
 49
-0.125
 74
     0
 49
0.125
 74
     0
 49
-0.125
 74
     0
  0
LTYPE
  5
A2
330
5
100
AcDbSymbolTableRecord
100
AcDbLinetypeTableRecord
  2
PHANTOMX2
 70
     0
  3
Phantom (2x) ____________    ____    ____   _
 72
    65
 73
     6
 40
5.0
 49
2.5
 74
     0
 49
-0.5
 74
     0
 49
0.5
 74
     0
 49
-0.5
 74
     0
 49
0.5
 74
     0
 49
-0.5
 74
     0
  0
LTYPE
  5
A3
330
5
100
AcDbSymbolTableRecord
100
AcDbLinetypeTableRecord
  2
ACAD_ISO02W100
 70
     0
  3
ISO dash __ __ __ __ __ __ __ __ __ __ __ __ __
 72
    65
 73
     2
 40
0.59
 49
0.47
 74
     0
 49
-0.12
 74
     0
  0
LTYPE
  5
A4
330
5
100
AcDbSymbolTableRecord
100
AcDbLinetypeTableRecord
  2
ACAD_ISO03W100
 70
     0
  3
ISO dash space __    __    __    __    __    __
 72
    65
 73
     2
 40
1.179999999999999
 49
0.47
 74
     0
 49
-0.71
 74
     0
  0
LTYPE
  5
A5
330
5
100
AcDbSymbolTableRecord
100
AcDbLinetypeTableRecord
  2
ACAD_ISO04W100
 70
     0
  3
ISO long-dash dot ____ . ____ . ____ . ____ . _
 72
    65
 73
     4
 40
1.179999999999999
 49
0.9399999999999998
 74
     0
 49
-0.12
 74
     0
 49
0.0
 74
     0
 49
-0.12
 74
     0
  0
LTYPE
  5
A6
330
5
100
AcDbSymbolTableRecord
100
AcDbLinetypeTableRecord
  2
ACAD_ISO05W100
 70
     0
  3
ISO long-dash double-dot ____ .. ____ .. ____ .
 72
    65
 73
     6
 40
1.299999999999999
 49
0.9399999999999998
 74
     0
 49
-0.12
 74
     0
 49
0.0
 74
     0
 49
-0.12
 74
     0
 49
0.0
 74
     0
 49
-0.12
 74
     0
  0
LTYPE
  5
A7
330
5
100
AcDbSymbolTableRecord
100
AcDbLinetypeTableRecord
  2
ACAD_ISO06W100
 70
     0
  3
ISO long-dash triple-dot ____ ... ____ ... ____
 72
    65
 73
     8
 40
1.419999999999999
 49
0.9399999999999998
 74
     0
 49
-0.12
 74
     0
 49
0.0
 74
     0
 49
-0.12
 74
     0
 49
0.0
 74
     0
 49
-0.12
 74
     0
 49
0.0
 74
     0
 49
-0.12
 74
     0
  0
LTYPE
  5
A8
330
5
100
AcDbSymbolTableRecord
100
AcDbLinetypeTableRecord
  2
ACAD_ISO07W100
 70
     0
  3
ISO dot . . . . . . . . . . . . . . . . . . . .
 72
    65
 73
     2
 40
0.12
 49
0.0
 74
     0
 49
-0.12
 74
     0
  0
LTYPE
  5
A9
330
5
100
AcDbSymbolTableRecord
100
AcDbLinetypeTableRecord
  2
ACAD_ISO08W100
 70
     0
  3
ISO long-dash short-dash ____ __ ____ __ ____ _
 72
    65
 73
     4
 40
0.95
 49
0.47
 74
     0
 49
-0.12
 74
     0
 49
0.24
 74
     0
 49
-0.12
 74
     0
  0
LTYPE
  5
AA
330
5
100
AcDbSymbolTableRecord
100
AcDbLinetypeTableRecord
  2
ACAD_ISO09W100
 70
     0
  3
ISO long-dash double-short-dash ____ __ __ ____
 72
    65
 73
     6
 40
1.31
 49
0.47
 74
     0
 49
-0.12
 74
     0
 49
0.24
 74
     0
 49
-0.12
 74
     0
 49
0.24
 74
     0
 49
-0.12
 74
     0
  0
LTYPE
  5
AB
330
5
100
AcDbSymbolTableRecord
100
AcDbLinetypeTableRecord
  2
ACAD_ISO10W100
 70
     0
  3
ISO dash dot __ . __ . __ . __ . __ . __ . __ .
 72
    65
 73
     4
 40
0.71
 49
0.47
 74
     0
 49
-0.12
 74
     0
 49
0.0
 74
     0
 49
-0.12
 74
     0
  0
LTYPE
  5
AC
330
5
100
AcDbSymbolTableRecord
100
AcDbLinetypeTableRecord
  2
ACAD_ISO11W100
 70
     0
  3
ISO double-dash dot __ __ . __ __ . __ __ . __ 
 72
    65
 73
     6
 40
1.299999999999999
 49
0.47
 74
     0
 49
-0.12
 74
     0
 49
0.47
 74
     0
 49
-0.12
 74
     0
 49
0.0
 74
     0
 49
-0.12
 74
     0
  0
LTYPE
  5
AD
330
5
100
AcDbSymbolTableRecord
100
AcDbLinetypeTableRecord
  2
ACAD_ISO12W100
 70
     0
  3
ISO dash double-dot __ . . __ . . __ . . __ . .
 72
    65
 73
     6
 40
0.8299999999999998
 49
0.47
 74
     0
 49
-0.12
 74
     0
 49
0.0
 74
     0
 49
-0.12
 74
     0
 49
0.0
 74
     0
 49
-0.12
 74
     0
  0
LTYPE
  5
AE
330
5
100
AcDbSymbolTableRecord
100
AcDbLinetypeTableRecord
  2
ACAD_ISO13W100
 70
     0
  3
ISO double-dash double-dot __ __ . . __ __ . . 
 72
    65
 73
     8
 40
1.419999999999999
 49
0.47
 74
     0
 49
-0.12
 74
     0
 49
0.47
 74
     0
 49
-0.12
 74
     0
 49
0.0
 74
     0
 49
-0.12
 74
     0
 49
0.0
 74
     0
 49
-0.12
 74
     0
  0
LTYPE
  5
AF
330
5
100
AcDbSymbolTableRecord
100
AcDbLinetypeTableRecord
  2
ACAD_ISO14W100
 70
     0
  3
ISO dash triple-dot __ . . . __ . . . __ . . . 
 72
    65
 73
     8
 40
0.95
 49
0.47
 74
     0
 49
-0.12
 74
     0
 49
0.0
 74
     0
 49
-0.12
 74
     0
 49
0.0
 74
     0
 49
-0.12
 74
     0
 49
0.0
 74
     0
 49
-0.12
 74
     0
  0
LTYPE
  5
B0
330
5
100
AcDbSymbolTableRecord
100
AcDbLinetypeTableRecord
  2
ACAD_ISO15W100
 70
     0
  3
ISO double-dash triple-dot __ __ . . . __ __ . 
 72
    65
 73
    10
 40
1.539999999999999
 49
0.47
 74
     0
 49
-0.12
 74
     0
 49
0.47
 74
     0
 49
-0.12
 74
     0
 49
0.0
 74
     0
 49
-0.12
 74
     0
 49
0.0
 74
     0
 49
-0.12
 74
     0
 49
0.0
 74
     0
 49
-0.12
 74
     0
  0
LTYPE
  5
B3
330
5
100
AcDbSymbolTableRecord
100
AcDbLinetypeTableRecord
  2
FENCELINE1
 70
     0
  3
Fenceline circle ----0-----0----0-----0----0---
 72
    65
 73
     4
 40
1.45
 49
0.25
 74
     0
 49
-0.1
 74
     4
 75
   133
340
B2
 46
0.1
 50
0.0
 44
-0.1
 45
0.0
 49
-0.1
 74
     0
 49
1.0
 74
     0
  0
LTYPE
  5
B4
330
5
100
AcDbSymbolTableRecord
100
AcDbLinetypeTableRecord
  2
FENCELINE2
 70
     0
  3
Fenceline square ----[]-----[]----[]-----[]----
 72
    65
 73
     4
 40
1.45
 49
0.25
 74
     0
 49
-0.1
 74
     4
 75
   132
340
B2
 46
0.1
 50
0.0
 44
-0.1
 45
0.0
 49
-0.1
 74
     0
 49
1.0
 74
     0
  0
LTYPE
  5
B5
330
5
100
AcDbSymbolTableRecord
100
AcDbLinetypeTableRecord
  2
TRACKS
 70
     0
  3
Tracks -|-|-|-|-|-|-|-|-|-|-|-|-|-|-|-|-|-|-|-|
 72
    65
 73
     2
 40
0.3
 49
0.15
 74
     4
 75
   130
340
B2
 46
0.25
 50
0.0
 44
0.0
 45
0.0
 49
0.15
 74
     0
  0
LTYPE
  5
B6
330
5
100
AcDbSymbolTableRecord
100
AcDbLinetypeTableRecord
  2
BATTING
 70
     0
  3
Batting SSSSSSSSSSSSSSSSSSSSSSSSSSSSSSSSSSSSSSS
 72
    65
 73
     4
 40
0.4001000000000001
 49
0.0001
 74
     0
 49
-0.1
 74
     4
 75
   134
340
B2
 46
0.1
 50
0.0
 44
-0.1
 45
0.0
 49
-0.2
 74
     4
 75
   134
340
B2
 46
0.1
 50
180.0
 44
0.1
 45
0.0
 49
-0.1
 74
     0
  0
LTYPE
  5
B7
330
5
100
AcDbSymbolTableRecord
100
AcDbLinetypeTableRecord
  2
HOT_WATER_SUPPLY
 70
     0
  3
Hot water supply ---- HW ---- HW ---- HW ----
 72
    65
 73
     3
 40
0.9
 49
0.5
 74
     0
 49
-0.2
 74
     2
 75
     0
340
55
 46
0.1
 50
0.0
 44
-0.1
 45
-0.05
  9
HW
 49
-0.2
 74
     0
  0
LTYPE
  5
B8
330
5
100
AcDbSymbolTableRecord
100
AcDbLinetypeTableRecord
  2
GAS_LINE
 70
     0
  3
Gas line ----GAS----GAS----GAS----GAS----GAS---
 72
    65
 73
     3
 40
0.95
 49
0.5
 74
     0
 49
-0.2
 74
     2
 75
     0
340
55
 46
0.1
 50
0.0
 44
-0.1
 45
-0.05
  9
GAS
 49
-0.25
 74
     0
  0
LTYPE
  5
B9
330
5
100
AcDbSymbolTableRecord
100
AcDbLinetypeTableRecord
  2
ZIGZAG
 70
     0
  3
Zig zag /\/\/\/\/\/\/\/\/\/\/\/\/\/\/\/\/\/\/\/
 72
    65
 73
     4
 40
0.8001000000000001
 49
0.0001
 74
     0
 49
-0.2
 74
     4
 75
   131
340
B2
 46
0.2
 50
0.0
 44
-0.2
 45
0.0
 49
-0.4
 74
     4
 75
   131
340
B2
 46
0.2
 50
180.0
 44
0.2
 45
0.0
 49
-0.2
 74
     0
  0
ENDTAB
  0
TABLE
  2
LAYER
  5
2
330
0
100
AcDbSymbolTable
 70
    27
  0
LAYER
  5
54
330
2
100
AcDbSymbolTableRecord
100
AcDbLayerTableRecord
  2
0
 70
     0
 62
     7
  6
Continuous
370
    18
390
F
347
21
  0
LAYER
  5
C0
330
2
100
AcDbSymbolTableRecord
100
AcDbLayerTableRecord
  2
Center Mark (ANSI)
 70
     0
 62
     7
  6
Continuous
370
    15
390
F
347
21
  0
LAYER
  5
C1
330
2
100
AcDbSymbolTableRecord
100
AcDbLayerTableRecord
  2
Centerline (ANSI)
 70
     0
 62
     7
  6
Continuous
370
    15
390
F
347
21
  0
LAYER
  5
C3
330
2
100
AcDbSymbolTableRecord
100
AcDbLayerTableRecord
  2
Dimension (ANSI)
 70
     0
 62
     7
  6
Continuous
370
    13
390
F
347
21
  0
LAYER
  5
CC
330
2
100
AcDbSymbolTableRecord
100
AcDbLayerTableRecord
  2
Symbol (ANSI)
 70
     0
 62
     7
  6
Continuous
370
    18
390
F
347
21
  0
LAYER
  5
CF
330
2
100
AcDbSymbolTableRecord
100
AcDbLayerTableRecord
  2
Visible (ANSI)
 70
     0
 62
     7
  6
Continuous
370
    13
390
F
347
21
  0
LAYER
  5
D0
330
2
100
AcDbSymbolTableRecord
100
AcDbLayerTableRecord
  2
Visible Narrow (ANSI)
 70
     0
 62
     7
  6
Continuous
370
    18
390
F
347
21
  0
LAYER
  5
2EB
330
2
100
AcDbSymbolTableRecord
100
AcDbLayerTableRecord
  2
Defpoints
 70
     0
 62
     7
  6
Continuous
290
     0
370
    -3
390
F
347
21
  0
ENDTAB
  0
TABLE
  2
STYLE
  5
3
330
0
100
AcDbSymbolTable
 70
    17
  0
STYLE
  5
55
330
3
100
AcDbSymbolTableRecord
100
AcDbTextStyleTableRecord
  2
Standard
 70
     0
 40
0.0
 41
1.0
 50
0.0
 71
     0
 42
0.2
  3
txt
  4

  0
STYLE
  5
5A
330
3
100
AcDbSymbolTableRecord
100
AcDbTextStyleTableRecord
  2
Annotative
 70
     0
 40
0.0
 41
1.0
 50
0.0
 71
     0
 42
0.2
  3
txt
  4

1001
AcadAnnotative
1000
AnnotativeData
1002
{
1070
     1
1070
     1
1002
}
  0
STYLE
  5
B2
330
3
100
AcDbSymbolTableRecord
100
AcDbTextStyleTableRecord
  2

 70
     1
 40
0.0
 41
1.0
 50
0.0
 71
     0
 42
0.2
  3
ltypeshp.shx
  4

  0
STYLE
  5
D4
330
3
100
AcDbSymbolTableRecord
100
AcDbTextStyleTableRecord
  2
ITALICC_120
 70
     0
 40
0.0
 41
1.0
 50
0.0
 71
     0
 42
0.2
  3
italicc.shx
  4

  0
STYLE
  5
D5
330
3
100
AcDbSymbolTableRecord
100
AcDbTextStyleTableRecord
  2
Label Text (ANSI)
 70
     0
 40
0.0
 41
1.0
 50
0.0
 71
     0
 42
0.2
  3
tahoma.ttf
  4

1001
ACAD
1000
Tahoma
1071
      256
  0
STYLE
  5
D6
330
3
100
AcDbSymbolTableRecord
100
AcDbTextStyleTableRecord
  2
Note Text (ANSI)
 70
     0
 40
0.0
 41
1.0
 50
0.0
 71
     0
 42
0.2
  3
tahoma.ttf
  4

1001
ACAD
1000
Tahoma
1071
      256
  0
STYLE
  5
D7
330
3
100
AcDbSymbolTableRecord
100
AcDbTextStyleTableRecord
  2
ROMANS
 70
     0
 40
0.0
 41
1.0
 50
0.0
 71
     0
 42
0.2
  3
romans.shx
  4

  0
STYLE
  5
D8
330
3
100
AcDbSymbolTableRecord
100
AcDbTextStyleTableRecord
  2
SANSSERIF_114
 70
     0
 40
0.0
 41
1.0
 50
0.0
 71
     0
 42
0.2
  3
tahoma.ttf
  4

1001
ACAD
1000
Tahoma
1071
      256
  0
STYLE
  5
D9
330
3
100
AcDbSymbolTableRecord
100
AcDbTextStyleTableRecord
  2
SANSSERIF_117
 70
     0
 40
0.0
 41
1.0
 50
0.0
 71
     0
 42
0.2
  3
tahoma.ttf
  4

1001
ACAD
1000
Tahoma
1071
      256
  0
STYLE
  5
DA
330
3
100
AcDbSymbolTableRecord
100
AcDbTextStyleTableRecord
  2
STANDARDAM_ANSI
 70
     0
 40
0.0
 41
1.0
 50
0.0
 71
     0
 42
0.2
  3
txt.shx
  4

  0
STYLE
  5
DB
330
3
100
AcDbSymbolTableRecord
100
AcDbTextStyleTableRecord
  2
StandardAM_ANSI$0
 70
     0
 40
0.0
 41
1.0
 50
0.0
 71
     0
 42
0.2
  3
txt.shx
  4

  0
STYLE
  5
DC
330
3
100
AcDbSymbolTableRecord
100
AcDbTextStyleTableRecord
  2
STANDARDAM_ANSI$3
 70
     0
 40
0.0
 41
1.0
 50
0.0
 71
     0
 42
0.2
  3
txt.shx
  4

  0
STYLE
  5
DD
330
3
100
AcDbSymbolTableRecord
100
AcDbTextStyleTableRecord
  2
STANDARDAM_ANSI$4
 70
     0
 40
0.0
 41
1.0
 50
0.0
 71
     0
 42
0.2
  3
txt.shx
  4

  0
STYLE
  5
DE
330
3
100
AcDbSymbolTableRecord
100
AcDbTextStyleTableRecord
  2
STANDARDAM_ANSI$7
 70
     0
 40
0.0
 41
1.0
 50
0.0
 71
     0
 42
0.2
  3
txt.shx
  4

  0
STYLE
  5
DF
330
3
100
AcDbSymbolTableRecord
100
AcDbTextStyleTableRecord
  2
STANDARDAM_ANSI$SF
 70
     0
 40
0.0
 41
1.0
 50
0.0
 71
     0
 42
0.2
  3
txt.shx
  4

  0
STYLE
  5
E0
330
3
100
AcDbSymbolTableRecord
100
AcDbTextStyleTableRecord
  2
STANDARDAM_ANSI$SH
 70
     0
 40
0.0
 41
1.0
 50
0.0
 71
     0
 42
0.2
  3
txt.shx
  4

  0
STYLE
  5
E1
330
3
100
AcDbSymbolTableRecord
100
AcDbTextStyleTableRecord
  2
STANDARDSTANDARD
 70
     0
 40
0.0
 41
1.0
 50
0.0
 71
     0
 42
0.2
  3
txt.shx
  4

  0
ENDTAB
  0
TABLE
  2
VIEW
  5
6
330
0
100
AcDbSymbolTable
 70
     0
  0
ENDTAB
  0
TABLE
  2
UCS
  5
7
330
0
100
AcDbSymbolTable
 70
     0
  0
ENDTAB
  0
TABLE
  2
APPID
  5
9
330
0
100
AcDbSymbolTable
 70
     3
  0
APPID
  5
56
330
9
100
AcDbSymbolTableRecord
100
AcDbRegAppTableRecord
  2
ACAD
 70
     0
  0
APPID
  5
5E
330
9
100
AcDbSymbolTableRecord
100
AcDbRegAppTableRecord
  2
AcadAnnotative
 70
     0
  0
APPID
  5
D4B
330
9
100
AcDbSymbolTableRecord
100
AcDbRegAppTableRecord
  2
ACAD_DSTYLE_DIMRADIAL_EXTENSION
 70
     0
  0
ENDTAB
  0
TABLE
  2
DIMSTYLE
  5
A
330
0
100
AcDbSymbolTable
 70
    27
100
AcDbDimStyleTable
 71
     2
340
F6
340
58
  0
DIMSTYLE
105
58
330
A
100
AcDbSymbolTableRecord
100
AcDbDimStyleTableRecord
  2
STANDARD
 70
     0
 41
0.1800000071525573
 42
0.0625
140
0.1800000071525574
144
1.0
147
0.0900000035762787
176
   256
177
   256
178
   256
274
     3
340
55
371
    -1
372
    -1
  0
DIMSTYLE
105
59
330
A
100
AcDbSymbolTableRecord
100
AcDbDimStyleTableRecord
  2
Annotative
 70
     0
340
55
1001
AcadAnnotative
1000
AnnotativeData
1002
{
1070
     1
1070
     1
1002
}
  0
DIMSTYLE
105
E2
330
A
100
AcDbSymbolTableRecord
100
AcDbDimStyleTableRecord
  2
AM_ANSI
 70
     0
  4
 mm
 40
11.0
 41
0.119999997317791
 42
0.05
 43
0.5
 44
0.1
 45
0.00000001
 78
     4
 79
     2
140
0.1200000047683716
146
0.7099999189376831
147
0.0599999986588955
176
   256
177
   256
178
     2
284
     4
340
DA
371
    -1
372
    -1
  0
DIMSTYLE
105
E3
330
A
100
AcDbSymbolTableRecord
100
AcDbDimStyleTableRecord
  2
AM_ANSI$7
 70
     0
  4
 mm
 40
11.0
 41
0.119999997317791
 42
0.05
 43
0.5
 44
0.1
 45
0.00000001
 78
     4
 79
     2
140
0.1200000047683716
146
0.7099999189376831
147
0.0599999986588955
176
   256
177
   256
178
     2
284
     4
340
DA
371
    -1
372
    -1
  0
DIMSTYLE
105
E4
330
A
100
AcDbSymbolTableRecord
100
AcDbDimStyleTableRecord
  2
AM_ANSI$0
 70
     0
  4
 mm
 40
11.0
 41
0.119999997317791
 42
0.05
 43
0.5
 44
0.1
 45
0.00000001
 78
     4
 79
     2
140
0.1200000047683716
146
0.7099999189376831
147
0.0599999986588955
176
   256
177
   256
178
     2
284
     4
340
DB
371
    -1
372
    -1
  0
DIMSTYLE
105
E5
330
A
100
AcDbSymbolTableRecord
100
AcDbDimStyleTableRecord
  2
AM_ANSI$0$7
 70
     0
  4
 mm
 40
11.0
 41
0.119999997317791
 42
0.05
 43
0.5
 44
0.1
 45
0.00000001
 78
     4
 79
     2
140
0.1200000047683716
146
0.7099999189376831
147
0.0599999986588955
176
   256
177
   256
178
     2
284
     4
340
DB
371
    -1
372
    -1
  0
DIMSTYLE
105
E6
330
A
100
AcDbSymbolTableRecord
100
AcDbDimStyleTableRecord
  2
AM_ANSI$3
 70
     0
  4
 mm
 40
11.0
 41
0.119999997317791
 42
0.05
 43
0.5
 44
0.1
 45
0.00000001
 78
     4
 79
     2
140
0.1200000047683716
146
0.7099999189376831
147
0.0599999986588955
176
   256
177
   256
178
     2
284
     4
340
DC
371
    -1
372
    -1
  0
DIMSTYLE
105
E7
330
A
100
AcDbSymbolTableRecord
100
AcDbDimStyleTableRecord
  2
AM_ANSI$3$7
 70
     0
  4
 mm
 40
11.0
 41
0.119999997317791
 42
0.05
 43
0.5
 44
0.1
 45
0.00000001
 78
     4
 79
     2
140
0.1200000047683716
146
0.7099999189376831
147
0.0599999986588955
176
   256
177
   256
178
     2
284
     4
340
DC
371
    -1
372
    -1
  0
DIMSTYLE
105
E8
330
A
100
AcDbSymbolTableRecord
100
AcDbDimStyleTableRecord
  2
AM_ANSI$4
 70
     0
  4
 mm
 40
11.0
 41
0.119999997317791
 42
0.05
 43
0.5
 44
0.1
 45
0.00000001
 78
     4
 79
     2
140
0.1200000047683716
146
0.7099999189376831
147
0.0599999986588955
176
   256
177
   256
178
     2
284
     4
340
DD
371
    -1
372
    -1
  0
DIMSTYLE
105
E9
330
A
100
AcDbSymbolTableRecord
100
AcDbDimStyleTableRecord
  2
AM_ANSI$4$7
 70
     0
  4
 mm
 40
11.0
 41
0.119999997317791
 42
0.05
 43
0.5
 44
0.1
 45
0.00000001
 78
     4
 79
     2
140
0.1200000047683716
146
0.7099999189376831
147
0.0599999986588955
176
   256
177
   256
178
     2
284
     4
340
DD
371
    -1
372
    -1
  0
DIMSTYLE
105
EA
330
A
100
AcDbSymbolTableRecord
100
AcDbDimStyleTableRecord
  2
AM_ANSI$SF
 70
     0
  4
 mm
 40
11.0
 41
0.119999997317791
 42
0.05
 43
0.5
 44
0.1
 45
0.00000001
 75
     1
 76
     1
 78
     4
 79
     2
140
0.1200000047683716
146
0.7099999189376831
147
0.0599999986588955
176
   256
177
   256
178
     2
284
     4
340
DF
371
    -1
372
    -1
  0
DIMSTYLE
105
EB
330
A
100
AcDbSymbolTableRecord
100
AcDbDimStyleTableRecord
  2
AM_ANSI$SF$7
 70
     0
  4
 mm
 40
11.0
 41
0.119999997317791
 42
0.05
 43
0.5
 44
0.1
 45
0.00000001
 75
     1
 76
     1
 78
     4
 79
     2
140
0.1200000047683716
146
0.7099999189376831
147
0.0599999986588955
176
   256
177
   256
178
     2
284
     4
340
DF
371
    -1
372
    -1
  0
DIMSTYLE
105
EC
330
A
100
AcDbSymbolTableRecord
100
AcDbDimStyleTableRecord
  2
AM_ANSI$SH
 70
     0
  4
 mm
 40
11.0
 41
0.119999997317791
 42
0.05
 43
0.5
 44
0.1
 45
0.00000001
 75
     1
 76
     1
 78
     4
 79
     2
140
0.1200000047683716
146
0.7099999189376831
147
0.0599999986588955
176
   256
177
   256
178
     2
284
     4
340
E0
371
    -1
372
    -1
  0
DIMSTYLE
105
ED
330
A
100
AcDbSymbolTableRecord
100
AcDbDimStyleTableRecord
  2
AM_ANSI$SH$7
 70
     0
  4
 mm
 40
11.0
 41
0.119999997317791
 42
0.05
 43
0.5
 44
0.1
 45
0.00000001
 75
     1
 76
     1
 78
     4
 79
     2
140
0.1200000047683716
146
0.7099999189376831
147
0.0599999986588955
176
   256
177
   256
178
     2
284
     4
340
E0
371
    -1
372
    -1
  0
DIMSTYLE
105
EE
330
A
100
AcDbSymbolTableRecord
100
AcDbDimStyleTableRecord
  2
Architectural (ANSI)
 70
     0
 40
11.0
 41
0.0984251946210861
 43
0.2362204724409449
 44
0.125
 45
0.00000001
 46
0.3937007874015748
 78
     3
 79
     3
140
0.1200000047683716
147
0.031496062992126
171
     1
176
   256
177
   256
178
   256
272
     2
274
     1
276
     2
277
     4
284
    12
285
     4
286
    12
340
D6
371
    -1
372
    -1
  0
DIMSTYLE
105
EF
330
A
100
AcDbSymbolTableRecord
100
AcDbDimStyleTableRecord
  2
Architectural (ANSI)$7
 70
     0
 40
11.0
 41
0.0984251946210861
 43
0.2362204724409449
 44
0.125
 45
0.00000001
 46
0.3937007874015748
 78
     3
 79
     3
140
0.1200000047683716
147
0.031496062992126
171
     1
176
   256
177
   256
178
   256
272
     2
274
     1
276
     2
277
     4
284
    12
285
     4
286
    12
340
D6
371
    -1
372
    -1
  0
DIMSTYLE
105
F0
330
A
100
AcDbSymbolTableRecord
100
AcDbDimStyleTableRecord
  2
Default - Fraction (ANSI)
 70
     0
 40
11.0
 41
0.0984251946210861
 43
0.2362204724409449
 44
0.125
 45
0.00000001
 46
0.3937007874015748
 79
     3
140
0.1200000047683716
147
0.031496062992126
171
     1
176
   256
177
   256
178
   256
272
     2
274
     1
276
     2
277
     5
284
    12
285
     4
286
    12
340
D6
371
    -1
372
    -1
  0
DIMSTYLE
105
F1
330
A
100
AcDbSymbolTableRecord
100
AcDbDimStyleTableRecord
  2
Default - Fraction (ANSI)$7
 70
     0
 40
11.0
 41
0.0984251946210861
 43
0.2362204724409449
 44
0.125
 45
0.00000001
 46
0.3937007874015748
 79
     3
140
0.1200000047683716
147
0.031496062992126
171
     1
176
   256
177
   256
178
   256
272
     2
274
     1
276
     2
277
     5
284
    12
285
     4
286
    12
340
D6
371
    -1
372
    -1
  0
DIMSTYLE
105
F2
330
A
100
AcDbSymbolTableRecord
100
AcDbDimStyleTableRecord
  2
Default - mm (ANSI)
 70
     0
 40
11.0
 41
0.0984251946210861
 42
0.063
 43
0.2362204724409449
 44
0.125
 45
0.00000001
 46
0.3937007874015748
 73
     0
 78
     4
 79
     1
140
0.1200000047683716
143
1.0
144
25.4
147
0.031496062992126
171
     1
176
   256
177
   256
178
   256
179
     1
271
     2
272
     2
274
     1
284
     4
285
     4
340
D6
371
    -1
372
    -1
  0
DIMSTYLE
105
F3
330
A
100
AcDbSymbolTableRecord
100
AcDbDimStyleTableRecord
  2
Default - mm (ANSI)$7
 70
     0
 40
11.0
 41
0.0984251946210861
 42
0.063
 43
0.2362204724409449
 44
0.125
 45
0.00000001
 46
0.3937007874015748
 73
     0
 78
     4
 79
     1
140
0.1200000047683716
143
1.0
144
25.4
147
0.031496062992126
171
     1
176
   256
177
   256
178
   256
179
     1
271
     2
272
     2
274
     1
284
     4
285
     4
340
D6
371
    -1
372
    -1
  0
DIMSTYLE
105
F4
330
A
100
AcDbSymbolTableRecord
100
AcDbDimStyleTableRecord
  2
Default - mm [in] (ANSI)
 70
     0
  4
 in
 40
11.0
 41
0.0984251946210861
 42
0.063
 43
0.25
 44
0.125
 45
0.00000001
 46
0.3937007874015748
 73
     0
 78
     4
 79
     1
140
0.1200000047683716
143
0.03937
144
25.4
147
0.031496062992126
170
     1
171
     3
176
   256
177
   256
178
   256
179
     1
271
     2
272
     2
274
     3
284
     4
285
     4
286
     4
340
D6
371
    -1
372
    -1
  0
DIMSTYLE
105
F5
330
A
100
AcDbSymbolTableRecord
100
AcDbDimStyleTableRecord
  2
Default - mm [in] (ANSI)$7
 70
     0
  4
 in
 40
11.0
 41
0.0984251946210861
 42
0.063
 43
0.25
 44
0.125
 45
0.00000001
 46
0.3937007874015748
 73
     0
 78
     4
 79
     1
140
0.1200000047683716
143
0.03937
144
25.4
147
0.031496062992126
170
     1
171
     3
176
   256
177
   256
178
   256
179
     1
271
     2
272
     2
274
     3
284
     4
285
     4
286
     4
340
D6
371
    -1
372
    -1
  0
DIMSTYLE
105
F6
102
{ACAD_REACTORS
330
2E9
330
3D6
330
4C0
330
5AA
330
694
330
77E
330
868
330
980
330
A7E
330
CB1
330
D6C
102
}
330
A
100
AcDbSymbolTableRecord
100
AcDbDimStyleTableRecord
  2
Default (ANSI)
 70
     0
 40
11.0
 41
0.0984251946210861
 43
0.2362204724409449
 44
0.125
 45
0.00000001
 46
0.3937007874015748
 79
     1
140
0.1200000047683716
147
0.031496062992126
171
     1
176
   256
177
   256
178
   256
271
     2
272
     2
274
     1
284
     4
285
     4
340
D6
371
    -1
372
    -1
  0
DIMSTYLE
105
F7
330
A
100
AcDbSymbolTableRecord
100
AcDbDimStyleTableRecord
  2
Default (ANSI)$7
 70
     0
 40
11.0
 41
0.0984251946210861
 43
0.2362204724409449
 44
0.125
 45
0.00000001
 46
0.3937007874015748
 79
     1
140
0.1200000047683716
147
0.031496062992126
171
     1
176
   256
177
   256
178
   256
271
     2
272
     2
274
     1
284
     4
285
     4
340
D6
371
    -1
372
    -1
  0
DIMSTYLE
105
F8
330
A
100
AcDbSymbolTableRecord
100
AcDbDimStyleTableRecord
  2
Alternate (ANSI)
 70
     0
 40
11.0
 41
0.0979999974370003
340
55
342
F9
  0
DIMSTYLE
105
10B
330
A
100
AcDbSymbolTableRecord
100
AcDbDimStyleTableRecord
  2
Datum (ANSI)
 70
     0
 40
11.0
 41
0.0979999974370003
340
55
342
F9
  0
DIMSTYLE
105
11A
330
A
100
AcDbSymbolTableRecord
100
AcDbDimStyleTableRecord
  2
Large (ANSI)
 70
     0
 40
11.0
 41
0.1959999948740005
340
55
342
F9
  0
ENDTAB
  0
TABLE
  2
BLOCK_RECORD
  5
1
330
0
100
AcDbSymbolTable
 70
    15
  0
BLOCK_RECORD
  5
6C
330
1
100
AcDbSymbolTableRecord
100
AcDbBlockTableRecord
  2
*Model_Space
340
6F
 70
     0
280
     1
281
     0
  0
BLOCK_RECORD
  5
68
330
1
100
AcDbSymbolTableRecord
100
AcDbBlockTableRecord
  2
*Paper_Space
340
6B
 70
     0
280
     1
281
     0
  0
BLOCK_RECORD
  5
70
330
1
100
AcDbSymbolTableRecord
100
AcDbBlockTableRecord
  2
*Paper_Space0
340
73
 70
     0
280
     1
281
     0
  0
BLOCK_RECORD
  5
F9
330
1
100
AcDbSymbolTableRecord
100
AcDbBlockTableRecord
  2
_Closed
340
0
 70
     0
280
     1
281
     0
  0
BLOCK_RECORD
  5
100
330
1
100
AcDbSymbolTableRecord
100
AcDbBlockTableRecord
  2
DatumFilled45
340
0
 70
     0
280
     1
281
     0
  0
BLOCK_RECORD
  5
10C
330
1
100
AcDbSymbolTableRecord
100
AcDbBlockTableRecord
  2
Filled-1
340
0
 70
     0
280
     1
281
     0
  0
BLOCK_RECORD
  5
2EC
330
1
100
AcDbSymbolTableRecord
100
AcDbBlockTableRecord
  2
*D4
340
0
 70
     0
280
     1
281
     0
  0
BLOCK_RECORD
  5
3D7
330
1
100
AcDbSymbolTableRecord
100
AcDbBlockTableRecord
  2
*D5
340
0
 70
     0
280
     1
281
     0
  0
BLOCK_RECORD
  5
4C1
330
1
100
AcDbSymbolTableRecord
100
AcDbBlockTableRecord
  2
*D6
340
0
 70
     0
280
     1
281
     0
  0
BLOCK_RECORD
  5
5AB
330
1
100
AcDbSymbolTableRecord
100
AcDbBlockTableRecord
  2
*D7
340
0
 70
     0
280
     1
281
     0
  0
BLOCK_RECORD
  5
695
330
1
100
AcDbSymbolTableRecord
100
AcDbBlockTableRecord
  2
*D8
340
0
 70
     0
280
     1
281
     0
  0
BLOCK_RECORD
  5
77F
330
1
100
AcDbSymbolTableRecord
100
AcDbBlockTableRecord
  2
*D9
340
0
 70
     0
280
     1
281
     0
  0
BLOCK_RECORD
  5
869
330
1
100
AcDbSymbolTableRecord
100
AcDbBlockTableRecord
  2
*D10
340
0
 70
     0
280
     1
281
     0
  0
BLOCK_RECORD
  5
981
330
1
100
AcDbSymbolTableRecord
100
AcDbBlockTableRecord
  2
*D11
340
0
 70
     0
280
     1
281
     0
  0
BLOCK_RECORD
  5
A7F
330
1
100
AcDbSymbolTableRecord
100
AcDbBlockTableRecord
  2
*D12
340
0
 70
     0
280
     1
281
     0
  0
BLOCK_RECORD
  5
CB2
330
1
100
AcDbSymbolTableRecord
100
AcDbBlockTableRecord
  2
*D13
340
0
 70
     0
280
     1
281
     0
  0
BLOCK_RECORD
  5
D6D
330
1
100
AcDbSymbolTableRecord
100
AcDbBlockTableRecord
  2
*D14
340
0
 70
     0
280
     1
281
     0
  0
ENDTAB
  0
ENDSEC
  0
SECTION
  2
BLOCKS
  0
BLOCK
  5
6D
330
6C
100
AcDbEntity
  8
0
100
AcDbBlockBegin
  2
*Model_Space
 70
     0
 10
0.0
 20
0.0
 30
0.0
  3
*Model_Space
  1

  0
ENDBLK
  5
6E
330
6C
100
AcDbEntity
  8
0
100
AcDbBlockEnd
  0
BLOCK
  5
69
330
68
100
AcDbEntity
 67
     1
  8
0
100
AcDbBlockBegin
  2
*Paper_Space
 70
     0
 10
0.0
 20
0.0
 30
0.0
  3
*Paper_Space
  1

  0
ENDBLK
  5
6A
330
68
100
AcDbEntity
 67
     1
  8
0
100
AcDbBlockEnd
  0
BLOCK
  5
71
330
70
100
AcDbEntity
 67
     1
  8
0
100
AcDbBlockBegin
  2
*Paper_Space0
 70
     0
 10
0.0
 20
0.0
 30
0.0
  3
*Paper_Space0
  1

  0
ENDBLK
  5
72
330
70
100
AcDbEntity
 67
     1
  8
0
100
AcDbBlockEnd
  0
BLOCK
  5
FE
330
F9
100
AcDbEntity
  8
0
100
AcDbBlockBegin
  2
_Closed
 70
     0
 10
0.0
 20
0.0
 30
0.0
  3
_Closed
  1

  0
LINE
  5
FA
330
F9
100
AcDbEntity
  8
0
  6
ByBlock
 62
     0
370
    -2
100
AcDbLine
 10
-1.0
 20
0.1666666666666666
 30
0.0
 11
0.0
 21
0.0
 31
0.0
  0
LINE
  5
FB
330
F9
100
AcDbEntity
  8
0
  6
ByBlock
 62
     0
370
    -2
100
AcDbLine
 10
0.0
 20
0.0
 30
0.0
 11
-1.0
 21
-0.1666666666666666
 31
0.0
  0
LINE
  5
FC
330
F9
100
AcDbEntity
  8
0
  6
ByBlock
 62
     0
370
    -2
100
AcDbLine
 10
-1.0
 20
0.1666666666666666
 30
0.0
 11
-1.0
 21
-0.1666666666666666
 31
0.0
  0
LINE
  5
FD
330
F9
100
AcDbEntity
  8
0
  6
ByBlock
 62
     0
370
    -2
100
AcDbLine
 10
0.0
 20
0.0
 30
0.0
 11
-1.0
 21
0.0
 31
0.0
  0
ENDBLK
  5
FF
330
F9
100
AcDbEntity
  8
0
100
AcDbBlockEnd
  0
BLOCK
  5
101
330
100
100
AcDbEntity
  8
0
100
AcDbBlockBegin
  2
DatumFilled45
 70
     0
 10
0.0
 20
0.0
 30
0.0
  3
DatumFilled45
  1

  0
POLYLINE
  5
103
330
100
100
AcDbEntity
  8
0
 62
     0
100
AcDb2dPolyline
 66
     1
 10
0.0
 20
0.0
 30
0.0
 70
   128
  0
VERTEX
  5
104
330
103
100
AcDbEntity
  8
0
 62
     0
100
AcDbVertex
100
AcDb2dVertex
 10
0.0
 20
0.9999999999999998
 30
0.0
  0
VERTEX
  5
105
330
103
100
AcDbEntity
  8
0
 62
     0
100
AcDbVertex
100
AcDb2dVertex
 10
0.0
 20
-0.9999999999999998
 30
0.0
  0
VERTEX
  5
107
330
103
100
AcDbEntity
  8
0
 62
     0
100
AcDbVertex
100
AcDb2dVertex
 10
-0.9999999999999998
 20
0.0
 30
0.0
  0
VERTEX
  5
108
330
103
100
AcDbEntity
  8
0
 62
     0
100
AcDbVertex
100
AcDb2dVertex
 10
0.0
 20
0.9999999999999998
 30
0.0
  0
SEQEND
  5
106
330
103
100
AcDbEntity
  8
0
 62
     0
  0
SOLID
  5
10A
330
100
100
AcDbEntity
  8
0
 62
     0
100
AcDbTrace
 10
0.0
 20
0.9999999999999998
 30
0.0
 11
0.0
 21
-0.9999999999999998
 31
0.0
 12
-0.9999999999999998
 22
0.0
 32
0.0
 13
0.0
 23
0.9999999999999998
 33
0.0
  0
ENDBLK
  5
102
330
100
100
AcDbEntity
  8
0
100
AcDbBlockEnd
  0
BLOCK
  5
10D
330
10C
100
AcDbEntity
  8
0
100
AcDbBlockBegin
  2
Filled-1
 70
     0
 10
0.0
 20
0.0
 30
0.0
  3
Filled-1
  1

  0
LINE
  5
10F
330
10C
100
AcDbEntity
  8
0
 62
     0
100
AcDbLine
 10
-0.9999999999999998
 20
0.0
 30
0.0
 11
0.0
 21
0.0
 31
0.0
  0
POLYLINE
  5
110
330
10C
100
AcDbEntity
  8
0
 62
     0
100
AcDb2dPolyline
 66
     1
 10
0.0
 20
0.0
 30
0.0
 70
   128
  0
VERTEX
  5
111
330
110
100
AcDbEntity
  8
0
 62
     0
100
AcDbVertex
100
AcDb2dVertex
 10
-0.9999999999999998
 20
-0.0994897959183674
 30
0.0
  0
VERTEX
  5
112
330
110
100
AcDbEntity
  8
0
 62
     0
100
AcDbVertex
100
AcDb2dVertex
 10
0.0
 20
0.0
 30
0.0
  0
VERTEX
  5
114
330
110
100
AcDbEntity
  8
0
 62
     0
100
AcDbVertex
100
AcDb2dVertex
 10
-0.9999999999999998
 20
0.0994897959183674
 30
0.0
  0
VERTEX
  5
115
330
110
100
AcDbEntity
  8
0
 62
     0
100
AcDbVertex
100
AcDb2dVertex
 10
-0.9999999999999998
 20
-0.0994897959183674
 30
0.0
  0
SEQEND
  5
113
330
110
100
AcDbEntity
  8
0
 62
     0
  0
SOLID
  5
116
330
10C
100
AcDbEntity
  8
0
 62
     0
100
AcDbTrace
 10
-0.9999999999999998
 20
-0.0994897959183674
 30
0.0
 11
0.0
 21
0.0
 31
0.0
 12
-0.9999999999999998
 22
0.0994897959183674
 32
0.0
 13
-0.9999999999999998
 23
-0.0994897959183674
 33
0.0
  0
LINE
  5
117
330
10C
100
AcDbEntity
  8
0
 62
     0
100
AcDbLine
 10
-0.9999999999999998
 20
-0.0994897959183674
 30
0.0
 11
0.0
 21
0.0
 31
0.0
  0
LINE
  5
118
330
10C
100
AcDbEntity
  8
0
 62
     0
100
AcDbLine
 10
0.0
 20
0.0
 30
0.0
 11
-0.9999999999999998
 21
0.0994897959183674
 31
0.0
  0
LINE
  5
119
330
10C
100
AcDbEntity
  8
0
 62
     0
100
AcDbLine
 10
-0.9999999999999998
 20
0.0994897959183674
 30
0.0
 11
-0.9999999999999998
 21
-0.0994897959183674
 31
0.0
  0
ENDBLK
  5
10E
330
10C
100
AcDbEntity
  8
0
100
AcDbBlockEnd
  0
BLOCK
  5
2ED
330
2EC
100
AcDbEntity
  8
0
100
AcDbBlockBegin
  2
*D4
 70
     1
 10
0.0
 20
0.0
 30
0.0
  3
*D4
  1

  0
LINE
  5
3CC
330
2EC
100
AcDbEntity
  8
Dimension (ANSI)
440
 16777216
100
AcDbLine
 10
39.77259449657911
 20
32.25247706687758
 30
0.0
 11
19.16383465405943
 21
32.25247706687758
 31
0.0
  0
LINE
  5
3CD
330
2EC
100
AcDbEntity
  8
Dimension (ANSI)
440
 16777216
100
AcDbLine
 10
39.7725944965791
 20
88.25247706687759
 30
0.0
 11
19.16383465405944
 21
88.25247706687759
 31
0.0
  0
LINE
  5
3CE
330
2EC
100
AcDbEntity
  8
Dimension (ANSI)
440
 16777216
100
AcDbLine
 10
20.53883465405943
 20
33.33515420770953
 30
0.0
 11
20.53883465405943
 21
59.21898207037741
 31
0.0
  0
LINE
  5
3CF
330
2EC
100
AcDbEntity
  8
Dimension (ANSI)
440
 16777216
100
AcDbLine
 10
20.53883465405944
 20
87.16979992604565
 30
0.0
 11
20.53883465405943
 21
61.28597206337774
 31
0.0
  0
SOLID
  5
3D0
330
2EC
100
AcDbEntity
  8
Dimension (ANSI)
440
 16777216
100
AcDbTrace
 10
20.35838846392077
 20
33.33515420770953
 30
0.0
 11
20.71928084419809
 21
33.33515420770953
 31
0.0
 12
20.53883465405943
 22
32.25247706687758
 32
0.0
 13
20.53883465405943
 23
32.25247706687758
 33
0.0
  0
SOLID
  5
3D1
330
2EC
100
AcDbEntity
  8
Dimension (ANSI)
440
 16777216
100
AcDbTrace
 10
20.35838846392078
 20
87.16979992604565
 30
0.0
 11
20.7192808441981
 21
87.16979992604565
 31
0.0
 12
20.53883465405944
 22
88.25247706687759
 32
0.0
 13
20.53883465405944
 23
88.25247706687759
 33
0.0
  0
MTEXT
  5
3D2
330
2EC
100
AcDbEntity
  8
Dimension (ANSI)
440
 16777216
100
AcDbMText
 10
18.37355587146496
 20
60.93951537046436
 30
0.0
 40
1.320000052452087
 41
0.0
 46
0.0
 71
     1
 72
     1
  1
\A1;56.00
  7
Note Text (ANSI)
 73
     1
 44
1.0
  0
POINT
  5
3D3
330
2EC
100
AcDbEntity
  8
Defpoints
 62
     0
440
 16777216
100
AcDbPoint
 10
40.4600944965791
 20
32.25247706687758
 30
0.0
  0
POINT
  5
3D4
330
2EC
100
AcDbEntity
  8
Defpoints
 62
     0
440
 16777216
100
AcDbPoint
 10
40.46009449657909
 20
88.25247706687759
 30
0.0
  0
POINT
  5
3D5
330
2EC
100
AcDbEntity
  8
Defpoints
 62
     0
440
 16777216
100
AcDbPoint
 10
20.53883465405944
 20
88.25247706687759
 30
0.0
  0
ENDBLK
  5
2EE
330
2EC
100
AcDbEntity
  8
0
100
AcDbBlockEnd
  0
BLOCK
  5
3D8
330
3D7
100
AcDbEntity
  8
0
100
AcDbBlockBegin
  2
*D5
 70
     1
 10
0.0
 20
0.0
 30
0.0
  3
*D5
  1

  0
LINE
  5
4B6
330
3D7
100
AcDbEntity
  8
Dimension (ANSI)
440
 16777216
100
AcDbLine
 10
40.43420614893078
 20
33.12747706687759
 30
0.0
 11
34.47117921363346
 21
33.12747706687759
 31
0.0
  0
LINE
  5
4B7
330
3D7
100
AcDbEntity
  8
Dimension (ANSI)
440
 16777216
100
AcDbLine
 10
40.43420614893078
 20
60.25247706687758
 30
0.0
 11
34.47117921363347
 21
60.25247706687758
 31
0.0
  0
LINE
  5
4B8
330
3D7
100
AcDbEntity
  8
Dimension (ANSI)
440
 16777216
100
AcDbLine
 10
35.84617921363346
 20
34.21015420770954
 30
0.0
 11
35.84617921363346
 21
45.65603881985897
 31
0.0
  0
LINE
  5
4B9
330
3D7
100
AcDbEntity
  8
Dimension (ANSI)
440
 16777216
100
AcDbLine
 10
35.84617921363347
 20
59.16979992604563
 30
0.0
 11
35.84617921363346
 21
47.72391531389618
 31
0.0
  0
SOLID
  5
4BA
330
3D7
100
AcDbEntity
  8
Dimension (ANSI)
440
 16777216
100
AcDbTrace
 10
35.66573302349481
 20
34.21015420770954
 30
0.0
 11
36.02662540377212
 21
34.21015420770954
 31
0.0
 12
35.84617921363346
 22
33.12747706687759
 32
0.0
 13
35.84617921363346
 23
33.12747706687759
 33
0.0
  0
SOLID
  5
4BB
330
3D7
100
AcDbEntity
  8
Dimension (ANSI)
440
 16777216
100
AcDbTrace
 10
35.66573302349481
 20
59.16979992604563
 30
0.0
 11
36.02662540377213
 21
59.16979992604563
 31
0.0
 12
35.84617921363347
 22
60.25247706687758
 32
0.0
 13
35.84617921363347
 23
60.25247706687758
 33
0.0
  0
MTEXT
  5
4BC
330
3D7
100
AcDbEntity
  8
Dimension (ANSI)
440
 16777216
100
AcDbMText
 10
33.68887894037097
 20
47.3774586209828
 30
0.0
 40
1.320000052452087
 41
0.0
 46
0.0
 71
     1
 72
     1
  1
\A1;27.13
  7
Note Text (ANSI)
 73
     1
 44
1.0
  0
POINT
  5
4BD
330
3D7
100
AcDbEntity
  8
Defpoints
 62
     0
440
 16777216
100
AcDbPoint
 10
41.12170614893078
 20
33.12747706687759
 30
0.0
  0
POINT
  5
4BE
330
3D7
100
AcDbEntity
  8
Defpoints
 62
     0
440
 16777216
100
AcDbPoint
 10
41.12170614893078
 20
60.25247706687758
 30
0.0
  0
POINT
  5
4BF
330
3D7
100
AcDbEntity
  8
Defpoints
 62
     0
440
 16777216
100
AcDbPoint
 10
35.84617921363347
 20
60.25247706687758
 30
0.0
  0
ENDBLK
  5
3D9
330
3D7
100
AcDbEntity
  8
0
100
AcDbBlockEnd
  0
BLOCK
  5
4C2
330
4C1
100
AcDbEntity
  8
0
100
AcDbBlockBegin
  2
*D6
 70
     1
 10
0.0
 20
0.0
 30
0.0
  3
*D6
  1

  0
LINE
  5
5A0
330
4C1
100
AcDbEntity
  8
Dimension (ANSI)
440
 16777216
100
AcDbLine
 10
40.43420614893078
 20
33.12747706687759
 30
0.0
 11
27.62072189696228
 21
33.12747706687759
 31
0.0
  0
LINE
  5
5A1
330
4C1
100
AcDbEntity
  8
Dimension (ANSI)
440
 16777216
100
AcDbLine
 10
40.43420614893078
 20
87.37747706687761
 30
0.0
 11
27.6207218969623
 21
87.37747706687761
 31
0.0
  0
LINE
  5
5A2
330
4C1
100
AcDbEntity
  8
Dimension (ANSI)
440
 16777216
100
AcDbLine
 10
28.99572189696229
 20
34.21015420770954
 30
0.0
 11
28.99572189696229
 21
59.21853881985897
 31
0.0
  0
LINE
  5
5A3
330
4C1
100
AcDbEntity
  8
Dimension (ANSI)
440
 16777216
100
AcDbLine
 10
28.99572189696229
 20
86.29479992604567
 30
0.0
 11
28.99572189696229
 21
61.28641531389618
 31
0.0
  0
SOLID
  5
5A4
330
4C1
100
AcDbEntity
  8
Dimension (ANSI)
440
 16777216
100
AcDbTrace
 10
28.81527570682363
 20
34.21015420770954
 30
0.0
 11
29.17616808710094
 21
34.21015420770954
 31
0.0
 12
28.99572189696229
 22
33.12747706687759
 32
0.0
 13
28.99572189696229
 23
33.12747706687759
 33
0.0
  0
SOLID
  5
5A5
330
4C1
100
AcDbEntity
  8
Dimension (ANSI)
440
 16777216
100
AcDbTrace
 10
28.81527570682364
 20
86.29479992604567
 30
0.0
 11
29.17616808710095
 21
86.29479992604567
 31
0.0
 12
28.99572189696229
 22
87.37747706687761
 32
0.0
 13
28.99572189696229
 23
87.37747706687761
 33
0.0
  0
MTEXT
  5
5A6
330
4C1
100
AcDbEntity
  8
Dimension (ANSI)
440
 16777216
100
AcDbMText
 10
26.84108112681045
 20
60.9399586209828
 30
0.0
 40
1.320000052452087
 41
0.0
 46
0.0
 71
     1
 72
     1
  1
\A1;54.25
  7
Note Text (ANSI)
 73
     1
 44
1.0
  0
POINT
  5
5A7
330
4C1
100
AcDbEntity
  8
Defpoints
 62
     0
440
 16777216
100
AcDbPoint
 10
41.12170614893078
 20
33.12747706687759
 30
0.0
  0
POINT
  5
5A8
330
4C1
100
AcDbEntity
  8
Defpoints
 62
     0
440
 16777216
100
AcDbPoint
 10
41.12170614893078
 20
87.37747706687761
 30
0.0
  0
POINT
  5
5A9
330
4C1
100
AcDbEntity
  8
Defpoints
 62
     0
440
 16777216
100
AcDbPoint
 10
28.99572189696229
 20
87.37747706687761
 30
0.0
  0
ENDBLK
  5
4C3
330
4C1
100
AcDbEntity
  8
0
100
AcDbBlockEnd
  0
BLOCK
  5
5AC
330
5AB
100
AcDbEntity
  8
0
100
AcDbBlockBegin
  2
*D7
 70
     1
 10
0.0
 20
0.0
 30
0.0
  3
*D7
  1

  0
LINE
  5
68A
330
5AB
100
AcDbEntity
  8
Dimension (ANSI)
440
 16777216
100
AcDbLine
 10
40.24670614893078
 20
88.72658871922926
 30
0.0
 11
40.24670614893078
 21
101.5400729711977
 31
0.0
  0
LINE
  5
68B
330
5AB
100
AcDbEntity
  8
Dimension (ANSI)
440
 16777216
100
AcDbLine
 10
84.24670614893075
 20
88.72658871922926
 30
0.0
 11
84.24670614893075
 21
101.5400729711977
 31
0.0
  0
LINE
  5
68C
330
5AB
100
AcDbEntity
  8
Dimension (ANSI)
440
 16777216
100
AcDbLine
 10
41.32938328976273
 20
100.1650729711977
 30
0.0
 11
59.6977376298737
 21
100.1650729711977
 31
0.0
  0
LINE
  5
68D
330
5AB
100
AcDbEntity
  8
Dimension (ANSI)
440
 16777216
100
AcDbLine
 10
83.16402900809881
 20
100.1650729711977
 30
0.0
 11
64.79567466798783
 21
100.1650729711977
 31
0.0
  0
SOLID
  5
68E
330
5AB
100
AcDbEntity
  8
Dimension (ANSI)
440
 16777216
100
AcDbTrace
 10
41.32938328976273
 20
100.3455191613364
 30
0.0
 11
41.32938328976273
 21
99.9846267810591
 31
0.0
 12
40.24670614893078
 22
100.1650729711977
 32
0.0
 13
40.24670614893078
 23
100.1650729711977
 33
0.0
  0
SOLID
  5
68F
330
5AB
100
AcDbEntity
  8
Dimension (ANSI)
440
 16777216
100
AcDbTrace
 10
83.16402900809881
 20
100.3455191613364
 30
0.0
 11
83.16402900809881
 21
99.9846267810591
 31
0.0
 12
84.24670614893075
 22
100.1650729711977
 32
0.0
 13
84.24670614893075
 23
100.1650729711977
 33
0.0
  0
MTEXT
  5
690
330
5AB
100
AcDbEntity
  8
Dimension (ANSI)
440
 16777216
100
AcDbMText
 10
60.04419432278709
 20
100.8521112747845
 30
0.0
 40
1.320000052452087
 41
0.0
 46
0.0
 71
     1
 72
     1
  1
\A1;44.00
  7
Note Text (ANSI)
 73
     1
 44
1.0
  0
POINT
  5
691
330
5AB
100
AcDbEntity
  8
Defpoints
 62
     0
440
 16777216
100
AcDbPoint
 10
40.24670614893078
 20
88.03908871922926
 30
0.0
  0
POINT
  5
692
330
5AB
100
AcDbEntity
  8
Defpoints
 62
     0
440
 16777216
100
AcDbPoint
 10
84.24670614893075
 20
88.03908871922926
 30
0.0
  0
POINT
  5
693
330
5AB
100
AcDbEntity
  8
Defpoints
 62
     0
440
 16777216
100
AcDbPoint
 10
84.24670614893075
 20
100.1650729711977
 30
0.0
  0
ENDBLK
  5
5AD
330
5AB
100
AcDbEntity
  8
0
100
AcDbBlockEnd
  0
BLOCK
  5
696
330
695
100
AcDbEntity
  8
0
100
AcDbBlockBegin
  2
*D8
 70
     1
 10
0.0
 20
0.0
 30
0.0
  3
*D8
  1

  0
LINE
  5
774
330
695
100
AcDbEntity
  8
Dimension (ANSI)
440
 16777216
100
AcDbLine
 10
41.12170614893078
 20
88.0649770668776
 30
0.0
 11
41.12170614893078
 21
97.36819760429586
 31
0.0
  0
LINE
  5
775
330
695
100
AcDbEntity
  8
Dimension (ANSI)
440
 16777216
100
AcDbLine
 10
83.37170614893079
 20
88.0649770668776
 30
0.0
 11
83.37170614893079
 21
97.36819760429586
 31
0.0
  0
LINE
  5
776
330
695
100
AcDbEntity
  8
Dimension (ANSI)
440
 16777216
100
AcDbLine
 10
42.20438328976273
 20
95.99319760429585
 30
0.0
 11
59.70837564231636
 21
95.99319760429585
 31
0.0
  0
LINE
  5
777
330
695
100
AcDbEntity
  8
Dimension (ANSI)
440
 16777216
100
AcDbLine
 10
82.28902900809883
 20
95.99319760429585
 30
0.0
 11
64.78503665554521
 21
95.99319760429585
 31
0.0
  0
SOLID
  5
778
330
695
100
AcDbEntity
  8
Dimension (ANSI)
440
 16777216
100
AcDbTrace
 10
42.20438328976273
 20
96.17364379443451
 30
0.0
 11
42.20438328976273
 21
95.81275141415721
 31
0.0
 12
41.12170614893078
 22
95.99319760429585
 32
0.0
 13
41.12170614893078
 23
95.99319760429585
 33
0.0
  0
SOLID
  5
779
330
695
100
AcDbEntity
  8
Dimension (ANSI)
440
 16777216
100
AcDbTrace
 10
82.28902900809883
 20
96.17364379443451
 30
0.0
 11
82.28902900809883
 21
95.81275141415721
 31
0.0
 12
83.37170614893079
 22
95.99319760429585
 32
0.0
 13
83.37170614893079
 23
95.99319760429585
 33
0.0
  0
MTEXT
  5
77A
330
695
100
AcDbEntity
  8
Dimension (ANSI)
440
 16777216
100
AcDbMText
 10
60.05483233522973
 20
96.68067915840108
 30
0.0
 40
1.320000052452087
 41
0.0
 46
0.0
 71
     1
 72
     1
  1
\A1;42.25
  7
Note Text (ANSI)
 73
     1
 44
1.0
  0
POINT
  5
77B
330
695
100
AcDbEntity
  8
Defpoints
 62
     0
440
 16777216
100
AcDbPoint
 10
41.12170614893078
 20
87.37747706687761
 30
0.0
  0
POINT
  5
77C
330
695
100
AcDbEntity
  8
Defpoints
 62
     0
440
 16777216
100
AcDbPoint
 10
83.37170614893079
 20
87.37747706687761
 30
0.0
  0
POINT
  5
77D
330
695
100
AcDbEntity
  8
Defpoints
 62
     0
440
 16777216
100
AcDbPoint
 10
83.37170614893079
 20
95.99319760429585
 30
0.0
  0
ENDBLK
  5
697
330
695
100
AcDbEntity
  8
0
100
AcDbBlockEnd
  0
BLOCK
  5
780
330
77F
100
AcDbEntity
  8
0
100
AcDbBlockBegin
  2
*D9
 70
     1
 10
0.0
 20
0.0
 30
0.0
  3
*D9
  1

  0
LINE
  5
85E
330
77F
100
AcDbEntity
  8
Dimension (ANSI)
440
 16777216
100
AcDbLine
 10
41.12170614893078
 20
88.0649770668776
 30
0.0
 11
41.12170614893078
 21
92.65766528001195
 31
0.0
  0
LINE
  5
85F
330
77F
100
AcDbEntity
  8
Dimension (ANSI)
440
 16777216
100
AcDbLine
 10
62.24670614893078
 20
88.0649770668776
 30
0.0
 11
62.24670614893078
 21
92.65766528001195
 31
0.0
  0
LINE
  5
860
330
77F
100
AcDbEntity
  8
Dimension (ANSI)
440
 16777216
100
AcDbLine
 10
42.20438328976273
 20
91.28266528001196
 30
0.0
 11
49.18044918275491
 21
91.28266528001196
 31
0.0
  0
LINE
  5
861
330
77F
100
AcDbEntity
  8
Dimension (ANSI)
440
 16777216
100
AcDbLine
 10
61.16402900809884
 20
91.28266528001196
 30
0.0
 11
54.18796311510665
 21
91.28266528001196
 31
0.0
  0
SOLID
  5
862
330
77F
100
AcDbEntity
  8
Dimension (ANSI)
440
 16777216
100
AcDbTrace
 10
42.20438328976273
 20
91.4631114701506
 30
0.0
 11
42.20438328976273
 21
91.1022190898733
 31
0.0
 12
41.12170614893078
 22
91.28266528001196
 32
0.0
 13
41.12170614893078
 23
91.28266528001196
 33
0.0
  0
SOLID
  5
863
330
77F
100
AcDbEntity
  8
Dimension (ANSI)
440
 16777216
100
AcDbTrace
 10
61.16402900809884
 20
91.4631114701506
 30
0.0
 11
61.16402900809884
 21
91.1022190898733
 31
0.0
 12
62.24670614893078
 22
91.28266528001196
 32
0.0
 13
62.24670614893078
 23
91.28266528001196
 33
0.0
  0
MTEXT
  5
864
330
77F
100
AcDbEntity
  8
Dimension (ANSI)
440
 16777216
100
AcDbMText
 10
49.5269058756683
 20
91.97014683411717
 30
0.0
 40
1.320000052452087
 41
0.0
 46
0.0
 71
     1
 72
     1
  1
\A1;21.13
  7
Note Text (ANSI)
 73
     1
 44
1.0
  0
POINT
  5
865
330
77F
100
AcDbEntity
  8
Defpoints
 62
     0
440
 16777216
100
AcDbPoint
 10
41.12170614893078
 20
87.37747706687761
 30
0.0
  0
POINT
  5
866
330
77F
100
AcDbEntity
  8
Defpoints
 62
     0
440
 16777216
100
AcDbPoint
 10
62.24670614893078
 20
87.37747706687761
 30
0.0
  0
POINT
  5
867
330
77F
100
AcDbEntity
  8
Defpoints
 62
     0
440
 16777216
100
AcDbPoint
 10
62.24670614893078
 20
91.28266528001196
 30
0.0
  0
ENDBLK
  5
781
330
77F
100
AcDbEntity
  8
0
100
AcDbBlockEnd
  0
BLOCK
  5
86A
330
869
100
AcDbEntity
  8
0
100
AcDbBlockBegin
  2
*D10
 70
     1
 10
0.0
 20
0.0
 30
0.0
  3
*D10
  1

  0
LINE
  5
974
330
869
100
AcDbEntity
  8
Dimension (ANSI)
440
 16777216
100
AcDbLine
 10
84.72081780128245
 20
32.25247706687758
 30
0.0
 11
93.29222336490946
 21
32.25247706687758
 31
0.0
  0
LINE
  5
975
330
869
100
AcDbEntity
  8
Dimension (ANSI)
440
 16777216
100
AcDbLine
 10
84.05920614893078
 20
33.12747706687757
 30
0.0
 11
93.29222336490946
 21
33.12747706687757
 31
0.0
  0
LINE
  5
976
330
869
100
AcDbEntity
  8
Dimension (ANSI)
440
 16777216
100
AcDbLine
 10
91.91722336490945
 20
31.16979992604564
 30
0.0
 11
91.91722336490945
 21
30.08712278521369
 31
0.0
  0
LINE
  5
977
330
869
100
AcDbEntity
  8
Dimension (ANSI)
440
 16777216
100
AcDbLine
 10
91.91722336490945
 20
34.21015420770952
 30
0.0
 11
91.91722336490945
 21
35.29283134854147
 31
0.0
  0
LINE
  5
978
330
869
100
AcDbEntity
  8
Dimension (ANSI)
440
 16777216
100
AcDbLine
 10
92.99990050574139
 20
28.06282647460495
 30
0.0
 11
91.91722336490945
 21
28.06282647460495
 31
0.0
  0
LINE
  5
979
330
869
100
AcDbEntity
  8
Dimension (ANSI)
440
 16777216
100
AcDbLine
 10
91.91722336490945
 20
28.06282647460495
 30
0.0
 11
91.91722336490945
 21
30.08712278521369
 31
0.0
  0
MTEXT
  5
97A
330
869
100
AcDbEntity
  8
Dimension (ANSI)
440
 16777216
100
AcDbMText
 10
93.34635719865479
 20
28.95036176625441
 30
0.0
 40
1.320000052452087
 41
0.0
 46
0.0
 71
     1
 72
     1
  1
\A1;0.88{ \PTYP.}
  7
Note Text (ANSI)
 73
     1
 44
1.0
  0
SOLID
  5
97B
330
869
100
AcDbEntity
  8
Dimension (ANSI)
440
 16777216
100
AcDbTrace
 10
91.7367771747708
 20
31.16979992604564
 30
0.0
 11
92.09766955504809
 21
31.16979992604564
 31
0.0
 12
91.91722336490945
 22
32.25247706687758
 32
0.0
 13
91.91722336490945
 23
32.25247706687758
 33
0.0
  0
SOLID
  5
97C
330
869
100
AcDbEntity
  8
Dimension (ANSI)
440
 16777216
100
AcDbTrace
 10
91.73677717477081
 20
34.21015420770952
 30
0.0
 11
92.09766955504811
 21
34.21015420770952
 31
0.0
 12
91.91722336490945
 22
33.12747706687757
 32
0.0
 13
91.91722336490945
 23
33.12747706687757
 33
0.0
  0
POINT
  5
97D
330
869
100
AcDbEntity
  8
Defpoints
 62
     0
440
 16777216
100
AcDbPoint
 10
84.03331780128246
 20
32.25247706687758
 30
0.0
  0
POINT
  5
97E
330
869
100
AcDbEntity
  8
Defpoints
 62
     0
440
 16777216
100
AcDbPoint
 10
83.37170614893079
 20
33.12747706687757
 30
0.0
  0
POINT
  5
97F
330
869
100
AcDbEntity
  8
Defpoints
 62
     0
440
 16777216
100
AcDbPoint
 10
91.91722336490945
 20
33.12747706687757
 30
0.0
  0
ENDBLK
  5
86B
330
869
100
AcDbEntity
  8
0
100
AcDbBlockEnd
  0
BLOCK
  5
982
330
981
100
AcDbEntity
  8
0
100
AcDbBlockBegin
  2
*D11
 70
     1
 10
0.0
 20
0.0
 30
0.0
  3
*D11
  1

  0
LINE
  5
A74
330
981
100
AcDbEntity
  8
Dimension (ANSI)
440
 16777216
100
AcDbLine
 10
84.24670614893079
 20
31.77836541452591
 30
0.0
 11
84.24670614893079
 21
27.63569360125949
 31
0.0
  0
LINE
  5
A75
330
981
100
AcDbEntity
  8
Dimension (ANSI)
440
 16777216
100
AcDbLine
 10
83.37170614893079
 20
32.43997706687757
 30
0.0
 11
83.37170614893079
 21
27.63569360125949
 31
0.0
  0
LINE
  5
A76
330
981
100
AcDbEntity
  8
Dimension (ANSI)
440
 16777216
100
AcDbLine
 10
85.32938328976273
 20
29.0106936012595
 30
0.0
 11
86.41206043059467
 21
29.0106936012595
 31
0.0
  0
LINE
  5
A77
330
981
100
AcDbEntity
  8
Dimension (ANSI)
440
 16777216
100
AcDbLine
 10
82.28902900809883
 20
29.0106936012595
 30
0.0
 11
80.59690536178706
 21
29.0106936012595
 31
0.0
  0
SOLID
  5
A78
330
981
100
AcDbEntity
  8
Dimension (ANSI)
440
 16777216
100
AcDbTrace
 10
85.32938328976273
 20
29.19113979139815
 30
0.0
 11
85.32938328976273
 21
28.83024741112084
 31
0.0
 12
84.24670614893079
 22
29.0106936012595
 32
0.0
 13
84.24670614893079
 23
29.0106936012595
 33
0.0
  0
SOLID
  5
A79
330
981
100
AcDbEntity
  8
Dimension (ANSI)
440
 16777216
100
AcDbTrace
 10
82.28902900809883
 20
29.19113979139815
 30
0.0
 11
82.28902900809883
 21
28.83024741112084
 31
0.0
 12
83.37170614893079
 22
29.0106936012595
 32
0.0
 13
83.37170614893079
 23
29.0106936012595
 33
0.0
  0
MTEXT
  5
A7A
330
981
100
AcDbEntity
  8
Dimension (ANSI)
440
 16777216
100
AcDbMText
 10
76.7629535897635
 20
29.89822889290893
 30
0.0
 40
1.320000052452087
 41
0.0
 46
0.0
 71
     1
 72
     1
  1
\A1;0.88{\PTYP.}
  7
Note Text (ANSI)
 73
     1
 44
1.0
  0
POINT
  5
A7B
330
981
100
AcDbEntity
  8
Defpoints
 62
     0
440
 16777216
100
AcDbPoint
 10
84.24670614893079
 20
32.46586541452591
 30
0.0
  0
POINT
  5
A7C
330
981
100
AcDbEntity
  8
Defpoints
 62
     0
440
 16777216
100
AcDbPoint
 10
83.37170614893079
 20
33.12747706687757
 30
0.0
  0
POINT
  5
A7D
330
981
100
AcDbEntity
  8
Defpoints
 62
     0
440
 16777216
100
AcDbPoint
 10
83.37170614893079
 20
29.0106936012595
 30
0.0
  0
ENDBLK
  5
983
330
981
100
AcDbEntity
  8
0
100
AcDbBlockEnd
  0
BLOCK
  5
A80
330
A7F
100
AcDbEntity
  8
0
100
AcDbBlockBegin
  2
*D12
 70
     1
 10
0.0
 20
0.0
 30
0.0
  3
*D12
  1

  0
LINE
  5
B5E
330
A7F
100
AcDbEntity
  8
Dimension (ANSI)
440
 16777216
100
AcDbLine
 10
125.3333575491123
 20
88.78372706687757
 30
0.0
 11
125.3333575491123
 21
92.77708336609014
 31
0.0
  0
LINE
  5
B5F
330
A7F
100
AcDbEntity
  8
Dimension (ANSI)
440
 16777216
100
AcDbLine
 10
126.2083575491123
 20
88.93997706687754
 30
0.0
 11
126.2083575491123
 21
92.77708336609014
 31
0.0
  0
LINE
  5
B60
330
A7F
100
AcDbEntity
  8
Dimension (ANSI)
440
 16777216
100
AcDbLine
 10
127.2910346899442
 20
91.40208336609013
 30
0.0
 11
128.3737118307762
 21
91.40208336609013
 31
0.0
  0
LINE
  5
B61
330
A7F
100
AcDbEntity
  8
Dimension (ANSI)
440
 16777216
100
AcDbLine
 10
124.2506804082803
 20
91.40208336609013
 30
0.0
 11
122.6085846310898
 21
91.40208336609013
 31
0.0
  0
SOLID
  5
B62
330
A7F
100
AcDbEntity
  8
Dimension (ANSI)
440
 16777216
100
AcDbTrace
 10
127.2910346899442
 20
91.58252955622879
 30
0.0
 11
127.2910346899442
 21
91.22163717595148
 31
0.0
 12
126.2083575491123
 22
91.40208336609013
 32
0.0
 13
126.2083575491123
 23
91.40208336609013
 33
0.0
  0
SOLID
  5
B63
330
A7F
100
AcDbEntity
  8
Dimension (ANSI)
440
 16777216
100
AcDbTrace
 10
124.2506804082803
 20
91.58252955622879
 30
0.0
 11
124.2506804082803
 21
91.22163717595148
 31
0.0
 12
125.3333575491123
 22
91.40208336609013
 32
0.0
 13
125.3333575491123
 23
91.40208336609013
 33
0.0
  0
MTEXT
  5
B64
330
A7F
100
AcDbEntity
  8
Dimension (ANSI)
440
 16777216
100
AcDbMText
 10
118.8783534803819
 20
92.09222442330602
 30
0.0
 40
1.320000052452087
 41
0.0
 46
0.0
 71
     1
 72
     1
  1
\A1;0.88
  7
Note Text (ANSI)
 73
     1
 44
1.0
  0
POINT
  5
B65
330
A7F
100
AcDbEntity
  8
Defpoints
 62
     0
440
 16777216
100
AcDbPoint
 10
125.3333575491123
 20
88.09622706687758
 30
0.0
  0
POINT
  5
B66
330
A7F
100
AcDbEntity
  8
Defpoints
 62
     0
440
 16777216
100
AcDbPoint
 10
126.2083575491123
 20
88.25247706687754
 30
0.0
  0
POINT
  5
B67
330
A7F
100
AcDbEntity
  8
Defpoints
 62
     0
440
 16777216
100
AcDbPoint
 10
126.2083575491123
 20
91.40208336609013
 30
0.0
  0
ENDBLK
  5
A81
330
A7F
100
AcDbEntity
  8
0
100
AcDbBlockEnd
  0
BLOCK
  5
CB3
330
CB2
100
AcDbEntity
  8
0
100
AcDbBlockBegin
  2
*D13
 70
     1
 10
0.0
 20
0.0
 30
0.0
  3
*D13
  1

  0
LINE
  5
D64
330
CB2
100
AcDbEntity
  8
Dimension (ANSI)
440
 16777216
100
AcDbLine
 10
88.21311918758411
 20
68.31055657246982
 30
0.0
 11
86.80371644104708
 21
68.31055657246984
 31
0.0
  0
LINE
  5
D65
330
CB2
100
AcDbEntity
  8
Dimension (ANSI)
440
 16777216
100
AcDbLine
 10
86.80371644104708
 20
68.31055657246984
 30
0.0
 11
83.90625766426474
 21
61.50756031073931
 31
0.0
  0
MTEXT
  5
D66
330
CB2
100
AcDbEntity
  8
Dimension (ANSI)
440
 16777216
100
AcDbMText
 10
88.55957588049752
 20
69.30887063218623
 30
0.0
 40
1.320000052452087
 41
0.0
 46
0.0
 71
     1
 72
     1
  1
\A1;∅0.563{\P(10PL.)}
  7
Note Text (ANSI)
 73
     1
 44
1.0
  0
SOLID
  5
D67
330
CB2
100
AcDbEntity
  8
Dimension (ANSI)
440
 16777216
100
AcDbTrace
 10
83.7402418420647
 20
61.57826797874498
 30
0.0
 11
84.07227348646477
 21
61.43685264273364
 31
0.0
 12
83.48201165623072
 22
60.51146537753904
 32
0.0
 13
83.48201165623072
 23
60.51146537753904
 33
0.0
  0
LINE
  5
D68
330
CB2
100
AcDbEntity
  8
Dimension (ANSI)
440
 16777216
100
AcDbLine
 10
82.38170614893077
 20
60.25247706687757
 30
0.0
 11
84.36170614893075
 21
60.25247706687757
 31
0.0
  0
LINE
  5
D69
330
CB2
100
AcDbEntity
  8
Dimension (ANSI)
440
 16777216
100
AcDbLine
 10
83.37170614893075
 20
59.26247706687758
 30
0.0
 11
83.37170614893075
 21
61.24247706687758
 31
0.0
  0
POINT
  5
D6A
330
CB2
100
AcDbEntity
  8
Defpoints
 62
     0
440
 16777216
100
AcDbPoint
 10
83.48201165623072
 20
60.51146537753904
 30
0.0
  0
POINT
  5
D6B
330
CB2
100
AcDbEntity
  8
Defpoints
 62
     0
440
 16777216
100
AcDbPoint
 10
83.26140064163077
 20
59.99348875621612
 30
0.0
  0
ENDBLK
  5
CB4
330
CB2
100
AcDbEntity
  8
0
100
AcDbBlockEnd
  0
BLOCK
  5
D6E
330
D6D
100
AcDbEntity
  8
0
100
AcDbBlockBegin
  2
*D14
 70
     1
 10
0.0
 20
0.0
 30
0.0
  3
*D14
  1

  0
LINE
  5
E4C
330
D6D
100
AcDbEntity
  8
Dimension (ANSI)
440
 16777216
100
AcDbLine
 10
84.05920614893075
 20
50.25247706687758
 30
0.0
 11
89.78607622767093
 21
50.25247706687758
 31
0.0
  0
LINE
  5
E4D
330
D6D
100
AcDbEntity
  8
Dimension (ANSI)
440
 16777216
100
AcDbLine
 10
84.05920614893075
 20
60.25247706687757
 30
0.0
 11
89.78607622767093
 21
60.25247706687757
 31
0.0
  0
LINE
  5
E4E
330
D6D
100
AcDbEntity
  8
Dimension (ANSI)
440
 16777216
100
AcDbLine
 10
88.41107622767093
 20
51.33515420770953
 30
0.0
 11
88.41107622767093
 21
54.21898207037739
 31
0.0
  0
LINE
  5
E4F
330
D6D
100
AcDbEntity
  8
Dimension (ANSI)
440
 16777216
100
AcDbLine
 10
88.41107622767093
 20
59.16979992604563
 30
0.0
 11
88.41107622767093
 21
56.28597206337772
 31
0.0
  0
SOLID
  5
E50
330
D6D
100
AcDbEntity
  8
Dimension (ANSI)
440
 16777216
100
AcDbTrace
 10
88.23063003753228
 20
51.33515420770953
 30
0.0
 11
88.59152241780959
 21
51.33515420770953
 31
0.0
 12
88.41107622767093
 22
50.25247706687758
 32
0.0
 13
88.41107622767093
 23
50.25247706687758
 33
0.0
  0
SOLID
  5
E51
330
D6D
100
AcDbEntity
  8
Dimension (ANSI)
440
 16777216
100
AcDbTrace
 10
88.23063003753228
 20
59.16979992604563
 30
0.0
 11
88.59152241780959
 21
59.16979992604563
 31
0.0
 12
88.41107622767093
 22
60.25247706687757
 32
0.0
 13
88.41107622767093
 23
60.25247706687757
 33
0.0
  0
MTEXT
  5
E52
330
D6D
100
AcDbEntity
  8
Dimension (ANSI)
440
 16777216
100
AcDbMText
 10
86.29100899795764
 20
55.93951537046436
 30
0.0
 40
1.320000052452087
 41
0.0
 46
0.0
 71
     1
 72
     1
  1
\A1;10.00
  7
Note Text (ANSI)
 73
     1
 44
1.0
  0
POINT
  5
E53
330
D6D
100
AcDbEntity
  8
Defpoints
 62
     0
440
 16777216
100
AcDbPoint
 10
83.37170614893075
 20
50.25247706687758
 30
0.0
  0
POINT
  5
E54
330
D6D
100
AcDbEntity
  8
Defpoints
 62
     0
440
 16777216
100
AcDbPoint
 10
83.37170614893075
 20
60.25247706687757
 30
0.0
  0
POINT
  5
E55
330
D6D
100
AcDbEntity
  8
Defpoints
 62
     0
440
 16777216
100
AcDbPoint
 10
88.41107622767093
 20
60.25247706687757
 30
0.0
  0
ENDBLK
  5
D6F
330
D6D
100
AcDbEntity
  8
0
100
AcDbBlockEnd
  0
ENDSEC
  0
SECTION
  2
ENTITIES
  0
CIRCLE
  5
11B
330
6C
100
AcDbEntity
  8
Visible (ANSI)
100
AcDbCircle
 10
83.37170614893075
 20
50.25247706687758
 30
0.0
 40
0.2814999999999999
  0
CIRCLE
  5
11C
330
6C
100
AcDbEntity
  8
Visible (ANSI)
100
AcDbCircle
 10
41.12170614893078
 20
50.2524770668776
 30
0.0
 40
0.2814999999999999
  0
CIRCLE
  5
11D
330
6C
100
AcDbEntity
  8
Visible (ANSI)
100
AcDbCircle
 10
62.24670614893078
 20
33.12747706687757
 30
0.0
 40
0.2814999999999999
  0
CIRCLE
  5
11E
330
6C
100
AcDbEntity
  8
Visible (ANSI)
100
AcDbCircle
 10
83.37170614893075
 20
60.25247706687757
 30
0.0
 40
0.2814999999999999
  0
CIRCLE
  5
11F
330
6C
100
AcDbEntity
  8
Visible (ANSI)
100
AcDbCircle
 10
83.37170614893079
 20
33.12747706687758
 30
0.0
 40
0.2814999999999999
  0
CIRCLE
  5
120
330
6C
100
AcDbEntity
  8
Visible (ANSI)
100
AcDbCircle
 10
41.12170614893078
 20
33.12747706687759
 30
0.0
 40
0.2814999999999999
  0
CIRCLE
  5
121
330
6C
100
AcDbEntity
  8
Visible (ANSI)
100
AcDbCircle
 10
41.12170614893078
 20
60.25247706687759
 30
0.0
 40
0.2814999999999999
  0
CIRCLE
  5
122
330
6C
100
AcDbEntity
  8
Visible (ANSI)
100
AcDbCircle
 10
83.37170614893079
 20
87.37747706687757
 30
0.0
 40
0.2814999999999999
  0
CIRCLE
  5
123
330
6C
100
AcDbEntity
  8
Visible (ANSI)
100
AcDbCircle
 10
62.24670614893078
 20
87.37747706687757
 30
0.0
 40
0.2814999999999999
  0
CIRCLE
  5
124
330
6C
100
AcDbEntity
  8
Visible (ANSI)
100
AcDbCircle
 10
41.12170614893078
 20
87.37747706687757
 30
0.0
 40
0.2814999999999999
  0
LINE
  5
125
330
6C
100
AcDbEntity
  8
Visible (ANSI)
100
AcDbLine
 10
84.03331780128246
 20
32.25247706687759
 30
0.0
 11
40.4600944965791
 21
32.25247706687758
 31
0.0
  0
LINE
  5
126
330
6C
100
AcDbEntity
  8
Visible (ANSI)
100
AcDbLine
 10
84.24670614893077
 20
88.03908871922926
 30
0.0
 11
84.24670614893079
 21
32.46586541452591
 31
0.0
  0
LINE
  5
127
330
6C
100
AcDbEntity
  8
Visible (ANSI)
100
AcDbLine
 10
40.4600944965791
 20
88.25247706687759
 30
0.0
 11
84.03331780128246
 21
88.25247706687759
 31
0.0
  0
LINE
  5
128
330
6C
100
AcDbEntity
  8
Visible (ANSI)
100
AcDbLine
 10
40.24670614893078
 20
32.4658654145259
 30
0.0
 11
40.24670614893078
 21
88.03908871922926
 31
0.0
  0
POLYLINE
  5
129
330
6C
100
AcDbEntity
  8
Visible (ANSI)
100
AcDb2dPolyline
 66
     1
 10
0.0
 20
0.0
 30
0.0
 70
   128
  0
VERTEX
  5
12A
330
129
100
AcDbEntity
  8
Visible (ANSI)
100
AcDbVertex
100
AcDb2dVertex
 10
84.09045759070613
 20
32.40872706453094
 30
0.0
  0
VERTEX
  5
12B
330
129
100
AcDbEntity
  8
Visible (ANSI)
100
AcDbVertex
100
AcDb2dVertex
 10
84.08807565768908
 20
32.3985078247178
 30
0.0
  0
VERTEX
  5
12D
330
129
100
AcDbEntity
  8
Visible (ANSI)
100
AcDbVertex
100
AcDb2dVertex
 10
84.08569372467205
 20
32.38833234973242
 30
0.0
  0
VERTEX
  5
12E
330
129
100
AcDbEntity
  8
Visible (ANSI)
100
AcDbVertex
100
AcDb2dVertex
 10
84.08331479535364
 20
32.3782442049382
 30
0.0
  0
VERTEX
  5
12F
330
129
100
AcDbEntity
  8
Visible (ANSI)
100
AcDbVertex
100
AcDb2dVertex
 10
84.08093286233659
 20
32.3682865919694
 30
0.0
  0
VERTEX
  5
130
330
129
100
AcDbEntity
  8
Visible (ANSI)
100
AcDbVertex
100
AcDb2dVertex
 10
84.07855092931955
 20
32.35850214926678
 30
0.0
  0
VERTEX
  5
131
330
129
100
AcDbEntity
  8
Visible (ANSI)
100
AcDbVertex
100
AcDb2dVertex
 10
84.07617200000116
 20
32.34893278194626
 30
0.0
  0
VERTEX
  5
132
330
129
100
AcDbEntity
  8
Visible (ANSI)
100
AcDbVertex
100
AcDb2dVertex
 10
84.07379006698411
 20
32.33961945646792
 30
0.0
  0
VERTEX
  5
133
330
129
100
AcDbEntity
  8
Visible (ANSI)
100
AcDbVertex
100
AcDb2dVertex
 10
84.0714111376657
 20
32.33060206570426
 30
0.0
  0
VERTEX
  5
134
330
129
100
AcDbEntity
  8
Visible (ANSI)
100
AcDbVertex
100
AcDb2dVertex
 10
84.06902920464867
 20
32.32191921774259
 30
0.0
  0
VERTEX
  5
135
330
129
100
AcDbEntity
  8
Visible (ANSI)
100
AcDbVertex
100
AcDb2dVertex
 10
84.06664727163164
 20
32.31360809508672
 30
0.0
  0
VERTEX
  5
136
330
129
100
AcDbEntity
  8
Visible (ANSI)
100
AcDbVertex
100
AcDb2dVertex
 10
84.06426834231323
 20
32.30570428452555
 30
0.0
  0
VERTEX
  5
137
330
129
100
AcDbEntity
  8
Visible (ANSI)
100
AcDbVertex
100
AcDb2dVertex
 10
84.06188640929618
 20
32.2982416334014
 30
0.0
  0
VERTEX
  5
138
330
129
100
AcDbEntity
  8
Visible (ANSI)
100
AcDbVertex
100
AcDb2dVertex
 10
84.05950747997778
 20
32.29125209707846
 30
0.0
  0
VERTEX
  5
139
330
129
100
AcDbEntity
  8
Visible (ANSI)
100
AcDbVertex
100
AcDb2dVertex
 10
84.05712554696075
 20
32.28476560694428
 30
0.0
  0
VERTEX
  5
13A
330
129
100
AcDbEntity
  8
Visible (ANSI)
100
AcDbVertex
100
AcDb2dVertex
 10
84.05474361394372
 20
32.27880994134463
 30
0.0
  0
VERTEX
  5
13B
330
129
100
AcDbEntity
  8
Visible (ANSI)
100
AcDbVertex
100
AcDb2dVertex
 10
84.05236468462531
 20
32.27341059798498
 30
0.0
  0
VERTEX
  5
13C
330
129
100
AcDbEntity
  8
Visible (ANSI)
100
AcDbVertex
100
AcDb2dVertex
 10
84.04998275160826
 20
32.2685907015315
 30
0.0
  0
VERTEX
  5
13D
330
129
100
AcDbEntity
  8
Visible (ANSI)
100
AcDbVertex
100
AcDb2dVertex
 10
84.04760382228984
 20
32.26437088994579
 30
0.0
  0
VERTEX
  5
13E
330
129
100
AcDbEntity
  8
Visible (ANSI)
100
AcDbVertex
100
AcDb2dVertex
 10
84.0452218892728
 20
32.26076923381909
 30
0.0
  0
VERTEX
  5
13F
330
129
100
AcDbEntity
  8
Visible (ANSI)
100
AcDbVertex
100
AcDb2dVertex
 10
84.04283995625577
 20
32.25780115643991
 30
0.0
  0
VERTEX
  5
140
330
129
100
AcDbEntity
  8
Visible (ANSI)
100
AcDbVertex
100
AcDb2dVertex
 10
84.04046102693737
 20
32.25547936687809
 30
0.0
  0
VERTEX
  5
141
330
129
100
AcDbEntity
  8
Visible (ANSI)
100
AcDbVertex
100
AcDb2dVertex
 10
84.03807909392032
 20
32.25381380727711
 30
0.0
  0
VERTEX
  5
142
330
129
100
AcDbEntity
  8
Visible (ANSI)
100
AcDbVertex
100
AcDb2dVertex
 10
84.03569716090329
 20
32.25281161011499
 30
0.0
  0
VERTEX
  5
143
330
129
100
AcDbEntity
  8
Visible (ANSI)
100
AcDbVertex
100
AcDb2dVertex
 10
84.03331823158486
 20
32.25247706687759
 30
0.0
  0
SEQEND
  5
12C
330
129
100
AcDbEntity
  8
Visible (ANSI)
  0
POLYLINE
  5
144
330
6C
100
AcDbEntity
  8
Visible (ANSI)
100
AcDb2dPolyline
 66
     1
 10
0.0
 20
0.0
 30
0.0
 70
   128
  0
VERTEX
  5
145
330
144
100
AcDbEntity
  8
Visible (ANSI)
100
AcDbVertex
100
AcDb2dVertex
 10
40.46009448491719
 20
32.25247706687758
 30
0.0
  0
VERTEX
  5
146
330
144
100
AcDbEntity
  8
Visible (ANSI)
100
AcDbVertex
100
AcDb2dVertex
 10
40.45771372521993
 20
32.25281161011499
 30
0.0
  0
VERTEX
  5
148
330
144
100
AcDbEntity
  8
Visible (ANSI)
100
AcDbVertex
100
AcDb2dVertex
 10
40.45533296552267
 20
32.25381380727711
 30
0.0
  0
VERTEX
  5
149
330
144
100
AcDbEntity
  8
Visible (ANSI)
100
AcDbVertex
100
AcDb2dVertex
 10
40.4529522058254
 20
32.25547936687809
 30
0.0
  0
VERTEX
  5
14A
330
144
100
AcDbEntity
  8
Visible (ANSI)
100
AcDbVertex
100
AcDb2dVertex
 10
40.45057144612814
 20
32.25780115643991
 30
0.0
  0
VERTEX
  5
14B
330
144
100
AcDbEntity
  8
Visible (ANSI)
100
AcDbVertex
100
AcDb2dVertex
 10
40.44819066296449
 20
32.26076923381909
 30
0.0
  0
VERTEX
  5
14C
330
144
100
AcDbEntity
  8
Visible (ANSI)
100
AcDbVertex
100
AcDb2dVertex
 10
40.44580990326722
 20
32.26437088994579
 30
0.0
  0
VERTEX
  5
14D
330
144
100
AcDbEntity
  8
Visible (ANSI)
100
AcDbVertex
100
AcDb2dVertex
 10
40.44342914356996
 20
32.2685907015315
 30
0.0
  0
VERTEX
  5
14E
330
144
100
AcDbEntity
  8
Visible (ANSI)
100
AcDbVertex
100
AcDb2dVertex
 10
40.4410483838727
 20
32.27341059798498
 30
0.0
  0
VERTEX
  5
14F
330
144
100
AcDbEntity
  8
Visible (ANSI)
100
AcDbVertex
100
AcDb2dVertex
 10
40.43866761244225
 20
32.27880994134463
 30
0.0
  0
VERTEX
  5
150
330
144
100
AcDbEntity
  8
Visible (ANSI)
100
AcDbVertex
100
AcDb2dVertex
 10
40.43628685274498
 20
32.28476560694428
 30
0.0
  0
VERTEX
  5
151
330
144
100
AcDbEntity
  8
Visible (ANSI)
100
AcDbVertex
100
AcDb2dVertex
 10
40.43390609304772
 20
32.29125209707846
 30
0.0
  0
VERTEX
  5
152
330
144
100
AcDbEntity
  8
Visible (ANSI)
100
AcDbVertex
100
AcDb2dVertex
 10
40.43152532161726
 20
32.2982416334014
 30
0.0
  0
VERTEX
  5
153
330
144
100
AcDbEntity
  8
Visible (ANSI)
100
AcDbVertex
100
AcDb2dVertex
 10
40.42914456192
 20
32.30570428452555
 30
0.0
  0
VERTEX
  5
154
330
144
100
AcDbEntity
  8
Visible (ANSI)
100
AcDbVertex
100
AcDb2dVertex
 10
40.42676379048955
 20
32.31360809508672
 30
0.0
  0
VERTEX
  5
155
330
144
100
AcDbEntity
  8
Visible (ANSI)
100
AcDbVertex
100
AcDb2dVertex
 10
40.42438303079229
 20
32.32191921774259
 30
0.0
  0
VERTEX
  5
156
330
144
100
AcDbEntity
  8
Visible (ANSI)
100
AcDbVertex
100
AcDb2dVertex
 10
40.42200225936182
 20
32.33060206570426
 30
0.0
  0
VERTEX
  5
157
330
144
100
AcDbEntity
  8
Visible (ANSI)
100
AcDbVertex
100
AcDb2dVertex
 10
40.41962149966456
 20
32.33961945646792
 30
0.0
  0
VERTEX
  5
158
330
144
100
AcDbEntity
  8
Visible (ANSI)
100
AcDbVertex
100
AcDb2dVertex
 10
40.4172407399673
 20
32.34893278194626
 30
0.0
  0
VERTEX
  5
159
330
144
100
AcDbEntity
  8
Visible (ANSI)
100
AcDbVertex
100
AcDb2dVertex
 10
40.41485996853685
 20
32.35850214926678
 30
0.0
  0
VERTEX
  5
15A
330
144
100
AcDbEntity
  8
Visible (ANSI)
100
AcDbVertex
100
AcDb2dVertex
 10
40.41247920883958
 20
32.3682865919694
 30
0.0
  0
VERTEX
  5
15B
330
144
100
AcDbEntity
  8
Visible (ANSI)
100
AcDbVertex
100
AcDb2dVertex
 10
40.41009843740912
 20
32.3782442049382
 30
0.0
  0
VERTEX
  5
15C
330
144
100
AcDbEntity
  8
Visible (ANSI)
100
AcDbVertex
100
AcDb2dVertex
 10
40.40771767771186
 20
32.38833234973242
 30
0.0
  0
VERTEX
  5
15D
330
144
100
AcDbEntity
  8
Visible (ANSI)
100
AcDbVertex
100
AcDb2dVertex
 10
40.40533691801461
 20
32.3985078247178
 30
0.0
  0
VERTEX
  5
15E
330
144
100
AcDbEntity
  8
Visible (ANSI)
100
AcDbVertex
100
AcDb2dVertex
 10
40.40295614658414
 20
32.40872706453094
 30
0.0
  0
SEQEND
  5
147
330
144
100
AcDbEntity
  8
Visible (ANSI)
  0
POLYLINE
  5
15F
330
6C
100
AcDbEntity
  8
Visible (ANSI)
100
AcDb2dPolyline
 66
     1
 10
0.0
 20
0.0
 30
0.0
 70
   128
  0
VERTEX
  5
160
330
15F
100
AcDbEntity
  8
Visible (ANSI)
100
AcDbVertex
100
AcDb2dVertex
 10
84.09045759070613
 20
88.09622682658169
 30
0.0
  0
VERTEX
  5
161
330
15F
100
AcDbEntity
  8
Visible (ANSI)
100
AcDbVertex
100
AcDb2dVertex
 10
84.10067617346019
 20
88.09384789726328
 30
0.0
  0
VERTEX
  5
163
330
15F
100
AcDbEntity
  8
Visible (ANSI)
100
AcDbVertex
100
AcDb2dVertex
 10
84.11084970073472
 20
88.09146296054761
 30
0.0
  0
VERTEX
  5
164
330
15F
100
AcDbEntity
  8
Visible (ANSI)
100
AcDbVertex
100
AcDb2dVertex
 10
84.12093912444751
 20
88.0890840312292
 30
0.0
  0
VERTEX
  5
165
330
15F
100
AcDbEntity
  8
Visible (ANSI)
100
AcDbVertex
100
AcDb2dVertex
 10
84.13089638542038
 20
88.08670510191079
 30
0.0
  0
VERTEX
  5
166
330
15F
100
AcDbEntity
  8
Visible (ANSI)
100
AcDbVertex
100
AcDb2dVertex
 10
84.1406824355711
 20
88.08432617259239
 30
0.0
  0
VERTEX
  5
167
330
15F
100
AcDbEntity
  8
Visible (ANSI)
100
AcDbVertex
100
AcDb2dVertex
 10
84.1502492157215
 20
88.08194123587671
 30
0.0
  0
VERTEX
  5
168
330
15F
100
AcDbEntity
  8
Visible (ANSI)
100
AcDbVertex
100
AcDb2dVertex
 10
84.15956368518662
 20
88.07956230655831
 30
0.0
  0
VERTEX
  5
169
330
15F
100
AcDbEntity
  8
Visible (ANSI)
100
AcDbVertex
100
AcDb2dVertex
 10
84.16858078848695
 20
88.07718337723988
 30
0.0
  0
VERTEX
  5
16A
330
15F
100
AcDbEntity
  8
Visible (ANSI)
100
AcDbVertex
100
AcDb2dVertex
 10
84.17726448123884
 20
88.07479844052423
 30
0.0
  0
VERTEX
  5
16B
330
15F
100
AcDbEntity
  8
Visible (ANSI)
100
AcDbVertex
100
AcDb2dVertex
 10
84.18557571536011
 20
88.07241951120582
 30
0.0
  0
VERTEX
  5
16C
330
15F
100
AcDbEntity
  8
Visible (ANSI)
100
AcDbVertex
100
AcDb2dVertex
 10
84.19347844646706
 20
88.07004058188741
 30
0.0
  0
VERTEX
  5
16D
330
15F
100
AcDbEntity
  8
Visible (ANSI)
100
AcDbVertex
100
AcDb2dVertex
 10
84.20094263757343
 20
88.06765564517174
 30
0.0
  0
VERTEX
  5
16E
330
15F
100
AcDbEntity
  8
Visible (ANSI)
100
AcDbVertex
100
AcDb2dVertex
 10
84.20793224429557
 20
88.06527671585334
 30
0.0
  0
VERTEX
  5
16F
330
15F
100
AcDbEntity
  8
Visible (ANSI)
100
AcDbVertex
100
AcDb2dVertex
 10
84.21441722964713
 20
88.06289778653493
 30
0.0
  0
VERTEX
  5
170
330
15F
100
AcDbEntity
  8
Visible (ANSI)
100
AcDbVertex
100
AcDb2dVertex
 10
84.22037356403905
 20
88.06051284981924
 30
0.0
  0
VERTEX
  5
171
330
15F
100
AcDbEntity
  8
Visible (ANSI)
100
AcDbVertex
100
AcDb2dVertex
 10
84.22577121048497
 20
88.05813392050085
 30
0.0
  0
VERTEX
  5
172
330
15F
100
AcDbEntity
  8
Visible (ANSI)
100
AcDbVertex
100
AcDb2dVertex
 10
84.23059214679311
 20
88.05575499118244
 30
0.0
  0
VERTEX
  5
173
330
15F
100
AcDbEntity
  8
Visible (ANSI)
100
AcDbVertex
100
AcDb2dVertex
 10
84.23481234337437
 20
88.05337606186403
 30
0.0
  0
VERTEX
  5
174
330
15F
100
AcDbEntity
  8
Visible (ANSI)
100
AcDbVertex
100
AcDb2dVertex
 10
84.23841377803695
 20
88.05099112514836
 30
0.0
  0
VERTEX
  5
175
330
15F
100
AcDbEntity
  8
Visible (ANSI)
100
AcDbVertex
100
AcDb2dVertex
 10
84.2413814322877
 20
88.04861219582996
 30
0.0
  0
VERTEX
  5
176
330
15F
100
AcDbEntity
  8
Visible (ANSI)
100
AcDbVertex
100
AcDb2dVertex
 10
84.24370329133205
 20
88.04623326651155
 30
0.0
  0
VERTEX
  5
177
330
15F
100
AcDbEntity
  8
Visible (ANSI)
100
AcDbVertex
100
AcDb2dVertex
 10
84.24537034407411
 20
88.04384832979588
 30
0.0
  0
VERTEX
  5
178
330
15F
100
AcDbEntity
  8
Visible (ANSI)
100
AcDbVertex
100
AcDb2dVertex
 10
84.24637057571935
 20
88.04146940047747
 30
0.0
  0
VERTEX
  5
179
330
15F
100
AcDbEntity
  8
Visible (ANSI)
100
AcDbVertex
100
AcDb2dVertex
 10
84.2467069899664
 20
88.03909047115906
 30
0.0
  0
SEQEND
  5
162
330
15F
100
AcDbEntity
  8
Visible (ANSI)
  0
POLYLINE
  5
17A
330
6C
100
AcDbEntity
  8
Visible (ANSI)
100
AcDb2dPolyline
 66
     1
 10
0.0
 20
0.0
 30
0.0
 70
   128
  0
VERTEX
  5
17B
330
17A
100
AcDbEntity
  8
Visible (ANSI)
100
AcDbVertex
100
AcDb2dVertex
 10
84.2467069899664
 20
32.46586540286398
 30
0.0
  0
VERTEX
  5
17C
330
17A
100
AcDbEntity
  8
Visible (ANSI)
100
AcDbVertex
100
AcDb2dVertex
 10
84.24637057571935
 20
32.46348464316672
 30
0.0
  0
VERTEX
  5
17E
330
17A
100
AcDbEntity
  8
Visible (ANSI)
100
AcDbVertex
100
AcDb2dVertex
 10
84.24537034407411
 20
32.46110388346945
 30
0.0
  0
VERTEX
  5
17F
330
17A
100
AcDbEntity
  8
Visible (ANSI)
100
AcDbVertex
100
AcDb2dVertex
 10
84.24370329133205
 20
32.45872312377219
 30
0.0
  0
VERTEX
  5
180
330
17A
100
AcDbEntity
  8
Visible (ANSI)
100
AcDbVertex
100
AcDb2dVertex
 10
84.2413814322877
 20
32.45634236407493
 30
0.0
  0
VERTEX
  5
181
330
17A
100
AcDbEntity
  8
Visible (ANSI)
100
AcDbVertex
100
AcDb2dVertex
 10
84.23841377803695
 20
32.45396158091128
 30
0.0
  0
VERTEX
  5
182
330
17A
100
AcDbEntity
  8
Visible (ANSI)
100
AcDbVertex
100
AcDb2dVertex
 10
84.23481234337437
 20
32.45158082121402
 30
0.0
  0
VERTEX
  5
183
330
17A
100
AcDbEntity
  8
Visible (ANSI)
100
AcDbVertex
100
AcDb2dVertex
 10
84.23059214679311
 20
32.44920006151676
 30
0.0
  0
VERTEX
  5
184
330
17A
100
AcDbEntity
  8
Visible (ANSI)
100
AcDbVertex
100
AcDb2dVertex
 10
84.22577121048497
 20
32.4468193018195
 30
0.0
  0
VERTEX
  5
185
330
17A
100
AcDbEntity
  8
Visible (ANSI)
100
AcDbVertex
100
AcDb2dVertex
 10
84.22037356403905
 20
32.44443853038904
 30
0.0
  0
VERTEX
  5
186
330
17A
100
AcDbEntity
  8
Visible (ANSI)
100
AcDbVertex
100
AcDb2dVertex
 10
84.21441722964713
 20
32.44205777069178
 30
0.0
  0
VERTEX
  5
187
330
17A
100
AcDbEntity
  8
Visible (ANSI)
100
AcDbVertex
100
AcDb2dVertex
 10
84.20793224429557
 20
32.43967701099452
 30
0.0
  0
VERTEX
  5
188
330
17A
100
AcDbEntity
  8
Visible (ANSI)
100
AcDbVertex
100
AcDb2dVertex
 10
84.20094263757343
 20
32.43729623956406
 30
0.0
  0
VERTEX
  5
189
330
17A
100
AcDbEntity
  8
Visible (ANSI)
100
AcDbVertex
100
AcDb2dVertex
 10
84.19347844646706
 20
32.4349154798668
 30
0.0
  0
VERTEX
  5
18A
330
17A
100
AcDbEntity
  8
Visible (ANSI)
100
AcDbVertex
100
AcDb2dVertex
 10
84.18557571536011
 20
32.43253470843634
 30
0.0
  0
VERTEX
  5
18B
330
17A
100
AcDbEntity
  8
Visible (ANSI)
100
AcDbVertex
100
AcDb2dVertex
 10
84.17726448123884
 20
32.43015394873907
 30
0.0
  0
VERTEX
  5
18C
330
17A
100
AcDbEntity
  8
Visible (ANSI)
100
AcDbVertex
100
AcDb2dVertex
 10
84.16858078848695
 20
32.42777317730862
 30
0.0
  0
VERTEX
  5
18D
330
17A
100
AcDbEntity
  8
Visible (ANSI)
100
AcDbVertex
100
AcDb2dVertex
 10
84.15956368518662
 20
32.42539241761136
 30
0.0
  0
VERTEX
  5
18E
330
17A
100
AcDbEntity
  8
Visible (ANSI)
100
AcDbVertex
100
AcDb2dVertex
 10
84.1502492157215
 20
32.4230116579141
 30
0.0
  0
VERTEX
  5
18F
330
17A
100
AcDbEntity
  8
Visible (ANSI)
100
AcDbVertex
100
AcDb2dVertex
 10
84.1406824355711
 20
32.42063088648364
 30
0.0
  0
VERTEX
  5
190
330
17A
100
AcDbEntity
  8
Visible (ANSI)
100
AcDbVertex
100
AcDb2dVertex
 10
84.13089638542038
 20
32.41825012678638
 30
0.0
  0
VERTEX
  5
191
330
17A
100
AcDbEntity
  8
Visible (ANSI)
100
AcDbVertex
100
AcDb2dVertex
 10
84.12093912444751
 20
32.41586935535592
 30
0.0
  0
VERTEX
  5
192
330
17A
100
AcDbEntity
  8
Visible (ANSI)
100
AcDbVertex
100
AcDb2dVertex
 10
84.11084970073472
 20
32.41348859565866
 30
0.0
  0
VERTEX
  5
193
330
17A
100
AcDbEntity
  8
Visible (ANSI)
100
AcDbVertex
100
AcDb2dVertex
 10
84.10067617346019
 20
32.4111078359614
 30
0.0
  0
VERTEX
  5
194
330
17A
100
AcDbEntity
  8
Visible (ANSI)
100
AcDbVertex
100
AcDb2dVertex
 10
84.09045759070613
 20
32.40872706453094
 30
0.0
  0
SEQEND
  5
17D
330
17A
100
AcDbEntity
  8
Visible (ANSI)
  0
POLYLINE
  5
195
330
6C
100
AcDbEntity
  8
Visible (ANSI)
100
AcDb2dPolyline
 66
     1
 10
0.0
 20
0.0
 30
0.0
 70
   128
  0
VERTEX
  5
196
330
195
100
AcDbEntity
  8
Visible (ANSI)
100
AcDbVertex
100
AcDb2dVertex
 10
40.40295614658414
 20
88.09622682658169
 30
0.0
  0
VERTEX
  5
197
330
195
100
AcDbEntity
  8
Visible (ANSI)
100
AcDbVertex
100
AcDb2dVertex
 10
40.40533691801461
 20
88.10644540933575
 30
0.0
  0
VERTEX
  5
199
330
195
100
AcDbEntity
  8
Visible (ANSI)
100
AcDbVertex
100
AcDb2dVertex
 10
40.40771767771186
 20
88.11662194030892
 30
0.0
  0
VERTEX
  5
19A
330
195
100
AcDbEntity
  8
Visible (ANSI)
100
AcDbVertex
100
AcDb2dVertex
 10
40.41009843740912
 20
88.12670836032307
 30
0.0
  0
VERTEX
  5
19B
330
195
100
AcDbEntity
  8
Visible (ANSI)
100
AcDbVertex
100
AcDb2dVertex
 10
40.41247920883958
 20
88.13666862499458
 30
0.0
  0
VERTEX
  5
19C
330
195
100
AcDbEntity
  8
Visible (ANSI)
100
AcDbVertex
100
AcDb2dVertex
 10
40.41485996853685
 20
88.14645467514528
 30
0.0
  0
VERTEX
  5
19D
330
195
100
AcDbEntity
  8
Visible (ANSI)
100
AcDbVertex
100
AcDb2dVertex
 10
40.4172407399673
 20
88.15601845159704
 30
0.0
  0
VERTEX
  5
19E
330
195
100
AcDbEntity
  8
Visible (ANSI)
100
AcDbVertex
100
AcDb2dVertex
 10
40.41962149966456
 20
88.16533592476082
 30
0.0
  0
VERTEX
  5
19F
330
195
100
AcDbEntity
  8
Visible (ANSI)
100
AcDbVertex
100
AcDb2dVertex
 10
40.42200225936182
 20
88.17435302806114
 30
0.0
  0
VERTEX
  5
1A0
330
195
100
AcDbEntity
  8
Visible (ANSI)
100
AcDbVertex
100
AcDb2dVertex
 10
40.42438303079229
 20
88.18303371711442
 30
0.0
  0
VERTEX
  5
1A1
330
195
100
AcDbEntity
  8
Visible (ANSI)
100
AcDbVertex
100
AcDb2dVertex
 10
40.42676379048955
 20
88.19134795493429
 30
0.0
  0
VERTEX
  5
1A2
330
195
100
AcDbEntity
  8
Visible (ANSI)
100
AcDbVertex
100
AcDb2dVertex
 10
40.42914456192
 20
88.19924768234264
 30
0.0
  0
VERTEX
  5
1A3
330
195
100
AcDbEntity
  8
Visible (ANSI)
100
AcDbVertex
100
AcDb2dVertex
 10
40.43152532161726
 20
88.20671487714763
 30
0.0
  0
VERTEX
  5
1A4
330
195
100
AcDbEntity
  8
Visible (ANSI)
100
AcDbVertex
100
AcDb2dVertex
 10
40.43390609304772
 20
88.21370148017113
 30
0.0
  0
VERTEX
  5
1A5
330
195
100
AcDbEntity
  8
Visible (ANSI)
100
AcDbVertex
100
AcDb2dVertex
 10
40.43628685274498
 20
88.22018946922133
 30
0.0
  0
VERTEX
  5
1A6
330
195
100
AcDbEntity
  8
Visible (ANSI)
100
AcDbVertex
100
AcDb2dVertex
 10
40.43866761244225
 20
88.2261427999146
 30
0.0
  0
VERTEX
  5
1A7
330
195
100
AcDbEntity
  8
Visible (ANSI)
100
AcDbVertex
100
AcDb2dVertex
 10
40.4410483838727
 20
88.23154345005915
 30
0.0
  0
VERTEX
  5
1A8
330
195
100
AcDbEntity
  8
Visible (ANSI)
100
AcDbVertex
100
AcDb2dVertex
 10
40.44342914356996
 20
88.23636138266868
 30
0.0
  0
VERTEX
  5
1A9
330
195
100
AcDbEntity
  8
Visible (ANSI)
100
AcDbVertex
100
AcDb2dVertex
 10
40.44580990326722
 20
88.24058458294855
 30
0.0
  0
VERTEX
  5
1AA
330
195
100
AcDbEntity
  8
Visible (ANSI)
100
AcDbVertex
100
AcDb2dVertex
 10
40.44819066296449
 20
88.24418301391252
 30
0.0
  0
VERTEX
  5
1AB
330
195
100
AcDbEntity
  8
Visible (ANSI)
100
AcDbVertex
100
AcDb2dVertex
 10
40.45057144612814
 20
88.24715066816326
 30
0.0
  0
VERTEX
  5
1AC
330
195
100
AcDbEntity
  8
Visible (ANSI)
100
AcDbVertex
100
AcDb2dVertex
 10
40.4529522058254
 20
88.24947553090623
 30
0.0
  0
VERTEX
  5
1AD
330
195
100
AcDbEntity
  8
Visible (ANSI)
100
AcDbVertex
100
AcDb2dVertex
 10
40.45533296552267
 20
88.25113957994966
 30
0.0
  0
VERTEX
  5
1AE
330
195
100
AcDbEntity
  8
Visible (ANSI)
100
AcDbVertex
100
AcDb2dVertex
 10
40.45771372521993
 20
88.25214281529353
 30
0.0
  0
VERTEX
  5
1AF
330
195
100
AcDbEntity
  8
Visible (ANSI)
100
AcDbVertex
100
AcDb2dVertex
 10
40.46009448491719
 20
88.25247922954059
 30
0.0
  0
SEQEND
  5
198
330
195
100
AcDbEntity
  8
Visible (ANSI)
  0
POLYLINE
  5
1B0
330
6C
100
AcDbEntity
  8
Visible (ANSI)
100
AcDb2dPolyline
 66
     1
 10
0.0
 20
0.0
 30
0.0
 70
   128
  0
VERTEX
  5
1B1
330
1B0
100
AcDbEntity
  8
Visible (ANSI)
100
AcDbVertex
100
AcDb2dVertex
 10
84.03331823158486
 20
88.25247922954059
 30
0.0
  0
VERTEX
  5
1B2
330
1B0
100
AcDbEntity
  8
Visible (ANSI)
100
AcDbVertex
100
AcDb2dVertex
 10
84.03569716090329
 20
88.25214281529353
 30
0.0
  0
VERTEX
  5
1B4
330
1B0
100
AcDbEntity
  8
Visible (ANSI)
100
AcDbVertex
100
AcDb2dVertex
 10
84.03807909392032
 20
88.25113957994966
 30
0.0
  0
VERTEX
  5
1B5
330
1B0
100
AcDbEntity
  8
Visible (ANSI)
100
AcDbVertex
100
AcDb2dVertex
 10
84.04046102693737
 20
88.24947553090623
 30
0.0
  0
VERTEX
  5
1B6
330
1B0
100
AcDbEntity
  8
Visible (ANSI)
100
AcDbVertex
100
AcDb2dVertex
 10
84.04283995625577
 20
88.24715066816326
 30
0.0
  0
VERTEX
  5
1B7
330
1B0
100
AcDbEntity
  8
Visible (ANSI)
100
AcDbVertex
100
AcDb2dVertex
 10
84.0452218892728
 20
88.24418301391252
 30
0.0
  0
VERTEX
  5
1B8
330
1B0
100
AcDbEntity
  8
Visible (ANSI)
100
AcDbVertex
100
AcDb2dVertex
 10
84.04760382228984
 20
88.24058458294855
 30
0.0
  0
VERTEX
  5
1B9
330
1B0
100
AcDbEntity
  8
Visible (ANSI)
100
AcDbVertex
100
AcDb2dVertex
 10
84.04998275160826
 20
88.23636138266868
 30
0.0
  0
VERTEX
  5
1BA
330
1B0
100
AcDbEntity
  8
Visible (ANSI)
100
AcDbVertex
100
AcDb2dVertex
 10
84.05236468462531
 20
88.23154345005915
 30
0.0
  0
VERTEX
  5
1BB
330
1B0
100
AcDbEntity
  8
Visible (ANSI)
100
AcDbVertex
100
AcDb2dVertex
 10
84.05474361394372
 20
88.2261427999146
 30
0.0
  0
VERTEX
  5
1BC
330
1B0
100
AcDbEntity
  8
Visible (ANSI)
100
AcDbVertex
100
AcDb2dVertex
 10
84.05712554696075
 20
88.22018946922133
 30
0.0
  0
VERTEX
  5
1BD
330
1B0
100
AcDbEntity
  8
Visible (ANSI)
100
AcDbVertex
100
AcDb2dVertex
 10
84.05950747997778
 20
88.21370148017113
 30
0.0
  0
VERTEX
  5
1BE
330
1B0
100
AcDbEntity
  8
Visible (ANSI)
100
AcDbVertex
100
AcDb2dVertex
 10
84.06188640929618
 20
88.20671487714763
 30
0.0
  0
VERTEX
  5
1BF
330
1B0
100
AcDbEntity
  8
Visible (ANSI)
100
AcDbVertex
100
AcDb2dVertex
 10
84.06426834231323
 20
88.19924768234264
 30
0.0
  0
VERTEX
  5
1C0
330
1B0
100
AcDbEntity
  8
Visible (ANSI)
100
AcDbVertex
100
AcDb2dVertex
 10
84.06664727163164
 20
88.19134795493429
 30
0.0
  0
VERTEX
  5
1C1
330
1B0
100
AcDbEntity
  8
Visible (ANSI)
100
AcDbVertex
100
AcDb2dVertex
 10
84.06902920464867
 20
88.18303371711442
 30
0.0
  0
VERTEX
  5
1C2
330
1B0
100
AcDbEntity
  8
Visible (ANSI)
100
AcDbVertex
100
AcDb2dVertex
 10
84.0714111376657
 20
88.17435302806114
 30
0.0
  0
VERTEX
  5
1C3
330
1B0
100
AcDbEntity
  8
Visible (ANSI)
100
AcDbVertex
100
AcDb2dVertex
 10
84.07379006698411
 20
88.16533592476082
 30
0.0
  0
VERTEX
  5
1C4
330
1B0
100
AcDbEntity
  8
Visible (ANSI)
100
AcDbVertex
100
AcDb2dVertex
 10
84.07617200000116
 20
88.15601845159704
 30
0.0
  0
VERTEX
  5
1C5
330
1B0
100
AcDbEntity
  8
Visible (ANSI)
100
AcDbVertex
100
AcDb2dVertex
 10
84.07855092931955
 20
88.14645467514528
 30
0.0
  0
VERTEX
  5
1C6
330
1B0
100
AcDbEntity
  8
Visible (ANSI)
100
AcDbVertex
100
AcDb2dVertex
 10
84.08093286233659
 20
88.13666862499458
 30
0.0
  0
VERTEX
  5
1C7
330
1B0
100
AcDbEntity
  8
Visible (ANSI)
100
AcDbVertex
100
AcDb2dVertex
 10
84.08331479535364
 20
88.12670836032307
 30
0.0
  0
VERTEX
  5
1C8
330
1B0
100
AcDbEntity
  8
Visible (ANSI)
100
AcDbVertex
100
AcDb2dVertex
 10
84.08569372467205
 20
88.11662194030892
 30
0.0
  0
VERTEX
  5
1C9
330
1B0
100
AcDbEntity
  8
Visible (ANSI)
100
AcDbVertex
100
AcDb2dVertex
 10
84.08807565768908
 20
88.10644540933575
 30
0.0
  0
VERTEX
  5
1CA
330
1B0
100
AcDbEntity
  8
Visible (ANSI)
100
AcDbVertex
100
AcDb2dVertex
 10
84.09045759070613
 20
88.09622682658169
 30
0.0
  0
SEQEND
  5
1B3
330
1B0
100
AcDbEntity
  8
Visible (ANSI)
  0
POLYLINE
  5
1CB
330
6C
100
AcDbEntity
  8
Visible (ANSI)
100
AcDb2dPolyline
 66
     1
 10
0.0
 20
0.0
 30
0.0
 70
   128
  0
VERTEX
  5
1CC
330
1CB
100
AcDbEntity
  8
Visible (ANSI)
100
AcDbVertex
100
AcDb2dVertex
 10
40.40295614658414
 20
32.40872706453094
 30
0.0
  0
VERTEX
  5
1CD
330
1CB
100
AcDbEntity
  8
Visible (ANSI)
100
AcDbVertex
100
AcDb2dVertex
 10
40.39273690677101
 20
32.4111078359614
 30
0.0
  0
VERTEX
  5
1CF
330
1CB
100
AcDbEntity
  8
Visible (ANSI)
100
AcDbVertex
100
AcDb2dVertex
 10
40.38256143178563
 20
32.41348859565866
 30
0.0
  0
VERTEX
  5
1D0
330
1CB
100
AcDbEntity
  8
Visible (ANSI)
100
AcDbVertex
100
AcDb2dVertex
 10
40.37247328699141
 20
32.41586935535592
 30
0.0
  0
VERTEX
  5
1D1
330
1CB
100
AcDbEntity
  8
Visible (ANSI)
100
AcDbVertex
100
AcDb2dVertex
 10
40.36251567402261
 20
32.41825012678638
 30
0.0
  0
VERTEX
  5
1D2
330
1CB
100
AcDbEntity
  8
Visible (ANSI)
100
AcDbVertex
100
AcDb2dVertex
 10
40.35273123131998
 20
32.42063088648364
 30
0.0
  0
VERTEX
  5
1D3
330
1CB
100
AcDbEntity
  8
Visible (ANSI)
100
AcDbVertex
100
AcDb2dVertex
 10
40.34316186399947
 20
32.4230116579141
 30
0.0
  0
VERTEX
  5
1D4
330
1CB
100
AcDbEntity
  8
Visible (ANSI)
100
AcDbVertex
100
AcDb2dVertex
 10
40.33384853852113
 20
32.42539241761136
 30
0.0
  0
VERTEX
  5
1D5
330
1CB
100
AcDbEntity
  8
Visible (ANSI)
100
AcDbVertex
100
AcDb2dVertex
 10
40.32483114775746
 20
32.42777317730862
 30
0.0
  0
VERTEX
  5
1D6
330
1CB
100
AcDbEntity
  8
Visible (ANSI)
100
AcDbVertex
100
AcDb2dVertex
 10
40.3161482997958
 20
32.43015394873907
 30
0.0
  0
VERTEX
  5
1D7
330
1CB
100
AcDbEntity
  8
Visible (ANSI)
100
AcDbVertex
100
AcDb2dVertex
 10
40.30783717713993
 20
32.43253470843634
 30
0.0
  0
VERTEX
  5
1D8
330
1CB
100
AcDbEntity
  8
Visible (ANSI)
100
AcDbVertex
100
AcDb2dVertex
 10
40.29993336657876
 20
32.4349154798668
 30
0.0
  0
VERTEX
  5
1D9
330
1CB
100
AcDbEntity
  8
Visible (ANSI)
100
AcDbVertex
100
AcDb2dVertex
 10
40.29247071545461
 20
32.43729623956406
 30
0.0
  0
VERTEX
  5
1DA
330
1CB
100
AcDbEntity
  8
Visible (ANSI)
100
AcDbVertex
100
AcDb2dVertex
 10
40.28548117913166
 20
32.43967701099452
 30
0.0
  0
VERTEX
  5
1DB
330
1CB
100
AcDbEntity
  8
Visible (ANSI)
100
AcDbVertex
100
AcDb2dVertex
 10
40.27899468899748
 20
32.44205777069178
 30
0.0
  0
VERTEX
  5
1DC
330
1CB
100
AcDbEntity
  8
Visible (ANSI)
100
AcDbVertex
100
AcDb2dVertex
 10
40.27303902339784
 20
32.44443853038904
 30
0.0
  0
VERTEX
  5
1DD
330
1CB
100
AcDbEntity
  8
Visible (ANSI)
100
AcDbVertex
100
AcDb2dVertex
 10
40.26763968003819
 20
32.4468193018195
 30
0.0
  0
VERTEX
  5
1DE
330
1CB
100
AcDbEntity
  8
Visible (ANSI)
100
AcDbVertex
100
AcDb2dVertex
 10
40.2628197835847
 20
32.44920006151676
 30
0.0
  0
VERTEX
  5
1DF
330
1CB
100
AcDbEntity
  8
Visible (ANSI)
100
AcDbVertex
100
AcDb2dVertex
 10
40.258599971999
 20
32.45158082121402
 30
0.0
  0
VERTEX
  5
1E0
330
1CB
100
AcDbEntity
  8
Visible (ANSI)
100
AcDbVertex
100
AcDb2dVertex
 10
40.2549983158723
 20
32.45396158091128
 30
0.0
  0
VERTEX
  5
1E1
330
1CB
100
AcDbEntity
  8
Visible (ANSI)
100
AcDbVertex
100
AcDb2dVertex
 10
40.25203023849312
 20
32.45634236407493
 30
0.0
  0
VERTEX
  5
1E2
330
1CB
100
AcDbEntity
  8
Visible (ANSI)
100
AcDbVertex
100
AcDb2dVertex
 10
40.24970844893129
 20
32.45872312377219
 30
0.0
  0
VERTEX
  5
1E3
330
1CB
100
AcDbEntity
  8
Visible (ANSI)
100
AcDbVertex
100
AcDb2dVertex
 10
40.24804288933031
 20
32.46110388346945
 30
0.0
  0
VERTEX
  5
1E4
330
1CB
100
AcDbEntity
  8
Visible (ANSI)
100
AcDbVertex
100
AcDb2dVertex
 10
40.24704069216819
 20
32.46348464316672
 30
0.0
  0
VERTEX
  5
1E5
330
1CB
100
AcDbEntity
  8
Visible (ANSI)
100
AcDbVertex
100
AcDb2dVertex
 10
40.24670614893078
 20
32.46586540286398
 30
0.0
  0
SEQEND
  5
1CE
330
1CB
100
AcDbEntity
  8
Visible (ANSI)
  0
POLYLINE
  5
1E6
330
6C
100
AcDbEntity
  8
Visible (ANSI)
100
AcDb2dPolyline
 66
     1
 10
0.0
 20
0.0
 30
0.0
 70
   128
  0
VERTEX
  5
1E7
330
1E6
100
AcDbEntity
  8
Visible (ANSI)
100
AcDbVertex
100
AcDb2dVertex
 10
40.24670614893078
 20
88.03909047115906
 30
0.0
  0
VERTEX
  5
1E8
330
1E6
100
AcDbEntity
  8
Visible (ANSI)
100
AcDbVertex
100
AcDb2dVertex
 10
40.24704069216819
 20
88.04146940047747
 30
0.0
  0
VERTEX
  5
1EA
330
1E6
100
AcDbEntity
  8
Visible (ANSI)
100
AcDbVertex
100
AcDb2dVertex
 10
40.24804288933031
 20
88.04384832979588
 30
0.0
  0
VERTEX
  5
1EB
330
1E6
100
AcDbEntity
  8
Visible (ANSI)
100
AcDbVertex
100
AcDb2dVertex
 10
40.24970844893129
 20
88.04623326651155
 30
0.0
  0
VERTEX
  5
1EC
330
1E6
100
AcDbEntity
  8
Visible (ANSI)
100
AcDbVertex
100
AcDb2dVertex
 10
40.25203023849312
 20
88.04861219582996
 30
0.0
  0
VERTEX
  5
1ED
330
1E6
100
AcDbEntity
  8
Visible (ANSI)
100
AcDbVertex
100
AcDb2dVertex
 10
40.2549983158723
 20
88.05099112514836
 30
0.0
  0
VERTEX
  5
1EE
330
1E6
100
AcDbEntity
  8
Visible (ANSI)
100
AcDbVertex
100
AcDb2dVertex
 10
40.258599971999
 20
88.05337606186403
 30
0.0
  0
VERTEX
  5
1EF
330
1E6
100
AcDbEntity
  8
Visible (ANSI)
100
AcDbVertex
100
AcDb2dVertex
 10
40.2628197835847
 20
88.05575499118244
 30
0.0
  0
VERTEX
  5
1F0
330
1E6
100
AcDbEntity
  8
Visible (ANSI)
100
AcDbVertex
100
AcDb2dVertex
 10
40.26763968003819
 20
88.05813392050085
 30
0.0
  0
VERTEX
  5
1F1
330
1E6
100
AcDbEntity
  8
Visible (ANSI)
100
AcDbVertex
100
AcDb2dVertex
 10
40.27303902339784
 20
88.06051284981924
 30
0.0
  0
VERTEX
  5
1F2
330
1E6
100
AcDbEntity
  8
Visible (ANSI)
100
AcDbVertex
100
AcDb2dVertex
 10
40.27899468899748
 20
88.06289778653493
 30
0.0
  0
VERTEX
  5
1F3
330
1E6
100
AcDbEntity
  8
Visible (ANSI)
100
AcDbVertex
100
AcDb2dVertex
 10
40.28548117913166
 20
88.06527671585334
 30
0.0
  0
VERTEX
  5
1F4
330
1E6
100
AcDbEntity
  8
Visible (ANSI)
100
AcDbVertex
100
AcDb2dVertex
 10
40.29247071545461
 20
88.06765564517174
 30
0.0
  0
VERTEX
  5
1F5
330
1E6
100
AcDbEntity
  8
Visible (ANSI)
100
AcDbVertex
100
AcDb2dVertex
 10
40.29993336657876
 20
88.07004058188741
 30
0.0
  0
VERTEX
  5
1F6
330
1E6
100
AcDbEntity
  8
Visible (ANSI)
100
AcDbVertex
100
AcDb2dVertex
 10
40.30783717713993
 20
88.07241951120582
 30
0.0
  0
VERTEX
  5
1F7
330
1E6
100
AcDbEntity
  8
Visible (ANSI)
100
AcDbVertex
100
AcDb2dVertex
 10
40.3161482997958
 20
88.07479844052423
 30
0.0
  0
VERTEX
  5
1F8
330
1E6
100
AcDbEntity
  8
Visible (ANSI)
100
AcDbVertex
100
AcDb2dVertex
 10
40.32483114775746
 20
88.07718337723988
 30
0.0
  0
VERTEX
  5
1F9
330
1E6
100
AcDbEntity
  8
Visible (ANSI)
100
AcDbVertex
100
AcDb2dVertex
 10
40.33384853852113
 20
88.07956230655831
 30
0.0
  0
VERTEX
  5
1FA
330
1E6
100
AcDbEntity
  8
Visible (ANSI)
100
AcDbVertex
100
AcDb2dVertex
 10
40.34316186399947
 20
88.08194123587671
 30
0.0
  0
VERTEX
  5
1FB
330
1E6
100
AcDbEntity
  8
Visible (ANSI)
100
AcDbVertex
100
AcDb2dVertex
 10
40.35273123131998
 20
88.08432617259239
 30
0.0
  0
VERTEX
  5
1FC
330
1E6
100
AcDbEntity
  8
Visible (ANSI)
100
AcDbVertex
100
AcDb2dVertex
 10
40.36251567402261
 20
88.08670510191079
 30
0.0
  0
VERTEX
  5
1FD
330
1E6
100
AcDbEntity
  8
Visible (ANSI)
100
AcDbVertex
100
AcDb2dVertex
 10
40.37247328699141
 20
88.0890840312292
 30
0.0
  0
VERTEX
  5
1FE
330
1E6
100
AcDbEntity
  8
Visible (ANSI)
100
AcDbVertex
100
AcDb2dVertex
 10
40.38256143178563
 20
88.09146296054761
 30
0.0
  0
VERTEX
  5
1FF
330
1E6
100
AcDbEntity
  8
Visible (ANSI)
100
AcDbVertex
100
AcDb2dVertex
 10
40.39273690677101
 20
88.09384789726328
 30
0.0
  0
VERTEX
  5
200
330
1E6
100
AcDbEntity
  8
Visible (ANSI)
100
AcDbVertex
100
AcDb2dVertex
 10
40.40295614658414
 20
88.09622682658169
 30
0.0
  0
SEQEND
  5
1E9
330
1E6
100
AcDbEntity
  8
Visible (ANSI)
  0
POLYLINE
  5
201
330
6C
100
AcDbEntity
  8
Visible (ANSI)
100
AcDb2dPolyline
 66
     1
 10
0.0
 20
0.0
 30
0.0
 70
   128
  0
VERTEX
  5
202
330
201
100
AcDbEntity
  8
Visible (ANSI)
100
AcDbVertex
100
AcDb2dVertex
 10
125.3333575509896
 20
32.40872706453094
 30
0.0
  0
VERTEX
  5
203
330
201
100
AcDbEntity
  8
Visible (ANSI)
100
AcDbVertex
100
AcDb2dVertex
 10
125.333692087925
 20
32.3985078247178
 30
0.0
  0
VERTEX
  5
205
330
201
100
AcDbEntity
  8
Visible (ANSI)
100
AcDbVertex
100
AcDb2dVertex
 10
125.3346942907475
 20
32.38833234973242
 30
0.0
  0
VERTEX
  5
206
330
201
100
AcDbEntity
  8
Visible (ANSI)
100
AcDbVertex
100
AcDb2dVertex
 10
125.3363598533734
 20
32.3782442049382
 30
0.0
  0
VERTEX
  5
207
330
201
100
AcDbEntity
  8
Visible (ANSI)
100
AcDbVertex
100
AcDb2dVertex
 10
125.3386816420186
 20
32.3682865919694
 30
0.0
  0
VERTEX
  5
208
330
201
100
AcDbEntity
  8
Visible (ANSI)
100
AcDbVertex
100
AcDb2dVertex
 10
125.3416497186644
 20
32.35850214926678
 30
0.0
  0
VERTEX
  5
209
330
201
100
AcDbEntity
  8
Visible (ANSI)
100
AcDbVertex
100
AcDb2dVertex
 10
125.3452513762578
 20
32.34893278194626
 30
0.0
  0
VERTEX
  5
20A
330
201
100
AcDbEntity
  8
Visible (ANSI)
100
AcDbVertex
100
AcDb2dVertex
 10
125.3494711856435
 20
32.33961945646792
 30
0.0
  0
VERTEX
  5
20B
330
201
100
AcDbEntity
  8
Visible (ANSI)
100
AcDbVertex
100
AcDb2dVertex
 10
125.354291077697
 20
32.33060206570426
 30
0.0
  0
VERTEX
  5
20C
330
201
100
AcDbEntity
  8
Visible (ANSI)
100
AcDbVertex
100
AcDb2dVertex
 10
125.3596904254566
 20
32.32191921774259
 30
0.0
  0
VERTEX
  5
20D
330
201
100
AcDbEntity
  8
Visible (ANSI)
100
AcDbVertex
100
AcDb2dVertex
 10
125.3656460910563
 20
32.31360809508672
 30
0.0
  0
VERTEX
  5
20E
330
201
100
AcDbEntity
  8
Visible (ANSI)
100
AcDbVertex
100
AcDb2dVertex
 10
125.3721325782572
 20
32.30570428452555
 30
0.0
  0
VERTEX
  5
20F
330
201
100
AcDbEntity
  8
Visible (ANSI)
100
AcDbVertex
100
AcDb2dVertex
 10
125.3791221145801
 20
32.2982416334014
 30
0.0
  0
VERTEX
  5
210
330
201
100
AcDbEntity
  8
Visible (ANSI)
100
AcDbVertex
100
AcDb2dVertex
 10
125.386584762771
 20
32.29125209707846
 30
0.0
  0
VERTEX
  5
211
330
201
100
AcDbEntity
  8
Visible (ANSI)
100
AcDbVertex
100
AcDb2dVertex
 10
125.3944885733321
 20
32.28476560694428
 30
0.0
  0
VERTEX
  5
212
330
201
100
AcDbEntity
  8
Visible (ANSI)
100
AcDbVertex
100
AcDb2dVertex
 10
125.4027997018546
 20
32.27880994134463
 30
0.0
  0
VERTEX
  5
213
330
201
100
AcDbEntity
  8
Visible (ANSI)
100
AcDbVertex
100
AcDb2dVertex
 10
125.4114825498163
 20
32.27341059798498
 30
0.0
  0
VERTEX
  5
214
330
201
100
AcDbEntity
  8
Visible (ANSI)
100
AcDbVertex
100
AcDb2dVertex
 10
125.4204999405799
 20
32.2685907015315
 30
0.0
  0
VERTEX
  5
215
330
201
100
AcDbEntity
  8
Visible (ANSI)
100
AcDbVertex
100
AcDb2dVertex
 10
125.429813263125
 20
32.26437088994579
 30
0.0
  0
VERTEX
  5
216
330
201
100
AcDbEntity
  8
Visible (ANSI)
100
AcDbVertex
100
AcDb2dVertex
 10
125.4393826333788
 20
32.26076923381909
 30
0.0
  0
VERTEX
  5
217
330
201
100
AcDbEntity
  8
Visible (ANSI)
100
AcDbVertex
100
AcDb2dVertex
 10
125.4491670731481
 20
32.25780115643991
 30
0.0
  0
VERTEX
  5
218
330
201
100
AcDbEntity
  8
Visible (ANSI)
100
AcDbVertex
100
AcDb2dVertex
 10
125.4591246863002
 20
32.25547936687809
 30
0.0
  0
VERTEX
  5
219
330
201
100
AcDbEntity
  8
Visible (ANSI)
100
AcDbVertex
100
AcDb2dVertex
 10
125.4692128316444
 20
32.25381380727711
 30
0.0
  0
VERTEX
  5
21A
330
201
100
AcDbEntity
  8
Visible (ANSI)
100
AcDbVertex
100
AcDb2dVertex
 10
125.4793883102965
 20
32.25281161011499
 30
0.0
  0
VERTEX
  5
21B
330
201
100
AcDbEntity
  8
Visible (ANSI)
100
AcDbVertex
100
AcDb2dVertex
 10
125.4896075486429
 20
32.25247706687759
 30
0.0
  0
SEQEND
  5
204
330
201
100
AcDbEntity
  8
Visible (ANSI)
  0
LINE
  5
21C
330
6C
100
AcDbEntity
  8
Visible (ANSI)
100
AcDbLine
 10
125.4896075491123
 20
32.37747706687759
 30
0.0
 11
126.2083575491123
 21
32.37747706687759
 31
0.0
  0
LINE
  5
21D
330
6C
100
AcDbEntity
  8
Visible (ANSI)
100
AcDbLine
 10
125.4896075491123
 20
32.37747706687759
 30
0.0
 11
125.4896075491123
 21
32.25247706687759
 31
0.0
  0
POLYLINE
  5
21E
330
6C
100
AcDbEntity
  8
Visible (ANSI)
100
AcDb2dPolyline
 66
     1
 10
0.0
 20
0.0
 30
0.0
 70
   128
  0
VERTEX
  5
21F
330
21E
100
AcDbEntity
  8
Visible (ANSI)
100
AcDbVertex
100
AcDb2dVertex
 10
125.4583575491123
 20
32.40872706453094
 30
0.0
  0
VERTEX
  5
220
330
21E
100
AcDbEntity
  8
Visible (ANSI)
100
AcDbVertex
100
AcDb2dVertex
 10
125.4584244577586
 20
32.40668322360824
 30
0.0
  0
VERTEX
  5
222
330
21E
100
AcDbEntity
  8
Visible (ANSI)
100
AcDbVertex
100
AcDb2dVertex
 10
125.4586248971968
 20
32.40464812391787
 30
0.0
  0
VERTEX
  5
223
330
21E
100
AcDbEntity
  8
Visible (ANSI)
100
AcDbVertex
100
AcDb2dVertex
 10
125.4589580091215
 20
32.40263049495903
 30
0.0
  0
VERTEX
  5
224
330
21E
100
AcDbEntity
  8
Visible (ANSI)
100
AcDbVertex
100
AcDb2dVertex
 10
125.4594223670614
 20
32.40063897236527
 30
0.0
  0
VERTEX
  5
225
330
21E
100
AcDbEntity
  8
Visible (ANSI)
100
AcDbVertex
100
AcDb2dVertex
 10
125.4600159825372
 20
32.39868208617139
 30
0.0
  0
VERTEX
  5
226
330
21E
100
AcDbEntity
  8
Visible (ANSI)
100
AcDbVertex
100
AcDb2dVertex
 10
125.4607363137993
 20
32.39676821388061
 30
0.0
  0
VERTEX
  5
227
330
21E
100
AcDbEntity
  8
Visible (ANSI)
100
AcDbVertex
100
AcDb2dVertex
 10
125.4615802761164
 20
32.39490554526498
 30
0.0
  0
VERTEX
  5
228
330
21E
100
AcDbEntity
  8
Visible (ANSI)
100
AcDbVertex
100
AcDb2dVertex
 10
125.4625442551138
 20
32.3931020706322
 30
0.0
  0
VERTEX
  5
229
330
21E
100
AcDbEntity
  8
Visible (ANSI)
100
AcDbVertex
100
AcDb2dVertex
 10
125.463624123639
 20
32.39136549869323
 30
0.0
  0
VERTEX
  5
22A
330
21E
100
AcDbEntity
  8
Visible (ANSI)
100
AcDbVertex
100
AcDb2dVertex
 10
125.4648152569789
 20
32.38970326829546
 30
0.0
  0
VERTEX
  5
22B
330
21E
100
AcDbEntity
  8
Visible (ANSI)
100
AcDbVertex
100
AcDb2dVertex
 10
125.4661125548591
 20
32.38812251322314
 30
0.0
  0
VERTEX
  5
22C
330
21E
100
AcDbEntity
  8
Visible (ANSI)
100
AcDbVertex
100
AcDb2dVertex
 10
125.467510461977
 20
32.38662998006501
 30
0.0
  0
VERTEX
  5
22D
330
21E
100
AcDbEntity
  8
Visible (ANSI)
100
AcDbVertex
100
AcDb2dVertex
 10
125.4690029922019
 20
32.38523207514706
 30
0.0
  0
VERTEX
  5
22E
330
21E
100
AcDbEntity
  8
Visible (ANSI)
100
AcDbVertex
100
AcDb2dVertex
 10
125.4705837546074
 20
32.38393477066697
 30
0.0
  0
VERTEX
  5
22F
330
21E
100
AcDbEntity
  8
Visible (ANSI)
100
AcDbVertex
100
AcDb2dVertex
 10
125.4722459798719
 20
32.38274363989368
 30
0.0
  0
VERTEX
  5
230
330
21E
100
AcDbEntity
  8
Visible (ANSI)
100
AcDbVertex
100
AcDb2dVertex
 10
125.4739825488776
 20
32.38166377503504
 30
0.0
  0
VERTEX
  5
231
330
21E
100
AcDbEntity
  8
Visible (ANSI)
100
AcDbVertex
100
AcDb2dVertex
 10
125.4757860279103
 20
32.38069979897097
 30
0.0
  0
VERTEX
  5
232
330
21E
100
AcDbEntity
  8
Visible (ANSI)
100
AcDbVertex
100
AcDb2dVertex
 10
125.477648692126
 20
32.3798558300539
 30
0.0
  0
VERTEX
  5
233
330
21E
100
AcDbEntity
  8
Visible (ANSI)
100
AcDbVertex
100
AcDb2dVertex
 10
125.4795625658834
 20
32.37913550557515
 30
0.0
  0
VERTEX
  5
234
330
21E
100
AcDbEntity
  8
Visible (ANSI)
100
AcDbVertex
100
AcDb2dVertex
 10
125.4815194535439
 20
32.37854188789935
 30
0.0
  0
VERTEX
  5
235
330
21E
100
AcDbEntity
  8
Visible (ANSI)
100
AcDbVertex
100
AcDb2dVertex
 10
125.4835109761377
 20
32.37807752313039
 30
0.0
  0
VERTEX
  5
236
330
21E
100
AcDbEntity
  8
Visible (ANSI)
100
AcDbVertex
100
AcDb2dVertex
 10
125.4855286050966
 20
32.37774441764512
 30
0.0
  0
VERTEX
  5
237
330
21E
100
AcDbEntity
  8
Visible (ANSI)
100
AcDbVertex
100
AcDb2dVertex
 10
125.4875637018536
 20
32.37754397942727
 30
0.0
  0
VERTEX
  5
238
330
21E
100
AcDbEntity
  8
Visible (ANSI)
100
AcDbVertex
100
AcDb2dVertex
 10
125.4896075486429
 20
32.37747706500027
 30
0.0
  0
SEQEND
  5
221
330
21E
100
AcDbEntity
  8
Visible (ANSI)
  0
LINE
  5
239
330
6C
100
AcDbEntity
  8
Visible (ANSI)
100
AcDbLine
 10
125.4583575491123
 20
32.40872706687759
 30
0.0
 11
125.453232147239
 21
32.40872706687759
 31
0.0
  0
LINE
  5
23A
330
6C
100
AcDbEntity
  8
Visible (ANSI)
100
AcDbLine
 10
125.453232147239
 20
32.40872706687759
 30
0.0
 11
125.3333575491123
 21
32.40872706687759
 31
0.0
  0
LINE
  5
23B
330
6C
100
AcDbEntity
  8
Visible (ANSI)
100
AcDbLine
 10
125.4896075491123
 20
32.25247706687759
 30
0.0
 11
126.2083575491123
 21
32.25247706687759
 31
0.0
  0
LINE
  5
23C
330
6C
100
AcDbEntity
  8
Visible (ANSI)
100
AcDbLine
 10
126.2083575491123
 20
32.37747706687759
 30
0.0
 11
126.2083575491123
 21
32.25247706687759
 31
0.0
  0
POLYLINE
  5
23D
330
6C
100
AcDbEntity
  8
Visible (ANSI)
100
AcDb2dPolyline
 66
     1
 10
0.0
 20
0.0
 30
0.0
 70
   128
  0
VERTEX
  5
23E
330
23D
100
AcDbEntity
  8
Visible (ANSI)
100
AcDbVertex
100
AcDb2dVertex
 10
125.3333575509896
 20
88.09622682658169
 30
0.0
  0
VERTEX
  5
23F
330
23D
100
AcDbEntity
  8
Visible (ANSI)
100
AcDbVertex
100
AcDb2dVertex
 10
125.333692087925
 20
88.09384789726328
 30
0.0
  0
VERTEX
  5
241
330
23D
100
AcDbEntity
  8
Visible (ANSI)
100
AcDbVertex
100
AcDb2dVertex
 10
125.3346942907475
 20
88.09146296054761
 30
0.0
  0
VERTEX
  5
242
330
23D
100
AcDbEntity
  8
Visible (ANSI)
100
AcDbVertex
100
AcDb2dVertex
 10
125.3363598533734
 20
88.0890840312292
 30
0.0
  0
VERTEX
  5
243
330
23D
100
AcDbEntity
  8
Visible (ANSI)
100
AcDbVertex
100
AcDb2dVertex
 10
125.3386816420186
 20
88.08670510191079
 30
0.0
  0
VERTEX
  5
244
330
23D
100
AcDbEntity
  8
Visible (ANSI)
100
AcDbVertex
100
AcDb2dVertex
 10
125.3416497186644
 20
88.08432617259239
 30
0.0
  0
VERTEX
  5
245
330
23D
100
AcDbEntity
  8
Visible (ANSI)
100
AcDbVertex
100
AcDb2dVertex
 10
125.3452513762578
 20
88.08194123587671
 30
0.0
  0
VERTEX
  5
246
330
23D
100
AcDbEntity
  8
Visible (ANSI)
100
AcDbVertex
100
AcDb2dVertex
 10
125.3494711856435
 20
88.07956230655831
 30
0.0
  0
VERTEX
  5
247
330
23D
100
AcDbEntity
  8
Visible (ANSI)
100
AcDbVertex
100
AcDb2dVertex
 10
125.3542910776971
 20
88.07718337723988
 30
0.0
  0
VERTEX
  5
248
330
23D
100
AcDbEntity
  8
Visible (ANSI)
100
AcDbVertex
100
AcDb2dVertex
 10
125.3596904254567
 20
88.07479844052423
 30
0.0
  0
VERTEX
  5
249
330
23D
100
AcDbEntity
  8
Visible (ANSI)
100
AcDbVertex
100
AcDb2dVertex
 10
125.3656460910563
 20
88.07241951120582
 30
0.0
  0
VERTEX
  5
24A
330
23D
100
AcDbEntity
  8
Visible (ANSI)
100
AcDbVertex
100
AcDb2dVertex
 10
125.3721325782572
 20
88.07004058188741
 30
0.0
  0
VERTEX
  5
24B
330
23D
100
AcDbEntity
  8
Visible (ANSI)
100
AcDbVertex
100
AcDb2dVertex
 10
125.3791221145801
 20
88.06765564517174
 30
0.0
  0
VERTEX
  5
24C
330
23D
100
AcDbEntity
  8
Visible (ANSI)
100
AcDbVertex
100
AcDb2dVertex
 10
125.386584762771
 20
88.06527671585334
 30
0.0
  0
VERTEX
  5
24D
330
23D
100
AcDbEntity
  8
Visible (ANSI)
100
AcDbVertex
100
AcDb2dVertex
 10
125.3944885733322
 20
88.06289778653493
 30
0.0
  0
VERTEX
  5
24E
330
23D
100
AcDbEntity
  8
Visible (ANSI)
100
AcDbVertex
100
AcDb2dVertex
 10
125.4027997018547
 20
88.06051284981924
 30
0.0
  0
VERTEX
  5
24F
330
23D
100
AcDbEntity
  8
Visible (ANSI)
100
AcDbVertex
100
AcDb2dVertex
 10
125.4114825498163
 20
88.05813392050085
 30
0.0
  0
VERTEX
  5
250
330
23D
100
AcDbEntity
  8
Visible (ANSI)
100
AcDbVertex
100
AcDb2dVertex
 10
125.42049994058
 20
88.05575499118244
 30
0.0
  0
VERTEX
  5
251
330
23D
100
AcDbEntity
  8
Visible (ANSI)
100
AcDbVertex
100
AcDb2dVertex
 10
125.429813263125
 20
88.05337606186403
 30
0.0
  0
VERTEX
  5
252
330
23D
100
AcDbEntity
  8
Visible (ANSI)
100
AcDbVertex
100
AcDb2dVertex
 10
125.4393826333789
 20
88.05099112514836
 30
0.0
  0
VERTEX
  5
253
330
23D
100
AcDbEntity
  8
Visible (ANSI)
100
AcDbVertex
100
AcDb2dVertex
 10
125.4491670731481
 20
88.04861219582996
 30
0.0
  0
VERTEX
  5
254
330
23D
100
AcDbEntity
  8
Visible (ANSI)
100
AcDbVertex
100
AcDb2dVertex
 10
125.4591246863003
 20
88.04623326651155
 30
0.0
  0
VERTEX
  5
255
330
23D
100
AcDbEntity
  8
Visible (ANSI)
100
AcDbVertex
100
AcDb2dVertex
 10
125.4692128316445
 20
88.04384832979588
 30
0.0
  0
VERTEX
  5
256
330
23D
100
AcDbEntity
  8
Visible (ANSI)
100
AcDbVertex
100
AcDb2dVertex
 10
125.4793883102965
 20
88.04146940047747
 30
0.0
  0
VERTEX
  5
257
330
23D
100
AcDbEntity
  8
Visible (ANSI)
100
AcDbVertex
100
AcDb2dVertex
 10
125.489607548643
 20
88.03909047115906
 30
0.0
  0
SEQEND
  5
240
330
23D
100
AcDbEntity
  8
Visible (ANSI)
  0
POLYLINE
  5
258
330
6C
100
AcDbEntity
  8
Visible (ANSI)
100
AcDb2dPolyline
 66
     1
 10
0.0
 20
0.0
 30
0.0
 70
   128
  0
VERTEX
  5
259
330
258
100
AcDbEntity
  8
Visible (ANSI)
100
AcDbVertex
100
AcDb2dVertex
 10
125.489607548643
 20
32.46586540286398
 30
0.0
  0
VERTEX
  5
25A
330
258
100
AcDbEntity
  8
Visible (ANSI)
100
AcDbVertex
100
AcDb2dVertex
 10
125.4793883102965
 20
32.46348464316672
 30
0.0
  0
VERTEX
  5
25C
330
258
100
AcDbEntity
  8
Visible (ANSI)
100
AcDbVertex
100
AcDb2dVertex
 10
125.4692128316445
 20
32.46110388346945
 30
0.0
  0
VERTEX
  5
25D
330
258
100
AcDbEntity
  8
Visible (ANSI)
100
AcDbVertex
100
AcDb2dVertex
 10
125.4591246863003
 20
32.45872312377219
 30
0.0
  0
VERTEX
  5
25E
330
258
100
AcDbEntity
  8
Visible (ANSI)
100
AcDbVertex
100
AcDb2dVertex
 10
125.4491670731481
 20
32.45634236407493
 30
0.0
  0
VERTEX
  5
25F
330
258
100
AcDbEntity
  8
Visible (ANSI)
100
AcDbVertex
100
AcDb2dVertex
 10
125.4393826333789
 20
32.45396158091128
 30
0.0
  0
VERTEX
  5
260
330
258
100
AcDbEntity
  8
Visible (ANSI)
100
AcDbVertex
100
AcDb2dVertex
 10
125.429813263125
 20
32.45158082121402
 30
0.0
  0
VERTEX
  5
261
330
258
100
AcDbEntity
  8
Visible (ANSI)
100
AcDbVertex
100
AcDb2dVertex
 10
125.42049994058
 20
32.44920006151676
 30
0.0
  0
VERTEX
  5
262
330
258
100
AcDbEntity
  8
Visible (ANSI)
100
AcDbVertex
100
AcDb2dVertex
 10
125.4114825498163
 20
32.4468193018195
 30
0.0
  0
VERTEX
  5
263
330
258
100
AcDbEntity
  8
Visible (ANSI)
100
AcDbVertex
100
AcDb2dVertex
 10
125.4027997018547
 20
32.44443853038904
 30
0.0
  0
VERTEX
  5
264
330
258
100
AcDbEntity
  8
Visible (ANSI)
100
AcDbVertex
100
AcDb2dVertex
 10
125.3944885733322
 20
32.44205777069178
 30
0.0
  0
VERTEX
  5
265
330
258
100
AcDbEntity
  8
Visible (ANSI)
100
AcDbVertex
100
AcDb2dVertex
 10
125.386584762771
 20
32.43967701099452
 30
0.0
  0
VERTEX
  5
266
330
258
100
AcDbEntity
  8
Visible (ANSI)
100
AcDbVertex
100
AcDb2dVertex
 10
125.3791221145801
 20
32.43729623956406
 30
0.0
  0
VERTEX
  5
267
330
258
100
AcDbEntity
  8
Visible (ANSI)
100
AcDbVertex
100
AcDb2dVertex
 10
125.3721325782572
 20
32.4349154798668
 30
0.0
  0
VERTEX
  5
268
330
258
100
AcDbEntity
  8
Visible (ANSI)
100
AcDbVertex
100
AcDb2dVertex
 10
125.3656460910563
 20
32.43253470843634
 30
0.0
  0
VERTEX
  5
269
330
258
100
AcDbEntity
  8
Visible (ANSI)
100
AcDbVertex
100
AcDb2dVertex
 10
125.3596904254567
 20
32.43015394873907
 30
0.0
  0
VERTEX
  5
26A
330
258
100
AcDbEntity
  8
Visible (ANSI)
100
AcDbVertex
100
AcDb2dVertex
 10
125.3542910776971
 20
32.42777317730862
 30
0.0
  0
VERTEX
  5
26B
330
258
100
AcDbEntity
  8
Visible (ANSI)
100
AcDbVertex
100
AcDb2dVertex
 10
125.3494711856435
 20
32.42539241761136
 30
0.0
  0
VERTEX
  5
26C
330
258
100
AcDbEntity
  8
Visible (ANSI)
100
AcDbVertex
100
AcDb2dVertex
 10
125.3452513762578
 20
32.4230116579141
 30
0.0
  0
VERTEX
  5
26D
330
258
100
AcDbEntity
  8
Visible (ANSI)
100
AcDbVertex
100
AcDb2dVertex
 10
125.3416497186644
 20
32.42063088648364
 30
0.0
  0
VERTEX
  5
26E
330
258
100
AcDbEntity
  8
Visible (ANSI)
100
AcDbVertex
100
AcDb2dVertex
 10
125.3386816420186
 20
32.41825012678638
 30
0.0
  0
VERTEX
  5
26F
330
258
100
AcDbEntity
  8
Visible (ANSI)
100
AcDbVertex
100
AcDb2dVertex
 10
125.3363598533734
 20
32.41586935535592
 30
0.0
  0
VERTEX
  5
270
330
258
100
AcDbEntity
  8
Visible (ANSI)
100
AcDbVertex
100
AcDb2dVertex
 10
125.3346942907475
 20
32.41348859565866
 30
0.0
  0
VERTEX
  5
271
330
258
100
AcDbEntity
  8
Visible (ANSI)
100
AcDbVertex
100
AcDb2dVertex
 10
125.333692087925
 20
32.4111078359614
 30
0.0
  0
VERTEX
  5
272
330
258
100
AcDbEntity
  8
Visible (ANSI)
100
AcDbVertex
100
AcDb2dVertex
 10
125.3333575509896
 20
32.40872706453094
 30
0.0
  0
SEQEND
  5
25B
330
258
100
AcDbEntity
  8
Visible (ANSI)
  0
LINE
  5
273
330
6C
100
AcDbEntity
  8
Visible (ANSI)
100
AcDbLine
 10
126.2083575491123
 20
32.46586541452592
 30
0.0
 11
125.4896075491123
 21
32.46586541452591
 31
0.0
  0
POLYLINE
  5
274
330
6C
100
AcDbEntity
  8
Visible (ANSI)
100
AcDb2dPolyline
 66
     1
 10
0.0
 20
0.0
 30
0.0
 70
   128
  0
VERTEX
  5
275
330
274
100
AcDbEntity
  8
Visible (ANSI)
100
AcDbVertex
100
AcDb2dVertex
 10
125.4583575491123
 20
32.40872706453094
 30
0.0
  0
VERTEX
  5
276
330
274
100
AcDbEntity
  8
Visible (ANSI)
100
AcDbVertex
100
AcDb2dVertex
 10
125.4584244577586
 20
32.4111078359614
 30
0.0
  0
VERTEX
  5
278
330
274
100
AcDbEntity
  8
Visible (ANSI)
100
AcDbVertex
100
AcDb2dVertex
 10
125.4586248971968
 20
32.41348859565866
 30
0.0
  0
VERTEX
  5
279
330
274
100
AcDbEntity
  8
Visible (ANSI)
100
AcDbVertex
100
AcDb2dVertex
 10
125.4589580091215
 20
32.41586935535592
 30
0.0
  0
VERTEX
  5
27A
330
274
100
AcDbEntity
  8
Visible (ANSI)
100
AcDbVertex
100
AcDb2dVertex
 10
125.4594223670614
 20
32.41825012678638
 30
0.0
  0
VERTEX
  5
27B
330
274
100
AcDbEntity
  8
Visible (ANSI)
100
AcDbVertex
100
AcDb2dVertex
 10
125.4600159825372
 20
32.42063088648364
 30
0.0
  0
VERTEX
  5
27C
330
274
100
AcDbEntity
  8
Visible (ANSI)
100
AcDbVertex
100
AcDb2dVertex
 10
125.4607363137993
 20
32.4230116579141
 30
0.0
  0
VERTEX
  5
27D
330
274
100
AcDbEntity
  8
Visible (ANSI)
100
AcDbVertex
100
AcDb2dVertex
 10
125.4615802761164
 20
32.42539241761136
 30
0.0
  0
VERTEX
  5
27E
330
274
100
AcDbEntity
  8
Visible (ANSI)
100
AcDbVertex
100
AcDb2dVertex
 10
125.4625442551138
 20
32.42777317730862
 30
0.0
  0
VERTEX
  5
27F
330
274
100
AcDbEntity
  8
Visible (ANSI)
100
AcDbVertex
100
AcDb2dVertex
 10
125.463624123639
 20
32.43015394873907
 30
0.0
  0
VERTEX
  5
280
330
274
100
AcDbEntity
  8
Visible (ANSI)
100
AcDbVertex
100
AcDb2dVertex
 10
125.464815256979
 20
32.43253470843634
 30
0.0
  0
VERTEX
  5
281
330
274
100
AcDbEntity
  8
Visible (ANSI)
100
AcDbVertex
100
AcDb2dVertex
 10
125.4661125548591
 20
32.4349154798668
 30
0.0
  0
VERTEX
  5
282
330
274
100
AcDbEntity
  8
Visible (ANSI)
100
AcDbVertex
100
AcDb2dVertex
 10
125.4675104619771
 20
32.43729623956406
 30
0.0
  0
VERTEX
  5
283
330
274
100
AcDbEntity
  8
Visible (ANSI)
100
AcDbVertex
100
AcDb2dVertex
 10
125.4690029922019
 20
32.43967701099452
 30
0.0
  0
VERTEX
  5
284
330
274
100
AcDbEntity
  8
Visible (ANSI)
100
AcDbVertex
100
AcDb2dVertex
 10
125.4705837546074
 20
32.44205777069178
 30
0.0
  0
VERTEX
  5
285
330
274
100
AcDbEntity
  8
Visible (ANSI)
100
AcDbVertex
100
AcDb2dVertex
 10
125.4722459798719
 20
32.44443853038904
 30
0.0
  0
VERTEX
  5
286
330
274
100
AcDbEntity
  8
Visible (ANSI)
100
AcDbVertex
100
AcDb2dVertex
 10
125.4739825488776
 20
32.4468193018195
 30
0.0
  0
VERTEX
  5
287
330
274
100
AcDbEntity
  8
Visible (ANSI)
100
AcDbVertex
100
AcDb2dVertex
 10
125.4757860279104
 20
32.44920006151676
 30
0.0
  0
VERTEX
  5
288
330
274
100
AcDbEntity
  8
Visible (ANSI)
100
AcDbVertex
100
AcDb2dVertex
 10
125.477648692126
 20
32.45158082121402
 30
0.0
  0
VERTEX
  5
289
330
274
100
AcDbEntity
  8
Visible (ANSI)
100
AcDbVertex
100
AcDb2dVertex
 10
125.4795625658835
 20
32.45396158091128
 30
0.0
  0
VERTEX
  5
28A
330
274
100
AcDbEntity
  8
Visible (ANSI)
100
AcDbVertex
100
AcDb2dVertex
 10
125.481519453544
 20
32.45634236407493
 30
0.0
  0
VERTEX
  5
28B
330
274
100
AcDbEntity
  8
Visible (ANSI)
100
AcDbVertex
100
AcDb2dVertex
 10
125.4835109761378
 20
32.45872312377219
 30
0.0
  0
VERTEX
  5
28C
330
274
100
AcDbEntity
  8
Visible (ANSI)
100
AcDbVertex
100
AcDb2dVertex
 10
125.4855286050966
 20
32.46110388346945
 30
0.0
  0
VERTEX
  5
28D
330
274
100
AcDbEntity
  8
Visible (ANSI)
100
AcDbVertex
100
AcDb2dVertex
 10
125.4875637018537
 20
32.46348464316672
 30
0.0
  0
VERTEX
  5
28E
330
274
100
AcDbEntity
  8
Visible (ANSI)
100
AcDbVertex
100
AcDb2dVertex
 10
125.489607548643
 20
32.46586540286398
 30
0.0
  0
SEQEND
  5
277
330
274
100
AcDbEntity
  8
Visible (ANSI)
  0
POLYLINE
  5
28F
330
6C
100
AcDbEntity
  8
Visible (ANSI)
100
AcDb2dPolyline
 66
     1
 10
0.0
 20
0.0
 30
0.0
 70
   128
  0
VERTEX
  5
290
330
28F
100
AcDbEntity
  8
Visible (ANSI)
100
AcDbVertex
100
AcDb2dVertex
 10
125.4583575491123
 20
88.09622682658169
 30
0.0
  0
VERTEX
  5
291
330
28F
100
AcDbEntity
  8
Visible (ANSI)
100
AcDbVertex
100
AcDb2dVertex
 10
125.4584244577586
 20
88.09384789726328
 30
0.0
  0
VERTEX
  5
293
330
28F
100
AcDbEntity
  8
Visible (ANSI)
100
AcDbVertex
100
AcDb2dVertex
 10
125.4586248971968
 20
88.09146296054761
 30
0.0
  0
VERTEX
  5
294
330
28F
100
AcDbEntity
  8
Visible (ANSI)
100
AcDbVertex
100
AcDb2dVertex
 10
125.4589580091215
 20
88.0890840312292
 30
0.0
  0
VERTEX
  5
295
330
28F
100
AcDbEntity
  8
Visible (ANSI)
100
AcDbVertex
100
AcDb2dVertex
 10
125.4594223670614
 20
88.08670510191079
 30
0.0
  0
VERTEX
  5
296
330
28F
100
AcDbEntity
  8
Visible (ANSI)
100
AcDbVertex
100
AcDb2dVertex
 10
125.4600159825372
 20
88.08432617259239
 30
0.0
  0
VERTEX
  5
297
330
28F
100
AcDbEntity
  8
Visible (ANSI)
100
AcDbVertex
100
AcDb2dVertex
 10
125.4607363137993
 20
88.08194123587671
 30
0.0
  0
VERTEX
  5
298
330
28F
100
AcDbEntity
  8
Visible (ANSI)
100
AcDbVertex
100
AcDb2dVertex
 10
125.4615802761164
 20
88.07956230655831
 30
0.0
  0
VERTEX
  5
299
330
28F
100
AcDbEntity
  8
Visible (ANSI)
100
AcDbVertex
100
AcDb2dVertex
 10
125.4625442551138
 20
88.07718337723988
 30
0.0
  0
VERTEX
  5
29A
330
28F
100
AcDbEntity
  8
Visible (ANSI)
100
AcDbVertex
100
AcDb2dVertex
 10
125.463624123639
 20
88.07479844052423
 30
0.0
  0
VERTEX
  5
29B
330
28F
100
AcDbEntity
  8
Visible (ANSI)
100
AcDbVertex
100
AcDb2dVertex
 10
125.464815256979
 20
88.07241951120582
 30
0.0
  0
VERTEX
  5
29C
330
28F
100
AcDbEntity
  8
Visible (ANSI)
100
AcDbVertex
100
AcDb2dVertex
 10
125.4661125548591
 20
88.07004058188741
 30
0.0
  0
VERTEX
  5
29D
330
28F
100
AcDbEntity
  8
Visible (ANSI)
100
AcDbVertex
100
AcDb2dVertex
 10
125.4675104619771
 20
88.06765564517174
 30
0.0
  0
VERTEX
  5
29E
330
28F
100
AcDbEntity
  8
Visible (ANSI)
100
AcDbVertex
100
AcDb2dVertex
 10
125.4690029922019
 20
88.06527671585334
 30
0.0
  0
VERTEX
  5
29F
330
28F
100
AcDbEntity
  8
Visible (ANSI)
100
AcDbVertex
100
AcDb2dVertex
 10
125.4705837546074
 20
88.06289778653493
 30
0.0
  0
VERTEX
  5
2A0
330
28F
100
AcDbEntity
  8
Visible (ANSI)
100
AcDbVertex
100
AcDb2dVertex
 10
125.4722459798719
 20
88.06051284981924
 30
0.0
  0
VERTEX
  5
2A1
330
28F
100
AcDbEntity
  8
Visible (ANSI)
100
AcDbVertex
100
AcDb2dVertex
 10
125.4739825488776
 20
88.05813392050085
 30
0.0
  0
VERTEX
  5
2A2
330
28F
100
AcDbEntity
  8
Visible (ANSI)
100
AcDbVertex
100
AcDb2dVertex
 10
125.4757860279104
 20
88.05575499118244
 30
0.0
  0
VERTEX
  5
2A3
330
28F
100
AcDbEntity
  8
Visible (ANSI)
100
AcDbVertex
100
AcDb2dVertex
 10
125.477648692126
 20
88.05337606186403
 30
0.0
  0
VERTEX
  5
2A4
330
28F
100
AcDbEntity
  8
Visible (ANSI)
100
AcDbVertex
100
AcDb2dVertex
 10
125.4795625658835
 20
88.05099112514836
 30
0.0
  0
VERTEX
  5
2A5
330
28F
100
AcDbEntity
  8
Visible (ANSI)
100
AcDbVertex
100
AcDb2dVertex
 10
125.481519453544
 20
88.04861219582996
 30
0.0
  0
VERTEX
  5
2A6
330
28F
100
AcDbEntity
  8
Visible (ANSI)
100
AcDbVertex
100
AcDb2dVertex
 10
125.4835109761378
 20
88.04623326651155
 30
0.0
  0
VERTEX
  5
2A7
330
28F
100
AcDbEntity
  8
Visible (ANSI)
100
AcDbVertex
100
AcDb2dVertex
 10
125.4855286050966
 20
88.04384832979588
 30
0.0
  0
VERTEX
  5
2A8
330
28F
100
AcDbEntity
  8
Visible (ANSI)
100
AcDbVertex
100
AcDb2dVertex
 10
125.4875637018537
 20
88.04146940047747
 30
0.0
  0
VERTEX
  5
2A9
330
28F
100
AcDbEntity
  8
Visible (ANSI)
100
AcDbVertex
100
AcDb2dVertex
 10
125.489607548643
 20
88.03909047115906
 30
0.0
  0
SEQEND
  5
292
330
28F
100
AcDbEntity
  8
Visible (ANSI)
  0
LINE
  5
2AA
330
6C
100
AcDbEntity
  8
Visible (ANSI)
100
AcDbLine
 10
125.4583575491123
 20
88.09622706687758
 30
0.0
 11
125.453232147239
 21
88.09622706687758
 31
0.0
  0
LINE
  5
2AB
330
6C
100
AcDbEntity
  8
Visible (ANSI)
100
AcDbLine
 10
125.453232147239
 20
88.09622706687758
 30
0.0
 11
125.3333575491123
 21
88.09622706687758
 31
0.0
  0
LINE
  5
2AC
330
6C
100
AcDbEntity
  8
Visible (ANSI)
100
AcDbLine
 10
125.4896075491123
 20
88.03908871922926
 30
0.0
 11
126.2083575491123
 21
88.03908871922926
 31
0.0
  0
POLYLINE
  5
2AD
330
6C
100
AcDbEntity
  8
Visible (ANSI)
100
AcDb2dPolyline
 66
     1
 10
0.0
 20
0.0
 30
0.0
 70
   128
  0
VERTEX
  5
2AE
330
2AD
100
AcDbEntity
  8
Visible (ANSI)
100
AcDbVertex
100
AcDb2dVertex
 10
125.4896075486429
 20
88.25247922954059
 30
0.0
  0
VERTEX
  5
2AF
330
2AD
100
AcDbEntity
  8
Visible (ANSI)
100
AcDbVertex
100
AcDb2dVertex
 10
125.4793883102965
 20
88.25214281529353
 30
0.0
  0
VERTEX
  5
2B1
330
2AD
100
AcDbEntity
  8
Visible (ANSI)
100
AcDbVertex
100
AcDb2dVertex
 10
125.4692128316444
 20
88.25113957994966
 30
0.0
  0
VERTEX
  5
2B2
330
2AD
100
AcDbEntity
  8
Visible (ANSI)
100
AcDbVertex
100
AcDb2dVertex
 10
125.4591246863002
 20
88.24947553090623
 30
0.0
  0
VERTEX
  5
2B3
330
2AD
100
AcDbEntity
  8
Visible (ANSI)
100
AcDbVertex
100
AcDb2dVertex
 10
125.4491670731481
 20
88.24715066816326
 30
0.0
  0
VERTEX
  5
2B4
330
2AD
100
AcDbEntity
  8
Visible (ANSI)
100
AcDbVertex
100
AcDb2dVertex
 10
125.4393826333788
 20
88.24418301391252
 30
0.0
  0
VERTEX
  5
2B5
330
2AD
100
AcDbEntity
  8
Visible (ANSI)
100
AcDbVertex
100
AcDb2dVertex
 10
125.429813263125
 20
88.24058458294855
 30
0.0
  0
VERTEX
  5
2B6
330
2AD
100
AcDbEntity
  8
Visible (ANSI)
100
AcDbVertex
100
AcDb2dVertex
 10
125.4204999405799
 20
88.23636138266868
 30
0.0
  0
VERTEX
  5
2B7
330
2AD
100
AcDbEntity
  8
Visible (ANSI)
100
AcDbVertex
100
AcDb2dVertex
 10
125.4114825498163
 20
88.23154345005915
 30
0.0
  0
VERTEX
  5
2B8
330
2AD
100
AcDbEntity
  8
Visible (ANSI)
100
AcDbVertex
100
AcDb2dVertex
 10
125.4027997018546
 20
88.2261427999146
 30
0.0
  0
VERTEX
  5
2B9
330
2AD
100
AcDbEntity
  8
Visible (ANSI)
100
AcDbVertex
100
AcDb2dVertex
 10
125.3944885733321
 20
88.22018946922133
 30
0.0
  0
VERTEX
  5
2BA
330
2AD
100
AcDbEntity
  8
Visible (ANSI)
100
AcDbVertex
100
AcDb2dVertex
 10
125.386584762771
 20
88.21370148017113
 30
0.0
  0
VERTEX
  5
2BB
330
2AD
100
AcDbEntity
  8
Visible (ANSI)
100
AcDbVertex
100
AcDb2dVertex
 10
125.3791221145801
 20
88.20671487714763
 30
0.0
  0
VERTEX
  5
2BC
330
2AD
100
AcDbEntity
  8
Visible (ANSI)
100
AcDbVertex
100
AcDb2dVertex
 10
125.3721325782572
 20
88.19924768234264
 30
0.0
  0
VERTEX
  5
2BD
330
2AD
100
AcDbEntity
  8
Visible (ANSI)
100
AcDbVertex
100
AcDb2dVertex
 10
125.3656460910563
 20
88.19134795493429
 30
0.0
  0
VERTEX
  5
2BE
330
2AD
100
AcDbEntity
  8
Visible (ANSI)
100
AcDbVertex
100
AcDb2dVertex
 10
125.3596904254566
 20
88.18303371711442
 30
0.0
  0
VERTEX
  5
2BF
330
2AD
100
AcDbEntity
  8
Visible (ANSI)
100
AcDbVertex
100
AcDb2dVertex
 10
125.354291077697
 20
88.17435302806114
 30
0.0
  0
VERTEX
  5
2C0
330
2AD
100
AcDbEntity
  8
Visible (ANSI)
100
AcDbVertex
100
AcDb2dVertex
 10
125.3494711856435
 20
88.16533592476082
 30
0.0
  0
VERTEX
  5
2C1
330
2AD
100
AcDbEntity
  8
Visible (ANSI)
100
AcDbVertex
100
AcDb2dVertex
 10
125.3452513762578
 20
88.15601845159704
 30
0.0
  0
VERTEX
  5
2C2
330
2AD
100
AcDbEntity
  8
Visible (ANSI)
100
AcDbVertex
100
AcDb2dVertex
 10
125.3416497186644
 20
88.14645467514528
 30
0.0
  0
VERTEX
  5
2C3
330
2AD
100
AcDbEntity
  8
Visible (ANSI)
100
AcDbVertex
100
AcDb2dVertex
 10
125.3386816420186
 20
88.13666862499458
 30
0.0
  0
VERTEX
  5
2C4
330
2AD
100
AcDbEntity
  8
Visible (ANSI)
100
AcDbVertex
100
AcDb2dVertex
 10
125.3363598533734
 20
88.12670836032307
 30
0.0
  0
VERTEX
  5
2C5
330
2AD
100
AcDbEntity
  8
Visible (ANSI)
100
AcDbVertex
100
AcDb2dVertex
 10
125.3346942907475
 20
88.11662194030892
 30
0.0
  0
VERTEX
  5
2C6
330
2AD
100
AcDbEntity
  8
Visible (ANSI)
100
AcDbVertex
100
AcDb2dVertex
 10
125.333692087925
 20
88.10644540933575
 30
0.0
  0
VERTEX
  5
2C7
330
2AD
100
AcDbEntity
  8
Visible (ANSI)
100
AcDbVertex
100
AcDb2dVertex
 10
125.3333575509896
 20
88.09622682658169
 30
0.0
  0
SEQEND
  5
2B0
330
2AD
100
AcDbEntity
  8
Visible (ANSI)
  0
LINE
  5
2C8
330
6C
100
AcDbEntity
  8
Visible (ANSI)
100
AcDbLine
 10
125.4896075491123
 20
88.12747706687758
 30
0.0
 11
126.2083575491123
 21
88.12747706687755
 31
0.0
  0
LINE
  5
2C9
330
6C
100
AcDbEntity
  8
Visible (ANSI)
100
AcDbLine
 10
126.2083575491123
 20
88.25247706687754
 30
0.0
 11
125.4896075491123
 21
88.25247706687759
 31
0.0
  0
LINE
  5
2CA
330
6C
100
AcDbEntity
  8
Visible (ANSI)
100
AcDbLine
 10
125.4896075491123
 20
88.12747706687758
 30
0.0
 11
125.4896075491123
 21
88.25247706687759
 31
0.0
  0
LINE
  5
2CB
330
6C
100
AcDbEntity
  8
Visible (ANSI)
100
AcDbLine
 10
126.2083575491123
 20
88.12747706687755
 30
0.0
 11
126.2083575491123
 21
88.25247706687754
 31
0.0
  0
POLYLINE
  5
2CC
330
6C
100
AcDbEntity
  8
Visible (ANSI)
100
AcDb2dPolyline
 66
     1
 10
0.0
 20
0.0
 30
0.0
 70
   128
  0
VERTEX
  5
2CD
330
2CC
100
AcDbEntity
  8
Visible (ANSI)
100
AcDbVertex
100
AcDb2dVertex
 10
125.4583575491123
 20
88.09622682658169
 30
0.0
  0
VERTEX
  5
2CE
330
2CC
100
AcDbEntity
  8
Visible (ANSI)
100
AcDbVertex
100
AcDb2dVertex
 10
125.4584244577586
 20
88.09826934165306
 30
0.0
  0
VERTEX
  5
2D0
330
2CC
100
AcDbEntity
  8
Visible (ANSI)
100
AcDbVertex
100
AcDb2dVertex
 10
125.4586248971968
 20
88.10030584932713
 30
0.0
  0
VERTEX
  5
2D1
330
2CC
100
AcDbEntity
  8
Visible (ANSI)
100
AcDbVertex
100
AcDb2dVertex
 10
125.4589580091215
 20
88.1023243348094
 30
0.0
  0
VERTEX
  5
2D2
330
2CC
100
AcDbEntity
  8
Visible (ANSI)
100
AcDbVertex
100
AcDb2dVertex
 10
125.4594223670614
 20
88.10431278330534
 30
0.0
  0
VERTEX
  5
2D3
330
2CC
100
AcDbEntity
  8
Visible (ANSI)
100
AcDbVertex
100
AcDb2dVertex
 10
125.4600159825372
 20
88.10627119481495
 30
0.0
  0
VERTEX
  5
2D4
330
2CC
100
AcDbEntity
  8
Visible (ANSI)
100
AcDbVertex
100
AcDb2dVertex
 10
125.4607363137993
 20
88.10818755454366
 30
0.0
  0
VERTEX
  5
2D5
330
2CC
100
AcDbEntity
  8
Visible (ANSI)
100
AcDbVertex
100
AcDb2dVertex
 10
125.4615802761164
 20
88.11004984769697
 30
0.0
  0
VERTEX
  5
2D6
330
2CC
100
AcDbEntity
  8
Visible (ANSI)
100
AcDbVertex
100
AcDb2dVertex
 10
125.4625442551138
 20
88.11185206687758
 30
0.0
  0
VERTEX
  5
2D7
330
2CC
100
AcDbEntity
  8
Visible (ANSI)
100
AcDbVertex
100
AcDb2dVertex
 10
125.463624123639
 20
88.11358820468823
 30
0.0
  0
VERTEX
  5
2D8
330
2CC
100
AcDbEntity
  8
Visible (ANSI)
100
AcDbVertex
100
AcDb2dVertex
 10
125.4648152569789
 20
88.11525225373166
 30
0.0
  0
VERTEX
  5
2D9
330
2CC
100
AcDbEntity
  8
Visible (ANSI)
100
AcDbVertex
100
AcDb2dVertex
 10
125.4661125548591
 20
88.11683219921333
 30
0.0
  0
VERTEX
  5
2DA
330
2CC
100
AcDbEntity
  8
Visible (ANSI)
100
AcDbVertex
100
AcDb2dVertex
 10
125.467510461977
 20
88.11832203373596
 30
0.0
  0
VERTEX
  5
2DB
330
2CC
100
AcDbEntity
  8
Visible (ANSI)
100
AcDbVertex
100
AcDb2dVertex
 10
125.4690029922019
 20
88.11972175729957
 30
0.0
  0
VERTEX
  5
2DC
330
2CC
100
AcDbEntity
  8
Visible (ANSI)
100
AcDbVertex
100
AcDb2dVertex
 10
125.4705837546074
 20
88.12101935510961
 30
0.0
  0
VERTEX
  5
2DD
330
2CC
100
AcDbEntity
  8
Visible (ANSI)
100
AcDbVertex
100
AcDb2dVertex
 10
125.4722459798719
 20
88.12220881976882
 30
0.0
  0
VERTEX
  5
2DE
330
2CC
100
AcDbEntity
  8
Visible (ANSI)
100
AcDbVertex
100
AcDb2dVertex
 10
125.4739825488776
 20
88.12329015127717
 30
0.0
  0
VERTEX
  5
2DF
330
2CC
100
AcDbEntity
  8
Visible (ANSI)
100
AcDbVertex
100
AcDb2dVertex
 10
125.4757860279103
 20
88.12425734223744
 30
0.0
  0
VERTEX
  5
2E0
330
2CC
100
AcDbEntity
  8
Visible (ANSI)
100
AcDbVertex
100
AcDb2dVertex
 10
125.477648692126
 20
88.12509837785507
 30
0.0
  0
VERTEX
  5
2E1
330
2CC
100
AcDbEntity
  8
Visible (ANSI)
100
AcDbVertex
100
AcDb2dVertex
 10
125.4795625658834
 20
88.12581926552729
 30
0.0
  0
VERTEX
  5
2E2
330
2CC
100
AcDbEntity
  8
Visible (ANSI)
100
AcDbVertex
100
AcDb2dVertex
 10
125.4815194535439
 20
88.1264139978569
 30
0.0
  0
VERTEX
  5
2E3
330
2CC
100
AcDbEntity
  8
Visible (ANSI)
100
AcDbVertex
100
AcDb2dVertex
 10
125.4835109761377
 20
88.12687656744659
 30
0.0
  0
VERTEX
  5
2E4
330
2CC
100
AcDbEntity
  8
Visible (ANSI)
100
AcDbVertex
100
AcDb2dVertex
 10
125.4855286050966
 20
88.12720697429638
 30
0.0
  0
VERTEX
  5
2E5
330
2CC
100
AcDbEntity
  8
Visible (ANSI)
100
AcDbVertex
100
AcDb2dVertex
 10
125.4875637018536
 20
88.12741122580352
 30
0.0
  0
VERTEX
  5
2E6
330
2CC
100
AcDbEntity
  8
Visible (ANSI)
100
AcDbVertex
100
AcDb2dVertex
 10
125.4896075486429
 20
88.12747730717346
 30
0.0
  0
SEQEND
  5
2CF
330
2CC
100
AcDbEntity
  8
Visible (ANSI)
  0
LINE
  5
2E7
330
6C
100
AcDbEntity
  8
Visible (ANSI)
100
AcDbLine
 10
125.3333575491123
 20
32.40872706687759
 30
0.0
 11
125.3333575491123
 21
88.09622706687758
 31
0.0
  0
LINE
  5
2E8
330
6C
100
AcDbEntity
  8
Visible (ANSI)
100
AcDbLine
 10
126.2083575491123
 20
88.03908871922926
 30
0.0
 11
126.2083575491123
 21
32.46586541452591
 31
0.0
  0
DIMENSION
  5
2E9
330
6C
100
AcDbEntity
  8
Dimension (ANSI)
100
AcDbDimension
280
     0
  2
*D4
 10
20.53883465405944
 20
88.25247706687759
 30
0.0
 11
20.53883465405943
 21
60.25247706687758
 31
0.0
 70
   160
  1
<>
 42
56.00000000000001
 73
     0
 74
     0
 75
     0
  3
Default (ANSI)
100
AcDbAlignedDimension
 13
40.4600944965791
 23
32.25247706687758
 33
0.0
 14
40.46009449657909
 24
88.25247706687759
 34
0.0
 50
90.0
100
AcDbRotatedDimension
1001
ACAD
1000
DSTYLE
1002
{
1070
   289
1070
     1
1070
   271
1070
     2
1070
   272
1070
     2
1070
    48
1040
0.0
1070
    47
1040
0.0
1002
}
  0
DIMENSION
  5
3D6
330
6C
100
AcDbEntity
  8
Dimension (ANSI)
100
AcDbDimension
280
     0
  2
*D5
 10
35.84617921363347
 20
60.25247706687758
 30
0.0
 11
35.84617921363346
 21
46.68997706687758
 31
0.0
 70
   160
  1
<>
 42
27.12499999999999
 73
     0
 74
     0
 75
     0
  3
Default (ANSI)
100
AcDbAlignedDimension
 13
41.12170614893078
 23
33.12747706687759
 33
0.0
 14
41.12170614893078
 24
60.25247706687758
 34
0.0
 50
90.0
100
AcDbRotatedDimension
1001
ACAD
1000
DSTYLE
1002
{
1070
   289
1070
     1
1070
   271
1070
     2
1070
   272
1070
     3
1070
    48
1040
0.0
1070
    47
1040
0.0
1002
}
  0
DIMENSION
  5
4C0
330
6C
100
AcDbEntity
  8
Dimension (ANSI)
100
AcDbDimension
280
     0
  2
*D6
 10
28.99572189696229
 20
87.37747706687761
 30
0.0
 11
28.99572189696228
 21
60.25247706687758
 31
0.0
 70
   160
  1
<>
 42
54.25000000000002
 73
     0
 74
     0
 75
     0
  3
Default (ANSI)
100
AcDbAlignedDimension
 13
41.12170614893078
 23
33.12747706687759
 33
0.0
 14
41.12170614893078
 24
87.37747706687761
 34
0.0
 50
90.0
100
AcDbRotatedDimension
1001
ACAD
1000
DSTYLE
1002
{
1070
   289
1070
     1
1070
   271
1070
     2
1070
   272
1070
     3
1070
    48
1040
0.0
1070
    47
1040
0.0
1002
}
  0
DIMENSION
  5
5AA
330
6C
100
AcDbEntity
  8
Dimension (ANSI)
100
AcDbDimension
280
     0
  2
*D7
 10
84.24670614893075
 20
100.1650729711977
 30
0.0
 11
62.24670614893076
 21
100.1650729711977
 31
0.0
 70
   160
  1
<>
 42
43.99999999999997
 73
     0
 74
     0
 75
     0
  3
Default (ANSI)
100
AcDbAlignedDimension
 13
40.24670614893078
 23
88.03908871922926
 33
0.0
 14
84.24670614893075
 24
88.03908871922926
 34
0.0
100
AcDbRotatedDimension
1001
ACAD
1000
DSTYLE
1002
{
1070
   289
1070
     1
1070
    73
1070
     0
1070
    74
1070
     0
1070
   271
1070
     2
1070
   272
1070
     2
1070
    48
1040
0.0
1070
    47
1040
0.0
1002
}
  0
DIMENSION
  5
694
330
6C
100
AcDbEntity
  8
Dimension (ANSI)
100
AcDbDimension
280
     0
  2
*D8
 10
83.37170614893079
 20
95.99319760429585
 30
0.0
 11
62.24670614893078
 21
95.99319760429585
 31
0.0
 70
   160
  1
<>
 42
42.25
 73
     0
 74
     0
 75
     0
  3
Default (ANSI)
100
AcDbAlignedDimension
 13
41.12170614893078
 23
87.37747706687761
 33
0.0
 14
83.37170614893079
 24
87.37747706687761
 34
0.0
 50
180.0
100
AcDbRotatedDimension
1001
ACAD
1000
DSTYLE
1002
{
1070
   289
1070
     1
1070
    73
1070
     0
1070
    74
1070
     0
1070
   271
1070
     2
1070
   272
1070
     3
1070
    48
1040
0.0
1070
    47
1040
0.0
1002
}
  0
DIMENSION
  5
77E
330
6C
100
AcDbEntity
  8
Dimension (ANSI)
100
AcDbDimension
280
     0
  2
*D9
 10
62.24670614893078
 20
91.28266528001196
 30
0.0
 11
51.68420614893078
 21
91.28266528001196
 31
0.0
 70
   160
  1
<>
 42
21.125
 73
     0
 74
     0
 75
     0
  3
Default (ANSI)
100
AcDbAlignedDimension
 13
41.12170614893078
 23
87.37747706687761
 33
0.0
 14
62.24670614893078
 24
87.37747706687761
 34
0.0
 50
180.0
100
AcDbRotatedDimension
1001
ACAD
1000
DSTYLE
1002
{
1070
   289
1070
     1
1070
    73
1070
     0
1070
    74
1070
     0
1070
   271
1070
     2
1070
   272
1070
     3
1070
    48
1040
0.0
1070
    47
1040
0.0
1002
}
  0
DIMENSION
  5
868
330
6C
100
AcDbEntity
  8
Dimension (ANSI)
100
AcDbDimension
280
     0
  2
*D10
 10
91.91722336490945
 20
33.12747706687757
 30
0.0
 11
91.99798237773022
 21
28.06282647460496
 31
0.0
 70
   160
  1
<>{ \PTYP.}
 42
0.8749999999999928
 73
     0
 74
     0
 75
     0
  3
Default (ANSI)
100
AcDbAlignedDimension
 13
84.03331780128246
 23
32.25247706687758
 33
0.0
 14
83.37170614893079
 24
33.12747706687757
 34
0.0
 50
90.0
100
AcDbRotatedDimension
1001
ACAD
1000
DSTYLE
1002
{
1070
   289
1070
     1
1070
   279
1070
     1
1070
   145
1040
-0.25
1070
   271
1070
     2
1070
   272
1070
     2
1070
    48
1040
0.0
1070
    47
1040
0.0
1002
}
  0
DIMENSION
  5
980
330
6C
100
AcDbEntity
  8
Dimension (ANSI)
100
AcDbDimension
280
     0
  2
*D11
 10
83.37170614893079
 20
29.0106936012595
 30
0.0
 11
78.50670112931858
 21
29.0106936012595
 31
0.0
 70
   160
  1
<>{\PTYP.}
 42
0.875
 73
     0
 74
     0
 75
     0
  3
Default (ANSI)
100
AcDbAlignedDimension
 13
84.24670614893079
 23
32.46586541452591
 33
0.0
 14
83.37170614893079
 24
33.12747706687757
 34
0.0
 50
180.0
100
AcDbRotatedDimension
1001
ACAD
1000
DSTYLE
1002
{
1070
   289
1070
     1
1070
    73
1070
     0
1070
    74
1070
     0
1070
   145
1040
-0.25
1070
   271
1070
     2
1070
   272
1070
     2
1070
    48
1040
0.0
1070
    47
1040
0.0
1002
}
  0
DIMENSION
  5
A7E
330
6C
100
AcDbEntity
  8
Dimension (ANSI)
100
AcDbDimension
280
     0
  2
*D12
 10
126.2083575491123
 20
91.40208336609013
 30
0.0
 11
120.5702407092791
 21
91.40208336609013
 31
0.0
 70
   160
  1
<>
 42
0.8749999999999857
 73
     0
 74
     0
 75
     0
  3
Default (ANSI)
100
AcDbAlignedDimension
 13
125.3333575491123
 23
88.09622706687758
 33
0.0
 14
126.2083575491123
 24
88.25247706687754
 34
0.0
100
AcDbRotatedDimension
1001
ACAD
1000
DSTYLE
1002
{
1070
   289
1070
     1
1070
    73
1070
     0
1070
    74
1070
     0
1070
   271
1070
     2
1070
   272
1070
     2
1070
    48
1040
0.0
1070
    47
1040
0.0
1002
}
  0
ELLIPSE
  5
B68
330
6C
100
AcDbEntity
  8
Visible (ANSI)
100
AcDbEllipse
 10
172.6789863994481
 20
52.80347147661601
 30
0.0
 11
-0.0965783276981949
 21
0.1677109756264705
 31
0.0
210
0.0
220
0.0
230
1.0
 40
0.5780931159158129
 41
0.0
 42
6.283185307179586
  0
ELLIPSE
  5
B69
330
6C
100
AcDbEntity
  8
Visible (ANSI)
100
AcDbEllipse
 10
172.7397533884563
 20
52.83846485827005
 30
0.0
 11
-0.0965783276981949
 21
0.1677109756264704
 31
0.0
210
0.0
220
0.0
230
1.0
 40
0.5780931159158129
 41
0.3187556839588481
 42
2.822836969630835
  0
ELLIPSE
  5
B6A
330
6C
100
AcDbEntity
  8
Visible (ANSI)
100
AcDbEllipse
 10
152.139744114667
 20
64.63123447567591
 30
0.0
 11
-0.0965783276981949
 21
0.1677109756264705
 31
0.0
210
0.0
220
0.0
230
1.0
 40
0.5780931159158129
 41
0.0
 42
6.283185307179586
  0
ELLIPSE
  5
B6B
330
6C
100
AcDbEntity
  8
Visible (ANSI)
100
AcDbEllipse
 10
152.2005111036752
 20
64.66622785732994
 30
0.0
 11
-0.0965783276981947
 21
0.1677109756264702
 31
0.0
210
0.0
220
0.0
230
1.0
 40
0.5780931159158129
 41
0.3187556839588481
 42
2.822836969630835
  0
ELLIPSE
  5
B6C
330
6C
100
AcDbEntity
  8
Visible (ANSI)
100
AcDbEllipse
 10
162.4093652570576
 20
49.09201299850761
 30
0.0
 11
-0.0965783276981949
 21
0.1677109756264705
 31
0.0
210
0.0
220
0.0
230
1.0
 40
0.5780931159158129
 41
0.0
 42
6.283185307179586
  0
ELLIPSE
  5
B6D
330
6C
100
AcDbEntity
  8
Visible (ANSI)
100
AcDbEllipse
 10
162.4701322460658
 20
49.12700638016165
 30
0.0
 11
-0.0965783276981943
 21
0.1677109756264695
 31
0.0
210
0.0
220
0.0
230
0.9999999999999998
 40
0.5780931159158129
 41
0.3187556839588915
 42
2.822836969630835
  0
ELLIPSE
  5
B6E
330
6C
100
AcDbEntity
  8
Visible (ANSI)
100
AcDbEllipse
 10
172.6789863994481
 20
58.42410795990847
 30
0.0
 11
-0.0965783276981949
 21
0.1677109756264705
 31
0.0
210
0.0
220
0.0
230
1.0
 40
0.5780931159158129
 41
0.0
 42
6.283185307179586
  0
ELLIPSE
  5
B6F
330
6C
100
AcDbEntity
  8
Visible (ANSI)
100
AcDbEllipse
 10
172.7397533884563
 20
58.45910134156252
 30
0.0
 11
-0.0965783276981931
 21
0.1677109756264675
 31
0.0
210
0.0
220
0.0
230
0.9999999999999998
 40
0.5780931159158129
 41
0.3187556839588916
 42
2.822836969630835
  0
ELLIPSE
  5
B70
330
6C
100
AcDbEntity
  8
Visible (ANSI)
100
AcDbEllipse
 10
172.6789863994482
 20
43.17813149897767
 30
0.0
 11
-0.0965783276981949
 21
0.1677109756264705
 31
0.0
210
0.0
220
0.0
230
1.0
 40
0.5780931159158129
 41
0.0
 42
6.283185307179586
  0
ELLIPSE
  5
B71
330
6C
100
AcDbEntity
  8
Visible (ANSI)
100
AcDbEllipse
 10
172.7397533884564
 20
43.2131248806317
 30
0.0
 11
-0.096578327698195
 21
0.1677109756264707
 31
0.0
210
0.0
220
0.0
230
0.9999999999999998
 40
0.578093115915813
 41
0.3187556839588481
 42
2.822836969630835
  0
ELLIPSE
  5
B72
330
6C
100
AcDbEntity
  8
Visible (ANSI)
100
AcDbEllipse
 10
152.139744114667
 20
55.00589449803758
 30
0.0
 11
-0.0965783276981949
 21
0.1677109756264705
 31
0.0
210
0.0
220
0.0
230
1.0
 40
0.5780931159158129
 41
0.0
 42
6.283185307179586
  0
ELLIPSE
  5
B73
330
6C
100
AcDbEntity
  8
Visible (ANSI)
100
AcDbEllipse
 10
152.2005111036752
 20
55.04088787969161
 30
0.0
 11
-0.0965783276981949
 21
0.1677109756264705
 31
0.0
210
0.0
220
0.0
230
1.0
 40
0.5780931159158129
 41
0.3187556839588481
 42
2.822836969630835
  0
ELLIPSE
  5
B74
330
6C
100
AcDbEntity
  8
Visible (ANSI)
100
AcDbEllipse
 10
152.139744114667
 20
70.25187095896836
 30
0.0
 11
-0.0965783276981949
 21
0.1677109756264705
 31
0.0
210
0.0
220
0.0
230
1.0
 40
0.5780931159158129
 41
0.0
 42
6.283185307179586
  0
ELLIPSE
  5
B75
330
6C
100
AcDbEntity
  8
Visible (ANSI)
100
AcDbEllipse
 10
152.2005111036752
 20
70.2868643406224
 30
0.0
 11
-0.0965783276981947
 21
0.1677109756264702
 31
0.0
210
0.0
220
0.0
230
1.0
 40
0.5780931159158129
 41
0.3187556839588485
 42
2.822836969630857
  0
ELLIPSE
  5
B76
330
6C
100
AcDbEntity
  8
Visible (ANSI)
100
AcDbEllipse
 10
172.6789863994481
 20
73.67008442083927
 30
0.0
 11
-0.0965783276981949
 21
0.1677109756264705
 31
0.0
210
0.0
220
0.0
230
1.0
 40
0.5780931159158129
 41
0.0
 42
6.283185307179586
  0
ELLIPSE
  5
B77
330
6C
100
AcDbEntity
  8
Visible (ANSI)
100
AcDbEllipse
 10
172.7397533884563
 20
73.70507780249332
 30
0.0
 11
-0.0965783276981949
 21
0.1677109756264705
 31
0.0
210
0.0
220
0.0
230
1.0
 40
0.578093115915813
 41
0.3187556839588479
 42
2.822836969630813
  0
ELLIPSE
  5
B78
330
6C
100
AcDbEntity
  8
Visible (ANSI)
100
AcDbEllipse
 10
162.4093652570576
 20
79.58396592036923
 30
0.0
 11
-0.0965783276981949
 21
0.1677109756264705
 31
0.0
210
0.0
220
0.0
230
1.0
 40
0.5780931159158129
 41
0.0
 42
6.283185307179586
  0
ELLIPSE
  5
B79
330
6C
100
AcDbEntity
  8
Visible (ANSI)
100
AcDbEllipse
 10
162.4701322460658
 20
79.61895930202324
 30
0.0
 11
-0.0965783276981949
 21
0.1677109756264705
 31
0.0
210
0.0
220
0.0
230
1.0
 40
0.578093115915813
 41
0.3187556839588479
 42
2.822836969630813
  0
ELLIPSE
  5
B7A
330
6C
100
AcDbEntity
  8
Visible (ANSI)
100
AcDbEllipse
 10
152.139744114667
 20
85.49784741989917
 30
0.0
 11
-0.0965783276981949
 21
0.1677109756264705
 31
0.0
210
0.0
220
0.0
230
1.0
 40
0.5780931159158129
 41
0.0
 42
6.283185307179586
  0
ELLIPSE
  5
B7B
330
6C
100
AcDbEntity
  8
Visible (ANSI)
100
AcDbEllipse
 10
152.2005111036752
 20
85.5328408015532
 30
0.0
 11
-0.096578327698196
 21
0.1677109756264723
 31
0.0
210
0.0
220
0.0
230
0.9999999999999998
 40
0.5780931159158128
 41
0.3187556839588478
 42
2.822836969630813
  0
POLYLINE
  5
B7C
330
6C
100
AcDbEntity
  8
Visible (ANSI)
100
AcDb2dPolyline
 66
     1
 10
0.0
 20
0.0
 30
0.0
 70
   128
  0
VERTEX
  5
B7D
330
B7C
100
AcDbEntity
  8
Visible (ANSI)
100
AcDbVertex
100
AcDb2dVertex
 10
173.0283972880569
 20
42.57293590281622
 30
0.0
  0
VERTEX
  5
B7E
330
B7C
100
AcDbEntity
  8
Visible (ANSI)
100
AcDbVertex
100
AcDb2dVertex
 10
173.0274019752954
 20
42.56795250736207
 30
0.0
  0
VERTEX
  5
B80
330
B7C
100
AcDbEntity
  8
Visible (ANSI)
100
AcDbVertex
100
AcDb2dVertex
 10
173.0267312388988
 20
42.56318062162431
 30
0.0
  0
VERTEX
  5
B81
330
B7C
100
AcDbEntity
  8
Visible (ANSI)
100
AcDbVertex
100
AcDb2dVertex
 10
173.0263844457311
 20
42.55864268575805
 30
0.0
  0
VERTEX
  5
B82
330
B7C
100
AcDbEntity
  8
Visible (ANSI)
100
AcDbVertex
100
AcDb2dVertex
 10
173.026355207392
 20
42.55436266650271
 30
0.0
  0
VERTEX
  5
B83
330
B7C
100
AcDbEntity
  8
Visible (ANSI)
100
AcDbVertex
100
AcDb2dVertex
 10
173.0266401528596
 20
42.5503609063803
 30
0.0
  0
VERTEX
  5
B84
330
B7C
100
AcDbEntity
  8
Visible (ANSI)
100
AcDbVertex
100
AcDb2dVertex
 10
173.0272345649848
 20
42.54665656055447
 30
0.0
  0
VERTEX
  5
B85
330
B7C
100
AcDbEntity
  8
Visible (ANSI)
100
AcDbVertex
100
AcDb2dVertex
 10
173.0281280226895
 20
42.54327001718989
 30
0.0
  0
VERTEX
  5
B86
330
B7C
100
AcDbEntity
  8
Visible (ANSI)
100
AcDbVertex
100
AcDb2dVertex
 10
173.0293146623351
 20
42.54021695846867
 30
0.0
  0
VERTEX
  5
B87
330
B7C
100
AcDbEntity
  8
Visible (ANSI)
100
AcDbVertex
100
AcDb2dVertex
 10
173.0307815360031
 20
42.53751499188925
 30
0.0
  0
VERTEX
  5
B88
330
B7C
100
AcDbEntity
  8
Visible (ANSI)
100
AcDbVertex
100
AcDb2dVertex
 10
173.0325188557516
 20
42.53517769813135
 30
0.0
  0
VERTEX
  5
B89
330
B7C
100
AcDbEntity
  8
Visible (ANSI)
100
AcDbVertex
100
AcDb2dVertex
 10
173.0345156871492
 20
42.53321710076188
 30
0.0
  0
VERTEX
  5
B8A
330
B7C
100
AcDbEntity
  8
Visible (ANSI)
100
AcDbVertex
100
AcDb2dVertex
 10
173.0367556085847
 20
42.53164613107101
 30
0.0
  0
VERTEX
  5
B8B
330
B7C
100
AcDbEntity
  8
Visible (ANSI)
100
AcDbVertex
100
AcDb2dVertex
 10
173.0392269868954
 20
42.53047268740809
 30
0.0
  0
VERTEX
  5
B8C
330
B7C
100
AcDbEntity
  8
Visible (ANSI)
100
AcDbVertex
100
AcDb2dVertex
 10
173.0419113698717
 20
42.52970633070344
 30
0.0
  0
VERTEX
  5
B8D
330
B7C
100
AcDbEntity
  8
Visible (ANSI)
100
AcDbVertex
100
AcDb2dVertex
 10
173.0447937647365
 20
42.5293523586363
 30
0.0
  0
VERTEX
  5
B8E
330
B7C
100
AcDbEntity
  8
Visible (ANSI)
100
AcDbVertex
100
AcDb2dVertex
 10
173.0478583259758
 20
42.52941429596205
 30
0.0
  0
VERTEX
  5
B8F
330
B7C
100
AcDbEntity
  8
Visible (ANSI)
100
AcDbVertex
100
AcDb2dVertex
 10
173.0510840602794
 20
42.52989641447809
 30
0.0
  0
VERTEX
  5
B90
330
B7C
100
AcDbEntity
  8
Visible (ANSI)
100
AcDbVertex
100
AcDb2dVertex
 10
173.0544551178552
 20
42.53079782323779
 30
0.0
  0
VERTEX
  5
B91
330
B7C
100
AcDbEntity
  8
Visible (ANSI)
100
AcDbVertex
100
AcDb2dVertex
 10
173.0579491892117
 20
42.53211919538816
 30
0.0
  0
VERTEX
  5
B92
330
B7C
100
AcDbEntity
  8
Visible (ANSI)
100
AcDbVertex
100
AcDb2dVertex
 10
173.0615478135833
 20
42.53385688719795
 30
0.0
  0
VERTEX
  5
B93
330
B7C
100
AcDbEntity
  8
Visible (ANSI)
100
AcDbVertex
100
AcDb2dVertex
 10
173.0652320839611
 20
42.53600547239789
 30
0.0
  0
VERTEX
  5
B94
330
B7C
100
AcDbEntity
  8
Visible (ANSI)
100
AcDbVertex
100
AcDb2dVertex
 10
173.0689783505193
 20
42.53856028358284
 30
0.0
  0
VERTEX
  5
B95
330
B7C
100
AcDbEntity
  8
Visible (ANSI)
100
AcDbVertex
100
AcDb2dVertex
 10
173.0727670729348
 20
42.54151239538254
 30
0.0
  0
VERTEX
  5
B96
330
B7C
100
AcDbEntity
  8
Visible (ANSI)
100
AcDbVertex
100
AcDb2dVertex
 10
173.0765785287151
 20
42.54485118070391
 30
0.0
  0
SEQEND
  5
B7F
330
B7C
100
AcDbEntity
  8
Visible (ANSI)
  0
POLYLINE
  5
B97
330
6C
100
AcDbEntity
  8
Visible (ANSI)
100
AcDb2dPolyline
 66
     1
 10
0.0
 20
0.0
 30
0.0
 70
   128
  0
VERTEX
  5
B98
330
B97
100
AcDbEntity
  8
Visible (ANSI)
100
AcDbVertex
100
AcDb2dVertex
 10
151.8266083851763
 20
54.74575735778735
 30
0.0
  0
VERTEX
  5
B99
330
B97
100
AcDbEntity
  8
Visible (ANSI)
100
AcDbVertex
100
AcDb2dVertex
 10
151.8242920139829
 20
54.74715796352575
 30
0.0
  0
VERTEX
  5
B9B
330
B97
100
AcDbEntity
  8
Visible (ANSI)
100
AcDbVertex
100
AcDb2dVertex
 10
151.8220351975102
 20
54.74865759584516
 30
0.0
  0
VERTEX
  5
B9C
330
B97
100
AcDbEntity
  8
Visible (ANSI)
100
AcDbVertex
100
AcDb2dVertex
 10
151.8198397439037
 20
54.75025500099548
 30
0.0
  0
VERTEX
  5
B9D
330
B97
100
AcDbEntity
  8
Visible (ANSI)
100
AcDbVertex
100
AcDb2dVertex
 10
151.8177073843056
 20
54.75194881823292
 30
0.0
  0
VERTEX
  5
B9E
330
B97
100
AcDbEntity
  8
Visible (ANSI)
100
AcDbVertex
100
AcDb2dVertex
 10
151.8156397956712
 20
54.75373758966123
 30
0.0
  0
VERTEX
  5
B9F
330
B97
100
AcDbEntity
  8
Visible (ANSI)
100
AcDbVertex
100
AcDb2dVertex
 10
151.8136385722484
 20
54.75561974051093
 30
0.0
  0
VERTEX
  5
BA0
330
B97
100
AcDbEntity
  8
Visible (ANSI)
100
AcDbVertex
100
AcDb2dVertex
 10
151.8117052483942
 20
54.75759361206243
 30
0.0
  0
VERTEX
  5
BA1
330
B97
100
AcDbEntity
  8
Visible (ANSI)
100
AcDbVertex
100
AcDb2dVertex
 10
151.8098412786104
 20
54.75965743696008
 30
0.0
  0
VERTEX
  5
BA2
330
B97
100
AcDbEntity
  8
Visible (ANSI)
100
AcDbVertex
100
AcDb2dVertex
 10
151.8080480489517
 20
54.76180935567371
 30
0.0
  0
VERTEX
  5
BA3
330
B97
100
AcDbEntity
  8
Visible (ANSI)
100
AcDbVertex
100
AcDb2dVertex
 10
151.8063268542099
 20
54.76404740665731
 30
0.0
  0
VERTEX
  5
BA4
330
B97
100
AcDbEntity
  8
Visible (ANSI)
100
AcDbVertex
100
AcDb2dVertex
 10
151.8046789321376
 20
54.76636954935456
 30
0.0
  0
VERTEX
  5
BA5
330
B97
100
AcDbEntity
  8
Visible (ANSI)
100
AcDbVertex
100
AcDb2dVertex
 10
151.8031054292245
 20
54.76877364119324
 30
0.0
  0
VERTEX
  5
BA6
330
B97
100
AcDbEntity
  8
Visible (ANSI)
100
AcDbVertex
100
AcDb2dVertex
 10
151.8016074121053
 20
54.77125745074952
 30
0.0
  0
VERTEX
  5
BA7
330
B97
100
AcDbEntity
  8
Visible (ANSI)
100
AcDbVertex
100
AcDb2dVertex
 10
151.8001858675596
 20
54.77381866434271
 30
0.0
  0
VERTEX
  5
BA8
330
B97
100
AcDbEntity
  8
Visible (ANSI)
100
AcDbVertex
100
AcDb2dVertex
 10
151.798841702512
 20
54.77645489263004
 30
0.0
  0
VERTEX
  5
BA9
330
B97
100
AcDbEntity
  8
Visible (ANSI)
100
AcDbVertex
100
AcDb2dVertex
 10
151.7975757440325
 20
54.77916365082227
 30
0.0
  0
VERTEX
  5
BAA
330
B97
100
AcDbEntity
  8
Visible (ANSI)
100
AcDbVertex
100
AcDb2dVertex
 10
151.7963887222237
 20
54.78194239169594
 30
0.0
  0
VERTEX
  5
BAB
330
B97
100
AcDbEntity
  8
Visible (ANSI)
100
AcDbVertex
100
AcDb2dVertex
 10
151.7952812987414
 20
54.78478847585304
 30
0.0
  0
VERTEX
  5
BAC
330
B97
100
AcDbEntity
  8
Visible (ANSI)
100
AcDbVertex
100
AcDb2dVertex
 10
151.7942540325707
 20
54.78769920477138
 30
0.0
  0
VERTEX
  5
BAD
330
B97
100
AcDbEntity
  8
Visible (ANSI)
100
AcDbVertex
100
AcDb2dVertex
 10
151.7933074142495
 20
54.79067180753875
 30
0.0
  0
VERTEX
  5
BAE
330
B97
100
AcDbEntity
  8
Visible (ANSI)
100
AcDbVertex
100
AcDb2dVertex
 10
151.7924418259409
 20
54.79370343764446
 30
0.0
  0
VERTEX
  5
BAF
330
B97
100
AcDbEntity
  8
Visible (ANSI)
100
AcDbVertex
100
AcDb2dVertex
 10
151.791657587065
 20
54.79679119925682
 30
0.0
  0
VERTEX
  5
BB0
330
B97
100
AcDbEntity
  8
Visible (ANSI)
100
AcDbVertex
100
AcDb2dVertex
 10
151.7909549086671
 20
54.79993212754052
 30
0.0
  0
VERTEX
  5
BB1
330
B97
100
AcDbEntity
  8
Visible (ANSI)
100
AcDbVertex
100
AcDb2dVertex
 10
151.7903339276415
 20
54.80312319517508
 30
0.0
  0
SEQEND
  5
B9A
330
B97
100
AcDbEntity
  8
Visible (ANSI)
  0
LINE
  5
BB2
330
6C
100
AcDbEntity
  8
Visible (ANSI)
100
AcDbLine
 10
152.1282371635905
 20
54.94815281429051
 30
0.0
 11
152.2434798536751
 21
55.01451666582879
 31
0.0
  0
LINE
  5
BB3
330
6C
100
AcDbEntity
  8
Visible (ANSI)
100
AcDbLine
 10
173.0765783197577
 20
42.56763195882954
 30
0.0
 11
173.0765783197577
 21
42.5448513012972
 31
0.0
  0
LINE
  5
BB4
330
6C
100
AcDbEntity
  8
Visible (ANSI)
100
AcDbLine
 10
173.0765783197577
 20
42.5448513012972
 30
0.0
 11
173.1395508135149
 21
42.58111474866749
 31
0.0
  0
LINE
  5
BB5
330
6C
100
AcDbEntity
  8
Visible (ANSI)
100
AcDbLine
 10
173.1784801022113
 20
42.60353263507433
 30
0.0
 11
173.425988506555
 21
42.74606324580789
 31
0.0
  0
LINE
  5
BB6
330
6C
100
AcDbEntity
  8
Visible (ANSI)
100
AcDbLine
 10
173.425988506555
 20
42.74652620076156
 30
0.0
 11
173.425988506555
 21
42.74606324580789
 31
0.0
  0
POLYLINE
  5
BB7
330
6C
100
AcDbEntity
  8
Visible (ANSI)
100
AcDb2dPolyline
 66
     1
 10
0.0
 20
0.0
 30
0.0
 70
   128
  0
VERTEX
  5
BB8
330
BB7
100
AcDbEntity
  8
Visible (ANSI)
100
AcDbVertex
100
AcDb2dVertex
 10
173.0283972880569
 20
73.87285518540849
 30
0.0
  0
VERTEX
  5
BB9
330
BB7
100
AcDbEntity
  8
Visible (ANSI)
100
AcDbVertex
100
AcDb2dVertex
 10
173.0335275385222
 20
73.86875106621572
 30
0.0
  0
VERTEX
  5
BBB
330
BB7
100
AcDbEntity
  8
Visible (ANSI)
100
AcDbVertex
100
AcDb2dVertex
 10
173.0389604622659
 20
73.86484309472966
 30
0.0
  0
VERTEX
  5
BBC
330
BB7
100
AcDbEntity
  8
Visible (ANSI)
100
AcDbVertex
100
AcDb2dVertex
 10
173.044674983271
 20
73.86114774994975
 30
0.0
  0
VERTEX
  5
BBD
330
BB7
100
AcDbEntity
  8
Visible (ANSI)
100
AcDbVertex
100
AcDb2dVertex
 10
173.0506442702564
 20
73.85767311227976
 30
0.0
  0
VERTEX
  5
BBE
330
BB7
100
AcDbEntity
  8
Visible (ANSI)
100
AcDbVertex
100
AcDb2dVertex
 10
173.0568445093192
 20
73.85442733099623
 30
0.0
  0
VERTEX
  5
BBF
330
BB7
100
AcDbEntity
  8
Visible (ANSI)
100
AcDbVertex
100
AcDb2dVertex
 10
173.0632461598123
 20
73.85141692628278
 30
0.0
  0
VERTEX
  5
BC0
330
BB7
100
AcDbEntity
  8
Visible (ANSI)
100
AcDbVertex
100
AcDb2dVertex
 10
173.0698256588056
 20
73.84865358151451
 30
0.0
  0
VERTEX
  5
BC1
330
BB7
100
AcDbEntity
  8
Visible (ANSI)
100
AcDbVertex
100
AcDb2dVertex
 10
173.0765523191622
 20
73.84614147490236
 30
0.0
  0
VERTEX
  5
BC2
330
BB7
100
AcDbEntity
  8
Visible (ANSI)
100
AcDbVertex
100
AcDb2dVertex
 10
173.0833985909059
 20
73.84388154596853
 30
0.0
  0
VERTEX
  5
BC3
330
BB7
100
AcDbEntity
  8
Visible (ANSI)
100
AcDbVertex
100
AcDb2dVertex
 10
173.0903342432141
 20
73.84188500181039
 30
0.0
  0
VERTEX
  5
BC4
330
BB7
100
AcDbEntity
  8
Visible (ANSI)
100
AcDbVertex
100
AcDb2dVertex
 10
173.0973293589801
 20
73.8401514188104
 30
0.0
  0
VERTEX
  5
BC5
330
BB7
100
AcDbEntity
  8
Visible (ANSI)
100
AcDbVertex
100
AcDb2dVertex
 10
173.1043558349467
 20
73.83867805437104
 30
0.0
  0
VERTEX
  5
BC6
330
BB7
100
AcDbEntity
  8
Visible (ANSI)
100
AcDbVertex
100
AcDb2dVertex
 10
173.1113815950702
 20
73.83747337124444
 30
0.0
  0
VERTEX
  5
BC7
330
BB7
100
AcDbEntity
  8
Visible (ANSI)
100
AcDbVertex
100
AcDb2dVertex
 10
173.1183765054948
 20
73.83653345748911
 30
0.0
  0
VERTEX
  5
BC8
330
BB7
100
AcDbEntity
  8
Visible (ANSI)
100
AcDbVertex
100
AcDb2dVertex
 10
173.1253124315915
 20
73.83585218893547
 30
0.0
  0
VERTEX
  5
BC9
330
BB7
100
AcDbEntity
  8
Visible (ANSI)
100
AcDbVertex
100
AcDb2dVertex
 10
173.1321574655827
 20
73.83543476172725
 30
0.0
  0
VERTEX
  5
BCA
330
BB7
100
AcDbEntity
  8
Visible (ANSI)
100
AcDbVertex
100
AcDb2dVertex
 10
173.1388847733352
 20
73.83527243709429
 30
0.0
  0
VERTEX
  5
BCB
330
BB7
100
AcDbEntity
  8
Visible (ANSI)
100
AcDbVertex
100
AcDb2dVertex
 10
173.1454639029992
 20
73.83536113300777
 30
0.0
  0
VERTEX
  5
BCC
330
BB7
100
AcDbEntity
  8
Visible (ANSI)
100
AcDbVertex
100
AcDb2dVertex
 10
173.1518667042598
 20
73.83569135275897
 30
0.0
  0
VERTEX
  5
BCD
330
BB7
100
AcDbEntity
  8
Visible (ANSI)
100
AcDbVertex
100
AcDb2dVertex
 10
173.158065955117
 20
73.83626258208558
 30
0.0
  0
VERTEX
  5
BCE
330
BB7
100
AcDbEntity
  8
Visible (ANSI)
100
AcDbVertex
100
AcDb2dVertex
 10
173.1640354475329
 20
73.83706307925546
 30
0.0
  0
VERTEX
  5
BCF
330
BB7
100
AcDbEntity
  8
Visible (ANSI)
100
AcDbVertex
100
AcDb2dVertex
 10
173.1697500714761
 20
73.83808005308296
 30
0.0
  0
VERTEX
  5
BD0
330
BB7
100
AcDbEntity
  8
Visible (ANSI)
100
AcDbVertex
100
AcDb2dVertex
 10
173.1751829855944
 20
73.83931152675337
 30
0.0
  0
VERTEX
  5
BD1
330
BB7
100
AcDbEntity
  8
Visible (ANSI)
100
AcDbVertex
100
AcDb2dVertex
 10
173.1803144673954
 20
73.84074108454581
 30
0.0
  0
SEQEND
  5
BBA
330
BB7
100
AcDbEntity
  8
Visible (ANSI)
  0
POLYLINE
  5
BD2
330
6C
100
AcDbEntity
  8
Visible (ANSI)
100
AcDb2dPolyline
 66
     1
 10
0.0
 20
0.0
 30
0.0
 70
   128
  0
VERTEX
  5
BD3
330
BD2
100
AcDbEntity
  8
Visible (ANSI)
100
AcDbVertex
100
AcDb2dVertex
 10
173.1803144673954
 20
42.60505145323755
 30
0.0
  0
VERTEX
  5
BD4
330
BD2
100
AcDbEntity
  8
Visible (ANSI)
100
AcDbVertex
100
AcDb2dVertex
 10
173.1751829855944
 20
42.60094664727207
 30
0.0
  0
VERTEX
  5
BD6
330
BD2
100
AcDbEntity
  8
Visible (ANSI)
100
AcDbVertex
100
AcDb2dVertex
 10
173.1697500714761
 20
42.5970399254286
 30
0.0
  0
VERTEX
  5
BD7
330
BD2
100
AcDbEntity
  8
Visible (ANSI)
100
AcDbVertex
100
AcDb2dVertex
 10
173.1640354475329
 20
42.59334432688839
 30
0.0
  0
VERTEX
  5
BD8
330
BD2
100
AcDbEntity
  8
Visible (ANSI)
100
AcDbVertex
100
AcDb2dVertex
 10
173.158065955117
 20
42.58986858154548
 30
0.0
  0
VERTEX
  5
BD9
330
BD2
100
AcDbEntity
  8
Visible (ANSI)
100
AcDbVertex
100
AcDb2dVertex
 10
173.1518667042598
 20
42.5866220908562
 30
0.0
  0
VERTEX
  5
BDA
330
BD2
100
AcDbEntity
  8
Visible (ANSI)
100
AcDbVertex
100
AcDb2dVertex
 10
173.1454639029992
 20
42.5836132463923
 30
0.0
  0
VERTEX
  5
BDB
330
BD2
100
AcDbEntity
  8
Visible (ANSI)
100
AcDbVertex
100
AcDb2dVertex
 10
173.1388847733352
 20
42.58084930230577
 30
0.0
  0
VERTEX
  5
BDC
330
BD2
100
AcDbEntity
  8
Visible (ANSI)
100
AcDbVertex
100
AcDb2dVertex
 10
173.1321574655827
 20
42.57833637876568
 30
0.0
  0
VERTEX
  5
BDD
330
BD2
100
AcDbEntity
  8
Visible (ANSI)
100
AcDbVertex
100
AcDb2dVertex
 10
173.1253124315915
 20
42.57607855120602
 30
0.0
  0
VERTEX
  5
BDE
330
BD2
100
AcDbEntity
  8
Visible (ANSI)
100
AcDbVertex
100
AcDb2dVertex
 10
173.1183765054948
 20
42.57408119504698
 30
0.0
  0
VERTEX
  5
BDF
330
BD2
100
AcDbEntity
  8
Visible (ANSI)
100
AcDbVertex
100
AcDb2dVertex
 10
173.1113815950702
 20
42.57234586062925
 30
0.0
  0
VERTEX
  5
BE0
330
BD2
100
AcDbEntity
  8
Visible (ANSI)
100
AcDbVertex
100
AcDb2dVertex
 10
173.1043558349467
 20
42.57087528898799
 30
0.0
  0
VERTEX
  5
BE1
330
BD2
100
AcDbEntity
  8
Visible (ANSI)
100
AcDbVertex
100
AcDb2dVertex
 10
173.0973293589801
 20
42.56967002871467
 30
0.0
  0
VERTEX
  5
BE2
330
BD2
100
AcDbEntity
  8
Visible (ANSI)
100
AcDbVertex
100
AcDb2dVertex
 10
173.0903342432141
 20
42.56872835694681
 30
0.0
  0
VERTEX
  5
BE3
330
BD2
100
AcDbEntity
  8
Visible (ANSI)
100
AcDbVertex
100
AcDb2dVertex
 10
173.0833985909059
 20
42.56804965293187
 30
0.0
  0
VERTEX
  5
BE4
330
BD2
100
AcDbEntity
  8
Visible (ANSI)
100
AcDbVertex
100
AcDb2dVertex
 10
173.0765523191622
 20
42.56763095055823
 30
0.0
  0
VERTEX
  5
BE5
330
BD2
100
AcDbEntity
  8
Visible (ANSI)
100
AcDbVertex
100
AcDb2dVertex
 10
173.0698256588056
 20
42.56746780899731
 30
0.0
  0
VERTEX
  5
BE6
330
BD2
100
AcDbEntity
  8
Visible (ANSI)
100
AcDbVertex
100
AcDb2dVertex
 10
173.0632461598123
 20
42.56755590559253
 30
0.0
  0
VERTEX
  5
BE7
330
BD2
100
AcDbEntity
  8
Visible (ANSI)
100
AcDbVertex
100
AcDb2dVertex
 10
173.0568445093192
 20
42.5678876789985
 30
0.0
  0
VERTEX
  5
BE8
330
BD2
100
AcDbEntity
  8
Visible (ANSI)
100
AcDbVertex
100
AcDb2dVertex
 10
173.0506442702564
 20
42.56845821210896
 30
0.0
  0
VERTEX
  5
BE9
330
BD2
100
AcDbEntity
  8
Visible (ANSI)
100
AcDbVertex
100
AcDb2dVertex
 10
173.044674983271
 20
42.5692575950111
 30
0.0
  0
VERTEX
  5
BEA
330
BD2
100
AcDbEntity
  8
Visible (ANSI)
100
AcDbVertex
100
AcDb2dVertex
 10
173.0389604622659
 20
42.57027769161795
 30
0.0
  0
VERTEX
  5
BEB
330
BD2
100
AcDbEntity
  8
Visible (ANSI)
100
AcDbVertex
100
AcDb2dVertex
 10
173.0335275385222
 20
42.57150703839132
 30
0.0
  0
VERTEX
  5
BEC
330
BD2
100
AcDbEntity
  8
Visible (ANSI)
100
AcDbVertex
100
AcDb2dVertex
 10
173.0283972880569
 20
42.57293590281622
 30
0.0
  0
SEQEND
  5
BD5
330
BD2
100
AcDbEntity
  8
Visible (ANSI)
  0
LINE
  5
BED
330
6C
100
AcDbEntity
  8
Visible (ANSI)
100
AcDbLine
 10
173.1196377241782
 20
73.87578592148935
 30
0.0
 11
173.468957256555
 21
74.07694566159129
 31
0.0
  0
LINE
  5
BEE
330
6C
100
AcDbEntity
  8
Visible (ANSI)
100
AcDbLine
 10
173.5297242455632
 20
42.80626363987983
 30
0.0
 11
173.180314058766
 21
42.60505169536913
 31
0.0
  0
LINE
  5
BEF
330
6C
100
AcDbEntity
  8
Visible (ANSI)
100
AcDbLine
 10
173.1221072332956
 20
73.87425941695092
 30
0.0
 11
173.180314058766
 21
73.84074033542659
 31
0.0
  0
POLYLINE
  5
BF0
330
6C
100
AcDbEntity
  8
Visible (ANSI)
100
AcDb2dPolyline
 66
     1
 10
0.0
 20
0.0
 30
0.0
 70
   128
  0
VERTEX
  5
BF1
330
BF0
100
AcDbEntity
  8
Visible (ANSI)
100
AcDbVertex
100
AcDb2dVertex
 10
173.0891642761524
 20
73.90784856653699
 30
0.0
  0
VERTEX
  5
BF2
330
BF0
100
AcDbEntity
  8
Visible (ANSI)
100
AcDbVertex
100
AcDb2dVertex
 10
173.0900982237389
 20
73.90611971512402
 30
0.0
  0
VERTEX
  5
BF4
330
BF0
100
AcDbEntity
  8
Visible (ANSI)
100
AcDbVertex
100
AcDb2dVertex
 10
173.0910849336083
 20
73.90442292924219
 30
0.0
  0
VERTEX
  5
BF5
330
BF0
100
AcDbEntity
  8
Visible (ANSI)
100
AcDbVertex
100
AcDb2dVertex
 10
173.0921182739507
 20
73.90276140482971
 30
0.0
  0
VERTEX
  5
BF6
330
BF0
100
AcDbEntity
  8
Visible (ANSI)
100
AcDbVertex
100
AcDb2dVertex
 10
173.0931963007208
 20
73.90113570413841
 30
0.0
  0
VERTEX
  5
BF7
330
BF0
100
AcDbEntity
  8
Visible (ANSI)
100
AcDbVertex
100
AcDb2dVertex
 10
173.0943124981824
 20
73.89954542547851
 30
0.0
  0
VERTEX
  5
BF8
330
BF0
100
AcDbEntity
  8
Visible (ANSI)
100
AcDbVertex
100
AcDb2dVertex
 10
173.095466002636
 20
73.89799682455773
 30
0.0
  0
VERTEX
  5
BF9
330
BF0
100
AcDbEntity
  8
Visible (ANSI)
100
AcDbVertex
100
AcDb2dVertex
 10
173.096651384387
 20
73.89648844334276
 30
0.0
  0
VERTEX
  5
BFA
330
BF0
100
AcDbEntity
  8
Visible (ANSI)
100
AcDbVertex
100
AcDb2dVertex
 10
173.0978630315716
 20
73.89502209543566
 30
0.0
  0
VERTEX
  5
BFB
330
BF0
100
AcDbEntity
  8
Visible (ANSI)
100
AcDbVertex
100
AcDb2dVertex
 10
173.0990995356758
 20
73.89359696972718
 30
0.0
  0
VERTEX
  5
BFC
330
BF0
100
AcDbEntity
  8
Visible (ANSI)
100
AcDbVertex
100
AcDb2dVertex
 10
173.1003534749079
 20
73.89221551930437
 30
0.0
  0
VERTEX
  5
BFD
330
BF0
100
AcDbEntity
  8
Visible (ANSI)
100
AcDbVertex
100
AcDb2dVertex
 10
173.1016231015484
 20
73.89087673772253
 30
0.0
  0
VERTEX
  5
BFE
330
BF0
100
AcDbEntity
  8
Visible (ANSI)
100
AcDbVertex
100
AcDb2dVertex
 10
173.1029006668101
 20
73.8895828897645
 30
0.0
  0
VERTEX
  5
BFF
330
BF0
100
AcDbEntity
  8
Visible (ANSI)
100
AcDbVertex
100
AcDb2dVertex
 10
173.1041855683938
 20
73.8883285702964
 30
0.0
  0
VERTEX
  5
C00
330
BF0
100
AcDbEntity
  8
Visible (ANSI)
100
AcDbVertex
100
AcDb2dVertex
 10
173.1054697576993
 20
73.88712262452968
 30
0.0
  0
VERTEX
  5
C01
330
BF0
100
AcDbEntity
  8
Visible (ANSI)
100
AcDbVertex
100
AcDb2dVertex
 10
173.1067494280672
 20
73.8859611655684
 30
0.0
  0
VERTEX
  5
C02
330
BF0
100
AcDbEntity
  8
Visible (ANSI)
100
AcDbVertex
100
AcDb2dVertex
 10
173.10802210221
 20
73.88484276683756
 30
0.0
  0
VERTEX
  5
C03
330
BF0
100
AcDbEntity
  8
Visible (ANSI)
100
AcDbVertex
100
AcDb2dVertex
 10
173.1092808017272
 20
73.8837684550031
 30
0.0
  0
VERTEX
  5
C04
330
BF0
100
AcDbEntity
  8
Visible (ANSI)
100
AcDbVertex
100
AcDb2dVertex
 10
173.1105213570468
 20
73.88273751072141
 30
0.0
  0
VERTEX
  5
C05
330
BF0
100
AcDbEntity
  8
Visible (ANSI)
100
AcDbVertex
100
AcDb2dVertex
 10
173.111740955419
 20
73.88174831423754
 30
0.0
  0
VERTEX
  5
C06
330
BF0
100
AcDbEntity
  8
Visible (ANSI)
100
AcDbVertex
100
AcDb2dVertex
 10
173.1129337731325
 20
73.8808008754055
 30
0.0
  0
VERTEX
  5
C07
330
BF0
100
AcDbEntity
  8
Visible (ANSI)
100
AcDbVertex
100
AcDb2dVertex
 10
173.1140953639747
 20
73.87989093903534
 30
0.0
  0
VERTEX
  5
C08
330
BF0
100
AcDbEntity
  8
Visible (ANSI)
100
AcDbVertex
100
AcDb2dVertex
 10
173.1152226706398
 20
73.87902349762097
 30
0.0
  0
VERTEX
  5
C09
330
BF0
100
AcDbEntity
  8
Visible (ANSI)
100
AcDbVertex
100
AcDb2dVertex
 10
173.1163111171509
 20
73.87819422124611
 30
0.0
  0
VERTEX
  5
C0A
330
BF0
100
AcDbEntity
  8
Visible (ANSI)
100
AcDbVertex
100
AcDb2dVertex
 10
173.1173560740568
 20
73.87740212574022
 30
0.0
  0
SEQEND
  5
BF3
330
BF0
100
AcDbEntity
  8
Visible (ANSI)
  0
LINE
  5
C0B
330
6C
100
AcDbEntity
  8
Visible (ANSI)
100
AcDbLine
 10
173.0891635752537
 20
73.90784910521931
 30
0.0
 11
173.0866719333392
 21
73.90641426406824
 31
0.0
  0
LINE
  5
C0C
330
6C
100
AcDbEntity
  8
Visible (ANSI)
100
AcDbLine
 10
173.0866719333392
 20
73.90641426406824
 30
0.0
 11
173.0283965862455
 21
73.87285572356528
 31
0.0
  0
LINE
  5
C0D
330
6C
100
AcDbEntity
  8
Visible (ANSI)
100
AcDbLine
 10
173.180314058766
 20
73.84074033542659
 30
0.0
 11
173.5297242455632
 21
74.04195227993728
 31
0.0
  0
LINE
  5
C0E
330
6C
100
AcDbEntity
  8
Visible (ANSI)
100
AcDbLine
 10
173.468957256555
 20
74.07694566159129
 30
0.0
 11
173.5297242455632
 21
74.04195227993728
 31
0.0
  0
POLYLINE
  5
C0F
330
6C
100
AcDbEntity
  8
Visible (ANSI)
100
AcDb2dPolyline
 66
     1
 10
0.0
 20
0.0
 30
0.0
 70
   128
  0
VERTEX
  5
C10
330
C0F
100
AcDbEntity
  8
Visible (ANSI)
100
AcDbVertex
100
AcDb2dVertex
 10
151.7903339276415
 20
86.10304247776735
 30
0.0
  0
VERTEX
  5
C11
330
C0F
100
AcDbEntity
  8
Visible (ANSI)
100
AcDbVertex
100
AcDb2dVertex
 10
151.7916539365505
 20
86.10821313435371
 30
0.0
  0
VERTEX
  5
C13
330
C0F
100
AcDbEntity
  8
Visible (ANSI)
100
AcDbVertex
100
AcDb2dVertex
 10
151.7932985161205
 20
86.11354706954504
 30
0.0
  0
VERTEX
  5
C14
330
C0F
100
AcDbEntity
  8
Visible (ANSI)
100
AcDbVertex
100
AcDb2dVertex
 10
151.7952655787136
 20
86.11901606226416
 30
0.0
  0
VERTEX
  5
C15
330
C0F
100
AcDbEntity
  8
Visible (ANSI)
100
AcDbVertex
100
AcDb2dVertex
 10
151.7975516620451
 20
86.12459785290683
 30
0.0
  0
VERTEX
  5
C16
330
C0F
100
AcDbEntity
  8
Visible (ANSI)
100
AcDbVertex
100
AcDb2dVertex
 10
151.8001519234792
 20
86.13026265360636
 30
0.0
  0
VERTEX
  5
C17
330
C0F
100
AcDbEntity
  8
Visible (ANSI)
100
AcDbVertex
100
AcDb2dVertex
 10
151.8030601970691
 20
86.13597988817426
 30
0.0
  0
VERTEX
  5
C18
330
C0F
100
AcDbEntity
  8
Visible (ANSI)
100
AcDbVertex
100
AcDb2dVertex
 10
151.8062689707404
 20
86.14173173767493
 30
0.0
  0
VERTEX
  5
C19
330
C0F
100
AcDbEntity
  8
Visible (ANSI)
100
AcDbVertex
100
AcDb2dVertex
 10
151.8097694661467
 20
86.14748275156884
 30
0.0
  0
VERTEX
  5
C1A
330
C0F
100
AcDbEntity
  8
Visible (ANSI)
100
AcDbVertex
100
AcDb2dVertex
 10
151.8135516614852
 20
86.15320689287644
 30
0.0
  0
VERTEX
  5
C1B
330
C0F
100
AcDbEntity
  8
Visible (ANSI)
100
AcDbVertex
100
AcDb2dVertex
 10
151.8176042972002
 20
86.15888080809153
 30
0.0
  0
VERTEX
  5
C1C
330
C0F
100
AcDbEntity
  8
Visible (ANSI)
100
AcDbVertex
100
AcDb2dVertex
 10
151.8219149900625
 20
86.16447034073081
 30
0.0
  0
VERTEX
  5
C1D
330
C0F
100
AcDbEntity
  8
Visible (ANSI)
100
AcDbVertex
100
AcDb2dVertex
 10
151.8264702274646
 20
86.16995759292105
 30
0.0
  0
VERTEX
  5
C1E
330
C0F
100
AcDbEntity
  8
Visible (ANSI)
100
AcDbVertex
100
AcDb2dVertex
 10
151.8312554672401
 20
86.17530716492984
 30
0.0
  0
VERTEX
  5
C1F
330
C0F
100
AcDbEntity
  8
Visible (ANSI)
100
AcDbVertex
100
AcDb2dVertex
 10
151.8362551661829
 20
86.1804999895399
 30
0.0
  0
VERTEX
  5
C20
330
C0F
100
AcDbEntity
  8
Visible (ANSI)
100
AcDbVertex
100
AcDb2dVertex
 10
151.8414528770143
 20
86.18550632958628
 30
0.0
  0
VERTEX
  5
C21
330
C0F
100
AcDbEntity
  8
Visible (ANSI)
100
AcDbVertex
100
AcDb2dVertex
 10
151.8468312997182
 20
86.19030608646404
 30
0.0
  0
VERTEX
  5
C22
330
C0F
100
AcDbEntity
  8
Visible (ANSI)
100
AcDbVertex
100
AcDb2dVertex
 10
151.8523723499884
 20
86.19487197655436
 30
0.0
  0
VERTEX
  5
C23
330
C0F
100
AcDbEntity
  8
Visible (ANSI)
100
AcDbVertex
100
AcDb2dVertex
 10
151.858057263325
 20
86.1991864344519
 30
0.0
  0
VERTEX
  5
C24
330
C0F
100
AcDbEntity
  8
Visible (ANSI)
100
AcDbVertex
100
AcDb2dVertex
 10
151.8638666506481
 20
86.20322141202988
 30
0.0
  0
VERTEX
  5
C25
330
C0F
100
AcDbEntity
  8
Visible (ANSI)
100
AcDbVertex
100
AcDb2dVertex
 10
151.8697806023941
 20
86.20696205445495
 30
0.0
  0
VERTEX
  5
C26
330
C0F
100
AcDbEntity
  8
Visible (ANSI)
100
AcDbVertex
100
AcDb2dVertex
 10
151.8757787285326
 20
86.21038989308761
 30
0.0
  0
VERTEX
  5
C27
330
C0F
100
AcDbEntity
  8
Visible (ANSI)
100
AcDbVertex
100
AcDb2dVertex
 10
151.8818403110574
 20
86.21348285446394
 30
0.0
  0
VERTEX
  5
C28
330
C0F
100
AcDbEntity
  8
Visible (ANSI)
100
AcDbVertex
100
AcDb2dVertex
 10
151.8879443494395
 20
86.21622884518361
 30
0.0
  0
VERTEX
  5
C29
330
C0F
100
AcDbEntity
  8
Visible (ANSI)
100
AcDbVertex
100
AcDb2dVertex
 10
151.8940696609805
 20
86.21861229040232
 30
0.0
  0
SEQEND
  5
C12
330
C0F
100
AcDbEntity
  8
Visible (ANSI)
  0
POLYLINE
  5
C2A
330
6C
100
AcDbEntity
  8
Visible (ANSI)
100
AcDb2dPolyline
 66
     1
 10
0.0
 20
0.0
 30
0.0
 70
   128
  0
VERTEX
  5
C2B
330
C2A
100
AcDbEntity
  8
Visible (ANSI)
100
AcDbVertex
100
AcDb2dVertex
 10
173.0765785287151
 20
74.02041670269595
 30
0.0
  0
VERTEX
  5
C2C
330
C2A
100
AcDbEntity
  8
Visible (ANSI)
100
AcDbVertex
100
AcDb2dVertex
 10
173.0727670729348
 20
74.016700796563
 30
0.0
  0
VERTEX
  5
C2E
330
C2A
100
AcDbEntity
  8
Visible (ANSI)
100
AcDbVertex
100
AcDb2dVertex
 10
173.0689783505193
 20
74.01262150405251
 30
0.0
  0
VERTEX
  5
C2F
330
C2A
100
AcDbEntity
  8
Visible (ANSI)
100
AcDbVertex
100
AcDb2dVertex
 10
173.0652320839611
 20
74.00819524088536
 30
0.0
  0
VERTEX
  5
C30
330
C2A
100
AcDbEntity
  8
Visible (ANSI)
100
AcDbVertex
100
AcDb2dVertex
 10
173.0615478135833
 20
74.00343494133847
 30
0.0
  0
VERTEX
  5
C31
330
C2A
100
AcDbEntity
  8
Visible (ANSI)
100
AcDbVertex
100
AcDb2dVertex
 10
173.0579491892117
 20
73.99836099055325
 30
0.0
  0
VERTEX
  5
C32
330
C2A
100
AcDbEntity
  8
Visible (ANSI)
100
AcDbVertex
100
AcDb2dVertex
 10
173.0544551178552
 20
73.99299271118443
 30
0.0
  0
VERTEX
  5
C33
330
C2A
100
AcDbEntity
  8
Visible (ANSI)
100
AcDbVertex
100
AcDb2dVertex
 10
173.0510840602794
 20
73.98734579237267
 30
0.0
  0
VERTEX
  5
C34
330
C2A
100
AcDbEntity
  8
Visible (ANSI)
100
AcDbVertex
100
AcDb2dVertex
 10
173.0478583259758
 20
73.98144660049151
 30
0.0
  0
VERTEX
  5
C35
330
C2A
100
AcDbEntity
  8
Visible (ANSI)
100
AcDbVertex
100
AcDb2dVertex
 10
173.0447937647365
 20
73.97531437941484
 30
0.0
  0
VERTEX
  5
C36
330
C2A
100
AcDbEntity
  8
Visible (ANSI)
100
AcDbVertex
100
AcDb2dVertex
 10
173.0419113698717
 20
73.96897473757765
 30
0.0
  0
VERTEX
  5
C37
330
C2A
100
AcDbEntity
  8
Visible (ANSI)
100
AcDbVertex
100
AcDb2dVertex
 10
173.0392269868954
 20
73.96244861117676
 30
0.0
  0
VERTEX
  5
C38
330
C2A
100
AcDbEntity
  8
Visible (ANSI)
100
AcDbVertex
100
AcDb2dVertex
 10
173.0367556085847
 20
73.95576657496907
 30
0.0
  0
VERTEX
  5
C39
330
C2A
100
AcDbEntity
  8
Visible (ANSI)
100
AcDbVertex
100
AcDb2dVertex
 10
173.0345156871491
 20
73.948946020988
 30
0.0
  0
VERTEX
  5
C3A
330
C2A
100
AcDbEntity
  8
Visible (ANSI)
100
AcDbVertex
100
AcDb2dVertex
 10
173.0325188557516
 20
73.94202402414982
 30
0.0
  0
VERTEX
  5
C3B
330
C2A
100
AcDbEntity
  8
Visible (ANSI)
100
AcDbVertex
100
AcDb2dVertex
 10
173.0307815360031
 20
73.93501680714392
 30
0.0
  0
VERTEX
  5
C3C
330
C2A
100
AcDbEntity
  8
Visible (ANSI)
100
AcDbVertex
100
AcDb2dVertex
 10
173.0293146623351
 20
73.92795936076082
 30
0.0
  0
VERTEX
  5
C3D
330
C2A
100
AcDbEntity
  8
Visible (ANSI)
100
AcDbVertex
100
AcDb2dVertex
 10
173.0281280226895
 20
73.92087588595266
 30
0.0
  0
VERTEX
  5
C3E
330
C2A
100
AcDbEntity
  8
Visible (ANSI)
100
AcDbVertex
100
AcDb2dVertex
 10
173.0272345649848
 20
73.91379073466118
 30
0.0
  0
VERTEX
  5
C3F
330
C2A
100
AcDbEntity
  8
Visible (ANSI)
100
AcDbVertex
100
AcDb2dVertex
 10
173.0266401528596
 20
73.90674103589436
 30
0.0
  0
VERTEX
  5
C40
330
C2A
100
AcDbEntity
  8
Visible (ANSI)
100
AcDbVertex
100
AcDb2dVertex
 10
173.026355207392
 20
73.89974293340403
 30
0.0
  0
VERTEX
  5
C41
330
C2A
100
AcDbEntity
  8
Visible (ANSI)
100
AcDbVertex
100
AcDb2dVertex
 10
173.0263844457311
 20
73.89282783768587
 30
0.0
  0
VERTEX
  5
C42
330
C2A
100
AcDbEntity
  8
Visible (ANSI)
100
AcDbVertex
100
AcDb2dVertex
 10
173.0267312388988
 20
73.88602638405249
 30
0.0
  0
VERTEX
  5
C43
330
C2A
100
AcDbEntity
  8
Visible (ANSI)
100
AcDbVertex
100
AcDb2dVertex
 10
173.0274019752954
 20
73.87935914707036
 30
0.0
  0
VERTEX
  5
C44
330
C2A
100
AcDbEntity
  8
Visible (ANSI)
100
AcDbVertex
100
AcDb2dVertex
 10
173.0283972880569
 20
73.87285518540849
 30
0.0
  0
SEQEND
  5
C2D
330
C2A
100
AcDbEntity
  8
Visible (ANSI)
  0
LINE
  5
C45
330
6C
100
AcDbEntity
  8
Visible (ANSI)
100
AcDbLine
 10
173.0766648664082
 20
73.95020749059515
 30
0.0
 11
173.425988506555
 21
74.15136959620449
 31
0.0
  0
LINE
  5
C46
330
6C
100
AcDbEntity
  8
Visible (ANSI)
100
AcDbLine
 10
173.425988506555
 20
74.22162755224565
 30
0.0
 11
173.0765783197577
 21
74.02041560773497
 31
0.0
  0
LINE
  5
C47
330
6C
100
AcDbEntity
  8
Visible (ANSI)
100
AcDbLine
 10
173.0765783197577
 20
73.9530384537699
 30
0.0
 11
173.0765783197577
 21
74.02041560773497
 31
0.0
  0
LINE
  5
C48
330
6C
100
AcDbEntity
  8
Visible (ANSI)
100
AcDbLine
 10
173.425988506555
 20
74.15136959620449
 30
0.0
 11
173.425988506555
 21
74.22162755224565
 31
0.0
  0
POLYLINE
  5
C49
330
6C
100
AcDbEntity
  8
Visible (ANSI)
100
AcDb2dPolyline
 66
     1
 10
0.0
 20
0.0
 30
0.0
 70
   128
  0
VERTEX
  5
C4A
330
C49
100
AcDbEntity
  8
Visible (ANSI)
100
AcDbVertex
100
AcDb2dVertex
 10
173.0891642761524
 20
73.90784856653699
 30
0.0
  0
VERTEX
  5
C4B
330
C49
100
AcDbEntity
  8
Visible (ANSI)
100
AcDbVertex
100
AcDb2dVertex
 10
173.0881314209643
 20
73.90952484141138
 30
0.0
  0
VERTEX
  5
C4D
330
C49
100
AcDbEntity
  8
Visible (ANSI)
100
AcDbVertex
100
AcDb2dVertex
 10
173.0871529763941
 20
73.91123244927682
 30
0.0
  0
VERTEX
  5
C4E
330
C49
100
AcDbEntity
  8
Visible (ANSI)
100
AcDbVertex
100
AcDb2dVertex
 10
173.0862301096446
 20
73.91296025090857
 30
0.0
  0
VERTEX
  5
C4F
330
C49
100
AcDbEntity
  8
Visible (ANSI)
100
AcDbVertex
100
AcDb2dVertex
 10
173.085359413089
 20
73.91470964749119
 30
0.0
  0
VERTEX
  5
C50
330
C49
100
AcDbEntity
  8
Visible (ANSI)
100
AcDbVertex
100
AcDb2dVertex
 10
173.0845431275357
 20
73.91647181283492
 30
0.0
  0
VERTEX
  5
C51
330
C49
100
AcDbEntity
  8
Visible (ANSI)
100
AcDbVertex
100
AcDb2dVertex
 10
173.0837774629692
 20
73.91824792792117
 30
0.0
  0
VERTEX
  5
C52
330
C49
100
AcDbEntity
  8
Visible (ANSI)
100
AcDbVertex
100
AcDb2dVertex
 10
173.083064283371
 20
73.92002894956005
 30
0.0
  0
VERTEX
  5
C53
330
C49
100
AcDbEntity
  8
Visible (ANSI)
100
AcDbVertex
100
AcDb2dVertex
 10
173.0823994287054
 20
73.92181584565259
 30
0.0
  0
VERTEX
  5
C54
330
C49
100
AcDbEntity
  8
Visible (ANSI)
100
AcDbVertex
100
AcDb2dVertex
 10
173.0817844011556
 20
73.92359936466296
 30
0.0
  0
VERTEX
  5
C55
330
C49
100
AcDbEntity
  8
Visible (ANSI)
100
AcDbVertex
100
AcDb2dVertex
 10
173.0812146886464
 20
73.92537689522663
 30
0.0
  0
VERTEX
  5
C56
330
C49
100
AcDbEntity
  8
Visible (ANSI)
100
AcDbVertex
100
AcDb2dVertex
 10
173.0806914521057
 20
73.9271457423711
 30
0.0
  0
VERTEX
  5
C57
330
C49
100
AcDbEntity
  8
Visible (ANSI)
100
AcDbVertex
100
AcDb2dVertex
 10
173.080209849789
 20
73.92890310488801
 30
0.0
  0
VERTEX
  5
C58
330
C49
100
AcDbEntity
  8
Visible (ANSI)
100
AcDbVertex
100
AcDb2dVertex
 10
173.0797707267693
 20
73.9306393528367
 30
0.0
  0
VERTEX
  5
C59
330
C49
100
AcDbEntity
  8
Visible (ANSI)
100
AcDbVertex
100
AcDb2dVertex
 10
173.0793689395285
 20
73.93235488776865
 30
0.0
  0
VERTEX
  5
C5A
330
C49
100
AcDbEntity
  8
Visible (ANSI)
100
AcDbVertex
100
AcDb2dVertex
 10
173.0790050463387
 20
73.93404329112536
 30
0.0
  0
VERTEX
  5
C5B
330
C49
100
AcDbEntity
  8
Visible (ANSI)
100
AcDbVertex
100
AcDb2dVertex
 10
173.0786736345281
 20
73.9357048094627
 30
0.0
  0
VERTEX
  5
C5C
330
C49
100
AcDbEntity
  8
Visible (ANSI)
100
AcDbVertex
100
AcDb2dVertex
 10
173.0783750089002
 20
73.93732950171984
 30
0.0
  0
VERTEX
  5
C5D
330
C49
100
AcDbEntity
  8
Visible (ANSI)
100
AcDbVertex
100
AcDb2dVertex
 10
173.0781035232786
 20
73.93892085652595
 30
0.0
  0
VERTEX
  5
C5E
330
C49
100
AcDbEntity
  8
Visible (ANSI)
100
AcDbVertex
100
AcDb2dVertex
 10
173.0778592675001
 20
73.94046880902904
 30
0.0
  0
VERTEX
  5
C5F
330
C49
100
AcDbEntity
  8
Visible (ANSI)
100
AcDbVertex
100
AcDb2dVertex
 10
173.0776363993158
 20
73.94197335840795
 30
0.0
  0
VERTEX
  5
C60
330
C49
100
AcDbEntity
  8
Visible (ANSI)
100
AcDbVertex
100
AcDb2dVertex
 10
173.0774348353055
 20
73.94343109311799
 30
0.0
  0
VERTEX
  5
C61
330
C49
100
AcDbEntity
  8
Visible (ANSI)
100
AcDbVertex
100
AcDb2dVertex
 10
173.0772485799272
 20
73.94483854752277
 30
0.0
  0
VERTEX
  5
C62
330
C49
100
AcDbEntity
  8
Visible (ANSI)
100
AcDbVertex
100
AcDb2dVertex
 10
173.0770774171444
 20
73.94618885716927
 30
0.0
  0
VERTEX
  5
C63
330
C49
100
AcDbEntity
  8
Visible (ANSI)
100
AcDbVertex
100
AcDb2dVertex
 10
173.0769152444665
 20
73.94748862445233
 30
0.0
  0
SEQEND
  5
C4C
330
C49
100
AcDbEntity
  8
Visible (ANSI)
  0
LINE
  5
C64
330
6C
100
AcDbEntity
  8
Visible (ANSI)
100
AcDbLine
 10
151.8940696668779
 20
86.21861107171474
 30
0.0
 11
152.2434798536751
 21
86.4198230162254
 31
0.0
  0
POLYLINE
  5
C65
330
6C
100
AcDbEntity
  8
Visible (ANSI)
100
AcDb2dPolyline
 66
     1
 10
0.0
 20
0.0
 30
0.0
 70
   128
  0
VERTEX
  5
C66
330
C65
100
AcDbEntity
  8
Visible (ANSI)
100
AcDbVertex
100
AcDb2dVertex
 10
151.7903339276415
 20
54.80312319517508
 30
0.0
  0
VERTEX
  5
C67
330
C65
100
AcDbEntity
  8
Visible (ANSI)
100
AcDbVertex
100
AcDb2dVertex
 10
151.7878892979049
 20
54.80524687250742
 30
0.0
  0
VERTEX
  5
C69
330
C65
100
AcDbEntity
  8
Visible (ANSI)
100
AcDbVertex
100
AcDb2dVertex
 10
151.7855286185926
 20
54.80741583895234
 30
0.0
  0
VERTEX
  5
C6A
330
C65
100
AcDbEntity
  8
Visible (ANSI)
100
AcDbVertex
100
AcDb2dVertex
 10
151.7832544279528
 20
54.80962847511459
 30
0.0
  0
VERTEX
  5
C6B
330
C65
100
AcDbEntity
  8
Visible (ANSI)
100
AcDbVertex
100
AcDb2dVertex
 10
151.781069161563
 20
54.81188313539786
 30
0.0
  0
VERTEX
  5
C6C
330
C65
100
AcDbEntity
  8
Visible (ANSI)
100
AcDbVertex
100
AcDb2dVertex
 10
151.7789751466264
 20
54.81417811834096
 30
0.0
  0
VERTEX
  5
C6D
330
C65
100
AcDbEntity
  8
Visible (ANSI)
100
AcDbVertex
100
AcDb2dVertex
 10
151.7769746418987
 20
54.81651168963594
 30
0.0
  0
VERTEX
  5
C6E
330
C65
100
AcDbEntity
  8
Visible (ANSI)
100
AcDbVertex
100
AcDb2dVertex
 10
151.7750697749453
 20
54.81888206573017
 30
0.0
  0
VERTEX
  5
C6F
330
C65
100
AcDbEntity
  8
Visible (ANSI)
100
AcDbVertex
100
AcDb2dVertex
 10
151.7732625934768
 20
54.82128741700925
 30
0.0
  0
VERTEX
  5
C70
330
C65
100
AcDbEntity
  8
Visible (ANSI)
100
AcDbVertex
100
AcDb2dVertex
 10
151.7715550311248
 20
54.82372588765777
 30
0.0
  0
VERTEX
  5
C71
330
C65
100
AcDbEntity
  8
Visible (ANSI)
100
AcDbVertex
100
AcDb2dVertex
 10
151.7699489131468
 20
54.82619558570339
 30
0.0
  0
VERTEX
  5
C72
330
C65
100
AcDbEntity
  8
Visible (ANSI)
100
AcDbVertex
100
AcDb2dVertex
 10
151.7684459621291
 20
54.82869457975772
 30
0.0
  0
VERTEX
  5
C73
330
C65
100
AcDbEntity
  8
Visible (ANSI)
100
AcDbVertex
100
AcDb2dVertex
 10
151.7670477951356
 20
54.83122092039211
 30
0.0
  0
VERTEX
  5
C74
330
C65
100
AcDbEntity
  8
Visible (ANSI)
100
AcDbVertex
100
AcDb2dVertex
 10
151.7657558951878
 20
54.83377260390443
 30
0.0
  0
VERTEX
  5
C75
330
C65
100
AcDbEntity
  8
Visible (ANSI)
100
AcDbVertex
100
AcDb2dVertex
 10
151.7645716540443
 20
54.83634762009954
 30
0.0
  0
VERTEX
  5
C76
330
C65
100
AcDbEntity
  8
Visible (ANSI)
100
AcDbVertex
100
AcDb2dVertex
 10
151.7634963379773
 20
54.83894392591015
 30
0.0
  0
VERTEX
  5
C77
330
C65
100
AcDbEntity
  8
Visible (ANSI)
100
AcDbVertex
100
AcDb2dVertex
 10
151.7625310991805
 20
54.84155946513019
 30
0.0
  0
VERTEX
  5
C78
330
C65
100
AcDbEntity
  8
Visible (ANSI)
100
AcDbVertex
100
AcDb2dVertex
 10
151.7616769757688
 20
54.84419215530176
 30
0.0
  0
VERTEX
  5
C79
330
C65
100
AcDbEntity
  8
Visible (ANSI)
100
AcDbVertex
100
AcDb2dVertex
 10
151.760934871815
 20
54.84683987940144
 30
0.0
  0
VERTEX
  5
C7A
330
C65
100
AcDbEntity
  8
Visible (ANSI)
100
AcDbVertex
100
AcDb2dVertex
 10
151.7603055858691
 20
54.84950052540922
 30
0.0
  0
VERTEX
  5
C7B
330
C65
100
AcDbEntity
  8
Visible (ANSI)
100
AcDbVertex
100
AcDb2dVertex
 10
151.7597897995506
 20
54.85217196321389
 30
0.0
  0
VERTEX
  5
C7C
330
C65
100
AcDbEntity
  8
Visible (ANSI)
100
AcDbVertex
100
AcDb2dVertex
 10
151.7593880547328
 20
54.85485204792327
 30
0.0
  0
VERTEX
  5
C7D
330
C65
100
AcDbEntity
  8
Visible (ANSI)
100
AcDbVertex
100
AcDb2dVertex
 10
151.7591007877662
 20
54.85753862974355
 30
0.0
  0
VERTEX
  5
C7E
330
C65
100
AcDbEntity
  8
Visible (ANSI)
100
AcDbVertex
100
AcDb2dVertex
 10
151.7589283038109
 20
54.86022953909658
 30
0.0
  0
VERTEX
  5
C7F
330
C65
100
AcDbEntity
  8
Visible (ANSI)
100
AcDbVertex
100
AcDb2dVertex
 10
151.7588707896708
 20
54.86292261551337
 30
0.0
  0
SEQEND
  5
C68
330
C65
100
AcDbEntity
  8
Visible (ANSI)
  0
POLYLINE
  5
C80
330
6C
100
AcDbEntity
  8
Visible (ANSI)
100
AcDb2dPolyline
 66
     1
 10
0.0
 20
0.0
 30
0.0
 70
   128
  0
VERTEX
  5
C81
330
C80
100
AcDbEntity
  8
Visible (ANSI)
100
AcDbVertex
100
AcDb2dVertex
 10
151.7903339276415
 20
86.15841166220748
 30
0.0
  0
VERTEX
  5
C82
330
C80
100
AcDbEntity
  8
Visible (ANSI)
100
AcDbVertex
100
AcDb2dVertex
 10
151.7855286223692
 20
86.15679427184442
 30
0.0
  0
VERTEX
  5
C84
330
C80
100
AcDbEntity
  8
Visible (ANSI)
100
AcDbVertex
100
AcDb2dVertex
 10
151.7810691608055
 20
86.15500222413009
 30
0.0
  0
VERTEX
  5
C85
330
C80
100
AcDbEntity
  8
Visible (ANSI)
100
AcDbVertex
100
AcDb2dVertex
 10
151.7769746394032
 20
86.15305229529758
 30
0.0
  0
VERTEX
  5
C86
330
C80
100
AcDbEntity
  8
Visible (ANSI)
100
AcDbVertex
100
AcDb2dVertex
 10
151.7732625913378
 20
86.15095182238418
 30
0.0
  0
VERTEX
  5
C87
330
C80
100
AcDbEntity
  8
Visible (ANSI)
100
AcDbVertex
100
AcDb2dVertex
 10
151.7699489127903
 20
86.14871890247897
 30
0.0
  0
VERTEX
  5
C88
330
C80
100
AcDbEntity
  8
Visible (ANSI)
100
AcDbVertex
100
AcDb2dVertex
 10
151.7670477926401
 20
86.14637219868715
 30
0.0
  0
VERTEX
  5
C89
330
C80
100
AcDbEntity
  8
Visible (ANSI)
100
AcDbVertex
100
AcDb2dVertex
 10
151.7645716540443
 20
86.14392074735807
 30
0.0
  0
VERTEX
  5
C8A
330
C80
100
AcDbEntity
  8
Visible (ANSI)
100
AcDbVertex
100
AcDb2dVertex
 10
151.7625311013194
 20
86.14138414926872
 30
0.0
  0
VERTEX
  5
C8B
330
C80
100
AcDbEntity
  8
Visible (ANSI)
100
AcDbVertex
100
AcDb2dVertex
 10
151.760934871815
 20
86.13877899099708
 30
0.0
  0
VERTEX
  5
C8C
330
C80
100
AcDbEntity
  8
Visible (ANSI)
100
AcDbVertex
100
AcDb2dVertex
 10
151.7597897966986
 20
86.13612553025498
 30
0.0
  0
VERTEX
  5
C8D
330
C80
100
AcDbEntity
  8
Visible (ANSI)
100
AcDbVertex
100
AcDb2dVertex
 10
151.7591007863402
 20
86.133434117672
 30
0.0
  0
VERTEX
  5
C8E
330
C80
100
AcDbEntity
  8
Visible (ANSI)
100
AcDbVertex
100
AcDb2dVertex
 10
151.7588707896708
 20
86.13072538089642
 30
0.0
  0
VERTEX
  5
C8F
330
C80
100
AcDbEntity
  8
Visible (ANSI)
100
AcDbVertex
100
AcDb2dVertex
 10
151.7591007877662
 20
86.12802001983929
 30
0.0
  0
VERTEX
  5
C90
330
C80
100
AcDbEntity
  8
Visible (ANSI)
100
AcDbVertex
100
AcDb2dVertex
 10
151.7597897995506
 20
86.1253286080775
 30
0.0
  0
VERTEX
  5
C91
330
C80
100
AcDbEntity
  8
Visible (ANSI)
100
AcDbVertex
100
AcDb2dVertex
 10
151.760934871815
 20
86.12267177243809
 30
0.0
  0
VERTEX
  5
C92
330
C80
100
AcDbEntity
  8
Visible (ANSI)
100
AcDbVertex
100
AcDb2dVertex
 10
151.7625310991805
 20
86.12006998947434
 30
0.0
  0
VERTEX
  5
C93
330
C80
100
AcDbEntity
  8
Visible (ANSI)
100
AcDbVertex
100
AcDb2dVertex
 10
151.7645716540443
 20
86.11753339261673
 30
0.0
  0
VERTEX
  5
C94
330
C80
100
AcDbEntity
  8
Visible (ANSI)
100
AcDbVertex
100
AcDb2dVertex
 10
151.7670477951356
 20
86.11508194108237
 30
0.0
  0
VERTEX
  5
C95
330
C80
100
AcDbEntity
  8
Visible (ANSI)
100
AcDbVertex
100
AcDb2dVertex
 10
151.7699489131468
 20
86.11273523770114
 30
0.0
  0
VERTEX
  5
C96
330
C80
100
AcDbEntity
  8
Visible (ANSI)
100
AcDbVertex
100
AcDb2dVertex
 10
151.7732625934768
 20
86.11050231718007
 30
0.0
  0
VERTEX
  5
C97
330
C80
100
AcDbEntity
  8
Visible (ANSI)
100
AcDbVertex
100
AcDb2dVertex
 10
151.7769746418987
 20
86.10840184457458
 30
0.0
  0
VERTEX
  5
C98
330
C80
100
AcDbEntity
  8
Visible (ANSI)
100
AcDbVertex
100
AcDb2dVertex
 10
151.781069161563
 20
86.10644853850958
 30
0.0
  0
VERTEX
  5
C99
330
C80
100
AcDbEntity
  8
Visible (ANSI)
100
AcDbVertex
100
AcDb2dVertex
 10
151.7855286185926
 20
86.10465986677674
 30
0.0
  0
VERTEX
  5
C9A
330
C80
100
AcDbEntity
  8
Visible (ANSI)
100
AcDbVertex
100
AcDb2dVertex
 10
151.7903339276415
 20
86.10304247776735
 30
0.0
  0
SEQEND
  5
C83
330
C80
100
AcDbEntity
  8
Visible (ANSI)
  0
LINE
  5
C9B
330
6C
100
AcDbEntity
  8
Visible (ANSI)
100
AcDbLine
 10
152.0850489083028
 20
55.02245034421537
 30
0.0
 11
152.2005111036751
 21
55.08894060044202
 31
0.0
  0
LINE
  5
C9C
330
6C
100
AcDbEntity
  8
Visible (ANSI)
100
AcDbLine
 10
151.8492222340317
 20
86.19232219779741
 30
0.0
 11
151.7903339278697
 21
86.1584106776428
 31
0.0
  0
LINE
  5
C9D
330
6C
100
AcDbEntity
  8
Visible (ANSI)
100
AcDbLine
 10
151.8096470605291
 20
86.14728898421821
 30
0.0
 11
151.7903339278697
 21
86.1584106776428
 31
0.0
  0
LINE
  5
C9E
330
6C
100
AcDbEntity
  8
Visible (ANSI)
100
AcDbLine
 10
173.1173560740568
 20
73.87740212574022
 30
0.0
 11
173.1221077447852
 21
73.87426010683693
 31
0.0
  0
LINE
  5
C9F
330
6C
100
AcDbEntity
  8
Visible (ANSI)
100
AcDbLine
 10
173.0765785287151
 20
73.95303785446293
 30
0.0
 11
173.0769152444665
 21
73.94748862445233
 31
0.0
  0
LINE
  5
CA0
330
6C
100
AcDbEntity
  8
Visible Narrow (ANSI)
100
AcDbLine
 10
151.7903339278697
 20
54.80312319531154
 30
0.0
 11
173.0283965862455
 21
42.57293630723039
 31
0.0
  0
LINE
  5
CA1
330
6C
100
AcDbEntity
  8
Visible Narrow (ANSI)
100
AcDbLine
 10
173.180314058766
 20
73.84074033542659
 30
0.0
 11
173.180314058766
 21
42.60505169536913
 31
0.0
  0
LINE
  5
CA2
330
6C
100
AcDbEntity
  8
Visible Narrow (ANSI)
100
AcDbLine
 10
173.0283965862455
 20
42.57293630723039
 30
0.0
 11
173.0283965862455
 21
73.87285572356528
 31
0.0
  0
LINE
  5
CA3
330
6C
100
AcDbEntity
  8
Visible Narrow (ANSI)
100
AcDbLine
 10
151.8940696668779
 20
86.21861107171474
 30
0.0
 11
173.0765783197577
 21
74.02041560773497
 31
0.0
  0
LINE
  5
CA4
330
6C
100
AcDbEntity
  8
Visible Narrow (ANSI)
100
AcDbLine
 10
173.0283965862455
 20
73.87285572356528
 30
0.0
 11
151.7903339278697
 21
86.10304261164644
 31
0.0
  0
LINE
  5
CA5
330
6C
100
AcDbEntity
  8
Visible Narrow (ANSI)
100
AcDbLine
 10
151.7903339278697
 20
86.10304261164644
 30
0.0
 11
151.7903339278697
 21
54.80312319531154
 31
0.0
  0
LINE
  5
CA6
330
6C
100
AcDbEntity
  8
Visible (ANSI)
100
AcDbLine
 10
151.8266083841688
 20
54.74575735748544
 30
0.0
 11
173.0368256507594
 21
42.53160556408225
 31
0.0
  0
LINE
  5
CA7
330
6C
100
AcDbEntity
  8
Visible (ANSI)
100
AcDbLine
 10
151.75887078913
 20
86.13072664464462
 30
0.0
 11
151.75887078913
 21
54.86292261644845
 31
0.0
  0
LINE
  5
CA8
330
6C
100
AcDbEntity
  8
Visible (ANSI)
100
AcDbLine
 10
172.8024019451653
 20
43.17542081980238
 30
0.0
 11
172.6029133660402
 21
43.29029865230446
 31
0.0
  0
LINE
  5
CA9
330
6C
100
AcDbEntity
  8
Visible (ANSI)
100
AcDbLine
 10
162.5327808027748
 20
49.08930231933233
 30
0.0
 11
162.3332922236496
 21
49.2041801518344
 31
0.0
  0
LINE
  5
CAA
330
6C
100
AcDbEntity
  8
Visible (ANSI)
100
AcDbLine
 10
152.2631596603842
 20
55.00318381886226
 30
0.0
 11
152.2434798536751
 21
55.01451666582879
 31
0.0
  0
LINE
  5
CAB
330
6C
100
AcDbEntity
  8
Visible (ANSI)
100
AcDbLine
 10
173.5297242455632
 20
74.04195227993728
 30
0.0
 11
173.5297242455632
 21
42.80626363987983
 31
0.0
  0
LINE
  5
CAC
330
6C
100
AcDbEntity
  8
Visible (ANSI)
100
AcDbLine
 10
152.2434798536751
 20
86.4198230162254
 30
0.0
 11
173.425988506555
 21
74.22162755224565
 31
0.0
  0
LINE
  5
CAD
330
6C
100
AcDbEntity
  8
Visible (ANSI)
100
AcDbLine
 10
152.2005111036751
 20
55.08894060044202
 30
0.0
 11
152.2005111036751
 21
55.11266739654481
 31
0.0
  0
LINE
  5
CAE
330
6C
100
AcDbEntity
  8
Visible (ANSI)
100
AcDbLine
 10
152.2005111036751
 20
64.50800694032533
 30
0.0
 11
152.2005111036751
 21
64.73800737418315
 31
0.0
  0
LINE
  5
CAF
330
6C
100
AcDbEntity
  8
Visible (ANSI)
100
AcDbLine
 10
152.2005111036751
 20
70.12864342361779
 30
0.0
 11
152.2005111036751
 21
70.35864385747562
 31
0.0
  0
LINE
  5
CB0
330
6C
100
AcDbEntity
  8
Visible (ANSI)
100
AcDbLine
 10
152.2005111036751
 20
85.37461988454857
 30
0.0
 11
152.2005111036751
 21
85.60462031840641
 31
0.0
  0
DIMENSION
  5
CB1
330
6C
100
AcDbEntity
  8
Dimension (ANSI)
100
AcDbDimension
280
     0
  2
*D13
 10
83.26140064163077
 20
59.99348875621612
 30
0.0
 11
91.44499949533326
 21
68.31055657246982
 31
0.0
 70
   163
  1
<>{\P(10PL.)}
 42
0.5629999999999714
 73
     0
 74
     0
 75
     0
  3
Default (ANSI)
100
AcDbDiametricDimension
 15
83.48201165623072
 25
60.51146537753904
 35
0.0
 40
0.0
1001
ACAD_DSTYLE_DIMRADIAL_EXTENSION
1070
   387
1070
     1
1070
   388
1040
0.0
1070
   390
1040
0.0
1001
ACAD
1000
DSTYLE
1002
{
1070
   145
1040
-0.25
1070
   144
1040
1.000000000000071
1070
   271
1070
     3
1070
   272
1070
     2
1070
    48
1040
0.0
1070
    47
1040
0.0
1002
}
  0
DIMENSION
  5
D6C
330
6C
100
AcDbEntity
  8
Dimension (ANSI)
100
AcDbDimension
280
     0
  2
*D14
 10
88.41107622767093
 20
60.25247706687757
 30
0.0
 11
88.41107622767092
 21
55.25247706687757
 31
0.0
 70
   160
  1
<>
 42
9.999999999999992
 73
     0
 74
     0
 75
     0
  3
Default (ANSI)
100
AcDbAlignedDimension
 13
83.37170614893075
 23
50.25247706687758
 33
0.0
 14
83.37170614893075
 24
60.25247706687757
 34
0.0
 50
90.0
100
AcDbRotatedDimension
1001
ACAD
1000
DSTYLE
1002
{
1070
   289
1070
     1
1070
   271
1070
     2
1070
   272
1070
     3
1070
    48
1040
0.0
1070
    47
1040
0.0
1002
}
  0
MTEXT
  5
E56
102
{ACAD_REACTORS
330
E57
102
}
330
6C
100
AcDbEntity
  8
Symbol (ANSI)
100
AcDbMText
 10
119.4502046012059
 20
45.90621641572817
 30
0.0
 40
1.320000016313838
 41
5.398735896808894
 46
0.0
 71
     3
 72
     1
  1
{10 GA.\PC.R.S}
  7
Note Text (ANSI)
 73
     2
 44
0.9878841638565063
  0
LEADER
  5
E57
330
6C
100
AcDbEntity
  8
Symbol (ANSI)
100
AcDbLeader
  3
Default (ANSI)$7
 73
     0
 40
3.933345209096401
 41
5.030006745583289
 76
     3
 10
125.3333575491123
 20
40.5801356840651
 30
0.0
 10
121.0982821236691
 20
45.24468869373478
 30
0.0
 10
119.7966612941193
 20
45.24621640757125
 30
0.0
340
E56
210
0.0
220
0.0
230
-1.0
213
0.0
223
-0.6600000081569191
233
0.0
1001
ACAD
1000
DSTYLE
1002
{
1070
    77
1070
     0
1002
}
  0
LINE
  5
E58
330
6C
100
AcDbEntity
  8
Center Mark (ANSI)
  6
Continuous
100
AcDbLine
 10
42.77820614893078
 20
87.37747706687761
 30
0.0
 11
39.46520614893078
 21
87.37747706687761
 31
0.0
  0
LINE
  5
E59
330
6C
100
AcDbEntity
  8
Center Mark (ANSI)
  6
Continuous
100
AcDbLine
 10
41.12170614893078
 20
89.0339770668776
 30
0.0
 11
41.12170614893078
 21
85.72097706687761
 31
0.0
  0
LINE
  5
E5A
330
6C
100
AcDbEntity
  8
Center Mark (ANSI)
  6
Continuous
100
AcDbLine
 10
39.46520614893078
 20
33.12747706687759
 30
0.0
 11
42.77820614893078
 21
33.12747706687759
 31
0.0
  0
LINE
  5
E5B
330
6C
100
AcDbEntity
  8
Center Mark (ANSI)
  6
Continuous
100
AcDbLine
 10
39.46520614893078
 20
87.37747706687761
 30
0.0
 11
42.77820614893078
 21
87.37747706687761
 31
0.0
  0
LINE
  5
E5C
330
6C
100
AcDbEntity
  8
Centerline (ANSI)
  6
Continuous
100
AcDbLine
 10
41.12170614893078
 20
31.47097706687759
 30
0.0
 11
41.12170614893078
 21
89.0339770668776
 31
0.0
  0
LINE
  5
E5D
330
6C
100
AcDbEntity
  8
Center Mark (ANSI)
  6
Continuous
100
AcDbLine
 10
63.90320614893078
 20
87.37747706687761
 30
0.0
 11
60.59020614893078
 21
87.37747706687761
 31
0.0
  0
LINE
  5
E5E
330
6C
100
AcDbEntity
  8
Center Mark (ANSI)
  6
Continuous
100
AcDbLine
 10
63.90320614893078
 20
33.12747706687757
 30
0.0
 11
60.59020614893078
 21
33.12747706687757
 31
0.0
  0
LINE
  5
E5F
330
6C
100
AcDbEntity
  8
Centerline (ANSI)
  6
Continuous
100
AcDbLine
 10
62.24670614893078
 20
89.0339770668776
 30
0.0
 11
62.24670614893078
 21
31.47097706687757
 31
0.0
  0
LINE
  5
E60
330
6C
100
AcDbEntity
  8
Center Mark (ANSI)
  6
Continuous
100
AcDbLine
 10
81.71520614893079
 20
33.12747706687757
 30
0.0
 11
85.02820614893076
 21
33.12747706687757
 31
0.0
  0
LINE
  5
E61
330
6C
100
AcDbEntity
  8
Center Mark (ANSI)
  6
Continuous
100
AcDbLine
 10
81.71520614893079
 20
87.37747706687761
 30
0.0
 11
85.02820614893076
 21
87.37747706687761
 31
0.0
  0
LINE
  5
E62
330
6C
100
AcDbEntity
  8
Centerline (ANSI)
  6
Continuous
100
AcDbLine
 10
83.37170614893079
 20
31.47097706687758
 30
0.0
 11
83.37170614893079
 21
89.0339770668776
 31
0.0
  0
LINE
  5
E63
330
6C
100
AcDbEntity
  8
Center Mark (ANSI)
  6
Continuous
100
AcDbLine
 10
41.12170614893078
 20
61.90897706687758
 30
0.0
 11
41.12170614893078
 21
58.59597706687758
 31
0.0
  0
LINE
  5
E64
330
6C
100
AcDbEntity
  8
Center Mark (ANSI)
  6
Continuous
100
AcDbLine
 10
83.37170614893075
 20
61.90897706687757
 30
0.0
 11
83.37170614893075
 21
58.59597706687758
 31
0.0
  0
LINE
  5
E65
330
6C
100
AcDbEntity
  8
Centerline (ANSI)
  6
Continuous
100
AcDbLine
 10
39.46520614893078
 20
60.25247706687758
 30
0.0
 11
85.02820614893074
 21
60.25247706687757
 31
0.0
  0
LINE
  5
E66
330
6C
100
AcDbEntity
  8
Center Mark (ANSI)
  6
Continuous
100
AcDbLine
 10
41.12170614893078
 20
51.90897706687759
 30
0.0
 11
41.12170614893078
 21
48.59597706687758
 31
0.0
  0
LINE
  5
E67
330
6C
100
AcDbEntity
  8
Center Mark (ANSI)
  6
Continuous
100
AcDbLine
 10
83.37170614893075
 20
51.90897706687758
 30
0.0
 11
83.37170614893075
 21
48.59597706687758
 31
0.0
  0
LINE
  5
E68
330
6C
100
AcDbEntity
  8
Centerline (ANSI)
  6
Continuous
100
AcDbLine
 10
39.46520614893078
 20
50.25247706687759
 30
0.0
 11
85.02820614893074
 21
50.25247706687758
 31
0.0
  0
LINE
  5
E69
330
6C
100
AcDbEntity
  8
Center Mark (ANSI)
  6
Continuous
100
AcDbLine
 10
41.12170614893078
 20
34.78397706687759
 30
0.0
 11
41.12170614893078
 21
31.47097706687759
 31
0.0
  0
LINE
  5
E6A
330
6C
100
AcDbEntity
  8
Center Mark (ANSI)
  6
Continuous
100
AcDbLine
 10
83.37170614893079
 20
34.78397706687758
 30
0.0
 11
83.37170614893079
 21
31.47097706687758
 31
0.0
  0
LINE
  5
E6B
330
6C
100
AcDbEntity
  8
Centerline (ANSI)
  6
Continuous
100
AcDbLine
 10
39.46520614893078
 20
33.12747706687759
 30
0.0
 11
85.02820614893076
 21
33.12747706687757
 31
0.0
  0
LINE
  5
E6C
330
6C
100
AcDbEntity
  8
Center Mark (ANSI)
  6
Continuous
100
AcDbLine
 10
41.12170614893078
 20
89.0339770668776
 30
0.0
 11
41.12170614893078
 21
85.72097706687761
 31
0.0
  0
LINE
  5
E6D
330
6C
100
AcDbEntity
  8
Center Mark (ANSI)
  6
Continuous
100
AcDbLine
 10
83.37170614893079
 20
89.0339770668776
 30
0.0
 11
83.37170614893079
 21
85.72097706687761
 31
0.0
  0
LINE
  5
E6E
330
6C
100
AcDbEntity
  8
Centerline (ANSI)
  6
Continuous
100
AcDbLine
 10
39.46520614893078
 20
87.37747706687761
 30
0.0
 11
85.02820614893076
 21
87.37747706687761
 31
0.0
  0
MTEXT
  5
E6F
102
{ACAD_XDICTIONARY
360
E76
102
}
330
6C
100
AcDbEntity
  8
Symbol (ANSI)
100
AcDbMText
 10
101.5844960250881
 20
11.21683617064084
 30
0.0
 40
1.100000035105727
 41
81.21725818303628
 46
0.0
 71
     4
 72
     1
  3
{\fRomanS|b0|i0|c0|p2;\H2x;PART#: NPDD6048\P(DATA SUBJECT TO CHANGE WITHOUT NOTICE)\H1.6157x; \H0.61894x;\P \H1.352x; \H0.73963x;\P\H0.6x;THIS DRAWING IS PROPERTY OF HUBBELL INC. WIEGMANN\H1.5633x; \H0.63966x;\PALL INFORMATION IS PROPRIETARY AND NOT 
  1
TO BE DUPLICATED\H1.234x; \H0.81039x;\P\H1.2571x; }
  7
Note Text (ANSI)
 73
     1
 44
0.8026435375213623
  0
ENDSEC
  0
SECTION
  2
OBJECTS
  0
DICTIONARY
  5
C
330
0
100
AcDbDictionary
281
     1
  3
ACAD_CIP_PREVIOUS_PRODUCT_INFO
350
E71
  3
ACAD_COLOR
350
63
  3
ACAD_GROUP
350
D
  3
ACAD_LAYOUT
350
62
  3
ACAD_MATERIAL
350
10
  3
ACAD_MLEADERSTYLE
350
66
  3
ACAD_MLINESTYLE
350
5F
  3
ACAD_PLOTSETTINGS
350
61
  3
ACAD_PLOTSTYLENAME
350
E
  3
ACAD_SCALELIST
350
42
  3
ACAD_TABLESTYLE
350
64
  3
ACAD_VISUALSTYLE
350
29
  3
ACDB_RECOMPOSE_DATA
350
E78
  3
AcDbVariableDictionary
350
76
  0
DICTIONARY
  5
E76
330
E6F
100
AcDbDictionary
280
     1
281
     1
  3
ACAD_MTEXT_2008_RT
360
E77
  0
XRECORD
  5
E71
102
{ACAD_REACTORS
330
C
102
}
330
C
100
AcDbXrecord
280
     1
300
INVNTOR
300
2012
300
PDSP_F_S
  0
DICTIONARY
  5
63
102
{ACAD_REACTORS
330
C
102
}
330
C
100
AcDbDictionary
281
     1
  0
DICTIONARY
  5
D
102
{ACAD_REACTORS
330
C
102
}
330
C
100
AcDbDictionary
281
     1
  0
DICTIONARY
  5
62
102
{ACAD_REACTORS
330
C
102
}
330
C
100
AcDbDictionary
281
     1
  3
Layout1
350
6B
  3
Layout2
350
73
  3
Model
350
6F
  0
DICTIONARY
  5
10
102
{ACAD_REACTORS
330
C
102
}
330
C
100
AcDbDictionary
281
     1
  3
ByBlock
350
19
  3
ByLayer
350
11
  3
Global
350
21
  0
DICTIONARY
  5
66
102
{ACAD_REACTORS
330
C
102
}
330
C
100
AcDbDictionary
281
     1
  3
Standard
350
67
  0
DICTIONARY
  5
5F
102
{ACAD_REACTORS
330
C
102
}
330
C
100
AcDbDictionary
281
     1
  3
Standard
350
60
  0
DICTIONARY
  5
61
102
{ACAD_REACTORS
330
C
102
}
330
C
100
AcDbDictionary
281
     1
  0
ACDBDICTIONARYWDFLT
  5
E
102
{ACAD_REACTORS
330
C
102
}
330
C
100
AcDbDictionary
281
     1
  3
Normal
350
F
100
AcDbDictionaryWithDefault
340
F
  0
DICTIONARY
  5
42
102
{ACAD_REACTORS
330
C
102
}
330
C
100
AcDbDictionary
281
     1
  3
A0
350
43
  3
A1
350
44
  3
A2
350
45
  3
A3
350
46
  3
A4
350
47
  3
A5
350
48
  3
A6
350
49
  3
A7
350
4A
  3
A8
350
4B
  3
A9
350
4C
  3
B0
350
4D
  3
B1
350
4E
  3
B2
350
4F
  3
B3
350
50
  3
B4
350
51
  3
B5
350
52
  3
B6
350
53
  0
DICTIONARY
  5
64
102
{ACAD_REACTORS
330
C
102
}
330
C
100
AcDbDictionary
281
     1
  3
Standard
350
65
  0
DICTIONARY
  5
29
102
{ACAD_REACTORS
330
C
102
}
330
C
100
AcDbDictionary
281
     1
  3
2dWireframe
350
2F
  3
Basic
350
2E
  3
Brighten
350
35
  3
ColorChange
350
39
  3
Conceptual
350
32
  3
Dim
350
34
  3
EdgeColorOff
350
41
  3
Facepattern
350
38
  3
Flat
350
2A
  3
FlatWithEdges
350
2B
  3
Gouraud
350
2C
  3
GouraudWithEdges
350
2D
  3
Hidden
350
31
  3
JitterOff
350
3F
  3
Linepattern
350
37
  3
OverhangOff
350
40
  3
Realistic
350
33
  3
Shaded
350
3E
  3
Shaded with edges
350
3D
  3
Shades of Gray
350
3A
  3
Sketchy
350
3B
  3
Thicken
350
36
  3
Wireframe
350
30
  3
X-Ray
350
3C
  0
XRECORD
  5
E78
102
{ACAD_REACTORS
330
C
102
}
330
C
100
AcDbXrecord
280
     1
 90
        1
330
65
330
E6F
  0
DICTIONARY
  5
76
102
{ACAD_REACTORS
330
C
102
}
330
C
100
AcDbDictionary
281
     1
  3
CANNOSCALE
350
79
  3
CMLEADERSTYLE
350
78
  3
CTABLESTYLE
350
77
  0
XRECORD
  5
E77
102
{ACAD_REACTORS
330
E76
102
}
330
E76
100
AcDbXrecord
280
     1
 40
3068637.0
  1
\pxsm0.94;{\fRomanS|b0|i0;\H2.2000;PART#: NPDD6048\P(DATA SUBJECT TO CHANGE WITHOUT NOTICE)\P \P\fRomanS|b0|i0;\H1.3200;THIS DRAWING IS PROPERTY OF HUBBELL INC. WIEGMANN\PALL INFORMATION IS PROPRIETARY AND NOT TO BE DUPLICATED\P}
  0
LAYOUT
  5
6B
102
{ACAD_REACTORS
330
62
102
}
330
62
100
AcDbPlotSettings
  1

  2

  4

  6

 40
0.0
 41
0.0
 42
0.0
 43
0.0
 44
0.0
 45
0.0
 46
0.0
 47
0.0
 48
0.0
 49
0.0
140
0.0
141
0.0
142
1.0
143
1.0
 70
   688
 72
     0
 73
     0
 74
     5
  7

 75
    16
147
1.0
 76
     0
 77
     2
 78
   300
148
0.0
149
0.0
100
AcDbLayout
  1
Layout1
 70
     1
 71
     1
 10
0.0
 20
0.0
 11
12.0
 21
9.0
 12
0.0
 22
0.0
 32
0.0
 14
0.0
 24
0.0
 34
0.0
 15
0.0
 25
0.0
 35
0.0
146
0.0
 13
0.0
 23
0.0
 33
0.0
 16
1.0
 26
0.0
 36
0.0
 17
0.0
 27
1.0
 37
0.0
 76
     0
330
68
  0
LAYOUT
  5
73
102
{ACAD_REACTORS
330
62
102
}
330
62
100
AcDbPlotSettings
  1

  2

  4

  6

 40
0.0
 41
0.0
 42
0.0
 43
0.0
 44
0.0
 45
0.0
 46
0.0
 47
0.0
 48
0.0
 49
0.0
140
0.0
141
0.0
142
1.0
143
1.0
 70
   688
 72
     0
 73
     0
 74
     5
  7

 75
    16
147
1.0
 76
     0
 77
     2
 78
   300
148
0.0
149
0.0
100
AcDbLayout
  1
Layout2
 70
     1
 71
     2
 10
0.0
 20
0.0
 11
12.0
 21
9.0
 12
0.0
 22
0.0
 32
0.0
 14
0.0
 24
0.0
 34
0.0
 15
0.0
 25
0.0
 35
0.0
146
0.0
 13
0.0
 23
0.0
 33
0.0
 16
1.0
 26
0.0
 36
0.0
 17
0.0
 27
1.0
 37
0.0
 76
     0
330
70
  0
LAYOUT
  5
6F
102
{ACAD_REACTORS
330
62
102
}
330
62
100
AcDbPlotSettings
  1

  2

  4

  6

 40
0.0
 41
0.0
 42
0.0
 43
0.0
 44
0.0
 45
0.0
 46
0.0
 47
0.0
 48
0.0
 49
0.0
140
0.0
141
0.0
142
1.0
143
1.0
 70
  1712
 72
     0
 73
     0
 74
     0
  7

 75
     0
147
1.0
 76
     0
 77
     2
 78
   300
148
0.0
149
0.0
100
AcDbLayout
  1
Model
 70
     1
 71
     0
 10
0.0
 20
0.0
 11
12.0
 21
9.0
 12
0.0
 22
0.0
 32
0.0
 14
0.0
 24
0.0
 34
0.0
 15
0.0
 25
0.0
 35
0.0
146
0.0
 13
0.0
 23
0.0
 33
0.0
 16
1.0
 26
0.0
 36
0.0
 17
0.0
 27
1.0
 37
0.0
 76
     0
330
6C
  0
MATERIAL
  5
19
102
{ACAD_XDICTIONARY
360
1A
102
}
102
{ACAD_REACTORS
330
10
102
}
330
10
100
AcDbMaterial
  1
ByBlock
 72
     0
 43
0.0208333333333333
 43
0.0
 43
0.0
 43
0.0
 43
0.0
 43
0.0208333333333333
 43
0.0
 43
0.0
 43
0.0
 43
0.0
 43
1.0
 43
0.0
 43
0.0
 43
0.0
 43
0.0
 43
1.0
 77
     0
 47
0.0208333333333333
 47
0.0
 47
0.0
 47
0.0
 47
0.0
 47
0.0208333333333333
 47
0.0
 47
0.0
 47
0.0
 47
0.0
 47
1.0
 47
0.0
 47
0.0
 47
0.0
 47
0.0
 47
1.0
171
     0
 49
0.0208333333333333
 49
0.0
 49
0.0
 49
0.0
 49
0.0
 49
0.0208333333333333
 49
0.0
 49
0.0
 49
0.0
 49
0.0
 49
1.0
 49
0.0
 49
0.0
 49
0.0
 49
0.0
 49
1.0
175
     0
142
0.0208333333333333
142
0.0
142
0.0
142
0.0
142
0.0
142
0.0208333333333333
142
0.0
142
0.0
142
0.0
142
0.0
142
1.0
142
0.0
142
0.0
142
0.0
142
0.0
142
1.0
179
     0
144
0.0208333333333333
144
0.0
144
0.0
144
0.0
144
0.0
144
0.0208333333333333
144
0.0
144
0.0
144
0.0
144
0.0
144
1.0
144
0.0
144
0.0
144
0.0
144
0.0
144
1.0
147
0.0208333333333333
147
0.0
147
0.0
147
0.0
147
0.0
147
0.0208333333333333
147
0.0
147
0.0
147
0.0
147
0.0
147
1.0
147
0.0
147
0.0
147
0.0
147
0.0
147
1.0
  0
MATERIAL
  5
11
102
{ACAD_XDICTIONARY
360
12
102
}
102
{ACAD_REACTORS
330
10
102
}
330
10
100
AcDbMaterial
  1
ByLayer
 72
     0
 43
0.0208333333333333
 43
0.0
 43
0.0
 43
0.0
 43
0.0
 43
0.0208333333333333
 43
0.0
 43
0.0
 43
0.0
 43
0.0
 43
1.0
 43
0.0
 43
0.0
 43
0.0
 43
0.0
 43
1.0
 77
     0
 47
0.0208333333333333
 47
0.0
 47
0.0
 47
0.0
 47
0.0
 47
0.0208333333333333
 47
0.0
 47
0.0
 47
0.0
 47
0.0
 47
1.0
 47
0.0
 47
0.0
 47
0.0
 47
0.0
 47
1.0
171
     0
 49
0.0208333333333333
 49
0.0
 49
0.0
 49
0.0
 49
0.0
 49
0.0208333333333333
 49
0.0
 49
0.0
 49
0.0
 49
0.0
 49
1.0
 49
0.0
 49
0.0
 49
0.0
 49
0.0
 49
1.0
175
     0
142
0.0208333333333333
142
0.0
142
0.0
142
0.0
142
0.0
142
0.0208333333333333
142
0.0
142
0.0
142
0.0
142
0.0
142
1.0
142
0.0
142
0.0
142
0.0
142
0.0
142
1.0
179
     0
144
0.0208333333333333
144
0.0
144
0.0
144
0.0
144
0.0
144
0.0208333333333333
144
0.0
144
0.0
144
0.0
144
0.0
144
1.0
144
0.0
144
0.0
144
0.0
144
0.0
144
1.0
147
0.0208333333333333
147
0.0
147
0.0
147
0.0
147
0.0
147
0.0208333333333333
147
0.0
147
0.0
147
0.0
147
0.0
147
1.0
147
0.0
147
0.0
147
0.0
147
0.0
147
1.0
  0
MATERIAL
  5
21
102
{ACAD_XDICTIONARY
360
22
102
}
102
{ACAD_REACTORS
330
10
102
}
330
10
100
AcDbMaterial
  1
Global
 72
     0
 43
0.0208333333333333
 43
0.0
 43
0.0
 43
0.0
 43
0.0
 43
0.0208333333333333
 43
0.0
 43
0.0
 43
0.0
 43
0.0
 43
1.0
 43
0.0
 43
0.0
 43
0.0
 43
0.0
 43
1.0
 77
     0
 47
0.0208333333333333
 47
0.0
 47
0.0
 47
0.0
 47
0.0
 47
0.0208333333333333
 47
0.0
 47
0.0
 47
0.0
 47
0.0
 47
1.0
 47
0.0
 47
0.0
 47
0.0
 47
0.0
 47
1.0
171
     0
 49
0.0208333333333333
 49
0.0
 49
0.0
 49
0.0
 49
0.0
 49
0.0208333333333333
 49
0.0
 49
0.0
 49
0.0
 49
0.0
 49
1.0
 49
0.0
 49
0.0
 49
0.0
 49
0.0
 49
1.0
175
     0
142
0.0208333333333333
142
0.0
142
0.0
142
0.0
142
0.0
142
0.0208333333333333
142
0.0
142
0.0
142
0.0
142
0.0
142
1.0
142
0.0
142
0.0
142
0.0
142
0.0
142
1.0
179
     0
144
0.0208333333333333
144
0.0
144
0.0
144
0.0
144
0.0
144
0.0208333333333333
144
0.0
144
0.0
144
0.0
144
0.0
144
1.0
144
0.0
144
0.0
144
0.0
144
0.0
144
1.0
147
0.0208333333333333
147
0.0
147
0.0
147
0.0
147
0.0
147
0.0208333333333333
147
0.0
147
0.0
147
0.0
147
0.0
147
1.0
147
0.0
147
0.0
147
0.0
147
0.0
147
1.0
  0
MLEADERSTYLE
  5
67
102
{ACAD_XDICTIONARY
360
E74
102
}
102
{ACAD_REACTORS
330
66
102
}
330
66
100
AcDbMLeaderStyle
179
     2
170
     2
171
     1
172
     0
 90
        2
 40
0.0
 41
0.0
173
     1
 91
-1056964608
340
5B
 92
       -2
290
     1
 42
0.09
291
     1
 43
0.36
  3
Standard
 44
0.18
300

342
55
174
     1
178
     6
175
     1
176
     0
 93
-1056964608
 45
0.18
292
     0
297
     0
 46
0.18
 94
-1056964608
 47
1.0
 49
1.0
140
1.0
293
     1
141
0.0
294
     1
177
     0
142
1.0
295
     0
296
     0
143
0.125
271
     0
272
     9
273
     9
  0
MLINESTYLE
  5
60
102
{ACAD_REACTORS
330
5F
102
}
330
5F
100
AcDbMlineStyle
  2
STANDARD
 70
     0
  3

 62
   256
 51
90.0
 52
90.0
 71
     2
 49
0.5
 62
   256
  6
BYLAYER
 49
-0.5
 62
   256
  6
BYLAYER
  0
ACDBPLACEHOLDER
  5
F
102
{ACAD_REACTORS
330
E
102
}
330
E
  0
SCALE
  5
43
102
{ACAD_REACTORS
330
42
102
}
330
42
100
AcDbScale
 70
     0
300
1:1
140
1.0
141
1.0
290
     1
  0
SCALE
  5
44
102
{ACAD_REACTORS
330
42
102
}
330
42
100
AcDbScale
 70
     0
300
1/128" = 1'-0"
140
0.0078125
141
12.0
290
     0
  0
SCALE
  5
45
102
{ACAD_REACTORS
330
42
102
}
330
42
100
AcDbScale
 70
     0
300
1/64" = 1'-0"
140
0.015625
141
12.0
290
     0
  0
SCALE
  5
46
102
{ACAD_REACTORS
330
42
102
}
330
42
100
AcDbScale
 70
     0
300
1/32" = 1'-0"
140
0.03125
141
12.0
290
     0
  0
SCALE
  5
47
102
{ACAD_REACTORS
330
42
102
}
330
42
100
AcDbScale
 70
     0
300
1/16" = 1'-0"
140
0.0625
141
12.0
290
     0
  0
SCALE
  5
48
102
{ACAD_REACTORS
330
42
102
}
330
42
100
AcDbScale
 70
     0
300
3/32" = 1'-0"
140
0.09375
141
12.0
290
     0
  0
SCALE
  5
49
102
{ACAD_REACTORS
330
42
102
}
330
42
100
AcDbScale
 70
     0
300
1/8" = 1'-0"
140
0.125
141
12.0
290
     0
  0
SCALE
  5
4A
102
{ACAD_REACTORS
330
42
102
}
330
42
100
AcDbScale
 70
     0
300
3/16" = 1'-0"
140
0.1875
141
12.0
290
     0
  0
SCALE
  5
4B
102
{ACAD_REACTORS
330
42
102
}
330
42
100
AcDbScale
 70
     0
300
1/4" = 1'-0"
140
0.25
141
12.0
290
     0
  0
SCALE
  5
4C
102
{ACAD_REACTORS
330
42
102
}
330
42
100
AcDbScale
 70
     0
300
3/8" = 1'-0"
140
0.375
141
12.0
290
     0
  0
SCALE
  5
4D
102
{ACAD_REACTORS
330
42
102
}
330
42
100
AcDbScale
 70
     0
300
1/2" = 1'-0"
140
0.5
141
12.0
290
     0
  0
SCALE
  5
4E
102
{ACAD_REACTORS
330
42
102
}
330
42
100
AcDbScale
 70
     0
300
3/4" = 1'-0"
140
0.75
141
12.0
290
     0
  0
SCALE
  5
4F
102
{ACAD_REACTORS
330
42
102
}
330
42
100
AcDbScale
 70
     0
300
1" = 1'-0"
140
1.0
141
12.0
290
     0
  0
SCALE
  5
50
102
{ACAD_REACTORS
330
42
102
}
330
42
100
AcDbScale
 70
     0
300
1-1/2" = 1'-0"
140
1.5
141
12.0
290
     0
  0
SCALE
  5
51
102
{ACAD_REACTORS
330
42
102
}
330
42
100
AcDbScale
 70
     0
300
3" = 1'-0"
140
3.0
141
12.0
290
     0
  0
SCALE
  5
52
102
{ACAD_REACTORS
330
42
102
}
330
42
100
AcDbScale
 70
     0
300
6" = 1'-0"
140
6.0
141
12.0
290
     0
  0
SCALE
  5
53
102
{ACAD_REACTORS
330
42
102
}
330
42
100
AcDbScale
 70
     0
300
1'-0" = 1'-0"
140
12.0
141
12.0
290
     0
  0
TABLESTYLE
  5
65
102
{ACAD_XDICTIONARY
360
E72
102
}
102
{ACAD_REACTORS
330
64
102
}
330
64
100
AcDbTableStyle
280
     0
  3
Standard
 70
     0
 71
     0
 40
0.06
 41
0.06
280
     0
281
     0
  7
Standard
140
0.18
170
     2
 62
     0
 63
     7
283
     0
 90
      512
 91
        0
  1

274
    -2
284
     1
 64
     0
275
    -2
285
     1
 65
     0
276
    -2
286
     1
 66
     0
277
    -2
287
     1
 67
     0
278
    -2
288
     1
 68
     0
279
    -2
289
     1
 69
     0
  7
Standard
140
0.25
170
     5
 62
     0
 63
     7
283
     0
 90
      512
 91
        0
  1

274
    -2
284
     1
 64
     0
275
    -2
285
     1
 65
     0
276
    -2
286
     1
 66
     0
277
    -2
287
     1
 67
     0
278
    -2
288
     1
 68
     0
279
    -2
289
     1
 69
     0
  7
Standard
140
0.18
170
     5
 62
     0
 63
     7
283
     0
 90
      512
 91
        0
  1

274
    -2
284
     1
 64
     0
275
    -2
285
     1
 65
     0
276
    -2
286
     1
 66
     0
277
    -2
287
     1
 67
     0
278
    -2
288
     1
 68
     0
279
    -2
289
     1
 69
     0
  0
VISUALSTYLE
  5
2F
102
{ACAD_REACTORS
330
29
102
}
330
29
100
AcDbVisualStyle
  2
2dWireframe
 70
     4
177
     2
291
     0
 71
     0
176
     1
 72
     2
176
     1
 73
     0
176
     1
 90
        0
176
     1
 40
0.6
176
     1
 41
30.0
176
     1
 63
     7
421
 16777215
176
     1
 74
     1
176
     1
 91
        4
176
     1
 64
     7
176
     1
 65
   257
176
     1
 75
     1
176
     1
175
     1
176
     1
 42
1.0
176
     1
 92
        0
176
     1
 66
   257
176
     1
 43
1.0
176
     1
 76
     1
176
     1
 77
     6
176
     1
 78
     2
176
     1
 67
     7
176
     1
 79
     5
176
     1
170
     0
176
     1
171
     0
176
     1
290
     0
176
     1
 93
        1
176
     1
 44
0.0
176
     1
173
     0
176
     1
  0
VISUALSTYLE
  5
2E
102
{ACAD_REACTORS
330
29
102
}
330
29
100
AcDbVisualStyle
  2
Basic
 70
     7
177
     2
291
     1
 71
     1
176
     1
 72
     0
176
     1
 73
     1
176
     1
 90
        0
176
     1
 40
0.6
176
     1
 41
30.0
176
     1
 63
     7
421
 16777215
176
     1
 74
     0
176
     1
 91
        4
176
     1
 64
     7
176
     1
 65
   257
176
     1
 75
     1
176
     1
175
     1
176
     1
 42
1.0
176
     1
 92
        8
176
     1
 66
     7
176
     1
 43
1.0
176
     1
 76
     1
176
     1
 77
     6
176
     1
 78
     2
176
     1
 67
     7
176
     1
 79
     5
176
     1
170
     0
176
     1
171
     0
176
     1
290
     0
176
     1
 93
        1
176
     1
 44
0.0
176
     1
173
     0
176
     1
  0
VISUALSTYLE
  5
35
102
{ACAD_REACTORS
330
29
102
}
330
29
100
AcDbVisualStyle
  2
Brighten
 70
    12
177
     2
291
     1
 71
     2
176
     1
 72
     2
176
     1
 73
     0
176
     1
 90
        0
176
     1
 40
0.6
176
     1
 41
30.0
176
     1
 63
     7
421
 16777215
176
     1
 74
     1
176
     1
 91
        4
176
     1
 64
     7
176
     1
 65
   257
176
     1
 75
     1
176
     1
175
     1
176
     1
 42
1.0
176
     1
 92
        8
176
     1
 66
     7
176
     1
 43
1.0
176
     1
 76
     1
176
     1
 77
     6
176
     1
 78
     2
176
     1
 67
     7
176
     1
 79
     5
176
     1
170
     0
176
     1
171
     0
176
     1
290
     0
176
     1
 93
        1
176
     1
 44
50.0
176
     1
173
     0
176
     1
  0
VISUALSTYLE
  5
39
102
{ACAD_REACTORS
330
29
102
}
330
29
100
AcDbVisualStyle
  2
ColorChange
 70
    16
177
     2
291
     1
 71
     2
176
     1
 72
     2
176
     1
 73
     3
176
     1
 90
        0
176
     1
 40
0.6
176
     1
 41
30.0
176
     1
 63
     8
421
  8421504
176
     1
 74
     1
176
     1
 91
        4
176
     1
 64
     7
176
     1
 65
   257
176
     1
 75
     1
176
     1
175
     1
176
     1
 42
1.0
176
     1
 92
        8
176
     1
 66
     8
424
  8421504
176
     1
 43
1.0
176
     1
 76
     1
176
     1
 77
     6
176
     1
 78
     2
176
     1
 67
     7
176
     1
 79
     5
176
     1
170
     0
176
     1
171
     0
176
     1
290
     0
176
     1
 93
        1
176
     1
 44
0.0
176
     1
173
     0
176
     1
  0
VISUALSTYLE
  5
32
102
{ACAD_REACTORS
330
29
102
}
330
29
100
AcDbVisualStyle
  2
Conceptual
 70
     9
177
     2
291
     0
 71
     3
176
     1
 72
     2
176
     1
 73
     0
176
     1
 90
        0
176
     1
 40
0.6
176
     1
 41
30.0
176
     1
 63
     7
421
 16777215
176
     1
 74
     2
176
     1
 91
        2
176
     1
 64
     7
176
     1
 65
   257
176
     1
 75
     1
176
     1
175
     1
176
     1
 42
179.0
176
     1
 92
        8
176
     1
 66
     7
176
     1
 43
1.0
176
     1
 76
     1
176
     1
 77
     6
176
     1
 78
     2
176
     1
 67
     7
176
     1
 79
     3
176
     1
170
     0
176
     1
171
     0
176
     1
290
     0
176
     1
 93
        1
176
     1
 44
0.0
176
     1
173
     0
176
     1
  0
VISUALSTYLE
  5
34
102
{ACAD_REACTORS
330
29
102
}
330
29
100
AcDbVisualStyle
  2
Dim
 70
    11
177
     2
291
     1
 71
     2
176
     1
 72
     2
176
     1
 73
     0
176
     1
 90
        0
176
     1
 40
0.6
176
     1
 41
30.0
176
     1
 63
     7
421
 16777215
176
     1
 74
     1
176
     1
 91
        4
176
     1
 64
     7
176
     1
 65
   257
176
     1
 75
     1
176
     1
175
     1
176
     1
 42
1.0
176
     1
 92
        8
176
     1
 66
     7
176
     1
 43
1.0
176
     1
 76
     1
176
     1
 77
     6
176
     1
 78
     2
176
     1
 67
     7
176
     1
 79
     5
176
     1
170
     0
176
     1
171
     0
176
     1
290
     0
176
     1
 93
        1
176
     1
 44
-50.0
176
     1
173
     0
176
     1
  0
VISUALSTYLE
  5
41
102
{ACAD_REACTORS
330
29
102
}
330
29
100
AcDbVisualStyle
  2
EdgeColorOff
 70
    22
177
     2
291
     1
 71
     2
176
     0
 72
     2
176
     0
 73
     0
176
     0
 90
        0
176
     0
 40
0.6
176
     0
 41
30.0
176
     0
 63
     7
421
 16777215
176
     0
 74
     1
176
     0
 91
        4
176
     0
 64
     7
176
     0
 65
   257
176
     0
 75
     1
176
     0
175
     1
176
     0
 42
1.0
176
     0
 92
        8
176
     2
 66
     7
176
     0
 43
1.0
176
     0
 76
     1
176
     0
 77
     6
176
     0
 78
     2
176
     0
 67
     7
176
     0
 79
     5
176
     0
170
     0
176
     0
171
     0
176
     0
290
     0
176
     0
 93
        1
176
     0
 44
0.0
176
     0
173
     0
176
     0
  0
VISUALSTYLE
  5
38
102
{ACAD_REACTORS
330
29
102
}
330
29
100
AcDbVisualStyle
  2
Facepattern
 70
    15
177
     2
291
     1
 71
     2
176
     1
 72
     2
176
     1
 73
     0
176
     1
 90
        0
176
     1
 40
0.6
176
     1
 41
30.0
176
     1
 63
     7
421
 16777215
176
     1
 74
     1
176
     1
 91
        4
176
     1
 64
     7
176
     1
 65
   257
176
     1
 75
     1
176
     1
175
     1
176
     1
 42
1.0
176
     1
 92
        8
176
     1
 66
     7
176
     1
 43
1.0
176
     1
 76
     1
176
     1
 77
     6
176
     1
 78
     2
176
     1
 67
     7
176
     1
 79
     5
176
     1
170
     0
176
     1
171
     0
176
     1
290
     0
176
     1
 93
        1
176
     1
 44
0.0
176
     1
173
     0
176
     1
  0
VISUALSTYLE
  5
2A
102
{ACAD_REACTORS
330
29
102
}
330
29
100
AcDbVisualStyle
  2
Flat
 70
     0
177
     2
291
     1
 71
     2
176
     1
 72
     1
176
     1
 73
     1
176
     1
 90
        2
176
     1
 40
0.6
176
     1
 41
30.0
176
     1
 63
     7
421
 16777215
176
     1
 74
     0
176
     1
 91
        0
176
     1
 64
     7
176
     1
 65
   257
176
     1
 75
     1
176
     1
175
     1
176
     1
 42
1.0
176
     1
 92
        8
176
     1
 66
     7
176
     1
 43
1.0
176
     1
 76
     1
176
     1
 77
     6
176
     1
 78
     2
176
     1
 67
     7
176
     1
 79
     5
176
     1
170
     0
176
     1
171
     0
176
     1
290
     0
176
     1
 93
       13
176
     1
 44
0.0
176
     1
173
     0
176
     1
  0
VISUALSTYLE
  5
2B
102
{ACAD_REACTORS
330
29
102
}
330
29
100
AcDbVisualStyle
  2
FlatWithEdges
 70
     1
177
     2
291
     1
 71
     2
176
     1
 72
     1
176
     1
 73
     1
176
     1
 90
        2
176
     1
 40
0.6
176
     1
 41
30.0
176
     1
 63
     7
421
 16777215
176
     1
 74
     1
176
     1
 91
        0
176
     1
 64
     7
176
     1
 65
   257
176
     1
 75
     1
176
     1
175
     1
176
     1
 42
1.0
176
     1
 92
        0
176
     1
 66
   257
176
     1
 43
1.0
176
     1
 76
     1
176
     1
 77
     6
176
     1
 78
     2
176
     1
 67
     7
176
     1
 79
     5
176
     1
170
     0
176
     1
171
     0
176
     1
290
     0
176
     1
 93
       13
176
     1
 44
0.0
176
     1
173
     0
176
     1
  0
VISUALSTYLE
  5
2C
102
{ACAD_REACTORS
330
29
102
}
330
29
100
AcDbVisualStyle
  2
Gouraud
 70
     2
177
     2
291
     1
 71
     2
176
     1
 72
     2
176
     1
 73
     1
176
     1
 90
        2
176
     1
 40
0.6
176
     1
 41
30.0
176
     1
 63
     7
421
 16777215
176
     1
 74
     0
176
     1
 91
        0
176
     1
 64
     7
176
     1
 65
   257
176
     1
 75
     1
176
     1
175
     1
176
     1
 42
1.0
176
     1
 92
        0
176
     1
 66
     7
176
     1
 43
1.0
176
     1
 76
     1
176
     1
 77
     6
176
     1
 78
     2
176
     1
 67
     7
176
     1
 79
     5
176
     1
170
     0
176
     1
171
     0
176
     1
290
     0
176
     1
 93
       13
176
     1
 44
0.0
176
     1
173
     0
176
     1
  0
VISUALSTYLE
  5
2D
102
{ACAD_REACTORS
330
29
102
}
330
29
100
AcDbVisualStyle
  2
GouraudWithEdges
 70
     3
177
     2
291
     1
 71
     2
176
     1
 72
     2
176
     1
 73
     1
176
     1
 90
        2
176
     1
 40
0.6
176
     1
 41
30.0
176
     1
 63
     7
421
 16777215
176
     1
 74
     1
176
     1
 91
        0
176
     1
 64
     7
176
     1
 65
   257
176
     1
 75
     1
176
     1
175
     1
176
     1
 42
1.0
176
     1
 92
        0
176
     1
 66
   257
176
     1
 43
1.0
176
     1
 76
     1
176
     1
 77
     6
176
     1
 78
     2
176
     1
 67
     7
176
     1
 79
     5
176
     1
170
     0
176
     1
171
     0
176
     1
290
     0
176
     1
 93
       13
176
     1
 44
0.0
176
     1
173
     0
176
     1
  0
VISUALSTYLE
  5
31
102
{ACAD_REACTORS
330
29
102
}
330
29
100
AcDbVisualStyle
  2
Hidden
 70
     6
177
     2
291
     0
 71
     1
176
     1
 72
     2
176
     1
 73
     2
176
     1
 90
        0
176
     1
 40
0.6
176
     1
 41
30.0
176
     1
 63
     7
421
 16777215
176
     1
 74
     2
176
     1
 91
        2
176
     1
 64
     7
176
     1
 65
   257
176
     1
 75
     2
176
     1
175
     1
176
     1
 42
40.0
176
     1
 92
        0
176
     1
 66
   257
176
     1
 43
1.0
176
     1
 76
     1
176
     1
 77
     6
176
     1
 78
     2
176
     1
 67
     7
176
     1
 79
     3
176
     1
170
     0
176
     1
171
     0
176
     1
290
     0
176
     1
 93
        1
176
     1
 44
0.0
176
     1
173
     0
176
     1
  0
VISUALSTYLE
  5
3F
102
{ACAD_REACTORS
330
29
102
}
330
29
100
AcDbVisualStyle
  2
JitterOff
 70
    20
177
     2
291
     1
 71
     2
176
     0
 72
     2
176
     0
 73
     0
176
     0
 90
        0
176
     0
 40
0.6
176
     0
 41
30.0
176
     0
 63
     7
421
 16777215
176
     0
 74
     1
176
     0
 91
        4
176
     0
 64
     7
176
     0
 65
   257
176
     0
 75
     1
176
     0
175
     1
176
     0
 42
1.0
176
     0
 92
       10
176
     2
 66
     7
176
     0
 43
1.0
176
     0
 76
     1
176
     0
 77
     6
176
     0
 78
     2
176
     0
 67
     7
176
     0
 79
     5
176
     0
170
     0
176
     0
171
     0
176
     0
290
     0
176
     0
 93
        1
176
     0
 44
0.0
176
     0
173
     0
176
     0
  0
VISUALSTYLE
  5
37
102
{ACAD_REACTORS
330
29
102
}
330
29
100
AcDbVisualStyle
  2
Linepattern
 70
    14
177
     2
291
     1
 71
     2
176
     1
 72
     2
176
     1
 73
     0
176
     1
 90
        0
176
     1
 40
0.6
176
     1
 41
30.0
176
     1
 63
     7
421
 16777215
176
     1
 74
     1
176
     1
 91
        4
176
     1
 64
     7
176
     1
 65
   257
176
     1
 75
     7
176
     1
175
     7
176
     1
 42
1.0
176
     1
 92
        8
176
     1
 66
     7
176
     1
 43
1.0
176
     1
 76
     1
176
     1
 77
     6
176
     1
 78
     2
176
     1
 67
     7
176
     1
 79
     5
176
     1
170
     0
176
     1
171
     0
176
     1
290
     0
176
     1
 93
        1
176
     1
 44
0.0
176
     1
173
     0
176
     1
  0
VISUALSTYLE
  5
40
102
{ACAD_REACTORS
330
29
102
}
330
29
100
AcDbVisualStyle
  2
OverhangOff
 70
    21
177
     2
291
     1
 71
     2
176
     0
 72
     2
176
     0
 73
     0
176
     0
 90
        0
176
     0
 40
0.6
176
     0
 41
30.0
176
     0
 63
     7
421
 16777215
176
     0
 74
     1
176
     0
 91
        4
176
     0
 64
     7
176
     0
 65
   257
176
     0
 75
     1
176
     0
175
     1
176
     0
 42
1.0
176
     0
 92
        9
176
     2
 66
     7
176
     0
 43
1.0
176
     0
 76
     1
176
     0
 77
     6
176
     0
 78
     2
176
     0
 67
     7
176
     0
 79
     5
176
     0
170
     0
176
     0
171
     0
176
     0
290
     0
176
     0
 93
        1
176
     0
 44
0.0
176
     0
173
     0
176
     0
  0
VISUALSTYLE
  5
33
102
{ACAD_REACTORS
330
29
102
}
330
29
100
AcDbVisualStyle
  2
Realistic
 70
     8
177
     2
291
     0
 71
     2
176
     1
 72
     3
176
     1
 73
     0
176
     1
 90
        2
176
     1
 40
0.6
176
     1
 41
30.0
176
     1
 63
     7
421
 16777215
176
     1
 74
     0
176
     1
 91
        0
176
     1
 64
     7
176
     1
 65
   257
176
     1
 75
     1
176
     1
175
     1
176
     1
 42
1.0
176
     1
 92
        8
176
     1
 66
   257
176
     1
 43
1.0
176
     1
 76
     1
176
     1
 77
     6
176
     1
 78
     2
176
     1
 67
     7
176
     1
 79
     3
176
     1
170
     0
176
     1
171
     0
176
     1
290
     0
176
     1
 93
       13
176
     1
 44
0.0
176
     1
173
     0
176
     1
  0
VISUALSTYLE
  5
3E
102
{ACAD_REACTORS
330
29
102
}
330
29
100
AcDbVisualStyle
  2
Shaded
 70
    27
177
     2
291
     0
 71
     2
176
     1
 72
     2
176
     1
 73
     1
176
     1
 90
        2
176
     1
 40
0.6
176
     1
 41
30.0
176
     1
 63
     7
421
 16777215
176
     1
 74
     0
176
     1
 91
        4
176
     1
 64
     7
176
     1
 65
   257
176
     1
 75
     1
176
     1
175
     1
176
     1
 42
1.0
176
     1
 92
        8
176
     1
 66
   257
176
     1
 43
1.0
176
     1
 76
     1
176
     1
 77
     6
176
     1
 78
     2
176
     1
 67
     8
425
  7895160
176
     1
 79
     3
176
     1
170
     0
176
     1
171
     0
176
     1
290
     0
176
     1
 93
        5
176
     1
 44
0.0
176
     1
173
     0
176
     1
  0
VISUALSTYLE
  5
3D
102
{ACAD_REACTORS
330
29
102
}
330
29
100
AcDbVisualStyle
  2
Shaded with edges
 70
    26
177
     2
291
     0
 71
     2
176
     1
 72
     2
176
     1
 73
     1
176
     1
 90
        2
176
     1
 40
0.6
176
     1
 41
30.0
176
     1
 63
     7
421
 16777215
176
     1
 74
     1
176
     1
 91
       10
176
     1
 64
     7
176
     1
 65
   257
176
     1
 75
     2
176
     1
175
     1
176
     1
 42
1.0
176
     1
 92
        8
176
     1
 66
   257
176
     1
 43
1.0
176
     1
 76
     1
176
     1
 77
     6
176
     1
 78
     2
176
     1
 67
     7
176
     1
 79
     3
176
     1
170
     0
176
     1
171
     0
176
     1
290
     0
176
     1
 93
        5
176
     1
 44
0.0
176
     1
173
     0
176
     1
  0
VISUALSTYLE
  5
3A
102
{ACAD_REACTORS
330
29
102
}
330
29
100
AcDbVisualStyle
  2
Shades of Gray
 70
    23
177
     2
291
     0
 71
     2
176
     1
 72
     2
176
     1
 73
     3
176
     1
 90
        0
176
     1
 40
0.6
176
     1
 41
30.0
176
     1
 63
     7
421
 16777215
176
     1
 74
     2
176
     1
 91
        2
176
     1
 64
     7
176
     1
 65
     7
176
     1
 75
     1
176
     1
175
     1
176
     1
 42
40.0
176
     1
 92
        8
176
     1
 66
     7
176
     1
 43
1.0
176
     1
 76
     1
176
     1
 77
     6
176
     1
 78
     2
176
     1
 67
     7
176
     1
 79
     3
176
     1
170
     0
176
     1
171
     0
176
     1
290
     0
176
     1
 93
        1
176
     1
 44
0.0
176
     1
173
     0
176
     1
  0
VISUALSTYLE
  5
3B
102
{ACAD_REACTORS
330
29
102
}
330
29
100
AcDbVisualStyle
  2
Sketchy
 70
    24
177
     2
291
     0
 71
     1
176
     1
 72
     2
176
     1
 73
     2
176
     1
 90
        0
176
     1
 40
0.6
176
     1
 41
30.0
176
     1
 63
     7
421
 16777215
176
     1
 74
     2
176
     1
 91
        2
176
     1
 64
     7
176
     1
 65
     7
176
     1
 75
     1
176
     1
175
     1
176
     1
 42
40.0
176
     1
 92
       11
176
     1
 66
     7
176
     1
 43
1.0
176
     1
 76
     1
176
     1
 77
     6
176
     1
 78
     2
176
     1
 67
     7
176
     1
 79
     6
176
     1
170
     0
176
     1
171
     0
176
     1
290
     0
176
     1
 93
        1
176
     1
 44
0.0
176
     1
173
     0
176
     1
  0
VISUALSTYLE
  5
36
102
{ACAD_REACTORS
330
29
102
}
330
29
100
AcDbVisualStyle
  2
Thicken
 70
    13
177
     2
291
     1
 71
     2
176
     1
 72
     2
176
     1
 73
     0
176
     1
 90
        0
176
     1
 40
0.6
176
     1
 41
30.0
176
     1
 63
     7
421
 16777215
176
     1
 74
     1
176
     1
 91
        4
176
     1
 64
     7
176
     1
 65
   257
176
     1
 75
     1
176
     1
175
     1
176
     1
 42
1.0
176
     1
 92
       12
176
     1
 66
     7
176
     1
 43
1.0
176
     1
 76
     1
176
     1
 77
     6
176
     1
 78
     2
176
     1
 67
     7
176
     1
 79
     5
176
     1
170
     0
176
     1
171
     0
176
     1
290
     0
176
     1
 93
        1
176
     1
 44
0.0
176
     1
173
     0
176
     1
  0
VISUALSTYLE
  5
30
102
{ACAD_REACTORS
330
29
102
}
330
29
100
AcDbVisualStyle
  2
Wireframe
 70
     5
177
     2
291
     0
 71
     0
176
     1
 72
     2
176
     1
 73
     0
176
     1
 90
        0
176
     1
 40
0.6
176
     1
 41
30.0
176
     1
 63
     7
421
 16777215
176
     1
 74
     1
176
     1
 91
        4
176
     1
 64
     7
176
     1
 65
   257
176
     1
 75
     1
176
     1
175
     1
176
     1
 42
1.0
176
     1
 92
        0
176
     1
 66
   257
176
     1
 43
1.0
176
     1
 76
     1
176
     1
 77
     6
176
     1
 78
     2
176
     1
 67
     7
176
     1
 79
     3
176
     1
170
     0
176
     1
171
     0
176
     1
290
     0
176
     1
 93
        1
176
     1
 44
0.0
176
     1
173
     0
176
     1
  0
VISUALSTYLE
  5
3C
102
{ACAD_REACTORS
330
29
102
}
330
29
100
AcDbVisualStyle
  2
X-Ray
 70
    25
177
     2
291
     0
 71
     2
176
     1
 72
     2
176
     1
 73
     1
176
     1
 90
        1
176
     1
 40
0.5
176
     1
 41
30.0
176
     1
 63
     7
421
 16777215
176
     1
 74
     1
176
     1
 91
        0
176
     1
 64
     7
176
     1
 65
   257
176
     1
 75
     1
176
     1
175
     1
176
     1
 42
1.0
176
     1
 92
        8
176
     1
 66
     7
176
     1
 43
1.0
176
     1
 76
     1
176
     1
 77
     6
176
     1
 78
     2
176
     1
 67
     7
176
     1
 79
     3
176
     1
170
     0
176
     1
171
     0
176
     1
290
     0
176
     1
 93
       13
176
     1
 44
0.0
176
     1
173
     0
176
     1
  0
DICTIONARYVAR
  5
79
102
{ACAD_REACTORS
330
76
102
}
330
76
100
DictionaryVariables
280
     0
  1
1:1
  0
DICTIONARYVAR
  5
78
102
{ACAD_REACTORS
330
76
102
}
330
76
100
DictionaryVariables
280
     0
  1
STANDARD
  0
DICTIONARYVAR
  5
77
102
{ACAD_REACTORS
330
76
102
}
330
76
100
DictionaryVariables
280
     0
  1
STANDARD
  0
DICTIONARY
  5
1A
330
19
100
AcDbDictionary
280
     1
281
     1
  3
BUMPTILE
360
1C
  3
DIFFUSETILE
360
1B
  3
OPACITYTILE
360
1F
  3
REFLECTIONTILE
360
1E
  3
REFRACTIONTILE
360
20
  3
SPECULARTILE
360
1D
  0
DICTIONARY
  5
12
330
11
100
AcDbDictionary
280
     1
281
     1
  3
BUMPTILE
360
14
  3
DIFFUSETILE
360
13
  3
FBXASSET
360
109
  3
OPACITYTILE
360
17
  3
REFLECTIONTILE
360
16
  3
REFRACTIONTILE
360
18
  3
SPECULARTILE
360
15
  0
DICTIONARY
  5
22
330
21
100
AcDbDictionary
280
     1
281
     1
  3
BUMPTILE
360
24
  3
DIFFUSETILE
360
23
  3
FBXASSET
360
BA
  3
OPACITYTILE
360
27
  3
REFLECTIONTILE
360
26
  3
REFRACTIONTILE
360
28
  3
SPECULARTILE
360
25
  0
DICTIONARY
  5
E74
330
67
100
AcDbDictionary
280
     1
281
     1
  3
ACAD_XREC_ROUNDTRIP
360
E75
  0
DICTIONARY
  5
E72
330
65
100
AcDbDictionary
280
     1
281
     1
  3
ACAD_ROUNDTRIP_2008_TABLESTYLE_CELLSTYLEMAP
360
E73
  0
XRECORD
  5
1C
102
{ACAD_REACTORS
330
1A
102
}
330
1A
100
AcDbXrecord
280
     1
270
     1
271
     1
  0
XRECORD
  5
1B
102
{ACAD_REACTORS
330
1A
102
}
330
1A
100
AcDbXrecord
280
     1
270
     1
271
     1
  0
XRECORD
  5
1F
102
{ACAD_REACTORS
330
1A
102
}
330
1A
100
AcDbXrecord
280
     1
270
     1
271
     1
  0
XRECORD
  5
1E
102
{ACAD_REACTORS
330
1A
102
}
330
1A
100
AcDbXrecord
280
     1
270
     1
271
     1
  0
XRECORD
  5
20
102
{ACAD_REACTORS
330
1A
102
}
330
1A
100
AcDbXrecord
280
     1
270
     1
271
     1
  0
XRECORD
  5
1D
102
{ACAD_REACTORS
330
1A
102
}
330
1A
100
AcDbXrecord
280
     1
270
     1
271
     1
  0
XRECORD
  5
14
102
{ACAD_REACTORS
330
12
102
}
330
12
100
AcDbXrecord
280
     1
270
     1
271
     1
  0
XRECORD
  5
13
102
{ACAD_REACTORS
330
12
102
}
330
12
100
AcDbXrecord
280
     1
270
     1
271
     1
  0
XRECORD
  5
109
102
{ACAD_REACTORS
330
12
102
}
330
12
100
AcDbXrecord
280
     1
 70
     1
 90
1959938040
 71
     1
  1
51D1A506-7002-45BD-9E56-6F818DA33D41
311
504B03040A0000080000A054D5423DEE336E79000000790000001B0000006175746F6465736B2D64657369676E2D7061636B6167652E786D6C3C3F786D6C2076657273696F6E3D22312E302220656E636F64696E673D227574662D3822203F3E3C666F726D6174733E3C666F726D61743E687474703A2F2F736368656D612E
311
6175746F6465736B2E636F6D2F64657369676E2D7061636B6167652F323030393C2F666F726D61743E3C2F666F726D6174733E504B0304140006080800A054D542D486FD9CA0000000F4000000130000005B436F6E74656E745F54797065735D2E786D6C7D8EC10E82300C865F65E91D8A1E8C310C0EEA1BF002731658846E
311
D98AC1B77784ABF1D8FE5FBFBF75BBCE937A534CCEB38643598122B6FEE978D0B0485F9C41B54DDD7D022595594E1A469170414C76A4D9A4D207E29CF43ECE46F218070CC6BECC4078ACAA135ACF422C856C0E68EA1BF5669944DDD7BCDE7B1F8E415D77AECB980613C2E4AC91FC167A2B244592486606FC29C8FD7F045B9A
311
EF7053A7E60B504B0304140006080800A054D5429E911A87ED0000007C01000008000000636F72652E786D6C8D904D6E83301085AF62CDB632D8FC84828C2348C3097A01CB38C44AB011B6AB1EBF262152BBEB6A466FDE37337AECF83DDFD1975A9DB6A6059A1040CA483B6A33B510FC05BF033A72B65AEB7FD9001931AB16
311
3619389B561B965D92D678657C548D1DD52E0AE7940724EFB169C1C9AB9A4522828F0E774B16216F6252097D75110E418FE879448F719FBE68B502EFBBEAD41FCA010F87AAC0455F0FB8CE68813FEAEE7C3E9565D5E5154B379833AFE7D77DB92AE1D5083C2334C7E48033FA494993570DA16FA46C72C2D2CDFE070ACBF84F
311
2868E3F36C7FF78939E0343EF21870966E59C4F2082AD62D37FE03504B0304140006080800A054D54255019EA25F0000007C00000007000000636E782E786D6C4DCB3B0E80201045D1AD90E915ED2CF8AC45050C11660C8261F98AB1B07AC9C97D42D718D865D3E909258CFD00CCE24AC6E326A164D74DC0B4128928FF3260
311
38472BA13128B1252AC747C6BAB984FC68F0B87FE8960A5C09FE86CFB69FBA01504B0304140006080800A054D542D41CC23469010000020300000C0000006662782F636F72652E786D6C8D52ED8E8230107C95A67F2F50CA879CA6D4A8A74F702F50A17244684969898F7FCB87E1BC1863484A33B3B33B3BC0B6B7A646BD34
311
5DA55586A91F602455AE8B4A951976F6E27D62B4E5CC686DFF9461A44423333CC098B3D268D7CE50AE9595CA02AA74216750749DB418E5355C32DCE53FB211BE70162ABAABDF8AFC2A4AE9531F68A8E3ACB3060CA069C870627E39DF189970CE9CAB8A99AD0A98565D2A6930DFEFD2C37E959CBCD32A8DBD78BF3E79EB90C6
311
DED77A773C1E9224DD4529238398335B357777B991C2CA02F330A09117ACBC907ED36013A59B807E04C9260A1819CA1F44AE2DDE14B94AD9289CED4EB20E730A4646E2DFB61091459DE8C10FE18C0C21C26B4CF83168080442B6E25CDFF7B802D4CBDC6A13035368B750BDA89D84A9011A1F4626163A8F0D60B3A77DC2177D
311
5EF7800F285409D68485EBD9D9613A9BA6CE51B4D278BDBD21A54D23EAC5DC64713997414FE5B9AEB579474DE655C91C2619FE5EFE0B504B0304140006080800A054D5427413EFE87E0000009D0000000B0000006662782F636E782E786D6C4DCCD10AC2201886E15B91FFDCA67FB11CA86356BB8FD1DC909C866974F96DB1
311
838E3E78F87865FB593C79DBF4723128E00706C4867B1C5D9815943C5101A4D532C598FF6E40C2B058051B8396738AE5B9D368A7A1F8BCAA77E1B1A3395F50DC98A01D379C9E6A6668D7604F598FD7E6880691D7506959FD4AEB6E61FD05504B0304140006080800A054D5422555F9A22C0100001402000031000000666278
311
2F42374332384530382D413142312D343630422D413932462D3046324439333242323231362F636F72652E786D6C8D515B6EC32010BC0AE22B55850DD8719C0813C56D73825EC0B1498A1283C5A3CAF1BBD48ED4FEE58745B333B3A35DB1BF8F37F4AD9CD7D63498651423657A3B687369700C675263B497C2591BFED03032
311
DDA81A9C602CC5C5D9382D506F4D5026006AECA016B0F35E058CFA1B7C1AECFB2F357659170330FC359BBAFEDA5D54C63268034F0A1F1C0440F390F462D96EDE78FD416B72602D2365455B72D8F223A147FEBE2D78CB39AB443E0BA588510F8B5C0F10479FB572CF9A24B114418F8FF8BD535D5003969CB282D08A70F6C9E8
311
AED8EC287BA5EB5D41459EE8FF44711A9E14456D42C197B8B3CC63C9443E37A4186C3CDD1E61D47DB22EA0346FE555FF8225CD2016ABCA722DF2990A0B00CFAA5C3C7DB00E16BCBA9E80CD80958CAB528A3CDD08CAEF01A1A67BCA1F504B0304140006080800A054D542EA1A7D674E01000033030000300000006662782F42
311
374332384530382D413142312D343630422D413932462D3046324439333242323231362F636E782E786D6CD593BD6E032110845F05D146F783CF71228BC3528A3C418AB418D6313107277EA2F8EDB3D8D871E322651A749A1D66569F38BEF99E2CF982108D7723656D4F0938E5B5711F23CD69D73C53B2113C789F6E6C9438
311
39C1488B4C05FF083ECF55D2B093D92654AD71872A06883E070511E5729358AFA4C500704D4611A62D680D9A5C8DF8B58380ABA0B83D92B407F2FAF24EFCF613548ABC2B298277A543F072D6A61B1325CACA18471AD51E26D9CA9CBC867868B54CB265EDA5EBCE4EBF49A45CB854E66048291F6939A9A81BB5C8917738143C
311
A680F4AA291D67A042CEB3354A2684DC9D8C678FE0D9B8B45A56AF41F001DD6C352C9718769A099ECC04D5A102C8049A8A45CF86A65F350BF6C6FAF5F0B4EED943FFB81E7ADE15BBE05BEF6DBD843110FC4C9477095CA282F1AE8CEFE1AB3EA24D40D63E1CFF001201D4D6339D6BC67FE6D39DDE37E20AF817881F504B0304
311
140006080800A054D542D7FF64EFA305000081100000340000006662782F42374332384530382D413142312D343630422D413932462D3046324439333242323231362F6F626A656374732E786D6CAD575B6FDB3614FE2B82F6B23D58B27C499341D1E0D84D6174698B1A2DF660C0A0244AE1425D4052A9B35FBF8F12254BAE
311
9D7A435F74E1E5F09CEF7CE742FF8F7DC6AD672A242BF25BDB73C6B645F3A888599EDEDA954A46D7B6F547E08BA250BD65B695938CDEDA7AD80EFC5414556986629A908AABA3D1FBBBBF2C19D19CDA56C48994B7B68C1E69461C52A922A6F2C98989224E9AEC1DCF69160EC5A682948F47424B2268AEA029C67348B11AA5BC
311
E1EFD87603DFD5F381AF9F66D5F4FC2AB7B667783ECBA52279F4DD614762A6DE6CF57632BF19CD67B3E9687635F14677F777AB91F7663A5E5E2D97378BB73738582A0149461341133B78076C048B7CB7990AFC8AE56A3A314B8C835C419F99F6941D4C2CCF779B359D75C6C853EA47459ED3A8C60A68D4F619D1312D691EC3
311
E78C4A68D643683CFCF5348EBDE9A9FE3747F6872F43A0BFA327A8D5BD7DF7352DC2BF6182BC84414252CDC0064B6368C3D5F101E1B028B89963D2CA88A282116E71160A225EEC004BF592C01F88D14C163A1AB40576002F34D343BA208C7ECCF3535A2615E79AC6765047C10EB14295AC3563FF5071D0BE8F0C7482AF341B
311
AE8D41EAA5A47670D350E4FA884D0D9056C2490A97C34CBD733A393274A9E374BDB283F7F7E17EA363F7F4E1A5284A2A94A60FA8D53AAE7D6B948C4EDE459ED31BEC23550EA07C06F21F10EA0755E037C1F6B3FDCC9CA204C96552880CBEB1C6D6688CC7D8F2EAA7FEEE7DF96EB779E8BD7378C2D91AAA9F80E7D086BE2F7B
311
7006FE33085F88A9316D13118EB4F1C07200A44962F10243C8C349B8B78335B21CB23276111E783019EA3EE3D3778D18248AFAA4DE3B07964769F182040DD86A46428D86FC46C1839FBE4B67F5C166D93978E73F85AE8BD5E6FDA6120989E88389E9154D58CE144ADC81377D8506980F2C7AA22FDF0A11C3D0EFF1DEF4F1CE
311
CC5112686BCC35F0699BD3F5CFE1E4C10111F6A5854E37FE0F4E8011BAB0F6E43F301951CE494E8BAA3DF7D5FA81B2D140AC835D33B92B3087C202D23433473188221D09566A10BB6AD5254DE78C755FD61FC0483BB87BF993BCF4B35778C8BD51C10BB10B5F764D5A3A09F5D721B70D06AE9602BAD741D2C6BF017D17B324
311
A92492E0095CBFAE977DDFE9B48014D14A6DA26506FB115C4418D2B67251AD0541252DF21D43DD44DC9D3CA02F1F901A06D402CF692C294F768CF32ADB258CA31AED32529E81E3FFEB1F5659B9235951E5EA8CEC81EAA80E43DD07EC95DF888A1EED6053BF4777C8BD318DCF9041D79213580D5C3BF756DE623EBE1ABD198F
311
27A3D91CADD3CDDBF9D5E8EAFEDABB5E2DA6D3D5EC8066DD44057E5B6AFA110D2FA1B4F99560C67D5FD6881F9304ECE08128B97DD78467FBFEB276D00BFB2EF6A05E761B17F133FA3E1AFF58C061E54941EBACE434A3B9223A861EF407FF4CD0670C9469C6D71949E905523EBEDB1C1983910BF67DD2F14EBF1DED35A34B1D
311
902785A8C72A0B73C2F8D1C6B441D229F3D4E0D7FAA47B3785A6FDD57FC631E84C65C1598C3C185B292D32AA900D2F284222A312D4EBF7F4B1B97B5CB0FBB9E9101509396D3579246892B9445880E455A486E3D62F68EA745F756BA3DC3A4F78984C615BE0CCAD8D265DB1884A274481D6AD502D1C5CEA77F2E02CC9538E5E
311
BBD9D4FD77BB34368392DC2DB9A47F32763529DC18803452A26F404304EFD4CA047EAD9B998FFE93E1AD3A1651F80C2BD5D97218E88CA98F4188364699DB029A982773F41E81FABA599E53AF192072D12DEB55123452478A88B4BE2968FD8C4A8BD527171D8AB5FE6895BC4AE1CBCB258D0405992B1DE06011586164964481
311
AACBDFB79F44819B6C66DD3350C0FA757F7DF5DB76596459913743DB85B90F5B9B47DC6EE32D9203D5D712B99D8CBDC9B6BE0E981BCA2E24923A24964F18806705EB801EB81FBC6CEE8CC89CCD44B7CED5AE3862E87A6599C236835043977E6ED5E0A0F1C8A98518D2574A1D31FD05E5AB3702B75E0A15047AF9E05F504B03
311
04140006080000A054D542000000000000000000000000350000006662782F42374332384530382D413142312D343630422D413932462D3046324439333242323231362F76657274696365732E62696E504B0304140006080800A054D542F270F1330600000004000000360000006662782F42374332384530382D41314231
311
2D343630422D413932462D3046324439333242323231362F747269616E676C65732E62696E636660600000504B0304140006080000A054D542000000000000000000000000370000006662782F42374332384530382D413142312D343630422D413932462D3046324439333242323231362F617474726962757465732E6269
311
6E504B0304140006080800A054D542D5987DFC8F00000041010000360000006662782F42374332384530382D413142312D343630422D413932462D3046324439333242323231362F6469726563746F72792E786D6C858F410EC2201045AF4266AF15DDB800BA74E7C21B903225242D6328188F2FA5C4183471359997F9FF81
311
E89FF3C41E1816475E02DF1F80A11FC8386F25A438EECEC07A250251FC3803E6F58C12560C4AD840E95E91C151A72936F496F35732D860FE635F62C8F2DA16B505C545B74125BAA2FA9E05D7CC053D063734D5C7665FD55B6B8D15D5E9BFEAFD8490FFA45E504B0304140006080800A054D542F67B47B6FF000000A0010000
311
3B0000006662782F42374332384530382D413142312D343630422D413932462D3046324439333242323231362F7265736F75726365732F636F72652E786D6C8D504B6E833010BD0A9A6D65B0214041C651922627E8052C33A156821DF953F5F835814AEDAE9B99D1FB689E1EDF7FCDF7EC139DD7D60CC0720A191A65476DA6
311
0162B89257C8F6823B6BC32F196446CE38C00283E093B3F1B141CA9A802624D4D81137507A8F0132754FC7005E7DE02C73194352F85BFE90EA2627CC599EE8A413DC07970264EB93658270E86D740A3D2F5656F018F5B869F4987EEAAB4607E278684FC7A63E934BD3EEC8EED85D4857B21D79EB0EE7F3A9AEDB43D5F26231
311
0B1EF4FC93513994014710256515A10D29D93BA37DD5F694BDD0BAAF282F16F91F537C8CFF34456D42556E71579B07C15290272178B1F495D6B3CCB4976EC537504B010214000A0000080000A054D5423DEE336E79000000790000001B00000000000000000000000000000000006175746F6465736B2D64657369676E2D70
311
61636B6167652E786D6C504B01021400140006080800A054D542D486FD9CA0000000F40000001300000000000000000000000000B20000005B436F6E74656E745F54797065735D2E786D6C504B01021400140006080800A054D5429E911A87ED0000007C010000080000000000000000000000000083010000636F72652E78
311
6D6C504B01021400140006080800A054D54255019EA25F0000007C000000070000000000000000000000000096020000636E782E786D6C504B01021400140006080800A054D542D41CC23469010000020300000C000000000000000000000000001A0300006662782F636F72652E786D6C504B01021400140006080800A054
311
D5427413EFE87E0000009D0000000B00000000000000000000000000AD0400006662782F636E782E786D6C504B01021400140006080800A054D5422555F9A22C010000140200003100000000000000000000000000540500006662782F42374332384530382D413142312D343630422D413932462D30463244393332423232
311
31362F636F72652E786D6C504B01021400140006080800A054D542EA1A7D674E010000330300003000000000000000000000000000CF0600006662782F42374332384530382D413142312D343630422D413932462D3046324439333242323231362F636E782E786D6C504B01021400140006080800A054D542D7FF64EFA305
311
00008110000034000000000000000000000000006B0800006662782F42374332384530382D413142312D343630422D413932462D3046324439333242323231362F6F626A656374732E786D6C504B01021400140006080000A054D5420000000000000000000000003500000000000000000000000000600E00006662782F42
311
374332384530382D413142312D343630422D413932462D3046324439333242323231362F76657274696365732E62696E504B01021400140006080800A054D542F270F13306000000040000003600000000000000000000000000B30E00006662782F42374332384530382D413142312D343630422D413932462D3046324439
311
333242323231362F747269616E676C65732E62696E504B01021400140006080000A054D54200000000000000000000000037000000000000000000000000000D0F00006662782F42374332384530382D413142312D343630422D413932462D3046324439333242323231362F617474726962757465732E62696E504B010214
311
00140006080800A054D542D5987DFC8F000000410100003600000000000000000000000000620F00006662782F42374332384530382D413142312D343630422D413932462D3046324439333242323231362F6469726563746F72792E786D6C504B01021400140006080800A054D542F67B47B6FF000000A00100003B000000
311
00000000000000000000451000006662782F42374332384530382D413142312D343630422D413932462D3046324439333242323231362F7265736F75726365732F636F72652E786D6C504B0506000000000E000E00800400009D1100000000
310
504B03040A0000080000A054D5423DEE336E79000000790000001B0000006175746F6465736B2D64657369676E2D7061636B6167652E786D6C3C3F786D6C2076657273696F6E3D22312E302220656E636F64696E673D227574662D3822203F3E3C666F726D6174733E3C666F726D61743E687474703A2F2F736368656D612E
310
6175746F6465736B2E636F6D2F64657369676E2D7061636B6167652F323030393C2F666F726D61743E3C2F666F726D6174733E504B0304140006080800A054D542D486FD9CA0000000F4000000130000005B436F6E74656E745F54797065735D2E786D6C7D8EC10E82300C865F65E91D8A1E8C310C0EEA1BF002731658846E
310
D98AC1B77784ABF1D8FE5FBFBF75BBCE937A534CCEB38643598122B6FEE978D0B0485F9C41B54DDD7D022595594E1A469170414C76A4D9A4D207E29CF43ECE46F218070CC6BECC4078ACAA135ACF422C856C0E68EA1BF5669944DDD7BCDE7B1F8E415D77AECB980613C2E4AC91FC167A2B244592486606FC29C8FD7F045B9A
310
EF7053A7E60B504B0304140006080800A054D54258B5FF25EC0000007C01000008000000636F72652E786D6C8D90D18E832010457F85CCEB0605B5EED6204D6BED17EC0F10A096B4821168FAF98BAD4D76DFF6692677EE99995CB67B8C3774D7B337CEB6403302485BE994B1430B319CF117A01D67B373E1970D9015A36E61
310
9181B36176715A25E96CD03624D53AA5575178AF0320794B4D0B5E5EF42832114372F86B3609791583CEE8BB4B708C46A1D711A3D23E73367A064EEABA23A7728BE9FE74C415E90E785B1D6B5CF5FDA6DFF7A43FD41DCB1798B360C6F77D396B11B4025E105A6252E3827E53D2949F0DA11F64D39484E58BFD0F1427F54F28
310
1A1BCA627DF78579E0343DF21C70962F59A4F20C2AD52537FE03504B0304140006080800A054D54255019EA25F0000007C00000007000000636E782E786D6C4DCB3B0E80201045D1AD90E915ED2CF8AC45050C11660C8261F98AB1B07AC9C97D42D718D865D3E909258CFD00CCE24AC6E326A164D74DC0B4128928FF326038
310
472BA13128B1252AC747C6BAB984FC68F0B87FE8960A5C09FE86CFB69FBA01504B0304140006080800A054D54259C347DF68010000020300000C0000006662782F636F72652E786D6C8D525B6E833010BC8AE5DF0A6C1EA14D641CE5414ED00B38E05014B091B1518EDFE511D154511421196B66677776806D6F4D8D7A69BA
310
4AAB14073EC548AA5C17952A53ECECC5FBC268CB99D1DAFE29C3488946A678803167A5D1AE9DA15C2B2B950554E942CEA0E83A6931CA6BB8A4B8CB7F64237CE12C547457BF15F95594D20F7CA0A18EB3CE1A3080A621C389F9E57C6364C23973AE2A66B62A605A75A9A4C19C26C9819EA2B517EC4E472FA687BDB78E8F8917
310
67D92ADB6534DB270746063167B66AEEEE7223859505E6210D228F265E187C0774137D6E68F041579B883232943F885C5BBC297295B25138DB9D641DE6011819897FDB42441675A2073F8433328408AF31E1C7A0211008D98A737DDFE30A502F73AB4D0C4CA1DD42F5A27612A652343E8C4C2C741E1BC0664FFB842FFABCEE
310
011F50A812AC090BD7B3B3C374364D9DA368A5F17A7B434A9B46D48BB9C9E2722E839ECA735D6BF38E9ACCAB92394C32FCBDFC17504B0304140006080800A054D542F3DEAF277E0000009D0000000B0000006662782F636E782E786D6C4DCCD10E82201886E15B61FF39890A151BE0A0F43E5CA2632234C2D6E5A7CD838EBE
310
EDD9B757349FC5A3B74D2F178384F24400D9F088830B9384358FF80AA85122C598FF6E8042BF58093B8312538AEBF3A0C18EFDEAF3A6DE85F94053F39299D6E01BD11DA6D59D63ADBB0B6EDBEACC28E3A626140A258A5F69DB3DACBE504B0304140006080800A054D542DA4B43E22D01000014020000310000006662782F42
310
333931354245422D433041462D343244392D414146372D4545323635343539423330342F636F72652E786D6C8D515B6EC23010BC4AE42FAACA891D278120C788B470825E2024062C881DF95171FCAE9B20B57FFC78ADD999D9D12EDF3DC67BF22DAD53463788A6042552F76650FAD2A0E0CF7883929DE0D618FF878612DD8D
310
B2411146825FAC09D302F5467BA93DA0DA0C72013BE7A447497F874F835C7F95639776C103C3DDD2A9EB6FDD45A6348536F00477DE4280641E125F245A56D3B23DB4F883EC8FB8C83F6BBCDF1FD7F870C8ABB228EB96918267B350F010D4B0C8D50071D45949FBAA49140BEED5F88CDF5BD97939209113CA30A9704EBF28D9
310
B2F596D077526E19E159A4FF13856978511494F62C5FE2CE328704E5D9DC107C30E1747F86918FC9589FC4792B27FB3724484A68BE298A1A24331516009E55B1783A6F2C2C78753B019B012B1A5785E059BC1194DF03428DF7143F504B0304140006080800A054D5428CBDB2705601000033030000300000006662782F4233
310
3931354245422D433041462D343244392D414146372D4545323635343539423330342F636E782E786D6CBD93CD6EC32010845F0571ADFC439CA6518489D4439FA0875E316C1A1A0C16E0AA79FB2E094973C9A152D50BB2668799D527CCB75FA3259F10A2F1AEA7AC6E2901A7BC36EEBDA773DA556B4AB68207EFD38D8D1227
310
47E86996A9E0EFC1CF539134ECE46C13AAD6B8431103443F070511E57C9358AFA4C50070D58C228C03680D9A5C8DF8B58380ABA0381C49DA0379797E237EF80095226F728AE04DEE103C9FA5E9C64489B232C69E46B58751D6724E5E433CD45A2659B3FAD27567A79F24922F5C2AE760482EEF693EA9281BD5C8913738143C
310
A680F48A291D27A0424E93354A2684DC9C8C678FE0B37169B52C5E83E003BABBC56ABDC6B0D34CF06446280E154026D0542C5AD655EDAA5AB057D66EBAA74DCB1EDAC74DD7F226DB051FBCB7E512C640F01351DE2570890AC69B3CBE87AFF888360159FB70FC054804505ACF74AE197FC987ADBAE5F21FF934A7F78DB802FE
310
05E21B504B0304140006080800A054D542FD30E3FB620700009A1B0000340000006662782F42333931354245422D433041462D343244392D414146372D4545323635343539423330342F6F626A656374732E786D6CED59DD739B3810FF5718EEE5EEC1D8C4769ADC103A49DC743CBDB49DFADAB907CF3032C84417211849A4
310
F1FDF5B7FA00033109BEE6DEFA6003425AEDFEF6534BF0F631A3CE03E682E4ECC2F5BD89EB6016E70961E9855BCAEDE8CC75DE8601CF73D998E63A0C65F8C255C36E18A43C2F0B3B94E02D2AA9EC8CDE5CFDE5881833EC3A3145425CB822BEC319F25029F3048B7B2F411279E9F6D1F33D33B14D36E5A8B8EB102D10C74C02
310
A730CE808A6398F2DB8F13771C0663F53E0CD4BF9D351D346BD63F6BACA56E7349989088C54F58EA90990E6269EACF16EF4EE6E7A3F96C361DCD4E4FFCD1D5CDD562E4BF994EAE4FAFAFCF2FDF9D037B9B3CA756A604179825A0BF9D1BFAC158BDA945B7081CE23ACE19C3B10612A0D2627509122C60AB067C93F6A3AF246A
310
BCD612369E67EABD65A1313C6D53E99B350C88165D10C46E57495C5D9BF2E59BBF417031C428B9C012B8159283762D3C1CBCC20D27C1D88C86C166AF0B229C0C49CC09A20E251B8E382805A6AA296160165832CA3938907294045A73E675DBB6C0335F769D435C6E4B4A9567B8A176AC08DC0F4BA13923FF60BEE7BE890CF0
310
04D29684C933CBA5DC15D80DCF83B11E0C0375999ED8970648674B512A3422E66D47D06BE5FACB851B7EB8D93CAE543838BC79C1F30273A98C4EE951F305866CAF0A25BBAD3F48736A01086340B52BF7A07C01E43F42F4D8B3027AE3E471F638B37325474C6C739E816E9C89339AC0DFC4F1F5BFBA6FDC05E37A715B7B7D78
310
829B2AA8CE7E1CCFB60C1A2BCB7F03CE30780083CFF9D4BE5AC588823DDF120600292371680E4310DAB79B47375C42E084400FAB100D7D1019D87D80DB606CC9ECB552B997F53A0688DA3DA6439404B0698B04367AF4F41EB20727F15E4D4D11FBE09DBF8AB95E2E561F5625DFA218DF5A9F5EE02D614442D63CCC500BF396
310
44F778F73DE70908FA14EF5513EFCC6E25006D85B9023EAD40500FFB9D5B1BC4B02ECD55B8095ED8018450B9BA41FF968818538A18CECB6ADF3ABA2943AD3DDED60C6E7862209E9E744C98E307A2AA0A709AFD8C16A390F7634E0A05A21BBE3792D541D3EB91EEEBF22358643DBF67D69241E86588FEA983D6011C5A965D21
310
6D81A805DEECC3799CD39C479B5D64229D0BB504B0D1F6966F2DA210EB8D921415F020ED775548498DB45142B6DB52405C3DC0E2B7E575D31C26DED49F3BCDFF8E33CE20DA82EF226EFDAEB347443294E2688B92BEED9ABBD5B48526D9439AE32D05B9C80391BB08C96892E0F418688E227EFEAAD4539A0B41181690AF0E82
310
DF4463E2412031DAAC58565AED004D44946189E8310828323DE0EAB4A36BDC184A879779ACADF7398D3589FE4F16C111D492398B0894A290435E64DCF7E61043DAE81A943BF882B555B4B518B4841222DE45DF3149EFE431A81BF23DB8C77024296594172806B31E40F689AF28A57678DFA0F85EE58F282EE96B1988C0741B
310
114ACB2C821F6170F218E2DA75607A1685067113FB24CEA02843B2E44336399D4F9EEC636A866E086C6CB42514C27694A1A207F55640D4F58853836FA9F7287553664584B2BC64830CC59B76BDC992EFAA55911DC8AF2A15A16CAC085B82614098ACB36A15B3C1D475600537D2816A17099415D49CC25E483C7EED4D9A72EF
310
06DCFAE9EB6E9041E1D7A3BD66449D5530581E5B8581F88E647CE7862B7D1D5D41FD9DE0649FEAAB5AB3590102622A92979C58157D5D4279636B3437BC4552ACDF9BAC5B5DBF2E3DE87E04635803B54BBD70A980CE3093485526B7EA867E4110825B34CCF852E5D463A85C2689AE1A11BD217DEA6C9511AD4D33E2157798E5
310
19FCD89AB09896095EA344DC47B792462BA258B7527A19A9307E56C04FEF571D78606480489F558187BF77D6DAD16B552E1D2422EFCA6CC3108120D8122D35BAF10A965A8D545AAEAFEA4C017517189855F1ECE7C9A2D98EF879B248AD61FCD0C9E26AF707DA35FB228D741E2BBB3EEA1850E72745E5358E01BAED5053ADB3
310
8849E6567EEB4C1104C52ACA0FAEC6AAA06108F671FC9FB3765F1634DB75F83F2E6BFB4F2A8EA3B24A6BB2EA521DA85C97CD1C36F717FEE57C723A7A33999C8C6673E8CD9EBF9B9F8E4E6FCEFCB3C5E574BA98D57A32C4C3A00E663A77C1B3096AD5B07AB218405756E49424709A4F9C1443CC9770A61FD03EE71916903C9B
310
CDEEC436E507AC7E307D4E893614579CDC2168105301691DC42863D91E777E81D6A48483F6850B4D23EF1EFEAC55BA0E649E0B175A0592C458781B6833A9869E260E2957E77E4B0C021962A94A896651FD5CAF52D8B4C27F3D65481AB072B57A1850B815D0FD6A7528346F96A7F828C12B761C24E176534AA8D68C2CFB815A
310
18BDCD5EFD46364AD8BDDDFA115CF779B17C4FCF692132E893C1B34660A88E24E2A9EE772BC62C4B978BCF63E8B339CB4F4E41CB1474399CD2886330E6521554604560159666812498EAF5EFEBCF3C874F3C99A3AB22E7D7C7B3D3DFD6D77996E5CC0CAD2FE15496C087226775079F7D9235140F5835D7C5FA64E29FAC7553
310
DBF6D9A30D12D85355110C54C58412A4637260974F1A54B67D3956AAE84C5F2E1C1B44A11960ECE8498FD77CE472C087D4E714E531DACF2B699FED6B8FF554B0090E1DE9F05F504B0304140006080000A054D542000000000000000000000000350000006662782F42333931354245422D433041462D343244392D41414637
310
2D4545323635343539423330342F76657274696365732E62696E504B0304140006080800A054D542F270F1330600000004000000360000006662782F42333931354245422D433041462D343244392D414146372D4545323635343539423330342F747269616E676C65732E62696E636660600000504B0304140006080000A0
310
54D542000000000000000000000000370000006662782F42333931354245422D433041462D343244392D414146372D4545323635343539423330342F617474726962757465732E62696E504B0304140006080800A054D542D5987DFC8F00000041010000360000006662782F42333931354245422D433041462D343244392D
310
414146372D4545323635343539423330342F6469726563746F72792E786D6C858F410EC2201045AF4266AF15DDB800BA74E7C21B903225242D6328188F2FA5C4183471359997F9FF81E89FF3C41E1816475E02DF1F80A11FC8386F25A438EECEC07A250251FC3803E6F58C12560C4AD840E95E91C151A72936F496F35732D8
310
60FE635F62C8F2DA16B505C545B74125BAA2FA9E05D7CC053D063734D5C7665FD55B6B8D15D5E9BFEAFD8490FFA45E504B0304140006080800A054D5424B1ED1BDFE000000A00100003B0000006662782F42333931354245422D433041462D343244392D414146372D4545323635343539423330342F7265736F7572636573
310
2F636F72652E786D6C8D504B6E833010BD0A9A6D65B081D0141947092127E8052C33A156828DFCA97AFC9A844AEDAE9B99D1FB689E1E3F7CCDF7EC139DD7D674C0720A191A65476DA60E62B8923D6407C19DB5E1970C322367EC608541F0C9D9B86C90B226A009093576C40D94DE63804CDDD3D181571F38CB5CC69014FE96
310
2F52DDE48439CB139D7482FBE05280ECF9649D201C7A1B9D42CF8B272B788C7ADC347A4C3FF555A303419BA6A7976A4FD8F1722635ED4FE4AD3E37A41E86DD701CE8706A7A5EAC66C1839E7F322A8732E008A2A4AC22B421257B67B4AD5E5BCA5EE8AEAD282F56F91F535CC67F9AA236A12AB7B84F9B07C15290072178B1F6
310
95D6A3CCB4D76EC537504B010214000A0000080000A054D5423DEE336E79000000790000001B00000000000000000000000000000000006175746F6465736B2D64657369676E2D7061636B6167652E786D6C504B01021400140006080800A054D542D486FD9CA0000000F40000001300000000000000000000000000B20000
310
005B436F6E74656E745F54797065735D2E786D6C504B01021400140006080800A054D54258B5FF25EC0000007C010000080000000000000000000000000083010000636F72652E786D6C504B01021400140006080800A054D54255019EA25F0000007C000000070000000000000000000000000095020000636E782E786D6C
310
504B01021400140006080800A054D54259C347DF68010000020300000C00000000000000000000000000190300006662782F636F72652E786D6C504B01021400140006080800A054D542F3DEAF277E0000009D0000000B00000000000000000000000000AB0400006662782F636E782E786D6C504B01021400140006080800
310
A054D542DA4B43E22D010000140200003100000000000000000000000000520500006662782F42333931354245422D433041462D343244392D414146372D4545323635343539423330342F636F72652E786D6C504B01021400140006080800A054D5428CBDB27056010000330300003000000000000000000000000000CE06
310
00006662782F42333931354245422D433041462D343244392D414146372D4545323635343539423330342F636E782E786D6C504B01021400140006080800A054D542FD30E3FB620700009A1B00003400000000000000000000000000720800006662782F42333931354245422D433041462D343244392D414146372D454532
310
3635343539423330342F6F626A656374732E786D6C504B01021400140006080000A054D5420000000000000000000000003500000000000000000000000000261000006662782F42333931354245422D433041462D343244392D414146372D4545323635343539423330342F76657274696365732E62696E504B0102140014
310
0006080800A054D542F270F13306000000040000003600000000000000000000000000791000006662782F42333931354245422D433041462D343244392D414146372D4545323635343539423330342F747269616E676C65732E62696E504B01021400140006080000A054D542000000000000000000000000370000000000
310
0000000000000000D31000006662782F42333931354245422D433041462D343244392D414146372D4545323635343539423330342F617474726962757465732E62696E504B01021400140006080800A054D542D5987DFC8F000000410100003600000000000000000000000000281100006662782F42333931354245422D43
310
3041462D343244392D414146372D4545323635343539423330342F6469726563746F72792E786D6C504B01021400140006080800A054D5424B1ED1BDFE000000A00100003B000000000000000000000000000B1200006662782F42333931354245422D433041462D343244392D414146372D4545323635343539423330342F
310
7265736F75726365732F636F72652E786D6C504B0506000000000E000E0080040000621300000000
  0
XRECORD
  5
17
102
{ACAD_REACTORS
330
12
102
}
330
12
100
AcDbXrecord
280
     1
270
     1
271
     1
  0
XRECORD
  5
16
102
{ACAD_REACTORS
330
12
102
}
330
12
100
AcDbXrecord
280
     1
270
     1
271
     1
  0
XRECORD
  5
18
102
{ACAD_REACTORS
330
12
102
}
330
12
100
AcDbXrecord
280
     1
270
     1
271
     1
  0
XRECORD
  5
15
102
{ACAD_REACTORS
330
12
102
}
330
12
100
AcDbXrecord
280
     1
270
     1
271
     1
  0
XRECORD
  5
24
102
{ACAD_REACTORS
330
22
102
}
330
22
100
AcDbXrecord
280
     1
270
     1
271
     1
  0
XRECORD
  5
23
102
{ACAD_REACTORS
330
22
102
}
330
22
100
AcDbXrecord
280
     1
270
     1
271
     1
  0
XRECORD
  5
BA
102
{ACAD_REACTORS
330
22
102
}
330
22
100
AcDbXrecord
280
     1
 70
     1
 90
1959938040
 71
     1
  1
99749194-08AF-4FEA-90A2-C085F3943FD1
311
504B03040A00000800009D54D5423DEE336E79000000790000001B0000006175746F6465736B2D64657369676E2D7061636B6167652E786D6C3C3F786D6C2076657273696F6E3D22312E302220656E636F64696E673D227574662D3822203F3E3C666F726D6174733E3C666F726D61743E687474703A2F2F736368656D612E
311
6175746F6465736B2E636F6D2F64657369676E2D7061636B6167652F323030393C2F666F726D61743E3C2F666F726D6174733E504B03041400060808009D54D542D486FD9CA0000000F4000000130000005B436F6E74656E745F54797065735D2E786D6C7D8EC10E82300C865F65E91D8A1E8C310C0EEA1BF002731658846E
311
D98AC1B77784ABF1D8FE5FBFBF75BBCE937A534CCEB38643598122B6FEE978D0B0485F9C41B54DDD7D022595594E1A469170414C76A4D9A4D207E29CF43ECE46F218070CC6BECC4078ACAA135ACF422C856C0E68EA1BF5669944DDD7BCDE7B1F8E415D77AECB980613C2E4AC91FC167A2B244592486606FC29C8FD7F045B9A
311
EF7053A7E60B504B03041400060808009D54D5425B631F8DEB0000007C01000008000000636F72652E786D6C8D90416EC3201045AF82D856D8603B8E6D61A22AC527E8051010072506CB40D5E31712476A775DCDE8CF7F33A34F4FDFCB1D7CE9CD1B6747480A0C81B6D22963E711C670411D04274637E7C22F1B04562C7A84
311
59868CCE9B8BEB2E496783B621A9D629BD8BC27B1D2090F7D48CD0CBAB5E442162480E7F2B56216F62D6057975098ED128F03C6254DA672E466F90BDF3BA99704BD084F9841ADE56A83F1F39EA78CFFB067F1CC999D032C38C06B3BCEECB4D8BA01564152635C22DAAC827C143DD0E87EE0D1F861AD332DBFF407155FF84A2
311
B1A1AEF6779F98872C3FF218305AE62C527904956ACE8DFD00504B03041400060808009D54D54255019EA25F0000007C00000007000000636E782E786D6C4DCB3B0E80201045D1AD90E915ED2CF8AC45050C11660C8261F98AB1B07AC9C97D42D718D865D3E909258CFD00CCE24AC6E326A164D74DC0B4128928FF32603847
311
2BA13128B1252AC747C6BAB984FC68F0B87FE8960A5C09FE86CFB69FBA01504B03041400060808009D54D5421F554E9368010000020300000C0000006662782F636F72652E786D6C8D525B6E833010BC8AE5DFCAD83C421E328EAA949CA01770C0A128602363A31CBFCB234A5345518464AC999DDDD901BEBFB60D1A94ED6B
311
A3331C060C23A50B53D6BACAB07767B2C1682FB835C6FD29C348CB56657884B1E09535BE5BA0C268A7B403549B522DA0EC7BE5302A1AB864B82F7E542B03E91D54F497A093C545562A0803A0A14EF0DE593080E621E389C5F974E574C605F7BE2E17B62E615A7DAE95C5E2338F93234B437264F99124791A91ED619D934DBE
311
CDB709FB5A878790D3512CB8ABDB9BBBC22AE9548945C4C298B09444E177C87671BA5B6D3ED86A17334EC7F20791EFCA3745BED62E8E16BBB3ACC762343211FFB685881CEAE5007EA8E0740C115E53C28F41432010B293A7E6B6C705A04115CED80498D2F83B35C8C62B98CAD0F4703AB3D0796A009B3DED13BDE8F3BA077C
311
40A92BB0261D5C4FDE8DD3F93C7589A253960CEE8AB4B1AD6CEEE6668BF7F33EE8A9BC308DB1EFA8E9B22A5DC2A4E3DF2B7E01504B03041400060808009D54D5424F7453A77E0000009D0000000B0000006662782F636E782E786D6C4DCCDF0A83201C86E15B91DFB9FD59733350C361DE472C0BC974988E5DFE6A74B0A30F
311
1E3E5ED67D5687DE266E36780E75510132FE1946EB670E394D9802EA048B21A4BF1B203FAC86C3C120D81C437E9D349A69C82EEDEAAC5F4E944A53292F0ADFDA46E36BA309968AF4F87197ADEE6B4D5545A014ACFC95F63DC2E20B504B03041400060808009D54D54289EB16DF2D01000014020000310000006662782F4144
311
4638414132442D363933462D343346352D414435452D4237413946453146384430352F636F72652E786D6C8D515B6EC32010BC0AE22B55850D7ED58930912BC727E8055C20294A0C168F2AC72FD48ED4FEE58745B333B3A35D7ABCCF37F02DAD53467790641802A9B9114A5F3A18FC19B5101C19B5C6F83F3408F434CB0E26
311
18327AB1262C1BC48DF652FB886A23E4064ECE490F01BFC54F071DFF92F3944DC14786BB66CBC4AFD34566248BEDC863D4791B038075487A21EB87B1EDFB6240CDBE1C51558E35EA87FA84DEDFFAFD7822633BE09AE6AB90D11094D8E44AC438EAACA47DD6248919F56A7EC4E7564E5E0AC80A4C4A841B54900F820F6573A8
311
DB575C1F4A4CF344FF270A8B78521494F665B1C55D650E3242F3B5C1A830E1F3F60823EF8BB11EA4793B27F90B6438C38454FBA2A968BE52E302A267536D9ECE1B1B17BCBB7E4636896B4AC64DC5689E6E14CBEF01634DF7643F504B03041400060808009D54D542C40044814E01000033030000300000006662782F414446
311
38414132442D363933462D343346352D414435452D4237413946453146384430352F636E782E786D6CD593CD6E022114855F85B06DE6CF51630C8349177D822EBA65E0AA540626FC34F5ED7B51B46E5C74D90D999C7B38E7E60BC376DF93215FE0837676A05DDD5202563AA5ED61A029EEAB0D253BCEBC73F1C1468915130C
311
34CB94B38377692E9282BD4826A26AB43D15D14370C94B0828E79BC438290C0680AD128A308DA014287237E2D71E3CAE82E27826F108E4EDF583B8F113640CACC9299C35B983B37C96A6071325D28810061AE41126518B149D8270AA9588A2EEEA5BD7939D7E9348BE70AB4C5E935C3ED07C525E36AA91236B70C859881EE9
311
15533CCF40B99867A3A58808B9B918AF1ECE92B671BD2C5E8DE03DBABB75BF5C62D865C659D4131487F4202228CA176DD757EDBA5A74EF5DBBEDD7DBD5E6A55D6DFB9635D9CED9E89C29973006BC9B897436828D9477ACC9E367F88A8F28ED91B5F3E73F804400A5F54AE79EF19FF93497F78DB83CFE05FC07504B03041400
311
060808009D54D542B721C1AEA305000080100000340000006662782F41444638414132442D363933462D343346352D414435452D4237413946453146384430352F6F626A656374732E786D6CAD57DB6EDB3810FD1541FBB2FBE08B6CA78D178A0AC7AE0BA3485BD468B10F060C4AA2146EA80B482A71F6EBF750A26E8E9D78
311
177DB12C6A389C3973E642F7C321E1D623159265E98DED0CC7B645D3200B591ADFD8858A06D7B6F5C1734596A98E986DA524A137B65EB63D371659919BA59046A4E0EA68757DFB9725039A52DB0A3891F2C696C13D4DC890142A0BA97C18864491611C1D86CEB012ECAB8D05C9EF8F94E644D054C152ACA7D062554639FDD7
311
B13DF2DC91FEEEB9FAD7484DCF4B8D4A7FFAE7B3542A92062F0E3B52337566AB8F93ABF9E06A369B0E66EF26CEE0767DBB1A38EFA7E3E5BBE572BEF838C7C15209683296081AD9DE27602358E08EAA4F9E5BB0544D2746C4046824E823D391B2BD89E5B8A34AA6F1CE3879CAFC204B531A9458018DD23FA33AA4394D43C49C
311
5109CB3A088DFBAF8EC6B1F379AADFCD91DDE5CB10E8EEE828AA6DAF9F5D4B33FF6FB8202F6190905433B0C2D2385A7175DC22EC671937DF98B412A2A860845B9CF9828867DB83A816F1DC9E1ACD64A1B3417B607B8842F5B94F17A4D1DB3C3F65655470AE696C7B6516EC912B54C9D232F60F15ADF55D64601362A5D9706D
311
1C52CF39B5BD794591EB233655405A112731420E37F5CEE9E4C8D1A5CED3CDCAF63EAFFDC356E7EEE9C37391E554284D1F50AB0E5CFDD428199B9C8B22A737D847A6B4A07C07F25F90EAAD29889B6087D961664E5182A432CA4482D858636B30C6CFD872CA5FFDBFF3CF1D359BFBD13B872782ADA1FA0578F67DE8C6B203A7
311
E73E82F099981AD7B601E1281B772C05409A2416CFB0843A1CF907DBDBA0CAA12A6317E19E039761EE23FEBA23A30685A23CA9F34C81E55159BCA04003B6929130A322BF31B08DD38B72561E6CC4CEC17BF54BE8BA586D3F6F0B119180DE999C5ED188A54CA1C5B5BCE91AD4C3BCE7D1037D7ECA4408475FE2BDEDE29D98A3
311
24D0D6986BE0E3BAA6EB97F6E4DE0101F6C5992E37EE1B27C009DD583BFAEF980C28E724A559519FFB6AFF40DBA820D6C9AE99DC3498B6B18034D597A31C44930E04CB35884DB76A8AE6F08C773F365FC048C8F3CC27BC15F2DBD21B643C137BFF795F55A59348FFEC53DB4030D25AC0F63247EAF43798EF43164585440D3C
311
01EBCFCDB21B3A5D1550216AAD55B2CCE03E728B08C3D95A2F9AB52068A459BA67689B48BB930774F50351438052E1398B25E5D19E715E24FB887134A37D42F23370FC7FFBFD22C9F724C98A549DD1DD331DCDA16F7B8FBCF289A8E0DEF6B6E573708BD21BD2B00D734F58B7921358F5423B9FBF9FCD9DF96C30BE5EAC07B3
311
F5C7C5603E5E4C06CBF1F5D57A3A9F4DD7AB16CD7286F2DCBAD374131A514267730BC14CF87E6C903EA606D8DE1D5172F7A9CACEFAF96333C428EC8EB007EDB2D9B8081F31F6D1F06D05ADE449459B24E734A1A9223A85EEF41FFE9D60CCE81953AD6F1212D30BB47CFDB43D72062B17ECFBA6D39D3E1DED35AB4B9D902795
311
A8FB22F153C2F8D1C6B8427298A7B1C1AF8E49F3ACFA4CFDAADF4C603098CA8CB3106530B4629A2554A1185ED083444225A8D71DE94373F5B860F76335202AE2735A5B724F30237389B4006F8B40F5D7ADDF30D3E9B1EAC646B71D3EE0C7540ADB02676E6CCCE88A05540E7DF4673D0995CAC1A5EE200FCE9234E618B5AB4D
311
CD7BB34B63D3EBC88DC825E393F1ABAAE0C60194911C6303E62144A734C6734BDBCCF7E03F395E9B631185BF7EA11A5FDA85C699F218A468E594B92C60867930471F90A8AFBBE50C4B991E22175DB25E2541A575A08888CB8B82B6CF98B4587D1B6140B1365FAD9C17316279B9A681A02073A1131C2C022B8CCE9C285075F9
311
E7EE9BC870914DAC350305ACDF0FD7EFFED82DB324C9D26A69B730D7616B7B8FCB6DB84371A0FA56227793B133D995B7017341D9FB44D22109E503161059C11AA07BE1072FAB2B232A67F5A1911BE9501C3174B3B24C639B41A9A14BB7B66A703077A4D4420EE91BA5CE98AE40FEEA8560548AC2048151DEFB17504B030414
311
00060800009D54D542000000000000000000000000350000006662782F41444638414132442D363933462D343346352D414435452D4237413946453146384430352F76657274696365732E62696E504B03041400060808009D54D542F270F1330600000004000000360000006662782F41444638414132442D363933462D34
311
3346352D414435452D4237413946453146384430352F747269616E676C65732E62696E636660600000504B03041400060800009D54D542000000000000000000000000370000006662782F41444638414132442D363933462D343346352D414435452D4237413946453146384430352F617474726962757465732E62696E50
311
4B03041400060808009D54D542D5987DFC8F00000041010000360000006662782F41444638414132442D363933462D343346352D414435452D4237413946453146384430352F6469726563746F72792E786D6C858F410EC2201045AF4266AF15DDB800BA74E7C21B903225242D6328188F2FA5C4183471359997F9FF81E89F
311
F3C41E1816475E02DF1F80A11FC8386F25A438EECEC07A250251FC3803E6F58C12560C4AD840E95E91C151A72936F496F35732D860FE635F62C8F2DA16B505C545B74125BAA2FA9E05D7CC053D063734D5C7665FD55B6B8D15D5E9BFEAFD8490FFA45E504B03041400060808009D54D54248C83115FE000000A00100003B00
311
00006662782F41444638414132442D363933462D343346352D414435452D4237413946453146384430352F7265736F75726365732F636F72652E786D6C8D504B6E833010BD0A9A6D65B02121101947550A27E8052C33A156821DF953F5F8B5132AB5BB6E6646EFA3797AFCF4B5DE8A4F745E5B33002B291468949DB5590688
311
E1423A284E823B6BC32F191446AE38408641F0C5D978DF20654D4013126AEC8C1B28BDC70085BAA56300AF3E7095A58C2129FCB5BC4B75950B96AC4C74D209EE834B018AE7933C4138F4363A859E574F56F018F5BC69F49C7EEA8B4607E2756C76136D2999E83891DDD8D6A43F1F46D28DFDD8EFE8DB819D19AFB259F0A0D7
311
9F8CCAA10C3883A8296B086D49CDDE193D36ED71DFBDD0FDB1A1BCCAF23FA6789FFF698ADA84A6DEE23E6D1E440EF22004AF725F693DCA4C3B772BBE01504B010214000A00000800009D54D5423DEE336E79000000790000001B00000000000000000000000000000000006175746F6465736B2D64657369676E2D7061636B
311
6167652E786D6C504B010214001400060808009D54D542D486FD9CA0000000F40000001300000000000000000000000000B20000005B436F6E74656E745F54797065735D2E786D6C504B010214001400060808009D54D5425B631F8DEB0000007C010000080000000000000000000000000083010000636F72652E786D6C50
311
4B010214001400060808009D54D54255019EA25F0000007C000000070000000000000000000000000094020000636E782E786D6C504B010214001400060808009D54D5421F554E9368010000020300000C00000000000000000000000000180300006662782F636F72652E786D6C504B010214001400060808009D54D5424F
311
7453A77E0000009D0000000B00000000000000000000000000AA0400006662782F636E782E786D6C504B010214001400060808009D54D54289EB16DF2D010000140200003100000000000000000000000000510500006662782F41444638414132442D363933462D343346352D414435452D4237413946453146384430352F
311
636F72652E786D6C504B010214001400060808009D54D542C40044814E010000330300003000000000000000000000000000CD0600006662782F41444638414132442D363933462D343346352D414435452D4237413946453146384430352F636E782E786D6C504B010214001400060808009D54D542B721C1AEA305000080
311
1000003400000000000000000000000000690800006662782F41444638414132442D363933462D343346352D414435452D4237413946453146384430352F6F626A656374732E786D6C504B010214001400060800009D54D54200000000000000000000000035000000000000000000000000005E0E00006662782F41444638
311
414132442D363933462D343346352D414435452D4237413946453146384430352F76657274696365732E62696E504B010214001400060808009D54D542F270F13306000000040000003600000000000000000000000000B10E00006662782F41444638414132442D363933462D343346352D414435452D4237413946453146
311
384430352F747269616E676C65732E62696E504B010214001400060800009D54D54200000000000000000000000037000000000000000000000000000B0F00006662782F41444638414132442D363933462D343346352D414435452D4237413946453146384430352F617474726962757465732E62696E504B010214001400
311
060808009D54D542D5987DFC8F000000410100003600000000000000000000000000600F00006662782F41444638414132442D363933462D343346352D414435452D4237413946453146384430352F6469726563746F72792E786D6C504B010214001400060808009D54D54248C83115FE000000A00100003B000000000000
311
00000000000000431000006662782F41444638414132442D363933462D343346352D414435452D4237413946453146384430352F7265736F75726365732F636F72652E786D6C504B0506000000000E000E00800400009A1100000000
310
504B03040A00000800009D54D5423DEE336E79000000790000001B0000006175746F6465736B2D64657369676E2D7061636B6167652E786D6C3C3F786D6C2076657273696F6E3D22312E302220656E636F64696E673D227574662D3822203F3E3C666F726D6174733E3C666F726D61743E687474703A2F2F736368656D612E
310
6175746F6465736B2E636F6D2F64657369676E2D7061636B6167652F323030393C2F666F726D61743E3C2F666F726D6174733E504B03041400060808009D54D542D486FD9CA0000000F4000000130000005B436F6E74656E745F54797065735D2E786D6C7D8EC10E82300C865F65E91D8A1E8C310C0EEA1BF002731658846E
310
D98AC1B77784ABF1D8FE5FBFBF75BBCE937A534CCEB38643598122B6FEE978D0B0485F9C41B54DDD7D022595594E1A469170414C76A4D9A4D207E29CF43ECE46F218070CC6BECC4078ACAA135ACF422C856C0E68EA1BF5669944DDD7BCDE7B1F8E415D77AECB980613C2E4AC91FC167A2B244592486606FC29C8FD7F045B9A
310
EF7053A7E60B504B03041400060808009D54D542D2F6DA1DEC0000007C01000008000000636F72652E786D6C8D904D6EC3201085AF82665BE1806DF26361225B2D27E80510260E4A0C9681AAC72F4E1CA9DD7535A337EF9B193D7EFE9EEEE8CB2CC17AD7022D0820E3B41FAC1B5B48F1828F80CE822FDEC75F36404E4DA685
310
5506C1C7C5A77993B477D1B89855E707B3892A041301E97B6E5A08FA6A2655A814B323DC8A59E99B1A4D415F5D8653B2037A1EB143DE672FD62C20644DBB5E9E7A7C62ACC3352104F7E5816129E5A1FE90E53B231DDFADB0E0D14EAFFB7A312A9A0144496885C91E97F49392A6DA37ECF846585311BE5BED7FA0340FFF8492
310
75B12AB7779F580041F3238F81E0BB358B5C1E41E5BAE6267E00504B03041400060808009D54D54255019EA25F0000007C00000007000000636E782E786D6C4DCB3B0E80201045D1AD90E915ED2CF8AC45050C11660C8261F98AB1B07AC9C97D42D718D865D3E909258CFD00CCE24AC6E326A164D74DC0B4128928FF326038
310
472BA13128B1252AC747C6BAB984FC68F0B87FE8960A5C09FE86CFB69FBA01504B03041400060808009D54D542C3BA2E2D67010000020300000C0000006662782F636F72652E786D6C8D525B6E833010BC8AE5DFCAD8BCF2927194A8E504BD80030E45011B191BE5F85D1E519A2A8A222463CDECECCE0EF0FDB56DD0A06C5F
310
1B9DE1306018295D98B2D65586BD3B930D467BC1AD31EE4F19465AB62AC3238C05AFACF1DD0215463BA51DA0DA946A0165DF2B8751D1C025C37DF1A35A1948EFA0A2BF049D2C2EB2524118000D7582F7CE8201340F194F2CCEA72BA7332EB8F775B9B07509D3EA73AD2C1679121E8EF9F648B6697A2009638C1CA3754AF23C
310
5F275F79F499B203A7A3587057B737778555D2A9128B888531612B1285DF21DBC5AB5DBAF960E92E669C8EE50F22DF956F8A7CAD5D1C2D7667598F45084626E2DFB6109143BD1CC00F159C8E21C26B4AF8316808044276F2D4DCF6B80034A8C2199B00531A7FA706D9780553199A1E4E67163A4F0D60B3A77DA2177D5EF780
310
0F287505D6A483EBC9BB713A9FA72E5174CA92C15D9136B695CDDDDC6CF17EDE073D9517A631F61D355D56A54B9874FC7BC52F504B03041400060808009D54D5422AE06D177D0000009D0000000B0000006662782F636E782E786D6C4DCCD10AC2201805E05791FFDEA6D8AC401DFEC5DE63343724A761337AFC5CECA2AB73
310
F8381CD57D9640DE2EBF7C8A1AF8810171F19E461F670D659DE8194867544E69FD9B0189C3E2346C0C46CD3995E74EA39B8612D6AAC1C7C78E7892560AEC29225EE9B16D6FB5594919B717149CF79C09688C6A7E4F35B763F305504B03041400060808009D54D5425DC44D4E2901000013020000310000006662782F423736
310
41363342462D424242432D343535442D424241362D3031413942333131463130332F636F72652E786D6C8D515B6EC32010BC0AE22B55651B4C4CD20813C5AD72825E8000495162B07854397EA176A4F62F3F2C9A9D991D58B6BF8F37F0AD7D30CEF610D708026DA553C65E7A98E2B9DA42B0E7CC3B17FFD020B062D43D2C30
310
E4ECE25D9A16483A1BB58D19B54EE9051421E80881BCE54B0F83FCD2A3A8458A9911AEF524E4555C748DEBDCCE3CCE42F4390098879413F261430F940CC76A1886F76ADD751FF976A015C287B781607CC488B06616729692518BDCA81CC79C8DF6CF9A143167D18C8FF8D26B11B582BC45985488562DFEC46847E8AEDBBEA2
310
6E47106B0AFD9F284DEA495132369276893BCB02E49835738333E5D2E9F608A3EF93F3119479ABA0E50BE4A846B86D11E9583333F3FBB3255D2F96213A9FFF77753D6532597CE99AB3A6AC2897DFFDE55AD6C97F00504B03041400060808009D54D542A2A78B965601000033030000300000006662782F4237364136334246
310
2D424242432D343535442D424241362D3031413942333131463130332F636E782E786D6CBD93CD6EC32010845F0571ADFC172796156122F5D027E8A1570C9B94068305B86ADEBE4B42D25C72A854F582ACD96166F509B3DDD764C827F8A09D1D6853D69480954E697B18E812F7454FC98E33EF5CBCB35162C504034D32E5EC
310
E0DD326749C15E2C26A26AB43D66D143708B9710504E37897152180C005B2C28C2348252A0C8CD885F7BF0B80A8AE389C477202FCF6FC48D1F206360554AE1AC4A1D9CA53337DD992891468430D020DF6112A558A253108EA51251944D79ED7AB0D34F124917AE958BD724950F349D94E78D4AE4C82A1C7216A2477AD9144F
310
33502EE6D968292242AECEC68B87B345DBD8ADB35723788FEE76D5F53D869D679C453D4176480F2282A27C55376D5177C5AA796DEA6DDB6D37FD53BDD9B635AB929DB3D139932F610C783713E96C041B296F5895C68FF0651F51DA236BE74FBF00890072EB85CE2DE32FF9345DBB5EFF239FEAFCBE1197C7BF807F03504B03
310
041400060808009D54D54209C5E2A061070000991B0000340000006662782F42373641363342462D424242432D343535442D424241362D3031413942333131463130332F6F626A656374732E786D6CED59DD739B3810FF5718EEE5EEC1D8C44E1BDF106E12A7C9783A693BF5B5730F9E616490892E423092489CFBEB6FF501
310
0662127CCDBDF5C10684B4DAFDEDA796E08F5D469D07CC05C9D9B9EB7B13D7C12CCE13C2D273B794DBD199EBFC11063CCF65639AEB3094E173570DBB6190F2BC2CEC5082B7A8A4B2337A7DF9972362CCB0EBC4140971EE8AF80E67C843A5CC132CEEBD0449E4A5DB9DE77B66629B6CCA5171D7215A208E99044E619C0115C7
310
30E5B71F27EE380CC6EA7D18A87F3B6B3A68D6AC7FD6584BDDE6923021118B9FB1D421331DC4D2D49F5D7D38399D8F4E67B3E968F6EEC41F5D5E5F5E8DFCF7D3C9E2DD6231BFF83007F636794EAD4C092E304B407F4F6EE80763F5A616DD227088EB38670CC71A48804A8BD52548B080AD1AF04DDA8FBE92A8F15A4BD8789E
310
A9F79685C6F0B44DA56FD630205A744110BB5D2571756DCA976FFE06C1C510A3E4024BE056480EDAB5F070F00A379C0463331A069BBD2E887032243127883A946C38E2A01498AAA684815960C928E7E040CA511268CD99D76DDB02CF7CDD750E71B92D29559EE186DAB122703F2C85E68CFC83F99EFB2632C013485B1226CF
310
2C97F2A9C06E380FC67A300CD4657A625F1A209D2D45A9D08898B71D4117CAF597576EF8F17AB35BA9707078F382E705E652199DD2A3E60B0CD95E154A765B7F90E6D40210C6806A57EE41F90AC87F82E8B16705F4C6C96EB69BD9B9922326B639CF4037CEC4194DE06FE2F8FA5FDD37EE8271BDB8ADBD3E3CC14D1554673F
310
8E675B068D95E5BF0167183C80C1E77C6A5FAD6244C19E6F09038094913834872108EDDBCDCE0D97103821D0C32A44431F4406761FE036185B327BAD54EE65BD8E01A2768FE91025016CDA22818D1E3DDD40F6E024DEABA929621FBCA76F62AE1757AB8FAB926F518C6FAD4F5FE12D614442D63CCC500BF39644F7F8E931E7
310
0908FA1CEF5513EFCC6E25006D85B9023EAD40500FFB9D5B1BC4B02ECD55B8095ED9018450B9BA41FF968818538A18CECB6ADF3ABA2943AD3DDED60C6E7862209E9E744C98E307A2AA0A709AFD8C16A390F7634E0A05A21BDE18C9EAA0E9F548F76DF9092CB29EDF336BC920F43244FFD441EB000E2DCBAE90B640D4026FF6
310
E13CCE69CEA3CD5364229D0BB504B0D1F696EF2DA210EB8D921415F020ED775548498DB45142B6DB52405C3DC0E2F7E5A2690E136FEA9F3ACDFF8E33CE20DA82EF226EFDAEB347443294E2688B92BEED9ABBD5B48526D9439AE32D05B9C803914F1192D124C1E931D01C457CFEA6D4539A0B41181690AF0E82DF4463E24120
310
31DAAC58565AED004D44946189E8310828323DE0EAB4A36BDC184A87D779ACADF7258D3589FE4F16C111D492398B0894A290435E65DCF74E2186B4D1352877F0056BAB686B3168092544FC143D6292DEC9635037E47B708FE14852CA282F500C663D80EC335F514AEDF0BE41F1BDCA1F515CD2B7321081E93622949659043F
310
C2E0E431C4B5EBC0F4220A0DE226F6499C41518664C9876CF2EE74F26C1F533374436063A32DA110B6A30C153DA8B702A2AE479C1A7C4BBD47A99B322B2294E5251B6428DEB4EB4D967C57AD8AEC407E55A908656345D8120C03C2649D55AB980DA6AE032BB8910E544F91405941CD29EC95C4E3D7DEA429F76EC0AD9FBEED
310
0619147E3DDA6B46D4590583E5B15518884724E33B375CE9EBE812EAEF0427FB545FD59ACD0A10105391BCE4C4AAE8DB12CA1B5BA3B9E12D92627D63B26E75FDB6F4A0FB118C610DD42EF5C2A5023AC34C225599DCAA1BFA1541086ED130E34B95538FA1729124BA6A44F49AF4A9B35546B436CD8857DC619667F0636BC262
310
5A26788D12711FDD4A1AAD8862DD4AE965A4C2F845013FDFAC3AF0C0C80091BEA8020F3F76D6DAD1852A970E12917765B6618840106C89961ADD78054BAD462A2DD75775A680BA0B0CCCAA78F6F364D16C47FC3C59A4D6307EEC6441F30DA2FB68D3C8E6B132EBA34E01757A5254DEE214A0BB0E35D53A89985C6EC5B7BE14
310
414CAC82FCE062AC8A1986601FC7FF3969F72541B35D87FFE392B6FFACE0382AA9B426AB26D581C275D94C61F3F9FBD9DC9FCF4693B38BEBD1ECFAC3C5683EB938192D2667A7D7D3F96C7A7D55EBC9100F833A96E9D405CF26A655C3EAC962004D59915392C0613E71520C215FC2917E40F79C675840EE6CF6BA13DB931FB0
310
FAC1B43925DA505C717287A03F4C05647510A38C657BDCF9053A9312CED9E72EF48CBC7BF8B356E93A9078CE5DE814481263E16DA0CBA4FA799A38645C9DFA2D31886388A52A239A45F573BD4A61D38AFEF5942159C0CAD56A6140DD5640F3ABD5A0D0BC599EE2A304AFD8719084DB4D29A15833B2EC076A61F4367BF51BD9
310
2861F776EB1DB8EECB62F99E9ED34264D01783178DC0501D49C453DDEE568C59962EAEBE8CA1CDE62C3F3B052D53D0E5704A238EC1984B554F81158155589A059260AA8BDFD75F780E5F7832471745CEAFBBB377BFAD177996E5CC0CAD2FE05096C077226775075F7D9235D40E58F5D6C5FA64E29FAC754FDBB6D9A30D12D8
310
5345110C54B58412A463726097CFFA53B67B3956AAE84C5F5E393688422FC0D8D1B316AFF9C6E5800FA9AF29CA63B49F57D2BED8D61EEBA960131C1AD2E1BF504B03041400060800009D54D542000000000000000000000000350000006662782F42373641363342462D424242432D343535442D424241362D303141394233
310
3131463130332F76657274696365732E62696E504B03041400060808009D54D542F270F1330600000004000000360000006662782F42373641363342462D424242432D343535442D424241362D3031413942333131463130332F747269616E676C65732E62696E636660600000504B03041400060800009D54D54200000000
310
0000000000000000370000006662782F42373641363342462D424242432D343535442D424241362D3031413942333131463130332F617474726962757465732E62696E504B03041400060808009D54D542D5987DFC8F00000041010000360000006662782F42373641363342462D424242432D343535442D424241362D3031
310
413942333131463130332F6469726563746F72792E786D6C858F410EC2201045AF4266AF15DDB800BA74E7C21B903225242D6328188F2FA5C4183471359997F9FF81E89FF3C41E1816475E02DF1F80A11FC8386F25A438EECEC07A250251FC3803E6F58C12560C4AD840E95E91C151A72936F496F35732D860FE635F62C8F2
310
DA16B505C545B74125BAA2FA9E05D7CC053D063734D5C7665FD55B6B8D15D5E9BFEAFD8490FFA45E504B03041400060808009D54D542BA1C872CFD000000A00100003B0000006662782F42373641363342462D424242432D343535442D424241362D3031413942333131463130332F7265736F75726365732F636F72652E78
310
6D6C8D50596E833010BD0A9ADFCA60B36441C61151CB097A01CB4CA89560232F558F5F13A8D4FEF56766F416CDD3E397AFF9917DA2F3DA9A0E584E2143A3ECA8CDD4410C377282EC22B8B336FC924166E48C1DAC30083E391B971D52D6043421A1C68EB883D27B0C90A9473A3AF0EA036799CB1892C2DFF345AABB9C306779
310
A2934E701F5C0A906D4FD609C2A1B7D129F4BCD858C163D4E3AED163FAA96F1A1D88A166FD7538F7E4DC343DA929A5E45A1E1B320CC3B17E1BCAD786F6BC58CD82073DFF64540E65C01144495945E88194EC9DD1B63AB4CDE985366D4579B1CAFF98E232FED314B50955B9C7DD6C1E044B419E84E0C5DA575ACF32D35EBB15
310
DF504B010214000A00000800009D54D5423DEE336E79000000790000001B00000000000000000000000000000000006175746F6465736B2D64657369676E2D7061636B6167652E786D6C504B010214001400060808009D54D542D486FD9CA0000000F40000001300000000000000000000000000B20000005B436F6E74656E
310
745F54797065735D2E786D6C504B010214001400060808009D54D542D2F6DA1DEC0000007C010000080000000000000000000000000083010000636F72652E786D6C504B010214001400060808009D54D54255019EA25F0000007C000000070000000000000000000000000095020000636E782E786D6C504B010214001400
310
060808009D54D542C3BA2E2D67010000020300000C00000000000000000000000000190300006662782F636F72652E786D6C504B010214001400060808009D54D5422AE06D177D0000009D0000000B00000000000000000000000000AA0400006662782F636E782E786D6C504B010214001400060808009D54D5425DC44D4E
310
29010000130200003100000000000000000000000000500500006662782F42373641363342462D424242432D343535442D424241362D3031413942333131463130332F636F72652E786D6C504B010214001400060808009D54D542A2A78B9656010000330300003000000000000000000000000000C80600006662782F4237
310
3641363342462D424242432D343535442D424241362D3031413942333131463130332F636E782E786D6C504B010214001400060808009D54D54209C5E2A061070000991B000034000000000000000000000000006C0800006662782F42373641363342462D424242432D343535442D424241362D3031413942333131463130
310
332F6F626A656374732E786D6C504B010214001400060800009D54D54200000000000000000000000035000000000000000000000000001F1000006662782F42373641363342462D424242432D343535442D424241362D3031413942333131463130332F76657274696365732E62696E504B010214001400060808009D54D5
310
42F270F13306000000040000003600000000000000000000000000721000006662782F42373641363342462D424242432D343535442D424241362D3031413942333131463130332F747269616E676C65732E62696E504B010214001400060800009D54D5420000000000000000000000003700000000000000000000000000
310
CC1000006662782F42373641363342462D424242432D343535442D424241362D3031413942333131463130332F617474726962757465732E62696E504B010214001400060808009D54D542D5987DFC8F000000410100003600000000000000000000000000211100006662782F42373641363342462D424242432D34353544
310
2D424241362D3031413942333131463130332F6469726563746F72792E786D6C504B010214001400060808009D54D542BA1C872CFD000000A00100003B00000000000000000000000000041200006662782F42373641363342462D424242432D343535442D424241362D3031413942333131463130332F7265736F75726365
310
732F636F72652E786D6C504B0506000000000E000E00800400005A1300000000
  0
XRECORD
  5
27
102
{ACAD_REACTORS
330
22
102
}
330
22
100
AcDbXrecord
280
     1
270
     1
271
     1
  0
XRECORD
  5
26
102
{ACAD_REACTORS
330
22
102
}
330
22
100
AcDbXrecord
280
     1
270
     1
271
     1
  0
XRECORD
  5
28
102
{ACAD_REACTORS
330
22
102
}
330
22
100
AcDbXrecord
280
     1
270
     1
271
     1
  0
XRECORD
  5
25
102
{ACAD_REACTORS
330
22
102
}
330
22
100
AcDbXrecord
280
     1
270
     1
271
     1
  0
XRECORD
  5
E75
102
{ACAD_REACTORS
330
E74
102
}
330
E74
100
AcDbXrecord
280
     1
102
ACAD_ROUNDTRIP_2012_MLEADER_STYLE
298
     1
  0
CELLSTYLEMAP
  5
E73
102
{ACAD_REACTORS
330
E72
102
}
330
E72
100
AcDbCellStyleMap
 90
        3
300
CELLSTYLE
  1
TABLEFORMAT_BEGIN
 90
        5
170
     1
 91
        0
 92
    32768
 62
   257
 93
        1
300
CONTENTFORMAT
  1
CONTENTFORMAT_BEGIN
 90
        0
 91
        0
 92
      512
 93
        0
300

 40
0.0
140
1.0
 94
        5
 62
     0
340
55
144
0.25
309
CONTENTFORMAT_END
171
     0
 94
        0
309
TABLEFORMAT_END
  1
CELLSTYLE_BEGIN
 90
        1
 91
        1
300
_TITLE
309
CELLSTYLE_END
300
CELLSTYLE
  1
TABLEFORMAT_BEGIN
 90
        5
170
     1
 91
        0
 92
        0
 62
   257
 93
        1
300
CONTENTFORMAT
  1
CONTENTFORMAT_BEGIN
 90
        0
 91
        0
 92
      512
 93
        0
300

 40
0.0
140
1.0
 94
        5
 62
     0
340
55
144
0.18
309
CONTENTFORMAT_END
171
     0
 94
        0
309
TABLEFORMAT_END
  1
CELLSTYLE_BEGIN
 90
        2
 91
        1
300
_HEADER
309
CELLSTYLE_END
300
CELLSTYLE
  1
TABLEFORMAT_BEGIN
 90
        5
170
     1
 91
        0
 92
        0
 62
   257
 93
        1
300
CONTENTFORMAT
  1
CONTENTFORMAT_BEGIN
 90
        0
 91
        0
 92
      512
 93
        0
300

 40
0.0
140
1.0
 94
        2
 62
     0
340
55
144
0.18
309
CONTENTFORMAT_END
171
     0
 94
        0
309
TABLEFORMAT_END
  1
CELLSTYLE_BEGIN
 90
        3
 91
        2
300
_DATA
309
CELLSTYLE_END
  0
ENDSEC
  0
EOF
