  0
SECTION
  2
HEADER
  9
$ACADVER
  1
AC1024
  9
$ACADMAINTVER
 70
    63
  9
$DWGCODEPAGE
  3
ANSI_1252
  9
$AUTHOR
  1
GN
  9
$REVISIONNUMBER
  1
-
  9
$CUSTOMPROPERTYTAG
  1
Manager
  9
$CUSTOMPROPERTY
  1

  9
$CUSTOMPROPERTYTAG
  1
Company
  9
$CUSTOMPROPERTY
  1

  9
$CUSTOMPROPERTYTAG
  1
Category
  9
$CUSTOMPROPERTY
  1

  9
$CUSTOMPROPERTYTAG
  1
Part Number
  9
$CUSTOMPROPERTY
  1
NPDD6048G-S
  9
$CUSTOMPROPERTYTAG
  1
Description
  9
$CUSTOMPROPERTY
  1
NPDD PANEL MASTER VIEW
  9
$CUSTOMPROPERTYTAG
  1
Project
  9
$CUSTOMPROPERTY
  1

  9
$CUSTOMPROPERTYTAG
  1
Designer
  9
$CUSTOMPROPERTY
  1
GN
  9
$CUSTOMPROPERTYTAG
  1
Engineer
  9
$CUSTOMPROPERTY
  1

  9
$CUSTOMPROPERTYTAG
  1
Authority
  9
$CUSTOMPROPERTY
  1

  9
$CUSTOMPROPERTYTAG
  1
Cost Center
  9
$CUSTOMPROPERTY
  1

  9
$CUSTOMPROPERTYTAG
  1
Vendor
  9
$CUSTOMPROPERTY
  1

  9
$CUSTOMPROPERTYTAG
  1
User Status
  9
$CUSTOMPROPERTY
  1

  9
$CUSTOMPROPERTYTAG
  1
Design Status
  9
$CUSTOMPROPERTY
  1
WorkInProgress
  9
$CUSTOMPROPERTYTAG
  1
Checked by
  9
$CUSTOMPROPERTY
  1
NJ
  9
$CUSTOMPROPERTYTAG
  1
Date Checked
  9
$CUSTOMPROPERTY
  1
07/08/2013
  9
$CUSTOMPROPERTYTAG
  1
Engr Approved by
  9
$CUSTOMPROPERTY
  1

  9
$CUSTOMPROPERTYTAG
  1
Mfg Approved by
  9
$CUSTOMPROPERTY
  1

  9
$CUSTOMPROPERTYTAG
  1
DWG. NO
  9
$CUSTOMPROPERTY
  1

  9
$CUSTOMPROPERTYTAG
  1
NUMBER OF SHEETS
  9
$CUSTOMPROPERTY
  1
2
  9
$CUSTOMPROPERTYTAG
  1
DRAWING #
  9
$CUSTOMPROPERTY
  1
1
  9
$INSBASE
 10
0.0
 20
0.0
 30
0.0
  9
$EXTMIN
 10
0.0
 20
0.0
 30
0.0
  9
$EXTMAX
 10
187.0
 20
121.0
 30
0.0
  9
$LIMMIN
 10
0.0
 20
0.0
  9
$LIMMAX
 10
187.0
 20
121.0
  9
$ORTHOMODE
 70
     0
  9
$REGENMODE
 70
     1
  9
$FILLMODE
 70
     1
  9
$QTEXTMODE
 70
     0
  9
$MIRRTEXT
 70
     0
  9
$LTSCALE
 40
11.0
  9
$ATTMODE
 70
     1
  9
$TEXTSIZE
 40
0.2
  9
$TRACEWID
 40
0.05
  9
$TEXTSTYLE
  7
Standard
  9
$CLAYER
  8
0
  9
$CELTYPE
  6
ByLayer
  9
$CECOLOR
 62
   256
  9
$CELTSCALE
 40
1.0
  9
$DISPSILH
 70
     0
  9
$DIMSCALE
 40
1.0
  9
$DIMASZ
 40
0.0708661417322835
  9
$DIMEXO
 40
0.0625
  9
$DIMDLI
 40
0.38
  9
$DIMRND
 40
0.0
  9
$DIMDLE
 40
0.0
  9
$DIMEXE
 40
0.18
  9
$DIMTP
 40
0.0
  9
$DIMTM
 40
0.0
  9
$DIMTXT
 40
0.0708661417322835
  9
$DIMCEN
 40
0.09
  9
$DIMTSZ
 40
0.0
  9
$DIMTOL
 70
     0
  9
$DIMLIM
 70
     0
  9
$DIMTIH
 70
     1
  9
$DIMTOH
 70
     1
  9
$DIMSE1
 70
     0
  9
$DIMSE2
 70
     0
  9
$DIMTAD
 70
     0
  9
$DIMZIN
 70
     0
  9
$DIMBLK
  1

  9
$DIMASO
 70
     1
  9
$DIMSHO
 70
     1
  9
$DIMPOST
  1

  9
$DIMAPOST
  1

  9
$DIMALT
 70
     0
  9
$DIMALTD
 70
     2
  9
$DIMALTF
 40
25.4
  9
$DIMLFAC
 40
1.0
  9
$DIMTOFL
 70
     0
  9
$DIMTVP
 40
0.0
  9
$DIMTIX
 70
     0
  9
$DIMSOXD
 70
     0
  9
$DIMSAH
 70
     0
  9
$DIMBLK1
  1

  9
$DIMBLK2
  1

  9
$DIMSTYLE
  2
STANDARD
  9
$DIMCLRD
 70
     0
  9
$DIMCLRE
 70
     0
  9
$DIMCLRT
 70
     0
  9
$DIMTFAC
 40
1.0
  9
$DIMGAP
 40
0.09
  9
$DIMJUST
 70
     0
  9
$DIMSD1
 70
     0
  9
$DIMSD2
 70
     0
  9
$DIMTOLJ
 70
     1
  9
$DIMTZIN
 70
     0
  9
$DIMALTZ
 70
     0
  9
$DIMALTTZ
 70
     0
  9
$DIMUPT
 70
     0
  9
$DIMDEC
 70
     4
  9
$DIMTDEC
 70
     4
  9
$DIMALTU
 70
     2
  9
$DIMALTTD
 70
     2
  9
$DIMTXSTY
  7
Standard
  9
$DIMAUNIT
 70
     0
  9
$DIMADEC
 70
     0
  9
$DIMALTRND
 40
0.0
  9
$DIMAZIN
 70
     0
  9
$DIMDSEP
 70
    46
  9
$DIMATFIT
 70
     3
  9
$DIMFRAC
 70
     0
  9
$DIMLDRBLK
  1

  9
$DIMLUNIT
 70
     2
  9
$DIMLWD
 70
    -2
  9
$DIMLWE
 70
    -2
  9
$DIMTMOVE
 70
     0
  9
$DIMFXL
 40
1.0
  9
$DIMFXLON
 70
     0
  9
$DIMJOGANG
 40
0.7853981633974483
  9
$DIMTFILL
 70
     0
  9
$DIMTFILLCLR
 70
     0
  9
$DIMARCSYM
 70
     0
  9
$DIMLTYPE
  6

  9
$DIMLTEX1
  6

  9
$DIMLTEX2
  6

  9
$DIMTXTDIRECTION
 70
     0
  9
$LUNITS
 70
     2
  9
$LUPREC
 70
     4
  9
$SKETCHINC
 40
0.1
  9
$FILLETRAD
 40
0.0
  9
$AUNITS
 70
     0
  9
$AUPREC
 70
     0
  9
$MENU
  1
.
  9
$ELEVATION
 40
0.0
  9
$PELEVATION
 40
0.0
  9
$THICKNESS
 40
0.0
  9
$LIMCHECK
 70
     0
  9
$CHAMFERA
 40
0.0
  9
$CHAMFERB
 40
0.0
  9
$CHAMFERC
 40
0.0
  9
$CHAMFERD
 40
0.0
  9
$SKPOLY
 70
     0
  9
$TDCREATE
 40
2456483.426201829
  9
$TDUCREATE
 40
2456483.197035162
  9
$TDUPDATE
 40
2456483.426201829
  9
$TDUUPDATE
 40
2456483.197035162
  9
$TDINDWG
 40
0.0000458333
  9
$TDUSRTIMER
 40
0.0000458333
  9
$USRTIMER
 70
     1
  9
$ANGBASE
 50
0.0
  9
$ANGDIR
 70
     0
  9
$PDMODE
 70
     0
  9
$PDSIZE
 40
0.0
  9
$PLINEWID
 40
0.0
  9
$SPLFRAME
 70
     0
  9
$SPLINETYPE
 70
     6
  9
$SPLINESEGS
 70
     8
  9
$HANDSEED
  5
E66
  9
$SURFTAB1
 70
     6
  9
$SURFTAB2
 70
     6
  9
$SURFTYPE
 70
     6
  9
$SURFU
 70
     6
  9
$SURFV
 70
     6
  9
$UCSBASE
  2

  9
$UCSNAME
  2

  9
$UCSORG
 10
0.0
 20
0.0
 30
0.0
  9
$UCSXDIR
 10
1.0
 20
0.0
 30
0.0
  9
$UCSYDIR
 10
0.0
 20
1.0
 30
0.0
  9
$UCSORTHOREF
  2

  9
$UCSORTHOVIEW
 70
     0
  9
$UCSORGTOP
 10
0.0
 20
0.0
 30
0.0
  9
$UCSORGBOTTOM
 10
0.0
 20
0.0
 30
0.0
  9
$UCSORGLEFT
 10
0.0
 20
0.0
 30
0.0
  9
$UCSORGRIGHT
 10
0.0
 20
0.0
 30
0.0
  9
$UCSORGFRONT
 10
0.0
 20
0.0
 30
0.0
  9
$UCSORGBACK
 10
0.0
 20
0.0
 30
0.0
  9
$PUCSBASE
  2

  9
$PUCSNAME
  2

  9
$PUCSORG
 10
0.0
 20
0.0
 30
0.0
  9
$PUCSXDIR
 10
1.0
 20
0.0
 30
0.0
  9
$PUCSYDIR
 10
0.0
 20
1.0
 30
0.0
  9
$PUCSORTHOREF
  2

  9
$PUCSORTHOVIEW
 70
     0
  9
$PUCSORGTOP
 10
0.0
 20
0.0
 30
0.0
  9
$PUCSORGBOTTOM
 10
0.0
 20
0.0
 30
0.0
  9
$PUCSORGLEFT
 10
0.0
 20
0.0
 30
0.0
  9
$PUCSORGRIGHT
 10
0.0
 20
0.0
 30
0.0
  9
$PUCSORGFRONT
 10
0.0
 20
0.0
 30
0.0
  9
$PUCSORGBACK
 10
0.0
 20
0.0
 30
0.0
  9
$USERI1
 70
     0
  9
$USERI2
 70
     0
  9
$USERI3
 70
     0
  9
$USERI4
 70
     0
  9
$USERI5
 70
     0
  9
$USERR1
 40
0.0
  9
$USERR2
 40
0.0
  9
$USERR3
 40
0.0
  9
$USERR4
 40
0.0
  9
$USERR5
 40
0.0
  9
$WORLDVIEW
 70
     1
  9
$SHADEDGE
 70
     3
  9
$SHADEDIF
 70
    70
  9
$TILEMODE
 70
     1
  9
$MAXACTVP
 70
    64
  9
$PINSBASE
 10
0.0
 20
0.0
 30
0.0
  9
$PLIMCHECK
 70
     0
  9
$PEXTMIN
 10
0.0
 20
0.0
 30
0.0
  9
$PEXTMAX
 10
187.0
 20
121.0
 30
0.0
  9
$PLIMMIN
 10
0.0
 20
0.0
  9
$PLIMMAX
 10
187.0
 20
121.0
  9
$UNITMODE
 70
     0
  9
$VISRETAIN
 70
     1
  9
$PLINEGEN
 70
     0
  9
$PSLTSCALE
 70
     1
  9
$TREEDEPTH
 70
  3020
  9
$CMLSTYLE
  2
Standard
  9
$CMLJUST
 70
     0
  9
$CMLSCALE
 40
1.0
  9
$PROXYGRAPHICS
 70
     1
  9
$MEASUREMENT
 70
     0
  9
$CELWEIGHT
370
    -1
  9
$ENDCAPS
280
     0
  9
$JOINSTYLE
280
     0
  9
$LWDISPLAY
290
     0
  9
$INSUNITS
 70
     1
  9
$HYPERLINKBASE
  1

  9
$STYLESHEET
  1

  9
$XEDIT
290
     1
  9
$CEPSNTYPE
380
     0
  9
$PSTYLEMODE
290
     1
  9
$FINGERPRINTGUID
  2
{E9343373-96B5-4B5A-BA50-92827F583173}
  9
$VERSIONGUID
  2
{33B414E9-6865-4BC5-8817-8EB747D2806F}
  9
$EXTNAMES
290
     1
  9
$PSVPSCALE
 40
0.0
  9
$OLESTARTUP
290
     0
  9
$SORTENTS
280
   127
  9
$INDEXCTL
280
     0
  9
$HIDETEXT
280
     1
  9
$XCLIPFRAME
280
     2
  9
$HALOGAP
280
     0
  9
$OBSCOLOR
 70
   257
  9
$OBSLTYPE
280
     0
  9
$INTERSECTIONDISPLAY
280
     0
  9
$INTERSECTIONCOLOR
 70
   257
  9
$DIMASSOC
280
     1
  9
$PROJECTNAME
  1

  9
$CAMERADISPLAY
290
     0
  9
$LENSLENGTH
 40
50.0
  9
$CAMERAHEIGHT
 40
0.0
  9
$STEPSPERSEC
 40
2.0
  9
$STEPSIZE
 40
6.0
  9
$3DDWFPREC
 40
2.0
  9
$PSOLWIDTH
 40
0.25
  9
$PSOLHEIGHT
 40
4.0
  9
$LOFTANG1
 40
1.570796326794896
  9
$LOFTANG2
 40
1.570796326794896
  9
$LOFTMAG1
 40
0.0
  9
$LOFTMAG2
 40
0.0
  9
$LOFTPARAM
 70
     7
  9
$LOFTNORMALS
280
     1
  9
$LATITUDE
 40
37.795
  9
$LONGITUDE
 40
-122.394
  9
$NORTHDIRECTION
 40
0.0
  9
$TIMEZONE
 70
 -8000
  9
$LIGHTGLYPHDISPLAY
280
     1
  9
$TILEMODELIGHTSYNCH
280
     1
  9
$CMATERIAL
347
11
  9
$SOLIDHIST
280
     0
  9
$SHOWHIST
280
     1
  9
$DWFFRAME
280
     2
  9
$DGNFRAME
280
     0
  9
$REALWORLDSCALE
290
     1
  9
$INTERFERECOLOR
 62
     1
  9
$INTERFEREOBJVS
345
33
  9
$INTERFEREVPVS
346
30
  9
$CSHADOW
280
     0
  9
$SHADOWPLANELOCATION
 40
0.0
  0
ENDSEC
  0
SECTION
  2
CLASSES
  0
CLASS
  1
ACDBDICTIONARYWDFLT
  2
AcDbDictionaryWithDefault
  3
ObjectDBX Classes
 90
        0
 91
        1
280
     0
281
     0
  0
CLASS
  1
MATERIAL
  2
AcDbMaterial
  3
ObjectDBX Classes
 90
     1153
 91
        3
280
     0
281
     0
  0
CLASS
  1
VISUALSTYLE
  2
AcDbVisualStyle
  3
ObjectDBX Classes
 90
     4095
 91
       24
280
     0
281
     0
  0
CLASS
  1
SCALE
  2
AcDbScale
  3
ObjectDBX Classes
 90
     1153
 91
       17
280
     0
281
     0
  0
CLASS
  1
TABLESTYLE
  2
AcDbTableStyle
  3
ObjectDBX Classes
 90
     4095
 91
        1
280
     0
281
     0
  0
CLASS
  1
MLEADERSTYLE
  2
AcDbMLeaderStyle
  3
ACDB_MLEADERSTYLE_CLASS
 90
     4095
 91
        1
280
     0
281
     0
  0
CLASS
  1
DICTIONARYVAR
  2
AcDbDictionaryVar
  3
ObjectDBX Classes
 90
        0
 91
        3
280
     0
281
     0
  0
CLASS
  1
CELLSTYLEMAP
  2
AcDbCellStyleMap
  3
ObjectDBX Classes
 90
     1152
 91
        1
280
     0
281
     0
  0
ENDSEC
  0
SECTION
  2
TABLES
  0
TABLE
  2
VPORT
  5
8
330
0
100
AcDbSymbolTable
 70
     1
  0
VPORT
  5
57
330
8
100
AcDbSymbolTableRecord
100
AcDbViewportTableRecord
  2
*Active
 70
     0
 10
0.0
 20
0.0
 11
1.0
 21
1.0
 12
93.49999999999999
 22
60.5
 13
0.0
 23
0.0
 14
1.0
 24
1.0
 15
0.0
 25
0.0
 16
0.0
 26
0.0
 36
1.0
 17
0.0
 27
0.0
 37
0.0
 40
121.0
 41
1.545454545454545
 42
50.0
 43
0.0
 44
0.0
 50
0.0
 51
0.0
 71
     0
 72
   100
 73
     1
 74
     1
 75
     0
 76
     0
 77
     0
 78
     0
281
     0
 65
     1
110
0.0
120
0.0
130
0.0
111
1.0
121
0.0
131
0.0
112
0.0
122
1.0
132
0.0
 79
     0
146
0.0
 60
     3
 61
     5
292
     1
282
     1
141
0.0
142
0.0
 63
   250
421
  3355443
  0
ENDTAB
  0
TABLE
  2
LTYPE
  5
5
330
0
100
AcDbSymbolTable
 70
    59
  0
LTYPE
  5
5B
330
5
100
AcDbSymbolTableRecord
100
AcDbLinetypeTableRecord
  2
ByBlock
 70
     0
  3

 72
    65
 73
     0
 40
0.0
  0
LTYPE
  5
5C
330
5
100
AcDbSymbolTableRecord
100
AcDbLinetypeTableRecord
  2
ByLayer
 70
     0
  3

 72
    65
 73
     0
 40
0.0
  0
LTYPE
  5
5D
330
5
100
AcDbSymbolTableRecord
100
AcDbLinetypeTableRecord
  2
Continuous
 70
     0
  3
Solid line
 72
    65
 73
     0
 40
0.0
  0
LTYPE
  5
7C
330
5
100
AcDbSymbolTableRecord
100
AcDbLinetypeTableRecord
  2
BY_STANDARD
 70
     0
  3
By Standard ____________    ____    ____   _
 72
    65
 73
     6
 40
1.240299999999999
 49
0.6614
 74
     0
 49
-0.0827
 74
     0
 49
0.1654
 74
     0
 49
-0.0827
 74
     0
 49
0.1654
 74
     0
 49
-0.0827
 74
     0
  0
LTYPE
  5
7D
330
5
100
AcDbSymbolTableRecord
100
AcDbLinetypeTableRecord
  2
CHAIN
 70
     0
  3
Chain ____ _ ____ _ ____ _ ____ _ ____ _ ____
 72
    65
 73
     4
 40
0.7087
 49
0.4724000000000001
 74
     0
 49
-0.0591
 74
     0
 49
0.1181
 74
     0
 49
-0.0591
 74
     0
  0
LTYPE
  5
7E
330
5
100
AcDbSymbolTableRecord
100
AcDbLinetypeTableRecord
  2
DASH_DOT
 70
     0
  3
Dash dot __ . __ . __ . __ . __ . __ . __ . __
 72
    65
 73
     4
 40
0.37
 49
0.24
 74
     0
 49
-0.06
 74
     0
 49
0.01
 74
     0
 49
-0.06
 74
     0
  0
LTYPE
  5
7F
330
5
100
AcDbSymbolTableRecord
100
AcDbLinetypeTableRecord
  2
DOUBLE_DASH_DOT
 70
     0
  3
Double-Dash Dot __ __ . __ __ . __ __ . __ _
 72
    65
 73
     6
 40
0.4398
 49
0.24
 74
     0
 49
-0.06
 74
     0
 49
0.0098
 74
     0
 49
-0.06
 74
     0
 49
0.01
 74
     0
 49
-0.06
 74
     0
  0
LTYPE
  5
80
330
5
100
AcDbSymbolTableRecord
100
AcDbLinetypeTableRecord
  2
DASH_TRIPLE_DOT
 70
     0
  3
Dash Triple-Dot _ . . . _ . . . _ . . . _
 72
    65
 73
     8
 40
0.51
 49
0.24
 74
     0
 49
-0.06
 74
     0
 49
0.01
 74
     0
 49
-0.06
 74
     0
 49
0.01
 74
     0
 49
-0.06
 74
     0
 49
0.01
 74
     0
 49
-0.06
 74
     0
  0
LTYPE
  5
81
330
5
100
AcDbSymbolTableRecord
100
AcDbLinetypeTableRecord
  2
DASHED
 70
     0
  3
Dashed __ __ __ __ __ __ __ __ __ __ __ __ __ _
 72
    65
 73
     2
 40
0.2067
 49
0.1654
 74
     0
 49
-0.0413
 74
     0
  0
LTYPE
  5
82
330
5
100
AcDbSymbolTableRecord
100
AcDbLinetypeTableRecord
  2
DASH_DOUBLE_DOT
 70
     0
  3
Dash Double-Dot __ . . __ . . __ . . __ . .
 72
    65
 73
     6
 40
0.4398
 49
0.24
 74
     0
 49
-0.06
 74
     0
 49
0.0098
 74
     0
 49
-0.06
 74
     0
 49
0.01
 74
     0
 49
-0.06
 74
     0
  0
LTYPE
  5
83
330
5
100
AcDbSymbolTableRecord
100
AcDbLinetypeTableRecord
  2
DASHED_SPACE
 70
     0
  3
Dashed Space __ __ __ __ __ __ __ __ __ __ __ _
 72
    65
 73
     2
 40
0.2067
 49
0.1654
 74
     0
 49
-0.0413
 74
     0
  0
LTYPE
  5
84
330
5
100
AcDbSymbolTableRecord
100
AcDbLinetypeTableRecord
  2
DOTTED
 70
     0
  3
Dotted . . . . . . . . . . . . . . . . . . . . 
 72
    65
 73
     2
 40
0.0482
 49
0.0069
 74
     0
 49
-0.0413
 74
     0
  0
LTYPE
  5
85
330
5
100
AcDbSymbolTableRecord
100
AcDbLinetypeTableRecord
  2
DOUBLE_DASH_CHAIN
 70
     0
  3
Double-Dash Chain ______  __  __  ______  __  _
 72
    65
 73
     6
 40
1.240299999999999
 49
0.6614
 74
     0
 49
-0.0827
 74
     0
 49
0.1654
 74
     0
 49
-0.0827
 74
     0
 49
0.1654
 74
     0
 49
-0.0827
 74
     0
  0
LTYPE
  5
87
330
5
100
AcDbSymbolTableRecord
100
AcDbLinetypeTableRecord
  2
DOUBLE_DASH_DOUBLE_DOT
 70
     0
  3
Double-Dash Double-dot _ _ . . _ _ . . _
 72
    65
 73
     8
 40
0.7400000000000001
 49
0.24
 74
     0
 49
-0.06
 74
     0
 49
0.24
 74
     0
 49
-0.06
 74
     0
 49
0.01
 74
     0
 49
-0.06
 74
     0
 49
0.01
 74
     0
 49
-0.06
 74
     0
  0
LTYPE
  5
88
330
5
100
AcDbSymbolTableRecord
100
AcDbLinetypeTableRecord
  2
DOUBLE_DASH_TRIPLE_DOT
 70
     0
  3
Double Dash Triple Dot __ __ . . . __ __ . .
 72
    65
 73
    10
 40
0.8100000000000001
 49
0.24
 74
     0
 49
-0.06
 74
     0
 49
0.24
 74
     0
 49
-0.06
 74
     0
 49
0.01
 74
     0
 49
-0.06
 74
     0
 49
0.01
 74
     0
 49
-0.06
 74
     0
 49
0.01
 74
     0
 49
-0.06
 74
     0
  0
LTYPE
  5
89
330
5
100
AcDbSymbolTableRecord
100
AcDbLinetypeTableRecord
  2
LONG_DASH_DOTTED
 70
     0
  3
Long Dash Dotted ____ . ____ . ____ . ____ . _
 72
    65
 73
     4
 40
0.3543
 49
0.2362
 74
     0
 49
-0.0295
 74
     0
 49
0.0591
 74
     0
 49
-0.0295
 74
     0
  0
LTYPE
  5
8A
330
5
100
AcDbSymbolTableRecord
100
AcDbLinetypeTableRecord
  2
LONG_DASH_DOUBLE_DOT
 70
     0
  3
Long Dash Double Dot ________  .  .  ________  
 72
    65
 73
     6
 40
0.6799999999999999
 49
0.48
 74
     0
 49
-0.06
 74
     0
 49
0.01
 74
     0
 49
-0.06
 74
     0
 49
0.01
 74
     0
 49
-0.06
 74
     0
  0
LTYPE
  5
8B
330
5
100
AcDbSymbolTableRecord
100
AcDbLinetypeTableRecord
  2
LONG_DASH_TRIPLE_DOT
 70
     0
  3
Long Dash Triple Dot ____ ... ____ ... ____
 72
    65
 73
     8
 40
0.3689
 49
0.2362
 74
     0
 49
-0.0295
 74
     0
 49
0.0049
 74
     0
 49
-0.0295
 74
     0
 49
0.0049
 74
     0
 49
-0.0295
 74
     0
 49
0.0049
 74
     0
 49
-0.0295
 74
     0
  0
LTYPE
  5
8C
330
5
100
AcDbSymbolTableRecord
100
AcDbLinetypeTableRecord
  2
BORDER
 70
     0
  3
Border __ __ . __ __ . __ __ . __ __ . __ __ .
 72
    65
 73
     6
 40
1.75
 49
0.5
 74
     0
 49
-0.25
 74
     0
 49
0.5
 74
     0
 49
-0.25
 74
     0
 49
0.0
 74
     0
 49
-0.25
 74
     0
  0
LTYPE
  5
8D
330
5
100
AcDbSymbolTableRecord
100
AcDbLinetypeTableRecord
  2
BORDER2
 70
     0
  3
Border (.5x) __.__.__.__.__.__.__.__.__.__.__.
 72
    65
 73
     6
 40
0.875
 49
0.25
 74
     0
 49
-0.125
 74
     0
 49
0.25
 74
     0
 49
-0.125
 74
     0
 49
0.0
 74
     0
 49
-0.125
 74
     0
  0
LTYPE
  5
8E
330
5
100
AcDbSymbolTableRecord
100
AcDbLinetypeTableRecord
  2
BORDERX2
 70
     0
  3
Border (2x) ____  ____  .  ____  ____  .  ___
 72
    65
 73
     6
 40
3.5
 49
1.0
 74
     0
 49
-0.5
 74
     0
 49
1.0
 74
     0
 49
-0.5
 74
     0
 49
0.0
 74
     0
 49
-0.5
 74
     0
  0
LTYPE
  5
8F
330
5
100
AcDbSymbolTableRecord
100
AcDbLinetypeTableRecord
  2
CENTER
 70
     0
  3
Center ____ _ ____ _ ____ _ ____ _ ____ _ ____
 72
    65
 73
     4
 40
2.0
 49
1.25
 74
     0
 49
-0.25
 74
     0
 49
0.25
 74
     0
 49
-0.25
 74
     0
  0
LTYPE
  5
90
330
5
100
AcDbSymbolTableRecord
100
AcDbLinetypeTableRecord
  2
CENTER2
 70
     0
  3
Center (.5x) ___ _ ___ _ ___ _ ___ _ ___ _ ___
 72
    65
 73
     4
 40
1.125
 49
0.75
 74
     0
 49
-0.125
 74
     0
 49
0.125
 74
     0
 49
-0.125
 74
     0
  0
LTYPE
  5
91
330
5
100
AcDbSymbolTableRecord
100
AcDbLinetypeTableRecord
  2
CENTERX2
 70
     0
  3
Center (2x) ________  __  ________  __  _____
 72
    65
 73
     4
 40
4.0
 49
2.5
 74
     0
 49
-0.5
 74
     0
 49
0.5
 74
     0
 49
-0.5
 74
     0
  0
LTYPE
  5
92
330
5
100
AcDbSymbolTableRecord
100
AcDbLinetypeTableRecord
  2
DASHDOT2
 70
     0
  3
Dash dot (.5x) _._._._._._._._._._._._._._._.
 72
    65
 73
     4
 40
0.5
 49
0.25
 74
     0
 49
-0.125
 74
     0
 49
0.0
 74
     0
 49
-0.125
 74
     0
  0
LTYPE
  5
93
330
5
100
AcDbSymbolTableRecord
100
AcDbLinetypeTableRecord
  2
DASHDOTX2
 70
     0
  3
Dash dot (2x) ____  .  ____  .  ____  .  ___
 72
    65
 73
     4
 40
2.0
 49
1.0
 74
     0
 49
-0.5
 74
     0
 49
0.0
 74
     0
 49
-0.5
 74
     0
  0
LTYPE
  5
95
330
5
100
AcDbSymbolTableRecord
100
AcDbLinetypeTableRecord
  2
DASHED2
 70
     0
  3
Dashed (.5x) _ _ _ _ _ _ _ _ _ _ _ _ _ _ _ _ _
 72
    65
 73
     2
 40
0.375
 49
0.25
 74
     0
 49
-0.125
 74
     0
  0
LTYPE
  5
96
330
5
100
AcDbSymbolTableRecord
100
AcDbLinetypeTableRecord
  2
DASHEDX2
 70
     0
  3
Dashed (2x) ____  ____  ____  ____  ____  ___
 72
    65
 73
     2
 40
1.5
 49
1.0
 74
     0
 49
-0.5
 74
     0
  0
LTYPE
  5
97
330
5
100
AcDbSymbolTableRecord
100
AcDbLinetypeTableRecord
  2
DIVIDE
 70
     0
  3
Divide ____ . . ____ . . ____ . . ____ . . ____
 72
    65
 73
     6
 40
1.25
 49
0.5
 74
     0
 49
-0.25
 74
     0
 49
0.0
 74
     0
 49
-0.25
 74
     0
 49
0.0
 74
     0
 49
-0.25
 74
     0
  0
LTYPE
  5
98
330
5
100
AcDbSymbolTableRecord
100
AcDbLinetypeTableRecord
  2
DIVIDE2
 70
     0
  3
Divide (.5x) __..__..__..__..__..__..__..__.._
 72
    65
 73
     6
 40
0.625
 49
0.25
 74
     0
 49
-0.125
 74
     0
 49
0.0
 74
     0
 49
-0.125
 74
     0
 49
0.0
 74
     0
 49
-0.125
 74
     0
  0
LTYPE
  5
99
330
5
100
AcDbSymbolTableRecord
100
AcDbLinetypeTableRecord
  2
DIVIDEX2
 70
     0
  3
Divide (2x) ________  .  .  ________  .  .  _
 72
    65
 73
     6
 40
2.5
 49
1.0
 74
     0
 49
-0.5
 74
     0
 49
0.0
 74
     0
 49
-0.5
 74
     0
 49
0.0
 74
     0
 49
-0.5
 74
     0
  0
LTYPE
  5
9A
330
5
100
AcDbSymbolTableRecord
100
AcDbLinetypeTableRecord
  2
DOT
 70
     0
  3
Dot . . . . . . . . . . . . . . . . . . . . . .
 72
    65
 73
     2
 40
0.25
 49
0.0
 74
     0
 49
-0.25
 74
     0
  0
LTYPE
  5
9B
330
5
100
AcDbSymbolTableRecord
100
AcDbLinetypeTableRecord
  2
DOT2
 70
     0
  3
Dot (.5x) .....................................
 72
    65
 73
     2
 40
0.125
 49
0.0
 74
     0
 49
-0.125
 74
     0
  0
LTYPE
  5
9C
330
5
100
AcDbSymbolTableRecord
100
AcDbLinetypeTableRecord
  2
DOTX2
 70
     0
  3
Dot (2x) .  .  .  .  .  .  .  .  .  .  .  .  . 
 72
    65
 73
     2
 40
0.5
 49
0.0
 74
     0
 49
-0.5
 74
     0
  0
LTYPE
  5
9D
330
5
100
AcDbSymbolTableRecord
100
AcDbLinetypeTableRecord
  2
HIDDEN
 70
     0
  3
Hidden __ __ __ __ __ __ __ __ __ __ __ __ __ _
 72
    65
 73
     2
 40
0.375
 49
0.25
 74
     0
 49
-0.125
 74
     0
  0
LTYPE
  5
9E
330
5
100
AcDbSymbolTableRecord
100
AcDbLinetypeTableRecord
  2
HIDDEN2
 70
     0
  3
Hidden (.5x) _ _ _ _ _ _ _ _ _ _ _ _ _ _ _ _ _
 72
    65
 73
     2
 40
0.1875
 49
0.125
 74
     0
 49
-0.0625
 74
     0
  0
LTYPE
  5
9F
330
5
100
AcDbSymbolTableRecord
100
AcDbLinetypeTableRecord
  2
HIDDENX2
 70
     0
  3
Hidden (2x) ____ ____ ____ ____ ____ ____ ____
 72
    65
 73
     2
 40
0.75
 49
0.5
 74
     0
 49
-0.25
 74
     0
  0
LTYPE
  5
A0
330
5
100
AcDbSymbolTableRecord
100
AcDbLinetypeTableRecord
  2
PHANTOM
 70
     0
  3
Phantom ______  __  __  ______  __  __  ______
 72
    65
 73
     6
 40
2.5
 49
1.25
 74
     0
 49
-0.25
 74
     0
 49
0.25
 74
     0
 49
-0.25
 74
     0
 49
0.25
 74
     0
 49
-0.25
 74
     0
  0
LTYPE
  5
A1
330
5
100
AcDbSymbolTableRecord
100
AcDbLinetypeTableRecord
  2
PHANTOM2
 70
     0
  3
Phantom (.5x) ___ _ _ ___ _ _ ___ _ _ ___ _ _
 72
    65
 73
     6
 40
1.25
 49
0.625
 74
     0
 49
-0.125
 74
     0
 49
0.125
 74
     0
 49
-0.125
 74
     0
 49
0.125
 74
     0
 49
-0.125
 74
     0
  0
LTYPE
  5
A2
330
5
100
AcDbSymbolTableRecord
100
AcDbLinetypeTableRecord
  2
PHANTOMX2
 70
     0
  3
Phantom (2x) ____________    ____    ____   _
 72
    65
 73
     6
 40
5.0
 49
2.5
 74
     0
 49
-0.5
 74
     0
 49
0.5
 74
     0
 49
-0.5
 74
     0
 49
0.5
 74
     0
 49
-0.5
 74
     0
  0
LTYPE
  5
A3
330
5
100
AcDbSymbolTableRecord
100
AcDbLinetypeTableRecord
  2
ACAD_ISO02W100
 70
     0
  3
ISO dash __ __ __ __ __ __ __ __ __ __ __ __ __
 72
    65
 73
     2
 40
0.59
 49
0.47
 74
     0
 49
-0.12
 74
     0
  0
LTYPE
  5
A4
330
5
100
AcDbSymbolTableRecord
100
AcDbLinetypeTableRecord
  2
ACAD_ISO03W100
 70
     0
  3
ISO dash space __    __    __    __    __    __
 72
    65
 73
     2
 40
1.179999999999999
 49
0.47
 74
     0
 49
-0.71
 74
     0
  0
LTYPE
  5
A5
330
5
100
AcDbSymbolTableRecord
100
AcDbLinetypeTableRecord
  2
ACAD_ISO04W100
 70
     0
  3
ISO long-dash dot ____ . ____ . ____ . ____ . _
 72
    65
 73
     4
 40
1.179999999999999
 49
0.9399999999999998
 74
     0
 49
-0.12
 74
     0
 49
0.0
 74
     0
 49
-0.12
 74
     0
  0
LTYPE
  5
A6
330
5
100
AcDbSymbolTableRecord
100
AcDbLinetypeTableRecord
  2
ACAD_ISO05W100
 70
     0
  3
ISO long-dash double-dot ____ .. ____ .. ____ .
 72
    65
 73
     6
 40
1.299999999999999
 49
0.9399999999999998
 74
     0
 49
-0.12
 74
     0
 49
0.0
 74
     0
 49
-0.12
 74
     0
 49
0.0
 74
     0
 49
-0.12
 74
     0
  0
LTYPE
  5
A7
330
5
100
AcDbSymbolTableRecord
100
AcDbLinetypeTableRecord
  2
ACAD_ISO06W100
 70
     0
  3
ISO long-dash triple-dot ____ ... ____ ... ____
 72
    65
 73
     8
 40
1.419999999999999
 49
0.9399999999999998
 74
     0
 49
-0.12
 74
     0
 49
0.0
 74
     0
 49
-0.12
 74
     0
 49
0.0
 74
     0
 49
-0.12
 74
     0
 49
0.0
 74
     0
 49
-0.12
 74
     0
  0
LTYPE
  5
A8
330
5
100
AcDbSymbolTableRecord
100
AcDbLinetypeTableRecord
  2
ACAD_ISO07W100
 70
     0
  3
ISO dot . . . . . . . . . . . . . . . . . . . .
 72
    65
 73
     2
 40
0.12
 49
0.0
 74
     0
 49
-0.12
 74
     0
  0
LTYPE
  5
A9
330
5
100
AcDbSymbolTableRecord
100
AcDbLinetypeTableRecord
  2
ACAD_ISO08W100
 70
     0
  3
ISO long-dash short-dash ____ __ ____ __ ____ _
 72
    65
 73
     4
 40
0.95
 49
0.47
 74
     0
 49
-0.12
 74
     0
 49
0.24
 74
     0
 49
-0.12
 74
     0
  0
LTYPE
  5
AA
330
5
100
AcDbSymbolTableRecord
100
AcDbLinetypeTableRecord
  2
ACAD_ISO09W100
 70
     0
  3
ISO long-dash double-short-dash ____ __ __ ____
 72
    65
 73
     6
 40
1.31
 49
0.47
 74
     0
 49
-0.12
 74
     0
 49
0.24
 74
     0
 49
-0.12
 74
     0
 49
0.24
 74
     0
 49
-0.12
 74
     0
  0
LTYPE
  5
AB
330
5
100
AcDbSymbolTableRecord
100
AcDbLinetypeTableRecord
  2
ACAD_ISO10W100
 70
     0
  3
ISO dash dot __ . __ . __ . __ . __ . __ . __ .
 72
    65
 73
     4
 40
0.71
 49
0.47
 74
     0
 49
-0.12
 74
     0
 49
0.0
 74
     0
 49
-0.12
 74
     0
  0
LTYPE
  5
AC
330
5
100
AcDbSymbolTableRecord
100
AcDbLinetypeTableRecord
  2
ACAD_ISO11W100
 70
     0
  3
ISO double-dash dot __ __ . __ __ . __ __ . __ 
 72
    65
 73
     6
 40
1.299999999999999
 49
0.47
 74
     0
 49
-0.12
 74
     0
 49
0.47
 74
     0
 49
-0.12
 74
     0
 49
0.0
 74
     0
 49
-0.12
 74
     0
  0
LTYPE
  5
AD
330
5
100
AcDbSymbolTableRecord
100
AcDbLinetypeTableRecord
  2
ACAD_ISO12W100
 70
     0
  3
ISO dash double-dot __ . . __ . . __ . . __ . .
 72
    65
 73
     6
 40
0.8299999999999998
 49
0.47
 74
     0
 49
-0.12
 74
     0
 49
0.0
 74
     0
 49
-0.12
 74
     0
 49
0.0
 74
     0
 49
-0.12
 74
     0
  0
LTYPE
  5
AE
330
5
100
AcDbSymbolTableRecord
100
AcDbLinetypeTableRecord
  2
ACAD_ISO13W100
 70
     0
  3
ISO double-dash double-dot __ __ . . __ __ . . 
 72
    65
 73
     8
 40
1.419999999999999
 49
0.47
 74
     0
 49
-0.12
 74
     0
 49
0.47
 74
     0
 49
-0.12
 74
     0
 49
0.0
 74
     0
 49
-0.12
 74
     0
 49
0.0
 74
     0
 49
-0.12
 74
     0
  0
LTYPE
  5
AF
330
5
100
AcDbSymbolTableRecord
100
AcDbLinetypeTableRecord
  2
ACAD_ISO14W100
 70
     0
  3
ISO dash triple-dot __ . . . __ . . . __ . . . 
 72
    65
 73
     8
 40
0.95
 49
0.47
 74
     0
 49
-0.12
 74
     0
 49
0.0
 74
     0
 49
-0.12
 74
     0
 49
0.0
 74
     0
 49
-0.12
 74
     0
 49
0.0
 74
     0
 49
-0.12
 74
     0
  0
LTYPE
  5
B0
330
5
100
AcDbSymbolTableRecord
100
AcDbLinetypeTableRecord
  2
ACAD_ISO15W100
 70
     0
  3
ISO double-dash triple-dot __ __ . . . __ __ . 
 72
    65
 73
    10
 40
1.539999999999999
 49
0.47
 74
     0
 49
-0.12
 74
     0
 49
0.47
 74
     0
 49
-0.12
 74
     0
 49
0.0
 74
     0
 49
-0.12
 74
     0
 49
0.0
 74
     0
 49
-0.12
 74
     0
 49
0.0
 74
     0
 49
-0.12
 74
     0
  0
LTYPE
  5
B3
330
5
100
AcDbSymbolTableRecord
100
AcDbLinetypeTableRecord
  2
FENCELINE1
 70
     0
  3
Fenceline circle ----0-----0----0-----0----0---
 72
    65
 73
     4
 40
1.45
 49
0.25
 74
     0
 49
-0.1
 74
     4
 75
   133
340
B2
 46
0.1
 50
0.0
 44
-0.1
 45
0.0
 49
-0.1
 74
     0
 49
1.0
 74
     0
  0
LTYPE
  5
B4
330
5
100
AcDbSymbolTableRecord
100
AcDbLinetypeTableRecord
  2
FENCELINE2
 70
     0
  3
Fenceline square ----[]-----[]----[]-----[]----
 72
    65
 73
     4
 40
1.45
 49
0.25
 74
     0
 49
-0.1
 74
     4
 75
   132
340
B2
 46
0.1
 50
0.0
 44
-0.1
 45
0.0
 49
-0.1
 74
     0
 49
1.0
 74
     0
  0
LTYPE
  5
B5
330
5
100
AcDbSymbolTableRecord
100
AcDbLinetypeTableRecord
  2
TRACKS
 70
     0
  3
Tracks -|-|-|-|-|-|-|-|-|-|-|-|-|-|-|-|-|-|-|-|
 72
    65
 73
     2
 40
0.3
 49
0.15
 74
     4
 75
   130
340
B2
 46
0.25
 50
0.0
 44
0.0
 45
0.0
 49
0.15
 74
     0
  0
LTYPE
  5
B6
330
5
100
AcDbSymbolTableRecord
100
AcDbLinetypeTableRecord
  2
BATTING
 70
     0
  3
Batting SSSSSSSSSSSSSSSSSSSSSSSSSSSSSSSSSSSSSSS
 72
    65
 73
     4
 40
0.4001000000000001
 49
0.0001
 74
     0
 49
-0.1
 74
     4
 75
   134
340
B2
 46
0.1
 50
0.0
 44
-0.1
 45
0.0
 49
-0.2
 74
     4
 75
   134
340
B2
 46
0.1
 50
180.0
 44
0.1
 45
0.0
 49
-0.1
 74
     0
  0
LTYPE
  5
B7
330
5
100
AcDbSymbolTableRecord
100
AcDbLinetypeTableRecord
  2
HOT_WATER_SUPPLY
 70
     0
  3
Hot water supply ---- HW ---- HW ---- HW ----
 72
    65
 73
     3
 40
0.9
 49
0.5
 74
     0
 49
-0.2
 74
     2
 75
     0
340
55
 46
0.1
 50
0.0
 44
-0.1
 45
-0.05
  9
HW
 49
-0.2
 74
     0
  0
LTYPE
  5
B8
330
5
100
AcDbSymbolTableRecord
100
AcDbLinetypeTableRecord
  2
GAS_LINE
 70
     0
  3
Gas line ----GAS----GAS----GAS----GAS----GAS---
 72
    65
 73
     3
 40
0.95
 49
0.5
 74
     0
 49
-0.2
 74
     2
 75
     0
340
55
 46
0.1
 50
0.0
 44
-0.1
 45
-0.05
  9
GAS
 49
-0.25
 74
     0
  0
LTYPE
  5
B9
330
5
100
AcDbSymbolTableRecord
100
AcDbLinetypeTableRecord
  2
ZIGZAG
 70
     0
  3
Zig zag /\/\/\/\/\/\/\/\/\/\/\/\/\/\/\/\/\/\/\/
 72
    65
 73
     4
 40
0.8001000000000001
 49
0.0001
 74
     0
 49
-0.2
 74
     4
 75
   131
340
B2
 46
0.2
 50
0.0
 44
-0.2
 45
0.0
 49
-0.4
 74
     4
 75
   131
340
B2
 46
0.2
 50
180.0
 44
0.2
 45
0.0
 49
-0.2
 74
     0
  0
ENDTAB
  0
TABLE
  2
LAYER
  5
2
330
0
100
AcDbSymbolTable
 70
    27
  0
LAYER
  5
54
330
2
100
AcDbSymbolTableRecord
100
AcDbLayerTableRecord
  2
0
 70
     0
 62
     7
  6
Continuous
370
    18
390
F
347
21
  0
LAYER
  5
C0
330
2
100
AcDbSymbolTableRecord
100
AcDbLayerTableRecord
  2
Center Mark (ANSI)
 70
     0
 62
     7
  6
Continuous
370
    15
390
F
347
21
  0
LAYER
  5
C1
330
2
100
AcDbSymbolTableRecord
100
AcDbLayerTableRecord
  2
Centerline (ANSI)
 70
     0
 62
     7
  6
Continuous
370
    15
390
F
347
21
  0
LAYER
  5
C3
330
2
100
AcDbSymbolTableRecord
100
AcDbLayerTableRecord
  2
Dimension (ANSI)
 70
     0
 62
     7
  6
Continuous
370
    13
390
F
347
21
  0
LAYER
  5
CC
330
2
100
AcDbSymbolTableRecord
100
AcDbLayerTableRecord
  2
Symbol (ANSI)
 70
     0
 62
     7
  6
Continuous
370
    18
390
F
347
21
  0
LAYER
  5
CF
330
2
100
AcDbSymbolTableRecord
100
AcDbLayerTableRecord
  2
Visible (ANSI)
 70
     0
 62
     7
  6
Continuous
370
    13
390
F
347
21
  0
LAYER
  5
D0
330
2
100
AcDbSymbolTableRecord
100
AcDbLayerTableRecord
  2
Visible Narrow (ANSI)
 70
     0
 62
     7
  6
Continuous
370
    18
390
F
347
21
  0
LAYER
  5
2F1
330
2
100
AcDbSymbolTableRecord
100
AcDbLayerTableRecord
  2
Defpoints
 70
     0
 62
     7
  6
Continuous
290
     0
370
    -3
390
F
347
21
  0
ENDTAB
  0
TABLE
  2
STYLE
  5
3
330
0
100
AcDbSymbolTable
 70
    18
  0
STYLE
  5
55
330
3
100
AcDbSymbolTableRecord
100
AcDbTextStyleTableRecord
  2
Standard
 70
     0
 40
0.0
 41
1.0
 50
0.0
 71
     0
 42
0.2
  3
txt
  4

  0
STYLE
  5
5A
330
3
100
AcDbSymbolTableRecord
100
AcDbTextStyleTableRecord
  2
Annotative
 70
     0
 40
0.0
 41
1.0
 50
0.0
 71
     0
 42
0.2
  3
txt
  4

1001
AcadAnnotative
1000
AnnotativeData
1002
{
1070
     1
1070
     1
1002
}
  0
STYLE
  5
B2
330
3
100
AcDbSymbolTableRecord
100
AcDbTextStyleTableRecord
  2

 70
     1
 40
0.0
 41
1.0
 50
0.0
 71
     0
 42
0.2
  3
ltypeshp.shx
  4

  0
STYLE
  5
D4
330
3
100
AcDbSymbolTableRecord
100
AcDbTextStyleTableRecord
  2
ITALICC_120
 70
     0
 40
0.0
 41
1.0
 50
0.0
 71
     0
 42
0.2
  3
italicc.shx
  4

  0
STYLE
  5
D5
330
3
100
AcDbSymbolTableRecord
100
AcDbTextStyleTableRecord
  2
Label Text (ANSI)
 70
     0
 40
0.0
 41
1.0
 50
0.0
 71
     0
 42
0.2
  3
tahoma.ttf
  4

1001
ACAD
1000
Tahoma
1071
      256
  0
STYLE
  5
D6
330
3
100
AcDbSymbolTableRecord
100
AcDbTextStyleTableRecord
  2
Note Text (ANSI)
 70
     0
 40
0.0
 41
1.0
 50
0.0
 71
     0
 42
0.2
  3
tahoma.ttf
  4

1001
ACAD
1000
Tahoma
1071
      256
  0
STYLE
  5
D7
330
3
100
AcDbSymbolTableRecord
100
AcDbTextStyleTableRecord
  2
ROMANS
 70
     0
 40
0.0
 41
1.0
 50
0.0
 71
     0
 42
0.2
  3
romans.shx
  4

  0
STYLE
  5
D8
330
3
100
AcDbSymbolTableRecord
100
AcDbTextStyleTableRecord
  2
SANSSERIF_114
 70
     0
 40
0.0
 41
1.0
 50
0.0
 71
     0
 42
0.2
  3
tahoma.ttf
  4

1001
ACAD
1000
Tahoma
1071
      256
  0
STYLE
  5
D9
330
3
100
AcDbSymbolTableRecord
100
AcDbTextStyleTableRecord
  2
SANSSERIF_117
 70
     0
 40
0.0
 41
1.0
 50
0.0
 71
     0
 42
0.2
  3
tahoma.ttf
  4

1001
ACAD
1000
Tahoma
1071
      256
  0
STYLE
  5
DA
330
3
100
AcDbSymbolTableRecord
100
AcDbTextStyleTableRecord
  2
STANDARDAM_ANSI
 70
     0
 40
0.0
 41
1.0
 50
0.0
 71
     0
 42
0.2
  3
txt.shx
  4

  0
STYLE
  5
DB
330
3
100
AcDbSymbolTableRecord
100
AcDbTextStyleTableRecord
  2
StandardAM_ANSI$0
 70
     0
 40
0.0
 41
1.0
 50
0.0
 71
     0
 42
0.2
  3
txt.shx
  4

  0
STYLE
  5
DC
330
3
100
AcDbSymbolTableRecord
100
AcDbTextStyleTableRecord
  2
STANDARDAM_ANSI$3
 70
     0
 40
0.0
 41
1.0
 50
0.0
 71
     0
 42
0.2
  3
txt.shx
  4

  0
STYLE
  5
DD
330
3
100
AcDbSymbolTableRecord
100
AcDbTextStyleTableRecord
  2
STANDARDAM_ANSI$4
 70
     0
 40
0.0
 41
1.0
 50
0.0
 71
     0
 42
0.2
  3
txt.shx
  4

  0
STYLE
  5
DE
330
3
100
AcDbSymbolTableRecord
100
AcDbTextStyleTableRecord
  2
STANDARDAM_ANSI$7
 70
     0
 40
0.0
 41
1.0
 50
0.0
 71
     0
 42
0.2
  3
txt.shx
  4

  0
STYLE
  5
DF
330
3
100
AcDbSymbolTableRecord
100
AcDbTextStyleTableRecord
  2
STANDARDAM_ANSI$SF
 70
     0
 40
0.0
 41
1.0
 50
0.0
 71
     0
 42
0.2
  3
txt.shx
  4

  0
STYLE
  5
E0
330
3
100
AcDbSymbolTableRecord
100
AcDbTextStyleTableRecord
  2
STANDARDAM_ANSI$SH
 70
     0
 40
0.0
 41
1.0
 50
0.0
 71
     0
 42
0.2
  3
txt.shx
  4

  0
STYLE
  5
E1
330
3
100
AcDbSymbolTableRecord
100
AcDbTextStyleTableRecord
  2
STANDARDSTANDARD
 70
     0
 40
0.0
 41
1.0
 50
0.0
 71
     0
 42
0.2
  3
txt.shx
  4

  0
STYLE
  5
201
330
3
100
AcDbSymbolTableRecord
100
AcDbTextStyleTableRecord
  2
Text Style154
 70
     0
 40
0.0
 41
1.0
 50
0.0
 71
     0
 42
0.2
  3
tahoma.ttf
  4

1001
ACAD
1000
Tahoma
1071
      256
  0
ENDTAB
  0
TABLE
  2
VIEW
  5
6
330
0
100
AcDbSymbolTable
 70
     0
  0
ENDTAB
  0
TABLE
  2
UCS
  5
7
330
0
100
AcDbSymbolTable
 70
     0
  0
ENDTAB
  0
TABLE
  2
APPID
  5
9
330
0
100
AcDbSymbolTable
 70
     3
  0
APPID
  5
56
330
9
100
AcDbSymbolTableRecord
100
AcDbRegAppTableRecord
  2
ACAD
 70
     0
  0
APPID
  5
5E
330
9
100
AcDbSymbolTableRecord
100
AcDbRegAppTableRecord
  2
AcadAnnotative
 70
     0
  0
APPID
  5
B4E
330
9
100
AcDbSymbolTableRecord
100
AcDbRegAppTableRecord
  2
ACAD_DSTYLE_DIMRADIAL_EXTENSION
 70
     0
  0
ENDTAB
  0
TABLE
  2
DIMSTYLE
  5
A
330
0
100
AcDbSymbolTable
 70
    27
100
AcDbDimStyleTable
 71
     2
340
F6
340
58
  0
DIMSTYLE
105
58
330
A
100
AcDbSymbolTableRecord
100
AcDbDimStyleTableRecord
  2
STANDARD
 70
     0
 41
0.1800000071525573
 42
0.0625
140
0.1800000071525574
144
1.0
147
0.0900000035762787
176
   256
177
   256
178
   256
274
     3
340
55
371
    -1
372
    -1
  0
DIMSTYLE
105
59
330
A
100
AcDbSymbolTableRecord
100
AcDbDimStyleTableRecord
  2
Annotative
 70
     0
340
55
1001
AcadAnnotative
1000
AnnotativeData
1002
{
1070
     1
1070
     1
1002
}
  0
DIMSTYLE
105
E2
330
A
100
AcDbSymbolTableRecord
100
AcDbDimStyleTableRecord
  2
AM_ANSI
 70
     0
  4
 mm
 40
11.0
 41
0.119999997317791
 42
0.05
 43
0.5
 44
0.1
 45
0.00000001
 78
     4
 79
     2
140
0.1200000047683716
146
0.7099999189376831
147
0.0599999986588955
176
   256
177
   256
178
     2
284
     4
340
DA
371
    -1
372
    -1
  0
DIMSTYLE
105
E3
330
A
100
AcDbSymbolTableRecord
100
AcDbDimStyleTableRecord
  2
AM_ANSI$7
 70
     0
  4
 mm
 40
11.0
 41
0.119999997317791
 42
0.05
 43
0.5
 44
0.1
 45
0.00000001
 78
     4
 79
     2
140
0.1200000047683716
146
0.7099999189376831
147
0.0599999986588955
176
   256
177
   256
178
     2
284
     4
340
DA
371
    -1
372
    -1
  0
DIMSTYLE
105
E4
330
A
100
AcDbSymbolTableRecord
100
AcDbDimStyleTableRecord
  2
AM_ANSI$0
 70
     0
  4
 mm
 40
11.0
 41
0.119999997317791
 42
0.05
 43
0.5
 44
0.1
 45
0.00000001
 78
     4
 79
     2
140
0.1200000047683716
146
0.7099999189376831
147
0.0599999986588955
176
   256
177
   256
178
     2
284
     4
340
DB
371
    -1
372
    -1
  0
DIMSTYLE
105
E5
330
A
100
AcDbSymbolTableRecord
100
AcDbDimStyleTableRecord
  2
AM_ANSI$0$7
 70
     0
  4
 mm
 40
11.0
 41
0.119999997317791
 42
0.05
 43
0.5
 44
0.1
 45
0.00000001
 78
     4
 79
     2
140
0.1200000047683716
146
0.7099999189376831
147
0.0599999986588955
176
   256
177
   256
178
     2
284
     4
340
DB
371
    -1
372
    -1
  0
DIMSTYLE
105
E6
330
A
100
AcDbSymbolTableRecord
100
AcDbDimStyleTableRecord
  2
AM_ANSI$3
 70
     0
  4
 mm
 40
11.0
 41
0.119999997317791
 42
0.05
 43
0.5
 44
0.1
 45
0.00000001
 78
     4
 79
     2
140
0.1200000047683716
146
0.7099999189376831
147
0.0599999986588955
176
   256
177
   256
178
     2
284
     4
340
DC
371
    -1
372
    -1
  0
DIMSTYLE
105
E7
330
A
100
AcDbSymbolTableRecord
100
AcDbDimStyleTableRecord
  2
AM_ANSI$3$7
 70
     0
  4
 mm
 40
11.0
 41
0.119999997317791
 42
0.05
 43
0.5
 44
0.1
 45
0.00000001
 78
     4
 79
     2
140
0.1200000047683716
146
0.7099999189376831
147
0.0599999986588955
176
   256
177
   256
178
     2
284
     4
340
DC
371
    -1
372
    -1
  0
DIMSTYLE
105
E8
330
A
100
AcDbSymbolTableRecord
100
AcDbDimStyleTableRecord
  2
AM_ANSI$4
 70
     0
  4
 mm
 40
11.0
 41
0.119999997317791
 42
0.05
 43
0.5
 44
0.1
 45
0.00000001
 78
     4
 79
     2
140
0.1200000047683716
146
0.7099999189376831
147
0.0599999986588955
176
   256
177
   256
178
     2
284
     4
340
DD
371
    -1
372
    -1
  0
DIMSTYLE
105
E9
330
A
100
AcDbSymbolTableRecord
100
AcDbDimStyleTableRecord
  2
AM_ANSI$4$7
 70
     0
  4
 mm
 40
11.0
 41
0.119999997317791
 42
0.05
 43
0.5
 44
0.1
 45
0.00000001
 78
     4
 79
     2
140
0.1200000047683716
146
0.7099999189376831
147
0.0599999986588955
176
   256
177
   256
178
     2
284
     4
340
DD
371
    -1
372
    -1
  0
DIMSTYLE
105
EA
330
A
100
AcDbSymbolTableRecord
100
AcDbDimStyleTableRecord
  2
AM_ANSI$SF
 70
     0
  4
 mm
 40
11.0
 41
0.119999997317791
 42
0.05
 43
0.5
 44
0.1
 45
0.00000001
 75
     1
 76
     1
 78
     4
 79
     2
140
0.1200000047683716
146
0.7099999189376831
147
0.0599999986588955
176
   256
177
   256
178
     2
284
     4
340
DF
371
    -1
372
    -1
  0
DIMSTYLE
105
EB
330
A
100
AcDbSymbolTableRecord
100
AcDbDimStyleTableRecord
  2
AM_ANSI$SF$7
 70
     0
  4
 mm
 40
11.0
 41
0.119999997317791
 42
0.05
 43
0.5
 44
0.1
 45
0.00000001
 75
     1
 76
     1
 78
     4
 79
     2
140
0.1200000047683716
146
0.7099999189376831
147
0.0599999986588955
176
   256
177
   256
178
     2
284
     4
340
DF
371
    -1
372
    -1
  0
DIMSTYLE
105
EC
330
A
100
AcDbSymbolTableRecord
100
AcDbDimStyleTableRecord
  2
AM_ANSI$SH
 70
     0
  4
 mm
 40
11.0
 41
0.119999997317791
 42
0.05
 43
0.5
 44
0.1
 45
0.00000001
 75
     1
 76
     1
 78
     4
 79
     2
140
0.1200000047683716
146
0.7099999189376831
147
0.0599999986588955
176
   256
177
   256
178
     2
284
     4
340
E0
371
    -1
372
    -1
  0
DIMSTYLE
105
ED
330
A
100
AcDbSymbolTableRecord
100
AcDbDimStyleTableRecord
  2
AM_ANSI$SH$7
 70
     0
  4
 mm
 40
11.0
 41
0.119999997317791
 42
0.05
 43
0.5
 44
0.1
 45
0.00000001
 75
     1
 76
     1
 78
     4
 79
     2
140
0.1200000047683716
146
0.7099999189376831
147
0.0599999986588955
176
   256
177
   256
178
     2
284
     4
340
E0
371
    -1
372
    -1
  0
DIMSTYLE
105
EE
330
A
100
AcDbSymbolTableRecord
100
AcDbDimStyleTableRecord
  2
Architectural (ANSI)
 70
     0
 40
11.0
 41
0.0984251946210861
 43
0.2362204724409449
 44
0.125
 45
0.00000001
 46
0.3937007874015748
 78
     3
 79
     3
140
0.1200000047683716
147
0.031496062992126
171
     1
176
   256
177
   256
178
   256
272
     2
274
     1
276
     2
277
     4
284
    12
285
     4
286
    12
340
D6
371
    -1
372
    -1
  0
DIMSTYLE
105
EF
330
A
100
AcDbSymbolTableRecord
100
AcDbDimStyleTableRecord
  2
Architectural (ANSI)$7
 70
     0
 40
11.0
 41
0.0984251946210861
 43
0.2362204724409449
 44
0.125
 45
0.00000001
 46
0.3937007874015748
 78
     3
 79
     3
140
0.1200000047683716
147
0.031496062992126
171
     1
176
   256
177
   256
178
   256
272
     2
274
     1
276
     2
277
     4
284
    12
285
     4
286
    12
340
D6
371
    -1
372
    -1
  0
DIMSTYLE
105
F0
330
A
100
AcDbSymbolTableRecord
100
AcDbDimStyleTableRecord
  2
Default - Fraction (ANSI)
 70
     0
 40
11.0
 41
0.0984251946210861
 43
0.2362204724409449
 44
0.125
 45
0.00000001
 46
0.3937007874015748
 79
     3
140
0.1200000047683716
147
0.031496062992126
171
     1
176
   256
177
   256
178
   256
272
     2
274
     1
276
     2
277
     5
284
    12
285
     4
286
    12
340
D6
371
    -1
372
    -1
  0
DIMSTYLE
105
F1
330
A
100
AcDbSymbolTableRecord
100
AcDbDimStyleTableRecord
  2
Default - Fraction (ANSI)$7
 70
     0
 40
11.0
 41
0.0984251946210861
 43
0.2362204724409449
 44
0.125
 45
0.00000001
 46
0.3937007874015748
 79
     3
140
0.1200000047683716
147
0.031496062992126
171
     1
176
   256
177
   256
178
   256
272
     2
274
     1
276
     2
277
     5
284
    12
285
     4
286
    12
340
D6
371
    -1
372
    -1
  0
DIMSTYLE
105
F2
330
A
100
AcDbSymbolTableRecord
100
AcDbDimStyleTableRecord
  2
Default - mm (ANSI)
 70
     0
 40
11.0
 41
0.0984251946210861
 42
0.063
 43
0.2362204724409449
 44
0.125
 45
0.00000001
 46
0.3937007874015748
 73
     0
 78
     4
 79
     1
140
0.1200000047683716
143
1.0
144
25.4
147
0.031496062992126
171
     1
176
   256
177
   256
178
   256
179
     1
271
     2
272
     2
274
     1
284
     4
285
     4
340
D6
371
    -1
372
    -1
  0
DIMSTYLE
105
F3
330
A
100
AcDbSymbolTableRecord
100
AcDbDimStyleTableRecord
  2
Default - mm (ANSI)$7
 70
     0
 40
11.0
 41
0.0984251946210861
 42
0.063
 43
0.2362204724409449
 44
0.125
 45
0.00000001
 46
0.3937007874015748
 73
     0
 78
     4
 79
     1
140
0.1200000047683716
143
1.0
144
25.4
147
0.031496062992126
171
     1
176
   256
177
   256
178
   256
179
     1
271
     2
272
     2
274
     1
284
     4
285
     4
340
D6
371
    -1
372
    -1
  0
DIMSTYLE
105
F4
330
A
100
AcDbSymbolTableRecord
100
AcDbDimStyleTableRecord
  2
Default - mm [in] (ANSI)
 70
     0
  4
 in
 40
11.0
 41
0.0984251946210861
 42
0.063
 43
0.25
 44
0.125
 45
0.00000001
 46
0.3937007874015748
 73
     0
 78
     4
 79
     1
140
0.1200000047683716
143
0.03937
144
25.4
147
0.031496062992126
170
     1
171
     3
176
   256
177
   256
178
   256
179
     1
271
     2
272
     2
274
     3
284
     4
285
     4
286
     4
340
D6
371
    -1
372
    -1
  0
DIMSTYLE
105
F5
330
A
100
AcDbSymbolTableRecord
100
AcDbDimStyleTableRecord
  2
Default - mm [in] (ANSI)$7
 70
     0
  4
 in
 40
11.0
 41
0.0984251946210861
 42
0.063
 43
0.25
 44
0.125
 45
0.00000001
 46
0.3937007874015748
 73
     0
 78
     4
 79
     1
140
0.1200000047683716
143
0.03937
144
25.4
147
0.031496062992126
170
     1
171
     3
176
   256
177
   256
178
   256
179
     1
271
     2
272
     2
274
     3
284
     4
285
     4
286
     4
340
D6
371
    -1
372
    -1
  0
DIMSTYLE
105
F6
102
{ACAD_REACTORS
330
2EF
330
3DB
330
4C5
330
5AF
330
699
330
783
330
86D
330
AB4
330
B88
330
C88
330
D72
102
}
330
A
100
AcDbSymbolTableRecord
100
AcDbDimStyleTableRecord
  2
Default (ANSI)
 70
     0
 40
11.0
 41
0.0984251946210861
 43
0.2362204724409449
 44
0.125
 45
0.00000001
 46
0.3937007874015748
 79
     1
140
0.1200000047683716
147
0.031496062992126
171
     1
176
   256
177
   256
178
   256
271
     2
272
     2
274
     1
284
     4
285
     4
340
D6
371
    -1
372
    -1
  0
DIMSTYLE
105
F7
330
A
100
AcDbSymbolTableRecord
100
AcDbDimStyleTableRecord
  2
Default (ANSI)$7
 70
     0
 40
11.0
 41
0.0984251946210861
 43
0.2362204724409449
 44
0.125
 45
0.00000001
 46
0.3937007874015748
 79
     1
140
0.1200000047683716
147
0.031496062992126
171
     1
176
   256
177
   256
178
   256
271
     2
272
     2
274
     1
284
     4
285
     4
340
D6
371
    -1
372
    -1
  0
DIMSTYLE
105
F8
330
A
100
AcDbSymbolTableRecord
100
AcDbDimStyleTableRecord
  2
Alternate (ANSI)
 70
     0
 40
11.0
 41
0.0979999974370003
340
55
342
F9
  0
DIMSTYLE
105
10B
330
A
100
AcDbSymbolTableRecord
100
AcDbDimStyleTableRecord
  2
Datum (ANSI)
 70
     0
 40
11.0
 41
0.0979999974370003
340
55
342
F9
  0
DIMSTYLE
105
11A
330
A
100
AcDbSymbolTableRecord
100
AcDbDimStyleTableRecord
  2
Large (ANSI)
 70
     0
 40
11.0
 41
0.1959999948740005
340
55
342
F9
  0
ENDTAB
  0
TABLE
  2
BLOCK_RECORD
  5
1
330
0
100
AcDbSymbolTable
 70
    15
  0
BLOCK_RECORD
  5
6C
330
1
100
AcDbSymbolTableRecord
100
AcDbBlockTableRecord
  2
*Model_Space
340
6F
 70
     0
280
     1
281
     0
  0
BLOCK_RECORD
  5
68
330
1
100
AcDbSymbolTableRecord
100
AcDbBlockTableRecord
  2
*Paper_Space
340
6B
 70
     0
280
     1
281
     0
  0
BLOCK_RECORD
  5
70
330
1
100
AcDbSymbolTableRecord
100
AcDbBlockTableRecord
  2
*Paper_Space0
340
73
 70
     0
280
     1
281
     0
  0
BLOCK_RECORD
  5
F9
330
1
100
AcDbSymbolTableRecord
100
AcDbBlockTableRecord
  2
_Closed
340
0
 70
     0
280
     1
281
     0
  0
BLOCK_RECORD
  5
100
330
1
100
AcDbSymbolTableRecord
100
AcDbBlockTableRecord
  2
DatumFilled45
340
0
 70
     0
280
     1
281
     0
  0
BLOCK_RECORD
  5
10C
330
1
100
AcDbSymbolTableRecord
100
AcDbBlockTableRecord
  2
Filled-1
340
0
 70
     0
280
     1
281
     0
  0
BLOCK_RECORD
  5
2F2
330
1
100
AcDbSymbolTableRecord
100
AcDbBlockTableRecord
  2
*D4
340
0
 70
     0
280
     1
281
     0
  0
BLOCK_RECORD
  5
3DC
330
1
100
AcDbSymbolTableRecord
100
AcDbBlockTableRecord
  2
*D5
340
0
 70
     0
280
     1
281
     0
  0
BLOCK_RECORD
  5
4C6
330
1
100
AcDbSymbolTableRecord
100
AcDbBlockTableRecord
  2
*D6
340
0
 70
     0
280
     1
281
     0
  0
BLOCK_RECORD
  5
5B0
330
1
100
AcDbSymbolTableRecord
100
AcDbBlockTableRecord
  2
*D7
340
0
 70
     0
280
     1
281
     0
  0
BLOCK_RECORD
  5
69A
330
1
100
AcDbSymbolTableRecord
100
AcDbBlockTableRecord
  2
*D8
340
0
 70
     0
280
     1
281
     0
  0
BLOCK_RECORD
  5
784
330
1
100
AcDbSymbolTableRecord
100
AcDbBlockTableRecord
  2
*D9
340
0
 70
     0
280
     1
281
     0
  0
BLOCK_RECORD
  5
86E
330
1
100
AcDbSymbolTableRecord
100
AcDbBlockTableRecord
  2
*D10
340
0
 70
     0
280
     1
281
     0
  0
BLOCK_RECORD
  5
AB5
330
1
100
AcDbSymbolTableRecord
100
AcDbBlockTableRecord
  2
*D11
340
0
 70
     0
280
     1
281
     0
  0
BLOCK_RECORD
  5
B89
330
1
100
AcDbSymbolTableRecord
100
AcDbBlockTableRecord
  2
*D12
340
0
 70
     0
280
     1
281
     0
  0
BLOCK_RECORD
  5
C89
330
1
100
AcDbSymbolTableRecord
100
AcDbBlockTableRecord
  2
*D13
340
0
 70
     0
280
     1
281
     0
  0
BLOCK_RECORD
  5
D73
330
1
100
AcDbSymbolTableRecord
100
AcDbBlockTableRecord
  2
*D14
340
0
 70
     0
280
     1
281
     0
  0
ENDTAB
  0
ENDSEC
  0
SECTION
  2
BLOCKS
  0
BLOCK
  5
6D
330
6C
100
AcDbEntity
  8
0
100
AcDbBlockBegin
  2
*Model_Space
 70
     0
 10
0.0
 20
0.0
 30
0.0
  3
*Model_Space
  1

  0
ENDBLK
  5
6E
330
6C
100
AcDbEntity
  8
0
100
AcDbBlockEnd
  0
BLOCK
  5
69
330
68
100
AcDbEntity
 67
     1
  8
0
100
AcDbBlockBegin
  2
*Paper_Space
 70
     0
 10
0.0
 20
0.0
 30
0.0
  3
*Paper_Space
  1

  0
ENDBLK
  5
6A
330
68
100
AcDbEntity
 67
     1
  8
0
100
AcDbBlockEnd
  0
BLOCK
  5
71
330
70
100
AcDbEntity
 67
     1
  8
0
100
AcDbBlockBegin
  2
*Paper_Space0
 70
     0
 10
0.0
 20
0.0
 30
0.0
  3
*Paper_Space0
  1

  0
ENDBLK
  5
72
330
70
100
AcDbEntity
 67
     1
  8
0
100
AcDbBlockEnd
  0
BLOCK
  5
FE
330
F9
100
AcDbEntity
  8
0
100
AcDbBlockBegin
  2
_Closed
 70
     0
 10
0.0
 20
0.0
 30
0.0
  3
_Closed
  1

  0
LINE
  5
FA
330
F9
100
AcDbEntity
  8
0
  6
ByBlock
 62
     0
370
    -2
100
AcDbLine
 10
-1.0
 20
0.1666666666666666
 30
0.0
 11
0.0
 21
0.0
 31
0.0
  0
LINE
  5
FB
330
F9
100
AcDbEntity
  8
0
  6
ByBlock
 62
     0
370
    -2
100
AcDbLine
 10
0.0
 20
0.0
 30
0.0
 11
-1.0
 21
-0.1666666666666666
 31
0.0
  0
LINE
  5
FC
330
F9
100
AcDbEntity
  8
0
  6
ByBlock
 62
     0
370
    -2
100
AcDbLine
 10
-1.0
 20
0.1666666666666666
 30
0.0
 11
-1.0
 21
-0.1666666666666666
 31
0.0
  0
LINE
  5
FD
330
F9
100
AcDbEntity
  8
0
  6
ByBlock
 62
     0
370
    -2
100
AcDbLine
 10
0.0
 20
0.0
 30
0.0
 11
-1.0
 21
0.0
 31
0.0
  0
ENDBLK
  5
FF
330
F9
100
AcDbEntity
  8
0
100
AcDbBlockEnd
  0
BLOCK
  5
101
330
100
100
AcDbEntity
  8
0
100
AcDbBlockBegin
  2
DatumFilled45
 70
     0
 10
0.0
 20
0.0
 30
0.0
  3
DatumFilled45
  1

  0
POLYLINE
  5
103
330
100
100
AcDbEntity
  8
0
 62
     0
100
AcDb2dPolyline
 66
     1
 10
0.0
 20
0.0
 30
0.0
 70
   128
  0
VERTEX
  5
104
330
103
100
AcDbEntity
  8
0
 62
     0
100
AcDbVertex
100
AcDb2dVertex
 10
0.0
 20
0.9999999999999998
 30
0.0
  0
VERTEX
  5
105
330
103
100
AcDbEntity
  8
0
 62
     0
100
AcDbVertex
100
AcDb2dVertex
 10
0.0
 20
-0.9999999999999998
 30
0.0
  0
VERTEX
  5
107
330
103
100
AcDbEntity
  8
0
 62
     0
100
AcDbVertex
100
AcDb2dVertex
 10
-0.9999999999999998
 20
0.0
 30
0.0
  0
VERTEX
  5
108
330
103
100
AcDbEntity
  8
0
 62
     0
100
AcDbVertex
100
AcDb2dVertex
 10
0.0
 20
0.9999999999999998
 30
0.0
  0
SEQEND
  5
106
330
103
100
AcDbEntity
  8
0
 62
     0
  0
SOLID
  5
10A
330
100
100
AcDbEntity
  8
0
 62
     0
100
AcDbTrace
 10
0.0
 20
0.9999999999999998
 30
0.0
 11
0.0
 21
-0.9999999999999998
 31
0.0
 12
-0.9999999999999998
 22
0.0
 32
0.0
 13
0.0
 23
0.9999999999999998
 33
0.0
  0
ENDBLK
  5
102
330
100
100
AcDbEntity
  8
0
100
AcDbBlockEnd
  0
BLOCK
  5
10D
330
10C
100
AcDbEntity
  8
0
100
AcDbBlockBegin
  2
Filled-1
 70
     0
 10
0.0
 20
0.0
 30
0.0
  3
Filled-1
  1

  0
LINE
  5
10F
330
10C
100
AcDbEntity
  8
0
 62
     0
100
AcDbLine
 10
-0.9999999999999998
 20
0.0
 30
0.0
 11
0.0
 21
0.0
 31
0.0
  0
POLYLINE
  5
110
330
10C
100
AcDbEntity
  8
0
 62
     0
100
AcDb2dPolyline
 66
     1
 10
0.0
 20
0.0
 30
0.0
 70
   128
  0
VERTEX
  5
111
330
110
100
AcDbEntity
  8
0
 62
     0
100
AcDbVertex
100
AcDb2dVertex
 10
-0.9999999999999998
 20
-0.0994897959183674
 30
0.0
  0
VERTEX
  5
112
330
110
100
AcDbEntity
  8
0
 62
     0
100
AcDbVertex
100
AcDb2dVertex
 10
0.0
 20
0.0
 30
0.0
  0
VERTEX
  5
114
330
110
100
AcDbEntity
  8
0
 62
     0
100
AcDbVertex
100
AcDb2dVertex
 10
-0.9999999999999998
 20
0.0994897959183674
 30
0.0
  0
VERTEX
  5
115
330
110
100
AcDbEntity
  8
0
 62
     0
100
AcDbVertex
100
AcDb2dVertex
 10
-0.9999999999999998
 20
-0.0994897959183674
 30
0.0
  0
SEQEND
  5
113
330
110
100
AcDbEntity
  8
0
 62
     0
  0
SOLID
  5
116
330
10C
100
AcDbEntity
  8
0
 62
     0
100
AcDbTrace
 10
-0.9999999999999998
 20
-0.0994897959183674
 30
0.0
 11
0.0
 21
0.0
 31
0.0
 12
-0.9999999999999998
 22
0.0994897959183674
 32
0.0
 13
-0.9999999999999998
 23
-0.0994897959183674
 33
0.0
  0
LINE
  5
117
330
10C
100
AcDbEntity
  8
0
 62
     0
100
AcDbLine
 10
-0.9999999999999998
 20
-0.0994897959183674
 30
0.0
 11
0.0
 21
0.0
 31
0.0
  0
LINE
  5
118
330
10C
100
AcDbEntity
  8
0
 62
     0
100
AcDbLine
 10
0.0
 20
0.0
 30
0.0
 11
-0.9999999999999998
 21
0.0994897959183674
 31
0.0
  0
LINE
  5
119
330
10C
100
AcDbEntity
  8
0
 62
     0
100
AcDbLine
 10
-0.9999999999999998
 20
0.0994897959183674
 30
0.0
 11
-0.9999999999999998
 21
-0.0994897959183674
 31
0.0
  0
ENDBLK
  5
10E
330
10C
100
AcDbEntity
  8
0
100
AcDbBlockEnd
  0
BLOCK
  5
2F3
330
2F2
100
AcDbEntity
  8
0
100
AcDbBlockBegin
  2
*D4
 70
     1
 10
0.0
 20
0.0
 30
0.0
  3
*D4
  1

  0
LINE
  5
3D1
330
2F2
100
AcDbEntity
  8
Dimension (ANSI)
440
 16777216
100
AcDbLine
 10
44.72126169249452
 20
31.68146643792163
 30
0.0
 11
23.16936477816362
 21
31.68146643792163
 31
0.0
  0
LINE
  5
3D2
330
2F2
100
AcDbEntity
  8
Dimension (ANSI)
440
 16777216
100
AcDbLine
 10
44.72126169249452
 20
87.68146643792162
 30
0.0
 11
23.16936477816363
 21
87.68146643792164
 31
0.0
  0
LINE
  5
3D3
330
2F2
100
AcDbEntity
  8
Dimension (ANSI)
440
 16777216
100
AcDbLine
 10
24.54436477816362
 20
32.76414357875358
 30
0.0
 11
24.54436477816362
 21
58.64797144142144
 31
0.0
  0
LINE
  5
3D4
330
2F2
100
AcDbEntity
  8
Dimension (ANSI)
440
 16777216
100
AcDbLine
 10
24.54436477816363
 20
86.5987892970897
 30
0.0
 11
24.54436477816362
 21
60.71496143442178
 31
0.0
  0
SOLID
  5
3D5
330
2F2
100
AcDbEntity
  8
Dimension (ANSI)
440
 16777216
100
AcDbTrace
 10
24.36391858802496
 20
32.76414357875358
 30
0.0
 11
24.72481096830227
 21
32.76414357875358
 31
0.0
 12
24.54436477816362
 22
31.68146643792163
 32
0.0
 13
24.54436477816362
 23
31.68146643792163
 33
0.0
  0
SOLID
  5
3D6
330
2F2
100
AcDbEntity
  8
Dimension (ANSI)
440
 16777216
100
AcDbTrace
 10
24.36391858802497
 20
86.5987892970897
 30
0.0
 11
24.72481096830228
 21
86.5987892970897
 31
0.0
 12
24.54436477816363
 22
87.68146643792164
 32
0.0
 13
24.54436477816363
 23
87.68146643792164
 33
0.0
  0
MTEXT
  5
3D7
330
2F2
100
AcDbEntity
  8
Dimension (ANSI)
440
 16777216
100
AcDbMText
 10
22.37908599556915
 20
60.3685047415084
 30
0.0
 40
1.320000052452087
 41
0.0
 46
0.0
 71
     1
 72
     1
  1
\A1;56.00
  7
Note Text (ANSI)
 73
     1
 44
1.0
  0
POINT
  5
3D8
330
2F2
100
AcDbEntity
  8
Defpoints
 62
     0
440
 16777216
100
AcDbPoint
 10
45.40876169249451
 20
31.68146643792163
 30
0.0
  0
POINT
  5
3D9
330
2F2
100
AcDbEntity
  8
Defpoints
 62
     0
440
 16777216
100
AcDbPoint
 10
45.40876169249451
 20
87.68146643792162
 30
0.0
  0
POINT
  5
3DA
330
2F2
100
AcDbEntity
  8
Defpoints
 62
     0
440
 16777216
100
AcDbPoint
 10
24.54436477816363
 20
87.68146643792164
 30
0.0
  0
ENDBLK
  5
2F4
330
2F2
100
AcDbEntity
  8
0
100
AcDbBlockEnd
  0
BLOCK
  5
3DD
330
3DC
100
AcDbEntity
  8
0
100
AcDbBlockBegin
  2
*D5
 70
     1
 10
0.0
 20
0.0
 30
0.0
  3
*D5
  1

  0
LINE
  5
4BB
330
3DC
100
AcDbEntity
  8
Dimension (ANSI)
440
 16777216
100
AcDbLine
 10
45.38287334484619
 20
32.55646643792164
 30
0.0
 11
37.76288556340025
 21
32.55646643792164
 31
0.0
  0
LINE
  5
4BC
330
3DC
100
AcDbEntity
  8
Dimension (ANSI)
440
 16777216
100
AcDbLine
 10
44.50787334484619
 20
59.68146643792162
 30
0.0
 11
37.76288556340026
 21
59.68146643792162
 31
0.0
  0
LINE
  5
4BD
330
3DC
100
AcDbEntity
  8
Dimension (ANSI)
440
 16777216
100
AcDbLine
 10
39.13788556340025
 20
33.63914357875358
 30
0.0
 11
39.13788556340025
 21
45.17804038732943
 31
0.0
  0
LINE
  5
4BE
330
3DC
100
AcDbEntity
  8
Dimension (ANSI)
440
 16777216
100
AcDbLine
 10
39.13788556340025
 20
58.59878929708967
 30
0.0
 11
39.13788556340025
 21
47.24591688136664
 31
0.0
  0
SOLID
  5
4BF
330
3DC
100
AcDbEntity
  8
Dimension (ANSI)
440
 16777216
100
AcDbTrace
 10
38.95743937326159
 20
33.63914357875358
 30
0.0
 11
39.31833175353891
 21
33.63914357875358
 31
0.0
 12
39.13788556340025
 22
32.55646643792164
 32
0.0
 13
39.13788556340025
 23
32.55646643792164
 33
0.0
  0
SOLID
  5
4C0
330
3DC
100
AcDbEntity
  8
Dimension (ANSI)
440
 16777216
100
AcDbTrace
 10
38.95743937326159
 20
58.59878929708967
 30
0.0
 11
39.31833175353892
 21
58.59878929708967
 31
0.0
 12
39.13788556340025
 22
59.68146643792162
 32
0.0
 13
39.13788556340025
 23
59.68146643792162
 33
0.0
  0
MTEXT
  5
4C1
330
3DC
100
AcDbEntity
  8
Dimension (ANSI)
440
 16777216
100
AcDbMText
 10
36.98058529013775
 20
46.89946018845326
 30
0.0
 40
1.320000052452087
 41
0.0
 46
0.0
 71
     1
 72
     1
  1
\A1;27.13
  7
Note Text (ANSI)
 73
     1
 44
1.0
  0
POINT
  5
4C2
330
3DC
100
AcDbEntity
  8
Defpoints
 62
     0
440
 16777216
100
AcDbPoint
 10
46.07037334484619
 20
32.55646643792164
 30
0.0
  0
POINT
  5
4C3
330
3DC
100
AcDbEntity
  8
Defpoints
 62
     0
440
 16777216
100
AcDbPoint
 10
45.1953733448462
 20
59.68146643792162
 30
0.0
  0
POINT
  5
4C4
330
3DC
100
AcDbEntity
  8
Defpoints
 62
     0
440
 16777216
100
AcDbPoint
 10
39.13788556340025
 20
59.68146643792162
 30
0.0
  0
ENDBLK
  5
3DE
330
3DC
100
AcDbEntity
  8
0
100
AcDbBlockEnd
  0
BLOCK
  5
4C7
330
4C6
100
AcDbEntity
  8
0
100
AcDbBlockBegin
  2
*D6
 70
     1
 10
0.0
 20
0.0
 30
0.0
  3
*D6
  1

  0
LINE
  5
5A5
330
4C6
100
AcDbEntity
  8
Dimension (ANSI)
440
 16777216
100
AcDbLine
 10
45.38287334484619
 20
32.55646643792164
 30
0.0
 11
30.461170211878
 21
32.55646643792164
 31
0.0
  0
LINE
  5
5A6
330
4C6
100
AcDbEntity
  8
Dimension (ANSI)
440
 16777216
100
AcDbLine
 10
45.38287334484619
 20
86.80646643792163
 30
0.0
 11
30.46117021187801
 21
86.80646643792165
 31
0.0
  0
LINE
  5
5A7
330
4C6
100
AcDbEntity
  8
Dimension (ANSI)
440
 16777216
100
AcDbLine
 10
31.836170211878
 20
33.63914357875358
 30
0.0
 11
31.83617021187801
 21
58.64752819090302
 31
0.0
  0
LINE
  5
5A8
330
4C6
100
AcDbEntity
  8
Dimension (ANSI)
440
 16777216
100
AcDbLine
 10
31.83617021187801
 20
85.72378929708971
 30
0.0
 11
31.83617021187801
 21
60.71540468494022
 31
0.0
  0
SOLID
  5
5A9
330
4C6
100
AcDbEntity
  8
Dimension (ANSI)
440
 16777216
100
AcDbTrace
 10
31.65572402173934
 20
33.63914357875358
 30
0.0
 11
32.01661640201666
 21
33.63914357875358
 31
0.0
 12
31.836170211878
 22
32.55646643792164
 32
0.0
 13
31.836170211878
 23
32.55646643792164
 33
0.0
  0
SOLID
  5
5AA
330
4C6
100
AcDbEntity
  8
Dimension (ANSI)
440
 16777216
100
AcDbTrace
 10
31.65572402173935
 20
85.72378929708971
 30
0.0
 11
32.01661640201667
 21
85.72378929708969
 31
0.0
 12
31.83617021187801
 22
86.80646643792165
 32
0.0
 13
31.83617021187801
 23
86.80646643792165
 33
0.0
  0
MTEXT
  5
5AB
330
4C6
100
AcDbEntity
  8
Dimension (ANSI)
440
 16777216
100
AcDbMText
 10
29.68152944172617
 20
60.36894799202684
 30
0.0
 40
1.320000052452087
 41
0.0
 46
0.0
 71
     1
 72
     1
  1
\A1;54.25
  7
Note Text (ANSI)
 73
     1
 44
1.0
  0
POINT
  5
5AC
330
4C6
100
AcDbEntity
  8
Defpoints
 62
     0
440
 16777216
100
AcDbPoint
 10
46.07037334484619
 20
32.55646643792164
 30
0.0
  0
POINT
  5
5AD
330
4C6
100
AcDbEntity
  8
Defpoints
 62
     0
440
 16777216
100
AcDbPoint
 10
46.07037334484619
 20
86.80646643792163
 30
0.0
  0
POINT
  5
5AE
330
4C6
100
AcDbEntity
  8
Defpoints
 62
     0
440
 16777216
100
AcDbPoint
 10
31.83617021187801
 20
86.80646643792165
 30
0.0
  0
ENDBLK
  5
4C8
330
4C6
100
AcDbEntity
  8
0
100
AcDbBlockEnd
  0
BLOCK
  5
5B1
330
5B0
100
AcDbEntity
  8
0
100
AcDbBlockBegin
  2
*D7
 70
     1
 10
0.0
 20
0.0
 30
0.0
  3
*D7
  1

  0
LINE
  5
68F
330
5B0
100
AcDbEntity
  8
Dimension (ANSI)
440
 16777216
100
AcDbLine
 10
45.1953733448462
 20
88.1555780902733
 30
0.0
 11
45.1953733448462
 21
102.5470281628388
 31
0.0
  0
LINE
  5
690
330
5B0
100
AcDbEntity
  8
Dimension (ANSI)
440
 16777216
100
AcDbLine
 10
89.19537334484617
 20
88.1555780902733
 30
0.0
 11
89.19537334484617
 21
102.5470281628388
 31
0.0
  0
LINE
  5
691
330
5B0
100
AcDbEntity
  8
Dimension (ANSI)
440
 16777216
100
AcDbLine
 10
46.27805048567814
 20
101.1720281628388
 30
0.0
 11
64.64640482578911
 21
101.1720281628388
 31
0.0
  0
LINE
  5
692
330
5B0
100
AcDbEntity
  8
Dimension (ANSI)
440
 16777216
100
AcDbLine
 10
88.11269620401423
 20
101.1720281628388
 30
0.0
 11
69.74434186390324
 21
101.1720281628388
 31
0.0
  0
SOLID
  5
693
330
5B0
100
AcDbEntity
  8
Dimension (ANSI)
440
 16777216
100
AcDbTrace
 10
46.27805048567814
 20
101.3524743529774
 30
0.0
 11
46.27805048567814
 21
100.9915819727001
 31
0.0
 12
45.1953733448462
 22
101.1720281628388
 32
0.0
 13
45.1953733448462
 23
101.1720281628388
 33
0.0
  0
SOLID
  5
694
330
5B0
100
AcDbEntity
  8
Dimension (ANSI)
440
 16777216
100
AcDbTrace
 10
88.11269620401423
 20
101.3524743529774
 30
0.0
 11
88.11269620401423
 21
100.9915819727001
 31
0.0
 12
89.19537334484617
 22
101.1720281628388
 32
0.0
 13
89.19537334484617
 23
101.1720281628388
 33
0.0
  0
MTEXT
  5
695
330
5B0
100
AcDbEntity
  8
Dimension (ANSI)
440
 16777216
100
AcDbMText
 10
64.9928615187025
 20
101.8590664664256
 30
0.0
 40
1.320000052452087
 41
0.0
 46
0.0
 71
     1
 72
     1
  1
\A1;44.00
  7
Note Text (ANSI)
 73
     1
 44
1.0
  0
POINT
  5
696
330
5B0
100
AcDbEntity
  8
Defpoints
 62
     0
440
 16777216
100
AcDbPoint
 10
45.1953733448462
 20
87.4680780902733
 30
0.0
  0
POINT
  5
697
330
5B0
100
AcDbEntity
  8
Defpoints
 62
     0
440
 16777216
100
AcDbPoint
 10
89.19537334484617
 20
87.4680780902733
 30
0.0
  0
POINT
  5
698
330
5B0
100
AcDbEntity
  8
Defpoints
 62
     0
440
 16777216
100
AcDbPoint
 10
89.19537334484617
 20
101.1720281628388
 30
0.0
  0
ENDBLK
  5
5B2
330
5B0
100
AcDbEntity
  8
0
100
AcDbBlockEnd
  0
BLOCK
  5
69B
330
69A
100
AcDbEntity
  8
0
100
AcDbBlockBegin
  2
*D8
 70
     1
 10
0.0
 20
0.0
 30
0.0
  3
*D8
  1

  0
LINE
  5
779
330
69A
100
AcDbEntity
  8
Dimension (ANSI)
440
 16777216
100
AcDbLine
 10
46.07037334484619
 20
87.49396643792165
 30
0.0
 11
46.07037334484619
 21
96.72915178387784
 31
0.0
  0
LINE
  5
77A
330
69A
100
AcDbEntity
  8
Dimension (ANSI)
440
 16777216
100
AcDbLine
 10
88.32037334484617
 20
87.49396643792165
 30
0.0
 11
88.32037334484617
 21
96.72915178387784
 31
0.0
  0
LINE
  5
77B
330
69A
100
AcDbEntity
  8
Dimension (ANSI)
440
 16777216
100
AcDbLine
 10
47.15305048567814
 20
95.35415178387784
 30
0.0
 11
64.65704283823176
 21
95.35415178387784
 31
0.0
  0
LINE
  5
77C
330
69A
100
AcDbEntity
  8
Dimension (ANSI)
440
 16777216
100
AcDbLine
 10
87.23769620401423
 20
95.35415178387784
 30
0.0
 11
69.73370385146061
 21
95.35415178387784
 31
0.0
  0
SOLID
  5
77D
330
69A
100
AcDbEntity
  8
Dimension (ANSI)
440
 16777216
100
AcDbTrace
 10
47.15305048567814
 20
95.53459797401648
 30
0.0
 11
47.15305048567814
 21
95.17370559373919
 31
0.0
 12
46.07037334484619
 22
95.35415178387784
 32
0.0
 13
46.07037334484619
 23
95.35415178387784
 33
0.0
  0
SOLID
  5
77E
330
69A
100
AcDbEntity
  8
Dimension (ANSI)
440
 16777216
100
AcDbTrace
 10
87.23769620401423
 20
95.53459797401648
 30
0.0
 11
87.23769620401423
 21
95.17370559373919
 31
0.0
 12
88.32037334484617
 22
95.35415178387784
 32
0.0
 13
88.32037334484617
 23
95.35415178387784
 33
0.0
  0
MTEXT
  5
77F
330
69A
100
AcDbEntity
  8
Dimension (ANSI)
440
 16777216
100
AcDbMText
 10
65.00349953114514
 20
96.04163333798306
 30
0.0
 40
1.320000052452087
 41
0.0
 46
0.0
 71
     1
 72
     1
  1
\A1;42.25
  7
Note Text (ANSI)
 73
     1
 44
1.0
  0
POINT
  5
780
330
69A
100
AcDbEntity
  8
Defpoints
 62
     0
440
 16777216
100
AcDbPoint
 10
46.07037334484619
 20
86.80646643792163
 30
0.0
  0
POINT
  5
781
330
69A
100
AcDbEntity
  8
Defpoints
 62
     0
440
 16777216
100
AcDbPoint
 10
88.32037334484617
 20
86.80646643792163
 30
0.0
  0
POINT
  5
782
330
69A
100
AcDbEntity
  8
Defpoints
 62
     0
440
 16777216
100
AcDbPoint
 10
88.32037334484617
 20
95.35415178387784
 30
0.0
  0
ENDBLK
  5
69C
330
69A
100
AcDbEntity
  8
0
100
AcDbBlockEnd
  0
BLOCK
  5
785
330
784
100
AcDbEntity
  8
0
100
AcDbBlockBegin
  2
*D9
 70
     1
 10
0.0
 20
0.0
 30
0.0
  3
*D9
  1

  0
LINE
  5
863
330
784
100
AcDbEntity
  8
Dimension (ANSI)
440
 16777216
100
AcDbLine
 10
46.07037334484619
 20
87.49396643792165
 30
0.0
 11
46.07037334484619
 21
92.51217509933896
 31
0.0
  0
LINE
  5
864
330
784
100
AcDbEntity
  8
Dimension (ANSI)
440
 16777216
100
AcDbLine
 10
67.19537334484619
 20
87.49396643792165
 30
0.0
 11
67.19537334484619
 21
92.51217509933896
 31
0.0
  0
LINE
  5
865
330
784
100
AcDbEntity
  8
Dimension (ANSI)
440
 16777216
100
AcDbLine
 10
47.15305048567814
 20
91.13717509933897
 30
0.0
 11
54.12911637867033
 21
91.13717509933897
 31
0.0
  0
LINE
  5
866
330
784
100
AcDbEntity
  8
Dimension (ANSI)
440
 16777216
100
AcDbLine
 10
66.11269620401424
 20
91.13717509933897
 30
0.0
 11
59.13663031102206
 21
91.13717509933897
 31
0.0
  0
SOLID
  5
867
330
784
100
AcDbEntity
  8
Dimension (ANSI)
440
 16777216
100
AcDbTrace
 10
47.15305048567814
 20
91.31762128947761
 30
0.0
 11
47.15305048567814
 21
90.95672890920031
 31
0.0
 12
46.07037334484619
 22
91.13717509933897
 32
0.0
 13
46.07037334484619
 23
91.13717509933897
 33
0.0
  0
SOLID
  5
868
330
784
100
AcDbEntity
  8
Dimension (ANSI)
440
 16777216
100
AcDbTrace
 10
66.11269620401424
 20
91.31762128947761
 30
0.0
 11
66.11269620401424
 21
90.95672890920031
 31
0.0
 12
67.19537334484619
 22
91.13717509933897
 32
0.0
 13
67.19537334484619
 23
91.13717509933897
 33
0.0
  0
MTEXT
  5
869
330
784
100
AcDbEntity
  8
Dimension (ANSI)
440
 16777216
100
AcDbMText
 10
54.47557307158371
 20
91.82465665344418
 30
0.0
 40
1.320000052452087
 41
0.0
 46
0.0
 71
     1
 72
     1
  1
\A1;21.13
  7
Note Text (ANSI)
 73
     1
 44
1.0
  0
POINT
  5
86A
330
784
100
AcDbEntity
  8
Defpoints
 62
     0
440
 16777216
100
AcDbPoint
 10
46.07037334484619
 20
86.80646643792163
 30
0.0
  0
POINT
  5
86B
330
784
100
AcDbEntity
  8
Defpoints
 62
     0
440
 16777216
100
AcDbPoint
 10
67.19537334484619
 20
86.80646643792163
 30
0.0
  0
POINT
  5
86C
330
784
100
AcDbEntity
  8
Defpoints
 62
     0
440
 16777216
100
AcDbPoint
 10
67.19537334484619
 20
91.13717509933897
 30
0.0
  0
ENDBLK
  5
786
330
784
100
AcDbEntity
  8
0
100
AcDbBlockEnd
  0
BLOCK
  5
86F
330
86E
100
AcDbEntity
  8
0
100
AcDbBlockBegin
  2
*D10
 70
     1
 10
0.0
 20
0.0
 30
0.0
  3
*D10
  1

  0
LINE
  5
961
330
86E
100
AcDbEntity
  8
Dimension (ANSI)
440
 16777216
100
AcDbLine
 10
125.3333575491123
 20
88.21271643792162
 30
0.0
 11
125.3333575491123
 21
92.20607273713417
 31
0.0
  0
LINE
  5
962
330
86E
100
AcDbEntity
  8
Dimension (ANSI)
440
 16777216
100
AcDbLine
 10
126.2083575491123
 20
88.36896643792158
 30
0.0
 11
126.2083575491123
 21
92.20607273713417
 31
0.0
  0
LINE
  5
963
330
86E
100
AcDbEntity
  8
Dimension (ANSI)
440
 16777216
100
AcDbLine
 10
127.2910346899442
 20
90.83107273713418
 30
0.0
 11
128.3737118307762
 21
90.83107273713418
 31
0.0
  0
LINE
  5
964
330
86E
100
AcDbEntity
  8
Dimension (ANSI)
440
 16777216
100
AcDbLine
 10
124.2506804082803
 20
90.83107273713418
 30
0.0
 11
122.5585567619686
 21
90.83107273713418
 31
0.0
  0
SOLID
  5
965
330
86E
100
AcDbEntity
  8
Dimension (ANSI)
440
 16777216
100
AcDbTrace
 10
127.2910346899442
 20
91.01151892727283
 30
0.0
 11
127.2910346899442
 21
90.65062654699552
 31
0.0
 12
126.2083575491123
 22
90.83107273713418
 32
0.0
 13
126.2083575491123
 23
90.83107273713418
 33
0.0
  0
SOLID
  5
966
330
86E
100
AcDbEntity
  8
Dimension (ANSI)
440
 16777216
100
AcDbTrace
 10
124.2506804082803
 20
91.01151892727283
 30
0.0
 11
124.2506804082803
 21
90.65062654699552
 31
0.0
 12
125.3333575491123
 22
90.83107273713418
 32
0.0
 13
125.3333575491123
 23
90.83107273713418
 33
0.0
  0
MTEXT
  5
967
330
86E
100
AcDbEntity
  8
Dimension (ANSI)
440
 16777216
100
AcDbMText
 10
118.724604989945
 20
91.71860802878361
 30
0.0
 40
1.320000052452087
 41
0.0
 46
0.0
 71
     1
 72
     1
  1
\A1;0.88{\PTYP.}
  7
Note Text (ANSI)
 73
     1
 44
1.0
  0
POINT
  5
968
330
86E
100
AcDbEntity
  8
Defpoints
 62
     0
440
 16777216
100
AcDbPoint
 10
125.3333575491123
 20
87.52521643792162
 30
0.0
  0
POINT
  5
969
330
86E
100
AcDbEntity
  8
Defpoints
 62
     0
440
 16777216
100
AcDbPoint
 10
126.2083575491123
 20
87.68146643792158
 30
0.0
  0
POINT
  5
96A
330
86E
100
AcDbEntity
  8
Defpoints
 62
     0
440
 16777216
100
AcDbPoint
 10
126.2083575491123
 20
90.83107273713418
 30
0.0
  0
ENDBLK
  5
870
330
86E
100
AcDbEntity
  8
0
100
AcDbBlockEnd
  0
BLOCK
  5
AB6
330
AB5
100
AcDbEntity
  8
0
100
AcDbBlockBegin
  2
*D11
 70
     1
 10
0.0
 20
0.0
 30
0.0
  3
*D11
  1

  0
LINE
  5
B67
330
AB5
100
AcDbEntity
  8
Dimension (ANSI)
440
 16777216
100
AcDbLine
 10
93.14685557258979
 20
67.73954594351389
 30
0.0
 11
91.75238363696269
 21
67.73954594351389
 31
0.0
  0
LINE
  5
B68
330
AB5
100
AcDbEntity
  8
Dimension (ANSI)
440
 16777216
100
AcDbLine
 10
91.75238363696269
 20
67.73954594351389
 30
0.0
 11
88.85492486018017
 21
60.93654968178332
 31
0.0
  0
MTEXT
  5
B69
330
AB5
100
AcDbEntity
  8
Dimension (ANSI)
440
 16777216
100
AcDbMText
 10
93.49331226550317
 20
68.73786000323029
 30
0.0
 40
1.320000052452087
 41
0.0
 46
0.0
 71
     1
 72
     1
  1
\A1;∅0.563{\P(10 PL.)}
  7
Note Text (ANSI)
 73
     1
 44
1.0
  0
SOLID
  5
B6A
330
AB5
100
AcDbEntity
  8
Dimension (ANSI)
440
 16777216
100
AcDbTrace
 10
88.68890903798012
 20
61.00725734978899
 30
0.0
 11
89.02094068238023
 21
60.86584201377765
 31
0.0
 12
88.43067885214614
 22
59.94045474858307
 32
0.0
 13
88.43067885214614
 23
59.94045474858307
 33
0.0
  0
LINE
  5
B6B
330
AB5
100
AcDbEntity
  8
Dimension (ANSI)
440
 16777216
100
AcDbLine
 10
87.33037334484615
 20
59.68146643792158
 30
0.0
 11
89.31037334484614
 21
59.68146643792159
 31
0.0
  0
LINE
  5
B6C
330
AB5
100
AcDbEntity
  8
Dimension (ANSI)
440
 16777216
100
AcDbLine
 10
88.32037334484613
 20
58.6914664379216
 30
0.0
 11
88.32037334484615
 21
60.67146643792159
 31
0.0
  0
POINT
  5
B6D
330
AB5
100
AcDbEntity
  8
Defpoints
 62
     0
440
 16777216
100
AcDbPoint
 10
88.43067885214614
 20
59.94045474858307
 30
0.0
  0
POINT
  5
B6E
330
AB5
100
AcDbEntity
  8
Defpoints
 62
     0
440
 16777216
100
AcDbPoint
 10
88.21006783754615
 20
59.4224781272601
 30
0.0
  0
ENDBLK
  5
AB7
330
AB5
100
AcDbEntity
  8
0
100
AcDbBlockEnd
  0
BLOCK
  5
B8A
330
B89
100
AcDbEntity
  8
0
100
AcDbBlockBegin
  2
*D12
 70
     1
 10
0.0
 20
0.0
 30
0.0
  3
*D12
  1

  0
LINE
  5
C7D
330
B89
100
AcDbEntity
  8
Dimension (ANSI)
440
 16777216
100
AcDbLine
 10
44.72126169249452
 20
31.68146643792163
 30
0.0
 11
40.90480067388091
 21
31.68146643792163
 31
0.0
  0
LINE
  5
C7E
330
B89
100
AcDbEntity
  8
Dimension (ANSI)
440
 16777216
100
AcDbLine
 10
43.72637334484619
 20
32.55646643792164
 30
0.0
 11
40.90480067388091
 21
32.55646643792164
 31
0.0
  0
LINE
  5
C7F
330
B89
100
AcDbEntity
  8
Dimension (ANSI)
440
 16777216
100
AcDbLine
 10
42.27980067388092
 20
33.63914357875358
 30
0.0
 11
42.27980067388092
 21
34.72182071958553
 31
0.0
  0
LINE
  5
C80
330
B89
100
AcDbEntity
  8
Dimension (ANSI)
440
 16777216
100
AcDbLine
 10
42.27980067388092
 20
30.59878929708968
 30
0.0
 11
42.27980067388092
 21
28.52449211321808
 31
0.0
  0
LINE
  5
C81
330
B89
100
AcDbEntity
  8
Dimension (ANSI)
440
 16777216
100
AcDbLine
 10
42.27980067388092
 20
28.52449211321808
 30
0.0
 11
41.19712353304897
 21
28.52449211321808
 31
0.0
  0
SOLID
  5
C82
330
B89
100
AcDbEntity
  8
Dimension (ANSI)
440
 16777216
100
AcDbTrace
 10
42.09935448374226
 20
33.63914357875358
 30
0.0
 11
42.46024686401958
 21
33.63914357875358
 31
0.0
 12
42.27980067388092
 22
32.55646643792164
 32
0.0
 13
42.27980067388092
 23
32.55646643792164
 33
0.0
  0
SOLID
  5
C83
330
B89
100
AcDbEntity
  8
Dimension (ANSI)
440
 16777216
100
AcDbTrace
 10
42.09935448374226
 20
30.59878929708968
 30
0.0
 11
42.46024686401958
 21
30.59878929708968
 31
0.0
 12
42.27980067388092
 22
31.68146643792163
 32
0.0
 13
42.27980067388092
 23
31.68146643792163
 33
0.0
  0
MTEXT
  5
C84
330
B89
100
AcDbEntity
  8
Dimension (ANSI)
440
 16777216
100
AcDbMText
 10
37.46689238234109
 20
29.21463317043397
 30
0.0
 40
1.320000052452087
 41
0.0
 46
0.0
 71
     1
 72
     1
  1
\A1;0.88
  7
Note Text (ANSI)
 73
     1
 44
1.0
  0
POINT
  5
C85
330
B89
100
AcDbEntity
  8
Defpoints
 62
     0
440
 16777216
100
AcDbPoint
 10
45.40876169249451
 20
31.68146643792163
 30
0.0
  0
POINT
  5
C86
330
B89
100
AcDbEntity
  8
Defpoints
 62
     0
440
 16777216
100
AcDbPoint
 10
44.41387334484619
 20
32.55646643792164
 30
0.0
  0
POINT
  5
C87
330
B89
100
AcDbEntity
  8
Defpoints
 62
     0
440
 16777216
100
AcDbPoint
 10
42.27980067388092
 20
32.55646643792164
 30
0.0
  0
ENDBLK
  5
B8B
330
B89
100
AcDbEntity
  8
0
100
AcDbBlockEnd
  0
BLOCK
  5
C8A
330
C89
100
AcDbEntity
  8
0
100
AcDbBlockBegin
  2
*D13
 70
     1
 10
0.0
 20
0.0
 30
0.0
  3
*D13
  1

  0
LINE
  5
D68
330
C89
100
AcDbEntity
  8
Dimension (ANSI)
440
 16777216
100
AcDbLine
 10
45.1953733448462
 20
88.1555780902733
 30
0.0
 11
45.1953733448462
 21
92.53460486236917
 31
0.0
  0
LINE
  5
D69
330
C89
100
AcDbEntity
  8
Dimension (ANSI)
440
 16777216
100
AcDbLine
 10
46.07037334484619
 20
89.15046643792164
 30
0.0
 11
46.07037334484619
 21
92.53460486236917
 31
0.0
  0
LINE
  5
D6A
330
C89
100
AcDbEntity
  8
Dimension (ANSI)
440
 16777216
100
AcDbLine
 10
47.15305048567814
 20
91.15960486236918
 30
0.0
 11
48.23572762651009
 21
91.15960486236918
 31
0.0
  0
LINE
  5
D6B
330
C89
100
AcDbEntity
  8
Dimension (ANSI)
440
 16777216
100
AcDbLine
 10
44.11269620401425
 20
91.15960486236918
 30
0.0
 11
42.47060042682369
 21
91.15960486236918
 31
0.0
  0
SOLID
  5
D6C
330
C89
100
AcDbEntity
  8
Dimension (ANSI)
440
 16777216
100
AcDbTrace
 10
47.15305048567814
 20
91.34005105250784
 30
0.0
 11
47.15305048567814
 21
90.97915867223052
 31
0.0
 12
46.07037334484619
 22
91.15960486236918
 32
0.0
 13
46.07037334484619
 23
91.15960486236918
 33
0.0
  0
SOLID
  5
D6D
330
C89
100
AcDbEntity
  8
Dimension (ANSI)
440
 16777216
100
AcDbTrace
 10
44.11269620401425
 20
91.34005105250784
 30
0.0
 11
44.11269620401425
 21
90.97915867223052
 31
0.0
 12
45.1953733448462
 22
91.15960486236918
 32
0.0
 13
45.1953733448462
 23
91.15960486236918
 33
0.0
  0
MTEXT
  5
D6E
330
C89
100
AcDbEntity
  8
Dimension (ANSI)
440
 16777216
100
AcDbMText
 10
38.74036927611581
 20
91.84974591958505
 30
0.0
 40
1.320000052452087
 41
0.0
 46
0.0
 71
     1
 72
     1
  1
\A1;0.88
  7
Note Text (ANSI)
 73
     1
 44
1.0
  0
POINT
  5
D6F
330
C89
100
AcDbEntity
  8
Defpoints
 62
     0
440
 16777216
100
AcDbPoint
 10
45.1953733448462
 20
87.4680780902733
 30
0.0
  0
POINT
  5
D70
330
C89
100
AcDbEntity
  8
Defpoints
 62
     0
440
 16777216
100
AcDbPoint
 10
46.07037334484619
 20
88.46296643792163
 30
0.0
  0
POINT
  5
D71
330
C89
100
AcDbEntity
  8
Defpoints
 62
     0
440
 16777216
100
AcDbPoint
 10
46.07037334484619
 20
91.15960486236918
 30
0.0
  0
ENDBLK
  5
C8B
330
C89
100
AcDbEntity
  8
0
100
AcDbBlockEnd
  0
BLOCK
  5
D74
330
D73
100
AcDbEntity
  8
0
100
AcDbBlockBegin
  2
*D14
 70
     1
 10
0.0
 20
0.0
 30
0.0
  3
*D14
  1

  0
LINE
  5
E52
330
D73
100
AcDbEntity
  8
Dimension (ANSI)
440
 16777216
100
AcDbLine
 10
90.66437334484616
 20
59.68146643792162
 30
0.0
 11
95.68258200626351
 21
59.68146643792162
 31
0.0
  0
LINE
  5
E53
330
D73
100
AcDbEntity
  8
Dimension (ANSI)
440
 16777216
100
AcDbLine
 10
90.66437334484616
 20
49.68146643792163
 30
0.0
 11
95.68258200626351
 21
49.68146643792163
 31
0.0
  0
LINE
  5
E54
330
D73
100
AcDbEntity
  8
Dimension (ANSI)
440
 16777216
100
AcDbLine
 10
94.30758200626351
 20
58.59878929708967
 30
0.0
 11
94.30758200626351
 21
55.71496143442177
 31
0.0
  0
LINE
  5
E55
330
D73
100
AcDbEntity
  8
Dimension (ANSI)
440
 16777216
100
AcDbLine
 10
94.30758200626351
 20
50.76414357875357
 30
0.0
 11
94.30758200626351
 21
53.64797144142144
 31
0.0
  0
SOLID
  5
E56
330
D73
100
AcDbEntity
  8
Dimension (ANSI)
440
 16777216
100
AcDbTrace
 10
94.12713581612486
 20
58.59878929708967
 30
0.0
 11
94.48802819640217
 21
58.59878929708967
 31
0.0
 12
94.30758200626351
 22
59.68146643792162
 32
0.0
 13
94.30758200626351
 23
59.68146643792162
 33
0.0
  0
SOLID
  5
E57
330
D73
100
AcDbEntity
  8
Dimension (ANSI)
440
 16777216
100
AcDbTrace
 10
94.12713581612486
 20
50.76414357875357
 30
0.0
 11
94.48802819640217
 21
50.76414357875357
 31
0.0
 12
94.30758200626351
 22
49.68146643792163
 32
0.0
 13
94.30758200626351
 23
49.68146643792163
 33
0.0
  0
MTEXT
  5
E58
330
D73
100
AcDbEntity
  8
Dimension (ANSI)
440
 16777216
100
AcDbMText
 10
92.18751477655024
 20
55.3685047415084
 30
0.0
 40
1.320000052452087
 41
0.0
 46
0.0
 71
     1
 72
     1
  1
\A1;10.00
  7
Note Text (ANSI)
 73
     1
 44
1.0
  0
POINT
  5
E59
330
D73
100
AcDbEntity
  8
Defpoints
 62
     0
440
 16777216
100
AcDbPoint
 10
89.97687334484616
 20
59.68146643792162
 30
0.0
  0
POINT
  5
E5A
330
D73
100
AcDbEntity
  8
Defpoints
 62
     0
440
 16777216
100
AcDbPoint
 10
89.97687334484616
 20
49.68146643792163
 30
0.0
  0
POINT
  5
E5B
330
D73
100
AcDbEntity
  8
Defpoints
 62
     0
440
 16777216
100
AcDbPoint
 10
94.30758200626351
 20
49.68146643792163
 30
0.0
  0
ENDBLK
  5
D75
330
D73
100
AcDbEntity
  8
0
100
AcDbBlockEnd
  0
ENDSEC
  0
SECTION
  2
ENTITIES
  0
CIRCLE
  5
11B
330
6C
100
AcDbEntity
  8
Visible (ANSI)
100
AcDbCircle
 10
88.32037334484617
 20
49.68146643792163
 30
0.0
 40
0.2814999999999999
  0
CIRCLE
  5
11C
330
6C
100
AcDbEntity
  8
Visible (ANSI)
100
AcDbCircle
 10
46.07037334484619
 20
49.68146643792164
 30
0.0
 40
0.2814999999999999
  0
CIRCLE
  5
11D
330
6C
100
AcDbEntity
  8
Visible (ANSI)
100
AcDbCircle
 10
67.19537334484619
 20
32.55646643792162
 30
0.0
 40
0.2814999999999999
  0
CIRCLE
  5
11E
330
6C
100
AcDbEntity
  8
Visible (ANSI)
100
AcDbCircle
 10
88.32037334484617
 20
59.68146643792162
 30
0.0
 40
0.2814999999999999
  0
CIRCLE
  5
11F
330
6C
100
AcDbEntity
  8
Visible (ANSI)
100
AcDbCircle
 10
88.32037334484617
 20
32.55646643792163
 30
0.0
 40
0.2814999999999999
  0
CIRCLE
  5
120
330
6C
100
AcDbEntity
  8
Visible (ANSI)
100
AcDbCircle
 10
46.07037334484619
 20
32.55646643792164
 30
0.0
 40
0.2814999999999999
  0
CIRCLE
  5
121
330
6C
100
AcDbEntity
  8
Visible (ANSI)
100
AcDbCircle
 10
46.07037334484619
 20
59.68146643792163
 30
0.0
 40
0.2814999999999999
  0
CIRCLE
  5
122
330
6C
100
AcDbEntity
  8
Visible (ANSI)
100
AcDbCircle
 10
88.32037334484617
 20
86.80646643792163
 30
0.0
 40
0.2814999999999999
  0
CIRCLE
  5
123
330
6C
100
AcDbEntity
  8
Visible (ANSI)
100
AcDbCircle
 10
67.19537334484619
 20
86.80646643792163
 30
0.0
 40
0.2814999999999999
  0
CIRCLE
  5
124
330
6C
100
AcDbEntity
  8
Visible (ANSI)
100
AcDbCircle
 10
46.07037334484619
 20
86.80646643792163
 30
0.0
 40
0.2814999999999999
  0
LINE
  5
125
330
6C
100
AcDbEntity
  8
Visible (ANSI)
100
AcDbLine
 10
88.98198499719788
 20
31.68146643792163
 30
0.0
 11
45.40876169249451
 21
31.68146643792163
 31
0.0
  0
LINE
  5
126
330
6C
100
AcDbEntity
  8
Visible (ANSI)
100
AcDbLine
 10
89.19537334484617
 20
87.4680780902733
 30
0.0
 11
89.19537334484619
 21
31.89485478556996
 31
0.0
  0
LINE
  5
127
330
6C
100
AcDbEntity
  8
Visible (ANSI)
100
AcDbLine
 10
45.40876169249451
 20
87.68146643792162
 30
0.0
 11
88.98198499719788
 21
87.68146643792162
 31
0.0
  0
LINE
  5
128
330
6C
100
AcDbEntity
  8
Visible (ANSI)
100
AcDbLine
 10
45.1953733448462
 20
31.89485478556994
 30
0.0
 11
45.1953733448462
 21
87.4680780902733
 31
0.0
  0
POLYLINE
  5
129
330
6C
100
AcDbEntity
  8
Visible (ANSI)
100
AcDb2dPolyline
 66
     1
 10
0.0
 20
0.0
 30
0.0
 70
   128
  0
VERTEX
  5
12A
330
129
100
AcDbEntity
  8
Visible (ANSI)
100
AcDbVertex
100
AcDb2dVertex
 10
89.03912478662153
 20
31.83771643557498
 30
0.0
  0
VERTEX
  5
12B
330
129
100
AcDbEntity
  8
Visible (ANSI)
100
AcDbVertex
100
AcDb2dVertex
 10
89.0367428536045
 20
31.82749719576185
 30
0.0
  0
VERTEX
  5
12D
330
129
100
AcDbEntity
  8
Visible (ANSI)
100
AcDbVertex
100
AcDb2dVertex
 10
89.03436092058745
 20
31.81732172077647
 30
0.0
  0
VERTEX
  5
12E
330
129
100
AcDbEntity
  8
Visible (ANSI)
100
AcDbVertex
100
AcDb2dVertex
 10
89.03198199126904
 20
31.80723357598225
 30
0.0
  0
VERTEX
  5
12F
330
129
100
AcDbEntity
  8
Visible (ANSI)
100
AcDbVertex
100
AcDb2dVertex
 10
89.02960005825201
 20
31.79727596301344
 30
0.0
  0
VERTEX
  5
130
330
129
100
AcDbEntity
  8
Visible (ANSI)
100
AcDbVertex
100
AcDb2dVertex
 10
89.02721812523498
 20
31.78749152031083
 30
0.0
  0
VERTEX
  5
131
330
129
100
AcDbEntity
  8
Visible (ANSI)
100
AcDbVertex
100
AcDb2dVertex
 10
89.02483919591658
 20
31.7779221529903
 30
0.0
  0
VERTEX
  5
132
330
129
100
AcDbEntity
  8
Visible (ANSI)
100
AcDbVertex
100
AcDb2dVertex
 10
89.02245726289953
 20
31.76860882751197
 30
0.0
  0
VERTEX
  5
133
330
129
100
AcDbEntity
  8
Visible (ANSI)
100
AcDbVertex
100
AcDb2dVertex
 10
89.02007833358112
 20
31.75959143674831
 30
0.0
  0
VERTEX
  5
134
330
129
100
AcDbEntity
  8
Visible (ANSI)
100
AcDbVertex
100
AcDb2dVertex
 10
89.01769640056409
 20
31.75090858878664
 30
0.0
  0
VERTEX
  5
135
330
129
100
AcDbEntity
  8
Visible (ANSI)
100
AcDbVertex
100
AcDb2dVertex
 10
89.01531446754706
 20
31.74259746613077
 30
0.0
  0
VERTEX
  5
136
330
129
100
AcDbEntity
  8
Visible (ANSI)
100
AcDbVertex
100
AcDb2dVertex
 10
89.01293553822865
 20
31.7346936555696
 30
0.0
  0
VERTEX
  5
137
330
129
100
AcDbEntity
  8
Visible (ANSI)
100
AcDbVertex
100
AcDb2dVertex
 10
89.0105536052116
 20
31.72723100444545
 30
0.0
  0
VERTEX
  5
138
330
129
100
AcDbEntity
  8
Visible (ANSI)
100
AcDbVertex
100
AcDb2dVertex
 10
89.00817467589318
 20
31.7202414681225
 30
0.0
  0
VERTEX
  5
139
330
129
100
AcDbEntity
  8
Visible (ANSI)
100
AcDbVertex
100
AcDb2dVertex
 10
89.00579274287615
 20
31.71375497798833
 30
0.0
  0
VERTEX
  5
13A
330
129
100
AcDbEntity
  8
Visible (ANSI)
100
AcDbVertex
100
AcDb2dVertex
 10
89.00341080985912
 20
31.70779931238868
 30
0.0
  0
VERTEX
  5
13B
330
129
100
AcDbEntity
  8
Visible (ANSI)
100
AcDbVertex
100
AcDb2dVertex
 10
89.00103188054071
 20
31.70239996902902
 30
0.0
  0
VERTEX
  5
13C
330
129
100
AcDbEntity
  8
Visible (ANSI)
100
AcDbVertex
100
AcDb2dVertex
 10
88.99864994752366
 20
31.69758007257554
 30
0.0
  0
VERTEX
  5
13D
330
129
100
AcDbEntity
  8
Visible (ANSI)
100
AcDbVertex
100
AcDb2dVertex
 10
88.99627101820525
 20
31.69336026098984
 30
0.0
  0
VERTEX
  5
13E
330
129
100
AcDbEntity
  8
Visible (ANSI)
100
AcDbVertex
100
AcDb2dVertex
 10
88.99388908518821
 20
31.68975860486314
 30
0.0
  0
VERTEX
  5
13F
330
129
100
AcDbEntity
  8
Visible (ANSI)
100
AcDbVertex
100
AcDb2dVertex
 10
88.99150715217118
 20
31.68679052748395
 30
0.0
  0
VERTEX
  5
140
330
129
100
AcDbEntity
  8
Visible (ANSI)
100
AcDbVertex
100
AcDb2dVertex
 10
88.98912822285277
 20
31.68446873792213
 30
0.0
  0
VERTEX
  5
141
330
129
100
AcDbEntity
  8
Visible (ANSI)
100
AcDbVertex
100
AcDb2dVertex
 10
88.98674628983574
 20
31.68280317832115
 30
0.0
  0
VERTEX
  5
142
330
129
100
AcDbEntity
  8
Visible (ANSI)
100
AcDbVertex
100
AcDb2dVertex
 10
88.98436435681871
 20
31.68180098115904
 30
0.0
  0
VERTEX
  5
143
330
129
100
AcDbEntity
  8
Visible (ANSI)
100
AcDbVertex
100
AcDb2dVertex
 10
88.98198542750028
 20
31.68146643792163
 30
0.0
  0
SEQEND
  5
12C
330
129
100
AcDbEntity
  8
Visible (ANSI)
  0
POLYLINE
  5
144
330
6C
100
AcDbEntity
  8
Visible (ANSI)
100
AcDb2dPolyline
 66
     1
 10
0.0
 20
0.0
 30
0.0
 70
   128
  0
VERTEX
  5
145
330
144
100
AcDbEntity
  8
Visible (ANSI)
100
AcDbVertex
100
AcDb2dVertex
 10
45.4087616808326
 20
31.68146643792163
 30
0.0
  0
VERTEX
  5
146
330
144
100
AcDbEntity
  8
Visible (ANSI)
100
AcDbVertex
100
AcDb2dVertex
 10
45.40638092113534
 20
31.68180098115904
 30
0.0
  0
VERTEX
  5
148
330
144
100
AcDbEntity
  8
Visible (ANSI)
100
AcDbVertex
100
AcDb2dVertex
 10
45.40400016143808
 20
31.68280317832115
 30
0.0
  0
VERTEX
  5
149
330
144
100
AcDbEntity
  8
Visible (ANSI)
100
AcDbVertex
100
AcDb2dVertex
 10
45.40161940174082
 20
31.68446873792213
 30
0.0
  0
VERTEX
  5
14A
330
144
100
AcDbEntity
  8
Visible (ANSI)
100
AcDbVertex
100
AcDb2dVertex
 10
45.39923864204355
 20
31.68679052748395
 30
0.0
  0
VERTEX
  5
14B
330
144
100
AcDbEntity
  8
Visible (ANSI)
100
AcDbVertex
100
AcDb2dVertex
 10
45.3968578588799
 20
31.68975860486314
 30
0.0
  0
VERTEX
  5
14C
330
144
100
AcDbEntity
  8
Visible (ANSI)
100
AcDbVertex
100
AcDb2dVertex
 10
45.39447709918263
 20
31.69336026098984
 30
0.0
  0
VERTEX
  5
14D
330
144
100
AcDbEntity
  8
Visible (ANSI)
100
AcDbVertex
100
AcDb2dVertex
 10
45.39209633948537
 20
31.69758007257554
 30
0.0
  0
VERTEX
  5
14E
330
144
100
AcDbEntity
  8
Visible (ANSI)
100
AcDbVertex
100
AcDb2dVertex
 10
45.38971557978811
 20
31.70239996902902
 30
0.0
  0
VERTEX
  5
14F
330
144
100
AcDbEntity
  8
Visible (ANSI)
100
AcDbVertex
100
AcDb2dVertex
 10
45.38733480835766
 20
31.70779931238868
 30
0.0
  0
VERTEX
  5
150
330
144
100
AcDbEntity
  8
Visible (ANSI)
100
AcDbVertex
100
AcDb2dVertex
 10
45.38495404866039
 20
31.71375497798833
 30
0.0
  0
VERTEX
  5
151
330
144
100
AcDbEntity
  8
Visible (ANSI)
100
AcDbVertex
100
AcDb2dVertex
 10
45.38257328896313
 20
31.7202414681225
 30
0.0
  0
VERTEX
  5
152
330
144
100
AcDbEntity
  8
Visible (ANSI)
100
AcDbVertex
100
AcDb2dVertex
 10
45.38019251753268
 20
31.72723100444545
 30
0.0
  0
VERTEX
  5
153
330
144
100
AcDbEntity
  8
Visible (ANSI)
100
AcDbVertex
100
AcDb2dVertex
 10
45.37781175783541
 20
31.7346936555696
 30
0.0
  0
VERTEX
  5
154
330
144
100
AcDbEntity
  8
Visible (ANSI)
100
AcDbVertex
100
AcDb2dVertex
 10
45.37543098640496
 20
31.74259746613077
 30
0.0
  0
VERTEX
  5
155
330
144
100
AcDbEntity
  8
Visible (ANSI)
100
AcDbVertex
100
AcDb2dVertex
 10
45.3730502267077
 20
31.75090858878664
 30
0.0
  0
VERTEX
  5
156
330
144
100
AcDbEntity
  8
Visible (ANSI)
100
AcDbVertex
100
AcDb2dVertex
 10
45.37066945527723
 20
31.75959143674831
 30
0.0
  0
VERTEX
  5
157
330
144
100
AcDbEntity
  8
Visible (ANSI)
100
AcDbVertex
100
AcDb2dVertex
 10
45.36828869557997
 20
31.76860882751197
 30
0.0
  0
VERTEX
  5
158
330
144
100
AcDbEntity
  8
Visible (ANSI)
100
AcDbVertex
100
AcDb2dVertex
 10
45.36590793588271
 20
31.7779221529903
 30
0.0
  0
VERTEX
  5
159
330
144
100
AcDbEntity
  8
Visible (ANSI)
100
AcDbVertex
100
AcDb2dVertex
 10
45.36352716445226
 20
31.78749152031083
 30
0.0
  0
VERTEX
  5
15A
330
144
100
AcDbEntity
  8
Visible (ANSI)
100
AcDbVertex
100
AcDb2dVertex
 10
45.36114640475499
 20
31.79727596301344
 30
0.0
  0
VERTEX
  5
15B
330
144
100
AcDbEntity
  8
Visible (ANSI)
100
AcDbVertex
100
AcDb2dVertex
 10
45.35876563332453
 20
31.80723357598225
 30
0.0
  0
VERTEX
  5
15C
330
144
100
AcDbEntity
  8
Visible (ANSI)
100
AcDbVertex
100
AcDb2dVertex
 10
45.35638487362727
 20
31.81732172077647
 30
0.0
  0
VERTEX
  5
15D
330
144
100
AcDbEntity
  8
Visible (ANSI)
100
AcDbVertex
100
AcDb2dVertex
 10
45.35400411393002
 20
31.82749719576185
 30
0.0
  0
VERTEX
  5
15E
330
144
100
AcDbEntity
  8
Visible (ANSI)
100
AcDbVertex
100
AcDb2dVertex
 10
45.35162334249956
 20
31.83771643557498
 30
0.0
  0
SEQEND
  5
147
330
144
100
AcDbEntity
  8
Visible (ANSI)
  0
POLYLINE
  5
15F
330
6C
100
AcDbEntity
  8
Visible (ANSI)
100
AcDb2dPolyline
 66
     1
 10
0.0
 20
0.0
 30
0.0
 70
   128
  0
VERTEX
  5
160
330
15F
100
AcDbEntity
  8
Visible (ANSI)
100
AcDbVertex
100
AcDb2dVertex
 10
89.03912478662153
 20
87.52521619762573
 30
0.0
  0
VERTEX
  5
161
330
15F
100
AcDbEntity
  8
Visible (ANSI)
100
AcDbVertex
100
AcDb2dVertex
 10
89.04934336937559
 20
87.52283726830732
 30
0.0
  0
VERTEX
  5
163
330
15F
100
AcDbEntity
  8
Visible (ANSI)
100
AcDbVertex
100
AcDb2dVertex
 10
89.05951689665014
 20
87.52045233159165
 30
0.0
  0
VERTEX
  5
164
330
15F
100
AcDbEntity
  8
Visible (ANSI)
100
AcDbVertex
100
AcDb2dVertex
 10
89.06960632036293
 20
87.51807340227324
 30
0.0
  0
VERTEX
  5
165
330
15F
100
AcDbEntity
  8
Visible (ANSI)
100
AcDbVertex
100
AcDb2dVertex
 10
89.0795635813358
 20
87.51569447295485
 30
0.0
  0
VERTEX
  5
166
330
15F
100
AcDbEntity
  8
Visible (ANSI)
100
AcDbVertex
100
AcDb2dVertex
 10
89.0893496314865
 20
87.51331554363643
 30
0.0
  0
VERTEX
  5
167
330
15F
100
AcDbEntity
  8
Visible (ANSI)
100
AcDbVertex
100
AcDb2dVertex
 10
89.09891641163692
 20
87.51093060692076
 30
0.0
  0
VERTEX
  5
168
330
15F
100
AcDbEntity
  8
Visible (ANSI)
100
AcDbVertex
100
AcDb2dVertex
 10
89.10823088110204
 20
87.50855167760233
 30
0.0
  0
VERTEX
  5
169
330
15F
100
AcDbEntity
  8
Visible (ANSI)
100
AcDbVertex
100
AcDb2dVertex
 10
89.11724798440237
 20
87.50617274828394
 30
0.0
  0
VERTEX
  5
16A
330
15F
100
AcDbEntity
  8
Visible (ANSI)
100
AcDbVertex
100
AcDb2dVertex
 10
89.12593167715426
 20
87.50378781156827
 30
0.0
  0
VERTEX
  5
16B
330
15F
100
AcDbEntity
  8
Visible (ANSI)
100
AcDbVertex
100
AcDb2dVertex
 10
89.13424291127551
 20
87.50140888224986
 30
0.0
  0
VERTEX
  5
16C
330
15F
100
AcDbEntity
  8
Visible (ANSI)
100
AcDbVertex
100
AcDb2dVertex
 10
89.14214564238248
 20
87.49902995293146
 30
0.0
  0
VERTEX
  5
16D
330
15F
100
AcDbEntity
  8
Visible (ANSI)
100
AcDbVertex
100
AcDb2dVertex
 10
89.14960983348883
 20
87.49664501621579
 30
0.0
  0
VERTEX
  5
16E
330
15F
100
AcDbEntity
  8
Visible (ANSI)
100
AcDbVertex
100
AcDb2dVertex
 10
89.15659944021099
 20
87.49426608689738
 30
0.0
  0
VERTEX
  5
16F
330
15F
100
AcDbEntity
  8
Visible (ANSI)
100
AcDbVertex
100
AcDb2dVertex
 10
89.16308442556255
 20
87.49188715757899
 30
0.0
  0
VERTEX
  5
170
330
15F
100
AcDbEntity
  8
Visible (ANSI)
100
AcDbVertex
100
AcDb2dVertex
 10
89.16904075995445
 20
87.4895022208633
 30
0.0
  0
VERTEX
  5
171
330
15F
100
AcDbEntity
  8
Visible (ANSI)
100
AcDbVertex
100
AcDb2dVertex
 10
89.17443840640039
 20
87.48712329154489
 30
0.0
  0
VERTEX
  5
172
330
15F
100
AcDbEntity
  8
Visible (ANSI)
100
AcDbVertex
100
AcDb2dVertex
 10
89.17925934270853
 20
87.48474436222648
 30
0.0
  0
VERTEX
  5
173
330
15F
100
AcDbEntity
  8
Visible (ANSI)
100
AcDbVertex
100
AcDb2dVertex
 10
89.18347953928977
 20
87.48236543290808
 30
0.0
  0
VERTEX
  5
174
330
15F
100
AcDbEntity
  8
Visible (ANSI)
100
AcDbVertex
100
AcDb2dVertex
 10
89.18708097395237
 20
87.47998049619241
 30
0.0
  0
VERTEX
  5
175
330
15F
100
AcDbEntity
  8
Visible (ANSI)
100
AcDbVertex
100
AcDb2dVertex
 10
89.1900486282031
 20
87.47760156687402
 30
0.0
  0
VERTEX
  5
176
330
15F
100
AcDbEntity
  8
Visible (ANSI)
100
AcDbVertex
100
AcDb2dVertex
 10
89.19237048724745
 20
87.47522263755561
 30
0.0
  0
VERTEX
  5
177
330
15F
100
AcDbEntity
  8
Visible (ANSI)
100
AcDbVertex
100
AcDb2dVertex
 10
89.19403753998953
 20
87.47283770083992
 30
0.0
  0
VERTEX
  5
178
330
15F
100
AcDbEntity
  8
Visible (ANSI)
100
AcDbVertex
100
AcDb2dVertex
 10
89.19503777163475
 20
87.47045877152151
 30
0.0
  0
VERTEX
  5
179
330
15F
100
AcDbEntity
  8
Visible (ANSI)
100
AcDbVertex
100
AcDb2dVertex
 10
89.19537418588181
 20
87.46807984220311
 30
0.0
  0
SEQEND
  5
162
330
15F
100
AcDbEntity
  8
Visible (ANSI)
  0
POLYLINE
  5
17A
330
6C
100
AcDbEntity
  8
Visible (ANSI)
100
AcDb2dPolyline
 66
     1
 10
0.0
 20
0.0
 30
0.0
 70
   128
  0
VERTEX
  5
17B
330
17A
100
AcDbEntity
  8
Visible (ANSI)
100
AcDbVertex
100
AcDb2dVertex
 10
89.19537418588181
 20
31.89485477390802
 30
0.0
  0
VERTEX
  5
17C
330
17A
100
AcDbEntity
  8
Visible (ANSI)
100
AcDbVertex
100
AcDb2dVertex
 10
89.19503777163475
 20
31.89247401421076
 30
0.0
  0
VERTEX
  5
17E
330
17A
100
AcDbEntity
  8
Visible (ANSI)
100
AcDbVertex
100
AcDb2dVertex
 10
89.19403753998953
 20
31.89009325451351
 30
0.0
  0
VERTEX
  5
17F
330
17A
100
AcDbEntity
  8
Visible (ANSI)
100
AcDbVertex
100
AcDb2dVertex
 10
89.19237048724745
 20
31.88771249481624
 30
0.0
  0
VERTEX
  5
180
330
17A
100
AcDbEntity
  8
Visible (ANSI)
100
AcDbVertex
100
AcDb2dVertex
 10
89.1900486282031
 20
31.88533173511898
 30
0.0
  0
VERTEX
  5
181
330
17A
100
AcDbEntity
  8
Visible (ANSI)
100
AcDbVertex
100
AcDb2dVertex
 10
89.18708097395237
 20
31.88295095195532
 30
0.0
  0
VERTEX
  5
182
330
17A
100
AcDbEntity
  8
Visible (ANSI)
100
AcDbVertex
100
AcDb2dVertex
 10
89.18347953928977
 20
31.88057019225806
 30
0.0
  0
VERTEX
  5
183
330
17A
100
AcDbEntity
  8
Visible (ANSI)
100
AcDbVertex
100
AcDb2dVertex
 10
89.17925934270853
 20
31.87818943256081
 30
0.0
  0
VERTEX
  5
184
330
17A
100
AcDbEntity
  8
Visible (ANSI)
100
AcDbVertex
100
AcDb2dVertex
 10
89.17443840640039
 20
31.87580867286354
 30
0.0
  0
VERTEX
  5
185
330
17A
100
AcDbEntity
  8
Visible (ANSI)
100
AcDbVertex
100
AcDb2dVertex
 10
89.16904075995445
 20
31.87342790143308
 30
0.0
  0
VERTEX
  5
186
330
17A
100
AcDbEntity
  8
Visible (ANSI)
100
AcDbVertex
100
AcDb2dVertex
 10
89.16308442556255
 20
31.87104714173582
 30
0.0
  0
VERTEX
  5
187
330
17A
100
AcDbEntity
  8
Visible (ANSI)
100
AcDbVertex
100
AcDb2dVertex
 10
89.15659944021099
 20
31.86866638203856
 30
0.0
  0
VERTEX
  5
188
330
17A
100
AcDbEntity
  8
Visible (ANSI)
100
AcDbVertex
100
AcDb2dVertex
 10
89.14960983348883
 20
31.86628561060811
 30
0.0
  0
VERTEX
  5
189
330
17A
100
AcDbEntity
  8
Visible (ANSI)
100
AcDbVertex
100
AcDb2dVertex
 10
89.14214564238248
 20
31.86390485091084
 30
0.0
  0
VERTEX
  5
18A
330
17A
100
AcDbEntity
  8
Visible (ANSI)
100
AcDbVertex
100
AcDb2dVertex
 10
89.13424291127551
 20
31.86152407948038
 30
0.0
  0
VERTEX
  5
18B
330
17A
100
AcDbEntity
  8
Visible (ANSI)
100
AcDbVertex
100
AcDb2dVertex
 10
89.12593167715426
 20
31.85914331978312
 30
0.0
  0
VERTEX
  5
18C
330
17A
100
AcDbEntity
  8
Visible (ANSI)
100
AcDbVertex
100
AcDb2dVertex
 10
89.11724798440237
 20
31.85676254835267
 30
0.0
  0
VERTEX
  5
18D
330
17A
100
AcDbEntity
  8
Visible (ANSI)
100
AcDbVertex
100
AcDb2dVertex
 10
89.10823088110204
 20
31.85438178865541
 30
0.0
  0
VERTEX
  5
18E
330
17A
100
AcDbEntity
  8
Visible (ANSI)
100
AcDbVertex
100
AcDb2dVertex
 10
89.09891641163692
 20
31.85200102895815
 30
0.0
  0
VERTEX
  5
18F
330
17A
100
AcDbEntity
  8
Visible (ANSI)
100
AcDbVertex
100
AcDb2dVertex
 10
89.0893496314865
 20
31.84962025752768
 30
0.0
  0
VERTEX
  5
190
330
17A
100
AcDbEntity
  8
Visible (ANSI)
100
AcDbVertex
100
AcDb2dVertex
 10
89.0795635813358
 20
31.84723949783042
 30
0.0
  0
VERTEX
  5
191
330
17A
100
AcDbEntity
  8
Visible (ANSI)
100
AcDbVertex
100
AcDb2dVertex
 10
89.06960632036293
 20
31.84485872639997
 30
0.0
  0
VERTEX
  5
192
330
17A
100
AcDbEntity
  8
Visible (ANSI)
100
AcDbVertex
100
AcDb2dVertex
 10
89.05951689665014
 20
31.84247796670271
 30
0.0
  0
VERTEX
  5
193
330
17A
100
AcDbEntity
  8
Visible (ANSI)
100
AcDbVertex
100
AcDb2dVertex
 10
89.04934336937559
 20
31.84009720700544
 30
0.0
  0
VERTEX
  5
194
330
17A
100
AcDbEntity
  8
Visible (ANSI)
100
AcDbVertex
100
AcDb2dVertex
 10
89.03912478662153
 20
31.83771643557498
 30
0.0
  0
SEQEND
  5
17D
330
17A
100
AcDbEntity
  8
Visible (ANSI)
  0
POLYLINE
  5
195
330
6C
100
AcDbEntity
  8
Visible (ANSI)
100
AcDb2dPolyline
 66
     1
 10
0.0
 20
0.0
 30
0.0
 70
   128
  0
VERTEX
  5
196
330
195
100
AcDbEntity
  8
Visible (ANSI)
100
AcDbVertex
100
AcDb2dVertex
 10
45.35162334249956
 20
87.52521619762573
 30
0.0
  0
VERTEX
  5
197
330
195
100
AcDbEntity
  8
Visible (ANSI)
100
AcDbVertex
100
AcDb2dVertex
 10
45.35400411393002
 20
87.53543478037979
 30
0.0
  0
VERTEX
  5
199
330
195
100
AcDbEntity
  8
Visible (ANSI)
100
AcDbVertex
100
AcDb2dVertex
 10
45.35638487362727
 20
87.54561131135297
 30
0.0
  0
VERTEX
  5
19A
330
195
100
AcDbEntity
  8
Visible (ANSI)
100
AcDbVertex
100
AcDb2dVertex
 10
45.35876563332453
 20
87.55569773136711
 30
0.0
  0
VERTEX
  5
19B
330
195
100
AcDbEntity
  8
Visible (ANSI)
100
AcDbVertex
100
AcDb2dVertex
 10
45.36114640475499
 20
87.56565799603862
 30
0.0
  0
VERTEX
  5
19C
330
195
100
AcDbEntity
  8
Visible (ANSI)
100
AcDbVertex
100
AcDb2dVertex
 10
45.36352716445226
 20
87.57544404618933
 30
0.0
  0
VERTEX
  5
19D
330
195
100
AcDbEntity
  8
Visible (ANSI)
100
AcDbVertex
100
AcDb2dVertex
 10
45.36590793588271
 20
87.5850078226411
 30
0.0
  0
VERTEX
  5
19E
330
195
100
AcDbEntity
  8
Visible (ANSI)
100
AcDbVertex
100
AcDb2dVertex
 10
45.36828869557997
 20
87.59432529580484
 30
0.0
  0
VERTEX
  5
19F
330
195
100
AcDbEntity
  8
Visible (ANSI)
100
AcDbVertex
100
AcDb2dVertex
 10
45.37066945527723
 20
87.60334239910518
 30
0.0
  0
VERTEX
  5
1A0
330
195
100
AcDbEntity
  8
Visible (ANSI)
100
AcDbVertex
100
AcDb2dVertex
 10
45.3730502267077
 20
87.61202308815846
 30
0.0
  0
VERTEX
  5
1A1
330
195
100
AcDbEntity
  8
Visible (ANSI)
100
AcDbVertex
100
AcDb2dVertex
 10
45.37543098640496
 20
87.62033732597833
 30
0.0
  0
VERTEX
  5
1A2
330
195
100
AcDbEntity
  8
Visible (ANSI)
100
AcDbVertex
100
AcDb2dVertex
 10
45.37781175783541
 20
87.62823705338668
 30
0.0
  0
VERTEX
  5
1A3
330
195
100
AcDbEntity
  8
Visible (ANSI)
100
AcDbVertex
100
AcDb2dVertex
 10
45.38019251753268
 20
87.63570424819167
 30
0.0
  0
VERTEX
  5
1A4
330
195
100
AcDbEntity
  8
Visible (ANSI)
100
AcDbVertex
100
AcDb2dVertex
 10
45.38257328896313
 20
87.64269085121517
 30
0.0
  0
VERTEX
  5
1A5
330
195
100
AcDbEntity
  8
Visible (ANSI)
100
AcDbVertex
100
AcDb2dVertex
 10
45.38495404866039
 20
87.64917884026537
 30
0.0
  0
VERTEX
  5
1A6
330
195
100
AcDbEntity
  8
Visible (ANSI)
100
AcDbVertex
100
AcDb2dVertex
 10
45.38733480835766
 20
87.65513217095865
 30
0.0
  0
VERTEX
  5
1A7
330
195
100
AcDbEntity
  8
Visible (ANSI)
100
AcDbVertex
100
AcDb2dVertex
 10
45.38971557978811
 20
87.66053282110322
 30
0.0
  0
VERTEX
  5
1A8
330
195
100
AcDbEntity
  8
Visible (ANSI)
100
AcDbVertex
100
AcDb2dVertex
 10
45.39209633948537
 20
87.66535075371271
 30
0.0
  0
VERTEX
  5
1A9
330
195
100
AcDbEntity
  8
Visible (ANSI)
100
AcDbVertex
100
AcDb2dVertex
 10
45.39447709918263
 20
87.66957395399261
 30
0.0
  0
VERTEX
  5
1AA
330
195
100
AcDbEntity
  8
Visible (ANSI)
100
AcDbVertex
100
AcDb2dVertex
 10
45.3968578588799
 20
87.67317238495655
 30
0.0
  0
VERTEX
  5
1AB
330
195
100
AcDbEntity
  8
Visible (ANSI)
100
AcDbVertex
100
AcDb2dVertex
 10
45.39923864204355
 20
87.6761400392073
 30
0.0
  0
VERTEX
  5
1AC
330
195
100
AcDbEntity
  8
Visible (ANSI)
100
AcDbVertex
100
AcDb2dVertex
 10
45.40161940174082
 20
87.67846490195028
 30
0.0
  0
VERTEX
  5
1AD
330
195
100
AcDbEntity
  8
Visible (ANSI)
100
AcDbVertex
100
AcDb2dVertex
 10
45.40400016143808
 20
87.68012895099372
 30
0.0
  0
VERTEX
  5
1AE
330
195
100
AcDbEntity
  8
Visible (ANSI)
100
AcDbVertex
100
AcDb2dVertex
 10
45.40638092113534
 20
87.68113218633759
 30
0.0
  0
VERTEX
  5
1AF
330
195
100
AcDbEntity
  8
Visible (ANSI)
100
AcDbVertex
100
AcDb2dVertex
 10
45.4087616808326
 20
87.68146860058463
 30
0.0
  0
SEQEND
  5
198
330
195
100
AcDbEntity
  8
Visible (ANSI)
  0
POLYLINE
  5
1B0
330
6C
100
AcDbEntity
  8
Visible (ANSI)
100
AcDb2dPolyline
 66
     1
 10
0.0
 20
0.0
 30
0.0
 70
   128
  0
VERTEX
  5
1B1
330
1B0
100
AcDbEntity
  8
Visible (ANSI)
100
AcDbVertex
100
AcDb2dVertex
 10
88.98198542750028
 20
87.68146860058463
 30
0.0
  0
VERTEX
  5
1B2
330
1B0
100
AcDbEntity
  8
Visible (ANSI)
100
AcDbVertex
100
AcDb2dVertex
 10
88.98436435681871
 20
87.68113218633759
 30
0.0
  0
VERTEX
  5
1B4
330
1B0
100
AcDbEntity
  8
Visible (ANSI)
100
AcDbVertex
100
AcDb2dVertex
 10
88.98674628983574
 20
87.68012895099372
 30
0.0
  0
VERTEX
  5
1B5
330
1B0
100
AcDbEntity
  8
Visible (ANSI)
100
AcDbVertex
100
AcDb2dVertex
 10
88.98912822285277
 20
87.67846490195028
 30
0.0
  0
VERTEX
  5
1B6
330
1B0
100
AcDbEntity
  8
Visible (ANSI)
100
AcDbVertex
100
AcDb2dVertex
 10
88.99150715217118
 20
87.6761400392073
 30
0.0
  0
VERTEX
  5
1B7
330
1B0
100
AcDbEntity
  8
Visible (ANSI)
100
AcDbVertex
100
AcDb2dVertex
 10
88.99388908518821
 20
87.67317238495655
 30
0.0
  0
VERTEX
  5
1B8
330
1B0
100
AcDbEntity
  8
Visible (ANSI)
100
AcDbVertex
100
AcDb2dVertex
 10
88.99627101820525
 20
87.66957395399261
 30
0.0
  0
VERTEX
  5
1B9
330
1B0
100
AcDbEntity
  8
Visible (ANSI)
100
AcDbVertex
100
AcDb2dVertex
 10
88.99864994752366
 20
87.66535075371271
 30
0.0
  0
VERTEX
  5
1BA
330
1B0
100
AcDbEntity
  8
Visible (ANSI)
100
AcDbVertex
100
AcDb2dVertex
 10
89.00103188054071
 20
87.66053282110322
 30
0.0
  0
VERTEX
  5
1BB
330
1B0
100
AcDbEntity
  8
Visible (ANSI)
100
AcDbVertex
100
AcDb2dVertex
 10
89.00341080985912
 20
87.65513217095865
 30
0.0
  0
VERTEX
  5
1BC
330
1B0
100
AcDbEntity
  8
Visible (ANSI)
100
AcDbVertex
100
AcDb2dVertex
 10
89.00579274287615
 20
87.64917884026537
 30
0.0
  0
VERTEX
  5
1BD
330
1B0
100
AcDbEntity
  8
Visible (ANSI)
100
AcDbVertex
100
AcDb2dVertex
 10
89.00817467589318
 20
87.64269085121517
 30
0.0
  0
VERTEX
  5
1BE
330
1B0
100
AcDbEntity
  8
Visible (ANSI)
100
AcDbVertex
100
AcDb2dVertex
 10
89.0105536052116
 20
87.63570424819167
 30
0.0
  0
VERTEX
  5
1BF
330
1B0
100
AcDbEntity
  8
Visible (ANSI)
100
AcDbVertex
100
AcDb2dVertex
 10
89.01293553822865
 20
87.62823705338668
 30
0.0
  0
VERTEX
  5
1C0
330
1B0
100
AcDbEntity
  8
Visible (ANSI)
100
AcDbVertex
100
AcDb2dVertex
 10
89.01531446754706
 20
87.62033732597833
 30
0.0
  0
VERTEX
  5
1C1
330
1B0
100
AcDbEntity
  8
Visible (ANSI)
100
AcDbVertex
100
AcDb2dVertex
 10
89.01769640056409
 20
87.61202308815846
 30
0.0
  0
VERTEX
  5
1C2
330
1B0
100
AcDbEntity
  8
Visible (ANSI)
100
AcDbVertex
100
AcDb2dVertex
 10
89.02007833358112
 20
87.60334239910518
 30
0.0
  0
VERTEX
  5
1C3
330
1B0
100
AcDbEntity
  8
Visible (ANSI)
100
AcDbVertex
100
AcDb2dVertex
 10
89.02245726289953
 20
87.59432529580484
 30
0.0
  0
VERTEX
  5
1C4
330
1B0
100
AcDbEntity
  8
Visible (ANSI)
100
AcDbVertex
100
AcDb2dVertex
 10
89.02483919591658
 20
87.5850078226411
 30
0.0
  0
VERTEX
  5
1C5
330
1B0
100
AcDbEntity
  8
Visible (ANSI)
100
AcDbVertex
100
AcDb2dVertex
 10
89.02721812523498
 20
87.57544404618933
 30
0.0
  0
VERTEX
  5
1C6
330
1B0
100
AcDbEntity
  8
Visible (ANSI)
100
AcDbVertex
100
AcDb2dVertex
 10
89.02960005825201
 20
87.56565799603862
 30
0.0
  0
VERTEX
  5
1C7
330
1B0
100
AcDbEntity
  8
Visible (ANSI)
100
AcDbVertex
100
AcDb2dVertex
 10
89.03198199126904
 20
87.55569773136711
 30
0.0
  0
VERTEX
  5
1C8
330
1B0
100
AcDbEntity
  8
Visible (ANSI)
100
AcDbVertex
100
AcDb2dVertex
 10
89.03436092058745
 20
87.54561131135297
 30
0.0
  0
VERTEX
  5
1C9
330
1B0
100
AcDbEntity
  8
Visible (ANSI)
100
AcDbVertex
100
AcDb2dVertex
 10
89.0367428536045
 20
87.53543478037979
 30
0.0
  0
VERTEX
  5
1CA
330
1B0
100
AcDbEntity
  8
Visible (ANSI)
100
AcDbVertex
100
AcDb2dVertex
 10
89.03912478662153
 20
87.52521619762573
 30
0.0
  0
SEQEND
  5
1B3
330
1B0
100
AcDbEntity
  8
Visible (ANSI)
  0
POLYLINE
  5
1CB
330
6C
100
AcDbEntity
  8
Visible (ANSI)
100
AcDb2dPolyline
 66
     1
 10
0.0
 20
0.0
 30
0.0
 70
   128
  0
VERTEX
  5
1CC
330
1CB
100
AcDbEntity
  8
Visible (ANSI)
100
AcDbVertex
100
AcDb2dVertex
 10
45.35162334249956
 20
31.83771643557498
 30
0.0
  0
VERTEX
  5
1CD
330
1CB
100
AcDbEntity
  8
Visible (ANSI)
100
AcDbVertex
100
AcDb2dVertex
 10
45.34140410268642
 20
31.84009720700544
 30
0.0
  0
VERTEX
  5
1CF
330
1CB
100
AcDbEntity
  8
Visible (ANSI)
100
AcDbVertex
100
AcDb2dVertex
 10
45.33122862770105
 20
31.84247796670271
 30
0.0
  0
VERTEX
  5
1D0
330
1CB
100
AcDbEntity
  8
Visible (ANSI)
100
AcDbVertex
100
AcDb2dVertex
 10
45.32114048290682
 20
31.84485872639997
 30
0.0
  0
VERTEX
  5
1D1
330
1CB
100
AcDbEntity
  8
Visible (ANSI)
100
AcDbVertex
100
AcDb2dVertex
 10
45.31118286993801
 20
31.84723949783042
 30
0.0
  0
VERTEX
  5
1D2
330
1CB
100
AcDbEntity
  8
Visible (ANSI)
100
AcDbVertex
100
AcDb2dVertex
 10
45.30139842723539
 20
31.84962025752768
 30
0.0
  0
VERTEX
  5
1D3
330
1CB
100
AcDbEntity
  8
Visible (ANSI)
100
AcDbVertex
100
AcDb2dVertex
 10
45.29182905991488
 20
31.85200102895815
 30
0.0
  0
VERTEX
  5
1D4
330
1CB
100
AcDbEntity
  8
Visible (ANSI)
100
AcDbVertex
100
AcDb2dVertex
 10
45.28251573443654
 20
31.85438178865541
 30
0.0
  0
VERTEX
  5
1D5
330
1CB
100
AcDbEntity
  8
Visible (ANSI)
100
AcDbVertex
100
AcDb2dVertex
 10
45.27349834367288
 20
31.85676254835267
 30
0.0
  0
VERTEX
  5
1D6
330
1CB
100
AcDbEntity
  8
Visible (ANSI)
100
AcDbVertex
100
AcDb2dVertex
 10
45.26481549571122
 20
31.85914331978312
 30
0.0
  0
VERTEX
  5
1D7
330
1CB
100
AcDbEntity
  8
Visible (ANSI)
100
AcDbVertex
100
AcDb2dVertex
 10
45.25650437305534
 20
31.86152407948038
 30
0.0
  0
VERTEX
  5
1D8
330
1CB
100
AcDbEntity
  8
Visible (ANSI)
100
AcDbVertex
100
AcDb2dVertex
 10
45.24860056249417
 20
31.86390485091084
 30
0.0
  0
VERTEX
  5
1D9
330
1CB
100
AcDbEntity
  8
Visible (ANSI)
100
AcDbVertex
100
AcDb2dVertex
 10
45.24113791137001
 20
31.86628561060811
 30
0.0
  0
VERTEX
  5
1DA
330
1CB
100
AcDbEntity
  8
Visible (ANSI)
100
AcDbVertex
100
AcDb2dVertex
 10
45.23414837504707
 20
31.86866638203856
 30
0.0
  0
VERTEX
  5
1DB
330
1CB
100
AcDbEntity
  8
Visible (ANSI)
100
AcDbVertex
100
AcDb2dVertex
 10
45.22766188491289
 20
31.87104714173582
 30
0.0
  0
VERTEX
  5
1DC
330
1CB
100
AcDbEntity
  8
Visible (ANSI)
100
AcDbVertex
100
AcDb2dVertex
 10
45.22170621931326
 20
31.87342790143308
 30
0.0
  0
VERTEX
  5
1DD
330
1CB
100
AcDbEntity
  8
Visible (ANSI)
100
AcDbVertex
100
AcDb2dVertex
 10
45.2163068759536
 20
31.87580867286354
 30
0.0
  0
VERTEX
  5
1DE
330
1CB
100
AcDbEntity
  8
Visible (ANSI)
100
AcDbVertex
100
AcDb2dVertex
 10
45.21148697950011
 20
31.87818943256081
 30
0.0
  0
VERTEX
  5
1DF
330
1CB
100
AcDbEntity
  8
Visible (ANSI)
100
AcDbVertex
100
AcDb2dVertex
 10
45.20726716791441
 20
31.88057019225806
 30
0.0
  0
VERTEX
  5
1E0
330
1CB
100
AcDbEntity
  8
Visible (ANSI)
100
AcDbVertex
100
AcDb2dVertex
 10
45.2036655117877
 20
31.88295095195532
 30
0.0
  0
VERTEX
  5
1E1
330
1CB
100
AcDbEntity
  8
Visible (ANSI)
100
AcDbVertex
100
AcDb2dVertex
 10
45.20069743440853
 20
31.88533173511898
 30
0.0
  0
VERTEX
  5
1E2
330
1CB
100
AcDbEntity
  8
Visible (ANSI)
100
AcDbVertex
100
AcDb2dVertex
 10
45.1983756448467
 20
31.88771249481624
 30
0.0
  0
VERTEX
  5
1E3
330
1CB
100
AcDbEntity
  8
Visible (ANSI)
100
AcDbVertex
100
AcDb2dVertex
 10
45.19671008524572
 20
31.89009325451351
 30
0.0
  0
VERTEX
  5
1E4
330
1CB
100
AcDbEntity
  8
Visible (ANSI)
100
AcDbVertex
100
AcDb2dVertex
 10
45.19570788808361
 20
31.89247401421076
 30
0.0
  0
VERTEX
  5
1E5
330
1CB
100
AcDbEntity
  8
Visible (ANSI)
100
AcDbVertex
100
AcDb2dVertex
 10
45.1953733448462
 20
31.89485477390802
 30
0.0
  0
SEQEND
  5
1CE
330
1CB
100
AcDbEntity
  8
Visible (ANSI)
  0
POLYLINE
  5
1E6
330
6C
100
AcDbEntity
  8
Visible (ANSI)
100
AcDb2dPolyline
 66
     1
 10
0.0
 20
0.0
 30
0.0
 70
   128
  0
VERTEX
  5
1E7
330
1E6
100
AcDbEntity
  8
Visible (ANSI)
100
AcDbVertex
100
AcDb2dVertex
 10
45.1953733448462
 20
87.46807984220311
 30
0.0
  0
VERTEX
  5
1E8
330
1E6
100
AcDbEntity
  8
Visible (ANSI)
100
AcDbVertex
100
AcDb2dVertex
 10
45.19570788808361
 20
87.47045877152151
 30
0.0
  0
VERTEX
  5
1EA
330
1E6
100
AcDbEntity
  8
Visible (ANSI)
100
AcDbVertex
100
AcDb2dVertex
 10
45.19671008524572
 20
87.47283770083992
 30
0.0
  0
VERTEX
  5
1EB
330
1E6
100
AcDbEntity
  8
Visible (ANSI)
100
AcDbVertex
100
AcDb2dVertex
 10
45.1983756448467
 20
87.47522263755561
 30
0.0
  0
VERTEX
  5
1EC
330
1E6
100
AcDbEntity
  8
Visible (ANSI)
100
AcDbVertex
100
AcDb2dVertex
 10
45.20069743440853
 20
87.47760156687402
 30
0.0
  0
VERTEX
  5
1ED
330
1E6
100
AcDbEntity
  8
Visible (ANSI)
100
AcDbVertex
100
AcDb2dVertex
 10
45.2036655117877
 20
87.47998049619241
 30
0.0
  0
VERTEX
  5
1EE
330
1E6
100
AcDbEntity
  8
Visible (ANSI)
100
AcDbVertex
100
AcDb2dVertex
 10
45.20726716791441
 20
87.48236543290808
 30
0.0
  0
VERTEX
  5
1EF
330
1E6
100
AcDbEntity
  8
Visible (ANSI)
100
AcDbVertex
100
AcDb2dVertex
 10
45.21148697950011
 20
87.48474436222648
 30
0.0
  0
VERTEX
  5
1F0
330
1E6
100
AcDbEntity
  8
Visible (ANSI)
100
AcDbVertex
100
AcDb2dVertex
 10
45.2163068759536
 20
87.48712329154489
 30
0.0
  0
VERTEX
  5
1F1
330
1E6
100
AcDbEntity
  8
Visible (ANSI)
100
AcDbVertex
100
AcDb2dVertex
 10
45.22170621931326
 20
87.4895022208633
 30
0.0
  0
VERTEX
  5
1F2
330
1E6
100
AcDbEntity
  8
Visible (ANSI)
100
AcDbVertex
100
AcDb2dVertex
 10
45.22766188491289
 20
87.49188715757899
 30
0.0
  0
VERTEX
  5
1F3
330
1E6
100
AcDbEntity
  8
Visible (ANSI)
100
AcDbVertex
100
AcDb2dVertex
 10
45.23414837504707
 20
87.49426608689738
 30
0.0
  0
VERTEX
  5
1F4
330
1E6
100
AcDbEntity
  8
Visible (ANSI)
100
AcDbVertex
100
AcDb2dVertex
 10
45.24113791137001
 20
87.49664501621579
 30
0.0
  0
VERTEX
  5
1F5
330
1E6
100
AcDbEntity
  8
Visible (ANSI)
100
AcDbVertex
100
AcDb2dVertex
 10
45.24860056249417
 20
87.49902995293146
 30
0.0
  0
VERTEX
  5
1F6
330
1E6
100
AcDbEntity
  8
Visible (ANSI)
100
AcDbVertex
100
AcDb2dVertex
 10
45.25650437305534
 20
87.50140888224986
 30
0.0
  0
VERTEX
  5
1F7
330
1E6
100
AcDbEntity
  8
Visible (ANSI)
100
AcDbVertex
100
AcDb2dVertex
 10
45.26481549571122
 20
87.50378781156827
 30
0.0
  0
VERTEX
  5
1F8
330
1E6
100
AcDbEntity
  8
Visible (ANSI)
100
AcDbVertex
100
AcDb2dVertex
 10
45.27349834367288
 20
87.50617274828394
 30
0.0
  0
VERTEX
  5
1F9
330
1E6
100
AcDbEntity
  8
Visible (ANSI)
100
AcDbVertex
100
AcDb2dVertex
 10
45.28251573443654
 20
87.50855167760233
 30
0.0
  0
VERTEX
  5
1FA
330
1E6
100
AcDbEntity
  8
Visible (ANSI)
100
AcDbVertex
100
AcDb2dVertex
 10
45.29182905991488
 20
87.51093060692076
 30
0.0
  0
VERTEX
  5
1FB
330
1E6
100
AcDbEntity
  8
Visible (ANSI)
100
AcDbVertex
100
AcDb2dVertex
 10
45.30139842723539
 20
87.51331554363643
 30
0.0
  0
VERTEX
  5
1FC
330
1E6
100
AcDbEntity
  8
Visible (ANSI)
100
AcDbVertex
100
AcDb2dVertex
 10
45.31118286993801
 20
87.51569447295485
 30
0.0
  0
VERTEX
  5
1FD
330
1E6
100
AcDbEntity
  8
Visible (ANSI)
100
AcDbVertex
100
AcDb2dVertex
 10
45.32114048290682
 20
87.51807340227324
 30
0.0
  0
VERTEX
  5
1FE
330
1E6
100
AcDbEntity
  8
Visible (ANSI)
100
AcDbVertex
100
AcDb2dVertex
 10
45.33122862770105
 20
87.52045233159165
 30
0.0
  0
VERTEX
  5
1FF
330
1E6
100
AcDbEntity
  8
Visible (ANSI)
100
AcDbVertex
100
AcDb2dVertex
 10
45.34140410268642
 20
87.52283726830732
 30
0.0
  0
VERTEX
  5
200
330
1E6
100
AcDbEntity
  8
Visible (ANSI)
100
AcDbVertex
100
AcDb2dVertex
 10
45.35162334249956
 20
87.52521619762573
 30
0.0
  0
SEQEND
  5
1E9
330
1E6
100
AcDbEntity
  8
Visible (ANSI)
  0
MTEXT
  5
202
330
6C
100
AcDbEntity
  8
Symbol (ANSI)
100
AcDbMText
 10
62.26810535405569
 20
23.53986130490663
 30
0.0
 40
1.320000016313838
 41
0.0
 46
0.0
 71
     7
 72
     1
  1
FRONT VIEW
  7
Text Style154
 73
     1
 44
1.0
  0
LINE
  5
204
330
6C
100
AcDbEntity
  8
Symbol (ANSI)
370
    30
100
AcDbLine
 10
62.13610501450343
 20
23.27067329378284
 30
0.0
 11
72.74852006164588
 21
23.27067329378284
 31
0.0
  0
POLYLINE
  5
205
330
6C
100
AcDbEntity
  8
Visible (ANSI)
100
AcDb2dPolyline
 66
     1
 10
0.0
 20
0.0
 30
0.0
 70
   128
  0
VERTEX
  5
206
330
205
100
AcDbEntity
  8
Visible (ANSI)
100
AcDbVertex
100
AcDb2dVertex
 10
125.3333575509896
 20
31.83771643557498
 30
0.0
  0
VERTEX
  5
207
330
205
100
AcDbEntity
  8
Visible (ANSI)
100
AcDbVertex
100
AcDb2dVertex
 10
125.333692087925
 20
31.82749719576185
 30
0.0
  0
VERTEX
  5
209
330
205
100
AcDbEntity
  8
Visible (ANSI)
100
AcDbVertex
100
AcDb2dVertex
 10
125.3346942907475
 20
31.81732172077647
 30
0.0
  0
VERTEX
  5
20A
330
205
100
AcDbEntity
  8
Visible (ANSI)
100
AcDbVertex
100
AcDb2dVertex
 10
125.3363598533734
 20
31.80723357598225
 30
0.0
  0
VERTEX
  5
20B
330
205
100
AcDbEntity
  8
Visible (ANSI)
100
AcDbVertex
100
AcDb2dVertex
 10
125.3386816420186
 20
31.79727596301344
 30
0.0
  0
VERTEX
  5
20C
330
205
100
AcDbEntity
  8
Visible (ANSI)
100
AcDbVertex
100
AcDb2dVertex
 10
125.3416497186644
 20
31.78749152031083
 30
0.0
  0
VERTEX
  5
20D
330
205
100
AcDbEntity
  8
Visible (ANSI)
100
AcDbVertex
100
AcDb2dVertex
 10
125.3452513762578
 20
31.7779221529903
 30
0.0
  0
VERTEX
  5
20E
330
205
100
AcDbEntity
  8
Visible (ANSI)
100
AcDbVertex
100
AcDb2dVertex
 10
125.3494711856435
 20
31.76860882751197
 30
0.0
  0
VERTEX
  5
20F
330
205
100
AcDbEntity
  8
Visible (ANSI)
100
AcDbVertex
100
AcDb2dVertex
 10
125.354291077697
 20
31.75959143674831
 30
0.0
  0
VERTEX
  5
210
330
205
100
AcDbEntity
  8
Visible (ANSI)
100
AcDbVertex
100
AcDb2dVertex
 10
125.3596904254566
 20
31.75090858878664
 30
0.0
  0
VERTEX
  5
211
330
205
100
AcDbEntity
  8
Visible (ANSI)
100
AcDbVertex
100
AcDb2dVertex
 10
125.3656460910563
 20
31.74259746613077
 30
0.0
  0
VERTEX
  5
212
330
205
100
AcDbEntity
  8
Visible (ANSI)
100
AcDbVertex
100
AcDb2dVertex
 10
125.3721325782572
 20
31.7346936555696
 30
0.0
  0
VERTEX
  5
213
330
205
100
AcDbEntity
  8
Visible (ANSI)
100
AcDbVertex
100
AcDb2dVertex
 10
125.3791221145801
 20
31.72723100444545
 30
0.0
  0
VERTEX
  5
214
330
205
100
AcDbEntity
  8
Visible (ANSI)
100
AcDbVertex
100
AcDb2dVertex
 10
125.386584762771
 20
31.7202414681225
 30
0.0
  0
VERTEX
  5
215
330
205
100
AcDbEntity
  8
Visible (ANSI)
100
AcDbVertex
100
AcDb2dVertex
 10
125.3944885733321
 20
31.71375497798833
 30
0.0
  0
VERTEX
  5
216
330
205
100
AcDbEntity
  8
Visible (ANSI)
100
AcDbVertex
100
AcDb2dVertex
 10
125.4027997018546
 20
31.70779931238868
 30
0.0
  0
VERTEX
  5
217
330
205
100
AcDbEntity
  8
Visible (ANSI)
100
AcDbVertex
100
AcDb2dVertex
 10
125.4114825498163
 20
31.70239996902902
 30
0.0
  0
VERTEX
  5
218
330
205
100
AcDbEntity
  8
Visible (ANSI)
100
AcDbVertex
100
AcDb2dVertex
 10
125.4204999405799
 20
31.69758007257554
 30
0.0
  0
VERTEX
  5
219
330
205
100
AcDbEntity
  8
Visible (ANSI)
100
AcDbVertex
100
AcDb2dVertex
 10
125.429813263125
 20
31.69336026098984
 30
0.0
  0
VERTEX
  5
21A
330
205
100
AcDbEntity
  8
Visible (ANSI)
100
AcDbVertex
100
AcDb2dVertex
 10
125.4393826333788
 20
31.68975860486314
 30
0.0
  0
VERTEX
  5
21B
330
205
100
AcDbEntity
  8
Visible (ANSI)
100
AcDbVertex
100
AcDb2dVertex
 10
125.4491670731481
 20
31.68679052748395
 30
0.0
  0
VERTEX
  5
21C
330
205
100
AcDbEntity
  8
Visible (ANSI)
100
AcDbVertex
100
AcDb2dVertex
 10
125.4591246863002
 20
31.68446873792213
 30
0.0
  0
VERTEX
  5
21D
330
205
100
AcDbEntity
  8
Visible (ANSI)
100
AcDbVertex
100
AcDb2dVertex
 10
125.4692128316444
 20
31.68280317832115
 30
0.0
  0
VERTEX
  5
21E
330
205
100
AcDbEntity
  8
Visible (ANSI)
100
AcDbVertex
100
AcDb2dVertex
 10
125.4793883102965
 20
31.68180098115904
 30
0.0
  0
VERTEX
  5
21F
330
205
100
AcDbEntity
  8
Visible (ANSI)
100
AcDbVertex
100
AcDb2dVertex
 10
125.4896075486429
 20
31.68146643792163
 30
0.0
  0
SEQEND
  5
208
330
205
100
AcDbEntity
  8
Visible (ANSI)
  0
LINE
  5
220
330
6C
100
AcDbEntity
  8
Visible (ANSI)
100
AcDbLine
 10
125.4896075491123
 20
31.80646643792164
 30
0.0
 11
126.2083575491123
 21
31.80646643792164
 31
0.0
  0
LINE
  5
221
330
6C
100
AcDbEntity
  8
Visible (ANSI)
100
AcDbLine
 10
125.4896075491123
 20
31.80646643792164
 30
0.0
 11
125.4896075491123
 21
31.68146643792163
 31
0.0
  0
POLYLINE
  5
222
330
6C
100
AcDbEntity
  8
Visible (ANSI)
100
AcDb2dPolyline
 66
     1
 10
0.0
 20
0.0
 30
0.0
 70
   128
  0
VERTEX
  5
223
330
222
100
AcDbEntity
  8
Visible (ANSI)
100
AcDbVertex
100
AcDb2dVertex
 10
125.4583575491123
 20
31.83771643557498
 30
0.0
  0
VERTEX
  5
224
330
222
100
AcDbEntity
  8
Visible (ANSI)
100
AcDbVertex
100
AcDb2dVertex
 10
125.4584244577586
 20
31.83567259465228
 30
0.0
  0
VERTEX
  5
226
330
222
100
AcDbEntity
  8
Visible (ANSI)
100
AcDbVertex
100
AcDb2dVertex
 10
125.4586248971968
 20
31.83363749496192
 30
0.0
  0
VERTEX
  5
227
330
222
100
AcDbEntity
  8
Visible (ANSI)
100
AcDbVertex
100
AcDb2dVertex
 10
125.4589580091215
 20
31.83161986600308
 30
0.0
  0
VERTEX
  5
228
330
222
100
AcDbEntity
  8
Visible (ANSI)
100
AcDbVertex
100
AcDb2dVertex
 10
125.4594223670614
 20
31.82962834340932
 30
0.0
  0
VERTEX
  5
229
330
222
100
AcDbEntity
  8
Visible (ANSI)
100
AcDbVertex
100
AcDb2dVertex
 10
125.4600159825372
 20
31.82767145721543
 30
0.0
  0
VERTEX
  5
22A
330
222
100
AcDbEntity
  8
Visible (ANSI)
100
AcDbVertex
100
AcDb2dVertex
 10
125.4607363137993
 20
31.82575758492465
 30
0.0
  0
VERTEX
  5
22B
330
222
100
AcDbEntity
  8
Visible (ANSI)
100
AcDbVertex
100
AcDb2dVertex
 10
125.4615802761164
 20
31.82389491630902
 30
0.0
  0
VERTEX
  5
22C
330
222
100
AcDbEntity
  8
Visible (ANSI)
100
AcDbVertex
100
AcDb2dVertex
 10
125.4625442551138
 20
31.82209144167625
 30
0.0
  0
VERTEX
  5
22D
330
222
100
AcDbEntity
  8
Visible (ANSI)
100
AcDbVertex
100
AcDb2dVertex
 10
125.463624123639
 20
31.82035486973728
 30
0.0
  0
VERTEX
  5
22E
330
222
100
AcDbEntity
  8
Visible (ANSI)
100
AcDbVertex
100
AcDb2dVertex
 10
125.4648152569789
 20
31.8186926393395
 30
0.0
  0
VERTEX
  5
22F
330
222
100
AcDbEntity
  8
Visible (ANSI)
100
AcDbVertex
100
AcDb2dVertex
 10
125.4661125548591
 20
31.81711188426719
 30
0.0
  0
VERTEX
  5
230
330
222
100
AcDbEntity
  8
Visible (ANSI)
100
AcDbVertex
100
AcDb2dVertex
 10
125.467510461977
 20
31.81561935110906
 30
0.0
  0
VERTEX
  5
231
330
222
100
AcDbEntity
  8
Visible (ANSI)
100
AcDbVertex
100
AcDb2dVertex
 10
125.4690029922019
 20
31.81422144619111
 30
0.0
  0
VERTEX
  5
232
330
222
100
AcDbEntity
  8
Visible (ANSI)
100
AcDbVertex
100
AcDb2dVertex
 10
125.4705837546074
 20
31.81292414171102
 30
0.0
  0
VERTEX
  5
233
330
222
100
AcDbEntity
  8
Visible (ANSI)
100
AcDbVertex
100
AcDb2dVertex
 10
125.4722459798719
 20
31.81173301093773
 30
0.0
  0
VERTEX
  5
234
330
222
100
AcDbEntity
  8
Visible (ANSI)
100
AcDbVertex
100
AcDb2dVertex
 10
125.4739825488776
 20
31.81065314607908
 30
0.0
  0
VERTEX
  5
235
330
222
100
AcDbEntity
  8
Visible (ANSI)
100
AcDbVertex
100
AcDb2dVertex
 10
125.4757860279103
 20
31.80968917001501
 30
0.0
  0
VERTEX
  5
236
330
222
100
AcDbEntity
  8
Visible (ANSI)
100
AcDbVertex
100
AcDb2dVertex
 10
125.477648692126
 20
31.80884520109795
 30
0.0
  0
VERTEX
  5
237
330
222
100
AcDbEntity
  8
Visible (ANSI)
100
AcDbVertex
100
AcDb2dVertex
 10
125.4795625658834
 20
31.8081248766192
 30
0.0
  0
VERTEX
  5
238
330
222
100
AcDbEntity
  8
Visible (ANSI)
100
AcDbVertex
100
AcDb2dVertex
 10
125.4815194535439
 20
31.80753125894339
 30
0.0
  0
VERTEX
  5
239
330
222
100
AcDbEntity
  8
Visible (ANSI)
100
AcDbVertex
100
AcDb2dVertex
 10
125.4835109761377
 20
31.80706689417444
 30
0.0
  0
VERTEX
  5
23A
330
222
100
AcDbEntity
  8
Visible (ANSI)
100
AcDbVertex
100
AcDb2dVertex
 10
125.4855286050966
 20
31.80673378868917
 30
0.0
  0
VERTEX
  5
23B
330
222
100
AcDbEntity
  8
Visible (ANSI)
100
AcDbVertex
100
AcDb2dVertex
 10
125.4875637018536
 20
31.80653335047131
 30
0.0
  0
VERTEX
  5
23C
330
222
100
AcDbEntity
  8
Visible (ANSI)
100
AcDbVertex
100
AcDb2dVertex
 10
125.4896075486429
 20
31.80646643604431
 30
0.0
  0
SEQEND
  5
225
330
222
100
AcDbEntity
  8
Visible (ANSI)
  0
LINE
  5
23D
330
6C
100
AcDbEntity
  8
Visible (ANSI)
100
AcDbLine
 10
125.4583575491123
 20
31.83771643792163
 30
0.0
 11
125.453232147239
 21
31.83771643792163
 31
0.0
  0
LINE
  5
23E
330
6C
100
AcDbEntity
  8
Visible (ANSI)
100
AcDbLine
 10
125.453232147239
 20
31.83771643792163
 30
0.0
 11
125.3333575491123
 21
31.83771643792163
 31
0.0
  0
LINE
  5
23F
330
6C
100
AcDbEntity
  8
Visible (ANSI)
100
AcDbLine
 10
125.4896075491123
 20
31.68146643792163
 30
0.0
 11
126.2083575491123
 21
31.68146643792163
 31
0.0
  0
LINE
  5
240
330
6C
100
AcDbEntity
  8
Visible (ANSI)
100
AcDbLine
 10
126.2083575491123
 20
31.80646643792164
 30
0.0
 11
126.2083575491123
 21
31.68146643792163
 31
0.0
  0
POLYLINE
  5
241
330
6C
100
AcDbEntity
  8
Visible (ANSI)
100
AcDb2dPolyline
 66
     1
 10
0.0
 20
0.0
 30
0.0
 70
   128
  0
VERTEX
  5
242
330
241
100
AcDbEntity
  8
Visible (ANSI)
100
AcDbVertex
100
AcDb2dVertex
 10
125.3333575509896
 20
87.52521619762573
 30
0.0
  0
VERTEX
  5
243
330
241
100
AcDbEntity
  8
Visible (ANSI)
100
AcDbVertex
100
AcDb2dVertex
 10
125.333692087925
 20
87.52283726830732
 30
0.0
  0
VERTEX
  5
245
330
241
100
AcDbEntity
  8
Visible (ANSI)
100
AcDbVertex
100
AcDb2dVertex
 10
125.3346942907475
 20
87.52045233159165
 30
0.0
  0
VERTEX
  5
246
330
241
100
AcDbEntity
  8
Visible (ANSI)
100
AcDbVertex
100
AcDb2dVertex
 10
125.3363598533734
 20
87.51807340227324
 30
0.0
  0
VERTEX
  5
247
330
241
100
AcDbEntity
  8
Visible (ANSI)
100
AcDbVertex
100
AcDb2dVertex
 10
125.3386816420186
 20
87.51569447295485
 30
0.0
  0
VERTEX
  5
248
330
241
100
AcDbEntity
  8
Visible (ANSI)
100
AcDbVertex
100
AcDb2dVertex
 10
125.3416497186644
 20
87.51331554363643
 30
0.0
  0
VERTEX
  5
249
330
241
100
AcDbEntity
  8
Visible (ANSI)
100
AcDbVertex
100
AcDb2dVertex
 10
125.3452513762578
 20
87.51093060692076
 30
0.0
  0
VERTEX
  5
24A
330
241
100
AcDbEntity
  8
Visible (ANSI)
100
AcDbVertex
100
AcDb2dVertex
 10
125.3494711856435
 20
87.50855167760233
 30
0.0
  0
VERTEX
  5
24B
330
241
100
AcDbEntity
  8
Visible (ANSI)
100
AcDbVertex
100
AcDb2dVertex
 10
125.3542910776971
 20
87.50617274828394
 30
0.0
  0
VERTEX
  5
24C
330
241
100
AcDbEntity
  8
Visible (ANSI)
100
AcDbVertex
100
AcDb2dVertex
 10
125.3596904254567
 20
87.50378781156827
 30
0.0
  0
VERTEX
  5
24D
330
241
100
AcDbEntity
  8
Visible (ANSI)
100
AcDbVertex
100
AcDb2dVertex
 10
125.3656460910563
 20
87.50140888224986
 30
0.0
  0
VERTEX
  5
24E
330
241
100
AcDbEntity
  8
Visible (ANSI)
100
AcDbVertex
100
AcDb2dVertex
 10
125.3721325782572
 20
87.49902995293146
 30
0.0
  0
VERTEX
  5
24F
330
241
100
AcDbEntity
  8
Visible (ANSI)
100
AcDbVertex
100
AcDb2dVertex
 10
125.3791221145801
 20
87.49664501621579
 30
0.0
  0
VERTEX
  5
250
330
241
100
AcDbEntity
  8
Visible (ANSI)
100
AcDbVertex
100
AcDb2dVertex
 10
125.386584762771
 20
87.49426608689738
 30
0.0
  0
VERTEX
  5
251
330
241
100
AcDbEntity
  8
Visible (ANSI)
100
AcDbVertex
100
AcDb2dVertex
 10
125.3944885733322
 20
87.49188715757899
 30
0.0
  0
VERTEX
  5
252
330
241
100
AcDbEntity
  8
Visible (ANSI)
100
AcDbVertex
100
AcDb2dVertex
 10
125.4027997018547
 20
87.4895022208633
 30
0.0
  0
VERTEX
  5
253
330
241
100
AcDbEntity
  8
Visible (ANSI)
100
AcDbVertex
100
AcDb2dVertex
 10
125.4114825498163
 20
87.48712329154489
 30
0.0
  0
VERTEX
  5
254
330
241
100
AcDbEntity
  8
Visible (ANSI)
100
AcDbVertex
100
AcDb2dVertex
 10
125.42049994058
 20
87.48474436222648
 30
0.0
  0
VERTEX
  5
255
330
241
100
AcDbEntity
  8
Visible (ANSI)
100
AcDbVertex
100
AcDb2dVertex
 10
125.429813263125
 20
87.48236543290808
 30
0.0
  0
VERTEX
  5
256
330
241
100
AcDbEntity
  8
Visible (ANSI)
100
AcDbVertex
100
AcDb2dVertex
 10
125.4393826333789
 20
87.47998049619241
 30
0.0
  0
VERTEX
  5
257
330
241
100
AcDbEntity
  8
Visible (ANSI)
100
AcDbVertex
100
AcDb2dVertex
 10
125.4491670731481
 20
87.47760156687402
 30
0.0
  0
VERTEX
  5
258
330
241
100
AcDbEntity
  8
Visible (ANSI)
100
AcDbVertex
100
AcDb2dVertex
 10
125.4591246863003
 20
87.47522263755561
 30
0.0
  0
VERTEX
  5
259
330
241
100
AcDbEntity
  8
Visible (ANSI)
100
AcDbVertex
100
AcDb2dVertex
 10
125.4692128316445
 20
87.47283770083992
 30
0.0
  0
VERTEX
  5
25A
330
241
100
AcDbEntity
  8
Visible (ANSI)
100
AcDbVertex
100
AcDb2dVertex
 10
125.4793883102965
 20
87.47045877152151
 30
0.0
  0
VERTEX
  5
25B
330
241
100
AcDbEntity
  8
Visible (ANSI)
100
AcDbVertex
100
AcDb2dVertex
 10
125.489607548643
 20
87.46807984220311
 30
0.0
  0
SEQEND
  5
244
330
241
100
AcDbEntity
  8
Visible (ANSI)
  0
POLYLINE
  5
25C
330
6C
100
AcDbEntity
  8
Visible (ANSI)
100
AcDb2dPolyline
 66
     1
 10
0.0
 20
0.0
 30
0.0
 70
   128
  0
VERTEX
  5
25D
330
25C
100
AcDbEntity
  8
Visible (ANSI)
100
AcDbVertex
100
AcDb2dVertex
 10
125.489607548643
 20
31.89485477390802
 30
0.0
  0
VERTEX
  5
25E
330
25C
100
AcDbEntity
  8
Visible (ANSI)
100
AcDbVertex
100
AcDb2dVertex
 10
125.4793883102965
 20
31.89247401421076
 30
0.0
  0
VERTEX
  5
260
330
25C
100
AcDbEntity
  8
Visible (ANSI)
100
AcDbVertex
100
AcDb2dVertex
 10
125.4692128316445
 20
31.89009325451351
 30
0.0
  0
VERTEX
  5
261
330
25C
100
AcDbEntity
  8
Visible (ANSI)
100
AcDbVertex
100
AcDb2dVertex
 10
125.4591246863003
 20
31.88771249481624
 30
0.0
  0
VERTEX
  5
262
330
25C
100
AcDbEntity
  8
Visible (ANSI)
100
AcDbVertex
100
AcDb2dVertex
 10
125.4491670731481
 20
31.88533173511898
 30
0.0
  0
VERTEX
  5
263
330
25C
100
AcDbEntity
  8
Visible (ANSI)
100
AcDbVertex
100
AcDb2dVertex
 10
125.4393826333789
 20
31.88295095195532
 30
0.0
  0
VERTEX
  5
264
330
25C
100
AcDbEntity
  8
Visible (ANSI)
100
AcDbVertex
100
AcDb2dVertex
 10
125.429813263125
 20
31.88057019225806
 30
0.0
  0
VERTEX
  5
265
330
25C
100
AcDbEntity
  8
Visible (ANSI)
100
AcDbVertex
100
AcDb2dVertex
 10
125.42049994058
 20
31.87818943256081
 30
0.0
  0
VERTEX
  5
266
330
25C
100
AcDbEntity
  8
Visible (ANSI)
100
AcDbVertex
100
AcDb2dVertex
 10
125.4114825498163
 20
31.87580867286354
 30
0.0
  0
VERTEX
  5
267
330
25C
100
AcDbEntity
  8
Visible (ANSI)
100
AcDbVertex
100
AcDb2dVertex
 10
125.4027997018547
 20
31.87342790143308
 30
0.0
  0
VERTEX
  5
268
330
25C
100
AcDbEntity
  8
Visible (ANSI)
100
AcDbVertex
100
AcDb2dVertex
 10
125.3944885733322
 20
31.87104714173582
 30
0.0
  0
VERTEX
  5
269
330
25C
100
AcDbEntity
  8
Visible (ANSI)
100
AcDbVertex
100
AcDb2dVertex
 10
125.386584762771
 20
31.86866638203856
 30
0.0
  0
VERTEX
  5
26A
330
25C
100
AcDbEntity
  8
Visible (ANSI)
100
AcDbVertex
100
AcDb2dVertex
 10
125.3791221145801
 20
31.86628561060811
 30
0.0
  0
VERTEX
  5
26B
330
25C
100
AcDbEntity
  8
Visible (ANSI)
100
AcDbVertex
100
AcDb2dVertex
 10
125.3721325782572
 20
31.86390485091084
 30
0.0
  0
VERTEX
  5
26C
330
25C
100
AcDbEntity
  8
Visible (ANSI)
100
AcDbVertex
100
AcDb2dVertex
 10
125.3656460910563
 20
31.86152407948038
 30
0.0
  0
VERTEX
  5
26D
330
25C
100
AcDbEntity
  8
Visible (ANSI)
100
AcDbVertex
100
AcDb2dVertex
 10
125.3596904254567
 20
31.85914331978312
 30
0.0
  0
VERTEX
  5
26E
330
25C
100
AcDbEntity
  8
Visible (ANSI)
100
AcDbVertex
100
AcDb2dVertex
 10
125.3542910776971
 20
31.85676254835267
 30
0.0
  0
VERTEX
  5
26F
330
25C
100
AcDbEntity
  8
Visible (ANSI)
100
AcDbVertex
100
AcDb2dVertex
 10
125.3494711856435
 20
31.85438178865541
 30
0.0
  0
VERTEX
  5
270
330
25C
100
AcDbEntity
  8
Visible (ANSI)
100
AcDbVertex
100
AcDb2dVertex
 10
125.3452513762578
 20
31.85200102895815
 30
0.0
  0
VERTEX
  5
271
330
25C
100
AcDbEntity
  8
Visible (ANSI)
100
AcDbVertex
100
AcDb2dVertex
 10
125.3416497186644
 20
31.84962025752768
 30
0.0
  0
VERTEX
  5
272
330
25C
100
AcDbEntity
  8
Visible (ANSI)
100
AcDbVertex
100
AcDb2dVertex
 10
125.3386816420186
 20
31.84723949783042
 30
0.0
  0
VERTEX
  5
273
330
25C
100
AcDbEntity
  8
Visible (ANSI)
100
AcDbVertex
100
AcDb2dVertex
 10
125.3363598533734
 20
31.84485872639997
 30
0.0
  0
VERTEX
  5
274
330
25C
100
AcDbEntity
  8
Visible (ANSI)
100
AcDbVertex
100
AcDb2dVertex
 10
125.3346942907475
 20
31.84247796670271
 30
0.0
  0
VERTEX
  5
275
330
25C
100
AcDbEntity
  8
Visible (ANSI)
100
AcDbVertex
100
AcDb2dVertex
 10
125.333692087925
 20
31.84009720700544
 30
0.0
  0
VERTEX
  5
276
330
25C
100
AcDbEntity
  8
Visible (ANSI)
100
AcDbVertex
100
AcDb2dVertex
 10
125.3333575509896
 20
31.83771643557498
 30
0.0
  0
SEQEND
  5
25F
330
25C
100
AcDbEntity
  8
Visible (ANSI)
  0
LINE
  5
277
330
6C
100
AcDbEntity
  8
Visible (ANSI)
100
AcDbLine
 10
126.2083575491123
 20
31.89485478556996
 30
0.0
 11
125.4896075491123
 21
31.89485478556996
 31
0.0
  0
POLYLINE
  5
278
330
6C
100
AcDbEntity
  8
Visible (ANSI)
100
AcDb2dPolyline
 66
     1
 10
0.0
 20
0.0
 30
0.0
 70
   128
  0
VERTEX
  5
279
330
278
100
AcDbEntity
  8
Visible (ANSI)
100
AcDbVertex
100
AcDb2dVertex
 10
125.4583575491123
 20
31.83771643557498
 30
0.0
  0
VERTEX
  5
27A
330
278
100
AcDbEntity
  8
Visible (ANSI)
100
AcDbVertex
100
AcDb2dVertex
 10
125.4584244577586
 20
31.84009720700544
 30
0.0
  0
VERTEX
  5
27C
330
278
100
AcDbEntity
  8
Visible (ANSI)
100
AcDbVertex
100
AcDb2dVertex
 10
125.4586248971968
 20
31.84247796670271
 30
0.0
  0
VERTEX
  5
27D
330
278
100
AcDbEntity
  8
Visible (ANSI)
100
AcDbVertex
100
AcDb2dVertex
 10
125.4589580091215
 20
31.84485872639997
 30
0.0
  0
VERTEX
  5
27E
330
278
100
AcDbEntity
  8
Visible (ANSI)
100
AcDbVertex
100
AcDb2dVertex
 10
125.4594223670614
 20
31.84723949783042
 30
0.0
  0
VERTEX
  5
27F
330
278
100
AcDbEntity
  8
Visible (ANSI)
100
AcDbVertex
100
AcDb2dVertex
 10
125.4600159825372
 20
31.84962025752768
 30
0.0
  0
VERTEX
  5
280
330
278
100
AcDbEntity
  8
Visible (ANSI)
100
AcDbVertex
100
AcDb2dVertex
 10
125.4607363137993
 20
31.85200102895815
 30
0.0
  0
VERTEX
  5
281
330
278
100
AcDbEntity
  8
Visible (ANSI)
100
AcDbVertex
100
AcDb2dVertex
 10
125.4615802761164
 20
31.85438178865541
 30
0.0
  0
VERTEX
  5
282
330
278
100
AcDbEntity
  8
Visible (ANSI)
100
AcDbVertex
100
AcDb2dVertex
 10
125.4625442551138
 20
31.85676254835267
 30
0.0
  0
VERTEX
  5
283
330
278
100
AcDbEntity
  8
Visible (ANSI)
100
AcDbVertex
100
AcDb2dVertex
 10
125.463624123639
 20
31.85914331978312
 30
0.0
  0
VERTEX
  5
284
330
278
100
AcDbEntity
  8
Visible (ANSI)
100
AcDbVertex
100
AcDb2dVertex
 10
125.464815256979
 20
31.86152407948038
 30
0.0
  0
VERTEX
  5
285
330
278
100
AcDbEntity
  8
Visible (ANSI)
100
AcDbVertex
100
AcDb2dVertex
 10
125.4661125548591
 20
31.86390485091084
 30
0.0
  0
VERTEX
  5
286
330
278
100
AcDbEntity
  8
Visible (ANSI)
100
AcDbVertex
100
AcDb2dVertex
 10
125.4675104619771
 20
31.86628561060811
 30
0.0
  0
VERTEX
  5
287
330
278
100
AcDbEntity
  8
Visible (ANSI)
100
AcDbVertex
100
AcDb2dVertex
 10
125.4690029922019
 20
31.86866638203856
 30
0.0
  0
VERTEX
  5
288
330
278
100
AcDbEntity
  8
Visible (ANSI)
100
AcDbVertex
100
AcDb2dVertex
 10
125.4705837546074
 20
31.87104714173582
 30
0.0
  0
VERTEX
  5
289
330
278
100
AcDbEntity
  8
Visible (ANSI)
100
AcDbVertex
100
AcDb2dVertex
 10
125.4722459798719
 20
31.87342790143308
 30
0.0
  0
VERTEX
  5
28A
330
278
100
AcDbEntity
  8
Visible (ANSI)
100
AcDbVertex
100
AcDb2dVertex
 10
125.4739825488776
 20
31.87580867286354
 30
0.0
  0
VERTEX
  5
28B
330
278
100
AcDbEntity
  8
Visible (ANSI)
100
AcDbVertex
100
AcDb2dVertex
 10
125.4757860279104
 20
31.87818943256081
 30
0.0
  0
VERTEX
  5
28C
330
278
100
AcDbEntity
  8
Visible (ANSI)
100
AcDbVertex
100
AcDb2dVertex
 10
125.477648692126
 20
31.88057019225806
 30
0.0
  0
VERTEX
  5
28D
330
278
100
AcDbEntity
  8
Visible (ANSI)
100
AcDbVertex
100
AcDb2dVertex
 10
125.4795625658835
 20
31.88295095195532
 30
0.0
  0
VERTEX
  5
28E
330
278
100
AcDbEntity
  8
Visible (ANSI)
100
AcDbVertex
100
AcDb2dVertex
 10
125.481519453544
 20
31.88533173511898
 30
0.0
  0
VERTEX
  5
28F
330
278
100
AcDbEntity
  8
Visible (ANSI)
100
AcDbVertex
100
AcDb2dVertex
 10
125.4835109761378
 20
31.88771249481624
 30
0.0
  0
VERTEX
  5
290
330
278
100
AcDbEntity
  8
Visible (ANSI)
100
AcDbVertex
100
AcDb2dVertex
 10
125.4855286050966
 20
31.89009325451351
 30
0.0
  0
VERTEX
  5
291
330
278
100
AcDbEntity
  8
Visible (ANSI)
100
AcDbVertex
100
AcDb2dVertex
 10
125.4875637018537
 20
31.89247401421076
 30
0.0
  0
VERTEX
  5
292
330
278
100
AcDbEntity
  8
Visible (ANSI)
100
AcDbVertex
100
AcDb2dVertex
 10
125.489607548643
 20
31.89485477390802
 30
0.0
  0
SEQEND
  5
27B
330
278
100
AcDbEntity
  8
Visible (ANSI)
  0
POLYLINE
  5
293
330
6C
100
AcDbEntity
  8
Visible (ANSI)
100
AcDb2dPolyline
 66
     1
 10
0.0
 20
0.0
 30
0.0
 70
   128
  0
VERTEX
  5
294
330
293
100
AcDbEntity
  8
Visible (ANSI)
100
AcDbVertex
100
AcDb2dVertex
 10
125.4583575491123
 20
87.52521619762573
 30
0.0
  0
VERTEX
  5
295
330
293
100
AcDbEntity
  8
Visible (ANSI)
100
AcDbVertex
100
AcDb2dVertex
 10
125.4584244577586
 20
87.52283726830732
 30
0.0
  0
VERTEX
  5
297
330
293
100
AcDbEntity
  8
Visible (ANSI)
100
AcDbVertex
100
AcDb2dVertex
 10
125.4586248971968
 20
87.52045233159165
 30
0.0
  0
VERTEX
  5
298
330
293
100
AcDbEntity
  8
Visible (ANSI)
100
AcDbVertex
100
AcDb2dVertex
 10
125.4589580091215
 20
87.51807340227324
 30
0.0
  0
VERTEX
  5
299
330
293
100
AcDbEntity
  8
Visible (ANSI)
100
AcDbVertex
100
AcDb2dVertex
 10
125.4594223670614
 20
87.51569447295485
 30
0.0
  0
VERTEX
  5
29A
330
293
100
AcDbEntity
  8
Visible (ANSI)
100
AcDbVertex
100
AcDb2dVertex
 10
125.4600159825372
 20
87.51331554363643
 30
0.0
  0
VERTEX
  5
29B
330
293
100
AcDbEntity
  8
Visible (ANSI)
100
AcDbVertex
100
AcDb2dVertex
 10
125.4607363137993
 20
87.51093060692076
 30
0.0
  0
VERTEX
  5
29C
330
293
100
AcDbEntity
  8
Visible (ANSI)
100
AcDbVertex
100
AcDb2dVertex
 10
125.4615802761164
 20
87.50855167760233
 30
0.0
  0
VERTEX
  5
29D
330
293
100
AcDbEntity
  8
Visible (ANSI)
100
AcDbVertex
100
AcDb2dVertex
 10
125.4625442551138
 20
87.50617274828394
 30
0.0
  0
VERTEX
  5
29E
330
293
100
AcDbEntity
  8
Visible (ANSI)
100
AcDbVertex
100
AcDb2dVertex
 10
125.463624123639
 20
87.50378781156827
 30
0.0
  0
VERTEX
  5
29F
330
293
100
AcDbEntity
  8
Visible (ANSI)
100
AcDbVertex
100
AcDb2dVertex
 10
125.464815256979
 20
87.50140888224986
 30
0.0
  0
VERTEX
  5
2A0
330
293
100
AcDbEntity
  8
Visible (ANSI)
100
AcDbVertex
100
AcDb2dVertex
 10
125.4661125548591
 20
87.49902995293146
 30
0.0
  0
VERTEX
  5
2A1
330
293
100
AcDbEntity
  8
Visible (ANSI)
100
AcDbVertex
100
AcDb2dVertex
 10
125.4675104619771
 20
87.49664501621579
 30
0.0
  0
VERTEX
  5
2A2
330
293
100
AcDbEntity
  8
Visible (ANSI)
100
AcDbVertex
100
AcDb2dVertex
 10
125.4690029922019
 20
87.49426608689738
 30
0.0
  0
VERTEX
  5
2A3
330
293
100
AcDbEntity
  8
Visible (ANSI)
100
AcDbVertex
100
AcDb2dVertex
 10
125.4705837546074
 20
87.49188715757899
 30
0.0
  0
VERTEX
  5
2A4
330
293
100
AcDbEntity
  8
Visible (ANSI)
100
AcDbVertex
100
AcDb2dVertex
 10
125.4722459798719
 20
87.4895022208633
 30
0.0
  0
VERTEX
  5
2A5
330
293
100
AcDbEntity
  8
Visible (ANSI)
100
AcDbVertex
100
AcDb2dVertex
 10
125.4739825488776
 20
87.48712329154489
 30
0.0
  0
VERTEX
  5
2A6
330
293
100
AcDbEntity
  8
Visible (ANSI)
100
AcDbVertex
100
AcDb2dVertex
 10
125.4757860279104
 20
87.48474436222648
 30
0.0
  0
VERTEX
  5
2A7
330
293
100
AcDbEntity
  8
Visible (ANSI)
100
AcDbVertex
100
AcDb2dVertex
 10
125.477648692126
 20
87.48236543290808
 30
0.0
  0
VERTEX
  5
2A8
330
293
100
AcDbEntity
  8
Visible (ANSI)
100
AcDbVertex
100
AcDb2dVertex
 10
125.4795625658835
 20
87.47998049619241
 30
0.0
  0
VERTEX
  5
2A9
330
293
100
AcDbEntity
  8
Visible (ANSI)
100
AcDbVertex
100
AcDb2dVertex
 10
125.481519453544
 20
87.47760156687402
 30
0.0
  0
VERTEX
  5
2AA
330
293
100
AcDbEntity
  8
Visible (ANSI)
100
AcDbVertex
100
AcDb2dVertex
 10
125.4835109761378
 20
87.47522263755561
 30
0.0
  0
VERTEX
  5
2AB
330
293
100
AcDbEntity
  8
Visible (ANSI)
100
AcDbVertex
100
AcDb2dVertex
 10
125.4855286050966
 20
87.47283770083992
 30
0.0
  0
VERTEX
  5
2AC
330
293
100
AcDbEntity
  8
Visible (ANSI)
100
AcDbVertex
100
AcDb2dVertex
 10
125.4875637018537
 20
87.47045877152151
 30
0.0
  0
VERTEX
  5
2AD
330
293
100
AcDbEntity
  8
Visible (ANSI)
100
AcDbVertex
100
AcDb2dVertex
 10
125.489607548643
 20
87.46807984220311
 30
0.0
  0
SEQEND
  5
296
330
293
100
AcDbEntity
  8
Visible (ANSI)
  0
LINE
  5
2AE
330
6C
100
AcDbEntity
  8
Visible (ANSI)
100
AcDbLine
 10
125.4583575491123
 20
87.52521643792162
 30
0.0
 11
125.453232147239
 21
87.52521643792162
 31
0.0
  0
LINE
  5
2AF
330
6C
100
AcDbEntity
  8
Visible (ANSI)
100
AcDbLine
 10
125.453232147239
 20
87.52521643792162
 30
0.0
 11
125.3333575491123
 21
87.52521643792162
 31
0.0
  0
LINE
  5
2B0
330
6C
100
AcDbEntity
  8
Visible (ANSI)
100
AcDbLine
 10
125.4896075491123
 20
87.4680780902733
 30
0.0
 11
126.2083575491123
 21
87.4680780902733
 31
0.0
  0
POLYLINE
  5
2B1
330
6C
100
AcDbEntity
  8
Visible (ANSI)
100
AcDb2dPolyline
 66
     1
 10
0.0
 20
0.0
 30
0.0
 70
   128
  0
VERTEX
  5
2B2
330
2B1
100
AcDbEntity
  8
Visible (ANSI)
100
AcDbVertex
100
AcDb2dVertex
 10
125.4896075486429
 20
87.68146860058463
 30
0.0
  0
VERTEX
  5
2B3
330
2B1
100
AcDbEntity
  8
Visible (ANSI)
100
AcDbVertex
100
AcDb2dVertex
 10
125.4793883102965
 20
87.68113218633759
 30
0.0
  0
VERTEX
  5
2B5
330
2B1
100
AcDbEntity
  8
Visible (ANSI)
100
AcDbVertex
100
AcDb2dVertex
 10
125.4692128316444
 20
87.68012895099372
 30
0.0
  0
VERTEX
  5
2B6
330
2B1
100
AcDbEntity
  8
Visible (ANSI)
100
AcDbVertex
100
AcDb2dVertex
 10
125.4591246863002
 20
87.67846490195028
 30
0.0
  0
VERTEX
  5
2B7
330
2B1
100
AcDbEntity
  8
Visible (ANSI)
100
AcDbVertex
100
AcDb2dVertex
 10
125.4491670731481
 20
87.6761400392073
 30
0.0
  0
VERTEX
  5
2B8
330
2B1
100
AcDbEntity
  8
Visible (ANSI)
100
AcDbVertex
100
AcDb2dVertex
 10
125.4393826333788
 20
87.67317238495655
 30
0.0
  0
VERTEX
  5
2B9
330
2B1
100
AcDbEntity
  8
Visible (ANSI)
100
AcDbVertex
100
AcDb2dVertex
 10
125.429813263125
 20
87.66957395399261
 30
0.0
  0
VERTEX
  5
2BA
330
2B1
100
AcDbEntity
  8
Visible (ANSI)
100
AcDbVertex
100
AcDb2dVertex
 10
125.4204999405799
 20
87.66535075371271
 30
0.0
  0
VERTEX
  5
2BB
330
2B1
100
AcDbEntity
  8
Visible (ANSI)
100
AcDbVertex
100
AcDb2dVertex
 10
125.4114825498163
 20
87.66053282110322
 30
0.0
  0
VERTEX
  5
2BC
330
2B1
100
AcDbEntity
  8
Visible (ANSI)
100
AcDbVertex
100
AcDb2dVertex
 10
125.4027997018546
 20
87.65513217095865
 30
0.0
  0
VERTEX
  5
2BD
330
2B1
100
AcDbEntity
  8
Visible (ANSI)
100
AcDbVertex
100
AcDb2dVertex
 10
125.3944885733321
 20
87.64917884026537
 30
0.0
  0
VERTEX
  5
2BE
330
2B1
100
AcDbEntity
  8
Visible (ANSI)
100
AcDbVertex
100
AcDb2dVertex
 10
125.386584762771
 20
87.64269085121517
 30
0.0
  0
VERTEX
  5
2BF
330
2B1
100
AcDbEntity
  8
Visible (ANSI)
100
AcDbVertex
100
AcDb2dVertex
 10
125.3791221145801
 20
87.63570424819167
 30
0.0
  0
VERTEX
  5
2C0
330
2B1
100
AcDbEntity
  8
Visible (ANSI)
100
AcDbVertex
100
AcDb2dVertex
 10
125.3721325782572
 20
87.62823705338668
 30
0.0
  0
VERTEX
  5
2C1
330
2B1
100
AcDbEntity
  8
Visible (ANSI)
100
AcDbVertex
100
AcDb2dVertex
 10
125.3656460910563
 20
87.62033732597833
 30
0.0
  0
VERTEX
  5
2C2
330
2B1
100
AcDbEntity
  8
Visible (ANSI)
100
AcDbVertex
100
AcDb2dVertex
 10
125.3596904254566
 20
87.61202308815846
 30
0.0
  0
VERTEX
  5
2C3
330
2B1
100
AcDbEntity
  8
Visible (ANSI)
100
AcDbVertex
100
AcDb2dVertex
 10
125.354291077697
 20
87.60334239910518
 30
0.0
  0
VERTEX
  5
2C4
330
2B1
100
AcDbEntity
  8
Visible (ANSI)
100
AcDbVertex
100
AcDb2dVertex
 10
125.3494711856435
 20
87.59432529580484
 30
0.0
  0
VERTEX
  5
2C5
330
2B1
100
AcDbEntity
  8
Visible (ANSI)
100
AcDbVertex
100
AcDb2dVertex
 10
125.3452513762578
 20
87.5850078226411
 30
0.0
  0
VERTEX
  5
2C6
330
2B1
100
AcDbEntity
  8
Visible (ANSI)
100
AcDbVertex
100
AcDb2dVertex
 10
125.3416497186644
 20
87.57544404618933
 30
0.0
  0
VERTEX
  5
2C7
330
2B1
100
AcDbEntity
  8
Visible (ANSI)
100
AcDbVertex
100
AcDb2dVertex
 10
125.3386816420186
 20
87.56565799603862
 30
0.0
  0
VERTEX
  5
2C8
330
2B1
100
AcDbEntity
  8
Visible (ANSI)
100
AcDbVertex
100
AcDb2dVertex
 10
125.3363598533734
 20
87.55569773136711
 30
0.0
  0
VERTEX
  5
2C9
330
2B1
100
AcDbEntity
  8
Visible (ANSI)
100
AcDbVertex
100
AcDb2dVertex
 10
125.3346942907475
 20
87.54561131135297
 30
0.0
  0
VERTEX
  5
2CA
330
2B1
100
AcDbEntity
  8
Visible (ANSI)
100
AcDbVertex
100
AcDb2dVertex
 10
125.333692087925
 20
87.53543478037979
 30
0.0
  0
VERTEX
  5
2CB
330
2B1
100
AcDbEntity
  8
Visible (ANSI)
100
AcDbVertex
100
AcDb2dVertex
 10
125.3333575509896
 20
87.52521619762573
 30
0.0
  0
SEQEND
  5
2B4
330
2B1
100
AcDbEntity
  8
Visible (ANSI)
  0
LINE
  5
2CC
330
6C
100
AcDbEntity
  8
Visible (ANSI)
100
AcDbLine
 10
125.4896075491123
 20
87.55646643792164
 30
0.0
 11
126.2083575491123
 21
87.55646643792159
 31
0.0
  0
LINE
  5
2CD
330
6C
100
AcDbEntity
  8
Visible (ANSI)
100
AcDbLine
 10
126.2083575491123
 20
87.68146643792158
 30
0.0
 11
125.4896075491123
 21
87.68146643792162
 31
0.0
  0
LINE
  5
2CE
330
6C
100
AcDbEntity
  8
Visible (ANSI)
100
AcDbLine
 10
125.4896075491123
 20
87.55646643792164
 30
0.0
 11
125.4896075491123
 21
87.68146643792162
 31
0.0
  0
LINE
  5
2CF
330
6C
100
AcDbEntity
  8
Visible (ANSI)
100
AcDbLine
 10
126.2083575491123
 20
87.55646643792159
 30
0.0
 11
126.2083575491123
 21
87.68146643792158
 31
0.0
  0
POLYLINE
  5
2D0
330
6C
100
AcDbEntity
  8
Visible (ANSI)
100
AcDb2dPolyline
 66
     1
 10
0.0
 20
0.0
 30
0.0
 70
   128
  0
VERTEX
  5
2D1
330
2D0
100
AcDbEntity
  8
Visible (ANSI)
100
AcDbVertex
100
AcDb2dVertex
 10
125.4583575491123
 20
87.52521619762573
 30
0.0
  0
VERTEX
  5
2D2
330
2D0
100
AcDbEntity
  8
Visible (ANSI)
100
AcDbVertex
100
AcDb2dVertex
 10
125.4584244577586
 20
87.52725871269708
 30
0.0
  0
VERTEX
  5
2D4
330
2D0
100
AcDbEntity
  8
Visible (ANSI)
100
AcDbVertex
100
AcDb2dVertex
 10
125.4586248971968
 20
87.52929522037119
 30
0.0
  0
VERTEX
  5
2D5
330
2D0
100
AcDbEntity
  8
Visible (ANSI)
100
AcDbVertex
100
AcDb2dVertex
 10
125.4589580091215
 20
87.53131370585347
 30
0.0
  0
VERTEX
  5
2D6
330
2D0
100
AcDbEntity
  8
Visible (ANSI)
100
AcDbVertex
100
AcDb2dVertex
 10
125.4594223670614
 20
87.53330215434939
 30
0.0
  0
VERTEX
  5
2D7
330
2D0
100
AcDbEntity
  8
Visible (ANSI)
100
AcDbVertex
100
AcDb2dVertex
 10
125.4600159825372
 20
87.53526056585899
 30
0.0
  0
VERTEX
  5
2D8
330
2D0
100
AcDbEntity
  8
Visible (ANSI)
100
AcDbVertex
100
AcDb2dVertex
 10
125.4607363137993
 20
87.53717692558771
 30
0.0
  0
VERTEX
  5
2D9
330
2D0
100
AcDbEntity
  8
Visible (ANSI)
100
AcDbVertex
100
AcDb2dVertex
 10
125.4615802761164
 20
87.53903921874101
 30
0.0
  0
VERTEX
  5
2DA
330
2D0
100
AcDbEntity
  8
Visible (ANSI)
100
AcDbVertex
100
AcDb2dVertex
 10
125.4625442551138
 20
87.54084143792161
 30
0.0
  0
VERTEX
  5
2DB
330
2D0
100
AcDbEntity
  8
Visible (ANSI)
100
AcDbVertex
100
AcDb2dVertex
 10
125.463624123639
 20
87.54257757573226
 30
0.0
  0
VERTEX
  5
2DC
330
2D0
100
AcDbEntity
  8
Visible (ANSI)
100
AcDbVertex
100
AcDb2dVertex
 10
125.4648152569789
 20
87.54424162477571
 30
0.0
  0
VERTEX
  5
2DD
330
2D0
100
AcDbEntity
  8
Visible (ANSI)
100
AcDbVertex
100
AcDb2dVertex
 10
125.4661125548591
 20
87.54582157025735
 30
0.0
  0
VERTEX
  5
2DE
330
2D0
100
AcDbEntity
  8
Visible (ANSI)
100
AcDbVertex
100
AcDb2dVertex
 10
125.467510461977
 20
87.54731140478
 30
0.0
  0
VERTEX
  5
2DF
330
2D0
100
AcDbEntity
  8
Visible (ANSI)
100
AcDbVertex
100
AcDb2dVertex
 10
125.4690029922019
 20
87.54871112834361
 30
0.0
  0
VERTEX
  5
2E0
330
2D0
100
AcDbEntity
  8
Visible (ANSI)
100
AcDbVertex
100
AcDb2dVertex
 10
125.4705837546074
 20
87.55000872615367
 30
0.0
  0
VERTEX
  5
2E1
330
2D0
100
AcDbEntity
  8
Visible (ANSI)
100
AcDbVertex
100
AcDb2dVertex
 10
125.4722459798719
 20
87.55119819081286
 30
0.0
  0
VERTEX
  5
2E2
330
2D0
100
AcDbEntity
  8
Visible (ANSI)
100
AcDbVertex
100
AcDb2dVertex
 10
125.4739825488776
 20
87.55227952232123
 30
0.0
  0
VERTEX
  5
2E3
330
2D0
100
AcDbEntity
  8
Visible (ANSI)
100
AcDbVertex
100
AcDb2dVertex
 10
125.4757860279103
 20
87.5532467132815
 30
0.0
  0
VERTEX
  5
2E4
330
2D0
100
AcDbEntity
  8
Visible (ANSI)
100
AcDbVertex
100
AcDb2dVertex
 10
125.477648692126
 20
87.55408774889911
 30
0.0
  0
VERTEX
  5
2E5
330
2D0
100
AcDbEntity
  8
Visible (ANSI)
100
AcDbVertex
100
AcDb2dVertex
 10
125.4795625658834
 20
87.55480863657133
 30
0.0
  0
VERTEX
  5
2E6
330
2D0
100
AcDbEntity
  8
Visible (ANSI)
100
AcDbVertex
100
AcDb2dVertex
 10
125.4815194535439
 20
87.55540336890094
 30
0.0
  0
VERTEX
  5
2E7
330
2D0
100
AcDbEntity
  8
Visible (ANSI)
100
AcDbVertex
100
AcDb2dVertex
 10
125.4835109761377
 20
87.55586593849065
 30
0.0
  0
VERTEX
  5
2E8
330
2D0
100
AcDbEntity
  8
Visible (ANSI)
100
AcDbVertex
100
AcDb2dVertex
 10
125.4855286050966
 20
87.5561963453404
 30
0.0
  0
VERTEX
  5
2E9
330
2D0
100
AcDbEntity
  8
Visible (ANSI)
100
AcDbVertex
100
AcDb2dVertex
 10
125.4875637018536
 20
87.55640059684756
 30
0.0
  0
VERTEX
  5
2EA
330
2D0
100
AcDbEntity
  8
Visible (ANSI)
100
AcDbVertex
100
AcDb2dVertex
 10
125.4896075486429
 20
87.55646667821752
 30
0.0
  0
SEQEND
  5
2D3
330
2D0
100
AcDbEntity
  8
Visible (ANSI)
  0
LINE
  5
2EB
330
6C
100
AcDbEntity
  8
Visible (ANSI)
100
AcDbLine
 10
125.3333575491123
 20
31.83771643792163
 30
0.0
 11
125.3333575491123
 21
87.52521643792162
 31
0.0
  0
LINE
  5
2EC
330
6C
100
AcDbEntity
  8
Visible (ANSI)
100
AcDbLine
 10
126.2083575491123
 20
87.4680780902733
 30
0.0
 11
126.2083575491123
 21
31.89485478556996
 31
0.0
  0
MTEXT
  5
2ED
330
6C
100
AcDbEntity
  8
Symbol (ANSI)
100
AcDbMText
 10
121.6252994834435
 20
23.67188823085093
 30
0.0
 40
1.320000016313838
 41
0.0
 46
0.0
 71
     7
 72
     1
  1
SIDE VIEW
  7
Text Style154
 73
     1
 44
1.0
  0
LINE
  5
2EE
330
6C
100
AcDbEntity
  8
Symbol (ANSI)
370
    30
100
AcDbLine
 10
121.5577153095927
 20
23.39842145303915
 30
0.0
 11
130.4778773340532
 21
23.39842145303915
 31
0.0
  0
DIMENSION
  5
2EF
330
6C
100
AcDbEntity
  8
Dimension (ANSI)
100
AcDbDimension
280
     0
  2
*D4
 10
24.54436477816363
 20
87.68146643792164
 30
0.0
 11
24.54436477816361
 21
59.68146643792162
 31
0.0
 70
   160
  1
<>
 42
56.00000000000001
 73
     0
 74
     0
 75
     0
  3
Default (ANSI)
100
AcDbAlignedDimension
 13
45.40876169249451
 23
31.68146643792163
 33
0.0
 14
45.40876169249451
 24
87.68146643792162
 34
0.0
 50
90.0
100
AcDbRotatedDimension
1001
ACAD
1000
DSTYLE
1002
{
1070
   289
1070
     1
1070
   271
1070
     2
1070
   272
1070
     2
1070
    48
1040
0.0
1070
    47
1040
0.0
1002
}
  0
DIMENSION
  5
3DB
330
6C
100
AcDbEntity
  8
Dimension (ANSI)
100
AcDbDimension
280
     0
  2
*D5
 10
39.13788556340025
 20
59.68146643792162
 30
0.0
 11
39.13788556340024
 21
46.21197863434804
 31
0.0
 70
   160
  1
<>
 42
27.12499999999999
 73
     0
 74
     0
 75
     0
  3
Default (ANSI)
100
AcDbAlignedDimension
 13
46.07037334484619
 23
32.55646643792164
 33
0.0
 14
45.1953733448462
 24
59.68146643792162
 34
0.0
 50
90.0
100
AcDbRotatedDimension
1001
ACAD
1000
DSTYLE
1002
{
1070
   289
1070
     1
1070
   271
1070
     2
1070
   272
1070
     3
1070
    48
1040
0.0
1070
    47
1040
0.0
1002
}
  0
DIMENSION
  5
4C5
330
6C
100
AcDbEntity
  8
Dimension (ANSI)
100
AcDbDimension
280
     0
  2
*D6
 10
31.83617021187801
 20
86.80646643792165
 30
0.0
 11
31.836170211878
 21
59.68146643792163
 31
0.0
 70
   160
  1
<>
 42
54.25000000000001
 73
     0
 74
     0
 75
     0
  3
Default (ANSI)
100
AcDbAlignedDimension
 13
46.07037334484619
 23
32.55646643792164
 33
0.0
 14
46.07037334484619
 24
86.80646643792163
 34
0.0
 50
90.0
100
AcDbRotatedDimension
1001
ACAD
1000
DSTYLE
1002
{
1070
   289
1070
     1
1070
   271
1070
     2
1070
   272
1070
     3
1070
    48
1040
0.0
1070
    47
1040
0.0
1002
}
  0
DIMENSION
  5
5AF
330
6C
100
AcDbEntity
  8
Dimension (ANSI)
100
AcDbDimension
280
     0
  2
*D7
 10
89.19537334484617
 20
101.1720281628388
 30
0.0
 11
67.19537334484617
 21
101.1720281628388
 31
0.0
 70
   160
  1
<>
 42
43.99999999999997
 73
     0
 74
     0
 75
     0
  3
Default (ANSI)
100
AcDbAlignedDimension
 13
45.1953733448462
 23
87.4680780902733
 33
0.0
 14
89.19537334484617
 24
87.4680780902733
 34
0.0
100
AcDbRotatedDimension
1001
ACAD
1000
DSTYLE
1002
{
1070
   289
1070
     1
1070
    73
1070
     0
1070
    74
1070
     0
1070
   271
1070
     2
1070
   272
1070
     2
1070
    48
1040
0.0
1070
    47
1040
0.0
1002
}
  0
DIMENSION
  5
699
330
6C
100
AcDbEntity
  8
Dimension (ANSI)
100
AcDbDimension
280
     0
  2
*D8
 10
88.32037334484617
 20
95.35415178387784
 30
0.0
 11
67.19537334484619
 21
95.35415178387784
 31
0.0
 70
   160
  1
<>
 42
42.24999999999997
 73
     0
 74
     0
 75
     0
  3
Default (ANSI)
100
AcDbAlignedDimension
 13
46.07037334484619
 23
86.80646643792163
 33
0.0
 14
88.32037334484617
 24
86.80646643792163
 34
0.0
 50
180.0
100
AcDbRotatedDimension
1001
ACAD
1000
DSTYLE
1002
{
1070
   289
1070
     1
1070
    73
1070
     0
1070
    74
1070
     0
1070
   271
1070
     2
1070
   272
1070
     3
1070
    48
1040
0.0
1070
    47
1040
0.0
1002
}
  0
DIMENSION
  5
783
330
6C
100
AcDbEntity
  8
Dimension (ANSI)
100
AcDbDimension
280
     0
  2
*D9
 10
67.19537334484619
 20
91.13717509933897
 30
0.0
 11
56.63287334484619
 21
91.13717509933897
 31
0.0
 70
   160
  1
<>
 42
21.12499999999999
 73
     0
 74
     0
 75
     0
  3
Default (ANSI)
100
AcDbAlignedDimension
 13
46.07037334484619
 23
86.80646643792163
 33
0.0
 14
67.19537334484619
 24
86.80646643792163
 34
0.0
 50
180.0
100
AcDbRotatedDimension
1001
ACAD
1000
DSTYLE
1002
{
1070
   289
1070
     1
1070
    73
1070
     0
1070
    74
1070
     0
1070
   271
1070
     2
1070
   272
1070
     3
1070
    48
1040
0.0
1070
    47
1040
0.0
1002
}
  0
DIMENSION
  5
86D
330
6C
100
AcDbEntity
  8
Dimension (ANSI)
100
AcDbDimension
280
     0
  2
*D10
 10
126.2083575491123
 20
90.83107273713418
 30
0.0
 11
120.4683525295001
 21
90.83107273713418
 31
0.0
 70
   160
  1
<>{\PTYP.}
 42
0.8749999999999857
 73
     0
 74
     0
 75
     0
  3
Default (ANSI)
100
AcDbAlignedDimension
 13
125.3333575491123
 23
87.52521643792162
 33
0.0
 14
126.2083575491123
 24
87.68146643792158
 34
0.0
100
AcDbRotatedDimension
1001
ACAD
1000
DSTYLE
1002
{
1070
   289
1070
     1
1070
    73
1070
     0
1070
    74
1070
     0
1070
   145
1040
-0.25
1070
   271
1070
     2
1070
   272
1070
     2
1070
    48
1040
0.0
1070
    47
1040
0.0
1002
}
  0
ELLIPSE
  5
96B
330
6C
100
AcDbEntity
  8
Visible (ANSI)
100
AcDbEllipse
 10
172.6789863994481
 20
52.80347147661601
 30
0.0
 11
-0.0965783276981949
 21
0.1677109756264705
 31
0.0
210
0.0
220
0.0
230
1.0
 40
0.5780931159158129
 41
0.0
 42
6.283185307179586
  0
ELLIPSE
  5
96C
330
6C
100
AcDbEntity
  8
Visible (ANSI)
100
AcDbEllipse
 10
172.7397533884563
 20
52.83846485827005
 30
0.0
 11
-0.0965783276981949
 21
0.1677109756264704
 31
0.0
210
0.0
220
0.0
230
1.0
 40
0.5780931159158129
 41
0.3187556839588481
 42
2.822836969630835
  0
ELLIPSE
  5
96D
330
6C
100
AcDbEntity
  8
Visible (ANSI)
100
AcDbEllipse
 10
152.139744114667
 20
64.63123447567591
 30
0.0
 11
-0.0965783276981949
 21
0.1677109756264705
 31
0.0
210
0.0
220
0.0
230
1.0
 40
0.5780931159158129
 41
0.0
 42
6.283185307179586
  0
ELLIPSE
  5
96E
330
6C
100
AcDbEntity
  8
Visible (ANSI)
100
AcDbEllipse
 10
152.2005111036752
 20
64.66622785732994
 30
0.0
 11
-0.0965783276981947
 21
0.1677109756264702
 31
0.0
210
0.0
220
0.0
230
1.0
 40
0.5780931159158129
 41
0.3187556839588481
 42
2.822836969630835
  0
ELLIPSE
  5
96F
330
6C
100
AcDbEntity
  8
Visible (ANSI)
100
AcDbEllipse
 10
162.4093652570576
 20
49.09201299850761
 30
0.0
 11
-0.0965783276981949
 21
0.1677109756264705
 31
0.0
210
0.0
220
0.0
230
1.0
 40
0.5780931159158129
 41
0.0
 42
6.283185307179586
  0
ELLIPSE
  5
970
330
6C
100
AcDbEntity
  8
Visible (ANSI)
100
AcDbEllipse
 10
162.4701322460658
 20
49.12700638016165
 30
0.0
 11
-0.0965783276981943
 21
0.1677109756264695
 31
0.0
210
0.0
220
0.0
230
0.9999999999999998
 40
0.5780931159158129
 41
0.3187556839588915
 42
2.822836969630835
  0
ELLIPSE
  5
971
330
6C
100
AcDbEntity
  8
Visible (ANSI)
100
AcDbEllipse
 10
172.6789863994481
 20
58.42410795990847
 30
0.0
 11
-0.0965783276981949
 21
0.1677109756264705
 31
0.0
210
0.0
220
0.0
230
1.0
 40
0.5780931159158129
 41
0.0
 42
6.283185307179586
  0
ELLIPSE
  5
972
330
6C
100
AcDbEntity
  8
Visible (ANSI)
100
AcDbEllipse
 10
172.7397533884563
 20
58.45910134156252
 30
0.0
 11
-0.0965783276981931
 21
0.1677109756264675
 31
0.0
210
0.0
220
0.0
230
0.9999999999999998
 40
0.5780931159158129
 41
0.3187556839588916
 42
2.822836969630835
  0
ELLIPSE
  5
973
330
6C
100
AcDbEntity
  8
Visible (ANSI)
100
AcDbEllipse
 10
172.6789863994482
 20
43.17813149897767
 30
0.0
 11
-0.0965783276981949
 21
0.1677109756264705
 31
0.0
210
0.0
220
0.0
230
1.0
 40
0.5780931159158129
 41
0.0
 42
6.283185307179586
  0
ELLIPSE
  5
974
330
6C
100
AcDbEntity
  8
Visible (ANSI)
100
AcDbEllipse
 10
172.7397533884564
 20
43.2131248806317
 30
0.0
 11
-0.096578327698195
 21
0.1677109756264707
 31
0.0
210
0.0
220
0.0
230
0.9999999999999998
 40
0.578093115915813
 41
0.3187556839588481
 42
2.822836969630835
  0
ELLIPSE
  5
975
330
6C
100
AcDbEntity
  8
Visible (ANSI)
100
AcDbEllipse
 10
152.139744114667
 20
55.00589449803758
 30
0.0
 11
-0.0965783276981949
 21
0.1677109756264705
 31
0.0
210
0.0
220
0.0
230
1.0
 40
0.5780931159158129
 41
0.0
 42
6.283185307179586
  0
ELLIPSE
  5
976
330
6C
100
AcDbEntity
  8
Visible (ANSI)
100
AcDbEllipse
 10
152.2005111036752
 20
55.04088787969161
 30
0.0
 11
-0.0965783276981949
 21
0.1677109756264705
 31
0.0
210
0.0
220
0.0
230
1.0
 40
0.5780931159158129
 41
0.3187556839588481
 42
2.822836969630835
  0
ELLIPSE
  5
977
330
6C
100
AcDbEntity
  8
Visible (ANSI)
100
AcDbEllipse
 10
152.139744114667
 20
70.25187095896836
 30
0.0
 11
-0.0965783276981949
 21
0.1677109756264705
 31
0.0
210
0.0
220
0.0
230
1.0
 40
0.5780931159158129
 41
0.0
 42
6.283185307179586
  0
ELLIPSE
  5
978
330
6C
100
AcDbEntity
  8
Visible (ANSI)
100
AcDbEllipse
 10
152.2005111036752
 20
70.2868643406224
 30
0.0
 11
-0.0965783276981947
 21
0.1677109756264702
 31
0.0
210
0.0
220
0.0
230
1.0
 40
0.5780931159158129
 41
0.3187556839588485
 42
2.822836969630857
  0
ELLIPSE
  5
979
330
6C
100
AcDbEntity
  8
Visible (ANSI)
100
AcDbEllipse
 10
172.6789863994481
 20
73.67008442083927
 30
0.0
 11
-0.0965783276981949
 21
0.1677109756264705
 31
0.0
210
0.0
220
0.0
230
1.0
 40
0.5780931159158129
 41
0.0
 42
6.283185307179586
  0
ELLIPSE
  5
97A
330
6C
100
AcDbEntity
  8
Visible (ANSI)
100
AcDbEllipse
 10
172.7397533884563
 20
73.70507780249332
 30
0.0
 11
-0.0965783276981949
 21
0.1677109756264705
 31
0.0
210
0.0
220
0.0
230
1.0
 40
0.578093115915813
 41
0.3187556839588479
 42
2.822836969630813
  0
ELLIPSE
  5
97B
330
6C
100
AcDbEntity
  8
Visible (ANSI)
100
AcDbEllipse
 10
162.4093652570576
 20
79.58396592036923
 30
0.0
 11
-0.0965783276981949
 21
0.1677109756264705
 31
0.0
210
0.0
220
0.0
230
1.0
 40
0.5780931159158129
 41
0.0
 42
6.283185307179586
  0
ELLIPSE
  5
97C
330
6C
100
AcDbEntity
  8
Visible (ANSI)
100
AcDbEllipse
 10
162.4701322460658
 20
79.61895930202324
 30
0.0
 11
-0.0965783276981949
 21
0.1677109756264705
 31
0.0
210
0.0
220
0.0
230
1.0
 40
0.578093115915813
 41
0.3187556839588479
 42
2.822836969630813
  0
ELLIPSE
  5
97D
330
6C
100
AcDbEntity
  8
Visible (ANSI)
100
AcDbEllipse
 10
152.139744114667
 20
85.49784741989917
 30
0.0
 11
-0.0965783276981949
 21
0.1677109756264705
 31
0.0
210
0.0
220
0.0
230
1.0
 40
0.5780931159158129
 41
0.0
 42
6.283185307179586
  0
ELLIPSE
  5
97E
330
6C
100
AcDbEntity
  8
Visible (ANSI)
100
AcDbEllipse
 10
152.2005111036752
 20
85.5328408015532
 30
0.0
 11
-0.096578327698196
 21
0.1677109756264723
 31
0.0
210
0.0
220
0.0
230
0.9999999999999998
 40
0.5780931159158128
 41
0.3187556839588478
 42
2.822836969630813
  0
POLYLINE
  5
97F
330
6C
100
AcDbEntity
  8
Visible (ANSI)
100
AcDb2dPolyline
 66
     1
 10
0.0
 20
0.0
 30
0.0
 70
   128
  0
VERTEX
  5
980
330
97F
100
AcDbEntity
  8
Visible (ANSI)
100
AcDbVertex
100
AcDb2dVertex
 10
173.0283972880569
 20
42.57293590281622
 30
0.0
  0
VERTEX
  5
981
330
97F
100
AcDbEntity
  8
Visible (ANSI)
100
AcDbVertex
100
AcDb2dVertex
 10
173.0274019752954
 20
42.56795250736207
 30
0.0
  0
VERTEX
  5
983
330
97F
100
AcDbEntity
  8
Visible (ANSI)
100
AcDbVertex
100
AcDb2dVertex
 10
173.0267312388988
 20
42.56318062162431
 30
0.0
  0
VERTEX
  5
984
330
97F
100
AcDbEntity
  8
Visible (ANSI)
100
AcDbVertex
100
AcDb2dVertex
 10
173.0263844457311
 20
42.55864268575805
 30
0.0
  0
VERTEX
  5
985
330
97F
100
AcDbEntity
  8
Visible (ANSI)
100
AcDbVertex
100
AcDb2dVertex
 10
173.026355207392
 20
42.55436266650271
 30
0.0
  0
VERTEX
  5
986
330
97F
100
AcDbEntity
  8
Visible (ANSI)
100
AcDbVertex
100
AcDb2dVertex
 10
173.0266401528596
 20
42.5503609063803
 30
0.0
  0
VERTEX
  5
987
330
97F
100
AcDbEntity
  8
Visible (ANSI)
100
AcDbVertex
100
AcDb2dVertex
 10
173.0272345649848
 20
42.54665656055447
 30
0.0
  0
VERTEX
  5
988
330
97F
100
AcDbEntity
  8
Visible (ANSI)
100
AcDbVertex
100
AcDb2dVertex
 10
173.0281280226895
 20
42.54327001718989
 30
0.0
  0
VERTEX
  5
989
330
97F
100
AcDbEntity
  8
Visible (ANSI)
100
AcDbVertex
100
AcDb2dVertex
 10
173.0293146623351
 20
42.54021695846867
 30
0.0
  0
VERTEX
  5
98A
330
97F
100
AcDbEntity
  8
Visible (ANSI)
100
AcDbVertex
100
AcDb2dVertex
 10
173.0307815360031
 20
42.53751499188925
 30
0.0
  0
VERTEX
  5
98B
330
97F
100
AcDbEntity
  8
Visible (ANSI)
100
AcDbVertex
100
AcDb2dVertex
 10
173.0325188557516
 20
42.53517769813135
 30
0.0
  0
VERTEX
  5
98C
330
97F
100
AcDbEntity
  8
Visible (ANSI)
100
AcDbVertex
100
AcDb2dVertex
 10
173.0345156871492
 20
42.53321710076188
 30
0.0
  0
VERTEX
  5
98D
330
97F
100
AcDbEntity
  8
Visible (ANSI)
100
AcDbVertex
100
AcDb2dVertex
 10
173.0367556085847
 20
42.53164613107101
 30
0.0
  0
VERTEX
  5
98E
330
97F
100
AcDbEntity
  8
Visible (ANSI)
100
AcDbVertex
100
AcDb2dVertex
 10
173.0392269868954
 20
42.53047268740809
 30
0.0
  0
VERTEX
  5
98F
330
97F
100
AcDbEntity
  8
Visible (ANSI)
100
AcDbVertex
100
AcDb2dVertex
 10
173.0419113698717
 20
42.52970633070344
 30
0.0
  0
VERTEX
  5
990
330
97F
100
AcDbEntity
  8
Visible (ANSI)
100
AcDbVertex
100
AcDb2dVertex
 10
173.0447937647365
 20
42.5293523586363
 30
0.0
  0
VERTEX
  5
991
330
97F
100
AcDbEntity
  8
Visible (ANSI)
100
AcDbVertex
100
AcDb2dVertex
 10
173.0478583259758
 20
42.52941429596205
 30
0.0
  0
VERTEX
  5
992
330
97F
100
AcDbEntity
  8
Visible (ANSI)
100
AcDbVertex
100
AcDb2dVertex
 10
173.0510840602794
 20
42.52989641447809
 30
0.0
  0
VERTEX
  5
993
330
97F
100
AcDbEntity
  8
Visible (ANSI)
100
AcDbVertex
100
AcDb2dVertex
 10
173.0544551178552
 20
42.53079782323779
 30
0.0
  0
VERTEX
  5
994
330
97F
100
AcDbEntity
  8
Visible (ANSI)
100
AcDbVertex
100
AcDb2dVertex
 10
173.0579491892117
 20
42.53211919538816
 30
0.0
  0
VERTEX
  5
995
330
97F
100
AcDbEntity
  8
Visible (ANSI)
100
AcDbVertex
100
AcDb2dVertex
 10
173.0615478135833
 20
42.53385688719795
 30
0.0
  0
VERTEX
  5
996
330
97F
100
AcDbEntity
  8
Visible (ANSI)
100
AcDbVertex
100
AcDb2dVertex
 10
173.0652320839611
 20
42.53600547239789
 30
0.0
  0
VERTEX
  5
997
330
97F
100
AcDbEntity
  8
Visible (ANSI)
100
AcDbVertex
100
AcDb2dVertex
 10
173.0689783505193
 20
42.53856028358284
 30
0.0
  0
VERTEX
  5
998
330
97F
100
AcDbEntity
  8
Visible (ANSI)
100
AcDbVertex
100
AcDb2dVertex
 10
173.0727670729348
 20
42.54151239538254
 30
0.0
  0
VERTEX
  5
999
330
97F
100
AcDbEntity
  8
Visible (ANSI)
100
AcDbVertex
100
AcDb2dVertex
 10
173.0765785287151
 20
42.54485118070391
 30
0.0
  0
SEQEND
  5
982
330
97F
100
AcDbEntity
  8
Visible (ANSI)
  0
POLYLINE
  5
99A
330
6C
100
AcDbEntity
  8
Visible (ANSI)
100
AcDb2dPolyline
 66
     1
 10
0.0
 20
0.0
 30
0.0
 70
   128
  0
VERTEX
  5
99B
330
99A
100
AcDbEntity
  8
Visible (ANSI)
100
AcDbVertex
100
AcDb2dVertex
 10
151.8266083851763
 20
54.74575735778735
 30
0.0
  0
VERTEX
  5
99C
330
99A
100
AcDbEntity
  8
Visible (ANSI)
100
AcDbVertex
100
AcDb2dVertex
 10
151.8242920139829
 20
54.74715796352575
 30
0.0
  0
VERTEX
  5
99E
330
99A
100
AcDbEntity
  8
Visible (ANSI)
100
AcDbVertex
100
AcDb2dVertex
 10
151.8220351975102
 20
54.74865759584516
 30
0.0
  0
VERTEX
  5
99F
330
99A
100
AcDbEntity
  8
Visible (ANSI)
100
AcDbVertex
100
AcDb2dVertex
 10
151.8198397439037
 20
54.75025500099548
 30
0.0
  0
VERTEX
  5
9A0
330
99A
100
AcDbEntity
  8
Visible (ANSI)
100
AcDbVertex
100
AcDb2dVertex
 10
151.8177073843056
 20
54.75194881823292
 30
0.0
  0
VERTEX
  5
9A1
330
99A
100
AcDbEntity
  8
Visible (ANSI)
100
AcDbVertex
100
AcDb2dVertex
 10
151.8156397956712
 20
54.75373758966123
 30
0.0
  0
VERTEX
  5
9A2
330
99A
100
AcDbEntity
  8
Visible (ANSI)
100
AcDbVertex
100
AcDb2dVertex
 10
151.8136385722484
 20
54.75561974051093
 30
0.0
  0
VERTEX
  5
9A3
330
99A
100
AcDbEntity
  8
Visible (ANSI)
100
AcDbVertex
100
AcDb2dVertex
 10
151.8117052483942
 20
54.75759361206243
 30
0.0
  0
VERTEX
  5
9A4
330
99A
100
AcDbEntity
  8
Visible (ANSI)
100
AcDbVertex
100
AcDb2dVertex
 10
151.8098412786104
 20
54.75965743696008
 30
0.0
  0
VERTEX
  5
9A5
330
99A
100
AcDbEntity
  8
Visible (ANSI)
100
AcDbVertex
100
AcDb2dVertex
 10
151.8080480489517
 20
54.76180935567371
 30
0.0
  0
VERTEX
  5
9A6
330
99A
100
AcDbEntity
  8
Visible (ANSI)
100
AcDbVertex
100
AcDb2dVertex
 10
151.8063268542099
 20
54.76404740665731
 30
0.0
  0
VERTEX
  5
9A7
330
99A
100
AcDbEntity
  8
Visible (ANSI)
100
AcDbVertex
100
AcDb2dVertex
 10
151.8046789321376
 20
54.76636954935456
 30
0.0
  0
VERTEX
  5
9A8
330
99A
100
AcDbEntity
  8
Visible (ANSI)
100
AcDbVertex
100
AcDb2dVertex
 10
151.8031054292245
 20
54.76877364119324
 30
0.0
  0
VERTEX
  5
9A9
330
99A
100
AcDbEntity
  8
Visible (ANSI)
100
AcDbVertex
100
AcDb2dVertex
 10
151.8016074121053
 20
54.77125745074952
 30
0.0
  0
VERTEX
  5
9AA
330
99A
100
AcDbEntity
  8
Visible (ANSI)
100
AcDbVertex
100
AcDb2dVertex
 10
151.8001858675596
 20
54.77381866434271
 30
0.0
  0
VERTEX
  5
9AB
330
99A
100
AcDbEntity
  8
Visible (ANSI)
100
AcDbVertex
100
AcDb2dVertex
 10
151.798841702512
 20
54.77645489263004
 30
0.0
  0
VERTEX
  5
9AC
330
99A
100
AcDbEntity
  8
Visible (ANSI)
100
AcDbVertex
100
AcDb2dVertex
 10
151.7975757440325
 20
54.77916365082227
 30
0.0
  0
VERTEX
  5
9AD
330
99A
100
AcDbEntity
  8
Visible (ANSI)
100
AcDbVertex
100
AcDb2dVertex
 10
151.7963887222237
 20
54.78194239169594
 30
0.0
  0
VERTEX
  5
9AE
330
99A
100
AcDbEntity
  8
Visible (ANSI)
100
AcDbVertex
100
AcDb2dVertex
 10
151.7952812987414
 20
54.78478847585304
 30
0.0
  0
VERTEX
  5
9AF
330
99A
100
AcDbEntity
  8
Visible (ANSI)
100
AcDbVertex
100
AcDb2dVertex
 10
151.7942540325707
 20
54.78769920477138
 30
0.0
  0
VERTEX
  5
9B0
330
99A
100
AcDbEntity
  8
Visible (ANSI)
100
AcDbVertex
100
AcDb2dVertex
 10
151.7933074142495
 20
54.79067180753875
 30
0.0
  0
VERTEX
  5
9B1
330
99A
100
AcDbEntity
  8
Visible (ANSI)
100
AcDbVertex
100
AcDb2dVertex
 10
151.7924418259409
 20
54.79370343764446
 30
0.0
  0
VERTEX
  5
9B2
330
99A
100
AcDbEntity
  8
Visible (ANSI)
100
AcDbVertex
100
AcDb2dVertex
 10
151.791657587065
 20
54.79679119925682
 30
0.0
  0
VERTEX
  5
9B3
330
99A
100
AcDbEntity
  8
Visible (ANSI)
100
AcDbVertex
100
AcDb2dVertex
 10
151.7909549086671
 20
54.79993212754052
 30
0.0
  0
VERTEX
  5
9B4
330
99A
100
AcDbEntity
  8
Visible (ANSI)
100
AcDbVertex
100
AcDb2dVertex
 10
151.7903339276415
 20
54.80312319517508
 30
0.0
  0
SEQEND
  5
99D
330
99A
100
AcDbEntity
  8
Visible (ANSI)
  0
LINE
  5
9B5
330
6C
100
AcDbEntity
  8
Visible (ANSI)
100
AcDbLine
 10
152.1282371635905
 20
54.94815281429051
 30
0.0
 11
152.2434798536751
 21
55.01451666582879
 31
0.0
  0
LINE
  5
9B6
330
6C
100
AcDbEntity
  8
Visible (ANSI)
100
AcDbLine
 10
173.0765783197577
 20
42.56763195882954
 30
0.0
 11
173.0765783197577
 21
42.5448513012972
 31
0.0
  0
LINE
  5
9B7
330
6C
100
AcDbEntity
  8
Visible (ANSI)
100
AcDbLine
 10
173.0765783197577
 20
42.5448513012972
 30
0.0
 11
173.1395508135149
 21
42.58111474866749
 31
0.0
  0
LINE
  5
9B8
330
6C
100
AcDbEntity
  8
Visible (ANSI)
100
AcDbLine
 10
173.1784801022113
 20
42.60353263507433
 30
0.0
 11
173.425988506555
 21
42.74606324580789
 31
0.0
  0
LINE
  5
9B9
330
6C
100
AcDbEntity
  8
Visible (ANSI)
100
AcDbLine
 10
173.425988506555
 20
42.74652620076156
 30
0.0
 11
173.425988506555
 21
42.74606324580789
 31
0.0
  0
POLYLINE
  5
9BA
330
6C
100
AcDbEntity
  8
Visible (ANSI)
100
AcDb2dPolyline
 66
     1
 10
0.0
 20
0.0
 30
0.0
 70
   128
  0
VERTEX
  5
9BB
330
9BA
100
AcDbEntity
  8
Visible (ANSI)
100
AcDbVertex
100
AcDb2dVertex
 10
173.0283972880569
 20
73.87285518540849
 30
0.0
  0
VERTEX
  5
9BC
330
9BA
100
AcDbEntity
  8
Visible (ANSI)
100
AcDbVertex
100
AcDb2dVertex
 10
173.0335275385222
 20
73.86875106621572
 30
0.0
  0
VERTEX
  5
9BE
330
9BA
100
AcDbEntity
  8
Visible (ANSI)
100
AcDbVertex
100
AcDb2dVertex
 10
173.0389604622659
 20
73.86484309472966
 30
0.0
  0
VERTEX
  5
9BF
330
9BA
100
AcDbEntity
  8
Visible (ANSI)
100
AcDbVertex
100
AcDb2dVertex
 10
173.044674983271
 20
73.86114774994975
 30
0.0
  0
VERTEX
  5
9C0
330
9BA
100
AcDbEntity
  8
Visible (ANSI)
100
AcDbVertex
100
AcDb2dVertex
 10
173.0506442702564
 20
73.85767311227976
 30
0.0
  0
VERTEX
  5
9C1
330
9BA
100
AcDbEntity
  8
Visible (ANSI)
100
AcDbVertex
100
AcDb2dVertex
 10
173.0568445093192
 20
73.85442733099623
 30
0.0
  0
VERTEX
  5
9C2
330
9BA
100
AcDbEntity
  8
Visible (ANSI)
100
AcDbVertex
100
AcDb2dVertex
 10
173.0632461598123
 20
73.85141692628278
 30
0.0
  0
VERTEX
  5
9C3
330
9BA
100
AcDbEntity
  8
Visible (ANSI)
100
AcDbVertex
100
AcDb2dVertex
 10
173.0698256588056
 20
73.84865358151451
 30
0.0
  0
VERTEX
  5
9C4
330
9BA
100
AcDbEntity
  8
Visible (ANSI)
100
AcDbVertex
100
AcDb2dVertex
 10
173.0765523191622
 20
73.84614147490236
 30
0.0
  0
VERTEX
  5
9C5
330
9BA
100
AcDbEntity
  8
Visible (ANSI)
100
AcDbVertex
100
AcDb2dVertex
 10
173.0833985909059
 20
73.84388154596853
 30
0.0
  0
VERTEX
  5
9C6
330
9BA
100
AcDbEntity
  8
Visible (ANSI)
100
AcDbVertex
100
AcDb2dVertex
 10
173.0903342432141
 20
73.84188500181039
 30
0.0
  0
VERTEX
  5
9C7
330
9BA
100
AcDbEntity
  8
Visible (ANSI)
100
AcDbVertex
100
AcDb2dVertex
 10
173.0973293589801
 20
73.8401514188104
 30
0.0
  0
VERTEX
  5
9C8
330
9BA
100
AcDbEntity
  8
Visible (ANSI)
100
AcDbVertex
100
AcDb2dVertex
 10
173.1043558349467
 20
73.83867805437104
 30
0.0
  0
VERTEX
  5
9C9
330
9BA
100
AcDbEntity
  8
Visible (ANSI)
100
AcDbVertex
100
AcDb2dVertex
 10
173.1113815950702
 20
73.83747337124444
 30
0.0
  0
VERTEX
  5
9CA
330
9BA
100
AcDbEntity
  8
Visible (ANSI)
100
AcDbVertex
100
AcDb2dVertex
 10
173.1183765054948
 20
73.83653345748911
 30
0.0
  0
VERTEX
  5
9CB
330
9BA
100
AcDbEntity
  8
Visible (ANSI)
100
AcDbVertex
100
AcDb2dVertex
 10
173.1253124315915
 20
73.83585218893547
 30
0.0
  0
VERTEX
  5
9CC
330
9BA
100
AcDbEntity
  8
Visible (ANSI)
100
AcDbVertex
100
AcDb2dVertex
 10
173.1321574655827
 20
73.83543476172725
 30
0.0
  0
VERTEX
  5
9CD
330
9BA
100
AcDbEntity
  8
Visible (ANSI)
100
AcDbVertex
100
AcDb2dVertex
 10
173.1388847733352
 20
73.83527243709429
 30
0.0
  0
VERTEX
  5
9CE
330
9BA
100
AcDbEntity
  8
Visible (ANSI)
100
AcDbVertex
100
AcDb2dVertex
 10
173.1454639029992
 20
73.83536113300777
 30
0.0
  0
VERTEX
  5
9CF
330
9BA
100
AcDbEntity
  8
Visible (ANSI)
100
AcDbVertex
100
AcDb2dVertex
 10
173.1518667042598
 20
73.83569135275897
 30
0.0
  0
VERTEX
  5
9D0
330
9BA
100
AcDbEntity
  8
Visible (ANSI)
100
AcDbVertex
100
AcDb2dVertex
 10
173.158065955117
 20
73.83626258208558
 30
0.0
  0
VERTEX
  5
9D1
330
9BA
100
AcDbEntity
  8
Visible (ANSI)
100
AcDbVertex
100
AcDb2dVertex
 10
173.1640354475329
 20
73.83706307925546
 30
0.0
  0
VERTEX
  5
9D2
330
9BA
100
AcDbEntity
  8
Visible (ANSI)
100
AcDbVertex
100
AcDb2dVertex
 10
173.1697500714761
 20
73.83808005308296
 30
0.0
  0
VERTEX
  5
9D3
330
9BA
100
AcDbEntity
  8
Visible (ANSI)
100
AcDbVertex
100
AcDb2dVertex
 10
173.1751829855944
 20
73.83931152675337
 30
0.0
  0
VERTEX
  5
9D4
330
9BA
100
AcDbEntity
  8
Visible (ANSI)
100
AcDbVertex
100
AcDb2dVertex
 10
173.1803144673954
 20
73.84074108454581
 30
0.0
  0
SEQEND
  5
9BD
330
9BA
100
AcDbEntity
  8
Visible (ANSI)
  0
POLYLINE
  5
9D5
330
6C
100
AcDbEntity
  8
Visible (ANSI)
100
AcDb2dPolyline
 66
     1
 10
0.0
 20
0.0
 30
0.0
 70
   128
  0
VERTEX
  5
9D6
330
9D5
100
AcDbEntity
  8
Visible (ANSI)
100
AcDbVertex
100
AcDb2dVertex
 10
173.1803144673954
 20
42.60505145323755
 30
0.0
  0
VERTEX
  5
9D7
330
9D5
100
AcDbEntity
  8
Visible (ANSI)
100
AcDbVertex
100
AcDb2dVertex
 10
173.1751829855944
 20
42.60094664727207
 30
0.0
  0
VERTEX
  5
9D9
330
9D5
100
AcDbEntity
  8
Visible (ANSI)
100
AcDbVertex
100
AcDb2dVertex
 10
173.1697500714761
 20
42.5970399254286
 30
0.0
  0
VERTEX
  5
9DA
330
9D5
100
AcDbEntity
  8
Visible (ANSI)
100
AcDbVertex
100
AcDb2dVertex
 10
173.1640354475329
 20
42.59334432688839
 30
0.0
  0
VERTEX
  5
9DB
330
9D5
100
AcDbEntity
  8
Visible (ANSI)
100
AcDbVertex
100
AcDb2dVertex
 10
173.158065955117
 20
42.58986858154548
 30
0.0
  0
VERTEX
  5
9DC
330
9D5
100
AcDbEntity
  8
Visible (ANSI)
100
AcDbVertex
100
AcDb2dVertex
 10
173.1518667042598
 20
42.5866220908562
 30
0.0
  0
VERTEX
  5
9DD
330
9D5
100
AcDbEntity
  8
Visible (ANSI)
100
AcDbVertex
100
AcDb2dVertex
 10
173.1454639029992
 20
42.5836132463923
 30
0.0
  0
VERTEX
  5
9DE
330
9D5
100
AcDbEntity
  8
Visible (ANSI)
100
AcDbVertex
100
AcDb2dVertex
 10
173.1388847733352
 20
42.58084930230577
 30
0.0
  0
VERTEX
  5
9DF
330
9D5
100
AcDbEntity
  8
Visible (ANSI)
100
AcDbVertex
100
AcDb2dVertex
 10
173.1321574655827
 20
42.57833637876568
 30
0.0
  0
VERTEX
  5
9E0
330
9D5
100
AcDbEntity
  8
Visible (ANSI)
100
AcDbVertex
100
AcDb2dVertex
 10
173.1253124315915
 20
42.57607855120602
 30
0.0
  0
VERTEX
  5
9E1
330
9D5
100
AcDbEntity
  8
Visible (ANSI)
100
AcDbVertex
100
AcDb2dVertex
 10
173.1183765054948
 20
42.57408119504698
 30
0.0
  0
VERTEX
  5
9E2
330
9D5
100
AcDbEntity
  8
Visible (ANSI)
100
AcDbVertex
100
AcDb2dVertex
 10
173.1113815950702
 20
42.57234586062925
 30
0.0
  0
VERTEX
  5
9E3
330
9D5
100
AcDbEntity
  8
Visible (ANSI)
100
AcDbVertex
100
AcDb2dVertex
 10
173.1043558349467
 20
42.57087528898799
 30
0.0
  0
VERTEX
  5
9E4
330
9D5
100
AcDbEntity
  8
Visible (ANSI)
100
AcDbVertex
100
AcDb2dVertex
 10
173.0973293589801
 20
42.56967002871467
 30
0.0
  0
VERTEX
  5
9E5
330
9D5
100
AcDbEntity
  8
Visible (ANSI)
100
AcDbVertex
100
AcDb2dVertex
 10
173.0903342432141
 20
42.56872835694681
 30
0.0
  0
VERTEX
  5
9E6
330
9D5
100
AcDbEntity
  8
Visible (ANSI)
100
AcDbVertex
100
AcDb2dVertex
 10
173.0833985909059
 20
42.56804965293187
 30
0.0
  0
VERTEX
  5
9E7
330
9D5
100
AcDbEntity
  8
Visible (ANSI)
100
AcDbVertex
100
AcDb2dVertex
 10
173.0765523191622
 20
42.56763095055823
 30
0.0
  0
VERTEX
  5
9E8
330
9D5
100
AcDbEntity
  8
Visible (ANSI)
100
AcDbVertex
100
AcDb2dVertex
 10
173.0698256588056
 20
42.56746780899731
 30
0.0
  0
VERTEX
  5
9E9
330
9D5
100
AcDbEntity
  8
Visible (ANSI)
100
AcDbVertex
100
AcDb2dVertex
 10
173.0632461598123
 20
42.56755590559253
 30
0.0
  0
VERTEX
  5
9EA
330
9D5
100
AcDbEntity
  8
Visible (ANSI)
100
AcDbVertex
100
AcDb2dVertex
 10
173.0568445093192
 20
42.5678876789985
 30
0.0
  0
VERTEX
  5
9EB
330
9D5
100
AcDbEntity
  8
Visible (ANSI)
100
AcDbVertex
100
AcDb2dVertex
 10
173.0506442702564
 20
42.56845821210896
 30
0.0
  0
VERTEX
  5
9EC
330
9D5
100
AcDbEntity
  8
Visible (ANSI)
100
AcDbVertex
100
AcDb2dVertex
 10
173.044674983271
 20
42.5692575950111
 30
0.0
  0
VERTEX
  5
9ED
330
9D5
100
AcDbEntity
  8
Visible (ANSI)
100
AcDbVertex
100
AcDb2dVertex
 10
173.0389604622659
 20
42.57027769161795
 30
0.0
  0
VERTEX
  5
9EE
330
9D5
100
AcDbEntity
  8
Visible (ANSI)
100
AcDbVertex
100
AcDb2dVertex
 10
173.0335275385222
 20
42.57150703839132
 30
0.0
  0
VERTEX
  5
9EF
330
9D5
100
AcDbEntity
  8
Visible (ANSI)
100
AcDbVertex
100
AcDb2dVertex
 10
173.0283972880569
 20
42.57293590281622
 30
0.0
  0
SEQEND
  5
9D8
330
9D5
100
AcDbEntity
  8
Visible (ANSI)
  0
LINE
  5
9F0
330
6C
100
AcDbEntity
  8
Visible (ANSI)
100
AcDbLine
 10
173.1196377241782
 20
73.87578592148935
 30
0.0
 11
173.468957256555
 21
74.07694566159129
 31
0.0
  0
LINE
  5
9F1
330
6C
100
AcDbEntity
  8
Visible (ANSI)
100
AcDbLine
 10
173.5297242455632
 20
42.80626363987983
 30
0.0
 11
173.180314058766
 21
42.60505169536913
 31
0.0
  0
LINE
  5
9F2
330
6C
100
AcDbEntity
  8
Visible (ANSI)
100
AcDbLine
 10
173.1221072332956
 20
73.87425941695092
 30
0.0
 11
173.180314058766
 21
73.84074033542659
 31
0.0
  0
POLYLINE
  5
9F3
330
6C
100
AcDbEntity
  8
Visible (ANSI)
100
AcDb2dPolyline
 66
     1
 10
0.0
 20
0.0
 30
0.0
 70
   128
  0
VERTEX
  5
9F4
330
9F3
100
AcDbEntity
  8
Visible (ANSI)
100
AcDbVertex
100
AcDb2dVertex
 10
173.0891642761524
 20
73.90784856653699
 30
0.0
  0
VERTEX
  5
9F5
330
9F3
100
AcDbEntity
  8
Visible (ANSI)
100
AcDbVertex
100
AcDb2dVertex
 10
173.0900982237389
 20
73.90611971512402
 30
0.0
  0
VERTEX
  5
9F7
330
9F3
100
AcDbEntity
  8
Visible (ANSI)
100
AcDbVertex
100
AcDb2dVertex
 10
173.0910849336083
 20
73.90442292924219
 30
0.0
  0
VERTEX
  5
9F8
330
9F3
100
AcDbEntity
  8
Visible (ANSI)
100
AcDbVertex
100
AcDb2dVertex
 10
173.0921182739507
 20
73.90276140482971
 30
0.0
  0
VERTEX
  5
9F9
330
9F3
100
AcDbEntity
  8
Visible (ANSI)
100
AcDbVertex
100
AcDb2dVertex
 10
173.0931963007208
 20
73.90113570413841
 30
0.0
  0
VERTEX
  5
9FA
330
9F3
100
AcDbEntity
  8
Visible (ANSI)
100
AcDbVertex
100
AcDb2dVertex
 10
173.0943124981824
 20
73.89954542547851
 30
0.0
  0
VERTEX
  5
9FB
330
9F3
100
AcDbEntity
  8
Visible (ANSI)
100
AcDbVertex
100
AcDb2dVertex
 10
173.095466002636
 20
73.89799682455773
 30
0.0
  0
VERTEX
  5
9FC
330
9F3
100
AcDbEntity
  8
Visible (ANSI)
100
AcDbVertex
100
AcDb2dVertex
 10
173.096651384387
 20
73.89648844334276
 30
0.0
  0
VERTEX
  5
9FD
330
9F3
100
AcDbEntity
  8
Visible (ANSI)
100
AcDbVertex
100
AcDb2dVertex
 10
173.0978630315716
 20
73.89502209543566
 30
0.0
  0
VERTEX
  5
9FE
330
9F3
100
AcDbEntity
  8
Visible (ANSI)
100
AcDbVertex
100
AcDb2dVertex
 10
173.0990995356758
 20
73.89359696972718
 30
0.0
  0
VERTEX
  5
9FF
330
9F3
100
AcDbEntity
  8
Visible (ANSI)
100
AcDbVertex
100
AcDb2dVertex
 10
173.1003534749079
 20
73.89221551930437
 30
0.0
  0
VERTEX
  5
A00
330
9F3
100
AcDbEntity
  8
Visible (ANSI)
100
AcDbVertex
100
AcDb2dVertex
 10
173.1016231015484
 20
73.89087673772253
 30
0.0
  0
VERTEX
  5
A01
330
9F3
100
AcDbEntity
  8
Visible (ANSI)
100
AcDbVertex
100
AcDb2dVertex
 10
173.1029006668101
 20
73.8895828897645
 30
0.0
  0
VERTEX
  5
A02
330
9F3
100
AcDbEntity
  8
Visible (ANSI)
100
AcDbVertex
100
AcDb2dVertex
 10
173.1041855683938
 20
73.8883285702964
 30
0.0
  0
VERTEX
  5
A03
330
9F3
100
AcDbEntity
  8
Visible (ANSI)
100
AcDbVertex
100
AcDb2dVertex
 10
173.1054697576993
 20
73.88712262452968
 30
0.0
  0
VERTEX
  5
A04
330
9F3
100
AcDbEntity
  8
Visible (ANSI)
100
AcDbVertex
100
AcDb2dVertex
 10
173.1067494280672
 20
73.8859611655684
 30
0.0
  0
VERTEX
  5
A05
330
9F3
100
AcDbEntity
  8
Visible (ANSI)
100
AcDbVertex
100
AcDb2dVertex
 10
173.10802210221
 20
73.88484276683756
 30
0.0
  0
VERTEX
  5
A06
330
9F3
100
AcDbEntity
  8
Visible (ANSI)
100
AcDbVertex
100
AcDb2dVertex
 10
173.1092808017272
 20
73.8837684550031
 30
0.0
  0
VERTEX
  5
A07
330
9F3
100
AcDbEntity
  8
Visible (ANSI)
100
AcDbVertex
100
AcDb2dVertex
 10
173.1105213570468
 20
73.88273751072141
 30
0.0
  0
VERTEX
  5
A08
330
9F3
100
AcDbEntity
  8
Visible (ANSI)
100
AcDbVertex
100
AcDb2dVertex
 10
173.111740955419
 20
73.88174831423754
 30
0.0
  0
VERTEX
  5
A09
330
9F3
100
AcDbEntity
  8
Visible (ANSI)
100
AcDbVertex
100
AcDb2dVertex
 10
173.1129337731325
 20
73.8808008754055
 30
0.0
  0
VERTEX
  5
A0A
330
9F3
100
AcDbEntity
  8
Visible (ANSI)
100
AcDbVertex
100
AcDb2dVertex
 10
173.1140953639747
 20
73.87989093903534
 30
0.0
  0
VERTEX
  5
A0B
330
9F3
100
AcDbEntity
  8
Visible (ANSI)
100
AcDbVertex
100
AcDb2dVertex
 10
173.1152226706398
 20
73.87902349762097
 30
0.0
  0
VERTEX
  5
A0C
330
9F3
100
AcDbEntity
  8
Visible (ANSI)
100
AcDbVertex
100
AcDb2dVertex
 10
173.1163111171509
 20
73.87819422124611
 30
0.0
  0
VERTEX
  5
A0D
330
9F3
100
AcDbEntity
  8
Visible (ANSI)
100
AcDbVertex
100
AcDb2dVertex
 10
173.1173560740568
 20
73.87740212574022
 30
0.0
  0
SEQEND
  5
9F6
330
9F3
100
AcDbEntity
  8
Visible (ANSI)
  0
LINE
  5
A0E
330
6C
100
AcDbEntity
  8
Visible (ANSI)
100
AcDbLine
 10
173.0891635752537
 20
73.90784910521931
 30
0.0
 11
173.0866719333392
 21
73.90641426406824
 31
0.0
  0
LINE
  5
A0F
330
6C
100
AcDbEntity
  8
Visible (ANSI)
100
AcDbLine
 10
173.0866719333392
 20
73.90641426406824
 30
0.0
 11
173.0283965862455
 21
73.87285572356528
 31
0.0
  0
LINE
  5
A10
330
6C
100
AcDbEntity
  8
Visible (ANSI)
100
AcDbLine
 10
173.180314058766
 20
73.84074033542659
 30
0.0
 11
173.5297242455632
 21
74.04195227993728
 31
0.0
  0
LINE
  5
A11
330
6C
100
AcDbEntity
  8
Visible (ANSI)
100
AcDbLine
 10
173.468957256555
 20
74.07694566159129
 30
0.0
 11
173.5297242455632
 21
74.04195227993728
 31
0.0
  0
POLYLINE
  5
A12
330
6C
100
AcDbEntity
  8
Visible (ANSI)
100
AcDb2dPolyline
 66
     1
 10
0.0
 20
0.0
 30
0.0
 70
   128
  0
VERTEX
  5
A13
330
A12
100
AcDbEntity
  8
Visible (ANSI)
100
AcDbVertex
100
AcDb2dVertex
 10
151.7903339276415
 20
86.10304247776735
 30
0.0
  0
VERTEX
  5
A14
330
A12
100
AcDbEntity
  8
Visible (ANSI)
100
AcDbVertex
100
AcDb2dVertex
 10
151.7916539365505
 20
86.10821313435371
 30
0.0
  0
VERTEX
  5
A16
330
A12
100
AcDbEntity
  8
Visible (ANSI)
100
AcDbVertex
100
AcDb2dVertex
 10
151.7932985161205
 20
86.11354706954504
 30
0.0
  0
VERTEX
  5
A17
330
A12
100
AcDbEntity
  8
Visible (ANSI)
100
AcDbVertex
100
AcDb2dVertex
 10
151.7952655787136
 20
86.11901606226416
 30
0.0
  0
VERTEX
  5
A18
330
A12
100
AcDbEntity
  8
Visible (ANSI)
100
AcDbVertex
100
AcDb2dVertex
 10
151.7975516620451
 20
86.12459785290683
 30
0.0
  0
VERTEX
  5
A19
330
A12
100
AcDbEntity
  8
Visible (ANSI)
100
AcDbVertex
100
AcDb2dVertex
 10
151.8001519234792
 20
86.13026265360636
 30
0.0
  0
VERTEX
  5
A1A
330
A12
100
AcDbEntity
  8
Visible (ANSI)
100
AcDbVertex
100
AcDb2dVertex
 10
151.8030601970691
 20
86.13597988817426
 30
0.0
  0
VERTEX
  5
A1B
330
A12
100
AcDbEntity
  8
Visible (ANSI)
100
AcDbVertex
100
AcDb2dVertex
 10
151.8062689707404
 20
86.14173173767493
 30
0.0
  0
VERTEX
  5
A1C
330
A12
100
AcDbEntity
  8
Visible (ANSI)
100
AcDbVertex
100
AcDb2dVertex
 10
151.8097694661467
 20
86.14748275156884
 30
0.0
  0
VERTEX
  5
A1D
330
A12
100
AcDbEntity
  8
Visible (ANSI)
100
AcDbVertex
100
AcDb2dVertex
 10
151.8135516614852
 20
86.15320689287644
 30
0.0
  0
VERTEX
  5
A1E
330
A12
100
AcDbEntity
  8
Visible (ANSI)
100
AcDbVertex
100
AcDb2dVertex
 10
151.8176042972002
 20
86.15888080809153
 30
0.0
  0
VERTEX
  5
A1F
330
A12
100
AcDbEntity
  8
Visible (ANSI)
100
AcDbVertex
100
AcDb2dVertex
 10
151.8219149900625
 20
86.16447034073081
 30
0.0
  0
VERTEX
  5
A20
330
A12
100
AcDbEntity
  8
Visible (ANSI)
100
AcDbVertex
100
AcDb2dVertex
 10
151.8264702274646
 20
86.16995759292105
 30
0.0
  0
VERTEX
  5
A21
330
A12
100
AcDbEntity
  8
Visible (ANSI)
100
AcDbVertex
100
AcDb2dVertex
 10
151.8312554672401
 20
86.17530716492984
 30
0.0
  0
VERTEX
  5
A22
330
A12
100
AcDbEntity
  8
Visible (ANSI)
100
AcDbVertex
100
AcDb2dVertex
 10
151.8362551661829
 20
86.1804999895399
 30
0.0
  0
VERTEX
  5
A23
330
A12
100
AcDbEntity
  8
Visible (ANSI)
100
AcDbVertex
100
AcDb2dVertex
 10
151.8414528770143
 20
86.18550632958628
 30
0.0
  0
VERTEX
  5
A24
330
A12
100
AcDbEntity
  8
Visible (ANSI)
100
AcDbVertex
100
AcDb2dVertex
 10
151.8468312997182
 20
86.19030608646404
 30
0.0
  0
VERTEX
  5
A25
330
A12
100
AcDbEntity
  8
Visible (ANSI)
100
AcDbVertex
100
AcDb2dVertex
 10
151.8523723499884
 20
86.19487197655436
 30
0.0
  0
VERTEX
  5
A26
330
A12
100
AcDbEntity
  8
Visible (ANSI)
100
AcDbVertex
100
AcDb2dVertex
 10
151.858057263325
 20
86.1991864344519
 30
0.0
  0
VERTEX
  5
A27
330
A12
100
AcDbEntity
  8
Visible (ANSI)
100
AcDbVertex
100
AcDb2dVertex
 10
151.8638666506481
 20
86.20322141202988
 30
0.0
  0
VERTEX
  5
A28
330
A12
100
AcDbEntity
  8
Visible (ANSI)
100
AcDbVertex
100
AcDb2dVertex
 10
151.8697806023941
 20
86.20696205445495
 30
0.0
  0
VERTEX
  5
A29
330
A12
100
AcDbEntity
  8
Visible (ANSI)
100
AcDbVertex
100
AcDb2dVertex
 10
151.8757787285326
 20
86.21038989308761
 30
0.0
  0
VERTEX
  5
A2A
330
A12
100
AcDbEntity
  8
Visible (ANSI)
100
AcDbVertex
100
AcDb2dVertex
 10
151.8818403110574
 20
86.21348285446394
 30
0.0
  0
VERTEX
  5
A2B
330
A12
100
AcDbEntity
  8
Visible (ANSI)
100
AcDbVertex
100
AcDb2dVertex
 10
151.8879443494395
 20
86.21622884518361
 30
0.0
  0
VERTEX
  5
A2C
330
A12
100
AcDbEntity
  8
Visible (ANSI)
100
AcDbVertex
100
AcDb2dVertex
 10
151.8940696609805
 20
86.21861229040232
 30
0.0
  0
SEQEND
  5
A15
330
A12
100
AcDbEntity
  8
Visible (ANSI)
  0
POLYLINE
  5
A2D
330
6C
100
AcDbEntity
  8
Visible (ANSI)
100
AcDb2dPolyline
 66
     1
 10
0.0
 20
0.0
 30
0.0
 70
   128
  0
VERTEX
  5
A2E
330
A2D
100
AcDbEntity
  8
Visible (ANSI)
100
AcDbVertex
100
AcDb2dVertex
 10
173.0765785287151
 20
74.02041670269595
 30
0.0
  0
VERTEX
  5
A2F
330
A2D
100
AcDbEntity
  8
Visible (ANSI)
100
AcDbVertex
100
AcDb2dVertex
 10
173.0727670729348
 20
74.016700796563
 30
0.0
  0
VERTEX
  5
A31
330
A2D
100
AcDbEntity
  8
Visible (ANSI)
100
AcDbVertex
100
AcDb2dVertex
 10
173.0689783505193
 20
74.01262150405251
 30
0.0
  0
VERTEX
  5
A32
330
A2D
100
AcDbEntity
  8
Visible (ANSI)
100
AcDbVertex
100
AcDb2dVertex
 10
173.0652320839611
 20
74.00819524088536
 30
0.0
  0
VERTEX
  5
A33
330
A2D
100
AcDbEntity
  8
Visible (ANSI)
100
AcDbVertex
100
AcDb2dVertex
 10
173.0615478135833
 20
74.00343494133847
 30
0.0
  0
VERTEX
  5
A34
330
A2D
100
AcDbEntity
  8
Visible (ANSI)
100
AcDbVertex
100
AcDb2dVertex
 10
173.0579491892117
 20
73.99836099055325
 30
0.0
  0
VERTEX
  5
A35
330
A2D
100
AcDbEntity
  8
Visible (ANSI)
100
AcDbVertex
100
AcDb2dVertex
 10
173.0544551178552
 20
73.99299271118443
 30
0.0
  0
VERTEX
  5
A36
330
A2D
100
AcDbEntity
  8
Visible (ANSI)
100
AcDbVertex
100
AcDb2dVertex
 10
173.0510840602794
 20
73.98734579237267
 30
0.0
  0
VERTEX
  5
A37
330
A2D
100
AcDbEntity
  8
Visible (ANSI)
100
AcDbVertex
100
AcDb2dVertex
 10
173.0478583259758
 20
73.98144660049151
 30
0.0
  0
VERTEX
  5
A38
330
A2D
100
AcDbEntity
  8
Visible (ANSI)
100
AcDbVertex
100
AcDb2dVertex
 10
173.0447937647365
 20
73.97531437941484
 30
0.0
  0
VERTEX
  5
A39
330
A2D
100
AcDbEntity
  8
Visible (ANSI)
100
AcDbVertex
100
AcDb2dVertex
 10
173.0419113698717
 20
73.96897473757765
 30
0.0
  0
VERTEX
  5
A3A
330
A2D
100
AcDbEntity
  8
Visible (ANSI)
100
AcDbVertex
100
AcDb2dVertex
 10
173.0392269868954
 20
73.96244861117676
 30
0.0
  0
VERTEX
  5
A3B
330
A2D
100
AcDbEntity
  8
Visible (ANSI)
100
AcDbVertex
100
AcDb2dVertex
 10
173.0367556085847
 20
73.95576657496907
 30
0.0
  0
VERTEX
  5
A3C
330
A2D
100
AcDbEntity
  8
Visible (ANSI)
100
AcDbVertex
100
AcDb2dVertex
 10
173.0345156871491
 20
73.948946020988
 30
0.0
  0
VERTEX
  5
A3D
330
A2D
100
AcDbEntity
  8
Visible (ANSI)
100
AcDbVertex
100
AcDb2dVertex
 10
173.0325188557516
 20
73.94202402414982
 30
0.0
  0
VERTEX
  5
A3E
330
A2D
100
AcDbEntity
  8
Visible (ANSI)
100
AcDbVertex
100
AcDb2dVertex
 10
173.0307815360031
 20
73.93501680714392
 30
0.0
  0
VERTEX
  5
A3F
330
A2D
100
AcDbEntity
  8
Visible (ANSI)
100
AcDbVertex
100
AcDb2dVertex
 10
173.0293146623351
 20
73.92795936076082
 30
0.0
  0
VERTEX
  5
A40
330
A2D
100
AcDbEntity
  8
Visible (ANSI)
100
AcDbVertex
100
AcDb2dVertex
 10
173.0281280226895
 20
73.92087588595266
 30
0.0
  0
VERTEX
  5
A41
330
A2D
100
AcDbEntity
  8
Visible (ANSI)
100
AcDbVertex
100
AcDb2dVertex
 10
173.0272345649848
 20
73.91379073466118
 30
0.0
  0
VERTEX
  5
A42
330
A2D
100
AcDbEntity
  8
Visible (ANSI)
100
AcDbVertex
100
AcDb2dVertex
 10
173.0266401528596
 20
73.90674103589436
 30
0.0
  0
VERTEX
  5
A43
330
A2D
100
AcDbEntity
  8
Visible (ANSI)
100
AcDbVertex
100
AcDb2dVertex
 10
173.026355207392
 20
73.89974293340403
 30
0.0
  0
VERTEX
  5
A44
330
A2D
100
AcDbEntity
  8
Visible (ANSI)
100
AcDbVertex
100
AcDb2dVertex
 10
173.0263844457311
 20
73.89282783768587
 30
0.0
  0
VERTEX
  5
A45
330
A2D
100
AcDbEntity
  8
Visible (ANSI)
100
AcDbVertex
100
AcDb2dVertex
 10
173.0267312388988
 20
73.88602638405249
 30
0.0
  0
VERTEX
  5
A46
330
A2D
100
AcDbEntity
  8
Visible (ANSI)
100
AcDbVertex
100
AcDb2dVertex
 10
173.0274019752954
 20
73.87935914707036
 30
0.0
  0
VERTEX
  5
A47
330
A2D
100
AcDbEntity
  8
Visible (ANSI)
100
AcDbVertex
100
AcDb2dVertex
 10
173.0283972880569
 20
73.87285518540849
 30
0.0
  0
SEQEND
  5
A30
330
A2D
100
AcDbEntity
  8
Visible (ANSI)
  0
LINE
  5
A48
330
6C
100
AcDbEntity
  8
Visible (ANSI)
100
AcDbLine
 10
173.0766648664082
 20
73.95020749059515
 30
0.0
 11
173.425988506555
 21
74.15136959620449
 31
0.0
  0
LINE
  5
A49
330
6C
100
AcDbEntity
  8
Visible (ANSI)
100
AcDbLine
 10
173.425988506555
 20
74.22162755224565
 30
0.0
 11
173.0765783197577
 21
74.02041560773497
 31
0.0
  0
LINE
  5
A4A
330
6C
100
AcDbEntity
  8
Visible (ANSI)
100
AcDbLine
 10
173.0765783197577
 20
73.9530384537699
 30
0.0
 11
173.0765783197577
 21
74.02041560773497
 31
0.0
  0
LINE
  5
A4B
330
6C
100
AcDbEntity
  8
Visible (ANSI)
100
AcDbLine
 10
173.425988506555
 20
74.15136959620449
 30
0.0
 11
173.425988506555
 21
74.22162755224565
 31
0.0
  0
POLYLINE
  5
A4C
330
6C
100
AcDbEntity
  8
Visible (ANSI)
100
AcDb2dPolyline
 66
     1
 10
0.0
 20
0.0
 30
0.0
 70
   128
  0
VERTEX
  5
A4D
330
A4C
100
AcDbEntity
  8
Visible (ANSI)
100
AcDbVertex
100
AcDb2dVertex
 10
173.0891642761524
 20
73.90784856653699
 30
0.0
  0
VERTEX
  5
A4E
330
A4C
100
AcDbEntity
  8
Visible (ANSI)
100
AcDbVertex
100
AcDb2dVertex
 10
173.0881314209643
 20
73.90952484141138
 30
0.0
  0
VERTEX
  5
A50
330
A4C
100
AcDbEntity
  8
Visible (ANSI)
100
AcDbVertex
100
AcDb2dVertex
 10
173.0871529763941
 20
73.91123244927682
 30
0.0
  0
VERTEX
  5
A51
330
A4C
100
AcDbEntity
  8
Visible (ANSI)
100
AcDbVertex
100
AcDb2dVertex
 10
173.0862301096446
 20
73.91296025090857
 30
0.0
  0
VERTEX
  5
A52
330
A4C
100
AcDbEntity
  8
Visible (ANSI)
100
AcDbVertex
100
AcDb2dVertex
 10
173.085359413089
 20
73.91470964749119
 30
0.0
  0
VERTEX
  5
A53
330
A4C
100
AcDbEntity
  8
Visible (ANSI)
100
AcDbVertex
100
AcDb2dVertex
 10
173.0845431275357
 20
73.91647181283492
 30
0.0
  0
VERTEX
  5
A54
330
A4C
100
AcDbEntity
  8
Visible (ANSI)
100
AcDbVertex
100
AcDb2dVertex
 10
173.0837774629692
 20
73.91824792792117
 30
0.0
  0
VERTEX
  5
A55
330
A4C
100
AcDbEntity
  8
Visible (ANSI)
100
AcDbVertex
100
AcDb2dVertex
 10
173.083064283371
 20
73.92002894956005
 30
0.0
  0
VERTEX
  5
A56
330
A4C
100
AcDbEntity
  8
Visible (ANSI)
100
AcDbVertex
100
AcDb2dVertex
 10
173.0823994287054
 20
73.92181584565259
 30
0.0
  0
VERTEX
  5
A57
330
A4C
100
AcDbEntity
  8
Visible (ANSI)
100
AcDbVertex
100
AcDb2dVertex
 10
173.0817844011556
 20
73.92359936466296
 30
0.0
  0
VERTEX
  5
A58
330
A4C
100
AcDbEntity
  8
Visible (ANSI)
100
AcDbVertex
100
AcDb2dVertex
 10
173.0812146886464
 20
73.92537689522663
 30
0.0
  0
VERTEX
  5
A59
330
A4C
100
AcDbEntity
  8
Visible (ANSI)
100
AcDbVertex
100
AcDb2dVertex
 10
173.0806914521057
 20
73.9271457423711
 30
0.0
  0
VERTEX
  5
A5A
330
A4C
100
AcDbEntity
  8
Visible (ANSI)
100
AcDbVertex
100
AcDb2dVertex
 10
173.080209849789
 20
73.92890310488801
 30
0.0
  0
VERTEX
  5
A5B
330
A4C
100
AcDbEntity
  8
Visible (ANSI)
100
AcDbVertex
100
AcDb2dVertex
 10
173.0797707267693
 20
73.9306393528367
 30
0.0
  0
VERTEX
  5
A5C
330
A4C
100
AcDbEntity
  8
Visible (ANSI)
100
AcDbVertex
100
AcDb2dVertex
 10
173.0793689395285
 20
73.93235488776865
 30
0.0
  0
VERTEX
  5
A5D
330
A4C
100
AcDbEntity
  8
Visible (ANSI)
100
AcDbVertex
100
AcDb2dVertex
 10
173.0790050463387
 20
73.93404329112536
 30
0.0
  0
VERTEX
  5
A5E
330
A4C
100
AcDbEntity
  8
Visible (ANSI)
100
AcDbVertex
100
AcDb2dVertex
 10
173.0786736345281
 20
73.9357048094627
 30
0.0
  0
VERTEX
  5
A5F
330
A4C
100
AcDbEntity
  8
Visible (ANSI)
100
AcDbVertex
100
AcDb2dVertex
 10
173.0783750089002
 20
73.93732950171984
 30
0.0
  0
VERTEX
  5
A60
330
A4C
100
AcDbEntity
  8
Visible (ANSI)
100
AcDbVertex
100
AcDb2dVertex
 10
173.0781035232786
 20
73.93892085652595
 30
0.0
  0
VERTEX
  5
A61
330
A4C
100
AcDbEntity
  8
Visible (ANSI)
100
AcDbVertex
100
AcDb2dVertex
 10
173.0778592675001
 20
73.94046880902904
 30
0.0
  0
VERTEX
  5
A62
330
A4C
100
AcDbEntity
  8
Visible (ANSI)
100
AcDbVertex
100
AcDb2dVertex
 10
173.0776363993158
 20
73.94197335840795
 30
0.0
  0
VERTEX
  5
A63
330
A4C
100
AcDbEntity
  8
Visible (ANSI)
100
AcDbVertex
100
AcDb2dVertex
 10
173.0774348353055
 20
73.94343109311799
 30
0.0
  0
VERTEX
  5
A64
330
A4C
100
AcDbEntity
  8
Visible (ANSI)
100
AcDbVertex
100
AcDb2dVertex
 10
173.0772485799272
 20
73.94483854752277
 30
0.0
  0
VERTEX
  5
A65
330
A4C
100
AcDbEntity
  8
Visible (ANSI)
100
AcDbVertex
100
AcDb2dVertex
 10
173.0770774171444
 20
73.94618885716927
 30
0.0
  0
VERTEX
  5
A66
330
A4C
100
AcDbEntity
  8
Visible (ANSI)
100
AcDbVertex
100
AcDb2dVertex
 10
173.0769152444665
 20
73.94748862445233
 30
0.0
  0
SEQEND
  5
A4F
330
A4C
100
AcDbEntity
  8
Visible (ANSI)
  0
LINE
  5
A67
330
6C
100
AcDbEntity
  8
Visible (ANSI)
100
AcDbLine
 10
151.8940696668779
 20
86.21861107171474
 30
0.0
 11
152.2434798536751
 21
86.4198230162254
 31
0.0
  0
POLYLINE
  5
A68
330
6C
100
AcDbEntity
  8
Visible (ANSI)
100
AcDb2dPolyline
 66
     1
 10
0.0
 20
0.0
 30
0.0
 70
   128
  0
VERTEX
  5
A69
330
A68
100
AcDbEntity
  8
Visible (ANSI)
100
AcDbVertex
100
AcDb2dVertex
 10
151.7903339276415
 20
54.80312319517508
 30
0.0
  0
VERTEX
  5
A6A
330
A68
100
AcDbEntity
  8
Visible (ANSI)
100
AcDbVertex
100
AcDb2dVertex
 10
151.7878892979049
 20
54.80524687250742
 30
0.0
  0
VERTEX
  5
A6C
330
A68
100
AcDbEntity
  8
Visible (ANSI)
100
AcDbVertex
100
AcDb2dVertex
 10
151.7855286185926
 20
54.80741583895234
 30
0.0
  0
VERTEX
  5
A6D
330
A68
100
AcDbEntity
  8
Visible (ANSI)
100
AcDbVertex
100
AcDb2dVertex
 10
151.7832544279528
 20
54.80962847511459
 30
0.0
  0
VERTEX
  5
A6E
330
A68
100
AcDbEntity
  8
Visible (ANSI)
100
AcDbVertex
100
AcDb2dVertex
 10
151.781069161563
 20
54.81188313539786
 30
0.0
  0
VERTEX
  5
A6F
330
A68
100
AcDbEntity
  8
Visible (ANSI)
100
AcDbVertex
100
AcDb2dVertex
 10
151.7789751466264
 20
54.81417811834096
 30
0.0
  0
VERTEX
  5
A70
330
A68
100
AcDbEntity
  8
Visible (ANSI)
100
AcDbVertex
100
AcDb2dVertex
 10
151.7769746418987
 20
54.81651168963594
 30
0.0
  0
VERTEX
  5
A71
330
A68
100
AcDbEntity
  8
Visible (ANSI)
100
AcDbVertex
100
AcDb2dVertex
 10
151.7750697749453
 20
54.81888206573017
 30
0.0
  0
VERTEX
  5
A72
330
A68
100
AcDbEntity
  8
Visible (ANSI)
100
AcDbVertex
100
AcDb2dVertex
 10
151.7732625934768
 20
54.82128741700925
 30
0.0
  0
VERTEX
  5
A73
330
A68
100
AcDbEntity
  8
Visible (ANSI)
100
AcDbVertex
100
AcDb2dVertex
 10
151.7715550311248
 20
54.82372588765777
 30
0.0
  0
VERTEX
  5
A74
330
A68
100
AcDbEntity
  8
Visible (ANSI)
100
AcDbVertex
100
AcDb2dVertex
 10
151.7699489131468
 20
54.82619558570339
 30
0.0
  0
VERTEX
  5
A75
330
A68
100
AcDbEntity
  8
Visible (ANSI)
100
AcDbVertex
100
AcDb2dVertex
 10
151.7684459621291
 20
54.82869457975772
 30
0.0
  0
VERTEX
  5
A76
330
A68
100
AcDbEntity
  8
Visible (ANSI)
100
AcDbVertex
100
AcDb2dVertex
 10
151.7670477951356
 20
54.83122092039211
 30
0.0
  0
VERTEX
  5
A77
330
A68
100
AcDbEntity
  8
Visible (ANSI)
100
AcDbVertex
100
AcDb2dVertex
 10
151.7657558951878
 20
54.83377260390443
 30
0.0
  0
VERTEX
  5
A78
330
A68
100
AcDbEntity
  8
Visible (ANSI)
100
AcDbVertex
100
AcDb2dVertex
 10
151.7645716540443
 20
54.83634762009954
 30
0.0
  0
VERTEX
  5
A79
330
A68
100
AcDbEntity
  8
Visible (ANSI)
100
AcDbVertex
100
AcDb2dVertex
 10
151.7634963379773
 20
54.83894392591015
 30
0.0
  0
VERTEX
  5
A7A
330
A68
100
AcDbEntity
  8
Visible (ANSI)
100
AcDbVertex
100
AcDb2dVertex
 10
151.7625310991805
 20
54.84155946513019
 30
0.0
  0
VERTEX
  5
A7B
330
A68
100
AcDbEntity
  8
Visible (ANSI)
100
AcDbVertex
100
AcDb2dVertex
 10
151.7616769757688
 20
54.84419215530176
 30
0.0
  0
VERTEX
  5
A7C
330
A68
100
AcDbEntity
  8
Visible (ANSI)
100
AcDbVertex
100
AcDb2dVertex
 10
151.760934871815
 20
54.84683987940144
 30
0.0
  0
VERTEX
  5
A7D
330
A68
100
AcDbEntity
  8
Visible (ANSI)
100
AcDbVertex
100
AcDb2dVertex
 10
151.7603055858691
 20
54.84950052540922
 30
0.0
  0
VERTEX
  5
A7E
330
A68
100
AcDbEntity
  8
Visible (ANSI)
100
AcDbVertex
100
AcDb2dVertex
 10
151.7597897995506
 20
54.85217196321389
 30
0.0
  0
VERTEX
  5
A7F
330
A68
100
AcDbEntity
  8
Visible (ANSI)
100
AcDbVertex
100
AcDb2dVertex
 10
151.7593880547328
 20
54.85485204792327
 30
0.0
  0
VERTEX
  5
A80
330
A68
100
AcDbEntity
  8
Visible (ANSI)
100
AcDbVertex
100
AcDb2dVertex
 10
151.7591007877662
 20
54.85753862974355
 30
0.0
  0
VERTEX
  5
A81
330
A68
100
AcDbEntity
  8
Visible (ANSI)
100
AcDbVertex
100
AcDb2dVertex
 10
151.7589283038109
 20
54.86022953909658
 30
0.0
  0
VERTEX
  5
A82
330
A68
100
AcDbEntity
  8
Visible (ANSI)
100
AcDbVertex
100
AcDb2dVertex
 10
151.7588707896708
 20
54.86292261551337
 30
0.0
  0
SEQEND
  5
A6B
330
A68
100
AcDbEntity
  8
Visible (ANSI)
  0
POLYLINE
  5
A83
330
6C
100
AcDbEntity
  8
Visible (ANSI)
100
AcDb2dPolyline
 66
     1
 10
0.0
 20
0.0
 30
0.0
 70
   128
  0
VERTEX
  5
A84
330
A83
100
AcDbEntity
  8
Visible (ANSI)
100
AcDbVertex
100
AcDb2dVertex
 10
151.7903339276415
 20
86.15841166220748
 30
0.0
  0
VERTEX
  5
A85
330
A83
100
AcDbEntity
  8
Visible (ANSI)
100
AcDbVertex
100
AcDb2dVertex
 10
151.7855286223692
 20
86.15679427184442
 30
0.0
  0
VERTEX
  5
A87
330
A83
100
AcDbEntity
  8
Visible (ANSI)
100
AcDbVertex
100
AcDb2dVertex
 10
151.7810691608055
 20
86.15500222413009
 30
0.0
  0
VERTEX
  5
A88
330
A83
100
AcDbEntity
  8
Visible (ANSI)
100
AcDbVertex
100
AcDb2dVertex
 10
151.7769746394032
 20
86.15305229529758
 30
0.0
  0
VERTEX
  5
A89
330
A83
100
AcDbEntity
  8
Visible (ANSI)
100
AcDbVertex
100
AcDb2dVertex
 10
151.7732625913378
 20
86.15095182238418
 30
0.0
  0
VERTEX
  5
A8A
330
A83
100
AcDbEntity
  8
Visible (ANSI)
100
AcDbVertex
100
AcDb2dVertex
 10
151.7699489127903
 20
86.14871890247897
 30
0.0
  0
VERTEX
  5
A8B
330
A83
100
AcDbEntity
  8
Visible (ANSI)
100
AcDbVertex
100
AcDb2dVertex
 10
151.7670477926401
 20
86.14637219868715
 30
0.0
  0
VERTEX
  5
A8C
330
A83
100
AcDbEntity
  8
Visible (ANSI)
100
AcDbVertex
100
AcDb2dVertex
 10
151.7645716540443
 20
86.14392074735807
 30
0.0
  0
VERTEX
  5
A8D
330
A83
100
AcDbEntity
  8
Visible (ANSI)
100
AcDbVertex
100
AcDb2dVertex
 10
151.7625311013194
 20
86.14138414926872
 30
0.0
  0
VERTEX
  5
A8E
330
A83
100
AcDbEntity
  8
Visible (ANSI)
100
AcDbVertex
100
AcDb2dVertex
 10
151.760934871815
 20
86.13877899099708
 30
0.0
  0
VERTEX
  5
A8F
330
A83
100
AcDbEntity
  8
Visible (ANSI)
100
AcDbVertex
100
AcDb2dVertex
 10
151.7597897966986
 20
86.13612553025498
 30
0.0
  0
VERTEX
  5
A90
330
A83
100
AcDbEntity
  8
Visible (ANSI)
100
AcDbVertex
100
AcDb2dVertex
 10
151.7591007863402
 20
86.133434117672
 30
0.0
  0
VERTEX
  5
A91
330
A83
100
AcDbEntity
  8
Visible (ANSI)
100
AcDbVertex
100
AcDb2dVertex
 10
151.7588707896708
 20
86.13072538089642
 30
0.0
  0
VERTEX
  5
A92
330
A83
100
AcDbEntity
  8
Visible (ANSI)
100
AcDbVertex
100
AcDb2dVertex
 10
151.7591007877662
 20
86.12802001983929
 30
0.0
  0
VERTEX
  5
A93
330
A83
100
AcDbEntity
  8
Visible (ANSI)
100
AcDbVertex
100
AcDb2dVertex
 10
151.7597897995506
 20
86.1253286080775
 30
0.0
  0
VERTEX
  5
A94
330
A83
100
AcDbEntity
  8
Visible (ANSI)
100
AcDbVertex
100
AcDb2dVertex
 10
151.760934871815
 20
86.12267177243809
 30
0.0
  0
VERTEX
  5
A95
330
A83
100
AcDbEntity
  8
Visible (ANSI)
100
AcDbVertex
100
AcDb2dVertex
 10
151.7625310991805
 20
86.12006998947434
 30
0.0
  0
VERTEX
  5
A96
330
A83
100
AcDbEntity
  8
Visible (ANSI)
100
AcDbVertex
100
AcDb2dVertex
 10
151.7645716540443
 20
86.11753339261673
 30
0.0
  0
VERTEX
  5
A97
330
A83
100
AcDbEntity
  8
Visible (ANSI)
100
AcDbVertex
100
AcDb2dVertex
 10
151.7670477951356
 20
86.11508194108237
 30
0.0
  0
VERTEX
  5
A98
330
A83
100
AcDbEntity
  8
Visible (ANSI)
100
AcDbVertex
100
AcDb2dVertex
 10
151.7699489131468
 20
86.11273523770114
 30
0.0
  0
VERTEX
  5
A99
330
A83
100
AcDbEntity
  8
Visible (ANSI)
100
AcDbVertex
100
AcDb2dVertex
 10
151.7732625934768
 20
86.11050231718007
 30
0.0
  0
VERTEX
  5
A9A
330
A83
100
AcDbEntity
  8
Visible (ANSI)
100
AcDbVertex
100
AcDb2dVertex
 10
151.7769746418987
 20
86.10840184457458
 30
0.0
  0
VERTEX
  5
A9B
330
A83
100
AcDbEntity
  8
Visible (ANSI)
100
AcDbVertex
100
AcDb2dVertex
 10
151.781069161563
 20
86.10644853850958
 30
0.0
  0
VERTEX
  5
A9C
330
A83
100
AcDbEntity
  8
Visible (ANSI)
100
AcDbVertex
100
AcDb2dVertex
 10
151.7855286185926
 20
86.10465986677674
 30
0.0
  0
VERTEX
  5
A9D
330
A83
100
AcDbEntity
  8
Visible (ANSI)
100
AcDbVertex
100
AcDb2dVertex
 10
151.7903339276415
 20
86.10304247776735
 30
0.0
  0
SEQEND
  5
A86
330
A83
100
AcDbEntity
  8
Visible (ANSI)
  0
LINE
  5
A9E
330
6C
100
AcDbEntity
  8
Visible (ANSI)
100
AcDbLine
 10
152.0850489083028
 20
55.02245034421537
 30
0.0
 11
152.2005111036751
 21
55.08894060044202
 31
0.0
  0
LINE
  5
A9F
330
6C
100
AcDbEntity
  8
Visible (ANSI)
100
AcDbLine
 10
151.8492222340317
 20
86.19232219779741
 30
0.0
 11
151.7903339278697
 21
86.1584106776428
 31
0.0
  0
LINE
  5
AA0
330
6C
100
AcDbEntity
  8
Visible (ANSI)
100
AcDbLine
 10
151.8096470605291
 20
86.14728898421821
 30
0.0
 11
151.7903339278697
 21
86.1584106776428
 31
0.0
  0
LINE
  5
AA1
330
6C
100
AcDbEntity
  8
Visible (ANSI)
100
AcDbLine
 10
173.1173560740568
 20
73.87740212574022
 30
0.0
 11
173.1221077447852
 21
73.87426010683693
 31
0.0
  0
LINE
  5
AA2
330
6C
100
AcDbEntity
  8
Visible (ANSI)
100
AcDbLine
 10
173.0765785287151
 20
73.95303785446293
 30
0.0
 11
173.0769152444665
 21
73.94748862445233
 31
0.0
  0
LINE
  5
AA3
330
6C
100
AcDbEntity
  8
Visible Narrow (ANSI)
100
AcDbLine
 10
151.7903339278697
 20
54.80312319531154
 30
0.0
 11
173.0283965862455
 21
42.57293630723039
 31
0.0
  0
LINE
  5
AA4
330
6C
100
AcDbEntity
  8
Visible Narrow (ANSI)
100
AcDbLine
 10
173.180314058766
 20
73.84074033542659
 30
0.0
 11
173.180314058766
 21
42.60505169536913
 31
0.0
  0
LINE
  5
AA5
330
6C
100
AcDbEntity
  8
Visible Narrow (ANSI)
100
AcDbLine
 10
173.0283965862455
 20
42.57293630723039
 30
0.0
 11
173.0283965862455
 21
73.87285572356528
 31
0.0
  0
LINE
  5
AA6
330
6C
100
AcDbEntity
  8
Visible Narrow (ANSI)
100
AcDbLine
 10
151.8940696668779
 20
86.21861107171474
 30
0.0
 11
173.0765783197577
 21
74.02041560773497
 31
0.0
  0
LINE
  5
AA7
330
6C
100
AcDbEntity
  8
Visible Narrow (ANSI)
100
AcDbLine
 10
173.0283965862455
 20
73.87285572356528
 30
0.0
 11
151.7903339278697
 21
86.10304261164644
 31
0.0
  0
LINE
  5
AA8
330
6C
100
AcDbEntity
  8
Visible Narrow (ANSI)
100
AcDbLine
 10
151.7903339278697
 20
86.10304261164644
 30
0.0
 11
151.7903339278697
 21
54.80312319531154
 31
0.0
  0
LINE
  5
AA9
330
6C
100
AcDbEntity
  8
Visible (ANSI)
100
AcDbLine
 10
151.8266083841688
 20
54.74575735748544
 30
0.0
 11
173.0368256507594
 21
42.53160556408225
 31
0.0
  0
LINE
  5
AAA
330
6C
100
AcDbEntity
  8
Visible (ANSI)
100
AcDbLine
 10
151.75887078913
 20
86.13072664464462
 30
0.0
 11
151.75887078913
 21
54.86292261644845
 31
0.0
  0
LINE
  5
AAB
330
6C
100
AcDbEntity
  8
Visible (ANSI)
100
AcDbLine
 10
172.8024019451653
 20
43.17542081980238
 30
0.0
 11
172.6029133660402
 21
43.29029865230446
 31
0.0
  0
LINE
  5
AAC
330
6C
100
AcDbEntity
  8
Visible (ANSI)
100
AcDbLine
 10
162.5327808027748
 20
49.08930231933233
 30
0.0
 11
162.3332922236496
 21
49.2041801518344
 31
0.0
  0
LINE
  5
AAD
330
6C
100
AcDbEntity
  8
Visible (ANSI)
100
AcDbLine
 10
152.2631596603842
 20
55.00318381886226
 30
0.0
 11
152.2434798536751
 21
55.01451666582879
 31
0.0
  0
LINE
  5
AAE
330
6C
100
AcDbEntity
  8
Visible (ANSI)
100
AcDbLine
 10
173.5297242455632
 20
74.04195227993728
 30
0.0
 11
173.5297242455632
 21
42.80626363987983
 31
0.0
  0
LINE
  5
AAF
330
6C
100
AcDbEntity
  8
Visible (ANSI)
100
AcDbLine
 10
152.2434798536751
 20
86.4198230162254
 30
0.0
 11
173.425988506555
 21
74.22162755224565
 31
0.0
  0
LINE
  5
AB0
330
6C
100
AcDbEntity
  8
Visible (ANSI)
100
AcDbLine
 10
152.2005111036751
 20
55.08894060044202
 30
0.0
 11
152.2005111036751
 21
55.11266739654481
 31
0.0
  0
LINE
  5
AB1
330
6C
100
AcDbEntity
  8
Visible (ANSI)
100
AcDbLine
 10
152.2005111036751
 20
64.50800694032533
 30
0.0
 11
152.2005111036751
 21
64.73800737418315
 31
0.0
  0
LINE
  5
AB2
330
6C
100
AcDbEntity
  8
Visible (ANSI)
100
AcDbLine
 10
152.2005111036751
 20
70.12864342361779
 30
0.0
 11
152.2005111036751
 21
70.35864385747562
 31
0.0
  0
LINE
  5
AB3
330
6C
100
AcDbEntity
  8
Visible (ANSI)
100
AcDbLine
 10
152.2005111036751
 20
85.37461988454857
 30
0.0
 11
152.2005111036751
 21
85.60462031840641
 31
0.0
  0
DIMENSION
  5
AB4
330
6C
100
AcDbEntity
  8
Dimension (ANSI)
100
AcDbDimension
280
     0
  2
*D11
 10
88.21006783754615
 20
59.4224781272601
 30
0.0
 11
96.59429289253097
 21
67.73954594351389
 31
0.0
 70
   163
  1
<>{\P(10 PL.)}
 42
0.5629999999999999
 73
     0
 74
     0
 75
     0
  3
Default (ANSI)
100
AcDbDiametricDimension
 15
88.43067885214614
 25
59.94045474858307
 35
0.0
 40
0.0
1001
ACAD_DSTYLE_DIMRADIAL_EXTENSION
1070
   387
1070
     1
1070
   388
1040
0.0
1070
   390
1040
0.0
1001
ACAD
1000
DSTYLE
1002
{
1070
   145
1040
-0.25
1070
   144
1040
1.00000000000002
1070
   271
1070
     3
1070
   272
1070
     2
1070
    48
1040
0.0
1070
    47
1040
0.0
1002
}
  0
MTEXT
  5
B6F
102
{ACAD_REACTORS
330
B70
102
}
330
6C
100
AcDbEntity
  8
Symbol (ANSI)
100
AcDbMText
 10
119.4502046012059
 20
45.33520578677221
 30
0.0
 40
1.320000016313838
 41
5.398735896808894
 46
0.0
 71
     3
 72
     1
  1
{10 GA.\P }
  7
Note Text (ANSI)
 73
     2
 44
0.9878841638565063
  0
LEADER
  5
B70
330
6C
100
AcDbEntity
  8
Symbol (ANSI)
100
AcDbLeader
  3
Default (ANSI)$7
 73
     0
 40
3.933345209096401
 41
5.030006745583289
 76
     3
 10
125.3333575491123
 20
40.00912505510914
 30
0.0
 10
121.0982821236691
 20
44.67367806477883
 30
0.0
 10
119.7966612941193
 20
44.6752057786153
 30
0.0
340
B6F
210
0.0
220
0.0
230
-1.0
213
0.0
223
-0.6600000081569191
233
0.0
1001
ACAD
1000
DSTYLE
1002
{
1070
    77
1070
     0
1002
}
  0
LINE
  5
B71
330
6C
100
AcDbEntity
  8
Center Mark (ANSI)
  6
Continuous
100
AcDbLine
 10
47.72687334484619
 20
86.80646643792163
 30
0.0
 11
44.41387334484619
 21
86.80646643792163
 31
0.0
  0
LINE
  5
B72
330
6C
100
AcDbEntity
  8
Center Mark (ANSI)
  6
Continuous
100
AcDbLine
 10
46.07037334484619
 20
88.46296643792163
 30
0.0
 11
46.07037334484619
 21
85.14996643792164
 31
0.0
  0
LINE
  5
B73
330
6C
100
AcDbEntity
  8
Center Mark (ANSI)
  6
Continuous
100
AcDbLine
 10
44.41387334484619
 20
32.55646643792164
 30
0.0
 11
47.72687334484619
 21
32.55646643792164
 31
0.0
  0
LINE
  5
B74
330
6C
100
AcDbEntity
  8
Center Mark (ANSI)
  6
Continuous
100
AcDbLine
 10
44.41387334484619
 20
86.80646643792163
 30
0.0
 11
47.72687334484619
 21
86.80646643792163
 31
0.0
  0
LINE
  5
B75
330
6C
100
AcDbEntity
  8
Centerline (ANSI)
  6
Continuous
100
AcDbLine
 10
46.07037334484619
 20
30.89996643792164
 30
0.0
 11
46.07037334484619
 21
88.46296643792163
 31
0.0
  0
LINE
  5
B76
330
6C
100
AcDbEntity
  8
Center Mark (ANSI)
  6
Continuous
100
AcDbLine
 10
68.85187334484619
 20
86.80646643792163
 30
0.0
 11
65.5388733448462
 21
86.80646643792163
 31
0.0
  0
LINE
  5
B77
330
6C
100
AcDbEntity
  8
Center Mark (ANSI)
  6
Continuous
100
AcDbLine
 10
68.85187334484619
 20
32.55646643792161
 30
0.0
 11
65.5388733448462
 21
32.55646643792161
 31
0.0
  0
LINE
  5
B78
330
6C
100
AcDbEntity
  8
Centerline (ANSI)
  6
Continuous
100
AcDbLine
 10
67.19537334484619
 20
88.46296643792163
 30
0.0
 11
67.19537334484619
 21
30.89996643792162
 31
0.0
  0
LINE
  5
B79
330
6C
100
AcDbEntity
  8
Center Mark (ANSI)
  6
Continuous
100
AcDbLine
 10
86.66387334484618
 20
32.55646643792162
 30
0.0
 11
89.97687334484616
 21
32.55646643792162
 31
0.0
  0
LINE
  5
B7A
330
6C
100
AcDbEntity
  8
Center Mark (ANSI)
  6
Continuous
100
AcDbLine
 10
86.66387334484618
 20
86.80646643792163
 30
0.0
 11
89.97687334484616
 21
86.80646643792163
 31
0.0
  0
LINE
  5
B7B
330
6C
100
AcDbEntity
  8
Centerline (ANSI)
  6
Continuous
100
AcDbLine
 10
88.32037334484617
 20
30.89996643792162
 30
0.0
 11
88.32037334484617
 21
88.46296643792163
 31
0.0
  0
LINE
  5
B7C
330
6C
100
AcDbEntity
  8
Center Mark (ANSI)
  6
Continuous
100
AcDbLine
 10
46.07037334484619
 20
61.33796643792162
 30
0.0
 11
46.07037334484619
 21
58.02496643792163
 31
0.0
  0
LINE
  5
B7D
330
6C
100
AcDbEntity
  8
Center Mark (ANSI)
  6
Continuous
100
AcDbLine
 10
88.32037334484617
 20
61.33796643792162
 30
0.0
 11
88.32037334484617
 21
58.02496643792162
 31
0.0
  0
LINE
  5
B7E
330
6C
100
AcDbEntity
  8
Centerline (ANSI)
  6
Continuous
100
AcDbLine
 10
44.41387334484619
 20
59.68146643792163
 30
0.0
 11
89.97687334484616
 21
59.68146643792162
 31
0.0
  0
LINE
  5
B7F
330
6C
100
AcDbEntity
  8
Center Mark (ANSI)
  6
Continuous
100
AcDbLine
 10
46.07037334484619
 20
34.21296643792164
 30
0.0
 11
46.07037334484619
 21
30.89996643792163
 31
0.0
  0
LINE
  5
B80
330
6C
100
AcDbEntity
  8
Center Mark (ANSI)
  6
Continuous
100
AcDbLine
 10
88.32037334484617
 20
34.21296643792162
 30
0.0
 11
88.32037334484617
 21
30.89996643792162
 31
0.0
  0
LINE
  5
B81
330
6C
100
AcDbEntity
  8
Centerline (ANSI)
  6
Continuous
100
AcDbLine
 10
44.41387334484619
 20
32.55646643792164
 30
0.0
 11
89.97687334484616
 21
32.55646643792162
 31
0.0
  0
LINE
  5
B82
330
6C
100
AcDbEntity
  8
Center Mark (ANSI)
  6
Continuous
100
AcDbLine
 10
46.07037334484619
 20
88.46296643792163
 30
0.0
 11
46.07037334484619
 21
85.14996643792164
 31
0.0
  0
LINE
  5
B83
330
6C
100
AcDbEntity
  8
Center Mark (ANSI)
  6
Continuous
100
AcDbLine
 10
88.32037334484617
 20
88.46296643792163
 30
0.0
 11
88.32037334484617
 21
85.14996643792164
 31
0.0
  0
LINE
  5
B84
330
6C
100
AcDbEntity
  8
Centerline (ANSI)
  6
Continuous
100
AcDbLine
 10
44.41387334484619
 20
86.80646643792163
 30
0.0
 11
89.97687334484616
 21
86.80646643792163
 31
0.0
  0
LINE
  5
B85
330
6C
100
AcDbEntity
  8
Center Mark (ANSI)
  6
Continuous
100
AcDbLine
 10
46.07037334484619
 20
51.33796643792163
 30
0.0
 11
46.07037334484619
 21
48.02496643792164
 31
0.0
  0
LINE
  5
B86
330
6C
100
AcDbEntity
  8
Center Mark (ANSI)
  6
Continuous
100
AcDbLine
 10
88.32037334484617
 20
51.33796643792162
 30
0.0
 11
88.32037334484617
 21
48.02496643792163
 31
0.0
  0
LINE
  5
B87
330
6C
100
AcDbEntity
  8
Centerline (ANSI)
  6
Continuous
100
AcDbLine
 10
44.41387334484619
 20
49.68146643792163
 30
0.0
 11
89.97687334484616
 21
49.68146643792163
 31
0.0
  0
DIMENSION
  5
B88
330
6C
100
AcDbEntity
  8
Dimension (ANSI)
100
AcDbDimension
280
     0
  2
*D12
 10
42.27980067388092
 20
32.55646643792164
 30
0.0
 11
39.15877961123833
 21
28.52449211321809
 31
0.0
 70
   160
  1
<>
 42
0.8750000000000071
 73
     0
 74
     0
 75
     0
  3
Default (ANSI)
100
AcDbAlignedDimension
 13
45.40876169249451
 23
31.68146643792163
 33
0.0
 14
44.41387334484619
 24
32.55646643792164
 34
0.0
 50
90.0
100
AcDbRotatedDimension
1001
ACAD
1000
DSTYLE
1002
{
1070
   289
1070
     1
1070
   271
1070
     2
1070
   272
1070
     2
1070
    48
1040
0.0
1070
    47
1040
0.0
1002
}
  0
DIMENSION
  5
C88
330
6C
100
AcDbEntity
  8
Dimension (ANSI)
100
AcDbDimension
280
     0
  2
*D13
 10
46.07037334484619
 20
91.15960486236918
 30
0.0
 11
40.43225650501304
 21
91.15960486236918
 31
0.0
 70
   160
  1
<>
 42
0.875
 73
     0
 74
     0
 75
     0
  3
Default (ANSI)
100
AcDbAlignedDimension
 13
45.1953733448462
 23
87.4680780902733
 33
0.0
 14
46.07037334484619
 24
88.46296643792163
 34
0.0
100
AcDbRotatedDimension
1001
ACAD
1000
DSTYLE
1002
{
1070
   289
1070
     1
1070
    73
1070
     0
1070
    74
1070
     0
1070
   271
1070
     2
1070
   272
1070
     2
1070
    48
1040
0.0
1070
    47
1040
0.0
1002
}
  0
DIMENSION
  5
D72
330
6C
100
AcDbEntity
  8
Dimension (ANSI)
100
AcDbDimension
280
     0
  2
*D14
 10
94.30758200626351
 20
49.68146643792163
 30
0.0
 11
94.3075820062635
 21
54.68146643792162
 31
0.0
 70
   160
  1
<>
 42
9.999999999999992
 73
     0
 74
     0
 75
     0
  3
Default (ANSI)
100
AcDbAlignedDimension
 13
89.97687334484616
 23
59.68146643792162
 33
0.0
 14
89.97687334484616
 24
49.68146643792163
 34
0.0
 50
270.0
100
AcDbRotatedDimension
1001
ACAD
1000
DSTYLE
1002
{
1070
   289
1070
     1
1070
   271
1070
     2
1070
   272
1070
     2
1070
    48
1040
0.0
1070
    47
1040
0.0
1002
}
  0
MTEXT
  5
E5C
102
{ACAD_XDICTIONARY
360
E63
102
}
330
6C
100
AcDbEntity
  8
Symbol (ANSI)
100
AcDbMText
 10
102.331582756146
 20
9.38288751833404
 30
0.0
 40
1.100000035105727
 41
81.21725818303628
 46
0.0
 71
     4
 72
     1
  3
{\fRomanS|b0|i0|c0|p2;\H2x;PART#: NPDD6048G\P(DATA SUBJECT TO CHANGE WITHOUT NOTICE)\H1.6157x; \H0.61894x;\P \H1.352x; \H0.73963x;\P\H0.6x;THIS DRAWING IS PROPERTY OF HUBBELL INC. WIEGMANN\H1.5633x; \H0.63966x;\PALL INFORMATION IS PROPRIETARY AND NOT
  1
 TO BE DUPLICATED\H1.234x; \H0.81039x;\P\H1.2571x; }
  7
Note Text (ANSI)
 73
     1
 44
0.8026435375213623
  0
ENDSEC
  0
SECTION
  2
OBJECTS
  0
DICTIONARY
  5
C
330
0
100
AcDbDictionary
281
     1
  3
ACAD_CIP_PREVIOUS_PRODUCT_INFO
350
E5E
  3
ACAD_COLOR
350
63
  3
ACAD_GROUP
350
D
  3
ACAD_LAYOUT
350
62
  3
ACAD_MATERIAL
350
10
  3
ACAD_MLEADERSTYLE
350
66
  3
ACAD_MLINESTYLE
350
5F
  3
ACAD_PLOTSETTINGS
350
61
  3
ACAD_PLOTSTYLENAME
350
E
  3
ACAD_SCALELIST
350
42
  3
ACAD_TABLESTYLE
350
64
  3
ACAD_VISUALSTYLE
350
29
  3
ACDB_RECOMPOSE_DATA
350
E65
  3
AcDbVariableDictionary
350
76
  0
DICTIONARY
  5
E63
330
E5C
100
AcDbDictionary
280
     1
281
     1
  3
ACAD_MTEXT_2008_RT
360
E64
  0
XRECORD
  5
E5E
102
{ACAD_REACTORS
330
C
102
}
330
C
100
AcDbXrecord
280
     1
300
INVNTOR
300
2012
300
PDSP_F_S
  0
DICTIONARY
  5
63
102
{ACAD_REACTORS
330
C
102
}
330
C
100
AcDbDictionary
281
     1
  0
DICTIONARY
  5
D
102
{ACAD_REACTORS
330
C
102
}
330
C
100
AcDbDictionary
281
     1
  0
DICTIONARY
  5
62
102
{ACAD_REACTORS
330
C
102
}
330
C
100
AcDbDictionary
281
     1
  3
Layout1
350
6B
  3
Layout2
350
73
  3
Model
350
6F
  0
DICTIONARY
  5
10
102
{ACAD_REACTORS
330
C
102
}
330
C
100
AcDbDictionary
281
     1
  3
ByBlock
350
19
  3
ByLayer
350
11
  3
Global
350
21
  0
DICTIONARY
  5
66
102
{ACAD_REACTORS
330
C
102
}
330
C
100
AcDbDictionary
281
     1
  3
Standard
350
67
  0
DICTIONARY
  5
5F
102
{ACAD_REACTORS
330
C
102
}
330
C
100
AcDbDictionary
281
     1
  3
Standard
350
60
  0
DICTIONARY
  5
61
102
{ACAD_REACTORS
330
C
102
}
330
C
100
AcDbDictionary
281
     1
  0
ACDBDICTIONARYWDFLT
  5
E
102
{ACAD_REACTORS
330
C
102
}
330
C
100
AcDbDictionary
281
     1
  3
Normal
350
F
100
AcDbDictionaryWithDefault
340
F
  0
DICTIONARY
  5
42
102
{ACAD_REACTORS
330
C
102
}
330
C
100
AcDbDictionary
281
     1
  3
A0
350
43
  3
A1
350
44
  3
A2
350
45
  3
A3
350
46
  3
A4
350
47
  3
A5
350
48
  3
A6
350
49
  3
A7
350
4A
  3
A8
350
4B
  3
A9
350
4C
  3
B0
350
4D
  3
B1
350
4E
  3
B2
350
4F
  3
B3
350
50
  3
B4
350
51
  3
B5
350
52
  3
B6
350
53
  0
DICTIONARY
  5
64
102
{ACAD_REACTORS
330
C
102
}
330
C
100
AcDbDictionary
281
     1
  3
Standard
350
65
  0
DICTIONARY
  5
29
102
{ACAD_REACTORS
330
C
102
}
330
C
100
AcDbDictionary
281
     1
  3
2dWireframe
350
2F
  3
Basic
350
2E
  3
Brighten
350
35
  3
ColorChange
350
39
  3
Conceptual
350
32
  3
Dim
350
34
  3
EdgeColorOff
350
41
  3
Facepattern
350
38
  3
Flat
350
2A
  3
FlatWithEdges
350
2B
  3
Gouraud
350
2C
  3
GouraudWithEdges
350
2D
  3
Hidden
350
31
  3
JitterOff
350
3F
  3
Linepattern
350
37
  3
OverhangOff
350
40
  3
Realistic
350
33
  3
Shaded
350
3E
  3
Shaded with edges
350
3D
  3
Shades of Gray
350
3A
  3
Sketchy
350
3B
  3
Thicken
350
36
  3
Wireframe
350
30
  3
X-Ray
350
3C
  0
XRECORD
  5
E65
102
{ACAD_REACTORS
330
C
102
}
330
C
100
AcDbXrecord
280
     1
 90
        1
330
65
330
E5C
  0
DICTIONARY
  5
76
102
{ACAD_REACTORS
330
C
102
}
330
C
100
AcDbDictionary
281
     1
  3
CANNOSCALE
350
79
  3
CMLEADERSTYLE
350
78
  3
CTABLESTYLE
350
77
  0
XRECORD
  5
E64
102
{ACAD_REACTORS
330
E63
102
}
330
E63
100
AcDbXrecord
280
     1
 40
3089146.0
  1
\pxsm0.94;{\fRomanS|b0|i0;\H2.2000;PART#: NPDD6048G\P(DATA SUBJECT TO CHANGE WITHOUT NOTICE)\P \P\fRomanS|b0|i0;\H1.3200;THIS DRAWING IS PROPERTY OF HUBBELL INC. WIEGMANN\PALL INFORMATION IS PROPRIETARY AND NOT TO BE DUPLICATED\P}
  0
LAYOUT
  5
6B
102
{ACAD_REACTORS
330
62
102
}
330
62
100
AcDbPlotSettings
  1

  2

  4

  6

 40
0.0
 41
0.0
 42
0.0
 43
0.0
 44
0.0
 45
0.0
 46
0.0
 47
0.0
 48
0.0
 49
0.0
140
0.0
141
0.0
142
1.0
143
1.0
 70
   688
 72
     0
 73
     0
 74
     5
  7

 75
    16
147
1.0
 76
     0
 77
     2
 78
   300
148
0.0
149
0.0
100
AcDbLayout
  1
Layout1
 70
     1
 71
     1
 10
0.0
 20
0.0
 11
12.0
 21
9.0
 12
0.0
 22
0.0
 32
0.0
 14
0.0
 24
0.0
 34
0.0
 15
0.0
 25
0.0
 35
0.0
146
0.0
 13
0.0
 23
0.0
 33
0.0
 16
1.0
 26
0.0
 36
0.0
 17
0.0
 27
1.0
 37
0.0
 76
     0
330
68
  0
LAYOUT
  5
73
102
{ACAD_REACTORS
330
62
102
}
330
62
100
AcDbPlotSettings
  1

  2

  4

  6

 40
0.0
 41
0.0
 42
0.0
 43
0.0
 44
0.0
 45
0.0
 46
0.0
 47
0.0
 48
0.0
 49
0.0
140
0.0
141
0.0
142
1.0
143
1.0
 70
   688
 72
     0
 73
     0
 74
     5
  7

 75
    16
147
1.0
 76
     0
 77
     2
 78
   300
148
0.0
149
0.0
100
AcDbLayout
  1
Layout2
 70
     1
 71
     2
 10
0.0
 20
0.0
 11
12.0
 21
9.0
 12
0.0
 22
0.0
 32
0.0
 14
0.0
 24
0.0
 34
0.0
 15
0.0
 25
0.0
 35
0.0
146
0.0
 13
0.0
 23
0.0
 33
0.0
 16
1.0
 26
0.0
 36
0.0
 17
0.0
 27
1.0
 37
0.0
 76
     0
330
70
  0
LAYOUT
  5
6F
102
{ACAD_REACTORS
330
62
102
}
330
62
100
AcDbPlotSettings
  1

  2

  4

  6

 40
0.0
 41
0.0
 42
0.0
 43
0.0
 44
0.0
 45
0.0
 46
0.0
 47
0.0
 48
0.0
 49
0.0
140
0.0
141
0.0
142
1.0
143
1.0
 70
  1712
 72
     0
 73
     0
 74
     0
  7

 75
     0
147
1.0
 76
     0
 77
     2
 78
   300
148
0.0
149
0.0
100
AcDbLayout
  1
Model
 70
     1
 71
     0
 10
0.0
 20
0.0
 11
12.0
 21
9.0
 12
0.0
 22
0.0
 32
0.0
 14
0.0
 24
0.0
 34
0.0
 15
0.0
 25
0.0
 35
0.0
146
0.0
 13
0.0
 23
0.0
 33
0.0
 16
1.0
 26
0.0
 36
0.0
 17
0.0
 27
1.0
 37
0.0
 76
     0
330
6C
  0
MATERIAL
  5
19
102
{ACAD_XDICTIONARY
360
1A
102
}
102
{ACAD_REACTORS
330
10
102
}
330
10
100
AcDbMaterial
  1
ByBlock
 72
     0
 43
0.0208333333333333
 43
0.0
 43
0.0
 43
0.0
 43
0.0
 43
0.0208333333333333
 43
0.0
 43
0.0
 43
0.0
 43
0.0
 43
1.0
 43
0.0
 43
0.0
 43
0.0
 43
0.0
 43
1.0
 77
     0
 47
0.0208333333333333
 47
0.0
 47
0.0
 47
0.0
 47
0.0
 47
0.0208333333333333
 47
0.0
 47
0.0
 47
0.0
 47
0.0
 47
1.0
 47
0.0
 47
0.0
 47
0.0
 47
0.0
 47
1.0
171
     0
 49
0.0208333333333333
 49
0.0
 49
0.0
 49
0.0
 49
0.0
 49
0.0208333333333333
 49
0.0
 49
0.0
 49
0.0
 49
0.0
 49
1.0
 49
0.0
 49
0.0
 49
0.0
 49
0.0
 49
1.0
175
     0
142
0.0208333333333333
142
0.0
142
0.0
142
0.0
142
0.0
142
0.0208333333333333
142
0.0
142
0.0
142
0.0
142
0.0
142
1.0
142
0.0
142
0.0
142
0.0
142
0.0
142
1.0
179
     0
144
0.0208333333333333
144
0.0
144
0.0
144
0.0
144
0.0
144
0.0208333333333333
144
0.0
144
0.0
144
0.0
144
0.0
144
1.0
144
0.0
144
0.0
144
0.0
144
0.0
144
1.0
147
0.0208333333333333
147
0.0
147
0.0
147
0.0
147
0.0
147
0.0208333333333333
147
0.0
147
0.0
147
0.0
147
0.0
147
1.0
147
0.0
147
0.0
147
0.0
147
0.0
147
1.0
  0
MATERIAL
  5
11
102
{ACAD_XDICTIONARY
360
12
102
}
102
{ACAD_REACTORS
330
10
102
}
330
10
100
AcDbMaterial
  1
ByLayer
 72
     0
 43
0.0208333333333333
 43
0.0
 43
0.0
 43
0.0
 43
0.0
 43
0.0208333333333333
 43
0.0
 43
0.0
 43
0.0
 43
0.0
 43
1.0
 43
0.0
 43
0.0
 43
0.0
 43
0.0
 43
1.0
 77
     0
 47
0.0208333333333333
 47
0.0
 47
0.0
 47
0.0
 47
0.0
 47
0.0208333333333333
 47
0.0
 47
0.0
 47
0.0
 47
0.0
 47
1.0
 47
0.0
 47
0.0
 47
0.0
 47
0.0
 47
1.0
171
     0
 49
0.0208333333333333
 49
0.0
 49
0.0
 49
0.0
 49
0.0
 49
0.0208333333333333
 49
0.0
 49
0.0
 49
0.0
 49
0.0
 49
1.0
 49
0.0
 49
0.0
 49
0.0
 49
0.0
 49
1.0
175
     0
142
0.0208333333333333
142
0.0
142
0.0
142
0.0
142
0.0
142
0.0208333333333333
142
0.0
142
0.0
142
0.0
142
0.0
142
1.0
142
0.0
142
0.0
142
0.0
142
0.0
142
1.0
179
     0
144
0.0208333333333333
144
0.0
144
0.0
144
0.0
144
0.0
144
0.0208333333333333
144
0.0
144
0.0
144
0.0
144
0.0
144
1.0
144
0.0
144
0.0
144
0.0
144
0.0
144
1.0
147
0.0208333333333333
147
0.0
147
0.0
147
0.0
147
0.0
147
0.0208333333333333
147
0.0
147
0.0
147
0.0
147
0.0
147
1.0
147
0.0
147
0.0
147
0.0
147
0.0
147
1.0
  0
MATERIAL
  5
21
102
{ACAD_XDICTIONARY
360
22
102
}
102
{ACAD_REACTORS
330
10
102
}
330
10
100
AcDbMaterial
  1
Global
 72
     0
 43
0.0208333333333333
 43
0.0
 43
0.0
 43
0.0
 43
0.0
 43
0.0208333333333333
 43
0.0
 43
0.0
 43
0.0
 43
0.0
 43
1.0
 43
0.0
 43
0.0
 43
0.0
 43
0.0
 43
1.0
 77
     0
 47
0.0208333333333333
 47
0.0
 47
0.0
 47
0.0
 47
0.0
 47
0.0208333333333333
 47
0.0
 47
0.0
 47
0.0
 47
0.0
 47
1.0
 47
0.0
 47
0.0
 47
0.0
 47
0.0
 47
1.0
171
     0
 49
0.0208333333333333
 49
0.0
 49
0.0
 49
0.0
 49
0.0
 49
0.0208333333333333
 49
0.0
 49
0.0
 49
0.0
 49
0.0
 49
1.0
 49
0.0
 49
0.0
 49
0.0
 49
0.0
 49
1.0
175
     0
142
0.0208333333333333
142
0.0
142
0.0
142
0.0
142
0.0
142
0.0208333333333333
142
0.0
142
0.0
142
0.0
142
0.0
142
1.0
142
0.0
142
0.0
142
0.0
142
0.0
142
1.0
179
     0
144
0.0208333333333333
144
0.0
144
0.0
144
0.0
144
0.0
144
0.0208333333333333
144
0.0
144
0.0
144
0.0
144
0.0
144
1.0
144
0.0
144
0.0
144
0.0
144
0.0
144
1.0
147
0.0208333333333333
147
0.0
147
0.0
147
0.0
147
0.0
147
0.0208333333333333
147
0.0
147
0.0
147
0.0
147
0.0
147
1.0
147
0.0
147
0.0
147
0.0
147
0.0
147
1.0
  0
MLEADERSTYLE
  5
67
102
{ACAD_XDICTIONARY
360
E61
102
}
102
{ACAD_REACTORS
330
66
102
}
330
66
100
AcDbMLeaderStyle
179
     2
170
     2
171
     1
172
     0
 90
        2
 40
0.0
 41
0.0
173
     1
 91
-1056964608
340
5B
 92
       -2
290
     1
 42
0.09
291
     1
 43
0.36
  3
Standard
 44
0.18
300

342
55
174
     1
178
     6
175
     1
176
     0
 93
-1056964608
 45
0.18
292
     0
297
     0
 46
0.18
 94
-1056964608
 47
1.0
 49
1.0
140
1.0
293
     1
141
0.0
294
     1
177
     0
142
1.0
295
     0
296
     0
143
0.125
271
     0
272
     9
273
     9
  0
MLINESTYLE
  5
60
102
{ACAD_REACTORS
330
5F
102
}
330
5F
100
AcDbMlineStyle
  2
STANDARD
 70
     0
  3

 62
   256
 51
90.0
 52
90.0
 71
     2
 49
0.5
 62
   256
  6
BYLAYER
 49
-0.5
 62
   256
  6
BYLAYER
  0
ACDBPLACEHOLDER
  5
F
102
{ACAD_REACTORS
330
E
102
}
330
E
  0
SCALE
  5
43
102
{ACAD_REACTORS
330
42
102
}
330
42
100
AcDbScale
 70
     0
300
1:1
140
1.0
141
1.0
290
     1
  0
SCALE
  5
44
102
{ACAD_REACTORS
330
42
102
}
330
42
100
AcDbScale
 70
     0
300
1/128" = 1'-0"
140
0.0078125
141
12.0
290
     0
  0
SCALE
  5
45
102
{ACAD_REACTORS
330
42
102
}
330
42
100
AcDbScale
 70
     0
300
1/64" = 1'-0"
140
0.015625
141
12.0
290
     0
  0
SCALE
  5
46
102
{ACAD_REACTORS
330
42
102
}
330
42
100
AcDbScale
 70
     0
300
1/32" = 1'-0"
140
0.03125
141
12.0
290
     0
  0
SCALE
  5
47
102
{ACAD_REACTORS
330
42
102
}
330
42
100
AcDbScale
 70
     0
300
1/16" = 1'-0"
140
0.0625
141
12.0
290
     0
  0
SCALE
  5
48
102
{ACAD_REACTORS
330
42
102
}
330
42
100
AcDbScale
 70
     0
300
3/32" = 1'-0"
140
0.09375
141
12.0
290
     0
  0
SCALE
  5
49
102
{ACAD_REACTORS
330
42
102
}
330
42
100
AcDbScale
 70
     0
300
1/8" = 1'-0"
140
0.125
141
12.0
290
     0
  0
SCALE
  5
4A
102
{ACAD_REACTORS
330
42
102
}
330
42
100
AcDbScale
 70
     0
300
3/16" = 1'-0"
140
0.1875
141
12.0
290
     0
  0
SCALE
  5
4B
102
{ACAD_REACTORS
330
42
102
}
330
42
100
AcDbScale
 70
     0
300
1/4" = 1'-0"
140
0.25
141
12.0
290
     0
  0
SCALE
  5
4C
102
{ACAD_REACTORS
330
42
102
}
330
42
100
AcDbScale
 70
     0
300
3/8" = 1'-0"
140
0.375
141
12.0
290
     0
  0
SCALE
  5
4D
102
{ACAD_REACTORS
330
42
102
}
330
42
100
AcDbScale
 70
     0
300
1/2" = 1'-0"
140
0.5
141
12.0
290
     0
  0
SCALE
  5
4E
102
{ACAD_REACTORS
330
42
102
}
330
42
100
AcDbScale
 70
     0
300
3/4" = 1'-0"
140
0.75
141
12.0
290
     0
  0
SCALE
  5
4F
102
{ACAD_REACTORS
330
42
102
}
330
42
100
AcDbScale
 70
     0
300
1" = 1'-0"
140
1.0
141
12.0
290
     0
  0
SCALE
  5
50
102
{ACAD_REACTORS
330
42
102
}
330
42
100
AcDbScale
 70
     0
300
1-1/2" = 1'-0"
140
1.5
141
12.0
290
     0
  0
SCALE
  5
51
102
{ACAD_REACTORS
330
42
102
}
330
42
100
AcDbScale
 70
     0
300
3" = 1'-0"
140
3.0
141
12.0
290
     0
  0
SCALE
  5
52
102
{ACAD_REACTORS
330
42
102
}
330
42
100
AcDbScale
 70
     0
300
6" = 1'-0"
140
6.0
141
12.0
290
     0
  0
SCALE
  5
53
102
{ACAD_REACTORS
330
42
102
}
330
42
100
AcDbScale
 70
     0
300
1'-0" = 1'-0"
140
12.0
141
12.0
290
     0
  0
TABLESTYLE
  5
65
102
{ACAD_XDICTIONARY
360
E5F
102
}
102
{ACAD_REACTORS
330
64
102
}
330
64
100
AcDbTableStyle
280
     0
  3
Standard
 70
     0
 71
     0
 40
0.06
 41
0.06
280
     0
281
     0
  7
Standard
140
0.18
170
     2
 62
     0
 63
     7
283
     0
 90
      512
 91
        0
  1

274
    -2
284
     1
 64
     0
275
    -2
285
     1
 65
     0
276
    -2
286
     1
 66
     0
277
    -2
287
     1
 67
     0
278
    -2
288
     1
 68
     0
279
    -2
289
     1
 69
     0
  7
Standard
140
0.25
170
     5
 62
     0
 63
     7
283
     0
 90
      512
 91
        0
  1

274
    -2
284
     1
 64
     0
275
    -2
285
     1
 65
     0
276
    -2
286
     1
 66
     0
277
    -2
287
     1
 67
     0
278
    -2
288
     1
 68
     0
279
    -2
289
     1
 69
     0
  7
Standard
140
0.18
170
     5
 62
     0
 63
     7
283
     0
 90
      512
 91
        0
  1

274
    -2
284
     1
 64
     0
275
    -2
285
     1
 65
     0
276
    -2
286
     1
 66
     0
277
    -2
287
     1
 67
     0
278
    -2
288
     1
 68
     0
279
    -2
289
     1
 69
     0
  0
VISUALSTYLE
  5
2F
102
{ACAD_REACTORS
330
29
102
}
330
29
100
AcDbVisualStyle
  2
2dWireframe
 70
     4
177
     2
291
     0
 71
     0
176
     1
 72
     2
176
     1
 73
     0
176
     1
 90
        0
176
     1
 40
0.6
176
     1
 41
30.0
176
     1
 63
     7
421
 16777215
176
     1
 74
     1
176
     1
 91
        4
176
     1
 64
     7
176
     1
 65
   257
176
     1
 75
     1
176
     1
175
     1
176
     1
 42
1.0
176
     1
 92
        0
176
     1
 66
   257
176
     1
 43
1.0
176
     1
 76
     1
176
     1
 77
     6
176
     1
 78
     2
176
     1
 67
     7
176
     1
 79
     5
176
     1
170
     0
176
     1
171
     0
176
     1
290
     0
176
     1
 93
        1
176
     1
 44
0.0
176
     1
173
     0
176
     1
  0
VISUALSTYLE
  5
2E
102
{ACAD_REACTORS
330
29
102
}
330
29
100
AcDbVisualStyle
  2
Basic
 70
     7
177
     2
291
     1
 71
     1
176
     1
 72
     0
176
     1
 73
     1
176
     1
 90
        0
176
     1
 40
0.6
176
     1
 41
30.0
176
     1
 63
     7
421
 16777215
176
     1
 74
     0
176
     1
 91
        4
176
     1
 64
     7
176
     1
 65
   257
176
     1
 75
     1
176
     1
175
     1
176
     1
 42
1.0
176
     1
 92
        8
176
     1
 66
     7
176
     1
 43
1.0
176
     1
 76
     1
176
     1
 77
     6
176
     1
 78
     2
176
     1
 67
     7
176
     1
 79
     5
176
     1
170
     0
176
     1
171
     0
176
     1
290
     0
176
     1
 93
        1
176
     1
 44
0.0
176
     1
173
     0
176
     1
  0
VISUALSTYLE
  5
35
102
{ACAD_REACTORS
330
29
102
}
330
29
100
AcDbVisualStyle
  2
Brighten
 70
    12
177
     2
291
     1
 71
     2
176
     1
 72
     2
176
     1
 73
     0
176
     1
 90
        0
176
     1
 40
0.6
176
     1
 41
30.0
176
     1
 63
     7
421
 16777215
176
     1
 74
     1
176
     1
 91
        4
176
     1
 64
     7
176
     1
 65
   257
176
     1
 75
     1
176
     1
175
     1
176
     1
 42
1.0
176
     1
 92
        8
176
     1
 66
     7
176
     1
 43
1.0
176
     1
 76
     1
176
     1
 77
     6
176
     1
 78
     2
176
     1
 67
     7
176
     1
 79
     5
176
     1
170
     0
176
     1
171
     0
176
     1
290
     0
176
     1
 93
        1
176
     1
 44
50.0
176
     1
173
     0
176
     1
  0
VISUALSTYLE
  5
39
102
{ACAD_REACTORS
330
29
102
}
330
29
100
AcDbVisualStyle
  2
ColorChange
 70
    16
177
     2
291
     1
 71
     2
176
     1
 72
     2
176
     1
 73
     3
176
     1
 90
        0
176
     1
 40
0.6
176
     1
 41
30.0
176
     1
 63
     8
421
  8421504
176
     1
 74
     1
176
     1
 91
        4
176
     1
 64
     7
176
     1
 65
   257
176
     1
 75
     1
176
     1
175
     1
176
     1
 42
1.0
176
     1
 92
        8
176
     1
 66
     8
424
  8421504
176
     1
 43
1.0
176
     1
 76
     1
176
     1
 77
     6
176
     1
 78
     2
176
     1
 67
     7
176
     1
 79
     5
176
     1
170
     0
176
     1
171
     0
176
     1
290
     0
176
     1
 93
        1
176
     1
 44
0.0
176
     1
173
     0
176
     1
  0
VISUALSTYLE
  5
32
102
{ACAD_REACTORS
330
29
102
}
330
29
100
AcDbVisualStyle
  2
Conceptual
 70
     9
177
     2
291
     0
 71
     3
176
     1
 72
     2
176
     1
 73
     0
176
     1
 90
        0
176
     1
 40
0.6
176
     1
 41
30.0
176
     1
 63
     7
421
 16777215
176
     1
 74
     2
176
     1
 91
        2
176
     1
 64
     7
176
     1
 65
   257
176
     1
 75
     1
176
     1
175
     1
176
     1
 42
179.0
176
     1
 92
        8
176
     1
 66
     7
176
     1
 43
1.0
176
     1
 76
     1
176
     1
 77
     6
176
     1
 78
     2
176
     1
 67
     7
176
     1
 79
     3
176
     1
170
     0
176
     1
171
     0
176
     1
290
     0
176
     1
 93
        1
176
     1
 44
0.0
176
     1
173
     0
176
     1
  0
VISUALSTYLE
  5
34
102
{ACAD_REACTORS
330
29
102
}
330
29
100
AcDbVisualStyle
  2
Dim
 70
    11
177
     2
291
     1
 71
     2
176
     1
 72
     2
176
     1
 73
     0
176
     1
 90
        0
176
     1
 40
0.6
176
     1
 41
30.0
176
     1
 63
     7
421
 16777215
176
     1
 74
     1
176
     1
 91
        4
176
     1
 64
     7
176
     1
 65
   257
176
     1
 75
     1
176
     1
175
     1
176
     1
 42
1.0
176
     1
 92
        8
176
     1
 66
     7
176
     1
 43
1.0
176
     1
 76
     1
176
     1
 77
     6
176
     1
 78
     2
176
     1
 67
     7
176
     1
 79
     5
176
     1
170
     0
176
     1
171
     0
176
     1
290
     0
176
     1
 93
        1
176
     1
 44
-50.0
176
     1
173
     0
176
     1
  0
VISUALSTYLE
  5
41
102
{ACAD_REACTORS
330
29
102
}
330
29
100
AcDbVisualStyle
  2
EdgeColorOff
 70
    22
177
     2
291
     1
 71
     2
176
     0
 72
     2
176
     0
 73
     0
176
     0
 90
        0
176
     0
 40
0.6
176
     0
 41
30.0
176
     0
 63
     7
421
 16777215
176
     0
 74
     1
176
     0
 91
        4
176
     0
 64
     7
176
     0
 65
   257
176
     0
 75
     1
176
     0
175
     1
176
     0
 42
1.0
176
     0
 92
        8
176
     2
 66
     7
176
     0
 43
1.0
176
     0
 76
     1
176
     0
 77
     6
176
     0
 78
     2
176
     0
 67
     7
176
     0
 79
     5
176
     0
170
     0
176
     0
171
     0
176
     0
290
     0
176
     0
 93
        1
176
     0
 44
0.0
176
     0
173
     0
176
     0
  0
VISUALSTYLE
  5
38
102
{ACAD_REACTORS
330
29
102
}
330
29
100
AcDbVisualStyle
  2
Facepattern
 70
    15
177
     2
291
     1
 71
     2
176
     1
 72
     2
176
     1
 73
     0
176
     1
 90
        0
176
     1
 40
0.6
176
     1
 41
30.0
176
     1
 63
     7
421
 16777215
176
     1
 74
     1
176
     1
 91
        4
176
     1
 64
     7
176
     1
 65
   257
176
     1
 75
     1
176
     1
175
     1
176
     1
 42
1.0
176
     1
 92
        8
176
     1
 66
     7
176
     1
 43
1.0
176
     1
 76
     1
176
     1
 77
     6
176
     1
 78
     2
176
     1
 67
     7
176
     1
 79
     5
176
     1
170
     0
176
     1
171
     0
176
     1
290
     0
176
     1
 93
        1
176
     1
 44
0.0
176
     1
173
     0
176
     1
  0
VISUALSTYLE
  5
2A
102
{ACAD_REACTORS
330
29
102
}
330
29
100
AcDbVisualStyle
  2
Flat
 70
     0
177
     2
291
     1
 71
     2
176
     1
 72
     1
176
     1
 73
     1
176
     1
 90
        2
176
     1
 40
0.6
176
     1
 41
30.0
176
     1
 63
     7
421
 16777215
176
     1
 74
     0
176
     1
 91
        0
176
     1
 64
     7
176
     1
 65
   257
176
     1
 75
     1
176
     1
175
     1
176
     1
 42
1.0
176
     1
 92
        8
176
     1
 66
     7
176
     1
 43
1.0
176
     1
 76
     1
176
     1
 77
     6
176
     1
 78
     2
176
     1
 67
     7
176
     1
 79
     5
176
     1
170
     0
176
     1
171
     0
176
     1
290
     0
176
     1
 93
       13
176
     1
 44
0.0
176
     1
173
     0
176
     1
  0
VISUALSTYLE
  5
2B
102
{ACAD_REACTORS
330
29
102
}
330
29
100
AcDbVisualStyle
  2
FlatWithEdges
 70
     1
177
     2
291
     1
 71
     2
176
     1
 72
     1
176
     1
 73
     1
176
     1
 90
        2
176
     1
 40
0.6
176
     1
 41
30.0
176
     1
 63
     7
421
 16777215
176
     1
 74
     1
176
     1
 91
        0
176
     1
 64
     7
176
     1
 65
   257
176
     1
 75
     1
176
     1
175
     1
176
     1
 42
1.0
176
     1
 92
        0
176
     1
 66
   257
176
     1
 43
1.0
176
     1
 76
     1
176
     1
 77
     6
176
     1
 78
     2
176
     1
 67
     7
176
     1
 79
     5
176
     1
170
     0
176
     1
171
     0
176
     1
290
     0
176
     1
 93
       13
176
     1
 44
0.0
176
     1
173
     0
176
     1
  0
VISUALSTYLE
  5
2C
102
{ACAD_REACTORS
330
29
102
}
330
29
100
AcDbVisualStyle
  2
Gouraud
 70
     2
177
     2
291
     1
 71
     2
176
     1
 72
     2
176
     1
 73
     1
176
     1
 90
        2
176
     1
 40
0.6
176
     1
 41
30.0
176
     1
 63
     7
421
 16777215
176
     1
 74
     0
176
     1
 91
        0
176
     1
 64
     7
176
     1
 65
   257
176
     1
 75
     1
176
     1
175
     1
176
     1
 42
1.0
176
     1
 92
        0
176
     1
 66
     7
176
     1
 43
1.0
176
     1
 76
     1
176
     1
 77
     6
176
     1
 78
     2
176
     1
 67
     7
176
     1
 79
     5
176
     1
170
     0
176
     1
171
     0
176
     1
290
     0
176
     1
 93
       13
176
     1
 44
0.0
176
     1
173
     0
176
     1
  0
VISUALSTYLE
  5
2D
102
{ACAD_REACTORS
330
29
102
}
330
29
100
AcDbVisualStyle
  2
GouraudWithEdges
 70
     3
177
     2
291
     1
 71
     2
176
     1
 72
     2
176
     1
 73
     1
176
     1
 90
        2
176
     1
 40
0.6
176
     1
 41
30.0
176
     1
 63
     7
421
 16777215
176
     1
 74
     1
176
     1
 91
        0
176
     1
 64
     7
176
     1
 65
   257
176
     1
 75
     1
176
     1
175
     1
176
     1
 42
1.0
176
     1
 92
        0
176
     1
 66
   257
176
     1
 43
1.0
176
     1
 76
     1
176
     1
 77
     6
176
     1
 78
     2
176
     1
 67
     7
176
     1
 79
     5
176
     1
170
     0
176
     1
171
     0
176
     1
290
     0
176
     1
 93
       13
176
     1
 44
0.0
176
     1
173
     0
176
     1
  0
VISUALSTYLE
  5
31
102
{ACAD_REACTORS
330
29
102
}
330
29
100
AcDbVisualStyle
  2
Hidden
 70
     6
177
     2
291
     0
 71
     1
176
     1
 72
     2
176
     1
 73
     2
176
     1
 90
        0
176
     1
 40
0.6
176
     1
 41
30.0
176
     1
 63
     7
421
 16777215
176
     1
 74
     2
176
     1
 91
        2
176
     1
 64
     7
176
     1
 65
   257
176
     1
 75
     2
176
     1
175
     1
176
     1
 42
40.0
176
     1
 92
        0
176
     1
 66
   257
176
     1
 43
1.0
176
     1
 76
     1
176
     1
 77
     6
176
     1
 78
     2
176
     1
 67
     7
176
     1
 79
     3
176
     1
170
     0
176
     1
171
     0
176
     1
290
     0
176
     1
 93
        1
176
     1
 44
0.0
176
     1
173
     0
176
     1
  0
VISUALSTYLE
  5
3F
102
{ACAD_REACTORS
330
29
102
}
330
29
100
AcDbVisualStyle
  2
JitterOff
 70
    20
177
     2
291
     1
 71
     2
176
     0
 72
     2
176
     0
 73
     0
176
     0
 90
        0
176
     0
 40
0.6
176
     0
 41
30.0
176
     0
 63
     7
421
 16777215
176
     0
 74
     1
176
     0
 91
        4
176
     0
 64
     7
176
     0
 65
   257
176
     0
 75
     1
176
     0
175
     1
176
     0
 42
1.0
176
     0
 92
       10
176
     2
 66
     7
176
     0
 43
1.0
176
     0
 76
     1
176
     0
 77
     6
176
     0
 78
     2
176
     0
 67
     7
176
     0
 79
     5
176
     0
170
     0
176
     0
171
     0
176
     0
290
     0
176
     0
 93
        1
176
     0
 44
0.0
176
     0
173
     0
176
     0
  0
VISUALSTYLE
  5
37
102
{ACAD_REACTORS
330
29
102
}
330
29
100
AcDbVisualStyle
  2
Linepattern
 70
    14
177
     2
291
     1
 71
     2
176
     1
 72
     2
176
     1
 73
     0
176
     1
 90
        0
176
     1
 40
0.6
176
     1
 41
30.0
176
     1
 63
     7
421
 16777215
176
     1
 74
     1
176
     1
 91
        4
176
     1
 64
     7
176
     1
 65
   257
176
     1
 75
     7
176
     1
175
     7
176
     1
 42
1.0
176
     1
 92
        8
176
     1
 66
     7
176
     1
 43
1.0
176
     1
 76
     1
176
     1
 77
     6
176
     1
 78
     2
176
     1
 67
     7
176
     1
 79
     5
176
     1
170
     0
176
     1
171
     0
176
     1
290
     0
176
     1
 93
        1
176
     1
 44
0.0
176
     1
173
     0
176
     1
  0
VISUALSTYLE
  5
40
102
{ACAD_REACTORS
330
29
102
}
330
29
100
AcDbVisualStyle
  2
OverhangOff
 70
    21
177
     2
291
     1
 71
     2
176
     0
 72
     2
176
     0
 73
     0
176
     0
 90
        0
176
     0
 40
0.6
176
     0
 41
30.0
176
     0
 63
     7
421
 16777215
176
     0
 74
     1
176
     0
 91
        4
176
     0
 64
     7
176
     0
 65
   257
176
     0
 75
     1
176
     0
175
     1
176
     0
 42
1.0
176
     0
 92
        9
176
     2
 66
     7
176
     0
 43
1.0
176
     0
 76
     1
176
     0
 77
     6
176
     0
 78
     2
176
     0
 67
     7
176
     0
 79
     5
176
     0
170
     0
176
     0
171
     0
176
     0
290
     0
176
     0
 93
        1
176
     0
 44
0.0
176
     0
173
     0
176
     0
  0
VISUALSTYLE
  5
33
102
{ACAD_REACTORS
330
29
102
}
330
29
100
AcDbVisualStyle
  2
Realistic
 70
     8
177
     2
291
     0
 71
     2
176
     1
 72
     3
176
     1
 73
     0
176
     1
 90
        2
176
     1
 40
0.6
176
     1
 41
30.0
176
     1
 63
     7
421
 16777215
176
     1
 74
     0
176
     1
 91
        0
176
     1
 64
     7
176
     1
 65
   257
176
     1
 75
     1
176
     1
175
     1
176
     1
 42
1.0
176
     1
 92
        8
176
     1
 66
   257
176
     1
 43
1.0
176
     1
 76
     1
176
     1
 77
     6
176
     1
 78
     2
176
     1
 67
     7
176
     1
 79
     3
176
     1
170
     0
176
     1
171
     0
176
     1
290
     0
176
     1
 93
       13
176
     1
 44
0.0
176
     1
173
     0
176
     1
  0
VISUALSTYLE
  5
3E
102
{ACAD_REACTORS
330
29
102
}
330
29
100
AcDbVisualStyle
  2
Shaded
 70
    27
177
     2
291
     0
 71
     2
176
     1
 72
     2
176
     1
 73
     1
176
     1
 90
        2
176
     1
 40
0.6
176
     1
 41
30.0
176
     1
 63
     7
421
 16777215
176
     1
 74
     0
176
     1
 91
        4
176
     1
 64
     7
176
     1
 65
   257
176
     1
 75
     1
176
     1
175
     1
176
     1
 42
1.0
176
     1
 92
        8
176
     1
 66
   257
176
     1
 43
1.0
176
     1
 76
     1
176
     1
 77
     6
176
     1
 78
     2
176
     1
 67
     8
425
  7895160
176
     1
 79
     3
176
     1
170
     0
176
     1
171
     0
176
     1
290
     0
176
     1
 93
        5
176
     1
 44
0.0
176
     1
173
     0
176
     1
  0
VISUALSTYLE
  5
3D
102
{ACAD_REACTORS
330
29
102
}
330
29
100
AcDbVisualStyle
  2
Shaded with edges
 70
    26
177
     2
291
     0
 71
     2
176
     1
 72
     2
176
     1
 73
     1
176
     1
 90
        2
176
     1
 40
0.6
176
     1
 41
30.0
176
     1
 63
     7
421
 16777215
176
     1
 74
     1
176
     1
 91
       10
176
     1
 64
     7
176
     1
 65
   257
176
     1
 75
     2
176
     1
175
     1
176
     1
 42
1.0
176
     1
 92
        8
176
     1
 66
   257
176
     1
 43
1.0
176
     1
 76
     1
176
     1
 77
     6
176
     1
 78
     2
176
     1
 67
     7
176
     1
 79
     3
176
     1
170
     0
176
     1
171
     0
176
     1
290
     0
176
     1
 93
        5
176
     1
 44
0.0
176
     1
173
     0
176
     1
  0
VISUALSTYLE
  5
3A
102
{ACAD_REACTORS
330
29
102
}
330
29
100
AcDbVisualStyle
  2
Shades of Gray
 70
    23
177
     2
291
     0
 71
     2
176
     1
 72
     2
176
     1
 73
     3
176
     1
 90
        0
176
     1
 40
0.6
176
     1
 41
30.0
176
     1
 63
     7
421
 16777215
176
     1
 74
     2
176
     1
 91
        2
176
     1
 64
     7
176
     1
 65
     7
176
     1
 75
     1
176
     1
175
     1
176
     1
 42
40.0
176
     1
 92
        8
176
     1
 66
     7
176
     1
 43
1.0
176
     1
 76
     1
176
     1
 77
     6
176
     1
 78
     2
176
     1
 67
     7
176
     1
 79
     3
176
     1
170
     0
176
     1
171
     0
176
     1
290
     0
176
     1
 93
        1
176
     1
 44
0.0
176
     1
173
     0
176
     1
  0
VISUALSTYLE
  5
3B
102
{ACAD_REACTORS
330
29
102
}
330
29
100
AcDbVisualStyle
  2
Sketchy
 70
    24
177
     2
291
     0
 71
     1
176
     1
 72
     2
176
     1
 73
     2
176
     1
 90
        0
176
     1
 40
0.6
176
     1
 41
30.0
176
     1
 63
     7
421
 16777215
176
     1
 74
     2
176
     1
 91
        2
176
     1
 64
     7
176
     1
 65
     7
176
     1
 75
     1
176
     1
175
     1
176
     1
 42
40.0
176
     1
 92
       11
176
     1
 66
     7
176
     1
 43
1.0
176
     1
 76
     1
176
     1
 77
     6
176
     1
 78
     2
176
     1
 67
     7
176
     1
 79
     6
176
     1
170
     0
176
     1
171
     0
176
     1
290
     0
176
     1
 93
        1
176
     1
 44
0.0
176
     1
173
     0
176
     1
  0
VISUALSTYLE
  5
36
102
{ACAD_REACTORS
330
29
102
}
330
29
100
AcDbVisualStyle
  2
Thicken
 70
    13
177
     2
291
     1
 71
     2
176
     1
 72
     2
176
     1
 73
     0
176
     1
 90
        0
176
     1
 40
0.6
176
     1
 41
30.0
176
     1
 63
     7
421
 16777215
176
     1
 74
     1
176
     1
 91
        4
176
     1
 64
     7
176
     1
 65
   257
176
     1
 75
     1
176
     1
175
     1
176
     1
 42
1.0
176
     1
 92
       12
176
     1
 66
     7
176
     1
 43
1.0
176
     1
 76
     1
176
     1
 77
     6
176
     1
 78
     2
176
     1
 67
     7
176
     1
 79
     5
176
     1
170
     0
176
     1
171
     0
176
     1
290
     0
176
     1
 93
        1
176
     1
 44
0.0
176
     1
173
     0
176
     1
  0
VISUALSTYLE
  5
30
102
{ACAD_REACTORS
330
29
102
}
330
29
100
AcDbVisualStyle
  2
Wireframe
 70
     5
177
     2
291
     0
 71
     0
176
     1
 72
     2
176
     1
 73
     0
176
     1
 90
        0
176
     1
 40
0.6
176
     1
 41
30.0
176
     1
 63
     7
421
 16777215
176
     1
 74
     1
176
     1
 91
        4
176
     1
 64
     7
176
     1
 65
   257
176
     1
 75
     1
176
     1
175
     1
176
     1
 42
1.0
176
     1
 92
        0
176
     1
 66
   257
176
     1
 43
1.0
176
     1
 76
     1
176
     1
 77
     6
176
     1
 78
     2
176
     1
 67
     7
176
     1
 79
     3
176
     1
170
     0
176
     1
171
     0
176
     1
290
     0
176
     1
 93
        1
176
     1
 44
0.0
176
     1
173
     0
176
     1
  0
VISUALSTYLE
  5
3C
102
{ACAD_REACTORS
330
29
102
}
330
29
100
AcDbVisualStyle
  2
X-Ray
 70
    25
177
     2
291
     0
 71
     2
176
     1
 72
     2
176
     1
 73
     1
176
     1
 90
        1
176
     1
 40
0.5
176
     1
 41
30.0
176
     1
 63
     7
421
 16777215
176
     1
 74
     1
176
     1
 91
        0
176
     1
 64
     7
176
     1
 65
   257
176
     1
 75
     1
176
     1
175
     1
176
     1
 42
1.0
176
     1
 92
        8
176
     1
 66
     7
176
     1
 43
1.0
176
     1
 76
     1
176
     1
 77
     6
176
     1
 78
     2
176
     1
 67
     7
176
     1
 79
     3
176
     1
170
     0
176
     1
171
     0
176
     1
290
     0
176
     1
 93
       13
176
     1
 44
0.0
176
     1
173
     0
176
     1
  0
DICTIONARYVAR
  5
79
102
{ACAD_REACTORS
330
76
102
}
330
76
100
DictionaryVariables
280
     0
  1
1:1
  0
DICTIONARYVAR
  5
78
102
{ACAD_REACTORS
330
76
102
}
330
76
100
DictionaryVariables
280
     0
  1
STANDARD
  0
DICTIONARYVAR
  5
77
102
{ACAD_REACTORS
330
76
102
}
330
76
100
DictionaryVariables
280
     0
  1
STANDARD
  0
DICTIONARY
  5
1A
330
19
100
AcDbDictionary
280
     1
281
     1
  3
BUMPTILE
360
1C
  3
DIFFUSETILE
360
1B
  3
OPACITYTILE
360
1F
  3
REFLECTIONTILE
360
1E
  3
REFRACTIONTILE
360
20
  3
SPECULARTILE
360
1D
  0
DICTIONARY
  5
12
330
11
100
AcDbDictionary
280
     1
281
     1
  3
BUMPTILE
360
14
  3
DIFFUSETILE
360
13
  3
FBXASSET
360
109
  3
OPACITYTILE
360
17
  3
REFLECTIONTILE
360
16
  3
REFRACTIONTILE
360
18
  3
SPECULARTILE
360
15
  0
DICTIONARY
  5
22
330
21
100
AcDbDictionary
280
     1
281
     1
  3
BUMPTILE
360
24
  3
DIFFUSETILE
360
23
  3
FBXASSET
360
BA
  3
OPACITYTILE
360
27
  3
REFLECTIONTILE
360
26
  3
REFRACTIONTILE
360
28
  3
SPECULARTILE
360
25
  0
DICTIONARY
  5
E61
330
67
100
AcDbDictionary
280
     1
281
     1
  3
ACAD_XREC_ROUNDTRIP
360
E62
  0
DICTIONARY
  5
E5F
330
65
100
AcDbDictionary
280
     1
281
     1
  3
ACAD_ROUNDTRIP_2008_TABLESTYLE_CELLSTYLEMAP
360
E60
  0
XRECORD
  5
1C
102
{ACAD_REACTORS
330
1A
102
}
330
1A
100
AcDbXrecord
280
     1
270
     1
271
     1
  0
XRECORD
  5
1B
102
{ACAD_REACTORS
330
1A
102
}
330
1A
100
AcDbXrecord
280
     1
270
     1
271
     1
  0
XRECORD
  5
1F
102
{ACAD_REACTORS
330
1A
102
}
330
1A
100
AcDbXrecord
280
     1
270
     1
271
     1
  0
XRECORD
  5
1E
102
{ACAD_REACTORS
330
1A
102
}
330
1A
100
AcDbXrecord
280
     1
270
     1
271
     1
  0
XRECORD
  5
20
102
{ACAD_REACTORS
330
1A
102
}
330
1A
100
AcDbXrecord
280
     1
270
     1
271
     1
  0
XRECORD
  5
1D
102
{ACAD_REACTORS
330
1A
102
}
330
1A
100
AcDbXrecord
280
     1
270
     1
271
     1
  0
XRECORD
  5
14
102
{ACAD_REACTORS
330
12
102
}
330
12
100
AcDbXrecord
280
     1
270
     1
271
     1
  0
XRECORD
  5
13
102
{ACAD_REACTORS
330
12
102
}
330
12
100
AcDbXrecord
280
     1
270
     1
271
     1
  0
XRECORD
  5
109
102
{ACAD_REACTORS
330
12
102
}
330
12
100
AcDbXrecord
280
     1
 70
     1
 90
1959938040
 71
     1
  1
924378D7-A2ED-4078-83BF-0397E4FB5EF2
311
504B03040A0000080000B751E9423DEE336E79000000790000001B0000006175746F6465736B2D64657369676E2D7061636B6167652E786D6C3C3F786D6C2076657273696F6E3D22312E302220656E636F64696E673D227574662D3822203F3E3C666F726D6174733E3C666F726D61743E687474703A2F2F736368656D612E
311
6175746F6465736B2E636F6D2F64657369676E2D7061636B6167652F323030393C2F666F726D61743E3C2F666F726D6174733E504B0304140006080800B751E942D486FD9CA0000000F4000000130000005B436F6E74656E745F54797065735D2E786D6C7D8EC10E82300C865F65E91D8A1E8C310C0EEA1BF002731658846E
311
D98AC1B77784ABF1D8FE5FBFBF75BBCE937A534CCEB38643598122B6FEE978D0B0485F9C41B54DDD7D022595594E1A469170414C76A4D9A4D207E29CF43ECE46F218070CC6BECC4078ACAA135ACF422C856C0E68EA1BF5669944DDD7BCDE7B1F8E415D77AECB980613C2E4AC91FC167A2B244592486606FC29C8FD7F045B9A
311
EF7053A7E60B504B0304140006080800B751E9424EA304F0EA0000007C01000008000000636F72652E786D6C8D90D18E832010457F85CCEB0605B56B6B90C6D8FA05FB0304A825AD600436FBF9C5D626BB6FFBC24C2EF7CC4C2E3BFE4C77F4AD176F9C6D81660490B6D22963C71662B8E03DA023678B73E1970D9015936E61
311
9581B3717171DE24E96CD03624D53AA5375178AF0320794F4D0B5E5EF52432114372F85B360B7913A3CEE8BB4B708C46A1D712A3D23C73317A015E94677AAA0F3D1EBAF454B4A2B8EBCE1D2643D7F77D31ECEBD327CB5798B360A6F77EB96811B44A3CA125263526872F4A1A5A3655FD41764D4958BEDAFF407156FF84A2B1
311
A12CB6735F98074ED321CF0FCEF2358B549E41A5BAE6C61F504B0304140006080800B751E94255019EA25F0000007C00000007000000636E782E786D6C4DCB3B0E80201045D1AD90E915ED2CF8AC45050C11660C8261F98AB1B07AC9C97D42D718D865D3E909258CFD00CCE24AC6E326A164D74DC0B4128928FF326038472B
311
A13128B1252AC747C6BAB984FC68F0B87FE8960A5C09FE86CFB69FBA01504B0304140006080800B751E9428823305A66010000020300000C0000006662782F636F72652E786D6C8D52ED8E8320107C15C2DF8B02D5BB7E84D218DB3EC1BD0055EA912A1804D3C7BFF5A3E9F5D2348D0992999DDDD951BEBB3635EA95EBB435
311
5BCC628A9132852DB5A9B638F873B4C26827B8B3D6FF29C3C8C8466DF10063C12B67433B4385355E190FA8B1A59A41D975CA6354D470D9E2AEF8518D8C65F050D15DE256161759A998C540439DE09D7760004D4386138BF3E9CAC9840B1E822E675697304D9FB572582C9203DB2FD77974CCE04859CAA22C3B64113D66799E
311
2F8EABE5FE8B93412CB8D7CDCD5DE194F4AA043D65494497115D7F33BA61C9265D7ED0CF4D423919CA1F44A12DDF14056D7CB298ED4EB20E0B064646E2DFB61091479DECC10F119C0C21C26B4CF83168080442F6F254DFF6B800D4ABC25B970253DA70A77A59070553291A1F4E26163A8F0D60B3A77D162FFABCEE011F509A
311
0AAC490FD753F0C3743E4D9DA368958B7A7F45C6BA46D6777393C5FB791FF4545ED8DABA77D4645E95CC6192E1EF15BF504B0304140006080800B751E942441805DA7E0000009D0000000B0000006662782F636E782E786D6C4DCCD10A83201886E15B91FFDC95AE7F3850A356BB8F581692E9703A76F9ABD1C18E3E78F878
311
65FD591D799BF8B2C12B60A71288F18F305A3F2BC869A20248AD650C21FDDD80F861350A76062DE718F2F3A0D14C4376695367FD72203BF72890338A9C37B4EA3B4EAFDD052936F796B5A22AF1C6A0D0B2F895B6DDC3FA0B504B0304140006080800B751E9424232A4C82C01000014020000310000006662782F3133453538
311
3532312D353232412D344544322D394436352D3541464231423834303543312F636F72652E786D6C8D515B6EC23010BC4AE42FAACA899DC404906304859EA01708B6010B62477E541CBF9B2648ED1F3F5E6B766676B4CBB78FFE9E7D6B1F8CB32DA2394199B6D229632F2D4AF18C5728DB0AEE9D8B7F6828B35DAF5B34C248
311
F08B77699821E96CD436026A9DD233D885A023CAE41D3E2D0AF2AAFB2EEF520446B8E543276FDD45E7348736F0040FD143806C1A32BE48D0EAC856ACA49895E50ED7C74389D78725C36CF7B9A7FB554DD807E5C524143C25A366B95110C79C8DF6AF9A8C62C1A3E99FF1A5D75DD40A8992D00A930693F517251B5A6DEAE69D
311
B04D457831D2FF89D2A05E1425636355CE71275980ACBC981A822B974EF76718FD189C8FD9386F11B47C4382E484968CAD9B8617131516009ECB7AF60CD17958F0E27602366593F1B216BC186F04E5F78050C77B8A1F504B0304140006080800B751E942434975A84F01000033030000300000006662782F31334535383532
311
312D353232412D344544322D394436352D3541464231423834303543312F636E782E786D6CD593BD6E032110845F05D146F797BBD889C56129459E20455A0C6B9B9883133F51FCF6596CECB87191320D3ACD0E33AB4F1C5B7F4F867C810FDAD99176754B0958E994B6BB91A6B8AD9E295973E69D8B37364AAC9860A459A69C
311
EDBC4B7391146C45321155A3EDA1881E824B5E424039DF24C6496130006C95508469034A812257237E6DC1E32A286E8E24EE81BCBD7E10B7F90419036B720A674DEEE02C9FA5E9C644893422849106B98749D42245A7201C6A25A2A8BBFAD27567A7DF24922F5C2A93D724978F349F94978D6AE4C81A1C7216A2477AC5148F
311
33502EE6D9682922426E4EC6B387B3A46D5C0CC5AB11BC4777B7E88701C34E33CEA29EA038A407114151FED8767DD52EABF6E5BD6B575DBF1A960FEDD3AA6F5993ED9C6D9C33E512C680773391CE46B091F28E35797C0F5FF111A53DB276FEF8079008A0B49EE95C33FE339FE6F4BE1197C7BF80FF00504B03041400060808
311
00B751E942FB5ADCC7A505000081100000340000006662782F31334535383532312D353232412D344544322D394436352D3541464231423834303543312F6F626A656374732E786D6CAD57D96EDB3814FD1541F332F3E045B6D3380345456CC785D1A62D6AB4980703062D510A27D402924A9DF9FA3914295972EDD433E88B
311
162E97F79E7BEE42FFED3EE5CE331592E5D9ADEBF587AE43B3308F5896DCBAA58A7B53D7791BF822CF556B99EB6424A5B7AE1E76033F117959D8A188C6A4E4EA687439FBCB9121CDA8EB849C4879EBCAF091A6A44F4A9547543EF523A2483F89F77DAF6F1676C52682148F47420B2268A6A029C63348718C525EF777E80E02
311
7FA0E7035F3FEDAAF1F95583CA9EEEF92C938A64E10F871D89197B93C5FDE8EAA67735998C7B933723AF375BCE163DEF7A3C9CBF99CF6FEEEE6F70B0540292AC2682C66EF00ED80816FA033315F825CBD478649758070D047D66DA536E30723C7F60D634D659234FA91FE65946C30A2BA051D9674547B4A059049F332AA159
311
0BA161F7D7D338B6A6C7FADF1ED91EBE0C81F68E96A05AF7FADDD634DFFD0D13E4250C12926A061A2CADA186ABC303C2BB3CE7768E4927258A0A46B8C3D94E10F1E20658AA97047E478C66B2D0D1A02D700378C14C77E98230FA39CF4F6919979C6B1ABB4115055BC40A55B2D28CFD43C541FB3632D009BED26C985A83D44B
311
41DDE0C650647AC42603A4137392C0E53053EF1C8F8E0C9DEB385D2DDCE0FD72B75FEBD83D7D7821F2820AA5E9036AD58EABDF1A25AB937791E7F406F7489503285F80FC4784FA4115F84DB0FD643FB1A728413219E722856F9CA1D31BE23174BCEAA9BF5B5FFEA0D9DCF5DE393CE16C0DD52FC0B36B43DB972D3803FF1984
311
CFC5D89AB60E0947DA78601900D22471788E21E4E178B7778315B21CB23276111E783019EA3EE3D31F58314814D549AD77062C8FD2E205091AB0558C841A86FC56C1839F7E4867D5C176D93978AF7E095DEF16EBF7EB52C424A40F36A61734661953287107DEB415EA60DEB1E889BE7CCF4504437FC47BDDC63BB54749A0AD
311
31D7C027754ED73F87933B0784D897E43ADDF83F390146E8C2DA92FFC06448392719CDCBFADC57EB07CA86815807BB667253600E8505A43133473188221D0A5668109B6AD524CDFE19EBBEAE3E82916E307BF9405EDAD96B77C8BD61CE73B1DDBD6C4D5A3A09F5B72EB72D06032D0574AF82A48E7F0BFA3662715C4A24C113
311
B87E5BCDDBBED3690129A2966AA26502FB115C4458D2D67251AD054125CDB32D43DD44DC9D3CA02D1F905A065402CF692C298FB78CF332DDC68CA31A6D53529C81E3FFEBBF2BD3624BD2BCCCD419D91DD5511DBABA77D82BBF13153EBAC1BA7AF766C8BD118DCE9041D7921358755C7B339A8CAFA78BEBDEDDE87ED19B0CAF
311
A7BDE978B6EC0DC737D7F793E5ECEA7E39AAFD643409FCBAD4B4231A5E4269F34BC1ACFBBEAE103F3609B8C1035172F3CE8467FDFEBAEAA317F607D8837AD96CBC8B9ED1F7D1E8E7020E2B4F0A5AA505A729CD14D131F4A03FF817823EA3A38C195FA524A11748F9F46E7D640C462ED8F759C73BFD7EB4D78ECE75409E14A2
311
1ECB749711C68F362606C97E912516BFDA27CDDB149AFA57FF59C7A03395396711F260E424344FA94236BCA00889944A50AFDDD347F6EE71C1EE67D3212AB2E3B4D6E491A049E61261016A95A1EA8E3BBFA1A9D37DD5AD8B72DB7FC2C3660AD701676E5D34E98A8554F67728D0BA15AA84834BED4E1E8D3FC9128E5EDB6C6A
311
FE9B5D1A9B4E496E965CD23F59BB4C0AB706208D14E81BD010C13B9532815FE966E7C3FF6478AD8E43143E77A56A6C390C34C654C720448D51F6B68026E6C91EBD47A0BE6E96D7AFD67410B9E896F52A098CD49E2222A96E0A5A3FABD2DDE2F3001D8AB3FAE414BC4CE0CBCB25F50405994B1DE06011586165164481AAF33F
311
379F458E9B6CEA2C1928E0FCBE9FBEF96333CFD334CFCCD0E6CEDE879DF5236EB7D106C981EA6B89DC8C86DE68535D07EC0D65BB2392F649249F3000CF0AD600DD713F7869EE8CA84366A25937D0AE3862E86AE1D8C23681504B97766ED5E0A0F1C8A88318D2574A1D31ED05C5AB378241B5142A08F4F2C1BF504B03041400
311
06080000B751E942000000000000000000000000350000006662782F31334535383532312D353232412D344544322D394436352D3541464231423834303543312F76657274696365732E62696E504B0304140006080800B751E942F270F1330600000004000000360000006662782F31334535383532312D353232412D3445
311
44322D394436352D3541464231423834303543312F747269616E676C65732E62696E636660600000504B0304140006080000B751E942000000000000000000000000370000006662782F31334535383532312D353232412D344544322D394436352D3541464231423834303543312F617474726962757465732E62696E504B
311
0304140006080800B751E942D5987DFC8F00000041010000360000006662782F31334535383532312D353232412D344544322D394436352D3541464231423834303543312F6469726563746F72792E786D6C858F410EC2201045AF4266AF15DDB800BA74E7C21B903225242D6328188F2FA5C4183471359997F9FF81E89FF3
311
C41E1816475E02DF1F80A11FC8386F25A438EECEC07A250251FC3803E6F58C12560C4AD840E95E91C151A72936F496F35732D860FE635F62C8F2DA16B505C545B74125BAA2FA9E05D7CC053D063734D5C7665FD55B6B8D15D5E9BFEAFD8490FFA45E504B0304140006080800B751E9425D082A68FE000000A00100003B0000
311
006662782F31334535383532312D353232412D344544322D394436352D3541464231423834303543312F7265736F75726365732F636F72652E786D6C8D504B6E833010BD0AF2B632D8404B40C61125C9097A01CB4C889560237FAA1EBF76A052BBEB6666F43E9AA7C78E5FCB23FB04EB94D13DA2394119686926A5E71E057F
311
C507941D39B3C6F85F329469B1408F128C389BAD09EB0E49A33D681F516D26D841E11C7894C9473C7AE4E40D16918BE0A3C2DDF355C8BB9821A779A4A38E33E76D0C906D4FD244DC8233C14A70ACD858CE4250D3AE5153FCA9AE0A2CE26575A6A7A67DC797A11D714D6B8A87E13C607219C6712C2F87E6F4C68A64E6CCABE5
311
27A3B4203C4CD14F6885498349FB414947ABAE6E5EC86B57115624F91F5358A77F9A82D2BE2AF7B89BCD214E639027C15991FA8AEB5966DCA95BFE0D504B010214000A0000080000B751E9423DEE336E79000000790000001B00000000000000000000000000000000006175746F6465736B2D64657369676E2D7061636B61
311
67652E786D6C504B01021400140006080800B751E942D486FD9CA0000000F40000001300000000000000000000000000B20000005B436F6E74656E745F54797065735D2E786D6C504B01021400140006080800B751E9424EA304F0EA0000007C010000080000000000000000000000000083010000636F72652E786D6C504B
311
01021400140006080800B751E94255019EA25F0000007C000000070000000000000000000000000093020000636E782E786D6C504B01021400140006080800B751E9428823305A66010000020300000C00000000000000000000000000170300006662782F636F72652E786D6C504B01021400140006080800B751E9424418
311
05DA7E0000009D0000000B00000000000000000000000000A70400006662782F636E782E786D6C504B01021400140006080800B751E9424232A4C82C0100001402000031000000000000000000000000004E0500006662782F31334535383532312D353232412D344544322D394436352D3541464231423834303543312F63
311
6F72652E786D6C504B01021400140006080800B751E942434975A84F010000330300003000000000000000000000000000C90600006662782F31334535383532312D353232412D344544322D394436352D3541464231423834303543312F636E782E786D6C504B01021400140006080800B751E942FB5ADCC7A50500008110
311
00003400000000000000000000000000660800006662782F31334535383532312D353232412D344544322D394436352D3541464231423834303543312F6F626A656374732E786D6C504B01021400140006080000B751E94200000000000000000000000035000000000000000000000000005D0E00006662782F3133453538
311
3532312D353232412D344544322D394436352D3541464231423834303543312F76657274696365732E62696E504B01021400140006080800B751E942F270F13306000000040000003600000000000000000000000000B00E00006662782F31334535383532312D353232412D344544322D394436352D354146423142383430
311
3543312F747269616E676C65732E62696E504B01021400140006080000B751E94200000000000000000000000037000000000000000000000000000A0F00006662782F31334535383532312D353232412D344544322D394436352D3541464231423834303543312F617474726962757465732E62696E504B01021400140006
311
080800B751E942D5987DFC8F0000004101000036000000000000000000000000005F0F00006662782F31334535383532312D353232412D344544322D394436352D3541464231423834303543312F6469726563746F72792E786D6C504B01021400140006080800B751E9425D082A68FE000000A00100003B00000000000000
311
000000000000421000006662782F31334535383532312D353232412D344544322D394436352D3541464231423834303543312F7265736F75726365732F636F72652E786D6C504B0506000000000E000E0080040000991100000000
310
504B03040A0000080000B751E9423DEE336E79000000790000001B0000006175746F6465736B2D64657369676E2D7061636B6167652E786D6C3C3F786D6C2076657273696F6E3D22312E302220656E636F64696E673D227574662D3822203F3E3C666F726D6174733E3C666F726D61743E687474703A2F2F736368656D612E
310
6175746F6465736B2E636F6D2F64657369676E2D7061636B6167652F323030393C2F666F726D61743E3C2F666F726D6174733E504B0304140006080800B751E942D486FD9CA0000000F4000000130000005B436F6E74656E745F54797065735D2E786D6C7D8EC10E82300C865F65E91D8A1E8C310C0EEA1BF002731658846E
310
D98AC1B77784ABF1D8FE5FBFBF75BBCE937A534CCEB38643598122B6FEE978D0B0485F9C41B54DDD7D022595594E1A469170414C76A4D9A4D207E29CF43ECE46F218070CC6BECC4078ACAA135ACF422C856C0E68EA1BF5669944DDD7BCDE7B1F8E415D77AECB980613C2E4AC91FC167A2B244592486606FC29C8FD7F045B9A
310
EF7053A7E60B504B0304140006080800B751E9429AB44F0FEA0000007C01000008000000636F72652E786D6C8D90416EC3201045AF82665B618371436261A256894FD00B20202E4A0C9681AAC72F4E1CA9DD7535A33FFFCD8CBE387E4F37F46597E882EF81560490F53A18E7C71E72BAE03DA0A3144B08E9970D905793ED61
310
95418A710979DE241D7CB23E15D507633751C56813207D2B4D0F517FDA49552AA7E288D76A56FAAA465BD16757E09C9D418F23CE947DEEE2EC02920C849EF60DC1BB136F71CB498BDFE8C0F08EF296BD0FFC7C6E98A857588AE4A6E77DBD5895AC01D910CA30E1981C3E28E928EB5AFE425E3B4644BDDAFF407936FF84B2F3
310
8935DBBB0F2C82A4E591FB408A7ACDA2947B50A5AEB9C91F504B0304140006080800B751E94255019EA25F0000007C00000007000000636E782E786D6C4DCB3B0E80201045D1AD90E915ED2CF8AC45050C11660C8261F98AB1B07AC9C97D42D718D865D3E909258CFD00CCE24AC6E326A164D74DC0B4128928FF326038472B
310
A13128B1252AC747C6BAB984FC68F0B87FE8960A5C09FE86CFB69FBA01504B0304140006080800B751E942BADDC37567010000020300000C0000006662782F636F72652E786D6C8D52ED8E8320107C15C2DF0B02EAD55E83347769FB04F70254A967AA60104C1FFFD68FA6D74BD33426486676766747C5F6D23668D0AEAFAD
310
C9318F1846DA14B6AC4D95E3E04F648DD1560A67ADFF53869151ADCEF10863292A6743B74085355E1B0FA8B1A55E40D5F7DA63543470C9715FFCE856452A78A8E8CF51A78AB3AA74C423A0A14E8ADE3B3080E621E389E5E9781174C6A508A12E17B62E615A7DAAB5C3921D18DFAD634656BB2C2569C652F2C90F0959F12C4D
310
BE0ED97E1F27828E62297CDD5EDD154E2BAF4B2C63C613C232C23EBE39DBF06493666FEC7D933041C7F23B51E8CA1745A1363E8917BBB3ACC792839189F8B72D44E451AF06F043A5A06388F09A12BE0F1A028190BD3A36D73DCE000DBAF0D6A5C09436DCA8413541C35486A647D09985CE5303D8EC619FF8499FE73DE0032A
310
538135E5E17A0C7E9C2EE6A94B149D7664F01764AC6B557333375BBC9DB7410FE5856DAC7B454D9755E912261DFF5EF90B504B0304140006080800B751E9428DCDDB837E0000009D0000000B0000006662782F636E782E786D6C4DCCD10A83201886E15B91FFDC65A6CC811A6BD67DC4B290990EA76397BF1A1DECE883878F
310
57B69FD5A3B74D2F178382FA4400D9708F930B8B8292672C00B55AA618F3DF0D501857AB6067D07249B13C0F9AEC3C169F37F52E3C0E248C0C033767DC35A4C6ACE92816D70BC7374AB9E87B668CA1506959FD4ADBEE61FD05504B0304140006080800B751E9423FFE66662B01000014020000310000006662782F30343046
310
463544372D423330312D343342322D384139352D4332323538454534444444322F636F72652E786D6C8D515B6EC32010BC0AE22B55651B03CE4B98A8A99313F4028E4D1294182C1E558EDFA576A4F62F3F2C9A9D991D58B17B0C77F4AD9CD7D6D4B8CC0946CA74B6D7E652E318CED91AA39D14CEDAF0878691690755E30463
310
292ECEC671863A6B82320150637B3583ADF72A60D4DDE15263DF5DD5D0E66D0CC0F0B77C6CBB5B7B517999431B7852F8E020009A86A4134BC2C9F15835AB6CCF489971B6A7D9FA6353659F9456EBC381374D43453109A58851F7B35CF710479FB572AF9A24B114410FCFF89D536D503D9694942C23AB8C6CBE4AB22DD996AF
310
DE49B565441489FE4F14C7FE4551D426303AC79D641ECB521453438ADEC6D3FD19463D46EB024AF3165E756FF0AA1C6211CE68258A890A1F009E4B3E7BFA601D7CF0E27602369B8D975C8A22ED08CAEF02A1A67DCA1F504B0304140006080800B751E94225EEBABF5601000033030000300000006662782F30343046463544
310
372D423330312D343342322D384139352D4332323538454534444444322F636E782E786D6CBD93CD6EC32010845F0571ADFC17BB491A6122F5D027E8A1570C9B84068305B86ADEBE4B42D25C7AA854F582ACD96166F509B3EDE768C807F8A09DED6953D69480954E69BBEFE91C77C59A922D67DEB97867A3C48A117A9A64CA
310
D9DEBB79CA92829D984D44D5687BCCA287E0662F21A09C6E12E3A4301800B69851847100A540919B11BF76E071151487138907202FCF6FC40DEF206360554AE1AC4A1D9CA53337DD9928914684D0D3200F308A52CCD12908C7528928CAA6BC76FDB0D377124917AE95B3D72495F7349D94E78D4AE4C82A1C7216A2477AD914
310
4F13502EA6C968292242AECEC68B87B359DBB8ECB25723788FEE76B15CAF31EC3CE32CEA11B2437A101114E58BBA698B7A55D44FAF4DBD69DA4DB77AA81F376DCDAA64E76C70CEE44B1803DE4D443A1BC146CA1B56A5F14FF8B28F28ED91B5F3A75F804400B9F542E796F1977C9A65DB75FFC8A73ABF6FC4E5F12FE05F504B
310
0304140006080800B751E942C2FA002C640700009A1B0000340000006662782F30343046463544372D423330312D343342322D384139352D4332323538454534444444322F6F626A656374732E786D6CED59DD73A33610FF5718FAD23E181BDBB9241DC24D1227379E36ED4DDDBBE98367181964A24608461249DCBFBEAB0F
310
301093E05EFA760F3620A4D5EE6F3FB5041F9F33EA3C622E48CE2E5CDF9BB80E66719E10965EB8A5DC8ECE5CE76318F03C978D69AEC350862F5C35EC8641CAF3B2B04309DEA292CACEE8EDD55F8E8831C3AE135324C4852BE27B9C210F95324FB078F0122491976E9F3DDF3313DB64538E8AFB0ED10271CC24700AE30CA838
310
8629BFFD3871C7613056EFC340FDDB59B341B3E6FDB3C65AEA369784098958FC82A50E99D9209666FE7C71333D391F9DCCE7B3D1FCC3D41F5DDD5E2D46FEE96C72FDE1FAFAFCF2E61CD8DBE439B53225B8C02C01FDEDDCD00FC6EA4D2DBA45E010D771CE188E3590009516AB4B9060015B35E09BB41F7D2551E3B596B0F13C
310
57EF2D0B8DE1599B4ADFAC6140B4E8822076BB4AE2EADA942FDFFC0D828B2146C90596C0AD901CB46BE1E1E0156E3809C666340C367B5D10E16448624E107528D970C4412930554D0903B3C09251CEC18194A324D09A33AFDBB6059EF9B6EB1CE2725B52AA3CC30DB56345E07E580ACD19F907F33DF74D64802790B6244C9E
310
592EE5AEC06E781E8CF56018A8CB6C6A5F1A209D2D45A9D08898B71D41AF95EB2F176EF8CBEDE679A5C2C1E1CD0B9E17984B65744A8F9A2F30647B5528D96DFD419A530B401803AA5DB907E50F40FE37881E7B56406F9C3CCF9FE776AEE488896DCE33D08D33714613F89B38BEFE57F78DBB605C2F6E6BAF0F4F705305D5D9
310
B7E3D996416365F96FC019068F60F0399FD957AB1851B0E73BC2002065240ECD610842FB76F3EC864B089C10E86115A2A10F2203BB8F701B8C2D99BD562AF7B25EC70051BBC76C889200366D91C0468F9E3E41F6E024DEABA929621FBC27EF62AE978BD52FAB926F518CEFAC4F2FF0963022216B1E66A885794BA207BC7BCA
310
790282BEC47BD5C43BB35B09405B61AE804F2B10D4C37EE7D60631AC4B73156E823776002154AE6ED0BF2322C6942286F3B2DAB78E6ECA506B8FB735831B4E0DC4B369C784397E24AAAA00A7D9CF68310A793FE6A45020BAE12723591D34BD1EE9BE2C7F038BACE7F7CC5A3208BD0CD13F75D03A8043CBB22BA42D10B5C09B
310
7D388F739AF368B38B4CA473A1960036DADEF2B5451462BD5192A2021EA4FDAE0A29A991364AC8765B0A88AB0758FCBABC6E9AC3C49BF9274EF3BFE38C7388B6E0BB885BBFEBEC11910CA538DAA2A46FBBE66E356DA149F690E6784B412EF248E42E42329A24383D069AA3889FBF2BF594E642108605E4AB83E037D1987810
310
488C362B9695563B4013116558227A0C028A4C0FB83AEDE81A3786D2E16D1E6BEB7D4D634DA2FF93457004B564CE2202A528E4903719F7BD1388216D740DCA1D7CC1DA2ADA5A0C5A420911EFA2274CD27B790CEA867C0FEE311C494A19E5058AC1AC07907DE12B4AA91DDE37287E50F9238A4BFA5E062230DD4684D2328BE0
310
47189C3C86B8761D985E45A141DCC43E893328CA902CF9904D3E9C4C5EEC636A866E086C6CB42514C27694A1A207F55640D4F58853836FA9F7287553664584B2BC64830CC59B75BDC992EFAA55911DC8AF2A15A16CAC085B82614098ACB36A15B3C1D475600537D2816A17099415D49CC2DE483C7EED4D9A72EF06DCFAE9FB
310
6E9041E1D7A3BD66449D5730581E5B8581784232BE77C395BE8EAEA0FE4E70B24FF555ADD9AC00013115C94B4EAC8ABE2CA1BCB1359A1BDE2129D69F4CD6ADAE5F961E743F8231AC81DAA55EB85440679849A42A933B7543FF4010825B34CCF852E5D463A85C2689AE1A11BD257DEA6C9511AD4D33E215F798E519FCD89AB0
310
9896095EA3443C447792462BA258B7527A19A9307E55C0DF3FAD3AF0C0C800913EAB020F3F75D6DAD16B552E1D2422EFCB6CC3108120D8122D35BAF10A965A8D545AAEAFEA4C017517189855F1FCFBC9A2D98EF87EB248AD617CD3C9E26AF72BDA35FB228D741E2BBB3EEA1850E72745E53D8E01BAED5053ADB38849E6567E
310
EB4C1104C52ACA0FAEC6AAA06108F671FC9FB3765F1634DB75F83F2E6BFB2F2A8EA3B24A6BB2EA521DA85C97CD1C763E9DCF4ECF16A7A3CBE9CD62349F9C9E8DCE6657B7A3C9ECFCF4667E7B7572735BA762433C0CEA60A673173C9BA0560DAB278B017465454E4902A7F9C44931C47C0967FA01ED739E6101C9B3D9EC4E6C
310
537EC0EA47D3E794684371C5C93D8206311590D6418C3296ED71E707684D4A38685FB8D034F21EE0CF5AA5EB40E6B970A15520498C85B78136936AE869E2907275EEB7C420902196AA946816D5CFF52A854D2BFCD75386A4012B57AB8701855B01DDAF568742F366798A8F12BC62C741126E37A5846ACDC8B21FA885D1DBEC
310
D56F64A3843DD8AD9FC1755F17CBF7F49C1622833E19BC6A0486EA48229EEA7EB762CCB274B9F83C863E9BB3FCDD296899822E87531A710CC65CAA820AAC08ACC2D22C900453BDFE79FD99E7F08927737455E4FCF87CF6E1A7F5759E65393343EB4B389525F0A1C859DDC3679F640DC50356CD75B19E4EFCE95A37B56D9F3D
310
DA20813D5515C140554C28413A260776F9A24165DB9763A58ACEF4E5C2B141149A01C68E5EF478CD472E077C487D4E511EA3FDBC92F6D5BEF6584F059BE0D0910EFF05504B0304140006080000B751E942000000000000000000000000350000006662782F30343046463544372D423330312D343342322D384139352D4332
310
323538454534444444322F76657274696365732E62696E504B0304140006080800B751E942F270F1330600000004000000360000006662782F30343046463544372D423330312D343342322D384139352D4332323538454534444444322F747269616E676C65732E62696E636660600000504B0304140006080000B751E942
310
000000000000000000000000370000006662782F30343046463544372D423330312D343342322D384139352D4332323538454534444444322F617474726962757465732E62696E504B0304140006080800B751E942D5987DFC8F00000041010000360000006662782F30343046463544372D423330312D343342322D384139
310
352D4332323538454534444444322F6469726563746F72792E786D6C858F410EC2201045AF4266AF15DDB800BA74E7C21B903225242D6328188F2FA5C4183471359997F9FF81E89FF3C41E1816475E02DF1F80A11FC8386F25A438EECEC07A250251FC3803E6F58C12560C4AD840E95E91C151A72936F496F35732D860FE63
310
5F62C8F2DA16B505C545B74125BAA2FA9E05D7CC053D063734D5C7665FD55B6B8D15D5E9BFEAFD8490FFA45E504B0304140006080800B751E942EB82EF6FFD000000A00100003B0000006662782F30343046463544372D423330312D343342322D384139352D4332323538454534444444322F7265736F75726365732F636F
310
72652E786D6C8D504B6E833010BD0A9A6D65B0310D29328E5A259CA017B0CC845A0936F2A7EAF16B0295DA5D3733A3F7D13C3D71FA9AEFC527FA609CED8195140AB4DA8DC64E3DA4782547284E5278E7E22F191456CDD8C30A8314937769D921ED6C441B336ADD883BA842C00885BEE7A387A03F7056A54A312BC2AD5C94BE
310
A9094B56663AEBA408D1E700C5F6649D203D0697BCC620AA8D95222533EE1A33E69FE66AD083A40365E7231BC8E1DC36A46969435ED9C0C981B50D7F1BDACBA5E6A25ACD524433FF64D41E55C411644D1927B425F4E59DD18EF1AE699FE873C7A9A856F91F535AC67F9A92B191D77BDCCD1640B21CE4414851AD7DE5F52833
310
EFB55BF90D504B010214000A0000080000B751E9423DEE336E79000000790000001B00000000000000000000000000000000006175746F6465736B2D64657369676E2D7061636B6167652E786D6C504B01021400140006080800B751E942D486FD9CA0000000F40000001300000000000000000000000000B20000005B436F
310
6E74656E745F54797065735D2E786D6C504B01021400140006080800B751E9429AB44F0FEA0000007C010000080000000000000000000000000083010000636F72652E786D6C504B01021400140006080800B751E94255019EA25F0000007C000000070000000000000000000000000093020000636E782E786D6C504B0102
310
1400140006080800B751E942BADDC37567010000020300000C00000000000000000000000000170300006662782F636F72652E786D6C504B01021400140006080800B751E9428DCDDB837E0000009D0000000B00000000000000000000000000A80400006662782F636E782E786D6C504B01021400140006080800B751E942
310
3FFE66662B0100001402000031000000000000000000000000004F0500006662782F30343046463544372D423330312D343342322D384139352D4332323538454534444444322F636F72652E786D6C504B01021400140006080800B751E94225EEBABF56010000330300003000000000000000000000000000C90600006662
310
782F30343046463544372D423330312D343342322D384139352D4332323538454534444444322F636E782E786D6C504B01021400140006080800B751E942C2FA002C640700009A1B000034000000000000000000000000006D0800006662782F30343046463544372D423330312D343342322D384139352D43323235384545
310
34444444322F6F626A656374732E786D6C504B01021400140006080000B751E9420000000000000000000000003500000000000000000000000000231000006662782F30343046463544372D423330312D343342322D384139352D4332323538454534444444322F76657274696365732E62696E504B010214001400060808
310
00B751E942F270F13306000000040000003600000000000000000000000000761000006662782F30343046463544372D423330312D343342322D384139352D4332323538454534444444322F747269616E676C65732E62696E504B01021400140006080000B751E94200000000000000000000000037000000000000000000
310
00000000D01000006662782F30343046463544372D423330312D343342322D384139352D4332323538454534444444322F617474726962757465732E62696E504B01021400140006080800B751E942D5987DFC8F000000410100003600000000000000000000000000251100006662782F30343046463544372D423330312D
310
343342322D384139352D4332323538454534444444322F6469726563746F72792E786D6C504B01021400140006080800B751E942EB82EF6FFD000000A00100003B00000000000000000000000000081200006662782F30343046463544372D423330312D343342322D384139352D4332323538454534444444322F7265736F
310
75726365732F636F72652E786D6C504B0506000000000E000E00800400005E1300000000
  0
XRECORD
  5
17
102
{ACAD_REACTORS
330
12
102
}
330
12
100
AcDbXrecord
280
     1
270
     1
271
     1
  0
XRECORD
  5
16
102
{ACAD_REACTORS
330
12
102
}
330
12
100
AcDbXrecord
280
     1
270
     1
271
     1
  0
XRECORD
  5
18
102
{ACAD_REACTORS
330
12
102
}
330
12
100
AcDbXrecord
280
     1
270
     1
271
     1
  0
XRECORD
  5
15
102
{ACAD_REACTORS
330
12
102
}
330
12
100
AcDbXrecord
280
     1
270
     1
271
     1
  0
XRECORD
  5
24
102
{ACAD_REACTORS
330
22
102
}
330
22
100
AcDbXrecord
280
     1
270
     1
271
     1
  0
XRECORD
  5
23
102
{ACAD_REACTORS
330
22
102
}
330
22
100
AcDbXrecord
280
     1
270
     1
271
     1
  0
XRECORD
  5
BA
102
{ACAD_REACTORS
330
22
102
}
330
22
100
AcDbXrecord
280
     1
 70
     1
 90
1959938040
 71
     1
  1
04607F3B-F64F-4704-B76D-521797B47551
311
504B03040A0000080000B651E9423DEE336E79000000790000001B0000006175746F6465736B2D64657369676E2D7061636B6167652E786D6C3C3F786D6C2076657273696F6E3D22312E302220656E636F64696E673D227574662D3822203F3E3C666F726D6174733E3C666F726D61743E687474703A2F2F736368656D612E
311
6175746F6465736B2E636F6D2F64657369676E2D7061636B6167652F323030393C2F666F726D61743E3C2F666F726D6174733E504B0304140006080800B651E942D486FD9CA0000000F4000000130000005B436F6E74656E745F54797065735D2E786D6C7D8EC10E82300C865F65E91D8A1E8C310C0EEA1BF002731658846E
311
D98AC1B77784ABF1D8FE5FBFBF75BBCE937A534CCEB38643598122B6FEE978D0B0485F9C41B54DDD7D022595594E1A469170414C76A4D9A4D207E29CF43ECE46F218070CC6BECC4078ACAA135ACF422C856C0E68EA1BF5669944DDD7BCDE7B1F8E415D77AECB980613C2E4AC91FC167A2B244592486606FC29C8FD7F045B9A
311
EF7053A7E60B504B0304140006080800B651E9423388C927EB0000007C01000008000000636F72652E786D6C8D90416EC3201045AF82665B6183EDC4898589441A9FA01740405C94182C03558F5F9C3852BBEB6A467FFE9B197D76FA9EEEE8CB2CC17AD7032D0820E394D7D68D3DA478C5074027CE16EFE32F1B202727D3C3
311
2A0367E3E2D3BC49CABB685CCCAAF3DA6CA20CC14440EA9E9B1E82FA34932C648AD9116EC52CD54D8EA6A0AF2EC329598D9E47ACCEFBECD59A05F8810E62B85402EFCFCD193744BC63410681DBFD4E54F4D2B6A46D58B9C29C453BBDEEABC5C86834F08AD01A931693E307251DADBBA67923BBAE26AC5CED7FA034EB7F42C9
311
BA5857DBBB4F2C00A7F991C780B372CD22974750B9AEB9F11F504B0304140006080800B651E94255019EA25F0000007C00000007000000636E782E786D6C4DCB3B0E80201045D1AD90E915ED2CF8AC45050C11660C8261F98AB1B07AC9C97D42D718D865D3E909258CFD00CCE24AC6E326A164D74DC0B4128928FF32603847
311
2BA13128B1252AC747C6BAB984FC68F0B87FE8960A5C09FE86CFB69FBA01504B0304140006080800B651E942C029C9C868010000020300000C0000006662782F636F72652E786D6C8D52ED8E8230107C95A67F2FA5E543F14CA9099E3EC1BD4085CA11A125A5253EFE2D1FC6F3628C2129CDCCCEEEEC00DF5DDB060DCAF6B5
311
D1190E038691D285296B5D65D8BB33D960B413DC1AE3FE9461A465AB323CC258F0CA1ADF2D5061B453DA01AA4DA91650F6BD7218150D5C32DC173FAA9581F40E2AFA4BD0C9E2222B158401D0502778EF2C1840F390F1C4E27CBA723AE3827B5F970B5B9730AD3ED7CA62B1098FF9F110E564BD4FF62461F917C9D93127E97A
311
9547E1214D599A703A8A0577757B735758259D2AB1885818139612F6F91DB26D186F93E483ADB631E3742C7F10F9AE7C53E46BEDE268B13BCB7A2C42303211FFB685881CEAE5007EA8E0740C115E53C28F41432010B293A7E6B6C705A04115CED80498D2F83B35C8C62B98CAD0F4703AB3D0796A009B3DED13BDE8F3BA077C
311
40A92BB0261D5C4FDE8DD3F93C7589A253960CEE8AB4B1AD6CEEE6668BF7F33EE8A9BC308DB1EFA8E9B22A5DC2A4E3DF2B7E01504B0304140006080800B651E9421531E1FF7E0000009D0000000B0000006662782F636E782E786D6C4DCCD10A83201886E15B91FFDCE5C2963FA8D172BB8F581691E9703A76F9ABD1C18E3E
311
78F87865F3591D79DBF89A8357703E3120D63FC230FB49414E2315401A2D6308E9EF06C4F7AB55B0336839C5909F070D76ECB34B9BBAD92F071A7137C8454B6BBC7494B7E58D22D682B2AE62571425371542A165F12B6DBB87F517504B0304140006080800B651E942E30B90C82D01000014020000310000006662782F4438
311
4644393438412D373936432D344132452D393937382D3043353042393832344435392F636F72652E786D6C8D515B6EC32010BC0AE22B55850D368E4D8489D2A43D412FE0D8C44589C1E251E5F885DA91DABFFCB068766676B4CBF7F7E906BEA575CAE816920C4320756F06A5C716067F410D047BC1AD31FE0F0D02DD4DB285
311
0986828FD68479857AA3BDD43EA2DA0C72053BE7A487A0BFC54F0B5DFF25A72EEB828F0C77CDE6AEBF76A3CC4816DB9127B8F3360600CB90F442716A3E4E8C360754B3ED11D143F18E18AB1B848F157E634D414F15E3F922143C0435AC7235C438EAA2A47DD6248905F76A7AC4EFADECBC1CA028302911AE11669F04EF48B9
311
A3F41557BB12F33CD1FF89C23C3C290A4AFBB258E32E320705E1F9D2107C30E17C7B8491F7D9580FD2BC8D93FD0B1438C3A4A81B426B9E2FD4B880E8B9A5ABA7F3C6C6056FAEE7C826D562BCA582E7E946B1FC1E30D6744FF103504B0304140006080800B651E9424076F93A4E01000033030000300000006662782F443846
311
44393438412D373936432D344132452D393937382D3043353042393832344435392F636E782E786D6CD593CD4EC33010845FC5F215E58F840295E34A1C78020E5C1D7BDB9A3A76E41F44DF9E75EB965E3870E46245B3E399D527876DBE66433EC107EDEC48BBBAA504AC744ADBDD4853DC564F946C38F3CEC51B1B2556CC30
311
D22C53CE76DEA5A5480AB6229988AAD1F650440FC1252F21A09C6F12E3A4301800B64A28C23C8152A0C8D5885F5BF0B80A8AD391C43D90D79777E2A60F9031B026A770D6E40ECEF2599A6E4C944823421869907B98452D52740AC2A156228ABAAB2F5DBFECF49344F2854B65F29AE4F291E693F2B2518D1C598343CE42F448
311
AF98E27101CAC5B2182D4544C8CDC978F67096B48DABA1783582F7E8EE56FD3060D869C659D4331487F4202228CAEFDBAEAFDAC7AA7D7EEBDA75D7AF87E1AE7D58F72D6BB29DB3C939532E610C78B710E96C041B29EF5893C7BFE12B3EA2B447D6CE1FFF00120194D6339D6BC67FE6D39CDE37E2F2F817F06F504B03041400
311
06080800B651E9428C919D04A405000080100000340000006662782F44384644393438412D373936432D344132452D393937382D3043353042393832344435392F6F626A656374732E786D6CAD57DB6EDB3810FD1541FBB2FBE08B6C274E168A8AD8AE0BA3485BD468B10F060C4AA2146EA80B482A71F6EBF750A26EAE9D7A
311
177DB12C6A389C3973E642F7DD21E1D633159265E99DED0CC7B645D3200B591ADFD9858A0637B6F5CE734596A98E986DA524A177B65EB63D371659919BA59046A4E0EA6875BDF8CB92014DA96D059C487967CBE0912664480A9585543E0D43A2C8308E0E43675809F6D5C682E48F474A732268AA6029D65368B12AA39CFEEB
311
D81E79EE487FF75CFD6BA4A6E7A546A53FFDF3592A1549831F0E3B52337566ABF793ABDBC1D56C361DCCAE27CE60B15EAC06CE7C3A5E5E2F97B7F7EF6F71B054029A8C258246B6F701D80816B8A3EA93E7162C55D3891131011A09FACC74A46C6F6239EEA89269BC334E9E323FC8D29406255640A3F4CFA80E694ED3103167
311
54C2B20E42E3FEABA371EC7C9EEA77736477F93204BA3B3A8A6ADBEB67D7D2CCFF1B2EC84B182424D50CACB0348E565C1DB708FB59C6CD3726AD84282A18E11667BE20E2D5F620AA453CB7A7463359E86CD01ED81EA2507DEED30569F4739E9FB2322A38D734B6BD320BF6C815AA646919FB878AD6FA2E32B009B1D26CB831
311
0EA9D79CDADE6D45919B233655405A112731420E37F5CEE9E4C8D1A5CED3CDCAF63EAEFDC356E7EEE9C37391E554284D1F50AB0E5CFDD428199B9C8B22A737D847A6B4A07C05F29F90EAAD29889B6087D961664E5182A432CA4482D858636B30C6CFD872CA5FFDBFF3CF1D359BFBD13B872782ADA1FA0578F67DE8C6B203A7
311
E73E83F099981AD7B601E1281B0F2C05409A2416CFB0843A1CF907DBDBA0CAA12A6317E19E039761EE33FEBA23A30685A23CA9F34C81E55159BCA04003B6929130A322BF31B08DD30FE5AC3CD8889D83F7EA97D0F57EB5FDB82D444402FA60727A452396328516D7F2A66B500FF39E474FF4F52513211CFD11EF6D17EFC41C
311
2581B6C65C031FD7355DBFB427F70E08B02FCE74B9717F72029CD08DB5A3FF81C980724E529A15F5B96FF60FB48D0A629DEC9AC94D83691B0B48537D39CA4134E940B05C83D874ABA6680ECF78F76DF3098C843CCF7CC25B21BF2DBD41C633B1F75FF755553A89F4F73EB50D0423AD056C2F73A44E7F83F93E64515448D4C0
311
13B07EDF2CBBA1D3550115A2D65A25CB0CEE23B788309CADF5A2590B82469AA57B86B689B43B7940573F10350428159EB358521EED19E745B28F184733DA27243F03C7FFB7DF2F927C4F92AC48D519DD3DD3D11CFAB6F7C82B5F880A1E6D6F5B3E070B94DE90866D987BC2BA959CC0AA17DAF1EC7A3C5F4F1783F5F56C3D98
311
CDC7B3C1627EBD1A5C4D9CF9ED7C319B5F5DB568963394E7D69DA69BD088123A9B5B0866C2F76D83F43135C0F61E8892BB0F5576D6CF6F9B21466177843D6897CDC6FBF019631F0D7FAEA0953CA96893E49C26345544A7D083FEC3BF128C193D63AAF54D42627A8196CF1FB647CE60E5827D5F74BAD397A3BD6675A913F2A4
311
12F558247E4A183FDA1857480EF33436F8D531699E559FA95FF59B090C0653997116A20C86564CB3842A14C30B7A9048A804F5BA237D68AE1E17EC7EAE0644457C4E6B4B1E0966642E9116E06D11A8FEBAF51B663A3D56DDD9E8B6C327FC984A615BE0CC9D8D195DB180CAA18FFEAC27A15239B8D41DE4C15992C61CA376B5
311
A9796F76696C7A1DB911B9647C327E5515DC38803292636CC03C84E894C6786E699BF91EFC27C76B732CA2F0D72F54E34BBBD038531E8314AD9C329705CC304FE6E80312F56DB79C6129D343E4A24BD69B24A8B40E1411717951D0F61993EE575F461850ACCD672BE7458C585EAE692028C85CE804078BC00AA333270A545D
311
FEB9FB22325C64136BCD4001EBF7C3CDF51FBB659624595A2DEDEECD75D8DA3EE2721BEE501CA8BE95C8DD64EC4C76E56DC05C50F63E91744842F984054456B006E85EF8C1CBEACA88CA597D68E4463A14470CDDAC2CD3D866506AE8D2ADAD1A1CCC1D29B59043FA46A933A62B90BF79211895A230416094F7FE05504B0304
311
140006080000B651E942000000000000000000000000350000006662782F44384644393438412D373936432D344132452D393937382D3043353042393832344435392F76657274696365732E62696E504B0304140006080800B651E942F270F1330600000004000000360000006662782F44384644393438412D373936432D
311
344132452D393937382D3043353042393832344435392F747269616E676C65732E62696E636660600000504B0304140006080000B651E942000000000000000000000000370000006662782F44384644393438412D373936432D344132452D393937382D3043353042393832344435392F617474726962757465732E62696E
311
504B0304140006080800B651E942D5987DFC8F00000041010000360000006662782F44384644393438412D373936432D344132452D393937382D3043353042393832344435392F6469726563746F72792E786D6C858F410EC2201045AF4266AF15DDB800BA74E7C21B903225242D6328188F2FA5C4183471359997F9FF81E8
311
9FF3C41E1816475E02DF1F80A11FC8386F25A438EECEC07A250251FC3803E6F58C12560C4AD840E95E91C151A72936F496F35732D860FE635F62C8F2DA16B505C545B74125BAA2FA9E05D7CC053D063734D5C7665FD55B6B8D15D5E9BFEAFD8490FFA45E504B0304140006080800B651E9425B629416FE000000A00100003B
311
0000006662782F44384644393438412D373936432D344132452D393937382D3043353042393832344435392F7265736F75726365732F636F72652E786D6C8D504B6E833010BD0A9A6D65B08184041947254D4ED00B586642AD041BF953F5F835814AEDAE9B99D1FB689E1E3F7D4D8FEC139DD7D674C0720A191A65076DC60E
311
62B891036427C19DB5E1970C322327EC608141F0D1D9386F90B226A009093576C00D94DE63804C3DD2D181571F38C95CC69014FE9ECF52DDE58839CB139D7482FBE052806C7DB24C100EBD8D4EA1E7C5CA0A1EA31E368D1ED24F7DD3E8401CD8B5BF5ECA57B23FD76752D3FE8DF4F4DA9366BFEB4B76691ADAD4BC58CC8207
311
3DFD64540E65C001444959456843E8F19DD196556D5DBFD05D5B515E2CF23FA6380FFF34456D42556E71579B07C15290272178B1F495D6B3CCB4976EC537504B010214000A0000080000B651E9423DEE336E79000000790000001B00000000000000000000000000000000006175746F6465736B2D64657369676E2D706163
311
6B6167652E786D6C504B01021400140006080800B651E942D486FD9CA0000000F40000001300000000000000000000000000B20000005B436F6E74656E745F54797065735D2E786D6C504B01021400140006080800B651E9423388C927EB0000007C010000080000000000000000000000000083010000636F72652E786D6C
311
504B01021400140006080800B651E94255019EA25F0000007C000000070000000000000000000000000094020000636E782E786D6C504B01021400140006080800B651E942C029C9C868010000020300000C00000000000000000000000000180300006662782F636F72652E786D6C504B01021400140006080800B651E942
311
1531E1FF7E0000009D0000000B00000000000000000000000000AA0400006662782F636E782E786D6C504B01021400140006080800B651E942E30B90C82D010000140200003100000000000000000000000000510500006662782F44384644393438412D373936432D344132452D393937382D304335304239383234443539
311
2F636F72652E786D6C504B01021400140006080800B651E9424076F93A4E010000330300003000000000000000000000000000CD0600006662782F44384644393438412D373936432D344132452D393937382D3043353042393832344435392F636E782E786D6C504B01021400140006080800B651E9428C919D04A4050000
311
801000003400000000000000000000000000690800006662782F44384644393438412D373936432D344132452D393937382D3043353042393832344435392F6F626A656374732E786D6C504B01021400140006080000B651E94200000000000000000000000035000000000000000000000000005F0E00006662782F443846
311
44393438412D373936432D344132452D393937382D3043353042393832344435392F76657274696365732E62696E504B01021400140006080800B651E942F270F13306000000040000003600000000000000000000000000B20E00006662782F44384644393438412D373936432D344132452D393937382D30433530423938
311
32344435392F747269616E676C65732E62696E504B01021400140006080000B651E94200000000000000000000000037000000000000000000000000000C0F00006662782F44384644393438412D373936432D344132452D393937382D3043353042393832344435392F617474726962757465732E62696E504B0102140014
311
0006080800B651E942D5987DFC8F000000410100003600000000000000000000000000610F00006662782F44384644393438412D373936432D344132452D393937382D3043353042393832344435392F6469726563746F72792E786D6C504B01021400140006080800B651E9425B629416FE000000A00100003B0000000000
311
0000000000000000441000006662782F44384644393438412D373936432D344132452D393937382D3043353042393832344435392F7265736F75726365732F636F72652E786D6C504B0506000000000E000E00800400009B1100000000
310
504B03040A0000080000B651E9423DEE336E79000000790000001B0000006175746F6465736B2D64657369676E2D7061636B6167652E786D6C3C3F786D6C2076657273696F6E3D22312E302220656E636F64696E673D227574662D3822203F3E3C666F726D6174733E3C666F726D61743E687474703A2F2F736368656D612E
310
6175746F6465736B2E636F6D2F64657369676E2D7061636B6167652F323030393C2F666F726D61743E3C2F666F726D6174733E504B0304140006080800B651E942D486FD9CA0000000F4000000130000005B436F6E74656E745F54797065735D2E786D6C7D8EC10E82300C865F65E91D8A1E8C310C0EEA1BF002731658846E
310
D98AC1B77784ABF1D8FE5FBFBF75BBCE937A534CCEB38643598122B6FEE978D0B0485F9C41B54DDD7D022595594E1A469170414C76A4D9A4D207E29CF43ECE46F218070CC6BECC4078ACAA135ACF422C856C0E68EA1BF5669944DDD7BCDE7B1F8E415D77AECB980613C2E4AC91FC167A2B244592486606FC29C8FD7F045B9A
310
EF7053A7E60B504B0304140006080800B651E942B505BE50E90000007C01000008000000636F72652E786D6C8D90DD6E842010855FC5CC6D8382D8F8136453537D82BE0001D6925DC108347DFCA2EB26ED5DAF6672E67C3393C32EDFCB3DFBD29B37CEF640720C99B6D22963E71E62B8A206B20B679B73E1970D322B16DDC3
310
2E0367F3E6E27A4AD2D9A06D48AA754A9FA2F05E07C8E43D353D78F9A917918B1892C3DFF255C89B98754E9E5D8263342A7B1C312AED3357A337E0D3340D25261491B26951358E180D75D5A0B7A11E87F792B61457ACD861CE82599EF7E5A645D00AF8C1E21AE1F683E08ED0AEAA5EF06B47312B76FB1F28AEEA9F503436D0
310
F27CF78179E0243D720C382BF62C5239824A75CF8DFF00504B0304140006080800B651E94255019EA25F0000007C00000007000000636E782E786D6C4DCB3B0E80201045D1AD90E915ED2CF8AC45050C11660C8261F98AB1B07AC9C97D42D718D865D3E909258CFD00CCE24AC6E326A164D74DC0B4128928FF326038472BA1
310
3128B1252AC747C6BAB984FC68F0B87FE8960A5C09FE86CFB69FBA01504B0304140006080800B651E942E6AC78DA65010000020300000C0000006662782F636F72652E786D6C8D525B6E833010BC8AE5DF0A6C1E551E328E8A9A9CA017708C43AD808D8C8D72FC2E8F88A68AA20AC958333BBBB303EC706B1B3428D76B6B0A
310
9CC4142365A4ADB4A90B1CFC25DA6274E0CC59EB7F95616444AB0A3CC298B3DAD9D02D90B4C62BE30135B6520B28FA5E798C64039702F7F25BB52216C143457F8D3B21AFA2567112030D759CF5DE8101340F194FCC2FE71B2333CE5908BA5A585DC1347DD1CA617E3A9DCA94265994A4DB5D941F8F342A37F936FA2837C7F2
310
33CD7619CD1919C59C79DDDEDD49A7845715E693966E22BAFB4AE83EC9F679FE46DFF71965642C7F1085AEFAA72868E3B374B13BCB7ACC133032117FB685883CEAC5007E0867640C115E53C28F41432010B217E7E6BEC715A041496F5D0E4C65C34A0DA2090AA652343D8CCC2C749E1AC0664FFBA42FFABCEE011F50981AAC
310
090FD773F0E374364F5DA2E8948B067F43C6BA5634ABB9D9E27AAE839ECAA56DACFB8F9A2CAB92254C32FEBDFC07504B0304140006080800B651E94230A90AD67C0000009D0000000B0000006662782F636E782E786D6C4DCCD10A83201886E15B91FFDC9594E5408DB41B896521330DA7D1E5AF46073BFAE0E1E3E5DDB13A
310
B49BF8B1C10B208F1290F1AF3059BF08C869C60C5027790C21FDDD00F97135022E06C99718F276D364E631BB74AAB3FE7DE340FBA6D5BAC79468866B553EB152438DAB8A51CA744B896AA090BCF895CEBDC2F20B504B0304140006080800B651E942EC517CAE2B01000014020000310000006662782F44354136374343412D
310
353143382D344230392D424244342D3333383535384337353142362F636F72652E786D6C8D515B6EC32010BC0AE22B55850DB1719C0813C5CE117A0117931425068B4795E3775D3B52FB971F16CDCECC8E76C5F131DED1B7F6C138DB6096518CB4556E30F6DAE0142FA4C6E82885772EFEA16164FB51377886B11457EFD2B4
310
42CAD9A86D04D4BA41AF601F828E18A93B7C1A1CD4971EFBAC4F1118E1964DBDBAF5579DB10CDAC09322440F01D032647EB13CF353B5EBBA13E1ACAB49D9D23D69DB73498AA2E6BCEE769CB595C817A114299961959B01E2988BD1FE5593592C4534E333BEF2BA8F7AC0724B5941E88ED0FD07A307561CCAF29DF24341453E
310
D3FF89D234BC284AC6C662BBC65D64014B26F2A521C5E0D2E7FD19463F26E7239AE76D82566F58D20C62D5DB8AC302162A2C003CAB72F50CD17958F0E6F609EC6235AE4A29F2F946507E0F0875BEA7FC01504B0304140006080800B651E94226D1362D5601000033030000300000006662782F44354136374343412D353143
310
382D344230392D424244342D3333383535384337353142362F636E782E786D6CBD93CD6EC32010845F0571ADFC17BB691A6122F5D027E8A1570C9B84068305B86ADEBE4B42D25C72A854F582ACD96166F509B3CDD768C827F8A09DED6953D69480954E69BBEBE91CB7C58A920D67DEB97863A3C48A117A9A64CAD9CEBB79CA
310
9282AD984D44D5687BC8A287E0662F21A09C6E12E3A4301800B69851847100A54091AB11BFB6E07115148723897B20AF2FEFC40D1F206360554AE1AC4A1D9CA53337DD9828914684D0D320F7308A52CCD1290887528928CAA6BC74DDD9E92789A40B97CAD96B92CA7B9A4ECAF346257264150E390BD123BD6C8AC7092817D3
310
64B41411215727E3D9C3D9AC6D5C76D9AB11BC4777BB58AE5618769A7116F508D9213D88088AF245DDB445FD54D4CF6F4DBD6EDA75D73DD48FEBB66655B273363867F2258C01EF26229D8D6023E50DABD2F81EBEEC234A7B64EDFCF1172011406E3DD3B966FC259F66D976DD3FF2A94EEF1B7179FC0BF837504B0304140006
310
080800B651E942A7DC081D61070000991B0000340000006662782F44354136374343412D353143382D344230392D424244342D3333383535384337353142362F6F626A656374732E786D6CED595B73A33614FE2B0C7D691F8C4D6CE7D221ECE4D2643C3BD9DD597777FAE019460699A811829144E2F4D7F7E802066212DC4D
310
DFF6C106847474CE77AE3A041FB619751E31172467E7AEEF4D5C07B3384F084BCFDD526E46A7AEF3210C789ECBC634D76128C3E7AE1A76C320E57959D8A1046F50496567F4E6F22F47C49861D7892912E2DC15F13DCE90874A9927583C780992C84B375BCFF7CCC436D994A3E2BE43B4401C33099CC238032A8E61CA6F3F4E
310
DC71188CD5FB3050FF76D674D0AC59FFACB196BACD2561422216BF60A943663A88A5A93FBBFEE3687E369ACF66D3D1ECF8C81F5DDE5C5E8FFC93E9E4EAF8EAEAECE28F33606F9DE7D4CA94E002B304F4F7EC867E30566F6AD12D02FBB88E73C670AC8104A8B4585D82040BD8AA01DFA4FDE82B891AAFB5848DE7997A6F5968
310
0C4FDB54FA660D03A2451704B1DB551257D7A67CF9FA6F105C0C314A2EB0046E85E4A05D0B0F07AF70C3493036A361B0DEE982082743127382A843C99A230E4A81A96A4A189805968C720E0EA41C2581D69C79DDB62DF0CCB75D671F979B9252E5196EA81D2B02F7C35268CEC83F98EFB86F22033C81B42561F2D472299F0B
310
EC8667C1580F8681BA4C8FEC4B03A4B3A128151A11F3B623E89572FDC5B51B7EBC596F972A1CECDFBCE07981B95446A7F4A8F90243B6578592DDD61FA439B5008431A0DA953B50BE02F29F207AEC5801BD71B29D6D6776AEE488894DCE33D08D33714613F89B38BEFE57F78DBB605C2F6E6BAF0F4F705305D5E98FE3D99641
310
6365F96FC019068F60F0399FDA57CB1851B0E73BC2002065240ECD610842FB66BD75C305044E08F4B00AD1D0079181DD47B80DC696CC4E2B957B59AF6380A8DD633A4449009BB64860A3474FB7903D3889776A6A8AD807EFFC5DCCF5E27AF97159F20D8AF19DF5E96BBC218C48C89AFB196A61DE92E8013F3FE53C01415FE2
310
BD6CE29DD9AD04A0AD3057C0A71508EA61B7736B8318D6A5B90A37C11B3B80102A5737E8DF1111634A11C37959ED5B473765A8B5C7DB9AC10D8F0CC4D3A38E0973FC485455014EB39BD16214F27ECC49A14074C35B23591D34BD1EE9BE2D3E8145D6F37B662D18845E86E89F3A68EDC1A165D915D216885AE0F52E9CC739CD
310
79B47E8E4CA473A1960036DADEF2BD451462BD5192A2021EA4FDAE0A29A991364AC866530A88AB7B58FCBEB86A9AC3C49BFA73A7F9DF71C619445BF05DC4ADDF75F6884886521C6D50D2B75D73B79AB6D0247B4873BCA120177924F23942329A24383D049A83889FBD2BF594E642108605E4ABBDE037D1987810488C362B96
310
95563B4013116558227A08028A4C0FB83AEDE81A3786D2E16D1E6BEB7D4D634DA2FF93457004B564CE2202A528E4903719F7BD39C49036BA06E50EBE606D156D2D062DA184889FA3274CD27B7908EA867C0FEE311C494A19E5058AC1AC07907DE12B4AA91DDED7287E50F9238A4BFA5E062230DD4484D2328BE047189C3C86
310
B8761D985E45A141DCC43E893328CA902CF9904D8EE79317FB989AA11B021B1B6D0885B01D65A8E841BD1510753DE2D4E05BEA3D4A5D975911A12C2FD92043F1A65D6FB2E4BB6A556407F2AB4A45281B2BC29660181026EBAC5AC56C30751D58C18D74A07A8E04CA0A6A4E616F241EBFF6264DB977036EFDF47D37C8A0F0EB
310
D15E33A2CE2A182C8FADC2403C2119DFBBE1525F4797507F2738D9A5FAAAD66C568080988AE425275645DF1650DED81ACD0DEF9014AB5B9375ABEBB78507DD8F600C6BA076A9172E14D0196612A9CAE44EDDD0AF0842708B86195FA89C7A08958B24D15523A237A44F9DAD32A2B56946BCE21EB33C831F5B1116D332C12B94
310
8887E84ED2684914EB564A2F2315C6AF0AF8F976D98107460688F4451578F8A9B3D68E5EA972692F11795F666B860804C19668A9D18D57B0D46AA4D2727D55670AA8BBC0C0AC8A673F4F16CD76C4CF93456A0DE3C74E16345F23BA8B368D6C1E2BB33EE81450A72745E53D4E01BAEB5053AD9388C9E5567CEB4B11C4C42AC8
310
0F2EC6AA986108F671FC9F93765F1234DB75F83F2C69FB2F0A8E83924A6BB26A52ED295C17CD1436991D4F4E6EA697A39BE3D9CD687632998D2E4F8EAF47F323FFE4ECE47276329FD77A32C4C3A08E653A75C1B38969D5B07AB218405356E4942470984F9C1443C89770A41FD03DE71916903B9BBDEEC4F6E407AC7E346D4E
310
89D614579CDC23E80F5301591DC42863D91E777E81CEA48473F6B90B3D23EF01FEAC55BA0E249E73173A0592C458786BE832A97E9E260E1957A77E4B0CE21862A9CA886651FD5CAF52D8B4A27F3D654816B072B55A1850B715D0FC6A3528346F96A7F820C12B761C24E1765D4A28D68C2CBB815A18BDCD4EFD46364AD883DD
310
7A0BAEFBBA58BEA7E7B41019F4C5E0552330544712F154B7BB156396A58BEB2F6368B3398BCF4E41CB1474399CD2886330E652D553604560159666812498EAD5EFAB2F3C872F3C99A38B22E7D7EDE9F16FABAB3CCB726686561770284BE03B91B3BC87AF3EC90A6A07AC7AEB627534F18F56BAA76DDBECD11A09ECA9A20806
310
AA5A4209D23139B0CB17FD29DBBD1C2B5574A62FAE1D1B44A11760ECE8458BD77CE372C087D4D714E531DACF2B695F6D6B8FF554B0090E0DE9F05F504B0304140006080000B651E942000000000000000000000000350000006662782F44354136374343412D353143382D344230392D424244342D33333835353843373531
310
42362F76657274696365732E62696E504B0304140006080800B651E942F270F1330600000004000000360000006662782F44354136374343412D353143382D344230392D424244342D3333383535384337353142362F747269616E676C65732E62696E636660600000504B0304140006080000B651E9420000000000000000
310
00000000370000006662782F44354136374343412D353143382D344230392D424244342D3333383535384337353142362F617474726962757465732E62696E504B0304140006080800B651E942D5987DFC8F00000041010000360000006662782F44354136374343412D353143382D344230392D424244342D333338353538
310
4337353142362F6469726563746F72792E786D6C858F410EC2201045AF4266AF15DDB800BA74E7C21B903225242D6328188F2FA5C4183471359997F9FF81E89FF3C41E1816475E02DF1F80A11FC8386F25A438EECEC07A250251FC3803E6F58C12560C4AD840E95E91C151A72936F496F35732D860FE635F62C8F2DA16B505
310
C545B74125BAA2FA9E05D7CC053D063734D5C7665FD55B6B8D15D5E9BFEAFD8490FFA45E504B0304140006080800B651E942A6AE90C8FD000000A00100003B0000006662782F44354136374343412D353143382D344230392D424244342D3333383535384337353142362F7265736F75726365732F636F72652E786D6C8D50
310
4B6E833010BD0A9A6D65B0812A808CA3A29213F4029699102BC146FE543D7E4DA052BBEB6666F43E9AA7C7CF5FCB23FB44E7B5353DB09C428646D9499BB98718AEA481EC2CB8B336FC924166E4823D6C30083E3B1BD70352D6043421A1C64E7880D27B0C90A9473A7AF0EA868BCC650C49E1EFF92AD55DCE98B33CD14927B8
310
0F2E05C8F627DB04E1D0DBE8147A5EECACE031EAE9D0E829FDD4578D0EC4E572194ACA4AC2CAA625F53852329CEA86BC0DA771782FABB6A2352F36B3E0412F3F19954319700291BC15A12742DB0F463B567575FD425FBB8AF26293FF31C575FAA7296A13AAF288BBDB3C0896823C09C18BADAFB49E65A6BD752BBE01504B01
310
0214000A0000080000B651E9423DEE336E79000000790000001B00000000000000000000000000000000006175746F6465736B2D64657369676E2D7061636B6167652E786D6C504B01021400140006080800B651E942D486FD9CA0000000F40000001300000000000000000000000000B20000005B436F6E74656E745F5479
310
7065735D2E786D6C504B01021400140006080800B651E942B505BE50E90000007C010000080000000000000000000000000083010000636F72652E786D6C504B01021400140006080800B651E94255019EA25F0000007C000000070000000000000000000000000092020000636E782E786D6C504B01021400140006080800
310
B651E942E6AC78DA65010000020300000C00000000000000000000000000160300006662782F636F72652E786D6C504B01021400140006080800B651E94230A90AD67C0000009D0000000B00000000000000000000000000A50400006662782F636E782E786D6C504B01021400140006080800B651E942EC517CAE2B010000
310
1402000031000000000000000000000000004A0500006662782F44354136374343412D353143382D344230392D424244342D3333383535384337353142362F636F72652E786D6C504B01021400140006080800B651E94226D1362D56010000330300003000000000000000000000000000C40600006662782F443541363743
310
43412D353143382D344230392D424244342D3333383535384337353142362F636E782E786D6C504B01021400140006080800B651E942A7DC081D61070000991B00003400000000000000000000000000680800006662782F44354136374343412D353143382D344230392D424244342D3333383535384337353142362F6F62
310
6A656374732E786D6C504B01021400140006080000B651E94200000000000000000000000035000000000000000000000000001B1000006662782F44354136374343412D353143382D344230392D424244342D3333383535384337353142362F76657274696365732E62696E504B01021400140006080800B651E942F270F1
310
33060000000400000036000000000000000000000000006E1000006662782F44354136374343412D353143382D344230392D424244342D3333383535384337353142362F747269616E676C65732E62696E504B01021400140006080000B651E9420000000000000000000000003700000000000000000000000000C8100000
310
6662782F44354136374343412D353143382D344230392D424244342D3333383535384337353142362F617474726962757465732E62696E504B01021400140006080800B651E942D5987DFC8F0000004101000036000000000000000000000000001D1100006662782F44354136374343412D353143382D344230392D424244
310
342D3333383535384337353142362F6469726563746F72792E786D6C504B01021400140006080800B651E942A6AE90C8FD000000A00100003B00000000000000000000000000001200006662782F44354136374343412D353143382D344230392D424244342D3333383535384337353142362F7265736F75726365732F636F
310
72652E786D6C504B0506000000000E000E0080040000561300000000
  0
XRECORD
  5
27
102
{ACAD_REACTORS
330
22
102
}
330
22
100
AcDbXrecord
280
     1
270
     1
271
     1
  0
XRECORD
  5
26
102
{ACAD_REACTORS
330
22
102
}
330
22
100
AcDbXrecord
280
     1
270
     1
271
     1
  0
XRECORD
  5
28
102
{ACAD_REACTORS
330
22
102
}
330
22
100
AcDbXrecord
280
     1
270
     1
271
     1
  0
XRECORD
  5
25
102
{ACAD_REACTORS
330
22
102
}
330
22
100
AcDbXrecord
280
     1
270
     1
271
     1
  0
XRECORD
  5
E62
102
{ACAD_REACTORS
330
E61
102
}
330
E61
100
AcDbXrecord
280
     1
102
ACAD_ROUNDTRIP_2012_MLEADER_STYLE
298
     1
  0
CELLSTYLEMAP
  5
E60
102
{ACAD_REACTORS
330
E5F
102
}
330
E5F
100
AcDbCellStyleMap
 90
        3
300
CELLSTYLE
  1
TABLEFORMAT_BEGIN
 90
        5
170
     1
 91
        0
 92
    32768
 62
   257
 93
        1
300
CONTENTFORMAT
  1
CONTENTFORMAT_BEGIN
 90
        0
 91
        0
 92
      512
 93
        0
300

 40
0.0
140
1.0
 94
        5
 62
     0
340
55
144
0.25
309
CONTENTFORMAT_END
171
     0
 94
        0
309
TABLEFORMAT_END
  1
CELLSTYLE_BEGIN
 90
        1
 91
        1
300
_TITLE
309
CELLSTYLE_END
300
CELLSTYLE
  1
TABLEFORMAT_BEGIN
 90
        5
170
     1
 91
        0
 92
        0
 62
   257
 93
        1
300
CONTENTFORMAT
  1
CONTENTFORMAT_BEGIN
 90
        0
 91
        0
 92
      512
 93
        0
300

 40
0.0
140
1.0
 94
        5
 62
     0
340
55
144
0.18
309
CONTENTFORMAT_END
171
     0
 94
        0
309
TABLEFORMAT_END
  1
CELLSTYLE_BEGIN
 90
        2
 91
        1
300
_HEADER
309
CELLSTYLE_END
300
CELLSTYLE
  1
TABLEFORMAT_BEGIN
 90
        5
170
     1
 91
        0
 92
        0
 62
   257
 93
        1
300
CONTENTFORMAT
  1
CONTENTFORMAT_BEGIN
 90
        0
 91
        0
 92
      512
 93
        0
300

 40
0.0
140
1.0
 94
        2
 62
     0
340
55
144
0.18
309
CONTENTFORMAT_END
171
     0
 94
        0
309
TABLEFORMAT_END
  1
CELLSTYLE_BEGIN
 90
        3
 91
        2
300
_DATA
309
CELLSTYLE_END
  0
ENDSEC
  0
EOF
