  0
SECTION
  2
HEADER
  9
$ACADVER
  1
AC1024
  9
$ACADMAINTVER
 70
    63
  9
$DWGCODEPAGE
  3
ANSI_1252
  9
$AUTHOR
  1
MS
  9
$REVISIONNUMBER
  1
-
  9
$CUSTOMPROPERTYTAG
  1
Manager
  9
$CUSTOMPROPERTY
  1

  9
$CUSTOMPROPERTYTAG
  1
Company
  9
$CUSTOMPROPERTY
  1

  9
$CUSTOMPROPERTYTAG
  1
Category
  9
$CUSTOMPROPERTY
  1

  9
$CUSTOMPROPERTYTAG
  1
Part Number
  9
$CUSTOMPROPERTY
  1
NPDD6060
  9
$CUSTOMPROPERTYTAG
  1
Description
  9
$CUSTOMPROPERTY
  1
NPDD PANEL MASTER VIEW
  9
$CUSTOMPROPERTYTAG
  1
Project
  9
$CUSTOMPROPERTY
  1

  9
$CUSTOMPROPERTYTAG
  1
Designer
  9
$CUSTOMPROPERTY
  1
MS
  9
$CUSTOMPROPERTYTAG
  1
Engineer
  9
$CUSTOMPROPERTY
  1

  9
$CUSTOMPROPERTYTAG
  1
Authority
  9
$CUSTOMPROPERTY
  1

  9
$CUSTOMPROPERTYTAG
  1
Cost Center
  9
$CUSTOMPROPERTY
  1

  9
$CUSTOMPROPERTYTAG
  1
Vendor
  9
$CUSTOMPROPERTY
  1

  9
$CUSTOMPROPERTYTAG
  1
User Status
  9
$CUSTOMPROPERTY
  1

  9
$CUSTOMPROPERTYTAG
  1
Design Status
  9
$CUSTOMPROPERTY
  1
WorkInProgress
  9
$CUSTOMPROPERTYTAG
  1
Checked by
  9
$CUSTOMPROPERTY
  1
NJ
  9
$CUSTOMPROPERTYTAG
  1
Date Checked
  9
$CUSTOMPROPERTY
  1
06/18/2013
  9
$CUSTOMPROPERTYTAG
  1
Engr Approved by
  9
$CUSTOMPROPERTY
  1

  9
$CUSTOMPROPERTYTAG
  1
Mfg Approved by
  9
$CUSTOMPROPERTY
  1

  9
$CUSTOMPROPERTYTAG
  1
DWG. NO
  9
$CUSTOMPROPERTY
  1

  9
$CUSTOMPROPERTYTAG
  1
NUMBER OF SHEETS
  9
$CUSTOMPROPERTY
  1
2
  9
$CUSTOMPROPERTYTAG
  1
DRAWING #
  9
$CUSTOMPROPERTY
  1
1
  9
$INSBASE
 10
0.0
 20
0.0
 30
0.0
  9
$EXTMIN
 10
0.0
 20
0.0
 30
0.0
  9
$EXTMAX
 10
187.0
 20
121.0
 30
0.0
  9
$LIMMIN
 10
0.0
 20
0.0
  9
$LIMMAX
 10
187.0
 20
121.0
  9
$ORTHOMODE
 70
     0
  9
$REGENMODE
 70
     1
  9
$FILLMODE
 70
     1
  9
$QTEXTMODE
 70
     0
  9
$MIRRTEXT
 70
     0
  9
$LTSCALE
 40
11.0
  9
$ATTMODE
 70
     1
  9
$TEXTSIZE
 40
0.2
  9
$TRACEWID
 40
0.05
  9
$TEXTSTYLE
  7
Standard
  9
$CLAYER
  8
0
  9
$CELTYPE
  6
ByLayer
  9
$CECOLOR
 62
   256
  9
$CELTSCALE
 40
1.0
  9
$DISPSILH
 70
     0
  9
$DIMSCALE
 40
1.0
  9
$DIMASZ
 40
0.0708661417322835
  9
$DIMEXO
 40
0.0625
  9
$DIMDLI
 40
0.38
  9
$DIMRND
 40
0.0
  9
$DIMDLE
 40
0.0
  9
$DIMEXE
 40
0.18
  9
$DIMTP
 40
0.0
  9
$DIMTM
 40
0.0
  9
$DIMTXT
 40
0.0708661417322835
  9
$DIMCEN
 40
0.09
  9
$DIMTSZ
 40
0.0
  9
$DIMTOL
 70
     0
  9
$DIMLIM
 70
     0
  9
$DIMTIH
 70
     1
  9
$DIMTOH
 70
     1
  9
$DIMSE1
 70
     0
  9
$DIMSE2
 70
     0
  9
$DIMTAD
 70
     0
  9
$DIMZIN
 70
     0
  9
$DIMBLK
  1

  9
$DIMASO
 70
     1
  9
$DIMSHO
 70
     1
  9
$DIMPOST
  1

  9
$DIMAPOST
  1

  9
$DIMALT
 70
     0
  9
$DIMALTD
 70
     2
  9
$DIMALTF
 40
25.4
  9
$DIMLFAC
 40
1.0
  9
$DIMTOFL
 70
     0
  9
$DIMTVP
 40
0.0
  9
$DIMTIX
 70
     0
  9
$DIMSOXD
 70
     0
  9
$DIMSAH
 70
     0
  9
$DIMBLK1
  1

  9
$DIMBLK2
  1

  9
$DIMSTYLE
  2
STANDARD
  9
$DIMCLRD
 70
     0
  9
$DIMCLRE
 70
     0
  9
$DIMCLRT
 70
     0
  9
$DIMTFAC
 40
1.0
  9
$DIMGAP
 40
0.09
  9
$DIMJUST
 70
     0
  9
$DIMSD1
 70
     0
  9
$DIMSD2
 70
     0
  9
$DIMTOLJ
 70
     1
  9
$DIMTZIN
 70
     0
  9
$DIMALTZ
 70
     0
  9
$DIMALTTZ
 70
     0
  9
$DIMUPT
 70
     0
  9
$DIMDEC
 70
     4
  9
$DIMTDEC
 70
     4
  9
$DIMALTU
 70
     2
  9
$DIMALTTD
 70
     2
  9
$DIMTXSTY
  7
Standard
  9
$DIMAUNIT
 70
     0
  9
$DIMADEC
 70
     0
  9
$DIMALTRND
 40
0.0
  9
$DIMAZIN
 70
     0
  9
$DIMDSEP
 70
    46
  9
$DIMATFIT
 70
     3
  9
$DIMFRAC
 70
     0
  9
$DIMLDRBLK
  1

  9
$DIMLUNIT
 70
     2
  9
$DIMLWD
 70
    -2
  9
$DIMLWE
 70
    -2
  9
$DIMTMOVE
 70
     0
  9
$DIMFXL
 40
1.0
  9
$DIMFXLON
 70
     0
  9
$DIMJOGANG
 40
0.7853981633974483
  9
$DIMTFILL
 70
     0
  9
$DIMTFILLCLR
 70
     0
  9
$DIMARCSYM
 70
     0
  9
$DIMLTYPE
  6

  9
$DIMLTEX1
  6

  9
$DIMLTEX2
  6

  9
$DIMTXTDIRECTION
 70
     0
  9
$LUNITS
 70
     2
  9
$LUPREC
 70
     4
  9
$SKETCHINC
 40
0.1
  9
$FILLETRAD
 40
0.0
  9
$AUNITS
 70
     0
  9
$AUPREC
 70
     0
  9
$MENU
  1
.
  9
$ELEVATION
 40
0.0
  9
$PELEVATION
 40
0.0
  9
$THICKNESS
 40
0.0
  9
$LIMCHECK
 70
     0
  9
$CHAMFERA
 40
0.0
  9
$CHAMFERB
 40
0.0
  9
$CHAMFERC
 40
0.0
  9
$CHAMFERD
 40
0.0
  9
$SKPOLY
 70
     0
  9
$TDCREATE
 40
2456465.442510197
  9
$TDUCREATE
 40
2456465.213343530
  9
$TDUPDATE
 40
2456465.442510208
  9
$TDUUPDATE
 40
2456465.213343542
  9
$TDINDWG
 40
0.0000449190
  9
$TDUSRTIMER
 40
0.0000449190
  9
$USRTIMER
 70
     1
  9
$ANGBASE
 50
0.0
  9
$ANGDIR
 70
     0
  9
$PDMODE
 70
     0
  9
$PDSIZE
 40
0.0
  9
$PLINEWID
 40
0.0
  9
$SPLFRAME
 70
     0
  9
$SPLINETYPE
 70
     6
  9
$SPLINESEGS
 70
     8
  9
$HANDSEED
  5
E79
  9
$SURFTAB1
 70
     6
  9
$SURFTAB2
 70
     6
  9
$SURFTYPE
 70
     6
  9
$SURFU
 70
     6
  9
$SURFV
 70
     6
  9
$UCSBASE
  2

  9
$UCSNAME
  2

  9
$UCSORG
 10
0.0
 20
0.0
 30
0.0
  9
$UCSXDIR
 10
1.0
 20
0.0
 30
0.0
  9
$UCSYDIR
 10
0.0
 20
1.0
 30
0.0
  9
$UCSORTHOREF
  2

  9
$UCSORTHOVIEW
 70
     0
  9
$UCSORGTOP
 10
0.0
 20
0.0
 30
0.0
  9
$UCSORGBOTTOM
 10
0.0
 20
0.0
 30
0.0
  9
$UCSORGLEFT
 10
0.0
 20
0.0
 30
0.0
  9
$UCSORGRIGHT
 10
0.0
 20
0.0
 30
0.0
  9
$UCSORGFRONT
 10
0.0
 20
0.0
 30
0.0
  9
$UCSORGBACK
 10
0.0
 20
0.0
 30
0.0
  9
$PUCSBASE
  2

  9
$PUCSNAME
  2

  9
$PUCSORG
 10
0.0
 20
0.0
 30
0.0
  9
$PUCSXDIR
 10
1.0
 20
0.0
 30
0.0
  9
$PUCSYDIR
 10
0.0
 20
1.0
 30
0.0
  9
$PUCSORTHOREF
  2

  9
$PUCSORTHOVIEW
 70
     0
  9
$PUCSORGTOP
 10
0.0
 20
0.0
 30
0.0
  9
$PUCSORGBOTTOM
 10
0.0
 20
0.0
 30
0.0
  9
$PUCSORGLEFT
 10
0.0
 20
0.0
 30
0.0
  9
$PUCSORGRIGHT
 10
0.0
 20
0.0
 30
0.0
  9
$PUCSORGFRONT
 10
0.0
 20
0.0
 30
0.0
  9
$PUCSORGBACK
 10
0.0
 20
0.0
 30
0.0
  9
$USERI1
 70
     0
  9
$USERI2
 70
     0
  9
$USERI3
 70
     0
  9
$USERI4
 70
     0
  9
$USERI5
 70
     0
  9
$USERR1
 40
0.0
  9
$USERR2
 40
0.0
  9
$USERR3
 40
0.0
  9
$USERR4
 40
0.0
  9
$USERR5
 40
0.0
  9
$WORLDVIEW
 70
     1
  9
$SHADEDGE
 70
     3
  9
$SHADEDIF
 70
    70
  9
$TILEMODE
 70
     1
  9
$MAXACTVP
 70
    64
  9
$PINSBASE
 10
0.0
 20
0.0
 30
0.0
  9
$PLIMCHECK
 70
     0
  9
$PEXTMIN
 10
0.0
 20
0.0
 30
0.0
  9
$PEXTMAX
 10
187.0
 20
121.0
 30
0.0
  9
$PLIMMIN
 10
0.0
 20
0.0
  9
$PLIMMAX
 10
187.0
 20
121.0
  9
$UNITMODE
 70
     0
  9
$VISRETAIN
 70
     1
  9
$PLINEGEN
 70
     0
  9
$PSLTSCALE
 70
     1
  9
$TREEDEPTH
 70
  3020
  9
$CMLSTYLE
  2
Standard
  9
$CMLJUST
 70
     0
  9
$CMLSCALE
 40
1.0
  9
$PROXYGRAPHICS
 70
     1
  9
$MEASUREMENT
 70
     0
  9
$CELWEIGHT
370
    -1
  9
$ENDCAPS
280
     0
  9
$JOINSTYLE
280
     0
  9
$LWDISPLAY
290
     0
  9
$INSUNITS
 70
     1
  9
$HYPERLINKBASE
  1

  9
$STYLESHEET
  1

  9
$XEDIT
290
     1
  9
$CEPSNTYPE
380
     0
  9
$PSTYLEMODE
290
     1
  9
$FINGERPRINTGUID
  2
{4EFFD5A1-EAFC-4618-9470-A2ED9B663AB7}
  9
$VERSIONGUID
  2
{75196BDD-C797-440F-A0DC-455717051949}
  9
$EXTNAMES
290
     1
  9
$PSVPSCALE
 40
0.0
  9
$OLESTARTUP
290
     0
  9
$SORTENTS
280
   127
  9
$INDEXCTL
280
     0
  9
$HIDETEXT
280
     1
  9
$XCLIPFRAME
280
     2
  9
$HALOGAP
280
     0
  9
$OBSCOLOR
 70
   257
  9
$OBSLTYPE
280
     0
  9
$INTERSECTIONDISPLAY
280
     0
  9
$INTERSECTIONCOLOR
 70
   257
  9
$DIMASSOC
280
     1
  9
$PROJECTNAME
  1

  9
$CAMERADISPLAY
290
     0
  9
$LENSLENGTH
 40
50.0
  9
$CAMERAHEIGHT
 40
0.0
  9
$STEPSPERSEC
 40
2.0
  9
$STEPSIZE
 40
6.0
  9
$3DDWFPREC
 40
2.0
  9
$PSOLWIDTH
 40
0.25
  9
$PSOLHEIGHT
 40
4.0
  9
$LOFTANG1
 40
1.570796326794896
  9
$LOFTANG2
 40
1.570796326794896
  9
$LOFTMAG1
 40
0.0
  9
$LOFTMAG2
 40
0.0
  9
$LOFTPARAM
 70
     7
  9
$LOFTNORMALS
280
     1
  9
$LATITUDE
 40
37.795
  9
$LONGITUDE
 40
-122.394
  9
$NORTHDIRECTION
 40
0.0
  9
$TIMEZONE
 70
 -8000
  9
$LIGHTGLYPHDISPLAY
280
     1
  9
$TILEMODELIGHTSYNCH
280
     1
  9
$CMATERIAL
347
11
  9
$SOLIDHIST
280
     0
  9
$SHOWHIST
280
     1
  9
$DWFFRAME
280
     2
  9
$DGNFRAME
280
     0
  9
$REALWORLDSCALE
290
     1
  9
$INTERFERECOLOR
 62
     1
  9
$INTERFEREOBJVS
345
33
  9
$INTERFEREVPVS
346
30
  9
$CSHADOW
280
     0
  9
$SHADOWPLANELOCATION
 40
0.0
  0
ENDSEC
  0
SECTION
  2
CLASSES
  0
CLASS
  1
ACDBDICTIONARYWDFLT
  2
AcDbDictionaryWithDefault
  3
ObjectDBX Classes
 90
        0
 91
        1
280
     0
281
     0
  0
CLASS
  1
MATERIAL
  2
AcDbMaterial
  3
ObjectDBX Classes
 90
     1153
 91
        3
280
     0
281
     0
  0
CLASS
  1
VISUALSTYLE
  2
AcDbVisualStyle
  3
ObjectDBX Classes
 90
     4095
 91
       24
280
     0
281
     0
  0
CLASS
  1
SCALE
  2
AcDbScale
  3
ObjectDBX Classes
 90
     1153
 91
       17
280
     0
281
     0
  0
CLASS
  1
TABLESTYLE
  2
AcDbTableStyle
  3
ObjectDBX Classes
 90
     4095
 91
        1
280
     0
281
     0
  0
CLASS
  1
MLEADERSTYLE
  2
AcDbMLeaderStyle
  3
ACDB_MLEADERSTYLE_CLASS
 90
     4095
 91
        1
280
     0
281
     0
  0
CLASS
  1
DICTIONARYVAR
  2
AcDbDictionaryVar
  3
ObjectDBX Classes
 90
        0
 91
        3
280
     0
281
     0
  0
CLASS
  1
CELLSTYLEMAP
  2
AcDbCellStyleMap
  3
ObjectDBX Classes
 90
     1152
 91
        1
280
     0
281
     0
  0
ENDSEC
  0
SECTION
  2
TABLES
  0
TABLE
  2
VPORT
  5
8
330
0
100
AcDbSymbolTable
 70
     1
  0
VPORT
  5
57
330
8
100
AcDbSymbolTableRecord
100
AcDbViewportTableRecord
  2
*Active
 70
     0
 10
0.0
 20
0.0
 11
1.0
 21
1.0
 12
93.49999999999999
 22
60.5
 13
0.0
 23
0.0
 14
1.0
 24
1.0
 15
0.0
 25
0.0
 16
0.0
 26
0.0
 36
1.0
 17
0.0
 27
0.0
 37
0.0
 40
121.0
 41
1.545454545454545
 42
50.0
 43
0.0
 44
0.0
 50
0.0
 51
0.0
 71
     0
 72
   100
 73
     1
 74
     1
 75
     0
 76
     0
 77
     0
 78
     0
281
     0
 65
     1
110
0.0
120
0.0
130
0.0
111
1.0
121
0.0
131
0.0
112
0.0
122
1.0
132
0.0
 79
     0
146
0.0
 60
     3
 61
     5
292
     1
282
     1
141
0.0
142
0.0
 63
   250
421
  3355443
  0
ENDTAB
  0
TABLE
  2
LTYPE
  5
5
330
0
100
AcDbSymbolTable
 70
    59
  0
LTYPE
  5
5B
330
5
100
AcDbSymbolTableRecord
100
AcDbLinetypeTableRecord
  2
ByBlock
 70
     0
  3

 72
    65
 73
     0
 40
0.0
  0
LTYPE
  5
5C
330
5
100
AcDbSymbolTableRecord
100
AcDbLinetypeTableRecord
  2
ByLayer
 70
     0
  3

 72
    65
 73
     0
 40
0.0
  0
LTYPE
  5
5D
330
5
100
AcDbSymbolTableRecord
100
AcDbLinetypeTableRecord
  2
Continuous
 70
     0
  3
Solid line
 72
    65
 73
     0
 40
0.0
  0
LTYPE
  5
7C
330
5
100
AcDbSymbolTableRecord
100
AcDbLinetypeTableRecord
  2
BY_STANDARD
 70
     0
  3
By Standard ____________    ____    ____   _
 72
    65
 73
     6
 40
1.240299999999999
 49
0.6614
 74
     0
 49
-0.0827
 74
     0
 49
0.1654
 74
     0
 49
-0.0827
 74
     0
 49
0.1654
 74
     0
 49
-0.0827
 74
     0
  0
LTYPE
  5
7D
330
5
100
AcDbSymbolTableRecord
100
AcDbLinetypeTableRecord
  2
CHAIN
 70
     0
  3
Chain ____ _ ____ _ ____ _ ____ _ ____ _ ____
 72
    65
 73
     4
 40
0.7087
 49
0.4724000000000001
 74
     0
 49
-0.0591
 74
     0
 49
0.1181
 74
     0
 49
-0.0591
 74
     0
  0
LTYPE
  5
7E
330
5
100
AcDbSymbolTableRecord
100
AcDbLinetypeTableRecord
  2
DASH_DOT
 70
     0
  3
Dash dot __ . __ . __ . __ . __ . __ . __ . __
 72
    65
 73
     4
 40
0.37
 49
0.24
 74
     0
 49
-0.06
 74
     0
 49
0.01
 74
     0
 49
-0.06
 74
     0
  0
LTYPE
  5
7F
330
5
100
AcDbSymbolTableRecord
100
AcDbLinetypeTableRecord
  2
DOUBLE_DASH_DOT
 70
     0
  3
Double-Dash Dot __ __ . __ __ . __ __ . __ _
 72
    65
 73
     6
 40
0.4398
 49
0.24
 74
     0
 49
-0.06
 74
     0
 49
0.0098
 74
     0
 49
-0.06
 74
     0
 49
0.01
 74
     0
 49
-0.06
 74
     0
  0
LTYPE
  5
80
330
5
100
AcDbSymbolTableRecord
100
AcDbLinetypeTableRecord
  2
DASH_TRIPLE_DOT
 70
     0
  3
Dash Triple-Dot _ . . . _ . . . _ . . . _
 72
    65
 73
     8
 40
0.51
 49
0.24
 74
     0
 49
-0.06
 74
     0
 49
0.01
 74
     0
 49
-0.06
 74
     0
 49
0.01
 74
     0
 49
-0.06
 74
     0
 49
0.01
 74
     0
 49
-0.06
 74
     0
  0
LTYPE
  5
81
330
5
100
AcDbSymbolTableRecord
100
AcDbLinetypeTableRecord
  2
DASHED
 70
     0
  3
Dashed __ __ __ __ __ __ __ __ __ __ __ __ __ _
 72
    65
 73
     2
 40
0.2067
 49
0.1654
 74
     0
 49
-0.0413
 74
     0
  0
LTYPE
  5
82
330
5
100
AcDbSymbolTableRecord
100
AcDbLinetypeTableRecord
  2
DASH_DOUBLE_DOT
 70
     0
  3
Dash Double-Dot __ . . __ . . __ . . __ . .
 72
    65
 73
     6
 40
0.4398
 49
0.24
 74
     0
 49
-0.06
 74
     0
 49
0.0098
 74
     0
 49
-0.06
 74
     0
 49
0.01
 74
     0
 49
-0.06
 74
     0
  0
LTYPE
  5
83
330
5
100
AcDbSymbolTableRecord
100
AcDbLinetypeTableRecord
  2
DASHED_SPACE
 70
     0
  3
Dashed Space __ __ __ __ __ __ __ __ __ __ __ _
 72
    65
 73
     2
 40
0.2067
 49
0.1654
 74
     0
 49
-0.0413
 74
     0
  0
LTYPE
  5
84
330
5
100
AcDbSymbolTableRecord
100
AcDbLinetypeTableRecord
  2
DOTTED
 70
     0
  3
Dotted . . . . . . . . . . . . . . . . . . . . 
 72
    65
 73
     2
 40
0.0482
 49
0.0069
 74
     0
 49
-0.0413
 74
     0
  0
LTYPE
  5
85
330
5
100
AcDbSymbolTableRecord
100
AcDbLinetypeTableRecord
  2
DOUBLE_DASH_CHAIN
 70
     0
  3
Double-Dash Chain ______  __  __  ______  __  _
 72
    65
 73
     6
 40
1.240299999999999
 49
0.6614
 74
     0
 49
-0.0827
 74
     0
 49
0.1654
 74
     0
 49
-0.0827
 74
     0
 49
0.1654
 74
     0
 49
-0.0827
 74
     0
  0
LTYPE
  5
87
330
5
100
AcDbSymbolTableRecord
100
AcDbLinetypeTableRecord
  2
DOUBLE_DASH_DOUBLE_DOT
 70
     0
  3
Double-Dash Double-dot _ _ . . _ _ . . _
 72
    65
 73
     8
 40
0.7400000000000001
 49
0.24
 74
     0
 49
-0.06
 74
     0
 49
0.24
 74
     0
 49
-0.06
 74
     0
 49
0.01
 74
     0
 49
-0.06
 74
     0
 49
0.01
 74
     0
 49
-0.06
 74
     0
  0
LTYPE
  5
88
330
5
100
AcDbSymbolTableRecord
100
AcDbLinetypeTableRecord
  2
DOUBLE_DASH_TRIPLE_DOT
 70
     0
  3
Double Dash Triple Dot __ __ . . . __ __ . .
 72
    65
 73
    10
 40
0.8100000000000001
 49
0.24
 74
     0
 49
-0.06
 74
     0
 49
0.24
 74
     0
 49
-0.06
 74
     0
 49
0.01
 74
     0
 49
-0.06
 74
     0
 49
0.01
 74
     0
 49
-0.06
 74
     0
 49
0.01
 74
     0
 49
-0.06
 74
     0
  0
LTYPE
  5
89
330
5
100
AcDbSymbolTableRecord
100
AcDbLinetypeTableRecord
  2
LONG_DASH_DOTTED
 70
     0
  3
Long Dash Dotted ____ . ____ . ____ . ____ . _
 72
    65
 73
     4
 40
0.3543
 49
0.2362
 74
     0
 49
-0.0295
 74
     0
 49
0.0591
 74
     0
 49
-0.0295
 74
     0
  0
LTYPE
  5
8A
330
5
100
AcDbSymbolTableRecord
100
AcDbLinetypeTableRecord
  2
LONG_DASH_DOUBLE_DOT
 70
     0
  3
Long Dash Double Dot ________  .  .  ________  
 72
    65
 73
     6
 40
0.6799999999999999
 49
0.48
 74
     0
 49
-0.06
 74
     0
 49
0.01
 74
     0
 49
-0.06
 74
     0
 49
0.01
 74
     0
 49
-0.06
 74
     0
  0
LTYPE
  5
8B
330
5
100
AcDbSymbolTableRecord
100
AcDbLinetypeTableRecord
  2
LONG_DASH_TRIPLE_DOT
 70
     0
  3
Long Dash Triple Dot ____ ... ____ ... ____
 72
    65
 73
     8
 40
0.3689
 49
0.2362
 74
     0
 49
-0.0295
 74
     0
 49
0.0049
 74
     0
 49
-0.0295
 74
     0
 49
0.0049
 74
     0
 49
-0.0295
 74
     0
 49
0.0049
 74
     0
 49
-0.0295
 74
     0
  0
LTYPE
  5
8C
330
5
100
AcDbSymbolTableRecord
100
AcDbLinetypeTableRecord
  2
BORDER
 70
     0
  3
Border __ __ . __ __ . __ __ . __ __ . __ __ .
 72
    65
 73
     6
 40
1.75
 49
0.5
 74
     0
 49
-0.25
 74
     0
 49
0.5
 74
     0
 49
-0.25
 74
     0
 49
0.0
 74
     0
 49
-0.25
 74
     0
  0
LTYPE
  5
8D
330
5
100
AcDbSymbolTableRecord
100
AcDbLinetypeTableRecord
  2
BORDER2
 70
     0
  3
Border (.5x) __.__.__.__.__.__.__.__.__.__.__.
 72
    65
 73
     6
 40
0.875
 49
0.25
 74
     0
 49
-0.125
 74
     0
 49
0.25
 74
     0
 49
-0.125
 74
     0
 49
0.0
 74
     0
 49
-0.125
 74
     0
  0
LTYPE
  5
8E
330
5
100
AcDbSymbolTableRecord
100
AcDbLinetypeTableRecord
  2
BORDERX2
 70
     0
  3
Border (2x) ____  ____  .  ____  ____  .  ___
 72
    65
 73
     6
 40
3.5
 49
1.0
 74
     0
 49
-0.5
 74
     0
 49
1.0
 74
     0
 49
-0.5
 74
     0
 49
0.0
 74
     0
 49
-0.5
 74
     0
  0
LTYPE
  5
8F
330
5
100
AcDbSymbolTableRecord
100
AcDbLinetypeTableRecord
  2
CENTER
 70
     0
  3
Center ____ _ ____ _ ____ _ ____ _ ____ _ ____
 72
    65
 73
     4
 40
2.0
 49
1.25
 74
     0
 49
-0.25
 74
     0
 49
0.25
 74
     0
 49
-0.25
 74
     0
  0
LTYPE
  5
90
330
5
100
AcDbSymbolTableRecord
100
AcDbLinetypeTableRecord
  2
CENTER2
 70
     0
  3
Center (.5x) ___ _ ___ _ ___ _ ___ _ ___ _ ___
 72
    65
 73
     4
 40
1.125
 49
0.75
 74
     0
 49
-0.125
 74
     0
 49
0.125
 74
     0
 49
-0.125
 74
     0
  0
LTYPE
  5
91
330
5
100
AcDbSymbolTableRecord
100
AcDbLinetypeTableRecord
  2
CENTERX2
 70
     0
  3
Center (2x) ________  __  ________  __  _____
 72
    65
 73
     4
 40
4.0
 49
2.5
 74
     0
 49
-0.5
 74
     0
 49
0.5
 74
     0
 49
-0.5
 74
     0
  0
LTYPE
  5
92
330
5
100
AcDbSymbolTableRecord
100
AcDbLinetypeTableRecord
  2
DASHDOT2
 70
     0
  3
Dash dot (.5x) _._._._._._._._._._._._._._._.
 72
    65
 73
     4
 40
0.5
 49
0.25
 74
     0
 49
-0.125
 74
     0
 49
0.0
 74
     0
 49
-0.125
 74
     0
  0
LTYPE
  5
93
330
5
100
AcDbSymbolTableRecord
100
AcDbLinetypeTableRecord
  2
DASHDOTX2
 70
     0
  3
Dash dot (2x) ____  .  ____  .  ____  .  ___
 72
    65
 73
     4
 40
2.0
 49
1.0
 74
     0
 49
-0.5
 74
     0
 49
0.0
 74
     0
 49
-0.5
 74
     0
  0
LTYPE
  5
95
330
5
100
AcDbSymbolTableRecord
100
AcDbLinetypeTableRecord
  2
DASHED2
 70
     0
  3
Dashed (.5x) _ _ _ _ _ _ _ _ _ _ _ _ _ _ _ _ _
 72
    65
 73
     2
 40
0.375
 49
0.25
 74
     0
 49
-0.125
 74
     0
  0
LTYPE
  5
96
330
5
100
AcDbSymbolTableRecord
100
AcDbLinetypeTableRecord
  2
DASHEDX2
 70
     0
  3
Dashed (2x) ____  ____  ____  ____  ____  ___
 72
    65
 73
     2
 40
1.5
 49
1.0
 74
     0
 49
-0.5
 74
     0
  0
LTYPE
  5
97
330
5
100
AcDbSymbolTableRecord
100
AcDbLinetypeTableRecord
  2
DIVIDE
 70
     0
  3
Divide ____ . . ____ . . ____ . . ____ . . ____
 72
    65
 73
     6
 40
1.25
 49
0.5
 74
     0
 49
-0.25
 74
     0
 49
0.0
 74
     0
 49
-0.25
 74
     0
 49
0.0
 74
     0
 49
-0.25
 74
     0
  0
LTYPE
  5
98
330
5
100
AcDbSymbolTableRecord
100
AcDbLinetypeTableRecord
  2
DIVIDE2
 70
     0
  3
Divide (.5x) __..__..__..__..__..__..__..__.._
 72
    65
 73
     6
 40
0.625
 49
0.25
 74
     0
 49
-0.125
 74
     0
 49
0.0
 74
     0
 49
-0.125
 74
     0
 49
0.0
 74
     0
 49
-0.125
 74
     0
  0
LTYPE
  5
99
330
5
100
AcDbSymbolTableRecord
100
AcDbLinetypeTableRecord
  2
DIVIDEX2
 70
     0
  3
Divide (2x) ________  .  .  ________  .  .  _
 72
    65
 73
     6
 40
2.5
 49
1.0
 74
     0
 49
-0.5
 74
     0
 49
0.0
 74
     0
 49
-0.5
 74
     0
 49
0.0
 74
     0
 49
-0.5
 74
     0
  0
LTYPE
  5
9A
330
5
100
AcDbSymbolTableRecord
100
AcDbLinetypeTableRecord
  2
DOT
 70
     0
  3
Dot . . . . . . . . . . . . . . . . . . . . . .
 72
    65
 73
     2
 40
0.25
 49
0.0
 74
     0
 49
-0.25
 74
     0
  0
LTYPE
  5
9B
330
5
100
AcDbSymbolTableRecord
100
AcDbLinetypeTableRecord
  2
DOT2
 70
     0
  3
Dot (.5x) .....................................
 72
    65
 73
     2
 40
0.125
 49
0.0
 74
     0
 49
-0.125
 74
     0
  0
LTYPE
  5
9C
330
5
100
AcDbSymbolTableRecord
100
AcDbLinetypeTableRecord
  2
DOTX2
 70
     0
  3
Dot (2x) .  .  .  .  .  .  .  .  .  .  .  .  . 
 72
    65
 73
     2
 40
0.5
 49
0.0
 74
     0
 49
-0.5
 74
     0
  0
LTYPE
  5
9D
330
5
100
AcDbSymbolTableRecord
100
AcDbLinetypeTableRecord
  2
HIDDEN
 70
     0
  3
Hidden __ __ __ __ __ __ __ __ __ __ __ __ __ _
 72
    65
 73
     2
 40
0.375
 49
0.25
 74
     0
 49
-0.125
 74
     0
  0
LTYPE
  5
9E
330
5
100
AcDbSymbolTableRecord
100
AcDbLinetypeTableRecord
  2
HIDDEN2
 70
     0
  3
Hidden (.5x) _ _ _ _ _ _ _ _ _ _ _ _ _ _ _ _ _
 72
    65
 73
     2
 40
0.1875
 49
0.125
 74
     0
 49
-0.0625
 74
     0
  0
LTYPE
  5
9F
330
5
100
AcDbSymbolTableRecord
100
AcDbLinetypeTableRecord
  2
HIDDENX2
 70
     0
  3
Hidden (2x) ____ ____ ____ ____ ____ ____ ____
 72
    65
 73
     2
 40
0.75
 49
0.5
 74
     0
 49
-0.25
 74
     0
  0
LTYPE
  5
A0
330
5
100
AcDbSymbolTableRecord
100
AcDbLinetypeTableRecord
  2
PHANTOM
 70
     0
  3
Phantom ______  __  __  ______  __  __  ______
 72
    65
 73
     6
 40
2.5
 49
1.25
 74
     0
 49
-0.25
 74
     0
 49
0.25
 74
     0
 49
-0.25
 74
     0
 49
0.25
 74
     0
 49
-0.25
 74
     0
  0
LTYPE
  5
A1
330
5
100
AcDbSymbolTableRecord
100
AcDbLinetypeTableRecord
  2
PHANTOM2
 70
     0
  3
Phantom (.5x) ___ _ _ ___ _ _ ___ _ _ ___ _ _
 72
    65
 73
     6
 40
1.25
 49
0.625
 74
     0
 49
-0.125
 74
     0
 49
0.125
 74
     0
 49
-0.125
 74
     0
 49
0.125
 74
     0
 49
-0.125
 74
     0
  0
LTYPE
  5
A2
330
5
100
AcDbSymbolTableRecord
100
AcDbLinetypeTableRecord
  2
PHANTOMX2
 70
     0
  3
Phantom (2x) ____________    ____    ____   _
 72
    65
 73
     6
 40
5.0
 49
2.5
 74
     0
 49
-0.5
 74
     0
 49
0.5
 74
     0
 49
-0.5
 74
     0
 49
0.5
 74
     0
 49
-0.5
 74
     0
  0
LTYPE
  5
A3
330
5
100
AcDbSymbolTableRecord
100
AcDbLinetypeTableRecord
  2
ACAD_ISO02W100
 70
     0
  3
ISO dash __ __ __ __ __ __ __ __ __ __ __ __ __
 72
    65
 73
     2
 40
0.59
 49
0.47
 74
     0
 49
-0.12
 74
     0
  0
LTYPE
  5
A4
330
5
100
AcDbSymbolTableRecord
100
AcDbLinetypeTableRecord
  2
ACAD_ISO03W100
 70
     0
  3
ISO dash space __    __    __    __    __    __
 72
    65
 73
     2
 40
1.179999999999999
 49
0.47
 74
     0
 49
-0.71
 74
     0
  0
LTYPE
  5
A5
330
5
100
AcDbSymbolTableRecord
100
AcDbLinetypeTableRecord
  2
ACAD_ISO04W100
 70
     0
  3
ISO long-dash dot ____ . ____ . ____ . ____ . _
 72
    65
 73
     4
 40
1.179999999999999
 49
0.9399999999999998
 74
     0
 49
-0.12
 74
     0
 49
0.0
 74
     0
 49
-0.12
 74
     0
  0
LTYPE
  5
A6
330
5
100
AcDbSymbolTableRecord
100
AcDbLinetypeTableRecord
  2
ACAD_ISO05W100
 70
     0
  3
ISO long-dash double-dot ____ .. ____ .. ____ .
 72
    65
 73
     6
 40
1.299999999999999
 49
0.9399999999999998
 74
     0
 49
-0.12
 74
     0
 49
0.0
 74
     0
 49
-0.12
 74
     0
 49
0.0
 74
     0
 49
-0.12
 74
     0
  0
LTYPE
  5
A7
330
5
100
AcDbSymbolTableRecord
100
AcDbLinetypeTableRecord
  2
ACAD_ISO06W100
 70
     0
  3
ISO long-dash triple-dot ____ ... ____ ... ____
 72
    65
 73
     8
 40
1.419999999999999
 49
0.9399999999999998
 74
     0
 49
-0.12
 74
     0
 49
0.0
 74
     0
 49
-0.12
 74
     0
 49
0.0
 74
     0
 49
-0.12
 74
     0
 49
0.0
 74
     0
 49
-0.12
 74
     0
  0
LTYPE
  5
A8
330
5
100
AcDbSymbolTableRecord
100
AcDbLinetypeTableRecord
  2
ACAD_ISO07W100
 70
     0
  3
ISO dot . . . . . . . . . . . . . . . . . . . .
 72
    65
 73
     2
 40
0.12
 49
0.0
 74
     0
 49
-0.12
 74
     0
  0
LTYPE
  5
A9
330
5
100
AcDbSymbolTableRecord
100
AcDbLinetypeTableRecord
  2
ACAD_ISO08W100
 70
     0
  3
ISO long-dash short-dash ____ __ ____ __ ____ _
 72
    65
 73
     4
 40
0.95
 49
0.47
 74
     0
 49
-0.12
 74
     0
 49
0.24
 74
     0
 49
-0.12
 74
     0
  0
LTYPE
  5
AA
330
5
100
AcDbSymbolTableRecord
100
AcDbLinetypeTableRecord
  2
ACAD_ISO09W100
 70
     0
  3
ISO long-dash double-short-dash ____ __ __ ____
 72
    65
 73
     6
 40
1.31
 49
0.47
 74
     0
 49
-0.12
 74
     0
 49
0.24
 74
     0
 49
-0.12
 74
     0
 49
0.24
 74
     0
 49
-0.12
 74
     0
  0
LTYPE
  5
AB
330
5
100
AcDbSymbolTableRecord
100
AcDbLinetypeTableRecord
  2
ACAD_ISO10W100
 70
     0
  3
ISO dash dot __ . __ . __ . __ . __ . __ . __ .
 72
    65
 73
     4
 40
0.71
 49
0.47
 74
     0
 49
-0.12
 74
     0
 49
0.0
 74
     0
 49
-0.12
 74
     0
  0
LTYPE
  5
AC
330
5
100
AcDbSymbolTableRecord
100
AcDbLinetypeTableRecord
  2
ACAD_ISO11W100
 70
     0
  3
ISO double-dash dot __ __ . __ __ . __ __ . __ 
 72
    65
 73
     6
 40
1.299999999999999
 49
0.47
 74
     0
 49
-0.12
 74
     0
 49
0.47
 74
     0
 49
-0.12
 74
     0
 49
0.0
 74
     0
 49
-0.12
 74
     0
  0
LTYPE
  5
AD
330
5
100
AcDbSymbolTableRecord
100
AcDbLinetypeTableRecord
  2
ACAD_ISO12W100
 70
     0
  3
ISO dash double-dot __ . . __ . . __ . . __ . .
 72
    65
 73
     6
 40
0.8299999999999998
 49
0.47
 74
     0
 49
-0.12
 74
     0
 49
0.0
 74
     0
 49
-0.12
 74
     0
 49
0.0
 74
     0
 49
-0.12
 74
     0
  0
LTYPE
  5
AE
330
5
100
AcDbSymbolTableRecord
100
AcDbLinetypeTableRecord
  2
ACAD_ISO13W100
 70
     0
  3
ISO double-dash double-dot __ __ . . __ __ . . 
 72
    65
 73
     8
 40
1.419999999999999
 49
0.47
 74
     0
 49
-0.12
 74
     0
 49
0.47
 74
     0
 49
-0.12
 74
     0
 49
0.0
 74
     0
 49
-0.12
 74
     0
 49
0.0
 74
     0
 49
-0.12
 74
     0
  0
LTYPE
  5
AF
330
5
100
AcDbSymbolTableRecord
100
AcDbLinetypeTableRecord
  2
ACAD_ISO14W100
 70
     0
  3
ISO dash triple-dot __ . . . __ . . . __ . . . 
 72
    65
 73
     8
 40
0.95
 49
0.47
 74
     0
 49
-0.12
 74
     0
 49
0.0
 74
     0
 49
-0.12
 74
     0
 49
0.0
 74
     0
 49
-0.12
 74
     0
 49
0.0
 74
     0
 49
-0.12
 74
     0
  0
LTYPE
  5
B0
330
5
100
AcDbSymbolTableRecord
100
AcDbLinetypeTableRecord
  2
ACAD_ISO15W100
 70
     0
  3
ISO double-dash triple-dot __ __ . . . __ __ . 
 72
    65
 73
    10
 40
1.539999999999999
 49
0.47
 74
     0
 49
-0.12
 74
     0
 49
0.47
 74
     0
 49
-0.12
 74
     0
 49
0.0
 74
     0
 49
-0.12
 74
     0
 49
0.0
 74
     0
 49
-0.12
 74
     0
 49
0.0
 74
     0
 49
-0.12
 74
     0
  0
LTYPE
  5
B3
330
5
100
AcDbSymbolTableRecord
100
AcDbLinetypeTableRecord
  2
FENCELINE1
 70
     0
  3
Fenceline circle ----0-----0----0-----0----0---
 72
    65
 73
     4
 40
1.45
 49
0.25
 74
     0
 49
-0.1
 74
     4
 75
   133
340
B2
 46
0.1
 50
0.0
 44
-0.1
 45
0.0
 49
-0.1
 74
     0
 49
1.0
 74
     0
  0
LTYPE
  5
B4
330
5
100
AcDbSymbolTableRecord
100
AcDbLinetypeTableRecord
  2
FENCELINE2
 70
     0
  3
Fenceline square ----[]-----[]----[]-----[]----
 72
    65
 73
     4
 40
1.45
 49
0.25
 74
     0
 49
-0.1
 74
     4
 75
   132
340
B2
 46
0.1
 50
0.0
 44
-0.1
 45
0.0
 49
-0.1
 74
     0
 49
1.0
 74
     0
  0
LTYPE
  5
B5
330
5
100
AcDbSymbolTableRecord
100
AcDbLinetypeTableRecord
  2
TRACKS
 70
     0
  3
Tracks -|-|-|-|-|-|-|-|-|-|-|-|-|-|-|-|-|-|-|-|
 72
    65
 73
     2
 40
0.3
 49
0.15
 74
     4
 75
   130
340
B2
 46
0.25
 50
0.0
 44
0.0
 45
0.0
 49
0.15
 74
     0
  0
LTYPE
  5
B6
330
5
100
AcDbSymbolTableRecord
100
AcDbLinetypeTableRecord
  2
BATTING
 70
     0
  3
Batting SSSSSSSSSSSSSSSSSSSSSSSSSSSSSSSSSSSSSSS
 72
    65
 73
     4
 40
0.4001000000000001
 49
0.0001
 74
     0
 49
-0.1
 74
     4
 75
   134
340
B2
 46
0.1
 50
0.0
 44
-0.1
 45
0.0
 49
-0.2
 74
     4
 75
   134
340
B2
 46
0.1
 50
180.0
 44
0.1
 45
0.0
 49
-0.1
 74
     0
  0
LTYPE
  5
B7
330
5
100
AcDbSymbolTableRecord
100
AcDbLinetypeTableRecord
  2
HOT_WATER_SUPPLY
 70
     0
  3
Hot water supply ---- HW ---- HW ---- HW ----
 72
    65
 73
     3
 40
0.9
 49
0.5
 74
     0
 49
-0.2
 74
     2
 75
     0
340
55
 46
0.1
 50
0.0
 44
-0.1
 45
-0.05
  9
HW
 49
-0.2
 74
     0
  0
LTYPE
  5
B8
330
5
100
AcDbSymbolTableRecord
100
AcDbLinetypeTableRecord
  2
GAS_LINE
 70
     0
  3
Gas line ----GAS----GAS----GAS----GAS----GAS---
 72
    65
 73
     3
 40
0.95
 49
0.5
 74
     0
 49
-0.2
 74
     2
 75
     0
340
55
 46
0.1
 50
0.0
 44
-0.1
 45
-0.05
  9
GAS
 49
-0.25
 74
     0
  0
LTYPE
  5
B9
330
5
100
AcDbSymbolTableRecord
100
AcDbLinetypeTableRecord
  2
ZIGZAG
 70
     0
  3
Zig zag /\/\/\/\/\/\/\/\/\/\/\/\/\/\/\/\/\/\/\/
 72
    65
 73
     4
 40
0.8001000000000001
 49
0.0001
 74
     0
 49
-0.2
 74
     4
 75
   131
340
B2
 46
0.2
 50
0.0
 44
-0.2
 45
0.0
 49
-0.4
 74
     4
 75
   131
340
B2
 46
0.2
 50
180.0
 44
0.2
 45
0.0
 49
-0.2
 74
     0
  0
ENDTAB
  0
TABLE
  2
LAYER
  5
2
330
0
100
AcDbSymbolTable
 70
    27
  0
LAYER
  5
54
330
2
100
AcDbSymbolTableRecord
100
AcDbLayerTableRecord
  2
0
 70
     0
 62
     7
  6
Continuous
370
    18
390
F
347
21
  0
LAYER
  5
C0
330
2
100
AcDbSymbolTableRecord
100
AcDbLayerTableRecord
  2
Center Mark (ANSI)
 70
     0
 62
     7
  6
Continuous
370
    15
390
F
347
21
  0
LAYER
  5
C1
330
2
100
AcDbSymbolTableRecord
100
AcDbLayerTableRecord
  2
Centerline (ANSI)
 70
     0
 62
     7
  6
Continuous
370
    15
390
F
347
21
  0
LAYER
  5
C3
330
2
100
AcDbSymbolTableRecord
100
AcDbLayerTableRecord
  2
Dimension (ANSI)
 70
     0
 62
     7
  6
Continuous
370
    13
390
F
347
21
  0
LAYER
  5
CC
330
2
100
AcDbSymbolTableRecord
100
AcDbLayerTableRecord
  2
Symbol (ANSI)
 70
     0
 62
     7
  6
Continuous
370
    18
390
F
347
21
  0
LAYER
  5
CF
330
2
100
AcDbSymbolTableRecord
100
AcDbLayerTableRecord
  2
Visible (ANSI)
 70
     0
 62
     7
  6
Continuous
370
    13
390
F
347
21
  0
LAYER
  5
D0
330
2
100
AcDbSymbolTableRecord
100
AcDbLayerTableRecord
  2
Visible Narrow (ANSI)
 70
     0
 62
     7
  6
Continuous
370
    18
390
F
347
21
  0
LAYER
  5
2EB
330
2
100
AcDbSymbolTableRecord
100
AcDbLayerTableRecord
  2
Defpoints
 70
     0
 62
     7
  6
Continuous
290
     0
370
    -3
390
F
347
21
  0
ENDTAB
  0
TABLE
  2
STYLE
  5
3
330
0
100
AcDbSymbolTable
 70
    17
  0
STYLE
  5
55
330
3
100
AcDbSymbolTableRecord
100
AcDbTextStyleTableRecord
  2
Standard
 70
     0
 40
0.0
 41
1.0
 50
0.0
 71
     0
 42
0.2
  3
txt
  4

  0
STYLE
  5
5A
330
3
100
AcDbSymbolTableRecord
100
AcDbTextStyleTableRecord
  2
Annotative
 70
     0
 40
0.0
 41
1.0
 50
0.0
 71
     0
 42
0.2
  3
txt
  4

1001
AcadAnnotative
1000
AnnotativeData
1002
{
1070
     1
1070
     1
1002
}
  0
STYLE
  5
B2
330
3
100
AcDbSymbolTableRecord
100
AcDbTextStyleTableRecord
  2

 70
     1
 40
0.0
 41
1.0
 50
0.0
 71
     0
 42
0.2
  3
ltypeshp.shx
  4

  0
STYLE
  5
D4
330
3
100
AcDbSymbolTableRecord
100
AcDbTextStyleTableRecord
  2
ITALICC_120
 70
     0
 40
0.0
 41
1.0
 50
0.0
 71
     0
 42
0.2
  3
italicc.shx
  4

  0
STYLE
  5
D5
330
3
100
AcDbSymbolTableRecord
100
AcDbTextStyleTableRecord
  2
Label Text (ANSI)
 70
     0
 40
0.0
 41
1.0
 50
0.0
 71
     0
 42
0.2
  3
tahoma.ttf
  4

1001
ACAD
1000
Tahoma
1071
      256
  0
STYLE
  5
D6
330
3
100
AcDbSymbolTableRecord
100
AcDbTextStyleTableRecord
  2
Note Text (ANSI)
 70
     0
 40
0.0
 41
1.0
 50
0.0
 71
     0
 42
0.2
  3
tahoma.ttf
  4

1001
ACAD
1000
Tahoma
1071
      256
  0
STYLE
  5
D7
330
3
100
AcDbSymbolTableRecord
100
AcDbTextStyleTableRecord
  2
ROMANS
 70
     0
 40
0.0
 41
1.0
 50
0.0
 71
     0
 42
0.2
  3
romans.shx
  4

  0
STYLE
  5
D8
330
3
100
AcDbSymbolTableRecord
100
AcDbTextStyleTableRecord
  2
SANSSERIF_114
 70
     0
 40
0.0
 41
1.0
 50
0.0
 71
     0
 42
0.2
  3
tahoma.ttf
  4

1001
ACAD
1000
Tahoma
1071
      256
  0
STYLE
  5
D9
330
3
100
AcDbSymbolTableRecord
100
AcDbTextStyleTableRecord
  2
SANSSERIF_117
 70
     0
 40
0.0
 41
1.0
 50
0.0
 71
     0
 42
0.2
  3
tahoma.ttf
  4

1001
ACAD
1000
Tahoma
1071
      256
  0
STYLE
  5
DA
330
3
100
AcDbSymbolTableRecord
100
AcDbTextStyleTableRecord
  2
STANDARDAM_ANSI
 70
     0
 40
0.0
 41
1.0
 50
0.0
 71
     0
 42
0.2
  3
txt.shx
  4

  0
STYLE
  5
DB
330
3
100
AcDbSymbolTableRecord
100
AcDbTextStyleTableRecord
  2
StandardAM_ANSI$0
 70
     0
 40
0.0
 41
1.0
 50
0.0
 71
     0
 42
0.2
  3
txt.shx
  4

  0
STYLE
  5
DC
330
3
100
AcDbSymbolTableRecord
100
AcDbTextStyleTableRecord
  2
STANDARDAM_ANSI$3
 70
     0
 40
0.0
 41
1.0
 50
0.0
 71
     0
 42
0.2
  3
txt.shx
  4

  0
STYLE
  5
DD
330
3
100
AcDbSymbolTableRecord
100
AcDbTextStyleTableRecord
  2
STANDARDAM_ANSI$4
 70
     0
 40
0.0
 41
1.0
 50
0.0
 71
     0
 42
0.2
  3
txt.shx
  4

  0
STYLE
  5
DE
330
3
100
AcDbSymbolTableRecord
100
AcDbTextStyleTableRecord
  2
STANDARDAM_ANSI$7
 70
     0
 40
0.0
 41
1.0
 50
0.0
 71
     0
 42
0.2
  3
txt.shx
  4

  0
STYLE
  5
DF
330
3
100
AcDbSymbolTableRecord
100
AcDbTextStyleTableRecord
  2
STANDARDAM_ANSI$SF
 70
     0
 40
0.0
 41
1.0
 50
0.0
 71
     0
 42
0.2
  3
txt.shx
  4

  0
STYLE
  5
E0
330
3
100
AcDbSymbolTableRecord
100
AcDbTextStyleTableRecord
  2
STANDARDAM_ANSI$SH
 70
     0
 40
0.0
 41
1.0
 50
0.0
 71
     0
 42
0.2
  3
txt.shx
  4

  0
STYLE
  5
E1
330
3
100
AcDbSymbolTableRecord
100
AcDbTextStyleTableRecord
  2
STANDARDSTANDARD
 70
     0
 40
0.0
 41
1.0
 50
0.0
 71
     0
 42
0.2
  3
txt.shx
  4

  0
ENDTAB
  0
TABLE
  2
VIEW
  5
6
330
0
100
AcDbSymbolTable
 70
     0
  0
ENDTAB
  0
TABLE
  2
UCS
  5
7
330
0
100
AcDbSymbolTable
 70
     0
  0
ENDTAB
  0
TABLE
  2
APPID
  5
9
330
0
100
AcDbSymbolTable
 70
     3
  0
APPID
  5
56
330
9
100
AcDbSymbolTableRecord
100
AcDbRegAppTableRecord
  2
ACAD
 70
     0
  0
APPID
  5
5E
330
9
100
AcDbSymbolTableRecord
100
AcDbRegAppTableRecord
  2
AcadAnnotative
 70
     0
  0
APPID
  5
D4B
330
9
100
AcDbSymbolTableRecord
100
AcDbRegAppTableRecord
  2
ACAD_DSTYLE_DIMRADIAL_EXTENSION
 70
     0
  0
ENDTAB
  0
TABLE
  2
DIMSTYLE
  5
A
330
0
100
AcDbSymbolTable
 70
    27
100
AcDbDimStyleTable
 71
     2
340
F6
340
58
  0
DIMSTYLE
105
58
330
A
100
AcDbSymbolTableRecord
100
AcDbDimStyleTableRecord
  2
STANDARD
 70
     0
 41
0.1800000071525573
 42
0.0625
140
0.1800000071525574
144
1.0
147
0.0900000035762787
176
   256
177
   256
178
   256
274
     3
340
55
371
    -1
372
    -1
  0
DIMSTYLE
105
59
330
A
100
AcDbSymbolTableRecord
100
AcDbDimStyleTableRecord
  2
Annotative
 70
     0
340
55
1001
AcadAnnotative
1000
AnnotativeData
1002
{
1070
     1
1070
     1
1002
}
  0
DIMSTYLE
105
E2
330
A
100
AcDbSymbolTableRecord
100
AcDbDimStyleTableRecord
  2
AM_ANSI
 70
     0
  4
 mm
 40
11.0
 41
0.119999997317791
 42
0.05
 43
0.5
 44
0.1
 45
0.00000001
 78
     4
 79
     2
140
0.1200000047683716
146
0.7099999189376831
147
0.0599999986588955
176
   256
177
   256
178
     2
284
     4
340
DA
371
    -1
372
    -1
  0
DIMSTYLE
105
E3
330
A
100
AcDbSymbolTableRecord
100
AcDbDimStyleTableRecord
  2
AM_ANSI$7
 70
     0
  4
 mm
 40
11.0
 41
0.119999997317791
 42
0.05
 43
0.5
 44
0.1
 45
0.00000001
 78
     4
 79
     2
140
0.1200000047683716
146
0.7099999189376831
147
0.0599999986588955
176
   256
177
   256
178
     2
284
     4
340
DA
371
    -1
372
    -1
  0
DIMSTYLE
105
E4
330
A
100
AcDbSymbolTableRecord
100
AcDbDimStyleTableRecord
  2
AM_ANSI$0
 70
     0
  4
 mm
 40
11.0
 41
0.119999997317791
 42
0.05
 43
0.5
 44
0.1
 45
0.00000001
 78
     4
 79
     2
140
0.1200000047683716
146
0.7099999189376831
147
0.0599999986588955
176
   256
177
   256
178
     2
284
     4
340
DB
371
    -1
372
    -1
  0
DIMSTYLE
105
E5
330
A
100
AcDbSymbolTableRecord
100
AcDbDimStyleTableRecord
  2
AM_ANSI$0$7
 70
     0
  4
 mm
 40
11.0
 41
0.119999997317791
 42
0.05
 43
0.5
 44
0.1
 45
0.00000001
 78
     4
 79
     2
140
0.1200000047683716
146
0.7099999189376831
147
0.0599999986588955
176
   256
177
   256
178
     2
284
     4
340
DB
371
    -1
372
    -1
  0
DIMSTYLE
105
E6
330
A
100
AcDbSymbolTableRecord
100
AcDbDimStyleTableRecord
  2
AM_ANSI$3
 70
     0
  4
 mm
 40
11.0
 41
0.119999997317791
 42
0.05
 43
0.5
 44
0.1
 45
0.00000001
 78
     4
 79
     2
140
0.1200000047683716
146
0.7099999189376831
147
0.0599999986588955
176
   256
177
   256
178
     2
284
     4
340
DC
371
    -1
372
    -1
  0
DIMSTYLE
105
E7
330
A
100
AcDbSymbolTableRecord
100
AcDbDimStyleTableRecord
  2
AM_ANSI$3$7
 70
     0
  4
 mm
 40
11.0
 41
0.119999997317791
 42
0.05
 43
0.5
 44
0.1
 45
0.00000001
 78
     4
 79
     2
140
0.1200000047683716
146
0.7099999189376831
147
0.0599999986588955
176
   256
177
   256
178
     2
284
     4
340
DC
371
    -1
372
    -1
  0
DIMSTYLE
105
E8
330
A
100
AcDbSymbolTableRecord
100
AcDbDimStyleTableRecord
  2
AM_ANSI$4
 70
     0
  4
 mm
 40
11.0
 41
0.119999997317791
 42
0.05
 43
0.5
 44
0.1
 45
0.00000001
 78
     4
 79
     2
140
0.1200000047683716
146
0.7099999189376831
147
0.0599999986588955
176
   256
177
   256
178
     2
284
     4
340
DD
371
    -1
372
    -1
  0
DIMSTYLE
105
E9
330
A
100
AcDbSymbolTableRecord
100
AcDbDimStyleTableRecord
  2
AM_ANSI$4$7
 70
     0
  4
 mm
 40
11.0
 41
0.119999997317791
 42
0.05
 43
0.5
 44
0.1
 45
0.00000001
 78
     4
 79
     2
140
0.1200000047683716
146
0.7099999189376831
147
0.0599999986588955
176
   256
177
   256
178
     2
284
     4
340
DD
371
    -1
372
    -1
  0
DIMSTYLE
105
EA
330
A
100
AcDbSymbolTableRecord
100
AcDbDimStyleTableRecord
  2
AM_ANSI$SF
 70
     0
  4
 mm
 40
11.0
 41
0.119999997317791
 42
0.05
 43
0.5
 44
0.1
 45
0.00000001
 75
     1
 76
     1
 78
     4
 79
     2
140
0.1200000047683716
146
0.7099999189376831
147
0.0599999986588955
176
   256
177
   256
178
     2
284
     4
340
DF
371
    -1
372
    -1
  0
DIMSTYLE
105
EB
330
A
100
AcDbSymbolTableRecord
100
AcDbDimStyleTableRecord
  2
AM_ANSI$SF$7
 70
     0
  4
 mm
 40
11.0
 41
0.119999997317791
 42
0.05
 43
0.5
 44
0.1
 45
0.00000001
 75
     1
 76
     1
 78
     4
 79
     2
140
0.1200000047683716
146
0.7099999189376831
147
0.0599999986588955
176
   256
177
   256
178
     2
284
     4
340
DF
371
    -1
372
    -1
  0
DIMSTYLE
105
EC
330
A
100
AcDbSymbolTableRecord
100
AcDbDimStyleTableRecord
  2
AM_ANSI$SH
 70
     0
  4
 mm
 40
11.0
 41
0.119999997317791
 42
0.05
 43
0.5
 44
0.1
 45
0.00000001
 75
     1
 76
     1
 78
     4
 79
     2
140
0.1200000047683716
146
0.7099999189376831
147
0.0599999986588955
176
   256
177
   256
178
     2
284
     4
340
E0
371
    -1
372
    -1
  0
DIMSTYLE
105
ED
330
A
100
AcDbSymbolTableRecord
100
AcDbDimStyleTableRecord
  2
AM_ANSI$SH$7
 70
     0
  4
 mm
 40
11.0
 41
0.119999997317791
 42
0.05
 43
0.5
 44
0.1
 45
0.00000001
 75
     1
 76
     1
 78
     4
 79
     2
140
0.1200000047683716
146
0.7099999189376831
147
0.0599999986588955
176
   256
177
   256
178
     2
284
     4
340
E0
371
    -1
372
    -1
  0
DIMSTYLE
105
EE
330
A
100
AcDbSymbolTableRecord
100
AcDbDimStyleTableRecord
  2
Architectural (ANSI)
 70
     0
 40
11.0
 41
0.0984251946210861
 43
0.2362204724409449
 44
0.125
 45
0.00000001
 46
0.3937007874015748
 78
     3
 79
     3
140
0.1200000047683716
147
0.031496062992126
171
     1
176
   256
177
   256
178
   256
272
     2
274
     1
276
     2
277
     4
284
    12
285
     4
286
    12
340
D6
371
    -1
372
    -1
  0
DIMSTYLE
105
EF
330
A
100
AcDbSymbolTableRecord
100
AcDbDimStyleTableRecord
  2
Architectural (ANSI)$7
 70
     0
 40
11.0
 41
0.0984251946210861
 43
0.2362204724409449
 44
0.125
 45
0.00000001
 46
0.3937007874015748
 78
     3
 79
     3
140
0.1200000047683716
147
0.031496062992126
171
     1
176
   256
177
   256
178
   256
272
     2
274
     1
276
     2
277
     4
284
    12
285
     4
286
    12
340
D6
371
    -1
372
    -1
  0
DIMSTYLE
105
F0
330
A
100
AcDbSymbolTableRecord
100
AcDbDimStyleTableRecord
  2
Default - Fraction (ANSI)
 70
     0
 40
11.0
 41
0.0984251946210861
 43
0.2362204724409449
 44
0.125
 45
0.00000001
 46
0.3937007874015748
 79
     3
140
0.1200000047683716
147
0.031496062992126
171
     1
176
   256
177
   256
178
   256
272
     2
274
     1
276
     2
277
     5
284
    12
285
     4
286
    12
340
D6
371
    -1
372
    -1
  0
DIMSTYLE
105
F1
330
A
100
AcDbSymbolTableRecord
100
AcDbDimStyleTableRecord
  2
Default - Fraction (ANSI)$7
 70
     0
 40
11.0
 41
0.0984251946210861
 43
0.2362204724409449
 44
0.125
 45
0.00000001
 46
0.3937007874015748
 79
     3
140
0.1200000047683716
147
0.031496062992126
171
     1
176
   256
177
   256
178
   256
272
     2
274
     1
276
     2
277
     5
284
    12
285
     4
286
    12
340
D6
371
    -1
372
    -1
  0
DIMSTYLE
105
F2
330
A
100
AcDbSymbolTableRecord
100
AcDbDimStyleTableRecord
  2
Default - mm (ANSI)
 70
     0
 40
11.0
 41
0.0984251946210861
 42
0.063
 43
0.2362204724409449
 44
0.125
 45
0.00000001
 46
0.3937007874015748
 73
     0
 78
     4
 79
     1
140
0.1200000047683716
143
1.0
144
25.4
147
0.031496062992126
171
     1
176
   256
177
   256
178
   256
179
     1
271
     2
272
     2
274
     1
284
     4
285
     4
340
D6
371
    -1
372
    -1
  0
DIMSTYLE
105
F3
330
A
100
AcDbSymbolTableRecord
100
AcDbDimStyleTableRecord
  2
Default - mm (ANSI)$7
 70
     0
 40
11.0
 41
0.0984251946210861
 42
0.063
 43
0.2362204724409449
 44
0.125
 45
0.00000001
 46
0.3937007874015748
 73
     0
 78
     4
 79
     1
140
0.1200000047683716
143
1.0
144
25.4
147
0.031496062992126
171
     1
176
   256
177
   256
178
   256
179
     1
271
     2
272
     2
274
     1
284
     4
285
     4
340
D6
371
    -1
372
    -1
  0
DIMSTYLE
105
F4
330
A
100
AcDbSymbolTableRecord
100
AcDbDimStyleTableRecord
  2
Default - mm [in] (ANSI)
 70
     0
  4
 in
 40
11.0
 41
0.0984251946210861
 42
0.063
 43
0.25
 44
0.125
 45
0.00000001
 46
0.3937007874015748
 73
     0
 78
     4
 79
     1
140
0.1200000047683716
143
0.03937
144
25.4
147
0.031496062992126
170
     1
171
     3
176
   256
177
   256
178
   256
179
     1
271
     2
272
     2
274
     3
284
     4
285
     4
286
     4
340
D6
371
    -1
372
    -1
  0
DIMSTYLE
105
F5
330
A
100
AcDbSymbolTableRecord
100
AcDbDimStyleTableRecord
  2
Default - mm [in] (ANSI)$7
 70
     0
  4
 in
 40
11.0
 41
0.0984251946210861
 42
0.063
 43
0.25
 44
0.125
 45
0.00000001
 46
0.3937007874015748
 73
     0
 78
     4
 79
     1
140
0.1200000047683716
143
0.03937
144
25.4
147
0.031496062992126
170
     1
171
     3
176
   256
177
   256
178
   256
179
     1
271
     2
272
     2
274
     3
284
     4
285
     4
286
     4
340
D6
371
    -1
372
    -1
  0
DIMSTYLE
105
F6
102
{ACAD_REACTORS
330
2E9
330
3D6
330
4C0
330
5AA
330
694
330
77E
330
868
330
980
330
A7E
330
CB1
330
D6C
102
}
330
A
100
AcDbSymbolTableRecord
100
AcDbDimStyleTableRecord
  2
Default (ANSI)
 70
     0
 40
11.0
 41
0.0984251946210861
 43
0.2362204724409449
 44
0.125
 45
0.00000001
 46
0.3937007874015748
 79
     1
140
0.1200000047683716
147
0.031496062992126
171
     1
176
   256
177
   256
178
   256
271
     2
272
     2
274
     1
284
     4
285
     4
340
D6
371
    -1
372
    -1
  0
DIMSTYLE
105
F7
330
A
100
AcDbSymbolTableRecord
100
AcDbDimStyleTableRecord
  2
Default (ANSI)$7
 70
     0
 40
11.0
 41
0.0984251946210861
 43
0.2362204724409449
 44
0.125
 45
0.00000001
 46
0.3937007874015748
 79
     1
140
0.1200000047683716
147
0.031496062992126
171
     1
176
   256
177
   256
178
   256
271
     2
272
     2
274
     1
284
     4
285
     4
340
D6
371
    -1
372
    -1
  0
DIMSTYLE
105
F8
330
A
100
AcDbSymbolTableRecord
100
AcDbDimStyleTableRecord
  2
Alternate (ANSI)
 70
     0
 40
11.0
 41
0.0979999974370003
340
55
342
F9
  0
DIMSTYLE
105
10B
330
A
100
AcDbSymbolTableRecord
100
AcDbDimStyleTableRecord
  2
Datum (ANSI)
 70
     0
 40
11.0
 41
0.0979999974370003
340
55
342
F9
  0
DIMSTYLE
105
11A
330
A
100
AcDbSymbolTableRecord
100
AcDbDimStyleTableRecord
  2
Large (ANSI)
 70
     0
 40
11.0
 41
0.1959999948740005
340
55
342
F9
  0
ENDTAB
  0
TABLE
  2
BLOCK_RECORD
  5
1
330
0
100
AcDbSymbolTable
 70
    15
  0
BLOCK_RECORD
  5
6C
330
1
100
AcDbSymbolTableRecord
100
AcDbBlockTableRecord
  2
*Model_Space
340
6F
 70
     0
280
     1
281
     0
  0
BLOCK_RECORD
  5
68
330
1
100
AcDbSymbolTableRecord
100
AcDbBlockTableRecord
  2
*Paper_Space
340
6B
 70
     0
280
     1
281
     0
  0
BLOCK_RECORD
  5
70
330
1
100
AcDbSymbolTableRecord
100
AcDbBlockTableRecord
  2
*Paper_Space0
340
73
 70
     0
280
     1
281
     0
  0
BLOCK_RECORD
  5
F9
330
1
100
AcDbSymbolTableRecord
100
AcDbBlockTableRecord
  2
_Closed
340
0
 70
     0
280
     1
281
     0
  0
BLOCK_RECORD
  5
100
330
1
100
AcDbSymbolTableRecord
100
AcDbBlockTableRecord
  2
DatumFilled45
340
0
 70
     0
280
     1
281
     0
  0
BLOCK_RECORD
  5
10C
330
1
100
AcDbSymbolTableRecord
100
AcDbBlockTableRecord
  2
Filled-1
340
0
 70
     0
280
     1
281
     0
  0
BLOCK_RECORD
  5
2EC
330
1
100
AcDbSymbolTableRecord
100
AcDbBlockTableRecord
  2
*D4
340
0
 70
     0
280
     1
281
     0
  0
BLOCK_RECORD
  5
3D7
330
1
100
AcDbSymbolTableRecord
100
AcDbBlockTableRecord
  2
*D5
340
0
 70
     0
280
     1
281
     0
  0
BLOCK_RECORD
  5
4C1
330
1
100
AcDbSymbolTableRecord
100
AcDbBlockTableRecord
  2
*D6
340
0
 70
     0
280
     1
281
     0
  0
BLOCK_RECORD
  5
5AB
330
1
100
AcDbSymbolTableRecord
100
AcDbBlockTableRecord
  2
*D7
340
0
 70
     0
280
     1
281
     0
  0
BLOCK_RECORD
  5
695
330
1
100
AcDbSymbolTableRecord
100
AcDbBlockTableRecord
  2
*D8
340
0
 70
     0
280
     1
281
     0
  0
BLOCK_RECORD
  5
77F
330
1
100
AcDbSymbolTableRecord
100
AcDbBlockTableRecord
  2
*D9
340
0
 70
     0
280
     1
281
     0
  0
BLOCK_RECORD
  5
869
330
1
100
AcDbSymbolTableRecord
100
AcDbBlockTableRecord
  2
*D10
340
0
 70
     0
280
     1
281
     0
  0
BLOCK_RECORD
  5
981
330
1
100
AcDbSymbolTableRecord
100
AcDbBlockTableRecord
  2
*D11
340
0
 70
     0
280
     1
281
     0
  0
BLOCK_RECORD
  5
A7F
330
1
100
AcDbSymbolTableRecord
100
AcDbBlockTableRecord
  2
*D12
340
0
 70
     0
280
     1
281
     0
  0
BLOCK_RECORD
  5
CB2
330
1
100
AcDbSymbolTableRecord
100
AcDbBlockTableRecord
  2
*D13
340
0
 70
     0
280
     1
281
     0
  0
BLOCK_RECORD
  5
D6D
330
1
100
AcDbSymbolTableRecord
100
AcDbBlockTableRecord
  2
*D14
340
0
 70
     0
280
     1
281
     0
  0
ENDTAB
  0
ENDSEC
  0
SECTION
  2
BLOCKS
  0
BLOCK
  5
6D
330
6C
100
AcDbEntity
  8
0
100
AcDbBlockBegin
  2
*Model_Space
 70
     0
 10
0.0
 20
0.0
 30
0.0
  3
*Model_Space
  1

  0
ENDBLK
  5
6E
330
6C
100
AcDbEntity
  8
0
100
AcDbBlockEnd
  0
BLOCK
  5
69
330
68
100
AcDbEntity
 67
     1
  8
0
100
AcDbBlockBegin
  2
*Paper_Space
 70
     0
 10
0.0
 20
0.0
 30
0.0
  3
*Paper_Space
  1

  0
ENDBLK
  5
6A
330
68
100
AcDbEntity
 67
     1
  8
0
100
AcDbBlockEnd
  0
BLOCK
  5
71
330
70
100
AcDbEntity
 67
     1
  8
0
100
AcDbBlockBegin
  2
*Paper_Space0
 70
     0
 10
0.0
 20
0.0
 30
0.0
  3
*Paper_Space0
  1

  0
ENDBLK
  5
72
330
70
100
AcDbEntity
 67
     1
  8
0
100
AcDbBlockEnd
  0
BLOCK
  5
FE
330
F9
100
AcDbEntity
  8
0
100
AcDbBlockBegin
  2
_Closed
 70
     0
 10
0.0
 20
0.0
 30
0.0
  3
_Closed
  1

  0
LINE
  5
FA
330
F9
100
AcDbEntity
  8
0
  6
ByBlock
 62
     0
370
    -2
100
AcDbLine
 10
-1.0
 20
0.1666666666666666
 30
0.0
 11
0.0
 21
0.0
 31
0.0
  0
LINE
  5
FB
330
F9
100
AcDbEntity
  8
0
  6
ByBlock
 62
     0
370
    -2
100
AcDbLine
 10
0.0
 20
0.0
 30
0.0
 11
-1.0
 21
-0.1666666666666666
 31
0.0
  0
LINE
  5
FC
330
F9
100
AcDbEntity
  8
0
  6
ByBlock
 62
     0
370
    -2
100
AcDbLine
 10
-1.0
 20
0.1666666666666666
 30
0.0
 11
-1.0
 21
-0.1666666666666666
 31
0.0
  0
LINE
  5
FD
330
F9
100
AcDbEntity
  8
0
  6
ByBlock
 62
     0
370
    -2
100
AcDbLine
 10
0.0
 20
0.0
 30
0.0
 11
-1.0
 21
0.0
 31
0.0
  0
ENDBLK
  5
FF
330
F9
100
AcDbEntity
  8
0
100
AcDbBlockEnd
  0
BLOCK
  5
101
330
100
100
AcDbEntity
  8
0
100
AcDbBlockBegin
  2
DatumFilled45
 70
     0
 10
0.0
 20
0.0
 30
0.0
  3
DatumFilled45
  1

  0
POLYLINE
  5
103
330
100
100
AcDbEntity
  8
0
 62
     0
100
AcDb2dPolyline
 66
     1
 10
0.0
 20
0.0
 30
0.0
 70
   128
  0
VERTEX
  5
104
330
103
100
AcDbEntity
  8
0
 62
     0
100
AcDbVertex
100
AcDb2dVertex
 10
0.0
 20
0.9999999999999998
 30
0.0
  0
VERTEX
  5
105
330
103
100
AcDbEntity
  8
0
 62
     0
100
AcDbVertex
100
AcDb2dVertex
 10
0.0
 20
-0.9999999999999998
 30
0.0
  0
VERTEX
  5
107
330
103
100
AcDbEntity
  8
0
 62
     0
100
AcDbVertex
100
AcDb2dVertex
 10
-0.9999999999999998
 20
0.0
 30
0.0
  0
VERTEX
  5
108
330
103
100
AcDbEntity
  8
0
 62
     0
100
AcDbVertex
100
AcDb2dVertex
 10
0.0
 20
0.9999999999999998
 30
0.0
  0
SEQEND
  5
106
330
103
100
AcDbEntity
  8
0
 62
     0
  0
SOLID
  5
10A
330
100
100
AcDbEntity
  8
0
 62
     0
100
AcDbTrace
 10
0.0
 20
0.9999999999999998
 30
0.0
 11
0.0
 21
-0.9999999999999998
 31
0.0
 12
-0.9999999999999998
 22
0.0
 32
0.0
 13
0.0
 23
0.9999999999999998
 33
0.0
  0
ENDBLK
  5
102
330
100
100
AcDbEntity
  8
0
100
AcDbBlockEnd
  0
BLOCK
  5
10D
330
10C
100
AcDbEntity
  8
0
100
AcDbBlockBegin
  2
Filled-1
 70
     0
 10
0.0
 20
0.0
 30
0.0
  3
Filled-1
  1

  0
LINE
  5
10F
330
10C
100
AcDbEntity
  8
0
 62
     0
100
AcDbLine
 10
-0.9999999999999998
 20
0.0
 30
0.0
 11
0.0
 21
0.0
 31
0.0
  0
POLYLINE
  5
110
330
10C
100
AcDbEntity
  8
0
 62
     0
100
AcDb2dPolyline
 66
     1
 10
0.0
 20
0.0
 30
0.0
 70
   128
  0
VERTEX
  5
111
330
110
100
AcDbEntity
  8
0
 62
     0
100
AcDbVertex
100
AcDb2dVertex
 10
-0.9999999999999998
 20
-0.0994897959183674
 30
0.0
  0
VERTEX
  5
112
330
110
100
AcDbEntity
  8
0
 62
     0
100
AcDbVertex
100
AcDb2dVertex
 10
0.0
 20
0.0
 30
0.0
  0
VERTEX
  5
114
330
110
100
AcDbEntity
  8
0
 62
     0
100
AcDbVertex
100
AcDb2dVertex
 10
-0.9999999999999998
 20
0.0994897959183674
 30
0.0
  0
VERTEX
  5
115
330
110
100
AcDbEntity
  8
0
 62
     0
100
AcDbVertex
100
AcDb2dVertex
 10
-0.9999999999999998
 20
-0.0994897959183674
 30
0.0
  0
SEQEND
  5
113
330
110
100
AcDbEntity
  8
0
 62
     0
  0
SOLID
  5
116
330
10C
100
AcDbEntity
  8
0
 62
     0
100
AcDbTrace
 10
-0.9999999999999998
 20
-0.0994897959183674
 30
0.0
 11
0.0
 21
0.0
 31
0.0
 12
-0.9999999999999998
 22
0.0994897959183674
 32
0.0
 13
-0.9999999999999998
 23
-0.0994897959183674
 33
0.0
  0
LINE
  5
117
330
10C
100
AcDbEntity
  8
0
 62
     0
100
AcDbLine
 10
-0.9999999999999998
 20
-0.0994897959183674
 30
0.0
 11
0.0
 21
0.0
 31
0.0
  0
LINE
  5
118
330
10C
100
AcDbEntity
  8
0
 62
     0
100
AcDbLine
 10
0.0
 20
0.0
 30
0.0
 11
-0.9999999999999998
 21
0.0994897959183674
 31
0.0
  0
LINE
  5
119
330
10C
100
AcDbEntity
  8
0
 62
     0
100
AcDbLine
 10
-0.9999999999999998
 20
0.0994897959183674
 30
0.0
 11
-0.9999999999999998
 21
-0.0994897959183674
 31
0.0
  0
ENDBLK
  5
10E
330
10C
100
AcDbEntity
  8
0
100
AcDbBlockEnd
  0
BLOCK
  5
2ED
330
2EC
100
AcDbEntity
  8
0
100
AcDbBlockBegin
  2
*D4
 70
     1
 10
0.0
 20
0.0
 30
0.0
  3
*D4
  1

  0
LINE
  5
3CC
330
2EC
100
AcDbEntity
  8
Dimension (ANSI)
440
 16777216
100
AcDbLine
 10
33.77259449657911
 20
32.25247706687757
 30
0.0
 11
13.16383465405943
 21
32.25247706687758
 31
0.0
  0
LINE
  5
3CD
330
2EC
100
AcDbEntity
  8
Dimension (ANSI)
440
 16777216
100
AcDbLine
 10
33.7725944965791
 20
88.25247706687759
 30
0.0
 11
13.16383465405944
 21
88.25247706687759
 31
0.0
  0
LINE
  5
3CE
330
2EC
100
AcDbEntity
  8
Dimension (ANSI)
440
 16777216
100
AcDbLine
 10
14.53883465405943
 20
33.33515420770952
 30
0.0
 11
14.53883465405944
 21
59.21898207037741
 31
0.0
  0
LINE
  5
3CF
330
2EC
100
AcDbEntity
  8
Dimension (ANSI)
440
 16777216
100
AcDbLine
 10
14.53883465405944
 20
87.16979992604565
 30
0.0
 11
14.53883465405944
 21
61.28597206337774
 31
0.0
  0
SOLID
  5
3D0
330
2EC
100
AcDbEntity
  8
Dimension (ANSI)
440
 16777216
100
AcDbTrace
 10
14.35838846392077
 20
33.33515420770952
 30
0.0
 11
14.71928084419809
 21
33.33515420770952
 31
0.0
 12
14.53883465405943
 22
32.25247706687758
 32
0.0
 13
14.53883465405943
 23
32.25247706687758
 33
0.0
  0
SOLID
  5
3D1
330
2EC
100
AcDbEntity
  8
Dimension (ANSI)
440
 16777216
100
AcDbTrace
 10
14.35838846392078
 20
87.16979992604565
 30
0.0
 11
14.7192808441981
 21
87.16979992604565
 31
0.0
 12
14.53883465405944
 22
88.25247706687759
 32
0.0
 13
14.53883465405944
 23
88.25247706687759
 33
0.0
  0
MTEXT
  5
3D2
330
2EC
100
AcDbEntity
  8
Dimension (ANSI)
440
 16777216
100
AcDbMText
 10
12.37355587146497
 20
60.93951537046436
 30
0.0
 40
1.320000052452087
 41
0.0
 46
0.0
 71
     1
 72
     1
  1
\A1;56.00
  7
Note Text (ANSI)
 73
     1
 44
1.0
  0
POINT
  5
3D3
330
2EC
100
AcDbEntity
  8
Defpoints
 62
     0
440
 16777216
100
AcDbPoint
 10
34.46009449657911
 20
32.25247706687757
 30
0.0
  0
POINT
  5
3D4
330
2EC
100
AcDbEntity
  8
Defpoints
 62
     0
440
 16777216
100
AcDbPoint
 10
34.46009449657911
 20
88.25247706687759
 30
0.0
  0
POINT
  5
3D5
330
2EC
100
AcDbEntity
  8
Defpoints
 62
     0
440
 16777216
100
AcDbPoint
 10
14.53883465405944
 20
88.25247706687759
 30
0.0
  0
ENDBLK
  5
2EE
330
2EC
100
AcDbEntity
  8
0
100
AcDbBlockEnd
  0
BLOCK
  5
3D8
330
3D7
100
AcDbEntity
  8
0
100
AcDbBlockBegin
  2
*D5
 70
     1
 10
0.0
 20
0.0
 30
0.0
  3
*D5
  1

  0
LINE
  5
4B6
330
3D7
100
AcDbEntity
  8
Dimension (ANSI)
440
 16777216
100
AcDbLine
 10
34.43420614893078
 20
33.1274770668776
 30
0.0
 11
28.47117921363347
 21
33.1274770668776
 31
0.0
  0
LINE
  5
4B7
330
3D7
100
AcDbEntity
  8
Dimension (ANSI)
440
 16777216
100
AcDbLine
 10
34.43420614893078
 20
60.25247706687759
 30
0.0
 11
28.47117921363347
 21
60.25247706687759
 31
0.0
  0
LINE
  5
4B8
330
3D7
100
AcDbEntity
  8
Dimension (ANSI)
440
 16777216
100
AcDbLine
 10
29.84617921363346
 20
34.21015420770955
 30
0.0
 11
29.84617921363347
 21
45.65603881985897
 31
0.0
  0
LINE
  5
4B9
330
3D7
100
AcDbEntity
  8
Dimension (ANSI)
440
 16777216
100
AcDbLine
 10
29.84617921363348
 20
59.16979992604564
 30
0.0
 11
29.84617921363347
 21
47.72391531389618
 31
0.0
  0
SOLID
  5
4BA
330
3D7
100
AcDbEntity
  8
Dimension (ANSI)
440
 16777216
100
AcDbTrace
 10
29.66573302349481
 20
34.21015420770955
 30
0.0
 11
30.02662540377212
 21
34.21015420770955
 31
0.0
 12
29.84617921363346
 22
33.1274770668776
 32
0.0
 13
29.84617921363346
 23
33.1274770668776
 33
0.0
  0
SOLID
  5
4BB
330
3D7
100
AcDbEntity
  8
Dimension (ANSI)
440
 16777216
100
AcDbTrace
 10
29.66573302349482
 20
59.16979992604564
 30
0.0
 11
30.02662540377213
 21
59.16979992604564
 31
0.0
 12
29.84617921363348
 22
60.25247706687759
 32
0.0
 13
29.84617921363348
 23
60.25247706687759
 33
0.0
  0
MTEXT
  5
4BC
330
3D7
100
AcDbEntity
  8
Dimension (ANSI)
440
 16777216
100
AcDbMText
 10
27.68887894037098
 20
47.37745862098281
 30
0.0
 40
1.320000052452087
 41
0.0
 46
0.0
 71
     1
 72
     1
  1
\A1;27.13
  7
Note Text (ANSI)
 73
     1
 44
1.0
  0
POINT
  5
4BD
330
3D7
100
AcDbEntity
  8
Defpoints
 62
     0
440
 16777216
100
AcDbPoint
 10
35.12170614893078
 20
33.1274770668776
 30
0.0
  0
POINT
  5
4BE
330
3D7
100
AcDbEntity
  8
Defpoints
 62
     0
440
 16777216
100
AcDbPoint
 10
35.12170614893078
 20
60.25247706687759
 30
0.0
  0
POINT
  5
4BF
330
3D7
100
AcDbEntity
  8
Defpoints
 62
     0
440
 16777216
100
AcDbPoint
 10
29.84617921363348
 20
60.25247706687759
 30
0.0
  0
ENDBLK
  5
3D9
330
3D7
100
AcDbEntity
  8
0
100
AcDbBlockEnd
  0
BLOCK
  5
4C2
330
4C1
100
AcDbEntity
  8
0
100
AcDbBlockBegin
  2
*D6
 70
     1
 10
0.0
 20
0.0
 30
0.0
  3
*D6
  1

  0
LINE
  5
5A0
330
4C1
100
AcDbEntity
  8
Dimension (ANSI)
440
 16777216
100
AcDbLine
 10
34.43420614893078
 20
33.1274770668776
 30
0.0
 11
21.62072189696229
 21
33.1274770668776
 31
0.0
  0
LINE
  5
5A1
330
4C1
100
AcDbEntity
  8
Dimension (ANSI)
440
 16777216
100
AcDbLine
 10
34.43420614893078
 20
87.37747706687761
 30
0.0
 11
21.6207218969623
 21
87.37747706687761
 31
0.0
  0
LINE
  5
5A2
330
4C1
100
AcDbEntity
  8
Dimension (ANSI)
440
 16777216
100
AcDbLine
 10
22.99572189696229
 20
34.21015420770955
 30
0.0
 11
22.99572189696229
 21
59.21853881985898
 31
0.0
  0
LINE
  5
5A3
330
4C1
100
AcDbEntity
  8
Dimension (ANSI)
440
 16777216
100
AcDbLine
 10
22.9957218969623
 20
86.29479992604567
 30
0.0
 11
22.99572189696229
 21
61.28641531389618
 31
0.0
  0
SOLID
  5
5A4
330
4C1
100
AcDbEntity
  8
Dimension (ANSI)
440
 16777216
100
AcDbTrace
 10
22.81527570682363
 20
34.21015420770955
 30
0.0
 11
23.17616808710095
 21
34.21015420770955
 31
0.0
 12
22.99572189696229
 22
33.1274770668776
 32
0.0
 13
22.99572189696229
 23
33.1274770668776
 33
0.0
  0
SOLID
  5
5A5
330
4C1
100
AcDbEntity
  8
Dimension (ANSI)
440
 16777216
100
AcDbTrace
 10
22.81527570682364
 20
86.29479992604567
 30
0.0
 11
23.17616808710095
 21
86.29479992604567
 31
0.0
 12
22.9957218969623
 22
87.37747706687761
 32
0.0
 13
22.9957218969623
 23
87.37747706687761
 33
0.0
  0
MTEXT
  5
5A6
330
4C1
100
AcDbEntity
  8
Dimension (ANSI)
440
 16777216
100
AcDbMText
 10
20.84108112681046
 20
60.93995862098281
 30
0.0
 40
1.320000052452087
 41
0.0
 46
0.0
 71
     1
 72
     1
  1
\A1;54.25
  7
Note Text (ANSI)
 73
     1
 44
1.0
  0
POINT
  5
5A7
330
4C1
100
AcDbEntity
  8
Defpoints
 62
     0
440
 16777216
100
AcDbPoint
 10
35.12170614893078
 20
33.1274770668776
 30
0.0
  0
POINT
  5
5A8
330
4C1
100
AcDbEntity
  8
Defpoints
 62
     0
440
 16777216
100
AcDbPoint
 10
35.12170614893078
 20
87.37747706687761
 30
0.0
  0
POINT
  5
5A9
330
4C1
100
AcDbEntity
  8
Defpoints
 62
     0
440
 16777216
100
AcDbPoint
 10
22.9957218969623
 20
87.37747706687761
 30
0.0
  0
ENDBLK
  5
4C3
330
4C1
100
AcDbEntity
  8
0
100
AcDbBlockEnd
  0
BLOCK
  5
5AC
330
5AB
100
AcDbEntity
  8
0
100
AcDbBlockBegin
  2
*D7
 70
     1
 10
0.0
 20
0.0
 30
0.0
  3
*D7
  1

  0
LINE
  5
68A
330
5AB
100
AcDbEntity
  8
Dimension (ANSI)
440
 16777216
100
AcDbLine
 10
34.24670614893079
 20
88.72658871922926
 30
0.0
 11
34.24670614893079
 21
101.5400729711977
 31
0.0
  0
LINE
  5
68B
330
5AB
100
AcDbEntity
  8
Dimension (ANSI)
440
 16777216
100
AcDbLine
 10
90.24670614893073
 20
88.72658871922924
 30
0.0
 11
90.24670614893073
 21
101.5400729711977
 31
0.0
  0
LINE
  5
68C
330
5AB
100
AcDbEntity
  8
Dimension (ANSI)
440
 16777216
100
AcDbLine
 10
35.32938328976273
 20
100.1650729711977
 30
0.0
 11
59.73497067342291
 21
100.1650729711977
 31
0.0
  0
LINE
  5
68D
330
5AB
100
AcDbEntity
  8
Dimension (ANSI)
440
 16777216
100
AcDbLine
 10
89.16402900809877
 20
100.1650729711977
 30
0.0
 11
64.7584416244386
 21
100.1650729711977
 31
0.0
  0
SOLID
  5
68E
330
5AB
100
AcDbEntity
  8
Dimension (ANSI)
440
 16777216
100
AcDbTrace
 10
35.32938328976273
 20
100.3455191613364
 30
0.0
 11
35.32938328976273
 21
99.9846267810591
 31
0.0
 12
34.24670614893079
 22
100.1650729711977
 32
0.0
 13
34.24670614893079
 23
100.1650729711977
 33
0.0
  0
SOLID
  5
68F
330
5AB
100
AcDbEntity
  8
Dimension (ANSI)
440
 16777216
100
AcDbTrace
 10
89.16402900809877
 20
100.3455191613364
 30
0.0
 11
89.16402900809877
 21
99.9846267810591
 31
0.0
 12
90.24670614893073
 22
100.1650729711977
 32
0.0
 13
90.24670614893073
 23
100.1650729711977
 33
0.0
  0
MTEXT
  5
690
330
5AB
100
AcDbEntity
  8
Dimension (ANSI)
440
 16777216
100
AcDbMText
 10
60.08142736633629
 20
100.8521112747845
 30
0.0
 40
1.320000052452087
 41
0.0
 46
0.0
 71
     1
 72
     1
  1
\A1;56.00
  7
Note Text (ANSI)
 73
     1
 44
1.0
  0
POINT
  5
691
330
5AB
100
AcDbEntity
  8
Defpoints
 62
     0
440
 16777216
100
AcDbPoint
 10
34.24670614893079
 20
88.03908871922926
 30
0.0
  0
POINT
  5
692
330
5AB
100
AcDbEntity
  8
Defpoints
 62
     0
440
 16777216
100
AcDbPoint
 10
90.24670614893073
 20
88.03908871922924
 30
0.0
  0
POINT
  5
693
330
5AB
100
AcDbEntity
  8
Defpoints
 62
     0
440
 16777216
100
AcDbPoint
 10
90.24670614893073
 20
100.1650729711977
 30
0.0
  0
ENDBLK
  5
5AD
330
5AB
100
AcDbEntity
  8
0
100
AcDbBlockEnd
  0
BLOCK
  5
696
330
695
100
AcDbEntity
  8
0
100
AcDbBlockBegin
  2
*D8
 70
     1
 10
0.0
 20
0.0
 30
0.0
  3
*D8
  1

  0
LINE
  5
774
330
695
100
AcDbEntity
  8
Dimension (ANSI)
440
 16777216
100
AcDbLine
 10
35.12170614893078
 20
88.0649770668776
 30
0.0
 11
35.12170614893078
 21
97.36819760429586
 31
0.0
  0
LINE
  5
775
330
695
100
AcDbEntity
  8
Dimension (ANSI)
440
 16777216
100
AcDbLine
 10
89.37170614893078
 20
88.0649770668776
 30
0.0
 11
89.37170614893078
 21
97.36819760429586
 31
0.0
  0
LINE
  5
776
330
695
100
AcDbEntity
  8
Dimension (ANSI)
440
 16777216
100
AcDbLine
 10
36.20438328976273
 20
95.99319760429585
 30
0.0
 11
59.74560868586557
 21
95.99319760429585
 31
0.0
  0
LINE
  5
777
330
695
100
AcDbEntity
  8
Dimension (ANSI)
440
 16777216
100
AcDbLine
 10
88.28902900809884
 20
95.99319760429585
 30
0.0
 11
64.74780361199599
 21
95.99319760429585
 31
0.0
  0
SOLID
  5
778
330
695
100
AcDbEntity
  8
Dimension (ANSI)
440
 16777216
100
AcDbTrace
 10
36.20438328976273
 20
96.17364379443451
 30
0.0
 11
36.20438328976273
 21
95.81275141415721
 31
0.0
 12
35.12170614893078
 22
95.99319760429585
 32
0.0
 13
35.12170614893078
 23
95.99319760429585
 33
0.0
  0
SOLID
  5
779
330
695
100
AcDbEntity
  8
Dimension (ANSI)
440
 16777216
100
AcDbTrace
 10
88.28902900809884
 20
96.17364379443451
 30
0.0
 11
88.28902900809884
 21
95.81275141415721
 31
0.0
 12
89.37170614893078
 22
95.99319760429585
 32
0.0
 13
89.37170614893078
 23
95.99319760429585
 33
0.0
  0
MTEXT
  5
77A
330
695
100
AcDbEntity
  8
Dimension (ANSI)
440
 16777216
100
AcDbMText
 10
60.09206537877895
 20
96.68067915840108
 30
0.0
 40
1.320000052452087
 41
0.0
 46
0.0
 71
     1
 72
     1
  1
\A1;54.25
  7
Note Text (ANSI)
 73
     1
 44
1.0
  0
POINT
  5
77B
330
695
100
AcDbEntity
  8
Defpoints
 62
     0
440
 16777216
100
AcDbPoint
 10
35.12170614893078
 20
87.37747706687761
 30
0.0
  0
POINT
  5
77C
330
695
100
AcDbEntity
  8
Defpoints
 62
     0
440
 16777216
100
AcDbPoint
 10
89.37170614893078
 20
87.37747706687761
 30
0.0
  0
POINT
  5
77D
330
695
100
AcDbEntity
  8
Defpoints
 62
     0
440
 16777216
100
AcDbPoint
 10
89.37170614893078
 20
95.99319760429585
 30
0.0
  0
ENDBLK
  5
697
330
695
100
AcDbEntity
  8
0
100
AcDbBlockEnd
  0
BLOCK
  5
780
330
77F
100
AcDbEntity
  8
0
100
AcDbBlockBegin
  2
*D9
 70
     1
 10
0.0
 20
0.0
 30
0.0
  3
*D9
  1

  0
LINE
  5
85E
330
77F
100
AcDbEntity
  8
Dimension (ANSI)
440
 16777216
100
AcDbLine
 10
35.12170614893078
 20
88.0649770668776
 30
0.0
 11
35.12170614893078
 21
92.65766528001195
 31
0.0
  0
LINE
  5
85F
330
77F
100
AcDbEntity
  8
Dimension (ANSI)
440
 16777216
100
AcDbLine
 10
62.24670614893078
 20
88.0649770668776
 30
0.0
 11
62.24670614893078
 21
92.65766528001195
 31
0.0
  0
LINE
  5
860
330
77F
100
AcDbEntity
  8
Dimension (ANSI)
440
 16777216
100
AcDbLine
 10
36.20438328976273
 20
91.28266528001196
 30
0.0
 11
46.18044918275492
 21
91.28266528001196
 31
0.0
  0
LINE
  5
861
330
77F
100
AcDbEntity
  8
Dimension (ANSI)
440
 16777216
100
AcDbLine
 10
61.16402900809884
 20
91.28266528001196
 30
0.0
 11
51.18796311510666
 21
91.28266528001196
 31
0.0
  0
SOLID
  5
862
330
77F
100
AcDbEntity
  8
Dimension (ANSI)
440
 16777216
100
AcDbTrace
 10
36.20438328976273
 20
91.4631114701506
 30
0.0
 11
36.20438328976273
 21
91.1022190898733
 31
0.0
 12
35.12170614893078
 22
91.28266528001196
 32
0.0
 13
35.12170614893078
 23
91.28266528001196
 33
0.0
  0
SOLID
  5
863
330
77F
100
AcDbEntity
  8
Dimension (ANSI)
440
 16777216
100
AcDbTrace
 10
61.16402900809884
 20
91.4631114701506
 30
0.0
 11
61.16402900809884
 21
91.1022190898733
 31
0.0
 12
62.24670614893078
 22
91.28266528001196
 32
0.0
 13
62.24670614893078
 23
91.28266528001196
 33
0.0
  0
MTEXT
  5
864
330
77F
100
AcDbEntity
  8
Dimension (ANSI)
440
 16777216
100
AcDbMText
 10
46.5269058756683
 20
91.97014683411717
 30
0.0
 40
1.320000052452087
 41
0.0
 46
0.0
 71
     1
 72
     1
  1
\A1;27.13
  7
Note Text (ANSI)
 73
     1
 44
1.0
  0
POINT
  5
865
330
77F
100
AcDbEntity
  8
Defpoints
 62
     0
440
 16777216
100
AcDbPoint
 10
35.12170614893078
 20
87.37747706687761
 30
0.0
  0
POINT
  5
866
330
77F
100
AcDbEntity
  8
Defpoints
 62
     0
440
 16777216
100
AcDbPoint
 10
62.24670614893078
 20
87.37747706687761
 30
0.0
  0
POINT
  5
867
330
77F
100
AcDbEntity
  8
Defpoints
 62
     0
440
 16777216
100
AcDbPoint
 10
62.24670614893078
 20
91.28266528001196
 30
0.0
  0
ENDBLK
  5
781
330
77F
100
AcDbEntity
  8
0
100
AcDbBlockEnd
  0
BLOCK
  5
86A
330
869
100
AcDbEntity
  8
0
100
AcDbBlockBegin
  2
*D10
 70
     1
 10
0.0
 20
0.0
 30
0.0
  3
*D10
  1

  0
LINE
  5
974
330
869
100
AcDbEntity
  8
Dimension (ANSI)
440
 16777216
100
AcDbLine
 10
90.72081780128247
 20
32.25247706687758
 30
0.0
 11
99.29222336490946
 21
32.25247706687758
 31
0.0
  0
LINE
  5
975
330
869
100
AcDbEntity
  8
Dimension (ANSI)
440
 16777216
100
AcDbLine
 10
90.05920614893078
 20
33.12747706687757
 30
0.0
 11
99.29222336490946
 21
33.12747706687757
 31
0.0
  0
LINE
  5
976
330
869
100
AcDbEntity
  8
Dimension (ANSI)
440
 16777216
100
AcDbLine
 10
97.91722336490945
 20
31.16979992604564
 30
0.0
 11
97.91722336490945
 21
30.08712278521369
 31
0.0
  0
LINE
  5
977
330
869
100
AcDbEntity
  8
Dimension (ANSI)
440
 16777216
100
AcDbLine
 10
97.91722336490947
 20
34.21015420770952
 30
0.0
 11
97.91722336490947
 21
35.29283134854147
 31
0.0
  0
LINE
  5
978
330
869
100
AcDbEntity
  8
Dimension (ANSI)
440
 16777216
100
AcDbLine
 10
98.99990050574139
 20
28.06282647460495
 30
0.0
 11
97.91722336490945
 21
28.06282647460495
 31
0.0
  0
LINE
  5
979
330
869
100
AcDbEntity
  8
Dimension (ANSI)
440
 16777216
100
AcDbLine
 10
97.91722336490945
 20
28.06282647460495
 30
0.0
 11
97.91722336490945
 21
30.08712278521369
 31
0.0
  0
MTEXT
  5
97A
330
869
100
AcDbEntity
  8
Dimension (ANSI)
440
 16777216
100
AcDbMText
 10
99.34635719865479
 20
28.95036176625441
 30
0.0
 40
1.320000052452087
 41
0.0
 46
0.0
 71
     1
 72
     1
  1
\A1;0.88{ \PTYP.}
  7
Note Text (ANSI)
 73
     1
 44
1.0
  0
SOLID
  5
97B
330
869
100
AcDbEntity
  8
Dimension (ANSI)
440
 16777216
100
AcDbTrace
 10
97.73677717477079
 20
31.16979992604564
 30
0.0
 11
98.09766955504811
 21
31.16979992604564
 31
0.0
 12
97.91722336490947
 22
32.25247706687758
 32
0.0
 13
97.91722336490947
 23
32.25247706687758
 33
0.0
  0
SOLID
  5
97C
330
869
100
AcDbEntity
  8
Dimension (ANSI)
440
 16777216
100
AcDbTrace
 10
97.73677717477081
 20
34.21015420770952
 30
0.0
 11
98.09766955504812
 21
34.21015420770952
 31
0.0
 12
97.91722336490947
 22
33.12747706687757
 32
0.0
 13
97.91722336490947
 23
33.12747706687757
 33
0.0
  0
POINT
  5
97D
330
869
100
AcDbEntity
  8
Defpoints
 62
     0
440
 16777216
100
AcDbPoint
 10
90.03331780128247
 20
32.25247706687758
 30
0.0
  0
POINT
  5
97E
330
869
100
AcDbEntity
  8
Defpoints
 62
     0
440
 16777216
100
AcDbPoint
 10
89.37170614893078
 20
33.12747706687757
 30
0.0
  0
POINT
  5
97F
330
869
100
AcDbEntity
  8
Defpoints
 62
     0
440
 16777216
100
AcDbPoint
 10
97.91722336490947
 20
33.12747706687757
 30
0.0
  0
ENDBLK
  5
86B
330
869
100
AcDbEntity
  8
0
100
AcDbBlockEnd
  0
BLOCK
  5
982
330
981
100
AcDbEntity
  8
0
100
AcDbBlockBegin
  2
*D11
 70
     1
 10
0.0
 20
0.0
 30
0.0
  3
*D11
  1

  0
LINE
  5
A74
330
981
100
AcDbEntity
  8
Dimension (ANSI)
440
 16777216
100
AcDbLine
 10
90.24670614893077
 20
31.7783654145259
 30
0.0
 11
90.24670614893077
 21
27.63569360125949
 31
0.0
  0
LINE
  5
A75
330
981
100
AcDbEntity
  8
Dimension (ANSI)
440
 16777216
100
AcDbLine
 10
89.37170614893078
 20
32.43997706687757
 30
0.0
 11
89.37170614893078
 21
27.63569360125949
 31
0.0
  0
LINE
  5
A76
330
981
100
AcDbEntity
  8
Dimension (ANSI)
440
 16777216
100
AcDbLine
 10
91.32938328976271
 20
29.01069360125949
 30
0.0
 11
92.41206043059467
 21
29.01069360125949
 31
0.0
  0
LINE
  5
A77
330
981
100
AcDbEntity
  8
Dimension (ANSI)
440
 16777216
100
AcDbLine
 10
88.28902900809884
 20
29.01069360125949
 30
0.0
 11
86.59690536178707
 21
29.01069360125949
 31
0.0
  0
SOLID
  5
A78
330
981
100
AcDbEntity
  8
Dimension (ANSI)
440
 16777216
100
AcDbTrace
 10
91.32938328976271
 20
29.19113979139814
 30
0.0
 11
91.32938328976271
 21
28.83024741112083
 31
0.0
 12
90.24670614893077
 22
29.01069360125949
 32
0.0
 13
90.24670614893077
 23
29.01069360125949
 33
0.0
  0
SOLID
  5
A79
330
981
100
AcDbEntity
  8
Dimension (ANSI)
440
 16777216
100
AcDbTrace
 10
88.28902900809884
 20
29.19113979139814
 30
0.0
 11
88.28902900809884
 21
28.83024741112083
 31
0.0
 12
89.37170614893078
 22
29.01069360125949
 32
0.0
 13
89.37170614893078
 23
29.01069360125949
 33
0.0
  0
MTEXT
  5
A7A
330
981
100
AcDbEntity
  8
Dimension (ANSI)
440
 16777216
100
AcDbMText
 10
82.76295358976351
 20
29.89822889290893
 30
0.0
 40
1.320000052452087
 41
0.0
 46
0.0
 71
     1
 72
     1
  1
\A1;0.88{\PTYP.}
  7
Note Text (ANSI)
 73
     1
 44
1.0
  0
POINT
  5
A7B
330
981
100
AcDbEntity
  8
Defpoints
 62
     0
440
 16777216
100
AcDbPoint
 10
90.24670614893077
 20
32.4658654145259
 30
0.0
  0
POINT
  5
A7C
330
981
100
AcDbEntity
  8
Defpoints
 62
     0
440
 16777216
100
AcDbPoint
 10
89.37170614893078
 20
33.12747706687757
 30
0.0
  0
POINT
  5
A7D
330
981
100
AcDbEntity
  8
Defpoints
 62
     0
440
 16777216
100
AcDbPoint
 10
89.37170614893078
 20
29.01069360125949
 30
0.0
  0
ENDBLK
  5
983
330
981
100
AcDbEntity
  8
0
100
AcDbBlockEnd
  0
BLOCK
  5
A80
330
A7F
100
AcDbEntity
  8
0
100
AcDbBlockBegin
  2
*D12
 70
     1
 10
0.0
 20
0.0
 30
0.0
  3
*D12
  1

  0
LINE
  5
B5E
330
A7F
100
AcDbEntity
  8
Dimension (ANSI)
440
 16777216
100
AcDbLine
 10
125.3333575491141
 20
88.78372706687756
 30
0.0
 11
125.3333575491141
 21
92.77708336609013
 31
0.0
  0
LINE
  5
B5F
330
A7F
100
AcDbEntity
  8
Dimension (ANSI)
440
 16777216
100
AcDbLine
 10
126.2083575491141
 20
88.93997706687754
 30
0.0
 11
126.2083575491141
 21
92.77708336609013
 31
0.0
  0
LINE
  5
B60
330
A7F
100
AcDbEntity
  8
Dimension (ANSI)
440
 16777216
100
AcDbLine
 10
127.291034689946
 20
91.40208336609012
 30
0.0
 11
128.373711830778
 21
91.40208336609012
 31
0.0
  0
LINE
  5
B61
330
A7F
100
AcDbEntity
  8
Dimension (ANSI)
440
 16777216
100
AcDbLine
 10
124.2506804082821
 20
91.40208336609012
 30
0.0
 11
122.6085846310916
 21
91.40208336609012
 31
0.0
  0
SOLID
  5
B62
330
A7F
100
AcDbEntity
  8
Dimension (ANSI)
440
 16777216
100
AcDbTrace
 10
127.291034689946
 20
91.58252955622877
 30
0.0
 11
127.291034689946
 21
91.22163717595148
 31
0.0
 12
126.2083575491141
 22
91.40208336609012
 32
0.0
 13
126.2083575491141
 23
91.40208336609012
 33
0.0
  0
SOLID
  5
B63
330
A7F
100
AcDbEntity
  8
Dimension (ANSI)
440
 16777216
100
AcDbTrace
 10
124.2506804082821
 20
91.58252955622877
 30
0.0
 11
124.2506804082821
 21
91.22163717595148
 31
0.0
 12
125.3333575491141
 22
91.40208336609012
 32
0.0
 13
125.3333575491141
 23
91.40208336609012
 33
0.0
  0
MTEXT
  5
B64
330
A7F
100
AcDbEntity
  8
Dimension (ANSI)
440
 16777216
100
AcDbMText
 10
118.8783534803837
 20
92.09222442330601
 30
0.0
 40
1.320000052452087
 41
0.0
 46
0.0
 71
     1
 72
     1
  1
\A1;0.88
  7
Note Text (ANSI)
 73
     1
 44
1.0
  0
POINT
  5
B65
330
A7F
100
AcDbEntity
  8
Defpoints
 62
     0
440
 16777216
100
AcDbPoint
 10
125.3333575491141
 20
88.09622706687756
 30
0.0
  0
POINT
  5
B66
330
A7F
100
AcDbEntity
  8
Defpoints
 62
     0
440
 16777216
100
AcDbPoint
 10
126.2083575491141
 20
88.25247706687754
 30
0.0
  0
POINT
  5
B67
330
A7F
100
AcDbEntity
  8
Defpoints
 62
     0
440
 16777216
100
AcDbPoint
 10
126.2083575491141
 20
91.40208336609012
 30
0.0
  0
ENDBLK
  5
A81
330
A7F
100
AcDbEntity
  8
0
100
AcDbBlockEnd
  0
BLOCK
  5
CB3
330
CB2
100
AcDbEntity
  8
0
100
AcDbBlockBegin
  2
*D13
 70
     1
 10
0.0
 20
0.0
 30
0.0
  3
*D13
  1

  0
LINE
  5
D64
330
CB2
100
AcDbEntity
  8
Dimension (ANSI)
440
 16777216
100
AcDbLine
 10
94.2131191875841
 20
68.31055657246984
 30
0.0
 11
92.80371644104707
 21
68.31055657246982
 31
0.0
  0
LINE
  5
D65
330
CB2
100
AcDbEntity
  8
Dimension (ANSI)
440
 16777216
100
AcDbLine
 10
92.80371644104707
 20
68.31055657246982
 30
0.0
 11
89.90625766426475
 21
61.50756031073931
 31
0.0
  0
MTEXT
  5
D66
330
CB2
100
AcDbEntity
  8
Dimension (ANSI)
440
 16777216
100
AcDbMText
 10
94.55957588049752
 20
69.30887063218623
 30
0.0
 40
1.320000052452087
 41
0.0
 46
0.0
 71
     1
 72
     1
  1
\A1;∅0.563{\P(10PL.)}
  7
Note Text (ANSI)
 73
     1
 44
1.0
  0
SOLID
  5
D67
330
CB2
100
AcDbEntity
  8
Dimension (ANSI)
440
 16777216
100
AcDbTrace
 10
89.7402418420647
 20
61.57826797874498
 30
0.0
 11
90.0722734864648
 21
61.43685264273364
 31
0.0
 12
89.48201165623073
 22
60.51146537753904
 32
0.0
 13
89.48201165623073
 23
60.51146537753904
 33
0.0
  0
LINE
  5
D68
330
CB2
100
AcDbEntity
  8
Dimension (ANSI)
440
 16777216
100
AcDbLine
 10
88.38170614893076
 20
60.25247706687757
 30
0.0
 11
90.36170614893075
 21
60.25247706687757
 31
0.0
  0
LINE
  5
D69
330
CB2
100
AcDbEntity
  8
Dimension (ANSI)
440
 16777216
100
AcDbLine
 10
89.37170614893075
 20
59.26247706687757
 30
0.0
 11
89.37170614893075
 21
61.24247706687757
 31
0.0
  0
POINT
  5
D6A
330
CB2
100
AcDbEntity
  8
Defpoints
 62
     0
440
 16777216
100
AcDbPoint
 10
89.48201165623073
 20
60.51146537753904
 30
0.0
  0
POINT
  5
D6B
330
CB2
100
AcDbEntity
  8
Defpoints
 62
     0
440
 16777216
100
AcDbPoint
 10
89.26140064163076
 20
59.99348875621608
 30
0.0
  0
ENDBLK
  5
CB4
330
CB2
100
AcDbEntity
  8
0
100
AcDbBlockEnd
  0
BLOCK
  5
D6E
330
D6D
100
AcDbEntity
  8
0
100
AcDbBlockBegin
  2
*D14
 70
     1
 10
0.0
 20
0.0
 30
0.0
  3
*D14
  1

  0
LINE
  5
E4C
330
D6D
100
AcDbEntity
  8
Dimension (ANSI)
440
 16777216
100
AcDbLine
 10
90.05920614893076
 20
50.25247706687757
 30
0.0
 11
95.78607622767092
 21
50.25247706687757
 31
0.0
  0
LINE
  5
E4D
330
D6D
100
AcDbEntity
  8
Dimension (ANSI)
440
 16777216
100
AcDbLine
 10
90.05920614893076
 20
60.25247706687757
 30
0.0
 11
95.78607622767092
 21
60.25247706687757
 31
0.0
  0
LINE
  5
E4E
330
D6D
100
AcDbEntity
  8
Dimension (ANSI)
440
 16777216
100
AcDbLine
 10
94.41107622767091
 20
51.33515420770952
 30
0.0
 11
94.41107622767091
 21
54.21898207037738
 31
0.0
  0
LINE
  5
E4F
330
D6D
100
AcDbEntity
  8
Dimension (ANSI)
440
 16777216
100
AcDbLine
 10
94.41107622767091
 20
59.16979992604562
 30
0.0
 11
94.41107622767091
 21
56.28597206337772
 31
0.0
  0
SOLID
  5
E50
330
D6D
100
AcDbEntity
  8
Dimension (ANSI)
440
 16777216
100
AcDbTrace
 10
94.23063003753226
 20
51.33515420770952
 30
0.0
 11
94.59152241780957
 21
51.33515420770952
 31
0.0
 12
94.41107622767091
 22
50.25247706687757
 32
0.0
 13
94.41107622767091
 23
50.25247706687757
 33
0.0
  0
SOLID
  5
E51
330
D6D
100
AcDbEntity
  8
Dimension (ANSI)
440
 16777216
100
AcDbTrace
 10
94.23063003753226
 20
59.16979992604562
 30
0.0
 11
94.59152241780957
 21
59.16979992604562
 31
0.0
 12
94.41107622767091
 22
60.25247706687757
 32
0.0
 13
94.41107622767091
 23
60.25247706687757
 33
0.0
  0
MTEXT
  5
E52
330
D6D
100
AcDbEntity
  8
Dimension (ANSI)
440
 16777216
100
AcDbMText
 10
92.29100899795763
 20
55.93951537046435
 30
0.0
 40
1.320000052452087
 41
0.0
 46
0.0
 71
     1
 72
     1
  1
\A1;10.00
  7
Note Text (ANSI)
 73
     1
 44
1.0
  0
POINT
  5
E53
330
D6D
100
AcDbEntity
  8
Defpoints
 62
     0
440
 16777216
100
AcDbPoint
 10
89.37170614893075
 20
50.25247706687757
 30
0.0
  0
POINT
  5
E54
330
D6D
100
AcDbEntity
  8
Defpoints
 62
     0
440
 16777216
100
AcDbPoint
 10
89.37170614893075
 20
60.25247706687757
 30
0.0
  0
POINT
  5
E55
330
D6D
100
AcDbEntity
  8
Defpoints
 62
     0
440
 16777216
100
AcDbPoint
 10
94.41107622767091
 20
60.25247706687757
 30
0.0
  0
ENDBLK
  5
D6F
330
D6D
100
AcDbEntity
  8
0
100
AcDbBlockEnd
  0
ENDSEC
  0
SECTION
  2
ENTITIES
  0
CIRCLE
  5
11B
330
6C
100
AcDbEntity
  8
Visible (ANSI)
100
AcDbCircle
 10
89.37170614893075
 20
50.25247706687757
 30
0.0
 40
0.2814999999999999
  0
CIRCLE
  5
11C
330
6C
100
AcDbEntity
  8
Visible (ANSI)
100
AcDbCircle
 10
35.12170614893078
 20
50.2524770668776
 30
0.0
 40
0.2814999999999999
  0
CIRCLE
  5
11D
330
6C
100
AcDbEntity
  8
Visible (ANSI)
100
AcDbCircle
 10
62.24670614893078
 20
33.12747706687756
 30
0.0
 40
0.2814999999999999
  0
CIRCLE
  5
11E
330
6C
100
AcDbEntity
  8
Visible (ANSI)
100
AcDbCircle
 10
89.37170614893075
 20
60.25247706687757
 30
0.0
 40
0.2814999999999999
  0
CIRCLE
  5
11F
330
6C
100
AcDbEntity
  8
Visible (ANSI)
100
AcDbCircle
 10
89.37170614893078
 20
33.12747706687757
 30
0.0
 40
0.2814999999999999
  0
CIRCLE
  5
120
330
6C
100
AcDbEntity
  8
Visible (ANSI)
100
AcDbCircle
 10
35.12170614893078
 20
33.12747706687759
 30
0.0
 40
0.2814999999999999
  0
CIRCLE
  5
121
330
6C
100
AcDbEntity
  8
Visible (ANSI)
100
AcDbCircle
 10
35.12170614893078
 20
60.25247706687759
 30
0.0
 40
0.2814999999999999
  0
CIRCLE
  5
122
330
6C
100
AcDbEntity
  8
Visible (ANSI)
100
AcDbCircle
 10
89.37170614893078
 20
87.37747706687761
 30
0.0
 40
0.2814999999999999
  0
CIRCLE
  5
123
330
6C
100
AcDbEntity
  8
Visible (ANSI)
100
AcDbCircle
 10
62.24670614893078
 20
87.37747706687761
 30
0.0
 40
0.2814999999999999
  0
CIRCLE
  5
124
330
6C
100
AcDbEntity
  8
Visible (ANSI)
100
AcDbCircle
 10
35.12170614893078
 20
87.37747706687761
 30
0.0
 40
0.2814999999999999
  0
LINE
  5
125
330
6C
100
AcDbEntity
  8
Visible (ANSI)
100
AcDbLine
 10
90.03331780128247
 20
32.25247706687758
 30
0.0
 11
34.46009449657911
 21
32.25247706687757
 31
0.0
  0
LINE
  5
126
330
6C
100
AcDbEntity
  8
Visible (ANSI)
100
AcDbLine
 10
90.24670614893073
 20
88.03908871922924
 30
0.0
 11
90.24670614893077
 21
32.4658654145259
 31
0.0
  0
LINE
  5
127
330
6C
100
AcDbEntity
  8
Visible (ANSI)
100
AcDbLine
 10
34.46009449657911
 20
88.25247706687759
 30
0.0
 11
90.03331780128247
 21
88.25247706687759
 31
0.0
  0
LINE
  5
128
330
6C
100
AcDbEntity
  8
Visible (ANSI)
100
AcDbLine
 10
34.24670614893079
 20
32.46586541452589
 30
0.0
 11
34.24670614893079
 21
88.03908871922924
 31
0.0
  0
POLYLINE
  5
129
330
6C
100
AcDbEntity
  8
Visible (ANSI)
100
AcDb2dPolyline
 66
     1
 10
0.0
 20
0.0
 30
0.0
 70
   128
  0
VERTEX
  5
12A
330
129
100
AcDbEntity
  8
Visible (ANSI)
100
AcDbVertex
100
AcDb2dVertex
 10
90.0904559086349
 20
32.40872706453093
 30
0.0
  0
VERTEX
  5
12B
330
129
100
AcDbEntity
  8
Visible (ANSI)
100
AcDbVertex
100
AcDb2dVertex
 10
90.08807697931649
 20
32.3985078247178
 30
0.0
  0
VERTEX
  5
12D
330
129
100
AcDbEntity
  8
Visible (ANSI)
100
AcDbVertex
100
AcDb2dVertex
 10
90.08569204260082
 20
32.38833234973242
 30
0.0
  0
VERTEX
  5
12E
330
129
100
AcDbEntity
  8
Visible (ANSI)
100
AcDbVertex
100
AcDb2dVertex
 10
90.08331311328239
 20
32.37824420493819
 30
0.0
  0
VERTEX
  5
12F
330
129
100
AcDbEntity
  8
Visible (ANSI)
100
AcDbVertex
100
AcDb2dVertex
 10
90.08093418396398
 20
32.36828659196939
 30
0.0
  0
VERTEX
  5
130
330
129
100
AcDbEntity
  8
Visible (ANSI)
100
AcDbVertex
100
AcDb2dVertex
 10
90.0785552546456
 20
32.35850214926677
 30
0.0
  0
VERTEX
  5
131
330
129
100
AcDbEntity
  8
Visible (ANSI)
100
AcDbVertex
100
AcDb2dVertex
 10
90.07617031792992
 20
32.34893278194626
 30
0.0
  0
VERTEX
  5
132
330
129
100
AcDbEntity
  8
Visible (ANSI)
100
AcDbVertex
100
AcDb2dVertex
 10
90.07379138861152
 20
32.33961945646792
 30
0.0
  0
VERTEX
  5
133
330
129
100
AcDbEntity
  8
Visible (ANSI)
100
AcDbVertex
100
AcDb2dVertex
 10
90.07141245929311
 20
32.33060206570425
 30
0.0
  0
VERTEX
  5
134
330
129
100
AcDbEntity
  8
Visible (ANSI)
100
AcDbVertex
100
AcDb2dVertex
 10
90.06902752257742
 20
32.32191921774258
 30
0.0
  0
VERTEX
  5
135
330
129
100
AcDbEntity
  8
Visible (ANSI)
100
AcDbVertex
100
AcDb2dVertex
 10
90.06664859325901
 20
32.31360809508672
 30
0.0
  0
VERTEX
  5
136
330
129
100
AcDbEntity
  8
Visible (ANSI)
100
AcDbVertex
100
AcDb2dVertex
 10
90.06426966394062
 20
32.30570428452554
 30
0.0
  0
VERTEX
  5
137
330
129
100
AcDbEntity
  8
Visible (ANSI)
100
AcDbVertex
100
AcDb2dVertex
 10
90.06188472722495
 20
32.2982416334014
 30
0.0
  0
VERTEX
  5
138
330
129
100
AcDbEntity
  8
Visible (ANSI)
100
AcDbVertex
100
AcDb2dVertex
 10
90.05950579790654
 20
32.29125209707845
 30
0.0
  0
VERTEX
  5
139
330
129
100
AcDbEntity
  8
Visible (ANSI)
100
AcDbVertex
100
AcDb2dVertex
 10
90.05712686858814
 20
32.28476560694427
 30
0.0
  0
VERTEX
  5
13A
330
129
100
AcDbEntity
  8
Visible (ANSI)
100
AcDbVertex
100
AcDb2dVertex
 10
90.05474193187247
 20
32.27880994134463
 30
0.0
  0
VERTEX
  5
13B
330
129
100
AcDbEntity
  8
Visible (ANSI)
100
AcDbVertex
100
AcDb2dVertex
 10
90.05236300255406
 20
32.27341059798497
 30
0.0
  0
VERTEX
  5
13C
330
129
100
AcDbEntity
  8
Visible (ANSI)
100
AcDbVertex
100
AcDb2dVertex
 10
90.04998407323567
 20
32.26859070153149
 30
0.0
  0
VERTEX
  5
13D
330
129
100
AcDbEntity
  8
Visible (ANSI)
100
AcDbVertex
100
AcDb2dVertex
 10
90.04760514391724
 20
32.26437088994578
 30
0.0
  0
VERTEX
  5
13E
330
129
100
AcDbEntity
  8
Visible (ANSI)
100
AcDbVertex
100
AcDb2dVertex
 10
90.04522020720157
 20
32.26076923381909
 30
0.0
  0
VERTEX
  5
13F
330
129
100
AcDbEntity
  8
Visible (ANSI)
100
AcDbVertex
100
AcDb2dVertex
 10
90.04284127788315
 20
32.2578011564399
 30
0.0
  0
VERTEX
  5
140
330
129
100
AcDbEntity
  8
Visible (ANSI)
100
AcDbVertex
100
AcDb2dVertex
 10
90.04046234856476
 20
32.25547936687808
 30
0.0
  0
VERTEX
  5
141
330
129
100
AcDbEntity
  8
Visible (ANSI)
100
AcDbVertex
100
AcDb2dVertex
 10
90.03807741184909
 20
32.2538138072771
 30
0.0
  0
VERTEX
  5
142
330
129
100
AcDbEntity
  8
Visible (ANSI)
100
AcDbVertex
100
AcDb2dVertex
 10
90.03569848253068
 20
32.25281161011498
 30
0.0
  0
VERTEX
  5
143
330
129
100
AcDbEntity
  8
Visible (ANSI)
100
AcDbVertex
100
AcDb2dVertex
 10
90.03331955321227
 20
32.25247706687758
 30
0.0
  0
SEQEND
  5
12C
330
129
100
AcDbEntity
  8
Visible (ANSI)
  0
POLYLINE
  5
144
330
6C
100
AcDbEntity
  8
Visible (ANSI)
100
AcDb2dPolyline
 66
     1
 10
0.0
 20
0.0
 30
0.0
 70
   128
  0
VERTEX
  5
145
330
144
100
AcDbEntity
  8
Visible (ANSI)
100
AcDbVertex
100
AcDb2dVertex
 10
34.46009448491718
 20
32.25247706687757
 30
0.0
  0
VERTEX
  5
146
330
144
100
AcDbEntity
  8
Visible (ANSI)
100
AcDbVertex
100
AcDb2dVertex
 10
34.45771372521992
 20
32.25281161011498
 30
0.0
  0
VERTEX
  5
148
330
144
100
AcDbEntity
  8
Visible (ANSI)
100
AcDbVertex
100
AcDb2dVertex
 10
34.45533296552266
 20
32.2538138072771
 30
0.0
  0
VERTEX
  5
149
330
144
100
AcDbEntity
  8
Visible (ANSI)
100
AcDbVertex
100
AcDb2dVertex
 10
34.4529522058254
 20
32.25547936687808
 30
0.0
  0
VERTEX
  5
14A
330
144
100
AcDbEntity
  8
Visible (ANSI)
100
AcDbVertex
100
AcDb2dVertex
 10
34.45057144612814
 20
32.2578011564399
 30
0.0
  0
VERTEX
  5
14B
330
144
100
AcDbEntity
  8
Visible (ANSI)
100
AcDbVertex
100
AcDb2dVertex
 10
34.44819066296449
 20
32.26076923381909
 30
0.0
  0
VERTEX
  5
14C
330
144
100
AcDbEntity
  8
Visible (ANSI)
100
AcDbVertex
100
AcDb2dVertex
 10
34.44580990326723
 20
32.26437088994578
 30
0.0
  0
VERTEX
  5
14D
330
144
100
AcDbEntity
  8
Visible (ANSI)
100
AcDbVertex
100
AcDb2dVertex
 10
34.44342914356997
 20
32.26859070153149
 30
0.0
  0
VERTEX
  5
14E
330
144
100
AcDbEntity
  8
Visible (ANSI)
100
AcDbVertex
100
AcDb2dVertex
 10
34.4410483838727
 20
32.27341059798497
 30
0.0
  0
VERTEX
  5
14F
330
144
100
AcDbEntity
  8
Visible (ANSI)
100
AcDbVertex
100
AcDb2dVertex
 10
34.43866761244225
 20
32.27880994134463
 30
0.0
  0
VERTEX
  5
150
330
144
100
AcDbEntity
  8
Visible (ANSI)
100
AcDbVertex
100
AcDb2dVertex
 10
34.43628685274499
 20
32.28476560694427
 30
0.0
  0
VERTEX
  5
151
330
144
100
AcDbEntity
  8
Visible (ANSI)
100
AcDbVertex
100
AcDb2dVertex
 10
34.43390609304773
 20
32.29125209707845
 30
0.0
  0
VERTEX
  5
152
330
144
100
AcDbEntity
  8
Visible (ANSI)
100
AcDbVertex
100
AcDb2dVertex
 10
34.43152532161727
 20
32.2982416334014
 30
0.0
  0
VERTEX
  5
153
330
144
100
AcDbEntity
  8
Visible (ANSI)
100
AcDbVertex
100
AcDb2dVertex
 10
34.42914456192001
 20
32.30570428452554
 30
0.0
  0
VERTEX
  5
154
330
144
100
AcDbEntity
  8
Visible (ANSI)
100
AcDbVertex
100
AcDb2dVertex
 10
34.42676379048954
 20
32.31360809508672
 30
0.0
  0
VERTEX
  5
155
330
144
100
AcDbEntity
  8
Visible (ANSI)
100
AcDbVertex
100
AcDb2dVertex
 10
34.42438303079228
 20
32.32191921774258
 30
0.0
  0
VERTEX
  5
156
330
144
100
AcDbEntity
  8
Visible (ANSI)
100
AcDbVertex
100
AcDb2dVertex
 10
34.42200225936183
 20
32.33060206570425
 30
0.0
  0
VERTEX
  5
157
330
144
100
AcDbEntity
  8
Visible (ANSI)
100
AcDbVertex
100
AcDb2dVertex
 10
34.41962149966457
 20
32.33961945646792
 30
0.0
  0
VERTEX
  5
158
330
144
100
AcDbEntity
  8
Visible (ANSI)
100
AcDbVertex
100
AcDb2dVertex
 10
34.41724073996731
 20
32.34893278194626
 30
0.0
  0
VERTEX
  5
159
330
144
100
AcDbEntity
  8
Visible (ANSI)
100
AcDbVertex
100
AcDb2dVertex
 10
34.41485996853685
 20
32.35850214926677
 30
0.0
  0
VERTEX
  5
15A
330
144
100
AcDbEntity
  8
Visible (ANSI)
100
AcDbVertex
100
AcDb2dVertex
 10
34.41247920883959
 20
32.36828659196939
 30
0.0
  0
VERTEX
  5
15B
330
144
100
AcDbEntity
  8
Visible (ANSI)
100
AcDbVertex
100
AcDb2dVertex
 10
34.41009843740913
 20
32.37824420493819
 30
0.0
  0
VERTEX
  5
15C
330
144
100
AcDbEntity
  8
Visible (ANSI)
100
AcDbVertex
100
AcDb2dVertex
 10
34.40771767771187
 20
32.38833234973242
 30
0.0
  0
VERTEX
  5
15D
330
144
100
AcDbEntity
  8
Visible (ANSI)
100
AcDbVertex
100
AcDb2dVertex
 10
34.40533691801461
 20
32.3985078247178
 30
0.0
  0
VERTEX
  5
15E
330
144
100
AcDbEntity
  8
Visible (ANSI)
100
AcDbVertex
100
AcDb2dVertex
 10
34.40295614658415
 20
32.40872706453093
 30
0.0
  0
SEQEND
  5
147
330
144
100
AcDbEntity
  8
Visible (ANSI)
  0
POLYLINE
  5
15F
330
6C
100
AcDbEntity
  8
Visible (ANSI)
100
AcDb2dPolyline
 66
     1
 10
0.0
 20
0.0
 30
0.0
 70
   128
  0
VERTEX
  5
160
330
15F
100
AcDbEntity
  8
Visible (ANSI)
100
AcDbVertex
100
AcDb2dVertex
 10
90.0904559086349
 20
88.09622682658169
 30
0.0
  0
VERTEX
  5
161
330
15F
100
AcDbEntity
  8
Visible (ANSI)
100
AcDbVertex
100
AcDb2dVertex
 10
90.10067449138894
 20
88.09384789726328
 30
0.0
  0
VERTEX
  5
163
330
15F
100
AcDbEntity
  8
Visible (ANSI)
100
AcDbVertex
100
AcDb2dVertex
 10
90.11085102236213
 20
88.09146296054759
 30
0.0
  0
VERTEX
  5
164
330
15F
100
AcDbEntity
  8
Visible (ANSI)
100
AcDbVertex
100
AcDb2dVertex
 10
90.12093744237629
 20
88.08908403122918
 30
0.0
  0
VERTEX
  5
165
330
15F
100
AcDbEntity
  8
Visible (ANSI)
100
AcDbVertex
100
AcDb2dVertex
 10
90.13089770704779
 20
88.08670510191078
 30
0.0
  0
VERTEX
  5
166
330
15F
100
AcDbEntity
  8
Visible (ANSI)
100
AcDbVertex
100
AcDb2dVertex
 10
90.14068375719849
 20
88.08432617259237
 30
0.0
  0
VERTEX
  5
167
330
15F
100
AcDbEntity
  8
Visible (ANSI)
100
AcDbVertex
100
AcDb2dVertex
 10
90.15024753365027
 20
88.08194123587671
 30
0.0
  0
VERTEX
  5
168
330
15F
100
AcDbEntity
  8
Visible (ANSI)
100
AcDbVertex
100
AcDb2dVertex
 10
90.15956500681403
 20
88.07956230655831
 30
0.0
  0
VERTEX
  5
169
330
15F
100
AcDbEntity
  8
Visible (ANSI)
100
AcDbVertex
100
AcDb2dVertex
 10
90.16858211011435
 20
88.07718337723988
 30
0.0
  0
VERTEX
  5
16A
330
15F
100
AcDbEntity
  8
Visible (ANSI)
100
AcDbVertex
100
AcDb2dVertex
 10
90.17726279916761
 20
88.07479844052421
 30
0.0
  0
VERTEX
  5
16B
330
15F
100
AcDbEntity
  8
Visible (ANSI)
100
AcDbVertex
100
AcDb2dVertex
 10
90.1855770369875
 20
88.0724195112058
 30
0.0
  0
VERTEX
  5
16C
330
15F
100
AcDbEntity
  8
Visible (ANSI)
100
AcDbVertex
100
AcDb2dVertex
 10
90.19347676439585
 20
88.0700405818874
 30
0.0
  0
VERTEX
  5
16D
330
15F
100
AcDbEntity
  8
Visible (ANSI)
100
AcDbVertex
100
AcDb2dVertex
 10
90.20094395920084
 20
88.06765564517172
 30
0.0
  0
VERTEX
  5
16E
330
15F
100
AcDbEntity
  8
Visible (ANSI)
100
AcDbVertex
100
AcDb2dVertex
 10
90.20793056222432
 20
88.06527671585334
 30
0.0
  0
VERTEX
  5
16F
330
15F
100
AcDbEntity
  8
Visible (ANSI)
100
AcDbVertex
100
AcDb2dVertex
 10
90.21441855127454
 20
88.06289778653491
 30
0.0
  0
VERTEX
  5
170
330
15F
100
AcDbEntity
  8
Visible (ANSI)
100
AcDbVertex
100
AcDb2dVertex
 10
90.22037188196781
 20
88.06051284981924
 30
0.0
  0
VERTEX
  5
171
330
15F
100
AcDbEntity
  8
Visible (ANSI)
100
AcDbVertex
100
AcDb2dVertex
 10
90.22577253211236
 20
88.05813392050085
 30
0.0
  0
VERTEX
  5
172
330
15F
100
AcDbEntity
  8
Visible (ANSI)
100
AcDbVertex
100
AcDb2dVertex
 10
90.23059046472187
 20
88.05575499118244
 30
0.0
  0
VERTEX
  5
173
330
15F
100
AcDbEntity
  8
Visible (ANSI)
100
AcDbVertex
100
AcDb2dVertex
 10
90.23481366500176
 20
88.05337606186403
 30
0.0
  0
VERTEX
  5
174
330
15F
100
AcDbEntity
  8
Visible (ANSI)
100
AcDbVertex
100
AcDb2dVertex
 10
90.23841209596573
 20
88.05099112514836
 30
0.0
  0
VERTEX
  5
175
330
15F
100
AcDbEntity
  8
Visible (ANSI)
100
AcDbVertex
100
AcDb2dVertex
 10
90.24137975021645
 20
88.04861219582994
 30
0.0
  0
VERTEX
  5
176
330
15F
100
AcDbEntity
  8
Visible (ANSI)
100
AcDbVertex
100
AcDb2dVertex
 10
90.24370461295944
 20
88.04623326651153
 30
0.0
  0
VERTEX
  5
177
330
15F
100
AcDbEntity
  8
Visible (ANSI)
100
AcDbVertex
100
AcDb2dVertex
 10
90.24536866200289
 20
88.04384832979588
 30
0.0
  0
VERTEX
  5
178
330
15F
100
AcDbEntity
  8
Visible (ANSI)
100
AcDbVertex
100
AcDb2dVertex
 10
90.24637189734674
 20
88.04146940047747
 30
0.0
  0
VERTEX
  5
179
330
15F
100
AcDbEntity
  8
Visible (ANSI)
100
AcDbVertex
100
AcDb2dVertex
 10
90.24670831159381
 20
88.03909047115906
 30
0.0
  0
SEQEND
  5
162
330
15F
100
AcDbEntity
  8
Visible (ANSI)
  0
POLYLINE
  5
17A
330
6C
100
AcDbEntity
  8
Visible (ANSI)
100
AcDb2dPolyline
 66
     1
 10
0.0
 20
0.0
 30
0.0
 70
   128
  0
VERTEX
  5
17B
330
17A
100
AcDbEntity
  8
Visible (ANSI)
100
AcDbVertex
100
AcDb2dVertex
 10
90.24670831159381
 20
32.46586540286397
 30
0.0
  0
VERTEX
  5
17C
330
17A
100
AcDbEntity
  8
Visible (ANSI)
100
AcDbVertex
100
AcDb2dVertex
 10
90.24637189734674
 20
32.46348464316671
 30
0.0
  0
VERTEX
  5
17E
330
17A
100
AcDbEntity
  8
Visible (ANSI)
100
AcDbVertex
100
AcDb2dVertex
 10
90.24536866200289
 20
32.46110388346945
 30
0.0
  0
VERTEX
  5
17F
330
17A
100
AcDbEntity
  8
Visible (ANSI)
100
AcDbVertex
100
AcDb2dVertex
 10
90.24370461295944
 20
32.45872312377219
 30
0.0
  0
VERTEX
  5
180
330
17A
100
AcDbEntity
  8
Visible (ANSI)
100
AcDbVertex
100
AcDb2dVertex
 10
90.24137975021645
 20
32.45634236407493
 30
0.0
  0
VERTEX
  5
181
330
17A
100
AcDbEntity
  8
Visible (ANSI)
100
AcDbVertex
100
AcDb2dVertex
 10
90.23841209596573
 20
32.45396158091127
 30
0.0
  0
VERTEX
  5
182
330
17A
100
AcDbEntity
  8
Visible (ANSI)
100
AcDbVertex
100
AcDb2dVertex
 10
90.23481366500176
 20
32.45158082121401
 30
0.0
  0
VERTEX
  5
183
330
17A
100
AcDbEntity
  8
Visible (ANSI)
100
AcDbVertex
100
AcDb2dVertex
 10
90.23059046472187
 20
32.44920006151675
 30
0.0
  0
VERTEX
  5
184
330
17A
100
AcDbEntity
  8
Visible (ANSI)
100
AcDbVertex
100
AcDb2dVertex
 10
90.22577253211236
 20
32.44681930181949
 30
0.0
  0
VERTEX
  5
185
330
17A
100
AcDbEntity
  8
Visible (ANSI)
100
AcDbVertex
100
AcDb2dVertex
 10
90.22037188196781
 20
32.44443853038903
 30
0.0
  0
VERTEX
  5
186
330
17A
100
AcDbEntity
  8
Visible (ANSI)
100
AcDbVertex
100
AcDb2dVertex
 10
90.21441855127454
 20
32.44205777069177
 30
0.0
  0
VERTEX
  5
187
330
17A
100
AcDbEntity
  8
Visible (ANSI)
100
AcDbVertex
100
AcDb2dVertex
 10
90.20793056222432
 20
32.43967701099451
 30
0.0
  0
VERTEX
  5
188
330
17A
100
AcDbEntity
  8
Visible (ANSI)
100
AcDbVertex
100
AcDb2dVertex
 10
90.20094395920084
 20
32.43729623956405
 30
0.0
  0
VERTEX
  5
189
330
17A
100
AcDbEntity
  8
Visible (ANSI)
100
AcDbVertex
100
AcDb2dVertex
 10
90.19347676439585
 20
32.43491547986679
 30
0.0
  0
VERTEX
  5
18A
330
17A
100
AcDbEntity
  8
Visible (ANSI)
100
AcDbVertex
100
AcDb2dVertex
 10
90.1855770369875
 20
32.43253470843633
 30
0.0
  0
VERTEX
  5
18B
330
17A
100
AcDbEntity
  8
Visible (ANSI)
100
AcDbVertex
100
AcDb2dVertex
 10
90.17726279916761
 20
32.43015394873907
 30
0.0
  0
VERTEX
  5
18C
330
17A
100
AcDbEntity
  8
Visible (ANSI)
100
AcDbVertex
100
AcDb2dVertex
 10
90.16858211011435
 20
32.42777317730862
 30
0.0
  0
VERTEX
  5
18D
330
17A
100
AcDbEntity
  8
Visible (ANSI)
100
AcDbVertex
100
AcDb2dVertex
 10
90.15956500681403
 20
32.42539241761135
 30
0.0
  0
VERTEX
  5
18E
330
17A
100
AcDbEntity
  8
Visible (ANSI)
100
AcDbVertex
100
AcDb2dVertex
 10
90.15024753365027
 20
32.42301165791409
 30
0.0
  0
VERTEX
  5
18F
330
17A
100
AcDbEntity
  8
Visible (ANSI)
100
AcDbVertex
100
AcDb2dVertex
 10
90.14068375719849
 20
32.42063088648363
 30
0.0
  0
VERTEX
  5
190
330
17A
100
AcDbEntity
  8
Visible (ANSI)
100
AcDbVertex
100
AcDb2dVertex
 10
90.13089770704779
 20
32.41825012678637
 30
0.0
  0
VERTEX
  5
191
330
17A
100
AcDbEntity
  8
Visible (ANSI)
100
AcDbVertex
100
AcDb2dVertex
 10
90.12093744237629
 20
32.41586935535591
 30
0.0
  0
VERTEX
  5
192
330
17A
100
AcDbEntity
  8
Visible (ANSI)
100
AcDbVertex
100
AcDb2dVertex
 10
90.11085102236213
 20
32.41348859565865
 30
0.0
  0
VERTEX
  5
193
330
17A
100
AcDbEntity
  8
Visible (ANSI)
100
AcDbVertex
100
AcDb2dVertex
 10
90.10067449138894
 20
32.41110783596139
 30
0.0
  0
VERTEX
  5
194
330
17A
100
AcDbEntity
  8
Visible (ANSI)
100
AcDbVertex
100
AcDb2dVertex
 10
90.0904559086349
 20
32.40872706453093
 30
0.0
  0
SEQEND
  5
17D
330
17A
100
AcDbEntity
  8
Visible (ANSI)
  0
POLYLINE
  5
195
330
6C
100
AcDbEntity
  8
Visible (ANSI)
100
AcDb2dPolyline
 66
     1
 10
0.0
 20
0.0
 30
0.0
 70
   128
  0
VERTEX
  5
196
330
195
100
AcDbEntity
  8
Visible (ANSI)
100
AcDbVertex
100
AcDb2dVertex
 10
34.40295614658415
 20
88.09622682658169
 30
0.0
  0
VERTEX
  5
197
330
195
100
AcDbEntity
  8
Visible (ANSI)
100
AcDbVertex
100
AcDb2dVertex
 10
34.40533691801461
 20
88.10644540933573
 30
0.0
  0
VERTEX
  5
199
330
195
100
AcDbEntity
  8
Visible (ANSI)
100
AcDbVertex
100
AcDb2dVertex
 10
34.40771767771187
 20
88.11662194030892
 30
0.0
  0
VERTEX
  5
19A
330
195
100
AcDbEntity
  8
Visible (ANSI)
100
AcDbVertex
100
AcDb2dVertex
 10
34.41009843740913
 20
88.12670836032307
 30
0.0
  0
VERTEX
  5
19B
330
195
100
AcDbEntity
  8
Visible (ANSI)
100
AcDbVertex
100
AcDb2dVertex
 10
34.41247920883959
 20
88.13666862499458
 30
0.0
  0
VERTEX
  5
19C
330
195
100
AcDbEntity
  8
Visible (ANSI)
100
AcDbVertex
100
AcDb2dVertex
 10
34.41485996853685
 20
88.14645467514528
 30
0.0
  0
VERTEX
  5
19D
330
195
100
AcDbEntity
  8
Visible (ANSI)
100
AcDbVertex
100
AcDb2dVertex
 10
34.41724073996731
 20
88.15601845159704
 30
0.0
  0
VERTEX
  5
19E
330
195
100
AcDbEntity
  8
Visible (ANSI)
100
AcDbVertex
100
AcDb2dVertex
 10
34.41962149966457
 20
88.16533592476082
 30
0.0
  0
VERTEX
  5
19F
330
195
100
AcDbEntity
  8
Visible (ANSI)
100
AcDbVertex
100
AcDb2dVertex
 10
34.42200225936183
 20
88.17435302806114
 30
0.0
  0
VERTEX
  5
1A0
330
195
100
AcDbEntity
  8
Visible (ANSI)
100
AcDbVertex
100
AcDb2dVertex
 10
34.42438303079228
 20
88.1830337171144
 30
0.0
  0
VERTEX
  5
1A1
330
195
100
AcDbEntity
  8
Visible (ANSI)
100
AcDbVertex
100
AcDb2dVertex
 10
34.42676379048954
 20
88.19134795493427
 30
0.0
  0
VERTEX
  5
1A2
330
195
100
AcDbEntity
  8
Visible (ANSI)
100
AcDbVertex
100
AcDb2dVertex
 10
34.42914456192001
 20
88.19924768234264
 30
0.0
  0
VERTEX
  5
1A3
330
195
100
AcDbEntity
  8
Visible (ANSI)
100
AcDbVertex
100
AcDb2dVertex
 10
34.43152532161727
 20
88.20671487714763
 30
0.0
  0
VERTEX
  5
1A4
330
195
100
AcDbEntity
  8
Visible (ANSI)
100
AcDbVertex
100
AcDb2dVertex
 10
34.43390609304773
 20
88.21370148017111
 30
0.0
  0
VERTEX
  5
1A5
330
195
100
AcDbEntity
  8
Visible (ANSI)
100
AcDbVertex
100
AcDb2dVertex
 10
34.43628685274499
 20
88.22018946922131
 30
0.0
  0
VERTEX
  5
1A6
330
195
100
AcDbEntity
  8
Visible (ANSI)
100
AcDbVertex
100
AcDb2dVertex
 10
34.43866761244225
 20
88.2261427999146
 30
0.0
  0
VERTEX
  5
1A7
330
195
100
AcDbEntity
  8
Visible (ANSI)
100
AcDbVertex
100
AcDb2dVertex
 10
34.4410483838727
 20
88.23154345005915
 30
0.0
  0
VERTEX
  5
1A8
330
195
100
AcDbEntity
  8
Visible (ANSI)
100
AcDbVertex
100
AcDb2dVertex
 10
34.44342914356997
 20
88.23636138266866
 30
0.0
  0
VERTEX
  5
1A9
330
195
100
AcDbEntity
  8
Visible (ANSI)
100
AcDbVertex
100
AcDb2dVertex
 10
34.44580990326723
 20
88.24058458294855
 30
0.0
  0
VERTEX
  5
1AA
330
195
100
AcDbEntity
  8
Visible (ANSI)
100
AcDbVertex
100
AcDb2dVertex
 10
34.44819066296449
 20
88.24418301391252
 30
0.0
  0
VERTEX
  5
1AB
330
195
100
AcDbEntity
  8
Visible (ANSI)
100
AcDbVertex
100
AcDb2dVertex
 10
34.45057144612814
 20
88.24715066816324
 30
0.0
  0
VERTEX
  5
1AC
330
195
100
AcDbEntity
  8
Visible (ANSI)
100
AcDbVertex
100
AcDb2dVertex
 10
34.4529522058254
 20
88.24947553090623
 30
0.0
  0
VERTEX
  5
1AD
330
195
100
AcDbEntity
  8
Visible (ANSI)
100
AcDbVertex
100
AcDb2dVertex
 10
34.45533296552266
 20
88.25113957994966
 30
0.0
  0
VERTEX
  5
1AE
330
195
100
AcDbEntity
  8
Visible (ANSI)
100
AcDbVertex
100
AcDb2dVertex
 10
34.45771372521992
 20
88.25214281529353
 30
0.0
  0
VERTEX
  5
1AF
330
195
100
AcDbEntity
  8
Visible (ANSI)
100
AcDbVertex
100
AcDb2dVertex
 10
34.46009448491718
 20
88.25247922954059
 30
0.0
  0
SEQEND
  5
198
330
195
100
AcDbEntity
  8
Visible (ANSI)
  0
POLYLINE
  5
1B0
330
6C
100
AcDbEntity
  8
Visible (ANSI)
100
AcDb2dPolyline
 66
     1
 10
0.0
 20
0.0
 30
0.0
 70
   128
  0
VERTEX
  5
1B1
330
1B0
100
AcDbEntity
  8
Visible (ANSI)
100
AcDbVertex
100
AcDb2dVertex
 10
90.03331955321227
 20
88.25247922954059
 30
0.0
  0
VERTEX
  5
1B2
330
1B0
100
AcDbEntity
  8
Visible (ANSI)
100
AcDbVertex
100
AcDb2dVertex
 10
90.03569848253068
 20
88.25214281529353
 30
0.0
  0
VERTEX
  5
1B4
330
1B0
100
AcDbEntity
  8
Visible (ANSI)
100
AcDbVertex
100
AcDb2dVertex
 10
90.03807741184909
 20
88.25113957994966
 30
0.0
  0
VERTEX
  5
1B5
330
1B0
100
AcDbEntity
  8
Visible (ANSI)
100
AcDbVertex
100
AcDb2dVertex
 10
90.04046234856476
 20
88.24947553090623
 30
0.0
  0
VERTEX
  5
1B6
330
1B0
100
AcDbEntity
  8
Visible (ANSI)
100
AcDbVertex
100
AcDb2dVertex
 10
90.04284127788315
 20
88.24715066816324
 30
0.0
  0
VERTEX
  5
1B7
330
1B0
100
AcDbEntity
  8
Visible (ANSI)
100
AcDbVertex
100
AcDb2dVertex
 10
90.04522020720157
 20
88.24418301391252
 30
0.0
  0
VERTEX
  5
1B8
330
1B0
100
AcDbEntity
  8
Visible (ANSI)
100
AcDbVertex
100
AcDb2dVertex
 10
90.04760514391724
 20
88.24058458294855
 30
0.0
  0
VERTEX
  5
1B9
330
1B0
100
AcDbEntity
  8
Visible (ANSI)
100
AcDbVertex
100
AcDb2dVertex
 10
90.04998407323567
 20
88.23636138266866
 30
0.0
  0
VERTEX
  5
1BA
330
1B0
100
AcDbEntity
  8
Visible (ANSI)
100
AcDbVertex
100
AcDb2dVertex
 10
90.05236300255406
 20
88.23154345005915
 30
0.0
  0
VERTEX
  5
1BB
330
1B0
100
AcDbEntity
  8
Visible (ANSI)
100
AcDbVertex
100
AcDb2dVertex
 10
90.05474193187247
 20
88.2261427999146
 30
0.0
  0
VERTEX
  5
1BC
330
1B0
100
AcDbEntity
  8
Visible (ANSI)
100
AcDbVertex
100
AcDb2dVertex
 10
90.05712686858814
 20
88.22018946922131
 30
0.0
  0
VERTEX
  5
1BD
330
1B0
100
AcDbEntity
  8
Visible (ANSI)
100
AcDbVertex
100
AcDb2dVertex
 10
90.05950579790654
 20
88.21370148017111
 30
0.0
  0
VERTEX
  5
1BE
330
1B0
100
AcDbEntity
  8
Visible (ANSI)
100
AcDbVertex
100
AcDb2dVertex
 10
90.06188472722495
 20
88.20671487714763
 30
0.0
  0
VERTEX
  5
1BF
330
1B0
100
AcDbEntity
  8
Visible (ANSI)
100
AcDbVertex
100
AcDb2dVertex
 10
90.06426966394062
 20
88.19924768234264
 30
0.0
  0
VERTEX
  5
1C0
330
1B0
100
AcDbEntity
  8
Visible (ANSI)
100
AcDbVertex
100
AcDb2dVertex
 10
90.06664859325901
 20
88.19134795493427
 30
0.0
  0
VERTEX
  5
1C1
330
1B0
100
AcDbEntity
  8
Visible (ANSI)
100
AcDbVertex
100
AcDb2dVertex
 10
90.06902752257742
 20
88.1830337171144
 30
0.0
  0
VERTEX
  5
1C2
330
1B0
100
AcDbEntity
  8
Visible (ANSI)
100
AcDbVertex
100
AcDb2dVertex
 10
90.07141245929311
 20
88.17435302806114
 30
0.0
  0
VERTEX
  5
1C3
330
1B0
100
AcDbEntity
  8
Visible (ANSI)
100
AcDbVertex
100
AcDb2dVertex
 10
90.07379138861152
 20
88.16533592476082
 30
0.0
  0
VERTEX
  5
1C4
330
1B0
100
AcDbEntity
  8
Visible (ANSI)
100
AcDbVertex
100
AcDb2dVertex
 10
90.07617031792992
 20
88.15601845159704
 30
0.0
  0
VERTEX
  5
1C5
330
1B0
100
AcDbEntity
  8
Visible (ANSI)
100
AcDbVertex
100
AcDb2dVertex
 10
90.0785552546456
 20
88.14645467514528
 30
0.0
  0
VERTEX
  5
1C6
330
1B0
100
AcDbEntity
  8
Visible (ANSI)
100
AcDbVertex
100
AcDb2dVertex
 10
90.08093418396398
 20
88.13666862499458
 30
0.0
  0
VERTEX
  5
1C7
330
1B0
100
AcDbEntity
  8
Visible (ANSI)
100
AcDbVertex
100
AcDb2dVertex
 10
90.08331311328239
 20
88.12670836032307
 30
0.0
  0
VERTEX
  5
1C8
330
1B0
100
AcDbEntity
  8
Visible (ANSI)
100
AcDbVertex
100
AcDb2dVertex
 10
90.08569204260082
 20
88.11662194030892
 30
0.0
  0
VERTEX
  5
1C9
330
1B0
100
AcDbEntity
  8
Visible (ANSI)
100
AcDbVertex
100
AcDb2dVertex
 10
90.08807697931649
 20
88.10644540933573
 30
0.0
  0
VERTEX
  5
1CA
330
1B0
100
AcDbEntity
  8
Visible (ANSI)
100
AcDbVertex
100
AcDb2dVertex
 10
90.0904559086349
 20
88.09622682658169
 30
0.0
  0
SEQEND
  5
1B3
330
1B0
100
AcDbEntity
  8
Visible (ANSI)
  0
POLYLINE
  5
1CB
330
6C
100
AcDbEntity
  8
Visible (ANSI)
100
AcDb2dPolyline
 66
     1
 10
0.0
 20
0.0
 30
0.0
 70
   128
  0
VERTEX
  5
1CC
330
1CB
100
AcDbEntity
  8
Visible (ANSI)
100
AcDbVertex
100
AcDb2dVertex
 10
34.40295614658415
 20
32.40872706453093
 30
0.0
  0
VERTEX
  5
1CD
330
1CB
100
AcDbEntity
  8
Visible (ANSI)
100
AcDbVertex
100
AcDb2dVertex
 10
34.39273690677101
 20
32.41110783596139
 30
0.0
  0
VERTEX
  5
1CF
330
1CB
100
AcDbEntity
  8
Visible (ANSI)
100
AcDbVertex
100
AcDb2dVertex
 10
34.38256143178563
 20
32.41348859565865
 30
0.0
  0
VERTEX
  5
1D0
330
1CB
100
AcDbEntity
  8
Visible (ANSI)
100
AcDbVertex
100
AcDb2dVertex
 10
34.37247328699141
 20
32.41586935535591
 30
0.0
  0
VERTEX
  5
1D1
330
1CB
100
AcDbEntity
  8
Visible (ANSI)
100
AcDbVertex
100
AcDb2dVertex
 10
34.36251567402261
 20
32.41825012678637
 30
0.0
  0
VERTEX
  5
1D2
330
1CB
100
AcDbEntity
  8
Visible (ANSI)
100
AcDbVertex
100
AcDb2dVertex
 10
34.35273123131999
 20
32.42063088648363
 30
0.0
  0
VERTEX
  5
1D3
330
1CB
100
AcDbEntity
  8
Visible (ANSI)
100
AcDbVertex
100
AcDb2dVertex
 10
34.34316186399947
 20
32.42301165791409
 30
0.0
  0
VERTEX
  5
1D4
330
1CB
100
AcDbEntity
  8
Visible (ANSI)
100
AcDbVertex
100
AcDb2dVertex
 10
34.33384853852113
 20
32.42539241761135
 30
0.0
  0
VERTEX
  5
1D5
330
1CB
100
AcDbEntity
  8
Visible (ANSI)
100
AcDbVertex
100
AcDb2dVertex
 10
34.32483114775747
 20
32.42777317730862
 30
0.0
  0
VERTEX
  5
1D6
330
1CB
100
AcDbEntity
  8
Visible (ANSI)
100
AcDbVertex
100
AcDb2dVertex
 10
34.3161482997958
 20
32.43015394873907
 30
0.0
  0
VERTEX
  5
1D7
330
1CB
100
AcDbEntity
  8
Visible (ANSI)
100
AcDbVertex
100
AcDb2dVertex
 10
34.30783717713993
 20
32.43253470843633
 30
0.0
  0
VERTEX
  5
1D8
330
1CB
100
AcDbEntity
  8
Visible (ANSI)
100
AcDbVertex
100
AcDb2dVertex
 10
34.29993336657876
 20
32.43491547986679
 30
0.0
  0
VERTEX
  5
1D9
330
1CB
100
AcDbEntity
  8
Visible (ANSI)
100
AcDbVertex
100
AcDb2dVertex
 10
34.29247071545461
 20
32.43729623956405
 30
0.0
  0
VERTEX
  5
1DA
330
1CB
100
AcDbEntity
  8
Visible (ANSI)
100
AcDbVertex
100
AcDb2dVertex
 10
34.28548117913166
 20
32.43967701099451
 30
0.0
  0
VERTEX
  5
1DB
330
1CB
100
AcDbEntity
  8
Visible (ANSI)
100
AcDbVertex
100
AcDb2dVertex
 10
34.27899468899749
 20
32.44205777069177
 30
0.0
  0
VERTEX
  5
1DC
330
1CB
100
AcDbEntity
  8
Visible (ANSI)
100
AcDbVertex
100
AcDb2dVertex
 10
34.27303902339783
 20
32.44443853038903
 30
0.0
  0
VERTEX
  5
1DD
330
1CB
100
AcDbEntity
  8
Visible (ANSI)
100
AcDbVertex
100
AcDb2dVertex
 10
34.26763968003818
 20
32.44681930181949
 30
0.0
  0
VERTEX
  5
1DE
330
1CB
100
AcDbEntity
  8
Visible (ANSI)
100
AcDbVertex
100
AcDb2dVertex
 10
34.26281978358471
 20
32.44920006151675
 30
0.0
  0
VERTEX
  5
1DF
330
1CB
100
AcDbEntity
  8
Visible (ANSI)
100
AcDbVertex
100
AcDb2dVertex
 10
34.258599971999
 20
32.45158082121401
 30
0.0
  0
VERTEX
  5
1E0
330
1CB
100
AcDbEntity
  8
Visible (ANSI)
100
AcDbVertex
100
AcDb2dVertex
 10
34.2549983158723
 20
32.45396158091127
 30
0.0
  0
VERTEX
  5
1E1
330
1CB
100
AcDbEntity
  8
Visible (ANSI)
100
AcDbVertex
100
AcDb2dVertex
 10
34.25203023849312
 20
32.45634236407493
 30
0.0
  0
VERTEX
  5
1E2
330
1CB
100
AcDbEntity
  8
Visible (ANSI)
100
AcDbVertex
100
AcDb2dVertex
 10
34.2497084489313
 20
32.45872312377219
 30
0.0
  0
VERTEX
  5
1E3
330
1CB
100
AcDbEntity
  8
Visible (ANSI)
100
AcDbVertex
100
AcDb2dVertex
 10
34.24804288933032
 20
32.46110388346945
 30
0.0
  0
VERTEX
  5
1E4
330
1CB
100
AcDbEntity
  8
Visible (ANSI)
100
AcDbVertex
100
AcDb2dVertex
 10
34.2470406921682
 20
32.46348464316671
 30
0.0
  0
VERTEX
  5
1E5
330
1CB
100
AcDbEntity
  8
Visible (ANSI)
100
AcDbVertex
100
AcDb2dVertex
 10
34.24670614893079
 20
32.46586540286397
 30
0.0
  0
SEQEND
  5
1CE
330
1CB
100
AcDbEntity
  8
Visible (ANSI)
  0
POLYLINE
  5
1E6
330
6C
100
AcDbEntity
  8
Visible (ANSI)
100
AcDb2dPolyline
 66
     1
 10
0.0
 20
0.0
 30
0.0
 70
   128
  0
VERTEX
  5
1E7
330
1E6
100
AcDbEntity
  8
Visible (ANSI)
100
AcDbVertex
100
AcDb2dVertex
 10
34.24670614893079
 20
88.03909047115906
 30
0.0
  0
VERTEX
  5
1E8
330
1E6
100
AcDbEntity
  8
Visible (ANSI)
100
AcDbVertex
100
AcDb2dVertex
 10
34.2470406921682
 20
88.04146940047747
 30
0.0
  0
VERTEX
  5
1EA
330
1E6
100
AcDbEntity
  8
Visible (ANSI)
100
AcDbVertex
100
AcDb2dVertex
 10
34.24804288933032
 20
88.04384832979588
 30
0.0
  0
VERTEX
  5
1EB
330
1E6
100
AcDbEntity
  8
Visible (ANSI)
100
AcDbVertex
100
AcDb2dVertex
 10
34.2497084489313
 20
88.04623326651153
 30
0.0
  0
VERTEX
  5
1EC
330
1E6
100
AcDbEntity
  8
Visible (ANSI)
100
AcDbVertex
100
AcDb2dVertex
 10
34.25203023849312
 20
88.04861219582994
 30
0.0
  0
VERTEX
  5
1ED
330
1E6
100
AcDbEntity
  8
Visible (ANSI)
100
AcDbVertex
100
AcDb2dVertex
 10
34.2549983158723
 20
88.05099112514836
 30
0.0
  0
VERTEX
  5
1EE
330
1E6
100
AcDbEntity
  8
Visible (ANSI)
100
AcDbVertex
100
AcDb2dVertex
 10
34.258599971999
 20
88.05337606186403
 30
0.0
  0
VERTEX
  5
1EF
330
1E6
100
AcDbEntity
  8
Visible (ANSI)
100
AcDbVertex
100
AcDb2dVertex
 10
34.26281978358471
 20
88.05575499118244
 30
0.0
  0
VERTEX
  5
1F0
330
1E6
100
AcDbEntity
  8
Visible (ANSI)
100
AcDbVertex
100
AcDb2dVertex
 10
34.26763968003818
 20
88.05813392050085
 30
0.0
  0
VERTEX
  5
1F1
330
1E6
100
AcDbEntity
  8
Visible (ANSI)
100
AcDbVertex
100
AcDb2dVertex
 10
34.27303902339783
 20
88.06051284981924
 30
0.0
  0
VERTEX
  5
1F2
330
1E6
100
AcDbEntity
  8
Visible (ANSI)
100
AcDbVertex
100
AcDb2dVertex
 10
34.27899468899749
 20
88.06289778653491
 30
0.0
  0
VERTEX
  5
1F3
330
1E6
100
AcDbEntity
  8
Visible (ANSI)
100
AcDbVertex
100
AcDb2dVertex
 10
34.28548117913166
 20
88.06527671585334
 30
0.0
  0
VERTEX
  5
1F4
330
1E6
100
AcDbEntity
  8
Visible (ANSI)
100
AcDbVertex
100
AcDb2dVertex
 10
34.29247071545461
 20
88.06765564517172
 30
0.0
  0
VERTEX
  5
1F5
330
1E6
100
AcDbEntity
  8
Visible (ANSI)
100
AcDbVertex
100
AcDb2dVertex
 10
34.29993336657876
 20
88.0700405818874
 30
0.0
  0
VERTEX
  5
1F6
330
1E6
100
AcDbEntity
  8
Visible (ANSI)
100
AcDbVertex
100
AcDb2dVertex
 10
34.30783717713993
 20
88.0724195112058
 30
0.0
  0
VERTEX
  5
1F7
330
1E6
100
AcDbEntity
  8
Visible (ANSI)
100
AcDbVertex
100
AcDb2dVertex
 10
34.3161482997958
 20
88.07479844052421
 30
0.0
  0
VERTEX
  5
1F8
330
1E6
100
AcDbEntity
  8
Visible (ANSI)
100
AcDbVertex
100
AcDb2dVertex
 10
34.32483114775747
 20
88.07718337723988
 30
0.0
  0
VERTEX
  5
1F9
330
1E6
100
AcDbEntity
  8
Visible (ANSI)
100
AcDbVertex
100
AcDb2dVertex
 10
34.33384853852113
 20
88.07956230655831
 30
0.0
  0
VERTEX
  5
1FA
330
1E6
100
AcDbEntity
  8
Visible (ANSI)
100
AcDbVertex
100
AcDb2dVertex
 10
34.34316186399947
 20
88.08194123587671
 30
0.0
  0
VERTEX
  5
1FB
330
1E6
100
AcDbEntity
  8
Visible (ANSI)
100
AcDbVertex
100
AcDb2dVertex
 10
34.35273123131999
 20
88.08432617259237
 30
0.0
  0
VERTEX
  5
1FC
330
1E6
100
AcDbEntity
  8
Visible (ANSI)
100
AcDbVertex
100
AcDb2dVertex
 10
34.36251567402261
 20
88.08670510191078
 30
0.0
  0
VERTEX
  5
1FD
330
1E6
100
AcDbEntity
  8
Visible (ANSI)
100
AcDbVertex
100
AcDb2dVertex
 10
34.37247328699141
 20
88.08908403122918
 30
0.0
  0
VERTEX
  5
1FE
330
1E6
100
AcDbEntity
  8
Visible (ANSI)
100
AcDbVertex
100
AcDb2dVertex
 10
34.38256143178563
 20
88.09146296054759
 30
0.0
  0
VERTEX
  5
1FF
330
1E6
100
AcDbEntity
  8
Visible (ANSI)
100
AcDbVertex
100
AcDb2dVertex
 10
34.39273690677101
 20
88.09384789726328
 30
0.0
  0
VERTEX
  5
200
330
1E6
100
AcDbEntity
  8
Visible (ANSI)
100
AcDbVertex
100
AcDb2dVertex
 10
34.40295614658415
 20
88.09622682658169
 30
0.0
  0
SEQEND
  5
1E9
330
1E6
100
AcDbEntity
  8
Visible (ANSI)
  0
POLYLINE
  5
201
330
6C
100
AcDbEntity
  8
Visible (ANSI)
100
AcDb2dPolyline
 66
     1
 10
0.0
 20
0.0
 30
0.0
 70
   128
  0
VERTEX
  5
202
330
201
100
AcDbEntity
  8
Visible (ANSI)
100
AcDbVertex
100
AcDb2dVertex
 10
125.3333575509914
 20
32.40872706453093
 30
0.0
  0
VERTEX
  5
203
330
201
100
AcDbEntity
  8
Visible (ANSI)
100
AcDbVertex
100
AcDb2dVertex
 10
125.3336920879268
 20
32.3985078247178
 30
0.0
  0
VERTEX
  5
205
330
201
100
AcDbEntity
  8
Visible (ANSI)
100
AcDbVertex
100
AcDb2dVertex
 10
125.3346942907493
 20
32.38833234973242
 30
0.0
  0
VERTEX
  5
206
330
201
100
AcDbEntity
  8
Visible (ANSI)
100
AcDbVertex
100
AcDb2dVertex
 10
125.3363598533752
 20
32.37824420493819
 30
0.0
  0
VERTEX
  5
207
330
201
100
AcDbEntity
  8
Visible (ANSI)
100
AcDbVertex
100
AcDb2dVertex
 10
125.3386816420204
 20
32.36828659196939
 30
0.0
  0
VERTEX
  5
208
330
201
100
AcDbEntity
  8
Visible (ANSI)
100
AcDbVertex
100
AcDb2dVertex
 10
125.3416497186662
 20
32.35850214926677
 30
0.0
  0
VERTEX
  5
209
330
201
100
AcDbEntity
  8
Visible (ANSI)
100
AcDbVertex
100
AcDb2dVertex
 10
125.3452513762596
 20
32.34893278194626
 30
0.0
  0
VERTEX
  5
20A
330
201
100
AcDbEntity
  8
Visible (ANSI)
100
AcDbVertex
100
AcDb2dVertex
 10
125.3494711856453
 20
32.33961945646792
 30
0.0
  0
VERTEX
  5
20B
330
201
100
AcDbEntity
  8
Visible (ANSI)
100
AcDbVertex
100
AcDb2dVertex
 10
125.3542910776988
 20
32.33060206570425
 30
0.0
  0
VERTEX
  5
20C
330
201
100
AcDbEntity
  8
Visible (ANSI)
100
AcDbVertex
100
AcDb2dVertex
 10
125.3596904254584
 20
32.32191921774258
 30
0.0
  0
VERTEX
  5
20D
330
201
100
AcDbEntity
  8
Visible (ANSI)
100
AcDbVertex
100
AcDb2dVertex
 10
125.3656460910581
 20
32.31360809508672
 30
0.0
  0
VERTEX
  5
20E
330
201
100
AcDbEntity
  8
Visible (ANSI)
100
AcDbVertex
100
AcDb2dVertex
 10
125.372132578259
 20
32.30570428452554
 30
0.0
  0
VERTEX
  5
20F
330
201
100
AcDbEntity
  8
Visible (ANSI)
100
AcDbVertex
100
AcDb2dVertex
 10
125.3791221145819
 20
32.2982416334014
 30
0.0
  0
VERTEX
  5
210
330
201
100
AcDbEntity
  8
Visible (ANSI)
100
AcDbVertex
100
AcDb2dVertex
 10
125.3865847627728
 20
32.29125209707845
 30
0.0
  0
VERTEX
  5
211
330
201
100
AcDbEntity
  8
Visible (ANSI)
100
AcDbVertex
100
AcDb2dVertex
 10
125.3944885733339
 20
32.28476560694427
 30
0.0
  0
VERTEX
  5
212
330
201
100
AcDbEntity
  8
Visible (ANSI)
100
AcDbVertex
100
AcDb2dVertex
 10
125.4027997018564
 20
32.27880994134463
 30
0.0
  0
VERTEX
  5
213
330
201
100
AcDbEntity
  8
Visible (ANSI)
100
AcDbVertex
100
AcDb2dVertex
 10
125.4114825498181
 20
32.27341059798497
 30
0.0
  0
VERTEX
  5
214
330
201
100
AcDbEntity
  8
Visible (ANSI)
100
AcDbVertex
100
AcDb2dVertex
 10
125.4204999405817
 20
32.26859070153149
 30
0.0
  0
VERTEX
  5
215
330
201
100
AcDbEntity
  8
Visible (ANSI)
100
AcDbVertex
100
AcDb2dVertex
 10
125.4298132631268
 20
32.26437088994578
 30
0.0
  0
VERTEX
  5
216
330
201
100
AcDbEntity
  8
Visible (ANSI)
100
AcDbVertex
100
AcDb2dVertex
 10
125.4393826333806
 20
32.26076923381909
 30
0.0
  0
VERTEX
  5
217
330
201
100
AcDbEntity
  8
Visible (ANSI)
100
AcDbVertex
100
AcDb2dVertex
 10
125.4491670731499
 20
32.2578011564399
 30
0.0
  0
VERTEX
  5
218
330
201
100
AcDbEntity
  8
Visible (ANSI)
100
AcDbVertex
100
AcDb2dVertex
 10
125.459124686302
 20
32.25547936687808
 30
0.0
  0
VERTEX
  5
219
330
201
100
AcDbEntity
  8
Visible (ANSI)
100
AcDbVertex
100
AcDb2dVertex
 10
125.4692128316462
 20
32.2538138072771
 30
0.0
  0
VERTEX
  5
21A
330
201
100
AcDbEntity
  8
Visible (ANSI)
100
AcDbVertex
100
AcDb2dVertex
 10
125.4793883102982
 20
32.25281161011498
 30
0.0
  0
VERTEX
  5
21B
330
201
100
AcDbEntity
  8
Visible (ANSI)
100
AcDbVertex
100
AcDb2dVertex
 10
125.4896075486447
 20
32.25247706687758
 30
0.0
  0
SEQEND
  5
204
330
201
100
AcDbEntity
  8
Visible (ANSI)
  0
LINE
  5
21C
330
6C
100
AcDbEntity
  8
Visible (ANSI)
100
AcDbLine
 10
125.4896075491141
 20
32.37747706687758
 30
0.0
 11
126.2083575491141
 21
32.37747706687758
 31
0.0
  0
LINE
  5
21D
330
6C
100
AcDbEntity
  8
Visible (ANSI)
100
AcDbLine
 10
125.4896075491141
 20
32.37747706687758
 30
0.0
 11
125.4896075491141
 21
32.25247706687758
 31
0.0
  0
POLYLINE
  5
21E
330
6C
100
AcDbEntity
  8
Visible (ANSI)
100
AcDb2dPolyline
 66
     1
 10
0.0
 20
0.0
 30
0.0
 70
   128
  0
VERTEX
  5
21F
330
21E
100
AcDbEntity
  8
Visible (ANSI)
100
AcDbVertex
100
AcDb2dVertex
 10
125.4583575491141
 20
32.40872706453093
 30
0.0
  0
VERTEX
  5
220
330
21E
100
AcDbEntity
  8
Visible (ANSI)
100
AcDbVertex
100
AcDb2dVertex
 10
125.4584244577604
 20
32.40668322360822
 30
0.0
  0
VERTEX
  5
222
330
21E
100
AcDbEntity
  8
Visible (ANSI)
100
AcDbVertex
100
AcDb2dVertex
 10
125.4586248971986
 20
32.40464812391787
 30
0.0
  0
VERTEX
  5
223
330
21E
100
AcDbEntity
  8
Visible (ANSI)
100
AcDbVertex
100
AcDb2dVertex
 10
125.4589580091233
 20
32.40263049495903
 30
0.0
  0
VERTEX
  5
224
330
21E
100
AcDbEntity
  8
Visible (ANSI)
100
AcDbVertex
100
AcDb2dVertex
 10
125.4594223670632
 20
32.40063897236526
 30
0.0
  0
VERTEX
  5
225
330
21E
100
AcDbEntity
  8
Visible (ANSI)
100
AcDbVertex
100
AcDb2dVertex
 10
125.460015982539
 20
32.39868208617138
 30
0.0
  0
VERTEX
  5
226
330
21E
100
AcDbEntity
  8
Visible (ANSI)
100
AcDbVertex
100
AcDb2dVertex
 10
125.460736313801
 20
32.3967682138806
 30
0.0
  0
VERTEX
  5
227
330
21E
100
AcDbEntity
  8
Visible (ANSI)
100
AcDbVertex
100
AcDb2dVertex
 10
125.4615802761182
 20
32.39490554526497
 30
0.0
  0
VERTEX
  5
228
330
21E
100
AcDbEntity
  8
Visible (ANSI)
100
AcDbVertex
100
AcDb2dVertex
 10
125.4625442551155
 20
32.3931020706322
 30
0.0
  0
VERTEX
  5
229
330
21E
100
AcDbEntity
  8
Visible (ANSI)
100
AcDbVertex
100
AcDb2dVertex
 10
125.4636241236408
 20
32.39136549869322
 30
0.0
  0
VERTEX
  5
22A
330
21E
100
AcDbEntity
  8
Visible (ANSI)
100
AcDbVertex
100
AcDb2dVertex
 10
125.4648152569807
 20
32.38970326829545
 30
0.0
  0
VERTEX
  5
22B
330
21E
100
AcDbEntity
  8
Visible (ANSI)
100
AcDbVertex
100
AcDb2dVertex
 10
125.4661125548609
 20
32.38812251322313
 30
0.0
  0
VERTEX
  5
22C
330
21E
100
AcDbEntity
  8
Visible (ANSI)
100
AcDbVertex
100
AcDb2dVertex
 10
125.4675104619788
 20
32.386629980065
 30
0.0
  0
VERTEX
  5
22D
330
21E
100
AcDbEntity
  8
Visible (ANSI)
100
AcDbVertex
100
AcDb2dVertex
 10
125.4690029922037
 20
32.38523207514705
 30
0.0
  0
VERTEX
  5
22E
330
21E
100
AcDbEntity
  8
Visible (ANSI)
100
AcDbVertex
100
AcDb2dVertex
 10
125.4705837546092
 20
32.38393477066696
 30
0.0
  0
VERTEX
  5
22F
330
21E
100
AcDbEntity
  8
Visible (ANSI)
100
AcDbVertex
100
AcDb2dVertex
 10
125.4722459798737
 20
32.38274363989367
 30
0.0
  0
VERTEX
  5
230
330
21E
100
AcDbEntity
  8
Visible (ANSI)
100
AcDbVertex
100
AcDb2dVertex
 10
125.4739825488794
 20
32.38166377503503
 30
0.0
  0
VERTEX
  5
231
330
21E
100
AcDbEntity
  8
Visible (ANSI)
100
AcDbVertex
100
AcDb2dVertex
 10
125.4757860279121
 20
32.38069979897096
 30
0.0
  0
VERTEX
  5
232
330
21E
100
AcDbEntity
  8
Visible (ANSI)
100
AcDbVertex
100
AcDb2dVertex
 10
125.4776486921278
 20
32.37985583005389
 30
0.0
  0
VERTEX
  5
233
330
21E
100
AcDbEntity
  8
Visible (ANSI)
100
AcDbVertex
100
AcDb2dVertex
 10
125.4795625658852
 20
32.37913550557514
 30
0.0
  0
VERTEX
  5
234
330
21E
100
AcDbEntity
  8
Visible (ANSI)
100
AcDbVertex
100
AcDb2dVertex
 10
125.4815194535458
 20
32.37854188789934
 30
0.0
  0
VERTEX
  5
235
330
21E
100
AcDbEntity
  8
Visible (ANSI)
100
AcDbVertex
100
AcDb2dVertex
 10
125.4835109761395
 20
32.37807752313039
 30
0.0
  0
VERTEX
  5
236
330
21E
100
AcDbEntity
  8
Visible (ANSI)
100
AcDbVertex
100
AcDb2dVertex
 10
125.4855286050984
 20
32.37774441764511
 30
0.0
  0
VERTEX
  5
237
330
21E
100
AcDbEntity
  8
Visible (ANSI)
100
AcDbVertex
100
AcDb2dVertex
 10
125.4875637018554
 20
32.37754397942726
 30
0.0
  0
VERTEX
  5
238
330
21E
100
AcDbEntity
  8
Visible (ANSI)
100
AcDbVertex
100
AcDb2dVertex
 10
125.4896075486447
 20
32.37747706500026
 30
0.0
  0
SEQEND
  5
221
330
21E
100
AcDbEntity
  8
Visible (ANSI)
  0
LINE
  5
239
330
6C
100
AcDbEntity
  8
Visible (ANSI)
100
AcDbLine
 10
125.4583575491141
 20
32.40872706687759
 30
0.0
 11
125.4532321472408
 21
32.40872706687758
 31
0.0
  0
LINE
  5
23A
330
6C
100
AcDbEntity
  8
Visible (ANSI)
100
AcDbLine
 10
125.4532321472408
 20
32.40872706687758
 30
0.0
 11
125.333357549114
 21
32.40872706687759
 31
0.0
  0
LINE
  5
23B
330
6C
100
AcDbEntity
  8
Visible (ANSI)
100
AcDbLine
 10
125.4896075491141
 20
32.25247706687758
 30
0.0
 11
126.2083575491141
 21
32.25247706687758
 31
0.0
  0
LINE
  5
23C
330
6C
100
AcDbEntity
  8
Visible (ANSI)
100
AcDbLine
 10
126.2083575491141
 20
32.37747706687758
 30
0.0
 11
126.2083575491141
 21
32.25247706687758
 31
0.0
  0
POLYLINE
  5
23D
330
6C
100
AcDbEntity
  8
Visible (ANSI)
100
AcDb2dPolyline
 66
     1
 10
0.0
 20
0.0
 30
0.0
 70
   128
  0
VERTEX
  5
23E
330
23D
100
AcDbEntity
  8
Visible (ANSI)
100
AcDbVertex
100
AcDb2dVertex
 10
125.3333575509914
 20
88.09622682658169
 30
0.0
  0
VERTEX
  5
23F
330
23D
100
AcDbEntity
  8
Visible (ANSI)
100
AcDbVertex
100
AcDb2dVertex
 10
125.3336920879268
 20
88.09384789726328
 30
0.0
  0
VERTEX
  5
241
330
23D
100
AcDbEntity
  8
Visible (ANSI)
100
AcDbVertex
100
AcDb2dVertex
 10
125.3346942907493
 20
88.09146296054759
 30
0.0
  0
VERTEX
  5
242
330
23D
100
AcDbEntity
  8
Visible (ANSI)
100
AcDbVertex
100
AcDb2dVertex
 10
125.3363598533752
 20
88.08908403122918
 30
0.0
  0
VERTEX
  5
243
330
23D
100
AcDbEntity
  8
Visible (ANSI)
100
AcDbVertex
100
AcDb2dVertex
 10
125.3386816420204
 20
88.08670510191078
 30
0.0
  0
VERTEX
  5
244
330
23D
100
AcDbEntity
  8
Visible (ANSI)
100
AcDbVertex
100
AcDb2dVertex
 10
125.3416497186662
 20
88.08432617259237
 30
0.0
  0
VERTEX
  5
245
330
23D
100
AcDbEntity
  8
Visible (ANSI)
100
AcDbVertex
100
AcDb2dVertex
 10
125.3452513762596
 20
88.08194123587671
 30
0.0
  0
VERTEX
  5
246
330
23D
100
AcDbEntity
  8
Visible (ANSI)
100
AcDbVertex
100
AcDb2dVertex
 10
125.3494711856453
 20
88.07956230655831
 30
0.0
  0
VERTEX
  5
247
330
23D
100
AcDbEntity
  8
Visible (ANSI)
100
AcDbVertex
100
AcDb2dVertex
 10
125.3542910776989
 20
88.07718337723988
 30
0.0
  0
VERTEX
  5
248
330
23D
100
AcDbEntity
  8
Visible (ANSI)
100
AcDbVertex
100
AcDb2dVertex
 10
125.3596904254585
 20
88.07479844052421
 30
0.0
  0
VERTEX
  5
249
330
23D
100
AcDbEntity
  8
Visible (ANSI)
100
AcDbVertex
100
AcDb2dVertex
 10
125.3656460910581
 20
88.0724195112058
 30
0.0
  0
VERTEX
  5
24A
330
23D
100
AcDbEntity
  8
Visible (ANSI)
100
AcDbVertex
100
AcDb2dVertex
 10
125.372132578259
 20
88.0700405818874
 30
0.0
  0
VERTEX
  5
24B
330
23D
100
AcDbEntity
  8
Visible (ANSI)
100
AcDbVertex
100
AcDb2dVertex
 10
125.3791221145819
 20
88.06765564517172
 30
0.0
  0
VERTEX
  5
24C
330
23D
100
AcDbEntity
  8
Visible (ANSI)
100
AcDbVertex
100
AcDb2dVertex
 10
125.3865847627728
 20
88.06527671585334
 30
0.0
  0
VERTEX
  5
24D
330
23D
100
AcDbEntity
  8
Visible (ANSI)
100
AcDbVertex
100
AcDb2dVertex
 10
125.394488573334
 20
88.06289778653491
 30
0.0
  0
VERTEX
  5
24E
330
23D
100
AcDbEntity
  8
Visible (ANSI)
100
AcDbVertex
100
AcDb2dVertex
 10
125.4027997018564
 20
88.06051284981924
 30
0.0
  0
VERTEX
  5
24F
330
23D
100
AcDbEntity
  8
Visible (ANSI)
100
AcDbVertex
100
AcDb2dVertex
 10
125.4114825498181
 20
88.05813392050085
 30
0.0
  0
VERTEX
  5
250
330
23D
100
AcDbEntity
  8
Visible (ANSI)
100
AcDbVertex
100
AcDb2dVertex
 10
125.4204999405818
 20
88.05575499118244
 30
0.0
  0
VERTEX
  5
251
330
23D
100
AcDbEntity
  8
Visible (ANSI)
100
AcDbVertex
100
AcDb2dVertex
 10
125.4298132631268
 20
88.05337606186403
 30
0.0
  0
VERTEX
  5
252
330
23D
100
AcDbEntity
  8
Visible (ANSI)
100
AcDbVertex
100
AcDb2dVertex
 10
125.4393826333806
 20
88.05099112514836
 30
0.0
  0
VERTEX
  5
253
330
23D
100
AcDbEntity
  8
Visible (ANSI)
100
AcDbVertex
100
AcDb2dVertex
 10
125.44916707315
 20
88.04861219582994
 30
0.0
  0
VERTEX
  5
254
330
23D
100
AcDbEntity
  8
Visible (ANSI)
100
AcDbVertex
100
AcDb2dVertex
 10
125.4591246863021
 20
88.04623326651153
 30
0.0
  0
VERTEX
  5
255
330
23D
100
AcDbEntity
  8
Visible (ANSI)
100
AcDbVertex
100
AcDb2dVertex
 10
125.4692128316463
 20
88.04384832979588
 30
0.0
  0
VERTEX
  5
256
330
23D
100
AcDbEntity
  8
Visible (ANSI)
100
AcDbVertex
100
AcDb2dVertex
 10
125.4793883102983
 20
88.04146940047747
 30
0.0
  0
VERTEX
  5
257
330
23D
100
AcDbEntity
  8
Visible (ANSI)
100
AcDbVertex
100
AcDb2dVertex
 10
125.4896075486448
 20
88.03909047115906
 30
0.0
  0
SEQEND
  5
240
330
23D
100
AcDbEntity
  8
Visible (ANSI)
  0
POLYLINE
  5
258
330
6C
100
AcDbEntity
  8
Visible (ANSI)
100
AcDb2dPolyline
 66
     1
 10
0.0
 20
0.0
 30
0.0
 70
   128
  0
VERTEX
  5
259
330
258
100
AcDbEntity
  8
Visible (ANSI)
100
AcDbVertex
100
AcDb2dVertex
 10
125.4896075486448
 20
32.46586540286397
 30
0.0
  0
VERTEX
  5
25A
330
258
100
AcDbEntity
  8
Visible (ANSI)
100
AcDbVertex
100
AcDb2dVertex
 10
125.4793883102983
 20
32.46348464316671
 30
0.0
  0
VERTEX
  5
25C
330
258
100
AcDbEntity
  8
Visible (ANSI)
100
AcDbVertex
100
AcDb2dVertex
 10
125.4692128316463
 20
32.46110388346945
 30
0.0
  0
VERTEX
  5
25D
330
258
100
AcDbEntity
  8
Visible (ANSI)
100
AcDbVertex
100
AcDb2dVertex
 10
125.4591246863021
 20
32.45872312377219
 30
0.0
  0
VERTEX
  5
25E
330
258
100
AcDbEntity
  8
Visible (ANSI)
100
AcDbVertex
100
AcDb2dVertex
 10
125.44916707315
 20
32.45634236407493
 30
0.0
  0
VERTEX
  5
25F
330
258
100
AcDbEntity
  8
Visible (ANSI)
100
AcDbVertex
100
AcDb2dVertex
 10
125.4393826333806
 20
32.45396158091127
 30
0.0
  0
VERTEX
  5
260
330
258
100
AcDbEntity
  8
Visible (ANSI)
100
AcDbVertex
100
AcDb2dVertex
 10
125.4298132631268
 20
32.45158082121401
 30
0.0
  0
VERTEX
  5
261
330
258
100
AcDbEntity
  8
Visible (ANSI)
100
AcDbVertex
100
AcDb2dVertex
 10
125.4204999405818
 20
32.44920006151675
 30
0.0
  0
VERTEX
  5
262
330
258
100
AcDbEntity
  8
Visible (ANSI)
100
AcDbVertex
100
AcDb2dVertex
 10
125.4114825498181
 20
32.44681930181949
 30
0.0
  0
VERTEX
  5
263
330
258
100
AcDbEntity
  8
Visible (ANSI)
100
AcDbVertex
100
AcDb2dVertex
 10
125.4027997018564
 20
32.44443853038903
 30
0.0
  0
VERTEX
  5
264
330
258
100
AcDbEntity
  8
Visible (ANSI)
100
AcDbVertex
100
AcDb2dVertex
 10
125.394488573334
 20
32.44205777069177
 30
0.0
  0
VERTEX
  5
265
330
258
100
AcDbEntity
  8
Visible (ANSI)
100
AcDbVertex
100
AcDb2dVertex
 10
125.3865847627728
 20
32.43967701099451
 30
0.0
  0
VERTEX
  5
266
330
258
100
AcDbEntity
  8
Visible (ANSI)
100
AcDbVertex
100
AcDb2dVertex
 10
125.3791221145819
 20
32.43729623956405
 30
0.0
  0
VERTEX
  5
267
330
258
100
AcDbEntity
  8
Visible (ANSI)
100
AcDbVertex
100
AcDb2dVertex
 10
125.372132578259
 20
32.43491547986679
 30
0.0
  0
VERTEX
  5
268
330
258
100
AcDbEntity
  8
Visible (ANSI)
100
AcDbVertex
100
AcDb2dVertex
 10
125.3656460910581
 20
32.43253470843633
 30
0.0
  0
VERTEX
  5
269
330
258
100
AcDbEntity
  8
Visible (ANSI)
100
AcDbVertex
100
AcDb2dVertex
 10
125.3596904254585
 20
32.43015394873907
 30
0.0
  0
VERTEX
  5
26A
330
258
100
AcDbEntity
  8
Visible (ANSI)
100
AcDbVertex
100
AcDb2dVertex
 10
125.3542910776989
 20
32.42777317730862
 30
0.0
  0
VERTEX
  5
26B
330
258
100
AcDbEntity
  8
Visible (ANSI)
100
AcDbVertex
100
AcDb2dVertex
 10
125.3494711856453
 20
32.42539241761135
 30
0.0
  0
VERTEX
  5
26C
330
258
100
AcDbEntity
  8
Visible (ANSI)
100
AcDbVertex
100
AcDb2dVertex
 10
125.3452513762596
 20
32.42301165791409
 30
0.0
  0
VERTEX
  5
26D
330
258
100
AcDbEntity
  8
Visible (ANSI)
100
AcDbVertex
100
AcDb2dVertex
 10
125.3416497186662
 20
32.42063088648363
 30
0.0
  0
VERTEX
  5
26E
330
258
100
AcDbEntity
  8
Visible (ANSI)
100
AcDbVertex
100
AcDb2dVertex
 10
125.3386816420204
 20
32.41825012678637
 30
0.0
  0
VERTEX
  5
26F
330
258
100
AcDbEntity
  8
Visible (ANSI)
100
AcDbVertex
100
AcDb2dVertex
 10
125.3363598533752
 20
32.41586935535591
 30
0.0
  0
VERTEX
  5
270
330
258
100
AcDbEntity
  8
Visible (ANSI)
100
AcDbVertex
100
AcDb2dVertex
 10
125.3346942907493
 20
32.41348859565865
 30
0.0
  0
VERTEX
  5
271
330
258
100
AcDbEntity
  8
Visible (ANSI)
100
AcDbVertex
100
AcDb2dVertex
 10
125.3336920879268
 20
32.41110783596139
 30
0.0
  0
VERTEX
  5
272
330
258
100
AcDbEntity
  8
Visible (ANSI)
100
AcDbVertex
100
AcDb2dVertex
 10
125.3333575509914
 20
32.40872706453093
 30
0.0
  0
SEQEND
  5
25B
330
258
100
AcDbEntity
  8
Visible (ANSI)
  0
LINE
  5
273
330
6C
100
AcDbEntity
  8
Visible (ANSI)
100
AcDbLine
 10
126.2083575491141
 20
32.46586541452592
 30
0.0
 11
125.4896075491141
 21
32.46586541452591
 31
0.0
  0
POLYLINE
  5
274
330
6C
100
AcDbEntity
  8
Visible (ANSI)
100
AcDb2dPolyline
 66
     1
 10
0.0
 20
0.0
 30
0.0
 70
   128
  0
VERTEX
  5
275
330
274
100
AcDbEntity
  8
Visible (ANSI)
100
AcDbVertex
100
AcDb2dVertex
 10
125.4583575491141
 20
32.40872706453093
 30
0.0
  0
VERTEX
  5
276
330
274
100
AcDbEntity
  8
Visible (ANSI)
100
AcDbVertex
100
AcDb2dVertex
 10
125.4584244577604
 20
32.41110783596139
 30
0.0
  0
VERTEX
  5
278
330
274
100
AcDbEntity
  8
Visible (ANSI)
100
AcDbVertex
100
AcDb2dVertex
 10
125.4586248971986
 20
32.41348859565865
 30
0.0
  0
VERTEX
  5
279
330
274
100
AcDbEntity
  8
Visible (ANSI)
100
AcDbVertex
100
AcDb2dVertex
 10
125.4589580091233
 20
32.41586935535591
 30
0.0
  0
VERTEX
  5
27A
330
274
100
AcDbEntity
  8
Visible (ANSI)
100
AcDbVertex
100
AcDb2dVertex
 10
125.4594223670632
 20
32.41825012678637
 30
0.0
  0
VERTEX
  5
27B
330
274
100
AcDbEntity
  8
Visible (ANSI)
100
AcDbVertex
100
AcDb2dVertex
 10
125.460015982539
 20
32.42063088648363
 30
0.0
  0
VERTEX
  5
27C
330
274
100
AcDbEntity
  8
Visible (ANSI)
100
AcDbVertex
100
AcDb2dVertex
 10
125.4607363138011
 20
32.42301165791409
 30
0.0
  0
VERTEX
  5
27D
330
274
100
AcDbEntity
  8
Visible (ANSI)
100
AcDbVertex
100
AcDb2dVertex
 10
125.4615802761182
 20
32.42539241761135
 30
0.0
  0
VERTEX
  5
27E
330
274
100
AcDbEntity
  8
Visible (ANSI)
100
AcDbVertex
100
AcDb2dVertex
 10
125.4625442551156
 20
32.42777317730862
 30
0.0
  0
VERTEX
  5
27F
330
274
100
AcDbEntity
  8
Visible (ANSI)
100
AcDbVertex
100
AcDb2dVertex
 10
125.4636241236408
 20
32.43015394873907
 30
0.0
  0
VERTEX
  5
280
330
274
100
AcDbEntity
  8
Visible (ANSI)
100
AcDbVertex
100
AcDb2dVertex
 10
125.4648152569807
 20
32.43253470843633
 30
0.0
  0
VERTEX
  5
281
330
274
100
AcDbEntity
  8
Visible (ANSI)
100
AcDbVertex
100
AcDb2dVertex
 10
125.4661125548609
 20
32.43491547986679
 30
0.0
  0
VERTEX
  5
282
330
274
100
AcDbEntity
  8
Visible (ANSI)
100
AcDbVertex
100
AcDb2dVertex
 10
125.4675104619789
 20
32.43729623956405
 30
0.0
  0
VERTEX
  5
283
330
274
100
AcDbEntity
  8
Visible (ANSI)
100
AcDbVertex
100
AcDb2dVertex
 10
125.4690029922037
 20
32.43967701099451
 30
0.0
  0
VERTEX
  5
284
330
274
100
AcDbEntity
  8
Visible (ANSI)
100
AcDbVertex
100
AcDb2dVertex
 10
125.4705837546092
 20
32.44205777069177
 30
0.0
  0
VERTEX
  5
285
330
274
100
AcDbEntity
  8
Visible (ANSI)
100
AcDbVertex
100
AcDb2dVertex
 10
125.4722459798737
 20
32.44443853038903
 30
0.0
  0
VERTEX
  5
286
330
274
100
AcDbEntity
  8
Visible (ANSI)
100
AcDbVertex
100
AcDb2dVertex
 10
125.4739825488794
 20
32.44681930181949
 30
0.0
  0
VERTEX
  5
287
330
274
100
AcDbEntity
  8
Visible (ANSI)
100
AcDbVertex
100
AcDb2dVertex
 10
125.4757860279121
 20
32.44920006151675
 30
0.0
  0
VERTEX
  5
288
330
274
100
AcDbEntity
  8
Visible (ANSI)
100
AcDbVertex
100
AcDb2dVertex
 10
125.4776486921278
 20
32.45158082121401
 30
0.0
  0
VERTEX
  5
289
330
274
100
AcDbEntity
  8
Visible (ANSI)
100
AcDbVertex
100
AcDb2dVertex
 10
125.4795625658853
 20
32.45396158091127
 30
0.0
  0
VERTEX
  5
28A
330
274
100
AcDbEntity
  8
Visible (ANSI)
100
AcDbVertex
100
AcDb2dVertex
 10
125.4815194535458
 20
32.45634236407493
 30
0.0
  0
VERTEX
  5
28B
330
274
100
AcDbEntity
  8
Visible (ANSI)
100
AcDbVertex
100
AcDb2dVertex
 10
125.4835109761395
 20
32.45872312377219
 30
0.0
  0
VERTEX
  5
28C
330
274
100
AcDbEntity
  8
Visible (ANSI)
100
AcDbVertex
100
AcDb2dVertex
 10
125.4855286050984
 20
32.46110388346945
 30
0.0
  0
VERTEX
  5
28D
330
274
100
AcDbEntity
  8
Visible (ANSI)
100
AcDbVertex
100
AcDb2dVertex
 10
125.4875637018554
 20
32.46348464316671
 30
0.0
  0
VERTEX
  5
28E
330
274
100
AcDbEntity
  8
Visible (ANSI)
100
AcDbVertex
100
AcDb2dVertex
 10
125.4896075486447
 20
32.46586540286397
 30
0.0
  0
SEQEND
  5
277
330
274
100
AcDbEntity
  8
Visible (ANSI)
  0
POLYLINE
  5
28F
330
6C
100
AcDbEntity
  8
Visible (ANSI)
100
AcDb2dPolyline
 66
     1
 10
0.0
 20
0.0
 30
0.0
 70
   128
  0
VERTEX
  5
290
330
28F
100
AcDbEntity
  8
Visible (ANSI)
100
AcDbVertex
100
AcDb2dVertex
 10
125.4583575491141
 20
88.09622682658169
 30
0.0
  0
VERTEX
  5
291
330
28F
100
AcDbEntity
  8
Visible (ANSI)
100
AcDbVertex
100
AcDb2dVertex
 10
125.4584244577604
 20
88.09384789726328
 30
0.0
  0
VERTEX
  5
293
330
28F
100
AcDbEntity
  8
Visible (ANSI)
100
AcDbVertex
100
AcDb2dVertex
 10
125.4586248971986
 20
88.09146296054759
 30
0.0
  0
VERTEX
  5
294
330
28F
100
AcDbEntity
  8
Visible (ANSI)
100
AcDbVertex
100
AcDb2dVertex
 10
125.4589580091233
 20
88.08908403122918
 30
0.0
  0
VERTEX
  5
295
330
28F
100
AcDbEntity
  8
Visible (ANSI)
100
AcDbVertex
100
AcDb2dVertex
 10
125.4594223670632
 20
88.08670510191078
 30
0.0
  0
VERTEX
  5
296
330
28F
100
AcDbEntity
  8
Visible (ANSI)
100
AcDbVertex
100
AcDb2dVertex
 10
125.460015982539
 20
88.08432617259237
 30
0.0
  0
VERTEX
  5
297
330
28F
100
AcDbEntity
  8
Visible (ANSI)
100
AcDbVertex
100
AcDb2dVertex
 10
125.4607363138011
 20
88.08194123587671
 30
0.0
  0
VERTEX
  5
298
330
28F
100
AcDbEntity
  8
Visible (ANSI)
100
AcDbVertex
100
AcDb2dVertex
 10
125.4615802761182
 20
88.07956230655831
 30
0.0
  0
VERTEX
  5
299
330
28F
100
AcDbEntity
  8
Visible (ANSI)
100
AcDbVertex
100
AcDb2dVertex
 10
125.4625442551156
 20
88.07718337723988
 30
0.0
  0
VERTEX
  5
29A
330
28F
100
AcDbEntity
  8
Visible (ANSI)
100
AcDbVertex
100
AcDb2dVertex
 10
125.4636241236408
 20
88.07479844052421
 30
0.0
  0
VERTEX
  5
29B
330
28F
100
AcDbEntity
  8
Visible (ANSI)
100
AcDbVertex
100
AcDb2dVertex
 10
125.4648152569807
 20
88.0724195112058
 30
0.0
  0
VERTEX
  5
29C
330
28F
100
AcDbEntity
  8
Visible (ANSI)
100
AcDbVertex
100
AcDb2dVertex
 10
125.4661125548609
 20
88.0700405818874
 30
0.0
  0
VERTEX
  5
29D
330
28F
100
AcDbEntity
  8
Visible (ANSI)
100
AcDbVertex
100
AcDb2dVertex
 10
125.4675104619789
 20
88.06765564517172
 30
0.0
  0
VERTEX
  5
29E
330
28F
100
AcDbEntity
  8
Visible (ANSI)
100
AcDbVertex
100
AcDb2dVertex
 10
125.4690029922037
 20
88.06527671585334
 30
0.0
  0
VERTEX
  5
29F
330
28F
100
AcDbEntity
  8
Visible (ANSI)
100
AcDbVertex
100
AcDb2dVertex
 10
125.4705837546092
 20
88.06289778653491
 30
0.0
  0
VERTEX
  5
2A0
330
28F
100
AcDbEntity
  8
Visible (ANSI)
100
AcDbVertex
100
AcDb2dVertex
 10
125.4722459798737
 20
88.06051284981924
 30
0.0
  0
VERTEX
  5
2A1
330
28F
100
AcDbEntity
  8
Visible (ANSI)
100
AcDbVertex
100
AcDb2dVertex
 10
125.4739825488794
 20
88.05813392050085
 30
0.0
  0
VERTEX
  5
2A2
330
28F
100
AcDbEntity
  8
Visible (ANSI)
100
AcDbVertex
100
AcDb2dVertex
 10
125.4757860279121
 20
88.05575499118244
 30
0.0
  0
VERTEX
  5
2A3
330
28F
100
AcDbEntity
  8
Visible (ANSI)
100
AcDbVertex
100
AcDb2dVertex
 10
125.4776486921278
 20
88.05337606186403
 30
0.0
  0
VERTEX
  5
2A4
330
28F
100
AcDbEntity
  8
Visible (ANSI)
100
AcDbVertex
100
AcDb2dVertex
 10
125.4795625658853
 20
88.05099112514836
 30
0.0
  0
VERTEX
  5
2A5
330
28F
100
AcDbEntity
  8
Visible (ANSI)
100
AcDbVertex
100
AcDb2dVertex
 10
125.4815194535458
 20
88.04861219582994
 30
0.0
  0
VERTEX
  5
2A6
330
28F
100
AcDbEntity
  8
Visible (ANSI)
100
AcDbVertex
100
AcDb2dVertex
 10
125.4835109761395
 20
88.04623326651153
 30
0.0
  0
VERTEX
  5
2A7
330
28F
100
AcDbEntity
  8
Visible (ANSI)
100
AcDbVertex
100
AcDb2dVertex
 10
125.4855286050984
 20
88.04384832979588
 30
0.0
  0
VERTEX
  5
2A8
330
28F
100
AcDbEntity
  8
Visible (ANSI)
100
AcDbVertex
100
AcDb2dVertex
 10
125.4875637018554
 20
88.04146940047747
 30
0.0
  0
VERTEX
  5
2A9
330
28F
100
AcDbEntity
  8
Visible (ANSI)
100
AcDbVertex
100
AcDb2dVertex
 10
125.4896075486447
 20
88.03909047115906
 30
0.0
  0
SEQEND
  5
292
330
28F
100
AcDbEntity
  8
Visible (ANSI)
  0
LINE
  5
2AA
330
6C
100
AcDbEntity
  8
Visible (ANSI)
100
AcDbLine
 10
125.4583575491141
 20
88.09622706687758
 30
0.0
 11
125.4532321472407
 21
88.09622706687754
 31
0.0
  0
LINE
  5
2AB
330
6C
100
AcDbEntity
  8
Visible (ANSI)
100
AcDbLine
 10
125.4532321472407
 20
88.09622706687754
 30
0.0
 11
125.333357549114
 21
88.09622706687758
 31
0.0
  0
LINE
  5
2AC
330
6C
100
AcDbEntity
  8
Visible (ANSI)
100
AcDbLine
 10
125.4896075491141
 20
88.03908871922924
 30
0.0
 11
126.2083575491141
 21
88.03908871922924
 31
0.0
  0
POLYLINE
  5
2AD
330
6C
100
AcDbEntity
  8
Visible (ANSI)
100
AcDb2dPolyline
 66
     1
 10
0.0
 20
0.0
 30
0.0
 70
   128
  0
VERTEX
  5
2AE
330
2AD
100
AcDbEntity
  8
Visible (ANSI)
100
AcDbVertex
100
AcDb2dVertex
 10
125.4896075486447
 20
88.25247922954059
 30
0.0
  0
VERTEX
  5
2AF
330
2AD
100
AcDbEntity
  8
Visible (ANSI)
100
AcDbVertex
100
AcDb2dVertex
 10
125.4793883102982
 20
88.25214281529353
 30
0.0
  0
VERTEX
  5
2B1
330
2AD
100
AcDbEntity
  8
Visible (ANSI)
100
AcDbVertex
100
AcDb2dVertex
 10
125.4692128316462
 20
88.25113957994966
 30
0.0
  0
VERTEX
  5
2B2
330
2AD
100
AcDbEntity
  8
Visible (ANSI)
100
AcDbVertex
100
AcDb2dVertex
 10
125.459124686302
 20
88.24947553090623
 30
0.0
  0
VERTEX
  5
2B3
330
2AD
100
AcDbEntity
  8
Visible (ANSI)
100
AcDbVertex
100
AcDb2dVertex
 10
125.4491670731499
 20
88.24715066816324
 30
0.0
  0
VERTEX
  5
2B4
330
2AD
100
AcDbEntity
  8
Visible (ANSI)
100
AcDbVertex
100
AcDb2dVertex
 10
125.4393826333806
 20
88.24418301391252
 30
0.0
  0
VERTEX
  5
2B5
330
2AD
100
AcDbEntity
  8
Visible (ANSI)
100
AcDbVertex
100
AcDb2dVertex
 10
125.4298132631268
 20
88.24058458294855
 30
0.0
  0
VERTEX
  5
2B6
330
2AD
100
AcDbEntity
  8
Visible (ANSI)
100
AcDbVertex
100
AcDb2dVertex
 10
125.4204999405817
 20
88.23636138266866
 30
0.0
  0
VERTEX
  5
2B7
330
2AD
100
AcDbEntity
  8
Visible (ANSI)
100
AcDbVertex
100
AcDb2dVertex
 10
125.4114825498181
 20
88.23154345005915
 30
0.0
  0
VERTEX
  5
2B8
330
2AD
100
AcDbEntity
  8
Visible (ANSI)
100
AcDbVertex
100
AcDb2dVertex
 10
125.4027997018564
 20
88.2261427999146
 30
0.0
  0
VERTEX
  5
2B9
330
2AD
100
AcDbEntity
  8
Visible (ANSI)
100
AcDbVertex
100
AcDb2dVertex
 10
125.3944885733339
 20
88.22018946922131
 30
0.0
  0
VERTEX
  5
2BA
330
2AD
100
AcDbEntity
  8
Visible (ANSI)
100
AcDbVertex
100
AcDb2dVertex
 10
125.3865847627728
 20
88.21370148017111
 30
0.0
  0
VERTEX
  5
2BB
330
2AD
100
AcDbEntity
  8
Visible (ANSI)
100
AcDbVertex
100
AcDb2dVertex
 10
125.3791221145819
 20
88.20671487714763
 30
0.0
  0
VERTEX
  5
2BC
330
2AD
100
AcDbEntity
  8
Visible (ANSI)
100
AcDbVertex
100
AcDb2dVertex
 10
125.372132578259
 20
88.19924768234264
 30
0.0
  0
VERTEX
  5
2BD
330
2AD
100
AcDbEntity
  8
Visible (ANSI)
100
AcDbVertex
100
AcDb2dVertex
 10
125.3656460910581
 20
88.19134795493427
 30
0.0
  0
VERTEX
  5
2BE
330
2AD
100
AcDbEntity
  8
Visible (ANSI)
100
AcDbVertex
100
AcDb2dVertex
 10
125.3596904254584
 20
88.1830337171144
 30
0.0
  0
VERTEX
  5
2BF
330
2AD
100
AcDbEntity
  8
Visible (ANSI)
100
AcDbVertex
100
AcDb2dVertex
 10
125.3542910776988
 20
88.17435302806114
 30
0.0
  0
VERTEX
  5
2C0
330
2AD
100
AcDbEntity
  8
Visible (ANSI)
100
AcDbVertex
100
AcDb2dVertex
 10
125.3494711856453
 20
88.16533592476082
 30
0.0
  0
VERTEX
  5
2C1
330
2AD
100
AcDbEntity
  8
Visible (ANSI)
100
AcDbVertex
100
AcDb2dVertex
 10
125.3452513762596
 20
88.15601845159704
 30
0.0
  0
VERTEX
  5
2C2
330
2AD
100
AcDbEntity
  8
Visible (ANSI)
100
AcDbVertex
100
AcDb2dVertex
 10
125.3416497186662
 20
88.14645467514528
 30
0.0
  0
VERTEX
  5
2C3
330
2AD
100
AcDbEntity
  8
Visible (ANSI)
100
AcDbVertex
100
AcDb2dVertex
 10
125.3386816420204
 20
88.13666862499458
 30
0.0
  0
VERTEX
  5
2C4
330
2AD
100
AcDbEntity
  8
Visible (ANSI)
100
AcDbVertex
100
AcDb2dVertex
 10
125.3363598533752
 20
88.12670836032307
 30
0.0
  0
VERTEX
  5
2C5
330
2AD
100
AcDbEntity
  8
Visible (ANSI)
100
AcDbVertex
100
AcDb2dVertex
 10
125.3346942907493
 20
88.11662194030892
 30
0.0
  0
VERTEX
  5
2C6
330
2AD
100
AcDbEntity
  8
Visible (ANSI)
100
AcDbVertex
100
AcDb2dVertex
 10
125.3336920879268
 20
88.10644540933573
 30
0.0
  0
VERTEX
  5
2C7
330
2AD
100
AcDbEntity
  8
Visible (ANSI)
100
AcDbVertex
100
AcDb2dVertex
 10
125.3333575509914
 20
88.09622682658169
 30
0.0
  0
SEQEND
  5
2B0
330
2AD
100
AcDbEntity
  8
Visible (ANSI)
  0
LINE
  5
2C8
330
6C
100
AcDbEntity
  8
Visible (ANSI)
100
AcDbLine
 10
125.4896075491141
 20
88.12747706687757
 30
0.0
 11
126.2083575491141
 21
88.12747706687753
 31
0.0
  0
LINE
  5
2C9
330
6C
100
AcDbEntity
  8
Visible (ANSI)
100
AcDbLine
 10
126.2083575491141
 20
88.25247706687754
 30
0.0
 11
125.4896075491141
 21
88.25247706687759
 31
0.0
  0
LINE
  5
2CA
330
6C
100
AcDbEntity
  8
Visible (ANSI)
100
AcDbLine
 10
125.4896075491141
 20
88.12747706687757
 30
0.0
 11
125.4896075491141
 21
88.25247706687759
 31
0.0
  0
LINE
  5
2CB
330
6C
100
AcDbEntity
  8
Visible (ANSI)
100
AcDbLine
 10
126.2083575491141
 20
88.12747706687753
 30
0.0
 11
126.2083575491141
 21
88.25247706687754
 31
0.0
  0
POLYLINE
  5
2CC
330
6C
100
AcDbEntity
  8
Visible (ANSI)
100
AcDb2dPolyline
 66
     1
 10
0.0
 20
0.0
 30
0.0
 70
   128
  0
VERTEX
  5
2CD
330
2CC
100
AcDbEntity
  8
Visible (ANSI)
100
AcDbVertex
100
AcDb2dVertex
 10
125.4583575491141
 20
88.09622682658169
 30
0.0
  0
VERTEX
  5
2CE
330
2CC
100
AcDbEntity
  8
Visible (ANSI)
100
AcDbVertex
100
AcDb2dVertex
 10
125.4584244577604
 20
88.09826934165304
 30
0.0
  0
VERTEX
  5
2D0
330
2CC
100
AcDbEntity
  8
Visible (ANSI)
100
AcDbVertex
100
AcDb2dVertex
 10
125.4586248971986
 20
88.10030584932711
 30
0.0
  0
VERTEX
  5
2D1
330
2CC
100
AcDbEntity
  8
Visible (ANSI)
100
AcDbVertex
100
AcDb2dVertex
 10
125.4589580091233
 20
88.1023243348094
 30
0.0
  0
VERTEX
  5
2D2
330
2CC
100
AcDbEntity
  8
Visible (ANSI)
100
AcDbVertex
100
AcDb2dVertex
 10
125.4594223670632
 20
88.10431278330534
 30
0.0
  0
VERTEX
  5
2D3
330
2CC
100
AcDbEntity
  8
Visible (ANSI)
100
AcDbVertex
100
AcDb2dVertex
 10
125.460015982539
 20
88.10627119481495
 30
0.0
  0
VERTEX
  5
2D4
330
2CC
100
AcDbEntity
  8
Visible (ANSI)
100
AcDbVertex
100
AcDb2dVertex
 10
125.460736313801
 20
88.10818755454366
 30
0.0
  0
VERTEX
  5
2D5
330
2CC
100
AcDbEntity
  8
Visible (ANSI)
100
AcDbVertex
100
AcDb2dVertex
 10
125.4615802761182
 20
88.11004984769695
 30
0.0
  0
VERTEX
  5
2D6
330
2CC
100
AcDbEntity
  8
Visible (ANSI)
100
AcDbVertex
100
AcDb2dVertex
 10
125.4625442551155
 20
88.11185206687756
 30
0.0
  0
VERTEX
  5
2D7
330
2CC
100
AcDbEntity
  8
Visible (ANSI)
100
AcDbVertex
100
AcDb2dVertex
 10
125.4636241236408
 20
88.11358820468822
 30
0.0
  0
VERTEX
  5
2D8
330
2CC
100
AcDbEntity
  8
Visible (ANSI)
100
AcDbVertex
100
AcDb2dVertex
 10
125.4648152569807
 20
88.11525225373165
 30
0.0
  0
VERTEX
  5
2D9
330
2CC
100
AcDbEntity
  8
Visible (ANSI)
100
AcDbVertex
100
AcDb2dVertex
 10
125.4661125548609
 20
88.11683219921333
 30
0.0
  0
VERTEX
  5
2DA
330
2CC
100
AcDbEntity
  8
Visible (ANSI)
100
AcDbVertex
100
AcDb2dVertex
 10
125.4675104619788
 20
88.11832203373596
 30
0.0
  0
VERTEX
  5
2DB
330
2CC
100
AcDbEntity
  8
Visible (ANSI)
100
AcDbVertex
100
AcDb2dVertex
 10
125.4690029922037
 20
88.11972175729957
 30
0.0
  0
VERTEX
  5
2DC
330
2CC
100
AcDbEntity
  8
Visible (ANSI)
100
AcDbVertex
100
AcDb2dVertex
 10
125.4705837546092
 20
88.12101935510959
 30
0.0
  0
VERTEX
  5
2DD
330
2CC
100
AcDbEntity
  8
Visible (ANSI)
100
AcDbVertex
100
AcDb2dVertex
 10
125.4722459798737
 20
88.1222088197688
 30
0.0
  0
VERTEX
  5
2DE
330
2CC
100
AcDbEntity
  8
Visible (ANSI)
100
AcDbVertex
100
AcDb2dVertex
 10
125.4739825488794
 20
88.12329015127717
 30
0.0
  0
VERTEX
  5
2DF
330
2CC
100
AcDbEntity
  8
Visible (ANSI)
100
AcDbVertex
100
AcDb2dVertex
 10
125.4757860279121
 20
88.12425734223742
 30
0.0
  0
VERTEX
  5
2E0
330
2CC
100
AcDbEntity
  8
Visible (ANSI)
100
AcDbVertex
100
AcDb2dVertex
 10
125.4776486921278
 20
88.12509837785505
 30
0.0
  0
VERTEX
  5
2E1
330
2CC
100
AcDbEntity
  8
Visible (ANSI)
100
AcDbVertex
100
AcDb2dVertex
 10
125.4795625658852
 20
88.12581926552729
 30
0.0
  0
VERTEX
  5
2E2
330
2CC
100
AcDbEntity
  8
Visible (ANSI)
100
AcDbVertex
100
AcDb2dVertex
 10
125.4815194535458
 20
88.1264139978569
 30
0.0
  0
VERTEX
  5
2E3
330
2CC
100
AcDbEntity
  8
Visible (ANSI)
100
AcDbVertex
100
AcDb2dVertex
 10
125.4835109761395
 20
88.12687656744659
 30
0.0
  0
VERTEX
  5
2E4
330
2CC
100
AcDbEntity
  8
Visible (ANSI)
100
AcDbVertex
100
AcDb2dVertex
 10
125.4855286050984
 20
88.12720697429638
 30
0.0
  0
VERTEX
  5
2E5
330
2CC
100
AcDbEntity
  8
Visible (ANSI)
100
AcDbVertex
100
AcDb2dVertex
 10
125.4875637018554
 20
88.1274112258035
 30
0.0
  0
VERTEX
  5
2E6
330
2CC
100
AcDbEntity
  8
Visible (ANSI)
100
AcDbVertex
100
AcDb2dVertex
 10
125.4896075486447
 20
88.12747730717346
 30
0.0
  0
SEQEND
  5
2CF
330
2CC
100
AcDbEntity
  8
Visible (ANSI)
  0
LINE
  5
2E7
330
6C
100
AcDbEntity
  8
Visible (ANSI)
100
AcDbLine
 10
125.333357549114
 20
32.40872706687759
 30
0.0
 11
125.333357549114
 21
88.09622706687756
 31
0.0
  0
LINE
  5
2E8
330
6C
100
AcDbEntity
  8
Visible (ANSI)
100
AcDbLine
 10
126.2083575491141
 20
88.03908871922924
 30
0.0
 11
126.2083575491141
 21
32.46586541452591
 31
0.0
  0
DIMENSION
  5
2E9
330
6C
100
AcDbEntity
  8
Dimension (ANSI)
100
AcDbDimension
280
     0
  2
*D4
 10
14.53883465405944
 20
88.25247706687759
 30
0.0
 11
14.53883465405943
 21
60.25247706687757
 31
0.0
 70
   160
  1
<>
 42
56.00000000000003
 73
     0
 74
     0
 75
     0
  3
Default (ANSI)
100
AcDbAlignedDimension
 13
34.46009449657911
 23
32.25247706687757
 33
0.0
 14
34.46009449657911
 24
88.25247706687759
 34
0.0
 50
90.0
100
AcDbRotatedDimension
1001
ACAD
1000
DSTYLE
1002
{
1070
   289
1070
     1
1070
   271
1070
     2
1070
   272
1070
     2
1070
    48
1040
0.0
1070
    47
1040
0.0
1002
}
  0
DIMENSION
  5
3D6
330
6C
100
AcDbEntity
  8
Dimension (ANSI)
100
AcDbDimension
280
     0
  2
*D5
 10
29.84617921363348
 20
60.25247706687759
 30
0.0
 11
29.84617921363346
 21
46.68997706687759
 31
0.0
 70
   160
  1
<>
 42
27.12499999999999
 73
     0
 74
     0
 75
     0
  3
Default (ANSI)
100
AcDbAlignedDimension
 13
35.12170614893078
 23
33.1274770668776
 33
0.0
 14
35.12170614893078
 24
60.25247706687759
 34
0.0
 50
90.0
100
AcDbRotatedDimension
1001
ACAD
1000
DSTYLE
1002
{
1070
   289
1070
     1
1070
   271
1070
     2
1070
   272
1070
     3
1070
    48
1040
0.0
1070
    47
1040
0.0
1002
}
  0
DIMENSION
  5
4C0
330
6C
100
AcDbEntity
  8
Dimension (ANSI)
100
AcDbDimension
280
     0
  2
*D6
 10
22.9957218969623
 20
87.37747706687761
 30
0.0
 11
22.99572189696228
 21
60.25247706687759
 31
0.0
 70
   160
  1
<>
 42
54.25000000000001
 73
     0
 74
     0
 75
     0
  3
Default (ANSI)
100
AcDbAlignedDimension
 13
35.12170614893078
 23
33.1274770668776
 33
0.0
 14
35.12170614893078
 24
87.37747706687761
 34
0.0
 50
90.0
100
AcDbRotatedDimension
1001
ACAD
1000
DSTYLE
1002
{
1070
   289
1070
     1
1070
   271
1070
     2
1070
   272
1070
     3
1070
    48
1040
0.0
1070
    47
1040
0.0
1002
}
  0
DIMENSION
  5
5AA
330
6C
100
AcDbEntity
  8
Dimension (ANSI)
100
AcDbDimension
280
     0
  2
*D7
 10
90.24670614893073
 20
100.1650729711977
 30
0.0
 11
62.24670614893076
 21
100.1650729711977
 31
0.0
 70
   160
  1
<>
 42
55.99999999999994
 73
     0
 74
     0
 75
     0
  3
Default (ANSI)
100
AcDbAlignedDimension
 13
34.24670614893079
 23
88.03908871922926
 33
0.0
 14
90.24670614893073
 24
88.03908871922924
 34
0.0
100
AcDbRotatedDimension
1001
ACAD
1000
DSTYLE
1002
{
1070
   289
1070
     1
1070
    73
1070
     0
1070
    74
1070
     0
1070
   271
1070
     2
1070
   272
1070
     2
1070
    48
1040
0.0
1070
    47
1040
0.0
1002
}
  0
DIMENSION
  5
694
330
6C
100
AcDbEntity
  8
Dimension (ANSI)
100
AcDbDimension
280
     0
  2
*D8
 10
89.37170614893078
 20
95.99319760429585
 30
0.0
 11
62.24670614893078
 21
95.99319760429585
 31
0.0
 70
   160
  1
<>
 42
54.25
 73
     0
 74
     0
 75
     0
  3
Default (ANSI)
100
AcDbAlignedDimension
 13
35.12170614893078
 23
87.37747706687761
 33
0.0
 14
89.37170614893078
 24
87.37747706687761
 34
0.0
 50
180.0
100
AcDbRotatedDimension
1001
ACAD
1000
DSTYLE
1002
{
1070
   289
1070
     1
1070
    73
1070
     0
1070
    74
1070
     0
1070
   271
1070
     2
1070
   272
1070
     3
1070
    48
1040
0.0
1070
    47
1040
0.0
1002
}
  0
DIMENSION
  5
77E
330
6C
100
AcDbEntity
  8
Dimension (ANSI)
100
AcDbDimension
280
     0
  2
*D9
 10
62.24670614893078
 20
91.28266528001196
 30
0.0
 11
48.68420614893079
 21
91.28266528001196
 31
0.0
 70
   160
  1
<>
 42
27.125
 73
     0
 74
     0
 75
     0
  3
Default (ANSI)
100
AcDbAlignedDimension
 13
35.12170614893078
 23
87.37747706687761
 33
0.0
 14
62.24670614893078
 24
87.37747706687761
 34
0.0
 50
180.0
100
AcDbRotatedDimension
1001
ACAD
1000
DSTYLE
1002
{
1070
   289
1070
     1
1070
    73
1070
     0
1070
    74
1070
     0
1070
   271
1070
     2
1070
   272
1070
     3
1070
    48
1040
0.0
1070
    47
1040
0.0
1002
}
  0
DIMENSION
  5
868
330
6C
100
AcDbEntity
  8
Dimension (ANSI)
100
AcDbDimension
280
     0
  2
*D10
 10
97.91722336490947
 20
33.12747706687757
 30
0.0
 11
97.99798237773023
 21
28.06282647460496
 31
0.0
 70
   160
  1
<>{ \PTYP.}
 42
0.8749999999999928
 73
     0
 74
     0
 75
     0
  3
Default (ANSI)
100
AcDbAlignedDimension
 13
90.03331780128247
 23
32.25247706687758
 33
0.0
 14
89.37170614893078
 24
33.12747706687757
 34
0.0
 50
90.0
100
AcDbRotatedDimension
1001
ACAD
1000
DSTYLE
1002
{
1070
   289
1070
     1
1070
   279
1070
     1
1070
   145
1040
-0.25
1070
   271
1070
     2
1070
   272
1070
     2
1070
    48
1040
0.0
1070
    47
1040
0.0
1002
}
  0
DIMENSION
  5
980
330
6C
100
AcDbEntity
  8
Dimension (ANSI)
100
AcDbDimension
280
     0
  2
*D11
 10
89.37170614893078
 20
29.01069360125949
 30
0.0
 11
84.50670112931859
 21
29.01069360125949
 31
0.0
 70
   160
  1
<>{\PTYP.}
 42
0.8749999999999857
 73
     0
 74
     0
 75
     0
  3
Default (ANSI)
100
AcDbAlignedDimension
 13
90.24670614893077
 23
32.4658654145259
 33
0.0
 14
89.37170614893078
 24
33.12747706687757
 34
0.0
 50
180.0
100
AcDbRotatedDimension
1001
ACAD
1000
DSTYLE
1002
{
1070
   289
1070
     1
1070
    73
1070
     0
1070
    74
1070
     0
1070
   145
1040
-0.25
1070
   271
1070
     2
1070
   272
1070
     2
1070
    48
1040
0.0
1070
    47
1040
0.0
1002
}
  0
DIMENSION
  5
A7E
330
6C
100
AcDbEntity
  8
Dimension (ANSI)
100
AcDbDimension
280
     0
  2
*D12
 10
126.2083575491141
 20
91.40208336609012
 30
0.0
 11
120.5702407092809
 21
91.40208336609012
 31
0.0
 70
   160
  1
<>
 42
0.875
 73
     0
 74
     0
 75
     0
  3
Default (ANSI)
100
AcDbAlignedDimension
 13
125.3333575491141
 23
88.09622706687756
 33
0.0
 14
126.2083575491141
 24
88.25247706687754
 34
0.0
100
AcDbRotatedDimension
1001
ACAD
1000
DSTYLE
1002
{
1070
   289
1070
     1
1070
    73
1070
     0
1070
    74
1070
     0
1070
   271
1070
     2
1070
   272
1070
     2
1070
    48
1040
0.0
1070
    47
1040
0.0
1002
}
  0
ELLIPSE
  5
B68
330
6C
100
AcDbEntity
  8
Visible (ANSI)
100
AcDbEllipse
 10
175.5958018718431
 20
51.12378915722288
 30
0.0
 11
-0.0965783276981948
 21
0.1677109756264705
 31
0.0
210
0.0
220
0.0
230
0.9999999999999998
 40
0.5780931159158128
 41
0.0
 42
6.283185307179586
  0
ELLIPSE
  5
B69
330
6C
100
AcDbEntity
  8
Visible (ANSI)
100
AcDbEllipse
 10
175.6565688608513
 20
51.15878253887692
 30
0.0
 11
-0.0965783276981957
 21
0.167710975626472
 31
0.0
210
0.0
220
0.0
230
0.9999999999999996
 40
0.5780931159158126
 41
0.3187556839588488
 42
2.822836969630836
  0
ELLIPSE
  5
B6A
330
6C
100
AcDbEntity
  8
Visible (ANSI)
100
AcDbEllipse
 10
149.2229286422721
 20
66.31091679506905
 30
0.0
 11
-0.0965783276981948
 21
0.1677109756264705
 31
0.0
210
0.0
220
0.0
230
0.9999999999999998
 40
0.5780931159158128
 41
0.0
 42
6.283185307179586
  0
ELLIPSE
  5
B6B
330
6C
100
AcDbEntity
  8
Visible (ANSI)
100
AcDbEllipse
 10
149.2836956312803
 20
66.34591017672308
 30
0.0
 11
-0.0965783276981947
 21
0.1677109756264703
 31
0.0
210
0.0
220
0.0
230
1.0
 40
0.5780931159158128
 41
0.318755683958849
 42
2.822836969630836
  0
ELLIPSE
  5
B6C
330
6C
100
AcDbEntity
  8
Visible (ANSI)
100
AcDbEllipse
 10
162.4093652570576
 20
49.09201299850761
 30
0.0
 11
-0.0965783276981948
 21
0.1677109756264705
 31
0.0
210
0.0
220
0.0
230
0.9999999999999998
 40
0.5780931159158128
 41
0.0
 42
6.283185307179586
  0
ELLIPSE
  5
B6D
330
6C
100
AcDbEntity
  8
Visible (ANSI)
100
AcDbEllipse
 10
162.4701322460658
 20
49.12700638016165
 30
0.0
 11
-0.0965783276981941
 21
0.1677109756264693
 31
0.0
210
0.0
220
0.0
230
0.9999999999999998
 40
0.5780931159158126
 41
0.3187556839588925
 42
2.822836969630836
  0
ELLIPSE
  5
B6E
330
6C
100
AcDbEntity
  8
Visible (ANSI)
100
AcDbEllipse
 10
175.5958018718431
 20
56.74442564051535
 30
0.0
 11
-0.0965783276981948
 21
0.1677109756264705
 31
0.0
210
0.0
220
0.0
230
0.9999999999999998
 40
0.5780931159158128
 41
0.0
 42
6.283185307179586
  0
ELLIPSE
  5
B6F
330
6C
100
AcDbEntity
  8
Visible (ANSI)
100
AcDbEllipse
 10
175.6565688608513
 20
56.77941902216939
 30
0.0
 11
-0.0965783276981897
 21
0.1677109756264616
 31
0.0
210
0.0
220
0.0
230
1.0
 40
0.5780931159158126
 41
0.3187556839588919
 42
2.822836969630857
  0
ELLIPSE
  5
B70
330
6C
100
AcDbEntity
  8
Visible (ANSI)
100
AcDbEllipse
 10
175.5958018718431
 20
41.49844917958454
 30
0.0
 11
-0.0965783276981948
 21
0.1677109756264705
 31
0.0
210
0.0
220
0.0
230
0.9999999999999998
 40
0.5780931159158128
 41
0.0
 42
6.283185307179586
  0
ELLIPSE
  5
B71
330
6C
100
AcDbEntity
  8
Visible (ANSI)
100
AcDbEllipse
 10
175.6565688608513
 20
41.53344256123857
 30
0.0
 11
-0.0965783276981954
 21
0.1677109756264715
 31
0.0
210
0.0
220
0.0
230
1.0
 40
0.5780931159158128
 41
0.3187556839588055
 42
2.822836969630836
  0
ELLIPSE
  5
B72
330
6C
100
AcDbEntity
  8
Visible (ANSI)
100
AcDbEllipse
 10
149.2229286422721
 20
56.6855768174307
 30
0.0
 11
-0.0965783276981948
 21
0.1677109756264705
 31
0.0
210
0.0
220
0.0
230
0.9999999999999998
 40
0.5780931159158128
 41
0.0
 42
6.283185307179586
  0
ELLIPSE
  5
B73
330
6C
100
AcDbEntity
  8
Visible (ANSI)
100
AcDbEllipse
 10
149.2836956312803
 20
56.72057019908473
 30
0.0
 11
-0.0965783276981948
 21
0.1677109756264705
 31
0.0
210
0.0
220
0.0
230
1.0
 40
0.5780931159158126
 41
0.3187556839588481
 42
2.822836969630835
  0
ELLIPSE
  5
B74
330
6C
100
AcDbEntity
  8
Visible (ANSI)
100
AcDbEllipse
 10
149.2229286422721
 20
71.93155327836151
 30
0.0
 11
-0.0965783276981948
 21
0.1677109756264705
 31
0.0
210
0.0
220
0.0
230
0.9999999999999998
 40
0.5780931159158128
 41
0.0
 42
6.283185307179586
  0
ELLIPSE
  5
B75
330
6C
100
AcDbEntity
  8
Visible (ANSI)
100
AcDbEllipse
 10
149.2836956312803
 20
71.96654666001554
 30
0.0
 11
-0.0965783276981947
 21
0.1677109756264703
 31
0.0
210
0.0
220
0.0
230
1.0
 40
0.5780931159158128
 41
0.3187556839588487
 42
2.822836969630857
  0
ELLIPSE
  5
B76
330
6C
100
AcDbEntity
  8
Visible (ANSI)
100
AcDbEllipse
 10
175.5958018718431
 20
71.99040210144616
 30
0.0
 11
-0.0965783276981948
 21
0.1677109756264705
 31
0.0
210
0.0
220
0.0
230
0.9999999999999998
 40
0.5780931159158128
 41
0.0
 42
6.283185307179586
  0
ELLIPSE
  5
B77
330
6C
100
AcDbEntity
  8
Visible (ANSI)
100
AcDbEllipse
 10
175.6565688608513
 20
72.0253954831002
 30
0.0
 11
-0.0965783276981948
 21
0.1677109756264705
 31
0.0
210
0.0
220
0.0
230
1.0
 40
0.5780931159158128
 41
0.3187556839588486
 42
2.822836969630857
  0
ELLIPSE
  5
B78
330
6C
100
AcDbEntity
  8
Visible (ANSI)
100
AcDbEllipse
 10
162.4093652570576
 20
79.58396592036923
 30
0.0
 11
-0.0965783276981948
 21
0.1677109756264705
 31
0.0
210
0.0
220
0.0
230
0.9999999999999998
 40
0.5780931159158128
 41
0.0
 42
6.283185307179586
  0
ELLIPSE
  5
B79
330
6C
100
AcDbEntity
  8
Visible (ANSI)
100
AcDbEllipse
 10
162.4701322460658
 20
79.61895930202327
 30
0.0
 11
-0.0965783276981948
 21
0.1677109756264705
 31
0.0
210
0.0
220
0.0
230
1.0
 40
0.5780931159158128
 41
0.3187556839588486
 42
2.822836969630857
  0
ELLIPSE
  5
B7A
330
6C
100
AcDbEntity
  8
Visible (ANSI)
100
AcDbEllipse
 10
149.2229286422721
 20
87.17752973929231
 30
0.0
 11
-0.0965783276981948
 21
0.1677109756264705
 31
0.0
210
0.0
220
0.0
230
0.9999999999999998
 40
0.5780931159158128
 41
0.0
 42
6.283185307179586
  0
ELLIPSE
  5
B7B
330
6C
100
AcDbEntity
  8
Visible (ANSI)
100
AcDbEllipse
 10
149.2836956312803
 20
87.21252312094634
 30
0.0
 11
-0.0965783276981936
 21
0.1677109756264683
 31
0.0
210
0.0
220
0.0
230
1.0
 40
0.5780931159158125
 41
0.318755683958849
 42
2.822836969630857
  0
POLYLINE
  5
B7C
330
6C
100
AcDbEntity
  8
Visible (ANSI)
100
AcDb2dPolyline
 66
     1
 10
0.0
 20
0.0
 30
0.0
 70
   128
  0
VERTEX
  5
B7D
330
B7C
100
AcDbEntity
  8
Visible (ANSI)
100
AcDbVertex
100
AcDb2dVertex
 10
175.9452119427366
 20
40.89325405431398
 30
0.0
  0
VERTEX
  5
B7E
330
B7C
100
AcDbEntity
  8
Visible (ANSI)
100
AcDbVertex
100
AcDb2dVertex
 10
175.9442180901809
 20
40.88826981798325
 30
0.0
  0
VERTEX
  5
B80
330
B7C
100
AcDbEntity
  8
Visible (ANSI)
100
AcDbVertex
100
AcDb2dVertex
 10
175.9435458935785
 20
40.88349877312206
 30
0.0
  0
VERTEX
  5
B81
330
B7C
100
AcDbEntity
  8
Visible (ANSI)
100
AcDbVertex
100
AcDb2dVertex
 10
175.9431991004109
 20
40.8789608372558
 30
0.0
  0
VERTEX
  5
B82
330
B7C
100
AcDbEntity
  8
Visible (ANSI)
100
AcDbVertex
100
AcDb2dVertex
 10
175.9431713222776
 20
40.87467997712388
 30
0.0
  0
VERTEX
  5
B83
330
B7C
100
AcDbEntity
  8
Visible (ANSI)
100
AcDbVertex
100
AcDb2dVertex
 10
175.9434577279509
 20
40.87067737612488
 30
0.0
  0
VERTEX
  5
B84
330
B7C
100
AcDbEntity
  8
Visible (ANSI)
100
AcDbVertex
100
AcDb2dVertex
 10
175.9440492196645
 20
40.86697471205222
 30
0.0
  0
VERTEX
  5
B85
330
B7C
100
AcDbEntity
  8
Visible (ANSI)
100
AcDbVertex
100
AcDb2dVertex
 10
175.9449441375751
 20
40.86358732781106
 30
0.0
  0
VERTEX
  5
B86
330
B7C
100
AcDbEntity
  8
Visible (ANSI)
100
AcDbVertex
100
AcDb2dVertex
 10
175.9461307772206
 20
40.86053426908985
 30
0.0
  0
VERTEX
  5
B87
330
B7C
100
AcDbEntity
  8
Visible (ANSI)
100
AcDbVertex
100
AcDb2dVertex
 10
175.9475961906828
 20
40.85783314338701
 30
0.0
  0
VERTEX
  5
B88
330
B7C
100
AcDbEntity
  8
Visible (ANSI)
100
AcDbVertex
100
AcDb2dVertex
 10
175.9493349706371
 20
40.85549500875252
 30
0.0
  0
VERTEX
  5
B89
330
B7C
100
AcDbEntity
  8
Visible (ANSI)
100
AcDbVertex
100
AcDb2dVertex
 10
175.9513318020347
 20
40.85353441138306
 30
0.0
  0
VERTEX
  5
B8A
330
B7C
100
AcDbEntity
  8
Visible (ANSI)
100
AcDbVertex
100
AcDb2dVertex
 10
175.9535702632645
 20
40.85196428256877
 30
0.0
  0
VERTEX
  5
B8B
330
B7C
100
AcDbEntity
  8
Visible (ANSI)
100
AcDbVertex
100
AcDb2dVertex
 10
175.9560416415752
 20
40.85079083890584
 30
0.0
  0
VERTEX
  5
B8C
330
B7C
100
AcDbEntity
  8
Visible (ANSI)
100
AcDbVertex
100
AcDb2dVertex
 10
175.9587274847572
 20
40.85002364132462
 30
0.0
  0
VERTEX
  5
B8D
330
B7C
100
AcDbEntity
  8
Visible (ANSI)
100
AcDbVertex
100
AcDb2dVertex
 10
175.9616084194163
 20
40.84967051013405
 30
0.0
  0
VERTEX
  5
B8E
330
B7C
100
AcDbEntity
  8
Visible (ANSI)
100
AcDbVertex
100
AcDb2dVertex
 10
175.9646729806555
 20
40.8497324474598
 30
0.0
  0
VERTEX
  5
B8F
330
B7C
100
AcDbEntity
  8
Visible (ANSI)
100
AcDbVertex
100
AcDb2dVertex
 10
175.9679001751649
 20
40.85021372509927
 30
0.0
  0
VERTEX
  5
B90
330
B7C
100
AcDbEntity
  8
Visible (ANSI)
100
AcDbVertex
100
AcDb2dVertex
 10
175.9712712327408
 20
40.85111513385896
 30
0.0
  0
VERTEX
  5
B91
330
B7C
100
AcDbEntity
  8
Visible (ANSI)
100
AcDbVertex
100
AcDb2dVertex
 10
175.9747638438915
 20
40.8524373468859
 30
0.0
  0
VERTEX
  5
B92
330
B7C
100
AcDbEntity
  8
Visible (ANSI)
100
AcDbVertex
100
AcDb2dVertex
 10
175.9783639284689
 20
40.85417419781912
 30
0.0
  0
VERTEX
  5
B93
330
B7C
100
AcDbEntity
  8
Visible (ANSI)
100
AcDbVertex
100
AcDb2dVertex
 10
175.9820481988466
 20
40.85632278301905
 30
0.0
  0
VERTEX
  5
B94
330
B7C
100
AcDbEntity
  8
Visible (ANSI)
100
AcDbVertex
100
AcDb2dVertex
 10
175.9857930051991
 20
40.85887843508061
 30
0.0
  0
VERTEX
  5
B95
330
B7C
100
AcDbEntity
  8
Visible (ANSI)
100
AcDbVertex
100
AcDb2dVertex
 10
175.9895831878203
 20
40.86182970600371
 30
0.0
  0
VERTEX
  5
B96
330
B7C
100
AcDbEntity
  8
Visible (ANSI)
100
AcDbVertex
100
AcDb2dVertex
 10
175.9933946436006
 20
40.86516849132509
 30
0.0
  0
SEQEND
  5
B7F
330
B7C
100
AcDbEntity
  8
Visible (ANSI)
  0
POLYLINE
  5
B97
330
6C
100
AcDbEntity
  8
Visible (ANSI)
100
AcDb2dPolyline
 66
     1
 10
0.0
 20
0.0
 30
0.0
 70
   128
  0
VERTEX
  5
B98
330
B97
100
AcDbEntity
  8
Visible (ANSI)
100
AcDbVertex
100
AcDb2dVertex
 10
148.9097929127813
 20
56.42543967718047
 30
0.0
  0
VERTEX
  5
B99
330
B97
100
AcDbEntity
  8
Visible (ANSI)
100
AcDbVertex
100
AcDb2dVertex
 10
148.907476541588
 20
56.42684028291887
 30
0.0
  0
VERTEX
  5
B9B
330
B97
100
AcDbEntity
  8
Visible (ANSI)
100
AcDbVertex
100
AcDb2dVertex
 10
148.9052197251153
 20
56.42833991523827
 30
0.0
  0
VERTEX
  5
B9C
330
B97
100
AcDbEntity
  8
Visible (ANSI)
100
AcDbVertex
100
AcDb2dVertex
 10
148.9030242715087
 20
56.4299373203886
 30
0.0
  0
VERTEX
  5
B9D
330
B97
100
AcDbEntity
  8
Visible (ANSI)
100
AcDbVertex
100
AcDb2dVertex
 10
148.9008919119107
 20
56.43163113762604
 30
0.0
  0
VERTEX
  5
B9E
330
B97
100
AcDbEntity
  8
Visible (ANSI)
100
AcDbVertex
100
AcDb2dVertex
 10
148.8988243232762
 20
56.43341990905434
 30
0.0
  0
VERTEX
  5
B9F
330
B97
100
AcDbEntity
  8
Visible (ANSI)
100
AcDbVertex
100
AcDb2dVertex
 10
148.8968230998535
 20
56.43530205990404
 30
0.0
  0
VERTEX
  5
BA0
330
B97
100
AcDbEntity
  8
Visible (ANSI)
100
AcDbVertex
100
AcDb2dVertex
 10
148.8948897759993
 20
56.43727593145555
 30
0.0
  0
VERTEX
  5
BA1
330
B97
100
AcDbEntity
  8
Visible (ANSI)
100
AcDbVertex
100
AcDb2dVertex
 10
148.8930258062155
 20
56.4393397563532
 30
0.0
  0
VERTEX
  5
BA2
330
B97
100
AcDbEntity
  8
Visible (ANSI)
100
AcDbVertex
100
AcDb2dVertex
 10
148.8912325765568
 20
56.44149167506682
 30
0.0
  0
VERTEX
  5
BA3
330
B97
100
AcDbEntity
  8
Visible (ANSI)
100
AcDbVertex
100
AcDb2dVertex
 10
148.889511381815
 20
56.44372972605044
 30
0.0
  0
VERTEX
  5
BA4
330
B97
100
AcDbEntity
  8
Visible (ANSI)
100
AcDbVertex
100
AcDb2dVertex
 10
148.8878634597427
 20
56.44605186874768
 30
0.0
  0
VERTEX
  5
BA5
330
B97
100
AcDbEntity
  8
Visible (ANSI)
100
AcDbVertex
100
AcDb2dVertex
 10
148.8862899568296
 20
56.44845596058637
 30
0.0
  0
VERTEX
  5
BA6
330
B97
100
AcDbEntity
  8
Visible (ANSI)
100
AcDbVertex
100
AcDb2dVertex
 10
148.8847919397103
 20
56.45093977014265
 30
0.0
  0
VERTEX
  5
BA7
330
B97
100
AcDbEntity
  8
Visible (ANSI)
100
AcDbVertex
100
AcDb2dVertex
 10
148.8833703951646
 20
56.45350098373583
 30
0.0
  0
VERTEX
  5
BA8
330
B97
100
AcDbEntity
  8
Visible (ANSI)
100
AcDbVertex
100
AcDb2dVertex
 10
148.8820262301171
 20
56.45613721202316
 30
0.0
  0
VERTEX
  5
BA9
330
B97
100
AcDbEntity
  8
Visible (ANSI)
100
AcDbVertex
100
AcDb2dVertex
 10
148.8807602716376
 20
56.45884597021539
 30
0.0
  0
VERTEX
  5
BAA
330
B97
100
AcDbEntity
  8
Visible (ANSI)
100
AcDbVertex
100
AcDb2dVertex
 10
148.8795732498288
 20
56.46162471108906
 30
0.0
  0
VERTEX
  5
BAB
330
B97
100
AcDbEntity
  8
Visible (ANSI)
100
AcDbVertex
100
AcDb2dVertex
 10
148.8784658263465
 20
56.46447079524615
 30
0.0
  0
VERTEX
  5
BAC
330
B97
100
AcDbEntity
  8
Visible (ANSI)
100
AcDbVertex
100
AcDb2dVertex
 10
148.8774385601758
 20
56.46738152416451
 30
0.0
  0
VERTEX
  5
BAD
330
B97
100
AcDbEntity
  8
Visible (ANSI)
100
AcDbVertex
100
AcDb2dVertex
 10
148.8764919418546
 20
56.47035412693187
 30
0.0
  0
VERTEX
  5
BAE
330
B97
100
AcDbEntity
  8
Visible (ANSI)
100
AcDbVertex
100
AcDb2dVertex
 10
148.875626353546
 20
56.47338575703758
 30
0.0
  0
VERTEX
  5
BAF
330
B97
100
AcDbEntity
  8
Visible (ANSI)
100
AcDbVertex
100
AcDb2dVertex
 10
148.87484211467
 20
56.47647351864994
 30
0.0
  0
VERTEX
  5
BB0
330
B97
100
AcDbEntity
  8
Visible (ANSI)
100
AcDbVertex
100
AcDb2dVertex
 10
148.8741394362722
 20
56.47961444693364
 30
0.0
  0
VERTEX
  5
BB1
330
B97
100
AcDbEntity
  8
Visible (ANSI)
100
AcDbVertex
100
AcDb2dVertex
 10
148.8735184552466
 20
56.4828055145682
 30
0.0
  0
SEQEND
  5
B9A
330
B97
100
AcDbEntity
  8
Visible (ANSI)
  0
LINE
  5
BB2
330
6C
100
AcDbEntity
  8
Visible (ANSI)
100
AcDbLine
 10
149.2114216911956
 20
56.62783513368363
 30
0.0
 11
149.3266643812802
 21
56.69419898522192
 31
0.0
  0
LINE
  5
BB3
330
6C
100
AcDbEntity
  8
Visible (ANSI)
100
AcDbLine
 10
175.9933937921528
 20
40.88794963943642
 30
0.0
 11
175.9933937921528
 21
40.86516898190406
 31
0.0
  0
LINE
  5
BB4
330
6C
100
AcDbEntity
  8
Visible (ANSI)
100
AcDbLine
 10
175.9933937921528
 20
40.86516898190406
 30
0.0
 11
176.0563662859099
 21
40.90143242927438
 31
0.0
  0
LINE
  5
BB5
330
6C
100
AcDbEntity
  8
Visible (ANSI)
100
AcDbLine
 10
176.0952955746063
 20
40.92385031568119
 30
0.0
 11
176.3428039789499
 21
41.06638092641476
 31
0.0
  0
LINE
  5
BB6
330
6C
100
AcDbEntity
  8
Visible (ANSI)
100
AcDbLine
 10
176.3428039789499
 20
41.06684388136842
 30
0.0
 11
176.3428039789499
 21
41.06638092641476
 31
0.0
  0
POLYLINE
  5
BB7
330
6C
100
AcDbEntity
  8
Visible (ANSI)
100
AcDb2dPolyline
 66
     1
 10
0.0
 20
0.0
 30
0.0
 70
   128
  0
VERTEX
  5
BB8
330
BB7
100
AcDbEntity
  8
Visible (ANSI)
100
AcDbVertex
100
AcDb2dVertex
 10
175.9452119427366
 20
72.19317333690625
 30
0.0
  0
VERTEX
  5
BB9
330
BB7
100
AcDbEntity
  8
Visible (ANSI)
100
AcDbVertex
100
AcDb2dVertex
 10
175.950342193202
 20
72.18906921771348
 30
0.0
  0
VERTEX
  5
BBB
330
BB7
100
AcDbEntity
  8
Visible (ANSI)
100
AcDbVertex
100
AcDb2dVertex
 10
175.9557765771515
 20
72.18516040535085
 30
0.0
  0
VERTEX
  5
BBC
330
BB7
100
AcDbEntity
  8
Visible (ANSI)
100
AcDbVertex
100
AcDb2dVertex
 10
175.9614896379508
 20
72.18146590144752
 30
0.0
  0
VERTEX
  5
BBD
330
BB7
100
AcDbEntity
  8
Visible (ANSI)
100
AcDbVertex
100
AcDb2dVertex
 10
175.9674603851419
 20
72.17799042290095
 30
0.0
  0
VERTEX
  5
BBE
330
BB7
100
AcDbEntity
  8
Visible (ANSI)
100
AcDbVertex
100
AcDb2dVertex
 10
175.9736606242048
 20
72.17474464161742
 30
0.0
  0
VERTEX
  5
BBF
330
BB7
100
AcDbEntity
  8
Visible (ANSI)
100
AcDbVertex
100
AcDb2dVertex
 10
175.980060814492
 20
72.17173507778055
 30
0.0
  0
VERTEX
  5
BC0
330
BB7
100
AcDbEntity
  8
Visible (ANSI)
100
AcDbVertex
100
AcDb2dVertex
 10
175.9866417736911
 20
72.16897089213569
 30
0.0
  0
VERTEX
  5
BC1
330
BB7
100
AcDbEntity
  8
Visible (ANSI)
100
AcDbVertex
100
AcDb2dVertex
 10
175.9933684340477
 20
72.16645878552355
 30
0.0
  0
VERTEX
  5
BC2
330
BB7
100
AcDbEntity
  8
Visible (ANSI)
100
AcDbVertex
100
AcDb2dVertex
 10
176.0002132455857
 20
72.16419969746628
 30
0.0
  0
VERTEX
  5
BC3
330
BB7
100
AcDbEntity
  8
Visible (ANSI)
100
AcDbVertex
100
AcDb2dVertex
 10
176.0071503580996
 20
72.16220231243159
 30
0.0
  0
VERTEX
  5
BC4
330
BB7
100
AcDbEntity
  8
Visible (ANSI)
100
AcDbVertex
100
AcDb2dVertex
 10
176.0141440136598
 20
72.16046957030818
 30
0.0
  0
VERTEX
  5
BC5
330
BB7
100
AcDbEntity
  8
Visible (ANSI)
100
AcDbVertex
100
AcDb2dVertex
 10
176.0211719498322
 20
72.15899536499222
 30
0.0
  0
VERTEX
  5
BC6
330
BB7
100
AcDbEntity
  8
Visible (ANSI)
100
AcDbVertex
100
AcDb2dVertex
 10
176.02819624975
 20
72.15779152274222
 30
0.0
  0
VERTEX
  5
BC7
330
BB7
100
AcDbEntity
  8
Visible (ANSI)
100
AcDbVertex
100
AcDb2dVertex
 10
176.0351926203803
 20
72.1568507681103
 30
0.0
  0
VERTEX
  5
BC8
330
BB7
100
AcDbEntity
  8
Visible (ANSI)
100
AcDbVertex
100
AcDb2dVertex
 10
176.0421270862713
 20
72.15617034043323
 30
0.0
  0
VERTEX
  5
BC9
330
BB7
100
AcDbEntity
  8
Visible (ANSI)
100
AcDbVertex
100
AcDb2dVertex
 10
176.0489735804682
 20
72.15575207234845
 30
0.0
  0
VERTEX
  5
BCA
330
BB7
100
AcDbEntity
  8
Visible (ANSI)
100
AcDbVertex
100
AcDb2dVertex
 10
176.055699428015
 20
72.15559058859205
 30
0.0
  0
VERTEX
  5
BCB
330
BB7
100
AcDbEntity
  8
Visible (ANSI)
100
AcDbVertex
100
AcDb2dVertex
 10
176.0622800178847
 20
72.15567844362896
 30
0.0
  0
VERTEX
  5
BCC
330
BB7
100
AcDbEntity
  8
Visible (ANSI)
100
AcDbVertex
100
AcDb2dVertex
 10
176.0686813589396
 20
72.15600950425673
 30
0.0
  0
VERTEX
  5
BCD
330
BB7
100
AcDbEntity
  8
Visible (ANSI)
100
AcDbVertex
100
AcDb2dVertex
 10
176.0748806097967
 20
72.15658073358337
 30
0.0
  0
VERTEX
  5
BCE
330
BB7
100
AcDbEntity
  8
Visible (ANSI)
100
AcDbVertex
100
AcDb2dVertex
 10
176.0808515624185
 20
72.15738038987663
 30
0.0
  0
VERTEX
  5
BCF
330
BB7
100
AcDbEntity
  8
Visible (ANSI)
100
AcDbVertex
100
AcDb2dVertex
 10
176.0865647261559
 20
72.15839820458075
 30
0.0
  0
VERTEX
  5
BD0
330
BB7
100
AcDbEntity
  8
Visible (ANSI)
100
AcDbVertex
100
AcDb2dVertex
 10
176.0919991004799
 20
72.15962883737457
 30
0.0
  0
VERTEX
  5
BD1
330
BB7
100
AcDbEntity
  8
Visible (ANSI)
100
AcDbVertex
100
AcDb2dVertex
 10
176.097130582281
 20
72.161058395167
 30
0.0
  0
SEQEND
  5
BBA
330
BB7
100
AcDbEntity
  8
Visible (ANSI)
  0
POLYLINE
  5
BD2
330
6C
100
AcDbEntity
  8
Visible (ANSI)
100
AcDb2dPolyline
 66
     1
 10
0.0
 20
0.0
 30
0.0
 70
   128
  0
VERTEX
  5
BD3
330
BD2
100
AcDbEntity
  8
Visible (ANSI)
100
AcDbVertex
100
AcDb2dVertex
 10
176.097130582281
 20
40.92536876385872
 30
0.0
  0
VERTEX
  5
BD4
330
BD2
100
AcDbEntity
  8
Visible (ANSI)
100
AcDbVertex
100
AcDb2dVertex
 10
176.09199910048
 20
40.92126395789324
 30
0.0
  0
VERTEX
  5
BD6
330
BD2
100
AcDbEntity
  8
Visible (ANSI)
100
AcDbVertex
100
AcDb2dVertex
 10
176.0865647261559
 20
40.91735807692636
 30
0.0
  0
VERTEX
  5
BD7
330
BD2
100
AcDbEntity
  8
Visible (ANSI)
100
AcDbVertex
100
AcDb2dVertex
 10
176.0808515624185
 20
40.91366163750957
 30
0.0
  0
VERTEX
  5
BD8
330
BD2
100
AcDbEntity
  8
Visible (ANSI)
100
AcDbVertex
100
AcDb2dVertex
 10
176.0748806097967
 20
40.91018673304323
 30
0.0
  0
VERTEX
  5
BD9
330
BD2
100
AcDbEntity
  8
Visible (ANSI)
100
AcDbVertex
100
AcDb2dVertex
 10
176.0686813589396
 20
40.90694024235394
 30
0.0
  0
VERTEX
  5
BDA
330
BD2
100
AcDbEntity
  8
Visible (ANSI)
100
AcDbVertex
100
AcDb2dVertex
 10
176.0622800178847
 20
40.90393055701348
 30
0.0
  0
VERTEX
  5
BDB
330
BD2
100
AcDbEntity
  8
Visible (ANSI)
100
AcDbVertex
100
AcDb2dVertex
 10
176.055699428015
 20
40.90116745380352
 30
0.0
  0
VERTEX
  5
BDC
330
BD2
100
AcDbEntity
  8
Visible (ANSI)
100
AcDbVertex
100
AcDb2dVertex
 10
176.0489735804682
 20
40.89865368938685
 30
0.0
  0
VERTEX
  5
BDD
330
BD2
100
AcDbEntity
  8
Visible (ANSI)
100
AcDbVertex
100
AcDb2dVertex
 10
176.0421270862713
 20
40.89639670270378
 30
0.0
  0
VERTEX
  5
BDE
330
BD2
100
AcDbEntity
  8
Visible (ANSI)
100
AcDbVertex
100
AcDb2dVertex
 10
176.0351926203803
 20
40.89439850566815
 30
0.0
  0
VERTEX
  5
BDF
330
BD2
100
AcDbEntity
  8
Visible (ANSI)
100
AcDbVertex
100
AcDb2dVertex
 10
176.02819624975
 20
40.89266401212702
 30
0.0
  0
VERTEX
  5
BE0
330
BD2
100
AcDbEntity
  8
Visible (ANSI)
100
AcDbVertex
100
AcDb2dVertex
 10
176.0211719498322
 20
40.89119259960916
 30
0.0
  0
VERTEX
  5
BE1
330
BD2
100
AcDbEntity
  8
Visible (ANSI)
100
AcDbVertex
100
AcDb2dVertex
 10
176.0141440136599
 20
40.88998818021242
 30
0.0
  0
VERTEX
  5
BE2
330
BD2
100
AcDbEntity
  8
Visible (ANSI)
100
AcDbVertex
100
AcDb2dVertex
 10
176.0071503580996
 20
40.88904566756798
 30
0.0
  0
VERTEX
  5
BE3
330
BD2
100
AcDbEntity
  8
Visible (ANSI)
100
AcDbVertex
100
AcDb2dVertex
 10
176.0002132455857
 20
40.88836780442963
 30
0.0
  0
VERTEX
  5
BE4
330
BD2
100
AcDbEntity
  8
Visible (ANSI)
100
AcDbVertex
100
AcDb2dVertex
 10
175.9933684340477
 20
40.88794826117939
 30
0.0
  0
VERTEX
  5
BE5
330
BD2
100
AcDbEntity
  8
Visible (ANSI)
100
AcDbVertex
100
AcDb2dVertex
 10
175.9866417736911
 20
40.88778511961849
 30
0.0
  0
VERTEX
  5
BE6
330
BD2
100
AcDbEntity
  8
Visible (ANSI)
100
AcDbVertex
100
AcDb2dVertex
 10
175.980060814492
 20
40.88787405709028
 30
0.0
  0
VERTEX
  5
BE7
330
BD2
100
AcDbEntity
  8
Visible (ANSI)
100
AcDbVertex
100
AcDb2dVertex
 10
175.9736606242048
 20
40.88820498961967
 30
0.0
  0
VERTEX
  5
BE8
330
BD2
100
AcDbEntity
  8
Visible (ANSI)
100
AcDbVertex
100
AcDb2dVertex
 10
175.9674603851419
 20
40.88877552273014
 30
0.0
  0
VERTEX
  5
BE9
330
BD2
100
AcDbEntity
  8
Visible (ANSI)
100
AcDbVertex
100
AcDb2dVertex
 10
175.9614896379508
 20
40.88957574650885
 30
0.0
  0
VERTEX
  5
BEA
330
BD2
100
AcDbEntity
  8
Visible (ANSI)
100
AcDbVertex
100
AcDb2dVertex
 10
175.9557765771515
 20
40.89059500223913
 30
0.0
  0
VERTEX
  5
BEB
330
BD2
100
AcDbEntity
  8
Visible (ANSI)
100
AcDbVertex
100
AcDb2dVertex
 10
175.950342193202
 20
40.89182518988907
 30
0.0
  0
VERTEX
  5
BEC
330
BD2
100
AcDbEntity
  8
Visible (ANSI)
100
AcDbVertex
100
AcDb2dVertex
 10
175.9452119427366
 20
40.89325405431398
 30
0.0
  0
SEQEND
  5
BD5
330
BD2
100
AcDbEntity
  8
Visible (ANSI)
  0
LINE
  5
BED
330
6C
100
AcDbEntity
  8
Visible (ANSI)
100
AcDbLine
 10
176.0364531965731
 20
72.19610360209625
 30
0.0
 11
176.3857727289499
 21
72.39726334219819
 31
0.0
  0
LINE
  5
BEE
330
6C
100
AcDbEntity
  8
Visible (ANSI)
100
AcDbLine
 10
176.4465397179582
 20
41.1265813204867
 30
0.0
 11
176.097129531161
 21
40.925369375976
 31
0.0
  0
LINE
  5
BEF
330
6C
100
AcDbEntity
  8
Visible (ANSI)
100
AcDbLine
 10
176.0389227056905
 20
72.19457709755781
 30
0.0
 11
176.0971295311609
 21
72.16105801603347
 31
0.0
  0
POLYLINE
  5
BF0
330
6C
100
AcDbEntity
  8
Visible (ANSI)
100
AcDb2dPolyline
 66
     1
 10
0.0
 20
0.0
 30
0.0
 70
   128
  0
VERTEX
  5
BF1
330
BF0
100
AcDbEntity
  8
Visible (ANSI)
100
AcDbVertex
100
AcDb2dVertex
 10
176.0059789308322
 20
72.22816671803474
 30
0.0
  0
VERTEX
  5
BF2
330
BF0
100
AcDbEntity
  8
Visible (ANSI)
100
AcDbVertex
100
AcDb2dVertex
 10
176.0069143386244
 20
72.22643702574521
 30
0.0
  0
VERTEX
  5
BF4
330
BF0
100
AcDbEntity
  8
Visible (ANSI)
100
AcDbVertex
100
AcDb2dVertex
 10
176.0079010484938
 20
72.22474023986338
 30
0.0
  0
VERTEX
  5
BF5
330
BF0
100
AcDbEntity
  8
Visible (ANSI)
100
AcDbVertex
100
AcDb2dVertex
 10
176.0089329286305
 20
72.22307955632747
 30
0.0
  0
VERTEX
  5
BF6
330
BF0
100
AcDbEntity
  8
Visible (ANSI)
100
AcDbVertex
100
AcDb2dVertex
 10
176.0100124156063
 20
72.2214530147596
 30
0.0
  0
VERTEX
  5
BF7
330
BF0
100
AcDbEntity
  8
Visible (ANSI)
100
AcDbVertex
100
AcDb2dVertex
 10
176.0111271528621
 20
72.21986357697628
 30
0.0
  0
VERTEX
  5
BF8
330
BF0
100
AcDbEntity
  8
Visible (ANSI)
100
AcDbVertex
100
AcDb2dVertex
 10
176.0122821175215
 20
72.21831413517891
 30
0.0
  0
VERTEX
  5
BF9
330
BF0
100
AcDbEntity
  8
Visible (ANSI)
100
AcDbVertex
100
AcDb2dVertex
 10
176.0134674992725
 20
72.21680575396395
 30
0.0
  0
VERTEX
  5
BFA
330
BF0
100
AcDbEntity
  8
Visible (ANSI)
100
AcDbVertex
100
AcDb2dVertex
 10
176.0146791464571
 20
72.21533940605685
 30
0.0
  0
VERTEX
  5
BFB
330
BF0
100
AcDbEntity
  8
Visible (ANSI)
100
AcDbVertex
100
AcDb2dVertex
 10
176.0159156505613
 20
72.21391428034838
 30
0.0
  0
VERTEX
  5
BFC
330
BF0
100
AcDbEntity
  8
Visible (ANSI)
100
AcDbVertex
100
AcDb2dVertex
 10
176.0171695897934
 20
72.21253282992556
 30
0.0
  0
VERTEX
  5
BFD
330
BF0
100
AcDbEntity
  8
Visible (ANSI)
100
AcDbVertex
100
AcDb2dVertex
 10
176.0184392164339
 20
72.21119404834372
 30
0.0
  0
VERTEX
  5
BFE
330
BF0
100
AcDbEntity
  8
Visible (ANSI)
100
AcDbVertex
100
AcDb2dVertex
 10
176.0197167816957
 20
72.20990020038567
 30
0.0
  0
VERTEX
  5
BFF
330
BF0
100
AcDbEntity
  8
Visible (ANSI)
100
AcDbVertex
100
AcDb2dVertex
 10
176.0210002230735
 20
72.2086467217942
 30
0.0
  0
VERTEX
  5
C00
330
BF0
100
AcDbEntity
  8
Visible (ANSI)
100
AcDbVertex
100
AcDb2dVertex
 10
176.0222844123791
 20
72.20744077602744
 30
0.0
  0
VERTEX
  5
C01
330
BF0
100
AcDbEntity
  8
Visible (ANSI)
100
AcDbVertex
100
AcDb2dVertex
 10
176.023564082747
 20
72.20627931706617
 30
0.0
  0
VERTEX
  5
C02
330
BF0
100
AcDbEntity
  8
Visible (ANSI)
100
AcDbVertex
100
AcDb2dVertex
 10
176.0248367568897
 20
72.20516091833532
 30
0.0
  0
VERTEX
  5
C03
330
BF0
100
AcDbEntity
  8
Visible (ANSI)
100
AcDbVertex
100
AcDb2dVertex
 10
176.0260969166127
 20
72.2040857656243
 30
0.0
  0
VERTEX
  5
C04
330
BF0
100
AcDbEntity
  8
Visible (ANSI)
100
AcDbVertex
100
AcDb2dVertex
 10
176.0273360117266
 20
72.20305566221918
 30
0.0
  0
VERTEX
  5
C05
330
BF0
100
AcDbEntity
  8
Visible (ANSI)
100
AcDbVertex
100
AcDb2dVertex
 10
176.0285570703046
 20
72.20206562485872
 30
0.0
  0
VERTEX
  5
C06
330
BF0
100
AcDbEntity
  8
Visible (ANSI)
100
AcDbVertex
100
AcDb2dVertex
 10
176.0297484278122
 20
72.20111902690327
 30
0.0
  0
VERTEX
  5
C07
330
BF0
100
AcDbEntity
  8
Visible (ANSI)
100
AcDbVertex
100
AcDb2dVertex
 10
176.0309100186544
 20
72.2002090905331
 30
0.0
  0
VERTEX
  5
C08
330
BF0
100
AcDbEntity
  8
Visible (ANSI)
100
AcDbVertex
100
AcDb2dVertex
 10
176.0320387855253
 20
72.19934080824216
 30
0.0
  0
VERTEX
  5
C09
330
BF0
100
AcDbEntity
  8
Visible (ANSI)
100
AcDbVertex
100
AcDb2dVertex
 10
176.0331257718306
 20
72.19851237274387
 30
0.0
  0
VERTEX
  5
C0A
330
BF0
100
AcDbEntity
  8
Visible (ANSI)
100
AcDbVertex
100
AcDb2dVertex
 10
176.0341707287365
 20
72.19772027723799
 30
0.0
  0
SEQEND
  5
BF3
330
BF0
100
AcDbEntity
  8
Visible (ANSI)
  0
LINE
  5
C0B
330
6C
100
AcDbEntity
  8
Visible (ANSI)
100
AcDbLine
 10
176.0059790476486
 20
72.22816678582621
 30
0.0
 11
176.0034874057342
 21
72.22673194467512
 31
0.0
  0
LINE
  5
C0C
330
6C
100
AcDbEntity
  8
Visible (ANSI)
100
AcDbLine
 10
176.0034874057342
 20
72.22673194467512
 30
0.0
 11
175.9452120586404
 21
72.19317340417217
 31
0.0
  0
LINE
  5
C0D
330
6C
100
AcDbEntity
  8
Visible (ANSI)
100
AcDbLine
 10
176.0971295311609
 20
72.16105801603347
 30
0.0
 11
176.4465397179582
 21
72.36226996054416
 31
0.0
  0
LINE
  5
C0E
330
6C
100
AcDbEntity
  8
Visible (ANSI)
100
AcDbLine
 10
176.3857727289499
 20
72.39726334219819
 30
0.0
 11
176.4465397179582
 21
72.36226996054416
 31
0.0
  0
POLYLINE
  5
C0F
330
6C
100
AcDbEntity
  8
Visible (ANSI)
100
AcDb2dPolyline
 66
     1
 10
0.0
 20
0.0
 30
0.0
 70
   128
  0
VERTEX
  5
C10
330
C0F
100
AcDbEntity
  8
Visible (ANSI)
100
AcDbVertex
100
AcDb2dVertex
 10
148.8735184552466
 20
87.78272479716047
 30
0.0
  0
VERTEX
  5
C11
330
C0F
100
AcDbEntity
  8
Visible (ANSI)
100
AcDbVertex
100
AcDb2dVertex
 10
148.8748384641556
 20
87.78789545374687
 30
0.0
  0
VERTEX
  5
C13
330
C0F
100
AcDbEntity
  8
Visible (ANSI)
100
AcDbVertex
100
AcDb2dVertex
 10
148.8764830437256
 20
87.79322938893816
 30
0.0
  0
VERTEX
  5
C14
330
C0F
100
AcDbEntity
  8
Visible (ANSI)
100
AcDbVertex
100
AcDb2dVertex
 10
148.8784501063187
 20
87.79869838165732
 30
0.0
  0
VERTEX
  5
C15
330
C0F
100
AcDbEntity
  8
Visible (ANSI)
100
AcDbVertex
100
AcDb2dVertex
 10
148.8807361896501
 20
87.80428017229997
 30
0.0
  0
VERTEX
  5
C16
330
C0F
100
AcDbEntity
  8
Visible (ANSI)
100
AcDbVertex
100
AcDb2dVertex
 10
148.8833364510843
 20
87.80994497299948
 30
0.0
  0
VERTEX
  5
C17
330
C0F
100
AcDbEntity
  8
Visible (ANSI)
100
AcDbVertex
100
AcDb2dVertex
 10
148.8862447246741
 20
87.81566220756742
 30
0.0
  0
VERTEX
  5
C18
330
C0F
100
AcDbEntity
  8
Visible (ANSI)
100
AcDbVertex
100
AcDb2dVertex
 10
148.8894534983454
 20
87.82141405706806
 30
0.0
  0
VERTEX
  5
C19
330
C0F
100
AcDbEntity
  8
Visible (ANSI)
100
AcDbVertex
100
AcDb2dVertex
 10
148.8929539937518
 20
87.827165070962
 30
0.0
  0
VERTEX
  5
C1A
330
C0F
100
AcDbEntity
  8
Visible (ANSI)
100
AcDbVertex
100
AcDb2dVertex
 10
148.8967361890902
 20
87.8328892122696
 30
0.0
  0
VERTEX
  5
C1B
330
C0F
100
AcDbEntity
  8
Visible (ANSI)
100
AcDbVertex
100
AcDb2dVertex
 10
148.9007888248053
 20
87.83856312748467
 30
0.0
  0
VERTEX
  5
C1C
330
C0F
100
AcDbEntity
  8
Visible (ANSI)
100
AcDbVertex
100
AcDb2dVertex
 10
148.9050995176676
 20
87.84415266012393
 30
0.0
  0
VERTEX
  5
C1D
330
C0F
100
AcDbEntity
  8
Visible (ANSI)
100
AcDbVertex
100
AcDb2dVertex
 10
148.9096547550697
 20
87.84963991231419
 30
0.0
  0
VERTEX
  5
C1E
330
C0F
100
AcDbEntity
  8
Visible (ANSI)
100
AcDbVertex
100
AcDb2dVertex
 10
148.9144399948451
 20
87.85498948432296
 30
0.0
  0
VERTEX
  5
C1F
330
C0F
100
AcDbEntity
  8
Visible (ANSI)
100
AcDbVertex
100
AcDb2dVertex
 10
148.9194396937879
 20
87.86018230893304
 30
0.0
  0
VERTEX
  5
C20
330
C0F
100
AcDbEntity
  8
Visible (ANSI)
100
AcDbVertex
100
AcDb2dVertex
 10
148.9246374046194
 20
87.86518864897942
 30
0.0
  0
VERTEX
  5
C21
330
C0F
100
AcDbEntity
  8
Visible (ANSI)
100
AcDbVertex
100
AcDb2dVertex
 10
148.9300158273233
 20
87.86998840585717
 30
0.0
  0
VERTEX
  5
C22
330
C0F
100
AcDbEntity
  8
Visible (ANSI)
100
AcDbVertex
100
AcDb2dVertex
 10
148.9355568775935
 20
87.8745542959475
 30
0.0
  0
VERTEX
  5
C23
330
C0F
100
AcDbEntity
  8
Visible (ANSI)
100
AcDbVertex
100
AcDb2dVertex
 10
148.9412417909301
 20
87.87886875384502
 30
0.0
  0
VERTEX
  5
C24
330
C0F
100
AcDbEntity
  8
Visible (ANSI)
100
AcDbVertex
100
AcDb2dVertex
 10
148.9470511782531
 20
87.882903731423
 30
0.0
  0
VERTEX
  5
C25
330
C0F
100
AcDbEntity
  8
Visible (ANSI)
100
AcDbVertex
100
AcDb2dVertex
 10
148.9529651299991
 20
87.88664437384808
 30
0.0
  0
VERTEX
  5
C26
330
C0F
100
AcDbEntity
  8
Visible (ANSI)
100
AcDbVertex
100
AcDb2dVertex
 10
148.9589632561377
 20
87.89007221248073
 30
0.0
  0
VERTEX
  5
C27
330
C0F
100
AcDbEntity
  8
Visible (ANSI)
100
AcDbVertex
100
AcDb2dVertex
 10
148.9650248386625
 20
87.89316517385707
 30
0.0
  0
VERTEX
  5
C28
330
C0F
100
AcDbEntity
  8
Visible (ANSI)
100
AcDbVertex
100
AcDb2dVertex
 10
148.9711288770445
 20
87.89591116457673
 30
0.0
  0
VERTEX
  5
C29
330
C0F
100
AcDbEntity
  8
Visible (ANSI)
100
AcDbVertex
100
AcDb2dVertex
 10
148.9772541885856
 20
87.89829460979545
 30
0.0
  0
SEQEND
  5
C12
330
C0F
100
AcDbEntity
  8
Visible (ANSI)
  0
POLYLINE
  5
C2A
330
6C
100
AcDbEntity
  8
Visible (ANSI)
100
AcDb2dPolyline
 66
     1
 10
0.0
 20
0.0
 30
0.0
 70
   128
  0
VERTEX
  5
C2B
330
C2A
100
AcDbEntity
  8
Visible (ANSI)
100
AcDbVertex
100
AcDb2dVertex
 10
175.9933946436006
 20
72.34073401331714
 30
0.0
  0
VERTEX
  5
C2C
330
C2A
100
AcDbEntity
  8
Visible (ANSI)
100
AcDbVertex
100
AcDb2dVertex
 10
175.9895831878203
 20
72.33701810718418
 30
0.0
  0
VERTEX
  5
C2E
330
C2A
100
AcDbEntity
  8
Visible (ANSI)
100
AcDbVertex
100
AcDb2dVertex
 10
175.9857930051991
 20
72.33293965555029
 30
0.0
  0
VERTEX
  5
C2F
330
C2A
100
AcDbEntity
  8
Visible (ANSI)
100
AcDbVertex
100
AcDb2dVertex
 10
175.9820481988466
 20
72.32851255150655
 30
0.0
  0
VERTEX
  5
C30
330
C2A
100
AcDbEntity
  8
Visible (ANSI)
100
AcDbVertex
100
AcDb2dVertex
 10
175.9783639284689
 20
72.32375225195965
 30
0.0
  0
VERTEX
  5
C31
330
C2A
100
AcDbEntity
  8
Visible (ANSI)
100
AcDbVertex
100
AcDb2dVertex
 10
175.9747638438915
 20
72.31867914205102
 30
0.0
  0
VERTEX
  5
C32
330
C2A
100
AcDbEntity
  8
Visible (ANSI)
100
AcDbVertex
100
AcDb2dVertex
 10
175.9712712327408
 20
72.31331002180562
 30
0.0
  0
VERTEX
  5
C33
330
C2A
100
AcDbEntity
  8
Visible (ANSI)
100
AcDbVertex
100
AcDb2dVertex
 10
175.9679001751649
 20
72.30766310299384
 30
0.0
  0
VERTEX
  5
C34
330
C2A
100
AcDbEntity
  8
Visible (ANSI)
100
AcDbVertex
100
AcDb2dVertex
 10
175.9646729806555
 20
72.30176475198928
 30
0.0
  0
VERTEX
  5
C35
330
C2A
100
AcDbEntity
  8
Visible (ANSI)
100
AcDbVertex
100
AcDb2dVertex
 10
175.9616084194163
 20
72.29563253091261
 30
0.0
  0
VERTEX
  5
C36
330
C2A
100
AcDbEntity
  8
Visible (ANSI)
100
AcDbVertex
100
AcDb2dVertex
 10
175.9587274847572
 20
72.28929204819884
 30
0.0
  0
VERTEX
  5
C37
330
C2A
100
AcDbEntity
  8
Visible (ANSI)
100
AcDbVertex
100
AcDb2dVertex
 10
175.9560416415752
 20
72.28276676267452
 30
0.0
  0
VERTEX
  5
C38
330
C2A
100
AcDbEntity
  8
Visible (ANSI)
100
AcDbVertex
100
AcDb2dVertex
 10
175.9535702632645
 20
72.27608472646683
 30
0.0
  0
VERTEX
  5
C39
330
C2A
100
AcDbEntity
  8
Visible (ANSI)
100
AcDbVertex
100
AcDb2dVertex
 10
175.9513318020347
 20
72.26926333160919
 30
0.0
  0
VERTEX
  5
C3A
330
C2A
100
AcDbEntity
  8
Visible (ANSI)
100
AcDbVertex
100
AcDb2dVertex
 10
175.9493349706371
 20
72.26234133477101
 30
0.0
  0
VERTEX
  5
C3B
330
C2A
100
AcDbEntity
  8
Visible (ANSI)
100
AcDbVertex
100
AcDb2dVertex
 10
175.9475961906828
 20
72.25533495864168
 30
0.0
  0
VERTEX
  5
C3C
330
C2A
100
AcDbEntity
  8
Visible (ANSI)
100
AcDbVertex
100
AcDb2dVertex
 10
175.9461307772206
 20
72.24827667138201
 30
0.0
  0
VERTEX
  5
C3D
330
C2A
100
AcDbEntity
  8
Visible (ANSI)
100
AcDbVertex
100
AcDb2dVertex
 10
175.9449441375751
 20
72.24119319657386
 30
0.0
  0
VERTEX
  5
C3E
330
C2A
100
AcDbEntity
  8
Visible (ANSI)
100
AcDbVertex
100
AcDb2dVertex
 10
175.9440492196645
 20
72.23410888615896
 30
0.0
  0
VERTEX
  5
C3F
330
C2A
100
AcDbEntity
  8
Visible (ANSI)
100
AcDbVertex
100
AcDb2dVertex
 10
175.9434577279509
 20
72.22705750563895
 30
0.0
  0
VERTEX
  5
C40
330
C2A
100
AcDbEntity
  8
Visible (ANSI)
100
AcDbVertex
100
AcDb2dVertex
 10
175.9431713222776
 20
72.22006024402521
 30
0.0
  0
VERTEX
  5
C41
330
C2A
100
AcDbEntity
  8
Visible (ANSI)
100
AcDbVertex
100
AcDb2dVertex
 10
175.9431991004109
 20
72.21314598918365
 30
0.0
  0
VERTEX
  5
C42
330
C2A
100
AcDbEntity
  8
Visible (ANSI)
100
AcDbVertex
100
AcDb2dVertex
 10
175.9435458935785
 20
72.20634453555025
 30
0.0
  0
VERTEX
  5
C43
330
C2A
100
AcDbEntity
  8
Visible (ANSI)
100
AcDbVertex
100
AcDb2dVertex
 10
175.9442180901809
 20
72.19967645769154
 30
0.0
  0
VERTEX
  5
C44
330
C2A
100
AcDbEntity
  8
Visible (ANSI)
100
AcDbVertex
100
AcDb2dVertex
 10
175.9452119427366
 20
72.19317333690625
 30
0.0
  0
SEQEND
  5
C2D
330
C2A
100
AcDbEntity
  8
Visible (ANSI)
  0
LINE
  5
C45
330
6C
100
AcDbEntity
  8
Visible (ANSI)
100
AcDbLine
 10
175.9934803388031
 20
72.27052517120203
 30
0.0
 11
176.3428039789499
 21
72.47168727681138
 31
0.0
  0
LINE
  5
C46
330
6C
100
AcDbEntity
  8
Visible (ANSI)
100
AcDbLine
 10
176.3428039789499
 20
72.54194523285254
 30
0.0
 11
175.9933937921528
 21
72.34073328834186
 31
0.0
  0
LINE
  5
C47
330
6C
100
AcDbEntity
  8
Visible (ANSI)
100
AcDbLine
 10
175.9933937921528
 20
72.27335613437678
 30
0.0
 11
175.9933937921528
 21
72.34073328834186
 31
0.0
  0
LINE
  5
C48
330
6C
100
AcDbEntity
  8
Visible (ANSI)
100
AcDbLine
 10
176.3428039789499
 20
72.47168727681138
 30
0.0
 11
176.3428039789499
 21
72.54194523285254
 31
0.0
  0
POLYLINE
  5
C49
330
6C
100
AcDbEntity
  8
Visible (ANSI)
100
AcDb2dPolyline
 66
     1
 10
0.0
 20
0.0
 30
0.0
 70
   128
  0
VERTEX
  5
C4A
330
C49
100
AcDbEntity
  8
Visible (ANSI)
100
AcDbVertex
100
AcDb2dVertex
 10
176.0059789308322
 20
72.22816671803474
 30
0.0
  0
VERTEX
  5
C4B
330
C49
100
AcDbEntity
  8
Visible (ANSI)
100
AcDbVertex
100
AcDb2dVertex
 10
176.004946075644
 20
72.22984299290914
 30
0.0
  0
VERTEX
  5
C4D
330
C49
100
AcDbEntity
  8
Visible (ANSI)
100
AcDbVertex
100
AcDb2dVertex
 10
176.0039705514854
 20
72.23154891902144
 30
0.0
  0
VERTEX
  5
C4E
330
C49
100
AcDbEntity
  8
Visible (ANSI)
100
AcDbVertex
100
AcDb2dVertex
 10
176.0030462245301
 20
72.23327756152976
 30
0.0
  0
VERTEX
  5
C4F
330
C49
100
AcDbEntity
  8
Visible (ANSI)
100
AcDbVertex
100
AcDb2dVertex
 10
176.0021755279745
 20
72.23502695811238
 30
0.0
  0
VERTEX
  5
C50
330
C49
100
AcDbEntity
  8
Visible (ANSI)
100
AcDbVertex
100
AcDb2dVertex
 10
176.0013577822155
 20
72.23678996433267
 30
0.0
  0
VERTEX
  5
C51
330
C49
100
AcDbEntity
  8
Visible (ANSI)
100
AcDbVertex
100
AcDb2dVertex
 10
176.0005950380605
 20
72.2385643976658
 30
0.0
  0
VERTEX
  5
C52
330
C49
100
AcDbEntity
  8
Visible (ANSI)
100
AcDbVertex
100
AcDb2dVertex
 10
175.9998803982566
 20
72.24034626018124
 30
0.0
  0
VERTEX
  5
C53
330
C49
100
AcDbEntity
  8
Visible (ANSI)
100
AcDbVertex
100
AcDb2dVertex
 10
175.999215543591
 20
72.24213315627378
 30
0.0
  0
VERTEX
  5
C54
330
C49
100
AcDbEntity
  8
Visible (ANSI)
100
AcDbVertex
100
AcDb2dVertex
 10
175.9985990558353
 20
72.24391751616072
 30
0.0
  0
VERTEX
  5
C55
330
C49
100
AcDbEntity
  8
Visible (ANSI)
100
AcDbVertex
100
AcDb2dVertex
 10
175.9980293433262
 20
72.24569504672439
 30
0.0
  0
VERTEX
  5
C56
330
C49
100
AcDbEntity
  8
Visible (ANSI)
100
AcDbVertex
100
AcDb2dVertex
 10
175.9975075669912
 20
72.2474630529923
 30
0.0
  0
VERTEX
  5
C57
330
C49
100
AcDbEntity
  8
Visible (ANSI)
100
AcDbVertex
100
AcDb2dVertex
 10
175.9970259646746
 20
72.24922041550918
 30
0.0
  0
VERTEX
  5
C58
330
C49
100
AcDbEntity
  8
Visible (ANSI)
100
AcDbVertex
100
AcDb2dVertex
 10
175.996585381449
 20
72.25095750433446
 30
0.0
  0
VERTEX
  5
C59
330
C49
100
AcDbEntity
  8
Visible (ANSI)
100
AcDbVertex
100
AcDb2dVertex
 10
175.9961835942082
 20
72.25267303926642
 30
0.0
  0
VERTEX
  5
C5A
330
C49
100
AcDbEntity
  8
Visible (ANSI)
100
AcDbVertex
100
AcDb2dVertex
 10
175.9958211612243
 20
72.25436060174655
 30
0.0
  0
VERTEX
  5
C5B
330
C49
100
AcDbEntity
  8
Visible (ANSI)
100
AcDbVertex
100
AcDb2dVertex
 10
175.9954897494136
 20
72.25602212008387
 30
0.0
  0
VERTEX
  5
C5C
330
C49
100
AcDbEntity
  8
Visible (ANSI)
100
AcDbVertex
100
AcDb2dVertex
 10
175.99518966358
 20
72.25764765321763
 30
0.0
  0
VERTEX
  5
C5D
330
C49
100
AcDbEntity
  8
Visible (ANSI)
100
AcDbVertex
100
AcDb2dVertex
 10
175.9949181779584
 20
72.25923900802371
 30
0.0
  0
VERTEX
  5
C5E
330
C49
100
AcDbEntity
  8
Visible (ANSI)
100
AcDbVertex
100
AcDb2dVertex
 10
175.9946753823857
 20
72.26078611965023
 30
0.0
  0
VERTEX
  5
C5F
330
C49
100
AcDbEntity
  8
Visible (ANSI)
100
AcDbVertex
100
AcDb2dVertex
 10
175.9944525142013
 20
72.26229066902913
 30
0.0
  0
VERTEX
  5
C60
330
C49
100
AcDbEntity
  8
Visible (ANSI)
100
AcDbVertex
100
AcDb2dVertex
 10
175.9942494899853
 20
72.26374924461575
 30
0.0
  0
VERTEX
  5
C61
330
C49
100
AcDbEntity
  8
Visible (ANSI)
100
AcDbVertex
100
AcDb2dVertex
 10
175.9940632346069
 20
72.26515669902053
 30
0.0
  0
VERTEX
  5
C62
330
C49
100
AcDbEntity
  8
Visible (ANSI)
100
AcDbVertex
100
AcDb2dVertex
 10
175.9938935320299
 20
72.26650616779044
 30
0.0
  0
VERTEX
  5
C63
330
C49
100
AcDbEntity
  8
Visible (ANSI)
100
AcDbVertex
100
AcDb2dVertex
 10
175.993731359352
 20
72.26780593507353
 30
0.0
  0
SEQEND
  5
C4C
330
C49
100
AcDbEntity
  8
Visible (ANSI)
  0
LINE
  5
C64
330
6C
100
AcDbEntity
  8
Visible (ANSI)
100
AcDbLine
 10
148.977254194483
 20
87.89829339110786
 30
0.0
 11
149.3266643812802
 21
88.09950533561853
 31
0.0
  0
POLYLINE
  5
C65
330
6C
100
AcDbEntity
  8
Visible (ANSI)
100
AcDb2dPolyline
 66
     1
 10
0.0
 20
0.0
 30
0.0
 70
   128
  0
VERTEX
  5
C66
330
C65
100
AcDbEntity
  8
Visible (ANSI)
100
AcDbVertex
100
AcDb2dVertex
 10
148.8735184552466
 20
56.4828055145682
 30
0.0
  0
VERTEX
  5
C67
330
C65
100
AcDbEntity
  8
Visible (ANSI)
100
AcDbVertex
100
AcDb2dVertex
 10
148.87107382551
 20
56.48492919190053
 30
0.0
  0
VERTEX
  5
C69
330
C65
100
AcDbEntity
  8
Visible (ANSI)
100
AcDbVertex
100
AcDb2dVertex
 10
148.8687131461977
 20
56.48709815834546
 30
0.0
  0
VERTEX
  5
C6A
330
C65
100
AcDbEntity
  8
Visible (ANSI)
100
AcDbVertex
100
AcDb2dVertex
 10
148.8664389555578
 20
56.48931079450771
 30
0.0
  0
VERTEX
  5
C6B
330
C65
100
AcDbEntity
  8
Visible (ANSI)
100
AcDbVertex
100
AcDb2dVertex
 10
148.8642536891681
 20
56.49156545479097
 30
0.0
  0
VERTEX
  5
C6C
330
C65
100
AcDbEntity
  8
Visible (ANSI)
100
AcDbVertex
100
AcDb2dVertex
 10
148.8621596742315
 20
56.49386043773408
 30
0.0
  0
VERTEX
  5
C6D
330
C65
100
AcDbEntity
  8
Visible (ANSI)
100
AcDbVertex
100
AcDb2dVertex
 10
148.8601591695038
 20
56.49619400902905
 30
0.0
  0
VERTEX
  5
C6E
330
C65
100
AcDbEntity
  8
Visible (ANSI)
100
AcDbVertex
100
AcDb2dVertex
 10
148.8582543025504
 20
56.49856438512329
 30
0.0
  0
VERTEX
  5
C6F
330
C65
100
AcDbEntity
  8
Visible (ANSI)
100
AcDbVertex
100
AcDb2dVertex
 10
148.8564471210818
 20
56.50096973640238
 30
0.0
  0
VERTEX
  5
C70
330
C65
100
AcDbEntity
  8
Visible (ANSI)
100
AcDbVertex
100
AcDb2dVertex
 10
148.8547395587299
 20
56.50340820705089
 30
0.0
  0
VERTEX
  5
C71
330
C65
100
AcDbEntity
  8
Visible (ANSI)
100
AcDbVertex
100
AcDb2dVertex
 10
148.8531334407519
 20
56.5058779050965
 30
0.0
  0
VERTEX
  5
C72
330
C65
100
AcDbEntity
  8
Visible (ANSI)
100
AcDbVertex
100
AcDb2dVertex
 10
148.8516304897342
 20
56.50837689915084
 30
0.0
  0
VERTEX
  5
C73
330
C65
100
AcDbEntity
  8
Visible (ANSI)
100
AcDbVertex
100
AcDb2dVertex
 10
148.8502323227407
 20
56.51090323978523
 30
0.0
  0
VERTEX
  5
C74
330
C65
100
AcDbEntity
  8
Visible (ANSI)
100
AcDbVertex
100
AcDb2dVertex
 10
148.8489404227929
 20
56.51345492329755
 30
0.0
  0
VERTEX
  5
C75
330
C65
100
AcDbEntity
  8
Visible (ANSI)
100
AcDbVertex
100
AcDb2dVertex
 10
148.8477561816494
 20
56.51602993949266
 30
0.0
  0
VERTEX
  5
C76
330
C65
100
AcDbEntity
  8
Visible (ANSI)
100
AcDbVertex
100
AcDb2dVertex
 10
148.8466808655824
 20
56.51862624530326
 30
0.0
  0
VERTEX
  5
C77
330
C65
100
AcDbEntity
  8
Visible (ANSI)
100
AcDbVertex
100
AcDb2dVertex
 10
148.8457156267856
 20
56.52124178452332
 30
0.0
  0
VERTEX
  5
C78
330
C65
100
AcDbEntity
  8
Visible (ANSI)
100
AcDbVertex
100
AcDb2dVertex
 10
148.8448615033739
 20
56.52387447469488
 30
0.0
  0
VERTEX
  5
C79
330
C65
100
AcDbEntity
  8
Visible (ANSI)
100
AcDbVertex
100
AcDb2dVertex
 10
148.84411939942
 20
56.52652219879456
 30
0.0
  0
VERTEX
  5
C7A
330
C65
100
AcDbEntity
  8
Visible (ANSI)
100
AcDbVertex
100
AcDb2dVertex
 10
148.8434901134742
 20
56.52918284480233
 30
0.0
  0
VERTEX
  5
C7B
330
C65
100
AcDbEntity
  8
Visible (ANSI)
100
AcDbVertex
100
AcDb2dVertex
 10
148.8429743271557
 20
56.53185428260702
 30
0.0
  0
VERTEX
  5
C7C
330
C65
100
AcDbEntity
  8
Visible (ANSI)
100
AcDbVertex
100
AcDb2dVertex
 10
148.8425725823379
 20
56.53453436731639
 30
0.0
  0
VERTEX
  5
C7D
330
C65
100
AcDbEntity
  8
Visible (ANSI)
100
AcDbVertex
100
AcDb2dVertex
 10
148.8422853153712
 20
56.53722094913668
 30
0.0
  0
VERTEX
  5
C7E
330
C65
100
AcDbEntity
  8
Visible (ANSI)
100
AcDbVertex
100
AcDb2dVertex
 10
148.842112831416
 20
56.5399118584897
 30
0.0
  0
VERTEX
  5
C7F
330
C65
100
AcDbEntity
  8
Visible (ANSI)
100
AcDbVertex
100
AcDb2dVertex
 10
148.8420553172758
 20
56.54260493490649
 30
0.0
  0
SEQEND
  5
C68
330
C65
100
AcDbEntity
  8
Visible (ANSI)
  0
POLYLINE
  5
C80
330
6C
100
AcDbEntity
  8
Visible (ANSI)
100
AcDb2dPolyline
 66
     1
 10
0.0
 20
0.0
 30
0.0
 70
   128
  0
VERTEX
  5
C81
330
C80
100
AcDbEntity
  8
Visible (ANSI)
100
AcDbVertex
100
AcDb2dVertex
 10
148.8735184552466
 20
87.83809398160061
 30
0.0
  0
VERTEX
  5
C82
330
C80
100
AcDbEntity
  8
Visible (ANSI)
100
AcDbVertex
100
AcDb2dVertex
 10
148.8687131499743
 20
87.83647659123756
 30
0.0
  0
VERTEX
  5
C84
330
C80
100
AcDbEntity
  8
Visible (ANSI)
100
AcDbVertex
100
AcDb2dVertex
 10
148.8642536884105
 20
87.83468454352322
 30
0.0
  0
VERTEX
  5
C85
330
C80
100
AcDbEntity
  8
Visible (ANSI)
100
AcDbVertex
100
AcDb2dVertex
 10
148.8601591670083
 20
87.8327346146907
 30
0.0
  0
VERTEX
  5
C86
330
C80
100
AcDbEntity
  8
Visible (ANSI)
100
AcDbVertex
100
AcDb2dVertex
 10
148.8564471189429
 20
87.8306341417773
 30
0.0
  0
VERTEX
  5
C87
330
C80
100
AcDbEntity
  8
Visible (ANSI)
100
AcDbVertex
100
AcDb2dVertex
 10
148.8531334403953
 20
87.82840122187209
 30
0.0
  0
VERTEX
  5
C88
330
C80
100
AcDbEntity
  8
Visible (ANSI)
100
AcDbVertex
100
AcDb2dVertex
 10
148.8502323202452
 20
87.82605451808027
 30
0.0
  0
VERTEX
  5
C89
330
C80
100
AcDbEntity
  8
Visible (ANSI)
100
AcDbVertex
100
AcDb2dVertex
 10
148.8477561816494
 20
87.82360306675119
 30
0.0
  0
VERTEX
  5
C8A
330
C80
100
AcDbEntity
  8
Visible (ANSI)
100
AcDbVertex
100
AcDb2dVertex
 10
148.8457156289245
 20
87.82106646866186
 30
0.0
  0
VERTEX
  5
C8B
330
C80
100
AcDbEntity
  8
Visible (ANSI)
100
AcDbVertex
100
AcDb2dVertex
 10
148.84411939942
 20
87.81846131039023
 30
0.0
  0
VERTEX
  5
C8C
330
C80
100
AcDbEntity
  8
Visible (ANSI)
100
AcDbVertex
100
AcDb2dVertex
 10
148.8429743243037
 20
87.81580784964811
 30
0.0
  0
VERTEX
  5
C8D
330
C80
100
AcDbEntity
  8
Visible (ANSI)
100
AcDbVertex
100
AcDb2dVertex
 10
148.8422853139453
 20
87.81311643706514
 30
0.0
  0
VERTEX
  5
C8E
330
C80
100
AcDbEntity
  8
Visible (ANSI)
100
AcDbVertex
100
AcDb2dVertex
 10
148.8420553172758
 20
87.81040770028955
 30
0.0
  0
VERTEX
  5
C8F
330
C80
100
AcDbEntity
  8
Visible (ANSI)
100
AcDbVertex
100
AcDb2dVertex
 10
148.8422853153712
 20
87.80770233923242
 30
0.0
  0
VERTEX
  5
C90
330
C80
100
AcDbEntity
  8
Visible (ANSI)
100
AcDbVertex
100
AcDb2dVertex
 10
148.8429743271557
 20
87.80501092747064
 30
0.0
  0
VERTEX
  5
C91
330
C80
100
AcDbEntity
  8
Visible (ANSI)
100
AcDbVertex
100
AcDb2dVertex
 10
148.84411939942
 20
87.80235409183122
 30
0.0
  0
VERTEX
  5
C92
330
C80
100
AcDbEntity
  8
Visible (ANSI)
100
AcDbVertex
100
AcDb2dVertex
 10
148.8457156267856
 20
87.79975230886746
 30
0.0
  0
VERTEX
  5
C93
330
C80
100
AcDbEntity
  8
Visible (ANSI)
100
AcDbVertex
100
AcDb2dVertex
 10
148.8477561816494
 20
87.79721571200985
 30
0.0
  0
VERTEX
  5
C94
330
C80
100
AcDbEntity
  8
Visible (ANSI)
100
AcDbVertex
100
AcDb2dVertex
 10
148.8502323227407
 20
87.79476426047549
 30
0.0
  0
VERTEX
  5
C95
330
C80
100
AcDbEntity
  8
Visible (ANSI)
100
AcDbVertex
100
AcDb2dVertex
 10
148.8531334407519
 20
87.79241755709426
 30
0.0
  0
VERTEX
  5
C96
330
C80
100
AcDbEntity
  8
Visible (ANSI)
100
AcDbVertex
100
AcDb2dVertex
 10
148.8564471210818
 20
87.79018463657319
 30
0.0
  0
VERTEX
  5
C97
330
C80
100
AcDbEntity
  8
Visible (ANSI)
100
AcDbVertex
100
AcDb2dVertex
 10
148.8601591695038
 20
87.78808416396772
 30
0.0
  0
VERTEX
  5
C98
330
C80
100
AcDbEntity
  8
Visible (ANSI)
100
AcDbVertex
100
AcDb2dVertex
 10
148.8642536891681
 20
87.7861308579027
 30
0.0
  0
VERTEX
  5
C99
330
C80
100
AcDbEntity
  8
Visible (ANSI)
100
AcDbVertex
100
AcDb2dVertex
 10
148.8687131461976
 20
87.78434218616988
 30
0.0
  0
VERTEX
  5
C9A
330
C80
100
AcDbEntity
  8
Visible (ANSI)
100
AcDbVertex
100
AcDb2dVertex
 10
148.8735184552466
 20
87.78272479716047
 30
0.0
  0
SEQEND
  5
C83
330
C80
100
AcDbEntity
  8
Visible (ANSI)
  0
LINE
  5
C9B
330
6C
100
AcDbEntity
  8
Visible (ANSI)
100
AcDbLine
 10
149.1682334359078
 20
56.7021326636085
 30
0.0
 11
149.2836956312802
 21
56.76862291983514
 31
0.0
  0
LINE
  5
C9C
330
6C
100
AcDbEntity
  8
Visible (ANSI)
100
AcDbLine
 10
148.9324067616368
 20
87.87200451719053
 30
0.0
 11
148.8735184554748
 21
87.83809299703593
 31
0.0
  0
LINE
  5
C9D
330
6C
100
AcDbEntity
  8
Visible (ANSI)
100
AcDbLine
 10
148.8928315881342
 20
87.82697130361134
 30
0.0
 11
148.8735184554748
 21
87.83809299703593
 31
0.0
  0
LINE
  5
C9E
330
6C
100
AcDbEntity
  8
Visible (ANSI)
100
AcDbLine
 10
176.0341707287365
 20
72.19772027723799
 30
0.0
 11
176.0389238596707
 21
72.19457741745812
 31
0.0
  0
LINE
  5
C9F
330
6C
100
AcDbEntity
  8
Visible (ANSI)
100
AcDbLine
 10
175.9933946436006
 20
72.27335516508412
 30
0.0
 11
175.993731359352
 21
72.26780593507353
 31
0.0
  0
LINE
  5
CA0
330
6C
100
AcDbEntity
  8
Visible Narrow (ANSI)
100
AcDbLine
 10
148.8735184554748
 20
56.48280551470467
 30
0.0
 11
175.9452120586404
 21
40.89325398783727
 31
0.0
  0
LINE
  5
CA1
330
6C
100
AcDbEntity
  8
Visible Narrow (ANSI)
100
AcDbLine
 10
176.0971295311609
 20
72.16105801603347
 30
0.0
 11
176.097129531161
 21
40.925369375976
 31
0.0
  0
LINE
  5
CA2
330
6C
100
AcDbEntity
  8
Visible Narrow (ANSI)
100
AcDbLine
 10
175.9452120586404
 20
40.89325398783727
 30
0.0
 11
175.9452120586404
 21
72.19317340417216
 31
0.0
  0
LINE
  5
CA3
330
6C
100
AcDbEntity
  8
Visible Narrow (ANSI)
100
AcDbLine
 10
148.977254194483
 20
87.89829339110786
 30
0.0
 11
175.9933937921528
 21
72.34073328834186
 31
0.0
  0
LINE
  5
CA4
330
6C
100
AcDbEntity
  8
Visible Narrow (ANSI)
100
AcDbLine
 10
175.9452120586404
 20
72.19317340417217
 30
0.0
 11
148.8735184554748
 21
87.78272493103957
 31
0.0
  0
LINE
  5
CA5
330
6C
100
AcDbEntity
  8
Visible Narrow (ANSI)
100
AcDbLine
 10
148.8735184554748
 20
87.78272493103957
 30
0.0
 11
148.8735184554748
 21
56.48280551470467
 31
0.0
  0
LINE
  5
CA6
330
6C
100
AcDbEntity
  8
Visible (ANSI)
100
AcDbLine
 10
148.9097929117739
 20
56.42543967687855
 30
0.0
 11
175.9536411231544
 21
40.85192324468912
 31
0.0
  0
LINE
  5
CA7
330
6C
100
AcDbEntity
  8
Visible (ANSI)
100
AcDbLine
 10
148.842055316735
 20
87.81040896403776
 30
0.0
 11
148.842055316735
 21
56.54260493584157
 31
0.0
  0
LINE
  5
CA8
330
6C
100
AcDbEntity
  8
Visible (ANSI)
100
AcDbLine
 10
175.7192174175603
 20
41.49573850040924
 30
0.0
 11
175.5197288384352
 21
41.61061633291132
 31
0.0
  0
LINE
  5
CA9
330
6C
100
AcDbEntity
  8
Visible (ANSI)
100
AcDbLine
 10
162.5327808027748
 20
49.08930231933232
 30
0.0
 11
162.3332922236497
 21
49.2041801518344
 31
0.0
  0
LINE
  5
CAA
330
6C
100
AcDbEntity
  8
Visible (ANSI)
100
AcDbLine
 10
149.3463441879893
 20
56.68286613825538
 30
0.0
 11
149.3266643812802
 21
56.69419898522192
 31
0.0
  0
LINE
  5
CAB
330
6C
100
AcDbEntity
  8
Visible (ANSI)
100
AcDbLine
 10
176.4465397179582
 20
72.36226996054416
 30
0.0
 11
176.4465397179582
 21
41.1265813204867
 31
0.0
  0
LINE
  5
CAC
330
6C
100
AcDbEntity
  8
Visible (ANSI)
100
AcDbLine
 10
149.3266643812802
 20
88.09950533561853
 30
0.0
 11
176.3428039789499
 21
72.54194523285254
 31
0.0
  0
LINE
  5
CAD
330
6C
100
AcDbEntity
  8
Visible (ANSI)
100
AcDbLine
 10
149.2836956312802
 20
56.76862291983514
 30
0.0
 11
149.2836956312802
 21
56.79234971593794
 31
0.0
  0
LINE
  5
CAE
330
6C
100
AcDbEntity
  8
Visible (ANSI)
100
AcDbLine
 10
149.2836956312802
 20
66.18768925971846
 30
0.0
 11
149.2836956312802
 21
66.41768969357629
 31
0.0
  0
LINE
  5
CAF
330
6C
100
AcDbEntity
  8
Visible (ANSI)
100
AcDbLine
 10
149.2836956312802
 20
71.80832574301091
 30
0.0
 11
149.2836956312802
 21
72.03832617686874
 31
0.0
  0
LINE
  5
CB0
330
6C
100
AcDbEntity
  8
Visible (ANSI)
100
AcDbLine
 10
149.2836956312802
 20
87.05430220394173
 30
0.0
 11
149.2836956312802
 21
87.28430263779953
 31
0.0
  0
DIMENSION
  5
CB1
330
6C
100
AcDbEntity
  8
Dimension (ANSI)
100
AcDbDimension
280
     0
  2
*D13
 10
89.26140064163076
 20
59.99348875621608
 30
0.0
 11
97.44499949533327
 21
68.31055657246982
 31
0.0
 70
   163
  1
<>{\P(10PL.)}
 42
0.5629999999999999
 73
     0
 74
     0
 75
     0
  3
Default (ANSI)
100
AcDbDiametricDimension
 15
89.48201165623073
 25
60.51146537753904
 35
0.0
 40
0.0
1001
ACAD_DSTYLE_DIMRADIAL_EXTENSION
1070
   387
1070
     1
1070
   388
1040
0.0
1070
   390
1040
0.0
1001
ACAD
1000
DSTYLE
1002
{
1070
   145
1040
-0.25
1070
   144
1040
1.00000000000002
1070
   271
1070
     3
1070
   272
1070
     2
1070
    48
1040
0.0
1070
    47
1040
0.0
1002
}
  0
DIMENSION
  5
D6C
330
6C
100
AcDbEntity
  8
Dimension (ANSI)
100
AcDbDimension
280
     0
  2
*D14
 10
94.41107622767091
 20
60.25247706687757
 30
0.0
 11
94.4110762276709
 21
55.25247706687757
 31
0.0
 70
   160
  1
<>
 42
9.999999999999992
 73
     0
 74
     0
 75
     0
  3
Default (ANSI)
100
AcDbAlignedDimension
 13
89.37170614893075
 23
50.25247706687757
 33
0.0
 14
89.37170614893075
 24
60.25247706687757
 34
0.0
 50
90.0
100
AcDbRotatedDimension
1001
ACAD
1000
DSTYLE
1002
{
1070
   289
1070
     1
1070
   271
1070
     2
1070
   272
1070
     3
1070
    48
1040
0.0
1070
    47
1040
0.0
1002
}
  0
MTEXT
  5
E56
102
{ACAD_REACTORS
330
E57
102
}
330
6C
100
AcDbEntity
  8
Symbol (ANSI)
100
AcDbMText
 10
119.4502046012059
 20
45.90621641572817
 30
0.0
 40
1.320000016313838
 41
5.398735896808894
 46
0.0
 71
     3
 72
     1
  1
{10 GA.\PC.R.S}
  7
Note Text (ANSI)
 73
     2
 44
0.9878841638565063
  0
LEADER
  5
E57
330
6C
100
AcDbEntity
  8
Symbol (ANSI)
100
AcDbLeader
  3
Default (ANSI)$7
 73
     0
 40
3.933345209096401
 41
5.030006745583289
 76
     3
 10
125.3333575491141
 20
40.5801356840651
 30
0.0
 10
121.0982821236691
 20
45.24468869373478
 30
0.0
 10
119.7966612941193
 20
45.24621640757125
 30
0.0
340
E56
210
0.0
220
0.0
230
-1.0
213
0.0
223
-0.6600000081569191
233
0.0
1001
ACAD
1000
DSTYLE
1002
{
1070
    77
1070
     0
1002
}
  0
LINE
  5
E58
330
6C
100
AcDbEntity
  8
Center Mark (ANSI)
  6
Continuous
100
AcDbLine
 10
36.77820614893079
 20
87.37747706687761
 30
0.0
 11
33.46520614893079
 21
87.37747706687761
 31
0.0
  0
LINE
  5
E59
330
6C
100
AcDbEntity
  8
Center Mark (ANSI)
  6
Continuous
100
AcDbLine
 10
35.12170614893078
 20
89.0339770668776
 30
0.0
 11
35.12170614893078
 21
85.72097706687761
 31
0.0
  0
LINE
  5
E5A
330
6C
100
AcDbEntity
  8
Center Mark (ANSI)
  6
Continuous
100
AcDbLine
 10
33.46520614893079
 20
33.1274770668776
 30
0.0
 11
36.77820614893079
 21
33.1274770668776
 31
0.0
  0
LINE
  5
E5B
330
6C
100
AcDbEntity
  8
Center Mark (ANSI)
  6
Continuous
100
AcDbLine
 10
33.46520614893079
 20
87.37747706687761
 30
0.0
 11
36.77820614893079
 21
87.37747706687761
 31
0.0
  0
LINE
  5
E5C
330
6C
100
AcDbEntity
  8
Centerline (ANSI)
  6
Continuous
100
AcDbLine
 10
35.12170614893078
 20
31.47097706687759
 30
0.0
 11
35.12170614893078
 21
89.0339770668776
 31
0.0
  0
LINE
  5
E5D
330
6C
100
AcDbEntity
  8
Center Mark (ANSI)
  6
Continuous
100
AcDbLine
 10
63.90320614893078
 20
87.37747706687761
 30
0.0
 11
60.59020614893078
 21
87.37747706687761
 31
0.0
  0
LINE
  5
E5E
330
6C
100
AcDbEntity
  8
Center Mark (ANSI)
  6
Continuous
100
AcDbLine
 10
63.90320614893077
 20
33.12747706687756
 30
0.0
 11
60.59020614893078
 21
33.12747706687756
 31
0.0
  0
LINE
  5
E5F
330
6C
100
AcDbEntity
  8
Centerline (ANSI)
  6
Continuous
100
AcDbLine
 10
62.24670614893078
 20
89.0339770668776
 30
0.0
 11
62.24670614893078
 21
31.47097706687756
 31
0.0
  0
LINE
  5
E60
330
6C
100
AcDbEntity
  8
Center Mark (ANSI)
  6
Continuous
100
AcDbLine
 10
87.71520614893079
 20
33.12747706687757
 30
0.0
 11
91.02820614893078
 21
33.12747706687757
 31
0.0
  0
LINE
  5
E61
330
6C
100
AcDbEntity
  8
Center Mark (ANSI)
  6
Continuous
100
AcDbLine
 10
87.71520614893079
 20
87.37747706687761
 30
0.0
 11
91.02820614893078
 21
87.37747706687761
 31
0.0
  0
LINE
  5
E62
330
6C
100
AcDbEntity
  8
Centerline (ANSI)
  6
Continuous
100
AcDbLine
 10
89.37170614893078
 20
31.47097706687757
 30
0.0
 11
89.37170614893078
 21
89.0339770668776
 31
0.0
  0
LINE
  5
E63
330
6C
100
AcDbEntity
  8
Center Mark (ANSI)
  6
Continuous
100
AcDbLine
 10
35.12170614893078
 20
61.90897706687759
 30
0.0
 11
35.12170614893078
 21
58.59597706687758
 31
0.0
  0
LINE
  5
E64
330
6C
100
AcDbEntity
  8
Center Mark (ANSI)
  6
Continuous
100
AcDbLine
 10
89.37170614893075
 20
61.90897706687756
 30
0.0
 11
89.37170614893075
 21
58.59597706687757
 31
0.0
  0
LINE
  5
E65
330
6C
100
AcDbEntity
  8
Centerline (ANSI)
  6
Continuous
100
AcDbLine
 10
33.46520614893079
 20
60.25247706687759
 30
0.0
 11
91.02820614893074
 21
60.25247706687757
 31
0.0
  0
LINE
  5
E66
330
6C
100
AcDbEntity
  8
Center Mark (ANSI)
  6
Continuous
100
AcDbLine
 10
35.12170614893078
 20
51.9089770668776
 30
0.0
 11
35.12170614893078
 21
48.59597706687759
 31
0.0
  0
LINE
  5
E67
330
6C
100
AcDbEntity
  8
Center Mark (ANSI)
  6
Continuous
100
AcDbLine
 10
89.37170614893075
 20
51.90897706687757
 30
0.0
 11
89.37170614893075
 21
48.59597706687758
 31
0.0
  0
LINE
  5
E68
330
6C
100
AcDbEntity
  8
Centerline (ANSI)
  6
Continuous
100
AcDbLine
 10
33.46520614893079
 20
50.2524770668776
 30
0.0
 11
91.02820614893074
 21
50.25247706687757
 31
0.0
  0
LINE
  5
E69
330
6C
100
AcDbEntity
  8
Center Mark (ANSI)
  6
Continuous
100
AcDbLine
 10
35.12170614893078
 20
34.7839770668776
 30
0.0
 11
35.12170614893078
 21
31.47097706687759
 31
0.0
  0
LINE
  5
E6A
330
6C
100
AcDbEntity
  8
Center Mark (ANSI)
  6
Continuous
100
AcDbLine
 10
89.37170614893078
 20
34.78397706687758
 30
0.0
 11
89.37170614893078
 21
31.47097706687757
 31
0.0
  0
LINE
  5
E6B
330
6C
100
AcDbEntity
  8
Centerline (ANSI)
  6
Continuous
100
AcDbLine
 10
33.46520614893079
 20
33.1274770668776
 30
0.0
 11
91.02820614893078
 21
33.12747706687757
 31
0.0
  0
LINE
  5
E6C
330
6C
100
AcDbEntity
  8
Center Mark (ANSI)
  6
Continuous
100
AcDbLine
 10
35.12170614893078
 20
89.0339770668776
 30
0.0
 11
35.12170614893078
 21
85.72097706687761
 31
0.0
  0
LINE
  5
E6D
330
6C
100
AcDbEntity
  8
Center Mark (ANSI)
  6
Continuous
100
AcDbLine
 10
89.37170614893078
 20
89.0339770668776
 30
0.0
 11
89.37170614893078
 21
85.72097706687761
 31
0.0
  0
LINE
  5
E6E
330
6C
100
AcDbEntity
  8
Centerline (ANSI)
  6
Continuous
100
AcDbLine
 10
33.46520614893079
 20
87.37747706687761
 30
0.0
 11
91.02820614893078
 21
87.37747706687761
 31
0.0
  0
MTEXT
  5
E6F
102
{ACAD_XDICTIONARY
360
E76
102
}
330
6C
100
AcDbEntity
  8
Symbol (ANSI)
100
AcDbMText
 10
102.6893354163538
 20
10.55605174905735
 30
0.0
 40
1.100000035105727
 41
81.21725818303634
 46
0.0
 71
     4
 72
     1
  3
{\fRomanS|b0|i0|c0|p2;\H2x;PART#: NPDD6060\P(DATA SUBJECT TO CHANGE WITHOUT NOTICE)\H1.6157x; \H0.61894x;\P \H1.352x; \H0.73963x;\P\H0.6x;THIS DRAWING IS PROPERTY OF HUBBELL INC. WIEGMANN\H1.5633x; \H0.63966x;\PALL INFORMATION IS PROPRIETARY AND NOT 
  1
TO BE DUPLICATED\H1.234x; \H0.81039x;\P\H1.2571x; }
  7
Note Text (ANSI)
 73
     1
 44
0.8026435375213623
  0
ENDSEC
  0
SECTION
  2
OBJECTS
  0
DICTIONARY
  5
C
330
0
100
AcDbDictionary
281
     1
  3
ACAD_CIP_PREVIOUS_PRODUCT_INFO
350
E71
  3
ACAD_COLOR
350
63
  3
ACAD_GROUP
350
D
  3
ACAD_LAYOUT
350
62
  3
ACAD_MATERIAL
350
10
  3
ACAD_MLEADERSTYLE
350
66
  3
ACAD_MLINESTYLE
350
5F
  3
ACAD_PLOTSETTINGS
350
61
  3
ACAD_PLOTSTYLENAME
350
E
  3
ACAD_SCALELIST
350
42
  3
ACAD_TABLESTYLE
350
64
  3
ACAD_VISUALSTYLE
350
29
  3
ACDB_RECOMPOSE_DATA
350
E78
  3
AcDbVariableDictionary
350
76
  0
DICTIONARY
  5
E76
330
E6F
100
AcDbDictionary
280
     1
281
     1
  3
ACAD_MTEXT_2008_RT
360
E77
  0
XRECORD
  5
E71
102
{ACAD_REACTORS
330
C
102
}
330
C
100
AcDbXrecord
280
     1
300
INVNTOR
300
2012
300
PDSP_F_S
  0
DICTIONARY
  5
63
102
{ACAD_REACTORS
330
C
102
}
330
C
100
AcDbDictionary
281
     1
  0
DICTIONARY
  5
D
102
{ACAD_REACTORS
330
C
102
}
330
C
100
AcDbDictionary
281
     1
  0
DICTIONARY
  5
62
102
{ACAD_REACTORS
330
C
102
}
330
C
100
AcDbDictionary
281
     1
  3
Layout1
350
6B
  3
Layout2
350
73
  3
Model
350
6F
  0
DICTIONARY
  5
10
102
{ACAD_REACTORS
330
C
102
}
330
C
100
AcDbDictionary
281
     1
  3
ByBlock
350
19
  3
ByLayer
350
11
  3
Global
350
21
  0
DICTIONARY
  5
66
102
{ACAD_REACTORS
330
C
102
}
330
C
100
AcDbDictionary
281
     1
  3
Standard
350
67
  0
DICTIONARY
  5
5F
102
{ACAD_REACTORS
330
C
102
}
330
C
100
AcDbDictionary
281
     1
  3
Standard
350
60
  0
DICTIONARY
  5
61
102
{ACAD_REACTORS
330
C
102
}
330
C
100
AcDbDictionary
281
     1
  0
ACDBDICTIONARYWDFLT
  5
E
102
{ACAD_REACTORS
330
C
102
}
330
C
100
AcDbDictionary
281
     1
  3
Normal
350
F
100
AcDbDictionaryWithDefault
340
F
  0
DICTIONARY
  5
42
102
{ACAD_REACTORS
330
C
102
}
330
C
100
AcDbDictionary
281
     1
  3
A0
350
43
  3
A1
350
44
  3
A2
350
45
  3
A3
350
46
  3
A4
350
47
  3
A5
350
48
  3
A6
350
49
  3
A7
350
4A
  3
A8
350
4B
  3
A9
350
4C
  3
B0
350
4D
  3
B1
350
4E
  3
B2
350
4F
  3
B3
350
50
  3
B4
350
51
  3
B5
350
52
  3
B6
350
53
  0
DICTIONARY
  5
64
102
{ACAD_REACTORS
330
C
102
}
330
C
100
AcDbDictionary
281
     1
  3
Standard
350
65
  0
DICTIONARY
  5
29
102
{ACAD_REACTORS
330
C
102
}
330
C
100
AcDbDictionary
281
     1
  3
2dWireframe
350
2F
  3
Basic
350
2E
  3
Brighten
350
35
  3
ColorChange
350
39
  3
Conceptual
350
32
  3
Dim
350
34
  3
EdgeColorOff
350
41
  3
Facepattern
350
38
  3
Flat
350
2A
  3
FlatWithEdges
350
2B
  3
Gouraud
350
2C
  3
GouraudWithEdges
350
2D
  3
Hidden
350
31
  3
JitterOff
350
3F
  3
Linepattern
350
37
  3
OverhangOff
350
40
  3
Realistic
350
33
  3
Shaded
350
3E
  3
Shaded with edges
350
3D
  3
Shades of Gray
350
3A
  3
Sketchy
350
3B
  3
Thicken
350
36
  3
Wireframe
350
30
  3
X-Ray
350
3C
  0
XRECORD
  5
E78
102
{ACAD_REACTORS
330
C
102
}
330
C
100
AcDbXrecord
280
     1
 90
        1
330
65
330
E6F
  0
DICTIONARY
  5
76
102
{ACAD_REACTORS
330
C
102
}
330
C
100
AcDbDictionary
281
     1
  3
CANNOSCALE
350
79
  3
CMLEADERSTYLE
350
78
  3
CTABLESTYLE
350
77
  0
XRECORD
  5
E77
102
{ACAD_REACTORS
330
E76
102
}
330
E76
100
AcDbXrecord
280
     1
 40
3068383.0
  1
\pxsm0.94;{\fRomanS|b0|i0;\H2.2000;PART#: NPDD6060\P(DATA SUBJECT TO CHANGE WITHOUT NOTICE)\P \P\fRomanS|b0|i0;\H1.3200;THIS DRAWING IS PROPERTY OF HUBBELL INC. WIEGMANN\PALL INFORMATION IS PROPRIETARY AND NOT TO BE DUPLICATED\P}
  0
LAYOUT
  5
6B
102
{ACAD_REACTORS
330
62
102
}
330
62
100
AcDbPlotSettings
  1

  2

  4

  6

 40
0.0
 41
0.0
 42
0.0
 43
0.0
 44
0.0
 45
0.0
 46
0.0
 47
0.0
 48
0.0
 49
0.0
140
0.0
141
0.0
142
1.0
143
1.0
 70
   688
 72
     0
 73
     0
 74
     5
  7

 75
    16
147
1.0
 76
     0
 77
     2
 78
   300
148
0.0
149
0.0
100
AcDbLayout
  1
Layout1
 70
     1
 71
     1
 10
0.0
 20
0.0
 11
12.0
 21
9.0
 12
0.0
 22
0.0
 32
0.0
 14
0.0
 24
0.0
 34
0.0
 15
0.0
 25
0.0
 35
0.0
146
0.0
 13
0.0
 23
0.0
 33
0.0
 16
1.0
 26
0.0
 36
0.0
 17
0.0
 27
1.0
 37
0.0
 76
     0
330
68
  0
LAYOUT
  5
73
102
{ACAD_REACTORS
330
62
102
}
330
62
100
AcDbPlotSettings
  1

  2

  4

  6

 40
0.0
 41
0.0
 42
0.0
 43
0.0
 44
0.0
 45
0.0
 46
0.0
 47
0.0
 48
0.0
 49
0.0
140
0.0
141
0.0
142
1.0
143
1.0
 70
   688
 72
     0
 73
     0
 74
     5
  7

 75
    16
147
1.0
 76
     0
 77
     2
 78
   300
148
0.0
149
0.0
100
AcDbLayout
  1
Layout2
 70
     1
 71
     2
 10
0.0
 20
0.0
 11
12.0
 21
9.0
 12
0.0
 22
0.0
 32
0.0
 14
0.0
 24
0.0
 34
0.0
 15
0.0
 25
0.0
 35
0.0
146
0.0
 13
0.0
 23
0.0
 33
0.0
 16
1.0
 26
0.0
 36
0.0
 17
0.0
 27
1.0
 37
0.0
 76
     0
330
70
  0
LAYOUT
  5
6F
102
{ACAD_REACTORS
330
62
102
}
330
62
100
AcDbPlotSettings
  1

  2

  4

  6

 40
0.0
 41
0.0
 42
0.0
 43
0.0
 44
0.0
 45
0.0
 46
0.0
 47
0.0
 48
0.0
 49
0.0
140
0.0
141
0.0
142
1.0
143
1.0
 70
  1712
 72
     0
 73
     0
 74
     0
  7

 75
     0
147
1.0
 76
     0
 77
     2
 78
   300
148
0.0
149
0.0
100
AcDbLayout
  1
Model
 70
     1
 71
     0
 10
0.0
 20
0.0
 11
12.0
 21
9.0
 12
0.0
 22
0.0
 32
0.0
 14
0.0
 24
0.0
 34
0.0
 15
0.0
 25
0.0
 35
0.0
146
0.0
 13
0.0
 23
0.0
 33
0.0
 16
1.0
 26
0.0
 36
0.0
 17
0.0
 27
1.0
 37
0.0
 76
     0
330
6C
  0
MATERIAL
  5
19
102
{ACAD_XDICTIONARY
360
1A
102
}
102
{ACAD_REACTORS
330
10
102
}
330
10
100
AcDbMaterial
  1
ByBlock
 72
     0
 43
0.0208333333333333
 43
0.0
 43
0.0
 43
0.0
 43
0.0
 43
0.0208333333333333
 43
0.0
 43
0.0
 43
0.0
 43
0.0
 43
1.0
 43
0.0
 43
0.0
 43
0.0
 43
0.0
 43
1.0
 77
     0
 47
0.0208333333333333
 47
0.0
 47
0.0
 47
0.0
 47
0.0
 47
0.0208333333333333
 47
0.0
 47
0.0
 47
0.0
 47
0.0
 47
1.0
 47
0.0
 47
0.0
 47
0.0
 47
0.0
 47
1.0
171
     0
 49
0.0208333333333333
 49
0.0
 49
0.0
 49
0.0
 49
0.0
 49
0.0208333333333333
 49
0.0
 49
0.0
 49
0.0
 49
0.0
 49
1.0
 49
0.0
 49
0.0
 49
0.0
 49
0.0
 49
1.0
175
     0
142
0.0208333333333333
142
0.0
142
0.0
142
0.0
142
0.0
142
0.0208333333333333
142
0.0
142
0.0
142
0.0
142
0.0
142
1.0
142
0.0
142
0.0
142
0.0
142
0.0
142
1.0
179
     0
144
0.0208333333333333
144
0.0
144
0.0
144
0.0
144
0.0
144
0.0208333333333333
144
0.0
144
0.0
144
0.0
144
0.0
144
1.0
144
0.0
144
0.0
144
0.0
144
0.0
144
1.0
147
0.0208333333333333
147
0.0
147
0.0
147
0.0
147
0.0
147
0.0208333333333333
147
0.0
147
0.0
147
0.0
147
0.0
147
1.0
147
0.0
147
0.0
147
0.0
147
0.0
147
1.0
  0
MATERIAL
  5
11
102
{ACAD_XDICTIONARY
360
12
102
}
102
{ACAD_REACTORS
330
10
102
}
330
10
100
AcDbMaterial
  1
ByLayer
 72
     0
 43
0.0208333333333333
 43
0.0
 43
0.0
 43
0.0
 43
0.0
 43
0.0208333333333333
 43
0.0
 43
0.0
 43
0.0
 43
0.0
 43
1.0
 43
0.0
 43
0.0
 43
0.0
 43
0.0
 43
1.0
 77
     0
 47
0.0208333333333333
 47
0.0
 47
0.0
 47
0.0
 47
0.0
 47
0.0208333333333333
 47
0.0
 47
0.0
 47
0.0
 47
0.0
 47
1.0
 47
0.0
 47
0.0
 47
0.0
 47
0.0
 47
1.0
171
     0
 49
0.0208333333333333
 49
0.0
 49
0.0
 49
0.0
 49
0.0
 49
0.0208333333333333
 49
0.0
 49
0.0
 49
0.0
 49
0.0
 49
1.0
 49
0.0
 49
0.0
 49
0.0
 49
0.0
 49
1.0
175
     0
142
0.0208333333333333
142
0.0
142
0.0
142
0.0
142
0.0
142
0.0208333333333333
142
0.0
142
0.0
142
0.0
142
0.0
142
1.0
142
0.0
142
0.0
142
0.0
142
0.0
142
1.0
179
     0
144
0.0208333333333333
144
0.0
144
0.0
144
0.0
144
0.0
144
0.0208333333333333
144
0.0
144
0.0
144
0.0
144
0.0
144
1.0
144
0.0
144
0.0
144
0.0
144
0.0
144
1.0
147
0.0208333333333333
147
0.0
147
0.0
147
0.0
147
0.0
147
0.0208333333333333
147
0.0
147
0.0
147
0.0
147
0.0
147
1.0
147
0.0
147
0.0
147
0.0
147
0.0
147
1.0
  0
MATERIAL
  5
21
102
{ACAD_XDICTIONARY
360
22
102
}
102
{ACAD_REACTORS
330
10
102
}
330
10
100
AcDbMaterial
  1
Global
 72
     0
 43
0.0208333333333333
 43
0.0
 43
0.0
 43
0.0
 43
0.0
 43
0.0208333333333333
 43
0.0
 43
0.0
 43
0.0
 43
0.0
 43
1.0
 43
0.0
 43
0.0
 43
0.0
 43
0.0
 43
1.0
 77
     0
 47
0.0208333333333333
 47
0.0
 47
0.0
 47
0.0
 47
0.0
 47
0.0208333333333333
 47
0.0
 47
0.0
 47
0.0
 47
0.0
 47
1.0
 47
0.0
 47
0.0
 47
0.0
 47
0.0
 47
1.0
171
     0
 49
0.0208333333333333
 49
0.0
 49
0.0
 49
0.0
 49
0.0
 49
0.0208333333333333
 49
0.0
 49
0.0
 49
0.0
 49
0.0
 49
1.0
 49
0.0
 49
0.0
 49
0.0
 49
0.0
 49
1.0
175
     0
142
0.0208333333333333
142
0.0
142
0.0
142
0.0
142
0.0
142
0.0208333333333333
142
0.0
142
0.0
142
0.0
142
0.0
142
1.0
142
0.0
142
0.0
142
0.0
142
0.0
142
1.0
179
     0
144
0.0208333333333333
144
0.0
144
0.0
144
0.0
144
0.0
144
0.0208333333333333
144
0.0
144
0.0
144
0.0
144
0.0
144
1.0
144
0.0
144
0.0
144
0.0
144
0.0
144
1.0
147
0.0208333333333333
147
0.0
147
0.0
147
0.0
147
0.0
147
0.0208333333333333
147
0.0
147
0.0
147
0.0
147
0.0
147
1.0
147
0.0
147
0.0
147
0.0
147
0.0
147
1.0
  0
MLEADERSTYLE
  5
67
102
{ACAD_XDICTIONARY
360
E74
102
}
102
{ACAD_REACTORS
330
66
102
}
330
66
100
AcDbMLeaderStyle
179
     2
170
     2
171
     1
172
     0
 90
        2
 40
0.0
 41
0.0
173
     1
 91
-1056964608
340
5B
 92
       -2
290
     1
 42
0.09
291
     1
 43
0.36
  3
Standard
 44
0.18
300

342
55
174
     1
178
     6
175
     1
176
     0
 93
-1056964608
 45
0.18
292
     0
297
     0
 46
0.18
 94
-1056964608
 47
1.0
 49
1.0
140
1.0
293
     1
141
0.0
294
     1
177
     0
142
1.0
295
     0
296
     0
143
0.125
271
     0
272
     9
273
     9
  0
MLINESTYLE
  5
60
102
{ACAD_REACTORS
330
5F
102
}
330
5F
100
AcDbMlineStyle
  2
STANDARD
 70
     0
  3

 62
   256
 51
90.0
 52
90.0
 71
     2
 49
0.5
 62
   256
  6
BYLAYER
 49
-0.5
 62
   256
  6
BYLAYER
  0
ACDBPLACEHOLDER
  5
F
102
{ACAD_REACTORS
330
E
102
}
330
E
  0
SCALE
  5
43
102
{ACAD_REACTORS
330
42
102
}
330
42
100
AcDbScale
 70
     0
300
1:1
140
1.0
141
1.0
290
     1
  0
SCALE
  5
44
102
{ACAD_REACTORS
330
42
102
}
330
42
100
AcDbScale
 70
     0
300
1/128" = 1'-0"
140
0.0078125
141
12.0
290
     0
  0
SCALE
  5
45
102
{ACAD_REACTORS
330
42
102
}
330
42
100
AcDbScale
 70
     0
300
1/64" = 1'-0"
140
0.015625
141
12.0
290
     0
  0
SCALE
  5
46
102
{ACAD_REACTORS
330
42
102
}
330
42
100
AcDbScale
 70
     0
300
1/32" = 1'-0"
140
0.03125
141
12.0
290
     0
  0
SCALE
  5
47
102
{ACAD_REACTORS
330
42
102
}
330
42
100
AcDbScale
 70
     0
300
1/16" = 1'-0"
140
0.0625
141
12.0
290
     0
  0
SCALE
  5
48
102
{ACAD_REACTORS
330
42
102
}
330
42
100
AcDbScale
 70
     0
300
3/32" = 1'-0"
140
0.09375
141
12.0
290
     0
  0
SCALE
  5
49
102
{ACAD_REACTORS
330
42
102
}
330
42
100
AcDbScale
 70
     0
300
1/8" = 1'-0"
140
0.125
141
12.0
290
     0
  0
SCALE
  5
4A
102
{ACAD_REACTORS
330
42
102
}
330
42
100
AcDbScale
 70
     0
300
3/16" = 1'-0"
140
0.1875
141
12.0
290
     0
  0
SCALE
  5
4B
102
{ACAD_REACTORS
330
42
102
}
330
42
100
AcDbScale
 70
     0
300
1/4" = 1'-0"
140
0.25
141
12.0
290
     0
  0
SCALE
  5
4C
102
{ACAD_REACTORS
330
42
102
}
330
42
100
AcDbScale
 70
     0
300
3/8" = 1'-0"
140
0.375
141
12.0
290
     0
  0
SCALE
  5
4D
102
{ACAD_REACTORS
330
42
102
}
330
42
100
AcDbScale
 70
     0
300
1/2" = 1'-0"
140
0.5
141
12.0
290
     0
  0
SCALE
  5
4E
102
{ACAD_REACTORS
330
42
102
}
330
42
100
AcDbScale
 70
     0
300
3/4" = 1'-0"
140
0.75
141
12.0
290
     0
  0
SCALE
  5
4F
102
{ACAD_REACTORS
330
42
102
}
330
42
100
AcDbScale
 70
     0
300
1" = 1'-0"
140
1.0
141
12.0
290
     0
  0
SCALE
  5
50
102
{ACAD_REACTORS
330
42
102
}
330
42
100
AcDbScale
 70
     0
300
1-1/2" = 1'-0"
140
1.5
141
12.0
290
     0
  0
SCALE
  5
51
102
{ACAD_REACTORS
330
42
102
}
330
42
100
AcDbScale
 70
     0
300
3" = 1'-0"
140
3.0
141
12.0
290
     0
  0
SCALE
  5
52
102
{ACAD_REACTORS
330
42
102
}
330
42
100
AcDbScale
 70
     0
300
6" = 1'-0"
140
6.0
141
12.0
290
     0
  0
SCALE
  5
53
102
{ACAD_REACTORS
330
42
102
}
330
42
100
AcDbScale
 70
     0
300
1'-0" = 1'-0"
140
12.0
141
12.0
290
     0
  0
TABLESTYLE
  5
65
102
{ACAD_XDICTIONARY
360
E72
102
}
102
{ACAD_REACTORS
330
64
102
}
330
64
100
AcDbTableStyle
280
     0
  3
Standard
 70
     0
 71
     0
 40
0.06
 41
0.06
280
     0
281
     0
  7
Standard
140
0.18
170
     2
 62
     0
 63
     7
283
     0
 90
      512
 91
        0
  1

274
    -2
284
     1
 64
     0
275
    -2
285
     1
 65
     0
276
    -2
286
     1
 66
     0
277
    -2
287
     1
 67
     0
278
    -2
288
     1
 68
     0
279
    -2
289
     1
 69
     0
  7
Standard
140
0.25
170
     5
 62
     0
 63
     7
283
     0
 90
      512
 91
        0
  1

274
    -2
284
     1
 64
     0
275
    -2
285
     1
 65
     0
276
    -2
286
     1
 66
     0
277
    -2
287
     1
 67
     0
278
    -2
288
     1
 68
     0
279
    -2
289
     1
 69
     0
  7
Standard
140
0.18
170
     5
 62
     0
 63
     7
283
     0
 90
      512
 91
        0
  1

274
    -2
284
     1
 64
     0
275
    -2
285
     1
 65
     0
276
    -2
286
     1
 66
     0
277
    -2
287
     1
 67
     0
278
    -2
288
     1
 68
     0
279
    -2
289
     1
 69
     0
  0
VISUALSTYLE
  5
2F
102
{ACAD_REACTORS
330
29
102
}
330
29
100
AcDbVisualStyle
  2
2dWireframe
 70
     4
177
     2
291
     0
 71
     0
176
     1
 72
     2
176
     1
 73
     0
176
     1
 90
        0
176
     1
 40
0.6
176
     1
 41
30.0
176
     1
 63
     7
421
 16777215
176
     1
 74
     1
176
     1
 91
        4
176
     1
 64
     7
176
     1
 65
   257
176
     1
 75
     1
176
     1
175
     1
176
     1
 42
1.0
176
     1
 92
        0
176
     1
 66
   257
176
     1
 43
1.0
176
     1
 76
     1
176
     1
 77
     6
176
     1
 78
     2
176
     1
 67
     7
176
     1
 79
     5
176
     1
170
     0
176
     1
171
     0
176
     1
290
     0
176
     1
 93
        1
176
     1
 44
0.0
176
     1
173
     0
176
     1
  0
VISUALSTYLE
  5
2E
102
{ACAD_REACTORS
330
29
102
}
330
29
100
AcDbVisualStyle
  2
Basic
 70
     7
177
     2
291
     1
 71
     1
176
     1
 72
     0
176
     1
 73
     1
176
     1
 90
        0
176
     1
 40
0.6
176
     1
 41
30.0
176
     1
 63
     7
421
 16777215
176
     1
 74
     0
176
     1
 91
        4
176
     1
 64
     7
176
     1
 65
   257
176
     1
 75
     1
176
     1
175
     1
176
     1
 42
1.0
176
     1
 92
        8
176
     1
 66
     7
176
     1
 43
1.0
176
     1
 76
     1
176
     1
 77
     6
176
     1
 78
     2
176
     1
 67
     7
176
     1
 79
     5
176
     1
170
     0
176
     1
171
     0
176
     1
290
     0
176
     1
 93
        1
176
     1
 44
0.0
176
     1
173
     0
176
     1
  0
VISUALSTYLE
  5
35
102
{ACAD_REACTORS
330
29
102
}
330
29
100
AcDbVisualStyle
  2
Brighten
 70
    12
177
     2
291
     1
 71
     2
176
     1
 72
     2
176
     1
 73
     0
176
     1
 90
        0
176
     1
 40
0.6
176
     1
 41
30.0
176
     1
 63
     7
421
 16777215
176
     1
 74
     1
176
     1
 91
        4
176
     1
 64
     7
176
     1
 65
   257
176
     1
 75
     1
176
     1
175
     1
176
     1
 42
1.0
176
     1
 92
        8
176
     1
 66
     7
176
     1
 43
1.0
176
     1
 76
     1
176
     1
 77
     6
176
     1
 78
     2
176
     1
 67
     7
176
     1
 79
     5
176
     1
170
     0
176
     1
171
     0
176
     1
290
     0
176
     1
 93
        1
176
     1
 44
50.0
176
     1
173
     0
176
     1
  0
VISUALSTYLE
  5
39
102
{ACAD_REACTORS
330
29
102
}
330
29
100
AcDbVisualStyle
  2
ColorChange
 70
    16
177
     2
291
     1
 71
     2
176
     1
 72
     2
176
     1
 73
     3
176
     1
 90
        0
176
     1
 40
0.6
176
     1
 41
30.0
176
     1
 63
     8
421
  8421504
176
     1
 74
     1
176
     1
 91
        4
176
     1
 64
     7
176
     1
 65
   257
176
     1
 75
     1
176
     1
175
     1
176
     1
 42
1.0
176
     1
 92
        8
176
     1
 66
     8
424
  8421504
176
     1
 43
1.0
176
     1
 76
     1
176
     1
 77
     6
176
     1
 78
     2
176
     1
 67
     7
176
     1
 79
     5
176
     1
170
     0
176
     1
171
     0
176
     1
290
     0
176
     1
 93
        1
176
     1
 44
0.0
176
     1
173
     0
176
     1
  0
VISUALSTYLE
  5
32
102
{ACAD_REACTORS
330
29
102
}
330
29
100
AcDbVisualStyle
  2
Conceptual
 70
     9
177
     2
291
     0
 71
     3
176
     1
 72
     2
176
     1
 73
     0
176
     1
 90
        0
176
     1
 40
0.6
176
     1
 41
30.0
176
     1
 63
     7
421
 16777215
176
     1
 74
     2
176
     1
 91
        2
176
     1
 64
     7
176
     1
 65
   257
176
     1
 75
     1
176
     1
175
     1
176
     1
 42
179.0
176
     1
 92
        8
176
     1
 66
     7
176
     1
 43
1.0
176
     1
 76
     1
176
     1
 77
     6
176
     1
 78
     2
176
     1
 67
     7
176
     1
 79
     3
176
     1
170
     0
176
     1
171
     0
176
     1
290
     0
176
     1
 93
        1
176
     1
 44
0.0
176
     1
173
     0
176
     1
  0
VISUALSTYLE
  5
34
102
{ACAD_REACTORS
330
29
102
}
330
29
100
AcDbVisualStyle
  2
Dim
 70
    11
177
     2
291
     1
 71
     2
176
     1
 72
     2
176
     1
 73
     0
176
     1
 90
        0
176
     1
 40
0.6
176
     1
 41
30.0
176
     1
 63
     7
421
 16777215
176
     1
 74
     1
176
     1
 91
        4
176
     1
 64
     7
176
     1
 65
   257
176
     1
 75
     1
176
     1
175
     1
176
     1
 42
1.0
176
     1
 92
        8
176
     1
 66
     7
176
     1
 43
1.0
176
     1
 76
     1
176
     1
 77
     6
176
     1
 78
     2
176
     1
 67
     7
176
     1
 79
     5
176
     1
170
     0
176
     1
171
     0
176
     1
290
     0
176
     1
 93
        1
176
     1
 44
-50.0
176
     1
173
     0
176
     1
  0
VISUALSTYLE
  5
41
102
{ACAD_REACTORS
330
29
102
}
330
29
100
AcDbVisualStyle
  2
EdgeColorOff
 70
    22
177
     2
291
     1
 71
     2
176
     0
 72
     2
176
     0
 73
     0
176
     0
 90
        0
176
     0
 40
0.6
176
     0
 41
30.0
176
     0
 63
     7
421
 16777215
176
     0
 74
     1
176
     0
 91
        4
176
     0
 64
     7
176
     0
 65
   257
176
     0
 75
     1
176
     0
175
     1
176
     0
 42
1.0
176
     0
 92
        8
176
     2
 66
     7
176
     0
 43
1.0
176
     0
 76
     1
176
     0
 77
     6
176
     0
 78
     2
176
     0
 67
     7
176
     0
 79
     5
176
     0
170
     0
176
     0
171
     0
176
     0
290
     0
176
     0
 93
        1
176
     0
 44
0.0
176
     0
173
     0
176
     0
  0
VISUALSTYLE
  5
38
102
{ACAD_REACTORS
330
29
102
}
330
29
100
AcDbVisualStyle
  2
Facepattern
 70
    15
177
     2
291
     1
 71
     2
176
     1
 72
     2
176
     1
 73
     0
176
     1
 90
        0
176
     1
 40
0.6
176
     1
 41
30.0
176
     1
 63
     7
421
 16777215
176
     1
 74
     1
176
     1
 91
        4
176
     1
 64
     7
176
     1
 65
   257
176
     1
 75
     1
176
     1
175
     1
176
     1
 42
1.0
176
     1
 92
        8
176
     1
 66
     7
176
     1
 43
1.0
176
     1
 76
     1
176
     1
 77
     6
176
     1
 78
     2
176
     1
 67
     7
176
     1
 79
     5
176
     1
170
     0
176
     1
171
     0
176
     1
290
     0
176
     1
 93
        1
176
     1
 44
0.0
176
     1
173
     0
176
     1
  0
VISUALSTYLE
  5
2A
102
{ACAD_REACTORS
330
29
102
}
330
29
100
AcDbVisualStyle
  2
Flat
 70
     0
177
     2
291
     1
 71
     2
176
     1
 72
     1
176
     1
 73
     1
176
     1
 90
        2
176
     1
 40
0.6
176
     1
 41
30.0
176
     1
 63
     7
421
 16777215
176
     1
 74
     0
176
     1
 91
        0
176
     1
 64
     7
176
     1
 65
   257
176
     1
 75
     1
176
     1
175
     1
176
     1
 42
1.0
176
     1
 92
        8
176
     1
 66
     7
176
     1
 43
1.0
176
     1
 76
     1
176
     1
 77
     6
176
     1
 78
     2
176
     1
 67
     7
176
     1
 79
     5
176
     1
170
     0
176
     1
171
     0
176
     1
290
     0
176
     1
 93
       13
176
     1
 44
0.0
176
     1
173
     0
176
     1
  0
VISUALSTYLE
  5
2B
102
{ACAD_REACTORS
330
29
102
}
330
29
100
AcDbVisualStyle
  2
FlatWithEdges
 70
     1
177
     2
291
     1
 71
     2
176
     1
 72
     1
176
     1
 73
     1
176
     1
 90
        2
176
     1
 40
0.6
176
     1
 41
30.0
176
     1
 63
     7
421
 16777215
176
     1
 74
     1
176
     1
 91
        0
176
     1
 64
     7
176
     1
 65
   257
176
     1
 75
     1
176
     1
175
     1
176
     1
 42
1.0
176
     1
 92
        0
176
     1
 66
   257
176
     1
 43
1.0
176
     1
 76
     1
176
     1
 77
     6
176
     1
 78
     2
176
     1
 67
     7
176
     1
 79
     5
176
     1
170
     0
176
     1
171
     0
176
     1
290
     0
176
     1
 93
       13
176
     1
 44
0.0
176
     1
173
     0
176
     1
  0
VISUALSTYLE
  5
2C
102
{ACAD_REACTORS
330
29
102
}
330
29
100
AcDbVisualStyle
  2
Gouraud
 70
     2
177
     2
291
     1
 71
     2
176
     1
 72
     2
176
     1
 73
     1
176
     1
 90
        2
176
     1
 40
0.6
176
     1
 41
30.0
176
     1
 63
     7
421
 16777215
176
     1
 74
     0
176
     1
 91
        0
176
     1
 64
     7
176
     1
 65
   257
176
     1
 75
     1
176
     1
175
     1
176
     1
 42
1.0
176
     1
 92
        0
176
     1
 66
     7
176
     1
 43
1.0
176
     1
 76
     1
176
     1
 77
     6
176
     1
 78
     2
176
     1
 67
     7
176
     1
 79
     5
176
     1
170
     0
176
     1
171
     0
176
     1
290
     0
176
     1
 93
       13
176
     1
 44
0.0
176
     1
173
     0
176
     1
  0
VISUALSTYLE
  5
2D
102
{ACAD_REACTORS
330
29
102
}
330
29
100
AcDbVisualStyle
  2
GouraudWithEdges
 70
     3
177
     2
291
     1
 71
     2
176
     1
 72
     2
176
     1
 73
     1
176
     1
 90
        2
176
     1
 40
0.6
176
     1
 41
30.0
176
     1
 63
     7
421
 16777215
176
     1
 74
     1
176
     1
 91
        0
176
     1
 64
     7
176
     1
 65
   257
176
     1
 75
     1
176
     1
175
     1
176
     1
 42
1.0
176
     1
 92
        0
176
     1
 66
   257
176
     1
 43
1.0
176
     1
 76
     1
176
     1
 77
     6
176
     1
 78
     2
176
     1
 67
     7
176
     1
 79
     5
176
     1
170
     0
176
     1
171
     0
176
     1
290
     0
176
     1
 93
       13
176
     1
 44
0.0
176
     1
173
     0
176
     1
  0
VISUALSTYLE
  5
31
102
{ACAD_REACTORS
330
29
102
}
330
29
100
AcDbVisualStyle
  2
Hidden
 70
     6
177
     2
291
     0
 71
     1
176
     1
 72
     2
176
     1
 73
     2
176
     1
 90
        0
176
     1
 40
0.6
176
     1
 41
30.0
176
     1
 63
     7
421
 16777215
176
     1
 74
     2
176
     1
 91
        2
176
     1
 64
     7
176
     1
 65
   257
176
     1
 75
     2
176
     1
175
     1
176
     1
 42
40.0
176
     1
 92
        0
176
     1
 66
   257
176
     1
 43
1.0
176
     1
 76
     1
176
     1
 77
     6
176
     1
 78
     2
176
     1
 67
     7
176
     1
 79
     3
176
     1
170
     0
176
     1
171
     0
176
     1
290
     0
176
     1
 93
        1
176
     1
 44
0.0
176
     1
173
     0
176
     1
  0
VISUALSTYLE
  5
3F
102
{ACAD_REACTORS
330
29
102
}
330
29
100
AcDbVisualStyle
  2
JitterOff
 70
    20
177
     2
291
     1
 71
     2
176
     0
 72
     2
176
     0
 73
     0
176
     0
 90
        0
176
     0
 40
0.6
176
     0
 41
30.0
176
     0
 63
     7
421
 16777215
176
     0
 74
     1
176
     0
 91
        4
176
     0
 64
     7
176
     0
 65
   257
176
     0
 75
     1
176
     0
175
     1
176
     0
 42
1.0
176
     0
 92
       10
176
     2
 66
     7
176
     0
 43
1.0
176
     0
 76
     1
176
     0
 77
     6
176
     0
 78
     2
176
     0
 67
     7
176
     0
 79
     5
176
     0
170
     0
176
     0
171
     0
176
     0
290
     0
176
     0
 93
        1
176
     0
 44
0.0
176
     0
173
     0
176
     0
  0
VISUALSTYLE
  5
37
102
{ACAD_REACTORS
330
29
102
}
330
29
100
AcDbVisualStyle
  2
Linepattern
 70
    14
177
     2
291
     1
 71
     2
176
     1
 72
     2
176
     1
 73
     0
176
     1
 90
        0
176
     1
 40
0.6
176
     1
 41
30.0
176
     1
 63
     7
421
 16777215
176
     1
 74
     1
176
     1
 91
        4
176
     1
 64
     7
176
     1
 65
   257
176
     1
 75
     7
176
     1
175
     7
176
     1
 42
1.0
176
     1
 92
        8
176
     1
 66
     7
176
     1
 43
1.0
176
     1
 76
     1
176
     1
 77
     6
176
     1
 78
     2
176
     1
 67
     7
176
     1
 79
     5
176
     1
170
     0
176
     1
171
     0
176
     1
290
     0
176
     1
 93
        1
176
     1
 44
0.0
176
     1
173
     0
176
     1
  0
VISUALSTYLE
  5
40
102
{ACAD_REACTORS
330
29
102
}
330
29
100
AcDbVisualStyle
  2
OverhangOff
 70
    21
177
     2
291
     1
 71
     2
176
     0
 72
     2
176
     0
 73
     0
176
     0
 90
        0
176
     0
 40
0.6
176
     0
 41
30.0
176
     0
 63
     7
421
 16777215
176
     0
 74
     1
176
     0
 91
        4
176
     0
 64
     7
176
     0
 65
   257
176
     0
 75
     1
176
     0
175
     1
176
     0
 42
1.0
176
     0
 92
        9
176
     2
 66
     7
176
     0
 43
1.0
176
     0
 76
     1
176
     0
 77
     6
176
     0
 78
     2
176
     0
 67
     7
176
     0
 79
     5
176
     0
170
     0
176
     0
171
     0
176
     0
290
     0
176
     0
 93
        1
176
     0
 44
0.0
176
     0
173
     0
176
     0
  0
VISUALSTYLE
  5
33
102
{ACAD_REACTORS
330
29
102
}
330
29
100
AcDbVisualStyle
  2
Realistic
 70
     8
177
     2
291
     0
 71
     2
176
     1
 72
     3
176
     1
 73
     0
176
     1
 90
        2
176
     1
 40
0.6
176
     1
 41
30.0
176
     1
 63
     7
421
 16777215
176
     1
 74
     0
176
     1
 91
        0
176
     1
 64
     7
176
     1
 65
   257
176
     1
 75
     1
176
     1
175
     1
176
     1
 42
1.0
176
     1
 92
        8
176
     1
 66
   257
176
     1
 43
1.0
176
     1
 76
     1
176
     1
 77
     6
176
     1
 78
     2
176
     1
 67
     7
176
     1
 79
     3
176
     1
170
     0
176
     1
171
     0
176
     1
290
     0
176
     1
 93
       13
176
     1
 44
0.0
176
     1
173
     0
176
     1
  0
VISUALSTYLE
  5
3E
102
{ACAD_REACTORS
330
29
102
}
330
29
100
AcDbVisualStyle
  2
Shaded
 70
    27
177
     2
291
     0
 71
     2
176
     1
 72
     2
176
     1
 73
     1
176
     1
 90
        2
176
     1
 40
0.6
176
     1
 41
30.0
176
     1
 63
     7
421
 16777215
176
     1
 74
     0
176
     1
 91
        4
176
     1
 64
     7
176
     1
 65
   257
176
     1
 75
     1
176
     1
175
     1
176
     1
 42
1.0
176
     1
 92
        8
176
     1
 66
   257
176
     1
 43
1.0
176
     1
 76
     1
176
     1
 77
     6
176
     1
 78
     2
176
     1
 67
     8
425
  7895160
176
     1
 79
     3
176
     1
170
     0
176
     1
171
     0
176
     1
290
     0
176
     1
 93
        5
176
     1
 44
0.0
176
     1
173
     0
176
     1
  0
VISUALSTYLE
  5
3D
102
{ACAD_REACTORS
330
29
102
}
330
29
100
AcDbVisualStyle
  2
Shaded with edges
 70
    26
177
     2
291
     0
 71
     2
176
     1
 72
     2
176
     1
 73
     1
176
     1
 90
        2
176
     1
 40
0.6
176
     1
 41
30.0
176
     1
 63
     7
421
 16777215
176
     1
 74
     1
176
     1
 91
       10
176
     1
 64
     7
176
     1
 65
   257
176
     1
 75
     2
176
     1
175
     1
176
     1
 42
1.0
176
     1
 92
        8
176
     1
 66
   257
176
     1
 43
1.0
176
     1
 76
     1
176
     1
 77
     6
176
     1
 78
     2
176
     1
 67
     7
176
     1
 79
     3
176
     1
170
     0
176
     1
171
     0
176
     1
290
     0
176
     1
 93
        5
176
     1
 44
0.0
176
     1
173
     0
176
     1
  0
VISUALSTYLE
  5
3A
102
{ACAD_REACTORS
330
29
102
}
330
29
100
AcDbVisualStyle
  2
Shades of Gray
 70
    23
177
     2
291
     0
 71
     2
176
     1
 72
     2
176
     1
 73
     3
176
     1
 90
        0
176
     1
 40
0.6
176
     1
 41
30.0
176
     1
 63
     7
421
 16777215
176
     1
 74
     2
176
     1
 91
        2
176
     1
 64
     7
176
     1
 65
     7
176
     1
 75
     1
176
     1
175
     1
176
     1
 42
40.0
176
     1
 92
        8
176
     1
 66
     7
176
     1
 43
1.0
176
     1
 76
     1
176
     1
 77
     6
176
     1
 78
     2
176
     1
 67
     7
176
     1
 79
     3
176
     1
170
     0
176
     1
171
     0
176
     1
290
     0
176
     1
 93
        1
176
     1
 44
0.0
176
     1
173
     0
176
     1
  0
VISUALSTYLE
  5
3B
102
{ACAD_REACTORS
330
29
102
}
330
29
100
AcDbVisualStyle
  2
Sketchy
 70
    24
177
     2
291
     0
 71
     1
176
     1
 72
     2
176
     1
 73
     2
176
     1
 90
        0
176
     1
 40
0.6
176
     1
 41
30.0
176
     1
 63
     7
421
 16777215
176
     1
 74
     2
176
     1
 91
        2
176
     1
 64
     7
176
     1
 65
     7
176
     1
 75
     1
176
     1
175
     1
176
     1
 42
40.0
176
     1
 92
       11
176
     1
 66
     7
176
     1
 43
1.0
176
     1
 76
     1
176
     1
 77
     6
176
     1
 78
     2
176
     1
 67
     7
176
     1
 79
     6
176
     1
170
     0
176
     1
171
     0
176
     1
290
     0
176
     1
 93
        1
176
     1
 44
0.0
176
     1
173
     0
176
     1
  0
VISUALSTYLE
  5
36
102
{ACAD_REACTORS
330
29
102
}
330
29
100
AcDbVisualStyle
  2
Thicken
 70
    13
177
     2
291
     1
 71
     2
176
     1
 72
     2
176
     1
 73
     0
176
     1
 90
        0
176
     1
 40
0.6
176
     1
 41
30.0
176
     1
 63
     7
421
 16777215
176
     1
 74
     1
176
     1
 91
        4
176
     1
 64
     7
176
     1
 65
   257
176
     1
 75
     1
176
     1
175
     1
176
     1
 42
1.0
176
     1
 92
       12
176
     1
 66
     7
176
     1
 43
1.0
176
     1
 76
     1
176
     1
 77
     6
176
     1
 78
     2
176
     1
 67
     7
176
     1
 79
     5
176
     1
170
     0
176
     1
171
     0
176
     1
290
     0
176
     1
 93
        1
176
     1
 44
0.0
176
     1
173
     0
176
     1
  0
VISUALSTYLE
  5
30
102
{ACAD_REACTORS
330
29
102
}
330
29
100
AcDbVisualStyle
  2
Wireframe
 70
     5
177
     2
291
     0
 71
     0
176
     1
 72
     2
176
     1
 73
     0
176
     1
 90
        0
176
     1
 40
0.6
176
     1
 41
30.0
176
     1
 63
     7
421
 16777215
176
     1
 74
     1
176
     1
 91
        4
176
     1
 64
     7
176
     1
 65
   257
176
     1
 75
     1
176
     1
175
     1
176
     1
 42
1.0
176
     1
 92
        0
176
     1
 66
   257
176
     1
 43
1.0
176
     1
 76
     1
176
     1
 77
     6
176
     1
 78
     2
176
     1
 67
     7
176
     1
 79
     3
176
     1
170
     0
176
     1
171
     0
176
     1
290
     0
176
     1
 93
        1
176
     1
 44
0.0
176
     1
173
     0
176
     1
  0
VISUALSTYLE
  5
3C
102
{ACAD_REACTORS
330
29
102
}
330
29
100
AcDbVisualStyle
  2
X-Ray
 70
    25
177
     2
291
     0
 71
     2
176
     1
 72
     2
176
     1
 73
     1
176
     1
 90
        1
176
     1
 40
0.5
176
     1
 41
30.0
176
     1
 63
     7
421
 16777215
176
     1
 74
     1
176
     1
 91
        0
176
     1
 64
     7
176
     1
 65
   257
176
     1
 75
     1
176
     1
175
     1
176
     1
 42
1.0
176
     1
 92
        8
176
     1
 66
     7
176
     1
 43
1.0
176
     1
 76
     1
176
     1
 77
     6
176
     1
 78
     2
176
     1
 67
     7
176
     1
 79
     3
176
     1
170
     0
176
     1
171
     0
176
     1
290
     0
176
     1
 93
       13
176
     1
 44
0.0
176
     1
173
     0
176
     1
  0
DICTIONARYVAR
  5
79
102
{ACAD_REACTORS
330
76
102
}
330
76
100
DictionaryVariables
280
     0
  1
1:1
  0
DICTIONARYVAR
  5
78
102
{ACAD_REACTORS
330
76
102
}
330
76
100
DictionaryVariables
280
     0
  1
STANDARD
  0
DICTIONARYVAR
  5
77
102
{ACAD_REACTORS
330
76
102
}
330
76
100
DictionaryVariables
280
     0
  1
STANDARD
  0
DICTIONARY
  5
1A
330
19
100
AcDbDictionary
280
     1
281
     1
  3
BUMPTILE
360
1C
  3
DIFFUSETILE
360
1B
  3
OPACITYTILE
360
1F
  3
REFLECTIONTILE
360
1E
  3
REFRACTIONTILE
360
20
  3
SPECULARTILE
360
1D
  0
DICTIONARY
  5
12
330
11
100
AcDbDictionary
280
     1
281
     1
  3
BUMPTILE
360
14
  3
DIFFUSETILE
360
13
  3
FBXASSET
360
109
  3
OPACITYTILE
360
17
  3
REFLECTIONTILE
360
16
  3
REFRACTIONTILE
360
18
  3
SPECULARTILE
360
15
  0
DICTIONARY
  5
22
330
21
100
AcDbDictionary
280
     1
281
     1
  3
BUMPTILE
360
24
  3
DIFFUSETILE
360
23
  3
FBXASSET
360
BA
  3
OPACITYTILE
360
27
  3
REFLECTIONTILE
360
26
  3
REFRACTIONTILE
360
28
  3
SPECULARTILE
360
25
  0
DICTIONARY
  5
E74
330
67
100
AcDbDictionary
280
     1
281
     1
  3
ACAD_XREC_ROUNDTRIP
360
E75
  0
DICTIONARY
  5
E72
330
65
100
AcDbDictionary
280
     1
281
     1
  3
ACAD_ROUNDTRIP_2008_TABLESTYLE_CELLSTYLEMAP
360
E73
  0
XRECORD
  5
1C
102
{ACAD_REACTORS
330
1A
102
}
330
1A
100
AcDbXrecord
280
     1
270
     1
271
     1
  0
XRECORD
  5
1B
102
{ACAD_REACTORS
330
1A
102
}
330
1A
100
AcDbXrecord
280
     1
270
     1
271
     1
  0
XRECORD
  5
1F
102
{ACAD_REACTORS
330
1A
102
}
330
1A
100
AcDbXrecord
280
     1
270
     1
271
     1
  0
XRECORD
  5
1E
102
{ACAD_REACTORS
330
1A
102
}
330
1A
100
AcDbXrecord
280
     1
270
     1
271
     1
  0
XRECORD
  5
20
102
{ACAD_REACTORS
330
1A
102
}
330
1A
100
AcDbXrecord
280
     1
270
     1
271
     1
  0
XRECORD
  5
1D
102
{ACAD_REACTORS
330
1A
102
}
330
1A
100
AcDbXrecord
280
     1
270
     1
271
     1
  0
XRECORD
  5
14
102
{ACAD_REACTORS
330
12
102
}
330
12
100
AcDbXrecord
280
     1
270
     1
271
     1
  0
XRECORD
  5
13
102
{ACAD_REACTORS
330
12
102
}
330
12
100
AcDbXrecord
280
     1
270
     1
271
     1
  0
XRECORD
  5
109
102
{ACAD_REACTORS
330
12
102
}
330
12
100
AcDbXrecord
280
     1
 70
     1
 90
1959938040
 71
     1
  1
884A86E0-0356-4917-824B-73F6E42D5FBA
311
504B03040A0000080000A854D5423DEE336E79000000790000001B0000006175746F6465736B2D64657369676E2D7061636B6167652E786D6C3C3F786D6C2076657273696F6E3D22312E302220656E636F64696E673D227574662D3822203F3E3C666F726D6174733E3C666F726D61743E687474703A2F2F736368656D612E
311
6175746F6465736B2E636F6D2F64657369676E2D7061636B6167652F323030393C2F666F726D61743E3C2F666F726D6174733E504B0304140006080800A854D542D486FD9CA0000000F4000000130000005B436F6E74656E745F54797065735D2E786D6C7D8EC10E82300C865F65E91D8A1E8C310C0EEA1BF002731658846E
311
D98AC1B77784ABF1D8FE5FBFBF75BBCE937A534CCEB38643598122B6FEE978D0B0485F9C41B54DDD7D022595594E1A469170414C76A4D9A4D207E29CF43ECE46F218070CC6BECC4078ACAA135ACF422C856C0E68EA1BF5669944DDD7BCDE7B1F8E415D77AECB980613C2E4AC91FC167A2B244592486606FC29C8FD7F045B9A
311
EF7053A7E60B504B0304140006080800A854D5426F4BBB0CED0000007C01000008000000636F72652E786D6C8D90416EC3201045AF82665B6183899DD8C244691D9FA01740983828315806AA1EBF3871A476D7D58CFEFC3733FAFCF83DDDD1975EBC71B6059A1140DA2A37183BB610C3051F001D055F9C0BBF6C80AC9C740B
311
AB0C828F8B8BF326296783B621A9D60D7A13A5F73A0052F7D4B4E0D5554F3293312487BF65B3543739EA8CBEBA04C76806F43C6286B4CF5C8C5E401CCE7D5F91BEC60776EAF0EEBDDFE1D347477055325614F579DFD525CF5758F060A6D77DB56819F400A220946152E1827E52D2B07D43AB3752368CF07CB5FF81E23CFC13
311
8AC606566CEF3E310F82A6471E03C1F3358B541E41A5BAE6267E00504B0304140006080800A854D54255019EA25F0000007C00000007000000636E782E786D6C4DCB3B0E80201045D1AD90E915ED2CF8AC45050C11660C8261F98AB1B07AC9C97D42D718D865D3E909258CFD00CCE24AC6E326A164D74DC0B4128928FF3260
311
38472BA13128B1252AC747C6BAB984FC68F0B87FE8960A5C09FE86CFB69FBA01504B0304140006080800A854D542A56AC45C69010000020300000C0000006662782F636F72652E786D6C8D52ED8E8230107C95A67F2FD0028A1F2935DE294F702F50A1728DD092D2121FFF960FE37931C69094666667777680EDAE4D8D7A69
311
3B657486A390622475614AA5AB0C7B770ED618ED38B3C6B83F651869D1C80C0F30E6ACB2C6B7335418EDA476806A53CA19145D271D46450D970C77C58F6C4428BC838AEE12B6A2B8884A86510834D471D6390B06D0346438313F9FAE8C4C3867DEAB72665509D3D459498BF9FA98E729CD37C13AD91F82C567BE08F65F071A
311
A4CB2489E3CD7175D82C1919C49C39D5DCDC15560A274BCC631A25014D8338FA8EE836596DA3F4832EB7096564287F10F9B67C53E49576493CDB9D641DE6111819897FDB42440E75A2073F8433328408AF31E1C7A0211008D989537DDBE302502F0B67EC0298D2F83BD58BDA4B984AD1F83032B1D0796C009B3DED13BFE8F3
311
BA077C40A12BB0261C5C4FDE0DD3D934758EA29536E8DD1569631B51DFCD4D16EFE77DD05379616A63DF5193795532874986BF97FF02504B0304140006080800A854D542A45A7DC07E0000009D0000000B0000006662782F636E782E786D6C4DCCDF0A83201C86E15B91DFB94BC3FE0CCC48B4FB886521330DA76397BF1A1D
311
ECE883878F97F79FCDA1B7892F1B7C07F4460019FF08B3F56B07392DB805D40B1E43487F37407EDA4C072783E06B0C79BF6836CB945D3AD459FFBCB02EE55D2ACA70C9488399AA462C075AE1BAD1AA1DB41A7549A010BCF8958E3DC3E20B504B0304140006080800A854D542BC7E41FB2B0100001402000031000000666278
311
2F36324239424431342D323430372D344435462D424131352D3637454438414544464532302F636F72652E786D6C8D515B6EC23010BC8AE52FAACAC1761E3CE418810227E8054262C082D8911F15C7EFBA0952FBC78FD79A9D991DED8ADD7378A06FE5BCB6A6C62CA31829D3D95E9B6B8D63B89035463B299CB5E10F0D23D3
311
0EAAC609C6525C9D8DE30C75D6046502A0C6F66A065BEF55C0A87BC0A7C6BEBBA9A1CDDA1880E1EFD9D876F7F6AA3296411B7852F8E020009A86A417CB8A1F36878615841774458AA63C91C39E95A45A1D9BF5FED89C8E9C8AE524942246DDCF72DD431C7DD1CABD6B92C452043DBCE2774EB541F55872CA72422BC2D917A3
311
DB7CB565D5272DB7394C4EF47FA238F66F8AA23621E773DC49E6B164623935A4E86D3C3F5E61D473B42EA0346FE155F78125CD28E39B8A31904C5458007856C5ECE98375B0E0C5FD0C6C564EC65521C532DD08CAEF01A1A67BCA1F504B0304140006080800A854D5422FC3E69F4E01000033030000300000006662782F3632
311
4239424431342D323430372D344435462D424131352D3637454438414544464532302F636E782E786D6CD593CD6EC32010845F0571ADFC439CBA558489D4439FA0875E316C1A1A0C16E0AA79FB2E094973C9A1C75E90353BCCAC3E61BEFD9E2CF982108D770365754B0938E5B5711F035DD2AE7AA6642B78F03EDDD8287172
311
828166990AFE11FC321749C34E2E36A16A8D3B143140F44B501051CE3789F54A5A0C00572D28C23482D6A0C9D5885F3B08B80A8AE391A43D90D79777E2C74F5029F226A708DEE40EC1F3599A6E4C94282B631C68547B98642D97E435C443AD659235AB2F5D7776FA4D22F9C2A5720986E4F281E6938AB2518D1C798343C163
311
0A48AF98D271062AE43C5BA36442C8CDC978F608BE1897FA75F11A041FD0CDFA6EBDC6B0D34CF06426280E154026D054AC5AD6556D5FADD81B6B37DDD386F50FEDE3A66B7993ED828FDEDB72096320F89928EF12B84405E34D1EDFC3577C449B80AC7D38FE01240228AD673AD78CFFCCA739BD6FC415F02F103F504B030414
311
0006080800A854D542C4AE964EA505000081100000340000006662782F36324239424431342D323430372D344435462D424131352D3637454438414544464532302F6F626A656374732E786D6CAD575B8F9B3814FE2B887DD97D200949669A593154B9CC54513B6DD5A8D53E448A0C18C63BE622DB4C33FBEBF73318026932
311
CDAEFA02D8D8C7E77CE73B177B6FF729B79EA9902CCF6E6D7730B22D9A8579C4B2E4D62E55ECCC6CEBADEF893C579D65B6959194DEDA7ADAF6BD44E46561A6221A9392ABA3D9FBC55F960C69466D2BE444CA5B5B868F34250352AA3CA2F2691011450649BC1FB8837A615F6C2248F17824B42082660A9A623E8314AB56CAED
311
0F47F6D0F786FABFEFE9A7593539BF6A58D9D33F9F6552912CFCE1B023311377BABA1B5FDD3857D3E9C4995E8F5D6771BF5839EE9BC96879BD5CDECCEF6E70B05402928C2682C6B6FF0ED808167AC3FA97EF952C5393B159621C3414F499694FD9FED872BD61BDA6B5CE18794AFD30CF321A5658018DCA3E233AA205CD22F8
311
9C5109CD3A088DFA4357E3D8F93DD163736477FA3204BA3B3A821ADD9B7757D33CF81B26C84B182424D50CACB13486D65C1D1D100EF29C9B7F4C5A29515430C22DCE0241C48BED63A95EE27B3D319AC9424783B6C0F6E185FA779F2E08A39FF3FC949671C9B9A6B1ED5751B043AC50252BCDD83F541CB4EF22039DE02BCD86
311
993148BD14D4F66F6A8ACC8ED8540369C59C247039CCD43B27E32343973A4ED72BDB7F7F1FEC373A764F1F5E88BCA04269FA805A8DE39AB746C9E8E45EE439BDC13E52E500CA1720FF11A17E50057E136C3FDD4FCD294A904CC6B948E11B6B6439233C46965B3DF577E7CB1BB69BFBDE3B87279CADA1FA0578F66DE8FAB203
311
A7EF3D83F0B99818D33621E1481B0F2C03409A2416CF31853C1C077BDB5F23CB212B6317E1BE0B93A1EE333EBDA1118344519DD47967C0F2282D5E90A0015BC548A85193DF2878F0D30FE9AC3AD82C3B07EFD52FA1EB7CB579BF29454C42FA60627A45639631851277E04D57A11EE63D8B9EE8CBF75C4430F447BC375DBC53
311
739404DA1A730D7CD2E4743D389CDC3B20C4BE24D7E9C6FBC909304217D68EFC072643CA39C9685E36E7BE5A3F50366A8875B06B26B705E65058409AFACF510CA2488782151AC4B65AB5497370C6BAAFEB8F60A4ED2F5E3E90976EF60A0EB937CC792E76C1CBAE4E4B27A1FED6E7B6C160A8A580EE559034F16F40DF452C8E
311
4B89247802D76FEB65D7773A2D20453452EB6899C27E04171186B48D5C546B415049F36CC750371177270FE8CA07A4860195C0731A4BCAE31DE3BC4C7731E3A846BB941467E0F8FFFA07655AEC489A97993A23BBA73AAA435FF71E7BE577A2C247DBDF546F6781DC1BD1E80C19742D398155CFB5B3D9743EBBBE1B39A3C9D5
311
B533BD71DF38B3F174E1BC99DC5FDF4DC7ABABFBC5BCF153AD89EF35A5A61BD1F0124A9B570A66DCF7758DF83149C0F61F8892DB77757836EFAFEB017A616F883DA897EDC679F48CBE8F463F1770587952D03A2D384D69A6888EA107FDC1BF10F4193D65EAF9754A127A81944FEF3647C660E6827D9F75BCD3EF477BCDEC52
311
07E44921EAB14C838C307EB431A9911C145962F06B7CD2BEEB42D30CF5C838069DA9CC398B9007232BA1794A15B2E1054548A454827ADD9E3E32778F0B763FD71DA22201A78D268F044D3297080B50AB0C557FDEFA0D4D9DEEAB6E6D94DBC1131E2653D81638736BA349572CA47210A040EB56A8120E2E753B7934FE244B38
311
7AED7A533B6E77696C7A25B95D7249FF64ECAA53B8310069A440DF808608DEA994F1BD4A37F33FFC4F8637EA5844E13328556BCB61A235A63A06215A1B656E0B68629ECCD17B04EAEB66B9836A4D0F918B6E59AF92A096EA282292EAA6A0F5332ACD579F87E850ACF527ABE065025F5E2EC91114642E758083456085915910
311
05AA2EFFDC7E16396EB2A975CF4001EBF7FDECFA8FED324FD33CABA7B673731FB6368FB8DD465B2407AAAF25723B1EB9E36D751D3037945D40241D90483E61029E15AC05BAE77EF0B2BE33BA5864DC6F3C31D4AE3862E87A6599C2363DACEFE6560D0E1A8F8C5A88217DA5D411D35D50BC7A2318564BA1AA402FEFFF0B504B
311
0304140006080000A854D542000000000000000000000000350000006662782F36324239424431342D323430372D344435462D424131352D3637454438414544464532302F76657274696365732E62696E504B0304140006080800A854D542F270F1330600000004000000360000006662782F36324239424431342D323430
311
372D344435462D424131352D3637454438414544464532302F747269616E676C65732E62696E636660600000504B0304140006080000A854D542000000000000000000000000370000006662782F36324239424431342D323430372D344435462D424131352D3637454438414544464532302F617474726962757465732E62
311
696E504B0304140006080800A854D542D5987DFC8F00000041010000360000006662782F36324239424431342D323430372D344435462D424131352D3637454438414544464532302F6469726563746F72792E786D6C858F410EC2201045AF4266AF15DDB800BA74E7C21B903225242D6328188F2FA5C4183471359997F9FF
311
81E89FF3C41E1816475E02DF1F80A11FC8386F25A438EECEC07A250251FC3803E6F58C12560C4AD840E95E91C151A72936F496F35732D860FE635F62C8F2DA16B505C545B74125BAA2FA9E05D7CC053D063734D5C7665FD55B6B8D15D5E9BFEAFD8490FFA45E504B0304140006080800A854D5427CE09594FF000000A00100
311
003B0000006662782F36324239424431342D323430372D344435462D424131352D3637454438414544464532302F7265736F75726365732F636F72652E786D6C8D504B6E833010BD0A9A6D65B0714248641CA5259CA017B0CC24B512ECC89FAAC7AF09546A77DDCC8CDE47F3F4C4F16BBA179FE88371B603565228D06A371A
311
7BED20C50B69A1384AE19D8BBF645058356107330C525CBD4B8F15D2CE46B431A3D68DB8822A048C50E87B3E3A08FA032755AA14B322DCCA87D23775C5929599CE3A2942F43940B13C9927488FC125AF31886A61A548C98CABC68CF9A7B918F420DBF33034746849CB4F3DD9BC0E1B727AEB2969B69CD7F5FEBCEBF75B51CD
311
6629A2997E326A8F2AE208B2A68C13DA909ABD337AE0BB036B5EE8F6C0A9A866F91F537A8CFF34256323AFD7B88B2D806439C89390A29AFBCAEB5966DE73B7F21B504B010214000A0000080000A854D5423DEE336E79000000790000001B00000000000000000000000000000000006175746F6465736B2D64657369676E2D
311
7061636B6167652E786D6C504B01021400140006080800A854D542D486FD9CA0000000F40000001300000000000000000000000000B20000005B436F6E74656E745F54797065735D2E786D6C504B01021400140006080800A854D5426F4BBB0CED0000007C010000080000000000000000000000000083010000636F72652E
311
786D6C504B01021400140006080800A854D54255019EA25F0000007C000000070000000000000000000000000096020000636E782E786D6C504B01021400140006080800A854D542A56AC45C69010000020300000C000000000000000000000000001A0300006662782F636F72652E786D6C504B01021400140006080800A8
311
54D542A45A7DC07E0000009D0000000B00000000000000000000000000AD0400006662782F636E782E786D6C504B01021400140006080800A854D542BC7E41FB2B010000140200003100000000000000000000000000540500006662782F36324239424431342D323430372D344435462D424131352D363745443841454446
311
4532302F636F72652E786D6C504B01021400140006080800A854D5422FC3E69F4E010000330300003000000000000000000000000000CE0600006662782F36324239424431342D323430372D344435462D424131352D3637454438414544464532302F636E782E786D6C504B01021400140006080800A854D542C4AE964EA5
311
0500008110000034000000000000000000000000006A0800006662782F36324239424431342D323430372D344435462D424131352D3637454438414544464532302F6F626A656374732E786D6C504B01021400140006080000A854D5420000000000000000000000003500000000000000000000000000610E00006662782F
311
36324239424431342D323430372D344435462D424131352D3637454438414544464532302F76657274696365732E62696E504B01021400140006080800A854D542F270F13306000000040000003600000000000000000000000000B40E00006662782F36324239424431342D323430372D344435462D424131352D36374544
311
38414544464532302F747269616E676C65732E62696E504B01021400140006080000A854D54200000000000000000000000037000000000000000000000000000E0F00006662782F36324239424431342D323430372D344435462D424131352D3637454438414544464532302F617474726962757465732E62696E504B0102
311
1400140006080800A854D542D5987DFC8F000000410100003600000000000000000000000000630F00006662782F36324239424431342D323430372D344435462D424131352D3637454438414544464532302F6469726563746F72792E786D6C504B01021400140006080800A854D5427CE09594FF000000A00100003B0000
311
0000000000000000000000461000006662782F36324239424431342D323430372D344435462D424131352D3637454438414544464532302F7265736F75726365732F636F72652E786D6C504B0506000000000E000E00800400009E1100000000
310
504B03040A0000080000A854D5423DEE336E79000000790000001B0000006175746F6465736B2D64657369676E2D7061636B6167652E786D6C3C3F786D6C2076657273696F6E3D22312E302220656E636F64696E673D227574662D3822203F3E3C666F726D6174733E3C666F726D61743E687474703A2F2F736368656D612E
310
6175746F6465736B2E636F6D2F64657369676E2D7061636B6167652F323030393C2F666F726D61743E3C2F666F726D6174733E504B0304140006080800A854D542D486FD9CA0000000F4000000130000005B436F6E74656E745F54797065735D2E786D6C7D8EC10E82300C865F65E91D8A1E8C310C0EEA1BF002731658846E
310
D98AC1B77784ABF1D8FE5FBFBF75BBCE937A534CCEB38643598122B6FEE978D0B0485F9C41B54DDD7D022595594E1A469170414C76A4D9A4D207E29CF43ECE46F218070CC6BECC4078ACAA135ACF422C856C0E68EA1BF5669944DDD7BCDE7B1F8E415D77AECB980613C2E4AC91FC167A2B244592486606FC29C8FD7F045B9A
310
EF7053A7E60B504B0304140006080800A854D542B1C3E9E2EB0000007C01000008000000636F72652E786D6C8D90516EC3201044AF82F6B7C20693D88E858992B439412F8080B828315806AA1CBF3871A4F6AF5FBB1AE6B1A3E1FBFB7843DF660ED6BB1E68410019A7BCB66EE821C50B6E01ED059FBD8FBF6C809C1C4D0F8B
310
0C820FB34FD32A29EFA27131ABCE6BB38A32041301A95B5E7A08EACB8CB290296647B816935457399882BEB60CA764357A1EB13AFF672FD6CC20283D1D9AF703C31F4746F086D233DE6DDB1637E444595D91F391EC78B9C082473BBEEEABD9C86834888A5086498D2BFA4949C79A8ED66F64DB31C2CBC5FE074A93FE2794AC
310
8BAC5AE33EB190B3E6208F07C1CBA58B3C1E45E5B9F4267E00504B0304140006080800A854D54255019EA25F0000007C00000007000000636E782E786D6C4DCB3B0E80201045D1AD90E915ED2CF8AC45050C11660C8261F98AB1B07AC9C97D42D718D865D3E909258CFD00CCE24AC6E326A164D74DC0B4128928FF32603847
310
2BA13128B1252AC747C6BAB984FC68F0B87FE8960A5C09FE86CFB69FBA01504B0304140006080800A854D54258493F2066010000020300000C0000006662782F636F72652E786D6C8D52ED8E8320107C15C2DF8B02DAEF204DDBBB3EC1BD0055EA912A1804D3C7BFB5DA78BD344D63826466677776946FAF75853AE55A6D4D
310
86594C315226B785366586833F472B8CB6823B6BFD9F328C8CAC55867B180B5E3A1B9A11CAADF1CA78408D2DD408CAB6551EA3BC824B86DBFC47D53296C143457B891B995F64A96216030D7582B7DE8101340CE94F2CCEA72B27032E7808BA18595DC0347DD6CA61C1D861B7FCDCA5D1D73EA5D18CB163B49EAF56D1921E58
310
BA48E8714FD79CF462C1BDAEEFEE72A7A4570516096569441751C2BE19DDA4CB0D5B7CD0F926A59CF4E50FA2D0146F8A82363E4D46BB83AC05AF60E446FCDB1622F2A8951DF82182933E4478DD127E0C1A028190BD3C55F73D2E00752AF7D6CD80296C98A84E5641C1548A6E0F27030B9D6F0D60B3A77D92177D5EF7800F28
310
4D09D6A487EB29F87E3A1FA68E5134CA459DBF22635D2DABC9DC60713AA7414FE5B9ADAC7B474DC655C91826E9FF5EF10B504B0304140006080800A854D5427E8E055B7E0000009D0000000B0000006662782F636E782E786D6C4DCCD10E82201886E15B61FF390925851BE0B0F03E5CA263213482D6E5A7CD838EBEEDD9B7
310
57B49FC5A3B74D2F1783047A20806CB8C7D1855942C913E6805A25528CF9EF06280C8B95B0312831A7589E3B8D761A8ACFAB7A171E3BB2DB5973461A4CD995E3BA3F11DCD19E63C38DD6979A98A63B42A544F52BADBB85D517504B0304140006080800A854D542296D676A2B01000014020000310000006662782F35443641
310
383530392D313543382D344633302D423146382D4538454141373430453942322F636F72652E786D6C8D515B6EC32010BC0AE2AB55850D7EC5893051D22627E8058821294A0C168F2AC7EFBA76A4F62F4262D1ECCCEC88E5DBFB7043DFDA07E36C87594631D2B677CAD84B87533C9316A3ADE0DEB9F88786919583EEF00463
310
C12FDEA571817A67A3B61150EB945E4019828E18F537787438F45F7A90994C1118E19A8DB2BFCA8BCE58066DE0091EA28700681E32DD58D41FCDAEADE99AB0FABD25D5B1A464CF8E2D39B487DD6E55D1C37A5FF07C160A9E92518BDC288863CE46FB674D26B1E0D10C8FF8BDD7326A854541594968430AF6C9E8A65C6D58F3
310
46EB4D49793ED1FF89D2A89E14256363592C716759C082F17C6E08AE5C3ADD1E61F47D743EA269DE4BD0FD2B16348358AC82C3F3990A1F009E4DB57886E83C7CF0CBF504EC72316E2AC1F36947507E170875DAA7F801504B0304140006080800A854D542496429885601000033030000300000006662782F35443641383530
310
392D313543382D344633302D423146382D4538454141373430453942322F636E782E786D6CBD93CD6EC32010845F0571ADFC439CBA518489D4439FA0875E096C1A1A0C16E0AA79FB2E094973C9A152D50BB2668799D527CC375FA3259F10A2F16EA0AC6E2901A7BC36EE7DA073DA552B4A368207EFD38D8D122747186896A9
310
E0EFC1CF539134ECE46C13AAD6B8431103443F070511E57C9358AFA4C50070D58C228C5BD01A34B91AF16B07015741717B24690FE4E5F98DF8ED07A814799353046F7287E0F92C4D37264A9495310E34AA3D8CB29673F21AE2A1D632C99AD597AE3B3BFD24917CE15239074372F940F34945D9A8468EBCC1A1E03105A4574C
310
E9380115729AAC513221E4E6643C7B049F8D4BFDB2780D820FE8EE16FD6A8561A799E0C98C501C2A804CA0A958B4ACABDABE5AB057D6AEBBA735EB1FDAC775D7F226DB05DF7A6FCB258C81E027A2BC4BE012158C37797C0F5FF1116D02B2F6E1F80B9008A0B49EE95C33FE920FEBBBE5F21FF934A7F78DB802FE05E21B504B
310
0304140006080800A854D54202D0AAC8640700009A1B0000340000006662782F35443641383530392D313543382D344633302D423146382D4538454141373430453942322F6F626A656374732E786D6CED595B739B3814FE2B0CFBB2FB606C6C274D76089D5C3B9E6EDA4EBDEDEC8367181964A28D108C2492787FFD1E5DC0
310
404C82B7D9B73ED880908ECEF9CE5587E0FD53469D07CC05C9D999EB7B13D7C12CCE13C2D233B7949BD189EBBC0F039EE7B231CD7518CAF099AB86DD3048795E167628C11B5452D919BDB9F8CB113166D875628A843873457C8733E4A152E60916F75E8224F2D2CD93E77B66629B6CCA5171D7215A208E99044E619C0115C7
310
30E5B71F27EE380CC6EA7D18A87F3B6B3668D6BC7FD6584BDDE6923021118B9FB1D421331BC4D2CC9F5F5D4F8F4E4747F3F96C343F9EFAA38B9B8BAB91FF6E36B93CBEBC3C3DBF3E05F6D6794EAD4C092E304B407F5B37F483B17A538B6E11D8C7759C3386630D2440A5C5EA122458C0560DF826ED475F49D478AD256C3CCF
310
D57BCB426378D6A6D2376B18102DBA2088DDAE92B8BA36E5CBD77F83E0628851728125702B2407ED5A783878851B4E82B1190D83F54E17443819929813441D4AD61C71500A4C5553C2C02CB06494737020E52809B4E6CCEBB66D8167BEEE3AFBB8DC94942ACF7043ED5811B81F96427346FEC17CC77D1319E009A42D099327
310
964BB92DB01B9E06633D1806EA329BDA9706486743512A3422E66D47D04BE5FA8B2B37FC78B37E5AAA70B07FF382E705E652199DD2A3E60B0CD95E154A765B7F90E6D40210C6806A57EE40F90AC87F82E8B16305F4C6C9D3FC696EE74A8E98D8E43C03DD3813673481BF89E3EB7F75DFB80BC6F5E2B6F6FAF0043755509DFC
310
389E6D19345696FF069C61F000069FF3997DB58C11057BBE250C005246E2D01C8620B46FD64F6EB880C009811E56211AFA2032B0FB00B7C1D892D969A5722FEB750C10B57BCC86280960D316096CF4E8E903640F4EE29D9A9A22F6C17BF426E67A7EB5FCB82CF906C5F8D6FAF415DE10462464CDFD0CB5306F49748FB78F39
310
4F40D0E7782F9B7867762B01682BCC15F06905827AD8EDDCDA20867569AEC24DF0CA0E2084CAD50DFAB744C49852C4705E56FBD6D14D196AEDF1B66670C3A9817836ED9830C70F445515E034BB192D4621EFC79C140A4437FC6024AB83A6D723DDB7C527B0C87A7ECFAC0583D0CB10FD5307AD3D38B42CBB42DA02510BBCDE
310
85F338A7398FD6DBC8443A176A0960A3ED2DDF5B4421D61B25292AE041DAEFAA90921A69A3846C36A580B8BA87C5EF8BCBA6394CBC997FE434FF3BCE3887680BBE8BB8F5BBCE1E11C9508AA30D4AFAB66BEE56D3169A640F698E3714E4220F446E2324A34982D343A03988F8E99B524F692E04615840BEDA0B7E138D890781
310
C468B3625969B5033411518625A28720A0C8F480ABD38EAE7163281D5EE7B1B6DE9734D624FA3F590447504BE62C22508A420E799571DF3B8218D246D7A0DCC117ACADA2ADC5A0259410F1367AC424BD9387A06EC8F7E01EC391A494515EA018CC7A00D967BEA294DAE17D8DE27B953FA2B8A46F652002D34D44282DB3087E
310
84C1C963886BD781E945141AC44DEC933883A20CC9920FD9E4F868F26C1F533374436063A30DA110B6A30C153DA8B702A2AE479C1A7C4BBD47A9EB322B2294E5251B6428DEACEB4D967C57AD8AEC407E55A908656345D8120C03C2649D55AB980DA6AE032BB8910E54DB48A0ACA0E614F64AE2F16B6FD2947B37E0D64FDF76
310
830C0ABF1EED3523EABC82C1F2D82A0CC42392F19D1B2EF5757401F57782935DAAAF6ACD66050888A9485E726255F46D01E58DADD1DCF01649B1FA60B26E75FDB6F0A0FB118C610DD42EF5C285023AC34C225599DCAA1BFA1541086ED130E30B95530FA1729E24BA6A44F486F4A9B35546B436CD8857DC619667F0632BC262
310
5A26788512711FDD4A1A2D8962DD4AE965A4C2F845013F7F5876E0819101227D51051E7EECACB5A397AA5CDA4B44DE95D99A210241B0255A6A74E3152CB51AA9B45C5FD59902EA2E3030ABE2F9CF9345B31DF1F364915AC3F8A193C5C5F60FB46DF6451AE93C56767DD031A0CE4F8ACA5B1C0374DBA1A65A671193CCADFCD6
310
9922088A55941F5C8D5541C310ECE3F83F67EDBE2C68B6EBF07F58D6F69F551C076595D664D5A5DA53B92E9A39ECE4647E7E727C3D194D6647C7A3F9A9FF6E74329D5F8CDECD6E8EAFE7D3ABA39B8BF31A4DEDA8615007339DBBE0D904B56A583D590CA02B2B724A1238CD274E8A21E64B38D30F689FF30C0B489ECD667762
310
9BF203563F983EA7446B8A2B4EEE103488A980B40E1895B16C8F3BBF406B52C241FBCC85A691770F7FD62A5D0732CF990BAD0249622CBC35B49954434F138794AB73BF2506F82096AA946816D5CFF52A854D2BFCD75386A4012B57AB8701855B01DDAF568742F366798A0F12BC62C741126ED7A5846ACDC8B21BA885D1DBEC
310
D46F64A384DDDBAD9FC0755F16CBF7F49C1622833E19BC680486EA48229EEA7EB762CCB2747EF5650C7D3667F1D9296899822E87531A710CC65CAA820AAC08ACC2D22C900453BDFC7DF585E7F08927737455E4FCFA7472FCDBEA32CFB29C99A1D5399CCA12F850E42CEFE0B34FB282E201ABE6BA584D27FE74A59BDAB6CF1E
310
AD91C09EAA8A60A02A2694201D9303BB7CD6A0B2EDCBB1524567FAE2CAB141149A01C68E9EF578CD472E077C487D4E511EA3FDBC92F6C5BEF6584F059BE0D0910EFF05504B0304140006080000A854D542000000000000000000000000350000006662782F35443641383530392D313543382D344633302D423146382D4538
310
454141373430453942322F76657274696365732E62696E504B0304140006080800A854D542F270F1330600000004000000360000006662782F35443641383530392D313543382D344633302D423146382D4538454141373430453942322F747269616E676C65732E62696E636660600000504B0304140006080000A854D542
310
000000000000000000000000370000006662782F35443641383530392D313543382D344633302D423146382D4538454141373430453942322F617474726962757465732E62696E504B0304140006080800A854D542D5987DFC8F00000041010000360000006662782F35443641383530392D313543382D344633302D423146
310
382D4538454141373430453942322F6469726563746F72792E786D6C858F410EC2201045AF4266AF15DDB800BA74E7C21B903225242D6328188F2FA5C4183471359997F9FF81E89FF3C41E1816475E02DF1F80A11FC8386F25A438EECEC07A250251FC3803E6F58C12560C4AD840E95E91C151A72936F496F35732D860FE63
310
5F62C8F2DA16B505C545B74125BAA2FA9E05D7CC053D063734D5C7665FD55B6B8D15D5E9BFEAFD8490FFA45E504B0304140006080800A854D542A268C77AFE000000A00100003B0000006662782F35443641383530392D313543382D344633302D423146382D4538454141373430453942322F7265736F75726365732F636F
310
72652E786D6C8D504B6EC32010BD8AC5B6C206D3D88E858992B439412F80F0C44189C1E253F5F885D895DA5D3733A3F7D13C3D7EF89A1FC52738AFAD19102D092AC0283B6A330D28862BEE507110DC591B7EC95061E40C03CA30127C72362E1BA4AC096042428D1D6103A5F71050A11EE91890573798652963480A7F2F17A9
310
EE72829296894E3AC17D702940B13EC9130907DE46A7C0F36A65058F518F9B468FE9A7BE6A7048507A3EB66FC71ABF9F18C1AF945EF07ED775B82567CA9A9A5C4E64CFAB6C163CE8F927A37220038C48D484324C1A5CD30F4A7AD6F6B47921BB9E115E65F91F535CC67F9AA23681D55BDCD5E653D614E449085EE5BED27A96
310
9976EE567C03504B010214000A0000080000A854D5423DEE336E79000000790000001B00000000000000000000000000000000006175746F6465736B2D64657369676E2D7061636B6167652E786D6C504B01021400140006080800A854D542D486FD9CA0000000F40000001300000000000000000000000000B20000005B43
310
6F6E74656E745F54797065735D2E786D6C504B01021400140006080800A854D542B1C3E9E2EB0000007C010000080000000000000000000000000083010000636F72652E786D6C504B01021400140006080800A854D54255019EA25F0000007C000000070000000000000000000000000094020000636E782E786D6C504B01
310
021400140006080800A854D54258493F2066010000020300000C00000000000000000000000000180300006662782F636F72652E786D6C504B01021400140006080800A854D5427E8E055B7E0000009D0000000B00000000000000000000000000A80400006662782F636E782E786D6C504B01021400140006080800A854D5
310
42296D676A2B0100001402000031000000000000000000000000004F0500006662782F35443641383530392D313543382D344633302D423146382D4538454141373430453942322F636F72652E786D6C504B01021400140006080800A854D5424964298856010000330300003000000000000000000000000000C906000066
310
62782F35443641383530392D313543382D344633302D423146382D4538454141373430453942322F636E782E786D6C504B01021400140006080800A854D54202D0AAC8640700009A1B000034000000000000000000000000006D0800006662782F35443641383530392D313543382D344633302D423146382D453845414137
310
3430453942322F6F626A656374732E786D6C504B01021400140006080000A854D5420000000000000000000000003500000000000000000000000000231000006662782F35443641383530392D313543382D344633302D423146382D4538454141373430453942322F76657274696365732E62696E504B0102140014000608
310
0800A854D542F270F13306000000040000003600000000000000000000000000761000006662782F35443641383530392D313543382D344633302D423146382D4538454141373430453942322F747269616E676C65732E62696E504B01021400140006080000A854D542000000000000000000000000370000000000000000
310
0000000000D01000006662782F35443641383530392D313543382D344633302D423146382D4538454141373430453942322F617474726962757465732E62696E504B01021400140006080800A854D542D5987DFC8F000000410100003600000000000000000000000000251100006662782F35443641383530392D31354338
310
2D344633302D423146382D4538454141373430453942322F6469726563746F72792E786D6C504B01021400140006080800A854D542A268C77AFE000000A00100003B00000000000000000000000000081200006662782F35443641383530392D313543382D344633302D423146382D4538454141373430453942322F726573
310
6F75726365732F636F72652E786D6C504B0506000000000E000E00800400005F1300000000
  0
XRECORD
  5
17
102
{ACAD_REACTORS
330
12
102
}
330
12
100
AcDbXrecord
280
     1
270
     1
271
     1
  0
XRECORD
  5
16
102
{ACAD_REACTORS
330
12
102
}
330
12
100
AcDbXrecord
280
     1
270
     1
271
     1
  0
XRECORD
  5
18
102
{ACAD_REACTORS
330
12
102
}
330
12
100
AcDbXrecord
280
     1
270
     1
271
     1
  0
XRECORD
  5
15
102
{ACAD_REACTORS
330
12
102
}
330
12
100
AcDbXrecord
280
     1
270
     1
271
     1
  0
XRECORD
  5
24
102
{ACAD_REACTORS
330
22
102
}
330
22
100
AcDbXrecord
280
     1
270
     1
271
     1
  0
XRECORD
  5
23
102
{ACAD_REACTORS
330
22
102
}
330
22
100
AcDbXrecord
280
     1
270
     1
271
     1
  0
XRECORD
  5
BA
102
{ACAD_REACTORS
330
22
102
}
330
22
100
AcDbXrecord
280
     1
 70
     1
 90
1959938040
 71
     1
  1
922154BE-3685-4020-BBDE-D2607B656BE2
311
504B03040A0000080000A654D5423DEE336E79000000790000001B0000006175746F6465736B2D64657369676E2D7061636B6167652E786D6C3C3F786D6C2076657273696F6E3D22312E302220656E636F64696E673D227574662D3822203F3E3C666F726D6174733E3C666F726D61743E687474703A2F2F736368656D612E
311
6175746F6465736B2E636F6D2F64657369676E2D7061636B6167652F323030393C2F666F726D61743E3C2F666F726D6174733E504B0304140006080800A654D542D486FD9CA0000000F4000000130000005B436F6E74656E745F54797065735D2E786D6C7D8EC10E82300C865F65E91D8A1E8C310C0EEA1BF002731658846E
311
D98AC1B77784ABF1D8FE5FBFBF75BBCE937A534CCEB38643598122B6FEE978D0B0485F9C41B54DDD7D022595594E1A469170414C76A4D9A4D207E29CF43ECE46F218070CC6BECC4078ACAA135ACF422C856C0E68EA1BF5669944DDD7BCDE7B1F8E415D77AECB980613C2E4AC91FC167A2B244592486606FC29C8FD7F045B9A
311
EF7053A7E60B504B0304140006080800A654D54275379339EA0000007C01000008000000636F72652E786D6C8D90D16E842010457F85F0DAA020625D836C34B15FD01F20C0BA645730024D3FBFB8EB26ED5B9F6672E79E99C9E5E7EFE50EBECC16AC773D240586C038E5B575730F53BCA01682B3E09BF7F1970D022717D3C3
311
5D8682CF9B4FEB2129EFA27131ABCE6B73883204132150F7DCF430A8AB59642153CC8E702B56A96E7236057975194EC96AF03C6275DE672FD66C50546D33B07A64888DEC84EA691AD07062187DB4D58087BA6AC689F27287058F7679DD579B91D1E8CC6342116E50453E09EEE87B47E81B661DC5BCDCED7FA0B4EA7F42C9BA
311
48ABE3DD2716A020F991C740F072CF22974750B9EEB9891F504B0304140006080800A654D54255019EA25F0000007C00000007000000636E782E786D6C4DCB3B0E80201045D1AD90E915ED2CF8AC45050C11660C8261F98AB1B07AC9C97D42D718D865D3E909258CFD00CCE24AC6E326A164D74DC0B4128928FF326038472B
311
A13128B1252AC747C6BAB984FC68F0B87FE8960A5C09FE86CFB69FBA01504B0304140006080800A654D542A3BA594C67010000020300000C0000006662782F636F72652E786D6C8D52ED8A8330107C9590BF474CFCEAB525A658E83DC1BD40AAA927D54462227DFC5B3F8AD7A39422C430B3B33B3BCA0FB7B64183B27D6D74
311
86C38061A47461CA5A5719F6EE42B6181D04B7C6B83F651869D9AA0C8F3016BCB2C6770B5418ED9476806A53AA05947DAF1C464503970CF7C58F6A6520BD838AFE1A74B2B8CA4A05610034D409DE3B0B06D03C643CB1B89C6F9CCEB8E0DED7E5C2D6254CAB2FB5B25844DB4D9E26C794A4C7744792D32927F92E65E46B1BE5
311
2C4FA2CDF114733A8A0577757B775758259D2A41CFC298B00D89C2EF90EDE3CF7D187FB0741F334EC7F20791EFCA3745BED62E8E16BBB3ACC722042313F16F5B88C8A15E0EE0870A4EC710E13525FC18340402213B796EEE7B5C011A54E18C4D80298D5FA941365EC15486A687D39985CE5303D8EC699FE8459FD73DE0034A
311
5D8135E9E07AF66E9CCEE7A94B149DB2647037A48D6D65B39A9B2DAEE73AE8A9BC308DB1EFA8E9B22A5DC2A4E3DF2B7E01504B0304140006080800A654D542FBFA19BF7D0000009D0000000B0000006662782F636E782E786D6C4DCC4B0AC3201485E1ADC89DDBB4F665400DBE16121A1324468BD5D2E53729197474E0E3F0
311
B3EEB304F476F9E553E4703A1C01B9F848838F13875A464C017582E594CADF0D50EC17C76163106CCAA93E771ADCD8D750560D3ECE3B5A43CFE64E0D9644697C6925C1F2AA2DD64A292B6F9652D2422358F32BADBB85C517504B0304140006080800A654D542F6D6BFE12D01000014020000310000006662782F4544383344
311
3738442D413242432D343941322D413543452D4342424245413645383832392F636F72652E786D6C8D51ED8E8320107C15C2AF5E2E2868B5DA208DB6BEC1BD0055DA9256307C5CFAF807A74DEEFEF50F4B66676627BBF4F09C1EE05B182BB56A20493004420D7A94EADA40EF2EA882E0C0A8D1DAFDA141A0F8241A1861C8E8
311
D5683FAFD0A09513CA0554E951AC20B75638088647F834D00E3731F1847B1718F69ECC7CB8F3AB484812DA81C7A875260400CB90F842D69FAAFCB4AB4EA8CDBA23DAD66D86DAE2D8A363D7757D5BF65595D5345D848C7A2FC7552EC710475EA430EF9A4431A34E4EAFF88311DC8911B20C931CE11265E48BE07DBEDB93FC13
311
17FB1CD334D2FF89FC3CBE29F252B93C5BE32E320B19A1E9D26074D4FEFC788511CF591B07E2BC8D15C3076438C104D7458D2B9A2ED4B080E0596E574FEBB4090BDEDCCF814D8AC5B8DC329AC61B85F27BC050E33DD90F504B0304140006080800A654D5426B8403F34E01000033030000300000006662782F454438334437
311
38442D413242432D343941322D413543452D4342424245413645383832392F636E782E786D6CD593BD6E032110845F05D146F783CF71228BC3528A3C418AB418D6313107277EA2F8EDB3D8D871E322651A749A1D66569F38BEF99E2CF982108D7723656D4F0938E5B5711F23CD69D73C53B2113C789F6E6C943839C1488B4C
311
05FF083ECF55D2B093D92654AD71872A06883E070511E5729358AFA4C500704D4611A62D680D9A5C8DF8B58380ABA0B83D92B407F2FAF24EFCF613548ABC2B298277A543F072D6A61B1325CACA18471AD51E26D9CA9CBC867868B54CB265EDA5EBCE4EBF49A45CB854E66048291F6939A9A81BB5C8917738143CA680F4AA29
311
1D67A042CEB3354A2684DC9D8C678FE0D9B8B45A56AF41F001DD6C352C9718769A099ECC04D5A102C8049A8A45CF86A65F350BF6C6FAF5F0B466C343FFB81E7ADE15BBE05BEF6DBD843110FC4C9477095CA282F1AE8CEFE1AB3EA24D40D63E1CFF001201D4D6339D6BC67FE6D39DDE37E20AF817881F504B03041400060808
311
00A654D54211E98B90A505000080100000340000006662782F45443833443738442D413242432D343941322D413543452D4342424245413645383832392F6F626A656374732E786D6CAD57DB6EDB3810FD1541FBB2FBE08B6C274D168A8AD84E0AA3485BD468B10F060C4AA2146D285120A9C4D9AFDF43919225D74EBD8BBE
311
5816351CCE9C3973A1FF7E9733E7990A99F1E2C6F58663D7A145C4E3AC486FDC4A25832BD7791FF88273D511739D82E4F4C6D5CB6EE0A78257A55D8A69422AA60E56EFE77F3932A205759D8811296F5C193DD29C0C49A5784CE5D330268A0CD36437F48646B0AF3615A47C3C505A12410B054BB15E408B638CF2FAAF637714
311
F823FD3DF0F5AF959A9E961AD5FEF4CFCF0AA94811FD70D8819AA9375BDE4D2EAE0717B3D97430BB9C7883F9FD7C39F0DE4DC78BCBC5E2FAF6EE1A074B25A0C95A2268E2061F808DC8227F643E057E95156A3AB122364023419F331D293798389E3F3232AD77D6C963E647BC2868546305346AFFACEA9896B48811F38C4A58
311
D64168DC7FF5348E9DCF53FD6E8FEC2E9F874077474751637BF3EC5ACAC3BFE1823C87414252CD4083A575D47075BC4738E49CD96F997472A2A8C8087358160A225EDD00A25A24F07B6A349385CE06ED811B200AE6739F2E48A39FF3FC989549C598A6B11BD459B045AE50256BCBB27FA8D85BDF45063621569A0D57D621F5
311
5A5237B83614B93A609301D24918491172B8A9774E27078E2E749EAE966EF0F13EDCAD75EE1E3FBC14BCA44269FA805A4DE09AA746C9DAE49D1539BDC13D30650FCA5720FF09A9BE37057113D96EB69BD9539420854CB8C8111B67EC0CC6F8193B5EFDABFF77FEF9A376733F7AA7F044B03554BF00CFBE0FDD5876E00CFC67
311
109E8BA9756D1D1186B2F19015004893C4611C4BA8C349B8738315AA1CAA32761116787019E63EE3AF3FB26A5028EA933ACF02581E94C5330A3460AB1909330CF9AD81FB38FD50CEEA83ADD829782F7E095D6F97EB8FEB4A2424A20F36A79734C98A4CA1C5ED79D335A88779CFA327FAFAC2450C477FC47BDDC53BB74749A0
311
AD31D7C0A74D4DD72FFB937B0744D897725D6EFC9F9C00277463EDE87FC86444192305E55573EE9BFD036DC340AC935D33B96D30FBC602D2982F073988261D89ACD420B6DDAA2D9AC313DE7D5B7D022321CF7848D85E28DC97DE88332EB6E1EBD654A5A3487FEF53DB4230D25AC0F63A479AF4B7986FE32C492A891A7804D6
311
EFAB453774BA2AA042345A4DB2CCE03E728B08CBD9462F9AB52068A4BCD866689B48BBA30774F503514B805AE1298B2565C93663ACCAB749C6D08CB639294FC0F1FFED0FABBCDC929C57853AA1BB673A9A43DFF61E79E50B51D1A31BACEBE7608ED21BD3781FE69EB06E2547B0EA85F67A32F12E66F3BBC1F4F2EA62301B4F
311
C683F97C7937584E2EC7EFE6971797F3BB491327A33CF09B4ED34D6844099DCDAF4466C3F76D85F4B135C00D1E88929B0F263B9BE7B7D510A3B03FC21EB4CB76E36DFC8CB18FC63F57B0973CAA6895978CE6B45044A7D083FEC3BE128C193D63CCFA2A27293D43CBE70FEB0367B072C6BE2F3ADDE9CBC15EBBBAD009795489
311
7AACF2B020193BD8981A248765915AFC9A98B44FD3679A57FD660383C1547296C52883B193529E53856278460F123995A05E77A48FEDD5E38CDDCF6640542464B4B1E4916046661269016A5591EAAF3BBF61A6D363D58D8B6E3B7CC28FAD14AE03CEDCB898D1551651390CD19FF524542B0797BA833CE67E52A40CA3B6D9D4
311
BEB7BB3436BD8EDC8A9C333E59BF4C05B70EA08C94181B300F213AB531815FDB66BF47FFC9F1C61C8728FC0D2BD5FAB25F689DA98F418A1AA7EC650133CC933D7A87447DDB2D6F58CBF41039EB92F526098CD6812222AD2F0ADA3E6BD2EDF2CB08038AB3FAEC94AC4A11CBF3350D0405992B9DE06011586175964481AA8B3F
311
375F04C7453677EE3350C0F97D7775F9C766C1F39C176669736BAFC3CEFA1197DB7883E240F5AD446E26636FB2A96F03F682B20D89A44312CB272C20B2226B81EE851FBC345746F421F3A1951BE9501C3074B5746C639B41A9A54BB7B66A70307714D4410EE91BA5CE98AE40F9E68560548BC20481513EF817504B03041400
311
06080000A654D542000000000000000000000000350000006662782F45443833443738442D413242432D343941322D413543452D4342424245413645383832392F76657274696365732E62696E504B0304140006080800A654D542F270F1330600000004000000360000006662782F45443833443738442D413242432D3439
311
41322D413543452D4342424245413645383832392F747269616E676C65732E62696E636660600000504B0304140006080000A654D542000000000000000000000000370000006662782F45443833443738442D413242432D343941322D413543452D4342424245413645383832392F617474726962757465732E62696E504B
311
0304140006080800A654D542D5987DFC8F00000041010000360000006662782F45443833443738442D413242432D343941322D413543452D4342424245413645383832392F6469726563746F72792E786D6C858F410EC2201045AF4266AF15DDB800BA74E7C21B903225242D6328188F2FA5C4183471359997F9FF81E89FF3
311
C41E1816475E02DF1F80A11FC8386F25A438EECEC07A250251FC3803E6F58C12560C4AD840E95E91C151A72936F496F35732D860FE635F62C8F2DA16B505C545B74125BAA2FA9E05D7CC053D063734D5C7665FD55B6B8D15D5E9BFEAFD8490FFA45E504B0304140006080800A654D542669CBDA1FD000000A00100003B0000
311
006662782F45443833443738442D413242432D343941322D413543452D4342424245413645383832392F7265736F75726365732F636F72652E786D6C8D50DB6A843010FD15C96B8926DEEA4ACCA260BFA03F10E2AC0DBB26924BE9E737592DB46F7D9919CE85391C76FDDA1ED92758A78C1E10CD09CA404BB328BD0E28F81B
311
EE5076E5CC1AE37FC950A6C506034A30E26CB526EC27248DF6A07D44B559E0048573E051261FF11890931FB0895C041F15EE9EEF42DEC50A39CD231D759C396F6380EC789226E2169C09568263C5C17216825A4E8D5AE24F755360112FBB766CEAA9C6CDD45C703DCF231E2F0DC16F5D3992B12EDB69AE5891CC9C79B5FD64
311
9416848725FA09AD30697149DF29E9ABD79E562FA4E92BC28A24FF630AFBF24F5350DA57E519F7B039C4690CF224382B525F713DCB8C3B75CBBF01504B010214000A0000080000A654D5423DEE336E79000000790000001B00000000000000000000000000000000006175746F6465736B2D64657369676E2D7061636B6167
311
652E786D6C504B01021400140006080800A654D542D486FD9CA0000000F40000001300000000000000000000000000B20000005B436F6E74656E745F54797065735D2E786D6C504B01021400140006080800A654D54275379339EA0000007C010000080000000000000000000000000083010000636F72652E786D6C504B01
311
021400140006080800A654D54255019EA25F0000007C000000070000000000000000000000000093020000636E782E786D6C504B01021400140006080800A654D542A3BA594C67010000020300000C00000000000000000000000000170300006662782F636F72652E786D6C504B01021400140006080800A654D542FBFA19
311
BF7D0000009D0000000B00000000000000000000000000A80400006662782F636E782E786D6C504B01021400140006080800A654D542F6D6BFE12D0100001402000031000000000000000000000000004E0500006662782F45443833443738442D413242432D343941322D413543452D4342424245413645383832392F636F
311
72652E786D6C504B01021400140006080800A654D5426B8403F34E010000330300003000000000000000000000000000CA0600006662782F45443833443738442D413242432D343941322D413543452D4342424245413645383832392F636E782E786D6C504B01021400140006080800A654D54211E98B90A5050000801000
311
003400000000000000000000000000660800006662782F45443833443738442D413242432D343941322D413543452D4342424245413645383832392F6F626A656374732E786D6C504B01021400140006080000A654D54200000000000000000000000035000000000000000000000000005D0E00006662782F454438334437
311
38442D413242432D343941322D413543452D4342424245413645383832392F76657274696365732E62696E504B01021400140006080800A654D542F270F13306000000040000003600000000000000000000000000B00E00006662782F45443833443738442D413242432D343941322D413543452D43424242454136453838
311
32392F747269616E676C65732E62696E504B01021400140006080000A654D54200000000000000000000000037000000000000000000000000000A0F00006662782F45443833443738442D413242432D343941322D413543452D4342424245413645383832392F617474726962757465732E62696E504B0102140014000608
311
0800A654D542D5987DFC8F0000004101000036000000000000000000000000005F0F00006662782F45443833443738442D413242432D343941322D413543452D4342424245413645383832392F6469726563746F72792E786D6C504B01021400140006080800A654D542669CBDA1FD000000A00100003B0000000000000000
311
0000000000421000006662782F45443833443738442D413242432D343941322D413543452D4342424245413645383832392F7265736F75726365732F636F72652E786D6C504B0506000000000E000E0080040000981100000000
310
504B03040A0000080000A654D5423DEE336E79000000790000001B0000006175746F6465736B2D64657369676E2D7061636B6167652E786D6C3C3F786D6C2076657273696F6E3D22312E302220656E636F64696E673D227574662D3822203F3E3C666F726D6174733E3C666F726D61743E687474703A2F2F736368656D612E
310
6175746F6465736B2E636F6D2F64657369676E2D7061636B6167652F323030393C2F666F726D61743E3C2F666F726D6174733E504B0304140006080800A654D542D486FD9CA0000000F4000000130000005B436F6E74656E745F54797065735D2E786D6C7D8EC10E82300C865F65E91D8A1E8C310C0EEA1BF002731658846E
310
D98AC1B77784ABF1D8FE5FBFBF75BBCE937A534CCEB38643598122B6FEE978D0B0485F9C41B54DDD7D022595594E1A469170414C76A4D9A4D207E29CF43ECE46F218070CC6BECC4078ACAA135ACF422C856C0E68EA1BF5669944DDD7BCDE7B1F8E415D77AECB980613C2E4AC91FC167A2B244592486606FC29C8FD7F045B9A
310
EF7053A7E60B504B0304140006080800A654D5420DF56088EA0000007C01000008000000636F72652E786D6C8D90416EC3201045AF82665B618321B16B6122B7CA0D7A0104C44589C13250F5F8C58923B5BBAE66F4E7BF99D117A7EFF986BEEC1A5DF003D08A00B25E07E3FC34404E17DC013A49B186907ED9007935DB0136
310
19A498D690975DD2C127EB53517D307617558C3601D2B7D20C10F5A79D55A5722A8E78AD16A5AF6AB2157D7605CED919F438E24CD9E72ECEAE20C7233DBCD2F18C7933BE63CE39C11D1F096E9BB773DB11C6DBB613F5064B91DCFCBCAF57AB9235201B42192647DCD00F4A7AD6F694BD9043CF88A837FB1F282FE69F50763E
310
B1667FF7814590B43C721F48516F5994720FAAD42D37F903504B0304140006080800A654D54255019EA25F0000007C00000007000000636E782E786D6C4DCB3B0E80201045D1AD90E915ED2CF8AC45050C11660C8261F98AB1B07AC9C97D42D718D865D3E909258CFD00CCE24AC6E326A164D74DC0B4128928FF326038472B
310
A13128B1252AC747C6BAB984FC68F0B87FE8960A5C09FE86CFB69FBA01504B0304140006080800A654D54297A6A15766010000020300000C0000006662782F636F72652E786D6C8D525B6E833010BC8AE5DF0A6C030934328E68951BF4020E3814056C646C94E37779443455145548C69AD9D99D1DE0C75BD7A251D9A1313A
310
C72CA418295D9AAAD1758EBDBB04194647C1AD31EE5719465A762AC7138C05AFADF1FD0A95463BA51DA0DA546A05E530288751D9C225C743F9AD3A194AEFA062B886BD2CAFB256210B81863AC10767C1005A864C271697F38D930517DCFBA65AD9A68269CDA551168B62CF76EFAC380549547C064992D0204B0A1AA4D1C729
310
CD689CA469C6C92416DC35DDDD5D699574AAC222A22C0EE83E88D817A387383DB0F88DEE0E31E5642A7F10F9BEFAA7C837DAC5D16A77910D58303032137FB685881C1AE4087E88E0640A115E73C28F41432010B293E7F6BEC715A05195CED80498CAF88D1A65EB154CA5687E385958E83C3780CD9EF6895EF479DD033EA0D4
310
3558930EAE67EFA6E97C99BA46D12B1B8CEE86B4B19D6C37738BC5EDDC063D9597A635F63F6AB2AE4AD630C9F4F78A1F504B0304140006080800A654D542CF292FD87D0000009D0000000B0000006662782F636E782E786D6C4DCCD10A83201886E15B91FFDC357195821A99EC3E6259C84CC3E9D8E5AF46073BFAE0E1E315
310
DD67F5E86DD3CBC520815CAE806C78C4C9854542C93366803A25528CF9EF06288CAB95703028B1A458B693263B8FC5E75DBD0BCF1359CF064D4D8D296F38BE11DA63DD1A8DC99DEB819BBA6929854A89EA57DAF708AB2F504B0304140006080800A654D542D37A72982C01000014020000310000006662782F384138434233
310
44352D333936392D343133412D423744422D3146394243394435363733332F636F72652E786D6C8D515B6EC23010BC8AE52FAA2A891D873C906344403D412F6012432D881DF95171FC6E9A20B57FFC78ADD999D9D12EDF3FC63BFA56CE6B6B5A4C53829132BD1DB4B9B638864B5263B417DC591BFED0303272542D9E612CF8
310
D5D938AD506F4D5026006AECA056507AAF0246FD1D3E2DF6FD971A652A630086BFA593EC6FF2AA529A421B7882FBE020005A86CC2F16F5A13E76ECB44D5853364941D921E9AA5397D08FA63B36A76D5931C6B34528788C7A58E57A8038FAA2957BD564160B1EF4F88CDF3B25831AB0C809650929939C7E52B263D58EB277B2
310
DD31C2B399FE4F14A7E14551D426B07C8DBBC83C1694674B43F0C1C6F3FD19463D26EB029AE76DBCEADFB02029A1B42EF21C16B0506101E05916ABA70FD6C18237B733B0D96A5C168267F38DA0FC1E10EA7C4FF103504B0304140006080800A654D5420D23CCE45601000033030000300000006662782F3841384342334435
310
2D333936392D343133412D423744422D3146394243394435363733332F636E782E786D6CBD93CD6EC32010845F0571ADFC439CA6518489D4439FA0875E316C1A1A0C16E0AA79FB2E094973C9A152D50BB2668799D527CCB75FA3259F10A2F1AEA7AC6E2901A7BC36EEBDA773DA556B4AB68207EFD38D8D122747E86996A9E0
310
EFC1CF539134ECE46C13AAD6B8431103443F070511E57C9358AFA4C50070D58C228C03680D9A5C8DF8B58380ABA0381C49DA0379797E237EF80095226F728AE04DEE103C9FA5E9C64489B232C69E46B58751D6724E5E433CD45A2659B3FAD27567A79F24922F5C2AE760482EEF693EA9281BD5C8913738143CA680F48A291D
310
27A0424E93354A2684DC9C8C678FE0B37169B52C5E83E003BABBC56ABDC6B0D34CF06446280E154026D0542C5AD655EDAA5AB057D66EBAA70DEB1EDAC74DD7F226DB051FBCB7E512C640F01351DE2570890AC69B3CBE87AFF888360159FB70FC054804505ACF74AE197FC987ADBAE5F21FF934A7F78DB802FE05E21B504B03
310
04140006080800A654D542A67E2CD661070000991B0000340000006662782F38413843423344352D333936392D343133412D423744422D3146394243394435363733332F6F626A656374732E786D6CED595B73A33614FE2B0C7D691F8C8D2FD9A443E8C47176C7B3937667DDDDE98367181964A246084612B9F4D7F7E80206
310
6212DCA66F7DB001211D9DF39DAB0EC12F4F19751E3017246797AEEF4D5C07B3384F084B2FDD52EE47E7AEF34B18F03C978D69AEC350862F5D35EC8641CAF3B2B04309DEA392CACEE8C7E51F8E8831C3AE135324C4A52BE23B9C210F95324FB0B8F712249197EE9F3CDF3313DB64538E8ABB0ED10271CC24700AE30CA83886
310
29BFFD3871C7613056EFC340FDDB59B341B3E6FDB3C65AEA369784098958FC82A50E99D9209666FE7C75335D5C8C16F3F96C343F9BFAA3E5C7E56AE47F984DAECFAEAF2FAE6E2E80BD5D9E532B53820BCC12D0DFB31BFAC158BDA945B7081CE33ACE19C3B10612A0D2627509122C60AB067C93F6A3AF246ABCD612369EE7EA
310
BD65A1313C6B53E99B350C88165D10C46E57495C5D9BF2E5BB3F417031C428B9C012B8159283762D3C1CBCC20D27C1D88C86C1EEA00B229C0C49CC09A20E253B8E382805A6AA296160165832CA3938907294045A73E675DBB6C033DF769D635CEE4B4A9567B8A176AC08DC0F4BA139237F617EE0BE890CF004D29684C973CB
310
A57C2EB01B5E04633D1806EA329BDA970648674F512A3422E66D47D06BE5FAEB951B7EFEB87BDAA870707CF382E705E652199DD2A3E60B0CD95E154A765B7F90E6D40210C6806A571E40F90AC8FF0AD1E3C00AE88D93A7F9D3DCCE951C31B1CF7906BA7126CE68027F13C7D7FFEABE71178CEBC56DEDF5E1096EAAA03AFFF7
310
78B665D05859FE1B7086C103187CCE67F6D5264614ECF996300048198943731882D0BEDF3DB9E11A0227047A588568E883C8C0EE03DC06634BE6A095CABDACD73140D4EE311BA224804D5B24B0D1A3A74F903D38890F6A6A8AD807EFE25DCCF56AB5F9BC29F91EC5F8D6FAF40AEF092312B2E671865A98B724BAC7CF8F394F
310
40D097786F9A7867762B01682BCC15F06905827A38ECDCDA20867569AEC24DF0C60E2084CAD50DFAB744C49852C4705E56FBD6D14D196AEDF1B66670C3A9817836ED9830C70F445515E03487192D4621EFC79C140A4437FC6424AB83A6D723DDB7F5AF6091F5FC9E596B06A19721FABB0E5A477068597685B405A216787708
310
E7714E731EED9E2313E95CA825808DB6B77C6F1185586F94A4A8800769BFAB424A6AA48D12B2DF9702E2EA1116BFAFAF9BE630F166FEC269FE779C710ED1167C1771EB779D3D2292A114477B94F46DD7DCADA62D34C91ED21CEF29C8451E887C8E908C26094E4F81E624E217EF4A3DA5B910846101F9EA28F84D34261E0412
310
A3CD8A65A5D50ED044441996889E828022D303AE4E3BBAC68DA174789BC7DA7A5FD35893E87F64111C412D99B38840290A39E44DC67D6F0131A48DAE41B9832F585B455B8B414B2821E2E7E81193F44E9E82BA21DF837B0C4792524679816230EB01645FF88A526A87F71D8AEF55FE88E292BE9781084CF711A1B4CC22F811
310
06278F21AE5D07A65751681037B14FE20C8A32244B3E6493B3C5E4C53EA666E886C0C6467B42216C47192A7A506F05445D8F3835F8967A8F527765564428CB4B36C850BC59D79B2CF9AE5A15D981FCAA5211CAC68AB025180684C93AAB56311B4C5D075670231DA89E2381B2829A53D81B89C7AFBD4953EEDD805B3F7DDF0D
310
3228FC7AB4D78CA8F30A06CB63AB30108F48C6776EB8D1D7D112EAEF042787545FD59ACD0A10105391BCE4C4AAE8DB1ACA1B5BA3B9E12D9262FBC964DDEAFA6DED41F72318C31AA85DEA856B0574869944AA32B95537F42B8210DCA261C6D72AA79E42E52A4974D588E847D2A7CE5619D1DA34235E7187599EC18F6D098B69
310
99E02D4AC47D742B69B4218A752BA597910AE35705FCEDD3A6030F8C0C10E98B2AF0F06367AD1DBD56E5D25122F2AECC760C1108822DD152A31BAF60A9D548A5E5FAAACE14507781815915CFFF3F5934DB11FF9F2C526B18FFEE6441F31DA28768D3C8E6B132EB934E01757A5254DEE314A0BB0E35D53A89985C6EC5B7BE14
310
414CAC82FCE062AC8A1986601FC7FF3869F72541B35D87FFD392B6FFA2E03829A9B426AB26D591C275DD4C6117D3A9BF982F6F46B3B3F3C5683E994E46CBE5EA66B49A9E4D3E2CCF1667CB9B3A131BE26150C7329DBAE0D9C4B46A583D590CA0292B724A1238CC274E8A21E44B38D20FE89EF30C0BC89DCD5E77627BF20356
310
3F9836A7443B8A2B4EEE10F487A980AC0E6294B16C8F3B3F406752C239FBD2859E91770F7FD62A5D0712CFA50B9D0249622CBC1D7499543F4F13878CAB53BF2506710CB1546544B3A87EAE57296C5AD1BF9E32240B58B95A2D0CA8DB0A687EB51A149A37CB537C92E0153B0E9270BB2B25146B4696C3402D8CDEE6A07E231B
310
25ECDE6EFD04AEFBBA58BEA7E7B41019F4C5E0552330544712F154B7BB156396A5ABD59731B4D99CF56F4E41CB1474399CD2886330E652D553604560159666812498EAF5CFDB2F3C872F3C99A38B22E7C7A7F3B39FB6D77996E5CC0C6DAFE05096C077226773075F7D922DD40E58F5D6C5763AF1A75BDDD3B66DF6688704F6
310
54510403552DA104E9981CD8E58BFE94ED5E8E952A3AD3D72BC70651E805183B7AD1E235DFB81CF021F53545798CF6F34ADA57DBDA633D156C8243433AFC1B504B0304140006080000A654D542000000000000000000000000350000006662782F38413843423344352D333936392D343133412D423744422D314639424339
310
4435363733332F76657274696365732E62696E504B0304140006080800A654D542F270F1330600000004000000360000006662782F38413843423344352D333936392D343133412D423744422D3146394243394435363733332F747269616E676C65732E62696E636660600000504B0304140006080000A654D54200000000
310
0000000000000000370000006662782F38413843423344352D333936392D343133412D423744422D3146394243394435363733332F617474726962757465732E62696E504B0304140006080800A654D542D5987DFC8F00000041010000360000006662782F38413843423344352D333936392D343133412D423744422D3146
310
394243394435363733332F6469726563746F72792E786D6C858F410EC2201045AF4266AF15DDB800BA74E7C21B903225242D6328188F2FA5C4183471359997F9FF81E89FF3C41E1816475E02DF1F80A11FC8386F25A438EECEC07A250251FC3803E6F58C12560C4AD840E95E91C151A72936F496F35732D860FE635F62C8F2
310
DA16B505C545B74125BAA2FA9E05D7CC053D063734D5C7665FD55B6B8D15D5E9BFEAFD8490FFA45E504B0304140006080800A654D5421E5E4E10FD000000A00100003B0000006662782F38413843423344352D333936392D343133412D423744422D3146394243394435363733332F7265736F75726365732F636F72652E78
310
6D6C8D50596E833010BD0A9ADFCA60030904194774B9412F609909B5126CE4A5EAF16B27546AFFFA33337A8BE6E9F1F3D77A2B3ED1796DCD08ACA450A05176D6661921860BE9A1380BEEAC0DBF645018B9E2081906C11767E3B643CA9A802624D4D81977507A8F010A754BC7085E7DE02A4B194352F86BB94975950B96AC4C
310
74D209EE834B018AC7933C4138F4363A859E570F56F018F5BC6BF49C7EEA8B4607623AB2C3894DAFA4ADA717D2B62D257D3B51D2D5CF6F5D4F9BB6EB7A5E65B3E041AF3F1995431970065153D6107A24357B677468BA81354FF43034945759FEC714B7F99FA6A84D68EA3DEEC3E641B014E44E085EE5BED2BA979976EE567C
310
03504B010214000A0000080000A654D5423DEE336E79000000790000001B00000000000000000000000000000000006175746F6465736B2D64657369676E2D7061636B6167652E786D6C504B01021400140006080800A654D542D486FD9CA0000000F40000001300000000000000000000000000B20000005B436F6E74656E
310
745F54797065735D2E786D6C504B01021400140006080800A654D5420DF56088EA0000007C010000080000000000000000000000000083010000636F72652E786D6C504B01021400140006080800A654D54255019EA25F0000007C000000070000000000000000000000000093020000636E782E786D6C504B010214001400
310
06080800A654D54297A6A15766010000020300000C00000000000000000000000000170300006662782F636F72652E786D6C504B01021400140006080800A654D542CF292FD87D0000009D0000000B00000000000000000000000000A70400006662782F636E782E786D6C504B01021400140006080800A654D542D37A7298
310
2C0100001402000031000000000000000000000000004D0500006662782F38413843423344352D333936392D343133412D423744422D3146394243394435363733332F636F72652E786D6C504B01021400140006080800A654D5420D23CCE456010000330300003000000000000000000000000000C80600006662782F3841
310
3843423344352D333936392D343133412D423744422D3146394243394435363733332F636E782E786D6C504B01021400140006080800A654D542A67E2CD661070000991B000034000000000000000000000000006C0800006662782F38413843423344352D333936392D343133412D423744422D3146394243394435363733
310
332F6F626A656374732E786D6C504B01021400140006080000A654D54200000000000000000000000035000000000000000000000000001F1000006662782F38413843423344352D333936392D343133412D423744422D3146394243394435363733332F76657274696365732E62696E504B01021400140006080800A654D5
310
42F270F13306000000040000003600000000000000000000000000721000006662782F38413843423344352D333936392D343133412D423744422D3146394243394435363733332F747269616E676C65732E62696E504B01021400140006080000A654D5420000000000000000000000003700000000000000000000000000
310
CC1000006662782F38413843423344352D333936392D343133412D423744422D3146394243394435363733332F617474726962757465732E62696E504B01021400140006080800A654D542D5987DFC8F000000410100003600000000000000000000000000211100006662782F38413843423344352D333936392D34313341
310
2D423744422D3146394243394435363733332F6469726563746F72792E786D6C504B01021400140006080800A654D5421E5E4E10FD000000A00100003B00000000000000000000000000041200006662782F38413843423344352D333936392D343133412D423744422D3146394243394435363733332F7265736F75726365
310
732F636F72652E786D6C504B0506000000000E000E00800400005A1300000000
  0
XRECORD
  5
27
102
{ACAD_REACTORS
330
22
102
}
330
22
100
AcDbXrecord
280
     1
270
     1
271
     1
  0
XRECORD
  5
26
102
{ACAD_REACTORS
330
22
102
}
330
22
100
AcDbXrecord
280
     1
270
     1
271
     1
  0
XRECORD
  5
28
102
{ACAD_REACTORS
330
22
102
}
330
22
100
AcDbXrecord
280
     1
270
     1
271
     1
  0
XRECORD
  5
25
102
{ACAD_REACTORS
330
22
102
}
330
22
100
AcDbXrecord
280
     1
270
     1
271
     1
  0
XRECORD
  5
E75
102
{ACAD_REACTORS
330
E74
102
}
330
E74
100
AcDbXrecord
280
     1
102
ACAD_ROUNDTRIP_2012_MLEADER_STYLE
298
     1
  0
CELLSTYLEMAP
  5
E73
102
{ACAD_REACTORS
330
E72
102
}
330
E72
100
AcDbCellStyleMap
 90
        3
300
CELLSTYLE
  1
TABLEFORMAT_BEGIN
 90
        5
170
     1
 91
        0
 92
    32768
 62
   257
 93
        1
300
CONTENTFORMAT
  1
CONTENTFORMAT_BEGIN
 90
        0
 91
        0
 92
      512
 93
        0
300

 40
0.0
140
1.0
 94
        5
 62
     0
340
55
144
0.25
309
CONTENTFORMAT_END
171
     0
 94
        0
309
TABLEFORMAT_END
  1
CELLSTYLE_BEGIN
 90
        1
 91
        1
300
_TITLE
309
CELLSTYLE_END
300
CELLSTYLE
  1
TABLEFORMAT_BEGIN
 90
        5
170
     1
 91
        0
 92
        0
 62
   257
 93
        1
300
CONTENTFORMAT
  1
CONTENTFORMAT_BEGIN
 90
        0
 91
        0
 92
      512
 93
        0
300

 40
0.0
140
1.0
 94
        5
 62
     0
340
55
144
0.18
309
CONTENTFORMAT_END
171
     0
 94
        0
309
TABLEFORMAT_END
  1
CELLSTYLE_BEGIN
 90
        2
 91
        1
300
_HEADER
309
CELLSTYLE_END
300
CELLSTYLE
  1
TABLEFORMAT_BEGIN
 90
        5
170
     1
 91
        0
 92
        0
 62
   257
 93
        1
300
CONTENTFORMAT
  1
CONTENTFORMAT_BEGIN
 90
        0
 91
        0
 92
      512
 93
        0
300

 40
0.0
140
1.0
 94
        2
 62
     0
340
55
144
0.18
309
CONTENTFORMAT_END
171
     0
 94
        0
309
TABLEFORMAT_END
  1
CELLSTYLE_BEGIN
 90
        3
 91
        2
300
_DATA
309
CELLSTYLE_END
  0
ENDSEC
  0
EOF
