  0
SECTION
  2
HEADER
  9
$ACADVER
  1
AC1024
  9
$ACADMAINTVER
 70
    63
  9
$DWGCODEPAGE
  3
ANSI_1252
  9
$AUTHOR
  1
GN
  9
$REVISIONNUMBER
  1
-
  9
$CUSTOMPROPERTYTAG
  1
Manager
  9
$CUSTOMPROPERTY
  1

  9
$CUSTOMPROPERTYTAG
  1
Company
  9
$CUSTOMPROPERTY
  1

  9
$CUSTOMPROPERTYTAG
  1
Category
  9
$CUSTOMPROPERTY
  1

  9
$CUSTOMPROPERTYTAG
  1
Part Number
  9
$CUSTOMPROPERTY
  1
NPDD7260G-S
  9
$CUSTOMPROPERTYTAG
  1
Description
  9
$CUSTOMPROPERTY
  1
NPDD PANEL MASTER VIEW
  9
$CUSTOMPROPERTYTAG
  1
Project
  9
$CUSTOMPROPERTY
  1

  9
$CUSTOMPROPERTYTAG
  1
Designer
  9
$CUSTOMPROPERTY
  1
GN
  9
$CUSTOMPROPERTYTAG
  1
Engineer
  9
$CUSTOMPROPERTY
  1

  9
$CUSTOMPROPERTYTAG
  1
Authority
  9
$CUSTOMPROPERTY
  1

  9
$CUSTOMPROPERTYTAG
  1
Cost Center
  9
$CUSTOMPROPERTY
  1

  9
$CUSTOMPROPERTYTAG
  1
Vendor
  9
$CUSTOMPROPERTY
  1

  9
$CUSTOMPROPERTYTAG
  1
User Status
  9
$CUSTOMPROPERTY
  1

  9
$CUSTOMPROPERTYTAG
  1
Design Status
  9
$CUSTOMPROPERTY
  1
WorkInProgress
  9
$CUSTOMPROPERTYTAG
  1
Checked by
  9
$CUSTOMPROPERTY
  1
NJ
  9
$CUSTOMPROPERTYTAG
  1
Date Checked
  9
$CUSTOMPROPERTY
  1
07/08/2013
  9
$CUSTOMPROPERTYTAG
  1
Engr Approved by
  9
$CUSTOMPROPERTY
  1

  9
$CUSTOMPROPERTYTAG
  1
Mfg Approved by
  9
$CUSTOMPROPERTY
  1

  9
$CUSTOMPROPERTYTAG
  1
DWG. NO
  9
$CUSTOMPROPERTY
  1

  9
$CUSTOMPROPERTYTAG
  1
NUMBER OF SHEETS
  9
$CUSTOMPROPERTY
  1
2
  9
$CUSTOMPROPERTYTAG
  1
DRAWING #
  9
$CUSTOMPROPERTY
  1
1
  9
$INSBASE
 10
0.0
 20
0.0
 30
0.0
  9
$EXTMIN
 10
0.0
 20
0.0
 30
0.0
  9
$EXTMAX
 10
187.0
 20
121.0
 30
0.0
  9
$LIMMIN
 10
0.0
 20
0.0
  9
$LIMMAX
 10
187.0
 20
121.0
  9
$ORTHOMODE
 70
     0
  9
$REGENMODE
 70
     1
  9
$FILLMODE
 70
     1
  9
$QTEXTMODE
 70
     0
  9
$MIRRTEXT
 70
     0
  9
$LTSCALE
 40
11.0
  9
$ATTMODE
 70
     1
  9
$TEXTSIZE
 40
0.2
  9
$TRACEWID
 40
0.05
  9
$TEXTSTYLE
  7
Standard
  9
$CLAYER
  8
0
  9
$CELTYPE
  6
ByLayer
  9
$CECOLOR
 62
   256
  9
$CELTSCALE
 40
1.0
  9
$DISPSILH
 70
     0
  9
$DIMSCALE
 40
1.0
  9
$DIMASZ
 40
0.0708661417322835
  9
$DIMEXO
 40
0.0625
  9
$DIMDLI
 40
0.38
  9
$DIMRND
 40
0.0
  9
$DIMDLE
 40
0.0
  9
$DIMEXE
 40
0.18
  9
$DIMTP
 40
0.0
  9
$DIMTM
 40
0.0
  9
$DIMTXT
 40
0.0708661417322835
  9
$DIMCEN
 40
0.09
  9
$DIMTSZ
 40
0.0
  9
$DIMTOL
 70
     0
  9
$DIMLIM
 70
     0
  9
$DIMTIH
 70
     1
  9
$DIMTOH
 70
     1
  9
$DIMSE1
 70
     0
  9
$DIMSE2
 70
     0
  9
$DIMTAD
 70
     0
  9
$DIMZIN
 70
     0
  9
$DIMBLK
  1

  9
$DIMASO
 70
     1
  9
$DIMSHO
 70
     1
  9
$DIMPOST
  1

  9
$DIMAPOST
  1

  9
$DIMALT
 70
     0
  9
$DIMALTD
 70
     2
  9
$DIMALTF
 40
25.4
  9
$DIMLFAC
 40
1.0
  9
$DIMTOFL
 70
     0
  9
$DIMTVP
 40
0.0
  9
$DIMTIX
 70
     0
  9
$DIMSOXD
 70
     0
  9
$DIMSAH
 70
     0
  9
$DIMBLK1
  1

  9
$DIMBLK2
  1

  9
$DIMSTYLE
  2
STANDARD
  9
$DIMCLRD
 70
     0
  9
$DIMCLRE
 70
     0
  9
$DIMCLRT
 70
     0
  9
$DIMTFAC
 40
1.0
  9
$DIMGAP
 40
0.09
  9
$DIMJUST
 70
     0
  9
$DIMSD1
 70
     0
  9
$DIMSD2
 70
     0
  9
$DIMTOLJ
 70
     1
  9
$DIMTZIN
 70
     0
  9
$DIMALTZ
 70
     0
  9
$DIMALTTZ
 70
     0
  9
$DIMUPT
 70
     0
  9
$DIMDEC
 70
     4
  9
$DIMTDEC
 70
     4
  9
$DIMALTU
 70
     2
  9
$DIMALTTD
 70
     2
  9
$DIMTXSTY
  7
Standard
  9
$DIMAUNIT
 70
     0
  9
$DIMADEC
 70
     0
  9
$DIMALTRND
 40
0.0
  9
$DIMAZIN
 70
     0
  9
$DIMDSEP
 70
    46
  9
$DIMATFIT
 70
     3
  9
$DIMFRAC
 70
     0
  9
$DIMLDRBLK
  1

  9
$DIMLUNIT
 70
     2
  9
$DIMLWD
 70
    -2
  9
$DIMLWE
 70
    -2
  9
$DIMTMOVE
 70
     0
  9
$DIMFXL
 40
1.0
  9
$DIMFXLON
 70
     0
  9
$DIMJOGANG
 40
0.7853981633974483
  9
$DIMTFILL
 70
     0
  9
$DIMTFILLCLR
 70
     0
  9
$DIMARCSYM
 70
     0
  9
$DIMLTYPE
  6

  9
$DIMLTEX1
  6

  9
$DIMLTEX2
  6

  9
$DIMTXTDIRECTION
 70
     0
  9
$LUNITS
 70
     2
  9
$LUPREC
 70
     4
  9
$SKETCHINC
 40
0.1
  9
$FILLETRAD
 40
0.0
  9
$AUNITS
 70
     0
  9
$AUPREC
 70
     0
  9
$MENU
  1
.
  9
$ELEVATION
 40
0.0
  9
$PELEVATION
 40
0.0
  9
$THICKNESS
 40
0.0
  9
$LIMCHECK
 70
     0
  9
$CHAMFERA
 40
0.0
  9
$CHAMFERB
 40
0.0
  9
$CHAMFERC
 40
0.0
  9
$CHAMFERD
 40
0.0
  9
$SKPOLY
 70
     0
  9
$TDCREATE
 40
2456483.426559329
  9
$TDUCREATE
 40
2456483.197392662
  9
$TDUPDATE
 40
2456483.426559329
  9
$TDUUPDATE
 40
2456483.197392662
  9
$TDINDWG
 40
0.0000463542
  9
$TDUSRTIMER
 40
0.0000463542
  9
$USRTIMER
 70
     1
  9
$ANGBASE
 50
0.0
  9
$ANGDIR
 70
     0
  9
$PDMODE
 70
     0
  9
$PDSIZE
 40
0.0
  9
$PLINEWID
 40
0.0
  9
$SPLFRAME
 70
     0
  9
$SPLINETYPE
 70
     6
  9
$SPLINESEGS
 70
     8
  9
$HANDSEED
  5
E66
  9
$SURFTAB1
 70
     6
  9
$SURFTAB2
 70
     6
  9
$SURFTYPE
 70
     6
  9
$SURFU
 70
     6
  9
$SURFV
 70
     6
  9
$UCSBASE
  2

  9
$UCSNAME
  2

  9
$UCSORG
 10
0.0
 20
0.0
 30
0.0
  9
$UCSXDIR
 10
1.0
 20
0.0
 30
0.0
  9
$UCSYDIR
 10
0.0
 20
1.0
 30
0.0
  9
$UCSORTHOREF
  2

  9
$UCSORTHOVIEW
 70
     0
  9
$UCSORGTOP
 10
0.0
 20
0.0
 30
0.0
  9
$UCSORGBOTTOM
 10
0.0
 20
0.0
 30
0.0
  9
$UCSORGLEFT
 10
0.0
 20
0.0
 30
0.0
  9
$UCSORGRIGHT
 10
0.0
 20
0.0
 30
0.0
  9
$UCSORGFRONT
 10
0.0
 20
0.0
 30
0.0
  9
$UCSORGBACK
 10
0.0
 20
0.0
 30
0.0
  9
$PUCSBASE
  2

  9
$PUCSNAME
  2

  9
$PUCSORG
 10
0.0
 20
0.0
 30
0.0
  9
$PUCSXDIR
 10
1.0
 20
0.0
 30
0.0
  9
$PUCSYDIR
 10
0.0
 20
1.0
 30
0.0
  9
$PUCSORTHOREF
  2

  9
$PUCSORTHOVIEW
 70
     0
  9
$PUCSORGTOP
 10
0.0
 20
0.0
 30
0.0
  9
$PUCSORGBOTTOM
 10
0.0
 20
0.0
 30
0.0
  9
$PUCSORGLEFT
 10
0.0
 20
0.0
 30
0.0
  9
$PUCSORGRIGHT
 10
0.0
 20
0.0
 30
0.0
  9
$PUCSORGFRONT
 10
0.0
 20
0.0
 30
0.0
  9
$PUCSORGBACK
 10
0.0
 20
0.0
 30
0.0
  9
$USERI1
 70
     0
  9
$USERI2
 70
     0
  9
$USERI3
 70
     0
  9
$USERI4
 70
     0
  9
$USERI5
 70
     0
  9
$USERR1
 40
0.0
  9
$USERR2
 40
0.0
  9
$USERR3
 40
0.0
  9
$USERR4
 40
0.0
  9
$USERR5
 40
0.0
  9
$WORLDVIEW
 70
     1
  9
$SHADEDGE
 70
     3
  9
$SHADEDIF
 70
    70
  9
$TILEMODE
 70
     1
  9
$MAXACTVP
 70
    64
  9
$PINSBASE
 10
0.0
 20
0.0
 30
0.0
  9
$PLIMCHECK
 70
     0
  9
$PEXTMIN
 10
0.0
 20
0.0
 30
0.0
  9
$PEXTMAX
 10
187.0
 20
121.0
 30
0.0
  9
$PLIMMIN
 10
0.0
 20
0.0
  9
$PLIMMAX
 10
187.0
 20
121.0
  9
$UNITMODE
 70
     0
  9
$VISRETAIN
 70
     1
  9
$PLINEGEN
 70
     0
  9
$PSLTSCALE
 70
     1
  9
$TREEDEPTH
 70
  3020
  9
$CMLSTYLE
  2
Standard
  9
$CMLJUST
 70
     0
  9
$CMLSCALE
 40
1.0
  9
$PROXYGRAPHICS
 70
     1
  9
$MEASUREMENT
 70
     0
  9
$CELWEIGHT
370
    -1
  9
$ENDCAPS
280
     0
  9
$JOINSTYLE
280
     0
  9
$LWDISPLAY
290
     0
  9
$INSUNITS
 70
     1
  9
$HYPERLINKBASE
  1

  9
$STYLESHEET
  1

  9
$XEDIT
290
     1
  9
$CEPSNTYPE
380
     0
  9
$PSTYLEMODE
290
     1
  9
$FINGERPRINTGUID
  2
{E4662653-177E-4518-858E-D703706AA881}
  9
$VERSIONGUID
  2
{69A1E6E9-1920-4A8D-8015-42995E452719}
  9
$EXTNAMES
290
     1
  9
$PSVPSCALE
 40
0.0
  9
$OLESTARTUP
290
     0
  9
$SORTENTS
280
   127
  9
$INDEXCTL
280
     0
  9
$HIDETEXT
280
     1
  9
$XCLIPFRAME
280
     2
  9
$HALOGAP
280
     0
  9
$OBSCOLOR
 70
   257
  9
$OBSLTYPE
280
     0
  9
$INTERSECTIONDISPLAY
280
     0
  9
$INTERSECTIONCOLOR
 70
   257
  9
$DIMASSOC
280
     1
  9
$PROJECTNAME
  1

  9
$CAMERADISPLAY
290
     0
  9
$LENSLENGTH
 40
50.0
  9
$CAMERAHEIGHT
 40
0.0
  9
$STEPSPERSEC
 40
2.0
  9
$STEPSIZE
 40
6.0
  9
$3DDWFPREC
 40
2.0
  9
$PSOLWIDTH
 40
0.25
  9
$PSOLHEIGHT
 40
4.0
  9
$LOFTANG1
 40
1.570796326794896
  9
$LOFTANG2
 40
1.570796326794896
  9
$LOFTMAG1
 40
0.0
  9
$LOFTMAG2
 40
0.0
  9
$LOFTPARAM
 70
     7
  9
$LOFTNORMALS
280
     1
  9
$LATITUDE
 40
37.795
  9
$LONGITUDE
 40
-122.394
  9
$NORTHDIRECTION
 40
0.0
  9
$TIMEZONE
 70
 -8000
  9
$LIGHTGLYPHDISPLAY
280
     1
  9
$TILEMODELIGHTSYNCH
280
     1
  9
$CMATERIAL
347
11
  9
$SOLIDHIST
280
     0
  9
$SHOWHIST
280
     1
  9
$DWFFRAME
280
     2
  9
$DGNFRAME
280
     0
  9
$REALWORLDSCALE
290
     1
  9
$INTERFERECOLOR
 62
     1
  9
$INTERFEREOBJVS
345
33
  9
$INTERFEREVPVS
346
30
  9
$CSHADOW
280
     0
  9
$SHADOWPLANELOCATION
 40
0.0
  0
ENDSEC
  0
SECTION
  2
CLASSES
  0
CLASS
  1
ACDBDICTIONARYWDFLT
  2
AcDbDictionaryWithDefault
  3
ObjectDBX Classes
 90
        0
 91
        1
280
     0
281
     0
  0
CLASS
  1
MATERIAL
  2
AcDbMaterial
  3
ObjectDBX Classes
 90
     1153
 91
        3
280
     0
281
     0
  0
CLASS
  1
VISUALSTYLE
  2
AcDbVisualStyle
  3
ObjectDBX Classes
 90
     4095
 91
       24
280
     0
281
     0
  0
CLASS
  1
SCALE
  2
AcDbScale
  3
ObjectDBX Classes
 90
     1153
 91
       17
280
     0
281
     0
  0
CLASS
  1
TABLESTYLE
  2
AcDbTableStyle
  3
ObjectDBX Classes
 90
     4095
 91
        1
280
     0
281
     0
  0
CLASS
  1
MLEADERSTYLE
  2
AcDbMLeaderStyle
  3
ACDB_MLEADERSTYLE_CLASS
 90
     4095
 91
        1
280
     0
281
     0
  0
CLASS
  1
DICTIONARYVAR
  2
AcDbDictionaryVar
  3
ObjectDBX Classes
 90
        0
 91
        3
280
     0
281
     0
  0
CLASS
  1
CELLSTYLEMAP
  2
AcDbCellStyleMap
  3
ObjectDBX Classes
 90
     1152
 91
        1
280
     0
281
     0
  0
ENDSEC
  0
SECTION
  2
TABLES
  0
TABLE
  2
VPORT
  5
8
330
0
100
AcDbSymbolTable
 70
     1
  0
VPORT
  5
57
330
8
100
AcDbSymbolTableRecord
100
AcDbViewportTableRecord
  2
*Active
 70
     0
 10
0.0
 20
0.0
 11
1.0
 21
1.0
 12
93.49999999999999
 22
60.5
 13
0.0
 23
0.0
 14
1.0
 24
1.0
 15
0.0
 25
0.0
 16
0.0
 26
0.0
 36
1.0
 17
0.0
 27
0.0
 37
0.0
 40
121.0
 41
1.545454545454545
 42
50.0
 43
0.0
 44
0.0
 50
0.0
 51
0.0
 71
     0
 72
   100
 73
     1
 74
     1
 75
     0
 76
     0
 77
     0
 78
     0
281
     0
 65
     1
110
0.0
120
0.0
130
0.0
111
1.0
121
0.0
131
0.0
112
0.0
122
1.0
132
0.0
 79
     0
146
0.0
 60
     3
 61
     5
292
     1
282
     1
141
0.0
142
0.0
 63
   250
421
  3355443
  0
ENDTAB
  0
TABLE
  2
LTYPE
  5
5
330
0
100
AcDbSymbolTable
 70
    59
  0
LTYPE
  5
5B
330
5
100
AcDbSymbolTableRecord
100
AcDbLinetypeTableRecord
  2
ByBlock
 70
     0
  3

 72
    65
 73
     0
 40
0.0
  0
LTYPE
  5
5C
330
5
100
AcDbSymbolTableRecord
100
AcDbLinetypeTableRecord
  2
ByLayer
 70
     0
  3

 72
    65
 73
     0
 40
0.0
  0
LTYPE
  5
5D
330
5
100
AcDbSymbolTableRecord
100
AcDbLinetypeTableRecord
  2
Continuous
 70
     0
  3
Solid line
 72
    65
 73
     0
 40
0.0
  0
LTYPE
  5
7C
330
5
100
AcDbSymbolTableRecord
100
AcDbLinetypeTableRecord
  2
BY_STANDARD
 70
     0
  3
By Standard ____________    ____    ____   _
 72
    65
 73
     6
 40
1.240299999999999
 49
0.6614
 74
     0
 49
-0.0827
 74
     0
 49
0.1654
 74
     0
 49
-0.0827
 74
     0
 49
0.1654
 74
     0
 49
-0.0827
 74
     0
  0
LTYPE
  5
7D
330
5
100
AcDbSymbolTableRecord
100
AcDbLinetypeTableRecord
  2
CHAIN
 70
     0
  3
Chain ____ _ ____ _ ____ _ ____ _ ____ _ ____
 72
    65
 73
     4
 40
0.7087
 49
0.4724000000000001
 74
     0
 49
-0.0591
 74
     0
 49
0.1181
 74
     0
 49
-0.0591
 74
     0
  0
LTYPE
  5
7E
330
5
100
AcDbSymbolTableRecord
100
AcDbLinetypeTableRecord
  2
DASH_DOT
 70
     0
  3
Dash dot __ . __ . __ . __ . __ . __ . __ . __
 72
    65
 73
     4
 40
0.37
 49
0.24
 74
     0
 49
-0.06
 74
     0
 49
0.01
 74
     0
 49
-0.06
 74
     0
  0
LTYPE
  5
7F
330
5
100
AcDbSymbolTableRecord
100
AcDbLinetypeTableRecord
  2
DOUBLE_DASH_DOT
 70
     0
  3
Double-Dash Dot __ __ . __ __ . __ __ . __ _
 72
    65
 73
     6
 40
0.4398
 49
0.24
 74
     0
 49
-0.06
 74
     0
 49
0.0098
 74
     0
 49
-0.06
 74
     0
 49
0.01
 74
     0
 49
-0.06
 74
     0
  0
LTYPE
  5
80
330
5
100
AcDbSymbolTableRecord
100
AcDbLinetypeTableRecord
  2
DASH_TRIPLE_DOT
 70
     0
  3
Dash Triple-Dot _ . . . _ . . . _ . . . _
 72
    65
 73
     8
 40
0.51
 49
0.24
 74
     0
 49
-0.06
 74
     0
 49
0.01
 74
     0
 49
-0.06
 74
     0
 49
0.01
 74
     0
 49
-0.06
 74
     0
 49
0.01
 74
     0
 49
-0.06
 74
     0
  0
LTYPE
  5
81
330
5
100
AcDbSymbolTableRecord
100
AcDbLinetypeTableRecord
  2
DASHED
 70
     0
  3
Dashed __ __ __ __ __ __ __ __ __ __ __ __ __ _
 72
    65
 73
     2
 40
0.2067
 49
0.1654
 74
     0
 49
-0.0413
 74
     0
  0
LTYPE
  5
82
330
5
100
AcDbSymbolTableRecord
100
AcDbLinetypeTableRecord
  2
DASH_DOUBLE_DOT
 70
     0
  3
Dash Double-Dot __ . . __ . . __ . . __ . .
 72
    65
 73
     6
 40
0.4398
 49
0.24
 74
     0
 49
-0.06
 74
     0
 49
0.0098
 74
     0
 49
-0.06
 74
     0
 49
0.01
 74
     0
 49
-0.06
 74
     0
  0
LTYPE
  5
83
330
5
100
AcDbSymbolTableRecord
100
AcDbLinetypeTableRecord
  2
DASHED_SPACE
 70
     0
  3
Dashed Space __ __ __ __ __ __ __ __ __ __ __ _
 72
    65
 73
     2
 40
0.2067
 49
0.1654
 74
     0
 49
-0.0413
 74
     0
  0
LTYPE
  5
84
330
5
100
AcDbSymbolTableRecord
100
AcDbLinetypeTableRecord
  2
DOTTED
 70
     0
  3
Dotted . . . . . . . . . . . . . . . . . . . . 
 72
    65
 73
     2
 40
0.0482
 49
0.0069
 74
     0
 49
-0.0413
 74
     0
  0
LTYPE
  5
85
330
5
100
AcDbSymbolTableRecord
100
AcDbLinetypeTableRecord
  2
DOUBLE_DASH_CHAIN
 70
     0
  3
Double-Dash Chain ______  __  __  ______  __  _
 72
    65
 73
     6
 40
1.240299999999999
 49
0.6614
 74
     0
 49
-0.0827
 74
     0
 49
0.1654
 74
     0
 49
-0.0827
 74
     0
 49
0.1654
 74
     0
 49
-0.0827
 74
     0
  0
LTYPE
  5
87
330
5
100
AcDbSymbolTableRecord
100
AcDbLinetypeTableRecord
  2
DOUBLE_DASH_DOUBLE_DOT
 70
     0
  3
Double-Dash Double-dot _ _ . . _ _ . . _
 72
    65
 73
     8
 40
0.7400000000000001
 49
0.24
 74
     0
 49
-0.06
 74
     0
 49
0.24
 74
     0
 49
-0.06
 74
     0
 49
0.01
 74
     0
 49
-0.06
 74
     0
 49
0.01
 74
     0
 49
-0.06
 74
     0
  0
LTYPE
  5
88
330
5
100
AcDbSymbolTableRecord
100
AcDbLinetypeTableRecord
  2
DOUBLE_DASH_TRIPLE_DOT
 70
     0
  3
Double Dash Triple Dot __ __ . . . __ __ . .
 72
    65
 73
    10
 40
0.8100000000000001
 49
0.24
 74
     0
 49
-0.06
 74
     0
 49
0.24
 74
     0
 49
-0.06
 74
     0
 49
0.01
 74
     0
 49
-0.06
 74
     0
 49
0.01
 74
     0
 49
-0.06
 74
     0
 49
0.01
 74
     0
 49
-0.06
 74
     0
  0
LTYPE
  5
89
330
5
100
AcDbSymbolTableRecord
100
AcDbLinetypeTableRecord
  2
LONG_DASH_DOTTED
 70
     0
  3
Long Dash Dotted ____ . ____ . ____ . ____ . _
 72
    65
 73
     4
 40
0.3543
 49
0.2362
 74
     0
 49
-0.0295
 74
     0
 49
0.0591
 74
     0
 49
-0.0295
 74
     0
  0
LTYPE
  5
8A
330
5
100
AcDbSymbolTableRecord
100
AcDbLinetypeTableRecord
  2
LONG_DASH_DOUBLE_DOT
 70
     0
  3
Long Dash Double Dot ________  .  .  ________  
 72
    65
 73
     6
 40
0.6799999999999999
 49
0.48
 74
     0
 49
-0.06
 74
     0
 49
0.01
 74
     0
 49
-0.06
 74
     0
 49
0.01
 74
     0
 49
-0.06
 74
     0
  0
LTYPE
  5
8B
330
5
100
AcDbSymbolTableRecord
100
AcDbLinetypeTableRecord
  2
LONG_DASH_TRIPLE_DOT
 70
     0
  3
Long Dash Triple Dot ____ ... ____ ... ____
 72
    65
 73
     8
 40
0.3689
 49
0.2362
 74
     0
 49
-0.0295
 74
     0
 49
0.0049
 74
     0
 49
-0.0295
 74
     0
 49
0.0049
 74
     0
 49
-0.0295
 74
     0
 49
0.0049
 74
     0
 49
-0.0295
 74
     0
  0
LTYPE
  5
8C
330
5
100
AcDbSymbolTableRecord
100
AcDbLinetypeTableRecord
  2
BORDER
 70
     0
  3
Border __ __ . __ __ . __ __ . __ __ . __ __ .
 72
    65
 73
     6
 40
1.75
 49
0.5
 74
     0
 49
-0.25
 74
     0
 49
0.5
 74
     0
 49
-0.25
 74
     0
 49
0.0
 74
     0
 49
-0.25
 74
     0
  0
LTYPE
  5
8D
330
5
100
AcDbSymbolTableRecord
100
AcDbLinetypeTableRecord
  2
BORDER2
 70
     0
  3
Border (.5x) __.__.__.__.__.__.__.__.__.__.__.
 72
    65
 73
     6
 40
0.875
 49
0.25
 74
     0
 49
-0.125
 74
     0
 49
0.25
 74
     0
 49
-0.125
 74
     0
 49
0.0
 74
     0
 49
-0.125
 74
     0
  0
LTYPE
  5
8E
330
5
100
AcDbSymbolTableRecord
100
AcDbLinetypeTableRecord
  2
BORDERX2
 70
     0
  3
Border (2x) ____  ____  .  ____  ____  .  ___
 72
    65
 73
     6
 40
3.5
 49
1.0
 74
     0
 49
-0.5
 74
     0
 49
1.0
 74
     0
 49
-0.5
 74
     0
 49
0.0
 74
     0
 49
-0.5
 74
     0
  0
LTYPE
  5
8F
330
5
100
AcDbSymbolTableRecord
100
AcDbLinetypeTableRecord
  2
CENTER
 70
     0
  3
Center ____ _ ____ _ ____ _ ____ _ ____ _ ____
 72
    65
 73
     4
 40
2.0
 49
1.25
 74
     0
 49
-0.25
 74
     0
 49
0.25
 74
     0
 49
-0.25
 74
     0
  0
LTYPE
  5
90
330
5
100
AcDbSymbolTableRecord
100
AcDbLinetypeTableRecord
  2
CENTER2
 70
     0
  3
Center (.5x) ___ _ ___ _ ___ _ ___ _ ___ _ ___
 72
    65
 73
     4
 40
1.125
 49
0.75
 74
     0
 49
-0.125
 74
     0
 49
0.125
 74
     0
 49
-0.125
 74
     0
  0
LTYPE
  5
91
330
5
100
AcDbSymbolTableRecord
100
AcDbLinetypeTableRecord
  2
CENTERX2
 70
     0
  3
Center (2x) ________  __  ________  __  _____
 72
    65
 73
     4
 40
4.0
 49
2.5
 74
     0
 49
-0.5
 74
     0
 49
0.5
 74
     0
 49
-0.5
 74
     0
  0
LTYPE
  5
92
330
5
100
AcDbSymbolTableRecord
100
AcDbLinetypeTableRecord
  2
DASHDOT2
 70
     0
  3
Dash dot (.5x) _._._._._._._._._._._._._._._.
 72
    65
 73
     4
 40
0.5
 49
0.25
 74
     0
 49
-0.125
 74
     0
 49
0.0
 74
     0
 49
-0.125
 74
     0
  0
LTYPE
  5
93
330
5
100
AcDbSymbolTableRecord
100
AcDbLinetypeTableRecord
  2
DASHDOTX2
 70
     0
  3
Dash dot (2x) ____  .  ____  .  ____  .  ___
 72
    65
 73
     4
 40
2.0
 49
1.0
 74
     0
 49
-0.5
 74
     0
 49
0.0
 74
     0
 49
-0.5
 74
     0
  0
LTYPE
  5
95
330
5
100
AcDbSymbolTableRecord
100
AcDbLinetypeTableRecord
  2
DASHED2
 70
     0
  3
Dashed (.5x) _ _ _ _ _ _ _ _ _ _ _ _ _ _ _ _ _
 72
    65
 73
     2
 40
0.375
 49
0.25
 74
     0
 49
-0.125
 74
     0
  0
LTYPE
  5
96
330
5
100
AcDbSymbolTableRecord
100
AcDbLinetypeTableRecord
  2
DASHEDX2
 70
     0
  3
Dashed (2x) ____  ____  ____  ____  ____  ___
 72
    65
 73
     2
 40
1.5
 49
1.0
 74
     0
 49
-0.5
 74
     0
  0
LTYPE
  5
97
330
5
100
AcDbSymbolTableRecord
100
AcDbLinetypeTableRecord
  2
DIVIDE
 70
     0
  3
Divide ____ . . ____ . . ____ . . ____ . . ____
 72
    65
 73
     6
 40
1.25
 49
0.5
 74
     0
 49
-0.25
 74
     0
 49
0.0
 74
     0
 49
-0.25
 74
     0
 49
0.0
 74
     0
 49
-0.25
 74
     0
  0
LTYPE
  5
98
330
5
100
AcDbSymbolTableRecord
100
AcDbLinetypeTableRecord
  2
DIVIDE2
 70
     0
  3
Divide (.5x) __..__..__..__..__..__..__..__.._
 72
    65
 73
     6
 40
0.625
 49
0.25
 74
     0
 49
-0.125
 74
     0
 49
0.0
 74
     0
 49
-0.125
 74
     0
 49
0.0
 74
     0
 49
-0.125
 74
     0
  0
LTYPE
  5
99
330
5
100
AcDbSymbolTableRecord
100
AcDbLinetypeTableRecord
  2
DIVIDEX2
 70
     0
  3
Divide (2x) ________  .  .  ________  .  .  _
 72
    65
 73
     6
 40
2.5
 49
1.0
 74
     0
 49
-0.5
 74
     0
 49
0.0
 74
     0
 49
-0.5
 74
     0
 49
0.0
 74
     0
 49
-0.5
 74
     0
  0
LTYPE
  5
9A
330
5
100
AcDbSymbolTableRecord
100
AcDbLinetypeTableRecord
  2
DOT
 70
     0
  3
Dot . . . . . . . . . . . . . . . . . . . . . .
 72
    65
 73
     2
 40
0.25
 49
0.0
 74
     0
 49
-0.25
 74
     0
  0
LTYPE
  5
9B
330
5
100
AcDbSymbolTableRecord
100
AcDbLinetypeTableRecord
  2
DOT2
 70
     0
  3
Dot (.5x) .....................................
 72
    65
 73
     2
 40
0.125
 49
0.0
 74
     0
 49
-0.125
 74
     0
  0
LTYPE
  5
9C
330
5
100
AcDbSymbolTableRecord
100
AcDbLinetypeTableRecord
  2
DOTX2
 70
     0
  3
Dot (2x) .  .  .  .  .  .  .  .  .  .  .  .  . 
 72
    65
 73
     2
 40
0.5
 49
0.0
 74
     0
 49
-0.5
 74
     0
  0
LTYPE
  5
9D
330
5
100
AcDbSymbolTableRecord
100
AcDbLinetypeTableRecord
  2
HIDDEN
 70
     0
  3
Hidden __ __ __ __ __ __ __ __ __ __ __ __ __ _
 72
    65
 73
     2
 40
0.375
 49
0.25
 74
     0
 49
-0.125
 74
     0
  0
LTYPE
  5
9E
330
5
100
AcDbSymbolTableRecord
100
AcDbLinetypeTableRecord
  2
HIDDEN2
 70
     0
  3
Hidden (.5x) _ _ _ _ _ _ _ _ _ _ _ _ _ _ _ _ _
 72
    65
 73
     2
 40
0.1875
 49
0.125
 74
     0
 49
-0.0625
 74
     0
  0
LTYPE
  5
9F
330
5
100
AcDbSymbolTableRecord
100
AcDbLinetypeTableRecord
  2
HIDDENX2
 70
     0
  3
Hidden (2x) ____ ____ ____ ____ ____ ____ ____
 72
    65
 73
     2
 40
0.75
 49
0.5
 74
     0
 49
-0.25
 74
     0
  0
LTYPE
  5
A0
330
5
100
AcDbSymbolTableRecord
100
AcDbLinetypeTableRecord
  2
PHANTOM
 70
     0
  3
Phantom ______  __  __  ______  __  __  ______
 72
    65
 73
     6
 40
2.5
 49
1.25
 74
     0
 49
-0.25
 74
     0
 49
0.25
 74
     0
 49
-0.25
 74
     0
 49
0.25
 74
     0
 49
-0.25
 74
     0
  0
LTYPE
  5
A1
330
5
100
AcDbSymbolTableRecord
100
AcDbLinetypeTableRecord
  2
PHANTOM2
 70
     0
  3
Phantom (.5x) ___ _ _ ___ _ _ ___ _ _ ___ _ _
 72
    65
 73
     6
 40
1.25
 49
0.625
 74
     0
 49
-0.125
 74
     0
 49
0.125
 74
     0
 49
-0.125
 74
     0
 49
0.125
 74
     0
 49
-0.125
 74
     0
  0
LTYPE
  5
A2
330
5
100
AcDbSymbolTableRecord
100
AcDbLinetypeTableRecord
  2
PHANTOMX2
 70
     0
  3
Phantom (2x) ____________    ____    ____   _
 72
    65
 73
     6
 40
5.0
 49
2.5
 74
     0
 49
-0.5
 74
     0
 49
0.5
 74
     0
 49
-0.5
 74
     0
 49
0.5
 74
     0
 49
-0.5
 74
     0
  0
LTYPE
  5
A3
330
5
100
AcDbSymbolTableRecord
100
AcDbLinetypeTableRecord
  2
ACAD_ISO02W100
 70
     0
  3
ISO dash __ __ __ __ __ __ __ __ __ __ __ __ __
 72
    65
 73
     2
 40
0.59
 49
0.47
 74
     0
 49
-0.12
 74
     0
  0
LTYPE
  5
A4
330
5
100
AcDbSymbolTableRecord
100
AcDbLinetypeTableRecord
  2
ACAD_ISO03W100
 70
     0
  3
ISO dash space __    __    __    __    __    __
 72
    65
 73
     2
 40
1.179999999999999
 49
0.47
 74
     0
 49
-0.71
 74
     0
  0
LTYPE
  5
A5
330
5
100
AcDbSymbolTableRecord
100
AcDbLinetypeTableRecord
  2
ACAD_ISO04W100
 70
     0
  3
ISO long-dash dot ____ . ____ . ____ . ____ . _
 72
    65
 73
     4
 40
1.179999999999999
 49
0.9399999999999998
 74
     0
 49
-0.12
 74
     0
 49
0.0
 74
     0
 49
-0.12
 74
     0
  0
LTYPE
  5
A6
330
5
100
AcDbSymbolTableRecord
100
AcDbLinetypeTableRecord
  2
ACAD_ISO05W100
 70
     0
  3
ISO long-dash double-dot ____ .. ____ .. ____ .
 72
    65
 73
     6
 40
1.299999999999999
 49
0.9399999999999998
 74
     0
 49
-0.12
 74
     0
 49
0.0
 74
     0
 49
-0.12
 74
     0
 49
0.0
 74
     0
 49
-0.12
 74
     0
  0
LTYPE
  5
A7
330
5
100
AcDbSymbolTableRecord
100
AcDbLinetypeTableRecord
  2
ACAD_ISO06W100
 70
     0
  3
ISO long-dash triple-dot ____ ... ____ ... ____
 72
    65
 73
     8
 40
1.419999999999999
 49
0.9399999999999998
 74
     0
 49
-0.12
 74
     0
 49
0.0
 74
     0
 49
-0.12
 74
     0
 49
0.0
 74
     0
 49
-0.12
 74
     0
 49
0.0
 74
     0
 49
-0.12
 74
     0
  0
LTYPE
  5
A8
330
5
100
AcDbSymbolTableRecord
100
AcDbLinetypeTableRecord
  2
ACAD_ISO07W100
 70
     0
  3
ISO dot . . . . . . . . . . . . . . . . . . . .
 72
    65
 73
     2
 40
0.12
 49
0.0
 74
     0
 49
-0.12
 74
     0
  0
LTYPE
  5
A9
330
5
100
AcDbSymbolTableRecord
100
AcDbLinetypeTableRecord
  2
ACAD_ISO08W100
 70
     0
  3
ISO long-dash short-dash ____ __ ____ __ ____ _
 72
    65
 73
     4
 40
0.95
 49
0.47
 74
     0
 49
-0.12
 74
     0
 49
0.24
 74
     0
 49
-0.12
 74
     0
  0
LTYPE
  5
AA
330
5
100
AcDbSymbolTableRecord
100
AcDbLinetypeTableRecord
  2
ACAD_ISO09W100
 70
     0
  3
ISO long-dash double-short-dash ____ __ __ ____
 72
    65
 73
     6
 40
1.31
 49
0.47
 74
     0
 49
-0.12
 74
     0
 49
0.24
 74
     0
 49
-0.12
 74
     0
 49
0.24
 74
     0
 49
-0.12
 74
     0
  0
LTYPE
  5
AB
330
5
100
AcDbSymbolTableRecord
100
AcDbLinetypeTableRecord
  2
ACAD_ISO10W100
 70
     0
  3
ISO dash dot __ . __ . __ . __ . __ . __ . __ .
 72
    65
 73
     4
 40
0.71
 49
0.47
 74
     0
 49
-0.12
 74
     0
 49
0.0
 74
     0
 49
-0.12
 74
     0
  0
LTYPE
  5
AC
330
5
100
AcDbSymbolTableRecord
100
AcDbLinetypeTableRecord
  2
ACAD_ISO11W100
 70
     0
  3
ISO double-dash dot __ __ . __ __ . __ __ . __ 
 72
    65
 73
     6
 40
1.299999999999999
 49
0.47
 74
     0
 49
-0.12
 74
     0
 49
0.47
 74
     0
 49
-0.12
 74
     0
 49
0.0
 74
     0
 49
-0.12
 74
     0
  0
LTYPE
  5
AD
330
5
100
AcDbSymbolTableRecord
100
AcDbLinetypeTableRecord
  2
ACAD_ISO12W100
 70
     0
  3
ISO dash double-dot __ . . __ . . __ . . __ . .
 72
    65
 73
     6
 40
0.8299999999999998
 49
0.47
 74
     0
 49
-0.12
 74
     0
 49
0.0
 74
     0
 49
-0.12
 74
     0
 49
0.0
 74
     0
 49
-0.12
 74
     0
  0
LTYPE
  5
AE
330
5
100
AcDbSymbolTableRecord
100
AcDbLinetypeTableRecord
  2
ACAD_ISO13W100
 70
     0
  3
ISO double-dash double-dot __ __ . . __ __ . . 
 72
    65
 73
     8
 40
1.419999999999999
 49
0.47
 74
     0
 49
-0.12
 74
     0
 49
0.47
 74
     0
 49
-0.12
 74
     0
 49
0.0
 74
     0
 49
-0.12
 74
     0
 49
0.0
 74
     0
 49
-0.12
 74
     0
  0
LTYPE
  5
AF
330
5
100
AcDbSymbolTableRecord
100
AcDbLinetypeTableRecord
  2
ACAD_ISO14W100
 70
     0
  3
ISO dash triple-dot __ . . . __ . . . __ . . . 
 72
    65
 73
     8
 40
0.95
 49
0.47
 74
     0
 49
-0.12
 74
     0
 49
0.0
 74
     0
 49
-0.12
 74
     0
 49
0.0
 74
     0
 49
-0.12
 74
     0
 49
0.0
 74
     0
 49
-0.12
 74
     0
  0
LTYPE
  5
B0
330
5
100
AcDbSymbolTableRecord
100
AcDbLinetypeTableRecord
  2
ACAD_ISO15W100
 70
     0
  3
ISO double-dash triple-dot __ __ . . . __ __ . 
 72
    65
 73
    10
 40
1.539999999999999
 49
0.47
 74
     0
 49
-0.12
 74
     0
 49
0.47
 74
     0
 49
-0.12
 74
     0
 49
0.0
 74
     0
 49
-0.12
 74
     0
 49
0.0
 74
     0
 49
-0.12
 74
     0
 49
0.0
 74
     0
 49
-0.12
 74
     0
  0
LTYPE
  5
B3
330
5
100
AcDbSymbolTableRecord
100
AcDbLinetypeTableRecord
  2
FENCELINE1
 70
     0
  3
Fenceline circle ----0-----0----0-----0----0---
 72
    65
 73
     4
 40
1.45
 49
0.25
 74
     0
 49
-0.1
 74
     4
 75
   133
340
B2
 46
0.1
 50
0.0
 44
-0.1
 45
0.0
 49
-0.1
 74
     0
 49
1.0
 74
     0
  0
LTYPE
  5
B4
330
5
100
AcDbSymbolTableRecord
100
AcDbLinetypeTableRecord
  2
FENCELINE2
 70
     0
  3
Fenceline square ----[]-----[]----[]-----[]----
 72
    65
 73
     4
 40
1.45
 49
0.25
 74
     0
 49
-0.1
 74
     4
 75
   132
340
B2
 46
0.1
 50
0.0
 44
-0.1
 45
0.0
 49
-0.1
 74
     0
 49
1.0
 74
     0
  0
LTYPE
  5
B5
330
5
100
AcDbSymbolTableRecord
100
AcDbLinetypeTableRecord
  2
TRACKS
 70
     0
  3
Tracks -|-|-|-|-|-|-|-|-|-|-|-|-|-|-|-|-|-|-|-|
 72
    65
 73
     2
 40
0.3
 49
0.15
 74
     4
 75
   130
340
B2
 46
0.25
 50
0.0
 44
0.0
 45
0.0
 49
0.15
 74
     0
  0
LTYPE
  5
B6
330
5
100
AcDbSymbolTableRecord
100
AcDbLinetypeTableRecord
  2
BATTING
 70
     0
  3
Batting SSSSSSSSSSSSSSSSSSSSSSSSSSSSSSSSSSSSSSS
 72
    65
 73
     4
 40
0.4001000000000001
 49
0.0001
 74
     0
 49
-0.1
 74
     4
 75
   134
340
B2
 46
0.1
 50
0.0
 44
-0.1
 45
0.0
 49
-0.2
 74
     4
 75
   134
340
B2
 46
0.1
 50
180.0
 44
0.1
 45
0.0
 49
-0.1
 74
     0
  0
LTYPE
  5
B7
330
5
100
AcDbSymbolTableRecord
100
AcDbLinetypeTableRecord
  2
HOT_WATER_SUPPLY
 70
     0
  3
Hot water supply ---- HW ---- HW ---- HW ----
 72
    65
 73
     3
 40
0.9
 49
0.5
 74
     0
 49
-0.2
 74
     2
 75
     0
340
55
 46
0.1
 50
0.0
 44
-0.1
 45
-0.05
  9
HW
 49
-0.2
 74
     0
  0
LTYPE
  5
B8
330
5
100
AcDbSymbolTableRecord
100
AcDbLinetypeTableRecord
  2
GAS_LINE
 70
     0
  3
Gas line ----GAS----GAS----GAS----GAS----GAS---
 72
    65
 73
     3
 40
0.95
 49
0.5
 74
     0
 49
-0.2
 74
     2
 75
     0
340
55
 46
0.1
 50
0.0
 44
-0.1
 45
-0.05
  9
GAS
 49
-0.25
 74
     0
  0
LTYPE
  5
B9
330
5
100
AcDbSymbolTableRecord
100
AcDbLinetypeTableRecord
  2
ZIGZAG
 70
     0
  3
Zig zag /\/\/\/\/\/\/\/\/\/\/\/\/\/\/\/\/\/\/\/
 72
    65
 73
     4
 40
0.8001000000000001
 49
0.0001
 74
     0
 49
-0.2
 74
     4
 75
   131
340
B2
 46
0.2
 50
0.0
 44
-0.2
 45
0.0
 49
-0.4
 74
     4
 75
   131
340
B2
 46
0.2
 50
180.0
 44
0.2
 45
0.0
 49
-0.2
 74
     0
  0
ENDTAB
  0
TABLE
  2
LAYER
  5
2
330
0
100
AcDbSymbolTable
 70
    27
  0
LAYER
  5
54
330
2
100
AcDbSymbolTableRecord
100
AcDbLayerTableRecord
  2
0
 70
     0
 62
     7
  6
Continuous
370
    18
390
F
347
21
  0
LAYER
  5
C0
330
2
100
AcDbSymbolTableRecord
100
AcDbLayerTableRecord
  2
Center Mark (ANSI)
 70
     0
 62
     7
  6
Continuous
370
    15
390
F
347
21
  0
LAYER
  5
C1
330
2
100
AcDbSymbolTableRecord
100
AcDbLayerTableRecord
  2
Centerline (ANSI)
 70
     0
 62
     7
  6
Continuous
370
    15
390
F
347
21
  0
LAYER
  5
C3
330
2
100
AcDbSymbolTableRecord
100
AcDbLayerTableRecord
  2
Dimension (ANSI)
 70
     0
 62
     7
  6
Continuous
370
    13
390
F
347
21
  0
LAYER
  5
CC
330
2
100
AcDbSymbolTableRecord
100
AcDbLayerTableRecord
  2
Symbol (ANSI)
 70
     0
 62
     7
  6
Continuous
370
    18
390
F
347
21
  0
LAYER
  5
CF
330
2
100
AcDbSymbolTableRecord
100
AcDbLayerTableRecord
  2
Visible (ANSI)
 70
     0
 62
     7
  6
Continuous
370
    13
390
F
347
21
  0
LAYER
  5
D0
330
2
100
AcDbSymbolTableRecord
100
AcDbLayerTableRecord
  2
Visible Narrow (ANSI)
 70
     0
 62
     7
  6
Continuous
370
    18
390
F
347
21
  0
LAYER
  5
2F1
330
2
100
AcDbSymbolTableRecord
100
AcDbLayerTableRecord
  2
Defpoints
 70
     0
 62
     7
  6
Continuous
290
     0
370
    -3
390
F
347
21
  0
ENDTAB
  0
TABLE
  2
STYLE
  5
3
330
0
100
AcDbSymbolTable
 70
    18
  0
STYLE
  5
55
330
3
100
AcDbSymbolTableRecord
100
AcDbTextStyleTableRecord
  2
Standard
 70
     0
 40
0.0
 41
1.0
 50
0.0
 71
     0
 42
0.2
  3
txt
  4

  0
STYLE
  5
5A
330
3
100
AcDbSymbolTableRecord
100
AcDbTextStyleTableRecord
  2
Annotative
 70
     0
 40
0.0
 41
1.0
 50
0.0
 71
     0
 42
0.2
  3
txt
  4

1001
AcadAnnotative
1000
AnnotativeData
1002
{
1070
     1
1070
     1
1002
}
  0
STYLE
  5
B2
330
3
100
AcDbSymbolTableRecord
100
AcDbTextStyleTableRecord
  2

 70
     1
 40
0.0
 41
1.0
 50
0.0
 71
     0
 42
0.2
  3
ltypeshp.shx
  4

  0
STYLE
  5
D4
330
3
100
AcDbSymbolTableRecord
100
AcDbTextStyleTableRecord
  2
ITALICC_120
 70
     0
 40
0.0
 41
1.0
 50
0.0
 71
     0
 42
0.2
  3
italicc.shx
  4

  0
STYLE
  5
D5
330
3
100
AcDbSymbolTableRecord
100
AcDbTextStyleTableRecord
  2
Label Text (ANSI)
 70
     0
 40
0.0
 41
1.0
 50
0.0
 71
     0
 42
0.2
  3
tahoma.ttf
  4

1001
ACAD
1000
Tahoma
1071
      256
  0
STYLE
  5
D6
330
3
100
AcDbSymbolTableRecord
100
AcDbTextStyleTableRecord
  2
Note Text (ANSI)
 70
     0
 40
0.0
 41
1.0
 50
0.0
 71
     0
 42
0.2
  3
tahoma.ttf
  4

1001
ACAD
1000
Tahoma
1071
      256
  0
STYLE
  5
D7
330
3
100
AcDbSymbolTableRecord
100
AcDbTextStyleTableRecord
  2
ROMANS
 70
     0
 40
0.0
 41
1.0
 50
0.0
 71
     0
 42
0.2
  3
romans.shx
  4

  0
STYLE
  5
D8
330
3
100
AcDbSymbolTableRecord
100
AcDbTextStyleTableRecord
  2
SANSSERIF_114
 70
     0
 40
0.0
 41
1.0
 50
0.0
 71
     0
 42
0.2
  3
tahoma.ttf
  4

1001
ACAD
1000
Tahoma
1071
      256
  0
STYLE
  5
D9
330
3
100
AcDbSymbolTableRecord
100
AcDbTextStyleTableRecord
  2
SANSSERIF_117
 70
     0
 40
0.0
 41
1.0
 50
0.0
 71
     0
 42
0.2
  3
tahoma.ttf
  4

1001
ACAD
1000
Tahoma
1071
      256
  0
STYLE
  5
DA
330
3
100
AcDbSymbolTableRecord
100
AcDbTextStyleTableRecord
  2
STANDARDAM_ANSI
 70
     0
 40
0.0
 41
1.0
 50
0.0
 71
     0
 42
0.2
  3
txt.shx
  4

  0
STYLE
  5
DB
330
3
100
AcDbSymbolTableRecord
100
AcDbTextStyleTableRecord
  2
StandardAM_ANSI$0
 70
     0
 40
0.0
 41
1.0
 50
0.0
 71
     0
 42
0.2
  3
txt.shx
  4

  0
STYLE
  5
DC
330
3
100
AcDbSymbolTableRecord
100
AcDbTextStyleTableRecord
  2
STANDARDAM_ANSI$3
 70
     0
 40
0.0
 41
1.0
 50
0.0
 71
     0
 42
0.2
  3
txt.shx
  4

  0
STYLE
  5
DD
330
3
100
AcDbSymbolTableRecord
100
AcDbTextStyleTableRecord
  2
STANDARDAM_ANSI$4
 70
     0
 40
0.0
 41
1.0
 50
0.0
 71
     0
 42
0.2
  3
txt.shx
  4

  0
STYLE
  5
DE
330
3
100
AcDbSymbolTableRecord
100
AcDbTextStyleTableRecord
  2
STANDARDAM_ANSI$7
 70
     0
 40
0.0
 41
1.0
 50
0.0
 71
     0
 42
0.2
  3
txt.shx
  4

  0
STYLE
  5
DF
330
3
100
AcDbSymbolTableRecord
100
AcDbTextStyleTableRecord
  2
STANDARDAM_ANSI$SF
 70
     0
 40
0.0
 41
1.0
 50
0.0
 71
     0
 42
0.2
  3
txt.shx
  4

  0
STYLE
  5
E0
330
3
100
AcDbSymbolTableRecord
100
AcDbTextStyleTableRecord
  2
STANDARDAM_ANSI$SH
 70
     0
 40
0.0
 41
1.0
 50
0.0
 71
     0
 42
0.2
  3
txt.shx
  4

  0
STYLE
  5
E1
330
3
100
AcDbSymbolTableRecord
100
AcDbTextStyleTableRecord
  2
STANDARDSTANDARD
 70
     0
 40
0.0
 41
1.0
 50
0.0
 71
     0
 42
0.2
  3
txt.shx
  4

  0
STYLE
  5
201
330
3
100
AcDbSymbolTableRecord
100
AcDbTextStyleTableRecord
  2
Text Style154
 70
     0
 40
0.0
 41
1.0
 50
0.0
 71
     0
 42
0.2
  3
tahoma.ttf
  4

1001
ACAD
1000
Tahoma
1071
      256
  0
ENDTAB
  0
TABLE
  2
VIEW
  5
6
330
0
100
AcDbSymbolTable
 70
     0
  0
ENDTAB
  0
TABLE
  2
UCS
  5
7
330
0
100
AcDbSymbolTable
 70
     0
  0
ENDTAB
  0
TABLE
  2
APPID
  5
9
330
0
100
AcDbSymbolTable
 70
     3
  0
APPID
  5
56
330
9
100
AcDbSymbolTableRecord
100
AcDbRegAppTableRecord
  2
ACAD
 70
     0
  0
APPID
  5
5E
330
9
100
AcDbSymbolTableRecord
100
AcDbRegAppTableRecord
  2
AcadAnnotative
 70
     0
  0
APPID
  5
B4E
330
9
100
AcDbSymbolTableRecord
100
AcDbRegAppTableRecord
  2
ACAD_DSTYLE_DIMRADIAL_EXTENSION
 70
     0
  0
ENDTAB
  0
TABLE
  2
DIMSTYLE
  5
A
330
0
100
AcDbSymbolTable
 70
    27
100
AcDbDimStyleTable
 71
     2
340
F6
340
58
  0
DIMSTYLE
105
58
330
A
100
AcDbSymbolTableRecord
100
AcDbDimStyleTableRecord
  2
STANDARD
 70
     0
 41
0.1800000071525573
 42
0.0625
140
0.1800000071525574
144
1.0
147
0.0900000035762787
176
   256
177
   256
178
   256
274
     3
340
55
371
    -1
372
    -1
  0
DIMSTYLE
105
59
330
A
100
AcDbSymbolTableRecord
100
AcDbDimStyleTableRecord
  2
Annotative
 70
     0
340
55
1001
AcadAnnotative
1000
AnnotativeData
1002
{
1070
     1
1070
     1
1002
}
  0
DIMSTYLE
105
E2
330
A
100
AcDbSymbolTableRecord
100
AcDbDimStyleTableRecord
  2
AM_ANSI
 70
     0
  4
 mm
 40
11.0
 41
0.119999997317791
 42
0.05
 43
0.5
 44
0.1
 45
0.00000001
 78
     4
 79
     2
140
0.1200000047683716
146
0.7099999189376831
147
0.0599999986588955
176
   256
177
   256
178
     2
284
     4
340
DA
371
    -1
372
    -1
  0
DIMSTYLE
105
E3
330
A
100
AcDbSymbolTableRecord
100
AcDbDimStyleTableRecord
  2
AM_ANSI$7
 70
     0
  4
 mm
 40
11.0
 41
0.119999997317791
 42
0.05
 43
0.5
 44
0.1
 45
0.00000001
 78
     4
 79
     2
140
0.1200000047683716
146
0.7099999189376831
147
0.0599999986588955
176
   256
177
   256
178
     2
284
     4
340
DA
371
    -1
372
    -1
  0
DIMSTYLE
105
E4
330
A
100
AcDbSymbolTableRecord
100
AcDbDimStyleTableRecord
  2
AM_ANSI$0
 70
     0
  4
 mm
 40
11.0
 41
0.119999997317791
 42
0.05
 43
0.5
 44
0.1
 45
0.00000001
 78
     4
 79
     2
140
0.1200000047683716
146
0.7099999189376831
147
0.0599999986588955
176
   256
177
   256
178
     2
284
     4
340
DB
371
    -1
372
    -1
  0
DIMSTYLE
105
E5
330
A
100
AcDbSymbolTableRecord
100
AcDbDimStyleTableRecord
  2
AM_ANSI$0$7
 70
     0
  4
 mm
 40
11.0
 41
0.119999997317791
 42
0.05
 43
0.5
 44
0.1
 45
0.00000001
 78
     4
 79
     2
140
0.1200000047683716
146
0.7099999189376831
147
0.0599999986588955
176
   256
177
   256
178
     2
284
     4
340
DB
371
    -1
372
    -1
  0
DIMSTYLE
105
E6
330
A
100
AcDbSymbolTableRecord
100
AcDbDimStyleTableRecord
  2
AM_ANSI$3
 70
     0
  4
 mm
 40
11.0
 41
0.119999997317791
 42
0.05
 43
0.5
 44
0.1
 45
0.00000001
 78
     4
 79
     2
140
0.1200000047683716
146
0.7099999189376831
147
0.0599999986588955
176
   256
177
   256
178
     2
284
     4
340
DC
371
    -1
372
    -1
  0
DIMSTYLE
105
E7
330
A
100
AcDbSymbolTableRecord
100
AcDbDimStyleTableRecord
  2
AM_ANSI$3$7
 70
     0
  4
 mm
 40
11.0
 41
0.119999997317791
 42
0.05
 43
0.5
 44
0.1
 45
0.00000001
 78
     4
 79
     2
140
0.1200000047683716
146
0.7099999189376831
147
0.0599999986588955
176
   256
177
   256
178
     2
284
     4
340
DC
371
    -1
372
    -1
  0
DIMSTYLE
105
E8
330
A
100
AcDbSymbolTableRecord
100
AcDbDimStyleTableRecord
  2
AM_ANSI$4
 70
     0
  4
 mm
 40
11.0
 41
0.119999997317791
 42
0.05
 43
0.5
 44
0.1
 45
0.00000001
 78
     4
 79
     2
140
0.1200000047683716
146
0.7099999189376831
147
0.0599999986588955
176
   256
177
   256
178
     2
284
     4
340
DD
371
    -1
372
    -1
  0
DIMSTYLE
105
E9
330
A
100
AcDbSymbolTableRecord
100
AcDbDimStyleTableRecord
  2
AM_ANSI$4$7
 70
     0
  4
 mm
 40
11.0
 41
0.119999997317791
 42
0.05
 43
0.5
 44
0.1
 45
0.00000001
 78
     4
 79
     2
140
0.1200000047683716
146
0.7099999189376831
147
0.0599999986588955
176
   256
177
   256
178
     2
284
     4
340
DD
371
    -1
372
    -1
  0
DIMSTYLE
105
EA
330
A
100
AcDbSymbolTableRecord
100
AcDbDimStyleTableRecord
  2
AM_ANSI$SF
 70
     0
  4
 mm
 40
11.0
 41
0.119999997317791
 42
0.05
 43
0.5
 44
0.1
 45
0.00000001
 75
     1
 76
     1
 78
     4
 79
     2
140
0.1200000047683716
146
0.7099999189376831
147
0.0599999986588955
176
   256
177
   256
178
     2
284
     4
340
DF
371
    -1
372
    -1
  0
DIMSTYLE
105
EB
330
A
100
AcDbSymbolTableRecord
100
AcDbDimStyleTableRecord
  2
AM_ANSI$SF$7
 70
     0
  4
 mm
 40
11.0
 41
0.119999997317791
 42
0.05
 43
0.5
 44
0.1
 45
0.00000001
 75
     1
 76
     1
 78
     4
 79
     2
140
0.1200000047683716
146
0.7099999189376831
147
0.0599999986588955
176
   256
177
   256
178
     2
284
     4
340
DF
371
    -1
372
    -1
  0
DIMSTYLE
105
EC
330
A
100
AcDbSymbolTableRecord
100
AcDbDimStyleTableRecord
  2
AM_ANSI$SH
 70
     0
  4
 mm
 40
11.0
 41
0.119999997317791
 42
0.05
 43
0.5
 44
0.1
 45
0.00000001
 75
     1
 76
     1
 78
     4
 79
     2
140
0.1200000047683716
146
0.7099999189376831
147
0.0599999986588955
176
   256
177
   256
178
     2
284
     4
340
E0
371
    -1
372
    -1
  0
DIMSTYLE
105
ED
330
A
100
AcDbSymbolTableRecord
100
AcDbDimStyleTableRecord
  2
AM_ANSI$SH$7
 70
     0
  4
 mm
 40
11.0
 41
0.119999997317791
 42
0.05
 43
0.5
 44
0.1
 45
0.00000001
 75
     1
 76
     1
 78
     4
 79
     2
140
0.1200000047683716
146
0.7099999189376831
147
0.0599999986588955
176
   256
177
   256
178
     2
284
     4
340
E0
371
    -1
372
    -1
  0
DIMSTYLE
105
EE
330
A
100
AcDbSymbolTableRecord
100
AcDbDimStyleTableRecord
  2
Architectural (ANSI)
 70
     0
 40
11.0
 41
0.0984251946210861
 43
0.2362204724409449
 44
0.125
 45
0.00000001
 46
0.3937007874015748
 78
     3
 79
     3
140
0.1200000047683716
147
0.031496062992126
171
     1
176
   256
177
   256
178
   256
272
     2
274
     1
276
     2
277
     4
284
    12
285
     4
286
    12
340
D6
371
    -1
372
    -1
  0
DIMSTYLE
105
EF
330
A
100
AcDbSymbolTableRecord
100
AcDbDimStyleTableRecord
  2
Architectural (ANSI)$7
 70
     0
 40
11.0
 41
0.0984251946210861
 43
0.2362204724409449
 44
0.125
 45
0.00000001
 46
0.3937007874015748
 78
     3
 79
     3
140
0.1200000047683716
147
0.031496062992126
171
     1
176
   256
177
   256
178
   256
272
     2
274
     1
276
     2
277
     4
284
    12
285
     4
286
    12
340
D6
371
    -1
372
    -1
  0
DIMSTYLE
105
F0
330
A
100
AcDbSymbolTableRecord
100
AcDbDimStyleTableRecord
  2
Default - Fraction (ANSI)
 70
     0
 40
11.0
 41
0.0984251946210861
 43
0.2362204724409449
 44
0.125
 45
0.00000001
 46
0.3937007874015748
 79
     3
140
0.1200000047683716
147
0.031496062992126
171
     1
176
   256
177
   256
178
   256
272
     2
274
     1
276
     2
277
     5
284
    12
285
     4
286
    12
340
D6
371
    -1
372
    -1
  0
DIMSTYLE
105
F1
330
A
100
AcDbSymbolTableRecord
100
AcDbDimStyleTableRecord
  2
Default - Fraction (ANSI)$7
 70
     0
 40
11.0
 41
0.0984251946210861
 43
0.2362204724409449
 44
0.125
 45
0.00000001
 46
0.3937007874015748
 79
     3
140
0.1200000047683716
147
0.031496062992126
171
     1
176
   256
177
   256
178
   256
272
     2
274
     1
276
     2
277
     5
284
    12
285
     4
286
    12
340
D6
371
    -1
372
    -1
  0
DIMSTYLE
105
F2
330
A
100
AcDbSymbolTableRecord
100
AcDbDimStyleTableRecord
  2
Default - mm (ANSI)
 70
     0
 40
11.0
 41
0.0984251946210861
 42
0.063
 43
0.2362204724409449
 44
0.125
 45
0.00000001
 46
0.3937007874015748
 73
     0
 78
     4
 79
     1
140
0.1200000047683716
143
1.0
144
25.4
147
0.031496062992126
171
     1
176
   256
177
   256
178
   256
179
     1
271
     2
272
     2
274
     1
284
     4
285
     4
340
D6
371
    -1
372
    -1
  0
DIMSTYLE
105
F3
330
A
100
AcDbSymbolTableRecord
100
AcDbDimStyleTableRecord
  2
Default - mm (ANSI)$7
 70
     0
 40
11.0
 41
0.0984251946210861
 42
0.063
 43
0.2362204724409449
 44
0.125
 45
0.00000001
 46
0.3937007874015748
 73
     0
 78
     4
 79
     1
140
0.1200000047683716
143
1.0
144
25.4
147
0.031496062992126
171
     1
176
   256
177
   256
178
   256
179
     1
271
     2
272
     2
274
     1
284
     4
285
     4
340
D6
371
    -1
372
    -1
  0
DIMSTYLE
105
F4
330
A
100
AcDbSymbolTableRecord
100
AcDbDimStyleTableRecord
  2
Default - mm [in] (ANSI)
 70
     0
  4
 in
 40
11.0
 41
0.0984251946210861
 42
0.063
 43
0.25
 44
0.125
 45
0.00000001
 46
0.3937007874015748
 73
     0
 78
     4
 79
     1
140
0.1200000047683716
143
0.03937
144
25.4
147
0.031496062992126
170
     1
171
     3
176
   256
177
   256
178
   256
179
     1
271
     2
272
     2
274
     3
284
     4
285
     4
286
     4
340
D6
371
    -1
372
    -1
  0
DIMSTYLE
105
F5
330
A
100
AcDbSymbolTableRecord
100
AcDbDimStyleTableRecord
  2
Default - mm [in] (ANSI)$7
 70
     0
  4
 in
 40
11.0
 41
0.0984251946210861
 42
0.063
 43
0.25
 44
0.125
 45
0.00000001
 46
0.3937007874015748
 73
     0
 78
     4
 79
     1
140
0.1200000047683716
143
0.03937
144
25.4
147
0.031496062992126
170
     1
171
     3
176
   256
177
   256
178
   256
179
     1
271
     2
272
     2
274
     3
284
     4
285
     4
286
     4
340
D6
371
    -1
372
    -1
  0
DIMSTYLE
105
F6
102
{ACAD_REACTORS
330
2EF
330
3DB
330
4C5
330
5AF
330
699
330
783
330
86D
330
AB4
330
B88
330
C88
330
D72
102
}
330
A
100
AcDbSymbolTableRecord
100
AcDbDimStyleTableRecord
  2
Default (ANSI)
 70
     0
 40
11.0
 41
0.0984251946210861
 43
0.2362204724409449
 44
0.125
 45
0.00000001
 46
0.3937007874015748
 79
     1
140
0.1200000047683716
147
0.031496062992126
171
     1
176
   256
177
   256
178
   256
271
     2
272
     2
274
     1
284
     4
285
     4
340
D6
371
    -1
372
    -1
  0
DIMSTYLE
105
F7
330
A
100
AcDbSymbolTableRecord
100
AcDbDimStyleTableRecord
  2
Default (ANSI)$7
 70
     0
 40
11.0
 41
0.0984251946210861
 43
0.2362204724409449
 44
0.125
 45
0.00000001
 46
0.3937007874015748
 79
     1
140
0.1200000047683716
147
0.031496062992126
171
     1
176
   256
177
   256
178
   256
271
     2
272
     2
274
     1
284
     4
285
     4
340
D6
371
    -1
372
    -1
  0
DIMSTYLE
105
F8
330
A
100
AcDbSymbolTableRecord
100
AcDbDimStyleTableRecord
  2
Alternate (ANSI)
 70
     0
 40
11.0
 41
0.0979999974370003
340
55
342
F9
  0
DIMSTYLE
105
10B
330
A
100
AcDbSymbolTableRecord
100
AcDbDimStyleTableRecord
  2
Datum (ANSI)
 70
     0
 40
11.0
 41
0.0979999974370003
340
55
342
F9
  0
DIMSTYLE
105
11A
330
A
100
AcDbSymbolTableRecord
100
AcDbDimStyleTableRecord
  2
Large (ANSI)
 70
     0
 40
11.0
 41
0.1959999948740005
340
55
342
F9
  0
ENDTAB
  0
TABLE
  2
BLOCK_RECORD
  5
1
330
0
100
AcDbSymbolTable
 70
    15
  0
BLOCK_RECORD
  5
6C
330
1
100
AcDbSymbolTableRecord
100
AcDbBlockTableRecord
  2
*Model_Space
340
6F
 70
     0
280
     1
281
     0
  0
BLOCK_RECORD
  5
68
330
1
100
AcDbSymbolTableRecord
100
AcDbBlockTableRecord
  2
*Paper_Space
340
6B
 70
     0
280
     1
281
     0
  0
BLOCK_RECORD
  5
70
330
1
100
AcDbSymbolTableRecord
100
AcDbBlockTableRecord
  2
*Paper_Space0
340
73
 70
     0
280
     1
281
     0
  0
BLOCK_RECORD
  5
F9
330
1
100
AcDbSymbolTableRecord
100
AcDbBlockTableRecord
  2
_Closed
340
0
 70
     0
280
     1
281
     0
  0
BLOCK_RECORD
  5
100
330
1
100
AcDbSymbolTableRecord
100
AcDbBlockTableRecord
  2
DatumFilled45
340
0
 70
     0
280
     1
281
     0
  0
BLOCK_RECORD
  5
10C
330
1
100
AcDbSymbolTableRecord
100
AcDbBlockTableRecord
  2
Filled-1
340
0
 70
     0
280
     1
281
     0
  0
BLOCK_RECORD
  5
2F2
330
1
100
AcDbSymbolTableRecord
100
AcDbBlockTableRecord
  2
*D4
340
0
 70
     0
280
     1
281
     0
  0
BLOCK_RECORD
  5
3DC
330
1
100
AcDbSymbolTableRecord
100
AcDbBlockTableRecord
  2
*D5
340
0
 70
     0
280
     1
281
     0
  0
BLOCK_RECORD
  5
4C6
330
1
100
AcDbSymbolTableRecord
100
AcDbBlockTableRecord
  2
*D6
340
0
 70
     0
280
     1
281
     0
  0
BLOCK_RECORD
  5
5B0
330
1
100
AcDbSymbolTableRecord
100
AcDbBlockTableRecord
  2
*D7
340
0
 70
     0
280
     1
281
     0
  0
BLOCK_RECORD
  5
69A
330
1
100
AcDbSymbolTableRecord
100
AcDbBlockTableRecord
  2
*D8
340
0
 70
     0
280
     1
281
     0
  0
BLOCK_RECORD
  5
784
330
1
100
AcDbSymbolTableRecord
100
AcDbBlockTableRecord
  2
*D9
340
0
 70
     0
280
     1
281
     0
  0
BLOCK_RECORD
  5
86E
330
1
100
AcDbSymbolTableRecord
100
AcDbBlockTableRecord
  2
*D10
340
0
 70
     0
280
     1
281
     0
  0
BLOCK_RECORD
  5
AB5
330
1
100
AcDbSymbolTableRecord
100
AcDbBlockTableRecord
  2
*D11
340
0
 70
     0
280
     1
281
     0
  0
BLOCK_RECORD
  5
B89
330
1
100
AcDbSymbolTableRecord
100
AcDbBlockTableRecord
  2
*D12
340
0
 70
     0
280
     1
281
     0
  0
BLOCK_RECORD
  5
C89
330
1
100
AcDbSymbolTableRecord
100
AcDbBlockTableRecord
  2
*D13
340
0
 70
     0
280
     1
281
     0
  0
BLOCK_RECORD
  5
D73
330
1
100
AcDbSymbolTableRecord
100
AcDbBlockTableRecord
  2
*D14
340
0
 70
     0
280
     1
281
     0
  0
ENDTAB
  0
ENDSEC
  0
SECTION
  2
BLOCKS
  0
BLOCK
  5
6D
330
6C
100
AcDbEntity
  8
0
100
AcDbBlockBegin
  2
*Model_Space
 70
     0
 10
0.0
 20
0.0
 30
0.0
  3
*Model_Space
  1

  0
ENDBLK
  5
6E
330
6C
100
AcDbEntity
  8
0
100
AcDbBlockEnd
  0
BLOCK
  5
69
330
68
100
AcDbEntity
 67
     1
  8
0
100
AcDbBlockBegin
  2
*Paper_Space
 70
     0
 10
0.0
 20
0.0
 30
0.0
  3
*Paper_Space
  1

  0
ENDBLK
  5
6A
330
68
100
AcDbEntity
 67
     1
  8
0
100
AcDbBlockEnd
  0
BLOCK
  5
71
330
70
100
AcDbEntity
 67
     1
  8
0
100
AcDbBlockBegin
  2
*Paper_Space0
 70
     0
 10
0.0
 20
0.0
 30
0.0
  3
*Paper_Space0
  1

  0
ENDBLK
  5
72
330
70
100
AcDbEntity
 67
     1
  8
0
100
AcDbBlockEnd
  0
BLOCK
  5
FE
330
F9
100
AcDbEntity
  8
0
100
AcDbBlockBegin
  2
_Closed
 70
     0
 10
0.0
 20
0.0
 30
0.0
  3
_Closed
  1

  0
LINE
  5
FA
330
F9
100
AcDbEntity
  8
0
  6
ByBlock
 62
     0
370
    -2
100
AcDbLine
 10
-1.0
 20
0.1666666666666666
 30
0.0
 11
0.0
 21
0.0
 31
0.0
  0
LINE
  5
FB
330
F9
100
AcDbEntity
  8
0
  6
ByBlock
 62
     0
370
    -2
100
AcDbLine
 10
0.0
 20
0.0
 30
0.0
 11
-1.0
 21
-0.1666666666666666
 31
0.0
  0
LINE
  5
FC
330
F9
100
AcDbEntity
  8
0
  6
ByBlock
 62
     0
370
    -2
100
AcDbLine
 10
-1.0
 20
0.1666666666666666
 30
0.0
 11
-1.0
 21
-0.1666666666666666
 31
0.0
  0
LINE
  5
FD
330
F9
100
AcDbEntity
  8
0
  6
ByBlock
 62
     0
370
    -2
100
AcDbLine
 10
0.0
 20
0.0
 30
0.0
 11
-1.0
 21
0.0
 31
0.0
  0
ENDBLK
  5
FF
330
F9
100
AcDbEntity
  8
0
100
AcDbBlockEnd
  0
BLOCK
  5
101
330
100
100
AcDbEntity
  8
0
100
AcDbBlockBegin
  2
DatumFilled45
 70
     0
 10
0.0
 20
0.0
 30
0.0
  3
DatumFilled45
  1

  0
POLYLINE
  5
103
330
100
100
AcDbEntity
  8
0
 62
     0
100
AcDb2dPolyline
 66
     1
 10
0.0
 20
0.0
 30
0.0
 70
   128
  0
VERTEX
  5
104
330
103
100
AcDbEntity
  8
0
 62
     0
100
AcDbVertex
100
AcDb2dVertex
 10
0.0
 20
0.9999999999999998
 30
0.0
  0
VERTEX
  5
105
330
103
100
AcDbEntity
  8
0
 62
     0
100
AcDbVertex
100
AcDb2dVertex
 10
0.0
 20
-0.9999999999999998
 30
0.0
  0
VERTEX
  5
107
330
103
100
AcDbEntity
  8
0
 62
     0
100
AcDbVertex
100
AcDb2dVertex
 10
-0.9999999999999998
 20
0.0
 30
0.0
  0
VERTEX
  5
108
330
103
100
AcDbEntity
  8
0
 62
     0
100
AcDbVertex
100
AcDb2dVertex
 10
0.0
 20
0.9999999999999998
 30
0.0
  0
SEQEND
  5
106
330
103
100
AcDbEntity
  8
0
 62
     0
  0
SOLID
  5
10A
330
100
100
AcDbEntity
  8
0
 62
     0
100
AcDbTrace
 10
0.0
 20
0.9999999999999998
 30
0.0
 11
0.0
 21
-0.9999999999999998
 31
0.0
 12
-0.9999999999999998
 22
0.0
 32
0.0
 13
0.0
 23
0.9999999999999998
 33
0.0
  0
ENDBLK
  5
102
330
100
100
AcDbEntity
  8
0
100
AcDbBlockEnd
  0
BLOCK
  5
10D
330
10C
100
AcDbEntity
  8
0
100
AcDbBlockBegin
  2
Filled-1
 70
     0
 10
0.0
 20
0.0
 30
0.0
  3
Filled-1
  1

  0
LINE
  5
10F
330
10C
100
AcDbEntity
  8
0
 62
     0
100
AcDbLine
 10
-0.9999999999999998
 20
0.0
 30
0.0
 11
0.0
 21
0.0
 31
0.0
  0
POLYLINE
  5
110
330
10C
100
AcDbEntity
  8
0
 62
     0
100
AcDb2dPolyline
 66
     1
 10
0.0
 20
0.0
 30
0.0
 70
   128
  0
VERTEX
  5
111
330
110
100
AcDbEntity
  8
0
 62
     0
100
AcDbVertex
100
AcDb2dVertex
 10
-0.9999999999999998
 20
-0.0994897959183674
 30
0.0
  0
VERTEX
  5
112
330
110
100
AcDbEntity
  8
0
 62
     0
100
AcDbVertex
100
AcDb2dVertex
 10
0.0
 20
0.0
 30
0.0
  0
VERTEX
  5
114
330
110
100
AcDbEntity
  8
0
 62
     0
100
AcDbVertex
100
AcDb2dVertex
 10
-0.9999999999999998
 20
0.0994897959183674
 30
0.0
  0
VERTEX
  5
115
330
110
100
AcDbEntity
  8
0
 62
     0
100
AcDbVertex
100
AcDb2dVertex
 10
-0.9999999999999998
 20
-0.0994897959183674
 30
0.0
  0
SEQEND
  5
113
330
110
100
AcDbEntity
  8
0
 62
     0
  0
SOLID
  5
116
330
10C
100
AcDbEntity
  8
0
 62
     0
100
AcDbTrace
 10
-0.9999999999999998
 20
-0.0994897959183674
 30
0.0
 11
0.0
 21
0.0
 31
0.0
 12
-0.9999999999999998
 22
0.0994897959183674
 32
0.0
 13
-0.9999999999999998
 23
-0.0994897959183674
 33
0.0
  0
LINE
  5
117
330
10C
100
AcDbEntity
  8
0
 62
     0
100
AcDbLine
 10
-0.9999999999999998
 20
-0.0994897959183674
 30
0.0
 11
0.0
 21
0.0
 31
0.0
  0
LINE
  5
118
330
10C
100
AcDbEntity
  8
0
 62
     0
100
AcDbLine
 10
0.0
 20
0.0
 30
0.0
 11
-0.9999999999999998
 21
0.0994897959183674
 31
0.0
  0
LINE
  5
119
330
10C
100
AcDbEntity
  8
0
 62
     0
100
AcDbLine
 10
-0.9999999999999998
 20
0.0994897959183674
 30
0.0
 11
-0.9999999999999998
 21
-0.0994897959183674
 31
0.0
  0
ENDBLK
  5
10E
330
10C
100
AcDbEntity
  8
0
100
AcDbBlockEnd
  0
BLOCK
  5
2F3
330
2F2
100
AcDbEntity
  8
0
100
AcDbBlockBegin
  2
*D4
 70
     1
 10
0.0
 20
0.0
 30
0.0
  3
*D4
  1

  0
LINE
  5
3D1
330
2F2
100
AcDbEntity
  8
Dimension (ANSI)
440
 16777216
100
AcDbLine
 10
38.31676174919685
 20
28.91746594864711
 30
0.0
 11
15.87676134920441
 21
28.91746594864711
 31
0.0
  0
LINE
  5
3D2
330
2F2
100
AcDbEntity
  8
Dimension (ANSI)
440
 16777216
100
AcDbLine
 10
38.31676174919685
 20
96.9174659486471
 30
0.0
 11
15.87676134920442
 21
96.91746594864712
 31
0.0
  0
LINE
  5
3D3
330
2F2
100
AcDbEntity
  8
Dimension (ANSI)
440
 16777216
100
AcDbLine
 10
17.25176134920441
 20
30.00014308947906
 30
0.0
 11
17.25176134920441
 21
61.88086819851783
 31
0.0
  0
LINE
  5
3D4
330
2F2
100
AcDbEntity
  8
Dimension (ANSI)
440
 16777216
100
AcDbLine
 10
17.25176134920442
 20
95.83478880781518
 30
0.0
 11
17.25176134920441
 21
63.95406369877637
 31
0.0
  0
SOLID
  5
3D5
330
2F2
100
AcDbEntity
  8
Dimension (ANSI)
440
 16777216
100
AcDbTrace
 10
17.07131515906575
 20
30.00014308947906
 30
0.0
 11
17.43220753934306
 21
30.00014308947906
 31
0.0
 12
17.25176134920441
 22
28.91746594864711
 32
0.0
 13
17.25176134920441
 23
28.91746594864711
 33
0.0
  0
SOLID
  5
3D6
330
2F2
100
AcDbEntity
  8
Dimension (ANSI)
440
 16777216
100
AcDbTrace
 10
17.07131515906576
 20
95.83478880781518
 30
0.0
 11
17.43220753934308
 21
95.83478880781518
 31
0.0
 12
17.25176134920442
 22
96.91746594864712
 32
0.0
 13
17.25176134920442
 23
96.91746594864712
 33
0.0
  0
MTEXT
  5
3D7
330
2F2
100
AcDbEntity
  8
Dimension (ANSI)
440
 16777216
100
AcDbMText
 10
15.06919579639066
 20
63.60760700586299
 30
0.0
 40
1.320000052452087
 41
0.0
 46
0.0
 71
     1
 72
     1
  1
\A1;68.00
  7
Note Text (ANSI)
 73
     1
 44
1.0
  0
POINT
  5
3D8
330
2F2
100
AcDbEntity
  8
Defpoints
 62
     0
440
 16777216
100
AcDbPoint
 10
39.00426174919685
 20
28.91746594864711
 30
0.0
  0
POINT
  5
3D9
330
2F2
100
AcDbEntity
  8
Defpoints
 62
     0
440
 16777216
100
AcDbPoint
 10
39.00426174919685
 20
96.9174659486471
 30
0.0
  0
POINT
  5
3DA
330
2F2
100
AcDbEntity
  8
Defpoints
 62
     0
440
 16777216
100
AcDbPoint
 10
17.25176134920442
 20
96.91746594864712
 30
0.0
  0
ENDBLK
  5
2F4
330
2F2
100
AcDbEntity
  8
0
100
AcDbBlockEnd
  0
BLOCK
  5
3DD
330
3DC
100
AcDbEntity
  8
0
100
AcDbBlockBegin
  2
*D5
 70
     1
 10
0.0
 20
0.0
 30
0.0
  3
*D5
  1

  0
LINE
  5
4BB
330
3DC
100
AcDbEntity
  8
Dimension (ANSI)
440
 16777216
100
AcDbLine
 10
38.97837340154853
 20
29.7924659486471
 30
0.0
 11
31.51921623375604
 21
29.7924659486471
 31
0.0
  0
LINE
  5
4BC
330
3DC
100
AcDbEntity
  8
Dimension (ANSI)
440
 16777216
100
AcDbLine
 10
38.10337340154852
 20
62.91746594864711
 30
0.0
 11
31.51921623375605
 21
62.91746594864711
 31
0.0
  0
LINE
  5
4BD
330
3DC
100
AcDbEntity
  8
Dimension (ANSI)
440
 16777216
100
AcDbLine
 10
32.89421623375604
 20
30.87514308947904
 30
0.0
 11
32.89421623375604
 21
45.3210277016285
 31
0.0
  0
LINE
  5
4BE
330
3DC
100
AcDbEntity
  8
Dimension (ANSI)
440
 16777216
100
AcDbLine
 10
32.89421623375605
 20
61.83478880781516
 30
0.0
 11
32.89421623375604
 21
47.3889041956657
 31
0.0
  0
SOLID
  5
4BF
330
3DC
100
AcDbEntity
  8
Dimension (ANSI)
440
 16777216
100
AcDbTrace
 10
32.71377004361738
 20
30.87514308947904
 30
0.0
 11
33.0746624238947
 21
30.87514308947904
 31
0.0
 12
32.89421623375604
 22
29.7924659486471
 32
0.0
 13
32.89421623375604
 23
29.7924659486471
 33
0.0
  0
SOLID
  5
4C0
330
3DC
100
AcDbEntity
  8
Dimension (ANSI)
440
 16777216
100
AcDbTrace
 10
32.71377004361739
 20
61.83478880781516
 30
0.0
 11
33.07466242389471
 21
61.83478880781516
 31
0.0
 12
32.89421623375605
 22
62.91746594864711
 32
0.0
 13
32.89421623375605
 23
62.91746594864711
 33
0.0
  0
MTEXT
  5
4C1
330
3DC
100
AcDbEntity
  8
Dimension (ANSI)
440
 16777216
100
AcDbMText
 10
30.73159695427223
 20
47.04244750275232
 30
0.0
 40
1.320000052452087
 41
0.0
 46
0.0
 71
     1
 72
     1
  1
\A1;33.13
  7
Note Text (ANSI)
 73
     1
 44
1.0
  0
POINT
  5
4C2
330
3DC
100
AcDbEntity
  8
Defpoints
 62
     0
440
 16777216
100
AcDbPoint
 10
39.66587340154852
 20
29.7924659486471
 30
0.0
  0
POINT
  5
4C3
330
3DC
100
AcDbEntity
  8
Defpoints
 62
     0
440
 16777216
100
AcDbPoint
 10
38.79087340154852
 20
62.91746594864711
 30
0.0
  0
POINT
  5
4C4
330
3DC
100
AcDbEntity
  8
Defpoints
 62
     0
440
 16777216
100
AcDbPoint
 10
32.89421623375605
 20
62.91746594864711
 30
0.0
  0
ENDBLK
  5
3DE
330
3DC
100
AcDbEntity
  8
0
100
AcDbBlockEnd
  0
BLOCK
  5
4C7
330
4C6
100
AcDbEntity
  8
0
100
AcDbBlockBegin
  2
*D6
 70
     1
 10
0.0
 20
0.0
 30
0.0
  3
*D6
  1

  0
LINE
  5
5A5
330
4C6
100
AcDbEntity
  8
Dimension (ANSI)
440
 16777216
100
AcDbLine
 10
38.97837340154853
 20
29.7924659486471
 30
0.0
 11
23.56646395272963
 21
29.7924659486471
 31
0.0
  0
LINE
  5
5A6
330
4C6
100
AcDbEntity
  8
Dimension (ANSI)
440
 16777216
100
AcDbLine
 10
38.97837340154853
 20
96.04246594864708
 30
0.0
 11
23.56646395272965
 21
96.0424659486471
 31
0.0
  0
LINE
  5
5A7
330
4C6
100
AcDbEntity
  8
Dimension (ANSI)
440
 16777216
100
AcDbLine
 10
24.94146395272963
 20
30.87514308947904
 30
0.0
 11
24.94146395272964
 21
62.29756248129016
 31
0.0
  0
LINE
  5
5A8
330
4C6
100
AcDbEntity
  8
Dimension (ANSI)
440
 16777216
100
AcDbLine
 10
24.94146395272965
 20
94.95978880781514
 30
0.0
 11
24.94146395272964
 21
64.36543897532738
 31
0.0
  0
SOLID
  5
5A9
330
4C6
100
AcDbEntity
  8
Dimension (ANSI)
440
 16777216
100
AcDbTrace
 10
24.76101776259098
 20
30.87514308947904
 30
0.0
 11
25.12191014286829
 21
30.87514308947904
 31
0.0
 12
24.94146395272963
 22
29.7924659486471
 32
0.0
 13
24.94146395272963
 23
29.7924659486471
 33
0.0
  0
SOLID
  5
5AA
330
4C6
100
AcDbEntity
  8
Dimension (ANSI)
440
 16777216
100
AcDbTrace
 10
24.76101776259099
 20
94.95978880781514
 30
0.0
 11
25.1219101428683
 21
94.95978880781514
 31
0.0
 12
24.94146395272965
 22
96.0424659486471
 32
0.0
 13
24.94146395272965
 23
96.0424659486471
 33
0.0
  0
MTEXT
  5
5AB
330
4C6
100
AcDbEntity
  8
Dimension (ANSI)
440
 16777216
100
AcDbMText
 10
22.76953641235852
 20
64.01898228241399
 30
0.0
 40
1.320000052452087
 41
0.0
 46
0.0
 71
     1
 72
     1
  1
\A1;66.25
  7
Note Text (ANSI)
 73
     1
 44
1.0
  0
POINT
  5
5AC
330
4C6
100
AcDbEntity
  8
Defpoints
 62
     0
440
 16777216
100
AcDbPoint
 10
39.66587340154852
 20
29.7924659486471
 30
0.0
  0
POINT
  5
5AD
330
4C6
100
AcDbEntity
  8
Defpoints
 62
     0
440
 16777216
100
AcDbPoint
 10
39.66587340154852
 20
96.04246594864708
 30
0.0
  0
POINT
  5
5AE
330
4C6
100
AcDbEntity
  8
Defpoints
 62
     0
440
 16777216
100
AcDbPoint
 10
24.94146395272965
 20
96.0424659486471
 30
0.0
  0
ENDBLK
  5
4C8
330
4C6
100
AcDbEntity
  8
0
100
AcDbBlockEnd
  0
BLOCK
  5
5B1
330
5B0
100
AcDbEntity
  8
0
100
AcDbBlockBegin
  2
*D7
 70
     1
 10
0.0
 20
0.0
 30
0.0
  3
*D7
  1

  0
LINE
  5
68F
330
5B0
100
AcDbEntity
  8
Dimension (ANSI)
440
 16777216
100
AcDbLine
 10
38.79087340154852
 20
97.39157760099878
 30
0.0
 11
38.79087340154852
 21
111.7830276735642
 31
0.0
  0
LINE
  5
690
330
5B0
100
AcDbEntity
  8
Dimension (ANSI)
440
 16777216
100
AcDbLine
 10
94.79087340154848
 20
97.39157760099878
 30
0.0
 11
94.79087340154848
 21
111.7830276735642
 31
0.0
  0
LINE
  5
691
330
5B0
100
AcDbEntity
  8
Dimension (ANSI)
440
 16777216
100
AcDbLine
 10
39.87355054238047
 20
110.4080276735643
 30
0.0
 11
64.27913792604065
 21
110.4080276735643
 31
0.0
  0
LINE
  5
692
330
5B0
100
AcDbEntity
  8
Dimension (ANSI)
440
 16777216
100
AcDbLine
 10
93.70819626071654
 20
110.4080276735643
 30
0.0
 11
69.30260887705634
 21
110.4080276735643
 31
0.0
  0
SOLID
  5
693
330
5B0
100
AcDbEntity
  8
Dimension (ANSI)
440
 16777216
100
AcDbTrace
 10
39.87355054238047
 20
110.5884738637029
 30
0.0
 11
39.87355054238047
 21
110.2275814834256
 31
0.0
 12
38.79087340154852
 22
110.4080276735643
 32
0.0
 13
38.79087340154852
 23
110.4080276735643
 33
0.0
  0
SOLID
  5
694
330
5B0
100
AcDbEntity
  8
Dimension (ANSI)
440
 16777216
100
AcDbTrace
 10
93.70819626071654
 20
110.5884738637029
 30
0.0
 11
93.70819626071654
 21
110.2275814834256
 31
0.0
 12
94.79087340154848
 22
110.4080276735643
 32
0.0
 13
94.79087340154848
 23
110.4080276735643
 33
0.0
  0
MTEXT
  5
695
330
5B0
100
AcDbEntity
  8
Dimension (ANSI)
440
 16777216
100
AcDbMText
 10
64.62559461895404
 20
111.095065977151
 30
0.0
 40
1.320000052452087
 41
0.0
 46
0.0
 71
     1
 72
     1
  1
\A1;56.00
  7
Note Text (ANSI)
 73
     1
 44
1.0
  0
POINT
  5
696
330
5B0
100
AcDbEntity
  8
Defpoints
 62
     0
440
 16777216
100
AcDbPoint
 10
38.79087340154852
 20
96.70407760099877
 30
0.0
  0
POINT
  5
697
330
5B0
100
AcDbEntity
  8
Defpoints
 62
     0
440
 16777216
100
AcDbPoint
 10
94.79087340154848
 20
96.70407760099877
 30
0.0
  0
POINT
  5
698
330
5B0
100
AcDbEntity
  8
Defpoints
 62
     0
440
 16777216
100
AcDbPoint
 10
94.79087340154848
 20
110.4080276735643
 30
0.0
  0
ENDBLK
  5
5B2
330
5B0
100
AcDbEntity
  8
0
100
AcDbBlockEnd
  0
BLOCK
  5
69B
330
69A
100
AcDbEntity
  8
0
100
AcDbBlockBegin
  2
*D8
 70
     1
 10
0.0
 20
0.0
 30
0.0
  3
*D8
  1

  0
LINE
  5
779
330
69A
100
AcDbEntity
  8
Dimension (ANSI)
440
 16777216
100
AcDbLine
 10
39.66587340154852
 20
96.72996594864708
 30
0.0
 11
39.66587340154852
 21
105.9651512946032
 31
0.0
  0
LINE
  5
77A
330
69A
100
AcDbEntity
  8
Dimension (ANSI)
440
 16777216
100
AcDbLine
 10
93.91587340154853
 20
96.72996594864708
 30
0.0
 11
93.91587340154853
 21
105.9651512946032
 31
0.0
  0
LINE
  5
77B
330
69A
100
AcDbEntity
  8
Dimension (ANSI)
440
 16777216
100
AcDbLine
 10
40.74855054238047
 20
104.5901512946032
 30
0.0
 11
64.28977593848332
 21
104.5901512946032
 31
0.0
  0
LINE
  5
77C
330
69A
100
AcDbEntity
  8
Dimension (ANSI)
440
 16777216
100
AcDbLine
 10
92.83319626071657
 20
104.5901512946032
 30
0.0
 11
69.29197086461373
 21
104.5901512946032
 31
0.0
  0
SOLID
  5
77D
330
69A
100
AcDbEntity
  8
Dimension (ANSI)
440
 16777216
100
AcDbTrace
 10
40.74855054238047
 20
104.7705974847419
 30
0.0
 11
40.74855054238047
 21
104.4097051044646
 31
0.0
 12
39.66587340154852
 22
104.5901512946032
 32
0.0
 13
39.66587340154852
 23
104.5901512946032
 33
0.0
  0
SOLID
  5
77E
330
69A
100
AcDbEntity
  8
Dimension (ANSI)
440
 16777216
100
AcDbTrace
 10
92.83319626071657
 20
104.7705974847419
 30
0.0
 11
92.83319626071657
 21
104.4097051044646
 31
0.0
 12
93.91587340154853
 22
104.5901512946032
 32
0.0
 13
93.91587340154853
 23
104.5901512946032
 33
0.0
  0
MTEXT
  5
77F
330
69A
100
AcDbEntity
  8
Dimension (ANSI)
440
 16777216
100
AcDbMText
 10
64.6362326313967
 20
105.2776328487085
 30
0.0
 40
1.320000052452087
 41
0.0
 46
0.0
 71
     1
 72
     1
  1
\A1;54.25
  7
Note Text (ANSI)
 73
     1
 44
1.0
  0
POINT
  5
780
330
69A
100
AcDbEntity
  8
Defpoints
 62
     0
440
 16777216
100
AcDbPoint
 10
39.66587340154852
 20
96.04246594864708
 30
0.0
  0
POINT
  5
781
330
69A
100
AcDbEntity
  8
Defpoints
 62
     0
440
 16777216
100
AcDbPoint
 10
93.91587340154853
 20
96.04246594864708
 30
0.0
  0
POINT
  5
782
330
69A
100
AcDbEntity
  8
Defpoints
 62
     0
440
 16777216
100
AcDbPoint
 10
93.91587340154853
 20
104.5901512946032
 30
0.0
  0
ENDBLK
  5
69C
330
69A
100
AcDbEntity
  8
0
100
AcDbBlockEnd
  0
BLOCK
  5
785
330
784
100
AcDbEntity
  8
0
100
AcDbBlockBegin
  2
*D9
 70
     1
 10
0.0
 20
0.0
 30
0.0
  3
*D9
  1

  0
LINE
  5
863
330
784
100
AcDbEntity
  8
Dimension (ANSI)
440
 16777216
100
AcDbLine
 10
39.66587340154852
 20
96.72996594864708
 30
0.0
 11
39.66587340154852
 21
101.7481746100644
 31
0.0
  0
LINE
  5
864
330
784
100
AcDbEntity
  8
Dimension (ANSI)
440
 16777216
100
AcDbLine
 10
66.79087340154852
 20
96.72996594864708
 30
0.0
 11
66.79087340154852
 21
101.7481746100644
 31
0.0
  0
LINE
  5
865
330
784
100
AcDbEntity
  8
Dimension (ANSI)
440
 16777216
100
AcDbLine
 10
40.74855054238047
 20
100.3731746100644
 30
0.0
 11
50.72461643537266
 21
100.3731746100644
 31
0.0
  0
LINE
  5
866
330
784
100
AcDbEntity
  8
Dimension (ANSI)
440
 16777216
100
AcDbLine
 10
65.70819626071657
 20
100.3731746100644
 30
0.0
 11
55.7321303677244
 21
100.3731746100644
 31
0.0
  0
SOLID
  5
867
330
784
100
AcDbEntity
  8
Dimension (ANSI)
440
 16777216
100
AcDbTrace
 10
40.74855054238047
 20
100.553620800203
 30
0.0
 11
40.74855054238047
 21
100.1927284199257
 31
0.0
 12
39.66587340154852
 22
100.3731746100644
 32
0.0
 13
39.66587340154852
 23
100.3731746100644
 33
0.0
  0
SOLID
  5
868
330
784
100
AcDbEntity
  8
Dimension (ANSI)
440
 16777216
100
AcDbTrace
 10
65.70819626071657
 20
100.553620800203
 30
0.0
 11
65.70819626071657
 21
100.1927284199257
 31
0.0
 12
66.79087340154852
 22
100.3731746100644
 32
0.0
 13
66.79087340154852
 23
100.3731746100644
 33
0.0
  0
MTEXT
  5
869
330
784
100
AcDbEntity
  8
Dimension (ANSI)
440
 16777216
100
AcDbMText
 10
51.07107312828604
 20
101.0606561641696
 30
0.0
 40
1.320000052452087
 41
0.0
 46
0.0
 71
     1
 72
     1
  1
\A1;27.13
  7
Note Text (ANSI)
 73
     1
 44
1.0
  0
POINT
  5
86A
330
784
100
AcDbEntity
  8
Defpoints
 62
     0
440
 16777216
100
AcDbPoint
 10
39.66587340154852
 20
96.04246594864708
 30
0.0
  0
POINT
  5
86B
330
784
100
AcDbEntity
  8
Defpoints
 62
     0
440
 16777216
100
AcDbPoint
 10
66.79087340154852
 20
96.04246594864708
 30
0.0
  0
POINT
  5
86C
330
784
100
AcDbEntity
  8
Defpoints
 62
     0
440
 16777216
100
AcDbPoint
 10
66.79087340154852
 20
100.3731746100644
 30
0.0
  0
ENDBLK
  5
786
330
784
100
AcDbEntity
  8
0
100
AcDbBlockEnd
  0
BLOCK
  5
86F
330
86E
100
AcDbEntity
  8
0
100
AcDbBlockBegin
  2
*D10
 70
     1
 10
0.0
 20
0.0
 30
0.0
  3
*D10
  1

  0
LINE
  5
961
330
86E
100
AcDbEntity
  8
Dimension (ANSI)
440
 16777216
100
AcDbLine
 10
125.3333575491141
 20
97.44871594864711
 30
0.0
 11
125.3333575491141
 21
101.4420722478597
 31
0.0
  0
LINE
  5
962
330
86E
100
AcDbEntity
  8
Dimension (ANSI)
440
 16777216
100
AcDbLine
 10
126.2083575491141
 20
97.60496594864715
 30
0.0
 11
126.2083575491141
 21
101.4420722478597
 31
0.0
  0
LINE
  5
963
330
86E
100
AcDbEntity
  8
Dimension (ANSI)
440
 16777216
100
AcDbLine
 10
127.291034689946
 20
100.0670722478596
 30
0.0
 11
128.3737118307779
 21
100.0670722478596
 31
0.0
  0
LINE
  5
964
330
86E
100
AcDbEntity
  8
Dimension (ANSI)
440
 16777216
100
AcDbLine
 10
124.2506804082821
 20
100.0670722478596
 30
0.0
 11
122.5585567619704
 21
100.0670722478596
 31
0.0
  0
SOLID
  5
965
330
86E
100
AcDbEntity
  8
Dimension (ANSI)
440
 16777216
100
AcDbTrace
 10
127.291034689946
 20
100.2475184379983
 30
0.0
 11
127.291034689946
 21
99.88662605772102
 31
0.0
 12
126.2083575491141
 22
100.0670722478596
 32
0.0
 13
126.2083575491141
 23
100.0670722478596
 33
0.0
  0
SOLID
  5
966
330
86E
100
AcDbEntity
  8
Dimension (ANSI)
440
 16777216
100
AcDbTrace
 10
124.2506804082821
 20
100.2475184379983
 30
0.0
 11
124.2506804082821
 21
99.88662605772102
 31
0.0
 12
125.3333575491141
 22
100.0670722478596
 32
0.0
 13
125.3333575491141
 23
100.0670722478596
 33
0.0
  0
MTEXT
  5
967
330
86E
100
AcDbEntity
  8
Dimension (ANSI)
440
 16777216
100
AcDbMText
 10
118.7246049899468
 20
100.9546075395091
 30
0.0
 40
1.320000052452087
 41
0.0
 46
0.0
 71
     1
 72
     1
  1
\A1;0.88{\PTYP.}
  7
Note Text (ANSI)
 73
     1
 44
1.0
  0
POINT
  5
968
330
86E
100
AcDbEntity
  8
Defpoints
 62
     0
440
 16777216
100
AcDbPoint
 10
125.3333575491141
 20
96.7612159486471
 30
0.0
  0
POINT
  5
969
330
86E
100
AcDbEntity
  8
Defpoints
 62
     0
440
 16777216
100
AcDbPoint
 10
126.2083575491141
 20
96.91746594864715
 30
0.0
  0
POINT
  5
96A
330
86E
100
AcDbEntity
  8
Defpoints
 62
     0
440
 16777216
100
AcDbPoint
 10
126.2083575491141
 20
100.0670722478596
 30
0.0
  0
ENDBLK
  5
870
330
86E
100
AcDbEntity
  8
0
100
AcDbBlockEnd
  0
BLOCK
  5
AB6
330
AB5
100
AcDbEntity
  8
0
100
AcDbBlockBegin
  2
*D11
 70
     1
 10
0.0
 20
0.0
 30
0.0
  3
*D11
  1

  0
LINE
  5
B67
330
AB5
100
AcDbEntity
  8
Dimension (ANSI)
440
 16777216
100
AcDbLine
 10
98.74235562929214
 20
70.97554545423936
 30
0.0
 11
97.34788369366482
 21
70.97554545423935
 31
0.0
  0
LINE
  5
B68
330
AB5
100
AcDbEntity
  8
Dimension (ANSI)
440
 16777216
100
AcDbLine
 10
97.34788369366482
 20
70.97554545423935
 30
0.0
 11
94.4504249168825
 21
64.17254919250885
 31
0.0
  0
MTEXT
  5
B69
330
AB5
100
AcDbEntity
  8
Dimension (ANSI)
440
 16777216
100
AcDbMText
 10
99.08881232220554
 20
71.97385951395576
 30
0.0
 40
1.320000052452087
 41
0.0
 46
0.0
 71
     1
 72
     1
  1
\A1;∅0.563{\P(10 PL.)}
  7
Note Text (ANSI)
 73
     1
 44
1.0
  0
SOLID
  5
B6A
330
AB5
100
AcDbEntity
  8
Dimension (ANSI)
440
 16777216
100
AcDbTrace
 10
94.28440909468246
 20
64.24325686051453
 30
0.0
 11
94.61644073908255
 21
64.10184152450319
 31
0.0
 12
94.02617890884849
 22
63.17645425930859
 32
0.0
 13
94.02617890884849
 23
63.17645425930859
 33
0.0
  0
LINE
  5
B6B
330
AB5
100
AcDbEntity
  8
Dimension (ANSI)
440
 16777216
100
AcDbLine
 10
92.92587340154851
 20
62.91746594864711
 30
0.0
 11
94.90587340154851
 21
62.91746594864711
 31
0.0
  0
LINE
  5
B6C
330
AB5
100
AcDbEntity
  8
Dimension (ANSI)
440
 16777216
100
AcDbLine
 10
93.91587340154851
 20
61.92746594864711
 30
0.0
 11
93.91587340154851
 21
63.90746594864713
 31
0.0
  0
POINT
  5
B6D
330
AB5
100
AcDbEntity
  8
Defpoints
 62
     0
440
 16777216
100
AcDbPoint
 10
94.02617890884849
 20
63.17645425930859
 30
0.0
  0
POINT
  5
B6E
330
AB5
100
AcDbEntity
  8
Defpoints
 62
     0
440
 16777216
100
AcDbPoint
 10
93.80556789424851
 20
62.65847763798563
 30
0.0
  0
ENDBLK
  5
AB7
330
AB5
100
AcDbEntity
  8
0
100
AcDbBlockEnd
  0
BLOCK
  5
B8A
330
B89
100
AcDbEntity
  8
0
100
AcDbBlockBegin
  2
*D12
 70
     1
 10
0.0
 20
0.0
 30
0.0
  3
*D12
  1

  0
LINE
  5
C7D
330
B89
100
AcDbEntity
  8
Dimension (ANSI)
440
 16777216
100
AcDbLine
 10
38.31676174919685
 20
28.91746594864711
 30
0.0
 11
34.63471687603937
 21
28.91746594864711
 31
0.0
  0
LINE
  5
C7E
330
B89
100
AcDbEntity
  8
Dimension (ANSI)
440
 16777216
100
AcDbLine
 10
37.32187340154852
 20
29.7924659486471
 30
0.0
 11
34.63471687603937
 21
29.7924659486471
 31
0.0
  0
LINE
  5
C7F
330
B89
100
AcDbEntity
  8
Dimension (ANSI)
440
 16777216
100
AcDbLine
 10
36.00971687603937
 20
30.87514308947904
 30
0.0
 11
36.00971687603937
 21
31.95782023031099
 31
0.0
  0
LINE
  5
C80
330
B89
100
AcDbEntity
  8
Dimension (ANSI)
440
 16777216
100
AcDbLine
 10
36.00971687603937
 20
27.83478880781516
 30
0.0
 11
36.00971687603937
 21
25.76049162394357
 31
0.0
  0
LINE
  5
C81
330
B89
100
AcDbEntity
  8
Dimension (ANSI)
440
 16777216
100
AcDbLine
 10
36.00971687603937
 20
25.76049162394357
 30
0.0
 11
34.92703973520742
 21
25.76049162394357
 31
0.0
  0
SOLID
  5
C82
330
B89
100
AcDbEntity
  8
Dimension (ANSI)
440
 16777216
100
AcDbTrace
 10
35.82927068590071
 20
30.87514308947904
 30
0.0
 11
36.19016306617803
 21
30.87514308947904
 31
0.0
 12
36.00971687603937
 22
29.7924659486471
 32
0.0
 13
36.00971687603937
 23
29.7924659486471
 33
0.0
  0
SOLID
  5
C83
330
B89
100
AcDbEntity
  8
Dimension (ANSI)
440
 16777216
100
AcDbTrace
 10
35.82927068590071
 20
27.83478880781516
 30
0.0
 11
36.19016306617803
 21
27.83478880781516
 31
0.0
 12
36.00971687603937
 22
28.91746594864711
 32
0.0
 13
36.00971687603937
 23
28.91746594864711
 33
0.0
  0
MTEXT
  5
C84
330
B89
100
AcDbEntity
  8
Dimension (ANSI)
440
 16777216
100
AcDbMText
 10
31.19680858449954
 20
26.45063268115945
 30
0.0
 40
1.320000052452087
 41
0.0
 46
0.0
 71
     1
 72
     1
  1
\A1;0.88
  7
Note Text (ANSI)
 73
     1
 44
1.0
  0
POINT
  5
C85
330
B89
100
AcDbEntity
  8
Defpoints
 62
     0
440
 16777216
100
AcDbPoint
 10
39.00426174919685
 20
28.91746594864711
 30
0.0
  0
POINT
  5
C86
330
B89
100
AcDbEntity
  8
Defpoints
 62
     0
440
 16777216
100
AcDbPoint
 10
38.00937340154852
 20
29.7924659486471
 30
0.0
  0
POINT
  5
C87
330
B89
100
AcDbEntity
  8
Defpoints
 62
     0
440
 16777216
100
AcDbPoint
 10
36.00971687603937
 20
29.7924659486471
 30
0.0
  0
ENDBLK
  5
B8B
330
B89
100
AcDbEntity
  8
0
100
AcDbBlockEnd
  0
BLOCK
  5
C8A
330
C89
100
AcDbEntity
  8
0
100
AcDbBlockBegin
  2
*D13
 70
     1
 10
0.0
 20
0.0
 30
0.0
  3
*D13
  1

  0
LINE
  5
D68
330
C89
100
AcDbEntity
  8
Dimension (ANSI)
440
 16777216
100
AcDbLine
 10
38.79087340154852
 20
97.39157760099878
 30
0.0
 11
38.79087340154852
 21
101.7551829598395
 31
0.0
  0
LINE
  5
D69
330
C89
100
AcDbEntity
  8
Dimension (ANSI)
440
 16777216
100
AcDbLine
 10
39.66587340154852
 20
98.38646594864707
 30
0.0
 11
39.66587340154852
 21
101.7551829598395
 31
0.0
  0
LINE
  5
D6A
330
C89
100
AcDbEntity
  8
Dimension (ANSI)
440
 16777216
100
AcDbLine
 10
40.74855054238047
 20
100.3801829598395
 30
0.0
 11
41.83122768321242
 21
100.3801829598395
 31
0.0
  0
LINE
  5
D6B
330
C89
100
AcDbEntity
  8
Dimension (ANSI)
440
 16777216
100
AcDbLine
 10
37.70819626071658
 20
100.3801829598395
 30
0.0
 11
36.06610048352601
 21
100.3801829598395
 31
0.0
  0
SOLID
  5
D6C
330
C89
100
AcDbEntity
  8
Dimension (ANSI)
440
 16777216
100
AcDbTrace
 10
40.74855054238047
 20
100.5606291499782
 30
0.0
 11
40.74855054238047
 21
100.1997367697009
 31
0.0
 12
39.66587340154852
 22
100.3801829598395
 32
0.0
 13
39.66587340154852
 23
100.3801829598395
 33
0.0
  0
SOLID
  5
D6D
330
C89
100
AcDbEntity
  8
Dimension (ANSI)
440
 16777216
100
AcDbTrace
 10
37.70819626071658
 20
100.5606291499782
 30
0.0
 11
37.70819626071658
 21
100.1997367697009
 31
0.0
 12
38.79087340154852
 22
100.3801829598395
 32
0.0
 13
38.79087340154852
 23
100.3801829598395
 33
0.0
  0
MTEXT
  5
D6E
330
C89
100
AcDbEntity
  8
Dimension (ANSI)
440
 16777216
100
AcDbMText
 10
32.33586933281813
 20
101.0703240170554
 30
0.0
 40
1.320000052452087
 41
0.0
 46
0.0
 71
     1
 72
     1
  1
\A1;0.88
  7
Note Text (ANSI)
 73
     1
 44
1.0
  0
POINT
  5
D6F
330
C89
100
AcDbEntity
  8
Defpoints
 62
     0
440
 16777216
100
AcDbPoint
 10
38.79087340154852
 20
96.70407760099877
 30
0.0
  0
POINT
  5
D70
330
C89
100
AcDbEntity
  8
Defpoints
 62
     0
440
 16777216
100
AcDbPoint
 10
39.66587340154852
 20
97.69896594864707
 30
0.0
  0
POINT
  5
D71
330
C89
100
AcDbEntity
  8
Defpoints
 62
     0
440
 16777216
100
AcDbPoint
 10
39.66587340154852
 20
100.3801829598395
 30
0.0
  0
ENDBLK
  5
C8B
330
C89
100
AcDbEntity
  8
0
100
AcDbBlockEnd
  0
BLOCK
  5
D74
330
D73
100
AcDbEntity
  8
0
100
AcDbBlockBegin
  2
*D14
 70
     1
 10
0.0
 20
0.0
 30
0.0
  3
*D14
  1

  0
LINE
  5
E52
330
D73
100
AcDbEntity
  8
Dimension (ANSI)
440
 16777216
100
AcDbLine
 10
96.2598734015485
 20
62.91746594864711
 30
0.0
 11
101.2780820629658
 21
62.91746594864711
 31
0.0
  0
LINE
  5
E53
330
D73
100
AcDbEntity
  8
Dimension (ANSI)
440
 16777216
100
AcDbLine
 10
96.2598734015485
 20
52.91746594864711
 30
0.0
 11
101.2780820629658
 21
52.91746594864711
 31
0.0
  0
LINE
  5
E54
330
D73
100
AcDbEntity
  8
Dimension (ANSI)
440
 16777216
100
AcDbLine
 10
99.90308206296584
 20
61.83478880781516
 30
0.0
 11
99.90308206296584
 21
58.95096094514726
 31
0.0
  0
LINE
  5
E55
330
D73
100
AcDbEntity
  8
Dimension (ANSI)
440
 16777216
100
AcDbLine
 10
99.90308206296584
 20
54.00014308947906
 30
0.0
 11
99.90308206296584
 21
56.88397095214693
 31
0.0
  0
SOLID
  5
E56
330
D73
100
AcDbEntity
  8
Dimension (ANSI)
440
 16777216
100
AcDbTrace
 10
99.72263587282718
 20
61.83478880781516
 30
0.0
 11
100.0835282531045
 21
61.83478880781516
 31
0.0
 12
99.90308206296584
 22
62.91746594864711
 32
0.0
 13
99.90308206296584
 23
62.91746594864711
 33
0.0
  0
SOLID
  5
E57
330
D73
100
AcDbEntity
  8
Dimension (ANSI)
440
 16777216
100
AcDbTrace
 10
99.72263587282718
 20
54.00014308947906
 30
0.0
 11
100.0835282531045
 21
54.00014308947906
 31
0.0
 12
99.90308206296584
 22
52.91746594864711
 32
0.0
 13
99.90308206296584
 23
52.91746594864711
 33
0.0
  0
MTEXT
  5
E58
330
D73
100
AcDbEntity
  8
Dimension (ANSI)
440
 16777216
100
AcDbMText
 10
97.78301483325256
 20
58.60450425223389
 30
0.0
 40
1.320000052452087
 41
0.0
 46
0.0
 71
     1
 72
     1
  1
\A1;10.00
  7
Note Text (ANSI)
 73
     1
 44
1.0
  0
POINT
  5
E59
330
D73
100
AcDbEntity
  8
Defpoints
 62
     0
440
 16777216
100
AcDbPoint
 10
95.5723734015485
 20
62.91746594864711
 30
0.0
  0
POINT
  5
E5A
330
D73
100
AcDbEntity
  8
Defpoints
 62
     0
440
 16777216
100
AcDbPoint
 10
95.57237340154848
 20
52.91746594864711
 30
0.0
  0
POINT
  5
E5B
330
D73
100
AcDbEntity
  8
Defpoints
 62
     0
440
 16777216
100
AcDbPoint
 10
99.90308206296584
 20
52.91746594864711
 30
0.0
  0
ENDBLK
  5
D75
330
D73
100
AcDbEntity
  8
0
100
AcDbBlockEnd
  0
ENDSEC
  0
SECTION
  2
ENTITIES
  0
CIRCLE
  5
11B
330
6C
100
AcDbEntity
  8
Visible (ANSI)
100
AcDbCircle
 10
93.91587340154849
 20
52.91746594864711
 30
0.0
 40
0.2814999999999999
  0
CIRCLE
  5
11C
330
6C
100
AcDbEntity
  8
Visible (ANSI)
100
AcDbCircle
 10
39.66587340154852
 20
52.91746594864709
 30
0.0
 40
0.2814999999999999
  0
CIRCLE
  5
11D
330
6C
100
AcDbEntity
  8
Visible (ANSI)
100
AcDbCircle
 10
66.79087340154852
 20
29.7924659486471
 30
0.0
 40
0.2814999999999999
  0
CIRCLE
  5
11E
330
6C
100
AcDbEntity
  8
Visible (ANSI)
100
AcDbCircle
 10
93.91587340154849
 20
62.91746594864711
 30
0.0
 40
0.2814999999999999
  0
CIRCLE
  5
11F
330
6C
100
AcDbEntity
  8
Visible (ANSI)
100
AcDbCircle
 10
93.91587340154853
 20
29.79246594864711
 30
0.0
 40
0.2814999999999999
  0
CIRCLE
  5
120
330
6C
100
AcDbEntity
  8
Visible (ANSI)
100
AcDbCircle
 10
39.66587340154852
 20
29.7924659486471
 30
0.0
 40
0.2814999999999999
  0
CIRCLE
  5
121
330
6C
100
AcDbEntity
  8
Visible (ANSI)
100
AcDbCircle
 10
39.66587340154852
 20
62.91746594864709
 30
0.0
 40
0.2814999999999999
  0
CIRCLE
  5
122
330
6C
100
AcDbEntity
  8
Visible (ANSI)
100
AcDbCircle
 10
93.91587340154853
 20
96.04246594864708
 30
0.0
 40
0.2814999999999999
  0
CIRCLE
  5
123
330
6C
100
AcDbEntity
  8
Visible (ANSI)
100
AcDbCircle
 10
66.7908734015485
 20
96.04246594864708
 30
0.0
 40
0.2814999999999999
  0
CIRCLE
  5
124
330
6C
100
AcDbEntity
  8
Visible (ANSI)
100
AcDbCircle
 10
39.66587340154852
 20
96.04246594864708
 30
0.0
 40
0.2814999999999999
  0
LINE
  5
125
330
6C
100
AcDbEntity
  8
Visible (ANSI)
100
AcDbLine
 10
94.57748505390021
 20
28.91746594864712
 30
0.0
 11
39.00426174919684
 21
28.91746594864711
 31
0.0
  0
LINE
  5
126
330
6C
100
AcDbEntity
  8
Visible (ANSI)
100
AcDbLine
 10
94.79087340154846
 20
96.70407760099877
 30
0.0
 11
94.79087340154853
 21
29.13085429629544
 31
0.0
  0
LINE
  5
127
330
6C
100
AcDbEntity
  8
Visible (ANSI)
100
AcDbLine
 10
39.00426174919684
 20
96.9174659486471
 30
0.0
 11
94.57748505390018
 21
96.9174659486471
 31
0.0
  0
LINE
  5
128
330
6C
100
AcDbEntity
  8
Visible (ANSI)
100
AcDbLine
 10
38.79087340154852
 20
29.13085429629543
 30
0.0
 11
38.79087340154852
 21
96.70407760099877
 31
0.0
  0
POLYLINE
  5
129
330
6C
100
AcDbEntity
  8
Visible (ANSI)
100
AcDb2dPolyline
 66
     1
 10
0.0
 20
0.0
 30
0.0
 70
   128
  0
VERTEX
  5
12A
330
129
100
AcDbEntity
  8
Visible (ANSI)
100
AcDbVertex
100
AcDb2dVertex
 10
94.63462316125264
 20
29.07371594630047
 30
0.0
  0
VERTEX
  5
12B
330
129
100
AcDbEntity
  8
Visible (ANSI)
100
AcDbVertex
100
AcDb2dVertex
 10
94.63224423193421
 20
29.06349670648733
 30
0.0
  0
VERTEX
  5
12D
330
129
100
AcDbEntity
  8
Visible (ANSI)
100
AcDbVertex
100
AcDb2dVertex
 10
94.62985929521854
 20
29.05332123150195
 30
0.0
  0
VERTEX
  5
12E
330
129
100
AcDbEntity
  8
Visible (ANSI)
100
AcDbVertex
100
AcDb2dVertex
 10
94.62748036590014
 20
29.04323308670773
 30
0.0
  0
VERTEX
  5
12F
330
129
100
AcDbEntity
  8
Visible (ANSI)
100
AcDbVertex
100
AcDb2dVertex
 10
94.62510143658173
 20
29.03327547373893
 30
0.0
  0
VERTEX
  5
130
330
129
100
AcDbEntity
  8
Visible (ANSI)
100
AcDbVertex
100
AcDb2dVertex
 10
94.62272250726334
 20
29.02349103103631
 30
0.0
  0
VERTEX
  5
131
330
129
100
AcDbEntity
  8
Visible (ANSI)
100
AcDbVertex
100
AcDb2dVertex
 10
94.62033757054765
 20
29.01392166371579
 30
0.0
  0
VERTEX
  5
132
330
129
100
AcDbEntity
  8
Visible (ANSI)
100
AcDbVertex
100
AcDb2dVertex
 10
94.61795864122924
 20
29.00460833823745
 30
0.0
  0
VERTEX
  5
133
330
129
100
AcDbEntity
  8
Visible (ANSI)
100
AcDbVertex
100
AcDb2dVertex
 10
94.61557971191083
 20
28.99559094747379
 30
0.0
  0
VERTEX
  5
134
330
129
100
AcDbEntity
  8
Visible (ANSI)
100
AcDbVertex
100
AcDb2dVertex
 10
94.61319477519516
 20
28.98690809951212
 30
0.0
  0
VERTEX
  5
135
330
129
100
AcDbEntity
  8
Visible (ANSI)
100
AcDbVertex
100
AcDb2dVertex
 10
94.61081584587676
 20
28.97859697685625
 30
0.0
  0
VERTEX
  5
136
330
129
100
AcDbEntity
  8
Visible (ANSI)
100
AcDbVertex
100
AcDb2dVertex
 10
94.60843691655837
 20
28.97069316629508
 30
0.0
  0
VERTEX
  5
137
330
129
100
AcDbEntity
  8
Visible (ANSI)
100
AcDbVertex
100
AcDb2dVertex
 10
94.6060519798427
 20
28.96323051517093
 30
0.0
  0
VERTEX
  5
138
330
129
100
AcDbEntity
  8
Visible (ANSI)
100
AcDbVertex
100
AcDb2dVertex
 10
94.60367305052427
 20
28.95624097884799
 30
0.0
  0
VERTEX
  5
139
330
129
100
AcDbEntity
  8
Visible (ANSI)
100
AcDbVertex
100
AcDb2dVertex
 10
94.60129412120588
 20
28.94975448871381
 30
0.0
  0
VERTEX
  5
13A
330
129
100
AcDbEntity
  8
Visible (ANSI)
100
AcDbVertex
100
AcDb2dVertex
 10
94.59890918449021
 20
28.94379882311416
 30
0.0
  0
VERTEX
  5
13B
330
129
100
AcDbEntity
  8
Visible (ANSI)
100
AcDbVertex
100
AcDb2dVertex
 10
94.5965302551718
 20
28.93839947975451
 30
0.0
  0
VERTEX
  5
13C
330
129
100
AcDbEntity
  8
Visible (ANSI)
100
AcDbVertex
100
AcDb2dVertex
 10
94.59415132585339
 20
28.93357958330103
 30
0.0
  0
VERTEX
  5
13D
330
129
100
AcDbEntity
  8
Visible (ANSI)
100
AcDbVertex
100
AcDb2dVertex
 10
94.59177239653499
 20
28.92935977171532
 30
0.0
  0
VERTEX
  5
13E
330
129
100
AcDbEntity
  8
Visible (ANSI)
100
AcDbVertex
100
AcDb2dVertex
 10
94.5893874598193
 20
28.92575811558862
 30
0.0
  0
VERTEX
  5
13F
330
129
100
AcDbEntity
  8
Visible (ANSI)
100
AcDbVertex
100
AcDb2dVertex
 10
94.58700853050089
 20
28.92279003820944
 30
0.0
  0
VERTEX
  5
140
330
129
100
AcDbEntity
  8
Visible (ANSI)
100
AcDbVertex
100
AcDb2dVertex
 10
94.5846296011825
 20
28.92046824864762
 30
0.0
  0
VERTEX
  5
141
330
129
100
AcDbEntity
  8
Visible (ANSI)
100
AcDbVertex
100
AcDb2dVertex
 10
94.58224466446681
 20
28.91880268904664
 30
0.0
  0
VERTEX
  5
142
330
129
100
AcDbEntity
  8
Visible (ANSI)
100
AcDbVertex
100
AcDb2dVertex
 10
94.5798657351484
 20
28.91780049188452
 30
0.0
  0
VERTEX
  5
143
330
129
100
AcDbEntity
  8
Visible (ANSI)
100
AcDbVertex
100
AcDb2dVertex
 10
94.57748680583
 20
28.91746594864712
 30
0.0
  0
SEQEND
  5
12C
330
129
100
AcDbEntity
  8
Visible (ANSI)
  0
POLYLINE
  5
144
330
6C
100
AcDbEntity
  8
Visible (ANSI)
100
AcDb2dPolyline
 66
     1
 10
0.0
 20
0.0
 30
0.0
 70
   128
  0
VERTEX
  5
145
330
144
100
AcDbEntity
  8
Visible (ANSI)
100
AcDbVertex
100
AcDb2dVertex
 10
39.00426173753492
 20
28.91746594864711
 30
0.0
  0
VERTEX
  5
146
330
144
100
AcDbEntity
  8
Visible (ANSI)
100
AcDbVertex
100
AcDb2dVertex
 10
39.00188097783766
 20
28.91780049188452
 30
0.0
  0
VERTEX
  5
148
330
144
100
AcDbEntity
  8
Visible (ANSI)
100
AcDbVertex
100
AcDb2dVertex
 10
38.9995002181404
 20
28.91880268904664
 30
0.0
  0
VERTEX
  5
149
330
144
100
AcDbEntity
  8
Visible (ANSI)
100
AcDbVertex
100
AcDb2dVertex
 10
38.99711945844314
 20
28.92046824864762
 30
0.0
  0
VERTEX
  5
14A
330
144
100
AcDbEntity
  8
Visible (ANSI)
100
AcDbVertex
100
AcDb2dVertex
 10
38.99473869874588
 20
28.92279003820944
 30
0.0
  0
VERTEX
  5
14B
330
144
100
AcDbEntity
  8
Visible (ANSI)
100
AcDbVertex
100
AcDb2dVertex
 10
38.99235791558222
 20
28.92575811558862
 30
0.0
  0
VERTEX
  5
14C
330
144
100
AcDbEntity
  8
Visible (ANSI)
100
AcDbVertex
100
AcDb2dVertex
 10
38.98997715588496
 20
28.92935977171532
 30
0.0
  0
VERTEX
  5
14D
330
144
100
AcDbEntity
  8
Visible (ANSI)
100
AcDbVertex
100
AcDb2dVertex
 10
38.9875963961877
 20
28.93357958330103
 30
0.0
  0
VERTEX
  5
14E
330
144
100
AcDbEntity
  8
Visible (ANSI)
100
AcDbVertex
100
AcDb2dVertex
 10
38.98521563649044
 20
28.93839947975451
 30
0.0
  0
VERTEX
  5
14F
330
144
100
AcDbEntity
  8
Visible (ANSI)
100
AcDbVertex
100
AcDb2dVertex
 10
38.98283486505999
 20
28.94379882311416
 30
0.0
  0
VERTEX
  5
150
330
144
100
AcDbEntity
  8
Visible (ANSI)
100
AcDbVertex
100
AcDb2dVertex
 10
38.98045410536273
 20
28.94975448871381
 30
0.0
  0
VERTEX
  5
151
330
144
100
AcDbEntity
  8
Visible (ANSI)
100
AcDbVertex
100
AcDb2dVertex
 10
38.97807334566547
 20
28.95624097884799
 30
0.0
  0
VERTEX
  5
152
330
144
100
AcDbEntity
  8
Visible (ANSI)
100
AcDbVertex
100
AcDb2dVertex
 10
38.975692574235
 20
28.96323051517093
 30
0.0
  0
VERTEX
  5
153
330
144
100
AcDbEntity
  8
Visible (ANSI)
100
AcDbVertex
100
AcDb2dVertex
 10
38.97331181453774
 20
28.97069316629508
 30
0.0
  0
VERTEX
  5
154
330
144
100
AcDbEntity
  8
Visible (ANSI)
100
AcDbVertex
100
AcDb2dVertex
 10
38.97093104310728
 20
28.97859697685625
 30
0.0
  0
VERTEX
  5
155
330
144
100
AcDbEntity
  8
Visible (ANSI)
100
AcDbVertex
100
AcDb2dVertex
 10
38.96855028341002
 20
28.98690809951212
 30
0.0
  0
VERTEX
  5
156
330
144
100
AcDbEntity
  8
Visible (ANSI)
100
AcDbVertex
100
AcDb2dVertex
 10
38.96616951197957
 20
28.99559094747379
 30
0.0
  0
VERTEX
  5
157
330
144
100
AcDbEntity
  8
Visible (ANSI)
100
AcDbVertex
100
AcDb2dVertex
 10
38.9637887522823
 20
29.00460833823745
 30
0.0
  0
VERTEX
  5
158
330
144
100
AcDbEntity
  8
Visible (ANSI)
100
AcDbVertex
100
AcDb2dVertex
 10
38.96140799258504
 20
29.01392166371579
 30
0.0
  0
VERTEX
  5
159
330
144
100
AcDbEntity
  8
Visible (ANSI)
100
AcDbVertex
100
AcDb2dVertex
 10
38.95902722115458
 20
29.02349103103631
 30
0.0
  0
VERTEX
  5
15A
330
144
100
AcDbEntity
  8
Visible (ANSI)
100
AcDbVertex
100
AcDb2dVertex
 10
38.95664646145732
 20
29.03327547373893
 30
0.0
  0
VERTEX
  5
15B
330
144
100
AcDbEntity
  8
Visible (ANSI)
100
AcDbVertex
100
AcDb2dVertex
 10
38.95426569002686
 20
29.04323308670773
 30
0.0
  0
VERTEX
  5
15C
330
144
100
AcDbEntity
  8
Visible (ANSI)
100
AcDbVertex
100
AcDb2dVertex
 10
38.9518849303296
 20
29.05332123150195
 30
0.0
  0
VERTEX
  5
15D
330
144
100
AcDbEntity
  8
Visible (ANSI)
100
AcDbVertex
100
AcDb2dVertex
 10
38.94950417063235
 20
29.06349670648733
 30
0.0
  0
VERTEX
  5
15E
330
144
100
AcDbEntity
  8
Visible (ANSI)
100
AcDbVertex
100
AcDb2dVertex
 10
38.94712339920188
 20
29.07371594630047
 30
0.0
  0
SEQEND
  5
147
330
144
100
AcDbEntity
  8
Visible (ANSI)
  0
POLYLINE
  5
15F
330
6C
100
AcDbEntity
  8
Visible (ANSI)
100
AcDb2dPolyline
 66
     1
 10
0.0
 20
0.0
 30
0.0
 70
   128
  0
VERTEX
  5
160
330
15F
100
AcDbEntity
  8
Visible (ANSI)
100
AcDbVertex
100
AcDb2dVertex
 10
94.63462316125264
 20
96.76121402627998
 30
0.0
  0
VERTEX
  5
161
330
15F
100
AcDbEntity
  8
Visible (ANSI)
100
AcDbVertex
100
AcDb2dVertex
 10
94.64484174400668
 20
96.75883509696156
 30
0.0
  0
VERTEX
  5
163
330
15F
100
AcDbEntity
  8
Visible (ANSI)
100
AcDbVertex
100
AcDb2dVertex
 10
94.65501827497986
 20
96.75645616764315
 30
0.0
  0
VERTEX
  5
164
330
15F
100
AcDbEntity
  8
Visible (ANSI)
100
AcDbVertex
100
AcDb2dVertex
 10
94.665104694994
 20
96.7540712309275
 30
0.0
  0
VERTEX
  5
165
330
15F
100
AcDbEntity
  8
Visible (ANSI)
100
AcDbVertex
100
AcDb2dVertex
 10
94.67506495966553
 20
96.75169230160909
 30
0.0
  0
VERTEX
  5
166
330
15F
100
AcDbEntity
  8
Visible (ANSI)
100
AcDbVertex
100
AcDb2dVertex
 10
94.68485100981624
 20
96.74931337229068
 30
0.0
  0
VERTEX
  5
167
330
15F
100
AcDbEntity
  8
Visible (ANSI)
100
AcDbVertex
100
AcDb2dVertex
 10
94.694414786268
 20
96.74692843557501
 30
0.0
  0
VERTEX
  5
168
330
15F
100
AcDbEntity
  8
Visible (ANSI)
100
AcDbVertex
100
AcDb2dVertex
 10
94.70373225943175
 20
96.7445495062566
 30
0.0
  0
VERTEX
  5
169
330
15F
100
AcDbEntity
  8
Visible (ANSI)
100
AcDbVertex
100
AcDb2dVertex
 10
94.71274936273207
 20
96.7421705769382
 30
0.0
  0
VERTEX
  5
16A
330
15F
100
AcDbEntity
  8
Visible (ANSI)
100
AcDbVertex
100
AcDb2dVertex
 10
94.72143005178535
 20
96.73979164761981
 30
0.0
  0
VERTEX
  5
16B
330
15F
100
AcDbEntity
  8
Visible (ANSI)
100
AcDbVertex
100
AcDb2dVertex
 10
94.72974428960524
 20
96.73740671090413
 30
0.0
  0
VERTEX
  5
16C
330
15F
100
AcDbEntity
  8
Visible (ANSI)
100
AcDbVertex
100
AcDb2dVertex
 10
94.73764401701357
 20
96.73502778158571
 30
0.0
  0
VERTEX
  5
16D
330
15F
100
AcDbEntity
  8
Visible (ANSI)
100
AcDbVertex
100
AcDb2dVertex
 10
94.74511121181858
 20
96.73264885226732
 30
0.0
  0
VERTEX
  5
16E
330
15F
100
AcDbEntity
  8
Visible (ANSI)
100
AcDbVertex
100
AcDb2dVertex
 10
94.75209781484206
 20
96.73026391555163
 30
0.0
  0
VERTEX
  5
16F
330
15F
100
AcDbEntity
  8
Visible (ANSI)
100
AcDbVertex
100
AcDb2dVertex
 10
94.75858580389227
 20
96.72788498623322
 30
0.0
  0
VERTEX
  5
170
330
15F
100
AcDbEntity
  8
Visible (ANSI)
100
AcDbVertex
100
AcDb2dVertex
 10
94.76453913458556
 20
96.72550605691483
 30
0.0
  0
VERTEX
  5
171
330
15F
100
AcDbEntity
  8
Visible (ANSI)
100
AcDbVertex
100
AcDb2dVertex
 10
94.76993978473011
 20
96.72312112019914
 30
0.0
  0
VERTEX
  5
172
330
15F
100
AcDbEntity
  8
Visible (ANSI)
100
AcDbVertex
100
AcDb2dVertex
 10
94.77475771733962
 20
96.72074219088074
 30
0.0
  0
VERTEX
  5
173
330
15F
100
AcDbEntity
  8
Visible (ANSI)
100
AcDbVertex
100
AcDb2dVertex
 10
94.7789809176195
 20
96.71836326156231
 30
0.0
  0
VERTEX
  5
174
330
15F
100
AcDbEntity
  8
Visible (ANSI)
100
AcDbVertex
100
AcDb2dVertex
 10
94.78257934858346
 20
96.71598433224392
 30
0.0
  0
VERTEX
  5
175
330
15F
100
AcDbEntity
  8
Visible (ANSI)
100
AcDbVertex
100
AcDb2dVertex
 10
94.78554700283419
 20
96.71359939552825
 30
0.0
  0
VERTEX
  5
176
330
15F
100
AcDbEntity
  8
Visible (ANSI)
100
AcDbVertex
100
AcDb2dVertex
 10
94.78787186557719
 20
96.71122046620984
 30
0.0
  0
VERTEX
  5
177
330
15F
100
AcDbEntity
  8
Visible (ANSI)
100
AcDbVertex
100
AcDb2dVertex
 10
94.7895359146206
 20
96.70884153689144
 30
0.0
  0
VERTEX
  5
178
330
15F
100
AcDbEntity
  8
Visible (ANSI)
100
AcDbVertex
100
AcDb2dVertex
 10
94.79053914996448
 20
96.70645660017576
 30
0.0
  0
VERTEX
  5
179
330
15F
100
AcDbEntity
  8
Visible (ANSI)
100
AcDbVertex
100
AcDb2dVertex
 10
94.79087556421154
 20
96.70407767085736
 30
0.0
  0
SEQEND
  5
162
330
15F
100
AcDbEntity
  8
Visible (ANSI)
  0
POLYLINE
  5
17A
330
6C
100
AcDbEntity
  8
Visible (ANSI)
100
AcDb2dPolyline
 66
     1
 10
0.0
 20
0.0
 30
0.0
 70
   128
  0
VERTEX
  5
17B
330
17A
100
AcDbEntity
  8
Visible (ANSI)
100
AcDbVertex
100
AcDb2dVertex
 10
94.79087556421154
 20
29.13085428463351
 30
0.0
  0
VERTEX
  5
17C
330
17A
100
AcDbEntity
  8
Visible (ANSI)
100
AcDbVertex
100
AcDb2dVertex
 10
94.79053914996448
 20
29.12847352493625
 30
0.0
  0
VERTEX
  5
17E
330
17A
100
AcDbEntity
  8
Visible (ANSI)
100
AcDbVertex
100
AcDb2dVertex
 10
94.7895359146206
 20
29.12609276523899
 30
0.0
  0
VERTEX
  5
17F
330
17A
100
AcDbEntity
  8
Visible (ANSI)
100
AcDbVertex
100
AcDb2dVertex
 10
94.78787186557719
 20
29.12371200554173
 30
0.0
  0
VERTEX
  5
180
330
17A
100
AcDbEntity
  8
Visible (ANSI)
100
AcDbVertex
100
AcDb2dVertex
 10
94.78554700283419
 20
29.12133124584446
 30
0.0
  0
VERTEX
  5
181
330
17A
100
AcDbEntity
  8
Visible (ANSI)
100
AcDbVertex
100
AcDb2dVertex
 10
94.78257934858346
 20
29.11895046268081
 30
0.0
  0
VERTEX
  5
182
330
17A
100
AcDbEntity
  8
Visible (ANSI)
100
AcDbVertex
100
AcDb2dVertex
 10
94.7789809176195
 20
29.11656970298354
 30
0.0
  0
VERTEX
  5
183
330
17A
100
AcDbEntity
  8
Visible (ANSI)
100
AcDbVertex
100
AcDb2dVertex
 10
94.77475771733962
 20
29.11418894328629
 30
0.0
  0
VERTEX
  5
184
330
17A
100
AcDbEntity
  8
Visible (ANSI)
100
AcDbVertex
100
AcDb2dVertex
 10
94.76993978473011
 20
29.11180818358903
 30
0.0
  0
VERTEX
  5
185
330
17A
100
AcDbEntity
  8
Visible (ANSI)
100
AcDbVertex
100
AcDb2dVertex
 10
94.76453913458556
 20
29.10942741215857
 30
0.0
  0
VERTEX
  5
186
330
17A
100
AcDbEntity
  8
Visible (ANSI)
100
AcDbVertex
100
AcDb2dVertex
 10
94.75858580389227
 20
29.10704665246131
 30
0.0
  0
VERTEX
  5
187
330
17A
100
AcDbEntity
  8
Visible (ANSI)
100
AcDbVertex
100
AcDb2dVertex
 10
94.75209781484206
 20
29.10466589276405
 30
0.0
  0
VERTEX
  5
188
330
17A
100
AcDbEntity
  8
Visible (ANSI)
100
AcDbVertex
100
AcDb2dVertex
 10
94.74511121181858
 20
29.10228512133359
 30
0.0
  0
VERTEX
  5
189
330
17A
100
AcDbEntity
  8
Visible (ANSI)
100
AcDbVertex
100
AcDb2dVertex
 10
94.73764401701357
 20
29.09990436163633
 30
0.0
  0
VERTEX
  5
18A
330
17A
100
AcDbEntity
  8
Visible (ANSI)
100
AcDbVertex
100
AcDb2dVertex
 10
94.72974428960524
 20
29.09752359020587
 30
0.0
  0
VERTEX
  5
18B
330
17A
100
AcDbEntity
  8
Visible (ANSI)
100
AcDbVertex
100
AcDb2dVertex
 10
94.72143005178535
 20
29.09514283050861
 30
0.0
  0
VERTEX
  5
18C
330
17A
100
AcDbEntity
  8
Visible (ANSI)
100
AcDbVertex
100
AcDb2dVertex
 10
94.71274936273207
 20
29.09276205907815
 30
0.0
  0
VERTEX
  5
18D
330
17A
100
AcDbEntity
  8
Visible (ANSI)
100
AcDbVertex
100
AcDb2dVertex
 10
94.70373225943175
 20
29.09038129938089
 30
0.0
  0
VERTEX
  5
18E
330
17A
100
AcDbEntity
  8
Visible (ANSI)
100
AcDbVertex
100
AcDb2dVertex
 10
94.694414786268
 20
29.08800053968363
 30
0.0
  0
VERTEX
  5
18F
330
17A
100
AcDbEntity
  8
Visible (ANSI)
100
AcDbVertex
100
AcDb2dVertex
 10
94.68485100981624
 20
29.08561976825317
 30
0.0
  0
VERTEX
  5
190
330
17A
100
AcDbEntity
  8
Visible (ANSI)
100
AcDbVertex
100
AcDb2dVertex
 10
94.67506495966553
 20
29.0832390085559
 30
0.0
  0
VERTEX
  5
191
330
17A
100
AcDbEntity
  8
Visible (ANSI)
100
AcDbVertex
100
AcDb2dVertex
 10
94.665104694994
 20
29.08085823712545
 30
0.0
  0
VERTEX
  5
192
330
17A
100
AcDbEntity
  8
Visible (ANSI)
100
AcDbVertex
100
AcDb2dVertex
 10
94.65501827497986
 20
29.07847747742819
 30
0.0
  0
VERTEX
  5
193
330
17A
100
AcDbEntity
  8
Visible (ANSI)
100
AcDbVertex
100
AcDb2dVertex
 10
94.64484174400668
 20
29.07609671773093
 30
0.0
  0
VERTEX
  5
194
330
17A
100
AcDbEntity
  8
Visible (ANSI)
100
AcDbVertex
100
AcDb2dVertex
 10
94.63462316125264
 20
29.07371594630047
 30
0.0
  0
SEQEND
  5
17D
330
17A
100
AcDbEntity
  8
Visible (ANSI)
  0
POLYLINE
  5
195
330
6C
100
AcDbEntity
  8
Visible (ANSI)
100
AcDb2dPolyline
 66
     1
 10
0.0
 20
0.0
 30
0.0
 70
   128
  0
VERTEX
  5
196
330
195
100
AcDbEntity
  8
Visible (ANSI)
100
AcDbVertex
100
AcDb2dVertex
 10
38.94712339920188
 20
96.76121402627998
 30
0.0
  0
VERTEX
  5
197
330
195
100
AcDbEntity
  8
Visible (ANSI)
100
AcDbVertex
100
AcDb2dVertex
 10
38.94950417063235
 20
96.77143260903404
 30
0.0
  0
VERTEX
  5
199
330
195
100
AcDbEntity
  8
Visible (ANSI)
100
AcDbVertex
100
AcDb2dVertex
 10
38.9518849303296
 20
96.78160914000722
 30
0.0
  0
VERTEX
  5
19A
330
195
100
AcDbEntity
  8
Visible (ANSI)
100
AcDbVertex
100
AcDb2dVertex
 10
38.95426569002686
 20
96.79170156741863
 30
0.0
  0
VERTEX
  5
19B
330
195
100
AcDbEntity
  8
Visible (ANSI)
100
AcDbVertex
100
AcDb2dVertex
 10
38.95664646145732
 20
96.80165582469285
 30
0.0
  0
VERTEX
  5
19C
330
195
100
AcDbEntity
  8
Visible (ANSI)
100
AcDbVertex
100
AcDb2dVertex
 10
38.95902722115458
 20
96.81144187484358
 30
0.0
  0
VERTEX
  5
19D
330
195
100
AcDbEntity
  8
Visible (ANSI)
100
AcDbVertex
100
AcDb2dVertex
 10
38.96140799258504
 20
96.82101165869262
 30
0.0
  0
VERTEX
  5
19E
330
195
100
AcDbEntity
  8
Visible (ANSI)
100
AcDbVertex
100
AcDb2dVertex
 10
38.9637887522823
 20
96.83032312445911
 30
0.0
  0
VERTEX
  5
19F
330
195
100
AcDbEntity
  8
Visible (ANSI)
100
AcDbVertex
100
AcDb2dVertex
 10
38.96616951197957
 20
96.83934022775943
 30
0.0
  0
VERTEX
  5
1A0
330
195
100
AcDbEntity
  8
Visible (ANSI)
100
AcDbVertex
100
AcDb2dVertex
 10
38.96855028341002
 20
96.8480209168127
 30
0.0
  0
VERTEX
  5
1A1
330
195
100
AcDbEntity
  8
Visible (ANSI)
100
AcDbVertex
100
AcDb2dVertex
 10
38.97093104310728
 20
96.85633515463258
 30
0.0
  0
VERTEX
  5
1A2
330
195
100
AcDbEntity
  8
Visible (ANSI)
100
AcDbVertex
100
AcDb2dVertex
 10
38.97331181453774
 20
96.8642408894382
 30
0.0
  0
VERTEX
  5
1A3
330
195
100
AcDbEntity
  8
Visible (ANSI)
100
AcDbVertex
100
AcDb2dVertex
 10
38.975692574235
 20
96.87170207684591
 30
0.0
  0
VERTEX
  5
1A4
330
195
100
AcDbEntity
  8
Visible (ANSI)
100
AcDbVertex
100
AcDb2dVertex
 10
38.97807334566547
 20
96.87868867986942
 30
0.0
  0
VERTEX
  5
1A5
330
195
100
AcDbEntity
  8
Visible (ANSI)
100
AcDbVertex
100
AcDb2dVertex
 10
38.98045410536273
 20
96.88517666891961
 30
0.0
  0
VERTEX
  5
1A6
330
195
100
AcDbEntity
  8
Visible (ANSI)
100
AcDbVertex
100
AcDb2dVertex
 10
38.98283486505999
 20
96.89113600701018
 30
0.0
  0
VERTEX
  5
1A7
330
195
100
AcDbEntity
  8
Visible (ANSI)
100
AcDbVertex
100
AcDb2dVertex
 10
38.98521563649044
 20
96.89653064975747
 30
0.0
  0
VERTEX
  5
1A8
330
195
100
AcDbEntity
  8
Visible (ANSI)
100
AcDbVertex
100
AcDb2dVertex
 10
38.9875963961877
 20
96.90135458976424
 30
0.0
  0
VERTEX
  5
1A9
330
195
100
AcDbEntity
  8
Visible (ANSI)
100
AcDbVertex
100
AcDb2dVertex
 10
38.98997715588496
 20
96.90557178264684
 30
0.0
  0
VERTEX
  5
1AA
330
195
100
AcDbEntity
  8
Visible (ANSI)
100
AcDbVertex
100
AcDb2dVertex
 10
38.99235791558222
 20
96.90917622100808
 30
0.0
  0
VERTEX
  5
1AB
330
195
100
AcDbEntity
  8
Visible (ANSI)
100
AcDbVertex
100
AcDb2dVertex
 10
38.99473869874588
 20
96.91214387525882
 30
0.0
  0
VERTEX
  5
1AC
330
195
100
AcDbEntity
  8
Visible (ANSI)
100
AcDbVertex
100
AcDb2dVertex
 10
38.99711945844314
 20
96.91446273060455
 30
0.0
  0
VERTEX
  5
1AD
330
195
100
AcDbEntity
  8
Visible (ANSI)
100
AcDbVertex
100
AcDb2dVertex
 10
38.9995002181404
 20
96.91612677964798
 30
0.0
  0
VERTEX
  5
1AE
330
195
100
AcDbEntity
  8
Visible (ANSI)
100
AcDbVertex
100
AcDb2dVertex
 10
39.00188097783766
 20
96.91713001499183
 30
0.0
  0
VERTEX
  5
1AF
330
195
100
AcDbEntity
  8
Visible (ANSI)
100
AcDbVertex
100
AcDb2dVertex
 10
39.00426173753492
 20
96.91746642923888
 30
0.0
  0
SEQEND
  5
198
330
195
100
AcDbEntity
  8
Visible (ANSI)
  0
POLYLINE
  5
1B0
330
6C
100
AcDbEntity
  8
Visible (ANSI)
100
AcDb2dPolyline
 66
     1
 10
0.0
 20
0.0
 30
0.0
 70
   128
  0
VERTEX
  5
1B1
330
1B0
100
AcDbEntity
  8
Visible (ANSI)
100
AcDbVertex
100
AcDb2dVertex
 10
94.57748680583
 20
96.91746642923888
 30
0.0
  0
VERTEX
  5
1B2
330
1B0
100
AcDbEntity
  8
Visible (ANSI)
100
AcDbVertex
100
AcDb2dVertex
 10
94.5798657351484
 20
96.91713001499183
 30
0.0
  0
VERTEX
  5
1B4
330
1B0
100
AcDbEntity
  8
Visible (ANSI)
100
AcDbVertex
100
AcDb2dVertex
 10
94.58224466446681
 20
96.91612677964798
 30
0.0
  0
VERTEX
  5
1B5
330
1B0
100
AcDbEntity
  8
Visible (ANSI)
100
AcDbVertex
100
AcDb2dVertex
 10
94.5846296011825
 20
96.91446273060455
 30
0.0
  0
VERTEX
  5
1B6
330
1B0
100
AcDbEntity
  8
Visible (ANSI)
100
AcDbVertex
100
AcDb2dVertex
 10
94.58700853050089
 20
96.91214387525882
 30
0.0
  0
VERTEX
  5
1B7
330
1B0
100
AcDbEntity
  8
Visible (ANSI)
100
AcDbVertex
100
AcDb2dVertex
 10
94.5893874598193
 20
96.90917622100808
 30
0.0
  0
VERTEX
  5
1B8
330
1B0
100
AcDbEntity
  8
Visible (ANSI)
100
AcDbVertex
100
AcDb2dVertex
 10
94.59177239653499
 20
96.90557178264684
 30
0.0
  0
VERTEX
  5
1B9
330
1B0
100
AcDbEntity
  8
Visible (ANSI)
100
AcDbVertex
100
AcDb2dVertex
 10
94.59415132585339
 20
96.90135458976424
 30
0.0
  0
VERTEX
  5
1BA
330
1B0
100
AcDbEntity
  8
Visible (ANSI)
100
AcDbVertex
100
AcDb2dVertex
 10
94.5965302551718
 20
96.89653064975747
 30
0.0
  0
VERTEX
  5
1BB
330
1B0
100
AcDbEntity
  8
Visible (ANSI)
100
AcDbVertex
100
AcDb2dVertex
 10
94.59890918449021
 20
96.89113600701018
 30
0.0
  0
VERTEX
  5
1BC
330
1B0
100
AcDbEntity
  8
Visible (ANSI)
100
AcDbVertex
100
AcDb2dVertex
 10
94.60129412120588
 20
96.88517666891961
 30
0.0
  0
VERTEX
  5
1BD
330
1B0
100
AcDbEntity
  8
Visible (ANSI)
100
AcDbVertex
100
AcDb2dVertex
 10
94.60367305052427
 20
96.87868867986942
 30
0.0
  0
VERTEX
  5
1BE
330
1B0
100
AcDbEntity
  8
Visible (ANSI)
100
AcDbVertex
100
AcDb2dVertex
 10
94.6060519798427
 20
96.87170207684591
 30
0.0
  0
VERTEX
  5
1BF
330
1B0
100
AcDbEntity
  8
Visible (ANSI)
100
AcDbVertex
100
AcDb2dVertex
 10
94.60843691655837
 20
96.8642408894382
 30
0.0
  0
VERTEX
  5
1C0
330
1B0
100
AcDbEntity
  8
Visible (ANSI)
100
AcDbVertex
100
AcDb2dVertex
 10
94.61081584587676
 20
96.85633515463258
 30
0.0
  0
VERTEX
  5
1C1
330
1B0
100
AcDbEntity
  8
Visible (ANSI)
100
AcDbVertex
100
AcDb2dVertex
 10
94.61319477519516
 20
96.8480209168127
 30
0.0
  0
VERTEX
  5
1C2
330
1B0
100
AcDbEntity
  8
Visible (ANSI)
100
AcDbVertex
100
AcDb2dVertex
 10
94.61557971191083
 20
96.83934022775943
 30
0.0
  0
VERTEX
  5
1C3
330
1B0
100
AcDbEntity
  8
Visible (ANSI)
100
AcDbVertex
100
AcDb2dVertex
 10
94.61795864122924
 20
96.83032312445911
 30
0.0
  0
VERTEX
  5
1C4
330
1B0
100
AcDbEntity
  8
Visible (ANSI)
100
AcDbVertex
100
AcDb2dVertex
 10
94.62033757054765
 20
96.82101165869262
 30
0.0
  0
VERTEX
  5
1C5
330
1B0
100
AcDbEntity
  8
Visible (ANSI)
100
AcDbVertex
100
AcDb2dVertex
 10
94.62272250726334
 20
96.81144187484358
 30
0.0
  0
VERTEX
  5
1C6
330
1B0
100
AcDbEntity
  8
Visible (ANSI)
100
AcDbVertex
100
AcDb2dVertex
 10
94.62510143658173
 20
96.80165582469285
 30
0.0
  0
VERTEX
  5
1C7
330
1B0
100
AcDbEntity
  8
Visible (ANSI)
100
AcDbVertex
100
AcDb2dVertex
 10
94.62748036590014
 20
96.79170156741863
 30
0.0
  0
VERTEX
  5
1C8
330
1B0
100
AcDbEntity
  8
Visible (ANSI)
100
AcDbVertex
100
AcDb2dVertex
 10
94.62985929521854
 20
96.78160914000722
 30
0.0
  0
VERTEX
  5
1C9
330
1B0
100
AcDbEntity
  8
Visible (ANSI)
100
AcDbVertex
100
AcDb2dVertex
 10
94.63224423193421
 20
96.77143260903404
 30
0.0
  0
VERTEX
  5
1CA
330
1B0
100
AcDbEntity
  8
Visible (ANSI)
100
AcDbVertex
100
AcDb2dVertex
 10
94.63462316125264
 20
96.76121402627998
 30
0.0
  0
SEQEND
  5
1B3
330
1B0
100
AcDbEntity
  8
Visible (ANSI)
  0
POLYLINE
  5
1CB
330
6C
100
AcDbEntity
  8
Visible (ANSI)
100
AcDb2dPolyline
 66
     1
 10
0.0
 20
0.0
 30
0.0
 70
   128
  0
VERTEX
  5
1CC
330
1CB
100
AcDbEntity
  8
Visible (ANSI)
100
AcDbVertex
100
AcDb2dVertex
 10
38.94712339920188
 20
29.07371594630047
 30
0.0
  0
VERTEX
  5
1CD
330
1CB
100
AcDbEntity
  8
Visible (ANSI)
100
AcDbVertex
100
AcDb2dVertex
 10
38.93690415938875
 20
29.07609671773093
 30
0.0
  0
VERTEX
  5
1CF
330
1CB
100
AcDbEntity
  8
Visible (ANSI)
100
AcDbVertex
100
AcDb2dVertex
 10
38.92672868440337
 20
29.07847747742819
 30
0.0
  0
VERTEX
  5
1D0
330
1CB
100
AcDbEntity
  8
Visible (ANSI)
100
AcDbVertex
100
AcDb2dVertex
 10
38.91664053960915
 20
29.08085823712545
 30
0.0
  0
VERTEX
  5
1D1
330
1CB
100
AcDbEntity
  8
Visible (ANSI)
100
AcDbVertex
100
AcDb2dVertex
 10
38.90668292664035
 20
29.0832390085559
 30
0.0
  0
VERTEX
  5
1D2
330
1CB
100
AcDbEntity
  8
Visible (ANSI)
100
AcDbVertex
100
AcDb2dVertex
 10
38.89689848393772
 20
29.08561976825317
 30
0.0
  0
VERTEX
  5
1D3
330
1CB
100
AcDbEntity
  8
Visible (ANSI)
100
AcDbVertex
100
AcDb2dVertex
 10
38.8873291166172
 20
29.08800053968363
 30
0.0
  0
VERTEX
  5
1D4
330
1CB
100
AcDbEntity
  8
Visible (ANSI)
100
AcDbVertex
100
AcDb2dVertex
 10
38.87801579113887
 20
29.09038129938089
 30
0.0
  0
VERTEX
  5
1D5
330
1CB
100
AcDbEntity
  8
Visible (ANSI)
100
AcDbVertex
100
AcDb2dVertex
 10
38.8689984003752
 20
29.09276205907815
 30
0.0
  0
VERTEX
  5
1D6
330
1CB
100
AcDbEntity
  8
Visible (ANSI)
100
AcDbVertex
100
AcDb2dVertex
 10
38.86031555241354
 20
29.09514283050861
 30
0.0
  0
VERTEX
  5
1D7
330
1CB
100
AcDbEntity
  8
Visible (ANSI)
100
AcDbVertex
100
AcDb2dVertex
 10
38.85200442975767
 20
29.09752359020587
 30
0.0
  0
VERTEX
  5
1D8
330
1CB
100
AcDbEntity
  8
Visible (ANSI)
100
AcDbVertex
100
AcDb2dVertex
 10
38.8441006191965
 20
29.09990436163633
 30
0.0
  0
VERTEX
  5
1D9
330
1CB
100
AcDbEntity
  8
Visible (ANSI)
100
AcDbVertex
100
AcDb2dVertex
 10
38.83663796807235
 20
29.10228512133359
 30
0.0
  0
VERTEX
  5
1DA
330
1CB
100
AcDbEntity
  8
Visible (ANSI)
100
AcDbVertex
100
AcDb2dVertex
 10
38.82964843174939
 20
29.10466589276405
 30
0.0
  0
VERTEX
  5
1DB
330
1CB
100
AcDbEntity
  8
Visible (ANSI)
100
AcDbVertex
100
AcDb2dVertex
 10
38.82316194161522
 20
29.10704665246131
 30
0.0
  0
VERTEX
  5
1DC
330
1CB
100
AcDbEntity
  8
Visible (ANSI)
100
AcDbVertex
100
AcDb2dVertex
 10
38.81720627601558
 20
29.10942741215857
 30
0.0
  0
VERTEX
  5
1DD
330
1CB
100
AcDbEntity
  8
Visible (ANSI)
100
AcDbVertex
100
AcDb2dVertex
 10
38.81180693265592
 20
29.11180818358903
 30
0.0
  0
VERTEX
  5
1DE
330
1CB
100
AcDbEntity
  8
Visible (ANSI)
100
AcDbVertex
100
AcDb2dVertex
 10
38.80698703620243
 20
29.11418894328629
 30
0.0
  0
VERTEX
  5
1DF
330
1CB
100
AcDbEntity
  8
Visible (ANSI)
100
AcDbVertex
100
AcDb2dVertex
 10
38.80276722461673
 20
29.11656970298354
 30
0.0
  0
VERTEX
  5
1E0
330
1CB
100
AcDbEntity
  8
Visible (ANSI)
100
AcDbVertex
100
AcDb2dVertex
 10
38.79916556849003
 20
29.11895046268081
 30
0.0
  0
VERTEX
  5
1E1
330
1CB
100
AcDbEntity
  8
Visible (ANSI)
100
AcDbVertex
100
AcDb2dVertex
 10
38.79619749111085
 20
29.12133124584446
 30
0.0
  0
VERTEX
  5
1E2
330
1CB
100
AcDbEntity
  8
Visible (ANSI)
100
AcDbVertex
100
AcDb2dVertex
 10
38.79387570154903
 20
29.12371200554173
 30
0.0
  0
VERTEX
  5
1E3
330
1CB
100
AcDbEntity
  8
Visible (ANSI)
100
AcDbVertex
100
AcDb2dVertex
 10
38.79221014194805
 20
29.12609276523899
 30
0.0
  0
VERTEX
  5
1E4
330
1CB
100
AcDbEntity
  8
Visible (ANSI)
100
AcDbVertex
100
AcDb2dVertex
 10
38.79120794478593
 20
29.12847352493625
 30
0.0
  0
VERTEX
  5
1E5
330
1CB
100
AcDbEntity
  8
Visible (ANSI)
100
AcDbVertex
100
AcDb2dVertex
 10
38.79087340154852
 20
29.13085428463351
 30
0.0
  0
SEQEND
  5
1CE
330
1CB
100
AcDbEntity
  8
Visible (ANSI)
  0
POLYLINE
  5
1E6
330
6C
100
AcDbEntity
  8
Visible (ANSI)
100
AcDb2dPolyline
 66
     1
 10
0.0
 20
0.0
 30
0.0
 70
   128
  0
VERTEX
  5
1E7
330
1E6
100
AcDbEntity
  8
Visible (ANSI)
100
AcDbVertex
100
AcDb2dVertex
 10
38.79087340154852
 20
96.70407767085736
 30
0.0
  0
VERTEX
  5
1E8
330
1E6
100
AcDbEntity
  8
Visible (ANSI)
100
AcDbVertex
100
AcDb2dVertex
 10
38.79120794478593
 20
96.70645660017576
 30
0.0
  0
VERTEX
  5
1EA
330
1E6
100
AcDbEntity
  8
Visible (ANSI)
100
AcDbVertex
100
AcDb2dVertex
 10
38.79221014194805
 20
96.70884153689144
 30
0.0
  0
VERTEX
  5
1EB
330
1E6
100
AcDbEntity
  8
Visible (ANSI)
100
AcDbVertex
100
AcDb2dVertex
 10
38.79387570154903
 20
96.71122046620984
 30
0.0
  0
VERTEX
  5
1EC
330
1E6
100
AcDbEntity
  8
Visible (ANSI)
100
AcDbVertex
100
AcDb2dVertex
 10
38.79619749111085
 20
96.71359939552825
 30
0.0
  0
VERTEX
  5
1ED
330
1E6
100
AcDbEntity
  8
Visible (ANSI)
100
AcDbVertex
100
AcDb2dVertex
 10
38.79916556849003
 20
96.71598433224392
 30
0.0
  0
VERTEX
  5
1EE
330
1E6
100
AcDbEntity
  8
Visible (ANSI)
100
AcDbVertex
100
AcDb2dVertex
 10
38.80276722461673
 20
96.71836326156231
 30
0.0
  0
VERTEX
  5
1EF
330
1E6
100
AcDbEntity
  8
Visible (ANSI)
100
AcDbVertex
100
AcDb2dVertex
 10
38.80698703620243
 20
96.72074219088074
 30
0.0
  0
VERTEX
  5
1F0
330
1E6
100
AcDbEntity
  8
Visible (ANSI)
100
AcDbVertex
100
AcDb2dVertex
 10
38.81180693265592
 20
96.72312112019914
 30
0.0
  0
VERTEX
  5
1F1
330
1E6
100
AcDbEntity
  8
Visible (ANSI)
100
AcDbVertex
100
AcDb2dVertex
 10
38.81720627601558
 20
96.72550605691483
 30
0.0
  0
VERTEX
  5
1F2
330
1E6
100
AcDbEntity
  8
Visible (ANSI)
100
AcDbVertex
100
AcDb2dVertex
 10
38.82316194161522
 20
96.72788498623322
 30
0.0
  0
VERTEX
  5
1F3
330
1E6
100
AcDbEntity
  8
Visible (ANSI)
100
AcDbVertex
100
AcDb2dVertex
 10
38.82964843174939
 20
96.73026391555163
 30
0.0
  0
VERTEX
  5
1F4
330
1E6
100
AcDbEntity
  8
Visible (ANSI)
100
AcDbVertex
100
AcDb2dVertex
 10
38.83663796807235
 20
96.73264885226732
 30
0.0
  0
VERTEX
  5
1F5
330
1E6
100
AcDbEntity
  8
Visible (ANSI)
100
AcDbVertex
100
AcDb2dVertex
 10
38.8441006191965
 20
96.73502778158571
 30
0.0
  0
VERTEX
  5
1F6
330
1E6
100
AcDbEntity
  8
Visible (ANSI)
100
AcDbVertex
100
AcDb2dVertex
 10
38.85200442975767
 20
96.73740671090413
 30
0.0
  0
VERTEX
  5
1F7
330
1E6
100
AcDbEntity
  8
Visible (ANSI)
100
AcDbVertex
100
AcDb2dVertex
 10
38.86031555241354
 20
96.73979164761981
 30
0.0
  0
VERTEX
  5
1F8
330
1E6
100
AcDbEntity
  8
Visible (ANSI)
100
AcDbVertex
100
AcDb2dVertex
 10
38.8689984003752
 20
96.7421705769382
 30
0.0
  0
VERTEX
  5
1F9
330
1E6
100
AcDbEntity
  8
Visible (ANSI)
100
AcDbVertex
100
AcDb2dVertex
 10
38.87801579113887
 20
96.7445495062566
 30
0.0
  0
VERTEX
  5
1FA
330
1E6
100
AcDbEntity
  8
Visible (ANSI)
100
AcDbVertex
100
AcDb2dVertex
 10
38.8873291166172
 20
96.74692843557501
 30
0.0
  0
VERTEX
  5
1FB
330
1E6
100
AcDbEntity
  8
Visible (ANSI)
100
AcDbVertex
100
AcDb2dVertex
 10
38.89689848393772
 20
96.74931337229068
 30
0.0
  0
VERTEX
  5
1FC
330
1E6
100
AcDbEntity
  8
Visible (ANSI)
100
AcDbVertex
100
AcDb2dVertex
 10
38.90668292664035
 20
96.75169230160909
 30
0.0
  0
VERTEX
  5
1FD
330
1E6
100
AcDbEntity
  8
Visible (ANSI)
100
AcDbVertex
100
AcDb2dVertex
 10
38.91664053960915
 20
96.7540712309275
 30
0.0
  0
VERTEX
  5
1FE
330
1E6
100
AcDbEntity
  8
Visible (ANSI)
100
AcDbVertex
100
AcDb2dVertex
 10
38.92672868440337
 20
96.75645616764315
 30
0.0
  0
VERTEX
  5
1FF
330
1E6
100
AcDbEntity
  8
Visible (ANSI)
100
AcDbVertex
100
AcDb2dVertex
 10
38.93690415938875
 20
96.75883509696156
 30
0.0
  0
VERTEX
  5
200
330
1E6
100
AcDbEntity
  8
Visible (ANSI)
100
AcDbVertex
100
AcDb2dVertex
 10
38.94712339920188
 20
96.76121402627998
 30
0.0
  0
SEQEND
  5
1E9
330
1E6
100
AcDbEntity
  8
Visible (ANSI)
  0
MTEXT
  5
202
330
6C
100
AcDbEntity
  8
Symbol (ANSI)
100
AcDbMText
 10
62.0411508594023
 20
23.19874056408081
 30
0.0
 40
1.320000016313838
 41
0.0
 46
0.0
 71
     7
 72
     1
  1
FRONT VIEW
  7
Text Style154
 73
     1
 44
1.0
  0
LINE
  5
204
330
6C
100
AcDbEntity
  8
Symbol (ANSI)
370
    30
100
AcDbLine
 10
61.90915051985005
 20
22.92955255295701
 30
0.0
 11
72.52156556699251
 21
22.92955255295701
 31
0.0
  0
POLYLINE
  5
205
330
6C
100
AcDbEntity
  8
Visible (ANSI)
100
AcDb2dPolyline
 66
     1
 10
0.0
 20
0.0
 30
0.0
 70
   128
  0
VERTEX
  5
206
330
205
100
AcDbEntity
  8
Visible (ANSI)
100
AcDbVertex
100
AcDb2dVertex
 10
125.3333575509914
 20
29.07371594630047
 30
0.0
  0
VERTEX
  5
207
330
205
100
AcDbEntity
  8
Visible (ANSI)
100
AcDbVertex
100
AcDb2dVertex
 10
125.3336920879268
 20
29.06349670648733
 30
0.0
  0
VERTEX
  5
209
330
205
100
AcDbEntity
  8
Visible (ANSI)
100
AcDbVertex
100
AcDb2dVertex
 10
125.3346942907493
 20
29.05332123150195
 30
0.0
  0
VERTEX
  5
20A
330
205
100
AcDbEntity
  8
Visible (ANSI)
100
AcDbVertex
100
AcDb2dVertex
 10
125.3363598533752
 20
29.04323308670773
 30
0.0
  0
VERTEX
  5
20B
330
205
100
AcDbEntity
  8
Visible (ANSI)
100
AcDbVertex
100
AcDb2dVertex
 10
125.3386816420204
 20
29.03327547373893
 30
0.0
  0
VERTEX
  5
20C
330
205
100
AcDbEntity
  8
Visible (ANSI)
100
AcDbVertex
100
AcDb2dVertex
 10
125.3416497186662
 20
29.02349103103631
 30
0.0
  0
VERTEX
  5
20D
330
205
100
AcDbEntity
  8
Visible (ANSI)
100
AcDbVertex
100
AcDb2dVertex
 10
125.3452513762596
 20
29.01392166371579
 30
0.0
  0
VERTEX
  5
20E
330
205
100
AcDbEntity
  8
Visible (ANSI)
100
AcDbVertex
100
AcDb2dVertex
 10
125.3494711856453
 20
29.00460833823745
 30
0.0
  0
VERTEX
  5
20F
330
205
100
AcDbEntity
  8
Visible (ANSI)
100
AcDbVertex
100
AcDb2dVertex
 10
125.3542910776988
 20
28.99559094747379
 30
0.0
  0
VERTEX
  5
210
330
205
100
AcDbEntity
  8
Visible (ANSI)
100
AcDbVertex
100
AcDb2dVertex
 10
125.3596904254584
 20
28.98690809951212
 30
0.0
  0
VERTEX
  5
211
330
205
100
AcDbEntity
  8
Visible (ANSI)
100
AcDbVertex
100
AcDb2dVertex
 10
125.3656460910581
 20
28.97859697685625
 30
0.0
  0
VERTEX
  5
212
330
205
100
AcDbEntity
  8
Visible (ANSI)
100
AcDbVertex
100
AcDb2dVertex
 10
125.372132578259
 20
28.97069316629508
 30
0.0
  0
VERTEX
  5
213
330
205
100
AcDbEntity
  8
Visible (ANSI)
100
AcDbVertex
100
AcDb2dVertex
 10
125.3791221145819
 20
28.96323051517093
 30
0.0
  0
VERTEX
  5
214
330
205
100
AcDbEntity
  8
Visible (ANSI)
100
AcDbVertex
100
AcDb2dVertex
 10
125.3865847627728
 20
28.95624097884799
 30
0.0
  0
VERTEX
  5
215
330
205
100
AcDbEntity
  8
Visible (ANSI)
100
AcDbVertex
100
AcDb2dVertex
 10
125.3944885733339
 20
28.94975448871381
 30
0.0
  0
VERTEX
  5
216
330
205
100
AcDbEntity
  8
Visible (ANSI)
100
AcDbVertex
100
AcDb2dVertex
 10
125.4027997018564
 20
28.94379882311416
 30
0.0
  0
VERTEX
  5
217
330
205
100
AcDbEntity
  8
Visible (ANSI)
100
AcDbVertex
100
AcDb2dVertex
 10
125.4114825498181
 20
28.93839947975451
 30
0.0
  0
VERTEX
  5
218
330
205
100
AcDbEntity
  8
Visible (ANSI)
100
AcDbVertex
100
AcDb2dVertex
 10
125.4204999405817
 20
28.93357958330103
 30
0.0
  0
VERTEX
  5
219
330
205
100
AcDbEntity
  8
Visible (ANSI)
100
AcDbVertex
100
AcDb2dVertex
 10
125.4298132631268
 20
28.92935977171532
 30
0.0
  0
VERTEX
  5
21A
330
205
100
AcDbEntity
  8
Visible (ANSI)
100
AcDbVertex
100
AcDb2dVertex
 10
125.4393826333806
 20
28.92575811558862
 30
0.0
  0
VERTEX
  5
21B
330
205
100
AcDbEntity
  8
Visible (ANSI)
100
AcDbVertex
100
AcDb2dVertex
 10
125.4491670731499
 20
28.92279003820944
 30
0.0
  0
VERTEX
  5
21C
330
205
100
AcDbEntity
  8
Visible (ANSI)
100
AcDbVertex
100
AcDb2dVertex
 10
125.459124686302
 20
28.92046824864762
 30
0.0
  0
VERTEX
  5
21D
330
205
100
AcDbEntity
  8
Visible (ANSI)
100
AcDbVertex
100
AcDb2dVertex
 10
125.4692128316462
 20
28.91880268904664
 30
0.0
  0
VERTEX
  5
21E
330
205
100
AcDbEntity
  8
Visible (ANSI)
100
AcDbVertex
100
AcDb2dVertex
 10
125.4793883102982
 20
28.91780049188452
 30
0.0
  0
VERTEX
  5
21F
330
205
100
AcDbEntity
  8
Visible (ANSI)
100
AcDbVertex
100
AcDb2dVertex
 10
125.4896075486447
 20
28.91746594864712
 30
0.0
  0
SEQEND
  5
208
330
205
100
AcDbEntity
  8
Visible (ANSI)
  0
LINE
  5
220
330
6C
100
AcDbEntity
  8
Visible (ANSI)
100
AcDbLine
 10
125.4896075491141
 20
29.04246594864712
 30
0.0
 11
126.2083575491141
 21
29.04246594864712
 31
0.0
  0
LINE
  5
221
330
6C
100
AcDbEntity
  8
Visible (ANSI)
100
AcDbLine
 10
125.4896075491141
 20
29.04246594864712
 30
0.0
 11
125.4896075491141
 21
28.91746594864712
 31
0.0
  0
POLYLINE
  5
222
330
6C
100
AcDbEntity
  8
Visible (ANSI)
100
AcDb2dPolyline
 66
     1
 10
0.0
 20
0.0
 30
0.0
 70
   128
  0
VERTEX
  5
223
330
222
100
AcDbEntity
  8
Visible (ANSI)
100
AcDbVertex
100
AcDb2dVertex
 10
125.4583575491141
 20
29.07371594630047
 30
0.0
  0
VERTEX
  5
224
330
222
100
AcDbEntity
  8
Visible (ANSI)
100
AcDbVertex
100
AcDb2dVertex
 10
125.4584244577604
 20
29.07167210537776
 30
0.0
  0
VERTEX
  5
226
330
222
100
AcDbEntity
  8
Visible (ANSI)
100
AcDbVertex
100
AcDb2dVertex
 10
125.4586248971986
 20
29.0696370056874
 30
0.0
  0
VERTEX
  5
227
330
222
100
AcDbEntity
  8
Visible (ANSI)
100
AcDbVertex
100
AcDb2dVertex
 10
125.4589580091233
 20
29.06761937672856
 30
0.0
  0
VERTEX
  5
228
330
222
100
AcDbEntity
  8
Visible (ANSI)
100
AcDbVertex
100
AcDb2dVertex
 10
125.4594223670632
 20
29.0656278541348
 30
0.0
  0
VERTEX
  5
229
330
222
100
AcDbEntity
  8
Visible (ANSI)
100
AcDbVertex
100
AcDb2dVertex
 10
125.460015982539
 20
29.06367096794092
 30
0.0
  0
VERTEX
  5
22A
330
222
100
AcDbEntity
  8
Visible (ANSI)
100
AcDbVertex
100
AcDb2dVertex
 10
125.460736313801
 20
29.06175709565013
 30
0.0
  0
VERTEX
  5
22B
330
222
100
AcDbEntity
  8
Visible (ANSI)
100
AcDbVertex
100
AcDb2dVertex
 10
125.4615802761182
 20
29.05989442703451
 30
0.0
  0
VERTEX
  5
22C
330
222
100
AcDbEntity
  8
Visible (ANSI)
100
AcDbVertex
100
AcDb2dVertex
 10
125.4625442551155
 20
29.05809095240173
 30
0.0
  0
VERTEX
  5
22D
330
222
100
AcDbEntity
  8
Visible (ANSI)
100
AcDbVertex
100
AcDb2dVertex
 10
125.4636241236408
 20
29.05635438046276
 30
0.0
  0
VERTEX
  5
22E
330
222
100
AcDbEntity
  8
Visible (ANSI)
100
AcDbVertex
100
AcDb2dVertex
 10
125.4648152569807
 20
29.05469215006498
 30
0.0
  0
VERTEX
  5
22F
330
222
100
AcDbEntity
  8
Visible (ANSI)
100
AcDbVertex
100
AcDb2dVertex
 10
125.4661125548609
 20
29.05311139499267
 30
0.0
  0
VERTEX
  5
230
330
222
100
AcDbEntity
  8
Visible (ANSI)
100
AcDbVertex
100
AcDb2dVertex
 10
125.4675104619788
 20
29.05161886183454
 30
0.0
  0
VERTEX
  5
231
330
222
100
AcDbEntity
  8
Visible (ANSI)
100
AcDbVertex
100
AcDb2dVertex
 10
125.4690029922037
 20
29.05022095691659
 30
0.0
  0
VERTEX
  5
232
330
222
100
AcDbEntity
  8
Visible (ANSI)
100
AcDbVertex
100
AcDb2dVertex
 10
125.4705837546092
 20
29.0489236524365
 30
0.0
  0
VERTEX
  5
233
330
222
100
AcDbEntity
  8
Visible (ANSI)
100
AcDbVertex
100
AcDb2dVertex
 10
125.4722459798737
 20
29.04773252166321
 30
0.0
  0
VERTEX
  5
234
330
222
100
AcDbEntity
  8
Visible (ANSI)
100
AcDbVertex
100
AcDb2dVertex
 10
125.4739825488794
 20
29.04665265680456
 30
0.0
  0
VERTEX
  5
235
330
222
100
AcDbEntity
  8
Visible (ANSI)
100
AcDbVertex
100
AcDb2dVertex
 10
125.4757860279121
 20
29.0456886807405
 30
0.0
  0
VERTEX
  5
236
330
222
100
AcDbEntity
  8
Visible (ANSI)
100
AcDbVertex
100
AcDb2dVertex
 10
125.4776486921278
 20
29.04484471182343
 30
0.0
  0
VERTEX
  5
237
330
222
100
AcDbEntity
  8
Visible (ANSI)
100
AcDbVertex
100
AcDb2dVertex
 10
125.4795625658852
 20
29.04412438734468
 30
0.0
  0
VERTEX
  5
238
330
222
100
AcDbEntity
  8
Visible (ANSI)
100
AcDbVertex
100
AcDb2dVertex
 10
125.4815194535458
 20
29.04353076966887
 30
0.0
  0
VERTEX
  5
239
330
222
100
AcDbEntity
  8
Visible (ANSI)
100
AcDbVertex
100
AcDb2dVertex
 10
125.4835109761395
 20
29.04306640489992
 30
0.0
  0
VERTEX
  5
23A
330
222
100
AcDbEntity
  8
Visible (ANSI)
100
AcDbVertex
100
AcDb2dVertex
 10
125.4855286050984
 20
29.04273329941465
 30
0.0
  0
VERTEX
  5
23B
330
222
100
AcDbEntity
  8
Visible (ANSI)
100
AcDbVertex
100
AcDb2dVertex
 10
125.4875637018554
 20
29.0425328611968
 30
0.0
  0
VERTEX
  5
23C
330
222
100
AcDbEntity
  8
Visible (ANSI)
100
AcDbVertex
100
AcDb2dVertex
 10
125.4896075486447
 20
29.0424659467698
 30
0.0
  0
SEQEND
  5
225
330
222
100
AcDbEntity
  8
Visible (ANSI)
  0
LINE
  5
23D
330
6C
100
AcDbEntity
  8
Visible (ANSI)
100
AcDbLine
 10
125.4583575491141
 20
29.07371594864713
 30
0.0
 11
125.4532321472408
 21
29.07371594864712
 31
0.0
  0
LINE
  5
23E
330
6C
100
AcDbEntity
  8
Visible (ANSI)
100
AcDbLine
 10
125.4532321472408
 20
29.07371594864712
 30
0.0
 11
125.333357549114
 21
29.07371594864713
 31
0.0
  0
LINE
  5
23F
330
6C
100
AcDbEntity
  8
Visible (ANSI)
100
AcDbLine
 10
125.4896075491141
 20
28.91746594864712
 30
0.0
 11
126.2083575491141
 21
28.91746594864712
 31
0.0
  0
LINE
  5
240
330
6C
100
AcDbEntity
  8
Visible (ANSI)
100
AcDbLine
 10
126.2083575491141
 20
29.04246594864712
 30
0.0
 11
126.2083575491141
 21
28.91746594864712
 31
0.0
  0
POLYLINE
  5
241
330
6C
100
AcDbEntity
  8
Visible (ANSI)
100
AcDb2dPolyline
 66
     1
 10
0.0
 20
0.0
 30
0.0
 70
   128
  0
VERTEX
  5
242
330
241
100
AcDbEntity
  8
Visible (ANSI)
100
AcDbVertex
100
AcDb2dVertex
 10
125.3333575509914
 20
96.76121402627998
 30
0.0
  0
VERTEX
  5
243
330
241
100
AcDbEntity
  8
Visible (ANSI)
100
AcDbVertex
100
AcDb2dVertex
 10
125.3336920879268
 20
96.75883509696156
 30
0.0
  0
VERTEX
  5
245
330
241
100
AcDbEntity
  8
Visible (ANSI)
100
AcDbVertex
100
AcDb2dVertex
 10
125.3346942907493
 20
96.75645616764315
 30
0.0
  0
VERTEX
  5
246
330
241
100
AcDbEntity
  8
Visible (ANSI)
100
AcDbVertex
100
AcDb2dVertex
 10
125.3363598533752
 20
96.7540712309275
 30
0.0
  0
VERTEX
  5
247
330
241
100
AcDbEntity
  8
Visible (ANSI)
100
AcDbVertex
100
AcDb2dVertex
 10
125.3386816420204
 20
96.75169230160909
 30
0.0
  0
VERTEX
  5
248
330
241
100
AcDbEntity
  8
Visible (ANSI)
100
AcDbVertex
100
AcDb2dVertex
 10
125.3416497186662
 20
96.74931337229068
 30
0.0
  0
VERTEX
  5
249
330
241
100
AcDbEntity
  8
Visible (ANSI)
100
AcDbVertex
100
AcDb2dVertex
 10
125.3452513762596
 20
96.74692843557501
 30
0.0
  0
VERTEX
  5
24A
330
241
100
AcDbEntity
  8
Visible (ANSI)
100
AcDbVertex
100
AcDb2dVertex
 10
125.3494711856453
 20
96.7445495062566
 30
0.0
  0
VERTEX
  5
24B
330
241
100
AcDbEntity
  8
Visible (ANSI)
100
AcDbVertex
100
AcDb2dVertex
 10
125.3542910776989
 20
96.7421705769382
 30
0.0
  0
VERTEX
  5
24C
330
241
100
AcDbEntity
  8
Visible (ANSI)
100
AcDbVertex
100
AcDb2dVertex
 10
125.3596904254585
 20
96.73979164761981
 30
0.0
  0
VERTEX
  5
24D
330
241
100
AcDbEntity
  8
Visible (ANSI)
100
AcDbVertex
100
AcDb2dVertex
 10
125.3656460910581
 20
96.73740671090413
 30
0.0
  0
VERTEX
  5
24E
330
241
100
AcDbEntity
  8
Visible (ANSI)
100
AcDbVertex
100
AcDb2dVertex
 10
125.372132578259
 20
96.73502778158571
 30
0.0
  0
VERTEX
  5
24F
330
241
100
AcDbEntity
  8
Visible (ANSI)
100
AcDbVertex
100
AcDb2dVertex
 10
125.3791221145819
 20
96.73264885226732
 30
0.0
  0
VERTEX
  5
250
330
241
100
AcDbEntity
  8
Visible (ANSI)
100
AcDbVertex
100
AcDb2dVertex
 10
125.3865847627728
 20
96.73026391555163
 30
0.0
  0
VERTEX
  5
251
330
241
100
AcDbEntity
  8
Visible (ANSI)
100
AcDbVertex
100
AcDb2dVertex
 10
125.394488573334
 20
96.72788498623322
 30
0.0
  0
VERTEX
  5
252
330
241
100
AcDbEntity
  8
Visible (ANSI)
100
AcDbVertex
100
AcDb2dVertex
 10
125.4027997018564
 20
96.72550605691483
 30
0.0
  0
VERTEX
  5
253
330
241
100
AcDbEntity
  8
Visible (ANSI)
100
AcDbVertex
100
AcDb2dVertex
 10
125.4114825498181
 20
96.72312112019914
 30
0.0
  0
VERTEX
  5
254
330
241
100
AcDbEntity
  8
Visible (ANSI)
100
AcDbVertex
100
AcDb2dVertex
 10
125.4204999405818
 20
96.72074219088074
 30
0.0
  0
VERTEX
  5
255
330
241
100
AcDbEntity
  8
Visible (ANSI)
100
AcDbVertex
100
AcDb2dVertex
 10
125.4298132631268
 20
96.71836326156231
 30
0.0
  0
VERTEX
  5
256
330
241
100
AcDbEntity
  8
Visible (ANSI)
100
AcDbVertex
100
AcDb2dVertex
 10
125.4393826333806
 20
96.71598433224392
 30
0.0
  0
VERTEX
  5
257
330
241
100
AcDbEntity
  8
Visible (ANSI)
100
AcDbVertex
100
AcDb2dVertex
 10
125.44916707315
 20
96.71359939552825
 30
0.0
  0
VERTEX
  5
258
330
241
100
AcDbEntity
  8
Visible (ANSI)
100
AcDbVertex
100
AcDb2dVertex
 10
125.4591246863021
 20
96.71122046620984
 30
0.0
  0
VERTEX
  5
259
330
241
100
AcDbEntity
  8
Visible (ANSI)
100
AcDbVertex
100
AcDb2dVertex
 10
125.4692128316463
 20
96.70884153689144
 30
0.0
  0
VERTEX
  5
25A
330
241
100
AcDbEntity
  8
Visible (ANSI)
100
AcDbVertex
100
AcDb2dVertex
 10
125.4793883102983
 20
96.70645660017576
 30
0.0
  0
VERTEX
  5
25B
330
241
100
AcDbEntity
  8
Visible (ANSI)
100
AcDbVertex
100
AcDb2dVertex
 10
125.4896075486448
 20
96.70407767085736
 30
0.0
  0
SEQEND
  5
244
330
241
100
AcDbEntity
  8
Visible (ANSI)
  0
POLYLINE
  5
25C
330
6C
100
AcDbEntity
  8
Visible (ANSI)
100
AcDb2dPolyline
 66
     1
 10
0.0
 20
0.0
 30
0.0
 70
   128
  0
VERTEX
  5
25D
330
25C
100
AcDbEntity
  8
Visible (ANSI)
100
AcDbVertex
100
AcDb2dVertex
 10
125.4896075486448
 20
29.13085428463351
 30
0.0
  0
VERTEX
  5
25E
330
25C
100
AcDbEntity
  8
Visible (ANSI)
100
AcDbVertex
100
AcDb2dVertex
 10
125.4793883102983
 20
29.12847352493625
 30
0.0
  0
VERTEX
  5
260
330
25C
100
AcDbEntity
  8
Visible (ANSI)
100
AcDbVertex
100
AcDb2dVertex
 10
125.4692128316463
 20
29.12609276523899
 30
0.0
  0
VERTEX
  5
261
330
25C
100
AcDbEntity
  8
Visible (ANSI)
100
AcDbVertex
100
AcDb2dVertex
 10
125.4591246863021
 20
29.12371200554173
 30
0.0
  0
VERTEX
  5
262
330
25C
100
AcDbEntity
  8
Visible (ANSI)
100
AcDbVertex
100
AcDb2dVertex
 10
125.44916707315
 20
29.12133124584446
 30
0.0
  0
VERTEX
  5
263
330
25C
100
AcDbEntity
  8
Visible (ANSI)
100
AcDbVertex
100
AcDb2dVertex
 10
125.4393826333806
 20
29.11895046268081
 30
0.0
  0
VERTEX
  5
264
330
25C
100
AcDbEntity
  8
Visible (ANSI)
100
AcDbVertex
100
AcDb2dVertex
 10
125.4298132631268
 20
29.11656970298354
 30
0.0
  0
VERTEX
  5
265
330
25C
100
AcDbEntity
  8
Visible (ANSI)
100
AcDbVertex
100
AcDb2dVertex
 10
125.4204999405818
 20
29.11418894328629
 30
0.0
  0
VERTEX
  5
266
330
25C
100
AcDbEntity
  8
Visible (ANSI)
100
AcDbVertex
100
AcDb2dVertex
 10
125.4114825498181
 20
29.11180818358903
 30
0.0
  0
VERTEX
  5
267
330
25C
100
AcDbEntity
  8
Visible (ANSI)
100
AcDbVertex
100
AcDb2dVertex
 10
125.4027997018564
 20
29.10942741215857
 30
0.0
  0
VERTEX
  5
268
330
25C
100
AcDbEntity
  8
Visible (ANSI)
100
AcDbVertex
100
AcDb2dVertex
 10
125.394488573334
 20
29.10704665246131
 30
0.0
  0
VERTEX
  5
269
330
25C
100
AcDbEntity
  8
Visible (ANSI)
100
AcDbVertex
100
AcDb2dVertex
 10
125.3865847627728
 20
29.10466589276405
 30
0.0
  0
VERTEX
  5
26A
330
25C
100
AcDbEntity
  8
Visible (ANSI)
100
AcDbVertex
100
AcDb2dVertex
 10
125.3791221145819
 20
29.10228512133359
 30
0.0
  0
VERTEX
  5
26B
330
25C
100
AcDbEntity
  8
Visible (ANSI)
100
AcDbVertex
100
AcDb2dVertex
 10
125.372132578259
 20
29.09990436163633
 30
0.0
  0
VERTEX
  5
26C
330
25C
100
AcDbEntity
  8
Visible (ANSI)
100
AcDbVertex
100
AcDb2dVertex
 10
125.3656460910581
 20
29.09752359020587
 30
0.0
  0
VERTEX
  5
26D
330
25C
100
AcDbEntity
  8
Visible (ANSI)
100
AcDbVertex
100
AcDb2dVertex
 10
125.3596904254585
 20
29.09514283050861
 30
0.0
  0
VERTEX
  5
26E
330
25C
100
AcDbEntity
  8
Visible (ANSI)
100
AcDbVertex
100
AcDb2dVertex
 10
125.3542910776989
 20
29.09276205907815
 30
0.0
  0
VERTEX
  5
26F
330
25C
100
AcDbEntity
  8
Visible (ANSI)
100
AcDbVertex
100
AcDb2dVertex
 10
125.3494711856453
 20
29.09038129938089
 30
0.0
  0
VERTEX
  5
270
330
25C
100
AcDbEntity
  8
Visible (ANSI)
100
AcDbVertex
100
AcDb2dVertex
 10
125.3452513762596
 20
29.08800053968363
 30
0.0
  0
VERTEX
  5
271
330
25C
100
AcDbEntity
  8
Visible (ANSI)
100
AcDbVertex
100
AcDb2dVertex
 10
125.3416497186662
 20
29.08561976825317
 30
0.0
  0
VERTEX
  5
272
330
25C
100
AcDbEntity
  8
Visible (ANSI)
100
AcDbVertex
100
AcDb2dVertex
 10
125.3386816420204
 20
29.0832390085559
 30
0.0
  0
VERTEX
  5
273
330
25C
100
AcDbEntity
  8
Visible (ANSI)
100
AcDbVertex
100
AcDb2dVertex
 10
125.3363598533752
 20
29.08085823712545
 30
0.0
  0
VERTEX
  5
274
330
25C
100
AcDbEntity
  8
Visible (ANSI)
100
AcDbVertex
100
AcDb2dVertex
 10
125.3346942907493
 20
29.07847747742819
 30
0.0
  0
VERTEX
  5
275
330
25C
100
AcDbEntity
  8
Visible (ANSI)
100
AcDbVertex
100
AcDb2dVertex
 10
125.3336920879268
 20
29.07609671773093
 30
0.0
  0
VERTEX
  5
276
330
25C
100
AcDbEntity
  8
Visible (ANSI)
100
AcDbVertex
100
AcDb2dVertex
 10
125.3333575509914
 20
29.07371594630047
 30
0.0
  0
SEQEND
  5
25F
330
25C
100
AcDbEntity
  8
Visible (ANSI)
  0
LINE
  5
277
330
6C
100
AcDbEntity
  8
Visible (ANSI)
100
AcDbLine
 10
126.2083575491141
 20
29.13085429629545
 30
0.0
 11
125.4896075491141
 21
29.13085429629544
 31
0.0
  0
POLYLINE
  5
278
330
6C
100
AcDbEntity
  8
Visible (ANSI)
100
AcDb2dPolyline
 66
     1
 10
0.0
 20
0.0
 30
0.0
 70
   128
  0
VERTEX
  5
279
330
278
100
AcDbEntity
  8
Visible (ANSI)
100
AcDbVertex
100
AcDb2dVertex
 10
125.4583575491141
 20
29.07371594630047
 30
0.0
  0
VERTEX
  5
27A
330
278
100
AcDbEntity
  8
Visible (ANSI)
100
AcDbVertex
100
AcDb2dVertex
 10
125.4584244577604
 20
29.07609671773093
 30
0.0
  0
VERTEX
  5
27C
330
278
100
AcDbEntity
  8
Visible (ANSI)
100
AcDbVertex
100
AcDb2dVertex
 10
125.4586248971986
 20
29.07847747742819
 30
0.0
  0
VERTEX
  5
27D
330
278
100
AcDbEntity
  8
Visible (ANSI)
100
AcDbVertex
100
AcDb2dVertex
 10
125.4589580091233
 20
29.08085823712545
 30
0.0
  0
VERTEX
  5
27E
330
278
100
AcDbEntity
  8
Visible (ANSI)
100
AcDbVertex
100
AcDb2dVertex
 10
125.4594223670632
 20
29.0832390085559
 30
0.0
  0
VERTEX
  5
27F
330
278
100
AcDbEntity
  8
Visible (ANSI)
100
AcDbVertex
100
AcDb2dVertex
 10
125.460015982539
 20
29.08561976825317
 30
0.0
  0
VERTEX
  5
280
330
278
100
AcDbEntity
  8
Visible (ANSI)
100
AcDbVertex
100
AcDb2dVertex
 10
125.4607363138011
 20
29.08800053968363
 30
0.0
  0
VERTEX
  5
281
330
278
100
AcDbEntity
  8
Visible (ANSI)
100
AcDbVertex
100
AcDb2dVertex
 10
125.4615802761182
 20
29.09038129938089
 30
0.0
  0
VERTEX
  5
282
330
278
100
AcDbEntity
  8
Visible (ANSI)
100
AcDbVertex
100
AcDb2dVertex
 10
125.4625442551156
 20
29.09276205907815
 30
0.0
  0
VERTEX
  5
283
330
278
100
AcDbEntity
  8
Visible (ANSI)
100
AcDbVertex
100
AcDb2dVertex
 10
125.4636241236408
 20
29.09514283050861
 30
0.0
  0
VERTEX
  5
284
330
278
100
AcDbEntity
  8
Visible (ANSI)
100
AcDbVertex
100
AcDb2dVertex
 10
125.4648152569807
 20
29.09752359020587
 30
0.0
  0
VERTEX
  5
285
330
278
100
AcDbEntity
  8
Visible (ANSI)
100
AcDbVertex
100
AcDb2dVertex
 10
125.4661125548609
 20
29.09990436163633
 30
0.0
  0
VERTEX
  5
286
330
278
100
AcDbEntity
  8
Visible (ANSI)
100
AcDbVertex
100
AcDb2dVertex
 10
125.4675104619789
 20
29.10228512133359
 30
0.0
  0
VERTEX
  5
287
330
278
100
AcDbEntity
  8
Visible (ANSI)
100
AcDbVertex
100
AcDb2dVertex
 10
125.4690029922037
 20
29.10466589276405
 30
0.0
  0
VERTEX
  5
288
330
278
100
AcDbEntity
  8
Visible (ANSI)
100
AcDbVertex
100
AcDb2dVertex
 10
125.4705837546092
 20
29.10704665246131
 30
0.0
  0
VERTEX
  5
289
330
278
100
AcDbEntity
  8
Visible (ANSI)
100
AcDbVertex
100
AcDb2dVertex
 10
125.4722459798737
 20
29.10942741215857
 30
0.0
  0
VERTEX
  5
28A
330
278
100
AcDbEntity
  8
Visible (ANSI)
100
AcDbVertex
100
AcDb2dVertex
 10
125.4739825488794
 20
29.11180818358903
 30
0.0
  0
VERTEX
  5
28B
330
278
100
AcDbEntity
  8
Visible (ANSI)
100
AcDbVertex
100
AcDb2dVertex
 10
125.4757860279121
 20
29.11418894328629
 30
0.0
  0
VERTEX
  5
28C
330
278
100
AcDbEntity
  8
Visible (ANSI)
100
AcDbVertex
100
AcDb2dVertex
 10
125.4776486921278
 20
29.11656970298354
 30
0.0
  0
VERTEX
  5
28D
330
278
100
AcDbEntity
  8
Visible (ANSI)
100
AcDbVertex
100
AcDb2dVertex
 10
125.4795625658853
 20
29.11895046268081
 30
0.0
  0
VERTEX
  5
28E
330
278
100
AcDbEntity
  8
Visible (ANSI)
100
AcDbVertex
100
AcDb2dVertex
 10
125.4815194535458
 20
29.12133124584446
 30
0.0
  0
VERTEX
  5
28F
330
278
100
AcDbEntity
  8
Visible (ANSI)
100
AcDbVertex
100
AcDb2dVertex
 10
125.4835109761395
 20
29.12371200554173
 30
0.0
  0
VERTEX
  5
290
330
278
100
AcDbEntity
  8
Visible (ANSI)
100
AcDbVertex
100
AcDb2dVertex
 10
125.4855286050984
 20
29.12609276523899
 30
0.0
  0
VERTEX
  5
291
330
278
100
AcDbEntity
  8
Visible (ANSI)
100
AcDbVertex
100
AcDb2dVertex
 10
125.4875637018554
 20
29.12847352493625
 30
0.0
  0
VERTEX
  5
292
330
278
100
AcDbEntity
  8
Visible (ANSI)
100
AcDbVertex
100
AcDb2dVertex
 10
125.4896075486447
 20
29.13085428463351
 30
0.0
  0
SEQEND
  5
27B
330
278
100
AcDbEntity
  8
Visible (ANSI)
  0
POLYLINE
  5
293
330
6C
100
AcDbEntity
  8
Visible (ANSI)
100
AcDb2dPolyline
 66
     1
 10
0.0
 20
0.0
 30
0.0
 70
   128
  0
VERTEX
  5
294
330
293
100
AcDbEntity
  8
Visible (ANSI)
100
AcDbVertex
100
AcDb2dVertex
 10
125.4583575491141
 20
96.76121402627998
 30
0.0
  0
VERTEX
  5
295
330
293
100
AcDbEntity
  8
Visible (ANSI)
100
AcDbVertex
100
AcDb2dVertex
 10
125.4584244577604
 20
96.75883509696156
 30
0.0
  0
VERTEX
  5
297
330
293
100
AcDbEntity
  8
Visible (ANSI)
100
AcDbVertex
100
AcDb2dVertex
 10
125.4586248971986
 20
96.75645616764315
 30
0.0
  0
VERTEX
  5
298
330
293
100
AcDbEntity
  8
Visible (ANSI)
100
AcDbVertex
100
AcDb2dVertex
 10
125.4589580091233
 20
96.7540712309275
 30
0.0
  0
VERTEX
  5
299
330
293
100
AcDbEntity
  8
Visible (ANSI)
100
AcDbVertex
100
AcDb2dVertex
 10
125.4594223670632
 20
96.75169230160909
 30
0.0
  0
VERTEX
  5
29A
330
293
100
AcDbEntity
  8
Visible (ANSI)
100
AcDbVertex
100
AcDb2dVertex
 10
125.460015982539
 20
96.74931337229068
 30
0.0
  0
VERTEX
  5
29B
330
293
100
AcDbEntity
  8
Visible (ANSI)
100
AcDbVertex
100
AcDb2dVertex
 10
125.4607363138011
 20
96.74692843557501
 30
0.0
  0
VERTEX
  5
29C
330
293
100
AcDbEntity
  8
Visible (ANSI)
100
AcDbVertex
100
AcDb2dVertex
 10
125.4615802761182
 20
96.7445495062566
 30
0.0
  0
VERTEX
  5
29D
330
293
100
AcDbEntity
  8
Visible (ANSI)
100
AcDbVertex
100
AcDb2dVertex
 10
125.4625442551156
 20
96.7421705769382
 30
0.0
  0
VERTEX
  5
29E
330
293
100
AcDbEntity
  8
Visible (ANSI)
100
AcDbVertex
100
AcDb2dVertex
 10
125.4636241236408
 20
96.73979164761981
 30
0.0
  0
VERTEX
  5
29F
330
293
100
AcDbEntity
  8
Visible (ANSI)
100
AcDbVertex
100
AcDb2dVertex
 10
125.4648152569807
 20
96.73740671090413
 30
0.0
  0
VERTEX
  5
2A0
330
293
100
AcDbEntity
  8
Visible (ANSI)
100
AcDbVertex
100
AcDb2dVertex
 10
125.4661125548609
 20
96.73502778158571
 30
0.0
  0
VERTEX
  5
2A1
330
293
100
AcDbEntity
  8
Visible (ANSI)
100
AcDbVertex
100
AcDb2dVertex
 10
125.4675104619789
 20
96.73264885226732
 30
0.0
  0
VERTEX
  5
2A2
330
293
100
AcDbEntity
  8
Visible (ANSI)
100
AcDbVertex
100
AcDb2dVertex
 10
125.4690029922037
 20
96.73026391555163
 30
0.0
  0
VERTEX
  5
2A3
330
293
100
AcDbEntity
  8
Visible (ANSI)
100
AcDbVertex
100
AcDb2dVertex
 10
125.4705837546092
 20
96.72788498623322
 30
0.0
  0
VERTEX
  5
2A4
330
293
100
AcDbEntity
  8
Visible (ANSI)
100
AcDbVertex
100
AcDb2dVertex
 10
125.4722459798737
 20
96.72550605691483
 30
0.0
  0
VERTEX
  5
2A5
330
293
100
AcDbEntity
  8
Visible (ANSI)
100
AcDbVertex
100
AcDb2dVertex
 10
125.4739825488794
 20
96.72312112019914
 30
0.0
  0
VERTEX
  5
2A6
330
293
100
AcDbEntity
  8
Visible (ANSI)
100
AcDbVertex
100
AcDb2dVertex
 10
125.4757860279121
 20
96.72074219088074
 30
0.0
  0
VERTEX
  5
2A7
330
293
100
AcDbEntity
  8
Visible (ANSI)
100
AcDbVertex
100
AcDb2dVertex
 10
125.4776486921278
 20
96.71836326156231
 30
0.0
  0
VERTEX
  5
2A8
330
293
100
AcDbEntity
  8
Visible (ANSI)
100
AcDbVertex
100
AcDb2dVertex
 10
125.4795625658853
 20
96.71598433224392
 30
0.0
  0
VERTEX
  5
2A9
330
293
100
AcDbEntity
  8
Visible (ANSI)
100
AcDbVertex
100
AcDb2dVertex
 10
125.4815194535458
 20
96.71359939552825
 30
0.0
  0
VERTEX
  5
2AA
330
293
100
AcDbEntity
  8
Visible (ANSI)
100
AcDbVertex
100
AcDb2dVertex
 10
125.4835109761395
 20
96.71122046620984
 30
0.0
  0
VERTEX
  5
2AB
330
293
100
AcDbEntity
  8
Visible (ANSI)
100
AcDbVertex
100
AcDb2dVertex
 10
125.4855286050984
 20
96.70884153689144
 30
0.0
  0
VERTEX
  5
2AC
330
293
100
AcDbEntity
  8
Visible (ANSI)
100
AcDbVertex
100
AcDb2dVertex
 10
125.4875637018554
 20
96.70645660017576
 30
0.0
  0
VERTEX
  5
2AD
330
293
100
AcDbEntity
  8
Visible (ANSI)
100
AcDbVertex
100
AcDb2dVertex
 10
125.4896075486447
 20
96.70407767085736
 30
0.0
  0
SEQEND
  5
296
330
293
100
AcDbEntity
  8
Visible (ANSI)
  0
LINE
  5
2AE
330
6C
100
AcDbEntity
  8
Visible (ANSI)
100
AcDbLine
 10
125.4583575491141
 20
96.7612159486471
 30
0.0
 11
125.4532321472407
 21
96.7612159486471
 31
0.0
  0
LINE
  5
2AF
330
6C
100
AcDbEntity
  8
Visible (ANSI)
100
AcDbLine
 10
125.4532321472407
 20
96.7612159486471
 30
0.0
 11
125.333357549114
 21
96.7612159486471
 31
0.0
  0
LINE
  5
2B0
330
6C
100
AcDbEntity
  8
Visible (ANSI)
100
AcDbLine
 10
125.4896075491141
 20
96.70407760099877
 30
0.0
 11
126.2083575491141
 21
96.70407760099877
 31
0.0
  0
POLYLINE
  5
2B1
330
6C
100
AcDbEntity
  8
Visible (ANSI)
100
AcDb2dPolyline
 66
     1
 10
0.0
 20
0.0
 30
0.0
 70
   128
  0
VERTEX
  5
2B2
330
2B1
100
AcDbEntity
  8
Visible (ANSI)
100
AcDbVertex
100
AcDb2dVertex
 10
125.4896075486447
 20
96.91746642923888
 30
0.0
  0
VERTEX
  5
2B3
330
2B1
100
AcDbEntity
  8
Visible (ANSI)
100
AcDbVertex
100
AcDb2dVertex
 10
125.4793883102982
 20
96.91713001499183
 30
0.0
  0
VERTEX
  5
2B5
330
2B1
100
AcDbEntity
  8
Visible (ANSI)
100
AcDbVertex
100
AcDb2dVertex
 10
125.4692128316462
 20
96.91612677964798
 30
0.0
  0
VERTEX
  5
2B6
330
2B1
100
AcDbEntity
  8
Visible (ANSI)
100
AcDbVertex
100
AcDb2dVertex
 10
125.459124686302
 20
96.91446273060455
 30
0.0
  0
VERTEX
  5
2B7
330
2B1
100
AcDbEntity
  8
Visible (ANSI)
100
AcDbVertex
100
AcDb2dVertex
 10
125.4491670731499
 20
96.91214387525882
 30
0.0
  0
VERTEX
  5
2B8
330
2B1
100
AcDbEntity
  8
Visible (ANSI)
100
AcDbVertex
100
AcDb2dVertex
 10
125.4393826333806
 20
96.90917622100808
 30
0.0
  0
VERTEX
  5
2B9
330
2B1
100
AcDbEntity
  8
Visible (ANSI)
100
AcDbVertex
100
AcDb2dVertex
 10
125.4298132631268
 20
96.90557178264684
 30
0.0
  0
VERTEX
  5
2BA
330
2B1
100
AcDbEntity
  8
Visible (ANSI)
100
AcDbVertex
100
AcDb2dVertex
 10
125.4204999405817
 20
96.90135458976424
 30
0.0
  0
VERTEX
  5
2BB
330
2B1
100
AcDbEntity
  8
Visible (ANSI)
100
AcDbVertex
100
AcDb2dVertex
 10
125.4114825498181
 20
96.89653064975747
 30
0.0
  0
VERTEX
  5
2BC
330
2B1
100
AcDbEntity
  8
Visible (ANSI)
100
AcDbVertex
100
AcDb2dVertex
 10
125.4027997018564
 20
96.89113600701018
 30
0.0
  0
VERTEX
  5
2BD
330
2B1
100
AcDbEntity
  8
Visible (ANSI)
100
AcDbVertex
100
AcDb2dVertex
 10
125.3944885733339
 20
96.88517666891961
 30
0.0
  0
VERTEX
  5
2BE
330
2B1
100
AcDbEntity
  8
Visible (ANSI)
100
AcDbVertex
100
AcDb2dVertex
 10
125.3865847627728
 20
96.87868867986942
 30
0.0
  0
VERTEX
  5
2BF
330
2B1
100
AcDbEntity
  8
Visible (ANSI)
100
AcDbVertex
100
AcDb2dVertex
 10
125.3791221145819
 20
96.87170207684591
 30
0.0
  0
VERTEX
  5
2C0
330
2B1
100
AcDbEntity
  8
Visible (ANSI)
100
AcDbVertex
100
AcDb2dVertex
 10
125.372132578259
 20
96.8642408894382
 30
0.0
  0
VERTEX
  5
2C1
330
2B1
100
AcDbEntity
  8
Visible (ANSI)
100
AcDbVertex
100
AcDb2dVertex
 10
125.3656460910581
 20
96.85633515463258
 30
0.0
  0
VERTEX
  5
2C2
330
2B1
100
AcDbEntity
  8
Visible (ANSI)
100
AcDbVertex
100
AcDb2dVertex
 10
125.3596904254584
 20
96.8480209168127
 30
0.0
  0
VERTEX
  5
2C3
330
2B1
100
AcDbEntity
  8
Visible (ANSI)
100
AcDbVertex
100
AcDb2dVertex
 10
125.3542910776988
 20
96.83934022775943
 30
0.0
  0
VERTEX
  5
2C4
330
2B1
100
AcDbEntity
  8
Visible (ANSI)
100
AcDbVertex
100
AcDb2dVertex
 10
125.3494711856453
 20
96.83032312445911
 30
0.0
  0
VERTEX
  5
2C5
330
2B1
100
AcDbEntity
  8
Visible (ANSI)
100
AcDbVertex
100
AcDb2dVertex
 10
125.3452513762596
 20
96.82101165869262
 30
0.0
  0
VERTEX
  5
2C6
330
2B1
100
AcDbEntity
  8
Visible (ANSI)
100
AcDbVertex
100
AcDb2dVertex
 10
125.3416497186662
 20
96.81144187484358
 30
0.0
  0
VERTEX
  5
2C7
330
2B1
100
AcDbEntity
  8
Visible (ANSI)
100
AcDbVertex
100
AcDb2dVertex
 10
125.3386816420204
 20
96.80165582469285
 30
0.0
  0
VERTEX
  5
2C8
330
2B1
100
AcDbEntity
  8
Visible (ANSI)
100
AcDbVertex
100
AcDb2dVertex
 10
125.3363598533752
 20
96.79170156741863
 30
0.0
  0
VERTEX
  5
2C9
330
2B1
100
AcDbEntity
  8
Visible (ANSI)
100
AcDbVertex
100
AcDb2dVertex
 10
125.3346942907493
 20
96.78160914000722
 30
0.0
  0
VERTEX
  5
2CA
330
2B1
100
AcDbEntity
  8
Visible (ANSI)
100
AcDbVertex
100
AcDb2dVertex
 10
125.3336920879268
 20
96.77143260903404
 30
0.0
  0
VERTEX
  5
2CB
330
2B1
100
AcDbEntity
  8
Visible (ANSI)
100
AcDbVertex
100
AcDb2dVertex
 10
125.3333575509914
 20
96.76121402627998
 30
0.0
  0
SEQEND
  5
2B4
330
2B1
100
AcDbEntity
  8
Visible (ANSI)
  0
LINE
  5
2CC
330
6C
100
AcDbEntity
  8
Visible (ANSI)
100
AcDbLine
 10
125.4896075491141
 20
96.79246594864711
 30
0.0
 11
126.2083575491141
 21
96.79246594864714
 31
0.0
  0
LINE
  5
2CD
330
6C
100
AcDbEntity
  8
Visible (ANSI)
100
AcDbLine
 10
126.208357549114
 20
96.91746594864715
 30
0.0
 11
125.489607549114
 21
96.9174659486471
 31
0.0
  0
LINE
  5
2CE
330
6C
100
AcDbEntity
  8
Visible (ANSI)
100
AcDbLine
 10
125.4896075491141
 20
96.79246594864711
 30
0.0
 11
125.489607549114
 21
96.9174659486471
 31
0.0
  0
LINE
  5
2CF
330
6C
100
AcDbEntity
  8
Visible (ANSI)
100
AcDbLine
 10
126.2083575491141
 20
96.79246594864714
 30
0.0
 11
126.208357549114
 21
96.91746594864715
 31
0.0
  0
POLYLINE
  5
2D0
330
6C
100
AcDbEntity
  8
Visible (ANSI)
100
AcDb2dPolyline
 66
     1
 10
0.0
 20
0.0
 30
0.0
 70
   128
  0
VERTEX
  5
2D1
330
2D0
100
AcDbEntity
  8
Visible (ANSI)
100
AcDbVertex
100
AcDb2dVertex
 10
125.4583575491141
 20
96.76121402627998
 30
0.0
  0
VERTEX
  5
2D2
330
2D0
100
AcDbEntity
  8
Visible (ANSI)
100
AcDbVertex
100
AcDb2dVertex
 10
125.4584244577604
 20
96.7632625487486
 30
0.0
  0
VERTEX
  5
2D4
330
2D0
100
AcDbEntity
  8
Visible (ANSI)
100
AcDbVertex
100
AcDb2dVertex
 10
125.4586248971986
 20
96.76529304902544
 30
0.0
  0
VERTEX
  5
2D5
330
2D0
100
AcDbEntity
  8
Visible (ANSI)
100
AcDbVertex
100
AcDb2dVertex
 10
125.4589580091233
 20
96.76731153450772
 30
0.0
  0
VERTEX
  5
2D6
330
2D0
100
AcDbEntity
  8
Visible (ANSI)
100
AcDbVertex
100
AcDb2dVertex
 10
125.4594223670632
 20
96.7693059904009
 30
0.0
  0
VERTEX
  5
2D7
330
2D0
100
AcDbEntity
  8
Visible (ANSI)
100
AcDbVertex
100
AcDb2dVertex
 10
125.460015982539
 20
96.77125839451324
 30
0.0
  0
VERTEX
  5
2D8
330
2D0
100
AcDbEntity
  8
Visible (ANSI)
100
AcDbVertex
100
AcDb2dVertex
 10
125.460736313801
 20
96.77317475424196
 30
0.0
  0
VERTEX
  5
2D9
330
2D0
100
AcDbEntity
  8
Visible (ANSI)
100
AcDbVertex
100
AcDb2dVertex
 10
125.4615802761182
 20
96.77503704739526
 30
0.0
  0
VERTEX
  5
2DA
330
2D0
100
AcDbEntity
  8
Visible (ANSI)
100
AcDbVertex
100
AcDb2dVertex
 10
125.4625442551155
 20
96.77683926657586
 30
0.0
  0
VERTEX
  5
2DB
330
2D0
100
AcDbEntity
  8
Visible (ANSI)
100
AcDbVertex
100
AcDb2dVertex
 10
125.4636241236408
 20
96.77857540438653
 30
0.0
  0
VERTEX
  5
2DC
330
2D0
100
AcDbEntity
  8
Visible (ANSI)
100
AcDbVertex
100
AcDb2dVertex
 10
125.4648152569807
 20
96.78023945342994
 30
0.0
  0
VERTEX
  5
2DD
330
2D0
100
AcDbEntity
  8
Visible (ANSI)
100
AcDbVertex
100
AcDb2dVertex
 10
125.4661125548609
 20
96.78181939891162
 30
0.0
  0
VERTEX
  5
2DE
330
2D0
100
AcDbEntity
  8
Visible (ANSI)
100
AcDbVertex
100
AcDb2dVertex
 10
125.4675104619788
 20
96.78331524083153
 30
0.0
  0
VERTEX
  5
2DF
330
2D0
100
AcDbEntity
  8
Visible (ANSI)
100
AcDbVertex
100
AcDb2dVertex
 10
125.4690029922037
 20
96.78470895699787
 30
0.0
  0
VERTEX
  5
2E0
330
2D0
100
AcDbEntity
  8
Visible (ANSI)
100
AcDbVertex
100
AcDb2dVertex
 10
125.4705837546092
 20
96.7860065548079
 30
0.0
  0
VERTEX
  5
2E1
330
2D0
100
AcDbEntity
  8
Visible (ANSI)
100
AcDbVertex
100
AcDb2dVertex
 10
125.4722459798737
 20
96.78720202686438
 30
0.0
  0
VERTEX
  5
2E2
330
2D0
100
AcDbEntity
  8
Visible (ANSI)
100
AcDbVertex
100
AcDb2dVertex
 10
125.4739825488794
 20
96.78827735097547
 30
0.0
  0
VERTEX
  5
2E3
330
2D0
100
AcDbEntity
  8
Visible (ANSI)
100
AcDbVertex
100
AcDb2dVertex
 10
125.4757860279121
 20
96.78924454193573
 30
0.0
  0
VERTEX
  5
2E4
330
2D0
100
AcDbEntity
  8
Visible (ANSI)
100
AcDbVertex
100
AcDb2dVertex
 10
125.4776486921278
 20
96.79008557755336
 30
0.0
  0
VERTEX
  5
2E5
330
2D0
100
AcDbEntity
  8
Visible (ANSI)
100
AcDbVertex
100
AcDb2dVertex
 10
125.4795625658852
 20
96.7908064652256
 30
0.0
  0
VERTEX
  5
2E6
330
2D0
100
AcDbEntity
  8
Visible (ANSI)
100
AcDbVertex
100
AcDb2dVertex
 10
125.4815194535458
 20
96.79140119755521
 30
0.0
  0
VERTEX
  5
2E7
330
2D0
100
AcDbEntity
  8
Visible (ANSI)
100
AcDbVertex
100
AcDb2dVertex
 10
125.4835109761395
 20
96.7918637671449
 30
0.0
  0
VERTEX
  5
2E8
330
2D0
100
AcDbEntity
  8
Visible (ANSI)
100
AcDbVertex
100
AcDb2dVertex
 10
125.4855286050984
 20
96.79220018139194
 30
0.0
  0
VERTEX
  5
2E9
330
2D0
100
AcDbEntity
  8
Visible (ANSI)
100
AcDbVertex
100
AcDb2dVertex
 10
125.4875637018554
 20
96.79239842550181
 30
0.0
  0
VERTEX
  5
2EA
330
2D0
100
AcDbEntity
  8
Visible (ANSI)
100
AcDbVertex
100
AcDb2dVertex
 10
125.4896075486447
 20
96.79246450687175
 30
0.0
  0
SEQEND
  5
2D3
330
2D0
100
AcDbEntity
  8
Visible (ANSI)
  0
LINE
  5
2EB
330
6C
100
AcDbEntity
  8
Visible (ANSI)
100
AcDbLine
 10
125.333357549114
 20
29.07371594864713
 30
0.0
 11
125.333357549114
 21
96.7612159486471
 31
0.0
  0
LINE
  5
2EC
330
6C
100
AcDbEntity
  8
Visible (ANSI)
100
AcDbLine
 10
126.2083575491141
 20
96.70407760099877
 30
0.0
 11
126.2083575491141
 21
29.13085429629545
 31
0.0
  0
MTEXT
  5
2ED
330
6C
100
AcDbEntity
  8
Symbol (ANSI)
100
AcDbMText
 10
121.5690013264279
 20
23.21031402125624
 30
0.0
 40
1.320000016313838
 41
0.0
 46
0.0
 71
     7
 72
     1
  1
SIDE VIEW
  7
Text Style154
 73
     1
 44
1.0
  0
LINE
  5
2EE
330
6C
100
AcDbEntity
  8
Symbol (ANSI)
370
    30
100
AcDbLine
 10
121.5014171525771
 20
22.93684724344446
 30
0.0
 11
130.4215791770375
 21
22.93684724344446
 31
0.0
  0
DIMENSION
  5
2EF
330
6C
100
AcDbEntity
  8
Dimension (ANSI)
100
AcDbDimension
280
     0
  2
*D4
 10
17.25176134920442
 20
96.91746594864712
 30
0.0
 11
17.2517613492044
 21
62.91746594864711
 31
0.0
 70
   160
  1
<>
 42
68.0
 73
     0
 74
     0
 75
     0
  3
Default (ANSI)
100
AcDbAlignedDimension
 13
39.00426174919685
 23
28.91746594864711
 33
0.0
 14
39.00426174919685
 24
96.9174659486471
 34
0.0
 50
90.0
100
AcDbRotatedDimension
1001
ACAD
1000
DSTYLE
1002
{
1070
   289
1070
     1
1070
   271
1070
     2
1070
   272
1070
     2
1070
    48
1040
0.0
1070
    47
1040
0.0
1002
}
  0
DIMENSION
  5
3DB
330
6C
100
AcDbEntity
  8
Dimension (ANSI)
100
AcDbDimension
280
     0
  2
*D5
 10
32.89421623375605
 20
62.91746594864711
 30
0.0
 11
32.89421623375603
 21
46.35496594864711
 31
0.0
 70
   160
  1
<>
 42
33.12500000000002
 73
     0
 74
     0
 75
     0
  3
Default (ANSI)
100
AcDbAlignedDimension
 13
39.66587340154852
 23
29.7924659486471
 33
0.0
 14
38.79087340154852
 24
62.91746594864711
 34
0.0
 50
90.0
100
AcDbRotatedDimension
1001
ACAD
1000
DSTYLE
1002
{
1070
   289
1070
     1
1070
   271
1070
     2
1070
   272
1070
     3
1070
    48
1040
0.0
1070
    47
1040
0.0
1002
}
  0
DIMENSION
  5
4C5
330
6C
100
AcDbEntity
  8
Dimension (ANSI)
100
AcDbDimension
280
     0
  2
*D6
 10
24.94146395272965
 20
96.0424659486471
 30
0.0
 11
24.94146395272963
 21
63.33150072830876
 31
0.0
 70
   160
  1
<>
 42
66.24999999999999
 73
     0
 74
     0
 75
     0
  3
Default (ANSI)
100
AcDbAlignedDimension
 13
39.66587340154852
 23
29.7924659486471
 33
0.0
 14
39.66587340154852
 24
96.04246594864708
 34
0.0
 50
90.0
100
AcDbRotatedDimension
1001
ACAD
1000
DSTYLE
1002
{
1070
   289
1070
     1
1070
   271
1070
     2
1070
   272
1070
     3
1070
    48
1040
0.0
1070
    47
1040
0.0
1002
}
  0
DIMENSION
  5
5AF
330
6C
100
AcDbEntity
  8
Dimension (ANSI)
100
AcDbDimension
280
     0
  2
*D7
 10
94.79087340154848
 20
110.4080276735643
 30
0.0
 11
66.7908734015485
 21
110.4080276735643
 31
0.0
 70
   160
  1
<>
 42
55.99999999999996
 73
     0
 74
     0
 75
     0
  3
Default (ANSI)
100
AcDbAlignedDimension
 13
38.79087340154852
 23
96.70407760099877
 33
0.0
 14
94.79087340154848
 24
96.70407760099877
 34
0.0
100
AcDbRotatedDimension
1001
ACAD
1000
DSTYLE
1002
{
1070
   289
1070
     1
1070
    73
1070
     0
1070
    74
1070
     0
1070
   271
1070
     2
1070
   272
1070
     2
1070
    48
1040
0.0
1070
    47
1040
0.0
1002
}
  0
DIMENSION
  5
699
330
6C
100
AcDbEntity
  8
Dimension (ANSI)
100
AcDbDimension
280
     0
  2
*D8
 10
93.91587340154853
 20
104.5901512946032
 30
0.0
 11
66.79087340154852
 21
104.5901512946032
 31
0.0
 70
   160
  1
<>
 42
54.25
 73
     0
 74
     0
 75
     0
  3
Default (ANSI)
100
AcDbAlignedDimension
 13
39.66587340154852
 23
96.04246594864708
 33
0.0
 14
93.91587340154853
 24
96.04246594864708
 34
0.0
 50
180.0
100
AcDbRotatedDimension
1001
ACAD
1000
DSTYLE
1002
{
1070
   289
1070
     1
1070
    73
1070
     0
1070
    74
1070
     0
1070
   271
1070
     2
1070
   272
1070
     3
1070
    48
1040
0.0
1070
    47
1040
0.0
1002
}
  0
DIMENSION
  5
783
330
6C
100
AcDbEntity
  8
Dimension (ANSI)
100
AcDbDimension
280
     0
  2
*D9
 10
66.79087340154852
 20
100.3731746100644
 30
0.0
 11
53.22837340154853
 21
100.3731746100644
 31
0.0
 70
   160
  1
<>
 42
27.125
 73
     0
 74
     0
 75
     0
  3
Default (ANSI)
100
AcDbAlignedDimension
 13
39.66587340154852
 23
96.04246594864708
 33
0.0
 14
66.79087340154852
 24
96.04246594864708
 34
0.0
 50
180.0
100
AcDbRotatedDimension
1001
ACAD
1000
DSTYLE
1002
{
1070
   289
1070
     1
1070
    73
1070
     0
1070
    74
1070
     0
1070
   271
1070
     2
1070
   272
1070
     3
1070
    48
1040
0.0
1070
    47
1040
0.0
1002
}
  0
DIMENSION
  5
86D
330
6C
100
AcDbEntity
  8
Dimension (ANSI)
100
AcDbDimension
280
     0
  2
*D10
 10
126.2083575491141
 20
100.0670722478596
 30
0.0
 11
120.4683525295019
 21
100.0670722478596
 31
0.0
 70
   160
  1
<>{\PTYP.}
 42
0.8749999999999857
 73
     0
 74
     0
 75
     0
  3
Default (ANSI)
100
AcDbAlignedDimension
 13
125.3333575491141
 23
96.7612159486471
 33
0.0
 14
126.2083575491141
 24
96.91746594864715
 34
0.0
100
AcDbRotatedDimension
1001
ACAD
1000
DSTYLE
1002
{
1070
   289
1070
     1
1070
    73
1070
     0
1070
    74
1070
     0
1070
   145
1040
-0.25
1070
   271
1070
     2
1070
   272
1070
     2
1070
    48
1040
0.0
1070
    47
1040
0.0
1002
}
  0
ELLIPSE
  5
96B
330
6C
100
AcDbEntity
  8
Visible (ANSI)
100
AcDbEllipse
 10
175.5958018718431
 20
51.12378915722291
 30
0.0
 11
-0.0965783276981948
 21
0.1677109756264705
 31
0.0
210
0.0
220
0.0
230
1.0
 40
0.578093115915813
 41
0.0
 42
6.283185307179586
  0
ELLIPSE
  5
96C
330
6C
100
AcDbEntity
  8
Visible (ANSI)
100
AcDbEllipse
 10
175.6565688608513
 20
51.15878253887694
 30
0.0
 11
-0.0965783276981957
 21
0.167710975626472
 31
0.0
210
0.0
220
0.0
230
0.9999999999999998
 40
0.5780931159158129
 41
0.3187556839588492
 42
2.822836969630836
  0
ELLIPSE
  5
96D
330
6C
100
AcDbEntity
  8
Visible (ANSI)
100
AcDbEllipse
 10
149.2229286422721
 20
66.31091679506903
 30
0.0
 11
-0.0965783276981948
 21
0.1677109756264705
 31
0.0
210
0.0
220
0.0
230
1.0
 40
0.578093115915813
 41
0.0
 42
6.283185307179586
  0
ELLIPSE
  5
96E
330
6C
100
AcDbEntity
  8
Visible (ANSI)
100
AcDbEllipse
 10
149.2836956312803
 20
66.34591017672306
 30
0.0
 11
-0.0965783276981947
 21
0.1677109756264703
 31
0.0
210
0.0
220
0.0
230
1.0
 40
0.5780931159158129
 41
0.3187556839588481
 42
2.822836969630835
  0
ELLIPSE
  5
96F
330
6C
100
AcDbEntity
  8
Visible (ANSI)
100
AcDbEllipse
 10
162.4093652570576
 20
45.71963110853213
 30
0.0
 11
-0.0965783276981948
 21
0.1677109756264705
 31
0.0
210
0.0
220
0.0
230
1.0
 40
0.578093115915813
 41
0.0
 42
6.283185307179586
  0
ELLIPSE
  5
970
330
6C
100
AcDbEntity
  8
Visible (ANSI)
100
AcDbEllipse
 10
162.4701322460658
 20
45.75462449018617
 30
0.0
 11
-0.096578327698195
 21
0.1677109756264709
 31
0.0
210
0.0
220
0.0
230
1.0
 40
0.5780931159158128
 41
0.318755683958849
 42
2.822836969630836
  0
ELLIPSE
  5
971
330
6C
100
AcDbEntity
  8
Visible (ANSI)
100
AcDbEllipse
 10
175.5958018718431
 20
56.74442564051536
 30
0.0
 11
-0.0965783276981948
 21
0.1677109756264705
 31
0.0
210
0.0
220
0.0
230
1.0
 40
0.578093115915813
 41
0.0
 42
6.283185307179586
  0
ELLIPSE
  5
972
330
6C
100
AcDbEntity
  8
Visible (ANSI)
100
AcDbEllipse
 10
175.6565688608513
 20
56.77941902216939
 30
0.0
 11
-0.0965783276981931
 21
0.1677109756264676
 31
0.0
210
0.0
220
0.0
230
1.0
 40
0.5780931159158129
 41
0.3187556839588055
 42
2.822836969630836
  0
ELLIPSE
  5
973
330
6C
100
AcDbEntity
  8
Visible (ANSI)
100
AcDbEllipse
 10
175.5958018718431
 20
38.12606728960908
 30
0.0
 11
-0.0965783276981948
 21
0.1677109756264705
 31
0.0
210
0.0
220
0.0
230
1.0
 40
0.578093115915813
 41
0.0
 42
6.283185307179586
  0
ELLIPSE
  5
974
330
6C
100
AcDbEntity
  8
Visible (ANSI)
100
AcDbEllipse
 10
175.6565688608513
 20
38.16106067126312
 30
0.0
 11
-0.0965783276981954
 21
0.1677109756264716
 31
0.0
210
0.0
220
0.0
230
1.0
 40
0.5780931159158129
 41
0.3187556839588494
 42
2.822836969630836
  0
ELLIPSE
  5
975
330
6C
100
AcDbEntity
  8
Visible (ANSI)
100
AcDbEllipse
 10
149.2229286422721
 20
53.31319492745521
 30
0.0
 11
-0.0965783276981948
 21
0.1677109756264705
 31
0.0
210
0.0
220
0.0
230
1.0
 40
0.578093115915813
 41
0.0
 42
6.283185307179586
  0
ELLIPSE
  5
976
330
6C
100
AcDbEntity
  8
Visible (ANSI)
100
AcDbEllipse
 10
149.2836956312803
 20
53.34818830910924
 30
0.0
 11
-0.0965783276981948
 21
0.1677109756264705
 31
0.0
210
0.0
220
0.0
230
0.9999999999999998
 40
0.578093115915813
 41
0.318755683958849
 42
2.822836969630836
  0
ELLIPSE
  5
977
330
6C
100
AcDbEntity
  8
Visible (ANSI)
100
AcDbEllipse
 10
149.2229286422721
 20
71.93155327836151
 30
0.0
 11
-0.0965783276981948
 21
0.1677109756264705
 31
0.0
210
0.0
220
0.0
230
1.0
 40
0.578093115915813
 41
0.0
 42
6.283185307179586
  0
ELLIPSE
  5
978
330
6C
100
AcDbEntity
  8
Visible (ANSI)
100
AcDbEllipse
 10
149.2836956312803
 20
71.96654666001554
 30
0.0
 11
-0.0965783276981947
 21
0.1677109756264703
 31
0.0
210
0.0
220
0.0
230
1.0
 40
0.5780931159158129
 41
0.3187556839588483
 42
2.822836969630857
  0
ELLIPSE
  5
979
330
6C
100
AcDbEntity
  8
Visible (ANSI)
100
AcDbEllipse
 10
175.5958018718431
 20
75.36278399142162
 30
0.0
 11
-0.0965783276981948
 21
0.1677109756264705
 31
0.0
210
0.0
220
0.0
230
1.0
 40
0.578093115915813
 41
0.0
 42
6.283185307179586
  0
ELLIPSE
  5
97A
330
6C
100
AcDbEntity
  8
Visible (ANSI)
100
AcDbEllipse
 10
175.6565688608513
 20
75.39777737307566
 30
0.0
 11
-0.0965783276981948
 21
0.1677109756264705
 31
0.0
210
0.0
220
0.0
230
1.0
 40
0.578093115915813
 41
0.318755683958849
 42
2.822836969630858
  0
ELLIPSE
  5
97B
330
6C
100
AcDbEntity
  8
Visible (ANSI)
100
AcDbEllipse
 10
162.4093652570576
 20
82.9563478103447
 30
0.0
 11
-0.0965783276981948
 21
0.1677109756264705
 31
0.0
210
0.0
220
0.0
230
1.0
 40
0.578093115915813
 41
0.0
 42
6.283185307179586
  0
ELLIPSE
  5
97C
330
6C
100
AcDbEntity
  8
Visible (ANSI)
100
AcDbEllipse
 10
162.4701322460658
 20
82.99134119199873
 30
0.0
 11
-0.0965783276981948
 21
0.1677109756264705
 31
0.0
210
0.0
220
0.0
230
1.0
 40
0.578093115915813
 41
0.318755683958849
 42
2.822836969630858
  0
ELLIPSE
  5
97D
330
6C
100
AcDbEntity
  8
Visible (ANSI)
100
AcDbEllipse
 10
149.2229286422721
 20
90.54991162926777
 30
0.0
 11
-0.0965783276981948
 21
0.1677109756264705
 31
0.0
210
0.0
220
0.0
230
1.0
 40
0.578093115915813
 41
0.0
 42
6.283185307179586
  0
ELLIPSE
  5
97E
330
6C
100
AcDbEntity
  8
Visible (ANSI)
100
AcDbEllipse
 10
149.2836956312803
 20
90.58490501092181
 30
0.0
 11
-0.0965783276981935
 21
0.1677109756264682
 31
0.0
210
0.0
220
0.0
230
0.9999999999999998
 40
0.578093115915813
 41
0.318755683958849
 42
2.822836969630858
  0
POLYLINE
  5
97F
330
6C
100
AcDbEntity
  8
Visible (ANSI)
100
AcDb2dPolyline
 66
     1
 10
0.0
 20
0.0
 30
0.0
 70
   128
  0
VERTEX
  5
980
330
97F
100
AcDbEntity
  8
Visible (ANSI)
100
AcDbVertex
100
AcDb2dVertex
 10
175.9452119427366
 20
37.52087216433851
 30
0.0
  0
VERTEX
  5
981
330
97F
100
AcDbEntity
  8
Visible (ANSI)
100
AcDbVertex
100
AcDb2dVertex
 10
175.9442180901809
 20
37.51588792800779
 30
0.0
  0
VERTEX
  5
983
330
97F
100
AcDbEntity
  8
Visible (ANSI)
100
AcDbVertex
100
AcDb2dVertex
 10
175.9435458935785
 20
37.51111688314661
 30
0.0
  0
VERTEX
  5
984
330
97F
100
AcDbEntity
  8
Visible (ANSI)
100
AcDbVertex
100
AcDb2dVertex
 10
175.9431991004109
 20
37.50657894728034
 30
0.0
  0
VERTEX
  5
985
330
97F
100
AcDbEntity
  8
Visible (ANSI)
100
AcDbVertex
100
AcDb2dVertex
 10
175.9431713222776
 20
37.50229808714843
 30
0.0
  0
VERTEX
  5
986
330
97F
100
AcDbEntity
  8
Visible (ANSI)
100
AcDbVertex
100
AcDb2dVertex
 10
175.9434577279509
 20
37.49829548614943
 30
0.0
  0
VERTEX
  5
987
330
97F
100
AcDbEntity
  8
Visible (ANSI)
100
AcDbVertex
100
AcDb2dVertex
 10
175.9440492196645
 20
37.49459282207676
 30
0.0
  0
VERTEX
  5
988
330
97F
100
AcDbEntity
  8
Visible (ANSI)
100
AcDbVertex
100
AcDb2dVertex
 10
175.9449441375751
 20
37.4912054378356
 30
0.0
  0
VERTEX
  5
989
330
97F
100
AcDbEntity
  8
Visible (ANSI)
100
AcDbVertex
100
AcDb2dVertex
 10
175.9461307772206
 20
37.48815237911439
 30
0.0
  0
VERTEX
  5
98A
330
97F
100
AcDbEntity
  8
Visible (ANSI)
100
AcDbVertex
100
AcDb2dVertex
 10
175.9475961906828
 20
37.48545125341155
 30
0.0
  0
VERTEX
  5
98B
330
97F
100
AcDbEntity
  8
Visible (ANSI)
100
AcDbVertex
100
AcDb2dVertex
 10
175.9493349706371
 20
37.48311311877707
 30
0.0
  0
VERTEX
  5
98C
330
97F
100
AcDbEntity
  8
Visible (ANSI)
100
AcDbVertex
100
AcDb2dVertex
 10
175.9513318020347
 20
37.4811525214076
 30
0.0
  0
VERTEX
  5
98D
330
97F
100
AcDbEntity
  8
Visible (ANSI)
100
AcDbVertex
100
AcDb2dVertex
 10
175.9535702632645
 20
37.47958239259332
 30
0.0
  0
VERTEX
  5
98E
330
97F
100
AcDbEntity
  8
Visible (ANSI)
100
AcDbVertex
100
AcDb2dVertex
 10
175.9560416415752
 20
37.47840894893039
 30
0.0
  0
VERTEX
  5
98F
330
97F
100
AcDbEntity
  8
Visible (ANSI)
100
AcDbVertex
100
AcDb2dVertex
 10
175.9587274847572
 20
37.47764175134916
 30
0.0
  0
VERTEX
  5
990
330
97F
100
AcDbEntity
  8
Visible (ANSI)
100
AcDbVertex
100
AcDb2dVertex
 10
175.9616084194163
 20
37.4772886201586
 30
0.0
  0
VERTEX
  5
991
330
97F
100
AcDbEntity
  8
Visible (ANSI)
100
AcDbVertex
100
AcDb2dVertex
 10
175.9646729806555
 20
37.47735055748434
 30
0.0
  0
VERTEX
  5
992
330
97F
100
AcDbEntity
  8
Visible (ANSI)
100
AcDbVertex
100
AcDb2dVertex
 10
175.9679001751649
 20
37.47783183512381
 30
0.0
  0
VERTEX
  5
993
330
97F
100
AcDbEntity
  8
Visible (ANSI)
100
AcDbVertex
100
AcDb2dVertex
 10
175.9712712327408
 20
37.4787332438835
 30
0.0
  0
VERTEX
  5
994
330
97F
100
AcDbEntity
  8
Visible (ANSI)
100
AcDbVertex
100
AcDb2dVertex
 10
175.9747638438915
 20
37.48005545691044
 30
0.0
  0
VERTEX
  5
995
330
97F
100
AcDbEntity
  8
Visible (ANSI)
100
AcDbVertex
100
AcDb2dVertex
 10
175.9783639284689
 20
37.48179230784366
 30
0.0
  0
VERTEX
  5
996
330
97F
100
AcDbEntity
  8
Visible (ANSI)
100
AcDbVertex
100
AcDb2dVertex
 10
175.9820481988466
 20
37.4839408930436
 30
0.0
  0
VERTEX
  5
997
330
97F
100
AcDbEntity
  8
Visible (ANSI)
100
AcDbVertex
100
AcDb2dVertex
 10
175.9857930051991
 20
37.48649654510515
 30
0.0
  0
VERTEX
  5
998
330
97F
100
AcDbEntity
  8
Visible (ANSI)
100
AcDbVertex
100
AcDb2dVertex
 10
175.9895831878203
 20
37.48944781602825
 30
0.0
  0
VERTEX
  5
999
330
97F
100
AcDbEntity
  8
Visible (ANSI)
100
AcDbVertex
100
AcDb2dVertex
 10
175.9933946436006
 20
37.49278660134963
 30
0.0
  0
SEQEND
  5
982
330
97F
100
AcDbEntity
  8
Visible (ANSI)
  0
POLYLINE
  5
99A
330
6C
100
AcDbEntity
  8
Visible (ANSI)
100
AcDb2dPolyline
 66
     1
 10
0.0
 20
0.0
 30
0.0
 70
   128
  0
VERTEX
  5
99B
330
99A
100
AcDbEntity
  8
Visible (ANSI)
100
AcDbVertex
100
AcDb2dVertex
 10
148.9097929127813
 20
53.05305778720501
 30
0.0
  0
VERTEX
  5
99C
330
99A
100
AcDbEntity
  8
Visible (ANSI)
100
AcDbVertex
100
AcDb2dVertex
 10
148.907476541588
 20
53.0544583929434
 30
0.0
  0
VERTEX
  5
99E
330
99A
100
AcDbEntity
  8
Visible (ANSI)
100
AcDbVertex
100
AcDb2dVertex
 10
148.9052197251153
 20
53.05595802526281
 30
0.0
  0
VERTEX
  5
99F
330
99A
100
AcDbEntity
  8
Visible (ANSI)
100
AcDbVertex
100
AcDb2dVertex
 10
148.9030242715087
 20
53.05755543041314
 30
0.0
  0
VERTEX
  5
9A0
330
99A
100
AcDbEntity
  8
Visible (ANSI)
100
AcDbVertex
100
AcDb2dVertex
 10
148.9008919119107
 20
53.05924924765058
 30
0.0
  0
VERTEX
  5
9A1
330
99A
100
AcDbEntity
  8
Visible (ANSI)
100
AcDbVertex
100
AcDb2dVertex
 10
148.8988243232762
 20
53.06103801907887
 30
0.0
  0
VERTEX
  5
9A2
330
99A
100
AcDbEntity
  8
Visible (ANSI)
100
AcDbVertex
100
AcDb2dVertex
 10
148.8968230998535
 20
53.06292016992857
 30
0.0
  0
VERTEX
  5
9A3
330
99A
100
AcDbEntity
  8
Visible (ANSI)
100
AcDbVertex
100
AcDb2dVertex
 10
148.8948897759993
 20
53.06489404148008
 30
0.0
  0
VERTEX
  5
9A4
330
99A
100
AcDbEntity
  8
Visible (ANSI)
100
AcDbVertex
100
AcDb2dVertex
 10
148.8930258062155
 20
53.06695786637773
 30
0.0
  0
VERTEX
  5
9A5
330
99A
100
AcDbEntity
  8
Visible (ANSI)
100
AcDbVertex
100
AcDb2dVertex
 10
148.8912325765568
 20
53.06910978509137
 30
0.0
  0
VERTEX
  5
9A6
330
99A
100
AcDbEntity
  8
Visible (ANSI)
100
AcDbVertex
100
AcDb2dVertex
 10
148.889511381815
 20
53.07134783607498
 30
0.0
  0
VERTEX
  5
9A7
330
99A
100
AcDbEntity
  8
Visible (ANSI)
100
AcDbVertex
100
AcDb2dVertex
 10
148.8878634597427
 20
53.07366997877221
 30
0.0
  0
VERTEX
  5
9A8
330
99A
100
AcDbEntity
  8
Visible (ANSI)
100
AcDbVertex
100
AcDb2dVertex
 10
148.8862899568296
 20
53.0760740706109
 30
0.0
  0
VERTEX
  5
9A9
330
99A
100
AcDbEntity
  8
Visible (ANSI)
100
AcDbVertex
100
AcDb2dVertex
 10
148.8847919397103
 20
53.07855788016717
 30
0.0
  0
VERTEX
  5
9AA
330
99A
100
AcDbEntity
  8
Visible (ANSI)
100
AcDbVertex
100
AcDb2dVertex
 10
148.8833703951646
 20
53.08111909376036
 30
0.0
  0
VERTEX
  5
9AB
330
99A
100
AcDbEntity
  8
Visible (ANSI)
100
AcDbVertex
100
AcDb2dVertex
 10
148.8820262301171
 20
53.08375532204768
 30
0.0
  0
VERTEX
  5
9AC
330
99A
100
AcDbEntity
  8
Visible (ANSI)
100
AcDbVertex
100
AcDb2dVertex
 10
148.8807602716376
 20
53.08646408023992
 30
0.0
  0
VERTEX
  5
9AD
330
99A
100
AcDbEntity
  8
Visible (ANSI)
100
AcDbVertex
100
AcDb2dVertex
 10
148.8795732498288
 20
53.08924282111359
 30
0.0
  0
VERTEX
  5
9AE
330
99A
100
AcDbEntity
  8
Visible (ANSI)
100
AcDbVertex
100
AcDb2dVertex
 10
148.8784658263465
 20
53.09208890527068
 30
0.0
  0
VERTEX
  5
9AF
330
99A
100
AcDbEntity
  8
Visible (ANSI)
100
AcDbVertex
100
AcDb2dVertex
 10
148.8774385601758
 20
53.09499963418904
 30
0.0
  0
VERTEX
  5
9B0
330
99A
100
AcDbEntity
  8
Visible (ANSI)
100
AcDbVertex
100
AcDb2dVertex
 10
148.8764919418546
 20
53.0979722369564
 30
0.0
  0
VERTEX
  5
9B1
330
99A
100
AcDbEntity
  8
Visible (ANSI)
100
AcDbVertex
100
AcDb2dVertex
 10
148.875626353546
 20
53.10100386706211
 30
0.0
  0
VERTEX
  5
9B2
330
99A
100
AcDbEntity
  8
Visible (ANSI)
100
AcDbVertex
100
AcDb2dVertex
 10
148.87484211467
 20
53.10409162867447
 30
0.0
  0
VERTEX
  5
9B3
330
99A
100
AcDbEntity
  8
Visible (ANSI)
100
AcDbVertex
100
AcDb2dVertex
 10
148.8741394362722
 20
53.10723255695817
 30
0.0
  0
VERTEX
  5
9B4
330
99A
100
AcDbEntity
  8
Visible (ANSI)
100
AcDbVertex
100
AcDb2dVertex
 10
148.8735184552466
 20
53.11042362459273
 30
0.0
  0
SEQEND
  5
99D
330
99A
100
AcDbEntity
  8
Visible (ANSI)
  0
LINE
  5
9B5
330
6C
100
AcDbEntity
  8
Visible (ANSI)
100
AcDbLine
 10
149.2114216911956
 20
53.25545324370816
 30
0.0
 11
149.3266643812802
 21
53.32181709524645
 31
0.0
  0
LINE
  5
9B6
330
6C
100
AcDbEntity
  8
Visible (ANSI)
100
AcDbLine
 10
175.9933937921528
 20
37.51556774946096
 30
0.0
 11
175.9933937921528
 21
37.4927870919286
 31
0.0
  0
LINE
  5
9B7
330
6C
100
AcDbEntity
  8
Visible (ANSI)
100
AcDbLine
 10
175.9933937921528
 20
37.4927870919286
 30
0.0
 11
176.0563662859099
 21
37.5290505392989
 31
0.0
  0
LINE
  5
9B8
330
6C
100
AcDbEntity
  8
Visible (ANSI)
100
AcDbLine
 10
176.0952955746063
 20
37.55146842570574
 30
0.0
 11
176.3428039789499
 21
37.69399903643931
 31
0.0
  0
LINE
  5
9B9
330
6C
100
AcDbEntity
  8
Visible (ANSI)
100
AcDbLine
 10
176.3428039789499
 20
37.69446199139296
 30
0.0
 11
176.3428039789499
 21
37.69399903643931
 31
0.0
  0
POLYLINE
  5
9BA
330
6C
100
AcDbEntity
  8
Visible (ANSI)
100
AcDb2dPolyline
 66
     1
 10
0.0
 20
0.0
 30
0.0
 70
   128
  0
VERTEX
  5
9BB
330
9BA
100
AcDbEntity
  8
Visible (ANSI)
100
AcDbVertex
100
AcDb2dVertex
 10
175.9452119427366
 20
75.56555428145064
 30
0.0
  0
VERTEX
  5
9BC
330
9BA
100
AcDbEntity
  8
Visible (ANSI)
100
AcDbVertex
100
AcDb2dVertex
 10
175.950342193202
 20
75.56145016225787
 30
0.0
  0
VERTEX
  5
9BE
330
9BA
100
AcDbEntity
  8
Visible (ANSI)
100
AcDbVertex
100
AcDb2dVertex
 10
175.9557765771515
 20
75.55754472643487
 30
0.0
  0
VERTEX
  5
9BF
330
9BA
100
AcDbEntity
  8
Visible (ANSI)
100
AcDbVertex
100
AcDb2dVertex
 10
175.9614896379508
 20
75.55384684599193
 30
0.0
  0
VERTEX
  5
9C0
330
9BA
100
AcDbEntity
  8
Visible (ANSI)
100
AcDbVertex
100
AcDb2dVertex
 10
175.9674603851419
 20
75.55037136744534
 30
0.0
  0
VERTEX
  5
9C1
330
9BA
100
AcDbEntity
  8
Visible (ANSI)
100
AcDbVertex
100
AcDb2dVertex
 10
175.9736606242048
 20
75.54712558616181
 30
0.0
  0
VERTEX
  5
9C2
330
9BA
100
AcDbEntity
  8
Visible (ANSI)
100
AcDbVertex
100
AcDb2dVertex
 10
175.980060814492
 20
75.54411602232493
 30
0.0
  0
VERTEX
  5
9C3
330
9BA
100
AcDbEntity
  8
Visible (ANSI)
100
AcDbVertex
100
AcDb2dVertex
 10
175.9866417736911
 20
75.54135183668008
 30
0.0
  0
VERTEX
  5
9C4
330
9BA
100
AcDbEntity
  8
Visible (ANSI)
100
AcDbVertex
100
AcDb2dVertex
 10
175.9933684340477
 20
75.53883973006794
 30
0.0
  0
VERTEX
  5
9C5
330
9BA
100
AcDbEntity
  8
Visible (ANSI)
100
AcDbVertex
100
AcDb2dVertex
 10
176.0002132455857
 20
75.5365840185503
 30
0.0
  0
VERTEX
  5
9C6
330
9BA
100
AcDbEntity
  8
Visible (ANSI)
100
AcDbVertex
100
AcDb2dVertex
 10
176.0071503580996
 20
75.53458325697596
 30
0.0
  0
VERTEX
  5
9C7
330
9BA
100
AcDbEntity
  8
Visible (ANSI)
100
AcDbVertex
100
AcDb2dVertex
 10
176.0141440136599
 20
75.53285051485257
 30
0.0
  0
VERTEX
  5
9C8
330
9BA
100
AcDbEntity
  8
Visible (ANSI)
100
AcDbVertex
100
AcDb2dVertex
 10
176.0211719498322
 20
75.53137968607625
 30
0.0
  0
VERTEX
  5
9C9
330
9BA
100
AcDbEntity
  8
Visible (ANSI)
100
AcDbVertex
100
AcDb2dVertex
 10
176.02819624975
 20
75.53017246728659
 30
0.0
  0
VERTEX
  5
9CA
330
9BA
100
AcDbEntity
  8
Visible (ANSI)
100
AcDbVertex
100
AcDb2dVertex
 10
176.0351926203803
 20
75.52923171265469
 30
0.0
  0
VERTEX
  5
9CB
330
9BA
100
AcDbEntity
  8
Visible (ANSI)
100
AcDbVertex
100
AcDb2dVertex
 10
176.0421270862713
 20
75.52855466151726
 30
0.0
  0
VERTEX
  5
9CC
330
9BA
100
AcDbEntity
  8
Visible (ANSI)
100
AcDbVertex
100
AcDb2dVertex
 10
176.0489735804682
 20
75.52813301689283
 30
0.0
  0
VERTEX
  5
9CD
330
9BA
100
AcDbEntity
  8
Visible (ANSI)
100
AcDbVertex
100
AcDb2dVertex
 10
176.055699428015
 20
75.52797153313645
 30
0.0
  0
VERTEX
  5
9CE
330
9BA
100
AcDbEntity
  8
Visible (ANSI)
100
AcDbVertex
100
AcDb2dVertex
 10
176.0622800178847
 20
75.52805938817335
 30
0.0
  0
VERTEX
  5
9CF
330
9BA
100
AcDbEntity
  8
Visible (ANSI)
100
AcDbVertex
100
AcDb2dVertex
 10
176.0686813589396
 20
75.52839382534077
 30
0.0
  0
VERTEX
  5
9D0
330
9BA
100
AcDbEntity
  8
Visible (ANSI)
100
AcDbVertex
100
AcDb2dVertex
 10
176.0748806097967
 20
75.52896167812775
 30
0.0
  0
VERTEX
  5
9D1
330
9BA
100
AcDbEntity
  8
Visible (ANSI)
100
AcDbVertex
100
AcDb2dVertex
 10
176.0808515624185
 20
75.52976133442102
 30
0.0
  0
VERTEX
  5
9D2
330
9BA
100
AcDbEntity
  8
Visible (ANSI)
100
AcDbVertex
100
AcDb2dVertex
 10
176.0865647261559
 20
75.53078252566476
 30
0.0
  0
VERTEX
  5
9D3
330
9BA
100
AcDbEntity
  8
Visible (ANSI)
100
AcDbVertex
100
AcDb2dVertex
 10
176.09199910048
 20
75.53200978191895
 30
0.0
  0
VERTEX
  5
9D4
330
9BA
100
AcDbEntity
  8
Visible (ANSI)
100
AcDbVertex
100
AcDb2dVertex
 10
176.097130582281
 20
75.53343933971139
 30
0.0
  0
SEQEND
  5
9BD
330
9BA
100
AcDbEntity
  8
Visible (ANSI)
  0
POLYLINE
  5
9D5
330
6C
100
AcDbEntity
  8
Visible (ANSI)
100
AcDb2dPolyline
 66
     1
 10
0.0
 20
0.0
 30
0.0
 70
   128
  0
VERTEX
  5
9D6
330
9D5
100
AcDbEntity
  8
Visible (ANSI)
100
AcDbVertex
100
AcDb2dVertex
 10
176.097130582281
 20
37.55298687388326
 30
0.0
  0
VERTEX
  5
9D7
330
9D5
100
AcDbEntity
  8
Visible (ANSI)
100
AcDbVertex
100
AcDb2dVertex
 10
176.09199910048
 20
37.54888206791778
 30
0.0
  0
VERTEX
  5
9D9
330
9D5
100
AcDbEntity
  8
Visible (ANSI)
100
AcDbVertex
100
AcDb2dVertex
 10
176.0865647261559
 20
37.5449761869509
 30
0.0
  0
VERTEX
  5
9DA
330
9D5
100
AcDbEntity
  8
Visible (ANSI)
100
AcDbVertex
100
AcDb2dVertex
 10
176.0808515624185
 20
37.54127974753411
 30
0.0
  0
VERTEX
  5
9DB
330
9D5
100
AcDbEntity
  8
Visible (ANSI)
100
AcDbVertex
100
AcDb2dVertex
 10
176.0748806097967
 20
37.53780484306778
 30
0.0
  0
VERTEX
  5
9DC
330
9D5
100
AcDbEntity
  8
Visible (ANSI)
100
AcDbVertex
100
AcDb2dVertex
 10
176.0686813589396
 20
37.53455835237848
 30
0.0
  0
VERTEX
  5
9DD
330
9D5
100
AcDbEntity
  8
Visible (ANSI)
100
AcDbVertex
100
AcDb2dVertex
 10
176.0622800178847
 20
37.53154866703802
 30
0.0
  0
VERTEX
  5
9DE
330
9D5
100
AcDbEntity
  8
Visible (ANSI)
100
AcDbVertex
100
AcDb2dVertex
 10
176.055699428015
 20
37.52878556382807
 30
0.0
  0
VERTEX
  5
9DF
330
9D5
100
AcDbEntity
  8
Visible (ANSI)
100
AcDbVertex
100
AcDb2dVertex
 10
176.0489735804682
 20
37.5262717994114
 30
0.0
  0
VERTEX
  5
9E0
330
9D5
100
AcDbEntity
  8
Visible (ANSI)
100
AcDbVertex
100
AcDb2dVertex
 10
176.0421270862713
 20
37.52401481272833
 30
0.0
  0
VERTEX
  5
9E1
330
9D5
100
AcDbEntity
  8
Visible (ANSI)
100
AcDbVertex
100
AcDb2dVertex
 10
176.0351926203803
 20
37.52201661569269
 30
0.0
  0
VERTEX
  5
9E2
330
9D5
100
AcDbEntity
  8
Visible (ANSI)
100
AcDbVertex
100
AcDb2dVertex
 10
176.02819624975
 20
37.52028212215155
 30
0.0
  0
VERTEX
  5
9E3
330
9D5
100
AcDbEntity
  8
Visible (ANSI)
100
AcDbVertex
100
AcDb2dVertex
 10
176.0211719498322
 20
37.51881070963371
 30
0.0
  0
VERTEX
  5
9E4
330
9D5
100
AcDbEntity
  8
Visible (ANSI)
100
AcDbVertex
100
AcDb2dVertex
 10
176.0141440136599
 20
37.51760629023697
 30
0.0
  0
VERTEX
  5
9E5
330
9D5
100
AcDbEntity
  8
Visible (ANSI)
100
AcDbVertex
100
AcDb2dVertex
 10
176.0071503580996
 20
37.51666377759252
 30
0.0
  0
VERTEX
  5
9E6
330
9D5
100
AcDbEntity
  8
Visible (ANSI)
100
AcDbVertex
100
AcDb2dVertex
 10
176.0002132455857
 20
37.51598591445417
 30
0.0
  0
VERTEX
  5
9E7
330
9D5
100
AcDbEntity
  8
Visible (ANSI)
100
AcDbVertex
100
AcDb2dVertex
 10
175.9933684340477
 20
37.51556637120394
 30
0.0
  0
VERTEX
  5
9E8
330
9D5
100
AcDbEntity
  8
Visible (ANSI)
100
AcDbVertex
100
AcDb2dVertex
 10
175.9866417736911
 20
37.51540322964304
 30
0.0
  0
VERTEX
  5
9E9
330
9D5
100
AcDbEntity
  8
Visible (ANSI)
100
AcDbVertex
100
AcDb2dVertex
 10
175.980060814492
 20
37.51549216711482
 30
0.0
  0
VERTEX
  5
9EA
330
9D5
100
AcDbEntity
  8
Visible (ANSI)
100
AcDbVertex
100
AcDb2dVertex
 10
175.9736606242048
 20
37.51582309964422
 30
0.0
  0
VERTEX
  5
9EB
330
9D5
100
AcDbEntity
  8
Visible (ANSI)
100
AcDbVertex
100
AcDb2dVertex
 10
175.9674603851419
 20
37.51639363275467
 30
0.0
  0
VERTEX
  5
9EC
330
9D5
100
AcDbEntity
  8
Visible (ANSI)
100
AcDbVertex
100
AcDb2dVertex
 10
175.9614896379508
 20
37.5171938565334
 30
0.0
  0
VERTEX
  5
9ED
330
9D5
100
AcDbEntity
  8
Visible (ANSI)
100
AcDbVertex
100
AcDb2dVertex
 10
175.9557765771515
 20
37.51821311226367
 30
0.0
  0
VERTEX
  5
9EE
330
9D5
100
AcDbEntity
  8
Visible (ANSI)
100
AcDbVertex
100
AcDb2dVertex
 10
175.950342193202
 20
37.51944329991361
 30
0.0
  0
VERTEX
  5
9EF
330
9D5
100
AcDbEntity
  8
Visible (ANSI)
100
AcDbVertex
100
AcDb2dVertex
 10
175.9452119427366
 20
37.52087216433851
 30
0.0
  0
SEQEND
  5
9D8
330
9D5
100
AcDbEntity
  8
Visible (ANSI)
  0
LINE
  5
9F0
330
6C
100
AcDbEntity
  8
Visible (ANSI)
100
AcDbLine
 10
176.0364531965732
 20
75.56848549207173
 30
0.0
 11
176.3857727289499
 21
75.76964523217366
 31
0.0
  0
LINE
  5
9F1
330
6C
100
AcDbEntity
  8
Visible (ANSI)
100
AcDbLine
 10
176.4465397179582
 20
37.75419943051124
 30
0.0
 11
176.097129531161
 21
37.55298748600055
 31
0.0
  0
LINE
  5
9F2
330
6C
100
AcDbEntity
  8
Visible (ANSI)
100
AcDbLine
 10
176.0389227056905
 20
75.56695898753329
 30
0.0
 11
176.097129531161
 21
75.53343990600895
 31
0.0
  0
POLYLINE
  5
9F3
330
6C
100
AcDbEntity
  8
Visible (ANSI)
100
AcDb2dPolyline
 66
     1
 10
0.0
 20
0.0
 30
0.0
 70
   128
  0
VERTEX
  5
9F4
330
9F3
100
AcDbEntity
  8
Visible (ANSI)
100
AcDbVertex
100
AcDb2dVertex
 10
176.0059789308322
 20
75.60054766257913
 30
0.0
  0
VERTEX
  5
9F5
330
9F3
100
AcDbEntity
  8
Visible (ANSI)
100
AcDbVertex
100
AcDb2dVertex
 10
176.0069143386244
 20
75.59881797028959
 30
0.0
  0
VERTEX
  5
9F7
330
9F3
100
AcDbEntity
  8
Visible (ANSI)
100
AcDbVertex
100
AcDb2dVertex
 10
176.0079010484938
 20
75.59712118440777
 30
0.0
  0
VERTEX
  5
9F8
330
9F3
100
AcDbEntity
  8
Visible (ANSI)
100
AcDbVertex
100
AcDb2dVertex
 10
176.0089329286305
 20
75.59546050087186
 30
0.0
  0
VERTEX
  5
9F9
330
9F3
100
AcDbEntity
  8
Visible (ANSI)
100
AcDbVertex
100
AcDb2dVertex
 10
176.0100124156063
 20
75.59383395930399
 30
0.0
  0
VERTEX
  5
9FA
330
9F3
100
AcDbEntity
  8
Visible (ANSI)
100
AcDbVertex
100
AcDb2dVertex
 10
176.0111271528622
 20
75.59224789806029
 30
0.0
  0
VERTEX
  5
9FB
330
9F3
100
AcDbEntity
  8
Visible (ANSI)
100
AcDbVertex
100
AcDb2dVertex
 10
176.0122821175215
 20
75.59069845626294
 30
0.0
  0
VERTEX
  5
9FC
330
9F3
100
AcDbEntity
  8
Visible (ANSI)
100
AcDbVertex
100
AcDb2dVertex
 10
176.0134674992725
 20
75.58918669850834
 30
0.0
  0
VERTEX
  5
9FD
330
9F3
100
AcDbEntity
  8
Visible (ANSI)
100
AcDbVertex
100
AcDb2dVertex
 10
176.0146791464571
 20
75.58772035060124
 30
0.0
  0
VERTEX
  5
9FE
330
9F3
100
AcDbEntity
  8
Visible (ANSI)
100
AcDbVertex
100
AcDb2dVertex
 10
176.0159156505613
 20
75.58629522489276
 30
0.0
  0
VERTEX
  5
9FF
330
9F3
100
AcDbEntity
  8
Visible (ANSI)
100
AcDbVertex
100
AcDb2dVertex
 10
176.0171695897934
 20
75.58491377446994
 30
0.0
  0
VERTEX
  5
A00
330
9F3
100
AcDbEntity
  8
Visible (ANSI)
100
AcDbVertex
100
AcDb2dVertex
 10
176.0184392164339
 20
75.58357499288812
 30
0.0
  0
VERTEX
  5
A01
330
9F3
100
AcDbEntity
  8
Visible (ANSI)
100
AcDbVertex
100
AcDb2dVertex
 10
176.0197167816957
 20
75.58228114493009
 30
0.0
  0
VERTEX
  5
A02
330
9F3
100
AcDbEntity
  8
Visible (ANSI)
100
AcDbVertex
100
AcDb2dVertex
 10
176.0210002230735
 20
75.58103104287821
 30
0.0
  0
VERTEX
  5
A03
330
9F3
100
AcDbEntity
  8
Visible (ANSI)
100
AcDbVertex
100
AcDb2dVertex
 10
176.0222844123791
 20
75.57982509711145
 30
0.0
  0
VERTEX
  5
A04
330
9F3
100
AcDbEntity
  8
Visible (ANSI)
100
AcDbVertex
100
AcDb2dVertex
 10
176.023564082747
 20
75.57866026161055
 30
0.0
  0
VERTEX
  5
A05
330
9F3
100
AcDbEntity
  8
Visible (ANSI)
100
AcDbVertex
100
AcDb2dVertex
 10
176.0248367568897
 20
75.57754186287972
 30
0.0
  0
VERTEX
  5
A06
330
9F3
100
AcDbEntity
  8
Visible (ANSI)
100
AcDbVertex
100
AcDb2dVertex
 10
176.0260969166127
 20
75.57646671016868
 30
0.0
  0
VERTEX
  5
A07
330
9F3
100
AcDbEntity
  8
Visible (ANSI)
100
AcDbVertex
100
AcDb2dVertex
 10
176.0273360117266
 20
75.57543660676357
 30
0.0
  0
VERTEX
  5
A08
330
9F3
100
AcDbEntity
  8
Visible (ANSI)
100
AcDbVertex
100
AcDb2dVertex
 10
176.0285570703046
 20
75.57444656940312
 30
0.0
  0
VERTEX
  5
A09
330
9F3
100
AcDbEntity
  8
Visible (ANSI)
100
AcDbVertex
100
AcDb2dVertex
 10
176.0297484278122
 20
75.57349997144767
 30
0.0
  0
VERTEX
  5
A0A
330
9F3
100
AcDbEntity
  8
Visible (ANSI)
100
AcDbVertex
100
AcDb2dVertex
 10
176.0309100186544
 20
75.57259341161712
 30
0.0
  0
VERTEX
  5
A0B
330
9F3
100
AcDbEntity
  8
Visible (ANSI)
100
AcDbVertex
100
AcDb2dVertex
 10
176.0320387855253
 20
75.57172512932616
 30
0.0
  0
VERTEX
  5
A0C
330
9F3
100
AcDbEntity
  8
Visible (ANSI)
100
AcDbVertex
100
AcDb2dVertex
 10
176.0331257718306
 20
75.57089331728825
 30
0.0
  0
VERTEX
  5
A0D
330
9F3
100
AcDbEntity
  8
Visible (ANSI)
100
AcDbVertex
100
AcDb2dVertex
 10
176.0341707287365
 20
75.57010122178238
 30
0.0
  0
SEQEND
  5
9F6
330
9F3
100
AcDbEntity
  8
Visible (ANSI)
  0
LINE
  5
A0E
330
6C
100
AcDbEntity
  8
Visible (ANSI)
100
AcDbLine
 10
176.0059790476486
 20
75.60054867580169
 30
0.0
 11
176.0034874057342
 21
75.59911383465062
 31
0.0
  0
LINE
  5
A0F
330
6C
100
AcDbEntity
  8
Visible (ANSI)
100
AcDbLine
 10
176.0034874057342
 20
75.59911383465062
 30
0.0
 11
175.9452120586404
 21
75.56555529414765
 31
0.0
  0
LINE
  5
A10
330
6C
100
AcDbEntity
  8
Visible (ANSI)
100
AcDbLine
 10
176.097129531161
 20
75.53343990600895
 30
0.0
 11
176.4465397179582
 21
75.73465185051962
 31
0.0
  0
LINE
  5
A11
330
6C
100
AcDbEntity
  8
Visible (ANSI)
100
AcDbLine
 10
176.3857727289499
 20
75.76964523217366
 30
0.0
 11
176.4465397179582
 21
75.73465185051962
 31
0.0
  0
POLYLINE
  5
A12
330
6C
100
AcDbEntity
  8
Visible (ANSI)
100
AcDb2dPolyline
 66
     1
 10
0.0
 20
0.0
 30
0.0
 70
   128
  0
VERTEX
  5
A13
330
A12
100
AcDbEntity
  8
Visible (ANSI)
100
AcDbVertex
100
AcDb2dVertex
 10
148.8735184552466
 20
91.15510574170485
 30
0.0
  0
VERTEX
  5
A14
330
A12
100
AcDbEntity
  8
Visible (ANSI)
100
AcDbVertex
100
AcDb2dVertex
 10
148.8748384641556
 20
91.16027639829125
 30
0.0
  0
VERTEX
  5
A16
330
A12
100
AcDbEntity
  8
Visible (ANSI)
100
AcDbVertex
100
AcDb2dVertex
 10
148.8764830437256
 20
91.16561033348256
 30
0.0
  0
VERTEX
  5
A17
330
A12
100
AcDbEntity
  8
Visible (ANSI)
100
AcDbVertex
100
AcDb2dVertex
 10
148.8784501063187
 20
91.17108270274131
 30
0.0
  0
VERTEX
  5
A18
330
A12
100
AcDbEntity
  8
Visible (ANSI)
100
AcDbVertex
100
AcDb2dVertex
 10
148.8807361896501
 20
91.17666111684435
 30
0.0
  0
VERTEX
  5
A19
330
A12
100
AcDbEntity
  8
Visible (ANSI)
100
AcDbVertex
100
AcDb2dVertex
 10
148.8833364510843
 20
91.18232591754384
 30
0.0
  0
VERTEX
  5
A1A
330
A12
100
AcDbEntity
  8
Visible (ANSI)
100
AcDbVertex
100
AcDb2dVertex
 10
148.8862447246741
 20
91.18804652865142
 30
0.0
  0
VERTEX
  5
A1B
330
A12
100
AcDbEntity
  8
Visible (ANSI)
100
AcDbVertex
100
AcDb2dVertex
 10
148.8894534983454
 20
91.19379500161247
 30
0.0
  0
VERTEX
  5
A1C
330
A12
100
AcDbEntity
  8
Visible (ANSI)
100
AcDbVertex
100
AcDb2dVertex
 10
148.8929539937518
 20
91.19954601550636
 30
0.0
  0
VERTEX
  5
A1D
330
A12
100
AcDbEntity
  8
Visible (ANSI)
100
AcDbVertex
100
AcDb2dVertex
 10
148.8967361890902
 20
91.20527015681398
 30
0.0
  0
VERTEX
  5
A1E
330
A12
100
AcDbEntity
  8
Visible (ANSI)
100
AcDbVertex
100
AcDb2dVertex
 10
148.9007888248053
 20
91.21094407202903
 30
0.0
  0
VERTEX
  5
A1F
330
A12
100
AcDbEntity
  8
Visible (ANSI)
100
AcDbVertex
100
AcDb2dVertex
 10
148.9050995176676
 20
91.21653698120796
 30
0.0
  0
VERTEX
  5
A20
330
A12
100
AcDbEntity
  8
Visible (ANSI)
100
AcDbVertex
100
AcDb2dVertex
 10
148.9096547550697
 20
91.22202085685858
 30
0.0
  0
VERTEX
  5
A21
330
A12
100
AcDbEntity
  8
Visible (ANSI)
100
AcDbVertex
100
AcDb2dVertex
 10
148.9144399948451
 20
91.22737042886736
 30
0.0
  0
VERTEX
  5
A22
330
A12
100
AcDbEntity
  8
Visible (ANSI)
100
AcDbVertex
100
AcDb2dVertex
 10
148.9194396937879
 20
91.23256325347743
 30
0.0
  0
VERTEX
  5
A23
330
A12
100
AcDbEntity
  8
Visible (ANSI)
100
AcDbVertex
100
AcDb2dVertex
 10
148.9246374046194
 20
91.23757297006344
 30
0.0
  0
VERTEX
  5
A24
330
A12
100
AcDbEntity
  8
Visible (ANSI)
100
AcDbVertex
100
AcDb2dVertex
 10
148.9300158273233
 20
91.24236935040155
 30
0.0
  0
VERTEX
  5
A25
330
A12
100
AcDbEntity
  8
Visible (ANSI)
100
AcDbVertex
100
AcDb2dVertex
 10
148.9355568775935
 20
91.24693861703152
 30
0.0
  0
VERTEX
  5
A26
330
A12
100
AcDbEntity
  8
Visible (ANSI)
100
AcDbVertex
100
AcDb2dVertex
 10
148.9412417909301
 20
91.25124969838941
 30
0.0
  0
VERTEX
  5
A27
330
A12
100
AcDbEntity
  8
Visible (ANSI)
100
AcDbVertex
100
AcDb2dVertex
 10
148.9470511782531
 20
91.25528805250704
 30
0.0
  0
VERTEX
  5
A28
330
A12
100
AcDbEntity
  8
Visible (ANSI)
100
AcDbVertex
100
AcDb2dVertex
 10
148.9529651299991
 20
91.25902869493209
 30
0.0
  0
VERTEX
  5
A29
330
A12
100
AcDbEntity
  8
Visible (ANSI)
100
AcDbVertex
100
AcDb2dVertex
 10
148.9589632561377
 20
91.26245315702512
 30
0.0
  0
VERTEX
  5
A2A
330
A12
100
AcDbEntity
  8
Visible (ANSI)
100
AcDbVertex
100
AcDb2dVertex
 10
148.9650248386625
 20
91.26554611840147
 30
0.0
  0
VERTEX
  5
A2B
330
A12
100
AcDbEntity
  8
Visible (ANSI)
100
AcDbVertex
100
AcDb2dVertex
 10
148.9711288770445
 20
91.26829210912111
 30
0.0
  0
VERTEX
  5
A2C
330
A12
100
AcDbEntity
  8
Visible (ANSI)
100
AcDbVertex
100
AcDb2dVertex
 10
148.9772541885856
 20
91.27067555433983
 30
0.0
  0
SEQEND
  5
A15
330
A12
100
AcDbEntity
  8
Visible (ANSI)
  0
POLYLINE
  5
A2D
330
6C
100
AcDbEntity
  8
Visible (ANSI)
100
AcDb2dPolyline
 66
     1
 10
0.0
 20
0.0
 30
0.0
 70
   128
  0
VERTEX
  5
A2E
330
A2D
100
AcDbEntity
  8
Visible (ANSI)
100
AcDbVertex
100
AcDb2dVertex
 10
175.9933946436006
 20
75.71311495786154
 30
0.0
  0
VERTEX
  5
A2F
330
A2D
100
AcDbEntity
  8
Visible (ANSI)
100
AcDbVertex
100
AcDb2dVertex
 10
175.9895831878203
 20
75.70939905172858
 30
0.0
  0
VERTEX
  5
A31
330
A2D
100
AcDbEntity
  8
Visible (ANSI)
100
AcDbVertex
100
AcDb2dVertex
 10
175.9857930051991
 20
75.70532060009468
 30
0.0
  0
VERTEX
  5
A32
330
A2D
100
AcDbEntity
  8
Visible (ANSI)
100
AcDbVertex
100
AcDb2dVertex
 10
175.9820481988466
 20
75.70089349605094
 30
0.0
  0
VERTEX
  5
A33
330
A2D
100
AcDbEntity
  8
Visible (ANSI)
100
AcDbVertex
100
AcDb2dVertex
 10
175.9783639284689
 20
75.69613657304367
 30
0.0
  0
VERTEX
  5
A34
330
A2D
100
AcDbEntity
  8
Visible (ANSI)
100
AcDbVertex
100
AcDb2dVertex
 10
175.9747638438915
 20
75.69106346313503
 30
0.0
  0
VERTEX
  5
A35
330
A2D
100
AcDbEntity
  8
Visible (ANSI)
100
AcDbVertex
100
AcDb2dVertex
 10
175.9712712327408
 20
75.68569096635001
 30
0.0
  0
VERTEX
  5
A36
330
A2D
100
AcDbEntity
  8
Visible (ANSI)
100
AcDbVertex
100
AcDb2dVertex
 10
175.9679001751649
 20
75.68004742407786
 30
0.0
  0
VERTEX
  5
A37
330
A2D
100
AcDbEntity
  8
Visible (ANSI)
100
AcDbVertex
100
AcDb2dVertex
 10
175.9646729806555
 20
75.67414569653369
 30
0.0
  0
VERTEX
  5
A38
330
A2D
100
AcDbEntity
  8
Visible (ANSI)
100
AcDbVertex
100
AcDb2dVertex
 10
175.9616084194163
 20
75.66801685199664
 30
0.0
  0
VERTEX
  5
A39
330
A2D
100
AcDbEntity
  8
Visible (ANSI)
100
AcDbVertex
100
AcDb2dVertex
 10
175.9587274847572
 20
75.66167299274323
 30
0.0
  0
VERTEX
  5
A3A
330
A2D
100
AcDbEntity
  8
Visible (ANSI)
100
AcDbVertex
100
AcDb2dVertex
 10
175.9560416415752
 20
75.65514770721893
 30
0.0
  0
VERTEX
  5
A3B
330
A2D
100
AcDbEntity
  8
Visible (ANSI)
100
AcDbVertex
100
AcDb2dVertex
 10
175.9535702632645
 20
75.64846567101122
 30
0.0
  0
VERTEX
  5
A3C
330
A2D
100
AcDbEntity
  8
Visible (ANSI)
100
AcDbVertex
100
AcDb2dVertex
 10
175.9513318020347
 20
75.64164765269321
 30
0.0
  0
VERTEX
  5
A3D
330
A2D
100
AcDbEntity
  8
Visible (ANSI)
100
AcDbVertex
100
AcDb2dVertex
 10
175.9493349706371
 20
75.63472227931538
 30
0.0
  0
VERTEX
  5
A3E
330
A2D
100
AcDbEntity
  8
Visible (ANSI)
100
AcDbVertex
100
AcDb2dVertex
 10
175.9475961906828
 20
75.62771590318607
 30
0.0
  0
VERTEX
  5
A3F
330
A2D
100
AcDbEntity
  8
Visible (ANSI)
100
AcDbVertex
100
AcDb2dVertex
 10
175.9461307772206
 20
75.6206576159264
 30
0.0
  0
VERTEX
  5
A40
330
A2D
100
AcDbEntity
  8
Visible (ANSI)
100
AcDbVertex
100
AcDb2dVertex
 10
175.9449441375751
 20
75.61357414111824
 30
0.0
  0
VERTEX
  5
A41
330
A2D
100
AcDbEntity
  8
Visible (ANSI)
100
AcDbVertex
100
AcDb2dVertex
 10
175.9440492196645
 20
75.60649320724298
 30
0.0
  0
VERTEX
  5
A42
330
A2D
100
AcDbEntity
  8
Visible (ANSI)
100
AcDbVertex
100
AcDb2dVertex
 10
175.9434577279509
 20
75.59943845018335
 30
0.0
  0
VERTEX
  5
A43
330
A2D
100
AcDbEntity
  8
Visible (ANSI)
100
AcDbVertex
100
AcDb2dVertex
 10
175.9431713222776
 20
75.59244118856959
 30
0.0
  0
VERTEX
  5
A44
330
A2D
100
AcDbEntity
  8
Visible (ANSI)
100
AcDbVertex
100
AcDb2dVertex
 10
175.9431991004109
 20
75.58553031026765
 30
0.0
  0
VERTEX
  5
A45
330
A2D
100
AcDbEntity
  8
Visible (ANSI)
100
AcDbVertex
100
AcDb2dVertex
 10
175.9435458935785
 20
75.57872548009466
 30
0.0
  0
VERTEX
  5
A46
330
A2D
100
AcDbEntity
  8
Visible (ANSI)
100
AcDbVertex
100
AcDb2dVertex
 10
175.9442180901809
 20
75.57205740223595
 30
0.0
  0
VERTEX
  5
A47
330
A2D
100
AcDbEntity
  8
Visible (ANSI)
100
AcDbVertex
100
AcDb2dVertex
 10
175.9452119427366
 20
75.56555428145064
 30
0.0
  0
SEQEND
  5
A30
330
A2D
100
AcDbEntity
  8
Visible (ANSI)
  0
LINE
  5
A48
330
6C
100
AcDbEntity
  8
Visible (ANSI)
100
AcDbLine
 10
175.9934803388031
 20
75.64290706117751
 30
0.0
 11
176.3428039789499
 21
75.84406916678692
 31
0.0
  0
LINE
  5
A49
330
6C
100
AcDbEntity
  8
Visible (ANSI)
100
AcDbLine
 10
176.3428039789499
 20
75.91432712282807
 30
0.0
 11
175.9933937921528
 21
75.71311517831734
 31
0.0
  0
LINE
  5
A4A
330
6C
100
AcDbEntity
  8
Visible (ANSI)
100
AcDbLine
 10
175.9933937921528
 20
75.64573802435226
 30
0.0
 11
175.9933937921528
 21
75.71311517831734
 31
0.0
  0
LINE
  5
A4B
330
6C
100
AcDbEntity
  8
Visible (ANSI)
100
AcDbLine
 10
176.3428039789499
 20
75.84406916678692
 30
0.0
 11
176.3428039789499
 21
75.91432712282807
 31
0.0
  0
POLYLINE
  5
A4C
330
6C
100
AcDbEntity
  8
Visible (ANSI)
100
AcDb2dPolyline
 66
     1
 10
0.0
 20
0.0
 30
0.0
 70
   128
  0
VERTEX
  5
A4D
330
A4C
100
AcDbEntity
  8
Visible (ANSI)
100
AcDbVertex
100
AcDb2dVertex
 10
176.0059789308322
 20
75.60054766257913
 30
0.0
  0
VERTEX
  5
A4E
330
A4C
100
AcDbEntity
  8
Visible (ANSI)
100
AcDbVertex
100
AcDb2dVertex
 10
176.004946075644
 20
75.60222731399317
 30
0.0
  0
VERTEX
  5
A50
330
A4C
100
AcDbEntity
  8
Visible (ANSI)
100
AcDbVertex
100
AcDb2dVertex
 10
176.0039705514854
 20
75.60392986356581
 30
0.0
  0
VERTEX
  5
A51
330
A4C
100
AcDbEntity
  8
Visible (ANSI)
100
AcDbVertex
100
AcDb2dVertex
 10
176.0030462245301
 20
75.60565850607416
 30
0.0
  0
VERTEX
  5
A52
330
A4C
100
AcDbEntity
  8
Visible (ANSI)
100
AcDbVertex
100
AcDb2dVertex
 10
176.0021755279745
 20
75.60740790265679
 30
0.0
  0
VERTEX
  5
A53
330
A4C
100
AcDbEntity
  8
Visible (ANSI)
100
AcDbVertex
100
AcDb2dVertex
 10
176.0013577822155
 20
75.60917090887706
 30
0.0
  0
VERTEX
  5
A54
330
A4C
100
AcDbEntity
  8
Visible (ANSI)
100
AcDbVertex
100
AcDb2dVertex
 10
176.0005950380605
 20
75.61094534221019
 30
0.0
  0
VERTEX
  5
A55
330
A4C
100
AcDbEntity
  8
Visible (ANSI)
100
AcDbVertex
100
AcDb2dVertex
 10
175.9998803982566
 20
75.61272720472563
 30
0.0
  0
VERTEX
  5
A56
330
A4C
100
AcDbEntity
  8
Visible (ANSI)
100
AcDbVertex
100
AcDb2dVertex
 10
175.999215543591
 20
75.61451410081817
 30
0.0
  0
VERTEX
  5
A57
330
A4C
100
AcDbEntity
  8
Visible (ANSI)
100
AcDbVertex
100
AcDb2dVertex
 10
175.9985990558353
 20
75.61629846070511
 30
0.0
  0
VERTEX
  5
A58
330
A4C
100
AcDbEntity
  8
Visible (ANSI)
100
AcDbVertex
100
AcDb2dVertex
 10
175.9980293433262
 20
75.61807936780842
 30
0.0
  0
VERTEX
  5
A59
330
A4C
100
AcDbEntity
  8
Visible (ANSI)
100
AcDbVertex
100
AcDb2dVertex
 10
175.9975075669912
 20
75.61984737407631
 30
0.0
  0
VERTEX
  5
A5A
330
A4C
100
AcDbEntity
  8
Visible (ANSI)
100
AcDbVertex
100
AcDb2dVertex
 10
175.9970259646746
 20
75.62160136005359
 30
0.0
  0
VERTEX
  5
A5B
330
A4C
100
AcDbEntity
  8
Visible (ANSI)
100
AcDbVertex
100
AcDb2dVertex
 10
175.996585381449
 20
75.62333844887888
 30
0.0
  0
VERTEX
  5
A5C
330
A4C
100
AcDbEntity
  8
Visible (ANSI)
100
AcDbVertex
100
AcDb2dVertex
 10
175.9961835942082
 20
75.62505398381081
 30
0.0
  0
VERTEX
  5
A5D
330
A4C
100
AcDbEntity
  8
Visible (ANSI)
100
AcDbVertex
100
AcDb2dVertex
 10
175.9958211612243
 20
75.62674492283058
 30
0.0
  0
VERTEX
  5
A5E
330
A4C
100
AcDbEntity
  8
Visible (ANSI)
100
AcDbVertex
100
AcDb2dVertex
 10
175.9954897494136
 20
75.62840306462828
 30
0.0
  0
VERTEX
  5
A5F
330
A4C
100
AcDbEntity
  8
Visible (ANSI)
100
AcDbVertex
100
AcDb2dVertex
 10
175.99518966358
 20
75.63003197430164
 30
0.0
  0
VERTEX
  5
A60
330
A4C
100
AcDbEntity
  8
Visible (ANSI)
100
AcDbVertex
100
AcDb2dVertex
 10
175.9949181779584
 20
75.63161995256812
 30
0.0
  0
VERTEX
  5
A61
330
A4C
100
AcDbEntity
  8
Visible (ANSI)
100
AcDbVertex
100
AcDb2dVertex
 10
175.9946753823857
 20
75.63316706419462
 30
0.0
  0
VERTEX
  5
A62
330
A4C
100
AcDbEntity
  8
Visible (ANSI)
100
AcDbVertex
100
AcDb2dVertex
 10
175.9944525142013
 20
75.63467161357353
 30
0.0
  0
VERTEX
  5
A63
330
A4C
100
AcDbEntity
  8
Visible (ANSI)
100
AcDbVertex
100
AcDb2dVertex
 10
175.9942494899853
 20
75.63613018916015
 30
0.0
  0
VERTEX
  5
A64
330
A4C
100
AcDbEntity
  8
Visible (ANSI)
100
AcDbVertex
100
AcDb2dVertex
 10
175.9940632346069
 20
75.63753764356492
 30
0.0
  0
VERTEX
  5
A65
330
A4C
100
AcDbEntity
  8
Visible (ANSI)
100
AcDbVertex
100
AcDb2dVertex
 10
175.99389353203
 20
75.63889048887448
 30
0.0
  0
VERTEX
  5
A66
330
A4C
100
AcDbEntity
  8
Visible (ANSI)
100
AcDbVertex
100
AcDb2dVertex
 10
175.993731359352
 20
75.64018687961791
 30
0.0
  0
SEQEND
  5
A4F
330
A4C
100
AcDbEntity
  8
Visible (ANSI)
  0
LINE
  5
A67
330
6C
100
AcDbEntity
  8
Visible (ANSI)
100
AcDbLine
 10
148.977254194483
 20
91.27067528108335
 30
0.0
 11
149.3266643812802
 21
91.47188722559405
 31
0.0
  0
POLYLINE
  5
A68
330
6C
100
AcDbEntity
  8
Visible (ANSI)
100
AcDb2dPolyline
 66
     1
 10
0.0
 20
0.0
 30
0.0
 70
   128
  0
VERTEX
  5
A69
330
A68
100
AcDbEntity
  8
Visible (ANSI)
100
AcDbVertex
100
AcDb2dVertex
 10
148.8735184552466
 20
53.11042362459273
 30
0.0
  0
VERTEX
  5
A6A
330
A68
100
AcDbEntity
  8
Visible (ANSI)
100
AcDbVertex
100
AcDb2dVertex
 10
148.87107382551
 20
53.11254730192507
 30
0.0
  0
VERTEX
  5
A6C
330
A68
100
AcDbEntity
  8
Visible (ANSI)
100
AcDbVertex
100
AcDb2dVertex
 10
148.8687131461977
 20
53.11471626837
 30
0.0
  0
VERTEX
  5
A6D
330
A68
100
AcDbEntity
  8
Visible (ANSI)
100
AcDbVertex
100
AcDb2dVertex
 10
148.8664389555578
 20
53.11692890453224
 30
0.0
  0
VERTEX
  5
A6E
330
A68
100
AcDbEntity
  8
Visible (ANSI)
100
AcDbVertex
100
AcDb2dVertex
 10
148.8642536891681
 20
53.11918356481552
 30
0.0
  0
VERTEX
  5
A6F
330
A68
100
AcDbEntity
  8
Visible (ANSI)
100
AcDbVertex
100
AcDb2dVertex
 10
148.8621596742315
 20
53.12147854775862
 30
0.0
  0
VERTEX
  5
A70
330
A68
100
AcDbEntity
  8
Visible (ANSI)
100
AcDbVertex
100
AcDb2dVertex
 10
148.8601591695038
 20
53.12381211905359
 30
0.0
  0
VERTEX
  5
A71
330
A68
100
AcDbEntity
  8
Visible (ANSI)
100
AcDbVertex
100
AcDb2dVertex
 10
148.8582543025504
 20
53.12618249514781
 30
0.0
  0
VERTEX
  5
A72
330
A68
100
AcDbEntity
  8
Visible (ANSI)
100
AcDbVertex
100
AcDb2dVertex
 10
148.8564471210818
 20
53.12858784642691
 30
0.0
  0
VERTEX
  5
A73
330
A68
100
AcDbEntity
  8
Visible (ANSI)
100
AcDbVertex
100
AcDb2dVertex
 10
148.8547395587299
 20
53.13102631707542
 30
0.0
  0
VERTEX
  5
A74
330
A68
100
AcDbEntity
  8
Visible (ANSI)
100
AcDbVertex
100
AcDb2dVertex
 10
148.8531334407519
 20
53.13349601512104
 30
0.0
  0
VERTEX
  5
A75
330
A68
100
AcDbEntity
  8
Visible (ANSI)
100
AcDbVertex
100
AcDb2dVertex
 10
148.8516304897342
 20
53.13599500917537
 30
0.0
  0
VERTEX
  5
A76
330
A68
100
AcDbEntity
  8
Visible (ANSI)
100
AcDbVertex
100
AcDb2dVertex
 10
148.8502323227407
 20
53.13852134980976
 30
0.0
  0
VERTEX
  5
A77
330
A68
100
AcDbEntity
  8
Visible (ANSI)
100
AcDbVertex
100
AcDb2dVertex
 10
148.8489404227929
 20
53.14107303332208
 30
0.0
  0
VERTEX
  5
A78
330
A68
100
AcDbEntity
  8
Visible (ANSI)
100
AcDbVertex
100
AcDb2dVertex
 10
148.8477561816494
 20
53.14364804951718
 30
0.0
  0
VERTEX
  5
A79
330
A68
100
AcDbEntity
  8
Visible (ANSI)
100
AcDbVertex
100
AcDb2dVertex
 10
148.8466808655824
 20
53.14624435532779
 30
0.0
  0
VERTEX
  5
A7A
330
A68
100
AcDbEntity
  8
Visible (ANSI)
100
AcDbVertex
100
AcDb2dVertex
 10
148.8457156267856
 20
53.14885989454785
 30
0.0
  0
VERTEX
  5
A7B
330
A68
100
AcDbEntity
  8
Visible (ANSI)
100
AcDbVertex
100
AcDb2dVertex
 10
148.8448615033739
 20
53.15149258471941
 30
0.0
  0
VERTEX
  5
A7C
330
A68
100
AcDbEntity
  8
Visible (ANSI)
100
AcDbVertex
100
AcDb2dVertex
 10
148.84411939942
 20
53.1541403088191
 30
0.0
  0
VERTEX
  5
A7D
330
A68
100
AcDbEntity
  8
Visible (ANSI)
100
AcDbVertex
100
AcDb2dVertex
 10
148.8434901134742
 20
53.15680095482687
 30
0.0
  0
VERTEX
  5
A7E
330
A68
100
AcDbEntity
  8
Visible (ANSI)
100
AcDbVertex
100
AcDb2dVertex
 10
148.8429743271557
 20
53.15947239263155
 30
0.0
  0
VERTEX
  5
A7F
330
A68
100
AcDbEntity
  8
Visible (ANSI)
100
AcDbVertex
100
AcDb2dVertex
 10
148.8425725823379
 20
53.16215247734092
 30
0.0
  0
VERTEX
  5
A80
330
A68
100
AcDbEntity
  8
Visible (ANSI)
100
AcDbVertex
100
AcDb2dVertex
 10
148.8422853153712
 20
53.16483905916121
 30
0.0
  0
VERTEX
  5
A81
330
A68
100
AcDbEntity
  8
Visible (ANSI)
100
AcDbVertex
100
AcDb2dVertex
 10
148.842112831416
 20
53.16752996851423
 30
0.0
  0
VERTEX
  5
A82
330
A68
100
AcDbEntity
  8
Visible (ANSI)
100
AcDbVertex
100
AcDb2dVertex
 10
148.8420553172758
 20
53.17022304493103
 30
0.0
  0
SEQEND
  5
A6B
330
A68
100
AcDbEntity
  8
Visible (ANSI)
  0
POLYLINE
  5
A83
330
6C
100
AcDbEntity
  8
Visible (ANSI)
100
AcDb2dPolyline
 66
     1
 10
0.0
 20
0.0
 30
0.0
 70
   128
  0
VERTEX
  5
A84
330
A83
100
AcDbEntity
  8
Visible (ANSI)
100
AcDbVertex
100
AcDb2dVertex
 10
148.8735184552466
 20
91.21047492614499
 30
0.0
  0
VERTEX
  5
A85
330
A83
100
AcDbEntity
  8
Visible (ANSI)
100
AcDbVertex
100
AcDb2dVertex
 10
148.8687131499743
 20
91.20885753578194
 30
0.0
  0
VERTEX
  5
A87
330
A83
100
AcDbEntity
  8
Visible (ANSI)
100
AcDbVertex
100
AcDb2dVertex
 10
148.8642536884105
 20
91.20706886460723
 30
0.0
  0
VERTEX
  5
A88
330
A83
100
AcDbEntity
  8
Visible (ANSI)
100
AcDbVertex
100
AcDb2dVertex
 10
148.8601591670083
 20
91.2051155592351
 30
0.0
  0
VERTEX
  5
A89
330
A83
100
AcDbEntity
  8
Visible (ANSI)
100
AcDbVertex
100
AcDb2dVertex
 10
148.8564471189429
 20
91.20301508632168
 30
0.0
  0
VERTEX
  5
A8A
330
A83
100
AcDbEntity
  8
Visible (ANSI)
100
AcDbVertex
100
AcDb2dVertex
 10
148.8531334403953
 20
91.20078554295611
 30
0.0
  0
VERTEX
  5
A8B
330
A83
100
AcDbEntity
  8
Visible (ANSI)
100
AcDbVertex
100
AcDb2dVertex
 10
148.8502323202452
 20
91.19843546262467
 30
0.0
  0
VERTEX
  5
A8C
330
A83
100
AcDbEntity
  8
Visible (ANSI)
100
AcDbVertex
100
AcDb2dVertex
 10
148.8477561816494
 20
91.19598401129559
 30
0.0
  0
VERTEX
  5
A8D
330
A83
100
AcDbEntity
  8
Visible (ANSI)
100
AcDbVertex
100
AcDb2dVertex
 10
148.8457156289245
 20
91.19344741320624
 30
0.0
  0
VERTEX
  5
A8E
330
A83
100
AcDbEntity
  8
Visible (ANSI)
100
AcDbVertex
100
AcDb2dVertex
 10
148.84411939942
 20
91.19084563147424
 30
0.0
  0
VERTEX
  5
A8F
330
A83
100
AcDbEntity
  8
Visible (ANSI)
100
AcDbVertex
100
AcDb2dVertex
 10
148.8429743243037
 20
91.18818879419249
 30
0.0
  0
VERTEX
  5
A90
330
A83
100
AcDbEntity
  8
Visible (ANSI)
100
AcDbVertex
100
AcDb2dVertex
 10
148.8422853139453
 20
91.18549738160954
 30
0.0
  0
VERTEX
  5
A91
330
A83
100
AcDbEntity
  8
Visible (ANSI)
100
AcDbVertex
100
AcDb2dVertex
 10
148.8420553172758
 20
91.18279202137356
 30
0.0
  0
VERTEX
  5
A92
330
A83
100
AcDbEntity
  8
Visible (ANSI)
100
AcDbVertex
100
AcDb2dVertex
 10
148.8422853153712
 20
91.18008328377682
 30
0.0
  0
VERTEX
  5
A93
330
A83
100
AcDbEntity
  8
Visible (ANSI)
100
AcDbVertex
100
AcDb2dVertex
 10
148.8429743271557
 20
91.177391872015
 30
0.0
  0
VERTEX
  5
A94
330
A83
100
AcDbEntity
  8
Visible (ANSI)
100
AcDbVertex
100
AcDb2dVertex
 10
148.84411939942
 20
91.17473841291525
 30
0.0
  0
VERTEX
  5
A95
330
A83
100
AcDbEntity
  8
Visible (ANSI)
100
AcDbVertex
100
AcDb2dVertex
 10
148.8457156267856
 20
91.17213325341186
 30
0.0
  0
VERTEX
  5
A96
330
A83
100
AcDbEntity
  8
Visible (ANSI)
100
AcDbVertex
100
AcDb2dVertex
 10
148.8477561816494
 20
91.16959665655425
 30
0.0
  0
VERTEX
  5
A97
330
A83
100
AcDbEntity
  8
Visible (ANSI)
100
AcDbVertex
100
AcDb2dVertex
 10
148.8502323227407
 20
91.16714520501988
 30
0.0
  0
VERTEX
  5
A98
330
A83
100
AcDbEntity
  8
Visible (ANSI)
100
AcDbVertex
100
AcDb2dVertex
 10
148.8531334407519
 20
91.16479850163864
 30
0.0
  0
VERTEX
  5
A99
330
A83
100
AcDbEntity
  8
Visible (ANSI)
100
AcDbVertex
100
AcDb2dVertex
 10
148.8564471210818
 20
91.16256558111757
 30
0.0
  0
VERTEX
  5
A9A
330
A83
100
AcDbEntity
  8
Visible (ANSI)
100
AcDbVertex
100
AcDb2dVertex
 10
148.8601591695038
 20
91.1604651085121
 30
0.0
  0
VERTEX
  5
A9B
330
A83
100
AcDbEntity
  8
Visible (ANSI)
100
AcDbVertex
100
AcDb2dVertex
 10
148.8642536891681
 20
91.15851517898672
 30
0.0
  0
VERTEX
  5
A9C
330
A83
100
AcDbEntity
  8
Visible (ANSI)
100
AcDbVertex
100
AcDb2dVertex
 10
148.8687131461976
 20
91.15672313071426
 30
0.0
  0
VERTEX
  5
A9D
330
A83
100
AcDbEntity
  8
Visible (ANSI)
100
AcDbVertex
100
AcDb2dVertex
 10
148.8735184552466
 20
91.15510574170485
 30
0.0
  0
SEQEND
  5
A86
330
A83
100
AcDbEntity
  8
Visible (ANSI)
  0
LINE
  5
A9E
330
6C
100
AcDbEntity
  8
Visible (ANSI)
100
AcDbLine
 10
149.1682334359078
 20
53.32975077363302
 30
0.0
 11
149.2836956312802
 21
53.39624102985967
 31
0.0
  0
LINE
  5
A9F
330
6C
100
AcDbEntity
  8
Visible (ANSI)
100
AcDbLine
 10
148.9324067616368
 20
91.24438640716601
 30
0.0
 11
148.8735184554748
 21
91.2104748870114
 31
0.0
  0
LINE
  5
AA0
330
6C
100
AcDbEntity
  8
Visible (ANSI)
100
AcDbLine
 10
148.8928315881342
 20
91.19935319358679
 30
0.0
 11
148.8735184554748
 21
91.2104748870114
 31
0.0
  0
LINE
  5
AA1
330
6C
100
AcDbEntity
  8
Visible (ANSI)
100
AcDbLine
 10
176.0341707287365
 20
75.57010122178238
 30
0.0
 11
176.0389238596707
 21
75.56695836200249
 31
0.0
  0
LINE
  5
AA2
330
6C
100
AcDbEntity
  8
Visible (ANSI)
100
AcDbLine
 10
175.9933946436006
 20
75.64573610962852
 30
0.0
 11
175.993731359352
 21
75.64018687961791
 31
0.0
  0
LINE
  5
AA3
330
6C
100
AcDbEntity
  8
Visible Narrow (ANSI)
100
AcDbLine
 10
148.8735184554748
 20
53.1104236247292
 30
0.0
 11
175.9452120586404
 21
37.52087209786181
 31
0.0
  0
LINE
  5
AA4
330
6C
100
AcDbEntity
  8
Visible Narrow (ANSI)
100
AcDbLine
 10
176.097129531161
 20
75.53343990600895
 30
0.0
 11
176.097129531161
 21
37.55298748600054
 31
0.0
  0
LINE
  5
AA5
330
6C
100
AcDbEntity
  8
Visible Narrow (ANSI)
100
AcDbLine
 10
175.9452120586404
 20
37.52087209786181
 30
0.0
 11
175.9452120586404
 21
75.56555529414765
 31
0.0
  0
LINE
  5
AA6
330
6C
100
AcDbEntity
  8
Visible Narrow (ANSI)
100
AcDbLine
 10
148.977254194483
 20
91.27067528108335
 30
0.0
 11
175.9933937921528
 21
75.71311517831734
 31
0.0
  0
LINE
  5
AA7
330
6C
100
AcDbEntity
  8
Visible Narrow (ANSI)
100
AcDbLine
 10
175.9452120586404
 20
75.56555529414765
 30
0.0
 11
148.8735184554748
 21
91.15510682101506
 31
0.0
  0
LINE
  5
AA8
330
6C
100
AcDbEntity
  8
Visible Narrow (ANSI)
100
AcDbLine
 10
148.8735184554748
 20
91.15510682101506
 30
0.0
 11
148.8735184554748
 21
53.1104236247292
 31
0.0
  0
LINE
  5
AA9
330
6C
100
AcDbEntity
  8
Visible (ANSI)
100
AcDbLine
 10
148.9097929117739
 20
53.05305778690309
 30
0.0
 11
175.9536411231544
 21
37.47954135471366
 31
0.0
  0
LINE
  5
AAA
330
6C
100
AcDbEntity
  8
Visible (ANSI)
100
AcDbLine
 10
148.842055316735
 20
91.18279085401324
 30
0.0
 11
148.842055316735
 21
53.17022304586611
 31
0.0
  0
LINE
  5
AAB
330
6C
100
AcDbEntity
  8
Visible (ANSI)
100
AcDbLine
 10
175.7192174175603
 20
38.12335661043379
 30
0.0
 11
175.5197288384352
 21
38.23823444293587
 31
0.0
  0
LINE
  5
AAC
330
6C
100
AcDbEntity
  8
Visible (ANSI)
100
AcDbLine
 10
162.5327808027748
 20
45.71692042935685
 30
0.0
 11
162.3332922236497
 21
45.83179826185893
 31
0.0
  0
LINE
  5
AAD
330
6C
100
AcDbEntity
  8
Visible (ANSI)
100
AcDbLine
 10
149.3463441879893
 20
53.3104842482799
 30
0.0
 11
149.3266643812802
 21
53.32181709524645
 31
0.0
  0
LINE
  5
AAE
330
6C
100
AcDbEntity
  8
Visible (ANSI)
100
AcDbLine
 10
176.4465397179582
 20
75.73465185051962
 30
0.0
 11
176.4465397179582
 21
37.75419943051124
 31
0.0
  0
LINE
  5
AAF
330
6C
100
AcDbEntity
  8
Visible (ANSI)
100
AcDbLine
 10
149.3266643812802
 20
91.47188722559405
 30
0.0
 11
176.3428039789499
 21
75.91432712282807
 31
0.0
  0
LINE
  5
AB0
330
6C
100
AcDbEntity
  8
Visible (ANSI)
100
AcDbLine
 10
149.2836956312802
 20
53.39624102985967
 30
0.0
 11
149.2836956312802
 21
53.41996782596246
 31
0.0
  0
LINE
  5
AB1
330
6C
100
AcDbEntity
  8
Visible (ANSI)
100
AcDbLine
 10
149.2836956312802
 20
66.18768925971844
 30
0.0
 11
149.2836956312802
 21
66.41768969357626
 31
0.0
  0
LINE
  5
AB2
330
6C
100
AcDbEntity
  8
Visible (ANSI)
100
AcDbLine
 10
149.2836956312802
 20
71.80832574301089
 30
0.0
 11
149.2836956312802
 21
72.03832617686872
 31
0.0
  0
LINE
  5
AB3
330
6C
100
AcDbEntity
  8
Visible (ANSI)
100
AcDbLine
 10
149.2836956312802
 20
90.42668409391717
 30
0.0
 11
149.2836956312802
 21
90.65668452777499
 31
0.0
  0
DIMENSION
  5
AB4
330
6C
100
AcDbEntity
  8
Dimension (ANSI)
100
AcDbDimension
280
     0
  2
*D11
 10
93.80556789424851
 20
62.65847763798563
 30
0.0
 11
102.1897929492333
 21
70.97554545423935
 31
0.0
 70
   163
  1
<>{\P(10 PL.)}
 42
0.5629999999999999
 73
     0
 74
     0
 75
     0
  3
Default (ANSI)
100
AcDbDiametricDimension
 15
94.02617890884849
 25
63.17645425930859
 35
0.0
 40
0.0
1001
ACAD_DSTYLE_DIMRADIAL_EXTENSION
1070
   387
1070
     1
1070
   388
1040
0.0
1070
   390
1040
0.0
1001
ACAD
1000
DSTYLE
1002
{
1070
   145
1040
-0.25
1070
   144
1040
1.00000000000002
1070
   271
1070
     3
1070
   272
1070
     2
1070
    48
1040
0.0
1070
    47
1040
0.0
1002
}
  0
MTEXT
  5
B6F
102
{ACAD_REACTORS
330
B70
102
}
330
6C
100
AcDbEntity
  8
Symbol (ANSI)
100
AcDbMText
 10
119.4502046012059
 20
44.33204755844047
 30
0.0
 40
1.320000016313838
 41
5.398735896808894
 46
0.0
 71
     3
 72
     1
  1
{10 GA.\P }
  7
Note Text (ANSI)
 73
     2
 44
0.9878841638565063
  0
LEADER
  5
B70
330
6C
100
AcDbEntity
  8
Symbol (ANSI)
100
AcDbLeader
  3
Default (ANSI)$7
 73
     0
 40
3.933345209096401
 41
5.030006745583289
 76
     3
 10
125.3333575491141
 20
39.0059668267774
 30
0.0
 10
121.0982821236691
 20
43.67051983644708
 30
0.0
 10
119.7966612941193
 20
43.67204755028355
 30
0.0
340
B6F
210
0.0
220
0.0
230
-1.0
213
0.0
223
-0.6600000081569191
233
0.0
1001
ACAD
1000
DSTYLE
1002
{
1070
    77
1070
     0
1002
}
  0
LINE
  5
B71
330
6C
100
AcDbEntity
  8
Center Mark (ANSI)
  6
Continuous
100
AcDbLine
 10
41.32237340154852
 20
96.04246594864708
 30
0.0
 11
38.00937340154852
 21
96.04246594864708
 31
0.0
  0
LINE
  5
B72
330
6C
100
AcDbEntity
  8
Center Mark (ANSI)
  6
Continuous
100
AcDbLine
 10
39.66587340154852
 20
97.69896594864707
 30
0.0
 11
39.66587340154852
 21
94.38596594864709
 31
0.0
  0
LINE
  5
B73
330
6C
100
AcDbEntity
  8
Center Mark (ANSI)
  6
Continuous
100
AcDbLine
 10
38.00937340154852
 20
29.7924659486471
 30
0.0
 11
41.32237340154852
 21
29.7924659486471
 31
0.0
  0
LINE
  5
B74
330
6C
100
AcDbEntity
  8
Center Mark (ANSI)
  6
Continuous
100
AcDbLine
 10
38.00937340154852
 20
96.04246594864708
 30
0.0
 11
41.32237340154852
 21
96.04246594864708
 31
0.0
  0
LINE
  5
B75
330
6C
100
AcDbEntity
  8
Centerline (ANSI)
  6
Continuous
100
AcDbLine
 10
39.66587340154852
 20
28.13596594864709
 30
0.0
 11
39.66587340154852
 21
97.69896594864707
 31
0.0
  0
LINE
  5
B76
330
6C
100
AcDbEntity
  8
Center Mark (ANSI)
  6
Continuous
100
AcDbLine
 10
68.44737340154852
 20
96.04246594864708
 30
0.0
 11
65.13437340154851
 21
96.04246594864708
 31
0.0
  0
LINE
  5
B77
330
6C
100
AcDbEntity
  8
Center Mark (ANSI)
  6
Continuous
100
AcDbLine
 10
68.44737340154853
 20
29.7924659486471
 30
0.0
 11
65.13437340154853
 21
29.7924659486471
 31
0.0
  0
LINE
  5
B78
330
6C
100
AcDbEntity
  8
Centerline (ANSI)
  6
Continuous
100
AcDbLine
 10
66.79087340154852
 20
97.69896594864707
 30
0.0
 11
66.79087340154852
 21
28.1359659486471
 31
0.0
  0
LINE
  5
B79
330
6C
100
AcDbEntity
  8
Center Mark (ANSI)
  6
Continuous
100
AcDbLine
 10
92.25937340154853
 20
29.79246594864711
 30
0.0
 11
95.57237340154852
 21
29.79246594864711
 31
0.0
  0
LINE
  5
B7A
330
6C
100
AcDbEntity
  8
Center Mark (ANSI)
  6
Continuous
100
AcDbLine
 10
92.25937340154853
 20
96.04246594864708
 30
0.0
 11
95.57237340154852
 21
96.04246594864708
 31
0.0
  0
LINE
  5
B7B
330
6C
100
AcDbEntity
  8
Centerline (ANSI)
  6
Continuous
100
AcDbLine
 10
93.91587340154853
 20
28.13596594864711
 30
0.0
 11
93.91587340154853
 21
97.69896594864707
 31
0.0
  0
LINE
  5
B7C
330
6C
100
AcDbEntity
  8
Center Mark (ANSI)
  6
Continuous
100
AcDbLine
 10
39.66587340154852
 20
64.5739659486471
 30
0.0
 11
39.66587340154852
 21
61.26096594864709
 31
0.0
  0
LINE
  5
B7D
330
6C
100
AcDbEntity
  8
Center Mark (ANSI)
  6
Continuous
100
AcDbLine
 10
93.91587340154851
 20
64.5739659486471
 30
0.0
 11
93.91587340154851
 21
61.2609659486471
 31
0.0
  0
LINE
  5
B7E
330
6C
100
AcDbEntity
  8
Centerline (ANSI)
  6
Continuous
100
AcDbLine
 10
38.00937340154852
 20
62.9174659486471
 30
0.0
 11
95.5723734015485
 21
62.91746594864711
 31
0.0
  0
LINE
  5
B7F
330
6C
100
AcDbEntity
  8
Center Mark (ANSI)
  6
Continuous
100
AcDbLine
 10
39.66587340154852
 20
31.4489659486471
 30
0.0
 11
39.66587340154852
 21
28.13596594864709
 31
0.0
  0
LINE
  5
B80
330
6C
100
AcDbEntity
  8
Center Mark (ANSI)
  6
Continuous
100
AcDbLine
 10
93.91587340154853
 20
31.4489659486471
 30
0.0
 11
93.91587340154853
 21
28.13596594864711
 31
0.0
  0
LINE
  5
B81
330
6C
100
AcDbEntity
  8
Centerline (ANSI)
  6
Continuous
100
AcDbLine
 10
38.00937340154852
 20
29.7924659486471
 30
0.0
 11
95.57237340154852
 21
29.79246594864711
 31
0.0
  0
LINE
  5
B82
330
6C
100
AcDbEntity
  8
Center Mark (ANSI)
  6
Continuous
100
AcDbLine
 10
39.66587340154852
 20
97.69896594864707
 30
0.0
 11
39.66587340154852
 21
94.38596594864709
 31
0.0
  0
LINE
  5
B83
330
6C
100
AcDbEntity
  8
Center Mark (ANSI)
  6
Continuous
100
AcDbLine
 10
93.91587340154853
 20
97.69896594864707
 30
0.0
 11
93.91587340154853
 21
94.38596594864709
 31
0.0
  0
LINE
  5
B84
330
6C
100
AcDbEntity
  8
Centerline (ANSI)
  6
Continuous
100
AcDbLine
 10
38.00937340154852
 20
96.04246594864708
 30
0.0
 11
95.57237340154852
 21
96.04246594864708
 31
0.0
  0
LINE
  5
B85
330
6C
100
AcDbEntity
  8
Center Mark (ANSI)
  6
Continuous
100
AcDbLine
 10
39.66587340154852
 20
54.57396594864709
 30
0.0
 11
39.66587340154852
 21
51.26096594864709
 31
0.0
  0
LINE
  5
B86
330
6C
100
AcDbEntity
  8
Center Mark (ANSI)
  6
Continuous
100
AcDbLine
 10
93.91587340154849
 20
54.57396594864711
 30
0.0
 11
93.91587340154849
 21
51.2609659486471
 31
0.0
  0
LINE
  5
B87
330
6C
100
AcDbEntity
  8
Centerline (ANSI)
  6
Continuous
100
AcDbLine
 10
38.00937340154852
 20
52.91746594864709
 30
0.0
 11
95.57237340154848
 21
52.91746594864711
 31
0.0
  0
DIMENSION
  5
B88
330
6C
100
AcDbEntity
  8
Dimension (ANSI)
100
AcDbDimension
280
     0
  2
*D12
 10
36.00971687603937
 20
29.7924659486471
 30
0.0
 11
32.88869581339678
 21
25.76049162394357
 31
0.0
 70
   160
  1
<>
 42
0.8749999999999893
 73
     0
 74
     0
 75
     0
  3
Default (ANSI)
100
AcDbAlignedDimension
 13
39.00426174919685
 23
28.91746594864711
 33
0.0
 14
38.00937340154852
 24
29.7924659486471
 34
0.0
 50
90.0
100
AcDbRotatedDimension
1001
ACAD
1000
DSTYLE
1002
{
1070
   289
1070
     1
1070
   271
1070
     2
1070
   272
1070
     2
1070
    48
1040
0.0
1070
    47
1040
0.0
1002
}
  0
DIMENSION
  5
C88
330
6C
100
AcDbEntity
  8
Dimension (ANSI)
100
AcDbDimension
280
     0
  2
*D13
 10
39.66587340154852
 20
100.3801829598395
 30
0.0
 11
34.02775656171537
 21
100.3801829598395
 31
0.0
 70
   160
  1
<>
 42
0.875
 73
     0
 74
     0
 75
     0
  3
Default (ANSI)
100
AcDbAlignedDimension
 13
38.79087340154852
 23
96.70407760099877
 33
0.0
 14
39.66587340154852
 24
97.69896594864707
 34
0.0
100
AcDbRotatedDimension
1001
ACAD
1000
DSTYLE
1002
{
1070
   289
1070
     1
1070
    73
1070
     0
1070
    74
1070
     0
1070
   271
1070
     2
1070
   272
1070
     2
1070
    48
1040
0.0
1070
    47
1040
0.0
1002
}
  0
DIMENSION
  5
D72
330
6C
100
AcDbEntity
  8
Dimension (ANSI)
100
AcDbDimension
280
     0
  2
*D14
 10
99.90308206296584
 20
52.91746594864711
 30
0.0
 11
99.90308206296582
 21
57.91746594864711
 31
0.0
 70
   160
  1
<>
 42
10.0
 73
     0
 74
     0
 75
     0
  3
Default (ANSI)
100
AcDbAlignedDimension
 13
95.5723734015485
 23
62.91746594864711
 33
0.0
 14
95.57237340154848
 24
52.91746594864711
 34
0.0
 50
270.0
100
AcDbRotatedDimension
1001
ACAD
1000
DSTYLE
1002
{
1070
   289
1070
     1
1070
   271
1070
     2
1070
   272
1070
     2
1070
    48
1040
0.0
1070
    47
1040
0.0
1002
}
  0
MTEXT
  5
E5C
102
{ACAD_XDICTIONARY
360
E63
102
}
330
6C
100
AcDbEntity
  8
Symbol (ANSI)
100
AcDbMText
 10
103.6799159004715
 20
9.11322089244026
 30
0.0
 40
1.100000035105727
 41
81.21725818303627
 46
0.0
 71
     4
 72
     1
  3
{\fRomanS|b0|i0|c0|p2;\H2x;PART#: NPDD7260G\P(DATA SUBJECT TO CHANGE WITHOUT NOTICE)\H1.6157x; \H0.61894x;\P \H1.352x; \H0.73963x;\P\H0.6x;THIS DRAWING IS PROPERTY OF HUBBELL INC. WIEGMANN\H1.5633x; \H0.63966x;\PALL INFORMATION IS PROPRIETARY AND NOT
  1
 TO BE DUPLICATED\H1.234x; \H0.81039x;\P\H1.2571x; }
  7
Note Text (ANSI)
 73
     1
 44
0.8026435375213623
  0
ENDSEC
  0
SECTION
  2
OBJECTS
  0
DICTIONARY
  5
C
330
0
100
AcDbDictionary
281
     1
  3
ACAD_CIP_PREVIOUS_PRODUCT_INFO
350
E5E
  3
ACAD_COLOR
350
63
  3
ACAD_GROUP
350
D
  3
ACAD_LAYOUT
350
62
  3
ACAD_MATERIAL
350
10
  3
ACAD_MLEADERSTYLE
350
66
  3
ACAD_MLINESTYLE
350
5F
  3
ACAD_PLOTSETTINGS
350
61
  3
ACAD_PLOTSTYLENAME
350
E
  3
ACAD_SCALELIST
350
42
  3
ACAD_TABLESTYLE
350
64
  3
ACAD_VISUALSTYLE
350
29
  3
ACDB_RECOMPOSE_DATA
350
E65
  3
AcDbVariableDictionary
350
76
  0
DICTIONARY
  5
E63
330
E5C
100
AcDbDictionary
280
     1
281
     1
  3
ACAD_MTEXT_2008_RT
360
E64
  0
XRECORD
  5
E5E
102
{ACAD_REACTORS
330
C
102
}
330
C
100
AcDbXrecord
280
     1
300
INVNTOR
300
2012
300
PDSP_F_S
  0
DICTIONARY
  5
63
102
{ACAD_REACTORS
330
C
102
}
330
C
100
AcDbDictionary
281
     1
  0
DICTIONARY
  5
D
102
{ACAD_REACTORS
330
C
102
}
330
C
100
AcDbDictionary
281
     1
  0
DICTIONARY
  5
62
102
{ACAD_REACTORS
330
C
102
}
330
C
100
AcDbDictionary
281
     1
  3
Layout1
350
6B
  3
Layout2
350
73
  3
Model
350
6F
  0
DICTIONARY
  5
10
102
{ACAD_REACTORS
330
C
102
}
330
C
100
AcDbDictionary
281
     1
  3
ByBlock
350
19
  3
ByLayer
350
11
  3
Global
350
21
  0
DICTIONARY
  5
66
102
{ACAD_REACTORS
330
C
102
}
330
C
100
AcDbDictionary
281
     1
  3
Standard
350
67
  0
DICTIONARY
  5
5F
102
{ACAD_REACTORS
330
C
102
}
330
C
100
AcDbDictionary
281
     1
  3
Standard
350
60
  0
DICTIONARY
  5
61
102
{ACAD_REACTORS
330
C
102
}
330
C
100
AcDbDictionary
281
     1
  0
ACDBDICTIONARYWDFLT
  5
E
102
{ACAD_REACTORS
330
C
102
}
330
C
100
AcDbDictionary
281
     1
  3
Normal
350
F
100
AcDbDictionaryWithDefault
340
F
  0
DICTIONARY
  5
42
102
{ACAD_REACTORS
330
C
102
}
330
C
100
AcDbDictionary
281
     1
  3
A0
350
43
  3
A1
350
44
  3
A2
350
45
  3
A3
350
46
  3
A4
350
47
  3
A5
350
48
  3
A6
350
49
  3
A7
350
4A
  3
A8
350
4B
  3
A9
350
4C
  3
B0
350
4D
  3
B1
350
4E
  3
B2
350
4F
  3
B3
350
50
  3
B4
350
51
  3
B5
350
52
  3
B6
350
53
  0
DICTIONARY
  5
64
102
{ACAD_REACTORS
330
C
102
}
330
C
100
AcDbDictionary
281
     1
  3
Standard
350
65
  0
DICTIONARY
  5
29
102
{ACAD_REACTORS
330
C
102
}
330
C
100
AcDbDictionary
281
     1
  3
2dWireframe
350
2F
  3
Basic
350
2E
  3
Brighten
350
35
  3
ColorChange
350
39
  3
Conceptual
350
32
  3
Dim
350
34
  3
EdgeColorOff
350
41
  3
Facepattern
350
38
  3
Flat
350
2A
  3
FlatWithEdges
350
2B
  3
Gouraud
350
2C
  3
GouraudWithEdges
350
2D
  3
Hidden
350
31
  3
JitterOff
350
3F
  3
Linepattern
350
37
  3
OverhangOff
350
40
  3
Realistic
350
33
  3
Shaded
350
3E
  3
Shaded with edges
350
3D
  3
Shades of Gray
350
3A
  3
Sketchy
350
3B
  3
Thicken
350
36
  3
Wireframe
350
30
  3
X-Ray
350
3C
  0
XRECORD
  5
E65
102
{ACAD_REACTORS
330
C
102
}
330
C
100
AcDbXrecord
280
     1
 90
        1
330
65
330
E5C
  0
DICTIONARY
  5
76
102
{ACAD_REACTORS
330
C
102
}
330
C
100
AcDbDictionary
281
     1
  3
CANNOSCALE
350
79
  3
CMLEADERSTYLE
350
78
  3
CTABLESTYLE
350
77
  0
XRECORD
  5
E64
102
{ACAD_REACTORS
330
E63
102
}
330
E63
100
AcDbXrecord
280
     1
 40
3089011.0
  1
\pxsm0.94;{\fRomanS|b0|i0;\H2.2000;PART#: NPDD7260G\P(DATA SUBJECT TO CHANGE WITHOUT NOTICE)\P \P\fRomanS|b0|i0;\H1.3200;THIS DRAWING IS PROPERTY OF HUBBELL INC. WIEGMANN\PALL INFORMATION IS PROPRIETARY AND NOT TO BE DUPLICATED\P}
  0
LAYOUT
  5
6B
102
{ACAD_REACTORS
330
62
102
}
330
62
100
AcDbPlotSettings
  1

  2

  4

  6

 40
0.0
 41
0.0
 42
0.0
 43
0.0
 44
0.0
 45
0.0
 46
0.0
 47
0.0
 48
0.0
 49
0.0
140
0.0
141
0.0
142
1.0
143
1.0
 70
   688
 72
     0
 73
     0
 74
     5
  7

 75
    16
147
1.0
 76
     0
 77
     2
 78
   300
148
0.0
149
0.0
100
AcDbLayout
  1
Layout1
 70
     1
 71
     1
 10
0.0
 20
0.0
 11
12.0
 21
9.0
 12
0.0
 22
0.0
 32
0.0
 14
0.0
 24
0.0
 34
0.0
 15
0.0
 25
0.0
 35
0.0
146
0.0
 13
0.0
 23
0.0
 33
0.0
 16
1.0
 26
0.0
 36
0.0
 17
0.0
 27
1.0
 37
0.0
 76
     0
330
68
  0
LAYOUT
  5
73
102
{ACAD_REACTORS
330
62
102
}
330
62
100
AcDbPlotSettings
  1

  2

  4

  6

 40
0.0
 41
0.0
 42
0.0
 43
0.0
 44
0.0
 45
0.0
 46
0.0
 47
0.0
 48
0.0
 49
0.0
140
0.0
141
0.0
142
1.0
143
1.0
 70
   688
 72
     0
 73
     0
 74
     5
  7

 75
    16
147
1.0
 76
     0
 77
     2
 78
   300
148
0.0
149
0.0
100
AcDbLayout
  1
Layout2
 70
     1
 71
     2
 10
0.0
 20
0.0
 11
12.0
 21
9.0
 12
0.0
 22
0.0
 32
0.0
 14
0.0
 24
0.0
 34
0.0
 15
0.0
 25
0.0
 35
0.0
146
0.0
 13
0.0
 23
0.0
 33
0.0
 16
1.0
 26
0.0
 36
0.0
 17
0.0
 27
1.0
 37
0.0
 76
     0
330
70
  0
LAYOUT
  5
6F
102
{ACAD_REACTORS
330
62
102
}
330
62
100
AcDbPlotSettings
  1

  2

  4

  6

 40
0.0
 41
0.0
 42
0.0
 43
0.0
 44
0.0
 45
0.0
 46
0.0
 47
0.0
 48
0.0
 49
0.0
140
0.0
141
0.0
142
1.0
143
1.0
 70
  1712
 72
     0
 73
     0
 74
     0
  7

 75
     0
147
1.0
 76
     0
 77
     2
 78
   300
148
0.0
149
0.0
100
AcDbLayout
  1
Model
 70
     1
 71
     0
 10
0.0
 20
0.0
 11
12.0
 21
9.0
 12
0.0
 22
0.0
 32
0.0
 14
0.0
 24
0.0
 34
0.0
 15
0.0
 25
0.0
 35
0.0
146
0.0
 13
0.0
 23
0.0
 33
0.0
 16
1.0
 26
0.0
 36
0.0
 17
0.0
 27
1.0
 37
0.0
 76
     0
330
6C
  0
MATERIAL
  5
19
102
{ACAD_XDICTIONARY
360
1A
102
}
102
{ACAD_REACTORS
330
10
102
}
330
10
100
AcDbMaterial
  1
ByBlock
 72
     0
 43
0.0208333333333333
 43
0.0
 43
0.0
 43
0.0
 43
0.0
 43
0.0208333333333333
 43
0.0
 43
0.0
 43
0.0
 43
0.0
 43
1.0
 43
0.0
 43
0.0
 43
0.0
 43
0.0
 43
1.0
 77
     0
 47
0.0208333333333333
 47
0.0
 47
0.0
 47
0.0
 47
0.0
 47
0.0208333333333333
 47
0.0
 47
0.0
 47
0.0
 47
0.0
 47
1.0
 47
0.0
 47
0.0
 47
0.0
 47
0.0
 47
1.0
171
     0
 49
0.0208333333333333
 49
0.0
 49
0.0
 49
0.0
 49
0.0
 49
0.0208333333333333
 49
0.0
 49
0.0
 49
0.0
 49
0.0
 49
1.0
 49
0.0
 49
0.0
 49
0.0
 49
0.0
 49
1.0
175
     0
142
0.0208333333333333
142
0.0
142
0.0
142
0.0
142
0.0
142
0.0208333333333333
142
0.0
142
0.0
142
0.0
142
0.0
142
1.0
142
0.0
142
0.0
142
0.0
142
0.0
142
1.0
179
     0
144
0.0208333333333333
144
0.0
144
0.0
144
0.0
144
0.0
144
0.0208333333333333
144
0.0
144
0.0
144
0.0
144
0.0
144
1.0
144
0.0
144
0.0
144
0.0
144
0.0
144
1.0
147
0.0208333333333333
147
0.0
147
0.0
147
0.0
147
0.0
147
0.0208333333333333
147
0.0
147
0.0
147
0.0
147
0.0
147
1.0
147
0.0
147
0.0
147
0.0
147
0.0
147
1.0
  0
MATERIAL
  5
11
102
{ACAD_XDICTIONARY
360
12
102
}
102
{ACAD_REACTORS
330
10
102
}
330
10
100
AcDbMaterial
  1
ByLayer
 72
     0
 43
0.0208333333333333
 43
0.0
 43
0.0
 43
0.0
 43
0.0
 43
0.0208333333333333
 43
0.0
 43
0.0
 43
0.0
 43
0.0
 43
1.0
 43
0.0
 43
0.0
 43
0.0
 43
0.0
 43
1.0
 77
     0
 47
0.0208333333333333
 47
0.0
 47
0.0
 47
0.0
 47
0.0
 47
0.0208333333333333
 47
0.0
 47
0.0
 47
0.0
 47
0.0
 47
1.0
 47
0.0
 47
0.0
 47
0.0
 47
0.0
 47
1.0
171
     0
 49
0.0208333333333333
 49
0.0
 49
0.0
 49
0.0
 49
0.0
 49
0.0208333333333333
 49
0.0
 49
0.0
 49
0.0
 49
0.0
 49
1.0
 49
0.0
 49
0.0
 49
0.0
 49
0.0
 49
1.0
175
     0
142
0.0208333333333333
142
0.0
142
0.0
142
0.0
142
0.0
142
0.0208333333333333
142
0.0
142
0.0
142
0.0
142
0.0
142
1.0
142
0.0
142
0.0
142
0.0
142
0.0
142
1.0
179
     0
144
0.0208333333333333
144
0.0
144
0.0
144
0.0
144
0.0
144
0.0208333333333333
144
0.0
144
0.0
144
0.0
144
0.0
144
1.0
144
0.0
144
0.0
144
0.0
144
0.0
144
1.0
147
0.0208333333333333
147
0.0
147
0.0
147
0.0
147
0.0
147
0.0208333333333333
147
0.0
147
0.0
147
0.0
147
0.0
147
1.0
147
0.0
147
0.0
147
0.0
147
0.0
147
1.0
  0
MATERIAL
  5
21
102
{ACAD_XDICTIONARY
360
22
102
}
102
{ACAD_REACTORS
330
10
102
}
330
10
100
AcDbMaterial
  1
Global
 72
     0
 43
0.0208333333333333
 43
0.0
 43
0.0
 43
0.0
 43
0.0
 43
0.0208333333333333
 43
0.0
 43
0.0
 43
0.0
 43
0.0
 43
1.0
 43
0.0
 43
0.0
 43
0.0
 43
0.0
 43
1.0
 77
     0
 47
0.0208333333333333
 47
0.0
 47
0.0
 47
0.0
 47
0.0
 47
0.0208333333333333
 47
0.0
 47
0.0
 47
0.0
 47
0.0
 47
1.0
 47
0.0
 47
0.0
 47
0.0
 47
0.0
 47
1.0
171
     0
 49
0.0208333333333333
 49
0.0
 49
0.0
 49
0.0
 49
0.0
 49
0.0208333333333333
 49
0.0
 49
0.0
 49
0.0
 49
0.0
 49
1.0
 49
0.0
 49
0.0
 49
0.0
 49
0.0
 49
1.0
175
     0
142
0.0208333333333333
142
0.0
142
0.0
142
0.0
142
0.0
142
0.0208333333333333
142
0.0
142
0.0
142
0.0
142
0.0
142
1.0
142
0.0
142
0.0
142
0.0
142
0.0
142
1.0
179
     0
144
0.0208333333333333
144
0.0
144
0.0
144
0.0
144
0.0
144
0.0208333333333333
144
0.0
144
0.0
144
0.0
144
0.0
144
1.0
144
0.0
144
0.0
144
0.0
144
0.0
144
1.0
147
0.0208333333333333
147
0.0
147
0.0
147
0.0
147
0.0
147
0.0208333333333333
147
0.0
147
0.0
147
0.0
147
0.0
147
1.0
147
0.0
147
0.0
147
0.0
147
0.0
147
1.0
  0
MLEADERSTYLE
  5
67
102
{ACAD_XDICTIONARY
360
E61
102
}
102
{ACAD_REACTORS
330
66
102
}
330
66
100
AcDbMLeaderStyle
179
     2
170
     2
171
     1
172
     0
 90
        2
 40
0.0
 41
0.0
173
     1
 91
-1056964608
340
5B
 92
       -2
290
     1
 42
0.09
291
     1
 43
0.36
  3
Standard
 44
0.18
300

342
55
174
     1
178
     6
175
     1
176
     0
 93
-1056964608
 45
0.18
292
     0
297
     0
 46
0.18
 94
-1056964608
 47
1.0
 49
1.0
140
1.0
293
     1
141
0.0
294
     1
177
     0
142
1.0
295
     0
296
     0
143
0.125
271
     0
272
     9
273
     9
  0
MLINESTYLE
  5
60
102
{ACAD_REACTORS
330
5F
102
}
330
5F
100
AcDbMlineStyle
  2
STANDARD
 70
     0
  3

 62
   256
 51
90.0
 52
90.0
 71
     2
 49
0.5
 62
   256
  6
BYLAYER
 49
-0.5
 62
   256
  6
BYLAYER
  0
ACDBPLACEHOLDER
  5
F
102
{ACAD_REACTORS
330
E
102
}
330
E
  0
SCALE
  5
43
102
{ACAD_REACTORS
330
42
102
}
330
42
100
AcDbScale
 70
     0
300
1:1
140
1.0
141
1.0
290
     1
  0
SCALE
  5
44
102
{ACAD_REACTORS
330
42
102
}
330
42
100
AcDbScale
 70
     0
300
1/128" = 1'-0"
140
0.0078125
141
12.0
290
     0
  0
SCALE
  5
45
102
{ACAD_REACTORS
330
42
102
}
330
42
100
AcDbScale
 70
     0
300
1/64" = 1'-0"
140
0.015625
141
12.0
290
     0
  0
SCALE
  5
46
102
{ACAD_REACTORS
330
42
102
}
330
42
100
AcDbScale
 70
     0
300
1/32" = 1'-0"
140
0.03125
141
12.0
290
     0
  0
SCALE
  5
47
102
{ACAD_REACTORS
330
42
102
}
330
42
100
AcDbScale
 70
     0
300
1/16" = 1'-0"
140
0.0625
141
12.0
290
     0
  0
SCALE
  5
48
102
{ACAD_REACTORS
330
42
102
}
330
42
100
AcDbScale
 70
     0
300
3/32" = 1'-0"
140
0.09375
141
12.0
290
     0
  0
SCALE
  5
49
102
{ACAD_REACTORS
330
42
102
}
330
42
100
AcDbScale
 70
     0
300
1/8" = 1'-0"
140
0.125
141
12.0
290
     0
  0
SCALE
  5
4A
102
{ACAD_REACTORS
330
42
102
}
330
42
100
AcDbScale
 70
     0
300
3/16" = 1'-0"
140
0.1875
141
12.0
290
     0
  0
SCALE
  5
4B
102
{ACAD_REACTORS
330
42
102
}
330
42
100
AcDbScale
 70
     0
300
1/4" = 1'-0"
140
0.25
141
12.0
290
     0
  0
SCALE
  5
4C
102
{ACAD_REACTORS
330
42
102
}
330
42
100
AcDbScale
 70
     0
300
3/8" = 1'-0"
140
0.375
141
12.0
290
     0
  0
SCALE
  5
4D
102
{ACAD_REACTORS
330
42
102
}
330
42
100
AcDbScale
 70
     0
300
1/2" = 1'-0"
140
0.5
141
12.0
290
     0
  0
SCALE
  5
4E
102
{ACAD_REACTORS
330
42
102
}
330
42
100
AcDbScale
 70
     0
300
3/4" = 1'-0"
140
0.75
141
12.0
290
     0
  0
SCALE
  5
4F
102
{ACAD_REACTORS
330
42
102
}
330
42
100
AcDbScale
 70
     0
300
1" = 1'-0"
140
1.0
141
12.0
290
     0
  0
SCALE
  5
50
102
{ACAD_REACTORS
330
42
102
}
330
42
100
AcDbScale
 70
     0
300
1-1/2" = 1'-0"
140
1.5
141
12.0
290
     0
  0
SCALE
  5
51
102
{ACAD_REACTORS
330
42
102
}
330
42
100
AcDbScale
 70
     0
300
3" = 1'-0"
140
3.0
141
12.0
290
     0
  0
SCALE
  5
52
102
{ACAD_REACTORS
330
42
102
}
330
42
100
AcDbScale
 70
     0
300
6" = 1'-0"
140
6.0
141
12.0
290
     0
  0
SCALE
  5
53
102
{ACAD_REACTORS
330
42
102
}
330
42
100
AcDbScale
 70
     0
300
1'-0" = 1'-0"
140
12.0
141
12.0
290
     0
  0
TABLESTYLE
  5
65
102
{ACAD_XDICTIONARY
360
E5F
102
}
102
{ACAD_REACTORS
330
64
102
}
330
64
100
AcDbTableStyle
280
     0
  3
Standard
 70
     0
 71
     0
 40
0.06
 41
0.06
280
     0
281
     0
  7
Standard
140
0.18
170
     2
 62
     0
 63
     7
283
     0
 90
      512
 91
        0
  1

274
    -2
284
     1
 64
     0
275
    -2
285
     1
 65
     0
276
    -2
286
     1
 66
     0
277
    -2
287
     1
 67
     0
278
    -2
288
     1
 68
     0
279
    -2
289
     1
 69
     0
  7
Standard
140
0.25
170
     5
 62
     0
 63
     7
283
     0
 90
      512
 91
        0
  1

274
    -2
284
     1
 64
     0
275
    -2
285
     1
 65
     0
276
    -2
286
     1
 66
     0
277
    -2
287
     1
 67
     0
278
    -2
288
     1
 68
     0
279
    -2
289
     1
 69
     0
  7
Standard
140
0.18
170
     5
 62
     0
 63
     7
283
     0
 90
      512
 91
        0
  1

274
    -2
284
     1
 64
     0
275
    -2
285
     1
 65
     0
276
    -2
286
     1
 66
     0
277
    -2
287
     1
 67
     0
278
    -2
288
     1
 68
     0
279
    -2
289
     1
 69
     0
  0
VISUALSTYLE
  5
2F
102
{ACAD_REACTORS
330
29
102
}
330
29
100
AcDbVisualStyle
  2
2dWireframe
 70
     4
177
     2
291
     0
 71
     0
176
     1
 72
     2
176
     1
 73
     0
176
     1
 90
        0
176
     1
 40
0.6
176
     1
 41
30.0
176
     1
 63
     7
421
 16777215
176
     1
 74
     1
176
     1
 91
        4
176
     1
 64
     7
176
     1
 65
   257
176
     1
 75
     1
176
     1
175
     1
176
     1
 42
1.0
176
     1
 92
        0
176
     1
 66
   257
176
     1
 43
1.0
176
     1
 76
     1
176
     1
 77
     6
176
     1
 78
     2
176
     1
 67
     7
176
     1
 79
     5
176
     1
170
     0
176
     1
171
     0
176
     1
290
     0
176
     1
 93
        1
176
     1
 44
0.0
176
     1
173
     0
176
     1
  0
VISUALSTYLE
  5
2E
102
{ACAD_REACTORS
330
29
102
}
330
29
100
AcDbVisualStyle
  2
Basic
 70
     7
177
     2
291
     1
 71
     1
176
     1
 72
     0
176
     1
 73
     1
176
     1
 90
        0
176
     1
 40
0.6
176
     1
 41
30.0
176
     1
 63
     7
421
 16777215
176
     1
 74
     0
176
     1
 91
        4
176
     1
 64
     7
176
     1
 65
   257
176
     1
 75
     1
176
     1
175
     1
176
     1
 42
1.0
176
     1
 92
        8
176
     1
 66
     7
176
     1
 43
1.0
176
     1
 76
     1
176
     1
 77
     6
176
     1
 78
     2
176
     1
 67
     7
176
     1
 79
     5
176
     1
170
     0
176
     1
171
     0
176
     1
290
     0
176
     1
 93
        1
176
     1
 44
0.0
176
     1
173
     0
176
     1
  0
VISUALSTYLE
  5
35
102
{ACAD_REACTORS
330
29
102
}
330
29
100
AcDbVisualStyle
  2
Brighten
 70
    12
177
     2
291
     1
 71
     2
176
     1
 72
     2
176
     1
 73
     0
176
     1
 90
        0
176
     1
 40
0.6
176
     1
 41
30.0
176
     1
 63
     7
421
 16777215
176
     1
 74
     1
176
     1
 91
        4
176
     1
 64
     7
176
     1
 65
   257
176
     1
 75
     1
176
     1
175
     1
176
     1
 42
1.0
176
     1
 92
        8
176
     1
 66
     7
176
     1
 43
1.0
176
     1
 76
     1
176
     1
 77
     6
176
     1
 78
     2
176
     1
 67
     7
176
     1
 79
     5
176
     1
170
     0
176
     1
171
     0
176
     1
290
     0
176
     1
 93
        1
176
     1
 44
50.0
176
     1
173
     0
176
     1
  0
VISUALSTYLE
  5
39
102
{ACAD_REACTORS
330
29
102
}
330
29
100
AcDbVisualStyle
  2
ColorChange
 70
    16
177
     2
291
     1
 71
     2
176
     1
 72
     2
176
     1
 73
     3
176
     1
 90
        0
176
     1
 40
0.6
176
     1
 41
30.0
176
     1
 63
     8
421
  8421504
176
     1
 74
     1
176
     1
 91
        4
176
     1
 64
     7
176
     1
 65
   257
176
     1
 75
     1
176
     1
175
     1
176
     1
 42
1.0
176
     1
 92
        8
176
     1
 66
     8
424
  8421504
176
     1
 43
1.0
176
     1
 76
     1
176
     1
 77
     6
176
     1
 78
     2
176
     1
 67
     7
176
     1
 79
     5
176
     1
170
     0
176
     1
171
     0
176
     1
290
     0
176
     1
 93
        1
176
     1
 44
0.0
176
     1
173
     0
176
     1
  0
VISUALSTYLE
  5
32
102
{ACAD_REACTORS
330
29
102
}
330
29
100
AcDbVisualStyle
  2
Conceptual
 70
     9
177
     2
291
     0
 71
     3
176
     1
 72
     2
176
     1
 73
     0
176
     1
 90
        0
176
     1
 40
0.6
176
     1
 41
30.0
176
     1
 63
     7
421
 16777215
176
     1
 74
     2
176
     1
 91
        2
176
     1
 64
     7
176
     1
 65
   257
176
     1
 75
     1
176
     1
175
     1
176
     1
 42
179.0
176
     1
 92
        8
176
     1
 66
     7
176
     1
 43
1.0
176
     1
 76
     1
176
     1
 77
     6
176
     1
 78
     2
176
     1
 67
     7
176
     1
 79
     3
176
     1
170
     0
176
     1
171
     0
176
     1
290
     0
176
     1
 93
        1
176
     1
 44
0.0
176
     1
173
     0
176
     1
  0
VISUALSTYLE
  5
34
102
{ACAD_REACTORS
330
29
102
}
330
29
100
AcDbVisualStyle
  2
Dim
 70
    11
177
     2
291
     1
 71
     2
176
     1
 72
     2
176
     1
 73
     0
176
     1
 90
        0
176
     1
 40
0.6
176
     1
 41
30.0
176
     1
 63
     7
421
 16777215
176
     1
 74
     1
176
     1
 91
        4
176
     1
 64
     7
176
     1
 65
   257
176
     1
 75
     1
176
     1
175
     1
176
     1
 42
1.0
176
     1
 92
        8
176
     1
 66
     7
176
     1
 43
1.0
176
     1
 76
     1
176
     1
 77
     6
176
     1
 78
     2
176
     1
 67
     7
176
     1
 79
     5
176
     1
170
     0
176
     1
171
     0
176
     1
290
     0
176
     1
 93
        1
176
     1
 44
-50.0
176
     1
173
     0
176
     1
  0
VISUALSTYLE
  5
41
102
{ACAD_REACTORS
330
29
102
}
330
29
100
AcDbVisualStyle
  2
EdgeColorOff
 70
    22
177
     2
291
     1
 71
     2
176
     0
 72
     2
176
     0
 73
     0
176
     0
 90
        0
176
     0
 40
0.6
176
     0
 41
30.0
176
     0
 63
     7
421
 16777215
176
     0
 74
     1
176
     0
 91
        4
176
     0
 64
     7
176
     0
 65
   257
176
     0
 75
     1
176
     0
175
     1
176
     0
 42
1.0
176
     0
 92
        8
176
     2
 66
     7
176
     0
 43
1.0
176
     0
 76
     1
176
     0
 77
     6
176
     0
 78
     2
176
     0
 67
     7
176
     0
 79
     5
176
     0
170
     0
176
     0
171
     0
176
     0
290
     0
176
     0
 93
        1
176
     0
 44
0.0
176
     0
173
     0
176
     0
  0
VISUALSTYLE
  5
38
102
{ACAD_REACTORS
330
29
102
}
330
29
100
AcDbVisualStyle
  2
Facepattern
 70
    15
177
     2
291
     1
 71
     2
176
     1
 72
     2
176
     1
 73
     0
176
     1
 90
        0
176
     1
 40
0.6
176
     1
 41
30.0
176
     1
 63
     7
421
 16777215
176
     1
 74
     1
176
     1
 91
        4
176
     1
 64
     7
176
     1
 65
   257
176
     1
 75
     1
176
     1
175
     1
176
     1
 42
1.0
176
     1
 92
        8
176
     1
 66
     7
176
     1
 43
1.0
176
     1
 76
     1
176
     1
 77
     6
176
     1
 78
     2
176
     1
 67
     7
176
     1
 79
     5
176
     1
170
     0
176
     1
171
     0
176
     1
290
     0
176
     1
 93
        1
176
     1
 44
0.0
176
     1
173
     0
176
     1
  0
VISUALSTYLE
  5
2A
102
{ACAD_REACTORS
330
29
102
}
330
29
100
AcDbVisualStyle
  2
Flat
 70
     0
177
     2
291
     1
 71
     2
176
     1
 72
     1
176
     1
 73
     1
176
     1
 90
        2
176
     1
 40
0.6
176
     1
 41
30.0
176
     1
 63
     7
421
 16777215
176
     1
 74
     0
176
     1
 91
        0
176
     1
 64
     7
176
     1
 65
   257
176
     1
 75
     1
176
     1
175
     1
176
     1
 42
1.0
176
     1
 92
        8
176
     1
 66
     7
176
     1
 43
1.0
176
     1
 76
     1
176
     1
 77
     6
176
     1
 78
     2
176
     1
 67
     7
176
     1
 79
     5
176
     1
170
     0
176
     1
171
     0
176
     1
290
     0
176
     1
 93
       13
176
     1
 44
0.0
176
     1
173
     0
176
     1
  0
VISUALSTYLE
  5
2B
102
{ACAD_REACTORS
330
29
102
}
330
29
100
AcDbVisualStyle
  2
FlatWithEdges
 70
     1
177
     2
291
     1
 71
     2
176
     1
 72
     1
176
     1
 73
     1
176
     1
 90
        2
176
     1
 40
0.6
176
     1
 41
30.0
176
     1
 63
     7
421
 16777215
176
     1
 74
     1
176
     1
 91
        0
176
     1
 64
     7
176
     1
 65
   257
176
     1
 75
     1
176
     1
175
     1
176
     1
 42
1.0
176
     1
 92
        0
176
     1
 66
   257
176
     1
 43
1.0
176
     1
 76
     1
176
     1
 77
     6
176
     1
 78
     2
176
     1
 67
     7
176
     1
 79
     5
176
     1
170
     0
176
     1
171
     0
176
     1
290
     0
176
     1
 93
       13
176
     1
 44
0.0
176
     1
173
     0
176
     1
  0
VISUALSTYLE
  5
2C
102
{ACAD_REACTORS
330
29
102
}
330
29
100
AcDbVisualStyle
  2
Gouraud
 70
     2
177
     2
291
     1
 71
     2
176
     1
 72
     2
176
     1
 73
     1
176
     1
 90
        2
176
     1
 40
0.6
176
     1
 41
30.0
176
     1
 63
     7
421
 16777215
176
     1
 74
     0
176
     1
 91
        0
176
     1
 64
     7
176
     1
 65
   257
176
     1
 75
     1
176
     1
175
     1
176
     1
 42
1.0
176
     1
 92
        0
176
     1
 66
     7
176
     1
 43
1.0
176
     1
 76
     1
176
     1
 77
     6
176
     1
 78
     2
176
     1
 67
     7
176
     1
 79
     5
176
     1
170
     0
176
     1
171
     0
176
     1
290
     0
176
     1
 93
       13
176
     1
 44
0.0
176
     1
173
     0
176
     1
  0
VISUALSTYLE
  5
2D
102
{ACAD_REACTORS
330
29
102
}
330
29
100
AcDbVisualStyle
  2
GouraudWithEdges
 70
     3
177
     2
291
     1
 71
     2
176
     1
 72
     2
176
     1
 73
     1
176
     1
 90
        2
176
     1
 40
0.6
176
     1
 41
30.0
176
     1
 63
     7
421
 16777215
176
     1
 74
     1
176
     1
 91
        0
176
     1
 64
     7
176
     1
 65
   257
176
     1
 75
     1
176
     1
175
     1
176
     1
 42
1.0
176
     1
 92
        0
176
     1
 66
   257
176
     1
 43
1.0
176
     1
 76
     1
176
     1
 77
     6
176
     1
 78
     2
176
     1
 67
     7
176
     1
 79
     5
176
     1
170
     0
176
     1
171
     0
176
     1
290
     0
176
     1
 93
       13
176
     1
 44
0.0
176
     1
173
     0
176
     1
  0
VISUALSTYLE
  5
31
102
{ACAD_REACTORS
330
29
102
}
330
29
100
AcDbVisualStyle
  2
Hidden
 70
     6
177
     2
291
     0
 71
     1
176
     1
 72
     2
176
     1
 73
     2
176
     1
 90
        0
176
     1
 40
0.6
176
     1
 41
30.0
176
     1
 63
     7
421
 16777215
176
     1
 74
     2
176
     1
 91
        2
176
     1
 64
     7
176
     1
 65
   257
176
     1
 75
     2
176
     1
175
     1
176
     1
 42
40.0
176
     1
 92
        0
176
     1
 66
   257
176
     1
 43
1.0
176
     1
 76
     1
176
     1
 77
     6
176
     1
 78
     2
176
     1
 67
     7
176
     1
 79
     3
176
     1
170
     0
176
     1
171
     0
176
     1
290
     0
176
     1
 93
        1
176
     1
 44
0.0
176
     1
173
     0
176
     1
  0
VISUALSTYLE
  5
3F
102
{ACAD_REACTORS
330
29
102
}
330
29
100
AcDbVisualStyle
  2
JitterOff
 70
    20
177
     2
291
     1
 71
     2
176
     0
 72
     2
176
     0
 73
     0
176
     0
 90
        0
176
     0
 40
0.6
176
     0
 41
30.0
176
     0
 63
     7
421
 16777215
176
     0
 74
     1
176
     0
 91
        4
176
     0
 64
     7
176
     0
 65
   257
176
     0
 75
     1
176
     0
175
     1
176
     0
 42
1.0
176
     0
 92
       10
176
     2
 66
     7
176
     0
 43
1.0
176
     0
 76
     1
176
     0
 77
     6
176
     0
 78
     2
176
     0
 67
     7
176
     0
 79
     5
176
     0
170
     0
176
     0
171
     0
176
     0
290
     0
176
     0
 93
        1
176
     0
 44
0.0
176
     0
173
     0
176
     0
  0
VISUALSTYLE
  5
37
102
{ACAD_REACTORS
330
29
102
}
330
29
100
AcDbVisualStyle
  2
Linepattern
 70
    14
177
     2
291
     1
 71
     2
176
     1
 72
     2
176
     1
 73
     0
176
     1
 90
        0
176
     1
 40
0.6
176
     1
 41
30.0
176
     1
 63
     7
421
 16777215
176
     1
 74
     1
176
     1
 91
        4
176
     1
 64
     7
176
     1
 65
   257
176
     1
 75
     7
176
     1
175
     7
176
     1
 42
1.0
176
     1
 92
        8
176
     1
 66
     7
176
     1
 43
1.0
176
     1
 76
     1
176
     1
 77
     6
176
     1
 78
     2
176
     1
 67
     7
176
     1
 79
     5
176
     1
170
     0
176
     1
171
     0
176
     1
290
     0
176
     1
 93
        1
176
     1
 44
0.0
176
     1
173
     0
176
     1
  0
VISUALSTYLE
  5
40
102
{ACAD_REACTORS
330
29
102
}
330
29
100
AcDbVisualStyle
  2
OverhangOff
 70
    21
177
     2
291
     1
 71
     2
176
     0
 72
     2
176
     0
 73
     0
176
     0
 90
        0
176
     0
 40
0.6
176
     0
 41
30.0
176
     0
 63
     7
421
 16777215
176
     0
 74
     1
176
     0
 91
        4
176
     0
 64
     7
176
     0
 65
   257
176
     0
 75
     1
176
     0
175
     1
176
     0
 42
1.0
176
     0
 92
        9
176
     2
 66
     7
176
     0
 43
1.0
176
     0
 76
     1
176
     0
 77
     6
176
     0
 78
     2
176
     0
 67
     7
176
     0
 79
     5
176
     0
170
     0
176
     0
171
     0
176
     0
290
     0
176
     0
 93
        1
176
     0
 44
0.0
176
     0
173
     0
176
     0
  0
VISUALSTYLE
  5
33
102
{ACAD_REACTORS
330
29
102
}
330
29
100
AcDbVisualStyle
  2
Realistic
 70
     8
177
     2
291
     0
 71
     2
176
     1
 72
     3
176
     1
 73
     0
176
     1
 90
        2
176
     1
 40
0.6
176
     1
 41
30.0
176
     1
 63
     7
421
 16777215
176
     1
 74
     0
176
     1
 91
        0
176
     1
 64
     7
176
     1
 65
   257
176
     1
 75
     1
176
     1
175
     1
176
     1
 42
1.0
176
     1
 92
        8
176
     1
 66
   257
176
     1
 43
1.0
176
     1
 76
     1
176
     1
 77
     6
176
     1
 78
     2
176
     1
 67
     7
176
     1
 79
     3
176
     1
170
     0
176
     1
171
     0
176
     1
290
     0
176
     1
 93
       13
176
     1
 44
0.0
176
     1
173
     0
176
     1
  0
VISUALSTYLE
  5
3E
102
{ACAD_REACTORS
330
29
102
}
330
29
100
AcDbVisualStyle
  2
Shaded
 70
    27
177
     2
291
     0
 71
     2
176
     1
 72
     2
176
     1
 73
     1
176
     1
 90
        2
176
     1
 40
0.6
176
     1
 41
30.0
176
     1
 63
     7
421
 16777215
176
     1
 74
     0
176
     1
 91
        4
176
     1
 64
     7
176
     1
 65
   257
176
     1
 75
     1
176
     1
175
     1
176
     1
 42
1.0
176
     1
 92
        8
176
     1
 66
   257
176
     1
 43
1.0
176
     1
 76
     1
176
     1
 77
     6
176
     1
 78
     2
176
     1
 67
     8
425
  7895160
176
     1
 79
     3
176
     1
170
     0
176
     1
171
     0
176
     1
290
     0
176
     1
 93
        5
176
     1
 44
0.0
176
     1
173
     0
176
     1
  0
VISUALSTYLE
  5
3D
102
{ACAD_REACTORS
330
29
102
}
330
29
100
AcDbVisualStyle
  2
Shaded with edges
 70
    26
177
     2
291
     0
 71
     2
176
     1
 72
     2
176
     1
 73
     1
176
     1
 90
        2
176
     1
 40
0.6
176
     1
 41
30.0
176
     1
 63
     7
421
 16777215
176
     1
 74
     1
176
     1
 91
       10
176
     1
 64
     7
176
     1
 65
   257
176
     1
 75
     2
176
     1
175
     1
176
     1
 42
1.0
176
     1
 92
        8
176
     1
 66
   257
176
     1
 43
1.0
176
     1
 76
     1
176
     1
 77
     6
176
     1
 78
     2
176
     1
 67
     7
176
     1
 79
     3
176
     1
170
     0
176
     1
171
     0
176
     1
290
     0
176
     1
 93
        5
176
     1
 44
0.0
176
     1
173
     0
176
     1
  0
VISUALSTYLE
  5
3A
102
{ACAD_REACTORS
330
29
102
}
330
29
100
AcDbVisualStyle
  2
Shades of Gray
 70
    23
177
     2
291
     0
 71
     2
176
     1
 72
     2
176
     1
 73
     3
176
     1
 90
        0
176
     1
 40
0.6
176
     1
 41
30.0
176
     1
 63
     7
421
 16777215
176
     1
 74
     2
176
     1
 91
        2
176
     1
 64
     7
176
     1
 65
     7
176
     1
 75
     1
176
     1
175
     1
176
     1
 42
40.0
176
     1
 92
        8
176
     1
 66
     7
176
     1
 43
1.0
176
     1
 76
     1
176
     1
 77
     6
176
     1
 78
     2
176
     1
 67
     7
176
     1
 79
     3
176
     1
170
     0
176
     1
171
     0
176
     1
290
     0
176
     1
 93
        1
176
     1
 44
0.0
176
     1
173
     0
176
     1
  0
VISUALSTYLE
  5
3B
102
{ACAD_REACTORS
330
29
102
}
330
29
100
AcDbVisualStyle
  2
Sketchy
 70
    24
177
     2
291
     0
 71
     1
176
     1
 72
     2
176
     1
 73
     2
176
     1
 90
        0
176
     1
 40
0.6
176
     1
 41
30.0
176
     1
 63
     7
421
 16777215
176
     1
 74
     2
176
     1
 91
        2
176
     1
 64
     7
176
     1
 65
     7
176
     1
 75
     1
176
     1
175
     1
176
     1
 42
40.0
176
     1
 92
       11
176
     1
 66
     7
176
     1
 43
1.0
176
     1
 76
     1
176
     1
 77
     6
176
     1
 78
     2
176
     1
 67
     7
176
     1
 79
     6
176
     1
170
     0
176
     1
171
     0
176
     1
290
     0
176
     1
 93
        1
176
     1
 44
0.0
176
     1
173
     0
176
     1
  0
VISUALSTYLE
  5
36
102
{ACAD_REACTORS
330
29
102
}
330
29
100
AcDbVisualStyle
  2
Thicken
 70
    13
177
     2
291
     1
 71
     2
176
     1
 72
     2
176
     1
 73
     0
176
     1
 90
        0
176
     1
 40
0.6
176
     1
 41
30.0
176
     1
 63
     7
421
 16777215
176
     1
 74
     1
176
     1
 91
        4
176
     1
 64
     7
176
     1
 65
   257
176
     1
 75
     1
176
     1
175
     1
176
     1
 42
1.0
176
     1
 92
       12
176
     1
 66
     7
176
     1
 43
1.0
176
     1
 76
     1
176
     1
 77
     6
176
     1
 78
     2
176
     1
 67
     7
176
     1
 79
     5
176
     1
170
     0
176
     1
171
     0
176
     1
290
     0
176
     1
 93
        1
176
     1
 44
0.0
176
     1
173
     0
176
     1
  0
VISUALSTYLE
  5
30
102
{ACAD_REACTORS
330
29
102
}
330
29
100
AcDbVisualStyle
  2
Wireframe
 70
     5
177
     2
291
     0
 71
     0
176
     1
 72
     2
176
     1
 73
     0
176
     1
 90
        0
176
     1
 40
0.6
176
     1
 41
30.0
176
     1
 63
     7
421
 16777215
176
     1
 74
     1
176
     1
 91
        4
176
     1
 64
     7
176
     1
 65
   257
176
     1
 75
     1
176
     1
175
     1
176
     1
 42
1.0
176
     1
 92
        0
176
     1
 66
   257
176
     1
 43
1.0
176
     1
 76
     1
176
     1
 77
     6
176
     1
 78
     2
176
     1
 67
     7
176
     1
 79
     3
176
     1
170
     0
176
     1
171
     0
176
     1
290
     0
176
     1
 93
        1
176
     1
 44
0.0
176
     1
173
     0
176
     1
  0
VISUALSTYLE
  5
3C
102
{ACAD_REACTORS
330
29
102
}
330
29
100
AcDbVisualStyle
  2
X-Ray
 70
    25
177
     2
291
     0
 71
     2
176
     1
 72
     2
176
     1
 73
     1
176
     1
 90
        1
176
     1
 40
0.5
176
     1
 41
30.0
176
     1
 63
     7
421
 16777215
176
     1
 74
     1
176
     1
 91
        0
176
     1
 64
     7
176
     1
 65
   257
176
     1
 75
     1
176
     1
175
     1
176
     1
 42
1.0
176
     1
 92
        8
176
     1
 66
     7
176
     1
 43
1.0
176
     1
 76
     1
176
     1
 77
     6
176
     1
 78
     2
176
     1
 67
     7
176
     1
 79
     3
176
     1
170
     0
176
     1
171
     0
176
     1
290
     0
176
     1
 93
       13
176
     1
 44
0.0
176
     1
173
     0
176
     1
  0
DICTIONARYVAR
  5
79
102
{ACAD_REACTORS
330
76
102
}
330
76
100
DictionaryVariables
280
     0
  1
1:1
  0
DICTIONARYVAR
  5
78
102
{ACAD_REACTORS
330
76
102
}
330
76
100
DictionaryVariables
280
     0
  1
STANDARD
  0
DICTIONARYVAR
  5
77
102
{ACAD_REACTORS
330
76
102
}
330
76
100
DictionaryVariables
280
     0
  1
STANDARD
  0
DICTIONARY
  5
1A
330
19
100
AcDbDictionary
280
     1
281
     1
  3
BUMPTILE
360
1C
  3
DIFFUSETILE
360
1B
  3
OPACITYTILE
360
1F
  3
REFLECTIONTILE
360
1E
  3
REFRACTIONTILE
360
20
  3
SPECULARTILE
360
1D
  0
DICTIONARY
  5
12
330
11
100
AcDbDictionary
280
     1
281
     1
  3
BUMPTILE
360
14
  3
DIFFUSETILE
360
13
  3
FBXASSET
360
109
  3
OPACITYTILE
360
17
  3
REFLECTIONTILE
360
16
  3
REFRACTIONTILE
360
18
  3
SPECULARTILE
360
15
  0
DICTIONARY
  5
22
330
21
100
AcDbDictionary
280
     1
281
     1
  3
BUMPTILE
360
24
  3
DIFFUSETILE
360
23
  3
FBXASSET
360
BA
  3
OPACITYTILE
360
27
  3
REFLECTIONTILE
360
26
  3
REFRACTIONTILE
360
28
  3
SPECULARTILE
360
25
  0
DICTIONARY
  5
E61
330
67
100
AcDbDictionary
280
     1
281
     1
  3
ACAD_XREC_ROUNDTRIP
360
E62
  0
DICTIONARY
  5
E5F
330
65
100
AcDbDictionary
280
     1
281
     1
  3
ACAD_ROUNDTRIP_2008_TABLESTYLE_CELLSTYLEMAP
360
E60
  0
XRECORD
  5
1C
102
{ACAD_REACTORS
330
1A
102
}
330
1A
100
AcDbXrecord
280
     1
270
     1
271
     1
  0
XRECORD
  5
1B
102
{ACAD_REACTORS
330
1A
102
}
330
1A
100
AcDbXrecord
280
     1
270
     1
271
     1
  0
XRECORD
  5
1F
102
{ACAD_REACTORS
330
1A
102
}
330
1A
100
AcDbXrecord
280
     1
270
     1
271
     1
  0
XRECORD
  5
1E
102
{ACAD_REACTORS
330
1A
102
}
330
1A
100
AcDbXrecord
280
     1
270
     1
271
     1
  0
XRECORD
  5
20
102
{ACAD_REACTORS
330
1A
102
}
330
1A
100
AcDbXrecord
280
     1
270
     1
271
     1
  0
XRECORD
  5
1D
102
{ACAD_REACTORS
330
1A
102
}
330
1A
100
AcDbXrecord
280
     1
270
     1
271
     1
  0
XRECORD
  5
14
102
{ACAD_REACTORS
330
12
102
}
330
12
100
AcDbXrecord
280
     1
270
     1
271
     1
  0
XRECORD
  5
13
102
{ACAD_REACTORS
330
12
102
}
330
12
100
AcDbXrecord
280
     1
270
     1
271
     1
  0
XRECORD
  5
109
102
{ACAD_REACTORS
330
12
102
}
330
12
100
AcDbXrecord
280
     1
 70
     1
 90
1959938040
 71
     1
  1
C5DA684D-B5AD-43BD-8EE2-28D543D5B1DD
311
504B03040A0000080000C951E9423DEE336E79000000790000001B0000006175746F6465736B2D64657369676E2D7061636B6167652E786D6C3C3F786D6C2076657273696F6E3D22312E302220656E636F64696E673D227574662D3822203F3E3C666F726D6174733E3C666F726D61743E687474703A2F2F736368656D612E
311
6175746F6465736B2E636F6D2F64657369676E2D7061636B6167652F323030393C2F666F726D61743E3C2F666F726D6174733E504B0304140006080800C951E942D486FD9CA0000000F4000000130000005B436F6E74656E745F54797065735D2E786D6C7D8EC10E82300C865F65E91D8A1E8C310C0EEA1BF002731658846E
311
D98AC1B77784ABF1D8FE5FBFBF75BBCE937A534CCEB38643598122B6FEE978D0B0485F9C41B54DDD7D022595594E1A469170414C76A4D9A4D207E29CF43ECE46F218070CC6BECC4078ACAA135ACF422C856C0E68EA1BF5669944DDD7BCDE7B1F8E415D77AECB980613C2E4AC91FC167A2B244592486606FC29C8FD7F045B9A
311
EF7053A7E60B504B0304140006080800C951E9424D759652EB0000007C01000008000000636F72652E786D6C8D90416E83301045AF62CDB632D8405B828C231AE004BD80653BC44AB011B6AB1EBF262152BBEB6A467FFE9B197D76FC9E6FE84BAFDE38DB02CD08206DA553C64E2DC470C635A02367AB73E1970D9015B36E61
311
9381B3697571D925E96CD03624D53AA5775178AF0320794B4D0B5E5EF42C32114372F86BB608791593CEE8B34B708C46A1C711A3D23E73367A05DE77232D86E184C97BF7862B3A9E70DD8F35FE38F435ADC7A22ABA81E51BCC5930F3F3BE5CB5085A012F082D138BC9E1939286560DAD5FC86B5312966FF63F505CD43FA168
311
6C288BFDDD07E681D3F4C87DC059BE6591CA3DA854B7DCF80F504B0304140006080800C951E94255019EA25F0000007C00000007000000636E782E786D6C4DCB3B0E80201045D1AD90E915ED2CF8AC45050C11660C8261F98AB1B07AC9C97D42D718D865D3E909258CFD00CCE24AC6E326A164D74DC0B4128928FF32603847
311
2BA13128B1252AC747C6BAB984FC68F0B87FE8960A5C09FE86CFB69FBA01504B0304140006080800C951E9420D3829E667010000020300000C0000006662782F636F72652E786D6C8D525B6E833010BC8AE5DF0A8C096D49641CA54938412FE0804351C0467EA01CBFCB23A2A9A2284232D6CCCEEEEC00DB5EDB06F5D2D85A
311
AB0CD330C248AA4297B5AA32ECDD394831DA7266B4767FCA3052A295191E60CC5965B4EF66A8D0CA49E50055BA943328AC950EA3A2814B866DF1235B110AEFA0C25EC24E141751C9908640431D67D6193080A621C389F9F9746564C239F3BE2E67B62E615A7DAEA5C1FCB0CB697C3CEE83E873F7112434DF07E9214F83AFF5
311
21A5691E27F1EEC8C820E6CCD5EDCD5D61A470B2C43C8EE80AB441B4FEA6D186261B9ABE45EF9B55C4C8507E27F25DF9A2C8D7CAADE2D9EE24B39853303212FFB685881CB2A2073F8433328408AF31E1FBA0211008D9895373DBE302502F0BA74D024CA9FD42F5A2F112A646687C189958E83C3680CD1EF6899FF479DE033E
311
A0501558130EAE27EF86E96C9A3A47D14913F4EE8A9436AD68167393C5E55C063D9417BAD1E61535995725739864F87BF92F504B0304140006080800C951E942D3FBF9A67D0000009D0000000B0000006662782F636E782E786D6C4DCCDF0AC2201C86E15B91DFB96D86FF02756CD6858CE686E4344CA3CB6F8B1D74F4C1C3
311
C7ABBACF1AD0DBE5974F510339B5805CBCA7C9C745432D3396803AA3724AE5EF06288EABD3B03318B5E4549F074D6E1E6B289B061F1F07CAF3A5ED3915F8CA85C454328207DA0BCC2421D6D2DB601987C6A8E657DA760F9B2F504B0304140006080800C951E9429BC3492D2A01000014020000310000006662782F38323930
311
413634372D443637382D343835312D423441372D3538313143433445424335362F636F72652E786D6C8D515B6EC32010BC0AE22B55850D891F24C24449DA1BF402D426294A0C168F2AC7EF523B52FB971F16CDCECC8E76C5FE3EDED0B7F6C138DB6156508CB4EDDD60ECA5C3299E09C7682F85772EFEA16164D5A83B9C612C
311
C5C5BB342D50EF6CD436026ADDA0175085A02346FD0D3E1D0EFD971E55A1520446B81693EAAFEAA20B56401B785284E821009A87E4174BBEDED24353B5E4AD6939A978CDC8B13AB4A4E68C9D4ED5FBF15437A29C8552A46486456E068863CE46FB674DB2588A68C647FCDE6B15F580E59AB20DA12DA1DB0F4677ACDA31FE4A
311
EBDD868A32D3FF89D2343C294AC6C6CD7A893BCB02964C9473438AC1A5CFDB238CBE4FCE4794E7AD82EE5FB0A405C4622DE72099A9B000F06CAAC53344E761C1ABEB27B0593D1B37951465BE1194DF0342CDF7943F504B0304140006080800C951E942939A78164F01000033030000300000006662782F3832393041363437
311
2D443637382D343835312D423441372D3538313143433445424335362F636E782E786D6CD593CD6EC32010845F0571ADFC43E3A6698489D4439FA0875E316C121A0C16E0AA79FB2E094973C9A1C75E90353BCCAC3E61BEF91E2DF982108D773D65754B0938E5B571BB9ECE695BAD28D9081EBC4F37364A9C1CA1A759A682EF
311
829FA72269D8CAD92654AD71872206887E0E0A22CAF926B15E498B01E0AA19451807D01A34B91AF16B0B015741713892B407F2F6FA41FCF0092A45DEE414C19BDC21783E4BD38D891265658C3D8D6A0FA3ACE59CBC8678A8B54CB266F5A5EBCE4EBF49245FB854CEC1905CDED37C525136AA91236F7028784C01E915533A4E
311
40859C266B944C08B93919CF1EC167E3D2B22B5E83E003BAD972D17518769A099ECC08C5A102C8049A8AC7962DAAF6B96A5FDE59BB66DD9AAD1EDAA7F5A2E54DB60B3E786FCB258C81E027A2BC4BE012158C37797C0F5FF1116D02B2F6E1F8079008A0B49EE95C33FE339FE6F4BE1157C0BF40FC00504B0304140006080800
311
C951E942BA682765A305000081100000340000006662782F38323930413634372D443637382D343835312D423441372D3538313143433445424335362F6F626A656374732E786D6CAD57D96EE33614FD15417D691FBCC84BEA148A06B6950C8C69660663CCA00F060C5AA21436D4028A4A9C7E7D0F454A961C3B718B79D1C2
311
E5F2DE73CF5DE87ED827DC7AA2A260597A633BFDA16DD134C84296C6377629A3DECCB63E78AEC832D95A665B2949E88DAD866DCF8D4556E66628A41129B93C1ABD5BFC6515014DA96D059C14C58D5D040F34217D52CA2CA4C5633F2492F4E368DF77FA7A61576C2C48FE7024342782A6129A623C85144B2BE5747F87F6C073
311
076ADE73D5D3AC1A9F5F35A8ECE99ECFD24292347875D89198B133F16F47D3EBDE743219F7265723A7B7B85BF83DE7F7F17079B55C5ECF6FAF7170210524194D048D6CEF23B0112C70077ACA734B96CAF1C82C310E1A08FAC494A76C6F6439EE40AF69AC33469E523FC8D29406155640A3B2CF880E694ED3103E67B480662D
311
8486DD5F47E1D89A1EAB7F73647BF83204DA3B5A826ADDEB775BD36CF7374C282E619028A862A0C6D218AAB93A3C20BCCB326EE65861254452C108B738DB09225E6C0F4BD512CFED88514C162A1A9405B6072FE8E92E5D1046EFF3FC949651C9B9A2B1ED5551B045AC5059549AB17FA83868DF46063AC1578A0D3363907CC9
311
A9ED5D6B8ACC8ED8A481B4224E62B81C66AA9DE3D191A14B15A72BDFF63EDDEDF66B15BBA70FCF45965321157D40ADDA71F55BA16474722EF29CDA601FA97200E51B90FF8C503FA802BF09B69FEC27E61429485A449948E01B6B68F586780C2DA77AAAEFD6973B683677BD770E4F385B41F513F0ECDAD0F6650B4ECF7D02E1
311
333136A6AD03C29136EE590A8014492C9E61087938DAED6D6F852C87AC8C5D847B0E4C86BA4FF87407460C12457552EB9D02CBA3B4784182066C1523A18626BF51F0E0A757E9AC3AD82C3B07EFF4A7D075EEAF3FAD4B119180DE9B98F669C4522651E20EBC692BD4C1BC63D1237D79CE4408435FE3BD6EE39D98A30AA0AD30
311
57C0C7754E573F87933B0704D817672ADDB8EF9C002354616DC9BF674540392729CDCAFADC37EB07CA86865805BB627253600E8505A4D133473188221D08962B109B6AD524CDFE19EBBEAF3E8391B6B778F993BCB4B3D7EE907B838C6762BB7BD9EAB47412EA1F5D6E1B0C064A0AE85E05491DFF06F46DC8A2A82C90044FE0
311
FA63B56CFB4EA505A4885AAA8E9609EC47701161485BCB45B5160495344BB70C75137177F280B67C406A1850093CA7714179B4659C97C936621CD5689B90FC0C1CFF5FFF5D99E45B9264652ACFC8EEA88EEAD0D5BDC3DEE299C8E0C1F6D6D5BBB740EE0D6978860CAA969CC0AAE3DAE5D49F5FCD267E6F319DFBBDC918ADD3
311
ECF676D41BCDFCE964EC4F178EEFD77ED29A786E5D6ADA110D2FA1B4B9A560C67DDF57881F93046CEF9EC862F3518767FDFEBEEAA3177607D8837AD96C9C874FE8FB68F8BE80C3CA93825649CE69425349540CDDAB0FFE8DA0CFE828A3C7570989E90552BE7C5C1F1983910BF67D55F14E9F8FF69AD1A50AC89342E44399EC
311
52C2F8D1C65823D9CFD3D8E057FBA479EB4253FFAA3FE31874A645C659883C185A31CD122A910D2F284222A105A8D7EEE94373F7B860F793EE1025D9715A6BF240D024F30261016A9581EC8E5BBFA0A9537DD58D8D72DB7FC4C3640ADB02676E6C34E99205B4E8EF50A0552B54090797DA9D3C1A7F92C61CBDB6DED4FC37BB
311
14369D92DC2CB9A47F3276E9146E0C401AC9D137A02182772A653CB7D2CDCC07FFC9F05A1D8B487CEE4AD9D87218688CA98E41886AA3CC6D014DCCA3397A8F407DDB2CA75FADE92072D12DEB4D1268A93D49445CDD14947E46A5B9FF75800EC55A7DB1725EC6F0E5E5927A8282CCA50A70B008AC3032732241D5E51F9BAF22
311
C34D36B1EE182860FDBA9F5DFDB659664992A57A683337F7616BFD80DB6DB84172A0EA5A526C464367B4A9AE03E686B2DD9182F649583C62009E15AC01BAE37EF052DF195187F444B36EA05C71C4D0956F99C23681504397766E55E0A0F148A9851852574A1531ED05F99B378241B5142A08F4F2DEBF504B03041400060800
311
00C951E942000000000000000000000000350000006662782F38323930413634372D443637382D343835312D423441372D3538313143433445424335362F76657274696365732E62696E504B0304140006080800C951E942F270F1330600000004000000360000006662782F38323930413634372D443637382D343835312D
311
423441372D3538313143433445424335362F747269616E676C65732E62696E636660600000504B0304140006080000C951E942000000000000000000000000370000006662782F38323930413634372D443637382D343835312D423441372D3538313143433445424335362F617474726962757465732E62696E504B030414
311
0006080800C951E942D5987DFC8F00000041010000360000006662782F38323930413634372D443637382D343835312D423441372D3538313143433445424335362F6469726563746F72792E786D6C858F410EC2201045AF4266AF15DDB800BA74E7C21B903225242D6328188F2FA5C4183471359997F9FF81E89FF3C41E18
311
16475E02DF1F80A11FC8386F25A438EECEC07A250251FC3803E6F58C12560C4AD840E95E91C151A72936F496F35732D860FE635F62C8F2DA16B505C545B74125BAA2FA9E05D7CC053D063734D5C7665FD55B6B8D15D5E9BFEAFD8490FFA45E504B0304140006080800C951E9425EDEB8CAFD000000A00100003B0000006662
311
782F38323930413634372D443637382D343835312D423441372D3538313143433445424335362F7265736F75726365732F636F72652E786D6C8D504B6E833010BD0A9A6D05D8405B828C2352E004BD806526D44AB0913F558F5F13A8D4EEBA9919BD8FE6E9B1F3D7724F3ED13A65740B342390A09666527A6E21F86B5A4372
311
E6CC1AE37FC920D162C1163618389BAD09EB0149A33D6A1F516D263C40E11C7A48E43D1E2D38F9818BC844F051E16ED92AE44DCC98D12CD251C799F3360648F627DB046ED19960253A96EF2C6721A8E9D0A829FE5457851678DF8DB418864B4A5EBB97B4A2E35B5AF7639D5E4E7D4DEBB1A88A6E60F966E6CCABE527A3B428
311
3C4EC00B42CBE84DC9E99D9286560DAD9FC8735312966FF23FA6B04EFF3405A57D591C71779B034E639007C159BEF515D7A3CCB8B76EF937504B010214000A0000080000C951E9423DEE336E79000000790000001B00000000000000000000000000000000006175746F6465736B2D64657369676E2D7061636B6167652E78
311
6D6C504B01021400140006080800C951E942D486FD9CA0000000F40000001300000000000000000000000000B20000005B436F6E74656E745F54797065735D2E786D6C504B01021400140006080800C951E9424D759652EB0000007C010000080000000000000000000000000083010000636F72652E786D6C504B01021400
311
140006080800C951E94255019EA25F0000007C000000070000000000000000000000000094020000636E782E786D6C504B01021400140006080800C951E9420D3829E667010000020300000C00000000000000000000000000180300006662782F636F72652E786D6C504B01021400140006080800C951E942D3FBF9A67D00
311
00009D0000000B00000000000000000000000000A90400006662782F636E782E786D6C504B01021400140006080800C951E9429BC3492D2A0100001402000031000000000000000000000000004F0500006662782F38323930413634372D443637382D343835312D423441372D3538313143433445424335362F636F72652E
311
786D6C504B01021400140006080800C951E942939A78164F010000330300003000000000000000000000000000C80600006662782F38323930413634372D443637382D343835312D423441372D3538313143433445424335362F636E782E786D6C504B01021400140006080800C951E942BA682765A3050000811000003400
311
000000000000000000000000650800006662782F38323930413634372D443637382D343835312D423441372D3538313143433445424335362F6F626A656374732E786D6C504B01021400140006080000C951E94200000000000000000000000035000000000000000000000000005A0E00006662782F38323930413634372D
311
443637382D343835312D423441372D3538313143433445424335362F76657274696365732E62696E504B01021400140006080800C951E942F270F13306000000040000003600000000000000000000000000AD0E00006662782F38323930413634372D443637382D343835312D423441372D3538313143433445424335362F
311
747269616E676C65732E62696E504B01021400140006080000C951E9420000000000000000000000003700000000000000000000000000070F00006662782F38323930413634372D443637382D343835312D423441372D3538313143433445424335362F617474726962757465732E62696E504B01021400140006080800C9
311
51E942D5987DFC8F0000004101000036000000000000000000000000005C0F00006662782F38323930413634372D443637382D343835312D423441372D3538313143433445424335362F6469726563746F72792E786D6C504B01021400140006080800C951E9425EDEB8CAFD000000A00100003B0000000000000000000000
311
00003F1000006662782F38323930413634372D443637382D343835312D423441372D3538313143433445424335362F7265736F75726365732F636F72652E786D6C504B0506000000000E000E0080040000951100000000
310
504B03040A0000080000C951E9423DEE336E79000000790000001B0000006175746F6465736B2D64657369676E2D7061636B6167652E786D6C3C3F786D6C2076657273696F6E3D22312E302220656E636F64696E673D227574662D3822203F3E3C666F726D6174733E3C666F726D61743E687474703A2F2F736368656D612E
310
6175746F6465736B2E636F6D2F64657369676E2D7061636B6167652F323030393C2F666F726D61743E3C2F666F726D6174733E504B0304140006080800C951E942D486FD9CA0000000F4000000130000005B436F6E74656E745F54797065735D2E786D6C7D8EC10E82300C865F65E91D8A1E8C310C0EEA1BF002731658846E
310
D98AC1B77784ABF1D8FE5FBFBF75BBCE937A534CCEB38643598122B6FEE978D0B0485F9C41B54DDD7D022595594E1A469170414C76A4D9A4D207E29CF43ECE46F218070CC6BECC4078ACAA135ACF422C856C0E68EA1BF5669944DDD7BCDE7B1F8E415D77AECB980613C2E4AC91FC167A2B244592486606FC29C8FD7F045B9A
310
EF7053A7E60B504B0304140006080800C951E94286144795EB0000007C01000008000000636F72652E786D6C8D90D16EC3200C457F05F97522C54D9A7611A14AA4F40BF603086886DA401460DAE78FB4A9B4BDEDC9D6F53DB675F9F97BBA932FB304EB5D0B583020C629AFAD1B5B48F14A4F40CE822FDEC75F36204E4EA685
310
5506C1C7C5A779939477D1B89855E7B5D94419828940D43D372D04F5692659C814B323DC8A59AA9B1C4D81AF2EC329594D9E47ACCEFBECD59A05C4C0CA01EBA1A3ACAF915697AEA77DC97A5AD717AC0E5DDDE1B1E3BB15163CDAE9755F2D4646A341EC1996941D297BFF40D660D5E0E98D1D9A92F1DD6AFF03A559FF134AD6
310
C572BFBDFBC40208CC8F3C0682EFD62C72790495EB9A9BF801504B0304140006080800C951E94255019EA25F0000007C00000007000000636E782E786D6C4DCB3B0E80201045D1AD90E915ED2CF8AC45050C11660C8261F98AB1B07AC9C97D42D718D865D3E909258CFD00CCE24AC6E326A164D74DC0B4128928FF32603847
310
2BA13128B1252AC747C6BAB984FC68F0B87FE8960A5C09FE86CFB69FBA01504B0304140006080800C951E942F8450FB567010000020300000C0000006662782F636F72652E786D6C8D52ED8A8330107C9590BF8726A9D6DE9598A2D03EC1BD40AAA927D54462227DFC5B3F8AD7A39422C430B3B33B3BCA0FB7B64183B27D6D
310
748A59483152BA3065ADAB147B77093E313A086E8D717FCA30D2B255291E612C78658DEF16A830DA29ED00D5A6540B28FB5E398C8A062E29EE8B1FD5CA507A0715FD35EC647195950A590834D409DE3B0B06D03C643CB1B89C6F9CCCB8E0DED7E5C2D6254CAB2FB5B2581C697464C9310B689EB0203E65799047340F92E4C4
310
E26D96646C9771328A0577757B775758259D2AB1D85016057417D0AF6F46F72CDEB3CF0FBADD479493B1FC41E4BBF24D91AFB58B368BDD59D663C1C0C844FCDB162272A89703F82182933144784D093F060D8140C84E9E9BFB1E57800655386363604AE3576A908D573095A2E9E16466A1F3D400367BDA67F3A2CFEB1EF001
310
A5AEC09A74703D7B374EE7F3D4258A4ED9607037A48D6D65B39A9B2DAEE73AE8A9BC308DB1EFA8C9B22A59C224E3DF2B7E01504B0304140006080800C951E942440B068D7D0000009D0000000B0000006662782F636E782E786D6C4DCCD10A83201805E05791FFDE555B43053566E57BC4B290990EA7638F3F1B5DECEA1C3E
310
0E87779FCDA1B7892F1BBC80E6540332FE1E66EB5701392D9802EA248F21A4BF19203F6D46C0CE20F91A437E1E349B65CA2E1575D63F0E6C1555C395124CEBE6865B521A233DC35AB371D4BD3A93E10295E4D5EFA9E47E2CBF504B0304140006080800C951E94253C5FBF32B01000014020000310000006662782F34423842
310
443538372D383031412D343738372D393743392D4646394545464342323744332F636F72652E786D6C8D515B6EC32010BC0AE22B55651B6227B6234CD4BC4ED00B38405294182C1E558EDFA576A4F62F3F2C9A9D991DEDB2ED63B8A36FE5BCB6A6C33427182923ACD4E6DAE1182E5983D19633676DF843C3C8F483EA708231
310
675767E33843C29AA04C00D458A966B0F75E058CC41D3E1DF6E24B0D7DDEC7000C7FCBC75EDCFAABCA690E6DE071E6838300681A925ECCAB5DB33BAC9A3A6B08FDC8AA1A7E6DBD6FB3D3A93D1E4FFBDDB23E94AC98849CC5A8E52CD712E2E88B56EE559324E62CE8E1195F38D50725315F125A66A4CE48FB49C986561BDABC
310
93D5A624AC48F47FA238CA1745519B502EE7B893CC634E5931353893369EEFCF30EA315A17509AB7F04ABC614E728855B6EBA662C544850580E7BA9A3D7DB00E16BCB89D815DCEC6EB8AB322DD08CAEF01A1A67BF21F504B0304140006080800C951E942F53DB7015701000033030000300000006662782F34423842443538
310
372D383031412D343738372D393743392D4646394545464342323744332F636E782E786D6CBD93CD6EC32010845F0571ADFC43ECA6698489D4439FA0875E316C121A1B2CC055F3F65D1292E69243A5AA1764CD0E33AB4F986FBEC6817C820FC6D98EB2B2A604AC72DAD85D47E7B82D56946C04F7CEC51B1B25568ED0D12453
310
C177DECD5396346CE53C445407630F59F410DCEC150494D34D323825070C005BCC28C2D883D6A0C9D5885F5BF0B80A8AFD91C43D90D79777E2FA0F5031F02AA5085EA50EC1D3999B6E4C94A84186D0D1A0F630CA52CED169088752CB284B565EBAEEECF49344D2854BE5EC0D49E51D4D271579A31239F20A878287E8915E36
310
C5E30454C8691A8C9211215727E3D923F86C6C5CB6D96B10BC4777B358AE5618769A091ECD08D9A13CC8089A8A45CD9AA27E2AEAE73756AF59BB66AB87FA71DDD4BC4A76C17BE7867C0963C0BB89286723D84805E3551ADFC3977D441B8FAC9D3FFE022402C8AD673AD78CBFE4C3964DDBFE239FEAF4BE1197C7BF407C0350
310
4B0304140006080800C951E9422CE650F0630700009A1B0000340000006662782F34423842443538372D383031412D343738372D393743392D4646394545464342323744332F6F626A656374732E786D6CED595B73A33614FE2B0C7D691F8C8D2F69D22174127B77C7B34DBBB3EEEEF4C1338C0C3251230423896CDC5FDFA3
310
0B188849709BBEF5C106847474CE77AE3A043F3F65D479C45C909C5DBBBE37711DCCE23C212CBD764BB91F5DBACECF61C0F35C36A6B90E4319BE76D5B01B0629CFCBC20E25788F4A2A3BA3EF6FFF70448C19769D982221AE5D11DFE30C79A8947982C583972089BC74FFE4F99E99D8269B7254DC7788168863268153186740
310
C5314CF9EDC7893B0E83B17A1F06EADFCE9A0D9A35EF9F35D652B7B9244C48C4E2672C75C8CC06B134F3E7AB77D3C5D568319FCF46F38BA93FBA7D7FBB1AF93FCE26CB8BE5F2EAE6DD15B0B7CB736A654A70815902FA3BB8A11F8CD59B5A748BC029AEE39C311C6B20012A2D569720C102B66AC037693FFA4AA2C66B2D61E3
310
79AEDE5B161AC3B33695BE59C38068D10541EC7695C4D5B5295FBEFB130417438C920B2C815B213968D7C2C3C12BDC70128CCD6818EC8EBA20C2C990C49C20EA50B2E388835260AA9A1206668125A39C8303294749A035675EB76D0B3CF375D739C5E5BEA45479861B6AC78AC0FDB0149A33F217E647EE9BC8004F206D4998
310
BCB45CCA4381DDF02A18EBC1305097D9D4BE34403A7B8A52A111316F3B822E95EBAF576EF8F1FDEE69A3C2C1E9CD0B9E17984B65744A8F9A2F30647B5528D96DFD419A530B401803AA5D7904E53320FF2B448F232BA0374E9EE64F733B5772C4C43EE719E8C69938A309FC4D1C5FFFABFBC65D30AE17B7B5D78727B8A982EA
310
F2DFE3D996416365F96FC019068F60F0399FD9579B1851B0E73BC2002065240ECD610842FB7EF7E4866B089C10E86115A2A10F2203BB8F701B8C2D99A3562AF7B25EC70051BBC76C889200366D91C0468F9E3E40F6E0243EAAA929621FBC8B3731D79BD5E6E3A6E47B14E33BEBD32BBC278C48C89AA7196A61DE92E8011FBE
310
E53C01419FE3BD69E29DD9AD04A0AD3057C0A71508EAE1B8736B8318D6A5B90A37C12B3B80102A5737E8DF1111634A11C37959ED5B473765A8B5C7DB9AC10DA706E2D9B463C21C3F12555580D31C67B41885BC1F73522810DDF08391AC0E9A5E8F745FD6BF8245D6F37B66AD19845E86E8EF3A689DC0A165D915D216885AE0
310
DD319CC739CD79B43B4426D2B9504B001B6D6FF9DA220AB1DE284951010FD27E578594D4481B2564BF2F05C4D5132C7E5D2F9BE630F166FEC269FE779C710ED1167C1771EB779D3D2292A114477B94F46DD7DCADA62D34C91ED21CEF29C8451E893C4448469304A7E7407316F1AB37A59ED25C08C2B0807C7512FC261A130F
310
0289D166C5B2D26A076822A20C4B44CF414091E90157A71D5DE3C6503ABCCE636DBD2F69AC49F43FB2088EA096CC5944A014851CF22AE3BEB78018D246D7A0DCC117ACADA2ADC5A0259410F121FA86497A2FCF41DD90EFC13D86234929A3BC403198F500B2CF7C4529B5C3FB0EC50F2A7F447149DFCA4004A6FB88505A6611
310
FC088393C710D7AE03D38B2834889BD8277106451992251FB2C9C562F26C1F533374436063A33DA110B6A30C153DA8B702A2AE479C1A7C4BBD47A9BB322B2294E5251B6428DEACEB4D967C57AD8AEC407E55A908656345D8120C03C2649D55AB980DA6AE032BB8910E548748A0ACA0E614F64AE2F16B6FD2947B37E0D64FDF
310
76830C0ABF1EED3523EABC82C1F2D82A0CC43724E37B37DCE8EBE816EAEF0427C7545FD59ACD0A10105391BCE4C4AAE8CB1ACA1B5BA3B9E11D9262FBC164DDEAFA65ED41F72318C31AA85DEA856B0574869944AA32B95337F4338210DCA261C6D72AA79E43E5264974D588E87BD2A7CE5619D1DA34235E718F599EC18F6D09
310
8B6999E02D4AC443742769B4218A752BA597910AE31705FCEDC3A6030F8C0C10E9932AF0F0B7CE5A3BBA54E5D24922F2BECC760C1108822DD152A31BAF60A9D548A5E5FAAACE14507781815915CFFF3F5934DB11FF9F2C526B18FFEA64717BF8051D9A7D91463A8F955D9F750CA8F393A2F216C700DD76A8A9D659C424732B
310
BF75A608826215E507576355D03004FB38FEC759BB2F0B9AED3AFC9F97B5FD6715C75959A5355975A94E54AEEB660E5B2E56371797F3D5E87671B31ACD67D09BBD7CF76E3A9A5EAE16F3D96A71EBAF56359ADA51C3A00E663A77C1B3096AD5B07AB218405756E49424709A4F9C1443CC9770A61FD03EE71916903C9BCDEEC4
310
36E507AC7E347D4E897614579CDC2368105301691D302A63D91E77BE83D6A48483F6B50B4D23EF01FEAC55BA0E649E6B175A0592C458783B6833A9869E260E2957E77E4B0CF0412C5529D12CAA9FEB550A9B56F8AFA70C490356AE560F030AB702BA5FAD0E85E6CDF2149F2578C58E8324DCEE4A09D59A91E538500BA3B739
310
AADFC846097BB05B3F81EBBE2C96EFE9392D44067D3278D1080CD591443CD5FD6EC59865E966F5690C7D3667FD9B53D032055D0EA734E2188CB954051558115885A5592009A6BAFC69FB89E7F08927737455E47CFF7479F1C376996759CECCD0F6064E65097C287236F7F0D927D942F18055735D6CA7137FBAD54D6DDB678F
310
7648604F5545305015134A908EC9815D3E6B50D9F6E558A9A2337DBD726C10856680B1A3673D5EF391CB011F529F5394C7683FAFA47DB1AF3DD653C1263874A4C3BF01504B0304140006080000C951E942000000000000000000000000350000006662782F34423842443538372D383031412D343738372D393743392D4646
310
394545464342323744332F76657274696365732E62696E504B0304140006080800C951E942F270F1330600000004000000360000006662782F34423842443538372D383031412D343738372D393743392D4646394545464342323744332F747269616E676C65732E62696E636660600000504B0304140006080000C951E942
310
000000000000000000000000370000006662782F34423842443538372D383031412D343738372D393743392D4646394545464342323744332F617474726962757465732E62696E504B0304140006080800C951E942D5987DFC8F00000041010000360000006662782F34423842443538372D383031412D343738372D393743
310
392D4646394545464342323744332F6469726563746F72792E786D6C858F410EC2201045AF4266AF15DDB800BA74E7C21B903225242D6328188F2FA5C4183471359997F9FF81E89FF3C41E1816475E02DF1F80A11FC8386F25A438EECEC07A250251FC3803E6F58C12560C4AD840E95E91C151A72936F496F35732D860FE63
310
5F62C8F2DA16B505C545B74125BAA2FA9E05D7CC053D063734D5C7665FD55B6B8D15D5E9BFEAFD8490FFA45E504B0304140006080800C951E9423BDD2454FD000000A00100003B0000006662782F34423842443538372D383031412D343738372D393743392D4646394545464342323744332F7265736F75726365732F636F
310
72652E786D6C8D504B6E833010BD0A9A6D65B0032109328E402227E8052C33A156828DFCA97AFC9A40A576D7CDCCE87D344F8F5FBFE667F689CE6B6B5A6039850C8DB2A336530B31DCC919B2ABE0CEDAF04B06999133B6B0C220F8E46C5C76485913D084841A3BE20E4AEF3140A69EE968C1AB0F9C652E63480AFFC817A91E
310
72C29CE5894E3AC17D702940B63D59270887DE46A7D0F36263058F518FBB468FE9A7BE6B7420065A0EAC1E2E84F63523D5ADEB495FD29ED4F58D55C7AEEED8A9E3C56A163CE8F927A37228038E200E9495849E08BDBC33DAB0AA61E7377A6C4ACA8B55FEC71497F19FA6A84D280F7BDCCDE641B014E445085EAC7DA5F52A33
310
EDB55BF10D504B010214000A0000080000C951E9423DEE336E79000000790000001B00000000000000000000000000000000006175746F6465736B2D64657369676E2D7061636B6167652E786D6C504B01021400140006080800C951E942D486FD9CA0000000F40000001300000000000000000000000000B20000005B436F
310
6E74656E745F54797065735D2E786D6C504B01021400140006080800C951E94286144795EB0000007C010000080000000000000000000000000083010000636F72652E786D6C504B01021400140006080800C951E94255019EA25F0000007C000000070000000000000000000000000094020000636E782E786D6C504B0102
310
1400140006080800C951E942F8450FB567010000020300000C00000000000000000000000000180300006662782F636F72652E786D6C504B01021400140006080800C951E942440B068D7D0000009D0000000B00000000000000000000000000A90400006662782F636E782E786D6C504B01021400140006080800C951E942
310
53C5FBF32B0100001402000031000000000000000000000000004F0500006662782F34423842443538372D383031412D343738372D393743392D4646394545464342323744332F636F72652E786D6C504B01021400140006080800C951E942F53DB70157010000330300003000000000000000000000000000C90600006662
310
782F34423842443538372D383031412D343738372D393743392D4646394545464342323744332F636E782E786D6C504B01021400140006080800C951E9422CE650F0630700009A1B000034000000000000000000000000006E0800006662782F34423842443538372D383031412D343738372D393743392D46463945454643
310
42323744332F6F626A656374732E786D6C504B01021400140006080000C951E9420000000000000000000000003500000000000000000000000000231000006662782F34423842443538372D383031412D343738372D393743392D4646394545464342323744332F76657274696365732E62696E504B010214001400060808
310
00C951E942F270F13306000000040000003600000000000000000000000000761000006662782F34423842443538372D383031412D343738372D393743392D4646394545464342323744332F747269616E676C65732E62696E504B01021400140006080000C951E94200000000000000000000000037000000000000000000
310
00000000D01000006662782F34423842443538372D383031412D343738372D393743392D4646394545464342323744332F617474726962757465732E62696E504B01021400140006080800C951E942D5987DFC8F000000410100003600000000000000000000000000251100006662782F34423842443538372D383031412D
310
343738372D393743392D4646394545464342323744332F6469726563746F72792E786D6C504B01021400140006080800C951E9423BDD2454FD000000A00100003B00000000000000000000000000081200006662782F34423842443538372D383031412D343738372D393743392D4646394545464342323744332F7265736F
310
75726365732F636F72652E786D6C504B0506000000000E000E00800400005E1300000000
  0
XRECORD
  5
17
102
{ACAD_REACTORS
330
12
102
}
330
12
100
AcDbXrecord
280
     1
270
     1
271
     1
  0
XRECORD
  5
16
102
{ACAD_REACTORS
330
12
102
}
330
12
100
AcDbXrecord
280
     1
270
     1
271
     1
  0
XRECORD
  5
18
102
{ACAD_REACTORS
330
12
102
}
330
12
100
AcDbXrecord
280
     1
270
     1
271
     1
  0
XRECORD
  5
15
102
{ACAD_REACTORS
330
12
102
}
330
12
100
AcDbXrecord
280
     1
270
     1
271
     1
  0
XRECORD
  5
24
102
{ACAD_REACTORS
330
22
102
}
330
22
100
AcDbXrecord
280
     1
270
     1
271
     1
  0
XRECORD
  5
23
102
{ACAD_REACTORS
330
22
102
}
330
22
100
AcDbXrecord
280
     1
270
     1
271
     1
  0
XRECORD
  5
BA
102
{ACAD_REACTORS
330
22
102
}
330
22
100
AcDbXrecord
280
     1
 70
     1
 90
1959938040
 71
     1
  1
00DB50C4-C000-4705-9B3E-E592B5EBD541
311
504B03040A0000080000C751E9423DEE336E79000000790000001B0000006175746F6465736B2D64657369676E2D7061636B6167652E786D6C3C3F786D6C2076657273696F6E3D22312E302220656E636F64696E673D227574662D3822203F3E3C666F726D6174733E3C666F726D61743E687474703A2F2F736368656D612E
311
6175746F6465736B2E636F6D2F64657369676E2D7061636B6167652F323030393C2F666F726D61743E3C2F666F726D6174733E504B0304140006080800C751E942D486FD9CA0000000F4000000130000005B436F6E74656E745F54797065735D2E786D6C7D8EC10E82300C865F65E91D8A1E8C310C0EEA1BF002731658846E
311
D98AC1B77784ABF1D8FE5FBFBF75BBCE937A534CCEB38643598122B6FEE978D0B0485F9C41B54DDD7D022595594E1A469170414C76A4D9A4D207E29CF43ECE46F218070CC6BECC4078ACAA135ACF422C856C0E68EA1BF5669944DDD7BCDE7B1F8E415D77AECB980613C2E4AC91FC167A2B244592486606FC29C8FD7F045B9A
311
EF7053A7E60B504B0304140006080800C751E942311D6206EB0000007C01000008000000636F72652E786D6C8D904D6EC3201085AF82665B614330696C61A2246E4FD00B20202E4A0C9681AAC72FCE8FD4EEBA9AD19BF7CD8C9ED87F4F57F46597E882EF81560490F53A18E7C71E723AE31DA0BD144B08E9970D905793ED61
311
95418A7109797E483AF8647D2AAA0FC63E4415A34D80F4B5343D44FD692755A99C8A235EAA59E98B1A6D459F5D81737606DD8F3853F6B9B3B30B48CE396B0F9460FE3E10DCB443838FBC659891E1F876D89EE8EEB415F50A4B91DCF4BCAF17AB9235203784324C5E31693F28E968D351FE4278C788A857FB1F28CFE69F5076
311
3EB1CDE3DD3B1641D2F2C86D2045BD6651CA2DA852D7DCE40F504B0304140006080800C751E94255019EA25F0000007C00000007000000636E782E786D6C4DCB3B0E80201045D1AD90E915ED2CF8AC45050C11660C8261F98AB1B07AC9C97D42D718D865D3E909258CFD00CCE24AC6E326A164D74DC0B4128928FF32603847
311
2BA13128B1252AC747C6BAB984FC68F0B87FE8960A5C09FE86CFB69FBA01504B0304140006080800C751E9429DA05C6168010000020300000C0000006662782F636F72652E786D6C8D525B6E833010BC8AE5DF0A6C074843641CE5D19EA01770C0A128602363A31CBFCB23A2A9A2A84232D6CCCEEEEC00DFDD9A1AF5CA7695
311
D1196621C548E9DC14952E33ECDD25D860B413DC1AE37E9561A465A3323CC058F0D21ADFCE506EB453DA01AA4DA16650769D7218E5355C32DCE5DFAA91A1F40E2ABA6BD8CAFC2A4B15B21068A813BC73160CA069C870627139DF389970C1BDAF8A99AD0A98565D2A65B14892244AF78C06C9E78906717A8A8343924641444F
311
878FFDFAC836C7352783587057357777B955D2A9028B15655140DF039A7E31BA65F196256F34D9469493A1FC41E4DBE29F225F6917AD66BB93ACC382819191F8B32D44E450277BF04304274388F01A137E0C1A0281909D3CD7F73DAE00F52A77C6C6C014C62F542F6BAF602A45E3C3C9C442E7B1016CF6B4CFEA459FD73DE0
311
034A5D8235E9E07AF66E98CEA7A97314ADB241EF6E481BDBC87A3137595CCE65D053796E6A63FFA326F3AA640E930C7FAFF801504B0304140006080800C751E9422AF903227C0000009D0000000B0000006662782F636E782E786D6C4DCCD10A83201886E15B91FFDC65A152A08648DE472C0B99E9703A76F9ABD1C18E3E78
311
F878C5F8D9037ABBFCF2294A686F04908BF7B4F8B849A865C53DA051899C52F9BB018AF3EE249C0C4A6C39D5E7458B5BE71ACAA1C1C7C78503D39AF4A6C39A5B8E29D1060FADB198916EA293A58C70068D12CDAF74EC19565F504B0304140006080800C751E94226F6CAF72D01000014020000310000006662782F39354141
311
303843322D413646362D343041432D393143462D3530324534454634353036352F636F72652E786D6C8D515B6EC32010BC0AE22B55850DB671E20813595172825E801A92A2C460F1A872FC42ED48ED5F7E58343B333BDA6587C77407DFCA796D4D0F4981215066B4529B6B0F63B8A01D0407CE9CB5E10F0D022326D5C30C43
311
CEAECEC67985466B823221A1C64AB582C27B152018EFE9D3433F7EA949142286C4F0B76216E34D5C55418AD44E3CCE7C7029005886E417F28E0E03DE1D2B34B4E716357838A28E1CCF88E2EAD49CCE0DC52D65E522E42C462D57B996298EBE68E55E35C962CE829E9EF147A7445012F20A931AE12DC2DD07C17BD2EC097DC7
311
745F635666FA3F519CE58BA2A84DA8AB35EE22F39013562E0DCEA48D9FF76718F598AD0B20CFDB7835BE418E0B4CAA9A76DB96950B352D2079B6CDEAE9837569C19BDB676293B4A66CDC369C95F946A9FC1E30D57C4FFE03504B0304140006080800C751E9425D795F404F01000033030000300000006662782F3935414130
311
3843322D413646362D343041432D393143462D3530324534454634353036352F636E782E786D6CD593CD6EC32010845F0571ADFC43E3A46D8489D4439FA0875E316C121A0C16E0AA79FB2E094973C9A1C75E90353BCCAC3E61BEF91E2DF982108D773D65754B0938E5B571BB9ECE695B3D53B2113C789F6E6C943839424FB3
311
4C05DF053F4F45D2B095B34DA85AE30E450C10FD1C144494F34D62BD921603C055338A300EA035687235E2D71602AE82E27024690FE4EDF583F8E113548ABCC9298237B943F07C96A61B1325CACA187B1AD51E4659CB39790DF1506B9964CDEA4BD79D9D7E9348BE70A99C8321B9BCA7F9A4A26C542347DEE050F09802D22B
311
A6749C800A394DD62899107273329E3D82CFC6A55557BC06C10774B3D5A2EB30EC34133C99118A4305900934158F2D5B54ED53D5BEBCB376CDBA355B3EB4CBF5A2E54DB60B3E786FCB258C81E027A2BC4BE012158C37797C0F5FF1116D02B2F6E1F8079008A0B49EE95C33FE339FE6F4BE1157C0BF40FC00504B0304140006
311
080800C751E94230CE499BA305000080100000340000006662782F39354141303843322D413646362D343041432D393143462D3530324534454634353036352F6F626A656374732E786D6CAD57DB6EDB3810FD1541FBB2FB605BF2A54D168A8AD84E0AA3485BD468B10F060C4AA2146E2851A0A8D4D9AFDF4389BAB976EA5D
311
F4C5B2A8E170E6CC990BBD7787945BCF54164C6437B63B766C8B66A1885896DCD8A58A4757B6F5CEF7A410AA27665B1949E98DAD976DDF4BA42873B314D198945C1DADDE2FFFB28A9066D4B6424E8AE2C62EC2479A923129958868F1348E8822E3243E8CDD712D38549B48923F1E29CD89A49982A558CFA0C5AA8D7287AF8E
311
3DF1BD89FEEE7BFAD748CDCE4B4D2A7F86E7B3AC50240B7F38EC48CDCC9DAFEFA68BEBD1623E9F8DE66FA6EE6879BF5C8FDCB73367F566B5BABEBDBBC6C18592D0642C9134B6FDF7C046B2D09BD49F7CAF64999A4D8D8809D044D267A62365FB53CBF526B54CEB9D71F294F9A1C8321A5658018DCA3FA33AA239CD22C49CD1
311
0296F5107286AFAEC6B1F779A6DFCD91FDE5CB10E8EFE8296A6C6F9E7D4B45F0375C282E61902CA866608DA571B4E6AAD3211C08C1CD37565829515432C22DCE0249E48BED43548BF8DE408D66B2D4D9A03DB07D44A1FE3CA40BD2E8E73C3F65655C72AE696CFB5516EC912B54159565EC1F2A3BEBFBC8C026C44AB3E1CA38
311
A45E726AFBD73545AE8ED8540369C59C240839DCD43B67D32347573A4F376BDBFF701F1CB63A774F1F9E4B9153A9347D40AD2670CD53A3646C722F8A9CDE601F99D281F205C87F44AA77A6206E921DE687B93945499215B19029626339D6C8C18F63B9D5AFFEDFFBE74DDACDC3E89DC313C1D650FD023C873EF463D983D3F7
311
9E41782167C6B56D4838CAC603CB00902689C505965087E3E060FB1B54395465EC22DC77E132CC7DC65F6F62D4A0505427F59E19B03C2A8B171468C056311266D4E437067671FAA19C55071BB173F02E7E095D6FD7DB0FDB52C624A40F26A7D73466195368711D6FFA060D301F78F4445FBE0B19C1D11FF1DEF6F14ECD5105
311
D0D6986BE093A6A6EB97EEE4C10121F62542971BEF2727C009DD587BFA1F581152CE494645D99CFB6AFF40DBA821D6C9AE99DC3698AEB18034F597A31C44930E25CB35886DB76A8BE6F88C775F371FC148C8731110DE09055DE90D0517721FBCECEBAA7412E96F436A1B08265A0BD85EE54893FE06F37DC4E2B82C50034FC0
311
FA6DB3EA874E57055488466B9D2C73B88FDC22D270B6D18B662D091AA9C8F60C6D136977F280BE7E206A0850293C67714179BC679C97E93E661CCD689F92FC0C1CFFDFFEA04CF33D494599A933BA07A6A3390C6D1F90B7F84E54F868FBDBEA395AA2F44634EAC23C10D6ADE4045683D03ACE7AB97056F3D1CA719CD1FCADB3
311
185D2F6777A3BBC5F574B9B85BAE17F30ECD6A86F2BDA6D3F4131A514267F34AC94CF8BE6E903EA606D8FE0351C5EE7D9D9DCDF3EB668C51D89B600FDA65BBF1367AC6D847A39F2BE8244F2ADAA439A729CD14D129F4A0FFF02F0463C6C0987A7D9392845EA0E5D3FBED913358B960DF679DEEF4FBD15EB3BAD2097952897A
311
2CD320238C1F6D4C6A24C7799618FC9A98B4CFBACF34AFFACD0406836921388B5006232BA122A50AC5F0821E24535A807AFD913E32578F0B763FD703A22201A78D258F0433322F9016E06D19AAE1BAF51B663A3D56DDD8E8B6E327FC984A615BE0CC8D8D195DB19016E300FD594F42957270A93FC883B3244B3846ED7A53FB
311
DEEED2D80C3A722B72C9F864FCAA2BB871006524C7D8807908D1A98CF1BDCA36F33DFC4F8E37E65844E16F50AAD6976EA175A63A06295A3B652E0B98619ECCD10724EAEB6EB9E34A6680C84597AC5749506B1D292293EAA2A0ED3326DDAE3F4F30A0589B4F56CECB04B1BC5CD3485290B9D4090E16811546674E14A8BAFA73
311
F7590A5C6453EB9E8102D6EF87AB377FEC56224D45562FED6ECD75D8DA3EE2721BED501CA8BE9514BBA9E34E77D56DC05C50F60129E89844C513161059C95AA007E1072FEB2B232A67FDA1959BE8501C3174B3B64C639B43A9A14BBFB66A70307764D4420EE91BA5CE98BE40FEEA85605289C2048951DEFF17504B03041400
311
06080000C751E942000000000000000000000000350000006662782F39354141303843322D413646362D343041432D393143462D3530324534454634353036352F76657274696365732E62696E504B0304140006080800C751E942F270F1330600000004000000360000006662782F39354141303843322D413646362D3430
311
41432D393143462D3530324534454634353036352F747269616E676C65732E62696E636660600000504B0304140006080000C751E942000000000000000000000000370000006662782F39354141303843322D413646362D343041432D393143462D3530324534454634353036352F617474726962757465732E62696E504B
311
0304140006080800C751E942D5987DFC8F00000041010000360000006662782F39354141303843322D413646362D343041432D393143462D3530324534454634353036352F6469726563746F72792E786D6C858F410EC2201045AF4266AF15DDB800BA74E7C21B903225242D6328188F2FA5C4183471359997F9FF81E89FF3
311
C41E1816475E02DF1F80A11FC8386F25A438EECEC07A250251FC3803E6F58C12560C4AD840E95E91C151A72936F496F35732D860FE635F62C8F2DA16B505C545B74125BAA2FA9E05D7CC053D063734D5C7665FD55B6B8D15D5E9BFEAFD8490FFA45E504B0304140006080800C751E942B5F0BCA1FE000000A00100003B0000
311
006662782F39354141303843322D413646362D343041432D393143462D3530324534454634353036352F7265736F75726365732F636F72652E786D6C8D50596EC32010BD8A35BF15368490C61626CAD29CA0174078E2A2C410B1543D7E71E24AED5F7F66466FD13C3DB9FB9A6ED5278668BDEB81D5142A74C60FD68D3DE474
311
215BA8764A06EFD32F19544E4FD8C30C839263F0F9BE40C6BB842E15D4F9011750C788092A732B470FD17CE0A46B9D5351C46B7DD7E6AA47AC595DE8A25332A6500254CF27F3041530FA1C0C46D93C592573B6C3A2B143F9692F16032821046FF7F44CC4F944C9BA3DADC941B49C707A3ABCED3747B63D6E64339B954C76FA
311
C96802EA8403A815659CD05742DB77463BB6EE9878A1A2E35436B3FC8F29DF877F9AB27589AF96B84F5B04C54A9007A16433F755D6A3CCB2E76ED537504B010214000A0000080000C751E9423DEE336E79000000790000001B00000000000000000000000000000000006175746F6465736B2D64657369676E2D7061636B61
311
67652E786D6C504B01021400140006080800C751E942D486FD9CA0000000F40000001300000000000000000000000000B20000005B436F6E74656E745F54797065735D2E786D6C504B01021400140006080800C751E942311D6206EB0000007C010000080000000000000000000000000083010000636F72652E786D6C504B
311
01021400140006080800C751E94255019EA25F0000007C000000070000000000000000000000000094020000636E782E786D6C504B01021400140006080800C751E9429DA05C6168010000020300000C00000000000000000000000000180300006662782F636F72652E786D6C504B01021400140006080800C751E9422AF9
311
03227C0000009D0000000B00000000000000000000000000AA0400006662782F636E782E786D6C504B01021400140006080800C751E94226F6CAF72D0100001402000031000000000000000000000000004F0500006662782F39354141303843322D413646362D343041432D393143462D3530324534454634353036352F63
311
6F72652E786D6C504B01021400140006080800C751E9425D795F404F010000330300003000000000000000000000000000CB0600006662782F39354141303843322D413646362D343041432D393143462D3530324534454634353036352F636E782E786D6C504B01021400140006080800C751E94230CE499BA30500008010
311
00003400000000000000000000000000680800006662782F39354141303843322D413646362D343041432D393143462D3530324534454634353036352F6F626A656374732E786D6C504B01021400140006080000C751E94200000000000000000000000035000000000000000000000000005D0E00006662782F3935414130
311
3843322D413646362D343041432D393143462D3530324534454634353036352F76657274696365732E62696E504B01021400140006080800C751E942F270F13306000000040000003600000000000000000000000000B00E00006662782F39354141303843322D413646362D343041432D393143462D353032453445463435
311
3036352F747269616E676C65732E62696E504B01021400140006080000C751E94200000000000000000000000037000000000000000000000000000A0F00006662782F39354141303843322D413646362D343041432D393143462D3530324534454634353036352F617474726962757465732E62696E504B01021400140006
311
080800C751E942D5987DFC8F0000004101000036000000000000000000000000005F0F00006662782F39354141303843322D413646362D343041432D393143462D3530324534454634353036352F6469726563746F72792E786D6C504B01021400140006080800C751E942B5F0BCA1FE000000A00100003B00000000000000
311
000000000000421000006662782F39354141303843322D413646362D343041432D393143462D3530324534454634353036352F7265736F75726365732F636F72652E786D6C504B0506000000000E000E0080040000991100000000
310
504B03040A0000080000C751E9423DEE336E79000000790000001B0000006175746F6465736B2D64657369676E2D7061636B6167652E786D6C3C3F786D6C2076657273696F6E3D22312E302220656E636F64696E673D227574662D3822203F3E3C666F726D6174733E3C666F726D61743E687474703A2F2F736368656D612E
310
6175746F6465736B2E636F6D2F64657369676E2D7061636B6167652F323030393C2F666F726D61743E3C2F666F726D6174733E504B0304140006080800C751E942D486FD9CA0000000F4000000130000005B436F6E74656E745F54797065735D2E786D6C7D8EC10E82300C865F65E91D8A1E8C310C0EEA1BF002731658846E
310
D98AC1B77784ABF1D8FE5FBFBF75BBCE937A534CCEB38643598122B6FEE978D0B0485F9C41B54DDD7D022595594E1A469170414C76A4D9A4D207E29CF43ECE46F218070CC6BECC4078ACAA135ACF422C856C0E68EA1BF5669944DDD7BCDE7B1F8E415D77AECB980613C2E4AC91FC167A2B244592486606FC29C8FD7F045B9A
310
EF7053A7E60B504B0304140006080800C751E9423659CCBCEB0000007C01000008000000636F72652E786D6C8D904D6EC3201085AF82D856D8E0FF5898286EE213F40208888B128365A0EAF10B8923B5BBAE66F4E67D33A3478FDFCB1D7CA9CD696B0648320C8132C24A6DE601067F451D044746376BFD2F1B04862F6A8049
310
868CCE9B0DEB2E096BBC323EAAC64AB58BDC39E52110F7D80CD0894FB5F08C071F1DEE96AD5CDCF8AC32F2EA221C8296E07944CBB84F5FB5DA209BEAEA44AAB140E3786950358D13EAAAD3199D0F97B6A9BBF6BD2184E60966D4EBE5755F6C8A7B25212B3029116E113E7C10DC93AA27F51BAEFB12D33CD9FF406195FF8482
310
36BE2CF6779F98832C3DF218309AA72C627904156BCA8DFD00504B0304140006080800C751E94255019EA25F0000007C00000007000000636E782E786D6C4DCB3B0E80201045D1AD90E915ED2CF8AC45050C11660C8261F98AB1B07AC9C97D42D718D865D3E909258CFD00CCE24AC6E326A164D74DC0B4128928FF32603847
310
2BA13128B1252AC747C6BAB984FC68F0B87FE8960A5C09FE86CFB69FBA01504B0304140006080800C751E9420E9D1A4768010000020300000C0000006662782F636F72652E786D6C8D52ED8E8320107C15C2DF8B0256FB15A4A9D7F609EE05A852CF54C120983EFEAD1F4DAF97A6B9982099D9D99D1DE5BB5B53A35ED9AE32
310
3AC52CA418299D9BA2D2658ABDBB046B8C76825B63DCAF328CB46C548A07180B5E5AE3DB19CA8D764A3B40B529D40CCAAE530EA3BC864B8ABBFC5B353294DE4145770D5B995F65A94216020D758277CE8201340D194E2C2EE71B27132EB8F75531B35501D3AA4BA52C16A724DEB3388B822C3B2E83F8949D8275BC3F0487CD
310
71B54CD6ABCF25639C0C62C15DD5DCDDE55649A70A2C22CA16015D0574F3C5E896C55B967CD064BBA09C0CE54F22DF16FF14F94ABB4534DB9D641D16839191F8B32D44E450277BF04304274388F01A137E0E1A0281909D3CD7F73DAE00F52A77C6C6C014C63FA85ED65EC1548AC687938985CE6303D8EC659FE84D9FF73DE0
310
034A5D8235E9E07AF66E98CEA7A97314ADB241EF6E481BDBC8FA616EB2F8381F835ECA73531BFB1F35995725739864F87BC50F504B0304140006080800C751E94232C32BBE7C0000009D0000000B0000006662782F636E782E786D6C4DCCD10A83201886E15B91FFDCE5EF5C4C5003F3466259C84CC3D9D8E5AF46073BFAE0
310
E1E355DD6789E4EDCB2BE4A4012F0C884F8F3C86346BD8EA44EF403AA34ACEF5EF06240D8BD77030183597BCAD278D7E1AB658778D213D4F643DE357C61CED11251537E9A8E54250CB90636B5B8712A131AAF995F63DC2E60B504B0304140006080800C751E94258DAAED82901000014020000310000006662782F30433032
310
333030442D433131392D343539442D423234342D4230313231364236443139312F636F72652E786D6C8D515B6EC32010BC0AE22B55850D3676EA081329C9117A0162931425068B4795E377A91DA9FDCB0F8B7667666777C5FE31DDD1B7F6C138DB6356508CB41DDC68ECB5C7295EC807467B29BC73F10F0C23AB26DDE39CC6
310
525CBD4BF39A1A9C8DDA46C85A37EA35A942D011A3E10E9F1E87E14B4FAA50290222DC8A590D3775D5052BA00C382942F460002D4DF28B253DD2AAA6F4448E8C758437DD891C2ACEC981B28AB587F6C43A26CA8528454A665CE966043BE662B47F552493A588667ADA1FBC56518F585694D5846E09ED3E19DD31BE63CD3B6D
310
7635156586FF23A5797C91948C8D75B5DA5D68014B9866294831BA74BE3FCDE8C7EC7C44B9DF26E8E10DA62AC0D69637DB56940B1416009A2D5F3543741E16BCB99D015DAFC22D97A2CC3782F07B4088F99EF207504B0304140006080800C751E9423BDE90575701000033030000300000006662782F30433032333030442D
310
433131392D343539442D423234342D4230313231364236443139312F636E782E786D6CBD93CD6EC32010845F0571ADFC43ECA4698489D4439FA0875E316C121A1B2CC055F3F65D1292E6D243A5AA1764CD0E33AB4F986F3FC7817C800FC6D98EB2B2A604AC72DAD87D47E7B82BD6946C05F7CEC53B1B25568ED0D12453C1F7
310
DECD539634ECE43C445407638F59F410DCEC150494D34D323825070C005BCC28C2D883D6A0C9CD885F3BF0B80A8AFD89C4039097E737E2FA775031F02AA5085EA50EC1D3999BEE4C94A84186D0D1A00E30CA52CED16908C752CB284B565EBB7ED8E93B89A40BD7CAD91B92CA3B9A4E2AF2462572E4150E050FD123BD6C8AA7
310
09A890D33418252342AECEC68B47F0D9D8B86AB3D720788FEE66B15AAF31EC3C133C9A11B24379901134158B9A3545FD58D44FAFACDEB076C3960FF572D3D4BC4A76C17BE7867C0963C0BB89286723D84805E3551AFF842FFB88361E593B7FFA054804905B2F746E197FC987AD9AB6FD473ED5F97D232E8F7F81F802504B03
310
04140006080800C751E942EF3F112160070000991B0000340000006662782F30433032333030442D433131392D343539442D423234342D4230313231364236443139312F6F626A656374732E786D6CED595B73A33614FE2B0C7D691F8C21B677371D4227B1B33B9E9DB43BEBEE4E1F3CC3C8201335423092C8A5BFBE471730
310
1093E0367DEB830D08E9E89CEF5C75087F79CCA9738FB92005BB7003CF771DCC9222252CBB702BB99F7C709D5FA29017856C4D731D86727CE1AA61370A335E54A51D4AF11E5554F6463F5EFDE1880433EC3A0945425CB822B9C539F250258B148B3B2F451279D9FED10B3C33B14B36E3A8BCED112D11C74C02A730CE808A63
310
980ABA8FBE3B8DC2A97A1F85EADFCE9A8D9A351F9E35D55277B9244C48C492672CF5C8CC46B1340BE6ABEBB3C5F964319FCF26F37767C1E4EAE3D56A12BC9FF9CB77CBE5F9E5F539B0B72B0A6A654A7189590AFA7B72A3209CAA378DE81681635C27056338D14002545AAC3E4182056CD582CFEF3E064AA2D66B2D61EB79AE
310
DE5B165AC3B32E95A159E380E8D00541EC76B5C4F5B52D5FB1FB130417638C920B2C815B213968D7C2C3C12BDCC80FA766340A77075D10E1E448624E107528D971C4412930554D8942B3C09251CEC18194A324D09A33AFBBB6059EF9BAEB1CE3725F51AA3CC38DB463C5E07E580ACD19F90BF303F76D64802790B6224C7EB0
310
5CCAA712BBD17938D58351A82EB333FBD200E9EC29CA8446C4BCED09BA54AEBF5EB9D1E78FBBC78D0A07C7372F7951622E95D1293D6ABEC090ED55A164B70D46694E2D00610CA876E50194AF80FCAF103D0EAC80DE38799C3FCEED5CC91113FB82E7A01BC777263EFCF94EA0FFD57DEB2E9C368BBBDA1BC213DC5441F5E1DF
310
E3D995416365F96FC11985F760F0059FD9579B0451B0E71BC2002065240E2D600842FB7EF7E8466B089C10E86115A251002203BBF7701B4E2D9983566AF7B25EC70051BBC76C8C9200366D91C0C6809E3E41F6E02439A8A92DE210BC8B3731D7CBD5E6F3A6E27B94E01BEBD32BBC278C48C89AC719EA60DE91E80E3F3D143C
310
05419FE3BD69E39DDBAD04A0AD3057C0673508EAE1B073678304D665850A37E12B3B80102A57B7E8DF1091604A11C34555EFDB443765A88DC7DB9AC18DCE0CC4B3B39E09737C4F5455014E7398D16114F27EC249A94074A34F46B226687A03D27D5BFF0A16D9CC1F98B566107A19A2BFEBA07504878E65D7485B201A817787
310
709E14B4E0F1EE293691CE855A02D8E87ACBF70E5188F546498A0A7890F6BB3AA46446DA3825FB7D2520AE1E61F1FB7AD93607DF9B050BA7FDDF73C639445BF05DC4ADDFF5F688498E321CEF513AB45D7BB786B6D024074873BCA72017B927F2294632F6539C9D02CD49C4CFDF947A460B2108C302F2D551F0DB68F81E0412
310
A3CD9A65A5D51ED044C43996889E8280223300AE4E3BBAC64DA074789DC7C67A5FD2589BE87F64111C412D59B09840290A39E455C6036F0131A48BAE41B9872F585B4D5B8B412B282192A7F80193EC569E82BA213F807B0247924AC645891230EB11649FF98A526A8FF71D4AEE54FE88938ABE9581084CF731A1B4CA63F811
310
06278F31AEDD04A61751681137B14FE21C8A32242B3E6693770BFFD93EA666E887C0D6467B42216CC7392A0750EF04445D8F380DF896FA805277555EC6282F2A36CA50BC59DF9B2CF9BE5A15D991FCAA5211CAC69AB025188584C926ABD6311B4C5D075670231DA89E6281F2929A53D82B892768BC49531EDC805B3F7DDB0D
310
7228FC06B4D78EA8F31A06CB63A730100F4826B76EB4D1D7C915D4DF294E0FA9BEAE35DB152020A62279C58955D1B7359437B64673A31B24C5F693C9BAF5F5DBDA83EE4738853550BB340BD70AE81C3389546572A36EE8570421B843C38CAF554E3D85CA659AEAAA11D18F64489D9D32A2B3694EBCF216B322871FDB1296D0
310
2AC55B948ABBF846D2784314EB564A2F2735C62F0AF8DBA74D0F1E181921D21755E0E187DE5A3BBA54E5D25122F2B6CA770C1108821DD132A31BAF6499D548ADE5E6AACE14507781815915CFFF3F59B4DB11FF9F2C326B18FFEE64418B1DA28768D3CAE68932EB934E014D7A5254DEE214A0BB0E0DD52689985C6EC5B7BE14
310
434CAC83FCE862AC8E1986E010C7FF38690F2541B35D8FFFD39276F0ACE03829A97426AB26D591C275DD4E61BEBFBA5AF8CBF964E9FBFE64FEDE5F4CCEAF66D793EBC5F9D9D5E2FA6AB598377A32C4A3B089653A75C1B38969F5B07AB2184053561494A470984F9D0C43C89770A41FD13DE73916903BDBBDEED4F6E447ACBE
310
376D4E897614D79CDC22E80F5301591DC4A812D91D777E80CEA48473F6850B3D23EF0EFEAC55BA0E249E0B173A05922458783BE832A97E9E260E1957A77E4B0CE2186299CA886651F3DCAC52D874A27F33654C16B072755A1850B795D0FCEA3428346F96A7E424C16B761C24E176574928D68C2C87814618BDCD41FD46364A
310
D89DDDFA115CF765B1024FCFE92032EA8BC18B4660A84E24E2996E772BC62C4B97AB2F5368B339EBDF9C925619E8723CA509C760CC95AAA7C08AC02A2CCD124930D5E5CFDB2FBC802F3CB9A38B22E7C7C70FEF7EDA2E8B3C2F9819DA5EC2A12C85EF44CEE616BEFAA45BA81DB0EAAD8BED991F9C6D754FDBB6D9E31D12D853
310
45110CD4B58412A467726097CFFA53B67B3955AAE84D5FAF1C1B44A11760ECE8598BD77CE372C087D4D714E531DACF6B695F6C6B4FF554B0090E0DE9E86F504B0304140006080000C751E942000000000000000000000000350000006662782F30433032333030442D433131392D343539442D423234342D42303132313642
310
36443139312F76657274696365732E62696E504B0304140006080800C751E942F270F1330600000004000000360000006662782F30433032333030442D433131392D343539442D423234342D4230313231364236443139312F747269616E676C65732E62696E636660600000504B0304140006080000C751E9420000000000
310
00000000000000370000006662782F30433032333030442D433131392D343539442D423234342D4230313231364236443139312F617474726962757465732E62696E504B0304140006080800C751E942D5987DFC8F00000041010000360000006662782F30433032333030442D433131392D343539442D423234342D423031
310
3231364236443139312F6469726563746F72792E786D6C858F410EC2201045AF4266AF15DDB800BA74E7C21B903225242D6328188F2FA5C4183471359997F9FF81E89FF3C41E1816475E02DF1F80A11FC8386F25A438EECEC07A250251FC3803E6F58C12560C4AD840E95E91C151A72936F496F35732D860FE635F62C8F2DA
310
16B505C545B74125BAA2FA9E05D7CC053D063734D5C7665FD55B6B8D15D5E9BFEAFD8490FFA45E504B0304140006080800C751E9425EB3918DFE000000A00100003B0000006662782F30433032333030442D433131392D343539442D423234342D4230313231364236443139312F7265736F75726365732F636F72652E786D
310
6C8D50596E833010BD0A9ADFCA6007C826E32834C9097A01CB4C889560475EAA1EBF76A052FBD79F99D15B344F8F1FBEA647F189CE6B6B3A602585028DB283366307315CC9168A83E0CEDAF04B06859113769061107C74363E17485913D084841A3BE0024AEF3140A11EE9E8C0AB1B4EB294312485BF974FA9EE72C4929589
310
4E3AC17D702940313FC91384436FA353E87935B382C7A88745A387F4535F353A1097B639B2A667A4EFCF6BD25CFA0BD936C71339EDCE9B75BBDDBCAF19E355360B1EF4F4935139940107102BCA6A423784EE3E18DDB366CFDA37DAEE6BCAAB2CFF638ACFE19FA6A84DA8574BDCD9E641E4202F42F02AF795D6ABCCB473B7E2
310
1B504B010214000A0000080000C751E9423DEE336E79000000790000001B00000000000000000000000000000000006175746F6465736B2D64657369676E2D7061636B6167652E786D6C504B01021400140006080800C751E942D486FD9CA0000000F40000001300000000000000000000000000B20000005B436F6E74656E
310
745F54797065735D2E786D6C504B01021400140006080800C751E9423659CCBCEB0000007C010000080000000000000000000000000083010000636F72652E786D6C504B01021400140006080800C751E94255019EA25F0000007C000000070000000000000000000000000094020000636E782E786D6C504B010214001400
310
06080800C751E9420E9D1A4768010000020300000C00000000000000000000000000180300006662782F636F72652E786D6C504B01021400140006080800C751E94232C32BBE7C0000009D0000000B00000000000000000000000000AA0400006662782F636E782E786D6C504B01021400140006080800C751E94258DAAED8
310
290100001402000031000000000000000000000000004F0500006662782F30433032333030442D433131392D343539442D423234342D4230313231364236443139312F636F72652E786D6C504B01021400140006080800C751E9423BDE905757010000330300003000000000000000000000000000C70600006662782F3043
310
3032333030442D433131392D343539442D423234342D4230313231364236443139312F636E782E786D6C504B01021400140006080800C751E942EF3F112160070000991B000034000000000000000000000000006C0800006662782F30433032333030442D433131392D343539442D423234342D4230313231364236443139
310
312F6F626A656374732E786D6C504B01021400140006080000C751E94200000000000000000000000035000000000000000000000000001E1000006662782F30433032333030442D433131392D343539442D423234342D4230313231364236443139312F76657274696365732E62696E504B01021400140006080800C751E9
310
42F270F13306000000040000003600000000000000000000000000711000006662782F30433032333030442D433131392D343539442D423234342D4230313231364236443139312F747269616E676C65732E62696E504B01021400140006080000C751E9420000000000000000000000003700000000000000000000000000
310
CB1000006662782F30433032333030442D433131392D343539442D423234342D4230313231364236443139312F617474726962757465732E62696E504B01021400140006080800C751E942D5987DFC8F000000410100003600000000000000000000000000201100006662782F30433032333030442D433131392D34353944
310
2D423234342D4230313231364236443139312F6469726563746F72792E786D6C504B01021400140006080800C751E9425EB3918DFE000000A00100003B00000000000000000000000000031200006662782F30433032333030442D433131392D343539442D423234342D4230313231364236443139312F7265736F75726365
310
732F636F72652E786D6C504B0506000000000E000E00800400005A1300000000
  0
XRECORD
  5
27
102
{ACAD_REACTORS
330
22
102
}
330
22
100
AcDbXrecord
280
     1
270
     1
271
     1
  0
XRECORD
  5
26
102
{ACAD_REACTORS
330
22
102
}
330
22
100
AcDbXrecord
280
     1
270
     1
271
     1
  0
XRECORD
  5
28
102
{ACAD_REACTORS
330
22
102
}
330
22
100
AcDbXrecord
280
     1
270
     1
271
     1
  0
XRECORD
  5
25
102
{ACAD_REACTORS
330
22
102
}
330
22
100
AcDbXrecord
280
     1
270
     1
271
     1
  0
XRECORD
  5
E62
102
{ACAD_REACTORS
330
E61
102
}
330
E61
100
AcDbXrecord
280
     1
102
ACAD_ROUNDTRIP_2012_MLEADER_STYLE
298
     1
  0
CELLSTYLEMAP
  5
E60
102
{ACAD_REACTORS
330
E5F
102
}
330
E5F
100
AcDbCellStyleMap
 90
        3
300
CELLSTYLE
  1
TABLEFORMAT_BEGIN
 90
        5
170
     1
 91
        0
 92
    32768
 62
   257
 93
        1
300
CONTENTFORMAT
  1
CONTENTFORMAT_BEGIN
 90
        0
 91
        0
 92
      512
 93
        0
300

 40
0.0
140
1.0
 94
        5
 62
     0
340
55
144
0.25
309
CONTENTFORMAT_END
171
     0
 94
        0
309
TABLEFORMAT_END
  1
CELLSTYLE_BEGIN
 90
        1
 91
        1
300
_TITLE
309
CELLSTYLE_END
300
CELLSTYLE
  1
TABLEFORMAT_BEGIN
 90
        5
170
     1
 91
        0
 92
        0
 62
   257
 93
        1
300
CONTENTFORMAT
  1
CONTENTFORMAT_BEGIN
 90
        0
 91
        0
 92
      512
 93
        0
300

 40
0.0
140
1.0
 94
        5
 62
     0
340
55
144
0.18
309
CONTENTFORMAT_END
171
     0
 94
        0
309
TABLEFORMAT_END
  1
CELLSTYLE_BEGIN
 90
        2
 91
        1
300
_HEADER
309
CELLSTYLE_END
300
CELLSTYLE
  1
TABLEFORMAT_BEGIN
 90
        5
170
     1
 91
        0
 92
        0
 62
   257
 93
        1
300
CONTENTFORMAT
  1
CONTENTFORMAT_BEGIN
 90
        0
 91
        0
 92
      512
 93
        0
300

 40
0.0
140
1.0
 94
        2
 62
     0
340
55
144
0.18
309
CONTENTFORMAT_END
171
     0
 94
        0
309
TABLEFORMAT_END
  1
CELLSTYLE_BEGIN
 90
        3
 91
        2
300
_DATA
309
CELLSTYLE_END
  0
ENDSEC
  0
EOF
