  0
SECTION
  2
HEADER
  9
$ACADVER
  1
AC1024
  9
$ACADMAINTVER
 70
    63
  9
$DWGCODEPAGE
  3
ANSI_1252
  9
$AUTHOR
  1
MS
  9
$REVISIONNUMBER
  1
-
  9
$CUSTOMPROPERTYTAG
  1
Manager
  9
$CUSTOMPROPERTY
  1

  9
$CUSTOMPROPERTYTAG
  1
Company
  9
$CUSTOMPROPERTY
  1

  9
$CUSTOMPROPERTYTAG
  1
Category
  9
$CUSTOMPROPERTY
  1

  9
$CUSTOMPROPERTYTAG
  1
Part Number
  9
$CUSTOMPROPERTY
  1
NPDD7272
  9
$CUSTOMPROPERTYTAG
  1
Description
  9
$CUSTOMPROPERTY
  1
NPDD PANEL MASTER VIEW
  9
$CUSTOMPROPERTYTAG
  1
Project
  9
$CUSTOMPROPERTY
  1

  9
$CUSTOMPROPERTYTAG
  1
Designer
  9
$CUSTOMPROPERTY
  1
MS
  9
$CUSTOMPROPERTYTAG
  1
Engineer
  9
$CUSTOMPROPERTY
  1

  9
$CUSTOMPROPERTYTAG
  1
Authority
  9
$CUSTOMPROPERTY
  1

  9
$CUSTOMPROPERTYTAG
  1
Cost Center
  9
$CUSTOMPROPERTY
  1

  9
$CUSTOMPROPERTYTAG
  1
Vendor
  9
$CUSTOMPROPERTY
  1

  9
$CUSTOMPROPERTYTAG
  1
User Status
  9
$CUSTOMPROPERTY
  1

  9
$CUSTOMPROPERTYTAG
  1
Design Status
  9
$CUSTOMPROPERTY
  1
WorkInProgress
  9
$CUSTOMPROPERTYTAG
  1
Checked by
  9
$CUSTOMPROPERTY
  1
NJ
  9
$CUSTOMPROPERTYTAG
  1
Date Checked
  9
$CUSTOMPROPERTY
  1
06/19/2013
  9
$CUSTOMPROPERTYTAG
  1
Engr Approved by
  9
$CUSTOMPROPERTY
  1

  9
$CUSTOMPROPERTYTAG
  1
Mfg Approved by
  9
$CUSTOMPROPERTY
  1

  9
$CUSTOMPROPERTYTAG
  1
DWG. NO
  9
$CUSTOMPROPERTY
  1

  9
$CUSTOMPROPERTYTAG
  1
NUMBER OF SHEETS
  9
$CUSTOMPROPERTY
  1
2
  9
$CUSTOMPROPERTYTAG
  1
DRAWING #
  9
$CUSTOMPROPERTY
  1
1
  9
$INSBASE
 10
0.0
 20
0.0
 30
0.0
  9
$EXTMIN
 10
0.0
 20
0.0
 30
0.0
  9
$EXTMAX
 10
204.0
 20
132.0
 30
0.0
  9
$LIMMIN
 10
0.0
 20
0.0
  9
$LIMMAX
 10
204.0
 20
132.0
  9
$ORTHOMODE
 70
     0
  9
$REGENMODE
 70
     1
  9
$FILLMODE
 70
     1
  9
$QTEXTMODE
 70
     0
  9
$MIRRTEXT
 70
     0
  9
$LTSCALE
 40
12.0
  9
$ATTMODE
 70
     1
  9
$TEXTSIZE
 40
0.2
  9
$TRACEWID
 40
0.05
  9
$TEXTSTYLE
  7
Standard
  9
$CLAYER
  8
0
  9
$CELTYPE
  6
ByLayer
  9
$CECOLOR
 62
   256
  9
$CELTSCALE
 40
1.0
  9
$DISPSILH
 70
     0
  9
$DIMSCALE
 40
1.0
  9
$DIMASZ
 40
0.0708661417322835
  9
$DIMEXO
 40
0.0625
  9
$DIMDLI
 40
0.38
  9
$DIMRND
 40
0.0
  9
$DIMDLE
 40
0.0
  9
$DIMEXE
 40
0.18
  9
$DIMTP
 40
0.0
  9
$DIMTM
 40
0.0
  9
$DIMTXT
 40
0.0708661417322835
  9
$DIMCEN
 40
0.09
  9
$DIMTSZ
 40
0.0
  9
$DIMTOL
 70
     0
  9
$DIMLIM
 70
     0
  9
$DIMTIH
 70
     1
  9
$DIMTOH
 70
     1
  9
$DIMSE1
 70
     0
  9
$DIMSE2
 70
     0
  9
$DIMTAD
 70
     0
  9
$DIMZIN
 70
     0
  9
$DIMBLK
  1

  9
$DIMASO
 70
     1
  9
$DIMSHO
 70
     1
  9
$DIMPOST
  1

  9
$DIMAPOST
  1

  9
$DIMALT
 70
     0
  9
$DIMALTD
 70
     2
  9
$DIMALTF
 40
25.4
  9
$DIMLFAC
 40
1.0
  9
$DIMTOFL
 70
     0
  9
$DIMTVP
 40
0.0
  9
$DIMTIX
 70
     0
  9
$DIMSOXD
 70
     0
  9
$DIMSAH
 70
     0
  9
$DIMBLK1
  1

  9
$DIMBLK2
  1

  9
$DIMSTYLE
  2
STANDARD
  9
$DIMCLRD
 70
     0
  9
$DIMCLRE
 70
     0
  9
$DIMCLRT
 70
     0
  9
$DIMTFAC
 40
1.0
  9
$DIMGAP
 40
0.09
  9
$DIMJUST
 70
     0
  9
$DIMSD1
 70
     0
  9
$DIMSD2
 70
     0
  9
$DIMTOLJ
 70
     1
  9
$DIMTZIN
 70
     0
  9
$DIMALTZ
 70
     0
  9
$DIMALTTZ
 70
     0
  9
$DIMUPT
 70
     0
  9
$DIMDEC
 70
     4
  9
$DIMTDEC
 70
     4
  9
$DIMALTU
 70
     2
  9
$DIMALTTD
 70
     2
  9
$DIMTXSTY
  7
Standard
  9
$DIMAUNIT
 70
     0
  9
$DIMADEC
 70
     0
  9
$DIMALTRND
 40
0.0
  9
$DIMAZIN
 70
     0
  9
$DIMDSEP
 70
    46
  9
$DIMATFIT
 70
     3
  9
$DIMFRAC
 70
     0
  9
$DIMLDRBLK
  1

  9
$DIMLUNIT
 70
     2
  9
$DIMLWD
 70
    -2
  9
$DIMLWE
 70
    -2
  9
$DIMTMOVE
 70
     0
  9
$DIMFXL
 40
1.0
  9
$DIMFXLON
 70
     0
  9
$DIMJOGANG
 40
0.7853981633974483
  9
$DIMTFILL
 70
     0
  9
$DIMTFILLCLR
 70
     0
  9
$DIMARCSYM
 70
     0
  9
$DIMLTYPE
  6

  9
$DIMLTEX1
  6

  9
$DIMLTEX2
  6

  9
$DIMTXTDIRECTION
 70
     0
  9
$LUNITS
 70
     2
  9
$LUPREC
 70
     4
  9
$SKETCHINC
 40
0.1
  9
$FILLETRAD
 40
0.0
  9
$AUNITS
 70
     0
  9
$AUPREC
 70
     0
  9
$MENU
  1
.
  9
$ELEVATION
 40
0.0
  9
$PELEVATION
 40
0.0
  9
$THICKNESS
 40
0.0
  9
$LIMCHECK
 70
     0
  9
$CHAMFERA
 40
0.0
  9
$CHAMFERB
 40
0.0
  9
$CHAMFERC
 40
0.0
  9
$CHAMFERD
 40
0.0
  9
$SKPOLY
 70
     0
  9
$TDCREATE
 40
2456465.442875903
  9
$TDUCREATE
 40
2456465.213709236
  9
$TDUPDATE
 40
2456465.442875914
  9
$TDUUPDATE
 40
2456465.213709248
  9
$TDINDWG
 40
0.0000445139
  9
$TDUSRTIMER
 40
0.0000445139
  9
$USRTIMER
 70
     1
  9
$ANGBASE
 50
0.0
  9
$ANGDIR
 70
     0
  9
$PDMODE
 70
     0
  9
$PDSIZE
 40
0.0
  9
$PLINEWID
 40
0.0
  9
$SPLFRAME
 70
     0
  9
$SPLINETYPE
 70
     6
  9
$SPLINESEGS
 70
     8
  9
$HANDSEED
  5
E7D
  9
$SURFTAB1
 70
     6
  9
$SURFTAB2
 70
     6
  9
$SURFTYPE
 70
     6
  9
$SURFU
 70
     6
  9
$SURFV
 70
     6
  9
$UCSBASE
  2

  9
$UCSNAME
  2

  9
$UCSORG
 10
0.0
 20
0.0
 30
0.0
  9
$UCSXDIR
 10
1.0
 20
0.0
 30
0.0
  9
$UCSYDIR
 10
0.0
 20
1.0
 30
0.0
  9
$UCSORTHOREF
  2

  9
$UCSORTHOVIEW
 70
     0
  9
$UCSORGTOP
 10
0.0
 20
0.0
 30
0.0
  9
$UCSORGBOTTOM
 10
0.0
 20
0.0
 30
0.0
  9
$UCSORGLEFT
 10
0.0
 20
0.0
 30
0.0
  9
$UCSORGRIGHT
 10
0.0
 20
0.0
 30
0.0
  9
$UCSORGFRONT
 10
0.0
 20
0.0
 30
0.0
  9
$UCSORGBACK
 10
0.0
 20
0.0
 30
0.0
  9
$PUCSBASE
  2

  9
$PUCSNAME
  2

  9
$PUCSORG
 10
0.0
 20
0.0
 30
0.0
  9
$PUCSXDIR
 10
1.0
 20
0.0
 30
0.0
  9
$PUCSYDIR
 10
0.0
 20
1.0
 30
0.0
  9
$PUCSORTHOREF
  2

  9
$PUCSORTHOVIEW
 70
     0
  9
$PUCSORGTOP
 10
0.0
 20
0.0
 30
0.0
  9
$PUCSORGBOTTOM
 10
0.0
 20
0.0
 30
0.0
  9
$PUCSORGLEFT
 10
0.0
 20
0.0
 30
0.0
  9
$PUCSORGRIGHT
 10
0.0
 20
0.0
 30
0.0
  9
$PUCSORGFRONT
 10
0.0
 20
0.0
 30
0.0
  9
$PUCSORGBACK
 10
0.0
 20
0.0
 30
0.0
  9
$USERI1
 70
     0
  9
$USERI2
 70
     0
  9
$USERI3
 70
     0
  9
$USERI4
 70
     0
  9
$USERI5
 70
     0
  9
$USERR1
 40
0.0
  9
$USERR2
 40
0.0
  9
$USERR3
 40
0.0
  9
$USERR4
 40
0.0
  9
$USERR5
 40
0.0
  9
$WORLDVIEW
 70
     1
  9
$SHADEDGE
 70
     3
  9
$SHADEDIF
 70
    70
  9
$TILEMODE
 70
     1
  9
$MAXACTVP
 70
    64
  9
$PINSBASE
 10
0.0
 20
0.0
 30
0.0
  9
$PLIMCHECK
 70
     0
  9
$PEXTMIN
 10
0.0
 20
0.0
 30
0.0
  9
$PEXTMAX
 10
204.0
 20
132.0
 30
0.0
  9
$PLIMMIN
 10
0.0
 20
0.0
  9
$PLIMMAX
 10
204.0
 20
132.0
  9
$UNITMODE
 70
     0
  9
$VISRETAIN
 70
     1
  9
$PLINEGEN
 70
     0
  9
$PSLTSCALE
 70
     1
  9
$TREEDEPTH
 70
  3020
  9
$CMLSTYLE
  2
Standard
  9
$CMLJUST
 70
     0
  9
$CMLSCALE
 40
1.0
  9
$PROXYGRAPHICS
 70
     1
  9
$MEASUREMENT
 70
     0
  9
$CELWEIGHT
370
    -1
  9
$ENDCAPS
280
     0
  9
$JOINSTYLE
280
     0
  9
$LWDISPLAY
290
     0
  9
$INSUNITS
 70
     1
  9
$HYPERLINKBASE
  1

  9
$STYLESHEET
  1

  9
$XEDIT
290
     1
  9
$CEPSNTYPE
380
     0
  9
$PSTYLEMODE
290
     1
  9
$FINGERPRINTGUID
  2
{76E0632B-F26F-432E-B9BB-2BC007079505}
  9
$VERSIONGUID
  2
{DD3E40C7-0402-49DF-8186-592555EF2693}
  9
$EXTNAMES
290
     1
  9
$PSVPSCALE
 40
0.0
  9
$OLESTARTUP
290
     0
  9
$SORTENTS
280
   127
  9
$INDEXCTL
280
     0
  9
$HIDETEXT
280
     1
  9
$XCLIPFRAME
280
     2
  9
$HALOGAP
280
     0
  9
$OBSCOLOR
 70
   257
  9
$OBSLTYPE
280
     0
  9
$INTERSECTIONDISPLAY
280
     0
  9
$INTERSECTIONCOLOR
 70
   257
  9
$DIMASSOC
280
     1
  9
$PROJECTNAME
  1

  9
$CAMERADISPLAY
290
     0
  9
$LENSLENGTH
 40
50.0
  9
$CAMERAHEIGHT
 40
0.0
  9
$STEPSPERSEC
 40
2.0
  9
$STEPSIZE
 40
6.0
  9
$3DDWFPREC
 40
2.0
  9
$PSOLWIDTH
 40
0.25
  9
$PSOLHEIGHT
 40
4.0
  9
$LOFTANG1
 40
1.570796326794896
  9
$LOFTANG2
 40
1.570796326794896
  9
$LOFTMAG1
 40
0.0
  9
$LOFTMAG2
 40
0.0
  9
$LOFTPARAM
 70
     7
  9
$LOFTNORMALS
280
     1
  9
$LATITUDE
 40
37.795
  9
$LONGITUDE
 40
-122.394
  9
$NORTHDIRECTION
 40
0.0
  9
$TIMEZONE
 70
 -8000
  9
$LIGHTGLYPHDISPLAY
280
     1
  9
$TILEMODELIGHTSYNCH
280
     1
  9
$CMATERIAL
347
11
  9
$SOLIDHIST
280
     0
  9
$SHOWHIST
280
     1
  9
$DWFFRAME
280
     2
  9
$DGNFRAME
280
     0
  9
$REALWORLDSCALE
290
     1
  9
$INTERFERECOLOR
 62
     1
  9
$INTERFEREOBJVS
345
33
  9
$INTERFEREVPVS
346
30
  9
$CSHADOW
280
     0
  9
$SHADOWPLANELOCATION
 40
0.0
  0
ENDSEC
  0
SECTION
  2
CLASSES
  0
CLASS
  1
ACDBDICTIONARYWDFLT
  2
AcDbDictionaryWithDefault
  3
ObjectDBX Classes
 90
        0
 91
        1
280
     0
281
     0
  0
CLASS
  1
MATERIAL
  2
AcDbMaterial
  3
ObjectDBX Classes
 90
     1153
 91
        3
280
     0
281
     0
  0
CLASS
  1
VISUALSTYLE
  2
AcDbVisualStyle
  3
ObjectDBX Classes
 90
     4095
 91
       24
280
     0
281
     0
  0
CLASS
  1
SCALE
  2
AcDbScale
  3
ObjectDBX Classes
 90
     1153
 91
       17
280
     0
281
     0
  0
CLASS
  1
TABLESTYLE
  2
AcDbTableStyle
  3
ObjectDBX Classes
 90
     4095
 91
        1
280
     0
281
     0
  0
CLASS
  1
MLEADERSTYLE
  2
AcDbMLeaderStyle
  3
ACDB_MLEADERSTYLE_CLASS
 90
     4095
 91
        1
280
     0
281
     0
  0
CLASS
  1
DICTIONARYVAR
  2
AcDbDictionaryVar
  3
ObjectDBX Classes
 90
        0
 91
        3
280
     0
281
     0
  0
CLASS
  1
CELLSTYLEMAP
  2
AcDbCellStyleMap
  3
ObjectDBX Classes
 90
     1152
 91
        1
280
     0
281
     0
  0
ENDSEC
  0
SECTION
  2
TABLES
  0
TABLE
  2
VPORT
  5
8
330
0
100
AcDbSymbolTable
 70
     1
  0
VPORT
  5
57
330
8
100
AcDbSymbolTableRecord
100
AcDbViewportTableRecord
  2
*Active
 70
     0
 10
0.0
 20
0.0
 11
1.0
 21
1.0
 12
102.0
 22
66.0
 13
0.0
 23
0.0
 14
1.0
 24
1.0
 15
0.0
 25
0.0
 16
0.0
 26
0.0
 36
1.0
 17
0.0
 27
0.0
 37
0.0
 40
132.0
 41
1.545454545454545
 42
50.0
 43
0.0
 44
0.0
 50
0.0
 51
0.0
 71
     0
 72
   100
 73
     1
 74
     1
 75
     0
 76
     0
 77
     0
 78
     0
281
     0
 65
     1
110
0.0
120
0.0
130
0.0
111
1.0
121
0.0
131
0.0
112
0.0
122
1.0
132
0.0
 79
     0
146
0.0
 60
     3
 61
     5
292
     1
282
     1
141
0.0
142
0.0
 63
   250
421
  3355443
  0
ENDTAB
  0
TABLE
  2
LTYPE
  5
5
330
0
100
AcDbSymbolTable
 70
    59
  0
LTYPE
  5
5B
330
5
100
AcDbSymbolTableRecord
100
AcDbLinetypeTableRecord
  2
ByBlock
 70
     0
  3

 72
    65
 73
     0
 40
0.0
  0
LTYPE
  5
5C
330
5
100
AcDbSymbolTableRecord
100
AcDbLinetypeTableRecord
  2
ByLayer
 70
     0
  3

 72
    65
 73
     0
 40
0.0
  0
LTYPE
  5
5D
330
5
100
AcDbSymbolTableRecord
100
AcDbLinetypeTableRecord
  2
Continuous
 70
     0
  3
Solid line
 72
    65
 73
     0
 40
0.0
  0
LTYPE
  5
7C
330
5
100
AcDbSymbolTableRecord
100
AcDbLinetypeTableRecord
  2
BY_STANDARD
 70
     0
  3
By Standard ____________    ____    ____   _
 72
    65
 73
     6
 40
1.240299999999999
 49
0.6614
 74
     0
 49
-0.0827
 74
     0
 49
0.1654
 74
     0
 49
-0.0827
 74
     0
 49
0.1654
 74
     0
 49
-0.0827
 74
     0
  0
LTYPE
  5
7D
330
5
100
AcDbSymbolTableRecord
100
AcDbLinetypeTableRecord
  2
CHAIN
 70
     0
  3
Chain ____ _ ____ _ ____ _ ____ _ ____ _ ____
 72
    65
 73
     4
 40
0.7087
 49
0.4724000000000001
 74
     0
 49
-0.0591
 74
     0
 49
0.1181
 74
     0
 49
-0.0591
 74
     0
  0
LTYPE
  5
7E
330
5
100
AcDbSymbolTableRecord
100
AcDbLinetypeTableRecord
  2
DASH_DOT
 70
     0
  3
Dash dot __ . __ . __ . __ . __ . __ . __ . __
 72
    65
 73
     4
 40
0.37
 49
0.24
 74
     0
 49
-0.06
 74
     0
 49
0.01
 74
     0
 49
-0.06
 74
     0
  0
LTYPE
  5
7F
330
5
100
AcDbSymbolTableRecord
100
AcDbLinetypeTableRecord
  2
DOUBLE_DASH_DOT
 70
     0
  3
Double-Dash Dot __ __ . __ __ . __ __ . __ _
 72
    65
 73
     6
 40
0.4398
 49
0.24
 74
     0
 49
-0.06
 74
     0
 49
0.0098
 74
     0
 49
-0.06
 74
     0
 49
0.01
 74
     0
 49
-0.06
 74
     0
  0
LTYPE
  5
80
330
5
100
AcDbSymbolTableRecord
100
AcDbLinetypeTableRecord
  2
DASH_TRIPLE_DOT
 70
     0
  3
Dash Triple-Dot _ . . . _ . . . _ . . . _
 72
    65
 73
     8
 40
0.51
 49
0.24
 74
     0
 49
-0.06
 74
     0
 49
0.01
 74
     0
 49
-0.06
 74
     0
 49
0.01
 74
     0
 49
-0.06
 74
     0
 49
0.01
 74
     0
 49
-0.06
 74
     0
  0
LTYPE
  5
81
330
5
100
AcDbSymbolTableRecord
100
AcDbLinetypeTableRecord
  2
DASHED
 70
     0
  3
Dashed __ __ __ __ __ __ __ __ __ __ __ __ __ _
 72
    65
 73
     2
 40
0.2067
 49
0.1654
 74
     0
 49
-0.0413
 74
     0
  0
LTYPE
  5
82
330
5
100
AcDbSymbolTableRecord
100
AcDbLinetypeTableRecord
  2
DASH_DOUBLE_DOT
 70
     0
  3
Dash Double-Dot __ . . __ . . __ . . __ . .
 72
    65
 73
     6
 40
0.4398
 49
0.24
 74
     0
 49
-0.06
 74
     0
 49
0.0098
 74
     0
 49
-0.06
 74
     0
 49
0.01
 74
     0
 49
-0.06
 74
     0
  0
LTYPE
  5
83
330
5
100
AcDbSymbolTableRecord
100
AcDbLinetypeTableRecord
  2
DASHED_SPACE
 70
     0
  3
Dashed Space __ __ __ __ __ __ __ __ __ __ __ _
 72
    65
 73
     2
 40
0.2067
 49
0.1654
 74
     0
 49
-0.0413
 74
     0
  0
LTYPE
  5
84
330
5
100
AcDbSymbolTableRecord
100
AcDbLinetypeTableRecord
  2
DOTTED
 70
     0
  3
Dotted . . . . . . . . . . . . . . . . . . . . 
 72
    65
 73
     2
 40
0.0482
 49
0.0069
 74
     0
 49
-0.0413
 74
     0
  0
LTYPE
  5
85
330
5
100
AcDbSymbolTableRecord
100
AcDbLinetypeTableRecord
  2
DOUBLE_DASH_CHAIN
 70
     0
  3
Double-Dash Chain ______  __  __  ______  __  _
 72
    65
 73
     6
 40
1.240299999999999
 49
0.6614
 74
     0
 49
-0.0827
 74
     0
 49
0.1654
 74
     0
 49
-0.0827
 74
     0
 49
0.1654
 74
     0
 49
-0.0827
 74
     0
  0
LTYPE
  5
87
330
5
100
AcDbSymbolTableRecord
100
AcDbLinetypeTableRecord
  2
DOUBLE_DASH_DOUBLE_DOT
 70
     0
  3
Double-Dash Double-dot _ _ . . _ _ . . _
 72
    65
 73
     8
 40
0.7400000000000001
 49
0.24
 74
     0
 49
-0.06
 74
     0
 49
0.24
 74
     0
 49
-0.06
 74
     0
 49
0.01
 74
     0
 49
-0.06
 74
     0
 49
0.01
 74
     0
 49
-0.06
 74
     0
  0
LTYPE
  5
88
330
5
100
AcDbSymbolTableRecord
100
AcDbLinetypeTableRecord
  2
DOUBLE_DASH_TRIPLE_DOT
 70
     0
  3
Double Dash Triple Dot __ __ . . . __ __ . .
 72
    65
 73
    10
 40
0.8100000000000001
 49
0.24
 74
     0
 49
-0.06
 74
     0
 49
0.24
 74
     0
 49
-0.06
 74
     0
 49
0.01
 74
     0
 49
-0.06
 74
     0
 49
0.01
 74
     0
 49
-0.06
 74
     0
 49
0.01
 74
     0
 49
-0.06
 74
     0
  0
LTYPE
  5
89
330
5
100
AcDbSymbolTableRecord
100
AcDbLinetypeTableRecord
  2
LONG_DASH_DOTTED
 70
     0
  3
Long Dash Dotted ____ . ____ . ____ . ____ . _
 72
    65
 73
     4
 40
0.3543
 49
0.2362
 74
     0
 49
-0.0295
 74
     0
 49
0.0591
 74
     0
 49
-0.0295
 74
     0
  0
LTYPE
  5
8A
330
5
100
AcDbSymbolTableRecord
100
AcDbLinetypeTableRecord
  2
LONG_DASH_DOUBLE_DOT
 70
     0
  3
Long Dash Double Dot ________  .  .  ________  
 72
    65
 73
     6
 40
0.6799999999999999
 49
0.48
 74
     0
 49
-0.06
 74
     0
 49
0.01
 74
     0
 49
-0.06
 74
     0
 49
0.01
 74
     0
 49
-0.06
 74
     0
  0
LTYPE
  5
8B
330
5
100
AcDbSymbolTableRecord
100
AcDbLinetypeTableRecord
  2
LONG_DASH_TRIPLE_DOT
 70
     0
  3
Long Dash Triple Dot ____ ... ____ ... ____
 72
    65
 73
     8
 40
0.3689
 49
0.2362
 74
     0
 49
-0.0295
 74
     0
 49
0.0049
 74
     0
 49
-0.0295
 74
     0
 49
0.0049
 74
     0
 49
-0.0295
 74
     0
 49
0.0049
 74
     0
 49
-0.0295
 74
     0
  0
LTYPE
  5
8C
330
5
100
AcDbSymbolTableRecord
100
AcDbLinetypeTableRecord
  2
BORDER
 70
     0
  3
Border __ __ . __ __ . __ __ . __ __ . __ __ .
 72
    65
 73
     6
 40
1.75
 49
0.5
 74
     0
 49
-0.25
 74
     0
 49
0.5
 74
     0
 49
-0.25
 74
     0
 49
0.0
 74
     0
 49
-0.25
 74
     0
  0
LTYPE
  5
8D
330
5
100
AcDbSymbolTableRecord
100
AcDbLinetypeTableRecord
  2
BORDER2
 70
     0
  3
Border (.5x) __.__.__.__.__.__.__.__.__.__.__.
 72
    65
 73
     6
 40
0.875
 49
0.25
 74
     0
 49
-0.125
 74
     0
 49
0.25
 74
     0
 49
-0.125
 74
     0
 49
0.0
 74
     0
 49
-0.125
 74
     0
  0
LTYPE
  5
8E
330
5
100
AcDbSymbolTableRecord
100
AcDbLinetypeTableRecord
  2
BORDERX2
 70
     0
  3
Border (2x) ____  ____  .  ____  ____  .  ___
 72
    65
 73
     6
 40
3.5
 49
1.0
 74
     0
 49
-0.5
 74
     0
 49
1.0
 74
     0
 49
-0.5
 74
     0
 49
0.0
 74
     0
 49
-0.5
 74
     0
  0
LTYPE
  5
8F
330
5
100
AcDbSymbolTableRecord
100
AcDbLinetypeTableRecord
  2
CENTER
 70
     0
  3
Center ____ _ ____ _ ____ _ ____ _ ____ _ ____
 72
    65
 73
     4
 40
2.0
 49
1.25
 74
     0
 49
-0.25
 74
     0
 49
0.25
 74
     0
 49
-0.25
 74
     0
  0
LTYPE
  5
90
330
5
100
AcDbSymbolTableRecord
100
AcDbLinetypeTableRecord
  2
CENTER2
 70
     0
  3
Center (.5x) ___ _ ___ _ ___ _ ___ _ ___ _ ___
 72
    65
 73
     4
 40
1.125
 49
0.75
 74
     0
 49
-0.125
 74
     0
 49
0.125
 74
     0
 49
-0.125
 74
     0
  0
LTYPE
  5
91
330
5
100
AcDbSymbolTableRecord
100
AcDbLinetypeTableRecord
  2
CENTERX2
 70
     0
  3
Center (2x) ________  __  ________  __  _____
 72
    65
 73
     4
 40
4.0
 49
2.5
 74
     0
 49
-0.5
 74
     0
 49
0.5
 74
     0
 49
-0.5
 74
     0
  0
LTYPE
  5
92
330
5
100
AcDbSymbolTableRecord
100
AcDbLinetypeTableRecord
  2
DASHDOT2
 70
     0
  3
Dash dot (.5x) _._._._._._._._._._._._._._._.
 72
    65
 73
     4
 40
0.5
 49
0.25
 74
     0
 49
-0.125
 74
     0
 49
0.0
 74
     0
 49
-0.125
 74
     0
  0
LTYPE
  5
93
330
5
100
AcDbSymbolTableRecord
100
AcDbLinetypeTableRecord
  2
DASHDOTX2
 70
     0
  3
Dash dot (2x) ____  .  ____  .  ____  .  ___
 72
    65
 73
     4
 40
2.0
 49
1.0
 74
     0
 49
-0.5
 74
     0
 49
0.0
 74
     0
 49
-0.5
 74
     0
  0
LTYPE
  5
95
330
5
100
AcDbSymbolTableRecord
100
AcDbLinetypeTableRecord
  2
DASHED2
 70
     0
  3
Dashed (.5x) _ _ _ _ _ _ _ _ _ _ _ _ _ _ _ _ _
 72
    65
 73
     2
 40
0.375
 49
0.25
 74
     0
 49
-0.125
 74
     0
  0
LTYPE
  5
96
330
5
100
AcDbSymbolTableRecord
100
AcDbLinetypeTableRecord
  2
DASHEDX2
 70
     0
  3
Dashed (2x) ____  ____  ____  ____  ____  ___
 72
    65
 73
     2
 40
1.5
 49
1.0
 74
     0
 49
-0.5
 74
     0
  0
LTYPE
  5
97
330
5
100
AcDbSymbolTableRecord
100
AcDbLinetypeTableRecord
  2
DIVIDE
 70
     0
  3
Divide ____ . . ____ . . ____ . . ____ . . ____
 72
    65
 73
     6
 40
1.25
 49
0.5
 74
     0
 49
-0.25
 74
     0
 49
0.0
 74
     0
 49
-0.25
 74
     0
 49
0.0
 74
     0
 49
-0.25
 74
     0
  0
LTYPE
  5
98
330
5
100
AcDbSymbolTableRecord
100
AcDbLinetypeTableRecord
  2
DIVIDE2
 70
     0
  3
Divide (.5x) __..__..__..__..__..__..__..__.._
 72
    65
 73
     6
 40
0.625
 49
0.25
 74
     0
 49
-0.125
 74
     0
 49
0.0
 74
     0
 49
-0.125
 74
     0
 49
0.0
 74
     0
 49
-0.125
 74
     0
  0
LTYPE
  5
99
330
5
100
AcDbSymbolTableRecord
100
AcDbLinetypeTableRecord
  2
DIVIDEX2
 70
     0
  3
Divide (2x) ________  .  .  ________  .  .  _
 72
    65
 73
     6
 40
2.5
 49
1.0
 74
     0
 49
-0.5
 74
     0
 49
0.0
 74
     0
 49
-0.5
 74
     0
 49
0.0
 74
     0
 49
-0.5
 74
     0
  0
LTYPE
  5
9A
330
5
100
AcDbSymbolTableRecord
100
AcDbLinetypeTableRecord
  2
DOT
 70
     0
  3
Dot . . . . . . . . . . . . . . . . . . . . . .
 72
    65
 73
     2
 40
0.25
 49
0.0
 74
     0
 49
-0.25
 74
     0
  0
LTYPE
  5
9B
330
5
100
AcDbSymbolTableRecord
100
AcDbLinetypeTableRecord
  2
DOT2
 70
     0
  3
Dot (.5x) .....................................
 72
    65
 73
     2
 40
0.125
 49
0.0
 74
     0
 49
-0.125
 74
     0
  0
LTYPE
  5
9C
330
5
100
AcDbSymbolTableRecord
100
AcDbLinetypeTableRecord
  2
DOTX2
 70
     0
  3
Dot (2x) .  .  .  .  .  .  .  .  .  .  .  .  . 
 72
    65
 73
     2
 40
0.5
 49
0.0
 74
     0
 49
-0.5
 74
     0
  0
LTYPE
  5
9D
330
5
100
AcDbSymbolTableRecord
100
AcDbLinetypeTableRecord
  2
HIDDEN
 70
     0
  3
Hidden __ __ __ __ __ __ __ __ __ __ __ __ __ _
 72
    65
 73
     2
 40
0.375
 49
0.25
 74
     0
 49
-0.125
 74
     0
  0
LTYPE
  5
9E
330
5
100
AcDbSymbolTableRecord
100
AcDbLinetypeTableRecord
  2
HIDDEN2
 70
     0
  3
Hidden (.5x) _ _ _ _ _ _ _ _ _ _ _ _ _ _ _ _ _
 72
    65
 73
     2
 40
0.1875
 49
0.125
 74
     0
 49
-0.0625
 74
     0
  0
LTYPE
  5
9F
330
5
100
AcDbSymbolTableRecord
100
AcDbLinetypeTableRecord
  2
HIDDENX2
 70
     0
  3
Hidden (2x) ____ ____ ____ ____ ____ ____ ____
 72
    65
 73
     2
 40
0.75
 49
0.5
 74
     0
 49
-0.25
 74
     0
  0
LTYPE
  5
A0
330
5
100
AcDbSymbolTableRecord
100
AcDbLinetypeTableRecord
  2
PHANTOM
 70
     0
  3
Phantom ______  __  __  ______  __  __  ______
 72
    65
 73
     6
 40
2.5
 49
1.25
 74
     0
 49
-0.25
 74
     0
 49
0.25
 74
     0
 49
-0.25
 74
     0
 49
0.25
 74
     0
 49
-0.25
 74
     0
  0
LTYPE
  5
A1
330
5
100
AcDbSymbolTableRecord
100
AcDbLinetypeTableRecord
  2
PHANTOM2
 70
     0
  3
Phantom (.5x) ___ _ _ ___ _ _ ___ _ _ ___ _ _
 72
    65
 73
     6
 40
1.25
 49
0.625
 74
     0
 49
-0.125
 74
     0
 49
0.125
 74
     0
 49
-0.125
 74
     0
 49
0.125
 74
     0
 49
-0.125
 74
     0
  0
LTYPE
  5
A2
330
5
100
AcDbSymbolTableRecord
100
AcDbLinetypeTableRecord
  2
PHANTOMX2
 70
     0
  3
Phantom (2x) ____________    ____    ____   _
 72
    65
 73
     6
 40
5.0
 49
2.5
 74
     0
 49
-0.5
 74
     0
 49
0.5
 74
     0
 49
-0.5
 74
     0
 49
0.5
 74
     0
 49
-0.5
 74
     0
  0
LTYPE
  5
A3
330
5
100
AcDbSymbolTableRecord
100
AcDbLinetypeTableRecord
  2
ACAD_ISO02W100
 70
     0
  3
ISO dash __ __ __ __ __ __ __ __ __ __ __ __ __
 72
    65
 73
     2
 40
0.59
 49
0.47
 74
     0
 49
-0.12
 74
     0
  0
LTYPE
  5
A4
330
5
100
AcDbSymbolTableRecord
100
AcDbLinetypeTableRecord
  2
ACAD_ISO03W100
 70
     0
  3
ISO dash space __    __    __    __    __    __
 72
    65
 73
     2
 40
1.179999999999999
 49
0.47
 74
     0
 49
-0.71
 74
     0
  0
LTYPE
  5
A5
330
5
100
AcDbSymbolTableRecord
100
AcDbLinetypeTableRecord
  2
ACAD_ISO04W100
 70
     0
  3
ISO long-dash dot ____ . ____ . ____ . ____ . _
 72
    65
 73
     4
 40
1.179999999999999
 49
0.9399999999999998
 74
     0
 49
-0.12
 74
     0
 49
0.0
 74
     0
 49
-0.12
 74
     0
  0
LTYPE
  5
A6
330
5
100
AcDbSymbolTableRecord
100
AcDbLinetypeTableRecord
  2
ACAD_ISO05W100
 70
     0
  3
ISO long-dash double-dot ____ .. ____ .. ____ .
 72
    65
 73
     6
 40
1.299999999999999
 49
0.9399999999999998
 74
     0
 49
-0.12
 74
     0
 49
0.0
 74
     0
 49
-0.12
 74
     0
 49
0.0
 74
     0
 49
-0.12
 74
     0
  0
LTYPE
  5
A7
330
5
100
AcDbSymbolTableRecord
100
AcDbLinetypeTableRecord
  2
ACAD_ISO06W100
 70
     0
  3
ISO long-dash triple-dot ____ ... ____ ... ____
 72
    65
 73
     8
 40
1.419999999999999
 49
0.9399999999999998
 74
     0
 49
-0.12
 74
     0
 49
0.0
 74
     0
 49
-0.12
 74
     0
 49
0.0
 74
     0
 49
-0.12
 74
     0
 49
0.0
 74
     0
 49
-0.12
 74
     0
  0
LTYPE
  5
A8
330
5
100
AcDbSymbolTableRecord
100
AcDbLinetypeTableRecord
  2
ACAD_ISO07W100
 70
     0
  3
ISO dot . . . . . . . . . . . . . . . . . . . .
 72
    65
 73
     2
 40
0.12
 49
0.0
 74
     0
 49
-0.12
 74
     0
  0
LTYPE
  5
A9
330
5
100
AcDbSymbolTableRecord
100
AcDbLinetypeTableRecord
  2
ACAD_ISO08W100
 70
     0
  3
ISO long-dash short-dash ____ __ ____ __ ____ _
 72
    65
 73
     4
 40
0.95
 49
0.47
 74
     0
 49
-0.12
 74
     0
 49
0.24
 74
     0
 49
-0.12
 74
     0
  0
LTYPE
  5
AA
330
5
100
AcDbSymbolTableRecord
100
AcDbLinetypeTableRecord
  2
ACAD_ISO09W100
 70
     0
  3
ISO long-dash double-short-dash ____ __ __ ____
 72
    65
 73
     6
 40
1.31
 49
0.47
 74
     0
 49
-0.12
 74
     0
 49
0.24
 74
     0
 49
-0.12
 74
     0
 49
0.24
 74
     0
 49
-0.12
 74
     0
  0
LTYPE
  5
AB
330
5
100
AcDbSymbolTableRecord
100
AcDbLinetypeTableRecord
  2
ACAD_ISO10W100
 70
     0
  3
ISO dash dot __ . __ . __ . __ . __ . __ . __ .
 72
    65
 73
     4
 40
0.71
 49
0.47
 74
     0
 49
-0.12
 74
     0
 49
0.0
 74
     0
 49
-0.12
 74
     0
  0
LTYPE
  5
AC
330
5
100
AcDbSymbolTableRecord
100
AcDbLinetypeTableRecord
  2
ACAD_ISO11W100
 70
     0
  3
ISO double-dash dot __ __ . __ __ . __ __ . __ 
 72
    65
 73
     6
 40
1.299999999999999
 49
0.47
 74
     0
 49
-0.12
 74
     0
 49
0.47
 74
     0
 49
-0.12
 74
     0
 49
0.0
 74
     0
 49
-0.12
 74
     0
  0
LTYPE
  5
AD
330
5
100
AcDbSymbolTableRecord
100
AcDbLinetypeTableRecord
  2
ACAD_ISO12W100
 70
     0
  3
ISO dash double-dot __ . . __ . . __ . . __ . .
 72
    65
 73
     6
 40
0.8299999999999998
 49
0.47
 74
     0
 49
-0.12
 74
     0
 49
0.0
 74
     0
 49
-0.12
 74
     0
 49
0.0
 74
     0
 49
-0.12
 74
     0
  0
LTYPE
  5
AE
330
5
100
AcDbSymbolTableRecord
100
AcDbLinetypeTableRecord
  2
ACAD_ISO13W100
 70
     0
  3
ISO double-dash double-dot __ __ . . __ __ . . 
 72
    65
 73
     8
 40
1.419999999999999
 49
0.47
 74
     0
 49
-0.12
 74
     0
 49
0.47
 74
     0
 49
-0.12
 74
     0
 49
0.0
 74
     0
 49
-0.12
 74
     0
 49
0.0
 74
     0
 49
-0.12
 74
     0
  0
LTYPE
  5
AF
330
5
100
AcDbSymbolTableRecord
100
AcDbLinetypeTableRecord
  2
ACAD_ISO14W100
 70
     0
  3
ISO dash triple-dot __ . . . __ . . . __ . . . 
 72
    65
 73
     8
 40
0.95
 49
0.47
 74
     0
 49
-0.12
 74
     0
 49
0.0
 74
     0
 49
-0.12
 74
     0
 49
0.0
 74
     0
 49
-0.12
 74
     0
 49
0.0
 74
     0
 49
-0.12
 74
     0
  0
LTYPE
  5
B0
330
5
100
AcDbSymbolTableRecord
100
AcDbLinetypeTableRecord
  2
ACAD_ISO15W100
 70
     0
  3
ISO double-dash triple-dot __ __ . . . __ __ . 
 72
    65
 73
    10
 40
1.539999999999999
 49
0.47
 74
     0
 49
-0.12
 74
     0
 49
0.47
 74
     0
 49
-0.12
 74
     0
 49
0.0
 74
     0
 49
-0.12
 74
     0
 49
0.0
 74
     0
 49
-0.12
 74
     0
 49
0.0
 74
     0
 49
-0.12
 74
     0
  0
LTYPE
  5
B3
330
5
100
AcDbSymbolTableRecord
100
AcDbLinetypeTableRecord
  2
FENCELINE1
 70
     0
  3
Fenceline circle ----0-----0----0-----0----0---
 72
    65
 73
     4
 40
1.45
 49
0.25
 74
     0
 49
-0.1
 74
     4
 75
   133
340
B2
 46
0.1
 50
0.0
 44
-0.1
 45
0.0
 49
-0.1
 74
     0
 49
1.0
 74
     0
  0
LTYPE
  5
B4
330
5
100
AcDbSymbolTableRecord
100
AcDbLinetypeTableRecord
  2
FENCELINE2
 70
     0
  3
Fenceline square ----[]-----[]----[]-----[]----
 72
    65
 73
     4
 40
1.45
 49
0.25
 74
     0
 49
-0.1
 74
     4
 75
   132
340
B2
 46
0.1
 50
0.0
 44
-0.1
 45
0.0
 49
-0.1
 74
     0
 49
1.0
 74
     0
  0
LTYPE
  5
B5
330
5
100
AcDbSymbolTableRecord
100
AcDbLinetypeTableRecord
  2
TRACKS
 70
     0
  3
Tracks -|-|-|-|-|-|-|-|-|-|-|-|-|-|-|-|-|-|-|-|
 72
    65
 73
     2
 40
0.3
 49
0.15
 74
     4
 75
   130
340
B2
 46
0.25
 50
0.0
 44
0.0
 45
0.0
 49
0.15
 74
     0
  0
LTYPE
  5
B6
330
5
100
AcDbSymbolTableRecord
100
AcDbLinetypeTableRecord
  2
BATTING
 70
     0
  3
Batting SSSSSSSSSSSSSSSSSSSSSSSSSSSSSSSSSSSSSSS
 72
    65
 73
     4
 40
0.4001000000000001
 49
0.0001
 74
     0
 49
-0.1
 74
     4
 75
   134
340
B2
 46
0.1
 50
0.0
 44
-0.1
 45
0.0
 49
-0.2
 74
     4
 75
   134
340
B2
 46
0.1
 50
180.0
 44
0.1
 45
0.0
 49
-0.1
 74
     0
  0
LTYPE
  5
B7
330
5
100
AcDbSymbolTableRecord
100
AcDbLinetypeTableRecord
  2
HOT_WATER_SUPPLY
 70
     0
  3
Hot water supply ---- HW ---- HW ---- HW ----
 72
    65
 73
     3
 40
0.9
 49
0.5
 74
     0
 49
-0.2
 74
     2
 75
     0
340
55
 46
0.1
 50
0.0
 44
-0.1
 45
-0.05
  9
HW
 49
-0.2
 74
     0
  0
LTYPE
  5
B8
330
5
100
AcDbSymbolTableRecord
100
AcDbLinetypeTableRecord
  2
GAS_LINE
 70
     0
  3
Gas line ----GAS----GAS----GAS----GAS----GAS---
 72
    65
 73
     3
 40
0.95
 49
0.5
 74
     0
 49
-0.2
 74
     2
 75
     0
340
55
 46
0.1
 50
0.0
 44
-0.1
 45
-0.05
  9
GAS
 49
-0.25
 74
     0
  0
LTYPE
  5
B9
330
5
100
AcDbSymbolTableRecord
100
AcDbLinetypeTableRecord
  2
ZIGZAG
 70
     0
  3
Zig zag /\/\/\/\/\/\/\/\/\/\/\/\/\/\/\/\/\/\/\/
 72
    65
 73
     4
 40
0.8001000000000001
 49
0.0001
 74
     0
 49
-0.2
 74
     4
 75
   131
340
B2
 46
0.2
 50
0.0
 44
-0.2
 45
0.0
 49
-0.4
 74
     4
 75
   131
340
B2
 46
0.2
 50
180.0
 44
0.2
 45
0.0
 49
-0.2
 74
     0
  0
ENDTAB
  0
TABLE
  2
LAYER
  5
2
330
0
100
AcDbSymbolTable
 70
    27
  0
LAYER
  5
54
330
2
100
AcDbSymbolTableRecord
100
AcDbLayerTableRecord
  2
0
 70
     0
 62
     7
  6
Continuous
370
    18
390
F
347
21
  0
LAYER
  5
C0
330
2
100
AcDbSymbolTableRecord
100
AcDbLayerTableRecord
  2
Center Mark (ANSI)
 70
     0
 62
     7
  6
Continuous
370
    15
390
F
347
21
  0
LAYER
  5
C1
330
2
100
AcDbSymbolTableRecord
100
AcDbLayerTableRecord
  2
Centerline (ANSI)
 70
     0
 62
     7
  6
Continuous
370
    15
390
F
347
21
  0
LAYER
  5
C3
330
2
100
AcDbSymbolTableRecord
100
AcDbLayerTableRecord
  2
Dimension (ANSI)
 70
     0
 62
     7
  6
Continuous
370
    13
390
F
347
21
  0
LAYER
  5
CC
330
2
100
AcDbSymbolTableRecord
100
AcDbLayerTableRecord
  2
Symbol (ANSI)
 70
     0
 62
     7
  6
Continuous
370
    18
390
F
347
21
  0
LAYER
  5
CF
330
2
100
AcDbSymbolTableRecord
100
AcDbLayerTableRecord
  2
Visible (ANSI)
 70
     0
 62
     7
  6
Continuous
370
    13
390
F
347
21
  0
LAYER
  5
D0
330
2
100
AcDbSymbolTableRecord
100
AcDbLayerTableRecord
  2
Visible Narrow (ANSI)
 70
     0
 62
     7
  6
Continuous
370
    18
390
F
347
21
  0
LAYER
  5
2EB
330
2
100
AcDbSymbolTableRecord
100
AcDbLayerTableRecord
  2
Defpoints
 70
     0
 62
     7
  6
Continuous
290
     0
370
    -3
390
F
347
21
  0
ENDTAB
  0
TABLE
  2
STYLE
  5
3
330
0
100
AcDbSymbolTable
 70
    17
  0
STYLE
  5
55
330
3
100
AcDbSymbolTableRecord
100
AcDbTextStyleTableRecord
  2
Standard
 70
     0
 40
0.0
 41
1.0
 50
0.0
 71
     0
 42
0.2
  3
txt
  4

  0
STYLE
  5
5A
330
3
100
AcDbSymbolTableRecord
100
AcDbTextStyleTableRecord
  2
Annotative
 70
     0
 40
0.0
 41
1.0
 50
0.0
 71
     0
 42
0.2
  3
txt
  4

1001
AcadAnnotative
1000
AnnotativeData
1002
{
1070
     1
1070
     1
1002
}
  0
STYLE
  5
B2
330
3
100
AcDbSymbolTableRecord
100
AcDbTextStyleTableRecord
  2

 70
     1
 40
0.0
 41
1.0
 50
0.0
 71
     0
 42
0.2
  3
ltypeshp.shx
  4

  0
STYLE
  5
D4
330
3
100
AcDbSymbolTableRecord
100
AcDbTextStyleTableRecord
  2
ITALICC_120
 70
     0
 40
0.0
 41
1.0
 50
0.0
 71
     0
 42
0.2
  3
italicc.shx
  4

  0
STYLE
  5
D5
330
3
100
AcDbSymbolTableRecord
100
AcDbTextStyleTableRecord
  2
Label Text (ANSI)
 70
     0
 40
0.0
 41
1.0
 50
0.0
 71
     0
 42
0.2
  3
tahoma.ttf
  4

1001
ACAD
1000
Tahoma
1071
      256
  0
STYLE
  5
D6
330
3
100
AcDbSymbolTableRecord
100
AcDbTextStyleTableRecord
  2
Note Text (ANSI)
 70
     0
 40
0.0
 41
1.0
 50
0.0
 71
     0
 42
0.2
  3
tahoma.ttf
  4

1001
ACAD
1000
Tahoma
1071
      256
  0
STYLE
  5
D7
330
3
100
AcDbSymbolTableRecord
100
AcDbTextStyleTableRecord
  2
ROMANS
 70
     0
 40
0.0
 41
1.0
 50
0.0
 71
     0
 42
0.2
  3
romans.shx
  4

  0
STYLE
  5
D8
330
3
100
AcDbSymbolTableRecord
100
AcDbTextStyleTableRecord
  2
SANSSERIF_114
 70
     0
 40
0.0
 41
1.0
 50
0.0
 71
     0
 42
0.2
  3
tahoma.ttf
  4

1001
ACAD
1000
Tahoma
1071
      256
  0
STYLE
  5
D9
330
3
100
AcDbSymbolTableRecord
100
AcDbTextStyleTableRecord
  2
SANSSERIF_117
 70
     0
 40
0.0
 41
1.0
 50
0.0
 71
     0
 42
0.2
  3
tahoma.ttf
  4

1001
ACAD
1000
Tahoma
1071
      256
  0
STYLE
  5
DA
330
3
100
AcDbSymbolTableRecord
100
AcDbTextStyleTableRecord
  2
STANDARDAM_ANSI
 70
     0
 40
0.0
 41
1.0
 50
0.0
 71
     0
 42
0.2
  3
txt.shx
  4

  0
STYLE
  5
DB
330
3
100
AcDbSymbolTableRecord
100
AcDbTextStyleTableRecord
  2
StandardAM_ANSI$0
 70
     0
 40
0.0
 41
1.0
 50
0.0
 71
     0
 42
0.2
  3
txt.shx
  4

  0
STYLE
  5
DC
330
3
100
AcDbSymbolTableRecord
100
AcDbTextStyleTableRecord
  2
STANDARDAM_ANSI$3
 70
     0
 40
0.0
 41
1.0
 50
0.0
 71
     0
 42
0.2
  3
txt.shx
  4

  0
STYLE
  5
DD
330
3
100
AcDbSymbolTableRecord
100
AcDbTextStyleTableRecord
  2
STANDARDAM_ANSI$4
 70
     0
 40
0.0
 41
1.0
 50
0.0
 71
     0
 42
0.2
  3
txt.shx
  4

  0
STYLE
  5
DE
330
3
100
AcDbSymbolTableRecord
100
AcDbTextStyleTableRecord
  2
STANDARDAM_ANSI$7
 70
     0
 40
0.0
 41
1.0
 50
0.0
 71
     0
 42
0.2
  3
txt.shx
  4

  0
STYLE
  5
DF
330
3
100
AcDbSymbolTableRecord
100
AcDbTextStyleTableRecord
  2
STANDARDAM_ANSI$SF
 70
     0
 40
0.0
 41
1.0
 50
0.0
 71
     0
 42
0.2
  3
txt.shx
  4

  0
STYLE
  5
E0
330
3
100
AcDbSymbolTableRecord
100
AcDbTextStyleTableRecord
  2
STANDARDAM_ANSI$SH
 70
     0
 40
0.0
 41
1.0
 50
0.0
 71
     0
 42
0.2
  3
txt.shx
  4

  0
STYLE
  5
E1
330
3
100
AcDbSymbolTableRecord
100
AcDbTextStyleTableRecord
  2
STANDARDSTANDARD
 70
     0
 40
0.0
 41
1.0
 50
0.0
 71
     0
 42
0.2
  3
txt.shx
  4

  0
ENDTAB
  0
TABLE
  2
VIEW
  5
6
330
0
100
AcDbSymbolTable
 70
     0
  0
ENDTAB
  0
TABLE
  2
UCS
  5
7
330
0
100
AcDbSymbolTable
 70
     0
  0
ENDTAB
  0
TABLE
  2
APPID
  5
9
330
0
100
AcDbSymbolTable
 70
     3
  0
APPID
  5
56
330
9
100
AcDbSymbolTableRecord
100
AcDbRegAppTableRecord
  2
ACAD
 70
     0
  0
APPID
  5
5E
330
9
100
AcDbSymbolTableRecord
100
AcDbRegAppTableRecord
  2
AcadAnnotative
 70
     0
  0
APPID
  5
D49
330
9
100
AcDbSymbolTableRecord
100
AcDbRegAppTableRecord
  2
ACAD_DSTYLE_DIMRADIAL_EXTENSION
 70
     0
  0
ENDTAB
  0
TABLE
  2
DIMSTYLE
  5
A
330
0
100
AcDbSymbolTable
 70
    27
100
AcDbDimStyleTable
 71
     2
340
F6
340
58
  0
DIMSTYLE
105
58
330
A
100
AcDbSymbolTableRecord
100
AcDbDimStyleTableRecord
  2
STANDARD
 70
     0
 41
0.1800000071525573
 42
0.0625
140
0.1800000071525574
144
1.0
147
0.0900000035762787
176
   256
177
   256
178
   256
274
     3
340
55
371
    -1
372
    -1
  0
DIMSTYLE
105
59
330
A
100
AcDbSymbolTableRecord
100
AcDbDimStyleTableRecord
  2
Annotative
 70
     0
340
55
1001
AcadAnnotative
1000
AnnotativeData
1002
{
1070
     1
1070
     1
1002
}
  0
DIMSTYLE
105
E2
330
A
100
AcDbSymbolTableRecord
100
AcDbDimStyleTableRecord
  2
AM_ANSI
 70
     0
  4
 mm
 40
12.0
 41
0.119999997317791
 42
0.05
 43
0.5
 44
0.1
 45
0.00000001
 78
     4
 79
     2
140
0.1200000047683716
146
0.7099999189376831
147
0.0599999986588955
176
   256
177
   256
178
     2
284
     4
340
DA
371
    -1
372
    -1
  0
DIMSTYLE
105
E3
330
A
100
AcDbSymbolTableRecord
100
AcDbDimStyleTableRecord
  2
AM_ANSI$7
 70
     0
  4
 mm
 40
12.0
 41
0.119999997317791
 42
0.05
 43
0.5
 44
0.1
 45
0.00000001
 78
     4
 79
     2
140
0.1200000047683716
146
0.7099999189376831
147
0.0599999986588955
176
   256
177
   256
178
     2
284
     4
340
DA
371
    -1
372
    -1
  0
DIMSTYLE
105
E4
330
A
100
AcDbSymbolTableRecord
100
AcDbDimStyleTableRecord
  2
AM_ANSI$0
 70
     0
  4
 mm
 40
12.0
 41
0.119999997317791
 42
0.05
 43
0.5
 44
0.1
 45
0.00000001
 78
     4
 79
     2
140
0.1200000047683716
146
0.7099999189376831
147
0.0599999986588955
176
   256
177
   256
178
     2
284
     4
340
DB
371
    -1
372
    -1
  0
DIMSTYLE
105
E5
330
A
100
AcDbSymbolTableRecord
100
AcDbDimStyleTableRecord
  2
AM_ANSI$0$7
 70
     0
  4
 mm
 40
12.0
 41
0.119999997317791
 42
0.05
 43
0.5
 44
0.1
 45
0.00000001
 78
     4
 79
     2
140
0.1200000047683716
146
0.7099999189376831
147
0.0599999986588955
176
   256
177
   256
178
     2
284
     4
340
DB
371
    -1
372
    -1
  0
DIMSTYLE
105
E6
330
A
100
AcDbSymbolTableRecord
100
AcDbDimStyleTableRecord
  2
AM_ANSI$3
 70
     0
  4
 mm
 40
12.0
 41
0.119999997317791
 42
0.05
 43
0.5
 44
0.1
 45
0.00000001
 78
     4
 79
     2
140
0.1200000047683716
146
0.7099999189376831
147
0.0599999986588955
176
   256
177
   256
178
     2
284
     4
340
DC
371
    -1
372
    -1
  0
DIMSTYLE
105
E7
330
A
100
AcDbSymbolTableRecord
100
AcDbDimStyleTableRecord
  2
AM_ANSI$3$7
 70
     0
  4
 mm
 40
12.0
 41
0.119999997317791
 42
0.05
 43
0.5
 44
0.1
 45
0.00000001
 78
     4
 79
     2
140
0.1200000047683716
146
0.7099999189376831
147
0.0599999986588955
176
   256
177
   256
178
     2
284
     4
340
DC
371
    -1
372
    -1
  0
DIMSTYLE
105
E8
330
A
100
AcDbSymbolTableRecord
100
AcDbDimStyleTableRecord
  2
AM_ANSI$4
 70
     0
  4
 mm
 40
12.0
 41
0.119999997317791
 42
0.05
 43
0.5
 44
0.1
 45
0.00000001
 78
     4
 79
     2
140
0.1200000047683716
146
0.7099999189376831
147
0.0599999986588955
176
   256
177
   256
178
     2
284
     4
340
DD
371
    -1
372
    -1
  0
DIMSTYLE
105
E9
330
A
100
AcDbSymbolTableRecord
100
AcDbDimStyleTableRecord
  2
AM_ANSI$4$7
 70
     0
  4
 mm
 40
12.0
 41
0.119999997317791
 42
0.05
 43
0.5
 44
0.1
 45
0.00000001
 78
     4
 79
     2
140
0.1200000047683716
146
0.7099999189376831
147
0.0599999986588955
176
   256
177
   256
178
     2
284
     4
340
DD
371
    -1
372
    -1
  0
DIMSTYLE
105
EA
330
A
100
AcDbSymbolTableRecord
100
AcDbDimStyleTableRecord
  2
AM_ANSI$SF
 70
     0
  4
 mm
 40
12.0
 41
0.119999997317791
 42
0.05
 43
0.5
 44
0.1
 45
0.00000001
 75
     1
 76
     1
 78
     4
 79
     2
140
0.1200000047683716
146
0.7099999189376831
147
0.0599999986588955
176
   256
177
   256
178
     2
284
     4
340
DF
371
    -1
372
    -1
  0
DIMSTYLE
105
EB
330
A
100
AcDbSymbolTableRecord
100
AcDbDimStyleTableRecord
  2
AM_ANSI$SF$7
 70
     0
  4
 mm
 40
12.0
 41
0.119999997317791
 42
0.05
 43
0.5
 44
0.1
 45
0.00000001
 75
     1
 76
     1
 78
     4
 79
     2
140
0.1200000047683716
146
0.7099999189376831
147
0.0599999986588955
176
   256
177
   256
178
     2
284
     4
340
DF
371
    -1
372
    -1
  0
DIMSTYLE
105
EC
330
A
100
AcDbSymbolTableRecord
100
AcDbDimStyleTableRecord
  2
AM_ANSI$SH
 70
     0
  4
 mm
 40
12.0
 41
0.119999997317791
 42
0.05
 43
0.5
 44
0.1
 45
0.00000001
 75
     1
 76
     1
 78
     4
 79
     2
140
0.1200000047683716
146
0.7099999189376831
147
0.0599999986588955
176
   256
177
   256
178
     2
284
     4
340
E0
371
    -1
372
    -1
  0
DIMSTYLE
105
ED
330
A
100
AcDbSymbolTableRecord
100
AcDbDimStyleTableRecord
  2
AM_ANSI$SH$7
 70
     0
  4
 mm
 40
12.0
 41
0.119999997317791
 42
0.05
 43
0.5
 44
0.1
 45
0.00000001
 75
     1
 76
     1
 78
     4
 79
     2
140
0.1200000047683716
146
0.7099999189376831
147
0.0599999986588955
176
   256
177
   256
178
     2
284
     4
340
E0
371
    -1
372
    -1
  0
DIMSTYLE
105
EE
330
A
100
AcDbSymbolTableRecord
100
AcDbDimStyleTableRecord
  2
Architectural (ANSI)
 70
     0
 40
12.0
 41
0.0984251946210861
 43
0.2362204724409449
 44
0.125
 45
0.00000001
 46
0.3937007874015748
 78
     3
 79
     3
140
0.1200000047683716
147
0.031496062992126
171
     1
176
   256
177
   256
178
   256
272
     2
274
     1
276
     2
277
     4
284
    12
285
     4
286
    12
340
D6
371
    -1
372
    -1
  0
DIMSTYLE
105
EF
330
A
100
AcDbSymbolTableRecord
100
AcDbDimStyleTableRecord
  2
Architectural (ANSI)$7
 70
     0
 40
12.0
 41
0.0984251946210861
 43
0.2362204724409449
 44
0.125
 45
0.00000001
 46
0.3937007874015748
 78
     3
 79
     3
140
0.1200000047683716
147
0.031496062992126
171
     1
176
   256
177
   256
178
   256
272
     2
274
     1
276
     2
277
     4
284
    12
285
     4
286
    12
340
D6
371
    -1
372
    -1
  0
DIMSTYLE
105
F0
330
A
100
AcDbSymbolTableRecord
100
AcDbDimStyleTableRecord
  2
Default - Fraction (ANSI)
 70
     0
 40
12.0
 41
0.0984251946210861
 43
0.2362204724409449
 44
0.125
 45
0.00000001
 46
0.3937007874015748
 79
     3
140
0.1200000047683716
147
0.031496062992126
171
     1
176
   256
177
   256
178
   256
272
     2
274
     1
276
     2
277
     5
284
    12
285
     4
286
    12
340
D6
371
    -1
372
    -1
  0
DIMSTYLE
105
F1
330
A
100
AcDbSymbolTableRecord
100
AcDbDimStyleTableRecord
  2
Default - Fraction (ANSI)$7
 70
     0
 40
12.0
 41
0.0984251946210861
 43
0.2362204724409449
 44
0.125
 45
0.00000001
 46
0.3937007874015748
 79
     3
140
0.1200000047683716
147
0.031496062992126
171
     1
176
   256
177
   256
178
   256
272
     2
274
     1
276
     2
277
     5
284
    12
285
     4
286
    12
340
D6
371
    -1
372
    -1
  0
DIMSTYLE
105
F2
330
A
100
AcDbSymbolTableRecord
100
AcDbDimStyleTableRecord
  2
Default - mm (ANSI)
 70
     0
 40
12.0
 41
0.0984251946210861
 42
0.063
 43
0.2362204724409449
 44
0.125
 45
0.00000001
 46
0.3937007874015748
 73
     0
 78
     4
 79
     1
140
0.1200000047683716
143
1.0
144
25.4
147
0.031496062992126
171
     1
176
   256
177
   256
178
   256
179
     1
271
     2
272
     2
274
     1
284
     4
285
     4
340
D6
371
    -1
372
    -1
  0
DIMSTYLE
105
F3
330
A
100
AcDbSymbolTableRecord
100
AcDbDimStyleTableRecord
  2
Default - mm (ANSI)$7
 70
     0
 40
12.0
 41
0.0984251946210861
 42
0.063
 43
0.2362204724409449
 44
0.125
 45
0.00000001
 46
0.3937007874015748
 73
     0
 78
     4
 79
     1
140
0.1200000047683716
143
1.0
144
25.4
147
0.031496062992126
171
     1
176
   256
177
   256
178
   256
179
     1
271
     2
272
     2
274
     1
284
     4
285
     4
340
D6
371
    -1
372
    -1
  0
DIMSTYLE
105
F4
330
A
100
AcDbSymbolTableRecord
100
AcDbDimStyleTableRecord
  2
Default - mm [in] (ANSI)
 70
     0
  4
 in
 40
12.0
 41
0.0984251946210861
 42
0.063
 43
0.25
 44
0.125
 45
0.00000001
 46
0.3937007874015748
 73
     0
 78
     4
 79
     1
140
0.1200000047683716
143
0.03937
144
25.4
147
0.031496062992126
170
     1
171
     3
176
   256
177
   256
178
   256
179
     1
271
     2
272
     2
274
     3
284
     4
285
     4
286
     4
340
D6
371
    -1
372
    -1
  0
DIMSTYLE
105
F5
330
A
100
AcDbSymbolTableRecord
100
AcDbDimStyleTableRecord
  2
Default - mm [in] (ANSI)$7
 70
     0
  4
 in
 40
12.0
 41
0.0984251946210861
 42
0.063
 43
0.25
 44
0.125
 45
0.00000001
 46
0.3937007874015748
 73
     0
 78
     4
 79
     1
140
0.1200000047683716
143
0.03937
144
25.4
147
0.031496062992126
170
     1
171
     3
176
   256
177
   256
178
   256
179
     1
271
     2
272
     2
274
     3
284
     4
285
     4
286
     4
340
D6
371
    -1
372
    -1
  0
DIMSTYLE
105
F6
102
{ACAD_REACTORS
330
2E9
330
3D6
330
4C0
330
5AA
330
694
330
77E
330
868
330
97E
330
A7C
330
CAF
330
D6A
102
}
330
A
100
AcDbSymbolTableRecord
100
AcDbDimStyleTableRecord
  2
Default (ANSI)
 70
     0
 40
12.0
 41
0.0984251946210861
 43
0.2362204724409449
 44
0.125
 45
0.00000001
 46
0.3937007874015748
 79
     1
140
0.1200000047683716
147
0.031496062992126
171
     1
176
   256
177
   256
178
   256
271
     2
272
     2
274
     1
284
     4
285
     4
340
D6
371
    -1
372
    -1
  0
DIMSTYLE
105
F7
330
A
100
AcDbSymbolTableRecord
100
AcDbDimStyleTableRecord
  2
Default (ANSI)$7
 70
     0
 40
12.0
 41
0.0984251946210861
 43
0.2362204724409449
 44
0.125
 45
0.00000001
 46
0.3937007874015748
 79
     1
140
0.1200000047683716
147
0.031496062992126
171
     1
176
   256
177
   256
178
   256
271
     2
272
     2
274
     1
284
     4
285
     4
340
D6
371
    -1
372
    -1
  0
DIMSTYLE
105
F8
330
A
100
AcDbSymbolTableRecord
100
AcDbDimStyleTableRecord
  2
Alternate (ANSI)
 70
     0
 40
12.0
 41
0.0979999974370003
340
55
342
F9
  0
DIMSTYLE
105
10B
330
A
100
AcDbSymbolTableRecord
100
AcDbDimStyleTableRecord
  2
Datum (ANSI)
 70
     0
 40
12.0
 41
0.0979999974370003
340
55
342
F9
  0
DIMSTYLE
105
11A
330
A
100
AcDbSymbolTableRecord
100
AcDbDimStyleTableRecord
  2
Large (ANSI)
 70
     0
 40
12.0
 41
0.1959999948740005
340
55
342
F9
  0
ENDTAB
  0
TABLE
  2
BLOCK_RECORD
  5
1
330
0
100
AcDbSymbolTable
 70
    15
  0
BLOCK_RECORD
  5
6C
330
1
100
AcDbSymbolTableRecord
100
AcDbBlockTableRecord
  2
*Model_Space
340
6F
 70
     0
280
     1
281
     0
  0
BLOCK_RECORD
  5
68
330
1
100
AcDbSymbolTableRecord
100
AcDbBlockTableRecord
  2
*Paper_Space
340
6B
 70
     0
280
     1
281
     0
  0
BLOCK_RECORD
  5
70
330
1
100
AcDbSymbolTableRecord
100
AcDbBlockTableRecord
  2
*Paper_Space0
340
73
 70
     0
280
     1
281
     0
  0
BLOCK_RECORD
  5
F9
330
1
100
AcDbSymbolTableRecord
100
AcDbBlockTableRecord
  2
_Closed
340
0
 70
     0
280
     1
281
     0
  0
BLOCK_RECORD
  5
100
330
1
100
AcDbSymbolTableRecord
100
AcDbBlockTableRecord
  2
DatumFilled45
340
0
 70
     0
280
     1
281
     0
  0
BLOCK_RECORD
  5
10C
330
1
100
AcDbSymbolTableRecord
100
AcDbBlockTableRecord
  2
Filled-1
340
0
 70
     0
280
     1
281
     0
  0
BLOCK_RECORD
  5
2EC
330
1
100
AcDbSymbolTableRecord
100
AcDbBlockTableRecord
  2
*D4
340
0
 70
     0
280
     1
281
     0
  0
BLOCK_RECORD
  5
3D7
330
1
100
AcDbSymbolTableRecord
100
AcDbBlockTableRecord
  2
*D5
340
0
 70
     0
280
     1
281
     0
  0
BLOCK_RECORD
  5
4C1
330
1
100
AcDbSymbolTableRecord
100
AcDbBlockTableRecord
  2
*D6
340
0
 70
     0
280
     1
281
     0
  0
BLOCK_RECORD
  5
5AB
330
1
100
AcDbSymbolTableRecord
100
AcDbBlockTableRecord
  2
*D7
340
0
 70
     0
280
     1
281
     0
  0
BLOCK_RECORD
  5
695
330
1
100
AcDbSymbolTableRecord
100
AcDbBlockTableRecord
  2
*D8
340
0
 70
     0
280
     1
281
     0
  0
BLOCK_RECORD
  5
77F
330
1
100
AcDbSymbolTableRecord
100
AcDbBlockTableRecord
  2
*D9
340
0
 70
     0
280
     1
281
     0
  0
BLOCK_RECORD
  5
869
330
1
100
AcDbSymbolTableRecord
100
AcDbBlockTableRecord
  2
*D10
340
0
 70
     0
280
     1
281
     0
  0
BLOCK_RECORD
  5
97F
330
1
100
AcDbSymbolTableRecord
100
AcDbBlockTableRecord
  2
*D11
340
0
 70
     0
280
     1
281
     0
  0
BLOCK_RECORD
  5
A7D
330
1
100
AcDbSymbolTableRecord
100
AcDbBlockTableRecord
  2
*D12
340
0
 70
     0
280
     1
281
     0
  0
BLOCK_RECORD
  5
CB0
330
1
100
AcDbSymbolTableRecord
100
AcDbBlockTableRecord
  2
*D13
340
0
 70
     0
280
     1
281
     0
  0
BLOCK_RECORD
  5
D6B
330
1
100
AcDbSymbolTableRecord
100
AcDbBlockTableRecord
  2
*D14
340
0
 70
     0
280
     1
281
     0
  0
ENDTAB
  0
ENDSEC
  0
SECTION
  2
BLOCKS
  0
BLOCK
  5
6D
330
6C
100
AcDbEntity
  8
0
100
AcDbBlockBegin
  2
*Model_Space
 70
     0
 10
0.0
 20
0.0
 30
0.0
  3
*Model_Space
  1

  0
ENDBLK
  5
6E
330
6C
100
AcDbEntity
  8
0
100
AcDbBlockEnd
  0
BLOCK
  5
69
330
68
100
AcDbEntity
 67
     1
  8
0
100
AcDbBlockBegin
  2
*Paper_Space
 70
     0
 10
0.0
 20
0.0
 30
0.0
  3
*Paper_Space
  1

  0
ENDBLK
  5
6A
330
68
100
AcDbEntity
 67
     1
  8
0
100
AcDbBlockEnd
  0
BLOCK
  5
71
330
70
100
AcDbEntity
 67
     1
  8
0
100
AcDbBlockBegin
  2
*Paper_Space0
 70
     0
 10
0.0
 20
0.0
 30
0.0
  3
*Paper_Space0
  1

  0
ENDBLK
  5
72
330
70
100
AcDbEntity
 67
     1
  8
0
100
AcDbBlockEnd
  0
BLOCK
  5
FE
330
F9
100
AcDbEntity
  8
0
100
AcDbBlockBegin
  2
_Closed
 70
     0
 10
0.0
 20
0.0
 30
0.0
  3
_Closed
  1

  0
LINE
  5
FA
330
F9
100
AcDbEntity
  8
0
  6
ByBlock
 62
     0
370
    -2
100
AcDbLine
 10
-1.0
 20
0.1666666666666666
 30
0.0
 11
0.0
 21
0.0
 31
0.0
  0
LINE
  5
FB
330
F9
100
AcDbEntity
  8
0
  6
ByBlock
 62
     0
370
    -2
100
AcDbLine
 10
0.0
 20
0.0
 30
0.0
 11
-1.0
 21
-0.1666666666666666
 31
0.0
  0
LINE
  5
FC
330
F9
100
AcDbEntity
  8
0
  6
ByBlock
 62
     0
370
    -2
100
AcDbLine
 10
-1.0
 20
0.1666666666666666
 30
0.0
 11
-1.0
 21
-0.1666666666666666
 31
0.0
  0
LINE
  5
FD
330
F9
100
AcDbEntity
  8
0
  6
ByBlock
 62
     0
370
    -2
100
AcDbLine
 10
0.0
 20
0.0
 30
0.0
 11
-1.0
 21
0.0
 31
0.0
  0
ENDBLK
  5
FF
330
F9
100
AcDbEntity
  8
0
100
AcDbBlockEnd
  0
BLOCK
  5
101
330
100
100
AcDbEntity
  8
0
100
AcDbBlockBegin
  2
DatumFilled45
 70
     0
 10
0.0
 20
0.0
 30
0.0
  3
DatumFilled45
  1

  0
POLYLINE
  5
103
330
100
100
AcDbEntity
  8
0
 62
     0
100
AcDb2dPolyline
 66
     1
 10
0.0
 20
0.0
 30
0.0
 70
   128
  0
VERTEX
  5
104
330
103
100
AcDbEntity
  8
0
 62
     0
100
AcDbVertex
100
AcDb2dVertex
 10
0.0
 20
0.9999999999999998
 30
0.0
  0
VERTEX
  5
105
330
103
100
AcDbEntity
  8
0
 62
     0
100
AcDbVertex
100
AcDb2dVertex
 10
0.0
 20
-0.9999999999999998
 30
0.0
  0
VERTEX
  5
107
330
103
100
AcDbEntity
  8
0
 62
     0
100
AcDbVertex
100
AcDb2dVertex
 10
-0.9999999999999998
 20
0.0
 30
0.0
  0
VERTEX
  5
108
330
103
100
AcDbEntity
  8
0
 62
     0
100
AcDbVertex
100
AcDb2dVertex
 10
0.0
 20
0.9999999999999998
 30
0.0
  0
SEQEND
  5
106
330
103
100
AcDbEntity
  8
0
 62
     0
  0
SOLID
  5
10A
330
100
100
AcDbEntity
  8
0
 62
     0
100
AcDbTrace
 10
0.0
 20
0.9999999999999998
 30
0.0
 11
0.0
 21
-0.9999999999999998
 31
0.0
 12
-0.9999999999999998
 22
0.0
 32
0.0
 13
0.0
 23
0.9999999999999998
 33
0.0
  0
ENDBLK
  5
102
330
100
100
AcDbEntity
  8
0
100
AcDbBlockEnd
  0
BLOCK
  5
10D
330
10C
100
AcDbEntity
  8
0
100
AcDbBlockBegin
  2
Filled-1
 70
     0
 10
0.0
 20
0.0
 30
0.0
  3
Filled-1
  1

  0
LINE
  5
10F
330
10C
100
AcDbEntity
  8
0
 62
     0
100
AcDbLine
 10
-0.9999999999999998
 20
0.0
 30
0.0
 11
0.0
 21
0.0
 31
0.0
  0
POLYLINE
  5
110
330
10C
100
AcDbEntity
  8
0
 62
     0
100
AcDb2dPolyline
 66
     1
 10
0.0
 20
0.0
 30
0.0
 70
   128
  0
VERTEX
  5
111
330
110
100
AcDbEntity
  8
0
 62
     0
100
AcDbVertex
100
AcDb2dVertex
 10
-0.9999999999999998
 20
-0.0994897959183674
 30
0.0
  0
VERTEX
  5
112
330
110
100
AcDbEntity
  8
0
 62
     0
100
AcDbVertex
100
AcDb2dVertex
 10
0.0
 20
0.0
 30
0.0
  0
VERTEX
  5
114
330
110
100
AcDbEntity
  8
0
 62
     0
100
AcDbVertex
100
AcDb2dVertex
 10
-0.9999999999999998
 20
0.0994897959183674
 30
0.0
  0
VERTEX
  5
115
330
110
100
AcDbEntity
  8
0
 62
     0
100
AcDbVertex
100
AcDb2dVertex
 10
-0.9999999999999998
 20
-0.0994897959183674
 30
0.0
  0
SEQEND
  5
113
330
110
100
AcDbEntity
  8
0
 62
     0
  0
SOLID
  5
116
330
10C
100
AcDbEntity
  8
0
 62
     0
100
AcDbTrace
 10
-0.9999999999999998
 20
-0.0994897959183674
 30
0.0
 11
0.0
 21
0.0
 31
0.0
 12
-0.9999999999999998
 22
0.0994897959183674
 32
0.0
 13
-0.9999999999999998
 23
-0.0994897959183674
 33
0.0
  0
LINE
  5
117
330
10C
100
AcDbEntity
  8
0
 62
     0
100
AcDbLine
 10
-0.9999999999999998
 20
-0.0994897959183674
 30
0.0
 11
0.0
 21
0.0
 31
0.0
  0
LINE
  5
118
330
10C
100
AcDbEntity
  8
0
 62
     0
100
AcDbLine
 10
0.0
 20
0.0
 30
0.0
 11
-0.9999999999999998
 21
0.0994897959183674
 31
0.0
  0
LINE
  5
119
330
10C
100
AcDbEntity
  8
0
 62
     0
100
AcDbLine
 10
-0.9999999999999998
 20
0.0994897959183674
 30
0.0
 11
-0.9999999999999998
 21
-0.0994897959183674
 31
0.0
  0
ENDBLK
  5
10E
330
10C
100
AcDbEntity
  8
0
100
AcDbBlockEnd
  0
BLOCK
  5
2ED
330
2EC
100
AcDbEntity
  8
0
100
AcDbBlockBegin
  2
*D4
 70
     1
 10
0.0
 20
0.0
 30
0.0
  3
*D4
  1

  0
LINE
  5
3CC
330
2EC
100
AcDbEntity
  8
Dimension (ANSI)
440
 16777216
100
AcDbLine
 10
33.36888596466373
 20
31.72997498204827
 30
0.0
 11
12.12032969121245
 21
31.72997498204828
 31
0.0
  0
LINE
  5
3CD
330
2EC
100
AcDbEntity
  8
Dimension (ANSI)
440
 16777216
100
AcDbLine
 10
33.36888596466373
 20
99.72997498204826
 30
0.0
 11
12.12032969121246
 21
99.72997498204826
 31
0.0
  0
LINE
  5
3CE
330
2EC
100
AcDbEntity
  8
Dimension (ANSI)
440
 16777216
100
AcDbLine
 10
13.62032969121245
 20
32.91107731750131
 30
0.0
 11
13.62032969121246
 21
64.59914107281633
 31
0.0
  0
LINE
  5
3CF
330
2EC
100
AcDbEntity
  8
Dimension (ANSI)
440
 16777216
100
AcDbLine
 10
13.62032969121246
 20
98.54887264659524
 30
0.0
 11
13.62032969121246
 21
66.86080889128018
 31
0.0
  0
SOLID
  5
3D0
330
2EC
100
AcDbEntity
  8
Dimension (ANSI)
440
 16777216
100
AcDbTrace
 10
13.42347930197028
 20
32.91107731750131
 30
0.0
 11
13.81718008045462
 21
32.91107731750131
 31
0.0
 12
13.62032969121245
 22
31.72997498204828
 32
0.0
 13
13.62032969121245
 23
31.72997498204828
 33
0.0
  0
SOLID
  5
3D1
330
2EC
100
AcDbEntity
  8
Dimension (ANSI)
440
 16777216
100
AcDbTrace
 10
13.42347930197029
 20
98.54887264659524
 30
0.0
 11
13.81718008045464
 21
98.54887264659524
 31
0.0
 12
13.62032969121246
 22
99.72997498204826
 32
0.0
 13
13.62032969121246
 23
99.72997498204826
 33
0.0
  0
MTEXT
  5
3D2
330
2EC
100
AcDbEntity
  8
Dimension (ANSI)
440
 16777216
100
AcDbMText
 10
11.23934908814291
 20
66.48285613537467
 30
0.0
 40
1.440000057220458
 41
0.0
 46
0.0
 71
     1
 72
     1
  1
\A1;68.00
  7
Note Text (ANSI)
 73
     1
 44
1.0
  0
POINT
  5
3D3
330
2EC
100
AcDbEntity
  8
Defpoints
 62
     0
440
 16777216
100
AcDbPoint
 10
34.11888596466372
 20
31.72997498204827
 30
0.0
  0
POINT
  5
3D4
330
2EC
100
AcDbEntity
  8
Defpoints
 62
     0
440
 16777216
100
AcDbPoint
 10
34.11888596466373
 20
99.72997498204826
 30
0.0
  0
POINT
  5
3D5
330
2EC
100
AcDbEntity
  8
Defpoints
 62
     0
440
 16777216
100
AcDbPoint
 10
13.62032969121246
 20
99.72997498204826
 30
0.0
  0
ENDBLK
  5
2EE
330
2EC
100
AcDbEntity
  8
0
100
AcDbBlockEnd
  0
BLOCK
  5
3D8
330
3D7
100
AcDbEntity
  8
0
100
AcDbBlockBegin
  2
*D5
 70
     1
 10
0.0
 20
0.0
 30
0.0
  3
*D5
  1

  0
LINE
  5
4B6
330
3D7
100
AcDbEntity
  8
Dimension (ANSI)
440
 16777216
100
AcDbLine
 10
34.03049761701541
 20
32.60497498204826
 30
0.0
 11
27.59285721011767
 21
32.60497498204826
 31
0.0
  0
LINE
  5
4B7
330
3D7
100
AcDbEntity
  8
Dimension (ANSI)
440
 16777216
100
AcDbLine
 10
34.03049761701541
 20
65.72997498204826
 30
0.0
 11
27.59285721011768
 21
65.72997498204827
 31
0.0
  0
LINE
  5
4B8
330
3D7
100
AcDbEntity
  8
Dimension (ANSI)
440
 16777216
100
AcDbLine
 10
29.09285721011767
 20
33.78607731750129
 30
0.0
 11
29.09285721011768
 21
48.03954234893705
 31
0.0
  0
LINE
  5
4B9
330
3D7
100
AcDbEntity
  8
Dimension (ANSI)
440
 16777216
100
AcDbLine
 10
29.09285721011768
 20
64.54887264659524
 30
0.0
 11
29.09285721011768
 21
50.29540761515946
 31
0.0
  0
SOLID
  5
4BA
330
3D7
100
AcDbEntity
  8
Dimension (ANSI)
440
 16777216
100
AcDbTrace
 10
28.8960068208755
 20
33.78607731750129
 30
0.0
 11
29.28970759935984
 21
33.78607731750129
 31
0.0
 12
29.09285721011767
 22
32.60497498204826
 32
0.0
 13
29.09285721011767
 23
32.60497498204826
 33
0.0
  0
SOLID
  5
4BB
330
3D7
100
AcDbEntity
  8
Dimension (ANSI)
440
 16777216
100
AcDbTrace
 10
28.8960068208755
 20
64.54887264659524
 30
0.0
 11
29.28970759935985
 21
64.54887264659524
 31
0.0
 12
29.09285721011768
 22
65.72997498204827
 32
0.0
 13
29.09285721011768
 23
65.72997498204827
 33
0.0
  0
MTEXT
  5
4BC
330
3D7
100
AcDbEntity
  8
Dimension (ANSI)
440
 16777216
100
AcDbMText
 10
26.73363617795352
 20
49.91745485925395
 30
0.0
 40
1.440000057220458
 41
0.0
 46
0.0
 71
     1
 72
     1
  1
\A1;33.13
  7
Note Text (ANSI)
 73
     1
 44
1.0
  0
POINT
  5
4BD
330
3D7
100
AcDbEntity
  8
Defpoints
 62
     0
440
 16777216
100
AcDbPoint
 10
34.78049761701541
 20
32.60497498204826
 30
0.0
  0
POINT
  5
4BE
330
3D7
100
AcDbEntity
  8
Defpoints
 62
     0
440
 16777216
100
AcDbPoint
 10
34.78049761701541
 20
65.72997498204826
 30
0.0
  0
POINT
  5
4BF
330
3D7
100
AcDbEntity
  8
Defpoints
 62
     0
440
 16777216
100
AcDbPoint
 10
29.09285721011768
 20
65.72997498204827
 30
0.0
  0
ENDBLK
  5
3D9
330
3D7
100
AcDbEntity
  8
0
100
AcDbBlockEnd
  0
BLOCK
  5
4C2
330
4C1
100
AcDbEntity
  8
0
100
AcDbBlockBegin
  2
*D6
 70
     1
 10
0.0
 20
0.0
 30
0.0
  3
*D6
  1

  0
LINE
  5
5A0
330
4C1
100
AcDbEntity
  8
Dimension (ANSI)
440
 16777216
100
AcDbLine
 10
34.03049761701541
 20
32.60497498204826
 30
0.0
 11
20.70274729935519
 21
32.60497498204826
 31
0.0
  0
LINE
  5
5A1
330
4C1
100
AcDbEntity
  8
Dimension (ANSI)
440
 16777216
100
AcDbLine
 10
34.03049761701541
 20
98.85497498204825
 30
0.0
 11
20.70274729935521
 21
98.85497498204827
 31
0.0
  0
LINE
  5
5A2
330
4C1
100
AcDbEntity
  8
Dimension (ANSI)
440
 16777216
100
AcDbLine
 10
22.20274729935519
 20
33.78607731750129
 30
0.0
 11
22.2027472993552
 21
64.60204234893703
 31
0.0
  0
LINE
  5
5A3
330
4C1
100
AcDbEntity
  8
Dimension (ANSI)
440
 16777216
100
AcDbLine
 10
22.20274729935521
 20
97.67387264659523
 30
0.0
 11
22.2027472993552
 21
66.85790761515946
 31
0.0
  0
SOLID
  5
5A4
330
4C1
100
AcDbEntity
  8
Dimension (ANSI)
440
 16777216
100
AcDbTrace
 10
22.00589691011302
 20
33.78607731750129
 30
0.0
 11
22.39959768859737
 21
33.78607731750129
 31
0.0
 12
22.20274729935519
 22
32.60497498204826
 32
0.0
 13
22.20274729935519
 23
32.60497498204826
 33
0.0
  0
SOLID
  5
5A5
330
4C1
100
AcDbEntity
  8
Dimension (ANSI)
440
 16777216
100
AcDbTrace
 10
22.00589691011304
 20
97.67387264659523
 30
0.0
 11
22.39959768859738
 21
97.67387264659523
 31
0.0
 12
22.20274729935521
 22
98.85497498204827
 32
0.0
 13
22.20274729935521
 23
98.85497498204827
 33
0.0
  0
MTEXT
  5
5A6
330
4C1
100
AcDbEntity
  8
Dimension (ANSI)
440
 16777216
100
AcDbMText
 10
19.83337180076853
 20
66.47995485925394
 30
0.0
 40
1.440000057220458
 41
0.0
 46
0.0
 71
     1
 72
     1
  1
\A1;66.25
  7
Note Text (ANSI)
 73
     1
 44
1.0
  0
POINT
  5
5A7
330
4C1
100
AcDbEntity
  8
Defpoints
 62
     0
440
 16777216
100
AcDbPoint
 10
34.78049761701541
 20
32.60497498204826
 30
0.0
  0
POINT
  5
5A8
330
4C1
100
AcDbEntity
  8
Defpoints
 62
     0
440
 16777216
100
AcDbPoint
 10
34.78049761701541
 20
98.85497498204825
 30
0.0
  0
POINT
  5
5A9
330
4C1
100
AcDbEntity
  8
Defpoints
 62
     0
440
 16777216
100
AcDbPoint
 10
22.20274729935521
 20
98.85497498204827
 30
0.0
  0
ENDBLK
  5
4C3
330
4C1
100
AcDbEntity
  8
0
100
AcDbBlockEnd
  0
BLOCK
  5
5AC
330
5AB
100
AcDbEntity
  8
0
100
AcDbBlockBegin
  2
*D7
 70
     1
 10
0.0
 20
0.0
 30
0.0
  3
*D7
  1

  0
LINE
  5
68A
330
5AB
100
AcDbEntity
  8
Dimension (ANSI)
440
 16777216
100
AcDbLine
 10
33.90549761701541
 20
100.2665866343999
 30
0.0
 11
33.90549761701541
 21
115.1703307500514
 31
0.0
  0
LINE
  5
68B
330
5AB
100
AcDbEntity
  8
Dimension (ANSI)
440
 16777216
100
AcDbLine
 10
101.9054976170153
 20
100.2665866343999
 30
0.0
 11
101.9054976170153
 21
115.1703307500514
 31
0.0
  0
LINE
  5
68C
330
5AB
100
AcDbEntity
  8
Dimension (ANSI)
440
 16777216
100
AcDbLine
 10
35.08659995246844
 20
113.6703307500514
 30
0.0
 11
65.14656425804034
 21
113.6703307500514
 31
0.0
  0
LINE
  5
68D
330
5AB
100
AcDbEntity
  8
Dimension (ANSI)
440
 16777216
100
AcDbLine
 10
100.7243952815623
 20
113.6703307500514
 30
0.0
 11
70.66443097599043
 21
113.6703307500514
 31
0.0
  0
SOLID
  5
68E
330
5AB
100
AcDbEntity
  8
Dimension (ANSI)
440
 16777216
100
AcDbTrace
 10
35.08659995246844
 20
113.8671811392936
 30
0.0
 11
35.08659995246844
 21
113.4734803608093
 31
0.0
 12
33.90549761701541
 22
113.6703307500514
 32
0.0
 13
33.90549761701541
 23
113.6703307500514
 33
0.0
  0
SOLID
  5
68F
330
5AB
100
AcDbEntity
  8
Dimension (ANSI)
440
 16777216
100
AcDbTrace
 10
100.7243952815623
 20
113.8671811392936
 30
0.0
 11
100.7243952815623
 21
113.4734803608093
 31
0.0
 12
101.9054976170153
 22
113.6703307500514
 32
0.0
 13
101.9054976170153
 23
113.6703307500514
 33
0.0
  0
MTEXT
  5
690
330
5AB
100
AcDbEntity
  8
Dimension (ANSI)
440
 16777216
100
AcDbMText
 10
65.52451701394585
 20
114.4232119033778
 30
0.0
 40
1.440000057220458
 41
0.0
 46
0.0
 71
     1
 72
     1
  1
\A1;68.00
  7
Note Text (ANSI)
 73
     1
 44
1.0
  0
POINT
  5
691
330
5AB
100
AcDbEntity
  8
Defpoints
 62
     0
440
 16777216
100
AcDbPoint
 10
33.90549761701541
 20
99.51658663439994
 30
0.0
  0
POINT
  5
692
330
5AB
100
AcDbEntity
  8
Defpoints
 62
     0
440
 16777216
100
AcDbPoint
 10
101.9054976170153
 20
99.51658663439992
 30
0.0
  0
POINT
  5
693
330
5AB
100
AcDbEntity
  8
Defpoints
 62
     0
440
 16777216
100
AcDbPoint
 10
101.9054976170153
 20
113.6703307500514
 30
0.0
  0
ENDBLK
  5
5AD
330
5AB
100
AcDbEntity
  8
0
100
AcDbBlockEnd
  0
BLOCK
  5
696
330
695
100
AcDbEntity
  8
0
100
AcDbBlockBegin
  2
*D8
 70
     1
 10
0.0
 20
0.0
 30
0.0
  3
*D8
  1

  0
LINE
  5
774
330
695
100
AcDbEntity
  8
Dimension (ANSI)
440
 16777216
100
AcDbLine
 10
34.78049761701541
 20
99.60497498204825
 30
0.0
 11
34.78049761701541
 21
109.7637372209999
 31
0.0
  0
LINE
  5
775
330
695
100
AcDbEntity
  8
Dimension (ANSI)
440
 16777216
100
AcDbLine
 10
101.0304976170154
 20
99.60497498204825
 30
0.0
 11
101.0304976170154
 21
109.7637372209999
 31
0.0
  0
LINE
  5
776
330
695
100
AcDbEntity
  8
Dimension (ANSI)
440
 16777216
100
AcDbLine
 10
35.96159995246844
 20
108.2637372209999
 30
0.0
 11
64.70322109249785
 21
108.2637372209999
 31
0.0
  0
LINE
  5
777
330
695
100
AcDbEntity
  8
Dimension (ANSI)
440
 16777216
100
AcDbLine
 10
99.84939528156239
 20
108.2637372209999
 30
0.0
 11
70.1978776014822
 21
108.2637372209999
 31
0.0
  0
SOLID
  5
778
330
695
100
AcDbEntity
  8
Dimension (ANSI)
440
 16777216
100
AcDbTrace
 10
35.96159995246844
 20
108.4605876102421
 30
0.0
 11
35.96159995246844
 21
108.0668868317578
 31
0.0
 12
34.78049761701541
 22
108.2637372209999
 32
0.0
 13
34.78049761701541
 23
108.2637372209999
 33
0.0
  0
SOLID
  5
779
330
695
100
AcDbEntity
  8
Dimension (ANSI)
440
 16777216
100
AcDbTrace
 10
99.84939528156239
 20
108.4605876102421
 30
0.0
 11
99.84939528156239
 21
108.0668868317578
 31
0.0
 12
101.0304976170154
 22
108.2637372209999
 32
0.0
 13
101.0304976170154
 23
108.2637372209999
 33
0.0
  0
MTEXT
  5
77A
330
695
100
AcDbEntity
  8
Dimension (ANSI)
440
 16777216
100
AcDbMText
 10
65.08117384840336
 20
109.0137170982056
 30
0.0
 40
1.440000057220458
 41
0.0
 46
0.0
 71
     1
 72
     1
  1
\A1;66.25
  7
Note Text (ANSI)
 73
     1
 44
1.0
  0
POINT
  5
77B
330
695
100
AcDbEntity
  8
Defpoints
 62
     0
440
 16777216
100
AcDbPoint
 10
34.78049761701541
 20
98.85497498204825
 30
0.0
  0
POINT
  5
77C
330
695
100
AcDbEntity
  8
Defpoints
 62
     0
440
 16777216
100
AcDbPoint
 10
101.0304976170154
 20
98.85497498204825
 30
0.0
  0
POINT
  5
77D
330
695
100
AcDbEntity
  8
Defpoints
 62
     0
440
 16777216
100
AcDbPoint
 10
101.0304976170154
 20
108.2637372209999
 30
0.0
  0
ENDBLK
  5
697
330
695
100
AcDbEntity
  8
0
100
AcDbBlockEnd
  0
BLOCK
  5
780
330
77F
100
AcDbEntity
  8
0
100
AcDbBlockBegin
  2
*D9
 70
     1
 10
0.0
 20
0.0
 30
0.0
  3
*D9
  1

  0
LINE
  5
85E
330
77F
100
AcDbEntity
  8
Dimension (ANSI)
440
 16777216
100
AcDbLine
 10
34.78049761701541
 20
99.60497498204825
 30
0.0
 11
34.78049761701541
 21
105.0793844308671
 31
0.0
  0
LINE
  5
85F
330
77F
100
AcDbEntity
  8
Dimension (ANSI)
440
 16777216
100
AcDbLine
 10
67.9054976170154
 20
99.60497498204825
 30
0.0
 11
67.9054976170154
 21
105.0793844308671
 31
0.0
  0
LINE
  5
860
330
77F
100
AcDbEntity
  8
Dimension (ANSI)
440
 16777216
100
AcDbLine
 10
35.96159995246844
 20
103.5793844308671
 30
0.0
 11
48.60582382894574
 21
103.5793844308671
 31
0.0
  0
LINE
  5
861
330
77F
100
AcDbEntity
  8
Dimension (ANSI)
440
 16777216
100
AcDbLine
 10
66.72439528156236
 20
103.5793844308671
 30
0.0
 11
54.08017140508507
 21
103.5793844308671
 31
0.0
  0
SOLID
  5
862
330
77F
100
AcDbEntity
  8
Dimension (ANSI)
440
 16777216
100
AcDbTrace
 10
35.96159995246844
 20
103.7762348201093
 30
0.0
 11
35.96159995246844
 21
103.382534041625
 31
0.0
 12
34.78049761701541
 22
103.5793844308671
 32
0.0
 13
34.78049761701541
 23
103.5793844308671
 33
0.0
  0
SOLID
  5
863
330
77F
100
AcDbEntity
  8
Dimension (ANSI)
440
 16777216
100
AcDbTrace
 10
66.72439528156236
 20
103.7762348201093
 30
0.0
 11
66.72439528156236
 21
103.382534041625
 31
0.0
 12
67.9054976170154
 22
103.5793844308671
 32
0.0
 13
67.9054976170154
 23
103.5793844308671
 33
0.0
  0
MTEXT
  5
864
330
77F
100
AcDbEntity
  8
Dimension (ANSI)
440
 16777216
100
AcDbMText
 10
48.98377658485126
 20
104.3293643080728
 30
0.0
 40
1.440000057220458
 41
0.0
 46
0.0
 71
     1
 72
     1
  1
\A1;33.13
  7
Note Text (ANSI)
 73
     1
 44
1.0
  0
POINT
  5
865
330
77F
100
AcDbEntity
  8
Defpoints
 62
     0
440
 16777216
100
AcDbPoint
 10
34.78049761701541
 20
98.85497498204825
 30
0.0
  0
POINT
  5
866
330
77F
100
AcDbEntity
  8
Defpoints
 62
     0
440
 16777216
100
AcDbPoint
 10
67.9054976170154
 20
98.85497498204825
 30
0.0
  0
POINT
  5
867
330
77F
100
AcDbEntity
  8
Defpoints
 62
     0
440
 16777216
100
AcDbPoint
 10
67.9054976170154
 20
103.5793844308671
 30
0.0
  0
ENDBLK
  5
781
330
77F
100
AcDbEntity
  8
0
100
AcDbBlockEnd
  0
BLOCK
  5
86A
330
869
100
AcDbEntity
  8
0
100
AcDbBlockBegin
  2
*D10
 70
     1
 10
0.0
 20
0.0
 30
0.0
  3
*D10
  1

  0
LINE
  5
973
330
869
100
AcDbEntity
  8
Dimension (ANSI)
440
 16777216
100
AcDbLine
 10
102.4421092693671
 20
31.72997498204829
 30
0.0
 11
114.5373399675036
 21
31.72997498204829
 31
0.0
  0
LINE
  5
974
330
869
100
AcDbEntity
  8
Dimension (ANSI)
440
 16777216
100
AcDbLine
 10
101.7804976170154
 20
32.60497498204828
 30
0.0
 11
114.5373399675036
 21
32.60497498204828
 31
0.0
  0
LINE
  5
975
330
869
100
AcDbEntity
  8
Dimension (ANSI)
440
 16777216
100
AcDbLine
 10
113.0373399675036
 20
33.78607731750131
 30
0.0
 11
113.0373399675036
 21
34.96717965295434
 31
0.0
  0
LINE
  5
976
330
869
100
AcDbEntity
  8
Dimension (ANSI)
440
 16777216
100
AcDbLine
 10
113.0373399675036
 20
30.54887264659525
 30
0.0
 11
113.0373399675036
 21
27.54032438977565
 31
0.0
  0
LINE
  5
977
330
869
100
AcDbEntity
  8
Dimension (ANSI)
440
 16777216
100
AcDbLine
 10
113.0373399675036
 20
27.54032438977565
 30
0.0
 11
111.8562376320506
 21
27.54032438977565
 31
0.0
  0
SOLID
  5
978
330
869
100
AcDbEntity
  8
Dimension (ANSI)
440
 16777216
100
AcDbTrace
 10
112.8404895782615
 20
33.78607731750131
 30
0.0
 11
113.2341903567458
 21
33.78607731750131
 31
0.0
 12
113.0373399675036
 22
32.60497498204828
 32
0.0
 13
113.0373399675036
 23
32.60497498204828
 33
0.0
  0
SOLID
  5
979
330
869
100
AcDbEntity
  8
Dimension (ANSI)
440
 16777216
100
AcDbTrace
 10
112.8404895782614
 20
30.54887264659525
 30
0.0
 11
113.2341903567458
 21
30.54887264659525
 31
0.0
 12
113.0373399675036
 22
31.72997498204829
 32
0.0
 13
113.0373399675036
 23
31.72997498204829
 33
0.0
  0
MTEXT
  5
97A
330
869
100
AcDbEntity
  8
Dimension (ANSI)
440
 16777216
100
AcDbMText
 10
107.6737447898431
 20
28.50854470793869
 30
0.0
 40
1.440000057220458
 41
0.0
 46
0.0
 71
     1
 72
     1
  1
\A1;0.88{ \PTYP.}
  7
Note Text (ANSI)
 73
     1
 44
1.0
  0
POINT
  5
97B
330
869
100
AcDbEntity
  8
Defpoints
 62
     0
440
 16777216
100
AcDbPoint
 10
101.6921092693671
 20
31.72997498204829
 30
0.0
  0
POINT
  5
97C
330
869
100
AcDbEntity
  8
Defpoints
 62
     0
440
 16777216
100
AcDbPoint
 10
101.0304976170154
 20
32.60497498204828
 30
0.0
  0
POINT
  5
97D
330
869
100
AcDbEntity
  8
Defpoints
 62
     0
440
 16777216
100
AcDbPoint
 10
113.0373399675036
 20
32.60497498204828
 30
0.0
  0
ENDBLK
  5
86B
330
869
100
AcDbEntity
  8
0
100
AcDbBlockEnd
  0
BLOCK
  5
980
330
97F
100
AcDbEntity
  8
0
100
AcDbBlockBegin
  2
*D11
 70
     1
 10
0.0
 20
0.0
 30
0.0
  3
*D11
  1

  0
LINE
  5
A72
330
97F
100
AcDbEntity
  8
Dimension (ANSI)
440
 16777216
100
AcDbLine
 10
101.9054976170154
 20
31.19336332969663
 30
0.0
 11
101.9054976170154
 21
26.98819151643021
 31
0.0
  0
LINE
  5
A73
330
97F
100
AcDbEntity
  8
Dimension (ANSI)
440
 16777216
100
AcDbLine
 10
101.0304976170154
 20
31.85497498204828
 30
0.0
 11
101.0304976170154
 21
26.98819151643021
 31
0.0
  0
LINE
  5
A74
330
97F
100
AcDbEntity
  8
Dimension (ANSI)
440
 16777216
100
AcDbLine
 10
103.0865999524684
 20
28.48819151643021
 30
0.0
 11
104.2677022879214
 21
28.48819151643021
 31
0.0
  0
LINE
  5
A75
330
97F
100
AcDbEntity
  8
Dimension (ANSI)
440
 16777216
100
AcDbLine
 10
99.84939528156237
 20
28.48819151643021
 30
0.0
 11
98.00344221285861
 21
28.48819151643021
 31
0.0
  0
SOLID
  5
A76
330
97F
100
AcDbEntity
  8
Dimension (ANSI)
440
 16777216
100
AcDbTrace
 10
103.0865999524684
 20
28.68504190567238
 30
0.0
 11
103.0865999524684
 21
28.29134112718804
 31
0.0
 12
101.9054976170154
 22
28.48819151643021
 32
0.0
 13
101.9054976170154
 23
28.48819151643021
 33
0.0
  0
SOLID
  5
A77
330
97F
100
AcDbEntity
  8
Dimension (ANSI)
440
 16777216
100
AcDbTrace
 10
99.84939528156237
 20
28.68504190567238
 30
0.0
 11
99.84939528156237
 21
28.29134112718804
 31
0.0
 12
101.0304976170154
 22
28.48819151643021
 32
0.0
 13
101.0304976170154
 23
28.48819151643021
 33
0.0
  0
MTEXT
  5
A78
330
97F
100
AcDbEntity
  8
Dimension (ANSI)
440
 16777216
100
AcDbMText
 10
93.8209493706511
 20
29.45641183459324
 30
0.0
 40
1.440000057220458
 41
0.0
 46
0.0
 71
     1
 72
     1
  1
\A1;0.88{\PTYP.}
  7
Note Text (ANSI)
 73
     1
 44
1.0
  0
POINT
  5
A79
330
97F
100
AcDbEntity
  8
Defpoints
 62
     0
440
 16777216
100
AcDbPoint
 10
101.9054976170154
 20
31.94336332969662
 30
0.0
  0
POINT
  5
A7A
330
97F
100
AcDbEntity
  8
Defpoints
 62
     0
440
 16777216
100
AcDbPoint
 10
101.0304976170154
 20
32.60497498204828
 30
0.0
  0
POINT
  5
A7B
330
97F
100
AcDbEntity
  8
Defpoints
 62
     0
440
 16777216
100
AcDbPoint
 10
101.0304976170154
 20
28.48819151643021
 30
0.0
  0
ENDBLK
  5
981
330
97F
100
AcDbEntity
  8
0
100
AcDbBlockEnd
  0
BLOCK
  5
A7E
330
A7D
100
AcDbEntity
  8
0
100
AcDbBlockBegin
  2
*D12
 70
     1
 10
0.0
 20
0.0
 30
0.0
  3
*D12
  1

  0
LINE
  5
B5C
330
A7D
100
AcDbEntity
  8
Dimension (ANSI)
440
 16777216
100
AcDbLine
 10
136.7670645614438
 20
100.3237249820482
 30
0.0
 11
136.7670645614438
 21
104.3795812812608
 31
0.0
  0
LINE
  5
B5D
330
A7D
100
AcDbEntity
  8
Dimension (ANSI)
440
 16777216
100
AcDbLine
 10
137.6420645614438
 20
100.4799749820481
 30
0.0
 11
137.6420645614438
 21
104.3795812812608
 31
0.0
  0
LINE
  5
B5E
330
A7D
100
AcDbEntity
  8
Dimension (ANSI)
440
 16777216
100
AcDbLine
 10
138.8231668968968
 20
102.8795812812608
 30
0.0
 11
140.0042692323498
 21
102.8795812812608
 31
0.0
  0
LINE
  5
B5F
330
A7D
100
AcDbEntity
  8
Dimension (ANSI)
440
 16777216
100
AcDbLine
 10
135.5859622259908
 20
102.8795812812608
 30
0.0
 11
133.7945850145101
 21
102.8795812812608
 31
0.0
  0
SOLID
  5
B60
330
A7D
100
AcDbEntity
  8
Dimension (ANSI)
440
 16777216
100
AcDbTrace
 10
138.8231668968968
 20
103.076431670503
 30
0.0
 11
138.8231668968968
 21
102.6827308920186
 31
0.0
 12
137.6420645614438
 22
102.8795812812608
 32
0.0
 13
137.6420645614438
 23
102.8795812812608
 33
0.0
  0
SOLID
  5
B61
330
A7D
100
AcDbEntity
  8
Dimension (ANSI)
440
 16777216
100
AcDbTrace
 10
135.5859622259908
 20
103.076431670503
 30
0.0
 11
135.5859622259908
 21
102.6827308920186
 31
0.0
 12
136.7670645614438
 22
102.8795812812608
 32
0.0
 13
136.7670645614438
 23
102.8795812812608
 33
0.0
  0
MTEXT
  5
B62
330
A7D
100
AcDbEntity
  8
Dimension (ANSI)
440
 16777216
100
AcDbMText
 10
129.7252419410106
 20
103.6324624345872
 30
0.0
 40
1.440000057220458
 41
0.0
 46
0.0
 71
     1
 72
     1
  1
\A1;0.88
  7
Note Text (ANSI)
 73
     1
 44
1.0
  0
POINT
  5
B63
330
A7D
100
AcDbEntity
  8
Defpoints
 62
     0
440
 16777216
100
AcDbPoint
 10
136.7670645614438
 20
99.57372498204826
 30
0.0
  0
POINT
  5
B64
330
A7D
100
AcDbEntity
  8
Defpoints
 62
     0
440
 16777216
100
AcDbPoint
 10
137.6420645614438
 20
99.72997498204819
 30
0.0
  0
POINT
  5
B65
330
A7D
100
AcDbEntity
  8
Defpoints
 62
     0
440
 16777216
100
AcDbPoint
 10
137.6420645614438
 20
102.8795812812608
 30
0.0
  0
ENDBLK
  5
A7F
330
A7D
100
AcDbEntity
  8
0
100
AcDbBlockEnd
  0
BLOCK
  5
CB1
330
CB0
100
AcDbEntity
  8
0
100
AcDbBlockBegin
  2
*D13
 70
     1
 10
0.0
 20
0.0
 30
0.0
  3
*D13
  1

  0
LINE
  5
D62
330
CB0
100
AcDbEntity
  8
Dimension (ANSI)
440
 16777216
100
AcDbLine
 10
106.0000381780809
 20
73.78805448764063
 30
0.0
 11
104.4625079091311
 21
73.78805448764063
 31
0.0
  0
LINE
  5
D63
330
CB0
100
AcDbEntity
  8
Dimension (ANSI)
440
 16777216
100
AcDbLine
 10
104.4625079091311
 20
73.78805448764063
 30
0.0
 11
101.6036169512614
 21
67.07561231074639
 31
0.0
  0
MTEXT
  5
D64
330
CB0
100
AcDbEntity
  8
Dimension (ANSI)
440
 16777216
100
AcDbMText
 10
106.3779909339864
 20
74.8771243709676
 30
0.0
 40
1.440000057220458
 41
0.0
 46
0.0
 71
     1
 72
     1
  1
\A1;∅0.563{\P(10PL.)}
  7
Note Text (ANSI)
 73
     1
 44
1.0
  0
SOLID
  5
D65
330
CB0
100
AcDbEntity
  8
Dimension (ANSI)
440
 16777216
100
AcDbTrace
 10
101.4225087815886
 20
67.15274794857075
 30
0.0
 11
101.7847251209342
 21
66.99847667292203
 31
0.0
 12
101.1408031243153
 22
65.98896329270971
 32
0.0
 13
101.1408031243153
 23
65.98896329270971
 33
0.0
  0
LINE
  5
D66
330
CB0
100
AcDbEntity
  8
Dimension (ANSI)
440
 16777216
100
AcDbLine
 10
99.95049761701531
 20
65.72997498204824
 30
0.0
 11
102.1104976170153
 21
65.72997498204824
 31
0.0
  0
LINE
  5
D67
330
CB0
100
AcDbEntity
  8
Dimension (ANSI)
440
 16777216
100
AcDbLine
 10
101.0304976170153
 20
64.64997498204823
 30
0.0
 11
101.0304976170153
 21
66.80997498204823
 31
0.0
  0
POINT
  5
D68
330
CB0
100
AcDbEntity
  8
Defpoints
 62
     0
440
 16777216
100
AcDbPoint
 10
101.1408031243153
 20
65.98896329270971
 30
0.0
  0
POINT
  5
D69
330
CB0
100
AcDbEntity
  8
Defpoints
 62
     0
440
 16777216
100
AcDbPoint
 10
100.9201921097153
 20
65.47098667138674
 30
0.0
  0
ENDBLK
  5
CB2
330
CB0
100
AcDbEntity
  8
0
100
AcDbBlockEnd
  0
BLOCK
  5
D6C
330
D6B
100
AcDbEntity
  8
0
100
AcDbBlockBegin
  2
*D14
 70
     1
 10
0.0
 20
0.0
 30
0.0
  3
*D14
  1

  0
LINE
  5
E50
330
D6B
100
AcDbEntity
  8
Dimension (ANSI)
440
 16777216
100
AcDbLine
 10
101.7804976170153
 20
55.72997498204827
 30
0.0
 11
107.5698676957555
 21
55.72997498204827
 31
0.0
  0
LINE
  5
E51
330
D6B
100
AcDbEntity
  8
Dimension (ANSI)
440
 16777216
100
AcDbLine
 10
101.7804976170153
 20
65.72997498204827
 30
0.0
 11
107.5698676957555
 21
65.72997498204827
 31
0.0
  0
LINE
  5
E52
330
D6B
100
AcDbEntity
  8
Dimension (ANSI)
440
 16777216
100
AcDbLine
 10
106.0698676957555
 20
56.91107731750131
 30
0.0
 11
106.0698676957555
 21
59.60252589495717
 31
0.0
  0
LINE
  5
E53
330
D6B
100
AcDbEntity
  8
Dimension (ANSI)
440
 16777216
100
AcDbLine
 10
106.0698676957555
 20
64.54887264659524
 30
0.0
 11
106.0698676957555
 21
61.85742406913934
 31
0.0
  0
SOLID
  5
E54
330
D6B
100
AcDbEntity
  8
Dimension (ANSI)
440
 16777216
100
AcDbTrace
 10
105.8730173065133
 20
56.91107731750131
 30
0.0
 11
106.2667180849977
 21
56.91107731750131
 31
0.0
 12
106.0698676957555
 22
55.72997498204827
 32
0.0
 13
106.0698676957555
 23
55.72997498204827
 33
0.0
  0
SOLID
  5
E55
330
D6B
100
AcDbEntity
  8
Dimension (ANSI)
440
 16777216
100
AcDbTrace
 10
105.8730173065133
 20
64.54887264659524
 30
0.0
 11
106.2667180849977
 21
64.54887264659524
 31
0.0
 12
106.0698676957555
 22
65.72997498204827
 32
0.0
 13
106.0698676957555
 23
65.72997498204827
 33
0.0
  0
MTEXT
  5
E56
330
D6B
100
AcDbEntity
  8
Dimension (ANSI)
440
 16777216
100
AcDbMText
 10
103.7570670815229
 20
61.47947131323385
 30
0.0
 40
1.440000057220458
 41
0.0
 46
0.0
 71
     1
 72
     1
  1
\A1;10.00
  7
Note Text (ANSI)
 73
     1
 44
1.0
  0
POINT
  5
E57
330
D6B
100
AcDbEntity
  8
Defpoints
 62
     0
440
 16777216
100
AcDbPoint
 10
101.0304976170153
 20
55.72997498204827
 30
0.0
  0
POINT
  5
E58
330
D6B
100
AcDbEntity
  8
Defpoints
 62
     0
440
 16777216
100
AcDbPoint
 10
101.0304976170153
 20
65.72997498204827
 30
0.0
  0
POINT
  5
E59
330
D6B
100
AcDbEntity
  8
Defpoints
 62
     0
440
 16777216
100
AcDbPoint
 10
106.0698676957555
 20
65.72997498204827
 30
0.0
  0
ENDBLK
  5
D6D
330
D6B
100
AcDbEntity
  8
0
100
AcDbBlockEnd
  0
ENDSEC
  0
SECTION
  2
ENTITIES
  0
CIRCLE
  5
11B
330
6C
100
AcDbEntity
  8
Visible (ANSI)
100
AcDbCircle
 10
101.0304976170153
 20
55.72997498204827
 30
0.0
 40
0.2814999999999999
  0
CIRCLE
  5
11C
330
6C
100
AcDbEntity
  8
Visible (ANSI)
100
AcDbCircle
 10
34.78049761701541
 20
55.72997498204826
 30
0.0
 40
0.2814999999999999
  0
CIRCLE
  5
11D
330
6C
100
AcDbEntity
  8
Visible (ANSI)
100
AcDbCircle
 10
67.9054976170154
 20
32.60497498204828
 30
0.0
 40
0.2814999999999999
  0
CIRCLE
  5
11E
330
6C
100
AcDbEntity
  8
Visible (ANSI)
100
AcDbCircle
 10
101.0304976170153
 20
65.72997498204826
 30
0.0
 40
0.2814999999999999
  0
CIRCLE
  5
11F
330
6C
100
AcDbEntity
  8
Visible (ANSI)
100
AcDbCircle
 10
101.0304976170154
 20
32.60497498204828
 30
0.0
 40
0.2814999999999999
  0
CIRCLE
  5
120
330
6C
100
AcDbEntity
  8
Visible (ANSI)
100
AcDbCircle
 10
34.78049761701541
 20
32.60497498204826
 30
0.0
 40
0.2814999999999999
  0
CIRCLE
  5
121
330
6C
100
AcDbEntity
  8
Visible (ANSI)
100
AcDbCircle
 10
34.78049761701541
 20
65.72997498204824
 30
0.0
 40
0.2814999999999999
  0
CIRCLE
  5
122
330
6C
100
AcDbEntity
  8
Visible (ANSI)
100
AcDbCircle
 10
101.0304976170154
 20
98.85497498204825
 30
0.0
 40
0.2814999999999999
  0
CIRCLE
  5
123
330
6C
100
AcDbEntity
  8
Visible (ANSI)
100
AcDbCircle
 10
67.9054976170154
 20
98.85497498204825
 30
0.0
 40
0.2814999999999999
  0
CIRCLE
  5
124
330
6C
100
AcDbEntity
  8
Visible (ANSI)
100
AcDbCircle
 10
34.78049761701541
 20
98.85497498204825
 30
0.0
 40
0.2814999999999999
  0
LINE
  5
125
330
6C
100
AcDbEntity
  8
Visible (ANSI)
100
AcDbLine
 10
101.692109269367
 20
31.72997498204829
 30
0.0
 11
34.11888596466372
 21
31.72997498204827
 31
0.0
  0
LINE
  5
126
330
6C
100
AcDbEntity
  8
Visible (ANSI)
100
AcDbLine
 10
101.9054976170153
 20
99.51658663439992
 30
0.0
 11
101.9054976170154
 21
31.94336332969662
 31
0.0
  0
LINE
  5
127
330
6C
100
AcDbEntity
  8
Visible (ANSI)
100
AcDbLine
 10
34.11888596466373
 20
99.72997498204826
 30
0.0
 11
101.692109269367
 21
99.7299749820482
 31
0.0
  0
LINE
  5
128
330
6C
100
AcDbEntity
  8
Visible (ANSI)
100
AcDbLine
 10
33.90549761701541
 20
31.94336332969659
 30
0.0
 11
33.90549761701541
 21
99.51658663439994
 31
0.0
  0
POLYLINE
  5
129
330
6C
100
AcDbEntity
  8
Visible (ANSI)
100
AcDb2dPolyline
 66
     1
 10
0.0
 20
0.0
 30
0.0
 70
   128
  0
VERTEX
  5
12A
330
129
100
AcDbEntity
  8
Visible (ANSI)
100
AcDbVertex
100
AcDb2dVertex
 10
101.7492456946482
 20
31.88622497970163
 30
0.0
  0
VERTEX
  5
12B
330
129
100
AcDbEntity
  8
Visible (ANSI)
100
AcDbVertex
100
AcDb2dVertex
 10
101.7468667653298
 20
31.8760057398885
 30
0.0
  0
VERTEX
  5
12D
330
129
100
AcDbEntity
  8
Visible (ANSI)
100
AcDbVertex
100
AcDb2dVertex
 10
101.7444878360114
 20
31.86583026490312
 30
0.0
  0
VERTEX
  5
12E
330
129
100
AcDbEntity
  8
Visible (ANSI)
100
AcDbVertex
100
AcDb2dVertex
 10
101.7421028992958
 20
31.8557421201089
 30
0.0
  0
VERTEX
  5
12F
330
129
100
AcDbEntity
  8
Visible (ANSI)
100
AcDbVertex
100
AcDb2dVertex
 10
101.7397239699774
 20
31.84578450714009
 30
0.0
  0
VERTEX
  5
130
330
129
100
AcDbEntity
  8
Visible (ANSI)
100
AcDbVertex
100
AcDb2dVertex
 10
101.737345040659
 20
31.83600006443747
 30
0.0
  0
VERTEX
  5
131
330
129
100
AcDbEntity
  8
Visible (ANSI)
100
AcDbVertex
100
AcDb2dVertex
 10
101.7349601039433
 20
31.82643069711696
 30
0.0
  0
VERTEX
  5
132
330
129
100
AcDbEntity
  8
Visible (ANSI)
100
AcDbVertex
100
AcDb2dVertex
 10
101.7325811746249
 20
31.81711737163862
 30
0.0
  0
VERTEX
  5
133
330
129
100
AcDbEntity
  8
Visible (ANSI)
100
AcDbVertex
100
AcDb2dVertex
 10
101.7302022453065
 20
31.80809998087495
 30
0.0
  0
VERTEX
  5
134
330
129
100
AcDbEntity
  8
Visible (ANSI)
100
AcDbVertex
100
AcDb2dVertex
 10
101.7278233159881
 20
31.79941713291329
 30
0.0
  0
VERTEX
  5
135
330
129
100
AcDbEntity
  8
Visible (ANSI)
100
AcDbVertex
100
AcDb2dVertex
 10
101.7254383792724
 20
31.79110601025742
 30
0.0
  0
VERTEX
  5
136
330
129
100
AcDbEntity
  8
Visible (ANSI)
100
AcDbVertex
100
AcDb2dVertex
 10
101.723059449954
 20
31.78320219969625
 30
0.0
  0
VERTEX
  5
137
330
129
100
AcDbEntity
  8
Visible (ANSI)
100
AcDbVertex
100
AcDb2dVertex
 10
101.7206805206356
 20
31.77573954857209
 30
0.0
  0
VERTEX
  5
138
330
129
100
AcDbEntity
  8
Visible (ANSI)
100
AcDbVertex
100
AcDb2dVertex
 10
101.7182955839199
 20
31.76875001224915
 30
0.0
  0
VERTEX
  5
139
330
129
100
AcDbEntity
  8
Visible (ANSI)
100
AcDbVertex
100
AcDb2dVertex
 10
101.7159166546015
 20
31.76226352211497
 30
0.0
  0
VERTEX
  5
13A
330
129
100
AcDbEntity
  8
Visible (ANSI)
100
AcDbVertex
100
AcDb2dVertex
 10
101.7135377252831
 20
31.75630785651533
 30
0.0
  0
VERTEX
  5
13B
330
129
100
AcDbEntity
  8
Visible (ANSI)
100
AcDbVertex
100
AcDb2dVertex
 10
101.7111527885674
 20
31.75090851315567
 30
0.0
  0
VERTEX
  5
13C
330
129
100
AcDbEntity
  8
Visible (ANSI)
100
AcDbVertex
100
AcDb2dVertex
 10
101.708773859249
 20
31.74608861670219
 30
0.0
  0
VERTEX
  5
13D
330
129
100
AcDbEntity
  8
Visible (ANSI)
100
AcDbVertex
100
AcDb2dVertex
 10
101.7063949299306
 20
31.74186880511648
 30
0.0
  0
VERTEX
  5
13E
330
129
100
AcDbEntity
  8
Visible (ANSI)
100
AcDbVertex
100
AcDb2dVertex
 10
101.7040160006122
 20
31.73826714898979
 30
0.0
  0
VERTEX
  5
13F
330
129
100
AcDbEntity
  8
Visible (ANSI)
100
AcDbVertex
100
AcDb2dVertex
 10
101.7016310638965
 20
31.7352990716106
 30
0.0
  0
VERTEX
  5
140
330
129
100
AcDbEntity
  8
Visible (ANSI)
100
AcDbVertex
100
AcDb2dVertex
 10
101.6992521345781
 20
31.73297728204878
 30
0.0
  0
VERTEX
  5
141
330
129
100
AcDbEntity
  8
Visible (ANSI)
100
AcDbVertex
100
AcDb2dVertex
 10
101.6968732052597
 20
31.7313117224478
 30
0.0
  0
VERTEX
  5
142
330
129
100
AcDbEntity
  8
Visible (ANSI)
100
AcDbVertex
100
AcDb2dVertex
 10
101.694488268544
 20
31.73030952528569
 30
0.0
  0
VERTEX
  5
143
330
129
100
AcDbEntity
  8
Visible (ANSI)
100
AcDbVertex
100
AcDb2dVertex
 10
101.6921093392257
 20
31.72997498204829
 30
0.0
  0
SEQEND
  5
12C
330
129
100
AcDbEntity
  8
Visible (ANSI)
  0
POLYLINE
  5
144
330
6C
100
AcDbEntity
  8
Visible (ANSI)
100
AcDb2dPolyline
 66
     1
 10
0.0
 20
0.0
 30
0.0
 70
   128
  0
VERTEX
  5
145
330
144
100
AcDbEntity
  8
Visible (ANSI)
100
AcDbVertex
100
AcDb2dVertex
 10
34.11888595300181
 20
31.72997498204827
 30
0.0
  0
VERTEX
  5
146
330
144
100
AcDbEntity
  8
Visible (ANSI)
100
AcDbVertex
100
AcDb2dVertex
 10
34.11650519330455
 20
31.73030952528569
 30
0.0
  0
VERTEX
  5
148
330
144
100
AcDbEntity
  8
Visible (ANSI)
100
AcDbVertex
100
AcDb2dVertex
 10
34.11412443360729
 20
31.7313117224478
 30
0.0
  0
VERTEX
  5
149
330
144
100
AcDbEntity
  8
Visible (ANSI)
100
AcDbVertex
100
AcDb2dVertex
 10
34.11174367391003
 20
31.73297728204878
 30
0.0
  0
VERTEX
  5
14A
330
144
100
AcDbEntity
  8
Visible (ANSI)
100
AcDbVertex
100
AcDb2dVertex
 10
34.10936291421277
 20
31.7352990716106
 30
0.0
  0
VERTEX
  5
14B
330
144
100
AcDbEntity
  8
Visible (ANSI)
100
AcDbVertex
100
AcDb2dVertex
 10
34.10698213104911
 20
31.73826714898979
 30
0.0
  0
VERTEX
  5
14C
330
144
100
AcDbEntity
  8
Visible (ANSI)
100
AcDbVertex
100
AcDb2dVertex
 10
34.10460137135185
 20
31.74186880511648
 30
0.0
  0
VERTEX
  5
14D
330
144
100
AcDbEntity
  8
Visible (ANSI)
100
AcDbVertex
100
AcDb2dVertex
 10
34.10222061165459
 20
31.74608861670219
 30
0.0
  0
VERTEX
  5
14E
330
144
100
AcDbEntity
  8
Visible (ANSI)
100
AcDbVertex
100
AcDb2dVertex
 10
34.09983985195733
 20
31.75090851315567
 30
0.0
  0
VERTEX
  5
14F
330
144
100
AcDbEntity
  8
Visible (ANSI)
100
AcDbVertex
100
AcDb2dVertex
 10
34.09745908052687
 20
31.75630785651533
 30
0.0
  0
VERTEX
  5
150
330
144
100
AcDbEntity
  8
Visible (ANSI)
100
AcDbVertex
100
AcDb2dVertex
 10
34.09507832082961
 20
31.76226352211497
 30
0.0
  0
VERTEX
  5
151
330
144
100
AcDbEntity
  8
Visible (ANSI)
100
AcDbVertex
100
AcDb2dVertex
 10
34.09269756113235
 20
31.76875001224915
 30
0.0
  0
VERTEX
  5
152
330
144
100
AcDbEntity
  8
Visible (ANSI)
100
AcDbVertex
100
AcDb2dVertex
 10
34.09031678970189
 20
31.77573954857209
 30
0.0
  0
VERTEX
  5
153
330
144
100
AcDbEntity
  8
Visible (ANSI)
100
AcDbVertex
100
AcDb2dVertex
 10
34.08793603000463
 20
31.78320219969625
 30
0.0
  0
VERTEX
  5
154
330
144
100
AcDbEntity
  8
Visible (ANSI)
100
AcDbVertex
100
AcDb2dVertex
 10
34.08555525857417
 20
31.79110601025742
 30
0.0
  0
VERTEX
  5
155
330
144
100
AcDbEntity
  8
Visible (ANSI)
100
AcDbVertex
100
AcDb2dVertex
 10
34.08317449887691
 20
31.79941713291329
 30
0.0
  0
VERTEX
  5
156
330
144
100
AcDbEntity
  8
Visible (ANSI)
100
AcDbVertex
100
AcDb2dVertex
 10
34.08079372744645
 20
31.80809998087495
 30
0.0
  0
VERTEX
  5
157
330
144
100
AcDbEntity
  8
Visible (ANSI)
100
AcDbVertex
100
AcDb2dVertex
 10
34.07841296774919
 20
31.81711737163862
 30
0.0
  0
VERTEX
  5
158
330
144
100
AcDbEntity
  8
Visible (ANSI)
100
AcDbVertex
100
AcDb2dVertex
 10
34.07603220805193
 20
31.82643069711696
 30
0.0
  0
VERTEX
  5
159
330
144
100
AcDbEntity
  8
Visible (ANSI)
100
AcDbVertex
100
AcDb2dVertex
 10
34.07365143662147
 20
31.83600006443747
 30
0.0
  0
VERTEX
  5
15A
330
144
100
AcDbEntity
  8
Visible (ANSI)
100
AcDbVertex
100
AcDb2dVertex
 10
34.07127067692421
 20
31.84578450714009
 30
0.0
  0
VERTEX
  5
15B
330
144
100
AcDbEntity
  8
Visible (ANSI)
100
AcDbVertex
100
AcDb2dVertex
 10
34.06888990549375
 20
31.8557421201089
 30
0.0
  0
VERTEX
  5
15C
330
144
100
AcDbEntity
  8
Visible (ANSI)
100
AcDbVertex
100
AcDb2dVertex
 10
34.06650914579649
 20
31.86583026490312
 30
0.0
  0
VERTEX
  5
15D
330
144
100
AcDbEntity
  8
Visible (ANSI)
100
AcDbVertex
100
AcDb2dVertex
 10
34.06412838609923
 20
31.8760057398885
 30
0.0
  0
VERTEX
  5
15E
330
144
100
AcDbEntity
  8
Visible (ANSI)
100
AcDbVertex
100
AcDb2dVertex
 10
34.06174761466877
 20
31.88622497970163
 30
0.0
  0
SEQEND
  5
147
330
144
100
AcDbEntity
  8
Visible (ANSI)
  0
POLYLINE
  5
15F
330
6C
100
AcDbEntity
  8
Visible (ANSI)
100
AcDb2dPolyline
 66
     1
 10
0.0
 20
0.0
 30
0.0
 70
   128
  0
VERTEX
  5
160
330
15F
100
AcDbEntity
  8
Visible (ANSI)
100
AcDbVertex
100
AcDb2dVertex
 10
101.7492456946482
 20
99.57372305968114
 30
0.0
  0
VERTEX
  5
161
330
15F
100
AcDbEntity
  8
Visible (ANSI)
100
AcDbVertex
100
AcDb2dVertex
 10
101.7594642774023
 20
99.57134413036275
 30
0.0
  0
VERTEX
  5
163
330
15F
100
AcDbEntity
  8
Visible (ANSI)
100
AcDbVertex
100
AcDb2dVertex
 10
101.7696408083755
 20
99.56896520104434
 30
0.0
  0
VERTEX
  5
164
330
15F
100
AcDbEntity
  8
Visible (ANSI)
100
AcDbVertex
100
AcDb2dVertex
 10
101.7797332357869
 20
99.56658026432865
 30
0.0
  0
VERTEX
  5
165
330
15F
100
AcDbEntity
  8
Visible (ANSI)
100
AcDbVertex
100
AcDb2dVertex
 10
101.7896874930611
 20
99.56420133501024
 30
0.0
  0
VERTEX
  5
166
330
15F
100
AcDbEntity
  8
Visible (ANSI)
100
AcDbVertex
100
AcDb2dVertex
 10
101.7994735432119
 20
99.56182240569184
 30
0.0
  0
VERTEX
  5
167
330
15F
100
AcDbEntity
  8
Visible (ANSI)
100
AcDbVertex
100
AcDb2dVertex
 10
101.8090433270609
 20
99.55943746897617
 30
0.0
  0
VERTEX
  5
168
330
15F
100
AcDbEntity
  8
Visible (ANSI)
100
AcDbVertex
100
AcDb2dVertex
 10
101.8183547928274
 20
99.55705853965776
 30
0.0
  0
VERTEX
  5
169
330
15F
100
AcDbEntity
  8
Visible (ANSI)
100
AcDbVertex
100
AcDb2dVertex
 10
101.8273718961277
 20
99.55467961033937
 30
0.0
  0
VERTEX
  5
16A
330
15F
100
AcDbEntity
  8
Visible (ANSI)
100
AcDbVertex
100
AcDb2dVertex
 10
101.836052585181
 20
99.55230068102096
 30
0.0
  0
VERTEX
  5
16B
330
15F
100
AcDbEntity
  8
Visible (ANSI)
100
AcDbVertex
100
AcDb2dVertex
 10
101.8443668230009
 20
99.54991574430529
 30
0.0
  0
VERTEX
  5
16C
330
15F
100
AcDbEntity
  8
Visible (ANSI)
100
AcDbVertex
100
AcDb2dVertex
 10
101.8522725578065
 20
99.54753681498688
 30
0.0
  0
VERTEX
  5
16D
330
15F
100
AcDbEntity
  8
Visible (ANSI)
100
AcDbVertex
100
AcDb2dVertex
 10
101.8597337452142
 20
99.54515788566848
 30
0.0
  0
VERTEX
  5
16E
330
15F
100
AcDbEntity
  8
Visible (ANSI)
100
AcDbVertex
100
AcDb2dVertex
 10
101.8667203482377
 20
99.54277294895279
 30
0.0
  0
VERTEX
  5
16F
330
15F
100
AcDbEntity
  8
Visible (ANSI)
100
AcDbVertex
100
AcDb2dVertex
 10
101.8732083372879
 20
99.54039401963438
 30
0.0
  0
VERTEX
  5
170
330
15F
100
AcDbEntity
  8
Visible (ANSI)
100
AcDbVertex
100
AcDb2dVertex
 10
101.8791676753785
 20
99.53801509031599
 30
0.0
  0
VERTEX
  5
171
330
15F
100
AcDbEntity
  8
Visible (ANSI)
100
AcDbVertex
100
AcDb2dVertex
 10
101.8845623181257
 20
99.53563015360032
 30
0.0
  0
VERTEX
  5
172
330
15F
100
AcDbEntity
  8
Visible (ANSI)
100
AcDbVertex
100
AcDb2dVertex
 10
101.8893862581325
 20
99.53325122428189
 30
0.0
  0
VERTEX
  5
173
330
15F
100
AcDbEntity
  8
Visible (ANSI)
100
AcDbVertex
100
AcDb2dVertex
 10
101.8936034510151
 20
99.5308722949635
 30
0.0
  0
VERTEX
  5
174
330
15F
100
AcDbEntity
  8
Visible (ANSI)
100
AcDbVertex
100
AcDb2dVertex
 10
101.8972078893763
 20
99.5284933656451
 30
0.0
  0
VERTEX
  5
175
330
15F
100
AcDbEntity
  8
Visible (ANSI)
100
AcDbVertex
100
AcDb2dVertex
 10
101.9001755436271
 20
99.52610842892942
 30
0.0
  0
VERTEX
  5
176
330
15F
100
AcDbEntity
  8
Visible (ANSI)
100
AcDbVertex
100
AcDb2dVertex
 10
101.9024943989728
 20
99.52372949961102
 30
0.0
  0
VERTEX
  5
177
330
15F
100
AcDbEntity
  8
Visible (ANSI)
100
AcDbVertex
100
AcDb2dVertex
 10
101.9041584480162
 20
99.52135057029261
 30
0.0
  0
VERTEX
  5
178
330
15F
100
AcDbEntity
  8
Visible (ANSI)
100
AcDbVertex
100
AcDb2dVertex
 10
101.9051616833601
 20
99.51896563357692
 30
0.0
  0
VERTEX
  5
179
330
15F
100
AcDbEntity
  8
Visible (ANSI)
100
AcDbVertex
100
AcDb2dVertex
 10
101.9054980976072
 20
99.51658670425851
 30
0.0
  0
SEQEND
  5
162
330
15F
100
AcDbEntity
  8
Visible (ANSI)
  0
POLYLINE
  5
17A
330
6C
100
AcDbEntity
  8
Visible (ANSI)
100
AcDb2dPolyline
 66
     1
 10
0.0
 20
0.0
 30
0.0
 70
   128
  0
VERTEX
  5
17B
330
17A
100
AcDbEntity
  8
Visible (ANSI)
100
AcDbVertex
100
AcDb2dVertex
 10
101.9054980976072
 20
31.94336331803467
 30
0.0
  0
VERTEX
  5
17C
330
17A
100
AcDbEntity
  8
Visible (ANSI)
100
AcDbVertex
100
AcDb2dVertex
 10
101.9051616833601
 20
31.94098255833741
 30
0.0
  0
VERTEX
  5
17E
330
17A
100
AcDbEntity
  8
Visible (ANSI)
100
AcDbVertex
100
AcDb2dVertex
 10
101.9041584480162
 20
31.93860179864015
 30
0.0
  0
VERTEX
  5
17F
330
17A
100
AcDbEntity
  8
Visible (ANSI)
100
AcDbVertex
100
AcDb2dVertex
 10
101.9024943989728
 20
31.93622103894289
 30
0.0
  0
VERTEX
  5
180
330
17A
100
AcDbEntity
  8
Visible (ANSI)
100
AcDbVertex
100
AcDb2dVertex
 10
101.9001755436271
 20
31.93384027924563
 30
0.0
  0
VERTEX
  5
181
330
17A
100
AcDbEntity
  8
Visible (ANSI)
100
AcDbVertex
100
AcDb2dVertex
 10
101.8972078893763
 20
31.93145949608198
 30
0.0
  0
VERTEX
  5
182
330
17A
100
AcDbEntity
  8
Visible (ANSI)
100
AcDbVertex
100
AcDb2dVertex
 10
101.8936034510151
 20
31.92907873638472
 30
0.0
  0
VERTEX
  5
183
330
17A
100
AcDbEntity
  8
Visible (ANSI)
100
AcDbVertex
100
AcDb2dVertex
 10
101.8893862581325
 20
31.92669797668745
 30
0.0
  0
VERTEX
  5
184
330
17A
100
AcDbEntity
  8
Visible (ANSI)
100
AcDbVertex
100
AcDb2dVertex
 10
101.8845623181257
 20
31.92431721699019
 30
0.0
  0
VERTEX
  5
185
330
17A
100
AcDbEntity
  8
Visible (ANSI)
100
AcDbVertex
100
AcDb2dVertex
 10
101.8791676753785
 20
31.92193644555973
 30
0.0
  0
VERTEX
  5
186
330
17A
100
AcDbEntity
  8
Visible (ANSI)
100
AcDbVertex
100
AcDb2dVertex
 10
101.8732083372879
 20
31.91955568586247
 30
0.0
  0
VERTEX
  5
187
330
17A
100
AcDbEntity
  8
Visible (ANSI)
100
AcDbVertex
100
AcDb2dVertex
 10
101.8667203482377
 20
31.91717492616521
 30
0.0
  0
VERTEX
  5
188
330
17A
100
AcDbEntity
  8
Visible (ANSI)
100
AcDbVertex
100
AcDb2dVertex
 10
101.8597337452142
 20
31.91479415473475
 30
0.0
  0
VERTEX
  5
189
330
17A
100
AcDbEntity
  8
Visible (ANSI)
100
AcDbVertex
100
AcDb2dVertex
 10
101.8522725578065
 20
31.91241339503749
 30
0.0
  0
VERTEX
  5
18A
330
17A
100
AcDbEntity
  8
Visible (ANSI)
100
AcDbVertex
100
AcDb2dVertex
 10
101.8443668230009
 20
31.91003262360704
 30
0.0
  0
VERTEX
  5
18B
330
17A
100
AcDbEntity
  8
Visible (ANSI)
100
AcDbVertex
100
AcDb2dVertex
 10
101.836052585181
 20
31.90765186390977
 30
0.0
  0
VERTEX
  5
18C
330
17A
100
AcDbEntity
  8
Visible (ANSI)
100
AcDbVertex
100
AcDb2dVertex
 10
101.8273718961277
 20
31.90527109247931
 30
0.0
  0
VERTEX
  5
18D
330
17A
100
AcDbEntity
  8
Visible (ANSI)
100
AcDbVertex
100
AcDb2dVertex
 10
101.8183547928274
 20
31.90289033278205
 30
0.0
  0
VERTEX
  5
18E
330
17A
100
AcDbEntity
  8
Visible (ANSI)
100
AcDbVertex
100
AcDb2dVertex
 10
101.8090433270609
 20
31.90050957308479
 30
0.0
  0
VERTEX
  5
18F
330
17A
100
AcDbEntity
  8
Visible (ANSI)
100
AcDbVertex
100
AcDb2dVertex
 10
101.7994735432119
 20
31.89812880165434
 30
0.0
  0
VERTEX
  5
190
330
17A
100
AcDbEntity
  8
Visible (ANSI)
100
AcDbVertex
100
AcDb2dVertex
 10
101.7896874930611
 20
31.89574804195708
 30
0.0
  0
VERTEX
  5
191
330
17A
100
AcDbEntity
  8
Visible (ANSI)
100
AcDbVertex
100
AcDb2dVertex
 10
101.7797332357869
 20
31.89336727052662
 30
0.0
  0
VERTEX
  5
192
330
17A
100
AcDbEntity
  8
Visible (ANSI)
100
AcDbVertex
100
AcDb2dVertex
 10
101.7696408083755
 20
31.89098651082935
 30
0.0
  0
VERTEX
  5
193
330
17A
100
AcDbEntity
  8
Visible (ANSI)
100
AcDbVertex
100
AcDb2dVertex
 10
101.7594642774023
 20
31.88860575113209
 30
0.0
  0
VERTEX
  5
194
330
17A
100
AcDbEntity
  8
Visible (ANSI)
100
AcDbVertex
100
AcDb2dVertex
 10
101.7492456946482
 20
31.88622497970163
 30
0.0
  0
SEQEND
  5
17D
330
17A
100
AcDbEntity
  8
Visible (ANSI)
  0
POLYLINE
  5
195
330
6C
100
AcDbEntity
  8
Visible (ANSI)
100
AcDb2dPolyline
 66
     1
 10
0.0
 20
0.0
 30
0.0
 70
   128
  0
VERTEX
  5
196
330
195
100
AcDbEntity
  8
Visible (ANSI)
100
AcDbVertex
100
AcDb2dVertex
 10
34.06174761466877
 20
99.57372305968114
 30
0.0
  0
VERTEX
  5
197
330
195
100
AcDbEntity
  8
Visible (ANSI)
100
AcDbVertex
100
AcDb2dVertex
 10
34.06412838609923
 20
99.58394164243522
 30
0.0
  0
VERTEX
  5
199
330
195
100
AcDbEntity
  8
Visible (ANSI)
100
AcDbVertex
100
AcDb2dVertex
 10
34.06650914579649
 20
99.59411817340837
 30
0.0
  0
VERTEX
  5
19A
330
195
100
AcDbEntity
  8
Visible (ANSI)
100
AcDbVertex
100
AcDb2dVertex
 10
34.06888990549375
 20
99.60421060081978
 30
0.0
  0
VERTEX
  5
19B
330
195
100
AcDbEntity
  8
Visible (ANSI)
100
AcDbVertex
100
AcDb2dVertex
 10
34.07127067692421
 20
99.61416485809404
 30
0.0
  0
VERTEX
  5
19C
330
195
100
AcDbEntity
  8
Visible (ANSI)
100
AcDbVertex
100
AcDb2dVertex
 10
34.07365143662147
 20
99.62395090824475
 30
0.0
  0
VERTEX
  5
19D
330
195
100
AcDbEntity
  8
Visible (ANSI)
100
AcDbVertex
100
AcDb2dVertex
 10
34.07603220805193
 20
99.63352069209379
 30
0.0
  0
VERTEX
  5
19E
330
195
100
AcDbEntity
  8
Visible (ANSI)
100
AcDbVertex
100
AcDb2dVertex
 10
34.07841296774919
 20
99.64283215786027
 30
0.0
  0
VERTEX
  5
19F
330
195
100
AcDbEntity
  8
Visible (ANSI)
100
AcDbVertex
100
AcDb2dVertex
 10
34.08079372744645
 20
99.65184926116059
 30
0.0
  0
VERTEX
  5
1A0
330
195
100
AcDbEntity
  8
Visible (ANSI)
100
AcDbVertex
100
AcDb2dVertex
 10
34.08317449887691
 20
99.66052995021385
 30
0.0
  0
VERTEX
  5
1A1
330
195
100
AcDbEntity
  8
Visible (ANSI)
100
AcDbVertex
100
AcDb2dVertex
 10
34.08555525857417
 20
99.66884418803376
 30
0.0
  0
VERTEX
  5
1A2
330
195
100
AcDbEntity
  8
Visible (ANSI)
100
AcDbVertex
100
AcDb2dVertex
 10
34.08793603000463
 20
99.67674992283935
 30
0.0
  0
VERTEX
  5
1A3
330
195
100
AcDbEntity
  8
Visible (ANSI)
100
AcDbVertex
100
AcDb2dVertex
 10
34.09031678970189
 20
99.68421111024708
 30
0.0
  0
VERTEX
  5
1A4
330
195
100
AcDbEntity
  8
Visible (ANSI)
100
AcDbVertex
100
AcDb2dVertex
 10
34.09269756113235
 20
99.69119771327058
 30
0.0
  0
VERTEX
  5
1A5
330
195
100
AcDbEntity
  8
Visible (ANSI)
100
AcDbVertex
100
AcDb2dVertex
 10
34.09507832082961
 20
99.69768570232078
 30
0.0
  0
VERTEX
  5
1A6
330
195
100
AcDbEntity
  8
Visible (ANSI)
100
AcDbVertex
100
AcDb2dVertex
 10
34.09745908052687
 20
99.70364504041134
 30
0.0
  0
VERTEX
  5
1A7
330
195
100
AcDbEntity
  8
Visible (ANSI)
100
AcDbVertex
100
AcDb2dVertex
 10
34.09983985195733
 20
99.70903968315862
 30
0.0
  0
VERTEX
  5
1A8
330
195
100
AcDbEntity
  8
Visible (ANSI)
100
AcDbVertex
100
AcDb2dVertex
 10
34.10222061165459
 20
99.7138636231654
 30
0.0
  0
VERTEX
  5
1A9
330
195
100
AcDbEntity
  8
Visible (ANSI)
100
AcDbVertex
100
AcDb2dVertex
 10
34.10460137135185
 20
99.71808081604804
 30
0.0
  0
VERTEX
  5
1AA
330
195
100
AcDbEntity
  8
Visible (ANSI)
100
AcDbVertex
100
AcDb2dVertex
 10
34.10698213104911
 20
99.72168525440926
 30
0.0
  0
VERTEX
  5
1AB
330
195
100
AcDbEntity
  8
Visible (ANSI)
100
AcDbVertex
100
AcDb2dVertex
 10
34.10936291421277
 20
99.72465290865997
 30
0.0
  0
VERTEX
  5
1AC
330
195
100
AcDbEntity
  8
Visible (ANSI)
100
AcDbVertex
100
AcDb2dVertex
 10
34.11174367391003
 20
99.7269717640057
 30
0.0
  0
VERTEX
  5
1AD
330
195
100
AcDbEntity
  8
Visible (ANSI)
100
AcDbVertex
100
AcDb2dVertex
 10
34.11412443360729
 20
99.72863581304913
 30
0.0
  0
VERTEX
  5
1AE
330
195
100
AcDbEntity
  8
Visible (ANSI)
100
AcDbVertex
100
AcDb2dVertex
 10
34.11650519330455
 20
99.729639048393
 30
0.0
  0
VERTEX
  5
1AF
330
195
100
AcDbEntity
  8
Visible (ANSI)
100
AcDbVertex
100
AcDb2dVertex
 10
34.11888595300181
 20
99.72997546264005
 30
0.0
  0
SEQEND
  5
198
330
195
100
AcDbEntity
  8
Visible (ANSI)
  0
POLYLINE
  5
1B0
330
6C
100
AcDbEntity
  8
Visible (ANSI)
100
AcDb2dPolyline
 66
     1
 10
0.0
 20
0.0
 30
0.0
 70
   128
  0
VERTEX
  5
1B1
330
1B0
100
AcDbEntity
  8
Visible (ANSI)
100
AcDbVertex
100
AcDb2dVertex
 10
101.6921093392257
 20
99.72997546264005
 30
0.0
  0
VERTEX
  5
1B2
330
1B0
100
AcDbEntity
  8
Visible (ANSI)
100
AcDbVertex
100
AcDb2dVertex
 10
101.694488268544
 20
99.729639048393
 30
0.0
  0
VERTEX
  5
1B4
330
1B0
100
AcDbEntity
  8
Visible (ANSI)
100
AcDbVertex
100
AcDb2dVertex
 10
101.6968732052597
 20
99.72863581304913
 30
0.0
  0
VERTEX
  5
1B5
330
1B0
100
AcDbEntity
  8
Visible (ANSI)
100
AcDbVertex
100
AcDb2dVertex
 10
101.6992521345781
 20
99.7269717640057
 30
0.0
  0
VERTEX
  5
1B6
330
1B0
100
AcDbEntity
  8
Visible (ANSI)
100
AcDbVertex
100
AcDb2dVertex
 10
101.7016310638965
 20
99.72465290865997
 30
0.0
  0
VERTEX
  5
1B7
330
1B0
100
AcDbEntity
  8
Visible (ANSI)
100
AcDbVertex
100
AcDb2dVertex
 10
101.7040160006122
 20
99.72168525440926
 30
0.0
  0
VERTEX
  5
1B8
330
1B0
100
AcDbEntity
  8
Visible (ANSI)
100
AcDbVertex
100
AcDb2dVertex
 10
101.7063949299306
 20
99.71808081604804
 30
0.0
  0
VERTEX
  5
1B9
330
1B0
100
AcDbEntity
  8
Visible (ANSI)
100
AcDbVertex
100
AcDb2dVertex
 10
101.708773859249
 20
99.7138636231654
 30
0.0
  0
VERTEX
  5
1BA
330
1B0
100
AcDbEntity
  8
Visible (ANSI)
100
AcDbVertex
100
AcDb2dVertex
 10
101.7111527885674
 20
99.70903968315862
 30
0.0
  0
VERTEX
  5
1BB
330
1B0
100
AcDbEntity
  8
Visible (ANSI)
100
AcDbVertex
100
AcDb2dVertex
 10
101.7135377252831
 20
99.70364504041134
 30
0.0
  0
VERTEX
  5
1BC
330
1B0
100
AcDbEntity
  8
Visible (ANSI)
100
AcDbVertex
100
AcDb2dVertex
 10
101.7159166546015
 20
99.69768570232078
 30
0.0
  0
VERTEX
  5
1BD
330
1B0
100
AcDbEntity
  8
Visible (ANSI)
100
AcDbVertex
100
AcDb2dVertex
 10
101.7182955839199
 20
99.69119771327058
 30
0.0
  0
VERTEX
  5
1BE
330
1B0
100
AcDbEntity
  8
Visible (ANSI)
100
AcDbVertex
100
AcDb2dVertex
 10
101.7206805206356
 20
99.68421111024708
 30
0.0
  0
VERTEX
  5
1BF
330
1B0
100
AcDbEntity
  8
Visible (ANSI)
100
AcDbVertex
100
AcDb2dVertex
 10
101.723059449954
 20
99.67674992283935
 30
0.0
  0
VERTEX
  5
1C0
330
1B0
100
AcDbEntity
  8
Visible (ANSI)
100
AcDbVertex
100
AcDb2dVertex
 10
101.7254383792724
 20
99.66884418803376
 30
0.0
  0
VERTEX
  5
1C1
330
1B0
100
AcDbEntity
  8
Visible (ANSI)
100
AcDbVertex
100
AcDb2dVertex
 10
101.7278233159881
 20
99.66052995021385
 30
0.0
  0
VERTEX
  5
1C2
330
1B0
100
AcDbEntity
  8
Visible (ANSI)
100
AcDbVertex
100
AcDb2dVertex
 10
101.7302022453065
 20
99.65184926116059
 30
0.0
  0
VERTEX
  5
1C3
330
1B0
100
AcDbEntity
  8
Visible (ANSI)
100
AcDbVertex
100
AcDb2dVertex
 10
101.7325811746249
 20
99.64283215786027
 30
0.0
  0
VERTEX
  5
1C4
330
1B0
100
AcDbEntity
  8
Visible (ANSI)
100
AcDbVertex
100
AcDb2dVertex
 10
101.7349601039433
 20
99.63352069209379
 30
0.0
  0
VERTEX
  5
1C5
330
1B0
100
AcDbEntity
  8
Visible (ANSI)
100
AcDbVertex
100
AcDb2dVertex
 10
101.737345040659
 20
99.62395090824475
 30
0.0
  0
VERTEX
  5
1C6
330
1B0
100
AcDbEntity
  8
Visible (ANSI)
100
AcDbVertex
100
AcDb2dVertex
 10
101.7397239699774
 20
99.61416485809404
 30
0.0
  0
VERTEX
  5
1C7
330
1B0
100
AcDbEntity
  8
Visible (ANSI)
100
AcDbVertex
100
AcDb2dVertex
 10
101.7421028992958
 20
99.60421060081978
 30
0.0
  0
VERTEX
  5
1C8
330
1B0
100
AcDbEntity
  8
Visible (ANSI)
100
AcDbVertex
100
AcDb2dVertex
 10
101.7444878360114
 20
99.59411817340837
 30
0.0
  0
VERTEX
  5
1C9
330
1B0
100
AcDbEntity
  8
Visible (ANSI)
100
AcDbVertex
100
AcDb2dVertex
 10
101.7468667653298
 20
99.58394164243522
 30
0.0
  0
VERTEX
  5
1CA
330
1B0
100
AcDbEntity
  8
Visible (ANSI)
100
AcDbVertex
100
AcDb2dVertex
 10
101.7492456946482
 20
99.57372305968114
 30
0.0
  0
SEQEND
  5
1B3
330
1B0
100
AcDbEntity
  8
Visible (ANSI)
  0
POLYLINE
  5
1CB
330
6C
100
AcDbEntity
  8
Visible (ANSI)
100
AcDb2dPolyline
 66
     1
 10
0.0
 20
0.0
 30
0.0
 70
   128
  0
VERTEX
  5
1CC
330
1CB
100
AcDbEntity
  8
Visible (ANSI)
100
AcDbVertex
100
AcDb2dVertex
 10
34.06174761466877
 20
31.88622497970163
 30
0.0
  0
VERTEX
  5
1CD
330
1CB
100
AcDbEntity
  8
Visible (ANSI)
100
AcDbVertex
100
AcDb2dVertex
 10
34.05152837485564
 20
31.88860575113209
 30
0.0
  0
VERTEX
  5
1CF
330
1CB
100
AcDbEntity
  8
Visible (ANSI)
100
AcDbVertex
100
AcDb2dVertex
 10
34.04135289987026
 20
31.89098651082935
 30
0.0
  0
VERTEX
  5
1D0
330
1CB
100
AcDbEntity
  8
Visible (ANSI)
100
AcDbVertex
100
AcDb2dVertex
 10
34.03126475507603
 20
31.89336727052662
 30
0.0
  0
VERTEX
  5
1D1
330
1CB
100
AcDbEntity
  8
Visible (ANSI)
100
AcDbVertex
100
AcDb2dVertex
 10
34.02130714210723
 20
31.89574804195708
 30
0.0
  0
VERTEX
  5
1D2
330
1CB
100
AcDbEntity
  8
Visible (ANSI)
100
AcDbVertex
100
AcDb2dVertex
 10
34.01152269940461
 20
31.89812880165434
 30
0.0
  0
VERTEX
  5
1D3
330
1CB
100
AcDbEntity
  8
Visible (ANSI)
100
AcDbVertex
100
AcDb2dVertex
 10
34.00195333208409
 20
31.90050957308479
 30
0.0
  0
VERTEX
  5
1D4
330
1CB
100
AcDbEntity
  8
Visible (ANSI)
100
AcDbVertex
100
AcDb2dVertex
 10
33.99264000660576
 20
31.90289033278205
 30
0.0
  0
VERTEX
  5
1D5
330
1CB
100
AcDbEntity
  8
Visible (ANSI)
100
AcDbVertex
100
AcDb2dVertex
 10
33.98362261584209
 20
31.90527109247931
 30
0.0
  0
VERTEX
  5
1D6
330
1CB
100
AcDbEntity
  8
Visible (ANSI)
100
AcDbVertex
100
AcDb2dVertex
 10
33.97493976788042
 20
31.90765186390977
 30
0.0
  0
VERTEX
  5
1D7
330
1CB
100
AcDbEntity
  8
Visible (ANSI)
100
AcDbVertex
100
AcDb2dVertex
 10
33.96662864522455
 20
31.91003262360704
 30
0.0
  0
VERTEX
  5
1D8
330
1CB
100
AcDbEntity
  8
Visible (ANSI)
100
AcDbVertex
100
AcDb2dVertex
 10
33.95872483466339
 20
31.91241339503749
 30
0.0
  0
VERTEX
  5
1D9
330
1CB
100
AcDbEntity
  8
Visible (ANSI)
100
AcDbVertex
100
AcDb2dVertex
 10
33.95126218353923
 20
31.91479415473475
 30
0.0
  0
VERTEX
  5
1DA
330
1CB
100
AcDbEntity
  8
Visible (ANSI)
100
AcDbVertex
100
AcDb2dVertex
 10
33.94427264721629
 20
31.91717492616521
 30
0.0
  0
VERTEX
  5
1DB
330
1CB
100
AcDbEntity
  8
Visible (ANSI)
100
AcDbVertex
100
AcDb2dVertex
 10
33.9377861570821
 20
31.91955568586247
 30
0.0
  0
VERTEX
  5
1DC
330
1CB
100
AcDbEntity
  8
Visible (ANSI)
100
AcDbVertex
100
AcDb2dVertex
 10
33.93183049148246
 20
31.92193644555973
 30
0.0
  0
VERTEX
  5
1DD
330
1CB
100
AcDbEntity
  8
Visible (ANSI)
100
AcDbVertex
100
AcDb2dVertex
 10
33.9264311481228
 20
31.92431721699019
 30
0.0
  0
VERTEX
  5
1DE
330
1CB
100
AcDbEntity
  8
Visible (ANSI)
100
AcDbVertex
100
AcDb2dVertex
 10
33.92161125166933
 20
31.92669797668745
 30
0.0
  0
VERTEX
  5
1DF
330
1CB
100
AcDbEntity
  8
Visible (ANSI)
100
AcDbVertex
100
AcDb2dVertex
 10
33.91739144008361
 20
31.92907873638472
 30
0.0
  0
VERTEX
  5
1E0
330
1CB
100
AcDbEntity
  8
Visible (ANSI)
100
AcDbVertex
100
AcDb2dVertex
 10
33.91378978395692
 20
31.93145949608198
 30
0.0
  0
VERTEX
  5
1E1
330
1CB
100
AcDbEntity
  8
Visible (ANSI)
100
AcDbVertex
100
AcDb2dVertex
 10
33.91082170657774
 20
31.93384027924563
 30
0.0
  0
VERTEX
  5
1E2
330
1CB
100
AcDbEntity
  8
Visible (ANSI)
100
AcDbVertex
100
AcDb2dVertex
 10
33.90849991701592
 20
31.93622103894289
 30
0.0
  0
VERTEX
  5
1E3
330
1CB
100
AcDbEntity
  8
Visible (ANSI)
100
AcDbVertex
100
AcDb2dVertex
 10
33.90683435741494
 20
31.93860179864015
 30
0.0
  0
VERTEX
  5
1E4
330
1CB
100
AcDbEntity
  8
Visible (ANSI)
100
AcDbVertex
100
AcDb2dVertex
 10
33.90583216025282
 20
31.94098255833741
 30
0.0
  0
VERTEX
  5
1E5
330
1CB
100
AcDbEntity
  8
Visible (ANSI)
100
AcDbVertex
100
AcDb2dVertex
 10
33.90549761701541
 20
31.94336331803467
 30
0.0
  0
SEQEND
  5
1CE
330
1CB
100
AcDbEntity
  8
Visible (ANSI)
  0
POLYLINE
  5
1E6
330
6C
100
AcDbEntity
  8
Visible (ANSI)
100
AcDb2dPolyline
 66
     1
 10
0.0
 20
0.0
 30
0.0
 70
   128
  0
VERTEX
  5
1E7
330
1E6
100
AcDbEntity
  8
Visible (ANSI)
100
AcDbVertex
100
AcDb2dVertex
 10
33.90549761701541
 20
99.51658670425851
 30
0.0
  0
VERTEX
  5
1E8
330
1E6
100
AcDbEntity
  8
Visible (ANSI)
100
AcDbVertex
100
AcDb2dVertex
 10
33.90583216025282
 20
99.51896563357692
 30
0.0
  0
VERTEX
  5
1EA
330
1E6
100
AcDbEntity
  8
Visible (ANSI)
100
AcDbVertex
100
AcDb2dVertex
 10
33.90683435741494
 20
99.52135057029261
 30
0.0
  0
VERTEX
  5
1EB
330
1E6
100
AcDbEntity
  8
Visible (ANSI)
100
AcDbVertex
100
AcDb2dVertex
 10
33.90849991701592
 20
99.52372949961102
 30
0.0
  0
VERTEX
  5
1EC
330
1E6
100
AcDbEntity
  8
Visible (ANSI)
100
AcDbVertex
100
AcDb2dVertex
 10
33.91082170657774
 20
99.52610842892942
 30
0.0
  0
VERTEX
  5
1ED
330
1E6
100
AcDbEntity
  8
Visible (ANSI)
100
AcDbVertex
100
AcDb2dVertex
 10
33.91378978395692
 20
99.5284933656451
 30
0.0
  0
VERTEX
  5
1EE
330
1E6
100
AcDbEntity
  8
Visible (ANSI)
100
AcDbVertex
100
AcDb2dVertex
 10
33.91739144008361
 20
99.5308722949635
 30
0.0
  0
VERTEX
  5
1EF
330
1E6
100
AcDbEntity
  8
Visible (ANSI)
100
AcDbVertex
100
AcDb2dVertex
 10
33.92161125166933
 20
99.53325122428189
 30
0.0
  0
VERTEX
  5
1F0
330
1E6
100
AcDbEntity
  8
Visible (ANSI)
100
AcDbVertex
100
AcDb2dVertex
 10
33.9264311481228
 20
99.53563015360032
 30
0.0
  0
VERTEX
  5
1F1
330
1E6
100
AcDbEntity
  8
Visible (ANSI)
100
AcDbVertex
100
AcDb2dVertex
 10
33.93183049148246
 20
99.53801509031599
 30
0.0
  0
VERTEX
  5
1F2
330
1E6
100
AcDbEntity
  8
Visible (ANSI)
100
AcDbVertex
100
AcDb2dVertex
 10
33.9377861570821
 20
99.54039401963438
 30
0.0
  0
VERTEX
  5
1F3
330
1E6
100
AcDbEntity
  8
Visible (ANSI)
100
AcDbVertex
100
AcDb2dVertex
 10
33.94427264721629
 20
99.54277294895279
 30
0.0
  0
VERTEX
  5
1F4
330
1E6
100
AcDbEntity
  8
Visible (ANSI)
100
AcDbVertex
100
AcDb2dVertex
 10
33.95126218353923
 20
99.54515788566848
 30
0.0
  0
VERTEX
  5
1F5
330
1E6
100
AcDbEntity
  8
Visible (ANSI)
100
AcDbVertex
100
AcDb2dVertex
 10
33.95872483466339
 20
99.54753681498688
 30
0.0
  0
VERTEX
  5
1F6
330
1E6
100
AcDbEntity
  8
Visible (ANSI)
100
AcDbVertex
100
AcDb2dVertex
 10
33.96662864522455
 20
99.54991574430529
 30
0.0
  0
VERTEX
  5
1F7
330
1E6
100
AcDbEntity
  8
Visible (ANSI)
100
AcDbVertex
100
AcDb2dVertex
 10
33.97493976788042
 20
99.55230068102096
 30
0.0
  0
VERTEX
  5
1F8
330
1E6
100
AcDbEntity
  8
Visible (ANSI)
100
AcDbVertex
100
AcDb2dVertex
 10
33.98362261584209
 20
99.55467961033937
 30
0.0
  0
VERTEX
  5
1F9
330
1E6
100
AcDbEntity
  8
Visible (ANSI)
100
AcDbVertex
100
AcDb2dVertex
 10
33.99264000660576
 20
99.55705853965776
 30
0.0
  0
VERTEX
  5
1FA
330
1E6
100
AcDbEntity
  8
Visible (ANSI)
100
AcDbVertex
100
AcDb2dVertex
 10
34.00195333208409
 20
99.55943746897617
 30
0.0
  0
VERTEX
  5
1FB
330
1E6
100
AcDbEntity
  8
Visible (ANSI)
100
AcDbVertex
100
AcDb2dVertex
 10
34.01152269940461
 20
99.56182240569184
 30
0.0
  0
VERTEX
  5
1FC
330
1E6
100
AcDbEntity
  8
Visible (ANSI)
100
AcDbVertex
100
AcDb2dVertex
 10
34.02130714210723
 20
99.56420133501024
 30
0.0
  0
VERTEX
  5
1FD
330
1E6
100
AcDbEntity
  8
Visible (ANSI)
100
AcDbVertex
100
AcDb2dVertex
 10
34.03126475507603
 20
99.56658026432865
 30
0.0
  0
VERTEX
  5
1FE
330
1E6
100
AcDbEntity
  8
Visible (ANSI)
100
AcDbVertex
100
AcDb2dVertex
 10
34.04135289987026
 20
99.56896520104434
 30
0.0
  0
VERTEX
  5
1FF
330
1E6
100
AcDbEntity
  8
Visible (ANSI)
100
AcDbVertex
100
AcDb2dVertex
 10
34.05152837485564
 20
99.57134413036275
 30
0.0
  0
VERTEX
  5
200
330
1E6
100
AcDbEntity
  8
Visible (ANSI)
100
AcDbVertex
100
AcDb2dVertex
 10
34.06174761466877
 20
99.57372305968114
 30
0.0
  0
SEQEND
  5
1E9
330
1E6
100
AcDbEntity
  8
Visible (ANSI)
  0
POLYLINE
  5
201
330
6C
100
AcDbEntity
  8
Visible (ANSI)
100
AcDb2dPolyline
 66
     1
 10
0.0
 20
0.0
 30
0.0
 70
   128
  0
VERTEX
  5
202
330
201
100
AcDbEntity
  8
Visible (ANSI)
100
AcDbVertex
100
AcDb2dVertex
 10
136.7670645633211
 20
31.88622497970163
 30
0.0
  0
VERTEX
  5
203
330
201
100
AcDbEntity
  8
Visible (ANSI)
100
AcDbVertex
100
AcDb2dVertex
 10
136.7673991002565
 20
31.8760057398885
 30
0.0
  0
VERTEX
  5
205
330
201
100
AcDbEntity
  8
Visible (ANSI)
100
AcDbVertex
100
AcDb2dVertex
 10
136.7684013030789
 20
31.86583026490312
 30
0.0
  0
VERTEX
  5
206
330
201
100
AcDbEntity
  8
Visible (ANSI)
100
AcDbVertex
100
AcDb2dVertex
 10
136.7700668657049
 20
31.8557421201089
 30
0.0
  0
VERTEX
  5
207
330
201
100
AcDbEntity
  8
Visible (ANSI)
100
AcDbVertex
100
AcDb2dVertex
 10
136.7723886543501
 20
31.84578450714009
 30
0.0
  0
VERTEX
  5
208
330
201
100
AcDbEntity
  8
Visible (ANSI)
100
AcDbVertex
100
AcDb2dVertex
 10
136.7753567309959
 20
31.83600006443747
 30
0.0
  0
VERTEX
  5
209
330
201
100
AcDbEntity
  8
Visible (ANSI)
100
AcDbVertex
100
AcDb2dVertex
 10
136.7789583885893
 20
31.82643069711696
 30
0.0
  0
VERTEX
  5
20A
330
201
100
AcDbEntity
  8
Visible (ANSI)
100
AcDbVertex
100
AcDb2dVertex
 10
136.783178197975
 20
31.81711737163862
 30
0.0
  0
VERTEX
  5
20B
330
201
100
AcDbEntity
  8
Visible (ANSI)
100
AcDbVertex
100
AcDb2dVertex
 10
136.7879980900285
 20
31.80809998087495
 30
0.0
  0
VERTEX
  5
20C
330
201
100
AcDbEntity
  8
Visible (ANSI)
100
AcDbVertex
100
AcDb2dVertex
 10
136.7933974377882
 20
31.79941713291329
 30
0.0
  0
VERTEX
  5
20D
330
201
100
AcDbEntity
  8
Visible (ANSI)
100
AcDbVertex
100
AcDb2dVertex
 10
136.7993531033878
 20
31.79110601025742
 30
0.0
  0
VERTEX
  5
20E
330
201
100
AcDbEntity
  8
Visible (ANSI)
100
AcDbVertex
100
AcDb2dVertex
 10
136.8058395905887
 20
31.78320219969625
 30
0.0
  0
VERTEX
  5
20F
330
201
100
AcDbEntity
  8
Visible (ANSI)
100
AcDbVertex
100
AcDb2dVertex
 10
136.8128291269116
 20
31.77573954857209
 30
0.0
  0
VERTEX
  5
210
330
201
100
AcDbEntity
  8
Visible (ANSI)
100
AcDbVertex
100
AcDb2dVertex
 10
136.8202917751025
 20
31.76875001224915
 30
0.0
  0
VERTEX
  5
211
330
201
100
AcDbEntity
  8
Visible (ANSI)
100
AcDbVertex
100
AcDb2dVertex
 10
136.8281955856636
 20
31.76226352211497
 30
0.0
  0
VERTEX
  5
212
330
201
100
AcDbEntity
  8
Visible (ANSI)
100
AcDbVertex
100
AcDb2dVertex
 10
136.8365067141861
 20
31.75630785651533
 30
0.0
  0
VERTEX
  5
213
330
201
100
AcDbEntity
  8
Visible (ANSI)
100
AcDbVertex
100
AcDb2dVertex
 10
136.8451895621478
 20
31.75090851315567
 30
0.0
  0
VERTEX
  5
214
330
201
100
AcDbEntity
  8
Visible (ANSI)
100
AcDbVertex
100
AcDb2dVertex
 10
136.8542069529114
 20
31.74608861670219
 30
0.0
  0
VERTEX
  5
215
330
201
100
AcDbEntity
  8
Visible (ANSI)
100
AcDbVertex
100
AcDb2dVertex
 10
136.8635202754565
 20
31.74186880511648
 30
0.0
  0
VERTEX
  5
216
330
201
100
AcDbEntity
  8
Visible (ANSI)
100
AcDbVertex
100
AcDb2dVertex
 10
136.8730896457103
 20
31.73826714898979
 30
0.0
  0
VERTEX
  5
217
330
201
100
AcDbEntity
  8
Visible (ANSI)
100
AcDbVertex
100
AcDb2dVertex
 10
136.8828740854796
 20
31.7352990716106
 30
0.0
  0
VERTEX
  5
218
330
201
100
AcDbEntity
  8
Visible (ANSI)
100
AcDbVertex
100
AcDb2dVertex
 10
136.8928316986318
 20
31.73297728204878
 30
0.0
  0
VERTEX
  5
219
330
201
100
AcDbEntity
  8
Visible (ANSI)
100
AcDbVertex
100
AcDb2dVertex
 10
136.902919843976
 20
31.7313117224478
 30
0.0
  0
VERTEX
  5
21A
330
201
100
AcDbEntity
  8
Visible (ANSI)
100
AcDbVertex
100
AcDb2dVertex
 10
136.913095322628
 20
31.73030952528569
 30
0.0
  0
VERTEX
  5
21B
330
201
100
AcDbEntity
  8
Visible (ANSI)
100
AcDbVertex
100
AcDb2dVertex
 10
136.9233145609744
 20
31.72997498204829
 30
0.0
  0
SEQEND
  5
204
330
201
100
AcDbEntity
  8
Visible (ANSI)
  0
LINE
  5
21C
330
6C
100
AcDbEntity
  8
Visible (ANSI)
100
AcDbLine
 10
136.9233145614438
 20
31.85497498204829
 30
0.0
 11
137.6420645614438
 21
31.85497498204829
 31
0.0
  0
LINE
  5
21D
330
6C
100
AcDbEntity
  8
Visible (ANSI)
100
AcDbLine
 10
136.9233145614438
 20
31.85497498204829
 30
0.0
 11
136.9233145614438
 21
31.72997498204829
 31
0.0
  0
POLYLINE
  5
21E
330
6C
100
AcDbEntity
  8
Visible (ANSI)
100
AcDb2dPolyline
 66
     1
 10
0.0
 20
0.0
 30
0.0
 70
   128
  0
VERTEX
  5
21F
330
21E
100
AcDbEntity
  8
Visible (ANSI)
100
AcDbVertex
100
AcDb2dVertex
 10
136.8920645614438
 20
31.88622497970163
 30
0.0
  0
VERTEX
  5
220
330
21E
100
AcDbEntity
  8
Visible (ANSI)
100
AcDbVertex
100
AcDb2dVertex
 10
136.8921314700901
 20
31.88418113877892
 30
0.0
  0
VERTEX
  5
222
330
21E
100
AcDbEntity
  8
Visible (ANSI)
100
AcDbVertex
100
AcDb2dVertex
 10
136.8923319095282
 20
31.88214603908857
 30
0.0
  0
VERTEX
  5
223
330
21E
100
AcDbEntity
  8
Visible (ANSI)
100
AcDbVertex
100
AcDb2dVertex
 10
136.892665021453
 20
31.88012841012973
 30
0.0
  0
VERTEX
  5
224
330
21E
100
AcDbEntity
  8
Visible (ANSI)
100
AcDbVertex
100
AcDb2dVertex
 10
136.8931293793929
 20
31.87813688753597
 30
0.0
  0
VERTEX
  5
225
330
21E
100
AcDbEntity
  8
Visible (ANSI)
100
AcDbVertex
100
AcDb2dVertex
 10
136.8937229948687
 20
31.87618000134208
 30
0.0
  0
VERTEX
  5
226
330
21E
100
AcDbEntity
  8
Visible (ANSI)
100
AcDbVertex
100
AcDb2dVertex
 10
136.8944433261308
 20
31.8742661290513
 30
0.0
  0
VERTEX
  5
227
330
21E
100
AcDbEntity
  8
Visible (ANSI)
100
AcDbVertex
100
AcDb2dVertex
 10
136.8952872884479
 20
31.87240346043567
 30
0.0
  0
VERTEX
  5
228
330
21E
100
AcDbEntity
  8
Visible (ANSI)
100
AcDbVertex
100
AcDb2dVertex
 10
136.8962512674453
 20
31.8705999858029
 30
0.0
  0
VERTEX
  5
229
330
21E
100
AcDbEntity
  8
Visible (ANSI)
100
AcDbVertex
100
AcDb2dVertex
 10
136.8973311359705
 20
31.86886341386392
 30
0.0
  0
VERTEX
  5
22A
330
21E
100
AcDbEntity
  8
Visible (ANSI)
100
AcDbVertex
100
AcDb2dVertex
 10
136.8985222693105
 20
31.86720118346615
 30
0.0
  0
VERTEX
  5
22B
330
21E
100
AcDbEntity
  8
Visible (ANSI)
100
AcDbVertex
100
AcDb2dVertex
 10
136.8998195671906
 20
31.86562042839384
 30
0.0
  0
VERTEX
  5
22C
330
21E
100
AcDbEntity
  8
Visible (ANSI)
100
AcDbVertex
100
AcDb2dVertex
 10
136.9012174743085
 20
31.86412789523571
 30
0.0
  0
VERTEX
  5
22D
330
21E
100
AcDbEntity
  8
Visible (ANSI)
100
AcDbVertex
100
AcDb2dVertex
 10
136.9027100045334
 20
31.86272999031775
 30
0.0
  0
VERTEX
  5
22E
330
21E
100
AcDbEntity
  8
Visible (ANSI)
100
AcDbVertex
100
AcDb2dVertex
 10
136.9042907669389
 20
31.86143268583766
 30
0.0
  0
VERTEX
  5
22F
330
21E
100
AcDbEntity
  8
Visible (ANSI)
100
AcDbVertex
100
AcDb2dVertex
 10
136.9059529922034
 20
31.86024155506437
 30
0.0
  0
VERTEX
  5
230
330
21E
100
AcDbEntity
  8
Visible (ANSI)
100
AcDbVertex
100
AcDb2dVertex
 10
136.9076895612091
 20
31.85916169020573
 30
0.0
  0
VERTEX
  5
231
330
21E
100
AcDbEntity
  8
Visible (ANSI)
100
AcDbVertex
100
AcDb2dVertex
 10
136.9094930402418
 20
31.85819771414167
 30
0.0
  0
VERTEX
  5
232
330
21E
100
AcDbEntity
  8
Visible (ANSI)
100
AcDbVertex
100
AcDb2dVertex
 10
136.9113557044575
 20
31.8573537452246
 30
0.0
  0
VERTEX
  5
233
330
21E
100
AcDbEntity
  8
Visible (ANSI)
100
AcDbVertex
100
AcDb2dVertex
 10
136.9132695782149
 20
31.85663342074585
 30
0.0
  0
VERTEX
  5
234
330
21E
100
AcDbEntity
  8
Visible (ANSI)
100
AcDbVertex
100
AcDb2dVertex
 10
136.9152264658755
 20
31.85603980307004
 30
0.0
  0
VERTEX
  5
235
330
21E
100
AcDbEntity
  8
Visible (ANSI)
100
AcDbVertex
100
AcDb2dVertex
 10
136.9172179884692
 20
31.85557543830109
 30
0.0
  0
VERTEX
  5
236
330
21E
100
AcDbEntity
  8
Visible (ANSI)
100
AcDbVertex
100
AcDb2dVertex
 10
136.9192356174281
 20
31.85524233281582
 30
0.0
  0
VERTEX
  5
237
330
21E
100
AcDbEntity
  8
Visible (ANSI)
100
AcDbVertex
100
AcDb2dVertex
 10
136.9212707141851
 20
31.85504189459796
 30
0.0
  0
VERTEX
  5
238
330
21E
100
AcDbEntity
  8
Visible (ANSI)
100
AcDbVertex
100
AcDb2dVertex
 10
136.9233145609744
 20
31.85497498017096
 30
0.0
  0
SEQEND
  5
221
330
21E
100
AcDbEntity
  8
Visible (ANSI)
  0
LINE
  5
239
330
6C
100
AcDbEntity
  8
Visible (ANSI)
100
AcDbLine
 10
136.8920645614438
 20
31.8862249820483
 30
0.0
 11
136.8869391595705
 21
31.88622498204829
 31
0.0
  0
LINE
  5
23A
330
6C
100
AcDbEntity
  8
Visible (ANSI)
100
AcDbLine
 10
136.8869391595705
 20
31.88622498204829
 30
0.0
 11
136.7670645614438
 21
31.8862249820483
 31
0.0
  0
LINE
  5
23B
330
6C
100
AcDbEntity
  8
Visible (ANSI)
100
AcDbLine
 10
136.9233145614438
 20
31.72997498204829
 30
0.0
 11
137.6420645614438
 21
31.72997498204829
 31
0.0
  0
LINE
  5
23C
330
6C
100
AcDbEntity
  8
Visible (ANSI)
100
AcDbLine
 10
137.6420645614438
 20
31.85497498204829
 30
0.0
 11
137.6420645614438
 21
31.72997498204829
 31
0.0
  0
POLYLINE
  5
23D
330
6C
100
AcDbEntity
  8
Visible (ANSI)
100
AcDb2dPolyline
 66
     1
 10
0.0
 20
0.0
 30
0.0
 70
   128
  0
VERTEX
  5
23E
330
23D
100
AcDbEntity
  8
Visible (ANSI)
100
AcDbVertex
100
AcDb2dVertex
 10
136.7670645633211
 20
99.57372305968114
 30
0.0
  0
VERTEX
  5
23F
330
23D
100
AcDbEntity
  8
Visible (ANSI)
100
AcDbVertex
100
AcDb2dVertex
 10
136.7673991002565
 20
99.57134413036275
 30
0.0
  0
VERTEX
  5
241
330
23D
100
AcDbEntity
  8
Visible (ANSI)
100
AcDbVertex
100
AcDb2dVertex
 10
136.7684013030789
 20
99.56896520104434
 30
0.0
  0
VERTEX
  5
242
330
23D
100
AcDbEntity
  8
Visible (ANSI)
100
AcDbVertex
100
AcDb2dVertex
 10
136.7700668657049
 20
99.56658026432865
 30
0.0
  0
VERTEX
  5
243
330
23D
100
AcDbEntity
  8
Visible (ANSI)
100
AcDbVertex
100
AcDb2dVertex
 10
136.7723886543501
 20
99.56420133501024
 30
0.0
  0
VERTEX
  5
244
330
23D
100
AcDbEntity
  8
Visible (ANSI)
100
AcDbVertex
100
AcDb2dVertex
 10
136.7753567309959
 20
99.56182240569184
 30
0.0
  0
VERTEX
  5
245
330
23D
100
AcDbEntity
  8
Visible (ANSI)
100
AcDbVertex
100
AcDb2dVertex
 10
136.7789583885893
 20
99.55943746897617
 30
0.0
  0
VERTEX
  5
246
330
23D
100
AcDbEntity
  8
Visible (ANSI)
100
AcDbVertex
100
AcDb2dVertex
 10
136.783178197975
 20
99.55705853965776
 30
0.0
  0
VERTEX
  5
247
330
23D
100
AcDbEntity
  8
Visible (ANSI)
100
AcDbVertex
100
AcDb2dVertex
 10
136.7879980900286
 20
99.55467961033937
 30
0.0
  0
VERTEX
  5
248
330
23D
100
AcDbEntity
  8
Visible (ANSI)
100
AcDbVertex
100
AcDb2dVertex
 10
136.7933974377882
 20
99.55230068102096
 30
0.0
  0
VERTEX
  5
249
330
23D
100
AcDbEntity
  8
Visible (ANSI)
100
AcDbVertex
100
AcDb2dVertex
 10
136.7993531033878
 20
99.54991574430529
 30
0.0
  0
VERTEX
  5
24A
330
23D
100
AcDbEntity
  8
Visible (ANSI)
100
AcDbVertex
100
AcDb2dVertex
 10
136.8058395905887
 20
99.54753681498688
 30
0.0
  0
VERTEX
  5
24B
330
23D
100
AcDbEntity
  8
Visible (ANSI)
100
AcDbVertex
100
AcDb2dVertex
 10
136.8128291269117
 20
99.54515788566848
 30
0.0
  0
VERTEX
  5
24C
330
23D
100
AcDbEntity
  8
Visible (ANSI)
100
AcDbVertex
100
AcDb2dVertex
 10
136.8202917751025
 20
99.54277294895279
 30
0.0
  0
VERTEX
  5
24D
330
23D
100
AcDbEntity
  8
Visible (ANSI)
100
AcDbVertex
100
AcDb2dVertex
 10
136.8281955856637
 20
99.54039401963438
 30
0.0
  0
VERTEX
  5
24E
330
23D
100
AcDbEntity
  8
Visible (ANSI)
100
AcDbVertex
100
AcDb2dVertex
 10
136.8365067141862
 20
99.53801509031599
 30
0.0
  0
VERTEX
  5
24F
330
23D
100
AcDbEntity
  8
Visible (ANSI)
100
AcDbVertex
100
AcDb2dVertex
 10
136.8451895621478
 20
99.53563015360032
 30
0.0
  0
VERTEX
  5
250
330
23D
100
AcDbEntity
  8
Visible (ANSI)
100
AcDbVertex
100
AcDb2dVertex
 10
136.8542069529115
 20
99.53325122428189
 30
0.0
  0
VERTEX
  5
251
330
23D
100
AcDbEntity
  8
Visible (ANSI)
100
AcDbVertex
100
AcDb2dVertex
 10
136.8635202754565
 20
99.5308722949635
 30
0.0
  0
VERTEX
  5
252
330
23D
100
AcDbEntity
  8
Visible (ANSI)
100
AcDbVertex
100
AcDb2dVertex
 10
136.8730896457103
 20
99.5284933656451
 30
0.0
  0
VERTEX
  5
253
330
23D
100
AcDbEntity
  8
Visible (ANSI)
100
AcDbVertex
100
AcDb2dVertex
 10
136.8828740854796
 20
99.52610842892942
 30
0.0
  0
VERTEX
  5
254
330
23D
100
AcDbEntity
  8
Visible (ANSI)
100
AcDbVertex
100
AcDb2dVertex
 10
136.8928316986318
 20
99.52372949961102
 30
0.0
  0
VERTEX
  5
255
330
23D
100
AcDbEntity
  8
Visible (ANSI)
100
AcDbVertex
100
AcDb2dVertex
 10
136.902919843976
 20
99.52135057029261
 30
0.0
  0
VERTEX
  5
256
330
23D
100
AcDbEntity
  8
Visible (ANSI)
100
AcDbVertex
100
AcDb2dVertex
 10
136.913095322628
 20
99.51896563357692
 30
0.0
  0
VERTEX
  5
257
330
23D
100
AcDbEntity
  8
Visible (ANSI)
100
AcDbVertex
100
AcDb2dVertex
 10
136.9233145609745
 20
99.51658670425851
 30
0.0
  0
SEQEND
  5
240
330
23D
100
AcDbEntity
  8
Visible (ANSI)
  0
POLYLINE
  5
258
330
6C
100
AcDbEntity
  8
Visible (ANSI)
100
AcDb2dPolyline
 66
     1
 10
0.0
 20
0.0
 30
0.0
 70
   128
  0
VERTEX
  5
259
330
258
100
AcDbEntity
  8
Visible (ANSI)
100
AcDbVertex
100
AcDb2dVertex
 10
136.9233145609745
 20
31.94336331803467
 30
0.0
  0
VERTEX
  5
25A
330
258
100
AcDbEntity
  8
Visible (ANSI)
100
AcDbVertex
100
AcDb2dVertex
 10
136.913095322628
 20
31.94098255833741
 30
0.0
  0
VERTEX
  5
25C
330
258
100
AcDbEntity
  8
Visible (ANSI)
100
AcDbVertex
100
AcDb2dVertex
 10
136.902919843976
 20
31.93860179864015
 30
0.0
  0
VERTEX
  5
25D
330
258
100
AcDbEntity
  8
Visible (ANSI)
100
AcDbVertex
100
AcDb2dVertex
 10
136.8928316986318
 20
31.93622103894289
 30
0.0
  0
VERTEX
  5
25E
330
258
100
AcDbEntity
  8
Visible (ANSI)
100
AcDbVertex
100
AcDb2dVertex
 10
136.8828740854796
 20
31.93384027924563
 30
0.0
  0
VERTEX
  5
25F
330
258
100
AcDbEntity
  8
Visible (ANSI)
100
AcDbVertex
100
AcDb2dVertex
 10
136.8730896457103
 20
31.93145949608198
 30
0.0
  0
VERTEX
  5
260
330
258
100
AcDbEntity
  8
Visible (ANSI)
100
AcDbVertex
100
AcDb2dVertex
 10
136.8635202754565
 20
31.92907873638472
 30
0.0
  0
VERTEX
  5
261
330
258
100
AcDbEntity
  8
Visible (ANSI)
100
AcDbVertex
100
AcDb2dVertex
 10
136.8542069529115
 20
31.92669797668745
 30
0.0
  0
VERTEX
  5
262
330
258
100
AcDbEntity
  8
Visible (ANSI)
100
AcDbVertex
100
AcDb2dVertex
 10
136.8451895621478
 20
31.92431721699019
 30
0.0
  0
VERTEX
  5
263
330
258
100
AcDbEntity
  8
Visible (ANSI)
100
AcDbVertex
100
AcDb2dVertex
 10
136.8365067141862
 20
31.92193644555973
 30
0.0
  0
VERTEX
  5
264
330
258
100
AcDbEntity
  8
Visible (ANSI)
100
AcDbVertex
100
AcDb2dVertex
 10
136.8281955856637
 20
31.91955568586247
 30
0.0
  0
VERTEX
  5
265
330
258
100
AcDbEntity
  8
Visible (ANSI)
100
AcDbVertex
100
AcDb2dVertex
 10
136.8202917751025
 20
31.91717492616521
 30
0.0
  0
VERTEX
  5
266
330
258
100
AcDbEntity
  8
Visible (ANSI)
100
AcDbVertex
100
AcDb2dVertex
 10
136.8128291269117
 20
31.91479415473475
 30
0.0
  0
VERTEX
  5
267
330
258
100
AcDbEntity
  8
Visible (ANSI)
100
AcDbVertex
100
AcDb2dVertex
 10
136.8058395905887
 20
31.91241339503749
 30
0.0
  0
VERTEX
  5
268
330
258
100
AcDbEntity
  8
Visible (ANSI)
100
AcDbVertex
100
AcDb2dVertex
 10
136.7993531033878
 20
31.91003262360704
 30
0.0
  0
VERTEX
  5
269
330
258
100
AcDbEntity
  8
Visible (ANSI)
100
AcDbVertex
100
AcDb2dVertex
 10
136.7933974377882
 20
31.90765186390977
 30
0.0
  0
VERTEX
  5
26A
330
258
100
AcDbEntity
  8
Visible (ANSI)
100
AcDbVertex
100
AcDb2dVertex
 10
136.7879980900286
 20
31.90527109247931
 30
0.0
  0
VERTEX
  5
26B
330
258
100
AcDbEntity
  8
Visible (ANSI)
100
AcDbVertex
100
AcDb2dVertex
 10
136.783178197975
 20
31.90289033278205
 30
0.0
  0
VERTEX
  5
26C
330
258
100
AcDbEntity
  8
Visible (ANSI)
100
AcDbVertex
100
AcDb2dVertex
 10
136.7789583885893
 20
31.90050957308479
 30
0.0
  0
VERTEX
  5
26D
330
258
100
AcDbEntity
  8
Visible (ANSI)
100
AcDbVertex
100
AcDb2dVertex
 10
136.7753567309959
 20
31.89812880165434
 30
0.0
  0
VERTEX
  5
26E
330
258
100
AcDbEntity
  8
Visible (ANSI)
100
AcDbVertex
100
AcDb2dVertex
 10
136.7723886543501
 20
31.89574804195708
 30
0.0
  0
VERTEX
  5
26F
330
258
100
AcDbEntity
  8
Visible (ANSI)
100
AcDbVertex
100
AcDb2dVertex
 10
136.7700668657049
 20
31.89336727052662
 30
0.0
  0
VERTEX
  5
270
330
258
100
AcDbEntity
  8
Visible (ANSI)
100
AcDbVertex
100
AcDb2dVertex
 10
136.7684013030789
 20
31.89098651082935
 30
0.0
  0
VERTEX
  5
271
330
258
100
AcDbEntity
  8
Visible (ANSI)
100
AcDbVertex
100
AcDb2dVertex
 10
136.7673991002565
 20
31.88860575113209
 30
0.0
  0
VERTEX
  5
272
330
258
100
AcDbEntity
  8
Visible (ANSI)
100
AcDbVertex
100
AcDb2dVertex
 10
136.7670645633211
 20
31.88622497970163
 30
0.0
  0
SEQEND
  5
25B
330
258
100
AcDbEntity
  8
Visible (ANSI)
  0
LINE
  5
273
330
6C
100
AcDbEntity
  8
Visible (ANSI)
100
AcDbLine
 10
137.6420645614438
 20
31.94336332969662
 30
0.0
 11
136.9233145614439
 21
31.94336332969662
 31
0.0
  0
POLYLINE
  5
274
330
6C
100
AcDbEntity
  8
Visible (ANSI)
100
AcDb2dPolyline
 66
     1
 10
0.0
 20
0.0
 30
0.0
 70
   128
  0
VERTEX
  5
275
330
274
100
AcDbEntity
  8
Visible (ANSI)
100
AcDbVertex
100
AcDb2dVertex
 10
136.8920645614438
 20
31.88622497970163
 30
0.0
  0
VERTEX
  5
276
330
274
100
AcDbEntity
  8
Visible (ANSI)
100
AcDbVertex
100
AcDb2dVertex
 10
136.8921314700901
 20
31.88860575113209
 30
0.0
  0
VERTEX
  5
278
330
274
100
AcDbEntity
  8
Visible (ANSI)
100
AcDbVertex
100
AcDb2dVertex
 10
136.8923319095282
 20
31.89098651082935
 30
0.0
  0
VERTEX
  5
279
330
274
100
AcDbEntity
  8
Visible (ANSI)
100
AcDbVertex
100
AcDb2dVertex
 10
136.8926650214531
 20
31.89336727052662
 30
0.0
  0
VERTEX
  5
27A
330
274
100
AcDbEntity
  8
Visible (ANSI)
100
AcDbVertex
100
AcDb2dVertex
 10
136.8931293793929
 20
31.89574804195708
 30
0.0
  0
VERTEX
  5
27B
330
274
100
AcDbEntity
  8
Visible (ANSI)
100
AcDbVertex
100
AcDb2dVertex
 10
136.8937229948688
 20
31.89812880165434
 30
0.0
  0
VERTEX
  5
27C
330
274
100
AcDbEntity
  8
Visible (ANSI)
100
AcDbVertex
100
AcDb2dVertex
 10
136.8944433261308
 20
31.90050957308479
 30
0.0
  0
VERTEX
  5
27D
330
274
100
AcDbEntity
  8
Visible (ANSI)
100
AcDbVertex
100
AcDb2dVertex
 10
136.8952872884479
 20
31.90289033278205
 30
0.0
  0
VERTEX
  5
27E
330
274
100
AcDbEntity
  8
Visible (ANSI)
100
AcDbVertex
100
AcDb2dVertex
 10
136.8962512674453
 20
31.90527109247931
 30
0.0
  0
VERTEX
  5
27F
330
274
100
AcDbEntity
  8
Visible (ANSI)
100
AcDbVertex
100
AcDb2dVertex
 10
136.8973311359705
 20
31.90765186390977
 30
0.0
  0
VERTEX
  5
280
330
274
100
AcDbEntity
  8
Visible (ANSI)
100
AcDbVertex
100
AcDb2dVertex
 10
136.8985222693105
 20
31.91003262360704
 30
0.0
  0
VERTEX
  5
281
330
274
100
AcDbEntity
  8
Visible (ANSI)
100
AcDbVertex
100
AcDb2dVertex
 10
136.8998195671906
 20
31.91241339503749
 30
0.0
  0
VERTEX
  5
282
330
274
100
AcDbEntity
  8
Visible (ANSI)
100
AcDbVertex
100
AcDb2dVertex
 10
136.9012174743085
 20
31.91479415473475
 30
0.0
  0
VERTEX
  5
283
330
274
100
AcDbEntity
  8
Visible (ANSI)
100
AcDbVertex
100
AcDb2dVertex
 10
136.9027100045334
 20
31.91717492616521
 30
0.0
  0
VERTEX
  5
284
330
274
100
AcDbEntity
  8
Visible (ANSI)
100
AcDbVertex
100
AcDb2dVertex
 10
136.9042907669389
 20
31.91955568586247
 30
0.0
  0
VERTEX
  5
285
330
274
100
AcDbEntity
  8
Visible (ANSI)
100
AcDbVertex
100
AcDb2dVertex
 10
136.9059529922035
 20
31.92193644555973
 30
0.0
  0
VERTEX
  5
286
330
274
100
AcDbEntity
  8
Visible (ANSI)
100
AcDbVertex
100
AcDb2dVertex
 10
136.9076895612092
 20
31.92431721699019
 30
0.0
  0
VERTEX
  5
287
330
274
100
AcDbEntity
  8
Visible (ANSI)
100
AcDbVertex
100
AcDb2dVertex
 10
136.9094930402418
 20
31.92669797668745
 30
0.0
  0
VERTEX
  5
288
330
274
100
AcDbEntity
  8
Visible (ANSI)
100
AcDbVertex
100
AcDb2dVertex
 10
136.9113557044575
 20
31.92907873638472
 30
0.0
  0
VERTEX
  5
289
330
274
100
AcDbEntity
  8
Visible (ANSI)
100
AcDbVertex
100
AcDb2dVertex
 10
136.913269578215
 20
31.93145949608198
 30
0.0
  0
VERTEX
  5
28A
330
274
100
AcDbEntity
  8
Visible (ANSI)
100
AcDbVertex
100
AcDb2dVertex
 10
136.9152264658755
 20
31.93384027924563
 30
0.0
  0
VERTEX
  5
28B
330
274
100
AcDbEntity
  8
Visible (ANSI)
100
AcDbVertex
100
AcDb2dVertex
 10
136.9172179884692
 20
31.93622103894289
 30
0.0
  0
VERTEX
  5
28C
330
274
100
AcDbEntity
  8
Visible (ANSI)
100
AcDbVertex
100
AcDb2dVertex
 10
136.9192356174281
 20
31.93860179864015
 30
0.0
  0
VERTEX
  5
28D
330
274
100
AcDbEntity
  8
Visible (ANSI)
100
AcDbVertex
100
AcDb2dVertex
 10
136.9212707141851
 20
31.94098255833741
 30
0.0
  0
VERTEX
  5
28E
330
274
100
AcDbEntity
  8
Visible (ANSI)
100
AcDbVertex
100
AcDb2dVertex
 10
136.9233145609745
 20
31.94336331803467
 30
0.0
  0
SEQEND
  5
277
330
274
100
AcDbEntity
  8
Visible (ANSI)
  0
POLYLINE
  5
28F
330
6C
100
AcDbEntity
  8
Visible (ANSI)
100
AcDb2dPolyline
 66
     1
 10
0.0
 20
0.0
 30
0.0
 70
   128
  0
VERTEX
  5
290
330
28F
100
AcDbEntity
  8
Visible (ANSI)
100
AcDbVertex
100
AcDb2dVertex
 10
136.8920645614438
 20
99.57372305968114
 30
0.0
  0
VERTEX
  5
291
330
28F
100
AcDbEntity
  8
Visible (ANSI)
100
AcDbVertex
100
AcDb2dVertex
 10
136.8921314700901
 20
99.57134413036275
 30
0.0
  0
VERTEX
  5
293
330
28F
100
AcDbEntity
  8
Visible (ANSI)
100
AcDbVertex
100
AcDb2dVertex
 10
136.8923319095282
 20
99.56896520104434
 30
0.0
  0
VERTEX
  5
294
330
28F
100
AcDbEntity
  8
Visible (ANSI)
100
AcDbVertex
100
AcDb2dVertex
 10
136.8926650214531
 20
99.56658026432865
 30
0.0
  0
VERTEX
  5
295
330
28F
100
AcDbEntity
  8
Visible (ANSI)
100
AcDbVertex
100
AcDb2dVertex
 10
136.8931293793929
 20
99.56420133501024
 30
0.0
  0
VERTEX
  5
296
330
28F
100
AcDbEntity
  8
Visible (ANSI)
100
AcDbVertex
100
AcDb2dVertex
 10
136.8937229948688
 20
99.56182240569184
 30
0.0
  0
VERTEX
  5
297
330
28F
100
AcDbEntity
  8
Visible (ANSI)
100
AcDbVertex
100
AcDb2dVertex
 10
136.8944433261308
 20
99.55943746897617
 30
0.0
  0
VERTEX
  5
298
330
28F
100
AcDbEntity
  8
Visible (ANSI)
100
AcDbVertex
100
AcDb2dVertex
 10
136.8952872884479
 20
99.55705853965776
 30
0.0
  0
VERTEX
  5
299
330
28F
100
AcDbEntity
  8
Visible (ANSI)
100
AcDbVertex
100
AcDb2dVertex
 10
136.8962512674453
 20
99.55467961033937
 30
0.0
  0
VERTEX
  5
29A
330
28F
100
AcDbEntity
  8
Visible (ANSI)
100
AcDbVertex
100
AcDb2dVertex
 10
136.8973311359705
 20
99.55230068102096
 30
0.0
  0
VERTEX
  5
29B
330
28F
100
AcDbEntity
  8
Visible (ANSI)
100
AcDbVertex
100
AcDb2dVertex
 10
136.8985222693105
 20
99.54991574430529
 30
0.0
  0
VERTEX
  5
29C
330
28F
100
AcDbEntity
  8
Visible (ANSI)
100
AcDbVertex
100
AcDb2dVertex
 10
136.8998195671906
 20
99.54753681498688
 30
0.0
  0
VERTEX
  5
29D
330
28F
100
AcDbEntity
  8
Visible (ANSI)
100
AcDbVertex
100
AcDb2dVertex
 10
136.9012174743085
 20
99.54515788566848
 30
0.0
  0
VERTEX
  5
29E
330
28F
100
AcDbEntity
  8
Visible (ANSI)
100
AcDbVertex
100
AcDb2dVertex
 10
136.9027100045334
 20
99.54277294895279
 30
0.0
  0
VERTEX
  5
29F
330
28F
100
AcDbEntity
  8
Visible (ANSI)
100
AcDbVertex
100
AcDb2dVertex
 10
136.9042907669389
 20
99.54039401963438
 30
0.0
  0
VERTEX
  5
2A0
330
28F
100
AcDbEntity
  8
Visible (ANSI)
100
AcDbVertex
100
AcDb2dVertex
 10
136.9059529922035
 20
99.53801509031599
 30
0.0
  0
VERTEX
  5
2A1
330
28F
100
AcDbEntity
  8
Visible (ANSI)
100
AcDbVertex
100
AcDb2dVertex
 10
136.9076895612092
 20
99.53563015360032
 30
0.0
  0
VERTEX
  5
2A2
330
28F
100
AcDbEntity
  8
Visible (ANSI)
100
AcDbVertex
100
AcDb2dVertex
 10
136.9094930402418
 20
99.53325122428189
 30
0.0
  0
VERTEX
  5
2A3
330
28F
100
AcDbEntity
  8
Visible (ANSI)
100
AcDbVertex
100
AcDb2dVertex
 10
136.9113557044575
 20
99.5308722949635
 30
0.0
  0
VERTEX
  5
2A4
330
28F
100
AcDbEntity
  8
Visible (ANSI)
100
AcDbVertex
100
AcDb2dVertex
 10
136.913269578215
 20
99.5284933656451
 30
0.0
  0
VERTEX
  5
2A5
330
28F
100
AcDbEntity
  8
Visible (ANSI)
100
AcDbVertex
100
AcDb2dVertex
 10
136.9152264658755
 20
99.52610842892942
 30
0.0
  0
VERTEX
  5
2A6
330
28F
100
AcDbEntity
  8
Visible (ANSI)
100
AcDbVertex
100
AcDb2dVertex
 10
136.9172179884692
 20
99.52372949961102
 30
0.0
  0
VERTEX
  5
2A7
330
28F
100
AcDbEntity
  8
Visible (ANSI)
100
AcDbVertex
100
AcDb2dVertex
 10
136.9192356174281
 20
99.52135057029261
 30
0.0
  0
VERTEX
  5
2A8
330
28F
100
AcDbEntity
  8
Visible (ANSI)
100
AcDbVertex
100
AcDb2dVertex
 10
136.9212707141851
 20
99.51896563357692
 30
0.0
  0
VERTEX
  5
2A9
330
28F
100
AcDbEntity
  8
Visible (ANSI)
100
AcDbVertex
100
AcDb2dVertex
 10
136.9233145609745
 20
99.51658670425851
 30
0.0
  0
SEQEND
  5
292
330
28F
100
AcDbEntity
  8
Visible (ANSI)
  0
LINE
  5
2AA
330
6C
100
AcDbEntity
  8
Visible (ANSI)
100
AcDbLine
 10
136.8920645614438
 20
99.57372498204826
 30
0.0
 11
136.8869391595705
 21
99.57372498204824
 31
0.0
  0
LINE
  5
2AB
330
6C
100
AcDbEntity
  8
Visible (ANSI)
100
AcDbLine
 10
136.8869391595705
 20
99.57372498204824
 30
0.0
 11
136.7670645614438
 21
99.57372498204826
 31
0.0
  0
LINE
  5
2AC
330
6C
100
AcDbEntity
  8
Visible (ANSI)
100
AcDbLine
 10
136.9233145614439
 20
99.51658663439992
 30
0.0
 11
137.6420645614438
 21
99.51658663439992
 31
0.0
  0
POLYLINE
  5
2AD
330
6C
100
AcDbEntity
  8
Visible (ANSI)
100
AcDb2dPolyline
 66
     1
 10
0.0
 20
0.0
 30
0.0
 70
   128
  0
VERTEX
  5
2AE
330
2AD
100
AcDbEntity
  8
Visible (ANSI)
100
AcDbVertex
100
AcDb2dVertex
 10
136.9233145609744
 20
99.72997546264005
 30
0.0
  0
VERTEX
  5
2AF
330
2AD
100
AcDbEntity
  8
Visible (ANSI)
100
AcDbVertex
100
AcDb2dVertex
 10
136.913095322628
 20
99.729639048393
 30
0.0
  0
VERTEX
  5
2B1
330
2AD
100
AcDbEntity
  8
Visible (ANSI)
100
AcDbVertex
100
AcDb2dVertex
 10
136.902919843976
 20
99.72863581304913
 30
0.0
  0
VERTEX
  5
2B2
330
2AD
100
AcDbEntity
  8
Visible (ANSI)
100
AcDbVertex
100
AcDb2dVertex
 10
136.8928316986318
 20
99.7269717640057
 30
0.0
  0
VERTEX
  5
2B3
330
2AD
100
AcDbEntity
  8
Visible (ANSI)
100
AcDbVertex
100
AcDb2dVertex
 10
136.8828740854796
 20
99.72465290865997
 30
0.0
  0
VERTEX
  5
2B4
330
2AD
100
AcDbEntity
  8
Visible (ANSI)
100
AcDbVertex
100
AcDb2dVertex
 10
136.8730896457103
 20
99.72168525440926
 30
0.0
  0
VERTEX
  5
2B5
330
2AD
100
AcDbEntity
  8
Visible (ANSI)
100
AcDbVertex
100
AcDb2dVertex
 10
136.8635202754565
 20
99.71808081604804
 30
0.0
  0
VERTEX
  5
2B6
330
2AD
100
AcDbEntity
  8
Visible (ANSI)
100
AcDbVertex
100
AcDb2dVertex
 10
136.8542069529114
 20
99.7138636231654
 30
0.0
  0
VERTEX
  5
2B7
330
2AD
100
AcDbEntity
  8
Visible (ANSI)
100
AcDbVertex
100
AcDb2dVertex
 10
136.8451895621478
 20
99.70903968315862
 30
0.0
  0
VERTEX
  5
2B8
330
2AD
100
AcDbEntity
  8
Visible (ANSI)
100
AcDbVertex
100
AcDb2dVertex
 10
136.8365067141861
 20
99.70364504041134
 30
0.0
  0
VERTEX
  5
2B9
330
2AD
100
AcDbEntity
  8
Visible (ANSI)
100
AcDbVertex
100
AcDb2dVertex
 10
136.8281955856636
 20
99.69768570232078
 30
0.0
  0
VERTEX
  5
2BA
330
2AD
100
AcDbEntity
  8
Visible (ANSI)
100
AcDbVertex
100
AcDb2dVertex
 10
136.8202917751025
 20
99.69119771327058
 30
0.0
  0
VERTEX
  5
2BB
330
2AD
100
AcDbEntity
  8
Visible (ANSI)
100
AcDbVertex
100
AcDb2dVertex
 10
136.8128291269116
 20
99.68421111024708
 30
0.0
  0
VERTEX
  5
2BC
330
2AD
100
AcDbEntity
  8
Visible (ANSI)
100
AcDbVertex
100
AcDb2dVertex
 10
136.8058395905887
 20
99.67674992283935
 30
0.0
  0
VERTEX
  5
2BD
330
2AD
100
AcDbEntity
  8
Visible (ANSI)
100
AcDbVertex
100
AcDb2dVertex
 10
136.7993531033878
 20
99.66884418803376
 30
0.0
  0
VERTEX
  5
2BE
330
2AD
100
AcDbEntity
  8
Visible (ANSI)
100
AcDbVertex
100
AcDb2dVertex
 10
136.7933974377882
 20
99.66052995021385
 30
0.0
  0
VERTEX
  5
2BF
330
2AD
100
AcDbEntity
  8
Visible (ANSI)
100
AcDbVertex
100
AcDb2dVertex
 10
136.7879980900285
 20
99.65184926116059
 30
0.0
  0
VERTEX
  5
2C0
330
2AD
100
AcDbEntity
  8
Visible (ANSI)
100
AcDbVertex
100
AcDb2dVertex
 10
136.783178197975
 20
99.64283215786027
 30
0.0
  0
VERTEX
  5
2C1
330
2AD
100
AcDbEntity
  8
Visible (ANSI)
100
AcDbVertex
100
AcDb2dVertex
 10
136.7789583885893
 20
99.63352069209379
 30
0.0
  0
VERTEX
  5
2C2
330
2AD
100
AcDbEntity
  8
Visible (ANSI)
100
AcDbVertex
100
AcDb2dVertex
 10
136.7753567309959
 20
99.62395090824475
 30
0.0
  0
VERTEX
  5
2C3
330
2AD
100
AcDbEntity
  8
Visible (ANSI)
100
AcDbVertex
100
AcDb2dVertex
 10
136.7723886543501
 20
99.61416485809404
 30
0.0
  0
VERTEX
  5
2C4
330
2AD
100
AcDbEntity
  8
Visible (ANSI)
100
AcDbVertex
100
AcDb2dVertex
 10
136.7700668657049
 20
99.60421060081978
 30
0.0
  0
VERTEX
  5
2C5
330
2AD
100
AcDbEntity
  8
Visible (ANSI)
100
AcDbVertex
100
AcDb2dVertex
 10
136.7684013030789
 20
99.59411817340837
 30
0.0
  0
VERTEX
  5
2C6
330
2AD
100
AcDbEntity
  8
Visible (ANSI)
100
AcDbVertex
100
AcDb2dVertex
 10
136.7673991002565
 20
99.58394164243522
 30
0.0
  0
VERTEX
  5
2C7
330
2AD
100
AcDbEntity
  8
Visible (ANSI)
100
AcDbVertex
100
AcDb2dVertex
 10
136.7670645633211
 20
99.57372305968114
 30
0.0
  0
SEQEND
  5
2B0
330
2AD
100
AcDbEntity
  8
Visible (ANSI)
  0
LINE
  5
2C8
330
6C
100
AcDbEntity
  8
Visible (ANSI)
100
AcDbLine
 10
136.9233145614438
 20
99.60497498204821
 30
0.0
 11
137.6420645614438
 21
99.60497498204818
 31
0.0
  0
LINE
  5
2C9
330
6C
100
AcDbEntity
  8
Visible (ANSI)
100
AcDbLine
 10
137.6420645614438
 20
99.72997498204819
 30
0.0
 11
136.9233145614438
 21
99.7299749820482
 31
0.0
  0
LINE
  5
2CA
330
6C
100
AcDbEntity
  8
Visible (ANSI)
100
AcDbLine
 10
136.9233145614438
 20
99.60497498204821
 30
0.0
 11
136.9233145614438
 21
99.7299749820482
 31
0.0
  0
LINE
  5
2CB
330
6C
100
AcDbEntity
  8
Visible (ANSI)
100
AcDbLine
 10
137.6420645614438
 20
99.60497498204818
 30
0.0
 11
137.6420645614438
 21
99.72997498204819
 31
0.0
  0
POLYLINE
  5
2CC
330
6C
100
AcDbEntity
  8
Visible (ANSI)
100
AcDb2dPolyline
 66
     1
 10
0.0
 20
0.0
 30
0.0
 70
   128
  0
VERTEX
  5
2CD
330
2CC
100
AcDbEntity
  8
Visible (ANSI)
100
AcDbVertex
100
AcDb2dVertex
 10
136.8920645614438
 20
99.57372305968114
 30
0.0
  0
VERTEX
  5
2CE
330
2CC
100
AcDbEntity
  8
Visible (ANSI)
100
AcDbVertex
100
AcDb2dVertex
 10
136.8921314700901
 20
99.57577158214975
 30
0.0
  0
VERTEX
  5
2D0
330
2CC
100
AcDbEntity
  8
Visible (ANSI)
100
AcDbVertex
100
AcDb2dVertex
 10
136.8923319095282
 20
99.5778020824266
 30
0.0
  0
VERTEX
  5
2D1
330
2CC
100
AcDbEntity
  8
Visible (ANSI)
100
AcDbVertex
100
AcDb2dVertex
 10
136.892665021453
 20
99.57982056790887
 30
0.0
  0
VERTEX
  5
2D2
330
2CC
100
AcDbEntity
  8
Visible (ANSI)
100
AcDbVertex
100
AcDb2dVertex
 10
136.8931293793929
 20
99.58181502380208
 30
0.0
  0
VERTEX
  5
2D3
330
2CC
100
AcDbEntity
  8
Visible (ANSI)
100
AcDbVertex
100
AcDb2dVertex
 10
136.8937229948687
 20
99.58376742791442
 30
0.0
  0
VERTEX
  5
2D4
330
2CC
100
AcDbEntity
  8
Visible (ANSI)
100
AcDbVertex
100
AcDb2dVertex
 10
136.8944433261308
 20
99.58568378764312
 30
0.0
  0
VERTEX
  5
2D5
330
2CC
100
AcDbEntity
  8
Visible (ANSI)
100
AcDbVertex
100
AcDb2dVertex
 10
136.8952872884479
 20
99.58754608079644
 30
0.0
  0
VERTEX
  5
2D6
330
2CC
100
AcDbEntity
  8
Visible (ANSI)
100
AcDbVertex
100
AcDb2dVertex
 10
136.8962512674453
 20
99.58934829997703
 30
0.0
  0
VERTEX
  5
2D7
330
2CC
100
AcDbEntity
  8
Visible (ANSI)
100
AcDbVertex
100
AcDb2dVertex
 10
136.8973311359705
 20
99.59108443778768
 30
0.0
  0
VERTEX
  5
2D8
330
2CC
100
AcDbEntity
  8
Visible (ANSI)
100
AcDbVertex
100
AcDb2dVertex
 10
136.8985222693105
 20
99.59274848683111
 30
0.0
  0
VERTEX
  5
2D9
330
2CC
100
AcDbEntity
  8
Visible (ANSI)
100
AcDbVertex
100
AcDb2dVertex
 10
136.8998195671906
 20
99.59432843231278
 30
0.0
  0
VERTEX
  5
2DA
330
2CC
100
AcDbEntity
  8
Visible (ANSI)
100
AcDbVertex
100
AcDb2dVertex
 10
136.9012174743085
 20
99.59582427423269
 30
0.0
  0
VERTEX
  5
2DB
330
2CC
100
AcDbEntity
  8
Visible (ANSI)
100
AcDbVertex
100
AcDb2dVertex
 10
136.9027100045334
 20
99.59721799039902
 30
0.0
  0
VERTEX
  5
2DC
330
2CC
100
AcDbEntity
  8
Visible (ANSI)
100
AcDbVertex
100
AcDb2dVertex
 10
136.9042907669389
 20
99.59851558820908
 30
0.0
  0
VERTEX
  5
2DD
330
2CC
100
AcDbEntity
  8
Visible (ANSI)
100
AcDbVertex
100
AcDb2dVertex
 10
136.9059529922034
 20
99.59971106026555
 30
0.0
  0
VERTEX
  5
2DE
330
2CC
100
AcDbEntity
  8
Visible (ANSI)
100
AcDbVertex
100
AcDb2dVertex
 10
136.9076895612091
 20
99.60078638437664
 30
0.0
  0
VERTEX
  5
2DF
330
2CC
100
AcDbEntity
  8
Visible (ANSI)
100
AcDbVertex
100
AcDb2dVertex
 10
136.9094930402418
 20
99.60175357533691
 30
0.0
  0
VERTEX
  5
2E0
330
2CC
100
AcDbEntity
  8
Visible (ANSI)
100
AcDbVertex
100
AcDb2dVertex
 10
136.9113557044575
 20
99.60259461095454
 30
0.0
  0
VERTEX
  5
2E1
330
2CC
100
AcDbEntity
  8
Visible (ANSI)
100
AcDbVertex
100
AcDb2dVertex
 10
136.9132695782149
 20
99.60331549862678
 30
0.0
  0
VERTEX
  5
2E2
330
2CC
100
AcDbEntity
  8
Visible (ANSI)
100
AcDbVertex
100
AcDb2dVertex
 10
136.9152264658755
 20
99.60391023095638
 30
0.0
  0
VERTEX
  5
2E3
330
2CC
100
AcDbEntity
  8
Visible (ANSI)
100
AcDbVertex
100
AcDb2dVertex
 10
136.9172179884692
 20
99.60437280054605
 30
0.0
  0
VERTEX
  5
2E4
330
2CC
100
AcDbEntity
  8
Visible (ANSI)
100
AcDbVertex
100
AcDb2dVertex
 10
136.9192356174281
 20
99.60470921479311
 30
0.0
  0
VERTEX
  5
2E5
330
2CC
100
AcDbEntity
  8
Visible (ANSI)
100
AcDbVertex
100
AcDb2dVertex
 10
136.9212707141851
 20
99.60490745890297
 30
0.0
  0
VERTEX
  5
2E6
330
2CC
100
AcDbEntity
  8
Visible (ANSI)
100
AcDbVertex
100
AcDb2dVertex
 10
136.9233145609744
 20
99.60497354027292
 30
0.0
  0
SEQEND
  5
2CF
330
2CC
100
AcDbEntity
  8
Visible (ANSI)
  0
LINE
  5
2E7
330
6C
100
AcDbEntity
  8
Visible (ANSI)
100
AcDbLine
 10
136.7670645614438
 20
31.8862249820483
 30
0.0
 11
136.7670645614438
 21
99.57372498204826
 31
0.0
  0
LINE
  5
2E8
330
6C
100
AcDbEntity
  8
Visible (ANSI)
100
AcDbLine
 10
137.6420645614438
 20
99.51658663439992
 30
0.0
 11
137.6420645614438
 21
31.94336332969662
 31
0.0
  0
DIMENSION
  5
2E9
330
6C
100
AcDbEntity
  8
Dimension (ANSI)
100
AcDbDimension
280
     0
  2
*D4
 10
13.62032969121246
 20
99.72997498204826
 30
0.0
 11
13.62032969121244
 21
65.72997498204826
 31
0.0
 70
   160
  1
<>
 42
67.99999999999998
 73
     0
 74
     0
 75
     0
  3
Default (ANSI)
100
AcDbAlignedDimension
 13
34.11888596466372
 23
31.72997498204827
 33
0.0
 14
34.11888596466373
 24
99.72997498204826
 34
0.0
 50
90.0
100
AcDbRotatedDimension
1001
ACAD
1000
DSTYLE
1002
{
1070
   289
1070
     1
1070
   271
1070
     2
1070
   272
1070
     2
1070
    48
1040
0.0
1070
    47
1040
0.0
1002
}
  0
DIMENSION
  5
3D6
330
6C
100
AcDbEntity
  8
Dimension (ANSI)
100
AcDbDimension
280
     0
  2
*D5
 10
29.09285721011768
 20
65.72997498204827
 30
0.0
 11
29.09285721011767
 21
49.16747498204826
 31
0.0
 70
   160
  1
<>
 42
33.12500000000001
 73
     0
 74
     0
 75
     0
  3
Default (ANSI)
100
AcDbAlignedDimension
 13
34.78049761701541
 23
32.60497498204826
 33
0.0
 14
34.78049761701541
 24
65.72997498204826
 34
0.0
 50
90.0
100
AcDbRotatedDimension
1001
ACAD
1000
DSTYLE
1002
{
1070
   289
1070
     1
1070
   271
1070
     2
1070
   272
1070
     3
1070
    48
1040
0.0
1070
    47
1040
0.0
1002
}
  0
DIMENSION
  5
4C0
330
6C
100
AcDbEntity
  8
Dimension (ANSI)
100
AcDbDimension
280
     0
  2
*D6
 10
22.20274729935521
 20
98.85497498204827
 30
0.0
 11
22.20274729935519
 21
65.72997498204824
 31
0.0
 70
   160
  1
<>
 42
66.25
 73
     0
 74
     0
 75
     0
  3
Default (ANSI)
100
AcDbAlignedDimension
 13
34.78049761701541
 23
32.60497498204826
 33
0.0
 14
34.78049761701541
 24
98.85497498204825
 34
0.0
 50
90.0
100
AcDbRotatedDimension
1001
ACAD
1000
DSTYLE
1002
{
1070
   289
1070
     1
1070
   271
1070
     2
1070
   272
1070
     3
1070
    48
1040
0.0
1070
    47
1040
0.0
1002
}
  0
DIMENSION
  5
5AA
330
6C
100
AcDbEntity
  8
Dimension (ANSI)
100
AcDbDimension
280
     0
  2
*D7
 10
101.9054976170153
 20
113.6703307500514
 30
0.0
 11
67.90549761701538
 21
113.6703307500514
 31
0.0
 70
   160
  1
<>
 42
67.99999999999994
 73
     0
 74
     0
 75
     0
  3
Default (ANSI)
100
AcDbAlignedDimension
 13
33.90549761701541
 23
99.51658663439994
 33
0.0
 14
101.9054976170153
 24
99.51658663439992
 34
0.0
100
AcDbRotatedDimension
1001
ACAD
1000
DSTYLE
1002
{
1070
   289
1070
     1
1070
    73
1070
     0
1070
    74
1070
     0
1070
   271
1070
     2
1070
   272
1070
     2
1070
    48
1040
0.0
1070
    47
1040
0.0
1002
}
  0
DIMENSION
  5
694
330
6C
100
AcDbEntity
  8
Dimension (ANSI)
100
AcDbDimension
280
     0
  2
*D8
 10
101.0304976170154
 20
108.2637372209999
 30
0.0
 11
67.45054934699003
 21
108.2637372209999
 31
0.0
 70
   160
  1
<>
 42
66.25
 73
     0
 74
     0
 75
     0
  3
Default (ANSI)
100
AcDbAlignedDimension
 13
34.78049761701541
 23
98.85497498204825
 33
0.0
 14
101.0304976170154
 24
98.85497498204825
 34
0.0
 50
180.0
100
AcDbRotatedDimension
1001
ACAD
1000
DSTYLE
1002
{
1070
   289
1070
     1
1070
    73
1070
     0
1070
    74
1070
     0
1070
   271
1070
     2
1070
   272
1070
     3
1070
    48
1040
0.0
1070
    47
1040
0.0
1002
}
  0
DIMENSION
  5
77E
330
6C
100
AcDbEntity
  8
Dimension (ANSI)
100
AcDbDimension
280
     0
  2
*D9
 10
67.9054976170154
 20
103.5793844308671
 30
0.0
 11
51.34299761701541
 21
103.5793844308671
 31
0.0
 70
   160
  1
<>
 42
33.125
 73
     0
 74
     0
 75
     0
  3
Default (ANSI)
100
AcDbAlignedDimension
 13
34.78049761701541
 23
98.85497498204825
 33
0.0
 14
67.9054976170154
 24
98.85497498204825
 34
0.0
 50
180.0
100
AcDbRotatedDimension
1001
ACAD
1000
DSTYLE
1002
{
1070
   289
1070
     1
1070
    73
1070
     0
1070
    74
1070
     0
1070
   271
1070
     2
1070
   272
1070
     3
1070
    48
1040
0.0
1070
    47
1040
0.0
1002
}
  0
DIMENSION
  5
868
330
6C
100
AcDbEntity
  8
Dimension (ANSI)
100
AcDbDimension
280
     0
  2
*D10
 10
113.0373399675036
 20
32.60497498204828
 30
0.0
 11
109.5760148329941
 21
27.54032438977566
 31
0.0
 70
   160
  1
<>{ \PTYP.}
 42
0.8749999999999964
 73
     0
 74
     0
 75
     0
  3
Default (ANSI)
100
AcDbAlignedDimension
 13
101.6921092693671
 23
31.72997498204829
 33
0.0
 14
101.0304976170154
 24
32.60497498204828
 34
0.0
 50
90.0
100
AcDbRotatedDimension
1001
ACAD
1000
DSTYLE
1002
{
1070
   289
1070
     1
1070
   145
1040
-0.25
1070
   271
1070
     2
1070
   272
1070
     2
1070
    48
1040
0.0
1070
    47
1040
0.0
1002
}
  0
DIMENSION
  5
97E
330
6C
100
AcDbEntity
  8
Dimension (ANSI)
100
AcDbDimension
280
     0
  2
*D11
 10
101.0304976170154
 20
28.48819151643021
 30
0.0
 11
95.72321941380209
 21
28.48819151643021
 31
0.0
 70
   160
  1
<>{\PTYP.}
 42
0.8749999999999857
 73
     0
 74
     0
 75
     0
  3
Default (ANSI)
100
AcDbAlignedDimension
 13
101.9054976170154
 23
31.94336332969662
 33
0.0
 14
101.0304976170154
 24
32.60497498204828
 34
0.0
 50
180.0
100
AcDbRotatedDimension
1001
ACAD
1000
DSTYLE
1002
{
1070
   289
1070
     1
1070
    73
1070
     0
1070
    74
1070
     0
1070
   145
1040
-0.25
1070
   271
1070
     2
1070
   272
1070
     2
1070
    48
1040
0.0
1070
    47
1040
0.0
1002
}
  0
DIMENSION
  5
A7C
330
6C
100
AcDbEntity
  8
Dimension (ANSI)
100
AcDbDimension
280
     0
  2
*D12
 10
137.6420645614438
 20
102.8795812812608
 30
0.0
 11
131.5709370998076
 21
102.8795812812608
 31
0.0
 70
   160
  1
<>
 42
0.8749999999999715
 73
     0
 74
     0
 75
     0
  3
Default (ANSI)
100
AcDbAlignedDimension
 13
136.7670645614438
 23
99.57372498204826
 33
0.0
 14
137.6420645614438
 24
99.72997498204819
 34
0.0
100
AcDbRotatedDimension
1001
ACAD
1000
DSTYLE
1002
{
1070
   289
1070
     1
1070
    73
1070
     0
1070
    74
1070
     0
1070
   271
1070
     2
1070
   272
1070
     2
1070
    48
1040
0.0
1070
    47
1040
0.0
1002
}
  0
ELLIPSE
  5
B66
330
6C
100
AcDbEntity
  8
Visible (ANSI)
100
AcDbEllipse
 10
194.7410371028052
 20
53.93902564126886
 30
0.0
 11
-0.105358175670758
 21
0.1829574279561496
 31
0.0
210
0.0
220
0.0
230
1.0
 40
0.5780931159158129
 41
0.0
 42
6.283185307179586
  0
ELLIPSE
  5
B67
330
6C
100
AcDbEntity
  8
Visible (ANSI)
100
AcDbEllipse
 10
194.8073283635414
 20
53.97720023943688
 30
0.0
 11
-0.1053581756707589
 21
0.1829574279561512
 31
0.0
210
0.0
220
0.0
230
1.0
 40
0.5780931159158129
 41
0.3187556839588489
 42
2.822836969630836
  0
ELLIPSE
  5
B68
330
6C
100
AcDbEntity
  8
Visible (ANSI)
100
AcDbEllipse
 10
159.6066689125932
 20
74.17156267032234
 30
0.0
 11
-0.105358175670758
 21
0.1829574279561496
 31
0.0
210
0.0
220
0.0
230
1.0
 40
0.5780931159158129
 41
0.0
 42
6.283185307179586
  0
ELLIPSE
  5
B69
330
6C
100
AcDbEntity
  8
Visible (ANSI)
100
AcDbEllipse
 10
159.6729601733295
 20
74.20973726849038
 30
0.0
 11
-0.1053581756707579
 21
0.1829574279561494
 31
0.0
210
0.0
220
0.0
230
1.0
 40
0.5780931159158129
 41
0.3187556839588481
 42
2.822836969630836
  0
ELLIPSE
  5
B6A
330
6C
100
AcDbEntity
  8
Visible (ANSI)
100
AcDbEllipse
 10
177.1738530076992
 20
49.8759612093078
 30
0.0
 11
-0.105358175670758
 21
0.1829574279561496
 31
0.0
210
0.0
220
0.0
230
1.0
 40
0.5780931159158129
 41
0.0
 42
6.283185307179586
  0
ELLIPSE
  5
B6B
330
6C
100
AcDbEntity
  8
Visible (ANSI)
100
AcDbEllipse
 10
177.2401442684354
 20
49.91413580747584
 30
0.0
 11
-0.1053581756707582
 21
0.1829574279561499
 31
0.0
210
0.0
220
0.0
230
0.9999999999999998
 40
0.578093115915813
 41
0.3187556839588481
 42
2.822836969630835
  0
ELLIPSE
  5
B6C
330
6C
100
AcDbEntity
  8
Visible (ANSI)
100
AcDbEllipse
 10
194.7410371028052
 20
60.0706290775879
 30
0.0
 11
-0.105358175670758
 21
0.1829574279561496
 31
0.0
210
0.0
220
0.0
230
1.0
 40
0.5780931159158129
 41
0.0
 42
6.283185307179586
  0
ELLIPSE
  5
B6D
330
6C
100
AcDbEntity
  8
Visible (ANSI)
100
AcDbEllipse
 10
194.8073283635414
 20
60.10880367575594
 30
0.0
 11
-0.1053581756707561
 21
0.1829574279561464
 31
0.0
210
0.0
220
0.0
230
1.0
 40
0.578093115915813
 41
0.3187556839588055
 42
2.822836969630836
  0
ELLIPSE
  5
B6E
330
6C
100
AcDbEntity
  8
Visible (ANSI)
100
AcDbEllipse
 10
194.7410371028052
 20
39.75969269478106
 30
0.0
 11
-0.105358175670758
 21
0.1829574279561496
 31
0.0
210
0.0
220
0.0
230
1.0
 40
0.5780931159158129
 41
0.0
 42
6.283185307179586
  0
ELLIPSE
  5
B6F
330
6C
100
AcDbEntity
  8
Visible (ANSI)
100
AcDbEllipse
 10
194.8073283635414
 20
39.79786729294909
 30
0.0
 11
-0.1053581756707586
 21
0.1829574279561507
 31
0.0
210
0.0
220
0.0
230
1.0
 40
0.5780931159158129
 41
0.3187556839588481
 42
2.822836969630813
  0
ELLIPSE
  5
B70
330
6C
100
AcDbEntity
  8
Visible (ANSI)
100
AcDbEllipse
 10
159.6066689125932
 20
59.99222972383454
 30
0.0
 11
-0.105358175670758
 21
0.1829574279561496
 31
0.0
210
0.0
220
0.0
230
1.0
 40
0.5780931159158129
 41
0.0
 42
6.283185307179586
  0
ELLIPSE
  5
B71
330
6C
100
AcDbEntity
  8
Visible (ANSI)
100
AcDbEllipse
 10
159.6729601733295
 20
60.03040432200258
 30
0.0
 11
-0.105358175670758
 21
0.1829574279561495
 31
0.0
210
0.0
220
0.0
230
1.0
 40
0.5780931159158128
 41
0.3187556839588481
 42
2.822836969630835
  0
ELLIPSE
  5
B72
330
6C
100
AcDbEntity
  8
Visible (ANSI)
100
AcDbEllipse
 10
159.6066689125932
 20
80.30316610664138
 30
0.0
 11
-0.105358175670758
 21
0.1829574279561496
 31
0.0
210
0.0
220
0.0
230
1.0
 40
0.5780931159158129
 41
0.0
 42
6.283185307179586
  0
ELLIPSE
  5
B73
330
6C
100
AcDbEntity
  8
Visible (ANSI)
100
AcDbEllipse
 10
159.6729601733295
 20
80.34134070480941
 30
0.0
 11
-0.1053581756707579
 21
0.1829574279561494
 31
0.0
210
0.0
220
0.0
230
1.0
 40
0.5780931159158129
 41
0.3187556839588481
 42
2.822836969630857
  0
ELLIPSE
  5
B74
330
6C
100
AcDbEntity
  8
Visible (ANSI)
100
AcDbEllipse
 10
194.7410371028052
 20
80.38156546039473
 30
0.0
 11
-0.105358175670758
 21
0.1829574279561496
 31
0.0
210
0.0
220
0.0
230
1.0
 40
0.5780931159158129
 41
0.0
 42
6.283185307179586
  0
ELLIPSE
  5
B75
330
6C
100
AcDbEntity
  8
Visible (ANSI)
100
AcDbEllipse
 10
194.8073283635414
 20
80.41974005856276
 30
0.0
 11
-0.105358175670758
 21
0.1829574279561495
 31
0.0
210
0.0
220
0.0
230
1.0
 40
0.5780931159158128
 41
0.3187556839588481
 42
2.822836969630857
  0
ELLIPSE
  5
B76
330
6C
100
AcDbEntity
  8
Visible (ANSI)
100
AcDbEllipse
 10
177.1738530076992
 20
90.49783397492147
 30
0.0
 11
-0.105358175670758
 21
0.1829574279561496
 31
0.0
210
0.0
220
0.0
230
1.0
 40
0.5780931159158129
 41
0.0
 42
6.283185307179586
  0
ELLIPSE
  5
B77
330
6C
100
AcDbEntity
  8
Visible (ANSI)
100
AcDbEllipse
 10
177.2401442684355
 20
90.53600857308952
 30
0.0
 11
-0.105358175670758
 21
0.1829574279561495
 31
0.0
210
0.0
220
0.0
230
1.0
 40
0.5780931159158128
 41
0.3187556839588481
 42
2.822836969630857
  0
ELLIPSE
  5
B78
330
6C
100
AcDbEntity
  8
Visible (ANSI)
100
AcDbEllipse
 10
159.6066689125932
 20
100.6141024894482
 30
0.0
 11
-0.105358175670758
 21
0.1829574279561496
 31
0.0
210
0.0
220
0.0
230
1.0
 40
0.5780931159158129
 41
0.0
 42
6.283185307179586
  0
ELLIPSE
  5
B79
330
6C
100
AcDbEntity
  8
Visible (ANSI)
100
AcDbEllipse
 10
159.6729601733295
 20
100.6522770876163
 30
0.0
 11
-0.1053581756707565
 21
0.182957427956147
 31
0.0
210
0.0
220
0.0
230
1.0
 40
0.5780931159158129
 41
0.3187556839588481
 42
2.822836969630857
  0
POLYLINE
  5
B7A
330
6C
100
AcDbEntity
  8
Visible (ANSI)
100
AcDb2dPolyline
 66
     1
 10
0.0
 20
0.0
 30
0.0
 70
   128
  0
VERTEX
  5
B7B
330
B7A
100
AcDbEntity
  8
Visible (ANSI)
100
AcDbVertex
100
AcDb2dVertex
 10
195.1222108335451
 20
39.09948034454866
 30
0.0
  0
VERTEX
  5
B7C
330
B7A
100
AcDbEntity
  8
Visible (ANSI)
100
AcDbVertex
100
AcDb2dVertex
 10
195.121126630757
 20
39.09404299582424
 30
0.0
  0
VERTEX
  5
B7E
330
B7A
100
AcDbEntity
  8
Visible (ANSI)
100
AcDbVertex
100
AcDb2dVertex
 10
195.1203965112762
 20
39.08883638497223
 30
0.0
  0
VERTEX
  5
B7F
330
B7A
100
AcDbEntity
  8
Visible (ANSI)
100
AcDbVertex
100
AcDb2dVertex
 10
195.1200150055534
 20
39.08388774412156
 30
0.0
  0
VERTEX
  5
B80
330
B7A
100
AcDbEntity
  8
Visible (ANSI)
100
AcDbVertex
100
AcDb2dVertex
 10
195.1199847021352
 20
39.07921771488675
 30
0.0
  0
VERTEX
  5
B81
330
B7A
100
AcDbEntity
  8
Visible (ANSI)
100
AcDbVertex
100
AcDb2dVertex
 10
195.120297144688
 20
39.07485124106967
 30
0.0
  0
VERTEX
  5
B82
330
B7A
100
AcDbEntity
  8
Visible (ANSI)
100
AcDbVertex
100
AcDb2dVertex
 10
195.1209424083756
 20
39.07081197117221
 30
0.0
  0
VERTEX
  5
B83
330
B7A
100
AcDbEntity
  8
Visible (ANSI)
100
AcDbVertex
100
AcDb2dVertex
 10
195.1219186824598
 20
39.06711664290912
 30
0.0
  0
VERTEX
  5
B84
330
B7A
100
AcDbEntity
  8
Visible (ANSI)
100
AcDbVertex
100
AcDb2dVertex
 10
195.1232131984367
 20
39.06378603339507
 30
0.0
  0
VERTEX
  5
B85
330
B7A
100
AcDbEntity
  8
Visible (ANSI)
100
AcDbVertex
100
AcDb2dVertex
 10
195.1248150172081
 20
39.06083751617033
 30
0.0
  0
VERTEX
  5
B86
330
B7A
100
AcDbEntity
  8
Visible (ANSI)
100
AcDbVertex
100
AcDb2dVertex
 10
195.1267086821638
 20
39.05828865848164
 30
0.0
  0
VERTEX
  5
B87
330
B7A
100
AcDbEntity
  8
Visible (ANSI)
100
AcDbVertex
100
AcDb2dVertex
 10
195.1288870436884
 20
39.05614982498767
 30
0.0
  0
VERTEX
  5
B88
330
B7A
100
AcDbEntity
  8
Visible (ANSI)
100
AcDbVertex
100
AcDb2dVertex
 10
195.1313321872972
 20
39.05443512255045
 30
0.0
  0
VERTEX
  5
B89
330
B7A
100
AcDbEntity
  8
Visible (ANSI)
100
AcDbVertex
100
AcDb2dVertex
 10
195.1340250504599
 20
39.05315683683071
 30
0.0
  0
VERTEX
  5
B8A
330
B7A
100
AcDbEntity
  8
Visible (ANSI)
100
AcDbVertex
100
AcDb2dVertex
 10
195.1369550612039
 20
39.05231989401482
 30
0.0
  0
VERTEX
  5
B8B
330
B7A
100
AcDbEntity
  8
Visible (ANSI)
100
AcDbVertex
100
AcDb2dVertex
 10
195.1401010849173
 20
39.05193282534894
 30
0.0
  0
VERTEX
  5
B8C
330
B7A
100
AcDbEntity
  8
Visible (ANSI)
100
AcDbVertex
100
AcDb2dVertex
 10
195.1434410567293
 20
39.05200222798048
 30
0.0
  0
VERTEX
  5
B8D
330
B7A
100
AcDbEntity
  8
Visible (ANSI)
100
AcDbVertex
100
AcDb2dVertex
 10
195.1469616325578
 20
39.05252725813261
 30
0.0
  0
VERTEX
  5
B8E
330
B7A
100
AcDbEntity
  8
Visible (ANSI)
100
AcDbVertex
100
AcDb2dVertex
 10
195.1506391499132
 20
39.05351061314319
 30
0.0
  0
VERTEX
  5
B8F
330
B7A
100
AcDbEntity
  8
Visible (ANSI)
100
AcDbVertex
100
AcDb2dVertex
 10
195.1544524570721
 20
39.0549511927146
 30
0.0
  0
VERTEX
  5
B90
330
B7A
100
AcDbEntity
  8
Visible (ANSI)
100
AcDbVertex
100
AcDb2dVertex
 10
195.1583766361621
 20
39.05684777382701
 30
0.0
  0
VERTEX
  5
B91
330
B7A
100
AcDbEntity
  8
Visible (ANSI)
100
AcDbVertex
100
AcDb2dVertex
 10
195.1623958402105
 20
39.05919168495421
 30
0.0
  0
VERTEX
  5
B92
330
B7A
100
AcDbEntity
  8
Visible (ANSI)
100
AcDbVertex
100
AcDb2dVertex
 10
195.1664842694077
 20
39.06197783438155
 30
0.0
  0
VERTEX
  5
B93
330
B7A
100
AcDbEntity
  8
Visible (ANSI)
100
AcDbVertex
100
AcDb2dVertex
 10
195.1706158281819
 20
39.06519923730111
 30
0.0
  0
VERTEX
  5
B94
330
B7A
100
AcDbEntity
  8
Visible (ANSI)
100
AcDbVertex
100
AcDb2dVertex
 10
195.1747737799422
 20
39.06884154856079
 30
0.0
  0
SEQEND
  5
B7D
330
B7A
100
AcDbEntity
  8
Visible (ANSI)
  0
POLYLINE
  5
B95
330
6C
100
AcDbEntity
  8
Visible (ANSI)
100
AcDb2dPolyline
 66
     1
 10
0.0
 20
0.0
 30
0.0
 70
   128
  0
VERTEX
  5
B96
330
B95
100
AcDbEntity
  8
Visible (ANSI)
100
AcDbVertex
100
AcDb2dVertex
 10
159.2650662986033
 20
59.7084437526525
 30
0.0
  0
VERTEX
  5
B97
330
B95
100
AcDbEntity
  8
Visible (ANSI)
100
AcDbVertex
100
AcDb2dVertex
 10
159.2625393482106
 20
59.70997168618531
 30
0.0
  0
VERTEX
  5
B99
330
B95
100
AcDbEntity
  8
Visible (ANSI)
100
AcDbVertex
100
AcDb2dVertex
 10
159.260077366604
 20
59.71160764871556
 30
0.0
  0
VERTEX
  5
B9A
330
B95
100
AcDbEntity
  8
Visible (ANSI)
100
AcDbVertex
100
AcDb2dVertex
 10
159.2576823263059
 20
59.71335027251591
 30
0.0
  0
VERTEX
  5
B9B
330
B95
100
AcDbEntity
  8
Visible (ANSI)
100
AcDbVertex
100
AcDb2dVertex
 10
159.2553561158354
 20
59.71519807313858
 30
0.0
  0
VERTEX
  5
B9C
330
B95
100
AcDbEntity
  8
Visible (ANSI)
100
AcDbVertex
100
AcDb2dVertex
 10
159.2531005645978
 20
59.71714946015127
 30
0.0
  0
VERTEX
  5
B9D
330
B95
100
AcDbEntity
  8
Visible (ANSI)
100
AcDbVertex
100
AcDb2dVertex
 10
159.250917411773
 20
59.71920271562367
 30
0.0
  0
VERTEX
  5
B9E
330
B95
100
AcDbEntity
  8
Visible (ANSI)
100
AcDbVertex
100
AcDb2dVertex
 10
159.2488083312048
 20
59.72135603004349
 30
0.0
  0
VERTEX
  5
B9F
330
B95
100
AcDbEntity
  8
Visible (ANSI)
100
AcDbVertex
100
AcDb2dVertex
 10
159.2467749096224
 20
59.72360747538639
 30
0.0
  0
VERTEX
  5
BA0
330
B95
100
AcDbEntity
  8
Visible (ANSI)
100
AcDbVertex
100
AcDb2dVertex
 10
159.2448186590856
 20
59.72595502307399
 30
0.0
  0
VERTEX
  5
BA1
330
B95
100
AcDbEntity
  8
Visible (ANSI)
100
AcDbVertex
100
AcDb2dVertex
 10
159.2429409920946
 20
59.72839653323792
 30
0.0
  0
VERTEX
  5
BA2
330
B95
100
AcDbEntity
  8
Visible (ANSI)
100
AcDbVertex
100
AcDb2dVertex
 10
159.2411432589248
 20
59.73092977981672
 30
0.0
  0
VERTEX
  5
BA3
330
B95
100
AcDbEntity
  8
Visible (ANSI)
100
AcDbVertex
100
AcDb2dVertex
 10
159.2394267102924
 20
59.73355242545893
 30
0.0
  0
VERTEX
  5
BA4
330
B95
100
AcDbEntity
  8
Visible (ANSI)
100
AcDbVertex
100
AcDb2dVertex
 10
159.2377925097986
 20
59.73626203588396
 30
0.0
  0
VERTEX
  5
BA5
330
B95
100
AcDbEntity
  8
Visible (ANSI)
100
AcDbVertex
100
AcDb2dVertex
 10
159.2362417339306
 20
59.73905608707653
 30
0.0
  0
VERTEX
  5
BA6
330
B95
100
AcDbEntity
  8
Visible (ANSI)
100
AcDbVertex
100
AcDb2dVertex
 10
159.2347753720606
 20
59.74193197248088
 30
0.0
  0
VERTEX
  5
BA7
330
B95
100
AcDbEntity
  8
Visible (ANSI)
100
AcDbVertex
100
AcDb2dVertex
 10
159.2333943264465
 20
59.74488698141787
 30
0.0
  0
VERTEX
  5
BA8
330
B95
100
AcDbEntity
  8
Visible (ANSI)
100
AcDbVertex
100
AcDb2dVertex
 10
159.2320993935642
 20
59.74791833509823
 30
0.0
  0
VERTEX
  5
BA9
330
B95
100
AcDbEntity
  8
Visible (ANSI)
100
AcDbVertex
100
AcDb2dVertex
 10
159.2308912952199
 20
59.7510231541787
 30
0.0
  0
VERTEX
  5
BAA
330
B95
100
AcDbEntity
  8
Visible (ANSI)
100
AcDbVertex
100
AcDb2dVertex
 10
159.2297706412155
 20
59.75419849481689
 30
0.0
  0
VERTEX
  5
BAB
330
B95
100
AcDbEntity
  8
Visible (ANSI)
100
AcDbVertex
100
AcDb2dVertex
 10
159.2287379666832
 20
59.75744133419948
 30
0.0
  0
VERTEX
  5
BAC
330
B95
100
AcDbEntity
  8
Visible (ANSI)
100
AcDbVertex
100
AcDb2dVertex
 10
159.2277936885284
 20
59.76074856704208
 30
0.0
  0
VERTEX
  5
BAD
330
B95
100
AcDbEntity
  8
Visible (ANSI)
100
AcDbVertex
100
AcDb2dVertex
 10
159.2269381552092
 20
59.76411703425555
 30
0.0
  0
VERTEX
  5
BAE
330
B95
100
AcDbEntity
  8
Visible (ANSI)
100
AcDbVertex
100
AcDb2dVertex
 10
159.226171596957
 20
59.76754350147413
 30
0.0
  0
VERTEX
  5
BAF
330
B95
100
AcDbEntity
  8
Visible (ANSI)
100
AcDbVertex
100
AcDb2dVertex
 10
159.2254941631109
 20
59.77102466616639
 30
0.0
  0
SEQEND
  5
B98
330
B95
100
AcDbEntity
  8
Visible (ANSI)
  0
LINE
  5
BB0
330
6C
100
AcDbEntity
  8
Visible (ANSI)
100
AcDbLine
 10
159.5941158750552
 20
59.92923879611049
 30
0.0
 11
159.7198351733294
 21
60.00163572506135
 31
0.0
  0
LINE
  5
BB1
330
6C
100
AcDbEntity
  8
Visible (ANSI)
100
AcDbLine
 10
195.1747737431429
 20
39.09369319643765
 30
0.0
 11
195.1747737431429
 21
39.06884157003871
 31
0.0
  0
LINE
  5
BB2
330
6C
100
AcDbEntity
  8
Visible (ANSI)
100
AcDbLine
 10
195.1747737431429
 20
39.06884157003871
 30
0.0
 11
195.2434710090599
 21
39.1084016944427
 31
0.0
  0
LINE
  5
BB3
330
6C
100
AcDbEntity
  8
Visible (ANSI)
100
AcDbLine
 10
195.2859393240013
 20
39.13285757052283
 30
0.0
 11
195.5559484923763
 21
39.28834550950492
 31
0.0
  0
LINE
  5
BB4
330
6C
100
AcDbEntity
  8
Visible (ANSI)
100
AcDbLine
 10
195.5559484923763
 20
39.28885055127259
 30
0.0
 11
195.5559484923763
 21
39.28834550950492
 31
0.0
  0
POLYLINE
  5
BB5
330
6C
100
AcDbEntity
  8
Visible (ANSI)
100
AcDb2dPolyline
 66
     1
 10
0.0
 20
0.0
 30
0.0
 70
   128
  0
VERTEX
  5
BB6
330
BB5
100
AcDbEntity
  8
Visible (ANSI)
100
AcDbVertex
100
AcDb2dVertex
 10
195.1222108335451
 20
80.60276992685279
 30
0.0
  0
VERTEX
  5
BB7
330
BB5
100
AcDbEntity
  8
Visible (ANSI)
100
AcDbVertex
100
AcDb2dVertex
 10
195.1278074704164
 20
80.59829270591523
 30
0.0
  0
VERTEX
  5
BB9
330
BB5
100
AcDbEntity
  8
Visible (ANSI)
100
AcDbVertex
100
AcDb2dVertex
 10
195.1337358892704
 20
80.59403223047196
 30
0.0
  0
VERTEX
  5
BBA
330
BB5
100
AcDbEntity
  8
Visible (ANSI)
100
AcDbVertex
100
AcDb2dVertex
 10
195.1399715051368
 20
80.58999634443983
 30
0.0
  0
VERTEX
  5
BBB
330
BB5
100
AcDbEntity
  8
Visible (ANSI)
100
AcDbVertex
100
AcDb2dVertex
 10
195.1464818616236
 20
80.58620674793791
 30
0.0
  0
VERTEX
  5
BBC
330
BB5
100
AcDbEntity
  8
Visible (ANSI)
100
AcDbVertex
100
AcDb2dVertex
 10
195.1532457587831
 20
80.58266589562862
 30
0.0
  0
VERTEX
  5
BBD
330
BB5
100
AcDbEntity
  8
Visible (ANSI)
100
AcDbVertex
100
AcDb2dVertex
 10
195.1602309704545
 20
80.57938090043947
 30
0.0
  0
VERTEX
  5
BBE
330
BB5
100
AcDbEntity
  8
Visible (ANSI)
100
AcDbVertex
100
AcDb2dVertex
 10
195.1674070127682
 20
80.57636725983035
 30
0.0
  0
VERTEX
  5
BBF
330
BB5
100
AcDbEntity
  8
Visible (ANSI)
100
AcDbVertex
100
AcDb2dVertex
 10
195.1747451877027
 20
80.57362677988985
 30
0.0
  0
VERTEX
  5
BC0
330
BB5
100
AcDbEntity
  8
Visible (ANSI)
100
AcDbVertex
100
AcDb2dVertex
 10
195.182212254835
 20
80.57116600368878
 30
0.0
  0
VERTEX
  5
BC1
330
BB5
100
AcDbEntity
  8
Visible (ANSI)
100
AcDbVertex
100
AcDb2dVertex
 10
195.1897800139411
 20
80.5689833546986
 30
0.0
  0
VERTEX
  5
BC2
330
BB5
100
AcDbEntity
  8
Visible (ANSI)
100
AcDbVertex
100
AcDb2dVertex
 10
195.1974126422739
 20
80.56709125592417
 30
0.0
  0
VERTEX
  5
BC3
330
BB5
100
AcDbEntity
  8
Visible (ANSI)
100
AcDbVertex
100
AcDb2dVertex
 10
195.2050762958312
 20
80.56548855008072
 30
0.0
  0
VERTEX
  5
BC4
330
BB5
100
AcDbEntity
  8
Visible (ANSI)
100
AcDbVertex
100
AcDb2dVertex
 10
195.2127391684688
 20
80.56417158412838
 30
0.0
  0
VERTEX
  5
BC5
330
BB5
100
AcDbEntity
  8
Visible (ANSI)
100
AcDbVertex
100
AcDb2dVertex
 10
195.2203715727928
 20
80.56314530634812
 30
0.0
  0
VERTEX
  5
BC6
330
BB5
100
AcDbEntity
  8
Visible (ANSI)
100
AcDbVertex
100
AcDb2dVertex
 10
195.2279396305773
 20
80.56240487046748
 30
0.0
  0
VERTEX
  5
BC7
330
BB5
100
AcDbEntity
  8
Visible (ANSI)
100
AcDbVertex
100
AcDb2dVertex
 10
195.2354053474341
 20
80.56194672915337
 30
0.0
  0
VERTEX
  5
BC8
330
BB5
100
AcDbEntity
  8
Visible (ANSI)
100
AcDbVertex
100
AcDb2dVertex
 10
195.2427458215704
 20
80.56176873041568
 30
0.0
  0
VERTEX
  5
BC9
330
BB5
100
AcDbEntity
  8
Visible (ANSI)
100
AcDbVertex
100
AcDb2dVertex
 10
195.2499214609793
 20
80.56186640691391
 30
0.0
  0
VERTEX
  5
BCA
330
BB5
100
AcDbEntity
  8
Visible (ANSI)
100
AcDbVertex
100
AcDb2dVertex
 10
195.2569079280336
 20
80.56222941282037
 30
0.0
  0
VERTEX
  5
BCB
330
BB5
100
AcDbEntity
  8
Visible (ANSI)
100
AcDbVertex
100
AcDb2dVertex
 10
195.2636707471506
 20
80.56284888858801
 30
0.0
  0
VERTEX
  5
BCC
330
BB5
100
AcDbEntity
  8
Visible (ANSI)
100
AcDbVertex
100
AcDb2dVertex
 10
195.2701813277435
 20
80.56372307554775
 30
0.0
  0
VERTEX
  5
BCD
330
BB5
100
AcDbEntity
  8
Visible (ANSI)
100
AcDbVertex
100
AcDb2dVertex
 10
195.2764138700024
 20
80.56483710235911
 30
0.0
  0
VERTEX
  5
BCE
330
BB5
100
AcDbEntity
  8
Visible (ANSI)
100
AcDbVertex
100
AcDb2dVertex
 10
195.282342278356
 20
80.56617592736369
 30
0.0
  0
VERTEX
  5
BCF
330
BB5
100
AcDbEntity
  8
Visible (ANSI)
100
AcDbVertex
100
AcDb2dVertex
 10
195.2879402585026
 20
80.56773544495543
 30
0.0
  0
SEQEND
  5
BB8
330
BB5
100
AcDbEntity
  8
Visible (ANSI)
  0
POLYLINE
  5
BD0
330
6C
100
AcDbEntity
  8
Visible (ANSI)
100
AcDb2dPolyline
 66
     1
 10
0.0
 20
0.0
 30
0.0
 70
   128
  0
VERTEX
  5
BD1
330
BD0
100
AcDbEntity
  8
Visible (ANSI)
100
AcDbVertex
100
AcDb2dVertex
 10
195.2879402585026
 20
39.13451457314294
 30
0.0
  0
VERTEX
  5
BD2
330
BD0
100
AcDbEntity
  8
Visible (ANSI)
100
AcDbVertex
100
AcDb2dVertex
 10
195.282342278356
 20
39.13003660299877
 30
0.0
  0
VERTEX
  5
BD4
330
BD0
100
AcDbEntity
  8
Visible (ANSI)
100
AcDbVertex
100
AcDb2dVertex
 10
195.2764138700024
 20
39.125775641944
 30
0.0
  0
VERTEX
  5
BD5
330
BD0
100
AcDbEntity
  8
Visible (ANSI)
100
AcDbVertex
100
AcDb2dVertex
 10
195.2701813277435
 20
39.12174316258023
 30
0.0
  0
VERTEX
  5
BD6
330
BD0
100
AcDbEntity
  8
Visible (ANSI)
100
AcDbVertex
100
AcDb2dVertex
 10
195.2636707471506
 20
39.11795052306805
 30
0.0
  0
VERTEX
  5
BD7
330
BD0
100
AcDbEntity
  8
Visible (ANSI)
100
AcDbVertex
100
AcDb2dVertex
 10
195.2569079280336
 20
39.11440889686155
 30
0.0
  0
VERTEX
  5
BD8
330
BD0
100
AcDbEntity
  8
Visible (ANSI)
100
AcDbVertex
100
AcDb2dVertex
 10
195.2499214609793
 20
39.11112743840267
 30
0.0
  0
VERTEX
  5
BD9
330
BD0
100
AcDbEntity
  8
Visible (ANSI)
100
AcDbVertex
100
AcDb2dVertex
 10
195.2427458215704
 20
39.10811130935199
 30
0.0
  0
VERTEX
  5
BDA
330
BD0
100
AcDbEntity
  8
Visible (ANSI)
100
AcDbVertex
100
AcDb2dVertex
 10
195.2354053474341
 20
39.10537085553726
 30
0.0
  0
VERTEX
  5
BDB
330
BD0
100
AcDbEntity
  8
Visible (ANSI)
100
AcDbVertex
100
AcDb2dVertex
 10
195.2279396305773
 20
39.10290685360683
 30
0.0
  0
VERTEX
  5
BDC
330
BD0
100
AcDbEntity
  8
Visible (ANSI)
100
AcDbVertex
100
AcDb2dVertex
 10
195.2203715727928
 20
39.10072883693504
 30
0.0
  0
VERTEX
  5
BDD
330
BD0
100
AcDbEntity
  8
Visible (ANSI)
100
AcDbVertex
100
AcDb2dVertex
 10
195.2127391684688
 20
39.0988366621629
 30
0.0
  0
VERTEX
  5
BDE
330
BD0
100
AcDbEntity
  8
Visible (ANSI)
100
AcDbVertex
100
AcDb2dVertex
 10
195.2050762958312
 20
39.0972314848707
 30
0.0
  0
VERTEX
  5
BDF
330
BD0
100
AcDbEntity
  8
Visible (ANSI)
100
AcDbVertex
100
AcDb2dVertex
 10
195.1974126422739
 20
39.09591573816172
 30
0.0
  0
VERTEX
  5
BE0
330
BD0
100
AcDbEntity
  8
Visible (ANSI)
100
AcDbVertex
100
AcDb2dVertex
 10
195.1897800139411
 20
39.0948893771894
 30
0.0
  0
VERTEX
  5
BE1
330
BD0
100
AcDbEntity
  8
Visible (ANSI)
100
AcDbVertex
100
AcDb2dVertex
 10
195.182212254835
 20
39.09414989012937
 30
0.0
  0
VERTEX
  5
BE2
330
BD0
100
AcDbEntity
  8
Visible (ANSI)
100
AcDbVertex
100
AcDb2dVertex
 10
195.1747451877027
 20
39.09369220658367
 30
0.0
  0
VERTEX
  5
BE3
330
BD0
100
AcDbEntity
  8
Visible (ANSI)
100
AcDbVertex
100
AcDb2dVertex
 10
195.1674070127682
 20
39.09351423397178
 30
0.0
  0
VERTEX
  5
BE4
330
BD0
100
AcDbEntity
  8
Visible (ANSI)
100
AcDbVertex
100
AcDb2dVertex
 10
195.1602309704545
 20
39.09360942202845
 30
0.0
  0
VERTEX
  5
BE5
330
BD0
100
AcDbEntity
  8
Visible (ANSI)
100
AcDbVertex
100
AcDb2dVertex
 10
195.1532457587831
 20
39.09397227397306
 30
0.0
  0
VERTEX
  5
BE6
330
BD0
100
AcDbEntity
  8
Visible (ANSI)
100
AcDbVertex
100
AcDb2dVertex
 10
195.1464818616236
 20
39.09459467372993
 30
0.0
  0
VERTEX
  5
BE7
330
BD0
100
AcDbEntity
  8
Visible (ANSI)
100
AcDbVertex
100
AcDb2dVertex
 10
195.1399715051368
 20
39.09546581048508
 30
0.0
  0
VERTEX
  5
BE8
330
BD0
100
AcDbEntity
  8
Visible (ANSI)
100
AcDbVertex
100
AcDb2dVertex
 10
195.1337358892704
 20
39.09657956046702
 30
0.0
  0
VERTEX
  5
BE9
330
BD0
100
AcDbEntity
  8
Visible (ANSI)
100
AcDbVertex
100
AcDb2dVertex
 10
195.1278074704164
 20
39.09792158335785
 30
0.0
  0
VERTEX
  5
BEA
330
BD0
100
AcDbEntity
  8
Visible (ANSI)
100
AcDbVertex
100
AcDb2dVertex
 10
195.1222108335451
 20
39.09948034454866
 30
0.0
  0
SEQEND
  5
BD3
330
BD0
100
AcDbEntity
  8
Visible (ANSI)
  0
LINE
  5
BEB
330
6C
100
AcDbEntity
  8
Visible (ANSI)
100
AcDbLine
 10
195.2217476388743
 20
80.60596709746755
 30
0.0
 11
195.6028234923762
 21
80.82541408666967
 31
0.0
  0
LINE
  5
BEC
330
6C
100
AcDbEntity
  8
Visible (ANSI)
100
AcDbLine
 10
195.6691147531125
 20
39.35401866667433
 30
0.0
 11
195.2879400038792
 21
39.13451472720812
 31
0.0
  0
LINE
  5
BED
330
6C
100
AcDbEntity
  8
Visible (ANSI)
100
AcDbLine
 10
195.2244416488205
 20
80.60430181978926
 30
0.0
 11
195.2879400038792
 21
80.56773554903543
 31
0.0
  0
POLYLINE
  5
BEE
330
6C
100
AcDbEntity
  8
Visible (ANSI)
100
AcDb2dPolyline
 66
     1
 10
0.0
 20
0.0
 30
0.0
 70
   128
  0
VERTEX
  5
BEF
330
BEE
100
AcDbEntity
  8
Visible (ANSI)
100
AcDbVertex
100
AcDb2dVertex
 10
195.1885020932857
 20
80.6409445244475
 30
0.0
  0
VERTEX
  5
BF0
330
BEE
100
AcDbEntity
  8
Visible (ANSI)
100
AcDbVertex
100
AcDb2dVertex
 10
195.18952253815
 20
80.63905758740437
 30
0.0
  0
VERTEX
  5
BF2
330
BEE
100
AcDbEntity
  8
Visible (ANSI)
100
AcDbVertex
100
AcDb2dVertex
 10
195.1905989489166
 20
80.63720654826056
 30
0.0
  0
VERTEX
  5
BF3
330
BEE
100
AcDbEntity
  8
Visible (ANSI)
100
AcDbVertex
100
AcDb2dVertex
 10
195.1917278222419
 20
80.63539305885431
 30
0.0
  0
VERTEX
  5
BF4
330
BEE
100
AcDbEntity
  8
Visible (ANSI)
100
AcDbVertex
100
AcDb2dVertex
 10
195.1929022584938
 20
80.633620484511
 30
0.0
  0
VERTEX
  5
BF5
330
BEE
100
AcDbEntity
  8
Visible (ANSI)
100
AcDbVertex
100
AcDb2dVertex
 10
195.1941215214037
 20
80.63188840124169
 30
0.0
  0
VERTEX
  5
BF6
330
BEE
100
AcDbEntity
  8
Visible (ANSI)
100
AcDbVertex
100
AcDb2dVertex
 10
195.1953782969468
 20
80.63019993573893
 30
0.0
  0
VERTEX
  5
BF7
330
BEE
100
AcDbEntity
  8
Visible (ANSI)
100
AcDbVertex
100
AcDb2dVertex
 10
195.1966714406752
 20
80.62855074546119
 30
0.0
  0
VERTEX
  5
BF8
330
BEE
100
AcDbEntity
  8
Visible (ANSI)
100
AcDbVertex
100
AcDb2dVertex
 10
195.1979932376038
 20
80.62695109319889
 30
0.0
  0
VERTEX
  5
BF9
330
BEE
100
AcDbEntity
  8
Visible (ANSI)
100
AcDbVertex
100
AcDb2dVertex
 10
195.199342151172
 20
80.62539641060784
 30
0.0
  0
VERTEX
  5
BFA
330
BEE
100
AcDbEntity
  8
Visible (ANSI)
100
AcDbVertex
100
AcDb2dVertex
 10
195.2007100848798
 20
80.62388937378292
 30
0.0
  0
VERTEX
  5
BFB
330
BEE
100
AcDbEntity
  8
Visible (ANSI)
100
AcDbVertex
100
AcDb2dVertex
 10
195.202095132124
 20
80.62242888478458
 30
0.0
  0
VERTEX
  5
BFC
330
BEE
100
AcDbEntity
  8
Visible (ANSI)
100
AcDbVertex
100
AcDb2dVertex
 10
195.2034888396822
 20
80.6210174142849
 30
0.0
  0
VERTEX
  5
BFD
330
BEE
100
AcDbEntity
  8
Visible (ANSI)
100
AcDbVertex
100
AcDb2dVertex
 10
195.204888957549
 20
80.61965366659196
 30
0.0
  0
VERTEX
  5
BFE
330
BEE
100
AcDbEntity
  8
Visible (ANSI)
100
AcDbVertex
100
AcDb2dVertex
 10
195.2062898913368
 20
80.61833808939185
 30
0.0
  0
VERTEX
  5
BFF
330
BEE
100
AcDbEntity
  8
Visible (ANSI)
100
AcDbVertex
100
AcDb2dVertex
 10
195.2076890812781
 20
80.61706552511472
 30
0.0
  0
VERTEX
  5
C00
330
BEE
100
AcDbEntity
  8
Visible (ANSI)
100
AcDbVertex
100
AcDb2dVertex
 10
195.2090742671667
 20
80.61584728841177
 30
0.0
  0
VERTEX
  5
C01
330
BEE
100
AcDbEntity
  8
Visible (ANSI)
100
AcDbVertex
100
AcDb2dVertex
 10
195.2104489868645
 20
80.61467439454522
 30
0.0
  0
VERTEX
  5
C02
330
BEE
100
AcDbEntity
  8
Visible (ANSI)
100
AcDbVertex
100
AcDb2dVertex
 10
195.2118039128922
 20
80.61354881073617
 30
0.0
  0
VERTEX
  5
C03
330
BEE
100
AcDbEntity
  8
Visible (ANSI)
100
AcDbVertex
100
AcDb2dVertex
 10
195.2131327908919
 20
80.61247060461912
 30
0.0
  0
VERTEX
  5
C04
330
BEE
100
AcDbEntity
  8
Visible (ANSI)
100
AcDbVertex
100
AcDb2dVertex
 10
195.2144324536276
 20
80.61143795230407
 30
0.0
  0
VERTEX
  5
C05
330
BEE
100
AcDbEntity
  8
Visible (ANSI)
100
AcDbVertex
100
AcDb2dVertex
 10
195.2156996436373
 20
80.61044897794349
 30
0.0
  0
VERTEX
  5
C06
330
BEE
100
AcDbEntity
  8
Visible (ANSI)
100
AcDbVertex
100
AcDb2dVertex
 10
195.2169310256782
 20
80.60950176089882
 30
0.0
  0
VERTEX
  5
C07
330
BEE
100
AcDbEntity
  8
Visible (ANSI)
100
AcDbVertex
100
AcDb2dVertex
 10
195.2181168289204
 20
80.60859432958473
 30
0.0
  0
VERTEX
  5
C08
330
BEE
100
AcDbEntity
  8
Visible (ANSI)
100
AcDbVertex
100
AcDb2dVertex
 10
195.2192599678122
 20
80.60772839075669
 30
0.0
  0
SEQEND
  5
BF1
330
BEE
100
AcDbEntity
  8
Visible (ANSI)
  0
LINE
  5
C09
330
6C
100
AcDbEntity
  8
Visible (ANSI)
100
AcDbLine
 10
195.1885031127748
 20
80.64094511608207
 30
0.0
 11
195.1857849579591
 21
80.63937983482633
 31
0.0
  0
LINE
  5
C0A
330
6C
100
AcDbEntity
  8
Visible (ANSI)
100
AcDbLine
 10
195.1857849579591
 20
80.63937983482633
 30
0.0
 11
195.1222118520386
 21
80.60277051791402
 31
0.0
  0
LINE
  5
C0B
330
6C
100
AcDbEntity
  8
Visible (ANSI)
100
AcDbLine
 10
195.2879400038792
 20
80.56773554903543
 30
0.0
 11
195.6691147531125
 21
80.78723948850164
 31
0.0
  0
LINE
  5
C0C
330
6C
100
AcDbEntity
  8
Visible (ANSI)
100
AcDbLine
 10
195.6028234923762
 20
80.82541408666967
 30
0.0
 11
195.6691147531125
 21
80.78723948850164
 31
0.0
  0
POLYLINE
  5
C0D
330
6C
100
AcDbEntity
  8
Visible (ANSI)
100
AcDb2dPolyline
 66
     1
 10
0.0
 20
0.0
 30
0.0
 70
   128
  0
VERTEX
  5
C0E
330
C0D
100
AcDbEntity
  8
Visible (ANSI)
100
AcDbVertex
100
AcDb2dVertex
 10
159.2254941631109
 20
101.2743142484705
 30
0.0
  0
VERTEX
  5
C0F
330
C0D
100
AcDbEntity
  8
Visible (ANSI)
100
AcDbVertex
100
AcDb2dVertex
 10
159.2269341728298
 20
101.2799549647465
 30
0.0
  0
VERTEX
  5
C11
330
C0D
100
AcDbEntity
  8
Visible (ANSI)
100
AcDbVertex
100
AcDb2dVertex
 10
159.2287282596335
 20
101.2857738031371
 30
0.0
  0
VERTEX
  5
C12
330
C0D
100
AcDbEntity
  8
Visible (ANSI)
100
AcDbVertex
100
AcDb2dVertex
 10
159.2308741460987
 20
101.2917436605103
 30
0.0
  0
VERTEX
  5
C13
330
C0D
100
AcDbEntity
  8
Visible (ANSI)
100
AcDbVertex
100
AcDb2dVertex
 10
159.2333680551875
 20
101.2978292031681
 30
0.0
  0
VERTEX
  5
C14
330
C0D
100
AcDbEntity
  8
Visible (ANSI)
100
AcDbVertex
100
AcDb2dVertex
 10
159.2362047040247
 20
101.3040089857494
 30
0.0
  0
VERTEX
  5
C15
330
C0D
100
AcDbEntity
  8
Visible (ANSI)
100
AcDbVertex
100
AcDb2dVertex
 10
159.2393773661228
 20
101.3102496524122
 30
0.0
  0
VERTEX
  5
C16
330
C0D
100
AcDbEntity
  8
Visible (ANSI)
100
AcDbVertex
100
AcDb2dVertex
 10
159.2428778464914
 20
101.3165207138242
 30
0.0
  0
VERTEX
  5
C17
330
C0D
100
AcDbEntity
  8
Visible (ANSI)
100
AcDbVertex
100
AcDb2dVertex
 10
159.2466965687529
 20
101.322794547163
 30
0.0
  0
VERTEX
  5
C18
330
C0D
100
AcDbEntity
  8
Visible (ANSI)
100
AcDbVertex
100
AcDb2dVertex
 10
159.2508226000312
 20
101.3290390649532
 30
0.0
  0
VERTEX
  5
C19
330
C0D
100
AcDbEntity
  8
Visible (ANSI)
100
AcDbVertex
100
AcDb2dVertex
 10
159.255243657175
 20
101.3352287906423
 30
0.0
  0
VERTEX
  5
C1A
330
C0D
100
AcDbEntity
  8
Visible (ANSI)
100
AcDbVertex
100
AcDb2dVertex
 10
159.2599462312065
 20
101.3413301461102
 30
0.0
  0
VERTEX
  5
C1B
330
C0D
100
AcDbEntity
  8
Visible (ANSI)
100
AcDbVertex
100
AcDb2dVertex
 10
159.2649155810997
 20
101.3473125559109
 30
0.0
  0
VERTEX
  5
C1C
330
C0D
100
AcDbEntity
  8
Visible (ANSI)
100
AcDbVertex
100
AcDb2dVertex
 10
159.2701358426729
 20
101.3531484526478
 30
0.0
  0
VERTEX
  5
C1D
330
C0D
100
AcDbEntity
  8
Visible (ANSI)
100
AcDbVertex
100
AcDb2dVertex
 10
159.2755900597014
 20
101.3588133522224
 30
0.0
  0
VERTEX
  5
C1E
330
C0D
100
AcDbEntity
  8
Visible (ANSI)
100
AcDbVertex
100
AcDb2dVertex
 10
159.2812602896993
 20
101.3642784975889
 30
0.0
  0
VERTEX
  5
C1F
330
C0D
100
AcDbEntity
  8
Visible (ANSI)
100
AcDbVertex
100
AcDb2dVertex
 10
159.2871276599218
 20
101.3695109125033
 30
0.0
  0
VERTEX
  5
C20
330
C0D
100
AcDbEntity
  8
Visible (ANSI)
100
AcDbVertex
100
AcDb2dVertex
 10
159.2931724420347
 20
101.3744955670087
 30
0.0
  0
VERTEX
  5
C21
330
C0D
100
AcDbEntity
  8
Visible (ANSI)
100
AcDbVertex
100
AcDb2dVertex
 10
159.2993741656747
 20
101.3791985648536
 30
0.0
  0
VERTEX
  5
C22
330
C0D
100
AcDbEntity
  8
Visible (ANSI)
100
AcDbVertex
100
AcDb2dVertex
 10
159.305711679118
 20
101.3836040420729
 30
0.0
  0
VERTEX
  5
C23
330
C0D
100
AcDbEntity
  8
Visible (ANSI)
100
AcDbVertex
100
AcDb2dVertex
 10
159.312163262841
 20
101.3876847429002
 30
0.0
  0
VERTEX
  5
C24
330
C0D
100
AcDbEntity
  8
Visible (ANSI)
100
AcDbVertex
100
AcDb2dVertex
 10
159.3187066731739
 20
101.391420519729
 30
0.0
  0
VERTEX
  5
C25
330
C0D
100
AcDbEntity
  8
Visible (ANSI)
100
AcDbVertex
100
AcDb2dVertex
 10
159.3253193086555
 20
101.3947946594122
 30
0.0
  0
VERTEX
  5
C26
330
C0D
100
AcDbEntity
  8
Visible (ANSI)
100
AcDbVertex
100
AcDb2dVertex
 10
159.3319782596177
 20
101.3977902856519
 30
0.0
  0
VERTEX
  5
C27
330
C0D
100
AcDbEntity
  8
Visible (ANSI)
100
AcDbVertex
100
AcDb2dVertex
 10
159.3386604176625
 20
101.4003904077086
 30
0.0
  0
SEQEND
  5
C10
330
C0D
100
AcDbEntity
  8
Visible (ANSI)
  0
POLYLINE
  5
C28
330
6C
100
AcDbEntity
  8
Visible (ANSI)
100
AcDb2dPolyline
 66
     1
 10
0.0
 20
0.0
 30
0.0
 70
   128
  0
VERTEX
  5
C29
330
C28
100
AcDbEntity
  8
Visible (ANSI)
100
AcDbVertex
100
AcDb2dVertex
 10
195.1747737799422
 20
80.76374521021014
 30
0.0
  0
VERTEX
  5
C2A
330
C28
100
AcDbEntity
  8
Visible (ANSI)
100
AcDbVertex
100
AcDb2dVertex
 10
195.1706158281819
 20
80.75969149442871
 30
0.0
  0
VERTEX
  5
C2C
330
C28
100
AcDbEntity
  8
Visible (ANSI)
100
AcDbVertex
100
AcDb2dVertex
 10
195.1664842694077
 20
80.75524043982467
 30
0.0
  0
VERTEX
  5
C2D
330
C28
100
AcDbEntity
  8
Visible (ANSI)
100
AcDbVertex
100
AcDb2dVertex
 10
195.1623958402105
 20
80.75041270641674
 30
0.0
  0
VERTEX
  5
C2E
330
C28
100
AcDbEntity
  8
Visible (ANSI)
100
AcDbVertex
100
AcDb2dVertex
 10
195.1583766361621
 20
80.74522333586337
 30
0.0
  0
VERTEX
  5
C2F
330
C28
100
AcDbEntity
  8
Visible (ANSI)
100
AcDbVertex
100
AcDb2dVertex
 10
195.1544524570721
 20
80.73968719950503
 30
0.0
  0
VERTEX
  5
C30
330
C28
100
AcDbEntity
  8
Visible (ANSI)
100
AcDbVertex
100
AcDb2dVertex
 10
195.1506391499132
 20
80.73382812856118
 30
0.0
  0
VERTEX
  5
C31
330
C28
100
AcDbEntity
  8
Visible (ANSI)
100
AcDbVertex
100
AcDb2dVertex
 10
195.1469616325578
 20
80.72767153699158
 30
0.0
  0
VERTEX
  5
C32
330
C28
100
AcDbEntity
  8
Visible (ANSI)
100
AcDbVertex
100
AcDb2dVertex
 10
195.1434410567293
 20
80.72123328876157
 30
0.0
  0
VERTEX
  5
C33
330
C28
100
AcDbEntity
  8
Visible (ANSI)
100
AcDbVertex
100
AcDb2dVertex
 10
195.1401010849173
 20
80.71454544189951
 30
0.0
  0
VERTEX
  5
C34
330
C28
100
AcDbEntity
  8
Visible (ANSI)
100
AcDbVertex
100
AcDb2dVertex
 10
195.1369550612039
 20
80.70762670280833
 30
0.0
  0
VERTEX
  5
C35
330
C28
100
AcDbEntity
  8
Visible (ANSI)
100
AcDbVertex
100
AcDb2dVertex
 10
195.1340250504599
 20
80.70050820950909
 30
0.0
  0
VERTEX
  5
C36
330
C28
100
AcDbEntity
  8
Visible (ANSI)
100
AcDbVertex
100
AcDb2dVertex
 10
195.1313321872972
 20
80.69321688082451
 30
0.0
  0
VERTEX
  5
C37
330
C28
100
AcDbEntity
  8
Visible (ANSI)
100
AcDbVertex
100
AcDb2dVertex
 10
195.1288870436884
 20
80.68578087729923
 30
0.0
  0
VERTEX
  5
C38
330
C28
100
AcDbEntity
  8
Visible (ANSI)
100
AcDbVertex
100
AcDb2dVertex
 10
195.1267086821638
 20
80.67822592452342
 30
0.0
  0
VERTEX
  5
C39
330
C28
100
AcDbEntity
  8
Visible (ANSI)
100
AcDbVertex
100
AcDb2dVertex
 10
195.1248150172081
 20
80.67058077046981
 30
0.0
  0
VERTEX
  5
C3A
330
C28
100
AcDbEntity
  8
Visible (ANSI)
100
AcDbVertex
100
AcDb2dVertex
 10
195.1232131984367
 20
80.66288265537179
 30
0.0
  0
VERTEX
  5
C3B
330
C28
100
AcDbEntity
  8
Visible (ANSI)
100
AcDbVertex
100
AcDb2dVertex
 10
195.1219186824598
 20
80.65515522830835
 30
0.0
  0
VERTEX
  5
C3C
330
C28
100
AcDbEntity
  8
Visible (ANSI)
100
AcDbVertex
100
AcDb2dVertex
 10
195.1209424083756
 20
80.64743057317169
 30
0.0
  0
VERTEX
  5
C3D
330
C28
100
AcDbEntity
  8
Visible (ANSI)
100
AcDbVertex
100
AcDb2dVertex
 10
195.120297144688
 20
80.6397344745612
 30
0.0
  0
VERTEX
  5
C3E
330
C28
100
AcDbEntity
  8
Visible (ANSI)
100
AcDbVertex
100
AcDb2dVertex
 10
195.1199847021352
 20
80.63210109825527
 30
0.0
  0
VERTEX
  5
C3F
330
C28
100
AcDbEntity
  8
Visible (ANSI)
100
AcDbVertex
100
AcDb2dVertex
 10
195.1200150055534
 20
80.62456195828954
 30
0.0
  0
VERTEX
  5
C40
330
C28
100
AcDbEntity
  8
Visible (ANSI)
100
AcDbVertex
100
AcDb2dVertex
 10
195.1203965112762
 20
80.6171366725519
 30
0.0
  0
VERTEX
  5
C41
330
C28
100
AcDbEntity
  8
Visible (ANSI)
100
AcDbVertex
100
AcDb2dVertex
 10
195.121126630757
 20
80.60986424043676
 30
0.0
  0
VERTEX
  5
C42
330
C28
100
AcDbEntity
  8
Visible (ANSI)
100
AcDbVertex
100
AcDb2dVertex
 10
195.1222108335451
 20
80.60276992685279
 30
0.0
  0
SEQEND
  5
C2B
330
C28
100
AcDbEntity
  8
Visible (ANSI)
  0
LINE
  5
C43
330
6C
100
AcDbEntity
  8
Visible (ANSI)
100
AcDbLine
 10
195.1748681576706
 20
80.68715426376471
 30
0.0
 11
195.5559484923762
 21
80.90660383352041
 31
0.0
  0
LINE
  5
C44
330
6C
100
AcDbEntity
  8
Visible (ANSI)
100
AcDbLine
 10
195.5559484923762
 20
80.98324887647439
 30
0.0
 11
195.1747737431429
 21
80.76374493700818
 31
0.0
  0
LINE
  5
C45
330
6C
100
AcDbEntity
  8
Visible (ANSI)
100
AcDbLine
 10
195.1747737431429
 20
80.69024258722812
 30
0.0
 11
195.1747737431429
 21
80.76374493700818
 31
0.0
  0
LINE
  5
C46
330
6C
100
AcDbEntity
  8
Visible (ANSI)
100
AcDbLine
 10
195.5559484923762
 20
80.90660383352041
 30
0.0
 11
195.5559484923762
 21
80.98324887647439
 31
0.0
  0
POLYLINE
  5
C47
330
6C
100
AcDbEntity
  8
Visible (ANSI)
100
AcDb2dPolyline
 66
     1
 10
0.0
 20
0.0
 30
0.0
 70
   128
  0
VERTEX
  5
C48
330
C47
100
AcDbEntity
  8
Visible (ANSI)
100
AcDbVertex
100
AcDb2dVertex
 10
195.1885020932857
 20
80.6409445244475
 30
0.0
  0
VERTEX
  5
C49
330
C47
100
AcDbEntity
  8
Visible (ANSI)
100
AcDbVertex
100
AcDb2dVertex
 10
195.1873785280749
 20
80.64277503680481
 30
0.0
  0
VERTEX
  5
C4B
330
C47
100
AcDbEntity
  8
Visible (ANSI)
100
AcDbVertex
100
AcDb2dVertex
 10
195.1863111339983
 20
80.64463419825115
 30
0.0
  0
VERTEX
  5
C4C
330
C47
100
AcDbEntity
  8
Visible (ANSI)
100
AcDbVertex
100
AcDb2dVertex
 10
195.1853027773198
 20
80.64651999007843
 30
0.0
  0
VERTEX
  5
C4D
330
C47
100
AcDbEntity
  8
Visible (ANSI)
100
AcDbVertex
100
AcDb2dVertex
 10
195.1843529265319
 20
80.64842842271401
 30
0.0
  0
VERTEX
  5
C4E
330
C47
100
AcDbEntity
  8
Visible (ANSI)
100
AcDbVertex
100
AcDb2dVertex
 10
195.1834640261528
 20
80.65034986758726
 30
0.0
  0
VERTEX
  5
C4F
330
C47
100
AcDbEntity
  8
Visible (ANSI)
100
AcDbVertex
100
AcDb2dVertex
 10
195.1826287557166
 20
80.65228744768138
 30
0.0
  0
VERTEX
  5
C50
330
C47
100
AcDbEntity
  8
Visible (ANSI)
100
AcDbVertex
100
AcDb2dVertex
 10
195.1818491486578
 20
80.65423129769824
 30
0.0
  0
VERTEX
  5
C51
330
C47
100
AcDbEntity
  8
Visible (ANSI)
100
AcDbVertex
100
AcDb2dVertex
 10
195.1811238526589
 20
80.6561806388901
 30
0.0
  0
VERTEX
  5
C52
330
C47
100
AcDbEntity
  8
Visible (ANSI)
100
AcDbVertex
100
AcDb2dVertex
 10
195.1804545064654
 20
80.65812537867241
 30
0.0
  0
VERTEX
  5
C53
330
C47
100
AcDbEntity
  8
Visible (ANSI)
100
AcDbVertex
100
AcDb2dVertex
 10
195.17983300191
 20
80.66006818642145
 30
0.0
  0
VERTEX
  5
C54
330
C47
100
AcDbEntity
  8
Visible (ANSI)
100
AcDbVertex
100
AcDb2dVertex
 10
195.1792606054592
 20
80.6619987551717
 30
0.0
  0
VERTEX
  5
C55
330
C47
100
AcDbEntity
  8
Visible (ANSI)
100
AcDbVertex
100
AcDb2dVertex
 10
195.1787352211138
 20
80.66391219441964
 30
0.0
  0
VERTEX
  5
C56
330
C47
100
AcDbEntity
  8
Visible (ANSI)
100
AcDbVertex
100
AcDb2dVertex
 10
195.1782545848677
 20
80.66580720041086
 30
0.0
  0
VERTEX
  5
C57
330
C47
100
AcDbEntity
  8
Visible (ANSI)
100
AcDbVertex
100
AcDb2dVertex
 10
195.1778194574176
 20
80.66767685842407
 30
0.0
  0
VERTEX
  5
C58
330
C47
100
AcDbEntity
  8
Visible (ANSI)
100
AcDbVertex
100
AcDb2dVertex
 10
195.1774208900771
 20
80.66952335381271
 30
0.0
  0
VERTEX
  5
C59
330
C47
100
AcDbEntity
  8
Visible (ANSI)
100
AcDbVertex
100
AcDb2dVertex
 10
195.17705934992
 20
80.67133223577386
 30
0.0
  0
VERTEX
  5
C5A
330
C47
100
AcDbEntity
  8
Visible (ANSI)
100
AcDbVertex
100
AcDb2dVertex
 10
195.176731983556
 20
80.67310922814479
 30
0.0
  0
VERTEX
  5
C5B
330
C47
100
AcDbEntity
  8
Visible (ANSI)
100
AcDbVertex
100
AcDb2dVertex
 10
195.1764390033269
 20
80.67483973343204
 30
0.0
  0
VERTEX
  5
C5C
330
C47
100
AcDbEntity
  8
Visible (ANSI)
100
AcDbVertex
100
AcDb2dVertex
 10
195.1761709495259
 20
80.67652932620985
 30
0.0
  0
VERTEX
  5
C5D
330
C47
100
AcDbEntity
  8
Visible (ANSI)
100
AcDbVertex
100
AcDb2dVertex
 10
195.1759278205975
 20
80.67817065280504
 30
0.0
  0
VERTEX
  5
C5E
330
C47
100
AcDbEntity
  8
Visible (ANSI)
100
AcDbVertex
100
AcDb2dVertex
 10
195.1757063396345
 20
80.67976182617226
 30
0.0
  0
VERTEX
  5
C5F
330
C47
100
AcDbEntity
  8
Visible (ANSI)
100
AcDbVertex
100
AcDb2dVertex
 10
195.1755063378526
 20
80.68129539633764
 30
0.0
  0
VERTEX
  5
C60
330
C47
100
AcDbEntity
  8
Visible (ANSI)
100
AcDbVertex
100
AcDb2dVertex
 10
195.1753180218651
 20
80.68277306222425
 30
0.0
  0
VERTEX
  5
C61
330
C47
100
AcDbEntity
  8
Visible (ANSI)
100
AcDbVertex
100
AcDb2dVertex
 10
195.1751411062165
 20
80.68418730667161
 30
0.0
  0
SEQEND
  5
C4A
330
C47
100
AcDbEntity
  8
Visible (ANSI)
  0
LINE
  5
C62
330
6C
100
AcDbEntity
  8
Visible (ANSI)
100
AcDbLine
 10
159.3386604240961
 20
101.4003901096107
 30
0.0
 11
159.7198351733294
 21
101.6198940490768
 31
0.0
  0
POLYLINE
  5
C63
330
6C
100
AcDbEntity
  8
Visible (ANSI)
100
AcDb2dPolyline
 66
     1
 10
0.0
 20
0.0
 30
0.0
 70
   128
  0
VERTEX
  5
C64
330
C63
100
AcDbEntity
  8
Visible (ANSI)
100
AcDbVertex
100
AcDb2dVertex
 10
159.2254941631109
 20
59.77102466616639
 30
0.0
  0
VERTEX
  5
C65
330
C63
100
AcDbEntity
  8
Visible (ANSI)
100
AcDbVertex
100
AcDb2dVertex
 10
159.2228272943074
 20
59.77334140507439
 30
0.0
  0
VERTEX
  5
C67
330
C63
100
AcDbEntity
  8
Visible (ANSI)
100
AcDbVertex
100
AcDb2dVertex
 10
159.2202520077848
 20
59.77570755028703
 30
0.0
  0
VERTEX
  5
C68
330
C63
100
AcDbEntity
  8
Visible (ANSI)
100
AcDbVertex
100
AcDb2dVertex
 10
159.2177710725413
 20
59.7781213351913
 30
0.0
  0
VERTEX
  5
C69
330
C63
100
AcDbEntity
  8
Visible (ANSI)
100
AcDbVertex
100
AcDb2dVertex
 10
159.2153871455707
 20
59.78058096459124
 30
0.0
  0
VERTEX
  5
C6A
330
C63
100
AcDbEntity
  8
Visible (ANSI)
100
AcDbVertex
100
AcDb2dVertex
 10
159.2131027656399
 20
59.78308458234735
 30
0.0
  0
VERTEX
  5
C6B
330
C63
100
AcDbEntity
  8
Visible (ANSI)
100
AcDbVertex
100
AcDb2dVertex
 10
159.210920396846
 20
59.78563029648732
 30
0.0
  0
VERTEX
  5
C6C
330
C63
100
AcDbEntity
  8
Visible (ANSI)
100
AcDbVertex
100
AcDb2dVertex
 10
159.2088423601696
 20
59.78821616131739
 30
0.0
  0
VERTEX
  5
C6D
330
C63
100
AcDbEntity
  8
Visible (ANSI)
100
AcDbVertex
100
AcDb2dVertex
 10
159.2068708894766
 20
59.79084018089458
 30
0.0
  0
VERTEX
  5
C6E
330
C63
100
AcDbEntity
  8
Visible (ANSI)
100
AcDbVertex
100
AcDb2dVertex
 10
159.2050080941836
 20
59.79350033069295
 30
0.0
  0
VERTEX
  5
C6F
330
C63
100
AcDbEntity
  8
Visible (ANSI)
100
AcDbVertex
100
AcDb2dVertex
 10
159.2032559654803
 20
59.79619454674272
 30
0.0
  0
VERTEX
  5
C70
330
C63
100
AcDbEntity
  8
Visible (ANSI)
100
AcDbVertex
100
AcDb2dVertex
 10
159.2016163825519
 20
59.79892072207472
 30
0.0
  0
VERTEX
  5
C71
330
C63
100
AcDbEntity
  8
Visible (ANSI)
100
AcDbVertex
100
AcDb2dVertex
 10
159.2000911094681
 20
59.80167673003951
 30
0.0
  0
VERTEX
  5
C72
330
C63
100
AcDbEntity
  8
Visible (ANSI)
100
AcDbVertex
100
AcDb2dVertex
 10
159.1986817640705
 20
59.80446038478022
 30
0.0
  0
VERTEX
  5
C73
330
C63
100
AcDbEntity
  8
Visible (ANSI)
100
AcDbVertex
100
AcDb2dVertex
 10
159.1973898646412
 20
59.80726949335671
 30
0.0
  0
VERTEX
  5
C74
330
C63
100
AcDbEntity
  8
Visible (ANSI)
100
AcDbVertex
100
AcDb2dVertex
 10
159.1962167925681
 20
59.81010182696827
 30
0.0
  0
VERTEX
  5
C75
330
C63
100
AcDbEntity
  8
Visible (ANSI)
100
AcDbVertex
100
AcDb2dVertex
 10
159.1951638047898
 20
59.81295514248105
 30
0.0
  0
VERTEX
  5
C76
330
C63
100
AcDbEntity
  8
Visible (ANSI)
100
AcDbVertex
100
AcDb2dVertex
 10
159.1942320337952
 20
59.81582716812276
 30
0.0
  0
VERTEX
  5
C77
330
C63
100
AcDbEntity
  8
Visible (ANSI)
100
AcDbVertex
100
AcDb2dVertex
 10
159.1934224658456
 20
59.81871559441333
 30
0.0
  0
VERTEX
  5
C78
330
C63
100
AcDbEntity
  8
Visible (ANSI)
100
AcDbVertex
100
AcDb2dVertex
 10
159.1927359720864
 20
59.8216181173309
 30
0.0
  0
VERTEX
  5
C79
330
C63
100
AcDbEntity
  8
Visible (ANSI)
100
AcDbVertex
100
AcDb2dVertex
 10
159.1921732961026
 20
59.82453241311783
 30
0.0
  0
VERTEX
  5
C7A
330
C63
100
AcDbEntity
  8
Visible (ANSI)
100
AcDbVertex
100
AcDb2dVertex
 10
159.1917350290287
 20
59.82745614189169
 30
0.0
  0
VERTEX
  5
C7B
330
C63
100
AcDbEntity
  8
Visible (ANSI)
100
AcDbVertex
100
AcDb2dVertex
 10
159.1914216468832
 20
59.83038695842291
 30
0.0
  0
VERTEX
  5
C7C
330
C63
100
AcDbEntity
  8
Visible (ANSI)
100
AcDbVertex
100
AcDb2dVertex
 10
159.1912334825684
 20
59.83332249589893
 30
0.0
  0
VERTEX
  5
C7D
330
C63
100
AcDbEntity
  8
Visible (ANSI)
100
AcDbVertex
100
AcDb2dVertex
 10
159.1911707398701
 20
59.83626039744453
 30
0.0
  0
SEQEND
  5
C66
330
C63
100
AcDbEntity
  8
Visible (ANSI)
  0
POLYLINE
  5
C7E
330
6C
100
AcDbEntity
  8
Visible (ANSI)
100
AcDb2dPolyline
 66
     1
 10
0.0
 20
0.0
 30
0.0
 70
   128
  0
VERTEX
  5
C7F
330
C7E
100
AcDbEntity
  8
Visible (ANSI)
100
AcDbVertex
100
AcDb2dVertex
 10
159.2254941631109
 20
101.3347169951325
 30
0.0
  0
VERTEX
  5
C80
330
C7E
100
AcDbEntity
  8
Visible (ANSI)
100
AcDbVertex
100
AcDb2dVertex
 10
159.2202520119047
 20
101.3329525692819
 30
0.0
  0
VERTEX
  5
C82
330
C7E
100
AcDbEntity
  8
Visible (ANSI)
100
AcDbVertex
100
AcDb2dVertex
 10
159.2153871447443
 20
101.3310012916367
 30
0.0
  0
VERTEX
  5
C83
330
C7E
100
AcDbEntity
  8
Visible (ANSI)
100
AcDbVertex
100
AcDb2dVertex
 10
159.2109203941237
 20
101.3288704130489
 30
0.0
  0
VERTEX
  5
C84
330
C7E
100
AcDbEntity
  8
Visible (ANSI)
100
AcDbVertex
100
AcDb2dVertex
 10
159.2068708871432
 20
101.3265789880525
 30
0.0
  0
VERTEX
  5
C85
330
C7E
100
AcDbEntity
  8
Visible (ANSI)
100
AcDbVertex
100
AcDb2dVertex
 10
159.2032559650914
 20
101.3241467589264
 30
0.0
  0
VERTEX
  5
C86
330
C7E
100
AcDbEntity
  8
Visible (ANSI)
100
AcDbVertex
100
AcDb2dVertex
 10
159.2000911067458
 20
101.3215830349285
 30
0.0
  0
VERTEX
  5
C87
330
C7E
100
AcDbEntity
  8
Visible (ANSI)
100
AcDbVertex
100
AcDb2dVertex
 10
159.1973898646412
 20
101.3189087243877
 30
0.0
  0
VERTEX
  5
C88
330
C7E
100
AcDbEntity
  8
Visible (ANSI)
100
AcDbVertex
100
AcDb2dVertex
 10
159.1951638071232
 20
101.316141526472
 30
0.0
  0
VERTEX
  5
C89
330
C7E
100
AcDbEntity
  8
Visible (ANSI)
100
AcDbVertex
100
AcDb2dVertex
 10
159.1934224658456
 20
101.313303219128
 30
0.0
  0
VERTEX
  5
C8A
330
C7E
100
AcDbEntity
  8
Visible (ANSI)
100
AcDbVertex
100
AcDb2dVertex
 10
159.1921732929914
 20
101.3104048511843
 30
0.0
  0
VERTEX
  5
C8B
330
C7E
100
AcDbEntity
  8
Visible (ANSI)
100
AcDbVertex
100
AcDb2dVertex
 10
159.1914216453276
 20
101.3074687647301
 30
0.0
  0
VERTEX
  5
C8C
330
C7E
100
AcDbEntity
  8
Visible (ANSI)
100
AcDbVertex
100
AcDb2dVertex
 10
159.1911707398701
 20
101.3045174626545
 30
0.0
  0
VERTEX
  5
C8D
330
C7E
100
AcDbEntity
  8
Visible (ANSI)
100
AcDbVertex
100
AcDb2dVertex
 10
159.1914216468832
 20
101.3015624761853
 30
0.0
  0
VERTEX
  5
C8E
330
C7E
100
AcDbEntity
  8
Visible (ANSI)
100
AcDbVertex
100
AcDb2dVertex
 10
159.1921732961026
 20
101.298626390627
 30
0.0
  0
VERTEX
  5
C8F
330
C7E
100
AcDbEntity
  8
Visible (ANSI)
100
AcDbVertex
100
AcDb2dVertex
 10
159.1934224658456
 20
101.2957317079727
 30
0.0
  0
VERTEX
  5
C90
330
C7E
100
AcDbEntity
  8
Visible (ANSI)
100
AcDbVertex
100
AcDb2dVertex
 10
159.1951638047898
 20
101.2928897157872
 30
0.0
  0
VERTEX
  5
C91
330
C7E
100
AcDbEntity
  8
Visible (ANSI)
100
AcDbVertex
100
AcDb2dVertex
 10
159.1973898646412
 20
101.2901225192153
 30
0.0
  0
VERTEX
  5
C92
330
C7E
100
AcDbEntity
  8
Visible (ANSI)
100
AcDbVertex
100
AcDb2dVertex
 10
159.2000911094681
 20
101.2874482084505
 30
0.0
  0
VERTEX
  5
C93
330
C7E
100
AcDbEntity
  8
Visible (ANSI)
100
AcDbVertex
100
AcDb2dVertex
 10
159.2032559654803
 20
101.2848881683982
 30
0.0
  0
VERTEX
  5
C94
330
C7E
100
AcDbEntity
  8
Visible (ANSI)
100
AcDbVertex
100
AcDb2dVertex
 10
159.2068708894766
 20
101.2824522551025
 30
0.0
  0
VERTEX
  5
C95
330
C7E
100
AcDbEntity
  8
Visible (ANSI)
100
AcDbVertex
100
AcDb2dVertex
 10
159.210920396846
 20
101.280160830442
 30
0.0
  0
VERTEX
  5
C96
330
C7E
100
AcDbEntity
  8
Visible (ANSI)
100
AcDbVertex
100
AcDb2dVertex
 10
159.2153871455707
 20
101.2780336345961
 30
0.0
  0
VERTEX
  5
C97
330
C7E
100
AcDbEntity
  8
Visible (ANSI)
100
AcDbVertex
100
AcDb2dVertex
 10
159.2202520077848
 20
101.2760786728444
 30
0.0
  0
VERTEX
  5
C98
330
C7E
100
AcDbEntity
  8
Visible (ANSI)
100
AcDbVertex
100
AcDb2dVertex
 10
159.2254941631109
 20
101.2743142484705
 30
0.0
  0
SEQEND
  5
C81
330
C7E
100
AcDbEntity
  8
Visible (ANSI)
  0
LINE
  5
C99
330
6C
100
AcDbEntity
  8
Visible (ANSI)
100
AcDbLine
 10
159.5470014147414
 20
60.01029064693761
 30
0.0
 11
159.6729601733294
 21
60.08282547191214
 31
0.0
  0
LINE
  5
C9A
330
6C
100
AcDbEntity
  8
Visible (ANSI)
100
AcDbLine
 10
159.2897359519003
 20
101.3717113380645
 30
0.0
 11
159.2254941633598
 21
101.3347169524413
 31
0.0
  0
LINE
  5
C9B
330
6C
100
AcDbEntity
  8
Visible (ANSI)
100
AcDbLine
 10
159.2465630353519
 20
101.3225841959781
 30
0.0
 11
159.2254941633598
 21
101.3347169524413
 31
0.0
  0
LINE
  5
C9C
330
6C
100
AcDbEntity
  8
Visible (ANSI)
100
AcDbLine
 10
195.2192599678122
 20
80.60772839075669
 30
0.0
 11
195.224442015655
 21
80.60430165109117
 31
0.0
  0
LINE
  5
C9D
330
6C
100
AcDbEntity
  8
Visible (ANSI)
100
AcDbLine
 10
195.1747737799422
 20
80.69024101213774
 30
0.0
 11
195.1751411062165
 21
80.68418730667161
 31
0.0
  0
LINE
  5
C9E
330
6C
100
AcDbEntity
  8
Visible Narrow (ANSI)
100
AcDbLine
 10
159.2254941633598
 20
59.77102466631526
 30
0.0
 11
195.1222118520386
 21
39.09947975832949
 31
0.0
  0
LINE
  5
C9F
330
6C
100
AcDbEntity
  8
Visible Narrow (ANSI)
100
AcDbLine
 10
195.2879400038792
 20
80.56773554903543
 30
0.0
 11
195.2879400038792
 21
39.13451472720812
 31
0.0
  0
LINE
  5
CA0
330
6C
100
AcDbEntity
  8
Visible Narrow (ANSI)
100
AcDbLine
 10
195.1222118520386
 20
39.09947975832949
 30
0.0
 11
195.1222118520386
 21
80.60277051791402
 31
0.0
  0
LINE
  5
CA1
330
6C
100
AcDbEntity
  8
Visible Narrow (ANSI)
100
AcDbLine
 10
159.3386604240961
 20
101.4003901096107
 30
0.0
 11
195.1747737431429
 21
80.76374493700818
 31
0.0
  0
LINE
  5
CA2
330
6C
100
AcDbEntity
  8
Visible Narrow (ANSI)
100
AcDbLine
 10
195.1222118520386
 20
80.60277051791402
 30
0.0
 11
159.2254941633598
 21
101.2743154258998
 31
0.0
  0
LINE
  5
CA3
330
6C
100
AcDbEntity
  8
Visible Narrow (ANSI)
100
AcDbLine
 10
159.2254941633598
 20
101.2743154258998
 30
0.0
 11
159.2254941633598
 21
59.77102466631526
 31
0.0
  0
LINE
  5
CA4
330
6C
100
AcDbEntity
  8
Visible (ANSI)
100
AcDbLine
 10
159.2650662975042
 20
59.70844375232314
 30
0.0
 11
195.1314071951447
 21
39.05439167489513
 31
0.0
  0
LINE
  5
CA5
330
6C
100
AcDbEntity
  8
Visible (ANSI)
100
AcDbLine
 10
159.1911707392801
 20
101.3045161891705
 30
0.0
 11
159.1911707392801
 21
59.83626039846461
 31
0.0
  0
LINE
  5
CA6
330
6C
100
AcDbEntity
  8
Visible (ANSI)
100
AcDbLine
 10
194.8756722435875
 20
39.75673559022618
 30
0.0
 11
194.6580483390874
 21
39.88205686204663
 31
0.0
  0
LINE
  5
CA7
330
6C
100
AcDbEntity
  8
Visible (ANSI)
100
AcDbLine
 10
177.3084881484816
 20
49.87300410475293
 30
0.0
 11
177.0908642439815
 21
49.99832537657338
 31
0.0
  0
LINE
  5
CA8
330
6C
100
AcDbEntity
  8
Visible (ANSI)
100
AcDbLine
 10
159.7413040533756
 20
59.98927261927968
 30
0.0
 11
159.7198351733294
 21
60.00163572506135
 31
0.0
  0
LINE
  5
CA9
330
6C
100
AcDbEntity
  8
Visible (ANSI)
100
AcDbLine
 10
195.6691147531125
 20
80.78723948850164
 30
0.0
 11
195.6691147531125
 21
39.35401866667433
 31
0.0
  0
LINE
  5
CAA
330
6C
100
AcDbEntity
  8
Visible (ANSI)
100
AcDbLine
 10
159.7198351733294
 20
101.6198940490768
 30
0.0
 11
195.5559484923762
 21
80.98324887647439
 31
0.0
  0
LINE
  5
CAB
330
6C
100
AcDbEntity
  8
Visible (ANSI)
100
AcDbLine
 10
159.6729601733294
 20
60.08282547191214
 30
0.0
 11
159.6729601733294
 21
60.10870924947881
 31
0.0
  0
LINE
  5
CAC
330
6C
100
AcDbEntity
  8
Visible (ANSI)
100
AcDbLine
 10
159.6729601733294
 20
74.03713263175807
 30
0.0
 11
159.6729601733294
 21
74.28804219596661
 31
0.0
  0
LINE
  5
CAD
330
6C
100
AcDbEntity
  8
Visible (ANSI)
100
AcDbLine
 10
159.6729601733294
 20
80.16873606807711
 30
0.0
 11
159.6729601733294
 21
80.41964563228566
 31
0.0
  0
LINE
  5
CAE
330
6C
100
AcDbEntity
  8
Visible (ANSI)
100
AcDbLine
 10
159.6729601733294
 20
100.4796724508839
 30
0.0
 11
159.6729601733294
 21
100.7305820150925
 31
0.0
  0
DIMENSION
  5
CAF
330
6C
100
AcDbEntity
  8
Dimension (ANSI)
100
AcDbDimension
280
     0
  2
*D13
 10
100.9201921097153
 20
65.47098667138674
 30
0.0
 11
109.5257257865345
 21
73.78805448764063
 31
0.0
 70
   163
  1
<>{\P(10PL.)}
 42
0.5629999999999999
 73
     0
 74
     0
 75
     0
  3
Default (ANSI)
100
AcDbDiametricDimension
 15
101.1408031243153
 25
65.98896329270971
 35
0.0
 40
0.0
1001
ACAD_DSTYLE_DIMRADIAL_EXTENSION
1070
   387
1070
     1
1070
   388
1040
0.0
1070
   390
1040
0.0
1001
ACAD
1000
DSTYLE
1002
{
1070
   145
1040
-0.25
1070
   144
1040
1.00000000000002
1070
   271
1070
     3
1070
   272
1070
     2
1070
    48
1040
0.0
1070
    47
1040
0.0
1002
}
  0
DIMENSION
  5
D6A
330
6C
100
AcDbEntity
  8
Dimension (ANSI)
100
AcDbDimension
280
     0
  2
*D14
 10
106.0698676957555
 20
65.72997498204827
 30
0.0
 11
106.0698676957555
 21
60.72997498204827
 31
0.0
 70
   160
  1
<>
 42
10.0
 73
     0
 74
     0
 75
     0
  3
Default (ANSI)
100
AcDbAlignedDimension
 13
101.0304976170153
 23
55.72997498204827
 33
0.0
 14
101.0304976170153
 24
65.72997498204827
 34
0.0
 50
90.0
100
AcDbRotatedDimension
1001
ACAD
1000
DSTYLE
1002
{
1070
   289
1070
     1
1070
   271
1070
     2
1070
   272
1070
     3
1070
    48
1040
0.0
1070
    47
1040
0.0
1002
}
  0
MTEXT
  5
E5A
102
{ACAD_REACTORS
330
E5B
102
}
330
6C
100
AcDbEntity
  8
Symbol (ANSI)
100
AcDbMText
 10
130.7854864166835
 20
47.20212547400099
 30
0.0
 40
1.440000017796914
 41
5.889530069246066
 46
0.0
 71
     3
 72
     1
  1
{10 GA.\PC.R.S}
  7
Note Text (ANSI)
 73
     2
 44
0.9878841638565063
  0
LEADER
  5
E5B
330
6C
100
AcDbEntity
  8
Symbol (ANSI)
100
AcDbLeader
  3
Default (ANSI)$7
 73
     0
 40
4.290922046286983
 41
5.48728008609086
 76
     3
 10
136.7670645614438
 20
41.81847586017857
 30
0.0
 10
132.5319891359969
 20
46.48302886984824
 30
0.0
 10
131.163439172589
 20
46.48212546510253
 30
0.0
340
E5A
210
0.0
220
0.0
230
-1.0
213
0.0
223
-0.7200000088984572
233
0.0
1001
ACAD
1000
DSTYLE
1002
{
1070
    77
1070
     0
1002
}
  0
LINE
  5
E5C
330
6C
100
AcDbEntity
  8
Center Mark (ANSI)
  6
Continuous
100
AcDbLine
 10
36.5619976170154
 20
98.85497498204825
 30
0.0
 11
32.99899761701541
 21
98.85497498204825
 31
0.0
  0
LINE
  5
E5D
330
6C
100
AcDbEntity
  8
Center Mark (ANSI)
  6
Continuous
100
AcDbLine
 10
34.78049761701541
 20
100.6364749820482
 30
0.0
 11
34.78049761701541
 21
97.07347498204825
 31
0.0
  0
LINE
  5
E5E
330
6C
100
AcDbEntity
  8
Center Mark (ANSI)
  6
Continuous
100
AcDbLine
 10
32.99899761701541
 20
32.60497498204826
 30
0.0
 11
36.5619976170154
 21
32.60497498204826
 31
0.0
  0
LINE
  5
E5F
330
6C
100
AcDbEntity
  8
Center Mark (ANSI)
  6
Continuous
100
AcDbLine
 10
32.99899761701541
 20
98.85497498204825
 30
0.0
 11
36.5619976170154
 21
98.85497498204825
 31
0.0
  0
LINE
  5
E60
330
6C
100
AcDbEntity
  8
Centerline (ANSI)
  6
Continuous
100
AcDbLine
 10
34.78049761701541
 20
30.82347498204827
 30
0.0
 11
34.78049761701541
 21
100.6364749820482
 31
0.0
  0
LINE
  5
E61
330
6C
100
AcDbEntity
  8
Center Mark (ANSI)
  6
Continuous
100
AcDbLine
 10
69.6869976170154
 20
98.85497498204825
 30
0.0
 11
66.1239976170154
 21
98.85497498204825
 31
0.0
  0
LINE
  5
E62
330
6C
100
AcDbEntity
  8
Center Mark (ANSI)
  6
Continuous
100
AcDbLine
 10
69.6869976170154
 20
32.60497498204828
 30
0.0
 11
66.12399761701539
 21
32.60497498204828
 31
0.0
  0
LINE
  5
E63
330
6C
100
AcDbEntity
  8
Centerline (ANSI)
  6
Continuous
100
AcDbLine
 10
67.9054976170154
 20
100.6364749820482
 30
0.0
 11
67.9054976170154
 21
30.82347498204828
 31
0.0
  0
LINE
  5
E64
330
6C
100
AcDbEntity
  8
Center Mark (ANSI)
  6
Continuous
100
AcDbLine
 10
99.24899761701539
 20
32.60497498204828
 30
0.0
 11
102.8119976170154
 21
32.60497498204828
 31
0.0
  0
LINE
  5
E65
330
6C
100
AcDbEntity
  8
Center Mark (ANSI)
  6
Continuous
100
AcDbLine
 10
99.24899761701542
 20
98.85497498204825
 30
0.0
 11
102.8119976170154
 21
98.85497498204825
 31
0.0
  0
LINE
  5
E66
330
6C
100
AcDbEntity
  8
Centerline (ANSI)
  6
Continuous
100
AcDbLine
 10
101.0304976170154
 20
30.82347498204828
 30
0.0
 11
101.0304976170154
 21
100.6364749820482
 31
0.0
  0
LINE
  5
E67
330
6C
100
AcDbEntity
  8
Center Mark (ANSI)
  6
Continuous
100
AcDbLine
 10
34.78049761701541
 20
67.51147498204826
 30
0.0
 11
34.78049761701541
 21
63.94847498204826
 31
0.0
  0
LINE
  5
E68
330
6C
100
AcDbEntity
  8
Center Mark (ANSI)
  6
Continuous
100
AcDbLine
 10
101.0304976170153
 20
67.51147498204827
 30
0.0
 11
101.0304976170153
 21
63.94847498204828
 31
0.0
  0
LINE
  5
E69
330
6C
100
AcDbEntity
  8
Centerline (ANSI)
  6
Continuous
100
AcDbLine
 10
32.99899761701541
 20
65.72997498204826
 30
0.0
 11
102.8119976170154
 21
65.72997498204827
 31
0.0
  0
LINE
  5
E6A
330
6C
100
AcDbEntity
  8
Center Mark (ANSI)
  6
Continuous
100
AcDbLine
 10
34.78049761701541
 20
57.51147498204826
 30
0.0
 11
34.78049761701541
 21
53.94847498204826
 31
0.0
  0
LINE
  5
E6B
330
6C
100
AcDbEntity
  8
Center Mark (ANSI)
  6
Continuous
100
AcDbLine
 10
101.0304976170153
 20
57.51147498204827
 30
0.0
 11
101.0304976170153
 21
53.94847498204828
 31
0.0
  0
LINE
  5
E6C
330
6C
100
AcDbEntity
  8
Centerline (ANSI)
  6
Continuous
100
AcDbLine
 10
32.99899761701541
 20
55.72997498204826
 30
0.0
 11
102.8119976170154
 21
55.72997498204827
 31
0.0
  0
LINE
  5
E6D
330
6C
100
AcDbEntity
  8
Center Mark (ANSI)
  6
Continuous
100
AcDbLine
 10
34.78049761701541
 20
34.38647498204826
 30
0.0
 11
34.78049761701541
 21
30.82347498204827
 31
0.0
  0
LINE
  5
E6E
330
6C
100
AcDbEntity
  8
Center Mark (ANSI)
  6
Continuous
100
AcDbLine
 10
101.0304976170154
 20
34.38647498204828
 30
0.0
 11
101.0304976170154
 21
30.82347498204829
 31
0.0
  0
LINE
  5
E6F
330
6C
100
AcDbEntity
  8
Centerline (ANSI)
  6
Continuous
100
AcDbLine
 10
32.99899761701541
 20
32.60497498204826
 30
0.0
 11
102.8119976170154
 21
32.60497498204828
 31
0.0
  0
LINE
  5
E70
330
6C
100
AcDbEntity
  8
Center Mark (ANSI)
  6
Continuous
100
AcDbLine
 10
34.78049761701541
 20
100.6364749820482
 30
0.0
 11
34.78049761701541
 21
97.07347498204825
 31
0.0
  0
LINE
  5
E71
330
6C
100
AcDbEntity
  8
Center Mark (ANSI)
  6
Continuous
100
AcDbLine
 10
101.0304976170154
 20
100.6364749820482
 30
0.0
 11
101.0304976170154
 21
97.07347498204825
 31
0.0
  0
LINE
  5
E72
330
6C
100
AcDbEntity
  8
Centerline (ANSI)
  6
Continuous
100
AcDbLine
 10
32.99899761701541
 20
98.85497498204825
 30
0.0
 11
102.8119976170154
 21
98.85497498204825
 31
0.0
  0
MTEXT
  5
E73
102
{ACAD_XDICTIONARY
360
E7A
102
}
330
6C
100
AcDbEntity
  8
Symbol (ANSI)
100
AcDbMText
 10
113.2838963450164
 20
10.1746337610345
 30
0.0
 40
1.200000038297157
 41
88.6006452905851
 46
0.0
 71
     4
 72
     1
  3
{\fRomanS|b0|i0|c0|p2;\H2x;PART#: NPDD7272\P(DATA SUBJECT TO CHANGE WITHOUT NOTICE)\H1.6157x; \H0.61894x;\P \H1.352x; \H0.73963x;\P\H0.6x;THIS DRAWING IS PROPERTY OF HUBBELL INC. WIEGMANN\H1.5633x; \H0.63966x;\PALL INFORMATION IS PROPRIETARY AND NOT 
  1
TO BE DUPLICATED\H1.234x; \H0.81039x;\P\H1.2571x; }
  7
Note Text (ANSI)
 73
     1
 44
0.8026435375213623
  0
ENDSEC
  0
SECTION
  2
OBJECTS
  0
DICTIONARY
  5
C
330
0
100
AcDbDictionary
281
     1
  3
ACAD_CIP_PREVIOUS_PRODUCT_INFO
350
E75
  3
ACAD_COLOR
350
63
  3
ACAD_GROUP
350
D
  3
ACAD_LAYOUT
350
62
  3
ACAD_MATERIAL
350
10
  3
ACAD_MLEADERSTYLE
350
66
  3
ACAD_MLINESTYLE
350
5F
  3
ACAD_PLOTSETTINGS
350
61
  3
ACAD_PLOTSTYLENAME
350
E
  3
ACAD_SCALELIST
350
42
  3
ACAD_TABLESTYLE
350
64
  3
ACAD_VISUALSTYLE
350
29
  3
ACDB_RECOMPOSE_DATA
350
E7C
  3
AcDbVariableDictionary
350
76
  0
DICTIONARY
  5
E7A
330
E73
100
AcDbDictionary
280
     1
281
     1
  3
ACAD_MTEXT_2008_RT
360
E7B
  0
XRECORD
  5
E75
102
{ACAD_REACTORS
330
C
102
}
330
C
100
AcDbXrecord
280
     1
300
INVNTOR
300
2012
300
PDSP_F_S
  0
DICTIONARY
  5
63
102
{ACAD_REACTORS
330
C
102
}
330
C
100
AcDbDictionary
281
     1
  0
DICTIONARY
  5
D
102
{ACAD_REACTORS
330
C
102
}
330
C
100
AcDbDictionary
281
     1
  0
DICTIONARY
  5
62
102
{ACAD_REACTORS
330
C
102
}
330
C
100
AcDbDictionary
281
     1
  3
Layout1
350
6B
  3
Layout2
350
73
  3
Model
350
6F
  0
DICTIONARY
  5
10
102
{ACAD_REACTORS
330
C
102
}
330
C
100
AcDbDictionary
281
     1
  3
ByBlock
350
19
  3
ByLayer
350
11
  3
Global
350
21
  0
DICTIONARY
  5
66
102
{ACAD_REACTORS
330
C
102
}
330
C
100
AcDbDictionary
281
     1
  3
Standard
350
67
  0
DICTIONARY
  5
5F
102
{ACAD_REACTORS
330
C
102
}
330
C
100
AcDbDictionary
281
     1
  3
Standard
350
60
  0
DICTIONARY
  5
61
102
{ACAD_REACTORS
330
C
102
}
330
C
100
AcDbDictionary
281
     1
  0
ACDBDICTIONARYWDFLT
  5
E
102
{ACAD_REACTORS
330
C
102
}
330
C
100
AcDbDictionary
281
     1
  3
Normal
350
F
100
AcDbDictionaryWithDefault
340
F
  0
DICTIONARY
  5
42
102
{ACAD_REACTORS
330
C
102
}
330
C
100
AcDbDictionary
281
     1
  3
A0
350
43
  3
A1
350
44
  3
A2
350
45
  3
A3
350
46
  3
A4
350
47
  3
A5
350
48
  3
A6
350
49
  3
A7
350
4A
  3
A8
350
4B
  3
A9
350
4C
  3
B0
350
4D
  3
B1
350
4E
  3
B2
350
4F
  3
B3
350
50
  3
B4
350
51
  3
B5
350
52
  3
B6
350
53
  0
DICTIONARY
  5
64
102
{ACAD_REACTORS
330
C
102
}
330
C
100
AcDbDictionary
281
     1
  3
Standard
350
65
  0
DICTIONARY
  5
29
102
{ACAD_REACTORS
330
C
102
}
330
C
100
AcDbDictionary
281
     1
  3
2dWireframe
350
2F
  3
Basic
350
2E
  3
Brighten
350
35
  3
ColorChange
350
39
  3
Conceptual
350
32
  3
Dim
350
34
  3
EdgeColorOff
350
41
  3
Facepattern
350
38
  3
Flat
350
2A
  3
FlatWithEdges
350
2B
  3
Gouraud
350
2C
  3
GouraudWithEdges
350
2D
  3
Hidden
350
31
  3
JitterOff
350
3F
  3
Linepattern
350
37
  3
OverhangOff
350
40
  3
Realistic
350
33
  3
Shaded
350
3E
  3
Shaded with edges
350
3D
  3
Shades of Gray
350
3A
  3
Sketchy
350
3B
  3
Thicken
350
36
  3
Wireframe
350
30
  3
X-Ray
350
3C
  0
XRECORD
  5
E7C
102
{ACAD_REACTORS
330
C
102
}
330
C
100
AcDbXrecord
280
     1
 90
        1
330
65
330
E73
  0
DICTIONARY
  5
76
102
{ACAD_REACTORS
330
C
102
}
330
C
100
AcDbDictionary
281
     1
  3
CANNOSCALE
350
79
  3
CMLEADERSTYLE
350
78
  3
CTABLESTYLE
350
77
  0
XRECORD
  5
E7B
102
{ACAD_REACTORS
330
E7A
102
}
330
E7A
100
AcDbXrecord
280
     1
 40
3068627.0
  1
\pxsm0.94;{\fRomanS|b0|i0;\H2.4000;PART#: NPDD7272\P(DATA SUBJECT TO CHANGE WITHOUT NOTICE)\P \P\fRomanS|b0|i0;\H1.4400;THIS DRAWING IS PROPERTY OF HUBBELL INC. WIEGMANN\PALL INFORMATION IS PROPRIETARY AND NOT TO BE DUPLICATED\P}
  0
LAYOUT
  5
6B
102
{ACAD_REACTORS
330
62
102
}
330
62
100
AcDbPlotSettings
  1

  2

  4

  6

 40
0.0
 41
0.0
 42
0.0
 43
0.0
 44
0.0
 45
0.0
 46
0.0
 47
0.0
 48
0.0
 49
0.0
140
0.0
141
0.0
142
1.0
143
1.0
 70
   688
 72
     0
 73
     0
 74
     5
  7

 75
    16
147
1.0
 76
     0
 77
     2
 78
   300
148
0.0
149
0.0
100
AcDbLayout
  1
Layout1
 70
     1
 71
     1
 10
0.0
 20
0.0
 11
12.0
 21
9.0
 12
0.0
 22
0.0
 32
0.0
 14
0.0
 24
0.0
 34
0.0
 15
0.0
 25
0.0
 35
0.0
146
0.0
 13
0.0
 23
0.0
 33
0.0
 16
1.0
 26
0.0
 36
0.0
 17
0.0
 27
1.0
 37
0.0
 76
     0
330
68
  0
LAYOUT
  5
73
102
{ACAD_REACTORS
330
62
102
}
330
62
100
AcDbPlotSettings
  1

  2

  4

  6

 40
0.0
 41
0.0
 42
0.0
 43
0.0
 44
0.0
 45
0.0
 46
0.0
 47
0.0
 48
0.0
 49
0.0
140
0.0
141
0.0
142
1.0
143
1.0
 70
   688
 72
     0
 73
     0
 74
     5
  7

 75
    16
147
1.0
 76
     0
 77
     2
 78
   300
148
0.0
149
0.0
100
AcDbLayout
  1
Layout2
 70
     1
 71
     2
 10
0.0
 20
0.0
 11
12.0
 21
9.0
 12
0.0
 22
0.0
 32
0.0
 14
0.0
 24
0.0
 34
0.0
 15
0.0
 25
0.0
 35
0.0
146
0.0
 13
0.0
 23
0.0
 33
0.0
 16
1.0
 26
0.0
 36
0.0
 17
0.0
 27
1.0
 37
0.0
 76
     0
330
70
  0
LAYOUT
  5
6F
102
{ACAD_REACTORS
330
62
102
}
330
62
100
AcDbPlotSettings
  1

  2

  4

  6

 40
0.0
 41
0.0
 42
0.0
 43
0.0
 44
0.0
 45
0.0
 46
0.0
 47
0.0
 48
0.0
 49
0.0
140
0.0
141
0.0
142
1.0
143
1.0
 70
  1712
 72
     0
 73
     0
 74
     0
  7

 75
     0
147
1.0
 76
     0
 77
     2
 78
   300
148
0.0
149
0.0
100
AcDbLayout
  1
Model
 70
     1
 71
     0
 10
0.0
 20
0.0
 11
12.0
 21
9.0
 12
0.0
 22
0.0
 32
0.0
 14
0.0
 24
0.0
 34
0.0
 15
0.0
 25
0.0
 35
0.0
146
0.0
 13
0.0
 23
0.0
 33
0.0
 16
1.0
 26
0.0
 36
0.0
 17
0.0
 27
1.0
 37
0.0
 76
     0
330
6C
  0
MATERIAL
  5
19
102
{ACAD_XDICTIONARY
360
1A
102
}
102
{ACAD_REACTORS
330
10
102
}
330
10
100
AcDbMaterial
  1
ByBlock
 72
     0
 43
0.0208333333333333
 43
0.0
 43
0.0
 43
0.0
 43
0.0
 43
0.0208333333333333
 43
0.0
 43
0.0
 43
0.0
 43
0.0
 43
1.0
 43
0.0
 43
0.0
 43
0.0
 43
0.0
 43
1.0
 77
     0
 47
0.0208333333333333
 47
0.0
 47
0.0
 47
0.0
 47
0.0
 47
0.0208333333333333
 47
0.0
 47
0.0
 47
0.0
 47
0.0
 47
1.0
 47
0.0
 47
0.0
 47
0.0
 47
0.0
 47
1.0
171
     0
 49
0.0208333333333333
 49
0.0
 49
0.0
 49
0.0
 49
0.0
 49
0.0208333333333333
 49
0.0
 49
0.0
 49
0.0
 49
0.0
 49
1.0
 49
0.0
 49
0.0
 49
0.0
 49
0.0
 49
1.0
175
     0
142
0.0208333333333333
142
0.0
142
0.0
142
0.0
142
0.0
142
0.0208333333333333
142
0.0
142
0.0
142
0.0
142
0.0
142
1.0
142
0.0
142
0.0
142
0.0
142
0.0
142
1.0
179
     0
144
0.0208333333333333
144
0.0
144
0.0
144
0.0
144
0.0
144
0.0208333333333333
144
0.0
144
0.0
144
0.0
144
0.0
144
1.0
144
0.0
144
0.0
144
0.0
144
0.0
144
1.0
147
0.0208333333333333
147
0.0
147
0.0
147
0.0
147
0.0
147
0.0208333333333333
147
0.0
147
0.0
147
0.0
147
0.0
147
1.0
147
0.0
147
0.0
147
0.0
147
0.0
147
1.0
  0
MATERIAL
  5
11
102
{ACAD_XDICTIONARY
360
12
102
}
102
{ACAD_REACTORS
330
10
102
}
330
10
100
AcDbMaterial
  1
ByLayer
 72
     0
 43
0.0208333333333333
 43
0.0
 43
0.0
 43
0.0
 43
0.0
 43
0.0208333333333333
 43
0.0
 43
0.0
 43
0.0
 43
0.0
 43
1.0
 43
0.0
 43
0.0
 43
0.0
 43
0.0
 43
1.0
 77
     0
 47
0.0208333333333333
 47
0.0
 47
0.0
 47
0.0
 47
0.0
 47
0.0208333333333333
 47
0.0
 47
0.0
 47
0.0
 47
0.0
 47
1.0
 47
0.0
 47
0.0
 47
0.0
 47
0.0
 47
1.0
171
     0
 49
0.0208333333333333
 49
0.0
 49
0.0
 49
0.0
 49
0.0
 49
0.0208333333333333
 49
0.0
 49
0.0
 49
0.0
 49
0.0
 49
1.0
 49
0.0
 49
0.0
 49
0.0
 49
0.0
 49
1.0
175
     0
142
0.0208333333333333
142
0.0
142
0.0
142
0.0
142
0.0
142
0.0208333333333333
142
0.0
142
0.0
142
0.0
142
0.0
142
1.0
142
0.0
142
0.0
142
0.0
142
0.0
142
1.0
179
     0
144
0.0208333333333333
144
0.0
144
0.0
144
0.0
144
0.0
144
0.0208333333333333
144
0.0
144
0.0
144
0.0
144
0.0
144
1.0
144
0.0
144
0.0
144
0.0
144
0.0
144
1.0
147
0.0208333333333333
147
0.0
147
0.0
147
0.0
147
0.0
147
0.0208333333333333
147
0.0
147
0.0
147
0.0
147
0.0
147
1.0
147
0.0
147
0.0
147
0.0
147
0.0
147
1.0
  0
MATERIAL
  5
21
102
{ACAD_XDICTIONARY
360
22
102
}
102
{ACAD_REACTORS
330
10
102
}
330
10
100
AcDbMaterial
  1
Global
 72
     0
 43
0.0208333333333333
 43
0.0
 43
0.0
 43
0.0
 43
0.0
 43
0.0208333333333333
 43
0.0
 43
0.0
 43
0.0
 43
0.0
 43
1.0
 43
0.0
 43
0.0
 43
0.0
 43
0.0
 43
1.0
 77
     0
 47
0.0208333333333333
 47
0.0
 47
0.0
 47
0.0
 47
0.0
 47
0.0208333333333333
 47
0.0
 47
0.0
 47
0.0
 47
0.0
 47
1.0
 47
0.0
 47
0.0
 47
0.0
 47
0.0
 47
1.0
171
     0
 49
0.0208333333333333
 49
0.0
 49
0.0
 49
0.0
 49
0.0
 49
0.0208333333333333
 49
0.0
 49
0.0
 49
0.0
 49
0.0
 49
1.0
 49
0.0
 49
0.0
 49
0.0
 49
0.0
 49
1.0
175
     0
142
0.0208333333333333
142
0.0
142
0.0
142
0.0
142
0.0
142
0.0208333333333333
142
0.0
142
0.0
142
0.0
142
0.0
142
1.0
142
0.0
142
0.0
142
0.0
142
0.0
142
1.0
179
     0
144
0.0208333333333333
144
0.0
144
0.0
144
0.0
144
0.0
144
0.0208333333333333
144
0.0
144
0.0
144
0.0
144
0.0
144
1.0
144
0.0
144
0.0
144
0.0
144
0.0
144
1.0
147
0.0208333333333333
147
0.0
147
0.0
147
0.0
147
0.0
147
0.0208333333333333
147
0.0
147
0.0
147
0.0
147
0.0
147
1.0
147
0.0
147
0.0
147
0.0
147
0.0
147
1.0
  0
MLEADERSTYLE
  5
67
102
{ACAD_XDICTIONARY
360
E78
102
}
102
{ACAD_REACTORS
330
66
102
}
330
66
100
AcDbMLeaderStyle
179
     2
170
     2
171
     1
172
     0
 90
        2
 40
0.0
 41
0.0
173
     1
 91
-1056964608
340
5B
 92
       -2
290
     1
 42
0.09
291
     1
 43
0.36
  3
Standard
 44
0.18
300

342
55
174
     1
178
     6
175
     1
176
     0
 93
-1056964608
 45
0.18
292
     0
297
     0
 46
0.18
 94
-1056964608
 47
1.0
 49
1.0
140
1.0
293
     1
141
0.0
294
     1
177
     0
142
1.0
295
     0
296
     0
143
0.125
271
     0
272
     9
273
     9
  0
MLINESTYLE
  5
60
102
{ACAD_REACTORS
330
5F
102
}
330
5F
100
AcDbMlineStyle
  2
STANDARD
 70
     0
  3

 62
   256
 51
90.0
 52
90.0
 71
     2
 49
0.5
 62
   256
  6
BYLAYER
 49
-0.5
 62
   256
  6
BYLAYER
  0
ACDBPLACEHOLDER
  5
F
102
{ACAD_REACTORS
330
E
102
}
330
E
  0
SCALE
  5
43
102
{ACAD_REACTORS
330
42
102
}
330
42
100
AcDbScale
 70
     0
300
1:1
140
1.0
141
1.0
290
     1
  0
SCALE
  5
44
102
{ACAD_REACTORS
330
42
102
}
330
42
100
AcDbScale
 70
     0
300
1/128" = 1'-0"
140
0.0078125
141
12.0
290
     0
  0
SCALE
  5
45
102
{ACAD_REACTORS
330
42
102
}
330
42
100
AcDbScale
 70
     0
300
1/64" = 1'-0"
140
0.015625
141
12.0
290
     0
  0
SCALE
  5
46
102
{ACAD_REACTORS
330
42
102
}
330
42
100
AcDbScale
 70
     0
300
1/32" = 1'-0"
140
0.03125
141
12.0
290
     0
  0
SCALE
  5
47
102
{ACAD_REACTORS
330
42
102
}
330
42
100
AcDbScale
 70
     0
300
1/16" = 1'-0"
140
0.0625
141
12.0
290
     0
  0
SCALE
  5
48
102
{ACAD_REACTORS
330
42
102
}
330
42
100
AcDbScale
 70
     0
300
3/32" = 1'-0"
140
0.09375
141
12.0
290
     0
  0
SCALE
  5
49
102
{ACAD_REACTORS
330
42
102
}
330
42
100
AcDbScale
 70
     0
300
1/8" = 1'-0"
140
0.125
141
12.0
290
     0
  0
SCALE
  5
4A
102
{ACAD_REACTORS
330
42
102
}
330
42
100
AcDbScale
 70
     0
300
3/16" = 1'-0"
140
0.1875
141
12.0
290
     0
  0
SCALE
  5
4B
102
{ACAD_REACTORS
330
42
102
}
330
42
100
AcDbScale
 70
     0
300
1/4" = 1'-0"
140
0.25
141
12.0
290
     0
  0
SCALE
  5
4C
102
{ACAD_REACTORS
330
42
102
}
330
42
100
AcDbScale
 70
     0
300
3/8" = 1'-0"
140
0.375
141
12.0
290
     0
  0
SCALE
  5
4D
102
{ACAD_REACTORS
330
42
102
}
330
42
100
AcDbScale
 70
     0
300
1/2" = 1'-0"
140
0.5
141
12.0
290
     0
  0
SCALE
  5
4E
102
{ACAD_REACTORS
330
42
102
}
330
42
100
AcDbScale
 70
     0
300
3/4" = 1'-0"
140
0.75
141
12.0
290
     0
  0
SCALE
  5
4F
102
{ACAD_REACTORS
330
42
102
}
330
42
100
AcDbScale
 70
     0
300
1" = 1'-0"
140
1.0
141
12.0
290
     0
  0
SCALE
  5
50
102
{ACAD_REACTORS
330
42
102
}
330
42
100
AcDbScale
 70
     0
300
1-1/2" = 1'-0"
140
1.5
141
12.0
290
     0
  0
SCALE
  5
51
102
{ACAD_REACTORS
330
42
102
}
330
42
100
AcDbScale
 70
     0
300
3" = 1'-0"
140
3.0
141
12.0
290
     0
  0
SCALE
  5
52
102
{ACAD_REACTORS
330
42
102
}
330
42
100
AcDbScale
 70
     0
300
6" = 1'-0"
140
6.0
141
12.0
290
     0
  0
SCALE
  5
53
102
{ACAD_REACTORS
330
42
102
}
330
42
100
AcDbScale
 70
     0
300
1'-0" = 1'-0"
140
12.0
141
12.0
290
     0
  0
TABLESTYLE
  5
65
102
{ACAD_XDICTIONARY
360
E76
102
}
102
{ACAD_REACTORS
330
64
102
}
330
64
100
AcDbTableStyle
280
     0
  3
Standard
 70
     0
 71
     0
 40
0.06
 41
0.06
280
     0
281
     0
  7
Standard
140
0.18
170
     2
 62
     0
 63
     7
283
     0
 90
      512
 91
        0
  1

274
    -2
284
     1
 64
     0
275
    -2
285
     1
 65
     0
276
    -2
286
     1
 66
     0
277
    -2
287
     1
 67
     0
278
    -2
288
     1
 68
     0
279
    -2
289
     1
 69
     0
  7
Standard
140
0.25
170
     5
 62
     0
 63
     7
283
     0
 90
      512
 91
        0
  1

274
    -2
284
     1
 64
     0
275
    -2
285
     1
 65
     0
276
    -2
286
     1
 66
     0
277
    -2
287
     1
 67
     0
278
    -2
288
     1
 68
     0
279
    -2
289
     1
 69
     0
  7
Standard
140
0.18
170
     5
 62
     0
 63
     7
283
     0
 90
      512
 91
        0
  1

274
    -2
284
     1
 64
     0
275
    -2
285
     1
 65
     0
276
    -2
286
     1
 66
     0
277
    -2
287
     1
 67
     0
278
    -2
288
     1
 68
     0
279
    -2
289
     1
 69
     0
  0
VISUALSTYLE
  5
2F
102
{ACAD_REACTORS
330
29
102
}
330
29
100
AcDbVisualStyle
  2
2dWireframe
 70
     4
177
     2
291
     0
 71
     0
176
     1
 72
     2
176
     1
 73
     0
176
     1
 90
        0
176
     1
 40
0.6
176
     1
 41
30.0
176
     1
 63
     7
421
 16777215
176
     1
 74
     1
176
     1
 91
        4
176
     1
 64
     7
176
     1
 65
   257
176
     1
 75
     1
176
     1
175
     1
176
     1
 42
1.0
176
     1
 92
        0
176
     1
 66
   257
176
     1
 43
1.0
176
     1
 76
     1
176
     1
 77
     6
176
     1
 78
     2
176
     1
 67
     7
176
     1
 79
     5
176
     1
170
     0
176
     1
171
     0
176
     1
290
     0
176
     1
 93
        1
176
     1
 44
0.0
176
     1
173
     0
176
     1
  0
VISUALSTYLE
  5
2E
102
{ACAD_REACTORS
330
29
102
}
330
29
100
AcDbVisualStyle
  2
Basic
 70
     7
177
     2
291
     1
 71
     1
176
     1
 72
     0
176
     1
 73
     1
176
     1
 90
        0
176
     1
 40
0.6
176
     1
 41
30.0
176
     1
 63
     7
421
 16777215
176
     1
 74
     0
176
     1
 91
        4
176
     1
 64
     7
176
     1
 65
   257
176
     1
 75
     1
176
     1
175
     1
176
     1
 42
1.0
176
     1
 92
        8
176
     1
 66
     7
176
     1
 43
1.0
176
     1
 76
     1
176
     1
 77
     6
176
     1
 78
     2
176
     1
 67
     7
176
     1
 79
     5
176
     1
170
     0
176
     1
171
     0
176
     1
290
     0
176
     1
 93
        1
176
     1
 44
0.0
176
     1
173
     0
176
     1
  0
VISUALSTYLE
  5
35
102
{ACAD_REACTORS
330
29
102
}
330
29
100
AcDbVisualStyle
  2
Brighten
 70
    12
177
     2
291
     1
 71
     2
176
     1
 72
     2
176
     1
 73
     0
176
     1
 90
        0
176
     1
 40
0.6
176
     1
 41
30.0
176
     1
 63
     7
421
 16777215
176
     1
 74
     1
176
     1
 91
        4
176
     1
 64
     7
176
     1
 65
   257
176
     1
 75
     1
176
     1
175
     1
176
     1
 42
1.0
176
     1
 92
        8
176
     1
 66
     7
176
     1
 43
1.0
176
     1
 76
     1
176
     1
 77
     6
176
     1
 78
     2
176
     1
 67
     7
176
     1
 79
     5
176
     1
170
     0
176
     1
171
     0
176
     1
290
     0
176
     1
 93
        1
176
     1
 44
50.0
176
     1
173
     0
176
     1
  0
VISUALSTYLE
  5
39
102
{ACAD_REACTORS
330
29
102
}
330
29
100
AcDbVisualStyle
  2
ColorChange
 70
    16
177
     2
291
     1
 71
     2
176
     1
 72
     2
176
     1
 73
     3
176
     1
 90
        0
176
     1
 40
0.6
176
     1
 41
30.0
176
     1
 63
     8
421
  8421504
176
     1
 74
     1
176
     1
 91
        4
176
     1
 64
     7
176
     1
 65
   257
176
     1
 75
     1
176
     1
175
     1
176
     1
 42
1.0
176
     1
 92
        8
176
     1
 66
     8
424
  8421504
176
     1
 43
1.0
176
     1
 76
     1
176
     1
 77
     6
176
     1
 78
     2
176
     1
 67
     7
176
     1
 79
     5
176
     1
170
     0
176
     1
171
     0
176
     1
290
     0
176
     1
 93
        1
176
     1
 44
0.0
176
     1
173
     0
176
     1
  0
VISUALSTYLE
  5
32
102
{ACAD_REACTORS
330
29
102
}
330
29
100
AcDbVisualStyle
  2
Conceptual
 70
     9
177
     2
291
     0
 71
     3
176
     1
 72
     2
176
     1
 73
     0
176
     1
 90
        0
176
     1
 40
0.6
176
     1
 41
30.0
176
     1
 63
     7
421
 16777215
176
     1
 74
     2
176
     1
 91
        2
176
     1
 64
     7
176
     1
 65
   257
176
     1
 75
     1
176
     1
175
     1
176
     1
 42
179.0
176
     1
 92
        8
176
     1
 66
     7
176
     1
 43
1.0
176
     1
 76
     1
176
     1
 77
     6
176
     1
 78
     2
176
     1
 67
     7
176
     1
 79
     3
176
     1
170
     0
176
     1
171
     0
176
     1
290
     0
176
     1
 93
        1
176
     1
 44
0.0
176
     1
173
     0
176
     1
  0
VISUALSTYLE
  5
34
102
{ACAD_REACTORS
330
29
102
}
330
29
100
AcDbVisualStyle
  2
Dim
 70
    11
177
     2
291
     1
 71
     2
176
     1
 72
     2
176
     1
 73
     0
176
     1
 90
        0
176
     1
 40
0.6
176
     1
 41
30.0
176
     1
 63
     7
421
 16777215
176
     1
 74
     1
176
     1
 91
        4
176
     1
 64
     7
176
     1
 65
   257
176
     1
 75
     1
176
     1
175
     1
176
     1
 42
1.0
176
     1
 92
        8
176
     1
 66
     7
176
     1
 43
1.0
176
     1
 76
     1
176
     1
 77
     6
176
     1
 78
     2
176
     1
 67
     7
176
     1
 79
     5
176
     1
170
     0
176
     1
171
     0
176
     1
290
     0
176
     1
 93
        1
176
     1
 44
-50.0
176
     1
173
     0
176
     1
  0
VISUALSTYLE
  5
41
102
{ACAD_REACTORS
330
29
102
}
330
29
100
AcDbVisualStyle
  2
EdgeColorOff
 70
    22
177
     2
291
     1
 71
     2
176
     0
 72
     2
176
     0
 73
     0
176
     0
 90
        0
176
     0
 40
0.6
176
     0
 41
30.0
176
     0
 63
     7
421
 16777215
176
     0
 74
     1
176
     0
 91
        4
176
     0
 64
     7
176
     0
 65
   257
176
     0
 75
     1
176
     0
175
     1
176
     0
 42
1.0
176
     0
 92
        8
176
     2
 66
     7
176
     0
 43
1.0
176
     0
 76
     1
176
     0
 77
     6
176
     0
 78
     2
176
     0
 67
     7
176
     0
 79
     5
176
     0
170
     0
176
     0
171
     0
176
     0
290
     0
176
     0
 93
        1
176
     0
 44
0.0
176
     0
173
     0
176
     0
  0
VISUALSTYLE
  5
38
102
{ACAD_REACTORS
330
29
102
}
330
29
100
AcDbVisualStyle
  2
Facepattern
 70
    15
177
     2
291
     1
 71
     2
176
     1
 72
     2
176
     1
 73
     0
176
     1
 90
        0
176
     1
 40
0.6
176
     1
 41
30.0
176
     1
 63
     7
421
 16777215
176
     1
 74
     1
176
     1
 91
        4
176
     1
 64
     7
176
     1
 65
   257
176
     1
 75
     1
176
     1
175
     1
176
     1
 42
1.0
176
     1
 92
        8
176
     1
 66
     7
176
     1
 43
1.0
176
     1
 76
     1
176
     1
 77
     6
176
     1
 78
     2
176
     1
 67
     7
176
     1
 79
     5
176
     1
170
     0
176
     1
171
     0
176
     1
290
     0
176
     1
 93
        1
176
     1
 44
0.0
176
     1
173
     0
176
     1
  0
VISUALSTYLE
  5
2A
102
{ACAD_REACTORS
330
29
102
}
330
29
100
AcDbVisualStyle
  2
Flat
 70
     0
177
     2
291
     1
 71
     2
176
     1
 72
     1
176
     1
 73
     1
176
     1
 90
        2
176
     1
 40
0.6
176
     1
 41
30.0
176
     1
 63
     7
421
 16777215
176
     1
 74
     0
176
     1
 91
        0
176
     1
 64
     7
176
     1
 65
   257
176
     1
 75
     1
176
     1
175
     1
176
     1
 42
1.0
176
     1
 92
        8
176
     1
 66
     7
176
     1
 43
1.0
176
     1
 76
     1
176
     1
 77
     6
176
     1
 78
     2
176
     1
 67
     7
176
     1
 79
     5
176
     1
170
     0
176
     1
171
     0
176
     1
290
     0
176
     1
 93
       13
176
     1
 44
0.0
176
     1
173
     0
176
     1
  0
VISUALSTYLE
  5
2B
102
{ACAD_REACTORS
330
29
102
}
330
29
100
AcDbVisualStyle
  2
FlatWithEdges
 70
     1
177
     2
291
     1
 71
     2
176
     1
 72
     1
176
     1
 73
     1
176
     1
 90
        2
176
     1
 40
0.6
176
     1
 41
30.0
176
     1
 63
     7
421
 16777215
176
     1
 74
     1
176
     1
 91
        0
176
     1
 64
     7
176
     1
 65
   257
176
     1
 75
     1
176
     1
175
     1
176
     1
 42
1.0
176
     1
 92
        0
176
     1
 66
   257
176
     1
 43
1.0
176
     1
 76
     1
176
     1
 77
     6
176
     1
 78
     2
176
     1
 67
     7
176
     1
 79
     5
176
     1
170
     0
176
     1
171
     0
176
     1
290
     0
176
     1
 93
       13
176
     1
 44
0.0
176
     1
173
     0
176
     1
  0
VISUALSTYLE
  5
2C
102
{ACAD_REACTORS
330
29
102
}
330
29
100
AcDbVisualStyle
  2
Gouraud
 70
     2
177
     2
291
     1
 71
     2
176
     1
 72
     2
176
     1
 73
     1
176
     1
 90
        2
176
     1
 40
0.6
176
     1
 41
30.0
176
     1
 63
     7
421
 16777215
176
     1
 74
     0
176
     1
 91
        0
176
     1
 64
     7
176
     1
 65
   257
176
     1
 75
     1
176
     1
175
     1
176
     1
 42
1.0
176
     1
 92
        0
176
     1
 66
     7
176
     1
 43
1.0
176
     1
 76
     1
176
     1
 77
     6
176
     1
 78
     2
176
     1
 67
     7
176
     1
 79
     5
176
     1
170
     0
176
     1
171
     0
176
     1
290
     0
176
     1
 93
       13
176
     1
 44
0.0
176
     1
173
     0
176
     1
  0
VISUALSTYLE
  5
2D
102
{ACAD_REACTORS
330
29
102
}
330
29
100
AcDbVisualStyle
  2
GouraudWithEdges
 70
     3
177
     2
291
     1
 71
     2
176
     1
 72
     2
176
     1
 73
     1
176
     1
 90
        2
176
     1
 40
0.6
176
     1
 41
30.0
176
     1
 63
     7
421
 16777215
176
     1
 74
     1
176
     1
 91
        0
176
     1
 64
     7
176
     1
 65
   257
176
     1
 75
     1
176
     1
175
     1
176
     1
 42
1.0
176
     1
 92
        0
176
     1
 66
   257
176
     1
 43
1.0
176
     1
 76
     1
176
     1
 77
     6
176
     1
 78
     2
176
     1
 67
     7
176
     1
 79
     5
176
     1
170
     0
176
     1
171
     0
176
     1
290
     0
176
     1
 93
       13
176
     1
 44
0.0
176
     1
173
     0
176
     1
  0
VISUALSTYLE
  5
31
102
{ACAD_REACTORS
330
29
102
}
330
29
100
AcDbVisualStyle
  2
Hidden
 70
     6
177
     2
291
     0
 71
     1
176
     1
 72
     2
176
     1
 73
     2
176
     1
 90
        0
176
     1
 40
0.6
176
     1
 41
30.0
176
     1
 63
     7
421
 16777215
176
     1
 74
     2
176
     1
 91
        2
176
     1
 64
     7
176
     1
 65
   257
176
     1
 75
     2
176
     1
175
     1
176
     1
 42
40.0
176
     1
 92
        0
176
     1
 66
   257
176
     1
 43
1.0
176
     1
 76
     1
176
     1
 77
     6
176
     1
 78
     2
176
     1
 67
     7
176
     1
 79
     3
176
     1
170
     0
176
     1
171
     0
176
     1
290
     0
176
     1
 93
        1
176
     1
 44
0.0
176
     1
173
     0
176
     1
  0
VISUALSTYLE
  5
3F
102
{ACAD_REACTORS
330
29
102
}
330
29
100
AcDbVisualStyle
  2
JitterOff
 70
    20
177
     2
291
     1
 71
     2
176
     0
 72
     2
176
     0
 73
     0
176
     0
 90
        0
176
     0
 40
0.6
176
     0
 41
30.0
176
     0
 63
     7
421
 16777215
176
     0
 74
     1
176
     0
 91
        4
176
     0
 64
     7
176
     0
 65
   257
176
     0
 75
     1
176
     0
175
     1
176
     0
 42
1.0
176
     0
 92
       10
176
     2
 66
     7
176
     0
 43
1.0
176
     0
 76
     1
176
     0
 77
     6
176
     0
 78
     2
176
     0
 67
     7
176
     0
 79
     5
176
     0
170
     0
176
     0
171
     0
176
     0
290
     0
176
     0
 93
        1
176
     0
 44
0.0
176
     0
173
     0
176
     0
  0
VISUALSTYLE
  5
37
102
{ACAD_REACTORS
330
29
102
}
330
29
100
AcDbVisualStyle
  2
Linepattern
 70
    14
177
     2
291
     1
 71
     2
176
     1
 72
     2
176
     1
 73
     0
176
     1
 90
        0
176
     1
 40
0.6
176
     1
 41
30.0
176
     1
 63
     7
421
 16777215
176
     1
 74
     1
176
     1
 91
        4
176
     1
 64
     7
176
     1
 65
   257
176
     1
 75
     7
176
     1
175
     7
176
     1
 42
1.0
176
     1
 92
        8
176
     1
 66
     7
176
     1
 43
1.0
176
     1
 76
     1
176
     1
 77
     6
176
     1
 78
     2
176
     1
 67
     7
176
     1
 79
     5
176
     1
170
     0
176
     1
171
     0
176
     1
290
     0
176
     1
 93
        1
176
     1
 44
0.0
176
     1
173
     0
176
     1
  0
VISUALSTYLE
  5
40
102
{ACAD_REACTORS
330
29
102
}
330
29
100
AcDbVisualStyle
  2
OverhangOff
 70
    21
177
     2
291
     1
 71
     2
176
     0
 72
     2
176
     0
 73
     0
176
     0
 90
        0
176
     0
 40
0.6
176
     0
 41
30.0
176
     0
 63
     7
421
 16777215
176
     0
 74
     1
176
     0
 91
        4
176
     0
 64
     7
176
     0
 65
   257
176
     0
 75
     1
176
     0
175
     1
176
     0
 42
1.0
176
     0
 92
        9
176
     2
 66
     7
176
     0
 43
1.0
176
     0
 76
     1
176
     0
 77
     6
176
     0
 78
     2
176
     0
 67
     7
176
     0
 79
     5
176
     0
170
     0
176
     0
171
     0
176
     0
290
     0
176
     0
 93
        1
176
     0
 44
0.0
176
     0
173
     0
176
     0
  0
VISUALSTYLE
  5
33
102
{ACAD_REACTORS
330
29
102
}
330
29
100
AcDbVisualStyle
  2
Realistic
 70
     8
177
     2
291
     0
 71
     2
176
     1
 72
     3
176
     1
 73
     0
176
     1
 90
        2
176
     1
 40
0.6
176
     1
 41
30.0
176
     1
 63
     7
421
 16777215
176
     1
 74
     0
176
     1
 91
        0
176
     1
 64
     7
176
     1
 65
   257
176
     1
 75
     1
176
     1
175
     1
176
     1
 42
1.0
176
     1
 92
        8
176
     1
 66
   257
176
     1
 43
1.0
176
     1
 76
     1
176
     1
 77
     6
176
     1
 78
     2
176
     1
 67
     7
176
     1
 79
     3
176
     1
170
     0
176
     1
171
     0
176
     1
290
     0
176
     1
 93
       13
176
     1
 44
0.0
176
     1
173
     0
176
     1
  0
VISUALSTYLE
  5
3E
102
{ACAD_REACTORS
330
29
102
}
330
29
100
AcDbVisualStyle
  2
Shaded
 70
    27
177
     2
291
     0
 71
     2
176
     1
 72
     2
176
     1
 73
     1
176
     1
 90
        2
176
     1
 40
0.6
176
     1
 41
30.0
176
     1
 63
     7
421
 16777215
176
     1
 74
     0
176
     1
 91
        4
176
     1
 64
     7
176
     1
 65
   257
176
     1
 75
     1
176
     1
175
     1
176
     1
 42
1.0
176
     1
 92
        8
176
     1
 66
   257
176
     1
 43
1.0
176
     1
 76
     1
176
     1
 77
     6
176
     1
 78
     2
176
     1
 67
     8
425
  7895160
176
     1
 79
     3
176
     1
170
     0
176
     1
171
     0
176
     1
290
     0
176
     1
 93
        5
176
     1
 44
0.0
176
     1
173
     0
176
     1
  0
VISUALSTYLE
  5
3D
102
{ACAD_REACTORS
330
29
102
}
330
29
100
AcDbVisualStyle
  2
Shaded with edges
 70
    26
177
     2
291
     0
 71
     2
176
     1
 72
     2
176
     1
 73
     1
176
     1
 90
        2
176
     1
 40
0.6
176
     1
 41
30.0
176
     1
 63
     7
421
 16777215
176
     1
 74
     1
176
     1
 91
       10
176
     1
 64
     7
176
     1
 65
   257
176
     1
 75
     2
176
     1
175
     1
176
     1
 42
1.0
176
     1
 92
        8
176
     1
 66
   257
176
     1
 43
1.0
176
     1
 76
     1
176
     1
 77
     6
176
     1
 78
     2
176
     1
 67
     7
176
     1
 79
     3
176
     1
170
     0
176
     1
171
     0
176
     1
290
     0
176
     1
 93
        5
176
     1
 44
0.0
176
     1
173
     0
176
     1
  0
VISUALSTYLE
  5
3A
102
{ACAD_REACTORS
330
29
102
}
330
29
100
AcDbVisualStyle
  2
Shades of Gray
 70
    23
177
     2
291
     0
 71
     2
176
     1
 72
     2
176
     1
 73
     3
176
     1
 90
        0
176
     1
 40
0.6
176
     1
 41
30.0
176
     1
 63
     7
421
 16777215
176
     1
 74
     2
176
     1
 91
        2
176
     1
 64
     7
176
     1
 65
     7
176
     1
 75
     1
176
     1
175
     1
176
     1
 42
40.0
176
     1
 92
        8
176
     1
 66
     7
176
     1
 43
1.0
176
     1
 76
     1
176
     1
 77
     6
176
     1
 78
     2
176
     1
 67
     7
176
     1
 79
     3
176
     1
170
     0
176
     1
171
     0
176
     1
290
     0
176
     1
 93
        1
176
     1
 44
0.0
176
     1
173
     0
176
     1
  0
VISUALSTYLE
  5
3B
102
{ACAD_REACTORS
330
29
102
}
330
29
100
AcDbVisualStyle
  2
Sketchy
 70
    24
177
     2
291
     0
 71
     1
176
     1
 72
     2
176
     1
 73
     2
176
     1
 90
        0
176
     1
 40
0.6
176
     1
 41
30.0
176
     1
 63
     7
421
 16777215
176
     1
 74
     2
176
     1
 91
        2
176
     1
 64
     7
176
     1
 65
     7
176
     1
 75
     1
176
     1
175
     1
176
     1
 42
40.0
176
     1
 92
       11
176
     1
 66
     7
176
     1
 43
1.0
176
     1
 76
     1
176
     1
 77
     6
176
     1
 78
     2
176
     1
 67
     7
176
     1
 79
     6
176
     1
170
     0
176
     1
171
     0
176
     1
290
     0
176
     1
 93
        1
176
     1
 44
0.0
176
     1
173
     0
176
     1
  0
VISUALSTYLE
  5
36
102
{ACAD_REACTORS
330
29
102
}
330
29
100
AcDbVisualStyle
  2
Thicken
 70
    13
177
     2
291
     1
 71
     2
176
     1
 72
     2
176
     1
 73
     0
176
     1
 90
        0
176
     1
 40
0.6
176
     1
 41
30.0
176
     1
 63
     7
421
 16777215
176
     1
 74
     1
176
     1
 91
        4
176
     1
 64
     7
176
     1
 65
   257
176
     1
 75
     1
176
     1
175
     1
176
     1
 42
1.0
176
     1
 92
       12
176
     1
 66
     7
176
     1
 43
1.0
176
     1
 76
     1
176
     1
 77
     6
176
     1
 78
     2
176
     1
 67
     7
176
     1
 79
     5
176
     1
170
     0
176
     1
171
     0
176
     1
290
     0
176
     1
 93
        1
176
     1
 44
0.0
176
     1
173
     0
176
     1
  0
VISUALSTYLE
  5
30
102
{ACAD_REACTORS
330
29
102
}
330
29
100
AcDbVisualStyle
  2
Wireframe
 70
     5
177
     2
291
     0
 71
     0
176
     1
 72
     2
176
     1
 73
     0
176
     1
 90
        0
176
     1
 40
0.6
176
     1
 41
30.0
176
     1
 63
     7
421
 16777215
176
     1
 74
     1
176
     1
 91
        4
176
     1
 64
     7
176
     1
 65
   257
176
     1
 75
     1
176
     1
175
     1
176
     1
 42
1.0
176
     1
 92
        0
176
     1
 66
   257
176
     1
 43
1.0
176
     1
 76
     1
176
     1
 77
     6
176
     1
 78
     2
176
     1
 67
     7
176
     1
 79
     3
176
     1
170
     0
176
     1
171
     0
176
     1
290
     0
176
     1
 93
        1
176
     1
 44
0.0
176
     1
173
     0
176
     1
  0
VISUALSTYLE
  5
3C
102
{ACAD_REACTORS
330
29
102
}
330
29
100
AcDbVisualStyle
  2
X-Ray
 70
    25
177
     2
291
     0
 71
     2
176
     1
 72
     2
176
     1
 73
     1
176
     1
 90
        1
176
     1
 40
0.5
176
     1
 41
30.0
176
     1
 63
     7
421
 16777215
176
     1
 74
     1
176
     1
 91
        0
176
     1
 64
     7
176
     1
 65
   257
176
     1
 75
     1
176
     1
175
     1
176
     1
 42
1.0
176
     1
 92
        8
176
     1
 66
     7
176
     1
 43
1.0
176
     1
 76
     1
176
     1
 77
     6
176
     1
 78
     2
176
     1
 67
     7
176
     1
 79
     3
176
     1
170
     0
176
     1
171
     0
176
     1
290
     0
176
     1
 93
       13
176
     1
 44
0.0
176
     1
173
     0
176
     1
  0
DICTIONARYVAR
  5
79
102
{ACAD_REACTORS
330
76
102
}
330
76
100
DictionaryVariables
280
     0
  1
1:1
  0
DICTIONARYVAR
  5
78
102
{ACAD_REACTORS
330
76
102
}
330
76
100
DictionaryVariables
280
     0
  1
STANDARD
  0
DICTIONARYVAR
  5
77
102
{ACAD_REACTORS
330
76
102
}
330
76
100
DictionaryVariables
280
     0
  1
STANDARD
  0
DICTIONARY
  5
1A
330
19
100
AcDbDictionary
280
     1
281
     1
  3
BUMPTILE
360
1C
  3
DIFFUSETILE
360
1B
  3
OPACITYTILE
360
1F
  3
REFLECTIONTILE
360
1E
  3
REFRACTIONTILE
360
20
  3
SPECULARTILE
360
1D
  0
DICTIONARY
  5
12
330
11
100
AcDbDictionary
280
     1
281
     1
  3
BUMPTILE
360
14
  3
DIFFUSETILE
360
13
  3
FBXASSET
360
109
  3
OPACITYTILE
360
17
  3
REFLECTIONTILE
360
16
  3
REFRACTIONTILE
360
18
  3
SPECULARTILE
360
15
  0
DICTIONARY
  5
22
330
21
100
AcDbDictionary
280
     1
281
     1
  3
BUMPTILE
360
24
  3
DIFFUSETILE
360
23
  3
FBXASSET
360
BA
  3
OPACITYTILE
360
27
  3
REFLECTIONTILE
360
26
  3
REFRACTIONTILE
360
28
  3
SPECULARTILE
360
25
  0
DICTIONARY
  5
E78
330
67
100
AcDbDictionary
280
     1
281
     1
  3
ACAD_XREC_ROUNDTRIP
360
E79
  0
DICTIONARY
  5
E76
330
65
100
AcDbDictionary
280
     1
281
     1
  3
ACAD_ROUNDTRIP_2008_TABLESTYLE_CELLSTYLEMAP
360
E77
  0
XRECORD
  5
1C
102
{ACAD_REACTORS
330
1A
102
}
330
1A
100
AcDbXrecord
280
     1
270
     1
271
     1
  0
XRECORD
  5
1B
102
{ACAD_REACTORS
330
1A
102
}
330
1A
100
AcDbXrecord
280
     1
270
     1
271
     1
  0
XRECORD
  5
1F
102
{ACAD_REACTORS
330
1A
102
}
330
1A
100
AcDbXrecord
280
     1
270
     1
271
     1
  0
XRECORD
  5
1E
102
{ACAD_REACTORS
330
1A
102
}
330
1A
100
AcDbXrecord
280
     1
270
     1
271
     1
  0
XRECORD
  5
20
102
{ACAD_REACTORS
330
1A
102
}
330
1A
100
AcDbXrecord
280
     1
270
     1
271
     1
  0
XRECORD
  5
1D
102
{ACAD_REACTORS
330
1A
102
}
330
1A
100
AcDbXrecord
280
     1
270
     1
271
     1
  0
XRECORD
  5
14
102
{ACAD_REACTORS
330
12
102
}
330
12
100
AcDbXrecord
280
     1
270
     1
271
     1
  0
XRECORD
  5
13
102
{ACAD_REACTORS
330
12
102
}
330
12
100
AcDbXrecord
280
     1
270
     1
271
     1
  0
XRECORD
  5
109
102
{ACAD_REACTORS
330
12
102
}
330
12
100
AcDbXrecord
280
     1
 70
     1
 90
1959938040
 71
     1
  1
3D50BA23-A986-4093-92C2-0B99740D09EB
311
504B03040A0000080000B754D5423DEE336E79000000790000001B0000006175746F6465736B2D64657369676E2D7061636B6167652E786D6C3C3F786D6C2076657273696F6E3D22312E302220656E636F64696E673D227574662D3822203F3E3C666F726D6174733E3C666F726D61743E687474703A2F2F736368656D612E
311
6175746F6465736B2E636F6D2F64657369676E2D7061636B6167652F323030393C2F666F726D61743E3C2F666F726D6174733E504B0304140006080800B754D542D486FD9CA0000000F4000000130000005B436F6E74656E745F54797065735D2E786D6C7D8EC10E82300C865F65E91D8A1E8C310C0EEA1BF002731658846E
311
D98AC1B77784ABF1D8FE5FBFBF75BBCE937A534CCEB38643598122B6FEE978D0B0485F9C41B54DDD7D022595594E1A469170414C76A4D9A4D207E29CF43ECE46F218070CC6BECC4078ACAA135ACF422C856C0E68EA1BF5669944DDD7BCDE7B1F8E415D77AECB980613C2E4AC91FC167A2B244592486606FC29C8FD7F045B9A
311
EF7053A7E60B504B0304140006080800B754D54288DB0198EB0000007C01000008000000636F72652E786D6C8D904D6EC3201085AF82665B61837F6B0B13257273825E0001715062B00C543D7E71E248EDAEAB19BD79DFCCE8B1C3F77C475F7AF5C6D901684600692B9D32761A20860B7E0774E06C752EFCB201B262D6036C
311
327036AD2E2EBB249D0DDA86A45AA7F42E0AEF750024EFA919C0CBAB9E452662480E7FCB16216F62D2197D75098ED128F43C6254DA672E46AFC0C7E658361FD588DBE6D4E16AAC09EEEAFA88BBD33856B43EB7EDB963F9067316CCFCBA2F572D8256C00B424B4C1A5CD04F4AFAB2EDABF68DD47D4958BED9FF407151FF84A2
311
B1A12CF6779F98074ED3238F0167F996452A8FA052DD72E33F504B0304140006080800B754D54255019EA25F0000007C00000007000000636E782E786D6C4DCB3B0E80201045D1AD90E915ED2CF8AC45050C11660C8261F98AB1B07AC9C97D42D718D865D3E909258CFD00CCE24AC6E326A164D74DC0B4128928FF32603847
311
2BA13128B1252AC747C6BAB984FC68F0B87FE8960A5C09FE86CFB69FBA01504B0304140006080800B754D54238DF569A67010000020300000C0000006662782F636F72652E786D6C8D52ED8A8330107C9590BF87C66FCF12535ABC3EC1BD40AAA927D54462227DFC5B3F8AD7A39422C430B3B33B3B4AF7B7AE45A3D043A364
311
8E7DD7C348C852558DAC736CCDC5F9C468CFA856CAFC29C348F24EE4788231A3B556B65FA1524923A40154AA4AAC201F0661302A5BB8E478287F44C75D6E0D540C57B7E7E595D7C2F55DA0A18ED1C16830809621D389D9E57CA364C119B5B6A956B6A9605A736984C6AC480E61F215154E9A1C33272A62CFC9E2F8E064C7A2
311
88FCF894A6A78C9249CCA869BABBBB520B6E448559E0F9A1E3254EE07FFBDE2E4C7751FAE1C5BBD0A3642A7F10D9BE7A53641B69C260B5BBC806CC7C303213FFB685880C1AF8087E08A3640A115E73C28F41432010B2E1E7F6BEC715A0519446E908984AD98D1A796B054CF5D0FC50B2B0D0796E009B3DED13BCE8F3BA077C
311
402E6BB0C60D5CCFD64CD3E932758DA217DA19CD0D49A53BDE6EE6168BDBB90D7A2A2F55ABF43B6AB2AE4AD630C9F4F7B25F504B0304140006080800B754D542663F6D1E7C0000009D0000000B0000006662782F636E782E786D6C4DCCD10AC2201805E05791FFDE5669A0A08E59FA1EA3B921390DD3E8F173B18BAECEE1E3
311
7044FF59037ABBFCF2294A381D8E805CBCA7C9C745422D3366807A25724AE56F06288EAB93B03128B1E4549F3B4D6E1E6B284D838F8F1D8DBD9DB565140FDC724C29219873635BE357AA870B23DA40A744F77B6AB91DAB2F504B0304140006080800B754D5424A1D27EC2D01000014020000310000006662782F4546443242
311
4638342D413946392D343433332D393945462D3434394334424135383342452F636F72652E786D6C8D515B6EC32010BC0AE2AB55651B0C89E30813256D7C825EC0C1244589C1E251E5F85DD78ED4FEE58745B333B3A35DB1BB0F37F4AD7D30CE3698E604236D95EB8DBD3438C573B6C1682785772EFEA16164BB41377882B1
311
1417EFD2B840CAD9A86D04D4BA5E2F6017828E18A91B7C1A1CD4971EBABC4B1118E19A8F9DBA76179DD31CDAC09322440F01D03C647AB13CB61FE5A1DDF06C5FB775C63963595D1F5BF8D5EFFCB05F6DD8E1288A5928454AA65FE4A68738E66CB47FD664124B11CDF088AFBCEEA2EEB12C096519596725FDA464CBAA2DAFDE
311
C86ACB882826FA3F511AFB2745C9D8C8CA25EE2C0B585251CC0D297A974EB747187D1F9D8F689AF712B47AC592E4849655C92A90CC54580078AEF9E219A2F3B0E097EB09D874351BAFB914C5742328BF07843ADD53FE00504B0304140006080800B754D542E0B6BF9F4E01000033030000300000006662782F454644324246
311
38342D413946392D343433332D393945462D3434394334424135383342452F636E782E786D6CD593CD6E022114855F85B06DE6CF996A63184CBAE81374D12DC255A90C4CF869EADBF7A268DDB8E8B21B3239F770CECD17866DBE2743BEC007EDEC48BBBAA504AC744ADBFD4853DC552F946C38F3CEC53B1B25564C30D22C53
311
CEF6DEA5B9480A76229988AAD1F658440FC1252F21A09C6F12E3A4301800B64A28C2B405A540919B11BF76E0711514B727120F40DE5E3F88DB7E828C81353985B326777096CFD27467A2441A11C248833CC0246A91A253108EB51251D45D7DED7AB0D36F12C917AE95C96B92CB479A4FCACB463572640D0E390BD123BD628A
311
A7192817F36CB41411213767E3C5C359D2362E87E2D508DEA3BB5BF6C38061E71967514F501CD28388A0285FB45D5FB5CB6AD1BD77EDBA5FAD87D553FBBCEE5BD6643B675BE74CB98431E0DD4CA4B3116CA4BC634D1E3FC2577C44698FAC9D3FFD01240228AD173AB78CFFCCA739BF6FC4E5F12FE03F504B03041400060808
311
00B754D5420830948BA405000081100000340000006662782F45464432424638342D413946392D343433332D393945462D3434394334424135383342452F6F626A656374732E786D6CAD57D96EDB3814FD1541F332F3605B5E92C603458597A630DAB4458D16F360C0A0254AE1845A405289335F3F8722254BAE9D7A067DD1
311
C2E5F2DE73CF5DE8BFDDA7DC79A242B23CBB75877DCF756816E611CB925BB75471EFC675DE06BEC873D55AE63A1949E9ADAB87DDC04F445E167628A23129B93A1ABD9BFFE5C89066D475424EA4BC7565F84053D227A5CA232A1FFB1151A49FC4FBFEB06F1676C52682140F47420B2268A6A029C63348718C52C3EEAFE70E02
311
7FA0E7035F3FEDAAF1F95583CA9EEEF92C938A64E10F871D89190F27CB77A3AB69EF6A3219F726D7A3616F7E375FF6866FC6DEE27AB198CEDE4D71B0540292AC2682C66EF01ED80816FA033315F825CBD478649758070D047D62DA536E307286FEC0AC69ACB3469E523FCCB38C86155640A3B2CF8A8E6841B3083E675442B3
311
16425EF777A8716C4D8FF5BF3DB23D7C1902ED1D2D41B5EEF5BBAD69BEFB1B26C84B182424D50C34585A430D57BD03C2BB3CE7768E4927258A0A46B8C3D94E10F1E20658AA97047E478C66B2D0D1A02D700378C14C77E98230FA39CF4F6919979C6B1ABB4115055BC40A55B2D28CFD43C541FB3632D009BED26CB8B106A997
311
82BAC1D450E4E6884D064827E62481CB61A6DE391E1D19BAD071BA5ABAC187BBDD7EAD63F7F4E185C80B2A94A60FA8553BAE7E6B94AC4EC38B3CA737B847AA1C40F90AE43F21D40FAAC06F82ED27FB893D450992C93817297CE3784ECFC3C37386D5537FB7BEFC41B3B9EBBD7378C2D91AAA5F8067D786B62F5B7006FE1308
311
9F8BB1356D1D128EB471CF3200A449E2F01C43C8C3F16EEF062B64396465EC223C18C264A8FB844F7F60C520515427B5DE19B03C4A8B172468C05631126A18F25B050F7EFA219D5507DB65E7E0BDFA25749D2DD71FD6A5884948EF6D4C2F69CC32A650E20EBC692BD4C1BC63D1237D79CE4504437FC47BDDC63BB54749A0AD
311
31D7C027754ED73F87933B0784D897E43ADDF83F390146E8C2DA927FCF6448392719CDCBFADC57EB07CA86815807BB667253600E8505A43133473188221D0A5668109B6AD524CDFE19EBBEAD3E81916E307FF9485EDAD96B77C8BD61CE73B1DDBD6C4D5A3A09F5F72EB72D06032D0574AF82A48E7F0BFA3662715C4A24C113
311
B87E5F2DDABED3690129A2966AA26502FB115C4458D2D67251AD054125CDB32D43DD44DC9D3CA02D1F905A065402CF692C298FB78CF332DDC68CA31A6D53529C81E3FFEBBF2BD3624BD2BCCCD419D91DD5511DBABA77D82B9F890A1FDC605DBD7B73E4DE884667C8A06BC909AC3AAE1D2FAFBCF96C34EECDA637D7BD89371D
311
F7A6A3C5A8E7CDA7D337136FE94DDFCD6B3F194D02BF2E35ED88869750DAFC5230EBBE6F2BC48F4D026E704F94DCBC37E159BFBFADFAE885FD01F6A05E361B67D113FA3E1AFD5CC061E54941ABB4E034A599223A86EEF507FF4AD067749431E3AB9424F402299FDFAF8F8CC1C805FBBEE878A7CF477BEDE84207E44921EAA1
311
4C771961FC68636290EC175962F1AB7DD2BC4DA1A97FF59F750C3A53997316210F464E42F3942A64C30B8A9048A904F5DA3D7D64EF1E17EC7E321DA2223B4E6B4D1E089A642E1116A05619AAEEB8F31B9A3ADD57DDBA28B7FD473C6CA6701D70E6D64593AE5848657F8702AD5BA14A38B8D4EEE4D1F8932CE1E8B5CDA6E6BF
311
D9A5B1E994E466C925FD93B5CBA4706B00D24881BE010D11BC532913F8956E763EFC4F86D7EA3844E17357AAC696C340634C750C42D418656F0B68621EEDD17B04EAEB660DFBD59A0E2217DDB25E258191DA534424D54D41EB67559A2DBF0CD0A138ABCF4EC1CB04BEBC5C524F5090B9D4010E16811556664114A8BAF873F3
311
45E4B8C9A6CE1D03059CDFF737D77F6C16799AE69919DACCEC7DD8593FE0761B6D901CA8BE96C8CDC81B8E36D575C0DE50B63B22699F44F21103F0AC600DD01DF78397E6CE883A64269A7503ED8A2386AE968E2D6C1308B57469E7560D0E1A8F8C3A88217DA5D411D35E50BC7A2318544BA182402F1FFC0B504B0304140006
311
080000B754D542000000000000000000000000350000006662782F45464432424638342D413946392D343433332D393945462D3434394334424135383342452F76657274696365732E62696E504B0304140006080800B754D542F270F1330600000004000000360000006662782F45464432424638342D413946392D343433
311
332D393945462D3434394334424135383342452F747269616E676C65732E62696E636660600000504B0304140006080000B754D542000000000000000000000000370000006662782F45464432424638342D413946392D343433332D393945462D3434394334424135383342452F617474726962757465732E62696E504B03
311
04140006080800B754D542D5987DFC8F00000041010000360000006662782F45464432424638342D413946392D343433332D393945462D3434394334424135383342452F6469726563746F72792E786D6C858F410EC2201045AF4266AF15DDB800BA74E7C21B903225242D6328188F2FA5C4183471359997F9FF81E89FF3C4
311
1E1816475E02DF1F80A11FC8386F25A438EECEC07A250251FC3803E6F58C12560C4AD840E95E91C151A72936F496F35732D860FE635F62C8F2DA16B505C545B74125BAA2FA9E05D7CC053D063734D5C7665FD55B6B8D15D5E9BFEAFD8490FFA45E504B0304140006080800B754D54257B5CB20FE000000A00100003B000000
311
6662782F45464432424638342D413946392D343433332D393945462D3434394334424135383342452F7265736F75726365732F636F72652E786D6C8D50596AC33010BD8A99DF225BF25A075921A99B13F402429E2422B164B4941EBF72E242FBD79F99E12DCCE3F1FDD77CCF3ED1796DCD002CA790A15176D2E632400C67F2
311
0AD95E70676DF82583CCC81907586110FCE26C5C36485913D084841A3BE1064AEF3140A6EEE918C0AB2BCE3297312485BFE58B543779C19CE5894E3AC17D702940F67CB24E100EBD8D4EA1E7C593153C463D6D1A3DA59FFAACD18118DB43D5BED76FA46B8F3DA9C78692BE690EA43F8E63CD9A53D79D7A5EAC66C1839E7F32
311
2A8732E004A2A4AC22B42525FB60745775BBBA7BA1CDAEA2BC58E57F4C7199FE698ADA84AADCE23E6D1E044B411E84E0C5DA575A8F32D35EBB15DF504B010214000A0000080000B754D5423DEE336E79000000790000001B00000000000000000000000000000000006175746F6465736B2D64657369676E2D7061636B6167
311
652E786D6C504B01021400140006080800B754D542D486FD9CA0000000F40000001300000000000000000000000000B20000005B436F6E74656E745F54797065735D2E786D6C504B01021400140006080800B754D54288DB0198EB0000007C010000080000000000000000000000000083010000636F72652E786D6C504B01
311
021400140006080800B754D54255019EA25F0000007C000000070000000000000000000000000094020000636E782E786D6C504B01021400140006080800B754D54238DF569A67010000020300000C00000000000000000000000000180300006662782F636F72652E786D6C504B01021400140006080800B754D542663F6D
311
1E7C0000009D0000000B00000000000000000000000000A90400006662782F636E782E786D6C504B01021400140006080800B754D5424A1D27EC2D0100001402000031000000000000000000000000004E0500006662782F45464432424638342D413946392D343433332D393945462D3434394334424135383342452F636F
311
72652E786D6C504B01021400140006080800B754D542E0B6BF9F4E010000330300003000000000000000000000000000CA0600006662782F45464432424638342D413946392D343433332D393945462D3434394334424135383342452F636E782E786D6C504B01021400140006080800B754D5420830948BA4050000811000
311
003400000000000000000000000000660800006662782F45464432424638342D413946392D343433332D393945462D3434394334424135383342452F6F626A656374732E786D6C504B01021400140006080000B754D54200000000000000000000000035000000000000000000000000005C0E00006662782F454644324246
311
38342D413946392D343433332D393945462D3434394334424135383342452F76657274696365732E62696E504B01021400140006080800B754D542F270F13306000000040000003600000000000000000000000000AF0E00006662782F45464432424638342D413946392D343433332D393945462D34343943344241353833
311
42452F747269616E676C65732E62696E504B01021400140006080000B754D5420000000000000000000000003700000000000000000000000000090F00006662782F45464432424638342D413946392D343433332D393945462D3434394334424135383342452F617474726962757465732E62696E504B0102140014000608
311
0800B754D542D5987DFC8F0000004101000036000000000000000000000000005E0F00006662782F45464432424638342D413946392D343433332D393945462D3434394334424135383342452F6469726563746F72792E786D6C504B01021400140006080800B754D54257B5CB20FE000000A00100003B0000000000000000
311
0000000000411000006662782F45464432424638342D413946392D343433332D393945462D3434394334424135383342452F7265736F75726365732F636F72652E786D6C504B0506000000000E000E0080040000981100000000
310
504B03040A0000080000B754D5423DEE336E79000000790000001B0000006175746F6465736B2D64657369676E2D7061636B6167652E786D6C3C3F786D6C2076657273696F6E3D22312E302220656E636F64696E673D227574662D3822203F3E3C666F726D6174733E3C666F726D61743E687474703A2F2F736368656D612E
310
6175746F6465736B2E636F6D2F64657369676E2D7061636B6167652F323030393C2F666F726D61743E3C2F666F726D6174733E504B0304140006080800B754D542D486FD9CA0000000F4000000130000005B436F6E74656E745F54797065735D2E786D6C7D8EC10E82300C865F65E91D8A1E8C310C0EEA1BF002731658846E
310
D98AC1B77784ABF1D8FE5FBFBF75BBCE937A534CCEB38643598122B6FEE978D0B0485F9C41B54DDD7D022595594E1A469170414C76A4D9A4D207E29CF43ECE46F218070CC6BECC4078ACAA135ACF422C856C0E68EA1BF5669944DDD7BCDE7B1F8E415D77AECB980613C2E4AC91FC167A2B244592486606FC29C8FD7F045B9A
310
EF7053A7E60B504B0304140006080800B754D5426175FB38EB0000007C01000008000000636F72652E786D6C8D904D6EC3201085AF82D856D8E0DFD8C2446E649FA01740405C94182C03558F5F481CA9DD7535A337EF9B193D7AFE5EEFE04BED4E5B33409261089411566AB30C30F82B3A41706674B7D6FFB24160F8AA0698
310
64C8E8B2DBB01D92B0C62BE3A36AAC5487C89D531E02718FCD009DF8542BCF78F0D1E16ED9C6C58D2F2A23AF2EC22168099E47B48CFBF455AB1DB2A2AE4672992784BBA64255DB4DE87D6C089AC679EEA6BA694E9789E60966D4EBF5755FEC8A7B25238F498970830AF241705FB67DD5BEE1BA2F31CD93FD0F1436F94F2868
310
E3CBE278F78939C8487CE43160344F59C4F2082AD6941BFB01504B0304140006080800B754D54255019EA25F0000007C00000007000000636E782E786D6C4DCB3B0E80201045D1AD90E915ED2CF8AC45050C11660C8261F98AB1B07AC9C97D42D718D865D3E909258CFD00CCE24AC6E326A164D74DC0B4128928FF32603847
310
2BA13128B1252AC747C6BAB984FC68F0B87FE8960A5C09FE86CFB69FBA01504B0304140006080800B754D542384D5DEE68010000020300000C0000006662782F636F72652E786D6C8D52ED8E8230107C95A67F2FD0F2219EA6D478069FE05EA042E51AA125A5253EFE2D1FC6F3628C2129CDCCCEEEEC00DB5DDB060DD2F6CA
310
E81C4721C548EAD2544AD739F6EE1C7C62B4E3CC1AE3FE9461A4452B733CC298B3DA1ADF2D5069B493DA01AA4D251750F4BD7418950D5C72DC973FB215A1F00E2AFA4BD889F2226A194621D050C759EF2C1840F390F1C4FC7CBA3232E39C79AFAA8555154C5367252DE6F12ADD47876311D04D9606E97A53045FFB2C0A8AFD
310
F1B8295659F679281819C59C39D5DEDC95560A272BD0D328096816C4D17744B7C97A9BAE3FE86A9B5046C6F20791EFAA37455E6997C48BDD59D6631E819189F8B72D44E4502F06F04338236388F09A127E0C1A0281909D3835B73D2E000DB274C6A6C054C6DFA941345EC2548AA687919985CE5303D8EC699FF8459FD73DE0
310
030A5D8335E1E07AF26E9CCEE6A94B149DB4C1E0AE481BDB8AE66E6EB6783FEF839ECA4BD318FB8E9A2CAB92254C32FEBDFC17504B0304140006080800B754D54298B78E9E7C0000009D0000000B0000006662782F636E782E786D6C4DCC410E83201404D0AB90BF47515994043054E93D4C45438A6028981EBFD2B8E86A26
310
2F93E1FD6773E830F16D8317D0540490F1CF305BBF0AC869C13740BDE43184F43703E4A7CD08280C92AF31E4FDA2D92C5376E95467FDEB424DDB51D346E1E1FE6098D24161A6488B3BDD294A58E923D492D7BFA733CBB1FC02504B0304140006080800B754D5422978C7EA2A01000014020000310000006662782F45343244
310
453431412D434246392D343443412D394130322D3345334134303939413032442F636F72652E786D6C8D515B6EC32010BC0AE22B55651B0CB5930813B9497A825EC00192A2C460F1A872FC42ED48ED5F7E58343B333BDA65BBFB7803DFCA796D4D07718920504658A9CDA583319C8B35043BCE9CB5E10F0D02338CAA831986
310
9C5D9C8DD302096B823221A1C64AB58083F72A40206EE9D3412FBED43894430C89E1AFE53488EB7051252E533BF138F3C1A500601E925FC88FB43E1C29EE8BFDFBC7A6A074DF179B1ED50539929EA24DFE1F58350B398B51CB45AE658AA3CF5AB9674DB298B3A0C7477CE1D4109484BC469814A8296AFC89D196B45BDABEA2
310
B72D41ACCAF47FA238C92745519B40EA25EE2CF3906356CD0DCEA48DA7DB238CBA4FD60590E7ADBC122F90A312E11AA3B669593553D302926743174F1FAC4B0B5E5D4F894D16E3867256E51BA5F27BC054F33DF90F504B0304140006080800B754D542861170885601000033030000300000006662782F4534324445343141
310
2D434246392D343443412D394130322D3345334134303939413032442F636E782E786D6CBD93CD6EC23010845FC5F2B5CA1F490121C7483DF4097AE8D5B1177049ECC83F5579FBAEC1502E1C2A55BD58D1EC7866F5C961DBAF69249FE0BCB6A6A74D595302465AA5CDBEA731EC8A35255BCE9CB5E1CE46891113F434C994B3
310
BDB371CE92829D88634075D4E6984507DE4627C1A39C6E92D14A3162009822A208D3004A812237237EEDC0E12A280E27120E405E5FDE891D3E4006CFAA94C259953A384B676EBA33512247E17D4FBD3CC0244A118355E08FA51241944D79ED7AB0D34F124917AE95D16992CA7B9A4ECAF346257264150E39F3C121BD6C0AA7
310
192817F33C6A290242AECEC68B87B3A84D5876D9AB11BC4377BB58AED718769E7116F404D9211D88008AF245DDB445BD2C16CD5B536FDAD5A65B3DD5CF9BB66655B27336583BE64B1803CECE445A13C004CA1B56A5F1237CD9479476C8DABAD32F402280DC7AA173CBF84B3ECDB2EDBA7FE4539DDF37E272F817F06F504B03
310
04140006080800B754D5422545D27F650700009A1B0000340000006662782F45343244453431412D434246392D343443412D394130322D3345334134303939413032442F6F626A656374732E786D6CED59DD73A33812FF5728EE65EFC1186C271B5F11B6127B66CAB597DDA9F5CED63DB88A924126BA0841492213DF5F7FAD
310
0F301093E0DBDCDB3ED880905ADDBFFE5413FEF49253E71973410A76EB069EEF3A9825454A5876EB56F230B9719D9FA29017856C4D731D86727CEBAA61370A335E54A51D4AF1015554F6463FDFFFCB110966D875128A84B87545F28873E4A14A1629164F5E8A24F2B2C38B17786662976CC651F9D8235A228E99044E619C01
310
15C73015741F7D771A8553F53E0AD5BF9D351F356B313C6BAAA5EE724998908825AF58EA91998F62691E2CD69F6657CBC9D562319F2CAE67C1E4FEF3FD7A12FC38F757D7ABD5F2EED312D8DB1705B532A5B8C42C05FD1DDD2808A7EA4D23BA45E01CD749C1184E3490009516AB4F9060015BB5E0F3BB8F8192A8F55A4BD87A
310
5EA8F79685D6F0BC4B6568D638203A744110BB5D2D717D6DCB57ECFF0D828B3146C90596C0AD901CB46BE1E1E0156EE48753331A85FB932E887072243127883A94EC39E2A01498AAA644A15960C928E7E040CA511268CD99D75DDB02CF7CDF75CE7179A828559EE146DAB162703F2C85E68CFC07F313F76D64802790B6224C
310
DE582EE5B1C46EB40CA77A300AD5653EB32F0D90CE81A24C6844CCDB9EA02BE5FA9BB51BFDFC79FFB255E1E0FCE6252F4ACCA5323AA547CD1718B2BD2A94ECB6C128CDA905208C01D5AE3C81F21B20FF0B448F132BA0374E5E162F0B3B5772C4C4A1E039E8C6F19D890F7FBE13E87F75DFBA0BA7CDE2AEF686F004375550DD
310
FC793CBB3268AC2CFF2D38A3F0190CBEE073FB6A9B200AF6FC401800A48CC4A1050C41683FEC5FDC68038113023DAC42340A406460F7196EC3A92573D24AED5ED6EB18206AF7988F5112C0A62D12D818D0D317C81E9C242735B5451C82F7EA43CCF56EBDFD795BF1034AF083F5E9353E10462464CDF30C7530EF48F4848FDF
310
0B9E82A0AFF1DEB6F1CEED5602D056982BE0B31A04F570DAB9B34102EBB242859BF09D1D400895AB5BF41F884830A588E1A2AAF76DA29B32D4C6E36DCDE0463303F17CD633618E9F89AA2AC0694E333A8C42DE4F382915886EF4C548D6044D6F40BA6F9B5FC0229BF903B3360C422F43F4771DB4CEE0D0B1EC1A690B4423F0
310
FE14CE9382163CDE1F6313E95CA825808DAEB7FCD1210AB1DE284951010FD27E578794CC481BA7E470A804C4D5332CFEB159B5CDC1F7E6C195D3FEEF39E302A22DF82EE2D6EF7A7BC42447198E0F281DDAAEBD5B435B689203A4393E50908B3C13798C918CFD146797407311F1E58752CF682104615840BE3A0B7E1B0DDF83
310
4062B459B3ACB4DA039A8838C712D14B10506406C0D56947D7B809940EEFF3D858EF5B1A6B13FD3F590447504B162C26508A420E7997F1C0BB8218D245D7A0DCC317ACADA6ADC5A0159410C931FE8E49F6282F41DD901FC03D81234925E3A2440998F508B2AF7C4529B5C7FB1E254F2A7FC449453FCA4004A68798505AE531
310
FC088393C718D76E02D39B28B4889BD827710E451992151FB3C9F595FF6A1F5333F443606BA303A110B6E31C9503A87702A2AE479C067C4B7D40A9FB2A2F639417151B6528DEBCEF4D967C5FAD8AEC487E55A90865634DD8128C42C2649355EB980DA6AE032BB8910E54C758A0BCA4E614F64EE2091A6FD2940737E0D64F3F
310
76831C0ABF01EDB523EAA286C1F2D8290CC47724934737DAEAEBE41EEAEF14A7A7545FD79AED0A10105391BCE2C4AAE8DB06CA1B5BA3B9D1039262F7C564DDFAFA6DE341F7239CC21AA85D9A851B05748E9944AA32795037F4370421B843C38C6F544EBD84CA5D9AEAAA11D1CF64489D9D32A2B3694EBCF211B322871FDB11
310
96D02AC53B948AA7F841D2784B14EB564A2F2735C66F0AF8EB976D0F1E181921D25755E0E1EFBDB57674A5CAA5B344E46395EF192210043BA26546375EC932AB915ACBCD559D29A0EE0203B32A5EFC75B268B723FE3A5964D630FED4C9E2FEF84F746CF7455AE93C51767DD131A0C94F8ACA471C0374DBA1A1DA641193CCAD
310
FCD69962088A75941F5D8DD541C3101CE2F87FCEDA4359D06CD7E3FFB2AC1DBCAA382ECA2A9DC9AA4B75A672DDB473D87C7DE5DFDFCDE693BBE5CDF564E12FE793E56C359BF8F7CBE58F0B7FED2F3FDD37686A478DC22698E9DC05CF26A8D5C3EAC962005D59515092C2693E75320C315FC2997E44FB9CE75840F26C37BB53
310
DB941FB1FAD9F43925DA535C73F288A0414C05A475C0A84A6477DCF91BB426251CB46F5D681A794FF067ADD27520F3DCBAD02A9024C1C2DB439B4935F4347148B93AF75B62800F62994A896651F3DCAC52D874C27F33654C1AB072757A1850B895D0FDEA7428346F96A7E422C16B761C24E1765F49A8D68C2CA7814618BDCD
310
49FD46364AD893DDFA055CF76DB1024FCFE92032EA93C19B4660A84E24E299EE772BC62C4B77EBAF53E8B3399B5F9D925619E8723CA509C760CC952AA8C08AC02A2CCD124930D5D53F765F79019F7872475745CE0F2F37D77FDFAD8A3C2F9819DADDC1A92C850F45CEF6113EFBA43B281EB06AAE8BDDCC0F663BDDD4B67DF6
310
788F04F6545504037531A104E9991CD8E5AB06956D5F4E952A7AD3376BC706516806183B7AD5E3351FB91CF021F53945798CF6F35ADA37FBDA533D156C8243473AFA2F504B0304140006080000B754D542000000000000000000000000350000006662782F45343244453431412D434246392D343443412D394130322D3345
310
334134303939413032442F76657274696365732E62696E504B0304140006080800B754D542F270F1330600000004000000360000006662782F45343244453431412D434246392D343443412D394130322D3345334134303939413032442F747269616E676C65732E62696E636660600000504B0304140006080000B754D542
310
000000000000000000000000370000006662782F45343244453431412D434246392D343443412D394130322D3345334134303939413032442F617474726962757465732E62696E504B0304140006080800B754D542D5987DFC8F00000041010000360000006662782F45343244453431412D434246392D343443412D394130
310
322D3345334134303939413032442F6469726563746F72792E786D6C858F410EC2201045AF4266AF15DDB800BA74E7C21B903225242D6328188F2FA5C4183471359997F9FF81E89FF3C41E1816475E02DF1F80A11FC8386F25A438EECEC07A250251FC3803E6F58C12560C4AD840E95E91C151A72936F496F35732D860FE63
310
5F62C8F2DA16B505C545B74125BAA2FA9E05D7CC053D063734D5C7665FD55B6B8D15D5E9BFEAFD8490FFA45E504B0304140006080800B754D54272DED5A0FE000000A00100003B0000006662782F45343244453431412D434246392D343443412D394130322D3345334134303939413032442F7265736F75726365732F636F
310
72652E786D6C8D50596E833010BD0AF26F65B0D9129071445338412F609909B5126CE4A5EAF16B0295DABFFECC8CDEA2797AECF2B53C924FB04E19DD219A1294809666527AEE50F0377C46C985336B8CFF254389160B7468831167B335613D2069B407ED23AACD0407289C038F12F98847879CFC8045A422F8A870F77415F2
310
2E6648691AE9A8E3CC791B0324FB936D226EC19960253896ED2C6721A8E9D0A829FE54370516F1BC2A7B7A1DDF3069EA1297A766C0AF7D4DF1D08F633354757DBE0E2CDBCC9C79B5FC649416848729FA092D30A9714EDF29698B535B9E5E48D51684659BFC8F29ACD33F4D41695FE447DCDDE610A731C893E02CDBFA8AEB59
310
66DC5BB7FC1B504B010214000A0000080000B754D5423DEE336E79000000790000001B00000000000000000000000000000000006175746F6465736B2D64657369676E2D7061636B6167652E786D6C504B01021400140006080800B754D542D486FD9CA0000000F40000001300000000000000000000000000B20000005B43
310
6F6E74656E745F54797065735D2E786D6C504B01021400140006080800B754D5426175FB38EB0000007C010000080000000000000000000000000083010000636F72652E786D6C504B01021400140006080800B754D54255019EA25F0000007C000000070000000000000000000000000094020000636E782E786D6C504B01
310
021400140006080800B754D542384D5DEE68010000020300000C00000000000000000000000000180300006662782F636F72652E786D6C504B01021400140006080800B754D54298B78E9E7C0000009D0000000B00000000000000000000000000AA0400006662782F636E782E786D6C504B01021400140006080800B754D5
310
422978C7EA2A0100001402000031000000000000000000000000004F0500006662782F45343244453431412D434246392D343443412D394130322D3345334134303939413032442F636F72652E786D6C504B01021400140006080800B754D5428611708856010000330300003000000000000000000000000000C806000066
310
62782F45343244453431412D434246392D343443412D394130322D3345334134303939413032442F636E782E786D6C504B01021400140006080800B754D5422545D27F650700009A1B000034000000000000000000000000006C0800006662782F45343244453431412D434246392D343443412D394130322D334533413430
310
3939413032442F6F626A656374732E786D6C504B01021400140006080000B754D5420000000000000000000000003500000000000000000000000000231000006662782F45343244453431412D434246392D343443412D394130322D3345334134303939413032442F76657274696365732E62696E504B0102140014000608
310
0800B754D542F270F13306000000040000003600000000000000000000000000761000006662782F45343244453431412D434246392D343443412D394130322D3345334134303939413032442F747269616E676C65732E62696E504B01021400140006080000B754D542000000000000000000000000370000000000000000
310
0000000000D01000006662782F45343244453431412D434246392D343443412D394130322D3345334134303939413032442F617474726962757465732E62696E504B01021400140006080800B754D542D5987DFC8F000000410100003600000000000000000000000000251100006662782F45343244453431412D43424639
310
2D343443412D394130322D3345334134303939413032442F6469726563746F72792E786D6C504B01021400140006080800B754D54272DED5A0FE000000A00100003B00000000000000000000000000081200006662782F45343244453431412D434246392D343443412D394130322D3345334134303939413032442F726573
310
6F75726365732F636F72652E786D6C504B0506000000000E000E00800400005F1300000000
  0
XRECORD
  5
17
102
{ACAD_REACTORS
330
12
102
}
330
12
100
AcDbXrecord
280
     1
270
     1
271
     1
  0
XRECORD
  5
16
102
{ACAD_REACTORS
330
12
102
}
330
12
100
AcDbXrecord
280
     1
270
     1
271
     1
  0
XRECORD
  5
18
102
{ACAD_REACTORS
330
12
102
}
330
12
100
AcDbXrecord
280
     1
270
     1
271
     1
  0
XRECORD
  5
15
102
{ACAD_REACTORS
330
12
102
}
330
12
100
AcDbXrecord
280
     1
270
     1
271
     1
  0
XRECORD
  5
24
102
{ACAD_REACTORS
330
22
102
}
330
22
100
AcDbXrecord
280
     1
270
     1
271
     1
  0
XRECORD
  5
23
102
{ACAD_REACTORS
330
22
102
}
330
22
100
AcDbXrecord
280
     1
270
     1
271
     1
  0
XRECORD
  5
BA
102
{ACAD_REACTORS
330
22
102
}
330
22
100
AcDbXrecord
280
     1
 70
     1
 90
1959938040
 71
     1
  1
6DC30169-F651-4985-BDA1-4F630D99F4C3
311
504B03040A0000080000B654D5423DEE336E79000000790000001B0000006175746F6465736B2D64657369676E2D7061636B6167652E786D6C3C3F786D6C2076657273696F6E3D22312E302220656E636F64696E673D227574662D3822203F3E3C666F726D6174733E3C666F726D61743E687474703A2F2F736368656D612E
311
6175746F6465736B2E636F6D2F64657369676E2D7061636B6167652F323030393C2F666F726D61743E3C2F666F726D6174733E504B0304140006080800B654D542D486FD9CA0000000F4000000130000005B436F6E74656E745F54797065735D2E786D6C7D8EC10E82300C865F65E91D8A1E8C310C0EEA1BF002731658846E
311
D98AC1B77784ABF1D8FE5FBFBF75BBCE937A534CCEB38643598122B6FEE978D0B0485F9C41B54DDD7D022595594E1A469170414C76A4D9A4D207E29CF43ECE46F218070CC6BECC4078ACAA135ACF422C856C0E68EA1BF5669944DDD7BCDE7B1F8E415D77AECB980613C2E4AC91FC167A2B244592486606FC29C8FD7F045B9A
311
EF7053A7E60B504B0304140006080800B654D5427ABD883FEB0000007C01000008000000636F72652E786D6C8D90416EC3201045AF82665B6183B11DC7C24456D59CA01740401C94182C03558F5F9C3852BBEB6A467FFE9B197D7EFA9EEFE8CBACC17A37002D0820E394D7D64D03A478C11DA093E0ABF7F1970D9093B31960
311
9341F069F569D925E55D342E66D5796D76518660222075CFCD00415DCD2C0B996276845BB14875939329E8ABCB704A56A3E711ABF33E7BB16605711E0F5D35B667DCD60DC3F55837783C1F2BFC4E3A7A641FCD4869CDCB0D163CDAF9755FAD4646A3415484324C5A5CD14F4A7A76E8EBE68D343D23BCDCEC7FA0B4E87F42C9
311
BAC8AAFDDD271640D0FCC8632078B96591CB23A85CB7DCC40F504B0304140006080800B654D54255019EA25F0000007C00000007000000636E782E786D6C4DCB3B0E80201045D1AD90E915ED2CF8AC45050C11660C8261F98AB1B07AC9C97D42D718D865D3E909258CFD00CCE24AC6E326A164D74DC0B4128928FF32603847
311
2BA13128B1252AC747C6BAB984FC68F0B87FE8960A5C09FE86CFB69FBA01504B0304140006080800B654D5426F6D91D667010000020300000C0000006662782F636F72652E786D6C8D52ED8A8330107C9590BF478CF1A35FC41439AE4F702F906AEA49359198481FFFD68FE2F528A50831CCECECCE8EF2E3AD6DD0A06C5F1B
311
9D61168418295D98B2D65586BDBB901D4647C1AD31EE4F19465AB62AC3238C05AFACF1DD0215463BA51DA0DA946A0165DF2B8751D1C025C37DF1A35A1948EFA0A2BF069D2CAEB252010B80863AC17B67C1009A878C271697F38DD31917DCFBBA5CD8BA8469F5A556168B53BEDD45F9E64436491A93244F52929FF611F90C77
311
6C1F7FA5396309A7A3587057B777778555D2A9128B28643109372462DF2C3CC4DB43927E84E9210E391DCB1F44BE2BDF14F95ABB385AECCEB21E0B064626E2DFB6109143BD1CC00F159C8E21C26B4AF8316808044276F2DCDCF7B80234A8C2199B00531ABF52836CBC82A9219A1E4E67163A4F0D60B3A77DA2177D5EF7800F
311
287505D6A483EBD9BB713A9FA72E5174CA92C1DD9036B695CD6A6EB6B89EEBA0A7F2C234C6BEA3A6CBAA7409938E7FAFF805504B0304140006080800B654D54243149CA47D0000009D0000000B0000006662782F636E782E786D6C4DCCD10A83201886E15B91FFDCCA32515023D9761FB12C64A6C3E9D8E5AF46073BFAE0E1
311
E395C367F3E86DD3CBC5A080540D201BEE7176615550F28239A041CB1463FEBB010AD366151C0C5AAE2996E749B35DA6E2F3AEDE85C7899DA0E246478205B9F698B69C617E210D368618C358D73323A0D6B2FE95F63DC2FA0B504B0304140006080800B654D5426B6CB5FE2B01000014020000310000006662782F33393439
311
463441312D393145352D343238362D384431302D4242314242363633353642392F636F72652E786D6C8D515B6EC32010BC0AE22B55651B6C4CED0813D56A7B825E806092A2C460F1A872FC42ED48ED5F7E58343B333BDA6587DB7C05DFCA796DCD007189205046DA499BF3006338151D0407CE9CB5E10F0D02236635C00C43
311
CECECEC66583A435419990506327B581C27B152090D7F419A0975F6A16A5882131FCA55C84BC88B32A7199DA89C7990F2E0500EB90FC42DEF4A4FF20AFB8E8F17B5B90BAA345F78651318E781C296D5A3AF6AC5A859CC5A8A74DAEA714479FB4728F9A64316741CFF7F8D22911D404798D7053205AD4F813A37DF3B227ED33
311
6AF70D6255A6FF13C5657A5014B5094DBDC55D651E72CCAAB5C1D964E3F17A0FA36E8B7501E4793BAFE413E4A844182382BA8E552B352D207952B279FA605D5AF0EE724C6CDCAEC6947056E51BA5F27BC054F33DF90F504B0304140006080800B654D542E29CB77C4E01000033030000300000006662782F33393439463441
311
312D393145352D343238362D384431302D4242314242363633353642392F636E782E786D6CD593CD6E022114855F85B06DE6CF196D63184CBAE81374D12DC255A90C4CF869EADBF7A268DDB8E8B21B3239F770CECD17866DBE2743BEC007EDEC48BBBAA504AC744ADBFD4853DC552F946C38F3CEC53B1B25564C30D22C53CE
311
F6DEA5B9480A76229988AAD1F658440FC1252F21A09C6F12E3A4301800B64A28C2B405A540919B11BF76E0711514B727120F40DE5E3F88DB7E828C81353985B326777096CFD27467A2441A11C248833CC0246A91A253108EB51251D45D7DED7AB0D36F12C917AE95C96B92CB479A4FCACB463572640D0E390BD123BD628AA7
311
192817F36CB41411213767E3C5C359D236AE86E2D508DEA3BB5BF5C38061E71967514F501CD28388A0285FB45D5FB5AB6AD1BD77EDBA7F5E0FCBA776B9EE5BD6643B675BE74CB98431E0DD4CA4B3116CA4BC634D1E3FC2577C44698FAC9D3FFD01240228AD173AB78CFFCCA739BF6FC4E5F12FE03F504B0304140006080800
311
B654D5423D78B5B8A305000080100000340000006662782F33393439463441312D393145352D343238362D384431302D4242314242363633353642392F6F626A656374732E786D6CAD57DB6EDB3810FD1541FBB2FBE08B6C278D178A8AC4AE0BA3485BD468B10F060C4AA2146D285120A9D4D9AFDF43919225D74EBD8BBEE8
311
C2CB70E6CC990BFDB7FB9C39CF54C88C17B7AE371CBB0E2D221E67457AEB562A19DCB8CEDBC0179CABCE32D729484E6F5D3DEC067E2A7855DAA19826A462EA687475FF9723235A50D7891891F2D695D123CDC990548AC7543E0D63A2C8304DF6436F6816F6C5A682948F47424B2268A1A029C60B48718C525EFF77EC8E027F
311
A4E7035F3FEDAAE9F955A3DA9EFEF959211529A21F0E3B1233F566CB7793ABF9E06A369B0E66D7136F70BFBA5F0EBC37D3F1E27AB198DFBD9BE360A90424594D044DDCE03DB01159E48FCC54E05759A1A613BBC43A6824E873A63DE50613C7F347664D6B9D35F294FA112F0A1AD558018DDA3E2B3AA6252D62F83CA3129A75
311
101AF77F3D8D63677AAAFFED91DDE1CB10E8EEE8086A746FDE5D4D79F8374C9097304848AA1968B0B4861AAE8E0F08879C333B974927278A8A8C308765A120E2C50DB0542F09FC9E18CD64A1A3415BE006F08299EED30561F4739E9FD232A918D33476833A0A768815AA64AD59F60F1507EDBBC84027F84AB3E1C61AA45E4A
311
EA067343919B233619209D8491142E87997AE7747264E842C7E97AE9061F56E17EA363F7F4E1A5E025154AD307D46A1CD7BC354A5627EF22CFE90DEE912A0750BE00F98F08F5832AF09BC8F6B3FDCC9EA2042964C2450EDF38636730C663EC78F5537F77BEFC51BBB9EFBD7378C2D91AAA5F8067DF86AE2F3B7006FE3308CF
311
C5D49AB6890843DA78C80A00A449E2308E21E4E124DCBBC11A590E5919BB080B3C980C759FF1E98FAC18248AFAA4CEBB00964769F182040DD86A46420D437EABE0C14F3FA4B3FA60BBEC1CBC57BF84AE77CBCD874D251212D1071BD34B9A6445A650E20EBCE92AD4C3BC67D1137DF9CE450C437FC47BD3C53BB74749A0AD31
311
D7C0A74D4ED73F87937B0744D897729D6EFC9F9C00237461EDC87FC86444192305E55573EEABF50365C340AC835D33B92D3087C202D29899A31844918E44566A10DB6AD526CDE119EBBEAE3F829158CF7848D861517848BD11675CECC2979DC94A2791FED6A7B68560A4A580ED758C34E16F31DFC55992541239F004ACDFD6
311
8BAEEB7456408668A49A6099C17CC4161196B38D5C146B41504879B1CB50361176270FE8CA07A29600B5C0731A4BCA925DC65895EF928CA118ED72529E81E3FFEB1F5679B92339AF0A7546764F751487BEEE3DF2CAEF44458F6EB0A9DF837BA4DE98C60737F716EB527202AB9E6BAF978BE9D8BB9E0F56D757DE6036BFB91A
311
DC2FEFF0B5BA9E8E97F3F96AB698367E32C203BFA934DD80869750D9FC4A64D67D5FD7081F9B03DCE08128B97D6FA2B3797F5D0FD10AFB23EC41B96C37DEC5CF68FB68FC730187952705ADF392D19C168AE8107AD01FEC0B419BD153C68CAF7392D20BA47C7ABF3932062317ECFBACC39D7E3FDA6B47173A204F0A518F551E
311
162463471B5383E4B02C528B5FE393F66DEA4CF3ABFFAC63D0984ACEB21869307652CA73AA900C2FA84122A712D4EBB6F4B1BD7A5CB0FBD934888A848C369A3C12F4C84C222C40AD2A52FD71E737F474BAADBA75516D874F78D84CE13AE0CCAD8B1E5D651195C310F5597742B57070A9DBC8A3EF2745CAD06A9B4DED7FBB4B
311
63D3ABC8ED924BDA276B97C9E0D600A491126D03FA2178A75626F06BDDEC7CF49F0C6FD47188C26758A9D696C3406B4C7D0C42D418652F0BE8619EECD17B04EAEB6679C37A4D0F918B2E59AF92C0481D2822D2FAA2A0F5B32ADD2D3F8FD0A038EB4F4EC9AA14BEBC5CD2405090B9D2010E16811556664914A8BAF873FB5970
311
5C647367958102CEEFFB9BEB3FB60B9EE7BC3043DB3B7B1D76368FB8DCC65B2407AA6F25723B197B936D7D1BB017945D48241D92583E61009E15590B74CFFDE0A5B932A20E998976DD48BBE288A1EBA5630BDB0C422D5DBAB9558383BEA3A00E6248DF2875C4741794AF5E0846F552A820D0CA07FF02504B03041400060800
311
00B654D542000000000000000000000000350000006662782F33393439463441312D393145352D343238362D384431302D4242314242363633353642392F76657274696365732E62696E504B0304140006080800B654D542F270F1330600000004000000360000006662782F33393439463441312D393145352D343238362D
311
384431302D4242314242363633353642392F747269616E676C65732E62696E636660600000504B0304140006080000B654D542000000000000000000000000370000006662782F33393439463441312D393145352D343238362D384431302D4242314242363633353642392F617474726962757465732E62696E504B030414
311
0006080800B654D542D5987DFC8F00000041010000360000006662782F33393439463441312D393145352D343238362D384431302D4242314242363633353642392F6469726563746F72792E786D6C858F410EC2201045AF4266AF15DDB800BA74E7C21B903225242D6328188F2FA5C4183471359997F9FF81E89FF3C41E18
311
16475E02DF1F80A11FC8386F25A438EECEC07A250251FC3803E6F58C12560C4AD840E95E91C151A72936F496F35732D860FE635F62C8F2DA16B505C545B74125BAA2FA9E05D7CC053D063734D5C7665FD55B6B8D15D5E9BFEAFD8490FFA45E504B0304140006080800B654D5421257D50EFD000000A00100003B0000006662
311
782F33393439463441312D393145352D343238362D384431302D4242314242363633353642392F7265736F75726365732F636F72652E786D6C8D50596AC33010BD8A99DF225BF216C7C80AA62427E805843C714462C968293D7EE5C485F6AF3F33C35B98C7E3A7AFE5917DA2F3DA9A01584E2143A3ECA4CD3C400C57D24176
311
12DC591B7EC9203372C1013618049F9D8DEB0E296B029A90506327DC41E93D06C8D4231D037875C345E63286A4F0F77C95EA2E67CC599EE8A413DC07970264AF27DB04E1D0DBE8147A5EBC58C163D4D3AED153FAA9AF1A1D88CB78E8CAB13D93B66E2A528F7543C6CBB124EFB463C7EADC8C8CD5BCD8CC8207BDFC64540E65
311
C00944495945684B4AF6C1685F1DFABA79A34D5F515E6CF23FA6B84EFF34456D4255EE715F360F82A5204F42F062EB2BAD6799696FDD8A6F504B010214000A0000080000B654D5423DEE336E79000000790000001B00000000000000000000000000000000006175746F6465736B2D64657369676E2D7061636B6167652E78
311
6D6C504B01021400140006080800B654D542D486FD9CA0000000F40000001300000000000000000000000000B20000005B436F6E74656E745F54797065735D2E786D6C504B01021400140006080800B654D5427ABD883FEB0000007C010000080000000000000000000000000083010000636F72652E786D6C504B01021400
311
140006080800B654D54255019EA25F0000007C000000070000000000000000000000000094020000636E782E786D6C504B01021400140006080800B654D5426F6D91D667010000020300000C00000000000000000000000000180300006662782F636F72652E786D6C504B01021400140006080800B654D54243149CA47D00
311
00009D0000000B00000000000000000000000000A90400006662782F636E782E786D6C504B01021400140006080800B654D5426B6CB5FE2B0100001402000031000000000000000000000000004F0500006662782F33393439463441312D393145352D343238362D384431302D4242314242363633353642392F636F72652E
311
786D6C504B01021400140006080800B654D542E29CB77C4E010000330300003000000000000000000000000000C90600006662782F33393439463441312D393145352D343238362D384431302D4242314242363633353642392F636E782E786D6C504B01021400140006080800B654D5423D78B5B8A3050000801000003400
311
000000000000000000000000650800006662782F33393439463441312D393145352D343238362D384431302D4242314242363633353642392F6F626A656374732E786D6C504B01021400140006080000B654D54200000000000000000000000035000000000000000000000000005A0E00006662782F33393439463441312D
311
393145352D343238362D384431302D4242314242363633353642392F76657274696365732E62696E504B01021400140006080800B654D542F270F13306000000040000003600000000000000000000000000AD0E00006662782F33393439463441312D393145352D343238362D384431302D4242314242363633353642392F
311
747269616E676C65732E62696E504B01021400140006080000B654D5420000000000000000000000003700000000000000000000000000070F00006662782F33393439463441312D393145352D343238362D384431302D4242314242363633353642392F617474726962757465732E62696E504B01021400140006080800B6
311
54D542D5987DFC8F0000004101000036000000000000000000000000005C0F00006662782F33393439463441312D393145352D343238362D384431302D4242314242363633353642392F6469726563746F72792E786D6C504B01021400140006080800B654D5421257D50EFD000000A00100003B0000000000000000000000
311
00003F1000006662782F33393439463441312D393145352D343238362D384431302D4242314242363633353642392F7265736F75726365732F636F72652E786D6C504B0506000000000E000E0080040000951100000000
310
504B03040A0000080000B654D5423DEE336E79000000790000001B0000006175746F6465736B2D64657369676E2D7061636B6167652E786D6C3C3F786D6C2076657273696F6E3D22312E302220656E636F64696E673D227574662D3822203F3E3C666F726D6174733E3C666F726D61743E687474703A2F2F736368656D612E
310
6175746F6465736B2E636F6D2F64657369676E2D7061636B6167652F323030393C2F666F726D61743E3C2F666F726D6174733E504B0304140006080800B654D542D486FD9CA0000000F4000000130000005B436F6E74656E745F54797065735D2E786D6C7D8EC10E82300C865F65E91D8A1E8C310C0EEA1BF002731658846E
310
D98AC1B77784ABF1D8FE5FBFBF75BBCE937A534CCEB38643598122B6FEE978D0B0485F9C41B54DDD7D022595594E1A469170414C76A4D9A4D207E29CF43ECE46F218070CC6BECC4078ACAA135ACF422C856C0E68EA1BF5669944DDD7BCDE7B1F8E415D77AECB980613C2E4AC91FC167A2B244592486606FC29C8FD7F045B9A
310
EF7053A7E60B504B0304140006080800B654D5424E83BA76EB0000007C01000008000000636F72652E786D6C8D90416EC3201045AF82665B61831D3BD4C2444EE59EA01740405C94182C03558F5F9C3852BBEB6A467FFE9B197D7EFA9E6FE8CBACC17AD7032D0820E394D7D64D3DA478C10CD049F0D5FBF8CB06C8C9D9F4B0
310
C920F8B4FAB4EC92F22E1A17B3EABC36BB2843301190BAE5A687A03ECD2C0B996276846BB14875959329E8B3CB704A56A3C711ABF33E7BB16605318CF5300E23C32DA3AFF8309EDF317B63033E3663D50E841046CFBCDC60C1A39D9FF7D56A64341A4445688D498B2BFA4149571FBB43F3429AAE26BCDCEC7FA0B4E87F42C9
310
BA5857FBBB0F2C80A0F991FB40F072CB22977B50B96EB9891F504B0304140006080800B654D54255019EA25F0000007C00000007000000636E782E786D6C4DCB3B0E80201045D1AD90E915ED2CF8AC45050C11660C8261F98AB1B07AC9C97D42D718D865D3E909258CFD00CCE24AC6E326A164D74DC0B4128928FF32603847
310
2BA13128B1252AC747C6BAB984FC68F0B87FE8960A5C09FE86CFB69FBA01504B0304140006080800B654D54256E0CEDC68010000020300000C0000006662782F636F72652E786D6C8D525B6E833010BC8AE5DFCAD8401E34328E48454FD00B38E05014B091B1518EDFE511D154515421196B66677776801F6F6D830665FBDA
310
E8148701C348E9C294B5AE52ECDD8524181D05B7C6B85F651869D9AA148F3016BCB2C6770B5418ED9476806A53AA05947DAF1C4645039714F7C5B76A6520BD838AFE1A74B2B8CA4A05610034D409DE3B0B06D03C643CB1B89C6F9CCEB8E0DED7E5C2D6254CAB2FB5B25864799CE5599E905D12BE934D7EFA24C9479291FD36
310
8F7619632C094F9C8E62C15DDDDEDD155649A74A2C2216C684ED48147E85EC10EF0F9BED1BDB1E62C6E958FE20F25DF94F91AFB58BA3C5EE2CEBB108C1C844FCD9162272A89703F8A182D33144784D093F060D8140C84E9E9BFB1E57800655386337C094C6AFD4201BAF602A43D3C3E9CC42E7A9016CF6B44FF4A2CFEB1EF0
310
01A5AEC09A74703D7B374EE7F3D4258A4E5932B81BD2C6B6B259CDCD16D7731DF4545E98C6D8FFA8E9B22A5DC2A4E3DF2B7E00504B0304140006080800B654D5420875AF257E0000009D0000000B0000006662782F636E782E786D6C4DCCD10A83201805E05791FFDE65ED371BA8B1587B8F581691E9703AF6F8B3D1C53817
310
073E0E47B69FCD92B709AFC53B05E5890131EEE1C7C5CD0A529C6803A4D532781FFF6640DCB019053B839673F0E979D068A621D998D52E6E3DB0C4EE72CFA128584D1191D3ABC0860AD69FF98D577DD5D5506859FC9E72EFC7FA0B504B0304140006080800B654D5425106D7492A01000014020000310000006662782F3134
310
4239463946392D343730362D343434352D413734382D3730453335443532453242362F636F72652E786D6C8D515B6EC32010BC0AE22B55651B6C6C2711266AD4F404BD00C1C44589C1E251E5F85DD78ED4FE45482C9A9D991DB1FC701F6FE85BFB609CED30CD0946DA2AD71B3B7438C54BB6C5E820B8772EFEA16164E5A83B
310
3CC358F0C1BB34AD9072366A1B01B5AED72B2843D011237583478783FAD2A3CC658AC008D77C92EA2A079DD31CDAC0133C440F01D03264BEB1A0ECB8FB8093B196341963ACCEDE5AB6CD5A72AAEAF7BA3C95C786178B50F0944CBFCA4D0F71CCC568FFACC92C163C9AF1115F792DA3EEB12809AD32185FD24F4AF655BB67F5
310
2BA9F715E1C54CFF274A53FFA428191BAB728DBBC80264E5C5D210BC77E97C7B84D1F7C9F988E6799BA0D50B16242794B63B4A192F162A7C0078366CF50CD179F8E0CDF50CEC8A2EC60D13BC987704E5778150E77D8A1F504B0304140006080800B654D542843B786B5601000033030000300000006662782F313442394639
310
46392D343730362D343434352D413734382D3730453335443532453242362F636E782E786D6CBD93CD6EC23010845FC5F2B5CA1F091421C7483DF4097AE8D5B1177049ECC83F5579FBAEC1502E1C2A55BD58D1EC7866F5C961DBAF69249FE0BCB6A6A74D595302465AA5CDBEA731EC8A35255BCE9CB5E1CE46891113F434C9
310
94B3BDB371CE92829D88634075D4E6984507DE4627C1A39C6E92D14A3162009822A208D3004A812237237EEDC0E12A280E27120E405E5FDE891D3E4006CFAA94C259953A384B676EBA33512247E17D4FBD3CC0244A118355E08FA51241944D79ED7AB0D34F124917AE95D16992CA7B9A4ECAF346257264150E39F3C121BD6C
310
0AA7192817F33C6A290242AECEC68B87B3A84D5875D9AB11BC4377BB58ADD718769E7116F404D9211D88008AF245DDB445BD2A16CD5B536FDAE74DB77CAA979BB66655B27336583BE64B1803CECE445A13C004CA1B56A5F1237CD9479476C8DABAD32F402280DC7AA173CBF84B3ECDAAEDBA7FE4539DDF37E272F817F06F50
310
4B0304140006080800B654D5421331464D60070000991B0000340000006662782F31344239463946392D343730362D343434352D413734382D3730453335443532453242362F6F626A656374732E786D6CED595B739B3814FE2B0CFBB2FB606C62271BEF103A89DD743C9DB49D7ADBD907CF3032C8441B211849E4B2BF7E8F
310
2E602026C1DBEC5B1F6C404847E77CE7AA43F0EE31A3CE3DE682E4ECC2F5BD89EB6016E70961E9855BCADDE8DC75DE8501CF73D998E63A0C65F8C255C36E18A43C2F0B3B94E01D2AA9EC8C5E5FFDE5881833EC3A3145425CB822BEC519F25029F3048B3B2F411279E9EED1F33D33B14D36E5A8B8ED102D10C74C02A730CE80
310
8A6398F2DB8F13771C0663F53E0CD4BF9D351D346BD63F6BACA56E7349989088C5CF58EA90990E6269EACF96EF4F4EE7A3D3D96C3A9A9D9DF8A3ABEBABE5C8FF7D3A599C2D16F3CBF773606F9BE7D4CA94E002B304F4F7E4867E30566F6AD12D0287B88E73C670AC8104A8B4585D82040BD8AA01DFA4FDE82B891AAFB5848D
310
E7997A6F59680C4FDB54FA660D03A2451704B1DB551257D7A67CF9F66F105C0C314A2EB0046E85E4A05D0B0F07AF70C3493036A361B0DDEB82082743127382A843C996230E4A81A96A4A189805968C720E0EA41C2581D69C79DDB62DF0CCD75DE71097BB9252E5196EA81D2B02F7C35268CEC83F98EFB96F22033C81B42561
310
F2DC72299F0AEC86F360AC07C3405DA627F6A501D2D951940A8D8879DB1174A15C7FB574C38FD7DBC7B50A0787372F785E602E95D1293D6ABEC090ED55A164B7F507694E2D00610CA876E51E94AF80FC27881E7B56406F9C3CCE1E6776AEE488895DCE33D08D33714613F89B38BEFE57F78DBB605C2F6E6BAF0F4F705305D5
310
F98FE3D996416365F96FC01906F760F0399FDA57EB1851B0E71BC2002065240ECD610842FB6EFBE8862B089C10E86115A2A10F2203BBF7701B8C2D99BD562AF7B25EC70051BBC774889200366D91C0468F9E3E40F6E024DEABA929621FBCA76F62AE97CBF5C775C97728C637D6A7977847189190350F33D4C2BC25D11D7E7A
310
C87902823EC77BDDC43BB35B09405B61AE804F2B10D4C37EE7D60631AC4B73156E825776002154AE6ED0BF2122C6942286F3B2DAB78E6ECA506B8FB735831B9E1888A7271D13E6F89EA8AA029C663FA3C528E4FD98934281E8861F8C6475D0F47AA4FBB6FA041659CFEF99B562107A19A27FEAA0750087966557485B206A81
310
B7FB701EE734E7D1F6293291CE855A02D8687BCBF7165188F546498A0A7890F6BB2AA4A446DA2821BB5D2920AE1E60F1FB6AD134878937F54F9DE67FC71967106DC17711B77ED7D92322194A71B44349DF76CDDD6ADA4293EC21CDF18E825CE49EC8A708C96892E0F418688E223E7F53EA29CD85200C0BC85707C16FA231F1
310
2090186D562C2BAD76802622CAB044F4180414991E7075DAD1356E0CA5C3EB3CD6D6FB92C69A44FF278BE0086AC99C45044A51C821AF32EE7BA71043DAE81A943BF882B555B4B518B48412227E8A1E30496FE531A81BF23DB8C77024296594172806B31E40F699AF28A57678DFA2F84EE58F282EE95B1988C07417114ACB2C
310
821F6170F218E2DA75607A1185067113FB24CEA02843B2E44336393B9D3CDBC7D40CDD10D8D868472884ED2843450FEAAD80A8EB11A706DF52EF51EAB6CC8A086579C906198A37ED7A9325DF55AB223B905F552A42D95811B604C380305967D52A6683A9EBC00A6EA403D55324505650730A7B25F1F8B53769CABD1B70EBA7
310
6FBB4106855F8FF69A117556C160796C1506E201C9F8D60DD7FA3ABA82FA3BC1C93ED557B566B30204C454242F39B12AFAB682F2C6D6686E7883A4D87C3059B7BA7E5B79D0FD08C6B0066A977AE14A019D612691AA4C6ED40DFD8A2004B76898F195CAA9C750B94C125D35227A4DFAD4D92A235A9B66C42B6E31CB33F8B10D
310
61312D13BC4189B88B6E248DD644B16EA5F4325261FCA2809F3FAC3BF0C0C80091BEA8020F3F74D6DAD1852A970E1291B765B6658840106C89961ADD78054BAD462A2DD75775A680BA0B0CCCAA78F6F364D16C47FC3C59A4D6307EEC6441F32DA2FB68D3C8E6B132EBA34E01757A5254DEE214A0BB0E35D53A89985C6EC5B7
310
BE14414CAC82FCE062AC8A1986601FC7FF3969F72541B35D87FFE392B6FFACE0382AA9B426AB26D581C275D54C6167CBC574E29FCD47D767A7FE68363F3F1D5D2D2FE1EEFA6C3A59CEE7D7B3C5BE8AD07E1A06752CD3A90B9E4D4CAB86D593C5009AB222A72481C37CE2A41842BE8423FD80EE39CFB080DCD9EC7527B6273F
310
60F5BD69734AB4A5B8E2E416417F980AC8EA805119CBF6B8F30B7426259CB32F5CE8197977F067ADD27520F15CB8D0299024C6C2DB429749F5F33471C8B83AF55B62800F62A9CA886651FD5CAF52D8B4A27F3D654816B072B55A1850B715D0FC6A3528346F96A7F828C12B761C24E1765B4A28D68C2CFB815A18BDCD5EFD46
310
364AD89DDDFA115CF765B17C4FCF692132E88BC18B4660A88E24E2A96E772BC62C4B97CB2F6368B339ABCF4E41CB1474399CD2886330E652D553604560159666812498EAE28FCD179EC3179ECCD14591F3EBE3F9D96F9B459E653933439B4B389425F09DC859DFC2579F6403B50356BD75B13999F8271BDDD3B66DF6688B04
310
F654510403552DA104E9981CD8E5B3FE94ED5E8E952A3AD3574BC70651E805183B7AD6E235DFB81CF021F53545798CF6F34ADA17DBDA633D156C8243433AFC17504B0304140006080000B654D542000000000000000000000000350000006662782F31344239463946392D343730362D343434352D413734382D3730453335
310
443532453242362F76657274696365732E62696E504B0304140006080800B654D542F270F1330600000004000000360000006662782F31344239463946392D343730362D343434352D413734382D3730453335443532453242362F747269616E676C65732E62696E636660600000504B0304140006080000B654D542000000
310
000000000000000000370000006662782F31344239463946392D343730362D343434352D413734382D3730453335443532453242362F617474726962757465732E62696E504B0304140006080800B654D542D5987DFC8F00000041010000360000006662782F31344239463946392D343730362D343434352D413734382D37
310
30453335443532453242362F6469726563746F72792E786D6C858F410EC2201045AF4266AF15DDB800BA74E7C21B903225242D6328188F2FA5C4183471359997F9FF81E89FF3C41E1816475E02DF1F80A11FC8386F25A438EECEC07A250251FC3803E6F58C12560C4AD840E95E91C151A72936F496F35732D860FE635F62C8
310
F2DA16B505C545B74125BAA2FA9E05D7CC053D063734D5C7665FD55B6B8D15D5E9BFEAFD8490FFA45E504B0304140006080800B654D542BEE22E06FE000000A00100003B0000006662782F31344239463946392D343730362D343434352D413734382D3730453335443532453242362F7265736F75726365732F636F72652E
310
786D6C8D504B6E833010BD0A9A6D65B0210924328E48454FD00B586642AD043BF2A7EAF16B072AB5BB6E6646EFA3797AFCFCB5DC8B4F745E5BD3032B291468949DB4997B88E14A3A28CE823B6BC32F1914462ED8438641F0D9D9F8D820654D4013126AEC841B28BDC70085BAA7A307AF3E7091A58C2129FCAD7C4875933396
310
AC4C74D209EE834B018AF5499E201C7A1B9D42CFAB95153C463D6D1A3DA59FFAAAD18118C6661887B125878E1DC96EBCBC91EEB51B48BB1FEBC34029EDD88557D92C78D0CB4F46E550069C40D49435841E48CDDE193D35ED69B77FA1FB53437995E57F4CF131FDD314B5094DBDC55D6D1E044B419E84E055EE2BAD679969E7
310
6EC537504B010214000A0000080000B654D5423DEE336E79000000790000001B00000000000000000000000000000000006175746F6465736B2D64657369676E2D7061636B6167652E786D6C504B01021400140006080800B654D542D486FD9CA0000000F40000001300000000000000000000000000B20000005B436F6E74
310
656E745F54797065735D2E786D6C504B01021400140006080800B654D5424E83BA76EB0000007C010000080000000000000000000000000083010000636F72652E786D6C504B01021400140006080800B654D54255019EA25F0000007C000000070000000000000000000000000094020000636E782E786D6C504B01021400
310
140006080800B654D54256E0CEDC68010000020300000C00000000000000000000000000180300006662782F636F72652E786D6C504B01021400140006080800B654D5420875AF257E0000009D0000000B00000000000000000000000000AA0400006662782F636E782E786D6C504B01021400140006080800B654D5425106
310
D7492A010000140200003100000000000000000000000000510500006662782F31344239463946392D343730362D343434352D413734382D3730453335443532453242362F636F72652E786D6C504B01021400140006080800B654D542843B786B56010000330300003000000000000000000000000000CA0600006662782F
310
31344239463946392D343730362D343434352D413734382D3730453335443532453242362F636E782E786D6C504B01021400140006080800B654D5421331464D60070000991B000034000000000000000000000000006E0800006662782F31344239463946392D343730362D343434352D413734382D373045333544353245
310
3242362F6F626A656374732E786D6C504B01021400140006080000B654D5420000000000000000000000003500000000000000000000000000201000006662782F31344239463946392D343730362D343434352D413734382D3730453335443532453242362F76657274696365732E62696E504B01021400140006080800B6
310
54D542F270F13306000000040000003600000000000000000000000000731000006662782F31344239463946392D343730362D343434352D413734382D3730453335443532453242362F747269616E676C65732E62696E504B01021400140006080000B654D542000000000000000000000000370000000000000000000000
310
0000CD1000006662782F31344239463946392D343730362D343434352D413734382D3730453335443532453242362F617474726962757465732E62696E504B01021400140006080800B654D542D5987DFC8F000000410100003600000000000000000000000000221100006662782F31344239463946392D343730362D3434
310
34352D413734382D3730453335443532453242362F6469726563746F72792E786D6C504B01021400140006080800B654D542BEE22E06FE000000A00100003B00000000000000000000000000051200006662782F31344239463946392D343730362D343434352D413734382D3730453335443532453242362F7265736F7572
310
6365732F636F72652E786D6C504B0506000000000E000E00800400005C1300000000
  0
XRECORD
  5
27
102
{ACAD_REACTORS
330
22
102
}
330
22
100
AcDbXrecord
280
     1
270
     1
271
     1
  0
XRECORD
  5
26
102
{ACAD_REACTORS
330
22
102
}
330
22
100
AcDbXrecord
280
     1
270
     1
271
     1
  0
XRECORD
  5
28
102
{ACAD_REACTORS
330
22
102
}
330
22
100
AcDbXrecord
280
     1
270
     1
271
     1
  0
XRECORD
  5
25
102
{ACAD_REACTORS
330
22
102
}
330
22
100
AcDbXrecord
280
     1
270
     1
271
     1
  0
XRECORD
  5
E79
102
{ACAD_REACTORS
330
E78
102
}
330
E78
100
AcDbXrecord
280
     1
102
ACAD_ROUNDTRIP_2012_MLEADER_STYLE
298
     1
  0
CELLSTYLEMAP
  5
E77
102
{ACAD_REACTORS
330
E76
102
}
330
E76
100
AcDbCellStyleMap
 90
        3
300
CELLSTYLE
  1
TABLEFORMAT_BEGIN
 90
        5
170
     1
 91
        0
 92
    32768
 62
   257
 93
        1
300
CONTENTFORMAT
  1
CONTENTFORMAT_BEGIN
 90
        0
 91
        0
 92
      512
 93
        0
300

 40
0.0
140
1.0
 94
        5
 62
     0
340
55
144
0.25
309
CONTENTFORMAT_END
171
     0
 94
        0
309
TABLEFORMAT_END
  1
CELLSTYLE_BEGIN
 90
        1
 91
        1
300
_TITLE
309
CELLSTYLE_END
300
CELLSTYLE
  1
TABLEFORMAT_BEGIN
 90
        5
170
     1
 91
        0
 92
        0
 62
   257
 93
        1
300
CONTENTFORMAT
  1
CONTENTFORMAT_BEGIN
 90
        0
 91
        0
 92
      512
 93
        0
300

 40
0.0
140
1.0
 94
        5
 62
     0
340
55
144
0.18
309
CONTENTFORMAT_END
171
     0
 94
        0
309
TABLEFORMAT_END
  1
CELLSTYLE_BEGIN
 90
        2
 91
        1
300
_HEADER
309
CELLSTYLE_END
300
CELLSTYLE
  1
TABLEFORMAT_BEGIN
 90
        5
170
     1
 91
        0
 92
        0
 62
   257
 93
        1
300
CONTENTFORMAT
  1
CONTENTFORMAT_BEGIN
 90
        0
 91
        0
 92
      512
 93
        0
300

 40
0.0
140
1.0
 94
        2
 62
     0
340
55
144
0.18
309
CONTENTFORMAT_END
171
     0
 94
        0
309
TABLEFORMAT_END
  1
CELLSTYLE_BEGIN
 90
        3
 91
        2
300
_DATA
309
CELLSTYLE_END
  0
ENDSEC
  0
EOF
