  0
SECTION
  2
HEADER
  9
$ACADVER
  1
AC1015
  9
$ACADMAINTVER
 70
    18
  9
$DWGCODEPAGE
  3
ANSI_1252
  9
$INSBASE
 10
0.0
 20
0.0
 30
0.0
  9
$EXTMIN
 10
0.0
 20
0.0
 30
0.0
  9
$EXTMAX
 10
14.16666666666667
 20
9.166666666666667
 30
0.0
  9
$LIMMIN
 10
0.0
 20
0.0
  9
$LIMMAX
 10
14.16666666666667
 20
9.166666666666667
  9
$ORTHOMODE
 70
     0
  9
$REGENMODE
 70
     1
  9
$FILLMODE
 70
     1
  9
$QTEXTMODE
 70
     0
  9
$MIRRTEXT
 70
     0
  9
$LTSCALE
 40
0.8333333333333333
  9
$ATTMODE
 70
     1
  9
$TEXTSIZE
 40
0.2
  9
$TRACEWID
 40
0.05
  9
$TEXTSTYLE
  7
Standard
  9
$CLAYER
  8
0
  9
$CELTYPE
  6
ByLayer
  9
$CECOLOR
 62
   256
  9
$CELTSCALE
 40
1.0
  9
$DISPSILH
 70
     0
  9
$DIMSCALE
 40
1.0
  9
$DIMASZ
 40
0.0708661417322835
  9
$DIMEXO
 40
0.0625
  9
$DIMDLI
 40
0.38
  9
$DIMRND
 40
0.0
  9
$DIMDLE
 40
0.0
  9
$DIMEXE
 40
0.18
  9
$DIMTP
 40
0.0
  9
$DIMTM
 40
0.0
  9
$DIMTXT
 40
0.0708661417322835
  9
$DIMCEN
 40
0.09
  9
$DIMTSZ
 40
0.0
  9
$DIMTOL
 70
     0
  9
$DIMLIM
 70
     0
  9
$DIMTIH
 70
     1
  9
$DIMTOH
 70
     1
  9
$DIMSE1
 70
     0
  9
$DIMSE2
 70
     0
  9
$DIMTAD
 70
     0
  9
$DIMZIN
 70
     0
  9
$DIMBLK
  1

  9
$DIMASO
 70
     1
  9
$DIMSHO
 70
     1
  9
$DIMPOST
  1

  9
$DIMAPOST
  1

  9
$DIMALT
 70
     0
  9
$DIMALTD
 70
     2
  9
$DIMALTF
 40
25.4
  9
$DIMLFAC
 40
1.0
  9
$DIMTOFL
 70
     0
  9
$DIMTVP
 40
0.0
  9
$DIMTIX
 70
     0
  9
$DIMSOXD
 70
     0
  9
$DIMSAH
 70
     0
  9
$DIMBLK1
  1

  9
$DIMBLK2
  1

  9
$DIMSTYLE
  2
STANDARD
  9
$DIMCLRD
 70
     0
  9
$DIMCLRE
 70
     0
  9
$DIMCLRT
 70
     0
  9
$DIMTFAC
 40
1.0
  9
$DIMGAP
 40
0.09
  9
$DIMJUST
 70
     0
  9
$DIMSD1
 70
     0
  9
$DIMSD2
 70
     0
  9
$DIMTOLJ
 70
     1
  9
$DIMTZIN
 70
     0
  9
$DIMALTZ
 70
     0
  9
$DIMALTTZ
 70
     0
  9
$DIMUPT
 70
     0
  9
$DIMDEC
 70
     4
  9
$DIMTDEC
 70
     4
  9
$DIMALTU
 70
     2
  9
$DIMALTTD
 70
     2
  9
$DIMTXSTY
  7
Standard
  9
$DIMAUNIT
 70
     0
  9
$DIMADEC
 70
     0
  9
$DIMALTRND
 40
0.0
  9
$DIMAZIN
 70
     0
  9
$DIMDSEP
 70
    46
  9
$DIMATFIT
 70
     3
  9
$DIMFRAC
 70
     0
  9
$DIMLDRBLK
  1

  9
$DIMLUNIT
 70
     2
  9
$DIMLWD
 70
    -2
  9
$DIMLWE
 70
    -2
  9
$DIMTMOVE
 70
     0
  9
$LUNITS
 70
     2
  9
$LUPREC
 70
     4
  9
$SKETCHINC
 40
0.1
  9
$FILLETRAD
 40
0.0
  9
$AUNITS
 70
     0
  9
$AUPREC
 70
     0
  9
$MENU
  1
.
  9
$ELEVATION
 40
0.0
  9
$PELEVATION
 40
0.0
  9
$THICKNESS
 40
0.0
  9
$LIMCHECK
 70
     0
  9
$CHAMFERA
 40
0.0
  9
$CHAMFERB
 40
0.0
  9
$CHAMFERC
 40
0.0
  9
$CHAMFERD
 40
0.0
  9
$SKPOLY
 70
     0
  9
$TDCREATE
 40
2455950.467494167
  9
$TDUCREATE
 40
2455950.717494167
  9
$TDUPDATE
 40
2455950.467494167
  9
$TDUUPDATE
 40
2455950.717494167
  9
$TDINDWG
 40
0.0000388889
  9
$TDUSRTIMER
 40
0.0000388889
  9
$USRTIMER
 70
     1
  9
$ANGBASE
 50
0.0
  9
$ANGDIR
 70
     0
  9
$PDMODE
 70
     0
  9
$PDSIZE
 40
0.0
  9
$PLINEWID
 40
0.0
  9
$SPLFRAME
 70
     0
  9
$SPLINETYPE
 70
     6
  9
$SPLINESEGS
 70
     8
  9
$HANDSEED
  5
8CA
  9
$SURFTAB1
 70
     6
  9
$SURFTAB2
 70
     6
  9
$SURFTYPE
 70
     6
  9
$SURFU
 70
     6
  9
$SURFV
 70
     6
  9
$UCSBASE
  2

  9
$UCSNAME
  2

  9
$UCSORG
 10
0.0
 20
0.0
 30
0.0
  9
$UCSXDIR
 10
1.0
 20
0.0
 30
0.0
  9
$UCSYDIR
 10
0.0
 20
1.0
 30
0.0
  9
$UCSORTHOREF
  2

  9
$UCSORTHOVIEW
 70
     0
  9
$UCSORGTOP
 10
0.0
 20
0.0
 30
0.0
  9
$UCSORGBOTTOM
 10
0.0
 20
0.0
 30
0.0
  9
$UCSORGLEFT
 10
0.0
 20
0.0
 30
0.0
  9
$UCSORGRIGHT
 10
0.0
 20
0.0
 30
0.0
  9
$UCSORGFRONT
 10
0.0
 20
0.0
 30
0.0
  9
$UCSORGBACK
 10
0.0
 20
0.0
 30
0.0
  9
$PUCSBASE
  2

  9
$PUCSNAME
  2

  9
$PUCSORG
 10
0.0
 20
0.0
 30
0.0
  9
$PUCSXDIR
 10
1.0
 20
0.0
 30
0.0
  9
$PUCSYDIR
 10
0.0
 20
1.0
 30
0.0
  9
$PUCSORTHOREF
  2

  9
$PUCSORTHOVIEW
 70
     0
  9
$PUCSORGTOP
 10
0.0
 20
0.0
 30
0.0
  9
$PUCSORGBOTTOM
 10
0.0
 20
0.0
 30
0.0
  9
$PUCSORGLEFT
 10
0.0
 20
0.0
 30
0.0
  9
$PUCSORGRIGHT
 10
0.0
 20
0.0
 30
0.0
  9
$PUCSORGFRONT
 10
0.0
 20
0.0
 30
0.0
  9
$PUCSORGBACK
 10
0.0
 20
0.0
 30
0.0
  9
$USERI1
 70
     0
  9
$USERI2
 70
     0
  9
$USERI3
 70
     0
  9
$USERI4
 70
     0
  9
$USERI5
 70
     0
  9
$USERR1
 40
0.0
  9
$USERR2
 40
0.0
  9
$USERR3
 40
0.0
  9
$USERR4
 40
0.0
  9
$USERR5
 40
0.0
  9
$WORLDVIEW
 70
     1
  9
$SHADEDGE
 70
     3
  9
$SHADEDIF
 70
    70
  9
$TILEMODE
 70
     1
  9
$MAXACTVP
 70
    64
  9
$PINSBASE
 10
0.0
 20
0.0
 30
0.0
  9
$PLIMCHECK
 70
     0
  9
$PEXTMIN
 10
0.0
 20
0.0
 30
0.0
  9
$PEXTMAX
 10
14.16666666666667
 20
9.166666666666667
 30
0.0
  9
$PLIMMIN
 10
0.0
 20
0.0
  9
$PLIMMAX
 10
14.16666666666667
 20
9.166666666666667
  9
$UNITMODE
 70
     0
  9
$VISRETAIN
 70
     1
  9
$PLINEGEN
 70
     0
  9
$PSLTSCALE
 70
     1
  9
$TREEDEPTH
 70
  3020
  9
$CMLSTYLE
  2
Standard
  9
$CMLJUST
 70
     0
  9
$CMLSCALE
 40
1.0
  9
$PROXYGRAPHICS
 70
     1
  9
$MEASUREMENT
 70
     0
  9
$CELWEIGHT
370
    -1
  9
$ENDCAPS
280
     0
  9
$JOINSTYLE
280
     0
  9
$LWDISPLAY
290
     0
  9
$INSUNITS
 70
     1
  9
$HYPERLINKBASE
  1

  9
$STYLESHEET
  1

  9
$XEDIT
290
     1
  9
$CEPSNTYPE
380
     0
  9
$PSTYLEMODE
290
     1
  9
$FINGERPRINTGUID
  2
{69974481-A0EE-4D61-84EE-9A234B790583}
  9
$VERSIONGUID
  2
{EA1FA28B-20A9-47F5-B861-FA441F35AECA}
  9
$EXTNAMES
290
     1
  9
$PSVPSCALE
 40
0.0
  9
$OLESTARTUP
290
     0
  0
ENDSEC
  0
SECTION
  2
CLASSES
  0
CLASS
  1
ACDBDICTIONARYWDFLT
  2
AcDbDictionaryWithDefault
  3
ObjectDBX Classes
 90
        0
280
     0
281
     0
  0
CLASS
  1
MATERIAL
  2
AcDbMaterial
  3
ObjectDBX Classes
 90
     1153
280
     0
281
     0
  0
CLASS
  1
VISUALSTYLE
  2
AcDbVisualStyle
  3
ObjectDBX Classes
 90
     4095
280
     0
281
     0
  0
CLASS
  1
SCALE
  2
AcDbScale
  3
ObjectDBX Classes
 90
     1153
280
     0
281
     0
  0
CLASS
  1
TABLESTYLE
  2
AcDbTableStyle
  3
ObjectDBX Classes
 90
     4095
280
     0
281
     0
  0
CLASS
  1
MLEADERSTYLE
  2
AcDbMLeaderStyle
  3
ACDB_MLEADERSTYLE_CLASS
 90
     4095
280
     0
281
     0
  0
CLASS
  1
DICTIONARYVAR
  2
AcDbDictionaryVar
  3
ObjectDBX Classes
 90
        0
280
     0
281
     0
  0
CLASS
  1
CELLSTYLEMAP
  2
AcDbCellStyleMap
  3
ObjectDBX Classes
 90
     1152
280
     0
281
     0
  0
CLASS
  1
ACDBPLACEHOLDER
  2
AcDbPlaceHolder
  3
ObjectDBX Classes
 90
        0
280
     0
281
     0
  0
CLASS
  1
LAYOUT
  2
AcDbLayout
  3
ObjectDBX Classes
 90
        0
280
     0
281
     0
  0
ENDSEC
  0
SECTION
  2
TABLES
  0
TABLE
  2
VPORT
  5
8
330
0
100
AcDbSymbolTable
 70
     1
  0
VPORT
  5
57
330
8
100
AcDbSymbolTableRecord
100
AcDbViewportTableRecord
  2
*Active
 70
     0
 10
0.0
 20
0.0
 11
1.0
 21
1.0
 12
7.083333333333333
 22
4.583333333333333
 13
0.0
 23
0.0
 14
1.0
 24
1.0
 15
0.0
 25
0.0
 16
0.0
 26
0.0
 36
1.0
 17
0.0
 27
0.0
 37
0.0
 40
9.166666666666667
 41
1.545454545454545
 42
50.0
 43
0.0
 44
0.0
 50
0.0
 51
0.0
 71
     0
 72
   100
 73
     1
 74
     1
 75
     0
 76
     0
 77
     0
 78
     0
281
     0
 65
     1
110
0.0
120
0.0
130
0.0
111
1.0
121
0.0
131
0.0
112
0.0
122
1.0
132
0.0
 79
     0
146
0.0
  0
ENDTAB
  0
TABLE
  2
LTYPE
  5
5
330
0
100
AcDbSymbolTable
 70
    59
  0
LTYPE
  5
5B
330
5
100
AcDbSymbolTableRecord
100
AcDbLinetypeTableRecord
  2
ByBlock
 70
     0
  3

 72
    65
 73
     0
 40
0.0
  0
LTYPE
  5
5C
330
5
100
AcDbSymbolTableRecord
100
AcDbLinetypeTableRecord
  2
ByLayer
 70
     0
  3

 72
    65
 73
     0
 40
0.0
  0
LTYPE
  5
5D
330
5
100
AcDbSymbolTableRecord
100
AcDbLinetypeTableRecord
  2
Continuous
 70
     0
  3
Solid line
 72
    65
 73
     0
 40
0.0
  0
LTYPE
  5
7C
330
5
100
AcDbSymbolTableRecord
100
AcDbLinetypeTableRecord
  2
BY_STANDARD
 70
     0
  3
By Standard ____________    ____    ____   _
 72
    65
 73
     6
 40
1.240299999999999
 49
0.6614
 74
     0
 49
-0.0827
 74
     0
 49
0.1654
 74
     0
 49
-0.0827
 74
     0
 49
0.1654
 74
     0
 49
-0.0827
 74
     0
  0
LTYPE
  5
7D
330
5
100
AcDbSymbolTableRecord
100
AcDbLinetypeTableRecord
  2
CHAIN
 70
     0
  3
Chain ____ _ ____ _ ____ _ ____ _ ____ _ ____
 72
    65
 73
     4
 40
0.7087
 49
0.4724000000000001
 74
     0
 49
-0.0591
 74
     0
 49
0.1181
 74
     0
 49
-0.0591
 74
     0
  0
LTYPE
  5
7E
330
5
100
AcDbSymbolTableRecord
100
AcDbLinetypeTableRecord
  2
DASH_DOT
 70
     0
  3
Dash dot __ . __ . __ . __ . __ . __ . __ . __
 72
    65
 73
     4
 40
0.37
 49
0.24
 74
     0
 49
-0.06
 74
     0
 49
0.01
 74
     0
 49
-0.06
 74
     0
  0
LTYPE
  5
7F
330
5
100
AcDbSymbolTableRecord
100
AcDbLinetypeTableRecord
  2
DOUBLE_DASH_DOT
 70
     0
  3
Double-Dash Dot __ __ . __ __ . __ __ . __ _
 72
    65
 73
     6
 40
0.4398
 49
0.24
 74
     0
 49
-0.06
 74
     0
 49
0.0098
 74
     0
 49
-0.06
 74
     0
 49
0.01
 74
     0
 49
-0.06
 74
     0
  0
LTYPE
  5
80
330
5
100
AcDbSymbolTableRecord
100
AcDbLinetypeTableRecord
  2
DASH_TRIPLE_DOT
 70
     0
  3
Dash Triple-Dot _ . . . _ . . . _ . . . _
 72
    65
 73
     8
 40
0.51
 49
0.24
 74
     0
 49
-0.06
 74
     0
 49
0.01
 74
     0
 49
-0.06
 74
     0
 49
0.01
 74
     0
 49
-0.06
 74
     0
 49
0.01
 74
     0
 49
-0.06
 74
     0
  0
LTYPE
  5
81
330
5
100
AcDbSymbolTableRecord
100
AcDbLinetypeTableRecord
  2
DASHED
 70
     0
  3
Dashed __ __ __ __ __ __ __ __ __ __ __ __ __ _
 72
    65
 73
     2
 40
0.2067
 49
0.1654
 74
     0
 49
-0.0413
 74
     0
  0
LTYPE
  5
82
330
5
100
AcDbSymbolTableRecord
100
AcDbLinetypeTableRecord
  2
DASH_DOUBLE_DOT
 70
     0
  3
Dash Double-Dot __ . . __ . . __ . . __ . .
 72
    65
 73
     6
 40
0.4398
 49
0.24
 74
     0
 49
-0.06
 74
     0
 49
0.0098
 74
     0
 49
-0.06
 74
     0
 49
0.01
 74
     0
 49
-0.06
 74
     0
  0
LTYPE
  5
83
330
5
100
AcDbSymbolTableRecord
100
AcDbLinetypeTableRecord
  2
DASHED_SPACE
 70
     0
  3
Dashed Space __ __ __ __ __ __ __ __ __ __ __ _
 72
    65
 73
     2
 40
0.2067
 49
0.1654
 74
     0
 49
-0.0413
 74
     0
  0
LTYPE
  5
84
330
5
100
AcDbSymbolTableRecord
100
AcDbLinetypeTableRecord
  2
DOTTED
 70
     0
  3
Dotted . . . . . . . . . . . . . . . . . . . . 
 72
    65
 73
     2
 40
0.0482
 49
0.0069
 74
     0
 49
-0.0413
 74
     0
  0
LTYPE
  5
85
330
5
100
AcDbSymbolTableRecord
100
AcDbLinetypeTableRecord
  2
DOUBLE_DASH_CHAIN
 70
     0
  3
Double-Dash Chain ______  __  __  ______  __  _
 72
    65
 73
     6
 40
1.240299999999999
 49
0.6614
 74
     0
 49
-0.0827
 74
     0
 49
0.1654
 74
     0
 49
-0.0827
 74
     0
 49
0.1654
 74
     0
 49
-0.0827
 74
     0
  0
LTYPE
  5
87
330
5
100
AcDbSymbolTableRecord
100
AcDbLinetypeTableRecord
  2
DOUBLE_DASH_DOUBLE_DOT
 70
     0
  3
Double-Dash Double-dot _ _ . . _ _ . . _
 72
    65
 73
     8
 40
0.7400000000000001
 49
0.24
 74
     0
 49
-0.06
 74
     0
 49
0.24
 74
     0
 49
-0.06
 74
     0
 49
0.01
 74
     0
 49
-0.06
 74
     0
 49
0.01
 74
     0
 49
-0.06
 74
     0
  0
LTYPE
  5
88
330
5
100
AcDbSymbolTableRecord
100
AcDbLinetypeTableRecord
  2
DOUBLE_DASH_TRIPLE_DOT
 70
     0
  3
Double Dash Triple Dot __ __ . . . __ __ . .
 72
    65
 73
    10
 40
0.8100000000000001
 49
0.24
 74
     0
 49
-0.06
 74
     0
 49
0.24
 74
     0
 49
-0.06
 74
     0
 49
0.01
 74
     0
 49
-0.06
 74
     0
 49
0.01
 74
     0
 49
-0.06
 74
     0
 49
0.01
 74
     0
 49
-0.06
 74
     0
  0
LTYPE
  5
89
330
5
100
AcDbSymbolTableRecord
100
AcDbLinetypeTableRecord
  2
LONG_DASH_DOTTED
 70
     0
  3
Long Dash Dotted ____ . ____ . ____ . ____ . _
 72
    65
 73
     4
 40
0.3543
 49
0.2362
 74
     0
 49
-0.0295
 74
     0
 49
0.0591
 74
     0
 49
-0.0295
 74
     0
  0
LTYPE
  5
8A
330
5
100
AcDbSymbolTableRecord
100
AcDbLinetypeTableRecord
  2
LONG_DASH_DOUBLE_DOT
 70
     0
  3
Long Dash Double Dot ________  .  .  ________  
 72
    65
 73
     6
 40
0.6799999999999999
 49
0.48
 74
     0
 49
-0.06
 74
     0
 49
0.01
 74
     0
 49
-0.06
 74
     0
 49
0.01
 74
     0
 49
-0.06
 74
     0
  0
LTYPE
  5
8B
330
5
100
AcDbSymbolTableRecord
100
AcDbLinetypeTableRecord
  2
LONG_DASH_TRIPLE_DOT
 70
     0
  3
Long Dash Triple Dot ____ ... ____ ... ____
 72
    65
 73
     8
 40
0.3689
 49
0.2362
 74
     0
 49
-0.0295
 74
     0
 49
0.0049
 74
     0
 49
-0.0295
 74
     0
 49
0.0049
 74
     0
 49
-0.0295
 74
     0
 49
0.0049
 74
     0
 49
-0.0295
 74
     0
  0
LTYPE
  5
8C
330
5
100
AcDbSymbolTableRecord
100
AcDbLinetypeTableRecord
  2
BORDER
 70
     0
  3
Border __ __ . __ __ . __ __ . __ __ . __ __ .
 72
    65
 73
     6
 40
1.75
 49
0.5
 74
     0
 49
-0.25
 74
     0
 49
0.5
 74
     0
 49
-0.25
 74
     0
 49
0.0
 74
     0
 49
-0.25
 74
     0
  0
LTYPE
  5
8D
330
5
100
AcDbSymbolTableRecord
100
AcDbLinetypeTableRecord
  2
BORDER2
 70
     0
  3
Border (.5x) __.__.__.__.__.__.__.__.__.__.__.
 72
    65
 73
     6
 40
0.875
 49
0.25
 74
     0
 49
-0.125
 74
     0
 49
0.25
 74
     0
 49
-0.125
 74
     0
 49
0.0
 74
     0
 49
-0.125
 74
     0
  0
LTYPE
  5
8E
330
5
100
AcDbSymbolTableRecord
100
AcDbLinetypeTableRecord
  2
BORDERX2
 70
     0
  3
Border (2x) ____  ____  .  ____  ____  .  ___
 72
    65
 73
     6
 40
3.5
 49
1.0
 74
     0
 49
-0.5
 74
     0
 49
1.0
 74
     0
 49
-0.5
 74
     0
 49
0.0
 74
     0
 49
-0.5
 74
     0
  0
LTYPE
  5
8F
330
5
100
AcDbSymbolTableRecord
100
AcDbLinetypeTableRecord
  2
CENTER
 70
     0
  3
Center ____ _ ____ _ ____ _ ____ _ ____ _ ____
 72
    65
 73
     4
 40
2.0
 49
1.25
 74
     0
 49
-0.25
 74
     0
 49
0.25
 74
     0
 49
-0.25
 74
     0
  0
LTYPE
  5
90
330
5
100
AcDbSymbolTableRecord
100
AcDbLinetypeTableRecord
  2
CENTER2
 70
     0
  3
Center (.5x) ___ _ ___ _ ___ _ ___ _ ___ _ ___
 72
    65
 73
     4
 40
1.125
 49
0.75
 74
     0
 49
-0.125
 74
     0
 49
0.125
 74
     0
 49
-0.125
 74
     0
  0
LTYPE
  5
91
330
5
100
AcDbSymbolTableRecord
100
AcDbLinetypeTableRecord
  2
CENTERX2
 70
     0
  3
Center (2x) ________  __  ________  __  _____
 72
    65
 73
     4
 40
4.0
 49
2.5
 74
     0
 49
-0.5
 74
     0
 49
0.5
 74
     0
 49
-0.5
 74
     0
  0
LTYPE
  5
92
330
5
100
AcDbSymbolTableRecord
100
AcDbLinetypeTableRecord
  2
DASHDOT2
 70
     0
  3
Dash dot (.5x) _._._._._._._._._._._._._._._.
 72
    65
 73
     4
 40
0.5
 49
0.25
 74
     0
 49
-0.125
 74
     0
 49
0.0
 74
     0
 49
-0.125
 74
     0
  0
LTYPE
  5
93
330
5
100
AcDbSymbolTableRecord
100
AcDbLinetypeTableRecord
  2
DASHDOTX2
 70
     0
  3
Dash dot (2x) ____  .  ____  .  ____  .  ___
 72
    65
 73
     4
 40
2.0
 49
1.0
 74
     0
 49
-0.5
 74
     0
 49
0.0
 74
     0
 49
-0.5
 74
     0
  0
LTYPE
  5
95
330
5
100
AcDbSymbolTableRecord
100
AcDbLinetypeTableRecord
  2
DASHED2
 70
     0
  3
Dashed (.5x) _ _ _ _ _ _ _ _ _ _ _ _ _ _ _ _ _
 72
    65
 73
     2
 40
0.375
 49
0.25
 74
     0
 49
-0.125
 74
     0
  0
LTYPE
  5
96
330
5
100
AcDbSymbolTableRecord
100
AcDbLinetypeTableRecord
  2
DASHEDX2
 70
     0
  3
Dashed (2x) ____  ____  ____  ____  ____  ___
 72
    65
 73
     2
 40
1.5
 49
1.0
 74
     0
 49
-0.5
 74
     0
  0
LTYPE
  5
97
330
5
100
AcDbSymbolTableRecord
100
AcDbLinetypeTableRecord
  2
DIVIDE
 70
     0
  3
Divide ____ . . ____ . . ____ . . ____ . . ____
 72
    65
 73
     6
 40
1.25
 49
0.5
 74
     0
 49
-0.25
 74
     0
 49
0.0
 74
     0
 49
-0.25
 74
     0
 49
0.0
 74
     0
 49
-0.25
 74
     0
  0
LTYPE
  5
98
330
5
100
AcDbSymbolTableRecord
100
AcDbLinetypeTableRecord
  2
DIVIDE2
 70
     0
  3
Divide (.5x) __..__..__..__..__..__..__..__.._
 72
    65
 73
     6
 40
0.625
 49
0.25
 74
     0
 49
-0.125
 74
     0
 49
0.0
 74
     0
 49
-0.125
 74
     0
 49
0.0
 74
     0
 49
-0.125
 74
     0
  0
LTYPE
  5
99
330
5
100
AcDbSymbolTableRecord
100
AcDbLinetypeTableRecord
  2
DIVIDEX2
 70
     0
  3
Divide (2x) ________  .  .  ________  .  .  _
 72
    65
 73
     6
 40
2.5
 49
1.0
 74
     0
 49
-0.5
 74
     0
 49
0.0
 74
     0
 49
-0.5
 74
     0
 49
0.0
 74
     0
 49
-0.5
 74
     0
  0
LTYPE
  5
9A
330
5
100
AcDbSymbolTableRecord
100
AcDbLinetypeTableRecord
  2
DOT
 70
     0
  3
Dot . . . . . . . . . . . . . . . . . . . . . .
 72
    65
 73
     2
 40
0.25
 49
0.0
 74
     0
 49
-0.25
 74
     0
  0
LTYPE
  5
9B
330
5
100
AcDbSymbolTableRecord
100
AcDbLinetypeTableRecord
  2
DOT2
 70
     0
  3
Dot (.5x) .....................................
 72
    65
 73
     2
 40
0.125
 49
0.0
 74
     0
 49
-0.125
 74
     0
  0
LTYPE
  5
9C
330
5
100
AcDbSymbolTableRecord
100
AcDbLinetypeTableRecord
  2
DOTX2
 70
     0
  3
Dot (2x) .  .  .  .  .  .  .  .  .  .  .  .  . 
 72
    65
 73
     2
 40
0.5
 49
0.0
 74
     0
 49
-0.5
 74
     0
  0
LTYPE
  5
9D
330
5
100
AcDbSymbolTableRecord
100
AcDbLinetypeTableRecord
  2
HIDDEN
 70
     0
  3
Hidden __ __ __ __ __ __ __ __ __ __ __ __ __ _
 72
    65
 73
     2
 40
0.375
 49
0.25
 74
     0
 49
-0.125
 74
     0
  0
LTYPE
  5
9E
330
5
100
AcDbSymbolTableRecord
100
AcDbLinetypeTableRecord
  2
HIDDEN2
 70
     0
  3
Hidden (.5x) _ _ _ _ _ _ _ _ _ _ _ _ _ _ _ _ _
 72
    65
 73
     2
 40
0.1875
 49
0.125
 74
     0
 49
-0.0625
 74
     0
  0
LTYPE
  5
9F
330
5
100
AcDbSymbolTableRecord
100
AcDbLinetypeTableRecord
  2
HIDDENX2
 70
     0
  3
Hidden (2x) ____ ____ ____ ____ ____ ____ ____
 72
    65
 73
     2
 40
0.75
 49
0.5
 74
     0
 49
-0.25
 74
     0
  0
LTYPE
  5
A0
330
5
100
AcDbSymbolTableRecord
100
AcDbLinetypeTableRecord
  2
PHANTOM
 70
     0
  3
Phantom ______  __  __  ______  __  __  ______
 72
    65
 73
     6
 40
2.5
 49
1.25
 74
     0
 49
-0.25
 74
     0
 49
0.25
 74
     0
 49
-0.25
 74
     0
 49
0.25
 74
     0
 49
-0.25
 74
     0
  0
LTYPE
  5
A1
330
5
100
AcDbSymbolTableRecord
100
AcDbLinetypeTableRecord
  2
PHANTOM2
 70
     0
  3
Phantom (.5x) ___ _ _ ___ _ _ ___ _ _ ___ _ _
 72
    65
 73
     6
 40
1.25
 49
0.625
 74
     0
 49
-0.125
 74
     0
 49
0.125
 74
     0
 49
-0.125
 74
     0
 49
0.125
 74
     0
 49
-0.125
 74
     0
  0
LTYPE
  5
A2
330
5
100
AcDbSymbolTableRecord
100
AcDbLinetypeTableRecord
  2
PHANTOMX2
 70
     0
  3
Phantom (2x) ____________    ____    ____   _
 72
    65
 73
     6
 40
5.0
 49
2.5
 74
     0
 49
-0.5
 74
     0
 49
0.5
 74
     0
 49
-0.5
 74
     0
 49
0.5
 74
     0
 49
-0.5
 74
     0
  0
LTYPE
  5
A3
330
5
100
AcDbSymbolTableRecord
100
AcDbLinetypeTableRecord
  2
ACAD_ISO02W100
 70
     0
  3
ISO dash __ __ __ __ __ __ __ __ __ __ __ __ __
 72
    65
 73
     2
 40
0.59
 49
0.47
 74
     0
 49
-0.12
 74
     0
  0
LTYPE
  5
A4
330
5
100
AcDbSymbolTableRecord
100
AcDbLinetypeTableRecord
  2
ACAD_ISO03W100
 70
     0
  3
ISO dash space __    __    __    __    __    __
 72
    65
 73
     2
 40
1.179999999999999
 49
0.47
 74
     0
 49
-0.71
 74
     0
  0
LTYPE
  5
A5
330
5
100
AcDbSymbolTableRecord
100
AcDbLinetypeTableRecord
  2
ACAD_ISO04W100
 70
     0
  3
ISO long-dash dot ____ . ____ . ____ . ____ . _
 72
    65
 73
     4
 40
1.179999999999999
 49
0.9399999999999998
 74
     0
 49
-0.12
 74
     0
 49
0.0
 74
     0
 49
-0.12
 74
     0
  0
LTYPE
  5
A6
330
5
100
AcDbSymbolTableRecord
100
AcDbLinetypeTableRecord
  2
ACAD_ISO05W100
 70
     0
  3
ISO long-dash double-dot ____ .. ____ .. ____ .
 72
    65
 73
     6
 40
1.299999999999999
 49
0.9399999999999998
 74
     0
 49
-0.12
 74
     0
 49
0.0
 74
     0
 49
-0.12
 74
     0
 49
0.0
 74
     0
 49
-0.12
 74
     0
  0
LTYPE
  5
A7
330
5
100
AcDbSymbolTableRecord
100
AcDbLinetypeTableRecord
  2
ACAD_ISO06W100
 70
     0
  3
ISO long-dash triple-dot ____ ... ____ ... ____
 72
    65
 73
     8
 40
1.419999999999999
 49
0.9399999999999998
 74
     0
 49
-0.12
 74
     0
 49
0.0
 74
     0
 49
-0.12
 74
     0
 49
0.0
 74
     0
 49
-0.12
 74
     0
 49
0.0
 74
     0
 49
-0.12
 74
     0
  0
LTYPE
  5
A8
330
5
100
AcDbSymbolTableRecord
100
AcDbLinetypeTableRecord
  2
ACAD_ISO07W100
 70
     0
  3
ISO dot . . . . . . . . . . . . . . . . . . . .
 72
    65
 73
     2
 40
0.12
 49
0.0
 74
     0
 49
-0.12
 74
     0
  0
LTYPE
  5
A9
330
5
100
AcDbSymbolTableRecord
100
AcDbLinetypeTableRecord
  2
ACAD_ISO08W100
 70
     0
  3
ISO long-dash short-dash ____ __ ____ __ ____ _
 72
    65
 73
     4
 40
0.95
 49
0.47
 74
     0
 49
-0.12
 74
     0
 49
0.24
 74
     0
 49
-0.12
 74
     0
  0
LTYPE
  5
AA
330
5
100
AcDbSymbolTableRecord
100
AcDbLinetypeTableRecord
  2
ACAD_ISO09W100
 70
     0
  3
ISO long-dash double-short-dash ____ __ __ ____
 72
    65
 73
     6
 40
1.31
 49
0.47
 74
     0
 49
-0.12
 74
     0
 49
0.24
 74
     0
 49
-0.12
 74
     0
 49
0.24
 74
     0
 49
-0.12
 74
     0
  0
LTYPE
  5
AB
330
5
100
AcDbSymbolTableRecord
100
AcDbLinetypeTableRecord
  2
ACAD_ISO10W100
 70
     0
  3
ISO dash dot __ . __ . __ . __ . __ . __ . __ .
 72
    65
 73
     4
 40
0.71
 49
0.47
 74
     0
 49
-0.12
 74
     0
 49
0.0
 74
     0
 49
-0.12
 74
     0
  0
LTYPE
  5
AC
330
5
100
AcDbSymbolTableRecord
100
AcDbLinetypeTableRecord
  2
ACAD_ISO11W100
 70
     0
  3
ISO double-dash dot __ __ . __ __ . __ __ . __ 
 72
    65
 73
     6
 40
1.299999999999999
 49
0.47
 74
     0
 49
-0.12
 74
     0
 49
0.47
 74
     0
 49
-0.12
 74
     0
 49
0.0
 74
     0
 49
-0.12
 74
     0
  0
LTYPE
  5
AD
330
5
100
AcDbSymbolTableRecord
100
AcDbLinetypeTableRecord
  2
ACAD_ISO12W100
 70
     0
  3
ISO dash double-dot __ . . __ . . __ . . __ . .
 72
    65
 73
     6
 40
0.8299999999999998
 49
0.47
 74
     0
 49
-0.12
 74
     0
 49
0.0
 74
     0
 49
-0.12
 74
     0
 49
0.0
 74
     0
 49
-0.12
 74
     0
  0
LTYPE
  5
AE
330
5
100
AcDbSymbolTableRecord
100
AcDbLinetypeTableRecord
  2
ACAD_ISO13W100
 70
     0
  3
ISO double-dash double-dot __ __ . . __ __ . . 
 72
    65
 73
     8
 40
1.419999999999999
 49
0.47
 74
     0
 49
-0.12
 74
     0
 49
0.47
 74
     0
 49
-0.12
 74
     0
 49
0.0
 74
     0
 49
-0.12
 74
     0
 49
0.0
 74
     0
 49
-0.12
 74
     0
  0
LTYPE
  5
AF
330
5
100
AcDbSymbolTableRecord
100
AcDbLinetypeTableRecord
  2
ACAD_ISO14W100
 70
     0
  3
ISO dash triple-dot __ . . . __ . . . __ . . . 
 72
    65
 73
     8
 40
0.95
 49
0.47
 74
     0
 49
-0.12
 74
     0
 49
0.0
 74
     0
 49
-0.12
 74
     0
 49
0.0
 74
     0
 49
-0.12
 74
     0
 49
0.0
 74
     0
 49
-0.12
 74
     0
  0
LTYPE
  5
B0
330
5
100
AcDbSymbolTableRecord
100
AcDbLinetypeTableRecord
  2
ACAD_ISO15W100
 70
     0
  3
ISO double-dash triple-dot __ __ . . . __ __ . 
 72
    65
 73
    10
 40
1.539999999999999
 49
0.47
 74
     0
 49
-0.12
 74
     0
 49
0.47
 74
     0
 49
-0.12
 74
     0
 49
0.0
 74
     0
 49
-0.12
 74
     0
 49
0.0
 74
     0
 49
-0.12
 74
     0
 49
0.0
 74
     0
 49
-0.12
 74
     0
  0
LTYPE
  5
B3
330
5
100
AcDbSymbolTableRecord
100
AcDbLinetypeTableRecord
  2
FENCELINE1
 70
     0
  3
Fenceline circle ----0-----0----0-----0----0---
 72
    65
 73
     4
 40
1.45
 49
0.25
 74
     0
 49
-0.1
 74
     4
 75
   133
340
B2
 46
0.1
 50
0.0
 44
-0.1
 45
0.0
 49
-0.1
 74
     0
 49
1.0
 74
     0
  0
LTYPE
  5
B4
330
5
100
AcDbSymbolTableRecord
100
AcDbLinetypeTableRecord
  2
FENCELINE2
 70
     0
  3
Fenceline square ----[]-----[]----[]-----[]----
 72
    65
 73
     4
 40
1.45
 49
0.25
 74
     0
 49
-0.1
 74
     4
 75
   132
340
B2
 46
0.1
 50
0.0
 44
-0.1
 45
0.0
 49
-0.1
 74
     0
 49
1.0
 74
     0
  0
LTYPE
  5
B5
330
5
100
AcDbSymbolTableRecord
100
AcDbLinetypeTableRecord
  2
TRACKS
 70
     0
  3
Tracks -|-|-|-|-|-|-|-|-|-|-|-|-|-|-|-|-|-|-|-|
 72
    65
 73
     2
 40
0.3
 49
0.15
 74
     4
 75
   130
340
B2
 46
0.25
 50
0.0
 44
0.0
 45
0.0
 49
0.15
 74
     0
  0
LTYPE
  5
B6
330
5
100
AcDbSymbolTableRecord
100
AcDbLinetypeTableRecord
  2
BATTING
 70
     0
  3
Batting SSSSSSSSSSSSSSSSSSSSSSSSSSSSSSSSSSSSSSS
 72
    65
 73
     4
 40
0.4001000000000001
 49
0.0001
 74
     0
 49
-0.1
 74
     4
 75
   134
340
B2
 46
0.1
 50
0.0
 44
-0.1
 45
0.0
 49
-0.2
 74
     4
 75
   134
340
B2
 46
0.1
 50
180.0
 44
0.1
 45
0.0
 49
-0.1
 74
     0
  0
LTYPE
  5
B7
330
5
100
AcDbSymbolTableRecord
100
AcDbLinetypeTableRecord
  2
HOT_WATER_SUPPLY
 70
     0
  3
Hot water supply ---- HW ---- HW ---- HW ----
 72
    65
 73
     3
 40
0.9
 49
0.5
 74
     0
 49
-0.2
 74
     2
 75
     0
340
55
 46
0.1
 50
0.0
 44
-0.1
 45
-0.05
  9
HW
 49
-0.2
 74
     0
  0
LTYPE
  5
B8
330
5
100
AcDbSymbolTableRecord
100
AcDbLinetypeTableRecord
  2
GAS_LINE
 70
     0
  3
Gas line ----GAS----GAS----GAS----GAS----GAS---
 72
    65
 73
     3
 40
0.95
 49
0.5
 74
     0
 49
-0.2
 74
     2
 75
     0
340
55
 46
0.1
 50
0.0
 44
-0.1
 45
-0.05
  9
GAS
 49
-0.25
 74
     0
  0
LTYPE
  5
B9
330
5
100
AcDbSymbolTableRecord
100
AcDbLinetypeTableRecord
  2
ZIGZAG
 70
     0
  3
Zig zag /\/\/\/\/\/\/\/\/\/\/\/\/\/\/\/\/\/\/\/
 72
    65
 73
     4
 40
0.8001000000000001
 49
0.0001
 74
     0
 49
-0.2
 74
     4
 75
   131
340
B2
 46
0.2
 50
0.0
 44
-0.2
 45
0.0
 49
-0.4
 74
     4
 75
   131
340
B2
 46
0.2
 50
180.0
 44
0.2
 45
0.0
 49
-0.2
 74
     0
  0
ENDTAB
  0
TABLE
  2
LAYER
  5
2
330
0
100
AcDbSymbolTable
 70
    27
  0
LAYER
  5
54
330
2
100
AcDbSymbolTableRecord
100
AcDbLayerTableRecord
  2
0
 70
     0
 62
     7
  6
Continuous
370
    18
390
F
  0
LAYER
  5
C3
330
2
100
AcDbSymbolTableRecord
100
AcDbLayerTableRecord
  2
Dimension (ANSI)
 70
     0
 62
     7
  6
Continuous
370
    13
390
F
  0
LAYER
  5
C5
330
2
100
AcDbSymbolTableRecord
100
AcDbLayerTableRecord
  2
Hidden (ANSI)
 70
     0
 62
     7
  6
DASHED
370
    15
390
F
  0
LAYER
  5
CC
330
2
100
AcDbSymbolTableRecord
100
AcDbLayerTableRecord
  2
Symbol (ANSI)
 70
     0
 62
     7
  6
Continuous
370
    18
390
F
  0
LAYER
  5
CF
330
2
100
AcDbSymbolTableRecord
100
AcDbLayerTableRecord
  2
Visible (ANSI)
 70
     0
 62
     7
  6
Continuous
370
    13
390
F
  0
LAYER
  5
D0
330
2
100
AcDbSymbolTableRecord
100
AcDbLayerTableRecord
  2
Visible Narrow (ANSI)
 70
     0
 62
     7
  6
Continuous
370
    18
390
F
  0
LAYER
  5
146
330
2
100
AcDbSymbolTableRecord
100
AcDbLayerTableRecord
  2
Defpoints
 70
     0
 62
     7
  6
Continuous
290
     0
370
    -3
390
F
  0
ENDTAB
  0
TABLE
  2
STYLE
  5
3
330
0
100
AcDbSymbolTable
 70
    18
  0
STYLE
  5
55
330
3
100
AcDbSymbolTableRecord
100
AcDbTextStyleTableRecord
  2
Standard
 70
     0
 40
0.0
 41
1.0
 50
0.0
 71
     0
 42
0.2
  3
txt
  4

  0
STYLE
  5
5A
330
3
100
AcDbSymbolTableRecord
100
AcDbTextStyleTableRecord
  2
Annotative
 70
     0
 40
0.0
 41
1.0
 50
0.0
 71
     0
 42
0.2
  3
txt
  4

1001
AcadAnnotative
1000
AnnotativeData
1002
{
1070
     1
1070
     1
1002
}
  0
STYLE
  5
B2
330
3
100
AcDbSymbolTableRecord
100
AcDbTextStyleTableRecord
  2

 70
     1
 40
0.0
 41
1.0
 50
0.0
 71
     0
 42
0.2
  3
ltypeshp.shx
  4

  0
STYLE
  5
D4
330
3
100
AcDbSymbolTableRecord
100
AcDbTextStyleTableRecord
  2
ITALICC_120
 70
     0
 40
0.0
 41
1.0
 50
0.0
 71
     0
 42
0.2
  3
italicc.shx
  4

  0
STYLE
  5
D5
330
3
100
AcDbSymbolTableRecord
100
AcDbTextStyleTableRecord
  2
Label Text (ANSI)
 70
     0
 40
0.0
 41
1.0
 50
0.0
 71
     0
 42
0.2
  3
TAHOMA.TTF
  4

1001
ACAD
1000
Tahoma
1071
      256
  0
STYLE
  5
D6
330
3
100
AcDbSymbolTableRecord
100
AcDbTextStyleTableRecord
  2
Note Text (ANSI)
 70
     0
 40
0.0
 41
1.0
 50
0.0
 71
     0
 42
0.2
  3
TAHOMA.TTF
  4

1001
ACAD
1000
Tahoma
1071
      256
  0
STYLE
  5
D7
330
3
100
AcDbSymbolTableRecord
100
AcDbTextStyleTableRecord
  2
ROMANS
 70
     0
 40
0.0
 41
1.0
 50
0.0
 71
     0
 42
0.2
  3
romans.shx
  4

  0
STYLE
  5
D8
330
3
100
AcDbSymbolTableRecord
100
AcDbTextStyleTableRecord
  2
SANSSERIF_114
 70
     0
 40
0.0
 41
1.0
 50
0.0
 71
     0
 42
0.2
  3
TAHOMA.TTF
  4

1001
ACAD
1000
Tahoma
1071
      256
  0
STYLE
  5
D9
330
3
100
AcDbSymbolTableRecord
100
AcDbTextStyleTableRecord
  2
SANSSERIF_117
 70
     0
 40
0.0
 41
1.0
 50
0.0
 71
     0
 42
0.2
  3
TAHOMA.TTF
  4

1001
ACAD
1000
Tahoma
1071
      256
  0
STYLE
  5
DA
330
3
100
AcDbSymbolTableRecord
100
AcDbTextStyleTableRecord
  2
STANDARDAM_ANSI
 70
     0
 40
0.0
 41
1.0
 50
0.0
 71
     0
 42
0.2
  3
txt.shx
  4

  0
STYLE
  5
DB
330
3
100
AcDbSymbolTableRecord
100
AcDbTextStyleTableRecord
  2
StandardAM_ANSI$0
 70
     0
 40
0.0
 41
1.0
 50
0.0
 71
     0
 42
0.2
  3
txt.shx
  4

  0
STYLE
  5
DC
330
3
100
AcDbSymbolTableRecord
100
AcDbTextStyleTableRecord
  2
STANDARDAM_ANSI$3
 70
     0
 40
0.0
 41
1.0
 50
0.0
 71
     0
 42
0.2
  3
txt.shx
  4

  0
STYLE
  5
DD
330
3
100
AcDbSymbolTableRecord
100
AcDbTextStyleTableRecord
  2
STANDARDAM_ANSI$4
 70
     0
 40
0.0
 41
1.0
 50
0.0
 71
     0
 42
0.2
  3
txt.shx
  4

  0
STYLE
  5
DE
330
3
100
AcDbSymbolTableRecord
100
AcDbTextStyleTableRecord
  2
STANDARDAM_ANSI$7
 70
     0
 40
0.0
 41
1.0
 50
0.0
 71
     0
 42
0.2
  3
txt.shx
  4

  0
STYLE
  5
DF
330
3
100
AcDbSymbolTableRecord
100
AcDbTextStyleTableRecord
  2
STANDARDAM_ANSI$SF
 70
     0
 40
0.0
 41
1.0
 50
0.0
 71
     0
 42
0.2
  3
txt.shx
  4

  0
STYLE
  5
E0
330
3
100
AcDbSymbolTableRecord
100
AcDbTextStyleTableRecord
  2
STANDARDAM_ANSI$SH
 70
     0
 40
0.0
 41
1.0
 50
0.0
 71
     0
 42
0.2
  3
txt.shx
  4

  0
STYLE
  5
E1
330
3
100
AcDbSymbolTableRecord
100
AcDbTextStyleTableRecord
  2
STANDARDSTANDARD
 70
     0
 40
0.0
 41
1.0
 50
0.0
 71
     0
 42
0.2
  3
txt.shx
  4

  0
STYLE
  5
132
330
3
100
AcDbSymbolTableRecord
100
AcDbTextStyleTableRecord
  2
Text Style150
 70
     0
 40
0.0
 41
1.0
 50
0.0
 71
     0
 42
0.2
  3
TAHOMA.TTF
  4

1001
ACAD
1000
Tahoma
1071
      256
  0
ENDTAB
  0
TABLE
  2
VIEW
  5
6
330
0
100
AcDbSymbolTable
 70
     0
  0
ENDTAB
  0
TABLE
  2
UCS
  5
7
330
0
100
AcDbSymbolTable
 70
     0
  0
ENDTAB
  0
TABLE
  2
APPID
  5
9
330
0
100
AcDbSymbolTable
 70
     4
  0
APPID
  5
56
330
9
100
AcDbSymbolTableRecord
100
AcDbRegAppTableRecord
  2
ACAD
 70
     0
  0
APPID
  5
5E
330
9
100
AcDbSymbolTableRecord
100
AcDbRegAppTableRecord
  2
AcadAnnotative
 70
     0
  0
APPID
  5
788
330
9
100
AcDbSymbolTableRecord
100
AcDbRegAppTableRecord
  2
ACAD_DSTYLE_DIMRADIAL_EXTENSION
 70
     0
  0
APPID
  5
8C1
330
9
100
AcDbSymbolTableRecord
100
AcDbRegAppTableRecord
  2
ACAD_MLEADERVER
 70
     0
  0
ENDTAB
  0
TABLE
  2
DIMSTYLE
  5
A
330
0
100
AcDbSymbolTable
 70
    29
100
AcDbDimStyleTable
 71
     3
340
F6
340
58
340
F8
  0
DIMSTYLE
105
58
330
A
100
AcDbSymbolTableRecord
100
AcDbDimStyleTableRecord
  2
STANDARD
 70
     0
 41
0.1800000071525573
 42
0.0625
140
0.1800000071525574
144
1.0
147
0.0900000035762787
176
   256
177
   256
178
   256
274
     3
340
55
371
    -1
372
    -1
  0
DIMSTYLE
105
59
330
A
100
AcDbSymbolTableRecord
100
AcDbDimStyleTableRecord
  2
Annotative
 70
     0
340
55
1001
AcadAnnotative
1000
AnnotativeData
1002
{
1070
     1
1070
     1
1002
}
  0
DIMSTYLE
105
E2
330
A
100
AcDbSymbolTableRecord
100
AcDbDimStyleTableRecord
  2
AM_ANSI
 70
     0
  4
 mm
 40
0.8333333333333333
 41
0.119999997317791
 42
0.05
 43
0.5
 44
0.1
 45
0.00000001
 78
     4
 79
     2
140
0.1200000047683716
146
0.7099999453624112
147
0.0599999986588955
176
   256
177
   256
178
     2
284
     4
340
DA
371
    -1
372
    -1
  0
DIMSTYLE
105
E3
330
A
100
AcDbSymbolTableRecord
100
AcDbDimStyleTableRecord
  2
AM_ANSI$7
 70
     0
  4
 mm
 40
0.8333333333333333
 41
0.119999997317791
 42
0.05
 43
0.5
 44
0.1
 45
0.00000001
 78
     4
 79
     2
140
0.1200000047683716
146
0.7099999453624112
147
0.0599999986588955
176
   256
177
   256
178
     2
284
     4
340
DA
371
    -1
372
    -1
  0
DIMSTYLE
105
E4
330
A
100
AcDbSymbolTableRecord
100
AcDbDimStyleTableRecord
  2
AM_ANSI$0
 70
     0
  4
 mm
 40
0.8333333333333333
 41
0.119999997317791
 42
0.05
 43
0.5
 44
0.1
 45
0.00000001
 78
     4
 79
     2
140
0.1200000047683716
146
0.7099999453624112
147
0.0599999986588955
176
   256
177
   256
178
     2
284
     4
340
DB
371
    -1
372
    -1
  0
DIMSTYLE
105
E5
330
A
100
AcDbSymbolTableRecord
100
AcDbDimStyleTableRecord
  2
AM_ANSI$0$7
 70
     0
  4
 mm
 40
0.8333333333333333
 41
0.119999997317791
 42
0.05
 43
0.5
 44
0.1
 45
0.00000001
 78
     4
 79
     2
140
0.1200000047683716
146
0.7099999453624112
147
0.0599999986588955
176
   256
177
   256
178
     2
284
     4
340
DB
371
    -1
372
    -1
  0
DIMSTYLE
105
E6
330
A
100
AcDbSymbolTableRecord
100
AcDbDimStyleTableRecord
  2
AM_ANSI$3
 70
     0
  4
 mm
 40
0.8333333333333333
 41
0.119999997317791
 42
0.05
 43
0.5
 44
0.1
 45
0.00000001
 78
     4
 79
     2
140
0.1200000047683716
146
0.7099999453624112
147
0.0599999986588955
176
   256
177
   256
178
     2
284
     4
340
DC
371
    -1
372
    -1
  0
DIMSTYLE
105
E7
330
A
100
AcDbSymbolTableRecord
100
AcDbDimStyleTableRecord
  2
AM_ANSI$3$7
 70
     0
  4
 mm
 40
0.8333333333333333
 41
0.119999997317791
 42
0.05
 43
0.5
 44
0.1
 45
0.00000001
 78
     4
 79
     2
140
0.1200000047683716
146
0.7099999453624112
147
0.0599999986588955
176
   256
177
   256
178
     2
284
     4
340
DC
371
    -1
372
    -1
  0
DIMSTYLE
105
E8
330
A
100
AcDbSymbolTableRecord
100
AcDbDimStyleTableRecord
  2
AM_ANSI$4
 70
     0
  4
 mm
 40
0.8333333333333333
 41
0.119999997317791
 42
0.05
 43
0.5
 44
0.1
 45
0.00000001
 78
     4
 79
     2
140
0.1200000047683716
146
0.7099999453624112
147
0.0599999986588955
176
   256
177
   256
178
     2
284
     4
340
DD
371
    -1
372
    -1
  0
DIMSTYLE
105
E9
330
A
100
AcDbSymbolTableRecord
100
AcDbDimStyleTableRecord
  2
AM_ANSI$4$7
 70
     0
  4
 mm
 40
0.8333333333333333
 41
0.119999997317791
 42
0.05
 43
0.5
 44
0.1
 45
0.00000001
 78
     4
 79
     2
140
0.1200000047683716
146
0.7099999453624112
147
0.0599999986588955
176
   256
177
   256
178
     2
284
     4
340
DD
371
    -1
372
    -1
  0
DIMSTYLE
105
EA
330
A
100
AcDbSymbolTableRecord
100
AcDbDimStyleTableRecord
  2
AM_ANSI$SF
 70
     0
  4
 mm
 40
0.8333333333333333
 41
0.119999997317791
 42
0.05
 43
0.5
 44
0.1
 45
0.00000001
 75
     1
 76
     1
 78
     4
 79
     2
140
0.1200000047683716
146
0.7099999453624112
147
0.0599999986588955
176
   256
177
   256
178
     2
284
     4
340
DF
371
    -1
372
    -1
  0
DIMSTYLE
105
EB
330
A
100
AcDbSymbolTableRecord
100
AcDbDimStyleTableRecord
  2
AM_ANSI$SF$7
 70
     0
  4
 mm
 40
0.8333333333333333
 41
0.119999997317791
 42
0.05
 43
0.5
 44
0.1
 45
0.00000001
 75
     1
 76
     1
 78
     4
 79
     2
140
0.1200000047683716
146
0.7099999453624112
147
0.0599999986588955
176
   256
177
   256
178
     2
284
     4
340
DF
371
    -1
372
    -1
  0
DIMSTYLE
105
EC
330
A
100
AcDbSymbolTableRecord
100
AcDbDimStyleTableRecord
  2
AM_ANSI$SH
 70
     0
  4
 mm
 40
0.8333333333333333
 41
0.119999997317791
 42
0.05
 43
0.5
 44
0.1
 45
0.00000001
 75
     1
 76
     1
 78
     4
 79
     2
140
0.1200000047683716
146
0.7099999453624112
147
0.0599999986588955
176
   256
177
   256
178
     2
284
     4
340
E0
371
    -1
372
    -1
  0
DIMSTYLE
105
ED
330
A
100
AcDbSymbolTableRecord
100
AcDbDimStyleTableRecord
  2
AM_ANSI$SH$7
 70
     0
  4
 mm
 40
0.8333333333333333
 41
0.119999997317791
 42
0.05
 43
0.5
 44
0.1
 45
0.00000001
 75
     1
 76
     1
 78
     4
 79
     2
140
0.1200000047683716
146
0.7099999453624112
147
0.0599999986588955
176
   256
177
   256
178
     2
284
     4
340
E0
371
    -1
372
    -1
  0
DIMSTYLE
105
EE
330
A
100
AcDbSymbolTableRecord
100
AcDbDimStyleTableRecord
  2
Architectural (ANSI)
 70
     0
 40
0.8333333333333333
 41
0.0984251946210861
 43
0.2362204724409449
 44
0.125
 45
0.00000001
 46
0.3937007874015748
 78
     3
 79
     3
140
0.1200000047683716
147
0.031496062992126
171
     1
176
   256
177
   256
178
   256
272
     2
274
     1
276
     2
277
     4
284
    12
285
     4
286
    12
340
D6
371
    -1
372
    -1
  0
DIMSTYLE
105
EF
330
A
100
AcDbSymbolTableRecord
100
AcDbDimStyleTableRecord
  2
Architectural (ANSI)$7
 70
     0
 40
0.8333333333333333
 41
0.0984251946210861
 43
0.2362204724409449
 44
0.125
 45
0.00000001
 46
0.3937007874015748
 78
     3
 79
     3
140
0.1200000047683716
147
0.031496062992126
171
     1
176
   256
177
   256
178
   256
272
     2
274
     1
276
     2
277
     4
284
    12
285
     4
286
    12
340
D6
371
    -1
372
    -1
  0
DIMSTYLE
105
F0
330
A
100
AcDbSymbolTableRecord
100
AcDbDimStyleTableRecord
  2
Default - Fraction (ANSI)
 70
     0
 40
0.8333333333333333
 41
0.0984251946210861
 43
0.2362204724409449
 44
0.125
 45
0.00000001
 46
0.3937007874015748
 79
     3
140
0.1200000047683716
147
0.031496062992126
171
     1
176
   256
177
   256
178
   256
272
     2
274
     1
276
     2
277
     5
284
    12
285
     4
286
    12
340
D6
371
    -1
372
    -1
  0
DIMSTYLE
105
F1
330
A
100
AcDbSymbolTableRecord
100
AcDbDimStyleTableRecord
  2
Default - Fraction (ANSI)$7
 70
     0
 40
0.8333333333333333
 41
0.0984251946210861
 43
0.2362204724409449
 44
0.125
 45
0.00000001
 46
0.3937007874015748
 79
     3
140
0.1200000047683716
147
0.031496062992126
171
     1
176
   256
177
   256
178
   256
272
     2
274
     1
276
     2
277
     5
284
    12
285
     4
286
    12
340
D6
371
    -1
372
    -1
  0
DIMSTYLE
105
F2
330
A
100
AcDbSymbolTableRecord
100
AcDbDimStyleTableRecord
  2
Default - mm (ANSI)
 70
     0
 40
0.8333333333333333
 41
0.0984251946210861
 42
0.063
 43
0.2362204724409449
 44
0.125
 45
0.00000001
 46
0.3937007874015748
 73
     0
 78
     4
 79
     1
140
0.1200000047683716
143
1.0
144
25.4
147
0.031496062992126
171
     1
176
   256
177
   256
178
   256
179
     1
271
     2
272
     2
274
     1
284
     4
285
     4
340
D6
371
    -1
372
    -1
  0
DIMSTYLE
105
F3
330
A
100
AcDbSymbolTableRecord
100
AcDbDimStyleTableRecord
  2
Default - mm (ANSI)$7
 70
     0
 40
0.8333333333333333
 41
0.0984251946210861
 42
0.063
 43
0.2362204724409449
 44
0.125
 45
0.00000001
 46
0.3937007874015748
 73
     0
 78
     4
 79
     1
140
0.1200000047683716
143
1.0
144
25.4
147
0.031496062992126
171
     1
176
   256
177
   256
178
   256
179
     1
271
     2
272
     2
274
     1
284
     4
285
     4
340
D6
371
    -1
372
    -1
  0
DIMSTYLE
105
F4
330
A
100
AcDbSymbolTableRecord
100
AcDbDimStyleTableRecord
  2
Default - mm [in] (ANSI)
 70
     0
  4
 in
 40
0.8333333333333333
 41
0.0984251946210861
 42
0.063
 43
0.25
 44
0.125
 45
0.00000001
 46
0.3937007874015748
 73
     0
 78
     4
 79
     1
140
0.1200000047683716
143
0.03937
144
25.4
147
0.031496062992126
170
     1
171
     3
176
   256
177
   256
178
   256
179
     1
271
     2
272
     2
274
     3
284
     4
285
     4
286
     4
340
D6
371
    -1
372
    -1
  0
DIMSTYLE
105
F5
330
A
100
AcDbSymbolTableRecord
100
AcDbDimStyleTableRecord
  2
Default - mm [in] (ANSI)$7
 70
     0
  4
 in
 40
0.8333333333333333
 41
0.0984251946210861
 42
0.063
 43
0.25
 44
0.125
 45
0.00000001
 46
0.3937007874015748
 73
     0
 78
     4
 79
     1
140
0.1200000047683716
143
0.03937
144
25.4
147
0.031496062992126
170
     1
171
     3
176
   256
177
   256
178
   256
179
     1
271
     2
272
     2
274
     3
284
     4
285
     4
286
     4
340
D6
371
    -1
372
    -1
  0
DIMSTYLE
105
F6
102
{ACAD_REACTORS
330
526
330
610
330
6EF
330
7A9
102
}
330
A
100
AcDbSymbolTableRecord
100
AcDbDimStyleTableRecord
  2
Default (ANSI)
 70
     0
 40
0.8333333333333333
 41
0.0984251946210861
 43
0.2362204724409449
 44
0.125
 45
0.00000001
 46
0.3937007874015748
 79
     1
140
0.1200000047683716
147
0.031496062992126
171
     1
176
   256
177
   256
178
   256
271
     3
272
     2
274
     1
284
     4
285
     4
340
D6
371
    -1
372
    -1
  0
DIMSTYLE
105
F7
330
A
100
AcDbSymbolTableRecord
100
AcDbDimStyleTableRecord
  2
Default (ANSI)$7
 70
     0
 40
0.8333333333333333
 41
0.0984251946210861
 43
0.2362204724409449
 44
0.125
 45
0.00000001
 46
0.3937007874015748
 79
     1
140
0.1200000047683716
147
0.031496062992126
171
     1
176
   256
177
   256
178
   256
271
     3
272
     2
274
     1
284
     4
285
     4
340
D6
371
    -1
372
    -1
  0
DIMSTYLE
105
F8
102
{ACAD_REACTORS
330
144
330
230
330
31A
330
428
102
}
330
A
100
AcDbSymbolTableRecord
100
AcDbDimStyleTableRecord
  2
Default (ANSI)-01
 70
     0
 40
0.8333333333333333
 41
0.0984251946210861
 43
0.2362204724409449
 44
0.125
 45
0.00000001
 46
0.3937007874015748
 79
     1
140
0.1200000047683716
147
0.031496062992126
171
     1
176
   256
177
   256
178
   256
271
     2
272
     2
274
     1
284
     4
285
     4
340
D6
371
    -1
372
    -1
  0
DIMSTYLE
105
F9
330
A
100
AcDbSymbolTableRecord
100
AcDbDimStyleTableRecord
  2
Default (ANSI)-01$7
 70
     0
 40
0.8333333333333333
 41
0.0984251946210861
 43
0.2362204724409449
 44
0.125
 45
0.00000001
 46
0.3937007874015748
 79
     1
140
0.1200000047683716
147
0.031496062992126
171
     1
176
   256
177
   256
178
   256
271
     2
272
     2
274
     1
284
     4
285
     4
340
D6
371
    -1
372
    -1
  0
DIMSTYLE
105
FA
330
A
100
AcDbSymbolTableRecord
100
AcDbDimStyleTableRecord
  2
Alternate (ANSI)
 70
     0
 40
0.8333333333333333
 41
0.0979999974370003
340
55
342
FB
  0
DIMSTYLE
105
10D
330
A
100
AcDbSymbolTableRecord
100
AcDbDimStyleTableRecord
  2
Datum (ANSI)
 70
     0
 40
0.8333333333333333
 41
0.0979999974370003
340
55
342
FB
  0
DIMSTYLE
105
11C
330
A
100
AcDbSymbolTableRecord
100
AcDbDimStyleTableRecord
  2
Large (ANSI)
 70
     0
 40
0.8333333333333333
 41
0.1959999948740005
340
55
342
FB
  0
ENDTAB
  0
TABLE
  2
BLOCK_RECORD
  5
1
330
0
100
AcDbSymbolTable
 70
    12
  0
BLOCK_RECORD
  5
6C
330
1
100
AcDbSymbolTableRecord
100
AcDbBlockTableRecord
  2
*Model_Space
340
6F
  0
BLOCK_RECORD
  5
68
330
1
100
AcDbSymbolTableRecord
100
AcDbBlockTableRecord
  2
*Paper_Space
340
6B
  0
BLOCK_RECORD
  5
70
330
1
100
AcDbSymbolTableRecord
100
AcDbBlockTableRecord
  2
*Paper_Space0
340
73
  0
BLOCK_RECORD
  5
FB
330
1
100
AcDbSymbolTableRecord
100
AcDbBlockTableRecord
  2
_Closed
340
0
  0
BLOCK_RECORD
  5
102
330
1
100
AcDbSymbolTableRecord
100
AcDbBlockTableRecord
  2
DatumFilled45
340
0
  0
BLOCK_RECORD
  5
10E
330
1
100
AcDbSymbolTableRecord
100
AcDbBlockTableRecord
  2
Filled-1
340
0
  0
BLOCK_RECORD
  5
147
330
1
100
AcDbSymbolTableRecord
100
AcDbBlockTableRecord
  2
*D4
340
0
  0
BLOCK_RECORD
  5
231
330
1
100
AcDbSymbolTableRecord
100
AcDbBlockTableRecord
  2
*D5
340
0
  0
BLOCK_RECORD
  5
31B
330
1
100
AcDbSymbolTableRecord
100
AcDbBlockTableRecord
  2
*D6
340
0
  0
BLOCK_RECORD
  5
429
330
1
100
AcDbSymbolTableRecord
100
AcDbBlockTableRecord
  2
*D7
340
0
  0
BLOCK_RECORD
  5
527
330
1
100
AcDbSymbolTableRecord
100
AcDbBlockTableRecord
  2
*D8
340
0
  0
BLOCK_RECORD
  5
611
330
1
100
AcDbSymbolTableRecord
100
AcDbBlockTableRecord
  2
*D9
340
0
  0
BLOCK_RECORD
  5
6F0
330
1
100
AcDbSymbolTableRecord
100
AcDbBlockTableRecord
  2
*D10
340
0
  0
BLOCK_RECORD
  5
7AA
330
1
100
AcDbSymbolTableRecord
100
AcDbBlockTableRecord
  2
*D11
340
0
  0
ENDTAB
  0
ENDSEC
  0
SECTION
  2
BLOCKS
  0
BLOCK
  5
6D
330
6C
100
AcDbEntity
  8
0
100
AcDbBlockBegin
  2
*Model_Space
 70
     0
 10
0.0
 20
0.0
 30
0.0
  3
*Model_Space
  1

  0
ENDBLK
  5
6E
330
6C
100
AcDbEntity
  8
0
100
AcDbBlockEnd
  0
BLOCK
  5
69
330
68
100
AcDbEntity
 67
     1
  8
0
100
AcDbBlockBegin
  2
*Paper_Space
 70
     0
 10
0.0
 20
0.0
 30
0.0
  3
*Paper_Space
  1

  0
ENDBLK
  5
6A
330
68
100
AcDbEntity
 67
     1
  8
0
100
AcDbBlockEnd
  0
BLOCK
  5
71
330
70
100
AcDbEntity
 67
     1
  8
0
100
AcDbBlockBegin
  2
*Paper_Space0
 70
     0
 10
0.0
 20
0.0
 30
0.0
  3
*Paper_Space0
  1

  0
ENDBLK
  5
72
330
70
100
AcDbEntity
 67
     1
  8
0
100
AcDbBlockEnd
  0
BLOCK
  5
100
330
FB
100
AcDbEntity
  8
0
100
AcDbBlockBegin
  2
_Closed
 70
     0
 10
0.0
 20
0.0
 30
0.0
  3
_Closed
  1

  0
LINE
  5
FC
330
FB
100
AcDbEntity
  8
0
  6
ByBlock
 62
     0
370
    -2
100
AcDbLine
 10
-1.0
 20
0.1666666666666666
 30
0.0
 11
0.0
 21
0.0
 31
0.0
  0
LINE
  5
FD
330
FB
100
AcDbEntity
  8
0
  6
ByBlock
 62
     0
370
    -2
100
AcDbLine
 10
0.0
 20
0.0
 30
0.0
 11
-1.0
 21
-0.1666666666666666
 31
0.0
  0
LINE
  5
FE
330
FB
100
AcDbEntity
  8
0
  6
ByBlock
 62
     0
370
    -2
100
AcDbLine
 10
-1.0
 20
0.1666666666666666
 30
0.0
 11
-1.0
 21
-0.1666666666666666
 31
0.0
  0
LINE
  5
FF
330
FB
100
AcDbEntity
  8
0
  6
ByBlock
 62
     0
370
    -2
100
AcDbLine
 10
0.0
 20
0.0
 30
0.0
 11
-1.0
 21
0.0
 31
0.0
  0
ENDBLK
  5
101
330
FB
100
AcDbEntity
  8
0
100
AcDbBlockEnd
  0
BLOCK
  5
103
330
102
100
AcDbEntity
  8
0
100
AcDbBlockBegin
  2
DatumFilled45
 70
     0
 10
0.0
 20
0.0
 30
0.0
  3
DatumFilled45
  1

  0
POLYLINE
  5
105
330
102
100
AcDbEntity
  8
0
 62
     0
100
AcDb2dPolyline
 66
     1
 10
0.0
 20
0.0
 30
0.0
 70
   128
  0
VERTEX
  5
106
330
105
100
AcDbEntity
  8
0
 62
     0
100
AcDbVertex
100
AcDb2dVertex
 10
0.0
 20
0.9999999999999998
 30
0.0
  0
VERTEX
  5
107
330
105
100
AcDbEntity
  8
0
 62
     0
100
AcDbVertex
100
AcDb2dVertex
 10
0.0
 20
-0.9999999999999998
 30
0.0
  0
VERTEX
  5
109
330
105
100
AcDbEntity
  8
0
 62
     0
100
AcDbVertex
100
AcDb2dVertex
 10
-0.9999999999999998
 20
0.0
 30
0.0
  0
VERTEX
  5
10A
330
105
100
AcDbEntity
  8
0
 62
     0
100
AcDbVertex
100
AcDb2dVertex
 10
0.0
 20
0.9999999999999998
 30
0.0
  0
SEQEND
  5
108
330
105
100
AcDbEntity
  8
0
 62
     0
  0
SOLID
  5
10C
330
102
100
AcDbEntity
  8
0
 62
     0
100
AcDbTrace
 10
0.0
 20
0.9999999999999998
 30
0.0
 11
0.0
 21
-0.9999999999999998
 31
0.0
 12
-0.9999999999999998
 22
0.0
 32
0.0
 13
0.0
 23
0.9999999999999998
 33
0.0
  0
ENDBLK
  5
104
330
102
100
AcDbEntity
  8
0
100
AcDbBlockEnd
  0
BLOCK
  5
10F
330
10E
100
AcDbEntity
  8
0
100
AcDbBlockBegin
  2
Filled-1
 70
     0
 10
0.0
 20
0.0
 30
0.0
  3
Filled-1
  1

  0
LINE
  5
111
330
10E
100
AcDbEntity
  8
0
 62
     0
100
AcDbLine
 10
-0.9999999999999998
 20
0.0
 30
0.0
 11
0.0
 21
0.0
 31
0.0
  0
POLYLINE
  5
112
330
10E
100
AcDbEntity
  8
0
 62
     0
100
AcDb2dPolyline
 66
     1
 10
0.0
 20
0.0
 30
0.0
 70
   128
  0
VERTEX
  5
113
330
112
100
AcDbEntity
  8
0
 62
     0
100
AcDbVertex
100
AcDb2dVertex
 10
-0.9999999999999998
 20
-0.0994897959183674
 30
0.0
  0
VERTEX
  5
114
330
112
100
AcDbEntity
  8
0
 62
     0
100
AcDbVertex
100
AcDb2dVertex
 10
0.0
 20
0.0
 30
0.0
  0
VERTEX
  5
116
330
112
100
AcDbEntity
  8
0
 62
     0
100
AcDbVertex
100
AcDb2dVertex
 10
-0.9999999999999998
 20
0.0994897959183674
 30
0.0
  0
VERTEX
  5
117
330
112
100
AcDbEntity
  8
0
 62
     0
100
AcDbVertex
100
AcDb2dVertex
 10
-0.9999999999999998
 20
-0.0994897959183674
 30
0.0
  0
SEQEND
  5
115
330
112
100
AcDbEntity
  8
0
 62
     0
  0
SOLID
  5
118
330
10E
100
AcDbEntity
  8
0
 62
     0
100
AcDbTrace
 10
-0.9999999999999998
 20
-0.0994897959183674
 30
0.0
 11
0.0
 21
0.0
 31
0.0
 12
-0.9999999999999998
 22
0.0994897959183674
 32
0.0
 13
-0.9999999999999998
 23
-0.0994897959183674
 33
0.0
  0
LINE
  5
119
330
10E
100
AcDbEntity
  8
0
 62
     0
100
AcDbLine
 10
-0.9999999999999998
 20
-0.0994897959183674
 30
0.0
 11
0.0
 21
0.0
 31
0.0
  0
LINE
  5
11A
330
10E
100
AcDbEntity
  8
0
 62
     0
100
AcDbLine
 10
0.0
 20
0.0
 30
0.0
 11
-0.9999999999999998
 21
0.0994897959183674
 31
0.0
  0
LINE
  5
11B
330
10E
100
AcDbEntity
  8
0
 62
     0
100
AcDbLine
 10
-0.9999999999999998
 20
0.0994897959183674
 30
0.0
 11
-0.9999999999999998
 21
-0.0994897959183674
 31
0.0
  0
ENDBLK
  5
110
330
10E
100
AcDbEntity
  8
0
100
AcDbBlockEnd
  0
BLOCK
  5
148
330
147
100
AcDbEntity
  8
0
100
AcDbBlockBegin
  2
*D4
 70
     1
 10
0.0
 20
0.0
 30
0.0
  3
*D4
  1

  0
LINE
  5
226
330
147
100
AcDbEntity
  8
Dimension (ANSI)
100
AcDbLine
 10
6.07652642600685
 20
3.15869951865103
 30
0.0
 11
6.07652642600685
 21
1.971776712073548
 31
0.0
  0
LINE
  5
227
330
147
100
AcDbEntity
  8
Dimension (ANSI)
100
AcDbLine
 10
3.196526426006849
 20
3.15869951865103
 30
0.0
 11
3.196526426006849
 21
1.971776712073548
 31
0.0
  0
LINE
  5
228
330
147
100
AcDbEntity
  8
Dimension (ANSI)
100
AcDbLine
 10
5.994505430489279
 20
2.075943378740215
 30
0.0
 11
4.790073351702913
 21
2.075943378740215
 31
0.0
  0
LINE
  5
229
330
147
100
AcDbEntity
  8
Dimension (ANSI)
100
AcDbLine
 10
3.278547421524421
 20
2.075943378740215
 30
0.0
 11
4.482979500310788
 21
2.075943378740215
 31
0.0
  0
SOLID
  5
22A
330
147
100
AcDbEntity
  8
Dimension (ANSI)
100
AcDbTrace
 10
5.994505430489279
 20
2.08961354465981
 30
0.0
 11
5.994505430489279
 21
2.06227321282062
 31
0.0
 12
6.07652642600685
 22
2.075943378740215
 32
0.0
 13
6.07652642600685
 23
2.075943378740215
 33
0.0
  0
SOLID
  5
22B
330
147
100
AcDbEntity
  8
Dimension (ANSI)
100
AcDbTrace
 10
3.278547421524421
 20
2.08961354465981
 30
0.0
 11
3.278547421524421
 21
2.06227321282062
 31
0.0
 12
3.196526426006849
 22
2.075943378740215
 32
0.0
 13
3.196526426006849
 23
2.075943378740215
 33
0.0
  0
MTEXT
  5
22C
330
147
100
AcDbEntity
  8
Dimension (ANSI)
100
AcDbMText
 10
4.509226219470893
 20
2.128226792503466
 30
0.0
 40
0.100000003973643
 41
0.0
 71
     1
 72
     1
  1
\A1;2.88
  7
Note Text (ANSI)
 73
     1
 44
1.0
1001
ACAD
1000
MTEXTBEGIN
1070
    73
1070
     1
1070
    44
1040
1.0
1070
    74
1070
     0
1000
MTEXTEND
  0
POINT
  5
22D
330
147
100
AcDbEntity
  8
Defpoints
 62
     0
100
AcDbPoint
 10
6.07652642600685
 20
3.210782851984363
 30
0.0
  0
POINT
  5
22E
330
147
100
AcDbEntity
  8
Defpoints
 62
     0
100
AcDbPoint
 10
3.196526426006849
 20
3.210782851984363
 30
0.0
  0
POINT
  5
22F
330
147
100
AcDbEntity
  8
Defpoints
 62
     0
100
AcDbPoint
 10
3.196526426006849
 20
2.075943378740215
 30
0.0
  0
ENDBLK
  5
149
330
147
100
AcDbEntity
  8
0
100
AcDbBlockEnd
  0
BLOCK
  5
232
330
231
100
AcDbEntity
  8
0
100
AcDbBlockBegin
  2
*D5
 70
     1
 10
0.0
 20
0.0
 30
0.0
  3
*D5
  1

  0
LINE
  5
310
330
231
100
AcDbEntity
  8
Dimension (ANSI)
100
AcDbLine
 10
3.144443092673516
 20
3.210782851984363
 30
0.0
 11
1.989997554615773
 21
3.210782851984363
 31
0.0
  0
LINE
  5
311
330
231
100
AcDbEntity
  8
Dimension (ANSI)
100
AcDbLine
 10
3.144443092673514
 20
8.090782851984362
 30
0.0
 11
1.989997554615774
 21
8.090782851984362
 31
0.0
  0
LINE
  5
312
330
231
100
AcDbEntity
  8
Dimension (ANSI)
100
AcDbLine
 10
2.09416422128244
 20
3.292803847501935
 30
0.0
 11
2.09416422128244
 21
5.572252719061003
 31
0.0
  0
LINE
  5
313
330
231
100
AcDbEntity
  8
Dimension (ANSI)
100
AcDbLine
 10
2.09416422128244
 20
8.00876185646679
 30
0.0
 11
2.09416422128244
 21
5.729312984907716
 31
0.0
  0
SOLID
  5
314
330
231
100
AcDbEntity
  8
Dimension (ANSI)
100
AcDbTrace
 10
2.080494055362844
 20
3.292803847501935
 30
0.0
 11
2.107834387202035
 21
3.292803847501935
 31
0.0
 12
2.09416422128244
 22
3.210782851984363
 32
0.0
 13
2.09416422128244
 23
3.210782851984363
 33
0.0
  0
SOLID
  5
315
330
231
100
AcDbEntity
  8
Dimension (ANSI)
100
AcDbTrace
 10
2.080494055362845
 20
8.00876185646679
 30
0.0
 11
2.107834387202036
 21
8.00876185646679
 31
0.0
 12
2.09416422128244
 22
8.090782851984362
 32
0.0
 13
2.09416422128244
 23
8.090782851984362
 33
0.0
  0
MTEXT
  5
316
330
231
100
AcDbEntity
  8
Dimension (ANSI)
100
AcDbMText
 10
1.964547023385105
 20
5.703066265747612
 30
0.0
 40
0.100000003973643
 41
0.0
 71
     1
 72
     1
  1
\A1;4.88
  7
Note Text (ANSI)
 73
     1
 44
1.0
1001
ACAD
1000
MTEXTBEGIN
1070
    73
1070
     1
1070
    44
1040
1.0
1070
    74
1070
     0
1000
MTEXTEND
  0
POINT
  5
317
330
231
100
AcDbEntity
  8
Defpoints
 62
     0
100
AcDbPoint
 10
3.196526426006849
 20
3.210782851984363
 30
0.0
  0
POINT
  5
318
330
231
100
AcDbEntity
  8
Defpoints
 62
     0
100
AcDbPoint
 10
3.196526426006847
 20
8.090782851984362
 30
0.0
  0
POINT
  5
319
330
231
100
AcDbEntity
  8
Defpoints
 62
     0
100
AcDbPoint
 10
2.09416422128244
 20
8.090782851984362
 30
0.0
  0
ENDBLK
  5
233
330
231
100
AcDbEntity
  8
0
100
AcDbBlockEnd
  0
BLOCK
  5
31C
330
31B
100
AcDbEntity
  8
0
100
AcDbBlockBegin
  2
*D6
 70
     1
 10
0.0
 20
0.0
 30
0.0
  3
*D6
  1

  0
LINE
  5
41D
330
31B
100
AcDbEntity
  8
Dimension (ANSI)
100
AcDbLine
 10
3.144443092673516
 20
3.210782851984363
 30
0.0
 11
2.939028773799735
 21
3.210782851984363
 31
0.0
  0
LINE
  5
41E
330
31B
100
AcDbEntity
  8
Dimension (ANSI)
100
AcDbLine
 10
3.316943092673515
 20
3.523782851984363
 30
0.0
 11
2.939028773799735
 21
3.523782851984364
 31
0.0
  0
LINE
  5
41F
330
31B
100
AcDbEntity
  8
Dimension (ANSI)
100
AcDbLine
 10
3.043195440466401
 20
3.441761856466791
 30
0.0
 11
3.043195440466401
 21
3.292803847501935
 31
0.0
  0
LINE
  5
420
330
31B
100
AcDbEntity
  8
Dimension (ANSI)
100
AcDbLine
 10
3.043195440466401
 20
3.210782851984363
 30
0.0
 11
3.043195440466401
 21
3.01393998701247
 31
0.0
  0
LINE
  5
421
330
31B
100
AcDbEntity
  8
Dimension (ANSI)
100
AcDbLine
 10
3.043195440466401
 20
3.01393998701247
 30
0.0
 11
2.961174444948829
 21
3.01393998701247
 31
0.0
  0
SOLID
  5
422
330
31B
100
AcDbEntity
  8
Dimension (ANSI)
100
AcDbTrace
 10
3.029525274546806
 20
3.441761856466791
 30
0.0
 11
3.056865606385997
 21
3.441761856466791
 31
0.0
 12
3.043195440466401
 22
3.523782851984363
 32
0.0
 13
3.043195440466401
 23
3.523782851984363
 33
0.0
  0
SOLID
  5
423
330
31B
100
AcDbEntity
  8
Dimension (ANSI)
100
AcDbTrace
 10
3.029525274546806
 20
3.292803847501935
 30
0.0
 11
3.056865606385997
 21
3.292803847501935
 31
0.0
 12
3.043195440466401
 22
3.210782851984363
 32
0.0
 13
3.043195440466401
 23
3.210782851984363
 33
0.0
  0
MTEXT
  5
424
330
31B
100
AcDbEntity
  8
Dimension (ANSI)
100
AcDbMText
 10
2.670723551421826
 20
3.081127139894919
 30
0.0
 40
0.100000003973643
 41
0.0
 71
     1
 72
     1
  1
\A1;0.31{\PTYP.}
  7
Note Text (ANSI)
 73
     1
 44
1.0
1001
ACAD
1000
MTEXTBEGIN
1070
    73
1070
     1
1070
    44
1040
1.0
1070
    74
1070
     0
1000
MTEXTEND
  0
POINT
  5
425
330
31B
100
AcDbEntity
  8
Defpoints
 62
     0
100
AcDbPoint
 10
3.196526426006849
 20
3.210782851984363
 30
0.0
  0
POINT
  5
426
330
31B
100
AcDbEntity
  8
Defpoints
 62
     0
100
AcDbPoint
 10
3.369026426006849
 20
3.523782851984363
 30
0.0
  0
POINT
  5
427
330
31B
100
AcDbEntity
  8
Defpoints
 62
     0
100
AcDbPoint
 10
3.043195440466401
 20
3.523782851984363
 30
0.0
  0
ENDBLK
  5
31D
330
31B
100
AcDbEntity
  8
0
100
AcDbBlockEnd
  0
BLOCK
  5
42A
330
429
100
AcDbEntity
  8
0
100
AcDbBlockBegin
  2
*D7
 70
     1
 10
0.0
 20
0.0
 30
0.0
  3
*D7
  1

  0
LINE
  5
51C
330
429
100
AcDbEntity
  8
Dimension (ANSI)
100
AcDbLine
 10
3.196526426006849
 20
3.15869951865103
 30
0.0
 11
3.196526426006849
 21
2.476694925475177
 31
0.0
  0
LINE
  5
51D
330
429
100
AcDbEntity
  8
Dimension (ANSI)
100
AcDbLine
 10
3.509526426006849
 20
3.36269951865103
 30
0.0
 11
3.509526426006849
 21
2.476694925475177
 31
0.0
  0
LINE
  5
51E
330
429
100
AcDbEntity
  8
Dimension (ANSI)
100
AcDbLine
 10
3.427505430489277
 20
2.580861592141843
 30
0.0
 11
3.278547421524421
 21
2.580861592141843
 31
0.0
  0
LINE
  5
51F
330
429
100
AcDbEntity
  8
Dimension (ANSI)
100
AcDbLine
 10
3.196526426006849
 20
2.580861592141843
 30
0.0
 11
2.960600667717789
 21
2.580861592141843
 31
0.0
  0
SOLID
  5
520
330
429
100
AcDbEntity
  8
Dimension (ANSI)
100
AcDbTrace
 10
3.427505430489277
 20
2.594531758061438
 30
0.0
 11
3.427505430489277
 21
2.567191426222248
 31
0.0
 12
3.509526426006849
 22
2.580861592141843
 32
0.0
 13
3.509526426006849
 23
2.580861592141843
 33
0.0
  0
SOLID
  5
521
330
429
100
AcDbEntity
  8
Dimension (ANSI)
100
AcDbTrace
 10
3.278547421524421
 20
2.594531758061438
 30
0.0
 11
3.278547421524421
 21
2.567191426222248
 31
0.0
 12
3.196526426006849
 22
2.580861592141843
 32
0.0
 13
3.196526426006849
 23
2.580861592141843
 33
0.0
  0
MTEXT
  5
522
330
429
100
AcDbEntity
  8
Dimension (ANSI)
100
AcDbMText
 10
2.670149774190786
 20
2.648048745024291
 30
0.0
 40
0.100000003973643
 41
0.0
 71
     1
 72
     1
  1
\A1;0.31{\PTYP.}
  7
Note Text (ANSI)
 73
     1
 44
1.0
1001
ACAD
1000
MTEXTBEGIN
1070
    73
1070
     1
1070
    44
1040
1.0
1070
    74
1070
     0
1000
MTEXTEND
  0
POINT
  5
523
330
429
100
AcDbEntity
  8
Defpoints
 62
     0
100
AcDbPoint
 10
3.196526426006849
 20
3.210782851984363
 30
0.0
  0
POINT
  5
524
330
429
100
AcDbEntity
  8
Defpoints
 62
     0
100
AcDbPoint
 10
3.509526426006849
 20
3.414782851984363
 30
0.0
  0
POINT
  5
525
330
429
100
AcDbEntity
  8
Defpoints
 62
     0
100
AcDbPoint
 10
3.509526426006849
 20
2.580861592141843
 30
0.0
  0
ENDBLK
  5
42B
330
429
100
AcDbEntity
  8
0
100
AcDbBlockEnd
  0
BLOCK
  5
528
330
527
100
AcDbEntity
  8
0
100
AcDbBlockBegin
  2
*D8
 70
     1
 10
0.0
 20
0.0
 30
0.0
  3
*D8
  1

  0
LINE
  5
606
330
527
100
AcDbEntity
  8
Dimension (ANSI)
100
AcDbLine
 10
3.509526426006849
 20
3.36269951865103
 30
0.0
 11
3.509526426006849
 21
2.476694925475177
 31
0.0
  0
LINE
  5
607
330
527
100
AcDbEntity
  8
Dimension (ANSI)
100
AcDbLine
 10
4.509526426006849
 20
3.346699518651029
 30
0.0
 11
4.509526426006849
 21
2.476694925475177
 31
0.0
  0
LINE
  5
608
330
527
100
AcDbEntity
  8
Dimension (ANSI)
100
AcDbLine
 10
3.591547421524421
 20
2.580861592141844
 30
0.0
 11
3.822668552042871
 21
2.580861592141844
 31
0.0
  0
LINE
  5
609
330
527
100
AcDbEntity
  8
Dimension (ANSI)
100
AcDbLine
 10
4.427505430489278
 20
2.580861592141844
 30
0.0
 11
4.196384299970827
 21
2.580861592141844
 31
0.0
  0
SOLID
  5
60A
330
527
100
AcDbEntity
  8
Dimension (ANSI)
100
AcDbTrace
 10
3.591547421524421
 20
2.594531758061439
 30
0.0
 11
3.591547421524421
 21
2.567191426222248
 31
0.0
 12
3.509526426006849
 22
2.580861592141844
 32
0.0
 13
3.509526426006849
 23
2.580861592141844
 33
0.0
  0
SOLID
  5
60B
330
527
100
AcDbEntity
  8
Dimension (ANSI)
100
AcDbTrace
 10
4.427505430489278
 20
2.594531758061439
 30
0.0
 11
4.427505430489278
 21
2.567191426222248
 31
0.0
 12
4.509526426006849
 22
2.580861592141844
 32
0.0
 13
4.509526426006849
 23
2.580861592141844
 33
0.0
  0
MTEXT
  5
60C
330
527
100
AcDbEntity
  8
Dimension (ANSI)
100
AcDbMText
 10
3.848915271202976
 20
2.632909948810462
 30
0.0
 40
0.100000003973643
 41
0.0
 71
     1
 72
     1
  1
\A1;1.000
  7
Note Text (ANSI)
 73
     1
 44
1.0
1001
ACAD
1000
MTEXTBEGIN
1070
    73
1070
     1
1070
    44
1040
1.0
1070
    74
1070
     0
1000
MTEXTEND
  0
POINT
  5
60D
330
527
100
AcDbEntity
  8
Defpoints
 62
     0
100
AcDbPoint
 10
3.509526426006849
 20
3.414782851984363
 30
0.0
  0
POINT
  5
60E
330
527
100
AcDbEntity
  8
Defpoints
 62
     0
100
AcDbPoint
 10
4.509526426006849
 20
3.398782851984363
 30
0.0
  0
POINT
  5
60F
330
527
100
AcDbEntity
  8
Defpoints
 62
     0
100
AcDbPoint
 10
4.509526426006849
 20
2.580861592141844
 30
0.0
  0
ENDBLK
  5
529
330
527
100
AcDbEntity
  8
0
100
AcDbBlockEnd
  0
BLOCK
  5
612
330
611
100
AcDbEntity
  8
0
100
AcDbBlockBegin
  2
*D9
 70
     1
 10
0.0
 20
0.0
 30
0.0
  3
*D9
  1

  0
LINE
  5
6E7
330
611
100
AcDbEntity
  8
Dimension (ANSI)
100
AcDbLine
 10
9.377796988353329
 20
4.567953940116508
 30
0.0
 11
9.4598179838709
 21
4.567953940116508
 31
0.0
  0
LINE
  5
6E8
330
611
100
AcDbEntity
  8
Dimension (ANSI)
100
AcDbLine
 10
9.139754997318185
 20
4.567953940116508
 30
0.0
 11
8.917634195701056
 21
4.567953940116508
 31
0.0
  0
SOLID
  5
6E9
330
611
100
AcDbEntity
  8
Dimension (ANSI)
100
AcDbTrace
 10
9.377796988353329
 20
4.581624106036104
 30
0.0
 11
9.377796988353329
 21
4.554283774196912
 31
0.0
 12
9.295775992835757
 22
4.567953940116508
 32
0.0
 13
9.295775992835757
 23
4.567953940116508
 33
0.0
  0
SOLID
  5
6EA
330
611
100
AcDbEntity
  8
Dimension (ANSI)
100
AcDbTrace
 10
9.139754997318185
 20
4.581624106036104
 30
0.0
 11
9.139754997318185
 21
4.554283774196912
 31
0.0
 12
9.221775992835757
 22
4.567953940116508
 32
0.0
 13
9.221775992835757
 23
4.567953940116508
 33
0.0
  0
MTEXT
  5
6EB
330
611
100
AcDbEntity
  8
Dimension (ANSI)
100
AcDbMText
 10
8.452166505427705
 20
4.61983439886039
 30
0.0
 40
0.100000003973643
 41
0.0
 71
     1
 72
     1
  1
\A1; 14 GA.
  7
Note Text (ANSI)
 73
     1
 44
1.0
1001
ACAD
1000
MTEXTBEGIN
1070
    73
1070
     1
1070
    44
1040
1.0
1070
    74
1070
     0
1000
MTEXTEND
  0
POINT
  5
6EC
330
611
100
AcDbEntity
  8
Defpoints
 62
     0
100
AcDbPoint
 10
9.356540548203728
 20
3.210782851984363
 30
0.0
  0
POINT
  5
6ED
330
611
100
AcDbEntity
  8
Defpoints
 62
     0
100
AcDbPoint
 10
9.282540548203728
 20
3.210782851984363
 30
0.0
  0
POINT
  5
6EE
330
611
100
AcDbEntity
  8
Defpoints
 62
     0
100
AcDbPoint
 10
9.221775992835757
 20
4.567953940116508
 30
0.0
  0
ENDBLK
  5
613
330
611
100
AcDbEntity
  8
0
100
AcDbBlockEnd
  0
BLOCK
  5
6F1
330
6F0
100
AcDbEntity
  8
0
100
AcDbBlockBegin
  2
*D10
 70
     1
 10
0.0
 20
0.0
 30
0.0
  3
*D10
  1

  0
LINE
  5
7A1
330
6F0
100
AcDbEntity
  8
Dimension (ANSI)
100
AcDbLine
 10
4.944093254122877
 20
2.949122459393443
 30
0.0
 11
4.841306758361987
 21
2.949122459393442
 31
0.0
  0
LINE
  5
7A2
330
6F0
100
AcDbEntity
  8
Dimension (ANSI)
100
AcDbLine
 10
4.841306758361987
 20
2.949122459393442
 30
0.0
 11
4.613036923765671
 21
3.344497410749422
 31
0.0
  0
MTEXT
  5
7A3
102
{ACAD_XDICTIONARY
360
8C8
102
}
330
6F0
100
AcDbEntity
  8
Dimension (ANSI)
100
AcDbMText
 10
4.970339973282983
 20
3.02341542555728
 30
0.0
 40
0.100000003973643
 41
0.0
 71
     1
 72
     1
  1
\A1;\U+22050.250{\PGROUND\P HOLE}
  7
Note Text (ANSI)
 73
     1
 44
1.0
1001
ACAD
1000
MTEXTBEGIN
1070
    73
1070
     1
1070
    44
1040
1.0
1070
    74
1070
     0
1000
MTEXTEND
  0
SOLID
  5
7A4
330
6F0
100
AcDbEntity
  8
Dimension (ANSI)
100
AcDbTrace
 10
4.624875634725987
 20
3.351332493709223
 30
0.0
 11
4.601198212805353
 21
3.337662327789622
 31
0.0
 12
4.57202642600687
 22
3.415529676511321
 32
0.0
 13
4.57202642600687
 23
3.415529676511321
 33
0.0
  0
LINE
  5
7A5
330
6F0
100
AcDbEntity
  8
Dimension (ANSI)
100
AcDbLine
 10
4.434526426006849
 20
3.523782851984363
 30
0.0
 11
4.584526426006849
 21
3.523782851984363
 31
0.0
  0
LINE
  5
7A6
330
6F0
100
AcDbEntity
  8
Dimension (ANSI)
100
AcDbLine
 10
4.509526426006849
 20
3.448782851984363
 30
0.0
 11
4.509526426006849
 21
3.598782851984363
 31
0.0
  0
POINT
  5
7A7
330
6F0
100
AcDbEntity
  8
Defpoints
 62
     0
100
AcDbPoint
 10
4.57202642600687
 20
3.415529676511321
 30
0.0
  0
POINT
  5
7A8
330
6F0
100
AcDbEntity
  8
Defpoints
 62
     0
100
AcDbPoint
 10
4.447026426006827
 20
3.632036027457405
 30
0.0
  0
ENDBLK
  5
6F2
330
6F0
100
AcDbEntity
  8
0
100
AcDbBlockEnd
  0
BLOCK
  5
7AB
330
7AA
100
AcDbEntity
  8
0
100
AcDbBlockBegin
  2
*D11
 70
     1
 10
0.0
 20
0.0
 30
0.0
  3
*D11
  1

  0
LINE
  5
846
330
7AA
100
AcDbEntity
  8
Dimension (ANSI)
100
AcDbLine
 10
6.368300819299676
 20
4.369592444770364
 30
0.0
 11
6.285998975502375
 21
4.369592444770365
 31
0.0
  0
LINE
  5
847
330
7AA
100
AcDbEntity
  8
Dimension (ANSI)
100
AcDbLine
 10
6.285998975502375
 20
4.369592444770365
 30
0.0
 11
5.890924007308449
 21
3.688987799334698
 31
0.0
  0
MTEXT
  5
848
330
7AA
100
AcDbEntity
  8
Dimension (ANSI)
100
AcDbMText
 10
6.394547538459781
 20
4.44790376793292
 30
0.0
 40
0.100000003973643
 41
0.0
 71
     1
 72
     1
  1
\A1; 0.218 X 0.281\POBROUND\PTYP. (4 PL.)
  7
Note Text (ANSI)
 73
     1
 44
1.0
1001
ACAD
1000
MTEXTBEGIN
1070
    73
1070
     1
1070
    44
1040
1.0
1070
    74
1070
     0
1000
MTEXTEND
  0
SOLID
  5
849
330
7AA
100
AcDbEntity
  8
Dimension (ANSI)
100
AcDbTrace
 10
5.879101332869453
 20
3.695850583418347
 30
0.0
 11
5.902746681747443
 21
3.682125015251049
 31
0.0
 12
5.849747302806555
 22
3.618051752700725
 32
0.0
 13
5.849747302806555
 23
3.618051752700725
 33
0.0
  0
POINT
  5
84A
330
7AA
100
AcDbEntity
  8
Defpoints
 62
     0
100
AcDbPoint
 10
5.849747302806555
 20
3.618051752700725
 30
0.0
  0
POINT
  5
84B
330
7AA
100
AcDbEntity
  8
Defpoints
 62
     0
100
AcDbPoint
 10
5.795026426006849
 20
3.523782851984363
 30
0.0
  0
ENDBLK
  5
7AC
330
7AA
100
AcDbEntity
  8
0
100
AcDbBlockEnd
  0
ENDSEC
  0
SECTION
  2
ENTITIES
  0
CIRCLE
  5
11D
330
6C
100
AcDbEntity
  8
Visible (ANSI)
100
AcDbCircle
 10
4.509526426006849
 20
3.523782851984362
 30
0.0
 40
0.125
  0
LINE
  5
11E
330
6C
100
AcDbEntity
  8
Visible (ANSI)
100
AcDbLine
 10
3.478026426006849
 20
3.632782851984362
 30
0.0
 11
3.541026426006849
 21
3.632782851984362
 31
0.0
  0
ARC
  5
11F
330
6C
100
AcDbEntity
  8
Visible (ANSI)
100
AcDbCircle
 10
3.478026426006849
 20
3.523782851984362
 30
0.0
 40
0.109
100
AcDbArc
 50
90.0
 51
270.0
  0
LINE
  5
120
330
6C
100
AcDbEntity
  8
Visible (ANSI)
100
AcDbLine
 10
3.541026426006849
 20
3.414782851984363
 30
0.0
 11
3.478026426006849
 21
3.414782851984363
 31
0.0
  0
ARC
  5
121
330
6C
100
AcDbEntity
  8
Visible (ANSI)
100
AcDbCircle
 10
3.541026426006849
 20
3.523782851984362
 30
0.0
 40
0.1090000000000001
100
AcDbArc
 50
270.0
 51
90.0
  0
LINE
  5
122
330
6C
100
AcDbEntity
  8
Visible (ANSI)
100
AcDbLine
 10
5.732026426006848
 20
7.886782851984361
 30
0.0
 11
5.795026426006848
 21
7.886782851984361
 31
0.0
  0
ARC
  5
123
330
6C
100
AcDbEntity
  8
Visible (ANSI)
100
AcDbCircle
 10
5.732026426006846
 20
7.777782851984362
 30
0.0
 40
0.1089999999999997
100
AcDbArc
 50
90.0
 51
270.0
  0
LINE
  5
124
330
6C
100
AcDbEntity
  8
Visible (ANSI)
100
AcDbLine
 10
5.795026426006848
 20
7.668782851984363
 30
0.0
 11
5.732026426006848
 21
7.668782851984363
 31
0.0
  0
ARC
  5
125
330
6C
100
AcDbEntity
  8
Visible (ANSI)
100
AcDbCircle
 10
5.795026426006848
 20
7.777782851984362
 30
0.0
 40
0.1089999999999997
100
AcDbArc
 50
270.0
 51
90.0
  0
LINE
  5
126
330
6C
100
AcDbEntity
  8
Visible (ANSI)
100
AcDbLine
 10
5.732026426006849
 20
3.632782851984362
 30
0.0
 11
5.795026426006849
 21
3.632782851984362
 31
0.0
  0
ARC
  5
127
330
6C
100
AcDbEntity
  8
Visible (ANSI)
100
AcDbCircle
 10
5.732026426006848
 20
3.523782851984362
 30
0.0
 40
0.109
100
AcDbArc
 50
90.0
 51
270.0
  0
LINE
  5
128
330
6C
100
AcDbEntity
  8
Visible (ANSI)
100
AcDbLine
 10
5.795026426006849
 20
3.414782851984363
 30
0.0
 11
5.732026426006849
 21
3.414782851984363
 31
0.0
  0
ARC
  5
129
330
6C
100
AcDbEntity
  8
Visible (ANSI)
100
AcDbCircle
 10
5.795026426006849
 20
3.523782851984362
 30
0.0
 40
0.109
100
AcDbArc
 50
270.0
 51
90.0
  0
LINE
  5
12A
330
6C
100
AcDbEntity
  8
Visible (ANSI)
100
AcDbLine
 10
3.478026426006847
 20
7.886782851984361
 30
0.0
 11
3.541026426006848
 21
7.886782851984361
 31
0.0
  0
ARC
  5
12B
330
6C
100
AcDbEntity
  8
Visible (ANSI)
100
AcDbCircle
 10
3.478026426006847
 20
7.777782851984362
 30
0.0
 40
0.1089999999999997
100
AcDbArc
 50
90.0000000000003
 51
270.0000000000003
  0
LINE
  5
12C
330
6C
100
AcDbEntity
  8
Visible (ANSI)
100
AcDbLine
 10
3.541026426006848
 20
7.668782851984363
 30
0.0
 11
3.478026426006847
 21
7.668782851984363
 31
0.0
  0
ARC
  5
12D
330
6C
100
AcDbEntity
  8
Visible (ANSI)
100
AcDbCircle
 10
3.541026426006848
 20
7.777782851984362
 30
0.0
 40
0.1089999999999997
100
AcDbArc
 50
270.0000000000003
 51
90.0000000000003
  0
LINE
  5
12E
330
6C
100
AcDbEntity
  8
Visible (ANSI)
100
AcDbLine
 10
3.196526426006849
 20
3.210782851984363
 30
0.0
 11
3.196526426006847
 21
8.090782851984362
 31
0.0
  0
LINE
  5
12F
330
6C
100
AcDbEntity
  8
Visible (ANSI)
100
AcDbLine
 10
3.196526426006847
 20
8.090782851984362
 30
0.0
 11
6.076526426006847
 21
8.090782851984362
 31
0.0
  0
LINE
  5
130
330
6C
100
AcDbEntity
  8
Visible (ANSI)
100
AcDbLine
 10
6.076526426006847
 20
8.090782851984362
 30
0.0
 11
6.07652642600685
 21
3.210782851984363
 31
0.0
  0
LINE
  5
131
330
6C
100
AcDbEntity
  8
Visible (ANSI)
100
AcDbLine
 10
6.07652642600685
 20
3.210782851984363
 30
0.0
 11
3.196526426006849
 21
3.210782851984363
 31
0.0
  0
MTEXT
  5
133
330
6C
100
AcDbEntity
  8
Symbol (ANSI)
100
AcDbMText
 10
4.232118090157732
 20
1.609639568678195
 30
0.0
 40
0.1000000012358968
 41
0.0
 71
     7
 72
     1
  1
FRONT VIEW
  7
Text Style150
 73
     1
 44
1.0
1001
ACAD
1000
MTEXTBEGIN
1070
    73
1070
     1
1070
    44
1040
1.0
1070
    74
1070
     0
1000
MTEXTEND
  0
LINE
  5
135
330
6C
100
AcDbEntity
  8
Symbol (ANSI)
370
    30
100
AcDbLine
 10
4.222118064434076
 20
1.589246537532453
 30
0.0
 11
5.026088901338807
 21
1.589246537532453
 31
0.0
  0
MTEXT
  5
136
330
6C
100
AcDbEntity
  8
Symbol (ANSI)
100
AcDbMText
 10
4.591891166561425
 20
1.384070229280008
 30
0.0
 40
0.1499999969650128
 41
0.0
 71
     7
 72
     1
  1
 
  7
Label Text (ANSI)
 73
     1
 44
1.0
1001
ACAD
1000
MTEXTBEGIN
1070
    73
1070
     1
1070
    44
1040
1.0
1070
    74
1070
     0
1000
MTEXTEND
  0
LINE
  5
137
330
6C
100
AcDbEntity
  8
Hidden (ANSI)
 48
0.1690370589494705
100
AcDbLine
 10
9.282540548203645
 20
7.886782851984361
 30
0.0
 11
9.356540548203645
 21
7.886782851984361
 31
0.0
  0
LINE
  5
138
330
6C
100
AcDbEntity
  8
Hidden (ANSI)
 48
0.1690370589494705
100
AcDbLine
 10
9.282540548203645
 20
7.668782851984363
 30
0.0
 11
9.356540548203645
 21
7.668782851984363
 31
0.0
  0
LINE
  5
139
330
6C
100
AcDbEntity
  8
Hidden (ANSI)
 48
0.1690370589494705
100
AcDbLine
 10
9.282540548203645
 20
3.632782851984362
 30
0.0
 11
9.356540548203645
 21
3.632782851984362
 31
0.0
  0
LINE
  5
13A
330
6C
100
AcDbEntity
  8
Hidden (ANSI)
 48
0.1690370589494705
100
AcDbLine
 10
9.282540548203645
 20
3.414782851984363
 30
0.0
 11
9.356540548203645
 21
3.414782851984363
 31
0.0
  0
LINE
  5
13B
330
6C
100
AcDbEntity
  8
Visible (ANSI)
100
AcDbLine
 10
9.356540548203728
 20
8.090782851984362
 30
0.0
 11
9.282540548203728
 21
8.090782851984362
 31
0.0
  0
LINE
  5
13C
330
6C
100
AcDbEntity
  8
Visible (ANSI)
100
AcDbLine
 10
9.282540548203728
 20
8.090782851984362
 30
0.0
 11
9.282540548203728
 21
3.210782851984363
 31
0.0
  0
LINE
  5
13D
330
6C
100
AcDbEntity
  8
Visible (ANSI)
100
AcDbLine
 10
9.356540548203728
 20
3.210782851984363
 30
0.0
 11
9.282540548203728
 21
3.210782851984363
 31
0.0
  0
LINE
  5
13E
330
6C
100
AcDbEntity
  8
Visible (ANSI)
100
AcDbLine
 10
9.356540548203728
 20
3.210782851984363
 30
0.0
 11
9.356540548203728
 21
8.090782851984362
 31
0.0
  0
LINE
  5
13F
330
6C
100
AcDbEntity
  8
Hidden (ANSI)
 48
0.1690370589494705
100
AcDbLine
 10
9.356540548203264
 20
3.398782851984362
 30
0.0
 11
9.282540548203263
 21
3.398782851984362
 31
0.0
  0
LINE
  5
140
330
6C
100
AcDbEntity
  8
Hidden (ANSI)
 48
0.1690370589494705
100
AcDbLine
 10
9.356540548203264
 20
3.648782851984363
 30
0.0
 11
9.282540548203263
 21
3.648782851984363
 31
0.0
  0
MTEXT
  5
141
330
6C
100
AcDbEntity
  8
Symbol (ANSI)
100
AcDbMText
 10
8.841270564889164
 20
1.536680397868971
 30
0.0
 40
0.1000000012358968
 41
0.0
 71
     7
 72
     1
  1
RIGHT VIEW
  7
Text Style150
 73
     1
 44
1.0
1001
ACAD
1000
MTEXTBEGIN
1070
    73
1070
     1
1070
    44
1040
1.0
1070
    74
1070
     0
1000
MTEXTEND
  0
LINE
  5
142
330
6C
100
AcDbEntity
  8
Symbol (ANSI)
370
    30
100
AcDbLine
 10
8.831270539165508
 20
1.516125292151084
 30
0.0
 11
9.610362929245958
 21
1.516125292151084
 31
0.0
  0
MTEXT
  5
143
330
6C
100
AcDbEntity
  8
Symbol (ANSI)
100
AcDbMText
 10
9.188604417880716
 20
1.310948983898639
 30
0.0
 40
0.1499999969650128
 41
0.0
 71
     7
 72
     1
  1
 
  7
Label Text (ANSI)
 73
     1
 44
1.0
1001
ACAD
1000
MTEXTBEGIN
1070
    73
1070
     1
1070
    44
1040
1.0
1070
    74
1070
     0
1000
MTEXTEND
  0
DIMENSION
  5
144
330
6C
100
AcDbEntity
  8
Dimension (ANSI)
100
AcDbDimension
  2
*D4
 10
3.196526426006849
 20
2.075943378740215
 30
0.0
 11
4.636526426006851
 21
2.075943378740215
 31
0.0
 70
   160
  1
<>
 42
2.88
  3
Default (ANSI)-01
100
AcDbAlignedDimension
 13
6.07652642600685
 23
3.210782851984363
 33
0.0
 14
3.196526426006849
 24
3.210782851984363
 34
0.0
 50
180.0
100
AcDbRotatedDimension
1001
ACAD
1000
DSTYLE
1002
{
1070
   289
1070
     1
1070
    73
1070
     0
1070
    74
1070
     0
1070
   271
1070
     2
1070
   272
1070
     2
1070
    48
1040
0.0
1070
    47
1040
0.0
1002
}
  0
DIMENSION
  5
230
330
6C
100
AcDbEntity
  8
Dimension (ANSI)
100
AcDbDimension
  2
*D5
 10
2.09416422128244
 20
8.090782851984362
 30
0.0
 11
2.094164221282439
 21
5.65078285198436
 31
0.0
 70
   160
  1
<>
 42
4.879999999999999
  3
Default (ANSI)-01
100
AcDbAlignedDimension
 13
3.196526426006849
 23
3.210782851984363
 33
0.0
 14
3.196526426006847
 24
8.090782851984362
 34
0.0
 50
90.0
100
AcDbRotatedDimension
1001
ACAD
1000
DSTYLE
1002
{
1070
   289
1070
     1
1070
   271
1070
     2
1070
   272
1070
     2
1070
    48
1040
0.0
1070
    47
1040
0.0
1002
}
  0
DIMENSION
  5
31A
330
6C
100
AcDbEntity
  8
Dimension (ANSI)
100
AcDbDimension
  2
*D6
 10
3.043195440466401
 20
3.523782851984363
 30
0.0
 11
2.802825638605275
 21
3.013939987012471
 31
0.0
 70
   160
  1
<>{\PTYP.}
 42
0.3130000000000002
  3
Default (ANSI)-01
100
AcDbAlignedDimension
 13
3.196526426006849
 23
3.210782851984363
 33
0.0
 14
3.369026426006849
 24
3.523782851984363
 34
0.0
 50
90.0
100
AcDbRotatedDimension
1001
ACAD
1000
DSTYLE
1002
{
1070
   289
1070
     2
1070
   145
1040
-0.25
1070
   271
1070
     2
1070
   272
1070
     2
1070
    48
1040
0.0
1070
    47
1040
0.0
1002
}
  0
DIMENSION
  5
428
330
6C
100
AcDbEntity
  8
Dimension (ANSI)
100
AcDbDimension
  2
*D7
 10
3.509526426006849
 20
2.580861592141843
 30
0.0
 11
2.802251861374235
 21
2.580861592141843
 31
0.0
 70
   160
  1
<>{\PTYP.}
 42
0.3129999999999993
  3
Default (ANSI)-01
100
AcDbAlignedDimension
 13
3.196526426006849
 23
3.210782851984363
 33
0.0
 14
3.509526426006849
 24
3.414782851984363
 34
0.0
 50
180.0
100
AcDbRotatedDimension
1001
ACAD
1000
DSTYLE
1002
{
1070
   289
1070
     2
1070
    73
1070
     0
1070
    74
1070
     0
1070
   145
1040
-0.25
1070
   271
1070
     2
1070
   272
1070
     2
1070
    48
1040
0.0
1070
    47
1040
0.0
1002
}
  0
DIMENSION
  5
526
330
6C
100
AcDbEntity
  8
Dimension (ANSI)
100
AcDbDimension
  2
*D8
 10
4.509526426006849
 20
2.580861592141844
 30
0.0
 11
4.009526426006849
 21
2.580861592141844
 31
0.0
 70
   160
  1
<>
 42
0.9999999999999996
  3
Default (ANSI)
100
AcDbAlignedDimension
 13
3.509526426006849
 23
3.414782851984363
 33
0.0
 14
4.509526426006849
 24
3.398782851984363
 34
0.0
 50
180.0
100
AcDbRotatedDimension
1001
ACAD
1000
DSTYLE
1002
{
1070
   289
1070
     1
1070
    73
1070
     0
1070
    74
1070
     0
1070
   271
1070
     3
1070
   272
1070
     2
1070
    48
1040
0.0
1070
    47
1040
0.0
1002
}
  0
DIMENSION
  5
610
330
6C
100
AcDbEntity
  8
Dimension (ANSI)
100
AcDbDimension
  2
*D9
 10
9.221775992835757
 20
4.567953940116508
 30
0.0
 11
8.671776990984328
 21
4.567953940116508
 31
0.0
 70
   160
  1
 14 GA.
 42
0.0739999999999999
  3
Default (ANSI)
100
AcDbAlignedDimension
 13
9.356540548203728
 23
3.210782851984363
 33
0.0
 14
9.282540548203728
 24
3.210782851984363
 34
0.0
100
AcDbRotatedDimension
1001
ACAD
1000
DSTYLE
1002
{
1070
   289
1070
     1
1070
    73
1070
     0
1070
    74
1070
     0
1070
   271
1070
     3
1070
    76
1070
     1
1070
    75
1070
     1
1070
   272
1070
     2
1070
    48
1040
0.0
1070
    47
1040
0.0
1002
}
  0
DIMENSION
  5
6EF
330
6C
100
AcDbEntity
  8
Dimension (ANSI)
100
AcDbDimension
  2
*D10
 10
4.447026426006827
 20
3.632036027457405
 30
0.0
 11
5.24085710962001
 21
2.949122459393443
 31
0.0
 70
   163
  1
<>{\PGROUND\P HOLE}
 42
0.25
  3
Default (ANSI)
100
AcDbDiametricDimension
 15
4.57202642600687
 25
3.415529676511321
 35
0.0
 40
0.0
1001
ACAD_DSTYLE_DIMRADIAL_EXTENSION
1070
   387
1070
     1
1070
   388
1040
0.0
1070
   390
1040
0.0
1001
ACAD
1000
DSTYLE
1002
{
1070
   145
1040
-0.3333333333333334
1070
   144
1040
1.000000000000001
1070
   271
1070
     3
1070
   272
1070
     2
1070
    48
1040
0.0
1070
    47
1040
0.0
1002
}
  0
DIMENSION
  5
7A9
330
6C
100
AcDbEntity
  8
Dimension (ANSI)
100
AcDbDimension
  2
*D11
 10
5.795026426006849
 20
3.523782851984363
 30
0.0
 11
6.835346750065561
 21
4.369592444770365
 31
0.0
 70
   164
  1
 0.218 X 0.281\POBROUND\PTYP. (4 PL.)
 42
0.1089999999999991
  3
Default (ANSI)
100
AcDbRadialDimension
 15
5.849747302806555
 25
3.618051752700725
 35
0.0
 40
0.0
1001
ACAD_DSTYLE_DIMRADIAL_EXTENSION
1070
   387
1070
     1
1070
   388
1040
0.0
1070
   390
1040
0.0
1001
ACAD
1000
DSTYLE
1002
{
1070
   145
1040
-0.3333333333333334
1070
   271
1070
     3
1070
   141
1040
0.0
1070
   272
1070
     2
1070
    48
1040
0.0
1070
    47
1040
0.0
1002
}
  0
MTEXT
  5
84C
330
6C
100
AcDbEntity
  8
Symbol (ANSI)
100
AcDbMText
 10
10.42058640593797
 20
2.132548987893985
 30
0.0
 40
0.1000000012358968
 41
3.567374306357952
 71
     1
 72
     1
  1
{\fRomanS|b0|i0;\H0.1000;PART#: P0604\P(DATA SUBJECT TO CHANGE WITHOUT \PNOTICE)\PTHIS DRAWING AND COMPONENTS OF ARE\PPROPERTY OF HUBBELL INC. WIEGMANN}
  7
Note Text (ANSI)
 73
     2
 44
1.093904256820678
1001
ACAD
1000
MTEXTBEGIN
1070
    73
1070
     2
1070
    44
1040
1.093904256820678
1070
    74
1070
     0
1000
MTEXTEND
  0
ELLIPSE
  5
84E
330
6C
100
AcDbEntity
  8
Visible (ANSI)
100
AcDbEllipse
 10
12.20730999207528
 20
4.808357752515852
 30
0.0
 11
0.0519825220400477
 21
-0.0902691079317861
 31
0.0
210
0.0
220
0.0
230
1.0
 40
0.5780931159158107
 41
3.572615253427354
 42
5.852162707341174
  0
ELLIPSE
  5
84F
330
6C
100
AcDbEntity
  8
Visible (ANSI)
100
AcDbEllipse
 10
12.16370507390211
 20
4.783247350165321
 30
0.0
 11
-0.0519825220400422
 21
0.090269107931789
 31
0.0
210
0.0
220
0.0
230
1.0
 40
0.5780931159158106
 41
0.0
 42
6.283185307179586
  0
LINE
  5
850
330
6C
100
AcDbEntity
  8
Visible (ANSI)
100
AcDbLine
 10
11.55588786990708
 20
5.20752652965246
 30
0.0
 11
11.59301097591938
 21
5.186148754678365
 31
0.0
  0
ELLIPSE
  5
851
330
6C
100
AcDbEntity
  8
Visible (ANSI)
100
AcDbEllipse
 10
11.59949278808025
 20
5.15837640149646
 30
0.0
 11
0.0453287592189215
 21
-0.0787146621165173
 31
0.0
210
0.0
220
0.0
230
1.0
 40
0.5780931159158107
 41
3.641254264141322
 42
5.499720852204704
  0
ELLIPSE
  5
852
330
6C
100
AcDbEntity
  8
Visible (ANSI)
100
AcDbEllipse
 10
11.55588786990708
 20
5.13326599914593
 30
0.0
 11
-0.0453287592189121
 21
0.0787146621165228
 31
0.0
210
0.0
220
0.0
230
1.0
 40
0.5780931159158107
 41
5.499720852205268
 42
8.641313505795061
  0
LINE
  5
853
330
6C
100
AcDbEntity
  8
Visible Narrow (ANSI)
100
AcDbLine
 10
11.55588786990708
 20
5.059005468639399
 30
0.0
 11
11.59949278808025
 21
5.08411587098993
 31
0.0
  0
LINE
  5
854
330
6C
100
AcDbEntity
  8
Visible (ANSI)
100
AcDbLine
 10
11.59949278808025
 20
5.08411587098993
 30
0.0
 11
11.63661589409255
 21
5.062738096015835
 31
0.0
  0
LINE
  5
855
330
6C
100
AcDbEntity
  8
Visible (ANSI)
100
AcDbLine
 10
11.59301097591938
 20
5.037627693665304
 30
0.0
 11
11.55588786990708
 21
5.059005468639399
 31
0.0
  0
LINE
  5
856
330
6C
100
AcDbEntity
  8
Visible Narrow (ANSI)
100
AcDbLine
 10
11.59301097591938
 20
5.037627693665304
 30
0.0
 11
11.63661589409255
 21
5.062738096015835
 31
0.0
  0
ELLIPSE
  5
857
330
6C
100
AcDbEntity
  8
Visible (ANSI)
100
AcDbEllipse
 10
11.63661589409255
 20
5.136998626522368
 30
0.0
 11
0.0453287592189178
 21
-0.0787146621165218
 31
0.0
210
0.0
220
0.0
230
1.0
 40
0.5780931159158107
 41
5.499720852205022
 42
5.78352369662765
  0
ELLIPSE
  5
858
330
6C
100
AcDbEntity
  8
Visible (ANSI)
100
AcDbEllipse
 10
11.59301097591938
 20
5.111888224171835
 30
0.0
 11
0.0453287592189122
 21
-0.0787146621165228
 31
0.0
210
0.0
220
0.0
230
1.0
 40
0.5780931159158106
 41
5.499720852205267
 42
8.641313505795061
  0
LINE
  5
859
330
6C
100
AcDbEntity
  8
Visible (ANSI)
100
AcDbLine
 10
12.88407010723601
 20
7.340881804812775
 30
0.0
 11
12.92119321324831
 21
7.319504029838681
 31
0.0
  0
ELLIPSE
  5
85A
330
6C
100
AcDbEntity
  8
Visible (ANSI)
100
AcDbEllipse
 10
12.92767502540918
 20
7.291731676656777
 30
0.0
 11
0.0453287592189214
 21
-0.0787146621165171
 31
0.0
210
0.0
220
0.0
230
1.0
 40
0.5780931159158108
 41
3.641254264141331
 42
5.499720852204704
  0
ELLIPSE
  5
85B
330
6C
100
AcDbEntity
  8
Visible (ANSI)
100
AcDbEllipse
 10
12.88407010723601
 20
7.266621274306245
 30
0.0
 11
-0.045328759218912
 21
0.0787146621165225
 31
0.0
210
0.0
220
0.0
230
1.0
 40
0.5780931159158107
 41
5.499720852205268
 42
8.641313505795061
  0
LINE
  5
85C
330
6C
100
AcDbEntity
  8
Visible Narrow (ANSI)
100
AcDbLine
 10
12.88407010723601
 20
7.192360743799715
 30
0.0
 11
12.92767502540918
 21
7.217471146150246
 31
0.0
  0
LINE
  5
85D
330
6C
100
AcDbEntity
  8
Visible (ANSI)
100
AcDbLine
 10
12.92767502540918
 20
7.217471146150246
 30
0.0
 11
12.96479813142147
 21
7.196093371176151
 31
0.0
  0
LINE
  5
85E
330
6C
100
AcDbEntity
  8
Visible (ANSI)
100
AcDbLine
 10
12.92119321324831
 20
7.170982968825621
 30
0.0
 11
12.88407010723601
 21
7.192360743799715
 31
0.0
  0
LINE
  5
85F
330
6C
100
AcDbEntity
  8
Visible Narrow (ANSI)
100
AcDbLine
 10
12.92119321324831
 20
7.170982968825621
 30
0.0
 11
12.96479813142147
 21
7.196093371176151
 31
0.0
  0
ELLIPSE
  5
860
330
6C
100
AcDbEntity
  8
Visible (ANSI)
100
AcDbEllipse
 10
12.96479813142148
 20
7.270353901682683
 30
0.0
 11
0.0453287592189181
 21
-0.0787146621165223
 31
0.0
210
0.0
220
0.0
230
1.0
 40
0.5780931159158106
 41
5.499720852205022
 42
5.783523696627648
  0
ELLIPSE
  5
861
330
6C
100
AcDbEntity
  8
Visible (ANSI)
100
AcDbEllipse
 10
12.92119321324831
 20
7.245243499332151
 30
0.0
 11
0.045328759218912
 21
-0.0787146621165225
 31
0.0
210
0.0
220
0.0
230
1.0
 40
0.5780931159158107
 41
5.499720852205268
 42
8.641313505795061
  0
LINE
  5
862
330
6C
100
AcDbEntity
  8
Visible (ANSI)
100
AcDbLine
 10
12.88407010723601
 20
4.442677247245973
 30
0.0
 11
12.92119321324831
 21
4.421299472271878
 31
0.0
  0
ELLIPSE
  5
863
330
6C
100
AcDbEntity
  8
Visible (ANSI)
100
AcDbEllipse
 10
12.92767502540918
 20
4.393527119089974
 30
0.0
 11
0.0453287592189216
 21
-0.0787146621165174
 31
0.0
210
0.0
220
0.0
230
1.0
 40
0.5780931159158107
 41
3.641254264141322
 42
5.499720852204704
  0
ELLIPSE
  5
864
330
6C
100
AcDbEntity
  8
Visible (ANSI)
100
AcDbEllipse
 10
12.88407010723601
 20
4.368416716739442
 30
0.0
 11
-0.0453287592189121
 21
0.0787146621165228
 31
0.0
210
0.0
220
0.0
230
1.0
 40
0.578093115915811
 41
5.499720852205268
 42
8.641313505795061
  0
LINE
  5
865
330
6C
100
AcDbEntity
  8
Visible Narrow (ANSI)
100
AcDbLine
 10
12.88407010723601
 20
4.294156186232912
 30
0.0
 11
12.92767502540918
 21
4.319266588583443
 31
0.0
  0
LINE
  5
866
330
6C
100
AcDbEntity
  8
Visible (ANSI)
100
AcDbLine
 10
12.92767502540918
 20
4.319266588583443
 30
0.0
 11
12.96479813142148
 21
4.297888813609349
 31
0.0
  0
LINE
  5
867
330
6C
100
AcDbEntity
  8
Visible (ANSI)
100
AcDbLine
 10
12.92119321324831
 20
4.272778411258817
 30
0.0
 11
12.88407010723601
 21
4.294156186232912
 31
0.0
  0
LINE
  5
868
330
6C
100
AcDbEntity
  8
Visible Narrow (ANSI)
100
AcDbLine
 10
12.92119321324831
 20
4.272778411258817
 30
0.0
 11
12.96479813142148
 21
4.297888813609349
 31
0.0
  0
ELLIPSE
  5
869
330
6C
100
AcDbEntity
  8
Visible (ANSI)
100
AcDbEllipse
 10
12.96479813142148
 20
4.37214934411588
 30
0.0
 11
0.0453287592189174
 21
-0.078714662116521
 31
0.0
210
0.0
220
0.0
230
1.0
 40
0.5780931159158108
 41
5.499720852205022
 42
5.783523696627653
  0
ELLIPSE
  5
86A
330
6C
100
AcDbEntity
  8
Visible (ANSI)
100
AcDbEllipse
 10
12.92119321324831
 20
4.347038941765347
 30
0.0
 11
0.0453287592189121
 21
-0.0787146621165228
 31
0.0
210
0.0
220
0.0
230
1.0
 40
0.578093115915811
 41
5.499720852205268
 42
8.641313505795061
  0
LINE
  5
86B
330
6C
100
AcDbEntity
  8
Visible (ANSI)
100
AcDbLine
 10
11.55588786990708
 20
8.105731087219263
 30
0.0
 11
11.59301097591938
 21
8.084353312245168
 31
0.0
  0
ELLIPSE
  5
86C
330
6C
100
AcDbEntity
  8
Visible (ANSI)
100
AcDbEllipse
 10
11.59949278808025
 20
8.056580959063262
 30
0.0
 11
0.0453287592189214
 21
-0.0787146621165171
 31
0.0
210
0.0
220
0.0
230
0.9999999999999998
 40
0.5780931159158107
 41
3.641254264141329
 42
5.499720852204704
  0
ELLIPSE
  5
86D
330
6C
100
AcDbEntity
  8
Visible (ANSI)
100
AcDbEllipse
 10
11.55588786990708
 20
8.031470556712733
 30
0.0
 11
-0.045328759218912
 21
0.0787146621165225
 31
0.0
210
0.0
220
0.0
230
1.0
 40
0.5780931159158107
 41
5.499720852205268
 42
8.641313505795061
  0
LINE
  5
86E
330
6C
100
AcDbEntity
  8
Visible Narrow (ANSI)
100
AcDbLine
 10
11.55588786990708
 20
7.957210026206201
 30
0.0
 11
11.59949278808025
 21
7.982320428556732
 31
0.0
  0
LINE
  5
86F
330
6C
100
AcDbEntity
  8
Visible (ANSI)
100
AcDbLine
 10
11.59949278808025
 20
7.982320428556732
 30
0.0
 11
11.63661589409255
 21
7.960942653582639
 31
0.0
  0
LINE
  5
870
330
6C
100
AcDbEntity
  8
Visible (ANSI)
100
AcDbLine
 10
11.59301097591938
 20
7.935832251232108
 30
0.0
 11
11.55588786990708
 21
7.957210026206201
 31
0.0
  0
LINE
  5
871
330
6C
100
AcDbEntity
  8
Visible Narrow (ANSI)
100
AcDbLine
 10
11.59301097591938
 20
7.935832251232108
 30
0.0
 11
11.63661589409255
 21
7.960942653582639
 31
0.0
  0
ELLIPSE
  5
872
330
6C
100
AcDbEntity
  8
Visible (ANSI)
100
AcDbEllipse
 10
11.63661589409255
 20
8.035203184089171
 30
0.0
 11
0.0453287592189184
 21
-0.0787146621165228
 31
0.0
210
0.0
220
0.0
230
1.0
 40
0.5780931159158106
 41
5.499720852205022
 42
5.783523696627648
  0
ELLIPSE
  5
873
330
6C
100
AcDbEntity
  8
Visible (ANSI)
100
AcDbEllipse
 10
11.59301097591938
 20
8.010092781738638
 30
0.0
 11
0.045328759218912
 21
-0.0787146621165225
 31
0.0
210
0.0
220
0.0
230
1.0
 40
0.5780931159158107
 41
5.499720852205267
 42
8.641313505795061
  0
LINE
  5
874
330
6C
100
AcDbEntity
  8
Visible (ANSI)
100
AcDbLine
 10
11.39001240415371
 20
5.015543785276605
 30
0.0
 11
11.39001240415371
 21
8.340235426302934
 31
0.0
  0
LINE
  5
875
330
6C
100
AcDbEntity
  8
Visible (ANSI)
100
AcDbLine
 10
11.43361732232688
 20
8.365345828653463
 30
0.0
 11
11.39001240415371
 21
8.340235426302934
 31
0.0
  0
LINE
  5
876
330
6C
100
AcDbEntity
  8
Visible (ANSI)
100
AcDbLine
 10
11.39001240415371
 20
8.340235426302934
 30
0.0
 11
13.08706867900168
 21
7.362965713201476
 31
0.0
  0
LINE
  5
877
330
6C
100
AcDbEntity
  8
Visible (ANSI)
100
AcDbLine
 10
13.13067359717485
 20
7.388076115552007
 30
0.0
 11
13.08706867900168
 21
7.362965713201476
 31
0.0
  0
LINE
  5
878
330
6C
100
AcDbEntity
  8
Visible (ANSI)
100
AcDbLine
 10
13.13067359717485
 20
7.388076115552007
 30
0.0
 11
11.43361732232688
 21
8.365345828653463
 31
0.0
  0
LINE
  5
879
330
6C
100
AcDbEntity
  8
Visible (ANSI)
100
AcDbLine
 10
13.08706867900168
 20
7.362965713201476
 30
0.0
 11
13.08706867900168
 21
4.038274072175148
 31
0.0
  0
LINE
  5
87A
330
6C
100
AcDbEntity
  8
Visible (ANSI)
100
AcDbLine
 10
13.13067359717485
 20
4.063384474525679
 30
0.0
 11
13.08706867900168
 21
4.038274072175148
 31
0.0
  0
LINE
  5
87B
330
6C
100
AcDbEntity
  8
Visible (ANSI)
100
AcDbLine
 10
13.13067359717485
 20
4.063384474525679
 30
0.0
 11
13.13067359717485
 21
7.388076115552007
 31
0.0
  0
LINE
  5
87C
330
6C
100
AcDbEntity
  8
Visible (ANSI)
100
AcDbLine
 10
13.08706867900168
 20
4.038274072175148
 30
0.0
 11
11.39001240415371
 21
5.015543785276605
 31
0.0
  0
ENDSEC
  0
SECTION
  2
OBJECTS
  0
DICTIONARY
  5
C
330
0
100
AcDbDictionary
281
     1
  3
ACAD_CIP_PREVIOUS_PRODUCT_INFO
350
87D
  3
ACAD_COLOR
350
63
  3
ACAD_GROUP
350
D
  3
ACAD_LAYOUT
350
62
  3
ACAD_MATERIAL
350
10
  3
ACAD_MLEADERSTYLE
350
66
  3
ACAD_MLINESTYLE
350
5F
  3
ACAD_PLOTSETTINGS
350
61
  3
ACAD_PLOTSTYLENAME
350
E
  3
ACAD_SCALELIST
350
42
  3
ACAD_TABLESTYLE
350
64
  3
ACAD_VISUALSTYLE
350
29
  3
ACDB_RECOMPOSE_DATA
350
88B
  3
AcDbVariableDictionary
350
76
  3
DWGPROPS
350
88C
  0
DICTIONARY
  5
8C8
330
7A3
100
AcDbDictionary
280
     1
281
     1
  3
ACAD_MTEXT_RT
360
8C9
  0
XRECORD
  5
87D
102
{ACAD_REACTORS
330
C
102
}
330
C
100
AcDbXrecord
280
     1
300
INVNTOR
300
2012
300
85795PDSP_2012_0F
  0
DICTIONARY
  5
63
102
{ACAD_REACTORS
330
C
102
}
330
C
100
AcDbDictionary
281
     1
  0
DICTIONARY
  5
D
102
{ACAD_REACTORS
330
C
102
}
330
C
100
AcDbDictionary
281
     1
  0
DICTIONARY
  5
62
102
{ACAD_REACTORS
330
C
102
}
330
C
100
AcDbDictionary
281
     1
  3
Layout1
350
6B
  3
Layout2
350
73
  3
Model
350
6F
  0
DICTIONARY
  5
10
102
{ACAD_REACTORS
330
C
102
}
330
C
100
AcDbDictionary
281
     1
  3
ByBlock
350
19
  3
ByLayer
350
11
  3
Global
350
21
  0
DICTIONARY
  5
66
102
{ACAD_REACTORS
330
C
102
}
330
C
100
AcDbDictionary
281
     1
  3
Standard
350
67
  0
DICTIONARY
  5
5F
102
{ACAD_REACTORS
330
C
102
}
330
C
100
AcDbDictionary
281
     1
  3
Standard
350
60
  0
DICTIONARY
  5
61
102
{ACAD_REACTORS
330
C
102
}
330
C
100
AcDbDictionary
281
     1
  0
ACDBDICTIONARYWDFLT
  5
E
102
{ACAD_REACTORS
330
C
102
}
330
C
100
AcDbDictionary
281
     1
  3
Normal
350
F
100
AcDbDictionaryWithDefault
340
F
  0
DICTIONARY
  5
42
102
{ACAD_REACTORS
330
C
102
}
330
C
100
AcDbDictionary
281
     1
  3
A0
350
43
  3
A1
350
44
  3
A2
350
45
  3
A3
350
46
  3
A4
350
47
  3
A5
350
48
  3
A6
350
49
  3
A7
350
4A
  3
A8
350
4B
  3
A9
350
4C
  3
B0
350
4D
  3
B1
350
4E
  3
B2
350
4F
  3
B3
350
50
  3
B4
350
51
  3
B5
350
52
  3
B6
350
53
  0
DICTIONARY
  5
64
102
{ACAD_REACTORS
330
C
102
}
330
C
100
AcDbDictionary
281
     1
  3
Standard
350
65
  0
DICTIONARY
  5
29
102
{ACAD_REACTORS
330
C
102
}
330
C
100
AcDbDictionary
281
     1
  3
2dWireframe
350
2F
  3
Basic
350
2E
  3
Brighten
350
35
  3
ColorChange
350
39
  3
Conceptual
350
32
  3
Dim
350
34
  3
EdgeColorOff
350
41
  3
Facepattern
350
38
  3
Flat
350
2A
  3
FlatWithEdges
350
2B
  3
Gouraud
350
2C
  3
GouraudWithEdges
350
2D
  3
Hidden
350
31
  3
JitterOff
350
3F
  3
Linepattern
350
37
  3
OverhangOff
350
40
  3
Realistic
350
33
  3
Shaded
350
3E
  3
Shaded with edges
350
3D
  3
Shades of Gray
350
3A
  3
Sketchy
350
3B
  3
Thicken
350
36
  3
Wireframe
350
30
  3
X-Ray
350
3C
  0
XRECORD
  5
88B
102
{ACAD_REACTORS
330
C
102
}
330
C
100
AcDbXrecord
280
     1
 90
        1
330
65
330
31A
330
428
  0
DICTIONARY
  5
76
102
{ACAD_REACTORS
330
C
102
}
330
C
100
AcDbDictionary
281
     1
  3
CANNOSCALE
350
79
  3
CMLEADERSTYLE
350
78
  3
CTABLESTYLE
350
77
  3
DIMASSOC
350
885
  3
HIDETEXT
350
884
  3
INDEXCTL
350
883
  3
LAYEREVAL
350
880
  3
LAYERNOTIFY
350
881
  3
LIGHTINGUNITS
350
87F
  3
MSLTSCALE
350
87E
  3
SORTENTS
350
882
  3
XCLIPFRAME
350
886
  0
XRECORD
  5
88C
102
{ACAD_REACTORS
330
C
102
}
330
C
100
AcDbXrecord
280
     1
  1
DWGPROPS COOKIE
  2

  3

  4
KRA
  6

  7

  8

  9
-
300
Manager=
301
Company=
302
Category=
303
Part Number=P0604-S
304
Description=P SERIES BACK PANEL MASTER VIEW
305
Project=
306
Designer=KRA
307
Engineer=
308
Authority=
309
Cost Center=
 40
0.0000387037037037
 41
2455950.467494167
 42
2455950.467494167
  1

 90
       20
300
Vendor=
300
User Status=
300
Design Status=WorkInProgress
300
Checked by=JMG
300
Date Checked=02/12/2009
300
Engr Approved by=
300
Mfg Approved by=
300
DWG. NO=
300
NUMBER OF SHEETS=1
300
DRAWING #=1
  0
XRECORD
  5
8C9
102
{ACAD_REACTORS
330
8C8
102
}
330
8C8
100
AcDbXrecord
280
     1
 40
41495.0
  1
\A1;\U+22050.250{\PGROUND\P HOLE}
  0
LAYOUT
  5
6B
102
{ACAD_XDICTIONARY
360
8C2
102
}
102
{ACAD_REACTORS
330
62
102
}
330
62
100
AcDbPlotSettings
  1

  2

  4

  6

 40
0.0
 41
0.0
 42
0.0
 43
0.0
 44
0.0
 45
0.0
 46
0.0
 47
0.0
 48
0.0
 49
0.0
140
0.0
141
0.0
142
1.0
143
1.0
 70
   688
 72
     0
 73
     0
 74
     5
  7

 75
    16
147
1.0
148
0.0
149
0.0
100
AcDbLayout
  1
Layout1
 70
     1
 71
     1
 10
0.0
 20
0.0
 11
12.0
 21
9.0
 12
0.0
 22
0.0
 32
0.0
 14
0.0
 24
0.0
 34
0.0
 15
0.0
 25
0.0
 35
0.0
146
0.0
 13
0.0
 23
0.0
 33
0.0
 16
1.0
 26
0.0
 36
0.0
 17
0.0
 27
1.0
 37
0.0
 76
     0
330
68
  0
LAYOUT
  5
73
102
{ACAD_XDICTIONARY
360
8C6
102
}
102
{ACAD_REACTORS
330
62
102
}
330
62
100
AcDbPlotSettings
  1

  2

  4

  6

 40
0.0
 41
0.0
 42
0.0
 43
0.0
 44
0.0
 45
0.0
 46
0.0
 47
0.0
 48
0.0
 49
0.0
140
0.0
141
0.0
142
1.0
143
1.0
 70
   688
 72
     0
 73
     0
 74
     5
  7

 75
    16
147
1.0
148
0.0
149
0.0
100
AcDbLayout
  1
Layout2
 70
     1
 71
     2
 10
0.0
 20
0.0
 11
12.0
 21
9.0
 12
0.0
 22
0.0
 32
0.0
 14
0.0
 24
0.0
 34
0.0
 15
0.0
 25
0.0
 35
0.0
146
0.0
 13
0.0
 23
0.0
 33
0.0
 16
1.0
 26
0.0
 36
0.0
 17
0.0
 27
1.0
 37
0.0
 76
     0
330
70
  0
LAYOUT
  5
6F
102
{ACAD_XDICTIONARY
360
8C4
102
}
102
{ACAD_REACTORS
330
62
102
}
330
62
100
AcDbPlotSettings
  1

  2

  4

  6

 40
0.0
 41
0.0
 42
0.0
 43
0.0
 44
0.0
 45
0.0
 46
0.0
 47
0.0
 48
0.0
 49
0.0
140
0.0
141
0.0
142
1.0
143
1.0
 70
  1712
 72
     0
 73
     0
 74
     0
  7

 75
     0
147
1.0
148
0.0
149
0.0
100
AcDbLayout
  1
Model
 70
     1
 71
     0
 10
0.0
 20
0.0
 11
12.0
 21
9.0
 12
0.0
 22
0.0
 32
0.0
 14
0.0
 24
0.0
 34
0.0
 15
0.0
 25
0.0
 35
0.0
146
0.0
 13
0.0
 23
0.0
 33
0.0
 16
1.0
 26
0.0
 36
0.0
 17
0.0
 27
1.0
 37
0.0
 76
     0
330
6C
  0
MATERIAL
  5
19
102
{ACAD_XDICTIONARY
360
1A
102
}
102
{ACAD_REACTORS
330
10
102
}
330
10
100
AcDbMaterial
  1
ByBlock
 72
     0
 43
0.0208333333333333
 43
0.0
 43
0.0
 43
0.0
 43
0.0
 43
0.0208333333333333
 43
0.0
 43
0.0
 43
0.0
 43
0.0
 43
1.0
 43
0.0
 43
0.0
 43
0.0
 43
0.0
 43
1.0
 77
     0
 47
0.0208333333333333
 47
0.0
 47
0.0
 47
0.0
 47
0.0
 47
0.0208333333333333
 47
0.0
 47
0.0
 47
0.0
 47
0.0
 47
1.0
 47
0.0
 47
0.0
 47
0.0
 47
0.0
 47
1.0
171
     0
 49
0.0208333333333333
 49
0.0
 49
0.0
 49
0.0
 49
0.0
 49
0.0208333333333333
 49
0.0
 49
0.0
 49
0.0
 49
0.0
 49
1.0
 49
0.0
 49
0.0
 49
0.0
 49
0.0
 49
1.0
175
     0
142
0.0208333333333333
142
0.0
142
0.0
142
0.0
142
0.0
142
0.0208333333333333
142
0.0
142
0.0
142
0.0
142
0.0
142
1.0
142
0.0
142
0.0
142
0.0
142
0.0
142
1.0
179
     0
144
0.0208333333333333
144
0.0
144
0.0
144
0.0
144
0.0
144
0.0208333333333333
144
0.0
144
0.0
144
0.0
144
0.0
144
1.0
144
0.0
144
0.0
144
0.0
144
0.0
144
1.0
147
0.0208333333333333
147
0.0
147
0.0
147
0.0
147
0.0
147
0.0208333333333333
147
0.0
147
0.0
147
0.0
147
0.0
147
1.0
147
0.0
147
0.0
147
0.0
147
0.0
147
1.0
  0
MATERIAL
  5
11
102
{ACAD_XDICTIONARY
360
12
102
}
102
{ACAD_REACTORS
330
10
102
}
330
10
100
AcDbMaterial
  1
ByLayer
 72
     0
 43
0.0208333333333333
 43
0.0
 43
0.0
 43
0.0
 43
0.0
 43
0.0208333333333333
 43
0.0
 43
0.0
 43
0.0
 43
0.0
 43
1.0
 43
0.0
 43
0.0
 43
0.0
 43
0.0
 43
1.0
 77
     0
 47
0.0208333333333333
 47
0.0
 47
0.0
 47
0.0
 47
0.0
 47
0.0208333333333333
 47
0.0
 47
0.0
 47
0.0
 47
0.0
 47
1.0
 47
0.0
 47
0.0
 47
0.0
 47
0.0
 47
1.0
171
     0
 49
0.0208333333333333
 49
0.0
 49
0.0
 49
0.0
 49
0.0
 49
0.0208333333333333
 49
0.0
 49
0.0
 49
0.0
 49
0.0
 49
1.0
 49
0.0
 49
0.0
 49
0.0
 49
0.0
 49
1.0
175
     0
142
0.0208333333333333
142
0.0
142
0.0
142
0.0
142
0.0
142
0.0208333333333333
142
0.0
142
0.0
142
0.0
142
0.0
142
1.0
142
0.0
142
0.0
142
0.0
142
0.0
142
1.0
179
     0
144
0.0208333333333333
144
0.0
144
0.0
144
0.0
144
0.0
144
0.0208333333333333
144
0.0
144
0.0
144
0.0
144
0.0
144
1.0
144
0.0
144
0.0
144
0.0
144
0.0
144
1.0
147
0.0208333333333333
147
0.0
147
0.0
147
0.0
147
0.0
147
0.0208333333333333
147
0.0
147
0.0
147
0.0
147
0.0
147
1.0
147
0.0
147
0.0
147
0.0
147
0.0
147
1.0
  0
MATERIAL
  5
21
102
{ACAD_XDICTIONARY
360
22
102
}
102
{ACAD_REACTORS
330
10
102
}
330
10
100
AcDbMaterial
  1
Global
 72
     0
 43
0.0208333333333333
 43
0.0
 43
0.0
 43
0.0
 43
0.0
 43
0.0208333333333333
 43
0.0
 43
0.0
 43
0.0
 43
0.0
 43
1.0
 43
0.0
 43
0.0
 43
0.0
 43
0.0
 43
1.0
 77
     0
 47
0.0208333333333333
 47
0.0
 47
0.0
 47
0.0
 47
0.0
 47
0.0208333333333333
 47
0.0
 47
0.0
 47
0.0
 47
0.0
 47
1.0
 47
0.0
 47
0.0
 47
0.0
 47
0.0
 47
1.0
171
     0
 49
0.0208333333333333
 49
0.0
 49
0.0
 49
0.0
 49
0.0
 49
0.0208333333333333
 49
0.0
 49
0.0
 49
0.0
 49
0.0
 49
1.0
 49
0.0
 49
0.0
 49
0.0
 49
0.0
 49
1.0
175
     0
142
0.0208333333333333
142
0.0
142
0.0
142
0.0
142
0.0
142
0.0208333333333333
142
0.0
142
0.0
142
0.0
142
0.0
142
1.0
142
0.0
142
0.0
142
0.0
142
0.0
142
1.0
179
     0
144
0.0208333333333333
144
0.0
144
0.0
144
0.0
144
0.0
144
0.0208333333333333
144
0.0
144
0.0
144
0.0
144
0.0
144
1.0
144
0.0
144
0.0
144
0.0
144
0.0
144
1.0
147
0.0208333333333333
147
0.0
147
0.0
147
0.0
147
0.0
147
0.0208333333333333
147
0.0
147
0.0
147
0.0
147
0.0
147
1.0
147
0.0
147
0.0
147
0.0
147
0.0
147
1.0
  0
MLEADERSTYLE
  5
67
102
{ACAD_XDICTIONARY
360
889
102
}
102
{ACAD_REACTORS
330
66
102
}
330
66
100
AcDbMLeaderStyle
170
     2
171
     1
172
     0
 90
        2
 40
0.0
 41
0.0
173
     1
 91
-1056964608
340
5B
 92
       -2
290
     1
 42
0.09
291
     1
 43
0.36
  3
Standard
 44
0.18
300

342
55
174
     1
178
     6
175
     1
176
     0
 93
-1056964608
 45
0.18
292
     0
297
     0
 46
0.18
 94
-1056964608
 47
1.0
 49
1.0
140
1.0
293
     1
141
0.0
294
     1
177
     0
142
1.0
295
     0
296
     0
143
0.125
1001
ACAD_MLEADERVER
1070
     2
  0
MLINESTYLE
  5
60
102
{ACAD_REACTORS
330
5F
102
}
330
5F
100
AcDbMlineStyle
  2
STANDARD
 70
     0
  3

 62
   256
 51
90.0
 52
90.0
 71
     2
 49
0.5
 62
   256
  6
BYLAYER
 49
-0.5
 62
   256
  6
BYLAYER
  0
ACDBPLACEHOLDER
  5
F
102
{ACAD_REACTORS
330
E
102
}
330
E
  0
SCALE
  5
43
102
{ACAD_REACTORS
330
42
102
}
330
42
100
AcDbScale
 70
     0
300
1:1
140
1.0
141
1.0
290
     1
  0
SCALE
  5
44
102
{ACAD_REACTORS
330
42
102
}
330
42
100
AcDbScale
 70
     0
300
1/128" = 1'-0"
140
0.0078125
141
12.0
290
     0
  0
SCALE
  5
45
102
{ACAD_REACTORS
330
42
102
}
330
42
100
AcDbScale
 70
     0
300
1/64" = 1'-0"
140
0.015625
141
12.0
290
     0
  0
SCALE
  5
46
102
{ACAD_REACTORS
330
42
102
}
330
42
100
AcDbScale
 70
     0
300
1/32" = 1'-0"
140
0.03125
141
12.0
290
     0
  0
SCALE
  5
47
102
{ACAD_REACTORS
330
42
102
}
330
42
100
AcDbScale
 70
     0
300
1/16" = 1'-0"
140
0.0625
141
12.0
290
     0
  0
SCALE
  5
48
102
{ACAD_REACTORS
330
42
102
}
330
42
100
AcDbScale
 70
     0
300
3/32" = 1'-0"
140
0.09375
141
12.0
290
     0
  0
SCALE
  5
49
102
{ACAD_REACTORS
330
42
102
}
330
42
100
AcDbScale
 70
     0
300
1/8" = 1'-0"
140
0.125
141
12.0
290
     0
  0
SCALE
  5
4A
102
{ACAD_REACTORS
330
42
102
}
330
42
100
AcDbScale
 70
     0
300
3/16" = 1'-0"
140
0.1875
141
12.0
290
     0
  0
SCALE
  5
4B
102
{ACAD_REACTORS
330
42
102
}
330
42
100
AcDbScale
 70
     0
300
1/4" = 1'-0"
140
0.25
141
12.0
290
     0
  0
SCALE
  5
4C
102
{ACAD_REACTORS
330
42
102
}
330
42
100
AcDbScale
 70
     0
300
3/8" = 1'-0"
140
0.375
141
12.0
290
     0
  0
SCALE
  5
4D
102
{ACAD_REACTORS
330
42
102
}
330
42
100
AcDbScale
 70
     0
300
1/2" = 1'-0"
140
0.5
141
12.0
290
     0
  0
SCALE
  5
4E
102
{ACAD_REACTORS
330
42
102
}
330
42
100
AcDbScale
 70
     0
300
3/4" = 1'-0"
140
0.75
141
12.0
290
     0
  0
SCALE
  5
4F
102
{ACAD_REACTORS
330
42
102
}
330
42
100
AcDbScale
 70
     0
300
1" = 1'-0"
140
1.0
141
12.0
290
     0
  0
SCALE
  5
50
102
{ACAD_REACTORS
330
42
102
}
330
42
100
AcDbScale
 70
     0
300
1-1/2" = 1'-0"
140
1.5
141
12.0
290
     0
  0
SCALE
  5
51
102
{ACAD_REACTORS
330
42
102
}
330
42
100
AcDbScale
 70
     0
300
3" = 1'-0"
140
3.0
141
12.0
290
     0
  0
SCALE
  5
52
102
{ACAD_REACTORS
330
42
102
}
330
42
100
AcDbScale
 70
     0
300
6" = 1'-0"
140
6.0
141
12.0
290
     0
  0
SCALE
  5
53
102
{ACAD_REACTORS
330
42
102
}
330
42
100
AcDbScale
 70
     0
300
1'-0" = 1'-0"
140
12.0
141
12.0
290
     0
  0
TABLESTYLE
  5
65
102
{ACAD_XDICTIONARY
360
887
102
}
102
{ACAD_REACTORS
330
64
102
}
330
64
100
AcDbTableStyle
  3
Standard
 70
     0
 71
     0
 40
0.06
 41
0.06
280
     0
281
     0
  7
Standard
140
0.18
170
     2
 62
     0
 63
     7
283
     0
274
    -2
284
     1
 64
     0
275
    -2
285
     1
 65
     0
276
    -2
286
     1
 66
     0
277
    -2
287
     1
 67
     0
278
    -2
288
     1
 68
     0
279
    -2
289
     1
 69
     0
  7
Standard
140
0.25
170
     5
 62
     0
 63
     7
283
     0
274
    -2
284
     1
 64
     0
275
    -2
285
     1
 65
     0
276
    -2
286
     1
 66
     0
277
    -2
287
     1
 67
     0
278
    -2
288
     1
 68
     0
279
    -2
289
     1
 69
     0
  7
Standard
140
0.18
170
     5
 62
     0
 63
     7
283
     0
274
    -2
284
     1
 64
     0
275
    -2
285
     1
 65
     0
276
    -2
286
     1
 66
     0
277
    -2
287
     1
 67
     0
278
    -2
288
     1
 68
     0
279
    -2
289
     1
 69
     0
  0
VISUALSTYLE
  5
2F
102
{ACAD_XDICTIONARY
360
89A
102
}
102
{ACAD_REACTORS
330
29
102
}
330
29
100
AcDbVisualStyle
  2
2dWireframe
 70
     4
 71
     0
 72
     2
 73
     0
 90
        0
 40
-0.6
 41
-30.0
 62
     5
 63
     7
 74
     1
 91
        4
 64
     7
 65
   257
 75
     1
175
     1
 42
1.0
 92
        0
 66
   257
 43
1.0
 76
     1
 77
     6
 78
     2
 67
     7
 79
     5
170
     0
171
     0
290
     0
174
     0
 93
        1
 44
0.0
173
     0
291
     0
 45
0.0
1001
ACAD
1000
AcDbSavedByObjectVersion
1070
     0
  0
VISUALSTYLE
  5
2E
102
{ACAD_XDICTIONARY
360
898
102
}
102
{ACAD_REACTORS
330
29
102
}
330
29
100
AcDbVisualStyle
  2
Basic
 70
     7
 71
     1
 72
     0
 73
     1
 90
        0
 40
-0.6
 41
-30.0
 62
     5
 63
     7
 74
     0
 91
        4
 64
     7
 65
   257
 75
     1
175
     1
 42
1.0
 92
        8
 66
     7
 43
1.0
 76
     1
 77
     6
 78
     2
 67
     7
 79
     5
170
     0
171
     0
290
     0
174
     0
 93
        1
 44
0.0
173
     0
291
     1
 45
0.0
1001
ACAD
1000
AcDbSavedByObjectVersion
1070
     0
  0
VISUALSTYLE
  5
35
102
{ACAD_XDICTIONARY
360
8A6
102
}
102
{ACAD_REACTORS
330
29
102
}
330
29
100
AcDbVisualStyle
  2
Brighten
 70
    12
 71
     2
 72
     2
 73
     0
 90
        0
 40
-0.6
 41
-30.0
 62
     5
 63
     7
 74
     1
 91
        4
 64
     7
 65
   257
 75
     1
175
     1
 42
1.0
 92
        8
 66
     7
 43
1.0
 76
     1
 77
     6
 78
     2
 67
     7
 79
     5
170
     0
171
     0
290
     0
174
     0
 93
        1
 44
50.0
173
     0
291
     1
 45
0.0
1001
ACAD
1000
AcDbSavedByObjectVersion
1070
     0
  0
VISUALSTYLE
  5
39
102
{ACAD_XDICTIONARY
360
8AE
102
}
102
{ACAD_REACTORS
330
29
102
}
330
29
100
AcDbVisualStyle
  2
ColorChange
 70
    16
 71
     2
 72
     2
 73
     3
 90
        0
 40
-0.6
 41
-30.0
 62
     5
 63
     8
 74
     1
 91
        4
 64
     7
 65
   257
 75
     1
175
     1
 42
1.0
 92
        8
 66
     8
 43
1.0
 76
     1
 77
     6
 78
     2
 67
     7
 79
     5
170
     0
171
     0
290
     0
174
     0
 93
        1
 44
0.0
173
     0
291
     1
 45
0.0
1001
ACAD
1000
AcDbSavedByObjectVersion
1070
     0
  0
VISUALSTYLE
  5
32
102
{ACAD_XDICTIONARY
360
8A0
102
}
102
{ACAD_REACTORS
330
29
102
}
330
29
100
AcDbVisualStyle
  2
Conceptual
 70
     9
 71
     3
 72
     2
 73
     0
 90
        0
 40
-0.6
 41
-30.0
 62
     5
 63
     7
 74
     2
 91
        2
 64
     7
 65
   257
 75
     1
175
     1
 42
179.0
 92
        8
 66
     7
 43
1.0
 76
     1
 77
     6
 78
     2
 67
     7
 79
     3
170
     0
171
     0
290
     0
174
     0
 93
        1
 44
0.0
173
     0
291
     0
 45
0.0
1001
ACAD
1000
AcDbSavedByObjectVersion
1070
     0
  0
VISUALSTYLE
  5
34
102
{ACAD_XDICTIONARY
360
8A4
102
}
102
{ACAD_REACTORS
330
29
102
}
330
29
100
AcDbVisualStyle
  2
Dim
 70
    11
 71
     2
 72
     2
 73
     0
 90
        0
 40
-0.6
 41
-30.0
 62
     5
 63
     7
 74
     1
 91
        4
 64
     7
 65
   257
 75
     1
175
     1
 42
1.0
 92
        8
 66
     7
 43
1.0
 76
     1
 77
     6
 78
     2
 67
     7
 79
     5
170
     0
171
     0
290
     0
174
     0
 93
        1
 44
-50.0
173
     0
291
     1
 45
0.0
1001
ACAD
1000
AcDbSavedByObjectVersion
1070
     0
  0
VISUALSTYLE
  5
41
102
{ACAD_XDICTIONARY
360
8BE
102
}
102
{ACAD_REACTORS
330
29
102
}
330
29
100
AcDbVisualStyle
  2
EdgeColorOff
 70
    22
 71
     2
 72
     2
 73
     0
 90
        0
 40
-0.6
 41
-30.0
 62
     5
 63
     7
 74
     1
 91
        4
 64
     7
 65
   257
 75
     1
175
     1
 42
1.0
 92
        8
 66
     7
 43
1.0
 76
     1
 77
     6
 78
     2
 67
     7
 79
     5
170
     0
171
     0
290
     0
174
     0
 93
        1
 44
0.0
173
     0
291
     1
 45
0.0
1001
ACAD
1000
AcDbSavedByObjectVersion
1070
     0
  0
VISUALSTYLE
  5
38
102
{ACAD_XDICTIONARY
360
8AC
102
}
102
{ACAD_REACTORS
330
29
102
}
330
29
100
AcDbVisualStyle
  2
Facepattern
 70
    15
 71
     2
 72
     2
 73
     0
 90
        0
 40
-0.6
 41
-30.0
 62
     5
 63
     7
 74
     1
 91
        4
 64
     7
 65
   257
 75
     1
175
     1
 42
1.0
 92
        8
 66
     7
 43
1.0
 76
     1
 77
     6
 78
     2
 67
     7
 79
     5
170
     0
171
     0
290
     0
174
     0
 93
        1
 44
0.0
173
     0
291
     1
 45
0.0
1001
ACAD
1000
AcDbSavedByObjectVersion
1070
     0
  0
VISUALSTYLE
  5
2A
102
{ACAD_XDICTIONARY
360
890
102
}
102
{ACAD_REACTORS
330
29
102
}
330
29
100
AcDbVisualStyle
  2
Flat
 70
     0
 71
     2
 72
     1
 73
     1
 90
        2
 40
-0.6
 41
30.0
 62
     5
 63
     7
 74
     0
 91
        0
 64
     7
 65
   257
 75
     1
175
     1
 42
1.0
 92
        8
 66
     7
 43
1.0
 76
     1
 77
     6
 78
     2
 67
     7
 79
     5
170
     0
171
     0
290
     0
174
     0
 93
       13
 44
0.0
173
     0
291
     1
 45
0.0
1001
ACAD
1000
AcDbSavedByObjectVersion
1070
     0
  0
VISUALSTYLE
  5
2B
102
{ACAD_XDICTIONARY
360
892
102
}
102
{ACAD_REACTORS
330
29
102
}
330
29
100
AcDbVisualStyle
  2
FlatWithEdges
 70
     1
 71
     2
 72
     1
 73
     1
 90
        2
 40
-0.6
 41
30.0
 62
     5
 63
     7
 74
     1
 91
        0
 64
     7
 65
   257
 75
     1
175
     1
 42
1.0
 92
        0
 66
   257
 43
1.0
 76
     1
 77
     6
 78
     2
 67
     7
 79
     5
170
     0
171
     0
290
     0
174
     0
 93
       13
 44
0.0
173
     0
291
     1
 45
0.0
1001
ACAD
1000
AcDbSavedByObjectVersion
1070
     0
  0
VISUALSTYLE
  5
2C
102
{ACAD_XDICTIONARY
360
894
102
}
102
{ACAD_REACTORS
330
29
102
}
330
29
100
AcDbVisualStyle
  2
Gouraud
 70
     2
 71
     2
 72
     2
 73
     1
 90
        2
 40
-0.6
 41
30.0
 62
     5
 63
     7
 74
     0
 91
        0
 64
     7
 65
   257
 75
     1
175
     1
 42
1.0
 92
        0
 66
     7
 43
1.0
 76
     1
 77
     6
 78
     2
 67
     7
 79
     5
170
     0
171
     0
290
     0
174
     0
 93
       13
 44
0.0
173
     0
291
     1
 45
0.0
1001
ACAD
1000
AcDbSavedByObjectVersion
1070
     0
  0
VISUALSTYLE
  5
2D
102
{ACAD_XDICTIONARY
360
896
102
}
102
{ACAD_REACTORS
330
29
102
}
330
29
100
AcDbVisualStyle
  2
GouraudWithEdges
 70
     3
 71
     2
 72
     2
 73
     1
 90
        2
 40
-0.6
 41
30.0
 62
     5
 63
     7
 74
     1
 91
        0
 64
     7
 65
   257
 75
     1
175
     1
 42
1.0
 92
        0
 66
   257
 43
1.0
 76
     1
 77
     6
 78
     2
 67
     7
 79
     5
170
     0
171
     0
290
     0
174
     0
 93
       13
 44
0.0
173
     0
291
     1
 45
0.0
1001
ACAD
1000
AcDbSavedByObjectVersion
1070
     0
  0
VISUALSTYLE
  5
31
102
{ACAD_XDICTIONARY
360
89E
102
}
102
{ACAD_REACTORS
330
29
102
}
330
29
100
AcDbVisualStyle
  2
Hidden
 70
     6
 71
     1
 72
     2
 73
     2
 90
        0
 40
-0.6
 41
-30.0
 62
     5
 63
     7
 74
     2
 91
        2
 64
     7
 65
   257
 75
     2
175
     1
 42
40.0
 92
        0
 66
   257
 43
1.0
 76
     1
 77
     6
 78
     2
 67
     7
 79
     3
170
     0
171
     0
290
     0
174
     0
 93
        1
 44
0.0
173
     0
291
     0
 45
0.0
1001
ACAD
1000
AcDbSavedByObjectVersion
1070
     0
  0
VISUALSTYLE
  5
3F
102
{ACAD_XDICTIONARY
360
8BA
102
}
102
{ACAD_REACTORS
330
29
102
}
330
29
100
AcDbVisualStyle
  2
JitterOff
 70
    20
 71
     2
 72
     2
 73
     0
 90
        0
 40
-0.6
 41
-30.0
 62
     5
 63
     7
 74
     1
 91
        4
 64
     7
 65
   257
 75
     1
175
     1
 42
1.0
 92
       10
 66
     7
 43
1.0
 76
     1
 77
     6
 78
     2
 67
     7
 79
     5
170
     0
171
     0
290
     0
174
     0
 93
        1
 44
0.0
173
     0
291
     1
 45
0.0
1001
ACAD
1000
AcDbSavedByObjectVersion
1070
     0
  0
VISUALSTYLE
  5
37
102
{ACAD_XDICTIONARY
360
8AA
102
}
102
{ACAD_REACTORS
330
29
102
}
330
29
100
AcDbVisualStyle
  2
Linepattern
 70
    14
 71
     2
 72
     2
 73
     0
 90
        0
 40
-0.6
 41
-30.0
 62
     5
 63
     7
 74
     1
 91
        4
 64
     7
 65
   257
 75
     7
175
     7
 42
1.0
 92
        8
 66
     7
 43
1.0
 76
     1
 77
     6
 78
     2
 67
     7
 79
     5
170
     0
171
     0
290
     0
174
     0
 93
        1
 44
0.0
173
     0
291
     1
 45
0.0
1001
ACAD
1000
AcDbSavedByObjectVersion
1070
     0
  0
VISUALSTYLE
  5
40
102
{ACAD_XDICTIONARY
360
8BC
102
}
102
{ACAD_REACTORS
330
29
102
}
330
29
100
AcDbVisualStyle
  2
OverhangOff
 70
    21
 71
     2
 72
     2
 73
     0
 90
        0
 40
-0.6
 41
-30.0
 62
     5
 63
     7
 74
     1
 91
        4
 64
     7
 65
   257
 75
     1
175
     1
 42
1.0
 92
        9
 66
     7
 43
1.0
 76
     1
 77
     6
 78
     2
 67
     7
 79
     5
170
     0
171
     0
290
     0
174
     0
 93
        1
 44
0.0
173
     0
291
     1
 45
0.0
1001
ACAD
1000
AcDbSavedByObjectVersion
1070
     0
  0
VISUALSTYLE
  5
33
102
{ACAD_XDICTIONARY
360
8A2
102
}
102
{ACAD_REACTORS
330
29
102
}
330
29
100
AcDbVisualStyle
  2
Realistic
 70
     8
 71
     2
 72
     3
 73
     0
 90
        2
 40
-0.6
 41
30.0
 62
     5
 63
     7
 74
     0
 91
        0
 64
     7
 65
   257
 75
     1
175
     1
 42
1.0
 92
        8
 66
   257
 43
1.0
 76
     1
 77
     6
 78
     2
 67
     7
 79
     3
170
     0
171
     0
290
     0
174
     0
 93
       13
 44
0.0
173
     0
291
     0
 45
0.0
1001
ACAD
1000
AcDbSavedByObjectVersion
1070
     0
  0
VISUALSTYLE
  5
3E
102
{ACAD_XDICTIONARY
360
8B8
102
}
102
{ACAD_REACTORS
330
29
102
}
330
29
100
AcDbVisualStyle
  2
Shaded
 70
    27
 71
     2
 72
     2
 73
     1
 90
        2
 40
-0.6
 41
30.0
 62
     5
 63
     7
 74
     0
 91
        4
 64
     7
 65
   257
 75
     1
175
     1
 42
1.0
 92
        8
 66
   257
 43
1.0
 76
     1
 77
     6
 78
     2
 67
     8
 79
     3
170
     0
171
     0
290
     0
174
     0
 93
        5
 44
0.0
173
     0
291
     0
 45
0.0
1001
ACAD
1000
AcDbSavedByObjectVersion
1070
     0
  0
VISUALSTYLE
  5
3D
102
{ACAD_XDICTIONARY
360
8B6
102
}
102
{ACAD_REACTORS
330
29
102
}
330
29
100
AcDbVisualStyle
  2
Shaded with edges
 70
    26
 71
     2
 72
     2
 73
     1
 90
        2
 40
-0.6
 41
30.0
 62
     5
 63
     7
 74
     1
 91
       10
 64
     7
 65
   257
 75
     2
175
     1
 42
1.0
 92
        8
 66
   257
 43
1.0
 76
     1
 77
     6
 78
     2
 67
     7
 79
     3
170
     0
171
     0
290
     0
174
     0
 93
        5
 44
0.0
173
     0
291
     0
 45
0.0
1001
ACAD
1000
AcDbSavedByObjectVersion
1070
     0
  0
VISUALSTYLE
  5
3A
102
{ACAD_XDICTIONARY
360
8B0
102
}
102
{ACAD_REACTORS
330
29
102
}
330
29
100
AcDbVisualStyle
  2
Shades of Gray
 70
    23
 71
     2
 72
     2
 73
     3
 90
        0
 40
-0.6
 41
-30.0
 62
     5
 63
     7
 74
     2
 91
        2
 64
     7
 65
     7
 75
     1
175
     1
 42
40.0
 92
        8
 66
     7
 43
1.0
 76
     1
 77
     6
 78
     2
 67
     7
 79
     3
170
     0
171
     0
290
     0
174
     0
 93
        1
 44
0.0
173
     0
291
     0
 45
0.0
1001
ACAD
1000
AcDbSavedByObjectVersion
1070
     0
  0
VISUALSTYLE
  5
3B
102
{ACAD_XDICTIONARY
360
8B2
102
}
102
{ACAD_REACTORS
330
29
102
}
330
29
100
AcDbVisualStyle
  2
Sketchy
 70
    24
 71
     1
 72
     2
 73
     2
 90
        0
 40
-0.6
 41
-30.0
 62
     5
 63
     7
 74
     2
 91
        2
 64
     7
 65
     7
 75
     1
175
     1
 42
40.0
 92
       11
 66
     7
 43
1.0
 76
     1
 77
     6
 78
     2
 67
     7
 79
     6
170
     0
171
     0
290
     0
174
     0
 93
        1
 44
0.0
173
     0
291
     0
 45
0.0
1001
ACAD
1000
AcDbSavedByObjectVersion
1070
     0
  0
VISUALSTYLE
  5
36
102
{ACAD_XDICTIONARY
360
8A8
102
}
102
{ACAD_REACTORS
330
29
102
}
330
29
100
AcDbVisualStyle
  2
Thicken
 70
    13
 71
     2
 72
     2
 73
     0
 90
        0
 40
-0.6
 41
-30.0
 62
     5
 63
     7
 74
     1
 91
        4
 64
     7
 65
   257
 75
     1
175
     1
 42
1.0
 92
       12
 66
     7
 43
1.0
 76
     1
 77
     6
 78
     2
 67
     7
 79
     5
170
     0
171
     0
290
     0
174
     0
 93
        1
 44
0.0
173
     0
291
     1
 45
0.0
1001
ACAD
1000
AcDbSavedByObjectVersion
1070
     0
  0
VISUALSTYLE
  5
30
102
{ACAD_XDICTIONARY
360
89C
102
}
102
{ACAD_REACTORS
330
29
102
}
330
29
100
AcDbVisualStyle
  2
Wireframe
 70
     5
 71
     0
 72
     2
 73
     0
 90
        0
 40
-0.6
 41
-30.0
 62
     5
 63
     7
 74
     1
 91
        4
 64
     7
 65
   257
 75
     1
175
     1
 42
1.0
 92
        0
 66
   257
 43
1.0
 76
     1
 77
     6
 78
     2
 67
     7
 79
     3
170
     0
171
     0
290
     0
174
     0
 93
        1
 44
0.0
173
     0
291
     0
 45
0.0
1001
ACAD
1000
AcDbSavedByObjectVersion
1070
     0
  0
VISUALSTYLE
  5
3C
102
{ACAD_XDICTIONARY
360
8B4
102
}
102
{ACAD_REACTORS
330
29
102
}
330
29
100
AcDbVisualStyle
  2
X-Ray
 70
    25
 71
     2
 72
     2
 73
     1
 90
        1
 40
0.5
 41
-30.0
 62
     5
 63
     7
 74
     1
 91
        0
 64
     7
 65
   257
 75
     1
175
     1
 42
1.0
 92
        8
 66
     7
 43
1.0
 76
     1
 77
     6
 78
     2
 67
     7
 79
     3
170
     0
171
     0
290
     0
174
     0
 93
       13
 44
0.0
173
     0
291
     0
 45
0.0
1001
ACAD
1000
AcDbSavedByObjectVersion
1070
     0
  0
DICTIONARYVAR
  5
79
102
{ACAD_REACTORS
330
76
102
}
330
76
100
DictionaryVariables
280
     0
  1
1:1
  0
DICTIONARYVAR
  5
78
102
{ACAD_REACTORS
330
76
102
}
330
76
100
DictionaryVariables
280
     0
  1
STANDARD
  0
DICTIONARYVAR
  5
77
102
{ACAD_REACTORS
330
76
102
}
330
76
100
DictionaryVariables
280
     0
  1
STANDARD
  0
DICTIONARYVAR
  5
885
102
{ACAD_REACTORS
330
76
102
}
330
76
100
DictionaryVariables
280
     0
  1
1
  0
DICTIONARYVAR
  5
884
102
{ACAD_REACTORS
330
76
102
}
330
76
100
DictionaryVariables
280
     0
  1
1
  0
DICTIONARYVAR
  5
883
102
{ACAD_REACTORS
330
76
102
}
330
76
100
DictionaryVariables
280
     0
  1
0
  0
DICTIONARYVAR
  5
880
102
{ACAD_REACTORS
330
76
102
}
330
76
100
DictionaryVariables
280
     0
  1
0
  0
DICTIONARYVAR
  5
881
102
{ACAD_REACTORS
330
76
102
}
330
76
100
DictionaryVariables
280
     0
  1
0
  0
DICTIONARYVAR
  5
87F
102
{ACAD_REACTORS
330
76
102
}
330
76
100
DictionaryVariables
280
     0
  1
2
  0
DICTIONARYVAR
  5
87E
102
{ACAD_REACTORS
330
76
102
}
330
76
100
DictionaryVariables
280
     0
  1
1
  0
DICTIONARYVAR
  5
882
102
{ACAD_REACTORS
330
76
102
}
330
76
100
DictionaryVariables
280
     0
  1
127
  0
DICTIONARYVAR
  5
886
102
{ACAD_REACTORS
330
76
102
}
330
76
100
DictionaryVariables
280
     0
  1
2
  0
DICTIONARY
  5
8C2
330
6B
100
AcDbDictionary
280
     1
281
     1
  3
ACAD_XREC_ROUNDTRIP
360
8C3
  0
DICTIONARY
  5
8C6
330
73
100
AcDbDictionary
280
     1
281
     1
  3
ACAD_XREC_ROUNDTRIP
360
8C7
  0
DICTIONARY
  5
8C4
330
6F
100
AcDbDictionary
280
     1
281
     1
  3
ACAD_XREC_ROUNDTRIP
360
8C5
  0
DICTIONARY
  5
1A
330
19
100
AcDbDictionary
280
     1
281
     1
  3
ACAD_XREC_ROUNDTRIP
360
88E
  3
BUMPTILE
360
1C
  3
DIFFUSETILE
360
1B
  3
OPACITYTILE
360
1F
  3
REFLECTIONTILE
360
1E
  3
REFRACTIONTILE
360
20
  3
SPECULARTILE
360
1D
  0
DICTIONARY
  5
12
330
11
100
AcDbDictionary
280
     1
281
     1
  3
ACAD_XREC_ROUNDTRIP
360
88D
  3
BUMPTILE
360
14
  3
DIFFUSETILE
360
13
  3
FBXASSET
360
10B
  3
OPACITYTILE
360
17
  3
REFLECTIONTILE
360
16
  3
REFRACTIONTILE
360
18
  3
SPECULARTILE
360
15
  0
DICTIONARY
  5
22
330
21
100
AcDbDictionary
280
     1
281
     1
  3
ACAD_XREC_ROUNDTRIP
360
88F
  3
BUMPTILE
360
24
  3
DIFFUSETILE
360
23
  3
FBXASSET
360
BA
  3
OPACITYTILE
360
27
  3
REFLECTIONTILE
360
26
  3
REFRACTIONTILE
360
28
  3
SPECULARTILE
360
25
  0
DICTIONARY
  5
889
330
67
100
AcDbDictionary
280
     1
281
     1
  3
ACAD_XREC_ROUNDTRIP
360
88A
  0
DICTIONARY
  5
887
330
65
100
AcDbDictionary
280
     1
281
     1
  3
ACAD_ROUNDTRIP_2008_TABLESTYLE_CELLSTYLEMAP
360
888
  3
ACAD_XREC_ROUNDTRIP
360
8C0
  0
DICTIONARY
  5
89A
330
2F
100
AcDbDictionary
280
     1
281
     1
  3
ACAD_XREC_ROUNDTRIP
360
89B
  0
DICTIONARY
  5
898
330
2E
100
AcDbDictionary
280
     1
281
     1
  3
ACAD_XREC_ROUNDTRIP
360
899
  0
DICTIONARY
  5
8A6
330
35
100
AcDbDictionary
280
     1
281
     1
  3
ACAD_XREC_ROUNDTRIP
360
8A7
  0
DICTIONARY
  5
8AE
330
39
100
AcDbDictionary
280
     1
281
     1
  3
ACAD_XREC_ROUNDTRIP
360
8AF
  0
DICTIONARY
  5
8A0
330
32
100
AcDbDictionary
280
     1
281
     1
  3
ACAD_XREC_ROUNDTRIP
360
8A1
  0
DICTIONARY
  5
8A4
330
34
100
AcDbDictionary
280
     1
281
     1
  3
ACAD_XREC_ROUNDTRIP
360
8A5
  0
DICTIONARY
  5
8BE
330
41
100
AcDbDictionary
280
     1
281
     1
  3
ACAD_XREC_ROUNDTRIP
360
8BF
  0
DICTIONARY
  5
8AC
330
38
100
AcDbDictionary
280
     1
281
     1
  3
ACAD_XREC_ROUNDTRIP
360
8AD
  0
DICTIONARY
  5
890
330
2A
100
AcDbDictionary
280
     1
281
     1
  3
ACAD_XREC_ROUNDTRIP
360
891
  0
DICTIONARY
  5
892
330
2B
100
AcDbDictionary
280
     1
281
     1
  3
ACAD_XREC_ROUNDTRIP
360
893
  0
DICTIONARY
  5
894
330
2C
100
AcDbDictionary
280
     1
281
     1
  3
ACAD_XREC_ROUNDTRIP
360
895
  0
DICTIONARY
  5
896
330
2D
100
AcDbDictionary
280
     1
281
     1
  3
ACAD_XREC_ROUNDTRIP
360
897
  0
DICTIONARY
  5
89E
330
31
100
AcDbDictionary
280
     1
281
     1
  3
ACAD_XREC_ROUNDTRIP
360
89F
  0
DICTIONARY
  5
8BA
330
3F
100
AcDbDictionary
280
     1
281
     1
  3
ACAD_XREC_ROUNDTRIP
360
8BB
  0
DICTIONARY
  5
8AA
330
37
100
AcDbDictionary
280
     1
281
     1
  3
ACAD_XREC_ROUNDTRIP
360
8AB
  0
DICTIONARY
  5
8BC
330
40
100
AcDbDictionary
280
     1
281
     1
  3
ACAD_XREC_ROUNDTRIP
360
8BD
  0
DICTIONARY
  5
8A2
330
33
100
AcDbDictionary
280
     1
281
     1
  3
ACAD_XREC_ROUNDTRIP
360
8A3
  0
DICTIONARY
  5
8B8
330
3E
100
AcDbDictionary
280
     1
281
     1
  3
ACAD_XREC_ROUNDTRIP
360
8B9
  0
DICTIONARY
  5
8B6
330
3D
100
AcDbDictionary
280
     1
281
     1
  3
ACAD_XREC_ROUNDTRIP
360
8B7
  0
DICTIONARY
  5
8B0
330
3A
100
AcDbDictionary
280
     1
281
     1
  3
ACAD_XREC_ROUNDTRIP
360
8B1
  0
DICTIONARY
  5
8B2
330
3B
100
AcDbDictionary
280
     1
281
     1
  3
ACAD_XREC_ROUNDTRIP
360
8B3
  0
DICTIONARY
  5
8A8
330
36
100
AcDbDictionary
280
     1
281
     1
  3
ACAD_XREC_ROUNDTRIP
360
8A9
  0
DICTIONARY
  5
89C
330
30
100
AcDbDictionary
280
     1
281
     1
  3
ACAD_XREC_ROUNDTRIP
360
89D
  0
DICTIONARY
  5
8B4
330
3C
100
AcDbDictionary
280
     1
281
     1
  3
ACAD_XREC_ROUNDTRIP
360
8B5
  0
XRECORD
  5
8C3
102
{ACAD_REACTORS
330
8C2
102
}
330
8C2
100
AcDbXrecord
280
     1
102
SHADEPLOT
 70
     0
102
SHADEPLOTRESLEVEL
 70
     2
102
SHADEPLOTCUSTOMDPI
 70
   300
  0
XRECORD
  5
8C7
102
{ACAD_REACTORS
330
8C6
102
}
330
8C6
100
AcDbXrecord
280
     1
102
SHADEPLOT
 70
     0
102
SHADEPLOTRESLEVEL
 70
     2
102
SHADEPLOTCUSTOMDPI
 70
   300
  0
XRECORD
  5
8C5
102
{ACAD_REACTORS
330
8C4
102
}
330
8C4
100
AcDbXrecord
280
     1
102
SHADEPLOT
 70
     0
102
SHADEPLOTRESLEVEL
 70
     2
102
SHADEPLOTCUSTOMDPI
 70
   300
  0
XRECORD
  5
88E
102
{ACAD_REACTORS
330
1A
102
}
330
1A
100
AcDbXrecord
280
     1
102
MATERIAL
148
0.0
149
0.0
149
0.0
 93
        0
 94
      127
282
     0
 72
     0
 77
     0
171
     0
175
     0
179
     0
273
     0
  0
XRECORD
  5
1C
102
{ACAD_REACTORS
330
1A
102
}
330
1A
100
AcDbXrecord
280
     1
270
     1
271
     1
  0
XRECORD
  5
1B
102
{ACAD_REACTORS
330
1A
102
}
330
1A
100
AcDbXrecord
280
     1
270
     1
271
     1
  0
XRECORD
  5
1F
102
{ACAD_REACTORS
330
1A
102
}
330
1A
100
AcDbXrecord
280
     1
270
     1
271
     1
  0
XRECORD
  5
1E
102
{ACAD_REACTORS
330
1A
102
}
330
1A
100
AcDbXrecord
280
     1
270
     1
271
     1
  0
XRECORD
  5
20
102
{ACAD_REACTORS
330
1A
102
}
330
1A
100
AcDbXrecord
280
     1
270
     1
271
     1
  0
XRECORD
  5
1D
102
{ACAD_REACTORS
330
1A
102
}
330
1A
100
AcDbXrecord
280
     1
270
     1
271
     1
  0
XRECORD
  5
88D
102
{ACAD_REACTORS
330
12
102
}
330
12
100
AcDbXrecord
280
     1
102
MATERIAL
148
0.0
149
0.0
149
0.0
 93
        0
 94
      127
282
     0
 72
     0
 77
     0
171
     0
175
     0
179
     0
273
     0
  0
XRECORD
  5
14
102
{ACAD_REACTORS
330
12
102
}
330
12
100
AcDbXrecord
280
     1
270
     1
271
     1
  0
XRECORD
  5
13
102
{ACAD_REACTORS
330
12
102
}
330
12
100
AcDbXrecord
280
     1
270
     1
271
     1
  0
XRECORD
  5
10B
102
{ACAD_REACTORS
330
12
102
}
330
12
100
AcDbXrecord
280
     1
 70
     1
 90
1959938040
 71
     1
  1
9A3385CF-C3F3-4A26-A111-91020E2A51BC
311
504B03040A0000080000A75937403DEE336E79000000790000001B0000006175746F6465736B2D64657369676E2D7061636B6167652E786D6C3C3F786D6C2076657273696F6E3D22312E302220656E636F64696E673D227574662D3822203F3E3C666F726D6174733E3C666F726D61743E687474703A2F2F736368656D612E
311
6175746F6465736B2E636F6D2F64657369676E2D7061636B6167652F323030393C2F666F726D61743E3C2F666F726D6174733E504B0304140006080800A7593740D486FD9CA0000000F4000000130000005B436F6E74656E745F54797065735D2E786D6C7D8EC10E82300C865F65E91D8A1E8C310C0EEA1BF002731658846E
311
D98AC1B77784ABF1D8FE5FBFBF75BBCE937A534CCEB38643598122B6FEE978D0B0485F9C41B54DDD7D022595594E1A469170414C76A4D9A4D207E29CF43ECE46F218070CC6BECC4078ACAA135ACF422C856C0E68EA1BF5669944DDD7BCDE7B1F8E415D77AECB980613C2E4AC91FC167A2B244592486606FC29C8FD7F045B9A
311
EF7053A7E60B504B0304140006080800A75937406B62E085E90000007C01000008000000636F72652E786D6C8D90416EC3201045AF82668F0D268D6B0B13D58A7D825E0001715062B00C543D7E71E248EDAEAB19FDF96F66F4F9E97BBEA32FB306EB5D07B420808C535E5B377590E205BF033A09BE7A1F7FD90039399B0E36
311
19049F569F965D52DE45E362569DD766176508260252F7DC7410D4D5CCB290296647B8158B5437399982BEBA0CA764357A1EB13AEFB3176B56100339377D73AE31A9D81B3E8CC711F743DFE08F7A60B461CD30D694971B2C78B4F3EBBE5A8D8C4683A808AD30A1B8629F94B694B5F480C9B12584979BFD0F9416FD4F285917
311
59B5BFFBC40288ED91C740F072CB22974750B96EB9891F504B0304140006080800A759374055019EA25F0000007C00000007000000636E782E786D6C4DCB3B0E80201045D1AD90E915ED2CF8AC45050C11660C8261F98AB1B07AC9C97D42D718D865D3E909258CFD00CCE24AC6E326A164D74DC0B4128928FF326038472BA1
311
3128B1252AC747C6BAB984FC68F0B87FE8960A5C09FE86CFB69FBA01504B0304140006080800A75937408C83586066010000020300000C0000006662782F636F72652E786D6C8D52ED8E8230107C95A6FF4B5BF0F430A5E68CF804F702152A4784969496F8F8B77C18CF8B3186A434333BBBB30362776D1B3468D7D7D66498
311
470C236D0A5BD6A6CA70F067F289D14E0A67ADFF53869151ADCEF00863292A6743B74085355E1B0FA8B1A55E40D5F7DA63543470C9705FFCE856452A78A8E82F51A78A8BAA74C423A0A14E8ADE3B3080E621E389E5F9741574C6A508A12E17B62E615A7DAEB5C3326787749F1E3684C5C907591DD747B2CFF729F9DAE4094F
311
93343F6EB8A0A3580A5FB7377785D3CAEB12CB98F198304EE2E49BF32D4FB67C45D87ACB98A063F9832874E59BA2501B9FC48BDD59D663391A99887FDB42441EF56A003F540A3A8608AF29E1C7A0211008D9AB5373DBE302D0A00B6FDD0A98D2863B35A8266898CAD0F4083AB3D0796A009B3DED13BFE8F3BA077C40652AB0
311
A63C5C4FC18FD3C53C7589A2D38E0CFE8A8C75AD6AEEE6668BF7F33EE8A9BCB08D75EFA8E9B22A5DC2A4E3DF2B7F01504B0304140006080800A7593740B5CB1B427D0000009D0000000B0000006662782F636E782E786D6C4DCCD10A83201886E15B91FFDC654D5D821A52BB90581632D3703A76F9ABD1C18E3E78F87865F7
311
593D7ADBF4723128A82F04900D8F38B9B0282879C62DA04ECB1463FEBB010AE36A151C0C5A2E2996EDA4C9CE63F17957EFC2F344636A2EC48D62766F7B4C492FB0308DC18219CA872B1F48C3A0D2B2FA95F63DC2FA0B504B0304140006080800A7593740F7208A672B01000014020000310000006662782F41413136393937
311
342D354538432D343043392D394132412D3935413436443336443032352F636F72652E786D6C8D51CB6EC32010FC158B537AC006ECD038C24456D23FE80F109BA42831583CAA7C7E97DA91DA5B2E2C9A9D991DED8AC363BA17DFDA07E36C87684950A1EDE04663AF1D4AF18277A83848E19D8B7F68A8B06AD21DCA3092E2EA
311
5D9A576870366A1B01B56ED42BA842D01115C31D3E1D0AC3979E54A9520446B895B31A6EEAAA4B5A421B785284E82140B10CC92F927D4F79DBBE3778FBB13BE2861C5BDCF6ACC7EDB66FF8A9E627C2B6A25A8452A464C6556E4688632E46FB574DB2588A68A667FCC16B15F588242394614231AB3F29DDD37A4F1B4CF89E10
311
5165FA3F519AC71745C9D858B335EE220B4852512D0D294697CEF76718FD989D8F459EB7097A784392948411DEF27758C042850580276F56CF109D87056F6E676053606563DE4851E51B41F93D20D47C4FF903504B0304140006080800A7593740BED6E4954C01000033030000300000006662782F41413136393937342D35
311
4538432D343043392D394132412D3935413436443336443032352F636E782E786D6CD593BD6E032110845F05D1DF0FF6C98A2C0E4B29F20429D272B0B6893938F113C56F9FC5C68E1B1729D3A0D3EC30B3FAC4F1DDF76CC9178468BC1B296B7B4AC029AF8D3B8C34A77DF342C94EF0E07D7AB051E2E40C232D3215FC107C5E
311
AAA4612FB34DA85AE34E550C107D0E0A22CAE526B15E498B01E09A8C22CC13680D9ADC8DF8B58780ABA0389D493A02797BFD207EFA049522EF4A8AE05DE910BC9CB5E9C14489B232C69146758459B63227AF219E5A2D936C597BEB7AB2D36F1229176E95391852CA475A4E2AEA462D72E41D0E058F2920BD6A4AE705A890CB
311
628D9209217717E3D52378362E6D86EA35083EA09B6DD6C380619799E0C9CC501D2A804CA0A958F56CD5F4AC59ADDF19DBB2F5960D4DBFD9F63DEF8A5DF0C97B5B2F610C04BF10E55D0297A860BC2BE367F8AA8F681390B50FE73F804400B5F54AE79EF19FF97497F78DB802FE05E207504B0304140006080800A75937409E
311
ADA0659B0500007B100000340000006662782F41413136393937342D354538432D343043392D394132412D3935413436443336443032352F6F626A656374732E786D6CAD575D739B3814FD2B0CFB6C30B6D34D76081DC74E3A9E6EDA4E3DEDEC43663C3208A28D408C2452677FFD1E81C0E0DA8977A72F80847475EFB9E77E
311
287CBFCBB9F34CA562A2B876036FEC3AB48845C28AECDAAD743ABA749DF7512885D0BD65AE53909C5EBB66DA8DC24C8AAAB453094D49C5F5C1ECDDCD5F8E8A69415D27E644A96B57C58F34271EA9B448A87AF212A28997A53B2FF09A8543B19924E5E381D092485A68688AF902529C46A960381CBB7E14FAE67F149AA75D35
311
3DBDCAAFED199ECF0AA54911FF74D8819869305BDE4E2EAE4617B3D974347B370946377737CB51F0FB74BC78B7585CCD6FAF70B0D21292AC2692A66EF401D84816877EF32B0A2B56E8E9C42EB10EF2257D66C6536E347182D06FD674D659238FA91F8BA2A0718D15D0A8EDB3A2135AD22281CF1955D0AC87D078380C0C8EBD
311
DF5333B647F6A7CF43A0BFA327A8D5BD7DF73515DBBF61823A87415251C3C0064B6B68C3D5F11EE1AD10DCFE63CAC989A69211EE70B69544BEB811969A2551381063982C4D34180BDC085E687E0FE982307A9BE7C7B44C2BCE0D8DDDA88E820D62856A556BC6FEA172AF7D1F19E8045F19365C5A83F44B49DDE8AAA1C8E501
311
9B1A209D94930C2E879966E7747260E8C2C4E96AE9461FEFB6BBB589DDE387975294546A431F50AB755CFB3628599D82B33C6736B807AAEC41F90AE43F21D4F7AAC06F92ED66BB993D454B52A854C81CBE71C6CE688CC7D809EAA7F9EE7D857EB779E8BD5378C2D906AA5F80E7D086BE2F7B7046E133082FE4D49AB68E0947
311
DAB8670500322471B8C014F270BADDB9D10A590E5919BB088F02980C759FF119FA560C12457D52EF5D00CB83B4784682066C3523A146437EABE0DE4F3FA5B3FA60BBEC14BC17BF84AEF3E5FAE3BA922989E9BD8DE9254D59C1344ADC9E377D8506980F2C7AA22F3F844C60E8CF78AFFB78E7F62805B40DE606F8ACCDE966B0
311
3F7970408C7D9930E9267CE30418610A6B4FFE3D5331E59C145454EDB9AFD60F948D066213EC86C95D81D9171690A6F973108328D2B164A501B1AB565DD2F44E58F76DF5098C74A39B973FC94B3F7B6DF7B937165CC8CDF665D3A4A5A3507F1F72DB62E01B29A07B1D246DFC5BD037094BD34A21091EC1F5FB6AD1F79D490B
311
4811ADD4265A66B01FC145A4256D2B17D55A125452516C18EA26E2EEE8017DF980D432A016784A634579BA619C57F926651CD5689393F2041CFF5FFF6D95971B928BAAD027640F54477518EA3E60AFFA4174FCE846EBFA3DBA41EE4D6872820CA6961CC16AE0DAABF9747A79B1B81B2DA677E89FE69377A3791004A3AB603C
311
19DF4EE617C10D4CB71AD54D5414B6A5A61FD1F0124A5B584966DDF76D85F8B149C08DEE89560F1F9AF06CDFDF561E7AE1D0C71ED4CB6EE33C7946DF4793B705EC571E15B4CA4B4E735A686262E8DE7CF0AF047DC64099667E95938C9E21E5F387F58131983963DF1713EFF4C7C15E3BBB30017954887EACF26D41183FD898
311
35487A659159FC5A9F74EFA6D0B44333B28E4167AA046709F260E26454E454231B9E5184644E15A8D7EFE9137BF73863F773D3216AB2E5B4D5E491A049E60A61019257B11ECE3BBFA1A9337DD5B58B72EB3DE1613385EB8033D72E9A74CD62AABC2D0AB469856AE1E052BF930767499171F4DACDA66EDCED32D80C4A72B7E4
311
9CFEC9DAD5A4706B00D24889BE010D11BC532B1385B56EF67FFC9F0C6FD57188C6E7B6D29D2DFB89CE98FA1884686394BD2DA08979B247EF10A8AF9B1578F59A012267DDB25E25412375A489CCEA9B82D1CFAA345F7EF1D1A138ABCF4EC9AB0CBE3C5FD2485290B932010E16811556664934A8BAF8E3E18B14B8C9E6CE1D03
311
051E1622CF456107737B1376D68FB8D7260F480BD45C48D4C3641C4C1EEA8B80BD9B6CB644518F24EA0913F0A9641DC403C78391CD6D1115A8F9D1ADF38D130EB8B95A3AB6A4CD20D412A59F550D2C68390AEA207ACC65D2C44A7F41F9EA5DC0AF974205892E3EFA17504B0304140006080000A75937400000000000000000
311
00000000350000006662782F41413136393937342D354538432D343043392D394132412D3935413436443336443032352F76657274696365732E62696E504B0304140006080800A7593740F270F1330600000004000000360000006662782F41413136393937342D354538432D343043392D394132412D3935413436443336
311
443032352F747269616E676C65732E62696E636660600000504B0304140006080000A7593740000000000000000000000000370000006662782F41413136393937342D354538432D343043392D394132412D3935413436443336443032352F617474726962757465732E62696E504B0304140006080800A7593740D5987DFC
311
8F00000041010000360000006662782F41413136393937342D354538432D343043392D394132412D3935413436443336443032352F6469726563746F72792E786D6C858F410EC2201045AF4266AF15DDB800BA74E7C21B903225242D6328188F2FA5C4183471359997F9FF81E89FF3C41E1816475E02DF1F80A11FC8386F25
311
A438EECEC07A250251FC3803E6F58C12560C4AD840E95E91C151A72936F496F35732D860FE635F62C8F2DA16B505C545B74125BAA2FA9E05D7CC053D063734D5C7665FD55B6B8D15D5E9BFEAFD8490FFA45E504B0304140006080800A759374078C9CE1DFC000000A00100003B0000006662782F41413136393937342D3545
311
38432D343043392D394132412D3935413436443336443032352F7265736F75726365732F636F72652E786D6C8D504B6EC32010BD8A357B6C3069525B98A8519C13F402084F5C94182C3E558F5F485CA9DD7533337A1FCDD313C7AFE55E7DA20FC6D901584DA142ABDD64EC3C408A57F20AD5510AEF5CFC2583CAAA05072830
311
48317B97D60DD2CE46B431A3D64DB8812A048C50E97B3E0608FA031755AB14B322DCEA55E99B9AB16675A6B34E8A107D0E503D9F9409D26370C96B0CA279B252A464A64D63A6FCD35C0D7A90233D77A7EEBC27B4E52F6477D95FC8693C75E4ED3072D6F16EBC1C98688A598A68969F8CDAA38A38816C296B0965A4E5EF8CF5
311
8CF76C47E8BEA7543445FEC794D6E99FA6646CE4ED16F7690B204B9007214553FACAEB5166DEA55BF90D504B010214000A0000080000A75937403DEE336E79000000790000001B00000000000000000000000000000000006175746F6465736B2D64657369676E2D7061636B6167652E786D6C504B01021400140006080800
311
A7593740D486FD9CA0000000F40000001300000000000000000000000000B20000005B436F6E74656E745F54797065735D2E786D6C504B01021400140006080800A75937406B62E085E90000007C010000080000000000000000000000000083010000636F72652E786D6C504B01021400140006080800A759374055019EA2
311
5F0000007C000000070000000000000000000000000092020000636E782E786D6C504B01021400140006080800A75937408C83586066010000020300000C00000000000000000000000000160300006662782F636F72652E786D6C504B01021400140006080800A7593740B5CB1B427D0000009D0000000B00000000000000
311
000000000000A60400006662782F636E782E786D6C504B01021400140006080800A7593740F7208A672B0100001402000031000000000000000000000000004C0500006662782F41413136393937342D354538432D343043392D394132412D3935413436443336443032352F636F72652E786D6C504B010214001400060808
311
00A7593740BED6E4954C010000330300003000000000000000000000000000C60600006662782F41413136393937342D354538432D343043392D394132412D3935413436443336443032352F636E782E786D6C504B01021400140006080800A75937409EADA0659B0500007B10000034000000000000000000000000006008
311
00006662782F41413136393937342D354538432D343043392D394132412D3935413436443336443032352F6F626A656374732E786D6C504B01021400140006080000A759374000000000000000000000000035000000000000000000000000004D0E00006662782F41413136393937342D354538432D343043392D39413241
311
2D3935413436443336443032352F76657274696365732E62696E504B01021400140006080800A7593740F270F13306000000040000003600000000000000000000000000A00E00006662782F41413136393937342D354538432D343043392D394132412D3935413436443336443032352F747269616E676C65732E62696E50
311
4B01021400140006080000A75937400000000000000000000000003700000000000000000000000000FA0E00006662782F41413136393937342D354538432D343043392D394132412D3935413436443336443032352F617474726962757465732E62696E504B01021400140006080800A7593740D5987DFC8F000000410100
311
0036000000000000000000000000004F0F00006662782F41413136393937342D354538432D343043392D394132412D3935413436443336443032352F6469726563746F72792E786D6C504B01021400140006080800A759374078C9CE1DFC000000A00100003B00000000000000000000000000321000006662782F41413136
311
393937342D354538432D343043392D394132412D3935413436443336443032352F7265736F75726365732F636F72652E786D6C504B0506000000000E000E0080040000871100000000
310
504B03040A0000080000A75937403DEE336E79000000790000001B0000006175746F6465736B2D64657369676E2D7061636B6167652E786D6C3C3F786D6C2076657273696F6E3D22312E302220656E636F64696E673D227574662D3822203F3E3C666F726D6174733E3C666F726D61743E687474703A2F2F736368656D612E
310
6175746F6465736B2E636F6D2F64657369676E2D7061636B6167652F323030393C2F666F726D61743E3C2F666F726D6174733E504B0304140006080800A7593740D486FD9CA0000000F4000000130000005B436F6E74656E745F54797065735D2E786D6C7D8EC10E82300C865F65E91D8A1E8C310C0EEA1BF002731658846E
310
D98AC1B77784ABF1D8FE5FBFBF75BBCE937A534CCEB38643598122B6FEE978D0B0485F9C41B54DDD7D022595594E1A469170414C76A4D9A4D207E29CF43ECE46F218070CC6BECC4078ACAA135ACF422C856C0E68EA1BF5669944DDD7BCDE7B1F8E415D77AECB980613C2E4AC91FC167A2B244592486606FC29C8FD7F045B9A
310
EF7053A7E60B504B0304140006080800A75937400AC97382EA0000007C01000008000000636F72652E786D6C8D90416EC3201045AF82668F0DD8AA1B0B13C58E73825E0001715162B00C543D7E71E248EDAEAB19FDF96F66F4F9F17BBEA32FB306EB5D07B420808C535E5B377590E215BF033A0ABE7A1F7FD90039399B0E36
310
19049F569F965D52DE45E362569DD766176508260252F7DC7410D4A799652153CC8E702B16A96E7232057D75194EC96AF43C6275DE67AFD6AC20EA036363D39F71457A82EB7A38E1D370B9E061A8C7FE7C604DC3465E6EB0E0D1CEAFFB6A35321A0D8211CA30A198551F94B6B46A698DC95B4B082F37FB1F282DFA9F50B22E
310
566C7FF7890510343FF218085E6E59E4F2082AD72D37F103504B0304140006080800A759374055019EA25F0000007C00000007000000636E782E786D6C4DCB3B0E80201045D1AD90E915ED2CF8AC45050C11660C8261F98AB1B07AC9C97D42D718D865D3E909258CFD00CCE24AC6E326A164D74DC0B4128928FF326038472B
310
A13128B1252AC747C6BAB984FC68F0B87FE8960A5C09FE86CFB69FBA01504B0304140006080800A7593740477EECFC66010000020300000C0000006662782F636F72652E786D6C8D52ED8E8230107C95A6FF4B3F24E7694A8D9F4F702F50A1728DD09AD2121FFF16C1785E8CB99094666667777640AEAE6D837A133AEB5D81
310
79C63032AEF495757581533C914F8C564A06EFE3AF328C9C6E4D8107182B59079F2E13547A178D8B803A5F9909D45D6722466503970277E5B76975A653848AEE9C5D7479D6B5C9780634D429D9C50006D0386438B13A1DAF928EB89229D96A626D05D3ECC99A8055BE10623FDFECC88C6D18C9F3ED9AACB78703D96EF3FD66
310
B710F3B9D84B3A88958CB6BDBB2B83D1D1545809C605619C88D917E74B3E5BF29CB08F2563920EE54FA274A9FE294AD6C59998EC8EB20E2B0E466EC49F6D21A2883ADD831FAA241D4284D72DE1E7A021100839EA6373DFE30C506FCAE8430E4CE5D383EA75930C4C65E8F6483AB2D0F9D600367BD947BCE9F3BE077C40ED6A
310
B0A6235C8F290ED3E538758AE26202E9E315391F5ADD3CCC8D161FE763D04B79E91B1FFEA3A6D3AA740A930E7FAFFA01504B0304140006080800A7593740EF6873BF7D0000009D0000000B0000006662782F636E782E786D6C4DCCD10AC2201886E15B91FFDC66A096A08ED6F43E467343723A4CA3CB6F8B1D74F4C1C3C72B
310
DBCF12D0DBE5974F51C1F94400B9F848A38FB3825A267C05D46A99532A7F374071589C829D41CB39A7BA1E34BA69A8A16C1A7C7C1EC885B85D682730ED39C1943186C5DD1ACCACB15D6F0D278442A365F32B6DBB87F517504B0304140006080800A759374027911C8D2B01000014020000310000006662782F363939413734
310
42392D344436302D343535352D394346452D3546454642444645363030342F636F72652E786D6C8D51CB6EC32010FC15C4293D60838DDD1261A2A689BFA03FE000495162B07854F9FCE2DA91DA5B2E2C9A9D991DEDF2DD7DBC816FED8371B683A4C010682B9D32F6D2C114CFE80D829DE0DEB9F88706811D46DDC11986825F
310
BC4BD30A4967A3B631A3D629BD8243083A42206FF9D3C120BFF43814438A9911AEC534C8EB70D10529723BF3040FD1E700601932BF50B48CBDBFD23D43F4D062449BA641ECA33FA2A63FF6FB437F6C31A6BC5C8482A764D42A372AC73167A3FDB326B358F068C6477CE9F510B582A2C2A44298A0AAFE24644BEA2DA108B75B
310
8C7939D3FF89D2A49E142563635DAD7117598082F0726908AE5C3ADD1E61F47D723E8279DE2668F902052E7085595333C6CB859A17903D5BBA7A86E87C5EF0E67ACAEC7A356EA9E0E57CA35C7E0F98EB7C4FF103504B0304140006080800A7593740D8712B825401000033030000300000006662782F36393941373442392D
310
344436302D343535352D394346452D3546454642444645363030342F636E782E786D6CBD93CD6EC32010845F0571F70FB665451126520F7D821E7AC5B049686CB00057CDDB7749489A4B0E95AA5E90353BCCAC3E61BEFB9A27F2093E186707CACA9A12B0CA69630F035DE3BED850B213DC3B171F6C945839C340934C053F78
310
B72E59D2B097EB14519D8C3D65D14370AB5710504E37C9E4949C30006CB1A208F3085A832677237EEDC1E32A288E67128F405E5FDE891B3F40C5C0AB942278953A044F676E7A3051A22619C240833AC22C4BB946A7219C4A2DA32C5979EB7AB2D34F1249176E95AB3724950F349D54E48D4AE4C82B1C0A1EA2477AD914CF0B
310
50219765324A46845C5D8C578FE0ABB1B1EFB2D720788FEEB6E9371B0CBBCC048F6686EC501E64044D4553B3A6A859D1B46F8C6D59BB655D51F7DBBAE655B20B3E3A37E54B1803DE2D44391BC1462A18AFD2F819BEEC23DA7864EDFCF9172011406EBDD2B967FC251FD6B75DF78F7CAACBFB465C1EFF02F10D504B03041400
310
06080800A7593740C5B35F2859070000941B0000340000006662782F36393941373442392D344436302D343535352D394346452D3546454642444645363030342F6F626A656374732E786D6CED59DD73A33610FF5718FA6C6C6C274D3A841BC7B9643C6DEE6ECEBD9B3E64869141266A84602491C4FDEBBBFA00033109EEA5
310
6FF76003425AEDFEF6534BF0E139A3CE23E682E4ECC2F5BD89EB6016E70961E9855BCAEDE8CC753E8401CF73D998E63A0C65F8C255C36E18A43C2F0B3B94E02D2AA9EC8C5E5FFEE5881833EC3A3145425CB822BEC719F25029F3048B072F411279E9F6D9F33D33B14D36E5A8B8EF102D10C74C02A730CE808A6398F2DB8F13
310
771C0663F53E0CD4BF9D351B346BDE3F6BACA56E7349989088C52F58EA90990D6269E6CFAF3E4E4FCE4727F3F96C343F9DFAA3CBEBCBAB91FFEB6CB23C5D2ECF171FCF81BD4D9E532B53820BCC12D0DFCE0DFD60ACDED4A25B040E711DE78CE15803095069B1BA040916B05503BE49FBD15712355E6B091BCF73F5DEB2D018
310
9EB5A9F4CD1A06448B2E0862B7AB24AEAE4DF9F2CDDF20B81862945C6009DC0AC941BB161E0E5EE18693606C46C360B3D705114E8624E6045187920D471C940253D59430300B2C19E51C1C48394A02AD39F3BA6D5BE0996FBBCE212EB725A5CA33DC503B5604EE87A5D09C917F30DF73DF44067802694BC2E499E552EE0AEC
310
86E7C1580F8681BACCA6F6A501D2D952940A8D8879DB1174A95C7F75E586BF5F6F9ED72A1C1CDEBCE07981B95446A7F4A8F90243B6578592DDD61FA439B5008431A0DA957B50BE02F29F207AEC5901BD71F23C7F9EDBB9922326B639CF4037CEC4194DE06FE2F8FA5FDD37EE8271BDB8ADBD3E3CC14D1554673F8E675B068D
310
95E5BF0167183C82C1E77C665FAD6344C19E6F09038094913834872108EDDBCDB31BAE207042A0875588863E880CEC3EC26D30B664F65AA9DCCB7A1D0344ED1EB3214A02D8B445021B3D7ABA81ECC149BC575353C43E784FDEC55C1757EBDFD725DFA218DF5A9FBEC25BC28884AC7998A116E62D891EF0EE29E70908FA12EF
310
7513EFCC6E25006D85B9023EAD40500FFB9D5B1BC4B02ECD55B809DED8018450B9BA41FF968818538A18CECB6ADF3ABA2943AD3DDED60C6E383510CFA61D13E6F891A8AA029C663FA3C528E4FD98934281E8863746B23A687A3DD27D5B7D028BACE7F7CC5A3108BD0CD13F75D03A8043CBB22BA42D10B5C09B7D388F739AF3
310
68B38B4CA473A1960036DADEF2BD451462BD5192A2021EA4FDAE0A29A991364AC8765B0A88AB0758FCBE5A36CD61E2CDFC13A7F9DF71C639445BF05DC4ADDF75F6884886521C6D51D2B75D73B79AB6D0247B4873BCA520177924721721194D129C1E03CD51C4CFDF957A4A732108C302F2D541F09B684C3C0824469B15CB4A
310
AB1DA08988322C113D060145A6075C9D76748D1B43E9F0368FB5F5BEA6B126D1FFC92238825A32671181521472C89B8CFBDE09C49036BA06E50EBE606D156D2D062DA1848877D11326E9BD3C067543BE07F7188E24A58CF202C560D603C8BEF015A5D40EEF1B143FA8FC11C5257D2F0311986E2342699945F0230C4E1E435C
310
BB0E4CAFA2D0206E629FC419146548967CC826A7279317FB989AA11B021B1B6D0985B01D65A8E841BD1510753DE2D4E05BEA3D4ADD945911A12C2FD92043F1665D6FB2E4BB6A556407F2AB4A45281B2BC29660181026EBAC5AC56C30751D58C18D74A0DA4502650535A7B037128F5F7B93A6DCBB01B77EFABE1B6450F8F568
310
AF1951E7150C96C75661209E908CEFDD70ADAFA34BA8BF139CEC537D556B362B40404C45F29213ABA26F2B286F6C8DE686B7488ABB1B9375ABEBB79507DD8F600C6BA076A917AE14D0196612A9CAE456DDD0AF0842708B86195FA99C7A0C954592E8AA11D16BD2A7CE5619D1DA34235E718F599EC18FDD1116D332C1772811
310
0FD1ADA4D19A28D6AD945E462A8C5F15F0F3CDBA030F8C0C10E98B2AF0F05367AD1D5DAA72E92011795F661B860804C19668A9D18D57B0D46AA4D2727D55670AA8BBC0C0AC8AE73F4F16CD76C4CF93456A0DE3874E1697BB3FD0AED91769A4F358D9F551C7803A3F292AEF710CD06D879A6A9D454C32B7F25B678A20285651
310
7E703556050D43B08FE3FF9CB5FBB2A0D9AEC3FF7159DB7F51711C95555A935597EA40E5BA6AE6B0F3C56C7676B2BC1E2D67D7D0A05D4C4F470BDFF747E7FE643AF9385D9CF897CB1A4DEDA8615007339DBBE0D904B56A583D590CA02B2B724A1238CD274E8A21E64B38D30F689FF30C0B489ECD6677629BF203563F9A3EA7
310
441B8A2B4EEE113488A980B40E1895B16C8F3BBF406B52C241FBC285A691F7007FD62A5D0732CF850BAD0249622CBC0DB49954434F138794AB73BF2506F82096AA946816D5CFF52A854D2BFCD75386A4012B57AB8701855B01DDAF568742F366798A8F12BC62C741126E37A5846ACDC8B21FA885D1DBECD56F64A3843DD8AD
310
9FC1755F17CBF7F49C1622833E19BC6A0486EA48229EEA7EB762CCB2B4B8FA32863E9BB3FAEC14B44C4197C3298D3806632E5541055604566169164882A92E7FBBFBC273F8C49339BA2ABA5BE6599633FBB080F358029F889CF53D7CF049EEA06CC0AAAD2EEEA6137F7AA7DBD9B6C31E6D90C09EAA8760A02A2394081D6303
310
8B7CD19AB28DCBB1524267FAEACAB1E113DA00C6825E7477CDE72D07BC477D4851BEA23DBC92F3D58EF6584F056BE0D08B0EFF05504B0304140006080000A7593740000000000000000000000000350000006662782F36393941373442392D344436302D343535352D394346452D3546454642444645363030342F76657274
310
696365732E62696E504B0304140006080800A7593740F270F1330600000004000000360000006662782F36393941373442392D344436302D343535352D394346452D3546454642444645363030342F747269616E676C65732E62696E636660600000504B0304140006080000A7593740000000000000000000000000370000
310
006662782F36393941373442392D344436302D343535352D394346452D3546454642444645363030342F617474726962757465732E62696E504B0304140006080800A7593740D5987DFC8F00000041010000360000006662782F36393941373442392D344436302D343535352D394346452D3546454642444645363030342F
310
6469726563746F72792E786D6C858F410EC2201045AF4266AF15DDB800BA74E7C21B903225242D6328188F2FA5C4183471359997F9FF81E89FF3C41E1816475E02DF1F80A11FC8386F25A438EECEC07A250251FC3803E6F58C12560C4AD840E95E91C151A72936F496F35732D860FE635F62C8F2DA16B505C545B74125BAA2
310
FA9E05D7CC053D063734D5C7665FD55B6B8D15D5E9BFEAFD8490FFA45E504B0304140006080800A7593740D5A7B93AFD000000A00100003B0000006662782F36393941373442392D344436302D343535352D394346452D3546454642444645363030342F7265736F75726365732F636F72652E786D6C8D504B6EC32010BD0A
310
9A3D3660AB6E2C4C94B8C9097A0184272E4A0C119FAAC72F4E5CA9DD7533337A1FCDD393FBAFE5463E3144EBDD00BC6240D0193F59370F90D385BE02D92B19BC4FBF64409C5E7080150625E7E0F37D838C77095D2AA8F3136EA08E111310732BC700D17CE0A22B9D5351C46B75D7E6AA67AC7855E8A25332A6500290E79375
310
820A187D0E06A3AC9FAC9239DB69D3D8A9FCB4178B0154BB13E2D41D47DAB023A36D3B1EE8613C9FE938B6A7E3DB4E749D38C97A352B99ECF293D104D409275082714119A7A279E7BCE74DCF5BCA5E7AC664BDCAFF98F27DFAA7295B971AB1C57DDA22285E823C0825EBB5AFB21E6596BD76ABBE01504B010214000A000008
310
0000A75937403DEE336E79000000790000001B00000000000000000000000000000000006175746F6465736B2D64657369676E2D7061636B6167652E786D6C504B01021400140006080800A7593740D486FD9CA0000000F40000001300000000000000000000000000B20000005B436F6E74656E745F54797065735D2E786D
310
6C504B01021400140006080800A75937400AC97382EA0000007C010000080000000000000000000000000083010000636F72652E786D6C504B01021400140006080800A759374055019EA25F0000007C000000070000000000000000000000000093020000636E782E786D6C504B01021400140006080800A7593740477EEC
310
FC66010000020300000C00000000000000000000000000170300006662782F636F72652E786D6C504B01021400140006080800A7593740EF6873BF7D0000009D0000000B00000000000000000000000000A70400006662782F636E782E786D6C504B01021400140006080800A759374027911C8D2B01000014020000310000
310
00000000000000000000004D0500006662782F36393941373442392D344436302D343535352D394346452D3546454642444645363030342F636F72652E786D6C504B01021400140006080800A7593740D8712B8254010000330300003000000000000000000000000000C70600006662782F36393941373442392D34443630
310
2D343535352D394346452D3546454642444645363030342F636E782E786D6C504B01021400140006080800A7593740C5B35F2859070000941B00003400000000000000000000000000690800006662782F36393941373442392D344436302D343535352D394346452D3546454642444645363030342F6F626A656374732E78
310
6D6C504B01021400140006080000A75937400000000000000000000000003500000000000000000000000000141000006662782F36393941373442392D344436302D343535352D394346452D3546454642444645363030342F76657274696365732E62696E504B01021400140006080800A7593740F270F133060000000400
310
00003600000000000000000000000000671000006662782F36393941373442392D344436302D343535352D394346452D3546454642444645363030342F747269616E676C65732E62696E504B01021400140006080000A75937400000000000000000000000003700000000000000000000000000C11000006662782F363939
310
41373442392D344436302D343535352D394346452D3546454642444645363030342F617474726962757465732E62696E504B01021400140006080800A7593740D5987DFC8F000000410100003600000000000000000000000000161100006662782F36393941373442392D344436302D343535352D394346452D3546454642
310
444645363030342F6469726563746F72792E786D6C504B01021400140006080800A7593740D5A7B93AFD000000A00100003B00000000000000000000000000F91100006662782F36393941373442392D344436302D343535352D394346452D3546454642444645363030342F7265736F75726365732F636F72652E786D6C50
310
4B0506000000000E000E00800400004F1300000000
  0
XRECORD
  5
17
102
{ACAD_REACTORS
330
12
102
}
330
12
100
AcDbXrecord
280
     1
270
     1
271
     1
  0
XRECORD
  5
16
102
{ACAD_REACTORS
330
12
102
}
330
12
100
AcDbXrecord
280
     1
270
     1
271
     1
  0
XRECORD
  5
18
102
{ACAD_REACTORS
330
12
102
}
330
12
100
AcDbXrecord
280
     1
270
     1
271
     1
  0
XRECORD
  5
15
102
{ACAD_REACTORS
330
12
102
}
330
12
100
AcDbXrecord
280
     1
270
     1
271
     1
  0
XRECORD
  5
88F
102
{ACAD_REACTORS
330
22
102
}
330
22
100
AcDbXrecord
280
     1
102
MATERIAL
148
0.0
149
0.0
149
0.0
 93
        0
 94
      127
282
     0
 72
     0
 77
     0
171
     0
175
     0
179
     0
273
     0
  0
XRECORD
  5
24
102
{ACAD_REACTORS
330
22
102
}
330
22
100
AcDbXrecord
280
     1
270
     1
271
     1
  0
XRECORD
  5
23
102
{ACAD_REACTORS
330
22
102
}
330
22
100
AcDbXrecord
280
     1
270
     1
271
     1
  0
XRECORD
  5
BA
102
{ACAD_REACTORS
330
22
102
}
330
22
100
AcDbXrecord
280
     1
 70
     1
 90
1959938040
 71
     1
  1
28F02CF8-CEC2-44D8-9DD8-2AF4A795F875
311
504B03040A0000080000A65937403DEE336E79000000790000001B0000006175746F6465736B2D64657369676E2D7061636B6167652E786D6C3C3F786D6C2076657273696F6E3D22312E302220656E636F64696E673D227574662D3822203F3E3C666F726D6174733E3C666F726D61743E687474703A2F2F736368656D612E
311
6175746F6465736B2E636F6D2F64657369676E2D7061636B6167652F323030393C2F666F726D61743E3C2F666F726D6174733E504B0304140006080800A6593740D486FD9CA0000000F4000000130000005B436F6E74656E745F54797065735D2E786D6C7D8EC10E82300C865F65E91D8A1E8C310C0EEA1BF002731658846E
311
D98AC1B77784ABF1D8FE5FBFBF75BBCE937A534CCEB38643598122B6FEE978D0B0485F9C41B54DDD7D022595594E1A469170414C76A4D9A4D207E29CF43ECE46F218070CC6BECC4078ACAA135ACF422C856C0E68EA1BF5669944DDD7BCDE7B1F8E415D77AECB980613C2E4AC91FC167A2B244592486606FC29C8FD7F045B9A
311
EF7053A7E60B504B0304140006080800A65937403C481E1DE80000007C01000008000000636F72652E786D6C8D905B6EC3201045B782E61F9B87652711264ADB7405DD0002E2A2C460F1A8BAFCE2C491DABF4A88195DEE6146571CBFE71BFAB231B9E047A00D0164BD0EC6F96984922F7807E828450C21FFB201F26AB623AC
311
324831C550964DD2C167EB73557D307613554A3603D2B7DA8C90F4A79D55A34AAE8E746D16A5AF6AB20D7D76152EC519F418E24CFDCF5D9C8D2039613D675D87877DBD3A4A093EBDEFCFF865F7369CCEFC950E7D2FDA159622BBF9395F47ABB2352019A10C138A19FFA0F440793D98F4074244BBDAFF406531FF848AF399B3
311
6DDD079640D2BAC8FD418A76CDA2967B50B5AEB9C91F504B0304140006080800A659374055019EA25F0000007C00000007000000636E782E786D6C4DCB3B0E80201045D1AD90E915ED2CF8AC45050C11660C8261F98AB1B07AC9C97D42D718D865D3E909258CFD00CCE24AC6E326A164D74DC0B4128928FF326038472BA131
311
28B1252AC747C6BAB984FC68F0B87FE8960A5C09FE86CFB69FBA01504B0304140006080800A6593740D208254A63010000020300000C0000006662782F636F72652E786D6C8D52ED6E8320147D15C27F05D4D876419A6EEB9E602F40953A52058360FAF8BB7E34AE4BD3349A2B39F7E39C7B84EFAF6D8306E57A6D4D81594C
311
3152A6B495367581833F475B8CF6823B6BFD9F328C8C6C558147180B5E3B1BBA052AADF1CA78408DADD402CABE571EA3B2814381FBF247B53296C143457F893B595E64AD6216431AEA04EFBD03016826192316E7D3959319173C045D2D595D019B3E6BE5B0486992A74996459B1D848C311A1DBE76C7E87DFBB9391CD30FB6
311
C9734EC666C1BD6E6FEA4AA7A4571516096549445994A4DF8CBDB114DE88E66F94723296DF3585AE7AB12968E3D364913BB7F55830103225FE6D0B1679D4CB01F410C1C968227C2687EF8D0643C0642F4FCD6D8F0B40832ABD7519642A1BD6D4209BA08095A2E9E164CEC2E469006CF6704EF264CEF319F003A5A9419AF470
311
3C053FB2F39975B1A2532E1AFC1519EB5AD9ACE266896B5C891EB697B6B1EE956EB2AC4A1633C9787BC52F504B0304140006080800A6593740DA7E993A7D0000009D0000000B0000006662782F636E782E786D6C4DCCD10AC2201886E15B91FFDCE69C330575847521A3B921390DD3E8F2DB62071D7DF0F0F1AAE1B306F476
311
F9E553D4D09E082017EF69F271D150CB8C05A0C1A89C52F9BB018AE3EA34EC0C462D39D5E741939BC71ACAA6C1C7C781B75E704ADB2BE696769889EE8CA5951CB79C30CB7A2AE585406354F32B6DBB87CD17504B0304140006080800A659374058D73C8A2801000014020000310000006662782F45353836323231442D3643
311
32332D343833372D394339362D3136303443343532393941302F636F72652E786D6C8D515B6EC32010BC0AE22BFDC006ECD038C24455DA1BF4020E901425068B4795E3775D3B52FB1709B168766676C4CAC37DBCA16F1B930BBEC7ACA21859AF8371FED2E392CF6487D141C91842FE43C3C80FA3EDF10C63252F3194698574
311
F0D9FA0CA80FC6AEE09092CD18E91B3C7A9CF4971D876A281918E95A4D83BE0E175BB10ADAC05332E50801D03264BEB1FAD8EE04E7EC9D88236F48BB6B5E4977EC046182B6C776CBBBEE8DCA7A112A598A33ABDC1988E3CECEC6674D66B192D98D8FF83ADA215B8315A78C13CA086F3E19DBB3060EA1624F61F24CFF272A93
311
7952549CCF0D5FE32EB2841593F5D250D28472BA3DC2D8FB146246F3BC4DB2FA052B5A51CE2865CDABAC172A7C00788A76F54C3944F8E0CDF5046CB65D8C45AB643DEF08CAEF02A1CEFB543F504B0304140006080800A6593740F8BB091A4C01000033030000300000006662782F45353836323231442D364332332D343833
311
372D394339362D3136303443343532393941302F636E782E786D6CD593CD6EC32010845F0571F70F4E14551126520F7D821E7AC5B049683058FC54CDDB7749489A4B0E3D56B290353BCCAC3ED97CF73D5BF205211AEF46CADA9E1270CA6BE30E23CD69DFBC50B2133C789F1E6C943839C3488B4C053F049F972A69D8CB6C13
311
AAD6B8531503449F83828872B949AC57D26200B826A308F3045A83267723BEED21E02A284E67928E40DE5E3F889F3E41A5C8BB922278573A042F676D7A3051A2AC8C71A4511D6196ADCCC96B88A756CB245BD6DEBA9EECF49B44CA855B650E8694F29196938ABA518B1C798743C1630A48AF9AD279012AE4B258A36442C8DD
311
C578F5089E8D4B9B75F51A041FD0CD36ABF51AC32E33C19399A13A540099405331F46C687AD60CAB77C6B66C854FD36FB67DCFBB62177CF2DED64B1803C12F447997C0252A18EFCAF819BEEA23DA0464EDC3F90F2011406DBDD2B967FC673EDDE5FB465C01FF02F103504B0304140006080800A659374042D01CC99B050000
311
7A100000340000006662782F45353836323231442D364332332D343833372D394339362D3136303443343532393941302F6F626A656374732E786D6CAD575D8F9B3814FD2B887DCE0749A6CDAC18AA4CD25451356DD5A8D53E8C1419308C770C46B69966F6D7EF311802996426BBEA0B60635FDF7BEEB91FF63FEC33EE3C51
311
A998C86F5C6F38761D9A472266797AE3963A19CC5DE743E04B21746799EBE424A337AE9976033F95A22CEC544C1352727D34BBBEFDCB5111CDA9EB449C2875E3AAE8816664484A2D62AA1E8731D1649826FBA137AC17F6C5A692140F47420B2269AEA129E67348716AA5BCFE70EC8E027F64FE07BE79DA55D3F3AB46953DFD
311
F359AE34C9A317871D89997AB3D5C7C9D5F5E06A369B0E66EF26DEE0767DBB1A78EFA7E3E5BBE5F27AF1F11A072B2D21C96A2269E2069F808D64913FAA7F057EC9723D9DD825D64123499F98F1941B4C1CCF1FD56B5AEBAC91A7D48F449ED3A8C20A6854F659D1312D681EC3E78C2A68D64168DC1F7A06C7CEEFA919DB23BB
311
D39721D0DDD111D4E8DEBCBB9A8AF06F98A02E619054D430B0C6D21A5A73757C40381482DB7F4C3919D15432C21DCE4249E4B31B60A95912F83D3186C9D24483B1C00DE085FA779F2E08A3B7797E4ACBA4E4DCD0D80DAA28D82156A8569566EC1F2A0FDA7791814EF09561C3DC1AA49F0BEA06D73545E6476CAA8174124E52
311
B81C669A9DD3C991A14B13A79B951B7C5E87FBAD89DDD387175214546A431F50AB715CF33628599DBC8B3C6736B847AA1C40F90EE4BF20D40FAAC06F92ED67FB993D454B92AB44C80CBE71C6CE608CC7D8F1AAA7F9EE7CF9A37673DF7BE7F084B30D54BF01CFBE0D5D5F76E00CFC27105EC8A9356D1B118EB471C772006448
311
E2708129E4E124DCBBC106590E5919BB080F3C980C759FF0E98FAC18248AEAA4CE3B07964769F182040DD82A46428D9AFC56C1839F5EA4B3EA60BBEC1CBC57BF85AE8BD5F6F3B6940989E89D8DE9154D58CE344ADC81375D857A98F72C7AA4CFBF848C61E84BBCB75DBC337B9402DA0673037CDAE47433389CDC3B20C2BE54
311
9874E3BF71028C3085B523FF8EA988724E722ACAE6DC57EB07CA460DB10976C3E4B6C01C0A0B4853FF398A4114E948B2C280D856AB36690ECF58F763F3058CC47A2E42C20F8BC243EA8D041772173EEFEAAC7412E99F7D6A5B0846460AD85EC54813FE16F35DCC92A454C8812760FDB959765D67B202324423B50E9619CC47
311
6C116939DBC845B196048554E43B86B289B03B7940573E10B504A8049ED358519EEC18E765B64B184731DA65A43803C7FFD73F2CB362473251E6FA8CEC9EEA280E7DDD7BE455BF888E1EDC605BBD07B748BD318D0F6EEE2D36A5E404563DD74EE6EBF164B99E0F961F9793C16CB69A0FAE57784C16EBD9E2FDF5D57AFE1E49
311
C26A54F55081DF549A6E40C34BA86C7E299975DF8F0DC2C7E60037B8235ADD7FAAA3B379FFD80CD10AFB23EC41B96C372EE227B47D347E5BC061E549419BACE034A3B9262684EECC07FF4ED066F494A9E7371949E90552BE7EDA1E1983990BF67D33E14E7F1DEDB5B34B13902785E887320B73C2F8D1C6B4467258E4A9C5AF
311
F149FBAEEB4C333423EB1834A64A7016230DC64E4A45463592E10535486654817ADD963EB6578F0B763FD50DA22621A78D260F043D3257080BF0B68C747FDEF9033D9D69AB6E5C54DBE1231E3653B80E3873E3A247D72CA26A18A23E9B4EA8120E2E751B797096E42947AB5D6F6AC7ED2E834DAF22B74B2E699FAC5D7506B7
311
06208D14681BD00FC13B9532815FE966FF47FFC9F0461D87687C86A56E6D394CB4C654C720446BA3EC65013DCCA33D7A8F407DDD2C6F58ADE92172D125EB5512D452079AC8B4BA2818FDAC4A8BD5B7111A1467F3D5297899C297974B1A480A329726C0C122B0C2CA2C880655977FDE7F930217D9CC593350E07E29B24CE476
311
B0B0176167FB806B6D7C8FB440CD7D44DD4FC6DEE4BEBA07D8ABC92E248A0E49AC1E31019F4AD642DC733C18595F165181EA1FEDBA9171C21137372BC796B419845AA274B3AA81051D474E1D448FB94B9A58E92E285EBD0A8CAAA55041A2890FFE05504B0304140006080000A6593740000000000000000000000000350000
311
006662782F45353836323231442D364332332D343833372D394339362D3136303443343532393941302F76657274696365732E62696E504B0304140006080800A6593740F270F1330600000004000000360000006662782F45353836323231442D364332332D343833372D394339362D3136303443343532393941302F7472
311
69616E676C65732E62696E636660600000504B0304140006080000A6593740000000000000000000000000370000006662782F45353836323231442D364332332D343833372D394339362D3136303443343532393941302F617474726962757465732E62696E504B0304140006080800A6593740D5987DFC8F000000410100
311
00360000006662782F45353836323231442D364332332D343833372D394339362D3136303443343532393941302F6469726563746F72792E786D6C858F410EC2201045AF4266AF15DDB800BA74E7C21B903225242D6328188F2FA5C4183471359997F9FF81E89FF3C41E1816475E02DF1F80A11FC8386F25A438EECEC07A25
311
0251FC3803E6F58C12560C4AD840E95E91C151A72936F496F35732D860FE635F62C8F2DA16B505C545B74125BAA2FA9E05D7CC053D063734D5C7665FD55B6B8D15D5E9BFEAFD8490FFA45E504B0304140006080800A6593740E326D4A5FB000000A00100003B0000006662782F45353836323231442D364332332D34383337
311
2D394339362D3136303443343532393941302F7265736F75726365732F636F72652E786D6C8D50596AC33010BD8A997FD95A8CB3202BA46D7A825E40C8134724968C96D2E3578E5D68FF0A4233BC85793C79FA9A1ED5278668BDEB81D5142A74C60FD68D3DE474257BA84E4A06EFD32F19544E4FD8C302839263F079DE20E3
311
5D42970AEAFC801BA863C404957994A587686E38E95AE75414F15ECFDADCF58835AB0B5D744AC6144A806A3DB2FCA002469F83C1289B955532673B6C1A3B949BF66A318012947782B782EC0E6D4B5AC62839BF1F2EE465FFB63B5FC42BDB759D6C16B392C94E3F194D409D7000C529E38432C2C507634726CA23B43B522A9B
311
45FEC794E7E19FA66C5D127C8BBBDA222856823C09259BA5AF329E6596B974ABBE01504B010214000A0000080000A65937403DEE336E79000000790000001B00000000000000000000000000000000006175746F6465736B2D64657369676E2D7061636B6167652E786D6C504B01021400140006080800A6593740D486FD9C
311
A0000000F40000001300000000000000000000000000B20000005B436F6E74656E745F54797065735D2E786D6C504B01021400140006080800A65937403C481E1DE80000007C010000080000000000000000000000000083010000636F72652E786D6C504B01021400140006080800A659374055019EA25F0000007C000000
311
070000000000000000000000000091020000636E782E786D6C504B01021400140006080800A6593740D208254A63010000020300000C00000000000000000000000000150300006662782F636F72652E786D6C504B01021400140006080800A6593740DA7E993A7D0000009D0000000B00000000000000000000000000A204
311
00006662782F636E782E786D6C504B01021400140006080800A659374058D73C8A28010000140200003100000000000000000000000000480500006662782F45353836323231442D364332332D343833372D394339362D3136303443343532393941302F636F72652E786D6C504B01021400140006080800A6593740F8BB09
311
1A4C010000330300003000000000000000000000000000BF0600006662782F45353836323231442D364332332D343833372D394339362D3136303443343532393941302F636E782E786D6C504B01021400140006080800A659374042D01CC99B0500007A1000003400000000000000000000000000590800006662782F4535
311
3836323231442D364332332D343833372D394339362D3136303443343532393941302F6F626A656374732E786D6C504B01021400140006080000A65937400000000000000000000000003500000000000000000000000000460E00006662782F45353836323231442D364332332D343833372D394339362D31363034433435
311
32393941302F76657274696365732E62696E504B01021400140006080800A6593740F270F13306000000040000003600000000000000000000000000990E00006662782F45353836323231442D364332332D343833372D394339362D3136303443343532393941302F747269616E676C65732E62696E504B01021400140006
311
080000A65937400000000000000000000000003700000000000000000000000000F30E00006662782F45353836323231442D364332332D343833372D394339362D3136303443343532393941302F617474726962757465732E62696E504B01021400140006080800A6593740D5987DFC8F0000004101000036000000000000
311
00000000000000480F00006662782F45353836323231442D364332332D343833372D394339362D3136303443343532393941302F6469726563746F72792E786D6C504B01021400140006080800A6593740E326D4A5FB000000A00100003B000000000000000000000000002B1000006662782F45353836323231442D364332
311
332D343833372D394339362D3136303443343532393941302F7265736F75726365732F636F72652E786D6C504B0506000000000E000E00800400007F1100000000
310
504B03040A0000080000A65937403DEE336E79000000790000001B0000006175746F6465736B2D64657369676E2D7061636B6167652E786D6C3C3F786D6C2076657273696F6E3D22312E302220656E636F64696E673D227574662D3822203F3E3C666F726D6174733E3C666F726D61743E687474703A2F2F736368656D612E
310
6175746F6465736B2E636F6D2F64657369676E2D7061636B6167652F323030393C2F666F726D61743E3C2F666F726D6174733E504B0304140006080800A6593740D486FD9CA0000000F4000000130000005B436F6E74656E745F54797065735D2E786D6C7D8EC10E82300C865F65E91D8A1E8C310C0EEA1BF002731658846E
310
D98AC1B77784ABF1D8FE5FBFBF75BBCE937A534CCEB38643598122B6FEE978D0B0485F9C41B54DDD7D022595594E1A469170414C76A4D9A4D207E29CF43ECE46F218070CC6BECC4078ACAA135ACF422C856C0E68EA1BF5669944DDD7BCDE7B1F8E415D77AECB980613C2E4AC91FC167A2B244592486606FC29C8FD7F045B9A
310
EF7053A7E60B504B0304140006080800A659374098FB656DEA0000007C01000008000000636F72652E786D6C8D90516EC3201044AF82F61F1BB093BA11266AECFA04BD0002E2A2C460198872FCE2C491DABF4A48BB1AE6EDAE861FEFD315DDCC12AC772DD08200324E796DDDD8428A67DC003A0ABE781F7FD9003939991656
310
19041F179FE64D52DE45E362569DD766136508260252D7DCB410D4B799642153CC8E702966A92E7234057D75194EC96AF45C62759E67CFD62C20DE9BCF8F6EBF1BF069C7065CD3BAC14DDDF7B81F3A42E95B7DAA3AC6CB15163CDAE9B55F2D4646A3413042192614B3EA8BD203ADF2C3647F208497ABFD0F9466FD4F285917
310
2BB69DFBC402089A0F797C085EAE59E4F2082AD73537F103504B0304140006080800A659374055019EA25F0000007C00000007000000636E782E786D6C4DCB3B0E80201045D1AD90E915ED2CF8AC45050C11660C8261F98AB1B07AC9C97D42D718D865D3E909258CFD00CCE24AC6E326A164D74DC0B4128928FF326038472B
310
A13128B1252AC747C6BAB984FC68F0B87FE8960A5C09FE86CFB69FBA01504B0304140006080800A6593740209C4A9966010000020300000C0000006662782F636F72652E786D6C8D52ED8E8230107C95A6FF4B29A0E7995273EAF904F702B5548E082D292DF1F16FF9309C17632E10686676766707F8EED6D4A8D7AEABACC9
310
318B628CB451B6A84C99E3E02F6483D14E7067ADFF558691918DCEF10063C14B67433B43CA1AAF8D07D4D842CFA0EC3AED3152351C72DCA96FDDC848060F15DD356AA5BACA52472C021AEA04EFBC0303681A323CB1B89C6F9C4EB8E02154C5CC56054CAB2E957658BC6F3E3F0EEBD589EC57C989642CDB904D763C92E3E910
310
33F696EDD343C2E92016DC57CDDD9D725A7A5D6091C42C21312349FAC5D896A5709378BD8D634E87F20751688B7F8A42657C9ACC7627598705032323F1675B88C8A34EF6E0870A4E8710E13526FC18340402217B79AEEF7B5C01EAB5F2D665C014362C542FEBA0616A8CC68BD38985CE6303D8EC699FE4459FD73DE0034A53
310
8235E9E1780E7E98CEA7A97314AD76A4F73764AC6B64BD989B2C2ECF65D053B9B2B575FF51D379553A874987BF57FC00504B0304140006080800A65937401DA539B67D0000009D0000000B0000006662782F636E782E786D6C4DCCD10AC2201886E15B91FFDCA64E73823A6A7421A3B921390DD3E8F2DB62071D7DF0F0F1EA
310
FEB306F476F9E55334404F04908BF734F9B818A865C61DA0DEEA9C52F9BB018AE3EA0CEC0C562F39D5E741939BC71ACAA6C1C7C78164109229C6F055F216732114567CA058527696FC726B05E9A0B1BAF995B6DDC3F60B504B0304140006080800A6593740EB3BD37E2901000014020000310000006662782F304335373239
310
32322D423734332D343535392D393443312D3731323637344145333530382F636F72652E786D6C8D515B6EC32010BC0AE2ABFDC006FC8A234CD446BD412FE06092A2C460F1A872FC2EB523B57F91108B766766875D71B8CF37F4AD7D30CE0E981514236D959B8CBD0C38C533D9617490C23B17FFC030B2E3AC079CD3588A8B
310
7769D952CAD9A86D84AC7593DE9263083A62A46EF01870505F7A1E8B314540846BB18CEA3A5E74C10A28034E8A103D18406B937C63498F4DC77BCEC97B5757A46E9A9EF4F591918EF1B6ABDF3EAA86EE44B912A548C94C1BDD4C60C79C8DF6CF8A64B214D1CC0FFBCAEB31EA094B4E192794115E7D32B667151C42DB3DA5A2
310
CCF07FA4B44C4F9292B1B1E29BDD9516B064A25C0B524C2E9D6E0F33FABE381F51EEF712B47A855F1594577D4F295056280C0034DB7AD30CD17918F0CBF504E80A5059B8ADA528F38E20FC2E1062DEA7FC01504B0304140006080800A65937409E1CC60D5401000033030000300000006662782F30433537323932322D4237
310
34332D343535392D393443312D3731323637344145333530382F636E782E786D6CBD93CD6EC32010845F0571F70F7664451126520F7D821E7A25B04968305880ABE6EDBB2424CD25874A55250B59B3C3CCEA93CDB75F93259F10A2F16EA4AC6E2901A7BC36EE30D225EDAB35255BC183F7E9C1468993138C34CB54F043F0CB
310
5C240D7BB9D884AA35EE54C400D12F41414439DF24D62B6931005CB5A008D30EB4064DEE467CDB43C05550DC9D493A02797D79277EF7012A45DEE414C19BDC21783E4BD383891265658C238DEA0893ACE592BC8678AAB54CB266F5ADEBC94E3F49245FB8552EC1905C3ED27C525136AA91236F7028784C01E915533ACF4085
310
9C676B944C08B9B918AF1EC117E3D2B02A5E83E003BAFB6E58AF31EC32133C99098A4305900934155DCBBAAA6555D7BF31B6613D3E553B6CDA9637D92EF8CE7B5B2E610C043F13E55D0297A860BCC9E367F88A8F681390B50FE75F804400A5F54AE79EF1977CD8D0AF56FFC8A7B97CDF882BE05F20BE01504B030414000608
310
0800A6593740A77D52AB57070000931B0000340000006662782F30433537323932322D423734332D343535392D393443312D3731323637344145333530382F6F626A656374732E786D6CED595B739B3814FE2B0CFB6C6C6CA74D76089DC46E3A9E9DB49D7ADBD907CF3032C8581B211849E4B2BF7E8F2E602026C1DBEC5B1F
310
0C464847E77CE7AA43F0E131A3CE3DE682E4ECD2F5BD89EB6016E70961E9A55BCADDE8DC753E8401CF73D998E63A0C65F8D255C36E18A43C2F0B3B94E01D2AA9EC8CDE5CFFE5881833EC3A3145425CBA22DEE30C79A8947982C59D972089BC74F7E8F99E99D8269B7254EC3B440BC43193C0298C33A0E218A6FCF6E3C41D87
310
C158BD0F0375B5B3668366CDFB678DB5D46D2E091312B1F8194B1D32B3412CCDFCF9F2E3F4EC6274369FCF46F377537F747D73BD1CF9EF6793C5BBC5E2E2EAE305B0B7CD736A654A70815902FA7B72433F18AB37B5E81681635CC7396338D64002545AAC2E4182056CD5806FD27EF495448DD75AC2C6F35CBDB72C3486676D
310
2A7DB38601D1A20B82D8ED2A89AB7B53BE7CFB37082E861825175802B74272D0AE85878357B8E124189BD130D81E7441849321893941D4A164CB1107A5C05435250CCC024B46390707528E92406BCEBC6EDB1678E6EBAE738CCB5D49A9F20C37D48E1581FB61293467E41FCC0FDC3791019E40DA9230796EB9944F0576C38B
310
60AC07C340DD6653FBD200E9EC284A8546C4BCED08BA50AEBF5ABAE11F37DBC7B50A07C7372F785E602E95D1293D6ABEC090ED5DA164B7F507694E2D00610CA876E501946F80FC67881E0756406F9C3CCE1FE776AEE488895DCE33D08D33714613B84C1C5F5FD5FFC6BF605C2F6E6BAF0F4F705305D5F9CFE3D996416365F9
310
6FC01906F760F0399FD957EB1851B0E75BC2002065240ECD610842FB6EFBE8862B089C10E86115A2A10F2203BBF7F037185B3207AD54EE65BD8E01A2768FD91025016CDA22818D1E3D7D82ECC1497C505353C43E78CFDEC45CAF96EB3FD625DFA118DF5A9F5EE21D614442D63CCE500BF3964477F8E921E70908FA1CEF7513
310
EFCC6E25006D85B9023EAD40500F879D5B1BC4B02ECD55B8095ED9018450B9BA41FF968818538A18CECB6ADF3ABA2943AD3DDED60C6E383510CFA61D13E6F89EA8AA029CE630A3C528E4FD98934281E8869F8C6475D0F47AA4FBBEFA0C1659CFEF99B562107A19A27FEAA0750487966557485B206A81B787701EE734E7D1F6
310
293291CE855A02D8687BCB8F165188F546498A0A7890F6BB2AA4A446DA2821BB5D2920AE1E61F1C76AD134878937F3CF9CE6B5E38C7388B6E0BB885BBFEBEC11910CA538DAA1A46FBBE66E356DA149F690E67847412E724FE45384643449707A0A342711BF7853EA29CD85200C0BC85747C16FA231F12090186D562C2BAD76
310
802622CAB044F4140414991E7075DAD1356E0CA5C3EB3CD6D6FB92C69A44FF278BE0086AC99C45044A51C821AF32EE7B671043DAE81A943BF882B555B4B518B48412227E8A1E3049F7F214D40DF91EDC6338929432CA0B1483590F20FBCC5794523BBC6F517CA7F2471497F4AD0C4460BA8B08A56516C18F3038790C71ED3A
310
30BD884283B8897D126750942159F2219BBC3B9B3CDBC7D40CDD10D8D868472884ED2843450FEAAD80A8EB11A706DF52EF51EAB6CC8A086579C906198A37EB7A9325DF55AB223B905F552A42D95811B604C380305967D52A6683A9EBC00A6EA403D55324505650730A7B25F1F8B53769CABD1B70EBA76FBB4106855F8FF69A
310
11755EC160796C1506E201C978EF866B7D1F5D43FD9DE0E490EAAB5AB3590102622A92979C58157D5F4179636B3437BC45526C3E99AC5BDDBFAF3CE87E04635803B54BBD70A580CE3093485526B7EA0FFD862004B76898F195CAA9A750B94A125D35227A43FAD4D92A235A9B66C42BF698E519FCD886B0989609DEA044DC45
310
B792466BA258B7527A19A9307E51C02F9FD61D78606480485F5581871F3A6BEDE842954B4789C87D996D192210045BA2A546375EC152AB914ACBF55D9D29A0EE0203B32A9EFF3A5934DB11BF4E16A9358C9F3B59D07C8BE821DA34B279ACCCFAA453409D9E1495B73805E8AE434DB54E2226975BF1AD2F451013AB203FB818
310
AB628621D8C7F17F4EDA7D49D06CD7E1FFB4A4ED3F2B384E4A2AADC9AA4975A4705D3553D8F4FC66325DDC9C8F161F17D3D17CBE3C1F5D2CE132BDBA995FBDBF38BB397F7F3835683F0D833A96E9D405CF26A655C3EAC962004D59915392C0613E71520C215FC2917E40F79C675840EE6CF6BA13DB931FB0FADEB43925DA52
310
5C71B247D01FA602B23A6054C6B23DEEFC069D4909E7EC4B177A46DE1D5CAC55BA0E249E4B173A0592C458785BE832A97E9E260E1957A77E4B0CF0412C5519D12CAA9FEB550A9B56F4AFA70CC90256AE560B03EAB6029A5FAD0685E6CDF2149F2478C58E8324FCDD96128A3523CB61A016466F7350BF918D127667B77E04D7
310
7D592CDFD3735A880CFA62F0A21118AA238978AADBDD8A31CBD2D5F2EB18DA6CCEEA8B53D032055D0EA734E2188CB954F51458115885A5592009A6BAF87DF395E7F08527737451B459E4599633FB7005C7B104BE1039EB3D7CEF4936503560D555179BE9C49F6E7437DB36D8A32D12D853E5100C54558412A1636C6091CF3A
310
53B66F39564AE84C5F2D1D1B3EC19F8D053D6BEE9AAF5B0E788FFA8EA27C457B7825E78B0DEDB19E0AD6C0A1151DFE0B504B0304140006080000A6593740000000000000000000000000350000006662782F30433537323932322D423734332D343535392D393443312D3731323637344145333530382F7665727469636573
310
2E62696E504B0304140006080800A6593740F270F1330600000004000000360000006662782F30433537323932322D423734332D343535392D393443312D3731323637344145333530382F747269616E676C65732E62696E636660600000504B0304140006080000A659374000000000000000000000000037000000666278
310
2F30433537323932322D423734332D343535392D393443312D3731323637344145333530382F617474726962757465732E62696E504B0304140006080800A6593740D5987DFC8F00000041010000360000006662782F30433537323932322D423734332D343535392D393443312D3731323637344145333530382F64697265
310
63746F72792E786D6C858F410EC2201045AF4266AF15DDB800BA74E7C21B903225242D6328188F2FA5C4183471359997F9FF81E89FF3C41E1816475E02DF1F80A11FC8386F25A438EECEC07A250251FC3803E6F58C12560C4AD840E95E91C151A72936F496F35732D860FE635F62C8F2DA16B505C545B74125BAA2FA9E05D7
310
CC053D063734D5C7665FD55B6B8D15D5E9BFEAFD8490FFA45E504B0304140006080800A6593740F011385CFC000000A00100003B0000006662782F30433537323932322D423734332D343535392D393443312D3731323637344145333530382F7265736F75726365732F636F72652E786D6C8D505B6E833010BC0ADA7F836D
310
484A23E3A821C9097A01CB6CA89560233FAA1EBF2650A9FDAB647957F3D08E461CBFA647F1893E18673B60258502AD7683B1630729DE480BC5510AEF5CFC2583C2AA093B58609062F42ECD1BA49D8D686346AD1B7003550818A1D08FBC7410F4074EAA54296645B897B3D2773562C9CA4C679D1421FA1CA0588F2C3F488FC1
310
25AF31886A65A548C90C9BC60CF9A6B919F4205FDBCB5BBFDF5DC869C7AFA4614D4BDAE67C26E76B4F197B694E75CF45B598A58866FAC9A83DAA8803484E192794115EBF337660757E84EE0F948A6A91FF31A579F8A729191B6BBEC55D6D0124CB419E8414D5D2571ECF32F35CBA95DF504B010214000A0000080000A65937
310
403DEE336E79000000790000001B00000000000000000000000000000000006175746F6465736B2D64657369676E2D7061636B6167652E786D6C504B01021400140006080800A6593740D486FD9CA0000000F40000001300000000000000000000000000B20000005B436F6E74656E745F54797065735D2E786D6C504B0102
310
1400140006080800A659374098FB656DEA0000007C010000080000000000000000000000000083010000636F72652E786D6C504B01021400140006080800A659374055019EA25F0000007C000000070000000000000000000000000093020000636E782E786D6C504B01021400140006080800A6593740209C4A9966010000
310
020300000C00000000000000000000000000170300006662782F636F72652E786D6C504B01021400140006080800A65937401DA539B67D0000009D0000000B00000000000000000000000000A70400006662782F636E782E786D6C504B01021400140006080800A6593740EB3BD37E29010000140200003100000000000000
310
0000000000004D0500006662782F30433537323932322D423734332D343535392D393443312D3731323637344145333530382F636F72652E786D6C504B01021400140006080800A65937409E1CC60D54010000330300003000000000000000000000000000C50600006662782F30433537323932322D423734332D34353539
310
2D393443312D3731323637344145333530382F636E782E786D6C504B01021400140006080800A6593740A77D52AB57070000931B00003400000000000000000000000000670800006662782F30433537323932322D423734332D343535392D393443312D3731323637344145333530382F6F626A656374732E786D6C504B01
310
021400140006080000A65937400000000000000000000000003500000000000000000000000000101000006662782F30433537323932322D423734332D343535392D393443312D3731323637344145333530382F76657274696365732E62696E504B01021400140006080800A6593740F270F1330600000004000000360000
310
0000000000000000000000631000006662782F30433537323932322D423734332D343535392D393443312D3731323637344145333530382F747269616E676C65732E62696E504B01021400140006080000A65937400000000000000000000000003700000000000000000000000000BD1000006662782F3043353732393232
310
2D423734332D343535392D393443312D3731323637344145333530382F617474726962757465732E62696E504B01021400140006080800A6593740D5987DFC8F000000410100003600000000000000000000000000121100006662782F30433537323932322D423734332D343535392D393443312D37313236373441453335
310
30382F6469726563746F72792E786D6C504B01021400140006080800A6593740F011385CFC000000A00100003B00000000000000000000000000F51100006662782F30433537323932322D423734332D343535392D393443312D3731323637344145333530382F7265736F75726365732F636F72652E786D6C504B05060000
310
00000E000E00800400004A1300000000
  0
XRECORD
  5
27
102
{ACAD_REACTORS
330
22
102
}
330
22
100
AcDbXrecord
280
     1
270
     1
271
     1
  0
XRECORD
  5
26
102
{ACAD_REACTORS
330
22
102
}
330
22
100
AcDbXrecord
280
     1
270
     1
271
     1
  0
XRECORD
  5
28
102
{ACAD_REACTORS
330
22
102
}
330
22
100
AcDbXrecord
280
     1
270
     1
271
     1
  0
XRECORD
  5
25
102
{ACAD_REACTORS
330
22
102
}
330
22
100
AcDbXrecord
280
     1
270
     1
271
     1
  0
XRECORD
  5
88A
102
{ACAD_REACTORS
330
889
102
}
330
889
100
AcDbXrecord
280
     1
102
ACAD_ROUNDTRIP_2012_MLEADER_STYLE
298
     1
  0
CELLSTYLEMAP
  5
888
102
{ACAD_REACTORS
330
887
102
}
330
887
100
AcDbCellStyleMap
 90
        3
300
CELLSTYLE
  1
TABLEFORMAT_BEGIN
 90
        5
170
     1
 91
        0
 92
    32768
 62
   257
 93
        1
300
CONTENTFORMAT
  1
CONTENTFORMAT_BEGIN
 90
        0
 91
        0
 92
      512
 93
        0
300

 40
0.0
140
1.0
 94
        5
 62
     0
340
55
144
0.25
309
CONTENTFORMAT_END
171
     0
 94
        0
309
TABLEFORMAT_END
  1
CELLSTYLE_BEGIN
 90
        1
 91
        1
300
_TITLE
309
CELLSTYLE_END
300
CELLSTYLE
  1
TABLEFORMAT_BEGIN
 90
        5
170
     1
 91
        0
 92
        0
 62
   257
 93
        1
300
CONTENTFORMAT
  1
CONTENTFORMAT_BEGIN
 90
        0
 91
        0
 92
      512
 93
        0
300

 40
0.0
140
1.0
 94
        5
 62
     0
340
55
144
0.18
309
CONTENTFORMAT_END
171
     0
 94
        0
309
TABLEFORMAT_END
  1
CELLSTYLE_BEGIN
 90
        2
 91
        1
300
_HEADER
309
CELLSTYLE_END
300
CELLSTYLE
  1
TABLEFORMAT_BEGIN
 90
        5
170
     1
 91
        0
 92
        0
 62
   257
 93
        1
300
CONTENTFORMAT
  1
CONTENTFORMAT_BEGIN
 90
        0
 91
        0
 92
      512
 93
        0
300

 40
0.0
140
1.0
 94
        2
 62
     0
340
55
144
0.18
309
CONTENTFORMAT_END
171
     0
 94
        0
309
TABLEFORMAT_END
  1
CELLSTYLE_BEGIN
 90
        3
 91
        2
300
_DATA
309
CELLSTYLE_END
  0
XRECORD
  5
8C0
102
{ACAD_REACTORS
330
887
102
}
330
887
100
AcDbXrecord
280
     1
102
ACAD_ROUNDTRIP_PRE2007_TABLESTYLE
 90
      512
 91
        0
  1

 92
      512
 93
        0
  2

 94
      512
 95
        0
  3

  0
XRECORD
  5
89B
102
{ACAD_REACTORS
330
89A
102
}
330
89A
100
AcDbXrecord
280
     1
102
RTVSPropertyOp0
 70
     1
102
RTVSPropertyOp1
 70
     1
102
RTVSPropertyOp2
 70
     1
102
RTVSPropertyOp3
 70
     1
102
RTVSPropertyOp4
 70
     1
102
RTVSPropertyOp5
 70
     1
102
RTVSPropertyOp6
 70
     1
102
RTVSPropertyOp7
 70
     1
102
RTVSPropertyOp8
 70
     1
102
RTVSPropertyOp9
 70
     1
102
RTVSPropertyOp10
 70
     1
102
RTVSPropertyOp11
 70
     1
102
RTVSPropertyOp12
 70
     1
102
RTVSPropertyOp13
 70
     1
102
RTVSPropertyOp14
 70
     1
102
RTVSPropertyOp15
 70
     1
102
RTVSPropertyOp16
 70
     1
102
RTVSPropertyOp17
 70
     1
102
RTVSPropertyOp18
 70
     1
102
RTVSPropertyOp19
 70
     1
102
RTVSPropertyOp20
 70
     1
102
RTVSPropertyOp21
 70
     1
102
RTVSPropertyOp22
 70
     1
102
RTVSPropertyOp23
 70
     1
102
RTVSPropertyOp24
 70
     1
102
RTVSPropertyOp25
 70
     1
102
RTVSPropertyOp26
 70
     1
102
RTVSPropertyOp27
 70
     1
102
RTVSPropertyOp28
 70
     1
102
RTVSPropertyOp29
 70
     1
102
RTVSPropertyOp30
 70
     1
102
RTVSPropertyOp31
 70
     1
102
RTVSPropertyOp32
 70
     1
  0
XRECORD
  5
899
102
{ACAD_REACTORS
330
898
102
}
330
898
100
AcDbXrecord
280
     1
102
RTVSPropertyOp0
 70
     1
102
RTVSPropertyOp1
 70
     1
102
RTVSPropertyOp2
 70
     1
102
RTVSPropertyOp3
 70
     1
102
RTVSPropertyOp4
 70
     1
102
RTVSPropertyOp5
 70
     1
102
RTVSPropertyOp6
 70
     1
102
RTVSPropertyOp7
 70
     1
102
RTVSPropertyOp8
 70
     1
102
RTVSPropertyOp9
 70
     1
102
RTVSPropertyOp10
 70
     1
102
RTVSPropertyOp11
 70
     1
102
RTVSPropertyOp12
 70
     1
102
RTVSPropertyOp13
 70
     1
102
RTVSPropertyOp14
 70
     1
102
RTVSPropertyOp15
 70
     1
102
RTVSPropertyOp16
 70
     1
102
RTVSPropertyOp17
 70
     1
102
RTVSPropertyOp18
 70
     1
102
RTVSPropertyOp19
 70
     1
102
RTVSPropertyOp20
 70
     1
102
RTVSPropertyOp21
 70
     1
102
RTVSPropertyOp22
 70
     1
102
RTVSPropertyOp23
 70
     1
102
RTVSPropertyOp24
 70
     1
102
RTVSPropertyOp25
 70
     1
102
RTVSPropertyOp26
 70
     1
102
RTVSPropertyOp27
 70
     1
102
RTVSPropertyOp28
 70
     1
102
RTVSPropertyOp29
 70
     1
102
RTVSPropertyOp30
 70
     1
102
RTVSPropertyOp31
 70
     1
102
RTVSPropertyOp32
 70
     1
  0
XRECORD
  5
8A7
102
{ACAD_REACTORS
330
8A6
102
}
330
8A6
100
AcDbXrecord
280
     1
102
RTVSPropertyOp0
 70
     1
102
RTVSPropertyOp1
 70
     1
102
RTVSPropertyOp2
 70
     1
102
RTVSPropertyOp3
 70
     1
102
RTVSPropertyOp4
 70
     1
102
RTVSPropertyOp5
 70
     1
102
RTVSPropertyOp6
 70
     1
102
RTVSPropertyOp7
 70
     1
102
RTVSPropertyOp8
 70
     1
102
RTVSPropertyOp9
 70
     1
102
RTVSPropertyOp10
 70
     1
102
RTVSPropertyOp11
 70
     1
102
RTVSPropertyOp12
 70
     1
102
RTVSPropertyOp13
 70
     1
102
RTVSPropertyOp14
 70
     1
102
RTVSPropertyOp15
 70
     1
102
RTVSPropertyOp16
 70
     1
102
RTVSPropertyOp17
 70
     1
102
RTVSPropertyOp18
 70
     1
102
RTVSPropertyOp19
 70
     1
102
RTVSPropertyOp20
 70
     1
102
RTVSPropertyOp21
 70
     1
102
RTVSPropertyOp22
 70
     1
102
RTVSPropertyOp23
 70
     1
102
RTVSPropertyOp24
 70
     1
102
RTVSPropertyOp25
 70
     1
102
RTVSPropertyOp26
 70
     1
102
RTVSPropertyOp27
 70
     1
102
RTVSPropertyOp28
 70
     1
102
RTVSPropertyOp29
 70
     1
102
RTVSPropertyOp30
 70
     1
102
RTVSPropertyOp31
 70
     1
102
RTVSPropertyOp32
 70
     1
  0
XRECORD
  5
8AF
102
{ACAD_REACTORS
330
8AE
102
}
330
8AE
100
AcDbXrecord
280
     1
102
RTVSPropertyOp0
 70
     1
102
RTVSPropertyOp1
 70
     1
102
RTVSPropertyOp2
 70
     1
102
RTVSPropertyOp3
 70
     1
102
RTVSPropertyOp4
 70
     1
102
RTVSPropertyOp5
 70
     1
102
RTVSPropertyOp6
 70
     1
102
RTVSPropertyOp7
 70
     1
102
RTVSPropertyOp8
 70
     1
102
RTVSPropertyOp9
 70
     1
102
RTVSPropertyOp10
 70
     1
102
RTVSPropertyOp11
 70
     1
102
RTVSPropertyOp12
 70
     1
102
RTVSPropertyOp13
 70
     1
102
RTVSPropertyOp14
 70
     1
102
RTVSPropertyOp15
 70
     1
102
RTVSPropertyOp16
 70
     1
102
RTVSPropertyOp17
 70
     1
102
RTVSPropertyOp18
 70
     1
102
RTVSPropertyOp19
 70
     1
102
RTVSPropertyOp20
 70
     1
102
RTVSPropertyOp21
 70
     1
102
RTVSPropertyOp22
 70
     1
102
RTVSPropertyOp23
 70
     1
102
RTVSPropertyOp24
 70
     1
102
RTVSPropertyOp25
 70
     1
102
RTVSPropertyOp26
 70
     1
102
RTVSPropertyOp27
 70
     1
102
RTVSPropertyOp28
 70
     1
102
RTVSPropertyOp29
 70
     1
102
RTVSPropertyOp30
 70
     1
102
RTVSPropertyOp31
 70
     1
102
RTVSPropertyOp32
 70
     1
  0
XRECORD
  5
8A1
102
{ACAD_REACTORS
330
8A0
102
}
330
8A0
100
AcDbXrecord
280
     1
102
RTVSPropertyOp0
 70
     1
102
RTVSPropertyOp1
 70
     1
102
RTVSPropertyOp2
 70
     1
102
RTVSPropertyOp3
 70
     1
102
RTVSPropertyOp4
 70
     1
102
RTVSPropertyOp5
 70
     1
102
RTVSPropertyOp6
 70
     1
102
RTVSPropertyOp7
 70
     1
102
RTVSPropertyOp8
 70
     1
102
RTVSPropertyOp9
 70
     1
102
RTVSPropertyOp10
 70
     1
102
RTVSPropertyOp11
 70
     1
102
RTVSPropertyOp12
 70
     1
102
RTVSPropertyOp13
 70
     1
102
RTVSPropertyOp14
 70
     1
102
RTVSPropertyOp15
 70
     1
102
RTVSPropertyOp16
 70
     1
102
RTVSPropertyOp17
 70
     1
102
RTVSPropertyOp18
 70
     1
102
RTVSPropertyOp19
 70
     1
102
RTVSPropertyOp20
 70
     1
102
RTVSPropertyOp21
 70
     1
102
RTVSPropertyOp22
 70
     1
102
RTVSPropertyOp23
 70
     1
102
RTVSPropertyOp24
 70
     1
102
RTVSPropertyOp25
 70
     1
102
RTVSPropertyOp26
 70
     1
102
RTVSPropertyOp27
 70
     1
102
RTVSPropertyOp28
 70
     1
102
RTVSPropertyOp29
 70
     1
102
RTVSPropertyOp30
 70
     1
102
RTVSPropertyOp31
 70
     1
102
RTVSPropertyOp32
 70
     1
  0
XRECORD
  5
8A5
102
{ACAD_REACTORS
330
8A4
102
}
330
8A4
100
AcDbXrecord
280
     1
102
RTVSPropertyOp0
 70
     1
102
RTVSPropertyOp1
 70
     1
102
RTVSPropertyOp2
 70
     1
102
RTVSPropertyOp3
 70
     1
102
RTVSPropertyOp4
 70
     1
102
RTVSPropertyOp5
 70
     1
102
RTVSPropertyOp6
 70
     1
102
RTVSPropertyOp7
 70
     1
102
RTVSPropertyOp8
 70
     1
102
RTVSPropertyOp9
 70
     1
102
RTVSPropertyOp10
 70
     1
102
RTVSPropertyOp11
 70
     1
102
RTVSPropertyOp12
 70
     1
102
RTVSPropertyOp13
 70
     1
102
RTVSPropertyOp14
 70
     1
102
RTVSPropertyOp15
 70
     1
102
RTVSPropertyOp16
 70
     1
102
RTVSPropertyOp17
 70
     1
102
RTVSPropertyOp18
 70
     1
102
RTVSPropertyOp19
 70
     1
102
RTVSPropertyOp20
 70
     1
102
RTVSPropertyOp21
 70
     1
102
RTVSPropertyOp22
 70
     1
102
RTVSPropertyOp23
 70
     1
102
RTVSPropertyOp24
 70
     1
102
RTVSPropertyOp25
 70
     1
102
RTVSPropertyOp26
 70
     1
102
RTVSPropertyOp27
 70
     1
102
RTVSPropertyOp28
 70
     1
102
RTVSPropertyOp29
 70
     1
102
RTVSPropertyOp30
 70
     1
102
RTVSPropertyOp31
 70
     1
102
RTVSPropertyOp32
 70
     1
  0
XRECORD
  5
8BF
102
{ACAD_REACTORS
330
8BE
102
}
330
8BE
100
AcDbXrecord
280
     1
102
RTVSPropertyOp0
 70
     0
102
RTVSPropertyOp1
 70
     0
102
RTVSPropertyOp2
 70
     0
102
RTVSPropertyOp3
 70
     0
102
RTVSPropertyOp4
 70
     0
102
RTVSPropertyOp5
 70
     0
102
RTVSPropertyOp6
 70
     0
102
RTVSPropertyOp7
 70
     0
102
RTVSPropertyOp8
 70
     0
102
RTVSPropertyOp9
 70
     0
102
RTVSPropertyOp10
 70
     0
102
RTVSPropertyOp11
 70
     0
102
RTVSPropertyOp12
 70
     0
102
RTVSPropertyOp13
 70
     0
102
RTVSPropertyOp14
 70
     2
102
RTVSPropertyOp15
 70
     0
102
RTVSPropertyOp16
 70
     0
102
RTVSPropertyOp17
 70
     0
102
RTVSPropertyOp18
 70
     0
102
RTVSPropertyOp19
 70
     0
102
RTVSPropertyOp20
 70
     0
102
RTVSPropertyOp21
 70
     0
102
RTVSPropertyOp22
 70
     0
102
RTVSPropertyOp23
 70
     0
102
RTVSPropertyOp24
 70
     0
102
RTVSPropertyOp25
 70
     0
102
RTVSPropertyOp26
 70
     0
102
RTVSPropertyOp27
 70
     0
102
RTVSPropertyOp28
 70
     1
102
RTVSPropertyOp29
 70
     1
102
RTVSPropertyOp30
 70
     1
102
RTVSPropertyOp31
 70
     1
102
RTVSPropertyOp32
 70
     1
  0
XRECORD
  5
8AD
102
{ACAD_REACTORS
330
8AC
102
}
330
8AC
100
AcDbXrecord
280
     1
102
RTVSPropertyOp0
 70
     1
102
RTVSPropertyOp1
 70
     1
102
RTVSPropertyOp2
 70
     1
102
RTVSPropertyOp3
 70
     1
102
RTVSPropertyOp4
 70
     1
102
RTVSPropertyOp5
 70
     1
102
RTVSPropertyOp6
 70
     1
102
RTVSPropertyOp7
 70
     1
102
RTVSPropertyOp8
 70
     1
102
RTVSPropertyOp9
 70
     1
102
RTVSPropertyOp10
 70
     1
102
RTVSPropertyOp11
 70
     1
102
RTVSPropertyOp12
 70
     1
102
RTVSPropertyOp13
 70
     1
102
RTVSPropertyOp14
 70
     1
102
RTVSPropertyOp15
 70
     1
102
RTVSPropertyOp16
 70
     1
102
RTVSPropertyOp17
 70
     1
102
RTVSPropertyOp18
 70
     1
102
RTVSPropertyOp19
 70
     1
102
RTVSPropertyOp20
 70
     1
102
RTVSPropertyOp21
 70
     1
102
RTVSPropertyOp22
 70
     1
102
RTVSPropertyOp23
 70
     1
102
RTVSPropertyOp24
 70
     1
102
RTVSPropertyOp25
 70
     1
102
RTVSPropertyOp26
 70
     1
102
RTVSPropertyOp27
 70
     1
102
RTVSPropertyOp28
 70
     1
102
RTVSPropertyOp29
 70
     1
102
RTVSPropertyOp30
 70
     1
102
RTVSPropertyOp31
 70
     1
102
RTVSPropertyOp32
 70
     1
  0
XRECORD
  5
891
102
{ACAD_REACTORS
330
890
102
}
330
890
100
AcDbXrecord
280
     1
102
RTVSPropertyOp0
 70
     1
102
RTVSPropertyOp1
 70
     1
102
RTVSPropertyOp2
 70
     1
102
RTVSPropertyOp3
 70
     1
102
RTVSPropertyOp4
 70
     1
102
RTVSPropertyOp5
 70
     1
102
RTVSPropertyOp6
 70
     1
102
RTVSPropertyOp7
 70
     1
102
RTVSPropertyOp8
 70
     1
102
RTVSPropertyOp9
 70
     1
102
RTVSPropertyOp10
 70
     1
102
RTVSPropertyOp11
 70
     1
102
RTVSPropertyOp12
 70
     1
102
RTVSPropertyOp13
 70
     1
102
RTVSPropertyOp14
 70
     1
102
RTVSPropertyOp15
 70
     1
102
RTVSPropertyOp16
 70
     1
102
RTVSPropertyOp17
 70
     1
102
RTVSPropertyOp18
 70
     1
102
RTVSPropertyOp19
 70
     1
102
RTVSPropertyOp20
 70
     1
102
RTVSPropertyOp21
 70
     1
102
RTVSPropertyOp22
 70
     1
102
RTVSPropertyOp23
 70
     1
102
RTVSPropertyOp24
 70
     1
102
RTVSPropertyOp25
 70
     1
102
RTVSPropertyOp26
 70
     1
102
RTVSPropertyOp27
 70
     1
102
RTVSPropertyOp28
 70
     1
102
RTVSPropertyOp29
 70
     1
102
RTVSPropertyOp30
 70
     1
102
RTVSPropertyOp31
 70
     1
102
RTVSPropertyOp32
 70
     1
  0
XRECORD
  5
893
102
{ACAD_REACTORS
330
892
102
}
330
892
100
AcDbXrecord
280
     1
102
RTVSPropertyOp0
 70
     1
102
RTVSPropertyOp1
 70
     1
102
RTVSPropertyOp2
 70
     1
102
RTVSPropertyOp3
 70
     1
102
RTVSPropertyOp4
 70
     1
102
RTVSPropertyOp5
 70
     1
102
RTVSPropertyOp6
 70
     1
102
RTVSPropertyOp7
 70
     1
102
RTVSPropertyOp8
 70
     1
102
RTVSPropertyOp9
 70
     1
102
RTVSPropertyOp10
 70
     1
102
RTVSPropertyOp11
 70
     1
102
RTVSPropertyOp12
 70
     1
102
RTVSPropertyOp13
 70
     1
102
RTVSPropertyOp14
 70
     1
102
RTVSPropertyOp15
 70
     1
102
RTVSPropertyOp16
 70
     1
102
RTVSPropertyOp17
 70
     1
102
RTVSPropertyOp18
 70
     1
102
RTVSPropertyOp19
 70
     1
102
RTVSPropertyOp20
 70
     1
102
RTVSPropertyOp21
 70
     1
102
RTVSPropertyOp22
 70
     1
102
RTVSPropertyOp23
 70
     1
102
RTVSPropertyOp24
 70
     1
102
RTVSPropertyOp25
 70
     1
102
RTVSPropertyOp26
 70
     1
102
RTVSPropertyOp27
 70
     1
102
RTVSPropertyOp28
 70
     1
102
RTVSPropertyOp29
 70
     1
102
RTVSPropertyOp30
 70
     1
102
RTVSPropertyOp31
 70
     1
102
RTVSPropertyOp32
 70
     1
  0
XRECORD
  5
895
102
{ACAD_REACTORS
330
894
102
}
330
894
100
AcDbXrecord
280
     1
102
RTVSPropertyOp0
 70
     1
102
RTVSPropertyOp1
 70
     1
102
RTVSPropertyOp2
 70
     1
102
RTVSPropertyOp3
 70
     1
102
RTVSPropertyOp4
 70
     1
102
RTVSPropertyOp5
 70
     1
102
RTVSPropertyOp6
 70
     1
102
RTVSPropertyOp7
 70
     1
102
RTVSPropertyOp8
 70
     1
102
RTVSPropertyOp9
 70
     1
102
RTVSPropertyOp10
 70
     1
102
RTVSPropertyOp11
 70
     1
102
RTVSPropertyOp12
 70
     1
102
RTVSPropertyOp13
 70
     1
102
RTVSPropertyOp14
 70
     1
102
RTVSPropertyOp15
 70
     1
102
RTVSPropertyOp16
 70
     1
102
RTVSPropertyOp17
 70
     1
102
RTVSPropertyOp18
 70
     1
102
RTVSPropertyOp19
 70
     1
102
RTVSPropertyOp20
 70
     1
102
RTVSPropertyOp21
 70
     1
102
RTVSPropertyOp22
 70
     1
102
RTVSPropertyOp23
 70
     1
102
RTVSPropertyOp24
 70
     1
102
RTVSPropertyOp25
 70
     1
102
RTVSPropertyOp26
 70
     1
102
RTVSPropertyOp27
 70
     1
102
RTVSPropertyOp28
 70
     1
102
RTVSPropertyOp29
 70
     1
102
RTVSPropertyOp30
 70
     1
102
RTVSPropertyOp31
 70
     1
102
RTVSPropertyOp32
 70
     1
  0
XRECORD
  5
897
102
{ACAD_REACTORS
330
896
102
}
330
896
100
AcDbXrecord
280
     1
102
RTVSPropertyOp0
 70
     1
102
RTVSPropertyOp1
 70
     1
102
RTVSPropertyOp2
 70
     1
102
RTVSPropertyOp3
 70
     1
102
RTVSPropertyOp4
 70
     1
102
RTVSPropertyOp5
 70
     1
102
RTVSPropertyOp6
 70
     1
102
RTVSPropertyOp7
 70
     1
102
RTVSPropertyOp8
 70
     1
102
RTVSPropertyOp9
 70
     1
102
RTVSPropertyOp10
 70
     1
102
RTVSPropertyOp11
 70
     1
102
RTVSPropertyOp12
 70
     1
102
RTVSPropertyOp13
 70
     1
102
RTVSPropertyOp14
 70
     1
102
RTVSPropertyOp15
 70
     1
102
RTVSPropertyOp16
 70
     1
102
RTVSPropertyOp17
 70
     1
102
RTVSPropertyOp18
 70
     1
102
RTVSPropertyOp19
 70
     1
102
RTVSPropertyOp20
 70
     1
102
RTVSPropertyOp21
 70
     1
102
RTVSPropertyOp22
 70
     1
102
RTVSPropertyOp23
 70
     1
102
RTVSPropertyOp24
 70
     1
102
RTVSPropertyOp25
 70
     1
102
RTVSPropertyOp26
 70
     1
102
RTVSPropertyOp27
 70
     1
102
RTVSPropertyOp28
 70
     1
102
RTVSPropertyOp29
 70
     1
102
RTVSPropertyOp30
 70
     1
102
RTVSPropertyOp31
 70
     1
102
RTVSPropertyOp32
 70
     1
  0
XRECORD
  5
89F
102
{ACAD_REACTORS
330
89E
102
}
330
89E
100
AcDbXrecord
280
     1
102
RTVSPropertyOp0
 70
     1
102
RTVSPropertyOp1
 70
     1
102
RTVSPropertyOp2
 70
     1
102
RTVSPropertyOp3
 70
     1
102
RTVSPropertyOp4
 70
     1
102
RTVSPropertyOp5
 70
     1
102
RTVSPropertyOp6
 70
     1
102
RTVSPropertyOp7
 70
     1
102
RTVSPropertyOp8
 70
     1
102
RTVSPropertyOp9
 70
     1
102
RTVSPropertyOp10
 70
     1
102
RTVSPropertyOp11
 70
     1
102
RTVSPropertyOp12
 70
     1
102
RTVSPropertyOp13
 70
     1
102
RTVSPropertyOp14
 70
     1
102
RTVSPropertyOp15
 70
     1
102
RTVSPropertyOp16
 70
     1
102
RTVSPropertyOp17
 70
     1
102
RTVSPropertyOp18
 70
     1
102
RTVSPropertyOp19
 70
     1
102
RTVSPropertyOp20
 70
     1
102
RTVSPropertyOp21
 70
     1
102
RTVSPropertyOp22
 70
     1
102
RTVSPropertyOp23
 70
     1
102
RTVSPropertyOp24
 70
     1
102
RTVSPropertyOp25
 70
     1
102
RTVSPropertyOp26
 70
     1
102
RTVSPropertyOp27
 70
     1
102
RTVSPropertyOp28
 70
     1
102
RTVSPropertyOp29
 70
     1
102
RTVSPropertyOp30
 70
     1
102
RTVSPropertyOp31
 70
     1
102
RTVSPropertyOp32
 70
     1
  0
XRECORD
  5
8BB
102
{ACAD_REACTORS
330
8BA
102
}
330
8BA
100
AcDbXrecord
280
     1
102
RTVSPropertyOp0
 70
     0
102
RTVSPropertyOp1
 70
     0
102
RTVSPropertyOp2
 70
     0
102
RTVSPropertyOp3
 70
     0
102
RTVSPropertyOp4
 70
     0
102
RTVSPropertyOp5
 70
     0
102
RTVSPropertyOp6
 70
     0
102
RTVSPropertyOp7
 70
     0
102
RTVSPropertyOp8
 70
     0
102
RTVSPropertyOp9
 70
     0
102
RTVSPropertyOp10
 70
     0
102
RTVSPropertyOp11
 70
     0
102
RTVSPropertyOp12
 70
     0
102
RTVSPropertyOp13
 70
     0
102
RTVSPropertyOp14
 70
     2
102
RTVSPropertyOp15
 70
     0
102
RTVSPropertyOp16
 70
     0
102
RTVSPropertyOp17
 70
     0
102
RTVSPropertyOp18
 70
     0
102
RTVSPropertyOp19
 70
     0
102
RTVSPropertyOp20
 70
     0
102
RTVSPropertyOp21
 70
     0
102
RTVSPropertyOp22
 70
     0
102
RTVSPropertyOp23
 70
     0
102
RTVSPropertyOp24
 70
     0
102
RTVSPropertyOp25
 70
     0
102
RTVSPropertyOp26
 70
     0
102
RTVSPropertyOp27
 70
     0
102
RTVSPropertyOp28
 70
     1
102
RTVSPropertyOp29
 70
     1
102
RTVSPropertyOp30
 70
     1
102
RTVSPropertyOp31
 70
     1
102
RTVSPropertyOp32
 70
     1
  0
XRECORD
  5
8AB
102
{ACAD_REACTORS
330
8AA
102
}
330
8AA
100
AcDbXrecord
280
     1
102
RTVSPropertyOp0
 70
     1
102
RTVSPropertyOp1
 70
     1
102
RTVSPropertyOp2
 70
     1
102
RTVSPropertyOp3
 70
     1
102
RTVSPropertyOp4
 70
     1
102
RTVSPropertyOp5
 70
     1
102
RTVSPropertyOp6
 70
     1
102
RTVSPropertyOp7
 70
     1
102
RTVSPropertyOp8
 70
     1
102
RTVSPropertyOp9
 70
     1
102
RTVSPropertyOp10
 70
     1
102
RTVSPropertyOp11
 70
     1
102
RTVSPropertyOp12
 70
     1
102
RTVSPropertyOp13
 70
     1
102
RTVSPropertyOp14
 70
     1
102
RTVSPropertyOp15
 70
     1
102
RTVSPropertyOp16
 70
     1
102
RTVSPropertyOp17
 70
     1
102
RTVSPropertyOp18
 70
     1
102
RTVSPropertyOp19
 70
     1
102
RTVSPropertyOp20
 70
     1
102
RTVSPropertyOp21
 70
     1
102
RTVSPropertyOp22
 70
     1
102
RTVSPropertyOp23
 70
     1
102
RTVSPropertyOp24
 70
     1
102
RTVSPropertyOp25
 70
     1
102
RTVSPropertyOp26
 70
     1
102
RTVSPropertyOp27
 70
     1
102
RTVSPropertyOp28
 70
     1
102
RTVSPropertyOp29
 70
     1
102
RTVSPropertyOp30
 70
     1
102
RTVSPropertyOp31
 70
     1
102
RTVSPropertyOp32
 70
     1
  0
XRECORD
  5
8BD
102
{ACAD_REACTORS
330
8BC
102
}
330
8BC
100
AcDbXrecord
280
     1
102
RTVSPropertyOp0
 70
     0
102
RTVSPropertyOp1
 70
     0
102
RTVSPropertyOp2
 70
     0
102
RTVSPropertyOp3
 70
     0
102
RTVSPropertyOp4
 70
     0
102
RTVSPropertyOp5
 70
     0
102
RTVSPropertyOp6
 70
     0
102
RTVSPropertyOp7
 70
     0
102
RTVSPropertyOp8
 70
     0
102
RTVSPropertyOp9
 70
     0
102
RTVSPropertyOp10
 70
     0
102
RTVSPropertyOp11
 70
     0
102
RTVSPropertyOp12
 70
     0
102
RTVSPropertyOp13
 70
     0
102
RTVSPropertyOp14
 70
     2
102
RTVSPropertyOp15
 70
     0
102
RTVSPropertyOp16
 70
     0
102
RTVSPropertyOp17
 70
     0
102
RTVSPropertyOp18
 70
     0
102
RTVSPropertyOp19
 70
     0
102
RTVSPropertyOp20
 70
     0
102
RTVSPropertyOp21
 70
     0
102
RTVSPropertyOp22
 70
     0
102
RTVSPropertyOp23
 70
     0
102
RTVSPropertyOp24
 70
     0
102
RTVSPropertyOp25
 70
     0
102
RTVSPropertyOp26
 70
     0
102
RTVSPropertyOp27
 70
     0
102
RTVSPropertyOp28
 70
     1
102
RTVSPropertyOp29
 70
     1
102
RTVSPropertyOp30
 70
     1
102
RTVSPropertyOp31
 70
     1
102
RTVSPropertyOp32
 70
     1
  0
XRECORD
  5
8A3
102
{ACAD_REACTORS
330
8A2
102
}
330
8A2
100
AcDbXrecord
280
     1
102
RTVSPropertyOp0
 70
     1
102
RTVSPropertyOp1
 70
     1
102
RTVSPropertyOp2
 70
     1
102
RTVSPropertyOp3
 70
     1
102
RTVSPropertyOp4
 70
     1
102
RTVSPropertyOp5
 70
     1
102
RTVSPropertyOp6
 70
     1
102
RTVSPropertyOp7
 70
     1
102
RTVSPropertyOp8
 70
     1
102
RTVSPropertyOp9
 70
     1
102
RTVSPropertyOp10
 70
     1
102
RTVSPropertyOp11
 70
     1
102
RTVSPropertyOp12
 70
     1
102
RTVSPropertyOp13
 70
     1
102
RTVSPropertyOp14
 70
     1
102
RTVSPropertyOp15
 70
     1
102
RTVSPropertyOp16
 70
     1
102
RTVSPropertyOp17
 70
     1
102
RTVSPropertyOp18
 70
     1
102
RTVSPropertyOp19
 70
     1
102
RTVSPropertyOp20
 70
     1
102
RTVSPropertyOp21
 70
     1
102
RTVSPropertyOp22
 70
     1
102
RTVSPropertyOp23
 70
     1
102
RTVSPropertyOp24
 70
     1
102
RTVSPropertyOp25
 70
     1
102
RTVSPropertyOp26
 70
     1
102
RTVSPropertyOp27
 70
     1
102
RTVSPropertyOp28
 70
     1
102
RTVSPropertyOp29
 70
     1
102
RTVSPropertyOp30
 70
     1
102
RTVSPropertyOp31
 70
     1
102
RTVSPropertyOp32
 70
     1
  0
XRECORD
  5
8B9
102
{ACAD_REACTORS
330
8B8
102
}
330
8B8
100
AcDbXrecord
280
     1
102
RTVSPropertyOp0
 70
     1
102
RTVSPropertyOp1
 70
     1
102
RTVSPropertyOp2
 70
     1
102
RTVSPropertyOp3
 70
     1
102
RTVSPropertyOp4
 70
     1
102
RTVSPropertyOp5
 70
     1
102
RTVSPropertyOp6
 70
     1
102
RTVSPropertyOp7
 70
     1
102
RTVSPropertyOp8
 70
     1
102
RTVSPropertyOp9
 70
     1
102
RTVSPropertyOp10
 70
     1
102
RTVSPropertyOp11
 70
     1
102
RTVSPropertyOp12
 70
     1
102
RTVSPropertyOp13
 70
     1
102
RTVSPropertyOp14
 70
     1
102
RTVSPropertyOp15
 70
     1
102
RTVSPropertyOp16
 70
     1
102
RTVSPropertyOp17
 70
     1
102
RTVSPropertyOp18
 70
     1
102
RTVSPropertyOp19
 70
     1
102
RTVSPropertyOp20
 70
     1
102
RTVSPropertyOp21
 70
     1
102
RTVSPropertyOp22
 70
     1
102
RTVSPropertyOp23
 70
     1
102
RTVSPropertyOp24
 70
     1
102
RTVSPropertyOp25
 70
     1
102
RTVSPropertyOp26
 70
     1
102
RTVSPropertyOp27
 70
     1
102
RTVSPropertyOp28
 70
     1
102
RTVSPropertyOp29
 70
     1
102
RTVSPropertyOp30
 70
     1
102
RTVSPropertyOp31
 70
     1
102
RTVSPropertyOp32
 70
     1
  0
XRECORD
  5
8B7
102
{ACAD_REACTORS
330
8B6
102
}
330
8B6
100
AcDbXrecord
280
     1
102
RTVSPropertyOp0
 70
     1
102
RTVSPropertyOp1
 70
     1
102
RTVSPropertyOp2
 70
     1
102
RTVSPropertyOp3
 70
     1
102
RTVSPropertyOp4
 70
     1
102
RTVSPropertyOp5
 70
     1
102
RTVSPropertyOp6
 70
     1
102
RTVSPropertyOp7
 70
     1
102
RTVSPropertyOp8
 70
     1
102
RTVSPropertyOp9
 70
     1
102
RTVSPropertyOp10
 70
     1
102
RTVSPropertyOp11
 70
     1
102
RTVSPropertyOp12
 70
     1
102
RTVSPropertyOp13
 70
     1
102
RTVSPropertyOp14
 70
     1
102
RTVSPropertyOp15
 70
     1
102
RTVSPropertyOp16
 70
     1
102
RTVSPropertyOp17
 70
     1
102
RTVSPropertyOp18
 70
     1
102
RTVSPropertyOp19
 70
     1
102
RTVSPropertyOp20
 70
     1
102
RTVSPropertyOp21
 70
     1
102
RTVSPropertyOp22
 70
     1
102
RTVSPropertyOp23
 70
     1
102
RTVSPropertyOp24
 70
     1
102
RTVSPropertyOp25
 70
     1
102
RTVSPropertyOp26
 70
     1
102
RTVSPropertyOp27
 70
     1
102
RTVSPropertyOp28
 70
     1
102
RTVSPropertyOp29
 70
     1
102
RTVSPropertyOp30
 70
     1
102
RTVSPropertyOp31
 70
     1
102
RTVSPropertyOp32
 70
     1
  0
XRECORD
  5
8B1
102
{ACAD_REACTORS
330
8B0
102
}
330
8B0
100
AcDbXrecord
280
     1
102
RTVSPropertyOp0
 70
     1
102
RTVSPropertyOp1
 70
     1
102
RTVSPropertyOp2
 70
     1
102
RTVSPropertyOp3
 70
     1
102
RTVSPropertyOp4
 70
     1
102
RTVSPropertyOp5
 70
     1
102
RTVSPropertyOp6
 70
     1
102
RTVSPropertyOp7
 70
     1
102
RTVSPropertyOp8
 70
     1
102
RTVSPropertyOp9
 70
     1
102
RTVSPropertyOp10
 70
     1
102
RTVSPropertyOp11
 70
     1
102
RTVSPropertyOp12
 70
     1
102
RTVSPropertyOp13
 70
     1
102
RTVSPropertyOp14
 70
     1
102
RTVSPropertyOp15
 70
     1
102
RTVSPropertyOp16
 70
     1
102
RTVSPropertyOp17
 70
     1
102
RTVSPropertyOp18
 70
     1
102
RTVSPropertyOp19
 70
     1
102
RTVSPropertyOp20
 70
     1
102
RTVSPropertyOp21
 70
     1
102
RTVSPropertyOp22
 70
     1
102
RTVSPropertyOp23
 70
     1
102
RTVSPropertyOp24
 70
     1
102
RTVSPropertyOp25
 70
     1
102
RTVSPropertyOp26
 70
     1
102
RTVSPropertyOp27
 70
     1
102
RTVSPropertyOp28
 70
     1
102
RTVSPropertyOp29
 70
     1
102
RTVSPropertyOp30
 70
     1
102
RTVSPropertyOp31
 70
     1
102
RTVSPropertyOp32
 70
     1
  0
XRECORD
  5
8B3
102
{ACAD_REACTORS
330
8B2
102
}
330
8B2
100
AcDbXrecord
280
     1
102
RTVSPropertyOp0
 70
     1
102
RTVSPropertyOp1
 70
     1
102
RTVSPropertyOp2
 70
     1
102
RTVSPropertyOp3
 70
     1
102
RTVSPropertyOp4
 70
     1
102
RTVSPropertyOp5
 70
     1
102
RTVSPropertyOp6
 70
     1
102
RTVSPropertyOp7
 70
     1
102
RTVSPropertyOp8
 70
     1
102
RTVSPropertyOp9
 70
     1
102
RTVSPropertyOp10
 70
     1
102
RTVSPropertyOp11
 70
     1
102
RTVSPropertyOp12
 70
     1
102
RTVSPropertyOp13
 70
     1
102
RTVSPropertyOp14
 70
     1
102
RTVSPropertyOp15
 70
     1
102
RTVSPropertyOp16
 70
     1
102
RTVSPropertyOp17
 70
     1
102
RTVSPropertyOp18
 70
     1
102
RTVSPropertyOp19
 70
     1
102
RTVSPropertyOp20
 70
     1
102
RTVSPropertyOp21
 70
     1
102
RTVSPropertyOp22
 70
     1
102
RTVSPropertyOp23
 70
     1
102
RTVSPropertyOp24
 70
     1
102
RTVSPropertyOp25
 70
     1
102
RTVSPropertyOp26
 70
     1
102
RTVSPropertyOp27
 70
     1
102
RTVSPropertyOp28
 70
     1
102
RTVSPropertyOp29
 70
     1
102
RTVSPropertyOp30
 70
     1
102
RTVSPropertyOp31
 70
     1
102
RTVSPropertyOp32
 70
     1
  0
XRECORD
  5
8A9
102
{ACAD_REACTORS
330
8A8
102
}
330
8A8
100
AcDbXrecord
280
     1
102
RTVSPropertyOp0
 70
     1
102
RTVSPropertyOp1
 70
     1
102
RTVSPropertyOp2
 70
     1
102
RTVSPropertyOp3
 70
     1
102
RTVSPropertyOp4
 70
     1
102
RTVSPropertyOp5
 70
     1
102
RTVSPropertyOp6
 70
     1
102
RTVSPropertyOp7
 70
     1
102
RTVSPropertyOp8
 70
     1
102
RTVSPropertyOp9
 70
     1
102
RTVSPropertyOp10
 70
     1
102
RTVSPropertyOp11
 70
     1
102
RTVSPropertyOp12
 70
     1
102
RTVSPropertyOp13
 70
     1
102
RTVSPropertyOp14
 70
     1
102
RTVSPropertyOp15
 70
     1
102
RTVSPropertyOp16
 70
     1
102
RTVSPropertyOp17
 70
     1
102
RTVSPropertyOp18
 70
     1
102
RTVSPropertyOp19
 70
     1
102
RTVSPropertyOp20
 70
     1
102
RTVSPropertyOp21
 70
     1
102
RTVSPropertyOp22
 70
     1
102
RTVSPropertyOp23
 70
     1
102
RTVSPropertyOp24
 70
     1
102
RTVSPropertyOp25
 70
     1
102
RTVSPropertyOp26
 70
     1
102
RTVSPropertyOp27
 70
     1
102
RTVSPropertyOp28
 70
     1
102
RTVSPropertyOp29
 70
     1
102
RTVSPropertyOp30
 70
     1
102
RTVSPropertyOp31
 70
     1
102
RTVSPropertyOp32
 70
     1
  0
XRECORD
  5
89D
102
{ACAD_REACTORS
330
89C
102
}
330
89C
100
AcDbXrecord
280
     1
102
RTVSPropertyOp0
 70
     1
102
RTVSPropertyOp1
 70
     1
102
RTVSPropertyOp2
 70
     1
102
RTVSPropertyOp3
 70
     1
102
RTVSPropertyOp4
 70
     1
102
RTVSPropertyOp5
 70
     1
102
RTVSPropertyOp6
 70
     1
102
RTVSPropertyOp7
 70
     1
102
RTVSPropertyOp8
 70
     1
102
RTVSPropertyOp9
 70
     1
102
RTVSPropertyOp10
 70
     1
102
RTVSPropertyOp11
 70
     1
102
RTVSPropertyOp12
 70
     1
102
RTVSPropertyOp13
 70
     1
102
RTVSPropertyOp14
 70
     1
102
RTVSPropertyOp15
 70
     1
102
RTVSPropertyOp16
 70
     1
102
RTVSPropertyOp17
 70
     1
102
RTVSPropertyOp18
 70
     1
102
RTVSPropertyOp19
 70
     1
102
RTVSPropertyOp20
 70
     1
102
RTVSPropertyOp21
 70
     1
102
RTVSPropertyOp22
 70
     1
102
RTVSPropertyOp23
 70
     1
102
RTVSPropertyOp24
 70
     1
102
RTVSPropertyOp25
 70
     1
102
RTVSPropertyOp26
 70
     1
102
RTVSPropertyOp27
 70
     1
102
RTVSPropertyOp28
 70
     1
102
RTVSPropertyOp29
 70
     1
102
RTVSPropertyOp30
 70
     1
102
RTVSPropertyOp31
 70
     1
102
RTVSPropertyOp32
 70
     1
  0
XRECORD
  5
8B5
102
{ACAD_REACTORS
330
8B4
102
}
330
8B4
100
AcDbXrecord
280
     1
102
RTVSPropertyOp0
 70
     1
102
RTVSPropertyOp1
 70
     1
102
RTVSPropertyOp2
 70
     1
102
RTVSPropertyOp3
 70
     1
102
RTVSPropertyOp4
 70
     1
102
RTVSPropertyOp5
 70
     1
102
RTVSPropertyOp6
 70
     1
102
RTVSPropertyOp7
 70
     1
102
RTVSPropertyOp8
 70
     1
102
RTVSPropertyOp9
 70
     1
102
RTVSPropertyOp10
 70
     1
102
RTVSPropertyOp11
 70
     1
102
RTVSPropertyOp12
 70
     1
102
RTVSPropertyOp13
 70
     1
102
RTVSPropertyOp14
 70
     1
102
RTVSPropertyOp15
 70
     1
102
RTVSPropertyOp16
 70
     1
102
RTVSPropertyOp17
 70
     1
102
RTVSPropertyOp18
 70
     1
102
RTVSPropertyOp19
 70
     1
102
RTVSPropertyOp20
 70
     1
102
RTVSPropertyOp21
 70
     1
102
RTVSPropertyOp22
 70
     1
102
RTVSPropertyOp23
 70
     1
102
RTVSPropertyOp24
 70
     1
102
RTVSPropertyOp25
 70
     1
102
RTVSPropertyOp26
 70
     1
102
RTVSPropertyOp27
 70
     1
102
RTVSPropertyOp28
 70
     1
102
RTVSPropertyOp29
 70
     1
102
RTVSPropertyOp30
 70
     1
102
RTVSPropertyOp31
 70
     1
102
RTVSPropertyOp32
 70
     1
  0
ENDSEC
  0
EOF
