  0
SECTION
  2
HEADER
  9
$ACADVER
  1
AC1024
  9
$ACADMAINTVER
 70
    63
  9
$DWGCODEPAGE
  3
ANSI_1252
  9
$AUTHOR
  1
KRA
  9
$REVISIONNUMBER
  1
-
  9
$CUSTOMPROPERTYTAG
  1
Manager
  9
$CUSTOMPROPERTY
  1

  9
$CUSTOMPROPERTYTAG
  1
Company
  9
$CUSTOMPROPERTY
  1

  9
$CUSTOMPROPERTYTAG
  1
Category
  9
$CUSTOMPROPERTY
  1

  9
$CUSTOMPROPERTYTAG
  1
Part Number
  9
$CUSTOMPROPERTY
  1
HWDP0604SS-S
  9
$CUSTOMPROPERTYTAG
  1
Description
  9
$CUSTOMPROPERTY
  1
P SERIES BACK PANEL MASTER VIEW
  9
$CUSTOMPROPERTYTAG
  1
Project
  9
$CUSTOMPROPERTY
  1

  9
$CUSTOMPROPERTYTAG
  1
Designer
  9
$CUSTOMPROPERTY
  1
KRA
  9
$CUSTOMPROPERTYTAG
  1
Engineer
  9
$CUSTOMPROPERTY
  1

  9
$CUSTOMPROPERTYTAG
  1
Authority
  9
$CUSTOMPROPERTY
  1

  9
$CUSTOMPROPERTYTAG
  1
Cost Center
  9
$CUSTOMPROPERTY
  1

  9
$CUSTOMPROPERTYTAG
  1
Vendor
  9
$CUSTOMPROPERTY
  1

  9
$CUSTOMPROPERTYTAG
  1
User Status
  9
$CUSTOMPROPERTY
  1

  9
$CUSTOMPROPERTYTAG
  1
Design Status
  9
$CUSTOMPROPERTY
  1
WorkInProgress
  9
$CUSTOMPROPERTYTAG
  1
Checked by
  9
$CUSTOMPROPERTY
  1
JMG
  9
$CUSTOMPROPERTYTAG
  1
Date Checked
  9
$CUSTOMPROPERTY
  1
02/12/2009
  9
$CUSTOMPROPERTYTAG
  1
Engr Approved by
  9
$CUSTOMPROPERTY
  1

  9
$CUSTOMPROPERTYTAG
  1
Mfg Approved by
  9
$CUSTOMPROPERTY
  1

  9
$CUSTOMPROPERTYTAG
  1
DWG. NO
  9
$CUSTOMPROPERTY
  1

  9
$CUSTOMPROPERTYTAG
  1
NUMBER OF SHEETS
  9
$CUSTOMPROPERTY
  1
1
  9
$CUSTOMPROPERTYTAG
  1
DRAWING #
  9
$CUSTOMPROPERTY
  1
1
  9
$INSBASE
 10
0.0
 20
0.0
 30
0.0
  9
$EXTMIN
 10
0.0
 20
0.0
 30
0.0
  9
$EXTMAX
 10
15.11111111111111
 20
9.777777777777776
 30
0.0
  9
$LIMMIN
 10
0.0
 20
0.0
  9
$LIMMAX
 10
15.11111111111111
 20
9.777777777777776
  9
$ORTHOMODE
 70
     0
  9
$REGENMODE
 70
     1
  9
$FILLMODE
 70
     1
  9
$QTEXTMODE
 70
     0
  9
$MIRRTEXT
 70
     0
  9
$LTSCALE
 40
0.8888888888888889
  9
$ATTMODE
 70
     1
  9
$TEXTSIZE
 40
0.2
  9
$TRACEWID
 40
0.05
  9
$TEXTSTYLE
  7
Standard
  9
$CLAYER
  8
0
  9
$CELTYPE
  6
ByLayer
  9
$CECOLOR
 62
   256
  9
$CELTSCALE
 40
1.0
  9
$DISPSILH
 70
     0
  9
$DIMSCALE
 40
1.0
  9
$DIMASZ
 40
0.0708661417322835
  9
$DIMEXO
 40
0.0625
  9
$DIMDLI
 40
0.38
  9
$DIMRND
 40
0.0
  9
$DIMDLE
 40
0.0
  9
$DIMEXE
 40
0.18
  9
$DIMTP
 40
0.0
  9
$DIMTM
 40
0.0
  9
$DIMTXT
 40
0.0708661417322835
  9
$DIMCEN
 40
0.09
  9
$DIMTSZ
 40
0.0
  9
$DIMTOL
 70
     0
  9
$DIMLIM
 70
     0
  9
$DIMTIH
 70
     1
  9
$DIMTOH
 70
     1
  9
$DIMSE1
 70
     0
  9
$DIMSE2
 70
     0
  9
$DIMTAD
 70
     0
  9
$DIMZIN
 70
     0
  9
$DIMBLK
  1

  9
$DIMASO
 70
     1
  9
$DIMSHO
 70
     1
  9
$DIMPOST
  1

  9
$DIMAPOST
  1

  9
$DIMALT
 70
     0
  9
$DIMALTD
 70
     2
  9
$DIMALTF
 40
25.4
  9
$DIMLFAC
 40
1.0
  9
$DIMTOFL
 70
     0
  9
$DIMTVP
 40
0.0
  9
$DIMTIX
 70
     0
  9
$DIMSOXD
 70
     0
  9
$DIMSAH
 70
     0
  9
$DIMBLK1
  1

  9
$DIMBLK2
  1

  9
$DIMSTYLE
  2
STANDARD
  9
$DIMCLRD
 70
     0
  9
$DIMCLRE
 70
     0
  9
$DIMCLRT
 70
     0
  9
$DIMTFAC
 40
1.0
  9
$DIMGAP
 40
0.09
  9
$DIMJUST
 70
     0
  9
$DIMSD1
 70
     0
  9
$DIMSD2
 70
     0
  9
$DIMTOLJ
 70
     1
  9
$DIMTZIN
 70
     0
  9
$DIMALTZ
 70
     0
  9
$DIMALTTZ
 70
     0
  9
$DIMUPT
 70
     0
  9
$DIMDEC
 70
     4
  9
$DIMTDEC
 70
     4
  9
$DIMALTU
 70
     2
  9
$DIMALTTD
 70
     2
  9
$DIMTXSTY
  7
Standard
  9
$DIMAUNIT
 70
     0
  9
$DIMADEC
 70
     0
  9
$DIMALTRND
 40
0.0
  9
$DIMAZIN
 70
     0
  9
$DIMDSEP
 70
    46
  9
$DIMATFIT
 70
     3
  9
$DIMFRAC
 70
     0
  9
$DIMLDRBLK
  1

  9
$DIMLUNIT
 70
     2
  9
$DIMLWD
 70
    -2
  9
$DIMLWE
 70
    -2
  9
$DIMTMOVE
 70
     0
  9
$DIMFXL
 40
1.0
  9
$DIMFXLON
 70
     0
  9
$DIMJOGANG
 40
0.7853981633974483
  9
$DIMTFILL
 70
     0
  9
$DIMTFILLCLR
 70
     0
  9
$DIMARCSYM
 70
     0
  9
$DIMLTYPE
  6

  9
$DIMLTEX1
  6

  9
$DIMLTEX2
  6

  9
$DIMTXTDIRECTION
 70
     0
  9
$LUNITS
 70
     2
  9
$LUPREC
 70
     4
  9
$SKETCHINC
 40
0.1
  9
$FILLETRAD
 40
0.0
  9
$AUNITS
 70
     0
  9
$AUPREC
 70
     0
  9
$MENU
  1
.
  9
$ELEVATION
 40
0.0
  9
$PELEVATION
 40
0.0
  9
$THICKNESS
 40
0.0
  9
$LIMCHECK
 70
     0
  9
$CHAMFERA
 40
0.0
  9
$CHAMFERB
 40
0.0
  9
$CHAMFERC
 40
0.0
  9
$CHAMFERD
 40
0.0
  9
$SKPOLY
 70
     0
  9
$TDCREATE
 40
2456107.471715868
  9
$TDUCREATE
 40
2456107.680049202
  9
$TDUPDATE
 40
2456107.471715868
  9
$TDUUPDATE
 40
2456107.680049202
  9
$TDINDWG
 40
0.0000239468
  9
$TDUSRTIMER
 40
0.0000239468
  9
$USRTIMER
 70
     1
  9
$ANGBASE
 50
0.0
  9
$ANGDIR
 70
     0
  9
$PDMODE
 70
     0
  9
$PDSIZE
 40
0.0
  9
$PLINEWID
 40
0.0
  9
$SPLFRAME
 70
     0
  9
$SPLINETYPE
 70
     6
  9
$SPLINESEGS
 70
     8
  9
$HANDSEED
  5
89C
  9
$SURFTAB1
 70
     6
  9
$SURFTAB2
 70
     6
  9
$SURFTYPE
 70
     6
  9
$SURFU
 70
     6
  9
$SURFV
 70
     6
  9
$UCSBASE
  2

  9
$UCSNAME
  2

  9
$UCSORG
 10
0.0
 20
0.0
 30
0.0
  9
$UCSXDIR
 10
1.0
 20
0.0
 30
0.0
  9
$UCSYDIR
 10
0.0
 20
1.0
 30
0.0
  9
$UCSORTHOREF
  2

  9
$UCSORTHOVIEW
 70
     0
  9
$UCSORGTOP
 10
0.0
 20
0.0
 30
0.0
  9
$UCSORGBOTTOM
 10
0.0
 20
0.0
 30
0.0
  9
$UCSORGLEFT
 10
0.0
 20
0.0
 30
0.0
  9
$UCSORGRIGHT
 10
0.0
 20
0.0
 30
0.0
  9
$UCSORGFRONT
 10
0.0
 20
0.0
 30
0.0
  9
$UCSORGBACK
 10
0.0
 20
0.0
 30
0.0
  9
$PUCSBASE
  2

  9
$PUCSNAME
  2

  9
$PUCSORG
 10
0.0
 20
0.0
 30
0.0
  9
$PUCSXDIR
 10
1.0
 20
0.0
 30
0.0
  9
$PUCSYDIR
 10
0.0
 20
1.0
 30
0.0
  9
$PUCSORTHOREF
  2

  9
$PUCSORTHOVIEW
 70
     0
  9
$PUCSORGTOP
 10
0.0
 20
0.0
 30
0.0
  9
$PUCSORGBOTTOM
 10
0.0
 20
0.0
 30
0.0
  9
$PUCSORGLEFT
 10
0.0
 20
0.0
 30
0.0
  9
$PUCSORGRIGHT
 10
0.0
 20
0.0
 30
0.0
  9
$PUCSORGFRONT
 10
0.0
 20
0.0
 30
0.0
  9
$PUCSORGBACK
 10
0.0
 20
0.0
 30
0.0
  9
$USERI1
 70
     0
  9
$USERI2
 70
     0
  9
$USERI3
 70
     0
  9
$USERI4
 70
     0
  9
$USERI5
 70
     0
  9
$USERR1
 40
0.0
  9
$USERR2
 40
0.0
  9
$USERR3
 40
0.0
  9
$USERR4
 40
0.0
  9
$USERR5
 40
0.0
  9
$WORLDVIEW
 70
     1
  9
$SHADEDGE
 70
     3
  9
$SHADEDIF
 70
    70
  9
$TILEMODE
 70
     1
  9
$MAXACTVP
 70
    64
  9
$PINSBASE
 10
0.0
 20
0.0
 30
0.0
  9
$PLIMCHECK
 70
     0
  9
$PEXTMIN
 10
0.0
 20
0.0
 30
0.0
  9
$PEXTMAX
 10
15.11111111111111
 20
9.777777777777776
 30
0.0
  9
$PLIMMIN
 10
0.0
 20
0.0
  9
$PLIMMAX
 10
15.11111111111111
 20
9.777777777777776
  9
$UNITMODE
 70
     0
  9
$VISRETAIN
 70
     1
  9
$PLINEGEN
 70
     0
  9
$PSLTSCALE
 70
     1
  9
$TREEDEPTH
 70
  3020
  9
$CMLSTYLE
  2
Standard
  9
$CMLJUST
 70
     0
  9
$CMLSCALE
 40
1.0
  9
$PROXYGRAPHICS
 70
     1
  9
$MEASUREMENT
 70
     0
  9
$CELWEIGHT
370
    -1
  9
$ENDCAPS
280
     0
  9
$JOINSTYLE
280
     0
  9
$LWDISPLAY
290
     0
  9
$INSUNITS
 70
     1
  9
$HYPERLINKBASE
  1

  9
$STYLESHEET
  1

  9
$XEDIT
290
     1
  9
$CEPSNTYPE
380
     0
  9
$PSTYLEMODE
290
     1
  9
$FINGERPRINTGUID
  2
{F07C817C-A839-4133-9C17-219E0A31BE8B}
  9
$VERSIONGUID
  2
{7C8CDD18-7986-4828-9237-EB2D6F4159DB}
  9
$EXTNAMES
290
     1
  9
$PSVPSCALE
 40
0.0
  9
$OLESTARTUP
290
     0
  9
$SORTENTS
280
   127
  9
$INDEXCTL
280
     0
  9
$HIDETEXT
280
     1
  9
$XCLIPFRAME
280
     2
  9
$HALOGAP
280
     0
  9
$OBSCOLOR
 70
   257
  9
$OBSLTYPE
280
     0
  9
$INTERSECTIONDISPLAY
280
     0
  9
$INTERSECTIONCOLOR
 70
   257
  9
$DIMASSOC
280
     1
  9
$PROJECTNAME
  1

  9
$CAMERADISPLAY
290
     0
  9
$LENSLENGTH
 40
50.0
  9
$CAMERAHEIGHT
 40
0.0
  9
$STEPSPERSEC
 40
2.0
  9
$STEPSIZE
 40
6.0
  9
$3DDWFPREC
 40
2.0
  9
$PSOLWIDTH
 40
0.25
  9
$PSOLHEIGHT
 40
4.0
  9
$LOFTANG1
 40
1.570796326794896
  9
$LOFTANG2
 40
1.570796326794896
  9
$LOFTMAG1
 40
0.0
  9
$LOFTMAG2
 40
0.0
  9
$LOFTPARAM
 70
     7
  9
$LOFTNORMALS
280
     1
  9
$LATITUDE
 40
37.795
  9
$LONGITUDE
 40
-122.394
  9
$NORTHDIRECTION
 40
0.0
  9
$TIMEZONE
 70
 -8000
  9
$LIGHTGLYPHDISPLAY
280
     1
  9
$TILEMODELIGHTSYNCH
280
     1
  9
$CMATERIAL
347
11
  9
$SOLIDHIST
280
     0
  9
$SHOWHIST
280
     1
  9
$DWFFRAME
280
     2
  9
$DGNFRAME
280
     0
  9
$REALWORLDSCALE
290
     1
  9
$INTERFERECOLOR
 62
     1
  9
$INTERFEREOBJVS
345
33
  9
$INTERFEREVPVS
346
30
  9
$CSHADOW
280
     0
  9
$SHADOWPLANELOCATION
 40
0.0
  0
ENDSEC
  0
SECTION
  2
CLASSES
  0
CLASS
  1
ACDBDICTIONARYWDFLT
  2
AcDbDictionaryWithDefault
  3
ObjectDBX Classes
 90
        0
 91
        1
280
     0
281
     0
  0
CLASS
  1
MATERIAL
  2
AcDbMaterial
  3
ObjectDBX Classes
 90
     1153
 91
        3
280
     0
281
     0
  0
CLASS
  1
VISUALSTYLE
  2
AcDbVisualStyle
  3
ObjectDBX Classes
 90
     4095
 91
       24
280
     0
281
     0
  0
CLASS
  1
SCALE
  2
AcDbScale
  3
ObjectDBX Classes
 90
     1153
 91
       17
280
     0
281
     0
  0
CLASS
  1
TABLESTYLE
  2
AcDbTableStyle
  3
ObjectDBX Classes
 90
     4095
 91
        1
280
     0
281
     0
  0
CLASS
  1
MLEADERSTYLE
  2
AcDbMLeaderStyle
  3
ACDB_MLEADERSTYLE_CLASS
 90
     4095
 91
        1
280
     0
281
     0
  0
CLASS
  1
DICTIONARYVAR
  2
AcDbDictionaryVar
  3
ObjectDBX Classes
 90
        0
 91
        3
280
     0
281
     0
  0
CLASS
  1
CELLSTYLEMAP
  2
AcDbCellStyleMap
  3
ObjectDBX Classes
 90
     1152
 91
        1
280
     0
281
     0
  0
ENDSEC
  0
SECTION
  2
TABLES
  0
TABLE
  2
VPORT
  5
8
330
0
100
AcDbSymbolTable
 70
     1
  0
VPORT
  5
57
330
8
100
AcDbSymbolTableRecord
100
AcDbViewportTableRecord
  2
*Active
 70
     0
 10
0.0
 20
0.0
 11
1.0
 21
1.0
 12
7.555555555555555
 22
4.888888888888888
 13
0.0
 23
0.0
 14
1.0
 24
1.0
 15
0.0
 25
0.0
 16
0.0
 26
0.0
 36
1.0
 17
0.0
 27
0.0
 37
0.0
 40
9.777777777777776
 41
1.545454545454545
 42
50.0
 43
0.0
 44
0.0
 50
0.0
 51
0.0
 71
     0
 72
   100
 73
     1
 74
     1
 75
     0
 76
     0
 77
     0
 78
     0
281
     0
 65
     1
110
0.0
120
0.0
130
0.0
111
1.0
121
0.0
131
0.0
112
0.0
122
1.0
132
0.0
 79
     0
146
0.0
 60
     3
 61
     5
292
     1
282
     1
141
0.0
142
0.0
 63
   250
421
  3355443
  0
ENDTAB
  0
TABLE
  2
LTYPE
  5
5
330
0
100
AcDbSymbolTable
 70
    59
  0
LTYPE
  5
5B
330
5
100
AcDbSymbolTableRecord
100
AcDbLinetypeTableRecord
  2
ByBlock
 70
     0
  3

 72
    65
 73
     0
 40
0.0
  0
LTYPE
  5
5C
330
5
100
AcDbSymbolTableRecord
100
AcDbLinetypeTableRecord
  2
ByLayer
 70
     0
  3

 72
    65
 73
     0
 40
0.0
  0
LTYPE
  5
5D
330
5
100
AcDbSymbolTableRecord
100
AcDbLinetypeTableRecord
  2
Continuous
 70
     0
  3
Solid line
 72
    65
 73
     0
 40
0.0
  0
LTYPE
  5
7C
330
5
100
AcDbSymbolTableRecord
100
AcDbLinetypeTableRecord
  2
BY_STANDARD
 70
     0
  3
By Standard ____________    ____    ____   _
 72
    65
 73
     6
 40
1.240299999999999
 49
0.6614
 74
     0
 49
-0.0827
 74
     0
 49
0.1654
 74
     0
 49
-0.0827
 74
     0
 49
0.1654
 74
     0
 49
-0.0827
 74
     0
  0
LTYPE
  5
7D
330
5
100
AcDbSymbolTableRecord
100
AcDbLinetypeTableRecord
  2
CHAIN
 70
     0
  3
Chain ____ _ ____ _ ____ _ ____ _ ____ _ ____
 72
    65
 73
     4
 40
0.7087
 49
0.4724000000000001
 74
     0
 49
-0.0591
 74
     0
 49
0.1181
 74
     0
 49
-0.0591
 74
     0
  0
LTYPE
  5
7E
330
5
100
AcDbSymbolTableRecord
100
AcDbLinetypeTableRecord
  2
DASH_DOT
 70
     0
  3
Dash dot __ . __ . __ . __ . __ . __ . __ . __
 72
    65
 73
     4
 40
0.37
 49
0.24
 74
     0
 49
-0.06
 74
     0
 49
0.01
 74
     0
 49
-0.06
 74
     0
  0
LTYPE
  5
7F
330
5
100
AcDbSymbolTableRecord
100
AcDbLinetypeTableRecord
  2
DOUBLE_DASH_DOT
 70
     0
  3
Double-Dash Dot __ __ . __ __ . __ __ . __ _
 72
    65
 73
     6
 40
0.4398
 49
0.24
 74
     0
 49
-0.06
 74
     0
 49
0.0098
 74
     0
 49
-0.06
 74
     0
 49
0.01
 74
     0
 49
-0.06
 74
     0
  0
LTYPE
  5
80
330
5
100
AcDbSymbolTableRecord
100
AcDbLinetypeTableRecord
  2
DASH_TRIPLE_DOT
 70
     0
  3
Dash Triple-Dot _ . . . _ . . . _ . . . _
 72
    65
 73
     8
 40
0.51
 49
0.24
 74
     0
 49
-0.06
 74
     0
 49
0.01
 74
     0
 49
-0.06
 74
     0
 49
0.01
 74
     0
 49
-0.06
 74
     0
 49
0.01
 74
     0
 49
-0.06
 74
     0
  0
LTYPE
  5
81
330
5
100
AcDbSymbolTableRecord
100
AcDbLinetypeTableRecord
  2
DASHED
 70
     0
  3
Dashed __ __ __ __ __ __ __ __ __ __ __ __ __ _
 72
    65
 73
     2
 40
0.2067
 49
0.1654
 74
     0
 49
-0.0413
 74
     0
  0
LTYPE
  5
82
330
5
100
AcDbSymbolTableRecord
100
AcDbLinetypeTableRecord
  2
DASH_DOUBLE_DOT
 70
     0
  3
Dash Double-Dot __ . . __ . . __ . . __ . .
 72
    65
 73
     6
 40
0.4398
 49
0.24
 74
     0
 49
-0.06
 74
     0
 49
0.0098
 74
     0
 49
-0.06
 74
     0
 49
0.01
 74
     0
 49
-0.06
 74
     0
  0
LTYPE
  5
83
330
5
100
AcDbSymbolTableRecord
100
AcDbLinetypeTableRecord
  2
DASHED_SPACE
 70
     0
  3
Dashed Space __ __ __ __ __ __ __ __ __ __ __ _
 72
    65
 73
     2
 40
0.2067
 49
0.1654
 74
     0
 49
-0.0413
 74
     0
  0
LTYPE
  5
84
330
5
100
AcDbSymbolTableRecord
100
AcDbLinetypeTableRecord
  2
DOTTED
 70
     0
  3
Dotted . . . . . . . . . . . . . . . . . . . . 
 72
    65
 73
     2
 40
0.0482
 49
0.0069
 74
     0
 49
-0.0413
 74
     0
  0
LTYPE
  5
85
330
5
100
AcDbSymbolTableRecord
100
AcDbLinetypeTableRecord
  2
DOUBLE_DASH_CHAIN
 70
     0
  3
Double-Dash Chain ______  __  __  ______  __  _
 72
    65
 73
     6
 40
1.240299999999999
 49
0.6614
 74
     0
 49
-0.0827
 74
     0
 49
0.1654
 74
     0
 49
-0.0827
 74
     0
 49
0.1654
 74
     0
 49
-0.0827
 74
     0
  0
LTYPE
  5
87
330
5
100
AcDbSymbolTableRecord
100
AcDbLinetypeTableRecord
  2
DOUBLE_DASH_DOUBLE_DOT
 70
     0
  3
Double-Dash Double-dot _ _ . . _ _ . . _
 72
    65
 73
     8
 40
0.7400000000000001
 49
0.24
 74
     0
 49
-0.06
 74
     0
 49
0.24
 74
     0
 49
-0.06
 74
     0
 49
0.01
 74
     0
 49
-0.06
 74
     0
 49
0.01
 74
     0
 49
-0.06
 74
     0
  0
LTYPE
  5
88
330
5
100
AcDbSymbolTableRecord
100
AcDbLinetypeTableRecord
  2
DOUBLE_DASH_TRIPLE_DOT
 70
     0
  3
Double Dash Triple Dot __ __ . . . __ __ . .
 72
    65
 73
    10
 40
0.8100000000000001
 49
0.24
 74
     0
 49
-0.06
 74
     0
 49
0.24
 74
     0
 49
-0.06
 74
     0
 49
0.01
 74
     0
 49
-0.06
 74
     0
 49
0.01
 74
     0
 49
-0.06
 74
     0
 49
0.01
 74
     0
 49
-0.06
 74
     0
  0
LTYPE
  5
89
330
5
100
AcDbSymbolTableRecord
100
AcDbLinetypeTableRecord
  2
LONG_DASH_DOTTED
 70
     0
  3
Long Dash Dotted ____ . ____ . ____ . ____ . _
 72
    65
 73
     4
 40
0.3543
 49
0.2362
 74
     0
 49
-0.0295
 74
     0
 49
0.0591
 74
     0
 49
-0.0295
 74
     0
  0
LTYPE
  5
8A
330
5
100
AcDbSymbolTableRecord
100
AcDbLinetypeTableRecord
  2
LONG_DASH_DOUBLE_DOT
 70
     0
  3
Long Dash Double Dot ________  .  .  ________  
 72
    65
 73
     6
 40
0.6799999999999999
 49
0.48
 74
     0
 49
-0.06
 74
     0
 49
0.01
 74
     0
 49
-0.06
 74
     0
 49
0.01
 74
     0
 49
-0.06
 74
     0
  0
LTYPE
  5
8B
330
5
100
AcDbSymbolTableRecord
100
AcDbLinetypeTableRecord
  2
LONG_DASH_TRIPLE_DOT
 70
     0
  3
Long Dash Triple Dot ____ ... ____ ... ____
 72
    65
 73
     8
 40
0.3689
 49
0.2362
 74
     0
 49
-0.0295
 74
     0
 49
0.0049
 74
     0
 49
-0.0295
 74
     0
 49
0.0049
 74
     0
 49
-0.0295
 74
     0
 49
0.0049
 74
     0
 49
-0.0295
 74
     0
  0
LTYPE
  5
8C
330
5
100
AcDbSymbolTableRecord
100
AcDbLinetypeTableRecord
  2
BORDER
 70
     0
  3
Border __ __ . __ __ . __ __ . __ __ . __ __ .
 72
    65
 73
     6
 40
1.75
 49
0.5
 74
     0
 49
-0.25
 74
     0
 49
0.5
 74
     0
 49
-0.25
 74
     0
 49
0.0
 74
     0
 49
-0.25
 74
     0
  0
LTYPE
  5
8D
330
5
100
AcDbSymbolTableRecord
100
AcDbLinetypeTableRecord
  2
BORDER2
 70
     0
  3
Border (.5x) __.__.__.__.__.__.__.__.__.__.__.
 72
    65
 73
     6
 40
0.875
 49
0.25
 74
     0
 49
-0.125
 74
     0
 49
0.25
 74
     0
 49
-0.125
 74
     0
 49
0.0
 74
     0
 49
-0.125
 74
     0
  0
LTYPE
  5
8E
330
5
100
AcDbSymbolTableRecord
100
AcDbLinetypeTableRecord
  2
BORDERX2
 70
     0
  3
Border (2x) ____  ____  .  ____  ____  .  ___
 72
    65
 73
     6
 40
3.5
 49
1.0
 74
     0
 49
-0.5
 74
     0
 49
1.0
 74
     0
 49
-0.5
 74
     0
 49
0.0
 74
     0
 49
-0.5
 74
     0
  0
LTYPE
  5
8F
330
5
100
AcDbSymbolTableRecord
100
AcDbLinetypeTableRecord
  2
CENTER
 70
     0
  3
Center ____ _ ____ _ ____ _ ____ _ ____ _ ____
 72
    65
 73
     4
 40
2.0
 49
1.25
 74
     0
 49
-0.25
 74
     0
 49
0.25
 74
     0
 49
-0.25
 74
     0
  0
LTYPE
  5
90
330
5
100
AcDbSymbolTableRecord
100
AcDbLinetypeTableRecord
  2
CENTER2
 70
     0
  3
Center (.5x) ___ _ ___ _ ___ _ ___ _ ___ _ ___
 72
    65
 73
     4
 40
1.125
 49
0.75
 74
     0
 49
-0.125
 74
     0
 49
0.125
 74
     0
 49
-0.125
 74
     0
  0
LTYPE
  5
91
330
5
100
AcDbSymbolTableRecord
100
AcDbLinetypeTableRecord
  2
CENTERX2
 70
     0
  3
Center (2x) ________  __  ________  __  _____
 72
    65
 73
     4
 40
4.0
 49
2.5
 74
     0
 49
-0.5
 74
     0
 49
0.5
 74
     0
 49
-0.5
 74
     0
  0
LTYPE
  5
92
330
5
100
AcDbSymbolTableRecord
100
AcDbLinetypeTableRecord
  2
DASHDOT2
 70
     0
  3
Dash dot (.5x) _._._._._._._._._._._._._._._.
 72
    65
 73
     4
 40
0.5
 49
0.25
 74
     0
 49
-0.125
 74
     0
 49
0.0
 74
     0
 49
-0.125
 74
     0
  0
LTYPE
  5
93
330
5
100
AcDbSymbolTableRecord
100
AcDbLinetypeTableRecord
  2
DASHDOTX2
 70
     0
  3
Dash dot (2x) ____  .  ____  .  ____  .  ___
 72
    65
 73
     4
 40
2.0
 49
1.0
 74
     0
 49
-0.5
 74
     0
 49
0.0
 74
     0
 49
-0.5
 74
     0
  0
LTYPE
  5
95
330
5
100
AcDbSymbolTableRecord
100
AcDbLinetypeTableRecord
  2
DASHED2
 70
     0
  3
Dashed (.5x) _ _ _ _ _ _ _ _ _ _ _ _ _ _ _ _ _
 72
    65
 73
     2
 40
0.375
 49
0.25
 74
     0
 49
-0.125
 74
     0
  0
LTYPE
  5
96
330
5
100
AcDbSymbolTableRecord
100
AcDbLinetypeTableRecord
  2
DASHEDX2
 70
     0
  3
Dashed (2x) ____  ____  ____  ____  ____  ___
 72
    65
 73
     2
 40
1.5
 49
1.0
 74
     0
 49
-0.5
 74
     0
  0
LTYPE
  5
97
330
5
100
AcDbSymbolTableRecord
100
AcDbLinetypeTableRecord
  2
DIVIDE
 70
     0
  3
Divide ____ . . ____ . . ____ . . ____ . . ____
 72
    65
 73
     6
 40
1.25
 49
0.5
 74
     0
 49
-0.25
 74
     0
 49
0.0
 74
     0
 49
-0.25
 74
     0
 49
0.0
 74
     0
 49
-0.25
 74
     0
  0
LTYPE
  5
98
330
5
100
AcDbSymbolTableRecord
100
AcDbLinetypeTableRecord
  2
DIVIDE2
 70
     0
  3
Divide (.5x) __..__..__..__..__..__..__..__.._
 72
    65
 73
     6
 40
0.625
 49
0.25
 74
     0
 49
-0.125
 74
     0
 49
0.0
 74
     0
 49
-0.125
 74
     0
 49
0.0
 74
     0
 49
-0.125
 74
     0
  0
LTYPE
  5
99
330
5
100
AcDbSymbolTableRecord
100
AcDbLinetypeTableRecord
  2
DIVIDEX2
 70
     0
  3
Divide (2x) ________  .  .  ________  .  .  _
 72
    65
 73
     6
 40
2.5
 49
1.0
 74
     0
 49
-0.5
 74
     0
 49
0.0
 74
     0
 49
-0.5
 74
     0
 49
0.0
 74
     0
 49
-0.5
 74
     0
  0
LTYPE
  5
9A
330
5
100
AcDbSymbolTableRecord
100
AcDbLinetypeTableRecord
  2
DOT
 70
     0
  3
Dot . . . . . . . . . . . . . . . . . . . . . .
 72
    65
 73
     2
 40
0.25
 49
0.0
 74
     0
 49
-0.25
 74
     0
  0
LTYPE
  5
9B
330
5
100
AcDbSymbolTableRecord
100
AcDbLinetypeTableRecord
  2
DOT2
 70
     0
  3
Dot (.5x) .....................................
 72
    65
 73
     2
 40
0.125
 49
0.0
 74
     0
 49
-0.125
 74
     0
  0
LTYPE
  5
9C
330
5
100
AcDbSymbolTableRecord
100
AcDbLinetypeTableRecord
  2
DOTX2
 70
     0
  3
Dot (2x) .  .  .  .  .  .  .  .  .  .  .  .  . 
 72
    65
 73
     2
 40
0.5
 49
0.0
 74
     0
 49
-0.5
 74
     0
  0
LTYPE
  5
9D
330
5
100
AcDbSymbolTableRecord
100
AcDbLinetypeTableRecord
  2
HIDDEN
 70
     0
  3
Hidden __ __ __ __ __ __ __ __ __ __ __ __ __ _
 72
    65
 73
     2
 40
0.375
 49
0.25
 74
     0
 49
-0.125
 74
     0
  0
LTYPE
  5
9E
330
5
100
AcDbSymbolTableRecord
100
AcDbLinetypeTableRecord
  2
HIDDEN2
 70
     0
  3
Hidden (.5x) _ _ _ _ _ _ _ _ _ _ _ _ _ _ _ _ _
 72
    65
 73
     2
 40
0.1875
 49
0.125
 74
     0
 49
-0.0625
 74
     0
  0
LTYPE
  5
9F
330
5
100
AcDbSymbolTableRecord
100
AcDbLinetypeTableRecord
  2
HIDDENX2
 70
     0
  3
Hidden (2x) ____ ____ ____ ____ ____ ____ ____
 72
    65
 73
     2
 40
0.75
 49
0.5
 74
     0
 49
-0.25
 74
     0
  0
LTYPE
  5
A0
330
5
100
AcDbSymbolTableRecord
100
AcDbLinetypeTableRecord
  2
PHANTOM
 70
     0
  3
Phantom ______  __  __  ______  __  __  ______
 72
    65
 73
     6
 40
2.5
 49
1.25
 74
     0
 49
-0.25
 74
     0
 49
0.25
 74
     0
 49
-0.25
 74
     0
 49
0.25
 74
     0
 49
-0.25
 74
     0
  0
LTYPE
  5
A1
330
5
100
AcDbSymbolTableRecord
100
AcDbLinetypeTableRecord
  2
PHANTOM2
 70
     0
  3
Phantom (.5x) ___ _ _ ___ _ _ ___ _ _ ___ _ _
 72
    65
 73
     6
 40
1.25
 49
0.625
 74
     0
 49
-0.125
 74
     0
 49
0.125
 74
     0
 49
-0.125
 74
     0
 49
0.125
 74
     0
 49
-0.125
 74
     0
  0
LTYPE
  5
A2
330
5
100
AcDbSymbolTableRecord
100
AcDbLinetypeTableRecord
  2
PHANTOMX2
 70
     0
  3
Phantom (2x) ____________    ____    ____   _
 72
    65
 73
     6
 40
5.0
 49
2.5
 74
     0
 49
-0.5
 74
     0
 49
0.5
 74
     0
 49
-0.5
 74
     0
 49
0.5
 74
     0
 49
-0.5
 74
     0
  0
LTYPE
  5
A3
330
5
100
AcDbSymbolTableRecord
100
AcDbLinetypeTableRecord
  2
ACAD_ISO02W100
 70
     0
  3
ISO dash __ __ __ __ __ __ __ __ __ __ __ __ __
 72
    65
 73
     2
 40
0.59
 49
0.47
 74
     0
 49
-0.12
 74
     0
  0
LTYPE
  5
A4
330
5
100
AcDbSymbolTableRecord
100
AcDbLinetypeTableRecord
  2
ACAD_ISO03W100
 70
     0
  3
ISO dash space __    __    __    __    __    __
 72
    65
 73
     2
 40
1.179999999999999
 49
0.47
 74
     0
 49
-0.71
 74
     0
  0
LTYPE
  5
A5
330
5
100
AcDbSymbolTableRecord
100
AcDbLinetypeTableRecord
  2
ACAD_ISO04W100
 70
     0
  3
ISO long-dash dot ____ . ____ . ____ . ____ . _
 72
    65
 73
     4
 40
1.179999999999999
 49
0.9399999999999998
 74
     0
 49
-0.12
 74
     0
 49
0.0
 74
     0
 49
-0.12
 74
     0
  0
LTYPE
  5
A6
330
5
100
AcDbSymbolTableRecord
100
AcDbLinetypeTableRecord
  2
ACAD_ISO05W100
 70
     0
  3
ISO long-dash double-dot ____ .. ____ .. ____ .
 72
    65
 73
     6
 40
1.299999999999999
 49
0.9399999999999998
 74
     0
 49
-0.12
 74
     0
 49
0.0
 74
     0
 49
-0.12
 74
     0
 49
0.0
 74
     0
 49
-0.12
 74
     0
  0
LTYPE
  5
A7
330
5
100
AcDbSymbolTableRecord
100
AcDbLinetypeTableRecord
  2
ACAD_ISO06W100
 70
     0
  3
ISO long-dash triple-dot ____ ... ____ ... ____
 72
    65
 73
     8
 40
1.419999999999999
 49
0.9399999999999998
 74
     0
 49
-0.12
 74
     0
 49
0.0
 74
     0
 49
-0.12
 74
     0
 49
0.0
 74
     0
 49
-0.12
 74
     0
 49
0.0
 74
     0
 49
-0.12
 74
     0
  0
LTYPE
  5
A8
330
5
100
AcDbSymbolTableRecord
100
AcDbLinetypeTableRecord
  2
ACAD_ISO07W100
 70
     0
  3
ISO dot . . . . . . . . . . . . . . . . . . . .
 72
    65
 73
     2
 40
0.12
 49
0.0
 74
     0
 49
-0.12
 74
     0
  0
LTYPE
  5
A9
330
5
100
AcDbSymbolTableRecord
100
AcDbLinetypeTableRecord
  2
ACAD_ISO08W100
 70
     0
  3
ISO long-dash short-dash ____ __ ____ __ ____ _
 72
    65
 73
     4
 40
0.95
 49
0.47
 74
     0
 49
-0.12
 74
     0
 49
0.24
 74
     0
 49
-0.12
 74
     0
  0
LTYPE
  5
AA
330
5
100
AcDbSymbolTableRecord
100
AcDbLinetypeTableRecord
  2
ACAD_ISO09W100
 70
     0
  3
ISO long-dash double-short-dash ____ __ __ ____
 72
    65
 73
     6
 40
1.31
 49
0.47
 74
     0
 49
-0.12
 74
     0
 49
0.24
 74
     0
 49
-0.12
 74
     0
 49
0.24
 74
     0
 49
-0.12
 74
     0
  0
LTYPE
  5
AB
330
5
100
AcDbSymbolTableRecord
100
AcDbLinetypeTableRecord
  2
ACAD_ISO10W100
 70
     0
  3
ISO dash dot __ . __ . __ . __ . __ . __ . __ .
 72
    65
 73
     4
 40
0.71
 49
0.47
 74
     0
 49
-0.12
 74
     0
 49
0.0
 74
     0
 49
-0.12
 74
     0
  0
LTYPE
  5
AC
330
5
100
AcDbSymbolTableRecord
100
AcDbLinetypeTableRecord
  2
ACAD_ISO11W100
 70
     0
  3
ISO double-dash dot __ __ . __ __ . __ __ . __ 
 72
    65
 73
     6
 40
1.299999999999999
 49
0.47
 74
     0
 49
-0.12
 74
     0
 49
0.47
 74
     0
 49
-0.12
 74
     0
 49
0.0
 74
     0
 49
-0.12
 74
     0
  0
LTYPE
  5
AD
330
5
100
AcDbSymbolTableRecord
100
AcDbLinetypeTableRecord
  2
ACAD_ISO12W100
 70
     0
  3
ISO dash double-dot __ . . __ . . __ . . __ . .
 72
    65
 73
     6
 40
0.8299999999999998
 49
0.47
 74
     0
 49
-0.12
 74
     0
 49
0.0
 74
     0
 49
-0.12
 74
     0
 49
0.0
 74
     0
 49
-0.12
 74
     0
  0
LTYPE
  5
AE
330
5
100
AcDbSymbolTableRecord
100
AcDbLinetypeTableRecord
  2
ACAD_ISO13W100
 70
     0
  3
ISO double-dash double-dot __ __ . . __ __ . . 
 72
    65
 73
     8
 40
1.419999999999999
 49
0.47
 74
     0
 49
-0.12
 74
     0
 49
0.47
 74
     0
 49
-0.12
 74
     0
 49
0.0
 74
     0
 49
-0.12
 74
     0
 49
0.0
 74
     0
 49
-0.12
 74
     0
  0
LTYPE
  5
AF
330
5
100
AcDbSymbolTableRecord
100
AcDbLinetypeTableRecord
  2
ACAD_ISO14W100
 70
     0
  3
ISO dash triple-dot __ . . . __ . . . __ . . . 
 72
    65
 73
     8
 40
0.95
 49
0.47
 74
     0
 49
-0.12
 74
     0
 49
0.0
 74
     0
 49
-0.12
 74
     0
 49
0.0
 74
     0
 49
-0.12
 74
     0
 49
0.0
 74
     0
 49
-0.12
 74
     0
  0
LTYPE
  5
B0
330
5
100
AcDbSymbolTableRecord
100
AcDbLinetypeTableRecord
  2
ACAD_ISO15W100
 70
     0
  3
ISO double-dash triple-dot __ __ . . . __ __ . 
 72
    65
 73
    10
 40
1.539999999999999
 49
0.47
 74
     0
 49
-0.12
 74
     0
 49
0.47
 74
     0
 49
-0.12
 74
     0
 49
0.0
 74
     0
 49
-0.12
 74
     0
 49
0.0
 74
     0
 49
-0.12
 74
     0
 49
0.0
 74
     0
 49
-0.12
 74
     0
  0
LTYPE
  5
B3
330
5
100
AcDbSymbolTableRecord
100
AcDbLinetypeTableRecord
  2
FENCELINE1
 70
     0
  3
Fenceline circle ----0-----0----0-----0----0---
 72
    65
 73
     4
 40
1.45
 49
0.25
 74
     0
 49
-0.1
 74
     4
 75
   133
340
B2
 46
0.1
 50
0.0
 44
-0.1
 45
0.0
 49
-0.1
 74
     0
 49
1.0
 74
     0
  0
LTYPE
  5
B4
330
5
100
AcDbSymbolTableRecord
100
AcDbLinetypeTableRecord
  2
FENCELINE2
 70
     0
  3
Fenceline square ----[]-----[]----[]-----[]----
 72
    65
 73
     4
 40
1.45
 49
0.25
 74
     0
 49
-0.1
 74
     4
 75
   132
340
B2
 46
0.1
 50
0.0
 44
-0.1
 45
0.0
 49
-0.1
 74
     0
 49
1.0
 74
     0
  0
LTYPE
  5
B5
330
5
100
AcDbSymbolTableRecord
100
AcDbLinetypeTableRecord
  2
TRACKS
 70
     0
  3
Tracks -|-|-|-|-|-|-|-|-|-|-|-|-|-|-|-|-|-|-|-|
 72
    65
 73
     2
 40
0.3
 49
0.15
 74
     4
 75
   130
340
B2
 46
0.25
 50
0.0
 44
0.0
 45
0.0
 49
0.15
 74
     0
  0
LTYPE
  5
B6
330
5
100
AcDbSymbolTableRecord
100
AcDbLinetypeTableRecord
  2
BATTING
 70
     0
  3
Batting SSSSSSSSSSSSSSSSSSSSSSSSSSSSSSSSSSSSSSS
 72
    65
 73
     4
 40
0.4001000000000001
 49
0.0001
 74
     0
 49
-0.1
 74
     4
 75
   134
340
B2
 46
0.1
 50
0.0
 44
-0.1
 45
0.0
 49
-0.2
 74
     4
 75
   134
340
B2
 46
0.1
 50
180.0
 44
0.1
 45
0.0
 49
-0.1
 74
     0
  0
LTYPE
  5
B7
330
5
100
AcDbSymbolTableRecord
100
AcDbLinetypeTableRecord
  2
HOT_WATER_SUPPLY
 70
     0
  3
Hot water supply ---- HW ---- HW ---- HW ----
 72
    65
 73
     3
 40
0.9
 49
0.5
 74
     0
 49
-0.2
 74
     2
 75
     0
340
55
 46
0.1
 50
0.0
 44
-0.1
 45
-0.05
  9
HW
 49
-0.2
 74
     0
  0
LTYPE
  5
B8
330
5
100
AcDbSymbolTableRecord
100
AcDbLinetypeTableRecord
  2
GAS_LINE
 70
     0
  3
Gas line ----GAS----GAS----GAS----GAS----GAS---
 72
    65
 73
     3
 40
0.95
 49
0.5
 74
     0
 49
-0.2
 74
     2
 75
     0
340
55
 46
0.1
 50
0.0
 44
-0.1
 45
-0.05
  9
GAS
 49
-0.25
 74
     0
  0
LTYPE
  5
B9
330
5
100
AcDbSymbolTableRecord
100
AcDbLinetypeTableRecord
  2
ZIGZAG
 70
     0
  3
Zig zag /\/\/\/\/\/\/\/\/\/\/\/\/\/\/\/\/\/\/\/
 72
    65
 73
     4
 40
0.8001000000000001
 49
0.0001
 74
     0
 49
-0.2
 74
     4
 75
   131
340
B2
 46
0.2
 50
0.0
 44
-0.2
 45
0.0
 49
-0.4
 74
     4
 75
   131
340
B2
 46
0.2
 50
180.0
 44
0.2
 45
0.0
 49
-0.2
 74
     0
  0
ENDTAB
  0
TABLE
  2
LAYER
  5
2
330
0
100
AcDbSymbolTable
 70
    27
  0
LAYER
  5
54
330
2
100
AcDbSymbolTableRecord
100
AcDbLayerTableRecord
  2
0
 70
     0
 62
     7
  6
Continuous
370
    18
390
F
347
21
  0
LAYER
  5
C3
330
2
100
AcDbSymbolTableRecord
100
AcDbLayerTableRecord
  2
Dimension (ANSI)
 70
     0
 62
     7
  6
Continuous
370
    13
390
F
347
21
  0
LAYER
  5
C5
330
2
100
AcDbSymbolTableRecord
100
AcDbLayerTableRecord
  2
Hidden (ANSI)
 70
     0
 62
     7
  6
DASHED
370
    15
390
F
347
21
  0
LAYER
  5
CC
330
2
100
AcDbSymbolTableRecord
100
AcDbLayerTableRecord
  2
Symbol (ANSI)
 70
     0
 62
     7
  6
Continuous
370
    18
390
F
347
21
  0
LAYER
  5
CF
330
2
100
AcDbSymbolTableRecord
100
AcDbLayerTableRecord
  2
Visible (ANSI)
 70
     0
 62
     7
  6
Continuous
370
    13
390
F
347
21
  0
LAYER
  5
D0
330
2
100
AcDbSymbolTableRecord
100
AcDbLayerTableRecord
  2
Visible Narrow (ANSI)
 70
     0
 62
     7
  6
Continuous
370
    18
390
F
347
21
  0
LAYER
  5
144
330
2
100
AcDbSymbolTableRecord
100
AcDbLayerTableRecord
  2
Defpoints
 70
     0
 62
     7
  6
Continuous
290
     0
370
    -3
390
F
347
21
  0
ENDTAB
  0
TABLE
  2
STYLE
  5
3
330
0
100
AcDbSymbolTable
 70
    18
  0
STYLE
  5
55
330
3
100
AcDbSymbolTableRecord
100
AcDbTextStyleTableRecord
  2
Standard
 70
     0
 40
0.0
 41
1.0
 50
0.0
 71
     0
 42
0.2
  3
txt
  4

  0
STYLE
  5
5A
330
3
100
AcDbSymbolTableRecord
100
AcDbTextStyleTableRecord
  2
Annotative
 70
     0
 40
0.0
 41
1.0
 50
0.0
 71
     0
 42
0.2
  3
txt
  4

1001
AcadAnnotative
1000
AnnotativeData
1002
{
1070
     1
1070
     1
1002
}
  0
STYLE
  5
B2
330
3
100
AcDbSymbolTableRecord
100
AcDbTextStyleTableRecord
  2

 70
     1
 40
0.0
 41
1.0
 50
0.0
 71
     0
 42
0.2
  3
ltypeshp.shx
  4

  0
STYLE
  5
D4
330
3
100
AcDbSymbolTableRecord
100
AcDbTextStyleTableRecord
  2
ITALICC_120
 70
     0
 40
0.0
 41
1.0
 50
0.0
 71
     0
 42
0.2
  3
italicc.shx
  4

  0
STYLE
  5
D5
330
3
100
AcDbSymbolTableRecord
100
AcDbTextStyleTableRecord
  2
Label Text (ANSI)
 70
     0
 40
0.0
 41
1.0
 50
0.0
 71
     0
 42
0.2
  3
tahoma.ttf
  4

1001
ACAD
1000
Tahoma
1071
      256
  0
STYLE
  5
D6
330
3
100
AcDbSymbolTableRecord
100
AcDbTextStyleTableRecord
  2
Note Text (ANSI)
 70
     0
 40
0.0
 41
1.0
 50
0.0
 71
     0
 42
0.2
  3
tahoma.ttf
  4

1001
ACAD
1000
Tahoma
1071
      256
  0
STYLE
  5
D7
330
3
100
AcDbSymbolTableRecord
100
AcDbTextStyleTableRecord
  2
ROMANS
 70
     0
 40
0.0
 41
1.0
 50
0.0
 71
     0
 42
0.2
  3
romans.shx
  4

  0
STYLE
  5
D8
330
3
100
AcDbSymbolTableRecord
100
AcDbTextStyleTableRecord
  2
SANSSERIF_114
 70
     0
 40
0.0
 41
1.0
 50
0.0
 71
     0
 42
0.2
  3
tahoma.ttf
  4

1001
ACAD
1000
Tahoma
1071
      256
  0
STYLE
  5
D9
330
3
100
AcDbSymbolTableRecord
100
AcDbTextStyleTableRecord
  2
SANSSERIF_117
 70
     0
 40
0.0
 41
1.0
 50
0.0
 71
     0
 42
0.2
  3
tahoma.ttf
  4

1001
ACAD
1000
Tahoma
1071
      256
  0
STYLE
  5
DA
330
3
100
AcDbSymbolTableRecord
100
AcDbTextStyleTableRecord
  2
STANDARDAM_ANSI
 70
     0
 40
0.0
 41
1.0
 50
0.0
 71
     0
 42
0.2
  3
txt.shx
  4

  0
STYLE
  5
DB
330
3
100
AcDbSymbolTableRecord
100
AcDbTextStyleTableRecord
  2
StandardAM_ANSI$0
 70
     0
 40
0.0
 41
1.0
 50
0.0
 71
     0
 42
0.2
  3
txt.shx
  4

  0
STYLE
  5
DC
330
3
100
AcDbSymbolTableRecord
100
AcDbTextStyleTableRecord
  2
STANDARDAM_ANSI$3
 70
     0
 40
0.0
 41
1.0
 50
0.0
 71
     0
 42
0.2
  3
txt.shx
  4

  0
STYLE
  5
DD
330
3
100
AcDbSymbolTableRecord
100
AcDbTextStyleTableRecord
  2
STANDARDAM_ANSI$4
 70
     0
 40
0.0
 41
1.0
 50
0.0
 71
     0
 42
0.2
  3
txt.shx
  4

  0
STYLE
  5
DE
330
3
100
AcDbSymbolTableRecord
100
AcDbTextStyleTableRecord
  2
STANDARDAM_ANSI$7
 70
     0
 40
0.0
 41
1.0
 50
0.0
 71
     0
 42
0.2
  3
txt.shx
  4

  0
STYLE
  5
DF
330
3
100
AcDbSymbolTableRecord
100
AcDbTextStyleTableRecord
  2
STANDARDAM_ANSI$SF
 70
     0
 40
0.0
 41
1.0
 50
0.0
 71
     0
 42
0.2
  3
txt.shx
  4

  0
STYLE
  5
E0
330
3
100
AcDbSymbolTableRecord
100
AcDbTextStyleTableRecord
  2
STANDARDAM_ANSI$SH
 70
     0
 40
0.0
 41
1.0
 50
0.0
 71
     0
 42
0.2
  3
txt.shx
  4

  0
STYLE
  5
E1
330
3
100
AcDbSymbolTableRecord
100
AcDbTextStyleTableRecord
  2
STANDARDSTANDARD
 70
     0
 40
0.0
 41
1.0
 50
0.0
 71
     0
 42
0.2
  3
txt.shx
  4

  0
STYLE
  5
132
330
3
100
AcDbSymbolTableRecord
100
AcDbTextStyleTableRecord
  2
Text Style150
 70
     0
 40
0.0
 41
1.0
 50
0.0
 71
     0
 42
0.2
  3
tahoma.ttf
  4

1001
ACAD
1000
Tahoma
1071
      256
  0
ENDTAB
  0
TABLE
  2
VIEW
  5
6
330
0
100
AcDbSymbolTable
 70
     0
  0
ENDTAB
  0
TABLE
  2
UCS
  5
7
330
0
100
AcDbSymbolTable
 70
     0
  0
ENDTAB
  0
TABLE
  2
APPID
  5
9
330
0
100
AcDbSymbolTable
 70
     3
  0
APPID
  5
56
330
9
100
AcDbSymbolTableRecord
100
AcDbRegAppTableRecord
  2
ACAD
 70
     0
  0
APPID
  5
5E
330
9
100
AcDbSymbolTableRecord
100
AcDbRegAppTableRecord
  2
AcadAnnotative
 70
     0
  0
APPID
  5
7A1
330
9
100
AcDbSymbolTableRecord
100
AcDbRegAppTableRecord
  2
ACAD_DSTYLE_DIMRADIAL_EXTENSION
 70
     0
  0
ENDTAB
  0
TABLE
  2
DIMSTYLE
  5
A
330
0
100
AcDbSymbolTable
 70
    29
100
AcDbDimStyleTable
 71
     3
340
F6
340
58
340
F8
  0
DIMSTYLE
105
58
330
A
100
AcDbSymbolTableRecord
100
AcDbDimStyleTableRecord
  2
STANDARD
 70
     0
 41
0.1800000071525573
 42
0.0625
140
0.1800000071525574
144
1.0
147
0.0900000035762787
176
   256
177
   256
178
   256
274
     3
340
55
371
    -1
372
    -1
  0
DIMSTYLE
105
59
330
A
100
AcDbSymbolTableRecord
100
AcDbDimStyleTableRecord
  2
Annotative
 70
     0
340
55
1001
AcadAnnotative
1000
AnnotativeData
1002
{
1070
     1
1070
     1
1002
}
  0
DIMSTYLE
105
E2
330
A
100
AcDbSymbolTableRecord
100
AcDbDimStyleTableRecord
  2
AM_ANSI
 70
     0
  4
 mm
 40
0.8888888888888889
 41
0.119999997317791
 42
0.05
 43
0.5
 44
0.1
 45
0.00000001
 78
     4
 79
     2
140
0.1200000047683716
146
0.7099999189376831
147
0.0599999986588955
176
   256
177
   256
178
     2
284
     4
340
DA
371
    -1
372
    -1
  0
DIMSTYLE
105
E3
330
A
100
AcDbSymbolTableRecord
100
AcDbDimStyleTableRecord
  2
AM_ANSI$7
 70
     0
  4
 mm
 40
0.8888888888888889
 41
0.119999997317791
 42
0.05
 43
0.5
 44
0.1
 45
0.00000001
 78
     4
 79
     2
140
0.1200000047683716
146
0.7099999189376831
147
0.0599999986588955
176
   256
177
   256
178
     2
284
     4
340
DA
371
    -1
372
    -1
  0
DIMSTYLE
105
E4
330
A
100
AcDbSymbolTableRecord
100
AcDbDimStyleTableRecord
  2
AM_ANSI$0
 70
     0
  4
 mm
 40
0.8888888888888889
 41
0.119999997317791
 42
0.05
 43
0.5
 44
0.1
 45
0.00000001
 78
     4
 79
     2
140
0.1200000047683716
146
0.7099999189376831
147
0.0599999986588955
176
   256
177
   256
178
     2
284
     4
340
DB
371
    -1
372
    -1
  0
DIMSTYLE
105
E5
330
A
100
AcDbSymbolTableRecord
100
AcDbDimStyleTableRecord
  2
AM_ANSI$0$7
 70
     0
  4
 mm
 40
0.8888888888888889
 41
0.119999997317791
 42
0.05
 43
0.5
 44
0.1
 45
0.00000001
 78
     4
 79
     2
140
0.1200000047683716
146
0.7099999189376831
147
0.0599999986588955
176
   256
177
   256
178
     2
284
     4
340
DB
371
    -1
372
    -1
  0
DIMSTYLE
105
E6
330
A
100
AcDbSymbolTableRecord
100
AcDbDimStyleTableRecord
  2
AM_ANSI$3
 70
     0
  4
 mm
 40
0.8888888888888889
 41
0.119999997317791
 42
0.05
 43
0.5
 44
0.1
 45
0.00000001
 78
     4
 79
     2
140
0.1200000047683716
146
0.7099999189376831
147
0.0599999986588955
176
   256
177
   256
178
     2
284
     4
340
DC
371
    -1
372
    -1
  0
DIMSTYLE
105
E7
330
A
100
AcDbSymbolTableRecord
100
AcDbDimStyleTableRecord
  2
AM_ANSI$3$7
 70
     0
  4
 mm
 40
0.8888888888888889
 41
0.119999997317791
 42
0.05
 43
0.5
 44
0.1
 45
0.00000001
 78
     4
 79
     2
140
0.1200000047683716
146
0.7099999189376831
147
0.0599999986588955
176
   256
177
   256
178
     2
284
     4
340
DC
371
    -1
372
    -1
  0
DIMSTYLE
105
E8
330
A
100
AcDbSymbolTableRecord
100
AcDbDimStyleTableRecord
  2
AM_ANSI$4
 70
     0
  4
 mm
 40
0.8888888888888889
 41
0.119999997317791
 42
0.05
 43
0.5
 44
0.1
 45
0.00000001
 78
     4
 79
     2
140
0.1200000047683716
146
0.7099999189376831
147
0.0599999986588955
176
   256
177
   256
178
     2
284
     4
340
DD
371
    -1
372
    -1
  0
DIMSTYLE
105
E9
330
A
100
AcDbSymbolTableRecord
100
AcDbDimStyleTableRecord
  2
AM_ANSI$4$7
 70
     0
  4
 mm
 40
0.8888888888888889
 41
0.119999997317791
 42
0.05
 43
0.5
 44
0.1
 45
0.00000001
 78
     4
 79
     2
140
0.1200000047683716
146
0.7099999189376831
147
0.0599999986588955
176
   256
177
   256
178
     2
284
     4
340
DD
371
    -1
372
    -1
  0
DIMSTYLE
105
EA
330
A
100
AcDbSymbolTableRecord
100
AcDbDimStyleTableRecord
  2
AM_ANSI$SF
 70
     0
  4
 mm
 40
0.8888888888888889
 41
0.119999997317791
 42
0.05
 43
0.5
 44
0.1
 45
0.00000001
 75
     1
 76
     1
 78
     4
 79
     2
140
0.1200000047683716
146
0.7099999189376831
147
0.0599999986588955
176
   256
177
   256
178
     2
284
     4
340
DF
371
    -1
372
    -1
  0
DIMSTYLE
105
EB
330
A
100
AcDbSymbolTableRecord
100
AcDbDimStyleTableRecord
  2
AM_ANSI$SF$7
 70
     0
  4
 mm
 40
0.8888888888888889
 41
0.119999997317791
 42
0.05
 43
0.5
 44
0.1
 45
0.00000001
 75
     1
 76
     1
 78
     4
 79
     2
140
0.1200000047683716
146
0.7099999189376831
147
0.0599999986588955
176
   256
177
   256
178
     2
284
     4
340
DF
371
    -1
372
    -1
  0
DIMSTYLE
105
EC
330
A
100
AcDbSymbolTableRecord
100
AcDbDimStyleTableRecord
  2
AM_ANSI$SH
 70
     0
  4
 mm
 40
0.8888888888888889
 41
0.119999997317791
 42
0.05
 43
0.5
 44
0.1
 45
0.00000001
 75
     1
 76
     1
 78
     4
 79
     2
140
0.1200000047683716
146
0.7099999189376831
147
0.0599999986588955
176
   256
177
   256
178
     2
284
     4
340
E0
371
    -1
372
    -1
  0
DIMSTYLE
105
ED
330
A
100
AcDbSymbolTableRecord
100
AcDbDimStyleTableRecord
  2
AM_ANSI$SH$7
 70
     0
  4
 mm
 40
0.8888888888888889
 41
0.119999997317791
 42
0.05
 43
0.5
 44
0.1
 45
0.00000001
 75
     1
 76
     1
 78
     4
 79
     2
140
0.1200000047683716
146
0.7099999189376831
147
0.0599999986588955
176
   256
177
   256
178
     2
284
     4
340
E0
371
    -1
372
    -1
  0
DIMSTYLE
105
EE
330
A
100
AcDbSymbolTableRecord
100
AcDbDimStyleTableRecord
  2
Architectural (ANSI)
 70
     0
 40
0.8888888888888889
 41
0.0984251946210861
 43
0.2362204724409449
 44
0.125
 45
0.00000001
 46
0.3937007874015748
 78
     3
 79
     3
140
0.1200000047683716
147
0.031496062992126
171
     1
176
   256
177
   256
178
   256
272
     2
274
     1
276
     2
277
     4
284
    12
285
     4
286
    12
340
D6
371
    -1
372
    -1
  0
DIMSTYLE
105
EF
330
A
100
AcDbSymbolTableRecord
100
AcDbDimStyleTableRecord
  2
Architectural (ANSI)$7
 70
     0
 40
0.8888888888888889
 41
0.0984251946210861
 43
0.2362204724409449
 44
0.125
 45
0.00000001
 46
0.3937007874015748
 78
     3
 79
     3
140
0.1200000047683716
147
0.031496062992126
171
     1
176
   256
177
   256
178
   256
272
     2
274
     1
276
     2
277
     4
284
    12
285
     4
286
    12
340
D6
371
    -1
372
    -1
  0
DIMSTYLE
105
F0
330
A
100
AcDbSymbolTableRecord
100
AcDbDimStyleTableRecord
  2
Default - Fraction (ANSI)
 70
     0
 40
0.8888888888888889
 41
0.0984251946210861
 43
0.2362204724409449
 44
0.125
 45
0.00000001
 46
0.3937007874015748
 79
     3
140
0.1200000047683716
147
0.031496062992126
171
     1
176
   256
177
   256
178
   256
272
     2
274
     1
276
     2
277
     5
284
    12
285
     4
286
    12
340
D6
371
    -1
372
    -1
  0
DIMSTYLE
105
F1
330
A
100
AcDbSymbolTableRecord
100
AcDbDimStyleTableRecord
  2
Default - Fraction (ANSI)$7
 70
     0
 40
0.8888888888888889
 41
0.0984251946210861
 43
0.2362204724409449
 44
0.125
 45
0.00000001
 46
0.3937007874015748
 79
     3
140
0.1200000047683716
147
0.031496062992126
171
     1
176
   256
177
   256
178
   256
272
     2
274
     1
276
     2
277
     5
284
    12
285
     4
286
    12
340
D6
371
    -1
372
    -1
  0
DIMSTYLE
105
F2
330
A
100
AcDbSymbolTableRecord
100
AcDbDimStyleTableRecord
  2
Default - mm (ANSI)
 70
     0
 40
0.8888888888888889
 41
0.0984251946210861
 42
0.063
 43
0.2362204724409449
 44
0.125
 45
0.00000001
 46
0.3937007874015748
 73
     0
 78
     4
 79
     1
140
0.1200000047683716
143
1.0
144
25.4
147
0.031496062992126
171
     1
176
   256
177
   256
178
   256
179
     1
271
     2
272
     2
274
     1
284
     4
285
     4
340
D6
371
    -1
372
    -1
  0
DIMSTYLE
105
F3
330
A
100
AcDbSymbolTableRecord
100
AcDbDimStyleTableRecord
  2
Default - mm (ANSI)$7
 70
     0
 40
0.8888888888888889
 41
0.0984251946210861
 42
0.063
 43
0.2362204724409449
 44
0.125
 45
0.00000001
 46
0.3937007874015748
 73
     0
 78
     4
 79
     1
140
0.1200000047683716
143
1.0
144
25.4
147
0.031496062992126
171
     1
176
   256
177
   256
178
   256
179
     1
271
     2
272
     2
274
     1
284
     4
285
     4
340
D6
371
    -1
372
    -1
  0
DIMSTYLE
105
F4
330
A
100
AcDbSymbolTableRecord
100
AcDbDimStyleTableRecord
  2
Default - mm [in] (ANSI)
 70
     0
  4
 in
 40
0.8888888888888889
 41
0.0984251946210861
 42
0.063
 43
0.25
 44
0.125
 45
0.00000001
 46
0.3937007874015748
 73
     0
 78
     4
 79
     1
140
0.1200000047683716
143
0.03937
144
25.4
147
0.031496062992126
170
     1
171
     3
176
   256
177
   256
178
   256
179
     1
271
     2
272
     2
274
     3
284
     4
285
     4
286
     4
340
D6
371
    -1
372
    -1
  0
DIMSTYLE
105
F5
330
A
100
AcDbSymbolTableRecord
100
AcDbDimStyleTableRecord
  2
Default - mm [in] (ANSI)$7
 70
     0
  4
 in
 40
0.8888888888888889
 41
0.0984251946210861
 42
0.063
 43
0.25
 44
0.125
 45
0.00000001
 46
0.3937007874015748
 73
     0
 78
     4
 79
     1
140
0.1200000047683716
143
0.03937
144
25.4
147
0.031496062992126
170
     1
171
     3
176
   256
177
   256
178
   256
179
     1
271
     2
272
     2
274
     3
284
     4
285
     4
286
     4
340
D6
371
    -1
372
    -1
  0
DIMSTYLE
105
F6
102
{ACAD_REACTORS
330
526
330
610
330
707
330
7C2
102
}
330
A
100
AcDbSymbolTableRecord
100
AcDbDimStyleTableRecord
  2
Default (ANSI)
 70
     0
 40
0.8888888888888889
 41
0.0984251946210861
 43
0.2362204724409449
 44
0.125
 45
0.00000001
 46
0.3937007874015748
 79
     1
140
0.1200000047683716
147
0.031496062992126
171
     1
176
   256
177
   256
178
   256
271
     3
272
     2
274
     1
284
     4
285
     4
340
D6
371
    -1
372
    -1
  0
DIMSTYLE
105
F7
330
A
100
AcDbSymbolTableRecord
100
AcDbDimStyleTableRecord
  2
Default (ANSI)$7
 70
     0
 40
0.8888888888888889
 41
0.0984251946210861
 43
0.2362204724409449
 44
0.125
 45
0.00000001
 46
0.3937007874015748
 79
     1
140
0.1200000047683716
147
0.031496062992126
171
     1
176
   256
177
   256
178
   256
271
     3
272
     2
274
     1
284
     4
285
     4
340
D6
371
    -1
372
    -1
  0
DIMSTYLE
105
F8
102
{ACAD_REACTORS
330
142
330
22E
330
318
330
428
102
}
330
A
100
AcDbSymbolTableRecord
100
AcDbDimStyleTableRecord
  2
Default (ANSI)-01
 70
     0
 40
0.8888888888888889
 41
0.0984251946210861
 43
0.2362204724409449
 44
0.125
 45
0.00000001
 46
0.3937007874015748
 79
     1
140
0.1200000047683716
147
0.031496062992126
171
     1
176
   256
177
   256
178
   256
271
     2
272
     2
274
     1
284
     4
285
     4
340
D6
371
    -1
372
    -1
  0
DIMSTYLE
105
F9
330
A
100
AcDbSymbolTableRecord
100
AcDbDimStyleTableRecord
  2
Default (ANSI)-01$7
 70
     0
 40
0.8888888888888889
 41
0.0984251946210861
 43
0.2362204724409449
 44
0.125
 45
0.00000001
 46
0.3937007874015748
 79
     1
140
0.1200000047683716
147
0.031496062992126
171
     1
176
   256
177
   256
178
   256
271
     2
272
     2
274
     1
284
     4
285
     4
340
D6
371
    -1
372
    -1
  0
DIMSTYLE
105
FA
330
A
100
AcDbSymbolTableRecord
100
AcDbDimStyleTableRecord
  2
Alternate (ANSI)
 70
     0
 40
0.8888888888888889
 41
0.0979999974370003
340
55
342
FB
  0
DIMSTYLE
105
10D
330
A
100
AcDbSymbolTableRecord
100
AcDbDimStyleTableRecord
  2
Datum (ANSI)
 70
     0
 40
0.8888888888888889
 41
0.0979999974370003
340
55
342
FB
  0
DIMSTYLE
105
11C
330
A
100
AcDbSymbolTableRecord
100
AcDbDimStyleTableRecord
  2
Large (ANSI)
 70
     0
 40
0.8888888888888889
 41
0.1959999948740005
340
55
342
FB
  0
ENDTAB
  0
TABLE
  2
BLOCK_RECORD
  5
1
330
0
100
AcDbSymbolTable
 70
    12
  0
BLOCK_RECORD
  5
6C
330
1
100
AcDbSymbolTableRecord
100
AcDbBlockTableRecord
  2
*Model_Space
340
6F
 70
     0
280
     1
281
     0
  0
BLOCK_RECORD
  5
68
330
1
100
AcDbSymbolTableRecord
100
AcDbBlockTableRecord
  2
*Paper_Space
340
6B
 70
     0
280
     1
281
     0
  0
BLOCK_RECORD
  5
70
330
1
100
AcDbSymbolTableRecord
100
AcDbBlockTableRecord
  2
*Paper_Space0
340
73
 70
     0
280
     1
281
     0
  0
BLOCK_RECORD
  5
FB
330
1
100
AcDbSymbolTableRecord
100
AcDbBlockTableRecord
  2
_Closed
340
0
 70
     0
280
     1
281
     0
  0
BLOCK_RECORD
  5
102
330
1
100
AcDbSymbolTableRecord
100
AcDbBlockTableRecord
  2
DatumFilled45
340
0
 70
     0
280
     1
281
     0
  0
BLOCK_RECORD
  5
10E
330
1
100
AcDbSymbolTableRecord
100
AcDbBlockTableRecord
  2
Filled-1
340
0
 70
     0
280
     1
281
     0
  0
BLOCK_RECORD
  5
145
330
1
100
AcDbSymbolTableRecord
100
AcDbBlockTableRecord
  2
*D4
340
0
 70
     0
280
     1
281
     0
  0
BLOCK_RECORD
  5
22F
330
1
100
AcDbSymbolTableRecord
100
AcDbBlockTableRecord
  2
*D5
340
0
 70
     0
280
     1
281
     0
  0
BLOCK_RECORD
  5
319
330
1
100
AcDbSymbolTableRecord
100
AcDbBlockTableRecord
  2
*D6
340
0
 70
     0
280
     1
281
     0
  0
BLOCK_RECORD
  5
429
330
1
100
AcDbSymbolTableRecord
100
AcDbBlockTableRecord
  2
*D7
340
0
 70
     0
280
     1
281
     0
  0
BLOCK_RECORD
  5
527
330
1
100
AcDbSymbolTableRecord
100
AcDbBlockTableRecord
  2
*D8
340
0
 70
     0
280
     1
281
     0
  0
BLOCK_RECORD
  5
611
330
1
100
AcDbSymbolTableRecord
100
AcDbBlockTableRecord
  2
*D9
340
0
 70
     0
280
     1
281
     0
  0
BLOCK_RECORD
  5
708
330
1
100
AcDbSymbolTableRecord
100
AcDbBlockTableRecord
  2
*D10
340
0
 70
     0
280
     1
281
     0
  0
BLOCK_RECORD
  5
7C3
330
1
100
AcDbSymbolTableRecord
100
AcDbBlockTableRecord
  2
*D11
340
0
 70
     0
280
     1
281
     0
  0
ENDTAB
  0
ENDSEC
  0
SECTION
  2
BLOCKS
  0
BLOCK
  5
6D
330
6C
100
AcDbEntity
  8
0
100
AcDbBlockBegin
  2
*Model_Space
 70
     0
 10
0.0
 20
0.0
 30
0.0
  3
*Model_Space
  1

  0
ENDBLK
  5
6E
330
6C
100
AcDbEntity
  8
0
100
AcDbBlockEnd
  0
BLOCK
  5
69
330
68
100
AcDbEntity
 67
     1
  8
0
100
AcDbBlockBegin
  2
*Paper_Space
 70
     0
 10
0.0
 20
0.0
 30
0.0
  3
*Paper_Space
  1

  0
ENDBLK
  5
6A
330
68
100
AcDbEntity
 67
     1
  8
0
100
AcDbBlockEnd
  0
BLOCK
  5
71
330
70
100
AcDbEntity
 67
     1
  8
0
100
AcDbBlockBegin
  2
*Paper_Space0
 70
     0
 10
0.0
 20
0.0
 30
0.0
  3
*Paper_Space0
  1

  0
ENDBLK
  5
72
330
70
100
AcDbEntity
 67
     1
  8
0
100
AcDbBlockEnd
  0
BLOCK
  5
100
330
FB
100
AcDbEntity
  8
0
100
AcDbBlockBegin
  2
_Closed
 70
     0
 10
0.0
 20
0.0
 30
0.0
  3
_Closed
  1

  0
LINE
  5
FC
330
FB
100
AcDbEntity
  8
0
  6
ByBlock
 62
     0
370
    -2
100
AcDbLine
 10
-1.0
 20
0.1666666666666666
 30
0.0
 11
0.0
 21
0.0
 31
0.0
  0
LINE
  5
FD
330
FB
100
AcDbEntity
  8
0
  6
ByBlock
 62
     0
370
    -2
100
AcDbLine
 10
0.0
 20
0.0
 30
0.0
 11
-1.0
 21
-0.1666666666666666
 31
0.0
  0
LINE
  5
FE
330
FB
100
AcDbEntity
  8
0
  6
ByBlock
 62
     0
370
    -2
100
AcDbLine
 10
-1.0
 20
0.1666666666666666
 30
0.0
 11
-1.0
 21
-0.1666666666666666
 31
0.0
  0
LINE
  5
FF
330
FB
100
AcDbEntity
  8
0
  6
ByBlock
 62
     0
370
    -2
100
AcDbLine
 10
0.0
 20
0.0
 30
0.0
 11
-1.0
 21
0.0
 31
0.0
  0
ENDBLK
  5
101
330
FB
100
AcDbEntity
  8
0
100
AcDbBlockEnd
  0
BLOCK
  5
103
330
102
100
AcDbEntity
  8
0
100
AcDbBlockBegin
  2
DatumFilled45
 70
     0
 10
0.0
 20
0.0
 30
0.0
  3
DatumFilled45
  1

  0
POLYLINE
  5
105
330
102
100
AcDbEntity
  8
0
 62
     0
100
AcDb2dPolyline
 66
     1
 10
0.0
 20
0.0
 30
0.0
 70
   128
  0
VERTEX
  5
106
330
105
100
AcDbEntity
  8
0
 62
     0
100
AcDbVertex
100
AcDb2dVertex
 10
0.0
 20
0.9999999999999998
 30
0.0
  0
VERTEX
  5
107
330
105
100
AcDbEntity
  8
0
 62
     0
100
AcDbVertex
100
AcDb2dVertex
 10
0.0
 20
-0.9999999999999998
 30
0.0
  0
VERTEX
  5
109
330
105
100
AcDbEntity
  8
0
 62
     0
100
AcDbVertex
100
AcDb2dVertex
 10
-0.9999999999999998
 20
0.0
 30
0.0
  0
VERTEX
  5
10A
330
105
100
AcDbEntity
  8
0
 62
     0
100
AcDbVertex
100
AcDb2dVertex
 10
0.0
 20
0.9999999999999998
 30
0.0
  0
SEQEND
  5
108
330
105
100
AcDbEntity
  8
0
 62
     0
  0
SOLID
  5
10C
330
102
100
AcDbEntity
  8
0
 62
     0
100
AcDbTrace
 10
0.0
 20
0.9999999999999998
 30
0.0
 11
0.0
 21
-0.9999999999999998
 31
0.0
 12
-0.9999999999999998
 22
0.0
 32
0.0
 13
0.0
 23
0.9999999999999998
 33
0.0
  0
ENDBLK
  5
104
330
102
100
AcDbEntity
  8
0
100
AcDbBlockEnd
  0
BLOCK
  5
10F
330
10E
100
AcDbEntity
  8
0
100
AcDbBlockBegin
  2
Filled-1
 70
     0
 10
0.0
 20
0.0
 30
0.0
  3
Filled-1
  1

  0
LINE
  5
111
330
10E
100
AcDbEntity
  8
0
 62
     0
100
AcDbLine
 10
-0.9999999999999998
 20
0.0
 30
0.0
 11
0.0
 21
0.0
 31
0.0
  0
POLYLINE
  5
112
330
10E
100
AcDbEntity
  8
0
 62
     0
100
AcDb2dPolyline
 66
     1
 10
0.0
 20
0.0
 30
0.0
 70
   128
  0
VERTEX
  5
113
330
112
100
AcDbEntity
  8
0
 62
     0
100
AcDbVertex
100
AcDb2dVertex
 10
-0.9999999999999998
 20
-0.0994897959183674
 30
0.0
  0
VERTEX
  5
114
330
112
100
AcDbEntity
  8
0
 62
     0
100
AcDbVertex
100
AcDb2dVertex
 10
0.0
 20
0.0
 30
0.0
  0
VERTEX
  5
116
330
112
100
AcDbEntity
  8
0
 62
     0
100
AcDbVertex
100
AcDb2dVertex
 10
-0.9999999999999998
 20
0.0994897959183674
 30
0.0
  0
VERTEX
  5
117
330
112
100
AcDbEntity
  8
0
 62
     0
100
AcDbVertex
100
AcDb2dVertex
 10
-0.9999999999999998
 20
-0.0994897959183674
 30
0.0
  0
SEQEND
  5
115
330
112
100
AcDbEntity
  8
0
 62
     0
  0
SOLID
  5
118
330
10E
100
AcDbEntity
  8
0
 62
     0
100
AcDbTrace
 10
-0.9999999999999998
 20
-0.0994897959183674
 30
0.0
 11
0.0
 21
0.0
 31
0.0
 12
-0.9999999999999998
 22
0.0994897959183674
 32
0.0
 13
-0.9999999999999998
 23
-0.0994897959183674
 33
0.0
  0
LINE
  5
119
330
10E
100
AcDbEntity
  8
0
 62
     0
100
AcDbLine
 10
-0.9999999999999998
 20
-0.0994897959183674
 30
0.0
 11
0.0
 21
0.0
 31
0.0
  0
LINE
  5
11A
330
10E
100
AcDbEntity
  8
0
 62
     0
100
AcDbLine
 10
0.0
 20
0.0
 30
0.0
 11
-0.9999999999999998
 21
0.0994897959183674
 31
0.0
  0
LINE
  5
11B
330
10E
100
AcDbEntity
  8
0
 62
     0
100
AcDbLine
 10
-0.9999999999999998
 20
0.0994897959183674
 30
0.0
 11
-0.9999999999999998
 21
-0.0994897959183674
 31
0.0
  0
ENDBLK
  5
110
330
10E
100
AcDbEntity
  8
0
100
AcDbBlockEnd
  0
BLOCK
  5
146
330
145
100
AcDbEntity
  8
0
100
AcDbBlockBegin
  2
*D4
 70
     1
 10
0.0
 20
0.0
 30
0.0
  3
*D4
  1

  0
LINE
  5
224
330
145
100
AcDbEntity
  8
Dimension (ANSI)
440
 16777216
100
AcDbLine
 10
6.035626617706662
 20
3.399855223293711
 30
0.0
 11
6.035626617706662
 21
2.424683376301325
 31
0.0
  0
LINE
  5
225
330
145
100
AcDbEntity
  8
Dimension (ANSI)
440
 16777216
100
AcDbLine
 10
3.155626617706662
 20
3.399855223293711
 30
0.0
 11
3.155626617706662
 21
2.424683376301325
 31
0.0
  0
LINE
  5
226
330
145
100
AcDbEntity
  8
Dimension (ANSI)
440
 16777216
100
AcDbLine
 10
5.948137555821252
 20
2.535794487412436
 30
0.0
 11
4.759410004238469
 21
2.535794487412436
 31
0.0
  0
LINE
  5
227
330
145
100
AcDbEntity
  8
Dimension (ANSI)
440
 16777216
100
AcDbLine
 10
3.243115679592072
 20
2.535794487412436
 30
0.0
 11
4.431843231174855
 21
2.535794487412436
 31
0.0
  0
SOLID
  5
228
330
145
100
AcDbEntity
  8
Dimension (ANSI)
440
 16777216
100
AcDbTrace
 10
5.948137555821252
 20
2.550375997726671
 30
0.0
 11
5.948137555821252
 21
2.521212977098201
 31
0.0
 12
6.035626617706662
 22
2.535794487412436
 32
0.0
 13
6.035626617706662
 23
2.535794487412436
 33
0.0
  0
SOLID
  5
229
330
145
100
AcDbEntity
  8
Dimension (ANSI)
440
 16777216
100
AcDbTrace
 10
3.243115679592072
 20
2.550375997726671
 30
0.0
 11
3.243115679592072
 21
2.521212977098201
 31
0.0
 12
3.155626617706662
 22
2.535794487412436
 32
0.0
 13
3.155626617706662
 23
2.535794487412436
 33
0.0
  0
MTEXT
  5
22A
330
145
100
AcDbEntity
  8
Dimension (ANSI)
440
 16777216
100
AcDbMText
 10
4.459839731612301
 20
2.591563461732911
 30
0.0
 40
0.1066666709052192
 41
0.0
 46
0.0
 71
     1
 72
     1
  1
\A1;2.88
  7
Note Text (ANSI)
 73
     1
 44
1.0
  0
POINT
  5
22B
330
145
100
AcDbEntity
  8
Defpoints
 62
     0
440
 16777216
100
AcDbPoint
 10
6.035626617706662
 20
3.455410778849266
 30
0.0
  0
POINT
  5
22C
330
145
100
AcDbEntity
  8
Defpoints
 62
     0
440
 16777216
100
AcDbPoint
 10
3.155626617706662
 20
3.455410778849266
 30
0.0
  0
POINT
  5
22D
330
145
100
AcDbEntity
  8
Defpoints
 62
     0
440
 16777216
100
AcDbPoint
 10
3.155626617706662
 20
2.535794487412436
 30
0.0
  0
ENDBLK
  5
147
330
145
100
AcDbEntity
  8
0
100
AcDbBlockEnd
  0
BLOCK
  5
230
330
22F
100
AcDbEntity
  8
0
100
AcDbBlockBegin
  2
*D5
 70
     1
 10
0.0
 20
0.0
 30
0.0
  3
*D5
  1

  0
LINE
  5
30E
330
22F
100
AcDbEntity
  8
Dimension (ANSI)
440
 16777216
100
AcDbLine
 10
3.100071062151107
 20
3.455410778849266
 30
0.0
 11
1.942153301871141
 21
3.455410778849267
 31
0.0
  0
LINE
  5
30F
330
22F
100
AcDbEntity
  8
Dimension (ANSI)
440
 16777216
100
AcDbLine
 10
3.100071062151104
 20
8.335410778849267
 30
0.0
 11
1.942153301871142
 21
8.335410778849267
 31
0.0
  0
LINE
  5
310
330
22F
100
AcDbEntity
  8
Dimension (ANSI)
440
 16777216
100
AcDbLine
 10
2.053264412982253
 20
3.542899840734677
 30
0.0
 11
2.053264412982253
 21
5.811645304091342
 31
0.0
  0
LINE
  5
311
330
22F
100
AcDbEntity
  8
Dimension (ANSI)
440
 16777216
100
AcDbLine
 10
2.053264412982254
 20
8.247921716963857
 30
0.0
 11
2.053264412982253
 21
5.979176253607183
 31
0.0
  0
SOLID
  5
312
330
22F
100
AcDbEntity
  8
Dimension (ANSI)
440
 16777216
100
AcDbTrace
 10
2.038682902668018
 20
3.542899840734677
 30
0.0
 11
2.067845923296488
 21
3.542899840734677
 31
0.0
 12
2.053264412982253
 22
3.455410778849267
 32
0.0
 13
2.053264412982253
 23
3.455410778849267
 33
0.0
  0
SOLID
  5
313
330
22F
100
AcDbEntity
  8
Dimension (ANSI)
440
 16777216
100
AcDbTrace
 10
2.038682902668019
 20
8.247921716963857
 30
0.0
 11
2.067845923296489
 21
8.247921716963857
 31
0.0
 12
2.053264412982254
 22
8.335410778849267
 32
0.0
 13
2.053264412982254
 23
8.335410778849267
 33
0.0
  0
MTEXT
  5
314
330
22F
100
AcDbEntity
  8
Dimension (ANSI)
440
 16777216
100
AcDbMText
 10
1.915006069451723
 20
5.951179753169739
 30
0.0
 40
0.1066666709052192
 41
0.0
 46
0.0
 71
     1
 72
     1
  1
\A1;4.88
  7
Note Text (ANSI)
 73
     1
 44
1.0
  0
POINT
  5
315
330
22F
100
AcDbEntity
  8
Defpoints
 62
     0
440
 16777216
100
AcDbPoint
 10
3.155626617706662
 20
3.455410778849266
 30
0.0
  0
POINT
  5
316
330
22F
100
AcDbEntity
  8
Defpoints
 62
     0
440
 16777216
100
AcDbPoint
 10
3.15562661770666
 20
8.335410778849267
 30
0.0
  0
POINT
  5
317
330
22F
100
AcDbEntity
  8
Defpoints
 62
     0
440
 16777216
100
AcDbPoint
 10
2.053264412982254
 20
8.335410778849267
 30
0.0
  0
ENDBLK
  5
231
330
22F
100
AcDbEntity
  8
0
100
AcDbBlockEnd
  0
BLOCK
  5
31A
330
319
100
AcDbEntity
  8
0
100
AcDbBlockBegin
  2
*D6
 70
     1
 10
0.0
 20
0.0
 30
0.0
  3
*D6
  1

  0
LINE
  5
41D
330
319
100
AcDbEntity
  8
Dimension (ANSI)
440
 16777216
100
AcDbLine
 10
3.100071062151107
 20
3.455410778849266
 30
0.0
 11
2.744130893636079
 21
3.455410778849267
 31
0.0
  0
LINE
  5
41E
330
319
100
AcDbEntity
  8
Dimension (ANSI)
440
 16777216
100
AcDbLine
 10
3.257071062151107
 20
3.768410778849266
 30
0.0
 11
2.744130893636079
 21
3.768410778849267
 31
0.0
  0
LINE
  5
41F
330
319
100
AcDbEntity
  8
Dimension (ANSI)
440
 16777216
100
AcDbLine
 10
2.85524200474719
 20
3.542899840734677
 30
0.0
 11
2.85524200474719
 21
3.680921716963857
 31
0.0
  0
LINE
  5
420
330
319
100
AcDbEntity
  8
Dimension (ANSI)
440
 16777216
100
AcDbLine
 10
2.76775294286178
 20
4.003513435890011
 30
0.0
 11
2.85524200474719
 21
4.003513435890011
 31
0.0
  0
LINE
  5
421
330
319
100
AcDbEntity
  8
Dimension (ANSI)
440
 16777216
100
AcDbLine
 10
2.85524200474719
 20
4.003513435890011
 30
0.0
 11
2.85524200474719
 21
3.768410778849267
 31
0.0
  0
MTEXT
  5
422
330
319
100
AcDbEntity
  8
Dimension (ANSI)
440
 16777216
100
AcDbMText
 10
2.457938658253815
 20
4.075179732122076
 30
0.0
 40
0.1066666709052192
 41
0.0
 46
0.0
 71
     1
 72
     1
  1
\A1;0.31{\PTYP.}
  7
Note Text (ANSI)
 73
     1
 44
1.0
  0
SOLID
  5
423
330
319
100
AcDbEntity
  8
Dimension (ANSI)
440
 16777216
100
AcDbTrace
 10
2.840660494432955
 20
3.542899840734677
 30
0.0
 11
2.869823515061425
 21
3.542899840734677
 31
0.0
 12
2.85524200474719
 22
3.455410778849267
 32
0.0
 13
2.85524200474719
 23
3.455410778849267
 33
0.0
  0
SOLID
  5
424
330
319
100
AcDbEntity
  8
Dimension (ANSI)
440
 16777216
100
AcDbTrace
 10
2.840660494432955
 20
3.680921716963857
 30
0.0
 11
2.869823515061425
 21
3.680921716963857
 31
0.0
 12
2.85524200474719
 22
3.768410778849267
 32
0.0
 13
2.85524200474719
 23
3.768410778849267
 33
0.0
  0
POINT
  5
425
330
319
100
AcDbEntity
  8
Defpoints
 62
     0
440
 16777216
100
AcDbPoint
 10
3.155626617706662
 20
3.455410778849266
 30
0.0
  0
POINT
  5
426
330
319
100
AcDbEntity
  8
Defpoints
 62
     0
440
 16777216
100
AcDbPoint
 10
3.312626617706662
 20
3.768410778849266
 30
0.0
  0
POINT
  5
427
330
319
100
AcDbEntity
  8
Defpoints
 62
     0
440
 16777216
100
AcDbPoint
 10
2.85524200474719
 20
3.768410778849267
 30
0.0
  0
ENDBLK
  5
31B
330
319
100
AcDbEntity
  8
0
100
AcDbBlockEnd
  0
BLOCK
  5
42A
330
429
100
AcDbEntity
  8
0
100
AcDbBlockBegin
  2
*D7
 70
     1
 10
0.0
 20
0.0
 30
0.0
  3
*D7
  1

  0
LINE
  5
51C
330
429
100
AcDbEntity
  8
Dimension (ANSI)
440
 16777216
100
AcDbLine
 10
3.155626617706662
 20
3.399855223293711
 30
0.0
 11
3.155626617706662
 21
2.91137326684677
 31
0.0
  0
LINE
  5
51D
330
429
100
AcDbEntity
  8
Dimension (ANSI)
440
 16777216
100
AcDbLine
 10
3.468626617706662
 20
3.587855223293712
 30
0.0
 11
3.468626617706662
 21
2.91137326684677
 31
0.0
  0
LINE
  5
51E
330
429
100
AcDbEntity
  8
Dimension (ANSI)
440
 16777216
100
AcDbLine
 10
3.381137555821252
 20
3.022484377957881
 30
0.0
 11
3.243115679592072
 21
3.022484377957881
 31
0.0
  0
LINE
  5
51F
330
429
100
AcDbEntity
  8
Dimension (ANSI)
440
 16777216
100
AcDbLine
 10
3.155626617706662
 20
3.022484377957881
 30
0.0
 11
2.99145139097072
 21
3.022484377957881
 31
0.0
  0
SOLID
  5
520
330
429
100
AcDbEntity
  8
Dimension (ANSI)
440
 16777216
100
AcDbTrace
 10
3.381137555821252
 20
3.037065888272116
 30
0.0
 11
3.381137555821252
 21
3.007902867643646
 31
0.0
 12
3.468626617706662
 22
3.022484377957881
 32
0.0
 13
3.468626617706662
 23
3.022484377957881
 33
0.0
  0
SOLID
  5
521
330
429
100
AcDbEntity
  8
Dimension (ANSI)
440
 16777216
100
AcDbTrace
 10
3.243115679592072
 20
3.037065888272116
 30
0.0
 11
3.243115679592072
 21
3.007902867643646
 31
0.0
 12
3.155626617706662
 22
3.022484377957881
 32
0.0
 13
3.155626617706662
 23
3.022484377957881
 33
0.0
  0
MTEXT
  5
522
330
429
100
AcDbEntity
  8
Dimension (ANSI)
440
 16777216
100
AcDbMText
 10
2.681637106362756
 20
3.094150674189944
 30
0.0
 40
0.1066666709052192
 41
0.0
 46
0.0
 71
     1
 72
     1
  1
\A1;0.31{\PTYP.}
  7
Note Text (ANSI)
 73
     1
 44
1.0
  0
POINT
  5
523
330
429
100
AcDbEntity
  8
Defpoints
 62
     0
440
 16777216
100
AcDbPoint
 10
3.155626617706662
 20
3.455410778849266
 30
0.0
  0
POINT
  5
524
330
429
100
AcDbEntity
  8
Defpoints
 62
     0
440
 16777216
100
AcDbPoint
 10
3.468626617706662
 20
3.643410778849267
 30
0.0
  0
POINT
  5
525
330
429
100
AcDbEntity
  8
Defpoints
 62
     0
440
 16777216
100
AcDbPoint
 10
3.468626617706662
 20
3.022484377957881
 30
0.0
  0
ENDBLK
  5
42B
330
429
100
AcDbEntity
  8
0
100
AcDbBlockEnd
  0
BLOCK
  5
528
330
527
100
AcDbEntity
  8
0
100
AcDbBlockBegin
  2
*D8
 70
     1
 10
0.0
 20
0.0
 30
0.0
  3
*D8
  1

  0
LINE
  5
606
330
527
100
AcDbEntity
  8
Dimension (ANSI)
440
 16777216
100
AcDbLine
 10
3.468626617706663
 20
3.587855223293712
 30
0.0
 11
3.468626617706663
 21
2.895373266846771
 31
0.0
  0
LINE
  5
607
330
527
100
AcDbEntity
  8
Dimension (ANSI)
440
 16777216
100
AcDbLine
 10
4.468626617706662
 20
3.587855223293711
 30
0.0
 11
4.468626617706662
 21
2.895373266846771
 31
0.0
  0
LINE
  5
608
330
527
100
AcDbEntity
  8
Dimension (ANSI)
440
 16777216
100
AcDbLine
 10
3.556115679592072
 20
3.006484377957882
 30
0.0
 11
3.769311553251983
 21
3.006484377957882
 31
0.0
  0
LINE
  5
609
330
527
100
AcDbEntity
  8
Dimension (ANSI)
440
 16777216
100
AcDbLine
 10
4.381137555821251
 20
3.006484377957882
 30
0.0
 11
4.167941682161341
 21
3.006484377957882
 31
0.0
  0
SOLID
  5
60A
330
527
100
AcDbEntity
  8
Dimension (ANSI)
440
 16777216
100
AcDbTrace
 10
3.556115679592072
 20
3.021065888272117
 30
0.0
 11
3.556115679592072
 21
2.991902867643647
 31
0.0
 12
3.468626617706663
 22
3.006484377957882
 32
0.0
 13
3.468626617706663
 23
3.006484377957882
 33
0.0
  0
SOLID
  5
60B
330
527
100
AcDbEntity
  8
Dimension (ANSI)
440
 16777216
100
AcDbTrace
 10
4.381137555821251
 20
3.021065888272117
 30
0.0
 11
4.381137555821251
 21
2.991902867643647
 31
0.0
 12
4.468626617706662
 22
3.006484377957882
 32
0.0
 13
4.468626617706662
 23
3.006484377957882
 33
0.0
  0
MTEXT
  5
60C
330
527
100
AcDbEntity
  8
Dimension (ANSI)
440
 16777216
100
AcDbMText
 10
3.797308053689429
 20
3.062002624712369
 30
0.0
 40
0.1066666709052192
 41
0.0
 46
0.0
 71
     1
 72
     1
  1
\A1;1.000
  7
Note Text (ANSI)
 73
     1
 44
1.0
  0
POINT
  5
60D
330
527
100
AcDbEntity
  8
Defpoints
 62
     0
440
 16777216
100
AcDbPoint
 10
3.468626617706663
 20
3.643410778849267
 30
0.0
  0
POINT
  5
60E
330
527
100
AcDbEntity
  8
Defpoints
 62
     0
440
 16777216
100
AcDbPoint
 10
4.468626617706662
 20
3.643410778849266
 30
0.0
  0
POINT
  5
60F
330
527
100
AcDbEntity
  8
Defpoints
 62
     0
440
 16777216
100
AcDbPoint
 10
4.468626617706662
 20
3.006484377957882
 30
0.0
  0
ENDBLK
  5
529
330
527
100
AcDbEntity
  8
0
100
AcDbBlockEnd
  0
BLOCK
  5
612
330
611
100
AcDbEntity
  8
0
100
AcDbBlockBegin
  2
*D9
 70
     1
 10
0.0
 20
0.0
 30
0.0
  3
*D9
  1

  0
LINE
  5
6FF
330
611
100
AcDbEntity
  8
Dimension (ANSI)
440
 16777216
100
AcDbLine
 10
8.753262738141595
 20
7.25168366343054
 30
0.0
 11
8.665773676256184
 21
7.25168366343054
 31
0.0
  0
LINE
  5
700
330
611
100
AcDbEntity
  8
Dimension (ANSI)
440
 16777216
100
AcDbLine
 10
8.994018639690192
 20
7.25168366343054
 30
0.0
 11
9.220850864803871
 21
7.25168366343054
 31
0.0
  0
SOLID
  5
701
330
611
100
AcDbEntity
  8
Dimension (ANSI)
440
 16777216
100
AcDbTrace
 10
8.753262738141595
 20
7.266265173744775
 30
0.0
 11
8.753262738141595
 21
7.237102153116305
 31
0.0
 12
8.840751800027005
 22
7.25168366343054
 32
0.0
 13
8.840751800027005
 23
7.25168366343054
 33
0.0
  0
SOLID
  5
702
330
611
100
AcDbEntity
  8
Dimension (ANSI)
440
 16777216
100
AcDbTrace
 10
8.994018639690192
 20
7.266265173744775
 30
0.0
 11
8.994018639690192
 21
7.237102153116305
 31
0.0
 12
8.906529577804782
 22
7.25168366343054
 32
0.0
 13
8.906529577804782
 23
7.25168366343054
 33
0.0
  0
MTEXT
  5
703
330
611
100
AcDbEntity
  8
Dimension (ANSI)
440
 16777216
100
AcDbMText
 10
9.483098548321539
 20
7.25168366343054
 30
0.0
 40
0.1066666709052192
 41
0.0
 46
0.0
 71
     5
 72
     1
  1
\A1; 14 GA.\PS.S.
  7
Note Text (ANSI)
 73
     1
 44
1.0
  0
POINT
  5
704
330
611
100
AcDbEntity
  8
Defpoints
 62
     0
440
 16777216
100
AcDbPoint
 10
9.064361475078611
 20
3.726521889960378
 30
0.0
  0
POINT
  5
705
330
611
100
AcDbEntity
  8
Defpoints
 62
     0
440
 16777216
100
AcDbPoint
 10
8.998583697300833
 20
3.726521889960378
 30
0.0
  0
POINT
  5
706
330
611
100
AcDbEntity
  8
Defpoints
 62
     0
440
 16777216
100
AcDbPoint
 10
8.840751800027005
 20
7.25168366343054
 30
0.0
  0
ENDBLK
  5
613
330
611
100
AcDbEntity
  8
0
100
AcDbBlockEnd
  0
BLOCK
  5
709
330
708
100
AcDbEntity
  8
0
100
AcDbBlockBegin
  2
*D10
 70
     1
 10
0.0
 20
0.0
 30
0.0
  3
*D10
  1

  0
LINE
  5
7BA
330
708
100
AcDbEntity
  8
Dimension (ANSI)
440
 16777216
100
AcDbLine
 10
4.910045880737763
 20
3.193750386258349
 30
0.0
 11
4.800406950061795
 21
3.193750386258349
 31
0.0
  0
LINE
  5
7BB
330
708
100
AcDbEntity
  8
Dimension (ANSI)
440
 16777216
100
AcDbLine
 10
4.800406950061795
 20
3.193750386258349
 30
0.0
 11
4.574871148649403
 21
3.584389853230199
 31
0.0
  0
MTEXT
  5
7BC
330
708
100
AcDbEntity
  8
Dimension (ANSI)
440
 16777216
100
AcDbMText
 10
4.938042381175208
 20
3.272552634305744
 30
0.0
 40
0.1066666709052192
 41
0.0
 46
0.0
 71
     1
 72
     1
  1
\A1;∅0.250{\PGROUND\P HOLE}
  7
Note Text (ANSI)
 73
     1
 44
1.0
  0
SOLID
  5
7BD
330
708
100
AcDbEntity
  8
Dimension (ANSI)
440
 16777216
100
AcDbTrace
 10
4.587499107007074
 20
3.591680608387318
 30
0.0
 11
4.562243190291733
 21
3.577099098073079
 31
0.0
 12
4.531126617706683
 22
3.660157603376224
 32
0.0
 13
4.531126617706683
 23
3.660157603376224
 33
0.0
  0
LINE
  5
7BE
330
708
100
AcDbEntity
  8
Dimension (ANSI)
440
 16777216
100
AcDbLine
 10
4.388626617706662
 20
3.768410778849267
 30
0.0
 11
4.548626617706662
 21
3.768410778849267
 31
0.0
  0
LINE
  5
7BF
330
708
100
AcDbEntity
  8
Dimension (ANSI)
440
 16777216
100
AcDbLine
 10
4.468626617706663
 20
3.688410778849267
 30
0.0
 11
4.468626617706662
 21
3.848410778849267
 31
0.0
  0
POINT
  5
7C0
330
708
100
AcDbEntity
  8
Defpoints
 62
     0
440
 16777216
100
AcDbPoint
 10
4.531126617706683
 20
3.660157603376224
 30
0.0
  0
POINT
  5
7C1
330
708
100
AcDbEntity
  8
Defpoints
 62
     0
440
 16777216
100
AcDbPoint
 10
4.40612661770664
 20
3.876663954322309
 30
0.0
  0
ENDBLK
  5
70A
330
708
100
AcDbEntity
  8
0
100
AcDbBlockEnd
  0
BLOCK
  5
7C4
330
7C3
100
AcDbEntity
  8
0
100
AcDbBlockBegin
  2
*D11
 70
     1
 10
0.0
 20
0.0
 30
0.0
  3
*D11
  1

  0
LINE
  5
860
330
7C3
100
AcDbEntity
  8
Dimension (ANSI)
440
 16777216
100
AcDbLine
 10
6.340799894764515
 20
4.614220371635268
 30
0.0
 11
6.244599167202187
 21
4.614220371635268
 31
0.0
  0
LINE
  5
861
330
7C3
100
AcDbEntity
  8
Dimension (ANSI)
440
 16777216
100
AcDbLine
 10
6.244599167202187
 20
4.614220371635268
 30
0.0
 11
5.860301734924247
 21
3.952182432777602
 31
0.0
  0
MTEXT
  5
862
330
7C3
100
AcDbEntity
  8
Dimension (ANSI)
440
 16777216
100
AcDbMText
 10
6.368796395201958
 20
4.700566707864155
 30
0.0
 40
0.1066666709052192
 41
0.0
 46
0.0
 71
     1
 72
     1
  1
\A1; \fromans|b0|i0;\H0.1067;0.250 X 0.312\POBROUND\PTYP. (4 PL.)
  7
Note Text (ANSI)
 73
     1
 44
1.0
  0
SOLID
  5
863
330
7C3
100
AcDbEntity
  8
Dimension (ANSI)
440
 16777216
100
AcDbTrace
 10
5.847690882189318
 20
3.959502735800161
 30
0.0
 11
5.872912587659175
 21
3.944862129755043
 31
0.0
 12
5.816379916788894
 22
3.87651731636803
 32
0.0
 13
5.816379916788894
 23
3.87651731636803
 33
0.0
  0
POINT
  5
864
330
7C3
100
AcDbEntity
  8
Defpoints
 62
     0
440
 16777216
100
AcDbPoint
 10
5.816379916788894
 20
3.87651731636803
 30
0.0
  0
POINT
  5
865
330
7C3
100
AcDbEntity
  8
Defpoints
 62
     0
440
 16777216
100
AcDbPoint
 10
5.753626617706663
 20
3.768410778849267
 30
0.0
  0
ENDBLK
  5
7C5
330
7C3
100
AcDbEntity
  8
0
100
AcDbBlockEnd
  0
ENDSEC
  0
SECTION
  2
ENTITIES
  0
CIRCLE
  5
11D
330
6C
100
AcDbEntity
  8
Visible (ANSI)
100
AcDbCircle
 10
4.468626617706662
 20
3.768410778849266
 30
0.0
 40
0.125
  0
LINE
  5
11E
330
6C
100
AcDbEntity
  8
Visible (ANSI)
100
AcDbLine
 10
3.437626617706662
 20
3.893410778849267
 30
0.0
 11
3.499626617706661
 21
3.893410778849267
 31
0.0
  0
ARC
  5
11F
330
6C
100
AcDbEntity
  8
Visible (ANSI)
100
AcDbCircle
 10
3.437626617706662
 20
3.768410778849266
 30
0.0
 40
0.125
100
AcDbArc
 50
90.0
 51
270.0
  0
LINE
  5
120
330
6C
100
AcDbEntity
  8
Visible (ANSI)
100
AcDbLine
 10
3.499626617706661
 20
3.643410778849266
 30
0.0
 11
3.437626617706662
 21
3.643410778849266
 31
0.0
  0
ARC
  5
121
330
6C
100
AcDbEntity
  8
Visible (ANSI)
100
AcDbCircle
 10
3.499626617706661
 20
3.768410778849266
 30
0.0
 40
0.125
100
AcDbArc
 50
270.0
 51
90.0
  0
LINE
  5
122
330
6C
100
AcDbEntity
  8
Visible (ANSI)
100
AcDbLine
 10
5.69162661770666
 20
8.147410778849266
 30
0.0
 11
5.753626617706661
 21
8.147410778849266
 31
0.0
  0
ARC
  5
123
330
6C
100
AcDbEntity
  8
Visible (ANSI)
100
AcDbCircle
 10
5.691626617706661
 20
8.022410778849264
 30
0.0
 40
0.1250000000000003
100
AcDbArc
 50
89.99999999999943
 51
269.9999999999994
  0
LINE
  5
124
330
6C
100
AcDbEntity
  8
Visible (ANSI)
100
AcDbLine
 10
5.753626617706661
 20
7.897410778849265
 30
0.0
 11
5.69162661770666
 21
7.897410778849265
 31
0.0
  0
ARC
  5
125
330
6C
100
AcDbEntity
  8
Visible (ANSI)
100
AcDbCircle
 10
5.753626617706659
 20
8.022410778849264
 30
0.0
 40
0.1250000000000003
100
AcDbArc
 50
269.9999999999994
 51
89.99999999999944
  0
LINE
  5
126
330
6C
100
AcDbEntity
  8
Visible (ANSI)
100
AcDbLine
 10
5.691626617706663
 20
3.893410778849267
 30
0.0
 11
5.753626617706662
 21
3.893410778849267
 31
0.0
  0
ARC
  5
127
330
6C
100
AcDbEntity
  8
Visible (ANSI)
100
AcDbCircle
 10
5.691626617706663
 20
3.768410778849266
 30
0.0
 40
0.125
100
AcDbArc
 50
90.0
 51
270.0
  0
LINE
  5
128
330
6C
100
AcDbEntity
  8
Visible (ANSI)
100
AcDbLine
 10
5.753626617706662
 20
3.643410778849266
 30
0.0
 11
5.691626617706663
 21
3.643410778849266
 31
0.0
  0
ARC
  5
129
330
6C
100
AcDbEntity
  8
Visible (ANSI)
100
AcDbCircle
 10
5.753626617706661
 20
3.768410778849266
 30
0.0
 40
0.125
100
AcDbArc
 50
270.0
 51
90.0
  0
LINE
  5
12A
330
6C
100
AcDbEntity
  8
Visible (ANSI)
100
AcDbLine
 10
3.43762661770666
 20
8.147410778849266
 30
0.0
 11
3.499626617706661
 21
8.147410778849266
 31
0.0
  0
ARC
  5
12B
330
6C
100
AcDbEntity
  8
Visible (ANSI)
100
AcDbCircle
 10
3.437626617706661
 20
8.022410778849264
 30
0.0
 40
0.1250000000000003
100
AcDbArc
 50
89.99999999999971
 51
269.9999999999997
  0
LINE
  5
12C
330
6C
100
AcDbEntity
  8
Visible (ANSI)
100
AcDbLine
 10
3.499626617706661
 20
7.897410778849265
 30
0.0
 11
3.43762661770666
 21
7.897410778849265
 31
0.0
  0
ARC
  5
12D
330
6C
100
AcDbEntity
  8
Visible (ANSI)
100
AcDbCircle
 10
3.49962661770666
 20
8.022410778849264
 30
0.0
 40
0.1250000000000003
100
AcDbArc
 50
269.9999999999997
 51
89.99999999999969
  0
LINE
  5
12E
330
6C
100
AcDbEntity
  8
Visible (ANSI)
100
AcDbLine
 10
3.155626617706662
 20
3.455410778849266
 30
0.0
 11
3.155626617706661
 21
8.335410778849265
 31
0.0
  0
LINE
  5
12F
330
6C
100
AcDbEntity
  8
Visible (ANSI)
100
AcDbLine
 10
3.155626617706661
 20
8.335410778849265
 30
0.0
 11
6.035626617706662
 21
8.335410778849265
 31
0.0
  0
LINE
  5
130
330
6C
100
AcDbEntity
  8
Visible (ANSI)
100
AcDbLine
 10
6.035626617706662
 20
8.335410778849265
 30
0.0
 11
6.035626617706662
 21
3.455410778849266
 31
0.0
  0
LINE
  5
131
330
6C
100
AcDbEntity
  8
Visible (ANSI)
100
AcDbLine
 10
6.035626617706662
 20
3.455410778849266
 30
0.0
 11
3.155626617706662
 21
3.455410778849266
 31
0.0
  0
MTEXT
  5
133
330
6C
100
AcDbEntity
  8
Symbol (ANSI)
100
AcDbMText
 10
4.165085922342298
 20
1.847319899556024
 30
0.0
 40
0.1066666679849566
 41
0.0
 46
0.0
 71
     7
 72
     1
  1
FRONT VIEW
  7
Text Style150
 73
     1
 44
1.0
  0
LINE
  5
135
330
6C
100
AcDbEntity
  8
Symbol (ANSI)
370
    30
100
AcDbLine
 10
4.154419228237065
 20
1.825567333000566
 30
0.0
 11
5.011988120935445
 21
1.825567333000566
 31
0.0
  0
MTEXT
  5
136
330
6C
100
AcDbEntity
  8
Symbol (ANSI)
100
AcDbMText
 10
4.548843870506236
 20
1.606712604197958
 30
0.0
 40
0.1599999967626803
 41
0.0
 46
0.0
 71
     7
 72
     1
  1
 
  7
Label Text (ANSI)
 73
     1
 44
1.0
  0
LINE
  5
137
330
6C
100
AcDbEntity
  8
Hidden (ANSI)
 48
0.1408475488424301
100
AcDbLine
 10
8.998583697300759
 20
7.897188556627043
 30
0.0
 11
9.064361475078536
 21
7.897188556627043
 31
0.0
  0
LINE
  5
138
330
6C
100
AcDbEntity
  8
Hidden (ANSI)
 48
0.1408475488424301
100
AcDbLine
 10
8.998583697300759
 20
7.674966334404821
 30
0.0
 11
9.064361475078536
 21
7.674966334404821
 31
0.0
  0
LINE
  5
139
330
6C
100
AcDbEntity
  8
Hidden (ANSI)
 48
0.1408475488424301
100
AcDbLine
 10
8.998583697300759
 20
4.115855223293711
 30
0.0
 11
9.064361475078536
 21
4.115855223293711
 31
0.0
  0
LINE
  5
13A
330
6C
100
AcDbEntity
  8
Hidden (ANSI)
 48
0.1408475488424301
100
AcDbLine
 10
8.998583697300759
 20
3.893633001071489
 30
0.0
 11
9.064361475078536
 21
3.893633001071489
 31
0.0
  0
LINE
  5
13B
330
6C
100
AcDbEntity
  8
Visible (ANSI)
100
AcDbLine
 10
9.064361475078611
 20
8.064299667738156
 30
0.0
 11
8.998583697300833
 21
8.064299667738156
 31
0.0
  0
LINE
  5
13C
330
6C
100
AcDbEntity
  8
Visible (ANSI)
100
AcDbLine
 10
8.998583697300833
 20
8.064299667738156
 30
0.0
 11
8.998583697300833
 21
3.726521889960378
 31
0.0
  0
LINE
  5
13D
330
6C
100
AcDbEntity
  8
Visible (ANSI)
100
AcDbLine
 10
9.064361475078611
 20
3.726521889960378
 30
0.0
 11
8.998583697300833
 21
3.726521889960378
 31
0.0
  0
LINE
  5
13E
330
6C
100
AcDbEntity
  8
Visible (ANSI)
100
AcDbLine
 10
9.064361475078611
 20
3.726521889960378
 30
0.0
 11
9.064361475078611
 21
8.064299667738156
 31
0.0
  0
MTEXT
  5
13F
330
6C
100
AcDbEntity
  8
Symbol (ANSI)
100
AcDbMText
 10
8.611280592299376
 20
1.889066706218173
 30
0.0
 40
0.1066666679849566
 41
0.0
 46
0.0
 71
     7
 72
     1
  1
RIGHT VIEW
  7
Text Style150
 73
     1
 44
1.0
  0
LINE
  5
140
330
6C
100
AcDbEntity
  8
Symbol (ANSI)
370
    30
100
AcDbLine
 10
8.600613898194144
 20
1.867141260119094
 30
0.0
 11
9.431645780946624
 21
1.867141260119094
 31
0.0
  0
MTEXT
  5
141
330
6C
100
AcDbEntity
  8
Symbol (ANSI)
100
AcDbMText
 10
8.981770035490365
 20
1.648286531316485
 30
0.0
 40
0.1599999967626803
 41
0.0
 46
0.0
 71
     7
 72
     1
  1
 
  7
Label Text (ANSI)
 73
     1
 44
1.0
  0
DIMENSION
  5
142
330
6C
100
AcDbEntity
  8
Dimension (ANSI)
100
AcDbDimension
280
     0
  2
*D4
 10
3.155626617706662
 20
2.535794487412436
 30
0.0
 11
4.595626617706662
 21
2.535794487412436
 31
0.0
 70
   160
  1
<>
 42
2.879999999999999
 73
     0
 74
     0
 75
     0
  3
Default (ANSI)-01
100
AcDbAlignedDimension
 13
6.035626617706662
 23
3.455410778849266
 33
0.0
 14
3.155626617706662
 24
3.455410778849266
 34
0.0
 50
180.0
100
AcDbRotatedDimension
1001
ACAD
1000
DSTYLE
1002
{
1070
   289
1070
     1
1070
    73
1070
     0
1070
    74
1070
     0
1070
   271
1070
     2
1070
   272
1070
     2
1070
    48
1040
0.0
1070
    47
1040
0.0
1002
}
  0
DIMENSION
  5
22E
330
6C
100
AcDbEntity
  8
Dimension (ANSI)
100
AcDbDimension
280
     0
  2
*D5
 10
2.053264412982254
 20
8.335410778849267
 30
0.0
 11
2.053264412982252
 21
5.895410778849264
 31
0.0
 70
   160
  1
<>
 42
4.879999999999999
 73
     0
 74
     0
 75
     0
  3
Default (ANSI)-01
100
AcDbAlignedDimension
 13
3.155626617706662
 23
3.455410778849266
 33
0.0
 14
3.15562661770666
 24
8.335410778849267
 34
0.0
 50
90.0
100
AcDbRotatedDimension
1001
ACAD
1000
DSTYLE
1002
{
1070
   289
1070
     1
1070
   271
1070
     2
1070
   272
1070
     2
1070
    48
1040
0.0
1070
    47
1040
0.0
1002
}
  0
DIMENSION
  5
318
330
6C
100
AcDbEntity
  8
Dimension (ANSI)
100
AcDbDimension
280
     0
  2
*D6
 10
2.85524200474719
 20
3.768410778849267
 30
0.0
 11
2.848407249022271
 21
4.003513435890012
 31
0.0
 70
   160
  1
<>{\PTYP.}
 42
0.3129999999999997
 73
     0
 74
     0
 75
     0
  3
Default (ANSI)-01
100
AcDbAlignedDimension
 13
3.155626617706662
 23
3.455410778849266
 33
0.0
 14
3.312626617706662
 24
3.768410778849266
 34
0.0
 50
90.0
100
AcDbRotatedDimension
1001
ACAD
1000
DSTYLE
1002
{
1070
   289
1070
     2
1070
   279
1070
     1
1070
   145
1040
-0.25
1070
   271
1070
     2
1070
   272
1070
     2
1070
    48
1040
0.0
1070
    47
1040
0.0
1002
}
  0
DIMENSION
  5
428
330
6C
100
AcDbEntity
  8
Dimension (ANSI)
100
AcDbDimension
280
     0
  2
*D7
 10
3.468626617706662
 20
3.022484377957881
 30
0.0
 11
2.822545998448015
 21
3.022484377957881
 31
0.0
 70
   160
  1
<>{\PTYP.}
 42
0.3129999999999997
 73
     0
 74
     0
 75
     0
  3
Default (ANSI)-01
100
AcDbAlignedDimension
 13
3.155626617706662
 23
3.455410778849266
 33
0.0
 14
3.468626617706662
 24
3.643410778849267
 34
0.0
 50
180.0
100
AcDbRotatedDimension
1001
ACAD
1000
DSTYLE
1002
{
1070
   289
1070
     2
1070
    73
1070
     0
1070
    74
1070
     0
1070
   145
1040
-0.25
1070
   271
1070
     2
1070
   272
1070
     2
1070
    48
1040
0.0
1070
    47
1040
0.0
1002
}
  0
DIMENSION
  5
526
330
6C
100
AcDbEntity
  8
Dimension (ANSI)
100
AcDbDimension
280
     0
  2
*D8
 10
4.468626617706662
 20
3.006484377957882
 30
0.0
 11
3.968626617706662
 21
3.006484377957882
 31
0.0
 70
   160
  1
<>
 42
0.9999999999999991
 73
     0
 74
     0
 75
     0
  3
Default (ANSI)
100
AcDbAlignedDimension
 13
3.468626617706663
 23
3.643410778849267
 33
0.0
 14
4.468626617706662
 24
3.643410778849266
 34
0.0
 50
180.0
100
AcDbRotatedDimension
1001
ACAD
1000
DSTYLE
1002
{
1070
   289
1070
     1
1070
    73
1070
     0
1070
    74
1070
     0
1070
   271
1070
     3
1070
   272
1070
     2
1070
    48
1040
0.0
1070
    47
1040
0.0
1002
}
  0
DIMENSION
  5
610
330
6C
100
AcDbEntity
  8
Dimension (ANSI)
100
AcDbDimension
280
     0
  2
*D9
 10
8.840751800027005
 20
7.25168366343054
 30
0.0
 11
9.483098548321539
 21
7.25168366343054
 31
0.0
 70
   160
  1
 14 GA.\PS.S.
 71
     5
 42
0.0739999999999992
 73
     0
 74
     0
 75
     0
  3
Default (ANSI)
100
AcDbAlignedDimension
 13
9.064361475078611
 23
3.726521889960378
 33
0.0
 14
8.998583697300833
 24
3.726521889960378
 34
0.0
100
AcDbRotatedDimension
1001
ACAD
1000
DSTYLE
1002
{
1070
   289
1070
     1
1070
    73
1070
     0
1070
    74
1070
     0
1070
   271
1070
     3
1070
   144
1040
1.125
1070
    76
1070
     1
1070
    75
1070
     1
1070
   272
1070
     2
1070
    48
1040
0.0
1070
    47
1040
0.0
1002
}
  0
DIMENSION
  5
707
330
6C
100
AcDbEntity
  8
Dimension (ANSI)
100
AcDbDimension
280
     0
  2
*D10
 10
4.40612661770664
 20
3.876663954322309
 30
0.0
 11
5.22659399140369
 21
3.193750386258349
 31
0.0
 70
   163
  1
<>{\PGROUND\P HOLE}
 42
0.25
 73
     0
 74
     0
 75
     0
  3
Default (ANSI)
100
AcDbDiametricDimension
 15
4.531126617706683
 25
3.660157603376224
 35
0.0
 40
0.0
1001
ACAD_DSTYLE_DIMRADIAL_EXTENSION
1070
   387
1070
     1
1070
   388
1040
0.0
1070
   390
1040
0.0
1001
ACAD
1000
DSTYLE
1002
{
1070
   145
1040
-0.3333333333333334
1070
   144
1040
1.0
1070
   271
1070
     3
1070
   272
1070
     2
1070
    48
1040
0.0
1070
    47
1040
0.0
1002
}
  0
DIMENSION
  5
7C2
330
6C
100
AcDbEntity
  8
Dimension (ANSI)
100
AcDbDimension
280
     0
  2
*D11
 10
5.753626617706663
 20
3.768410778849267
 30
0.0
 11
7.006506934951084
 21
4.614220371635268
 31
0.0
 70
   164
  1
 \fromans|b0|i0;\H0.1067;0.250 X 0.312\POBROUND\PTYP. (4 PL.)
 42
0.1249999999999991
 73
     0
 74
     0
 75
     0
  3
Default (ANSI)
100
AcDbRadialDimension
 15
5.816379916788894
 25
3.87651731636803
 35
0.0
 40
0.0
1001
ACAD_DSTYLE_DIMRADIAL_EXTENSION
1070
   387
1070
     1
1070
   388
1040
0.0
1070
   390
1040
0.0
1001
ACAD
1000
DSTYLE
1002
{
1070
   145
1040
-0.3333333333333334
1070
   271
1070
     3
1070
   141
1040
0.0
1070
   272
1070
     2
1070
    48
1040
0.0
1070
    47
1040
0.0
1002
}
  0
MTEXT
  5
866
330
6C
100
AcDbEntity
  8
Symbol (ANSI)
100
AcDbMText
 10
10.69741243634594
 20
2.409706853760988
 30
0.0
 40
0.1066666679849566
 41
4.14507647693784
 46
0.0
 71
     1
 72
     1
  1
{\fRomanS|b0|i0;\H0.1067;PART#: P0604SS\P(DATA SUBJECT TO CHANGE WITHOUT \PNOTICE)\PTHIS DRAWING AND COMPONENTS OF ARE\PPROPERTY OF HUBBELL INC. WIEGMANN\P}
  7
Note Text (ANSI)
 73
     2
 44
0.8751232028007507
  0
ELLIPSE
  5
867
330
6C
100
AcDbEntity
  8
Visible (ANSI)
100
AcDbEllipse
 10
13.27971346357637
 20
5.01299103463251
 30
0.0
 11
0.0554480235093842
 21
-0.0962870484605718
 31
0.0
210
0.0
220
0.0
230
1.0
 40
0.5780931159158107
 41
3.572615253427347
 42
5.852162707341175
  0
ELLIPSE
  5
868
330
6C
100
AcDbEntity
  8
Visible (ANSI)
100
AcDbEllipse
 10
13.23320155085833
 20
4.986206605458611
 30
0.0
 11
-0.0554480235093783
 21
0.0962870484605749
 31
0.0
210
0.0
220
0.0
230
1.0
 40
0.5780931159158107
 41
0.0
 42
6.283185307179586
  0
LINE
  5
869
330
6C
100
AcDbEntity
  8
Visible (ANSI)
100
AcDbLine
 10
12.58517746961083
 20
5.450217424592079
 30
0.0
 11
12.62414690999623
 21
5.427776416365305
 31
0.0
  0
ELLIPSE
  5
86A
330
6C
100
AcDbEntity
  8
Visible (ANSI)
100
AcDbEllipse
 10
12.63168938232887
 20
5.38616328433903
 30
0.0
 11
0.0554480235093841
 21
-0.0962870484605716
 31
0.0
210
0.0
220
0.0
230
1.0
 40
0.5780931159158106
 41
3.572615253427354
 42
5.499720852204692
  0
ELLIPSE
  5
86B
330
6C
100
AcDbEntity
  8
Visible (ANSI)
100
AcDbEllipse
 10
12.58517746961083
 20
5.35937885516513
 30
0.0
 11
-0.0554480235093726
 21
0.0962870484605782
 31
0.0
210
0.0
220
0.0
230
1.0
 40
0.5780931159158106
 41
5.499720852205289
 42
8.641313505795082
  0
LINE
  5
86C
330
6C
100
AcDbEntity
  8
Visible Narrow (ANSI)
100
AcDbLine
 10
12.58517746961083
 20
5.268540285738182
 30
0.0
 11
12.63168938232887
 21
5.295324714912081
 31
0.0
  0
LINE
  5
86D
330
6C
100
AcDbEntity
  8
Visible (ANSI)
100
AcDbLine
 10
12.63168938232887
 20
5.295324714912081
 30
0.0
 11
12.67065882271427
 21
5.272883706685306
 31
0.0
  0
LINE
  5
86E
330
6C
100
AcDbEntity
  8
Visible (ANSI)
100
AcDbLine
 10
12.62414690999623
 20
5.246099277511407
 30
0.0
 11
12.58517746961083
 21
5.268540285738182
 31
0.0
  0
LINE
  5
86F
330
6C
100
AcDbEntity
  8
Visible Narrow (ANSI)
100
AcDbLine
 10
12.62414690999623
 20
5.246099277511407
 30
0.0
 11
12.67065882271427
 21
5.272883706685306
 31
0.0
  0
ELLIPSE
  5
870
330
6C
100
AcDbEntity
  8
Visible (ANSI)
100
AcDbEllipse
 10
12.67065882271427
 20
5.363722276112255
 30
0.0
 11
0.0554480235093782
 21
-0.0962870484605748
 31
0.0
210
0.0
220
0.0
230
1.0
 40
0.5780931159158106
 41
5.499720852205022
 42
5.852162707341603
  0
ELLIPSE
  5
871
330
6C
100
AcDbEntity
  8
Visible (ANSI)
100
AcDbEllipse
 10
12.62414690999623
 20
5.336937846938356
 30
0.0
 11
0.0554480235093726
 21
-0.0962870484605782
 31
0.0
210
0.0
220
0.0
230
0.9999999999999998
 40
0.5780931159158108
 41
5.499720852205289
 42
8.641313505795082
  0
LINE
  5
872
330
6C
100
AcDbEntity
  8
Visible (ANSI)
100
AcDbLine
 10
14.00190518942835
 20
7.725796384763079
 30
0.0
 11
14.04087462981375
 21
7.703355376536306
 31
0.0
  0
ELLIPSE
  5
873
330
6C
100
AcDbEntity
  8
Visible (ANSI)
100
AcDbEllipse
 10
14.0484171021464
 20
7.66174224451003
 30
0.0
 11
0.0554480235093844
 21
-0.0962870484605722
 31
0.0
210
0.0
220
0.0
230
1.0
 40
0.5780931159158107
 41
3.572615253427354
 42
5.499720852204691
  0
ELLIPSE
  5
874
330
6C
100
AcDbEntity
  8
Visible (ANSI)
100
AcDbEllipse
 10
14.00190518942835
 20
7.634957815336131
 30
0.0
 11
-0.0554480235093727
 21
0.0962870484605785
 31
0.0
210
0.0
220
0.0
230
1.0
 40
0.5780931159158107
 41
5.499720852205289
 42
8.641313505795082
  0
LINE
  5
875
330
6C
100
AcDbEntity
  8
Visible Narrow (ANSI)
100
AcDbLine
 10
14.00190518942835
 20
7.544119245909183
 30
0.0
 11
14.0484171021464
 21
7.570903675083083
 31
0.0
  0
LINE
  5
876
330
6C
100
AcDbEntity
  8
Visible (ANSI)
100
AcDbLine
 10
14.0484171021464
 20
7.570903675083083
 30
0.0
 11
14.08738654253179
 21
7.548462666856308
 31
0.0
  0
LINE
  5
877
330
6C
100
AcDbEntity
  8
Visible (ANSI)
100
AcDbLine
 10
14.04087462981375
 20
7.521678237682409
 30
0.0
 11
14.00190518942835
 21
7.544119245909183
 31
0.0
  0
LINE
  5
878
330
6C
100
AcDbEntity
  8
Visible Narrow (ANSI)
100
AcDbLine
 10
14.04087462981375
 20
7.521678237682409
 30
0.0
 11
14.08738654253179
 21
7.548462666856308
 31
0.0
  0
ELLIPSE
  5
879
330
6C
100
AcDbEntity
  8
Visible (ANSI)
100
AcDbEllipse
 10
14.08738654253179
 20
7.639301236283274
 30
0.0
 11
0.0554480235093881
 21
-0.0962870484605919
 31
0.0
210
0.0
220
0.0
230
1.0
 40
0.5780931159158106
 41
5.499720852205054
 42
5.85216270734161
  0
ELLIPSE
  5
87A
330
6C
100
AcDbEntity
  8
Visible (ANSI)
100
AcDbEllipse
 10
14.04087462981375
 20
7.612516807109358
 30
0.0
 11
0.0554480235093727
 21
-0.0962870484605785
 31
0.0
210
0.0
220
0.0
230
1.0
 40
0.5780931159158107
 41
5.499720852205289
 42
8.641313505795082
  0
LINE
  5
87B
330
6C
100
AcDbEntity
  8
Visible (ANSI)
100
AcDbLine
 10
14.00190518942835
 20
4.634378190025159
 30
0.0
 11
14.04087462981375
 21
4.611937181798385
 31
0.0
  0
ELLIPSE
  5
87C
330
6C
100
AcDbEntity
  8
Visible (ANSI)
100
AcDbEllipse
 10
14.0484171021464
 20
4.57032404977211
 30
0.0
 11
0.0554480235093841
 21
-0.0962870484605717
 31
0.0
210
0.0
220
0.0
230
1.0
 40
0.5780931159158106
 41
3.572615253427354
 42
5.499720852204691
  0
ELLIPSE
  5
87D
330
6C
100
AcDbEntity
  8
Visible (ANSI)
100
AcDbEllipse
 10
14.00190518942835
 20
4.54353962059821
 30
0.0
 11
-0.0554480235093726
 21
0.0962870484605783
 31
0.0
210
0.0
220
0.0
230
1.0
 40
0.5780931159158107
 41
5.499720852205289
 42
8.641313505795082
  0
LINE
  5
87E
330
6C
100
AcDbEntity
  8
Visible Narrow (ANSI)
100
AcDbLine
 10
14.00190518942835
 20
4.452701051171262
 30
0.0
 11
14.0484171021464
 21
4.479485480345161
 31
0.0
  0
LINE
  5
87F
330
6C
100
AcDbEntity
  8
Visible (ANSI)
100
AcDbLine
 10
14.0484171021464
 20
4.479485480345161
 30
0.0
 11
14.08738654253179
 21
4.457044472118386
 31
0.0
  0
LINE
  5
880
330
6C
100
AcDbEntity
  8
Visible (ANSI)
100
AcDbLine
 10
14.04087462981375
 20
4.430260042944487
 30
0.0
 11
14.00190518942835
 21
4.452701051171262
 31
0.0
  0
LINE
  5
881
330
6C
100
AcDbEntity
  8
Visible Narrow (ANSI)
100
AcDbLine
 10
14.04087462981375
 20
4.430260042944487
 30
0.0
 11
14.08738654253179
 21
4.457044472118386
 31
0.0
  0
ELLIPSE
  5
882
330
6C
100
AcDbEntity
  8
Visible (ANSI)
100
AcDbEllipse
 10
14.08738654253179
 20
4.547883041545333
 30
0.0
 11
0.0554480235093772
 21
-0.096287048460573
 31
0.0
210
0.0
220
0.0
230
1.0
 40
0.5780931159158107
 41
5.499720852205022
 42
5.85216270734161
  0
ELLIPSE
  5
883
330
6C
100
AcDbEntity
  8
Visible (ANSI)
100
AcDbEllipse
 10
14.04087462981375
 20
4.521098612371436
 30
0.0
 11
0.0554480235093726
 21
-0.0962870484605782
 31
0.0
210
0.0
220
0.0
230
1.0
 40
0.5780931159158108
 41
5.499720852205289
 42
8.641313505795082
  0
LINE
  5
884
330
6C
100
AcDbEntity
  8
Visible (ANSI)
100
AcDbLine
 10
12.58517746961083
 20
8.54163561933
 30
0.0
 11
12.62414690999623
 21
8.519194611103227
 31
0.0
  0
ELLIPSE
  5
885
330
6C
100
AcDbEntity
  8
Visible (ANSI)
100
AcDbEllipse
 10
12.63168938232887
 20
8.477581479076951
 30
0.0
 11
0.0554480235093842
 21
-0.0962870484605718
 31
0.0
210
0.0
220
0.0
230
1.0
 40
0.5780931159158107
 41
3.572615253427354
 42
5.499720852204691
  0
ELLIPSE
  5
886
330
6C
100
AcDbEntity
  8
Visible (ANSI)
100
AcDbEllipse
 10
12.58517746961083
 20
8.45079704990305
 30
0.0
 11
-0.0554480235093727
 21
0.0962870484605785
 31
0.0
210
0.0
220
0.0
230
1.0
 40
0.5780931159158107
 41
5.499720852205289
 42
8.641313505795082
  0
LINE
  5
887
330
6C
100
AcDbEntity
  8
Visible Narrow (ANSI)
100
AcDbLine
 10
12.58517746961083
 20
8.359958480476104
 30
0.0
 11
12.63168938232887
 21
8.386742909650003
 31
0.0
  0
LINE
  5
888
330
6C
100
AcDbEntity
  8
Visible (ANSI)
100
AcDbLine
 10
12.63168938232887
 20
8.386742909650003
 30
0.0
 11
12.67065882271427
 21
8.364301901423228
 31
0.0
  0
LINE
  5
889
330
6C
100
AcDbEntity
  8
Visible (ANSI)
100
AcDbLine
 10
12.62414690999623
 20
8.337517472249329
 30
0.0
 11
12.58517746961083
 21
8.359958480476104
 31
0.0
  0
LINE
  5
88A
330
6C
100
AcDbEntity
  8
Visible Narrow (ANSI)
100
AcDbLine
 10
12.62414690999623
 20
8.337517472249329
 30
0.0
 11
12.67065882271427
 21
8.364301901423228
 31
0.0
  0
ELLIPSE
  5
88B
330
6C
100
AcDbEntity
  8
Visible (ANSI)
100
AcDbEllipse
 10
12.67065882271427
 20
8.455140470850194
 30
0.0
 11
0.0554480235093872
 21
-0.0962870484605903
 31
0.0
210
0.0
220
0.0
230
0.9999999999999998
 40
0.5780931159158106
 41
5.499720852205022
 42
5.852162707341579
  0
ELLIPSE
  5
88C
330
6C
100
AcDbEntity
  8
Visible (ANSI)
100
AcDbEllipse
 10
12.62414690999623
 20
8.428356041676279
 30
0.0
 11
0.0554480235093727
 21
-0.0962870484605785
 31
0.0
210
0.0
220
0.0
230
1.0
 40
0.5780931159158107
 41
5.499720852205289
 42
8.641313505795082
  0
LINE
  5
88D
330
6C
100
AcDbEntity
  8
Visible (ANSI)
100
AcDbLine
 10
12.40792936979338
 20
5.233989469577314
 30
0.0
 11
12.40792936979338
 21
8.780327220005395
 31
0.0
  0
LINE
  5
88E
330
6C
100
AcDbEntity
  8
Visible (ANSI)
100
AcDbLine
 10
12.45444128251142
 20
8.807111649179296
 30
0.0
 11
12.40792936979338
 21
8.780327220005395
 31
0.0
  0
LINE
  5
88F
330
6C
100
AcDbEntity
  8
Visible (ANSI)
100
AcDbLine
 10
12.40792936979338
 20
8.780327220005395
 30
0.0
 11
14.21812272963121
 21
7.737906192697173
 31
0.0
  0
LINE
  5
890
330
6C
100
AcDbEntity
  8
Visible (ANSI)
100
AcDbLine
 10
14.26463464234925
 20
7.764690621871073
 30
0.0
 11
14.21812272963121
 21
7.737906192697173
 31
0.0
  0
LINE
  5
891
330
6C
100
AcDbEntity
  8
Visible (ANSI)
100
AcDbLine
 10
14.26463464234925
 20
7.764690621871073
 30
0.0
 11
12.45444128251142
 21
8.807111649179296
 31
0.0
  0
LINE
  5
892
330
6C
100
AcDbEntity
  8
Visible (ANSI)
100
AcDbLine
 10
14.21812272963121
 20
7.737906192697173
 30
0.0
 11
14.21812272963121
 21
4.191568442269092
 31
0.0
  0
LINE
  5
893
330
6C
100
AcDbEntity
  8
Visible (ANSI)
100
AcDbLine
 10
14.26463464234925
 20
4.218352871442992
 30
0.0
 11
14.21812272963121
 21
4.191568442269092
 31
0.0
  0
LINE
  5
894
330
6C
100
AcDbEntity
  8
Visible (ANSI)
100
AcDbLine
 10
14.26463464234925
 20
4.218352871442992
 30
0.0
 11
14.26463464234925
 21
7.764690621871073
 31
0.0
  0
LINE
  5
895
330
6C
100
AcDbEntity
  8
Visible (ANSI)
100
AcDbLine
 10
14.21812272963121
 20
4.191568442269092
 30
0.0
 11
12.40792936979338
 21
5.233989469577314
 31
0.0
  0
ENDSEC
  0
SECTION
  2
OBJECTS
  0
DICTIONARY
  5
C
330
0
100
AcDbDictionary
281
     1
  3
ACAD_CIP_PREVIOUS_PRODUCT_INFO
350
896
  3
ACAD_COLOR
350
63
  3
ACAD_GROUP
350
D
  3
ACAD_LAYOUT
350
62
  3
ACAD_MATERIAL
350
10
  3
ACAD_MLEADERSTYLE
350
66
  3
ACAD_MLINESTYLE
350
5F
  3
ACAD_PLOTSETTINGS
350
61
  3
ACAD_PLOTSTYLENAME
350
E
  3
ACAD_SCALELIST
350
42
  3
ACAD_TABLESTYLE
350
64
  3
ACAD_VISUALSTYLE
350
29
  3
ACDB_RECOMPOSE_DATA
350
89B
  3
AcDbVariableDictionary
350
76
  0
XRECORD
  5
896
102
{ACAD_REACTORS
330
C
102
}
330
C
100
AcDbXrecord
280
     1
300
INVNTOR
300
2012
300
85795PDSP_2012_0F
  0
DICTIONARY
  5
63
102
{ACAD_REACTORS
330
C
102
}
330
C
100
AcDbDictionary
281
     1
  0
DICTIONARY
  5
D
102
{ACAD_REACTORS
330
C
102
}
330
C
100
AcDbDictionary
281
     1
  0
DICTIONARY
  5
62
102
{ACAD_REACTORS
330
C
102
}
330
C
100
AcDbDictionary
281
     1
  3
Layout1
350
6B
  3
Layout2
350
73
  3
Model
350
6F
  0
DICTIONARY
  5
10
102
{ACAD_REACTORS
330
C
102
}
330
C
100
AcDbDictionary
281
     1
  3
ByBlock
350
19
  3
ByLayer
350
11
  3
Global
350
21
  0
DICTIONARY
  5
66
102
{ACAD_REACTORS
330
C
102
}
330
C
100
AcDbDictionary
281
     1
  3
Standard
350
67
  0
DICTIONARY
  5
5F
102
{ACAD_REACTORS
330
C
102
}
330
C
100
AcDbDictionary
281
     1
  3
Standard
350
60
  0
DICTIONARY
  5
61
102
{ACAD_REACTORS
330
C
102
}
330
C
100
AcDbDictionary
281
     1
  0
ACDBDICTIONARYWDFLT
  5
E
102
{ACAD_REACTORS
330
C
102
}
330
C
100
AcDbDictionary
281
     1
  3
Normal
350
F
100
AcDbDictionaryWithDefault
340
F
  0
DICTIONARY
  5
42
102
{ACAD_REACTORS
330
C
102
}
330
C
100
AcDbDictionary
281
     1
  3
A0
350
43
  3
A1
350
44
  3
A2
350
45
  3
A3
350
46
  3
A4
350
47
  3
A5
350
48
  3
A6
350
49
  3
A7
350
4A
  3
A8
350
4B
  3
A9
350
4C
  3
B0
350
4D
  3
B1
350
4E
  3
B2
350
4F
  3
B3
350
50
  3
B4
350
51
  3
B5
350
52
  3
B6
350
53
  0
DICTIONARY
  5
64
102
{ACAD_REACTORS
330
C
102
}
330
C
100
AcDbDictionary
281
     1
  3
Standard
350
65
  0
DICTIONARY
  5
29
102
{ACAD_REACTORS
330
C
102
}
330
C
100
AcDbDictionary
281
     1
  3
2dWireframe
350
2F
  3
Basic
350
2E
  3
Brighten
350
35
  3
ColorChange
350
39
  3
Conceptual
350
32
  3
Dim
350
34
  3
EdgeColorOff
350
41
  3
Facepattern
350
38
  3
Flat
350
2A
  3
FlatWithEdges
350
2B
  3
Gouraud
350
2C
  3
GouraudWithEdges
350
2D
  3
Hidden
350
31
  3
JitterOff
350
3F
  3
Linepattern
350
37
  3
OverhangOff
350
40
  3
Realistic
350
33
  3
Shaded
350
3E
  3
Shaded with edges
350
3D
  3
Shades of Gray
350
3A
  3
Sketchy
350
3B
  3
Thicken
350
36
  3
Wireframe
350
30
  3
X-Ray
350
3C
  0
XRECORD
  5
89B
102
{ACAD_REACTORS
330
C
102
}
330
C
100
AcDbXrecord
280
     1
 90
        1
330
65
330
318
330
428
  0
DICTIONARY
  5
76
102
{ACAD_REACTORS
330
C
102
}
330
C
100
AcDbDictionary
281
     1
  3
CANNOSCALE
350
79
  3
CMLEADERSTYLE
350
78
  3
CTABLESTYLE
350
77
  0
LAYOUT
  5
6B
102
{ACAD_REACTORS
330
62
102
}
330
62
100
AcDbPlotSettings
  1

  2

  4

  6

 40
0.0
 41
0.0
 42
0.0
 43
0.0
 44
0.0
 45
0.0
 46
0.0
 47
0.0
 48
0.0
 49
0.0
140
0.0
141
0.0
142
1.0
143
1.0
 70
   688
 72
     0
 73
     0
 74
     5
  7

 75
    16
147
1.0
 76
     0
 77
     2
 78
   300
148
0.0
149
0.0
100
AcDbLayout
  1
Layout1
 70
     1
 71
     1
 10
0.0
 20
0.0
 11
12.0
 21
9.0
 12
0.0
 22
0.0
 32
0.0
 14
0.0
 24
0.0
 34
0.0
 15
0.0
 25
0.0
 35
0.0
146
0.0
 13
0.0
 23
0.0
 33
0.0
 16
1.0
 26
0.0
 36
0.0
 17
0.0
 27
1.0
 37
0.0
 76
     0
330
68
  0
LAYOUT
  5
73
102
{ACAD_REACTORS
330
62
102
}
330
62
100
AcDbPlotSettings
  1

  2

  4

  6

 40
0.0
 41
0.0
 42
0.0
 43
0.0
 44
0.0
 45
0.0
 46
0.0
 47
0.0
 48
0.0
 49
0.0
140
0.0
141
0.0
142
1.0
143
1.0
 70
   688
 72
     0
 73
     0
 74
     5
  7

 75
    16
147
1.0
 76
     0
 77
     2
 78
   300
148
0.0
149
0.0
100
AcDbLayout
  1
Layout2
 70
     1
 71
     2
 10
0.0
 20
0.0
 11
12.0
 21
9.0
 12
0.0
 22
0.0
 32
0.0
 14
0.0
 24
0.0
 34
0.0
 15
0.0
 25
0.0
 35
0.0
146
0.0
 13
0.0
 23
0.0
 33
0.0
 16
1.0
 26
0.0
 36
0.0
 17
0.0
 27
1.0
 37
0.0
 76
     0
330
70
  0
LAYOUT
  5
6F
102
{ACAD_REACTORS
330
62
102
}
330
62
100
AcDbPlotSettings
  1

  2

  4

  6

 40
0.0
 41
0.0
 42
0.0
 43
0.0
 44
0.0
 45
0.0
 46
0.0
 47
0.0
 48
0.0
 49
0.0
140
0.0
141
0.0
142
1.0
143
1.0
 70
  1712
 72
     0
 73
     0
 74
     0
  7

 75
     0
147
1.0
 76
     0
 77
     2
 78
   300
148
0.0
149
0.0
100
AcDbLayout
  1
Model
 70
     1
 71
     0
 10
0.0
 20
0.0
 11
12.0
 21
9.0
 12
0.0
 22
0.0
 32
0.0
 14
0.0
 24
0.0
 34
0.0
 15
0.0
 25
0.0
 35
0.0
146
0.0
 13
0.0
 23
0.0
 33
0.0
 16
1.0
 26
0.0
 36
0.0
 17
0.0
 27
1.0
 37
0.0
 76
     0
330
6C
  0
MATERIAL
  5
19
102
{ACAD_XDICTIONARY
360
1A
102
}
102
{ACAD_REACTORS
330
10
102
}
330
10
100
AcDbMaterial
  1
ByBlock
 72
     0
 43
0.0208333333333333
 43
0.0
 43
0.0
 43
0.0
 43
0.0
 43
0.0208333333333333
 43
0.0
 43
0.0
 43
0.0
 43
0.0
 43
1.0
 43
0.0
 43
0.0
 43
0.0
 43
0.0
 43
1.0
 77
     0
 47
0.0208333333333333
 47
0.0
 47
0.0
 47
0.0
 47
0.0
 47
0.0208333333333333
 47
0.0
 47
0.0
 47
0.0
 47
0.0
 47
1.0
 47
0.0
 47
0.0
 47
0.0
 47
0.0
 47
1.0
171
     0
 49
0.0208333333333333
 49
0.0
 49
0.0
 49
0.0
 49
0.0
 49
0.0208333333333333
 49
0.0
 49
0.0
 49
0.0
 49
0.0
 49
1.0
 49
0.0
 49
0.0
 49
0.0
 49
0.0
 49
1.0
175
     0
142
0.0208333333333333
142
0.0
142
0.0
142
0.0
142
0.0
142
0.0208333333333333
142
0.0
142
0.0
142
0.0
142
0.0
142
1.0
142
0.0
142
0.0
142
0.0
142
0.0
142
1.0
179
     0
144
0.0208333333333333
144
0.0
144
0.0
144
0.0
144
0.0
144
0.0208333333333333
144
0.0
144
0.0
144
0.0
144
0.0
144
1.0
144
0.0
144
0.0
144
0.0
144
0.0
144
1.0
147
0.0208333333333333
147
0.0
147
0.0
147
0.0
147
0.0
147
0.0208333333333333
147
0.0
147
0.0
147
0.0
147
0.0
147
1.0
147
0.0
147
0.0
147
0.0
147
0.0
147
1.0
  0
MATERIAL
  5
11
102
{ACAD_XDICTIONARY
360
12
102
}
102
{ACAD_REACTORS
330
10
102
}
330
10
100
AcDbMaterial
  1
ByLayer
 72
     0
 43
0.0208333333333333
 43
0.0
 43
0.0
 43
0.0
 43
0.0
 43
0.0208333333333333
 43
0.0
 43
0.0
 43
0.0
 43
0.0
 43
1.0
 43
0.0
 43
0.0
 43
0.0
 43
0.0
 43
1.0
 77
     0
 47
0.0208333333333333
 47
0.0
 47
0.0
 47
0.0
 47
0.0
 47
0.0208333333333333
 47
0.0
 47
0.0
 47
0.0
 47
0.0
 47
1.0
 47
0.0
 47
0.0
 47
0.0
 47
0.0
 47
1.0
171
     0
 49
0.0208333333333333
 49
0.0
 49
0.0
 49
0.0
 49
0.0
 49
0.0208333333333333
 49
0.0
 49
0.0
 49
0.0
 49
0.0
 49
1.0
 49
0.0
 49
0.0
 49
0.0
 49
0.0
 49
1.0
175
     0
142
0.0208333333333333
142
0.0
142
0.0
142
0.0
142
0.0
142
0.0208333333333333
142
0.0
142
0.0
142
0.0
142
0.0
142
1.0
142
0.0
142
0.0
142
0.0
142
0.0
142
1.0
179
     0
144
0.0208333333333333
144
0.0
144
0.0
144
0.0
144
0.0
144
0.0208333333333333
144
0.0
144
0.0
144
0.0
144
0.0
144
1.0
144
0.0
144
0.0
144
0.0
144
0.0
144
1.0
147
0.0208333333333333
147
0.0
147
0.0
147
0.0
147
0.0
147
0.0208333333333333
147
0.0
147
0.0
147
0.0
147
0.0
147
1.0
147
0.0
147
0.0
147
0.0
147
0.0
147
1.0
  0
MATERIAL
  5
21
102
{ACAD_XDICTIONARY
360
22
102
}
102
{ACAD_REACTORS
330
10
102
}
330
10
100
AcDbMaterial
  1
Global
 72
     0
 43
0.0208333333333333
 43
0.0
 43
0.0
 43
0.0
 43
0.0
 43
0.0208333333333333
 43
0.0
 43
0.0
 43
0.0
 43
0.0
 43
1.0
 43
0.0
 43
0.0
 43
0.0
 43
0.0
 43
1.0
 77
     0
 47
0.0208333333333333
 47
0.0
 47
0.0
 47
0.0
 47
0.0
 47
0.0208333333333333
 47
0.0
 47
0.0
 47
0.0
 47
0.0
 47
1.0
 47
0.0
 47
0.0
 47
0.0
 47
0.0
 47
1.0
171
     0
 49
0.0208333333333333
 49
0.0
 49
0.0
 49
0.0
 49
0.0
 49
0.0208333333333333
 49
0.0
 49
0.0
 49
0.0
 49
0.0
 49
1.0
 49
0.0
 49
0.0
 49
0.0
 49
0.0
 49
1.0
175
     0
142
0.0208333333333333
142
0.0
142
0.0
142
0.0
142
0.0
142
0.0208333333333333
142
0.0
142
0.0
142
0.0
142
0.0
142
1.0
142
0.0
142
0.0
142
0.0
142
0.0
142
1.0
179
     0
144
0.0208333333333333
144
0.0
144
0.0
144
0.0
144
0.0
144
0.0208333333333333
144
0.0
144
0.0
144
0.0
144
0.0
144
1.0
144
0.0
144
0.0
144
0.0
144
0.0
144
1.0
147
0.0208333333333333
147
0.0
147
0.0
147
0.0
147
0.0
147
0.0208333333333333
147
0.0
147
0.0
147
0.0
147
0.0
147
1.0
147
0.0
147
0.0
147
0.0
147
0.0
147
1.0
  0
MLEADERSTYLE
  5
67
102
{ACAD_XDICTIONARY
360
899
102
}
102
{ACAD_REACTORS
330
66
102
}
330
66
100
AcDbMLeaderStyle
179
     2
170
     2
171
     1
172
     0
 90
        2
 40
0.0
 41
0.0
173
     1
 91
-1056964608
340
5B
 92
       -2
290
     1
 42
0.09
291
     1
 43
0.36
  3
Standard
 44
0.18
300

342
55
174
     1
178
     6
175
     1
176
     0
 93
-1056964608
 45
0.18
292
     0
297
     0
 46
0.18
 94
-1056964608
 47
1.0
 49
1.0
140
1.0
293
     1
141
0.0
294
     1
177
     0
142
1.0
295
     0
296
     0
143
0.125
271
     0
272
     9
273
     9
  0
MLINESTYLE
  5
60
102
{ACAD_REACTORS
330
5F
102
}
330
5F
100
AcDbMlineStyle
  2
STANDARD
 70
     0
  3

 62
   256
 51
90.0
 52
90.0
 71
     2
 49
0.5
 62
   256
  6
BYLAYER
 49
-0.5
 62
   256
  6
BYLAYER
  0
ACDBPLACEHOLDER
  5
F
102
{ACAD_REACTORS
330
E
102
}
330
E
  0
SCALE
  5
43
102
{ACAD_REACTORS
330
42
102
}
330
42
100
AcDbScale
 70
     0
300
1:1
140
1.0
141
1.0
290
     1
  0
SCALE
  5
44
102
{ACAD_REACTORS
330
42
102
}
330
42
100
AcDbScale
 70
     0
300
1/128" = 1'-0"
140
0.0078125
141
12.0
290
     0
  0
SCALE
  5
45
102
{ACAD_REACTORS
330
42
102
}
330
42
100
AcDbScale
 70
     0
300
1/64" = 1'-0"
140
0.015625
141
12.0
290
     0
  0
SCALE
  5
46
102
{ACAD_REACTORS
330
42
102
}
330
42
100
AcDbScale
 70
     0
300
1/32" = 1'-0"
140
0.03125
141
12.0
290
     0
  0
SCALE
  5
47
102
{ACAD_REACTORS
330
42
102
}
330
42
100
AcDbScale
 70
     0
300
1/16" = 1'-0"
140
0.0625
141
12.0
290
     0
  0
SCALE
  5
48
102
{ACAD_REACTORS
330
42
102
}
330
42
100
AcDbScale
 70
     0
300
3/32" = 1'-0"
140
0.09375
141
12.0
290
     0
  0
SCALE
  5
49
102
{ACAD_REACTORS
330
42
102
}
330
42
100
AcDbScale
 70
     0
300
1/8" = 1'-0"
140
0.125
141
12.0
290
     0
  0
SCALE
  5
4A
102
{ACAD_REACTORS
330
42
102
}
330
42
100
AcDbScale
 70
     0
300
3/16" = 1'-0"
140
0.1875
141
12.0
290
     0
  0
SCALE
  5
4B
102
{ACAD_REACTORS
330
42
102
}
330
42
100
AcDbScale
 70
     0
300
1/4" = 1'-0"
140
0.25
141
12.0
290
     0
  0
SCALE
  5
4C
102
{ACAD_REACTORS
330
42
102
}
330
42
100
AcDbScale
 70
     0
300
3/8" = 1'-0"
140
0.375
141
12.0
290
     0
  0
SCALE
  5
4D
102
{ACAD_REACTORS
330
42
102
}
330
42
100
AcDbScale
 70
     0
300
1/2" = 1'-0"
140
0.5
141
12.0
290
     0
  0
SCALE
  5
4E
102
{ACAD_REACTORS
330
42
102
}
330
42
100
AcDbScale
 70
     0
300
3/4" = 1'-0"
140
0.75
141
12.0
290
     0
  0
SCALE
  5
4F
102
{ACAD_REACTORS
330
42
102
}
330
42
100
AcDbScale
 70
     0
300
1" = 1'-0"
140
1.0
141
12.0
290
     0
  0
SCALE
  5
50
102
{ACAD_REACTORS
330
42
102
}
330
42
100
AcDbScale
 70
     0
300
1-1/2" = 1'-0"
140
1.5
141
12.0
290
     0
  0
SCALE
  5
51
102
{ACAD_REACTORS
330
42
102
}
330
42
100
AcDbScale
 70
     0
300
3" = 1'-0"
140
3.0
141
12.0
290
     0
  0
SCALE
  5
52
102
{ACAD_REACTORS
330
42
102
}
330
42
100
AcDbScale
 70
     0
300
6" = 1'-0"
140
6.0
141
12.0
290
     0
  0
SCALE
  5
53
102
{ACAD_REACTORS
330
42
102
}
330
42
100
AcDbScale
 70
     0
300
1'-0" = 1'-0"
140
12.0
141
12.0
290
     0
  0
TABLESTYLE
  5
65
102
{ACAD_XDICTIONARY
360
897
102
}
102
{ACAD_REACTORS
330
64
102
}
330
64
100
AcDbTableStyle
280
     0
  3
Standard
 70
     0
 71
     0
 40
0.06
 41
0.06
280
     0
281
     0
  7
Standard
140
0.18
170
     2
 62
     0
 63
     7
283
     0
 90
      512
 91
        0
  1

274
    -2
284
     1
 64
     0
275
    -2
285
     1
 65
     0
276
    -2
286
     1
 66
     0
277
    -2
287
     1
 67
     0
278
    -2
288
     1
 68
     0
279
    -2
289
     1
 69
     0
  7
Standard
140
0.25
170
     5
 62
     0
 63
     7
283
     0
 90
      512
 91
        0
  1

274
    -2
284
     1
 64
     0
275
    -2
285
     1
 65
     0
276
    -2
286
     1
 66
     0
277
    -2
287
     1
 67
     0
278
    -2
288
     1
 68
     0
279
    -2
289
     1
 69
     0
  7
Standard
140
0.18
170
     5
 62
     0
 63
     7
283
     0
 90
      512
 91
        0
  1

274
    -2
284
     1
 64
     0
275
    -2
285
     1
 65
     0
276
    -2
286
     1
 66
     0
277
    -2
287
     1
 67
     0
278
    -2
288
     1
 68
     0
279
    -2
289
     1
 69
     0
  0
VISUALSTYLE
  5
2F
102
{ACAD_REACTORS
330
29
102
}
330
29
100
AcDbVisualStyle
  2
2dWireframe
 70
     4
177
     2
291
     0
 71
     0
176
     1
 72
     2
176
     1
 73
     0
176
     1
 90
        0
176
     1
 40
0.6
176
     1
 41
30.0
176
     1
 63
     7
421
 16777215
176
     1
 74
     1
176
     1
 91
        4
176
     1
 64
     7
176
     1
 65
   257
176
     1
 75
     1
176
     1
175
     1
176
     1
 42
1.0
176
     1
 92
        0
176
     1
 66
   257
176
     1
 43
1.0
176
     1
 76
     1
176
     1
 77
     6
176
     1
 78
     2
176
     1
 67
     7
176
     1
 79
     5
176
     1
170
     0
176
     1
171
     0
176
     1
290
     0
176
     1
 93
        1
176
     1
 44
0.0
176
     1
173
     0
176
     1
  0
VISUALSTYLE
  5
2E
102
{ACAD_REACTORS
330
29
102
}
330
29
100
AcDbVisualStyle
  2
Basic
 70
     7
177
     2
291
     1
 71
     1
176
     1
 72
     0
176
     1
 73
     1
176
     1
 90
        0
176
     1
 40
0.6
176
     1
 41
30.0
176
     1
 63
     7
421
 16777215
176
     1
 74
     0
176
     1
 91
        4
176
     1
 64
     7
176
     1
 65
   257
176
     1
 75
     1
176
     1
175
     1
176
     1
 42
1.0
176
     1
 92
        8
176
     1
 66
     7
176
     1
 43
1.0
176
     1
 76
     1
176
     1
 77
     6
176
     1
 78
     2
176
     1
 67
     7
176
     1
 79
     5
176
     1
170
     0
176
     1
171
     0
176
     1
290
     0
176
     1
 93
        1
176
     1
 44
0.0
176
     1
173
     0
176
     1
  0
VISUALSTYLE
  5
35
102
{ACAD_REACTORS
330
29
102
}
330
29
100
AcDbVisualStyle
  2
Brighten
 70
    12
177
     2
291
     1
 71
     2
176
     1
 72
     2
176
     1
 73
     0
176
     1
 90
        0
176
     1
 40
0.6
176
     1
 41
30.0
176
     1
 63
     7
421
 16777215
176
     1
 74
     1
176
     1
 91
        4
176
     1
 64
     7
176
     1
 65
   257
176
     1
 75
     1
176
     1
175
     1
176
     1
 42
1.0
176
     1
 92
        8
176
     1
 66
     7
176
     1
 43
1.0
176
     1
 76
     1
176
     1
 77
     6
176
     1
 78
     2
176
     1
 67
     7
176
     1
 79
     5
176
     1
170
     0
176
     1
171
     0
176
     1
290
     0
176
     1
 93
        1
176
     1
 44
50.0
176
     1
173
     0
176
     1
  0
VISUALSTYLE
  5
39
102
{ACAD_REACTORS
330
29
102
}
330
29
100
AcDbVisualStyle
  2
ColorChange
 70
    16
177
     2
291
     1
 71
     2
176
     1
 72
     2
176
     1
 73
     3
176
     1
 90
        0
176
     1
 40
0.6
176
     1
 41
30.0
176
     1
 63
     8
421
  8421504
176
     1
 74
     1
176
     1
 91
        4
176
     1
 64
     7
176
     1
 65
   257
176
     1
 75
     1
176
     1
175
     1
176
     1
 42
1.0
176
     1
 92
        8
176
     1
 66
     8
424
  8421504
176
     1
 43
1.0
176
     1
 76
     1
176
     1
 77
     6
176
     1
 78
     2
176
     1
 67
     7
176
     1
 79
     5
176
     1
170
     0
176
     1
171
     0
176
     1
290
     0
176
     1
 93
        1
176
     1
 44
0.0
176
     1
173
     0
176
     1
  0
VISUALSTYLE
  5
32
102
{ACAD_REACTORS
330
29
102
}
330
29
100
AcDbVisualStyle
  2
Conceptual
 70
     9
177
     2
291
     0
 71
     3
176
     1
 72
     2
176
     1
 73
     0
176
     1
 90
        0
176
     1
 40
0.6
176
     1
 41
30.0
176
     1
 63
     7
421
 16777215
176
     1
 74
     2
176
     1
 91
        2
176
     1
 64
     7
176
     1
 65
   257
176
     1
 75
     1
176
     1
175
     1
176
     1
 42
179.0
176
     1
 92
        8
176
     1
 66
     7
176
     1
 43
1.0
176
     1
 76
     1
176
     1
 77
     6
176
     1
 78
     2
176
     1
 67
     7
176
     1
 79
     3
176
     1
170
     0
176
     1
171
     0
176
     1
290
     0
176
     1
 93
        1
176
     1
 44
0.0
176
     1
173
     0
176
     1
  0
VISUALSTYLE
  5
34
102
{ACAD_REACTORS
330
29
102
}
330
29
100
AcDbVisualStyle
  2
Dim
 70
    11
177
     2
291
     1
 71
     2
176
     1
 72
     2
176
     1
 73
     0
176
     1
 90
        0
176
     1
 40
0.6
176
     1
 41
30.0
176
     1
 63
     7
421
 16777215
176
     1
 74
     1
176
     1
 91
        4
176
     1
 64
     7
176
     1
 65
   257
176
     1
 75
     1
176
     1
175
     1
176
     1
 42
1.0
176
     1
 92
        8
176
     1
 66
     7
176
     1
 43
1.0
176
     1
 76
     1
176
     1
 77
     6
176
     1
 78
     2
176
     1
 67
     7
176
     1
 79
     5
176
     1
170
     0
176
     1
171
     0
176
     1
290
     0
176
     1
 93
        1
176
     1
 44
-50.0
176
     1
173
     0
176
     1
  0
VISUALSTYLE
  5
41
102
{ACAD_REACTORS
330
29
102
}
330
29
100
AcDbVisualStyle
  2
EdgeColorOff
 70
    22
177
     2
291
     1
 71
     2
176
     0
 72
     2
176
     0
 73
     0
176
     0
 90
        0
176
     0
 40
0.6
176
     0
 41
30.0
176
     0
 63
     7
421
 16777215
176
     0
 74
     1
176
     0
 91
        4
176
     0
 64
     7
176
     0
 65
   257
176
     0
 75
     1
176
     0
175
     1
176
     0
 42
1.0
176
     0
 92
        8
176
     2
 66
     7
176
     0
 43
1.0
176
     0
 76
     1
176
     0
 77
     6
176
     0
 78
     2
176
     0
 67
     7
176
     0
 79
     5
176
     0
170
     0
176
     0
171
     0
176
     0
290
     0
176
     0
 93
        1
176
     0
 44
0.0
176
     0
173
     0
176
     0
  0
VISUALSTYLE
  5
38
102
{ACAD_REACTORS
330
29
102
}
330
29
100
AcDbVisualStyle
  2
Facepattern
 70
    15
177
     2
291
     1
 71
     2
176
     1
 72
     2
176
     1
 73
     0
176
     1
 90
        0
176
     1
 40
0.6
176
     1
 41
30.0
176
     1
 63
     7
421
 16777215
176
     1
 74
     1
176
     1
 91
        4
176
     1
 64
     7
176
     1
 65
   257
176
     1
 75
     1
176
     1
175
     1
176
     1
 42
1.0
176
     1
 92
        8
176
     1
 66
     7
176
     1
 43
1.0
176
     1
 76
     1
176
     1
 77
     6
176
     1
 78
     2
176
     1
 67
     7
176
     1
 79
     5
176
     1
170
     0
176
     1
171
     0
176
     1
290
     0
176
     1
 93
        1
176
     1
 44
0.0
176
     1
173
     0
176
     1
  0
VISUALSTYLE
  5
2A
102
{ACAD_REACTORS
330
29
102
}
330
29
100
AcDbVisualStyle
  2
Flat
 70
     0
177
     2
291
     1
 71
     2
176
     1
 72
     1
176
     1
 73
     1
176
     1
 90
        2
176
     1
 40
0.6
176
     1
 41
30.0
176
     1
 63
     7
421
 16777215
176
     1
 74
     0
176
     1
 91
        0
176
     1
 64
     7
176
     1
 65
   257
176
     1
 75
     1
176
     1
175
     1
176
     1
 42
1.0
176
     1
 92
        8
176
     1
 66
     7
176
     1
 43
1.0
176
     1
 76
     1
176
     1
 77
     6
176
     1
 78
     2
176
     1
 67
     7
176
     1
 79
     5
176
     1
170
     0
176
     1
171
     0
176
     1
290
     0
176
     1
 93
       13
176
     1
 44
0.0
176
     1
173
     0
176
     1
  0
VISUALSTYLE
  5
2B
102
{ACAD_REACTORS
330
29
102
}
330
29
100
AcDbVisualStyle
  2
FlatWithEdges
 70
     1
177
     2
291
     1
 71
     2
176
     1
 72
     1
176
     1
 73
     1
176
     1
 90
        2
176
     1
 40
0.6
176
     1
 41
30.0
176
     1
 63
     7
421
 16777215
176
     1
 74
     1
176
     1
 91
        0
176
     1
 64
     7
176
     1
 65
   257
176
     1
 75
     1
176
     1
175
     1
176
     1
 42
1.0
176
     1
 92
        0
176
     1
 66
   257
176
     1
 43
1.0
176
     1
 76
     1
176
     1
 77
     6
176
     1
 78
     2
176
     1
 67
     7
176
     1
 79
     5
176
     1
170
     0
176
     1
171
     0
176
     1
290
     0
176
     1
 93
       13
176
     1
 44
0.0
176
     1
173
     0
176
     1
  0
VISUALSTYLE
  5
2C
102
{ACAD_REACTORS
330
29
102
}
330
29
100
AcDbVisualStyle
  2
Gouraud
 70
     2
177
     2
291
     1
 71
     2
176
     1
 72
     2
176
     1
 73
     1
176
     1
 90
        2
176
     1
 40
0.6
176
     1
 41
30.0
176
     1
 63
     7
421
 16777215
176
     1
 74
     0
176
     1
 91
        0
176
     1
 64
     7
176
     1
 65
   257
176
     1
 75
     1
176
     1
175
     1
176
     1
 42
1.0
176
     1
 92
        0
176
     1
 66
     7
176
     1
 43
1.0
176
     1
 76
     1
176
     1
 77
     6
176
     1
 78
     2
176
     1
 67
     7
176
     1
 79
     5
176
     1
170
     0
176
     1
171
     0
176
     1
290
     0
176
     1
 93
       13
176
     1
 44
0.0
176
     1
173
     0
176
     1
  0
VISUALSTYLE
  5
2D
102
{ACAD_REACTORS
330
29
102
}
330
29
100
AcDbVisualStyle
  2
GouraudWithEdges
 70
     3
177
     2
291
     1
 71
     2
176
     1
 72
     2
176
     1
 73
     1
176
     1
 90
        2
176
     1
 40
0.6
176
     1
 41
30.0
176
     1
 63
     7
421
 16777215
176
     1
 74
     1
176
     1
 91
        0
176
     1
 64
     7
176
     1
 65
   257
176
     1
 75
     1
176
     1
175
     1
176
     1
 42
1.0
176
     1
 92
        0
176
     1
 66
   257
176
     1
 43
1.0
176
     1
 76
     1
176
     1
 77
     6
176
     1
 78
     2
176
     1
 67
     7
176
     1
 79
     5
176
     1
170
     0
176
     1
171
     0
176
     1
290
     0
176
     1
 93
       13
176
     1
 44
0.0
176
     1
173
     0
176
     1
  0
VISUALSTYLE
  5
31
102
{ACAD_REACTORS
330
29
102
}
330
29
100
AcDbVisualStyle
  2
Hidden
 70
     6
177
     2
291
     0
 71
     1
176
     1
 72
     2
176
     1
 73
     2
176
     1
 90
        0
176
     1
 40
0.6
176
     1
 41
30.0
176
     1
 63
     7
421
 16777215
176
     1
 74
     2
176
     1
 91
        2
176
     1
 64
     7
176
     1
 65
   257
176
     1
 75
     2
176
     1
175
     1
176
     1
 42
40.0
176
     1
 92
        0
176
     1
 66
   257
176
     1
 43
1.0
176
     1
 76
     1
176
     1
 77
     6
176
     1
 78
     2
176
     1
 67
     7
176
     1
 79
     3
176
     1
170
     0
176
     1
171
     0
176
     1
290
     0
176
     1
 93
        1
176
     1
 44
0.0
176
     1
173
     0
176
     1
  0
VISUALSTYLE
  5
3F
102
{ACAD_REACTORS
330
29
102
}
330
29
100
AcDbVisualStyle
  2
JitterOff
 70
    20
177
     2
291
     1
 71
     2
176
     0
 72
     2
176
     0
 73
     0
176
     0
 90
        0
176
     0
 40
0.6
176
     0
 41
30.0
176
     0
 63
     7
421
 16777215
176
     0
 74
     1
176
     0
 91
        4
176
     0
 64
     7
176
     0
 65
   257
176
     0
 75
     1
176
     0
175
     1
176
     0
 42
1.0
176
     0
 92
       10
176
     2
 66
     7
176
     0
 43
1.0
176
     0
 76
     1
176
     0
 77
     6
176
     0
 78
     2
176
     0
 67
     7
176
     0
 79
     5
176
     0
170
     0
176
     0
171
     0
176
     0
290
     0
176
     0
 93
        1
176
     0
 44
0.0
176
     0
173
     0
176
     0
  0
VISUALSTYLE
  5
37
102
{ACAD_REACTORS
330
29
102
}
330
29
100
AcDbVisualStyle
  2
Linepattern
 70
    14
177
     2
291
     1
 71
     2
176
     1
 72
     2
176
     1
 73
     0
176
     1
 90
        0
176
     1
 40
0.6
176
     1
 41
30.0
176
     1
 63
     7
421
 16777215
176
     1
 74
     1
176
     1
 91
        4
176
     1
 64
     7
176
     1
 65
   257
176
     1
 75
     7
176
     1
175
     7
176
     1
 42
1.0
176
     1
 92
        8
176
     1
 66
     7
176
     1
 43
1.0
176
     1
 76
     1
176
     1
 77
     6
176
     1
 78
     2
176
     1
 67
     7
176
     1
 79
     5
176
     1
170
     0
176
     1
171
     0
176
     1
290
     0
176
     1
 93
        1
176
     1
 44
0.0
176
     1
173
     0
176
     1
  0
VISUALSTYLE
  5
40
102
{ACAD_REACTORS
330
29
102
}
330
29
100
AcDbVisualStyle
  2
OverhangOff
 70
    21
177
     2
291
     1
 71
     2
176
     0
 72
     2
176
     0
 73
     0
176
     0
 90
        0
176
     0
 40
0.6
176
     0
 41
30.0
176
     0
 63
     7
421
 16777215
176
     0
 74
     1
176
     0
 91
        4
176
     0
 64
     7
176
     0
 65
   257
176
     0
 75
     1
176
     0
175
     1
176
     0
 42
1.0
176
     0
 92
        9
176
     2
 66
     7
176
     0
 43
1.0
176
     0
 76
     1
176
     0
 77
     6
176
     0
 78
     2
176
     0
 67
     7
176
     0
 79
     5
176
     0
170
     0
176
     0
171
     0
176
     0
290
     0
176
     0
 93
        1
176
     0
 44
0.0
176
     0
173
     0
176
     0
  0
VISUALSTYLE
  5
33
102
{ACAD_REACTORS
330
29
102
}
330
29
100
AcDbVisualStyle
  2
Realistic
 70
     8
177
     2
291
     0
 71
     2
176
     1
 72
     3
176
     1
 73
     0
176
     1
 90
        2
176
     1
 40
0.6
176
     1
 41
30.0
176
     1
 63
     7
421
 16777215
176
     1
 74
     0
176
     1
 91
        0
176
     1
 64
     7
176
     1
 65
   257
176
     1
 75
     1
176
     1
175
     1
176
     1
 42
1.0
176
     1
 92
        8
176
     1
 66
   257
176
     1
 43
1.0
176
     1
 76
     1
176
     1
 77
     6
176
     1
 78
     2
176
     1
 67
     7
176
     1
 79
     3
176
     1
170
     0
176
     1
171
     0
176
     1
290
     0
176
     1
 93
       13
176
     1
 44
0.0
176
     1
173
     0
176
     1
  0
VISUALSTYLE
  5
3E
102
{ACAD_REACTORS
330
29
102
}
330
29
100
AcDbVisualStyle
  2
Shaded
 70
    27
177
     2
291
     0
 71
     2
176
     1
 72
     2
176
     1
 73
     1
176
     1
 90
        2
176
     1
 40
0.6
176
     1
 41
30.0
176
     1
 63
     7
421
 16777215
176
     1
 74
     0
176
     1
 91
        4
176
     1
 64
     7
176
     1
 65
   257
176
     1
 75
     1
176
     1
175
     1
176
     1
 42
1.0
176
     1
 92
        8
176
     1
 66
   257
176
     1
 43
1.0
176
     1
 76
     1
176
     1
 77
     6
176
     1
 78
     2
176
     1
 67
     8
425
  7895160
176
     1
 79
     3
176
     1
170
     0
176
     1
171
     0
176
     1
290
     0
176
     1
 93
        5
176
     1
 44
0.0
176
     1
173
     0
176
     1
  0
VISUALSTYLE
  5
3D
102
{ACAD_REACTORS
330
29
102
}
330
29
100
AcDbVisualStyle
  2
Shaded with edges
 70
    26
177
     2
291
     0
 71
     2
176
     1
 72
     2
176
     1
 73
     1
176
     1
 90
        2
176
     1
 40
0.6
176
     1
 41
30.0
176
     1
 63
     7
421
 16777215
176
     1
 74
     1
176
     1
 91
       10
176
     1
 64
     7
176
     1
 65
   257
176
     1
 75
     2
176
     1
175
     1
176
     1
 42
1.0
176
     1
 92
        8
176
     1
 66
   257
176
     1
 43
1.0
176
     1
 76
     1
176
     1
 77
     6
176
     1
 78
     2
176
     1
 67
     7
176
     1
 79
     3
176
     1
170
     0
176
     1
171
     0
176
     1
290
     0
176
     1
 93
        5
176
     1
 44
0.0
176
     1
173
     0
176
     1
  0
VISUALSTYLE
  5
3A
102
{ACAD_REACTORS
330
29
102
}
330
29
100
AcDbVisualStyle
  2
Shades of Gray
 70
    23
177
     2
291
     0
 71
     2
176
     1
 72
     2
176
     1
 73
     3
176
     1
 90
        0
176
     1
 40
0.6
176
     1
 41
30.0
176
     1
 63
     7
421
 16777215
176
     1
 74
     2
176
     1
 91
        2
176
     1
 64
     7
176
     1
 65
     7
176
     1
 75
     1
176
     1
175
     1
176
     1
 42
40.0
176
     1
 92
        8
176
     1
 66
     7
176
     1
 43
1.0
176
     1
 76
     1
176
     1
 77
     6
176
     1
 78
     2
176
     1
 67
     7
176
     1
 79
     3
176
     1
170
     0
176
     1
171
     0
176
     1
290
     0
176
     1
 93
        1
176
     1
 44
0.0
176
     1
173
     0
176
     1
  0
VISUALSTYLE
  5
3B
102
{ACAD_REACTORS
330
29
102
}
330
29
100
AcDbVisualStyle
  2
Sketchy
 70
    24
177
     2
291
     0
 71
     1
176
     1
 72
     2
176
     1
 73
     2
176
     1
 90
        0
176
     1
 40
0.6
176
     1
 41
30.0
176
     1
 63
     7
421
 16777215
176
     1
 74
     2
176
     1
 91
        2
176
     1
 64
     7
176
     1
 65
     7
176
     1
 75
     1
176
     1
175
     1
176
     1
 42
40.0
176
     1
 92
       11
176
     1
 66
     7
176
     1
 43
1.0
176
     1
 76
     1
176
     1
 77
     6
176
     1
 78
     2
176
     1
 67
     7
176
     1
 79
     6
176
     1
170
     0
176
     1
171
     0
176
     1
290
     0
176
     1
 93
        1
176
     1
 44
0.0
176
     1
173
     0
176
     1
  0
VISUALSTYLE
  5
36
102
{ACAD_REACTORS
330
29
102
}
330
29
100
AcDbVisualStyle
  2
Thicken
 70
    13
177
     2
291
     1
 71
     2
176
     1
 72
     2
176
     1
 73
     0
176
     1
 90
        0
176
     1
 40
0.6
176
     1
 41
30.0
176
     1
 63
     7
421
 16777215
176
     1
 74
     1
176
     1
 91
        4
176
     1
 64
     7
176
     1
 65
   257
176
     1
 75
     1
176
     1
175
     1
176
     1
 42
1.0
176
     1
 92
       12
176
     1
 66
     7
176
     1
 43
1.0
176
     1
 76
     1
176
     1
 77
     6
176
     1
 78
     2
176
     1
 67
     7
176
     1
 79
     5
176
     1
170
     0
176
     1
171
     0
176
     1
290
     0
176
     1
 93
        1
176
     1
 44
0.0
176
     1
173
     0
176
     1
  0
VISUALSTYLE
  5
30
102
{ACAD_REACTORS
330
29
102
}
330
29
100
AcDbVisualStyle
  2
Wireframe
 70
     5
177
     2
291
     0
 71
     0
176
     1
 72
     2
176
     1
 73
     0
176
     1
 90
        0
176
     1
 40
0.6
176
     1
 41
30.0
176
     1
 63
     7
421
 16777215
176
     1
 74
     1
176
     1
 91
        4
176
     1
 64
     7
176
     1
 65
   257
176
     1
 75
     1
176
     1
175
     1
176
     1
 42
1.0
176
     1
 92
        0
176
     1
 66
   257
176
     1
 43
1.0
176
     1
 76
     1
176
     1
 77
     6
176
     1
 78
     2
176
     1
 67
     7
176
     1
 79
     3
176
     1
170
     0
176
     1
171
     0
176
     1
290
     0
176
     1
 93
        1
176
     1
 44
0.0
176
     1
173
     0
176
     1
  0
VISUALSTYLE
  5
3C
102
{ACAD_REACTORS
330
29
102
}
330
29
100
AcDbVisualStyle
  2
X-Ray
 70
    25
177
     2
291
     0
 71
     2
176
     1
 72
     2
176
     1
 73
     1
176
     1
 90
        1
176
     1
 40
0.5
176
     1
 41
30.0
176
     1
 63
     7
421
 16777215
176
     1
 74
     1
176
     1
 91
        0
176
     1
 64
     7
176
     1
 65
   257
176
     1
 75
     1
176
     1
175
     1
176
     1
 42
1.0
176
     1
 92
        8
176
     1
 66
     7
176
     1
 43
1.0
176
     1
 76
     1
176
     1
 77
     6
176
     1
 78
     2
176
     1
 67
     7
176
     1
 79
     3
176
     1
170
     0
176
     1
171
     0
176
     1
290
     0
176
     1
 93
       13
176
     1
 44
0.0
176
     1
173
     0
176
     1
  0
DICTIONARYVAR
  5
79
102
{ACAD_REACTORS
330
76
102
}
330
76
100
DictionaryVariables
280
     0
  1
1:1
  0
DICTIONARYVAR
  5
78
102
{ACAD_REACTORS
330
76
102
}
330
76
100
DictionaryVariables
280
     0
  1
STANDARD
  0
DICTIONARYVAR
  5
77
102
{ACAD_REACTORS
330
76
102
}
330
76
100
DictionaryVariables
280
     0
  1
STANDARD
  0
DICTIONARY
  5
1A
330
19
100
AcDbDictionary
280
     1
281
     1
  3
BUMPTILE
360
1C
  3
DIFFUSETILE
360
1B
  3
OPACITYTILE
360
1F
  3
REFLECTIONTILE
360
1E
  3
REFRACTIONTILE
360
20
  3
SPECULARTILE
360
1D
  0
DICTIONARY
  5
12
330
11
100
AcDbDictionary
280
     1
281
     1
  3
BUMPTILE
360
14
  3
DIFFUSETILE
360
13
  3
FBXASSET
360
10B
  3
OPACITYTILE
360
17
  3
REFLECTIONTILE
360
16
  3
REFRACTIONTILE
360
18
  3
SPECULARTILE
360
15
  0
DICTIONARY
  5
22
330
21
100
AcDbDictionary
280
     1
281
     1
  3
BUMPTILE
360
24
  3
DIFFUSETILE
360
23
  3
FBXASSET
360
BA
  3
OPACITYTILE
360
27
  3
REFLECTIONTILE
360
26
  3
REFRACTIONTILE
360
28
  3
SPECULARTILE
360
25
  0
DICTIONARY
  5
899
330
67
100
AcDbDictionary
280
     1
281
     1
  3
ACAD_XREC_ROUNDTRIP
360
89A
  0
DICTIONARY
  5
897
330
65
100
AcDbDictionary
280
     1
281
     1
  3
ACAD_ROUNDTRIP_2008_TABLESTYLE_CELLSTYLEMAP
360
898
  0
XRECORD
  5
1C
102
{ACAD_REACTORS
330
1A
102
}
330
1A
100
AcDbXrecord
280
     1
270
     1
271
     1
  0
XRECORD
  5
1B
102
{ACAD_REACTORS
330
1A
102
}
330
1A
100
AcDbXrecord
280
     1
270
     1
271
     1
  0
XRECORD
  5
1F
102
{ACAD_REACTORS
330
1A
102
}
330
1A
100
AcDbXrecord
280
     1
270
     1
271
     1
  0
XRECORD
  5
1E
102
{ACAD_REACTORS
330
1A
102
}
330
1A
100
AcDbXrecord
280
     1
270
     1
271
     1
  0
XRECORD
  5
20
102
{ACAD_REACTORS
330
1A
102
}
330
1A
100
AcDbXrecord
280
     1
270
     1
271
     1
  0
XRECORD
  5
1D
102
{ACAD_REACTORS
330
1A
102
}
330
1A
100
AcDbXrecord
280
     1
270
     1
271
     1
  0
XRECORD
  5
14
102
{ACAD_REACTORS
330
12
102
}
330
12
100
AcDbXrecord
280
     1
270
     1
271
     1
  0
XRECORD
  5
13
102
{ACAD_REACTORS
330
12
102
}
330
12
100
AcDbXrecord
280
     1
270
     1
271
     1
  0
XRECORD
  5
10B
102
{ACAD_REACTORS
330
12
102
}
330
12
100
AcDbXrecord
280
     1
 70
     1
 90
1959938040
 71
     1
  1
F43275AA-8CA0-48E0-A6AB-27F6BD49BC1D
311
504B03040A0000080000685ADC403DEE336E79000000790000001B0000006175746F6465736B2D64657369676E2D7061636B6167652E786D6C3C3F786D6C2076657273696F6E3D22312E302220656E636F64696E673D227574662D3822203F3E3C666F726D6174733E3C666F726D61743E687474703A2F2F736368656D612E
311
6175746F6465736B2E636F6D2F64657369676E2D7061636B6167652F323030393C2F666F726D61743E3C2F666F726D6174733E504B0304140006080800685ADC40D486FD9CA0000000F4000000130000005B436F6E74656E745F54797065735D2E786D6C7D8EC10E82300C865F65E91D8A1E8C310C0EEA1BF002731658846E
311
D98AC1B77784ABF1D8FE5FBFBF75BBCE937A534CCEB38643598122B6FEE978D0B0485F9C41B54DDD7D022595594E1A469170414C76A4D9A4D207E29CF43ECE46F218070CC6BECC4078ACAA135ACF422C856C0E68EA1BF5669944DDD7BCDE7B1F8E415D77AECB980613C2E4AC91FC167A2B244592486606FC29C8FD7F045B9A
311
EF7053A7E60B504B0304140006080800685ADC40F037DFC1EA0000007C01000008000000636F72652E786D6C8D90D18E832010457F85CC3B0AE86A6B90A6DAF805FB0304A925AD600436FBF98BAD4D76DFF66986CB3D3393CB4FDFF3037DE9D51B675BA01901A4AD72A3B1530B315CF101D049F0D5B9F0CB06C8CA59B7B0C9
311
20F8B4BAB8EC927236681B926ADDA877517AAF0320F5484D0B5EDDF42C33194372F87BB648759793CEE8BB4B708C6644AF25664CF3CCD5E815C44751F45D3D1C71CF48874B5677F87CAE7B5C0D5D7D2C2FC370A94A9E6FB0E0C1CCEFFD6AD532E81104239461526176F8A4B4A1C786D6E9D910C2F3CDFE078ACBF84F281A1B
311
0AB69FFBC23C089A0E797E089E6F59A4F20C2AD52D37F103504B0304140006080800685ADC4055019EA25F0000007C00000007000000636E782E786D6C4DCB3B0E80201045D1AD90E915ED2CF8AC45050C11660C8261F98AB1B07AC9C97D42D718D865D3E909258CFD00CCE24AC6E326A164D74DC0B4128928FF326038472B
311
A13128B1252AC747C6BAB984FC68F0B87FE8960A5C09FE86CFB69FBA01504B0304140006080800685ADC40E4838E2366010000020300000C0000006662782F636F72652E786D6C8D52ED8E8230107C95A6FF4B013951536A44C313DC0B54A85C23B4A4B4C4C7BFE5C3785E8C3124507676766607D8FED6366890B657466738
311
0A428CA42E4DA5749D61EF2E6483D19E336B8CFBD3869116ADCCF058C69CD5D6F86E2995463BA91D54B5A9E452147D2F1D466503870CF7E58F6C4520BC838EFE1A74A2BC8A5A06510030F471D63B0B06D02C32DE31BF9C6F8CCE75CEBC57D582AA0AD4D445498BF9D76A75CCD3624B8E719893244E737238A447B22EF2749B
311
9C8AE2B44E181DC99C39D5DEDD95560A272BCCE3308A49B826F1E63B8A76D17617A5F0BA0B4346C7F62792EFAA0F495E69B78A17BB33ADC73C022313F06F5B88C8A15E0CE0877246C710E13125FC1C340402213B716EEE7B5CA134C8D2199B005219FF8006D17809AA219A2E466714264F0360B39773E23773DECF800F2874
311
0DD68483E3D9BB519DCDAA4B149DB4647037A48D6D45F330375B7CDC1F422FE9A5698CFD844D9755E912261DFF5EFE0B504B0304140006080800685ADC4027911F8D7E0000009D0000000B0000006662782F636E782E786D6C4DCCD10A83201886E15B91FFDCA565E6811A3AB6FB8865212B0DA76397BF1A1DECE883878F57
311
F69F75416F975E3E0605F44200B9F088A30FB38292272C00F55AA618F3DF0D501856A7E060D0724EB16C278D6E1ACA92775D7C789ED8F0FADE52C330379DC0AC6E1B6CE8ADC3847341AE8259612D545A56BFD2BE47587F01504B0304140006080800685ADC40C263F51E2901000014020000310000006662782F3336324635
311
3141342D364137382D343235332D413145372D3036363830433834423842422F636F72652E786D6C8D51CB6EC23010FC15CB277A4862272104E41841D57E417FC0D8062C881DF951F1F95D37416A6F5CBCD6ECCCEC6897ED1FE31D7D6B1F8CB303A625C1485BE994B19701A7782E7A8CF69C79E7E21F1A46568C7AC019C69C
311
5DBC4BD3024967A3B61150EB945E4011828E18C93B7C061CE4558FA214290223DCCA49C89BB8E89296D0061E67217A0880E621F9C5BCE9EACF353DB44577D8F4455BAF9BE2403F3605E9BA9EBCF7EDB13F1E59350B394BC9A8456E14C43167A3FDAB2659CC5934E333BEF45A44AD30AF09AD616251F75F94EEE8764773801D
311
21ACCAF47FA234A91745C9D8D8D44BDC591630A7AC9A1B9C29974EF76718FD989C8F28CF5B052DDF302725C422A4D98264A6C202C0B36B17CF109D8705AF6E2760D3F56CDCB59C55F946507E0F0835DF93FF00504B0304140006080800685ADC40533E76504C01000033030000300000006662782F33363246353141342D36
311
4137382D343235332D413145372D3036363830433834423842422F636E782E786D6CD593CD6EC23010845FC5F23D3FA68852E418A9873E410FBD3AF6022E8E1DF9A72A6FDF3518CA85438FBD58C9ECE799D528E1DBEFC9922F08D1783750D6F69480535E1BB71F684EBB664DC956F0E07DBAC3287172828116990ABE0F3ECF
311
55D2B093D92654AD71C72A06883E070511E5729358AFA44503704D4611A611B4064D6E203EED20E02A288E27920E40DE5E3F881F3F41A5C8BBE222785732042F674DBA83285156C638D0A80E30C956E6E435C463AB65922D6BAF590F76FA7522E5C2353207434AF840CB4945DDA8C51E798743C1630AD85E85D269062AE43C
311
5BA364C292BB33786104CFC6A5D5B2B2068B0F48B3D5D3728966E799E0C94C5009154026D0542C7AB668FA55B358BF33B6612F1BF68CAF9BBEE75DC1051FBDB7F512DA40F03351DE2570890AC6BB327E545FE5883601BBF6E1F48722B1809A7A69E7E6F19FFBE9CEDF37D615F02F103F504B0304140006080800685ADC40A6
311
F7A6B5A505000081100000340000006662782F33363246353141342D364137382D343235332D413145372D3036363830433834423842422F6F626A656374732E786D6CAD575B6FDB3614FE2B82F6B23DF822DB499341D1E04B53185DDAA2468B3D1830288952B850179054EAECD7EFA348C9926BA7DED0175D78393CE73BDF
311
B9D0FF639F71E7990AC98AFCCEF58663D7A17954C42C4FEFDC4A25831BD7F923F04551A8CE32D7C94946EF5C3DEC067E2A8AAAB443314D48C5D5D1E8FDE22F474634A7AE137122E59D2BA3479A9121A9541153F9348C8922C334D90FBDA159D8179B0A523E1E092D89A0B982A618CF21C5314A79FDDFB13B0AFC919E0F7CFD
311
B4ABA6E7578D6A7BFAE7B35C2A9247DF1D762466EACD566F2757B783ABD96C3A985D4FBCC1E27EB11A786FA6E3E5F572793B7F7B8B83A5129064351134718377C046B0C81F99A9C0AF58AEA613BBC43A6824E833D39E728389E3F923B3A6B5CE1A794AFDA8C8731AD558018DDA3E2B3AA625CD63F89C5109CD3A088DFBBF9E
311
C6B1333DD5FFF6C8EEF065087477740435BA37EFAEA645F8374C9097304848AA1968B0B4861AAE8E0F088745C1ED1C934E4614158C7087B35010F1E20658AA97047E4F8C66B2D0D1A02D700378C14CF7E98230FA31CF4F6999549C6B1ABB411D053BC40A55B2D68CFD43C541FB2E32D009BED26CB8B106A99792BAC1ADA1C8
311
CD119B0C904EC2490A97C34CBD733A393274A9E374BD7283F7F7E17EA363F7F4E1A5284A2A94A60FA8D538AE796B94AC4EDE459ED31BDC23550EA07C06F21F10EA0755E037C1F6B3FDCC9EA204C96552880CBE71C6CE608CC7D8F1EAA7FEEE7CF9A37673DF7BE7F084B335543F01CFBE0D5D5F76E00CFC6710BE10536BDA26
311
221C69E381E5004893C4E1058690879370EF066B64396465EC223CF06032D47DC6A73FB2629028EA933AEF1C581EA5C50B123460AB1909350CF9AD82073F7D97CEEA83EDB273F05EFD14BACE579BF79B4A2424A20F36A65734613953287107DE7415EA61DEB3E889BE7C2B440C43BFC77BD3C53BB34749A0AD31D7C0A74D4E
311
D73F87937B0744D897163ADDF83F380146E8C2DA91FFC064443927392DAAE6DC57EB07CA86815807BB66725B600E8505A43133473188221D09566A10DB6AD526CDE119EBBEAC3F80916EB078F993BC74B35778C8BD51C10BB10B5F76262D9D84FA6B9FDB1683919602BAD741D2C4BF057D17B324A92492E0095CBFAE975DDF
311
E9B48014D14835D13283FD082E222C691BB9A8D682A09216F98EA16E22EE4E1ED0950F482D036A81E7349694273BC67995ED12C6518D761929CFC0F1FFF50FABACDC91ACA8727546764F755487BEEE3DF6CA6F44458F6EB0A9DF8305726F4CE33364D0B5E404563DD7DECFA6933757F3F9E066391F0F66376FC783F9F57C31
311
98BCB9BF5EAC66B78BA5B76AFC643409FCA6D474231A5E4269F32BC1ACFBBEAC113F3609B8C1035172FBCE8467F3FEB21EA217F647D8837AD96E9CC7CFE8FB68FC630187952705ADB392D38CE68AE8187AD01FFC33419FD153C68CAF3392D20BA47C7CB73932062317ECFBA4E39D7E3BDA6B47973A204F0A518F5516E684F1
311
A38DA9417258E6A9C5AFF149FB3685A6F9D57FD631E84C65C1598C3C183B292D32AA900D2F284222A312D4EBF6F4B1BD7B5CB0FBD974888A849C369A3C1234C95C222C40AD2A52FD71E7173475BAAFBA73516E874F78D84CE13AE0CC9D8B265DB188CA618802AD5BA15A38B8D4EDE4D1F8933CE5E8B5CDA6F6BFDDA5B1E995
311
E476C925FD93B5CBA4706B00D24889BE010D11BC532B13F8B56E763EFA4F8637EA3844E133AC546BCB61A035A63E06216A8CB2B70534314FF6E83D02F575B3BC61BDA687C845B7AC574960A40E1411697D53D0FA5995E6AB4F237428CEFAA353F22A852F2F9734101464AE74808345608595591205AA2E7FDF7E12056EB299
311
73CF4001E7D7FDCDF56FDB659165456E86B6737B1F76368FB8DDC65B2407AAAF25723B197B936D7D1DB037945D48241D92583E61009E15AC05BAE77EF0D2DC195187CC44BB6EA45D71C4D0F5CAB1856D06A1962EDDDCAAC141E391530731A4AF943A62BA0BCA576F04A37A295410E8E5837F01504B0304140006080000685A
311
DC40000000000000000000000000350000006662782F33363246353141342D364137382D343235332D413145372D3036363830433834423842422F76657274696365732E62696E504B0304140006080800685ADC40F270F1330600000004000000360000006662782F33363246353141342D364137382D343235332D413145
311
372D3036363830433834423842422F747269616E676C65732E62696E636660600000504B0304140006080000685ADC40000000000000000000000000370000006662782F33363246353141342D364137382D343235332D413145372D3036363830433834423842422F617474726962757465732E62696E504B030414000608
311
0800685ADC40D5987DFC8F00000041010000360000006662782F33363246353141342D364137382D343235332D413145372D3036363830433834423842422F6469726563746F72792E786D6C858F410EC2201045AF4266AF15DDB800BA74E7C21B903225242D6328188F2FA5C4183471359997F9FF81E89FF3C41E1816475E
311
02DF1F80A11FC8386F25A438EECEC07A250251FC3803E6F58C12560C4AD840E95E91C151A72936F496F35732D860FE635F62C8F2DA16B505C545B74125BAA2FA9E05D7CC053D063734D5C7665FD55B6B8D15D5E9BFEAFD8490FFA45E504B0304140006080800685ADC40E39CF159FC000000A00100003B0000006662782F33
311
363246353141342D364137382D343235332D413145372D3036363830433834423842422F7265736F75726365732F636F72652E786D6C8D504B6E833010BD0A9ABD010385041947818813F4029699502BC146FE543D7E4DA052BBEBC6E3791FCDD36397AFE5997CA275CAE80E689A43825A9A49E9B983E0EFE404C985336B8C
311
FF2583448B053BD860E06CB626AC07248DF6A87D44B599F0008573E82191CFF8E9C0C90F5C442A828F0AF74857211F62C694A6918E3ACE9CB73140B21FD95EE0169D0956A263D9CE7216829A0E8D9AE24D75576881BF95E5D037E3890C45DE93AA687A72BD3603A9C7BE3957B771BCD515CB3633675E2D3F19A545E171025E
311
E4B420794D8AD33BA52D3DB7B4896B9BE72CDBE47F4C619DFE690A4AFBB238E2EE36079CC6202F82B36CEB2B8E5799716EDDF26F504B010214000A0000080000685ADC403DEE336E79000000790000001B00000000000000000000000000000000006175746F6465736B2D64657369676E2D7061636B6167652E786D6C504B
311
01021400140006080800685ADC40D486FD9CA0000000F40000001300000000000000000000000000B20000005B436F6E74656E745F54797065735D2E786D6C504B01021400140006080800685ADC40F037DFC1EA0000007C010000080000000000000000000000000083010000636F72652E786D6C504B0102140014000608
311
0800685ADC4055019EA25F0000007C000000070000000000000000000000000093020000636E782E786D6C504B01021400140006080800685ADC40E4838E2366010000020300000C00000000000000000000000000170300006662782F636F72652E786D6C504B01021400140006080800685ADC4027911F8D7E0000009D00
311
00000B00000000000000000000000000A70400006662782F636E782E786D6C504B01021400140006080800685ADC40C263F51E290100001402000031000000000000000000000000004E0500006662782F33363246353141342D364137382D343235332D413145372D3036363830433834423842422F636F72652E786D6C50
311
4B01021400140006080800685ADC40533E76504C010000330300003000000000000000000000000000C60600006662782F33363246353141342D364137382D343235332D413145372D3036363830433834423842422F636E782E786D6C504B01021400140006080800685ADC40A6F7A6B5A505000081100000340000000000
311
0000000000000000600800006662782F33363246353141342D364137382D343235332D413145372D3036363830433834423842422F6F626A656374732E786D6C504B01021400140006080000685ADC400000000000000000000000003500000000000000000000000000570E00006662782F33363246353141342D36413738
311
2D343235332D413145372D3036363830433834423842422F76657274696365732E62696E504B01021400140006080800685ADC40F270F13306000000040000003600000000000000000000000000AA0E00006662782F33363246353141342D364137382D343235332D413145372D3036363830433834423842422F74726961
311
6E676C65732E62696E504B01021400140006080000685ADC400000000000000000000000003700000000000000000000000000040F00006662782F33363246353141342D364137382D343235332D413145372D3036363830433834423842422F617474726962757465732E62696E504B01021400140006080800685ADC40D5
311
987DFC8F000000410100003600000000000000000000000000590F00006662782F33363246353141342D364137382D343235332D413145372D3036363830433834423842422F6469726563746F72792E786D6C504B01021400140006080800685ADC40E39CF159FC000000A00100003B000000000000000000000000003C10
311
00006662782F33363246353141342D364137382D343235332D413145372D3036363830433834423842422F7265736F75726365732F636F72652E786D6C504B0506000000000E000E0080040000911100000000
310
504B03040A0000080000685ADC403DEE336E79000000790000001B0000006175746F6465736B2D64657369676E2D7061636B6167652E786D6C3C3F786D6C2076657273696F6E3D22312E302220656E636F64696E673D227574662D3822203F3E3C666F726D6174733E3C666F726D61743E687474703A2F2F736368656D612E
310
6175746F6465736B2E636F6D2F64657369676E2D7061636B6167652F323030393C2F666F726D61743E3C2F666F726D6174733E504B0304140006080800685ADC40D486FD9CA0000000F4000000130000005B436F6E74656E745F54797065735D2E786D6C7D8EC10E82300C865F65E91D8A1E8C310C0EEA1BF002731658846E
310
D98AC1B77784ABF1D8FE5FBFBF75BBCE937A534CCEB38643598122B6FEE978D0B0485F9C41B54DDD7D022595594E1A469170414C76A4D9A4D207E29CF43ECE46F218070CC6BECC4078ACAA135ACF422C856C0E68EA1BF5669944DDD7BCDE7B1F8E415D77AECB980613C2E4AC91FC167A2B244592486606FC29C8FD7F045B9A
310
EF7053A7E60B504B0304140006080800685ADC40D19233C8E90000007C01000008000000636F72652E786D6C8D90416EC3201045AF82668F0DAE9DDA16266AECE604BD0002E2A2C46019A87AFC42E248EDAEAB193EFFCD8C3E3B7E2F37F4A5376F9C1D80160490B6D22963E70162B8E016D091B3CDB9F0CB06C88A450F9065
310
E06CDE5C5C77493A1BB40D49B54EE95D14DEEB0048DE523380979F7A1185882139FCB55885BC8A5917F4D9253846A3D0638951699EB918BD013F9DCEE7B13E4C787CEF465CB7538DBB697AC384B6D5D4B40D6D28656586390B6679EE979B16412BE015A11526075CB51F94F6B4EBE96B7AF684B032DBFF407155FF84A2B1E1
310
A5DACF7D601E783EE4FEC15999B348E51E54AA3937FE03504B0304140006080800685ADC4055019EA25F0000007C00000007000000636E782E786D6C4DCB3B0E80201045D1AD90E915ED2CF8AC45050C11660C8261F98AB1B07AC9C97D42D718D865D3E909258CFD00CCE24AC6E326A164D74DC0B4128928FF326038472BA1
310
3128B1252AC747C6BAB984FC68F0B87FE8960A5C09FE86CFB69FBA01504B0304140006080800685ADC40D37CDD3666010000020300000C0000006662782F636F72652E786D6C8D525B6E833010BC8AE57F30A624259171D484E604BD80631C8A0236F203E5F85D1E519A2A8A2A24303B3B3BB3036C77ED5A3428EB1AA30B4C
310
E30423A5A5A91A5D1738F8739463B4E3CC1AE37FB561A445A70A3C963167B535A15F4AD268AFB487AA36955A8AC239E531922D1C0AECE4B7EA442C82870E77897B212FA256318D01863ECE9CB76000CD22E31DF3F3E9CAC85CE72C84A65AD0A602B5E6DC288BF97E7F3C1EB275191D3E378728CBCB2CDA94E54794D03C2D57
310
F98AAE2865642473E69BEEE64E5A25BCAA304F139A46C93A4AF32F4AB774B3A5EFF0BA4D1246C6F60752E8AB7F9242A3FD5BBAD89D690EF3D1C804FCD91622F2C88901FC10CEC818223CA6841F83864020642F4EED6D8F0B940625BDB1192095097768106D50A09AA0E962644661F23400367B3A277D31E7F50CF88042D760
310
4D78389E821FD5D9ACBA44D12B1B0DFE8AB4B19D68EFE6668BF7FB5DE8295D9AD6D8FFB0C9B22A59C224E3DFCB7F00504B0304140006080800685ADC40873DB6B97F0000009D0000000B0000006662782F636E782E786D6C4DCCDF0E82201C86E15B61BF7312FFA4B5014E02EEC3253A164223685D7EDA3CE8E8DB9E7D7B69
310
FF591D7A9BF8B2C133284F0490F1F73059BF30C869C617403DA73184F47703E4C7D530D819385D62C8CF8326338FD9A54D9DF58F03BBF6D69CCB4AE19668899B4E6B2C06A531A9E4208950757D1550705AFC4ADBEE61FE05504B0304140006080800685ADC40A50A7F3E2B01000014020000310000006662782F3736433435
310
3132452D363046442D343746462D424145462D3032444144304245333339422F636F72652E786D6C8D514B6EC32014BC0A62952EB0013B38893051D2C427E805A84D5294182C3E558E5FA81DA9DD65C3836166DEE83DBE7F8C77F0AD9CD7D6B490141802657A3B68736D610C17B481602FB8B336FCA14160E4A85A986128F8
310
D5D9382D506F4D502624D4D8412DA0F45E0508FA7BBAB4D0F75F6A94858C2131FCAD98647F93575590227D279EE03EB81400CC4DF20945C3DEEB35A167C470774275D375E878387708D3D3E1848FE7AADA1E79390B058F510F8B5C0F298EBE68E55E35C962C1831E9FF17BA76450031414138A304374F341C88E6C77A449CF
310
1DC6BCCCF47FA2380D2F8AA236A1A24BDC59E6A120BC9C3F041F6CFCBC3FC3A8C7645D00B9DFCAABFE0D0A5C60BA66DBAA61BC9CA96900C993D58BA70FD6A501AF6E9F895D2DC6AC16BCCC3B4AE57781A9E67D8A1F504B0304140006080800685ADC403599B9475401000033030000300000006662782F3736433435313245
310
2D363046442D343746462D424145462D3032444144304245333339422F636E782E786D6CBD93CD6EC32010845F0571F70F4EE4BA1126520F7D821E7AC5B049686CB00057CDDB7749489A4B0E95AA5E903D3BCCAC3ED97CFB358DE4137C30CEF6949535256095D3C6EE7BBAC45DD151B215DC3B17EF6C945839414F934C05DF
310
7BB7CC59D2B093CB18511D8D3D66D143708B5710504E37C9E8941C31006CB1A008D3005A832637233EEDC0E32A280E27120F405E5FDE891B3E40C5C0AB942278953A044F676EBA3351A24619424F833AC0244BB944A7211C4B2DA32C5979ED7AB0D34F124917AE958B372495F7349D54E48D4AE4C82B1C0A1EA2477AD9144F
310
335021E779344A46845C9D8D178FE08BB1B15D67AF41F01EDDABA6ED3A0C3BCF048F6682EC501E64044D4553B3A6A8DBA2E9DE18DBB0E70D7BC2D74D5DF32AD9051F9C1BF3258C01EF66A29C8D6023158C5769FC085FF6116D3CB276FEF40B900820B75EE8DC32FE920F6B57EBF53FF2A9CEDF37E2F2F817886F504B030414
310
0006080800685ADC409C030C53630700009A1B0000340000006662782F37364334353132452D363046442D343746462D424145462D3032444144304245333339422F6F626A656374732E786D6CED59DD73A33610FF5718FAD23E181BDBC9251D42C7B12F379E36ED4DDDEBF4C1338C0C3251230423895CDCBFBEAB0F301093
310
E0367DEB830D0869B5FBDB4F2DC10FCF19759E3017246737AEEF4D5C07B3384F084B6FDC52EE4757AEF34318F03C978D69AEC350866F5C35EC8641CAF3B2B04309DEA392CACEE8DDED1F8E8831C3AE135324C48D2BE2079C210F95324FB078F412249197EE9F3DDF3313DB64538E8A870ED10271CC24700AE30CA8388629BF
310
FD3871C7613056EFC340FDDB59B341B3E6FDB3C65AEA369784098958FC82A50E99D9209666FE7CF5717A713DBA98CF67A3F9E5D41FDDDEDDAE46FE87D96479B95C5E2F3E5E037BBB3CA756A604179825A0BF831BFAC158BDA945B7089CE23ACE19C3B10612A0D2627509122C60AB067C93F6A3AF246ABCD612369EE7EABD65
310
A1313C6B53E99B350C88165D10C46E57495C5D9BF2E5BB3F417031C428B9C012B8159283762D3C1CBCC20D27C1D88C86C1EEA80B229C0C49CC09A20E253B8E382805A6AA296160165832CA3938907294045A73E675DBB6C033DF769D535CEE4B4A9567B8A176AC08DC0F4BA139237F617EE4BE890CF004D29684C92BCBA53C
310
14D80DAF83B11E0C0375994DED4B03A4B3A728151A11F3B623E852B9FE7AE5863FDEED9E372A1C9CDEBCE07981B95446A7F4A8F90243B6578592DDD61FA439B5008431A0DA9547507E05E47F86E8716405F4C6C9F3FC796EE74A8E98D8E73C03DD3813673481BF89E3EB7F75DFB80BC6F5E2B6F6FAF0043755505DFD7B3CDB
310
3268AC2CFF0D38C3E0090C3EE733FB6A13230AF67C4F1800A48CC4A1390C4168DFEF9EDD700D8113023DAC4234F4416460F7096E83B12573D44AE55ED6EB18206AF7980D5112C0A62D12D8E8D1D327C81E9CC447353545EC83F7E25DCC75B1DAFCB829F91EC5F8DEFAF40AEF092312B2E669865A98B7247AC487AF394F40D0
310
97786F9A7867762B01682BCC15F06905827A38EEDCDA20867569AEC24DF0C60E2084CAD50DFAF744C49852C4705E56FBD6D14D196AEDF1B66670C3A9817836ED9830C74F445515E034C7192D4621EFC79C140A4437FC6424AB83A6D723DD97F5CF6091F5FC9E596B06A19721FA9B0E5A277068597685B405A21678770CE771
310
4E731EED0E9189742ED412C046DB5B7E6F1185586F94A4A8800769BFAB424A6AA48D12B2DF9702E2EA09167F5F2F9BE630F166FE85D3FCEF38E31CA22DF82EE2D6EF3A7B442443298EF628E9DBAEB95B4D5B68923DA439DE53908B3C117988908C26094ECF81E62CE2D7EF4A3DA5B910846101F9EA24F84D34261E0412A3CD
310
8A65A5D50ED044441996889E838022D303AE4E3BBAC68DA174789BC7DA7A5FD35893E87F64111C412D99B38840290A39E44DC67DEF0262481B5D8372075FB0B68AB61683965042C487E82B26E9833C077543BE07F7188E24A58CF202C560D603C8BEF015A5D40EEF3B143FAAFC11C5257D2F031198EE2342699945F0230C4E
310
1E435CBB0E4CAFA2D0206E629FC419146548967CC82697179317FB989AA11B021B1BED0985B01D65A8E841BD1510753DE2D4E05BEA3D4ADD955911A12C2FD92043F1665D6FB2E4BB6A556407F2AB4A45281B2BC29660181026EBAC5AC56C30751D58C18D74A03A4402650535A7B037128F5F7B93A6DCBB01B77EFABE1B6450
310
F8F568AF1951E7150C96C7566120BE22193FB8E1465F47B7507F273839A6FAAAD66C568080988AE4252756455FD650DED81ACD0DEF9114DB4F26EB56D72F6B0FBA1FC118D640ED522F5C2BA033CC245295C9BDBAA1BF2208C12D1A667CAD72EA39541649A2AB4644EF489F3A5B65446BD38C78C5036679063FB6252CA66582
310
B728118FD1BDA4D18628D6AD945E462A8C5F15F0974F9B0E3C303240A4CFAAC0C35F3B6BEDE852954B2789C88732DB31442008B6444B8D6EBC82A556239596EBAB3A5340DD050666553CFFFF64D16C47FC7FB248AD61FCAB93C5EDE1277468F6451AE93C56767DD631A0CE4F8ACA7B1C0374DBA1A65A671193CCADFCD69922
310
088A55941F5C8D5541C310ECE3F81F67EDBE2C68B6EBF07F5ED6F65F541C676595D664D5A53A51B9AE9B39EC6E3E9B7EB8582C4657CBC56434BFFA38192D2E17B7A3E987BBCBDBD5FCFA76E9AF6A34B5A386411DCC74EE826713D4AA61F5643180AEACC82949E0349F382986982FE14C3FA07DCE332C2079369BDD896DCA0F
310
58FD64FA9C12ED28AE387940D020A602D23A6054C6B23DEE7C03AD490907ED1B179A46DE23FC59AB741DC83C372EB40A2489B1F076D066520D3D4D1C52AECEFD9618E08358AA52A259543FD7AB1436ADF05F4F199206AC5CAD1E06146E0574BF5A1D0ACD9BE5293E4BF08A1D0749B8DD9512AA3523CB71A016466F7354BF91
310
8D12F668B77E06D77D5D2CDFD3735A880CFA64F0AA1118AA238978AAFBDD8A31CBD262F5790C7D3667FD8B53D032055D0EA734E2188CB954051558115885A5592009A6BAFC7EFB99E7F08927737455E47CFB7C75F9DD76996759CECCD07601A7B2043E14399B07F8EC936CA178C0AAB92EB6D3893FDDEAA6B6EDB3473B24B0
310
A7AA2218A88A092548C7E4C02E5F34A86CFB72AC54D199BE5E3936884233C0D8D18B1EAFF9C8E5800FA9CF29CA63B49F57D2BEDAD71EEBA960131C3AD2E1DF504B0304140006080000685ADC40000000000000000000000000350000006662782F37364334353132452D363046442D343746462D424145462D303244414430
310
4245333339422F76657274696365732E62696E504B0304140006080800685ADC40F270F1330600000004000000360000006662782F37364334353132452D363046442D343746462D424145462D3032444144304245333339422F747269616E676C65732E62696E636660600000504B0304140006080000685ADC4000000000
310
0000000000000000370000006662782F37364334353132452D363046442D343746462D424145462D3032444144304245333339422F617474726962757465732E62696E504B0304140006080800685ADC40D5987DFC8F00000041010000360000006662782F37364334353132452D363046442D343746462D424145462D3032
310
444144304245333339422F6469726563746F72792E786D6C858F410EC2201045AF4266AF15DDB800BA74E7C21B903225242D6328188F2FA5C4183471359997F9FF81E89FF3C41E1816475E02DF1F80A11FC8386F25A438EECEC07A250251FC3803E6F58C12560C4AD840E95E91C151A72936F496F35732D860FE635F62C8F2
310
DA16B505C545B74125BAA2FA9E05D7CC053D063734D5C7665FD55B6B8D15D5E9BFEAFD8490FFA45E504B0304140006080800685ADC400EFCF970FB000000A00100003B0000006662782F37364334353132452D363046442D343746462D424145462D3032444144304245333339422F7265736F75726365732F636F72652E78
310
6D6C8D504B6E833010BD0A9ABD01534809328E1A684ED00B586642AC041BF953F5F8B50395DA5D371ECFFB689E1E3B7D2D8FEC13AD5346F740F31232D4D24C4ACF3D047F252D6427CEAC31FE970C322D16EC21C1C0D96C4D5877481AED51FB886A33E10E0AE7D043261FF1D38393375C442E828F0A77CF5721EF62C69CE691
310
8E3ACE9CB73140B61D492F708BCE042BD1B16263390B414DBB464DF1A6BA2AB4C0CFE7CB65A80F0319DE8F03A9DBB126C7717C23256DABB1691BDA50CA8A64E6CCABE527A3B4283C4EC0AB9256A43C90AAFDA0B4A3C78EBEC6B52B4B5624F91F5358A77F9A82D2FEA5DAE36E36073C0579129C15A9AF389E65C699BAE5DF50
310
4B010214000A0000080000685ADC403DEE336E79000000790000001B00000000000000000000000000000000006175746F6465736B2D64657369676E2D7061636B6167652E786D6C504B01021400140006080800685ADC40D486FD9CA0000000F40000001300000000000000000000000000B20000005B436F6E74656E745F
310
54797065735D2E786D6C504B01021400140006080800685ADC40D19233C8E90000007C010000080000000000000000000000000083010000636F72652E786D6C504B01021400140006080800685ADC4055019EA25F0000007C000000070000000000000000000000000092020000636E782E786D6C504B0102140014000608
310
0800685ADC40D37CDD3666010000020300000C00000000000000000000000000160300006662782F636F72652E786D6C504B01021400140006080800685ADC40873DB6B97F0000009D0000000B00000000000000000000000000A60400006662782F636E782E786D6C504B01021400140006080800685ADC40A50A7F3E2B01
310
00001402000031000000000000000000000000004E0500006662782F37364334353132452D363046442D343746462D424145462D3032444144304245333339422F636F72652E786D6C504B01021400140006080800685ADC403599B94754010000330300003000000000000000000000000000C80600006662782F37364334
310
353132452D363046442D343746462D424145462D3032444144304245333339422F636E782E786D6C504B01021400140006080800685ADC409C030C53630700009A1B000034000000000000000000000000006A0800006662782F37364334353132452D363046442D343746462D424145462D3032444144304245333339422F
310
6F626A656374732E786D6C504B01021400140006080000685ADC4000000000000000000000000035000000000000000000000000001F1000006662782F37364334353132452D363046442D343746462D424145462D3032444144304245333339422F76657274696365732E62696E504B01021400140006080800685ADC40F2
310
70F13306000000040000003600000000000000000000000000721000006662782F37364334353132452D363046442D343746462D424145462D3032444144304245333339422F747269616E676C65732E62696E504B01021400140006080000685ADC400000000000000000000000003700000000000000000000000000CC10
310
00006662782F37364334353132452D363046442D343746462D424145462D3032444144304245333339422F617474726962757465732E62696E504B01021400140006080800685ADC40D5987DFC8F000000410100003600000000000000000000000000211100006662782F37364334353132452D363046442D343746462D42
310
4145462D3032444144304245333339422F6469726563746F72792E786D6C504B01021400140006080800685ADC400EFCF970FB000000A00100003B00000000000000000000000000041200006662782F37364334353132452D363046442D343746462D424145462D3032444144304245333339422F7265736F75726365732F
310
636F72652E786D6C504B0506000000000E000E0080040000581300000000
  0
XRECORD
  5
17
102
{ACAD_REACTORS
330
12
102
}
330
12
100
AcDbXrecord
280
     1
270
     1
271
     1
  0
XRECORD
  5
16
102
{ACAD_REACTORS
330
12
102
}
330
12
100
AcDbXrecord
280
     1
270
     1
271
     1
  0
XRECORD
  5
18
102
{ACAD_REACTORS
330
12
102
}
330
12
100
AcDbXrecord
280
     1
270
     1
271
     1
  0
XRECORD
  5
15
102
{ACAD_REACTORS
330
12
102
}
330
12
100
AcDbXrecord
280
     1
270
     1
271
     1
  0
XRECORD
  5
24
102
{ACAD_REACTORS
330
22
102
}
330
22
100
AcDbXrecord
280
     1
270
     1
271
     1
  0
XRECORD
  5
23
102
{ACAD_REACTORS
330
22
102
}
330
22
100
AcDbXrecord
280
     1
270
     1
271
     1
  0
XRECORD
  5
BA
102
{ACAD_REACTORS
330
22
102
}
330
22
100
AcDbXrecord
280
     1
 70
     1
 90
1959938040
 71
     1
  1
BCA0AA2E-1A74-4377-8493-119BF83A0BD6
311
504B03040A0000080000685ADC403DEE336E79000000790000001B0000006175746F6465736B2D64657369676E2D7061636B6167652E786D6C3C3F786D6C2076657273696F6E3D22312E302220656E636F64696E673D227574662D3822203F3E3C666F726D6174733E3C666F726D61743E687474703A2F2F736368656D612E
311
6175746F6465736B2E636F6D2F64657369676E2D7061636B6167652F323030393C2F666F726D61743E3C2F666F726D6174733E504B0304140006080800685ADC40D486FD9CA0000000F4000000130000005B436F6E74656E745F54797065735D2E786D6C7D8EC10E82300C865F65E91D8A1E8C310C0EEA1BF002731658846E
311
D98AC1B77784ABF1D8FE5FBFBF75BBCE937A534CCEB38643598122B6FEE978D0B0485F9C41B54DDD7D022595594E1A469170414C76A4D9A4D207E29CF43ECE46F218070CC6BECC4078ACAA135ACF422C856C0E68EA1BF5669944DDD7BCDE7B1F8E415D77AECB980613C2E4AC91FC167A2B244592486606FC29C8FD7F045B9A
311
EF7053A7E60B504B0304140006080800685ADC4094FFBD2AE90000007C01000008000000636F72652E786D6C8D505B6EC32010BC0AE21F1B70EC2416260AA97B825E0001715162B078543D7E71E248ED5FBF767776667734ECF43DDFC19709D17A37405261088C535E5B370D30A72B3A4070E22C789F7ED120707236035C61
311
C8D9147C5E364879978C4B05755E9B0D94319A0481BA976680517D9A595632A7C288B76A91EA262753915757C4395B0D9E4FAC2EF7ECD59A00396947416943D1AE2567B41B9B0B3A0AD121F1BEBFB4E28CC5D8BDB17A157396ECFCFAAF8291C968C8292614E10ED1C307213D39F6645FC61E6356AFF43FA2BCE87F8AB275A9
311
A19BDDA72C16AFC5C863C159BD6651CA23A852D7DCF80F504B0304140006080800685ADC4055019EA25F0000007C00000007000000636E782E786D6C4DCB3B0E80201045D1AD90E915ED2CF8AC45050C11660C8261F98AB1B07AC9C97D42D718D865D3E909258CFD00CCE24AC6E326A164D74DC0B4128928FF326038472BA1
311
3128B1252AC747C6BAB984FC68F0B87FE8960A5C09FE86CFB69FBA01504B0304140006080800685ADC40FCCEE49B65010000020300000C0000006662782F636F72652E786D6C8D525B6E833010BC8AE57F3026EFC8380A697A825EC001875A011BF98172FC2E8F88A6AAA20809CCCECECEEC003BDC9B1A75D23A657486699C
311
602475614AA5AB0C077F8DB6181D38B3C6F85F6D1869D1C80CF765CC59654D68A75261B497DA43559B524E45E19CF41815351C32EC8A6FD98858040F1DEE16B7A2B8894AC6340618FA3873DE8201348AF477CCAF973B23639DB3105439A1AA04357555D2624E57E73C4D1769B45CD163B43C2F4ED12ECFD751FEB939ADF263
311
929FD71F8CF464CEBC6A1EEE0A2B859725E66942D3285947E9F68BD23DDDEDE9065EF749C248DFFE440A6DF9262928ED17E96477A439F00A4606E0CFB61091474E74E0877046FA10E13124FC1C340402217B71A91F7BDCA0D4C9C21BBB04A43461863A510709AA091A2E464614260F0360B37FE7A42FE6BC9E011F50E80AAC
311
090FC74BF0BD3A1B55A7285A69A3CEDF9136B611F56C6EB438DF67A17FE985A98D7D874DA655C91426E9FF5EFE03504B0304140006080800685ADC402B8FE4927D0000009D0000000B0000006662782F636E782E786D6C4DCCD10A83201886E15B91FFDCA54EC80335A6ADFB886521330DA76397BF1A1DECE883878F57769F
311
35A0B7CB2F9FA2027A21805C7CA4C9C745412D3316803A2D734AE5EF06288EAB53703068B9E454B79326378F35945D838FCF1319333D375C60C1D81573DB5B6C04B9E3D6DC6C4B878118DA42A365F32BED7B84F517504B0304140006080800685ADC40A990F48A2901000014020000310000006662782F3232424434423438
311
2D383232332D344344432D423830452D3742414337314646304231372F636F72652E786D6C8D51CB6EC32010FC15C4293DD806E2DA6E8489EAA4F982FE00C1C44589C1E251E5F3BBAE1DA9BDE5C2C230333BDAE5FBFB7843DFDA07E36C8B694E30D256B9DED8A1C5295EB206A3BDE0DEB9F887869195A36EF10C63C107EFD2
311
B442CAD9A86D04D4BA5EAFA00C41478CD40D2E2D0EEA4B8F32972902235CF349AAAB1C744E73F8069EE0217A08809626F3890563DDB1ECCA266B18DB66E5E178C8BA867C6475F77EA8E9E9443A5AF362110A9E92E957B9E9218EB918ED9F3599C58247333EE22BAF65D43DE8096519A932D67C52BAA36F3B5AC37347082F66
311
FA3F519AFA2745C9D8B8656BDC4516B0A0BC583E04EF5D3ADF1E61F47D723EA2B9DF2668F58205C92116A3550D92850A0300CFAA5C3D43741E06BCB99E814D5F17E3AA14BC987704E5778150E77D8A1F504B0304140006080800685ADC40533E76504C01000033030000300000006662782F32324244344234382D38323233
311
2D344344432D423830452D3742414337314646304231372F636E782E786D6CD593CD6EC23010845FC5F23D3FA68852E418A9873E410FBD3AF6022E8E1DF9A72A6FDF3518CA85438FBD58C9ECE799D528E1DBEFC9922F08D1783750D6F69480535E1BB71F684EBB664DC956F0E07DBAC3287172828116990ABE0F3ECF55D2B0
311
93D92654AD71C72A06883E070511E5729358AFA44503704D4611A611B4064D6E203EED20E02A288E27920E40DE5E3F881F3F41A5C8BBE222785732042F674DBA83285156C638D0A80E30C956E6E435C463AB65922D6BAF590F76FA7522E5C2353207434AF840CB4945DDA8C51E798743C1630AD85E85D269062AE43C5BA364
311
C292BB33786104CFC6A5D5B2B2068B0F48B3D5D3728966E799E0C94C5009154026D0542C7AB668FA55B358BF33B6612F1BF68CAF9BBEE75DC1051FBDB7F512DA40F03351DE2570890AC6BB327E545FE5883601BBF6E1F48722B1809A7A69E7E6F19FFBE9CEDF37D615F02F103F504B0304140006080800685ADC406E5FCA4E
311
A405000080100000340000006662782F32324244344234382D383232332D344344432D423830452D3742414337314646304231372F6F626A656374732E786D6CAD575B8F9B3814FE2B887DD97DC885249DCB8AA1CAA55345D5B455A356FB1029326018EF188C6C33CDECAFDFCF6008A4C934BBEA4B08E6F8F89CEF7CE762FF
311
ED3EE3CE33958A89FCCEF58663D7A179246296A7776EA993C18DEBBC0D7C2984EE88B94E4E327AE79A6537F05329CAC22EC5342125D747ABF78BBF1C15D19CBA4EC4895277AE8A1E694686A4D422A6EA6918134D8669B21F7AC35AB0AF3695A4783C525A1049730D4BB19E438B531BE5F55FC7EE28F047E67BE09B5F2B353D
311
2F35AAFCE99FCF72A5491EFD70D8919AA9375BBD9BBCB91DBC99CDA683D9D5C41B2CEE17AB81773D1D2FAF96CBDBF9BB5B1CACB484266B89A4891BBC07369245FEA8FE14F825CBF57462456C8046923E3313293798389E3FAA655AEFAC93A7CC8F449ED3A8C20A6854FE59D5312D681E23E68C2A58D64168DC7FF50C8E9DCF
311
53F36E8FEC2E5F864077474751637BF3EC5A2AC2BFE182BA84415251C3C01A4BEB68CDD5F101E150086EBF31E5644453C90877380B25912F6E00512312F83D3586C9D26483F1C00D1085FA739F2E48A39FF3FC949549C9B9A1B11B5459B043AE50AD2ACBD83F541EACEF22039B102BC3861BEB907E29A81BDCD614B9396253
311
0DA493709222E470D3EC9C4E8E1C5D9A3C5DAFDCE0C37DB8DF98DC3D7D78214541A536F401B59AC0354F8392B5C9BB287266837B64CA01942F40FE2352FD600AE226D97EB69FD953B424B94A84CC101B67EC0CC6F8193B5EF56BFE77FEF9A376733F7AE7F044B00D54BF00CFBE0FDD5876E00CFC67105EC8A9756D13118EB2
311
F1C072006448E2708125D4E124DCBBC11A550E5519BB080F3CB80C739FF1D71F59352814D5499D670E2C8FCAE205051AB0558C841935F9AD818738FD50CEAA83ADD83978DFFC12BACE579B0F9B522624A20F36A757346139D3687107DE740DEA61DEF3E889BE7C173286A33FE2BDE9E29DD9A314D036981BE0D3A6A69B97C3
311
C9BD0322EC4B852937FE4F4E8013A6B176F43F301551CE494E45D99CFB6AFF40DBA82136C96E98DC369843630169EA2F473988261D49561810DB6ED516CDE119EFBEAE3F829190E72224FC20141E4A6F24B890BBF0655757A593487FEB53DB4230325AC0F62A479AF4B798EF629624A5420D3C01EBB7F5B21B3A531550211A
311
AD75B2CCE03E728B48CBD9462F9AB52468A422DF31B44DA4DDC903BAFA81A82540A5F09CC58AF264C7382FB35DC2389AD12E23C51938FEBFFD6199153B928932D76774F74C4773E8DBDE23AFFA4E74F4E8069BEA3958A0F4C6343E84B9276C5AC909AC7AA15D2CE7E3F97CF26EE0CDAF6783D9F4FA7A7033BB9D0E3CEF7671
311
7F339D8F17ABAB264EB5F2C06F3A4D37A111257436BF94CC86EFEB1AE9636B801B3C10ADB6EFEBEC6C9E5FD7438CC2FE087BD02EDB8DF3F819631F8D7FAEE0207952D13A2B38CD68AE8949A107F3877F2118337AC6D4EBEB8CA4F4022D9FDE6F8E9CC1CA05FB3E9B74A7DF8FF6DAD5A549C8934AF46399853961FC68635A23
311
392CF2D4E2D7C4A47DD67DA679356F3630184C95E02C46198C9D948A8C6A14C30B7A90CCA802F5BA237D6CAF1E17EC7EAE07444D424E1B4B1E096664AE9016A05619E9FEBAF31B663A3356DDB9E8B6C327FCD84AE13AE0CC9D8B195DB388AA6188FE6C26A14A39B8D41DE431F7933CE518B5EB4DED7BBBCB60D3EBC8ADC825
311
E393F5ABAEE0D6019491026303E62144A73226F02BDBECF7E83F39DE98E3108DBF61A95B5F0E0BAD33D53148D1DA297B59C00CF3648FDE23515F77CB1B56323D442EBA64BD4A825AEB401399561705639F3569BEFA3CC280E2AC3F39052F53C4F2724D034941E6D22438580456589D05D1A0EAF2CFED67297091CD9C7B060A
311
38BFEF6FAEFED82E459689BC5EDACEED75D8D93CE2721B6F511CA8B995A8ED64EC4DB6D56DC05E50762151744862F584054456B216E85EF8C1CBFACA883E547F68E5462614470C5DAF1CDBD866506AE9D2ADAD061CCC1D39759043E6466932A62B50BC7A211855A2304162940FFE05504B0304140006080000685ADC400000
311
00000000000000000000350000006662782F32324244344234382D383232332D344344432D423830452D3742414337314646304231372F76657274696365732E62696E504B0304140006080800685ADC40F270F1330600000004000000360000006662782F32324244344234382D383232332D344344432D423830452D3742
311
414337314646304231372F747269616E676C65732E62696E636660600000504B0304140006080000685ADC40000000000000000000000000370000006662782F32324244344234382D383232332D344344432D423830452D3742414337314646304231372F617474726962757465732E62696E504B0304140006080800685A
311
DC40D5987DFC8F00000041010000360000006662782F32324244344234382D383232332D344344432D423830452D3742414337314646304231372F6469726563746F72792E786D6C858F410EC2201045AF4266AF15DDB800BA74E7C21B903225242D6328188F2FA5C4183471359997F9FF81E89FF3C41E1816475E02DF1F80
311
A11FC8386F25A438EECEC07A250251FC3803E6F58C12560C4AD840E95E91C151A72936F496F35732D860FE635F62C8F2DA16B505C545B74125BAA2FA9E05D7CC053D063734D5C7665FD55B6B8D15D5E9BFEAFD8490FFA45E504B0304140006080800685ADC40FC15E01BFC000000A00100003B0000006662782F3232424434
311
4234382D383232332D344344432D423830452D3742414337314646304231372F7265736F75726365732F636F72652E786D6C8D504B6EC32010BD8AC51E1B70EC2416268A53F704BD008289831283C5A7EAF18B13576A77DD30CCFB689E1E3F7DCD8FE2137C30CEF6889604156095D3C64E3D4AF18A0FA83809EE9D8BBF64A8
311
B072861EAD30127CF22E2D1BA49C8D606346ADD3B081320488A8508FFCE951503798652953CC8A702F17A9EE7282929699CE3AC143F43940F13AB2BE4878082E790581572F56F0948CDE3446E79BE66AC023419B7160ACA678D7D033DE8DF5051F87A1C5C3FBFED20C67328CED1BAF56B3E0D1CC3F199507194123C1086598
311
B4981D3E28EDE8B1A3FBBC7684F06A95FF31A545FFD3948C8D35DBE2BE6C2167CD419E84E0D5DA571ECF32F35CBB15DF504B010214000A0000080000685ADC403DEE336E79000000790000001B00000000000000000000000000000000006175746F6465736B2D64657369676E2D7061636B6167652E786D6C504B01021400
311
140006080800685ADC40D486FD9CA0000000F40000001300000000000000000000000000B20000005B436F6E74656E745F54797065735D2E786D6C504B01021400140006080800685ADC4094FFBD2AE90000007C010000080000000000000000000000000083010000636F72652E786D6C504B01021400140006080800685A
311
DC4055019EA25F0000007C000000070000000000000000000000000092020000636E782E786D6C504B01021400140006080800685ADC40FCCEE49B65010000020300000C00000000000000000000000000160300006662782F636F72652E786D6C504B01021400140006080800685ADC402B8FE4927D0000009D0000000B00
311
000000000000000000000000A50400006662782F636E782E786D6C504B01021400140006080800685ADC40A990F48A290100001402000031000000000000000000000000004B0500006662782F32324244344234382D383232332D344344432D423830452D3742414337314646304231372F636F72652E786D6C504B010214
311
00140006080800685ADC40533E76504C010000330300003000000000000000000000000000C30600006662782F32324244344234382D383232332D344344432D423830452D3742414337314646304231372F636E782E786D6C504B01021400140006080800685ADC406E5FCA4EA40500008010000034000000000000000000
311
000000005D0800006662782F32324244344234382D383232332D344344432D423830452D3742414337314646304231372F6F626A656374732E786D6C504B01021400140006080000685ADC400000000000000000000000003500000000000000000000000000530E00006662782F32324244344234382D383232332D344344
311
432D423830452D3742414337314646304231372F76657274696365732E62696E504B01021400140006080800685ADC40F270F13306000000040000003600000000000000000000000000A60E00006662782F32324244344234382D383232332D344344432D423830452D3742414337314646304231372F747269616E676C65
311
732E62696E504B01021400140006080000685ADC400000000000000000000000003700000000000000000000000000000F00006662782F32324244344234382D383232332D344344432D423830452D3742414337314646304231372F617474726962757465732E62696E504B01021400140006080800685ADC40D5987DFC8F
311
000000410100003600000000000000000000000000550F00006662782F32324244344234382D383232332D344344432D423830452D3742414337314646304231372F6469726563746F72792E786D6C504B01021400140006080800685ADC40FC15E01BFC000000A00100003B00000000000000000000000000381000006662
311
782F32324244344234382D383232332D344344432D423830452D3742414337314646304231372F7265736F75726365732F636F72652E786D6C504B0506000000000E000E00800400008D1100000000
310
504B03040A0000080000685ADC403DEE336E79000000790000001B0000006175746F6465736B2D64657369676E2D7061636B6167652E786D6C3C3F786D6C2076657273696F6E3D22312E302220656E636F64696E673D227574662D3822203F3E3C666F726D6174733E3C666F726D61743E687474703A2F2F736368656D612E
310
6175746F6465736B2E636F6D2F64657369676E2D7061636B6167652F323030393C2F666F726D61743E3C2F666F726D6174733E504B0304140006080800685ADC40D486FD9CA0000000F4000000130000005B436F6E74656E745F54797065735D2E786D6C7D8EC10E82300C865F65E91D8A1E8C310C0EEA1BF002731658846E
310
D98AC1B77784ABF1D8FE5FBFBF75BBCE937A534CCEB38643598122B6FEE978D0B0485F9C41B54DDD7D022595594E1A469170414C76A4D9A4D207E29CF43ECE46F218070CC6BECC4078ACAA135ACF422C856C0E68EA1BF5669944DDD7BCDE7B1F8E415D77AECB980613C2E4AC91FC167A2B244592486606FC29C8FD7F045B9A
310
EF7053A7E60B504B0304140006080800685ADC4023B720CAEA0000007C01000008000000636F72652E786D6C8D904D6EC3201085AF82D8637BB013FF0813D9697B825E0001715062B00C543D7E71E248EDAEAB191EEF9B193D76FA9EEFE84BAFDE38DB63C80A8CB4954E193BF538860B69303A71B63A177ED930B262D63DDE
310
64CCD9B4BAB8EC927436681B926A9DD2BB28BCD70123794F4D8FBDBCEA59642286E4F0B76C11F226269DC1AB4B708C46A1E712A3D23C73317AC5FC3C0E1F2D1C477280A124152D6B3234EF07528E00D55B056D7DA62CDF60CE82995FFBE5AA45D00A735A0025C591D0E613A083B6833A3DBBA260F966FF03C545FD138AC686
310
92EEE73E318F39A4431E1F9CE55B16A93C824A75CB8DFF00504B0304140006080800685ADC4055019EA25F0000007C00000007000000636E782E786D6C4DCB3B0E80201045D1AD90E915ED2CF8AC45050C11660C8261F98AB1B07AC9C97D42D718D865D3E909258CFD00CCE24AC6E326A164D74DC0B4128928FF326038472B
310
A13128B1252AC747C6BAB984FC68F0B87FE8960A5C09FE86CFB69FBA01504B0304140006080800685ADC40E3E5C84B65010000020300000C0000006662782F636F72652E786D6C8D525B6E833010BC8AE57F630CE429E32849DB13F4020E3814056CE407CAF1BB3CA23455144548607676766607F8EEDA36A857D6D546E798
310
4531464A17A6AC7595E3E0CF648DD14E706B8CFFD3869196ADCAF150C68257D6846E2E15467BA53D54B529D55C94CE298F51D1C021C7AEF851AD8C64F0D0E12E51278B8BAC54C42280A14F70E72D184093C870C7E27CBA723AD5050FA12E67B42E41AD3ED7CA62713CECBF366C79200BB64F4996A42BB25F7F2E487A602CFB
310
C8D866754C381DC882FBBABDB92BAC925E955824314B48BC24C9FA9BB12DDB6CD90A5EB771CCE9D0FE400A5DF92629D4DAA7C96C77A2392C181819817FDB42441E39D9831F2A381D4284C798F063D0100884ECE5A9B9ED718152AF0A6F6C064869C21DEA651314A8C668BC389D50983C0E80CD9ECE495ECC793D033EA0D415
310
58931E8EA7E007753EA9CE5174CA92DE5F9136B695CDDDDC64F17EBF0B3DA517A631F61D369D57A5739874F87BC52F504B0304140006080800685ADC40680CA8EA7D0000009D0000000B0000006662782F636E782E786D6C4DCCD10A83201886E15B91FFDCA5CEB0408D49EE3E6259C84AC3E9D8E5AF46073BFAE0E1E395DD
310
675DD0DBA5978F4101BD10402E3CE2E8C3ACA0E40937803A2D538CF9EF06280CAB5370306839A758B69346370D65C9BB2E3E3C4FA4FCCA4CCB2CB6A2BF614EADC02D31774C0DAB7B22A8686A0E9596D5AFB4EF11D65F504B0304140006080800685ADC40E1AC8E8A2B01000014020000310000006662782F31343332423932
310
452D453744412D343145372D393042462D3142323544303731373835342F636F72652E786D6C8D51CB6EC32010FC158B537AC006ECF81161A24649BFA03F400C495162B07854F9FCAE6B476A6FB9B030CCCC8E76F9FE31DEB36FED8371B647342728D37670CAD86B8F52BCE016657BC1BD73F10F0D65568EBA47338C04BF7A
310
97A6151A9C8DDA4640AD537A0565083AA26CB8C3A54761F8D2A3CC658AC008B77C92C34D5E754E73F8069EE0217A08902D4DE613095A95ECD0B1133E35C7775CD153833B72F8C0F4C0B647D2D0A6DD56BC588482A764D42A370AE2988BD1FE5593592C7834E333FEE0B58C5A21C1086598D498B59F94EE68B7A30D3C7784F0
310
62A6FF13A549BD284AC6C692AD71175980ACBC583E04572E9DEFCF30FA31391FB3B9DF26E8E10D0992135AD26DD7D4BC58A83000F0ACABD53344E761C09BDB19D8255D8CEB4AF062DE1194DF05429DF7297E00504B0304140006080800685ADC403599B9475401000033030000300000006662782F31343332423932452D45
310
3744412D343145372D393042462D3142323544303731373835342F636E782E786D6CBD93CD6EC32010845F0571F70F4EE4BA1126520F7D821E7AC5B049686CB00057CDDB7749489A4B0E95AA5E903D3BCCAC3ED97CFB358DE4137C30CEF6949535256095D3C6EE7BBAC45DD151B215DC3B17EF6C945839414F934C05DF7BB7
310
CC59D2B093CB18511D8D3D66D143708B5710504E37C9E8941C31006CB1A008D3005A832637233EEDC0E32A280E27120F405E5FDE891B3E40C5C0AB942278953A044F676EBA3351A24619424F833AC0244BB944A7211C4B2DA32C5979ED7AB0D34F124917AE958B372495F7349D54E48D4AE4C82B1C0A1EA2477AD9144F3350
310
21E779344A46845C9D8D178FE08BB1B15D67AF41F01EDDABA6ED3A0C3BCF048F6682EC501E64044D4553B3A6A8DBA2E9DE18DBB0E70D7BC2D74D5DF32AD9051F9C1BF3258C01EF66A29C8D6023158C5769FC085FF6116D3CB276FEF40B900820B75EE8DC32FE920F6B57EBF53FF2A9CEDF37E2F2F817886F504B0304140006
310
080800685ADC4011A9A66F61070000991B0000340000006662782F31343332423932452D453744412D343145372D393042462D3142323544303731373835342F6F626A656374732E786D6CED595B73A33614FE2B0C7D691F8C4DECDC3A848EE36C329E9DECEEACBB3B7DF00C23834CD408C1482297FEFA1E5DC0404C82BBE9
310
DB3ED880908ECEF9CE5587E08FA78C3A0F980B92B30BD7F726AE83599C2784A5176E29B7A333D7F9230C789ECBC634D76128C317AE1A76C320E57959D8A1046F51496567F4FAF22F47C49861D7892912E2C215F11DCE90874A992758DC7B0992C84BB74F9EEF99896DB22947C55D87688138661238857106541CC394DF7E9C
310
B8E33018ABF761A0FEEDACE9A059B3FE59632D759B4BC284442C7EC15287CC74104B537F76F5E1E8F87C743C9B4D47B393237F74797D7935F24FA793C5C962713EFF700EEC6DF29C5A99125C609680FE9EDDD00FC6EA4D2DBA45601FD771CE188E3590009516AB4B9060015B35E09BB41F7D2551E3B596B0F13C53EF2D0B8D
310
E1699B4ADFAC6140B4E8822076BB4AE2EADA942FDFFC0D828B2146C90596C0AD901CB46BE1E1E0156E3809C666340C363B5D10E16448624E107528D970C4412930554D0903B3C09251CEC18194A324D09A33AFDBB6059EF9B6EBECE3725B52AA3CC30DB56345E07E580ACD19F907F31DF74D64802790B6244C9E592EE57381
310
DDF03C18EBC1305097E9917D698074B614A5422362DE76045D28D75F5EB9E1C7EBCDD34A8583FD9B173C2F3097CAE8941E355F60C8F6AA50B2DBFA8334A71680300654BB7207CA5740FE13448F1D2BA0374E9E664F333B5772C4C436E719E8C69938A309FC4D1C5FFFABFBC65D30AE17B7B5D78727B8A982EAECC7F16CCBA0
310
B1B2FC37E00C830730F89C4FEDAB558C28D8F32D610090321287E63004A17DBB7972C325044E08F4B00AD1D0079181DD07B80DC696CC4E2B957B59AF6380A8DD633A4449009BB64860A3474F37903D3889776A6A8AD807EFF1BB98EBFC6AF57155F22D8AF1ADF5E92BBC258C48C89AFB196A61DE92E81E3F3FE63C01415FE2
310
BD6AE29DD9AD04A0AD3057C0A71508EA61B7736B8318D6A5B90A37C11B3B80102A5737E8DF1211634A11C37959ED5B473765A8B5C7DB9AC10D8F0CC4D3A38E0973FC405455014EB39BD16214F27ECC49A14074C31B23591D34BD1EE9BE2D3F8145D6F37B662D19845E86E89F3A68EDC1A165D915D216885AE0CD2E9CC739CD
310
79B4798E4CA473A1960036DADEF2BD451462BD5192A2021EA4FDAE0A29A991364AC8765B0A88AB7B58FCBE5C34CD61E24DFD63A7F9DF71C619445BF05DC4ADDF75F6884886521C6D51D2B75D73B79AB6D0247B4873BCA520177920F23942329A24383D049A83889FBF2BF594E642108605E4ABBDE037D1987810488C362B96
310
95563B4013116558227A08028A4C0FB83AEDE81A3786D2E16D1E6BEB7D4D634DA2FF93457004B564CE2202A528E4903719F7BD6388216D740DCA1D7CC1DA2ADA5A0C5A4209113F478F98A477F210D40DF91EDC6338929432CA0B1483590F20FBC25794523BBC6F507CAFF2471497F4BD0C4460BA8D08A56516C18F3038790C
310
71ED3A30BD8A4283B8897D126750942159F2219B9C1C4F5EEC636A866E086C6CB42514C27694A1A207F55640D4F58853836FA9F7287553664584B2BC64830CC59B76BDC992EFAA55911DC8AF2A15A16CAC085B82614098ACB36A15B3C1D475600537D281EA3912282BA83985BD9178FCDA9B34E5DE0DB8F5D3F7DD2083C2AF
310
477BCD883AAB60B03CB60A03F188647CE7862B7D1D5D42FD9DE06497EAAB5AB3590102622A92979C58157D5B4279636B3437BC4552AC6F4CD6ADAEDF961E743F8231AC81DAA55EB85440679849A42A935B7543BF2208C12D1A667CA972EA2154E649A2AB4644AF499F3A5B65446BD38C78C51D6679063FB6262CA66582D728
310
11F7D1ADA4D18A28D6AD945E462A8C5F15F0F3CDAA030F8C0C10E98B2AF0F06367AD1D5DA872692F117957661B860804C19668A9D18D57B0D46AA4D2727D55670AA8BBC0C0AC8A673F4F16CD76C4CF93456A0DE3C74E1634DF20BA8B368D6C1E2BB33EE81450A72745E53D4E01BAEB5053AD9388C9E5567CEB4B11C4C42AC8
310
0F2EC6AA986108F671FC9F93765F1234DB75F83F2C69FB2F0A8E83924A6BB26A52ED295C97CD1476B9984FE6F3A30F237F7E3A1BCDA6A7A7A3B3D9F974E4FBE797D767D3F9E4F2EAA44653FB6918D4B14CA72E783631AD1A564F160368CA8A9C92040EF389936208F9128EF403BAE73CC3027267B3D79DD89EFC80D50FA6CD
310
29D186E28A933B04FD612A20AB0346652CDBE3CE2FD0999470CEBE70A167E4DDC39FB54AD781C473E142A74092180B6F035D26D5CFD3C421E3EAD46F89013E88A52A239A45F573BD4A61D38AFEF5942159C0CAD56A6140DD5640F3ABD5A0D0BC599EE28304AFD8719084DB4D29A15833B2EC066A61F4363BF51BD92861F776
310
EB2770DDD7C5F23D3DA785C8A02F06AF1A81A13A9288A7BADDAD18B32CCDAFBE8CA1CDE62C3F3B052D53D0E5704A238EC1984B554F81158155589A059260AA8BDFD75F780E5F7832471745CEAF4F6727BFAD177996E5CC0CADE770284BE03B91B3BA83AF3EC91A6A07AC7AEB627D34F18FD6BAA76DDBECD10609ECA9A20806
310
AA5A4209D23139B0CB17FD29DBBD1C2B5574A62FAF1C1B44A11760ECE8458BD77CE372C087D4D714E531DACF2B695F6D6B8FF554B0090E0DE9F05F504B0304140006080000685ADC40000000000000000000000000350000006662782F31343332423932452D453744412D343145372D393042462D31423235443037313738
310
35342F76657274696365732E62696E504B0304140006080800685ADC40F270F1330600000004000000360000006662782F31343332423932452D453744412D343145372D393042462D3142323544303731373835342F747269616E676C65732E62696E636660600000504B0304140006080000685ADC400000000000000000
310
00000000370000006662782F31343332423932452D453744412D343145372D393042462D3142323544303731373835342F617474726962757465732E62696E504B0304140006080800685ADC40D5987DFC8F00000041010000360000006662782F31343332423932452D453744412D343145372D393042462D314232354430
310
3731373835342F6469726563746F72792E786D6C858F410EC2201045AF4266AF15DDB800BA74E7C21B903225242D6328188F2FA5C4183471359997F9FF81E89FF3C41E1816475E02DF1F80A11FC8386F25A438EECEC07A250251FC3803E6F58C12560C4AD840E95E91C151A72936F496F35732D860FE635F62C8F2DA16B505
310
C545B74125BAA2FA9E05D7CC053D063734D5C7665FD55B6B8D15D5E9BFEAFD8490FFA45E504B0304140006080800685ADC404B5D7DFBFD000000A00100003B0000006662782F31343332423932452D453744412D343145372D393042462D3142323544303731373835342F7265736F75726365732F636F72652E786D6C8D50
310
4B6E833010BD0A9ABD81314920C83822697B825EC03293D44AB0237FAA1EBF26A152BBEBC6E3791FCDD31387AFF9567C920FC6D901B0ACA120ABDD64EC658014CFAC83E22085772EFE924161D54C032C304871F12EDD57483B1BC9C68C5A37D10AAA102842A16FF93340D01F34AB52A59815E15ADE95BEAA0B9558663AEBA4
310
08D1E700C5F3C8F282F4145CF29A82A89EAC14299969D59829DF3467431EE4E938BEED7137B22D8E0DDBF0A66563F7BA65CD1171F3B2C17D7BE2A25ACC524433FF64D49E54A40924AF91B37AC778F78ED8E3BEC736AF7D5D8B6A91FF31A5FBF44F533236367C8DFBB4059098833C0829AAA5AF3C1E65E6B9742BBF01504B01
310
0214000A0000080000685ADC403DEE336E79000000790000001B00000000000000000000000000000000006175746F6465736B2D64657369676E2D7061636B6167652E786D6C504B01021400140006080800685ADC40D486FD9CA0000000F40000001300000000000000000000000000B20000005B436F6E74656E745F5479
310
7065735D2E786D6C504B01021400140006080800685ADC4023B720CAEA0000007C010000080000000000000000000000000083010000636F72652E786D6C504B01021400140006080800685ADC4055019EA25F0000007C000000070000000000000000000000000093020000636E782E786D6C504B01021400140006080800
310
685ADC40E3E5C84B65010000020300000C00000000000000000000000000170300006662782F636F72652E786D6C504B01021400140006080800685ADC40680CA8EA7D0000009D0000000B00000000000000000000000000A60400006662782F636E782E786D6C504B01021400140006080800685ADC40E1AC8E8A2B010000
310
1402000031000000000000000000000000004C0500006662782F31343332423932452D453744412D343145372D393042462D3142323544303731373835342F636F72652E786D6C504B01021400140006080800685ADC403599B94754010000330300003000000000000000000000000000C60600006662782F313433324239
310
32452D453744412D343145372D393042462D3142323544303731373835342F636E782E786D6C504B01021400140006080800685ADC4011A9A66F61070000991B00003400000000000000000000000000680800006662782F31343332423932452D453744412D343145372D393042462D3142323544303731373835342F6F62
310
6A656374732E786D6C504B01021400140006080000685ADC4000000000000000000000000035000000000000000000000000001B1000006662782F31343332423932452D453744412D343145372D393042462D3142323544303731373835342F76657274696365732E62696E504B01021400140006080800685ADC40F270F1
310
33060000000400000036000000000000000000000000006E1000006662782F31343332423932452D453744412D343145372D393042462D3142323544303731373835342F747269616E676C65732E62696E504B01021400140006080000685ADC400000000000000000000000003700000000000000000000000000C8100000
310
6662782F31343332423932452D453744412D343145372D393042462D3142323544303731373835342F617474726962757465732E62696E504B01021400140006080800685ADC40D5987DFC8F0000004101000036000000000000000000000000001D1100006662782F31343332423932452D453744412D343145372D393042
310
462D3142323544303731373835342F6469726563746F72792E786D6C504B01021400140006080800685ADC404B5D7DFBFD000000A00100003B00000000000000000000000000001200006662782F31343332423932452D453744412D343145372D393042462D3142323544303731373835342F7265736F75726365732F636F
310
72652E786D6C504B0506000000000E000E0080040000561300000000
  0
XRECORD
  5
27
102
{ACAD_REACTORS
330
22
102
}
330
22
100
AcDbXrecord
280
     1
270
     1
271
     1
  0
XRECORD
  5
26
102
{ACAD_REACTORS
330
22
102
}
330
22
100
AcDbXrecord
280
     1
270
     1
271
     1
  0
XRECORD
  5
28
102
{ACAD_REACTORS
330
22
102
}
330
22
100
AcDbXrecord
280
     1
270
     1
271
     1
  0
XRECORD
  5
25
102
{ACAD_REACTORS
330
22
102
}
330
22
100
AcDbXrecord
280
     1
270
     1
271
     1
  0
XRECORD
  5
89A
102
{ACAD_REACTORS
330
899
102
}
330
899
100
AcDbXrecord
280
     1
102
ACAD_ROUNDTRIP_2012_MLEADER_STYLE
298
     1
  0
CELLSTYLEMAP
  5
898
102
{ACAD_REACTORS
330
897
102
}
330
897
100
AcDbCellStyleMap
 90
        3
300
CELLSTYLE
  1
TABLEFORMAT_BEGIN
 90
        5
170
     1
 91
        0
 92
    32768
 62
   257
 93
        1
300
CONTENTFORMAT
  1
CONTENTFORMAT_BEGIN
 90
        0
 91
        0
 92
      512
 93
        0
300

 40
0.0
140
1.0
 94
        5
 62
     0
340
55
144
0.25
309
CONTENTFORMAT_END
171
     0
 94
        0
309
TABLEFORMAT_END
  1
CELLSTYLE_BEGIN
 90
        1
 91
        1
300
_TITLE
309
CELLSTYLE_END
300
CELLSTYLE
  1
TABLEFORMAT_BEGIN
 90
        5
170
     1
 91
        0
 92
        0
 62
   257
 93
        1
300
CONTENTFORMAT
  1
CONTENTFORMAT_BEGIN
 90
        0
 91
        0
 92
      512
 93
        0
300

 40
0.0
140
1.0
 94
        5
 62
     0
340
55
144
0.18
309
CONTENTFORMAT_END
171
     0
 94
        0
309
TABLEFORMAT_END
  1
CELLSTYLE_BEGIN
 90
        2
 91
        1
300
_HEADER
309
CELLSTYLE_END
300
CELLSTYLE
  1
TABLEFORMAT_BEGIN
 90
        5
170
     1
 91
        0
 92
        0
 62
   257
 93
        1
300
CONTENTFORMAT
  1
CONTENTFORMAT_BEGIN
 90
        0
 91
        0
 92
      512
 93
        0
300

 40
0.0
140
1.0
 94
        2
 62
     0
340
55
144
0.18
309
CONTENTFORMAT_END
171
     0
 94
        0
309
TABLEFORMAT_END
  1
CELLSTYLE_BEGIN
 90
        3
 91
        2
300
_DATA
309
CELLSTYLE_END
  0
ENDSEC
  0
EOF
