  0
SECTION
  2
HEADER
  9
$ACADVER
  1
AC1015
  9
$ACADMAINTVER
 70
    18
  9
$DWGCODEPAGE
  3
ANSI_1252
  9
$INSBASE
 10
0.0
 20
0.0
 30
0.0
  9
$EXTMIN
 10
0.0
 20
0.0
 30
0.0
  9
$EXTMAX
 10
14.16666666666667
 20
9.166666666666667
 30
0.0
  9
$LIMMIN
 10
0.0
 20
0.0
  9
$LIMMAX
 10
14.16666666666667
 20
9.166666666666667
  9
$ORTHOMODE
 70
     0
  9
$REGENMODE
 70
     1
  9
$FILLMODE
 70
     1
  9
$QTEXTMODE
 70
     0
  9
$MIRRTEXT
 70
     0
  9
$LTSCALE
 40
0.8333333333333333
  9
$ATTMODE
 70
     1
  9
$TEXTSIZE
 40
0.2
  9
$TRACEWID
 40
0.05
  9
$TEXTSTYLE
  7
Standard
  9
$CLAYER
  8
0
  9
$CELTYPE
  6
ByLayer
  9
$CECOLOR
 62
   256
  9
$CELTSCALE
 40
1.0
  9
$DISPSILH
 70
     0
  9
$DIMSCALE
 40
1.0
  9
$DIMASZ
 40
0.0708661417322835
  9
$DIMEXO
 40
0.0625
  9
$DIMDLI
 40
0.38
  9
$DIMRND
 40
0.0
  9
$DIMDLE
 40
0.0
  9
$DIMEXE
 40
0.18
  9
$DIMTP
 40
0.0
  9
$DIMTM
 40
0.0
  9
$DIMTXT
 40
0.0708661417322835
  9
$DIMCEN
 40
0.09
  9
$DIMTSZ
 40
0.0
  9
$DIMTOL
 70
     0
  9
$DIMLIM
 70
     0
  9
$DIMTIH
 70
     1
  9
$DIMTOH
 70
     1
  9
$DIMSE1
 70
     0
  9
$DIMSE2
 70
     0
  9
$DIMTAD
 70
     0
  9
$DIMZIN
 70
     0
  9
$DIMBLK
  1

  9
$DIMASO
 70
     1
  9
$DIMSHO
 70
     1
  9
$DIMPOST
  1

  9
$DIMAPOST
  1

  9
$DIMALT
 70
     0
  9
$DIMALTD
 70
     2
  9
$DIMALTF
 40
25.4
  9
$DIMLFAC
 40
1.0
  9
$DIMTOFL
 70
     0
  9
$DIMTVP
 40
0.0
  9
$DIMTIX
 70
     0
  9
$DIMSOXD
 70
     0
  9
$DIMSAH
 70
     0
  9
$DIMBLK1
  1

  9
$DIMBLK2
  1

  9
$DIMSTYLE
  2
STANDARD
  9
$DIMCLRD
 70
     0
  9
$DIMCLRE
 70
     0
  9
$DIMCLRT
 70
     0
  9
$DIMTFAC
 40
1.0
  9
$DIMGAP
 40
0.09
  9
$DIMJUST
 70
     0
  9
$DIMSD1
 70
     0
  9
$DIMSD2
 70
     0
  9
$DIMTOLJ
 70
     1
  9
$DIMTZIN
 70
     0
  9
$DIMALTZ
 70
     0
  9
$DIMALTTZ
 70
     0
  9
$DIMUPT
 70
     0
  9
$DIMDEC
 70
     4
  9
$DIMTDEC
 70
     4
  9
$DIMALTU
 70
     2
  9
$DIMALTTD
 70
     2
  9
$DIMTXSTY
  7
Standard
  9
$DIMAUNIT
 70
     0
  9
$DIMADEC
 70
     0
  9
$DIMALTRND
 40
0.0
  9
$DIMAZIN
 70
     0
  9
$DIMDSEP
 70
    46
  9
$DIMATFIT
 70
     3
  9
$DIMFRAC
 70
     0
  9
$DIMLDRBLK
  1

  9
$DIMLUNIT
 70
     2
  9
$DIMLWD
 70
    -2
  9
$DIMLWE
 70
    -2
  9
$DIMTMOVE
 70
     0
  9
$LUNITS
 70
     2
  9
$LUPREC
 70
     4
  9
$SKETCHINC
 40
0.1
  9
$FILLETRAD
 40
0.0
  9
$AUNITS
 70
     0
  9
$AUPREC
 70
     0
  9
$MENU
  1
.
  9
$ELEVATION
 40
0.0
  9
$PELEVATION
 40
0.0
  9
$THICKNESS
 40
0.0
  9
$LIMCHECK
 70
     0
  9
$CHAMFERA
 40
0.0
  9
$CHAMFERB
 40
0.0
  9
$CHAMFERC
 40
0.0
  9
$CHAMFERD
 40
0.0
  9
$SKPOLY
 70
     0
  9
$TDCREATE
 40
2455950.474198935
  9
$TDUCREATE
 40
2455950.724198935
  9
$TDUPDATE
 40
2455950.474198935
  9
$TDUUPDATE
 40
2455950.724198935
  9
$TDINDWG
 40
0.0000376157
  9
$TDUSRTIMER
 40
0.0000376157
  9
$USRTIMER
 70
     1
  9
$ANGBASE
 50
0.0
  9
$ANGDIR
 70
     0
  9
$PDMODE
 70
     0
  9
$PDSIZE
 40
0.0
  9
$PLINEWID
 40
0.0
  9
$SPLFRAME
 70
     0
  9
$SPLINETYPE
 70
     6
  9
$SPLINESEGS
 70
     8
  9
$HANDSEED
  5
8CA
  9
$SURFTAB1
 70
     6
  9
$SURFTAB2
 70
     6
  9
$SURFTYPE
 70
     6
  9
$SURFU
 70
     6
  9
$SURFV
 70
     6
  9
$UCSBASE
  2

  9
$UCSNAME
  2

  9
$UCSORG
 10
0.0
 20
0.0
 30
0.0
  9
$UCSXDIR
 10
1.0
 20
0.0
 30
0.0
  9
$UCSYDIR
 10
0.0
 20
1.0
 30
0.0
  9
$UCSORTHOREF
  2

  9
$UCSORTHOVIEW
 70
     0
  9
$UCSORGTOP
 10
0.0
 20
0.0
 30
0.0
  9
$UCSORGBOTTOM
 10
0.0
 20
0.0
 30
0.0
  9
$UCSORGLEFT
 10
0.0
 20
0.0
 30
0.0
  9
$UCSORGRIGHT
 10
0.0
 20
0.0
 30
0.0
  9
$UCSORGFRONT
 10
0.0
 20
0.0
 30
0.0
  9
$UCSORGBACK
 10
0.0
 20
0.0
 30
0.0
  9
$PUCSBASE
  2

  9
$PUCSNAME
  2

  9
$PUCSORG
 10
0.0
 20
0.0
 30
0.0
  9
$PUCSXDIR
 10
1.0
 20
0.0
 30
0.0
  9
$PUCSYDIR
 10
0.0
 20
1.0
 30
0.0
  9
$PUCSORTHOREF
  2

  9
$PUCSORTHOVIEW
 70
     0
  9
$PUCSORGTOP
 10
0.0
 20
0.0
 30
0.0
  9
$PUCSORGBOTTOM
 10
0.0
 20
0.0
 30
0.0
  9
$PUCSORGLEFT
 10
0.0
 20
0.0
 30
0.0
  9
$PUCSORGRIGHT
 10
0.0
 20
0.0
 30
0.0
  9
$PUCSORGFRONT
 10
0.0
 20
0.0
 30
0.0
  9
$PUCSORGBACK
 10
0.0
 20
0.0
 30
0.0
  9
$USERI1
 70
     0
  9
$USERI2
 70
     0
  9
$USERI3
 70
     0
  9
$USERI4
 70
     0
  9
$USERI5
 70
     0
  9
$USERR1
 40
0.0
  9
$USERR2
 40
0.0
  9
$USERR3
 40
0.0
  9
$USERR4
 40
0.0
  9
$USERR5
 40
0.0
  9
$WORLDVIEW
 70
     1
  9
$SHADEDGE
 70
     3
  9
$SHADEDIF
 70
    70
  9
$TILEMODE
 70
     1
  9
$MAXACTVP
 70
    64
  9
$PINSBASE
 10
0.0
 20
0.0
 30
0.0
  9
$PLIMCHECK
 70
     0
  9
$PEXTMIN
 10
0.0
 20
0.0
 30
0.0
  9
$PEXTMAX
 10
14.16666666666667
 20
9.166666666666667
 30
0.0
  9
$PLIMMIN
 10
0.0
 20
0.0
  9
$PLIMMAX
 10
14.16666666666667
 20
9.166666666666667
  9
$UNITMODE
 70
     0
  9
$VISRETAIN
 70
     1
  9
$PLINEGEN
 70
     0
  9
$PSLTSCALE
 70
     1
  9
$TREEDEPTH
 70
  3020
  9
$CMLSTYLE
  2
Standard
  9
$CMLJUST
 70
     0
  9
$CMLSCALE
 40
1.0
  9
$PROXYGRAPHICS
 70
     1
  9
$MEASUREMENT
 70
     0
  9
$CELWEIGHT
370
    -1
  9
$ENDCAPS
280
     0
  9
$JOINSTYLE
280
     0
  9
$LWDISPLAY
290
     0
  9
$INSUNITS
 70
     1
  9
$HYPERLINKBASE
  1

  9
$STYLESHEET
  1

  9
$XEDIT
290
     1
  9
$CEPSNTYPE
380
     0
  9
$PSTYLEMODE
290
     1
  9
$FINGERPRINTGUID
  2
{04D8FFFA-FCDC-4234-AC72-7276B0277A11}
  9
$VERSIONGUID
  2
{AF4771A9-4BEB-495C-9B14-625F0B85A165}
  9
$EXTNAMES
290
     1
  9
$PSVPSCALE
 40
0.0
  9
$OLESTARTUP
290
     0
  0
ENDSEC
  0
SECTION
  2
CLASSES
  0
CLASS
  1
ACDBDICTIONARYWDFLT
  2
AcDbDictionaryWithDefault
  3
ObjectDBX Classes
 90
        0
280
     0
281
     0
  0
CLASS
  1
MATERIAL
  2
AcDbMaterial
  3
ObjectDBX Classes
 90
     1153
280
     0
281
     0
  0
CLASS
  1
VISUALSTYLE
  2
AcDbVisualStyle
  3
ObjectDBX Classes
 90
     4095
280
     0
281
     0
  0
CLASS
  1
SCALE
  2
AcDbScale
  3
ObjectDBX Classes
 90
     1153
280
     0
281
     0
  0
CLASS
  1
TABLESTYLE
  2
AcDbTableStyle
  3
ObjectDBX Classes
 90
     4095
280
     0
281
     0
  0
CLASS
  1
MLEADERSTYLE
  2
AcDbMLeaderStyle
  3
ACDB_MLEADERSTYLE_CLASS
 90
     4095
280
     0
281
     0
  0
CLASS
  1
DICTIONARYVAR
  2
AcDbDictionaryVar
  3
ObjectDBX Classes
 90
        0
280
     0
281
     0
  0
CLASS
  1
CELLSTYLEMAP
  2
AcDbCellStyleMap
  3
ObjectDBX Classes
 90
     1152
280
     0
281
     0
  0
CLASS
  1
ACDBPLACEHOLDER
  2
AcDbPlaceHolder
  3
ObjectDBX Classes
 90
        0
280
     0
281
     0
  0
CLASS
  1
LAYOUT
  2
AcDbLayout
  3
ObjectDBX Classes
 90
        0
280
     0
281
     0
  0
ENDSEC
  0
SECTION
  2
TABLES
  0
TABLE
  2
VPORT
  5
8
330
0
100
AcDbSymbolTable
 70
     1
  0
VPORT
  5
57
330
8
100
AcDbSymbolTableRecord
100
AcDbViewportTableRecord
  2
*Active
 70
     0
 10
0.0
 20
0.0
 11
1.0
 21
1.0
 12
7.083333333333333
 22
4.583333333333333
 13
0.0
 23
0.0
 14
1.0
 24
1.0
 15
0.0
 25
0.0
 16
0.0
 26
0.0
 36
1.0
 17
0.0
 27
0.0
 37
0.0
 40
9.166666666666667
 41
1.545454545454545
 42
50.0
 43
0.0
 44
0.0
 50
0.0
 51
0.0
 71
     0
 72
   100
 73
     1
 74
     1
 75
     0
 76
     0
 77
     0
 78
     0
281
     0
 65
     1
110
0.0
120
0.0
130
0.0
111
1.0
121
0.0
131
0.0
112
0.0
122
1.0
132
0.0
 79
     0
146
0.0
  0
ENDTAB
  0
TABLE
  2
LTYPE
  5
5
330
0
100
AcDbSymbolTable
 70
    59
  0
LTYPE
  5
5B
330
5
100
AcDbSymbolTableRecord
100
AcDbLinetypeTableRecord
  2
ByBlock
 70
     0
  3

 72
    65
 73
     0
 40
0.0
  0
LTYPE
  5
5C
330
5
100
AcDbSymbolTableRecord
100
AcDbLinetypeTableRecord
  2
ByLayer
 70
     0
  3

 72
    65
 73
     0
 40
0.0
  0
LTYPE
  5
5D
330
5
100
AcDbSymbolTableRecord
100
AcDbLinetypeTableRecord
  2
Continuous
 70
     0
  3
Solid line
 72
    65
 73
     0
 40
0.0
  0
LTYPE
  5
7C
330
5
100
AcDbSymbolTableRecord
100
AcDbLinetypeTableRecord
  2
BY_STANDARD
 70
     0
  3
By Standard ____________    ____    ____   _
 72
    65
 73
     6
 40
1.240299999999999
 49
0.6614
 74
     0
 49
-0.0827
 74
     0
 49
0.1654
 74
     0
 49
-0.0827
 74
     0
 49
0.1654
 74
     0
 49
-0.0827
 74
     0
  0
LTYPE
  5
7D
330
5
100
AcDbSymbolTableRecord
100
AcDbLinetypeTableRecord
  2
CHAIN
 70
     0
  3
Chain ____ _ ____ _ ____ _ ____ _ ____ _ ____
 72
    65
 73
     4
 40
0.7087
 49
0.4724000000000001
 74
     0
 49
-0.0591
 74
     0
 49
0.1181
 74
     0
 49
-0.0591
 74
     0
  0
LTYPE
  5
7E
330
5
100
AcDbSymbolTableRecord
100
AcDbLinetypeTableRecord
  2
DASH_DOT
 70
     0
  3
Dash dot __ . __ . __ . __ . __ . __ . __ . __
 72
    65
 73
     4
 40
0.37
 49
0.24
 74
     0
 49
-0.06
 74
     0
 49
0.01
 74
     0
 49
-0.06
 74
     0
  0
LTYPE
  5
7F
330
5
100
AcDbSymbolTableRecord
100
AcDbLinetypeTableRecord
  2
DOUBLE_DASH_DOT
 70
     0
  3
Double-Dash Dot __ __ . __ __ . __ __ . __ _
 72
    65
 73
     6
 40
0.4398
 49
0.24
 74
     0
 49
-0.06
 74
     0
 49
0.0098
 74
     0
 49
-0.06
 74
     0
 49
0.01
 74
     0
 49
-0.06
 74
     0
  0
LTYPE
  5
80
330
5
100
AcDbSymbolTableRecord
100
AcDbLinetypeTableRecord
  2
DASH_TRIPLE_DOT
 70
     0
  3
Dash Triple-Dot _ . . . _ . . . _ . . . _
 72
    65
 73
     8
 40
0.51
 49
0.24
 74
     0
 49
-0.06
 74
     0
 49
0.01
 74
     0
 49
-0.06
 74
     0
 49
0.01
 74
     0
 49
-0.06
 74
     0
 49
0.01
 74
     0
 49
-0.06
 74
     0
  0
LTYPE
  5
81
330
5
100
AcDbSymbolTableRecord
100
AcDbLinetypeTableRecord
  2
DASHED
 70
     0
  3
Dashed __ __ __ __ __ __ __ __ __ __ __ __ __ _
 72
    65
 73
     2
 40
0.2067
 49
0.1654
 74
     0
 49
-0.0413
 74
     0
  0
LTYPE
  5
82
330
5
100
AcDbSymbolTableRecord
100
AcDbLinetypeTableRecord
  2
DASH_DOUBLE_DOT
 70
     0
  3
Dash Double-Dot __ . . __ . . __ . . __ . .
 72
    65
 73
     6
 40
0.4398
 49
0.24
 74
     0
 49
-0.06
 74
     0
 49
0.0098
 74
     0
 49
-0.06
 74
     0
 49
0.01
 74
     0
 49
-0.06
 74
     0
  0
LTYPE
  5
83
330
5
100
AcDbSymbolTableRecord
100
AcDbLinetypeTableRecord
  2
DASHED_SPACE
 70
     0
  3
Dashed Space __ __ __ __ __ __ __ __ __ __ __ _
 72
    65
 73
     2
 40
0.2067
 49
0.1654
 74
     0
 49
-0.0413
 74
     0
  0
LTYPE
  5
84
330
5
100
AcDbSymbolTableRecord
100
AcDbLinetypeTableRecord
  2
DOTTED
 70
     0
  3
Dotted . . . . . . . . . . . . . . . . . . . . 
 72
    65
 73
     2
 40
0.0482
 49
0.0069
 74
     0
 49
-0.0413
 74
     0
  0
LTYPE
  5
85
330
5
100
AcDbSymbolTableRecord
100
AcDbLinetypeTableRecord
  2
DOUBLE_DASH_CHAIN
 70
     0
  3
Double-Dash Chain ______  __  __  ______  __  _
 72
    65
 73
     6
 40
1.240299999999999
 49
0.6614
 74
     0
 49
-0.0827
 74
     0
 49
0.1654
 74
     0
 49
-0.0827
 74
     0
 49
0.1654
 74
     0
 49
-0.0827
 74
     0
  0
LTYPE
  5
87
330
5
100
AcDbSymbolTableRecord
100
AcDbLinetypeTableRecord
  2
DOUBLE_DASH_DOUBLE_DOT
 70
     0
  3
Double-Dash Double-dot _ _ . . _ _ . . _
 72
    65
 73
     8
 40
0.7400000000000001
 49
0.24
 74
     0
 49
-0.06
 74
     0
 49
0.24
 74
     0
 49
-0.06
 74
     0
 49
0.01
 74
     0
 49
-0.06
 74
     0
 49
0.01
 74
     0
 49
-0.06
 74
     0
  0
LTYPE
  5
88
330
5
100
AcDbSymbolTableRecord
100
AcDbLinetypeTableRecord
  2
DOUBLE_DASH_TRIPLE_DOT
 70
     0
  3
Double Dash Triple Dot __ __ . . . __ __ . .
 72
    65
 73
    10
 40
0.8100000000000001
 49
0.24
 74
     0
 49
-0.06
 74
     0
 49
0.24
 74
     0
 49
-0.06
 74
     0
 49
0.01
 74
     0
 49
-0.06
 74
     0
 49
0.01
 74
     0
 49
-0.06
 74
     0
 49
0.01
 74
     0
 49
-0.06
 74
     0
  0
LTYPE
  5
89
330
5
100
AcDbSymbolTableRecord
100
AcDbLinetypeTableRecord
  2
LONG_DASH_DOTTED
 70
     0
  3
Long Dash Dotted ____ . ____ . ____ . ____ . _
 72
    65
 73
     4
 40
0.3543
 49
0.2362
 74
     0
 49
-0.0295
 74
     0
 49
0.0591
 74
     0
 49
-0.0295
 74
     0
  0
LTYPE
  5
8A
330
5
100
AcDbSymbolTableRecord
100
AcDbLinetypeTableRecord
  2
LONG_DASH_DOUBLE_DOT
 70
     0
  3
Long Dash Double Dot ________  .  .  ________  
 72
    65
 73
     6
 40
0.6799999999999999
 49
0.48
 74
     0
 49
-0.06
 74
     0
 49
0.01
 74
     0
 49
-0.06
 74
     0
 49
0.01
 74
     0
 49
-0.06
 74
     0
  0
LTYPE
  5
8B
330
5
100
AcDbSymbolTableRecord
100
AcDbLinetypeTableRecord
  2
LONG_DASH_TRIPLE_DOT
 70
     0
  3
Long Dash Triple Dot ____ ... ____ ... ____
 72
    65
 73
     8
 40
0.3689
 49
0.2362
 74
     0
 49
-0.0295
 74
     0
 49
0.0049
 74
     0
 49
-0.0295
 74
     0
 49
0.0049
 74
     0
 49
-0.0295
 74
     0
 49
0.0049
 74
     0
 49
-0.0295
 74
     0
  0
LTYPE
  5
8C
330
5
100
AcDbSymbolTableRecord
100
AcDbLinetypeTableRecord
  2
BORDER
 70
     0
  3
Border __ __ . __ __ . __ __ . __ __ . __ __ .
 72
    65
 73
     6
 40
1.75
 49
0.5
 74
     0
 49
-0.25
 74
     0
 49
0.5
 74
     0
 49
-0.25
 74
     0
 49
0.0
 74
     0
 49
-0.25
 74
     0
  0
LTYPE
  5
8D
330
5
100
AcDbSymbolTableRecord
100
AcDbLinetypeTableRecord
  2
BORDER2
 70
     0
  3
Border (.5x) __.__.__.__.__.__.__.__.__.__.__.
 72
    65
 73
     6
 40
0.875
 49
0.25
 74
     0
 49
-0.125
 74
     0
 49
0.25
 74
     0
 49
-0.125
 74
     0
 49
0.0
 74
     0
 49
-0.125
 74
     0
  0
LTYPE
  5
8E
330
5
100
AcDbSymbolTableRecord
100
AcDbLinetypeTableRecord
  2
BORDERX2
 70
     0
  3
Border (2x) ____  ____  .  ____  ____  .  ___
 72
    65
 73
     6
 40
3.5
 49
1.0
 74
     0
 49
-0.5
 74
     0
 49
1.0
 74
     0
 49
-0.5
 74
     0
 49
0.0
 74
     0
 49
-0.5
 74
     0
  0
LTYPE
  5
8F
330
5
100
AcDbSymbolTableRecord
100
AcDbLinetypeTableRecord
  2
CENTER
 70
     0
  3
Center ____ _ ____ _ ____ _ ____ _ ____ _ ____
 72
    65
 73
     4
 40
2.0
 49
1.25
 74
     0
 49
-0.25
 74
     0
 49
0.25
 74
     0
 49
-0.25
 74
     0
  0
LTYPE
  5
90
330
5
100
AcDbSymbolTableRecord
100
AcDbLinetypeTableRecord
  2
CENTER2
 70
     0
  3
Center (.5x) ___ _ ___ _ ___ _ ___ _ ___ _ ___
 72
    65
 73
     4
 40
1.125
 49
0.75
 74
     0
 49
-0.125
 74
     0
 49
0.125
 74
     0
 49
-0.125
 74
     0
  0
LTYPE
  5
91
330
5
100
AcDbSymbolTableRecord
100
AcDbLinetypeTableRecord
  2
CENTERX2
 70
     0
  3
Center (2x) ________  __  ________  __  _____
 72
    65
 73
     4
 40
4.0
 49
2.5
 74
     0
 49
-0.5
 74
     0
 49
0.5
 74
     0
 49
-0.5
 74
     0
  0
LTYPE
  5
92
330
5
100
AcDbSymbolTableRecord
100
AcDbLinetypeTableRecord
  2
DASHDOT2
 70
     0
  3
Dash dot (.5x) _._._._._._._._._._._._._._._.
 72
    65
 73
     4
 40
0.5
 49
0.25
 74
     0
 49
-0.125
 74
     0
 49
0.0
 74
     0
 49
-0.125
 74
     0
  0
LTYPE
  5
93
330
5
100
AcDbSymbolTableRecord
100
AcDbLinetypeTableRecord
  2
DASHDOTX2
 70
     0
  3
Dash dot (2x) ____  .  ____  .  ____  .  ___
 72
    65
 73
     4
 40
2.0
 49
1.0
 74
     0
 49
-0.5
 74
     0
 49
0.0
 74
     0
 49
-0.5
 74
     0
  0
LTYPE
  5
95
330
5
100
AcDbSymbolTableRecord
100
AcDbLinetypeTableRecord
  2
DASHED2
 70
     0
  3
Dashed (.5x) _ _ _ _ _ _ _ _ _ _ _ _ _ _ _ _ _
 72
    65
 73
     2
 40
0.375
 49
0.25
 74
     0
 49
-0.125
 74
     0
  0
LTYPE
  5
96
330
5
100
AcDbSymbolTableRecord
100
AcDbLinetypeTableRecord
  2
DASHEDX2
 70
     0
  3
Dashed (2x) ____  ____  ____  ____  ____  ___
 72
    65
 73
     2
 40
1.5
 49
1.0
 74
     0
 49
-0.5
 74
     0
  0
LTYPE
  5
97
330
5
100
AcDbSymbolTableRecord
100
AcDbLinetypeTableRecord
  2
DIVIDE
 70
     0
  3
Divide ____ . . ____ . . ____ . . ____ . . ____
 72
    65
 73
     6
 40
1.25
 49
0.5
 74
     0
 49
-0.25
 74
     0
 49
0.0
 74
     0
 49
-0.25
 74
     0
 49
0.0
 74
     0
 49
-0.25
 74
     0
  0
LTYPE
  5
98
330
5
100
AcDbSymbolTableRecord
100
AcDbLinetypeTableRecord
  2
DIVIDE2
 70
     0
  3
Divide (.5x) __..__..__..__..__..__..__..__.._
 72
    65
 73
     6
 40
0.625
 49
0.25
 74
     0
 49
-0.125
 74
     0
 49
0.0
 74
     0
 49
-0.125
 74
     0
 49
0.0
 74
     0
 49
-0.125
 74
     0
  0
LTYPE
  5
99
330
5
100
AcDbSymbolTableRecord
100
AcDbLinetypeTableRecord
  2
DIVIDEX2
 70
     0
  3
Divide (2x) ________  .  .  ________  .  .  _
 72
    65
 73
     6
 40
2.5
 49
1.0
 74
     0
 49
-0.5
 74
     0
 49
0.0
 74
     0
 49
-0.5
 74
     0
 49
0.0
 74
     0
 49
-0.5
 74
     0
  0
LTYPE
  5
9A
330
5
100
AcDbSymbolTableRecord
100
AcDbLinetypeTableRecord
  2
DOT
 70
     0
  3
Dot . . . . . . . . . . . . . . . . . . . . . .
 72
    65
 73
     2
 40
0.25
 49
0.0
 74
     0
 49
-0.25
 74
     0
  0
LTYPE
  5
9B
330
5
100
AcDbSymbolTableRecord
100
AcDbLinetypeTableRecord
  2
DOT2
 70
     0
  3
Dot (.5x) .....................................
 72
    65
 73
     2
 40
0.125
 49
0.0
 74
     0
 49
-0.125
 74
     0
  0
LTYPE
  5
9C
330
5
100
AcDbSymbolTableRecord
100
AcDbLinetypeTableRecord
  2
DOTX2
 70
     0
  3
Dot (2x) .  .  .  .  .  .  .  .  .  .  .  .  . 
 72
    65
 73
     2
 40
0.5
 49
0.0
 74
     0
 49
-0.5
 74
     0
  0
LTYPE
  5
9D
330
5
100
AcDbSymbolTableRecord
100
AcDbLinetypeTableRecord
  2
HIDDEN
 70
     0
  3
Hidden __ __ __ __ __ __ __ __ __ __ __ __ __ _
 72
    65
 73
     2
 40
0.375
 49
0.25
 74
     0
 49
-0.125
 74
     0
  0
LTYPE
  5
9E
330
5
100
AcDbSymbolTableRecord
100
AcDbLinetypeTableRecord
  2
HIDDEN2
 70
     0
  3
Hidden (.5x) _ _ _ _ _ _ _ _ _ _ _ _ _ _ _ _ _
 72
    65
 73
     2
 40
0.1875
 49
0.125
 74
     0
 49
-0.0625
 74
     0
  0
LTYPE
  5
9F
330
5
100
AcDbSymbolTableRecord
100
AcDbLinetypeTableRecord
  2
HIDDENX2
 70
     0
  3
Hidden (2x) ____ ____ ____ ____ ____ ____ ____
 72
    65
 73
     2
 40
0.75
 49
0.5
 74
     0
 49
-0.25
 74
     0
  0
LTYPE
  5
A0
330
5
100
AcDbSymbolTableRecord
100
AcDbLinetypeTableRecord
  2
PHANTOM
 70
     0
  3
Phantom ______  __  __  ______  __  __  ______
 72
    65
 73
     6
 40
2.5
 49
1.25
 74
     0
 49
-0.25
 74
     0
 49
0.25
 74
     0
 49
-0.25
 74
     0
 49
0.25
 74
     0
 49
-0.25
 74
     0
  0
LTYPE
  5
A1
330
5
100
AcDbSymbolTableRecord
100
AcDbLinetypeTableRecord
  2
PHANTOM2
 70
     0
  3
Phantom (.5x) ___ _ _ ___ _ _ ___ _ _ ___ _ _
 72
    65
 73
     6
 40
1.25
 49
0.625
 74
     0
 49
-0.125
 74
     0
 49
0.125
 74
     0
 49
-0.125
 74
     0
 49
0.125
 74
     0
 49
-0.125
 74
     0
  0
LTYPE
  5
A2
330
5
100
AcDbSymbolTableRecord
100
AcDbLinetypeTableRecord
  2
PHANTOMX2
 70
     0
  3
Phantom (2x) ____________    ____    ____   _
 72
    65
 73
     6
 40
5.0
 49
2.5
 74
     0
 49
-0.5
 74
     0
 49
0.5
 74
     0
 49
-0.5
 74
     0
 49
0.5
 74
     0
 49
-0.5
 74
     0
  0
LTYPE
  5
A3
330
5
100
AcDbSymbolTableRecord
100
AcDbLinetypeTableRecord
  2
ACAD_ISO02W100
 70
     0
  3
ISO dash __ __ __ __ __ __ __ __ __ __ __ __ __
 72
    65
 73
     2
 40
0.59
 49
0.47
 74
     0
 49
-0.12
 74
     0
  0
LTYPE
  5
A4
330
5
100
AcDbSymbolTableRecord
100
AcDbLinetypeTableRecord
  2
ACAD_ISO03W100
 70
     0
  3
ISO dash space __    __    __    __    __    __
 72
    65
 73
     2
 40
1.179999999999999
 49
0.47
 74
     0
 49
-0.71
 74
     0
  0
LTYPE
  5
A5
330
5
100
AcDbSymbolTableRecord
100
AcDbLinetypeTableRecord
  2
ACAD_ISO04W100
 70
     0
  3
ISO long-dash dot ____ . ____ . ____ . ____ . _
 72
    65
 73
     4
 40
1.179999999999999
 49
0.9399999999999998
 74
     0
 49
-0.12
 74
     0
 49
0.0
 74
     0
 49
-0.12
 74
     0
  0
LTYPE
  5
A6
330
5
100
AcDbSymbolTableRecord
100
AcDbLinetypeTableRecord
  2
ACAD_ISO05W100
 70
     0
  3
ISO long-dash double-dot ____ .. ____ .. ____ .
 72
    65
 73
     6
 40
1.299999999999999
 49
0.9399999999999998
 74
     0
 49
-0.12
 74
     0
 49
0.0
 74
     0
 49
-0.12
 74
     0
 49
0.0
 74
     0
 49
-0.12
 74
     0
  0
LTYPE
  5
A7
330
5
100
AcDbSymbolTableRecord
100
AcDbLinetypeTableRecord
  2
ACAD_ISO06W100
 70
     0
  3
ISO long-dash triple-dot ____ ... ____ ... ____
 72
    65
 73
     8
 40
1.419999999999999
 49
0.9399999999999998
 74
     0
 49
-0.12
 74
     0
 49
0.0
 74
     0
 49
-0.12
 74
     0
 49
0.0
 74
     0
 49
-0.12
 74
     0
 49
0.0
 74
     0
 49
-0.12
 74
     0
  0
LTYPE
  5
A8
330
5
100
AcDbSymbolTableRecord
100
AcDbLinetypeTableRecord
  2
ACAD_ISO07W100
 70
     0
  3
ISO dot . . . . . . . . . . . . . . . . . . . .
 72
    65
 73
     2
 40
0.12
 49
0.0
 74
     0
 49
-0.12
 74
     0
  0
LTYPE
  5
A9
330
5
100
AcDbSymbolTableRecord
100
AcDbLinetypeTableRecord
  2
ACAD_ISO08W100
 70
     0
  3
ISO long-dash short-dash ____ __ ____ __ ____ _
 72
    65
 73
     4
 40
0.95
 49
0.47
 74
     0
 49
-0.12
 74
     0
 49
0.24
 74
     0
 49
-0.12
 74
     0
  0
LTYPE
  5
AA
330
5
100
AcDbSymbolTableRecord
100
AcDbLinetypeTableRecord
  2
ACAD_ISO09W100
 70
     0
  3
ISO long-dash double-short-dash ____ __ __ ____
 72
    65
 73
     6
 40
1.31
 49
0.47
 74
     0
 49
-0.12
 74
     0
 49
0.24
 74
     0
 49
-0.12
 74
     0
 49
0.24
 74
     0
 49
-0.12
 74
     0
  0
LTYPE
  5
AB
330
5
100
AcDbSymbolTableRecord
100
AcDbLinetypeTableRecord
  2
ACAD_ISO10W100
 70
     0
  3
ISO dash dot __ . __ . __ . __ . __ . __ . __ .
 72
    65
 73
     4
 40
0.71
 49
0.47
 74
     0
 49
-0.12
 74
     0
 49
0.0
 74
     0
 49
-0.12
 74
     0
  0
LTYPE
  5
AC
330
5
100
AcDbSymbolTableRecord
100
AcDbLinetypeTableRecord
  2
ACAD_ISO11W100
 70
     0
  3
ISO double-dash dot __ __ . __ __ . __ __ . __ 
 72
    65
 73
     6
 40
1.299999999999999
 49
0.47
 74
     0
 49
-0.12
 74
     0
 49
0.47
 74
     0
 49
-0.12
 74
     0
 49
0.0
 74
     0
 49
-0.12
 74
     0
  0
LTYPE
  5
AD
330
5
100
AcDbSymbolTableRecord
100
AcDbLinetypeTableRecord
  2
ACAD_ISO12W100
 70
     0
  3
ISO dash double-dot __ . . __ . . __ . . __ . .
 72
    65
 73
     6
 40
0.8299999999999998
 49
0.47
 74
     0
 49
-0.12
 74
     0
 49
0.0
 74
     0
 49
-0.12
 74
     0
 49
0.0
 74
     0
 49
-0.12
 74
     0
  0
LTYPE
  5
AE
330
5
100
AcDbSymbolTableRecord
100
AcDbLinetypeTableRecord
  2
ACAD_ISO13W100
 70
     0
  3
ISO double-dash double-dot __ __ . . __ __ . . 
 72
    65
 73
     8
 40
1.419999999999999
 49
0.47
 74
     0
 49
-0.12
 74
     0
 49
0.47
 74
     0
 49
-0.12
 74
     0
 49
0.0
 74
     0
 49
-0.12
 74
     0
 49
0.0
 74
     0
 49
-0.12
 74
     0
  0
LTYPE
  5
AF
330
5
100
AcDbSymbolTableRecord
100
AcDbLinetypeTableRecord
  2
ACAD_ISO14W100
 70
     0
  3
ISO dash triple-dot __ . . . __ . . . __ . . . 
 72
    65
 73
     8
 40
0.95
 49
0.47
 74
     0
 49
-0.12
 74
     0
 49
0.0
 74
     0
 49
-0.12
 74
     0
 49
0.0
 74
     0
 49
-0.12
 74
     0
 49
0.0
 74
     0
 49
-0.12
 74
     0
  0
LTYPE
  5
B0
330
5
100
AcDbSymbolTableRecord
100
AcDbLinetypeTableRecord
  2
ACAD_ISO15W100
 70
     0
  3
ISO double-dash triple-dot __ __ . . . __ __ . 
 72
    65
 73
    10
 40
1.539999999999999
 49
0.47
 74
     0
 49
-0.12
 74
     0
 49
0.47
 74
     0
 49
-0.12
 74
     0
 49
0.0
 74
     0
 49
-0.12
 74
     0
 49
0.0
 74
     0
 49
-0.12
 74
     0
 49
0.0
 74
     0
 49
-0.12
 74
     0
  0
LTYPE
  5
B3
330
5
100
AcDbSymbolTableRecord
100
AcDbLinetypeTableRecord
  2
FENCELINE1
 70
     0
  3
Fenceline circle ----0-----0----0-----0----0---
 72
    65
 73
     4
 40
1.45
 49
0.25
 74
     0
 49
-0.1
 74
     4
 75
   133
340
B2
 46
0.1
 50
0.0
 44
-0.1
 45
0.0
 49
-0.1
 74
     0
 49
1.0
 74
     0
  0
LTYPE
  5
B4
330
5
100
AcDbSymbolTableRecord
100
AcDbLinetypeTableRecord
  2
FENCELINE2
 70
     0
  3
Fenceline square ----[]-----[]----[]-----[]----
 72
    65
 73
     4
 40
1.45
 49
0.25
 74
     0
 49
-0.1
 74
     4
 75
   132
340
B2
 46
0.1
 50
0.0
 44
-0.1
 45
0.0
 49
-0.1
 74
     0
 49
1.0
 74
     0
  0
LTYPE
  5
B5
330
5
100
AcDbSymbolTableRecord
100
AcDbLinetypeTableRecord
  2
TRACKS
 70
     0
  3
Tracks -|-|-|-|-|-|-|-|-|-|-|-|-|-|-|-|-|-|-|-|
 72
    65
 73
     2
 40
0.3
 49
0.15
 74
     4
 75
   130
340
B2
 46
0.25
 50
0.0
 44
0.0
 45
0.0
 49
0.15
 74
     0
  0
LTYPE
  5
B6
330
5
100
AcDbSymbolTableRecord
100
AcDbLinetypeTableRecord
  2
BATTING
 70
     0
  3
Batting SSSSSSSSSSSSSSSSSSSSSSSSSSSSSSSSSSSSSSS
 72
    65
 73
     4
 40
0.4001000000000001
 49
0.0001
 74
     0
 49
-0.1
 74
     4
 75
   134
340
B2
 46
0.1
 50
0.0
 44
-0.1
 45
0.0
 49
-0.2
 74
     4
 75
   134
340
B2
 46
0.1
 50
180.0
 44
0.1
 45
0.0
 49
-0.1
 74
     0
  0
LTYPE
  5
B7
330
5
100
AcDbSymbolTableRecord
100
AcDbLinetypeTableRecord
  2
HOT_WATER_SUPPLY
 70
     0
  3
Hot water supply ---- HW ---- HW ---- HW ----
 72
    65
 73
     3
 40
0.9
 49
0.5
 74
     0
 49
-0.2
 74
     2
 75
     0
340
55
 46
0.1
 50
0.0
 44
-0.1
 45
-0.05
  9
HW
 49
-0.2
 74
     0
  0
LTYPE
  5
B8
330
5
100
AcDbSymbolTableRecord
100
AcDbLinetypeTableRecord
  2
GAS_LINE
 70
     0
  3
Gas line ----GAS----GAS----GAS----GAS----GAS---
 72
    65
 73
     3
 40
0.95
 49
0.5
 74
     0
 49
-0.2
 74
     2
 75
     0
340
55
 46
0.1
 50
0.0
 44
-0.1
 45
-0.05
  9
GAS
 49
-0.25
 74
     0
  0
LTYPE
  5
B9
330
5
100
AcDbSymbolTableRecord
100
AcDbLinetypeTableRecord
  2
ZIGZAG
 70
     0
  3
Zig zag /\/\/\/\/\/\/\/\/\/\/\/\/\/\/\/\/\/\/\/
 72
    65
 73
     4
 40
0.8001000000000001
 49
0.0001
 74
     0
 49
-0.2
 74
     4
 75
   131
340
B2
 46
0.2
 50
0.0
 44
-0.2
 45
0.0
 49
-0.4
 74
     4
 75
   131
340
B2
 46
0.2
 50
180.0
 44
0.2
 45
0.0
 49
-0.2
 74
     0
  0
ENDTAB
  0
TABLE
  2
LAYER
  5
2
330
0
100
AcDbSymbolTable
 70
    27
  0
LAYER
  5
54
330
2
100
AcDbSymbolTableRecord
100
AcDbLayerTableRecord
  2
0
 70
     0
 62
     7
  6
Continuous
370
    18
390
F
  0
LAYER
  5
C3
330
2
100
AcDbSymbolTableRecord
100
AcDbLayerTableRecord
  2
Dimension (ANSI)
 70
     0
 62
     7
  6
Continuous
370
    13
390
F
  0
LAYER
  5
C5
330
2
100
AcDbSymbolTableRecord
100
AcDbLayerTableRecord
  2
Hidden (ANSI)
 70
     0
 62
     7
  6
DASHED
370
    15
390
F
  0
LAYER
  5
CC
330
2
100
AcDbSymbolTableRecord
100
AcDbLayerTableRecord
  2
Symbol (ANSI)
 70
     0
 62
     7
  6
Continuous
370
    18
390
F
  0
LAYER
  5
CF
330
2
100
AcDbSymbolTableRecord
100
AcDbLayerTableRecord
  2
Visible (ANSI)
 70
     0
 62
     7
  6
Continuous
370
    13
390
F
  0
LAYER
  5
D0
330
2
100
AcDbSymbolTableRecord
100
AcDbLayerTableRecord
  2
Visible Narrow (ANSI)
 70
     0
 62
     7
  6
Continuous
370
    18
390
F
  0
LAYER
  5
146
330
2
100
AcDbSymbolTableRecord
100
AcDbLayerTableRecord
  2
Defpoints
 70
     0
 62
     7
  6
Continuous
290
     0
370
    -3
390
F
  0
ENDTAB
  0
TABLE
  2
STYLE
  5
3
330
0
100
AcDbSymbolTable
 70
    18
  0
STYLE
  5
55
330
3
100
AcDbSymbolTableRecord
100
AcDbTextStyleTableRecord
  2
Standard
 70
     0
 40
0.0
 41
1.0
 50
0.0
 71
     0
 42
0.2
  3
txt
  4

  0
STYLE
  5
5A
330
3
100
AcDbSymbolTableRecord
100
AcDbTextStyleTableRecord
  2
Annotative
 70
     0
 40
0.0
 41
1.0
 50
0.0
 71
     0
 42
0.2
  3
txt
  4

1001
AcadAnnotative
1000
AnnotativeData
1002
{
1070
     1
1070
     1
1002
}
  0
STYLE
  5
B2
330
3
100
AcDbSymbolTableRecord
100
AcDbTextStyleTableRecord
  2

 70
     1
 40
0.0
 41
1.0
 50
0.0
 71
     0
 42
0.2
  3
ltypeshp.shx
  4

  0
STYLE
  5
D4
330
3
100
AcDbSymbolTableRecord
100
AcDbTextStyleTableRecord
  2
ITALICC_120
 70
     0
 40
0.0
 41
1.0
 50
0.0
 71
     0
 42
0.2
  3
italicc.shx
  4

  0
STYLE
  5
D5
330
3
100
AcDbSymbolTableRecord
100
AcDbTextStyleTableRecord
  2
Label Text (ANSI)
 70
     0
 40
0.0
 41
1.0
 50
0.0
 71
     0
 42
0.2
  3
TAHOMA.TTF
  4

1001
ACAD
1000
Tahoma
1071
      256
  0
STYLE
  5
D6
330
3
100
AcDbSymbolTableRecord
100
AcDbTextStyleTableRecord
  2
Note Text (ANSI)
 70
     0
 40
0.0
 41
1.0
 50
0.0
 71
     0
 42
0.2
  3
TAHOMA.TTF
  4

1001
ACAD
1000
Tahoma
1071
      256
  0
STYLE
  5
D7
330
3
100
AcDbSymbolTableRecord
100
AcDbTextStyleTableRecord
  2
ROMANS
 70
     0
 40
0.0
 41
1.0
 50
0.0
 71
     0
 42
0.2
  3
romans.shx
  4

  0
STYLE
  5
D8
330
3
100
AcDbSymbolTableRecord
100
AcDbTextStyleTableRecord
  2
SANSSERIF_114
 70
     0
 40
0.0
 41
1.0
 50
0.0
 71
     0
 42
0.2
  3
TAHOMA.TTF
  4

1001
ACAD
1000
Tahoma
1071
      256
  0
STYLE
  5
D9
330
3
100
AcDbSymbolTableRecord
100
AcDbTextStyleTableRecord
  2
SANSSERIF_117
 70
     0
 40
0.0
 41
1.0
 50
0.0
 71
     0
 42
0.2
  3
TAHOMA.TTF
  4

1001
ACAD
1000
Tahoma
1071
      256
  0
STYLE
  5
DA
330
3
100
AcDbSymbolTableRecord
100
AcDbTextStyleTableRecord
  2
STANDARDAM_ANSI
 70
     0
 40
0.0
 41
1.0
 50
0.0
 71
     0
 42
0.2
  3
txt.shx
  4

  0
STYLE
  5
DB
330
3
100
AcDbSymbolTableRecord
100
AcDbTextStyleTableRecord
  2
StandardAM_ANSI$0
 70
     0
 40
0.0
 41
1.0
 50
0.0
 71
     0
 42
0.2
  3
txt.shx
  4

  0
STYLE
  5
DC
330
3
100
AcDbSymbolTableRecord
100
AcDbTextStyleTableRecord
  2
STANDARDAM_ANSI$3
 70
     0
 40
0.0
 41
1.0
 50
0.0
 71
     0
 42
0.2
  3
txt.shx
  4

  0
STYLE
  5
DD
330
3
100
AcDbSymbolTableRecord
100
AcDbTextStyleTableRecord
  2
STANDARDAM_ANSI$4
 70
     0
 40
0.0
 41
1.0
 50
0.0
 71
     0
 42
0.2
  3
txt.shx
  4

  0
STYLE
  5
DE
330
3
100
AcDbSymbolTableRecord
100
AcDbTextStyleTableRecord
  2
STANDARDAM_ANSI$7
 70
     0
 40
0.0
 41
1.0
 50
0.0
 71
     0
 42
0.2
  3
txt.shx
  4

  0
STYLE
  5
DF
330
3
100
AcDbSymbolTableRecord
100
AcDbTextStyleTableRecord
  2
STANDARDAM_ANSI$SF
 70
     0
 40
0.0
 41
1.0
 50
0.0
 71
     0
 42
0.2
  3
txt.shx
  4

  0
STYLE
  5
E0
330
3
100
AcDbSymbolTableRecord
100
AcDbTextStyleTableRecord
  2
STANDARDAM_ANSI$SH
 70
     0
 40
0.0
 41
1.0
 50
0.0
 71
     0
 42
0.2
  3
txt.shx
  4

  0
STYLE
  5
E1
330
3
100
AcDbSymbolTableRecord
100
AcDbTextStyleTableRecord
  2
STANDARDSTANDARD
 70
     0
 40
0.0
 41
1.0
 50
0.0
 71
     0
 42
0.2
  3
txt.shx
  4

  0
STYLE
  5
132
330
3
100
AcDbSymbolTableRecord
100
AcDbTextStyleTableRecord
  2
Text Style150
 70
     0
 40
0.0
 41
1.0
 50
0.0
 71
     0
 42
0.2
  3
TAHOMA.TTF
  4

1001
ACAD
1000
Tahoma
1071
      256
  0
ENDTAB
  0
TABLE
  2
VIEW
  5
6
330
0
100
AcDbSymbolTable
 70
     0
  0
ENDTAB
  0
TABLE
  2
UCS
  5
7
330
0
100
AcDbSymbolTable
 70
     0
  0
ENDTAB
  0
TABLE
  2
APPID
  5
9
330
0
100
AcDbSymbolTable
 70
     4
  0
APPID
  5
56
330
9
100
AcDbSymbolTableRecord
100
AcDbRegAppTableRecord
  2
ACAD
 70
     0
  0
APPID
  5
5E
330
9
100
AcDbSymbolTableRecord
100
AcDbRegAppTableRecord
  2
AcadAnnotative
 70
     0
  0
APPID
  5
788
330
9
100
AcDbSymbolTableRecord
100
AcDbRegAppTableRecord
  2
ACAD_DSTYLE_DIMRADIAL_EXTENSION
 70
     0
  0
APPID
  5
8C1
330
9
100
AcDbSymbolTableRecord
100
AcDbRegAppTableRecord
  2
ACAD_MLEADERVER
 70
     0
  0
ENDTAB
  0
TABLE
  2
DIMSTYLE
  5
A
330
0
100
AcDbSymbolTable
 70
    29
100
AcDbDimStyleTable
 71
     3
340
F6
340
58
340
F8
  0
DIMSTYLE
105
58
330
A
100
AcDbSymbolTableRecord
100
AcDbDimStyleTableRecord
  2
STANDARD
 70
     0
 41
0.1800000071525573
 42
0.0625
140
0.1800000071525574
144
1.0
147
0.0900000035762787
176
   256
177
   256
178
   256
274
     3
340
55
371
    -1
372
    -1
  0
DIMSTYLE
105
59
330
A
100
AcDbSymbolTableRecord
100
AcDbDimStyleTableRecord
  2
Annotative
 70
     0
340
55
1001
AcadAnnotative
1000
AnnotativeData
1002
{
1070
     1
1070
     1
1002
}
  0
DIMSTYLE
105
E2
330
A
100
AcDbSymbolTableRecord
100
AcDbDimStyleTableRecord
  2
AM_ANSI
 70
     0
  4
 mm
 40
0.8333333333333333
 41
0.119999997317791
 42
0.05
 43
0.5
 44
0.1
 45
0.00000001
 78
     4
 79
     2
140
0.1200000047683716
146
0.7099999453624112
147
0.0599999986588955
176
   256
177
   256
178
     2
284
     4
340
DA
371
    -1
372
    -1
  0
DIMSTYLE
105
E3
330
A
100
AcDbSymbolTableRecord
100
AcDbDimStyleTableRecord
  2
AM_ANSI$7
 70
     0
  4
 mm
 40
0.8333333333333333
 41
0.119999997317791
 42
0.05
 43
0.5
 44
0.1
 45
0.00000001
 78
     4
 79
     2
140
0.1200000047683716
146
0.7099999453624112
147
0.0599999986588955
176
   256
177
   256
178
     2
284
     4
340
DA
371
    -1
372
    -1
  0
DIMSTYLE
105
E4
330
A
100
AcDbSymbolTableRecord
100
AcDbDimStyleTableRecord
  2
AM_ANSI$0
 70
     0
  4
 mm
 40
0.8333333333333333
 41
0.119999997317791
 42
0.05
 43
0.5
 44
0.1
 45
0.00000001
 78
     4
 79
     2
140
0.1200000047683716
146
0.7099999453624112
147
0.0599999986588955
176
   256
177
   256
178
     2
284
     4
340
DB
371
    -1
372
    -1
  0
DIMSTYLE
105
E5
330
A
100
AcDbSymbolTableRecord
100
AcDbDimStyleTableRecord
  2
AM_ANSI$0$7
 70
     0
  4
 mm
 40
0.8333333333333333
 41
0.119999997317791
 42
0.05
 43
0.5
 44
0.1
 45
0.00000001
 78
     4
 79
     2
140
0.1200000047683716
146
0.7099999453624112
147
0.0599999986588955
176
   256
177
   256
178
     2
284
     4
340
DB
371
    -1
372
    -1
  0
DIMSTYLE
105
E6
330
A
100
AcDbSymbolTableRecord
100
AcDbDimStyleTableRecord
  2
AM_ANSI$3
 70
     0
  4
 mm
 40
0.8333333333333333
 41
0.119999997317791
 42
0.05
 43
0.5
 44
0.1
 45
0.00000001
 78
     4
 79
     2
140
0.1200000047683716
146
0.7099999453624112
147
0.0599999986588955
176
   256
177
   256
178
     2
284
     4
340
DC
371
    -1
372
    -1
  0
DIMSTYLE
105
E7
330
A
100
AcDbSymbolTableRecord
100
AcDbDimStyleTableRecord
  2
AM_ANSI$3$7
 70
     0
  4
 mm
 40
0.8333333333333333
 41
0.119999997317791
 42
0.05
 43
0.5
 44
0.1
 45
0.00000001
 78
     4
 79
     2
140
0.1200000047683716
146
0.7099999453624112
147
0.0599999986588955
176
   256
177
   256
178
     2
284
     4
340
DC
371
    -1
372
    -1
  0
DIMSTYLE
105
E8
330
A
100
AcDbSymbolTableRecord
100
AcDbDimStyleTableRecord
  2
AM_ANSI$4
 70
     0
  4
 mm
 40
0.8333333333333333
 41
0.119999997317791
 42
0.05
 43
0.5
 44
0.1
 45
0.00000001
 78
     4
 79
     2
140
0.1200000047683716
146
0.7099999453624112
147
0.0599999986588955
176
   256
177
   256
178
     2
284
     4
340
DD
371
    -1
372
    -1
  0
DIMSTYLE
105
E9
330
A
100
AcDbSymbolTableRecord
100
AcDbDimStyleTableRecord
  2
AM_ANSI$4$7
 70
     0
  4
 mm
 40
0.8333333333333333
 41
0.119999997317791
 42
0.05
 43
0.5
 44
0.1
 45
0.00000001
 78
     4
 79
     2
140
0.1200000047683716
146
0.7099999453624112
147
0.0599999986588955
176
   256
177
   256
178
     2
284
     4
340
DD
371
    -1
372
    -1
  0
DIMSTYLE
105
EA
330
A
100
AcDbSymbolTableRecord
100
AcDbDimStyleTableRecord
  2
AM_ANSI$SF
 70
     0
  4
 mm
 40
0.8333333333333333
 41
0.119999997317791
 42
0.05
 43
0.5
 44
0.1
 45
0.00000001
 75
     1
 76
     1
 78
     4
 79
     2
140
0.1200000047683716
146
0.7099999453624112
147
0.0599999986588955
176
   256
177
   256
178
     2
284
     4
340
DF
371
    -1
372
    -1
  0
DIMSTYLE
105
EB
330
A
100
AcDbSymbolTableRecord
100
AcDbDimStyleTableRecord
  2
AM_ANSI$SF$7
 70
     0
  4
 mm
 40
0.8333333333333333
 41
0.119999997317791
 42
0.05
 43
0.5
 44
0.1
 45
0.00000001
 75
     1
 76
     1
 78
     4
 79
     2
140
0.1200000047683716
146
0.7099999453624112
147
0.0599999986588955
176
   256
177
   256
178
     2
284
     4
340
DF
371
    -1
372
    -1
  0
DIMSTYLE
105
EC
330
A
100
AcDbSymbolTableRecord
100
AcDbDimStyleTableRecord
  2
AM_ANSI$SH
 70
     0
  4
 mm
 40
0.8333333333333333
 41
0.119999997317791
 42
0.05
 43
0.5
 44
0.1
 45
0.00000001
 75
     1
 76
     1
 78
     4
 79
     2
140
0.1200000047683716
146
0.7099999453624112
147
0.0599999986588955
176
   256
177
   256
178
     2
284
     4
340
E0
371
    -1
372
    -1
  0
DIMSTYLE
105
ED
330
A
100
AcDbSymbolTableRecord
100
AcDbDimStyleTableRecord
  2
AM_ANSI$SH$7
 70
     0
  4
 mm
 40
0.8333333333333333
 41
0.119999997317791
 42
0.05
 43
0.5
 44
0.1
 45
0.00000001
 75
     1
 76
     1
 78
     4
 79
     2
140
0.1200000047683716
146
0.7099999453624112
147
0.0599999986588955
176
   256
177
   256
178
     2
284
     4
340
E0
371
    -1
372
    -1
  0
DIMSTYLE
105
EE
330
A
100
AcDbSymbolTableRecord
100
AcDbDimStyleTableRecord
  2
Architectural (ANSI)
 70
     0
 40
0.8333333333333333
 41
0.0984251946210861
 43
0.2362204724409449
 44
0.125
 45
0.00000001
 46
0.3937007874015748
 78
     3
 79
     3
140
0.1200000047683716
147
0.031496062992126
171
     1
176
   256
177
   256
178
   256
272
     2
274
     1
276
     2
277
     4
284
    12
285
     4
286
    12
340
D6
371
    -1
372
    -1
  0
DIMSTYLE
105
EF
330
A
100
AcDbSymbolTableRecord
100
AcDbDimStyleTableRecord
  2
Architectural (ANSI)$7
 70
     0
 40
0.8333333333333333
 41
0.0984251946210861
 43
0.2362204724409449
 44
0.125
 45
0.00000001
 46
0.3937007874015748
 78
     3
 79
     3
140
0.1200000047683716
147
0.031496062992126
171
     1
176
   256
177
   256
178
   256
272
     2
274
     1
276
     2
277
     4
284
    12
285
     4
286
    12
340
D6
371
    -1
372
    -1
  0
DIMSTYLE
105
F0
330
A
100
AcDbSymbolTableRecord
100
AcDbDimStyleTableRecord
  2
Default - Fraction (ANSI)
 70
     0
 40
0.8333333333333333
 41
0.0984251946210861
 43
0.2362204724409449
 44
0.125
 45
0.00000001
 46
0.3937007874015748
 79
     3
140
0.1200000047683716
147
0.031496062992126
171
     1
176
   256
177
   256
178
   256
272
     2
274
     1
276
     2
277
     5
284
    12
285
     4
286
    12
340
D6
371
    -1
372
    -1
  0
DIMSTYLE
105
F1
330
A
100
AcDbSymbolTableRecord
100
AcDbDimStyleTableRecord
  2
Default - Fraction (ANSI)$7
 70
     0
 40
0.8333333333333333
 41
0.0984251946210861
 43
0.2362204724409449
 44
0.125
 45
0.00000001
 46
0.3937007874015748
 79
     3
140
0.1200000047683716
147
0.031496062992126
171
     1
176
   256
177
   256
178
   256
272
     2
274
     1
276
     2
277
     5
284
    12
285
     4
286
    12
340
D6
371
    -1
372
    -1
  0
DIMSTYLE
105
F2
330
A
100
AcDbSymbolTableRecord
100
AcDbDimStyleTableRecord
  2
Default - mm (ANSI)
 70
     0
 40
0.8333333333333333
 41
0.0984251946210861
 42
0.063
 43
0.2362204724409449
 44
0.125
 45
0.00000001
 46
0.3937007874015748
 73
     0
 78
     4
 79
     1
140
0.1200000047683716
143
1.0
144
25.4
147
0.031496062992126
171
     1
176
   256
177
   256
178
   256
179
     1
271
     2
272
     2
274
     1
284
     4
285
     4
340
D6
371
    -1
372
    -1
  0
DIMSTYLE
105
F3
330
A
100
AcDbSymbolTableRecord
100
AcDbDimStyleTableRecord
  2
Default - mm (ANSI)$7
 70
     0
 40
0.8333333333333333
 41
0.0984251946210861
 42
0.063
 43
0.2362204724409449
 44
0.125
 45
0.00000001
 46
0.3937007874015748
 73
     0
 78
     4
 79
     1
140
0.1200000047683716
143
1.0
144
25.4
147
0.031496062992126
171
     1
176
   256
177
   256
178
   256
179
     1
271
     2
272
     2
274
     1
284
     4
285
     4
340
D6
371
    -1
372
    -1
  0
DIMSTYLE
105
F4
330
A
100
AcDbSymbolTableRecord
100
AcDbDimStyleTableRecord
  2
Default - mm [in] (ANSI)
 70
     0
  4
 in
 40
0.8333333333333333
 41
0.0984251946210861
 42
0.063
 43
0.25
 44
0.125
 45
0.00000001
 46
0.3937007874015748
 73
     0
 78
     4
 79
     1
140
0.1200000047683716
143
0.03937
144
25.4
147
0.031496062992126
170
     1
171
     3
176
   256
177
   256
178
   256
179
     1
271
     2
272
     2
274
     3
284
     4
285
     4
286
     4
340
D6
371
    -1
372
    -1
  0
DIMSTYLE
105
F5
330
A
100
AcDbSymbolTableRecord
100
AcDbDimStyleTableRecord
  2
Default - mm [in] (ANSI)$7
 70
     0
  4
 in
 40
0.8333333333333333
 41
0.0984251946210861
 42
0.063
 43
0.25
 44
0.125
 45
0.00000001
 46
0.3937007874015748
 73
     0
 78
     4
 79
     1
140
0.1200000047683716
143
0.03937
144
25.4
147
0.031496062992126
170
     1
171
     3
176
   256
177
   256
178
   256
179
     1
271
     2
272
     2
274
     3
284
     4
285
     4
286
     4
340
D6
371
    -1
372
    -1
  0
DIMSTYLE
105
F6
102
{ACAD_REACTORS
330
526
330
610
330
6EF
330
7A9
102
}
330
A
100
AcDbSymbolTableRecord
100
AcDbDimStyleTableRecord
  2
Default (ANSI)
 70
     0
 40
0.8333333333333333
 41
0.0984251946210861
 43
0.2362204724409449
 44
0.125
 45
0.00000001
 46
0.3937007874015748
 79
     1
140
0.1200000047683716
147
0.031496062992126
171
     1
176
   256
177
   256
178
   256
271
     3
272
     2
274
     1
284
     4
285
     4
340
D6
371
    -1
372
    -1
  0
DIMSTYLE
105
F7
330
A
100
AcDbSymbolTableRecord
100
AcDbDimStyleTableRecord
  2
Default (ANSI)$7
 70
     0
 40
0.8333333333333333
 41
0.0984251946210861
 43
0.2362204724409449
 44
0.125
 45
0.00000001
 46
0.3937007874015748
 79
     1
140
0.1200000047683716
147
0.031496062992126
171
     1
176
   256
177
   256
178
   256
271
     3
272
     2
274
     1
284
     4
285
     4
340
D6
371
    -1
372
    -1
  0
DIMSTYLE
105
F8
102
{ACAD_REACTORS
330
144
330
230
330
31A
330
428
102
}
330
A
100
AcDbSymbolTableRecord
100
AcDbDimStyleTableRecord
  2
Default (ANSI)-01
 70
     0
 40
0.8333333333333333
 41
0.0984251946210861
 43
0.2362204724409449
 44
0.125
 45
0.00000001
 46
0.3937007874015748
 79
     1
140
0.1200000047683716
147
0.031496062992126
171
     1
176
   256
177
   256
178
   256
271
     2
272
     2
274
     1
284
     4
285
     4
340
D6
371
    -1
372
    -1
  0
DIMSTYLE
105
F9
330
A
100
AcDbSymbolTableRecord
100
AcDbDimStyleTableRecord
  2
Default (ANSI)-01$7
 70
     0
 40
0.8333333333333333
 41
0.0984251946210861
 43
0.2362204724409449
 44
0.125
 45
0.00000001
 46
0.3937007874015748
 79
     1
140
0.1200000047683716
147
0.031496062992126
171
     1
176
   256
177
   256
178
   256
271
     2
272
     2
274
     1
284
     4
285
     4
340
D6
371
    -1
372
    -1
  0
DIMSTYLE
105
FA
330
A
100
AcDbSymbolTableRecord
100
AcDbDimStyleTableRecord
  2
Alternate (ANSI)
 70
     0
 40
0.8333333333333333
 41
0.0979999974370003
340
55
342
FB
  0
DIMSTYLE
105
10D
330
A
100
AcDbSymbolTableRecord
100
AcDbDimStyleTableRecord
  2
Datum (ANSI)
 70
     0
 40
0.8333333333333333
 41
0.0979999974370003
340
55
342
FB
  0
DIMSTYLE
105
11C
330
A
100
AcDbSymbolTableRecord
100
AcDbDimStyleTableRecord
  2
Large (ANSI)
 70
     0
 40
0.8333333333333333
 41
0.1959999948740005
340
55
342
FB
  0
ENDTAB
  0
TABLE
  2
BLOCK_RECORD
  5
1
330
0
100
AcDbSymbolTable
 70
    12
  0
BLOCK_RECORD
  5
6C
330
1
100
AcDbSymbolTableRecord
100
AcDbBlockTableRecord
  2
*Model_Space
340
6F
  0
BLOCK_RECORD
  5
68
330
1
100
AcDbSymbolTableRecord
100
AcDbBlockTableRecord
  2
*Paper_Space
340
6B
  0
BLOCK_RECORD
  5
70
330
1
100
AcDbSymbolTableRecord
100
AcDbBlockTableRecord
  2
*Paper_Space0
340
73
  0
BLOCK_RECORD
  5
FB
330
1
100
AcDbSymbolTableRecord
100
AcDbBlockTableRecord
  2
_Closed
340
0
  0
BLOCK_RECORD
  5
102
330
1
100
AcDbSymbolTableRecord
100
AcDbBlockTableRecord
  2
DatumFilled45
340
0
  0
BLOCK_RECORD
  5
10E
330
1
100
AcDbSymbolTableRecord
100
AcDbBlockTableRecord
  2
Filled-1
340
0
  0
BLOCK_RECORD
  5
147
330
1
100
AcDbSymbolTableRecord
100
AcDbBlockTableRecord
  2
*D4
340
0
  0
BLOCK_RECORD
  5
231
330
1
100
AcDbSymbolTableRecord
100
AcDbBlockTableRecord
  2
*D5
340
0
  0
BLOCK_RECORD
  5
31B
330
1
100
AcDbSymbolTableRecord
100
AcDbBlockTableRecord
  2
*D6
340
0
  0
BLOCK_RECORD
  5
429
330
1
100
AcDbSymbolTableRecord
100
AcDbBlockTableRecord
  2
*D7
340
0
  0
BLOCK_RECORD
  5
527
330
1
100
AcDbSymbolTableRecord
100
AcDbBlockTableRecord
  2
*D8
340
0
  0
BLOCK_RECORD
  5
611
330
1
100
AcDbSymbolTableRecord
100
AcDbBlockTableRecord
  2
*D9
340
0
  0
BLOCK_RECORD
  5
6F0
330
1
100
AcDbSymbolTableRecord
100
AcDbBlockTableRecord
  2
*D10
340
0
  0
BLOCK_RECORD
  5
7AA
330
1
100
AcDbSymbolTableRecord
100
AcDbBlockTableRecord
  2
*D11
340
0
  0
ENDTAB
  0
ENDSEC
  0
SECTION
  2
BLOCKS
  0
BLOCK
  5
6D
330
6C
100
AcDbEntity
  8
0
100
AcDbBlockBegin
  2
*Model_Space
 70
     0
 10
0.0
 20
0.0
 30
0.0
  3
*Model_Space
  1

  0
ENDBLK
  5
6E
330
6C
100
AcDbEntity
  8
0
100
AcDbBlockEnd
  0
BLOCK
  5
69
330
68
100
AcDbEntity
 67
     1
  8
0
100
AcDbBlockBegin
  2
*Paper_Space
 70
     0
 10
0.0
 20
0.0
 30
0.0
  3
*Paper_Space
  1

  0
ENDBLK
  5
6A
330
68
100
AcDbEntity
 67
     1
  8
0
100
AcDbBlockEnd
  0
BLOCK
  5
71
330
70
100
AcDbEntity
 67
     1
  8
0
100
AcDbBlockBegin
  2
*Paper_Space0
 70
     0
 10
0.0
 20
0.0
 30
0.0
  3
*Paper_Space0
  1

  0
ENDBLK
  5
72
330
70
100
AcDbEntity
 67
     1
  8
0
100
AcDbBlockEnd
  0
BLOCK
  5
100
330
FB
100
AcDbEntity
  8
0
100
AcDbBlockBegin
  2
_Closed
 70
     0
 10
0.0
 20
0.0
 30
0.0
  3
_Closed
  1

  0
LINE
  5
FC
330
FB
100
AcDbEntity
  8
0
  6
ByBlock
 62
     0
370
    -2
100
AcDbLine
 10
-1.0
 20
0.1666666666666666
 30
0.0
 11
0.0
 21
0.0
 31
0.0
  0
LINE
  5
FD
330
FB
100
AcDbEntity
  8
0
  6
ByBlock
 62
     0
370
    -2
100
AcDbLine
 10
0.0
 20
0.0
 30
0.0
 11
-1.0
 21
-0.1666666666666666
 31
0.0
  0
LINE
  5
FE
330
FB
100
AcDbEntity
  8
0
  6
ByBlock
 62
     0
370
    -2
100
AcDbLine
 10
-1.0
 20
0.1666666666666666
 30
0.0
 11
-1.0
 21
-0.1666666666666666
 31
0.0
  0
LINE
  5
FF
330
FB
100
AcDbEntity
  8
0
  6
ByBlock
 62
     0
370
    -2
100
AcDbLine
 10
0.0
 20
0.0
 30
0.0
 11
-1.0
 21
0.0
 31
0.0
  0
ENDBLK
  5
101
330
FB
100
AcDbEntity
  8
0
100
AcDbBlockEnd
  0
BLOCK
  5
103
330
102
100
AcDbEntity
  8
0
100
AcDbBlockBegin
  2
DatumFilled45
 70
     0
 10
0.0
 20
0.0
 30
0.0
  3
DatumFilled45
  1

  0
POLYLINE
  5
105
330
102
100
AcDbEntity
  8
0
 62
     0
100
AcDb2dPolyline
 66
     1
 10
0.0
 20
0.0
 30
0.0
 70
   128
  0
VERTEX
  5
106
330
105
100
AcDbEntity
  8
0
 62
     0
100
AcDbVertex
100
AcDb2dVertex
 10
0.0
 20
0.9999999999999998
 30
0.0
  0
VERTEX
  5
107
330
105
100
AcDbEntity
  8
0
 62
     0
100
AcDbVertex
100
AcDb2dVertex
 10
0.0
 20
-0.9999999999999998
 30
0.0
  0
VERTEX
  5
109
330
105
100
AcDbEntity
  8
0
 62
     0
100
AcDbVertex
100
AcDb2dVertex
 10
-0.9999999999999998
 20
0.0
 30
0.0
  0
VERTEX
  5
10A
330
105
100
AcDbEntity
  8
0
 62
     0
100
AcDbVertex
100
AcDb2dVertex
 10
0.0
 20
0.9999999999999998
 30
0.0
  0
SEQEND
  5
108
330
105
100
AcDbEntity
  8
0
 62
     0
  0
SOLID
  5
10C
330
102
100
AcDbEntity
  8
0
 62
     0
100
AcDbTrace
 10
0.0
 20
0.9999999999999998
 30
0.0
 11
0.0
 21
-0.9999999999999998
 31
0.0
 12
-0.9999999999999998
 22
0.0
 32
0.0
 13
0.0
 23
0.9999999999999998
 33
0.0
  0
ENDBLK
  5
104
330
102
100
AcDbEntity
  8
0
100
AcDbBlockEnd
  0
BLOCK
  5
10F
330
10E
100
AcDbEntity
  8
0
100
AcDbBlockBegin
  2
Filled-1
 70
     0
 10
0.0
 20
0.0
 30
0.0
  3
Filled-1
  1

  0
LINE
  5
111
330
10E
100
AcDbEntity
  8
0
 62
     0
100
AcDbLine
 10
-0.9999999999999998
 20
0.0
 30
0.0
 11
0.0
 21
0.0
 31
0.0
  0
POLYLINE
  5
112
330
10E
100
AcDbEntity
  8
0
 62
     0
100
AcDb2dPolyline
 66
     1
 10
0.0
 20
0.0
 30
0.0
 70
   128
  0
VERTEX
  5
113
330
112
100
AcDbEntity
  8
0
 62
     0
100
AcDbVertex
100
AcDb2dVertex
 10
-0.9999999999999998
 20
-0.0994897959183674
 30
0.0
  0
VERTEX
  5
114
330
112
100
AcDbEntity
  8
0
 62
     0
100
AcDbVertex
100
AcDb2dVertex
 10
0.0
 20
0.0
 30
0.0
  0
VERTEX
  5
116
330
112
100
AcDbEntity
  8
0
 62
     0
100
AcDbVertex
100
AcDb2dVertex
 10
-0.9999999999999998
 20
0.0994897959183674
 30
0.0
  0
VERTEX
  5
117
330
112
100
AcDbEntity
  8
0
 62
     0
100
AcDbVertex
100
AcDb2dVertex
 10
-0.9999999999999998
 20
-0.0994897959183674
 30
0.0
  0
SEQEND
  5
115
330
112
100
AcDbEntity
  8
0
 62
     0
  0
SOLID
  5
118
330
10E
100
AcDbEntity
  8
0
 62
     0
100
AcDbTrace
 10
-0.9999999999999998
 20
-0.0994897959183674
 30
0.0
 11
0.0
 21
0.0
 31
0.0
 12
-0.9999999999999998
 22
0.0994897959183674
 32
0.0
 13
-0.9999999999999998
 23
-0.0994897959183674
 33
0.0
  0
LINE
  5
119
330
10E
100
AcDbEntity
  8
0
 62
     0
100
AcDbLine
 10
-0.9999999999999998
 20
-0.0994897959183674
 30
0.0
 11
0.0
 21
0.0
 31
0.0
  0
LINE
  5
11A
330
10E
100
AcDbEntity
  8
0
 62
     0
100
AcDbLine
 10
0.0
 20
0.0
 30
0.0
 11
-0.9999999999999998
 21
0.0994897959183674
 31
0.0
  0
LINE
  5
11B
330
10E
100
AcDbEntity
  8
0
 62
     0
100
AcDbLine
 10
-0.9999999999999998
 20
0.0994897959183674
 30
0.0
 11
-0.9999999999999998
 21
-0.0994897959183674
 31
0.0
  0
ENDBLK
  5
110
330
10E
100
AcDbEntity
  8
0
100
AcDbBlockEnd
  0
BLOCK
  5
148
330
147
100
AcDbEntity
  8
0
100
AcDbBlockBegin
  2
*D4
 70
     1
 10
0.0
 20
0.0
 30
0.0
  3
*D4
  1

  0
LINE
  5
226
330
147
100
AcDbEntity
  8
Dimension (ANSI)
100
AcDbLine
 10
6.5683630952884
 20
2.554469325030491
 30
0.0
 11
6.5683630952884
 21
1.400023786972749
 31
0.0
  0
LINE
  5
227
330
147
100
AcDbEntity
  8
Dimension (ANSI)
100
AcDbLine
 10
1.688363095288401
 20
2.554469325030491
 30
0.0
 11
1.688363095288401
 21
1.400023786972749
 31
0.0
  0
LINE
  5
228
330
147
100
AcDbEntity
  8
Dimension (ANSI)
100
AcDbLine
 10
6.486342099770828
 20
1.504190453639416
 30
0.0
 11
4.217491113401254
 21
1.504190453639416
 31
0.0
  0
LINE
  5
229
330
147
100
AcDbEntity
  8
Dimension (ANSI)
100
AcDbLine
 10
1.770384090805972
 20
1.504190453639416
 30
0.0
 11
3.905763279286375
 21
1.504190453639416
 31
0.0
  0
SOLID
  5
22A
330
147
100
AcDbEntity
  8
Dimension (ANSI)
100
AcDbTrace
 10
6.486342099770828
 20
1.517860619559011
 30
0.0
 11
6.486342099770828
 21
1.49052028771982
 31
0.0
 12
6.5683630952884
 22
1.504190453639416
 32
0.0
 13
6.5683630952884
 23
1.504190453639416
 33
0.0
  0
SOLID
  5
22B
330
147
100
AcDbEntity
  8
Dimension (ANSI)
100
AcDbTrace
 10
1.770384090805972
 20
1.517860619559011
 30
0.0
 11
1.770384090805972
 21
1.49052028771982
 31
0.0
 12
1.688363095288401
 22
1.504190453639416
 32
0.0
 13
1.688363095288401
 23
1.504190453639416
 33
0.0
  0
MTEXT
  5
22C
330
147
100
AcDbEntity
  8
Dimension (ANSI)
100
AcDbMText
 10
3.93200999844648
 20
1.556473867402667
 30
0.0
 40
0.100000003973643
 41
0.0
 71
     1
 72
     1
  1
\A1;4.88
  7
Note Text (ANSI)
 73
     1
 44
1.0
1001
ACAD
1000
MTEXTBEGIN
1070
    73
1070
     1
1070
    44
1040
1.0
1070
    74
1070
     0
1000
MTEXTEND
  0
POINT
  5
22D
330
147
100
AcDbEntity
  8
Defpoints
 62
     0
100
AcDbPoint
 10
6.5683630952884
 20
2.606552658363825
 30
0.0
  0
POINT
  5
22E
330
147
100
AcDbEntity
  8
Defpoints
 62
     0
100
AcDbPoint
 10
1.688363095288401
 20
2.606552658363825
 30
0.0
  0
POINT
  5
22F
330
147
100
AcDbEntity
  8
Defpoints
 62
     0
100
AcDbPoint
 10
1.688363095288401
 20
1.504190453639416
 30
0.0
  0
ENDBLK
  5
149
330
147
100
AcDbEntity
  8
0
100
AcDbBlockEnd
  0
BLOCK
  5
232
330
231
100
AcDbEntity
  8
0
100
AcDbBlockBegin
  2
*D5
 70
     1
 10
0.0
 20
0.0
 30
0.0
  3
*D5
  1

  0
LINE
  5
310
330
231
100
AcDbEntity
  8
Dimension (ANSI)
100
AcDbLine
 10
1.636279761955067
 20
2.606552658363825
 30
0.0
 11
0.4818342238973249
 21
2.606552658363825
 31
0.0
  0
LINE
  5
311
330
231
100
AcDbEntity
  8
Dimension (ANSI)
100
AcDbLine
 10
1.636279761955066
 20
7.486552658363825
 30
0.0
 11
0.4818342238973262
 21
7.486552658363825
 31
0.0
  0
LINE
  5
312
330
231
100
AcDbEntity
  8
Dimension (ANSI)
100
AcDbLine
 10
0.5860008905639918
 20
2.688573653881397
 30
0.0
 11
0.5860008905639923
 21
4.968022525440467
 31
0.0
  0
LINE
  5
313
330
231
100
AcDbEntity
  8
Dimension (ANSI)
100
AcDbLine
 10
0.5860008905639928
 20
7.404531662846253
 30
0.0
 11
0.5860008905639923
 21
5.12508279128718
 31
0.0
  0
SOLID
  5
314
330
231
100
AcDbEntity
  8
Dimension (ANSI)
100
AcDbTrace
 10
0.5723307246443965
 20
2.688573653881397
 30
0.0
 11
0.599671056483587
 21
2.688573653881397
 31
0.0
 12
0.5860008905639918
 22
2.606552658363825
 32
0.0
 13
0.5860008905639918
 23
2.606552658363825
 33
0.0
  0
SOLID
  5
315
330
231
100
AcDbEntity
  8
Dimension (ANSI)
100
AcDbTrace
 10
0.5723307246443977
 20
7.404531662846253
 30
0.0
 11
0.5996710564835882
 21
7.404531662846253
 31
0.0
 12
0.5860008905639928
 22
7.486552658363825
 32
0.0
 13
0.5860008905639928
 23
7.486552658363825
 33
0.0
  0
MTEXT
  5
316
330
231
100
AcDbEntity
  8
Dimension (ANSI)
100
AcDbMText
 10
0.4563836926666571
 20
5.098836072127075
 30
0.0
 40
0.100000003973643
 41
0.0
 71
     1
 72
     1
  1
\A1;4.88
  7
Note Text (ANSI)
 73
     1
 44
1.0
1001
ACAD
1000
MTEXTBEGIN
1070
    73
1070
     1
1070
    44
1040
1.0
1070
    74
1070
     0
1000
MTEXTEND
  0
POINT
  5
317
330
231
100
AcDbEntity
  8
Defpoints
 62
     0
100
AcDbPoint
 10
1.688363095288401
 20
2.606552658363825
 30
0.0
  0
POINT
  5
318
330
231
100
AcDbEntity
  8
Defpoints
 62
     0
100
AcDbPoint
 10
1.688363095288399
 20
7.486552658363825
 30
0.0
  0
POINT
  5
319
330
231
100
AcDbEntity
  8
Defpoints
 62
     0
100
AcDbPoint
 10
0.5860008905639928
 20
7.486552658363825
 30
0.0
  0
ENDBLK
  5
233
330
231
100
AcDbEntity
  8
0
100
AcDbBlockEnd
  0
BLOCK
  5
31C
330
31B
100
AcDbEntity
  8
0
100
AcDbBlockBegin
  2
*D6
 70
     1
 10
0.0
 20
0.0
 30
0.0
  3
*D6
  1

  0
LINE
  5
41D
330
31B
100
AcDbEntity
  8
Dimension (ANSI)
100
AcDbLine
 10
1.636279761955067
 20
2.606552658363825
 30
0.0
 11
1.283811815662261
 21
2.606552658363825
 31
0.0
  0
LINE
  5
41E
330
31B
100
AcDbEntity
  8
Dimension (ANSI)
100
AcDbLine
 10
1.808779761955067
 20
2.919552658363825
 30
0.0
 11
1.283811815662261
 21
2.919552658363825
 31
0.0
  0
LINE
  5
41F
330
31B
100
AcDbEntity
  8
Dimension (ANSI)
100
AcDbLine
 10
1.387978482328928
 20
2.688573653881397
 30
0.0
 11
1.387978482328928
 21
2.837531662846253
 31
0.0
  0
LINE
  5
420
330
31B
100
AcDbEntity
  8
Dimension (ANSI)
100
AcDbLine
 10
1.305957486811357
 20
3.154655315404571
 30
0.0
 11
1.387978482328928
 21
3.154655315404571
 31
0.0
  0
LINE
  5
421
330
31B
100
AcDbEntity
  8
Dimension (ANSI)
100
AcDbLine
 10
1.387978482328928
 20
3.154655315404571
 30
0.0
 11
1.387978482328928
 21
2.919552658363825
 31
0.0
  0
MTEXT
  5
422
330
31B
100
AcDbEntity
  8
Dimension (ANSI)
100
AcDbMText
 10
1.015506593284353
 20
3.221842468287019
 30
0.0
 40
0.100000003973643
 41
0.0
 71
     1
 72
     1
  1
\A1;0.31{\PTYP.}
  7
Note Text (ANSI)
 73
     1
 44
1.0
1001
ACAD
1000
MTEXTBEGIN
1070
    73
1070
     1
1070
    44
1040
1.0
1070
    74
1070
     0
1000
MTEXTEND
  0
SOLID
  5
423
330
31B
100
AcDbEntity
  8
Dimension (ANSI)
100
AcDbTrace
 10
1.374308316409333
 20
2.688573653881397
 30
0.0
 11
1.401648648248523
 21
2.688573653881397
 31
0.0
 12
1.387978482328928
 22
2.606552658363825
 32
0.0
 13
1.387978482328928
 23
2.606552658363825
 33
0.0
  0
SOLID
  5
424
330
31B
100
AcDbEntity
  8
Dimension (ANSI)
100
AcDbTrace
 10
1.374308316409333
 20
2.837531662846253
 30
0.0
 11
1.401648648248523
 21
2.837531662846253
 31
0.0
 12
1.387978482328928
 22
2.919552658363825
 32
0.0
 13
1.387978482328928
 23
2.919552658363825
 33
0.0
  0
POINT
  5
425
330
31B
100
AcDbEntity
  8
Defpoints
 62
     0
100
AcDbPoint
 10
1.688363095288401
 20
2.606552658363825
 30
0.0
  0
POINT
  5
426
330
31B
100
AcDbEntity
  8
Defpoints
 62
     0
100
AcDbPoint
 10
1.8608630952884
 20
2.919552658363825
 30
0.0
  0
POINT
  5
427
330
31B
100
AcDbEntity
  8
Defpoints
 62
     0
100
AcDbPoint
 10
1.387978482328928
 20
2.919552658363825
 30
0.0
  0
ENDBLK
  5
31D
330
31B
100
AcDbEntity
  8
0
100
AcDbBlockEnd
  0
BLOCK
  5
42A
330
429
100
AcDbEntity
  8
0
100
AcDbBlockBegin
  2
*D7
 70
     1
 10
0.0
 20
0.0
 30
0.0
  3
*D7
  1

  0
LINE
  5
51C
330
429
100
AcDbEntity
  8
Dimension (ANSI)
100
AcDbLine
 10
1.688363095288401
 20
2.554469325030491
 30
0.0
 11
1.688363095288401
 21
2.069459590805774
 31
0.0
  0
LINE
  5
51D
330
429
100
AcDbEntity
  8
Dimension (ANSI)
100
AcDbLine
 10
2.0013630952884
 20
2.758469325030492
 30
0.0
 11
2.0013630952884
 21
2.069459590805774
 31
0.0
  0
LINE
  5
51E
330
429
100
AcDbEntity
  8
Dimension (ANSI)
100
AcDbLine
 10
1.919342099770829
 20
2.17362625747244
 30
0.0
 11
1.770384090805972
 21
2.17362625747244
 31
0.0
  0
LINE
  5
51F
330
429
100
AcDbEntity
  8
Dimension (ANSI)
100
AcDbLine
 10
1.688363095288401
 20
2.17362625747244
 30
0.0
 11
1.513631282373308
 21
2.17362625747244
 31
0.0
  0
SOLID
  5
520
330
429
100
AcDbEntity
  8
Dimension (ANSI)
100
AcDbTrace
 10
1.919342099770829
 20
2.187296423392036
 30
0.0
 11
1.919342099770829
 21
2.159956091552845
 31
0.0
 12
2.0013630952884
 22
2.17362625747244
 32
0.0
 13
2.0013630952884
 23
2.17362625747244
 33
0.0
  0
SOLID
  5
521
330
429
100
AcDbEntity
  8
Dimension (ANSI)
100
AcDbTrace
 10
1.770384090805972
 20
2.187296423392036
 30
0.0
 11
1.770384090805972
 21
2.159956091552845
 31
0.0
 12
1.688363095288401
 22
2.17362625747244
 32
0.0
 13
1.688363095288401
 23
2.17362625747244
 33
0.0
  0
MTEXT
  5
522
330
429
100
AcDbEntity
  8
Dimension (ANSI)
100
AcDbMText
 10
1.223180388846305
 20
2.240813410354888
 30
0.0
 40
0.100000003973643
 41
0.0
 71
     1
 72
     1
  1
\A1;0.31{\PTYP.}
  7
Note Text (ANSI)
 73
     1
 44
1.0
1001
ACAD
1000
MTEXTBEGIN
1070
    73
1070
     1
1070
    44
1040
1.0
1070
    74
1070
     0
1000
MTEXTEND
  0
POINT
  5
523
330
429
100
AcDbEntity
  8
Defpoints
 62
     0
100
AcDbPoint
 10
1.688363095288401
 20
2.606552658363825
 30
0.0
  0
POINT
  5
524
330
429
100
AcDbEntity
  8
Defpoints
 62
     0
100
AcDbPoint
 10
2.0013630952884
 20
2.810552658363826
 30
0.0
  0
POINT
  5
525
330
429
100
AcDbEntity
  8
Defpoints
 62
     0
100
AcDbPoint
 10
2.0013630952884
 20
2.17362625747244
 30
0.0
  0
ENDBLK
  5
42B
330
429
100
AcDbEntity
  8
0
100
AcDbBlockEnd
  0
BLOCK
  5
528
330
527
100
AcDbEntity
  8
0
100
AcDbBlockBegin
  2
*D8
 70
     1
 10
0.0
 20
0.0
 30
0.0
  3
*D8
  1

  0
LINE
  5
606
330
527
100
AcDbEntity
  8
Dimension (ANSI)
100
AcDbLine
 10
2.001363095288401
 20
2.758469325030492
 30
0.0
 11
2.001363095288401
 21
2.069459590805774
 31
0.0
  0
LINE
  5
607
330
527
100
AcDbEntity
  8
Dimension (ANSI)
100
AcDbLine
 10
3.0013630952884
 20
2.742469325030491
 30
0.0
 11
3.0013630952884
 21
2.069459590805774
 31
0.0
  0
LINE
  5
608
330
527
100
AcDbEntity
  8
Dimension (ANSI)
100
AcDbLine
 10
2.083384090805973
 20
2.17362625747244
 30
0.0
 11
2.314505221324422
 21
2.17362625747244
 31
0.0
  0
LINE
  5
609
330
527
100
AcDbEntity
  8
Dimension (ANSI)
100
AcDbLine
 10
2.919342099770828
 20
2.17362625747244
 30
0.0
 11
2.688220969252379
 21
2.17362625747244
 31
0.0
  0
SOLID
  5
60A
330
527
100
AcDbEntity
  8
Dimension (ANSI)
100
AcDbTrace
 10
2.083384090805973
 20
2.187296423392036
 30
0.0
 11
2.083384090805973
 21
2.159956091552845
 31
0.0
 12
2.001363095288401
 22
2.17362625747244
 32
0.0
 13
2.001363095288401
 23
2.17362625747244
 33
0.0
  0
SOLID
  5
60B
330
527
100
AcDbEntity
  8
Dimension (ANSI)
100
AcDbTrace
 10
2.919342099770828
 20
2.187296423392036
 30
0.0
 11
2.919342099770828
 21
2.159956091552845
 31
0.0
 12
3.0013630952884
 22
2.17362625747244
 32
0.0
 13
3.0013630952884
 23
2.17362625747244
 33
0.0
  0
MTEXT
  5
60C
330
527
100
AcDbEntity
  8
Dimension (ANSI)
100
AcDbMText
 10
2.340751940484527
 20
2.225674614141059
 30
0.0
 40
0.100000003973643
 41
0.0
 71
     1
 72
     1
  1
\A1;1.000
  7
Note Text (ANSI)
 73
     1
 44
1.0
1001
ACAD
1000
MTEXTBEGIN
1070
    73
1070
     1
1070
    44
1040
1.0
1070
    74
1070
     0
1000
MTEXTEND
  0
POINT
  5
60D
330
527
100
AcDbEntity
  8
Defpoints
 62
     0
100
AcDbPoint
 10
2.001363095288401
 20
2.810552658363826
 30
0.0
  0
POINT
  5
60E
330
527
100
AcDbEntity
  8
Defpoints
 62
     0
100
AcDbPoint
 10
3.0013630952884
 20
2.794552658363825
 30
0.0
  0
POINT
  5
60F
330
527
100
AcDbEntity
  8
Defpoints
 62
     0
100
AcDbPoint
 10
3.0013630952884
 20
2.17362625747244
 30
0.0
  0
ENDBLK
  5
529
330
527
100
AcDbEntity
  8
0
100
AcDbBlockEnd
  0
BLOCK
  5
612
330
611
100
AcDbEntity
  8
0
100
AcDbBlockBegin
  2
*D9
 70
     1
 10
0.0
 20
0.0
 30
0.0
  3
*D9
  1

  0
LINE
  5
6E7
330
611
100
AcDbEntity
  8
Dimension (ANSI)
100
AcDbLine
 10
8.904696187860864
 20
5.158973135341522
 30
0.0
 11
8.986717183378434
 21
5.158973135341522
 31
0.0
  0
LINE
  5
6E8
330
611
100
AcDbEntity
  8
Dimension (ANSI)
100
AcDbLine
 10
8.666654196825719
 20
5.158973135341522
 30
0.0
 11
8.444533395208598
 21
5.158973135341522
 31
0.0
  0
SOLID
  5
6E9
330
611
100
AcDbEntity
  8
Dimension (ANSI)
100
AcDbTrace
 10
8.904696187860864
 20
5.172643301261118
 30
0.0
 11
8.904696187860864
 21
5.145302969421926
 31
0.0
 12
8.822675192343291
 22
5.158973135341522
 32
0.0
 13
8.822675192343291
 23
5.158973135341522
 33
0.0
  0
SOLID
  5
6EA
330
611
100
AcDbEntity
  8
Dimension (ANSI)
100
AcDbTrace
 10
8.666654196825719
 20
5.172643301261118
 30
0.0
 11
8.666654196825719
 21
5.145302969421926
 31
0.0
 12
8.748675192343291
 22
5.158973135341522
 32
0.0
 13
8.748675192343291
 23
5.158973135341522
 33
0.0
  0
MTEXT
  5
6EB
330
611
100
AcDbEntity
  8
Dimension (ANSI)
100
AcDbMText
 10
7.979065704935246
 20
5.210853594085404
 30
0.0
 40
0.100000003973643
 41
0.0
 71
     1
 72
     1
  1
\A1; 14 GA.
  7
Note Text (ANSI)
 73
     1
 44
1.0
1001
ACAD
1000
MTEXTBEGIN
1070
    73
1070
     1
1070
    44
1040
1.0
1070
    74
1070
     0
1000
MTEXTEND
  0
POINT
  5
6EC
330
611
100
AcDbEntity
  8
Defpoints
 62
     0
100
AcDbPoint
 10
8.936954590682901
 20
2.606552658363825
 30
0.0
  0
POINT
  5
6ED
330
611
100
AcDbEntity
  8
Defpoints
 62
     0
100
AcDbPoint
 10
8.862954590682901
 20
2.606552658363825
 30
0.0
  0
POINT
  5
6EE
330
611
100
AcDbEntity
  8
Defpoints
 62
     0
100
AcDbPoint
 10
8.748675192343291
 20
5.158973135341522
 30
0.0
  0
ENDBLK
  5
613
330
611
100
AcDbEntity
  8
0
100
AcDbBlockEnd
  0
BLOCK
  5
6F1
330
6F0
100
AcDbEntity
  8
0
100
AcDbBlockBegin
  2
*D10
 70
     1
 10
0.0
 20
0.0
 30
0.0
  3
*D10
  1

  0
LINE
  5
7A1
330
6F0
100
AcDbEntity
  8
Dimension (ANSI)
100
AcDbLine
 10
3.43592992340443
 20
2.344892265772906
 30
0.0
 11
3.333143427643534
 21
2.344892265772906
 31
0.0
  0
LINE
  5
7A2
330
6F0
100
AcDbEntity
  8
Dimension (ANSI)
100
AcDbLine
 10
3.333143427643534
 20
2.344892265772906
 30
0.0
 11
3.104873593047221
 21
2.740267217128883
 31
0.0
  0
MTEXT
  5
7A3
102
{ACAD_XDICTIONARY
360
8C8
102
}
330
6F0
100
AcDbEntity
  8
Dimension (ANSI)
100
AcDbMText
 10
3.462176642564535
 20
2.419185231936743
 30
0.0
 40
0.100000003973643
 41
0.0
 71
     1
 72
     1
  1
\A1;\U+22050.250{\PGROUND\P HOLE}
  7
Note Text (ANSI)
 73
     1
 44
1.0
1001
ACAD
1000
MTEXTBEGIN
1070
    73
1070
     1
1070
    44
1040
1.0
1070
    74
1070
     0
1000
MTEXTEND
  0
SOLID
  5
7A4
330
6F0
100
AcDbEntity
  8
Dimension (ANSI)
100
AcDbTrace
 10
3.116712304007537
 20
2.747102300088683
 30
0.0
 11
3.093034882086904
 21
2.733432134169083
 31
0.0
 12
3.063863095288421
 22
2.811299482890781
 32
0.0
 13
3.063863095288421
 23
2.811299482890781
 33
0.0
  0
LINE
  5
7A5
330
6F0
100
AcDbEntity
  8
Dimension (ANSI)
100
AcDbLine
 10
2.926363095288399
 20
2.919552658363824
 30
0.0
 11
3.0763630952884
 21
2.919552658363824
 31
0.0
  0
LINE
  5
7A6
330
6F0
100
AcDbEntity
  8
Dimension (ANSI)
100
AcDbLine
 10
3.001363095288399
 20
2.844552658363824
 30
0.0
 11
3.001363095288399
 21
2.994552658363824
 31
0.0
  0
POINT
  5
7A7
330
6F0
100
AcDbEntity
  8
Defpoints
 62
     0
100
AcDbPoint
 10
3.063863095288421
 20
2.811299482890781
 30
0.0
  0
POINT
  5
7A8
330
6F0
100
AcDbEntity
  8
Defpoints
 62
     0
100
AcDbPoint
 10
2.938863095288378
 20
3.027805833836866
 30
0.0
  0
ENDBLK
  5
6F2
330
6F0
100
AcDbEntity
  8
0
100
AcDbBlockEnd
  0
BLOCK
  5
7AB
330
7AA
100
AcDbEntity
  8
0
100
AcDbBlockBegin
  2
*D11
 70
     1
 10
0.0
 20
0.0
 30
0.0
  3
*D11
  1

  0
LINE
  5
846
330
7AA
100
AcDbEntity
  8
Dimension (ANSI)
100
AcDbLine
 10
6.860137488581226
 20
3.765362251149827
 30
0.0
 11
6.777835644783888
 21
3.765362251149827
 31
0.0
  0
LINE
  5
847
330
7AA
100
AcDbEntity
  8
Dimension (ANSI)
100
AcDbLine
 10
6.777835644783888
 20
3.765362251149827
 30
0.0
 11
6.382760676589994
 21
3.084757605714163
 31
0.0
  0
MTEXT
  5
848
330
7AA
100
AcDbEntity
  8
Dimension (ANSI)
100
AcDbMText
 10
6.886384207741333
 20
3.843673574312382
 30
0.0
 40
0.100000003973643
 41
0.0
 71
     1
 72
     1
  1
\A1; 0.218 X 0.281\POBROUND\PTYP. (4 PL.)
  7
Note Text (ANSI)
 73
     1
 44
1.0
1001
ACAD
1000
MTEXTBEGIN
1070
    73
1070
     1
1070
    44
1040
1.0
1070
    74
1070
     0
1000
MTEXTEND
  0
SOLID
  5
849
330
7AA
100
AcDbEntity
  8
Dimension (ANSI)
100
AcDbTrace
 10
6.370938002150998
 20
3.091620389797812
 30
0.0
 11
6.394583351028989
 21
3.077894821630515
 31
0.0
 12
6.341583972088104
 22
3.013821559080188
 32
0.0
 13
6.341583972088104
 23
3.013821559080188
 33
0.0
  0
POINT
  5
84A
330
7AA
100
AcDbEntity
  8
Defpoints
 62
     0
100
AcDbPoint
 10
6.341583972088104
 20
3.013821559080188
 30
0.0
  0
POINT
  5
84B
330
7AA
100
AcDbEntity
  8
Defpoints
 62
     0
100
AcDbPoint
 10
6.286863095288399
 20
2.919552658363822
 30
0.0
  0
ENDBLK
  5
7AC
330
7AA
100
AcDbEntity
  8
0
100
AcDbBlockEnd
  0
ENDSEC
  0
SECTION
  2
ENTITIES
  0
CIRCLE
  5
11D
330
6C
100
AcDbEntity
  8
Visible (ANSI)
100
AcDbCircle
 10
3.0013630952884
 20
2.919552658363825
 30
0.0
 40
0.125
  0
LINE
  5
11E
330
6C
100
AcDbEntity
  8
Visible (ANSI)
100
AcDbLine
 10
1.9698630952884
 20
3.028552658363825
 30
0.0
 11
2.032863095288401
 21
3.028552658363825
 31
0.0
  0
ARC
  5
11F
330
6C
100
AcDbEntity
  8
Visible (ANSI)
100
AcDbCircle
 10
1.9698630952884
 20
2.919552658363825
 30
0.0
 40
0.109
100
AcDbArc
 50
90.0
 51
270.0
  0
LINE
  5
120
330
6C
100
AcDbEntity
  8
Visible (ANSI)
100
AcDbLine
 10
2.032863095288401
 20
2.810552658363825
 30
0.0
 11
1.9698630952884
 21
2.810552658363825
 31
0.0
  0
ARC
  5
121
330
6C
100
AcDbEntity
  8
Visible (ANSI)
100
AcDbCircle
 10
2.032863095288401
 20
2.919552658363825
 30
0.0
 40
0.1090000000000001
100
AcDbArc
 50
270.0
 51
90.0
  0
LINE
  5
122
330
6C
100
AcDbEntity
  8
Visible (ANSI)
100
AcDbLine
 10
6.223863095288399
 20
7.282552658363825
 30
0.0
 11
6.286863095288399
 21
7.282552658363825
 31
0.0
  0
ARC
  5
123
330
6C
100
AcDbEntity
  8
Visible (ANSI)
100
AcDbCircle
 10
6.223863095288399
 20
7.173552658363824
 30
0.0
 40
0.1090000000000004
100
AcDbArc
 50
90.0
 51
270.0
  0
LINE
  5
124
330
6C
100
AcDbEntity
  8
Visible (ANSI)
100
AcDbLine
 10
6.286863095288399
 20
7.064552658363825
 30
0.0
 11
6.223863095288399
 21
7.064552658363825
 31
0.0
  0
ARC
  5
125
330
6C
100
AcDbEntity
  8
Visible (ANSI)
100
AcDbCircle
 10
6.286863095288397
 20
7.173552658363824
 30
0.0
 40
0.1090000000000004
100
AcDbArc
 50
269.9999999999994
 51
89.99999999999936
  0
LINE
  5
126
330
6C
100
AcDbEntity
  8
Visible (ANSI)
100
AcDbLine
 10
6.2238630952884
 20
3.028552658363825
 30
0.0
 11
6.2868630952884
 21
3.028552658363825
 31
0.0
  0
ARC
  5
127
330
6C
100
AcDbEntity
  8
Visible (ANSI)
100
AcDbCircle
 10
6.223863095288399
 20
2.919552658363825
 30
0.0
 40
0.109
100
AcDbArc
 50
90.00000000000062
 51
270.0000000000006
  0
LINE
  5
128
330
6C
100
AcDbEntity
  8
Visible (ANSI)
100
AcDbLine
 10
6.2868630952884
 20
2.810552658363826
 30
0.0
 11
6.2238630952884
 21
2.810552658363826
 31
0.0
  0
ARC
  5
129
330
6C
100
AcDbEntity
  8
Visible (ANSI)
100
AcDbCircle
 10
6.2868630952884
 20
2.919552658363825
 30
0.0
 40
0.109
100
AcDbArc
 50
270.0
 51
90.0
  0
LINE
  5
12A
330
6C
100
AcDbEntity
  8
Visible (ANSI)
100
AcDbLine
 10
1.969863095288399
 20
7.282552658363824
 30
0.0
 11
2.0328630952884
 21
7.282552658363824
 31
0.0
  0
ARC
  5
12B
330
6C
100
AcDbEntity
  8
Visible (ANSI)
100
AcDbCircle
 10
1.969863095288398
 20
7.173552658363824
 30
0.0
 40
0.1089999999999997
100
AcDbArc
 50
90.00000000000017
 51
270.0000000000002
  0
LINE
  5
12C
330
6C
100
AcDbEntity
  8
Visible (ANSI)
100
AcDbLine
 10
2.0328630952884
 20
7.064552658363825
 30
0.0
 11
1.969863095288399
 21
7.064552658363825
 31
0.0
  0
ARC
  5
12D
330
6C
100
AcDbEntity
  8
Visible (ANSI)
100
AcDbCircle
 10
2.0328630952884
 20
7.173552658363824
 30
0.0
 40
0.1089999999999997
100
AcDbArc
 50
270.0000000000002
 51
90.00000000000017
  0
LINE
  5
12E
330
6C
100
AcDbEntity
  8
Visible (ANSI)
100
AcDbLine
 10
1.688363095288401
 20
2.606552658363825
 30
0.0
 11
1.688363095288399
 21
7.486552658363825
 31
0.0
  0
LINE
  5
12F
330
6C
100
AcDbEntity
  8
Visible (ANSI)
100
AcDbLine
 10
1.688363095288399
 20
7.486552658363825
 30
0.0
 11
6.5683630952884
 21
7.486552658363826
 31
0.0
  0
LINE
  5
130
330
6C
100
AcDbEntity
  8
Visible (ANSI)
100
AcDbLine
 10
6.5683630952884
 20
7.486552658363826
 30
0.0
 11
6.5683630952884
 21
2.606552658363825
 31
0.0
  0
LINE
  5
131
330
6C
100
AcDbEntity
  8
Visible (ANSI)
100
AcDbLine
 10
6.5683630952884
 20
2.606552658363825
 30
0.0
 11
1.688363095288401
 21
2.606552658363825
 31
0.0
  0
MTEXT
  5
133
330
6C
100
AcDbEntity
  8
Symbol (ANSI)
100
AcDbMText
 10
3.723954759439283
 20
1.005409375057657
 30
0.0
 40
0.1000000012358968
 41
0.0
 71
     7
 72
     1
  1
FRONT VIEW
  7
Text Style150
 73
     1
 44
1.0
1001
ACAD
1000
MTEXTBEGIN
1070
    73
1070
     1
1070
    44
1040
1.0
1070
    74
1070
     0
1000
MTEXTEND
  0
LINE
  5
135
330
6C
100
AcDbEntity
  8
Symbol (ANSI)
370
    30
100
AcDbLine
 10
3.713954733715628
 20
0.9850163439119159
 30
0.0
 11
4.517925570620358
 21
0.9850163439119159
 31
0.0
  0
MTEXT
  5
136
330
6C
100
AcDbEntity
  8
Symbol (ANSI)
100
AcDbMText
 10
4.083727835842975
 20
0.7798400356594705
 30
0.0
 40
0.1499999969650128
 41
0.0
 71
     7
 72
     1
  1
 
  7
Label Text (ANSI)
 73
     1
 44
1.0
1001
ACAD
1000
MTEXTBEGIN
1070
    73
1070
     1
1070
    44
1040
1.0
1070
    74
1070
     0
1000
MTEXTEND
  0
LINE
  5
137
330
6C
100
AcDbEntity
  8
Hidden (ANSI)
 48
0.1690370589494705
100
AcDbLine
 10
8.862954590682818
 20
7.282552658363825
 30
0.0
 11
8.936954590682818
 21
7.282552658363825
 31
0.0
  0
LINE
  5
138
330
6C
100
AcDbEntity
  8
Hidden (ANSI)
 48
0.1690370589494705
100
AcDbLine
 10
8.862954590682818
 20
7.064552658363825
 30
0.0
 11
8.936954590682818
 21
7.064552658363825
 31
0.0
  0
LINE
  5
139
330
6C
100
AcDbEntity
  8
Hidden (ANSI)
 48
0.1690370589494705
100
AcDbLine
 10
8.862954590682818
 20
3.028552658363825
 30
0.0
 11
8.936954590682818
 21
3.028552658363825
 31
0.0
  0
LINE
  5
13A
330
6C
100
AcDbEntity
  8
Hidden (ANSI)
 48
0.1690370589494705
100
AcDbLine
 10
8.862954590682818
 20
2.810552658363826
 30
0.0
 11
8.936954590682818
 21
2.810552658363826
 31
0.0
  0
LINE
  5
13B
330
6C
100
AcDbEntity
  8
Visible (ANSI)
100
AcDbLine
 10
8.936954590682901
 20
7.486552658363826
 30
0.0
 11
8.862954590682901
 21
7.486552658363826
 31
0.0
  0
LINE
  5
13C
330
6C
100
AcDbEntity
  8
Visible (ANSI)
100
AcDbLine
 10
8.862954590682901
 20
7.486552658363826
 30
0.0
 11
8.862954590682901
 21
2.606552658363825
 31
0.0
  0
LINE
  5
13D
330
6C
100
AcDbEntity
  8
Visible (ANSI)
100
AcDbLine
 10
8.936954590682901
 20
2.606552658363825
 30
0.0
 11
8.862954590682901
 21
2.606552658363825
 31
0.0
  0
LINE
  5
13E
330
6C
100
AcDbEntity
  8
Visible (ANSI)
100
AcDbLine
 10
8.936954590682901
 20
2.606552658363825
 30
0.0
 11
8.936954590682901
 21
7.486552658363826
 31
0.0
  0
LINE
  5
13F
330
6C
100
AcDbEntity
  8
Hidden (ANSI)
 48
0.1690370589494705
100
AcDbLine
 10
8.936954590681844
 20
2.794552658363825
 30
0.0
 11
8.862954590681843
 21
2.794552658363825
 31
0.0
  0
LINE
  5
140
330
6C
100
AcDbEntity
  8
Hidden (ANSI)
 48
0.1690370589494705
100
AcDbLine
 10
8.936954590681844
 20
3.044552658363825
 30
0.0
 11
8.862954590681843
 21
3.044552658363825
 31
0.0
  0
MTEXT
  5
141
330
6C
100
AcDbEntity
  8
Symbol (ANSI)
100
AcDbMText
 10
8.50314783141928
 20
1.084794807285576
 30
0.0
 40
0.1000000012358968
 41
0.0
 71
     7
 72
     1
  1
RIGHT VIEW
  7
Text Style150
 73
     1
 44
1.0
1001
ACAD
1000
MTEXTBEGIN
1070
    73
1070
     1
1070
    44
1040
1.0
1070
    74
1070
     0
1000
MTEXTEND
  0
LINE
  5
142
330
6C
100
AcDbEntity
  8
Symbol (ANSI)
370
    30
100
AcDbLine
 10
8.493147805695624
 20
1.064239701567689
 30
0.0
 11
9.272240195776074
 21
1.064239701567689
 31
0.0
  0
MTEXT
  5
143
330
6C
100
AcDbEntity
  8
Symbol (ANSI)
100
AcDbMText
 10
8.850481684410832
 20
0.8590633933152442
 30
0.0
 40
0.1499999969650128
 41
0.0
 71
     7
 72
     1
  1
 
  7
Label Text (ANSI)
 73
     1
 44
1.0
1001
ACAD
1000
MTEXTBEGIN
1070
    73
1070
     1
1070
    44
1040
1.0
1070
    74
1070
     0
1000
MTEXTEND
  0
DIMENSION
  5
144
330
6C
100
AcDbEntity
  8
Dimension (ANSI)
100
AcDbDimension
  2
*D4
 10
1.688363095288401
 20
1.504190453639416
 30
0.0
 11
4.061627196343814
 21
1.504190453639416
 31
0.0
 70
   160
  1
<>
 42
4.879999999999999
  3
Default (ANSI)-01
100
AcDbAlignedDimension
 13
6.5683630952884
 23
2.606552658363825
 33
0.0
 14
1.688363095288401
 24
2.606552658363825
 34
0.0
 50
180.0
100
AcDbRotatedDimension
1001
ACAD
1000
DSTYLE
1002
{
1070
   289
1070
     1
1070
    73
1070
     0
1070
    74
1070
     0
1070
   271
1070
     2
1070
   272
1070
     2
1070
    48
1040
0.0
1070
    47
1040
0.0
1002
}
  0
DIMENSION
  5
230
330
6C
100
AcDbEntity
  8
Dimension (ANSI)
100
AcDbDimension
  2
*D5
 10
0.5860008905639928
 20
7.486552658363825
 30
0.0
 11
0.5860008905639916
 21
5.046552658363824
 31
0.0
 70
   160
  1
<>
 42
4.879999999999999
  3
Default (ANSI)-01
100
AcDbAlignedDimension
 13
1.688363095288401
 23
2.606552658363825
 33
0.0
 14
1.688363095288399
 24
7.486552658363825
 34
0.0
 50
90.0
100
AcDbRotatedDimension
1001
ACAD
1000
DSTYLE
1002
{
1070
   289
1070
     1
1070
   271
1070
     2
1070
   272
1070
     2
1070
    48
1040
0.0
1070
    47
1040
0.0
1002
}
  0
DIMENSION
  5
31A
330
6C
100
AcDbEntity
  8
Dimension (ANSI)
100
AcDbDimension
  2
*D6
 10
1.387978482328928
 20
2.919552658363825
 30
0.0
 11
1.381143726604009
 21
3.154655315404571
 31
0.0
 70
   160
  1
<>{\PTYP.}
 42
0.3129999999999997
  3
Default (ANSI)-01
100
AcDbAlignedDimension
 13
1.688363095288401
 23
2.606552658363825
 33
0.0
 14
1.8608630952884
 24
2.919552658363825
 34
0.0
 50
90.0
100
AcDbRotatedDimension
1001
ACAD
1000
DSTYLE
1002
{
1070
   289
1070
     2
1070
   279
1070
     1
1070
   145
1040
-0.25
1070
   271
1070
     2
1070
   272
1070
     2
1070
    48
1040
0.0
1070
    47
1040
0.0
1002
}
  0
DIMENSION
  5
428
330
6C
100
AcDbEntity
  8
Dimension (ANSI)
100
AcDbDimension
  2
*D7
 10
2.0013630952884
 20
2.17362625747244
 30
0.0
 11
1.355282476029754
 21
2.17362625747244
 31
0.0
 70
   160
  1
<>{\PTYP.}
 42
0.3129999999999997
  3
Default (ANSI)-01
100
AcDbAlignedDimension
 13
1.688363095288401
 23
2.606552658363825
 33
0.0
 14
2.0013630952884
 24
2.810552658363826
 34
0.0
 50
180.0
100
AcDbRotatedDimension
1001
ACAD
1000
DSTYLE
1002
{
1070
   289
1070
     2
1070
    73
1070
     0
1070
    74
1070
     0
1070
   145
1040
-0.25
1070
   271
1070
     2
1070
   272
1070
     2
1070
    48
1040
0.0
1070
    47
1040
0.0
1002
}
  0
DIMENSION
  5
526
330
6C
100
AcDbEntity
  8
Dimension (ANSI)
100
AcDbDimension
  2
*D8
 10
3.0013630952884
 20
2.17362625747244
 30
0.0
 11
2.5013630952884
 21
2.17362625747244
 31
0.0
 70
   160
  1
<>
 42
0.9999999999999996
  3
Default (ANSI)
100
AcDbAlignedDimension
 13
2.001363095288401
 23
2.810552658363826
 33
0.0
 14
3.0013630952884
 24
2.794552658363825
 34
0.0
 50
180.0
100
AcDbRotatedDimension
1001
ACAD
1000
DSTYLE
1002
{
1070
   289
1070
     1
1070
    73
1070
     0
1070
    74
1070
     0
1070
   271
1070
     3
1070
   272
1070
     2
1070
    48
1040
0.0
1070
    47
1040
0.0
1002
}
  0
DIMENSION
  5
610
330
6C
100
AcDbEntity
  8
Dimension (ANSI)
100
AcDbDimension
  2
*D9
 10
8.748675192343291
 20
5.158973135341522
 30
0.0
 11
8.19867619049187
 21
5.158973135341522
 31
0.0
 70
   160
  1
 14 GA.
 42
0.0739999999999999
  3
Default (ANSI)
100
AcDbAlignedDimension
 13
8.936954590682901
 23
2.606552658363825
 33
0.0
 14
8.862954590682901
 24
2.606552658363825
 34
0.0
100
AcDbRotatedDimension
1001
ACAD
1000
DSTYLE
1002
{
1070
   289
1070
     1
1070
    73
1070
     0
1070
    74
1070
     0
1070
   271
1070
     3
1070
    76
1070
     1
1070
    75
1070
     1
1070
   272
1070
     2
1070
    48
1040
0.0
1070
    47
1040
0.0
1002
}
  0
DIMENSION
  5
6EF
330
6C
100
AcDbEntity
  8
Dimension (ANSI)
100
AcDbDimension
  2
*D10
 10
2.938863095288378
 20
3.027805833836866
 30
0.0
 11
3.732693778901563
 21
2.344892265772906
 31
0.0
 70
   163
  1
<>{\PGROUND\P HOLE}
 42
0.25
  3
Default (ANSI)
100
AcDbDiametricDimension
 15
3.063863095288421
 25
2.811299482890781
 35
0.0
 40
0.0
1001
ACAD_DSTYLE_DIMRADIAL_EXTENSION
1070
   387
1070
     1
1070
   388
1040
0.0
1070
   390
1040
0.0
1001
ACAD
1000
DSTYLE
1002
{
1070
   145
1040
-0.3333333333333334
1070
   144
1040
1.0
1070
   271
1070
     3
1070
   272
1070
     2
1070
    48
1040
0.0
1070
    47
1040
0.0
1002
}
  0
DIMENSION
  5
7A9
330
6C
100
AcDbEntity
  8
Dimension (ANSI)
100
AcDbDimension
  2
*D11
 10
6.286863095288399
 20
2.919552658363822
 30
0.0
 11
7.327183419347112
 21
3.765362251149827
 31
0.0
 70
   164
  1
 0.218 X 0.281\POBROUND\PTYP. (4 PL.)
 42
0.1090000000000026
  3
Default (ANSI)
100
AcDbRadialDimension
 15
6.341583972088104
 25
3.013821559080188
 35
0.0
 40
0.0
1001
ACAD_DSTYLE_DIMRADIAL_EXTENSION
1070
   387
1070
     1
1070
   388
1040
0.0
1070
   390
1040
0.0
1001
ACAD
1000
DSTYLE
1002
{
1070
   145
1040
-0.3333333333333334
1070
   271
1070
     3
1070
   141
1040
0.0
1070
   272
1070
     2
1070
    48
1040
0.0
1070
    47
1040
0.0
1002
}
  0
MTEXT
  5
84C
330
6C
100
AcDbEntity
  8
Symbol (ANSI)
100
AcDbMText
 10
10.27485483290115
 20
2.038882752624585
 30
0.0
 40
0.1000000012358968
 41
3.896012297276769
 71
     1
 72
     1
  1
{\fRomanS|b0|i0;\H0.1000;PART#: P0606\P(DATA SUBJECT TO CHANGE WITHOUT NOTICE)\PTHIS DRAWING AND COMPONENTS OF ARE\PPROPERTY OF HUBBELL INC. WIEGMANN}
  7
Note Text (ANSI)
 73
     2
 44
1.093904256820678
1001
ACAD
1000
MTEXTBEGIN
1070
    73
1070
     2
1070
    44
1040
1.093904256820678
1070
    74
1070
     0
1000
MTEXTEND
  0
ELLIPSE
  5
84E
330
6C
100
AcDbEntity
  8
Visible (ANSI)
100
AcDbEllipse
 10
11.58216131431575
 20
5.241807555928905
 30
0.0
 11
0.0454847067850417
 21
-0.0789854694403128
 31
0.0
210
0.0
220
0.0
230
1.0
 40
0.578093115915811
 41
3.572615253427338
 42
5.852162707341194
  0
ELLIPSE
  5
84F
330
6C
100
AcDbEntity
  8
Visible (ANSI)
100
AcDbEllipse
 10
11.54400701091423
 20
5.21983595387219
 30
0.0
 11
-0.0454847067850369
 21
0.0789854694403154
 31
0.0
210
0.0
220
0.0
230
1.0
 40
0.5780931159158112
 41
0.0
 42
6.283185307179586
  0
LINE
  5
850
330
6C
100
AcDbEntity
  8
Visible (ANSI)
100
AcDbLine
 10
11.01216695741858
 20
5.591080235923437
 30
0.0
 11
11.04464967517934
 21
5.572374682821104
 31
0.0
  0
ELLIPSE
  5
851
330
6C
100
AcDbEntity
  8
Visible (ANSI)
100
AcDbEllipse
 10
11.0503212608201
 20
5.548073873786937
 30
0.0
 11
0.0396626643165563
 21
-0.0688753293519527
 31
0.0
210
0.0
220
0.0
230
1.0
 40
0.5780931159158113
 41
3.641254264141348
 42
5.499720852204726
  0
ELLIPSE
  5
852
330
6C
100
AcDbEntity
  8
Visible (ANSI)
100
AcDbEllipse
 10
11.01216695741858
 20
5.526102271730223
 30
0.0
 11
-0.0396626643165481
 21
0.0688753293519575
 31
0.0
210
0.0
220
0.0
230
1.0
 40
0.5780931159158113
 41
5.499720852205278
 42
8.641313505795071
  0
LINE
  5
853
330
6C
100
AcDbEntity
  8
Visible Narrow (ANSI)
100
AcDbLine
 10
11.01216695741858
 20
5.461124307537009
 30
0.0
 11
11.0503212608201
 21
5.483095909593723
 31
0.0
  0
LINE
  5
854
330
6C
100
AcDbEntity
  8
Visible (ANSI)
100
AcDbLine
 10
11.0503212608201
 20
5.483095909593723
 30
0.0
 11
11.08280397858086
 21
5.46439035649139
 31
0.0
  0
LINE
  5
855
330
6C
100
AcDbEntity
  8
Visible (ANSI)
100
AcDbLine
 10
11.04464967517934
 20
5.442418754434675
 30
0.0
 11
11.01216695741858
 21
5.461124307537009
 31
0.0
  0
LINE
  5
856
330
6C
100
AcDbEntity
  8
Visible Narrow (ANSI)
100
AcDbLine
 10
11.04464967517934
 20
5.442418754434675
 30
0.0
 11
11.08280397858086
 21
5.46439035649139
 31
0.0
  0
ELLIPSE
  5
857
330
6C
100
AcDbEntity
  8
Visible (ANSI)
100
AcDbEllipse
 10
11.08280397858086
 20
5.529368320684604
 30
0.0
 11
0.0396626643165524
 21
-0.0688753293519554
 31
0.0
210
0.0
220
0.0
230
1.0
 40
0.5780931159158112
 41
5.499720852205022
 42
5.783523696627616
  0
ELLIPSE
  5
858
330
6C
100
AcDbEntity
  8
Visible (ANSI)
100
AcDbEllipse
 10
11.04464967517934
 20
5.50739671862789
 30
0.0
 11
0.0396626643165481
 21
-0.0688753293519575
 31
0.0
210
0.0
220
0.0
230
1.0
 40
0.5780931159158112
 41
5.499720852205278
 42
8.641313505795071
  0
LINE
  5
859
330
6C
100
AcDbEntity
  8
Visible (ANSI)
100
AcDbLine
 10
13.20552380431193
 20
6.863939019074984
 30
0.0
 11
13.23800652207269
 21
6.845233465972651
 31
0.0
  0
ELLIPSE
  5
85A
330
6C
100
AcDbEntity
  8
Visible (ANSI)
100
AcDbEllipse
 10
13.24367810771345
 20
6.820932656938484
 30
0.0
 11
0.0396626643165564
 21
-0.0688753293519528
 31
0.0
210
0.0
220
0.0
230
1.0
 40
0.5780931159158111
 41
3.641254264141331
 42
5.499720852204726
  0
ELLIPSE
  5
85B
330
6C
100
AcDbEntity
  8
Visible (ANSI)
100
AcDbEllipse
 10
13.20552380431193
 20
6.798961054881769
 30
0.0
 11
-0.0396626643165482
 21
0.0688753293519576
 31
0.0
210
0.0
220
0.0
230
1.0
 40
0.5780931159158111
 41
5.499720852205278
 42
8.641313505795071
  0
LINE
  5
85C
330
6C
100
AcDbEntity
  8
Visible Narrow (ANSI)
100
AcDbLine
 10
13.20552380431193
 20
6.733983090688555
 30
0.0
 11
13.24367810771345
 21
6.75595469274527
 31
0.0
  0
LINE
  5
85D
330
6C
100
AcDbEntity
  8
Visible (ANSI)
100
AcDbLine
 10
13.24367810771345
 20
6.75595469274527
 30
0.0
 11
13.27616082547421
 21
6.737249139642938
 31
0.0
  0
LINE
  5
85E
330
6C
100
AcDbEntity
  8
Visible (ANSI)
100
AcDbLine
 10
13.23800652207269
 20
6.715277537586223
 30
0.0
 11
13.20552380431193
 21
6.733983090688555
 31
0.0
  0
LINE
  5
85F
330
6C
100
AcDbEntity
  8
Visible Narrow (ANSI)
100
AcDbLine
 10
13.23800652207269
 20
6.715277537586223
 30
0.0
 11
13.27616082547421
 21
6.737249139642938
 31
0.0
  0
ELLIPSE
  5
860
330
6C
100
AcDbEntity
  8
Visible (ANSI)
100
AcDbEllipse
 10
13.27616082547421
 20
6.80222710383618
 30
0.0
 11
0.0396626643165681
 21
-0.0688753293519827
 31
0.0
210
0.0
220
0.0
230
1.0
 40
0.5780931159158111
 41
5.499720852205064
 42
5.783523696627591
  0
ELLIPSE
  5
861
330
6C
100
AcDbEntity
  8
Visible (ANSI)
100
AcDbEllipse
 10
13.23800652207269
 20
6.780255501779438
 30
0.0
 11
0.0396626643165482
 21
-0.0688753293519577
 31
0.0
210
0.0
220
0.0
230
1.0
 40
0.5780931159158108
 41
5.499720852205278
 42
8.641313505795071
  0
LINE
  5
862
330
6C
100
AcDbEntity
  8
Visible (ANSI)
100
AcDbLine
 10
13.20552380431193
 20
4.328010031204029
 30
0.0
 11
13.23800652207269
 21
4.309304478101697
 31
0.0
  0
ELLIPSE
  5
863
330
6C
100
AcDbEntity
  8
Visible (ANSI)
100
AcDbEllipse
 10
13.24367810771345
 20
4.28500366906753
 30
0.0
 11
0.0396626643165561
 21
-0.0688753293519524
 31
0.0
210
0.0
220
0.0
230
1.0
 40
0.5780931159158111
 41
3.641254264141348
 42
5.499720852204725
  0
ELLIPSE
  5
864
330
6C
100
AcDbEntity
  8
Visible (ANSI)
100
AcDbEllipse
 10
13.20552380431193
 20
4.263032067010816
 30
0.0
 11
-0.0396626643165481
 21
0.0688753293519575
 31
0.0
210
0.0
220
0.0
230
1.0
 40
0.5780931159158111
 41
5.499720852205237
 42
8.641313505795071
  0
LINE
  5
865
330
6C
100
AcDbEntity
  8
Visible Narrow (ANSI)
100
AcDbLine
 10
13.20552380431193
 20
4.198054102817601
 30
0.0
 11
13.24367810771345
 21
4.220025704874315
 31
0.0
  0
LINE
  5
866
330
6C
100
AcDbEntity
  8
Visible (ANSI)
100
AcDbLine
 10
13.24367810771345
 20
4.220025704874315
 30
0.0
 11
13.27616082547421
 21
4.201320151771984
 31
0.0
  0
LINE
  5
867
330
6C
100
AcDbEntity
  8
Visible (ANSI)
100
AcDbLine
 10
13.23800652207269
 20
4.179348549715268
 30
0.0
 11
13.20552380431193
 21
4.198054102817601
 31
0.0
  0
LINE
  5
868
330
6C
100
AcDbEntity
  8
Visible Narrow (ANSI)
100
AcDbLine
 10
13.23800652207269
 20
4.179348549715268
 30
0.0
 11
13.27616082547421
 21
4.201320151771984
 31
0.0
  0
ELLIPSE
  5
869
330
6C
100
AcDbEntity
  8
Visible (ANSI)
100
AcDbEllipse
 10
13.27616082547421
 20
4.266298115965198
 30
0.0
 11
0.0396626643165526
 21
-0.0688753293519557
 31
0.0
210
0.0
220
0.0
230
1.0
 40
0.578093115915811
 41
5.499720852205022
 42
5.783523696627613
  0
ELLIPSE
  5
86A
330
6C
100
AcDbEntity
  8
Visible (ANSI)
100
AcDbEllipse
 10
13.23800652207269
 20
4.244326513908482
 30
0.0
 11
0.0396626643165481
 21
-0.0688753293519575
 31
0.0
210
0.0
220
0.0
230
1.0
 40
0.5780931159158113
 41
5.499720852205278
 42
8.641313505795071
  0
LINE
  5
86B
330
6C
100
AcDbEntity
  8
Visible (ANSI)
100
AcDbLine
 10
11.01216695741858
 20
8.127009223794392
 30
0.0
 11
11.04464967517934
 21
8.108303670692059
 31
0.0
  0
ELLIPSE
  5
86C
330
6C
100
AcDbEntity
  8
Visible (ANSI)
100
AcDbEllipse
 10
11.0503212608201
 20
8.084002861657891
 30
0.0
 11
0.0396626643165561
 21
-0.0688753293519524
 31
0.0
210
0.0
220
0.0
230
1.0
 40
0.5780931159158113
 41
3.641254264141348
 42
5.499720852204726
  0
ELLIPSE
  5
86D
330
6C
100
AcDbEntity
  8
Visible (ANSI)
100
AcDbEllipse
 10
11.01216695741858
 20
8.062031259601177
 30
0.0
 11
-0.039662664316548
 21
0.0688753293519572
 31
0.0
210
0.0
220
0.0
230
1.0
 40
0.578093115915811
 41
5.499720852205236
 42
8.641313505795029
  0
LINE
  5
86E
330
6C
100
AcDbEntity
  8
Visible Narrow (ANSI)
100
AcDbLine
 10
11.01216695741858
 20
7.997053295407964
 30
0.0
 11
11.0503212608201
 21
8.019024897464676
 31
0.0
  0
LINE
  5
86F
330
6C
100
AcDbEntity
  8
Visible (ANSI)
100
AcDbLine
 10
11.0503212608201
 20
8.019024897464676
 30
0.0
 11
11.08280397858086
 21
8.000319344362345
 31
0.0
  0
LINE
  5
870
330
6C
100
AcDbEntity
  8
Visible (ANSI)
100
AcDbLine
 10
11.04464967517934
 20
7.97834774230563
 30
0.0
 11
11.01216695741858
 21
7.997053295407964
 31
0.0
  0
LINE
  5
871
330
6C
100
AcDbEntity
  8
Visible Narrow (ANSI)
100
AcDbLine
 10
11.04464967517934
 20
7.97834774230563
 30
0.0
 11
11.08280397858086
 21
8.000319344362345
 31
0.0
  0
ELLIPSE
  5
872
330
6C
100
AcDbEntity
  8
Visible (ANSI)
100
AcDbEllipse
 10
11.08280397858086
 20
8.06529730855556
 30
0.0
 11
0.0396626643165536
 21
-0.0688753293519575
 31
0.0
210
0.0
220
0.0
230
1.0
 40
0.578093115915811
 41
5.499720852205022
 42
5.783523696627651
  0
ELLIPSE
  5
873
330
6C
100
AcDbEntity
  8
Visible (ANSI)
100
AcDbEllipse
 10
11.04464967517934
 20
8.043325706498844
 30
0.0
 11
0.0396626643165479
 21
-0.0688753293519572
 31
0.0
210
0.0
220
0.0
230
1.0
 40
0.578093115915811
 41
5.499720852205237
 42
8.64131350579503
  0
LINE
  5
874
330
6C
100
AcDbEntity
  8
Visible (ANSI)
100
AcDbLine
 10
10.86702592488438
 20
5.423095334594563
 30
0.0
 11
10.86702592488438
 21
8.332200520492603
 31
0.0
  0
LINE
  5
875
330
6C
100
AcDbEntity
  8
Visible (ANSI)
100
AcDbLine
 10
10.9051802282859
 20
8.354172122549316
 30
0.0
 11
10.86702592488438
 21
8.332200520492603
 31
0.0
  0
LINE
  5
876
330
6C
100
AcDbEntity
  8
Visible (ANSI)
100
AcDbLine
 10
10.86702592488438
 20
8.332200520492603
 30
0.0
 11
13.38314755460689
 21
6.883262438915096
 31
0.0
  0
LINE
  5
877
330
6C
100
AcDbEntity
  8
Visible (ANSI)
100
AcDbLine
 10
13.42130185800841
 20
6.905234040971811
 30
0.0
 11
13.38314755460689
 21
6.883262438915096
 31
0.0
  0
LINE
  5
878
330
6C
100
AcDbEntity
  8
Visible (ANSI)
100
AcDbLine
 10
13.42130185800841
 20
6.905234040971811
 30
0.0
 11
10.9051802282859
 21
8.354172122549316
 31
0.0
  0
LINE
  5
879
330
6C
100
AcDbEntity
  8
Visible (ANSI)
100
AcDbLine
 10
13.38314755460689
 20
6.883262438915096
 30
0.0
 11
13.38314755460689
 21
3.974157253017057
 31
0.0
  0
LINE
  5
87A
330
6C
100
AcDbEntity
  8
Visible (ANSI)
100
AcDbLine
 10
13.42130185800841
 20
3.996128855073772
 30
0.0
 11
13.38314755460689
 21
3.974157253017057
 31
0.0
  0
LINE
  5
87B
330
6C
100
AcDbEntity
  8
Visible (ANSI)
100
AcDbLine
 10
13.42130185800841
 20
3.996128855073772
 30
0.0
 11
13.42130185800841
 21
6.905234040971811
 31
0.0
  0
LINE
  5
87C
330
6C
100
AcDbEntity
  8
Visible (ANSI)
100
AcDbLine
 10
13.38314755460689
 20
3.974157253017057
 30
0.0
 11
10.86702592488438
 21
5.423095334594563
 31
0.0
  0
ENDSEC
  0
SECTION
  2
OBJECTS
  0
DICTIONARY
  5
C
330
0
100
AcDbDictionary
281
     1
  3
ACAD_CIP_PREVIOUS_PRODUCT_INFO
350
87D
  3
ACAD_COLOR
350
63
  3
ACAD_GROUP
350
D
  3
ACAD_LAYOUT
350
62
  3
ACAD_MATERIAL
350
10
  3
ACAD_MLEADERSTYLE
350
66
  3
ACAD_MLINESTYLE
350
5F
  3
ACAD_PLOTSETTINGS
350
61
  3
ACAD_PLOTSTYLENAME
350
E
  3
ACAD_SCALELIST
350
42
  3
ACAD_TABLESTYLE
350
64
  3
ACAD_VISUALSTYLE
350
29
  3
ACDB_RECOMPOSE_DATA
350
88B
  3
AcDbVariableDictionary
350
76
  3
DWGPROPS
350
88C
  0
DICTIONARY
  5
8C8
330
7A3
100
AcDbDictionary
280
     1
281
     1
  3
ACAD_MTEXT_RT
360
8C9
  0
XRECORD
  5
87D
102
{ACAD_REACTORS
330
C
102
}
330
C
100
AcDbXrecord
280
     1
300
INVNTOR
300
2012
300
85795PDSP_2012_0F
  0
DICTIONARY
  5
63
102
{ACAD_REACTORS
330
C
102
}
330
C
100
AcDbDictionary
281
     1
  0
DICTIONARY
  5
D
102
{ACAD_REACTORS
330
C
102
}
330
C
100
AcDbDictionary
281
     1
  0
DICTIONARY
  5
62
102
{ACAD_REACTORS
330
C
102
}
330
C
100
AcDbDictionary
281
     1
  3
Layout1
350
6B
  3
Layout2
350
73
  3
Model
350
6F
  0
DICTIONARY
  5
10
102
{ACAD_REACTORS
330
C
102
}
330
C
100
AcDbDictionary
281
     1
  3
ByBlock
350
19
  3
ByLayer
350
11
  3
Global
350
21
  0
DICTIONARY
  5
66
102
{ACAD_REACTORS
330
C
102
}
330
C
100
AcDbDictionary
281
     1
  3
Standard
350
67
  0
DICTIONARY
  5
5F
102
{ACAD_REACTORS
330
C
102
}
330
C
100
AcDbDictionary
281
     1
  3
Standard
350
60
  0
DICTIONARY
  5
61
102
{ACAD_REACTORS
330
C
102
}
330
C
100
AcDbDictionary
281
     1
  0
ACDBDICTIONARYWDFLT
  5
E
102
{ACAD_REACTORS
330
C
102
}
330
C
100
AcDbDictionary
281
     1
  3
Normal
350
F
100
AcDbDictionaryWithDefault
340
F
  0
DICTIONARY
  5
42
102
{ACAD_REACTORS
330
C
102
}
330
C
100
AcDbDictionary
281
     1
  3
A0
350
43
  3
A1
350
44
  3
A2
350
45
  3
A3
350
46
  3
A4
350
47
  3
A5
350
48
  3
A6
350
49
  3
A7
350
4A
  3
A8
350
4B
  3
A9
350
4C
  3
B0
350
4D
  3
B1
350
4E
  3
B2
350
4F
  3
B3
350
50
  3
B4
350
51
  3
B5
350
52
  3
B6
350
53
  0
DICTIONARY
  5
64
102
{ACAD_REACTORS
330
C
102
}
330
C
100
AcDbDictionary
281
     1
  3
Standard
350
65
  0
DICTIONARY
  5
29
102
{ACAD_REACTORS
330
C
102
}
330
C
100
AcDbDictionary
281
     1
  3
2dWireframe
350
2F
  3
Basic
350
2E
  3
Brighten
350
35
  3
ColorChange
350
39
  3
Conceptual
350
32
  3
Dim
350
34
  3
EdgeColorOff
350
41
  3
Facepattern
350
38
  3
Flat
350
2A
  3
FlatWithEdges
350
2B
  3
Gouraud
350
2C
  3
GouraudWithEdges
350
2D
  3
Hidden
350
31
  3
JitterOff
350
3F
  3
Linepattern
350
37
  3
OverhangOff
350
40
  3
Realistic
350
33
  3
Shaded
350
3E
  3
Shaded with edges
350
3D
  3
Shades of Gray
350
3A
  3
Sketchy
350
3B
  3
Thicken
350
36
  3
Wireframe
350
30
  3
X-Ray
350
3C
  0
XRECORD
  5
88B
102
{ACAD_REACTORS
330
C
102
}
330
C
100
AcDbXrecord
280
     1
 90
        1
330
65
330
31A
330
428
  0
DICTIONARY
  5
76
102
{ACAD_REACTORS
330
C
102
}
330
C
100
AcDbDictionary
281
     1
  3
CANNOSCALE
350
79
  3
CMLEADERSTYLE
350
78
  3
CTABLESTYLE
350
77
  3
DIMASSOC
350
885
  3
HIDETEXT
350
884
  3
INDEXCTL
350
883
  3
LAYEREVAL
350
880
  3
LAYERNOTIFY
350
881
  3
LIGHTINGUNITS
350
87F
  3
MSLTSCALE
350
87E
  3
SORTENTS
350
882
  3
XCLIPFRAME
350
886
  0
XRECORD
  5
88C
102
{ACAD_REACTORS
330
C
102
}
330
C
100
AcDbXrecord
280
     1
  1
DWGPROPS COOKIE
  2

  3

  4
KRA
  6

  7

  8

  9
-
300
Manager=
301
Company=
302
Category=
303
Part Number=P0606-S
304
Description=P SERIES BACK PANEL MASTER VIEW
305
Project=
306
Designer=KRA
307
Engineer=
308
Authority=
309
Cost Center=
 40
0.0000372569444444
 41
2455950.474198935
 42
2455950.474198935
  1

 90
       20
300
Vendor=
300
User Status=
300
Design Status=WorkInProgress
300
Checked by=JMG
300
Date Checked=02/12/2009
300
Engr Approved by=
300
Mfg Approved by=
300
DWG. NO=
300
NUMBER OF SHEETS=1
300
DRAWING #=1
  0
XRECORD
  5
8C9
102
{ACAD_REACTORS
330
8C8
102
}
330
8C8
100
AcDbXrecord
280
     1
 40
41495.0
  1
\A1;\U+22050.250{\PGROUND\P HOLE}
  0
LAYOUT
  5
6B
102
{ACAD_XDICTIONARY
360
8C2
102
}
102
{ACAD_REACTORS
330
62
102
}
330
62
100
AcDbPlotSettings
  1

  2

  4

  6

 40
0.0
 41
0.0
 42
0.0
 43
0.0
 44
0.0
 45
0.0
 46
0.0
 47
0.0
 48
0.0
 49
0.0
140
0.0
141
0.0
142
1.0
143
1.0
 70
   688
 72
     0
 73
     0
 74
     5
  7

 75
    16
147
1.0
148
0.0
149
0.0
100
AcDbLayout
  1
Layout1
 70
     1
 71
     1
 10
0.0
 20
0.0
 11
12.0
 21
9.0
 12
0.0
 22
0.0
 32
0.0
 14
0.0
 24
0.0
 34
0.0
 15
0.0
 25
0.0
 35
0.0
146
0.0
 13
0.0
 23
0.0
 33
0.0
 16
1.0
 26
0.0
 36
0.0
 17
0.0
 27
1.0
 37
0.0
 76
     0
330
68
  0
LAYOUT
  5
73
102
{ACAD_XDICTIONARY
360
8C6
102
}
102
{ACAD_REACTORS
330
62
102
}
330
62
100
AcDbPlotSettings
  1

  2

  4

  6

 40
0.0
 41
0.0
 42
0.0
 43
0.0
 44
0.0
 45
0.0
 46
0.0
 47
0.0
 48
0.0
 49
0.0
140
0.0
141
0.0
142
1.0
143
1.0
 70
   688
 72
     0
 73
     0
 74
     5
  7

 75
    16
147
1.0
148
0.0
149
0.0
100
AcDbLayout
  1
Layout2
 70
     1
 71
     2
 10
0.0
 20
0.0
 11
12.0
 21
9.0
 12
0.0
 22
0.0
 32
0.0
 14
0.0
 24
0.0
 34
0.0
 15
0.0
 25
0.0
 35
0.0
146
0.0
 13
0.0
 23
0.0
 33
0.0
 16
1.0
 26
0.0
 36
0.0
 17
0.0
 27
1.0
 37
0.0
 76
     0
330
70
  0
LAYOUT
  5
6F
102
{ACAD_XDICTIONARY
360
8C4
102
}
102
{ACAD_REACTORS
330
62
102
}
330
62
100
AcDbPlotSettings
  1

  2

  4

  6

 40
0.0
 41
0.0
 42
0.0
 43
0.0
 44
0.0
 45
0.0
 46
0.0
 47
0.0
 48
0.0
 49
0.0
140
0.0
141
0.0
142
1.0
143
1.0
 70
  1712
 72
     0
 73
     0
 74
     0
  7

 75
     0
147
1.0
148
0.0
149
0.0
100
AcDbLayout
  1
Model
 70
     1
 71
     0
 10
0.0
 20
0.0
 11
12.0
 21
9.0
 12
0.0
 22
0.0
 32
0.0
 14
0.0
 24
0.0
 34
0.0
 15
0.0
 25
0.0
 35
0.0
146
0.0
 13
0.0
 23
0.0
 33
0.0
 16
1.0
 26
0.0
 36
0.0
 17
0.0
 27
1.0
 37
0.0
 76
     0
330
6C
  0
MATERIAL
  5
19
102
{ACAD_XDICTIONARY
360
1A
102
}
102
{ACAD_REACTORS
330
10
102
}
330
10
100
AcDbMaterial
  1
ByBlock
 72
     0
 43
0.0208333333333333
 43
0.0
 43
0.0
 43
0.0
 43
0.0
 43
0.0208333333333333
 43
0.0
 43
0.0
 43
0.0
 43
0.0
 43
1.0
 43
0.0
 43
0.0
 43
0.0
 43
0.0
 43
1.0
 77
     0
 47
0.0208333333333333
 47
0.0
 47
0.0
 47
0.0
 47
0.0
 47
0.0208333333333333
 47
0.0
 47
0.0
 47
0.0
 47
0.0
 47
1.0
 47
0.0
 47
0.0
 47
0.0
 47
0.0
 47
1.0
171
     0
 49
0.0208333333333333
 49
0.0
 49
0.0
 49
0.0
 49
0.0
 49
0.0208333333333333
 49
0.0
 49
0.0
 49
0.0
 49
0.0
 49
1.0
 49
0.0
 49
0.0
 49
0.0
 49
0.0
 49
1.0
175
     0
142
0.0208333333333333
142
0.0
142
0.0
142
0.0
142
0.0
142
0.0208333333333333
142
0.0
142
0.0
142
0.0
142
0.0
142
1.0
142
0.0
142
0.0
142
0.0
142
0.0
142
1.0
179
     0
144
0.0208333333333333
144
0.0
144
0.0
144
0.0
144
0.0
144
0.0208333333333333
144
0.0
144
0.0
144
0.0
144
0.0
144
1.0
144
0.0
144
0.0
144
0.0
144
0.0
144
1.0
147
0.0208333333333333
147
0.0
147
0.0
147
0.0
147
0.0
147
0.0208333333333333
147
0.0
147
0.0
147
0.0
147
0.0
147
1.0
147
0.0
147
0.0
147
0.0
147
0.0
147
1.0
  0
MATERIAL
  5
11
102
{ACAD_XDICTIONARY
360
12
102
}
102
{ACAD_REACTORS
330
10
102
}
330
10
100
AcDbMaterial
  1
ByLayer
 72
     0
 43
0.0208333333333333
 43
0.0
 43
0.0
 43
0.0
 43
0.0
 43
0.0208333333333333
 43
0.0
 43
0.0
 43
0.0
 43
0.0
 43
1.0
 43
0.0
 43
0.0
 43
0.0
 43
0.0
 43
1.0
 77
     0
 47
0.0208333333333333
 47
0.0
 47
0.0
 47
0.0
 47
0.0
 47
0.0208333333333333
 47
0.0
 47
0.0
 47
0.0
 47
0.0
 47
1.0
 47
0.0
 47
0.0
 47
0.0
 47
0.0
 47
1.0
171
     0
 49
0.0208333333333333
 49
0.0
 49
0.0
 49
0.0
 49
0.0
 49
0.0208333333333333
 49
0.0
 49
0.0
 49
0.0
 49
0.0
 49
1.0
 49
0.0
 49
0.0
 49
0.0
 49
0.0
 49
1.0
175
     0
142
0.0208333333333333
142
0.0
142
0.0
142
0.0
142
0.0
142
0.0208333333333333
142
0.0
142
0.0
142
0.0
142
0.0
142
1.0
142
0.0
142
0.0
142
0.0
142
0.0
142
1.0
179
     0
144
0.0208333333333333
144
0.0
144
0.0
144
0.0
144
0.0
144
0.0208333333333333
144
0.0
144
0.0
144
0.0
144
0.0
144
1.0
144
0.0
144
0.0
144
0.0
144
0.0
144
1.0
147
0.0208333333333333
147
0.0
147
0.0
147
0.0
147
0.0
147
0.0208333333333333
147
0.0
147
0.0
147
0.0
147
0.0
147
1.0
147
0.0
147
0.0
147
0.0
147
0.0
147
1.0
  0
MATERIAL
  5
21
102
{ACAD_XDICTIONARY
360
22
102
}
102
{ACAD_REACTORS
330
10
102
}
330
10
100
AcDbMaterial
  1
Global
 72
     0
 43
0.0208333333333333
 43
0.0
 43
0.0
 43
0.0
 43
0.0
 43
0.0208333333333333
 43
0.0
 43
0.0
 43
0.0
 43
0.0
 43
1.0
 43
0.0
 43
0.0
 43
0.0
 43
0.0
 43
1.0
 77
     0
 47
0.0208333333333333
 47
0.0
 47
0.0
 47
0.0
 47
0.0
 47
0.0208333333333333
 47
0.0
 47
0.0
 47
0.0
 47
0.0
 47
1.0
 47
0.0
 47
0.0
 47
0.0
 47
0.0
 47
1.0
171
     0
 49
0.0208333333333333
 49
0.0
 49
0.0
 49
0.0
 49
0.0
 49
0.0208333333333333
 49
0.0
 49
0.0
 49
0.0
 49
0.0
 49
1.0
 49
0.0
 49
0.0
 49
0.0
 49
0.0
 49
1.0
175
     0
142
0.0208333333333333
142
0.0
142
0.0
142
0.0
142
0.0
142
0.0208333333333333
142
0.0
142
0.0
142
0.0
142
0.0
142
1.0
142
0.0
142
0.0
142
0.0
142
0.0
142
1.0
179
     0
144
0.0208333333333333
144
0.0
144
0.0
144
0.0
144
0.0
144
0.0208333333333333
144
0.0
144
0.0
144
0.0
144
0.0
144
1.0
144
0.0
144
0.0
144
0.0
144
0.0
144
1.0
147
0.0208333333333333
147
0.0
147
0.0
147
0.0
147
0.0
147
0.0208333333333333
147
0.0
147
0.0
147
0.0
147
0.0
147
1.0
147
0.0
147
0.0
147
0.0
147
0.0
147
1.0
  0
MLEADERSTYLE
  5
67
102
{ACAD_XDICTIONARY
360
889
102
}
102
{ACAD_REACTORS
330
66
102
}
330
66
100
AcDbMLeaderStyle
170
     2
171
     1
172
     0
 90
        2
 40
0.0
 41
0.0
173
     1
 91
-1056964608
340
5B
 92
       -2
290
     1
 42
0.09
291
     1
 43
0.36
  3
Standard
 44
0.18
300

342
55
174
     1
178
     6
175
     1
176
     0
 93
-1056964608
 45
0.18
292
     0
297
     0
 46
0.18
 94
-1056964608
 47
1.0
 49
1.0
140
1.0
293
     1
141
0.0
294
     1
177
     0
142
1.0
295
     0
296
     0
143
0.125
1001
ACAD_MLEADERVER
1070
     2
  0
MLINESTYLE
  5
60
102
{ACAD_REACTORS
330
5F
102
}
330
5F
100
AcDbMlineStyle
  2
STANDARD
 70
     0
  3

 62
   256
 51
90.0
 52
90.0
 71
     2
 49
0.5
 62
   256
  6
BYLAYER
 49
-0.5
 62
   256
  6
BYLAYER
  0
ACDBPLACEHOLDER
  5
F
102
{ACAD_REACTORS
330
E
102
}
330
E
  0
SCALE
  5
43
102
{ACAD_REACTORS
330
42
102
}
330
42
100
AcDbScale
 70
     0
300
1:1
140
1.0
141
1.0
290
     1
  0
SCALE
  5
44
102
{ACAD_REACTORS
330
42
102
}
330
42
100
AcDbScale
 70
     0
300
1/128" = 1'-0"
140
0.0078125
141
12.0
290
     0
  0
SCALE
  5
45
102
{ACAD_REACTORS
330
42
102
}
330
42
100
AcDbScale
 70
     0
300
1/64" = 1'-0"
140
0.015625
141
12.0
290
     0
  0
SCALE
  5
46
102
{ACAD_REACTORS
330
42
102
}
330
42
100
AcDbScale
 70
     0
300
1/32" = 1'-0"
140
0.03125
141
12.0
290
     0
  0
SCALE
  5
47
102
{ACAD_REACTORS
330
42
102
}
330
42
100
AcDbScale
 70
     0
300
1/16" = 1'-0"
140
0.0625
141
12.0
290
     0
  0
SCALE
  5
48
102
{ACAD_REACTORS
330
42
102
}
330
42
100
AcDbScale
 70
     0
300
3/32" = 1'-0"
140
0.09375
141
12.0
290
     0
  0
SCALE
  5
49
102
{ACAD_REACTORS
330
42
102
}
330
42
100
AcDbScale
 70
     0
300
1/8" = 1'-0"
140
0.125
141
12.0
290
     0
  0
SCALE
  5
4A
102
{ACAD_REACTORS
330
42
102
}
330
42
100
AcDbScale
 70
     0
300
3/16" = 1'-0"
140
0.1875
141
12.0
290
     0
  0
SCALE
  5
4B
102
{ACAD_REACTORS
330
42
102
}
330
42
100
AcDbScale
 70
     0
300
1/4" = 1'-0"
140
0.25
141
12.0
290
     0
  0
SCALE
  5
4C
102
{ACAD_REACTORS
330
42
102
}
330
42
100
AcDbScale
 70
     0
300
3/8" = 1'-0"
140
0.375
141
12.0
290
     0
  0
SCALE
  5
4D
102
{ACAD_REACTORS
330
42
102
}
330
42
100
AcDbScale
 70
     0
300
1/2" = 1'-0"
140
0.5
141
12.0
290
     0
  0
SCALE
  5
4E
102
{ACAD_REACTORS
330
42
102
}
330
42
100
AcDbScale
 70
     0
300
3/4" = 1'-0"
140
0.75
141
12.0
290
     0
  0
SCALE
  5
4F
102
{ACAD_REACTORS
330
42
102
}
330
42
100
AcDbScale
 70
     0
300
1" = 1'-0"
140
1.0
141
12.0
290
     0
  0
SCALE
  5
50
102
{ACAD_REACTORS
330
42
102
}
330
42
100
AcDbScale
 70
     0
300
1-1/2" = 1'-0"
140
1.5
141
12.0
290
     0
  0
SCALE
  5
51
102
{ACAD_REACTORS
330
42
102
}
330
42
100
AcDbScale
 70
     0
300
3" = 1'-0"
140
3.0
141
12.0
290
     0
  0
SCALE
  5
52
102
{ACAD_REACTORS
330
42
102
}
330
42
100
AcDbScale
 70
     0
300
6" = 1'-0"
140
6.0
141
12.0
290
     0
  0
SCALE
  5
53
102
{ACAD_REACTORS
330
42
102
}
330
42
100
AcDbScale
 70
     0
300
1'-0" = 1'-0"
140
12.0
141
12.0
290
     0
  0
TABLESTYLE
  5
65
102
{ACAD_XDICTIONARY
360
887
102
}
102
{ACAD_REACTORS
330
64
102
}
330
64
100
AcDbTableStyle
  3
Standard
 70
     0
 71
     0
 40
0.06
 41
0.06
280
     0
281
     0
  7
Standard
140
0.18
170
     2
 62
     0
 63
     7
283
     0
274
    -2
284
     1
 64
     0
275
    -2
285
     1
 65
     0
276
    -2
286
     1
 66
     0
277
    -2
287
     1
 67
     0
278
    -2
288
     1
 68
     0
279
    -2
289
     1
 69
     0
  7
Standard
140
0.25
170
     5
 62
     0
 63
     7
283
     0
274
    -2
284
     1
 64
     0
275
    -2
285
     1
 65
     0
276
    -2
286
     1
 66
     0
277
    -2
287
     1
 67
     0
278
    -2
288
     1
 68
     0
279
    -2
289
     1
 69
     0
  7
Standard
140
0.18
170
     5
 62
     0
 63
     7
283
     0
274
    -2
284
     1
 64
     0
275
    -2
285
     1
 65
     0
276
    -2
286
     1
 66
     0
277
    -2
287
     1
 67
     0
278
    -2
288
     1
 68
     0
279
    -2
289
     1
 69
     0
  0
VISUALSTYLE
  5
2F
102
{ACAD_XDICTIONARY
360
89A
102
}
102
{ACAD_REACTORS
330
29
102
}
330
29
100
AcDbVisualStyle
  2
2dWireframe
 70
     4
 71
     0
 72
     2
 73
     0
 90
        0
 40
-0.6
 41
-30.0
 62
     5
 63
     7
 74
     1
 91
        4
 64
     7
 65
   257
 75
     1
175
     1
 42
1.0
 92
        0
 66
   257
 43
1.0
 76
     1
 77
     6
 78
     2
 67
     7
 79
     5
170
     0
171
     0
290
     0
174
     0
 93
        1
 44
0.0
173
     0
291
     0
 45
0.0
1001
ACAD
1000
AcDbSavedByObjectVersion
1070
     0
  0
VISUALSTYLE
  5
2E
102
{ACAD_XDICTIONARY
360
898
102
}
102
{ACAD_REACTORS
330
29
102
}
330
29
100
AcDbVisualStyle
  2
Basic
 70
     7
 71
     1
 72
     0
 73
     1
 90
        0
 40
-0.6
 41
-30.0
 62
     5
 63
     7
 74
     0
 91
        4
 64
     7
 65
   257
 75
     1
175
     1
 42
1.0
 92
        8
 66
     7
 43
1.0
 76
     1
 77
     6
 78
     2
 67
     7
 79
     5
170
     0
171
     0
290
     0
174
     0
 93
        1
 44
0.0
173
     0
291
     1
 45
0.0
1001
ACAD
1000
AcDbSavedByObjectVersion
1070
     0
  0
VISUALSTYLE
  5
35
102
{ACAD_XDICTIONARY
360
8A6
102
}
102
{ACAD_REACTORS
330
29
102
}
330
29
100
AcDbVisualStyle
  2
Brighten
 70
    12
 71
     2
 72
     2
 73
     0
 90
        0
 40
-0.6
 41
-30.0
 62
     5
 63
     7
 74
     1
 91
        4
 64
     7
 65
   257
 75
     1
175
     1
 42
1.0
 92
        8
 66
     7
 43
1.0
 76
     1
 77
     6
 78
     2
 67
     7
 79
     5
170
     0
171
     0
290
     0
174
     0
 93
        1
 44
50.0
173
     0
291
     1
 45
0.0
1001
ACAD
1000
AcDbSavedByObjectVersion
1070
     0
  0
VISUALSTYLE
  5
39
102
{ACAD_XDICTIONARY
360
8AE
102
}
102
{ACAD_REACTORS
330
29
102
}
330
29
100
AcDbVisualStyle
  2
ColorChange
 70
    16
 71
     2
 72
     2
 73
     3
 90
        0
 40
-0.6
 41
-30.0
 62
     5
 63
     8
 74
     1
 91
        4
 64
     7
 65
   257
 75
     1
175
     1
 42
1.0
 92
        8
 66
     8
 43
1.0
 76
     1
 77
     6
 78
     2
 67
     7
 79
     5
170
     0
171
     0
290
     0
174
     0
 93
        1
 44
0.0
173
     0
291
     1
 45
0.0
1001
ACAD
1000
AcDbSavedByObjectVersion
1070
     0
  0
VISUALSTYLE
  5
32
102
{ACAD_XDICTIONARY
360
8A0
102
}
102
{ACAD_REACTORS
330
29
102
}
330
29
100
AcDbVisualStyle
  2
Conceptual
 70
     9
 71
     3
 72
     2
 73
     0
 90
        0
 40
-0.6
 41
-30.0
 62
     5
 63
     7
 74
     2
 91
        2
 64
     7
 65
   257
 75
     1
175
     1
 42
179.0
 92
        8
 66
     7
 43
1.0
 76
     1
 77
     6
 78
     2
 67
     7
 79
     3
170
     0
171
     0
290
     0
174
     0
 93
        1
 44
0.0
173
     0
291
     0
 45
0.0
1001
ACAD
1000
AcDbSavedByObjectVersion
1070
     0
  0
VISUALSTYLE
  5
34
102
{ACAD_XDICTIONARY
360
8A4
102
}
102
{ACAD_REACTORS
330
29
102
}
330
29
100
AcDbVisualStyle
  2
Dim
 70
    11
 71
     2
 72
     2
 73
     0
 90
        0
 40
-0.6
 41
-30.0
 62
     5
 63
     7
 74
     1
 91
        4
 64
     7
 65
   257
 75
     1
175
     1
 42
1.0
 92
        8
 66
     7
 43
1.0
 76
     1
 77
     6
 78
     2
 67
     7
 79
     5
170
     0
171
     0
290
     0
174
     0
 93
        1
 44
-50.0
173
     0
291
     1
 45
0.0
1001
ACAD
1000
AcDbSavedByObjectVersion
1070
     0
  0
VISUALSTYLE
  5
41
102
{ACAD_XDICTIONARY
360
8BE
102
}
102
{ACAD_REACTORS
330
29
102
}
330
29
100
AcDbVisualStyle
  2
EdgeColorOff
 70
    22
 71
     2
 72
     2
 73
     0
 90
        0
 40
-0.6
 41
-30.0
 62
     5
 63
     7
 74
     1
 91
        4
 64
     7
 65
   257
 75
     1
175
     1
 42
1.0
 92
        8
 66
     7
 43
1.0
 76
     1
 77
     6
 78
     2
 67
     7
 79
     5
170
     0
171
     0
290
     0
174
     0
 93
        1
 44
0.0
173
     0
291
     1
 45
0.0
1001
ACAD
1000
AcDbSavedByObjectVersion
1070
     0
  0
VISUALSTYLE
  5
38
102
{ACAD_XDICTIONARY
360
8AC
102
}
102
{ACAD_REACTORS
330
29
102
}
330
29
100
AcDbVisualStyle
  2
Facepattern
 70
    15
 71
     2
 72
     2
 73
     0
 90
        0
 40
-0.6
 41
-30.0
 62
     5
 63
     7
 74
     1
 91
        4
 64
     7
 65
   257
 75
     1
175
     1
 42
1.0
 92
        8
 66
     7
 43
1.0
 76
     1
 77
     6
 78
     2
 67
     7
 79
     5
170
     0
171
     0
290
     0
174
     0
 93
        1
 44
0.0
173
     0
291
     1
 45
0.0
1001
ACAD
1000
AcDbSavedByObjectVersion
1070
     0
  0
VISUALSTYLE
  5
2A
102
{ACAD_XDICTIONARY
360
890
102
}
102
{ACAD_REACTORS
330
29
102
}
330
29
100
AcDbVisualStyle
  2
Flat
 70
     0
 71
     2
 72
     1
 73
     1
 90
        2
 40
-0.6
 41
30.0
 62
     5
 63
     7
 74
     0
 91
        0
 64
     7
 65
   257
 75
     1
175
     1
 42
1.0
 92
        8
 66
     7
 43
1.0
 76
     1
 77
     6
 78
     2
 67
     7
 79
     5
170
     0
171
     0
290
     0
174
     0
 93
       13
 44
0.0
173
     0
291
     1
 45
0.0
1001
ACAD
1000
AcDbSavedByObjectVersion
1070
     0
  0
VISUALSTYLE
  5
2B
102
{ACAD_XDICTIONARY
360
892
102
}
102
{ACAD_REACTORS
330
29
102
}
330
29
100
AcDbVisualStyle
  2
FlatWithEdges
 70
     1
 71
     2
 72
     1
 73
     1
 90
        2
 40
-0.6
 41
30.0
 62
     5
 63
     7
 74
     1
 91
        0
 64
     7
 65
   257
 75
     1
175
     1
 42
1.0
 92
        0
 66
   257
 43
1.0
 76
     1
 77
     6
 78
     2
 67
     7
 79
     5
170
     0
171
     0
290
     0
174
     0
 93
       13
 44
0.0
173
     0
291
     1
 45
0.0
1001
ACAD
1000
AcDbSavedByObjectVersion
1070
     0
  0
VISUALSTYLE
  5
2C
102
{ACAD_XDICTIONARY
360
894
102
}
102
{ACAD_REACTORS
330
29
102
}
330
29
100
AcDbVisualStyle
  2
Gouraud
 70
     2
 71
     2
 72
     2
 73
     1
 90
        2
 40
-0.6
 41
30.0
 62
     5
 63
     7
 74
     0
 91
        0
 64
     7
 65
   257
 75
     1
175
     1
 42
1.0
 92
        0
 66
     7
 43
1.0
 76
     1
 77
     6
 78
     2
 67
     7
 79
     5
170
     0
171
     0
290
     0
174
     0
 93
       13
 44
0.0
173
     0
291
     1
 45
0.0
1001
ACAD
1000
AcDbSavedByObjectVersion
1070
     0
  0
VISUALSTYLE
  5
2D
102
{ACAD_XDICTIONARY
360
896
102
}
102
{ACAD_REACTORS
330
29
102
}
330
29
100
AcDbVisualStyle
  2
GouraudWithEdges
 70
     3
 71
     2
 72
     2
 73
     1
 90
        2
 40
-0.6
 41
30.0
 62
     5
 63
     7
 74
     1
 91
        0
 64
     7
 65
   257
 75
     1
175
     1
 42
1.0
 92
        0
 66
   257
 43
1.0
 76
     1
 77
     6
 78
     2
 67
     7
 79
     5
170
     0
171
     0
290
     0
174
     0
 93
       13
 44
0.0
173
     0
291
     1
 45
0.0
1001
ACAD
1000
AcDbSavedByObjectVersion
1070
     0
  0
VISUALSTYLE
  5
31
102
{ACAD_XDICTIONARY
360
89E
102
}
102
{ACAD_REACTORS
330
29
102
}
330
29
100
AcDbVisualStyle
  2
Hidden
 70
     6
 71
     1
 72
     2
 73
     2
 90
        0
 40
-0.6
 41
-30.0
 62
     5
 63
     7
 74
     2
 91
        2
 64
     7
 65
   257
 75
     2
175
     1
 42
40.0
 92
        0
 66
   257
 43
1.0
 76
     1
 77
     6
 78
     2
 67
     7
 79
     3
170
     0
171
     0
290
     0
174
     0
 93
        1
 44
0.0
173
     0
291
     0
 45
0.0
1001
ACAD
1000
AcDbSavedByObjectVersion
1070
     0
  0
VISUALSTYLE
  5
3F
102
{ACAD_XDICTIONARY
360
8BA
102
}
102
{ACAD_REACTORS
330
29
102
}
330
29
100
AcDbVisualStyle
  2
JitterOff
 70
    20
 71
     2
 72
     2
 73
     0
 90
        0
 40
-0.6
 41
-30.0
 62
     5
 63
     7
 74
     1
 91
        4
 64
     7
 65
   257
 75
     1
175
     1
 42
1.0
 92
       10
 66
     7
 43
1.0
 76
     1
 77
     6
 78
     2
 67
     7
 79
     5
170
     0
171
     0
290
     0
174
     0
 93
        1
 44
0.0
173
     0
291
     1
 45
0.0
1001
ACAD
1000
AcDbSavedByObjectVersion
1070
     0
  0
VISUALSTYLE
  5
37
102
{ACAD_XDICTIONARY
360
8AA
102
}
102
{ACAD_REACTORS
330
29
102
}
330
29
100
AcDbVisualStyle
  2
Linepattern
 70
    14
 71
     2
 72
     2
 73
     0
 90
        0
 40
-0.6
 41
-30.0
 62
     5
 63
     7
 74
     1
 91
        4
 64
     7
 65
   257
 75
     7
175
     7
 42
1.0
 92
        8
 66
     7
 43
1.0
 76
     1
 77
     6
 78
     2
 67
     7
 79
     5
170
     0
171
     0
290
     0
174
     0
 93
        1
 44
0.0
173
     0
291
     1
 45
0.0
1001
ACAD
1000
AcDbSavedByObjectVersion
1070
     0
  0
VISUALSTYLE
  5
40
102
{ACAD_XDICTIONARY
360
8BC
102
}
102
{ACAD_REACTORS
330
29
102
}
330
29
100
AcDbVisualStyle
  2
OverhangOff
 70
    21
 71
     2
 72
     2
 73
     0
 90
        0
 40
-0.6
 41
-30.0
 62
     5
 63
     7
 74
     1
 91
        4
 64
     7
 65
   257
 75
     1
175
     1
 42
1.0
 92
        9
 66
     7
 43
1.0
 76
     1
 77
     6
 78
     2
 67
     7
 79
     5
170
     0
171
     0
290
     0
174
     0
 93
        1
 44
0.0
173
     0
291
     1
 45
0.0
1001
ACAD
1000
AcDbSavedByObjectVersion
1070
     0
  0
VISUALSTYLE
  5
33
102
{ACAD_XDICTIONARY
360
8A2
102
}
102
{ACAD_REACTORS
330
29
102
}
330
29
100
AcDbVisualStyle
  2
Realistic
 70
     8
 71
     2
 72
     3
 73
     0
 90
        2
 40
-0.6
 41
30.0
 62
     5
 63
     7
 74
     0
 91
        0
 64
     7
 65
   257
 75
     1
175
     1
 42
1.0
 92
        8
 66
   257
 43
1.0
 76
     1
 77
     6
 78
     2
 67
     7
 79
     3
170
     0
171
     0
290
     0
174
     0
 93
       13
 44
0.0
173
     0
291
     0
 45
0.0
1001
ACAD
1000
AcDbSavedByObjectVersion
1070
     0
  0
VISUALSTYLE
  5
3E
102
{ACAD_XDICTIONARY
360
8B8
102
}
102
{ACAD_REACTORS
330
29
102
}
330
29
100
AcDbVisualStyle
  2
Shaded
 70
    27
 71
     2
 72
     2
 73
     1
 90
        2
 40
-0.6
 41
30.0
 62
     5
 63
     7
 74
     0
 91
        4
 64
     7
 65
   257
 75
     1
175
     1
 42
1.0
 92
        8
 66
   257
 43
1.0
 76
     1
 77
     6
 78
     2
 67
     8
 79
     3
170
     0
171
     0
290
     0
174
     0
 93
        5
 44
0.0
173
     0
291
     0
 45
0.0
1001
ACAD
1000
AcDbSavedByObjectVersion
1070
     0
  0
VISUALSTYLE
  5
3D
102
{ACAD_XDICTIONARY
360
8B6
102
}
102
{ACAD_REACTORS
330
29
102
}
330
29
100
AcDbVisualStyle
  2
Shaded with edges
 70
    26
 71
     2
 72
     2
 73
     1
 90
        2
 40
-0.6
 41
30.0
 62
     5
 63
     7
 74
     1
 91
       10
 64
     7
 65
   257
 75
     2
175
     1
 42
1.0
 92
        8
 66
   257
 43
1.0
 76
     1
 77
     6
 78
     2
 67
     7
 79
     3
170
     0
171
     0
290
     0
174
     0
 93
        5
 44
0.0
173
     0
291
     0
 45
0.0
1001
ACAD
1000
AcDbSavedByObjectVersion
1070
     0
  0
VISUALSTYLE
  5
3A
102
{ACAD_XDICTIONARY
360
8B0
102
}
102
{ACAD_REACTORS
330
29
102
}
330
29
100
AcDbVisualStyle
  2
Shades of Gray
 70
    23
 71
     2
 72
     2
 73
     3
 90
        0
 40
-0.6
 41
-30.0
 62
     5
 63
     7
 74
     2
 91
        2
 64
     7
 65
     7
 75
     1
175
     1
 42
40.0
 92
        8
 66
     7
 43
1.0
 76
     1
 77
     6
 78
     2
 67
     7
 79
     3
170
     0
171
     0
290
     0
174
     0
 93
        1
 44
0.0
173
     0
291
     0
 45
0.0
1001
ACAD
1000
AcDbSavedByObjectVersion
1070
     0
  0
VISUALSTYLE
  5
3B
102
{ACAD_XDICTIONARY
360
8B2
102
}
102
{ACAD_REACTORS
330
29
102
}
330
29
100
AcDbVisualStyle
  2
Sketchy
 70
    24
 71
     1
 72
     2
 73
     2
 90
        0
 40
-0.6
 41
-30.0
 62
     5
 63
     7
 74
     2
 91
        2
 64
     7
 65
     7
 75
     1
175
     1
 42
40.0
 92
       11
 66
     7
 43
1.0
 76
     1
 77
     6
 78
     2
 67
     7
 79
     6
170
     0
171
     0
290
     0
174
     0
 93
        1
 44
0.0
173
     0
291
     0
 45
0.0
1001
ACAD
1000
AcDbSavedByObjectVersion
1070
     0
  0
VISUALSTYLE
  5
36
102
{ACAD_XDICTIONARY
360
8A8
102
}
102
{ACAD_REACTORS
330
29
102
}
330
29
100
AcDbVisualStyle
  2
Thicken
 70
    13
 71
     2
 72
     2
 73
     0
 90
        0
 40
-0.6
 41
-30.0
 62
     5
 63
     7
 74
     1
 91
        4
 64
     7
 65
   257
 75
     1
175
     1
 42
1.0
 92
       12
 66
     7
 43
1.0
 76
     1
 77
     6
 78
     2
 67
     7
 79
     5
170
     0
171
     0
290
     0
174
     0
 93
        1
 44
0.0
173
     0
291
     1
 45
0.0
1001
ACAD
1000
AcDbSavedByObjectVersion
1070
     0
  0
VISUALSTYLE
  5
30
102
{ACAD_XDICTIONARY
360
89C
102
}
102
{ACAD_REACTORS
330
29
102
}
330
29
100
AcDbVisualStyle
  2
Wireframe
 70
     5
 71
     0
 72
     2
 73
     0
 90
        0
 40
-0.6
 41
-30.0
 62
     5
 63
     7
 74
     1
 91
        4
 64
     7
 65
   257
 75
     1
175
     1
 42
1.0
 92
        0
 66
   257
 43
1.0
 76
     1
 77
     6
 78
     2
 67
     7
 79
     3
170
     0
171
     0
290
     0
174
     0
 93
        1
 44
0.0
173
     0
291
     0
 45
0.0
1001
ACAD
1000
AcDbSavedByObjectVersion
1070
     0
  0
VISUALSTYLE
  5
3C
102
{ACAD_XDICTIONARY
360
8B4
102
}
102
{ACAD_REACTORS
330
29
102
}
330
29
100
AcDbVisualStyle
  2
X-Ray
 70
    25
 71
     2
 72
     2
 73
     1
 90
        1
 40
0.5
 41
-30.0
 62
     5
 63
     7
 74
     1
 91
        0
 64
     7
 65
   257
 75
     1
175
     1
 42
1.0
 92
        8
 66
     7
 43
1.0
 76
     1
 77
     6
 78
     2
 67
     7
 79
     3
170
     0
171
     0
290
     0
174
     0
 93
       13
 44
0.0
173
     0
291
     0
 45
0.0
1001
ACAD
1000
AcDbSavedByObjectVersion
1070
     0
  0
DICTIONARYVAR
  5
79
102
{ACAD_REACTORS
330
76
102
}
330
76
100
DictionaryVariables
280
     0
  1
1:1
  0
DICTIONARYVAR
  5
78
102
{ACAD_REACTORS
330
76
102
}
330
76
100
DictionaryVariables
280
     0
  1
STANDARD
  0
DICTIONARYVAR
  5
77
102
{ACAD_REACTORS
330
76
102
}
330
76
100
DictionaryVariables
280
     0
  1
STANDARD
  0
DICTIONARYVAR
  5
885
102
{ACAD_REACTORS
330
76
102
}
330
76
100
DictionaryVariables
280
     0
  1
1
  0
DICTIONARYVAR
  5
884
102
{ACAD_REACTORS
330
76
102
}
330
76
100
DictionaryVariables
280
     0
  1
1
  0
DICTIONARYVAR
  5
883
102
{ACAD_REACTORS
330
76
102
}
330
76
100
DictionaryVariables
280
     0
  1
0
  0
DICTIONARYVAR
  5
880
102
{ACAD_REACTORS
330
76
102
}
330
76
100
DictionaryVariables
280
     0
  1
0
  0
DICTIONARYVAR
  5
881
102
{ACAD_REACTORS
330
76
102
}
330
76
100
DictionaryVariables
280
     0
  1
0
  0
DICTIONARYVAR
  5
87F
102
{ACAD_REACTORS
330
76
102
}
330
76
100
DictionaryVariables
280
     0
  1
2
  0
DICTIONARYVAR
  5
87E
102
{ACAD_REACTORS
330
76
102
}
330
76
100
DictionaryVariables
280
     0
  1
1
  0
DICTIONARYVAR
  5
882
102
{ACAD_REACTORS
330
76
102
}
330
76
100
DictionaryVariables
280
     0
  1
127
  0
DICTIONARYVAR
  5
886
102
{ACAD_REACTORS
330
76
102
}
330
76
100
DictionaryVariables
280
     0
  1
2
  0
DICTIONARY
  5
8C2
330
6B
100
AcDbDictionary
280
     1
281
     1
  3
ACAD_XREC_ROUNDTRIP
360
8C3
  0
DICTIONARY
  5
8C6
330
73
100
AcDbDictionary
280
     1
281
     1
  3
ACAD_XREC_ROUNDTRIP
360
8C7
  0
DICTIONARY
  5
8C4
330
6F
100
AcDbDictionary
280
     1
281
     1
  3
ACAD_XREC_ROUNDTRIP
360
8C5
  0
DICTIONARY
  5
1A
330
19
100
AcDbDictionary
280
     1
281
     1
  3
ACAD_XREC_ROUNDTRIP
360
88E
  3
BUMPTILE
360
1C
  3
DIFFUSETILE
360
1B
  3
OPACITYTILE
360
1F
  3
REFLECTIONTILE
360
1E
  3
REFRACTIONTILE
360
20
  3
SPECULARTILE
360
1D
  0
DICTIONARY
  5
12
330
11
100
AcDbDictionary
280
     1
281
     1
  3
ACAD_XREC_ROUNDTRIP
360
88D
  3
BUMPTILE
360
14
  3
DIFFUSETILE
360
13
  3
FBXASSET
360
10B
  3
OPACITYTILE
360
17
  3
REFLECTIONTILE
360
16
  3
REFRACTIONTILE
360
18
  3
SPECULARTILE
360
15
  0
DICTIONARY
  5
22
330
21
100
AcDbDictionary
280
     1
281
     1
  3
ACAD_XREC_ROUNDTRIP
360
88F
  3
BUMPTILE
360
24
  3
DIFFUSETILE
360
23
  3
FBXASSET
360
BA
  3
OPACITYTILE
360
27
  3
REFLECTIONTILE
360
26
  3
REFRACTIONTILE
360
28
  3
SPECULARTILE
360
25
  0
DICTIONARY
  5
889
330
67
100
AcDbDictionary
280
     1
281
     1
  3
ACAD_XREC_ROUNDTRIP
360
88A
  0
DICTIONARY
  5
887
330
65
100
AcDbDictionary
280
     1
281
     1
  3
ACAD_ROUNDTRIP_2008_TABLESTYLE_CELLSTYLEMAP
360
888
  3
ACAD_XREC_ROUNDTRIP
360
8C0
  0
DICTIONARY
  5
89A
330
2F
100
AcDbDictionary
280
     1
281
     1
  3
ACAD_XREC_ROUNDTRIP
360
89B
  0
DICTIONARY
  5
898
330
2E
100
AcDbDictionary
280
     1
281
     1
  3
ACAD_XREC_ROUNDTRIP
360
899
  0
DICTIONARY
  5
8A6
330
35
100
AcDbDictionary
280
     1
281
     1
  3
ACAD_XREC_ROUNDTRIP
360
8A7
  0
DICTIONARY
  5
8AE
330
39
100
AcDbDictionary
280
     1
281
     1
  3
ACAD_XREC_ROUNDTRIP
360
8AF
  0
DICTIONARY
  5
8A0
330
32
100
AcDbDictionary
280
     1
281
     1
  3
ACAD_XREC_ROUNDTRIP
360
8A1
  0
DICTIONARY
  5
8A4
330
34
100
AcDbDictionary
280
     1
281
     1
  3
ACAD_XREC_ROUNDTRIP
360
8A5
  0
DICTIONARY
  5
8BE
330
41
100
AcDbDictionary
280
     1
281
     1
  3
ACAD_XREC_ROUNDTRIP
360
8BF
  0
DICTIONARY
  5
8AC
330
38
100
AcDbDictionary
280
     1
281
     1
  3
ACAD_XREC_ROUNDTRIP
360
8AD
  0
DICTIONARY
  5
890
330
2A
100
AcDbDictionary
280
     1
281
     1
  3
ACAD_XREC_ROUNDTRIP
360
891
  0
DICTIONARY
  5
892
330
2B
100
AcDbDictionary
280
     1
281
     1
  3
ACAD_XREC_ROUNDTRIP
360
893
  0
DICTIONARY
  5
894
330
2C
100
AcDbDictionary
280
     1
281
     1
  3
ACAD_XREC_ROUNDTRIP
360
895
  0
DICTIONARY
  5
896
330
2D
100
AcDbDictionary
280
     1
281
     1
  3
ACAD_XREC_ROUNDTRIP
360
897
  0
DICTIONARY
  5
89E
330
31
100
AcDbDictionary
280
     1
281
     1
  3
ACAD_XREC_ROUNDTRIP
360
89F
  0
DICTIONARY
  5
8BA
330
3F
100
AcDbDictionary
280
     1
281
     1
  3
ACAD_XREC_ROUNDTRIP
360
8BB
  0
DICTIONARY
  5
8AA
330
37
100
AcDbDictionary
280
     1
281
     1
  3
ACAD_XREC_ROUNDTRIP
360
8AB
  0
DICTIONARY
  5
8BC
330
40
100
AcDbDictionary
280
     1
281
     1
  3
ACAD_XREC_ROUNDTRIP
360
8BD
  0
DICTIONARY
  5
8A2
330
33
100
AcDbDictionary
280
     1
281
     1
  3
ACAD_XREC_ROUNDTRIP
360
8A3
  0
DICTIONARY
  5
8B8
330
3E
100
AcDbDictionary
280
     1
281
     1
  3
ACAD_XREC_ROUNDTRIP
360
8B9
  0
DICTIONARY
  5
8B6
330
3D
100
AcDbDictionary
280
     1
281
     1
  3
ACAD_XREC_ROUNDTRIP
360
8B7
  0
DICTIONARY
  5
8B0
330
3A
100
AcDbDictionary
280
     1
281
     1
  3
ACAD_XREC_ROUNDTRIP
360
8B1
  0
DICTIONARY
  5
8B2
330
3B
100
AcDbDictionary
280
     1
281
     1
  3
ACAD_XREC_ROUNDTRIP
360
8B3
  0
DICTIONARY
  5
8A8
330
36
100
AcDbDictionary
280
     1
281
     1
  3
ACAD_XREC_ROUNDTRIP
360
8A9
  0
DICTIONARY
  5
89C
330
30
100
AcDbDictionary
280
     1
281
     1
  3
ACAD_XREC_ROUNDTRIP
360
89D
  0
DICTIONARY
  5
8B4
330
3C
100
AcDbDictionary
280
     1
281
     1
  3
ACAD_XREC_ROUNDTRIP
360
8B5
  0
XRECORD
  5
8C3
102
{ACAD_REACTORS
330
8C2
102
}
330
8C2
100
AcDbXrecord
280
     1
102
SHADEPLOT
 70
     0
102
SHADEPLOTRESLEVEL
 70
     2
102
SHADEPLOTCUSTOMDPI
 70
   300
  0
XRECORD
  5
8C7
102
{ACAD_REACTORS
330
8C6
102
}
330
8C6
100
AcDbXrecord
280
     1
102
SHADEPLOT
 70
     0
102
SHADEPLOTRESLEVEL
 70
     2
102
SHADEPLOTCUSTOMDPI
 70
   300
  0
XRECORD
  5
8C5
102
{ACAD_REACTORS
330
8C4
102
}
330
8C4
100
AcDbXrecord
280
     1
102
SHADEPLOT
 70
     0
102
SHADEPLOTRESLEVEL
 70
     2
102
SHADEPLOTCUSTOMDPI
 70
   300
  0
XRECORD
  5
88E
102
{ACAD_REACTORS
330
1A
102
}
330
1A
100
AcDbXrecord
280
     1
102
MATERIAL
148
0.0
149
0.0
149
0.0
 93
        0
 94
      127
282
     0
 72
     0
 77
     0
171
     0
175
     0
179
     0
273
     0
  0
XRECORD
  5
1C
102
{ACAD_REACTORS
330
1A
102
}
330
1A
100
AcDbXrecord
280
     1
270
     1
271
     1
  0
XRECORD
  5
1B
102
{ACAD_REACTORS
330
1A
102
}
330
1A
100
AcDbXrecord
280
     1
270
     1
271
     1
  0
XRECORD
  5
1F
102
{ACAD_REACTORS
330
1A
102
}
330
1A
100
AcDbXrecord
280
     1
270
     1
271
     1
  0
XRECORD
  5
1E
102
{ACAD_REACTORS
330
1A
102
}
330
1A
100
AcDbXrecord
280
     1
270
     1
271
     1
  0
XRECORD
  5
20
102
{ACAD_REACTORS
330
1A
102
}
330
1A
100
AcDbXrecord
280
     1
270
     1
271
     1
  0
XRECORD
  5
1D
102
{ACAD_REACTORS
330
1A
102
}
330
1A
100
AcDbXrecord
280
     1
270
     1
271
     1
  0
XRECORD
  5
88D
102
{ACAD_REACTORS
330
12
102
}
330
12
100
AcDbXrecord
280
     1
102
MATERIAL
148
0.0
149
0.0
149
0.0
 93
        0
 94
      127
282
     0
 72
     0
 77
     0
171
     0
175
     0
179
     0
273
     0
  0
XRECORD
  5
14
102
{ACAD_REACTORS
330
12
102
}
330
12
100
AcDbXrecord
280
     1
270
     1
271
     1
  0
XRECORD
  5
13
102
{ACAD_REACTORS
330
12
102
}
330
12
100
AcDbXrecord
280
     1
270
     1
271
     1
  0
XRECORD
  5
10B
102
{ACAD_REACTORS
330
12
102
}
330
12
100
AcDbXrecord
280
     1
 70
     1
 90
1959938040
 71
     1
  1
4B418041-ACEA-4F26-B4A6-90646340E93D
311
504B03040A0000080000DA5A37403DEE336E79000000790000001B0000006175746F6465736B2D64657369676E2D7061636B6167652E786D6C3C3F786D6C2076657273696F6E3D22312E302220656E636F64696E673D227574662D3822203F3E3C666F726D6174733E3C666F726D61743E687474703A2F2F736368656D612E
311
6175746F6465736B2E636F6D2F64657369676E2D7061636B6167652F323030393C2F666F726D61743E3C2F666F726D6174733E504B0304140006080800DA5A3740D486FD9CA0000000F4000000130000005B436F6E74656E745F54797065735D2E786D6C7D8EC10E82300C865F65E91D8A1E8C310C0EEA1BF002731658846E
311
D98AC1B77784ABF1D8FE5FBFBF75BBCE937A534CCEB38643598122B6FEE978D0B0485F9C41B54DDD7D022595594E1A469170414C76A4D9A4D207E29CF43ECE46F218070CC6BECC4078ACAA135ACF422C856C0E68EA1BF5669944DDD7BCDE7B1F8E415D77AECB980613C2E4AC91FC167A2B244592486606FC29C8FD7F045B9A
311
EF7053A7E60B504B0304140006080800DA5A3740731A425EEA0000007C01000008000000636F72652E786D6C8D90516EC3201044AF82F61F1BB09D3A16268A9BE604BD0002E2A0C46019A87AFCE2C491DABF7EED6A98C78E861FBEA73BFA324BB0DEF5400B02C838E5B575630F295E700BE820F8E27DFC6503E4E4647A5865
311
107C5C7C9A374979178D8B59755E9B4D9421980848DDF3D243505733C942A6981DE156CC52DDE4680AFADA329C92D5E879C4EAFC9FBD58B380A02D7B67ED89E0869C8FB86EDECE785F0F277CDC0FA4DE0DED99B41FBC5C61C1A39D5EF7D56264341A042394614231AB3E29ED18EB9A0A935D47082F57FB1F28CDFA9F50B22E
311
566C8BFBC442CE9A833C1E042FD72EF2781495E7DA9BF801504B0304140006080800DA5A374055019EA25F0000007C00000007000000636E782E786D6C4DCB3B0E80201045D1AD90E915ED2CF8AC45050C11660C8261F98AB1B07AC9C97D42D718D865D3E909258CFD00CCE24AC6E326A164D74DC0B4128928FF326038472B
311
A13128B1252AC747C6BAB984FC68F0B87FE8960A5C09FE86CFB69FBA01504B0304140006080800DA5A3740B50E472966010000020300000C0000006662782F636F72652E786D6C8D52ED8E8230107C95A6FF4B4B450F4DA9D1F37C827B810A9523424B4A4B7CFC5B3E8CE7C51843529A999DDDD901B1BD3635EAB5EB2A6B32
311
1C470C236D725B54A6CC70F0679262B495C259EBFF94616454A3333CC0588AD2D9D0CE506E8DD7C6036A6CA16750759DF618E5355C32DCE53FBA51910A1E2ABA4BD4AAFCA24A1DC511D0502745E71D1840D390E1C4F27CBA0A3AE152845015335B1530AD3A57DA6119A7FC93A7074696ECB823C9F2E348D6C9FE4076EB3D4B
311
56FBF4C8D22F4107B114BE6A6EEE72A795D705969CC59CB098F0C5771C6F38DF2C1784AD368C093A943F88425BBC290A95F10B3EDB9D641D78052323F16F5B88C8A34EF5E0874A418710E13526FC18340402217B75AA6F7B5C00EA75EEAD4B80296CB853BDAA8386A90C8D8FA0130B9DC706B0D9D33EFC459FD73DE0032A53
311
8235E5E17A0A7E982EA6A97314AD76A4F75764AC6B547D373759BC9FF7414FE5B9ADAD7B474DE755E91C261DFE5EF90B504B0304140006080800DA5A3740E974D9D07D0000009D0000000B0000006662782F636E782E786D6C4DCC410E83201445D1AD903FA72ABFAD0E0003CA424C45638A6028345D7EB571D0D14B4E5E2E
311
6F3FAB236F1B5F4BF002AA4B09C4FA4718173F0BC869A20D9056F21842FABB01F1C36A051C0C92CF31E4EDA4D14E43766957B7F8E78978C35E2B86146B56D2ABBE1BAA4DCF688D1AB1EA8C6A3A0585E4C5AFB4EF11965F504B0304140006080800DA5A37400C78B4632901000013020000310000006662782F333533444241
311
32332D333732302D344236452D424544322D3733423333314345413843412F636F72652E786D6C8D514B6EC32014BC8AC52A5D60F389ED28C24471921BF4020E101725068B4F95E3176A476A77D9F0D0BC9979038F1D9ED3A3F856CE6B6B3A804B040A658495DA8C1D88E10677A03870E6AC0D7F68A030C3A43A9061C0D9E8
311
6C9C574858139409093556AA151CBC570114E2912E1DF0E24B4D4339C49018FE5ECE83B80FA32A7199DA89C7990F2E05289621F9049CD6F4DC1F0985B425086EFBE602FBCB99C096F694E2D3E5B83B1D59B508398B51CB55AE658AA36F5AB9774DB298B3A0A7577CE1D41094049C204C20C290D04F8CF784EC6B0A51B34788
311
5599FE4F1467F9A6286A132859E32E320F3866D5D2E04CDA787DBCC2A8E76C5D28F2BC8D57E203705422825B54B7AC5A98E9FDC9B2D9AE963E5897FE7773BF2632AE17DF66CB59955794CAEFFE52CDEBE43F504B0304140006080800DA5A3740B28CB5744D01000033030000300000006662782F33353344424132332D3337
311
32302D344236452D424544322D3733423333314345413843412F636E782E786D6CD593BD6E032110845F05D1DF0F67C78A2C0E4B29F20429D272B076883938F113C56F9FC5C68E1B1729D3A0D3EC30B3FAC4F1DDF76CC9178468BC1B296B7B4AC029AF8D3B8C34A77DF34CC94EF0E07DBAB351E2E40C232D3215FC107C5EAA
311
A4612FB34DA85AE38E550C107D0E0A22CAE526B15E498B01E09A8C22CC13680D9ADC8CF8B58780ABA0389D48FA00F2FAF24EFCF4092A45DE9514C1BBD22178396BD39D891265658C238DEA0366D9CA9CBC86786CB54CB265EDB5EBC14EBF49A45CB856E66048291F6939A9A81BB5C8917738143CA680F4AA299D16A0422E8B
311
354A2684DC9D8D178FE0D9B8B45957AF41F001DD6CB35AAF31EC3C133C9919AA43059009341543CF86A667CDB07A636C3B0CDBA755D36FB67DCFBB62177CF2DED64B1803C12F447997C0252A18EFCAF811BEEA23DA0464EDC3E90F2011406DBDD0B965FC673EDDF97D23AE807F81F801504B0304140006080800DA5A37403E
311
70D9379B0500007B100000340000006662782F33353344424132332D333732302D344236452D424544322D3733423333314345413843412F6F626A656374732E786D6CAD575B6FA33814FE2B887D260909D36D5794512EED289AEDCC68A219ED43A5C880A1DE9A8B6CD3A6FBEBF733180269D26657F302D8D8C7E77CE73B17
311
FB1F7719B79EA890ACC8AF6D7734B12D9A4745CCF2F4DAAE54E25CDAD6C7C01745A17ACB6C2B2719BDB6F5B41DF8A928AAD24CC53421155707B3B78BBF2C19D19CDA56C48994D7B68C1E684646A452454CE5E328268A8CD264377247CDC2A1D85490F2E140684904CD1534C57C0E2956A3943B1C4EEC71E08FF5FFC0D74FB3
311
6A767AD5B8B667783ECBA52279F4EAB0033133D75BDD4C3F5C391F3C6FE6781753D759DC2E568EFBFB6CB2BC582EAFE6375738582A0149461341133BF8046C048BFC71F32BF02B96ABD9D42C310E1A0BFAC4B4A7EC606AB9FEB859D359678C3CA67E54E4398D6AAC80466D9F111DD392E6317CCEA884663D8426C3A1AB71EC
311
FD9EE9B139B23F7D1E02FD1D3D41ADEEEDBBAF6911FE0D13E4390C12926A0636581A431BAE4EF6088745C1CD3F26AD8C282A18E11667A120E2C50EB0542F09FC8118CD64A1A3415B6007F042F37B481784D1FB3C3FA6655271AE696C0775146C112B54C95A33F60F157BEDFBC84027F84AB3E1D218A45E4A6A07570D452E0F
311
D8D40069259CA47039CCD43B67D30343973A4ED72B3BF87C1BEE363A768F1F5E8AA2A44269FA805AADE3DAB746C9E8E49EE539BDC13E50650FCA7720FF05A1BE57057E136CE7ED3C738A122497492132F8C69A58CE048F89E5D64FFDDDFBF2C7DDE6A1F74EE109676BA87E019E431BFABEECC119F84F207C2166C6B44D4438
311
D2C61DCB01902689C50B4C210F27E1CE0ED6C872C8CAD84578E0C264A8FB844F7F6CC42051D427F5DE39B03C488B672468C05633126A34E4370AEEFDF42A9DD5079B65A7E0FDF04BE83A5F6D3E6F2A919088DE99985ED184E54CA1C4ED79D3576880F9C0A247FAF25C881886BEC67BD3C73B334749A0AD31D7C0A76D4ED783
311
FDC9830322EC4B0B9D6EFC774E8011BAB0F6E4DF311951CE494E8BAA3DF7CDFA81B2D140AC835D33B92B30FBC202D2347F0E6210453A12ACD42076D5AA4B9AA313D6FD587F0123ED60F1F22779E967AF709F7BA38217621BBE6C9BB47414EA9F436E1B0CC65A0AE85E07491BFF06F46DCC92A49248824770FDB95EF67DA7D3
311
0252442BB589160FF623B88830A46DE5A25A0B824A5AE45B86BA89B83B7A405F3E20350CA8059ED258529E6C19E755B64D184735DA66A43C01C7FFD73FACB2724BB2A2CAD509D903D5511D86BA0FD82B9F898A1EEC6053BF9D05726F4CE31364D0B5E4085603D77A0BCFBD9C78AE335FDECC1DEF767AE12CBCF9857335B9F0
311
2E66DEE4E66AB66AFDD46812F86DA9E94734BC84D2E6578219F7FD58237E4C12B0833BA2E4FDA7263CDBF78FF508BDB03FC61ED4CB6EE33C7E42DF47E3F705EC571E15B4CE4A4E339A2BA263E84E7FF0EF047DC64099667E9D91949E21E5EBA7CD8131983963DF371DEFF4F960AF995DEA803C2A443D54599813C60F36A60D
311
92A3324F0D7EAD4FBA775368DAA11E19C7A03395056731F2606CA5B4C8A842363CA308898C4A50AFDFD3C7E6EE71C6EEA7A6435424E4B4D5E481A049E61261016A55911ACE5BBFA1A9D37DD5B58D723B7AC4C3640ADB0267AE6D34E98A45548E421468DD0AD5C2C1A57E278FC69FE42947AFDD6CEAC6DD2E8DCDA024774BCE
311
E99F8C5D4D0A3706208D94E81BD010C13BB532815FEB66FE47FFC9F0561D8B287C8695EA6CD94F74C6D4C720441BA3CC6D014DCCA3397A87407DDB2C7754AF192072D62DEB4D1234521D45445ADF14B47E46A5F9EADB181D8AB5FE6A95BC4AE1CBF325398282CC950E70B008AC30324BA240D5E51FF7DF44819B6C66DD3250
311
E07E596459919BC1DCDC84ADCD03EEB5F13DD202D51712793F9DB8D3FBFA2260EE26DB90483A22B17CC4047C2A5807F1C0F16064735B44056A7E74EBC6DA0907DC5CAF2C53D23C083544E967550D0B5A8E9C5A881E7D99D4B1D25F50BE791718D74BA18240171FFC0B504B0304140006080000DA5A37400000000000000000
311
00000000350000006662782F33353344424132332D333732302D344236452D424544322D3733423333314345413843412F76657274696365732E62696E504B0304140006080800DA5A3740F270F1330600000004000000360000006662782F33353344424132332D333732302D344236452D424544322D3733423333314345
311
413843412F747269616E676C65732E62696E636660600000504B0304140006080000DA5A3740000000000000000000000000370000006662782F33353344424132332D333732302D344236452D424544322D3733423333314345413843412F617474726962757465732E62696E504B0304140006080800DA5A3740D5987DFC
311
8F00000041010000360000006662782F33353344424132332D333732302D344236452D424544322D3733423333314345413843412F6469726563746F72792E786D6C858F410EC2201045AF4266AF15DDB800BA74E7C21B903225242D6328188F2FA5C4183471359997F9FF81E89FF3C41E1816475E02DF1F80A11FC8386F25
311
A438EECEC07A250251FC3803E6F58C12560C4AD840E95E91C151A72936F496F35732D860FE635F62C8F2DA16B505C545B74125BAA2FA9E05D7CC053D063734D5C7665FD55B6B8D15D5E9BFEAFD8490FFA45E504B0304140006080800DA5A3740A99D6E6BFD000000A00100003B0000006662782F33353344424132332D3337
311
32302D344236452D424544322D3733423333314345413843412F7265736F75726365732F636F72652E786D6C8D504B6E833010BD0AF2DE601B4809328E425A4ED00B586642AD041BF953F5F8B5132AB5BB6E6646EFA3797AFCF4B5DE8B4F705E5B33205A1254805176D66619500C57DCA1E224B8B336FC92A1C2C815069461
311
24F8E26CDC76485913C084841A3BC30E4AEF21A042DDD33120AF3E6095A58C2129FCADDCA4BAC9054A5A263AE904F7C1A500C5F3499E4838F0363A059E574F56F018F5BC6BF49C7EEAAB068704EDD885759709B7643AE3A67D99F0B1195FF1F93892E6307613E9DE7895CD8207BDFE64540E648019094628C3846256BF53DA
311
33D6B73526879E105E65F91F53DCE67F9AA236A1667BDCA7CDA7AC29C88310BCCA7DA5F52833EDDCADF806504B010214000A0000080000DA5A37403DEE336E79000000790000001B00000000000000000000000000000000006175746F6465736B2D64657369676E2D7061636B6167652E786D6C504B010214001400060808
311
00DA5A3740D486FD9CA0000000F40000001300000000000000000000000000B20000005B436F6E74656E745F54797065735D2E786D6C504B01021400140006080800DA5A3740731A425EEA0000007C010000080000000000000000000000000083010000636F72652E786D6C504B01021400140006080800DA5A374055019E
311
A25F0000007C000000070000000000000000000000000093020000636E782E786D6C504B01021400140006080800DA5A3740B50E472966010000020300000C00000000000000000000000000170300006662782F636F72652E786D6C504B01021400140006080800DA5A3740E974D9D07D0000009D0000000B000000000000
311
00000000000000A70400006662782F636E782E786D6C504B01021400140006080800DA5A37400C78B463290100001302000031000000000000000000000000004D0500006662782F33353344424132332D333732302D344236452D424544322D3733423333314345413843412F636F72652E786D6C504B0102140014000608
311
0800DA5A3740B28CB5744D010000330300003000000000000000000000000000C50600006662782F33353344424132332D333732302D344236452D424544322D3733423333314345413843412F636E782E786D6C504B01021400140006080800DA5A37403E70D9379B0500007B100000340000000000000000000000000060
311
0800006662782F33353344424132332D333732302D344236452D424544322D3733423333314345413843412F6F626A656374732E786D6C504B01021400140006080000DA5A374000000000000000000000000035000000000000000000000000004D0E00006662782F33353344424132332D333732302D344236452D424544
311
322D3733423333314345413843412F76657274696365732E62696E504B01021400140006080800DA5A3740F270F13306000000040000003600000000000000000000000000A00E00006662782F33353344424132332D333732302D344236452D424544322D3733423333314345413843412F747269616E676C65732E62696E
311
504B01021400140006080000DA5A37400000000000000000000000003700000000000000000000000000FA0E00006662782F33353344424132332D333732302D344236452D424544322D3733423333314345413843412F617474726962757465732E62696E504B01021400140006080800DA5A3740D5987DFC8F0000004101
311
000036000000000000000000000000004F0F00006662782F33353344424132332D333732302D344236452D424544322D3733423333314345413843412F6469726563746F72792E786D6C504B01021400140006080800DA5A3740A99D6E6BFD000000A00100003B00000000000000000000000000321000006662782F333533
311
44424132332D333732302D344236452D424544322D3733423333314345413843412F7265736F75726365732F636F72652E786D6C504B0506000000000E000E0080040000881100000000
310
504B03040A0000080000DA5A37403DEE336E79000000790000001B0000006175746F6465736B2D64657369676E2D7061636B6167652E786D6C3C3F786D6C2076657273696F6E3D22312E302220656E636F64696E673D227574662D3822203F3E3C666F726D6174733E3C666F726D61743E687474703A2F2F736368656D612E
310
6175746F6465736B2E636F6D2F64657369676E2D7061636B6167652F323030393C2F666F726D61743E3C2F666F726D6174733E504B0304140006080800DA5A3740D486FD9CA0000000F4000000130000005B436F6E74656E745F54797065735D2E786D6C7D8EC10E82300C865F65E91D8A1E8C310C0EEA1BF002731658846E
310
D98AC1B77784ABF1D8FE5FBFBF75BBCE937A534CCEB38643598122B6FEE978D0B0485F9C41B54DDD7D022595594E1A469170414C76A4D9A4D207E29CF43ECE46F218070CC6BECC4078ACAA135ACF422C856C0E68EA1BF5669944DDD7BCDE7B1F8E415D77AECB980613C2E4AC91FC167A2B244592486606FC29C8FD7F045B9A
310
EF7053A7E60B504B0304140006080800DA5A37403D97E95EE80000007C01000008000000636F72652E786D6C8D90D18E832010457F85CC3B0AA8BBAD419A6AFC83FD0102D425AD600436FDFC626B93DDB77D9AC99D7B6626979FEEF30DFD983558EF3AA00501649CF2DABAA983142FF800E824F8EA7DFC6503E4E46C3AD864
310
107C5A7D5A764979178D8B59755E9B5D9421980848DD72D34150DF6696854C313BC2B558A4BACAC914F4DD653825ABD1EB88D5799FBD58B382606C3C3246075C9DAB01D7ACEFF1B13E37B8A79F84D4CD611C879E971B2C78B4F3FBBE5A8D8C46679E508609C5ACFAA2B465AC6D2A4C3E5A4278B9D9FF4069D1FF849275B162
310
FBBB2F2C80A0F991E740F072CB22976750B96EB98907504B0304140006080800DA5A374055019EA25F0000007C00000007000000636E782E786D6C4DCB3B0E80201045D1AD90E915ED2CF8AC45050C11660C8261F98AB1B07AC9C97D42D718D865D3E909258CFD00CCE24AC6E326A164D74DC0B4128928FF326038472BA131
310
28B1252AC747C6BAB984FC68F0B87FE8960A5C09FE86CFB69FBA01504B0304140006080800DA5A3740E469E7C064010000020300000C0000006662782F636F72652E786D6C8D52ED8E8230107C95A6FF4B3FC03BCF941A31BEC1BD4085CA11A125A5253EFE2D82F1BC1863484A33B3B33B3B20B797AE45A3F143E36C8E79C2
310
3032B6745563EB1CC770226B8CB64A7AE7C29F328CACEE4C8E27182B597B17FB052A9D0DC60640ADABCC02EA613001A3B2854B8E87F2C7743AD13140C5704E7A5D9E756D129E000D754A0EC18301340F994EAC4EC78BA433AE648C4DB5B04D05D39A53633C56421CBE84E07B92EED23DC9445190AF6CB72205FF642C5BAD0F
310
877D21E924563234DDCD5DE98D0EA6023DE382304E44FACDF94688CD2A25EC63C398A453F98328F6D59BA2D8D8908AC5EE2C1BB0E260E44AFCDB16220A68D023F8A14AD22944785D137E0C1A028190833EB6B73DCE008DA60CCE67C0542EDEA951B7D1C05486AE8FA4330B9DAF0D60B3A77DC48B3EAF7BC007D4B6066B3AC0
310
F518C3345DCE5397287AE3C9182EC83ADFE9F66E6EB6783FEF839ECA4BD73AFF8E9A2EABD2254C3AFDBDEA17504B0304140006080800DA5A37400F6A81027E0000009D0000000B0000006662782F636E782E786D6C4DCCD10E82201886E15B61FF399956041BE000F33E5CA263213482D6E5A7CD838EBEEDD9B797B79FC5A3
310
B74D2F178380FA700464C33D8E2ECC024A9E3005D44A9E62CC7F37406158AC808D41F239C5F2DC69B4D3507C5ED5BBF0D89119D5B3E67AC35A9B0E9F4F0DC1AA260A1342596F34559DBE402579F52BADBB85E517504B0304140006080800DA5A37401D61B8BF2C01000014020000310000006662782F39434146393237452D
310
424243442D343332362D413136412D3636383946434238414442352F636F72652E786D6C8D51DB8EC22014FC15C293FB400BB4D66A28A6D5F50BF6072A45255A68B86CFCFC856D4D76DF7CE19039337326E7B0FD737C806F699D32BA8124C310482DCCA0F4B581C15F500DC19E336B8CFF438340F7A36C60822167576BC2B4
310
40C2682FB58FA836835CC0DE39E921108FF869A0133739F6591F7C64B87B36F5E2DE5F6546B2D88E3CCE9CB731009887A417F2EDA13D6DE9E61375DDE188CA8256A825558BAAAADE9E0E5DDD1EBB35CB67216721A86191AB21C6511725EDBB2649CC9957E32BBEB0B2F772809C6242112688165F84EC28DDAD0B84AB1DC62C
310
4FF47FA2300D6F8A82D2BEA04BDC59E620272C9F1B9C0D269C1FAF30F23919EB419AB772527C408E334C4951D69BB880991A17103DAB72F174DED8B8E0D5FD1CD9C5625C959CE5E946B1FC1E30D6744FFE03504B0304140006080800DA5A3740D42B7A635401000033030000300000006662782F39434146393237452D4242
310
43442D343332362D413136412D3636383946434238414442352F636E782E786D6CBD93BD6E032110845F05D1DFBF63591687A5147982146939583BC41C9CF889E2B7CF6263C78D8B48511A749A1D66569F38B6FB9A0DF9041FB4B323EDEA9612B0D2296D0F234D715F6D28D971E69D8B77364AAC9861A459A69C1DBC4B4B91
310
14EC45321155A3EDB1881E824B5E424039DF24C6496130006C9550847902A540919B11BFF6E0711514A71389EF405E9EDF889B3E40C6C09A9CC259933B38CB6769BA3351228D0861A441BEC32C6A91A253108EB51251D45D7DED7AB0D34F12C917AE95C96B92CB479A4FCACB463572640D0E390BD123BD628AA7052817CB62
310
B41411213767E3C5C359D236AE57C5AB11BC47F7D0AF371B0C3BCF388B7A86E2901E44044579DF767DD576553FBC76DDB6EFB74F43D5AEB76DCB9A6CE76C72CE944B1803DE2D443A1BC146CA3BD6E4F1237CC54794F6C8DAF9D32F402280D27AA173CBF84B3EDD7A58ADFE914F737EDF88CBE35FC0BF01504B030414000608
310
0800DA5A3740DCDB132B59070000941B0000340000006662782F39434146393237452D424243442D343332362D413136412D3636383946434238414442352F6F626A656374732E786D6CED595B73A33614FE2B0C7D36363149371DC24EE25CC6D3667767DDDDE94366181964A24608461249DC5FDFA30B18884970377DDB07
310
1B10D2D139DFB9EA107E7CCEA9F388B920053B737D6FE63A9825454A5876E6567233F9E03A1FA39017856C4D731D86727CE6AA61370A335E54A51D4AF1065554F646AF2FFE72448219769D842221CE5C91DCE31C79A892458AC583972289BC6CF3ECF99E99D8259B7154DEF788968863268153186740C5314CF9DDC7993B8D
310
C2A97A1F85EADFCE9A8F9A150CCF9A6AA9BB5C12262462C90B967A64E6A3589AFBC1E5D5D1F1E9E43808E693E0E4C89F5C5C5F5C4EFC5FE7B3C5C962717A7E750AECAD8B825A99525C629682FEB66EE48753F5A611DD22B08FEBA4600C271A48804A8BD52748B080AD5AF0CDBA8FBE92A8F55A4BD87A0ED47BCB426B78DEA5
310
32346B1C101DBA2088DDAE96B8BEB6E52BD67F83E0628C51728125702B2407ED5A783878851BCDC2A9198DC2F54E17443839929813441D4AD61C71500A4C5553A2D02CB06494737020E52809B4E6CCEBAE6D8167BEED3AFBB8DC54942ACF7023ED5831B81F96427346FEC17CC77D1B19E009A4AD08931F2C97725B62373A0D
310
A77A300AD5657E645F1A209D0D4599D08898B73D4117CAF597976EF4FBF5FA79A5C2C1FECD4B5E94984B65744A8F9A2F30647B5528D96DFD519A530B401803AA5DB903E52B20FF09A2C78E15D01B27CFC17360E74A8E98D8143C07DD3833673283BF99E3EB7F75DFBA0BA7CDE2AEF686F0043755507DF8713CBB3268AC2CFF
310
2D38A3F0110CBEE073FB6A95200AF67C4B1800A48CC4A1050C4168DFAC9FDD68098113023DAC4234F2416460F7116EC3A925B3D34AED5ED6EB18206AF7988F5112C0A62D12D818D0D30D640F4E929D9ADA220EC17BFC2EE67A7EB9FA7D55F10D4AF0ADF5E94BBC218C48C89AFB19EA60DE91E8016F9F0A9E82A02FF15EB5F1
310
CEED5602D056982BE0B31A04F5B0DBB9B34102EBB242859BF08D1D400895AB5BF46F894830A588E1A2AAF76DA29B32D4C6E36DCDE0464706E2F951CF84397E24AAAA00A7D9CDE8300A793FE1A45420BAD18D91AC099ADE8074DF969FC0229BF903B3960C422F43F44F1DB4F6E0D0B1EC1A690B4423F07A17CE9382163C5E6F
310
6313E95CA825808DAEB77CEF1085586F94A4A8800769BFAB434A66A48D53B2D95402E2EA1E16BF2F176D73987973FFD869FFF79C3180680BBE8BB8F5BBDE1E31C95186E30D4A87B66BEFD6D0169AE400698E3714E4228F446E6324E3598AB343A03988F8E9BB52CF682104615840BEDA0B7E1B8D990781C468B3665969B507
310
3411718E25A28720A0C80C80ABD38EAE7113281DDEE6B1B1DED734D626FA3F590447504B162C26508A420E799371DF3B8618D245D7A0DCC317ACADA6ADC5A0159410C9367EC224BB9787A06EC80FE09EC091A4927151A204CC7A04D917BEA294DAE37D8D9207953FE2A4A2EF652002D34D4C28ADF2187E84C1C9638C6B3781
310
E955145AC44DEC933887A20CC98A8FD9E4E478F6621F5333F443606BA30DA110B6E31C9503A87702A2AE479C067C4B7D40A9EB2A2F639417151B6528DEBCEF4D967C5FAD8AEC487E55A90865634DD8128C42C2649355EB980DA6AE032BB8910E54DB58A0BCA4E614F646E2F11B6FD2940737E0D64FDF77831C0ABF01EDB523
310
6A50C36079EC1406E209C9E4DE8D56FA3AB980FA3BC5E92ED5D7B566BB0204C45424AF38B12AFAB684F2C6D6686E748BA4B8BB3159B7BE7E5B7AD0FD08A7B0066A9766E152019D632691AA4C6ED50DFD8A2004776898F1A5CAA98750394F535D35227A4D86D4D929233A9BE6C42BEF312B72F8B13BC2125AA5F80EA5E221BE
310
95345E11C5BA95D2CB498DF1AB027EBE59F5E0819111227D51051E7EEAADB5A30B552EED2522EFAB7CCD108120D8112D33BAF14A96598DD45A6EAEEA4C01751718985571F0F364D16E47FC3C5964D6307EE86471B1FD036DDB7D91563A4F945D1F740C68F293A2F21EC700DD7668A83659C424732BBF75A61882621DE54757
310
6375D030048738FECF597B280B9AED7AFC1F96B5FD1715C74159A5335975A9F654AECB4E0EBB08FC0FB3C09F9C2FAECE27C1F5D1C9E422383F999CCE4E82937930BB3A9D5F36686A478DC22698E9DC05CF26A8D5C3EAC962005D59515092C2693E75320C315FC2997E44FB9CE75840F26C37BB53DB941FB1FAD1F439255A53
310
5C73728FA0414C05A475C0A84A6477DCF9055A93120EDA672E348DBC07F8B356E93A9079CE5C6815489260E1ADA1CDA41A7A9A38A45C9DFB2D31C007B14CA544B3A8796E56296C3AE1BF9932260D58B93A3D0C28DC4AE87E753A149A37CB537290E0353B0E9270BBAE24546B4696DD40238CDE66A77E231B25ECC16EFD0CAE
310
FBBA58BEA7E7741019F5C9E0552330542712F14CF7BB156396A5F3CB2F53E8B339CBCF4E49AB0C74399ED2846330E64A1554604560159666892498EAE2B7BB2FBC804F3CB9A3ABA2BB4591E705B30FE7701E4BE11391B3BA870F3EE91D940D58B5D5C5DDD1CC3FBAD3ED6CDB618FD748604FD543305097114A849EB18145BE
310
684DD9C6E55429A1377D79E9D8F0096D0063412FBABBE6F39603DEA33EA4285FD11E5ECBF96A477BAAA7823570E84547FF02504B0304140006080000DA5A3740000000000000000000000000350000006662782F39434146393237452D424243442D343332362D413136412D3636383946434238414442352F766572746963
310
65732E62696E504B0304140006080800DA5A3740F270F1330600000004000000360000006662782F39434146393237452D424243442D343332362D413136412D3636383946434238414442352F747269616E676C65732E62696E636660600000504B0304140006080000DA5A37400000000000000000000000003700000066
310
62782F39434146393237452D424243442D343332362D413136412D3636383946434238414442352F617474726962757465732E62696E504B0304140006080800DA5A3740D5987DFC8F00000041010000360000006662782F39434146393237452D424243442D343332362D413136412D3636383946434238414442352F6469
310
726563746F72792E786D6C858F410EC2201045AF4266AF15DDB800BA74E7C21B903225242D6328188F2FA5C4183471359997F9FF81E89FF3C41E1816475E02DF1F80A11FC8386F25A438EECEC07A250251FC3803E6F58C12560C4AD840E95E91C151A72936F496F35732D860FE635F62C8F2DA16B505C545B74125BAA2FA9E
310
05D7CC053D063734D5C7665FD55B6B8D15D5E9BFEAFD8490FFA45E504B0304140006080800DA5A37402E3CC7C6FB000000A00100003B0000006662782F39434146393237452D424243442D343332362D413136412D3636383946434238414442352F7265736F75726365732F636F72652E786D6C8D504B6EC32010BD0A628F
310
0DD86E130B13C5916FD00B203C495062B0F8543D7E2176A576D7CDCCE87D344F4F9CBE9627FA041F8CB3036615C508AC76B3B1B701A77825078C4E5278E7E22F1946562D30E00263296EDEA57587B4B3116CCCA87533ECA00A012246FA998F01077D8745552AC5AC088F6A55FAA16E50B12AD3592745883E0740DB9332B1F4
310
105CF21A82A837568A94CCBC6BCC9C7F9AAB018F25E7D391733692E6DC5C48CBC7911CDB734746F64E69DB1DA6E9328ABA98A58866F9C9A83DA80873F653C6096584371F8CF59CF75D43E85B4FA9A88BFC8F29ADF33F4DC9D8D8F03DEE660B58B21CE445485197BEF27A959977E9567E03504B010214000A0000080000DA5A
310
37403DEE336E79000000790000001B00000000000000000000000000000000006175746F6465736B2D64657369676E2D7061636B6167652E786D6C504B01021400140006080800DA5A3740D486FD9CA0000000F40000001300000000000000000000000000B20000005B436F6E74656E745F54797065735D2E786D6C504B01
310
021400140006080800DA5A37403D97E95EE80000007C010000080000000000000000000000000083010000636F72652E786D6C504B01021400140006080800DA5A374055019EA25F0000007C000000070000000000000000000000000091020000636E782E786D6C504B01021400140006080800DA5A3740E469E7C0640100
310
00020300000C00000000000000000000000000150300006662782F636F72652E786D6C504B01021400140006080800DA5A37400F6A81027E0000009D0000000B00000000000000000000000000A30400006662782F636E782E786D6C504B01021400140006080800DA5A37401D61B8BF2C0100001402000031000000000000
310
000000000000004A0500006662782F39434146393237452D424243442D343332362D413136412D3636383946434238414442352F636F72652E786D6C504B01021400140006080800DA5A3740D42B7A6354010000330300003000000000000000000000000000C50600006662782F39434146393237452D424243442D343332
310
362D413136412D3636383946434238414442352F636E782E786D6C504B01021400140006080800DA5A3740DCDB132B59070000941B00003400000000000000000000000000670800006662782F39434146393237452D424243442D343332362D413136412D3636383946434238414442352F6F626A656374732E786D6C504B
310
01021400140006080000DA5A37400000000000000000000000003500000000000000000000000000121000006662782F39434146393237452D424243442D343332362D413136412D3636383946434238414442352F76657274696365732E62696E504B01021400140006080800DA5A3740F270F13306000000040000003600
310
000000000000000000000000651000006662782F39434146393237452D424243442D343332362D413136412D3636383946434238414442352F747269616E676C65732E62696E504B01021400140006080000DA5A37400000000000000000000000003700000000000000000000000000BF1000006662782F39434146393237
310
452D424243442D343332362D413136412D3636383946434238414442352F617474726962757465732E62696E504B01021400140006080800DA5A3740D5987DFC8F000000410100003600000000000000000000000000141100006662782F39434146393237452D424243442D343332362D413136412D363638394643423841
310
4442352F6469726563746F72792E786D6C504B01021400140006080800DA5A37402E3CC7C6FB000000A00100003B00000000000000000000000000F71100006662782F39434146393237452D424243442D343332362D413136412D3636383946434238414442352F7265736F75726365732F636F72652E786D6C504B050600
310
0000000E000E00800400004B1300000000
  0
XRECORD
  5
17
102
{ACAD_REACTORS
330
12
102
}
330
12
100
AcDbXrecord
280
     1
270
     1
271
     1
  0
XRECORD
  5
16
102
{ACAD_REACTORS
330
12
102
}
330
12
100
AcDbXrecord
280
     1
270
     1
271
     1
  0
XRECORD
  5
18
102
{ACAD_REACTORS
330
12
102
}
330
12
100
AcDbXrecord
280
     1
270
     1
271
     1
  0
XRECORD
  5
15
102
{ACAD_REACTORS
330
12
102
}
330
12
100
AcDbXrecord
280
     1
270
     1
271
     1
  0
XRECORD
  5
88F
102
{ACAD_REACTORS
330
22
102
}
330
22
100
AcDbXrecord
280
     1
102
MATERIAL
148
0.0
149
0.0
149
0.0
 93
        0
 94
      127
282
     0
 72
     0
 77
     0
171
     0
175
     0
179
     0
273
     0
  0
XRECORD
  5
24
102
{ACAD_REACTORS
330
22
102
}
330
22
100
AcDbXrecord
280
     1
270
     1
271
     1
  0
XRECORD
  5
23
102
{ACAD_REACTORS
330
22
102
}
330
22
100
AcDbXrecord
280
     1
270
     1
271
     1
  0
XRECORD
  5
BA
102
{ACAD_REACTORS
330
22
102
}
330
22
100
AcDbXrecord
280
     1
 70
     1
 90
1959938040
 71
     1
  1
1CB7CA03-0262-4650-B44D-9A078B9CF674
311
504B03040A0000080000DA5A37403DEE336E79000000790000001B0000006175746F6465736B2D64657369676E2D7061636B6167652E786D6C3C3F786D6C2076657273696F6E3D22312E302220656E636F64696E673D227574662D3822203F3E3C666F726D6174733E3C666F726D61743E687474703A2F2F736368656D612E
311
6175746F6465736B2E636F6D2F64657369676E2D7061636B6167652F323030393C2F666F726D61743E3C2F666F726D6174733E504B0304140006080800DA5A3740D486FD9CA0000000F4000000130000005B436F6E74656E745F54797065735D2E786D6C7D8EC10E82300C865F65E91D8A1E8C310C0EEA1BF002731658846E
311
D98AC1B77784ABF1D8FE5FBFBF75BBCE937A534CCEB38643598122B6FEE978D0B0485F9C41B54DDD7D022595594E1A469170414C76A4D9A4D207E29CF43ECE46F218070CC6BECC4078ACAA135ACF422C856C0E68EA1BF5669944DDD7BCDE7B1F8E415D77AECB980613C2E4AC91FC167A2B244592486606FC29C8FD7F045B9A
311
EF7053A7E60B504B0304140006080800DA5A37407DF24FB7E90000007C01000008000000636F72652E786D6C8D50D18EC22010FC15C23B2D50F57A0DC5D4AA5F703F4060AD440B4D01739F7F546B72F7764FBB3B3BB33B19B1FF1EEFE80173B0DEB59815142370DA1BEB8616A7782135467B2966EFE32F1A464E8DD0E205C6
311
520CB34FD30A69EF22B89851E70DACA00A012246FA9E9B16077D8551152AC5CC08B76252FAA60628D8BBCBE294AC41AF27D6E47BF66261C6927D32D69FF981F4DDAE279BBAFE20DDB9AAC8899EBA6ADB6F8E47DA8972114B11EDF8FEAF6750110C969C324E2823BCFA62ACE1BCD9E671D7502ACA85FE479426F34F51B22E56
311
7CB5FB9285EC351B792EA428972C72790695EB929BFC01504B0304140006080800DA5A374055019EA25F0000007C00000007000000636E782E786D6C4DCB3B0E80201045D1AD90E915ED2CF8AC45050C11660C8261F98AB1B07AC9C97D42D718D865D3E909258CFD00CCE24AC6E326A164D74DC0B4128928FF326038472BA1
311
3128B1252AC747C6BAB984FC68F0B87FE8960A5C09FE86CFB69FBA01504B0304140006080800DA5A3740ACA2B85366010000020300000C0000006662782F636F72652E786D6C8D52ED8E8230107C95A6FFA1B4A8E79952C3A13EC1BD4085CA11A125A5253EFE2D1F86F3628C2181B2B3B3333BC0F7B7A646BDB25D65748269
311
1861A4746E8A4A9709F6EE126C31DA0B6E8D717FDA30D2B251091ECA58F0D21ADFCEA5DC68A7B483AA36859A8BB2EB94C328AFE190E02EFF518D0CA577D0D15DC356E65759AA908600439FE09DB360004D22C31D8BCBF9C6C95417DCFBAA98D1AA00B5EA52298B05FDA4343BB1AF204B3759B0DA6E3F82F414C7C1313AA6F1
311
3A5B1D0E51CAC94016DC55CDDD5D6E9574AAC082459405110D58FC4DE98EB1DD1A5E37BB28E264687F20F9B67893E42BED6236DB9D681D78052323F06F5B88C8A14EF6E087084E8610E13126FC18340402213B79AEEF7B5CA1D4ABDC19BB02A4307E817A597B05AA111A2F4E2614268F0360B3A773D88B39AF67C00794BA04
311
6BD2C1F1ECDDA0CE27D5398A56D9A07737A48D6D64BD989B2C2EF745E8293D37B5B1EFB0C9BC2A99C324C3DF2B7E01504B0304140006080800DA5A3740968DA4087D0000009D0000000B0000006662782F636E782E786D6C4DCC410E83201085E1AB90D9539DEAC22680E980BD87A96848111A0A4D8F5F6D5C74F5922F2FBF
311
E83FAB676F9B5E2E060978AA81D9708F930B8B849267DE01EB954831E6BF1BB030AE56C2CEA0C49262791E34D9792C3E6FEA5D781C58D3808446F3CE0CC8DB33694E17435CDFA8414DFADAB4089512D5AFB4ED1E565F504B0304140006080800DA5A3740CD8D74FF2C01000014020000310000006662782F30424531423144
311
432D384445312D343242432D423944422D4346423331434243413334312F636F72652E786D6C8D51CB6EC32010FC158B537AB00DD871D308131527FD82FE00B1898B1283C5A3CAE777A91DA9BDE5C2C232333BBBCB0EF7E9967D2BE7B5352D2205469932BD1DB4195B14C325DFA1ECC099B336FC81A1CCC849B528A51167A3
311
B3715E53BD35419900596307B526A5F72AA0ACBFC1A545BEFF52932C640C80F0D76296FD558EAA20057C038E331F1C18C89622E9441C8B1311E4D8E5BBE389E435155D2EDE8E22EF3E44453AD1BD573561E542E42C463DAC743D801D7DD1CA3D2B92C89C053D3DECF74EC9A006C4292634C724A7D527217B4AF75B78367B8C
311
5999E0FF48711E9E24456D424557BB0BCD230EDD2C1F9C0D369E6F0F33EA3E5B17B2546FE355FF025D1598E2A621D52B2B17280C00349B7AD5F4C13A18F0E67A0634D9B2320937356765DA1184DF05424CFBE43F504B0304140006080800DA5A3740B39931054C01000033030000300000006662782F30424531423144432D
311
384445312D343242432D423944422D4346423331434243413334312F636E782E786D6CD593CD6EC32010845F0571F70F4E1A551126520F7D821E7AC5B049693058FC54CDDB7749489A4B0E3DF682ECD98F99D5C8E6BBEFD9922F08D1783752D6F69480535E1B7718694EFBE699929DE0C1FB748751E2E40C232D3215FC107C
311
5EAAA4612FB34DA85AE38E550C107D0E0A22CAE526B15E498B06E09A8C22CC13680D9ADC407CDA43C055509C4E247D00797D79277EFA049522EF8A8BE05DC910BC9C35E90EA2445919E348A3FA8059B63227AF211E5B2D936C597BCD7AB0D3AF132917AE91391852C2475A4E2AEA462DF6C83B1C0A1E53C0F62A944E0B5021
311
97C51A251396DC9DC10B2378362E6DD69535587C409A6D56EB359A9D678227334325540099405331F46C687AD60CAB37C6B6C3B07DC2D7CDB6EF795770C127EF6DBD843610FC429477095CA282F1AE8C1FD55739A24DC0AE7D38FDA1482CA0A65EDAB979FCE77EBAF3F78D7505FC0BC40F504B0304140006080800DA5A3740
311
31DE646B990500007A100000340000006662782F30424531423144432D384445312D343242432D423944422D4346423331434243413334312F6F626A656374732E786D6CAD57DB6EDB3810FD1541FBEC8B6CE7B65054F8D2144691B6A8D1621F0218944429DC50A24052A9B35FBF8712254B8E9D78177DB12C6A389C3973E6
311
42FFC32EE3CE33958A89FCD6F58663D7A179246296A7B76EA993C1B5EB7C087C2984EE88B94E4E327AEB9A6537F05329CAC22EC5342125D707AB778BBF1C15D19CBA4EC48952B7AE8A1E694686A4D422A6EA6918134D8669B21B7AC35AB0AF3695A4783C505A1049730D4BB19E438B531BE5F55FC7EE28F047E67BE09B5F2B
311
353D2D35AAFCE99FCF72A5491EBD3AEC40CDD49BAD3E4E2E6E0617B3D97430BB9C7883C5DD6235F0AEA6E3E5E5727933FF7883839596D0642D913471834FC046B2C81FD59F02BF64B99E4EAC880DD048D2676622E50613C7F347B54CEB9D75F298F991C8731A5558018DCA3FAB3AA605CD63C49C5105CB3A088DFBAF9EC1B1
311
F3796ADEED91DDE5F310E8EEE8286A6C6F9E5D4B45F8375C50E730482A6A185863691DADB93ADE231C0AC1ED37A69C8C682A19E10E67A124F2C50D206A4402BFA7C630599A6C301EB801A2507FEED30569F43ECF8F5999949C1B1ABB4195055BE40AD5AAB28CFD43E5DEFA2E32B009B1326CB8B60EE99782BAC14D4D91EB03
311
36D5403A092729420E37CDCEE9E4C0D1A5C9D3F5CA0D3EDF85BB8DC9DDE387175214546A431F50AB095CF33428599BBCB3226736B807A6EC41F90EE4BF20D5F7A6206E92ED66BB993D454B92AB44C80CB171C6CE608C9FB1E355BFE67FE79F3F6A37F7A3770A4F04DB40F51BF0ECFBD08D6507CEC07F06E1859C5AD73611E1
311
281BF72C074086240E1758421D4EC29D1BAC51E55095B18BF0C083CB30F7197FFD91558342519DD479E6C0F2A02C9E51A0015BC548985193DF1AB88FD3AB72561D6CC54EC17BF15BE83A5F6D3E6F4A999088DEDB9C5ED184E54CA3C5ED79D335A88779CFA327FAF24BC8188EBEC67BD3C53BB34729A06D3037C0A74D4D372F
311
FB937B0744D8970A536EFC774E8013A6B176F4DF331551CE494E45D99CFB66FF40DBA82136C96E98DC36987D630169EA2F073988261D49561810DB6ED516CDE109EF7EACBF809190E722247C2F14EE4B6F24B890DBF0655B57A5A348FFEC53DB4230325AC0F62A479AF4B7986F639624A5420D3C02EBCFF5B21B3A53155021
311
1AAD75B2CCE03E728B48CBD9462F9AB52468A422DF32B44DA4DDD103BAFA81A82540A5F094C58AF264CB382FB36DC2389AD13623C50938FEBFFD6199155B928932D72774F74C4773E8DBDE23AFFA4574F4E8069BEA3958A0F4C634DE87B9276C5AC911ACFAA15D2EAE96F3F174309E5C4E303E5D8C078BD96C35B8998FAFAE
311
1737CBBBCBAB5913A75A79E0379DA69BD088123A9B5F4A66C3F7638DF4B135C00DEE89560F9FEAEC6C9E3FD6438CC2FE087BD02EDB8DF3F819631F8DDF57B0973CAA689D159C6634D7C4A4D0BDF9C3BF138C193D63EAF57546527A8696AF9F3607CE60E58C7DDF4CBAD35F077BEDEAD224E45125FAB1CCC29C307EB031AD91
311
1C16796AF16B62D23EEB3ED3BC9A371B180CA64A7016A30CC64E4A4546358AE1193D486654817ADD913EB6578F33763FD703A22621A78D258F04333257480B50AB8C747FDDF903339D19AB6E5D74DBE1137E6CA5701D70E6D6C58CAE5944D530447F369350A51C5CEA0EF298FB499E728CDAF5A6F6BDDD65B0E975E456E49C
311
F1C9FA555770EB00CA4881B101F310A2531913F8956DF67BF49F1C6FCC7188C6DFB0D4AD2FFB85D699EA18A468ED94BD2C608679B247EF90A86FBBE50D2B991E22675DB2DE2441AD75A0894CAB8B82B1CF9A345F7D1B614071D65F9D8297296279BEA681A4207369121C2C022BACCE82685075F9E7C337297091CD9C3B060A
311
3C2C459689DCBECCED45D8D93CE25A1B3FA02C50731F510F93B13779A8EE01F66AB20D89A24312AB272C20A692B510F7020F46D6974574A0FA432B37324138E0E67AE5D896861ADBC877ABAA810513474E1D648FB94B9A5CE90A146F5E054695284C9018E2837F01504B0304140006080000DA5A3740000000000000000000
311
000000350000006662782F30424531423144432D384445312D343242432D423944422D4346423331434243413334312F76657274696365732E62696E504B0304140006080800DA5A3740F270F1330600000004000000360000006662782F30424531423144432D384445312D343242432D423944422D434642333143424341
311
3334312F747269616E676C65732E62696E636660600000504B0304140006080000DA5A3740000000000000000000000000370000006662782F30424531423144432D384445312D343242432D423944422D4346423331434243413334312F617474726962757465732E62696E504B0304140006080800DA5A3740D5987DFC8F
311
00000041010000360000006662782F30424531423144432D384445312D343242432D423944422D4346423331434243413334312F6469726563746F72792E786D6C858F410EC2201045AF4266AF15DDB800BA74E7C21B903225242D6328188F2FA5C4183471359997F9FF81E89FF3C41E1816475E02DF1F80A11FC8386F25A4
311
38EECEC07A250251FC3803E6F58C12560C4AD840E95E91C151A72936F496F35732D860FE635F62C8F2DA16B505C545B74125BAA2FA9E05D7CC053D063734D5C7665FD55B6B8D15D5E9BFEAFD8490FFA45E504B0304140006080800DA5A374015181286FB000000A00100003B0000006662782F30424531423144432D384445
311
312D343242432D423944422D4346423331434243413334312F7265736F75726365732F636F72652E786D6C8D504B6EC32010BD8AC51E1B7092A61626B29CE404BD008289831283C5A7EAF10BB12BB5BB6E18E67D344F8F9FBEE667F5093E18677B446B822AB0CA6963A71EA578C347549D04F7CEC55F32545939438F0A8C04
311
9FBC4BCB06296723D89851EB346CA00C0122AAD4337F7A14D41D6659CB14B3223CEA45AA879CA0A675A6B34EF0107D0E50AD47CA8B8487E092571078B3B282A764F4A6313ADF3437031E09FA4EE97865031E87C38877C7E31B1EAE6D8B2FE432B4FB71773E938137C52C7834F34F46E54146D0483042192614B3F683D28EB1
311
6E9FD74347086F8AFC8F292DFA9FA6646C6CD91677B5859C350779118237A5AF3C5E65E659BA15DF504B010214000A0000080000DA5A37403DEE336E79000000790000001B00000000000000000000000000000000006175746F6465736B2D64657369676E2D7061636B6167652E786D6C504B01021400140006080800DA5A
311
3740D486FD9CA0000000F40000001300000000000000000000000000B20000005B436F6E74656E745F54797065735D2E786D6C504B01021400140006080800DA5A37407DF24FB7E90000007C010000080000000000000000000000000083010000636F72652E786D6C504B01021400140006080800DA5A374055019EA25F00
311
00007C000000070000000000000000000000000092020000636E782E786D6C504B01021400140006080800DA5A3740ACA2B85366010000020300000C00000000000000000000000000160300006662782F636F72652E786D6C504B01021400140006080800DA5A3740968DA4087D0000009D0000000B000000000000000000
311
00000000A60400006662782F636E782E786D6C504B01021400140006080800DA5A3740CD8D74FF2C0100001402000031000000000000000000000000004C0500006662782F30424531423144432D384445312D343242432D423944422D4346423331434243413334312F636F72652E786D6C504B01021400140006080800DA
311
5A3740B39931054C010000330300003000000000000000000000000000C70600006662782F30424531423144432D384445312D343242432D423944422D4346423331434243413334312F636E782E786D6C504B01021400140006080800DA5A374031DE646B990500007A100000340000000000000000000000000061080000
311
6662782F30424531423144432D384445312D343242432D423944422D4346423331434243413334312F6F626A656374732E786D6C504B01021400140006080000DA5A374000000000000000000000000035000000000000000000000000004C0E00006662782F30424531423144432D384445312D343242432D423944422D43
311
46423331434243413334312F76657274696365732E62696E504B01021400140006080800DA5A3740F270F133060000000400000036000000000000000000000000009F0E00006662782F30424531423144432D384445312D343242432D423944422D4346423331434243413334312F747269616E676C65732E62696E504B01
311
021400140006080000DA5A37400000000000000000000000003700000000000000000000000000F90E00006662782F30424531423144432D384445312D343242432D423944422D4346423331434243413334312F617474726962757465732E62696E504B01021400140006080800DA5A3740D5987DFC8F0000004101000036
311
000000000000000000000000004E0F00006662782F30424531423144432D384445312D343242432D423944422D4346423331434243413334312F6469726563746F72792E786D6C504B01021400140006080800DA5A374015181286FB000000A00100003B00000000000000000000000000311000006662782F304245314231
311
44432D384445312D343242432D423944422D4346423331434243413334312F7265736F75726365732F636F72652E786D6C504B0506000000000E000E0080040000851100000000
310
504B03040A0000080000DA5A37403DEE336E79000000790000001B0000006175746F6465736B2D64657369676E2D7061636B6167652E786D6C3C3F786D6C2076657273696F6E3D22312E302220656E636F64696E673D227574662D3822203F3E3C666F726D6174733E3C666F726D61743E687474703A2F2F736368656D612E
310
6175746F6465736B2E636F6D2F64657369676E2D7061636B6167652F323030393C2F666F726D61743E3C2F666F726D6174733E504B0304140006080800DA5A3740D486FD9CA0000000F4000000130000005B436F6E74656E745F54797065735D2E786D6C7D8EC10E82300C865F65E91D8A1E8C310C0EEA1BF002731658846E
310
D98AC1B77784ABF1D8FE5FBFBF75BBCE937A534CCEB38643598122B6FEE978D0B0485F9C41B54DDD7D022595594E1A469170414C76A4D9A4D207E29CF43ECE46F218070CC6BECC4078ACAA135ACF422C856C0E68EA1BF5669944DDD7BCDE7B1F8E415D77AECB980613C2E4AC91FC167A2B244592486606FC29C8FD7F045B9A
310
EF7053A7E60B504B0304140006080800DA5A3740CBEB8917E80000007C01000008000000636F72652E786D6C8D904D6EC3201085AF82D8E3008E5BC7C244767E4ED00B20983828315806AA1E3F3871A476D7D50C8FF7CD8C9ED8FF8C77F40D73B0DEB59815142370DA1BEB8616A7782135467B2966EFE32F1B464E8DD0E245
310
C6520CB34FD32A69EF22B89855E70DACA20A012246FA9E9B16077D8551152AC5EC08B76252FAA60628D8BBCB704AD6A0D7126BF23C7BB13063C90FE763C7B694F4FDB122DBEED0917A77FA243B5ED65D7DA615EDA9D82CB014D18EEFFD7A0615C1649E324E2823BCFC62ACE1BCA9F2F3A3A1195AEC7FA034997F42C9BA58F2
310
F5DC1716B064F990E787149B258B5C9E41E5BAE4261F504B0304140006080800DA5A374055019EA25F0000007C00000007000000636E782E786D6C4DCB3B0E80201045D1AD90E915ED2CF8AC45050C11660C8261F98AB1B07AC9C97D42D718D865D3E909258CFD00CCE24AC6E326A164D74DC0B4128928FF326038472BA131
310
28B1252AC747C6BAB984FC68F0B87FE8960A5C09FE86CFB69FBA01504B0304140006080800DA5A3740EFD89D2565010000020300000C0000006662782F636F72652E786D6C8D52ED8E8230107C95A6FF0B05F54E4DA9413D9FE05EA096CA11A125FD203EFE2D1F86F3628C2181B2B3B3333BC076B7A6469DB2AE323AC34944
310
31525A9AA2D2658683BF9035463BCEAC31FE4F1B465A342AC37D1973565A13DAA9248DF64A7BA86A53A8A9289C531E2359C321C34EFEA846442278E870D7A815F22A4A152511C0D0C799F3160CA051A4BF637E39DF583CD6390BA12A26B42A40ADBA54CA629E1E4EC73C5952B2DF1F5764991F72B2DE7C7D924DBA58E7EB13
310
5DD13D65714FE6CC57CDDD9DB44A7855009F2629A1094917DF49B24DD3ED0A5E3FB614487DFB0329B4C59BA45069BF4827BB23CD619E809101F8B72D44E491131DF889398BFB10E13124FC18340402217B71AEEF7B5CA1D429E98D5D02529830439DA88302558A868BC5230A938701B0D9D339E98B39AF67C00714BA046BC2
310
C3F11C7CAFCE46D5298A5659D2F91BD2C636A29ECD8D16E7FB2CF4942E4D6DEC3BEC785A359EC28CFBBF97FF02504B0304140006080800DA5A3740453BA7DB7E0000009D0000000B0000006662782F636E782E786D6C4DCCD10E82201886E15B61FF3929516A1BE084F03E5CA263223482D6E5A7CD838EBEEDD9B797B59FD5
310
A1B7892F1B3C07722A0119FF08A3F533879C26DC006A058B21A4BF1B203FAC86C3CE20D81C437E1E349A69C82E6DEAAC5F0E6C14E9F4BD52985E35C5979BACB1245AE3B2AA3BD96B7596B48742B0E257DA760F8B2F504B0304140006080800DA5A3740E16B167B2A01000013020000310000006662782F3843314145443643
310
2D333545332D343942372D423145452D3036374142464543324233462F636F72652E786D6C8D51DB72C22014FC950C4FF681048846EB101C63E317F4072260CA6820C3A5E3E7F7A48933ED9B2F1C5876F72C1C7E780CF7EC5BFB609CAD11CD09CAB4954E19DBD728C52BDEA1EC20B8772EFEA1A1CC7683AED10423C17BEFD2
310
B840D2D9A86D04D43AA517B00B414794C93B6C6A14E4971EBABC4B1118E1968F9DBC75BDCE690ED7C0133C440F01B2B9C9B422B13BD163FB519D70B9694BBC7E6FB6B8A16D8B49B53D36E7F6C49AF2CC8B5928784A462D72A3208EB91AED5F3599C48247333CE34BAFBBA815128C508609C5ACFCA474CFD87E03C76A4F082F
310
26FA3F511AD58BA2646C2CD91277960524282FE60BC1954B97FB338C7E8CCEC76CEAB70A5ABE214172C2CA2DAD182F6626BC1F2CABF56219A2F3F0BFABDB05C8E5E25BAD052FA61141F99D1FD4699CE207504B0304140006080800DA5A3740D53EFE125301000033030000300000006662782F38433141454436432D333545
310
332D343942372D423145452D3036374142464543324233462F636E782E786D6CBD93CD6EC32010845F0571F76F522B8A30917AE813F4D02B864D4A83C1E2A76ADEBE4B42D25C72A854F582ECD96166F5C966BBAFD9904FF0413B3BD2AE6E29012B9DD2F630D214F7D586921D67DEB97867A3C48A19469A65CAD9C1BBB41449
310
C15E24135135DA1E8BE821B8E4250494F34D629C140603C05609459827500A14B919F1690F1E5741713A91F80EE4E5F98DB8E903640CACC9299C35B983B37C96A63B1325D28810461AE43BCCA216293A05E1582B1145DDD5D7AE073BFD24917CE15A99BC26B97CA4F9A4BC6C542347D6E090B3103DD22BA6785A8072B12C46
310
4B11117273365E3C9C256DE3B02E5E8DE03DBA57FDB0D960D879C659D4331487F4202228CAFBB6EBABB6ABFAD56BD76DFB7EFB84AFC3B66D5993ED9C4DCE99720963C0BB85486723D84879C79A3C7E84AFF888D21E593B7FFA054804505A2F746E197FC9A71B56EBF53FF269CEDF37E2F2F817F06F504B0304140006080800
310
DA5A37408FF3DB8358070000931B0000340000006662782F38433141454436432D333545332D343942372D423145452D3036374142464543324233462F6F626A656374732E786D6CED595B6FA33814FE2B887D0E81246DA72BCAA84DA755B4EACC68B233DA874AC801877A6B0CB24D2FFBEBF7F802011A5AB2D37D9B870430
310
F6F139DFB9FA107E7CCAA9F380B920053B7303CF771DCC9222252C3B732BB99D7C709D8F51C88B42B6A6B90E43393E73D5B01B85192FAAD20EA5788B2A2A7BA357177F3922C10CBB4E42911067AE48EE708E3C54C922C5E2DE4B91445EB67DF202CF4CEC92CD382AEF7A444BC43193C0298C33A0E218A682EEA3EF4EA370AA
310
DE47A1FAB7B3E6A3662D86674DB5D45D2E091312B1E4054B3D32F3512CCD83C5E5A7D9D1E9E468B1984F16C7B3607271757139094EE6FEF278B93C3DFF740AEC6D8A825A99525C629682FE9EDD2808A7EA4D23BA45601FD749C1184E3490009516AB4F9060015BB5E0F3BB8F8192A8F55A4BD87A5EA8F79685D6F0BC4B6568
310
D638203A744110BB5D2D717D6DCB576CFE06C1C518A3E4024BE056480EDAB5F070F00A37F2C3A9198DC2CD4E17443839929813441D4A361C71500A4C5553A2D02CB06494737020E52809B4E6CCEBAE6D8167BEED3AFBB8DC56942ACF7023ED5831B81F96427346FEC17CC77D1B19E009A4AD08931F2C97F2B9C46E741A4EF5
310
6014AACB7C665F1A209D2D4599D08898B73D4197CAF557976EF4C7D5E669ADC2C1FECD4B5E94984B65744A8F9A2F30647B5528D96D83519A530B401803AA5DB903E51B20FF19A2C78E15D01B274F8BA7859D2B3962625BF01C74E3F8CEC4873FDF09F4BFBA6FDD85D36671577B4378829B2AA83EFC3C9E5D19345696FF169C
310
51F800065FF0B97DB54E10057BBE210C005246E2D0028620B46F374F6EB482C009811E56211A052032B0FB00B7E1D492D969A5762FEB750C10B57BCCC7280960D316096C0CE8E91AB20727C94E4D6D1187E03D7A17733DBF5CFFB1AEF81625F8C6FAF425DE12462464CDFD0C7530EF48748F9F1F0B9E82A02FF15EB7F1CEED
310
5602D056982BE0B31A04F5B0DBB9B34102EBB242859BF08D1D400895AB5BF46F884830A588E1A2AAF76DA29B32D4C6E36DCDE0463303F17CD633618E1F88AA2AC06976333A8C42DE4F382915886E746D246B82A63720DDF7D567B0C866FEC0AC1583D0CB10FD5307AD3D38742CBB46DA02D108BCD985F3A4A0058F37CFB189
310
742ED412C046D75B7E748842AC374A5254C083B4DFD5212533D2C629D96E2B0171750F8B3F56CBB639F8DE3C3872DAFF3D675C40B405DF45DCFA5D6F8F98E428C3F116A543DBB5776B680B4D728034C75B0A729107229F6324633FC5D921D01C44FCF45DA967B41082302C205FED05BF8D86EF412031DAAC59565AED014D44
310
9C6389E82108283203E0EAB4A36BDC044A87B7796CACF7358DB589FE4F16C111D492058B0994A29043DE643CF08E208674D13528F7F0056BAB696B3168052544F21C3F6292DDC9435037E407704FE04852C9B8285102663D82EC0B5F514AEDF1BE41C9BDCA1F7152D1F7321081E936269456790C3FC2E0E431C6B59BC0F42A
310
0A2DE226F6499C43518664C5C76C727CE4BFD8C7D40CFD10D8DA684B2884ED3847E500EA9D80A8EB11A701DF521F50EAA6CACB18E545C546198A37EF7B9325DF57AB223B925F552A42D95813B604A39030D964D53A6683A9EBC00A6EA403D5732C505E52730A7B23F1048D3769CA831B70EBA7EFBB410E85DF80F6DA117551
310
C36079EC1406E211C9E4CE8DD6FA3AB980FA3BC5E92ED5D7B566BB0204C45424AF38B12AFABE82F2C6D6686E7483A4B8BD3659B7BE7E5F79D0FD08A7B0066A9766E14A019D632691AA4C6ED40DFD862004776898F195CAA98750394F535D35227A4586D4D929233A9BE6C42BEF302B72F8B15BC2125AA5F816A5E23EBE9134
310
5E13C5BA95D2CB498DF1AB027EB95EF7E0819111227D55051E7EECADB5A34B552EED2522EFAA7CC3108120D8112D33BAF14A96598DD45A6EAEEA4C017517189855F1E2D7C9A2DD8EF875B2C8AC61FCDCC982161B4477D1A695CD1365D6079D029AF4A4A8BCC72940771D1AAA4D1231B9DC8A6F7D2986985807F9D1C5581D33
310
0CC1218EFF73D21E4A8266BB1EFF8725EDE045C1715052E94C564DAA3D85EBAA9DC282E5C5C9F2DC9F4FFCD9F10CFAB347FEE462B1B89C9C9EFB271F2E4E9757C7278B064DEDA751D8C4329DBAE0D9C4B47A583D590CA0292B0A4A5238CCA74E8621E44B38D28FE89EF31C0BC89DED5E776A7BF223563F9836A7441B8A6B4E
310
EE10F487A980AC0E185589EC8E3BBF416752C239FBCC859E91770F7FD62A5D0712CF990B9D0249122CBC0D7499543F4F13878CAB53BF2506F82096A98C681635CFCD2A854D27FA3753C664012B57A78501755B09CDAF4E8342F366794A0E12BC66C741126E37958462CDC8B21B6884D1DBECD46F64A384DDDBAD9FC0755F17
310
2BF0F49C0E22A3BE18BC6A0486EA44229EE976B762CCB2747EF9750A6D3667F5C5296995812EC7539A700CC65CA97A0AAC08ACC2D22C9104535DFE7EFB9517F0852777745174BB2CF2BC60F6E11C8E63297C2172D677F0BD27BD85AA01ABAEBAB89DF9C1EC5677B36D833DDE20813D550EC1405D4528117AC60616F9A23365
310
FB9653A584DEF4D5A563C32774018C05BD68EE9AAF5B0E788FFA8EA27C457B782DE7AB0DEDA99E0AD6C0A1151DFD0B504B0304140006080000DA5A3740000000000000000000000000350000006662782F38433141454436432D333545332D343942372D423145452D3036374142464543324233462F76657274696365732E
310
62696E504B0304140006080800DA5A3740F270F1330600000004000000360000006662782F38433141454436432D333545332D343942372D423145452D3036374142464543324233462F747269616E676C65732E62696E636660600000504B0304140006080000DA5A3740000000000000000000000000370000006662782F
310
38433141454436432D333545332D343942372D423145452D3036374142464543324233462F617474726962757465732E62696E504B0304140006080800DA5A3740D5987DFC8F00000041010000360000006662782F38433141454436432D333545332D343942372D423145452D3036374142464543324233462F6469726563
310
746F72792E786D6C858F410EC2201045AF4266AF15DDB800BA74E7C21B903225242D6328188F2FA5C4183471359997F9FF81E89FF3C41E1816475E02DF1F80A11FC8386F25A438EECEC07A250251FC3803E6F58C12560C4AD840E95E91C151A72936F496F35732D860FE635F62C8F2DA16B505C545B74125BAA2FA9E05D7CC
310
053D063734D5C7665FD55B6B8D15D5E9BFEAFD8490FFA45E504B0304140006080800DA5A3740116CA522FB000000A00100003B0000006662782F38433141454436432D333545332D343942372D423145452D3036374142464543324233462F7265736F75726365732F636F72652E786D6C8D504B6EC32010BD8AC51E0770D3
310
3A16267292E604BD00C213072586884FD5E377885DA9DD75C330EFA3797A72FF35DFAB4F08D17AD7135E335281337EB46EEA494E17DA926AAF64F03EFD9291CAE9197A5260A2E4147C7EAC90F12E814B883A3FC20AEA182191CADCF1D39368AE30EB5AE7848A78AB1FDADCF40435AF91469D9231050C502D47CA4B5480E873
310
3010E5666195CCD98EABC68E78D35E2C04A2C4F17C1A7873A687C3694B5F86E340DBDDFB1BDD89A61DDA33DBB203939B625632D9F927A309A0138CE8675C50C6A9683E38EF84E8B6B8BE760C4D45FEC7941FE33F4DD9BAD48835EE628B44710CF22494DC94BE703CCBC459BA55DF504B010214000A0000080000DA5A37403D
310
EE336E79000000790000001B00000000000000000000000000000000006175746F6465736B2D64657369676E2D7061636B6167652E786D6C504B01021400140006080800DA5A3740D486FD9CA0000000F40000001300000000000000000000000000B20000005B436F6E74656E745F54797065735D2E786D6C504B01021400
310
140006080800DA5A3740CBEB8917E80000007C010000080000000000000000000000000083010000636F72652E786D6C504B01021400140006080800DA5A374055019EA25F0000007C000000070000000000000000000000000091020000636E782E786D6C504B01021400140006080800DA5A3740EFD89D25650100000203
310
00000C00000000000000000000000000150300006662782F636F72652E786D6C504B01021400140006080800DA5A3740453BA7DB7E0000009D0000000B00000000000000000000000000A40400006662782F636E782E786D6C504B01021400140006080800DA5A3740E16B167B2A0100001302000031000000000000000000
310
000000004B0500006662782F38433141454436432D333545332D343942372D423145452D3036374142464543324233462F636F72652E786D6C504B01021400140006080800DA5A3740D53EFE1253010000330300003000000000000000000000000000C40600006662782F38433141454436432D333545332D343942372D42
310
3145452D3036374142464543324233462F636E782E786D6C504B01021400140006080800DA5A37408FF3DB8358070000931B00003400000000000000000000000000650800006662782F38433141454436432D333545332D343942372D423145452D3036374142464543324233462F6F626A656374732E786D6C504B010214
310
00140006080000DA5A374000000000000000000000000035000000000000000000000000000F1000006662782F38433141454436432D333545332D343942372D423145452D3036374142464543324233462F76657274696365732E62696E504B01021400140006080800DA5A3740F270F13306000000040000003600000000
310
000000000000000000621000006662782F38433141454436432D333545332D343942372D423145452D3036374142464543324233462F747269616E676C65732E62696E504B01021400140006080000DA5A37400000000000000000000000003700000000000000000000000000BC1000006662782F38433141454436432D33
310
3545332D343942372D423145452D3036374142464543324233462F617474726962757465732E62696E504B01021400140006080800DA5A3740D5987DFC8F000000410100003600000000000000000000000000111100006662782F38433141454436432D333545332D343942372D423145452D303637414246454332423346
310
2F6469726563746F72792E786D6C504B01021400140006080800DA5A3740116CA522FB000000A00100003B00000000000000000000000000F41100006662782F38433141454436432D333545332D343942372D423145452D3036374142464543324233462F7265736F75726365732F636F72652E786D6C504B050600000000
310
0E000E0080040000481300000000
  0
XRECORD
  5
27
102
{ACAD_REACTORS
330
22
102
}
330
22
100
AcDbXrecord
280
     1
270
     1
271
     1
  0
XRECORD
  5
26
102
{ACAD_REACTORS
330
22
102
}
330
22
100
AcDbXrecord
280
     1
270
     1
271
     1
  0
XRECORD
  5
28
102
{ACAD_REACTORS
330
22
102
}
330
22
100
AcDbXrecord
280
     1
270
     1
271
     1
  0
XRECORD
  5
25
102
{ACAD_REACTORS
330
22
102
}
330
22
100
AcDbXrecord
280
     1
270
     1
271
     1
  0
XRECORD
  5
88A
102
{ACAD_REACTORS
330
889
102
}
330
889
100
AcDbXrecord
280
     1
102
ACAD_ROUNDTRIP_2012_MLEADER_STYLE
298
     1
  0
CELLSTYLEMAP
  5
888
102
{ACAD_REACTORS
330
887
102
}
330
887
100
AcDbCellStyleMap
 90
        3
300
CELLSTYLE
  1
TABLEFORMAT_BEGIN
 90
        5
170
     1
 91
        0
 92
    32768
 62
   257
 93
        1
300
CONTENTFORMAT
  1
CONTENTFORMAT_BEGIN
 90
        0
 91
        0
 92
      512
 93
        0
300

 40
0.0
140
1.0
 94
        5
 62
     0
340
55
144
0.25
309
CONTENTFORMAT_END
171
     0
 94
        0
309
TABLEFORMAT_END
  1
CELLSTYLE_BEGIN
 90
        1
 91
        1
300
_TITLE
309
CELLSTYLE_END
300
CELLSTYLE
  1
TABLEFORMAT_BEGIN
 90
        5
170
     1
 91
        0
 92
        0
 62
   257
 93
        1
300
CONTENTFORMAT
  1
CONTENTFORMAT_BEGIN
 90
        0
 91
        0
 92
      512
 93
        0
300

 40
0.0
140
1.0
 94
        5
 62
     0
340
55
144
0.18
309
CONTENTFORMAT_END
171
     0
 94
        0
309
TABLEFORMAT_END
  1
CELLSTYLE_BEGIN
 90
        2
 91
        1
300
_HEADER
309
CELLSTYLE_END
300
CELLSTYLE
  1
TABLEFORMAT_BEGIN
 90
        5
170
     1
 91
        0
 92
        0
 62
   257
 93
        1
300
CONTENTFORMAT
  1
CONTENTFORMAT_BEGIN
 90
        0
 91
        0
 92
      512
 93
        0
300

 40
0.0
140
1.0
 94
        2
 62
     0
340
55
144
0.18
309
CONTENTFORMAT_END
171
     0
 94
        0
309
TABLEFORMAT_END
  1
CELLSTYLE_BEGIN
 90
        3
 91
        2
300
_DATA
309
CELLSTYLE_END
  0
XRECORD
  5
8C0
102
{ACAD_REACTORS
330
887
102
}
330
887
100
AcDbXrecord
280
     1
102
ACAD_ROUNDTRIP_PRE2007_TABLESTYLE
 90
      512
 91
        0
  1

 92
      512
 93
        0
  2

 94
      512
 95
        0
  3

  0
XRECORD
  5
89B
102
{ACAD_REACTORS
330
89A
102
}
330
89A
100
AcDbXrecord
280
     1
102
RTVSPropertyOp0
 70
     1
102
RTVSPropertyOp1
 70
     1
102
RTVSPropertyOp2
 70
     1
102
RTVSPropertyOp3
 70
     1
102
RTVSPropertyOp4
 70
     1
102
RTVSPropertyOp5
 70
     1
102
RTVSPropertyOp6
 70
     1
102
RTVSPropertyOp7
 70
     1
102
RTVSPropertyOp8
 70
     1
102
RTVSPropertyOp9
 70
     1
102
RTVSPropertyOp10
 70
     1
102
RTVSPropertyOp11
 70
     1
102
RTVSPropertyOp12
 70
     1
102
RTVSPropertyOp13
 70
     1
102
RTVSPropertyOp14
 70
     1
102
RTVSPropertyOp15
 70
     1
102
RTVSPropertyOp16
 70
     1
102
RTVSPropertyOp17
 70
     1
102
RTVSPropertyOp18
 70
     1
102
RTVSPropertyOp19
 70
     1
102
RTVSPropertyOp20
 70
     1
102
RTVSPropertyOp21
 70
     1
102
RTVSPropertyOp22
 70
     1
102
RTVSPropertyOp23
 70
     1
102
RTVSPropertyOp24
 70
     1
102
RTVSPropertyOp25
 70
     1
102
RTVSPropertyOp26
 70
     1
102
RTVSPropertyOp27
 70
     1
102
RTVSPropertyOp28
 70
     1
102
RTVSPropertyOp29
 70
     1
102
RTVSPropertyOp30
 70
     1
102
RTVSPropertyOp31
 70
     1
102
RTVSPropertyOp32
 70
     1
  0
XRECORD
  5
899
102
{ACAD_REACTORS
330
898
102
}
330
898
100
AcDbXrecord
280
     1
102
RTVSPropertyOp0
 70
     1
102
RTVSPropertyOp1
 70
     1
102
RTVSPropertyOp2
 70
     1
102
RTVSPropertyOp3
 70
     1
102
RTVSPropertyOp4
 70
     1
102
RTVSPropertyOp5
 70
     1
102
RTVSPropertyOp6
 70
     1
102
RTVSPropertyOp7
 70
     1
102
RTVSPropertyOp8
 70
     1
102
RTVSPropertyOp9
 70
     1
102
RTVSPropertyOp10
 70
     1
102
RTVSPropertyOp11
 70
     1
102
RTVSPropertyOp12
 70
     1
102
RTVSPropertyOp13
 70
     1
102
RTVSPropertyOp14
 70
     1
102
RTVSPropertyOp15
 70
     1
102
RTVSPropertyOp16
 70
     1
102
RTVSPropertyOp17
 70
     1
102
RTVSPropertyOp18
 70
     1
102
RTVSPropertyOp19
 70
     1
102
RTVSPropertyOp20
 70
     1
102
RTVSPropertyOp21
 70
     1
102
RTVSPropertyOp22
 70
     1
102
RTVSPropertyOp23
 70
     1
102
RTVSPropertyOp24
 70
     1
102
RTVSPropertyOp25
 70
     1
102
RTVSPropertyOp26
 70
     1
102
RTVSPropertyOp27
 70
     1
102
RTVSPropertyOp28
 70
     1
102
RTVSPropertyOp29
 70
     1
102
RTVSPropertyOp30
 70
     1
102
RTVSPropertyOp31
 70
     1
102
RTVSPropertyOp32
 70
     1
  0
XRECORD
  5
8A7
102
{ACAD_REACTORS
330
8A6
102
}
330
8A6
100
AcDbXrecord
280
     1
102
RTVSPropertyOp0
 70
     1
102
RTVSPropertyOp1
 70
     1
102
RTVSPropertyOp2
 70
     1
102
RTVSPropertyOp3
 70
     1
102
RTVSPropertyOp4
 70
     1
102
RTVSPropertyOp5
 70
     1
102
RTVSPropertyOp6
 70
     1
102
RTVSPropertyOp7
 70
     1
102
RTVSPropertyOp8
 70
     1
102
RTVSPropertyOp9
 70
     1
102
RTVSPropertyOp10
 70
     1
102
RTVSPropertyOp11
 70
     1
102
RTVSPropertyOp12
 70
     1
102
RTVSPropertyOp13
 70
     1
102
RTVSPropertyOp14
 70
     1
102
RTVSPropertyOp15
 70
     1
102
RTVSPropertyOp16
 70
     1
102
RTVSPropertyOp17
 70
     1
102
RTVSPropertyOp18
 70
     1
102
RTVSPropertyOp19
 70
     1
102
RTVSPropertyOp20
 70
     1
102
RTVSPropertyOp21
 70
     1
102
RTVSPropertyOp22
 70
     1
102
RTVSPropertyOp23
 70
     1
102
RTVSPropertyOp24
 70
     1
102
RTVSPropertyOp25
 70
     1
102
RTVSPropertyOp26
 70
     1
102
RTVSPropertyOp27
 70
     1
102
RTVSPropertyOp28
 70
     1
102
RTVSPropertyOp29
 70
     1
102
RTVSPropertyOp30
 70
     1
102
RTVSPropertyOp31
 70
     1
102
RTVSPropertyOp32
 70
     1
  0
XRECORD
  5
8AF
102
{ACAD_REACTORS
330
8AE
102
}
330
8AE
100
AcDbXrecord
280
     1
102
RTVSPropertyOp0
 70
     1
102
RTVSPropertyOp1
 70
     1
102
RTVSPropertyOp2
 70
     1
102
RTVSPropertyOp3
 70
     1
102
RTVSPropertyOp4
 70
     1
102
RTVSPropertyOp5
 70
     1
102
RTVSPropertyOp6
 70
     1
102
RTVSPropertyOp7
 70
     1
102
RTVSPropertyOp8
 70
     1
102
RTVSPropertyOp9
 70
     1
102
RTVSPropertyOp10
 70
     1
102
RTVSPropertyOp11
 70
     1
102
RTVSPropertyOp12
 70
     1
102
RTVSPropertyOp13
 70
     1
102
RTVSPropertyOp14
 70
     1
102
RTVSPropertyOp15
 70
     1
102
RTVSPropertyOp16
 70
     1
102
RTVSPropertyOp17
 70
     1
102
RTVSPropertyOp18
 70
     1
102
RTVSPropertyOp19
 70
     1
102
RTVSPropertyOp20
 70
     1
102
RTVSPropertyOp21
 70
     1
102
RTVSPropertyOp22
 70
     1
102
RTVSPropertyOp23
 70
     1
102
RTVSPropertyOp24
 70
     1
102
RTVSPropertyOp25
 70
     1
102
RTVSPropertyOp26
 70
     1
102
RTVSPropertyOp27
 70
     1
102
RTVSPropertyOp28
 70
     1
102
RTVSPropertyOp29
 70
     1
102
RTVSPropertyOp30
 70
     1
102
RTVSPropertyOp31
 70
     1
102
RTVSPropertyOp32
 70
     1
  0
XRECORD
  5
8A1
102
{ACAD_REACTORS
330
8A0
102
}
330
8A0
100
AcDbXrecord
280
     1
102
RTVSPropertyOp0
 70
     1
102
RTVSPropertyOp1
 70
     1
102
RTVSPropertyOp2
 70
     1
102
RTVSPropertyOp3
 70
     1
102
RTVSPropertyOp4
 70
     1
102
RTVSPropertyOp5
 70
     1
102
RTVSPropertyOp6
 70
     1
102
RTVSPropertyOp7
 70
     1
102
RTVSPropertyOp8
 70
     1
102
RTVSPropertyOp9
 70
     1
102
RTVSPropertyOp10
 70
     1
102
RTVSPropertyOp11
 70
     1
102
RTVSPropertyOp12
 70
     1
102
RTVSPropertyOp13
 70
     1
102
RTVSPropertyOp14
 70
     1
102
RTVSPropertyOp15
 70
     1
102
RTVSPropertyOp16
 70
     1
102
RTVSPropertyOp17
 70
     1
102
RTVSPropertyOp18
 70
     1
102
RTVSPropertyOp19
 70
     1
102
RTVSPropertyOp20
 70
     1
102
RTVSPropertyOp21
 70
     1
102
RTVSPropertyOp22
 70
     1
102
RTVSPropertyOp23
 70
     1
102
RTVSPropertyOp24
 70
     1
102
RTVSPropertyOp25
 70
     1
102
RTVSPropertyOp26
 70
     1
102
RTVSPropertyOp27
 70
     1
102
RTVSPropertyOp28
 70
     1
102
RTVSPropertyOp29
 70
     1
102
RTVSPropertyOp30
 70
     1
102
RTVSPropertyOp31
 70
     1
102
RTVSPropertyOp32
 70
     1
  0
XRECORD
  5
8A5
102
{ACAD_REACTORS
330
8A4
102
}
330
8A4
100
AcDbXrecord
280
     1
102
RTVSPropertyOp0
 70
     1
102
RTVSPropertyOp1
 70
     1
102
RTVSPropertyOp2
 70
     1
102
RTVSPropertyOp3
 70
     1
102
RTVSPropertyOp4
 70
     1
102
RTVSPropertyOp5
 70
     1
102
RTVSPropertyOp6
 70
     1
102
RTVSPropertyOp7
 70
     1
102
RTVSPropertyOp8
 70
     1
102
RTVSPropertyOp9
 70
     1
102
RTVSPropertyOp10
 70
     1
102
RTVSPropertyOp11
 70
     1
102
RTVSPropertyOp12
 70
     1
102
RTVSPropertyOp13
 70
     1
102
RTVSPropertyOp14
 70
     1
102
RTVSPropertyOp15
 70
     1
102
RTVSPropertyOp16
 70
     1
102
RTVSPropertyOp17
 70
     1
102
RTVSPropertyOp18
 70
     1
102
RTVSPropertyOp19
 70
     1
102
RTVSPropertyOp20
 70
     1
102
RTVSPropertyOp21
 70
     1
102
RTVSPropertyOp22
 70
     1
102
RTVSPropertyOp23
 70
     1
102
RTVSPropertyOp24
 70
     1
102
RTVSPropertyOp25
 70
     1
102
RTVSPropertyOp26
 70
     1
102
RTVSPropertyOp27
 70
     1
102
RTVSPropertyOp28
 70
     1
102
RTVSPropertyOp29
 70
     1
102
RTVSPropertyOp30
 70
     1
102
RTVSPropertyOp31
 70
     1
102
RTVSPropertyOp32
 70
     1
  0
XRECORD
  5
8BF
102
{ACAD_REACTORS
330
8BE
102
}
330
8BE
100
AcDbXrecord
280
     1
102
RTVSPropertyOp0
 70
     0
102
RTVSPropertyOp1
 70
     0
102
RTVSPropertyOp2
 70
     0
102
RTVSPropertyOp3
 70
     0
102
RTVSPropertyOp4
 70
     0
102
RTVSPropertyOp5
 70
     0
102
RTVSPropertyOp6
 70
     0
102
RTVSPropertyOp7
 70
     0
102
RTVSPropertyOp8
 70
     0
102
RTVSPropertyOp9
 70
     0
102
RTVSPropertyOp10
 70
     0
102
RTVSPropertyOp11
 70
     0
102
RTVSPropertyOp12
 70
     0
102
RTVSPropertyOp13
 70
     0
102
RTVSPropertyOp14
 70
     2
102
RTVSPropertyOp15
 70
     0
102
RTVSPropertyOp16
 70
     0
102
RTVSPropertyOp17
 70
     0
102
RTVSPropertyOp18
 70
     0
102
RTVSPropertyOp19
 70
     0
102
RTVSPropertyOp20
 70
     0
102
RTVSPropertyOp21
 70
     0
102
RTVSPropertyOp22
 70
     0
102
RTVSPropertyOp23
 70
     0
102
RTVSPropertyOp24
 70
     0
102
RTVSPropertyOp25
 70
     0
102
RTVSPropertyOp26
 70
     0
102
RTVSPropertyOp27
 70
     0
102
RTVSPropertyOp28
 70
     1
102
RTVSPropertyOp29
 70
     1
102
RTVSPropertyOp30
 70
     1
102
RTVSPropertyOp31
 70
     1
102
RTVSPropertyOp32
 70
     1
  0
XRECORD
  5
8AD
102
{ACAD_REACTORS
330
8AC
102
}
330
8AC
100
AcDbXrecord
280
     1
102
RTVSPropertyOp0
 70
     1
102
RTVSPropertyOp1
 70
     1
102
RTVSPropertyOp2
 70
     1
102
RTVSPropertyOp3
 70
     1
102
RTVSPropertyOp4
 70
     1
102
RTVSPropertyOp5
 70
     1
102
RTVSPropertyOp6
 70
     1
102
RTVSPropertyOp7
 70
     1
102
RTVSPropertyOp8
 70
     1
102
RTVSPropertyOp9
 70
     1
102
RTVSPropertyOp10
 70
     1
102
RTVSPropertyOp11
 70
     1
102
RTVSPropertyOp12
 70
     1
102
RTVSPropertyOp13
 70
     1
102
RTVSPropertyOp14
 70
     1
102
RTVSPropertyOp15
 70
     1
102
RTVSPropertyOp16
 70
     1
102
RTVSPropertyOp17
 70
     1
102
RTVSPropertyOp18
 70
     1
102
RTVSPropertyOp19
 70
     1
102
RTVSPropertyOp20
 70
     1
102
RTVSPropertyOp21
 70
     1
102
RTVSPropertyOp22
 70
     1
102
RTVSPropertyOp23
 70
     1
102
RTVSPropertyOp24
 70
     1
102
RTVSPropertyOp25
 70
     1
102
RTVSPropertyOp26
 70
     1
102
RTVSPropertyOp27
 70
     1
102
RTVSPropertyOp28
 70
     1
102
RTVSPropertyOp29
 70
     1
102
RTVSPropertyOp30
 70
     1
102
RTVSPropertyOp31
 70
     1
102
RTVSPropertyOp32
 70
     1
  0
XRECORD
  5
891
102
{ACAD_REACTORS
330
890
102
}
330
890
100
AcDbXrecord
280
     1
102
RTVSPropertyOp0
 70
     1
102
RTVSPropertyOp1
 70
     1
102
RTVSPropertyOp2
 70
     1
102
RTVSPropertyOp3
 70
     1
102
RTVSPropertyOp4
 70
     1
102
RTVSPropertyOp5
 70
     1
102
RTVSPropertyOp6
 70
     1
102
RTVSPropertyOp7
 70
     1
102
RTVSPropertyOp8
 70
     1
102
RTVSPropertyOp9
 70
     1
102
RTVSPropertyOp10
 70
     1
102
RTVSPropertyOp11
 70
     1
102
RTVSPropertyOp12
 70
     1
102
RTVSPropertyOp13
 70
     1
102
RTVSPropertyOp14
 70
     1
102
RTVSPropertyOp15
 70
     1
102
RTVSPropertyOp16
 70
     1
102
RTVSPropertyOp17
 70
     1
102
RTVSPropertyOp18
 70
     1
102
RTVSPropertyOp19
 70
     1
102
RTVSPropertyOp20
 70
     1
102
RTVSPropertyOp21
 70
     1
102
RTVSPropertyOp22
 70
     1
102
RTVSPropertyOp23
 70
     1
102
RTVSPropertyOp24
 70
     1
102
RTVSPropertyOp25
 70
     1
102
RTVSPropertyOp26
 70
     1
102
RTVSPropertyOp27
 70
     1
102
RTVSPropertyOp28
 70
     1
102
RTVSPropertyOp29
 70
     1
102
RTVSPropertyOp30
 70
     1
102
RTVSPropertyOp31
 70
     1
102
RTVSPropertyOp32
 70
     1
  0
XRECORD
  5
893
102
{ACAD_REACTORS
330
892
102
}
330
892
100
AcDbXrecord
280
     1
102
RTVSPropertyOp0
 70
     1
102
RTVSPropertyOp1
 70
     1
102
RTVSPropertyOp2
 70
     1
102
RTVSPropertyOp3
 70
     1
102
RTVSPropertyOp4
 70
     1
102
RTVSPropertyOp5
 70
     1
102
RTVSPropertyOp6
 70
     1
102
RTVSPropertyOp7
 70
     1
102
RTVSPropertyOp8
 70
     1
102
RTVSPropertyOp9
 70
     1
102
RTVSPropertyOp10
 70
     1
102
RTVSPropertyOp11
 70
     1
102
RTVSPropertyOp12
 70
     1
102
RTVSPropertyOp13
 70
     1
102
RTVSPropertyOp14
 70
     1
102
RTVSPropertyOp15
 70
     1
102
RTVSPropertyOp16
 70
     1
102
RTVSPropertyOp17
 70
     1
102
RTVSPropertyOp18
 70
     1
102
RTVSPropertyOp19
 70
     1
102
RTVSPropertyOp20
 70
     1
102
RTVSPropertyOp21
 70
     1
102
RTVSPropertyOp22
 70
     1
102
RTVSPropertyOp23
 70
     1
102
RTVSPropertyOp24
 70
     1
102
RTVSPropertyOp25
 70
     1
102
RTVSPropertyOp26
 70
     1
102
RTVSPropertyOp27
 70
     1
102
RTVSPropertyOp28
 70
     1
102
RTVSPropertyOp29
 70
     1
102
RTVSPropertyOp30
 70
     1
102
RTVSPropertyOp31
 70
     1
102
RTVSPropertyOp32
 70
     1
  0
XRECORD
  5
895
102
{ACAD_REACTORS
330
894
102
}
330
894
100
AcDbXrecord
280
     1
102
RTVSPropertyOp0
 70
     1
102
RTVSPropertyOp1
 70
     1
102
RTVSPropertyOp2
 70
     1
102
RTVSPropertyOp3
 70
     1
102
RTVSPropertyOp4
 70
     1
102
RTVSPropertyOp5
 70
     1
102
RTVSPropertyOp6
 70
     1
102
RTVSPropertyOp7
 70
     1
102
RTVSPropertyOp8
 70
     1
102
RTVSPropertyOp9
 70
     1
102
RTVSPropertyOp10
 70
     1
102
RTVSPropertyOp11
 70
     1
102
RTVSPropertyOp12
 70
     1
102
RTVSPropertyOp13
 70
     1
102
RTVSPropertyOp14
 70
     1
102
RTVSPropertyOp15
 70
     1
102
RTVSPropertyOp16
 70
     1
102
RTVSPropertyOp17
 70
     1
102
RTVSPropertyOp18
 70
     1
102
RTVSPropertyOp19
 70
     1
102
RTVSPropertyOp20
 70
     1
102
RTVSPropertyOp21
 70
     1
102
RTVSPropertyOp22
 70
     1
102
RTVSPropertyOp23
 70
     1
102
RTVSPropertyOp24
 70
     1
102
RTVSPropertyOp25
 70
     1
102
RTVSPropertyOp26
 70
     1
102
RTVSPropertyOp27
 70
     1
102
RTVSPropertyOp28
 70
     1
102
RTVSPropertyOp29
 70
     1
102
RTVSPropertyOp30
 70
     1
102
RTVSPropertyOp31
 70
     1
102
RTVSPropertyOp32
 70
     1
  0
XRECORD
  5
897
102
{ACAD_REACTORS
330
896
102
}
330
896
100
AcDbXrecord
280
     1
102
RTVSPropertyOp0
 70
     1
102
RTVSPropertyOp1
 70
     1
102
RTVSPropertyOp2
 70
     1
102
RTVSPropertyOp3
 70
     1
102
RTVSPropertyOp4
 70
     1
102
RTVSPropertyOp5
 70
     1
102
RTVSPropertyOp6
 70
     1
102
RTVSPropertyOp7
 70
     1
102
RTVSPropertyOp8
 70
     1
102
RTVSPropertyOp9
 70
     1
102
RTVSPropertyOp10
 70
     1
102
RTVSPropertyOp11
 70
     1
102
RTVSPropertyOp12
 70
     1
102
RTVSPropertyOp13
 70
     1
102
RTVSPropertyOp14
 70
     1
102
RTVSPropertyOp15
 70
     1
102
RTVSPropertyOp16
 70
     1
102
RTVSPropertyOp17
 70
     1
102
RTVSPropertyOp18
 70
     1
102
RTVSPropertyOp19
 70
     1
102
RTVSPropertyOp20
 70
     1
102
RTVSPropertyOp21
 70
     1
102
RTVSPropertyOp22
 70
     1
102
RTVSPropertyOp23
 70
     1
102
RTVSPropertyOp24
 70
     1
102
RTVSPropertyOp25
 70
     1
102
RTVSPropertyOp26
 70
     1
102
RTVSPropertyOp27
 70
     1
102
RTVSPropertyOp28
 70
     1
102
RTVSPropertyOp29
 70
     1
102
RTVSPropertyOp30
 70
     1
102
RTVSPropertyOp31
 70
     1
102
RTVSPropertyOp32
 70
     1
  0
XRECORD
  5
89F
102
{ACAD_REACTORS
330
89E
102
}
330
89E
100
AcDbXrecord
280
     1
102
RTVSPropertyOp0
 70
     1
102
RTVSPropertyOp1
 70
     1
102
RTVSPropertyOp2
 70
     1
102
RTVSPropertyOp3
 70
     1
102
RTVSPropertyOp4
 70
     1
102
RTVSPropertyOp5
 70
     1
102
RTVSPropertyOp6
 70
     1
102
RTVSPropertyOp7
 70
     1
102
RTVSPropertyOp8
 70
     1
102
RTVSPropertyOp9
 70
     1
102
RTVSPropertyOp10
 70
     1
102
RTVSPropertyOp11
 70
     1
102
RTVSPropertyOp12
 70
     1
102
RTVSPropertyOp13
 70
     1
102
RTVSPropertyOp14
 70
     1
102
RTVSPropertyOp15
 70
     1
102
RTVSPropertyOp16
 70
     1
102
RTVSPropertyOp17
 70
     1
102
RTVSPropertyOp18
 70
     1
102
RTVSPropertyOp19
 70
     1
102
RTVSPropertyOp20
 70
     1
102
RTVSPropertyOp21
 70
     1
102
RTVSPropertyOp22
 70
     1
102
RTVSPropertyOp23
 70
     1
102
RTVSPropertyOp24
 70
     1
102
RTVSPropertyOp25
 70
     1
102
RTVSPropertyOp26
 70
     1
102
RTVSPropertyOp27
 70
     1
102
RTVSPropertyOp28
 70
     1
102
RTVSPropertyOp29
 70
     1
102
RTVSPropertyOp30
 70
     1
102
RTVSPropertyOp31
 70
     1
102
RTVSPropertyOp32
 70
     1
  0
XRECORD
  5
8BB
102
{ACAD_REACTORS
330
8BA
102
}
330
8BA
100
AcDbXrecord
280
     1
102
RTVSPropertyOp0
 70
     0
102
RTVSPropertyOp1
 70
     0
102
RTVSPropertyOp2
 70
     0
102
RTVSPropertyOp3
 70
     0
102
RTVSPropertyOp4
 70
     0
102
RTVSPropertyOp5
 70
     0
102
RTVSPropertyOp6
 70
     0
102
RTVSPropertyOp7
 70
     0
102
RTVSPropertyOp8
 70
     0
102
RTVSPropertyOp9
 70
     0
102
RTVSPropertyOp10
 70
     0
102
RTVSPropertyOp11
 70
     0
102
RTVSPropertyOp12
 70
     0
102
RTVSPropertyOp13
 70
     0
102
RTVSPropertyOp14
 70
     2
102
RTVSPropertyOp15
 70
     0
102
RTVSPropertyOp16
 70
     0
102
RTVSPropertyOp17
 70
     0
102
RTVSPropertyOp18
 70
     0
102
RTVSPropertyOp19
 70
     0
102
RTVSPropertyOp20
 70
     0
102
RTVSPropertyOp21
 70
     0
102
RTVSPropertyOp22
 70
     0
102
RTVSPropertyOp23
 70
     0
102
RTVSPropertyOp24
 70
     0
102
RTVSPropertyOp25
 70
     0
102
RTVSPropertyOp26
 70
     0
102
RTVSPropertyOp27
 70
     0
102
RTVSPropertyOp28
 70
     1
102
RTVSPropertyOp29
 70
     1
102
RTVSPropertyOp30
 70
     1
102
RTVSPropertyOp31
 70
     1
102
RTVSPropertyOp32
 70
     1
  0
XRECORD
  5
8AB
102
{ACAD_REACTORS
330
8AA
102
}
330
8AA
100
AcDbXrecord
280
     1
102
RTVSPropertyOp0
 70
     1
102
RTVSPropertyOp1
 70
     1
102
RTVSPropertyOp2
 70
     1
102
RTVSPropertyOp3
 70
     1
102
RTVSPropertyOp4
 70
     1
102
RTVSPropertyOp5
 70
     1
102
RTVSPropertyOp6
 70
     1
102
RTVSPropertyOp7
 70
     1
102
RTVSPropertyOp8
 70
     1
102
RTVSPropertyOp9
 70
     1
102
RTVSPropertyOp10
 70
     1
102
RTVSPropertyOp11
 70
     1
102
RTVSPropertyOp12
 70
     1
102
RTVSPropertyOp13
 70
     1
102
RTVSPropertyOp14
 70
     1
102
RTVSPropertyOp15
 70
     1
102
RTVSPropertyOp16
 70
     1
102
RTVSPropertyOp17
 70
     1
102
RTVSPropertyOp18
 70
     1
102
RTVSPropertyOp19
 70
     1
102
RTVSPropertyOp20
 70
     1
102
RTVSPropertyOp21
 70
     1
102
RTVSPropertyOp22
 70
     1
102
RTVSPropertyOp23
 70
     1
102
RTVSPropertyOp24
 70
     1
102
RTVSPropertyOp25
 70
     1
102
RTVSPropertyOp26
 70
     1
102
RTVSPropertyOp27
 70
     1
102
RTVSPropertyOp28
 70
     1
102
RTVSPropertyOp29
 70
     1
102
RTVSPropertyOp30
 70
     1
102
RTVSPropertyOp31
 70
     1
102
RTVSPropertyOp32
 70
     1
  0
XRECORD
  5
8BD
102
{ACAD_REACTORS
330
8BC
102
}
330
8BC
100
AcDbXrecord
280
     1
102
RTVSPropertyOp0
 70
     0
102
RTVSPropertyOp1
 70
     0
102
RTVSPropertyOp2
 70
     0
102
RTVSPropertyOp3
 70
     0
102
RTVSPropertyOp4
 70
     0
102
RTVSPropertyOp5
 70
     0
102
RTVSPropertyOp6
 70
     0
102
RTVSPropertyOp7
 70
     0
102
RTVSPropertyOp8
 70
     0
102
RTVSPropertyOp9
 70
     0
102
RTVSPropertyOp10
 70
     0
102
RTVSPropertyOp11
 70
     0
102
RTVSPropertyOp12
 70
     0
102
RTVSPropertyOp13
 70
     0
102
RTVSPropertyOp14
 70
     2
102
RTVSPropertyOp15
 70
     0
102
RTVSPropertyOp16
 70
     0
102
RTVSPropertyOp17
 70
     0
102
RTVSPropertyOp18
 70
     0
102
RTVSPropertyOp19
 70
     0
102
RTVSPropertyOp20
 70
     0
102
RTVSPropertyOp21
 70
     0
102
RTVSPropertyOp22
 70
     0
102
RTVSPropertyOp23
 70
     0
102
RTVSPropertyOp24
 70
     0
102
RTVSPropertyOp25
 70
     0
102
RTVSPropertyOp26
 70
     0
102
RTVSPropertyOp27
 70
     0
102
RTVSPropertyOp28
 70
     1
102
RTVSPropertyOp29
 70
     1
102
RTVSPropertyOp30
 70
     1
102
RTVSPropertyOp31
 70
     1
102
RTVSPropertyOp32
 70
     1
  0
XRECORD
  5
8A3
102
{ACAD_REACTORS
330
8A2
102
}
330
8A2
100
AcDbXrecord
280
     1
102
RTVSPropertyOp0
 70
     1
102
RTVSPropertyOp1
 70
     1
102
RTVSPropertyOp2
 70
     1
102
RTVSPropertyOp3
 70
     1
102
RTVSPropertyOp4
 70
     1
102
RTVSPropertyOp5
 70
     1
102
RTVSPropertyOp6
 70
     1
102
RTVSPropertyOp7
 70
     1
102
RTVSPropertyOp8
 70
     1
102
RTVSPropertyOp9
 70
     1
102
RTVSPropertyOp10
 70
     1
102
RTVSPropertyOp11
 70
     1
102
RTVSPropertyOp12
 70
     1
102
RTVSPropertyOp13
 70
     1
102
RTVSPropertyOp14
 70
     1
102
RTVSPropertyOp15
 70
     1
102
RTVSPropertyOp16
 70
     1
102
RTVSPropertyOp17
 70
     1
102
RTVSPropertyOp18
 70
     1
102
RTVSPropertyOp19
 70
     1
102
RTVSPropertyOp20
 70
     1
102
RTVSPropertyOp21
 70
     1
102
RTVSPropertyOp22
 70
     1
102
RTVSPropertyOp23
 70
     1
102
RTVSPropertyOp24
 70
     1
102
RTVSPropertyOp25
 70
     1
102
RTVSPropertyOp26
 70
     1
102
RTVSPropertyOp27
 70
     1
102
RTVSPropertyOp28
 70
     1
102
RTVSPropertyOp29
 70
     1
102
RTVSPropertyOp30
 70
     1
102
RTVSPropertyOp31
 70
     1
102
RTVSPropertyOp32
 70
     1
  0
XRECORD
  5
8B9
102
{ACAD_REACTORS
330
8B8
102
}
330
8B8
100
AcDbXrecord
280
     1
102
RTVSPropertyOp0
 70
     1
102
RTVSPropertyOp1
 70
     1
102
RTVSPropertyOp2
 70
     1
102
RTVSPropertyOp3
 70
     1
102
RTVSPropertyOp4
 70
     1
102
RTVSPropertyOp5
 70
     1
102
RTVSPropertyOp6
 70
     1
102
RTVSPropertyOp7
 70
     1
102
RTVSPropertyOp8
 70
     1
102
RTVSPropertyOp9
 70
     1
102
RTVSPropertyOp10
 70
     1
102
RTVSPropertyOp11
 70
     1
102
RTVSPropertyOp12
 70
     1
102
RTVSPropertyOp13
 70
     1
102
RTVSPropertyOp14
 70
     1
102
RTVSPropertyOp15
 70
     1
102
RTVSPropertyOp16
 70
     1
102
RTVSPropertyOp17
 70
     1
102
RTVSPropertyOp18
 70
     1
102
RTVSPropertyOp19
 70
     1
102
RTVSPropertyOp20
 70
     1
102
RTVSPropertyOp21
 70
     1
102
RTVSPropertyOp22
 70
     1
102
RTVSPropertyOp23
 70
     1
102
RTVSPropertyOp24
 70
     1
102
RTVSPropertyOp25
 70
     1
102
RTVSPropertyOp26
 70
     1
102
RTVSPropertyOp27
 70
     1
102
RTVSPropertyOp28
 70
     1
102
RTVSPropertyOp29
 70
     1
102
RTVSPropertyOp30
 70
     1
102
RTVSPropertyOp31
 70
     1
102
RTVSPropertyOp32
 70
     1
  0
XRECORD
  5
8B7
102
{ACAD_REACTORS
330
8B6
102
}
330
8B6
100
AcDbXrecord
280
     1
102
RTVSPropertyOp0
 70
     1
102
RTVSPropertyOp1
 70
     1
102
RTVSPropertyOp2
 70
     1
102
RTVSPropertyOp3
 70
     1
102
RTVSPropertyOp4
 70
     1
102
RTVSPropertyOp5
 70
     1
102
RTVSPropertyOp6
 70
     1
102
RTVSPropertyOp7
 70
     1
102
RTVSPropertyOp8
 70
     1
102
RTVSPropertyOp9
 70
     1
102
RTVSPropertyOp10
 70
     1
102
RTVSPropertyOp11
 70
     1
102
RTVSPropertyOp12
 70
     1
102
RTVSPropertyOp13
 70
     1
102
RTVSPropertyOp14
 70
     1
102
RTVSPropertyOp15
 70
     1
102
RTVSPropertyOp16
 70
     1
102
RTVSPropertyOp17
 70
     1
102
RTVSPropertyOp18
 70
     1
102
RTVSPropertyOp19
 70
     1
102
RTVSPropertyOp20
 70
     1
102
RTVSPropertyOp21
 70
     1
102
RTVSPropertyOp22
 70
     1
102
RTVSPropertyOp23
 70
     1
102
RTVSPropertyOp24
 70
     1
102
RTVSPropertyOp25
 70
     1
102
RTVSPropertyOp26
 70
     1
102
RTVSPropertyOp27
 70
     1
102
RTVSPropertyOp28
 70
     1
102
RTVSPropertyOp29
 70
     1
102
RTVSPropertyOp30
 70
     1
102
RTVSPropertyOp31
 70
     1
102
RTVSPropertyOp32
 70
     1
  0
XRECORD
  5
8B1
102
{ACAD_REACTORS
330
8B0
102
}
330
8B0
100
AcDbXrecord
280
     1
102
RTVSPropertyOp0
 70
     1
102
RTVSPropertyOp1
 70
     1
102
RTVSPropertyOp2
 70
     1
102
RTVSPropertyOp3
 70
     1
102
RTVSPropertyOp4
 70
     1
102
RTVSPropertyOp5
 70
     1
102
RTVSPropertyOp6
 70
     1
102
RTVSPropertyOp7
 70
     1
102
RTVSPropertyOp8
 70
     1
102
RTVSPropertyOp9
 70
     1
102
RTVSPropertyOp10
 70
     1
102
RTVSPropertyOp11
 70
     1
102
RTVSPropertyOp12
 70
     1
102
RTVSPropertyOp13
 70
     1
102
RTVSPropertyOp14
 70
     1
102
RTVSPropertyOp15
 70
     1
102
RTVSPropertyOp16
 70
     1
102
RTVSPropertyOp17
 70
     1
102
RTVSPropertyOp18
 70
     1
102
RTVSPropertyOp19
 70
     1
102
RTVSPropertyOp20
 70
     1
102
RTVSPropertyOp21
 70
     1
102
RTVSPropertyOp22
 70
     1
102
RTVSPropertyOp23
 70
     1
102
RTVSPropertyOp24
 70
     1
102
RTVSPropertyOp25
 70
     1
102
RTVSPropertyOp26
 70
     1
102
RTVSPropertyOp27
 70
     1
102
RTVSPropertyOp28
 70
     1
102
RTVSPropertyOp29
 70
     1
102
RTVSPropertyOp30
 70
     1
102
RTVSPropertyOp31
 70
     1
102
RTVSPropertyOp32
 70
     1
  0
XRECORD
  5
8B3
102
{ACAD_REACTORS
330
8B2
102
}
330
8B2
100
AcDbXrecord
280
     1
102
RTVSPropertyOp0
 70
     1
102
RTVSPropertyOp1
 70
     1
102
RTVSPropertyOp2
 70
     1
102
RTVSPropertyOp3
 70
     1
102
RTVSPropertyOp4
 70
     1
102
RTVSPropertyOp5
 70
     1
102
RTVSPropertyOp6
 70
     1
102
RTVSPropertyOp7
 70
     1
102
RTVSPropertyOp8
 70
     1
102
RTVSPropertyOp9
 70
     1
102
RTVSPropertyOp10
 70
     1
102
RTVSPropertyOp11
 70
     1
102
RTVSPropertyOp12
 70
     1
102
RTVSPropertyOp13
 70
     1
102
RTVSPropertyOp14
 70
     1
102
RTVSPropertyOp15
 70
     1
102
RTVSPropertyOp16
 70
     1
102
RTVSPropertyOp17
 70
     1
102
RTVSPropertyOp18
 70
     1
102
RTVSPropertyOp19
 70
     1
102
RTVSPropertyOp20
 70
     1
102
RTVSPropertyOp21
 70
     1
102
RTVSPropertyOp22
 70
     1
102
RTVSPropertyOp23
 70
     1
102
RTVSPropertyOp24
 70
     1
102
RTVSPropertyOp25
 70
     1
102
RTVSPropertyOp26
 70
     1
102
RTVSPropertyOp27
 70
     1
102
RTVSPropertyOp28
 70
     1
102
RTVSPropertyOp29
 70
     1
102
RTVSPropertyOp30
 70
     1
102
RTVSPropertyOp31
 70
     1
102
RTVSPropertyOp32
 70
     1
  0
XRECORD
  5
8A9
102
{ACAD_REACTORS
330
8A8
102
}
330
8A8
100
AcDbXrecord
280
     1
102
RTVSPropertyOp0
 70
     1
102
RTVSPropertyOp1
 70
     1
102
RTVSPropertyOp2
 70
     1
102
RTVSPropertyOp3
 70
     1
102
RTVSPropertyOp4
 70
     1
102
RTVSPropertyOp5
 70
     1
102
RTVSPropertyOp6
 70
     1
102
RTVSPropertyOp7
 70
     1
102
RTVSPropertyOp8
 70
     1
102
RTVSPropertyOp9
 70
     1
102
RTVSPropertyOp10
 70
     1
102
RTVSPropertyOp11
 70
     1
102
RTVSPropertyOp12
 70
     1
102
RTVSPropertyOp13
 70
     1
102
RTVSPropertyOp14
 70
     1
102
RTVSPropertyOp15
 70
     1
102
RTVSPropertyOp16
 70
     1
102
RTVSPropertyOp17
 70
     1
102
RTVSPropertyOp18
 70
     1
102
RTVSPropertyOp19
 70
     1
102
RTVSPropertyOp20
 70
     1
102
RTVSPropertyOp21
 70
     1
102
RTVSPropertyOp22
 70
     1
102
RTVSPropertyOp23
 70
     1
102
RTVSPropertyOp24
 70
     1
102
RTVSPropertyOp25
 70
     1
102
RTVSPropertyOp26
 70
     1
102
RTVSPropertyOp27
 70
     1
102
RTVSPropertyOp28
 70
     1
102
RTVSPropertyOp29
 70
     1
102
RTVSPropertyOp30
 70
     1
102
RTVSPropertyOp31
 70
     1
102
RTVSPropertyOp32
 70
     1
  0
XRECORD
  5
89D
102
{ACAD_REACTORS
330
89C
102
}
330
89C
100
AcDbXrecord
280
     1
102
RTVSPropertyOp0
 70
     1
102
RTVSPropertyOp1
 70
     1
102
RTVSPropertyOp2
 70
     1
102
RTVSPropertyOp3
 70
     1
102
RTVSPropertyOp4
 70
     1
102
RTVSPropertyOp5
 70
     1
102
RTVSPropertyOp6
 70
     1
102
RTVSPropertyOp7
 70
     1
102
RTVSPropertyOp8
 70
     1
102
RTVSPropertyOp9
 70
     1
102
RTVSPropertyOp10
 70
     1
102
RTVSPropertyOp11
 70
     1
102
RTVSPropertyOp12
 70
     1
102
RTVSPropertyOp13
 70
     1
102
RTVSPropertyOp14
 70
     1
102
RTVSPropertyOp15
 70
     1
102
RTVSPropertyOp16
 70
     1
102
RTVSPropertyOp17
 70
     1
102
RTVSPropertyOp18
 70
     1
102
RTVSPropertyOp19
 70
     1
102
RTVSPropertyOp20
 70
     1
102
RTVSPropertyOp21
 70
     1
102
RTVSPropertyOp22
 70
     1
102
RTVSPropertyOp23
 70
     1
102
RTVSPropertyOp24
 70
     1
102
RTVSPropertyOp25
 70
     1
102
RTVSPropertyOp26
 70
     1
102
RTVSPropertyOp27
 70
     1
102
RTVSPropertyOp28
 70
     1
102
RTVSPropertyOp29
 70
     1
102
RTVSPropertyOp30
 70
     1
102
RTVSPropertyOp31
 70
     1
102
RTVSPropertyOp32
 70
     1
  0
XRECORD
  5
8B5
102
{ACAD_REACTORS
330
8B4
102
}
330
8B4
100
AcDbXrecord
280
     1
102
RTVSPropertyOp0
 70
     1
102
RTVSPropertyOp1
 70
     1
102
RTVSPropertyOp2
 70
     1
102
RTVSPropertyOp3
 70
     1
102
RTVSPropertyOp4
 70
     1
102
RTVSPropertyOp5
 70
     1
102
RTVSPropertyOp6
 70
     1
102
RTVSPropertyOp7
 70
     1
102
RTVSPropertyOp8
 70
     1
102
RTVSPropertyOp9
 70
     1
102
RTVSPropertyOp10
 70
     1
102
RTVSPropertyOp11
 70
     1
102
RTVSPropertyOp12
 70
     1
102
RTVSPropertyOp13
 70
     1
102
RTVSPropertyOp14
 70
     1
102
RTVSPropertyOp15
 70
     1
102
RTVSPropertyOp16
 70
     1
102
RTVSPropertyOp17
 70
     1
102
RTVSPropertyOp18
 70
     1
102
RTVSPropertyOp19
 70
     1
102
RTVSPropertyOp20
 70
     1
102
RTVSPropertyOp21
 70
     1
102
RTVSPropertyOp22
 70
     1
102
RTVSPropertyOp23
 70
     1
102
RTVSPropertyOp24
 70
     1
102
RTVSPropertyOp25
 70
     1
102
RTVSPropertyOp26
 70
     1
102
RTVSPropertyOp27
 70
     1
102
RTVSPropertyOp28
 70
     1
102
RTVSPropertyOp29
 70
     1
102
RTVSPropertyOp30
 70
     1
102
RTVSPropertyOp31
 70
     1
102
RTVSPropertyOp32
 70
     1
  0
ENDSEC
  0
EOF
