  0
SECTION
  2
HEADER
  9
$ACADVER
  1
AC1015
  9
$ACADMAINTVER
 70
    18
  9
$DWGCODEPAGE
  3
ANSI_1252
  9
$INSBASE
 10
0.0
 20
0.0
 30
0.0
  9
$EXTMIN
 10
0.0
 20
0.0
 30
0.0
  9
$EXTMAX
 10
15.45454545454545
 20
10.0
 30
0.0
  9
$LIMMIN
 10
0.0
 20
0.0
  9
$LIMMAX
 10
15.45454545454545
 20
10.0
  9
$ORTHOMODE
 70
     0
  9
$REGENMODE
 70
     1
  9
$FILLMODE
 70
     1
  9
$QTEXTMODE
 70
     0
  9
$MIRRTEXT
 70
     0
  9
$LTSCALE
 40
0.9090909090909089
  9
$ATTMODE
 70
     1
  9
$TEXTSIZE
 40
0.2
  9
$TRACEWID
 40
0.05
  9
$TEXTSTYLE
  7
Standard
  9
$CLAYER
  8
0
  9
$CELTYPE
  6
ByLayer
  9
$CECOLOR
 62
   256
  9
$CELTSCALE
 40
1.0
  9
$DISPSILH
 70
     0
  9
$DIMSCALE
 40
1.0
  9
$DIMASZ
 40
0.0708661417322835
  9
$DIMEXO
 40
0.0625
  9
$DIMDLI
 40
0.38
  9
$DIMRND
 40
0.0
  9
$DIMDLE
 40
0.0
  9
$DIMEXE
 40
0.18
  9
$DIMTP
 40
0.0
  9
$DIMTM
 40
0.0
  9
$DIMTXT
 40
0.0708661417322835
  9
$DIMCEN
 40
0.09
  9
$DIMTSZ
 40
0.0
  9
$DIMTOL
 70
     0
  9
$DIMLIM
 70
     0
  9
$DIMTIH
 70
     1
  9
$DIMTOH
 70
     1
  9
$DIMSE1
 70
     0
  9
$DIMSE2
 70
     0
  9
$DIMTAD
 70
     0
  9
$DIMZIN
 70
     0
  9
$DIMBLK
  1

  9
$DIMASO
 70
     1
  9
$DIMSHO
 70
     1
  9
$DIMPOST
  1

  9
$DIMAPOST
  1

  9
$DIMALT
 70
     0
  9
$DIMALTD
 70
     2
  9
$DIMALTF
 40
25.4
  9
$DIMLFAC
 40
1.0
  9
$DIMTOFL
 70
     0
  9
$DIMTVP
 40
0.0
  9
$DIMTIX
 70
     0
  9
$DIMSOXD
 70
     0
  9
$DIMSAH
 70
     0
  9
$DIMBLK1
  1

  9
$DIMBLK2
  1

  9
$DIMSTYLE
  2
STANDARD
  9
$DIMCLRD
 70
     0
  9
$DIMCLRE
 70
     0
  9
$DIMCLRT
 70
     0
  9
$DIMTFAC
 40
1.0
  9
$DIMGAP
 40
0.09
  9
$DIMJUST
 70
     0
  9
$DIMSD1
 70
     0
  9
$DIMSD2
 70
     0
  9
$DIMTOLJ
 70
     1
  9
$DIMTZIN
 70
     0
  9
$DIMALTZ
 70
     0
  9
$DIMALTTZ
 70
     0
  9
$DIMUPT
 70
     0
  9
$DIMDEC
 70
     4
  9
$DIMTDEC
 70
     4
  9
$DIMALTU
 70
     2
  9
$DIMALTTD
 70
     2
  9
$DIMTXSTY
  7
Standard
  9
$DIMAUNIT
 70
     0
  9
$DIMADEC
 70
     0
  9
$DIMALTRND
 40
0.0
  9
$DIMAZIN
 70
     0
  9
$DIMDSEP
 70
    46
  9
$DIMATFIT
 70
     3
  9
$DIMFRAC
 70
     0
  9
$DIMLDRBLK
  1

  9
$DIMLUNIT
 70
     2
  9
$DIMLWD
 70
    -2
  9
$DIMLWE
 70
    -2
  9
$DIMTMOVE
 70
     0
  9
$LUNITS
 70
     2
  9
$LUPREC
 70
     4
  9
$SKETCHINC
 40
0.1
  9
$FILLETRAD
 40
0.0
  9
$AUNITS
 70
     0
  9
$AUPREC
 70
     0
  9
$MENU
  1
.
  9
$ELEVATION
 40
0.0
  9
$PELEVATION
 40
0.0
  9
$THICKNESS
 40
0.0
  9
$LIMCHECK
 70
     0
  9
$CHAMFERA
 40
0.0
  9
$CHAMFERB
 40
0.0
  9
$CHAMFERC
 40
0.0
  9
$CHAMFERD
 40
0.0
  9
$SKPOLY
 70
     0
  9
$TDCREATE
 40
2455951.545715081
  9
$TDUCREATE
 40
2455951.795715081
  9
$TDUPDATE
 40
2455951.545715081
  9
$TDUUPDATE
 40
2455951.795715081
  9
$TDINDWG
 40
0.0000600347
  9
$TDUSRTIMER
 40
0.0000600347
  9
$USRTIMER
 70
     1
  9
$ANGBASE
 50
0.0
  9
$ANGDIR
 70
     0
  9
$PDMODE
 70
     0
  9
$PDSIZE
 40
0.0
  9
$PLINEWID
 40
0.0
  9
$SPLFRAME
 70
     0
  9
$SPLINETYPE
 70
     6
  9
$SPLINESEGS
 70
     8
  9
$HANDSEED
  5
8CC
  9
$SURFTAB1
 70
     6
  9
$SURFTAB2
 70
     6
  9
$SURFTYPE
 70
     6
  9
$SURFU
 70
     6
  9
$SURFV
 70
     6
  9
$UCSBASE
  2

  9
$UCSNAME
  2

  9
$UCSORG
 10
0.0
 20
0.0
 30
0.0
  9
$UCSXDIR
 10
1.0
 20
0.0
 30
0.0
  9
$UCSYDIR
 10
0.0
 20
1.0
 30
0.0
  9
$UCSORTHOREF
  2

  9
$UCSORTHOVIEW
 70
     0
  9
$UCSORGTOP
 10
0.0
 20
0.0
 30
0.0
  9
$UCSORGBOTTOM
 10
0.0
 20
0.0
 30
0.0
  9
$UCSORGLEFT
 10
0.0
 20
0.0
 30
0.0
  9
$UCSORGRIGHT
 10
0.0
 20
0.0
 30
0.0
  9
$UCSORGFRONT
 10
0.0
 20
0.0
 30
0.0
  9
$UCSORGBACK
 10
0.0
 20
0.0
 30
0.0
  9
$PUCSBASE
  2

  9
$PUCSNAME
  2

  9
$PUCSORG
 10
0.0
 20
0.0
 30
0.0
  9
$PUCSXDIR
 10
1.0
 20
0.0
 30
0.0
  9
$PUCSYDIR
 10
0.0
 20
1.0
 30
0.0
  9
$PUCSORTHOREF
  2

  9
$PUCSORTHOVIEW
 70
     0
  9
$PUCSORGTOP
 10
0.0
 20
0.0
 30
0.0
  9
$PUCSORGBOTTOM
 10
0.0
 20
0.0
 30
0.0
  9
$PUCSORGLEFT
 10
0.0
 20
0.0
 30
0.0
  9
$PUCSORGRIGHT
 10
0.0
 20
0.0
 30
0.0
  9
$PUCSORGFRONT
 10
0.0
 20
0.0
 30
0.0
  9
$PUCSORGBACK
 10
0.0
 20
0.0
 30
0.0
  9
$USERI1
 70
     0
  9
$USERI2
 70
     0
  9
$USERI3
 70
     0
  9
$USERI4
 70
     0
  9
$USERI5
 70
     0
  9
$USERR1
 40
0.0
  9
$USERR2
 40
0.0
  9
$USERR3
 40
0.0
  9
$USERR4
 40
0.0
  9
$USERR5
 40
0.0
  9
$WORLDVIEW
 70
     1
  9
$SHADEDGE
 70
     3
  9
$SHADEDIF
 70
    70
  9
$TILEMODE
 70
     1
  9
$MAXACTVP
 70
    64
  9
$PINSBASE
 10
0.0
 20
0.0
 30
0.0
  9
$PLIMCHECK
 70
     0
  9
$PEXTMIN
 10
0.0
 20
0.0
 30
0.0
  9
$PEXTMAX
 10
15.45454545454545
 20
10.0
 30
0.0
  9
$PLIMMIN
 10
0.0
 20
0.0
  9
$PLIMMAX
 10
15.45454545454545
 20
10.0
  9
$UNITMODE
 70
     0
  9
$VISRETAIN
 70
     1
  9
$PLINEGEN
 70
     0
  9
$PSLTSCALE
 70
     1
  9
$TREEDEPTH
 70
  3020
  9
$CMLSTYLE
  2
Standard
  9
$CMLJUST
 70
     0
  9
$CMLSCALE
 40
1.0
  9
$PROXYGRAPHICS
 70
     1
  9
$MEASUREMENT
 70
     0
  9
$CELWEIGHT
370
    -1
  9
$ENDCAPS
280
     0
  9
$JOINSTYLE
280
     0
  9
$LWDISPLAY
290
     0
  9
$INSUNITS
 70
     1
  9
$HYPERLINKBASE
  1

  9
$STYLESHEET
  1

  9
$XEDIT
290
     1
  9
$CEPSNTYPE
380
     0
  9
$PSTYLEMODE
290
     1
  9
$FINGERPRINTGUID
  2
{E9B58444-4434-42BE-BACC-3126450CCC39}
  9
$VERSIONGUID
  2
{656BBCC1-2866-4100-8124-32CFFFC8DD3E}
  9
$EXTNAMES
290
     1
  9
$PSVPSCALE
 40
0.0
  9
$OLESTARTUP
290
     0
  0
ENDSEC
  0
SECTION
  2
CLASSES
  0
CLASS
  1
ACDBDICTIONARYWDFLT
  2
AcDbDictionaryWithDefault
  3
ObjectDBX Classes
 90
        0
280
     0
281
     0
  0
CLASS
  1
MATERIAL
  2
AcDbMaterial
  3
ObjectDBX Classes
 90
     1153
280
     0
281
     0
  0
CLASS
  1
VISUALSTYLE
  2
AcDbVisualStyle
  3
ObjectDBX Classes
 90
     4095
280
     0
281
     0
  0
CLASS
  1
SCALE
  2
AcDbScale
  3
ObjectDBX Classes
 90
     1153
280
     0
281
     0
  0
CLASS
  1
TABLESTYLE
  2
AcDbTableStyle
  3
ObjectDBX Classes
 90
     4095
280
     0
281
     0
  0
CLASS
  1
MLEADERSTYLE
  2
AcDbMLeaderStyle
  3
ACDB_MLEADERSTYLE_CLASS
 90
     4095
280
     0
281
     0
  0
CLASS
  1
DICTIONARYVAR
  2
AcDbDictionaryVar
  3
ObjectDBX Classes
 90
        0
280
     0
281
     0
  0
CLASS
  1
CELLSTYLEMAP
  2
AcDbCellStyleMap
  3
ObjectDBX Classes
 90
     1152
280
     0
281
     0
  0
CLASS
  1
ACDBPLACEHOLDER
  2
AcDbPlaceHolder
  3
ObjectDBX Classes
 90
        0
280
     0
281
     0
  0
CLASS
  1
LAYOUT
  2
AcDbLayout
  3
ObjectDBX Classes
 90
        0
280
     0
281
     0
  0
ENDSEC
  0
SECTION
  2
TABLES
  0
TABLE
  2
VPORT
  5
8
330
0
100
AcDbSymbolTable
 70
     1
  0
VPORT
  5
57
330
8
100
AcDbSymbolTableRecord
100
AcDbViewportTableRecord
  2
*Active
 70
     0
 10
0.0
 20
0.0
 11
1.0
 21
1.0
 12
7.727272727272726
 22
5.0
 13
0.0
 23
0.0
 14
1.0
 24
1.0
 15
0.0
 25
0.0
 16
0.0
 26
0.0
 36
1.0
 17
0.0
 27
0.0
 37
0.0
 40
10.0
 41
1.545454545454545
 42
50.0
 43
0.0
 44
0.0
 50
0.0
 51
0.0
 71
     0
 72
   100
 73
     1
 74
     1
 75
     0
 76
     0
 77
     0
 78
     0
281
     0
 65
     1
110
0.0
120
0.0
130
0.0
111
1.0
121
0.0
131
0.0
112
0.0
122
1.0
132
0.0
 79
     0
146
0.0
  0
ENDTAB
  0
TABLE
  2
LTYPE
  5
5
330
0
100
AcDbSymbolTable
 70
    59
  0
LTYPE
  5
5B
330
5
100
AcDbSymbolTableRecord
100
AcDbLinetypeTableRecord
  2
ByBlock
 70
     0
  3

 72
    65
 73
     0
 40
0.0
  0
LTYPE
  5
5C
330
5
100
AcDbSymbolTableRecord
100
AcDbLinetypeTableRecord
  2
ByLayer
 70
     0
  3

 72
    65
 73
     0
 40
0.0
  0
LTYPE
  5
5D
330
5
100
AcDbSymbolTableRecord
100
AcDbLinetypeTableRecord
  2
Continuous
 70
     0
  3
Solid line
 72
    65
 73
     0
 40
0.0
  0
LTYPE
  5
7C
330
5
100
AcDbSymbolTableRecord
100
AcDbLinetypeTableRecord
  2
BY_STANDARD
 70
     0
  3
By Standard ____________    ____    ____   _
 72
    65
 73
     6
 40
1.240299999999999
 49
0.6614
 74
     0
 49
-0.0827
 74
     0
 49
0.1654
 74
     0
 49
-0.0827
 74
     0
 49
0.1654
 74
     0
 49
-0.0827
 74
     0
  0
LTYPE
  5
7D
330
5
100
AcDbSymbolTableRecord
100
AcDbLinetypeTableRecord
  2
CHAIN
 70
     0
  3
Chain ____ _ ____ _ ____ _ ____ _ ____ _ ____
 72
    65
 73
     4
 40
0.7087
 49
0.4724000000000001
 74
     0
 49
-0.0591
 74
     0
 49
0.1181
 74
     0
 49
-0.0591
 74
     0
  0
LTYPE
  5
7E
330
5
100
AcDbSymbolTableRecord
100
AcDbLinetypeTableRecord
  2
DASH_DOT
 70
     0
  3
Dash dot __ . __ . __ . __ . __ . __ . __ . __
 72
    65
 73
     4
 40
0.37
 49
0.24
 74
     0
 49
-0.06
 74
     0
 49
0.01
 74
     0
 49
-0.06
 74
     0
  0
LTYPE
  5
7F
330
5
100
AcDbSymbolTableRecord
100
AcDbLinetypeTableRecord
  2
DOUBLE_DASH_DOT
 70
     0
  3
Double-Dash Dot __ __ . __ __ . __ __ . __ _
 72
    65
 73
     6
 40
0.4398
 49
0.24
 74
     0
 49
-0.06
 74
     0
 49
0.0098
 74
     0
 49
-0.06
 74
     0
 49
0.01
 74
     0
 49
-0.06
 74
     0
  0
LTYPE
  5
80
330
5
100
AcDbSymbolTableRecord
100
AcDbLinetypeTableRecord
  2
DASH_TRIPLE_DOT
 70
     0
  3
Dash Triple-Dot _ . . . _ . . . _ . . . _
 72
    65
 73
     8
 40
0.51
 49
0.24
 74
     0
 49
-0.06
 74
     0
 49
0.01
 74
     0
 49
-0.06
 74
     0
 49
0.01
 74
     0
 49
-0.06
 74
     0
 49
0.01
 74
     0
 49
-0.06
 74
     0
  0
LTYPE
  5
81
330
5
100
AcDbSymbolTableRecord
100
AcDbLinetypeTableRecord
  2
DASHED
 70
     0
  3
Dashed __ __ __ __ __ __ __ __ __ __ __ __ __ _
 72
    65
 73
     2
 40
0.2067
 49
0.1654
 74
     0
 49
-0.0413
 74
     0
  0
LTYPE
  5
82
330
5
100
AcDbSymbolTableRecord
100
AcDbLinetypeTableRecord
  2
DASH_DOUBLE_DOT
 70
     0
  3
Dash Double-Dot __ . . __ . . __ . . __ . .
 72
    65
 73
     6
 40
0.4398
 49
0.24
 74
     0
 49
-0.06
 74
     0
 49
0.0098
 74
     0
 49
-0.06
 74
     0
 49
0.01
 74
     0
 49
-0.06
 74
     0
  0
LTYPE
  5
83
330
5
100
AcDbSymbolTableRecord
100
AcDbLinetypeTableRecord
  2
DASHED_SPACE
 70
     0
  3
Dashed Space __ __ __ __ __ __ __ __ __ __ __ _
 72
    65
 73
     2
 40
0.2067
 49
0.1654
 74
     0
 49
-0.0413
 74
     0
  0
LTYPE
  5
84
330
5
100
AcDbSymbolTableRecord
100
AcDbLinetypeTableRecord
  2
DOTTED
 70
     0
  3
Dotted . . . . . . . . . . . . . . . . . . . . 
 72
    65
 73
     2
 40
0.0482
 49
0.0069
 74
     0
 49
-0.0413
 74
     0
  0
LTYPE
  5
85
330
5
100
AcDbSymbolTableRecord
100
AcDbLinetypeTableRecord
  2
DOUBLE_DASH_CHAIN
 70
     0
  3
Double-Dash Chain ______  __  __  ______  __  _
 72
    65
 73
     6
 40
1.240299999999999
 49
0.6614
 74
     0
 49
-0.0827
 74
     0
 49
0.1654
 74
     0
 49
-0.0827
 74
     0
 49
0.1654
 74
     0
 49
-0.0827
 74
     0
  0
LTYPE
  5
87
330
5
100
AcDbSymbolTableRecord
100
AcDbLinetypeTableRecord
  2
DOUBLE_DASH_DOUBLE_DOT
 70
     0
  3
Double-Dash Double-dot _ _ . . _ _ . . _
 72
    65
 73
     8
 40
0.7400000000000001
 49
0.24
 74
     0
 49
-0.06
 74
     0
 49
0.24
 74
     0
 49
-0.06
 74
     0
 49
0.01
 74
     0
 49
-0.06
 74
     0
 49
0.01
 74
     0
 49
-0.06
 74
     0
  0
LTYPE
  5
88
330
5
100
AcDbSymbolTableRecord
100
AcDbLinetypeTableRecord
  2
DOUBLE_DASH_TRIPLE_DOT
 70
     0
  3
Double Dash Triple Dot __ __ . . . __ __ . .
 72
    65
 73
    10
 40
0.8100000000000001
 49
0.24
 74
     0
 49
-0.06
 74
     0
 49
0.24
 74
     0
 49
-0.06
 74
     0
 49
0.01
 74
     0
 49
-0.06
 74
     0
 49
0.01
 74
     0
 49
-0.06
 74
     0
 49
0.01
 74
     0
 49
-0.06
 74
     0
  0
LTYPE
  5
89
330
5
100
AcDbSymbolTableRecord
100
AcDbLinetypeTableRecord
  2
LONG_DASH_DOTTED
 70
     0
  3
Long Dash Dotted ____ . ____ . ____ . ____ . _
 72
    65
 73
     4
 40
0.3543
 49
0.2362
 74
     0
 49
-0.0295
 74
     0
 49
0.0591
 74
     0
 49
-0.0295
 74
     0
  0
LTYPE
  5
8A
330
5
100
AcDbSymbolTableRecord
100
AcDbLinetypeTableRecord
  2
LONG_DASH_DOUBLE_DOT
 70
     0
  3
Long Dash Double Dot ________  .  .  ________  
 72
    65
 73
     6
 40
0.6799999999999999
 49
0.48
 74
     0
 49
-0.06
 74
     0
 49
0.01
 74
     0
 49
-0.06
 74
     0
 49
0.01
 74
     0
 49
-0.06
 74
     0
  0
LTYPE
  5
8B
330
5
100
AcDbSymbolTableRecord
100
AcDbLinetypeTableRecord
  2
LONG_DASH_TRIPLE_DOT
 70
     0
  3
Long Dash Triple Dot ____ ... ____ ... ____
 72
    65
 73
     8
 40
0.3689
 49
0.2362
 74
     0
 49
-0.0295
 74
     0
 49
0.0049
 74
     0
 49
-0.0295
 74
     0
 49
0.0049
 74
     0
 49
-0.0295
 74
     0
 49
0.0049
 74
     0
 49
-0.0295
 74
     0
  0
LTYPE
  5
8C
330
5
100
AcDbSymbolTableRecord
100
AcDbLinetypeTableRecord
  2
BORDER
 70
     0
  3
Border __ __ . __ __ . __ __ . __ __ . __ __ .
 72
    65
 73
     6
 40
1.75
 49
0.5
 74
     0
 49
-0.25
 74
     0
 49
0.5
 74
     0
 49
-0.25
 74
     0
 49
0.0
 74
     0
 49
-0.25
 74
     0
  0
LTYPE
  5
8D
330
5
100
AcDbSymbolTableRecord
100
AcDbLinetypeTableRecord
  2
BORDER2
 70
     0
  3
Border (.5x) __.__.__.__.__.__.__.__.__.__.__.
 72
    65
 73
     6
 40
0.875
 49
0.25
 74
     0
 49
-0.125
 74
     0
 49
0.25
 74
     0
 49
-0.125
 74
     0
 49
0.0
 74
     0
 49
-0.125
 74
     0
  0
LTYPE
  5
8E
330
5
100
AcDbSymbolTableRecord
100
AcDbLinetypeTableRecord
  2
BORDERX2
 70
     0
  3
Border (2x) ____  ____  .  ____  ____  .  ___
 72
    65
 73
     6
 40
3.5
 49
1.0
 74
     0
 49
-0.5
 74
     0
 49
1.0
 74
     0
 49
-0.5
 74
     0
 49
0.0
 74
     0
 49
-0.5
 74
     0
  0
LTYPE
  5
8F
330
5
100
AcDbSymbolTableRecord
100
AcDbLinetypeTableRecord
  2
CENTER
 70
     0
  3
Center ____ _ ____ _ ____ _ ____ _ ____ _ ____
 72
    65
 73
     4
 40
2.0
 49
1.25
 74
     0
 49
-0.25
 74
     0
 49
0.25
 74
     0
 49
-0.25
 74
     0
  0
LTYPE
  5
90
330
5
100
AcDbSymbolTableRecord
100
AcDbLinetypeTableRecord
  2
CENTER2
 70
     0
  3
Center (.5x) ___ _ ___ _ ___ _ ___ _ ___ _ ___
 72
    65
 73
     4
 40
1.125
 49
0.75
 74
     0
 49
-0.125
 74
     0
 49
0.125
 74
     0
 49
-0.125
 74
     0
  0
LTYPE
  5
91
330
5
100
AcDbSymbolTableRecord
100
AcDbLinetypeTableRecord
  2
CENTERX2
 70
     0
  3
Center (2x) ________  __  ________  __  _____
 72
    65
 73
     4
 40
4.0
 49
2.5
 74
     0
 49
-0.5
 74
     0
 49
0.5
 74
     0
 49
-0.5
 74
     0
  0
LTYPE
  5
92
330
5
100
AcDbSymbolTableRecord
100
AcDbLinetypeTableRecord
  2
DASHDOT2
 70
     0
  3
Dash dot (.5x) _._._._._._._._._._._._._._._.
 72
    65
 73
     4
 40
0.5
 49
0.25
 74
     0
 49
-0.125
 74
     0
 49
0.0
 74
     0
 49
-0.125
 74
     0
  0
LTYPE
  5
93
330
5
100
AcDbSymbolTableRecord
100
AcDbLinetypeTableRecord
  2
DASHDOTX2
 70
     0
  3
Dash dot (2x) ____  .  ____  .  ____  .  ___
 72
    65
 73
     4
 40
2.0
 49
1.0
 74
     0
 49
-0.5
 74
     0
 49
0.0
 74
     0
 49
-0.5
 74
     0
  0
LTYPE
  5
95
330
5
100
AcDbSymbolTableRecord
100
AcDbLinetypeTableRecord
  2
DASHED2
 70
     0
  3
Dashed (.5x) _ _ _ _ _ _ _ _ _ _ _ _ _ _ _ _ _
 72
    65
 73
     2
 40
0.375
 49
0.25
 74
     0
 49
-0.125
 74
     0
  0
LTYPE
  5
96
330
5
100
AcDbSymbolTableRecord
100
AcDbLinetypeTableRecord
  2
DASHEDX2
 70
     0
  3
Dashed (2x) ____  ____  ____  ____  ____  ___
 72
    65
 73
     2
 40
1.5
 49
1.0
 74
     0
 49
-0.5
 74
     0
  0
LTYPE
  5
97
330
5
100
AcDbSymbolTableRecord
100
AcDbLinetypeTableRecord
  2
DIVIDE
 70
     0
  3
Divide ____ . . ____ . . ____ . . ____ . . ____
 72
    65
 73
     6
 40
1.25
 49
0.5
 74
     0
 49
-0.25
 74
     0
 49
0.0
 74
     0
 49
-0.25
 74
     0
 49
0.0
 74
     0
 49
-0.25
 74
     0
  0
LTYPE
  5
98
330
5
100
AcDbSymbolTableRecord
100
AcDbLinetypeTableRecord
  2
DIVIDE2
 70
     0
  3
Divide (.5x) __..__..__..__..__..__..__..__.._
 72
    65
 73
     6
 40
0.625
 49
0.25
 74
     0
 49
-0.125
 74
     0
 49
0.0
 74
     0
 49
-0.125
 74
     0
 49
0.0
 74
     0
 49
-0.125
 74
     0
  0
LTYPE
  5
99
330
5
100
AcDbSymbolTableRecord
100
AcDbLinetypeTableRecord
  2
DIVIDEX2
 70
     0
  3
Divide (2x) ________  .  .  ________  .  .  _
 72
    65
 73
     6
 40
2.5
 49
1.0
 74
     0
 49
-0.5
 74
     0
 49
0.0
 74
     0
 49
-0.5
 74
     0
 49
0.0
 74
     0
 49
-0.5
 74
     0
  0
LTYPE
  5
9A
330
5
100
AcDbSymbolTableRecord
100
AcDbLinetypeTableRecord
  2
DOT
 70
     0
  3
Dot . . . . . . . . . . . . . . . . . . . . . .
 72
    65
 73
     2
 40
0.25
 49
0.0
 74
     0
 49
-0.25
 74
     0
  0
LTYPE
  5
9B
330
5
100
AcDbSymbolTableRecord
100
AcDbLinetypeTableRecord
  2
DOT2
 70
     0
  3
Dot (.5x) .....................................
 72
    65
 73
     2
 40
0.125
 49
0.0
 74
     0
 49
-0.125
 74
     0
  0
LTYPE
  5
9C
330
5
100
AcDbSymbolTableRecord
100
AcDbLinetypeTableRecord
  2
DOTX2
 70
     0
  3
Dot (2x) .  .  .  .  .  .  .  .  .  .  .  .  . 
 72
    65
 73
     2
 40
0.5
 49
0.0
 74
     0
 49
-0.5
 74
     0
  0
LTYPE
  5
9D
330
5
100
AcDbSymbolTableRecord
100
AcDbLinetypeTableRecord
  2
HIDDEN
 70
     0
  3
Hidden __ __ __ __ __ __ __ __ __ __ __ __ __ _
 72
    65
 73
     2
 40
0.375
 49
0.25
 74
     0
 49
-0.125
 74
     0
  0
LTYPE
  5
9E
330
5
100
AcDbSymbolTableRecord
100
AcDbLinetypeTableRecord
  2
HIDDEN2
 70
     0
  3
Hidden (.5x) _ _ _ _ _ _ _ _ _ _ _ _ _ _ _ _ _
 72
    65
 73
     2
 40
0.1875
 49
0.125
 74
     0
 49
-0.0625
 74
     0
  0
LTYPE
  5
9F
330
5
100
AcDbSymbolTableRecord
100
AcDbLinetypeTableRecord
  2
HIDDENX2
 70
     0
  3
Hidden (2x) ____ ____ ____ ____ ____ ____ ____
 72
    65
 73
     2
 40
0.75
 49
0.5
 74
     0
 49
-0.25
 74
     0
  0
LTYPE
  5
A0
330
5
100
AcDbSymbolTableRecord
100
AcDbLinetypeTableRecord
  2
PHANTOM
 70
     0
  3
Phantom ______  __  __  ______  __  __  ______
 72
    65
 73
     6
 40
2.5
 49
1.25
 74
     0
 49
-0.25
 74
     0
 49
0.25
 74
     0
 49
-0.25
 74
     0
 49
0.25
 74
     0
 49
-0.25
 74
     0
  0
LTYPE
  5
A1
330
5
100
AcDbSymbolTableRecord
100
AcDbLinetypeTableRecord
  2
PHANTOM2
 70
     0
  3
Phantom (.5x) ___ _ _ ___ _ _ ___ _ _ ___ _ _
 72
    65
 73
     6
 40
1.25
 49
0.625
 74
     0
 49
-0.125
 74
     0
 49
0.125
 74
     0
 49
-0.125
 74
     0
 49
0.125
 74
     0
 49
-0.125
 74
     0
  0
LTYPE
  5
A2
330
5
100
AcDbSymbolTableRecord
100
AcDbLinetypeTableRecord
  2
PHANTOMX2
 70
     0
  3
Phantom (2x) ____________    ____    ____   _
 72
    65
 73
     6
 40
5.0
 49
2.5
 74
     0
 49
-0.5
 74
     0
 49
0.5
 74
     0
 49
-0.5
 74
     0
 49
0.5
 74
     0
 49
-0.5
 74
     0
  0
LTYPE
  5
A3
330
5
100
AcDbSymbolTableRecord
100
AcDbLinetypeTableRecord
  2
ACAD_ISO02W100
 70
     0
  3
ISO dash __ __ __ __ __ __ __ __ __ __ __ __ __
 72
    65
 73
     2
 40
0.59
 49
0.47
 74
     0
 49
-0.12
 74
     0
  0
LTYPE
  5
A4
330
5
100
AcDbSymbolTableRecord
100
AcDbLinetypeTableRecord
  2
ACAD_ISO03W100
 70
     0
  3
ISO dash space __    __    __    __    __    __
 72
    65
 73
     2
 40
1.179999999999999
 49
0.47
 74
     0
 49
-0.71
 74
     0
  0
LTYPE
  5
A5
330
5
100
AcDbSymbolTableRecord
100
AcDbLinetypeTableRecord
  2
ACAD_ISO04W100
 70
     0
  3
ISO long-dash dot ____ . ____ . ____ . ____ . _
 72
    65
 73
     4
 40
1.179999999999999
 49
0.9399999999999998
 74
     0
 49
-0.12
 74
     0
 49
0.0
 74
     0
 49
-0.12
 74
     0
  0
LTYPE
  5
A6
330
5
100
AcDbSymbolTableRecord
100
AcDbLinetypeTableRecord
  2
ACAD_ISO05W100
 70
     0
  3
ISO long-dash double-dot ____ .. ____ .. ____ .
 72
    65
 73
     6
 40
1.299999999999999
 49
0.9399999999999998
 74
     0
 49
-0.12
 74
     0
 49
0.0
 74
     0
 49
-0.12
 74
     0
 49
0.0
 74
     0
 49
-0.12
 74
     0
  0
LTYPE
  5
A7
330
5
100
AcDbSymbolTableRecord
100
AcDbLinetypeTableRecord
  2
ACAD_ISO06W100
 70
     0
  3
ISO long-dash triple-dot ____ ... ____ ... ____
 72
    65
 73
     8
 40
1.419999999999999
 49
0.9399999999999998
 74
     0
 49
-0.12
 74
     0
 49
0.0
 74
     0
 49
-0.12
 74
     0
 49
0.0
 74
     0
 49
-0.12
 74
     0
 49
0.0
 74
     0
 49
-0.12
 74
     0
  0
LTYPE
  5
A8
330
5
100
AcDbSymbolTableRecord
100
AcDbLinetypeTableRecord
  2
ACAD_ISO07W100
 70
     0
  3
ISO dot . . . . . . . . . . . . . . . . . . . .
 72
    65
 73
     2
 40
0.12
 49
0.0
 74
     0
 49
-0.12
 74
     0
  0
LTYPE
  5
A9
330
5
100
AcDbSymbolTableRecord
100
AcDbLinetypeTableRecord
  2
ACAD_ISO08W100
 70
     0
  3
ISO long-dash short-dash ____ __ ____ __ ____ _
 72
    65
 73
     4
 40
0.95
 49
0.47
 74
     0
 49
-0.12
 74
     0
 49
0.24
 74
     0
 49
-0.12
 74
     0
  0
LTYPE
  5
AA
330
5
100
AcDbSymbolTableRecord
100
AcDbLinetypeTableRecord
  2
ACAD_ISO09W100
 70
     0
  3
ISO long-dash double-short-dash ____ __ __ ____
 72
    65
 73
     6
 40
1.31
 49
0.47
 74
     0
 49
-0.12
 74
     0
 49
0.24
 74
     0
 49
-0.12
 74
     0
 49
0.24
 74
     0
 49
-0.12
 74
     0
  0
LTYPE
  5
AB
330
5
100
AcDbSymbolTableRecord
100
AcDbLinetypeTableRecord
  2
ACAD_ISO10W100
 70
     0
  3
ISO dash dot __ . __ . __ . __ . __ . __ . __ .
 72
    65
 73
     4
 40
0.71
 49
0.47
 74
     0
 49
-0.12
 74
     0
 49
0.0
 74
     0
 49
-0.12
 74
     0
  0
LTYPE
  5
AC
330
5
100
AcDbSymbolTableRecord
100
AcDbLinetypeTableRecord
  2
ACAD_ISO11W100
 70
     0
  3
ISO double-dash dot __ __ . __ __ . __ __ . __ 
 72
    65
 73
     6
 40
1.299999999999999
 49
0.47
 74
     0
 49
-0.12
 74
     0
 49
0.47
 74
     0
 49
-0.12
 74
     0
 49
0.0
 74
     0
 49
-0.12
 74
     0
  0
LTYPE
  5
AD
330
5
100
AcDbSymbolTableRecord
100
AcDbLinetypeTableRecord
  2
ACAD_ISO12W100
 70
     0
  3
ISO dash double-dot __ . . __ . . __ . . __ . .
 72
    65
 73
     6
 40
0.8299999999999998
 49
0.47
 74
     0
 49
-0.12
 74
     0
 49
0.0
 74
     0
 49
-0.12
 74
     0
 49
0.0
 74
     0
 49
-0.12
 74
     0
  0
LTYPE
  5
AE
330
5
100
AcDbSymbolTableRecord
100
AcDbLinetypeTableRecord
  2
ACAD_ISO13W100
 70
     0
  3
ISO double-dash double-dot __ __ . . __ __ . . 
 72
    65
 73
     8
 40
1.419999999999999
 49
0.47
 74
     0
 49
-0.12
 74
     0
 49
0.47
 74
     0
 49
-0.12
 74
     0
 49
0.0
 74
     0
 49
-0.12
 74
     0
 49
0.0
 74
     0
 49
-0.12
 74
     0
  0
LTYPE
  5
AF
330
5
100
AcDbSymbolTableRecord
100
AcDbLinetypeTableRecord
  2
ACAD_ISO14W100
 70
     0
  3
ISO dash triple-dot __ . . . __ . . . __ . . . 
 72
    65
 73
     8
 40
0.95
 49
0.47
 74
     0
 49
-0.12
 74
     0
 49
0.0
 74
     0
 49
-0.12
 74
     0
 49
0.0
 74
     0
 49
-0.12
 74
     0
 49
0.0
 74
     0
 49
-0.12
 74
     0
  0
LTYPE
  5
B0
330
5
100
AcDbSymbolTableRecord
100
AcDbLinetypeTableRecord
  2
ACAD_ISO15W100
 70
     0
  3
ISO double-dash triple-dot __ __ . . . __ __ . 
 72
    65
 73
    10
 40
1.539999999999999
 49
0.47
 74
     0
 49
-0.12
 74
     0
 49
0.47
 74
     0
 49
-0.12
 74
     0
 49
0.0
 74
     0
 49
-0.12
 74
     0
 49
0.0
 74
     0
 49
-0.12
 74
     0
 49
0.0
 74
     0
 49
-0.12
 74
     0
  0
LTYPE
  5
B3
330
5
100
AcDbSymbolTableRecord
100
AcDbLinetypeTableRecord
  2
FENCELINE1
 70
     0
  3
Fenceline circle ----0-----0----0-----0----0---
 72
    65
 73
     4
 40
1.45
 49
0.25
 74
     0
 49
-0.1
 74
     4
 75
   133
340
B2
 46
0.1
 50
0.0
 44
-0.1
 45
0.0
 49
-0.1
 74
     0
 49
1.0
 74
     0
  0
LTYPE
  5
B4
330
5
100
AcDbSymbolTableRecord
100
AcDbLinetypeTableRecord
  2
FENCELINE2
 70
     0
  3
Fenceline square ----[]-----[]----[]-----[]----
 72
    65
 73
     4
 40
1.45
 49
0.25
 74
     0
 49
-0.1
 74
     4
 75
   132
340
B2
 46
0.1
 50
0.0
 44
-0.1
 45
0.0
 49
-0.1
 74
     0
 49
1.0
 74
     0
  0
LTYPE
  5
B5
330
5
100
AcDbSymbolTableRecord
100
AcDbLinetypeTableRecord
  2
TRACKS
 70
     0
  3
Tracks -|-|-|-|-|-|-|-|-|-|-|-|-|-|-|-|-|-|-|-|
 72
    65
 73
     2
 40
0.3
 49
0.15
 74
     4
 75
   130
340
B2
 46
0.25
 50
0.0
 44
0.0
 45
0.0
 49
0.15
 74
     0
  0
LTYPE
  5
B6
330
5
100
AcDbSymbolTableRecord
100
AcDbLinetypeTableRecord
  2
BATTING
 70
     0
  3
Batting SSSSSSSSSSSSSSSSSSSSSSSSSSSSSSSSSSSSSSS
 72
    65
 73
     4
 40
0.4001000000000001
 49
0.0001
 74
     0
 49
-0.1
 74
     4
 75
   134
340
B2
 46
0.1
 50
0.0
 44
-0.1
 45
0.0
 49
-0.2
 74
     4
 75
   134
340
B2
 46
0.1
 50
180.0
 44
0.1
 45
0.0
 49
-0.1
 74
     0
  0
LTYPE
  5
B7
330
5
100
AcDbSymbolTableRecord
100
AcDbLinetypeTableRecord
  2
HOT_WATER_SUPPLY
 70
     0
  3
Hot water supply ---- HW ---- HW ---- HW ----
 72
    65
 73
     3
 40
0.9
 49
0.5
 74
     0
 49
-0.2
 74
     2
 75
     0
340
55
 46
0.1
 50
0.0
 44
-0.1
 45
-0.05
  9
HW
 49
-0.2
 74
     0
  0
LTYPE
  5
B8
330
5
100
AcDbSymbolTableRecord
100
AcDbLinetypeTableRecord
  2
GAS_LINE
 70
     0
  3
Gas line ----GAS----GAS----GAS----GAS----GAS---
 72
    65
 73
     3
 40
0.95
 49
0.5
 74
     0
 49
-0.2
 74
     2
 75
     0
340
55
 46
0.1
 50
0.0
 44
-0.1
 45
-0.05
  9
GAS
 49
-0.25
 74
     0
  0
LTYPE
  5
B9
330
5
100
AcDbSymbolTableRecord
100
AcDbLinetypeTableRecord
  2
ZIGZAG
 70
     0
  3
Zig zag /\/\/\/\/\/\/\/\/\/\/\/\/\/\/\/\/\/\/\/
 72
    65
 73
     4
 40
0.8001000000000001
 49
0.0001
 74
     0
 49
-0.2
 74
     4
 75
   131
340
B2
 46
0.2
 50
0.0
 44
-0.2
 45
0.0
 49
-0.4
 74
     4
 75
   131
340
B2
 46
0.2
 50
180.0
 44
0.2
 45
0.0
 49
-0.2
 74
     0
  0
ENDTAB
  0
TABLE
  2
LAYER
  5
2
330
0
100
AcDbSymbolTable
 70
    27
  0
LAYER
  5
54
330
2
100
AcDbSymbolTableRecord
100
AcDbLayerTableRecord
  2
0
 70
     0
 62
     7
  6
Continuous
370
    18
390
F
  0
LAYER
  5
C3
330
2
100
AcDbSymbolTableRecord
100
AcDbLayerTableRecord
  2
Dimension (ANSI)
 70
     0
 62
     7
  6
Continuous
370
    13
390
F
  0
LAYER
  5
C5
330
2
100
AcDbSymbolTableRecord
100
AcDbLayerTableRecord
  2
Hidden (ANSI)
 70
     0
 62
     7
  6
DASHED
370
    15
390
F
  0
LAYER
  5
CC
330
2
100
AcDbSymbolTableRecord
100
AcDbLayerTableRecord
  2
Symbol (ANSI)
 70
     0
 62
     7
  6
Continuous
370
    18
390
F
  0
LAYER
  5
CF
330
2
100
AcDbSymbolTableRecord
100
AcDbLayerTableRecord
  2
Visible (ANSI)
 70
     0
 62
     7
  6
Continuous
370
    13
390
F
  0
LAYER
  5
D0
330
2
100
AcDbSymbolTableRecord
100
AcDbLayerTableRecord
  2
Visible Narrow (ANSI)
 70
     0
 62
     7
  6
Continuous
370
    18
390
F
  0
LAYER
  5
148
330
2
100
AcDbSymbolTableRecord
100
AcDbLayerTableRecord
  2
Defpoints
 70
     0
 62
     7
  6
Continuous
290
     0
370
    -3
390
F
  0
ENDTAB
  0
TABLE
  2
STYLE
  5
3
330
0
100
AcDbSymbolTable
 70
    18
  0
STYLE
  5
55
330
3
100
AcDbSymbolTableRecord
100
AcDbTextStyleTableRecord
  2
Standard
 70
     0
 40
0.0
 41
1.0
 50
0.0
 71
     0
 42
0.2
  3
txt
  4

  0
STYLE
  5
5A
330
3
100
AcDbSymbolTableRecord
100
AcDbTextStyleTableRecord
  2
Annotative
 70
     0
 40
0.0
 41
1.0
 50
0.0
 71
     0
 42
0.2
  3
txt
  4

1001
AcadAnnotative
1000
AnnotativeData
1002
{
1070
     1
1070
     1
1002
}
  0
STYLE
  5
B2
330
3
100
AcDbSymbolTableRecord
100
AcDbTextStyleTableRecord
  2

 70
     1
 40
0.0
 41
1.0
 50
0.0
 71
     0
 42
0.2
  3
ltypeshp.shx
  4

  0
STYLE
  5
D4
330
3
100
AcDbSymbolTableRecord
100
AcDbTextStyleTableRecord
  2
ITALICC_120
 70
     0
 40
0.0
 41
1.0
 50
0.0
 71
     0
 42
0.2
  3
italicc.shx
  4

  0
STYLE
  5
D5
330
3
100
AcDbSymbolTableRecord
100
AcDbTextStyleTableRecord
  2
Label Text (ANSI)
 70
     0
 40
0.0
 41
1.0
 50
0.0
 71
     0
 42
0.2
  3
TAHOMA.TTF
  4

1001
ACAD
1000
Tahoma
1071
      256
  0
STYLE
  5
D6
330
3
100
AcDbSymbolTableRecord
100
AcDbTextStyleTableRecord
  2
Note Text (ANSI)
 70
     0
 40
0.0
 41
1.0
 50
0.0
 71
     0
 42
0.2
  3
TAHOMA.TTF
  4

1001
ACAD
1000
Tahoma
1071
      256
  0
STYLE
  5
D7
330
3
100
AcDbSymbolTableRecord
100
AcDbTextStyleTableRecord
  2
ROMANS
 70
     0
 40
0.0
 41
1.0
 50
0.0
 71
     0
 42
0.2
  3
romans.shx
  4

  0
STYLE
  5
D8
330
3
100
AcDbSymbolTableRecord
100
AcDbTextStyleTableRecord
  2
SANSSERIF_114
 70
     0
 40
0.0
 41
1.0
 50
0.0
 71
     0
 42
0.2
  3
TAHOMA.TTF
  4

1001
ACAD
1000
Tahoma
1071
      256
  0
STYLE
  5
D9
330
3
100
AcDbSymbolTableRecord
100
AcDbTextStyleTableRecord
  2
SANSSERIF_117
 70
     0
 40
0.0
 41
1.0
 50
0.0
 71
     0
 42
0.2
  3
TAHOMA.TTF
  4

1001
ACAD
1000
Tahoma
1071
      256
  0
STYLE
  5
DA
330
3
100
AcDbSymbolTableRecord
100
AcDbTextStyleTableRecord
  2
STANDARDAM_ANSI
 70
     0
 40
0.0
 41
1.0
 50
0.0
 71
     0
 42
0.2
  3
txt.shx
  4

  0
STYLE
  5
DB
330
3
100
AcDbSymbolTableRecord
100
AcDbTextStyleTableRecord
  2
StandardAM_ANSI$0
 70
     0
 40
0.0
 41
1.0
 50
0.0
 71
     0
 42
0.2
  3
txt.shx
  4

  0
STYLE
  5
DC
330
3
100
AcDbSymbolTableRecord
100
AcDbTextStyleTableRecord
  2
STANDARDAM_ANSI$3
 70
     0
 40
0.0
 41
1.0
 50
0.0
 71
     0
 42
0.2
  3
txt.shx
  4

  0
STYLE
  5
DD
330
3
100
AcDbSymbolTableRecord
100
AcDbTextStyleTableRecord
  2
STANDARDAM_ANSI$4
 70
     0
 40
0.0
 41
1.0
 50
0.0
 71
     0
 42
0.2
  3
txt.shx
  4

  0
STYLE
  5
DE
330
3
100
AcDbSymbolTableRecord
100
AcDbTextStyleTableRecord
  2
STANDARDAM_ANSI$7
 70
     0
 40
0.0
 41
1.0
 50
0.0
 71
     0
 42
0.2
  3
txt.shx
  4

  0
STYLE
  5
DF
330
3
100
AcDbSymbolTableRecord
100
AcDbTextStyleTableRecord
  2
STANDARDAM_ANSI$SF
 70
     0
 40
0.0
 41
1.0
 50
0.0
 71
     0
 42
0.2
  3
txt.shx
  4

  0
STYLE
  5
E0
330
3
100
AcDbSymbolTableRecord
100
AcDbTextStyleTableRecord
  2
STANDARDAM_ANSI$SH
 70
     0
 40
0.0
 41
1.0
 50
0.0
 71
     0
 42
0.2
  3
txt.shx
  4

  0
STYLE
  5
E1
330
3
100
AcDbSymbolTableRecord
100
AcDbTextStyleTableRecord
  2
STANDARDSTANDARD
 70
     0
 40
0.0
 41
1.0
 50
0.0
 71
     0
 42
0.2
  3
txt.shx
  4

  0
STYLE
  5
135
330
3
100
AcDbSymbolTableRecord
100
AcDbTextStyleTableRecord
  2
Text Style150
 70
     0
 40
0.0
 41
1.0
 50
0.0
 71
     0
 42
0.2
  3
TAHOMA.TTF
  4

1001
ACAD
1000
Tahoma
1071
      256
  0
ENDTAB
  0
TABLE
  2
VIEW
  5
6
330
0
100
AcDbSymbolTable
 70
     0
  0
ENDTAB
  0
TABLE
  2
UCS
  5
7
330
0
100
AcDbSymbolTable
 70
     0
  0
ENDTAB
  0
TABLE
  2
APPID
  5
9
330
0
100
AcDbSymbolTable
 70
     4
  0
APPID
  5
56
330
9
100
AcDbSymbolTableRecord
100
AcDbRegAppTableRecord
  2
ACAD
 70
     0
  0
APPID
  5
5E
330
9
100
AcDbSymbolTableRecord
100
AcDbRegAppTableRecord
  2
AcadAnnotative
 70
     0
  0
APPID
  5
7BB
330
9
100
AcDbSymbolTableRecord
100
AcDbRegAppTableRecord
  2
ACAD_DSTYLE_DIMRADIAL_EXTENSION
 70
     0
  0
APPID
  5
8C3
330
9
100
AcDbSymbolTableRecord
100
AcDbRegAppTableRecord
  2
ACAD_MLEADERVER
 70
     0
  0
ENDTAB
  0
TABLE
  2
DIMSTYLE
  5
A
330
0
100
AcDbSymbolTable
 70
    29
100
AcDbDimStyleTable
 71
     2
340
F6
340
58
  0
DIMSTYLE
105
58
330
A
100
AcDbSymbolTableRecord
100
AcDbDimStyleTableRecord
  2
STANDARD
 70
     0
 41
0.1800000071525573
 42
0.0625
140
0.1800000071525574
144
1.0
147
0.0900000035762787
176
   256
177
   256
178
   256
274
     3
340
55
371
    -1
372
    -1
  0
DIMSTYLE
105
59
330
A
100
AcDbSymbolTableRecord
100
AcDbDimStyleTableRecord
  2
Annotative
 70
     0
340
55
1001
AcadAnnotative
1000
AnnotativeData
1002
{
1070
     1
1070
     1
1002
}
  0
DIMSTYLE
105
E2
330
A
100
AcDbSymbolTableRecord
100
AcDbDimStyleTableRecord
  2
AM_ANSI
 70
     0
  4
 mm
 40
0.9090909090909089
 41
0.119999997317791
 42
0.05
 43
0.5
 44
0.1
 45
0.00000001
 78
     4
 79
     2
140
0.1200000047683716
146
0.7099999453624112
147
0.0599999986588955
176
   256
177
   256
178
     2
284
     4
340
DA
371
    -1
372
    -1
  0
DIMSTYLE
105
E3
330
A
100
AcDbSymbolTableRecord
100
AcDbDimStyleTableRecord
  2
AM_ANSI$7
 70
     0
  4
 mm
 40
0.9090909090909089
 41
0.119999997317791
 42
0.05
 43
0.5
 44
0.1
 45
0.00000001
 78
     4
 79
     2
140
0.1200000047683716
146
0.7099999453624112
147
0.0599999986588955
176
   256
177
   256
178
     2
284
     4
340
DA
371
    -1
372
    -1
  0
DIMSTYLE
105
E4
330
A
100
AcDbSymbolTableRecord
100
AcDbDimStyleTableRecord
  2
AM_ANSI$0
 70
     0
  4
 mm
 40
0.9090909090909089
 41
0.119999997317791
 42
0.05
 43
0.5
 44
0.1
 45
0.00000001
 78
     4
 79
     2
140
0.1200000047683716
146
0.7099999453624112
147
0.0599999986588955
176
   256
177
   256
178
     2
284
     4
340
DB
371
    -1
372
    -1
  0
DIMSTYLE
105
E5
330
A
100
AcDbSymbolTableRecord
100
AcDbDimStyleTableRecord
  2
AM_ANSI$0$7
 70
     0
  4
 mm
 40
0.9090909090909089
 41
0.119999997317791
 42
0.05
 43
0.5
 44
0.1
 45
0.00000001
 78
     4
 79
     2
140
0.1200000047683716
146
0.7099999453624112
147
0.0599999986588955
176
   256
177
   256
178
     2
284
     4
340
DB
371
    -1
372
    -1
  0
DIMSTYLE
105
E6
330
A
100
AcDbSymbolTableRecord
100
AcDbDimStyleTableRecord
  2
AM_ANSI$3
 70
     0
  4
 mm
 40
0.9090909090909089
 41
0.119999997317791
 42
0.05
 43
0.5
 44
0.1
 45
0.00000001
 78
     4
 79
     2
140
0.1200000047683716
146
0.7099999453624112
147
0.0599999986588955
176
   256
177
   256
178
     2
284
     4
340
DC
371
    -1
372
    -1
  0
DIMSTYLE
105
E7
330
A
100
AcDbSymbolTableRecord
100
AcDbDimStyleTableRecord
  2
AM_ANSI$3$7
 70
     0
  4
 mm
 40
0.9090909090909089
 41
0.119999997317791
 42
0.05
 43
0.5
 44
0.1
 45
0.00000001
 78
     4
 79
     2
140
0.1200000047683716
146
0.7099999453624112
147
0.0599999986588955
176
   256
177
   256
178
     2
284
     4
340
DC
371
    -1
372
    -1
  0
DIMSTYLE
105
E8
330
A
100
AcDbSymbolTableRecord
100
AcDbDimStyleTableRecord
  2
AM_ANSI$4
 70
     0
  4
 mm
 40
0.9090909090909089
 41
0.119999997317791
 42
0.05
 43
0.5
 44
0.1
 45
0.00000001
 78
     4
 79
     2
140
0.1200000047683716
146
0.7099999453624112
147
0.0599999986588955
176
   256
177
   256
178
     2
284
     4
340
DD
371
    -1
372
    -1
  0
DIMSTYLE
105
E9
330
A
100
AcDbSymbolTableRecord
100
AcDbDimStyleTableRecord
  2
AM_ANSI$4$7
 70
     0
  4
 mm
 40
0.9090909090909089
 41
0.119999997317791
 42
0.05
 43
0.5
 44
0.1
 45
0.00000001
 78
     4
 79
     2
140
0.1200000047683716
146
0.7099999453624112
147
0.0599999986588955
176
   256
177
   256
178
     2
284
     4
340
DD
371
    -1
372
    -1
  0
DIMSTYLE
105
EA
330
A
100
AcDbSymbolTableRecord
100
AcDbDimStyleTableRecord
  2
AM_ANSI$SF
 70
     0
  4
 mm
 40
0.9090909090909089
 41
0.119999997317791
 42
0.05
 43
0.5
 44
0.1
 45
0.00000001
 75
     1
 76
     1
 78
     4
 79
     2
140
0.1200000047683716
146
0.7099999453624112
147
0.0599999986588955
176
   256
177
   256
178
     2
284
     4
340
DF
371
    -1
372
    -1
  0
DIMSTYLE
105
EB
330
A
100
AcDbSymbolTableRecord
100
AcDbDimStyleTableRecord
  2
AM_ANSI$SF$7
 70
     0
  4
 mm
 40
0.9090909090909089
 41
0.119999997317791
 42
0.05
 43
0.5
 44
0.1
 45
0.00000001
 75
     1
 76
     1
 78
     4
 79
     2
140
0.1200000047683716
146
0.7099999453624112
147
0.0599999986588955
176
   256
177
   256
178
     2
284
     4
340
DF
371
    -1
372
    -1
  0
DIMSTYLE
105
EC
330
A
100
AcDbSymbolTableRecord
100
AcDbDimStyleTableRecord
  2
AM_ANSI$SH
 70
     0
  4
 mm
 40
0.9090909090909089
 41
0.119999997317791
 42
0.05
 43
0.5
 44
0.1
 45
0.00000001
 75
     1
 76
     1
 78
     4
 79
     2
140
0.1200000047683716
146
0.7099999453624112
147
0.0599999986588955
176
   256
177
   256
178
     2
284
     4
340
E0
371
    -1
372
    -1
  0
DIMSTYLE
105
ED
330
A
100
AcDbSymbolTableRecord
100
AcDbDimStyleTableRecord
  2
AM_ANSI$SH$7
 70
     0
  4
 mm
 40
0.9090909090909089
 41
0.119999997317791
 42
0.05
 43
0.5
 44
0.1
 45
0.00000001
 75
     1
 76
     1
 78
     4
 79
     2
140
0.1200000047683716
146
0.7099999453624112
147
0.0599999986588955
176
   256
177
   256
178
     2
284
     4
340
E0
371
    -1
372
    -1
  0
DIMSTYLE
105
EE
330
A
100
AcDbSymbolTableRecord
100
AcDbDimStyleTableRecord
  2
Architectural (ANSI)
 70
     0
 40
0.9090909090909089
 41
0.0984251946210861
 43
0.2362204724409449
 44
0.125
 45
0.00000001
 46
0.3937007874015748
 78
     3
 79
     3
140
0.1200000047683716
147
0.031496062992126
171
     1
176
   256
177
   256
178
   256
272
     2
274
     1
276
     2
277
     4
284
    12
285
     4
286
    12
340
D6
371
    -1
372
    -1
  0
DIMSTYLE
105
EF
330
A
100
AcDbSymbolTableRecord
100
AcDbDimStyleTableRecord
  2
Architectural (ANSI)$7
 70
     0
 40
0.9090909090909089
 41
0.0984251946210861
 43
0.2362204724409449
 44
0.125
 45
0.00000001
 46
0.3937007874015748
 78
     3
 79
     3
140
0.1200000047683716
147
0.031496062992126
171
     1
176
   256
177
   256
178
   256
272
     2
274
     1
276
     2
277
     4
284
    12
285
     4
286
    12
340
D6
371
    -1
372
    -1
  0
DIMSTYLE
105
F0
330
A
100
AcDbSymbolTableRecord
100
AcDbDimStyleTableRecord
  2
Default - Fraction (ANSI)
 70
     0
 40
0.9090909090909089
 41
0.0984251946210861
 43
0.2362204724409449
 44
0.125
 45
0.00000001
 46
0.3937007874015748
 79
     3
140
0.1200000047683716
147
0.031496062992126
171
     1
176
   256
177
   256
178
   256
272
     2
274
     1
276
     2
277
     5
284
    12
285
     4
286
    12
340
D6
371
    -1
372
    -1
  0
DIMSTYLE
105
F1
330
A
100
AcDbSymbolTableRecord
100
AcDbDimStyleTableRecord
  2
Default - Fraction (ANSI)$7
 70
     0
 40
0.9090909090909089
 41
0.0984251946210861
 43
0.2362204724409449
 44
0.125
 45
0.00000001
 46
0.3937007874015748
 79
     3
140
0.1200000047683716
147
0.031496062992126
171
     1
176
   256
177
   256
178
   256
272
     2
274
     1
276
     2
277
     5
284
    12
285
     4
286
    12
340
D6
371
    -1
372
    -1
  0
DIMSTYLE
105
F2
330
A
100
AcDbSymbolTableRecord
100
AcDbDimStyleTableRecord
  2
Default - mm (ANSI)
 70
     0
 40
0.9090909090909089
 41
0.0984251946210861
 42
0.063
 43
0.2362204724409449
 44
0.125
 45
0.00000001
 46
0.3937007874015748
 73
     0
 78
     4
 79
     1
140
0.1200000047683716
143
1.0
144
25.4
147
0.031496062992126
171
     1
176
   256
177
   256
178
   256
179
     1
271
     2
272
     2
274
     1
284
     4
285
     4
340
D6
371
    -1
372
    -1
  0
DIMSTYLE
105
F3
330
A
100
AcDbSymbolTableRecord
100
AcDbDimStyleTableRecord
  2
Default - mm (ANSI)$7
 70
     0
 40
0.9090909090909089
 41
0.0984251946210861
 42
0.063
 43
0.2362204724409449
 44
0.125
 45
0.00000001
 46
0.3937007874015748
 73
     0
 78
     4
 79
     1
140
0.1200000047683716
143
1.0
144
25.4
147
0.031496062992126
171
     1
176
   256
177
   256
178
   256
179
     1
271
     2
272
     2
274
     1
284
     4
285
     4
340
D6
371
    -1
372
    -1
  0
DIMSTYLE
105
F4
330
A
100
AcDbSymbolTableRecord
100
AcDbDimStyleTableRecord
  2
Default - mm [in] (ANSI)
 70
     0
  4
 in
 40
0.9090909090909089
 41
0.0984251946210861
 42
0.063
 43
0.25
 44
0.125
 45
0.00000001
 46
0.3937007874015748
 73
     0
 78
     4
 79
     1
140
0.1200000047683716
143
0.03937
144
25.4
147
0.031496062992126
170
     1
171
     3
176
   256
177
   256
178
   256
179
     1
271
     2
272
     2
274
     3
284
     4
285
     4
286
     4
340
D6
371
    -1
372
    -1
  0
DIMSTYLE
105
F5
330
A
100
AcDbSymbolTableRecord
100
AcDbDimStyleTableRecord
  2
Default - mm [in] (ANSI)$7
 70
     0
  4
 in
 40
0.9090909090909089
 41
0.0984251946210861
 42
0.063
 43
0.25
 44
0.125
 45
0.00000001
 46
0.3937007874015748
 73
     0
 78
     4
 79
     1
140
0.1200000047683716
143
0.03937
144
25.4
147
0.031496062992126
170
     1
171
     3
176
   256
177
   256
178
   256
179
     1
271
     2
272
     2
274
     3
284
     4
285
     4
286
     4
340
D6
371
    -1
372
    -1
  0
DIMSTYLE
105
F6
102
{ACAD_REACTORS
330
146
330
256
330
340
330
42A
330
53A
330
638
330
722
330
7DC
102
}
330
A
100
AcDbSymbolTableRecord
100
AcDbDimStyleTableRecord
  2
Default (ANSI)
 70
     0
 40
0.9090909090909089
 41
0.0984251946210861
 43
0.2362204724409449
 44
0.125
 45
0.00000001
 46
0.3937007874015748
 79
     1
140
0.1200000047683716
147
0.031496062992126
171
     1
176
   256
177
   256
178
   256
271
     3
272
     2
274
     1
284
     4
285
     4
340
D6
371
    -1
372
    -1
  0
DIMSTYLE
105
F7
330
A
100
AcDbSymbolTableRecord
100
AcDbDimStyleTableRecord
  2
Default (ANSI)$7
 70
     0
 40
0.9090909090909089
 41
0.0984251946210861
 43
0.2362204724409449
 44
0.125
 45
0.00000001
 46
0.3937007874015748
 79
     1
140
0.1200000047683716
147
0.031496062992126
171
     1
176
   256
177
   256
178
   256
271
     3
272
     2
274
     1
284
     4
285
     4
340
D6
371
    -1
372
    -1
  0
DIMSTYLE
105
F8
330
A
100
AcDbSymbolTableRecord
100
AcDbDimStyleTableRecord
  2
Default (ANSI)-01
 70
     0
 40
0.9090909090909089
 41
0.0984251946210861
 43
0.2362204724409449
 44
0.125
 45
0.00000001
 46
0.3937007874015748
 79
     1
140
0.1200000047683716
147
0.031496062992126
171
     1
176
   256
177
   256
178
   256
271
     2
272
     2
274
     1
284
     4
285
     4
340
D6
371
    -1
372
    -1
  0
DIMSTYLE
105
F9
330
A
100
AcDbSymbolTableRecord
100
AcDbDimStyleTableRecord
  2
Default (ANSI)-01$7
 70
     0
 40
0.9090909090909089
 41
0.0984251946210861
 43
0.2362204724409449
 44
0.125
 45
0.00000001
 46
0.3937007874015748
 79
     1
140
0.1200000047683716
147
0.031496062992126
171
     1
176
   256
177
   256
178
   256
271
     2
272
     2
274
     1
284
     4
285
     4
340
D6
371
    -1
372
    -1
  0
DIMSTYLE
105
FA
330
A
100
AcDbSymbolTableRecord
100
AcDbDimStyleTableRecord
  2
Alternate (ANSI)
 70
     0
 40
0.9090909090909089
 41
0.0979999974370003
340
55
342
FB
  0
DIMSTYLE
105
10D
330
A
100
AcDbSymbolTableRecord
100
AcDbDimStyleTableRecord
  2
Datum (ANSI)
 70
     0
 40
0.9090909090909089
 41
0.0979999974370003
340
55
342
FB
  0
DIMSTYLE
105
11C
330
A
100
AcDbSymbolTableRecord
100
AcDbDimStyleTableRecord
  2
Large (ANSI)
 70
     0
 40
0.9090909090909089
 41
0.1959999948740005
340
55
342
FB
  0
ENDTAB
  0
TABLE
  2
BLOCK_RECORD
  5
1
330
0
100
AcDbSymbolTable
 70
    12
  0
BLOCK_RECORD
  5
6C
330
1
100
AcDbSymbolTableRecord
100
AcDbBlockTableRecord
  2
*Model_Space
340
6F
  0
BLOCK_RECORD
  5
68
330
1
100
AcDbSymbolTableRecord
100
AcDbBlockTableRecord
  2
*Paper_Space
340
6B
  0
BLOCK_RECORD
  5
70
330
1
100
AcDbSymbolTableRecord
100
AcDbBlockTableRecord
  2
*Paper_Space0
340
73
  0
BLOCK_RECORD
  5
FB
330
1
100
AcDbSymbolTableRecord
100
AcDbBlockTableRecord
  2
_Closed
340
0
  0
BLOCK_RECORD
  5
102
330
1
100
AcDbSymbolTableRecord
100
AcDbBlockTableRecord
  2
DatumFilled45
340
0
  0
BLOCK_RECORD
  5
10E
330
1
100
AcDbSymbolTableRecord
100
AcDbBlockTableRecord
  2
Filled-1
340
0
  0
BLOCK_RECORD
  5
149
330
1
100
AcDbSymbolTableRecord
100
AcDbBlockTableRecord
  2
*D4
340
0
  0
BLOCK_RECORD
  5
257
330
1
100
AcDbSymbolTableRecord
100
AcDbBlockTableRecord
  2
*D5
340
0
  0
BLOCK_RECORD
  5
341
330
1
100
AcDbSymbolTableRecord
100
AcDbBlockTableRecord
  2
*D6
340
0
  0
BLOCK_RECORD
  5
42B
330
1
100
AcDbSymbolTableRecord
100
AcDbBlockTableRecord
  2
*D7
340
0
  0
BLOCK_RECORD
  5
53B
330
1
100
AcDbSymbolTableRecord
100
AcDbBlockTableRecord
  2
*D8
340
0
  0
BLOCK_RECORD
  5
639
330
1
100
AcDbSymbolTableRecord
100
AcDbBlockTableRecord
  2
*D9
340
0
  0
BLOCK_RECORD
  5
723
330
1
100
AcDbSymbolTableRecord
100
AcDbBlockTableRecord
  2
*D10
340
0
  0
BLOCK_RECORD
  5
7DD
330
1
100
AcDbSymbolTableRecord
100
AcDbBlockTableRecord
  2
*D11
340
0
  0
ENDTAB
  0
ENDSEC
  0
SECTION
  2
BLOCKS
  0
BLOCK
  5
6D
330
6C
100
AcDbEntity
  8
0
100
AcDbBlockBegin
  2
*Model_Space
 70
     0
 10
0.0
 20
0.0
 30
0.0
  3
*Model_Space
  1

  0
ENDBLK
  5
6E
330
6C
100
AcDbEntity
  8
0
100
AcDbBlockEnd
  0
BLOCK
  5
69
330
68
100
AcDbEntity
 67
     1
  8
0
100
AcDbBlockBegin
  2
*Paper_Space
 70
     0
 10
0.0
 20
0.0
 30
0.0
  3
*Paper_Space
  1

  0
ENDBLK
  5
6A
330
68
100
AcDbEntity
 67
     1
  8
0
100
AcDbBlockEnd
  0
BLOCK
  5
71
330
70
100
AcDbEntity
 67
     1
  8
0
100
AcDbBlockBegin
  2
*Paper_Space0
 70
     0
 10
0.0
 20
0.0
 30
0.0
  3
*Paper_Space0
  1

  0
ENDBLK
  5
72
330
70
100
AcDbEntity
 67
     1
  8
0
100
AcDbBlockEnd
  0
BLOCK
  5
100
330
FB
100
AcDbEntity
  8
0
100
AcDbBlockBegin
  2
_Closed
 70
     0
 10
0.0
 20
0.0
 30
0.0
  3
_Closed
  1

  0
LINE
  5
FC
330
FB
100
AcDbEntity
  8
0
  6
ByBlock
 62
     0
370
    -2
100
AcDbLine
 10
-1.0
 20
0.1666666666666666
 30
0.0
 11
0.0
 21
0.0
 31
0.0
  0
LINE
  5
FD
330
FB
100
AcDbEntity
  8
0
  6
ByBlock
 62
     0
370
    -2
100
AcDbLine
 10
0.0
 20
0.0
 30
0.0
 11
-1.0
 21
-0.1666666666666666
 31
0.0
  0
LINE
  5
FE
330
FB
100
AcDbEntity
  8
0
  6
ByBlock
 62
     0
370
    -2
100
AcDbLine
 10
-1.0
 20
0.1666666666666666
 30
0.0
 11
-1.0
 21
-0.1666666666666666
 31
0.0
  0
LINE
  5
FF
330
FB
100
AcDbEntity
  8
0
  6
ByBlock
 62
     0
370
    -2
100
AcDbLine
 10
0.0
 20
0.0
 30
0.0
 11
-1.0
 21
0.0
 31
0.0
  0
ENDBLK
  5
101
330
FB
100
AcDbEntity
  8
0
100
AcDbBlockEnd
  0
BLOCK
  5
103
330
102
100
AcDbEntity
  8
0
100
AcDbBlockBegin
  2
DatumFilled45
 70
     0
 10
0.0
 20
0.0
 30
0.0
  3
DatumFilled45
  1

  0
POLYLINE
  5
105
330
102
100
AcDbEntity
  8
0
 62
     0
100
AcDb2dPolyline
 66
     1
 10
0.0
 20
0.0
 30
0.0
 70
   128
  0
VERTEX
  5
106
330
105
100
AcDbEntity
  8
0
 62
     0
100
AcDbVertex
100
AcDb2dVertex
 10
0.0
 20
0.9999999999999998
 30
0.0
  0
VERTEX
  5
107
330
105
100
AcDbEntity
  8
0
 62
     0
100
AcDbVertex
100
AcDb2dVertex
 10
0.0
 20
-0.9999999999999998
 30
0.0
  0
VERTEX
  5
109
330
105
100
AcDbEntity
  8
0
 62
     0
100
AcDbVertex
100
AcDb2dVertex
 10
-0.9999999999999998
 20
0.0
 30
0.0
  0
VERTEX
  5
10A
330
105
100
AcDbEntity
  8
0
 62
     0
100
AcDbVertex
100
AcDb2dVertex
 10
0.0
 20
0.9999999999999998
 30
0.0
  0
SEQEND
  5
108
330
105
100
AcDbEntity
  8
0
 62
     0
  0
SOLID
  5
10C
330
102
100
AcDbEntity
  8
0
 62
     0
100
AcDbTrace
 10
0.0
 20
0.9999999999999998
 30
0.0
 11
0.0
 21
-0.9999999999999998
 31
0.0
 12
-0.9999999999999998
 22
0.0
 32
0.0
 13
0.0
 23
0.9999999999999998
 33
0.0
  0
ENDBLK
  5
104
330
102
100
AcDbEntity
  8
0
100
AcDbBlockEnd
  0
BLOCK
  5
10F
330
10E
100
AcDbEntity
  8
0
100
AcDbBlockBegin
  2
Filled-1
 70
     0
 10
0.0
 20
0.0
 30
0.0
  3
Filled-1
  1

  0
LINE
  5
111
330
10E
100
AcDbEntity
  8
0
 62
     0
100
AcDbLine
 10
-0.9999999999999998
 20
0.0
 30
0.0
 11
0.0
 21
0.0
 31
0.0
  0
POLYLINE
  5
112
330
10E
100
AcDbEntity
  8
0
 62
     0
100
AcDb2dPolyline
 66
     1
 10
0.0
 20
0.0
 30
0.0
 70
   128
  0
VERTEX
  5
113
330
112
100
AcDbEntity
  8
0
 62
     0
100
AcDbVertex
100
AcDb2dVertex
 10
-0.9999999999999998
 20
-0.0994897959183674
 30
0.0
  0
VERTEX
  5
114
330
112
100
AcDbEntity
  8
0
 62
     0
100
AcDbVertex
100
AcDb2dVertex
 10
0.0
 20
0.0
 30
0.0
  0
VERTEX
  5
116
330
112
100
AcDbEntity
  8
0
 62
     0
100
AcDbVertex
100
AcDb2dVertex
 10
-0.9999999999999998
 20
0.0994897959183674
 30
0.0
  0
VERTEX
  5
117
330
112
100
AcDbEntity
  8
0
 62
     0
100
AcDbVertex
100
AcDb2dVertex
 10
-0.9999999999999998
 20
-0.0994897959183674
 30
0.0
  0
SEQEND
  5
115
330
112
100
AcDbEntity
  8
0
 62
     0
  0
SOLID
  5
118
330
10E
100
AcDbEntity
  8
0
 62
     0
100
AcDbTrace
 10
-0.9999999999999998
 20
-0.0994897959183674
 30
0.0
 11
0.0
 21
0.0
 31
0.0
 12
-0.9999999999999998
 22
0.0994897959183674
 32
0.0
 13
-0.9999999999999998
 23
-0.0994897959183674
 33
0.0
  0
LINE
  5
119
330
10E
100
AcDbEntity
  8
0
 62
     0
100
AcDbLine
 10
-0.9999999999999998
 20
-0.0994897959183674
 30
0.0
 11
0.0
 21
0.0
 31
0.0
  0
LINE
  5
11A
330
10E
100
AcDbEntity
  8
0
 62
     0
100
AcDbLine
 10
0.0
 20
0.0
 30
0.0
 11
-0.9999999999999998
 21
0.0994897959183674
 31
0.0
  0
LINE
  5
11B
330
10E
100
AcDbEntity
  8
0
 62
     0
100
AcDbLine
 10
-0.9999999999999998
 20
0.0994897959183674
 30
0.0
 11
-0.9999999999999998
 21
-0.0994897959183674
 31
0.0
  0
ENDBLK
  5
110
330
10E
100
AcDbEntity
  8
0
100
AcDbBlockEnd
  0
BLOCK
  5
14A
330
149
100
AcDbEntity
  8
0
100
AcDbBlockBegin
  2
*D4
 70
     1
 10
0.0
 20
0.0
 30
0.0
  3
*D4
  1

  0
LINE
  5
21F
330
149
100
AcDbEntity
  8
Dimension (ANSI)
100
AcDbLine
 10
9.795676225014183
 20
6.01747148934444
 30
0.0
 11
9.885153674669716
 21
6.01747148934444
 31
0.0
  0
LINE
  5
220
330
149
100
AcDbEntity
  8
Dimension (ANSI)
100
AcDbLine
 10
9.536721325703117
 20
6.01747148934444
 30
0.0
 11
9.245351344750055
 21
6.01747148934444
 31
0.0
  0
SOLID
  5
221
330
149
100
AcDbEntity
  8
Dimension (ANSI)
100
AcDbTrace
 10
9.795676225014183
 20
6.032384397620361
 30
0.0
 11
9.795676225014183
 21
6.002558581068518
 31
0.0
 12
9.70619877535865
 22
6.01747148934444
 32
0.0
 13
9.70619877535865
 23
6.01747148934444
 33
0.0
  0
SOLID
  5
222
330
149
100
AcDbEntity
  8
Dimension (ANSI)
100
AcDbTrace
 10
9.536721325703117
 20
6.032384397620361
 30
0.0
 11
9.536721325703117
 21
6.002558581068518
 31
0.0
 12
9.62619877535865
 22
6.01747148934444
 32
0.0
 13
9.62619877535865
 23
6.01747148934444
 33
0.0
  0
MTEXT
  5
223
330
149
100
AcDbEntity
  8
Dimension (ANSI)
100
AcDbMText
 10
8.855817391954236
 20
6.074507940722532
 30
0.0
 40
0.1090909134257923
 41
0.0
 71
     1
 72
     1
  1
\A1;0.080
  7
Note Text (ANSI)
 73
     1
 44
1.0
1001
ACAD
1000
MTEXTBEGIN
1070
    73
1070
     1
1070
    44
1040
1.0
1070
    74
1070
     0
1000
MTEXTEND
  0
POINT
  5
224
330
149
100
AcDbEntity
  8
Defpoints
 62
     0
100
AcDbPoint
 10
9.70619877535865
 20
3.441194371180362
 30
0.0
  0
POINT
  5
225
330
149
100
AcDbEntity
  8
Defpoints
 62
     0
100
AcDbPoint
 10
9.62619877535865
 20
3.441194371180362
 30
0.0
  0
POINT
  5
226
330
149
100
AcDbEntity
  8
Defpoints
 62
     0
100
AcDbPoint
 10
9.62619877535865
 20
6.01747148934444
 30
0.0
  0
ENDBLK
  5
14B
330
149
100
AcDbEntity
  8
0
100
AcDbBlockEnd
  0
BLOCK
  5
258
330
257
100
AcDbEntity
  8
0
100
AcDbBlockBegin
  2
*D5
 70
     1
 10
0.0
 20
0.0
 30
0.0
  3
*D5
  1

  0
LINE
  5
336
330
257
100
AcDbEntity
  8
Dimension (ANSI)
100
AcDbLine
 10
6.887014217165874
 20
3.384376189362181
 30
0.0
 11
6.887014217165874
 21
2.461416275260534
 31
0.0
  0
LINE
  5
337
330
257
100
AcDbEntity
  8
Dimension (ANSI)
100
AcDbLine
 10
2.007014217165874
 20
3.384376189362181
 30
0.0
 11
2.007014217165874
 21
2.461416275260534
 31
0.0
  0
LINE
  5
338
330
257
100
AcDbEntity
  8
Dimension (ANSI)
100
AcDbLine
 10
6.797536767510341
 20
2.575052638896897
 30
0.0
 11
4.657672773635924
 21
2.575052638896897
 31
0.0
  0
LINE
  5
339
330
257
100
AcDbEntity
  8
Dimension (ANSI)
100
AcDbLine
 10
2.096491666821407
 20
2.575052638896897
 30
0.0
 11
4.236355660695824
 21
2.575052638896897
 31
0.0
  0
SOLID
  5
33A
330
257
100
AcDbEntity
  8
Dimension (ANSI)
100
AcDbTrace
 10
6.797536767510341
 20
2.58996554717282
 30
0.0
 11
6.797536767510341
 21
2.560139730620975
 31
0.0
 12
6.887014217165874
 22
2.575052638896897
 32
0.0
 13
6.887014217165874
 23
2.575052638896897
 33
0.0
  0
SOLID
  5
33B
330
257
100
AcDbEntity
  8
Dimension (ANSI)
100
AcDbTrace
 10
2.096491666821407
 20
2.58996554717282
 30
0.0
 11
2.096491666821407
 21
2.560139730620975
 31
0.0
 12
2.007014217165874
 22
2.575052638896897
 32
0.0
 13
2.007014217165874
 23
2.575052638896897
 33
0.0
  0
MTEXT
  5
33C
330
257
100
AcDbEntity
  8
Dimension (ANSI)
100
AcDbMText
 10
4.264988445234121
 20
2.63208909027499
 30
0.0
 40
0.1090909134257923
 41
0.0
 71
     1
 72
     1
  1
\A1;4.880
  7
Note Text (ANSI)
 73
     1
 44
1.0
1001
ACAD
1000
MTEXTBEGIN
1070
    73
1070
     1
1070
    44
1040
1.0
1070
    74
1070
     0
1000
MTEXTEND
  0
POINT
  5
33D
330
257
100
AcDbEntity
  8
Defpoints
 62
     0
100
AcDbPoint
 10
6.887014217165874
 20
3.441194371180362
 30
0.0
  0
POINT
  5
33E
330
257
100
AcDbEntity
  8
Defpoints
 62
     0
100
AcDbPoint
 10
2.007014217165874
 20
3.441194371180362
 30
0.0
  0
POINT
  5
33F
330
257
100
AcDbEntity
  8
Defpoints
 62
     0
100
AcDbPoint
 10
2.007014217165874
 20
2.575052638896897
 30
0.0
  0
ENDBLK
  5
259
330
257
100
AcDbEntity
  8
0
100
AcDbBlockEnd
  0
BLOCK
  5
342
330
341
100
AcDbEntity
  8
0
100
AcDbBlockBegin
  2
*D6
 70
     1
 10
0.0
 20
0.0
 30
0.0
  3
*D6
  1

  0
LINE
  5
420
330
341
100
AcDbEntity
  8
Dimension (ANSI)
100
AcDbLine
 10
1.950196035347692
 20
3.441194371180362
 30
0.0
 11
0.7199150714568742
 21
3.441194371180363
 31
0.0
  0
LINE
  5
421
330
341
100
AcDbEntity
  8
Dimension (ANSI)
100
AcDbLine
 10
1.950196035347691
 20
8.321194371180363
 30
0.0
 11
0.7199150714568753
 21
8.321194371180363
 31
0.0
  0
LINE
  5
422
330
341
100
AcDbEntity
  8
Dimension (ANSI)
100
AcDbLine
 10
0.8335514350932376
 20
3.530671820835896
 30
0.0
 11
0.8335514350932381
 21
5.795525135263973
 31
0.0
  0
LINE
  5
423
330
341
100
AcDbEntity
  8
Dimension (ANSI)
100
AcDbLine
 10
0.8335514350932387
 20
8.23171692152483
 30
0.0
 11
0.8335514350932381
 21
5.966863607096751
 31
0.0
  0
SOLID
  5
424
330
341
100
AcDbEntity
  8
Dimension (ANSI)
100
AcDbTrace
 10
0.8186385268173154
 20
3.530671820835896
 30
0.0
 11
0.8484643433691598
 21
3.530671820835896
 31
0.0
 12
0.8335514350932376
 22
3.441194371180363
 32
0.0
 13
0.8335514350932376
 23
3.441194371180363
 33
0.0
  0
SOLID
  5
425
330
341
100
AcDbEntity
  8
Dimension (ANSI)
100
AcDbTrace
 10
0.8186385268173165
 20
8.23171692152483
 30
0.0
 11
0.8484643433691609
 21
8.23171692152483
 31
0.0
 12
0.8335514350932388
 22
8.321194371180363
 32
0.0
 13
0.8335514350932388
 23
8.321194371180363
 33
0.0
  0
MTEXT
  5
426
330
341
100
AcDbEntity
  8
Dimension (ANSI)
100
AcDbMText
 10
0.6515256631614836
 20
5.938230822558455
 30
0.0
 40
0.1090909134257923
 41
0.0
 71
     1
 72
     1
  1
\A1;4.880
  7
Note Text (ANSI)
 73
     1
 44
1.0
1001
ACAD
1000
MTEXTBEGIN
1070
    73
1070
     1
1070
    44
1040
1.0
1070
    74
1070
     0
1000
MTEXTEND
  0
POINT
  5
427
330
341
100
AcDbEntity
  8
Defpoints
 62
     0
100
AcDbPoint
 10
2.007014217165874
 20
3.441194371180362
 30
0.0
  0
POINT
  5
428
330
341
100
AcDbEntity
  8
Defpoints
 62
     0
100
AcDbPoint
 10
2.007014217165873
 20
8.321194371180363
 30
0.0
  0
POINT
  5
429
330
341
100
AcDbEntity
  8
Defpoints
 62
     0
100
AcDbPoint
 10
0.8335514350932388
 20
8.321194371180363
 30
0.0
  0
ENDBLK
  5
343
330
341
100
AcDbEntity
  8
0
100
AcDbBlockEnd
  0
BLOCK
  5
42C
330
42B
100
AcDbEntity
  8
0
100
AcDbBlockBegin
  2
*D7
 70
     1
 10
0.0
 20
0.0
 30
0.0
  3
*D7
  1

  0
LINE
  5
52F
330
42B
100
AcDbEntity
  8
Dimension (ANSI)
100
AcDbLine
 10
1.950196035347692
 20
3.441194371180362
 30
0.0
 11
1.601393798341451
 21
3.441194371180362
 31
0.0
  0
LINE
  5
530
330
42B
100
AcDbEntity
  8
Dimension (ANSI)
100
AcDbLine
 10
2.122696035347692
 20
3.754194371180362
 30
0.0
 11
1.601393798341451
 21
3.754194371180362
 31
0.0
  0
LINE
  5
531
330
42B
100
AcDbEntity
  8
Dimension (ANSI)
100
AcDbLine
 10
1.715030161977815
 20
3.530671820835895
 30
0.0
 11
1.715030161977815
 21
3.664716921524829
 31
0.0
  0
LINE
  5
532
330
42B
100
AcDbEntity
  8
Dimension (ANSI)
100
AcDbLine
 10
1.625552712322282
 20
4.082349716719336
 30
0.0
 11
1.715030161977815
 21
4.082349716719336
 31
0.0
  0
LINE
  5
533
330
42B
100
AcDbEntity
  8
Dimension (ANSI)
100
AcDbLine
 10
1.715030161977815
 20
4.082349716719336
 30
0.0
 11
1.715030161977815
 21
3.754194371180362
 31
0.0
  0
MTEXT
  5
534
330
42B
100
AcDbEntity
  8
Dimension (ANSI)
100
AcDbMText
 10
1.238436489642681
 20
4.155644792591098
 30
0.0
 40
0.1090909134257923
 41
0.0
 71
     1
 72
     1
  1
\A1;0.313{\PTYP.}
  7
Note Text (ANSI)
 73
     1
 44
1.0
1001
ACAD
1000
MTEXTBEGIN
1070
    73
1070
     1
1070
    44
1040
1.0
1070
    74
1070
     0
1000
MTEXTEND
  0
SOLID
  5
535
330
42B
100
AcDbEntity
  8
Dimension (ANSI)
100
AcDbTrace
 10
1.700117253701893
 20
3.530671820835895
 30
0.0
 11
1.729943070253737
 21
3.530671820835895
 31
0.0
 12
1.715030161977814
 22
3.441194371180362
 32
0.0
 13
1.715030161977814
 23
3.441194371180362
 33
0.0
  0
SOLID
  5
536
330
42B
100
AcDbEntity
  8
Dimension (ANSI)
100
AcDbTrace
 10
1.700117253701893
 20
3.664716921524829
 30
0.0
 11
1.729943070253737
 21
3.664716921524829
 31
0.0
 12
1.715030161977815
 22
3.754194371180362
 32
0.0
 13
1.715030161977815
 23
3.754194371180362
 33
0.0
  0
POINT
  5
537
330
42B
100
AcDbEntity
  8
Defpoints
 62
     0
100
AcDbPoint
 10
2.007014217165874
 20
3.441194371180362
 30
0.0
  0
POINT
  5
538
330
42B
100
AcDbEntity
  8
Defpoints
 62
     0
100
AcDbPoint
 10
2.179514217165874
 20
3.754194371180362
 30
0.0
  0
POINT
  5
539
330
42B
100
AcDbEntity
  8
Defpoints
 62
     0
100
AcDbPoint
 10
1.715030161977815
 20
3.754194371180362
 30
0.0
  0
ENDBLK
  5
42D
330
42B
100
AcDbEntity
  8
0
100
AcDbBlockEnd
  0
BLOCK
  5
53C
330
53B
100
AcDbEntity
  8
0
100
AcDbBlockBegin
  2
*D8
 70
     1
 10
0.0
 20
0.0
 30
0.0
  3
*D8
  1

  0
LINE
  5
62E
330
53B
100
AcDbEntity
  8
Dimension (ANSI)
100
AcDbLine
 10
2.007014217165874
 20
3.384376189362181
 30
0.0
 11
2.007014217165874
 21
2.933857220142424
 31
0.0
  0
LINE
  5
62F
330
53B
100
AcDbEntity
  8
Dimension (ANSI)
100
AcDbLine
 10
2.320014217165874
 20
3.588376189362181
 30
0.0
 11
2.320014217165874
 21
2.933857220142424
 31
0.0
  0
LINE
  5
630
330
53B
100
AcDbEntity
  8
Dimension (ANSI)
100
AcDbLine
 10
2.230536767510341
 20
3.047493583778787
 30
0.0
 11
2.096491666821407
 21
3.047493583778787
 31
0.0
  0
LINE
  5
631
330
53B
100
AcDbEntity
  8
Dimension (ANSI)
100
AcDbLine
 10
2.007014217165874
 20
3.047493583778787
 30
0.0
 11
1.844141059308206
 21
3.047493583778787
 31
0.0
  0
SOLID
  5
632
330
53B
100
AcDbEntity
  8
Dimension (ANSI)
100
AcDbTrace
 10
2.230536767510341
 20
3.06240649205471
 30
0.0
 11
2.230536767510341
 21
3.032580675502865
 31
0.0
 12
2.320014217165874
 22
3.047493583778787
 32
0.0
 13
2.320014217165874
 23
3.047493583778787
 33
0.0
  0
SOLID
  5
633
330
53B
100
AcDbEntity
  8
Dimension (ANSI)
100
AcDbTrace
 10
2.096491666821407
 20
3.06240649205471
 30
0.0
 11
2.096491666821407
 21
3.032580675502865
 31
0.0
 12
2.007014217165874
 22
3.047493583778787
 32
0.0
 13
2.007014217165874
 23
3.047493583778787
 33
0.0
  0
MTEXT
  5
634
330
53B
100
AcDbEntity
  8
Dimension (ANSI)
100
AcDbMText
 10
1.457024836628606
 20
3.120788659650549
 30
0.0
 40
0.1090909134257923
 41
0.0
 71
     1
 72
     1
  1
\A1;0.313{\PTYP.}
  7
Note Text (ANSI)
 73
     1
 44
1.0
1001
ACAD
1000
MTEXTBEGIN
1070
    73
1070
     1
1070
    44
1040
1.0
1070
    74
1070
     0
1000
MTEXTEND
  0
POINT
  5
635
330
53B
100
AcDbEntity
  8
Defpoints
 62
     0
100
AcDbPoint
 10
2.007014217165874
 20
3.441194371180362
 30
0.0
  0
POINT
  5
636
330
53B
100
AcDbEntity
  8
Defpoints
 62
     0
100
AcDbPoint
 10
2.320014217165874
 20
3.645194371180362
 30
0.0
  0
POINT
  5
637
330
53B
100
AcDbEntity
  8
Defpoints
 62
     0
100
AcDbPoint
 10
2.320014217165874
 20
3.047493583778787
 30
0.0
  0
ENDBLK
  5
53D
330
53B
100
AcDbEntity
  8
0
100
AcDbBlockEnd
  0
BLOCK
  5
63A
330
639
100
AcDbEntity
  8
0
100
AcDbBlockBegin
  2
*D9
 70
     1
 10
0.0
 20
0.0
 30
0.0
  3
*D9
  1

  0
LINE
  5
718
330
639
100
AcDbEntity
  8
Dimension (ANSI)
100
AcDbLine
 10
2.320014217165874
 20
3.588376189362181
 30
0.0
 11
2.320014217165874
 21
2.93325628650253
 31
0.0
  0
LINE
  5
719
330
639
100
AcDbEntity
  8
Dimension (ANSI)
100
AcDbLine
 10
3.320014217165874
 20
3.57237618936218
 30
0.0
 11
3.320014217165874
 21
2.93325628650253
 31
0.0
  0
LINE
  5
71A
330
639
100
AcDbEntity
  8
Dimension (ANSI)
100
AcDbLine
 10
2.409491666821407
 20
3.046892650138894
 30
0.0
 11
2.616169263750625
 21
3.046892650138894
 31
0.0
  0
LINE
  5
71B
330
639
100
AcDbEntity
  8
Dimension (ANSI)
100
AcDbLine
 10
3.230536767510341
 20
3.046892650138894
 30
0.0
 11
3.023859170581123
 21
3.046892650138894
 31
0.0
  0
SOLID
  5
71C
330
639
100
AcDbEntity
  8
Dimension (ANSI)
100
AcDbTrace
 10
2.409491666821407
 20
3.061805558414816
 30
0.0
 11
2.409491666821407
 21
3.031979741862972
 31
0.0
 12
2.320014217165874
 22
3.046892650138894
 32
0.0
 13
2.320014217165874
 23
3.046892650138894
 33
0.0
  0
SOLID
  5
71D
330
639
100
AcDbEntity
  8
Dimension (ANSI)
100
AcDbTrace
 10
3.230536767510341
 20
3.061805558414816
 30
0.0
 11
3.230536767510341
 21
3.031979741862972
 31
0.0
 12
3.320014217165874
 22
3.046892650138894
 32
0.0
 13
3.320014217165874
 23
3.046892650138894
 33
0.0
  0
MTEXT
  5
71E
330
639
100
AcDbEntity
  8
Dimension (ANSI)
100
AcDbMText
 10
2.644802048288921
 20
3.103672675595569
 30
0.0
 40
0.1090909134257923
 41
0.0
 71
     1
 72
     1
  1
\A1;1.000
  7
Note Text (ANSI)
 73
     1
 44
1.0
1001
ACAD
1000
MTEXTBEGIN
1070
    73
1070
     1
1070
    44
1040
1.0
1070
    74
1070
     0
1000
MTEXTEND
  0
POINT
  5
71F
330
639
100
AcDbEntity
  8
Defpoints
 62
     0
100
AcDbPoint
 10
2.320014217165874
 20
3.645194371180362
 30
0.0
  0
POINT
  5
720
330
639
100
AcDbEntity
  8
Defpoints
 62
     0
100
AcDbPoint
 10
3.320014217165874
 20
3.629194371180362
 30
0.0
  0
POINT
  5
721
330
639
100
AcDbEntity
  8
Defpoints
 62
     0
100
AcDbPoint
 10
3.320014217165874
 20
3.046892650138894
 30
0.0
  0
ENDBLK
  5
63B
330
639
100
AcDbEntity
  8
0
100
AcDbBlockEnd
  0
BLOCK
  5
724
330
723
100
AcDbEntity
  8
0
100
AcDbBlockBegin
  2
*D10
 70
     1
 10
0.0
 20
0.0
 30
0.0
  3
*D10
  1

  0
LINE
  5
7D4
330
723
100
AcDbEntity
  8
Dimension (ANSI)
100
AcDbLine
 10
3.775094695479309
 20
3.160187969925201
 30
0.0
 11
3.662963972831064
 21
3.160187969925201
 31
0.0
  0
LINE
  5
7D5
330
723
100
AcDbEntity
  8
Dimension (ANSI)
100
AcDbLine
 10
3.662963972831064
 20
3.160187969925201
 30
0.0
 11
3.42725294199368
 21
3.568451451239794
 31
0.0
  0
MTEXT
  5
7D6
102
{ACAD_XDICTIONARY
360
8CA
102
}
330
723
100
AcDbEntity
  8
Dimension (ANSI)
100
AcDbMText
 10
3.803727480017605
 20
3.241234842103933
 30
0.0
 40
0.1090909134257923
 41
0.0
 71
     1
 72
     1
  1
\A1;\U+22050.250{\PGROUND\PHOLE}
  7
Note Text (ANSI)
 73
     1
 44
1.0
1001
ACAD
1000
MTEXTBEGIN
1070
    73
1070
     1
1070
    44
1040
1.0
1070
    74
1070
     0
1000
MTEXTEND
  0
SOLID
  5
7D7
330
723
100
AcDbEntity
  8
Dimension (ANSI)
100
AcDbTrace
 10
3.440167899404933
 20
3.575907905377757
 30
0.0
 11
3.414337984582426
 21
3.56099499710183
 31
0.0
 12
3.382514217165897
 22
3.64594119570732
 32
0.0
 13
3.382514217165897
 23
3.64594119570732
 33
0.0
  0
LINE
  5
7D8
330
723
100
AcDbEntity
  8
Dimension (ANSI)
100
AcDbLine
 10
3.238196035347694
 20
3.754194371180362
 30
0.0
 11
3.401832398984057
 21
3.754194371180362
 31
0.0
  0
LINE
  5
7D9
330
723
100
AcDbEntity
  8
Dimension (ANSI)
100
AcDbLine
 10
3.320014217165875
 20
3.67237618936218
 30
0.0
 11
3.320014217165875
 21
3.836012552998544
 31
0.0
  0
POINT
  5
7DA
330
723
100
AcDbEntity
  8
Defpoints
 62
     0
100
AcDbPoint
 10
3.382514217165897
 20
3.64594119570732
 30
0.0
  0
POINT
  5
7DB
330
723
100
AcDbEntity
  8
Defpoints
 62
     0
100
AcDbPoint
 10
3.257514217165853
 20
3.862447546653404
 30
0.0
  0
ENDBLK
  5
725
330
723
100
AcDbEntity
  8
0
100
AcDbBlockEnd
  0
BLOCK
  5
7DE
330
7DD
100
AcDbEntity
  8
0
100
AcDbBlockBegin
  2
*D11
 70
     1
 10
0.0
 20
0.0
 30
0.0
  3
*D11
  1

  0
LINE
  5
879
330
7DD
100
AcDbEntity
  8
Dimension (ANSI)
100
AcDbLine
 10
7.429555924253496
 20
4.488452248670716
 30
0.0
 11
7.339772094656481
 21
4.488452248670716
 31
0.0
  0
LINE
  5
87A
330
7DD
100
AcDbEntity
  8
Dimension (ANSI)
100
AcDbLine
 10
7.339772094656481
 20
4.488452248670716
 30
0.0
 11
6.74585896772994
 21
3.894539121744381
 31
0.0
  0
MTEXT
  5
87B
330
7DD
100
AcDbEntity
  8
Dimension (ANSI)
100
AcDbMText
 10
7.458188708791793
 20
4.573882783029866
 30
0.0
 40
0.1090909134257923
 41
0.0
 71
     1
 72
     1
  1
\A1; 0.218 X 0.281\POBROUND\PTYP. (4 PL.)
  7
Note Text (ANSI)
 73
     1
 44
1.0
1001
ACAD
1000
MTEXTBEGIN
1070
    73
1070
     1
1070
    44
1040
1.0
1070
    74
1070
     0
1000
MTEXTEND
  0
SOLID
  5
87C
330
7DD
100
AcDbEntity
  8
Dimension (ANSI)
100
AcDbTrace
 10
6.735313949160825
 20
3.9050841403135
 30
0.0
 11
6.756403986299056
 21
3.883994103175261
 31
0.0
 12
6.682588856315224
 22
3.831269010329688
 32
0.0
 13
6.682588856315224
 23
3.831269010329688
 33
0.0
  0
POINT
  5
87D
330
7DD
100
AcDbEntity
  8
Defpoints
 62
     0
100
AcDbPoint
 10
6.682588856315224
 20
3.831269010329688
 30
0.0
  0
POINT
  5
87E
330
7DD
100
AcDbEntity
  8
Defpoints
 62
     0
100
AcDbPoint
 10
6.605514217165878
 20
3.754194371180368
 30
0.0
  0
ENDBLK
  5
7DF
330
7DD
100
AcDbEntity
  8
0
100
AcDbBlockEnd
  0
ENDSEC
  0
SECTION
  2
ENTITIES
  0
MTEXT
  5
11D
330
6C
100
AcDbEntity
  8
Symbol (ANSI)
100
AcDbMText
 10
11.13930431777422
 20
2.342587509526766
 30
0.0
 40
0.1090909104391602
 41
4.169741624837673
 71
     1
 72
     1
  1
{\fRomanS|b0|i0;\H0.1091;PART#: P0606AL\P(DATA SUBJECT TO CHANGE WITHOUT \PNOTICE)\PTHIS DRAWING AND COMPONENTS OF ARE\PPROPERTY OF HUBBELL INC. WIEGMANN\P}
  7
Note Text (ANSI)
 73
     2
 44
0.875123381614685
1001
ACAD
1000
MTEXTBEGIN
1070
    73
1070
     2
1070
    44
1040
0.875123381614685
1070
    74
1070
     0
1000
MTEXTEND
  0
CIRCLE
  5
120
330
6C
100
AcDbEntity
  8
Visible (ANSI)
100
AcDbCircle
 10
3.320014217165874
 20
3.754194371180362
 30
0.0
 40
0.125
  0
LINE
  5
121
330
6C
100
AcDbEntity
  8
Visible (ANSI)
100
AcDbLine
 10
2.288514217165874
 20
3.863194371180361
 30
0.0
 11
2.351514217165874
 21
3.863194371180361
 31
0.0
  0
ARC
  5
122
330
6C
100
AcDbEntity
  8
Visible (ANSI)
100
AcDbCircle
 10
2.288514217165874
 20
3.754194371180362
 30
0.0
 40
0.109
100
AcDbArc
 50
90.0
 51
270.0
  0
LINE
  5
123
330
6C
100
AcDbEntity
  8
Visible (ANSI)
100
AcDbLine
 10
2.351514217165874
 20
3.645194371180362
 30
0.0
 11
2.288514217165874
 21
3.645194371180362
 31
0.0
  0
ARC
  5
124
330
6C
100
AcDbEntity
  8
Visible (ANSI)
100
AcDbCircle
 10
2.351514217165874
 20
3.754194371180362
 30
0.0
 40
0.1090000000000001
100
AcDbArc
 50
270.0
 51
90.0
  0
LINE
  5
125
330
6C
100
AcDbEntity
  8
Visible (ANSI)
100
AcDbLine
 10
6.542514217165873
 20
8.11719437118036
 30
0.0
 11
6.605514217165873
 21
8.11719437118036
 31
0.0
  0
ARC
  5
126
330
6C
100
AcDbEntity
  8
Visible (ANSI)
100
AcDbCircle
 10
6.542514217165873
 20
8.008194371180362
 30
0.0
 40
0.1090000000000004
100
AcDbArc
 50
90.0
 51
270.0
  0
LINE
  5
127
330
6C
100
AcDbEntity
  8
Visible (ANSI)
100
AcDbLine
 10
6.605514217165873
 20
7.899194371180362
 30
0.0
 11
6.542514217165873
 21
7.899194371180362
 31
0.0
  0
ARC
  5
128
330
6C
100
AcDbEntity
  8
Visible (ANSI)
100
AcDbCircle
 10
6.605514217165871
 20
8.008194371180362
 30
0.0
 40
0.1090000000000004
100
AcDbArc
 50
269.9999999999993
 51
89.99999999999936
  0
LINE
  5
129
330
6C
100
AcDbEntity
  8
Visible (ANSI)
100
AcDbLine
 10
6.542514217165874
 20
3.863194371180362
 30
0.0
 11
6.605514217165874
 21
3.863194371180362
 31
0.0
  0
ARC
  5
12A
330
6C
100
AcDbEntity
  8
Visible (ANSI)
100
AcDbCircle
 10
6.542514217165873
 20
3.754194371180362
 30
0.0
 40
0.109
100
AcDbArc
 50
90.00000000000067
 51
270.0000000000007
  0
LINE
  5
12B
330
6C
100
AcDbEntity
  8
Visible (ANSI)
100
AcDbLine
 10
6.605514217165874
 20
3.645194371180363
 30
0.0
 11
6.542514217165874
 21
3.645194371180363
 31
0.0
  0
ARC
  5
12C
330
6C
100
AcDbEntity
  8
Visible (ANSI)
100
AcDbCircle
 10
6.605514217165874
 20
3.754194371180362
 30
0.0
 40
0.109
100
AcDbArc
 50
270.0
 51
90.0
  0
LINE
  5
12D
330
6C
100
AcDbEntity
  8
Visible (ANSI)
100
AcDbLine
 10
2.288514217165873
 20
8.11719437118036
 30
0.0
 11
2.351514217165873
 21
8.11719437118036
 31
0.0
  0
ARC
  5
12E
330
6C
100
AcDbEntity
  8
Visible (ANSI)
100
AcDbCircle
 10
2.288514217165872
 20
8.008194371180362
 30
0.0
 40
0.1089999999999997
100
AcDbArc
 50
90.00000000000017
 51
270.0000000000002
  0
LINE
  5
12F
330
6C
100
AcDbEntity
  8
Visible (ANSI)
100
AcDbLine
 10
2.351514217165873
 20
7.899194371180362
 30
0.0
 11
2.288514217165873
 21
7.899194371180362
 31
0.0
  0
ARC
  5
130
330
6C
100
AcDbEntity
  8
Visible (ANSI)
100
AcDbCircle
 10
2.351514217165874
 20
8.008194371180362
 30
0.0
 40
0.1089999999999997
100
AcDbArc
 50
270.0000000000002
 51
90.00000000000017
  0
LINE
  5
131
330
6C
100
AcDbEntity
  8
Visible (ANSI)
100
AcDbLine
 10
2.007014217165874
 20
3.441194371180362
 30
0.0
 11
2.007014217165873
 21
8.321194371180363
 31
0.0
  0
LINE
  5
132
330
6C
100
AcDbEntity
  8
Visible (ANSI)
100
AcDbLine
 10
2.007014217165873
 20
8.321194371180363
 30
0.0
 11
6.887014217165873
 21
8.321194371180363
 31
0.0
  0
LINE
  5
133
330
6C
100
AcDbEntity
  8
Visible (ANSI)
100
AcDbLine
 10
6.887014217165873
 20
8.321194371180363
 30
0.0
 11
6.887014217165874
 21
3.441194371180362
 31
0.0
  0
LINE
  5
134
330
6C
100
AcDbEntity
  8
Visible (ANSI)
100
AcDbLine
 10
6.887014217165874
 20
3.441194371180362
 30
0.0
 11
2.007014217165874
 21
3.441194371180362
 31
0.0
  0
MTEXT
  5
136
330
6C
100
AcDbEntity
  8
Symbol (ANSI)
100
AcDbMText
 10
4.001905999970136
 20
1.878653026196196
 30
0.0
 40
0.1090909104391602
 41
0.0
 71
     7
 72
     1
  1
FRONT VIEW
  7
Text Style150
 73
     1
 44
1.0
1001
ACAD
1000
MTEXTBEGIN
1070
    73
1070
     1
1070
    44
1040
1.0
1070
    74
1070
     0
1000
MTEXTEND
  0
LINE
  5
137
330
6C
100
AcDbEntity
  8
Symbol (ANSI)
370
    30
100
AcDbLine
 10
3.990996880998876
 20
1.856406083128114
 30
0.0
 11
4.868055975804036
 21
1.856406083128114
 31
0.0
  0
MTEXT
  5
138
330
6C
100
AcDbEntity
  8
Symbol (ANSI)
100
AcDbMText
 10
4.394385719683255
 20
1.632577383216355
 30
0.0
 40
0.1636363603254685
 41
0.0
 71
     7
 72
     1
  1
 
  7
Label Text (ANSI)
 73
     1
 44
1.0
1001
ACAD
1000
MTEXTBEGIN
1070
    73
1070
     1
1070
    44
1040
1.0
1070
    74
1070
     0
1000
MTEXTEND
  0
LINE
  5
139
330
6C
100
AcDbEntity
  8
Hidden (ANSI)
 48
0.16751329600811
100
AcDbLine
 10
9.626198775358568
 20
8.11719437118036
 30
0.0
 11
9.706198775358569
 21
8.11719437118036
 31
0.0
  0
LINE
  5
13A
330
6C
100
AcDbEntity
  8
Hidden (ANSI)
 48
0.16751329600811
100
AcDbLine
 10
9.626198775358568
 20
7.899194371180362
 30
0.0
 11
9.706198775358569
 21
7.899194371180362
 31
0.0
  0
LINE
  5
13B
330
6C
100
AcDbEntity
  8
Hidden (ANSI)
 48
0.16751329600811
100
AcDbLine
 10
9.626198775358568
 20
3.863194371180362
 30
0.0
 11
9.706198775358569
 21
3.863194371180362
 31
0.0
  0
LINE
  5
13C
330
6C
100
AcDbEntity
  8
Hidden (ANSI)
 48
0.16751329600811
100
AcDbLine
 10
9.626198775358568
 20
3.645194371180363
 30
0.0
 11
9.706198775358569
 21
3.645194371180363
 31
0.0
  0
LINE
  5
13D
330
6C
100
AcDbEntity
  8
Visible (ANSI)
100
AcDbLine
 10
9.706198775358652
 20
8.321194371180363
 30
0.0
 11
9.626198775358652
 21
8.321194371180363
 31
0.0
  0
LINE
  5
13E
330
6C
100
AcDbEntity
  8
Visible (ANSI)
100
AcDbLine
 10
9.626198775358652
 20
8.321194371180363
 30
0.0
 11
9.626198775358652
 21
3.441194371180362
 31
0.0
  0
LINE
  5
13F
330
6C
100
AcDbEntity
  8
Visible (ANSI)
100
AcDbLine
 10
9.706198775358652
 20
3.441194371180362
 30
0.0
 11
9.626198775358652
 21
3.441194371180362
 31
0.0
  0
LINE
  5
140
330
6C
100
AcDbEntity
  8
Visible (ANSI)
100
AcDbLine
 10
9.706198775358652
 20
3.441194371180362
 30
0.0
 11
9.706198775358652
 21
8.321194371180363
 31
0.0
  0
LINE
  5
141
330
6C
100
AcDbEntity
  8
Hidden (ANSI)
 48
0.16751329600811
100
AcDbLine
 10
9.706198775357593
 20
3.629194371180362
 30
0.0
 11
9.626198775357593
 21
3.629194371180362
 31
0.0
  0
LINE
  5
142
330
6C
100
AcDbEntity
  8
Hidden (ANSI)
 48
0.16751329600811
100
AcDbLine
 10
9.706198775357593
 20
3.879194371180362
 30
0.0
 11
9.626198775357593
 21
3.879194371180362
 31
0.0
  0
MTEXT
  5
143
330
6C
100
AcDbEntity
  8
Symbol (ANSI)
100
AcDbMText
 10
9.273364437557459
 20
1.825260339278054
 30
0.0
 40
0.1090909104391602
 41
0.0
 71
     7
 72
     1
  1
RIGHT VIEW
  7
Text Style150
 73
     1
 44
1.0
1001
ACAD
1000
MTEXTBEGIN
1070
    73
1070
     1
1070
    44
1040
1.0
1070
    74
1070
     0
1000
MTEXTEND
  0
LINE
  5
144
330
6C
100
AcDbEntity
  8
Symbol (ANSI)
370
    30
100
AcDbLine
 10
9.262455318586198
 20
1.802836587585814
 30
0.0
 11
10.11237428958305
 21
1.802836587585814
 31
0.0
  0
MTEXT
  5
145
330
6C
100
AcDbEntity
  8
Symbol (ANSI)
100
AcDbMText
 10
9.652274095366426
 20
1.579007887674055
 30
0.0
 40
0.1636363603254685
 41
0.0
 71
     7
 72
     1
  1
 
  7
Label Text (ANSI)
 73
     1
 44
1.0
1001
ACAD
1000
MTEXTBEGIN
1070
    73
1070
     1
1070
    44
1040
1.0
1070
    74
1070
     0
1000
MTEXTEND
  0
DIMENSION
  5
146
330
6C
100
AcDbEntity
  8
Dimension (ANSI)
100
AcDbDimension
  2
*D4
 10
9.62619877535865
 20
6.01747148934444
 30
0.0
 11
9.036267976082998
 21
6.01747148934444
 31
0.0
 70
   160
  1
<>
 42
0.0800000000000001
  3
Default (ANSI)
100
AcDbAlignedDimension
 13
9.70619877535865
 23
3.441194371180362
 33
0.0
 14
9.62619877535865
 24
3.441194371180362
 34
0.0
100
AcDbRotatedDimension
1001
ACAD
1000
DSTYLE
1002
{
1070
   289
1070
     1
1070
    73
1070
     0
1070
    74
1070
     0
1070
   271
1070
     3
1070
    76
1070
     1
1070
    75
1070
     1
1070
   272
1070
     2
1070
    48
1040
0.0
1070
    47
1040
0.0
1002
}
  0
ELLIPSE
  5
227
330
6C
100
AcDbEntity
  8
Visible (ANSI)
100
AcDbEllipse
 10
12.65641265762929
 20
5.574350882041946
 30
0.0
 11
0.0482019749825895
 21
-0.0837040819003832
 31
0.0
210
0.0
220
0.0
230
0.9999999999999996
 40
0.5780931159158104
 41
3.610235390314592
 42
5.814542570453991
  0
ELLIPSE
  5
228
330
6C
100
AcDbEntity
  8
Visible (ANSI)
100
AcDbEllipse
 10
12.61270060206503
 20
5.549178783371144
 30
0.0
 11
-0.0482019749825846
 21
0.0837040819003862
 31
0.0
210
0.0
220
0.0
230
1.0
 40
0.5780931159158104
 41
0.0
 42
6.283185307179586
  0
LINE
  5
229
330
6C
100
AcDbEntity
  8
Visible (ANSI)
100
AcDbLine
 10
12.04908828563328
 20
5.942601295259217
 30
0.0
 11
12.08351152939014
 21
5.922778267555966
 31
0.0
  0
ELLIPSE
  5
22A
330
6C
100
AcDbEntity
  8
Visible (ANSI)
100
AcDbEllipse
 10
12.09280034119753
 20
5.898913629278511
 30
0.0
 11
0.0420321221848181
 21
-0.0729899594171343
 31
0.0
210
0.0
220
0.0
230
1.0
 40
0.5780931159158105
 41
3.686076690042456
 42
5.499720852204721
  0
ELLIPSE
  5
22B
330
6C
100
AcDbEntity
  8
Visible (ANSI)
100
AcDbEllipse
 10
12.04908828563328
 20
5.873741530607708
 30
0.0
 11
-0.0420321221848094
 21
0.0729899594171393
 31
0.0
210
0.0
220
0.0
230
1.0
 40
0.5780931159158104
 41
5.499720852205279
 42
8.641313505795073
  0
LINE
  5
22C
330
6C
100
AcDbEntity
  8
Visible Narrow (ANSI)
100
AcDbLine
 10
12.04908828563328
 20
5.804881765956197
 30
0.0
 11
12.09280034119753
 21
5.830053864627
 31
0.0
  0
LINE
  5
22D
330
6C
100
AcDbEntity
  8
Visible (ANSI)
100
AcDbLine
 10
12.09280034119753
 20
5.830053864627
 30
0.0
 11
12.12722358495439
 21
5.810230836923748
 31
0.0
  0
LINE
  5
22E
330
6C
100
AcDbEntity
  8
Visible (ANSI)
100
AcDbLine
 10
12.08351152939014
 20
5.785058738252947
 30
0.0
 11
12.04908828563328
 21
5.804881765956197
 31
0.0
  0
LINE
  5
22F
330
6C
100
AcDbEntity
  8
Visible Narrow (ANSI)
100
AcDbLine
 10
12.08351152939014
 20
5.785058738252947
 30
0.0
 11
12.12722358495439
 21
5.810230836923748
 31
0.0
  0
ELLIPSE
  5
230
330
6C
100
AcDbEntity
  8
Visible (ANSI)
100
AcDbEllipse
 10
12.12722358495439
 20
5.879090601575258
 30
0.0
 11
0.0420321221848133
 21
-0.0729899594171359
 31
0.0
210
0.0
220
0.0
230
1.0
 40
0.5780931159158106
 41
5.499720852205022
 42
5.738701270726545
  0
ELLIPSE
  5
231
330
6C
100
AcDbEntity
  8
Visible (ANSI)
100
AcDbEllipse
 10
12.08351152939014
 20
5.853918502904456
 30
0.0
 11
0.0420321221848094
 21
-0.0729899594171393
 31
0.0
210
0.0
220
0.0
230
0.9999999999999998
 40
0.5780931159158106
 41
5.49972085220528
 42
8.641313505795073
  0
LINE
  5
232
330
6C
100
AcDbEntity
  8
Visible (ANSI)
100
AcDbLine
 10
14.37347684026311
 20
7.291500992728907
 30
0.0
 11
14.40790008401997
 21
7.271677965025655
 31
0.0
  0
ELLIPSE
  5
233
330
6C
100
AcDbEntity
  8
Visible (ANSI)
100
AcDbEllipse
 10
14.41718889582737
 20
7.247813326748199
 30
0.0
 11
0.0420321221848181
 21
-0.0729899594171342
 31
0.0
210
0.0
220
0.0
230
1.0
 40
0.5780931159158106
 41
3.686076690042474
 42
5.499720852204721
  0
ELLIPSE
  5
234
330
6C
100
AcDbEntity
  8
Visible (ANSI)
100
AcDbEllipse
 10
14.37347684026311
 20
7.222641228077398
 30
0.0
 11
-0.0420321221848095
 21
0.0729899594171395
 31
0.0
210
0.0
220
0.0
230
0.9999999999999998
 40
0.5780931159158106
 41
5.49972085220528
 42
8.641313505795073
  0
LINE
  5
235
330
6C
100
AcDbEntity
  8
Visible Narrow (ANSI)
100
AcDbLine
 10
14.37347684026311
 20
7.153781463425887
 30
0.0
 11
14.41718889582737
 21
7.178953562096689
 31
0.0
  0
LINE
  5
236
330
6C
100
AcDbEntity
  8
Visible (ANSI)
100
AcDbLine
 10
14.41718889582737
 20
7.178953562096689
 30
0.0
 11
14.45161213958422
 21
7.159130534393438
 31
0.0
  0
LINE
  5
237
330
6C
100
AcDbEntity
  8
Visible (ANSI)
100
AcDbLine
 10
14.40790008401997
 20
7.133958435722635
 30
0.0
 11
14.37347684026311
 21
7.153781463425887
 31
0.0
  0
LINE
  5
238
330
6C
100
AcDbEntity
  8
Visible Narrow (ANSI)
100
AcDbLine
 10
14.40790008401997
 20
7.133958435722635
 30
0.0
 11
14.45161213958422
 21
7.159130534393438
 31
0.0
  0
ELLIPSE
  5
239
330
6C
100
AcDbEntity
  8
Visible (ANSI)
100
AcDbEllipse
 10
14.45161213958422
 20
7.227990299044999
 30
0.0
 11
0.0420321221848436
 21
-0.0729899594171885
 31
0.0
210
0.0
220
0.0
230
1.0
 40
0.5780931159158105
 41
5.499720852205108
 42
5.738701270726502
  0
ELLIPSE
  5
23A
330
6C
100
AcDbEntity
  8
Visible (ANSI)
100
AcDbEllipse
 10
14.40790008401997
 20
7.202818200374146
 30
0.0
 11
0.0420321221848095
 21
-0.0729899594171395
 31
0.0
210
0.0
220
0.0
230
1.0
 40
0.5780931159158106
 41
5.49972085220528
 42
8.641313505795073
  0
LINE
  5
23B
330
6C
100
AcDbEntity
  8
Visible (ANSI)
100
AcDbLine
 10
14.37347684026311
 20
4.604074948439691
 30
0.0
 11
14.40790008401998
 21
4.584251920736439
 31
0.0
  0
ELLIPSE
  5
23C
330
6C
100
AcDbEntity
  8
Visible (ANSI)
100
AcDbEllipse
 10
14.41718889582737
 20
4.560387282458982
 30
0.0
 11
0.0420321221848182
 21
-0.0729899594171343
 31
0.0
210
0.0
220
0.0
230
1.0
 40
0.5780931159158106
 41
3.686076690042446
 42
5.49972085220472
  0
ELLIPSE
  5
23D
330
6C
100
AcDbEntity
  8
Visible (ANSI)
100
AcDbEllipse
 10
14.37347684026311
 20
4.53521518378818
 30
0.0
 11
-0.0420321221848094
 21
0.0729899594171393
 31
0.0
210
0.0
220
0.0
230
0.9999999999999998
 40
0.5780931159158105
 41
5.499720852205279
 42
8.641313505795073
  0
LINE
  5
23E
330
6C
100
AcDbEntity
  8
Visible Narrow (ANSI)
100
AcDbLine
 10
14.37347684026311
 20
4.46635541913667
 30
0.0
 11
14.41718889582737
 21
4.491527517807472
 31
0.0
  0
LINE
  5
23F
330
6C
100
AcDbEntity
  8
Visible (ANSI)
100
AcDbLine
 10
14.41718889582737
 20
4.491527517807472
 30
0.0
 11
14.45161213958423
 21
4.471704490104221
 31
0.0
  0
LINE
  5
240
330
6C
100
AcDbEntity
  8
Visible (ANSI)
100
AcDbLine
 10
14.40790008401998
 20
4.446532391433418
 30
0.0
 11
14.37347684026311
 21
4.46635541913667
 31
0.0
  0
LINE
  5
241
330
6C
100
AcDbEntity
  8
Visible Narrow (ANSI)
100
AcDbLine
 10
14.40790008401998
 20
4.446532391433418
 30
0.0
 11
14.45161213958423
 21
4.471704490104221
 31
0.0
  0
ELLIPSE
  5
242
330
6C
100
AcDbEntity
  8
Visible (ANSI)
100
AcDbEllipse
 10
14.45161213958423
 20
4.540564254755734
 30
0.0
 11
0.0420321221848157
 21
-0.0729899594171401
 31
0.0
210
0.0
220
0.0
230
1.0
 40
0.5780931159158106
 41
5.499720852205022
 42
5.738701270726531
  0
ELLIPSE
  5
243
330
6C
100
AcDbEntity
  8
Visible (ANSI)
100
AcDbEllipse
 10
14.40790008401998
 20
4.515392156084928
 30
0.0
 11
0.0420321221848094
 21
-0.0729899594171393
 31
0.0
210
0.0
220
0.0
230
1.0
 40
0.5780931159158104
 41
5.499720852205279
 42
8.641313505795073
  0
LINE
  5
244
330
6C
100
AcDbEntity
  8
Visible (ANSI)
100
AcDbLine
 10
12.04908828563328
 20
8.630027339548435
 30
0.0
 11
12.08351152939014
 21
8.610204311845183
 31
0.0
  0
ELLIPSE
  5
245
330
6C
100
AcDbEntity
  8
Visible (ANSI)
100
AcDbEllipse
 10
12.09280034119753
 20
8.586339673567728
 30
0.0
 11
0.0420321221848178
 21
-0.0729899594171337
 31
0.0
210
0.0
220
0.0
230
1.0
 40
0.5780931159158104
 41
3.686076690042439
 42
5.499720852204721
  0
ELLIPSE
  5
246
330
6C
100
AcDbEntity
  8
Visible (ANSI)
100
AcDbEllipse
 10
12.04908828563328
 20
8.561167574896925
 30
0.0
 11
-0.0420321221848093
 21
0.072989959417139
 31
0.0
210
0.0
220
0.0
230
0.9999999999999998
 40
0.5780931159158105
 41
5.49972085220528
 42
8.641313505795073
  0
LINE
  5
247
330
6C
100
AcDbEntity
  8
Visible Narrow (ANSI)
100
AcDbLine
 10
12.04908828563328
 20
8.492307810245415
 30
0.0
 11
12.09280034119753
 21
8.517479908916218
 31
0.0
  0
LINE
  5
248
330
6C
100
AcDbEntity
  8
Visible (ANSI)
100
AcDbLine
 10
12.09280034119753
 20
8.517479908916218
 30
0.0
 11
12.12722358495439
 21
8.497656881212966
 31
0.0
  0
LINE
  5
249
330
6C
100
AcDbEntity
  8
Visible (ANSI)
100
AcDbLine
 10
12.08351152939014
 20
8.472484782542164
 30
0.0
 11
12.04908828563328
 21
8.492307810245415
 31
0.0
  0
LINE
  5
24A
330
6C
100
AcDbEntity
  8
Visible Narrow (ANSI)
100
AcDbLine
 10
12.08351152939014
 20
8.472484782542164
 30
0.0
 11
12.12722358495439
 21
8.497656881212966
 31
0.0
  0
ELLIPSE
  5
24B
330
6C
100
AcDbEntity
  8
Visible (ANSI)
100
AcDbEllipse
 10
12.12722358495439
 20
8.566516645864464
 30
0.0
 11
0.0420321221848064
 21
-0.0729899594171239
 31
0.0
210
0.0
220
0.0
230
1.0
 40
0.5780931159158106
 41
5.49972085220498
 42
5.738701270726544
  0
ELLIPSE
  5
24C
330
6C
100
AcDbEntity
  8
Visible (ANSI)
100
AcDbEllipse
 10
12.08351152939014
 20
8.541344547193673
 30
0.0
 11
0.0420321221848093
 21
-0.072989959417139
 31
0.0
210
0.0
220
0.0
230
0.9999999999999998
 40
0.5780931159158105
 41
5.499720852205279
 42
8.641313505795073
  0
LINE
  5
24D
330
6C
100
AcDbEntity
  8
Visible (ANSI)
100
AcDbLine
 10
11.89527649011652
 20
5.764580932292516
 30
0.0
 11
11.89527649011652
 21
8.847476817607837
 31
0.0
  0
LINE
  5
24E
330
6C
100
AcDbEntity
  8
Visible (ANSI)
100
AcDbLine
 10
11.93898854568077
 20
8.87264891627864
 30
0.0
 11
11.89527649011652
 21
8.847476817607837
 31
0.0
  0
LINE
  5
24F
330
6C
100
AcDbEntity
  8
Visible (ANSI)
100
AcDbLine
 10
11.89527649011652
 20
8.847476817607837
 30
0.0
 11
14.56171187953673
 21
7.311978798689338
 31
0.0
  0
LINE
  5
250
330
6C
100
AcDbEntity
  8
Visible (ANSI)
100
AcDbLine
 10
14.60542393510099
 20
7.337150897360141
 30
0.0
 11
14.56171187953673
 21
7.311978798689338
 31
0.0
  0
LINE
  5
251
330
6C
100
AcDbEntity
  8
Visible (ANSI)
100
AcDbLine
 10
14.60542393510099
 20
7.337150897360141
 30
0.0
 11
11.93898854568077
 21
8.87264891627864
 31
0.0
  0
LINE
  5
252
330
6C
100
AcDbEntity
  8
Visible (ANSI)
100
AcDbLine
 10
14.56171187953673
 20
7.311978798689338
 30
0.0
 11
14.56171187953673
 21
4.229082913374016
 31
0.0
  0
LINE
  5
253
330
6C
100
AcDbEntity
  8
Visible (ANSI)
100
AcDbLine
 10
14.60542393510099
 20
4.254255012044819
 30
0.0
 11
14.56171187953673
 21
4.229082913374016
 31
0.0
  0
LINE
  5
254
330
6C
100
AcDbEntity
  8
Visible (ANSI)
100
AcDbLine
 10
14.60542393510099
 20
4.254255012044819
 30
0.0
 11
14.60542393510099
 21
7.337150897360141
 31
0.0
  0
LINE
  5
255
330
6C
100
AcDbEntity
  8
Visible (ANSI)
100
AcDbLine
 10
14.56171187953673
 20
4.229082913374016
 30
0.0
 11
11.89527649011652
 21
5.764580932292516
 31
0.0
  0
DIMENSION
  5
256
330
6C
100
AcDbEntity
  8
Dimension (ANSI)
100
AcDbDimension
  2
*D5
 10
2.007014217165874
 20
2.575052638896897
 30
0.0
 11
4.447014217165874
 21
2.575052638896897
 31
0.0
 70
   160
  1
<>
 42
4.879999999999999
  3
Default (ANSI)
100
AcDbAlignedDimension
 13
6.887014217165874
 23
3.441194371180362
 33
0.0
 14
2.007014217165874
 24
3.441194371180362
 34
0.0
 50
180.0
100
AcDbRotatedDimension
1001
ACAD
1000
DSTYLE
1002
{
1070
   289
1070
     1
1070
    73
1070
     0
1070
    74
1070
     0
1070
   271
1070
     3
1070
   272
1070
     2
1070
    48
1040
0.0
1070
    47
1040
0.0
1002
}
  0
DIMENSION
  5
340
330
6C
100
AcDbEntity
  8
Dimension (ANSI)
100
AcDbDimension
  2
*D6
 10
0.8335514350932388
 20
8.321194371180363
 30
0.0
 11
0.8335514350932372
 21
5.881194371180362
 31
0.0
 70
   160
  1
<>
 42
4.879999999999999
  3
Default (ANSI)
100
AcDbAlignedDimension
 13
2.007014217165874
 23
3.441194371180362
 33
0.0
 14
2.007014217165873
 24
8.321194371180363
 34
0.0
 50
90.0
100
AcDbRotatedDimension
1001
ACAD
1000
DSTYLE
1002
{
1070
   289
1070
     1
1070
   271
1070
     3
1070
   272
1070
     2
1070
    48
1040
0.0
1070
    47
1040
0.0
1002
}
  0
DIMENSION
  5
42A
330
6C
100
AcDbEntity
  8
Dimension (ANSI)
100
AcDbDimension
  2
*D7
 10
1.715030161977815
 20
3.754194371180362
 30
0.0
 11
1.706571330460769
 21
4.082349716719336
 31
0.0
 70
   160
  1
<>{\PTYP.}
 42
0.3129999999999993
  3
Default (ANSI)
100
AcDbAlignedDimension
 13
2.007014217165874
 23
3.441194371180362
 33
0.0
 14
2.179514217165874
 24
3.754194371180362
 34
0.0
 50
90.0
100
AcDbRotatedDimension
1001
ACAD
1000
DSTYLE
1002
{
1070
   289
1070
     2
1070
   279
1070
     1
1070
   145
1040
-0.25
1070
   271
1070
     3
1070
   272
1070
     2
1070
    48
1040
0.0
1070
    47
1040
0.0
1002
}
  0
DIMENSION
  5
53A
330
6C
100
AcDbEntity
  8
Dimension (ANSI)
100
AcDbDimension
  2
*D8
 10
2.320014217165874
 20
3.047493583778787
 30
0.0
 11
1.636266555699258
 21
3.047493583778787
 31
0.0
 70
   160
  1
<>{\PTYP.}
 42
0.3129999999999997
  3
Default (ANSI)
100
AcDbAlignedDimension
 13
2.007014217165874
 23
3.441194371180362
 33
0.0
 14
2.320014217165874
 24
3.645194371180362
 34
0.0
100
AcDbRotatedDimension
1001
ACAD
1000
DSTYLE
1002
{
1070
   289
1070
     2
1070
    73
1070
     0
1070
    74
1070
     0
1070
   145
1040
-0.25
1070
   271
1070
     3
1070
   272
1070
     2
1070
    48
1040
0.0
1070
    47
1040
0.0
1002
}
  0
DIMENSION
  5
638
330
6C
100
AcDbEntity
  8
Dimension (ANSI)
100
AcDbDimension
  2
*D9
 10
3.320014217165874
 20
3.046892650138894
 30
0.0
 11
2.820014217165874
 21
3.046892650138894
 31
0.0
 70
   160
  1
<>
  3
Default (ANSI)
100
AcDbAlignedDimension
 13
2.320014217165874
 23
3.645194371180362
 33
0.0
 14
3.320014217165874
 24
3.629194371180362
 34
0.0
 50
180.0
100
AcDbRotatedDimension
1001
ACAD
1000
DSTYLE
1002
{
1070
   289
1070
     1
1070
    73
1070
     0
1070
    74
1070
     0
1070
   271
1070
     3
1070
   272
1070
     2
1070
    48
1040
0.0
1070
    47
1040
0.0
1002
}
  0
DIMENSION
  5
722
330
6C
100
AcDbEntity
  8
Dimension (ANSI)
100
AcDbDimension
  2
*D10
 10
3.257514217165853
 20
3.862447546653404
 30
0.0
 11
4.098837083294363
 21
3.160187969925201
 31
0.0
 70
   163
  1
<>{\PGROUND\PHOLE}
 42
0.25
  3
Default (ANSI)
100
AcDbDiametricDimension
 15
3.382514217165897
 25
3.64594119570732
 35
0.0
 40
0.0
1001
ACAD_DSTYLE_DIMRADIAL_EXTENSION
1070
   387
1070
     1
1070
   388
1040
0.0
1070
   390
1040
0.0
1001
ACAD
1000
DSTYLE
1002
{
1070
   145
1040
-0.3333333333333334
1070
   144
1040
0.9999999999999982
1070
   271
1070
     3
1070
   272
1070
     2
1070
    48
1040
0.0
1070
    47
1040
0.0
1002
}
  0
DIMENSION
  5
7DC
330
6C
100
AcDbEntity
  8
Dimension (ANSI)
100
AcDbDimension
  2
*D11
 10
6.605514217165878
 20
3.754194371180368
 30
0.0
 11
7.939060575998097
 21
4.488452248670716
 31
0.0
 70
   164
  1
 0.218 X 0.281\POBROUND\PTYP. (4 PL.)
 42
0.1089999999999982
  3
Default (ANSI)
100
AcDbRadialDimension
 15
6.682588856315224
 25
3.831269010329688
 35
0.0
 40
0.0
1001
ACAD_DSTYLE_DIMRADIAL_EXTENSION
1070
   387
1070
     1
1070
   388
1040
0.0
1070
   390
1040
0.0
1001
ACAD
1000
DSTYLE
1002
{
1070
   145
1040
-0.3333333333333334
1070
   271
1070
     3
1070
   141
1040
0.0
1070
   272
1070
     2
1070
    48
1040
0.0
1070
    47
1040
0.0
1002
}
  0
ENDSEC
  0
SECTION
  2
OBJECTS
  0
DICTIONARY
  5
C
330
0
100
AcDbDictionary
281
     1
  3
ACAD_CIP_PREVIOUS_PRODUCT_INFO
350
87F
  3
ACAD_COLOR
350
63
  3
ACAD_GROUP
350
D
  3
ACAD_LAYOUT
350
62
  3
ACAD_MATERIAL
350
10
  3
ACAD_MLEADERSTYLE
350
66
  3
ACAD_MLINESTYLE
350
5F
  3
ACAD_PLOTSETTINGS
350
61
  3
ACAD_PLOTSTYLENAME
350
E
  3
ACAD_SCALELIST
350
42
  3
ACAD_TABLESTYLE
350
64
  3
ACAD_VISUALSTYLE
350
29
  3
ACDB_RECOMPOSE_DATA
350
88D
  3
AcDbVariableDictionary
350
76
  3
DWGPROPS
350
88E
  0
DICTIONARY
  5
8CA
330
7D6
100
AcDbDictionary
280
     1
281
     1
  3
ACAD_MTEXT_RT
360
8CB
  0
XRECORD
  5
87F
102
{ACAD_REACTORS
330
C
102
}
330
C
100
AcDbXrecord
280
     1
300
INVNTOR
300
2012
300
85795PDSP_2012_0F
  0
DICTIONARY
  5
63
102
{ACAD_REACTORS
330
C
102
}
330
C
100
AcDbDictionary
281
     1
  0
DICTIONARY
  5
D
102
{ACAD_REACTORS
330
C
102
}
330
C
100
AcDbDictionary
281
     1
  0
DICTIONARY
  5
62
102
{ACAD_REACTORS
330
C
102
}
330
C
100
AcDbDictionary
281
     1
  3
Layout1
350
6B
  3
Layout2
350
73
  3
Model
350
6F
  0
DICTIONARY
  5
10
102
{ACAD_REACTORS
330
C
102
}
330
C
100
AcDbDictionary
281
     1
  3
ByBlock
350
19
  3
ByLayer
350
11
  3
Global
350
21
  0
DICTIONARY
  5
66
102
{ACAD_REACTORS
330
C
102
}
330
C
100
AcDbDictionary
281
     1
  3
Standard
350
67
  0
DICTIONARY
  5
5F
102
{ACAD_REACTORS
330
C
102
}
330
C
100
AcDbDictionary
281
     1
  3
Standard
350
60
  0
DICTIONARY
  5
61
102
{ACAD_REACTORS
330
C
102
}
330
C
100
AcDbDictionary
281
     1
  0
ACDBDICTIONARYWDFLT
  5
E
102
{ACAD_REACTORS
330
C
102
}
330
C
100
AcDbDictionary
281
     1
  3
Normal
350
F
100
AcDbDictionaryWithDefault
340
F
  0
DICTIONARY
  5
42
102
{ACAD_REACTORS
330
C
102
}
330
C
100
AcDbDictionary
281
     1
  3
A0
350
43
  3
A1
350
44
  3
A2
350
45
  3
A3
350
46
  3
A4
350
47
  3
A5
350
48
  3
A6
350
49
  3
A7
350
4A
  3
A8
350
4B
  3
A9
350
4C
  3
B0
350
4D
  3
B1
350
4E
  3
B2
350
4F
  3
B3
350
50
  3
B4
350
51
  3
B5
350
52
  3
B6
350
53
  0
DICTIONARY
  5
64
102
{ACAD_REACTORS
330
C
102
}
330
C
100
AcDbDictionary
281
     1
  3
Standard
350
65
  0
DICTIONARY
  5
29
102
{ACAD_REACTORS
330
C
102
}
330
C
100
AcDbDictionary
281
     1
  3
2dWireframe
350
2F
  3
Basic
350
2E
  3
Brighten
350
35
  3
ColorChange
350
39
  3
Conceptual
350
32
  3
Dim
350
34
  3
EdgeColorOff
350
41
  3
Facepattern
350
38
  3
Flat
350
2A
  3
FlatWithEdges
350
2B
  3
Gouraud
350
2C
  3
GouraudWithEdges
350
2D
  3
Hidden
350
31
  3
JitterOff
350
3F
  3
Linepattern
350
37
  3
OverhangOff
350
40
  3
Realistic
350
33
  3
Shaded
350
3E
  3
Shaded with edges
350
3D
  3
Shades of Gray
350
3A
  3
Sketchy
350
3B
  3
Thicken
350
36
  3
Wireframe
350
30
  3
X-Ray
350
3C
  0
XRECORD
  5
88D
102
{ACAD_REACTORS
330
C
102
}
330
C
100
AcDbXrecord
280
     1
 90
        1
330
65
330
42A
330
53A
  0
DICTIONARY
  5
76
102
{ACAD_REACTORS
330
C
102
}
330
C
100
AcDbDictionary
281
     1
  3
CANNOSCALE
350
79
  3
CMLEADERSTYLE
350
78
  3
CTABLESTYLE
350
77
  3
DIMASSOC
350
887
  3
HIDETEXT
350
886
  3
INDEXCTL
350
885
  3
LAYEREVAL
350
882
  3
LAYERNOTIFY
350
883
  3
LIGHTINGUNITS
350
881
  3
MSLTSCALE
350
880
  3
SORTENTS
350
884
  3
XCLIPFRAME
350
888
  0
XRECORD
  5
88E
102
{ACAD_REACTORS
330
C
102
}
330
C
100
AcDbXrecord
280
     1
  1
DWGPROPS COOKIE
  2

  3

  4
KRA
  6

  7

  8

  9
-
300
Manager=
301
Company=
302
Category=
303
Part Number=P0606AL-S
304
Description=P SERIES BACK PANEL MASTER VIEW
305
Project=
306
Designer=KRA
307
Engineer=
308
Authority=
309
Cost Center=
 40
0.0000596759259259
 41
2455951.545715081
 42
2455951.545715081
  1

 90
       20
300
Vendor=
300
User Status=
300
Design Status=WorkInProgress
300
Checked by=JMG
300
Date Checked=02/12/2009
300
Engr Approved by=
300
Mfg Approved by=
300
DWG. NO=
300
NUMBER OF SHEETS=1
300
DRAWING #=1
  0
XRECORD
  5
8CB
102
{ACAD_REACTORS
330
8CA
102
}
330
8CA
100
AcDbXrecord
280
     1
 40
40178.0
  1
\A1;\U+22050.250{\PGROUND\PHOLE}
  0
LAYOUT
  5
6B
102
{ACAD_XDICTIONARY
360
8C4
102
}
102
{ACAD_REACTORS
330
62
102
}
330
62
100
AcDbPlotSettings
  1

  2

  4

  6

 40
0.0
 41
0.0
 42
0.0
 43
0.0
 44
0.0
 45
0.0
 46
0.0
 47
0.0
 48
0.0
 49
0.0
140
0.0
141
0.0
142
1.0
143
1.0
 70
   688
 72
     0
 73
     0
 74
     5
  7

 75
    16
147
1.0
148
0.0
149
0.0
100
AcDbLayout
  1
Layout1
 70
     1
 71
     1
 10
0.0
 20
0.0
 11
12.0
 21
9.0
 12
0.0
 22
0.0
 32
0.0
 14
0.0
 24
0.0
 34
0.0
 15
0.0
 25
0.0
 35
0.0
146
0.0
 13
0.0
 23
0.0
 33
0.0
 16
1.0
 26
0.0
 36
0.0
 17
0.0
 27
1.0
 37
0.0
 76
     0
330
68
  0
LAYOUT
  5
73
102
{ACAD_XDICTIONARY
360
8C8
102
}
102
{ACAD_REACTORS
330
62
102
}
330
62
100
AcDbPlotSettings
  1

  2

  4

  6

 40
0.0
 41
0.0
 42
0.0
 43
0.0
 44
0.0
 45
0.0
 46
0.0
 47
0.0
 48
0.0
 49
0.0
140
0.0
141
0.0
142
1.0
143
1.0
 70
   688
 72
     0
 73
     0
 74
     5
  7

 75
    16
147
1.0
148
0.0
149
0.0
100
AcDbLayout
  1
Layout2
 70
     1
 71
     2
 10
0.0
 20
0.0
 11
12.0
 21
9.0
 12
0.0
 22
0.0
 32
0.0
 14
0.0
 24
0.0
 34
0.0
 15
0.0
 25
0.0
 35
0.0
146
0.0
 13
0.0
 23
0.0
 33
0.0
 16
1.0
 26
0.0
 36
0.0
 17
0.0
 27
1.0
 37
0.0
 76
     0
330
70
  0
LAYOUT
  5
6F
102
{ACAD_XDICTIONARY
360
8C6
102
}
102
{ACAD_REACTORS
330
62
102
}
330
62
100
AcDbPlotSettings
  1

  2

  4

  6

 40
0.0
 41
0.0
 42
0.0
 43
0.0
 44
0.0
 45
0.0
 46
0.0
 47
0.0
 48
0.0
 49
0.0
140
0.0
141
0.0
142
1.0
143
1.0
 70
  1712
 72
     0
 73
     0
 74
     0
  7

 75
     0
147
1.0
148
0.0
149
0.0
100
AcDbLayout
  1
Model
 70
     1
 71
     0
 10
0.0
 20
0.0
 11
12.0
 21
9.0
 12
0.0
 22
0.0
 32
0.0
 14
0.0
 24
0.0
 34
0.0
 15
0.0
 25
0.0
 35
0.0
146
0.0
 13
0.0
 23
0.0
 33
0.0
 16
1.0
 26
0.0
 36
0.0
 17
0.0
 27
1.0
 37
0.0
 76
     0
330
6C
  0
MATERIAL
  5
19
102
{ACAD_XDICTIONARY
360
1A
102
}
102
{ACAD_REACTORS
330
10
102
}
330
10
100
AcDbMaterial
  1
ByBlock
 72
     0
 43
0.0208333333333333
 43
0.0
 43
0.0
 43
0.0
 43
0.0
 43
0.0208333333333333
 43
0.0
 43
0.0
 43
0.0
 43
0.0
 43
1.0
 43
0.0
 43
0.0
 43
0.0
 43
0.0
 43
1.0
 77
     0
 47
0.0208333333333333
 47
0.0
 47
0.0
 47
0.0
 47
0.0
 47
0.0208333333333333
 47
0.0
 47
0.0
 47
0.0
 47
0.0
 47
1.0
 47
0.0
 47
0.0
 47
0.0
 47
0.0
 47
1.0
171
     0
 49
0.0208333333333333
 49
0.0
 49
0.0
 49
0.0
 49
0.0
 49
0.0208333333333333
 49
0.0
 49
0.0
 49
0.0
 49
0.0
 49
1.0
 49
0.0
 49
0.0
 49
0.0
 49
0.0
 49
1.0
175
     0
142
0.0208333333333333
142
0.0
142
0.0
142
0.0
142
0.0
142
0.0208333333333333
142
0.0
142
0.0
142
0.0
142
0.0
142
1.0
142
0.0
142
0.0
142
0.0
142
0.0
142
1.0
179
     0
144
0.0208333333333333
144
0.0
144
0.0
144
0.0
144
0.0
144
0.0208333333333333
144
0.0
144
0.0
144
0.0
144
0.0
144
1.0
144
0.0
144
0.0
144
0.0
144
0.0
144
1.0
147
0.0208333333333333
147
0.0
147
0.0
147
0.0
147
0.0
147
0.0208333333333333
147
0.0
147
0.0
147
0.0
147
0.0
147
1.0
147
0.0
147
0.0
147
0.0
147
0.0
147
1.0
  0
MATERIAL
  5
11
102
{ACAD_XDICTIONARY
360
12
102
}
102
{ACAD_REACTORS
330
10
102
}
330
10
100
AcDbMaterial
  1
ByLayer
 72
     0
 43
0.0208333333333333
 43
0.0
 43
0.0
 43
0.0
 43
0.0
 43
0.0208333333333333
 43
0.0
 43
0.0
 43
0.0
 43
0.0
 43
1.0
 43
0.0
 43
0.0
 43
0.0
 43
0.0
 43
1.0
 77
     0
 47
0.0208333333333333
 47
0.0
 47
0.0
 47
0.0
 47
0.0
 47
0.0208333333333333
 47
0.0
 47
0.0
 47
0.0
 47
0.0
 47
1.0
 47
0.0
 47
0.0
 47
0.0
 47
0.0
 47
1.0
171
     0
 49
0.0208333333333333
 49
0.0
 49
0.0
 49
0.0
 49
0.0
 49
0.0208333333333333
 49
0.0
 49
0.0
 49
0.0
 49
0.0
 49
1.0
 49
0.0
 49
0.0
 49
0.0
 49
0.0
 49
1.0
175
     0
142
0.0208333333333333
142
0.0
142
0.0
142
0.0
142
0.0
142
0.0208333333333333
142
0.0
142
0.0
142
0.0
142
0.0
142
1.0
142
0.0
142
0.0
142
0.0
142
0.0
142
1.0
179
     0
144
0.0208333333333333
144
0.0
144
0.0
144
0.0
144
0.0
144
0.0208333333333333
144
0.0
144
0.0
144
0.0
144
0.0
144
1.0
144
0.0
144
0.0
144
0.0
144
0.0
144
1.0
147
0.0208333333333333
147
0.0
147
0.0
147
0.0
147
0.0
147
0.0208333333333333
147
0.0
147
0.0
147
0.0
147
0.0
147
1.0
147
0.0
147
0.0
147
0.0
147
0.0
147
1.0
  0
MATERIAL
  5
21
102
{ACAD_XDICTIONARY
360
22
102
}
102
{ACAD_REACTORS
330
10
102
}
330
10
100
AcDbMaterial
  1
Global
 72
     0
 43
0.0208333333333333
 43
0.0
 43
0.0
 43
0.0
 43
0.0
 43
0.0208333333333333
 43
0.0
 43
0.0
 43
0.0
 43
0.0
 43
1.0
 43
0.0
 43
0.0
 43
0.0
 43
0.0
 43
1.0
 77
     0
 47
0.0208333333333333
 47
0.0
 47
0.0
 47
0.0
 47
0.0
 47
0.0208333333333333
 47
0.0
 47
0.0
 47
0.0
 47
0.0
 47
1.0
 47
0.0
 47
0.0
 47
0.0
 47
0.0
 47
1.0
171
     0
 49
0.0208333333333333
 49
0.0
 49
0.0
 49
0.0
 49
0.0
 49
0.0208333333333333
 49
0.0
 49
0.0
 49
0.0
 49
0.0
 49
1.0
 49
0.0
 49
0.0
 49
0.0
 49
0.0
 49
1.0
175
     0
142
0.0208333333333333
142
0.0
142
0.0
142
0.0
142
0.0
142
0.0208333333333333
142
0.0
142
0.0
142
0.0
142
0.0
142
1.0
142
0.0
142
0.0
142
0.0
142
0.0
142
1.0
179
     0
144
0.0208333333333333
144
0.0
144
0.0
144
0.0
144
0.0
144
0.0208333333333333
144
0.0
144
0.0
144
0.0
144
0.0
144
1.0
144
0.0
144
0.0
144
0.0
144
0.0
144
1.0
147
0.0208333333333333
147
0.0
147
0.0
147
0.0
147
0.0
147
0.0208333333333333
147
0.0
147
0.0
147
0.0
147
0.0
147
1.0
147
0.0
147
0.0
147
0.0
147
0.0
147
1.0
  0
MLEADERSTYLE
  5
67
102
{ACAD_XDICTIONARY
360
88B
102
}
102
{ACAD_REACTORS
330
66
102
}
330
66
100
AcDbMLeaderStyle
170
     2
171
     1
172
     0
 90
        2
 40
0.0
 41
0.0
173
     1
 91
-1056964608
340
5B
 92
       -2
290
     1
 42
0.09
291
     1
 43
0.36
  3
Standard
 44
0.18
300

342
55
174
     1
178
     6
175
     1
176
     0
 93
-1056964608
 45
0.18
292
     0
297
     0
 46
0.18
 94
-1056964608
 47
1.0
 49
1.0
140
1.0
293
     1
141
0.0
294
     1
177
     0
142
1.0
295
     0
296
     0
143
0.125
1001
ACAD_MLEADERVER
1070
     2
  0
MLINESTYLE
  5
60
102
{ACAD_REACTORS
330
5F
102
}
330
5F
100
AcDbMlineStyle
  2
STANDARD
 70
     0
  3

 62
   256
 51
90.0
 52
90.0
 71
     2
 49
0.5
 62
   256
  6
BYLAYER
 49
-0.5
 62
   256
  6
BYLAYER
  0
ACDBPLACEHOLDER
  5
F
102
{ACAD_REACTORS
330
E
102
}
330
E
  0
SCALE
  5
43
102
{ACAD_REACTORS
330
42
102
}
330
42
100
AcDbScale
 70
     0
300
1:1
140
1.0
141
1.0
290
     1
  0
SCALE
  5
44
102
{ACAD_REACTORS
330
42
102
}
330
42
100
AcDbScale
 70
     0
300
1/128" = 1'-0"
140
0.0078125
141
12.0
290
     0
  0
SCALE
  5
45
102
{ACAD_REACTORS
330
42
102
}
330
42
100
AcDbScale
 70
     0
300
1/64" = 1'-0"
140
0.015625
141
12.0
290
     0
  0
SCALE
  5
46
102
{ACAD_REACTORS
330
42
102
}
330
42
100
AcDbScale
 70
     0
300
1/32" = 1'-0"
140
0.03125
141
12.0
290
     0
  0
SCALE
  5
47
102
{ACAD_REACTORS
330
42
102
}
330
42
100
AcDbScale
 70
     0
300
1/16" = 1'-0"
140
0.0625
141
12.0
290
     0
  0
SCALE
  5
48
102
{ACAD_REACTORS
330
42
102
}
330
42
100
AcDbScale
 70
     0
300
3/32" = 1'-0"
140
0.09375
141
12.0
290
     0
  0
SCALE
  5
49
102
{ACAD_REACTORS
330
42
102
}
330
42
100
AcDbScale
 70
     0
300
1/8" = 1'-0"
140
0.125
141
12.0
290
     0
  0
SCALE
  5
4A
102
{ACAD_REACTORS
330
42
102
}
330
42
100
AcDbScale
 70
     0
300
3/16" = 1'-0"
140
0.1875
141
12.0
290
     0
  0
SCALE
  5
4B
102
{ACAD_REACTORS
330
42
102
}
330
42
100
AcDbScale
 70
     0
300
1/4" = 1'-0"
140
0.25
141
12.0
290
     0
  0
SCALE
  5
4C
102
{ACAD_REACTORS
330
42
102
}
330
42
100
AcDbScale
 70
     0
300
3/8" = 1'-0"
140
0.375
141
12.0
290
     0
  0
SCALE
  5
4D
102
{ACAD_REACTORS
330
42
102
}
330
42
100
AcDbScale
 70
     0
300
1/2" = 1'-0"
140
0.5
141
12.0
290
     0
  0
SCALE
  5
4E
102
{ACAD_REACTORS
330
42
102
}
330
42
100
AcDbScale
 70
     0
300
3/4" = 1'-0"
140
0.75
141
12.0
290
     0
  0
SCALE
  5
4F
102
{ACAD_REACTORS
330
42
102
}
330
42
100
AcDbScale
 70
     0
300
1" = 1'-0"
140
1.0
141
12.0
290
     0
  0
SCALE
  5
50
102
{ACAD_REACTORS
330
42
102
}
330
42
100
AcDbScale
 70
     0
300
1-1/2" = 1'-0"
140
1.5
141
12.0
290
     0
  0
SCALE
  5
51
102
{ACAD_REACTORS
330
42
102
}
330
42
100
AcDbScale
 70
     0
300
3" = 1'-0"
140
3.0
141
12.0
290
     0
  0
SCALE
  5
52
102
{ACAD_REACTORS
330
42
102
}
330
42
100
AcDbScale
 70
     0
300
6" = 1'-0"
140
6.0
141
12.0
290
     0
  0
SCALE
  5
53
102
{ACAD_REACTORS
330
42
102
}
330
42
100
AcDbScale
 70
     0
300
1'-0" = 1'-0"
140
12.0
141
12.0
290
     0
  0
TABLESTYLE
  5
65
102
{ACAD_XDICTIONARY
360
889
102
}
102
{ACAD_REACTORS
330
64
102
}
330
64
100
AcDbTableStyle
  3
Standard
 70
     0
 71
     0
 40
0.06
 41
0.06
280
     0
281
     0
  7
Standard
140
0.18
170
     2
 62
     0
 63
     7
283
     0
274
    -2
284
     1
 64
     0
275
    -2
285
     1
 65
     0
276
    -2
286
     1
 66
     0
277
    -2
287
     1
 67
     0
278
    -2
288
     1
 68
     0
279
    -2
289
     1
 69
     0
  7
Standard
140
0.25
170
     5
 62
     0
 63
     7
283
     0
274
    -2
284
     1
 64
     0
275
    -2
285
     1
 65
     0
276
    -2
286
     1
 66
     0
277
    -2
287
     1
 67
     0
278
    -2
288
     1
 68
     0
279
    -2
289
     1
 69
     0
  7
Standard
140
0.18
170
     5
 62
     0
 63
     7
283
     0
274
    -2
284
     1
 64
     0
275
    -2
285
     1
 65
     0
276
    -2
286
     1
 66
     0
277
    -2
287
     1
 67
     0
278
    -2
288
     1
 68
     0
279
    -2
289
     1
 69
     0
  0
VISUALSTYLE
  5
2F
102
{ACAD_XDICTIONARY
360
89C
102
}
102
{ACAD_REACTORS
330
29
102
}
330
29
100
AcDbVisualStyle
  2
2dWireframe
 70
     4
 71
     0
 72
     2
 73
     0
 90
        0
 40
-0.6
 41
-30.0
 62
     5
 63
     7
 74
     1
 91
        4
 64
     7
 65
   257
 75
     1
175
     1
 42
1.0
 92
        0
 66
   257
 43
1.0
 76
     1
 77
     6
 78
     2
 67
     7
 79
     5
170
     0
171
     0
290
     0
174
     0
 93
        1
 44
0.0
173
     0
291
     0
 45
0.0
1001
ACAD
1000
AcDbSavedByObjectVersion
1070
     0
  0
VISUALSTYLE
  5
2E
102
{ACAD_XDICTIONARY
360
89A
102
}
102
{ACAD_REACTORS
330
29
102
}
330
29
100
AcDbVisualStyle
  2
Basic
 70
     7
 71
     1
 72
     0
 73
     1
 90
        0
 40
-0.6
 41
-30.0
 62
     5
 63
     7
 74
     0
 91
        4
 64
     7
 65
   257
 75
     1
175
     1
 42
1.0
 92
        8
 66
     7
 43
1.0
 76
     1
 77
     6
 78
     2
 67
     7
 79
     5
170
     0
171
     0
290
     0
174
     0
 93
        1
 44
0.0
173
     0
291
     1
 45
0.0
1001
ACAD
1000
AcDbSavedByObjectVersion
1070
     0
  0
VISUALSTYLE
  5
35
102
{ACAD_XDICTIONARY
360
8A8
102
}
102
{ACAD_REACTORS
330
29
102
}
330
29
100
AcDbVisualStyle
  2
Brighten
 70
    12
 71
     2
 72
     2
 73
     0
 90
        0
 40
-0.6
 41
-30.0
 62
     5
 63
     7
 74
     1
 91
        4
 64
     7
 65
   257
 75
     1
175
     1
 42
1.0
 92
        8
 66
     7
 43
1.0
 76
     1
 77
     6
 78
     2
 67
     7
 79
     5
170
     0
171
     0
290
     0
174
     0
 93
        1
 44
50.0
173
     0
291
     1
 45
0.0
1001
ACAD
1000
AcDbSavedByObjectVersion
1070
     0
  0
VISUALSTYLE
  5
39
102
{ACAD_XDICTIONARY
360
8B0
102
}
102
{ACAD_REACTORS
330
29
102
}
330
29
100
AcDbVisualStyle
  2
ColorChange
 70
    16
 71
     2
 72
     2
 73
     3
 90
        0
 40
-0.6
 41
-30.0
 62
     5
 63
     8
 74
     1
 91
        4
 64
     7
 65
   257
 75
     1
175
     1
 42
1.0
 92
        8
 66
     8
 43
1.0
 76
     1
 77
     6
 78
     2
 67
     7
 79
     5
170
     0
171
     0
290
     0
174
     0
 93
        1
 44
0.0
173
     0
291
     1
 45
0.0
1001
ACAD
1000
AcDbSavedByObjectVersion
1070
     0
  0
VISUALSTYLE
  5
32
102
{ACAD_XDICTIONARY
360
8A2
102
}
102
{ACAD_REACTORS
330
29
102
}
330
29
100
AcDbVisualStyle
  2
Conceptual
 70
     9
 71
     3
 72
     2
 73
     0
 90
        0
 40
-0.6
 41
-30.0
 62
     5
 63
     7
 74
     2
 91
        2
 64
     7
 65
   257
 75
     1
175
     1
 42
179.0
 92
        8
 66
     7
 43
1.0
 76
     1
 77
     6
 78
     2
 67
     7
 79
     3
170
     0
171
     0
290
     0
174
     0
 93
        1
 44
0.0
173
     0
291
     0
 45
0.0
1001
ACAD
1000
AcDbSavedByObjectVersion
1070
     0
  0
VISUALSTYLE
  5
34
102
{ACAD_XDICTIONARY
360
8A6
102
}
102
{ACAD_REACTORS
330
29
102
}
330
29
100
AcDbVisualStyle
  2
Dim
 70
    11
 71
     2
 72
     2
 73
     0
 90
        0
 40
-0.6
 41
-30.0
 62
     5
 63
     7
 74
     1
 91
        4
 64
     7
 65
   257
 75
     1
175
     1
 42
1.0
 92
        8
 66
     7
 43
1.0
 76
     1
 77
     6
 78
     2
 67
     7
 79
     5
170
     0
171
     0
290
     0
174
     0
 93
        1
 44
-50.0
173
     0
291
     1
 45
0.0
1001
ACAD
1000
AcDbSavedByObjectVersion
1070
     0
  0
VISUALSTYLE
  5
41
102
{ACAD_XDICTIONARY
360
8C0
102
}
102
{ACAD_REACTORS
330
29
102
}
330
29
100
AcDbVisualStyle
  2
EdgeColorOff
 70
    22
 71
     2
 72
     2
 73
     0
 90
        0
 40
-0.6
 41
-30.0
 62
     5
 63
     7
 74
     1
 91
        4
 64
     7
 65
   257
 75
     1
175
     1
 42
1.0
 92
        8
 66
     7
 43
1.0
 76
     1
 77
     6
 78
     2
 67
     7
 79
     5
170
     0
171
     0
290
     0
174
     0
 93
        1
 44
0.0
173
     0
291
     1
 45
0.0
1001
ACAD
1000
AcDbSavedByObjectVersion
1070
     0
  0
VISUALSTYLE
  5
38
102
{ACAD_XDICTIONARY
360
8AE
102
}
102
{ACAD_REACTORS
330
29
102
}
330
29
100
AcDbVisualStyle
  2
Facepattern
 70
    15
 71
     2
 72
     2
 73
     0
 90
        0
 40
-0.6
 41
-30.0
 62
     5
 63
     7
 74
     1
 91
        4
 64
     7
 65
   257
 75
     1
175
     1
 42
1.0
 92
        8
 66
     7
 43
1.0
 76
     1
 77
     6
 78
     2
 67
     7
 79
     5
170
     0
171
     0
290
     0
174
     0
 93
        1
 44
0.0
173
     0
291
     1
 45
0.0
1001
ACAD
1000
AcDbSavedByObjectVersion
1070
     0
  0
VISUALSTYLE
  5
2A
102
{ACAD_XDICTIONARY
360
892
102
}
102
{ACAD_REACTORS
330
29
102
}
330
29
100
AcDbVisualStyle
  2
Flat
 70
     0
 71
     2
 72
     1
 73
     1
 90
        2
 40
-0.6
 41
30.0
 62
     5
 63
     7
 74
     0
 91
        0
 64
     7
 65
   257
 75
     1
175
     1
 42
1.0
 92
        8
 66
     7
 43
1.0
 76
     1
 77
     6
 78
     2
 67
     7
 79
     5
170
     0
171
     0
290
     0
174
     0
 93
       13
 44
0.0
173
     0
291
     1
 45
0.0
1001
ACAD
1000
AcDbSavedByObjectVersion
1070
     0
  0
VISUALSTYLE
  5
2B
102
{ACAD_XDICTIONARY
360
894
102
}
102
{ACAD_REACTORS
330
29
102
}
330
29
100
AcDbVisualStyle
  2
FlatWithEdges
 70
     1
 71
     2
 72
     1
 73
     1
 90
        2
 40
-0.6
 41
30.0
 62
     5
 63
     7
 74
     1
 91
        0
 64
     7
 65
   257
 75
     1
175
     1
 42
1.0
 92
        0
 66
   257
 43
1.0
 76
     1
 77
     6
 78
     2
 67
     7
 79
     5
170
     0
171
     0
290
     0
174
     0
 93
       13
 44
0.0
173
     0
291
     1
 45
0.0
1001
ACAD
1000
AcDbSavedByObjectVersion
1070
     0
  0
VISUALSTYLE
  5
2C
102
{ACAD_XDICTIONARY
360
896
102
}
102
{ACAD_REACTORS
330
29
102
}
330
29
100
AcDbVisualStyle
  2
Gouraud
 70
     2
 71
     2
 72
     2
 73
     1
 90
        2
 40
-0.6
 41
30.0
 62
     5
 63
     7
 74
     0
 91
        0
 64
     7
 65
   257
 75
     1
175
     1
 42
1.0
 92
        0
 66
     7
 43
1.0
 76
     1
 77
     6
 78
     2
 67
     7
 79
     5
170
     0
171
     0
290
     0
174
     0
 93
       13
 44
0.0
173
     0
291
     1
 45
0.0
1001
ACAD
1000
AcDbSavedByObjectVersion
1070
     0
  0
VISUALSTYLE
  5
2D
102
{ACAD_XDICTIONARY
360
898
102
}
102
{ACAD_REACTORS
330
29
102
}
330
29
100
AcDbVisualStyle
  2
GouraudWithEdges
 70
     3
 71
     2
 72
     2
 73
     1
 90
        2
 40
-0.6
 41
30.0
 62
     5
 63
     7
 74
     1
 91
        0
 64
     7
 65
   257
 75
     1
175
     1
 42
1.0
 92
        0
 66
   257
 43
1.0
 76
     1
 77
     6
 78
     2
 67
     7
 79
     5
170
     0
171
     0
290
     0
174
     0
 93
       13
 44
0.0
173
     0
291
     1
 45
0.0
1001
ACAD
1000
AcDbSavedByObjectVersion
1070
     0
  0
VISUALSTYLE
  5
31
102
{ACAD_XDICTIONARY
360
8A0
102
}
102
{ACAD_REACTORS
330
29
102
}
330
29
100
AcDbVisualStyle
  2
Hidden
 70
     6
 71
     1
 72
     2
 73
     2
 90
        0
 40
-0.6
 41
-30.0
 62
     5
 63
     7
 74
     2
 91
        2
 64
     7
 65
   257
 75
     2
175
     1
 42
40.0
 92
        0
 66
   257
 43
1.0
 76
     1
 77
     6
 78
     2
 67
     7
 79
     3
170
     0
171
     0
290
     0
174
     0
 93
        1
 44
0.0
173
     0
291
     0
 45
0.0
1001
ACAD
1000
AcDbSavedByObjectVersion
1070
     0
  0
VISUALSTYLE
  5
3F
102
{ACAD_XDICTIONARY
360
8BC
102
}
102
{ACAD_REACTORS
330
29
102
}
330
29
100
AcDbVisualStyle
  2
JitterOff
 70
    20
 71
     2
 72
     2
 73
     0
 90
        0
 40
-0.6
 41
-30.0
 62
     5
 63
     7
 74
     1
 91
        4
 64
     7
 65
   257
 75
     1
175
     1
 42
1.0
 92
       10
 66
     7
 43
1.0
 76
     1
 77
     6
 78
     2
 67
     7
 79
     5
170
     0
171
     0
290
     0
174
     0
 93
        1
 44
0.0
173
     0
291
     1
 45
0.0
1001
ACAD
1000
AcDbSavedByObjectVersion
1070
     0
  0
VISUALSTYLE
  5
37
102
{ACAD_XDICTIONARY
360
8AC
102
}
102
{ACAD_REACTORS
330
29
102
}
330
29
100
AcDbVisualStyle
  2
Linepattern
 70
    14
 71
     2
 72
     2
 73
     0
 90
        0
 40
-0.6
 41
-30.0
 62
     5
 63
     7
 74
     1
 91
        4
 64
     7
 65
   257
 75
     7
175
     7
 42
1.0
 92
        8
 66
     7
 43
1.0
 76
     1
 77
     6
 78
     2
 67
     7
 79
     5
170
     0
171
     0
290
     0
174
     0
 93
        1
 44
0.0
173
     0
291
     1
 45
0.0
1001
ACAD
1000
AcDbSavedByObjectVersion
1070
     0
  0
VISUALSTYLE
  5
40
102
{ACAD_XDICTIONARY
360
8BE
102
}
102
{ACAD_REACTORS
330
29
102
}
330
29
100
AcDbVisualStyle
  2
OverhangOff
 70
    21
 71
     2
 72
     2
 73
     0
 90
        0
 40
-0.6
 41
-30.0
 62
     5
 63
     7
 74
     1
 91
        4
 64
     7
 65
   257
 75
     1
175
     1
 42
1.0
 92
        9
 66
     7
 43
1.0
 76
     1
 77
     6
 78
     2
 67
     7
 79
     5
170
     0
171
     0
290
     0
174
     0
 93
        1
 44
0.0
173
     0
291
     1
 45
0.0
1001
ACAD
1000
AcDbSavedByObjectVersion
1070
     0
  0
VISUALSTYLE
  5
33
102
{ACAD_XDICTIONARY
360
8A4
102
}
102
{ACAD_REACTORS
330
29
102
}
330
29
100
AcDbVisualStyle
  2
Realistic
 70
     8
 71
     2
 72
     3
 73
     0
 90
        2
 40
-0.6
 41
30.0
 62
     5
 63
     7
 74
     0
 91
        0
 64
     7
 65
   257
 75
     1
175
     1
 42
1.0
 92
        8
 66
   257
 43
1.0
 76
     1
 77
     6
 78
     2
 67
     7
 79
     3
170
     0
171
     0
290
     0
174
     0
 93
       13
 44
0.0
173
     0
291
     0
 45
0.0
1001
ACAD
1000
AcDbSavedByObjectVersion
1070
     0
  0
VISUALSTYLE
  5
3E
102
{ACAD_XDICTIONARY
360
8BA
102
}
102
{ACAD_REACTORS
330
29
102
}
330
29
100
AcDbVisualStyle
  2
Shaded
 70
    27
 71
     2
 72
     2
 73
     1
 90
        2
 40
-0.6
 41
30.0
 62
     5
 63
     7
 74
     0
 91
        4
 64
     7
 65
   257
 75
     1
175
     1
 42
1.0
 92
        8
 66
   257
 43
1.0
 76
     1
 77
     6
 78
     2
 67
     8
 79
     3
170
     0
171
     0
290
     0
174
     0
 93
        5
 44
0.0
173
     0
291
     0
 45
0.0
1001
ACAD
1000
AcDbSavedByObjectVersion
1070
     0
  0
VISUALSTYLE
  5
3D
102
{ACAD_XDICTIONARY
360
8B8
102
}
102
{ACAD_REACTORS
330
29
102
}
330
29
100
AcDbVisualStyle
  2
Shaded with edges
 70
    26
 71
     2
 72
     2
 73
     1
 90
        2
 40
-0.6
 41
30.0
 62
     5
 63
     7
 74
     1
 91
       10
 64
     7
 65
   257
 75
     2
175
     1
 42
1.0
 92
        8
 66
   257
 43
1.0
 76
     1
 77
     6
 78
     2
 67
     7
 79
     3
170
     0
171
     0
290
     0
174
     0
 93
        5
 44
0.0
173
     0
291
     0
 45
0.0
1001
ACAD
1000
AcDbSavedByObjectVersion
1070
     0
  0
VISUALSTYLE
  5
3A
102
{ACAD_XDICTIONARY
360
8B2
102
}
102
{ACAD_REACTORS
330
29
102
}
330
29
100
AcDbVisualStyle
  2
Shades of Gray
 70
    23
 71
     2
 72
     2
 73
     3
 90
        0
 40
-0.6
 41
-30.0
 62
     5
 63
     7
 74
     2
 91
        2
 64
     7
 65
     7
 75
     1
175
     1
 42
40.0
 92
        8
 66
     7
 43
1.0
 76
     1
 77
     6
 78
     2
 67
     7
 79
     3
170
     0
171
     0
290
     0
174
     0
 93
        1
 44
0.0
173
     0
291
     0
 45
0.0
1001
ACAD
1000
AcDbSavedByObjectVersion
1070
     0
  0
VISUALSTYLE
  5
3B
102
{ACAD_XDICTIONARY
360
8B4
102
}
102
{ACAD_REACTORS
330
29
102
}
330
29
100
AcDbVisualStyle
  2
Sketchy
 70
    24
 71
     1
 72
     2
 73
     2
 90
        0
 40
-0.6
 41
-30.0
 62
     5
 63
     7
 74
     2
 91
        2
 64
     7
 65
     7
 75
     1
175
     1
 42
40.0
 92
       11
 66
     7
 43
1.0
 76
     1
 77
     6
 78
     2
 67
     7
 79
     6
170
     0
171
     0
290
     0
174
     0
 93
        1
 44
0.0
173
     0
291
     0
 45
0.0
1001
ACAD
1000
AcDbSavedByObjectVersion
1070
     0
  0
VISUALSTYLE
  5
36
102
{ACAD_XDICTIONARY
360
8AA
102
}
102
{ACAD_REACTORS
330
29
102
}
330
29
100
AcDbVisualStyle
  2
Thicken
 70
    13
 71
     2
 72
     2
 73
     0
 90
        0
 40
-0.6
 41
-30.0
 62
     5
 63
     7
 74
     1
 91
        4
 64
     7
 65
   257
 75
     1
175
     1
 42
1.0
 92
       12
 66
     7
 43
1.0
 76
     1
 77
     6
 78
     2
 67
     7
 79
     5
170
     0
171
     0
290
     0
174
     0
 93
        1
 44
0.0
173
     0
291
     1
 45
0.0
1001
ACAD
1000
AcDbSavedByObjectVersion
1070
     0
  0
VISUALSTYLE
  5
30
102
{ACAD_XDICTIONARY
360
89E
102
}
102
{ACAD_REACTORS
330
29
102
}
330
29
100
AcDbVisualStyle
  2
Wireframe
 70
     5
 71
     0
 72
     2
 73
     0
 90
        0
 40
-0.6
 41
-30.0
 62
     5
 63
     7
 74
     1
 91
        4
 64
     7
 65
   257
 75
     1
175
     1
 42
1.0
 92
        0
 66
   257
 43
1.0
 76
     1
 77
     6
 78
     2
 67
     7
 79
     3
170
     0
171
     0
290
     0
174
     0
 93
        1
 44
0.0
173
     0
291
     0
 45
0.0
1001
ACAD
1000
AcDbSavedByObjectVersion
1070
     0
  0
VISUALSTYLE
  5
3C
102
{ACAD_XDICTIONARY
360
8B6
102
}
102
{ACAD_REACTORS
330
29
102
}
330
29
100
AcDbVisualStyle
  2
X-Ray
 70
    25
 71
     2
 72
     2
 73
     1
 90
        1
 40
0.5
 41
-30.0
 62
     5
 63
     7
 74
     1
 91
        0
 64
     7
 65
   257
 75
     1
175
     1
 42
1.0
 92
        8
 66
     7
 43
1.0
 76
     1
 77
     6
 78
     2
 67
     7
 79
     3
170
     0
171
     0
290
     0
174
     0
 93
       13
 44
0.0
173
     0
291
     0
 45
0.0
1001
ACAD
1000
AcDbSavedByObjectVersion
1070
     0
  0
DICTIONARYVAR
  5
79
102
{ACAD_REACTORS
330
76
102
}
330
76
100
DictionaryVariables
280
     0
  1
1:1
  0
DICTIONARYVAR
  5
78
102
{ACAD_REACTORS
330
76
102
}
330
76
100
DictionaryVariables
280
     0
  1
STANDARD
  0
DICTIONARYVAR
  5
77
102
{ACAD_REACTORS
330
76
102
}
330
76
100
DictionaryVariables
280
     0
  1
STANDARD
  0
DICTIONARYVAR
  5
887
102
{ACAD_REACTORS
330
76
102
}
330
76
100
DictionaryVariables
280
     0
  1
1
  0
DICTIONARYVAR
  5
886
102
{ACAD_REACTORS
330
76
102
}
330
76
100
DictionaryVariables
280
     0
  1
1
  0
DICTIONARYVAR
  5
885
102
{ACAD_REACTORS
330
76
102
}
330
76
100
DictionaryVariables
280
     0
  1
0
  0
DICTIONARYVAR
  5
882
102
{ACAD_REACTORS
330
76
102
}
330
76
100
DictionaryVariables
280
     0
  1
0
  0
DICTIONARYVAR
  5
883
102
{ACAD_REACTORS
330
76
102
}
330
76
100
DictionaryVariables
280
     0
  1
0
  0
DICTIONARYVAR
  5
881
102
{ACAD_REACTORS
330
76
102
}
330
76
100
DictionaryVariables
280
     0
  1
2
  0
DICTIONARYVAR
  5
880
102
{ACAD_REACTORS
330
76
102
}
330
76
100
DictionaryVariables
280
     0
  1
1
  0
DICTIONARYVAR
  5
884
102
{ACAD_REACTORS
330
76
102
}
330
76
100
DictionaryVariables
280
     0
  1
127
  0
DICTIONARYVAR
  5
888
102
{ACAD_REACTORS
330
76
102
}
330
76
100
DictionaryVariables
280
     0
  1
2
  0
DICTIONARY
  5
8C4
330
6B
100
AcDbDictionary
280
     1
281
     1
  3
ACAD_XREC_ROUNDTRIP
360
8C5
  0
DICTIONARY
  5
8C8
330
73
100
AcDbDictionary
280
     1
281
     1
  3
ACAD_XREC_ROUNDTRIP
360
8C9
  0
DICTIONARY
  5
8C6
330
6F
100
AcDbDictionary
280
     1
281
     1
  3
ACAD_XREC_ROUNDTRIP
360
8C7
  0
DICTIONARY
  5
1A
330
19
100
AcDbDictionary
280
     1
281
     1
  3
ACAD_XREC_ROUNDTRIP
360
890
  3
BUMPTILE
360
1C
  3
DIFFUSETILE
360
1B
  3
OPACITYTILE
360
1F
  3
REFLECTIONTILE
360
1E
  3
REFRACTIONTILE
360
20
  3
SPECULARTILE
360
1D
  0
DICTIONARY
  5
12
330
11
100
AcDbDictionary
280
     1
281
     1
  3
ACAD_XREC_ROUNDTRIP
360
88F
  3
BUMPTILE
360
14
  3
DIFFUSETILE
360
13
  3
FBXASSET
360
10B
  3
OPACITYTILE
360
17
  3
REFLECTIONTILE
360
16
  3
REFRACTIONTILE
360
18
  3
SPECULARTILE
360
15
  0
DICTIONARY
  5
22
330
21
100
AcDbDictionary
280
     1
281
     1
  3
ACAD_XREC_ROUNDTRIP
360
891
  3
BUMPTILE
360
24
  3
DIFFUSETILE
360
23
  3
FBXASSET
360
BA
  3
OPACITYTILE
360
27
  3
REFLECTIONTILE
360
26
  3
REFRACTIONTILE
360
28
  3
SPECULARTILE
360
25
  0
DICTIONARY
  5
88B
330
67
100
AcDbDictionary
280
     1
281
     1
  3
ACAD_XREC_ROUNDTRIP
360
88C
  0
DICTIONARY
  5
889
330
65
100
AcDbDictionary
280
     1
281
     1
  3
ACAD_ROUNDTRIP_2008_TABLESTYLE_CELLSTYLEMAP
360
88A
  3
ACAD_XREC_ROUNDTRIP
360
8C2
  0
DICTIONARY
  5
89C
330
2F
100
AcDbDictionary
280
     1
281
     1
  3
ACAD_XREC_ROUNDTRIP
360
89D
  0
DICTIONARY
  5
89A
330
2E
100
AcDbDictionary
280
     1
281
     1
  3
ACAD_XREC_ROUNDTRIP
360
89B
  0
DICTIONARY
  5
8A8
330
35
100
AcDbDictionary
280
     1
281
     1
  3
ACAD_XREC_ROUNDTRIP
360
8A9
  0
DICTIONARY
  5
8B0
330
39
100
AcDbDictionary
280
     1
281
     1
  3
ACAD_XREC_ROUNDTRIP
360
8B1
  0
DICTIONARY
  5
8A2
330
32
100
AcDbDictionary
280
     1
281
     1
  3
ACAD_XREC_ROUNDTRIP
360
8A3
  0
DICTIONARY
  5
8A6
330
34
100
AcDbDictionary
280
     1
281
     1
  3
ACAD_XREC_ROUNDTRIP
360
8A7
  0
DICTIONARY
  5
8C0
330
41
100
AcDbDictionary
280
     1
281
     1
  3
ACAD_XREC_ROUNDTRIP
360
8C1
  0
DICTIONARY
  5
8AE
330
38
100
AcDbDictionary
280
     1
281
     1
  3
ACAD_XREC_ROUNDTRIP
360
8AF
  0
DICTIONARY
  5
892
330
2A
100
AcDbDictionary
280
     1
281
     1
  3
ACAD_XREC_ROUNDTRIP
360
893
  0
DICTIONARY
  5
894
330
2B
100
AcDbDictionary
280
     1
281
     1
  3
ACAD_XREC_ROUNDTRIP
360
895
  0
DICTIONARY
  5
896
330
2C
100
AcDbDictionary
280
     1
281
     1
  3
ACAD_XREC_ROUNDTRIP
360
897
  0
DICTIONARY
  5
898
330
2D
100
AcDbDictionary
280
     1
281
     1
  3
ACAD_XREC_ROUNDTRIP
360
899
  0
DICTIONARY
  5
8A0
330
31
100
AcDbDictionary
280
     1
281
     1
  3
ACAD_XREC_ROUNDTRIP
360
8A1
  0
DICTIONARY
  5
8BC
330
3F
100
AcDbDictionary
280
     1
281
     1
  3
ACAD_XREC_ROUNDTRIP
360
8BD
  0
DICTIONARY
  5
8AC
330
37
100
AcDbDictionary
280
     1
281
     1
  3
ACAD_XREC_ROUNDTRIP
360
8AD
  0
DICTIONARY
  5
8BE
330
40
100
AcDbDictionary
280
     1
281
     1
  3
ACAD_XREC_ROUNDTRIP
360
8BF
  0
DICTIONARY
  5
8A4
330
33
100
AcDbDictionary
280
     1
281
     1
  3
ACAD_XREC_ROUNDTRIP
360
8A5
  0
DICTIONARY
  5
8BA
330
3E
100
AcDbDictionary
280
     1
281
     1
  3
ACAD_XREC_ROUNDTRIP
360
8BB
  0
DICTIONARY
  5
8B8
330
3D
100
AcDbDictionary
280
     1
281
     1
  3
ACAD_XREC_ROUNDTRIP
360
8B9
  0
DICTIONARY
  5
8B2
330
3A
100
AcDbDictionary
280
     1
281
     1
  3
ACAD_XREC_ROUNDTRIP
360
8B3
  0
DICTIONARY
  5
8B4
330
3B
100
AcDbDictionary
280
     1
281
     1
  3
ACAD_XREC_ROUNDTRIP
360
8B5
  0
DICTIONARY
  5
8AA
330
36
100
AcDbDictionary
280
     1
281
     1
  3
ACAD_XREC_ROUNDTRIP
360
8AB
  0
DICTIONARY
  5
89E
330
30
100
AcDbDictionary
280
     1
281
     1
  3
ACAD_XREC_ROUNDTRIP
360
89F
  0
DICTIONARY
  5
8B6
330
3C
100
AcDbDictionary
280
     1
281
     1
  3
ACAD_XREC_ROUNDTRIP
360
8B7
  0
XRECORD
  5
8C5
102
{ACAD_REACTORS
330
8C4
102
}
330
8C4
100
AcDbXrecord
280
     1
102
SHADEPLOT
 70
     0
102
SHADEPLOTRESLEVEL
 70
     2
102
SHADEPLOTCUSTOMDPI
 70
   300
  0
XRECORD
  5
8C9
102
{ACAD_REACTORS
330
8C8
102
}
330
8C8
100
AcDbXrecord
280
     1
102
SHADEPLOT
 70
     0
102
SHADEPLOTRESLEVEL
 70
     2
102
SHADEPLOTCUSTOMDPI
 70
   300
  0
XRECORD
  5
8C7
102
{ACAD_REACTORS
330
8C6
102
}
330
8C6
100
AcDbXrecord
280
     1
102
SHADEPLOT
 70
     0
102
SHADEPLOTRESLEVEL
 70
     2
102
SHADEPLOTCUSTOMDPI
 70
   300
  0
XRECORD
  5
890
102
{ACAD_REACTORS
330
1A
102
}
330
1A
100
AcDbXrecord
280
     1
102
MATERIAL
148
0.0
149
0.0
149
0.0
 93
        0
 94
      127
282
     0
 72
     0
 77
     0
171
     0
175
     0
179
     0
273
     0
  0
XRECORD
  5
1C
102
{ACAD_REACTORS
330
1A
102
}
330
1A
100
AcDbXrecord
280
     1
270
     1
271
     1
  0
XRECORD
  5
1B
102
{ACAD_REACTORS
330
1A
102
}
330
1A
100
AcDbXrecord
280
     1
270
     1
271
     1
  0
XRECORD
  5
1F
102
{ACAD_REACTORS
330
1A
102
}
330
1A
100
AcDbXrecord
280
     1
270
     1
271
     1
  0
XRECORD
  5
1E
102
{ACAD_REACTORS
330
1A
102
}
330
1A
100
AcDbXrecord
280
     1
270
     1
271
     1
  0
XRECORD
  5
20
102
{ACAD_REACTORS
330
1A
102
}
330
1A
100
AcDbXrecord
280
     1
270
     1
271
     1
  0
XRECORD
  5
1D
102
{ACAD_REACTORS
330
1A
102
}
330
1A
100
AcDbXrecord
280
     1
270
     1
271
     1
  0
XRECORD
  5
88F
102
{ACAD_REACTORS
330
12
102
}
330
12
100
AcDbXrecord
280
     1
102
MATERIAL
148
0.0
149
0.0
149
0.0
 93
        0
 94
      127
282
     0
 72
     0
 77
     0
171
     0
175
     0
179
     0
273
     0
  0
XRECORD
  5
14
102
{ACAD_REACTORS
330
12
102
}
330
12
100
AcDbXrecord
280
     1
270
     1
271
     1
  0
XRECORD
  5
13
102
{ACAD_REACTORS
330
12
102
}
330
12
100
AcDbXrecord
280
     1
270
     1
271
     1
  0
XRECORD
  5
10B
102
{ACAD_REACTORS
330
12
102
}
330
12
100
AcDbXrecord
280
     1
 70
     1
 90
1959938040
 71
     1
  1
FB2CB789-7B4A-4A7B-ABA8-26FBD3DCBA58
311
504B03040A0000080000BA6838403DEE336E79000000790000001B0000006175746F6465736B2D64657369676E2D7061636B6167652E786D6C3C3F786D6C2076657273696F6E3D22312E302220656E636F64696E673D227574662D3822203F3E3C666F726D6174733E3C666F726D61743E687474703A2F2F736368656D612E
311
6175746F6465736B2E636F6D2F64657369676E2D7061636B6167652F323030393C2F666F726D61743E3C2F666F726D6174733E504B0304140006080800BA683840D486FD9CA0000000F4000000130000005B436F6E74656E745F54797065735D2E786D6C7D8EC10E82300C865F65E91D8A1E8C310C0EEA1BF002731658846E
311
D98AC1B77784ABF1D8FE5FBFBF75BBCE937A534CCEB38643598122B6FEE978D0B0485F9C41B54DDD7D022595594E1A469170414C76A4D9A4D207E29CF43ECE46F218070CC6BECC4078ACAA135ACF422C856C0E68EA1BF5669944DDD7BCDE7B1F8E415D77AECB980613C2E4AC91FC167A2B244592486606FC29C8FD7F045B9A
311
EF7053A7E60B504B0304140006080800BA6838405F5051A7EA0000007C01000008000000636F72652E786D6C8D904D6E83301085AF62CDDEE01F8810328E0A2427E8052CE32456828DB05DF5F8350991DA5D57337AF3BE99D113C7EFF981BECC1AAC771DD08200324EFBC9BA6B07295E7003E828C5EA7DFC6503E4D46C3AD8
311
6490E2BAFAB4EC92F62E1A17B3EAFC64765185602220FDC84D0741DFCCAC0A956276847BB1287D575753D07797E194EC845E47EC94F7D98B352BC8819CFB869F073C36EC80ABD338E08F53CD70C57843D9D8B39ED7A2DC6029A29DDFF7F56A543413484628C38462567D52DE92BAAD3926879610516EF63F505AA67F42C9BA
311
C8D9FEEE0B0B20697EE43990A2DCB2C8E51954AE5B6EF207504B0304140006080800BA68384055019EA25F0000007C00000007000000636E782E786D6C4DCB3B0E80201045D1AD90E915ED2CF8AC45050C11660C8261F98AB1B07AC9C97D42D718D865D3E909258CFD00CCE24AC6E326A164D74DC0B4128928FF326038472B
311
A13128B1252AC747C6BAB984FC68F0B87FE8960A5C09FE86CFB69FBA01504B0304140006080800BA68384071A8B0F465010000020300000C0000006662782F636F72652E786D6C8D52ED8E8320107C15C27F04519BA6419AEBD713DC0B50A59EA98241307DFC5B3F9A5E2F4DD3982099D9D99D1D15DB5BDBA041BBBEB626C7
311
71C430D2A6B0656DAA1C077F216B8CB652386BFD9F328C8C6A758E47184B51391BBA052AACF1DA78408D2DF502AABED71EA3A2814B8EFBE247B72A52C143457F8D3A555C55A5A338021AEAA4E8BD0303681E329E585ECE3741675C8A10EA7261EB12A6D5975A3B2CF7ECB45B27A73D39ACF98AA4C7C39E7C1D334E529EAC63
311
7ED8F15D92093A8AA5F0757B775738ADBC2EB1E42CE684C584A7DF71B261D9264B085B6D1813742C7F1285AEFC50146AE313BED89D653D96311899887FDB42441EF56A003F540A3A8608AF29E1E7A0211008D9AB7373DFE30AD0A00B6F5D0A4C69C3831A5413344C65687A049D59E83C3580CD5EF6E16FFABCEF011F50990A
311
AC290FD773F0E374314F5DA2E8B42383BF21635DAB9A87B9D9E2E37C0C7A292F6C63DD276ABAAC4A9730E9F8F7CA5F504B0304140006080800BA683840BB9EA1077D0000009D0000000B0000006662782F636E782E786D6C4DCCD10A83201805E05791FFDE352DD3811A31B7F7886511990EA7638F3F1B5DECEA703E0E4776
311
9FCDA1B78DAF257805E4740664FD238C8B9F15E4346101A8D3328690FE6680FCB059053B8396730CF979D068A721BB54D42D7E3DD05C786FDA966171BB1BDCD02BC782F7023784915218AD6B0A9596D5EFA9E47EACBF504B0304140006080800BA683840FF4F38DA2B01000014020000310000006662782F44393741443636
311
352D384546442D343243372D383741382D3431353132433735323333322F636F72652E786D6C8D51CB6EC32010FC158B537AC0E6611C37C24451D37E417FC031244589C1E251E5F3BBAE1DA9BDE5C2C230333BDA95FBFB782BBE4D88D6BB0ED192A0C2B8C16BEB2E1DCAE98C5B54EC950CDEA73F3454B87E341D9A61A4E425
311
F83CADD0E05D322E01EABC362BD8C768122A861B5C3A14872F33F6659F1330E2B59CFAE1DA5F4C494BF8069E92310508502C4DE613A9E3EBF6706C1A81DBF78F23AED9DB16B7DB438B6B2A283C04E39CC96A112A99B3D5ABDC6A8863CFD684674D66B192C98E8FF843307D321A294628C38462567F52BE2362273826CD8E10
311
59CDF47FA23CE92745D9BAC4D91A779145A4A8AC960F25B5CFA7DB238CB94F3EA462EEB7896678418A94840BCA196D64B5506100E0D9D4AB674C3EC08037D713B0A9588C9B5AC96ADE1194DF05429DF7A97E00504B0304140006080800BA68384092BA1DA34D01000033030000300000006662782F44393741443636352D38
311
4546442D343243372D383741382D3431353132433735323333322F636E782E786D6CD593BD6E032110845F05D1DFAFCF566471584A912748919683B54DCCC1899F287EFB2C3676DCB84899069D668799D5278EEDBE6743BEC007EDEC48BBBAA504AC744ADBC34853DC572F94EC38F3CEC5071B2556CC30D22C53CE0EDEA5A5
311
480AF6229988AAD1F654440FC1252F21A09C6F12E3A4301800B64A28C23C8152A0C8DD885F7BF0B80A8AD399C42390B7D70FE2A64F9031B026A770D6E40ECEF2599A1E4C944823421869904798452D52740AC2A956228ABAAB6F5D4F76FA4D22F9C2AD32794D72F948F34979D9A8468EACC12167217AA4574CF1BC00E56259
311
8C962222E4E662BC7A384BDAC6CD50BC1AC17B74779BD53060D865C659D4331487F4202228CAFBB6EBABB6ABFAE1BD5B6DDBF576BDAADACDB66D5993ED9C4DCE99720963C0BB85486723D84879C79A3C7E86AFF888D21E593B7FFE034804505AAF74EE19FF994F7379DF88CBE35FC07F00504B0304140006080800BA683840
311
C78102E39A0500007B100000340000006662782F44393741443636352D384546442D343243372D383741382D3431353132433735323333322F6F626A656374732E786D6CAD575B8F9B3814FE2B887D06729BDB8AA1CAA55345DD69AB46ADF661A4C88061BC632EB2CD34D35FBF9FC110489399ECAA2F808D7D7CCE77BE73B1
311
FF6E9771EB990AC98AFCD61EBB23DBA27954C42C4F6FED4A25CEB56DBD0B7C5114AAB7CCB67292D15B5B4FDB819F8AA22ACD544C13527175307BB7F8DB9211CDA96D459C48796BCBE89166C425952A622A9FDC9828E2A6C9CE1DBBCDC2A1D85490F2F140684904CD1534C57C0E2956A3D478381CD95EE07BFA7FE0EBA75935
311
3DBDCAABED199ECF72A9481EFD72D88198E978B67A3FB9B8712E66B3A933BB9C8C9DC5DD62E58CAFA6A3E5E57279337F7F8383A5129064341134B1830FC046B0C8F79A5F815FB15C4D276689719027E833D39EB2838935F6BD664D679D31F298FA5191E734AAB1021AB57D46744C4B9AC7F039A3129AF5101A0D87638D63EF
311
F7548FCD91FDE9F310E8EFE8096A756FDF7D4D8BF01F9820CF6190905433B0C1D218DA7075B447382C0A6EFE3169654451C108B7380B05112F7680A57A49E00FC468260B1D0DDA023B80179ADF43BA208CDEE6F9312D938A734D633BA8A3608B58A14AD69AB19F54ECB5EF23039DE02BCD866B63907A29A91DDC3414B93E60
311
5303A4957092C2E53053EF9C4E0E0C5DEA385DAFECE0E35DB8DBE8D83D7E78298A920AA5E9036AB58E6BDF1A25A3D3F82CCFE90DF6812A7B50BE02F94F08F5BD2AF09B60BBD96E664E5182E432294406DF5823CB19E131B2C6F5537FF7BE7CAFDB3CF4DE293CE16C0DD56FC0736843DF973D3803FF19842FC4D498B6890847
311
DAB8673900D224B1788129E4E124DCD9C11A590E5919BB080FC63019EA3EE3D3F78C18248AFAA4DE3B07960769F18C040DD86A46428D86FC46C1BD9F7E4967F5C166D929782F7E0B5DE7ABCDC74D251212D17B13D32B9AB09C2994B83D6FFA0A0D301F58F4445F7E142286A1BFE2BDE9E39D99A324D0D6986BE0D336A7EBC1
311
FEE4C10111F6A5854E37FE1B27C0085D587BF2EF998C28E724A745D59EFB6AFD40D96820D6C1AE99DC15987D6101699A3F073188221D09566A10BB6AD5254DF78475DFD69FC0483B58BCFC455EFAD92BDCE7DEA8E085D8862FDB262D1D85FAFB90DB06034F4B01DDEB2069E3DF80BE8D5992541249F008AEDFD7CBBEEF745A
311
408A68A536D13283FD082E220C695BB9A8D682A09216F996A16E22EE8E1ED0970F480D036A81A7349694275BC679956D13C6518DB619294FC0F1FFF50FABACDC92ACA8727542F640755487A1EE03F6CA1F44458F76B0A9DFCE02B937A6F10932E85A7204AB816BEF1693E5E2EAFAC6B95ACCE6CE6C7EB570E68BF9B533B944
311
17355D2D17F38BEBD64F8D2681DF969A7E44C34B286D7E259871DFB735E2C724013BB8274A3E7C68C2B37D7F5BBBE8857D0F7B502FBB8DF3F8197D1F8DDF16B05F7954D03A2B39CD68AE888EA17BFDC1BF12F41903659AF97546527A8694CF1F3607C660E68C7D5F74BCD31F077BCDEC5207E45121EAB1CAC29C307EB0316D
311
9074CB3C35F8B53EE9DE4DA169877A641C83CE54169CC5C883B195D222A30AD9F08C2224322A41BD7E4F1F9BBBC719BB9F9B0E519190D35693478226994B8405A855456A386FFD81A64EF755B736CAADFB8487C914B605CEDCDA68D2158BA874431468DD0AD5C2C1A57E278FC69FE42947AFDD6CEAC6DD2E8DCDA024774BCE
311
E99F8C5D4D0A3706208D94E81BD010C13BB532815FEB66FE47FFC9F0561D8B287C8695EA6CD94F74C6D4C720441BA3CC6D014DCC93397A87407DDDACB15BAF192072D62DEB551234521D45445ADF14B47E46A5F9EA8B870EC55A7FB64A5EA5F0E5F9921C4141E64A073858045618992551A0EAF2CF872FA2C04D36B3EE1828
311
F0B02CB2ACC8CD606E6EC2D6E611F7DAF8016981EA0B897C988CC69387FA2260EE26DB9048EA92583E61023E15AC8378E07830B2B92DA202353FBA759E76C20137D72BCB94B419841AA2F4B3AA86052D474E2D448FBE4CEA58E92F285FBD0B78F552A820D0C507FF02504B0304140006080000BA6838400000000000000000
311
00000000350000006662782F44393741443636352D384546442D343243372D383741382D3431353132433735323333322F76657274696365732E62696E504B0304140006080800BA683840F270F1330600000004000000360000006662782F44393741443636352D384546442D343243372D383741382D3431353132433735
311
323333322F747269616E676C65732E62696E636660600000504B0304140006080000BA683840000000000000000000000000370000006662782F44393741443636352D384546442D343243372D383741382D3431353132433735323333322F617474726962757465732E62696E504B0304140006080800BA683840D5987DFC
311
8F00000041010000360000006662782F44393741443636352D384546442D343243372D383741382D3431353132433735323333322F6469726563746F72792E786D6C858F410EC2201045AF4266AF15DDB800BA74E7C21B903225242D6328188F2FA5C4183471359997F9FF81E89FF3C41E1816475E02DF1F80A11FC8386F25
311
A438EECEC07A250251FC3803E6F58C12560C4AD840E95E91C151A72936F496F35732D860FE635F62C8F2DA16B505C545B74125BAA2FA9E05D7CC053D063734D5C7665FD55B6B8D15D5E9BFEAFD8490FFA45E504B0304140006080800BA6838404CFB7F3FFC000000A00100003B0000006662782F44393741443636352D3845
311
46442D343243372D383741382D3431353132433735323333322F7265736F75726365732F636F72652E786D6C8D50596AC33010BD8A997FD9926C071364853ACB097A01214F529158325A4A8F5F2971A1FDEBCFCCF016E6F1C4E16B79549FE8837176045653A8D06A371B7B1B21C52B19A03A48E19D8BBF645059B5E0080506
311
296EDEA57583B4B3116DCCA875336EA00A012354FA918F1182FEC045D52AC5AC08F77A55FAAE6E58B33AD3592745883E07A85E4FCA04E931B8E43506D1BC58295232F3A63173FE69AE063DC823BD4C437B99C869E03BD29D4F47F276EE39E9783B307E9AF8D4F6A2296629A2597E326A8F2AE20C9253C609658477EFACDDD3
311
7EDFB784EEF6948AA6C8FF98D23AFFD3948C8D2DDFE2BE6C0124CB419E84144DE92BAF679979976EE537504B010214000A0000080000BA6838403DEE336E79000000790000001B00000000000000000000000000000000006175746F6465736B2D64657369676E2D7061636B6167652E786D6C504B01021400140006080800
311
BA683840D486FD9CA0000000F40000001300000000000000000000000000B20000005B436F6E74656E745F54797065735D2E786D6C504B01021400140006080800BA6838405F5051A7EA0000007C010000080000000000000000000000000083010000636F72652E786D6C504B01021400140006080800BA68384055019EA2
311
5F0000007C000000070000000000000000000000000093020000636E782E786D6C504B01021400140006080800BA68384071A8B0F465010000020300000C00000000000000000000000000170300006662782F636F72652E786D6C504B01021400140006080800BA683840BB9EA1077D0000009D0000000B00000000000000
311
000000000000A60400006662782F636E782E786D6C504B01021400140006080800BA683840FF4F38DA2B0100001402000031000000000000000000000000004C0500006662782F44393741443636352D384546442D343243372D383741382D3431353132433735323333322F636F72652E786D6C504B010214001400060808
311
00BA68384092BA1DA34D010000330300003000000000000000000000000000C60600006662782F44393741443636352D384546442D343243372D383741382D3431353132433735323333322F636E782E786D6C504B01021400140006080800BA683840C78102E39A0500007B10000034000000000000000000000000006108
311
00006662782F44393741443636352D384546442D343243372D383741382D3431353132433735323333322F6F626A656374732E786D6C504B01021400140006080000BA68384000000000000000000000000035000000000000000000000000004D0E00006662782F44393741443636352D384546442D343243372D38374138
311
2D3431353132433735323333322F76657274696365732E62696E504B01021400140006080800BA683840F270F13306000000040000003600000000000000000000000000A00E00006662782F44393741443636352D384546442D343243372D383741382D3431353132433735323333322F747269616E676C65732E62696E50
311
4B01021400140006080000BA6838400000000000000000000000003700000000000000000000000000FA0E00006662782F44393741443636352D384546442D343243372D383741382D3431353132433735323333322F617474726962757465732E62696E504B01021400140006080800BA683840D5987DFC8F000000410100
311
0036000000000000000000000000004F0F00006662782F44393741443636352D384546442D343243372D383741382D3431353132433735323333322F6469726563746F72792E786D6C504B01021400140006080800BA6838404CFB7F3FFC000000A00100003B00000000000000000000000000321000006662782F44393741
311
443636352D384546442D343243372D383741382D3431353132433735323333322F7265736F75726365732F636F72652E786D6C504B0506000000000E000E0080040000871100000000
310
504B03040A0000080000BA6838403DEE336E79000000790000001B0000006175746F6465736B2D64657369676E2D7061636B6167652E786D6C3C3F786D6C2076657273696F6E3D22312E302220656E636F64696E673D227574662D3822203F3E3C666F726D6174733E3C666F726D61743E687474703A2F2F736368656D612E
310
6175746F6465736B2E636F6D2F64657369676E2D7061636B6167652F323030393C2F666F726D61743E3C2F666F726D6174733E504B0304140006080800BA683840D486FD9CA0000000F4000000130000005B436F6E74656E745F54797065735D2E786D6C7D8EC10E82300C865F65E91D8A1E8C310C0EEA1BF002731658846E
310
D98AC1B77784ABF1D8FE5FBFBF75BBCE937A534CCEB38643598122B6FEE978D0B0485F9C41B54DDD7D022595594E1A469170414C76A4D9A4D207E29CF43ECE46F218070CC6BECC4078ACAA135ACF422C856C0E68EA1BF5669944DDD7BCDE7B1F8E415D77AECB980613C2E4AC91FC167A2B244592486606FC29C8FD7F045B9A
310
EF7053A7E60B504B0304140006080800BA683840BD9663D2E70000007C01000008000000636F72652E786D6C8D90416EC3201045AF82D8630F60BBAE8589225939412F8080B828315806AA1EBF3871A476D7D50C9FFF66465F9CBE973BFAB25B74C18F98568091F53A18E7E711E774253D462729B610D22F1B465E2D76C4BB
310
8CA598B790D743D2C127EB53517D30F610558C3661A4EFA51971D49F765195CAA938E2AD5A95BEA9D956F4D515386767D0738933659EBB3ABB61C99A33D0F3FB85006B1BD2F43091F27A231DEF2F2D4C13EF808B7A87A5486E79EDD79B55C99AC20365042861CD07E503B443CB09740380A877FB1F28AFE69F50763E71769C
310
FBC42296B41CF2F890A2DEB328E51154A97B6EF207504B0304140006080800BA68384055019EA25F0000007C00000007000000636E782E786D6C4DCB3B0E80201045D1AD90E915ED2CF8AC45050C11660C8261F98AB1B07AC9C97D42D718D865D3E909258CFD00CCE24AC6E326A164D74DC0B4128928FF326038472BA13128
310
B1252AC747C6BAB984FC68F0B87FE8960A5C09FE86CFB69FBA01504B0304140006080800BA683840DB06F7F963010000020300000C0000006662782F636F72652E786D6C8D525B6E833010BC8AE57F63F34AD3C8388A14E504BD80034E6A056CE407CAF1BB3C229A2A8A2A24303B3B3BB3037C7FEF5A3428E7B535154E1386
310
9132B56DB4B95638860BD962B417DC591B7EB5616464A72A3C96B1E0576763BF946A6B823201AAC6366A294AEF55C0A86EE150615F7FAB4E263206E8F0B7A497F54D5E55922600439FE03E3830806691F18EC5E57CE774AE0B1EA36E165437A0A62F5A392CB2E2C0D2C3E789B0AC2C48B16547026F1F64936F4F253B1EF30D
310
CB391DC98207DD3DDCD54EC9A01AE0B334232C2559F195E63B56EECA9CB0CD8E314EC7F62752EC9B7F92A23621CF16BB33CD6391829109F8B32D4414909703F8A182D33144784C093F070D8140C8419EDBC71E37280DAA0ED615803436AED020DBA84095A1E9E2744661F23400367B39277B33E7FD0CF880D25CC19A0C703C
310
C730AAF3597589A2578E0CE18E8C759D6C5773B3C5F5BE0ABDA4D7B6B5EE3F6CBAAC4A9730E9F8F78A1F504B0304140006080800BA6838406C0814167E0000009D0000000B0000006662782F636E782E786D6C4DCCD10E82201886E15B61FF3969F86BB1012E2AEEC3253A2642236C5D7EDA3CE8E8DB9E7D7B45FB993D79DB
310
F4723148381E4A20363C62EFC22861C9033D0369954831E6BF1B90D0CD56C2C6A0C498E2F2DCA9B743B7F8BCAA7761DAB1E6DC308325BD56A71B456638E50DAF6985C8EE8DC68BD6088512C5AFB4EE16565F504B0304140006080800BA6838406CED1DF12A01000014020000310000006662782F35393946324634302D4333
310
37442D343246392D393639352D3334343245364234414242342F636F72652E786D6C8D515B6EC32010BC8AC557FA818D01BB7584899AB639412F4080A42831583CAA1CBF503B52FB1709B168766676C4B2DD6DBA56DFDA07E3EC08DA1A814A5BE994B1E711A478822FA0DA71E69D8B7F68A0B262D2232830E0ECEC5D9A5748
310
3A1BB58D19B54EE9151421E8082A79CD8F1104F9A527518B1433235CEA59C88B38EBBAAD733BF3380BD1E700D532A4DC8077C370C0078AE01B797E87141F0638F4430709A5F8A3DFD3D7FD9EB2661172969251ABDCA81CC79C8CF68F9A143167D14CF7F8D26B11B5021CA31643D4424C3F5BB245DDB62310F55B845853E8FF
310
4469560F8A92B191E035EE220B80B7AC591A9C29978ED77B187D9B9D8F5599B7095A3E018E6A447A82F361CD42CD1F903D7BBA7A86E87CFEE0CDE598D96435EE29674DD9512EBF0BCCB5EC93FF00504B0304140006080800BA683840F41DD2B45401000033030000300000006662782F35393946324634302D433337442D34
310
3246392D393639352D3334343245364234414242342F636E782E786D6CBD93CD6EC32010845F0571F7BF13451126520F7D821E7AC5B04968305880ABE6EDBB2424CD25874A552FC89A1D66569F30DB7D4D867C820FDAD98136654D0958E994B687812E715F6C28D971E69D8B0F364AAC9860A049A69C1DBC5BE62C29D88BC5
310
44548DB6A72C7A086EF11202CAE926314E0A8301608B05459846500A14B91BF16B0F1E5741713C937804F2FAF24EDCF801320656A514CEAAD4C1593A73D3838912694408030DF2089328C5129D82702A9588A26CCA5BD7939D7E9248BA70AB5CBC26A97CA0E9A43C6F54224756E190B3103DD2CBA6789E817231CF464B1111
310
7275315E3D9C2DDAC6759FBD1AC17B7477ED7AB3C1B0CB8CB3A827C80EE941445094B775D3167553B4FD5BD36DEBD576D515F57A5BD7AC4A76CE46E74CBE8431E0DD4CA4B3116CA4BC61551A3FC3977D44698FAC9D3FFF022402C8AD573AF78CBFE4D3ACBBBEFF473ED5E57D232E8F7F01FF06504B0304140006080800BA68
310
384097DBCD675A070000941B0000340000006662782F35393946324634302D433337442D343246392D393639352D3334343245364234414242342F6F626A656374732E786D6CED59DD739B3810FF5718EED9D8D84E9BDC103AB6D3743CBDB49DFADAB987CC3032C84417211849A4F1FDF5B7FA00033109BEE6DEFA6003425A
310
EDFEF6534BF0EE31A3CE03E682E4ECD2F5BD89EB6016E70961E9A55BCADDE8DC75DE8501CF73D998E63A0C65F8D255C36E18A43C2F0B3B94E01D2AA9EC8C5E2FFF72448C19769D9822212E5D11DFE10C79A8947982C5BD972089BC74F7E8F99E99D8269B7254DC7588168863268153186740C5314CF9EDC7893B0E83B17A1F
310
06EADFCE9A0D9A35EF9F35D652B7B9244C48C4E2272C75C8CC06B134F3E757EFA76717A3B3F97C369ABF99FAA3E5F5F26AE4BF9D4D566F56AB8BC5FB0B606F9BE7D4CA94E002B304F4B777433F18AB37B5E81681635CC7396338D64002545AAC2E4182056CD5806FD27EF495448DD75AC2C6F35CBDB72C3486676D2A7DB386
310
01D1A20B82D8ED2A89AB6B53BE7CFB37082E861825175802B74272D0AE85878357B8E124189BD130D81E7441849321893941D4A164CB1107A5C05435250CCC024B46390707528E92406BCEBC6EDB1678E6CBAE738CCB5D49A9F20C37D48E1581FB61293467E41FCC0FDC3791019E40DA9230796EB994FB02BBE14530D68361
310
A02EB3A97D6980747614A5422362DE76045D29D75F5FB9E1C7EBEDE3468583E39B173C2F3097CAE8941E355F60C8F6AA50B2DBFA8334A71680300654BBF200CA5740FE13448F032BA0374E1EE78F733B5772C4C42EE719E8C69938A309FC4D1C5FFFABFBC65D30AE17B7B5D78727B8A982EAFCE7F16CCBA0B1B2FC37E00C83
310
0730F89CCFECAB4D8C28D8F30D610090321287E63004A17DB77D74C335044E08F4B00AD1D0079181DD07B80DC696CC412B957B59AF6380A8DD63364449009BB64860A3474F1F207B70121FD4D414B10FDEB35731D7C5D5E6E3A6E43B14E31BEBD3577847189190358F33D4C2BC25D13DDEFFC87902823EC57BD3C43BB35B09
310
405B61AE804F2B10D4C361E7D60631AC4B73156E821776002154AE6ED0BF2122C6942286F3B2DAB78E6ECA506B8FB735831B4E0DC4B369C784397E20AAAA00A739CC68310A793FE6A45020BAE10723591D34BD1EE9BEAD3F8145D6F37B66AD19845E86E89F3A681DC1A165D915D216885AE0ED219CC739CD79B4DD4726D2B9
310
504B001B6D6FF9DE220AB1DE284951010FD27E578594D4481B2564B72B05C4D5232C7E5FAF9AE630F166FE99D3FCEF38E31CA22DF82EE2D6EF3A7B442443298E7628E9DBAEB95B4D5B68923DA439DE51908B3C10B98F908C26094E4F81E624E217AF4A3DA5B910846101F9EA28F84D34261E0412A3CD8A65A5D50ED0444419
310
96889E828022D303AE4E3BBAC68DA1747899C7DA7A9FD35893E8FF64111C412D99B38840290A39E445C67DEF0C62481B5D8372075FB0B68AB61683965042C4FBE80726E99D3C057543BE07F7188E24A58CF202C560D603C83EF115A5D40EEF5B14DFABFC11C5257D2D031198EE2242699945F0230C4E1E435CBB0E4CCFA2D0
310
206E629FC419146548967CC8266FCE264FF631354337043636DA110A613BCA50D1837A2B20EA7AC4A9C1B7D47B94BA2DB32242595EB24186E2CDBADE64C977D5AAC80EE457958A503656842DC130204CD659B58AD960EA3AB0821BE940B58F04CA0A6A4E612F241EBFF6264DB977036EFDF47537C8A0F0EBD15E33A2CE2B18
310
2C8FADC240FC4032BE73C38DBE8E96507F273839A4FAAAD66C568080988AE425275645DFD650DED81ACD0D6F9014B71F4CD6ADAEDFD61E743F8231AC81DAA55EB85640679849A42A931B7543BF2208C12D1A667CAD72EA29541649A2AB4644AF499F3A5B65446BD38C78C51D6679063F764B584CCB04DFA244DC473792461B
310
A258B7527A19A9307E56C0CF1F361D78606480485F5481877F74D6DAD1952A978E12917765B6658840106C89961ADD78054BAD462A2DD75775A680BA0B0CCCAA78FEEB64D16C47FC3A59A4D6307EEA64B1DCFF81F6CDBE48239DC7CAAE4F3A06D4F94951798D63806E3BD454EB2C6292B995DF3A530441B18AF283ABB12A68
310
18827D1CFFE7ACDD9705CD761DFE4FCBDAFE938AE3A4ACD29AACBA54472AD77533875D2FA7ABE5DBF38BD1DBE57C319A2FDE2E478BE5E27C347D036DDAD9D56AB9383BAFD1D48E1A067530D3B90B9E4D50AB86D593C500BAB222A72481D37CE2A41862BE8433FD80F639CFB080E4D96C7627B6293F60F583E9734AB4A5B8E2
310
E40E4183980A48EB805119CBF6B8F31BB426251CB42F5D681A79F7F067ADD27520F35CBAD02A9024C6C2DB429B4935F4347148B93AF75B62800F62A94A896651FD5CAF52D8B4C27F3D65481AB072B57A1850B815D0FD6A7528346F96A7F824C12B761C24E1765B4AA8D68C2C87815A18BDCD41FD46364AD8BDDDFA115CF779
310
B17C4FCF692132E893C1B34660A88E24E2A9EE772BC62C4B8BAB2F63E8B339EBCF4E41CB1474399CD2886330E6521554604560159666812498EAEAF7DB2F3C874F3C99A3ABA2DB559E6539B30F0B388F25F089C8D9DCC1079FE416CA06ACDAEAE2763AF1A7B7BA9D6D3BECD11609ECA97A0806AA324289D03136B0C827AD29
310
DBB81C2B2574A6AFAF1C1B3EA10D602CE84977D77CDE72C07BD48714E52BDAC32B399FED688FF554B0060EBDE8F05F504B0304140006080000BA683840000000000000000000000000350000006662782F35393946324634302D433337442D343246392D393639352D3334343245364234414242342F76657274696365732E
310
62696E504B0304140006080800BA683840F270F1330600000004000000360000006662782F35393946324634302D433337442D343246392D393639352D3334343245364234414242342F747269616E676C65732E62696E636660600000504B0304140006080000BA683840000000000000000000000000370000006662782F
310
35393946324634302D433337442D343246392D393639352D3334343245364234414242342F617474726962757465732E62696E504B0304140006080800BA683840D5987DFC8F00000041010000360000006662782F35393946324634302D433337442D343246392D393639352D3334343245364234414242342F6469726563
310
746F72792E786D6C858F410EC2201045AF4266AF15DDB800BA74E7C21B903225242D6328188F2FA5C4183471359997F9FF81E89FF3C41E1816475E02DF1F80A11FC8386F25A438EECEC07A250251FC3803E6F58C12560C4AD840E95E91C151A72936F496F35732D860FE635F62C8F2DA16B505C545B74125BAA2FA9E05D7CC
310
053D063734D5C7665FD55B6B8D15D5E9BFEAFD8490FFA45E504B0304140006080800BA683840D57C3EE3FB000000A00100003B0000006662782F35393946324634302D433337442D343246392D393639352D3334343245364234414242342F7265736F75726365732F636F72652E786D6C8D50596EC32010BD0AE21F1BBCD5
310
B13091253727E805104C1C94182C96AAC72F4E5CA9FDEBCFCCE82D9AA7C7CF5FEB037D820FC6D911B382620456396DEC32E214AFA4C7E82CB8772EFE926164E50A23DE612CF8E25DDA0E48391BC1C68C5AA7E10065081031528F7C8C38A81BACB290296645B8179B5477B940C18A4C679DE021FA1C00BD9EEC130B0FC125AF
310
20F0F2C50A9E92D187C6E8FCD35C0D782CAA66A26C3ABD135AB50D697A3A93E97479235DDD5F5A3ACF75476B5EEE66C1A3597F322A0F3282CE7ECA2A4219A99A0F560FB41DDA9AD06EA09497BBFC8F296DFA9FA6646CACAB23EECB16B06039C89310BCDCFBCAEB5966DE7BB7E21B504B010214000A0000080000BA6838403D
310
EE336E79000000790000001B00000000000000000000000000000000006175746F6465736B2D64657369676E2D7061636B6167652E786D6C504B01021400140006080800BA683840D486FD9CA0000000F40000001300000000000000000000000000B20000005B436F6E74656E745F54797065735D2E786D6C504B01021400
310
140006080800BA683840BD9663D2E70000007C010000080000000000000000000000000083010000636F72652E786D6C504B01021400140006080800BA68384055019EA25F0000007C000000070000000000000000000000000090020000636E782E786D6C504B01021400140006080800BA683840DB06F7F9630100000203
310
00000C00000000000000000000000000140300006662782F636F72652E786D6C504B01021400140006080800BA6838406C0814167E0000009D0000000B00000000000000000000000000A10400006662782F636E782E786D6C504B01021400140006080800BA6838406CED1DF12A0100001402000031000000000000000000
310
00000000480500006662782F35393946324634302D433337442D343246392D393639352D3334343245364234414242342F636F72652E786D6C504B01021400140006080800BA683840F41DD2B454010000330300003000000000000000000000000000C10600006662782F35393946324634302D433337442D343246392D39
310
3639352D3334343245364234414242342F636E782E786D6C504B01021400140006080800BA68384097DBCD675A070000941B00003400000000000000000000000000630800006662782F35393946324634302D433337442D343246392D393639352D3334343245364234414242342F6F626A656374732E786D6C504B010214
310
00140006080000BA68384000000000000000000000000035000000000000000000000000000F1000006662782F35393946324634302D433337442D343246392D393639352D3334343245364234414242342F76657274696365732E62696E504B01021400140006080800BA683840F270F13306000000040000003600000000
310
000000000000000000621000006662782F35393946324634302D433337442D343246392D393639352D3334343245364234414242342F747269616E676C65732E62696E504B01021400140006080000BA6838400000000000000000000000003700000000000000000000000000BC1000006662782F35393946324634302D43
310
3337442D343246392D393639352D3334343245364234414242342F617474726962757465732E62696E504B01021400140006080800BA683840D5987DFC8F000000410100003600000000000000000000000000111100006662782F35393946324634302D433337442D343246392D393639352D333434324536423441424234
310
2F6469726563746F72792E786D6C504B01021400140006080800BA683840D57C3EE3FB000000A00100003B00000000000000000000000000F41100006662782F35393946324634302D433337442D343246392D393639352D3334343245364234414242342F7265736F75726365732F636F72652E786D6C504B050600000000
310
0E000E0080040000481300000000
  0
XRECORD
  5
17
102
{ACAD_REACTORS
330
12
102
}
330
12
100
AcDbXrecord
280
     1
270
     1
271
     1
  0
XRECORD
  5
16
102
{ACAD_REACTORS
330
12
102
}
330
12
100
AcDbXrecord
280
     1
270
     1
271
     1
  0
XRECORD
  5
18
102
{ACAD_REACTORS
330
12
102
}
330
12
100
AcDbXrecord
280
     1
270
     1
271
     1
  0
XRECORD
  5
15
102
{ACAD_REACTORS
330
12
102
}
330
12
100
AcDbXrecord
280
     1
270
     1
271
     1
  0
XRECORD
  5
891
102
{ACAD_REACTORS
330
22
102
}
330
22
100
AcDbXrecord
280
     1
102
MATERIAL
148
0.0
149
0.0
149
0.0
 93
        0
 94
      127
282
     0
 72
     0
 77
     0
171
     0
175
     0
179
     0
273
     0
  0
XRECORD
  5
24
102
{ACAD_REACTORS
330
22
102
}
330
22
100
AcDbXrecord
280
     1
270
     1
271
     1
  0
XRECORD
  5
23
102
{ACAD_REACTORS
330
22
102
}
330
22
100
AcDbXrecord
280
     1
270
     1
271
     1
  0
XRECORD
  5
BA
102
{ACAD_REACTORS
330
22
102
}
330
22
100
AcDbXrecord
280
     1
 70
     1
 90
1959938040
 71
     1
  1
C7279AD4-86DD-4311-90B9-189BB39278B6
311
504B03040A0000080000BA6838403DEE336E79000000790000001B0000006175746F6465736B2D64657369676E2D7061636B6167652E786D6C3C3F786D6C2076657273696F6E3D22312E302220656E636F64696E673D227574662D3822203F3E3C666F726D6174733E3C666F726D61743E687474703A2F2F736368656D612E
311
6175746F6465736B2E636F6D2F64657369676E2D7061636B6167652F323030393C2F666F726D61743E3C2F666F726D6174733E504B0304140006080800BA683840D486FD9CA0000000F4000000130000005B436F6E74656E745F54797065735D2E786D6C7D8EC10E82300C865F65E91D8A1E8C310C0EEA1BF002731658846E
311
D98AC1B77784ABF1D8FE5FBFBF75BBCE937A534CCEB38643598122B6FEE978D0B0485F9C41B54DDD7D022595594E1A469170414C76A4D9A4D207E29CF43ECE46F218070CC6BECC4078ACAA135ACF422C856C0E68EA1BF5669944DDD7BCDE7B1F8E415D77AECB980613C2E4AC91FC167A2B244592486606FC29C8FD7F045B9A
311
EF7053A7E60B504B0304140006080800BA68384049D3F40AE90000007C01000008000000636F72652E786D6C8D904D6EC3201085AF82668FCD8F9DB81626AA9CF604BD0002E2A2C46019A87AFCE2C491DA5D57333CDE37337AE2F43DDFD0975DA30B7E005A1140D6EB609C9F06C8E9823B402729D610D22F1B20AF663BC026
311
8314D31AF2B24B3AF8647D2AAA0FC6EEA28AD12640FA569A01A2FEB4B3AA544EC511AFD5A2F4554DB6A2CFAEC0393B831E4B9C29F3DCC5D91524E3ECD81ECE6F78ECC6236EF871C41D2704B3577E66A4797FE95827EA0D9622B9F9B95FAF56256B0A4F28C38462D67C50DE93B66FCBF3D01322EACDFE07CA8BF927949D4F9C
311
EDE73EB008929643EE1F52D45B16A5DC832A75CB4DFE00504B0304140006080800BA68384055019EA25F0000007C00000007000000636E782E786D6C4DCB3B0E80201045D1AD90E915ED2CF8AC45050C11660C8261F98AB1B07AC9C97D42D718D865D3E909258CFD00CCE24AC6E326A164D74DC0B4128928FF326038472BA1
311
3128B1252AC747C6BAB984FC68F0B87FE8960A5C09FE86CFB69FBA01504B0304140006080800BA6838401D93ABF065010000020300000C0000006662782F636F72652E786D6C8D525B6E833010BC8AE57FB03124A191715425ED097A01071C6A056C646C94E37779443455145548607676766607F8E1D6366850AED7D61438
311
892946CA94B6D2A62E70F09728C7E820B8B3D6FF6AC3C8C85615782C63C16B6743B7944A6BBC321EAAC6566A29CABE571EA3B2814381FBF25BB53296C143477F8D3B595E65ADE2240618FA04EFBD0303681619EF585CCE374EE6BAE021E86A4175056AFAA295C382A56CB7D99E3EA2637EDC4559BA3B46794A69C4DED313A3
311
D9E75BCE724E46B2E05EB77777A553D2AB0AF83461114D22967D25E99E6EF61B78DDEE29E5646C7F2085AEFA272968E353B6D89D693D16091899803FDB42441EF572003F44703286088F29E1C7A0211008D9CB7373DFE30AA54195DEBA0C90CA86151A641314A852345D9CCC284C9E06C0664FE7B017735ECF800F284D0DD6
311
A487E339F8519DCFAA4B149D72D1E06FC858D7CA6635375B5CEFABD0537A691BEBFEC326CBAA6409938C7FAFF801504B0304140006080800BA6838401A7D7F307E0000009D0000000B0000006662782F636E782E786D6C4DCCD10A83201886E15B91FFDC356752821AE5EC3E625948A6C3E5D8E5AF46073BFAE0E1E315CD67
311
F5E86DD3CBC520815CAE806C78C4D1855942DE265C036A9448316E7F37406158AD8483418939C5FC3C69B4D390FDB6AB776139D174E4C6EA9E605A71834BA3296E79C771D96B6D2ACA687B67502851FC4AFB1E61F505504B0304140006080800BA6838406DED0B532D01000014020000310000006662782F45423132353846
311
312D333739452D344543332D413942392D3446434345373335334144352F636F72652E786D6C8D51CB6EC32010FC15C4293DD80663E7254C94A4CE17F4071C4C1294182C1E553EBF4BED48ED2D17168699D9D12EDF3D8707FA56CE6B6B1A4C73829132D2F6DA5C1B1CC3255B63B413DC591BFED03032DDA01A9C602CF8D5D9
311
38CE90B42628130035B65733D879AF0246F20197067B79534397773100C3DFF3B193F7EEAA729AC337F004F7C141003435492716ED8196F5FA4433B6DAB459D51E59B6DF1C3659753A1EDB15ABD9FEB3E6C524143C46DDCF72DD431C7DD1CABD6B92C482073DBCE24BA7BAA07A2C4A42CB8CD0ACACBE28DB927A5BC373B925
311
841789FE4F14C7FE4D51D426B0728E3BC93C169417D387E0BD8DE7C72B8C7A8ED60594FA2DBC921F58909CB0BAACD6D58A17131506009ECB6AF6F4C13A18F0E27E0636853125E3652578917604E5778150D33EC50F504B0304140006080800BA68384093AF99D24C01000033030000300000006662782F4542313235384631
311
2D333739452D344543332D413942392D3446434345373335334144352F636E782E786D6CD593CD6EC23010845FC5F23DBF045421C7483DF4097AE8D5B1177071ECC83F5579FBAEC1502E1C7AECC54A663FCFAC4609DB7DCF867C810FDAD99176754B0958E994B68791A6B8AF5E28D971E69D8B0F182556CC30D22C53CE0EDE
311
A5A5480AF6229988AAD1F654440FC1252F21A09C6F12E3A4306800B64A28C23C8152A0C81DC4A73D785C05C5E94CE211C8DBEB0771D327C81858935D386B720667F92C490F1025D28810461AE41166518B149D8270AA9588A2EEEA5BD6939D7E9D48BE708B4C5E931C3ED27C525E36AAB147D6E090B3103DB657A0785E8072
311
B12C464B11B1E4E6025E19CE92B67133145663F11EE96EB31A0634BBCC388B7A8642480F2282A2BC6FBBBE6ABBAA1FDEBBD5B65D6FD7F8BAD9B62D6B32CED9E49C2997D006BC5B887436828D9477ACC9E367F5158E28EDB16BE7CF7F28120B28A9D776EE1EFFB99FE6F27D635D1EFF02FE03504B0304140006080800BA6838
311
40674593D99B0500007A100000340000006662782F45423132353846312D333739452D344543332D413942392D3446434345373335334144352F6F626A656374732E786D6CAD57DB6EDB3810FD1541FBEC8B6CE7E285A222B69BC228D206355AEC4300839228851B4A14482A75F6EBF750A264C9B513EFA22F96450D873367
311
CE5CE87FD865DC79A1523191DFB8DE70EC3A348F44CCF2F4C62D7532B8769D0F812F85D01D31D7C949466F5CB3EC067E2A4559D8A59826A4E4FA60F56EF197A3229A53D7893851EAC655D113CDC890945AC4543D0F63A2C9304D76436F580BF6D5A692144F074A0B2269AE6129D67368716AA3BCFEEBD81D05FEC87C0F7CF3
311
6BA5A6A7A546953FFDF359AE34C9A35F0E3B5033F566AB8F938BF9E062369B0E6697136FB0B85BAC06DED574BCBC5C2EE7B71FE7385869094DD612491337F8046C248BFC51FD29F04B96EBE9C48AD8008D247D6126526E30713C7F54CBB4DE59278F991F893CA7518515D0A8FCB3AA635AD03C46CC1955B0AC83D0B8FFEA19
311
1C3B9FA7E6DD1ED95D3E0F81EE8E8EA2C6F6E6D9B554847FC305750E83A4A286813596D6D19AABE33DC2A110DC7E63CAC988A69211EE70164A225FDD00A24624F07B6A0C93A5C906E3811B200AF5E73E5D9046EFF3FC989549C9B9A1B11B5459B045AE50AD2ACBD83F54EEADEF22039B102BC3866BEB907E2DA81BCC6B8A5C
311
1FB0A906D24938491172B869764E27078E2E4D9EAE576EF0F92EDC6D4CEE1E3FBC90A2A0521BFA805A4DE09AA741C9DAE49D1539B3C13D30650FCA3720FF05A9BE370571936C37DBCDEC295A925C254266888D33760663FC8C1DAFFA35FF3BFFFC51BBB91FBD537822D806AADF8067DF876E2C3B7006FE0B082FE4D4BAB689
311
0847D9B8673900322471B8C012EA7012EEDC608D2A87AA8C5D84071E5C86B92FF8EB8FAC1A148AEAA4CE3307960765F18C020DD82A46C28C9AFCD6C07D9C7E2967D5C156EC14BC17BF85AEB7ABCDE74D291312D17B9BD32B9AB09C69B4B83D6FBA06F530EF79F44C5F7F0A19C3D15FF1DE74F1CEEC510A681BCC0DF06953D3
311
CDCBFEE4DE0111F6A5C2941BFF9D13E08469AC1DFDF74C45947392535136E7BED93FD0366A884DB21B26B70D66DF58409AFACB410EA24947921506C4B65BB5457378C2BBEFEB2F6024E4B90809DF0B85FBD21B092EE4367CDDD655E928D23FFAD4B6108C8C16B0BDCA9126FD2DE6DB982549A950038FC0FA63BDEC86CE5405
311
5488466B9D2C33B88FDC22D272B6D18B662D091AA9C8B70C6D136977F480AE7E206A0950293C65B1A23CD932CECB6C9B308E66B4CD4871028EFF6F7F5866C59664A2CCF509DD3DD3D11CFAB6F7C8AB7E121D3DB9C1A67A0E1628BD318DF761EE099B567204AB5E68975793ABF9ED6A36B8BE5CAD06B3A9E70DE6E3C57CE05D
311
CF178BE97C7275BDB86CE2542B0FFCA6D374131A514267F34BC96CF8BEAF913EB606B8C13DD1EAF1539D9DCDF3FB7A8851D81F610FDA65BBF1367EC1D847E3F715EC258F2A5A6705A719CD353129746FFEF06F046346CF987A7D9D91949EA1E5EBA7CD8133583963DF834977FAF360AF5D5D9A843CAA443F95599813C60F36
311
A63592C3224F2D7E4D4CDA67DD679A57F3660383C15409CE6294C1D849A9C8A846313CA307C98C2A50AF3BD2C7F6EA71C6EE977A40D424E4B4B1E4896046E60A69016A9591EEAF3B7F60A63363D58D8B6E3B7CC68FAD14AE03CEDCB898D1358BA81A86E8CF6612AA94834BDD411E733FC9538E51BBDED4BEB7BB0C36BD8EDC
311
8A9C333E59BFEA0A6E1D4019293036601E42742A6302BFB2CD7E8FFE93E38D390ED1F81B96BAF565BFD03A531D8314AD9DB29705CC30CFF6E81D12F56DB7BC6125D343E4AC4BD69B24A8B50E349169755130F659936E570F230C28CEFAAB53F032452CCFD7349014642E4D8283456085D559100DAA2EFF7C7C900217D9CCB9
311
63A0C0E3526499C8EDCBADBD083B9B275C6BE34794056AEE23EA7132F6268FD53DC05E4DB62151744862F58C05C454B216E25EE0C1C8FAB2880E547F68E546260807DC5CAF1CDBD266506A89D2ADAA06164C1C3975903DE62E6972A52B50BC79151855A2304162880FFE05504B0304140006080000BA683840000000000000
311
000000000000350000006662782F45423132353846312D333739452D344543332D413942392D3446434345373335334144352F76657274696365732E62696E504B0304140006080800BA683840F270F1330600000004000000360000006662782F45423132353846312D333739452D344543332D413942392D344643434537
311
3335334144352F747269616E676C65732E62696E636660600000504B0304140006080000BA683840000000000000000000000000370000006662782F45423132353846312D333739452D344543332D413942392D3446434345373335334144352F617474726962757465732E62696E504B0304140006080800BA683840D598
311
7DFC8F00000041010000360000006662782F45423132353846312D333739452D344543332D413942392D3446434345373335334144352F6469726563746F72792E786D6C858F410EC2201045AF4266AF15DDB800BA74E7C21B903225242D6328188F2FA5C4183471359997F9FF81E89FF3C41E1816475E02DF1F80A11FC838
311
6F25A438EECEC07A250251FC3803E6F58C12560C4AD840E95E91C151A72936F496F35732D860FE635F62C8F2DA16B505C545B74125BAA2FA9E05D7CC053D063734D5C7665FD55B6B8D15D5E9BFEAFD8490FFA45E504B0304140006080800BA6838405A78DA92FA000000A00100003B0000006662782F45423132353846312D
311
333739452D344543332D413942392D3446434345373335334144352F7265736F75726365732F636F72652E786D6C8D505B6E842014DD8AE11F45D0D11A64D268BA826E80E01D4B6604C3A3E9F20BA34DDABFFE70B9E7917B72F8F56B7B149FE0BCB666447549500146D9459B754431DC708F8AABE0CEDAF04B860A23371851
311
8691E0ABB3713F21654D0013126AEC022728BD87800AF5489F1179F5019B2C650C49E1EFE52ED55DAE50D665A2934E701F5C0A501C47F28B84036FA353E07975B082C7A89753A3977453DF34382428A35D7B99673CF553871BD64DB8678460FACA664A9AB7979EF6BCCA66C183DE7E322A0732C092FCA4A698D49836EF351B
311
483BB469BD0C84F02ACBFF98E2BEFCD314B5098C9E710F9B47A24E419E84E055EE2B8D679969E66EC537504B010214000A0000080000BA6838403DEE336E79000000790000001B00000000000000000000000000000000006175746F6465736B2D64657369676E2D7061636B6167652E786D6C504B01021400140006080800
311
BA683840D486FD9CA0000000F40000001300000000000000000000000000B20000005B436F6E74656E745F54797065735D2E786D6C504B01021400140006080800BA68384049D3F40AE90000007C010000080000000000000000000000000083010000636F72652E786D6C504B01021400140006080800BA68384055019EA2
311
5F0000007C000000070000000000000000000000000092020000636E782E786D6C504B01021400140006080800BA6838401D93ABF065010000020300000C00000000000000000000000000160300006662782F636F72652E786D6C504B01021400140006080800BA6838401A7D7F307E0000009D0000000B00000000000000
311
000000000000A50400006662782F636E782E786D6C504B01021400140006080800BA6838406DED0B532D0100001402000031000000000000000000000000004C0500006662782F45423132353846312D333739452D344543332D413942392D3446434345373335334144352F636F72652E786D6C504B010214001400060808
311
00BA68384093AF99D24C010000330300003000000000000000000000000000C80600006662782F45423132353846312D333739452D344543332D413942392D3446434345373335334144352F636E782E786D6C504B01021400140006080800BA683840674593D99B0500007A10000034000000000000000000000000006208
311
00006662782F45423132353846312D333739452D344543332D413942392D3446434345373335334144352F6F626A656374732E786D6C504B01021400140006080000BA68384000000000000000000000000035000000000000000000000000004F0E00006662782F45423132353846312D333739452D344543332D41394239
311
2D3446434345373335334144352F76657274696365732E62696E504B01021400140006080800BA683840F270F13306000000040000003600000000000000000000000000A20E00006662782F45423132353846312D333739452D344543332D413942392D3446434345373335334144352F747269616E676C65732E62696E50
311
4B01021400140006080000BA6838400000000000000000000000003700000000000000000000000000FC0E00006662782F45423132353846312D333739452D344543332D413942392D3446434345373335334144352F617474726962757465732E62696E504B01021400140006080800BA683840D5987DFC8F000000410100
311
003600000000000000000000000000510F00006662782F45423132353846312D333739452D344543332D413942392D3446434345373335334144352F6469726563746F72792E786D6C504B01021400140006080800BA6838405A78DA92FA000000A00100003B00000000000000000000000000341000006662782F45423132
311
353846312D333739452D344543332D413942392D3446434345373335334144352F7265736F75726365732F636F72652E786D6C504B0506000000000E000E0080040000871100000000
310
504B03040A0000080000BA6838403DEE336E79000000790000001B0000006175746F6465736B2D64657369676E2D7061636B6167652E786D6C3C3F786D6C2076657273696F6E3D22312E302220656E636F64696E673D227574662D3822203F3E3C666F726D6174733E3C666F726D61743E687474703A2F2F736368656D612E
310
6175746F6465736B2E636F6D2F64657369676E2D7061636B6167652F323030393C2F666F726D61743E3C2F666F726D6174733E504B0304140006080800BA683840D486FD9CA0000000F4000000130000005B436F6E74656E745F54797065735D2E786D6C7D8EC10E82300C865F65E91D8A1E8C310C0EEA1BF002731658846E
310
D98AC1B77784ABF1D8FE5FBFBF75BBCE937A534CCEB38643598122B6FEE978D0B0485F9C41B54DDD7D022595594E1A469170414C76A4D9A4D207E29CF43ECE46F218070CC6BECC4078ACAA135ACF422C856C0E68EA1BF5669944DDD7BCDE7B1F8E415D77AECB980613C2E4AC91FC167A2B244592486606FC29C8FD7F045B9A
310
EF7053A7E60B504B0304140006080800BA683840D23CDA05EA0000007C01000008000000636F72652E786D6C8D904D6EC3201085AF82668F0D38B1630B13597572825E0001715062B00C543D7E717EA476D7D50C8FF7CD8C1E3F7ECF77F465D660BDEB8116049071CA6BEBA61E52BCE003A0A3E0ABF7F1970D9093B3E96193
310
41F069F5697949CABB685CCCAAF3DABC4419828980D43D373D047535B32C648AD9116EC522D54D4EA6A0EF2EC329598D9E4BACCEF3ECC59A15C47938D71F87B6C5CD6918F18E1182879A513CB6634B9AA63D5563C3CB0D163CDAF9BD5FAD4646A3413042192614B3DD27AD3AB2EFF6F9597784F072B3FF81D2A2FF0925EB62
310
C55EE73EB10082E6431E1F82975B16B93C82CA75CB4DFC00504B0304140006080800BA68384055019EA25F0000007C00000007000000636E782E786D6C4DCB3B0E80201045D1AD90E915ED2CF8AC45050C11660C8261F98AB1B07AC9C97D42D718D865D3E909258CFD00CCE24AC6E326A164D74DC0B4128928FF326038472B
310
A13128B1252AC747C6BAB984FC68F0B87FE8960A5C09FE86CFB69FBA01504B0304140006080800BA683840236CD35C66010000020300000C0000006662782F636F72652E786D6C8D52ED8E8230107C95A6FFA1053F10536ACCA14F702F50A1728DD092D2121FFF960FC37931C69040D9D9D9991D60877B53A35EDA4E199DE1
310
28A418495D9852E92AC3DE5D831D4607CEAC31EE4F1B465A3432C34319735659E3DBB95418EDA47650D5A6947351749D741815351C32DC153FB211A1F00E3ABA5BD88AE2262A194621C0D0C759E72C184093C870C7FC7AB93332D539F35E9533AA4A505357252DE6E7E379FBB54BD320391DF3601D531A1CB77114E4699ED2
310
24494FAB3C61642073E654F3705758299C2C318F691407340AE2F577B4DAD3CD7E03AFDB3DA58C0CED4F24DF961F92BCD26E15CF76275A8779044646E0DFB61091439DE8C10FE18C0C21C2634CF8396808044276E2523FF6B841A9978533760D4869FC02F5A2F61254291A2F462614268F0360B39773E23773DECF800F2874
310
05D68483E3C5BB419D4DAA7314ADB441EFEE481BDB887A3137595CEE8BD04B7A616A633F6193795532874986BF97FF02504B0304140006080800BA683840FD8997FE7E0000009D0000000B0000006662782F636E782E786D6C4DCCD10A83201886E15B91FFDC95EB471CA85173DD472C0B99E9703A76F9ABD1C18E3E78F878
310
65FB593D79DBF472312860A71A880DF738B9B0282879A60248AB658A31FFDD808471B50A76062D9714CBF3A0C9CE63F17953EFC2E34051771D0A44DA9F0DA7C8D9955E44C328323370D30CE6D623545A56BFD2B67B587F01504B0304140006080800BA683840F774C15E2A01000014020000310000006662782F3830414134
310
3834342D423244362D343631432D393833312D3431444636443346444542342F636F72652E786D6C8D514B6EC32014BC0A62952E6C834D2CC7C24449DD9CA01720405294182C3E558E5FA81DA9DD65C3836166DEE83DBA7F4C77F0AD9CD7D60C10970802658495DA5C0718C3A5E820D833EAAC0D7F6810183EA9016618327A
310
7536CE2B24AC09CA84841A2BD50A72EF558040DCD365805E7CA989973C86C4F0B772E6E2C6AFAAC465FA4E3C467D702900589AE413B20E1D0EA423A438D6635B9016BF17BBAEC105C1E3A91D9BD3F87124B45A848CC6A8E52AD732C5D117ADDCAB2659CC68D0D333BE708A072521AB11AE0B848B9A7CE2A647DB7E9B9E6D8F
310
10AD32FD9F28CEF24551D42634F51A779179C830AD960F46A58DE7FB338C7ACCD60590FB6DBC126F90A112353BDC357547AB859A06903C5BB27AFA605D1AF0E6764EEC66356E09A355DE512ABF0B4C35EF93FD00504B0304140006080800BA683840F50856C55401000033030000300000006662782F38304141343834342D
310
423244362D343631432D393833312D3431444636443346444542342F636E782E786D6CBD93CD6EC32010845F0571F76F1C2B8A30917AE813F4D02B864D4283C1025C356FDF2521692E3954AA7A41F6EC30B3FA64B3DDD764C827F8A09D1D6853D69480954E697B18E812F7C586921D67DEB9F860A3C48A09069A64CAD9C1BB
310
65CE9282BD584C44D5687BCAA287E0162F21A09C6E12E3A4301800B65850846904A54091BB119FF6E0711514C733894720AF2FEFC48D1F206360554AE1AC4A1D9CA533373D982891468430D0208F3089522CD12908A7528928CAA6BC753DD9E92789A40BB7CAC56B92CA079A4ECAF346257264150E390BD123BD6C8AE71928
310
17F36CB41411215717E3D5C3D9A26DECBBECD508DEA37BD5F69B0D865D669C453D4176480F2282A2BCAD9BB6A89BA2EDDE9AD5B65E6FD7F8DA6FEB9A55C9CED9E89CC9973006BC9B897436828D9437AC4AE367F8B28F28ED91B5F3E75F804400B9F54AE79EF1977C9A7ED575FFC8A7BA7CDF88CBE35FC0BF01504B03041400
310
06080800BA683840B5C7373F58070000931B0000340000006662782F38304141343834342D423244362D343631432D393833312D3431444636443346444542342F6F626A656374732E786D6CED595B6FA33814FE2B887D0E0949DA695694519B4CAB68D599D16467B40F9590030EF5D618649B5EF6D7EFF1050234B464A7FB
310
360F0960ECE373BE73F521F8F89451E70173417276EEFADEC475308BF384B0F4DC2DE56E74E63A1FC380E7B96C4C731D86327CEEAA61370C529E97851D4AF00E95547646AF2EFF72448C19769D982221CE5D11DFE10C79A8947982C5BD972089BC74F7E4F99E99D8269B7254DC7588168863268153186740C5314CF9EDC789
310
3B0E83B17A1F06EADFCE9A0D9A35EF9F35D652B7B9244C48C4E2172C75C8CC06B134F3E7AB4FD393C5E8643E9F8DE6A7537F747975B91AF91F6693E5E972B9B8F8B400F6B6794EAD4C092E304B407FCF6EE80763F5A616DD227088EB38670CC71A48804A8BD52548B080AD1AF04DDA8FBE92A8F15A4BD8789EABF79685C6F0
310
AC4DA56FD630205A744110BB5D2571756DCA976FFF06C1C510A3E4024BE056480EDAB5F070F00A379C0463331A06DBBD2E887032243127883A946C39E2A01498AAA684815960C928E7E040CA511268CD99D76DDB02CF7CDB750E71B92B29559EE186DAB122703F2C85E68CFC83F99EFB2632C013485B1226CF2C97F2B9C06E
310
B808C67A300CD46536B52F0D90CE8EA2546844CCDB8EA04BE5FAEB951BFE71B57DDAA8707078F382E705E652199DD2A3E60B0CD95E154A765B7F90E6D40210C6806A57EE41F906C87F86E8B16705F4C6C9D3FC696EE74A8E98D8E53C03DD3813673481BF89E3EB7F75DFB80BC6F5E2B6F6FAF0043755509DFD3C9E6D193456
310
96FF069C61F000069FF3997DB58911057BBE210C005246E2D01C8620B4EFB64F6EB886C009811E56211AFA2032B0FB00B7C1D892D96BA5722FEB750C10B57BCC86280960D316096CF4E8E91AB20727F15E4D4D11FBE03D791773BD586DFED8947C87627C637D7A857784110959F330432DCC5B12DDE3E7C79C2720E84BBC37
310
4DBC33BB9500B415E60AF8B402413DEC776E6D10C3BA3457E1267863071042E5EA06FD1B22624C2962382FAB7DEBE8A60CB5F6785B33B8E1D4403C9B764C98E307A2AA0A709AFD8C16A390F7634E0A05A21B5E1BC9EAA0E9F548F77DFD192CB29EDF336BCD20F43244FFD441EB000E2DCBAE90B640D4026FF7E13CCE69CEA3
310
ED7364229D0BB504B0D1F6961F2DA210EB8D921415F020ED775548498DB4514276BB52405C3DC0E28FF5B2690E136FE69F38CDFF8E33CE21DA82EF226EFDAEB347443294E2688792BEED9ABBD5B48526D9439AE31D05B9C80391CF1192D124C1E931D01C457CF1AED4539A0B41181690AF0E82DF4463E2412031DAAC58565A
310
ED004D44946189E8310828323DE0EAB4A36BDC184A87B779ACADF7358D3589FE4F16C111D492398B0894A29043DE64DCF74E2086B4D1352877F0056BAB686B3168092544FC1C3D6292DEC9635037E47B708FE14852CA282F500C663D80EC0B5F514AEDF0BE45F1BDCA1F515CD2F7321081E92E22949659043FC2E0E431C4B5
310
EBC0F42A0A0DE226F6499C41518664C9876C727A3279B18FA919BA21B0B1D18E5008DB51868A1ED45B0151D7234E0DBEA5DEA3D46D991511CAF2920D32146FD6F5264BBEAB56457620BFAA5484B2B1226C09860161B2CEAA55CC0653D78115DC4807AAE748A0ACA0E614F646E2F16B6FD2947B37E0D64FDF77830C0ABF1EED
310
3523EABC82C1F2D82A0CC42392F19D1B6EF4757409F57782937DAAAF6ACD66050888A9485E726255F47D0DE58DADD1DCF00649717B6DB26E75FDBEF6A0FB118C610DD42EF5C2B5023AC34C225599DCA81BFA0D41086ED130E36B95538FA1729124BA6A44F48AF4A9B35546B436CD8857DC619667F063B784C5B44CF02D4AC4
310
7D742369B4218A752BA597910AE35705FC72BDE9C003230344FAAA0A3CFCD8596B4797AA5C3A4844DE95D996210241B0255A6A74E3152CB51AA9B45C5FD59902EA2E3030ABE2F9AF9345B31DF1EB64915AC3F8B99305CDB788EEA34D239BC7CAAC8F3A05D4E94951798F5380EE3AD454EB246272B915DFFA520431B10AF283
310
8BB12A6618827D1CFFE7A4DD9704CD761DFE8F4BDAFE8B82E3A8A4D29AAC9A54070AD77533852D3F4C3F2C2E56F3D1D9E96A359ACF7C7FB4985C2E46FED9E2F272B6987E38BB3CADD1D47E1A06752CD3A90B9E4D4CAB86D593C5009AB222A72481C37CE2A41842BE8423FD80EE39CFB080DCD9EC7527B6273F60F58369734A
310
B4A5B8E2E40E417F980AC8EA805119CBF6B8F31B7426259CB3CF5DE81979F7F067ADD27520F19CBBD0299024C6C2DB429749F5F33471C8B83AF55B62800F62A9CA886651FD5CAF52D8B4A27F3D654816B072B55A1850B715D0FC6A3528346F96A7F828C12B761C24E1765B4A28D68C2CFB815A18BDCD5EFD46364AD8BDDDFA
310
095CF775B17C4FCF692132E88BC1AB4660A88E24E2A96E772BC62C4B17ABAF6368B339EB2F4E41CB1474399CD2886330E652D553604560159666812498EAF2F7DBAF3C872F3C99A38BA2DB659E6539B30F17701C4BE00B91B3B983EF3DC92D540D5875D5C5ED74E24F6F7537DB36D8A32D12D853E5100C54558412A1636C60
310
912F3A53B66F39564AE84C5FAF1C1B3EA10B602CE84573D77CDD72C07BD47714E52BDAC32B395F6D688FF554B0060EADE8F05F504B0304140006080000BA683840000000000000000000000000350000006662782F38304141343834342D423244362D343631432D393833312D3431444636443346444542342F7665727469
310
6365732E62696E504B0304140006080800BA683840F270F1330600000004000000360000006662782F38304141343834342D423244362D343631432D393833312D3431444636443346444542342F747269616E676C65732E62696E636660600000504B0304140006080000BA68384000000000000000000000000037000000
310
6662782F38304141343834342D423244362D343631432D393833312D3431444636443346444542342F617474726962757465732E62696E504B0304140006080800BA683840D5987DFC8F00000041010000360000006662782F38304141343834342D423244362D343631432D393833312D3431444636443346444542342F64
310
69726563746F72792E786D6C858F410EC2201045AF4266AF15DDB800BA74E7C21B903225242D6328188F2FA5C4183471359997F9FF81E89FF3C41E1816475E02DF1F80A11FC8386F25A438EECEC07A250251FC3803E6F58C12560C4AD840E95E91C151A72936F496F35732D860FE635F62C8F2DA16B505C545B74125BAA2FA
310
9E05D7CC053D063734D5C7665FD55B6B8D15D5E9BFEAFD8490FFA45E504B0304140006080800BA683840C197F49DFC000000A00100003B0000006662782F38304141343834342D423244362D343631432D393833312D3431444636443346444542342F7265736F75726365732F636F72652E786D6C8D50596EC32010BD8A35
310
FFD840122F1126B2EAE404BD00C29314258688A5EAF18B63576AFFFAC3306FD13C3D71FA9A1FC527FA609CED8195140AB4DA4DC6DE7A48F14A5A284E5278E7E22F191456CDD8C302831437EFD27383B4B3116DCCA875136EA00A012314FA913F3D04FD81B32A558A5911EEE553E9BBBA61C9CA4C679D1421FA1CA0588F2C2F
310
488FC125AF31886A65A548C94C9BC64CF9A6B91AF4202FC3A57E6BBB9634E761247B4E29196ACEC8D88D1D6D9AEEBC1B1B512D6629A2997F326A8F2AE2049253C6096584EFDFD9EE480FC7435EEB23A5A25AE47F4CE939FDD3948C8D3BBEC55D6D0124CB415E8414D5D2571EAF32F35CBA95DF504B010214000A0000080000
310
BA6838403DEE336E79000000790000001B00000000000000000000000000000000006175746F6465736B2D64657369676E2D7061636B6167652E786D6C504B01021400140006080800BA683840D486FD9CA0000000F40000001300000000000000000000000000B20000005B436F6E74656E745F54797065735D2E786D6C50
310
4B01021400140006080800BA683840D23CDA05EA0000007C010000080000000000000000000000000083010000636F72652E786D6C504B01021400140006080800BA68384055019EA25F0000007C000000070000000000000000000000000093020000636E782E786D6C504B01021400140006080800BA683840236CD35C66
310
010000020300000C00000000000000000000000000170300006662782F636F72652E786D6C504B01021400140006080800BA683840FD8997FE7E0000009D0000000B00000000000000000000000000A70400006662782F636E782E786D6C504B01021400140006080800BA683840F774C15E2A010000140200003100000000
310
0000000000000000004E0500006662782F38304141343834342D423244362D343631432D393833312D3431444636443346444542342F636F72652E786D6C504B01021400140006080800BA683840F50856C554010000330300003000000000000000000000000000C70600006662782F38304141343834342D423244362D34
310
3631432D393833312D3431444636443346444542342F636E782E786D6C504B01021400140006080800BA683840B5C7373F58070000931B00003400000000000000000000000000690800006662782F38304141343834342D423244362D343631432D393833312D3431444636443346444542342F6F626A656374732E786D6C
310
504B01021400140006080000BA6838400000000000000000000000003500000000000000000000000000131000006662782F38304141343834342D423244362D343631432D393833312D3431444636443346444542342F76657274696365732E62696E504B01021400140006080800BA683840F270F1330600000004000000
310
3600000000000000000000000000661000006662782F38304141343834342D423244362D343631432D393833312D3431444636443346444542342F747269616E676C65732E62696E504B01021400140006080000BA6838400000000000000000000000003700000000000000000000000000C01000006662782F3830414134
310
3834342D423244362D343631432D393833312D3431444636443346444542342F617474726962757465732E62696E504B01021400140006080800BA683840D5987DFC8F000000410100003600000000000000000000000000151100006662782F38304141343834342D423244362D343631432D393833312D34314446364433
310
46444542342F6469726563746F72792E786D6C504B01021400140006080800BA683840C197F49DFC000000A00100003B00000000000000000000000000F81100006662782F38304141343834342D423244362D343631432D393833312D3431444636443346444542342F7265736F75726365732F636F72652E786D6C504B05
310
06000000000E000E00800400004D1300000000
  0
XRECORD
  5
27
102
{ACAD_REACTORS
330
22
102
}
330
22
100
AcDbXrecord
280
     1
270
     1
271
     1
  0
XRECORD
  5
26
102
{ACAD_REACTORS
330
22
102
}
330
22
100
AcDbXrecord
280
     1
270
     1
271
     1
  0
XRECORD
  5
28
102
{ACAD_REACTORS
330
22
102
}
330
22
100
AcDbXrecord
280
     1
270
     1
271
     1
  0
XRECORD
  5
25
102
{ACAD_REACTORS
330
22
102
}
330
22
100
AcDbXrecord
280
     1
270
     1
271
     1
  0
XRECORD
  5
88C
102
{ACAD_REACTORS
330
88B
102
}
330
88B
100
AcDbXrecord
280
     1
102
ACAD_ROUNDTRIP_2012_MLEADER_STYLE
298
     1
  0
CELLSTYLEMAP
  5
88A
102
{ACAD_REACTORS
330
889
102
}
330
889
100
AcDbCellStyleMap
 90
        3
300
CELLSTYLE
  1
TABLEFORMAT_BEGIN
 90
        5
170
     1
 91
        0
 92
    32768
 62
   257
 93
        1
300
CONTENTFORMAT
  1
CONTENTFORMAT_BEGIN
 90
        0
 91
        0
 92
      512
 93
        0
300

 40
0.0
140
1.0
 94
        5
 62
     0
340
55
144
0.25
309
CONTENTFORMAT_END
171
     0
 94
        0
309
TABLEFORMAT_END
  1
CELLSTYLE_BEGIN
 90
        1
 91
        1
300
_TITLE
309
CELLSTYLE_END
300
CELLSTYLE
  1
TABLEFORMAT_BEGIN
 90
        5
170
     1
 91
        0
 92
        0
 62
   257
 93
        1
300
CONTENTFORMAT
  1
CONTENTFORMAT_BEGIN
 90
        0
 91
        0
 92
      512
 93
        0
300

 40
0.0
140
1.0
 94
        5
 62
     0
340
55
144
0.18
309
CONTENTFORMAT_END
171
     0
 94
        0
309
TABLEFORMAT_END
  1
CELLSTYLE_BEGIN
 90
        2
 91
        1
300
_HEADER
309
CELLSTYLE_END
300
CELLSTYLE
  1
TABLEFORMAT_BEGIN
 90
        5
170
     1
 91
        0
 92
        0
 62
   257
 93
        1
300
CONTENTFORMAT
  1
CONTENTFORMAT_BEGIN
 90
        0
 91
        0
 92
      512
 93
        0
300

 40
0.0
140
1.0
 94
        2
 62
     0
340
55
144
0.18
309
CONTENTFORMAT_END
171
     0
 94
        0
309
TABLEFORMAT_END
  1
CELLSTYLE_BEGIN
 90
        3
 91
        2
300
_DATA
309
CELLSTYLE_END
  0
XRECORD
  5
8C2
102
{ACAD_REACTORS
330
889
102
}
330
889
100
AcDbXrecord
280
     1
102
ACAD_ROUNDTRIP_PRE2007_TABLESTYLE
 90
      512
 91
        0
  1

 92
      512
 93
        0
  2

 94
      512
 95
        0
  3

  0
XRECORD
  5
89D
102
{ACAD_REACTORS
330
89C
102
}
330
89C
100
AcDbXrecord
280
     1
102
RTVSPropertyOp0
 70
     1
102
RTVSPropertyOp1
 70
     1
102
RTVSPropertyOp2
 70
     1
102
RTVSPropertyOp3
 70
     1
102
RTVSPropertyOp4
 70
     1
102
RTVSPropertyOp5
 70
     1
102
RTVSPropertyOp6
 70
     1
102
RTVSPropertyOp7
 70
     1
102
RTVSPropertyOp8
 70
     1
102
RTVSPropertyOp9
 70
     1
102
RTVSPropertyOp10
 70
     1
102
RTVSPropertyOp11
 70
     1
102
RTVSPropertyOp12
 70
     1
102
RTVSPropertyOp13
 70
     1
102
RTVSPropertyOp14
 70
     1
102
RTVSPropertyOp15
 70
     1
102
RTVSPropertyOp16
 70
     1
102
RTVSPropertyOp17
 70
     1
102
RTVSPropertyOp18
 70
     1
102
RTVSPropertyOp19
 70
     1
102
RTVSPropertyOp20
 70
     1
102
RTVSPropertyOp21
 70
     1
102
RTVSPropertyOp22
 70
     1
102
RTVSPropertyOp23
 70
     1
102
RTVSPropertyOp24
 70
     1
102
RTVSPropertyOp25
 70
     1
102
RTVSPropertyOp26
 70
     1
102
RTVSPropertyOp27
 70
     1
102
RTVSPropertyOp28
 70
     1
102
RTVSPropertyOp29
 70
     1
102
RTVSPropertyOp30
 70
     1
102
RTVSPropertyOp31
 70
     1
102
RTVSPropertyOp32
 70
     1
  0
XRECORD
  5
89B
102
{ACAD_REACTORS
330
89A
102
}
330
89A
100
AcDbXrecord
280
     1
102
RTVSPropertyOp0
 70
     1
102
RTVSPropertyOp1
 70
     1
102
RTVSPropertyOp2
 70
     1
102
RTVSPropertyOp3
 70
     1
102
RTVSPropertyOp4
 70
     1
102
RTVSPropertyOp5
 70
     1
102
RTVSPropertyOp6
 70
     1
102
RTVSPropertyOp7
 70
     1
102
RTVSPropertyOp8
 70
     1
102
RTVSPropertyOp9
 70
     1
102
RTVSPropertyOp10
 70
     1
102
RTVSPropertyOp11
 70
     1
102
RTVSPropertyOp12
 70
     1
102
RTVSPropertyOp13
 70
     1
102
RTVSPropertyOp14
 70
     1
102
RTVSPropertyOp15
 70
     1
102
RTVSPropertyOp16
 70
     1
102
RTVSPropertyOp17
 70
     1
102
RTVSPropertyOp18
 70
     1
102
RTVSPropertyOp19
 70
     1
102
RTVSPropertyOp20
 70
     1
102
RTVSPropertyOp21
 70
     1
102
RTVSPropertyOp22
 70
     1
102
RTVSPropertyOp23
 70
     1
102
RTVSPropertyOp24
 70
     1
102
RTVSPropertyOp25
 70
     1
102
RTVSPropertyOp26
 70
     1
102
RTVSPropertyOp27
 70
     1
102
RTVSPropertyOp28
 70
     1
102
RTVSPropertyOp29
 70
     1
102
RTVSPropertyOp30
 70
     1
102
RTVSPropertyOp31
 70
     1
102
RTVSPropertyOp32
 70
     1
  0
XRECORD
  5
8A9
102
{ACAD_REACTORS
330
8A8
102
}
330
8A8
100
AcDbXrecord
280
     1
102
RTVSPropertyOp0
 70
     1
102
RTVSPropertyOp1
 70
     1
102
RTVSPropertyOp2
 70
     1
102
RTVSPropertyOp3
 70
     1
102
RTVSPropertyOp4
 70
     1
102
RTVSPropertyOp5
 70
     1
102
RTVSPropertyOp6
 70
     1
102
RTVSPropertyOp7
 70
     1
102
RTVSPropertyOp8
 70
     1
102
RTVSPropertyOp9
 70
     1
102
RTVSPropertyOp10
 70
     1
102
RTVSPropertyOp11
 70
     1
102
RTVSPropertyOp12
 70
     1
102
RTVSPropertyOp13
 70
     1
102
RTVSPropertyOp14
 70
     1
102
RTVSPropertyOp15
 70
     1
102
RTVSPropertyOp16
 70
     1
102
RTVSPropertyOp17
 70
     1
102
RTVSPropertyOp18
 70
     1
102
RTVSPropertyOp19
 70
     1
102
RTVSPropertyOp20
 70
     1
102
RTVSPropertyOp21
 70
     1
102
RTVSPropertyOp22
 70
     1
102
RTVSPropertyOp23
 70
     1
102
RTVSPropertyOp24
 70
     1
102
RTVSPropertyOp25
 70
     1
102
RTVSPropertyOp26
 70
     1
102
RTVSPropertyOp27
 70
     1
102
RTVSPropertyOp28
 70
     1
102
RTVSPropertyOp29
 70
     1
102
RTVSPropertyOp30
 70
     1
102
RTVSPropertyOp31
 70
     1
102
RTVSPropertyOp32
 70
     1
  0
XRECORD
  5
8B1
102
{ACAD_REACTORS
330
8B0
102
}
330
8B0
100
AcDbXrecord
280
     1
102
RTVSPropertyOp0
 70
     1
102
RTVSPropertyOp1
 70
     1
102
RTVSPropertyOp2
 70
     1
102
RTVSPropertyOp3
 70
     1
102
RTVSPropertyOp4
 70
     1
102
RTVSPropertyOp5
 70
     1
102
RTVSPropertyOp6
 70
     1
102
RTVSPropertyOp7
 70
     1
102
RTVSPropertyOp8
 70
     1
102
RTVSPropertyOp9
 70
     1
102
RTVSPropertyOp10
 70
     1
102
RTVSPropertyOp11
 70
     1
102
RTVSPropertyOp12
 70
     1
102
RTVSPropertyOp13
 70
     1
102
RTVSPropertyOp14
 70
     1
102
RTVSPropertyOp15
 70
     1
102
RTVSPropertyOp16
 70
     1
102
RTVSPropertyOp17
 70
     1
102
RTVSPropertyOp18
 70
     1
102
RTVSPropertyOp19
 70
     1
102
RTVSPropertyOp20
 70
     1
102
RTVSPropertyOp21
 70
     1
102
RTVSPropertyOp22
 70
     1
102
RTVSPropertyOp23
 70
     1
102
RTVSPropertyOp24
 70
     1
102
RTVSPropertyOp25
 70
     1
102
RTVSPropertyOp26
 70
     1
102
RTVSPropertyOp27
 70
     1
102
RTVSPropertyOp28
 70
     1
102
RTVSPropertyOp29
 70
     1
102
RTVSPropertyOp30
 70
     1
102
RTVSPropertyOp31
 70
     1
102
RTVSPropertyOp32
 70
     1
  0
XRECORD
  5
8A3
102
{ACAD_REACTORS
330
8A2
102
}
330
8A2
100
AcDbXrecord
280
     1
102
RTVSPropertyOp0
 70
     1
102
RTVSPropertyOp1
 70
     1
102
RTVSPropertyOp2
 70
     1
102
RTVSPropertyOp3
 70
     1
102
RTVSPropertyOp4
 70
     1
102
RTVSPropertyOp5
 70
     1
102
RTVSPropertyOp6
 70
     1
102
RTVSPropertyOp7
 70
     1
102
RTVSPropertyOp8
 70
     1
102
RTVSPropertyOp9
 70
     1
102
RTVSPropertyOp10
 70
     1
102
RTVSPropertyOp11
 70
     1
102
RTVSPropertyOp12
 70
     1
102
RTVSPropertyOp13
 70
     1
102
RTVSPropertyOp14
 70
     1
102
RTVSPropertyOp15
 70
     1
102
RTVSPropertyOp16
 70
     1
102
RTVSPropertyOp17
 70
     1
102
RTVSPropertyOp18
 70
     1
102
RTVSPropertyOp19
 70
     1
102
RTVSPropertyOp20
 70
     1
102
RTVSPropertyOp21
 70
     1
102
RTVSPropertyOp22
 70
     1
102
RTVSPropertyOp23
 70
     1
102
RTVSPropertyOp24
 70
     1
102
RTVSPropertyOp25
 70
     1
102
RTVSPropertyOp26
 70
     1
102
RTVSPropertyOp27
 70
     1
102
RTVSPropertyOp28
 70
     1
102
RTVSPropertyOp29
 70
     1
102
RTVSPropertyOp30
 70
     1
102
RTVSPropertyOp31
 70
     1
102
RTVSPropertyOp32
 70
     1
  0
XRECORD
  5
8A7
102
{ACAD_REACTORS
330
8A6
102
}
330
8A6
100
AcDbXrecord
280
     1
102
RTVSPropertyOp0
 70
     1
102
RTVSPropertyOp1
 70
     1
102
RTVSPropertyOp2
 70
     1
102
RTVSPropertyOp3
 70
     1
102
RTVSPropertyOp4
 70
     1
102
RTVSPropertyOp5
 70
     1
102
RTVSPropertyOp6
 70
     1
102
RTVSPropertyOp7
 70
     1
102
RTVSPropertyOp8
 70
     1
102
RTVSPropertyOp9
 70
     1
102
RTVSPropertyOp10
 70
     1
102
RTVSPropertyOp11
 70
     1
102
RTVSPropertyOp12
 70
     1
102
RTVSPropertyOp13
 70
     1
102
RTVSPropertyOp14
 70
     1
102
RTVSPropertyOp15
 70
     1
102
RTVSPropertyOp16
 70
     1
102
RTVSPropertyOp17
 70
     1
102
RTVSPropertyOp18
 70
     1
102
RTVSPropertyOp19
 70
     1
102
RTVSPropertyOp20
 70
     1
102
RTVSPropertyOp21
 70
     1
102
RTVSPropertyOp22
 70
     1
102
RTVSPropertyOp23
 70
     1
102
RTVSPropertyOp24
 70
     1
102
RTVSPropertyOp25
 70
     1
102
RTVSPropertyOp26
 70
     1
102
RTVSPropertyOp27
 70
     1
102
RTVSPropertyOp28
 70
     1
102
RTVSPropertyOp29
 70
     1
102
RTVSPropertyOp30
 70
     1
102
RTVSPropertyOp31
 70
     1
102
RTVSPropertyOp32
 70
     1
  0
XRECORD
  5
8C1
102
{ACAD_REACTORS
330
8C0
102
}
330
8C0
100
AcDbXrecord
280
     1
102
RTVSPropertyOp0
 70
     0
102
RTVSPropertyOp1
 70
     0
102
RTVSPropertyOp2
 70
     0
102
RTVSPropertyOp3
 70
     0
102
RTVSPropertyOp4
 70
     0
102
RTVSPropertyOp5
 70
     0
102
RTVSPropertyOp6
 70
     0
102
RTVSPropertyOp7
 70
     0
102
RTVSPropertyOp8
 70
     0
102
RTVSPropertyOp9
 70
     0
102
RTVSPropertyOp10
 70
     0
102
RTVSPropertyOp11
 70
     0
102
RTVSPropertyOp12
 70
     0
102
RTVSPropertyOp13
 70
     0
102
RTVSPropertyOp14
 70
     2
102
RTVSPropertyOp15
 70
     0
102
RTVSPropertyOp16
 70
     0
102
RTVSPropertyOp17
 70
     0
102
RTVSPropertyOp18
 70
     0
102
RTVSPropertyOp19
 70
     0
102
RTVSPropertyOp20
 70
     0
102
RTVSPropertyOp21
 70
     0
102
RTVSPropertyOp22
 70
     0
102
RTVSPropertyOp23
 70
     0
102
RTVSPropertyOp24
 70
     0
102
RTVSPropertyOp25
 70
     0
102
RTVSPropertyOp26
 70
     0
102
RTVSPropertyOp27
 70
     0
102
RTVSPropertyOp28
 70
     1
102
RTVSPropertyOp29
 70
     1
102
RTVSPropertyOp30
 70
     1
102
RTVSPropertyOp31
 70
     1
102
RTVSPropertyOp32
 70
     1
  0
XRECORD
  5
8AF
102
{ACAD_REACTORS
330
8AE
102
}
330
8AE
100
AcDbXrecord
280
     1
102
RTVSPropertyOp0
 70
     1
102
RTVSPropertyOp1
 70
     1
102
RTVSPropertyOp2
 70
     1
102
RTVSPropertyOp3
 70
     1
102
RTVSPropertyOp4
 70
     1
102
RTVSPropertyOp5
 70
     1
102
RTVSPropertyOp6
 70
     1
102
RTVSPropertyOp7
 70
     1
102
RTVSPropertyOp8
 70
     1
102
RTVSPropertyOp9
 70
     1
102
RTVSPropertyOp10
 70
     1
102
RTVSPropertyOp11
 70
     1
102
RTVSPropertyOp12
 70
     1
102
RTVSPropertyOp13
 70
     1
102
RTVSPropertyOp14
 70
     1
102
RTVSPropertyOp15
 70
     1
102
RTVSPropertyOp16
 70
     1
102
RTVSPropertyOp17
 70
     1
102
RTVSPropertyOp18
 70
     1
102
RTVSPropertyOp19
 70
     1
102
RTVSPropertyOp20
 70
     1
102
RTVSPropertyOp21
 70
     1
102
RTVSPropertyOp22
 70
     1
102
RTVSPropertyOp23
 70
     1
102
RTVSPropertyOp24
 70
     1
102
RTVSPropertyOp25
 70
     1
102
RTVSPropertyOp26
 70
     1
102
RTVSPropertyOp27
 70
     1
102
RTVSPropertyOp28
 70
     1
102
RTVSPropertyOp29
 70
     1
102
RTVSPropertyOp30
 70
     1
102
RTVSPropertyOp31
 70
     1
102
RTVSPropertyOp32
 70
     1
  0
XRECORD
  5
893
102
{ACAD_REACTORS
330
892
102
}
330
892
100
AcDbXrecord
280
     1
102
RTVSPropertyOp0
 70
     1
102
RTVSPropertyOp1
 70
     1
102
RTVSPropertyOp2
 70
     1
102
RTVSPropertyOp3
 70
     1
102
RTVSPropertyOp4
 70
     1
102
RTVSPropertyOp5
 70
     1
102
RTVSPropertyOp6
 70
     1
102
RTVSPropertyOp7
 70
     1
102
RTVSPropertyOp8
 70
     1
102
RTVSPropertyOp9
 70
     1
102
RTVSPropertyOp10
 70
     1
102
RTVSPropertyOp11
 70
     1
102
RTVSPropertyOp12
 70
     1
102
RTVSPropertyOp13
 70
     1
102
RTVSPropertyOp14
 70
     1
102
RTVSPropertyOp15
 70
     1
102
RTVSPropertyOp16
 70
     1
102
RTVSPropertyOp17
 70
     1
102
RTVSPropertyOp18
 70
     1
102
RTVSPropertyOp19
 70
     1
102
RTVSPropertyOp20
 70
     1
102
RTVSPropertyOp21
 70
     1
102
RTVSPropertyOp22
 70
     1
102
RTVSPropertyOp23
 70
     1
102
RTVSPropertyOp24
 70
     1
102
RTVSPropertyOp25
 70
     1
102
RTVSPropertyOp26
 70
     1
102
RTVSPropertyOp27
 70
     1
102
RTVSPropertyOp28
 70
     1
102
RTVSPropertyOp29
 70
     1
102
RTVSPropertyOp30
 70
     1
102
RTVSPropertyOp31
 70
     1
102
RTVSPropertyOp32
 70
     1
  0
XRECORD
  5
895
102
{ACAD_REACTORS
330
894
102
}
330
894
100
AcDbXrecord
280
     1
102
RTVSPropertyOp0
 70
     1
102
RTVSPropertyOp1
 70
     1
102
RTVSPropertyOp2
 70
     1
102
RTVSPropertyOp3
 70
     1
102
RTVSPropertyOp4
 70
     1
102
RTVSPropertyOp5
 70
     1
102
RTVSPropertyOp6
 70
     1
102
RTVSPropertyOp7
 70
     1
102
RTVSPropertyOp8
 70
     1
102
RTVSPropertyOp9
 70
     1
102
RTVSPropertyOp10
 70
     1
102
RTVSPropertyOp11
 70
     1
102
RTVSPropertyOp12
 70
     1
102
RTVSPropertyOp13
 70
     1
102
RTVSPropertyOp14
 70
     1
102
RTVSPropertyOp15
 70
     1
102
RTVSPropertyOp16
 70
     1
102
RTVSPropertyOp17
 70
     1
102
RTVSPropertyOp18
 70
     1
102
RTVSPropertyOp19
 70
     1
102
RTVSPropertyOp20
 70
     1
102
RTVSPropertyOp21
 70
     1
102
RTVSPropertyOp22
 70
     1
102
RTVSPropertyOp23
 70
     1
102
RTVSPropertyOp24
 70
     1
102
RTVSPropertyOp25
 70
     1
102
RTVSPropertyOp26
 70
     1
102
RTVSPropertyOp27
 70
     1
102
RTVSPropertyOp28
 70
     1
102
RTVSPropertyOp29
 70
     1
102
RTVSPropertyOp30
 70
     1
102
RTVSPropertyOp31
 70
     1
102
RTVSPropertyOp32
 70
     1
  0
XRECORD
  5
897
102
{ACAD_REACTORS
330
896
102
}
330
896
100
AcDbXrecord
280
     1
102
RTVSPropertyOp0
 70
     1
102
RTVSPropertyOp1
 70
     1
102
RTVSPropertyOp2
 70
     1
102
RTVSPropertyOp3
 70
     1
102
RTVSPropertyOp4
 70
     1
102
RTVSPropertyOp5
 70
     1
102
RTVSPropertyOp6
 70
     1
102
RTVSPropertyOp7
 70
     1
102
RTVSPropertyOp8
 70
     1
102
RTVSPropertyOp9
 70
     1
102
RTVSPropertyOp10
 70
     1
102
RTVSPropertyOp11
 70
     1
102
RTVSPropertyOp12
 70
     1
102
RTVSPropertyOp13
 70
     1
102
RTVSPropertyOp14
 70
     1
102
RTVSPropertyOp15
 70
     1
102
RTVSPropertyOp16
 70
     1
102
RTVSPropertyOp17
 70
     1
102
RTVSPropertyOp18
 70
     1
102
RTVSPropertyOp19
 70
     1
102
RTVSPropertyOp20
 70
     1
102
RTVSPropertyOp21
 70
     1
102
RTVSPropertyOp22
 70
     1
102
RTVSPropertyOp23
 70
     1
102
RTVSPropertyOp24
 70
     1
102
RTVSPropertyOp25
 70
     1
102
RTVSPropertyOp26
 70
     1
102
RTVSPropertyOp27
 70
     1
102
RTVSPropertyOp28
 70
     1
102
RTVSPropertyOp29
 70
     1
102
RTVSPropertyOp30
 70
     1
102
RTVSPropertyOp31
 70
     1
102
RTVSPropertyOp32
 70
     1
  0
XRECORD
  5
899
102
{ACAD_REACTORS
330
898
102
}
330
898
100
AcDbXrecord
280
     1
102
RTVSPropertyOp0
 70
     1
102
RTVSPropertyOp1
 70
     1
102
RTVSPropertyOp2
 70
     1
102
RTVSPropertyOp3
 70
     1
102
RTVSPropertyOp4
 70
     1
102
RTVSPropertyOp5
 70
     1
102
RTVSPropertyOp6
 70
     1
102
RTVSPropertyOp7
 70
     1
102
RTVSPropertyOp8
 70
     1
102
RTVSPropertyOp9
 70
     1
102
RTVSPropertyOp10
 70
     1
102
RTVSPropertyOp11
 70
     1
102
RTVSPropertyOp12
 70
     1
102
RTVSPropertyOp13
 70
     1
102
RTVSPropertyOp14
 70
     1
102
RTVSPropertyOp15
 70
     1
102
RTVSPropertyOp16
 70
     1
102
RTVSPropertyOp17
 70
     1
102
RTVSPropertyOp18
 70
     1
102
RTVSPropertyOp19
 70
     1
102
RTVSPropertyOp20
 70
     1
102
RTVSPropertyOp21
 70
     1
102
RTVSPropertyOp22
 70
     1
102
RTVSPropertyOp23
 70
     1
102
RTVSPropertyOp24
 70
     1
102
RTVSPropertyOp25
 70
     1
102
RTVSPropertyOp26
 70
     1
102
RTVSPropertyOp27
 70
     1
102
RTVSPropertyOp28
 70
     1
102
RTVSPropertyOp29
 70
     1
102
RTVSPropertyOp30
 70
     1
102
RTVSPropertyOp31
 70
     1
102
RTVSPropertyOp32
 70
     1
  0
XRECORD
  5
8A1
102
{ACAD_REACTORS
330
8A0
102
}
330
8A0
100
AcDbXrecord
280
     1
102
RTVSPropertyOp0
 70
     1
102
RTVSPropertyOp1
 70
     1
102
RTVSPropertyOp2
 70
     1
102
RTVSPropertyOp3
 70
     1
102
RTVSPropertyOp4
 70
     1
102
RTVSPropertyOp5
 70
     1
102
RTVSPropertyOp6
 70
     1
102
RTVSPropertyOp7
 70
     1
102
RTVSPropertyOp8
 70
     1
102
RTVSPropertyOp9
 70
     1
102
RTVSPropertyOp10
 70
     1
102
RTVSPropertyOp11
 70
     1
102
RTVSPropertyOp12
 70
     1
102
RTVSPropertyOp13
 70
     1
102
RTVSPropertyOp14
 70
     1
102
RTVSPropertyOp15
 70
     1
102
RTVSPropertyOp16
 70
     1
102
RTVSPropertyOp17
 70
     1
102
RTVSPropertyOp18
 70
     1
102
RTVSPropertyOp19
 70
     1
102
RTVSPropertyOp20
 70
     1
102
RTVSPropertyOp21
 70
     1
102
RTVSPropertyOp22
 70
     1
102
RTVSPropertyOp23
 70
     1
102
RTVSPropertyOp24
 70
     1
102
RTVSPropertyOp25
 70
     1
102
RTVSPropertyOp26
 70
     1
102
RTVSPropertyOp27
 70
     1
102
RTVSPropertyOp28
 70
     1
102
RTVSPropertyOp29
 70
     1
102
RTVSPropertyOp30
 70
     1
102
RTVSPropertyOp31
 70
     1
102
RTVSPropertyOp32
 70
     1
  0
XRECORD
  5
8BD
102
{ACAD_REACTORS
330
8BC
102
}
330
8BC
100
AcDbXrecord
280
     1
102
RTVSPropertyOp0
 70
     0
102
RTVSPropertyOp1
 70
     0
102
RTVSPropertyOp2
 70
     0
102
RTVSPropertyOp3
 70
     0
102
RTVSPropertyOp4
 70
     0
102
RTVSPropertyOp5
 70
     0
102
RTVSPropertyOp6
 70
     0
102
RTVSPropertyOp7
 70
     0
102
RTVSPropertyOp8
 70
     0
102
RTVSPropertyOp9
 70
     0
102
RTVSPropertyOp10
 70
     0
102
RTVSPropertyOp11
 70
     0
102
RTVSPropertyOp12
 70
     0
102
RTVSPropertyOp13
 70
     0
102
RTVSPropertyOp14
 70
     2
102
RTVSPropertyOp15
 70
     0
102
RTVSPropertyOp16
 70
     0
102
RTVSPropertyOp17
 70
     0
102
RTVSPropertyOp18
 70
     0
102
RTVSPropertyOp19
 70
     0
102
RTVSPropertyOp20
 70
     0
102
RTVSPropertyOp21
 70
     0
102
RTVSPropertyOp22
 70
     0
102
RTVSPropertyOp23
 70
     0
102
RTVSPropertyOp24
 70
     0
102
RTVSPropertyOp25
 70
     0
102
RTVSPropertyOp26
 70
     0
102
RTVSPropertyOp27
 70
     0
102
RTVSPropertyOp28
 70
     1
102
RTVSPropertyOp29
 70
     1
102
RTVSPropertyOp30
 70
     1
102
RTVSPropertyOp31
 70
     1
102
RTVSPropertyOp32
 70
     1
  0
XRECORD
  5
8AD
102
{ACAD_REACTORS
330
8AC
102
}
330
8AC
100
AcDbXrecord
280
     1
102
RTVSPropertyOp0
 70
     1
102
RTVSPropertyOp1
 70
     1
102
RTVSPropertyOp2
 70
     1
102
RTVSPropertyOp3
 70
     1
102
RTVSPropertyOp4
 70
     1
102
RTVSPropertyOp5
 70
     1
102
RTVSPropertyOp6
 70
     1
102
RTVSPropertyOp7
 70
     1
102
RTVSPropertyOp8
 70
     1
102
RTVSPropertyOp9
 70
     1
102
RTVSPropertyOp10
 70
     1
102
RTVSPropertyOp11
 70
     1
102
RTVSPropertyOp12
 70
     1
102
RTVSPropertyOp13
 70
     1
102
RTVSPropertyOp14
 70
     1
102
RTVSPropertyOp15
 70
     1
102
RTVSPropertyOp16
 70
     1
102
RTVSPropertyOp17
 70
     1
102
RTVSPropertyOp18
 70
     1
102
RTVSPropertyOp19
 70
     1
102
RTVSPropertyOp20
 70
     1
102
RTVSPropertyOp21
 70
     1
102
RTVSPropertyOp22
 70
     1
102
RTVSPropertyOp23
 70
     1
102
RTVSPropertyOp24
 70
     1
102
RTVSPropertyOp25
 70
     1
102
RTVSPropertyOp26
 70
     1
102
RTVSPropertyOp27
 70
     1
102
RTVSPropertyOp28
 70
     1
102
RTVSPropertyOp29
 70
     1
102
RTVSPropertyOp30
 70
     1
102
RTVSPropertyOp31
 70
     1
102
RTVSPropertyOp32
 70
     1
  0
XRECORD
  5
8BF
102
{ACAD_REACTORS
330
8BE
102
}
330
8BE
100
AcDbXrecord
280
     1
102
RTVSPropertyOp0
 70
     0
102
RTVSPropertyOp1
 70
     0
102
RTVSPropertyOp2
 70
     0
102
RTVSPropertyOp3
 70
     0
102
RTVSPropertyOp4
 70
     0
102
RTVSPropertyOp5
 70
     0
102
RTVSPropertyOp6
 70
     0
102
RTVSPropertyOp7
 70
     0
102
RTVSPropertyOp8
 70
     0
102
RTVSPropertyOp9
 70
     0
102
RTVSPropertyOp10
 70
     0
102
RTVSPropertyOp11
 70
     0
102
RTVSPropertyOp12
 70
     0
102
RTVSPropertyOp13
 70
     0
102
RTVSPropertyOp14
 70
     2
102
RTVSPropertyOp15
 70
     0
102
RTVSPropertyOp16
 70
     0
102
RTVSPropertyOp17
 70
     0
102
RTVSPropertyOp18
 70
     0
102
RTVSPropertyOp19
 70
     0
102
RTVSPropertyOp20
 70
     0
102
RTVSPropertyOp21
 70
     0
102
RTVSPropertyOp22
 70
     0
102
RTVSPropertyOp23
 70
     0
102
RTVSPropertyOp24
 70
     0
102
RTVSPropertyOp25
 70
     0
102
RTVSPropertyOp26
 70
     0
102
RTVSPropertyOp27
 70
     0
102
RTVSPropertyOp28
 70
     1
102
RTVSPropertyOp29
 70
     1
102
RTVSPropertyOp30
 70
     1
102
RTVSPropertyOp31
 70
     1
102
RTVSPropertyOp32
 70
     1
  0
XRECORD
  5
8A5
102
{ACAD_REACTORS
330
8A4
102
}
330
8A4
100
AcDbXrecord
280
     1
102
RTVSPropertyOp0
 70
     1
102
RTVSPropertyOp1
 70
     1
102
RTVSPropertyOp2
 70
     1
102
RTVSPropertyOp3
 70
     1
102
RTVSPropertyOp4
 70
     1
102
RTVSPropertyOp5
 70
     1
102
RTVSPropertyOp6
 70
     1
102
RTVSPropertyOp7
 70
     1
102
RTVSPropertyOp8
 70
     1
102
RTVSPropertyOp9
 70
     1
102
RTVSPropertyOp10
 70
     1
102
RTVSPropertyOp11
 70
     1
102
RTVSPropertyOp12
 70
     1
102
RTVSPropertyOp13
 70
     1
102
RTVSPropertyOp14
 70
     1
102
RTVSPropertyOp15
 70
     1
102
RTVSPropertyOp16
 70
     1
102
RTVSPropertyOp17
 70
     1
102
RTVSPropertyOp18
 70
     1
102
RTVSPropertyOp19
 70
     1
102
RTVSPropertyOp20
 70
     1
102
RTVSPropertyOp21
 70
     1
102
RTVSPropertyOp22
 70
     1
102
RTVSPropertyOp23
 70
     1
102
RTVSPropertyOp24
 70
     1
102
RTVSPropertyOp25
 70
     1
102
RTVSPropertyOp26
 70
     1
102
RTVSPropertyOp27
 70
     1
102
RTVSPropertyOp28
 70
     1
102
RTVSPropertyOp29
 70
     1
102
RTVSPropertyOp30
 70
     1
102
RTVSPropertyOp31
 70
     1
102
RTVSPropertyOp32
 70
     1
  0
XRECORD
  5
8BB
102
{ACAD_REACTORS
330
8BA
102
}
330
8BA
100
AcDbXrecord
280
     1
102
RTVSPropertyOp0
 70
     1
102
RTVSPropertyOp1
 70
     1
102
RTVSPropertyOp2
 70
     1
102
RTVSPropertyOp3
 70
     1
102
RTVSPropertyOp4
 70
     1
102
RTVSPropertyOp5
 70
     1
102
RTVSPropertyOp6
 70
     1
102
RTVSPropertyOp7
 70
     1
102
RTVSPropertyOp8
 70
     1
102
RTVSPropertyOp9
 70
     1
102
RTVSPropertyOp10
 70
     1
102
RTVSPropertyOp11
 70
     1
102
RTVSPropertyOp12
 70
     1
102
RTVSPropertyOp13
 70
     1
102
RTVSPropertyOp14
 70
     1
102
RTVSPropertyOp15
 70
     1
102
RTVSPropertyOp16
 70
     1
102
RTVSPropertyOp17
 70
     1
102
RTVSPropertyOp18
 70
     1
102
RTVSPropertyOp19
 70
     1
102
RTVSPropertyOp20
 70
     1
102
RTVSPropertyOp21
 70
     1
102
RTVSPropertyOp22
 70
     1
102
RTVSPropertyOp23
 70
     1
102
RTVSPropertyOp24
 70
     1
102
RTVSPropertyOp25
 70
     1
102
RTVSPropertyOp26
 70
     1
102
RTVSPropertyOp27
 70
     1
102
RTVSPropertyOp28
 70
     1
102
RTVSPropertyOp29
 70
     1
102
RTVSPropertyOp30
 70
     1
102
RTVSPropertyOp31
 70
     1
102
RTVSPropertyOp32
 70
     1
  0
XRECORD
  5
8B9
102
{ACAD_REACTORS
330
8B8
102
}
330
8B8
100
AcDbXrecord
280
     1
102
RTVSPropertyOp0
 70
     1
102
RTVSPropertyOp1
 70
     1
102
RTVSPropertyOp2
 70
     1
102
RTVSPropertyOp3
 70
     1
102
RTVSPropertyOp4
 70
     1
102
RTVSPropertyOp5
 70
     1
102
RTVSPropertyOp6
 70
     1
102
RTVSPropertyOp7
 70
     1
102
RTVSPropertyOp8
 70
     1
102
RTVSPropertyOp9
 70
     1
102
RTVSPropertyOp10
 70
     1
102
RTVSPropertyOp11
 70
     1
102
RTVSPropertyOp12
 70
     1
102
RTVSPropertyOp13
 70
     1
102
RTVSPropertyOp14
 70
     1
102
RTVSPropertyOp15
 70
     1
102
RTVSPropertyOp16
 70
     1
102
RTVSPropertyOp17
 70
     1
102
RTVSPropertyOp18
 70
     1
102
RTVSPropertyOp19
 70
     1
102
RTVSPropertyOp20
 70
     1
102
RTVSPropertyOp21
 70
     1
102
RTVSPropertyOp22
 70
     1
102
RTVSPropertyOp23
 70
     1
102
RTVSPropertyOp24
 70
     1
102
RTVSPropertyOp25
 70
     1
102
RTVSPropertyOp26
 70
     1
102
RTVSPropertyOp27
 70
     1
102
RTVSPropertyOp28
 70
     1
102
RTVSPropertyOp29
 70
     1
102
RTVSPropertyOp30
 70
     1
102
RTVSPropertyOp31
 70
     1
102
RTVSPropertyOp32
 70
     1
  0
XRECORD
  5
8B3
102
{ACAD_REACTORS
330
8B2
102
}
330
8B2
100
AcDbXrecord
280
     1
102
RTVSPropertyOp0
 70
     1
102
RTVSPropertyOp1
 70
     1
102
RTVSPropertyOp2
 70
     1
102
RTVSPropertyOp3
 70
     1
102
RTVSPropertyOp4
 70
     1
102
RTVSPropertyOp5
 70
     1
102
RTVSPropertyOp6
 70
     1
102
RTVSPropertyOp7
 70
     1
102
RTVSPropertyOp8
 70
     1
102
RTVSPropertyOp9
 70
     1
102
RTVSPropertyOp10
 70
     1
102
RTVSPropertyOp11
 70
     1
102
RTVSPropertyOp12
 70
     1
102
RTVSPropertyOp13
 70
     1
102
RTVSPropertyOp14
 70
     1
102
RTVSPropertyOp15
 70
     1
102
RTVSPropertyOp16
 70
     1
102
RTVSPropertyOp17
 70
     1
102
RTVSPropertyOp18
 70
     1
102
RTVSPropertyOp19
 70
     1
102
RTVSPropertyOp20
 70
     1
102
RTVSPropertyOp21
 70
     1
102
RTVSPropertyOp22
 70
     1
102
RTVSPropertyOp23
 70
     1
102
RTVSPropertyOp24
 70
     1
102
RTVSPropertyOp25
 70
     1
102
RTVSPropertyOp26
 70
     1
102
RTVSPropertyOp27
 70
     1
102
RTVSPropertyOp28
 70
     1
102
RTVSPropertyOp29
 70
     1
102
RTVSPropertyOp30
 70
     1
102
RTVSPropertyOp31
 70
     1
102
RTVSPropertyOp32
 70
     1
  0
XRECORD
  5
8B5
102
{ACAD_REACTORS
330
8B4
102
}
330
8B4
100
AcDbXrecord
280
     1
102
RTVSPropertyOp0
 70
     1
102
RTVSPropertyOp1
 70
     1
102
RTVSPropertyOp2
 70
     1
102
RTVSPropertyOp3
 70
     1
102
RTVSPropertyOp4
 70
     1
102
RTVSPropertyOp5
 70
     1
102
RTVSPropertyOp6
 70
     1
102
RTVSPropertyOp7
 70
     1
102
RTVSPropertyOp8
 70
     1
102
RTVSPropertyOp9
 70
     1
102
RTVSPropertyOp10
 70
     1
102
RTVSPropertyOp11
 70
     1
102
RTVSPropertyOp12
 70
     1
102
RTVSPropertyOp13
 70
     1
102
RTVSPropertyOp14
 70
     1
102
RTVSPropertyOp15
 70
     1
102
RTVSPropertyOp16
 70
     1
102
RTVSPropertyOp17
 70
     1
102
RTVSPropertyOp18
 70
     1
102
RTVSPropertyOp19
 70
     1
102
RTVSPropertyOp20
 70
     1
102
RTVSPropertyOp21
 70
     1
102
RTVSPropertyOp22
 70
     1
102
RTVSPropertyOp23
 70
     1
102
RTVSPropertyOp24
 70
     1
102
RTVSPropertyOp25
 70
     1
102
RTVSPropertyOp26
 70
     1
102
RTVSPropertyOp27
 70
     1
102
RTVSPropertyOp28
 70
     1
102
RTVSPropertyOp29
 70
     1
102
RTVSPropertyOp30
 70
     1
102
RTVSPropertyOp31
 70
     1
102
RTVSPropertyOp32
 70
     1
  0
XRECORD
  5
8AB
102
{ACAD_REACTORS
330
8AA
102
}
330
8AA
100
AcDbXrecord
280
     1
102
RTVSPropertyOp0
 70
     1
102
RTVSPropertyOp1
 70
     1
102
RTVSPropertyOp2
 70
     1
102
RTVSPropertyOp3
 70
     1
102
RTVSPropertyOp4
 70
     1
102
RTVSPropertyOp5
 70
     1
102
RTVSPropertyOp6
 70
     1
102
RTVSPropertyOp7
 70
     1
102
RTVSPropertyOp8
 70
     1
102
RTVSPropertyOp9
 70
     1
102
RTVSPropertyOp10
 70
     1
102
RTVSPropertyOp11
 70
     1
102
RTVSPropertyOp12
 70
     1
102
RTVSPropertyOp13
 70
     1
102
RTVSPropertyOp14
 70
     1
102
RTVSPropertyOp15
 70
     1
102
RTVSPropertyOp16
 70
     1
102
RTVSPropertyOp17
 70
     1
102
RTVSPropertyOp18
 70
     1
102
RTVSPropertyOp19
 70
     1
102
RTVSPropertyOp20
 70
     1
102
RTVSPropertyOp21
 70
     1
102
RTVSPropertyOp22
 70
     1
102
RTVSPropertyOp23
 70
     1
102
RTVSPropertyOp24
 70
     1
102
RTVSPropertyOp25
 70
     1
102
RTVSPropertyOp26
 70
     1
102
RTVSPropertyOp27
 70
     1
102
RTVSPropertyOp28
 70
     1
102
RTVSPropertyOp29
 70
     1
102
RTVSPropertyOp30
 70
     1
102
RTVSPropertyOp31
 70
     1
102
RTVSPropertyOp32
 70
     1
  0
XRECORD
  5
89F
102
{ACAD_REACTORS
330
89E
102
}
330
89E
100
AcDbXrecord
280
     1
102
RTVSPropertyOp0
 70
     1
102
RTVSPropertyOp1
 70
     1
102
RTVSPropertyOp2
 70
     1
102
RTVSPropertyOp3
 70
     1
102
RTVSPropertyOp4
 70
     1
102
RTVSPropertyOp5
 70
     1
102
RTVSPropertyOp6
 70
     1
102
RTVSPropertyOp7
 70
     1
102
RTVSPropertyOp8
 70
     1
102
RTVSPropertyOp9
 70
     1
102
RTVSPropertyOp10
 70
     1
102
RTVSPropertyOp11
 70
     1
102
RTVSPropertyOp12
 70
     1
102
RTVSPropertyOp13
 70
     1
102
RTVSPropertyOp14
 70
     1
102
RTVSPropertyOp15
 70
     1
102
RTVSPropertyOp16
 70
     1
102
RTVSPropertyOp17
 70
     1
102
RTVSPropertyOp18
 70
     1
102
RTVSPropertyOp19
 70
     1
102
RTVSPropertyOp20
 70
     1
102
RTVSPropertyOp21
 70
     1
102
RTVSPropertyOp22
 70
     1
102
RTVSPropertyOp23
 70
     1
102
RTVSPropertyOp24
 70
     1
102
RTVSPropertyOp25
 70
     1
102
RTVSPropertyOp26
 70
     1
102
RTVSPropertyOp27
 70
     1
102
RTVSPropertyOp28
 70
     1
102
RTVSPropertyOp29
 70
     1
102
RTVSPropertyOp30
 70
     1
102
RTVSPropertyOp31
 70
     1
102
RTVSPropertyOp32
 70
     1
  0
XRECORD
  5
8B7
102
{ACAD_REACTORS
330
8B6
102
}
330
8B6
100
AcDbXrecord
280
     1
102
RTVSPropertyOp0
 70
     1
102
RTVSPropertyOp1
 70
     1
102
RTVSPropertyOp2
 70
     1
102
RTVSPropertyOp3
 70
     1
102
RTVSPropertyOp4
 70
     1
102
RTVSPropertyOp5
 70
     1
102
RTVSPropertyOp6
 70
     1
102
RTVSPropertyOp7
 70
     1
102
RTVSPropertyOp8
 70
     1
102
RTVSPropertyOp9
 70
     1
102
RTVSPropertyOp10
 70
     1
102
RTVSPropertyOp11
 70
     1
102
RTVSPropertyOp12
 70
     1
102
RTVSPropertyOp13
 70
     1
102
RTVSPropertyOp14
 70
     1
102
RTVSPropertyOp15
 70
     1
102
RTVSPropertyOp16
 70
     1
102
RTVSPropertyOp17
 70
     1
102
RTVSPropertyOp18
 70
     1
102
RTVSPropertyOp19
 70
     1
102
RTVSPropertyOp20
 70
     1
102
RTVSPropertyOp21
 70
     1
102
RTVSPropertyOp22
 70
     1
102
RTVSPropertyOp23
 70
     1
102
RTVSPropertyOp24
 70
     1
102
RTVSPropertyOp25
 70
     1
102
RTVSPropertyOp26
 70
     1
102
RTVSPropertyOp27
 70
     1
102
RTVSPropertyOp28
 70
     1
102
RTVSPropertyOp29
 70
     1
102
RTVSPropertyOp30
 70
     1
102
RTVSPropertyOp31
 70
     1
102
RTVSPropertyOp32
 70
     1
  0
ENDSEC
  0
EOF
