  0
SECTION
  2
HEADER
  9
$ACADVER
  1
AC1024
  9
$ACADMAINTVER
 70
    63
  9
$DWGCODEPAGE
  3
ANSI_1252
  9
$AUTHOR
  1
KRA
  9
$REVISIONNUMBER
  1
-
  9
$CUSTOMPROPERTYTAG
  1
Manager
  9
$CUSTOMPROPERTY
  1

  9
$CUSTOMPROPERTYTAG
  1
Company
  9
$CUSTOMPROPERTY
  1

  9
$CUSTOMPROPERTYTAG
  1
Category
  9
$CUSTOMPROPERTY
  1

  9
$CUSTOMPROPERTYTAG
  1
Part Number
  9
$CUSTOMPROPERTY
  1
HWDP0806SS-S
  9
$CUSTOMPROPERTYTAG
  1
Description
  9
$CUSTOMPROPERTY
  1
P SERIES BACK PANEL MASTER VIEW
  9
$CUSTOMPROPERTYTAG
  1
Project
  9
$CUSTOMPROPERTY
  1

  9
$CUSTOMPROPERTYTAG
  1
Designer
  9
$CUSTOMPROPERTY
  1
KRA
  9
$CUSTOMPROPERTYTAG
  1
Engineer
  9
$CUSTOMPROPERTY
  1

  9
$CUSTOMPROPERTYTAG
  1
Authority
  9
$CUSTOMPROPERTY
  1

  9
$CUSTOMPROPERTYTAG
  1
Cost Center
  9
$CUSTOMPROPERTY
  1

  9
$CUSTOMPROPERTYTAG
  1
Vendor
  9
$CUSTOMPROPERTY
  1

  9
$CUSTOMPROPERTYTAG
  1
User Status
  9
$CUSTOMPROPERTY
  1

  9
$CUSTOMPROPERTYTAG
  1
Design Status
  9
$CUSTOMPROPERTY
  1
WorkInProgress
  9
$CUSTOMPROPERTYTAG
  1
Checked by
  9
$CUSTOMPROPERTY
  1
JMG
  9
$CUSTOMPROPERTYTAG
  1
Date Checked
  9
$CUSTOMPROPERTY
  1
02/12/2009
  9
$CUSTOMPROPERTYTAG
  1
Engr Approved by
  9
$CUSTOMPROPERTY
  1

  9
$CUSTOMPROPERTYTAG
  1
Mfg Approved by
  9
$CUSTOMPROPERTY
  1

  9
$CUSTOMPROPERTYTAG
  1
DWG. NO
  9
$CUSTOMPROPERTY
  1

  9
$CUSTOMPROPERTYTAG
  1
NUMBER OF SHEETS
  9
$CUSTOMPROPERTY
  1
1
  9
$CUSTOMPROPERTYTAG
  1
DRAWING #
  9
$CUSTOMPROPERTY
  1
1
  9
$INSBASE
 10
0.0
 20
0.0
 30
0.0
  9
$EXTMIN
 10
0.0
 20
0.0
 30
0.0
  9
$EXTMAX
 10
21.25
 20
13.75
 30
0.0
  9
$LIMMIN
 10
0.0
 20
0.0
  9
$LIMMAX
 10
21.25
 20
13.75
  9
$ORTHOMODE
 70
     0
  9
$REGENMODE
 70
     1
  9
$FILLMODE
 70
     1
  9
$QTEXTMODE
 70
     0
  9
$MIRRTEXT
 70
     0
  9
$LTSCALE
 40
1.25
  9
$ATTMODE
 70
     1
  9
$TEXTSIZE
 40
0.2
  9
$TRACEWID
 40
0.05
  9
$TEXTSTYLE
  7
Standard
  9
$CLAYER
  8
0
  9
$CELTYPE
  6
ByLayer
  9
$CECOLOR
 62
   256
  9
$CELTSCALE
 40
1.0
  9
$DISPSILH
 70
     0
  9
$DIMSCALE
 40
1.0
  9
$DIMASZ
 40
0.0708661417322835
  9
$DIMEXO
 40
0.0625
  9
$DIMDLI
 40
0.38
  9
$DIMRND
 40
0.0
  9
$DIMDLE
 40
0.0
  9
$DIMEXE
 40
0.18
  9
$DIMTP
 40
0.0
  9
$DIMTM
 40
0.0
  9
$DIMTXT
 40
0.0708661417322835
  9
$DIMCEN
 40
0.09
  9
$DIMTSZ
 40
0.0
  9
$DIMTOL
 70
     0
  9
$DIMLIM
 70
     0
  9
$DIMTIH
 70
     1
  9
$DIMTOH
 70
     1
  9
$DIMSE1
 70
     0
  9
$DIMSE2
 70
     0
  9
$DIMTAD
 70
     0
  9
$DIMZIN
 70
     0
  9
$DIMBLK
  1

  9
$DIMASO
 70
     1
  9
$DIMSHO
 70
     1
  9
$DIMPOST
  1

  9
$DIMAPOST
  1

  9
$DIMALT
 70
     0
  9
$DIMALTD
 70
     2
  9
$DIMALTF
 40
25.4
  9
$DIMLFAC
 40
1.0
  9
$DIMTOFL
 70
     0
  9
$DIMTVP
 40
0.0
  9
$DIMTIX
 70
     0
  9
$DIMSOXD
 70
     0
  9
$DIMSAH
 70
     0
  9
$DIMBLK1
  1

  9
$DIMBLK2
  1

  9
$DIMSTYLE
  2
STANDARD
  9
$DIMCLRD
 70
     0
  9
$DIMCLRE
 70
     0
  9
$DIMCLRT
 70
     0
  9
$DIMTFAC
 40
1.0
  9
$DIMGAP
 40
0.09
  9
$DIMJUST
 70
     0
  9
$DIMSD1
 70
     0
  9
$DIMSD2
 70
     0
  9
$DIMTOLJ
 70
     1
  9
$DIMTZIN
 70
     0
  9
$DIMALTZ
 70
     0
  9
$DIMALTTZ
 70
     0
  9
$DIMUPT
 70
     0
  9
$DIMDEC
 70
     4
  9
$DIMTDEC
 70
     4
  9
$DIMALTU
 70
     2
  9
$DIMALTTD
 70
     2
  9
$DIMTXSTY
  7
Standard
  9
$DIMAUNIT
 70
     0
  9
$DIMADEC
 70
     0
  9
$DIMALTRND
 40
0.0
  9
$DIMAZIN
 70
     0
  9
$DIMDSEP
 70
    46
  9
$DIMATFIT
 70
     3
  9
$DIMFRAC
 70
     0
  9
$DIMLDRBLK
  1

  9
$DIMLUNIT
 70
     2
  9
$DIMLWD
 70
    -2
  9
$DIMLWE
 70
    -2
  9
$DIMTMOVE
 70
     0
  9
$DIMFXL
 40
1.0
  9
$DIMFXLON
 70
     0
  9
$DIMJOGANG
 40
0.7853981633974483
  9
$DIMTFILL
 70
     0
  9
$DIMTFILLCLR
 70
     0
  9
$DIMARCSYM
 70
     0
  9
$DIMLTYPE
  6

  9
$DIMLTEX1
  6

  9
$DIMLTEX2
  6

  9
$DIMTXTDIRECTION
 70
     0
  9
$LUNITS
 70
     2
  9
$LUPREC
 70
     4
  9
$SKETCHINC
 40
0.1
  9
$FILLETRAD
 40
0.0
  9
$AUNITS
 70
     0
  9
$AUPREC
 70
     0
  9
$MENU
  1
.
  9
$ELEVATION
 40
0.0
  9
$PELEVATION
 40
0.0
  9
$THICKNESS
 40
0.0
  9
$LIMCHECK
 70
     0
  9
$CHAMFERA
 40
0.0
  9
$CHAMFERB
 40
0.0
  9
$CHAMFERC
 40
0.0
  9
$CHAMFERD
 40
0.0
  9
$SKPOLY
 70
     0
  9
$TDCREATE
 40
2456107.471049537
  9
$TDUCREATE
 40
2456107.679382871
  9
$TDUPDATE
 40
2456107.471049548
  9
$TDUUPDATE
 40
2456107.679382882
  9
$TDINDWG
 40
0.0000246181
  9
$TDUSRTIMER
 40
0.0000246181
  9
$USRTIMER
 70
     1
  9
$ANGBASE
 50
0.0
  9
$ANGDIR
 70
     0
  9
$PDMODE
 70
     0
  9
$PDSIZE
 40
0.0
  9
$PLINEWID
 40
0.0
  9
$SPLFRAME
 70
     0
  9
$SPLINETYPE
 70
     6
  9
$SPLINESEGS
 70
     8
  9
$HANDSEED
  5
886
  9
$SURFTAB1
 70
     6
  9
$SURFTAB2
 70
     6
  9
$SURFTYPE
 70
     6
  9
$SURFU
 70
     6
  9
$SURFV
 70
     6
  9
$UCSBASE
  2

  9
$UCSNAME
  2

  9
$UCSORG
 10
0.0
 20
0.0
 30
0.0
  9
$UCSXDIR
 10
1.0
 20
0.0
 30
0.0
  9
$UCSYDIR
 10
0.0
 20
1.0
 30
0.0
  9
$UCSORTHOREF
  2

  9
$UCSORTHOVIEW
 70
     0
  9
$UCSORGTOP
 10
0.0
 20
0.0
 30
0.0
  9
$UCSORGBOTTOM
 10
0.0
 20
0.0
 30
0.0
  9
$UCSORGLEFT
 10
0.0
 20
0.0
 30
0.0
  9
$UCSORGRIGHT
 10
0.0
 20
0.0
 30
0.0
  9
$UCSORGFRONT
 10
0.0
 20
0.0
 30
0.0
  9
$UCSORGBACK
 10
0.0
 20
0.0
 30
0.0
  9
$PUCSBASE
  2

  9
$PUCSNAME
  2

  9
$PUCSORG
 10
0.0
 20
0.0
 30
0.0
  9
$PUCSXDIR
 10
1.0
 20
0.0
 30
0.0
  9
$PUCSYDIR
 10
0.0
 20
1.0
 30
0.0
  9
$PUCSORTHOREF
  2

  9
$PUCSORTHOVIEW
 70
     0
  9
$PUCSORGTOP
 10
0.0
 20
0.0
 30
0.0
  9
$PUCSORGBOTTOM
 10
0.0
 20
0.0
 30
0.0
  9
$PUCSORGLEFT
 10
0.0
 20
0.0
 30
0.0
  9
$PUCSORGRIGHT
 10
0.0
 20
0.0
 30
0.0
  9
$PUCSORGFRONT
 10
0.0
 20
0.0
 30
0.0
  9
$PUCSORGBACK
 10
0.0
 20
0.0
 30
0.0
  9
$USERI1
 70
     0
  9
$USERI2
 70
     0
  9
$USERI3
 70
     0
  9
$USERI4
 70
     0
  9
$USERI5
 70
     0
  9
$USERR1
 40
0.0
  9
$USERR2
 40
0.0
  9
$USERR3
 40
0.0
  9
$USERR4
 40
0.0
  9
$USERR5
 40
0.0
  9
$WORLDVIEW
 70
     1
  9
$SHADEDGE
 70
     3
  9
$SHADEDIF
 70
    70
  9
$TILEMODE
 70
     1
  9
$MAXACTVP
 70
    64
  9
$PINSBASE
 10
0.0
 20
0.0
 30
0.0
  9
$PLIMCHECK
 70
     0
  9
$PEXTMIN
 10
0.0
 20
0.0
 30
0.0
  9
$PEXTMAX
 10
21.25
 20
13.75
 30
0.0
  9
$PLIMMIN
 10
0.0
 20
0.0
  9
$PLIMMAX
 10
21.25
 20
13.75
  9
$UNITMODE
 70
     0
  9
$VISRETAIN
 70
     1
  9
$PLINEGEN
 70
     0
  9
$PSLTSCALE
 70
     1
  9
$TREEDEPTH
 70
  3020
  9
$CMLSTYLE
  2
Standard
  9
$CMLJUST
 70
     0
  9
$CMLSCALE
 40
1.0
  9
$PROXYGRAPHICS
 70
     1
  9
$MEASUREMENT
 70
     0
  9
$CELWEIGHT
370
    -1
  9
$ENDCAPS
280
     0
  9
$JOINSTYLE
280
     0
  9
$LWDISPLAY
290
     0
  9
$INSUNITS
 70
     1
  9
$HYPERLINKBASE
  1

  9
$STYLESHEET
  1

  9
$XEDIT
290
     1
  9
$CEPSNTYPE
380
     0
  9
$PSTYLEMODE
290
     1
  9
$FINGERPRINTGUID
  2
{93C2A7F5-521B-430D-9082-77333C148186}
  9
$VERSIONGUID
  2
{9DA64C40-1530-4887-8E2F-B8D752E9F5DC}
  9
$EXTNAMES
290
     1
  9
$PSVPSCALE
 40
0.0
  9
$OLESTARTUP
290
     0
  9
$SORTENTS
280
   127
  9
$INDEXCTL
280
     0
  9
$HIDETEXT
280
     1
  9
$XCLIPFRAME
280
     2
  9
$HALOGAP
280
     0
  9
$OBSCOLOR
 70
   257
  9
$OBSLTYPE
280
     0
  9
$INTERSECTIONDISPLAY
280
     0
  9
$INTERSECTIONCOLOR
 70
   257
  9
$DIMASSOC
280
     1
  9
$PROJECTNAME
  1

  9
$CAMERADISPLAY
290
     0
  9
$LENSLENGTH
 40
50.0
  9
$CAMERAHEIGHT
 40
0.0
  9
$STEPSPERSEC
 40
2.0
  9
$STEPSIZE
 40
6.0
  9
$3DDWFPREC
 40
2.0
  9
$PSOLWIDTH
 40
0.25
  9
$PSOLHEIGHT
 40
4.0
  9
$LOFTANG1
 40
1.570796326794896
  9
$LOFTANG2
 40
1.570796326794896
  9
$LOFTMAG1
 40
0.0
  9
$LOFTMAG2
 40
0.0
  9
$LOFTPARAM
 70
     7
  9
$LOFTNORMALS
280
     1
  9
$LATITUDE
 40
37.795
  9
$LONGITUDE
 40
-122.394
  9
$NORTHDIRECTION
 40
0.0
  9
$TIMEZONE
 70
 -8000
  9
$LIGHTGLYPHDISPLAY
280
     1
  9
$TILEMODELIGHTSYNCH
280
     1
  9
$CMATERIAL
347
11
  9
$SOLIDHIST
280
     0
  9
$SHOWHIST
280
     1
  9
$DWFFRAME
280
     2
  9
$DGNFRAME
280
     0
  9
$REALWORLDSCALE
290
     1
  9
$INTERFERECOLOR
 62
     1
  9
$INTERFEREOBJVS
345
33
  9
$INTERFEREVPVS
346
30
  9
$CSHADOW
280
     0
  9
$SHADOWPLANELOCATION
 40
0.0
  0
ENDSEC
  0
SECTION
  2
CLASSES
  0
CLASS
  1
ACDBDICTIONARYWDFLT
  2
AcDbDictionaryWithDefault
  3
ObjectDBX Classes
 90
        0
 91
        1
280
     0
281
     0
  0
CLASS
  1
MATERIAL
  2
AcDbMaterial
  3
ObjectDBX Classes
 90
     1153
 91
        3
280
     0
281
     0
  0
CLASS
  1
VISUALSTYLE
  2
AcDbVisualStyle
  3
ObjectDBX Classes
 90
     4095
 91
       24
280
     0
281
     0
  0
CLASS
  1
SCALE
  2
AcDbScale
  3
ObjectDBX Classes
 90
     1153
 91
       17
280
     0
281
     0
  0
CLASS
  1
TABLESTYLE
  2
AcDbTableStyle
  3
ObjectDBX Classes
 90
     4095
 91
        1
280
     0
281
     0
  0
CLASS
  1
MLEADERSTYLE
  2
AcDbMLeaderStyle
  3
ACDB_MLEADERSTYLE_CLASS
 90
     4095
 91
        1
280
     0
281
     0
  0
CLASS
  1
DICTIONARYVAR
  2
AcDbDictionaryVar
  3
ObjectDBX Classes
 90
        0
 91
        3
280
     0
281
     0
  0
CLASS
  1
CELLSTYLEMAP
  2
AcDbCellStyleMap
  3
ObjectDBX Classes
 90
     1152
 91
        1
280
     0
281
     0
  0
ENDSEC
  0
SECTION
  2
TABLES
  0
TABLE
  2
VPORT
  5
8
330
0
100
AcDbSymbolTable
 70
     1
  0
VPORT
  5
57
330
8
100
AcDbSymbolTableRecord
100
AcDbViewportTableRecord
  2
*Active
 70
     0
 10
0.0
 20
0.0
 11
1.0
 21
1.0
 12
10.625
 22
6.875
 13
0.0
 23
0.0
 14
1.0
 24
1.0
 15
0.0
 25
0.0
 16
0.0
 26
0.0
 36
1.0
 17
0.0
 27
0.0
 37
0.0
 40
13.75
 41
1.545454545454545
 42
50.0
 43
0.0
 44
0.0
 50
0.0
 51
0.0
 71
     0
 72
   100
 73
     1
 74
     1
 75
     0
 76
     0
 77
     0
 78
     0
281
     0
 65
     1
110
0.0
120
0.0
130
0.0
111
1.0
121
0.0
131
0.0
112
0.0
122
1.0
132
0.0
 79
     0
146
0.0
 60
     3
 61
     5
292
     1
282
     1
141
0.0
142
0.0
 63
   250
421
  3355443
  0
ENDTAB
  0
TABLE
  2
LTYPE
  5
5
330
0
100
AcDbSymbolTable
 70
    59
  0
LTYPE
  5
5B
330
5
100
AcDbSymbolTableRecord
100
AcDbLinetypeTableRecord
  2
ByBlock
 70
     0
  3

 72
    65
 73
     0
 40
0.0
  0
LTYPE
  5
5C
330
5
100
AcDbSymbolTableRecord
100
AcDbLinetypeTableRecord
  2
ByLayer
 70
     0
  3

 72
    65
 73
     0
 40
0.0
  0
LTYPE
  5
5D
330
5
100
AcDbSymbolTableRecord
100
AcDbLinetypeTableRecord
  2
Continuous
 70
     0
  3
Solid line
 72
    65
 73
     0
 40
0.0
  0
LTYPE
  5
7C
330
5
100
AcDbSymbolTableRecord
100
AcDbLinetypeTableRecord
  2
BY_STANDARD
 70
     0
  3
By Standard ____________    ____    ____   _
 72
    65
 73
     6
 40
1.240299999999999
 49
0.6614
 74
     0
 49
-0.0827
 74
     0
 49
0.1654
 74
     0
 49
-0.0827
 74
     0
 49
0.1654
 74
     0
 49
-0.0827
 74
     0
  0
LTYPE
  5
7D
330
5
100
AcDbSymbolTableRecord
100
AcDbLinetypeTableRecord
  2
CHAIN
 70
     0
  3
Chain ____ _ ____ _ ____ _ ____ _ ____ _ ____
 72
    65
 73
     4
 40
0.7087
 49
0.4724000000000001
 74
     0
 49
-0.0591
 74
     0
 49
0.1181
 74
     0
 49
-0.0591
 74
     0
  0
LTYPE
  5
7E
330
5
100
AcDbSymbolTableRecord
100
AcDbLinetypeTableRecord
  2
DASH_DOT
 70
     0
  3
Dash dot __ . __ . __ . __ . __ . __ . __ . __
 72
    65
 73
     4
 40
0.37
 49
0.24
 74
     0
 49
-0.06
 74
     0
 49
0.01
 74
     0
 49
-0.06
 74
     0
  0
LTYPE
  5
7F
330
5
100
AcDbSymbolTableRecord
100
AcDbLinetypeTableRecord
  2
DOUBLE_DASH_DOT
 70
     0
  3
Double-Dash Dot __ __ . __ __ . __ __ . __ _
 72
    65
 73
     6
 40
0.4398
 49
0.24
 74
     0
 49
-0.06
 74
     0
 49
0.0098
 74
     0
 49
-0.06
 74
     0
 49
0.01
 74
     0
 49
-0.06
 74
     0
  0
LTYPE
  5
80
330
5
100
AcDbSymbolTableRecord
100
AcDbLinetypeTableRecord
  2
DASH_TRIPLE_DOT
 70
     0
  3
Dash Triple-Dot _ . . . _ . . . _ . . . _
 72
    65
 73
     8
 40
0.51
 49
0.24
 74
     0
 49
-0.06
 74
     0
 49
0.01
 74
     0
 49
-0.06
 74
     0
 49
0.01
 74
     0
 49
-0.06
 74
     0
 49
0.01
 74
     0
 49
-0.06
 74
     0
  0
LTYPE
  5
81
330
5
100
AcDbSymbolTableRecord
100
AcDbLinetypeTableRecord
  2
DASHED
 70
     0
  3
Dashed __ __ __ __ __ __ __ __ __ __ __ __ __ _
 72
    65
 73
     2
 40
0.2067
 49
0.1654
 74
     0
 49
-0.0413
 74
     0
  0
LTYPE
  5
82
330
5
100
AcDbSymbolTableRecord
100
AcDbLinetypeTableRecord
  2
DASH_DOUBLE_DOT
 70
     0
  3
Dash Double-Dot __ . . __ . . __ . . __ . .
 72
    65
 73
     6
 40
0.4398
 49
0.24
 74
     0
 49
-0.06
 74
     0
 49
0.0098
 74
     0
 49
-0.06
 74
     0
 49
0.01
 74
     0
 49
-0.06
 74
     0
  0
LTYPE
  5
83
330
5
100
AcDbSymbolTableRecord
100
AcDbLinetypeTableRecord
  2
DASHED_SPACE
 70
     0
  3
Dashed Space __ __ __ __ __ __ __ __ __ __ __ _
 72
    65
 73
     2
 40
0.2067
 49
0.1654
 74
     0
 49
-0.0413
 74
     0
  0
LTYPE
  5
84
330
5
100
AcDbSymbolTableRecord
100
AcDbLinetypeTableRecord
  2
DOTTED
 70
     0
  3
Dotted . . . . . . . . . . . . . . . . . . . . 
 72
    65
 73
     2
 40
0.0482
 49
0.0069
 74
     0
 49
-0.0413
 74
     0
  0
LTYPE
  5
85
330
5
100
AcDbSymbolTableRecord
100
AcDbLinetypeTableRecord
  2
DOUBLE_DASH_CHAIN
 70
     0
  3
Double-Dash Chain ______  __  __  ______  __  _
 72
    65
 73
     6
 40
1.240299999999999
 49
0.6614
 74
     0
 49
-0.0827
 74
     0
 49
0.1654
 74
     0
 49
-0.0827
 74
     0
 49
0.1654
 74
     0
 49
-0.0827
 74
     0
  0
LTYPE
  5
87
330
5
100
AcDbSymbolTableRecord
100
AcDbLinetypeTableRecord
  2
DOUBLE_DASH_DOUBLE_DOT
 70
     0
  3
Double-Dash Double-dot _ _ . . _ _ . . _
 72
    65
 73
     8
 40
0.7400000000000001
 49
0.24
 74
     0
 49
-0.06
 74
     0
 49
0.24
 74
     0
 49
-0.06
 74
     0
 49
0.01
 74
     0
 49
-0.06
 74
     0
 49
0.01
 74
     0
 49
-0.06
 74
     0
  0
LTYPE
  5
88
330
5
100
AcDbSymbolTableRecord
100
AcDbLinetypeTableRecord
  2
DOUBLE_DASH_TRIPLE_DOT
 70
     0
  3
Double Dash Triple Dot __ __ . . . __ __ . .
 72
    65
 73
    10
 40
0.8100000000000001
 49
0.24
 74
     0
 49
-0.06
 74
     0
 49
0.24
 74
     0
 49
-0.06
 74
     0
 49
0.01
 74
     0
 49
-0.06
 74
     0
 49
0.01
 74
     0
 49
-0.06
 74
     0
 49
0.01
 74
     0
 49
-0.06
 74
     0
  0
LTYPE
  5
89
330
5
100
AcDbSymbolTableRecord
100
AcDbLinetypeTableRecord
  2
LONG_DASH_DOTTED
 70
     0
  3
Long Dash Dotted ____ . ____ . ____ . ____ . _
 72
    65
 73
     4
 40
0.3543
 49
0.2362
 74
     0
 49
-0.0295
 74
     0
 49
0.0591
 74
     0
 49
-0.0295
 74
     0
  0
LTYPE
  5
8A
330
5
100
AcDbSymbolTableRecord
100
AcDbLinetypeTableRecord
  2
LONG_DASH_DOUBLE_DOT
 70
     0
  3
Long Dash Double Dot ________  .  .  ________  
 72
    65
 73
     6
 40
0.6799999999999999
 49
0.48
 74
     0
 49
-0.06
 74
     0
 49
0.01
 74
     0
 49
-0.06
 74
     0
 49
0.01
 74
     0
 49
-0.06
 74
     0
  0
LTYPE
  5
8B
330
5
100
AcDbSymbolTableRecord
100
AcDbLinetypeTableRecord
  2
LONG_DASH_TRIPLE_DOT
 70
     0
  3
Long Dash Triple Dot ____ ... ____ ... ____
 72
    65
 73
     8
 40
0.3689
 49
0.2362
 74
     0
 49
-0.0295
 74
     0
 49
0.0049
 74
     0
 49
-0.0295
 74
     0
 49
0.0049
 74
     0
 49
-0.0295
 74
     0
 49
0.0049
 74
     0
 49
-0.0295
 74
     0
  0
LTYPE
  5
8C
330
5
100
AcDbSymbolTableRecord
100
AcDbLinetypeTableRecord
  2
BORDER
 70
     0
  3
Border __ __ . __ __ . __ __ . __ __ . __ __ .
 72
    65
 73
     6
 40
1.75
 49
0.5
 74
     0
 49
-0.25
 74
     0
 49
0.5
 74
     0
 49
-0.25
 74
     0
 49
0.0
 74
     0
 49
-0.25
 74
     0
  0
LTYPE
  5
8D
330
5
100
AcDbSymbolTableRecord
100
AcDbLinetypeTableRecord
  2
BORDER2
 70
     0
  3
Border (.5x) __.__.__.__.__.__.__.__.__.__.__.
 72
    65
 73
     6
 40
0.875
 49
0.25
 74
     0
 49
-0.125
 74
     0
 49
0.25
 74
     0
 49
-0.125
 74
     0
 49
0.0
 74
     0
 49
-0.125
 74
     0
  0
LTYPE
  5
8E
330
5
100
AcDbSymbolTableRecord
100
AcDbLinetypeTableRecord
  2
BORDERX2
 70
     0
  3
Border (2x) ____  ____  .  ____  ____  .  ___
 72
    65
 73
     6
 40
3.5
 49
1.0
 74
     0
 49
-0.5
 74
     0
 49
1.0
 74
     0
 49
-0.5
 74
     0
 49
0.0
 74
     0
 49
-0.5
 74
     0
  0
LTYPE
  5
8F
330
5
100
AcDbSymbolTableRecord
100
AcDbLinetypeTableRecord
  2
CENTER
 70
     0
  3
Center ____ _ ____ _ ____ _ ____ _ ____ _ ____
 72
    65
 73
     4
 40
2.0
 49
1.25
 74
     0
 49
-0.25
 74
     0
 49
0.25
 74
     0
 49
-0.25
 74
     0
  0
LTYPE
  5
90
330
5
100
AcDbSymbolTableRecord
100
AcDbLinetypeTableRecord
  2
CENTER2
 70
     0
  3
Center (.5x) ___ _ ___ _ ___ _ ___ _ ___ _ ___
 72
    65
 73
     4
 40
1.125
 49
0.75
 74
     0
 49
-0.125
 74
     0
 49
0.125
 74
     0
 49
-0.125
 74
     0
  0
LTYPE
  5
91
330
5
100
AcDbSymbolTableRecord
100
AcDbLinetypeTableRecord
  2
CENTERX2
 70
     0
  3
Center (2x) ________  __  ________  __  _____
 72
    65
 73
     4
 40
4.0
 49
2.5
 74
     0
 49
-0.5
 74
     0
 49
0.5
 74
     0
 49
-0.5
 74
     0
  0
LTYPE
  5
92
330
5
100
AcDbSymbolTableRecord
100
AcDbLinetypeTableRecord
  2
DASHDOT2
 70
     0
  3
Dash dot (.5x) _._._._._._._._._._._._._._._.
 72
    65
 73
     4
 40
0.5
 49
0.25
 74
     0
 49
-0.125
 74
     0
 49
0.0
 74
     0
 49
-0.125
 74
     0
  0
LTYPE
  5
93
330
5
100
AcDbSymbolTableRecord
100
AcDbLinetypeTableRecord
  2
DASHDOTX2
 70
     0
  3
Dash dot (2x) ____  .  ____  .  ____  .  ___
 72
    65
 73
     4
 40
2.0
 49
1.0
 74
     0
 49
-0.5
 74
     0
 49
0.0
 74
     0
 49
-0.5
 74
     0
  0
LTYPE
  5
95
330
5
100
AcDbSymbolTableRecord
100
AcDbLinetypeTableRecord
  2
DASHED2
 70
     0
  3
Dashed (.5x) _ _ _ _ _ _ _ _ _ _ _ _ _ _ _ _ _
 72
    65
 73
     2
 40
0.375
 49
0.25
 74
     0
 49
-0.125
 74
     0
  0
LTYPE
  5
96
330
5
100
AcDbSymbolTableRecord
100
AcDbLinetypeTableRecord
  2
DASHEDX2
 70
     0
  3
Dashed (2x) ____  ____  ____  ____  ____  ___
 72
    65
 73
     2
 40
1.5
 49
1.0
 74
     0
 49
-0.5
 74
     0
  0
LTYPE
  5
97
330
5
100
AcDbSymbolTableRecord
100
AcDbLinetypeTableRecord
  2
DIVIDE
 70
     0
  3
Divide ____ . . ____ . . ____ . . ____ . . ____
 72
    65
 73
     6
 40
1.25
 49
0.5
 74
     0
 49
-0.25
 74
     0
 49
0.0
 74
     0
 49
-0.25
 74
     0
 49
0.0
 74
     0
 49
-0.25
 74
     0
  0
LTYPE
  5
98
330
5
100
AcDbSymbolTableRecord
100
AcDbLinetypeTableRecord
  2
DIVIDE2
 70
     0
  3
Divide (.5x) __..__..__..__..__..__..__..__.._
 72
    65
 73
     6
 40
0.625
 49
0.25
 74
     0
 49
-0.125
 74
     0
 49
0.0
 74
     0
 49
-0.125
 74
     0
 49
0.0
 74
     0
 49
-0.125
 74
     0
  0
LTYPE
  5
99
330
5
100
AcDbSymbolTableRecord
100
AcDbLinetypeTableRecord
  2
DIVIDEX2
 70
     0
  3
Divide (2x) ________  .  .  ________  .  .  _
 72
    65
 73
     6
 40
2.5
 49
1.0
 74
     0
 49
-0.5
 74
     0
 49
0.0
 74
     0
 49
-0.5
 74
     0
 49
0.0
 74
     0
 49
-0.5
 74
     0
  0
LTYPE
  5
9A
330
5
100
AcDbSymbolTableRecord
100
AcDbLinetypeTableRecord
  2
DOT
 70
     0
  3
Dot . . . . . . . . . . . . . . . . . . . . . .
 72
    65
 73
     2
 40
0.25
 49
0.0
 74
     0
 49
-0.25
 74
     0
  0
LTYPE
  5
9B
330
5
100
AcDbSymbolTableRecord
100
AcDbLinetypeTableRecord
  2
DOT2
 70
     0
  3
Dot (.5x) .....................................
 72
    65
 73
     2
 40
0.125
 49
0.0
 74
     0
 49
-0.125
 74
     0
  0
LTYPE
  5
9C
330
5
100
AcDbSymbolTableRecord
100
AcDbLinetypeTableRecord
  2
DOTX2
 70
     0
  3
Dot (2x) .  .  .  .  .  .  .  .  .  .  .  .  . 
 72
    65
 73
     2
 40
0.5
 49
0.0
 74
     0
 49
-0.5
 74
     0
  0
LTYPE
  5
9D
330
5
100
AcDbSymbolTableRecord
100
AcDbLinetypeTableRecord
  2
HIDDEN
 70
     0
  3
Hidden __ __ __ __ __ __ __ __ __ __ __ __ __ _
 72
    65
 73
     2
 40
0.375
 49
0.25
 74
     0
 49
-0.125
 74
     0
  0
LTYPE
  5
9E
330
5
100
AcDbSymbolTableRecord
100
AcDbLinetypeTableRecord
  2
HIDDEN2
 70
     0
  3
Hidden (.5x) _ _ _ _ _ _ _ _ _ _ _ _ _ _ _ _ _
 72
    65
 73
     2
 40
0.1875
 49
0.125
 74
     0
 49
-0.0625
 74
     0
  0
LTYPE
  5
9F
330
5
100
AcDbSymbolTableRecord
100
AcDbLinetypeTableRecord
  2
HIDDENX2
 70
     0
  3
Hidden (2x) ____ ____ ____ ____ ____ ____ ____
 72
    65
 73
     2
 40
0.75
 49
0.5
 74
     0
 49
-0.25
 74
     0
  0
LTYPE
  5
A0
330
5
100
AcDbSymbolTableRecord
100
AcDbLinetypeTableRecord
  2
PHANTOM
 70
     0
  3
Phantom ______  __  __  ______  __  __  ______
 72
    65
 73
     6
 40
2.5
 49
1.25
 74
     0
 49
-0.25
 74
     0
 49
0.25
 74
     0
 49
-0.25
 74
     0
 49
0.25
 74
     0
 49
-0.25
 74
     0
  0
LTYPE
  5
A1
330
5
100
AcDbSymbolTableRecord
100
AcDbLinetypeTableRecord
  2
PHANTOM2
 70
     0
  3
Phantom (.5x) ___ _ _ ___ _ _ ___ _ _ ___ _ _
 72
    65
 73
     6
 40
1.25
 49
0.625
 74
     0
 49
-0.125
 74
     0
 49
0.125
 74
     0
 49
-0.125
 74
     0
 49
0.125
 74
     0
 49
-0.125
 74
     0
  0
LTYPE
  5
A2
330
5
100
AcDbSymbolTableRecord
100
AcDbLinetypeTableRecord
  2
PHANTOMX2
 70
     0
  3
Phantom (2x) ____________    ____    ____   _
 72
    65
 73
     6
 40
5.0
 49
2.5
 74
     0
 49
-0.5
 74
     0
 49
0.5
 74
     0
 49
-0.5
 74
     0
 49
0.5
 74
     0
 49
-0.5
 74
     0
  0
LTYPE
  5
A3
330
5
100
AcDbSymbolTableRecord
100
AcDbLinetypeTableRecord
  2
ACAD_ISO02W100
 70
     0
  3
ISO dash __ __ __ __ __ __ __ __ __ __ __ __ __
 72
    65
 73
     2
 40
0.59
 49
0.47
 74
     0
 49
-0.12
 74
     0
  0
LTYPE
  5
A4
330
5
100
AcDbSymbolTableRecord
100
AcDbLinetypeTableRecord
  2
ACAD_ISO03W100
 70
     0
  3
ISO dash space __    __    __    __    __    __
 72
    65
 73
     2
 40
1.179999999999999
 49
0.47
 74
     0
 49
-0.71
 74
     0
  0
LTYPE
  5
A5
330
5
100
AcDbSymbolTableRecord
100
AcDbLinetypeTableRecord
  2
ACAD_ISO04W100
 70
     0
  3
ISO long-dash dot ____ . ____ . ____ . ____ . _
 72
    65
 73
     4
 40
1.179999999999999
 49
0.9399999999999998
 74
     0
 49
-0.12
 74
     0
 49
0.0
 74
     0
 49
-0.12
 74
     0
  0
LTYPE
  5
A6
330
5
100
AcDbSymbolTableRecord
100
AcDbLinetypeTableRecord
  2
ACAD_ISO05W100
 70
     0
  3
ISO long-dash double-dot ____ .. ____ .. ____ .
 72
    65
 73
     6
 40
1.299999999999999
 49
0.9399999999999998
 74
     0
 49
-0.12
 74
     0
 49
0.0
 74
     0
 49
-0.12
 74
     0
 49
0.0
 74
     0
 49
-0.12
 74
     0
  0
LTYPE
  5
A7
330
5
100
AcDbSymbolTableRecord
100
AcDbLinetypeTableRecord
  2
ACAD_ISO06W100
 70
     0
  3
ISO long-dash triple-dot ____ ... ____ ... ____
 72
    65
 73
     8
 40
1.419999999999999
 49
0.9399999999999998
 74
     0
 49
-0.12
 74
     0
 49
0.0
 74
     0
 49
-0.12
 74
     0
 49
0.0
 74
     0
 49
-0.12
 74
     0
 49
0.0
 74
     0
 49
-0.12
 74
     0
  0
LTYPE
  5
A8
330
5
100
AcDbSymbolTableRecord
100
AcDbLinetypeTableRecord
  2
ACAD_ISO07W100
 70
     0
  3
ISO dot . . . . . . . . . . . . . . . . . . . .
 72
    65
 73
     2
 40
0.12
 49
0.0
 74
     0
 49
-0.12
 74
     0
  0
LTYPE
  5
A9
330
5
100
AcDbSymbolTableRecord
100
AcDbLinetypeTableRecord
  2
ACAD_ISO08W100
 70
     0
  3
ISO long-dash short-dash ____ __ ____ __ ____ _
 72
    65
 73
     4
 40
0.95
 49
0.47
 74
     0
 49
-0.12
 74
     0
 49
0.24
 74
     0
 49
-0.12
 74
     0
  0
LTYPE
  5
AA
330
5
100
AcDbSymbolTableRecord
100
AcDbLinetypeTableRecord
  2
ACAD_ISO09W100
 70
     0
  3
ISO long-dash double-short-dash ____ __ __ ____
 72
    65
 73
     6
 40
1.31
 49
0.47
 74
     0
 49
-0.12
 74
     0
 49
0.24
 74
     0
 49
-0.12
 74
     0
 49
0.24
 74
     0
 49
-0.12
 74
     0
  0
LTYPE
  5
AB
330
5
100
AcDbSymbolTableRecord
100
AcDbLinetypeTableRecord
  2
ACAD_ISO10W100
 70
     0
  3
ISO dash dot __ . __ . __ . __ . __ . __ . __ .
 72
    65
 73
     4
 40
0.71
 49
0.47
 74
     0
 49
-0.12
 74
     0
 49
0.0
 74
     0
 49
-0.12
 74
     0
  0
LTYPE
  5
AC
330
5
100
AcDbSymbolTableRecord
100
AcDbLinetypeTableRecord
  2
ACAD_ISO11W100
 70
     0
  3
ISO double-dash dot __ __ . __ __ . __ __ . __ 
 72
    65
 73
     6
 40
1.299999999999999
 49
0.47
 74
     0
 49
-0.12
 74
     0
 49
0.47
 74
     0
 49
-0.12
 74
     0
 49
0.0
 74
     0
 49
-0.12
 74
     0
  0
LTYPE
  5
AD
330
5
100
AcDbSymbolTableRecord
100
AcDbLinetypeTableRecord
  2
ACAD_ISO12W100
 70
     0
  3
ISO dash double-dot __ . . __ . . __ . . __ . .
 72
    65
 73
     6
 40
0.8299999999999998
 49
0.47
 74
     0
 49
-0.12
 74
     0
 49
0.0
 74
     0
 49
-0.12
 74
     0
 49
0.0
 74
     0
 49
-0.12
 74
     0
  0
LTYPE
  5
AE
330
5
100
AcDbSymbolTableRecord
100
AcDbLinetypeTableRecord
  2
ACAD_ISO13W100
 70
     0
  3
ISO double-dash double-dot __ __ . . __ __ . . 
 72
    65
 73
     8
 40
1.419999999999999
 49
0.47
 74
     0
 49
-0.12
 74
     0
 49
0.47
 74
     0
 49
-0.12
 74
     0
 49
0.0
 74
     0
 49
-0.12
 74
     0
 49
0.0
 74
     0
 49
-0.12
 74
     0
  0
LTYPE
  5
AF
330
5
100
AcDbSymbolTableRecord
100
AcDbLinetypeTableRecord
  2
ACAD_ISO14W100
 70
     0
  3
ISO dash triple-dot __ . . . __ . . . __ . . . 
 72
    65
 73
     8
 40
0.95
 49
0.47
 74
     0
 49
-0.12
 74
     0
 49
0.0
 74
     0
 49
-0.12
 74
     0
 49
0.0
 74
     0
 49
-0.12
 74
     0
 49
0.0
 74
     0
 49
-0.12
 74
     0
  0
LTYPE
  5
B0
330
5
100
AcDbSymbolTableRecord
100
AcDbLinetypeTableRecord
  2
ACAD_ISO15W100
 70
     0
  3
ISO double-dash triple-dot __ __ . . . __ __ . 
 72
    65
 73
    10
 40
1.539999999999999
 49
0.47
 74
     0
 49
-0.12
 74
     0
 49
0.47
 74
     0
 49
-0.12
 74
     0
 49
0.0
 74
     0
 49
-0.12
 74
     0
 49
0.0
 74
     0
 49
-0.12
 74
     0
 49
0.0
 74
     0
 49
-0.12
 74
     0
  0
LTYPE
  5
B3
330
5
100
AcDbSymbolTableRecord
100
AcDbLinetypeTableRecord
  2
FENCELINE1
 70
     0
  3
Fenceline circle ----0-----0----0-----0----0---
 72
    65
 73
     4
 40
1.45
 49
0.25
 74
     0
 49
-0.1
 74
     4
 75
   133
340
B2
 46
0.1
 50
0.0
 44
-0.1
 45
0.0
 49
-0.1
 74
     0
 49
1.0
 74
     0
  0
LTYPE
  5
B4
330
5
100
AcDbSymbolTableRecord
100
AcDbLinetypeTableRecord
  2
FENCELINE2
 70
     0
  3
Fenceline square ----[]-----[]----[]-----[]----
 72
    65
 73
     4
 40
1.45
 49
0.25
 74
     0
 49
-0.1
 74
     4
 75
   132
340
B2
 46
0.1
 50
0.0
 44
-0.1
 45
0.0
 49
-0.1
 74
     0
 49
1.0
 74
     0
  0
LTYPE
  5
B5
330
5
100
AcDbSymbolTableRecord
100
AcDbLinetypeTableRecord
  2
TRACKS
 70
     0
  3
Tracks -|-|-|-|-|-|-|-|-|-|-|-|-|-|-|-|-|-|-|-|
 72
    65
 73
     2
 40
0.3
 49
0.15
 74
     4
 75
   130
340
B2
 46
0.25
 50
0.0
 44
0.0
 45
0.0
 49
0.15
 74
     0
  0
LTYPE
  5
B6
330
5
100
AcDbSymbolTableRecord
100
AcDbLinetypeTableRecord
  2
BATTING
 70
     0
  3
Batting SSSSSSSSSSSSSSSSSSSSSSSSSSSSSSSSSSSSSSS
 72
    65
 73
     4
 40
0.4001000000000001
 49
0.0001
 74
     0
 49
-0.1
 74
     4
 75
   134
340
B2
 46
0.1
 50
0.0
 44
-0.1
 45
0.0
 49
-0.2
 74
     4
 75
   134
340
B2
 46
0.1
 50
180.0
 44
0.1
 45
0.0
 49
-0.1
 74
     0
  0
LTYPE
  5
B7
330
5
100
AcDbSymbolTableRecord
100
AcDbLinetypeTableRecord
  2
HOT_WATER_SUPPLY
 70
     0
  3
Hot water supply ---- HW ---- HW ---- HW ----
 72
    65
 73
     3
 40
0.9
 49
0.5
 74
     0
 49
-0.2
 74
     2
 75
     0
340
55
 46
0.1
 50
0.0
 44
-0.1
 45
-0.05
  9
HW
 49
-0.2
 74
     0
  0
LTYPE
  5
B8
330
5
100
AcDbSymbolTableRecord
100
AcDbLinetypeTableRecord
  2
GAS_LINE
 70
     0
  3
Gas line ----GAS----GAS----GAS----GAS----GAS---
 72
    65
 73
     3
 40
0.95
 49
0.5
 74
     0
 49
-0.2
 74
     2
 75
     0
340
55
 46
0.1
 50
0.0
 44
-0.1
 45
-0.05
  9
GAS
 49
-0.25
 74
     0
  0
LTYPE
  5
B9
330
5
100
AcDbSymbolTableRecord
100
AcDbLinetypeTableRecord
  2
ZIGZAG
 70
     0
  3
Zig zag /\/\/\/\/\/\/\/\/\/\/\/\/\/\/\/\/\/\/\/
 72
    65
 73
     4
 40
0.8001000000000001
 49
0.0001
 74
     0
 49
-0.2
 74
     4
 75
   131
340
B2
 46
0.2
 50
0.0
 44
-0.2
 45
0.0
 49
-0.4
 74
     4
 75
   131
340
B2
 46
0.2
 50
180.0
 44
0.2
 45
0.0
 49
-0.2
 74
     0
  0
ENDTAB
  0
TABLE
  2
LAYER
  5
2
330
0
100
AcDbSymbolTable
 70
    27
  0
LAYER
  5
54
330
2
100
AcDbSymbolTableRecord
100
AcDbLayerTableRecord
  2
0
 70
     0
 62
     7
  6
Continuous
370
    18
390
F
347
21
  0
LAYER
  5
C3
330
2
100
AcDbSymbolTableRecord
100
AcDbLayerTableRecord
  2
Dimension (ANSI)
 70
     0
 62
     7
  6
Continuous
370
    13
390
F
347
21
  0
LAYER
  5
C5
330
2
100
AcDbSymbolTableRecord
100
AcDbLayerTableRecord
  2
Hidden (ANSI)
 70
     0
 62
     7
  6
DASHED
370
    15
390
F
347
21
  0
LAYER
  5
CC
330
2
100
AcDbSymbolTableRecord
100
AcDbLayerTableRecord
  2
Symbol (ANSI)
 70
     0
 62
     7
  6
Continuous
370
    18
390
F
347
21
  0
LAYER
  5
CF
330
2
100
AcDbSymbolTableRecord
100
AcDbLayerTableRecord
  2
Visible (ANSI)
 70
     0
 62
     7
  6
Continuous
370
    13
390
F
347
21
  0
LAYER
  5
D0
330
2
100
AcDbSymbolTableRecord
100
AcDbLayerTableRecord
  2
Visible Narrow (ANSI)
 70
     0
 62
     7
  6
Continuous
370
    18
390
F
347
21
  0
LAYER
  5
144
330
2
100
AcDbSymbolTableRecord
100
AcDbLayerTableRecord
  2
Defpoints
 70
     0
 62
     7
  6
Continuous
290
     0
370
    -3
390
F
347
21
  0
ENDTAB
  0
TABLE
  2
STYLE
  5
3
330
0
100
AcDbSymbolTable
 70
    18
  0
STYLE
  5
55
330
3
100
AcDbSymbolTableRecord
100
AcDbTextStyleTableRecord
  2
Standard
 70
     0
 40
0.0
 41
1.0
 50
0.0
 71
     0
 42
0.2
  3
txt
  4

  0
STYLE
  5
5A
330
3
100
AcDbSymbolTableRecord
100
AcDbTextStyleTableRecord
  2
Annotative
 70
     0
 40
0.0
 41
1.0
 50
0.0
 71
     0
 42
0.2
  3
txt
  4

1001
AcadAnnotative
1000
AnnotativeData
1002
{
1070
     1
1070
     1
1002
}
  0
STYLE
  5
B2
330
3
100
AcDbSymbolTableRecord
100
AcDbTextStyleTableRecord
  2

 70
     1
 40
0.0
 41
1.0
 50
0.0
 71
     0
 42
0.2
  3
ltypeshp.shx
  4

  0
STYLE
  5
D4
330
3
100
AcDbSymbolTableRecord
100
AcDbTextStyleTableRecord
  2
ITALICC_120
 70
     0
 40
0.0
 41
1.0
 50
0.0
 71
     0
 42
0.2
  3
italicc.shx
  4

  0
STYLE
  5
D5
330
3
100
AcDbSymbolTableRecord
100
AcDbTextStyleTableRecord
  2
Label Text (ANSI)
 70
     0
 40
0.0
 41
1.0
 50
0.0
 71
     0
 42
0.2
  3
tahoma.ttf
  4

1001
ACAD
1000
Tahoma
1071
      256
  0
STYLE
  5
D6
330
3
100
AcDbSymbolTableRecord
100
AcDbTextStyleTableRecord
  2
Note Text (ANSI)
 70
     0
 40
0.0
 41
1.0
 50
0.0
 71
     0
 42
0.2
  3
tahoma.ttf
  4

1001
ACAD
1000
Tahoma
1071
      256
  0
STYLE
  5
D7
330
3
100
AcDbSymbolTableRecord
100
AcDbTextStyleTableRecord
  2
ROMANS
 70
     0
 40
0.0
 41
1.0
 50
0.0
 71
     0
 42
0.2
  3
romans.shx
  4

  0
STYLE
  5
D8
330
3
100
AcDbSymbolTableRecord
100
AcDbTextStyleTableRecord
  2
SANSSERIF_114
 70
     0
 40
0.0
 41
1.0
 50
0.0
 71
     0
 42
0.2
  3
tahoma.ttf
  4

1001
ACAD
1000
Tahoma
1071
      256
  0
STYLE
  5
D9
330
3
100
AcDbSymbolTableRecord
100
AcDbTextStyleTableRecord
  2
SANSSERIF_117
 70
     0
 40
0.0
 41
1.0
 50
0.0
 71
     0
 42
0.2
  3
tahoma.ttf
  4

1001
ACAD
1000
Tahoma
1071
      256
  0
STYLE
  5
DA
330
3
100
AcDbSymbolTableRecord
100
AcDbTextStyleTableRecord
  2
STANDARDAM_ANSI
 70
     0
 40
0.0
 41
1.0
 50
0.0
 71
     0
 42
0.2
  3
txt.shx
  4

  0
STYLE
  5
DB
330
3
100
AcDbSymbolTableRecord
100
AcDbTextStyleTableRecord
  2
StandardAM_ANSI$0
 70
     0
 40
0.0
 41
1.0
 50
0.0
 71
     0
 42
0.2
  3
txt.shx
  4

  0
STYLE
  5
DC
330
3
100
AcDbSymbolTableRecord
100
AcDbTextStyleTableRecord
  2
STANDARDAM_ANSI$3
 70
     0
 40
0.0
 41
1.0
 50
0.0
 71
     0
 42
0.2
  3
txt.shx
  4

  0
STYLE
  5
DD
330
3
100
AcDbSymbolTableRecord
100
AcDbTextStyleTableRecord
  2
STANDARDAM_ANSI$4
 70
     0
 40
0.0
 41
1.0
 50
0.0
 71
     0
 42
0.2
  3
txt.shx
  4

  0
STYLE
  5
DE
330
3
100
AcDbSymbolTableRecord
100
AcDbTextStyleTableRecord
  2
STANDARDAM_ANSI$7
 70
     0
 40
0.0
 41
1.0
 50
0.0
 71
     0
 42
0.2
  3
txt.shx
  4

  0
STYLE
  5
DF
330
3
100
AcDbSymbolTableRecord
100
AcDbTextStyleTableRecord
  2
STANDARDAM_ANSI$SF
 70
     0
 40
0.0
 41
1.0
 50
0.0
 71
     0
 42
0.2
  3
txt.shx
  4

  0
STYLE
  5
E0
330
3
100
AcDbSymbolTableRecord
100
AcDbTextStyleTableRecord
  2
STANDARDAM_ANSI$SH
 70
     0
 40
0.0
 41
1.0
 50
0.0
 71
     0
 42
0.2
  3
txt.shx
  4

  0
STYLE
  5
E1
330
3
100
AcDbSymbolTableRecord
100
AcDbTextStyleTableRecord
  2
STANDARDSTANDARD
 70
     0
 40
0.0
 41
1.0
 50
0.0
 71
     0
 42
0.2
  3
txt.shx
  4

  0
STYLE
  5
132
330
3
100
AcDbSymbolTableRecord
100
AcDbTextStyleTableRecord
  2
Text Style150
 70
     0
 40
0.0
 41
1.0
 50
0.0
 71
     0
 42
0.2
  3
tahoma.ttf
  4

1001
ACAD
1000
Tahoma
1071
      256
  0
ENDTAB
  0
TABLE
  2
VIEW
  5
6
330
0
100
AcDbSymbolTable
 70
     0
  0
ENDTAB
  0
TABLE
  2
UCS
  5
7
330
0
100
AcDbSymbolTable
 70
     0
  0
ENDTAB
  0
TABLE
  2
APPID
  5
9
330
0
100
AcDbSymbolTable
 70
     3
  0
APPID
  5
56
330
9
100
AcDbSymbolTableRecord
100
AcDbRegAppTableRecord
  2
ACAD
 70
     0
  0
APPID
  5
5E
330
9
100
AcDbSymbolTableRecord
100
AcDbRegAppTableRecord
  2
AcadAnnotative
 70
     0
  0
APPID
  5
78B
330
9
100
AcDbSymbolTableRecord
100
AcDbRegAppTableRecord
  2
ACAD_DSTYLE_DIMRADIAL_EXTENSION
 70
     0
  0
ENDTAB
  0
TABLE
  2
DIMSTYLE
  5
A
330
0
100
AcDbSymbolTable
 70
    29
100
AcDbDimStyleTable
 71
     3
340
F6
340
58
340
F8
  0
DIMSTYLE
105
58
330
A
100
AcDbSymbolTableRecord
100
AcDbDimStyleTableRecord
  2
STANDARD
 70
     0
 41
0.1800000071525573
 42
0.0625
140
0.1800000071525574
144
1.0
147
0.0900000035762787
176
   256
177
   256
178
   256
274
     3
340
55
371
    -1
372
    -1
  0
DIMSTYLE
105
59
330
A
100
AcDbSymbolTableRecord
100
AcDbDimStyleTableRecord
  2
Annotative
 70
     0
340
55
1001
AcadAnnotative
1000
AnnotativeData
1002
{
1070
     1
1070
     1
1002
}
  0
DIMSTYLE
105
E2
330
A
100
AcDbSymbolTableRecord
100
AcDbDimStyleTableRecord
  2
AM_ANSI
 70
     0
  4
 mm
 40
1.25
 41
0.119999997317791
 42
0.05
 43
0.5
 44
0.1
 45
0.00000001
 78
     4
 79
     2
140
0.1200000047683716
146
0.7099999189376831
147
0.0599999986588955
176
   256
177
   256
178
     2
284
     4
340
DA
371
    -1
372
    -1
  0
DIMSTYLE
105
E3
330
A
100
AcDbSymbolTableRecord
100
AcDbDimStyleTableRecord
  2
AM_ANSI$7
 70
     0
  4
 mm
 40
1.25
 41
0.119999997317791
 42
0.05
 43
0.5
 44
0.1
 45
0.00000001
 78
     4
 79
     2
140
0.1200000047683716
146
0.7099999189376831
147
0.0599999986588955
176
   256
177
   256
178
     2
284
     4
340
DA
371
    -1
372
    -1
  0
DIMSTYLE
105
E4
330
A
100
AcDbSymbolTableRecord
100
AcDbDimStyleTableRecord
  2
AM_ANSI$0
 70
     0
  4
 mm
 40
1.25
 41
0.119999997317791
 42
0.05
 43
0.5
 44
0.1
 45
0.00000001
 78
     4
 79
     2
140
0.1200000047683716
146
0.7099999189376831
147
0.0599999986588955
176
   256
177
   256
178
     2
284
     4
340
DB
371
    -1
372
    -1
  0
DIMSTYLE
105
E5
330
A
100
AcDbSymbolTableRecord
100
AcDbDimStyleTableRecord
  2
AM_ANSI$0$7
 70
     0
  4
 mm
 40
1.25
 41
0.119999997317791
 42
0.05
 43
0.5
 44
0.1
 45
0.00000001
 78
     4
 79
     2
140
0.1200000047683716
146
0.7099999189376831
147
0.0599999986588955
176
   256
177
   256
178
     2
284
     4
340
DB
371
    -1
372
    -1
  0
DIMSTYLE
105
E6
330
A
100
AcDbSymbolTableRecord
100
AcDbDimStyleTableRecord
  2
AM_ANSI$3
 70
     0
  4
 mm
 40
1.25
 41
0.119999997317791
 42
0.05
 43
0.5
 44
0.1
 45
0.00000001
 78
     4
 79
     2
140
0.1200000047683716
146
0.7099999189376831
147
0.0599999986588955
176
   256
177
   256
178
     2
284
     4
340
DC
371
    -1
372
    -1
  0
DIMSTYLE
105
E7
330
A
100
AcDbSymbolTableRecord
100
AcDbDimStyleTableRecord
  2
AM_ANSI$3$7
 70
     0
  4
 mm
 40
1.25
 41
0.119999997317791
 42
0.05
 43
0.5
 44
0.1
 45
0.00000001
 78
     4
 79
     2
140
0.1200000047683716
146
0.7099999189376831
147
0.0599999986588955
176
   256
177
   256
178
     2
284
     4
340
DC
371
    -1
372
    -1
  0
DIMSTYLE
105
E8
330
A
100
AcDbSymbolTableRecord
100
AcDbDimStyleTableRecord
  2
AM_ANSI$4
 70
     0
  4
 mm
 40
1.25
 41
0.119999997317791
 42
0.05
 43
0.5
 44
0.1
 45
0.00000001
 78
     4
 79
     2
140
0.1200000047683716
146
0.7099999189376831
147
0.0599999986588955
176
   256
177
   256
178
     2
284
     4
340
DD
371
    -1
372
    -1
  0
DIMSTYLE
105
E9
330
A
100
AcDbSymbolTableRecord
100
AcDbDimStyleTableRecord
  2
AM_ANSI$4$7
 70
     0
  4
 mm
 40
1.25
 41
0.119999997317791
 42
0.05
 43
0.5
 44
0.1
 45
0.00000001
 78
     4
 79
     2
140
0.1200000047683716
146
0.7099999189376831
147
0.0599999986588955
176
   256
177
   256
178
     2
284
     4
340
DD
371
    -1
372
    -1
  0
DIMSTYLE
105
EA
330
A
100
AcDbSymbolTableRecord
100
AcDbDimStyleTableRecord
  2
AM_ANSI$SF
 70
     0
  4
 mm
 40
1.25
 41
0.119999997317791
 42
0.05
 43
0.5
 44
0.1
 45
0.00000001
 75
     1
 76
     1
 78
     4
 79
     2
140
0.1200000047683716
146
0.7099999189376831
147
0.0599999986588955
176
   256
177
   256
178
     2
284
     4
340
DF
371
    -1
372
    -1
  0
DIMSTYLE
105
EB
330
A
100
AcDbSymbolTableRecord
100
AcDbDimStyleTableRecord
  2
AM_ANSI$SF$7
 70
     0
  4
 mm
 40
1.25
 41
0.119999997317791
 42
0.05
 43
0.5
 44
0.1
 45
0.00000001
 75
     1
 76
     1
 78
     4
 79
     2
140
0.1200000047683716
146
0.7099999189376831
147
0.0599999986588955
176
   256
177
   256
178
     2
284
     4
340
DF
371
    -1
372
    -1
  0
DIMSTYLE
105
EC
330
A
100
AcDbSymbolTableRecord
100
AcDbDimStyleTableRecord
  2
AM_ANSI$SH
 70
     0
  4
 mm
 40
1.25
 41
0.119999997317791
 42
0.05
 43
0.5
 44
0.1
 45
0.00000001
 75
     1
 76
     1
 78
     4
 79
     2
140
0.1200000047683716
146
0.7099999189376831
147
0.0599999986588955
176
   256
177
   256
178
     2
284
     4
340
E0
371
    -1
372
    -1
  0
DIMSTYLE
105
ED
330
A
100
AcDbSymbolTableRecord
100
AcDbDimStyleTableRecord
  2
AM_ANSI$SH$7
 70
     0
  4
 mm
 40
1.25
 41
0.119999997317791
 42
0.05
 43
0.5
 44
0.1
 45
0.00000001
 75
     1
 76
     1
 78
     4
 79
     2
140
0.1200000047683716
146
0.7099999189376831
147
0.0599999986588955
176
   256
177
   256
178
     2
284
     4
340
E0
371
    -1
372
    -1
  0
DIMSTYLE
105
EE
330
A
100
AcDbSymbolTableRecord
100
AcDbDimStyleTableRecord
  2
Architectural (ANSI)
 70
     0
 40
1.25
 41
0.0984251946210861
 43
0.2362204724409449
 44
0.125
 45
0.00000001
 46
0.3937007874015748
 78
     3
 79
     3
140
0.1200000047683716
147
0.031496062992126
171
     1
176
   256
177
   256
178
   256
272
     2
274
     1
276
     2
277
     4
284
    12
285
     4
286
    12
340
D6
371
    -1
372
    -1
  0
DIMSTYLE
105
EF
330
A
100
AcDbSymbolTableRecord
100
AcDbDimStyleTableRecord
  2
Architectural (ANSI)$7
 70
     0
 40
1.25
 41
0.0984251946210861
 43
0.2362204724409449
 44
0.125
 45
0.00000001
 46
0.3937007874015748
 78
     3
 79
     3
140
0.1200000047683716
147
0.031496062992126
171
     1
176
   256
177
   256
178
   256
272
     2
274
     1
276
     2
277
     4
284
    12
285
     4
286
    12
340
D6
371
    -1
372
    -1
  0
DIMSTYLE
105
F0
330
A
100
AcDbSymbolTableRecord
100
AcDbDimStyleTableRecord
  2
Default - Fraction (ANSI)
 70
     0
 40
1.25
 41
0.0984251946210861
 43
0.2362204724409449
 44
0.125
 45
0.00000001
 46
0.3937007874015748
 79
     3
140
0.1200000047683716
147
0.031496062992126
171
     1
176
   256
177
   256
178
   256
272
     2
274
     1
276
     2
277
     5
284
    12
285
     4
286
    12
340
D6
371
    -1
372
    -1
  0
DIMSTYLE
105
F1
330
A
100
AcDbSymbolTableRecord
100
AcDbDimStyleTableRecord
  2
Default - Fraction (ANSI)$7
 70
     0
 40
1.25
 41
0.0984251946210861
 43
0.2362204724409449
 44
0.125
 45
0.00000001
 46
0.3937007874015748
 79
     3
140
0.1200000047683716
147
0.031496062992126
171
     1
176
   256
177
   256
178
   256
272
     2
274
     1
276
     2
277
     5
284
    12
285
     4
286
    12
340
D6
371
    -1
372
    -1
  0
DIMSTYLE
105
F2
330
A
100
AcDbSymbolTableRecord
100
AcDbDimStyleTableRecord
  2
Default - mm (ANSI)
 70
     0
 40
1.25
 41
0.0984251946210861
 42
0.063
 43
0.2362204724409449
 44
0.125
 45
0.00000001
 46
0.3937007874015748
 73
     0
 78
     4
 79
     1
140
0.1200000047683716
143
1.0
144
25.4
147
0.031496062992126
171
     1
176
   256
177
   256
178
   256
179
     1
271
     2
272
     2
274
     1
284
     4
285
     4
340
D6
371
    -1
372
    -1
  0
DIMSTYLE
105
F3
330
A
100
AcDbSymbolTableRecord
100
AcDbDimStyleTableRecord
  2
Default - mm (ANSI)$7
 70
     0
 40
1.25
 41
0.0984251946210861
 42
0.063
 43
0.2362204724409449
 44
0.125
 45
0.00000001
 46
0.3937007874015748
 73
     0
 78
     4
 79
     1
140
0.1200000047683716
143
1.0
144
25.4
147
0.031496062992126
171
     1
176
   256
177
   256
178
   256
179
     1
271
     2
272
     2
274
     1
284
     4
285
     4
340
D6
371
    -1
372
    -1
  0
DIMSTYLE
105
F4
330
A
100
AcDbSymbolTableRecord
100
AcDbDimStyleTableRecord
  2
Default - mm [in] (ANSI)
 70
     0
  4
 in
 40
1.25
 41
0.0984251946210861
 42
0.063
 43
0.25
 44
0.125
 45
0.00000001
 46
0.3937007874015748
 73
     0
 78
     4
 79
     1
140
0.1200000047683716
143
0.03937
144
25.4
147
0.031496062992126
170
     1
171
     3
176
   256
177
   256
178
   256
179
     1
271
     2
272
     2
274
     3
284
     4
285
     4
286
     4
340
D6
371
    -1
372
    -1
  0
DIMSTYLE
105
F5
330
A
100
AcDbSymbolTableRecord
100
AcDbDimStyleTableRecord
  2
Default - mm [in] (ANSI)$7
 70
     0
  4
 in
 40
1.25
 41
0.0984251946210861
 42
0.063
 43
0.25
 44
0.125
 45
0.00000001
 46
0.3937007874015748
 73
     0
 78
     4
 79
     1
140
0.1200000047683716
143
0.03937
144
25.4
147
0.031496062992126
170
     1
171
     3
176
   256
177
   256
178
   256
179
     1
271
     2
272
     2
274
     3
284
     4
285
     4
286
     4
340
D6
371
    -1
372
    -1
  0
DIMSTYLE
105
F6
102
{ACAD_REACTORS
330
528
330
612
330
6F1
330
7AC
102
}
330
A
100
AcDbSymbolTableRecord
100
AcDbDimStyleTableRecord
  2
Default (ANSI)
 70
     0
 40
1.25
 41
0.0984251946210861
 43
0.2362204724409449
 44
0.125
 45
0.00000001
 46
0.3937007874015748
 79
     1
140
0.1200000047683716
147
0.031496062992126
171
     1
176
   256
177
   256
178
   256
271
     3
272
     2
274
     1
284
     4
285
     4
340
D6
371
    -1
372
    -1
  0
DIMSTYLE
105
F7
330
A
100
AcDbSymbolTableRecord
100
AcDbDimStyleTableRecord
  2
Default (ANSI)$7
 70
     0
 40
1.25
 41
0.0984251946210861
 43
0.2362204724409449
 44
0.125
 45
0.00000001
 46
0.3937007874015748
 79
     1
140
0.1200000047683716
147
0.031496062992126
171
     1
176
   256
177
   256
178
   256
271
     3
272
     2
274
     1
284
     4
285
     4
340
D6
371
    -1
372
    -1
  0
DIMSTYLE
105
F8
102
{ACAD_REACTORS
330
142
330
22E
330
318
330
42A
102
}
330
A
100
AcDbSymbolTableRecord
100
AcDbDimStyleTableRecord
  2
Default (ANSI)-01
 70
     0
 40
1.25
 41
0.0984251946210861
 43
0.2362204724409449
 44
0.125
 45
0.00000001
 46
0.3937007874015748
 79
     1
140
0.1200000047683716
147
0.031496062992126
171
     1
176
   256
177
   256
178
   256
271
     2
272
     2
274
     1
284
     4
285
     4
340
D6
371
    -1
372
    -1
  0
DIMSTYLE
105
F9
330
A
100
AcDbSymbolTableRecord
100
AcDbDimStyleTableRecord
  2
Default (ANSI)-01$7
 70
     0
 40
1.25
 41
0.0984251946210861
 43
0.2362204724409449
 44
0.125
 45
0.00000001
 46
0.3937007874015748
 79
     1
140
0.1200000047683716
147
0.031496062992126
171
     1
176
   256
177
   256
178
   256
271
     2
272
     2
274
     1
284
     4
285
     4
340
D6
371
    -1
372
    -1
  0
DIMSTYLE
105
FA
330
A
100
AcDbSymbolTableRecord
100
AcDbDimStyleTableRecord
  2
Alternate (ANSI)
 70
     0
 40
1.25
 41
0.0979999974370003
340
55
342
FB
  0
DIMSTYLE
105
10D
330
A
100
AcDbSymbolTableRecord
100
AcDbDimStyleTableRecord
  2
Datum (ANSI)
 70
     0
 40
1.25
 41
0.0979999974370003
340
55
342
FB
  0
DIMSTYLE
105
11C
330
A
100
AcDbSymbolTableRecord
100
AcDbDimStyleTableRecord
  2
Large (ANSI)
 70
     0
 40
1.25
 41
0.1959999948740005
340
55
342
FB
  0
ENDTAB
  0
TABLE
  2
BLOCK_RECORD
  5
1
330
0
100
AcDbSymbolTable
 70
    12
  0
BLOCK_RECORD
  5
6C
330
1
100
AcDbSymbolTableRecord
100
AcDbBlockTableRecord
  2
*Model_Space
340
6F
 70
     0
280
     1
281
     0
  0
BLOCK_RECORD
  5
68
330
1
100
AcDbSymbolTableRecord
100
AcDbBlockTableRecord
  2
*Paper_Space
340
6B
 70
     0
280
     1
281
     0
  0
BLOCK_RECORD
  5
70
330
1
100
AcDbSymbolTableRecord
100
AcDbBlockTableRecord
  2
*Paper_Space0
340
73
 70
     0
280
     1
281
     0
  0
BLOCK_RECORD
  5
FB
330
1
100
AcDbSymbolTableRecord
100
AcDbBlockTableRecord
  2
_Closed
340
0
 70
     0
280
     1
281
     0
  0
BLOCK_RECORD
  5
102
330
1
100
AcDbSymbolTableRecord
100
AcDbBlockTableRecord
  2
DatumFilled45
340
0
 70
     0
280
     1
281
     0
  0
BLOCK_RECORD
  5
10E
330
1
100
AcDbSymbolTableRecord
100
AcDbBlockTableRecord
  2
Filled-1
340
0
 70
     0
280
     1
281
     0
  0
BLOCK_RECORD
  5
145
330
1
100
AcDbSymbolTableRecord
100
AcDbBlockTableRecord
  2
*D4
340
0
 70
     0
280
     1
281
     0
  0
BLOCK_RECORD
  5
22F
330
1
100
AcDbSymbolTableRecord
100
AcDbBlockTableRecord
  2
*D5
340
0
 70
     0
280
     1
281
     0
  0
BLOCK_RECORD
  5
319
330
1
100
AcDbSymbolTableRecord
100
AcDbBlockTableRecord
  2
*D6
340
0
 70
     0
280
     1
281
     0
  0
BLOCK_RECORD
  5
42B
330
1
100
AcDbSymbolTableRecord
100
AcDbBlockTableRecord
  2
*D7
340
0
 70
     0
280
     1
281
     0
  0
BLOCK_RECORD
  5
529
330
1
100
AcDbSymbolTableRecord
100
AcDbBlockTableRecord
  2
*D8
340
0
 70
     0
280
     1
281
     0
  0
BLOCK_RECORD
  5
613
330
1
100
AcDbSymbolTableRecord
100
AcDbBlockTableRecord
  2
*D9
340
0
 70
     0
280
     1
281
     0
  0
BLOCK_RECORD
  5
6F2
330
1
100
AcDbSymbolTableRecord
100
AcDbBlockTableRecord
  2
*D10
340
0
 70
     0
280
     1
281
     0
  0
BLOCK_RECORD
  5
7AD
330
1
100
AcDbSymbolTableRecord
100
AcDbBlockTableRecord
  2
*D11
340
0
 70
     0
280
     1
281
     0
  0
ENDTAB
  0
ENDSEC
  0
SECTION
  2
BLOCKS
  0
BLOCK
  5
6D
330
6C
100
AcDbEntity
  8
0
100
AcDbBlockBegin
  2
*Model_Space
 70
     0
 10
0.0
 20
0.0
 30
0.0
  3
*Model_Space
  1

  0
ENDBLK
  5
6E
330
6C
100
AcDbEntity
  8
0
100
AcDbBlockEnd
  0
BLOCK
  5
69
330
68
100
AcDbEntity
 67
     1
  8
0
100
AcDbBlockBegin
  2
*Paper_Space
 70
     0
 10
0.0
 20
0.0
 30
0.0
  3
*Paper_Space
  1

  0
ENDBLK
  5
6A
330
68
100
AcDbEntity
 67
     1
  8
0
100
AcDbBlockEnd
  0
BLOCK
  5
71
330
70
100
AcDbEntity
 67
     1
  8
0
100
AcDbBlockBegin
  2
*Paper_Space0
 70
     0
 10
0.0
 20
0.0
 30
0.0
  3
*Paper_Space0
  1

  0
ENDBLK
  5
72
330
70
100
AcDbEntity
 67
     1
  8
0
100
AcDbBlockEnd
  0
BLOCK
  5
100
330
FB
100
AcDbEntity
  8
0
100
AcDbBlockBegin
  2
_Closed
 70
     0
 10
0.0
 20
0.0
 30
0.0
  3
_Closed
  1

  0
LINE
  5
FC
330
FB
100
AcDbEntity
  8
0
  6
ByBlock
 62
     0
370
    -2
100
AcDbLine
 10
-1.0
 20
0.1666666666666666
 30
0.0
 11
0.0
 21
0.0
 31
0.0
  0
LINE
  5
FD
330
FB
100
AcDbEntity
  8
0
  6
ByBlock
 62
     0
370
    -2
100
AcDbLine
 10
0.0
 20
0.0
 30
0.0
 11
-1.0
 21
-0.1666666666666666
 31
0.0
  0
LINE
  5
FE
330
FB
100
AcDbEntity
  8
0
  6
ByBlock
 62
     0
370
    -2
100
AcDbLine
 10
-1.0
 20
0.1666666666666666
 30
0.0
 11
-1.0
 21
-0.1666666666666666
 31
0.0
  0
LINE
  5
FF
330
FB
100
AcDbEntity
  8
0
  6
ByBlock
 62
     0
370
    -2
100
AcDbLine
 10
0.0
 20
0.0
 30
0.0
 11
-1.0
 21
0.0
 31
0.0
  0
ENDBLK
  5
101
330
FB
100
AcDbEntity
  8
0
100
AcDbBlockEnd
  0
BLOCK
  5
103
330
102
100
AcDbEntity
  8
0
100
AcDbBlockBegin
  2
DatumFilled45
 70
     0
 10
0.0
 20
0.0
 30
0.0
  3
DatumFilled45
  1

  0
POLYLINE
  5
105
330
102
100
AcDbEntity
  8
0
 62
     0
100
AcDb2dPolyline
 66
     1
 10
0.0
 20
0.0
 30
0.0
 70
   128
  0
VERTEX
  5
106
330
105
100
AcDbEntity
  8
0
 62
     0
100
AcDbVertex
100
AcDb2dVertex
 10
0.0
 20
0.9999999999999998
 30
0.0
  0
VERTEX
  5
107
330
105
100
AcDbEntity
  8
0
 62
     0
100
AcDbVertex
100
AcDb2dVertex
 10
0.0
 20
-0.9999999999999998
 30
0.0
  0
VERTEX
  5
109
330
105
100
AcDbEntity
  8
0
 62
     0
100
AcDbVertex
100
AcDb2dVertex
 10
-0.9999999999999998
 20
0.0
 30
0.0
  0
VERTEX
  5
10A
330
105
100
AcDbEntity
  8
0
 62
     0
100
AcDbVertex
100
AcDb2dVertex
 10
0.0
 20
0.9999999999999998
 30
0.0
  0
SEQEND
  5
108
330
105
100
AcDbEntity
  8
0
 62
     0
  0
SOLID
  5
10C
330
102
100
AcDbEntity
  8
0
 62
     0
100
AcDbTrace
 10
0.0
 20
0.9999999999999998
 30
0.0
 11
0.0
 21
-0.9999999999999998
 31
0.0
 12
-0.9999999999999998
 22
0.0
 32
0.0
 13
0.0
 23
0.9999999999999998
 33
0.0
  0
ENDBLK
  5
104
330
102
100
AcDbEntity
  8
0
100
AcDbBlockEnd
  0
BLOCK
  5
10F
330
10E
100
AcDbEntity
  8
0
100
AcDbBlockBegin
  2
Filled-1
 70
     0
 10
0.0
 20
0.0
 30
0.0
  3
Filled-1
  1

  0
LINE
  5
111
330
10E
100
AcDbEntity
  8
0
 62
     0
100
AcDbLine
 10
-0.9999999999999998
 20
0.0
 30
0.0
 11
0.0
 21
0.0
 31
0.0
  0
POLYLINE
  5
112
330
10E
100
AcDbEntity
  8
0
 62
     0
100
AcDb2dPolyline
 66
     1
 10
0.0
 20
0.0
 30
0.0
 70
   128
  0
VERTEX
  5
113
330
112
100
AcDbEntity
  8
0
 62
     0
100
AcDbVertex
100
AcDb2dVertex
 10
-0.9999999999999998
 20
-0.0994897959183674
 30
0.0
  0
VERTEX
  5
114
330
112
100
AcDbEntity
  8
0
 62
     0
100
AcDbVertex
100
AcDb2dVertex
 10
0.0
 20
0.0
 30
0.0
  0
VERTEX
  5
116
330
112
100
AcDbEntity
  8
0
 62
     0
100
AcDbVertex
100
AcDb2dVertex
 10
-0.9999999999999998
 20
0.0994897959183674
 30
0.0
  0
VERTEX
  5
117
330
112
100
AcDbEntity
  8
0
 62
     0
100
AcDbVertex
100
AcDb2dVertex
 10
-0.9999999999999998
 20
-0.0994897959183674
 30
0.0
  0
SEQEND
  5
115
330
112
100
AcDbEntity
  8
0
 62
     0
  0
SOLID
  5
118
330
10E
100
AcDbEntity
  8
0
 62
     0
100
AcDbTrace
 10
-0.9999999999999998
 20
-0.0994897959183674
 30
0.0
 11
0.0
 21
0.0
 31
0.0
 12
-0.9999999999999998
 22
0.0994897959183674
 32
0.0
 13
-0.9999999999999998
 23
-0.0994897959183674
 33
0.0
  0
LINE
  5
119
330
10E
100
AcDbEntity
  8
0
 62
     0
100
AcDbLine
 10
-0.9999999999999998
 20
-0.0994897959183674
 30
0.0
 11
0.0
 21
0.0
 31
0.0
  0
LINE
  5
11A
330
10E
100
AcDbEntity
  8
0
 62
     0
100
AcDbLine
 10
0.0
 20
0.0
 30
0.0
 11
-0.9999999999999998
 21
0.0994897959183674
 31
0.0
  0
LINE
  5
11B
330
10E
100
AcDbEntity
  8
0
 62
     0
100
AcDbLine
 10
-0.9999999999999998
 20
0.0994897959183674
 30
0.0
 11
-0.9999999999999998
 21
-0.0994897959183674
 31
0.0
  0
ENDBLK
  5
110
330
10E
100
AcDbEntity
  8
0
100
AcDbBlockEnd
  0
BLOCK
  5
146
330
145
100
AcDbEntity
  8
0
100
AcDbBlockBegin
  2
*D4
 70
     1
 10
0.0
 20
0.0
 30
0.0
  3
*D4
  1

  0
LINE
  5
224
330
145
100
AcDbEntity
  8
Dimension (ANSI)
440
 16777216
100
AcDbLine
 10
9.143057026660736
 20
4.31324193126971
 30
0.0
 11
9.143057026660736
 21
3.080261288225091
 31
0.0
  0
LINE
  5
225
330
145
100
AcDbEntity
  8
Dimension (ANSI)
440
 16777216
100
AcDbLine
 10
4.263057026660735
 20
4.31324193126971
 30
0.0
 11
4.263057026660735
 21
3.080261288225091
 31
0.0
  0
LINE
  5
226
330
145
100
AcDbEntity
  8
Dimension (ANSI)
440
 16777216
100
AcDbLine
 10
9.020025533384378
 20
3.236511288225091
 30
0.0
 11
6.855106762673472
 21
3.236511288225091
 31
0.0
  0
LINE
  5
227
330
145
100
AcDbEntity
  8
Dimension (ANSI)
440
 16777216
100
AcDbLine
 10
4.386088519937093
 20
3.236511288225091
 30
0.0
 11
6.387515014013542
 21
3.236511288225091
 31
0.0
  0
SOLID
  5
228
330
145
100
AcDbEntity
  8
Dimension (ANSI)
440
 16777216
100
AcDbTrace
 10
9.020025533384378
 20
3.257016537104484
 30
0.0
 11
9.020025533384378
 21
3.216006039345697
 31
0.0
 12
9.143057026660736
 22
3.236511288225091
 32
0.0
 13
9.143057026660736
 23
3.236511288225091
 33
0.0
  0
SOLID
  5
229
330
145
100
AcDbEntity
  8
Dimension (ANSI)
440
 16777216
100
AcDbTrace
 10
4.386088519937093
 20
3.257016537104484
 30
0.0
 11
4.386088519937093
 21
3.216006039345697
 31
0.0
 12
4.263057026660735
 22
3.236511288225091
 32
0.0
 13
4.263057026660735
 23
3.236511288225091
 33
0.0
  0
MTEXT
  5
22A
330
145
100
AcDbEntity
  8
Dimension (ANSI)
440
 16777216
100
AcDbMText
 10
6.4268850927537
 20
3.314936408363259
 30
0.0
 40
0.1500000059604645
 41
0.0
 46
0.0
 71
     1
 72
     1
  1
\A1;4.88
  7
Note Text (ANSI)
 73
     1
 44
1.0
  0
POINT
  5
22B
330
145
100
AcDbEntity
  8
Defpoints
 62
     0
440
 16777216
100
AcDbPoint
 10
9.143057026660736
 20
4.39136693126971
 30
0.0
  0
POINT
  5
22C
330
145
100
AcDbEntity
  8
Defpoints
 62
     0
440
 16777216
100
AcDbPoint
 10
4.263057026660735
 20
4.39136693126971
 30
0.0
  0
POINT
  5
22D
330
145
100
AcDbEntity
  8
Defpoints
 62
     0
440
 16777216
100
AcDbPoint
 10
4.263057026660735
 20
3.236511288225091
 30
0.0
  0
ENDBLK
  5
147
330
145
100
AcDbEntity
  8
0
100
AcDbBlockEnd
  0
BLOCK
  5
230
330
22F
100
AcDbEntity
  8
0
100
AcDbBlockBegin
  2
*D5
 70
     1
 10
0.0
 20
0.0
 30
0.0
  3
*D5
  1

  0
LINE
  5
30E
330
22F
100
AcDbEntity
  8
Dimension (ANSI)
440
 16777216
100
AcDbLine
 10
4.184932026660735
 20
4.39136693126971
 30
0.0
 11
3.004444821936326
 21
4.39136693126971
 31
0.0
  0
LINE
  5
30F
330
22F
100
AcDbEntity
  8
Dimension (ANSI)
440
 16777216
100
AcDbLine
 10
4.184932026660733
 20
11.27136693126971
 30
0.0
 11
3.004444821936328
 21
11.27136693126971
 31
0.0
  0
LINE
  5
310
330
22F
100
AcDbEntity
  8
Dimension (ANSI)
440
 16777216
100
AcDbLine
 10
3.160694821936326
 20
4.514398424546068
 30
0.0
 11
3.160694821936327
 21
7.713571732391384
 31
0.0
  0
LINE
  5
311
330
22F
100
AcDbEntity
  8
Dimension (ANSI)
440
 16777216
100
AcDbLine
 10
3.160694821936328
 20
11.14833543799335
 30
0.0
 11
3.160694821936327
 21
7.949162130148035
 31
0.0
  0
SOLID
  5
312
330
22F
100
AcDbEntity
  8
Dimension (ANSI)
440
 16777216
100
AcDbTrace
 10
3.140189573056933
 20
4.514398424546068
 30
0.0
 11
3.181200070815719
 21
4.514398424546068
 31
0.0
 12
3.160694821936326
 22
4.39136693126971
 32
0.0
 13
3.160694821936326
 23
4.39136693126971
 33
0.0
  0
SOLID
  5
313
330
22F
100
AcDbEntity
  8
Dimension (ANSI)
440
 16777216
100
AcDbTrace
 10
3.140189573056935
 20
11.14833543799335
 30
0.0
 11
3.181200070815721
 21
11.14833543799335
 31
0.0
 12
3.160694821936328
 22
11.27136693126971
 32
0.0
 13
3.160694821936328
 23
11.27136693126971
 33
0.0
  0
MTEXT
  5
314
330
22F
100
AcDbEntity
  8
Dimension (ANSI)
440
 16777216
100
AcDbMText
 10
2.96853564831583
 20
7.909792051407879
 30
0.0
 40
0.1500000059604645
 41
0.0
 46
0.0
 71
     1
 72
     1
  1
\A1;6.88
  7
Note Text (ANSI)
 73
     1
 44
1.0
  0
POINT
  5
315
330
22F
100
AcDbEntity
  8
Defpoints
 62
     0
440
 16777216
100
AcDbPoint
 10
4.263057026660735
 20
4.39136693126971
 30
0.0
  0
POINT
  5
316
330
22F
100
AcDbEntity
  8
Defpoints
 62
     0
440
 16777216
100
AcDbPoint
 10
4.263057026660733
 20
11.27136693126971
 30
0.0
  0
POINT
  5
317
330
22F
100
AcDbEntity
  8
Defpoints
 62
     0
440
 16777216
100
AcDbPoint
 10
3.160694821936328
 20
11.27136693126971
 30
0.0
  0
ENDBLK
  5
231
330
22F
100
AcDbEntity
  8
0
100
AcDbBlockEnd
  0
BLOCK
  5
31A
330
319
100
AcDbEntity
  8
0
100
AcDbBlockBegin
  2
*D6
 70
     1
 10
0.0
 20
0.0
 30
0.0
  3
*D6
  1

  0
LINE
  5
41E
330
319
100
AcDbEntity
  8
Dimension (ANSI)
440
 16777216
100
AcDbLine
 10
4.184932026660735
 20
4.39136693126971
 30
0.0
 11
3.806422413701262
 21
4.39136693126971
 31
0.0
  0
LINE
  5
41F
330
319
100
AcDbEntity
  8
Dimension (ANSI)
440
 16777216
100
AcDbLine
 10
4.341932026660735
 20
4.70436693126971
 30
0.0
 11
3.806422413701262
 21
4.70436693126971
 31
0.0
  0
LINE
  5
420
330
319
100
AcDbEntity
  8
Dimension (ANSI)
440
 16777216
100
AcDbLine
 10
3.962672413701262
 20
4.268335437993353
 30
0.0
 11
3.962672413701262
 21
4.145303944716995
 31
0.0
  0
LINE
  5
421
330
319
100
AcDbEntity
  8
Dimension (ANSI)
440
 16777216
100
AcDbLine
 10
3.962672413701262
 20
4.827398424546068
 30
0.0
 11
3.962672413701262
 21
4.950429917822425
 31
0.0
  0
LINE
  5
422
330
319
100
AcDbEntity
  8
Dimension (ANSI)
440
 16777216
100
AcDbLine
 10
3.839640920424905
 20
5.065236012281846
 30
0.0
 11
3.962672413701263
 21
5.065236012281846
 31
0.0
  0
LINE
  5
423
330
319
100
AcDbEntity
  8
Dimension (ANSI)
440
 16777216
100
AcDbLine
 10
3.962672413701263
 20
5.065236012281846
 30
0.0
 11
3.962672413701262
 21
4.950429917822425
 31
0.0
  0
MTEXT
  5
424
330
319
100
AcDbEntity
  8
Dimension (ANSI)
440
 16777216
100
AcDbMText
 10
3.403964582694955
 20
5.166016741358186
 30
0.0
 40
0.1500000059604645
 41
0.0
 46
0.0
 71
     1
 72
     1
  1
\A1;0.31{\PTYP.}
  7
Note Text (ANSI)
 73
     1
 44
1.0
  0
SOLID
  5
425
330
319
100
AcDbEntity
  8
Dimension (ANSI)
440
 16777216
100
AcDbTrace
 10
3.942167164821869
 20
4.268335437993353
 30
0.0
 11
3.983177662580656
 21
4.268335437993353
 31
0.0
 12
3.962672413701262
 22
4.39136693126971
 32
0.0
 13
3.962672413701262
 23
4.39136693126971
 33
0.0
  0
SOLID
  5
426
330
319
100
AcDbEntity
  8
Dimension (ANSI)
440
 16777216
100
AcDbTrace
 10
3.942167164821869
 20
4.827398424546068
 30
0.0
 11
3.983177662580656
 21
4.827398424546068
 31
0.0
 12
3.962672413701262
 22
4.70436693126971
 32
0.0
 13
3.962672413701262
 23
4.70436693126971
 33
0.0
  0
POINT
  5
427
330
319
100
AcDbEntity
  8
Defpoints
 62
     0
440
 16777216
100
AcDbPoint
 10
4.263057026660735
 20
4.39136693126971
 30
0.0
  0
POINT
  5
428
330
319
100
AcDbEntity
  8
Defpoints
 62
     0
440
 16777216
100
AcDbPoint
 10
4.420057026660735
 20
4.70436693126971
 30
0.0
  0
POINT
  5
429
330
319
100
AcDbEntity
  8
Defpoints
 62
     0
440
 16777216
100
AcDbPoint
 10
3.962672413701262
 20
4.70436693126971
 30
0.0
  0
ENDBLK
  5
31B
330
319
100
AcDbEntity
  8
0
100
AcDbBlockEnd
  0
BLOCK
  5
42C
330
42B
100
AcDbEntity
  8
0
100
AcDbBlockBegin
  2
*D7
 70
     1
 10
0.0
 20
0.0
 30
0.0
  3
*D7
  1

  0
LINE
  5
51E
330
42B
100
AcDbEntity
  8
Dimension (ANSI)
440
 16777216
100
AcDbLine
 10
4.263057026660735
 20
4.31324193126971
 30
0.0
 11
4.263057026660735
 21
3.60272293287967
 31
0.0
  0
LINE
  5
51F
330
42B
100
AcDbEntity
  8
Dimension (ANSI)
440
 16777216
100
AcDbLine
 10
4.576057026660735
 20
4.501241931269711
 30
0.0
 11
4.576057026660735
 21
3.60272293287967
 31
0.0
  0
LINE
  5
520
330
42B
100
AcDbEntity
  8
Dimension (ANSI)
440
 16777216
100
AcDbLine
 10
4.699088519937093
 20
3.75897293287967
 30
0.0
 11
4.82212001321345
 21
3.75897293287967
 31
0.0
  0
LINE
  5
521
330
42B
100
AcDbEntity
  8
Dimension (ANSI)
440
 16777216
100
AcDbLine
 10
4.140025533384378
 20
3.75897293287967
 30
0.0
 11
3.91816510938866
 21
3.75897293287967
 31
0.0
  0
SOLID
  5
522
330
42B
100
AcDbEntity
  8
Dimension (ANSI)
440
 16777216
100
AcDbTrace
 10
4.699088519937093
 20
3.779478181759063
 30
0.0
 11
4.699088519937093
 21
3.738467684000277
 31
0.0
 12
4.576057026660735
 22
3.75897293287967
 32
0.0
 13
4.576057026660735
 23
3.75897293287967
 33
0.0
  0
SOLID
  5
523
330
42B
100
AcDbEntity
  8
Dimension (ANSI)
440
 16777216
100
AcDbTrace
 10
4.140025533384378
 20
3.779478181759063
 30
0.0
 11
4.140025533384378
 21
3.738467684000277
 31
0.0
 12
4.263057026660735
 22
3.75897293287967
 32
0.0
 13
4.263057026660735
 23
3.75897293287967
 33
0.0
  0
MTEXT
  5
524
330
42B
100
AcDbEntity
  8
Dimension (ANSI)
440
 16777216
100
AcDbMText
 10
3.482488771658709
 20
3.859753661956008
 30
0.0
 40
0.1500000059604645
 41
0.0
 46
0.0
 71
     1
 72
     1
  1
\A1;0.31{\PTYP.}
  7
Note Text (ANSI)
 73
     1
 44
1.0
  0
POINT
  5
525
330
42B
100
AcDbEntity
  8
Defpoints
 62
     0
440
 16777216
100
AcDbPoint
 10
4.263057026660735
 20
4.39136693126971
 30
0.0
  0
POINT
  5
526
330
42B
100
AcDbEntity
  8
Defpoints
 62
     0
440
 16777216
100
AcDbPoint
 10
4.576057026660735
 20
4.579366931269711
 30
0.0
  0
POINT
  5
527
330
42B
100
AcDbEntity
  8
Defpoints
 62
     0
440
 16777216
100
AcDbPoint
 10
4.576057026660735
 20
3.75897293287967
 30
0.0
  0
ENDBLK
  5
42D
330
42B
100
AcDbEntity
  8
0
100
AcDbBlockEnd
  0
BLOCK
  5
52A
330
529
100
AcDbEntity
  8
0
100
AcDbBlockBegin
  2
*D8
 70
     1
 10
0.0
 20
0.0
 30
0.0
  3
*D8
  1

  0
LINE
  5
608
330
529
100
AcDbEntity
  8
Dimension (ANSI)
440
 16777216
100
AcDbLine
 10
4.576057026660735
 20
4.501241931269711
 30
0.0
 11
4.576057026660735
 21
3.583221918146352
 31
0.0
  0
LINE
  5
609
330
529
100
AcDbEntity
  8
Dimension (ANSI)
440
 16777216
100
AcDbLine
 10
5.576057026660735
 20
4.50124193126971
 30
0.0
 11
5.576057026660735
 21
3.583221918146352
 31
0.0
  0
LINE
  5
60A
330
529
100
AcDbEntity
  8
Dimension (ANSI)
440
 16777216
100
AcDbLine
 10
4.699088519937093
 20
3.739471918146352
 30
0.0
 11
4.770836766646494
 21
3.739471918146352
 31
0.0
  0
LINE
  5
60B
330
529
100
AcDbEntity
  8
Dimension (ANSI)
440
 16777216
100
AcDbLine
 10
5.453025533384377
 20
3.739471918146352
 30
0.0
 11
5.331410385425279
 21
3.739471918146352
 31
0.0
  0
SOLID
  5
60C
330
529
100
AcDbEntity
  8
Dimension (ANSI)
440
 16777216
100
AcDbTrace
 10
4.699088519937093
 20
3.759977167025745
 30
0.0
 11
4.699088519937093
 21
3.718966669266959
 31
0.0
 12
4.576057026660735
 22
3.739471918146352
 32
0.0
 13
4.576057026660735
 23
3.739471918146352
 33
0.0
  0
SOLID
  5
60D
330
529
100
AcDbEntity
  8
Dimension (ANSI)
440
 16777216
100
AcDbTrace
 10
5.453025533384377
 20
3.759977167025745
 30
0.0
 11
5.453025533384377
 21
3.718966669266959
 31
0.0
 12
5.576057026660735
 22
3.739471918146352
 32
0.0
 13
5.576057026660735
 23
3.739471918146352
 33
0.0
  0
MTEXT
  5
60E
330
529
100
AcDbEntity
  8
Dimension (ANSI)
440
 16777216
100
AcDbMText
 10
4.810206845386652
 20
3.81754445264485
 30
0.0
 40
0.1500000059604645
 41
0.0
 46
0.0
 71
     1
 72
     1
  1
\A1;1.000
  7
Note Text (ANSI)
 73
     1
 44
1.0
  0
POINT
  5
60F
330
529
100
AcDbEntity
  8
Defpoints
 62
     0
440
 16777216
100
AcDbPoint
 10
4.576057026660735
 20
4.579366931269711
 30
0.0
  0
POINT
  5
610
330
529
100
AcDbEntity
  8
Defpoints
 62
     0
440
 16777216
100
AcDbPoint
 10
5.576057026660735
 20
4.57936693126971
 30
0.0
  0
POINT
  5
611
330
529
100
AcDbEntity
  8
Defpoints
 62
     0
440
 16777216
100
AcDbPoint
 10
5.576057026660735
 20
3.739471918146352
 30
0.0
  0
ENDBLK
  5
52B
330
529
100
AcDbEntity
  8
0
100
AcDbBlockEnd
  0
BLOCK
  5
614
330
613
100
AcDbEntity
  8
0
100
AcDbBlockBegin
  2
*D9
 70
     1
 10
0.0
 20
0.0
 30
0.0
  3
*D9
  1

  0
LINE
  5
6E9
330
613
100
AcDbEntity
  8
Dimension (ANSI)
440
 16777216
100
AcDbLine
 10
12.67225444870387
 20
9.399435202662688
 30
0.0
 11
12.54922295542751
 21
9.399435202662688
 31
0.0
  0
LINE
  5
6EA
330
613
100
AcDbEntity
  8
Dimension (ANSI)
440
 16777216
100
AcDbLine
 10
12.99231743525659
 20
9.399435202662688
 30
0.0
 11
13.40513481854618
 21
9.399435202662688
 31
0.0
  0
SOLID
  5
6EB
330
613
100
AcDbEntity
  8
Dimension (ANSI)
440
 16777216
100
AcDbTrace
 10
12.67225444870387
 20
9.419940451542082
 30
0.0
 11
12.67225444870387
 21
9.378929953783295
 31
0.0
 12
12.79528594198023
 22
9.399435202662688
 32
0.0
 13
12.79528594198023
 23
9.399435202662688
 33
0.0
  0
SOLID
  5
6EC
330
613
100
AcDbEntity
  8
Dimension (ANSI)
440
 16777216
100
AcDbTrace
 10
12.99231743525659
 20
9.419940451542082
 30
0.0
 11
12.99231743525659
 21
9.378929953783295
 31
0.0
 12
12.86928594198023
 22
9.399435202662688
 32
0.0
 13
12.86928594198023
 23
9.399435202662688
 33
0.0
  0
MTEXT
  5
6ED
330
613
100
AcDbEntity
  8
Dimension (ANSI)
440
 16777216
100
AcDbMText
 10
13.44450489728633
 20
9.477255890275706
 30
0.0
 40
0.1500000059604645
 41
0.0
 46
0.0
 71
     1
 72
     1
  1
\A1; 14 GA.
  7
Note Text (ANSI)
 73
     1
 44
1.0
  0
POINT
  5
6EE
330
613
100
AcDbEntity
  8
Defpoints
 62
     0
440
 16777216
100
AcDbPoint
 10
13.09351194003215
 20
4.39136693126971
 30
0.0
  0
POINT
  5
6EF
330
613
100
AcDbEntity
  8
Defpoints
 62
     0
440
 16777216
100
AcDbPoint
 10
13.01951194003215
 20
4.39136693126971
 30
0.0
  0
POINT
  5
6F0
330
613
100
AcDbEntity
  8
Defpoints
 62
     0
440
 16777216
100
AcDbPoint
 10
12.79528594198023
 20
9.399435202662688
 30
0.0
  0
ENDBLK
  5
615
330
613
100
AcDbEntity
  8
0
100
AcDbBlockEnd
  0
BLOCK
  5
6F3
330
6F2
100
AcDbEntity
  8
0
100
AcDbBlockBegin
  2
*D10
 70
     1
 10
0.0
 20
0.0
 30
0.0
  3
*D10
  1

  0
LINE
  5
7A4
330
6F2
100
AcDbEntity
  8
Dimension (ANSI)
440
 16777216
100
AcDbLine
 10
6.062017105278949
 20
4.129706538678793
 30
0.0
 11
5.907837359015873
 21
4.129706538678792
 31
0.0
  0
LINE
  5
7A5
330
6F2
100
AcDbEntity
  8
Dimension (ANSI)
440
 16777216
100
AcDbLine
 10
5.907837359015873
 20
4.129706538678792
 30
0.0
 11
5.700072773298956
 21
4.48956535715382
 31
0.0
  0
MTEXT
  5
7A6
330
6F2
100
AcDbEntity
  8
Dimension (ANSI)
440
 16777216
100
AcDbMText
 10
6.101387184019107
 20
4.240522199995442
 30
0.0
 40
0.1500000059604645
 41
0.0
 46
0.0
 71
     1
 72
     1
  1
\A1;∅0.250{\PGROUND\P HOLE}
  7
Note Text (ANSI)
 73
     1
 44
1.0
  0
SOLID
  5
7A7
330
6F2
100
AcDbEntity
  8
Dimension (ANSI)
440
 16777216
100
AcDbTrace
 10
5.71783083973943
 20
4.499817981593519
 30
0.0
 11
5.68231470685848
 21
4.479312732714119
 31
0.0
 12
5.638557026660754
 22
4.596113755796666
 32
0.0
 13
5.638557026660754
 23
4.596113755796666
 33
0.0
  0
LINE
  5
7A8
330
6F2
100
AcDbEntity
  8
Dimension (ANSI)
440
 16777216
100
AcDbLine
 10
5.463557026660732
 20
4.704366931269707
 30
0.0
 11
5.688557026660733
 21
4.704366931269708
 31
0.0
  0
LINE
  5
7A9
330
6F2
100
AcDbEntity
  8
Dimension (ANSI)
440
 16777216
100
AcDbLine
 10
5.576057026660732
 20
4.591866931269708
 30
0.0
 11
5.576057026660733
 21
4.816866931269709
 31
0.0
  0
POINT
  5
7AA
330
6F2
100
AcDbEntity
  8
Defpoints
 62
     0
440
 16777216
100
AcDbPoint
 10
5.638557026660754
 20
4.596113755796666
 30
0.0
  0
POINT
  5
7AB
330
6F2
100
AcDbEntity
  8
Defpoints
 62
     0
440
 16777216
100
AcDbPoint
 10
5.513557026660709
 20
4.81262010674275
 30
0.0
  0
ENDBLK
  5
6F4
330
6F2
100
AcDbEntity
  8
0
100
AcDbBlockEnd
  0
BLOCK
  5
7AE
330
7AD
100
AcDbEntity
  8
0
100
AcDbBlockBegin
  2
*D11
 70
     1
 10
0.0
 20
0.0
 30
0.0
  3
*D11
  1

  0
LINE
  5
84A
330
7AD
100
AcDbEntity
  8
Dimension (ANSI)
440
 16777216
100
AcDbLine
 10
9.487581934903152
 20
5.550176524055713
 30
0.0
 11
9.352029576156272
 21
5.550176524055713
 31
0.0
  0
LINE
  5
84B
330
7AD
100
AcDbEntity
  8
Dimension (ANSI)
440
 16777216
100
AcDbLine
 10
9.352029576156272
 20
5.550176524055713
 30
0.0
 11
8.985575382495808
 21
4.918877538739433
 31
0.0
  0
MTEXT
  5
84C
330
7AD
100
AcDbEntity
  8
Dimension (ANSI)
440
 16777216
100
AcDbMText
 10
9.52695201364331
 20
5.67156833409545
 30
0.0
 40
0.1500000059604645
 41
0.0
 46
0.0
 71
     1
 72
     1
  1
\A1; \fromans|b0|i0;\H0.1500;0.250 X 0.312\POBROUND\PTYP. (4 PL.)
  7
Note Text (ANSI)
 73
     1
 44
1.0
  0
SOLID
  5
84D
330
7AD
100
AcDbEntity
  8
Dimension (ANSI)
440
 16777216
100
AcDbTrace
 10
8.967841370837316
 20
4.929171714864907
 30
0.0
 11
9.0033093941543
 21
4.90858336261396
 31
0.0
 12
8.923810325742968
 22
4.812473468788473
 32
0.0
 13
8.923810325742968
 23
4.812473468788473
 33
0.0
  0
POINT
  5
84E
330
7AD
100
AcDbEntity
  8
Defpoints
 62
     0
440
 16777216
100
AcDbPoint
 10
8.923810325742968
 20
4.812473468788473
 30
0.0
  0
POINT
  5
84F
330
7AD
100
AcDbEntity
  8
Defpoints
 62
     0
440
 16777216
100
AcDbPoint
 10
8.861057026660734
 20
4.70436693126971
 30
0.0
  0
ENDBLK
  5
7AF
330
7AD
100
AcDbEntity
  8
0
100
AcDbBlockEnd
  0
ENDSEC
  0
SECTION
  2
ENTITIES
  0
CIRCLE
  5
11D
330
6C
100
AcDbEntity
  8
Visible (ANSI)
100
AcDbCircle
 10
5.576057026660735
 20
4.70436693126971
 30
0.0
 40
0.125
  0
LINE
  5
11E
330
6C
100
AcDbEntity
  8
Visible (ANSI)
100
AcDbLine
 10
4.545057026660735
 20
4.829366931269711
 30
0.0
 11
4.607057026660735
 21
4.829366931269711
 31
0.0
  0
ARC
  5
11F
330
6C
100
AcDbEntity
  8
Visible (ANSI)
100
AcDbCircle
 10
4.545057026660735
 20
4.70436693126971
 30
0.0
 40
0.125
100
AcDbArc
 50
90.0
 51
270.0
  0
LINE
  5
120
330
6C
100
AcDbEntity
  8
Visible (ANSI)
100
AcDbLine
 10
4.607057026660735
 20
4.579366931269712
 30
0.0
 11
4.545057026660735
 21
4.579366931269712
 31
0.0
  0
ARC
  5
121
330
6C
100
AcDbEntity
  8
Visible (ANSI)
100
AcDbCircle
 10
4.607057026660735
 20
4.70436693126971
 30
0.0
 40
0.125
100
AcDbArc
 50
270.0
 51
90.0
  0
LINE
  5
122
330
6C
100
AcDbEntity
  8
Visible (ANSI)
100
AcDbLine
 10
8.799057026660733
 20
11.08336693126971
 30
0.0
 11
8.861057026660734
 21
11.08336693126971
 31
0.0
  0
ARC
  5
123
330
6C
100
AcDbEntity
  8
Visible (ANSI)
100
AcDbCircle
 10
8.799057026660733
 20
10.95836693126971
 30
0.0
 40
0.1249999999999996
100
AcDbArc
 50
90.0
 51
270.0
  0
LINE
  5
124
330
6C
100
AcDbEntity
  8
Visible (ANSI)
100
AcDbLine
 10
8.861057026660734
 20
10.83336693126971
 30
0.0
 11
8.799057026660733
 21
10.83336693126971
 31
0.0
  0
ARC
  5
125
330
6C
100
AcDbEntity
  8
Visible (ANSI)
100
AcDbCircle
 10
8.861057026660734
 20
10.95836693126971
 30
0.0
 40
0.1249999999999996
100
AcDbArc
 50
270.0000000000008
 51
90.00000000000078
  0
LINE
  5
126
330
6C
100
AcDbEntity
  8
Visible (ANSI)
100
AcDbLine
 10
8.799057026660735
 20
4.829366931269711
 30
0.0
 11
8.861057026660734
 21
4.829366931269711
 31
0.0
  0
ARC
  5
127
330
6C
100
AcDbEntity
  8
Visible (ANSI)
100
AcDbCircle
 10
8.799057026660733
 20
4.70436693126971
 30
0.0
 40
0.125
100
AcDbArc
 50
90.0
 51
270.0
  0
LINE
  5
128
330
6C
100
AcDbEntity
  8
Visible (ANSI)
100
AcDbLine
 10
8.861057026660734
 20
4.579366931269712
 30
0.0
 11
8.799057026660735
 21
4.579366931269712
 31
0.0
  0
ARC
  5
129
330
6C
100
AcDbEntity
  8
Visible (ANSI)
100
AcDbCircle
 10
8.861057026660734
 20
4.70436693126971
 30
0.0
 40
0.125
100
AcDbArc
 50
270.0
 51
90.0
  0
LINE
  5
12A
330
6C
100
AcDbEntity
  8
Visible (ANSI)
100
AcDbLine
 10
4.545057026660733
 20
11.08336693126971
 30
0.0
 11
4.607057026660733
 21
11.08336693126971
 31
0.0
  0
ARC
  5
12B
330
6C
100
AcDbEntity
  8
Visible (ANSI)
100
AcDbCircle
 10
4.545057026660732
 20
10.95836693126971
 30
0.0
 40
0.1249999999999996
100
AcDbArc
 50
90.00000000000039
 51
270.0000000000004
  0
LINE
  5
12C
330
6C
100
AcDbEntity
  8
Visible (ANSI)
100
AcDbLine
 10
4.607057026660733
 20
10.83336693126971
 30
0.0
 11
4.545057026660733
 21
10.83336693126971
 31
0.0
  0
ARC
  5
12D
330
6C
100
AcDbEntity
  8
Visible (ANSI)
100
AcDbCircle
 10
4.607057026660734
 20
10.95836693126971
 30
0.0
 40
0.1249999999999996
100
AcDbArc
 50
270.0000000000004
 51
90.00000000000039
  0
LINE
  5
12E
330
6C
100
AcDbEntity
  8
Visible (ANSI)
100
AcDbLine
 10
4.263057026660735
 20
4.39136693126971
 30
0.0
 11
4.263057026660733
 21
11.27136693126971
 31
0.0
  0
LINE
  5
12F
330
6C
100
AcDbEntity
  8
Visible (ANSI)
100
AcDbLine
 10
4.263057026660733
 20
11.27136693126971
 30
0.0
 11
9.143057026660734
 21
11.27136693126971
 31
0.0
  0
LINE
  5
130
330
6C
100
AcDbEntity
  8
Visible (ANSI)
100
AcDbLine
 10
9.143057026660734
 20
11.27136693126971
 30
0.0
 11
9.143057026660736
 21
4.39136693126971
 31
0.0
  0
LINE
  5
131
330
6C
100
AcDbEntity
  8
Visible (ANSI)
100
AcDbLine
 10
9.143057026660736
 20
4.39136693126971
 30
0.0
 11
4.263057026660735
 21
4.39136693126971
 31
0.0
  0
MTEXT
  5
133
330
6C
100
AcDbEntity
  8
Symbol (ANSI)
100
AcDbMText
 10
6.080255674387203
 20
2.618100646214011
 30
0.0
 40
0.1500000018538452
 41
0.0
 46
0.0
 71
     7
 72
     1
  1
FRONT VIEW
  7
Text Style150
 73
     1
 44
1.0
  0
LINE
  5
135
330
6C
100
AcDbEntity
  8
Symbol (ANSI)
370
    30
100
AcDbLine
 10
6.06525563580172
 20
2.587511099495398
 30
0.0
 11
7.271211891158816
 21
2.587511099495398
 31
0.0
  0
MTEXT
  5
136
330
6C
100
AcDbEntity
  8
Symbol (ANSI)
100
AcDbMText
 10
6.619915288992742
 20
2.27974663711673
 30
0.0
 40
0.2249999954475192
 41
0.0
 46
0.0
 71
     7
 72
     1
  1
 
  7
Label Text (ANSI)
 73
     1
 44
1.0
  0
LINE
  5
137
330
6C
100
AcDbEntity
  8
Hidden (ANSI)
 48
0.1126580387353897
100
AcDbLine
 10
13.01951194003206
 20
11.08336693126971
 30
0.0
 11
13.09351194003206
 21
11.08336693126971
 31
0.0
  0
LINE
  5
138
330
6C
100
AcDbEntity
  8
Hidden (ANSI)
 48
0.1126580387353897
100
AcDbLine
 10
13.01951194003206
 20
10.83336693126971
 30
0.0
 11
13.09351194003206
 21
10.83336693126971
 31
0.0
  0
LINE
  5
139
330
6C
100
AcDbEntity
  8
Hidden (ANSI)
 48
0.1126580387353897
100
AcDbLine
 10
13.01951194003206
 20
4.829366931269711
 30
0.0
 11
13.09351194003206
 21
4.829366931269711
 31
0.0
  0
LINE
  5
13A
330
6C
100
AcDbEntity
  8
Hidden (ANSI)
 48
0.1126580387353897
100
AcDbLine
 10
13.01951194003206
 20
4.579366931269712
 30
0.0
 11
13.09351194003206
 21
4.579366931269712
 31
0.0
  0
LINE
  5
13B
330
6C
100
AcDbEntity
  8
Visible (ANSI)
100
AcDbLine
 10
13.09351194003215
 20
11.27136693126971
 30
0.0
 11
13.01951194003215
 21
11.27136693126971
 31
0.0
  0
LINE
  5
13C
330
6C
100
AcDbEntity
  8
Visible (ANSI)
100
AcDbLine
 10
13.01951194003215
 20
11.27136693126971
 30
0.0
 11
13.01951194003215
 21
4.39136693126971
 31
0.0
  0
LINE
  5
13D
330
6C
100
AcDbEntity
  8
Visible (ANSI)
100
AcDbLine
 10
13.09351194003215
 20
4.39136693126971
 30
0.0
 11
13.01951194003215
 21
4.39136693126971
 31
0.0
  0
LINE
  5
13E
330
6C
100
AcDbEntity
  8
Visible (ANSI)
100
AcDbLine
 10
13.09351194003215
 20
4.39136693126971
 30
0.0
 11
13.09351194003215
 21
11.27136693126971
 31
0.0
  0
MTEXT
  5
13F
330
6C
100
AcDbEntity
  8
Symbol (ANSI)
100
AcDbMText
 10
12.42513145599012
 20
2.563327266478571
 30
0.0
 40
0.1500000018538452
 41
0.0
 46
0.0
 71
     7
 72
     1
  1
RIGHT VIEW
  7
Text Style150
 73
     1
 44
1.0
  0
LINE
  5
140
330
6C
100
AcDbEntity
  8
Symbol (ANSI)
370
    30
100
AcDbLine
 10
12.41013141740464
 20
2.532494607901741
 30
0.0
 11
13.57877000252531
 21
2.532494607901741
 31
0.0
  0
MTEXT
  5
141
330
6C
100
AcDbEntity
  8
Symbol (ANSI)
100
AcDbMText
 10
12.94613223547745
 20
2.224730145523073
 30
0.0
 40
0.2249999954475192
 41
0.0
 46
0.0
 71
     7
 72
     1
  1
 
  7
Label Text (ANSI)
 73
     1
 44
1.0
  0
DIMENSION
  5
142
330
6C
100
AcDbEntity
  8
Dimension (ANSI)
100
AcDbDimension
280
     0
  2
*D4
 10
4.263057026660735
 20
3.236511288225091
 30
0.0
 11
6.621310888343507
 21
3.236511288225091
 31
0.0
 70
   160
  1
<>
 42
4.88
 73
     0
 74
     0
 75
     0
  3
Default (ANSI)-01
100
AcDbAlignedDimension
 13
9.143057026660736
 23
4.39136693126971
 33
0.0
 14
4.263057026660735
 24
4.39136693126971
 34
0.0
 50
180.0
100
AcDbRotatedDimension
1001
ACAD
1000
DSTYLE
1002
{
1070
   289
1070
     1
1070
    73
1070
     0
1070
    74
1070
     0
1070
   271
1070
     2
1070
   272
1070
     2
1070
    48
1040
0.0
1070
    47
1040
0.0
1002
}
  0
DIMENSION
  5
22E
330
6C
100
AcDbEntity
  8
Dimension (ANSI)
100
AcDbDimension
280
     0
  2
*D5
 10
3.160694821936328
 20
11.27136693126971
 30
0.0
 11
3.160694821936326
 21
7.831366931269711
 31
0.0
 70
   160
  1
<>
 42
6.880000000000002
 73
     0
 74
     0
 75
     0
  3
Default (ANSI)-01
100
AcDbAlignedDimension
 13
4.263057026660735
 23
4.39136693126971
 33
0.0
 14
4.263057026660733
 24
11.27136693126971
 34
0.0
 50
90.0
100
AcDbRotatedDimension
1001
ACAD
1000
DSTYLE
1002
{
1070
   289
1070
     1
1070
   271
1070
     2
1070
   272
1070
     2
1070
    48
1040
0.0
1070
    47
1040
0.0
1002
}
  0
DIMENSION
  5
318
330
6C
100
AcDbEntity
  8
Dimension (ANSI)
100
AcDbDimension
280
     0
  2
*D6
 10
3.962672413701262
 20
4.70436693126971
 30
0.0
 11
3.953642619789583
 21
5.065236012281847
 31
0.0
 70
   160
  1
<>{\PTYP.}
 42
0.3129999999999997
 73
     0
 74
     0
 75
     0
  3
Default (ANSI)-01
100
AcDbAlignedDimension
 13
4.263057026660735
 23
4.39136693126971
 33
0.0
 14
4.420057026660735
 24
4.70436693126971
 34
0.0
 50
90.0
100
AcDbRotatedDimension
1001
ACAD
1000
DSTYLE
1002
{
1070
   289
1070
     1
1070
   279
1070
     1
1070
   145
1040
-0.25
1070
   271
1070
     2
1070
   272
1070
     2
1070
    48
1040
0.0
1070
    47
1040
0.0
1002
}
  0
DIMENSION
  5
42A
330
6C
100
AcDbEntity
  8
Dimension (ANSI)
100
AcDbDimension
280
     0
  2
*D7
 10
4.576057026660735
 20
3.75897293287967
 30
0.0
 11
3.680641901153606
 21
3.75897293287967
 31
0.0
 70
   160
  1
<>{\PTYP.}
 42
0.3129999999999997
 73
     0
 74
     0
 75
     0
  3
Default (ANSI)-01
100
AcDbAlignedDimension
 13
4.263057026660735
 23
4.39136693126971
 33
0.0
 14
4.576057026660735
 24
4.579366931269711
 34
0.0
 50
180.0
100
AcDbRotatedDimension
1001
ACAD
1000
DSTYLE
1002
{
1070
   289
1070
     1
1070
    73
1070
     0
1070
    74
1070
     0
1070
   145
1040
-0.25
1070
   271
1070
     2
1070
   272
1070
     2
1070
    48
1040
0.0
1070
    47
1040
0.0
1002
}
  0
DIMENSION
  5
528
330
6C
100
AcDbEntity
  8
Dimension (ANSI)
100
AcDbDimension
280
     0
  2
*D8
 10
5.576057026660735
 20
3.739471918146352
 30
0.0
 11
5.051123576035887
 21
3.739471918146352
 31
0.0
 70
   160
  1
<>
 73
     0
 74
     0
 75
     0
  3
Default (ANSI)
100
AcDbAlignedDimension
 13
4.576057026660735
 23
4.579366931269711
 33
0.0
 14
5.576057026660735
 24
4.57936693126971
 34
0.0
 50
180.0
100
AcDbRotatedDimension
1001
ACAD
1000
DSTYLE
1002
{
1070
   289
1070
     1
1070
    73
1070
     0
1070
    74
1070
     0
1070
   271
1070
     3
1070
   272
1070
     2
1070
    48
1040
0.0
1070
    47
1040
0.0
1002
}
  0
DIMENSION
  5
612
330
6C
100
AcDbEntity
  8
Dimension (ANSI)
100
AcDbDimension
280
     0
  2
*D9
 10
12.79528594198023
 20
9.399435202662688
 30
0.0
 11
13.7739206234929
 21
9.399435202662688
 31
0.0
 70
   160
  1
 14 GA.
 42
0.0740000000000016
 73
     0
 74
     0
 75
     0
  3
Default (ANSI)
100
AcDbAlignedDimension
 13
13.09351194003215
 23
4.39136693126971
 33
0.0
 14
13.01951194003215
 24
4.39136693126971
 34
0.0
100
AcDbRotatedDimension
1001
ACAD
1000
DSTYLE
1002
{
1070
   289
1070
     1
1070
    73
1070
     0
1070
    74
1070
     0
1070
   271
1070
     3
1070
    76
1070
     1
1070
    75
1070
     1
1070
   272
1070
     2
1070
    48
1040
0.0
1070
    47
1040
0.0
1002
}
  0
DIMENSION
  5
6F1
330
6C
100
AcDbEntity
  8
Dimension (ANSI)
100
AcDbDimension
280
     0
  2
*D10
 10
5.513557026660709
 20
4.81262010674275
 30
0.0
 11
6.507162885902911
 21
4.129706538678793
 31
0.0
 70
   163
  1
<>{\PGROUND\P HOLE}
 42
0.25
 73
     0
 74
     0
 75
     0
  3
Default (ANSI)
100
AcDbDiametricDimension
 15
5.638557026660754
 25
4.596113755796666
 35
0.0
 40
0.0
1001
ACAD_DSTYLE_DIMRADIAL_EXTENSION
1070
   387
1070
     1
1070
   388
1040
0.0
1070
   390
1040
0.0
1001
ACAD
1000
DSTYLE
1002
{
1070
   145
1040
-0.3333333333333334
1070
   144
1040
1.0
1070
   271
1070
     3
1070
   272
1070
     2
1070
    48
1040
0.0
1070
    47
1040
0.0
1002
}
  0
DIMENSION
  5
7AC
330
6C
100
AcDbEntity
  8
Dimension (ANSI)
100
AcDbDimension
280
     0
  2
*D11
 10
8.861057026660734
 20
4.70436693126971
 30
0.0
 11
10.42346237455315
 21
5.550176524055713
 31
0.0
 70
   164
  1
 \fromans|b0|i0;\H0.1500;0.250 X 0.312\POBROUND\PTYP. (4 PL.)
 42
0.125
 73
     0
 74
     0
 75
     0
  3
Default (ANSI)
100
AcDbRadialDimension
 15
8.923810325742968
 25
4.812473468788473
 35
0.0
 40
0.0
1001
ACAD_DSTYLE_DIMRADIAL_EXTENSION
1070
   387
1070
     1
1070
   388
1040
0.0
1070
   390
1040
0.0
1001
ACAD
1000
DSTYLE
1002
{
1070
   145
1040
-0.3333333333333334
1070
   271
1070
     3
1070
   141
1040
0.0
1070
   272
1070
     2
1070
    48
1040
0.0
1070
    47
1040
0.0
1002
}
  0
MTEXT
  5
850
330
6C
100
AcDbEntity
  8
Symbol (ANSI)
100
AcDbMText
 10
15.52897278189305
 20
3.127709089830634
 30
0.0
 40
0.1500000018538452
 41
6.123916835857008
 46
0.0
 71
     1
 72
     1
  1
{\fRomanS|b0|i0;\H0.1500;PART#: P0806SS\P(DATA SUBJECT TO CHANGE WITHOUT \PNOTICE)\PTHIS DRAWING AND COMPONENTS OF ARE\PPROPERTY OF HUBBELL INC. WIEGMANN\P}
  7
Note Text (ANSI)
 73
     2
 44
0.8751232028007507
  0
ELLIPSE
  5
851
330
6C
100
AcDbEntity
  8
Visible (ANSI)
100
AcDbEllipse
 10
17.98463702652268
 20
7.30305156013869
 30
0.0
 11
0.05458164814205
 21
-0.0947825633283753
 31
0.0
210
0.0
220
0.0
230
1.0
 40
0.5780931159158106
 41
3.572615253427333
 42
5.852162707341154
  0
ELLIPSE
  5
852
330
6C
100
AcDbEntity
  8
Visible (ANSI)
100
AcDbEllipse
 10
17.93885186244086
 20
7.276685637670632
 30
0.0
 11
-0.0545816481420443
 21
0.0947825633283785
 31
0.0
210
0.0
220
0.0
230
1.0
 40
0.5780931159158105
 41
0.0
 42
6.283185307179586
  0
LINE
  5
853
330
6C
100
AcDbEntity
  8
Visible (ANSI)
100
AcDbLine
 10
17.30095315746285
 20
7.733446287755141
 30
0.0
 11
17.33931370034223
 21
7.71135592028191
 31
0.0
  0
ELLIPSE
  5
854
330
6C
100
AcDbEntity
  8
Visible (ANSI)
100
AcDbEllipse
 10
17.34673832154468
 20
7.670392993443544
 30
0.0
 11
0.05458164814205
 21
-0.0947825633283752
 31
0.0
210
0.0
220
0.0
230
1.0
 40
0.5780931159158105
 41
3.572615253427331
 42
5.499720852204668
  0
ELLIPSE
  5
855
330
6C
100
AcDbEntity
  8
Visible (ANSI)
100
AcDbEllipse
 10
17.30095315746285
 20
7.644027070975488
 30
0.0
 11
-0.0545816481420386
 21
0.0947825633283817
 31
0.0
210
0.0
220
0.0
230
1.0
 40
0.5780931159158107
 41
5.499720852205285
 42
8.641313505795078
  0
LINE
  5
856
330
6C
100
AcDbEntity
  8
Visible Narrow (ANSI)
100
AcDbLine
 10
17.30095315746285
 20
7.554607854195836
 30
0.0
 11
17.34673832154468
 21
7.580973776663893
 31
0.0
  0
LINE
  5
857
330
6C
100
AcDbEntity
  8
Visible (ANSI)
100
AcDbLine
 10
17.34673832154468
 20
7.580973776663893
 30
0.0
 11
17.38509886442405
 21
7.558883409190662
 31
0.0
  0
LINE
  5
858
330
6C
100
AcDbEntity
  8
Visible (ANSI)
100
AcDbLine
 10
17.33931370034223
 20
7.532517486722605
 30
0.0
 11
17.30095315746285
 21
7.554607854195836
 31
0.0
  0
LINE
  5
859
330
6C
100
AcDbEntity
  8
Visible Narrow (ANSI)
100
AcDbLine
 10
17.33931370034223
 20
7.532517486722605
 30
0.0
 11
17.38509886442405
 21
7.558883409190662
 31
0.0
  0
ELLIPSE
  5
85A
330
6C
100
AcDbEntity
  8
Visible (ANSI)
100
AcDbEllipse
 10
17.38509886442405
 20
7.648302625970313
 30
0.0
 11
0.0545816481420437
 21
-0.0947825633283775
 31
0.0
210
0.0
220
0.0
230
1.0
 40
0.5780931159158106
 41
5.499720852205022
 42
5.852162707341612
  0
ELLIPSE
  5
85B
330
6C
100
AcDbEntity
  8
Visible (ANSI)
100
AcDbEllipse
 10
17.33931370034223
 20
7.621936703502256
 30
0.0
 11
0.0545816481420386
 21
-0.0947825633283817
 31
0.0
210
0.0
220
0.0
230
1.0
 40
0.5780931159158105
 41
5.499720852205285
 42
8.641313505795078
  0
LINE
  5
85C
330
6C
100
AcDbEntity
  8
Visible (ANSI)
100
AcDbLine
 10
19.93298137373487
 20
10.69158429601144
 30
0.0
 11
19.97134191661425
 21
10.6694939285382
 31
0.0
  0
ELLIPSE
  5
85D
330
6C
100
AcDbEntity
  8
Visible (ANSI)
100
AcDbEllipse
 10
19.97876653781669
 20
10.62853100169984
 30
0.0
 11
0.05458164814205
 21
-0.0947825633283753
 31
0.0
210
0.0
220
0.0
230
1.0
 40
0.5780931159158107
 41
3.572615253427333
 42
5.499720852204669
  0
ELLIPSE
  5
85E
330
6C
100
AcDbEntity
  8
Visible (ANSI)
100
AcDbEllipse
 10
19.93298137373487
 20
10.60216507923178
 30
0.0
 11
-0.0545816481420385
 21
0.0947825633283814
 31
0.0
210
0.0
220
0.0
230
1.0
 40
0.5780931159158104
 41
5.499720852205284
 42
8.641313505795078
  0
LINE
  5
85F
330
6C
100
AcDbEntity
  8
Visible Narrow (ANSI)
100
AcDbLine
 10
19.93298137373487
 20
10.51274586245213
 30
0.0
 11
19.97876653781669
 21
10.53911178492019
 31
0.0
  0
LINE
  5
860
330
6C
100
AcDbEntity
  8
Visible (ANSI)
100
AcDbLine
 10
19.97876653781669
 20
10.53911178492019
 30
0.0
 11
20.01712708069607
 21
10.51702141744696
 31
0.0
  0
LINE
  5
861
330
6C
100
AcDbEntity
  8
Visible (ANSI)
100
AcDbLine
 10
19.97134191661425
 20
10.4906554949789
 30
0.0
 11
19.93298137373487
 21
10.51274586245213
 31
0.0
  0
LINE
  5
862
330
6C
100
AcDbEntity
  8
Visible Narrow (ANSI)
100
AcDbLine
 10
19.97134191661425
 20
10.4906554949789
 30
0.0
 11
20.01712708069607
 21
10.51702141744696
 31
0.0
  0
ELLIPSE
  5
863
330
6C
100
AcDbEntity
  8
Visible (ANSI)
100
AcDbEllipse
 10
20.01712708069608
 20
10.60644063422655
 30
0.0
 11
0.0545816481420142
 21
-0.0947825633283262
 31
0.0
210
0.0
220
0.0
230
1.0
 40
0.5780931159158107
 41
5.499720852204932
 42
5.852162707341717
  0
ELLIPSE
  5
864
330
6C
100
AcDbEntity
  8
Visible (ANSI)
100
AcDbEllipse
 10
19.97134191661425
 20
10.58007471175855
 30
0.0
 11
0.0545816481420385
 21
-0.0947825633283814
 31
0.0
210
0.0
220
0.0
230
1.0
 40
0.5780931159158106
 41
5.499720852205284
 42
8.641313505795078
  0
LINE
  5
865
330
6C
100
AcDbEntity
  8
Visible (ANSI)
100
AcDbLine
 10
19.93298137373487
 20
6.21776204209185
 30
0.0
 11
19.97134191661425
 21
6.195671674618619
 31
0.0
  0
ELLIPSE
  5
866
330
6C
100
AcDbEntity
  8
Visible (ANSI)
100
AcDbEllipse
 10
19.97876653781669
 20
6.154708747780254
 30
0.0
 11
0.0545816481420502
 21
-0.0947825633283757
 31
0.0
210
0.0
220
0.0
230
1.0
 40
0.5780931159158107
 41
3.572615253427358
 42
5.499720852204669
  0
ELLIPSE
  5
867
330
6C
100
AcDbEntity
  8
Visible (ANSI)
100
AcDbEllipse
 10
19.93298137373487
 20
6.128342825312198
 30
0.0
 11
-0.0545816481420386
 21
0.0947825633283817
 31
0.0
210
0.0
220
0.0
230
1.0
 40
0.5780931159158106
 41
5.499720852205284
 42
8.641313505795078
  0
LINE
  5
868
330
6C
100
AcDbEntity
  8
Visible Narrow (ANSI)
100
AcDbLine
 10
19.93298137373487
 20
6.038923608532545
 30
0.0
 11
19.97876653781669
 21
6.065289531000603
 31
0.0
  0
LINE
  5
869
330
6C
100
AcDbEntity
  8
Visible (ANSI)
100
AcDbLine
 10
19.97876653781669
 20
6.065289531000603
 30
0.0
 11
20.01712708069607
 21
6.043199163527372
 31
0.0
  0
LINE
  5
86A
330
6C
100
AcDbEntity
  8
Visible (ANSI)
100
AcDbLine
 10
19.97134191661425
 20
6.016833241059315
 30
0.0
 11
19.93298137373487
 21
6.038923608532545
 31
0.0
  0
LINE
  5
86B
330
6C
100
AcDbEntity
  8
Visible Narrow (ANSI)
100
AcDbLine
 10
19.97134191661425
 20
6.016833241059315
 30
0.0
 11
20.01712708069607
 21
6.043199163527372
 31
0.0
  0
ELLIPSE
  5
86C
330
6C
100
AcDbEntity
  8
Visible (ANSI)
100
AcDbEllipse
 10
20.01712708069607
 20
6.132618380307021
 30
0.0
 11
0.0545816481420425
 21
-0.0947825633283753
 31
0.0
210
0.0
220
0.0
230
1.0
 40
0.5780931159158106
 41
5.499720852205022
 42
5.852162707341622
  0
ELLIPSE
  5
86D
330
6C
100
AcDbEntity
  8
Visible (ANSI)
100
AcDbEllipse
 10
19.97134191661425
 20
6.106252457838966
 30
0.0
 11
0.0545816481420386
 21
-0.0947825633283817
 31
0.0
210
0.0
220
0.0
230
1.0
 40
0.5780931159158105
 41
5.499720852205285
 42
8.641313505795078
  0
LINE
  5
86E
330
6C
100
AcDbEntity
  8
Visible (ANSI)
100
AcDbLine
 10
17.30095315746285
 20
12.20726854167473
 30
0.0
 11
17.33931370034223
 21
12.18517817420149
 31
0.0
  0
ELLIPSE
  5
86F
330
6C
100
AcDbEntity
  8
Visible (ANSI)
100
AcDbEllipse
 10
17.34673832154468
 20
12.14421524736313
 30
0.0
 11
0.0545816481420498
 21
-0.0947825633283748
 31
0.0
210
0.0
220
0.0
230
0.9999999999999998
 40
0.5780931159158106
 41
3.572615253427349
 42
5.499720852204668
  0
ELLIPSE
  5
870
330
6C
100
AcDbEntity
  8
Visible (ANSI)
100
AcDbEllipse
 10
17.30095315746285
 20
12.11784932489507
 30
0.0
 11
-0.0545816481420384
 21
0.0947825633283814
 31
0.0
210
0.0
220
0.0
230
1.0
 40
0.5780931159158107
 41
5.499720852205285
 42
8.641313505795078
  0
LINE
  5
871
330
6C
100
AcDbEntity
  8
Visible Narrow (ANSI)
100
AcDbLine
 10
17.30095315746285
 20
12.02843010811542
 30
0.0
 11
17.34673832154468
 21
12.05479603058348
 31
0.0
  0
LINE
  5
872
330
6C
100
AcDbEntity
  8
Visible (ANSI)
100
AcDbLine
 10
17.34673832154468
 20
12.05479603058348
 30
0.0
 11
17.38509886442405
 21
12.03270566311025
 31
0.0
  0
LINE
  5
873
330
6C
100
AcDbEntity
  8
Visible (ANSI)
100
AcDbLine
 10
17.33931370034223
 20
12.00633974064219
 30
0.0
 11
17.30095315746285
 21
12.02843010811542
 31
0.0
  0
LINE
  5
874
330
6C
100
AcDbEntity
  8
Visible Narrow (ANSI)
100
AcDbLine
 10
17.33931370034223
 20
12.00633974064219
 30
0.0
 11
17.38509886442405
 21
12.03270566311025
 31
0.0
  0
ELLIPSE
  5
875
330
6C
100
AcDbEntity
  8
Visible (ANSI)
100
AcDbEllipse
 10
17.38509886442406
 20
12.12212487988984
 30
0.0
 11
0.0545816481420136
 21
-0.0947825633283252
 31
0.0
210
0.0
220
0.0
230
1.0
 40
0.5780931159158106
 41
5.499720852204932
 42
5.852162707341717
  0
ELLIPSE
  5
876
330
6C
100
AcDbEntity
  8
Visible (ANSI)
100
AcDbEllipse
 10
17.33931370034223
 20
12.09575895742184
 30
0.0
 11
0.0545816481420384
 21
-0.0947825633283814
 31
0.0
210
0.0
220
0.0
230
1.0
 40
0.5780931159158107
 41
5.499720852205285
 42
8.641313505795078
  0
LINE
  5
877
330
6C
100
AcDbEntity
  8
Visible (ANSI)
100
AcDbLine
 10
17.12647455920505
 20
7.520596894537479
 30
0.0
 11
17.12647455920504
 21
12.44223058608957
 31
0.0
  0
LINE
  5
878
330
6C
100
AcDbEntity
  8
Visible (ANSI)
100
AcDbLine
 10
17.17225972328687
 20
12.46859650855763
 30
0.0
 11
17.12647455920504
 21
12.44223058608957
 31
0.0
  0
LINE
  5
879
330
6C
100
AcDbEntity
  8
Visible (ANSI)
100
AcDbLine
 10
17.12647455920504
 20
12.44223058608957
 30
0.0
 11
20.14582051487206
 21
10.70350488819656
 31
0.0
  0
LINE
  5
87A
330
6C
100
AcDbEntity
  8
Visible (ANSI)
100
AcDbLine
 10
20.19160567895388
 20
10.72987081066462
 30
0.0
 11
20.14582051487206
 21
10.70350488819656
 31
0.0
  0
LINE
  5
87B
330
6C
100
AcDbEntity
  8
Visible (ANSI)
100
AcDbLine
 10
20.19160567895388
 20
10.72987081066462
 30
0.0
 11
17.17225972328687
 21
12.46859650855763
 31
0.0
  0
LINE
  5
87C
330
6C
100
AcDbEntity
  8
Visible (ANSI)
100
AcDbLine
 10
20.14582051487206
 20
10.70350488819656
 30
0.0
 11
20.14582051487206
 21
5.781871196644472
 31
0.0
  0
LINE
  5
87D
330
6C
100
AcDbEntity
  8
Visible (ANSI)
100
AcDbLine
 10
20.19160567895388
 20
5.80823711911253
 30
0.0
 11
20.14582051487206
 21
5.781871196644472
 31
0.0
  0
LINE
  5
87E
330
6C
100
AcDbEntity
  8
Visible (ANSI)
100
AcDbLine
 10
20.19160567895388
 20
5.80823711911253
 30
0.0
 11
20.19160567895388
 21
10.72987081066462
 31
0.0
  0
LINE
  5
87F
330
6C
100
AcDbEntity
  8
Visible (ANSI)
100
AcDbLine
 10
20.14582051487206
 20
5.781871196644472
 30
0.0
 11
17.12647455920505
 21
7.520596894537479
 31
0.0
  0
ENDSEC
  0
SECTION
  2
OBJECTS
  0
DICTIONARY
  5
C
330
0
100
AcDbDictionary
281
     1
  3
ACAD_CIP_PREVIOUS_PRODUCT_INFO
350
880
  3
ACAD_COLOR
350
63
  3
ACAD_GROUP
350
D
  3
ACAD_LAYOUT
350
62
  3
ACAD_MATERIAL
350
10
  3
ACAD_MLEADERSTYLE
350
66
  3
ACAD_MLINESTYLE
350
5F
  3
ACAD_PLOTSETTINGS
350
61
  3
ACAD_PLOTSTYLENAME
350
E
  3
ACAD_SCALELIST
350
42
  3
ACAD_TABLESTYLE
350
64
  3
ACAD_VISUALSTYLE
350
29
  3
ACDB_RECOMPOSE_DATA
350
885
  3
AcDbVariableDictionary
350
76
  0
XRECORD
  5
880
102
{ACAD_REACTORS
330
C
102
}
330
C
100
AcDbXrecord
280
     1
300
INVNTOR
300
2012
300
85795PDSP_2012_0F
  0
DICTIONARY
  5
63
102
{ACAD_REACTORS
330
C
102
}
330
C
100
AcDbDictionary
281
     1
  0
DICTIONARY
  5
D
102
{ACAD_REACTORS
330
C
102
}
330
C
100
AcDbDictionary
281
     1
  0
DICTIONARY
  5
62
102
{ACAD_REACTORS
330
C
102
}
330
C
100
AcDbDictionary
281
     1
  3
Layout1
350
6B
  3
Layout2
350
73
  3
Model
350
6F
  0
DICTIONARY
  5
10
102
{ACAD_REACTORS
330
C
102
}
330
C
100
AcDbDictionary
281
     1
  3
ByBlock
350
19
  3
ByLayer
350
11
  3
Global
350
21
  0
DICTIONARY
  5
66
102
{ACAD_REACTORS
330
C
102
}
330
C
100
AcDbDictionary
281
     1
  3
Standard
350
67
  0
DICTIONARY
  5
5F
102
{ACAD_REACTORS
330
C
102
}
330
C
100
AcDbDictionary
281
     1
  3
Standard
350
60
  0
DICTIONARY
  5
61
102
{ACAD_REACTORS
330
C
102
}
330
C
100
AcDbDictionary
281
     1
  0
ACDBDICTIONARYWDFLT
  5
E
102
{ACAD_REACTORS
330
C
102
}
330
C
100
AcDbDictionary
281
     1
  3
Normal
350
F
100
AcDbDictionaryWithDefault
340
F
  0
DICTIONARY
  5
42
102
{ACAD_REACTORS
330
C
102
}
330
C
100
AcDbDictionary
281
     1
  3
A0
350
43
  3
A1
350
44
  3
A2
350
45
  3
A3
350
46
  3
A4
350
47
  3
A5
350
48
  3
A6
350
49
  3
A7
350
4A
  3
A8
350
4B
  3
A9
350
4C
  3
B0
350
4D
  3
B1
350
4E
  3
B2
350
4F
  3
B3
350
50
  3
B4
350
51
  3
B5
350
52
  3
B6
350
53
  0
DICTIONARY
  5
64
102
{ACAD_REACTORS
330
C
102
}
330
C
100
AcDbDictionary
281
     1
  3
Standard
350
65
  0
DICTIONARY
  5
29
102
{ACAD_REACTORS
330
C
102
}
330
C
100
AcDbDictionary
281
     1
  3
2dWireframe
350
2F
  3
Basic
350
2E
  3
Brighten
350
35
  3
ColorChange
350
39
  3
Conceptual
350
32
  3
Dim
350
34
  3
EdgeColorOff
350
41
  3
Facepattern
350
38
  3
Flat
350
2A
  3
FlatWithEdges
350
2B
  3
Gouraud
350
2C
  3
GouraudWithEdges
350
2D
  3
Hidden
350
31
  3
JitterOff
350
3F
  3
Linepattern
350
37
  3
OverhangOff
350
40
  3
Realistic
350
33
  3
Shaded
350
3E
  3
Shaded with edges
350
3D
  3
Shades of Gray
350
3A
  3
Sketchy
350
3B
  3
Thicken
350
36
  3
Wireframe
350
30
  3
X-Ray
350
3C
  0
XRECORD
  5
885
102
{ACAD_REACTORS
330
C
102
}
330
C
100
AcDbXrecord
280
     1
 90
        1
330
65
  0
DICTIONARY
  5
76
102
{ACAD_REACTORS
330
C
102
}
330
C
100
AcDbDictionary
281
     1
  3
CANNOSCALE
350
79
  3
CMLEADERSTYLE
350
78
  3
CTABLESTYLE
350
77
  0
LAYOUT
  5
6B
102
{ACAD_REACTORS
330
62
102
}
330
62
100
AcDbPlotSettings
  1

  2

  4

  6

 40
0.0
 41
0.0
 42
0.0
 43
0.0
 44
0.0
 45
0.0
 46
0.0
 47
0.0
 48
0.0
 49
0.0
140
0.0
141
0.0
142
1.0
143
1.0
 70
   688
 72
     0
 73
     0
 74
     5
  7

 75
    16
147
1.0
 76
     0
 77
     2
 78
   300
148
0.0
149
0.0
100
AcDbLayout
  1
Layout1
 70
     1
 71
     1
 10
0.0
 20
0.0
 11
12.0
 21
9.0
 12
0.0
 22
0.0
 32
0.0
 14
0.0
 24
0.0
 34
0.0
 15
0.0
 25
0.0
 35
0.0
146
0.0
 13
0.0
 23
0.0
 33
0.0
 16
1.0
 26
0.0
 36
0.0
 17
0.0
 27
1.0
 37
0.0
 76
     0
330
68
  0
LAYOUT
  5
73
102
{ACAD_REACTORS
330
62
102
}
330
62
100
AcDbPlotSettings
  1

  2

  4

  6

 40
0.0
 41
0.0
 42
0.0
 43
0.0
 44
0.0
 45
0.0
 46
0.0
 47
0.0
 48
0.0
 49
0.0
140
0.0
141
0.0
142
1.0
143
1.0
 70
   688
 72
     0
 73
     0
 74
     5
  7

 75
    16
147
1.0
 76
     0
 77
     2
 78
   300
148
0.0
149
0.0
100
AcDbLayout
  1
Layout2
 70
     1
 71
     2
 10
0.0
 20
0.0
 11
12.0
 21
9.0
 12
0.0
 22
0.0
 32
0.0
 14
0.0
 24
0.0
 34
0.0
 15
0.0
 25
0.0
 35
0.0
146
0.0
 13
0.0
 23
0.0
 33
0.0
 16
1.0
 26
0.0
 36
0.0
 17
0.0
 27
1.0
 37
0.0
 76
     0
330
70
  0
LAYOUT
  5
6F
102
{ACAD_REACTORS
330
62
102
}
330
62
100
AcDbPlotSettings
  1

  2

  4

  6

 40
0.0
 41
0.0
 42
0.0
 43
0.0
 44
0.0
 45
0.0
 46
0.0
 47
0.0
 48
0.0
 49
0.0
140
0.0
141
0.0
142
1.0
143
1.0
 70
  1712
 72
     0
 73
     0
 74
     0
  7

 75
     0
147
1.0
 76
     0
 77
     2
 78
   300
148
0.0
149
0.0
100
AcDbLayout
  1
Model
 70
     1
 71
     0
 10
0.0
 20
0.0
 11
12.0
 21
9.0
 12
0.0
 22
0.0
 32
0.0
 14
0.0
 24
0.0
 34
0.0
 15
0.0
 25
0.0
 35
0.0
146
0.0
 13
0.0
 23
0.0
 33
0.0
 16
1.0
 26
0.0
 36
0.0
 17
0.0
 27
1.0
 37
0.0
 76
     0
330
6C
  0
MATERIAL
  5
19
102
{ACAD_XDICTIONARY
360
1A
102
}
102
{ACAD_REACTORS
330
10
102
}
330
10
100
AcDbMaterial
  1
ByBlock
 72
     0
 43
0.0208333333333333
 43
0.0
 43
0.0
 43
0.0
 43
0.0
 43
0.0208333333333333
 43
0.0
 43
0.0
 43
0.0
 43
0.0
 43
1.0
 43
0.0
 43
0.0
 43
0.0
 43
0.0
 43
1.0
 77
     0
 47
0.0208333333333333
 47
0.0
 47
0.0
 47
0.0
 47
0.0
 47
0.0208333333333333
 47
0.0
 47
0.0
 47
0.0
 47
0.0
 47
1.0
 47
0.0
 47
0.0
 47
0.0
 47
0.0
 47
1.0
171
     0
 49
0.0208333333333333
 49
0.0
 49
0.0
 49
0.0
 49
0.0
 49
0.0208333333333333
 49
0.0
 49
0.0
 49
0.0
 49
0.0
 49
1.0
 49
0.0
 49
0.0
 49
0.0
 49
0.0
 49
1.0
175
     0
142
0.0208333333333333
142
0.0
142
0.0
142
0.0
142
0.0
142
0.0208333333333333
142
0.0
142
0.0
142
0.0
142
0.0
142
1.0
142
0.0
142
0.0
142
0.0
142
0.0
142
1.0
179
     0
144
0.0208333333333333
144
0.0
144
0.0
144
0.0
144
0.0
144
0.0208333333333333
144
0.0
144
0.0
144
0.0
144
0.0
144
1.0
144
0.0
144
0.0
144
0.0
144
0.0
144
1.0
147
0.0208333333333333
147
0.0
147
0.0
147
0.0
147
0.0
147
0.0208333333333333
147
0.0
147
0.0
147
0.0
147
0.0
147
1.0
147
0.0
147
0.0
147
0.0
147
0.0
147
1.0
  0
MATERIAL
  5
11
102
{ACAD_XDICTIONARY
360
12
102
}
102
{ACAD_REACTORS
330
10
102
}
330
10
100
AcDbMaterial
  1
ByLayer
 72
     0
 43
0.0208333333333333
 43
0.0
 43
0.0
 43
0.0
 43
0.0
 43
0.0208333333333333
 43
0.0
 43
0.0
 43
0.0
 43
0.0
 43
1.0
 43
0.0
 43
0.0
 43
0.0
 43
0.0
 43
1.0
 77
     0
 47
0.0208333333333333
 47
0.0
 47
0.0
 47
0.0
 47
0.0
 47
0.0208333333333333
 47
0.0
 47
0.0
 47
0.0
 47
0.0
 47
1.0
 47
0.0
 47
0.0
 47
0.0
 47
0.0
 47
1.0
171
     0
 49
0.0208333333333333
 49
0.0
 49
0.0
 49
0.0
 49
0.0
 49
0.0208333333333333
 49
0.0
 49
0.0
 49
0.0
 49
0.0
 49
1.0
 49
0.0
 49
0.0
 49
0.0
 49
0.0
 49
1.0
175
     0
142
0.0208333333333333
142
0.0
142
0.0
142
0.0
142
0.0
142
0.0208333333333333
142
0.0
142
0.0
142
0.0
142
0.0
142
1.0
142
0.0
142
0.0
142
0.0
142
0.0
142
1.0
179
     0
144
0.0208333333333333
144
0.0
144
0.0
144
0.0
144
0.0
144
0.0208333333333333
144
0.0
144
0.0
144
0.0
144
0.0
144
1.0
144
0.0
144
0.0
144
0.0
144
0.0
144
1.0
147
0.0208333333333333
147
0.0
147
0.0
147
0.0
147
0.0
147
0.0208333333333333
147
0.0
147
0.0
147
0.0
147
0.0
147
1.0
147
0.0
147
0.0
147
0.0
147
0.0
147
1.0
  0
MATERIAL
  5
21
102
{ACAD_XDICTIONARY
360
22
102
}
102
{ACAD_REACTORS
330
10
102
}
330
10
100
AcDbMaterial
  1
Global
 72
     0
 43
0.0208333333333333
 43
0.0
 43
0.0
 43
0.0
 43
0.0
 43
0.0208333333333333
 43
0.0
 43
0.0
 43
0.0
 43
0.0
 43
1.0
 43
0.0
 43
0.0
 43
0.0
 43
0.0
 43
1.0
 77
     0
 47
0.0208333333333333
 47
0.0
 47
0.0
 47
0.0
 47
0.0
 47
0.0208333333333333
 47
0.0
 47
0.0
 47
0.0
 47
0.0
 47
1.0
 47
0.0
 47
0.0
 47
0.0
 47
0.0
 47
1.0
171
     0
 49
0.0208333333333333
 49
0.0
 49
0.0
 49
0.0
 49
0.0
 49
0.0208333333333333
 49
0.0
 49
0.0
 49
0.0
 49
0.0
 49
1.0
 49
0.0
 49
0.0
 49
0.0
 49
0.0
 49
1.0
175
     0
142
0.0208333333333333
142
0.0
142
0.0
142
0.0
142
0.0
142
0.0208333333333333
142
0.0
142
0.0
142
0.0
142
0.0
142
1.0
142
0.0
142
0.0
142
0.0
142
0.0
142
1.0
179
     0
144
0.0208333333333333
144
0.0
144
0.0
144
0.0
144
0.0
144
0.0208333333333333
144
0.0
144
0.0
144
0.0
144
0.0
144
1.0
144
0.0
144
0.0
144
0.0
144
0.0
144
1.0
147
0.0208333333333333
147
0.0
147
0.0
147
0.0
147
0.0
147
0.0208333333333333
147
0.0
147
0.0
147
0.0
147
0.0
147
1.0
147
0.0
147
0.0
147
0.0
147
0.0
147
1.0
  0
MLEADERSTYLE
  5
67
102
{ACAD_XDICTIONARY
360
883
102
}
102
{ACAD_REACTORS
330
66
102
}
330
66
100
AcDbMLeaderStyle
179
     2
170
     2
171
     1
172
     0
 90
        2
 40
0.0
 41
0.0
173
     1
 91
-1056964608
340
5B
 92
       -2
290
     1
 42
0.09
291
     1
 43
0.36
  3
Standard
 44
0.18
300

342
55
174
     1
178
     6
175
     1
176
     0
 93
-1056964608
 45
0.18
292
     0
297
     0
 46
0.18
 94
-1056964608
 47
1.0
 49
1.0
140
1.0
293
     1
141
0.0
294
     1
177
     0
142
1.0
295
     0
296
     0
143
0.125
271
     0
272
     9
273
     9
  0
MLINESTYLE
  5
60
102
{ACAD_REACTORS
330
5F
102
}
330
5F
100
AcDbMlineStyle
  2
STANDARD
 70
     0
  3

 62
   256
 51
90.0
 52
90.0
 71
     2
 49
0.5
 62
   256
  6
BYLAYER
 49
-0.5
 62
   256
  6
BYLAYER
  0
ACDBPLACEHOLDER
  5
F
102
{ACAD_REACTORS
330
E
102
}
330
E
  0
SCALE
  5
43
102
{ACAD_REACTORS
330
42
102
}
330
42
100
AcDbScale
 70
     0
300
1:1
140
1.0
141
1.0
290
     1
  0
SCALE
  5
44
102
{ACAD_REACTORS
330
42
102
}
330
42
100
AcDbScale
 70
     0
300
1/128" = 1'-0"
140
0.0078125
141
12.0
290
     0
  0
SCALE
  5
45
102
{ACAD_REACTORS
330
42
102
}
330
42
100
AcDbScale
 70
     0
300
1/64" = 1'-0"
140
0.015625
141
12.0
290
     0
  0
SCALE
  5
46
102
{ACAD_REACTORS
330
42
102
}
330
42
100
AcDbScale
 70
     0
300
1/32" = 1'-0"
140
0.03125
141
12.0
290
     0
  0
SCALE
  5
47
102
{ACAD_REACTORS
330
42
102
}
330
42
100
AcDbScale
 70
     0
300
1/16" = 1'-0"
140
0.0625
141
12.0
290
     0
  0
SCALE
  5
48
102
{ACAD_REACTORS
330
42
102
}
330
42
100
AcDbScale
 70
     0
300
3/32" = 1'-0"
140
0.09375
141
12.0
290
     0
  0
SCALE
  5
49
102
{ACAD_REACTORS
330
42
102
}
330
42
100
AcDbScale
 70
     0
300
1/8" = 1'-0"
140
0.125
141
12.0
290
     0
  0
SCALE
  5
4A
102
{ACAD_REACTORS
330
42
102
}
330
42
100
AcDbScale
 70
     0
300
3/16" = 1'-0"
140
0.1875
141
12.0
290
     0
  0
SCALE
  5
4B
102
{ACAD_REACTORS
330
42
102
}
330
42
100
AcDbScale
 70
     0
300
1/4" = 1'-0"
140
0.25
141
12.0
290
     0
  0
SCALE
  5
4C
102
{ACAD_REACTORS
330
42
102
}
330
42
100
AcDbScale
 70
     0
300
3/8" = 1'-0"
140
0.375
141
12.0
290
     0
  0
SCALE
  5
4D
102
{ACAD_REACTORS
330
42
102
}
330
42
100
AcDbScale
 70
     0
300
1/2" = 1'-0"
140
0.5
141
12.0
290
     0
  0
SCALE
  5
4E
102
{ACAD_REACTORS
330
42
102
}
330
42
100
AcDbScale
 70
     0
300
3/4" = 1'-0"
140
0.75
141
12.0
290
     0
  0
SCALE
  5
4F
102
{ACAD_REACTORS
330
42
102
}
330
42
100
AcDbScale
 70
     0
300
1" = 1'-0"
140
1.0
141
12.0
290
     0
  0
SCALE
  5
50
102
{ACAD_REACTORS
330
42
102
}
330
42
100
AcDbScale
 70
     0
300
1-1/2" = 1'-0"
140
1.5
141
12.0
290
     0
  0
SCALE
  5
51
102
{ACAD_REACTORS
330
42
102
}
330
42
100
AcDbScale
 70
     0
300
3" = 1'-0"
140
3.0
141
12.0
290
     0
  0
SCALE
  5
52
102
{ACAD_REACTORS
330
42
102
}
330
42
100
AcDbScale
 70
     0
300
6" = 1'-0"
140
6.0
141
12.0
290
     0
  0
SCALE
  5
53
102
{ACAD_REACTORS
330
42
102
}
330
42
100
AcDbScale
 70
     0
300
1'-0" = 1'-0"
140
12.0
141
12.0
290
     0
  0
TABLESTYLE
  5
65
102
{ACAD_XDICTIONARY
360
881
102
}
102
{ACAD_REACTORS
330
64
102
}
330
64
100
AcDbTableStyle
280
     0
  3
Standard
 70
     0
 71
     0
 40
0.06
 41
0.06
280
     0
281
     0
  7
Standard
140
0.18
170
     2
 62
     0
 63
     7
283
     0
 90
      512
 91
        0
  1

274
    -2
284
     1
 64
     0
275
    -2
285
     1
 65
     0
276
    -2
286
     1
 66
     0
277
    -2
287
     1
 67
     0
278
    -2
288
     1
 68
     0
279
    -2
289
     1
 69
     0
  7
Standard
140
0.25
170
     5
 62
     0
 63
     7
283
     0
 90
      512
 91
        0
  1

274
    -2
284
     1
 64
     0
275
    -2
285
     1
 65
     0
276
    -2
286
     1
 66
     0
277
    -2
287
     1
 67
     0
278
    -2
288
     1
 68
     0
279
    -2
289
     1
 69
     0
  7
Standard
140
0.18
170
     5
 62
     0
 63
     7
283
     0
 90
      512
 91
        0
  1

274
    -2
284
     1
 64
     0
275
    -2
285
     1
 65
     0
276
    -2
286
     1
 66
     0
277
    -2
287
     1
 67
     0
278
    -2
288
     1
 68
     0
279
    -2
289
     1
 69
     0
  0
VISUALSTYLE
  5
2F
102
{ACAD_REACTORS
330
29
102
}
330
29
100
AcDbVisualStyle
  2
2dWireframe
 70
     4
177
     2
291
     0
 71
     0
176
     1
 72
     2
176
     1
 73
     0
176
     1
 90
        0
176
     1
 40
0.6
176
     1
 41
30.0
176
     1
 63
     7
421
 16777215
176
     1
 74
     1
176
     1
 91
        4
176
     1
 64
     7
176
     1
 65
   257
176
     1
 75
     1
176
     1
175
     1
176
     1
 42
1.0
176
     1
 92
        0
176
     1
 66
   257
176
     1
 43
1.0
176
     1
 76
     1
176
     1
 77
     6
176
     1
 78
     2
176
     1
 67
     7
176
     1
 79
     5
176
     1
170
     0
176
     1
171
     0
176
     1
290
     0
176
     1
 93
        1
176
     1
 44
0.0
176
     1
173
     0
176
     1
  0
VISUALSTYLE
  5
2E
102
{ACAD_REACTORS
330
29
102
}
330
29
100
AcDbVisualStyle
  2
Basic
 70
     7
177
     2
291
     1
 71
     1
176
     1
 72
     0
176
     1
 73
     1
176
     1
 90
        0
176
     1
 40
0.6
176
     1
 41
30.0
176
     1
 63
     7
421
 16777215
176
     1
 74
     0
176
     1
 91
        4
176
     1
 64
     7
176
     1
 65
   257
176
     1
 75
     1
176
     1
175
     1
176
     1
 42
1.0
176
     1
 92
        8
176
     1
 66
     7
176
     1
 43
1.0
176
     1
 76
     1
176
     1
 77
     6
176
     1
 78
     2
176
     1
 67
     7
176
     1
 79
     5
176
     1
170
     0
176
     1
171
     0
176
     1
290
     0
176
     1
 93
        1
176
     1
 44
0.0
176
     1
173
     0
176
     1
  0
VISUALSTYLE
  5
35
102
{ACAD_REACTORS
330
29
102
}
330
29
100
AcDbVisualStyle
  2
Brighten
 70
    12
177
     2
291
     1
 71
     2
176
     1
 72
     2
176
     1
 73
     0
176
     1
 90
        0
176
     1
 40
0.6
176
     1
 41
30.0
176
     1
 63
     7
421
 16777215
176
     1
 74
     1
176
     1
 91
        4
176
     1
 64
     7
176
     1
 65
   257
176
     1
 75
     1
176
     1
175
     1
176
     1
 42
1.0
176
     1
 92
        8
176
     1
 66
     7
176
     1
 43
1.0
176
     1
 76
     1
176
     1
 77
     6
176
     1
 78
     2
176
     1
 67
     7
176
     1
 79
     5
176
     1
170
     0
176
     1
171
     0
176
     1
290
     0
176
     1
 93
        1
176
     1
 44
50.0
176
     1
173
     0
176
     1
  0
VISUALSTYLE
  5
39
102
{ACAD_REACTORS
330
29
102
}
330
29
100
AcDbVisualStyle
  2
ColorChange
 70
    16
177
     2
291
     1
 71
     2
176
     1
 72
     2
176
     1
 73
     3
176
     1
 90
        0
176
     1
 40
0.6
176
     1
 41
30.0
176
     1
 63
     8
421
  8421504
176
     1
 74
     1
176
     1
 91
        4
176
     1
 64
     7
176
     1
 65
   257
176
     1
 75
     1
176
     1
175
     1
176
     1
 42
1.0
176
     1
 92
        8
176
     1
 66
     8
424
  8421504
176
     1
 43
1.0
176
     1
 76
     1
176
     1
 77
     6
176
     1
 78
     2
176
     1
 67
     7
176
     1
 79
     5
176
     1
170
     0
176
     1
171
     0
176
     1
290
     0
176
     1
 93
        1
176
     1
 44
0.0
176
     1
173
     0
176
     1
  0
VISUALSTYLE
  5
32
102
{ACAD_REACTORS
330
29
102
}
330
29
100
AcDbVisualStyle
  2
Conceptual
 70
     9
177
     2
291
     0
 71
     3
176
     1
 72
     2
176
     1
 73
     0
176
     1
 90
        0
176
     1
 40
0.6
176
     1
 41
30.0
176
     1
 63
     7
421
 16777215
176
     1
 74
     2
176
     1
 91
        2
176
     1
 64
     7
176
     1
 65
   257
176
     1
 75
     1
176
     1
175
     1
176
     1
 42
179.0
176
     1
 92
        8
176
     1
 66
     7
176
     1
 43
1.0
176
     1
 76
     1
176
     1
 77
     6
176
     1
 78
     2
176
     1
 67
     7
176
     1
 79
     3
176
     1
170
     0
176
     1
171
     0
176
     1
290
     0
176
     1
 93
        1
176
     1
 44
0.0
176
     1
173
     0
176
     1
  0
VISUALSTYLE
  5
34
102
{ACAD_REACTORS
330
29
102
}
330
29
100
AcDbVisualStyle
  2
Dim
 70
    11
177
     2
291
     1
 71
     2
176
     1
 72
     2
176
     1
 73
     0
176
     1
 90
        0
176
     1
 40
0.6
176
     1
 41
30.0
176
     1
 63
     7
421
 16777215
176
     1
 74
     1
176
     1
 91
        4
176
     1
 64
     7
176
     1
 65
   257
176
     1
 75
     1
176
     1
175
     1
176
     1
 42
1.0
176
     1
 92
        8
176
     1
 66
     7
176
     1
 43
1.0
176
     1
 76
     1
176
     1
 77
     6
176
     1
 78
     2
176
     1
 67
     7
176
     1
 79
     5
176
     1
170
     0
176
     1
171
     0
176
     1
290
     0
176
     1
 93
        1
176
     1
 44
-50.0
176
     1
173
     0
176
     1
  0
VISUALSTYLE
  5
41
102
{ACAD_REACTORS
330
29
102
}
330
29
100
AcDbVisualStyle
  2
EdgeColorOff
 70
    22
177
     2
291
     1
 71
     2
176
     0
 72
     2
176
     0
 73
     0
176
     0
 90
        0
176
     0
 40
0.6
176
     0
 41
30.0
176
     0
 63
     7
421
 16777215
176
     0
 74
     1
176
     0
 91
        4
176
     0
 64
     7
176
     0
 65
   257
176
     0
 75
     1
176
     0
175
     1
176
     0
 42
1.0
176
     0
 92
        8
176
     2
 66
     7
176
     0
 43
1.0
176
     0
 76
     1
176
     0
 77
     6
176
     0
 78
     2
176
     0
 67
     7
176
     0
 79
     5
176
     0
170
     0
176
     0
171
     0
176
     0
290
     0
176
     0
 93
        1
176
     0
 44
0.0
176
     0
173
     0
176
     0
  0
VISUALSTYLE
  5
38
102
{ACAD_REACTORS
330
29
102
}
330
29
100
AcDbVisualStyle
  2
Facepattern
 70
    15
177
     2
291
     1
 71
     2
176
     1
 72
     2
176
     1
 73
     0
176
     1
 90
        0
176
     1
 40
0.6
176
     1
 41
30.0
176
     1
 63
     7
421
 16777215
176
     1
 74
     1
176
     1
 91
        4
176
     1
 64
     7
176
     1
 65
   257
176
     1
 75
     1
176
     1
175
     1
176
     1
 42
1.0
176
     1
 92
        8
176
     1
 66
     7
176
     1
 43
1.0
176
     1
 76
     1
176
     1
 77
     6
176
     1
 78
     2
176
     1
 67
     7
176
     1
 79
     5
176
     1
170
     0
176
     1
171
     0
176
     1
290
     0
176
     1
 93
        1
176
     1
 44
0.0
176
     1
173
     0
176
     1
  0
VISUALSTYLE
  5
2A
102
{ACAD_REACTORS
330
29
102
}
330
29
100
AcDbVisualStyle
  2
Flat
 70
     0
177
     2
291
     1
 71
     2
176
     1
 72
     1
176
     1
 73
     1
176
     1
 90
        2
176
     1
 40
0.6
176
     1
 41
30.0
176
     1
 63
     7
421
 16777215
176
     1
 74
     0
176
     1
 91
        0
176
     1
 64
     7
176
     1
 65
   257
176
     1
 75
     1
176
     1
175
     1
176
     1
 42
1.0
176
     1
 92
        8
176
     1
 66
     7
176
     1
 43
1.0
176
     1
 76
     1
176
     1
 77
     6
176
     1
 78
     2
176
     1
 67
     7
176
     1
 79
     5
176
     1
170
     0
176
     1
171
     0
176
     1
290
     0
176
     1
 93
       13
176
     1
 44
0.0
176
     1
173
     0
176
     1
  0
VISUALSTYLE
  5
2B
102
{ACAD_REACTORS
330
29
102
}
330
29
100
AcDbVisualStyle
  2
FlatWithEdges
 70
     1
177
     2
291
     1
 71
     2
176
     1
 72
     1
176
     1
 73
     1
176
     1
 90
        2
176
     1
 40
0.6
176
     1
 41
30.0
176
     1
 63
     7
421
 16777215
176
     1
 74
     1
176
     1
 91
        0
176
     1
 64
     7
176
     1
 65
   257
176
     1
 75
     1
176
     1
175
     1
176
     1
 42
1.0
176
     1
 92
        0
176
     1
 66
   257
176
     1
 43
1.0
176
     1
 76
     1
176
     1
 77
     6
176
     1
 78
     2
176
     1
 67
     7
176
     1
 79
     5
176
     1
170
     0
176
     1
171
     0
176
     1
290
     0
176
     1
 93
       13
176
     1
 44
0.0
176
     1
173
     0
176
     1
  0
VISUALSTYLE
  5
2C
102
{ACAD_REACTORS
330
29
102
}
330
29
100
AcDbVisualStyle
  2
Gouraud
 70
     2
177
     2
291
     1
 71
     2
176
     1
 72
     2
176
     1
 73
     1
176
     1
 90
        2
176
     1
 40
0.6
176
     1
 41
30.0
176
     1
 63
     7
421
 16777215
176
     1
 74
     0
176
     1
 91
        0
176
     1
 64
     7
176
     1
 65
   257
176
     1
 75
     1
176
     1
175
     1
176
     1
 42
1.0
176
     1
 92
        0
176
     1
 66
     7
176
     1
 43
1.0
176
     1
 76
     1
176
     1
 77
     6
176
     1
 78
     2
176
     1
 67
     7
176
     1
 79
     5
176
     1
170
     0
176
     1
171
     0
176
     1
290
     0
176
     1
 93
       13
176
     1
 44
0.0
176
     1
173
     0
176
     1
  0
VISUALSTYLE
  5
2D
102
{ACAD_REACTORS
330
29
102
}
330
29
100
AcDbVisualStyle
  2
GouraudWithEdges
 70
     3
177
     2
291
     1
 71
     2
176
     1
 72
     2
176
     1
 73
     1
176
     1
 90
        2
176
     1
 40
0.6
176
     1
 41
30.0
176
     1
 63
     7
421
 16777215
176
     1
 74
     1
176
     1
 91
        0
176
     1
 64
     7
176
     1
 65
   257
176
     1
 75
     1
176
     1
175
     1
176
     1
 42
1.0
176
     1
 92
        0
176
     1
 66
   257
176
     1
 43
1.0
176
     1
 76
     1
176
     1
 77
     6
176
     1
 78
     2
176
     1
 67
     7
176
     1
 79
     5
176
     1
170
     0
176
     1
171
     0
176
     1
290
     0
176
     1
 93
       13
176
     1
 44
0.0
176
     1
173
     0
176
     1
  0
VISUALSTYLE
  5
31
102
{ACAD_REACTORS
330
29
102
}
330
29
100
AcDbVisualStyle
  2
Hidden
 70
     6
177
     2
291
     0
 71
     1
176
     1
 72
     2
176
     1
 73
     2
176
     1
 90
        0
176
     1
 40
0.6
176
     1
 41
30.0
176
     1
 63
     7
421
 16777215
176
     1
 74
     2
176
     1
 91
        2
176
     1
 64
     7
176
     1
 65
   257
176
     1
 75
     2
176
     1
175
     1
176
     1
 42
40.0
176
     1
 92
        0
176
     1
 66
   257
176
     1
 43
1.0
176
     1
 76
     1
176
     1
 77
     6
176
     1
 78
     2
176
     1
 67
     7
176
     1
 79
     3
176
     1
170
     0
176
     1
171
     0
176
     1
290
     0
176
     1
 93
        1
176
     1
 44
0.0
176
     1
173
     0
176
     1
  0
VISUALSTYLE
  5
3F
102
{ACAD_REACTORS
330
29
102
}
330
29
100
AcDbVisualStyle
  2
JitterOff
 70
    20
177
     2
291
     1
 71
     2
176
     0
 72
     2
176
     0
 73
     0
176
     0
 90
        0
176
     0
 40
0.6
176
     0
 41
30.0
176
     0
 63
     7
421
 16777215
176
     0
 74
     1
176
     0
 91
        4
176
     0
 64
     7
176
     0
 65
   257
176
     0
 75
     1
176
     0
175
     1
176
     0
 42
1.0
176
     0
 92
       10
176
     2
 66
     7
176
     0
 43
1.0
176
     0
 76
     1
176
     0
 77
     6
176
     0
 78
     2
176
     0
 67
     7
176
     0
 79
     5
176
     0
170
     0
176
     0
171
     0
176
     0
290
     0
176
     0
 93
        1
176
     0
 44
0.0
176
     0
173
     0
176
     0
  0
VISUALSTYLE
  5
37
102
{ACAD_REACTORS
330
29
102
}
330
29
100
AcDbVisualStyle
  2
Linepattern
 70
    14
177
     2
291
     1
 71
     2
176
     1
 72
     2
176
     1
 73
     0
176
     1
 90
        0
176
     1
 40
0.6
176
     1
 41
30.0
176
     1
 63
     7
421
 16777215
176
     1
 74
     1
176
     1
 91
        4
176
     1
 64
     7
176
     1
 65
   257
176
     1
 75
     7
176
     1
175
     7
176
     1
 42
1.0
176
     1
 92
        8
176
     1
 66
     7
176
     1
 43
1.0
176
     1
 76
     1
176
     1
 77
     6
176
     1
 78
     2
176
     1
 67
     7
176
     1
 79
     5
176
     1
170
     0
176
     1
171
     0
176
     1
290
     0
176
     1
 93
        1
176
     1
 44
0.0
176
     1
173
     0
176
     1
  0
VISUALSTYLE
  5
40
102
{ACAD_REACTORS
330
29
102
}
330
29
100
AcDbVisualStyle
  2
OverhangOff
 70
    21
177
     2
291
     1
 71
     2
176
     0
 72
     2
176
     0
 73
     0
176
     0
 90
        0
176
     0
 40
0.6
176
     0
 41
30.0
176
     0
 63
     7
421
 16777215
176
     0
 74
     1
176
     0
 91
        4
176
     0
 64
     7
176
     0
 65
   257
176
     0
 75
     1
176
     0
175
     1
176
     0
 42
1.0
176
     0
 92
        9
176
     2
 66
     7
176
     0
 43
1.0
176
     0
 76
     1
176
     0
 77
     6
176
     0
 78
     2
176
     0
 67
     7
176
     0
 79
     5
176
     0
170
     0
176
     0
171
     0
176
     0
290
     0
176
     0
 93
        1
176
     0
 44
0.0
176
     0
173
     0
176
     0
  0
VISUALSTYLE
  5
33
102
{ACAD_REACTORS
330
29
102
}
330
29
100
AcDbVisualStyle
  2
Realistic
 70
     8
177
     2
291
     0
 71
     2
176
     1
 72
     3
176
     1
 73
     0
176
     1
 90
        2
176
     1
 40
0.6
176
     1
 41
30.0
176
     1
 63
     7
421
 16777215
176
     1
 74
     0
176
     1
 91
        0
176
     1
 64
     7
176
     1
 65
   257
176
     1
 75
     1
176
     1
175
     1
176
     1
 42
1.0
176
     1
 92
        8
176
     1
 66
   257
176
     1
 43
1.0
176
     1
 76
     1
176
     1
 77
     6
176
     1
 78
     2
176
     1
 67
     7
176
     1
 79
     3
176
     1
170
     0
176
     1
171
     0
176
     1
290
     0
176
     1
 93
       13
176
     1
 44
0.0
176
     1
173
     0
176
     1
  0
VISUALSTYLE
  5
3E
102
{ACAD_REACTORS
330
29
102
}
330
29
100
AcDbVisualStyle
  2
Shaded
 70
    27
177
     2
291
     0
 71
     2
176
     1
 72
     2
176
     1
 73
     1
176
     1
 90
        2
176
     1
 40
0.6
176
     1
 41
30.0
176
     1
 63
     7
421
 16777215
176
     1
 74
     0
176
     1
 91
        4
176
     1
 64
     7
176
     1
 65
   257
176
     1
 75
     1
176
     1
175
     1
176
     1
 42
1.0
176
     1
 92
        8
176
     1
 66
   257
176
     1
 43
1.0
176
     1
 76
     1
176
     1
 77
     6
176
     1
 78
     2
176
     1
 67
     8
425
  7895160
176
     1
 79
     3
176
     1
170
     0
176
     1
171
     0
176
     1
290
     0
176
     1
 93
        5
176
     1
 44
0.0
176
     1
173
     0
176
     1
  0
VISUALSTYLE
  5
3D
102
{ACAD_REACTORS
330
29
102
}
330
29
100
AcDbVisualStyle
  2
Shaded with edges
 70
    26
177
     2
291
     0
 71
     2
176
     1
 72
     2
176
     1
 73
     1
176
     1
 90
        2
176
     1
 40
0.6
176
     1
 41
30.0
176
     1
 63
     7
421
 16777215
176
     1
 74
     1
176
     1
 91
       10
176
     1
 64
     7
176
     1
 65
   257
176
     1
 75
     2
176
     1
175
     1
176
     1
 42
1.0
176
     1
 92
        8
176
     1
 66
   257
176
     1
 43
1.0
176
     1
 76
     1
176
     1
 77
     6
176
     1
 78
     2
176
     1
 67
     7
176
     1
 79
     3
176
     1
170
     0
176
     1
171
     0
176
     1
290
     0
176
     1
 93
        5
176
     1
 44
0.0
176
     1
173
     0
176
     1
  0
VISUALSTYLE
  5
3A
102
{ACAD_REACTORS
330
29
102
}
330
29
100
AcDbVisualStyle
  2
Shades of Gray
 70
    23
177
     2
291
     0
 71
     2
176
     1
 72
     2
176
     1
 73
     3
176
     1
 90
        0
176
     1
 40
0.6
176
     1
 41
30.0
176
     1
 63
     7
421
 16777215
176
     1
 74
     2
176
     1
 91
        2
176
     1
 64
     7
176
     1
 65
     7
176
     1
 75
     1
176
     1
175
     1
176
     1
 42
40.0
176
     1
 92
        8
176
     1
 66
     7
176
     1
 43
1.0
176
     1
 76
     1
176
     1
 77
     6
176
     1
 78
     2
176
     1
 67
     7
176
     1
 79
     3
176
     1
170
     0
176
     1
171
     0
176
     1
290
     0
176
     1
 93
        1
176
     1
 44
0.0
176
     1
173
     0
176
     1
  0
VISUALSTYLE
  5
3B
102
{ACAD_REACTORS
330
29
102
}
330
29
100
AcDbVisualStyle
  2
Sketchy
 70
    24
177
     2
291
     0
 71
     1
176
     1
 72
     2
176
     1
 73
     2
176
     1
 90
        0
176
     1
 40
0.6
176
     1
 41
30.0
176
     1
 63
     7
421
 16777215
176
     1
 74
     2
176
     1
 91
        2
176
     1
 64
     7
176
     1
 65
     7
176
     1
 75
     1
176
     1
175
     1
176
     1
 42
40.0
176
     1
 92
       11
176
     1
 66
     7
176
     1
 43
1.0
176
     1
 76
     1
176
     1
 77
     6
176
     1
 78
     2
176
     1
 67
     7
176
     1
 79
     6
176
     1
170
     0
176
     1
171
     0
176
     1
290
     0
176
     1
 93
        1
176
     1
 44
0.0
176
     1
173
     0
176
     1
  0
VISUALSTYLE
  5
36
102
{ACAD_REACTORS
330
29
102
}
330
29
100
AcDbVisualStyle
  2
Thicken
 70
    13
177
     2
291
     1
 71
     2
176
     1
 72
     2
176
     1
 73
     0
176
     1
 90
        0
176
     1
 40
0.6
176
     1
 41
30.0
176
     1
 63
     7
421
 16777215
176
     1
 74
     1
176
     1
 91
        4
176
     1
 64
     7
176
     1
 65
   257
176
     1
 75
     1
176
     1
175
     1
176
     1
 42
1.0
176
     1
 92
       12
176
     1
 66
     7
176
     1
 43
1.0
176
     1
 76
     1
176
     1
 77
     6
176
     1
 78
     2
176
     1
 67
     7
176
     1
 79
     5
176
     1
170
     0
176
     1
171
     0
176
     1
290
     0
176
     1
 93
        1
176
     1
 44
0.0
176
     1
173
     0
176
     1
  0
VISUALSTYLE
  5
30
102
{ACAD_REACTORS
330
29
102
}
330
29
100
AcDbVisualStyle
  2
Wireframe
 70
     5
177
     2
291
     0
 71
     0
176
     1
 72
     2
176
     1
 73
     0
176
     1
 90
        0
176
     1
 40
0.6
176
     1
 41
30.0
176
     1
 63
     7
421
 16777215
176
     1
 74
     1
176
     1
 91
        4
176
     1
 64
     7
176
     1
 65
   257
176
     1
 75
     1
176
     1
175
     1
176
     1
 42
1.0
176
     1
 92
        0
176
     1
 66
   257
176
     1
 43
1.0
176
     1
 76
     1
176
     1
 77
     6
176
     1
 78
     2
176
     1
 67
     7
176
     1
 79
     3
176
     1
170
     0
176
     1
171
     0
176
     1
290
     0
176
     1
 93
        1
176
     1
 44
0.0
176
     1
173
     0
176
     1
  0
VISUALSTYLE
  5
3C
102
{ACAD_REACTORS
330
29
102
}
330
29
100
AcDbVisualStyle
  2
X-Ray
 70
    25
177
     2
291
     0
 71
     2
176
     1
 72
     2
176
     1
 73
     1
176
     1
 90
        1
176
     1
 40
0.5
176
     1
 41
30.0
176
     1
 63
     7
421
 16777215
176
     1
 74
     1
176
     1
 91
        0
176
     1
 64
     7
176
     1
 65
   257
176
     1
 75
     1
176
     1
175
     1
176
     1
 42
1.0
176
     1
 92
        8
176
     1
 66
     7
176
     1
 43
1.0
176
     1
 76
     1
176
     1
 77
     6
176
     1
 78
     2
176
     1
 67
     7
176
     1
 79
     3
176
     1
170
     0
176
     1
171
     0
176
     1
290
     0
176
     1
 93
       13
176
     1
 44
0.0
176
     1
173
     0
176
     1
  0
DICTIONARYVAR
  5
79
102
{ACAD_REACTORS
330
76
102
}
330
76
100
DictionaryVariables
280
     0
  1
1:1
  0
DICTIONARYVAR
  5
78
102
{ACAD_REACTORS
330
76
102
}
330
76
100
DictionaryVariables
280
     0
  1
STANDARD
  0
DICTIONARYVAR
  5
77
102
{ACAD_REACTORS
330
76
102
}
330
76
100
DictionaryVariables
280
     0
  1
STANDARD
  0
DICTIONARY
  5
1A
330
19
100
AcDbDictionary
280
     1
281
     1
  3
BUMPTILE
360
1C
  3
DIFFUSETILE
360
1B
  3
OPACITYTILE
360
1F
  3
REFLECTIONTILE
360
1E
  3
REFRACTIONTILE
360
20
  3
SPECULARTILE
360
1D
  0
DICTIONARY
  5
12
330
11
100
AcDbDictionary
280
     1
281
     1
  3
BUMPTILE
360
14
  3
DIFFUSETILE
360
13
  3
FBXASSET
360
10B
  3
OPACITYTILE
360
17
  3
REFLECTIONTILE
360
16
  3
REFRACTIONTILE
360
18
  3
SPECULARTILE
360
15
  0
DICTIONARY
  5
22
330
21
100
AcDbDictionary
280
     1
281
     1
  3
BUMPTILE
360
24
  3
DIFFUSETILE
360
23
  3
FBXASSET
360
BA
  3
OPACITYTILE
360
27
  3
REFLECTIONTILE
360
26
  3
REFRACTIONTILE
360
28
  3
SPECULARTILE
360
25
  0
DICTIONARY
  5
883
330
67
100
AcDbDictionary
280
     1
281
     1
  3
ACAD_XREC_ROUNDTRIP
360
884
  0
DICTIONARY
  5
881
330
65
100
AcDbDictionary
280
     1
281
     1
  3
ACAD_ROUNDTRIP_2008_TABLESTYLE_CELLSTYLEMAP
360
882
  0
XRECORD
  5
1C
102
{ACAD_REACTORS
330
1A
102
}
330
1A
100
AcDbXrecord
280
     1
270
     1
271
     1
  0
XRECORD
  5
1B
102
{ACAD_REACTORS
330
1A
102
}
330
1A
100
AcDbXrecord
280
     1
270
     1
271
     1
  0
XRECORD
  5
1F
102
{ACAD_REACTORS
330
1A
102
}
330
1A
100
AcDbXrecord
280
     1
270
     1
271
     1
  0
XRECORD
  5
1E
102
{ACAD_REACTORS
330
1A
102
}
330
1A
100
AcDbXrecord
280
     1
270
     1
271
     1
  0
XRECORD
  5
20
102
{ACAD_REACTORS
330
1A
102
}
330
1A
100
AcDbXrecord
280
     1
270
     1
271
     1
  0
XRECORD
  5
1D
102
{ACAD_REACTORS
330
1A
102
}
330
1A
100
AcDbXrecord
280
     1
270
     1
271
     1
  0
XRECORD
  5
14
102
{ACAD_REACTORS
330
12
102
}
330
12
100
AcDbXrecord
280
     1
270
     1
271
     1
  0
XRECORD
  5
13
102
{ACAD_REACTORS
330
12
102
}
330
12
100
AcDbXrecord
280
     1
270
     1
271
     1
  0
XRECORD
  5
10B
102
{ACAD_REACTORS
330
12
102
}
330
12
100
AcDbXrecord
280
     1
 70
     1
 90
1959938040
 71
     1
  1
3A273EC7-BF41-493D-8716-B2DCCF727FE2
311
504B03040A00000800004A5ADC403DEE336E79000000790000001B0000006175746F6465736B2D64657369676E2D7061636B6167652E786D6C3C3F786D6C2076657273696F6E3D22312E302220656E636F64696E673D227574662D3822203F3E3C666F726D6174733E3C666F726D61743E687474703A2F2F736368656D612E
311
6175746F6465736B2E636F6D2F64657369676E2D7061636B6167652F323030393C2F666F726D61743E3C2F666F726D6174733E504B03041400060808004A5ADC40D486FD9CA0000000F4000000130000005B436F6E74656E745F54797065735D2E786D6C7D8EC10E82300C865F65E91D8A1E8C310C0EEA1BF002731658846E
311
D98AC1B77784ABF1D8FE5FBFBF75BBCE937A534CCEB38643598122B6FEE978D0B0485F9C41B54DDD7D022595594E1A469170414C76A4D9A4D207E29CF43ECE46F218070CC6BECC4078ACAA135ACF422C856C0E68EA1BF5669944DDD7BCDE7B1F8E415D77AECB980613C2E4AC91FC167A2B244592486606FC29C8FD7F045B9A
311
EF7053A7E60B504B03041400060808004A5ADC405E8C088CE80000007C01000008000000636F72652E786D6C8D904D6EC3201085AF82668F0D386D5D0B13D94E6ED00B20202E4A0C163F558F5F9C3852BBEB6A86C7FB66468F1FBF971BFA32215AEF7AA01501649CF2DABAB9879C2EB80574143C789F7ED90039B9981E3619
311
049F83CFEB2E29EF9271A9A8CE6BB38B32469300A95B697A88EAD32CB292391547BC56AB5457399B8A3EBB02E76C357A2CB1BACCB3176B028891BCD0617A3BE05343183EB474C4036DDFF1894DE7F3D88CAC19265E6FB0E0C92ECFFD2A18998C06C1086598BC62D67E50DAD1B663A43C3B4278BDD9FF4079D5FF84B275A961
311
FBB90F2C82A0E590FB87E0F5964529F7A04ADD72133F504B03041400060808004A5ADC4055019EA25F0000007C00000007000000636E782E786D6C4DCB3B0E80201045D1AD90E915ED2CF8AC45050C11660C8261F98AB1B07AC9C97D42D718D865D3E909258CFD00CCE24AC6E326A164D74DC0B4128928FF326038472BA131
311
28B1252AC747C6BAB984FC68F0B87FE8960A5C09FE86CFB69FBA01504B03041400060808004A5ADC40F319271D65010000020300000C0000006662782F636F72652E786D6C8D525B6E833010BC8AE57FF083B4A591711492DCA01770C0A128602363A31CBFCB23A2A9A2A84202B3B3B3333B2076B7B64183767D6D4D86594C
311
31D2A6B0656DAA0C077F89528C7652386BFDAF368C8C6A7586C73296A27236744BA9B0C66BE3A16A6CA997A2EA7BED312A1A3864B82FBE75AB62153C74F4D7B853C555553A6631C0D02745EF1D1840B3C878C7F272BE0932D7A508A12E17B42E41ADBED4DA6199D337B63F7C6CA2634279B449591EED59FA191DF9E174CA93
311
9C27FB832023590A5FB7777785D3CAEB124B4E198FE87BC4D32FC6B62CDD720AAF5B4A0519DB1F48A12BFF490AB5F1095FECCEB41E4B064626E0CFB6109147BD1AC00F91828C21C2634AF83168080442F6EADCDCF7B84269D085B76E034869C30A0DAA091A54299A2E416614264F0360B3A773F88B39AF67C00754A6026BCA
311
C3F11CFCA82E66D5258A4EBB68F03764AC6B55B39A9B2DAEF755E829BDB08D75FF61936555B28449C6BF57FE00504B03041400060808004A5ADC405760DEDD7E0000009D0000000B0000006662782F636E782E786D6C4DCCD10A83201886E15B91FFDCA56C66811AAEB9FB886521990EA76397BF1A1DECE883878F57749FD5
311
A3B74D2F1783047A22806C78C4D1855942C9136E00754AA418F3DF0D5018562B616750624EB13C0F1AED34149F37F52E2C0712C61A6AEE06B7BD26F8A2AF356E6BC231E5ACE746F3333737A894A87EA56DF7B0FA02504B03041400060808004A5ADC40BBB4B2C02B01000014020000310000006662782F3035353831454645
311
2D394341302D344142362D393630372D3137354337454137333745442F636F72652E786D6C8D51DB72C22010FD158627FB9004A2B9E8101C6BD32FE80F2041653490E1D2F1F3BB3471A67DF38585DD73CE1E76D9FE31DED1B7725E5BD3619A138C949176D0E6D2E118CE598BD19E33676DF803C3C888517538A531671767E3
311
B4A4A435419900596307B52485F72A6024EF70E9B09757358A5CC400087FCB27216FE2A2729A4319709CF9E0C0009A9BA4137352552DED3FFB6C7B3C906C7378AFB36D4D9A8C36D5B1E90FCDBAE93F583113398B510F0B5D0F60479FB572AF8A243267418F4FFBD22911D48079496899913A2BDB2F4A77B4DD95049E3B4258
311
91E0FF48711A5E24456DC2BA5CECCE348F3965C55CE06CB0F1747F9A518FC9BA8052BF9557F20D7E9513BAAE6B422B56CC50180068D69B45D307EB60C0ABDB09D0099584EB0D6745DA1184DF05424CFBE43F504B03041400060808004A5ADC40FB45A29A4C01000033030000300000006662782F30353538314546452D3943
311
41302D344142362D393630372D3137354337454137333745442F636E782E786D6CD593CD6EC32010845F0571F70F6E14451126520F7D821E7AC5B049683058FC54CDDB7749489A4B0E3DF682ECD98F99D5C8E6BBEFD9922F08D1783752D6F69480535E1B7718694EFB6643C94EF0E07D7AC0287172869116990A7E083E2F55
311
D2B097D92654AD71A72A06883E070511E5729358AFA44503704D4611E609B4064DEE203EED21E02A284E67928E40DE5E3F889F3E41A5C8BBE222785732042F674D7A80285156C638D2A88E30CB56E6E435C453AB65922D6B6F594F76FA7522E5C22D3207434AF848CB4945DDA8C51E798743C1630AD85E85D279012AE4B258
311
A364C292BB0B786504CFC6A5F5AAB2068B0F48B3F5CB6A85669799E0C9CC5009154026D0540C3D1B9A7EDD0C9B77C6B66CB31D7A7CDDF63DEF0A2EF8E4BDAD97D006825F88F22E814B5430DE95F1B3FA2A47B409D8B50FE73F148905D4D46B3B778FFFDC4F77F9BEB1AE807F81F801504B03041400060808004A5ADC40A557
311
8DE9A405000081100000340000006662782F30353538314546452D394341302D344142362D393630372D3137354337454137333745442F6F626A656374732E786D6CAD57D96EDB3814FD1541F332F3E045B69B65A0A848ECA430DAB4458D14F360C0A0244AE1845A4052A9335F3F8722254B8E9D7A067DD1C2E5F2DE73CF5D
311
E8BFDF66DC79A642B222BF72BDE1D875681E1531CBD32BB752C9E0C275DE07BE280AD559E63A39C9E895AB87DDC04F4551957628A609A9B8DA1BBDBBF9CB9111CDA9EB449C4879E5CAE8916664482A55C4543E0D63A2C8304DB6436F6816F6C5A682948F7B424B2268AEA029C67348718C525EFF77EC8E027FA4E7035F3FED
311
AAE9F155A3DA9EFEF92C978AE4D1ABC3F6C44CBDD9E276F2EE72F06E369B0E6667136F707377B31878E7D3F1FC6C3EBFBCBEBDC4C1520948B29A089AB8C107602358E48FCC54E0572C57D3895D621D3412F499694FB9C1C4F1FC9159D35A678D3CA47E54E4398D6AAC80466D9F151DD392E6317CCEA884661D84C6FD5F4FE3
311
D8999EEA7F7B6477F83404BA3B3A821ADD9B7757D322FC1B26C853182424D50C34585A430D57C73B84C3A2E0768E4927238A0A46B8C35928887871032CD54B02BF27463359E868D016B801BC60A6FB744118FD9CE787B44C2ACE358DDDA08E820D62852A596BC6FEA162A77D1719E8045F69365C5883D44B49DDE0D250E462
311
8F4D064827E12485CB61A6DE399DEC193AD771BA5CB8C1C7BB70BBD2B17BF8F0521425154AD307D46A1CD7BC354A5627EF24CFE90DEE9E2A3B50BE01F9CF08F59D2AF09B60DBD976664F5182E432294406DF38636730C663EC78F5537F77BEFC51BBB9EFBD6378C2D91AAA5F8067DF86AE2F3B7006FE33085F88A9356D1511
311
8EB471CF7200A449E2F00243C8C349B8758325B21CB23276111E783019EA3EE3D31F59314814F5499D770E2CF7D2E209091AB0D58C841A86FC56C19D9F5EA5B3FA60BBEC18BCEF7E095DAF17AB8FAB4A2424A2F736A6173461395328713BDE7415EA61DEB3E889BEFC28440C435FE3BDEAE29DD9A324D0D6986BE0D326A7EB
311
9FDDC9BD0322EC4B0B9D6EFC9F9C00237461EDC8BF6732A29C939C165573EE9BF50365C340AC835D33B92D30BBC202D29899BD1844918E042B35886DB56A93E6F088750FCBCF60A41BDCBC7C222FDDEC15EE726F54F0426CC2978D494B07A1FEDEE7B6C560A4A580EE759034F16F41DFC42C492A89247800D7EFCB79D7773A
311
2D204534524DB4CC603F828B084BDA462EAAB520A8A445BE61A89B88BB830774E50352CB805AE0318D25E5C986715E659B847154A34D46CA2370FC7FFDC32A2B37242BAA5C1D91DD531DD5A1AF7B8FBDF20751D1A31BACEAF7E006B937A6F11132E85A7200AB9E6BA7D793F3E9EDFC1C5DD3CC1BCC2EA78BC1C5B97736B899
311
2CE6F3BBF3C9F9DDEDA4F193D124F09B52D38D687809A5CDAF04B3EE7B58227E6C1270837BA2E4FA8309CFE6FDB01CA217F647D8837AD96EBC8E9FD1F7D1F8E702762B0F0A5A6625A719CD15D13174AF3FF837823EA3A78C195F6624A52748F9F261B5670C464ED8F755C73BFDB1B7D78ECE75401E14A21EAB2CCC09E37B1B
311
5383E4B0CC538B5FE393F66D0A4DF3ABFFAC63D099CA82B318793076525A6454211B9E5084444625A8D7EDE9637BF73861F7B3E9101509396D3479246892B94458805A55A4FAE3CE6F68EA745F75E5A2DC0E9FF0B099C275C0992B174DBA621195C310055AB742B57070A9DBC9A3F12779CAD16B9B4DED7FBB4B63D32BC9ED
311
9253FA276B9749E1D600A491127D031A2278A75626F06BDDEC7CF49F0C6FD47188C26758A9D696DD406B4C7D0C42D418656F0B68629EECD15B04EADB6679C37A4D0F91936E596F92C0481D2822D2FAA6A0F5B32A5D2FBE8ED0A138CB2F4EC9AB14BE3C5DD2405090B9D2010E16811556664914A83AFF73FD5514B8C966CE1D
311
03059CDFB717677FACE7459615B9195A5FDBFBB0B37AC4ED365E2339507D2D91EBC9D89BACEBEB80BDA16C4222E990C4F20903F0AC602DD03DF78397E6CE883A6426DA7523ED8A3D862E178E2D6C3308B574E9E6560D0E1A8F9C3A88217DA5D411D35D50BE792318D54BA182402F1FFC0B504B03041400060800004A5ADC40
311
000000000000000000000000350000006662782F30353538314546452D394341302D344142362D393630372D3137354337454137333745442F76657274696365732E62696E504B03041400060808004A5ADC40F270F1330600000004000000360000006662782F30353538314546452D394341302D344142362D393630372D
311
3137354337454137333745442F747269616E676C65732E62696E636660600000504B03041400060800004A5ADC40000000000000000000000000370000006662782F30353538314546452D394341302D344142362D393630372D3137354337454137333745442F617474726962757465732E62696E504B0304140006080800
311
4A5ADC40D5987DFC8F00000041010000360000006662782F30353538314546452D394341302D344142362D393630372D3137354337454137333745442F6469726563746F72792E786D6C858F410EC2201045AF4266AF15DDB800BA74E7C21B903225242D6328188F2FA5C4183471359997F9FF81E89FF3C41E1816475E02DF
311
1F80A11FC8386F25A438EECEC07A250251FC3803E6F58C12560C4AD840E95E91C151A72936F496F35732D860FE635F62C8F2DA16B505C545B74125BAA2FA9E05D7CC053D063734D5C7665FD55B6B8D15D5E9BFEAFD8490FFA45E504B03041400060808004A5ADC4081E2C234FA000000A00100003B0000006662782F303535
311
38314546452D394341302D344142362D393630372D3137354337454137333745442F7265736F75726365732F636F72652E786D6C8D50DB6E842010FD1533EF28602FD6201B75F70FFA0304672DD9150C97A69F5F5C6DD2BEF58561CE257372C4E96BB9179FE88371B603565228D06A37193B7790E29534509CA4F0CEC55F32
311
28AC5AB0830D062966EFD27A40DAD9883666D4BA090F508580110A7DCF9F0E82FEC045952AC5AC08B77255FAA6662C5999E9AC9322449F0314FB91ED05E931B8E4350651EDAC142999E9D09829DF3457831EE4409F593FBED6E45C534E9E1A36909E356FE4CCC7CB65A8075EF7A3A836B314D12C3F19B547157102C929E384
311
BE10DEBC33D6B2A6E534AF2DA5A2DAE47F4C699DFE694AC6C69A1F71775B00C97290072145B5F595C7A3CC3CB76EE537504B010214000A00000800004A5ADC403DEE336E79000000790000001B00000000000000000000000000000000006175746F6465736B2D64657369676E2D7061636B6167652E786D6C504B01021400
311
1400060808004A5ADC40D486FD9CA0000000F40000001300000000000000000000000000B20000005B436F6E74656E745F54797065735D2E786D6C504B010214001400060808004A5ADC405E8C088CE80000007C010000080000000000000000000000000083010000636F72652E786D6C504B010214001400060808004A5A
311
DC4055019EA25F0000007C000000070000000000000000000000000091020000636E782E786D6C504B010214001400060808004A5ADC40F319271D65010000020300000C00000000000000000000000000150300006662782F636F72652E786D6C504B010214001400060808004A5ADC405760DEDD7E0000009D0000000B00
311
000000000000000000000000A40400006662782F636E782E786D6C504B010214001400060808004A5ADC40BBB4B2C02B0100001402000031000000000000000000000000004B0500006662782F30353538314546452D394341302D344142362D393630372D3137354337454137333745442F636F72652E786D6C504B010214
311
001400060808004A5ADC40FB45A29A4C010000330300003000000000000000000000000000C50600006662782F30353538314546452D394341302D344142362D393630372D3137354337454137333745442F636E782E786D6C504B010214001400060808004A5ADC40A5578DE9A40500008110000034000000000000000000
311
000000005F0800006662782F30353538314546452D394341302D344142362D393630372D3137354337454137333745442F6F626A656374732E786D6C504B010214001400060800004A5ADC400000000000000000000000003500000000000000000000000000550E00006662782F30353538314546452D394341302D344142
311
362D393630372D3137354337454137333745442F76657274696365732E62696E504B010214001400060808004A5ADC40F270F13306000000040000003600000000000000000000000000A80E00006662782F30353538314546452D394341302D344142362D393630372D3137354337454137333745442F747269616E676C65
311
732E62696E504B010214001400060800004A5ADC400000000000000000000000003700000000000000000000000000020F00006662782F30353538314546452D394341302D344142362D393630372D3137354337454137333745442F617474726962757465732E62696E504B010214001400060808004A5ADC40D5987DFC8F
311
000000410100003600000000000000000000000000570F00006662782F30353538314546452D394341302D344142362D393630372D3137354337454137333745442F6469726563746F72792E786D6C504B010214001400060808004A5ADC4081E2C234FA000000A00100003B000000000000000000000000003A1000006662
311
782F30353538314546452D394341302D344142362D393630372D3137354337454137333745442F7265736F75726365732F636F72652E786D6C504B0506000000000E000E00800400008D1100000000
310
504B03040A00000800004A5ADC403DEE336E79000000790000001B0000006175746F6465736B2D64657369676E2D7061636B6167652E786D6C3C3F786D6C2076657273696F6E3D22312E302220656E636F64696E673D227574662D3822203F3E3C666F726D6174733E3C666F726D61743E687474703A2F2F736368656D612E
310
6175746F6465736B2E636F6D2F64657369676E2D7061636B6167652F323030393C2F666F726D61743E3C2F666F726D6174733E504B03041400060808004A5ADC40D486FD9CA0000000F4000000130000005B436F6E74656E745F54797065735D2E786D6C7D8EC10E82300C865F65E91D8A1E8C310C0EEA1BF002731658846E
310
D98AC1B77784ABF1D8FE5FBFBF75BBCE937A534CCEB38643598122B6FEE978D0B0485F9C41B54DDD7D022595594E1A469170414C76A4D9A4D207E29CF43ECE46F218070CC6BECC4078ACAA135ACF422C856C0E68EA1BF5669944DDD7BCDE7B1F8E415D77AECB980613C2E4AC91FC167A2B244592486606FC29C8FD7F045B9A
310
EF7053A7E60B504B03041400060808004A5ADC40A13823C1E80000007C01000008000000636F72652E786D6C8D90D16E842010457F85CC3B0AEA2A35C8C66EFC83FE0001D6925DC10834FDFCE2AE9BB46F7D9AE172CFCCE4F2F3F772475F660BD6BB0168410019A7BCB66E1E20C52B6680CE826FDEC75F36404E2E66805D06
310
C1E7CDA7F5909477D1B89855E7B5394419828980D43D370304F5691659C814B323DC8A55AA9B9C4D415F5D8653B21A3D97589DE7D9AB351B88A9EB6A3A3514B39110DC8C758BDF4F8CE286B1EE32B5E31BB99C78B9C38247BBBCF6ABCDC86834888AD00A931657EC83D29EB2BE22F9D913C2CBDDFE074AABFE2794AC8B7575
310
9CFBC402089A0F797C085EEE59E4F2082AD73D37F103504B03041400060808004A5ADC4055019EA25F0000007C00000007000000636E782E786D6C4DCB3B0E80201045D1AD90E915ED2CF8AC45050C11660C8261F98AB1B07AC9C97D42D718D865D3E909258CFD00CCE24AC6E326A164D74DC0B4128928FF326038472BA131
310
28B1252AC747C6BAB984FC68F0B87FE8960A5C09FE86CFB69FBA01504B03041400060808004A5ADC40D996EC2E64010000020300000C0000006662782F636F72652E786D6C8D52ED8E8230107C95A6FFA12DA272A6D478C637B817A8A5724468493F888F7FCB87F1BC18732181B2B3B3333BC0F7B7AE458376BEB1A6C42CA5
310
1869A36CD598BAC4315C9202A3BDE0CEDAF0AB0D23233B5DE2B18C05AF9D8DFD5252D6046D02548DADF45294DEEB80916AE15062AFBE752753190374F86BDA4B7595B54E590A30F409EE830303681619EF585CCE374EE6BAE03136D5823615A83597463B2C4EDBED8A9D729614074A93FCB0DA249FEB822579516C8FA7CDE1
310
831ED79C8C64C143D3DDDD29A765D01516196559423749567C31B663C52EA3F0BAA39493B1FD8914FBEA9FA4D898B0CA16BB33CD63C1C0C804FCD916220AC8CB01FC10C1C918223CA6849F83864020E420CFED7D8F2B9406AD82753920958D0F68906DD4A04AD1747132A330791A009BBD9C93BD99F37E067C40696AB02603
310
1CCF318CEA7C565DA2E8B54B867043C6BA4EB60F73B3C5C7FD21F492AE6C6BDD7FD86459952C6192F1EF153F504B03041400060808004A5ADC40273E87F77D0000009D0000000B0000006662782F636E782E786D6C4DCCD10A83201886E15B91FFDCA5B486811A2A761FB12C64A6C3E9D8E5AF46073BFAE0E1E3E5C3670BE8
310
EDF2CBA728805E082017EF69F6711550CB8219A041F29C52F9BB018AD3E6041C0C92AF39D5E749B35BA61ACAAEC1C7C78974344C9196E1D65885AF23BB616D7B853B6309E97567B4A1D048DEFC4AFB1E61F905504B03041400060808004A5ADC40E5B0CED92C01000014020000310000006662782F31464338413033382D33
310
4345412D344638362D424539412D3543453030394235434243312F636F72652E786D6C8D51DB8EC22014FC15C293FB400B6DED564331DAE817EC0FD4824AB4D070D9F8F97BD8D664F7CD170E0C337326E7F0DD737CA06FE5BCB6A6C52CA318293358A9CDB5C5315C4883D14E70676DF843C3C8F4A36A7182B1E05767E3B440
310
8335419900A8B1522D60EFBD0A180D0FB8B4D80F3735F6591F0330FC3D9BFAE1DE5F55C632F8069EE03E380880E626E9C4829DBA664FCB8694DD714FAA535393C371B327EBEE48E9E6B0EE0E1DE3F92C143C462D17B99610475FB472EF9A24B1E0418FAFF883537D50128B82B282D09A14CD17635BD66C0B0ACF2DA53C4FF4
310
7FA238C93745519B50164BDC59E6212BCFE70FC1A58DE7C72B8C7A4ED60594FAADBC1A3EB0A0192D3E374555973C9FA93000F0ACABC5D307EB60C0ABFB19D8258C2919D795E079DA1194DF05424DFB143F504B03041400060808004A5ADC409DE26D8D5301000033030000300000006662782F31464338413033382D334345
310
412D344638362D424539412D3543453030394235434243312F636E782E786D6CBD93CD6EC32010845F0571F76F22CB8A30917AE813F4D02B814D4283C1E2A76ADEBE4B42D25C72A854F582ECD96166F5C966DBAFD9904FF0413B3BD1AE6E29012B9DD2F630D114F7D548C99633EF5C7CB05162C50C13CD32E5ECE05D5A8AA4
310
602F9289A81A6D4F45F4105CF21202CAF926314E0A830160AB8422CC3B500A14B91BF1690F1E5741717726F108E4F5E59DB8DD07C818589353386B720767F92C4D0F264AA411214C34C823CCA216293A05E1542B1145DDD5B7AE273BFD24917CE15699BC26B97CA2F9A4BC6C542347D6E090B3103DD22BA6785E8072B12C46
310
4B11117273315E3D9C256DE3B02E5E8DE03DBA57FD308E1876997116F50CC5213D88088AF2BEEDFAAA1DAA7E7CEBBA4D376EFA165F376DCB9A6CE76CE79C29973006BC5B887436828D9477ACC9E367F88A8F28ED91B5F3E75F804400A5F54AE79EF1977CBA61B55EFF239FE6F27D232E8F7F01FF06504B0304140006080800
310
4A5ADC4090F8AC64620700009A1B0000340000006662782F31464338413033382D334345412D344638362D424539412D3543453030394235434243312F6F626A656374732E786D6CED595B73A33614FE2B0C7D691F8C8DEDDC3A844E626F763C6DDA9DBABBD307CF3032C8448D108C24B2717F7D8F2E602026C1DDF4AD0F36
310
20A4A373BE73D521F8E939A3CE13E682E4ECDAF5BD89EB6016E70961E9B55BCADDE8D2757E0A039EE7B231CD7518CAF0B5AB86DD3048795E167628C13B5452D919BDBBFDD3113166D875628A84B87645FC8033E4A152E609168F5E8224F2D2DDB3E77B66629B6CCA51F1D0215A208E99044E619C0115C730E5B71F27EE380C
310
C6EA7D18A87F3B6B3668D6BC7FD6584BDDE6923021118B5FB0D421331BC4D2CC9F2F3F4CCFAE4667F3F96C343F9FFAA3DBBBDBE5C8BF984D16E78BC5D5CD872B606F9BE7D4CA94E002B304F4B777433F18AB37B5E81681635CC7396338D64002545AAC2E4182056CD5806FD27EF495448DD75AC2C6F35CBDB72C3486676D2A
310
7DB38601D1A20B82D8ED2A89AB6B53BE7CFB17082E861825175802B74272D0AE85878357B8E124189BD130D81E7441849321893941D4A164CB1107A5C05435250CCC024B46390707528E92406BCEBC6EDB1678E6DBAE738CCB5D49A9F20C37D48E1581FB61293467E46FCC0FDC3791019E40DA92307969B994FB02BBE15530
310
D68361A02EB3A97D6980747614A5422362DE76045D28D75F2DDDF0E7BBEDF35A8583E39B173C2F3097CAE8941E355F60C8F6AA50B2DBFA8334A71680300654BBF200CAEF80FCAF103D0EAC80DE38799E3FCFED5CC91113BB9C67A01B67E28C26F037717CFDAFEE1B77C1B85EDCD65E1F9EE0A60AAACB6FC7B32D83C6CAF2DF
310
80330C9EC0E0733EB3AFD631A260CFF7840140CA481C9AC31084F6DDF6D90D57103821D0C32A44431F4406769FE036185B3207AD54EE65BD8E01A2768FD91025016CDA22818D1E3D7D84ECC1497C505353C43E78CFDEC55C6F96EB9FD725DFA118DF5B9F5EE21D614442D63CCE500BF396448F78FF35E70908FA12EF7513EF
310
CC6E25006D85B9023EAD40500F879D5B1BC4B02ECD55B809DED8018450B9BA41FF9E8818538A18CECB6ADF3ABA2943AD3DDED60C6E383510CFA61D13E6F889A8AA029CE630A3C528E4FD98934281E8861F8D6475D0F47AA4FBBCFA152CB29EDF336BC520F43244FFD041EB080E2DCBAE90B640D4026F0FE13CCE69CEA3ED3E
310
3291CE855A02D8687BCB97165188F546498A0A7890F6BB2AA4A446DA2821BB5D2920AE1E61F1CB6AD134878937F3CF9CE67FC719E7106DC17711B77ED7D92322194A71B44349DF76CDDD6ADA4293EC21CDF18E825CE489C87D84643449707A0A342711BF7A57EA29CD85200C0BC85747C16FA231F12090186D562C2BAD7680
310
2622CAB044F4140414991E7075DAD1356E0CA5C3DB3CD6D6FB9AC69A44FF238BE0086AC99C45044A51C8216F32EE7B671043DAE81A943BF882B555B4B518B4841222DE475F31491FE429A81BF23DB8C77024296594172806B31E40F685AF28A57678DFA2F851E58F282EE97B1988C07417114ACB2C821F6170F218E2DA7560
310
7A1585067113FB24CEA02843B2E44336393F9BBCD8C7D40CDD10D8D868472884ED2843450FEAAD80A8EB11A706DF52EF51EAB6CC8A086579C906198A37EB7A9325DF55AB223B905F552A42D95811B604C380305967D52A6683A9EBC00A6EA403D53E12282BA83985BD9178FCDA9B34E5DE0DB8F5D3F7DD2083C2AF477BCD88
310
3AAF60B03CB60A03F115C9F8C10DD7FA3ABA85FA3BC1C921D557B566B30204C454242F39B12AFABC82F2C6D6686E788FA4D87C3459B7BA7E5E79D0FD08C6B0066A977AE14A019D612691AA4CEED50DFD1D41086ED130E32B95534FA1729324BA6A44F48EF4A9B35546B436CD88573C609667F0631BC2625A26788312F118DD
310
4B1AAD8962DD4AE965A4C2F855017FFBB8EEC003230344FAA40A3CFCB5B3D68E2E54B97494887C28B32D430482604BB4D4E8C62B586A355269B9BEAA3305D45D606056C5F3FF4F16CD76C4FF278BD41AC6379D2C6EF7BFA07DB32FD248E7B1B2EB938E01757E5254DEE318A0DB0E35D53A8B98646EE5B7CE144150ACA2FCE0
310
6AAC0A1A86601FC7FF3A6BF76541B35D87FFD3B2B6FFA2E23829ABB426AB2ED591CA75D5CC61B39BE9C5ECC3E202DAB2737F34BF9A2D479717FEF9E876BA5C2CEE2EA617771FEA546C8887411DCC74EE826713D4AA61F5643180AEACC82949E0349F382986982FE14C3FA07DCE332C2079369BDD896DCA0F58FD64FA9C126D
310
29AE387940D020A602D23A8851C6B23DEE7C07AD490907ED6B179A46DE23FC59AB741DC83CD72EB40A2489B1F0B6D066520D3D4D1C52AECEFD96180432C4529512CDA2FAB95EA5B06985FF7ACA903460E56AF530A0702BA0FBD5EA5068DE2C4FF1498257EC3848C2EDB69450AD19590E03B5307A9B83FA8D6C94B047BBF533
310
B8EEEB62F99E9ED34264D02783578DC0501D49C453DDEF568C59966E969FC6D0677356BF39052D53D0E5704A238EC1984B555081158155589A059260AA8B1F379F780E9F7832475745CEF7CF97E73F6C167996E5CC0C6D6EE05496C0872267FD009F7D920D140F5835D7C5663AF1A71BDDD4B67DF6688B04F6545504035531
310
A104E9981CD8E58B06956D5F8E952A3AD3574BC706516806183B7AD1E3351FB91CF021F53945798CF6F34ADA57FBDA633D156C8243473AFC07504B03041400060800004A5ADC40000000000000000000000000350000006662782F31464338413033382D334345412D344638362D424539412D354345303039423543424331
310
2F76657274696365732E62696E504B03041400060808004A5ADC40F270F1330600000004000000360000006662782F31464338413033382D334345412D344638362D424539412D3543453030394235434243312F747269616E676C65732E62696E636660600000504B03041400060800004A5ADC4000000000000000000000
310
0000370000006662782F31464338413033382D334345412D344638362D424539412D3543453030394235434243312F617474726962757465732E62696E504B03041400060808004A5ADC40D5987DFC8F00000041010000360000006662782F31464338413033382D334345412D344638362D424539412D3543453030394235
310
434243312F6469726563746F72792E786D6C858F410EC2201045AF4266AF15DDB800BA74E7C21B903225242D6328188F2FA5C4183471359997F9FF81E89FF3C41E1816475E02DF1F80A11FC8386F25A438EECEC07A250251FC3803E6F58C12560C4AD840E95E91C151A72936F496F35732D860FE635F62C8F2DA16B505C545
310
B74125BAA2FA9E05D7CC053D063734D5C7665FD55B6B8D15D5E9BFEAFD8490FFA45E504B03041400060808004A5ADC40B2930D59FB000000A00100003B0000006662782F31464338413033382D334345412D344638362D424539412D3543453030394235434243312F7265736F75726365732F636F72652E786D6C8D504B6E
310
833010BD0A9ABDC106425C641CD1881BF40296992456828DFCA97AFC9A844AEDAE1B8FE77D344F4F9CBE9647F1893E18670760258502AD76B3B1D70152BC100EC5490AEF5CFC2583C2AA0507D86090E2EA5D5A77483B1BD1C68C5A37E30EAA103042A11FF93340D0375C54A952CC8A702F57A5EFEA8A252B339D755284E873
310
80E275647B417A0C2E798D41542F568A94CCBC6BCC9C6F9A8B410F723A1E1B36B594F09152D28E4D47DE0F9C9196F3E379EAC6377A3E886A334B11CDF293517B54116790356535A11DA9F907633DE37D4DF3DA532AAA4DFEC794D6F99FA6646C6CEA3DEECB1640B21CE44948516D7DE5F12C33CFAD5BF90D504B010214000A
310
00000800004A5ADC403DEE336E79000000790000001B00000000000000000000000000000000006175746F6465736B2D64657369676E2D7061636B6167652E786D6C504B010214001400060808004A5ADC40D486FD9CA0000000F40000001300000000000000000000000000B20000005B436F6E74656E745F54797065735D
310
2E786D6C504B010214001400060808004A5ADC40A13823C1E80000007C010000080000000000000000000000000083010000636F72652E786D6C504B010214001400060808004A5ADC4055019EA25F0000007C000000070000000000000000000000000091020000636E782E786D6C504B010214001400060808004A5ADC40
310
D996EC2E64010000020300000C00000000000000000000000000150300006662782F636F72652E786D6C504B010214001400060808004A5ADC40273E87F77D0000009D0000000B00000000000000000000000000A30400006662782F636E782E786D6C504B010214001400060808004A5ADC40E5B0CED92C01000014020000
310
3100000000000000000000000000490500006662782F31464338413033382D334345412D344638362D424539412D3543453030394235434243312F636F72652E786D6C504B010214001400060808004A5ADC409DE26D8D53010000330300003000000000000000000000000000C40600006662782F31464338413033382D33
310
4345412D344638362D424539412D3543453030394235434243312F636E782E786D6C504B010214001400060808004A5ADC4090F8AC64620700009A1B00003400000000000000000000000000650800006662782F31464338413033382D334345412D344638362D424539412D3543453030394235434243312F6F626A656374
310
732E786D6C504B010214001400060800004A5ADC400000000000000000000000003500000000000000000000000000191000006662782F31464338413033382D334345412D344638362D424539412D3543453030394235434243312F76657274696365732E62696E504B010214001400060808004A5ADC40F270F133060000
310
000400000036000000000000000000000000006C1000006662782F31464338413033382D334345412D344638362D424539412D3543453030394235434243312F747269616E676C65732E62696E504B010214001400060800004A5ADC400000000000000000000000003700000000000000000000000000C61000006662782F
310
31464338413033382D334345412D344638362D424539412D3543453030394235434243312F617474726962757465732E62696E504B010214001400060808004A5ADC40D5987DFC8F0000004101000036000000000000000000000000001B1100006662782F31464338413033382D334345412D344638362D424539412D3543
310
453030394235434243312F6469726563746F72792E786D6C504B010214001400060808004A5ADC40B2930D59FB000000A00100003B00000000000000000000000000FE1100006662782F31464338413033382D334345412D344638362D424539412D3543453030394235434243312F7265736F75726365732F636F72652E78
310
6D6C504B0506000000000E000E0080040000521300000000
  0
XRECORD
  5
17
102
{ACAD_REACTORS
330
12
102
}
330
12
100
AcDbXrecord
280
     1
270
     1
271
     1
  0
XRECORD
  5
16
102
{ACAD_REACTORS
330
12
102
}
330
12
100
AcDbXrecord
280
     1
270
     1
271
     1
  0
XRECORD
  5
18
102
{ACAD_REACTORS
330
12
102
}
330
12
100
AcDbXrecord
280
     1
270
     1
271
     1
  0
XRECORD
  5
15
102
{ACAD_REACTORS
330
12
102
}
330
12
100
AcDbXrecord
280
     1
270
     1
271
     1
  0
XRECORD
  5
24
102
{ACAD_REACTORS
330
22
102
}
330
22
100
AcDbXrecord
280
     1
270
     1
271
     1
  0
XRECORD
  5
23
102
{ACAD_REACTORS
330
22
102
}
330
22
100
AcDbXrecord
280
     1
270
     1
271
     1
  0
XRECORD
  5
BA
102
{ACAD_REACTORS
330
22
102
}
330
22
100
AcDbXrecord
280
     1
 70
     1
 90
1959938040
 71
     1
  1
A8CCC87F-2295-43D6-8A4E-E24917EFEEC7
311
504B03040A0000080000495ADC403DEE336E79000000790000001B0000006175746F6465736B2D64657369676E2D7061636B6167652E786D6C3C3F786D6C2076657273696F6E3D22312E302220656E636F64696E673D227574662D3822203F3E3C666F726D6174733E3C666F726D61743E687474703A2F2F736368656D612E
311
6175746F6465736B2E636F6D2F64657369676E2D7061636B6167652F323030393C2F666F726D61743E3C2F666F726D6174733E504B0304140006080800495ADC40D486FD9CA0000000F4000000130000005B436F6E74656E745F54797065735D2E786D6C7D8EC10E82300C865F65E91D8A1E8C310C0EEA1BF002731658846E
311
D98AC1B77784ABF1D8FE5FBFBF75BBCE937A534CCEB38643598122B6FEE978D0B0485F9C41B54DDD7D022595594E1A469170414C76A4D9A4D207E29CF43ECE46F218070CC6BECC4078ACAA135ACF422C856C0E68EA1BF5669944DDD7BCDE7B1F8E415D77AECB980613C2E4AC91FC167A2B244592486606FC29C8FD7F045B9A
311
EF7053A7E60B504B0304140006080800495ADC40A4288198E90000007C01000008000000636F72652E786D6C8D90D16E842010457F85CC3B2AA80D1A6463DDF60BFA0304584B760523D0F4F38BBB6ED2BEF56986CB3D3393CB4FDFCB0D7D992D58EF06204505C838E5B575F300295E300374127CF33EFEB20172723103EC32
311
083E6F3EAD87A4BC8BC6C5AC3AAFCD21CA104C04A46EB91920A84FB3C842A6981DE15AAC525DE56C0AF2EC329C92D5E8B1C4EA3CCF5EACD940D42D6DC7F13CE2EE8D32DC34ACC66C7C3FE38E4C13699BD789928E973B2C78B4CB73BFDA8C8C4683A015A1B87AC1947D10D213D6932E3FFBAAE2E56EFF03A555FF134AD6C59A
311
1EE73EB00082E443EE1F82977B16B9DC83CA75CF4DFC00504B0304140006080800495ADC4055019EA25F0000007C00000007000000636E782E786D6C4DCB3B0E80201045D1AD90E915ED2CF8AC45050C11660C8261F98AB1B07AC9C97D42D718D865D3E909258CFD00CCE24AC6E326A164D74DC0B4128928FF326038472BA1
311
3128B1252AC747C6BAB984FC68F0B87FE8960A5C09FE86CFB69FBA01504B0304140006080800495ADC409BCF4FD866010000020300000C0000006662782F636F72652E786D6C8D525B6E833010BC8AE57F3076484522E38826ED097A01071C6A056C646C94E37779443455145548607676766607F8E1D6366850AED7D6E498
311
C60946CA94B6D2A6CE71F09728C3E820B8B3D6FF6AC3C8C856E5782C63C16B6743B7944A6BBC321EAAC6566A29CABE571EA3B281438EFBF25BB53296C143477F8D3B595E65AD621A030C7D82F7DE8101348B8C772C2EE71B27735DF01074B5A0BA02357DD1CA61B1D9B26D519C8A68F7C1B2284DB34D94159FA768478F47BA
311
4DDF8F8CEE3819C9827BDDDEDD954E49AF2A2C58425994BC452CFBA2744FB33DDDC1EB3E493819DB1F48A1ABFE490ADAF80D5BECCEB41E0B0A4626E0CFB6109147BD1CC00F119C8C21C2634AF83168080442F6F2DCDCF7B8426950A5B72E05A4B2618506D90405AA099A2E4E6614264F0360B3A773D88B39AF67C00794A606
311
6BD2C3F11CFCA8CE67D5258A4EB968F03764AC6B65B39A9B2DAEF755E829BDB48D75FF61936555B28449C6BF57FC00504B0304140006080800495ADC40143972557E0000009D0000000B0000006662782F636E782E786D6C4DCCD10E82201886E15B61FF398914E101E054E83E5CA263213482D6E5A7CD838EBEEDD9B757B4
311
9FD5A3B74D2F178384FA4400D9708F930B8B849267DC006A954831E6BF1BA030AE56C2CEA0C49262791E34D9792C3E6FEA5D781C6834BF7603379812ADF185DD28EEA9D1B8E948CD0D676736F4502951FD4ADBEE61F505504B0304140006080800495ADC4015329CBD2C01000014020000310000006662782F454437364143
311
37452D323044442D343546322D423245442D3841303137453735333543422F636F72652E786D6C8D51CB6EC32010FC158B537AB00D387E24C24449EC7E417FC00592A2C460F1A8F2F95DD78ED4DE72616198991DEDB2C363BC27DFCA796D4D8B488651A28CB0529B6B8B62B8A40D4A0E9C396BC31F1A4ACC30AA16CD30E2EC
311
EA6C9C564858139409801A2BD50A0EDEAB801271874B8BBCF852E3900D3100C3DFB26910B7E1AA3292C137F038F3C141806469329F88F75D5D1DCF759F52DC75E9B67CA7E989F65DDA1C31A9FBBA2CCAF389E58B90B318B55CE55A421C7DD1CABD6A328B390B7A7CC6174E0D4149C4292634C5554A9B0F42F6A4D9931D3CF7
311
18B37CA6FF13C549BE288ADA8482AE711799479CB07CF9E04CDAF8797F86518FC9BA90CCFD365E8937C47106B18A5D410B962F5418007856DBD5D307EB60C09BDB27B049B918575BCEF27947507E170875DE27FF01504B0304140006080800495ADC40F5297F484C01000033030000300000006662782F4544373641433745
311
2D323044442D343546322D423245442D3841303137453735333543422F636E782E786D6CD593CD6EC23010845FC5F23D3FA60851E418A9873E410FBD3AF60206C78EFC5395B7EF1A0CE5C2A1C75EAC64F6F3CC6A94F0EDF764C9178468BC1B286B7B4AC029AF8DDB0F34A75DB3A6642B78F03E3D60943839C1408B4C05DF07
311
9FE72A69D8C96C13AAD6B8531503449F83828872B949AC57D2A201B826A308D3085A832677109F7610701514C733490720EF6F9FC48F475029F2AEB808DE950CC1CB59931E204A9495310E34AA034CB29539790DF1D46A9964CBDA5BD6939D7E9D48B9708BCCC190123ED0725251376AB147DEE150F09802B657A1749E810A
311
39CFD62899B0E4EE025E19C1B37169B5ACACC1E203D26CF5B25CA2D96526783213544205900934158B9E2D9A7ED52CD61F8C6DD87AC35EF175D3F7BC2BB8E0A3F7B65E421B087E26CABB042E51C17857C6CFEAAB1CD12660D73E9CFF5024165053AFEDDC3DFE733FDDE5FBC6BA02FE05E207504B0304140006080800495ADC
311
40C051E9A7A605000080100000340000006662782F45443736414337452D323044442D343546322D423245442D3841303137453735333543422F6F626A656374732E786D6CAD57DB6EDB3810FD1541FBB2FB60CBB29DC459282A1CDB298C226D51A3C53E1830288952B8A12EA0A8D4D9AFDF43919225D74EBD8BBE5816351C
311
CE9C3973A1F76E9F72EB858A92E5D99DED0E47B645B3308F5896DCD9958C0733DB7AE77B22CF6547CCB63292D23B5B2DDBBE9788BC2ACC524463527179B4FA70FF97558634A3B6157252967776193ED1940C4925F38896CFC38848324CE2FDD01D6AC1BEDA4490E2E948694104CD242CC57A062D9636CAEDBF8E6CC7F71CF5
311
DDF7D4AF919A9C97726A7FFAE7B3AC94240B7F38EC48CDC49D2E57E3ABDBC1D5743A194CAFC7EEE0FEE17E39706F26A3C5F562713B5FDDE2E0520A683296081ADBFE7B602358E839FA93EF552C9393B111310172047D612A52B63FB65CCFD132AD77C6C953E6877996D1B0C60A68D4FE19D5112D681621E68C96B0AC83D0A8
311
FFEA2A1C3B9F27EADD1CD95DBE0C81EE8E8EA2C6F6E6D9B5340FFE860BE5250C1225550CD4581A473557470784833CE7E61B2BAD94482A18E116678120E2D5F621AA447CAFA7463159A86C501ED83EA2A03FF7E98234FA39CF4F5919579C2B1ADB7E9D053BE40A95656D19FB878A83F55D64601362A5D830330EC9D782DAFE
311
ADA6C8EC884D1A482BE62441C8E1A6DA39191F39BA5079BA5EDAFE878760BF51B97BFAF042E4051552D107D46A02D73C154AC626F7A2C8A90DF691290750BE00F98F48F58329889B60FBE97E6A4E918264659C8B14B1B146D660849F91E5D6BFEA7FE79FE7B49BFBD13B872782ADA0FA0578F67DE8C6B203A7EFBD80F0B998
311
18D73621E1281B8F2C03408A2416CFB1843A1C077BDB5FA3CAA12A6317E1BE0B9761EE0BFE7A8E518342519FD47966C0F2A82C5E50A0015BCD4898A1C96F0C3CC4E98772561F6CC4CEC17BF54BE83A5F6E3E6C2A1193903E9A9C5ED298654CA2C51D78D335A88779CFA367FAFA3D17111CFD11EF4D17EFD41C55026D85B902
311
3E696ABA7A399CDC3B20C4BE2457E5C6FBC909704235D68EFE475686947392D1BC6ACE7DB37FA06D688855B22B26B70DE6D058401AFDE52807D1A443C10A0562DBADDAA2393CE3DDD7F5473012F23C0F083F080587D21BE63C17BBE075A7ABD249A4BFF5A96D20709416B0BDCE9126FD0DE6BB88C57155A2069E80F5DB7AD1
311
0D9DAA0AA8108D569D2C53B88FDC22C270B6D18B662D081A699EED18DA26D2EEE4015DFD40D410A05678CEE292F278C738AFD25DCC389AD12E25C51938FEBFFD4195163B92E65526CFE8EE998EE6D0B7BD47DEF23B91E193ED6FEAE7E01EA537A2D121CC3D61D54A4E60D50BED7CB6582C66370F83F1F8F66A309D2CAF07B3
311
F97435588DA7B7EECDEA61B55ADC3471D2CA7DAFE934DD844694D0D9BC4A3013BEAF6BA48FA901B6FF4864B97DAFB3B3797E5D0F310A7B0EF6A05DB61BE7D10BC63E1AFD5CC141F2A4A2755A709AD24C1295428FEA0FFF423066F48CD1EBEB9424F4022D9FDE6F8E9CC1CA05FB3EAB74A7DF8FF69AD5854AC8934AE4539506
311
1961FC6863A2911C165962F06B62D23E759F695ED59B090C06D332E72C42198CAC84E62995288617F42091D212D4EB8EF491B97A5CB0FB450F8892049C36963C11CCC8BC445A805A5528FBEBD66F98E9D4587567A3DB0E9FF1632A856D813377366674C9425A0E03F4673509D5CAC1A5EE208FB99F6409C7A8AD37B5EFED2E
311
854DAF23B722978C4FC62F5DC18D03282305C606CC43884E6D8CEFD5B699EFE17F72BC31C722127F834AB6BE1C165A67EA6390A2DA297359C00CF36C8EDE2351DF76CB1DD6323D442EBA64BD4902AD75208948EA8B82B2CF98345F7E7630A058EB4F56C1AB04B1BC5CD3405090B952090E16811546674124A8BAF873FB59E4
311
B8C8A6D6030305ACDFF7B3EB3FB68B3C4DF34C2F6DE7E63A6C6D9E70B98DB6280E54DD4ACAED78E48EB7F56DC05C50760129E99044E533161059C15AA07BE1072FF595117D487F68E51C158A2386AE9796696C53283574E9D656050EE68E8C5AC82175A35419D31528DEBC1038B5284C1018E5FD7F01504B03041400060800
311
00495ADC40000000000000000000000000350000006662782F45443736414337452D323044442D343546322D423245442D3841303137453735333543422F76657274696365732E62696E504B0304140006080800495ADC40F270F1330600000004000000360000006662782F45443736414337452D323044442D343546322D
311
423245442D3841303137453735333543422F747269616E676C65732E62696E636660600000504B0304140006080000495ADC40000000000000000000000000370000006662782F45443736414337452D323044442D343546322D423245442D3841303137453735333543422F617474726962757465732E62696E504B030414
311
0006080800495ADC40D5987DFC8F00000041010000360000006662782F45443736414337452D323044442D343546322D423245442D3841303137453735333543422F6469726563746F72792E786D6C858F410EC2201045AF4266AF15DDB800BA74E7C21B903225242D6328188F2FA5C4183471359997F9FF81E89FF3C41E18
311
16475E02DF1F80A11FC8386F25A438EECEC07A250251FC3803E6F58C12560C4AD840E95E91C151A72936F496F35732D860FE635F62C8F2DA16B505C545B74125BAA2FA9E05D7CC053D063734D5C7665FD55B6B8D15D5E9BFEAFD8490FFA45E504B0304140006080800495ADC4019E1E259FB000000A00100003B0000006662
311
782F45443736414337452D323044442D343546322D423245442D3841303137453735333543422F7265736F75726365732F636F72652E786D6C8D504B6E833010BD0A9ABD011BA820328E28694FD00B586642AC041BF953F5F835814AEDAE1B8FE77D344F8F9FBF9647F689CE6B6B7AA07909191A65276DE61E62B89216B2B3
311
E0CEDAF04B0699910BF6B0C120F8EC6C5C0F485913D084841A3BE1014AEF3140A61EE9D38357375C642E63480A7FCF57A9EE72C69CE6894E3AC17D702940B61FD95E100EBD8D4EA1E7C5CE0A1EA39E0E8D9ED24D7DD5E840540D6B86E1D291EE8DB5A4AEDB8AB4C3FB8574741C6953BF8E8C76BCD8CC8207BDFC64540E65C0
311
09042B2923E50B61ED07A527DA9E6897D65359F26293FF31C575FAA7296A132A76C4DD6D1E044D419E84E0C5D6571ACF32D3DCBA15DF504B010214000A0000080000495ADC403DEE336E79000000790000001B00000000000000000000000000000000006175746F6465736B2D64657369676E2D7061636B6167652E786D6C
311
504B01021400140006080800495ADC40D486FD9CA0000000F40000001300000000000000000000000000B20000005B436F6E74656E745F54797065735D2E786D6C504B01021400140006080800495ADC40A4288198E90000007C010000080000000000000000000000000083010000636F72652E786D6C504B010214001400
311
06080800495ADC4055019EA25F0000007C000000070000000000000000000000000092020000636E782E786D6C504B01021400140006080800495ADC409BCF4FD866010000020300000C00000000000000000000000000160300006662782F636F72652E786D6C504B01021400140006080800495ADC40143972557E000000
311
9D0000000B00000000000000000000000000A60400006662782F636E782E786D6C504B01021400140006080800495ADC4015329CBD2C0100001402000031000000000000000000000000004D0500006662782F45443736414337452D323044442D343546322D423245442D3841303137453735333543422F636F72652E786D
311
6C504B01021400140006080800495ADC40F5297F484C010000330300003000000000000000000000000000C80600006662782F45443736414337452D323044442D343546322D423245442D3841303137453735333543422F636E782E786D6C504B01021400140006080800495ADC40C051E9A7A60500008010000034000000
311
00000000000000000000620800006662782F45443736414337452D323044442D343546322D423245442D3841303137453735333543422F6F626A656374732E786D6C504B01021400140006080000495ADC4000000000000000000000000035000000000000000000000000005A0E00006662782F45443736414337452D3230
311
44442D343546322D423245442D3841303137453735333543422F76657274696365732E62696E504B01021400140006080800495ADC40F270F13306000000040000003600000000000000000000000000AD0E00006662782F45443736414337452D323044442D343546322D423245442D3841303137453735333543422F7472
311
69616E676C65732E62696E504B01021400140006080000495ADC400000000000000000000000003700000000000000000000000000070F00006662782F45443736414337452D323044442D343546322D423245442D3841303137453735333543422F617474726962757465732E62696E504B01021400140006080800495ADC
311
40D5987DFC8F0000004101000036000000000000000000000000005C0F00006662782F45443736414337452D323044442D343546322D423245442D3841303137453735333543422F6469726563746F72792E786D6C504B01021400140006080800495ADC4019E1E259FB000000A00100003B00000000000000000000000000
311
3F1000006662782F45443736414337452D323044442D343546322D423245442D3841303137453735333543422F7265736F75726365732F636F72652E786D6C504B0506000000000E000E0080040000931100000000
310
504B03040A0000080000495ADC403DEE336E79000000790000001B0000006175746F6465736B2D64657369676E2D7061636B6167652E786D6C3C3F786D6C2076657273696F6E3D22312E302220656E636F64696E673D227574662D3822203F3E3C666F726D6174733E3C666F726D61743E687474703A2F2F736368656D612E
310
6175746F6465736B2E636F6D2F64657369676E2D7061636B6167652F323030393C2F666F726D61743E3C2F666F726D6174733E504B0304140006080800495ADC40D486FD9CA0000000F4000000130000005B436F6E74656E745F54797065735D2E786D6C7D8EC10E82300C865F65E91D8A1E8C310C0EEA1BF002731658846E
310
D98AC1B77784ABF1D8FE5FBFBF75BBCE937A534CCEB38643598122B6FEE978D0B0485F9C41B54DDD7D022595594E1A469170414C76A4D9A4D207E29CF43ECE46F218070CC6BECC4078ACAA135ACF422C856C0E68EA1BF5669944DDD7BCDE7B1F8E415D77AECB980613C2E4AC91FC167A2B244592486606FC29C8FD7F045B9A
310
EF7053A7E60B504B0304140006080800495ADC4017D68E44E70000007C01000008000000636F72652E786D6C8D50416EC32010FC0ADA3BB6C196452D4CD4A4F10BFA0104C44189C13250F5F985C491DA5B4F3B3B3BB3BB1A7EF85EEEE8CB6CC17A3702A91A40C629AFAD9B4748F18219A083E09BF7F1970C90938B19A1D020
310
F8BCF9B4EE94F22E1A1733EBBC363B2943301190BA6730425057B3C84AA69815E156AD52DDE46C2AF242D99C92D5E879C4EABCCF5EACD9407494D0697A67984EE713EEBAE9031F33C4FDF9786ADBB69B58CF785DCC8247BBBCEEABCDC8683408DA108A9B1E53F649C840D840DE723B340DAF8BFC8F29ADFA9FA6645D6CE9FE
310
EED3164090FCC86320785DB2C8E51154AE2537F103504B0304140006080800495ADC4055019EA25F0000007C00000007000000636E782E786D6C4DCB3B0E80201045D1AD90E915ED2CF8AC45050C11660C8261F98AB1B07AC9C97D42D718D865D3E909258CFD00CCE24AC6E326A164D74DC0B4128928FF326038472BA13128
310
B1252AC747C6BAB984FC68F0B87FE8960A5C09FE86CFB69FBA01504B0304140006080800495ADC4067955B6C64010000020300000C0000006662782F636F72652E786D6C8D52ED8E8230107C95A6FFA11488E14CA9393D79827B815A2A478496F483F8F8B77C18CF8B3186A42C3B3BBBB343D9EEDA776854D6B5469798C609
310
464A4B53B7BA2971F0E7A8C068C79935C6FF29C3488B5E95784A63CE1A6BC2B0A6A4D15E690F596D6AB5268573CA63243B084AECE48FEA452C82870A778907212FA251318D01863ACE9CB720002D43A613F3F3E9CAC892E72C84B65ED1B68669EDB95516F33CA569557D16515A1D0F519E575FD11EC26873DC1FB22CCBAB62
310
5330329139F36D7F5327AD125ED598A7094DA36413A5C537A55B5A6CE9077C6E938491A9FC811486FA4D5268B5CFD255EE42739853103203FFB6058B3C7262043D8433329908AFD9E147A3C11030D98B5377DBE302A951496F6C0E486DC21D1A4517144C4DD0FC30B2A0D0796E009B3DED93BEE8F3BA07FC40A11B90263C84
310
A7E0A7E96C99BA5A31281B8DFE8AB4B1BDE8EEE21689F7F33EE8295D9ACED877D8645D95AC6692E9F6F25F504B0304140006080800495ADC4020858FA57D0000009D0000000B0000006662782F636E782E786D6C4DCCD10A83201886E15B91FFDCCAA8A5A0C642771FB12C64A6E13476F9ABD1C18E3E78F87879FF591DDA4D
310
7CDBE00590A20264FC334CD62F02729A3105D44B1E43487F37407E5C8D809341F22586BC5D349979CC2E1DEAAC7F5D78A794B5FA5663A559851BAD18A65DC7B06644D743AB9AE141A094BCFC958E3DC3F20B504B0304140006080800495ADC40B6FA14232901000013020000310000006662782F41383839354536322D4445
310
39302D344544392D383737392D4539314532423544344246312F636F72652E786D6C8D51CB6EC32010FC15C4293DF881E3F81161A24671BFA03F4080A42831583CAA7C7E97DA91DA5B2E2CECCECCCEB2F4F098EEE85B39AFAD1930C94B8C9411566A731D700C97ACC3E8C0A8B336FC816164F8A4069CD298D1ABB3715E53C2
310
9AA04C80ACB152AD49EEBD0A18893B5C06ECC5979A78CE630084BFE53317377E5539C9A10C38467D7060002D4DD289D97BD7F5BBB1A9B2D3D897593D9EFAAC6BDB3E1B7B3256C7DDA93E7E105A2C444663D472A56B0976F4452BF7AA4822331AF4F4B42F9CE24149CCAA925459D96455F749C89E747BD2C3735F96B448F07F
310
A438CB1749519BB0AD56BB0BCD6306D32C0546A58DE7FBD38C7ACCD60594FA6DBC126F989539D86AB7754B8B0509F3836453AF923E5807FFBBB99D01BC5D759B9AD122AD08C2EFFE20A675B21F504B0304140006080800495ADC40938EB05F5401000033030000300000006662782F41383839354536322D444539302D3445
310
44392D383737392D4539314532423544344246312F636E782E786D6CBD93CD6EC32010845F0571F70F4E64B91126520F7D821E7A25B04969305880ABE6EDBB2424CD25874A552FC89E1D66569F6CBEFD9A2CF984108D772365754B0938E5B57187912E695F0D946C050FDEA73B1B254E4E30D22C53C10FC12F739134ECE562
310
13AAD6B863110344BF040511E57C9358AFA4C50070D582224C3BD01A34B919F1690F015741717722E91DC8CBF31BF1BB0F5029F226A708DEE40EC1F3599AEE4C94282B631C6954EF30C95A2EC96B88C75ACB246B565FBB1EECF49344F2856BE5120CC9E523CD271565A31A39F2068782C714905E31A5D30C54C879B646C984
310
909BB3F1E2117C312EF5EBE235083EA07BD5F5C38061E799E0C94C501C2A804CA0A9E85AD6556D5F75C32B631B366CD813BE6EDA9637D92EF8CE7B5B2E610C043F13E55D0297A860BCC9E347F88A8F681390B50FA75F804400A5F542E796F1977C58BF5AAFFF914F73FEBE1157C0BF407C03504B0304140006080800495ADC
310
402B72FB8D62070000991B0000340000006662782F41383839354536322D444539302D344544392D383737392D4539314532423544344246312F6F626A656374732E786D6CED595B73A33614FE2B0C7D691F8C8DEDDC3A844EE2243B9E9DECEEACBB3B7DF00C23834CD408C1482297FEFA1E5DC0404C82BBE9DB3ED880908E
310
CEF9CE5587E08FA78C3A0F980B92B373D7F726AE83599C2784A5E76E29B7A353D7F9230C789ECBC634D76128C3E7AE1A76C320E57959D8A1046F51496567F4E6F22F47C49861D7892912E2DC15F11DCE90874A992758DC7B0992C84BB74F9EEF99896DB22947C55D87688138661238857106541CC394DF7E9CB8E33018ABF7
310
61A0FEEDACD9A059F3FE59632D759B4BC284442C7EC15287CC6C104B337F7E753D3D3A1B1DCDE7B3D1FC78EA8F2E6F2EAF46FEC96CB2385E2CCE2EAECF80BD4D9E532B53820BCC12D0DFB31BFAC158BDA945B708ECE33ACE19C3B10612A0D2627509122C60AB067C93F6A3AF246ABCD612369EE7EABD65A1313C6B53E99B35
310
0C88165D10C46E57495C5D9BF2E59BBF417031C428B9C012B8159283762D3C1CBCC20D27C1D88C86C166A70B229C0C49CC09A20E251B8E382805A6AA296160165832CA3938907294045A73E675DBB6C033DF769D7D5C6E4B4A9567B8A176AC08DC0F4BA13923FF60BEE3BE890CF004D29684C953CBA57C2EB01B9E05633D18
310
06EA329BDA970648674B512A3422E66D47D08572FDE5951B7EBCD93CAD5438D8BF79C1F30273A98C4EE951F305866CAF0A25BBAD3F48736A01086340B52B77A07C05E43F41F4D8B1027AE3E469FE34B77325474C6C739E816E9C89339AC0DFC4F1F5BFBA6FDC05E37A715B7B7D78829B2AA84E7F1CCFB60C1A2BCB7F03CE30
310
780083CFF9CCBE5AC588823DDF120600292371680E4310DAB79B27375C42E084400FAB100D7D1019D87D80DB606CC9ECB452B997F53A0688DA3D66439404B0698B04367AF4F401B20727F14E4D4D11FBE03D7A1773BDB85A7D5C957C8B627C6B7DFA0A6F092312B2E67E865A98B724BAC7CF8F394F40D09778AF9A7867762B
310
01682BCC15F06905827AD8EDDCDA20867569AEC24DF0C60E2084CAD50DFAB744C49852C4705E56FBD6D14D196AEDF1B66670C3A9817836ED9830C70F445515E034BB192D4621EFC79C140A4437FC6024AB83A6D723DDB7E527B0C87A7ECFAC2583D0CB10FD5307AD3D38B42CBB42DA02510BBCD985F338A7398F36CF918974
310
2ED412C046DB5BBEB78842AC374A5254C083B4DF55212535D24609D96E4B0171750F8BDF978BA6394CBC997FE434FF3BCE3887680BBE8BB8F5BBCE1E11C9508AA32D4AFAB66BEE56D3169A640F698EB714E4220F443E4748469304A787407310F1B377A59ED25C08C2B0807CB517FC261A130F0289D166C5B2D26A076822A2
310
0C4B440F414091E90157A71D5DE3C6503ABCCD636DBDAF69AC49F47FB2088EA096CC5944A014851CF226E3BE770431A48DAE41B9832F585B455B8B414B2821E2E7E81193F44E1E82BA21DF837B0C4792524679816230EB01645FF88A526A87F70D8AEF55FE88E292BE9781084CB711A1B4CC22F81106278F21AE5D07A65751
310
681037B14FE20C8A32244B3E6493E3A3C98B7D4CCDD00D818D8DB68442D88E3254F4A0DE0A88BA1E716AF02DF51EA56ECAAC885096976C90A178B3AE3759F25DB52AB203F955A522948D15614B300C08937556AD623698BA0EACE0463A503D4702650535A7B037128F5F7B93A6DCBB01B77EFABE1B6450F8F568AF1951E715
310
0C96C75661201E918CEFDC70A5AFA34BA8BF139CEC527D556B362B40404C45F29213ABA26F4B286F6C8DE686B7488AF5079375ABEBB7A507DD8F600C6BA076A9172E15D0196612A9CAE456DDD0AF0842708B86195FAA9C7A08958B24D15523A237A44F9DAD32A2B56946BCE20EB33C831F5B1316D332C16B9488FBE856D268
310
4514EB564A2F2315C6AF0AF8F9C3AA030F8C0C10E98B2AF0F06367AD1D5DA872692F117957661B860804C19668A9D18D57B0D46AA4D2727D55670AA8BBC0C0AC8AE73F4F16CD76C4CF93456A0DE3C74E1634DF20BA8B368D6C1E2BB33EE81450A72745E53D4E01BAEB5053AD9388C9E5567CEB4B11C4C42AC80F2EC6AA9861
310
08F671FC9F93765F1234DB75F83F2C69FB2F0A8E83924A6BB26A52ED295C97CD147671BA582C4E4F6E46D3E9D9D1683EBB3A1E9D5ECCAF47D7D3F9997F727D737DBD38A9D1D47E1A06752CD3A90B9E4D4CAB86D593C5009AB222A72481C37CE2A41842BE8423FD80EE39CFB080DCD9EC7527B6273F60F58369734AB4A1B8E2
310
E40E417F980AC8EA805119CBF6B8F30B7426259CB3CF5DE81979F7F067ADD27520F19CBBD0299024C6C2DB409749F5F33471C8B83AF55B62800F62A9CA886651FD5CAF52D8B4A27F3D654816B072B55A1850B715D0FC6A3528346F96A7F820C12B761C24E176534A28D68C2CBB815A18BDCD4EFD46364AD8BDDDFA095CF775
310
B17C4FCF692132E88BC1AB4660A88E24E2A96E772BC62C4B17575FC6D06673969F9D829629E87238A511C760CCA5AAA7C08AC02A2CCD024930D5C5EFEB2F3C872F3C99A38B22E7D7A7D3E3DFD68B3CCB726686D61770284BE03B91B3BA83AF3EC91A6A07AC7AEB623D9DF8D3B5EE69DB367BB441027BAA288281AA96508274
310
4C0EECF2457FCA762FC74A159DE9CB2BC70651E805183B7AD1E235DFB81CF021F53545798CF6F34ADA57DBDA633D156C8243433AFC17504B0304140006080000495ADC40000000000000000000000000350000006662782F41383839354536322D444539302D344544392D383737392D4539314532423544344246312F7665
310
7274696365732E62696E504B0304140006080800495ADC40F270F1330600000004000000360000006662782F41383839354536322D444539302D344544392D383737392D4539314532423544344246312F747269616E676C65732E62696E636660600000504B0304140006080000495ADC4000000000000000000000000037
310
0000006662782F41383839354536322D444539302D344544392D383737392D4539314532423544344246312F617474726962757465732E62696E504B0304140006080800495ADC40D5987DFC8F00000041010000360000006662782F41383839354536322D444539302D344544392D383737392D4539314532423544344246
310
312F6469726563746F72792E786D6C858F410EC2201045AF4266AF15DDB800BA74E7C21B903225242D6328188F2FA5C4183471359997F9FF81E89FF3C41E1816475E02DF1F80A11FC8386F25A438EECEC07A250251FC3803E6F58C12560C4AD840E95E91C151A72936F496F35732D860FE635F62C8F2DA16B505C545B74125
310
BAA2FA9E05D7CC053D063734D5C7665FD55B6B8D15D5E9BFEAFD8490FFA45E504B0304140006080800495ADC40E7B71A34FB000000A00100003B0000006662782F41383839354536322D444539302D344544392D383737392D4539314532423544344246312F7265736F75726365732F636F72652E786D6C8D504B6E833010
310
BD0A9ABD011B4469641C356938412F60D9136225D8C89FAAC7AF09546A77DD78C6EFA3797AFCF8353F8A4FF4C1383B002D6B28D02AA78D9D0648F14A7A288E827BE7E22F191456CE38C00A83E0937769D921E56C441B336A9DC61D94216084423DF2324050379C652953CC8A702F17A9EE72C2929699CE3AC143F43940B11D
310
595F101E834B5E61E0D5C60A9E92D1BBC6E87CD35C0D7A102DA36C1CDF5E081B2F67D2B6E33B39E5957497D3B9699A76ECBB9E57AB59F068E69F8CCAA38CA841B09A32527784F51F941E687FA0AFF97BA86B5EADF23FA6B4E87F9A92B1B1617BDCCD1640D01CE449085EAD7DE5F12C33CFB55BF10D504B010214000A000008
310
0000495ADC403DEE336E79000000790000001B00000000000000000000000000000000006175746F6465736B2D64657369676E2D7061636B6167652E786D6C504B01021400140006080800495ADC40D486FD9CA0000000F40000001300000000000000000000000000B20000005B436F6E74656E745F54797065735D2E786D
310
6C504B01021400140006080800495ADC4017D68E44E70000007C010000080000000000000000000000000083010000636F72652E786D6C504B01021400140006080800495ADC4055019EA25F0000007C000000070000000000000000000000000090020000636E782E786D6C504B01021400140006080800495ADC4067955B
310
6C64010000020300000C00000000000000000000000000140300006662782F636F72652E786D6C504B01021400140006080800495ADC4020858FA57D0000009D0000000B00000000000000000000000000A20400006662782F636E782E786D6C504B01021400140006080800495ADC40B6FA14232901000013020000310000
310
0000000000000000000000480500006662782F41383839354536322D444539302D344544392D383737392D4539314532423544344246312F636F72652E786D6C504B01021400140006080800495ADC40938EB05F54010000330300003000000000000000000000000000C00600006662782F41383839354536322D44453930
310
2D344544392D383737392D4539314532423544344246312F636E782E786D6C504B01021400140006080800495ADC402B72FB8D62070000991B00003400000000000000000000000000620800006662782F41383839354536322D444539302D344544392D383737392D4539314532423544344246312F6F626A656374732E78
310
6D6C504B01021400140006080000495ADC400000000000000000000000003500000000000000000000000000161000006662782F41383839354536322D444539302D344544392D383737392D4539314532423544344246312F76657274696365732E62696E504B01021400140006080800495ADC40F270F133060000000400
310
00003600000000000000000000000000691000006662782F41383839354536322D444539302D344544392D383737392D4539314532423544344246312F747269616E676C65732E62696E504B01021400140006080000495ADC400000000000000000000000003700000000000000000000000000C31000006662782F413838
310
39354536322D444539302D344544392D383737392D4539314532423544344246312F617474726962757465732E62696E504B01021400140006080800495ADC40D5987DFC8F000000410100003600000000000000000000000000181100006662782F41383839354536322D444539302D344544392D383737392D4539314532
310
423544344246312F6469726563746F72792E786D6C504B01021400140006080800495ADC40E7B71A34FB000000A00100003B00000000000000000000000000FB1100006662782F41383839354536322D444539302D344544392D383737392D4539314532423544344246312F7265736F75726365732F636F72652E786D6C50
310
4B0506000000000E000E00800400004F1300000000
  0
XRECORD
  5
27
102
{ACAD_REACTORS
330
22
102
}
330
22
100
AcDbXrecord
280
     1
270
     1
271
     1
  0
XRECORD
  5
26
102
{ACAD_REACTORS
330
22
102
}
330
22
100
AcDbXrecord
280
     1
270
     1
271
     1
  0
XRECORD
  5
28
102
{ACAD_REACTORS
330
22
102
}
330
22
100
AcDbXrecord
280
     1
270
     1
271
     1
  0
XRECORD
  5
25
102
{ACAD_REACTORS
330
22
102
}
330
22
100
AcDbXrecord
280
     1
270
     1
271
     1
  0
XRECORD
  5
884
102
{ACAD_REACTORS
330
883
102
}
330
883
100
AcDbXrecord
280
     1
102
ACAD_ROUNDTRIP_2012_MLEADER_STYLE
298
     1
  0
CELLSTYLEMAP
  5
882
102
{ACAD_REACTORS
330
881
102
}
330
881
100
AcDbCellStyleMap
 90
        3
300
CELLSTYLE
  1
TABLEFORMAT_BEGIN
 90
        5
170
     1
 91
        0
 92
    32768
 62
   257
 93
        1
300
CONTENTFORMAT
  1
CONTENTFORMAT_BEGIN
 90
        0
 91
        0
 92
      512
 93
        0
300

 40
0.0
140
1.0
 94
        5
 62
     0
340
55
144
0.25
309
CONTENTFORMAT_END
171
     0
 94
        0
309
TABLEFORMAT_END
  1
CELLSTYLE_BEGIN
 90
        1
 91
        1
300
_TITLE
309
CELLSTYLE_END
300
CELLSTYLE
  1
TABLEFORMAT_BEGIN
 90
        5
170
     1
 91
        0
 92
        0
 62
   257
 93
        1
300
CONTENTFORMAT
  1
CONTENTFORMAT_BEGIN
 90
        0
 91
        0
 92
      512
 93
        0
300

 40
0.0
140
1.0
 94
        5
 62
     0
340
55
144
0.18
309
CONTENTFORMAT_END
171
     0
 94
        0
309
TABLEFORMAT_END
  1
CELLSTYLE_BEGIN
 90
        2
 91
        1
300
_HEADER
309
CELLSTYLE_END
300
CELLSTYLE
  1
TABLEFORMAT_BEGIN
 90
        5
170
     1
 91
        0
 92
        0
 62
   257
 93
        1
300
CONTENTFORMAT
  1
CONTENTFORMAT_BEGIN
 90
        0
 91
        0
 92
      512
 93
        0
300

 40
0.0
140
1.0
 94
        2
 62
     0
340
55
144
0.18
309
CONTENTFORMAT_END
171
     0
 94
        0
309
TABLEFORMAT_END
  1
CELLSTYLE_BEGIN
 90
        3
 91
        2
300
_DATA
309
CELLSTYLE_END
  0
ENDSEC
  0
EOF
