  0
SECTION
  2
HEADER
  9
$ACADVER
  1
AC1015
  9
$ACADMAINTVER
 70
    18
  9
$DWGCODEPAGE
  3
ANSI_1252
  9
$INSBASE
 10
0.0
 20
0.0
 30
0.0
  9
$EXTMIN
 10
0.0
 20
0.0
 30
0.0
  9
$EXTMAX
 10
24.28571428571429
 20
15.71428571428571
 30
0.0
  9
$LIMMIN
 10
0.0
 20
0.0
  9
$LIMMAX
 10
24.28571428571429
 20
15.71428571428571
  9
$ORTHOMODE
 70
     0
  9
$REGENMODE
 70
     1
  9
$FILLMODE
 70
     1
  9
$QTEXTMODE
 70
     0
  9
$MIRRTEXT
 70
     0
  9
$LTSCALE
 40
1.428571428571428
  9
$ATTMODE
 70
     1
  9
$TEXTSIZE
 40
0.2
  9
$TRACEWID
 40
0.05
  9
$TEXTSTYLE
  7
Standard
  9
$CLAYER
  8
0
  9
$CELTYPE
  6
ByLayer
  9
$CECOLOR
 62
   256
  9
$CELTSCALE
 40
1.0
  9
$DISPSILH
 70
     0
  9
$DIMSCALE
 40
1.0
  9
$DIMASZ
 40
0.0708661417322835
  9
$DIMEXO
 40
0.0625
  9
$DIMDLI
 40
0.38
  9
$DIMRND
 40
0.0
  9
$DIMDLE
 40
0.0
  9
$DIMEXE
 40
0.18
  9
$DIMTP
 40
0.0
  9
$DIMTM
 40
0.0
  9
$DIMTXT
 40
0.0708661417322835
  9
$DIMCEN
 40
0.09
  9
$DIMTSZ
 40
0.0
  9
$DIMTOL
 70
     0
  9
$DIMLIM
 70
     0
  9
$DIMTIH
 70
     1
  9
$DIMTOH
 70
     1
  9
$DIMSE1
 70
     0
  9
$DIMSE2
 70
     0
  9
$DIMTAD
 70
     0
  9
$DIMZIN
 70
     0
  9
$DIMBLK
  1

  9
$DIMASO
 70
     1
  9
$DIMSHO
 70
     1
  9
$DIMPOST
  1

  9
$DIMAPOST
  1

  9
$DIMALT
 70
     0
  9
$DIMALTD
 70
     2
  9
$DIMALTF
 40
25.4
  9
$DIMLFAC
 40
1.0
  9
$DIMTOFL
 70
     0
  9
$DIMTVP
 40
0.0
  9
$DIMTIX
 70
     0
  9
$DIMSOXD
 70
     0
  9
$DIMSAH
 70
     0
  9
$DIMBLK1
  1

  9
$DIMBLK2
  1

  9
$DIMSTYLE
  2
STANDARD
  9
$DIMCLRD
 70
     0
  9
$DIMCLRE
 70
     0
  9
$DIMCLRT
 70
     0
  9
$DIMTFAC
 40
1.0
  9
$DIMGAP
 40
0.09
  9
$DIMJUST
 70
     0
  9
$DIMSD1
 70
     0
  9
$DIMSD2
 70
     0
  9
$DIMTOLJ
 70
     1
  9
$DIMTZIN
 70
     0
  9
$DIMALTZ
 70
     0
  9
$DIMALTTZ
 70
     0
  9
$DIMUPT
 70
     0
  9
$DIMDEC
 70
     4
  9
$DIMTDEC
 70
     4
  9
$DIMALTU
 70
     2
  9
$DIMALTTD
 70
     2
  9
$DIMTXSTY
  7
Standard
  9
$DIMAUNIT
 70
     0
  9
$DIMADEC
 70
     0
  9
$DIMALTRND
 40
0.0
  9
$DIMAZIN
 70
     0
  9
$DIMDSEP
 70
    46
  9
$DIMATFIT
 70
     3
  9
$DIMFRAC
 70
     0
  9
$DIMLDRBLK
  1

  9
$DIMLUNIT
 70
     2
  9
$DIMLWD
 70
    -2
  9
$DIMLWE
 70
    -2
  9
$DIMTMOVE
 70
     0
  9
$LUNITS
 70
     2
  9
$LUPREC
 70
     4
  9
$SKETCHINC
 40
0.1
  9
$FILLETRAD
 40
0.0
  9
$AUNITS
 70
     0
  9
$AUPREC
 70
     0
  9
$MENU
  1
.
  9
$ELEVATION
 40
0.0
  9
$PELEVATION
 40
0.0
  9
$THICKNESS
 40
0.0
  9
$LIMCHECK
 70
     0
  9
$CHAMFERA
 40
0.0
  9
$CHAMFERB
 40
0.0
  9
$CHAMFERC
 40
0.0
  9
$CHAMFERD
 40
0.0
  9
$SKPOLY
 70
     0
  9
$TDCREATE
 40
2455952.419476898
  9
$TDUCREATE
 40
2455952.669476898
  9
$TDUPDATE
 40
2455952.419476898
  9
$TDUUPDATE
 40
2455952.669476898
  9
$TDINDWG
 40
0.0000435880
  9
$TDUSRTIMER
 40
0.0000435880
  9
$USRTIMER
 70
     1
  9
$ANGBASE
 50
0.0
  9
$ANGDIR
 70
     0
  9
$PDMODE
 70
     0
  9
$PDSIZE
 40
0.0
  9
$PLINEWID
 40
0.0
  9
$SPLFRAME
 70
     0
  9
$SPLINETYPE
 70
     6
  9
$SPLINESEGS
 70
     8
  9
$HANDSEED
  5
8E9
  9
$SURFTAB1
 70
     6
  9
$SURFTAB2
 70
     6
  9
$SURFTYPE
 70
     6
  9
$SURFU
 70
     6
  9
$SURFV
 70
     6
  9
$UCSBASE
  2

  9
$UCSNAME
  2

  9
$UCSORG
 10
0.0
 20
0.0
 30
0.0
  9
$UCSXDIR
 10
1.0
 20
0.0
 30
0.0
  9
$UCSYDIR
 10
0.0
 20
1.0
 30
0.0
  9
$UCSORTHOREF
  2

  9
$UCSORTHOVIEW
 70
     0
  9
$UCSORGTOP
 10
0.0
 20
0.0
 30
0.0
  9
$UCSORGBOTTOM
 10
0.0
 20
0.0
 30
0.0
  9
$UCSORGLEFT
 10
0.0
 20
0.0
 30
0.0
  9
$UCSORGRIGHT
 10
0.0
 20
0.0
 30
0.0
  9
$UCSORGFRONT
 10
0.0
 20
0.0
 30
0.0
  9
$UCSORGBACK
 10
0.0
 20
0.0
 30
0.0
  9
$PUCSBASE
  2

  9
$PUCSNAME
  2

  9
$PUCSORG
 10
0.0
 20
0.0
 30
0.0
  9
$PUCSXDIR
 10
1.0
 20
0.0
 30
0.0
  9
$PUCSYDIR
 10
0.0
 20
1.0
 30
0.0
  9
$PUCSORTHOREF
  2

  9
$PUCSORTHOVIEW
 70
     0
  9
$PUCSORGTOP
 10
0.0
 20
0.0
 30
0.0
  9
$PUCSORGBOTTOM
 10
0.0
 20
0.0
 30
0.0
  9
$PUCSORGLEFT
 10
0.0
 20
0.0
 30
0.0
  9
$PUCSORGRIGHT
 10
0.0
 20
0.0
 30
0.0
  9
$PUCSORGFRONT
 10
0.0
 20
0.0
 30
0.0
  9
$PUCSORGBACK
 10
0.0
 20
0.0
 30
0.0
  9
$USERI1
 70
     0
  9
$USERI2
 70
     0
  9
$USERI3
 70
     0
  9
$USERI4
 70
     0
  9
$USERI5
 70
     0
  9
$USERR1
 40
0.0
  9
$USERR2
 40
0.0
  9
$USERR3
 40
0.0
  9
$USERR4
 40
0.0
  9
$USERR5
 40
0.0
  9
$WORLDVIEW
 70
     1
  9
$SHADEDGE
 70
     3
  9
$SHADEDIF
 70
    70
  9
$TILEMODE
 70
     1
  9
$MAXACTVP
 70
    64
  9
$PINSBASE
 10
0.0
 20
0.0
 30
0.0
  9
$PLIMCHECK
 70
     0
  9
$PEXTMIN
 10
0.0
 20
0.0
 30
0.0
  9
$PEXTMAX
 10
24.28571428571429
 20
15.71428571428571
 30
0.0
  9
$PLIMMIN
 10
0.0
 20
0.0
  9
$PLIMMAX
 10
24.28571428571429
 20
15.71428571428571
  9
$UNITMODE
 70
     0
  9
$VISRETAIN
 70
     1
  9
$PLINEGEN
 70
     0
  9
$PSLTSCALE
 70
     1
  9
$TREEDEPTH
 70
  3020
  9
$CMLSTYLE
  2
Standard
  9
$CMLJUST
 70
     0
  9
$CMLSCALE
 40
1.0
  9
$PROXYGRAPHICS
 70
     1
  9
$MEASUREMENT
 70
     0
  9
$CELWEIGHT
370
    -1
  9
$ENDCAPS
280
     0
  9
$JOINSTYLE
280
     0
  9
$LWDISPLAY
290
     0
  9
$INSUNITS
 70
     1
  9
$HYPERLINKBASE
  1

  9
$STYLESHEET
  1

  9
$XEDIT
290
     1
  9
$CEPSNTYPE
380
     0
  9
$PSTYLEMODE
290
     1
  9
$FINGERPRINTGUID
  2
{66E72BD7-1C2A-4485-969B-7FD9A42901CF}
  9
$VERSIONGUID
  2
{545F24F8-52CC-4BEB-85A5-FAB6A44D7FEC}
  9
$EXTNAMES
290
     1
  9
$PSVPSCALE
 40
0.0
  9
$OLESTARTUP
290
     0
  0
ENDSEC
  0
SECTION
  2
CLASSES
  0
CLASS
  1
ACDBDICTIONARYWDFLT
  2
AcDbDictionaryWithDefault
  3
ObjectDBX Classes
 90
        0
280
     0
281
     0
  0
CLASS
  1
MATERIAL
  2
AcDbMaterial
  3
ObjectDBX Classes
 90
     1153
280
     0
281
     0
  0
CLASS
  1
VISUALSTYLE
  2
AcDbVisualStyle
  3
ObjectDBX Classes
 90
     4095
280
     0
281
     0
  0
CLASS
  1
SCALE
  2
AcDbScale
  3
ObjectDBX Classes
 90
     1153
280
     0
281
     0
  0
CLASS
  1
TABLESTYLE
  2
AcDbTableStyle
  3
ObjectDBX Classes
 90
     4095
280
     0
281
     0
  0
CLASS
  1
MLEADERSTYLE
  2
AcDbMLeaderStyle
  3
ACDB_MLEADERSTYLE_CLASS
 90
     4095
280
     0
281
     0
  0
CLASS
  1
DICTIONARYVAR
  2
AcDbDictionaryVar
  3
ObjectDBX Classes
 90
        0
280
     0
281
     0
  0
CLASS
  1
CELLSTYLEMAP
  2
AcDbCellStyleMap
  3
ObjectDBX Classes
 90
     1152
280
     0
281
     0
  0
CLASS
  1
ACDBPLACEHOLDER
  2
AcDbPlaceHolder
  3
ObjectDBX Classes
 90
        0
280
     0
281
     0
  0
CLASS
  1
LAYOUT
  2
AcDbLayout
  3
ObjectDBX Classes
 90
        0
280
     0
281
     0
  0
ENDSEC
  0
SECTION
  2
TABLES
  0
TABLE
  2
VPORT
  5
8
330
0
100
AcDbSymbolTable
 70
     1
  0
VPORT
  5
57
330
8
100
AcDbSymbolTableRecord
100
AcDbViewportTableRecord
  2
*Active
 70
     0
 10
0.0
 20
0.0
 11
1.0
 21
1.0
 12
12.14285714285714
 22
7.857142857142857
 13
0.0
 23
0.0
 14
1.0
 24
1.0
 15
0.0
 25
0.0
 16
0.0
 26
0.0
 36
1.0
 17
0.0
 27
0.0
 37
0.0
 40
15.71428571428571
 41
1.545454545454545
 42
50.0
 43
0.0
 44
0.0
 50
0.0
 51
0.0
 71
     0
 72
   100
 73
     1
 74
     1
 75
     0
 76
     0
 77
     0
 78
     0
281
     0
 65
     1
110
0.0
120
0.0
130
0.0
111
1.0
121
0.0
131
0.0
112
0.0
122
1.0
132
0.0
 79
     0
146
0.0
  0
ENDTAB
  0
TABLE
  2
LTYPE
  5
5
330
0
100
AcDbSymbolTable
 70
    59
  0
LTYPE
  5
5B
330
5
100
AcDbSymbolTableRecord
100
AcDbLinetypeTableRecord
  2
ByBlock
 70
     0
  3

 72
    65
 73
     0
 40
0.0
  0
LTYPE
  5
5C
330
5
100
AcDbSymbolTableRecord
100
AcDbLinetypeTableRecord
  2
ByLayer
 70
     0
  3

 72
    65
 73
     0
 40
0.0
  0
LTYPE
  5
5D
330
5
100
AcDbSymbolTableRecord
100
AcDbLinetypeTableRecord
  2
Continuous
 70
     0
  3
Solid line
 72
    65
 73
     0
 40
0.0
  0
LTYPE
  5
7C
330
5
100
AcDbSymbolTableRecord
100
AcDbLinetypeTableRecord
  2
BY_STANDARD
 70
     0
  3
By Standard ____________    ____    ____   _
 72
    65
 73
     6
 40
1.240299999999999
 49
0.6614
 74
     0
 49
-0.0827
 74
     0
 49
0.1654
 74
     0
 49
-0.0827
 74
     0
 49
0.1654
 74
     0
 49
-0.0827
 74
     0
  0
LTYPE
  5
7D
330
5
100
AcDbSymbolTableRecord
100
AcDbLinetypeTableRecord
  2
CHAIN
 70
     0
  3
Chain ____ _ ____ _ ____ _ ____ _ ____ _ ____
 72
    65
 73
     4
 40
0.7087
 49
0.4724000000000001
 74
     0
 49
-0.0591
 74
     0
 49
0.1181
 74
     0
 49
-0.0591
 74
     0
  0
LTYPE
  5
7E
330
5
100
AcDbSymbolTableRecord
100
AcDbLinetypeTableRecord
  2
DASH_DOT
 70
     0
  3
Dash dot __ . __ . __ . __ . __ . __ . __ . __
 72
    65
 73
     4
 40
0.37
 49
0.24
 74
     0
 49
-0.06
 74
     0
 49
0.01
 74
     0
 49
-0.06
 74
     0
  0
LTYPE
  5
7F
330
5
100
AcDbSymbolTableRecord
100
AcDbLinetypeTableRecord
  2
DOUBLE_DASH_DOT
 70
     0
  3
Double-Dash Dot __ __ . __ __ . __ __ . __ _
 72
    65
 73
     6
 40
0.4398
 49
0.24
 74
     0
 49
-0.06
 74
     0
 49
0.0098
 74
     0
 49
-0.06
 74
     0
 49
0.01
 74
     0
 49
-0.06
 74
     0
  0
LTYPE
  5
80
330
5
100
AcDbSymbolTableRecord
100
AcDbLinetypeTableRecord
  2
DASH_TRIPLE_DOT
 70
     0
  3
Dash Triple-Dot _ . . . _ . . . _ . . . _
 72
    65
 73
     8
 40
0.51
 49
0.24
 74
     0
 49
-0.06
 74
     0
 49
0.01
 74
     0
 49
-0.06
 74
     0
 49
0.01
 74
     0
 49
-0.06
 74
     0
 49
0.01
 74
     0
 49
-0.06
 74
     0
  0
LTYPE
  5
81
330
5
100
AcDbSymbolTableRecord
100
AcDbLinetypeTableRecord
  2
DASHED
 70
     0
  3
Dashed __ __ __ __ __ __ __ __ __ __ __ __ __ _
 72
    65
 73
     2
 40
0.2067
 49
0.1654
 74
     0
 49
-0.0413
 74
     0
  0
LTYPE
  5
82
330
5
100
AcDbSymbolTableRecord
100
AcDbLinetypeTableRecord
  2
DASH_DOUBLE_DOT
 70
     0
  3
Dash Double-Dot __ . . __ . . __ . . __ . .
 72
    65
 73
     6
 40
0.4398
 49
0.24
 74
     0
 49
-0.06
 74
     0
 49
0.0098
 74
     0
 49
-0.06
 74
     0
 49
0.01
 74
     0
 49
-0.06
 74
     0
  0
LTYPE
  5
83
330
5
100
AcDbSymbolTableRecord
100
AcDbLinetypeTableRecord
  2
DASHED_SPACE
 70
     0
  3
Dashed Space __ __ __ __ __ __ __ __ __ __ __ _
 72
    65
 73
     2
 40
0.2067
 49
0.1654
 74
     0
 49
-0.0413
 74
     0
  0
LTYPE
  5
84
330
5
100
AcDbSymbolTableRecord
100
AcDbLinetypeTableRecord
  2
DOTTED
 70
     0
  3
Dotted . . . . . . . . . . . . . . . . . . . . 
 72
    65
 73
     2
 40
0.0482
 49
0.0069
 74
     0
 49
-0.0413
 74
     0
  0
LTYPE
  5
85
330
5
100
AcDbSymbolTableRecord
100
AcDbLinetypeTableRecord
  2
DOUBLE_DASH_CHAIN
 70
     0
  3
Double-Dash Chain ______  __  __  ______  __  _
 72
    65
 73
     6
 40
1.240299999999999
 49
0.6614
 74
     0
 49
-0.0827
 74
     0
 49
0.1654
 74
     0
 49
-0.0827
 74
     0
 49
0.1654
 74
     0
 49
-0.0827
 74
     0
  0
LTYPE
  5
87
330
5
100
AcDbSymbolTableRecord
100
AcDbLinetypeTableRecord
  2
DOUBLE_DASH_DOUBLE_DOT
 70
     0
  3
Double-Dash Double-dot _ _ . . _ _ . . _
 72
    65
 73
     8
 40
0.7400000000000001
 49
0.24
 74
     0
 49
-0.06
 74
     0
 49
0.24
 74
     0
 49
-0.06
 74
     0
 49
0.01
 74
     0
 49
-0.06
 74
     0
 49
0.01
 74
     0
 49
-0.06
 74
     0
  0
LTYPE
  5
88
330
5
100
AcDbSymbolTableRecord
100
AcDbLinetypeTableRecord
  2
DOUBLE_DASH_TRIPLE_DOT
 70
     0
  3
Double Dash Triple Dot __ __ . . . __ __ . .
 72
    65
 73
    10
 40
0.8100000000000001
 49
0.24
 74
     0
 49
-0.06
 74
     0
 49
0.24
 74
     0
 49
-0.06
 74
     0
 49
0.01
 74
     0
 49
-0.06
 74
     0
 49
0.01
 74
     0
 49
-0.06
 74
     0
 49
0.01
 74
     0
 49
-0.06
 74
     0
  0
LTYPE
  5
89
330
5
100
AcDbSymbolTableRecord
100
AcDbLinetypeTableRecord
  2
LONG_DASH_DOTTED
 70
     0
  3
Long Dash Dotted ____ . ____ . ____ . ____ . _
 72
    65
 73
     4
 40
0.3543
 49
0.2362
 74
     0
 49
-0.0295
 74
     0
 49
0.0591
 74
     0
 49
-0.0295
 74
     0
  0
LTYPE
  5
8A
330
5
100
AcDbSymbolTableRecord
100
AcDbLinetypeTableRecord
  2
LONG_DASH_DOUBLE_DOT
 70
     0
  3
Long Dash Double Dot ________  .  .  ________  
 72
    65
 73
     6
 40
0.6799999999999999
 49
0.48
 74
     0
 49
-0.06
 74
     0
 49
0.01
 74
     0
 49
-0.06
 74
     0
 49
0.01
 74
     0
 49
-0.06
 74
     0
  0
LTYPE
  5
8B
330
5
100
AcDbSymbolTableRecord
100
AcDbLinetypeTableRecord
  2
LONG_DASH_TRIPLE_DOT
 70
     0
  3
Long Dash Triple Dot ____ ... ____ ... ____
 72
    65
 73
     8
 40
0.3689
 49
0.2362
 74
     0
 49
-0.0295
 74
     0
 49
0.0049
 74
     0
 49
-0.0295
 74
     0
 49
0.0049
 74
     0
 49
-0.0295
 74
     0
 49
0.0049
 74
     0
 49
-0.0295
 74
     0
  0
LTYPE
  5
8C
330
5
100
AcDbSymbolTableRecord
100
AcDbLinetypeTableRecord
  2
BORDER
 70
     0
  3
Border __ __ . __ __ . __ __ . __ __ . __ __ .
 72
    65
 73
     6
 40
1.75
 49
0.5
 74
     0
 49
-0.25
 74
     0
 49
0.5
 74
     0
 49
-0.25
 74
     0
 49
0.0
 74
     0
 49
-0.25
 74
     0
  0
LTYPE
  5
8D
330
5
100
AcDbSymbolTableRecord
100
AcDbLinetypeTableRecord
  2
BORDER2
 70
     0
  3
Border (.5x) __.__.__.__.__.__.__.__.__.__.__.
 72
    65
 73
     6
 40
0.875
 49
0.25
 74
     0
 49
-0.125
 74
     0
 49
0.25
 74
     0
 49
-0.125
 74
     0
 49
0.0
 74
     0
 49
-0.125
 74
     0
  0
LTYPE
  5
8E
330
5
100
AcDbSymbolTableRecord
100
AcDbLinetypeTableRecord
  2
BORDERX2
 70
     0
  3
Border (2x) ____  ____  .  ____  ____  .  ___
 72
    65
 73
     6
 40
3.5
 49
1.0
 74
     0
 49
-0.5
 74
     0
 49
1.0
 74
     0
 49
-0.5
 74
     0
 49
0.0
 74
     0
 49
-0.5
 74
     0
  0
LTYPE
  5
8F
330
5
100
AcDbSymbolTableRecord
100
AcDbLinetypeTableRecord
  2
CENTER
 70
     0
  3
Center ____ _ ____ _ ____ _ ____ _ ____ _ ____
 72
    65
 73
     4
 40
2.0
 49
1.25
 74
     0
 49
-0.25
 74
     0
 49
0.25
 74
     0
 49
-0.25
 74
     0
  0
LTYPE
  5
90
330
5
100
AcDbSymbolTableRecord
100
AcDbLinetypeTableRecord
  2
CENTER2
 70
     0
  3
Center (.5x) ___ _ ___ _ ___ _ ___ _ ___ _ ___
 72
    65
 73
     4
 40
1.125
 49
0.75
 74
     0
 49
-0.125
 74
     0
 49
0.125
 74
     0
 49
-0.125
 74
     0
  0
LTYPE
  5
91
330
5
100
AcDbSymbolTableRecord
100
AcDbLinetypeTableRecord
  2
CENTERX2
 70
     0
  3
Center (2x) ________  __  ________  __  _____
 72
    65
 73
     4
 40
4.0
 49
2.5
 74
     0
 49
-0.5
 74
     0
 49
0.5
 74
     0
 49
-0.5
 74
     0
  0
LTYPE
  5
92
330
5
100
AcDbSymbolTableRecord
100
AcDbLinetypeTableRecord
  2
DASHDOT2
 70
     0
  3
Dash dot (.5x) _._._._._._._._._._._._._._._.
 72
    65
 73
     4
 40
0.5
 49
0.25
 74
     0
 49
-0.125
 74
     0
 49
0.0
 74
     0
 49
-0.125
 74
     0
  0
LTYPE
  5
93
330
5
100
AcDbSymbolTableRecord
100
AcDbLinetypeTableRecord
  2
DASHDOTX2
 70
     0
  3
Dash dot (2x) ____  .  ____  .  ____  .  ___
 72
    65
 73
     4
 40
2.0
 49
1.0
 74
     0
 49
-0.5
 74
     0
 49
0.0
 74
     0
 49
-0.5
 74
     0
  0
LTYPE
  5
95
330
5
100
AcDbSymbolTableRecord
100
AcDbLinetypeTableRecord
  2
DASHED2
 70
     0
  3
Dashed (.5x) _ _ _ _ _ _ _ _ _ _ _ _ _ _ _ _ _
 72
    65
 73
     2
 40
0.375
 49
0.25
 74
     0
 49
-0.125
 74
     0
  0
LTYPE
  5
96
330
5
100
AcDbSymbolTableRecord
100
AcDbLinetypeTableRecord
  2
DASHEDX2
 70
     0
  3
Dashed (2x) ____  ____  ____  ____  ____  ___
 72
    65
 73
     2
 40
1.5
 49
1.0
 74
     0
 49
-0.5
 74
     0
  0
LTYPE
  5
97
330
5
100
AcDbSymbolTableRecord
100
AcDbLinetypeTableRecord
  2
DIVIDE
 70
     0
  3
Divide ____ . . ____ . . ____ . . ____ . . ____
 72
    65
 73
     6
 40
1.25
 49
0.5
 74
     0
 49
-0.25
 74
     0
 49
0.0
 74
     0
 49
-0.25
 74
     0
 49
0.0
 74
     0
 49
-0.25
 74
     0
  0
LTYPE
  5
98
330
5
100
AcDbSymbolTableRecord
100
AcDbLinetypeTableRecord
  2
DIVIDE2
 70
     0
  3
Divide (.5x) __..__..__..__..__..__..__..__.._
 72
    65
 73
     6
 40
0.625
 49
0.25
 74
     0
 49
-0.125
 74
     0
 49
0.0
 74
     0
 49
-0.125
 74
     0
 49
0.0
 74
     0
 49
-0.125
 74
     0
  0
LTYPE
  5
99
330
5
100
AcDbSymbolTableRecord
100
AcDbLinetypeTableRecord
  2
DIVIDEX2
 70
     0
  3
Divide (2x) ________  .  .  ________  .  .  _
 72
    65
 73
     6
 40
2.5
 49
1.0
 74
     0
 49
-0.5
 74
     0
 49
0.0
 74
     0
 49
-0.5
 74
     0
 49
0.0
 74
     0
 49
-0.5
 74
     0
  0
LTYPE
  5
9A
330
5
100
AcDbSymbolTableRecord
100
AcDbLinetypeTableRecord
  2
DOT
 70
     0
  3
Dot . . . . . . . . . . . . . . . . . . . . . .
 72
    65
 73
     2
 40
0.25
 49
0.0
 74
     0
 49
-0.25
 74
     0
  0
LTYPE
  5
9B
330
5
100
AcDbSymbolTableRecord
100
AcDbLinetypeTableRecord
  2
DOT2
 70
     0
  3
Dot (.5x) .....................................
 72
    65
 73
     2
 40
0.125
 49
0.0
 74
     0
 49
-0.125
 74
     0
  0
LTYPE
  5
9C
330
5
100
AcDbSymbolTableRecord
100
AcDbLinetypeTableRecord
  2
DOTX2
 70
     0
  3
Dot (2x) .  .  .  .  .  .  .  .  .  .  .  .  . 
 72
    65
 73
     2
 40
0.5
 49
0.0
 74
     0
 49
-0.5
 74
     0
  0
LTYPE
  5
9D
330
5
100
AcDbSymbolTableRecord
100
AcDbLinetypeTableRecord
  2
HIDDEN
 70
     0
  3
Hidden __ __ __ __ __ __ __ __ __ __ __ __ __ _
 72
    65
 73
     2
 40
0.375
 49
0.25
 74
     0
 49
-0.125
 74
     0
  0
LTYPE
  5
9E
330
5
100
AcDbSymbolTableRecord
100
AcDbLinetypeTableRecord
  2
HIDDEN2
 70
     0
  3
Hidden (.5x) _ _ _ _ _ _ _ _ _ _ _ _ _ _ _ _ _
 72
    65
 73
     2
 40
0.1875
 49
0.125
 74
     0
 49
-0.0625
 74
     0
  0
LTYPE
  5
9F
330
5
100
AcDbSymbolTableRecord
100
AcDbLinetypeTableRecord
  2
HIDDENX2
 70
     0
  3
Hidden (2x) ____ ____ ____ ____ ____ ____ ____
 72
    65
 73
     2
 40
0.75
 49
0.5
 74
     0
 49
-0.25
 74
     0
  0
LTYPE
  5
A0
330
5
100
AcDbSymbolTableRecord
100
AcDbLinetypeTableRecord
  2
PHANTOM
 70
     0
  3
Phantom ______  __  __  ______  __  __  ______
 72
    65
 73
     6
 40
2.5
 49
1.25
 74
     0
 49
-0.25
 74
     0
 49
0.25
 74
     0
 49
-0.25
 74
     0
 49
0.25
 74
     0
 49
-0.25
 74
     0
  0
LTYPE
  5
A1
330
5
100
AcDbSymbolTableRecord
100
AcDbLinetypeTableRecord
  2
PHANTOM2
 70
     0
  3
Phantom (.5x) ___ _ _ ___ _ _ ___ _ _ ___ _ _
 72
    65
 73
     6
 40
1.25
 49
0.625
 74
     0
 49
-0.125
 74
     0
 49
0.125
 74
     0
 49
-0.125
 74
     0
 49
0.125
 74
     0
 49
-0.125
 74
     0
  0
LTYPE
  5
A2
330
5
100
AcDbSymbolTableRecord
100
AcDbLinetypeTableRecord
  2
PHANTOMX2
 70
     0
  3
Phantom (2x) ____________    ____    ____   _
 72
    65
 73
     6
 40
5.0
 49
2.5
 74
     0
 49
-0.5
 74
     0
 49
0.5
 74
     0
 49
-0.5
 74
     0
 49
0.5
 74
     0
 49
-0.5
 74
     0
  0
LTYPE
  5
A3
330
5
100
AcDbSymbolTableRecord
100
AcDbLinetypeTableRecord
  2
ACAD_ISO02W100
 70
     0
  3
ISO dash __ __ __ __ __ __ __ __ __ __ __ __ __
 72
    65
 73
     2
 40
0.59
 49
0.47
 74
     0
 49
-0.12
 74
     0
  0
LTYPE
  5
A4
330
5
100
AcDbSymbolTableRecord
100
AcDbLinetypeTableRecord
  2
ACAD_ISO03W100
 70
     0
  3
ISO dash space __    __    __    __    __    __
 72
    65
 73
     2
 40
1.179999999999999
 49
0.47
 74
     0
 49
-0.71
 74
     0
  0
LTYPE
  5
A5
330
5
100
AcDbSymbolTableRecord
100
AcDbLinetypeTableRecord
  2
ACAD_ISO04W100
 70
     0
  3
ISO long-dash dot ____ . ____ . ____ . ____ . _
 72
    65
 73
     4
 40
1.179999999999999
 49
0.9399999999999998
 74
     0
 49
-0.12
 74
     0
 49
0.0
 74
     0
 49
-0.12
 74
     0
  0
LTYPE
  5
A6
330
5
100
AcDbSymbolTableRecord
100
AcDbLinetypeTableRecord
  2
ACAD_ISO05W100
 70
     0
  3
ISO long-dash double-dot ____ .. ____ .. ____ .
 72
    65
 73
     6
 40
1.299999999999999
 49
0.9399999999999998
 74
     0
 49
-0.12
 74
     0
 49
0.0
 74
     0
 49
-0.12
 74
     0
 49
0.0
 74
     0
 49
-0.12
 74
     0
  0
LTYPE
  5
A7
330
5
100
AcDbSymbolTableRecord
100
AcDbLinetypeTableRecord
  2
ACAD_ISO06W100
 70
     0
  3
ISO long-dash triple-dot ____ ... ____ ... ____
 72
    65
 73
     8
 40
1.419999999999999
 49
0.9399999999999998
 74
     0
 49
-0.12
 74
     0
 49
0.0
 74
     0
 49
-0.12
 74
     0
 49
0.0
 74
     0
 49
-0.12
 74
     0
 49
0.0
 74
     0
 49
-0.12
 74
     0
  0
LTYPE
  5
A8
330
5
100
AcDbSymbolTableRecord
100
AcDbLinetypeTableRecord
  2
ACAD_ISO07W100
 70
     0
  3
ISO dot . . . . . . . . . . . . . . . . . . . .
 72
    65
 73
     2
 40
0.12
 49
0.0
 74
     0
 49
-0.12
 74
     0
  0
LTYPE
  5
A9
330
5
100
AcDbSymbolTableRecord
100
AcDbLinetypeTableRecord
  2
ACAD_ISO08W100
 70
     0
  3
ISO long-dash short-dash ____ __ ____ __ ____ _
 72
    65
 73
     4
 40
0.95
 49
0.47
 74
     0
 49
-0.12
 74
     0
 49
0.24
 74
     0
 49
-0.12
 74
     0
  0
LTYPE
  5
AA
330
5
100
AcDbSymbolTableRecord
100
AcDbLinetypeTableRecord
  2
ACAD_ISO09W100
 70
     0
  3
ISO long-dash double-short-dash ____ __ __ ____
 72
    65
 73
     6
 40
1.31
 49
0.47
 74
     0
 49
-0.12
 74
     0
 49
0.24
 74
     0
 49
-0.12
 74
     0
 49
0.24
 74
     0
 49
-0.12
 74
     0
  0
LTYPE
  5
AB
330
5
100
AcDbSymbolTableRecord
100
AcDbLinetypeTableRecord
  2
ACAD_ISO10W100
 70
     0
  3
ISO dash dot __ . __ . __ . __ . __ . __ . __ .
 72
    65
 73
     4
 40
0.71
 49
0.47
 74
     0
 49
-0.12
 74
     0
 49
0.0
 74
     0
 49
-0.12
 74
     0
  0
LTYPE
  5
AC
330
5
100
AcDbSymbolTableRecord
100
AcDbLinetypeTableRecord
  2
ACAD_ISO11W100
 70
     0
  3
ISO double-dash dot __ __ . __ __ . __ __ . __ 
 72
    65
 73
     6
 40
1.299999999999999
 49
0.47
 74
     0
 49
-0.12
 74
     0
 49
0.47
 74
     0
 49
-0.12
 74
     0
 49
0.0
 74
     0
 49
-0.12
 74
     0
  0
LTYPE
  5
AD
330
5
100
AcDbSymbolTableRecord
100
AcDbLinetypeTableRecord
  2
ACAD_ISO12W100
 70
     0
  3
ISO dash double-dot __ . . __ . . __ . . __ . .
 72
    65
 73
     6
 40
0.8299999999999998
 49
0.47
 74
     0
 49
-0.12
 74
     0
 49
0.0
 74
     0
 49
-0.12
 74
     0
 49
0.0
 74
     0
 49
-0.12
 74
     0
  0
LTYPE
  5
AE
330
5
100
AcDbSymbolTableRecord
100
AcDbLinetypeTableRecord
  2
ACAD_ISO13W100
 70
     0
  3
ISO double-dash double-dot __ __ . . __ __ . . 
 72
    65
 73
     8
 40
1.419999999999999
 49
0.47
 74
     0
 49
-0.12
 74
     0
 49
0.47
 74
     0
 49
-0.12
 74
     0
 49
0.0
 74
     0
 49
-0.12
 74
     0
 49
0.0
 74
     0
 49
-0.12
 74
     0
  0
LTYPE
  5
AF
330
5
100
AcDbSymbolTableRecord
100
AcDbLinetypeTableRecord
  2
ACAD_ISO14W100
 70
     0
  3
ISO dash triple-dot __ . . . __ . . . __ . . . 
 72
    65
 73
     8
 40
0.95
 49
0.47
 74
     0
 49
-0.12
 74
     0
 49
0.0
 74
     0
 49
-0.12
 74
     0
 49
0.0
 74
     0
 49
-0.12
 74
     0
 49
0.0
 74
     0
 49
-0.12
 74
     0
  0
LTYPE
  5
B0
330
5
100
AcDbSymbolTableRecord
100
AcDbLinetypeTableRecord
  2
ACAD_ISO15W100
 70
     0
  3
ISO double-dash triple-dot __ __ . . . __ __ . 
 72
    65
 73
    10
 40
1.539999999999999
 49
0.47
 74
     0
 49
-0.12
 74
     0
 49
0.47
 74
     0
 49
-0.12
 74
     0
 49
0.0
 74
     0
 49
-0.12
 74
     0
 49
0.0
 74
     0
 49
-0.12
 74
     0
 49
0.0
 74
     0
 49
-0.12
 74
     0
  0
LTYPE
  5
B3
330
5
100
AcDbSymbolTableRecord
100
AcDbLinetypeTableRecord
  2
FENCELINE1
 70
     0
  3
Fenceline circle ----0-----0----0-----0----0---
 72
    65
 73
     4
 40
1.45
 49
0.25
 74
     0
 49
-0.1
 74
     4
 75
   133
340
B2
 46
0.1
 50
0.0
 44
-0.1
 45
0.0
 49
-0.1
 74
     0
 49
1.0
 74
     0
  0
LTYPE
  5
B4
330
5
100
AcDbSymbolTableRecord
100
AcDbLinetypeTableRecord
  2
FENCELINE2
 70
     0
  3
Fenceline square ----[]-----[]----[]-----[]----
 72
    65
 73
     4
 40
1.45
 49
0.25
 74
     0
 49
-0.1
 74
     4
 75
   132
340
B2
 46
0.1
 50
0.0
 44
-0.1
 45
0.0
 49
-0.1
 74
     0
 49
1.0
 74
     0
  0
LTYPE
  5
B5
330
5
100
AcDbSymbolTableRecord
100
AcDbLinetypeTableRecord
  2
TRACKS
 70
     0
  3
Tracks -|-|-|-|-|-|-|-|-|-|-|-|-|-|-|-|-|-|-|-|
 72
    65
 73
     2
 40
0.3
 49
0.15
 74
     4
 75
   130
340
B2
 46
0.25
 50
0.0
 44
0.0
 45
0.0
 49
0.15
 74
     0
  0
LTYPE
  5
B6
330
5
100
AcDbSymbolTableRecord
100
AcDbLinetypeTableRecord
  2
BATTING
 70
     0
  3
Batting SSSSSSSSSSSSSSSSSSSSSSSSSSSSSSSSSSSSSSS
 72
    65
 73
     4
 40
0.4001000000000001
 49
0.0001
 74
     0
 49
-0.1
 74
     4
 75
   134
340
B2
 46
0.1
 50
0.0
 44
-0.1
 45
0.0
 49
-0.2
 74
     4
 75
   134
340
B2
 46
0.1
 50
180.0
 44
0.1
 45
0.0
 49
-0.1
 74
     0
  0
LTYPE
  5
B7
330
5
100
AcDbSymbolTableRecord
100
AcDbLinetypeTableRecord
  2
HOT_WATER_SUPPLY
 70
     0
  3
Hot water supply ---- HW ---- HW ---- HW ----
 72
    65
 73
     3
 40
0.9
 49
0.5
 74
     0
 49
-0.2
 74
     2
 75
     0
340
55
 46
0.1
 50
0.0
 44
-0.1
 45
-0.05
  9
HW
 49
-0.2
 74
     0
  0
LTYPE
  5
B8
330
5
100
AcDbSymbolTableRecord
100
AcDbLinetypeTableRecord
  2
GAS_LINE
 70
     0
  3
Gas line ----GAS----GAS----GAS----GAS----GAS---
 72
    65
 73
     3
 40
0.95
 49
0.5
 74
     0
 49
-0.2
 74
     2
 75
     0
340
55
 46
0.1
 50
0.0
 44
-0.1
 45
-0.05
  9
GAS
 49
-0.25
 74
     0
  0
LTYPE
  5
B9
330
5
100
AcDbSymbolTableRecord
100
AcDbLinetypeTableRecord
  2
ZIGZAG
 70
     0
  3
Zig zag /\/\/\/\/\/\/\/\/\/\/\/\/\/\/\/\/\/\/\/
 72
    65
 73
     4
 40
0.8001000000000001
 49
0.0001
 74
     0
 49
-0.2
 74
     4
 75
   131
340
B2
 46
0.2
 50
0.0
 44
-0.2
 45
0.0
 49
-0.4
 74
     4
 75
   131
340
B2
 46
0.2
 50
180.0
 44
0.2
 45
0.0
 49
-0.2
 74
     0
  0
ENDTAB
  0
TABLE
  2
LAYER
  5
2
330
0
100
AcDbSymbolTable
 70
    27
  0
LAYER
  5
54
330
2
100
AcDbSymbolTableRecord
100
AcDbLayerTableRecord
  2
0
 70
     0
 62
     7
  6
Continuous
370
    18
390
F
  0
LAYER
  5
C3
330
2
100
AcDbSymbolTableRecord
100
AcDbLayerTableRecord
  2
Dimension (ANSI)
 70
     0
 62
     7
  6
Continuous
370
    13
390
F
  0
LAYER
  5
C5
330
2
100
AcDbSymbolTableRecord
100
AcDbLayerTableRecord
  2
Hidden (ANSI)
 70
     0
 62
     7
  6
DASHED
370
    15
390
F
  0
LAYER
  5
CC
330
2
100
AcDbSymbolTableRecord
100
AcDbLayerTableRecord
  2
Symbol (ANSI)
 70
     0
 62
     7
  6
Continuous
370
    18
390
F
  0
LAYER
  5
CF
330
2
100
AcDbSymbolTableRecord
100
AcDbLayerTableRecord
  2
Visible (ANSI)
 70
     0
 62
     7
  6
Continuous
370
    13
390
F
  0
LAYER
  5
D0
330
2
100
AcDbSymbolTableRecord
100
AcDbLayerTableRecord
  2
Visible Narrow (ANSI)
 70
     0
 62
     7
  6
Continuous
370
    18
390
F
  0
LAYER
  5
139
330
2
100
AcDbSymbolTableRecord
100
AcDbLayerTableRecord
  2
Defpoints
 70
     0
 62
     7
  6
Continuous
290
     0
370
    -3
390
F
  0
ENDTAB
  0
TABLE
  2
STYLE
  5
3
330
0
100
AcDbSymbolTable
 70
    18
  0
STYLE
  5
55
330
3
100
AcDbSymbolTableRecord
100
AcDbTextStyleTableRecord
  2
Standard
 70
     0
 40
0.0
 41
1.0
 50
0.0
 71
     0
 42
0.2
  3
txt
  4

  0
STYLE
  5
5A
330
3
100
AcDbSymbolTableRecord
100
AcDbTextStyleTableRecord
  2
Annotative
 70
     0
 40
0.0
 41
1.0
 50
0.0
 71
     0
 42
0.2
  3
txt
  4

1001
AcadAnnotative
1000
AnnotativeData
1002
{
1070
     1
1070
     1
1002
}
  0
STYLE
  5
B2
330
3
100
AcDbSymbolTableRecord
100
AcDbTextStyleTableRecord
  2

 70
     1
 40
0.0
 41
1.0
 50
0.0
 71
     0
 42
0.2
  3
ltypeshp.shx
  4

  0
STYLE
  5
D4
330
3
100
AcDbSymbolTableRecord
100
AcDbTextStyleTableRecord
  2
ITALICC_120
 70
     0
 40
0.0
 41
1.0
 50
0.0
 71
     0
 42
0.2
  3
italicc.shx
  4

  0
STYLE
  5
D5
330
3
100
AcDbSymbolTableRecord
100
AcDbTextStyleTableRecord
  2
Label Text (ANSI)
 70
     0
 40
0.0
 41
1.0
 50
0.0
 71
     0
 42
0.2
  3
TAHOMA.TTF
  4

1001
ACAD
1000
Tahoma
1071
      256
  0
STYLE
  5
D6
330
3
100
AcDbSymbolTableRecord
100
AcDbTextStyleTableRecord
  2
Note Text (ANSI)
 70
     0
 40
0.0
 41
1.0
 50
0.0
 71
     0
 42
0.2
  3
TAHOMA.TTF
  4

1001
ACAD
1000
Tahoma
1071
      256
  0
STYLE
  5
D7
330
3
100
AcDbSymbolTableRecord
100
AcDbTextStyleTableRecord
  2
ROMANS
 70
     0
 40
0.0
 41
1.0
 50
0.0
 71
     0
 42
0.2
  3
romans.shx
  4

  0
STYLE
  5
D8
330
3
100
AcDbSymbolTableRecord
100
AcDbTextStyleTableRecord
  2
SANSSERIF_114
 70
     0
 40
0.0
 41
1.0
 50
0.0
 71
     0
 42
0.2
  3
TAHOMA.TTF
  4

1001
ACAD
1000
Tahoma
1071
      256
  0
STYLE
  5
D9
330
3
100
AcDbSymbolTableRecord
100
AcDbTextStyleTableRecord
  2
SANSSERIF_117
 70
     0
 40
0.0
 41
1.0
 50
0.0
 71
     0
 42
0.2
  3
TAHOMA.TTF
  4

1001
ACAD
1000
Tahoma
1071
      256
  0
STYLE
  5
DA
330
3
100
AcDbSymbolTableRecord
100
AcDbTextStyleTableRecord
  2
STANDARDAM_ANSI
 70
     0
 40
0.0
 41
1.0
 50
0.0
 71
     0
 42
0.2
  3
txt.shx
  4

  0
STYLE
  5
DB
330
3
100
AcDbSymbolTableRecord
100
AcDbTextStyleTableRecord
  2
StandardAM_ANSI$0
 70
     0
 40
0.0
 41
1.0
 50
0.0
 71
     0
 42
0.2
  3
txt.shx
  4

  0
STYLE
  5
DC
330
3
100
AcDbSymbolTableRecord
100
AcDbTextStyleTableRecord
  2
STANDARDAM_ANSI$3
 70
     0
 40
0.0
 41
1.0
 50
0.0
 71
     0
 42
0.2
  3
txt.shx
  4

  0
STYLE
  5
DD
330
3
100
AcDbSymbolTableRecord
100
AcDbTextStyleTableRecord
  2
STANDARDAM_ANSI$4
 70
     0
 40
0.0
 41
1.0
 50
0.0
 71
     0
 42
0.2
  3
txt.shx
  4

  0
STYLE
  5
DE
330
3
100
AcDbSymbolTableRecord
100
AcDbTextStyleTableRecord
  2
STANDARDAM_ANSI$7
 70
     0
 40
0.0
 41
1.0
 50
0.0
 71
     0
 42
0.2
  3
txt.shx
  4

  0
STYLE
  5
DF
330
3
100
AcDbSymbolTableRecord
100
AcDbTextStyleTableRecord
  2
STANDARDAM_ANSI$SF
 70
     0
 40
0.0
 41
1.0
 50
0.0
 71
     0
 42
0.2
  3
txt.shx
  4

  0
STYLE
  5
E0
330
3
100
AcDbSymbolTableRecord
100
AcDbTextStyleTableRecord
  2
STANDARDAM_ANSI$SH
 70
     0
 40
0.0
 41
1.0
 50
0.0
 71
     0
 42
0.2
  3
txt.shx
  4

  0
STYLE
  5
E1
330
3
100
AcDbSymbolTableRecord
100
AcDbTextStyleTableRecord
  2
STANDARDSTANDARD
 70
     0
 40
0.0
 41
1.0
 50
0.0
 71
     0
 42
0.2
  3
txt.shx
  4

  0
STYLE
  5
132
330
3
100
AcDbSymbolTableRecord
100
AcDbTextStyleTableRecord
  2
Text Style150
 70
     0
 40
0.0
 41
1.0
 50
0.0
 71
     0
 42
0.2
  3
TAHOMA.TTF
  4

1001
ACAD
1000
Tahoma
1071
      256
  0
ENDTAB
  0
TABLE
  2
VIEW
  5
6
330
0
100
AcDbSymbolTable
 70
     0
  0
ENDTAB
  0
TABLE
  2
UCS
  5
7
330
0
100
AcDbSymbolTable
 70
     0
  0
ENDTAB
  0
TABLE
  2
APPID
  5
9
330
0
100
AcDbSymbolTable
 70
     4
  0
APPID
  5
56
330
9
100
AcDbSymbolTableRecord
100
AcDbRegAppTableRecord
  2
ACAD
 70
     0
  0
APPID
  5
5E
330
9
100
AcDbSymbolTableRecord
100
AcDbRegAppTableRecord
  2
AcadAnnotative
 70
     0
  0
APPID
  5
6A2
330
9
100
AcDbSymbolTableRecord
100
AcDbRegAppTableRecord
  2
ACAD_DSTYLE_DIMRADIAL_EXTENSION
 70
     0
  0
APPID
  5
8E0
330
9
100
AcDbSymbolTableRecord
100
AcDbRegAppTableRecord
  2
ACAD_MLEADERVER
 70
     0
  0
ENDTAB
  0
TABLE
  2
DIMSTYLE
  5
A
330
0
100
AcDbSymbolTable
 70
    29
100
AcDbDimStyleTable
 71
     3
340
F6
340
58
340
F8
  0
DIMSTYLE
105
58
330
A
100
AcDbSymbolTableRecord
100
AcDbDimStyleTableRecord
  2
STANDARD
 70
     0
 41
0.1800000071525573
 42
0.0625
140
0.1800000071525574
144
1.0
147
0.0900000035762787
176
   256
177
   256
178
   256
274
     3
340
55
371
    -1
372
    -1
  0
DIMSTYLE
105
59
330
A
100
AcDbSymbolTableRecord
100
AcDbDimStyleTableRecord
  2
Annotative
 70
     0
340
55
1001
AcadAnnotative
1000
AnnotativeData
1002
{
1070
     1
1070
     1
1002
}
  0
DIMSTYLE
105
E2
330
A
100
AcDbSymbolTableRecord
100
AcDbDimStyleTableRecord
  2
AM_ANSI
 70
     0
  4
 mm
 40
1.428571428571428
 41
0.119999997317791
 42
0.05
 43
0.5
 44
0.1
 45
0.00000001
 78
     4
 79
     2
140
0.1200000047683716
146
0.7099999453624112
147
0.0599999986588955
176
   256
177
   256
178
     2
284
     4
340
DA
371
    -1
372
    -1
  0
DIMSTYLE
105
E3
330
A
100
AcDbSymbolTableRecord
100
AcDbDimStyleTableRecord
  2
AM_ANSI$7
 70
     0
  4
 mm
 40
1.428571428571428
 41
0.119999997317791
 42
0.05
 43
0.5
 44
0.1
 45
0.00000001
 78
     4
 79
     2
140
0.1200000047683716
146
0.7099999453624112
147
0.0599999986588955
176
   256
177
   256
178
     2
284
     4
340
DA
371
    -1
372
    -1
  0
DIMSTYLE
105
E4
330
A
100
AcDbSymbolTableRecord
100
AcDbDimStyleTableRecord
  2
AM_ANSI$0
 70
     0
  4
 mm
 40
1.428571428571428
 41
0.119999997317791
 42
0.05
 43
0.5
 44
0.1
 45
0.00000001
 78
     4
 79
     2
140
0.1200000047683716
146
0.7099999453624112
147
0.0599999986588955
176
   256
177
   256
178
     2
284
     4
340
DB
371
    -1
372
    -1
  0
DIMSTYLE
105
E5
330
A
100
AcDbSymbolTableRecord
100
AcDbDimStyleTableRecord
  2
AM_ANSI$0$7
 70
     0
  4
 mm
 40
1.428571428571428
 41
0.119999997317791
 42
0.05
 43
0.5
 44
0.1
 45
0.00000001
 78
     4
 79
     2
140
0.1200000047683716
146
0.7099999453624112
147
0.0599999986588955
176
   256
177
   256
178
     2
284
     4
340
DB
371
    -1
372
    -1
  0
DIMSTYLE
105
E6
330
A
100
AcDbSymbolTableRecord
100
AcDbDimStyleTableRecord
  2
AM_ANSI$3
 70
     0
  4
 mm
 40
1.428571428571428
 41
0.119999997317791
 42
0.05
 43
0.5
 44
0.1
 45
0.00000001
 78
     4
 79
     2
140
0.1200000047683716
146
0.7099999453624112
147
0.0599999986588955
176
   256
177
   256
178
     2
284
     4
340
DC
371
    -1
372
    -1
  0
DIMSTYLE
105
E7
330
A
100
AcDbSymbolTableRecord
100
AcDbDimStyleTableRecord
  2
AM_ANSI$3$7
 70
     0
  4
 mm
 40
1.428571428571428
 41
0.119999997317791
 42
0.05
 43
0.5
 44
0.1
 45
0.00000001
 78
     4
 79
     2
140
0.1200000047683716
146
0.7099999453624112
147
0.0599999986588955
176
   256
177
   256
178
     2
284
     4
340
DC
371
    -1
372
    -1
  0
DIMSTYLE
105
E8
330
A
100
AcDbSymbolTableRecord
100
AcDbDimStyleTableRecord
  2
AM_ANSI$4
 70
     0
  4
 mm
 40
1.428571428571428
 41
0.119999997317791
 42
0.05
 43
0.5
 44
0.1
 45
0.00000001
 78
     4
 79
     2
140
0.1200000047683716
146
0.7099999453624112
147
0.0599999986588955
176
   256
177
   256
178
     2
284
     4
340
DD
371
    -1
372
    -1
  0
DIMSTYLE
105
E9
330
A
100
AcDbSymbolTableRecord
100
AcDbDimStyleTableRecord
  2
AM_ANSI$4$7
 70
     0
  4
 mm
 40
1.428571428571428
 41
0.119999997317791
 42
0.05
 43
0.5
 44
0.1
 45
0.00000001
 78
     4
 79
     2
140
0.1200000047683716
146
0.7099999453624112
147
0.0599999986588955
176
   256
177
   256
178
     2
284
     4
340
DD
371
    -1
372
    -1
  0
DIMSTYLE
105
EA
330
A
100
AcDbSymbolTableRecord
100
AcDbDimStyleTableRecord
  2
AM_ANSI$SF
 70
     0
  4
 mm
 40
1.428571428571428
 41
0.119999997317791
 42
0.05
 43
0.5
 44
0.1
 45
0.00000001
 75
     1
 76
     1
 78
     4
 79
     2
140
0.1200000047683716
146
0.7099999453624112
147
0.0599999986588955
176
   256
177
   256
178
     2
284
     4
340
DF
371
    -1
372
    -1
  0
DIMSTYLE
105
EB
330
A
100
AcDbSymbolTableRecord
100
AcDbDimStyleTableRecord
  2
AM_ANSI$SF$7
 70
     0
  4
 mm
 40
1.428571428571428
 41
0.119999997317791
 42
0.05
 43
0.5
 44
0.1
 45
0.00000001
 75
     1
 76
     1
 78
     4
 79
     2
140
0.1200000047683716
146
0.7099999453624112
147
0.0599999986588955
176
   256
177
   256
178
     2
284
     4
340
DF
371
    -1
372
    -1
  0
DIMSTYLE
105
EC
330
A
100
AcDbSymbolTableRecord
100
AcDbDimStyleTableRecord
  2
AM_ANSI$SH
 70
     0
  4
 mm
 40
1.428571428571428
 41
0.119999997317791
 42
0.05
 43
0.5
 44
0.1
 45
0.00000001
 75
     1
 76
     1
 78
     4
 79
     2
140
0.1200000047683716
146
0.7099999453624112
147
0.0599999986588955
176
   256
177
   256
178
     2
284
     4
340
E0
371
    -1
372
    -1
  0
DIMSTYLE
105
ED
330
A
100
AcDbSymbolTableRecord
100
AcDbDimStyleTableRecord
  2
AM_ANSI$SH$7
 70
     0
  4
 mm
 40
1.428571428571428
 41
0.119999997317791
 42
0.05
 43
0.5
 44
0.1
 45
0.00000001
 75
     1
 76
     1
 78
     4
 79
     2
140
0.1200000047683716
146
0.7099999453624112
147
0.0599999986588955
176
   256
177
   256
178
     2
284
     4
340
E0
371
    -1
372
    -1
  0
DIMSTYLE
105
EE
330
A
100
AcDbSymbolTableRecord
100
AcDbDimStyleTableRecord
  2
Architectural (ANSI)
 70
     0
 40
1.428571428571428
 41
0.0984251946210861
 43
0.2362204724409449
 44
0.125
 45
0.00000001
 46
0.3937007874015748
 78
     3
 79
     3
140
0.1200000047683716
147
0.031496062992126
171
     1
176
   256
177
   256
178
   256
272
     2
274
     1
276
     2
277
     4
284
    12
285
     4
286
    12
340
D6
371
    -1
372
    -1
  0
DIMSTYLE
105
EF
330
A
100
AcDbSymbolTableRecord
100
AcDbDimStyleTableRecord
  2
Architectural (ANSI)$7
 70
     0
 40
1.428571428571428
 41
0.0984251946210861
 43
0.2362204724409449
 44
0.125
 45
0.00000001
 46
0.3937007874015748
 78
     3
 79
     3
140
0.1200000047683716
147
0.031496062992126
171
     1
176
   256
177
   256
178
   256
272
     2
274
     1
276
     2
277
     4
284
    12
285
     4
286
    12
340
D6
371
    -1
372
    -1
  0
DIMSTYLE
105
F0
330
A
100
AcDbSymbolTableRecord
100
AcDbDimStyleTableRecord
  2
Default - Fraction (ANSI)
 70
     0
 40
1.428571428571428
 41
0.0984251946210861
 43
0.2362204724409449
 44
0.125
 45
0.00000001
 46
0.3937007874015748
 79
     3
140
0.1200000047683716
147
0.031496062992126
171
     1
176
   256
177
   256
178
   256
272
     2
274
     1
276
     2
277
     5
284
    12
285
     4
286
    12
340
D6
371
    -1
372
    -1
  0
DIMSTYLE
105
F1
330
A
100
AcDbSymbolTableRecord
100
AcDbDimStyleTableRecord
  2
Default - Fraction (ANSI)$7
 70
     0
 40
1.428571428571428
 41
0.0984251946210861
 43
0.2362204724409449
 44
0.125
 45
0.00000001
 46
0.3937007874015748
 79
     3
140
0.1200000047683716
147
0.031496062992126
171
     1
176
   256
177
   256
178
   256
272
     2
274
     1
276
     2
277
     5
284
    12
285
     4
286
    12
340
D6
371
    -1
372
    -1
  0
DIMSTYLE
105
F2
330
A
100
AcDbSymbolTableRecord
100
AcDbDimStyleTableRecord
  2
Default - mm (ANSI)
 70
     0
 40
1.428571428571428
 41
0.0984251946210861
 42
0.063
 43
0.2362204724409449
 44
0.125
 45
0.00000001
 46
0.3937007874015748
 73
     0
 78
     4
 79
     1
140
0.1200000047683716
143
1.0
144
25.4
147
0.031496062992126
171
     1
176
   256
177
   256
178
   256
179
     1
271
     2
272
     2
274
     1
284
     4
285
     4
340
D6
371
    -1
372
    -1
  0
DIMSTYLE
105
F3
330
A
100
AcDbSymbolTableRecord
100
AcDbDimStyleTableRecord
  2
Default - mm (ANSI)$7
 70
     0
 40
1.428571428571428
 41
0.0984251946210861
 42
0.063
 43
0.2362204724409449
 44
0.125
 45
0.00000001
 46
0.3937007874015748
 73
     0
 78
     4
 79
     1
140
0.1200000047683716
143
1.0
144
25.4
147
0.031496062992126
171
     1
176
   256
177
   256
178
   256
179
     1
271
     2
272
     2
274
     1
284
     4
285
     4
340
D6
371
    -1
372
    -1
  0
DIMSTYLE
105
F4
330
A
100
AcDbSymbolTableRecord
100
AcDbDimStyleTableRecord
  2
Default - mm [in] (ANSI)
 70
     0
  4
 in
 40
1.428571428571428
 41
0.0984251946210861
 42
0.063
 43
0.25
 44
0.125
 45
0.00000001
 46
0.3937007874015748
 73
     0
 78
     4
 79
     1
140
0.1200000047683716
143
0.03937
144
25.4
147
0.031496062992126
170
     1
171
     3
176
   256
177
   256
178
   256
179
     1
271
     2
272
     2
274
     3
284
     4
285
     4
286
     4
340
D6
371
    -1
372
    -1
  0
DIMSTYLE
105
F5
330
A
100
AcDbSymbolTableRecord
100
AcDbDimStyleTableRecord
  2
Default - mm [in] (ANSI)$7
 70
     0
  4
 in
 40
1.428571428571428
 41
0.0984251946210861
 42
0.063
 43
0.25
 44
0.125
 45
0.00000001
 46
0.3937007874015748
 73
     0
 78
     4
 79
     1
140
0.1200000047683716
143
0.03937
144
25.4
147
0.031496062992126
170
     1
171
     3
176
   256
177
   256
178
   256
179
     1
271
     2
272
     2
274
     3
284
     4
285
     4
286
     4
340
D6
371
    -1
372
    -1
  0
DIMSTYLE
105
F6
102
{ACAD_REACTORS
330
51F
330
609
330
6C3
330
7A3
102
}
330
A
100
AcDbSymbolTableRecord
100
AcDbDimStyleTableRecord
  2
Default (ANSI)
 70
     0
 40
1.428571428571428
 41
0.0984251946210861
 43
0.2362204724409449
 44
0.125
 45
0.00000001
 46
0.3937007874015748
 79
     1
140
0.1200000047683716
147
0.031496062992126
171
     1
176
   256
177
   256
178
   256
271
     3
272
     2
274
     1
284
     4
285
     4
340
D6
371
    -1
372
    -1
  0
DIMSTYLE
105
F7
330
A
100
AcDbSymbolTableRecord
100
AcDbDimStyleTableRecord
  2
Default (ANSI)$7
 70
     0
 40
1.428571428571428
 41
0.0984251946210861
 43
0.2362204724409449
 44
0.125
 45
0.00000001
 46
0.3937007874015748
 79
     1
140
0.1200000047683716
147
0.031496062992126
171
     1
176
   256
177
   256
178
   256
271
     3
272
     2
274
     1
284
     4
285
     4
340
D6
371
    -1
372
    -1
  0
DIMSTYLE
105
F8
102
{ACAD_REACTORS
330
137
330
223
330
30D
330
421
102
}
330
A
100
AcDbSymbolTableRecord
100
AcDbDimStyleTableRecord
  2
Default (ANSI)-01
 70
     0
 40
1.428571428571428
 41
0.0984251946210861
 43
0.2362204724409449
 44
0.125
 45
0.00000001
 46
0.3937007874015748
 79
     1
140
0.1200000047683716
147
0.031496062992126
171
     1
176
   256
177
   256
178
   256
271
     2
272
     2
274
     1
284
     4
285
     4
340
D6
371
    -1
372
    -1
  0
DIMSTYLE
105
F9
330
A
100
AcDbSymbolTableRecord
100
AcDbDimStyleTableRecord
  2
Default (ANSI)-01$7
 70
     0
 40
1.428571428571428
 41
0.0984251946210861
 43
0.2362204724409449
 44
0.125
 45
0.00000001
 46
0.3937007874015748
 79
     1
140
0.1200000047683716
147
0.031496062992126
171
     1
176
   256
177
   256
178
   256
271
     2
272
     2
274
     1
284
     4
285
     4
340
D6
371
    -1
372
    -1
  0
DIMSTYLE
105
FA
330
A
100
AcDbSymbolTableRecord
100
AcDbDimStyleTableRecord
  2
Alternate (ANSI)
 70
     0
 40
1.428571428571428
 41
0.0979999974370003
340
55
342
FB
  0
DIMSTYLE
105
10D
330
A
100
AcDbSymbolTableRecord
100
AcDbDimStyleTableRecord
  2
Datum (ANSI)
 70
     0
 40
1.428571428571428
 41
0.0979999974370003
340
55
342
FB
  0
DIMSTYLE
105
11C
330
A
100
AcDbSymbolTableRecord
100
AcDbDimStyleTableRecord
  2
Large (ANSI)
 70
     0
 40
1.428571428571428
 41
0.1959999948740005
340
55
342
FB
  0
ENDTAB
  0
TABLE
  2
BLOCK_RECORD
  5
1
330
0
100
AcDbSymbolTable
 70
    12
  0
BLOCK_RECORD
  5
6C
330
1
100
AcDbSymbolTableRecord
100
AcDbBlockTableRecord
  2
*Model_Space
340
6F
  0
BLOCK_RECORD
  5
68
330
1
100
AcDbSymbolTableRecord
100
AcDbBlockTableRecord
  2
*Paper_Space
340
6B
  0
BLOCK_RECORD
  5
70
330
1
100
AcDbSymbolTableRecord
100
AcDbBlockTableRecord
  2
*Paper_Space0
340
73
  0
BLOCK_RECORD
  5
FB
330
1
100
AcDbSymbolTableRecord
100
AcDbBlockTableRecord
  2
_Closed
340
0
  0
BLOCK_RECORD
  5
102
330
1
100
AcDbSymbolTableRecord
100
AcDbBlockTableRecord
  2
DatumFilled45
340
0
  0
BLOCK_RECORD
  5
10E
330
1
100
AcDbSymbolTableRecord
100
AcDbBlockTableRecord
  2
Filled-1
340
0
  0
BLOCK_RECORD
  5
13A
330
1
100
AcDbSymbolTableRecord
100
AcDbBlockTableRecord
  2
*D4
340
0
  0
BLOCK_RECORD
  5
224
330
1
100
AcDbSymbolTableRecord
100
AcDbBlockTableRecord
  2
*D5
340
0
  0
BLOCK_RECORD
  5
30E
330
1
100
AcDbSymbolTableRecord
100
AcDbBlockTableRecord
  2
*D6
340
0
  0
BLOCK_RECORD
  5
422
330
1
100
AcDbSymbolTableRecord
100
AcDbBlockTableRecord
  2
*D7
340
0
  0
BLOCK_RECORD
  5
520
330
1
100
AcDbSymbolTableRecord
100
AcDbBlockTableRecord
  2
*D8
340
0
  0
BLOCK_RECORD
  5
60A
330
1
100
AcDbSymbolTableRecord
100
AcDbBlockTableRecord
  2
*D9
340
0
  0
BLOCK_RECORD
  5
6C4
330
1
100
AcDbSymbolTableRecord
100
AcDbBlockTableRecord
  2
*D10
340
0
  0
BLOCK_RECORD
  5
7A4
330
1
100
AcDbSymbolTableRecord
100
AcDbBlockTableRecord
  2
*D11
340
0
  0
ENDTAB
  0
ENDSEC
  0
SECTION
  2
BLOCKS
  0
BLOCK
  5
6D
330
6C
100
AcDbEntity
  8
0
100
AcDbBlockBegin
  2
*Model_Space
 70
     0
 10
0.0
 20
0.0
 30
0.0
  3
*Model_Space
  1

  0
ENDBLK
  5
6E
330
6C
100
AcDbEntity
  8
0
100
AcDbBlockEnd
  0
BLOCK
  5
69
330
68
100
AcDbEntity
 67
     1
  8
0
100
AcDbBlockBegin
  2
*Paper_Space
 70
     0
 10
0.0
 20
0.0
 30
0.0
  3
*Paper_Space
  1

  0
ENDBLK
  5
6A
330
68
100
AcDbEntity
 67
     1
  8
0
100
AcDbBlockEnd
  0
BLOCK
  5
71
330
70
100
AcDbEntity
 67
     1
  8
0
100
AcDbBlockBegin
  2
*Paper_Space0
 70
     0
 10
0.0
 20
0.0
 30
0.0
  3
*Paper_Space0
  1

  0
ENDBLK
  5
72
330
70
100
AcDbEntity
 67
     1
  8
0
100
AcDbBlockEnd
  0
BLOCK
  5
100
330
FB
100
AcDbEntity
  8
0
100
AcDbBlockBegin
  2
_Closed
 70
     0
 10
0.0
 20
0.0
 30
0.0
  3
_Closed
  1

  0
LINE
  5
FC
330
FB
100
AcDbEntity
  8
0
  6
ByBlock
 62
     0
370
    -2
100
AcDbLine
 10
-1.0
 20
0.1666666666666666
 30
0.0
 11
0.0
 21
0.0
 31
0.0
  0
LINE
  5
FD
330
FB
100
AcDbEntity
  8
0
  6
ByBlock
 62
     0
370
    -2
100
AcDbLine
 10
0.0
 20
0.0
 30
0.0
 11
-1.0
 21
-0.1666666666666666
 31
0.0
  0
LINE
  5
FE
330
FB
100
AcDbEntity
  8
0
  6
ByBlock
 62
     0
370
    -2
100
AcDbLine
 10
-1.0
 20
0.1666666666666666
 30
0.0
 11
-1.0
 21
-0.1666666666666666
 31
0.0
  0
LINE
  5
FF
330
FB
100
AcDbEntity
  8
0
  6
ByBlock
 62
     0
370
    -2
100
AcDbLine
 10
0.0
 20
0.0
 30
0.0
 11
-1.0
 21
0.0
 31
0.0
  0
ENDBLK
  5
101
330
FB
100
AcDbEntity
  8
0
100
AcDbBlockEnd
  0
BLOCK
  5
103
330
102
100
AcDbEntity
  8
0
100
AcDbBlockBegin
  2
DatumFilled45
 70
     0
 10
0.0
 20
0.0
 30
0.0
  3
DatumFilled45
  1

  0
POLYLINE
  5
105
330
102
100
AcDbEntity
  8
0
 62
     0
100
AcDb2dPolyline
 66
     1
 10
0.0
 20
0.0
 30
0.0
 70
   128
  0
VERTEX
  5
106
330
105
100
AcDbEntity
  8
0
 62
     0
100
AcDbVertex
100
AcDb2dVertex
 10
0.0
 20
0.9999999999999998
 30
0.0
  0
VERTEX
  5
107
330
105
100
AcDbEntity
  8
0
 62
     0
100
AcDbVertex
100
AcDb2dVertex
 10
0.0
 20
-0.9999999999999998
 30
0.0
  0
VERTEX
  5
109
330
105
100
AcDbEntity
  8
0
 62
     0
100
AcDbVertex
100
AcDb2dVertex
 10
-0.9999999999999998
 20
0.0
 30
0.0
  0
VERTEX
  5
10A
330
105
100
AcDbEntity
  8
0
 62
     0
100
AcDbVertex
100
AcDb2dVertex
 10
0.0
 20
0.9999999999999998
 30
0.0
  0
SEQEND
  5
108
330
105
100
AcDbEntity
  8
0
 62
     0
  0
SOLID
  5
10C
330
102
100
AcDbEntity
  8
0
 62
     0
100
AcDbTrace
 10
0.0
 20
0.9999999999999998
 30
0.0
 11
0.0
 21
-0.9999999999999998
 31
0.0
 12
-0.9999999999999998
 22
0.0
 32
0.0
 13
0.0
 23
0.9999999999999998
 33
0.0
  0
ENDBLK
  5
104
330
102
100
AcDbEntity
  8
0
100
AcDbBlockEnd
  0
BLOCK
  5
10F
330
10E
100
AcDbEntity
  8
0
100
AcDbBlockBegin
  2
Filled-1
 70
     0
 10
0.0
 20
0.0
 30
0.0
  3
Filled-1
  1

  0
LINE
  5
111
330
10E
100
AcDbEntity
  8
0
 62
     0
100
AcDbLine
 10
-0.9999999999999998
 20
0.0
 30
0.0
 11
0.0
 21
0.0
 31
0.0
  0
POLYLINE
  5
112
330
10E
100
AcDbEntity
  8
0
 62
     0
100
AcDb2dPolyline
 66
     1
 10
0.0
 20
0.0
 30
0.0
 70
   128
  0
VERTEX
  5
113
330
112
100
AcDbEntity
  8
0
 62
     0
100
AcDbVertex
100
AcDb2dVertex
 10
-0.9999999999999998
 20
-0.0994897959183674
 30
0.0
  0
VERTEX
  5
114
330
112
100
AcDbEntity
  8
0
 62
     0
100
AcDbVertex
100
AcDb2dVertex
 10
0.0
 20
0.0
 30
0.0
  0
VERTEX
  5
116
330
112
100
AcDbEntity
  8
0
 62
     0
100
AcDbVertex
100
AcDb2dVertex
 10
-0.9999999999999998
 20
0.0994897959183674
 30
0.0
  0
VERTEX
  5
117
330
112
100
AcDbEntity
  8
0
 62
     0
100
AcDbVertex
100
AcDb2dVertex
 10
-0.9999999999999998
 20
-0.0994897959183674
 30
0.0
  0
SEQEND
  5
115
330
112
100
AcDbEntity
  8
0
 62
     0
  0
SOLID
  5
118
330
10E
100
AcDbEntity
  8
0
 62
     0
100
AcDbTrace
 10
-0.9999999999999998
 20
-0.0994897959183674
 30
0.0
 11
0.0
 21
0.0
 31
0.0
 12
-0.9999999999999998
 22
0.0994897959183674
 32
0.0
 13
-0.9999999999999998
 23
-0.0994897959183674
 33
0.0
  0
LINE
  5
119
330
10E
100
AcDbEntity
  8
0
 62
     0
100
AcDbLine
 10
-0.9999999999999998
 20
-0.0994897959183674
 30
0.0
 11
0.0
 21
0.0
 31
0.0
  0
LINE
  5
11A
330
10E
100
AcDbEntity
  8
0
 62
     0
100
AcDbLine
 10
0.0
 20
0.0
 30
0.0
 11
-0.9999999999999998
 21
0.0994897959183674
 31
0.0
  0
LINE
  5
11B
330
10E
100
AcDbEntity
  8
0
 62
     0
100
AcDbLine
 10
-0.9999999999999998
 20
0.0994897959183674
 30
0.0
 11
-0.9999999999999998
 21
-0.0994897959183674
 31
0.0
  0
ENDBLK
  5
110
330
10E
100
AcDbEntity
  8
0
100
AcDbBlockEnd
  0
BLOCK
  5
13B
330
13A
100
AcDbEntity
  8
0
100
AcDbBlockBegin
  2
*D4
 70
     1
 10
0.0
 20
0.0
 30
0.0
  3
*D4
  1

  0
LINE
  5
219
330
13A
100
AcDbEntity
  8
Dimension (ANSI)
100
AcDbLine
 10
10.26032882935595
 20
6.652175560507505
 30
0.0
 11
10.26032882935595
 21
3.938217930211293
 31
0.0
  0
LINE
  5
21A
330
13A
100
AcDbEntity
  8
Dimension (ANSI)
100
AcDbLine
 10
3.380328829355947
 20
6.652175560507505
 30
0.0
 11
3.380328829355947
 21
3.938217930211293
 31
0.0
  0
LINE
  5
21B
330
13A
100
AcDbEntity
  8
Dimension (ANSI)
100
AcDbLine
 10
10.11972140846868
 20
4.116789358782721
 30
0.0
 11
7.08493369061561
 21
4.116789358782721
 31
0.0
  0
LINE
  5
21C
330
13A
100
AcDbEntity
  8
Dimension (ANSI)
100
AcDbLine
 10
3.520936250243213
 20
4.116789358782721
 30
0.0
 11
6.555723968096287
 21
4.116789358782721
 31
0.0
  0
SOLID
  5
21D
330
13A
100
AcDbEntity
  8
Dimension (ANSI)
100
AcDbTrace
 10
10.11972140846868
 20
4.140223928930598
 30
0.0
 11
10.11972140846868
 21
4.093354788634844
 31
0.0
 12
10.26032882935595
 22
4.116789358782721
 32
0.0
 13
10.26032882935595
 23
4.116789358782721
 33
0.0
  0
SOLID
  5
21E
330
13A
100
AcDbEntity
  8
Dimension (ANSI)
100
AcDbTrace
 10
3.520936250243213
 20
4.140223928930598
 30
0.0
 11
3.520936250243213
 21
4.093354788634844
 31
0.0
 12
3.380328829355947
 22
4.116789358782721
 32
0.0
 13
3.380328829355947
 23
4.116789358782721
 33
0.0
  0
MTEXT
  5
21F
330
13A
100
AcDbEntity
  8
Dimension (ANSI)
100
AcDbMText
 10
6.600718343799325
 20
4.206418068091152
 30
0.0
 40
0.1714285782405308
 41
0.0
 71
     1
 72
     1
  1
\A1;6.88
  7
Note Text (ANSI)
 73
     1
 44
1.0
1001
ACAD
1000
MTEXTBEGIN
1070
    73
1070
     1
1070
    44
1040
1.0
1070
    74
1070
     0
1000
MTEXTEND
  0
POINT
  5
220
330
13A
100
AcDbEntity
  8
Defpoints
 62
     0
100
AcDbPoint
 10
10.26032882935595
 20
6.741461274793219
 30
0.0
  0
POINT
  5
221
330
13A
100
AcDbEntity
  8
Defpoints
 62
     0
100
AcDbPoint
 10
3.380328829355947
 20
6.741461274793219
 30
0.0
  0
POINT
  5
222
330
13A
100
AcDbEntity
  8
Defpoints
 62
     0
100
AcDbPoint
 10
3.380328829355947
 20
4.116789358782721
 30
0.0
  0
ENDBLK
  5
13C
330
13A
100
AcDbEntity
  8
0
100
AcDbBlockEnd
  0
BLOCK
  5
225
330
224
100
AcDbEntity
  8
0
100
AcDbBlockBegin
  2
*D5
 70
     1
 10
0.0
 20
0.0
 30
0.0
  3
*D5
  1

  0
LINE
  5
303
330
224
100
AcDbEntity
  8
Dimension (ANSI)
100
AcDbLine
 10
3.291043115070233
 20
6.741461274793219
 30
0.0
 11
1.289496433405442
 21
6.74146127479322
 31
0.0
  0
LINE
  5
304
330
224
100
AcDbEntity
  8
Dimension (ANSI)
100
AcDbLine
 10
3.291043115070231
 20
13.62146127479322
 30
0.0
 11
1.289496433405443
 21
13.62146127479322
 31
0.0
  0
LINE
  5
305
330
224
100
AcDbEntity
  8
Dimension (ANSI)
100
AcDbLine
 10
1.46806786197687
 20
6.882068695680485
 30
0.0
 11
1.468067861976871
 21
10.04683818978175
 31
0.0
  0
LINE
  5
306
330
224
100
AcDbEntity
  8
Dimension (ANSI)
100
AcDbLine
 10
1.468067861976872
 20
13.48085385390595
 30
0.0
 11
1.468067861976871
 21
10.31608435980468
 31
0.0
  0
SOLID
  5
307
330
224
100
AcDbEntity
  8
Dimension (ANSI)
100
AcDbTrace
 10
1.444633291828993
 20
6.882068695680485
 30
0.0
 11
1.491502432124748
 21
6.882068695680485
 31
0.0
 12
1.46806786197687
 22
6.74146127479322
 32
0.0
 13
1.46806786197687
 23
6.74146127479322
 33
0.0
  0
SOLID
  5
308
330
224
100
AcDbEntity
  8
Dimension (ANSI)
100
AcDbTrace
 10
1.444633291828994
 20
13.48085385390595
 30
0.0
 11
1.491502432124749
 21
13.48085385390595
 31
0.0
 12
1.468067861976872
 22
13.62146127479322
 32
0.0
 13
1.468067861976872
 23
13.62146127479322
 33
0.0
  0
MTEXT
  5
309
330
224
100
AcDbEntity
  8
Dimension (ANSI)
100
AcDbMText
 10
1.248457376420246
 20
10.27108998410165
 30
0.0
 40
0.1714285782405308
 41
0.0
 71
     1
 72
     1
  1
\A1;6.88
  7
Note Text (ANSI)
 73
     1
 44
1.0
1001
ACAD
1000
MTEXTBEGIN
1070
    73
1070
     1
1070
    44
1040
1.0
1070
    74
1070
     0
1000
MTEXTEND
  0
POINT
  5
30A
330
224
100
AcDbEntity
  8
Defpoints
 62
     0
100
AcDbPoint
 10
3.380328829355947
 20
6.741461274793219
 30
0.0
  0
POINT
  5
30B
330
224
100
AcDbEntity
  8
Defpoints
 62
     0
100
AcDbPoint
 10
3.380328829355945
 20
13.62146127479322
 30
0.0
  0
POINT
  5
30C
330
224
100
AcDbEntity
  8
Defpoints
 62
     0
100
AcDbPoint
 10
1.468067861976872
 20
13.62146127479322
 30
0.0
  0
ENDBLK
  5
226
330
224
100
AcDbEntity
  8
0
100
AcDbBlockEnd
  0
BLOCK
  5
30F
330
30E
100
AcDbEntity
  8
0
100
AcDbBlockBegin
  2
*D6
 70
     1
 10
0.0
 20
0.0
 30
0.0
  3
*D6
  1

  0
LINE
  5
416
330
30E
100
AcDbEntity
  8
Dimension (ANSI)
100
AcDbLine
 10
3.291043115070233
 20
6.741461274793219
 30
0.0
 11
2.441587118344345
 21
6.741461274793219
 31
0.0
  0
LINE
  5
417
330
30E
100
AcDbEntity
  8
Dimension (ANSI)
100
AcDbLine
 10
3.463543115070233
 20
7.054461274793218
 30
0.0
 11
2.441587118344346
 21
7.054461274793218
 31
0.0
  0
LINE
  5
418
330
30E
100
AcDbEntity
  8
Dimension (ANSI)
100
AcDbLine
 10
2.620158546915774
 20
7.195068695680483
 30
0.0
 11
2.620158546915774
 21
7.33567611656775
 31
0.0
  0
LINE
  5
419
330
30E
100
AcDbEntity
  8
Dimension (ANSI)
100
AcDbLine
 10
2.620158546915774
 20
6.600853853905953
 30
0.0
 11
2.620158546915774
 21
5.796923505523438
 31
0.0
  0
LINE
  5
41A
330
30E
100
AcDbEntity
  8
Dimension (ANSI)
100
AcDbLine
 10
2.620158546915774
 20
5.796923505523438
 30
0.0
 11
2.479551126028508
 21
5.796923505523438
 31
0.0
  0
SOLID
  5
41B
330
30E
100
AcDbEntity
  8
Dimension (ANSI)
100
AcDbTrace
 10
2.596723976767897
 20
7.195068695680483
 30
0.0
 11
2.643593117063652
 21
7.195068695680483
 31
0.0
 12
2.620158546915774
 22
7.054461274793218
 32
0.0
 13
2.620158546915774
 23
7.054461274793218
 33
0.0
  0
SOLID
  5
41C
330
30E
100
AcDbEntity
  8
Dimension (ANSI)
100
AcDbTrace
 10
2.596723976767896
 20
6.600853853905953
 30
0.0
 11
2.643593117063652
 21
6.600853853905953
 31
0.0
 12
2.620158546915774
 22
6.741461274793219
 32
0.0
 13
2.620158546915774
 23
6.741461274793219
 33
0.0
  0
MTEXT
  5
41D
330
30E
100
AcDbEntity
  8
Dimension (ANSI)
100
AcDbMText
 10
2.208096029439557
 20
5.796923505523439
 30
0.0
 40
0.1714285782405308
 41
0.0
 71
     5
 72
     1
  1
\A1;0.31{\PTYP.}
  7
Note Text (ANSI)
 73
     1
 44
1.0
1001
ACAD
1000
MTEXTBEGIN
1070
    73
1070
     1
1070
    44
1040
1.0
1070
    74
1070
     0
1000
MTEXTEND
  0
POINT
  5
41E
330
30E
100
AcDbEntity
  8
Defpoints
 62
     0
100
AcDbPoint
 10
3.380328829355947
 20
6.741461274793219
 30
0.0
  0
POINT
  5
41F
330
30E
100
AcDbEntity
  8
Defpoints
 62
     0
100
AcDbPoint
 10
3.552828829355947
 20
7.054461274793218
 30
0.0
  0
POINT
  5
420
330
30E
100
AcDbEntity
  8
Defpoints
 62
     0
100
AcDbPoint
 10
2.620158546915774
 20
7.054461274793218
 30
0.0
  0
ENDBLK
  5
310
330
30E
100
AcDbEntity
  8
0
100
AcDbBlockEnd
  0
BLOCK
  5
423
330
422
100
AcDbEntity
  8
0
100
AcDbBlockBegin
  2
*D7
 70
     1
 10
0.0
 20
0.0
 30
0.0
  3
*D7
  1

  0
LINE
  5
515
330
422
100
AcDbEntity
  8
Dimension (ANSI)
100
AcDbLine
 10
3.380328829355947
 20
6.652175560507505
 30
0.0
 11
3.380328829355947
 21
4.72561950501444
 31
0.0
  0
LINE
  5
516
330
422
100
AcDbEntity
  8
Dimension (ANSI)
100
AcDbLine
 10
3.693328829355947
 20
6.856175560507504
 30
0.0
 11
3.693328829355947
 21
4.72561950501444
 31
0.0
  0
LINE
  5
517
330
422
100
AcDbEntity
  8
Dimension (ANSI)
100
AcDbLine
 10
3.833936250243213
 20
4.904190933585869
 30
0.0
 11
3.974543671130479
 21
4.904190933585869
 31
0.0
  0
LINE
  5
518
330
422
100
AcDbEntity
  8
Dimension (ANSI)
100
AcDbLine
 10
3.239721408468681
 20
4.904190933585869
 30
0.0
 11
2.523470878633266
 21
4.904190933585869
 31
0.0
  0
SOLID
  5
519
330
422
100
AcDbEntity
  8
Dimension (ANSI)
100
AcDbTrace
 10
3.833936250243213
 20
4.927625503733747
 30
0.0
 11
3.833936250243213
 21
4.880756363437992
 31
0.0
 12
3.693328829355947
 22
4.904190933585869
 32
0.0
 13
3.693328829355947
 23
4.904190933585869
 33
0.0
  0
SOLID
  5
51A
330
422
100
AcDbEntity
  8
Dimension (ANSI)
100
AcDbTrace
 10
3.239721408468681
 20
4.927625503733747
 30
0.0
 11
3.239721408468681
 21
4.880756363437992
 31
0.0
 12
3.380328829355947
 22
4.904190933585869
 32
0.0
 13
3.380328829355947
 23
4.904190933585869
 33
0.0
  0
MTEXT
  5
51B
330
422
100
AcDbEntity
  8
Dimension (ANSI)
100
AcDbMText
 10
2.252015782044316
 20
4.904190933585869
 30
0.0
 40
0.1714285782405308
 41
0.0
 71
     5
 72
     1
  1
\A1;0.31{\PTYP.}
  7
Note Text (ANSI)
 73
     1
 44
1.0
1001
ACAD
1000
MTEXTBEGIN
1070
    73
1070
     1
1070
    44
1040
1.0
1070
    74
1070
     0
1000
MTEXTEND
  0
POINT
  5
51C
330
422
100
AcDbEntity
  8
Defpoints
 62
     0
100
AcDbPoint
 10
3.380328829355947
 20
6.741461274793219
 30
0.0
  0
POINT
  5
51D
330
422
100
AcDbEntity
  8
Defpoints
 62
     0
100
AcDbPoint
 10
3.693328829355947
 20
6.945461274793219
 30
0.0
  0
POINT
  5
51E
330
422
100
AcDbEntity
  8
Defpoints
 62
     0
100
AcDbPoint
 10
3.693328829355947
 20
4.904190933585869
 30
0.0
  0
ENDBLK
  5
424
330
422
100
AcDbEntity
  8
0
100
AcDbBlockEnd
  0
BLOCK
  5
521
330
520
100
AcDbEntity
  8
0
100
AcDbBlockBegin
  2
*D8
 70
     1
 10
0.0
 20
0.0
 30
0.0
  3
*D8
  1

  0
LINE
  5
5FF
330
520
100
AcDbEntity
  8
Dimension (ANSI)
100
AcDbLine
 10
3.693328829355948
 20
6.856175560507504
 30
0.0
 11
3.693328829355948
 21
4.72561950501444
 31
0.0
  0
LINE
  5
600
330
520
100
AcDbEntity
  8
Dimension (ANSI)
100
AcDbLine
 10
4.693328829355947
 20
6.840175560507502
 30
0.0
 11
4.693328829355947
 21
4.72561950501444
 31
0.0
  0
LINE
  5
601
330
520
100
AcDbEntity
  8
Dimension (ANSI)
100
AcDbLine
 10
3.833936250243214
 20
4.904190933585869
 30
0.0
 11
4.552721408468682
 21
4.904190933585869
 31
0.0
  0
LINE
  5
602
330
520
100
AcDbEntity
  8
Dimension (ANSI)
100
AcDbLine
 10
4.693328829355947
 20
4.904190933585869
 30
0.0
 11
4.947460901368422
 21
4.904190933585869
 31
0.0
  0
SOLID
  5
603
330
520
100
AcDbEntity
  8
Dimension (ANSI)
100
AcDbTrace
 10
3.833936250243214
 20
4.927625503733747
 30
0.0
 11
3.833936250243214
 21
4.880756363437992
 31
0.0
 12
3.693328829355948
 22
4.904190933585869
 32
0.0
 13
3.693328829355948
 23
4.904190933585869
 33
0.0
  0
SOLID
  5
604
330
520
100
AcDbEntity
  8
Dimension (ANSI)
100
AcDbTrace
 10
4.552721408468682
 20
4.927625503733747
 30
0.0
 11
4.552721408468682
 21
4.880756363437992
 31
0.0
 12
4.693328829355947
 22
4.904190933585869
 32
0.0
 13
4.693328829355947
 23
4.904190933585869
 33
0.0
  0
MTEXT
  5
605
330
520
100
AcDbEntity
  8
Dimension (ANSI)
100
AcDbMText
 10
4.99245527707146
 20
4.99341668787493
 30
0.0
 40
0.1714285782405308
 41
0.0
 71
     1
 72
     1
  1
\A1;1.000
  7
Note Text (ANSI)
 73
     1
 44
1.0
1001
ACAD
1000
MTEXTBEGIN
1070
    73
1070
     1
1070
    44
1040
1.0
1070
    74
1070
     0
1000
MTEXTEND
  0
POINT
  5
606
330
520
100
AcDbEntity
  8
Defpoints
 62
     0
100
AcDbPoint
 10
3.693328829355948
 20
6.945461274793219
 30
0.0
  0
POINT
  5
607
330
520
100
AcDbEntity
  8
Defpoints
 62
     0
100
AcDbPoint
 10
4.693328829355947
 20
6.929461274793217
 30
0.0
  0
POINT
  5
608
330
520
100
AcDbEntity
  8
Defpoints
 62
     0
100
AcDbPoint
 10
4.693328829355947
 20
4.904190933585869
 30
0.0
  0
ENDBLK
  5
522
330
520
100
AcDbEntity
  8
0
100
AcDbBlockEnd
  0
BLOCK
  5
60B
330
60A
100
AcDbEntity
  8
0
100
AcDbBlockBegin
  2
*D9
 70
     1
 10
0.0
 20
0.0
 30
0.0
  3
*D9
  1

  0
LINE
  5
6BB
330
60A
100
AcDbEntity
  8
Dimension (ANSI)
100
AcDbLine
 10
6.621113655420868
 20
6.043186433947961
 30
0.0
 11
6.444908234116484
 21
6.043186433947961
 31
0.0
  0
LINE
  5
6BC
330
60A
100
AcDbEntity
  8
Dimension (ANSI)
100
AcDbLine
 10
6.444908234116484
 20
6.043186433947961
 30
0.0
 11
4.923351603277998
 21
6.921657564349609
 31
0.0
  0
MTEXT
  5
6BD
102
{ACAD_XDICTIONARY
360
8E7
102
}
330
60A
100
AcDbEntity
  8
Dimension (ANSI)
100
AcDbMText
 10
6.666108031123904
 20
6.17054580451454
 30
0.0
 40
0.1714285782405308
 41
0.0
 71
     1
 72
     1
  1
\A1;\U+22050.250{\PGROUND\P HOLE}
  7
Note Text (ANSI)
 73
     1
 44
1.0
1001
ACAD
1000
MTEXTBEGIN
1070
    73
1070
     1
1070
    44
1040
1.0
1070
    74
1070
     0
1000
MTEXTEND
  0
SOLID
  5
6BE
330
60A
100
AcDbEntity
  8
Dimension (ANSI)
100
AcDbTrace
 10
4.935068888351934
 20
6.94195249742444
 30
0.0
 11
4.911634318204061
 21
6.901362631274778
 31
0.0
 12
4.801582004829008
 22
6.991961274793229
 32
0.0
 13
4.801582004829008
 23
6.991961274793229
 33
0.0
  0
LINE
  5
6BF
330
60A
100
AcDbEntity
  8
Dimension (ANSI)
100
AcDbLine
 10
4.564757400784518
 20
7.054461274793217
 30
0.0
 11
4.821900257927374
 21
7.054461274793217
 31
0.0
  0
LINE
  5
6C0
330
60A
100
AcDbEntity
  8
Dimension (ANSI)
100
AcDbLine
 10
4.693328829355947
 20
6.925889846221789
 30
0.0
 11
4.693328829355946
 21
7.183032703364646
 31
0.0
  0
POINT
  5
6C1
330
60A
100
AcDbEntity
  8
Defpoints
 62
     0
100
AcDbPoint
 10
4.801582004829008
 20
6.991961274793229
 30
0.0
  0
POINT
  5
6C2
330
60A
100
AcDbEntity
  8
Defpoints
 62
     0
100
AcDbPoint
 10
4.585075653882886
 20
7.116961274793206
 30
0.0
  0
ENDBLK
  5
60C
330
60A
100
AcDbEntity
  8
0
100
AcDbBlockEnd
  0
BLOCK
  5
6C5
330
6C4
100
AcDbEntity
  8
0
100
AcDbBlockBegin
  2
*D10
 70
     1
 10
0.0
 20
0.0
 30
0.0
  3
*D10
  1

  0
LINE
  5
760
330
6C4
100
AcDbEntity
  8
Dimension (ANSI)
100
AcDbLine
 10
11.35705953280009
 20
8.303357586872593
 30
0.0
 11
11.21597065771902
 21
8.303357586872591
 31
0.0
  0
LINE
  5
761
330
6C4
100
AcDbEntity
  8
Dimension (ANSI)
100
AcDbLine
 10
11.21597065771902
 20
8.303357586872591
 30
0.0
 11
10.15449144285047
 21
7.23179291546195
 31
0.0
  0
MTEXT
  5
762
330
6C4
100
AcDbEntity
  8
Dimension (ANSI)
100
AcDbMText
 10
11.40205390850313
 20
8.437605569436971
 30
0.0
 40
0.1714285782405308
 41
0.0
 71
     1
 72
     1
  1
\A1; 0.218 X 0.281\POBROUND\PTYP. (4 PL.)
  7
Note Text (ANSI)
 73
     1
 44
1.0
1001
ACAD
1000
MTEXTBEGIN
1070
    73
1070
     1
1070
    44
1040
1.0
1070
    74
1070
     0
1000
MTEXTEND
  0
SOLID
  5
763
330
6C4
100
AcDbEntity
  8
Dimension (ANSI)
100
AcDbTrace
 10
10.13784253570694
 20
7.248285124802778
 30
0.0
 11
10.17114034999401
 21
7.215300706121121
 31
0.0
 12
10.0555381868055
 22
7.131899472600732
 32
0.0
 13
10.0555381868055
 23
7.131899472600732
 33
0.0
  0
POINT
  5
764
330
6C4
100
AcDbEntity
  8
Defpoints
 62
     0
100
AcDbPoint
 10
10.0555381868055
 20
7.131899472600732
 30
0.0
  0
POINT
  5
765
330
6C4
100
AcDbEntity
  8
Defpoints
 62
     0
100
AcDbPoint
 10
9.978828829355952
 20
7.05446127479322
 30
0.0
  0
ENDBLK
  5
6C6
330
6C4
100
AcDbEntity
  8
0
100
AcDbBlockEnd
  0
BLOCK
  5
7A5
330
7A4
100
AcDbEntity
  8
0
100
AcDbBlockBegin
  2
*D11
 70
     1
 10
0.0
 20
0.0
 30
0.0
  3
*D11
  1

  0
LINE
  5
894
330
7A4
100
AcDbEntity
  8
Dimension (ANSI)
100
AcDbLine
 10
14.55959586884086
 20
12.79947883741653
 30
0.0
 11
14.41898844795359
 21
12.79947883741653
 31
0.0
  0
LINE
  5
895
330
7A4
100
AcDbEntity
  8
Dimension (ANSI)
100
AcDbLine
 10
14.91481071061539
 20
12.79947883741653
 30
0.0
 11
15.20877535150911
 21
12.79947883741653
 31
0.0
  0
SOLID
  5
896
330
7A4
100
AcDbEntity
  8
Dimension (ANSI)
100
AcDbTrace
 10
14.55959586884086
 20
12.8229134075644
 30
0.0
 11
14.55959586884086
 21
12.77604426726865
 31
0.0
 12
14.70020328972812
 22
12.79947883741653
 32
0.0
 13
14.70020328972812
 23
12.79947883741653
 33
0.0
  0
SOLID
  5
897
330
7A4
100
AcDbEntity
  8
Dimension (ANSI)
100
AcDbTrace
 10
14.91481071061539
 20
12.8229134075644
 30
0.0
 11
14.91481071061539
 21
12.77604426726865
 31
0.0
 12
14.77420328972812
 22
12.79947883741653
 32
0.0
 13
14.77420328972812
 23
12.79947883741653
 33
0.0
  0
MTEXT
  5
898
330
7A4
100
AcDbEntity
  8
Dimension (ANSI)
100
AcDbMText
 10
15.25376972721215
 20
12.92616661628416
 30
0.0
 40
0.1714285782405308
 41
0.0
 71
     1
 72
     1
  1
\A1;(0.074){\P14 GA.\PGALV}
  7
Note Text (ANSI)
 73
     1
 44
1.0
1001
ACAD
1000
MTEXTBEGIN
1070
    73
1070
     1
1070
    44
1040
1.0
1070
    74
1070
     0
1000
MTEXTEND
  0
POINT
  5
899
330
7A4
100
AcDbEntity
  8
Defpoints
 62
     0
100
AcDbPoint
 10
14.77420328972812
 20
12.79947883741653
 30
0.0
  0
POINT
  5
89A
330
7A4
100
AcDbEntity
  8
Defpoints
 62
     0
100
AcDbPoint
 10
14.70020328972812
 20
12.79947883741653
 30
0.0
  0
POINT
  5
89B
330
7A4
100
AcDbEntity
  8
Defpoints
 62
     0
100
AcDbPoint
 10
14.70020328972812
 20
12.79947883741653
 30
0.0
  0
ENDBLK
  5
7A6
330
7A4
100
AcDbEntity
  8
0
100
AcDbBlockEnd
  0
ENDSEC
  0
SECTION
  2
ENTITIES
  0
CIRCLE
  5
11D
330
6C
100
AcDbEntity
  8
Visible (ANSI)
100
AcDbCircle
 10
4.693328829355947
 20
7.054461274793219
 30
0.0
 40
0.125
  0
LINE
  5
11E
330
6C
100
AcDbEntity
  8
Visible (ANSI)
100
AcDbLine
 10
3.661828829355946
 20
7.163461274793219
 30
0.0
 11
3.724828829355947
 21
7.163461274793219
 31
0.0
  0
ARC
  5
11F
330
6C
100
AcDbEntity
  8
Visible (ANSI)
100
AcDbCircle
 10
3.661828829355946
 20
7.054461274793219
 30
0.0
 40
0.109
100
AcDbArc
 50
90.0
 51
270.0
  0
LINE
  5
120
330
6C
100
AcDbEntity
  8
Visible (ANSI)
100
AcDbLine
 10
3.724828829355947
 20
6.945461274793219
 30
0.0
 11
3.661828829355946
 21
6.945461274793219
 31
0.0
  0
ARC
  5
121
330
6C
100
AcDbEntity
  8
Visible (ANSI)
100
AcDbCircle
 10
3.724828829355947
 20
7.054461274793219
 30
0.0
 40
0.1090000000000001
100
AcDbArc
 50
270.0
 51
90.0
  0
LINE
  5
122
330
6C
100
AcDbEntity
  8
Visible (ANSI)
100
AcDbLine
 10
9.915828829355945
 20
13.41746127479322
 30
0.0
 11
9.978828829355947
 21
13.41746127479322
 31
0.0
  0
ARC
  5
123
330
6C
100
AcDbEntity
  8
Visible (ANSI)
100
AcDbCircle
 10
9.915828829355945
 20
13.30846127479322
 30
0.0
 40
0.1089999999999997
100
AcDbArc
 50
90.0
 51
270.0
  0
LINE
  5
124
330
6C
100
AcDbEntity
  8
Visible (ANSI)
100
AcDbLine
 10
9.978828829355947
 20
13.19946127479322
 30
0.0
 11
9.915828829355945
 21
13.19946127479322
 31
0.0
  0
ARC
  5
125
330
6C
100
AcDbEntity
  8
Visible (ANSI)
100
AcDbCircle
 10
9.978828829355947
 20
13.30846127479322
 30
0.0
 40
0.1089999999999997
100
AcDbArc
 50
270.0
 51
90.0
  0
LINE
  5
126
330
6C
100
AcDbEntity
  8
Visible (ANSI)
100
AcDbLine
 10
9.915828829355946
 20
7.163461274793219
 30
0.0
 11
9.978828829355949
 21
7.163461274793219
 31
0.0
  0
ARC
  5
127
330
6C
100
AcDbEntity
  8
Visible (ANSI)
100
AcDbCircle
 10
9.915828829355946
 20
7.054461274793219
 30
0.0
 40
0.109
100
AcDbArc
 50
90.0
 51
270.0
  0
LINE
  5
128
330
6C
100
AcDbEntity
  8
Visible (ANSI)
100
AcDbLine
 10
9.978828829355949
 20
6.945461274793219
 30
0.0
 11
9.915828829355946
 21
6.945461274793219
 31
0.0
  0
ARC
  5
129
330
6C
100
AcDbEntity
  8
Visible (ANSI)
100
AcDbCircle
 10
9.978828829355949
 20
7.054461274793219
 30
0.0
 40
0.109
100
AcDbArc
 50
270.0
 51
90.0
  0
LINE
  5
12A
330
6C
100
AcDbEntity
  8
Visible (ANSI)
100
AcDbLine
 10
3.661828829355945
 20
13.41746127479322
 30
0.0
 11
3.724828829355945
 21
13.41746127479322
 31
0.0
  0
ARC
  5
12B
330
6C
100
AcDbEntity
  8
Visible (ANSI)
100
AcDbCircle
 10
3.661828829355945
 20
13.30846127479322
 30
0.0
 40
0.1089999999999997
100
AcDbArc
 50
90.00000000000024
 51
270.0000000000002
  0
LINE
  5
12C
330
6C
100
AcDbEntity
  8
Visible (ANSI)
100
AcDbLine
 10
3.724828829355945
 20
13.19946127479322
 30
0.0
 11
3.661828829355945
 21
13.19946127479322
 31
0.0
  0
ARC
  5
12D
330
6C
100
AcDbEntity
  8
Visible (ANSI)
100
AcDbCircle
 10
3.724828829355946
 20
13.30846127479322
 30
0.0
 40
0.1089999999999997
100
AcDbArc
 50
270.0000000000002
 51
90.00000000000021
  0
LINE
  5
12E
330
6C
100
AcDbEntity
  8
Visible (ANSI)
100
AcDbLine
 10
3.380328829355947
 20
6.741461274793219
 30
0.0
 11
3.380328829355945
 21
13.62146127479322
 31
0.0
  0
LINE
  5
12F
330
6C
100
AcDbEntity
  8
Visible (ANSI)
100
AcDbLine
 10
3.380328829355945
 20
13.62146127479322
 30
0.0
 11
10.26032882935595
 21
13.62146127479322
 31
0.0
  0
LINE
  5
130
330
6C
100
AcDbEntity
  8
Visible (ANSI)
100
AcDbLine
 10
10.26032882935595
 20
13.62146127479322
 30
0.0
 11
10.26032882935595
 21
6.741461274793219
 31
0.0
  0
LINE
  5
131
330
6C
100
AcDbEntity
  8
Visible (ANSI)
100
AcDbLine
 10
10.26032882935595
 20
6.741461274793219
 30
0.0
 11
3.380328829355947
 21
6.741461274793219
 31
0.0
  0
MTEXT
  5
133
330
6C
100
AcDbEntity
  8
Symbol (ANSI)
100
AcDbMText
 10
6.319624890964819
 20
3.042226173854439
 30
0.0
 40
0.1714285735472517
 41
0.0
 71
     7
 72
     1
  1
FRONT VIEW
  7
Text Style150
 73
     1
 44
1.0
1001
ACAD
1000
MTEXTBEGIN
1070
    73
1070
     1
1070
    44
1040
1.0
1070
    74
1070
     0
1000
MTEXTEND
  0
LINE
  5
135
330
6C
100
AcDbEntity
  8
Symbol (ANSI)
370
    30
100
AcDbLine
 10
6.302481989724266
 20
3.00726669189031
 30
0.0
 11
7.680717710132377
 21
3.00726669189031
 31
0.0
  0
MTEXT
  5
136
330
6C
100
AcDbEntity
  8
Symbol (ANSI)
100
AcDbMText
 10
6.936378736228292
 20
2.655535877743261
 30
0.0
 40
0.257142851940022
 41
0.0
 71
     7
 72
     1
  1
 
  7
Label Text (ANSI)
 73
     1
 44
1.0
1001
ACAD
1000
MTEXTBEGIN
1070
    73
1070
     1
1070
    44
1040
1.0
1070
    74
1070
     0
1000
MTEXTEND
  0
DIMENSION
  5
137
330
6C
100
AcDbEntity
  8
Dimension (ANSI)
100
AcDbDimension
  2
*D4
 10
3.380328829355947
 20
4.116789358782721
 30
0.0
 11
6.820328829355949
 21
4.116789358782721
 31
0.0
 70
   160
  1
<>
 42
6.88
  3
Default (ANSI)-01
100
AcDbAlignedDimension
 13
10.26032882935595
 23
6.741461274793219
 33
0.0
 14
3.380328829355947
 24
6.741461274793219
 34
0.0
 50
180.0
100
AcDbRotatedDimension
1001
ACAD
1000
DSTYLE
1002
{
1070
   289
1070
     1
1070
    73
1070
     0
1070
    74
1070
     0
1070
   271
1070
     2
1070
   272
1070
     2
1070
    48
1040
0.0
1070
    47
1040
0.0
1002
}
  0
DIMENSION
  5
223
330
6C
100
AcDbEntity
  8
Dimension (ANSI)
100
AcDbDimension
  2
*D5
 10
1.468067861976872
 20
13.62146127479322
 30
0.0
 11
1.468067861976869
 21
10.18146127479322
 31
0.0
 70
   160
  1
<>
 42
6.88
  3
Default (ANSI)-01
100
AcDbAlignedDimension
 13
3.380328829355947
 23
6.741461274793219
 33
0.0
 14
3.380328829355945
 24
13.62146127479322
 34
0.0
 50
90.0
100
AcDbRotatedDimension
1001
ACAD
1000
DSTYLE
1002
{
1070
   289
1070
     1
1070
   271
1070
     2
1070
   272
1070
     2
1070
    48
1040
0.0
1070
    47
1040
0.0
1002
}
  0
DIMENSION
  5
30D
330
6C
100
AcDbEntity
  8
Dimension (ANSI)
100
AcDbDimension
  2
*D6
 10
2.620158546915774
 20
7.054461274793218
 30
0.0
 11
2.208096029439557
 21
5.796923505523439
 31
0.0
 70
   160
  1
<>{\PTYP.}
 71
     5
 42
0.3129999999999988
  3
Default (ANSI)-01
100
AcDbAlignedDimension
 13
3.380328829355947
 23
6.741461274793219
 33
0.0
 14
3.552828829355947
 24
7.054461274793218
 34
0.0
 50
90.0
100
AcDbRotatedDimension
1001
ACAD
1000
DSTYLE
1002
{
1070
   289
1070
     1
1070
   271
1070
     2
1070
   272
1070
     2
1070
    48
1040
0.0
1070
    47
1040
0.0
1002
}
  0
DIMENSION
  5
421
330
6C
100
AcDbEntity
  8
Dimension (ANSI)
100
AcDbDimension
  2
*D7
 10
3.693328829355947
 20
4.904190933585869
 30
0.0
 11
2.252015782044316
 21
4.904190933585869
 31
0.0
 70
   160
  1
<>{\PTYP.}
 71
     5
 42
0.3130000000000002
  3
Default (ANSI)-01
100
AcDbAlignedDimension
 13
3.380328829355947
 23
6.741461274793219
 33
0.0
 14
3.693328829355947
 24
6.945461274793219
 34
0.0
 50
180.0
100
AcDbRotatedDimension
1001
ACAD
1000
DSTYLE
1002
{
1070
   289
1070
     1
1070
    73
1070
     0
1070
    74
1070
     0
1070
   271
1070
     2
1070
   272
1070
     2
1070
    48
1040
0.0
1070
    47
1040
0.0
1002
}
  0
DIMENSION
  5
51F
330
6C
100
AcDbEntity
  8
Dimension (ANSI)
100
AcDbDimension
  2
*D8
 10
4.693328829355947
 20
4.904190933585869
 30
0.0
 11
5.267788685306671
 21
4.904190933585869
 31
0.0
 70
   160
  1
<>
 42
0.9999999999999996
  3
Default (ANSI)
100
AcDbAlignedDimension
 13
3.693328829355948
 23
6.945461274793219
 33
0.0
 14
4.693328829355947
 24
6.929461274793217
 34
0.0
 50
180.0
100
AcDbRotatedDimension
1001
ACAD
1000
DSTYLE
1002
{
1070
   289
1070
     2
1070
    73
1070
     0
1070
    74
1070
     0
1070
   271
1070
     3
1070
   272
1070
     2
1070
    48
1040
0.0
1070
    47
1040
0.0
1002
}
  0
DIMENSION
  5
609
330
6C
100
AcDbEntity
  8
Dimension (ANSI)
100
AcDbDimension
  2
*D9
 10
4.585075653882886
 20
7.116961274793206
 30
0.0
 11
7.129851693415951
 21
6.043186433947961
 31
0.0
 70
   163
  1
<>{\PGROUND\P HOLE}
 42
0.25
  3
Default (ANSI)
100
AcDbDiametricDimension
 15
4.801582004829008
 25
6.991961274793229
 35
0.0
 40
0.0
1001
ACAD_DSTYLE_DIMRADIAL_EXTENSION
1070
   387
1070
     1
1070
   388
1040
0.0
1070
   390
1040
0.0
1001
ACAD
1000
DSTYLE
1002
{
1070
   145
1040
-0.3333333333333334
1070
   144
1040
1.000000000000003
1070
   271
1070
     3
1070
   272
1070
     2
1070
    48
1040
0.0
1070
    47
1040
0.0
1002
}
  0
DIMENSION
  5
6C3
330
6C
100
AcDbEntity
  8
Dimension (ANSI)
100
AcDbDimension
  2
*D10
 10
9.978828829355952
 20
7.05446127479322
 30
0.0
 11
12.15770969982732
 21
8.303357586872591
 31
0.0
 70
   164
  1
 0.218 X 0.281\POBROUND\PTYP. (4 PL.)
 42
0.1089999999999947
  3
Default (ANSI)
100
AcDbRadialDimension
 15
10.0555381868055
 25
7.131899472600732
 35
0.0
 40
0.0
1001
ACAD_DSTYLE_DIMRADIAL_EXTENSION
1070
   387
1070
     1
1070
   388
1040
0.0
1070
   390
1040
0.0
1001
ACAD
1000
DSTYLE
1002
{
1070
   145
1040
-0.3333333333333334
1070
   271
1070
     3
1070
   141
1040
0.0
1070
   272
1070
     2
1070
    48
1040
0.0
1070
    47
1040
0.0
1002
}
  0
MTEXT
  5
766
330
6C
100
AcDbEntity
  8
Symbol (ANSI)
100
AcDbMText
 10
17.19460311848227
 20
4.272189486956948
 30
0.0
 40
0.1714285735472517
 41
5.713774359921513
 71
     1
 72
     1
  1
{\fRomanS|b0|i0;\H0.1714;PART#: P0808G\P(DATA SUBJECT TO CHANGE WITHOUT \PNOTICE)\PTHIS DRAWING AND COMPONENTS OF ARE\PPROPERTY OF HUBBELL INC. WIEGMANN}
  7
Note Text (ANSI)
 73
     2
 44
1.093904256820678
1001
ACAD
1000
MTEXTBEGIN
1070
    73
1070
     2
1070
    44
1040
1.093904256820678
1070
    74
1070
     0
1000
MTEXTEND
  0
ELLIPSE
  5
768
330
6C
100
AcDbEntity
  8
Visible (ANSI)
100
AcDbEllipse
 10
19.74389438300169
 20
8.548661951604211
 30
0.0
 11
0.044556447462898
 21
-0.0773735210843881
 31
0.0
210
0.0
220
0.0
230
1.0
 40
0.5780931159158106
 41
3.572615253427366
 42
5.852162707341174
  0
ELLIPSE
  5
769
330
6C
100
AcDbEntity
  8
Visible (ANSI)
100
AcDbEllipse
 10
19.70651873885326
 20
8.52713874958947
 30
0.0
 11
-0.0445564474628933
 21
0.0773735210843906
 31
0.0
210
0.0
220
0.0
230
1.0
 40
0.5780931159158106
 41
0.0
 42
6.283185307179586
  0
LINE
  5
76A
330
6C
100
AcDbEntity
  8
Visible (ANSI)
100
AcDbLine
 10
19.18553256400038
 20
8.890806617721304
 30
0.0
 11
19.21735236915379
 21
8.872482810600653
 31
0.0
  0
ELLIPSE
  5
76B
330
6C
100
AcDbEntity
  8
Visible (ANSI)
100
AcDbEllipse
 10
19.22290820814881
 20
8.848677936444733
 30
0.0
 11
0.038853222187647
 21
-0.0674697103855863
 31
0.0
210
0.0
220
0.0
230
1.0
 40
0.5780931159158105
 41
3.641254264141361
 42
5.499720852204777
  0
ELLIPSE
  5
76C
330
6C
100
AcDbEntity
  8
Visible (ANSI)
100
AcDbEllipse
 10
19.18553256400038
 20
8.827154734429992
 30
0.0
 11
-0.0388532221876389
 21
0.067469710385591
 31
0.0
210
0.0
220
0.0
230
1.0
 40
0.5780931159158106
 41
5.499720852205268
 42
8.641313505795061
  0
LINE
  5
76D
330
6C
100
AcDbEntity
  8
Visible Narrow (ANSI)
100
AcDbLine
 10
19.18553256400038
 20
8.76350285113868
 30
0.0
 11
19.22290820814881
 21
8.785026053153421
 31
0.0
  0
LINE
  5
76E
330
6C
100
AcDbEntity
  8
Visible (ANSI)
100
AcDbLine
 10
19.22290820814881
 20
8.785026053153421
 30
0.0
 11
19.25472801330221
 21
8.766702246032769
 31
0.0
  0
LINE
  5
76F
330
6C
100
AcDbEntity
  8
Visible (ANSI)
100
AcDbLine
 10
19.21735236915379
 20
8.745179044018028
 30
0.0
 11
19.18553256400038
 21
8.76350285113868
 31
0.0
  0
LINE
  5
770
330
6C
100
AcDbEntity
  8
Visible Narrow (ANSI)
100
AcDbLine
 10
19.21735236915379
 20
8.745179044018028
 30
0.0
 11
19.25472801330221
 21
8.766702246032769
 31
0.0
  0
ELLIPSE
  5
771
330
6C
100
AcDbEntity
  8
Visible (ANSI)
100
AcDbEllipse
 10
19.25472801330221
 20
8.83035412932408
 30
0.0
 11
0.0388532221876427
 21
-0.0674697103855883
 31
0.0
210
0.0
220
0.0
230
1.0
 40
0.5780931159158104
 41
5.499720852205022
 42
5.783523696627618
  0
ELLIPSE
  5
772
330
6C
100
AcDbEntity
  8
Visible (ANSI)
100
AcDbEllipse
 10
19.21735236915379
 20
8.80883092730934
 30
0.0
 11
0.0388532221876389
 21
-0.067469710385591
 31
0.0
210
0.0
220
0.0
230
1.0
 40
0.5780931159158107
 41
5.499720852205268
 42
8.641313505795061
  0
LINE
  5
773
330
6C
100
AcDbEntity
  8
Visible (ANSI)
100
AcDbLine
 10
22.34427957081562
 20
10.72390499251299
 30
0.0
 11
22.37609937596902
 21
10.70558118539234
 31
0.0
  0
ELLIPSE
  5
774
330
6C
100
AcDbEntity
  8
Visible (ANSI)
100
AcDbEllipse
 10
22.38165521496404
 20
10.68177631123642
 30
0.0
 11
0.0388532221876469
 21
-0.0674697103855862
 31
0.0
210
0.0
220
0.0
230
0.9999999999999998
 40
0.5780931159158105
 41
3.641254264141375
 42
5.499720852204777
  0
ELLIPSE
  5
775
330
6C
100
AcDbEntity
  8
Visible (ANSI)
100
AcDbEllipse
 10
22.34427957081562
 20
10.66025310922168
 30
0.0
 11
-0.0388532221876388
 21
0.0674697103855908
 31
0.0
210
0.0
220
0.0
230
1.0
 40
0.5780931159158105
 41
5.499720852205268
 42
8.641313505795061
  0
LINE
  5
776
330
6C
100
AcDbEntity
  8
Visible Narrow (ANSI)
100
AcDbLine
 10
22.34427957081562
 20
10.59660122593037
 30
0.0
 11
22.38165521496404
 21
10.61812442794511
 31
0.0
  0
LINE
  5
777
330
6C
100
AcDbEntity
  8
Visible (ANSI)
100
AcDbLine
 10
22.38165521496404
 20
10.61812442794511
 30
0.0
 11
22.41347502011744
 21
10.59980062082446
 31
0.0
  0
LINE
  5
778
330
6C
100
AcDbEntity
  8
Visible (ANSI)
100
AcDbLine
 10
22.37609937596902
 20
10.57827741880972
 30
0.0
 11
22.34427957081562
 21
10.59660122593037
 31
0.0
  0
LINE
  5
779
330
6C
100
AcDbEntity
  8
Visible Narrow (ANSI)
100
AcDbLine
 10
22.37609937596902
 20
10.57827741880972
 30
0.0
 11
22.41347502011744
 21
10.59980062082446
 31
0.0
  0
ELLIPSE
  5
77A
330
6C
100
AcDbEntity
  8
Visible (ANSI)
100
AcDbEllipse
 10
22.41347502011745
 20
10.66345250411576
 30
0.0
 11
0.0388532221876388
 21
-0.0674697103855815
 31
0.0
210
0.0
220
0.0
230
0.9999999999999998
 40
0.5780931159158104
 41
5.499720852205022
 42
5.783523696627648
  0
ELLIPSE
  5
77B
330
6C
100
AcDbEntity
  8
Visible (ANSI)
100
AcDbEllipse
 10
22.37609937596902
 20
10.64192930210103
 30
0.0
 11
0.0388532221876388
 21
-0.0674697103855908
 31
0.0
210
0.0
220
0.0
230
1.0
 40
0.5780931159158105
 41
5.499720852205268
 42
8.641313505795061
  0
LINE
  5
77C
330
6C
100
AcDbEntity
  8
Visible (ANSI)
100
AcDbLine
 10
22.34427957081562
 20
7.071805193394962
 30
0.0
 11
22.37609937596902
 21
7.053481386274309
 31
0.0
  0
ELLIPSE
  5
77D
330
6C
100
AcDbEntity
  8
Visible (ANSI)
100
AcDbEllipse
 10
22.38165521496404
 20
7.029676512118391
 30
0.0
 11
0.0388532221876474
 21
-0.0674697103855871
 31
0.0
210
0.0
220
0.0
230
1.0
 40
0.5780931159158106
 41
3.641254264141345
 42
5.499720852204705
  0
ELLIPSE
  5
77E
330
6C
100
AcDbEntity
  8
Visible (ANSI)
100
AcDbEllipse
 10
22.34427957081562
 20
7.00815331010365
 30
0.0
 11
-0.0388532221876389
 21
0.067469710385591
 31
0.0
210
0.0
220
0.0
230
1.0
 40
0.5780931159158106
 41
5.499720852205268
 42
8.641313505795061
  0
LINE
  5
77F
330
6C
100
AcDbEntity
  8
Visible Narrow (ANSI)
100
AcDbLine
 10
22.34427957081562
 20
6.944501426812339
 30
0.0
 11
22.38165521496404
 21
6.96602462882708
 31
0.0
  0
LINE
  5
780
330
6C
100
AcDbEntity
  8
Visible (ANSI)
100
AcDbLine
 10
22.38165521496404
 20
6.96602462882708
 30
0.0
 11
22.41347502011744
 21
6.947700821706427
 31
0.0
  0
LINE
  5
781
330
6C
100
AcDbEntity
  8
Visible (ANSI)
100
AcDbLine
 10
22.37609937596902
 20
6.926177619691686
 30
0.0
 11
22.34427957081562
 21
6.944501426812339
 31
0.0
  0
LINE
  5
782
330
6C
100
AcDbEntity
  8
Visible Narrow (ANSI)
100
AcDbLine
 10
22.37609937596902
 20
6.926177619691686
 30
0.0
 11
22.41347502011744
 21
6.947700821706427
 31
0.0
  0
ELLIPSE
  5
783
330
6C
100
AcDbEntity
  8
Visible (ANSI)
100
AcDbEllipse
 10
22.41347502011744
 20
7.011352704997735
 30
0.0
 11
0.0388532221876408
 21
-0.0674697103855849
 31
0.0
210
0.0
220
0.0
230
1.0
 40
0.5780931159158106
 41
5.499720852205022
 42
5.783523696627715
  0
ELLIPSE
  5
784
330
6C
100
AcDbEntity
  8
Visible (ANSI)
100
AcDbEllipse
 10
22.37609937596902
 20
6.989829502982998
 30
0.0
 11
0.0388532221876389
 21
-0.067469710385591
 31
0.0
210
0.0
220
0.0
230
1.0
 40
0.5780931159158106
 41
5.499720852205268
 42
8.641313505795061
  0
LINE
  5
785
330
6C
100
AcDbEntity
  8
Visible (ANSI)
100
AcDbLine
 10
19.18553256400038
 20
12.54290641683934
 30
0.0
 11
19.21735236915379
 21
12.52458260971868
 31
0.0
  0
ELLIPSE
  5
786
330
6C
100
AcDbEntity
  8
Visible (ANSI)
100
AcDbEllipse
 10
19.22290820814881
 20
12.50077773556276
 30
0.0
 11
0.0388532221876469
 21
-0.0674697103855862
 31
0.0
210
0.0
220
0.0
230
1.0
 40
0.5780931159158106
 41
3.641254264141375
 42
5.499720852204777
  0
ELLIPSE
  5
787
330
6C
100
AcDbEntity
  8
Visible (ANSI)
100
AcDbEllipse
 10
19.18553256400038
 20
12.47925453354802
 30
0.0
 11
-0.0388532221876388
 21
0.0674697103855907
 31
0.0
210
0.0
220
0.0
230
1.0
 40
0.5780931159158105
 41
5.499720852205268
 42
8.641313505795061
  0
LINE
  5
788
330
6C
100
AcDbEntity
  8
Visible Narrow (ANSI)
100
AcDbLine
 10
19.18553256400038
 20
12.41560265025671
 30
0.0
 11
19.22290820814881
 21
12.43712585227145
 31
0.0
  0
LINE
  5
789
330
6C
100
AcDbEntity
  8
Visible (ANSI)
100
AcDbLine
 10
19.22290820814881
 20
12.43712585227145
 30
0.0
 11
19.25472801330221
 21
12.4188020451508
 31
0.0
  0
LINE
  5
78A
330
6C
100
AcDbEntity
  8
Visible (ANSI)
100
AcDbLine
 10
19.21735236915379
 20
12.39727884313606
 30
0.0
 11
19.18553256400038
 21
12.41560265025671
 31
0.0
  0
LINE
  5
78B
330
6C
100
AcDbEntity
  8
Visible Narrow (ANSI)
100
AcDbLine
 10
19.21735236915379
 20
12.39727884313606
 30
0.0
 11
19.25472801330221
 21
12.4188020451508
 31
0.0
  0
ELLIPSE
  5
78C
330
6C
100
AcDbEntity
  8
Visible (ANSI)
100
AcDbEllipse
 10
19.25472801330221
 20
12.48245392844211
 30
0.0
 11
0.0388532221876438
 21
-0.0674697103855902
 31
0.0
210
0.0
220
0.0
230
0.9999999999999998
 40
0.5780931159158105
 41
5.499720852205022
 42
5.783523696627614
  0
ELLIPSE
  5
78D
330
6C
100
AcDbEntity
  8
Visible (ANSI)
100
AcDbEllipse
 10
19.21735236915379
 20
12.46093072642737
 30
0.0
 11
0.0388532221876388
 21
-0.0674697103855907
 31
0.0
210
0.0
220
0.0
230
1.0
 40
0.5780931159158106
 41
5.499720852205268
 42
8.641313505795061
  0
LINE
  5
78E
330
6C
100
AcDbEntity
  8
Visible (ANSI)
100
AcDbLine
 10
19.04335359335464
 20
8.726249979684856
 30
0.0
 11
19.04335359335464
 21
12.74391013605391
 31
0.0
  0
LINE
  5
78F
330
6C
100
AcDbEntity
  8
Visible (ANSI)
100
AcDbLine
 10
19.08072923750307
 20
12.76543333806865
 30
0.0
 11
19.04335359335464
 21
12.74391013605391
 31
0.0
  0
LINE
  5
790
330
6C
100
AcDbEntity
  8
Visible (ANSI)
100
AcDbLine
 10
19.04335359335464
 20
12.74391013605391
 30
0.0
 11
22.51827834661476
 21
10.74283405684616
 31
0.0
  0
LINE
  5
791
330
6C
100
AcDbEntity
  8
Visible (ANSI)
100
AcDbLine
 10
22.55565399076319
 20
10.7643572588609
 30
0.0
 11
22.51827834661476
 21
10.74283405684616
 31
0.0
  0
LINE
  5
792
330
6C
100
AcDbEntity
  8
Visible (ANSI)
100
AcDbLine
 10
22.55565399076319
 20
10.7643572588609
 30
0.0
 11
19.08072923750307
 21
12.76543333806865
 31
0.0
  0
LINE
  5
793
330
6C
100
AcDbEntity
  8
Visible (ANSI)
100
AcDbLine
 10
22.51827834661476
 20
10.74283405684616
 30
0.0
 11
22.51827834661476
 21
6.725173900477112
 31
0.0
  0
LINE
  5
794
330
6C
100
AcDbEntity
  8
Visible (ANSI)
100
AcDbLine
 10
22.55565399076319
 20
6.746697102491853
 30
0.0
 11
22.51827834661476
 21
6.725173900477112
 31
0.0
  0
LINE
  5
795
330
6C
100
AcDbEntity
  8
Visible (ANSI)
100
AcDbLine
 10
22.55565399076319
 20
6.746697102491853
 30
0.0
 11
22.55565399076319
 21
10.7643572588609
 31
0.0
  0
LINE
  5
796
330
6C
100
AcDbEntity
  8
Visible (ANSI)
100
AcDbLine
 10
22.51827834661476
 20
6.725173900477112
 30
0.0
 11
19.04335359335464
 21
8.726249979684856
 31
0.0
  0
LINE
  5
797
330
6C
100
AcDbEntity
  8
Hidden (ANSI)
 48
0.0985632836818695
100
AcDbLine
 10
14.70020328972804
 20
13.41746127479321
 30
0.0
 11
14.77420328972804
 21
13.41746127479321
 31
0.0
  0
LINE
  5
798
330
6C
100
AcDbEntity
  8
Hidden (ANSI)
 48
0.0985632836818695
100
AcDbLine
 10
14.70020328972804
 20
13.19946127479322
 30
0.0
 11
14.77420328972804
 21
13.19946127479322
 31
0.0
  0
LINE
  5
799
330
6C
100
AcDbEntity
  8
Hidden (ANSI)
 48
0.0985632836818695
100
AcDbLine
 10
14.70020328972804
 20
7.163461274793217
 30
0.0
 11
14.77420328972804
 21
7.163461274793217
 31
0.0
  0
LINE
  5
79A
330
6C
100
AcDbEntity
  8
Hidden (ANSI)
 48
0.0985632836818695
100
AcDbLine
 10
14.70020328972804
 20
6.945461274793217
 30
0.0
 11
14.77420328972804
 21
6.945461274793217
 31
0.0
  0
LINE
  5
79B
330
6C
100
AcDbEntity
  8
Visible (ANSI)
100
AcDbLine
 10
14.77420328972812
 20
13.62146127479321
 30
0.0
 11
14.70020328972812
 21
13.62146127479321
 31
0.0
  0
LINE
  5
79C
330
6C
100
AcDbEntity
  8
Visible (ANSI)
100
AcDbLine
 10
14.70020328972812
 20
13.62146127479321
 30
0.0
 11
14.70020328972812
 21
6.741461274793216
 31
0.0
  0
LINE
  5
79D
330
6C
100
AcDbEntity
  8
Visible (ANSI)
100
AcDbLine
 10
14.77420328972812
 20
6.741461274793216
 30
0.0
 11
14.70020328972812
 21
6.741461274793216
 31
0.0
  0
LINE
  5
79E
330
6C
100
AcDbEntity
  8
Visible (ANSI)
100
AcDbLine
 10
14.77420328972812
 20
6.741461274793216
 30
0.0
 11
14.77420328972812
 21
13.62146127479321
 31
0.0
  0
LINE
  5
79F
330
6C
100
AcDbEntity
  8
Hidden (ANSI)
 48
0.0985632836818695
100
AcDbLine
 10
14.77420328972647
 20
6.929461274793216
 30
0.0
 11
14.70020328972647
 21
6.929461274793216
 31
0.0
  0
LINE
  5
7A0
330
6C
100
AcDbEntity
  8
Hidden (ANSI)
 48
0.0985632836818695
100
AcDbLine
 10
14.77420328972647
 20
7.179461274793216
 30
0.0
 11
14.70020328972647
 21
7.179461274793216
 31
0.0
  0
MTEXT
  5
7A1
330
6C
100
AcDbEntity
  8
Symbol (ANSI)
100
AcDbMText
 10
14.171752609301
 20
3.114367777751728
 30
0.0
 40
0.1714285735472517
 41
0.0
 71
     7
 72
     1
  1
SIDE VIEW
  7
Text Style150
 73
     1
 44
1.0
1001
ACAD
1000
MTEXTBEGIN
1070
    73
1070
     1
1070
    44
1040
1.0
1070
    74
1070
     0
1000
MTEXTEND
  0
LINE
  5
7A2
330
6C
100
AcDbEntity
  8
Symbol (ANSI)
370
    30
100
AcDbLine
 10
14.16297544386584
 20
3.078852611802146
 30
0.0
 11
15.32143804444512
 21
3.078852611802146
 31
0.0
  0
DIMENSION
  5
7A3
330
6C
100
AcDbEntity
  8
Dimension (ANSI)
100
AcDbDimension
  2
*D11
 10
14.70020328972812
 20
12.79947883741653
 30
0.0
 11
15.62471860504357
 21
12.79947883741653
 31
0.0
 70
   160
  1
(<>){\P14 GA.\PGALV}
 42
0.0739999999999981
  3
Default (ANSI)
100
AcDbAlignedDimension
 13
14.77420328972812
 23
12.79947883741653
 33
0.0
 14
14.70020328972812
 24
12.79947883741653
 34
0.0
100
AcDbRotatedDimension
1001
ACAD
1000
DSTYLE
1002
{
1070
   289
1070
     1
1070
    73
1070
     0
1070
    74
1070
     0
1070
   145
1040
-0.3333333333333334
1070
   271
1070
     3
1070
    76
1070
     1
1070
    75
1070
     1
1070
   147
1040
0.031496062992126
1070
    72
1070
     0
1070
    71
1070
     0
1070
   272
1070
     2
1070
    48
1040
0.0
1070
    47
1040
0.0
1002
}
  0
ENDSEC
  0
SECTION
  2
OBJECTS
  0
DICTIONARY
  5
C
330
0
100
AcDbDictionary
281
     1
  3
ACAD_CIP_PREVIOUS_PRODUCT_INFO
350
89C
  3
ACAD_COLOR
350
63
  3
ACAD_GROUP
350
D
  3
ACAD_LAYOUT
350
62
  3
ACAD_MATERIAL
350
10
  3
ACAD_MLEADERSTYLE
350
66
  3
ACAD_MLINESTYLE
350
5F
  3
ACAD_PLOTSETTINGS
350
61
  3
ACAD_PLOTSTYLENAME
350
E
  3
ACAD_SCALELIST
350
42
  3
ACAD_TABLESTYLE
350
64
  3
ACAD_VISUALSTYLE
350
29
  3
ACDB_RECOMPOSE_DATA
350
8AA
  3
AcDbVariableDictionary
350
76
  3
DWGPROPS
350
8AB
  0
DICTIONARY
  5
8E7
330
6BD
100
AcDbDictionary
280
     1
281
     1
  3
ACAD_MTEXT_RT
360
8E8
  0
XRECORD
  5
89C
102
{ACAD_REACTORS
330
C
102
}
330
C
100
AcDbXrecord
280
     1
300
INVNTOR
300
2012
300
85795PDSP_2012_0F
  0
DICTIONARY
  5
63
102
{ACAD_REACTORS
330
C
102
}
330
C
100
AcDbDictionary
281
     1
  0
DICTIONARY
  5
D
102
{ACAD_REACTORS
330
C
102
}
330
C
100
AcDbDictionary
281
     1
  0
DICTIONARY
  5
62
102
{ACAD_REACTORS
330
C
102
}
330
C
100
AcDbDictionary
281
     1
  3
Layout1
350
6B
  3
Layout2
350
73
  3
Model
350
6F
  0
DICTIONARY
  5
10
102
{ACAD_REACTORS
330
C
102
}
330
C
100
AcDbDictionary
281
     1
  3
ByBlock
350
19
  3
ByLayer
350
11
  3
Global
350
21
  0
DICTIONARY
  5
66
102
{ACAD_REACTORS
330
C
102
}
330
C
100
AcDbDictionary
281
     1
  3
Standard
350
67
  0
DICTIONARY
  5
5F
102
{ACAD_REACTORS
330
C
102
}
330
C
100
AcDbDictionary
281
     1
  3
Standard
350
60
  0
DICTIONARY
  5
61
102
{ACAD_REACTORS
330
C
102
}
330
C
100
AcDbDictionary
281
     1
  0
ACDBDICTIONARYWDFLT
  5
E
102
{ACAD_REACTORS
330
C
102
}
330
C
100
AcDbDictionary
281
     1
  3
Normal
350
F
100
AcDbDictionaryWithDefault
340
F
  0
DICTIONARY
  5
42
102
{ACAD_REACTORS
330
C
102
}
330
C
100
AcDbDictionary
281
     1
  3
A0
350
43
  3
A1
350
44
  3
A2
350
45
  3
A3
350
46
  3
A4
350
47
  3
A5
350
48
  3
A6
350
49
  3
A7
350
4A
  3
A8
350
4B
  3
A9
350
4C
  3
B0
350
4D
  3
B1
350
4E
  3
B2
350
4F
  3
B3
350
50
  3
B4
350
51
  3
B5
350
52
  3
B6
350
53
  0
DICTIONARY
  5
64
102
{ACAD_REACTORS
330
C
102
}
330
C
100
AcDbDictionary
281
     1
  3
Standard
350
65
  0
DICTIONARY
  5
29
102
{ACAD_REACTORS
330
C
102
}
330
C
100
AcDbDictionary
281
     1
  3
2dWireframe
350
2F
  3
Basic
350
2E
  3
Brighten
350
35
  3
ColorChange
350
39
  3
Conceptual
350
32
  3
Dim
350
34
  3
EdgeColorOff
350
41
  3
Facepattern
350
38
  3
Flat
350
2A
  3
FlatWithEdges
350
2B
  3
Gouraud
350
2C
  3
GouraudWithEdges
350
2D
  3
Hidden
350
31
  3
JitterOff
350
3F
  3
Linepattern
350
37
  3
OverhangOff
350
40
  3
Realistic
350
33
  3
Shaded
350
3E
  3
Shaded with edges
350
3D
  3
Shades of Gray
350
3A
  3
Sketchy
350
3B
  3
Thicken
350
36
  3
Wireframe
350
30
  3
X-Ray
350
3C
  0
XRECORD
  5
8AA
102
{ACAD_REACTORS
330
C
102
}
330
C
100
AcDbXrecord
280
     1
 90
        1
330
65
330
51F
  0
DICTIONARY
  5
76
102
{ACAD_REACTORS
330
C
102
}
330
C
100
AcDbDictionary
281
     1
  3
CANNOSCALE
350
79
  3
CMLEADERSTYLE
350
78
  3
CTABLESTYLE
350
77
  3
DIMASSOC
350
8A4
  3
HIDETEXT
350
8A3
  3
INDEXCTL
350
8A2
  3
LAYEREVAL
350
89F
  3
LAYERNOTIFY
350
8A0
  3
LIGHTINGUNITS
350
89E
  3
MSLTSCALE
350
89D
  3
SORTENTS
350
8A1
  3
XCLIPFRAME
350
8A5
  0
XRECORD
  5
8AB
102
{ACAD_REACTORS
330
C
102
}
330
C
100
AcDbXrecord
280
     1
  1
DWGPROPS COOKIE
  2

  3

  4
KRA
  6

  7

  8

  9
-
300
Manager=
301
Company=
302
Category=
303
Part Number=P0808G-S
304
Description=P SERIES BACK PANEL MASTER VIEW
305
Project=
306
Designer=KRA
307
Engineer=
308
Authority=
309
Cost Center=
 40
0.0000434143518519
 41
2455952.419476898
 42
2455952.419476898
  1

 90
       20
300
Vendor=
300
User Status=
300
Design Status=WorkInProgress
300
Checked by=JMG
300
Date Checked=02/12/2009
300
Engr Approved by=
300
Mfg Approved by=
300
DWG. NO=
300
NUMBER OF SHEETS=1
300
DRAWING #=1
  0
XRECORD
  5
8E8
102
{ACAD_REACTORS
330
8E7
102
}
330
8E7
100
AcDbXrecord
280
     1
 40
41495.0
  1
\A1;\U+22050.250{\PGROUND\P HOLE}
  0
LAYOUT
  5
6B
102
{ACAD_XDICTIONARY
360
8E1
102
}
102
{ACAD_REACTORS
330
62
102
}
330
62
100
AcDbPlotSettings
  1

  2

  4

  6

 40
0.0
 41
0.0
 42
0.0
 43
0.0
 44
0.0
 45
0.0
 46
0.0
 47
0.0
 48
0.0
 49
0.0
140
0.0
141
0.0
142
1.0
143
1.0
 70
   688
 72
     0
 73
     0
 74
     5
  7

 75
    16
147
1.0
148
0.0
149
0.0
100
AcDbLayout
  1
Layout1
 70
     1
 71
     1
 10
0.0
 20
0.0
 11
12.0
 21
9.0
 12
0.0
 22
0.0
 32
0.0
 14
0.0
 24
0.0
 34
0.0
 15
0.0
 25
0.0
 35
0.0
146
0.0
 13
0.0
 23
0.0
 33
0.0
 16
1.0
 26
0.0
 36
0.0
 17
0.0
 27
1.0
 37
0.0
 76
     0
330
68
  0
LAYOUT
  5
73
102
{ACAD_XDICTIONARY
360
8E5
102
}
102
{ACAD_REACTORS
330
62
102
}
330
62
100
AcDbPlotSettings
  1

  2

  4

  6

 40
0.0
 41
0.0
 42
0.0
 43
0.0
 44
0.0
 45
0.0
 46
0.0
 47
0.0
 48
0.0
 49
0.0
140
0.0
141
0.0
142
1.0
143
1.0
 70
   688
 72
     0
 73
     0
 74
     5
  7

 75
    16
147
1.0
148
0.0
149
0.0
100
AcDbLayout
  1
Layout2
 70
     1
 71
     2
 10
0.0
 20
0.0
 11
12.0
 21
9.0
 12
0.0
 22
0.0
 32
0.0
 14
0.0
 24
0.0
 34
0.0
 15
0.0
 25
0.0
 35
0.0
146
0.0
 13
0.0
 23
0.0
 33
0.0
 16
1.0
 26
0.0
 36
0.0
 17
0.0
 27
1.0
 37
0.0
 76
     0
330
70
  0
LAYOUT
  5
6F
102
{ACAD_XDICTIONARY
360
8E3
102
}
102
{ACAD_REACTORS
330
62
102
}
330
62
100
AcDbPlotSettings
  1

  2

  4

  6

 40
0.0
 41
0.0
 42
0.0
 43
0.0
 44
0.0
 45
0.0
 46
0.0
 47
0.0
 48
0.0
 49
0.0
140
0.0
141
0.0
142
1.0
143
1.0
 70
  1712
 72
     0
 73
     0
 74
     0
  7

 75
     0
147
1.0
148
0.0
149
0.0
100
AcDbLayout
  1
Model
 70
     1
 71
     0
 10
0.0
 20
0.0
 11
12.0
 21
9.0
 12
0.0
 22
0.0
 32
0.0
 14
0.0
 24
0.0
 34
0.0
 15
0.0
 25
0.0
 35
0.0
146
0.0
 13
0.0
 23
0.0
 33
0.0
 16
1.0
 26
0.0
 36
0.0
 17
0.0
 27
1.0
 37
0.0
 76
     0
330
6C
  0
MATERIAL
  5
19
102
{ACAD_XDICTIONARY
360
1A
102
}
102
{ACAD_REACTORS
330
10
102
}
330
10
100
AcDbMaterial
  1
ByBlock
 72
     0
 43
0.0208333333333333
 43
0.0
 43
0.0
 43
0.0
 43
0.0
 43
0.0208333333333333
 43
0.0
 43
0.0
 43
0.0
 43
0.0
 43
1.0
 43
0.0
 43
0.0
 43
0.0
 43
0.0
 43
1.0
 77
     0
 47
0.0208333333333333
 47
0.0
 47
0.0
 47
0.0
 47
0.0
 47
0.0208333333333333
 47
0.0
 47
0.0
 47
0.0
 47
0.0
 47
1.0
 47
0.0
 47
0.0
 47
0.0
 47
0.0
 47
1.0
171
     0
 49
0.0208333333333333
 49
0.0
 49
0.0
 49
0.0
 49
0.0
 49
0.0208333333333333
 49
0.0
 49
0.0
 49
0.0
 49
0.0
 49
1.0
 49
0.0
 49
0.0
 49
0.0
 49
0.0
 49
1.0
175
     0
142
0.0208333333333333
142
0.0
142
0.0
142
0.0
142
0.0
142
0.0208333333333333
142
0.0
142
0.0
142
0.0
142
0.0
142
1.0
142
0.0
142
0.0
142
0.0
142
0.0
142
1.0
179
     0
144
0.0208333333333333
144
0.0
144
0.0
144
0.0
144
0.0
144
0.0208333333333333
144
0.0
144
0.0
144
0.0
144
0.0
144
1.0
144
0.0
144
0.0
144
0.0
144
0.0
144
1.0
147
0.0208333333333333
147
0.0
147
0.0
147
0.0
147
0.0
147
0.0208333333333333
147
0.0
147
0.0
147
0.0
147
0.0
147
1.0
147
0.0
147
0.0
147
0.0
147
0.0
147
1.0
  0
MATERIAL
  5
11
102
{ACAD_XDICTIONARY
360
12
102
}
102
{ACAD_REACTORS
330
10
102
}
330
10
100
AcDbMaterial
  1
ByLayer
 72
     0
 43
0.0208333333333333
 43
0.0
 43
0.0
 43
0.0
 43
0.0
 43
0.0208333333333333
 43
0.0
 43
0.0
 43
0.0
 43
0.0
 43
1.0
 43
0.0
 43
0.0
 43
0.0
 43
0.0
 43
1.0
 77
     0
 47
0.0208333333333333
 47
0.0
 47
0.0
 47
0.0
 47
0.0
 47
0.0208333333333333
 47
0.0
 47
0.0
 47
0.0
 47
0.0
 47
1.0
 47
0.0
 47
0.0
 47
0.0
 47
0.0
 47
1.0
171
     0
 49
0.0208333333333333
 49
0.0
 49
0.0
 49
0.0
 49
0.0
 49
0.0208333333333333
 49
0.0
 49
0.0
 49
0.0
 49
0.0
 49
1.0
 49
0.0
 49
0.0
 49
0.0
 49
0.0
 49
1.0
175
     0
142
0.0208333333333333
142
0.0
142
0.0
142
0.0
142
0.0
142
0.0208333333333333
142
0.0
142
0.0
142
0.0
142
0.0
142
1.0
142
0.0
142
0.0
142
0.0
142
0.0
142
1.0
179
     0
144
0.0208333333333333
144
0.0
144
0.0
144
0.0
144
0.0
144
0.0208333333333333
144
0.0
144
0.0
144
0.0
144
0.0
144
1.0
144
0.0
144
0.0
144
0.0
144
0.0
144
1.0
147
0.0208333333333333
147
0.0
147
0.0
147
0.0
147
0.0
147
0.0208333333333333
147
0.0
147
0.0
147
0.0
147
0.0
147
1.0
147
0.0
147
0.0
147
0.0
147
0.0
147
1.0
  0
MATERIAL
  5
21
102
{ACAD_XDICTIONARY
360
22
102
}
102
{ACAD_REACTORS
330
10
102
}
330
10
100
AcDbMaterial
  1
Global
 72
     0
 43
0.0208333333333333
 43
0.0
 43
0.0
 43
0.0
 43
0.0
 43
0.0208333333333333
 43
0.0
 43
0.0
 43
0.0
 43
0.0
 43
1.0
 43
0.0
 43
0.0
 43
0.0
 43
0.0
 43
1.0
 77
     0
 47
0.0208333333333333
 47
0.0
 47
0.0
 47
0.0
 47
0.0
 47
0.0208333333333333
 47
0.0
 47
0.0
 47
0.0
 47
0.0
 47
1.0
 47
0.0
 47
0.0
 47
0.0
 47
0.0
 47
1.0
171
     0
 49
0.0208333333333333
 49
0.0
 49
0.0
 49
0.0
 49
0.0
 49
0.0208333333333333
 49
0.0
 49
0.0
 49
0.0
 49
0.0
 49
1.0
 49
0.0
 49
0.0
 49
0.0
 49
0.0
 49
1.0
175
     0
142
0.0208333333333333
142
0.0
142
0.0
142
0.0
142
0.0
142
0.0208333333333333
142
0.0
142
0.0
142
0.0
142
0.0
142
1.0
142
0.0
142
0.0
142
0.0
142
0.0
142
1.0
179
     0
144
0.0208333333333333
144
0.0
144
0.0
144
0.0
144
0.0
144
0.0208333333333333
144
0.0
144
0.0
144
0.0
144
0.0
144
1.0
144
0.0
144
0.0
144
0.0
144
0.0
144
1.0
147
0.0208333333333333
147
0.0
147
0.0
147
0.0
147
0.0
147
0.0208333333333333
147
0.0
147
0.0
147
0.0
147
0.0
147
1.0
147
0.0
147
0.0
147
0.0
147
0.0
147
1.0
  0
MLEADERSTYLE
  5
67
102
{ACAD_XDICTIONARY
360
8A8
102
}
102
{ACAD_REACTORS
330
66
102
}
330
66
100
AcDbMLeaderStyle
170
     2
171
     1
172
     0
 90
        2
 40
0.0
 41
0.0
173
     1
 91
-1056964608
340
5B
 92
       -2
290
     1
 42
0.09
291
     1
 43
0.36
  3
Standard
 44
0.18
300

342
55
174
     1
178
     6
175
     1
176
     0
 93
-1056964608
 45
0.18
292
     0
297
     0
 46
0.18
 94
-1056964608
 47
1.0
 49
1.0
140
1.0
293
     1
141
0.0
294
     1
177
     0
142
1.0
295
     0
296
     0
143
0.125
1001
ACAD_MLEADERVER
1070
     2
  0
MLINESTYLE
  5
60
102
{ACAD_REACTORS
330
5F
102
}
330
5F
100
AcDbMlineStyle
  2
STANDARD
 70
     0
  3

 62
   256
 51
90.0
 52
90.0
 71
     2
 49
0.5
 62
   256
  6
BYLAYER
 49
-0.5
 62
   256
  6
BYLAYER
  0
ACDBPLACEHOLDER
  5
F
102
{ACAD_REACTORS
330
E
102
}
330
E
  0
SCALE
  5
43
102
{ACAD_REACTORS
330
42
102
}
330
42
100
AcDbScale
 70
     0
300
1:1
140
1.0
141
1.0
290
     1
  0
SCALE
  5
44
102
{ACAD_REACTORS
330
42
102
}
330
42
100
AcDbScale
 70
     0
300
1/128" = 1'-0"
140
0.0078125
141
12.0
290
     0
  0
SCALE
  5
45
102
{ACAD_REACTORS
330
42
102
}
330
42
100
AcDbScale
 70
     0
300
1/64" = 1'-0"
140
0.015625
141
12.0
290
     0
  0
SCALE
  5
46
102
{ACAD_REACTORS
330
42
102
}
330
42
100
AcDbScale
 70
     0
300
1/32" = 1'-0"
140
0.03125
141
12.0
290
     0
  0
SCALE
  5
47
102
{ACAD_REACTORS
330
42
102
}
330
42
100
AcDbScale
 70
     0
300
1/16" = 1'-0"
140
0.0625
141
12.0
290
     0
  0
SCALE
  5
48
102
{ACAD_REACTORS
330
42
102
}
330
42
100
AcDbScale
 70
     0
300
3/32" = 1'-0"
140
0.09375
141
12.0
290
     0
  0
SCALE
  5
49
102
{ACAD_REACTORS
330
42
102
}
330
42
100
AcDbScale
 70
     0
300
1/8" = 1'-0"
140
0.125
141
12.0
290
     0
  0
SCALE
  5
4A
102
{ACAD_REACTORS
330
42
102
}
330
42
100
AcDbScale
 70
     0
300
3/16" = 1'-0"
140
0.1875
141
12.0
290
     0
  0
SCALE
  5
4B
102
{ACAD_REACTORS
330
42
102
}
330
42
100
AcDbScale
 70
     0
300
1/4" = 1'-0"
140
0.25
141
12.0
290
     0
  0
SCALE
  5
4C
102
{ACAD_REACTORS
330
42
102
}
330
42
100
AcDbScale
 70
     0
300
3/8" = 1'-0"
140
0.375
141
12.0
290
     0
  0
SCALE
  5
4D
102
{ACAD_REACTORS
330
42
102
}
330
42
100
AcDbScale
 70
     0
300
1/2" = 1'-0"
140
0.5
141
12.0
290
     0
  0
SCALE
  5
4E
102
{ACAD_REACTORS
330
42
102
}
330
42
100
AcDbScale
 70
     0
300
3/4" = 1'-0"
140
0.75
141
12.0
290
     0
  0
SCALE
  5
4F
102
{ACAD_REACTORS
330
42
102
}
330
42
100
AcDbScale
 70
     0
300
1" = 1'-0"
140
1.0
141
12.0
290
     0
  0
SCALE
  5
50
102
{ACAD_REACTORS
330
42
102
}
330
42
100
AcDbScale
 70
     0
300
1-1/2" = 1'-0"
140
1.5
141
12.0
290
     0
  0
SCALE
  5
51
102
{ACAD_REACTORS
330
42
102
}
330
42
100
AcDbScale
 70
     0
300
3" = 1'-0"
140
3.0
141
12.0
290
     0
  0
SCALE
  5
52
102
{ACAD_REACTORS
330
42
102
}
330
42
100
AcDbScale
 70
     0
300
6" = 1'-0"
140
6.0
141
12.0
290
     0
  0
SCALE
  5
53
102
{ACAD_REACTORS
330
42
102
}
330
42
100
AcDbScale
 70
     0
300
1'-0" = 1'-0"
140
12.0
141
12.0
290
     0
  0
TABLESTYLE
  5
65
102
{ACAD_XDICTIONARY
360
8A6
102
}
102
{ACAD_REACTORS
330
64
102
}
330
64
100
AcDbTableStyle
  3
Standard
 70
     0
 71
     0
 40
0.06
 41
0.06
280
     0
281
     0
  7
Standard
140
0.18
170
     2
 62
     0
 63
     7
283
     0
274
    -2
284
     1
 64
     0
275
    -2
285
     1
 65
     0
276
    -2
286
     1
 66
     0
277
    -2
287
     1
 67
     0
278
    -2
288
     1
 68
     0
279
    -2
289
     1
 69
     0
  7
Standard
140
0.25
170
     5
 62
     0
 63
     7
283
     0
274
    -2
284
     1
 64
     0
275
    -2
285
     1
 65
     0
276
    -2
286
     1
 66
     0
277
    -2
287
     1
 67
     0
278
    -2
288
     1
 68
     0
279
    -2
289
     1
 69
     0
  7
Standard
140
0.18
170
     5
 62
     0
 63
     7
283
     0
274
    -2
284
     1
 64
     0
275
    -2
285
     1
 65
     0
276
    -2
286
     1
 66
     0
277
    -2
287
     1
 67
     0
278
    -2
288
     1
 68
     0
279
    -2
289
     1
 69
     0
  0
VISUALSTYLE
  5
2F
102
{ACAD_XDICTIONARY
360
8B9
102
}
102
{ACAD_REACTORS
330
29
102
}
330
29
100
AcDbVisualStyle
  2
2dWireframe
 70
     4
 71
     0
 72
     2
 73
     0
 90
        0
 40
-0.6
 41
-30.0
 62
     5
 63
     7
 74
     1
 91
        4
 64
     7
 65
   257
 75
     1
175
     1
 42
1.0
 92
        0
 66
   257
 43
1.0
 76
     1
 77
     6
 78
     2
 67
     7
 79
     5
170
     0
171
     0
290
     0
174
     0
 93
        1
 44
0.0
173
     0
291
     0
 45
0.0
1001
ACAD
1000
AcDbSavedByObjectVersion
1070
     0
  0
VISUALSTYLE
  5
2E
102
{ACAD_XDICTIONARY
360
8B7
102
}
102
{ACAD_REACTORS
330
29
102
}
330
29
100
AcDbVisualStyle
  2
Basic
 70
     7
 71
     1
 72
     0
 73
     1
 90
        0
 40
-0.6
 41
-30.0
 62
     5
 63
     7
 74
     0
 91
        4
 64
     7
 65
   257
 75
     1
175
     1
 42
1.0
 92
        8
 66
     7
 43
1.0
 76
     1
 77
     6
 78
     2
 67
     7
 79
     5
170
     0
171
     0
290
     0
174
     0
 93
        1
 44
0.0
173
     0
291
     1
 45
0.0
1001
ACAD
1000
AcDbSavedByObjectVersion
1070
     0
  0
VISUALSTYLE
  5
35
102
{ACAD_XDICTIONARY
360
8C5
102
}
102
{ACAD_REACTORS
330
29
102
}
330
29
100
AcDbVisualStyle
  2
Brighten
 70
    12
 71
     2
 72
     2
 73
     0
 90
        0
 40
-0.6
 41
-30.0
 62
     5
 63
     7
 74
     1
 91
        4
 64
     7
 65
   257
 75
     1
175
     1
 42
1.0
 92
        8
 66
     7
 43
1.0
 76
     1
 77
     6
 78
     2
 67
     7
 79
     5
170
     0
171
     0
290
     0
174
     0
 93
        1
 44
50.0
173
     0
291
     1
 45
0.0
1001
ACAD
1000
AcDbSavedByObjectVersion
1070
     0
  0
VISUALSTYLE
  5
39
102
{ACAD_XDICTIONARY
360
8CD
102
}
102
{ACAD_REACTORS
330
29
102
}
330
29
100
AcDbVisualStyle
  2
ColorChange
 70
    16
 71
     2
 72
     2
 73
     3
 90
        0
 40
-0.6
 41
-30.0
 62
     5
 63
     8
 74
     1
 91
        4
 64
     7
 65
   257
 75
     1
175
     1
 42
1.0
 92
        8
 66
     8
 43
1.0
 76
     1
 77
     6
 78
     2
 67
     7
 79
     5
170
     0
171
     0
290
     0
174
     0
 93
        1
 44
0.0
173
     0
291
     1
 45
0.0
1001
ACAD
1000
AcDbSavedByObjectVersion
1070
     0
  0
VISUALSTYLE
  5
32
102
{ACAD_XDICTIONARY
360
8BF
102
}
102
{ACAD_REACTORS
330
29
102
}
330
29
100
AcDbVisualStyle
  2
Conceptual
 70
     9
 71
     3
 72
     2
 73
     0
 90
        0
 40
-0.6
 41
-30.0
 62
     5
 63
     7
 74
     2
 91
        2
 64
     7
 65
   257
 75
     1
175
     1
 42
179.0
 92
        8
 66
     7
 43
1.0
 76
     1
 77
     6
 78
     2
 67
     7
 79
     3
170
     0
171
     0
290
     0
174
     0
 93
        1
 44
0.0
173
     0
291
     0
 45
0.0
1001
ACAD
1000
AcDbSavedByObjectVersion
1070
     0
  0
VISUALSTYLE
  5
34
102
{ACAD_XDICTIONARY
360
8C3
102
}
102
{ACAD_REACTORS
330
29
102
}
330
29
100
AcDbVisualStyle
  2
Dim
 70
    11
 71
     2
 72
     2
 73
     0
 90
        0
 40
-0.6
 41
-30.0
 62
     5
 63
     7
 74
     1
 91
        4
 64
     7
 65
   257
 75
     1
175
     1
 42
1.0
 92
        8
 66
     7
 43
1.0
 76
     1
 77
     6
 78
     2
 67
     7
 79
     5
170
     0
171
     0
290
     0
174
     0
 93
        1
 44
-50.0
173
     0
291
     1
 45
0.0
1001
ACAD
1000
AcDbSavedByObjectVersion
1070
     0
  0
VISUALSTYLE
  5
41
102
{ACAD_XDICTIONARY
360
8DD
102
}
102
{ACAD_REACTORS
330
29
102
}
330
29
100
AcDbVisualStyle
  2
EdgeColorOff
 70
    22
 71
     2
 72
     2
 73
     0
 90
        0
 40
-0.6
 41
-30.0
 62
     5
 63
     7
 74
     1
 91
        4
 64
     7
 65
   257
 75
     1
175
     1
 42
1.0
 92
        8
 66
     7
 43
1.0
 76
     1
 77
     6
 78
     2
 67
     7
 79
     5
170
     0
171
     0
290
     0
174
     0
 93
        1
 44
0.0
173
     0
291
     1
 45
0.0
1001
ACAD
1000
AcDbSavedByObjectVersion
1070
     0
  0
VISUALSTYLE
  5
38
102
{ACAD_XDICTIONARY
360
8CB
102
}
102
{ACAD_REACTORS
330
29
102
}
330
29
100
AcDbVisualStyle
  2
Facepattern
 70
    15
 71
     2
 72
     2
 73
     0
 90
        0
 40
-0.6
 41
-30.0
 62
     5
 63
     7
 74
     1
 91
        4
 64
     7
 65
   257
 75
     1
175
     1
 42
1.0
 92
        8
 66
     7
 43
1.0
 76
     1
 77
     6
 78
     2
 67
     7
 79
     5
170
     0
171
     0
290
     0
174
     0
 93
        1
 44
0.0
173
     0
291
     1
 45
0.0
1001
ACAD
1000
AcDbSavedByObjectVersion
1070
     0
  0
VISUALSTYLE
  5
2A
102
{ACAD_XDICTIONARY
360
8AF
102
}
102
{ACAD_REACTORS
330
29
102
}
330
29
100
AcDbVisualStyle
  2
Flat
 70
     0
 71
     2
 72
     1
 73
     1
 90
        2
 40
-0.6
 41
30.0
 62
     5
 63
     7
 74
     0
 91
        0
 64
     7
 65
   257
 75
     1
175
     1
 42
1.0
 92
        8
 66
     7
 43
1.0
 76
     1
 77
     6
 78
     2
 67
     7
 79
     5
170
     0
171
     0
290
     0
174
     0
 93
       13
 44
0.0
173
     0
291
     1
 45
0.0
1001
ACAD
1000
AcDbSavedByObjectVersion
1070
     0
  0
VISUALSTYLE
  5
2B
102
{ACAD_XDICTIONARY
360
8B1
102
}
102
{ACAD_REACTORS
330
29
102
}
330
29
100
AcDbVisualStyle
  2
FlatWithEdges
 70
     1
 71
     2
 72
     1
 73
     1
 90
        2
 40
-0.6
 41
30.0
 62
     5
 63
     7
 74
     1
 91
        0
 64
     7
 65
   257
 75
     1
175
     1
 42
1.0
 92
        0
 66
   257
 43
1.0
 76
     1
 77
     6
 78
     2
 67
     7
 79
     5
170
     0
171
     0
290
     0
174
     0
 93
       13
 44
0.0
173
     0
291
     1
 45
0.0
1001
ACAD
1000
AcDbSavedByObjectVersion
1070
     0
  0
VISUALSTYLE
  5
2C
102
{ACAD_XDICTIONARY
360
8B3
102
}
102
{ACAD_REACTORS
330
29
102
}
330
29
100
AcDbVisualStyle
  2
Gouraud
 70
     2
 71
     2
 72
     2
 73
     1
 90
        2
 40
-0.6
 41
30.0
 62
     5
 63
     7
 74
     0
 91
        0
 64
     7
 65
   257
 75
     1
175
     1
 42
1.0
 92
        0
 66
     7
 43
1.0
 76
     1
 77
     6
 78
     2
 67
     7
 79
     5
170
     0
171
     0
290
     0
174
     0
 93
       13
 44
0.0
173
     0
291
     1
 45
0.0
1001
ACAD
1000
AcDbSavedByObjectVersion
1070
     0
  0
VISUALSTYLE
  5
2D
102
{ACAD_XDICTIONARY
360
8B5
102
}
102
{ACAD_REACTORS
330
29
102
}
330
29
100
AcDbVisualStyle
  2
GouraudWithEdges
 70
     3
 71
     2
 72
     2
 73
     1
 90
        2
 40
-0.6
 41
30.0
 62
     5
 63
     7
 74
     1
 91
        0
 64
     7
 65
   257
 75
     1
175
     1
 42
1.0
 92
        0
 66
   257
 43
1.0
 76
     1
 77
     6
 78
     2
 67
     7
 79
     5
170
     0
171
     0
290
     0
174
     0
 93
       13
 44
0.0
173
     0
291
     1
 45
0.0
1001
ACAD
1000
AcDbSavedByObjectVersion
1070
     0
  0
VISUALSTYLE
  5
31
102
{ACAD_XDICTIONARY
360
8BD
102
}
102
{ACAD_REACTORS
330
29
102
}
330
29
100
AcDbVisualStyle
  2
Hidden
 70
     6
 71
     1
 72
     2
 73
     2
 90
        0
 40
-0.6
 41
-30.0
 62
     5
 63
     7
 74
     2
 91
        2
 64
     7
 65
   257
 75
     2
175
     1
 42
40.0
 92
        0
 66
   257
 43
1.0
 76
     1
 77
     6
 78
     2
 67
     7
 79
     3
170
     0
171
     0
290
     0
174
     0
 93
        1
 44
0.0
173
     0
291
     0
 45
0.0
1001
ACAD
1000
AcDbSavedByObjectVersion
1070
     0
  0
VISUALSTYLE
  5
3F
102
{ACAD_XDICTIONARY
360
8D9
102
}
102
{ACAD_REACTORS
330
29
102
}
330
29
100
AcDbVisualStyle
  2
JitterOff
 70
    20
 71
     2
 72
     2
 73
     0
 90
        0
 40
-0.6
 41
-30.0
 62
     5
 63
     7
 74
     1
 91
        4
 64
     7
 65
   257
 75
     1
175
     1
 42
1.0
 92
       10
 66
     7
 43
1.0
 76
     1
 77
     6
 78
     2
 67
     7
 79
     5
170
     0
171
     0
290
     0
174
     0
 93
        1
 44
0.0
173
     0
291
     1
 45
0.0
1001
ACAD
1000
AcDbSavedByObjectVersion
1070
     0
  0
VISUALSTYLE
  5
37
102
{ACAD_XDICTIONARY
360
8C9
102
}
102
{ACAD_REACTORS
330
29
102
}
330
29
100
AcDbVisualStyle
  2
Linepattern
 70
    14
 71
     2
 72
     2
 73
     0
 90
        0
 40
-0.6
 41
-30.0
 62
     5
 63
     7
 74
     1
 91
        4
 64
     7
 65
   257
 75
     7
175
     7
 42
1.0
 92
        8
 66
     7
 43
1.0
 76
     1
 77
     6
 78
     2
 67
     7
 79
     5
170
     0
171
     0
290
     0
174
     0
 93
        1
 44
0.0
173
     0
291
     1
 45
0.0
1001
ACAD
1000
AcDbSavedByObjectVersion
1070
     0
  0
VISUALSTYLE
  5
40
102
{ACAD_XDICTIONARY
360
8DB
102
}
102
{ACAD_REACTORS
330
29
102
}
330
29
100
AcDbVisualStyle
  2
OverhangOff
 70
    21
 71
     2
 72
     2
 73
     0
 90
        0
 40
-0.6
 41
-30.0
 62
     5
 63
     7
 74
     1
 91
        4
 64
     7
 65
   257
 75
     1
175
     1
 42
1.0
 92
        9
 66
     7
 43
1.0
 76
     1
 77
     6
 78
     2
 67
     7
 79
     5
170
     0
171
     0
290
     0
174
     0
 93
        1
 44
0.0
173
     0
291
     1
 45
0.0
1001
ACAD
1000
AcDbSavedByObjectVersion
1070
     0
  0
VISUALSTYLE
  5
33
102
{ACAD_XDICTIONARY
360
8C1
102
}
102
{ACAD_REACTORS
330
29
102
}
330
29
100
AcDbVisualStyle
  2
Realistic
 70
     8
 71
     2
 72
     3
 73
     0
 90
        2
 40
-0.6
 41
30.0
 62
     5
 63
     7
 74
     0
 91
        0
 64
     7
 65
   257
 75
     1
175
     1
 42
1.0
 92
        8
 66
   257
 43
1.0
 76
     1
 77
     6
 78
     2
 67
     7
 79
     3
170
     0
171
     0
290
     0
174
     0
 93
       13
 44
0.0
173
     0
291
     0
 45
0.0
1001
ACAD
1000
AcDbSavedByObjectVersion
1070
     0
  0
VISUALSTYLE
  5
3E
102
{ACAD_XDICTIONARY
360
8D7
102
}
102
{ACAD_REACTORS
330
29
102
}
330
29
100
AcDbVisualStyle
  2
Shaded
 70
    27
 71
     2
 72
     2
 73
     1
 90
        2
 40
-0.6
 41
30.0
 62
     5
 63
     7
 74
     0
 91
        4
 64
     7
 65
   257
 75
     1
175
     1
 42
1.0
 92
        8
 66
   257
 43
1.0
 76
     1
 77
     6
 78
     2
 67
     8
 79
     3
170
     0
171
     0
290
     0
174
     0
 93
        5
 44
0.0
173
     0
291
     0
 45
0.0
1001
ACAD
1000
AcDbSavedByObjectVersion
1070
     0
  0
VISUALSTYLE
  5
3D
102
{ACAD_XDICTIONARY
360
8D5
102
}
102
{ACAD_REACTORS
330
29
102
}
330
29
100
AcDbVisualStyle
  2
Shaded with edges
 70
    26
 71
     2
 72
     2
 73
     1
 90
        2
 40
-0.6
 41
30.0
 62
     5
 63
     7
 74
     1
 91
       10
 64
     7
 65
   257
 75
     2
175
     1
 42
1.0
 92
        8
 66
   257
 43
1.0
 76
     1
 77
     6
 78
     2
 67
     7
 79
     3
170
     0
171
     0
290
     0
174
     0
 93
        5
 44
0.0
173
     0
291
     0
 45
0.0
1001
ACAD
1000
AcDbSavedByObjectVersion
1070
     0
  0
VISUALSTYLE
  5
3A
102
{ACAD_XDICTIONARY
360
8CF
102
}
102
{ACAD_REACTORS
330
29
102
}
330
29
100
AcDbVisualStyle
  2
Shades of Gray
 70
    23
 71
     2
 72
     2
 73
     3
 90
        0
 40
-0.6
 41
-30.0
 62
     5
 63
     7
 74
     2
 91
        2
 64
     7
 65
     7
 75
     1
175
     1
 42
40.0
 92
        8
 66
     7
 43
1.0
 76
     1
 77
     6
 78
     2
 67
     7
 79
     3
170
     0
171
     0
290
     0
174
     0
 93
        1
 44
0.0
173
     0
291
     0
 45
0.0
1001
ACAD
1000
AcDbSavedByObjectVersion
1070
     0
  0
VISUALSTYLE
  5
3B
102
{ACAD_XDICTIONARY
360
8D1
102
}
102
{ACAD_REACTORS
330
29
102
}
330
29
100
AcDbVisualStyle
  2
Sketchy
 70
    24
 71
     1
 72
     2
 73
     2
 90
        0
 40
-0.6
 41
-30.0
 62
     5
 63
     7
 74
     2
 91
        2
 64
     7
 65
     7
 75
     1
175
     1
 42
40.0
 92
       11
 66
     7
 43
1.0
 76
     1
 77
     6
 78
     2
 67
     7
 79
     6
170
     0
171
     0
290
     0
174
     0
 93
        1
 44
0.0
173
     0
291
     0
 45
0.0
1001
ACAD
1000
AcDbSavedByObjectVersion
1070
     0
  0
VISUALSTYLE
  5
36
102
{ACAD_XDICTIONARY
360
8C7
102
}
102
{ACAD_REACTORS
330
29
102
}
330
29
100
AcDbVisualStyle
  2
Thicken
 70
    13
 71
     2
 72
     2
 73
     0
 90
        0
 40
-0.6
 41
-30.0
 62
     5
 63
     7
 74
     1
 91
        4
 64
     7
 65
   257
 75
     1
175
     1
 42
1.0
 92
       12
 66
     7
 43
1.0
 76
     1
 77
     6
 78
     2
 67
     7
 79
     5
170
     0
171
     0
290
     0
174
     0
 93
        1
 44
0.0
173
     0
291
     1
 45
0.0
1001
ACAD
1000
AcDbSavedByObjectVersion
1070
     0
  0
VISUALSTYLE
  5
30
102
{ACAD_XDICTIONARY
360
8BB
102
}
102
{ACAD_REACTORS
330
29
102
}
330
29
100
AcDbVisualStyle
  2
Wireframe
 70
     5
 71
     0
 72
     2
 73
     0
 90
        0
 40
-0.6
 41
-30.0
 62
     5
 63
     7
 74
     1
 91
        4
 64
     7
 65
   257
 75
     1
175
     1
 42
1.0
 92
        0
 66
   257
 43
1.0
 76
     1
 77
     6
 78
     2
 67
     7
 79
     3
170
     0
171
     0
290
     0
174
     0
 93
        1
 44
0.0
173
     0
291
     0
 45
0.0
1001
ACAD
1000
AcDbSavedByObjectVersion
1070
     0
  0
VISUALSTYLE
  5
3C
102
{ACAD_XDICTIONARY
360
8D3
102
}
102
{ACAD_REACTORS
330
29
102
}
330
29
100
AcDbVisualStyle
  2
X-Ray
 70
    25
 71
     2
 72
     2
 73
     1
 90
        1
 40
0.5
 41
-30.0
 62
     5
 63
     7
 74
     1
 91
        0
 64
     7
 65
   257
 75
     1
175
     1
 42
1.0
 92
        8
 66
     7
 43
1.0
 76
     1
 77
     6
 78
     2
 67
     7
 79
     3
170
     0
171
     0
290
     0
174
     0
 93
       13
 44
0.0
173
     0
291
     0
 45
0.0
1001
ACAD
1000
AcDbSavedByObjectVersion
1070
     0
  0
DICTIONARYVAR
  5
79
102
{ACAD_REACTORS
330
76
102
}
330
76
100
DictionaryVariables
280
     0
  1
1:1
  0
DICTIONARYVAR
  5
78
102
{ACAD_REACTORS
330
76
102
}
330
76
100
DictionaryVariables
280
     0
  1
STANDARD
  0
DICTIONARYVAR
  5
77
102
{ACAD_REACTORS
330
76
102
}
330
76
100
DictionaryVariables
280
     0
  1
STANDARD
  0
DICTIONARYVAR
  5
8A4
102
{ACAD_REACTORS
330
76
102
}
330
76
100
DictionaryVariables
280
     0
  1
1
  0
DICTIONARYVAR
  5
8A3
102
{ACAD_REACTORS
330
76
102
}
330
76
100
DictionaryVariables
280
     0
  1
1
  0
DICTIONARYVAR
  5
8A2
102
{ACAD_REACTORS
330
76
102
}
330
76
100
DictionaryVariables
280
     0
  1
0
  0
DICTIONARYVAR
  5
89F
102
{ACAD_REACTORS
330
76
102
}
330
76
100
DictionaryVariables
280
     0
  1
0
  0
DICTIONARYVAR
  5
8A0
102
{ACAD_REACTORS
330
76
102
}
330
76
100
DictionaryVariables
280
     0
  1
0
  0
DICTIONARYVAR
  5
89E
102
{ACAD_REACTORS
330
76
102
}
330
76
100
DictionaryVariables
280
     0
  1
2
  0
DICTIONARYVAR
  5
89D
102
{ACAD_REACTORS
330
76
102
}
330
76
100
DictionaryVariables
280
     0
  1
1
  0
DICTIONARYVAR
  5
8A1
102
{ACAD_REACTORS
330
76
102
}
330
76
100
DictionaryVariables
280
     0
  1
127
  0
DICTIONARYVAR
  5
8A5
102
{ACAD_REACTORS
330
76
102
}
330
76
100
DictionaryVariables
280
     0
  1
2
  0
DICTIONARY
  5
8E1
330
6B
100
AcDbDictionary
280
     1
281
     1
  3
ACAD_XREC_ROUNDTRIP
360
8E2
  0
DICTIONARY
  5
8E5
330
73
100
AcDbDictionary
280
     1
281
     1
  3
ACAD_XREC_ROUNDTRIP
360
8E6
  0
DICTIONARY
  5
8E3
330
6F
100
AcDbDictionary
280
     1
281
     1
  3
ACAD_XREC_ROUNDTRIP
360
8E4
  0
DICTIONARY
  5
1A
330
19
100
AcDbDictionary
280
     1
281
     1
  3
ACAD_XREC_ROUNDTRIP
360
8AD
  3
BUMPTILE
360
1C
  3
DIFFUSETILE
360
1B
  3
OPACITYTILE
360
1F
  3
REFLECTIONTILE
360
1E
  3
REFRACTIONTILE
360
20
  3
SPECULARTILE
360
1D
  0
DICTIONARY
  5
12
330
11
100
AcDbDictionary
280
     1
281
     1
  3
ACAD_XREC_ROUNDTRIP
360
8AC
  3
BUMPTILE
360
14
  3
DIFFUSETILE
360
13
  3
FBXASSET
360
10B
  3
OPACITYTILE
360
17
  3
REFLECTIONTILE
360
16
  3
REFRACTIONTILE
360
18
  3
SPECULARTILE
360
15
  0
DICTIONARY
  5
22
330
21
100
AcDbDictionary
280
     1
281
     1
  3
ACAD_XREC_ROUNDTRIP
360
8AE
  3
BUMPTILE
360
24
  3
DIFFUSETILE
360
23
  3
FBXASSET
360
BA
  3
OPACITYTILE
360
27
  3
REFLECTIONTILE
360
26
  3
REFRACTIONTILE
360
28
  3
SPECULARTILE
360
25
  0
DICTIONARY
  5
8A8
330
67
100
AcDbDictionary
280
     1
281
     1
  3
ACAD_XREC_ROUNDTRIP
360
8A9
  0
DICTIONARY
  5
8A6
330
65
100
AcDbDictionary
280
     1
281
     1
  3
ACAD_ROUNDTRIP_2008_TABLESTYLE_CELLSTYLEMAP
360
8A7
  3
ACAD_XREC_ROUNDTRIP
360
8DF
  0
DICTIONARY
  5
8B9
330
2F
100
AcDbDictionary
280
     1
281
     1
  3
ACAD_XREC_ROUNDTRIP
360
8BA
  0
DICTIONARY
  5
8B7
330
2E
100
AcDbDictionary
280
     1
281
     1
  3
ACAD_XREC_ROUNDTRIP
360
8B8
  0
DICTIONARY
  5
8C5
330
35
100
AcDbDictionary
280
     1
281
     1
  3
ACAD_XREC_ROUNDTRIP
360
8C6
  0
DICTIONARY
  5
8CD
330
39
100
AcDbDictionary
280
     1
281
     1
  3
ACAD_XREC_ROUNDTRIP
360
8CE
  0
DICTIONARY
  5
8BF
330
32
100
AcDbDictionary
280
     1
281
     1
  3
ACAD_XREC_ROUNDTRIP
360
8C0
  0
DICTIONARY
  5
8C3
330
34
100
AcDbDictionary
280
     1
281
     1
  3
ACAD_XREC_ROUNDTRIP
360
8C4
  0
DICTIONARY
  5
8DD
330
41
100
AcDbDictionary
280
     1
281
     1
  3
ACAD_XREC_ROUNDTRIP
360
8DE
  0
DICTIONARY
  5
8CB
330
38
100
AcDbDictionary
280
     1
281
     1
  3
ACAD_XREC_ROUNDTRIP
360
8CC
  0
DICTIONARY
  5
8AF
330
2A
100
AcDbDictionary
280
     1
281
     1
  3
ACAD_XREC_ROUNDTRIP
360
8B0
  0
DICTIONARY
  5
8B1
330
2B
100
AcDbDictionary
280
     1
281
     1
  3
ACAD_XREC_ROUNDTRIP
360
8B2
  0
DICTIONARY
  5
8B3
330
2C
100
AcDbDictionary
280
     1
281
     1
  3
ACAD_XREC_ROUNDTRIP
360
8B4
  0
DICTIONARY
  5
8B5
330
2D
100
AcDbDictionary
280
     1
281
     1
  3
ACAD_XREC_ROUNDTRIP
360
8B6
  0
DICTIONARY
  5
8BD
330
31
100
AcDbDictionary
280
     1
281
     1
  3
ACAD_XREC_ROUNDTRIP
360
8BE
  0
DICTIONARY
  5
8D9
330
3F
100
AcDbDictionary
280
     1
281
     1
  3
ACAD_XREC_ROUNDTRIP
360
8DA
  0
DICTIONARY
  5
8C9
330
37
100
AcDbDictionary
280
     1
281
     1
  3
ACAD_XREC_ROUNDTRIP
360
8CA
  0
DICTIONARY
  5
8DB
330
40
100
AcDbDictionary
280
     1
281
     1
  3
ACAD_XREC_ROUNDTRIP
360
8DC
  0
DICTIONARY
  5
8C1
330
33
100
AcDbDictionary
280
     1
281
     1
  3
ACAD_XREC_ROUNDTRIP
360
8C2
  0
DICTIONARY
  5
8D7
330
3E
100
AcDbDictionary
280
     1
281
     1
  3
ACAD_XREC_ROUNDTRIP
360
8D8
  0
DICTIONARY
  5
8D5
330
3D
100
AcDbDictionary
280
     1
281
     1
  3
ACAD_XREC_ROUNDTRIP
360
8D6
  0
DICTIONARY
  5
8CF
330
3A
100
AcDbDictionary
280
     1
281
     1
  3
ACAD_XREC_ROUNDTRIP
360
8D0
  0
DICTIONARY
  5
8D1
330
3B
100
AcDbDictionary
280
     1
281
     1
  3
ACAD_XREC_ROUNDTRIP
360
8D2
  0
DICTIONARY
  5
8C7
330
36
100
AcDbDictionary
280
     1
281
     1
  3
ACAD_XREC_ROUNDTRIP
360
8C8
  0
DICTIONARY
  5
8BB
330
30
100
AcDbDictionary
280
     1
281
     1
  3
ACAD_XREC_ROUNDTRIP
360
8BC
  0
DICTIONARY
  5
8D3
330
3C
100
AcDbDictionary
280
     1
281
     1
  3
ACAD_XREC_ROUNDTRIP
360
8D4
  0
XRECORD
  5
8E2
102
{ACAD_REACTORS
330
8E1
102
}
330
8E1
100
AcDbXrecord
280
     1
102
SHADEPLOT
 70
     0
102
SHADEPLOTRESLEVEL
 70
     2
102
SHADEPLOTCUSTOMDPI
 70
   300
  0
XRECORD
  5
8E6
102
{ACAD_REACTORS
330
8E5
102
}
330
8E5
100
AcDbXrecord
280
     1
102
SHADEPLOT
 70
     0
102
SHADEPLOTRESLEVEL
 70
     2
102
SHADEPLOTCUSTOMDPI
 70
   300
  0
XRECORD
  5
8E4
102
{ACAD_REACTORS
330
8E3
102
}
330
8E3
100
AcDbXrecord
280
     1
102
SHADEPLOT
 70
     0
102
SHADEPLOTRESLEVEL
 70
     2
102
SHADEPLOTCUSTOMDPI
 70
   300
  0
XRECORD
  5
8AD
102
{ACAD_REACTORS
330
1A
102
}
330
1A
100
AcDbXrecord
280
     1
102
MATERIAL
148
0.0
149
0.0
149
0.0
 93
        0
 94
      127
282
     0
 72
     0
 77
     0
171
     0
175
     0
179
     0
273
     0
  0
XRECORD
  5
1C
102
{ACAD_REACTORS
330
1A
102
}
330
1A
100
AcDbXrecord
280
     1
270
     1
271
     1
  0
XRECORD
  5
1B
102
{ACAD_REACTORS
330
1A
102
}
330
1A
100
AcDbXrecord
280
     1
270
     1
271
     1
  0
XRECORD
  5
1F
102
{ACAD_REACTORS
330
1A
102
}
330
1A
100
AcDbXrecord
280
     1
270
     1
271
     1
  0
XRECORD
  5
1E
102
{ACAD_REACTORS
330
1A
102
}
330
1A
100
AcDbXrecord
280
     1
270
     1
271
     1
  0
XRECORD
  5
20
102
{ACAD_REACTORS
330
1A
102
}
330
1A
100
AcDbXrecord
280
     1
270
     1
271
     1
  0
XRECORD
  5
1D
102
{ACAD_REACTORS
330
1A
102
}
330
1A
100
AcDbXrecord
280
     1
270
     1
271
     1
  0
XRECORD
  5
8AC
102
{ACAD_REACTORS
330
12
102
}
330
12
100
AcDbXrecord
280
     1
102
MATERIAL
148
0.0
149
0.0
149
0.0
 93
        0
 94
      127
282
     0
 72
     0
 77
     0
171
     0
175
     0
179
     0
273
     0
  0
XRECORD
  5
14
102
{ACAD_REACTORS
330
12
102
}
330
12
100
AcDbXrecord
280
     1
270
     1
271
     1
  0
XRECORD
  5
13
102
{ACAD_REACTORS
330
12
102
}
330
12
100
AcDbXrecord
280
     1
270
     1
271
     1
  0
XRECORD
  5
10B
102
{ACAD_REACTORS
330
12
102
}
330
12
100
AcDbXrecord
280
     1
 70
     1
 90
1959938040
 71
     1
  1
0DFBFFE2-6409-4BA2-966C-B9D009537197
311
504B03040A0000080000825039403DEE336E79000000790000001B0000006175746F6465736B2D64657369676E2D7061636B6167652E786D6C3C3F786D6C2076657273696F6E3D22312E302220656E636F64696E673D227574662D3822203F3E3C666F726D6174733E3C666F726D61743E687474703A2F2F736368656D612E
311
6175746F6465736B2E636F6D2F64657369676E2D7061636B6167652F323030393C2F666F726D61743E3C2F666F726D6174733E504B030414000608080082503940D486FD9CA0000000F4000000130000005B436F6E74656E745F54797065735D2E786D6C7D8EC10E82300C865F65E91D8A1E8C310C0EEA1BF002731658846E
311
D98AC1B77784ABF1D8FE5FBFBF75BBCE937A534CCEB38643598122B6FEE978D0B0485F9C41B54DDD7D022595594E1A469170414C76A4D9A4D207E29CF43ECE46F218070CC6BECC4078ACAA135ACF422C856C0E68EA1BF5669944DDD7BCDE7B1F8E415D77AECB980613C2E4AC91FC167A2B244592486606FC29C8FD7F045B9A
311
EF7053A7E60B504B0304140006080800825039402FFB1422EA0000007C01000008000000636F72652E786D6C8D90D16EC3200C457F25F23B8961499B46846AEDDA2FD80F20A0296A035180699F3FD2A6D2F6B6275BD7F7D8D6E5FBEFF15E7C993958EF7AA02542619CF2DABAA187142FA485622FF8EC7DFC6583C2C9D1F4B0
311
C820F830FB34AD92F22E1A17B3EABC36AB284330110A75CF4D0F415DCD284B996276845B394975938329E9ABCB704A5617CF2356E77DF662CD0C6283ED1619DB92C3797726F5B16EC8FBE983929A9E7187077A6A8F2DAF1658F068C7D77D351B198D06C190328294B0E693628775870DC14D87C8ABC5FE074A93FE2794AC8B
311
6F6C7DF7890510343FF218085E2D59E4F2082AD72537F103504B03041400060808008250394055019EA25F0000007C00000007000000636E782E786D6C4DCB3B0E80201045D1AD90E915ED2CF8AC45050C11660C8261F98AB1B07AC9C97D42D718D865D3E909258CFD00CCE24AC6E326A164D74DC0B4128928FF326038472B
311
A13128B1252AC747C6BAB984FC68F0B87FE8960A5C09FE86CFB69FBA01504B030414000608080082503940FA6ADB9F65010000020300000C0000006662782F636F72652E786D6C8D52ED8E8320107C15C27F043CFB19A4B9F6DA27B817A04A3D53058360FAF8B77E345E2F4DD3982099D9D99D1D15BB5B5DA14EBBB6B426C5
311
3C62186993D9BC34458A83BF9035463B299CB5FE4F194646D53AC53D8CA5289C0DCD0465D6786D3CA0C6E67A0255DB6A8F5156C125C56DF6A36B15A9E0A1A2BD468DCAAEAAD0118F80863A295AEFC0001A87F4279697F34DD011972284329FD8328769E5A5D40ECB255BAF581CAFC8FEB43991E4902CC8E7F18B93849FD886
311
EDF9717D580BDA8BA5F0657D779739ADBCCEB18C198F09E3245E7C73B665C9962D085B6E1913B42F7F1085267F53144AE33FE2C9EE286BB1E4606420FE6D0B1179D4AA0EFC5029681F22BC86841F8386402064AFCED57D8F2B409DCEBC750930B90D33D5A92A6898CAD0F0083AB2D07968009B3DED13BFE8F3BA077C40650A
311
B0A63C5CCFC1F7D3C538758AA2D18E74FE868C75B5AA6673A3C5F99C073D9567B6B2EE1D359D56A55398B4FF7BE52F504B030414000608080082503940DD90712D7D0000009D0000000B0000006662782F636E782E786D6C4DCCD10AC2201886E15B91FFDCE6C0DA2FA8C38CDDC7686E484EC334BAFCB6D841471F3C7CBCB2
311
FFAC81BC5D7EF91415B42706C4C57B9A7C5C14D4325304D26B99532A7F3720715C9D829D41CB25A7FA3C6872F35843D934F8F838D01A632ECC703A08D651CE3B4151B4678A7813CC5E2D0E06A1D1B2F995B6DDC3FA0B504B030414000608080082503940C273841C2B01000014020000310000006662782F43414141363041
311
342D463930372D343437392D383931352D3838443930434243384641382F636F72652E786D6C8D51CB6E833010FC15CBA7F4605813201019473455BEA03F40B0935A0936F2A3CAE7D72E446A6FB978ADD999D9D12E3B3CA63BFA96D629A33B4C33C048EAD108A5AF1D0EFE421A8C0E9C5963FC1F1A467A986487138C39BB5A
311
13E6151A8DF652FB886A23E40A0ECE498FD1788F9F0EBBF14B4E4336041F19EE96CDC3781BAE32A3596C471E67CEDB18002D43D28BF9B1EFFB1AFA929C5AD891B2DCB5A46969459AE6A385E3FBB139F50DCB1721672128B1CA958871D44549FBAA491273E6D5F48C3F5A397829302F8016042829AA4F0A7B28F75011A8F700
311
2C4FF47FA2308B17454169BF2DD6B88BCC614E59BE343813269CEFCF30F2311BEB519AB771727CC31C3228604BDBB260F9428D0B889E75B97A3A6F6C5CF0E6768E6C5A2DC675C9599E6E14CBEF01634DF7E43F504B0304140006080800825039401D6AF1934D01000033030000300000006662782F43414141363041342D46
311
3930372D343437392D383931352D3838443930434243384641382F636E782E786D6CD593CD6EC32010845F0571B78D5327AA224CA41EFA043DF48A6193D260B0F8A99AB7EF929034971C7AEC0559B3C3CCEA13E6BBEFD9922F08D17837D2BE659480535E1B7718694EFBE699929DE0C1FB7467A3C4C919465A642AF821F8BC
311
5449C35E669B50B5C61DAB1820FA1C144494CB4D62BD921603C03519459827D01A34B919F16B0F015741713A91F401E4F5E59DF8E913548ABC2B298277A543F072D6A63B1325CACA18471AD507CCB29539790DF1D86A9964DBB7D7AE073BFD269172E15A998321A57CA4E5A4A26ED42247DEE150F09802D2ABA6745A800AB9
311
2CD62899107277365E3C8267E3D266A85E83E003BAFBCDD33060D8792678323354870A2013682A56AC5F35AC6F56EBB79E6DD9B065EB866DB68CF1AED8059FBCB7F512C640F00B51DE2570898A9E7765FC085FF5116D02B2F6E1F4079008A0B65EE8DC32FE339FEEFCBE1157C0BF40FC00504B030414000608080082503940
311
2B6543209C0500007B100000340000006662782F43414141363041342D463930372D343437392D383931352D3838443930434243384641382F6F626A656374732E786D6CAD575D8F9B3814FD2B887D26409299362B866A923455D49DB66AD46A1F468A1C308C77CC876C3393E9AFDF633004D2649A5DF505B0B1AFEF3DF7DC
311
0F07EFF619B79EA890ACC86F6C7FE4D916CDA32266797A63572A71DEDAD6BB301045A17ACB6C2B2719BDB1F5B41D06A928AAD24CC53421155747B3ABF9DF968C684E6D2BE244CA1B5B460F34232352A922A6F2711413454669B21FF9A366E1506C2A48F97024B42482E60A9A623E8714AB51CA1F0E3DDB0D0357FF0F03FD34
311
AB26E757B9B53DC3F3592E15C9A39F0E3B1233F1A7CBF7E3AB9973359D4E9CE9F5D877E6ABF9D2F1DF4CBCC5F56231BB7D3FC3C1520948329A089AD8E10760235814B8CDAF30A858AE2663B3C438C815F489694FD9E1D8F203B759D359678C3CA57E54E4398D6AAC80466D9F111DD392E6317CCEA884663D84BCE1D0D738F6
311
7E4FF4D81CD99FBE0C81FE8E9EA056F7F6DDD7B4D8FD0313E4250C12926A0636581A431BAE7A07847745C1CD3F26AD8C282A18E116673B41C48B1D62A95E120603319AC9424783B6C00EE185E6F7902E08A35FF3FC949649C5B9A6B11DD651B045AC50256BCDD80F2A0EDAF791814EF09566C35B63907A29A91DCE1A8ABC3D
311
625303A4957092C2E53053EF9C8C8F0C5DE8385D2FEDF0E36AB7DFE8D83D7D78298A920AA5E9036AB58E6BDF1A25A3937F91E7F406FB489503285F81FC2784FA4115F84DB0FD743F35A7284172991422836F2CCF723C3C3CCBAF9FFABBF715B8DDE6A1F7CEE109676BA87E039E431BFABEECC119064F207C2126C6B44D4438
311
D2C61DCB01902689C50B4C210F27BBBD1DAE91E59095B18BF0D087C950F7099F816BC42051D427F5DE39B03C4A8B172468C05633126A34E4370A1EFCF4533AAB0F36CBCEC17BF55BE87ABBDC7CDC54222111BD3331BDA409CB9942893BF0A6AFD000F381458FF4E5B910310CFD19EF4D1FEFCC1C2581B6C65C039FB6395D0F
311
0E270F0E88B02F2D74BA097E71028CD085B527FF8EC988724E725A54EDB9AFD60F948D06621DEC9AC95D8139141690A6F973148328D29160A506B1AB565DD21C9DB1EEDBFA13186987F397BFC84B3F7BED0EB9372A7821B6BB976D93964E42FD7DC86D8381ABA580EE7590B4F16F40DFC62C492A89247802D7EFEB45DF773A
311
2D2045B4529B6899C27E04171186B4AD5C546B4150498B7CCB50371177270FE8CB07A48601B5C0731A4BCA932DE3BCCAB609E3A846DB8C9467E0F8FFFAEFAAACDC92ACA8727546F640755487A1EE03F6CA67A2A2073BDCD46F678EDC1BD3F80C19742D3981D5C0B5DE72355FADDE8F9DEBA93773A6F3DBB133BBBE5E38F3D9
311
D2F366579337FEEC4DEBA7469330684B4D3FA2E12594B6A012CCB8EFDB1AF16392801DDE1125EF3F34E1D9BEBFAD47E88503177B502FBB8DB7F113FA3E1AFF5AC061E54941EBACE434A3B9223A86EEF407FF4AD0670C9469E6D71949E905523E7FD81C1983990BF67DD1F14E9F8FF69AD9850EC89342D44395ED72C2F8D1C6
311
B4417254E6A9C1AFF549F76E0A4D3BD423E31874A6B2E02C461E8CAD94161955C886171421915109EAF57BFAD8DC3D2ED8FDD474888AEC386D3579206892B94458805A55A486F3D61F68EA745F7563A3DC8E1EF13099C2B6C0991B1B4DBA621195A31D0AB46E856AE1E052BF9347E34FF294A3D76E3675E36E97C6665092BB
311
2597F44FC6AE26851B0390464AF40D6888E09D5A9930A87533FFA3FF6478AB8E45143E7795EA6C394C74C6D4C720441BA3CC6D014DCCA3397A8F407DDD2C7F54AF192072D12DEB551234521D45445ADF14B47E46A5DBE517171D8AB5FE6C95BC4AE1CBCB25398282CC950E70B008AC30324BA240D5C59FF75F44819B6C66AD
311
182870BF28B2ACC8CDE0D6DC84ADCD03EEB5F13DD202D51712793FF6FCF17D7D11307793ED8E483A22B17CC4047C2A5807F1C0F16064735B44056A7E74EB5CED84236EAE9796296953083544E967550D0B5A8E9C5A881E7D99D4B1D25F50BE7A1770EBA55041A08B0FFF05504B030414000608000082503940000000000000
311
000000000000350000006662782F43414141363041342D463930372D343437392D383931352D3838443930434243384641382F76657274696365732E62696E504B030414000608080082503940F270F1330600000004000000360000006662782F43414141363041342D463930372D343437392D383931352D383844393043
311
4243384641382F747269616E676C65732E62696E636660600000504B030414000608000082503940000000000000000000000000370000006662782F43414141363041342D463930372D343437392D383931352D3838443930434243384641382F617474726962757465732E62696E504B030414000608080082503940D598
311
7DFC8F00000041010000360000006662782F43414141363041342D463930372D343437392D383931352D3838443930434243384641382F6469726563746F72792E786D6C858F410EC2201045AF4266AF15DDB800BA74E7C21B903225242D6328188F2FA5C4183471359997F9FF81E89FF3C41E1816475E02DF1F80A11FC838
311
6F25A438EECEC07A250251FC3803E6F58C12560C4AD840E95E91C151A72936F496F35732D860FE635F62C8F2DA16B505C545B74125BAA2FA9E05D7CC053D063734D5C7665FD55B6B8D15D5E9BFEAFD8490FFA45E504B0304140006080800825039403C503ABAFD000000A00100003B0000006662782F43414141363041342D
311
463930372D343437392D383931352D3838443930434243384641382F7265736F75726365732F636F72652E786D6C8D504B6E833010BD0A9ABD614C2125C8386AD2E404BD806526899560237FAA1EBF26A152BBEB6666F43E9AA727765FD3BDF8241F8CB303F012A120ABDD68EC658014CFAC83622785772EFE924161D54403
311
2C304871F12ECD2BA49D8D646346AD1B6905550814A1D0F77C0C10F4952655AA14B322DCCA59E99BBA50C9CB4C679D1421FA1CA0783E5926484FC125AF2988EAC94A919219578D19F34F7336E4416EB07BC5BADEB0FD697B62CDA169D9DBF19DB3869F708B7B7EEC0E9DA816B314D14C3F19B5271569045923AF197256B71F
311
1C7B6C7A6C196E7A44512DF23FA6348FFF342563E34BBDC67DDA02489E833C0829AAA5AFBC1E65E6BD742BBF01504B010214000A0000080000825039403DEE336E79000000790000001B00000000000000000000000000000000006175746F6465736B2D64657369676E2D7061636B6167652E786D6C504B01021400140006
311
08080082503940D486FD9CA0000000F40000001300000000000000000000000000B20000005B436F6E74656E745F54797065735D2E786D6C504B01021400140006080800825039402FFB1422EA0000007C010000080000000000000000000000000083010000636F72652E786D6C504B010214001400060808008250394055
311
019EA25F0000007C000000070000000000000000000000000093020000636E782E786D6C504B0102140014000608080082503940FA6ADB9F65010000020300000C00000000000000000000000000170300006662782F636F72652E786D6C504B0102140014000608080082503940DD90712D7D0000009D0000000B00000000
311
000000000000000000A60400006662782F636E782E786D6C504B0102140014000608080082503940C273841C2B0100001402000031000000000000000000000000004C0500006662782F43414141363041342D463930372D343437392D383931352D3838443930434243384641382F636F72652E786D6C504B010214001400
311
06080800825039401D6AF1934D010000330300003000000000000000000000000000C60600006662782F43414141363041342D463930372D343437392D383931352D3838443930434243384641382F636E782E786D6C504B01021400140006080800825039402B6543209C0500007B10000034000000000000000000000000
311
00610800006662782F43414141363041342D463930372D343437392D383931352D3838443930434243384641382F6F626A656374732E786D6C504B010214001400060800008250394000000000000000000000000035000000000000000000000000004F0E00006662782F43414141363041342D463930372D343437392D38
311
3931352D3838443930434243384641382F76657274696365732E62696E504B0102140014000608080082503940F270F13306000000040000003600000000000000000000000000A20E00006662782F43414141363041342D463930372D343437392D383931352D3838443930434243384641382F747269616E676C65732E62
311
696E504B01021400140006080000825039400000000000000000000000003700000000000000000000000000FC0E00006662782F43414141363041342D463930372D343437392D383931352D3838443930434243384641382F617474726962757465732E62696E504B0102140014000608080082503940D5987DFC8F000000
311
410100003600000000000000000000000000510F00006662782F43414141363041342D463930372D343437392D383931352D3838443930434243384641382F6469726563746F72792E786D6C504B01021400140006080800825039403C503ABAFD000000A00100003B00000000000000000000000000341000006662782F43
311
414141363041342D463930372D343437392D383931352D3838443930434243384641382F7265736F75726365732F636F72652E786D6C504B0506000000000E000E00800400008A1100000000
310
504B03040A0000080000825039403DEE336E79000000790000001B0000006175746F6465736B2D64657369676E2D7061636B6167652E786D6C3C3F786D6C2076657273696F6E3D22312E302220656E636F64696E673D227574662D3822203F3E3C666F726D6174733E3C666F726D61743E687474703A2F2F736368656D612E
310
6175746F6465736B2E636F6D2F64657369676E2D7061636B6167652F323030393C2F666F726D61743E3C2F666F726D6174733E504B030414000608080082503940D486FD9CA0000000F4000000130000005B436F6E74656E745F54797065735D2E786D6C7D8EC10E82300C865F65E91D8A1E8C310C0EEA1BF002731658846E
310
D98AC1B77784ABF1D8FE5FBFBF75BBCE937A534CCEB38643598122B6FEE978D0B0485F9C41B54DDD7D022595594E1A469170414C76A4D9A4D207E29CF43ECE46F218070CC6BECC4078ACAA135ACF422C856C0E68EA1BF5669944DDD7BCDE7B1F8E415D77AECB980613C2E4AC91FC167A2B244592486606FC29C8FD7F045B9A
310
EF7053A7E60B504B030414000608080082503940F5F4E1CAEB0000007C01000008000000636F72652E786D6C8D904D6EC3201085AF82668F0DFE4B6C61A238754FD00B20202E4A0C9681AAC72F4E1CA9DD7535A337EF9B193D76FA9EEFE84BAFDE38DB03CD08206DA553C64E3DC470C5474027CE56E7C22F1B202B66DDC326
310
0367D3EAE2B24BD2D9A06D48AA754AEFA2F05E0740F29E9A1EBCFCD4B3C8440CC9E16FD922E44D4C3AA3AF2EC1311A859E478C4AFBCCD5E815F870682FEDE538E0722C2A5C9DCFEFB83DD4256EEA712465D3BE1DEB81E51BCC5930F3EBBE5CB5085A012F082D30A1B8A83F28E948D5911A93A62384E59BFD0F1417F54F281A
310
1BCA627FF78979E0343DF21870966F59A4F2082AD52D37FE03504B03041400060808008250394055019EA25F0000007C00000007000000636E782E786D6C4DCB3B0E80201045D1AD90E915ED2CF8AC45050C11660C8261F98AB1B07AC9C97D42D718D865D3E909258CFD00CCE24AC6E326A164D74DC0B4128928FF32603847
310
2BA13128B1252AC747C6BAB984FC68F0B87FE8960A5C09FE86CFB69FBA01504B0304140006080800825039406BDDBB0867010000020300000C0000006662782F636F72652E786D6C8D525B6E833010BC8AE57F63F3CA4BC65192A627E8051C70280AD8C8D828C7EFF28868AA28AA908C35B3B33B3BC0F7F7A646BDB25D6574
310
86C38061A4746E8A4A9719F6EE4A3618ED05B7C6B85F651869D9A80C0F3016BCB4C6B733941BED9476806A53A819945DA71C46790D970C77F9B76A6420BD838AEE16B432BFC95205610034D409DE390B06D0346438B1B85EEE9C4EB8E0DE57C5CC56054CABAE95B2581CD7DBD3F6B43992F81C2524391C3EC9769DC664959E
310
CF2C5E6D3F36E991D3412CB8AB9A87BBDC2AE9548145C4C288B09044E957C8762CD9B194B0D58E314E87F227916F8B7F8A7CA55D1CCD7627598745084646E2CFB61091439DECC10F159C0E21C26B4CF8396808044276F2523FF6B801D4ABDC199B005318BF50BDACBD82A90C8D0FA7130B9DC706B0D9CB3ED19B3EEF7BC007
310
94BA046BD2C1F5E2DD309D4F53E7285A6549EFEE481BDBC87A3137595CCE65D04B796E6A63FFA3A6F3AA740E930E7FAFF801504B0304140006080800825039404435E4E97E0000009D0000000B0000006662782F636E782E786D6C4DCCDF0AC2201C86E15B91DFB94D87598173F8A7EE63343724A7611A5D7E5BECA0A30F1E
310
3E5ED17F9680DE2EBF7C8A1DD00301E4E23D8D3ECE1DD432E133A05E8A9C52F9BB018AC3E23AD818A49873AACF9D46370D359455838F8F1DE99110A35B8E39A137CCECC960C58CC28C587EB1BAD58A5FA191A2F995D6DDC2F20B504B0304140006080800825039401DDEF8252B01000014020000310000006662782F313530
310
30434232362D363031462D344437432D413443412D3430443639444232424136452F636F72652E786D6C8D51CB6EC32010FC158B537AC05E1CE2A61126CAA3FD82FE8003244589C1E251E5F3BBAE1DA9BDE5C2A2D999D9D1AED8DEFB5BF16D42B4DEB58495400AE394D7D65D5A92D399AE49B19522789FFED048E1BADEB464
310
84891497E0F33043CABB645C42D4796D66B08BD12452A81B7E5A12D597E9BBB2CB0919F15A0E9DBA761753B212DBC89322A680018A69C8F812C95600877DDDD006D807E5C7D703DDF1C38E7238366FC77DBDDF35EFA29A8452E46CF52CB71AE3D8B335E15993512C45B2FD23BE0AA64B46135903AB29305AAF3E196C806F60
310
45A1D900886AA4FF13E5413F29CAD6A5653DC79D6411B38A6A6A48A17D3EDD1E61CC7DF02115E3BC4534EA854828A1661CF8722DAA898A0B40CF86CF9E31F9800B5E5C4FC85EB2C9B8E15254E38DB0FC1E10EB784FF903504B0304140006080800825039407BCD3E845501000033030000300000006662782F313530304342
310
32362D363031462D344437432D413443412D3430443639444232424136452F636E782E786D6CBD93C16EC32010447F0571B78D1DC78A224CA41EFA053DF48A6193D0D86001AE9ABFEF929034971C2A55BD206B7698593D61BEFB9A46F2093E18677B5A978C12B0CA69630F3D5DE2BED850B213DC3B171F6C945839414F934C
310
053F78B7CC59D2B097CB18511D8D3D65D143708B5710504E37C9E8941C31006CB1A008D3005A832677237EEDC1E32A280E67128F405E5FDE891B3E40C5C0AB942278953A044F676E7A3051A24619424F833AC2244BB944A7219C4A2DA32CEBF2D6F564A79F24922EDC2A176F482AEF693AA9C81B95C8915738143C448FF4B2
310
299E67A042CEF368948C08B9BA18AF1EC1176363D766AF41F01EDDABA6DB6C30EC32133C9A09B24379901134150DAB9B82D545B37EABD996B55BB62E58B7658C57C92EF8E0DC982F610C783713E56C041BA9A87995C6CFF0651FD1C6236BE7CFBF00890072EB95CE3DE32FF9D4DDAA6DFF914F7579DF88CBE35F20BE01504B
310
0304140006080800825039403ECF92C25A070000941B0000340000006662782F31353030434232362D363031462D344437432D413443412D3430443639444232424136452F6F626A656374732E786D6CED59DD73A33610FF5718FA6C0CB6933B77089DC4BEDC78DAB43775AFD387CC3032C8448D108C247271FFFAAE3EC040
310
4C82DBF4AD0F3620A4D5EE6F3FB5843F3CE7D479C25C90825DB981E7BB0E66499112965DB995DC4F3EBACE0F51C88B42B6A6B90E4339BE72D5B01B85192FAAD20EA5788F2A2A7BA3B7377F3822C10CBB4E42911057AE481E708E3C54C922C5E2D14B91445EB67FF602CF4CEC92CD382A1F7A444BC43193C0298C33A0E218A6
310
82EEA3EF4EA370AADE47A1FAB7B3E6A3662D86674DB5D45D2E091312B1E4054B3D32F3512CCD83C5FAD3EC6239B9582CE693C5E52C98DCDCDEAC27C187B9BFBA5CAD96D79F96C0DEAE28A89529C5256629E8EFE0464138556F1AD12D02A7B84E0AC670A28104A8B4587D82040BD8AA059FDF7D0C9444ADD75AC2D6F342BDB7
310
2CB486E75D2A43B3C601D1A10B82D8ED6A89EB6B5BBE62F727082EC61825175802B74272D0AE85878357B8911F4ECD6814EE8EBA20C2C991C49C20EA50B2E388835260AA9A1285668125A39C8303294749A035675E776D0B3CF36DD739C5E5BEA25479861B69C78AC1FDB0149A33F217E647EEDBC8004F206D4598FC68B994
310
8712BBD1329CEAC1285497F9CCBE34403A7B8A32A111316F7B82AE94EB6FD66EF4E3EDEE79ABC2C1E9CD4B5E94984B65744A8F9A2F30647B5528D96D83519A530B401803AA5D7904E55740FE67881E4756406F9C3C2F9E1776AEE488897DC173D08DE33B131FFE7C27D0FFEABE75174E9BC55DED0DE1096EAAA0FAF8EFF1EC
310
CAA0B1B2FCB7E08CC22730F882CFEDAB6D8228D8F31D610090321287163004A17DBF7B76A30D044E08F4B00AD128009181DD27B80DA796CC512BB57B59AF6380A8DD633E4649009BB6486063404F9F217B70921CD5D4167108DE8B7731D7EBF5F6C76DC5F728C177D6A7D7784F189190354F33D4C1BC23D1233E7C2B780A82
310
BEC47BDBC63BB75B09405B61AE80CF6A10D4C371E7CE0609ACCB0A156EC23776002154AE6ED1BF2322C19422868BAADEB7896ECA501B8FB735831BCD0CC4F359CF84397E22AAAA00A739CEE8300A793FE1A45420BAD16723591334BD01E9BE6E7E068B6CE60FCCDA3008BD0CD1DF74D03A8143C7B26BA42D108DC0BB63384F
310
0A5AF07877884DA473A1960036BADEF27B8728C47AA32445053C48FB5D1D5232236D9C92FDBE1210574FB0F8FB66D53607DF9B07174EFBBFE78C0B88B6E0BB885BBFEBED11931C6538DEA37468BBF66E0D6DA1490E90E6784F412EF244E4214632F6539C9D03CD59C497EF4A3DA38510846101F9EA24F86D347C0F0289D166
310
CDB2D26A0F6822E21C4B44CF414091190057A71D5DE326503ABCCD6363BDAF69AC4DF43FB2088EA0962C584CA014851CF226E381770131A48BAE41B9872F585B4D5B8B412B28219243FC0D93EC419E83BA213F807B0247924AC645891230EB11645FF88A526A8FF71D4A1E55FE88938ABE9781084CF731A1B4CA63F8110627
310
8F31AEDD04A65751681137B14FE21C8A32242B3E6693CB0BFFC53EA666E887C0D6467B42216CC7392A0750EF04445D8F380DF896FA805277555EC6282F2A36CA50BC79DF9B2CF9BE5A15D991FCAA5211CAC69AB025188584C926ABD6311B4C5D075670231DA80EB1407949CD29EC8DC41334DEA4290F6EC0AD9FBEEF063914
310
7E03DA6B47D4450D83E5B15318886F48260F6EB4D5D7C90DD4DF294E8FA9BEAE35DB152020A62279C58955D1D70D9437B64673A33B24C5FD679375EBEBD78D07DD8F700A6BA07669166E14D0396612A9CAE44EDDD05F1184E00E0D33BE5139F51C2AD769AAAB46446FC9903A3B654467D39C78E50366450E3F764F5842AB14
310
DFA3543CC67792C65BA258B7527A39A9317E55C05F3E6F7BF0C0C80891BEA8020F7FEBADB5A32B552E9D24221FAA7CC7108120D8112D33BAF14A96598DD45A6EAEEA4C017517189855F1E2FF9345BB1DF1FFC922B386F1AF4E1637879FD0A1DD1769A5F344D9F559C780263F292AEF710CD06D87866A93454C32B7F25B678A
310
2128D6517E743556070D437088E37F9CB587B2A0D9AEC7FF79593B7851719C95553A935597EA44E5BA69E7307F7D7B737BFB6936B95CF8CBC9E2E67A36595E5EAE2637CBB5EF2F2FE61F82E587064DEDA851D804339DBBE0D904B57A583D590CA02B2B0A4A5238CDA74E8621E64B38D38F689FF31C0B489EED66776A9BF223
310
563F993EA7443B8A6B4E1E103488A980B40E185589EC8E3BDF416B52C241FBCA85A691F7087FD62A5D0732CF950BAD0249122CBC1DB49954434F138794AB73BF2506F82096A994681635CFCD2A854D27FC3753C6A4012B57A78701855B09DDAF4E8742F366794ACE12BC66C741126E7795846ACDC8721C6884D1DB1CD56F64
310
A3843DDAAD9FC1755F172BF0F49C0E22A33E19BC6A0486EA44229EE97EB762CCB274BDFE32853E9BB3F9C5296995812EC7539A700CC65CA9820AAC08ACC2D22C9104535D7D7FFF8517F0892777745574BF2AF2BC60F6E11ACE63297C2272B60FF0C127BD87B201ABB6BAB89FF9C1EC5EB7B36D873DDE21813D550FC1405D46
310
28117AC60616F9A235651B9753A584DEF4CDDAB1E113DA00C6825E7477CDE72D07BC477D4851BEA23DBC96F3D58EF6544F056BE0D08B8EFE06504B030414000608000082503940000000000000000000000000350000006662782F31353030434232362D363031462D344437432D413443412D343044363944423242413645
310
2F76657274696365732E62696E504B030414000608080082503940F270F1330600000004000000360000006662782F31353030434232362D363031462D344437432D413443412D3430443639444232424136452F747269616E676C65732E62696E636660600000504B03041400060800008250394000000000000000000000
310
0000370000006662782F31353030434232362D363031462D344437432D413443412D3430443639444232424136452F617474726962757465732E62696E504B030414000608080082503940D5987DFC8F00000041010000360000006662782F31353030434232362D363031462D344437432D413443412D3430443639444232
310
424136452F6469726563746F72792E786D6C858F410EC2201045AF4266AF15DDB800BA74E7C21B903225242D6328188F2FA5C4183471359997F9FF81E89FF3C41E1816475E02DF1F80A11FC8386F25A438EECEC07A250251FC3803E6F58C12560C4AD840E95E91C151A72936F496F35732D860FE635F62C8F2DA16B505C545
310
B74125BAA2FA9E05D7CC053D063734D5C7665FD55B6B8D15D5E9BFEAFD8490FFA45E504B0304140006080800825039409D1EBCFBFD000000A00100003B0000006662782F31353030434232362D363031462D344437432D413443412D3430443639444232424136452F7265736F75726365732F636F72652E786D6C8D50596E
310
833010BD0A9A7F83D91240C61149D313F4029699102BC1465EAA1EBF2650A9FDEBCFCCE82D9AA7C74E5FF333F944EB94D13DE4298504B534A3D2530FC1DF4803C989336B8CFF2583448B197B5861E06CB2262C3B248DF6A87D44B51971078573E82191CF78F4E0E41D67918AE0A3C23DD245C8879830CDD348471D67CEDB18
310
20D99EAC13B845678295E858B6B19C85A0C65DA3C6F853DD145AE0E7637B692FCD40CA6B51916A18DE497BAC4B72A8AF575A1EDAB7A63EB36C3573E6D5FC93515A141E47E005CD0B427352D41F39ED68D5D19AD0434729CB56F91F5358C67F9A82D2BE2CF6B89BCD01CF639017C159B6F615D7ABCCB8D76EF937504B010214
310
000A0000080000825039403DEE336E79000000790000001B00000000000000000000000000000000006175746F6465736B2D64657369676E2D7061636B6167652E786D6C504B0102140014000608080082503940D486FD9CA0000000F40000001300000000000000000000000000B20000005B436F6E74656E745F54797065
310
735D2E786D6C504B0102140014000608080082503940F5F4E1CAEB0000007C010000080000000000000000000000000083010000636F72652E786D6C504B010214001400060808008250394055019EA25F0000007C000000070000000000000000000000000094020000636E782E786D6C504B010214001400060808008250
310
39406BDDBB0867010000020300000C00000000000000000000000000180300006662782F636F72652E786D6C504B01021400140006080800825039404435E4E97E0000009D0000000B00000000000000000000000000A90400006662782F636E782E786D6C504B01021400140006080800825039401DDEF8252B0100001402
310
00003100000000000000000000000000500500006662782F31353030434232362D363031462D344437432D413443412D3430443639444232424136452F636F72652E786D6C504B01021400140006080800825039407BCD3E8455010000330300003000000000000000000000000000CA0600006662782F3135303043423236
310
2D363031462D344437432D413443412D3430443639444232424136452F636E782E786D6C504B01021400140006080800825039403ECF92C25A070000941B000034000000000000000000000000006D0800006662782F31353030434232362D363031462D344437432D413443412D3430443639444232424136452F6F626A65
310
6374732E786D6C504B01021400140006080000825039400000000000000000000000003500000000000000000000000000191000006662782F31353030434232362D363031462D344437432D413443412D3430443639444232424136452F76657274696365732E62696E504B0102140014000608080082503940F270F13306
310
0000000400000036000000000000000000000000006C1000006662782F31353030434232362D363031462D344437432D413443412D3430443639444232424136452F747269616E676C65732E62696E504B01021400140006080000825039400000000000000000000000003700000000000000000000000000C61000006662
310
782F31353030434232362D363031462D344437432D413443412D3430443639444232424136452F617474726962757465732E62696E504B0102140014000608080082503940D5987DFC8F0000004101000036000000000000000000000000001B1100006662782F31353030434232362D363031462D344437432D413443412D
310
3430443639444232424136452F6469726563746F72792E786D6C504B01021400140006080800825039409D1EBCFBFD000000A00100003B00000000000000000000000000FE1100006662782F31353030434232362D363031462D344437432D413443412D3430443639444232424136452F7265736F75726365732F636F7265
310
2E786D6C504B0506000000000E000E0080040000541300000000
  0
XRECORD
  5
17
102
{ACAD_REACTORS
330
12
102
}
330
12
100
AcDbXrecord
280
     1
270
     1
271
     1
  0
XRECORD
  5
16
102
{ACAD_REACTORS
330
12
102
}
330
12
100
AcDbXrecord
280
     1
270
     1
271
     1
  0
XRECORD
  5
18
102
{ACAD_REACTORS
330
12
102
}
330
12
100
AcDbXrecord
280
     1
270
     1
271
     1
  0
XRECORD
  5
15
102
{ACAD_REACTORS
330
12
102
}
330
12
100
AcDbXrecord
280
     1
270
     1
271
     1
  0
XRECORD
  5
8AE
102
{ACAD_REACTORS
330
22
102
}
330
22
100
AcDbXrecord
280
     1
102
MATERIAL
148
0.0
149
0.0
149
0.0
 93
        0
 94
      127
282
     0
 72
     0
 77
     0
171
     0
175
     0
179
     0
273
     0
  0
XRECORD
  5
24
102
{ACAD_REACTORS
330
22
102
}
330
22
100
AcDbXrecord
280
     1
270
     1
271
     1
  0
XRECORD
  5
23
102
{ACAD_REACTORS
330
22
102
}
330
22
100
AcDbXrecord
280
     1
270
     1
271
     1
  0
XRECORD
  5
BA
102
{ACAD_REACTORS
330
22
102
}
330
22
100
AcDbXrecord
280
     1
 70
     1
 90
1959938040
 71
     1
  1
A8A3947C-A021-4E37-A6FD-0BCA8C556F9A
311
504B03040A0000080000825039403DEE336E79000000790000001B0000006175746F6465736B2D64657369676E2D7061636B6167652E786D6C3C3F786D6C2076657273696F6E3D22312E302220656E636F64696E673D227574662D3822203F3E3C666F726D6174733E3C666F726D61743E687474703A2F2F736368656D612E
311
6175746F6465736B2E636F6D2F64657369676E2D7061636B6167652F323030393C2F666F726D61743E3C2F666F726D6174733E504B030414000608080082503940D486FD9CA0000000F4000000130000005B436F6E74656E745F54797065735D2E786D6C7D8EC10E82300C865F65E91D8A1E8C310C0EEA1BF002731658846E
311
D98AC1B77784ABF1D8FE5FBFBF75BBCE937A534CCEB38643598122B6FEE978D0B0485F9C41B54DDD7D022595594E1A469170414C76A4D9A4D207E29CF43ECE46F218070CC6BECC4078ACAA135ACF422C856C0E68EA1BF5669944DDD7BCDE7B1F8E415D77AECB980613C2E4AC91FC167A2B244592486606FC29C8FD7F045B9A
311
EF7053A7E60B504B0304140006080800825039405F3AC5E5EA0000007C01000008000000636F72652E786D6C8D905D6EC3201084AF82F61D1B70FC1761A2D44A4FD00B20202E4A0C9681AAC72F4E1CA97DAB84B4AB61BEDDD5F0D3F77C475F660DD6BB0168410019A7BCB66E1A20C52BEE009D045FBD8FBF6C809C9CCD009B
311
0C824FAB4FCB2E29EFA27131ABCE6BB38B32041301A97B6E0608EAD3CCB290296647B8158B5437399982BEBA0CA764357A2EB13ACFB3576B5610A41D2F63DB77B86A58870F7555E1B7BE79C75DD7D6FDB96ED8F932F27283058F767EED57AB91D168108C508609C5ACFEA0E4480EF961D21C09E1E566FF03A545FF134AD6C5
311
8AEDE73EB10082E6431E1F82975B16B93C82CA75CB4DFC00504B03041400060808008250394055019EA25F0000007C00000007000000636E782E786D6C4DCB3B0E80201045D1AD90E915ED2CF8AC45050C11660C8261F98AB1B07AC9C97D42D718D865D3E909258CFD00CCE24AC6E326A164D74DC0B4128928FF326038472B
311
A13128B1252AC747C6BAB984FC68F0B87FE8960A5C09FE86CFB69FBA01504B030414000608080082503940D311540C65010000020300000C0000006662782F636F72652E786D6C8D52ED8E8230107C95A6FF4B0B08A229359EF19EE05EA042E588D092D2121FFF960FC37931E602816666677776801FEE6D830665FBDAE81C
311
8701C348E9C294B5AE72ECDD9564181D04B7C6B85F651869D9AA1C8F3016BCB2C6770B5418ED9476806A53AA05947DAF1C464503871CF7C5B76A6520BD838AFE1674B2B8C94A05610034D409DE3B0B06D03C647C6271BDDC399D71C1BDAFCB85AD4B98565F6B65B160DBD3F9B4DD65244EA38C6C9238261FBBF49364D936D9
311
1D93343A9E4F9C8E62C15DDD3EDC155649A74A2C2216468485244ABE42B6671BB8094BF78C713A963F897C57FE53E46BEDE268B13BCB7A2C423032117FB685881CEAE5007EA8E0740C115E53C2CF41432010B29397E6B1C70DA04115CED80D30A5F12B35C8C62B98CAD074713AB3D0796A009BBDEC13BDE9F3BE077C40A92B
311
B0261D1C2FDE8DD3F93C7589A253960CEE8EB4B1AD6C5673B3C5F5B90E7A292F4C63EC7FD47459952E61D2F1EF153F504B0304140006080800825039403A2A9EC97E0000009D0000000B0000006662782F636E782E786D6C4DCCDF0E82201C86E15B61BF7332F9931C002E43EFC3253A164223685D7EDA3CE8E8DB9E7D7B65
311
FB593D7ADBF4723128A84F674036DCE3E4C2A2A0E4190B40AD9629C6FC770314C6D52AD819B45C522CCF83263B8FC5E74DBD0B8F036F031B1A430CEE39BD6056D31E0BD1316CA820BCBB724A44039596D5AFB4ED1ED65F504B030414000608080082503940504C225F2A01000013020000310000006662782F434634463744
311
32442D453533362D343133452D383842342D4433383235424135333238372F636F72652E786D6C8D515B6EC32010BC8AC557FA810D183B5684899A2639412FE018E2A2C460F1A872FCAE6B476AFF2221160D33B3032BF68FF19E7D6B1F8CB32DA2394199B6BD53C60E2D4AF18A1B94EDA5F0CEC53F3494D96ED42D9A6124C5
311
E05D9A56A877366A1B01B54EE915EC42D01165FD1D0E2D0AFD971EBBBC4B1118E1964F5D7FEB069DD31CAE812745881E02644B937947F2E3CCCFDB233BE25355D698D3F2849BE6C0F1B16C587578AF4AD66C45B108A548C9A8556E14C43157A3FDAB26B3588A68C667FCDEEB2E6A85242394614231AB3E29D9110E0B937A47
311
882866FA3F519AD48BA2646C2CD91A77910524A928960B29944B97FB338C7E4CCEC76CEEB709BA7F4392E484514A0817C5C284F78365CD57CB109D87FFDDDC2E40A6D5E25B73298A7944507EE707751EA7FC01504B0304140006080800825039401C7F75E24C01000033030000300000006662782F43463446374432442D45
311
3533362D343133452D383842342D4433383235424135333238372F636E782E786D6CD593CD6EC32010845F0571B78D5337AA224CA41EFA043DF48A6193D060B0F8A99AB7EF929034971C7AAC64216B7698597DB2F9F67BB6E40B4234DE8DB46F1925E094D7C6ED479AD3AE79A1642B78F03EDDD9287172869116990ABE0F3E
311
2F55D2B093D92654AD71C72A06883E070511E5729358AFA4C500704D4611E609B4064D6E467CDB41C055509C4E241D80BCBD7E103F7D824A91772545F0AE74085ECEDA7467A2445919E348A33AC02C5B9993D7108FAD9649B67D7BED7AB0D36F122917AE95391852CA475A4E2AEA462D72E41D0E058F2920BD6A4AA705A890
311
CB628D9209217767E3C52378362EAD87EA35083EA0BB5F3F0D03869D678227334375A8003281A662C5FA55C3FA66F5FCDEB30D1BF069D87AC318EF8A5DF0C97B5B2F610C04BF10E55D0297A8E87957C68FF0551FD126206B1F4E7F0089006AEB85CE2DE33FF3E9CEDF37E20AF817881F504B030414000608080082503940BE
311
274C1A990500007A100000340000006662782F43463446374432442D453533362D343133452D383842342D4433383235424135333238372F6F626A656374732E786D6CAD57DB6EDB3810FD1541FBEC8B6C274D168A0AC76E0AA3481BD468B10F010C4AA2146E285120A9D4D9AFDF4389BAB976EA5DF4C5B2A8E170E6CC990B
311
FDF7FB8C3B2F542A26F21BD71B4F5D87E69188599EDEB8A54E4657AEF33EF0A510BA27E63A39C9E88D6B96DDC04FA5280BBB14D384945C1FACDEDDFEE5A888E6D475224E94BA7155F444333226A5163155CFE39868324E93FDD81BD78243B5A924C5D381D282489A6B588AF51C5A9CDA286FF83A7527813F31DF03DFFC5AA9
311
F969A949E5CFF07C962B4DF2E8A7C30ED4CCBDC5FAC3ECE27A74B158CC478BCB9937BABDBB5D8FBC77F3E9EA72B5BA5E7EB8C6C14A4B68B296489AB8C147602359E44FEA4F815FB25CCF6756C4066822E90B3391728399E3F9935AA6F5CE3A79CCFC48E4398D2AAC8046E59F551DD382E63162CEA882653D84A6C357CFE0D8
311
FB3C37EFF6C8FEF27908F477F41435B637CFBEA522FC1B2EA873182415350CACB1B48ED65C9D7608874270FB8D2927239A4A46B8C35928897C7503881A91C01FA8314C96261B8C076E8028D49F8774411AFD9AE7C7AC4C4ACE0D8DDDA0CA821D72856A5559C6FEA1B2B3BE8F0C6C42AC0C1BAEAC43FAB5A06E705D53E4EA80
311
4D35904EC2498A90C34DB3733E3B707465F274B376834F77E17E6B72F7F8E185140595DAD007D46A02D73C0D4AD626EFACC8990DEE81291D285F81FC67A47A670AE226D97EB15FD853B424B94A84CC101B67EA8CA6F8993A5EF56BFEF7FEF99376F3307AA7F044B00D54BF01CFA10FFD58F6E00CFC17105EC8B9756D1B118E
311
B271CF72006448E2708125D4E124DCBBC106550E5519BB080F3CB80C735FF0D79F58352814D549BD670E2C0FCAE219051AB0558C841935F9AD815D9C7E2A67D5C156EC14BC17BF85AECBF5F6D3B6940989E8BDCDE9354D58CE345A5CC79BBE4103CC071E3DD3D71F42C670F467BCB77DBC337B9402DA0673037CDAD474F3D2
311
9D3C3820C2BE549872E3FFE20438611A6B4FFF3D5311E59CE45494CDB96FF60FB48D1A6293EC86C96D83E91A0B48537F39C84134E948B2C280D876ABB6688E4F78F76DF3198C843C1721E19D50D895DE48702177E1EBAEAE4A4791FE3EA4B6856062B480ED558E34E96F31DFC52C494A851A7804D6EF9B553F74A62AA04234
311
5AEB6459C07DE4169196B38D5E346B49D04845BE63689B48BBA307F4F503514B804AE1298B15E5C98E715E66BB847134A35D468A1370FC7FFBC3322B76241365AE4FE81E988EE630B47D405EF583E8E8C90DB6D573748BD21BD3B80BF340D8B49223580D42BBBC5ACEAF17EF56A3E51493D3E2C3FCDD687979B71E4D6F57CB
311
ABD5C5C5E5DDF5B28953AD3CF09B4ED34F6844099DCD2F25B3E1FBB641FAD81AE006F744ABC78F757636CF6F9B3146617F823D6897EDC665FC82B18FC6BF56D0491E55B4C90A4E339A6B6252E8DEFCE15F09C68C8131F5FA2623293D43CB978FDB0367B072C6BE0793EEF4C7C15EBBBA32097954897E2AB330278C1F6C4C6B
311
24C7459E5AFC9A98B4CFBACF34AFE6CD060683A9129CC52883B1935291518D6278460F921955A05E7FA48FEDD5E38CDD2FF580A849C86963C913C18CCC15D202D42A233D5C77FEC04C67C6AA1B17DD76FC8C1F5B295C079CB97131A36B1651350ED19FCD2454290797FA833CE67E92A71CA376BDA97D6F77196C061DB91539
311
677CB27ED515DC3A803252606CC03C84E854C6047E659BFD1EFD27C71B731CA2F1372C75EB4BB7D03A531D8314AD9DB29705CC30CFF6E83D12F56DB7BC71253340E4AC4BD69B24A8B58E349169755130F6599396EB8709061467F3C52978992296E76B1A490A329726C1C122B0C2EA2C880655577F3E3E48818B6CE6DC3150
311
E07125B24CE4F665692FC2CEF609D7DAF81165819AFB887A9C4DBDD963750FB057935D48141D93583D63013195AC8578107830B2BE2C7A10B281B7319898201C7073B3766C4B5B74F2FDAA6A60C1C4915307D963EE922657FA02C59B578149250A532586F8E05F504B03041400060800008250394000000000000000000000
311
0000350000006662782F43463446374432442D453533362D343133452D383842342D4433383235424135333238372F76657274696365732E62696E504B030414000608080082503940F270F1330600000004000000360000006662782F43463446374432442D453533362D343133452D383842342D44333832354241353332
311
38372F747269616E676C65732E62696E636660600000504B030414000608000082503940000000000000000000000000370000006662782F43463446374432442D453533362D343133452D383842342D4433383235424135333238372F617474726962757465732E62696E504B030414000608080082503940D5987DFC8F00
311
000041010000360000006662782F43463446374432442D453533362D343133452D383842342D4433383235424135333238372F6469726563746F72792E786D6C858F410EC2201045AF4266AF15DDB800BA74E7C21B903225242D6328188F2FA5C4183471359997F9FF81E89FF3C41E1816475E02DF1F80A11FC8386F25A438
311
EECEC07A250251FC3803E6F58C12560C4AD840E95E91C151A72936F496F35732D860FE635F62C8F2DA16B505C545B74125BAA2FA9E05D7CC053D063734D5C7665FD55B6B8D15D5E9BFEAFD8490FFA45E504B030414000608080082503940AF5B5195FC000000A00100003B0000006662782F43463446374432442D45353336
311
2D343133452D383842342D4433383235424135333238372F7265736F75726365732F636F72652E786D6C8D50596AC33010BD8A997FD9B21C2F09B2426AD213F402429E3822B164B4941EBF72EC42FB57109AE12DCCE3F1F3D7FCCC3ED1796D4D0F654E2143A3ECA8CDD4430C37D2417616DC591B7EC9203372C61E5618049F
311
9C8DCB0E296B029A90506347DC41E93D06C8D4332D3D7875C759E63286A4F08F7C91EA2127CCCB3CD14927B80F2E05C8B623EB0FC2A1B7D129F4BCD858C163D4E3AED163BAA96F1A1D08DA0ED7A13DB6A46A58470E755591B763F34EBAAEAD8F97BA6197EBC08BD52C78D0F34F46E550061C41305A32424BC2EA8F929EE821
311
3D429B13A5BC58E57F4C7119FF698ADA848AED71379B0751A6202F42F062ED2B8D579969AEDD8A6F504B010214000A0000080000825039403DEE336E79000000790000001B00000000000000000000000000000000006175746F6465736B2D64657369676E2D7061636B6167652E786D6C504B010214001400060808008250
311
3940D486FD9CA0000000F40000001300000000000000000000000000B20000005B436F6E74656E745F54797065735D2E786D6C504B01021400140006080800825039405F3AC5E5EA0000007C010000080000000000000000000000000083010000636F72652E786D6C504B010214001400060808008250394055019EA25F00
311
00007C000000070000000000000000000000000093020000636E782E786D6C504B0102140014000608080082503940D311540C65010000020300000C00000000000000000000000000170300006662782F636F72652E786D6C504B01021400140006080800825039403A2A9EC97E0000009D0000000B000000000000000000
311
00000000A60400006662782F636E782E786D6C504B0102140014000608080082503940504C225F2A0100001302000031000000000000000000000000004D0500006662782F43463446374432442D453533362D343133452D383842342D4433383235424135333238372F636F72652E786D6C504B0102140014000608080082
311
5039401C7F75E24C010000330300003000000000000000000000000000C60600006662782F43463446374432442D453533362D343133452D383842342D4433383235424135333238372F636E782E786D6C504B0102140014000608080082503940BE274C1A990500007A100000340000000000000000000000000060080000
311
6662782F43463446374432442D453533362D343133452D383842342D4433383235424135333238372F6F626A656374732E786D6C504B010214001400060800008250394000000000000000000000000035000000000000000000000000004B0E00006662782F43463446374432442D453533362D343133452D383842342D44
311
33383235424135333238372F76657274696365732E62696E504B0102140014000608080082503940F270F133060000000400000036000000000000000000000000009E0E00006662782F43463446374432442D453533362D343133452D383842342D4433383235424135333238372F747269616E676C65732E62696E504B01
311
021400140006080000825039400000000000000000000000003700000000000000000000000000F80E00006662782F43463446374432442D453533362D343133452D383842342D4433383235424135333238372F617474726962757465732E62696E504B0102140014000608080082503940D5987DFC8F0000004101000036
311
000000000000000000000000004D0F00006662782F43463446374432442D453533362D343133452D383842342D4433383235424135333238372F6469726563746F72792E786D6C504B0102140014000608080082503940AF5B5195FC000000A00100003B00000000000000000000000000301000006662782F434634463744
311
32442D453533362D343133452D383842342D4433383235424135333238372F7265736F75726365732F636F72652E786D6C504B0506000000000E000E0080040000851100000000
310
504B03040A0000080000825039403DEE336E79000000790000001B0000006175746F6465736B2D64657369676E2D7061636B6167652E786D6C3C3F786D6C2076657273696F6E3D22312E302220656E636F64696E673D227574662D3822203F3E3C666F726D6174733E3C666F726D61743E687474703A2F2F736368656D612E
310
6175746F6465736B2E636F6D2F64657369676E2D7061636B6167652F323030393C2F666F726D61743E3C2F666F726D6174733E504B030414000608080082503940D486FD9CA0000000F4000000130000005B436F6E74656E745F54797065735D2E786D6C7D8EC10E82300C865F65E91D8A1E8C310C0EEA1BF002731658846E
310
D98AC1B77784ABF1D8FE5FBFBF75BBCE937A534CCEB38643598122B6FEE978D0B0485F9C41B54DDD7D022595594E1A469170414C76A4D9A4D207E29CF43ECE46F218070CC6BECC4078ACAA135ACF422C856C0E68EA1BF5669944DDD7BCDE7B1F8E415D77AECB980613C2E4AC91FC167A2B244592486606FC29C8FD7F045B9A
310
EF7053A7E60B504B030414000608080082503940BCE3C119E90000007C01000008000000636F72652E786D6C8D905D6EC3201084AF82F61D9B1FC78D234C54A7B9412F80803828315806AA1EBF3871A4F6AD12D2AE86F97657238EDFD31D7DD925BAE07BA0150164BD0EC6F9B1879C2E780FE828C51242FA6503E4D5647B58
310
6590625C429E3749079FAC4F45F5C1D84D5431DA0448DF4BD343D4573BA94AE5541CF156CD4ADFD4682BFAEA0A9CB333E8B9C49932CF5D9C5D40B6ECC4DECF0DC12D1FDE70D3D0010F7CCF70D7F233231DFFD8752751AFB014C94DAFFD7AB12A59039211CA30A198ED3E293990A63C4CDA0321A25EED7FA03C9B7F42D9F9C4
310
D976EE138B206939E4F12145BD6651CA23A852D7DCE40F504B03041400060808008250394055019EA25F0000007C00000007000000636E782E786D6C4DCB3B0E80201045D1AD90E915ED2CF8AC45050C11660C8261F98AB1B07AC9C97D42D718D865D3E909258CFD00CCE24AC6E326A164D74DC0B4128928FF326038472BA1
310
3128B1252AC747C6BAB984FC68F0B87FE8960A5C09FE86CFB69FBA01504B030414000608080082503940CB2FA7D264010000020300000C0000006662782F636F72652E786D6C8D52ED8E8230107C95A6FF4B4B414E4DA9393DDFE05EA042E588D092D2121FFF960FE37931C640A099D9D99D1D10BB6BDBA041BBBEB626C771
310
C430D2A6B0656DAA1C077F266B8C7652386BFD9F328C8C6A758E47184B51391BBA052AACF1DA78408D2DF502AABED71EA3A281438EFBE247B72A52C143457F893A555C54A5A338021AEAA4E8BD0303681E323EB13C9FAE82CEB81421D4E5C2D6254CABCFB5765866FCC03F8F292359B2FF20691AEFC93E5973B2C99223679B
310
E46BB539083A8AA5F0757B735738ADBC2EB1E42CE684C584AFBE63B66529DC84655BC6041DCB1F44A12BDF1485DAF8842F7667598F650C4626E2DFB6109147BD1AC00F95828E21C26B4AF83168080442F6EAD4DCF6B80034E8C25B970253DA70A706D5040D53199A2E4167163A4F0D60B3A77DF88B3EAF7BC00754A6026BCA
310
C3F114FC385DCC5397283AEDC8E0AFC858D7AAE66E6EB6787FDE073D9517B6B1EE1D355D56A54B9874FC7BE52F504B03041400060808008250394006644D417D0000009D0000000B0000006662782F636E782E786D6C4DCCD10A83201886E15B91FFDCA51453410D66791FB12C64A6C3E9D8E5AF46073BFAE0E1E395FD670B
310
E8EDF2CBA7A8805E082017EF69F6715550CB8239A05ECB9C52F9BB018AD3E6141C0C5AAE39D5E749B35BA61ACAAEC1C7C789574BECC005C3A36D6FB8639DC1C2508B29190D657CB0A225D068D9FC4AFB1E61FD05504B0304140006080800825039405334F5A82A01000014020000310000006662782F36463046443839372D
310
454633422D343734432D394331462D3130454331373844463933302F636F72652E786D6C8D515B6EC32010BC8AC557FA810DB6633B11265293F804BD0035244589C1E251E5F85D6A476AFF222116CDCECC8E5876784CF7EC5B39AFADE911CD09CA9419ADD4E6DAA3182EB843D98133676DF84343991193EA518211675767E3
310
BC42A335419900A8B152ADA0F05E05948D7778F4C88F5F6A12B9880118FE96CF62BC89ABCA690E6DE071E6838300D93224DD883703194EDDAEC5E7A17AC7755B1FF1EE48074CC9F948DBEE34EC2AC28A45C8598C5AAE722D218EBE68E55E354962CE829E9EF147A7445012F192D012138ACBED07257B52C3C1A4D913989CE8
310
FF4471962F8AA236A12AD7B88BCC234E59B1343893367EDE9F61D463B62E6469DEC6ABF10D719293B22ADB6EDBB162A1C207806753AF9E3E58071FBCB97D02BB5A8D9B9AB322ED08CAEF02A1A67DF21F504B0304140006080800825039407AD8BAF55301000033030000300000006662782F36463046443839372D45463342
310
2D343734432D394331462D3130454331373844463933302F636E782E786D6CBD93CD6AC33010845F45E8EEDFB8210459811EFA043DF42A4B9B548D2C19FD94E6EDBB4A9434971C0AA56084991DCD2C1F36DB7DCD867C820FDAD99176754B0958E994B68791A6B8AF3694EC38F3CEC53B1B2556CC30D22C53CE0EDEA5A5480A
310
F6229988AAD1F658440FC1252F21A09C6F12E3A4301800B64A28C23C8152A0C8CD886F7BF0B80A8AD389C477202FCF6FC44D1F2063604D4EE1ACC91D9CE5B334DD992891468430D220DF6116B548D12908C75A8928EAAEBE763DD8E92789E40BD7CAE435C9E523CD27E565A31A39B206879C85E8915E31C5D302948B65315A
310
8A88909BB3F1E2E12C691BD743F16A04EFD1BDEAD79B0D869D679C453D4371480F2282A2BC6FBBBE6ABBAA7F7AEDDA6D3BE053B5EB6DDBB226DB399B9C33E512C680770B91CE46B091F28E3579FC085FF111A53DB276FEF40B9008A0B45EE8DC32FE924FB75E0DC33FF269CEDF37E2F2F817F06F504B030414000608080082
310
5039407B654D6558070000931B0000340000006662782F36463046443839372D454633422D343734432D394331462D3130454331373844463933302F6F626A656374732E786D6CED595B6FA33814FE2B887D0E094DDA695794519A4EAB68D599D16467B40F9190030EF1D618649B5EF6D7EFF1050234B464A7FB360F0960EC
310
E373BE73F521F8F89451E70173417276E9FADEC475308BF384B0F4D22DE57674EE3A1FC380E7B96C4C731D86327CE9AA61370C529E97851D4AF016955476466FAEFE72448C19769D9822212E5D11EF70863C54CA3CC1E2DE4B90445EBA7DF27CCF4C6C934D392A761DA205E29849E014C61950710C537EFB71E28EC360ACDE
310
8781FAB7B3A68366CDFA678DB5D46D2E091312B1F8054B1D32D3412C4DFDD9F5A793D38BD1E96C361DCDCE4EFCD1D5CDD5F5C8FF309D2CCE168B8BF9A70B606F93E7D4CA94E002B304F4F7EC867E30566F6AD12D0287B88E73C670AC8104A8B4585D82040BD8AA01DFA4FDE82B891AAFB5848DE7997A6F59680C4FDB54FA66
310
0D03A2451704B1DB551257D7A67CF9E66F105C0C314A2EB0046E85E4A05D0B0F07AF70C3493036A361B0D9EB82082743127382A843C986230E4A81A96A4A189805968C720E0EA41C2581D69C79DDB62DF0CCB75DE71097DB9252E5196EA81D2B02F7C35268CEC83F98EFB96F22033C81B42561F2DC72299F0BEC8617C1580F
310
8681BA4C4FEC4B03A4B3A528151A11F3B623E842B9FEF2DA0DFFB8D93CAD543838BC79C1F30273A98C4EE951F305866CAF0A25BBAD3F48736A01086340B52BF7A07C03E43F43F4D8B3027AE3E469F634B37325474C6C739E816E9C89339AC0DFC4F1F5BFBA6FDC05E37A715B7B7D78829B2AA8CE7F1ECFB60C1A2BCB7F03CE
310
30780083CFF9D4BE5AC588823DDF110600292371680E4310DAB79B27375C42E084400FAB100D7D1019D87D80DB606CC9ECB552B997F53A0688DA3DA6439404B0698B04367AF4740BD9839378AFA6A6887DF09EBE8BB9CEAF577FAC4ABE4531BEB33E7D8DB784110959F330432DCC5B12DDE3E7C79C2720E84BBC574DBC33BB
310
9500B415E60AF8B402413DEC776E6D10C3BA3457E1267863071042E5EA06FD3B22624C2962382FAB7DEBE8A60CB5F6785B33B8E18981787AD231618E1F88AA2AC069F6335A8C42DE8F392914886E786B24AB83A6D723DDF7E567B0C87A7ECFAC2583D0CB10FD5307AD0338B42CBB42DA02510BBCD987F338A7398F36CF9189
310
742ED412C046DB5B7EB48842AC374A5254C083B4DF55212535D24609D96E4B0171F5008B3F968BA6394CBCA97FEA34FF3BCE3883680BBE8BB8F5BBCE1E11C9508AA32D4AFAB66BEE56D3169A640F698EB714E4220F443E4748469304A7C7407314F18B77A59ED25C08C2B0807C7510FC261A130F0289D166C5B2D26A076822
310
A20C4B448F414091E90157A71D5DE3C6503ABCCD636DBDAF69AC49F47FB2088EA096CC5944A014851CF226E3BE770A31A48DAE41B9832F585B455B8B414B2821E2E7E8119374278F41DD90EFC13D86234929A3BC403198F500B22F7C4529B5C3FB06C5F72A7F447149DFCB4004A6DB88505A6611FC088393C710D7AE03D3AB
310
2834889BD8277106451992251FB2C9D9E9E4C53EA666E886C0C6465B42216C47192A7A506F05445D8F3835F8967A8F523765564428CB4B36C850BC69D79B2CF9AE5A15D981FCAA5211CAC68AB025180684C93AAB56311B4C5D075670231DA89E2381B2829A53D81B89C7AFBD4953EEDD805B3F7DDF0D3228FC7AB4D78CA8B3
310
0A06CB63AB30108F48C63B375CE9EBE80AEAEF0427FB545FD59ACD0A10105391BCE4C4AAE8FB12CA1B5BA3B9E11D92627D6BB26E75FDBEF4A0FB118C610DD42EF5C2A5023AC34C225599DCA91BFA0D41086ED130E34B95538FA1324F125D35227A43FAD4D92A235A9B66C42B7698E519FCD89AB09896095EA344DC47779246
310
2BA258B7527A19A9307E55C02FB7AB0E3C303240A4AFAAC0C38F9DB57674A1CAA58344E4AECC360C1108822DD152A31BAF60A9D548A5E5FAAACE14507781815915CF7E9D2C9AED885F278BD41AC6CF9D2C68BE41741F6D1AD93C56667DD429A04E4F8ACA7B9C0274D7A1A65A271193CBADF8D69722888955901F5C8C5531C3
310
10ECE3F83F27EDBE2468B6EBF07F5CD2F65F141C472595D664D5A43A50B82E9B296C7E3E9F5ECC3E2C46F309B466679FA61F46F3B39BEBD1E46A313F5F9C9E9EDD5CCC6B34B59F86411DCB74EA826713D3AA61F5643180A6ACC82949E0309F382986902FE1483FA07BCE332C2077367BDD89EDC90F58FD60DA9C126D28AE38
310
D921E80F5301591D302A63D91E777E83CEA48473F6A50B3D23EF1EFEAC55BA0E249E4B173A0592C458781BE832A97E9E260E1957A77E4B0CF0412C5519D12CAA9FEB550A9B56F4AFA70CC90256AE560B03EAB6029A5FAD0685E6CDF2141F2578C58E8324DC6E4A09C59A91653F500BA3B7D9ABDFC84609BBB75B3F81EBBE2E
310
96EFE9392D44067D3178D5080CD591443CD5ED6EC59865697EFD750C6D3667F9C5296899822E87531A710CC65CAA7A0AAC08ACC2D22C9004535DFCBEFECA73F8C29339BA285A2FF22CCB997D98C3712C812F44CE6A07DF7B9235540D5875D5C5FA64E29FAC7537DB36D8A30D12D853E5100C54558412A1636C60912F3A53B6
310
6F39564AE84C5F5E3B367C4217C058D08BE6AEF9BAE580F7A8EF28CA57B4875772BEDAD01EEBA9600D1C5AD1E1BF504B030414000608000082503940000000000000000000000000350000006662782F36463046443839372D454633422D343734432D394331462D3130454331373844463933302F76657274696365732E62
310
696E504B030414000608080082503940F270F1330600000004000000360000006662782F36463046443839372D454633422D343734432D394331462D3130454331373844463933302F747269616E676C65732E62696E636660600000504B030414000608000082503940000000000000000000000000370000006662782F36
310
463046443839372D454633422D343734432D394331462D3130454331373844463933302F617474726962757465732E62696E504B030414000608080082503940D5987DFC8F00000041010000360000006662782F36463046443839372D454633422D343734432D394331462D3130454331373844463933302F646972656374
310
6F72792E786D6C858F410EC2201045AF4266AF15DDB800BA74E7C21B903225242D6328188F2FA5C4183471359997F9FF81E89FF3C41E1816475E02DF1F80A11FC8386F25A438EECEC07A250251FC3803E6F58C12560C4AD840E95E91C151A72936F496F35732D860FE635F62C8F2DA16B505C545B74125BAA2FA9E05D7CC05
310
3D063734D5C7665FD55B6B8D15D5E9BFEAFD8490FFA45E504B0304140006080800825039406664ED2CFC000000A00100003B0000006662782F36463046443839372D454633422D343734432D394331462D3130454331373844463933302F7265736F75726365732F636F72652E786D6C8D505B6E833010BC0ADA7F836D084D
310
22E3A8A4E9097A01CB6C889560233FAA1EBF2650A9FDAB647957F3D08E469CBEA647F1893E18673B60258502AD7683B16307295EC91E8A9314DEB9F84B0685551376B0C020C5E85D9A37483B1BD1C68C5A37E006AA103042A11F79E920E81B4EAA54296645B897B3D2773562C9CA4C679D1421FA1CA0588F2C3F488FC125AF
310
31886A65A548C90C9BC60CF9A6B91AF4205B7EE6AF97FA9DB475FF429A86F5A4AFF79C1CDAFAC2E9A17EDB1DCEA25ACC524433FD64D41E55C40124A78C13CA08DF7D307AA44D7E84B6474A45B5C8FF98D23CFCD3948C8D35DFE2AEB60092E5204F428A6AE92B8F6799792EDDCA6F504B010214000A0000080000825039403D
310
EE336E79000000790000001B00000000000000000000000000000000006175746F6465736B2D64657369676E2D7061636B6167652E786D6C504B0102140014000608080082503940D486FD9CA0000000F40000001300000000000000000000000000B20000005B436F6E74656E745F54797065735D2E786D6C504B01021400
310
14000608080082503940BCE3C119E90000007C010000080000000000000000000000000083010000636F72652E786D6C504B010214001400060808008250394055019EA25F0000007C000000070000000000000000000000000092020000636E782E786D6C504B0102140014000608080082503940CB2FA7D2640100000203
310
00000C00000000000000000000000000160300006662782F636F72652E786D6C504B010214001400060808008250394006644D417D0000009D0000000B00000000000000000000000000A40400006662782F636E782E786D6C504B01021400140006080800825039405334F5A82A0100001402000031000000000000000000
310
000000004A0500006662782F36463046443839372D454633422D343734432D394331462D3130454331373844463933302F636F72652E786D6C504B01021400140006080800825039407AD8BAF553010000330300003000000000000000000000000000C30600006662782F36463046443839372D454633422D343734432D39
310
4331462D3130454331373844463933302F636E782E786D6C504B01021400140006080800825039407B654D6558070000931B00003400000000000000000000000000640800006662782F36463046443839372D454633422D343734432D394331462D3130454331373844463933302F6F626A656374732E786D6C504B010214
310
001400060800008250394000000000000000000000000035000000000000000000000000000E1000006662782F36463046443839372D454633422D343734432D394331462D3130454331373844463933302F76657274696365732E62696E504B0102140014000608080082503940F270F13306000000040000003600000000
310
000000000000000000611000006662782F36463046443839372D454633422D343734432D394331462D3130454331373844463933302F747269616E676C65732E62696E504B01021400140006080000825039400000000000000000000000003700000000000000000000000000BB1000006662782F36463046443839372D45
310
4633422D343734432D394331462D3130454331373844463933302F617474726962757465732E62696E504B0102140014000608080082503940D5987DFC8F000000410100003600000000000000000000000000101100006662782F36463046443839372D454633422D343734432D394331462D313045433137384446393330
310
2F6469726563746F72792E786D6C504B01021400140006080800825039406664ED2CFC000000A00100003B00000000000000000000000000F31100006662782F36463046443839372D454633422D343734432D394331462D3130454331373844463933302F7265736F75726365732F636F72652E786D6C504B050600000000
310
0E000E0080040000481300000000
  0
XRECORD
  5
27
102
{ACAD_REACTORS
330
22
102
}
330
22
100
AcDbXrecord
280
     1
270
     1
271
     1
  0
XRECORD
  5
26
102
{ACAD_REACTORS
330
22
102
}
330
22
100
AcDbXrecord
280
     1
270
     1
271
     1
  0
XRECORD
  5
28
102
{ACAD_REACTORS
330
22
102
}
330
22
100
AcDbXrecord
280
     1
270
     1
271
     1
  0
XRECORD
  5
25
102
{ACAD_REACTORS
330
22
102
}
330
22
100
AcDbXrecord
280
     1
270
     1
271
     1
  0
XRECORD
  5
8A9
102
{ACAD_REACTORS
330
8A8
102
}
330
8A8
100
AcDbXrecord
280
     1
102
ACAD_ROUNDTRIP_2012_MLEADER_STYLE
298
     1
  0
CELLSTYLEMAP
  5
8A7
102
{ACAD_REACTORS
330
8A6
102
}
330
8A6
100
AcDbCellStyleMap
 90
        3
300
CELLSTYLE
  1
TABLEFORMAT_BEGIN
 90
        5
170
     1
 91
        0
 92
    32768
 62
   257
 93
        1
300
CONTENTFORMAT
  1
CONTENTFORMAT_BEGIN
 90
        0
 91
        0
 92
      512
 93
        0
300

 40
0.0
140
1.0
 94
        5
 62
     0
340
55
144
0.25
309
CONTENTFORMAT_END
171
     0
 94
        0
309
TABLEFORMAT_END
  1
CELLSTYLE_BEGIN
 90
        1
 91
        1
300
_TITLE
309
CELLSTYLE_END
300
CELLSTYLE
  1
TABLEFORMAT_BEGIN
 90
        5
170
     1
 91
        0
 92
        0
 62
   257
 93
        1
300
CONTENTFORMAT
  1
CONTENTFORMAT_BEGIN
 90
        0
 91
        0
 92
      512
 93
        0
300

 40
0.0
140
1.0
 94
        5
 62
     0
340
55
144
0.18
309
CONTENTFORMAT_END
171
     0
 94
        0
309
TABLEFORMAT_END
  1
CELLSTYLE_BEGIN
 90
        2
 91
        1
300
_HEADER
309
CELLSTYLE_END
300
CELLSTYLE
  1
TABLEFORMAT_BEGIN
 90
        5
170
     1
 91
        0
 92
        0
 62
   257
 93
        1
300
CONTENTFORMAT
  1
CONTENTFORMAT_BEGIN
 90
        0
 91
        0
 92
      512
 93
        0
300

 40
0.0
140
1.0
 94
        2
 62
     0
340
55
144
0.18
309
CONTENTFORMAT_END
171
     0
 94
        0
309
TABLEFORMAT_END
  1
CELLSTYLE_BEGIN
 90
        3
 91
        2
300
_DATA
309
CELLSTYLE_END
  0
XRECORD
  5
8DF
102
{ACAD_REACTORS
330
8A6
102
}
330
8A6
100
AcDbXrecord
280
     1
102
ACAD_ROUNDTRIP_PRE2007_TABLESTYLE
 90
      512
 91
        0
  1

 92
      512
 93
        0
  2

 94
      512
 95
        0
  3

  0
XRECORD
  5
8BA
102
{ACAD_REACTORS
330
8B9
102
}
330
8B9
100
AcDbXrecord
280
     1
102
RTVSPropertyOp0
 70
     1
102
RTVSPropertyOp1
 70
     1
102
RTVSPropertyOp2
 70
     1
102
RTVSPropertyOp3
 70
     1
102
RTVSPropertyOp4
 70
     1
102
RTVSPropertyOp5
 70
     1
102
RTVSPropertyOp6
 70
     1
102
RTVSPropertyOp7
 70
     1
102
RTVSPropertyOp8
 70
     1
102
RTVSPropertyOp9
 70
     1
102
RTVSPropertyOp10
 70
     1
102
RTVSPropertyOp11
 70
     1
102
RTVSPropertyOp12
 70
     1
102
RTVSPropertyOp13
 70
     1
102
RTVSPropertyOp14
 70
     1
102
RTVSPropertyOp15
 70
     1
102
RTVSPropertyOp16
 70
     1
102
RTVSPropertyOp17
 70
     1
102
RTVSPropertyOp18
 70
     1
102
RTVSPropertyOp19
 70
     1
102
RTVSPropertyOp20
 70
     1
102
RTVSPropertyOp21
 70
     1
102
RTVSPropertyOp22
 70
     1
102
RTVSPropertyOp23
 70
     1
102
RTVSPropertyOp24
 70
     1
102
RTVSPropertyOp25
 70
     1
102
RTVSPropertyOp26
 70
     1
102
RTVSPropertyOp27
 70
     1
102
RTVSPropertyOp28
 70
     1
102
RTVSPropertyOp29
 70
     1
102
RTVSPropertyOp30
 70
     1
102
RTVSPropertyOp31
 70
     1
102
RTVSPropertyOp32
 70
     1
  0
XRECORD
  5
8B8
102
{ACAD_REACTORS
330
8B7
102
}
330
8B7
100
AcDbXrecord
280
     1
102
RTVSPropertyOp0
 70
     1
102
RTVSPropertyOp1
 70
     1
102
RTVSPropertyOp2
 70
     1
102
RTVSPropertyOp3
 70
     1
102
RTVSPropertyOp4
 70
     1
102
RTVSPropertyOp5
 70
     1
102
RTVSPropertyOp6
 70
     1
102
RTVSPropertyOp7
 70
     1
102
RTVSPropertyOp8
 70
     1
102
RTVSPropertyOp9
 70
     1
102
RTVSPropertyOp10
 70
     1
102
RTVSPropertyOp11
 70
     1
102
RTVSPropertyOp12
 70
     1
102
RTVSPropertyOp13
 70
     1
102
RTVSPropertyOp14
 70
     1
102
RTVSPropertyOp15
 70
     1
102
RTVSPropertyOp16
 70
     1
102
RTVSPropertyOp17
 70
     1
102
RTVSPropertyOp18
 70
     1
102
RTVSPropertyOp19
 70
     1
102
RTVSPropertyOp20
 70
     1
102
RTVSPropertyOp21
 70
     1
102
RTVSPropertyOp22
 70
     1
102
RTVSPropertyOp23
 70
     1
102
RTVSPropertyOp24
 70
     1
102
RTVSPropertyOp25
 70
     1
102
RTVSPropertyOp26
 70
     1
102
RTVSPropertyOp27
 70
     1
102
RTVSPropertyOp28
 70
     1
102
RTVSPropertyOp29
 70
     1
102
RTVSPropertyOp30
 70
     1
102
RTVSPropertyOp31
 70
     1
102
RTVSPropertyOp32
 70
     1
  0
XRECORD
  5
8C6
102
{ACAD_REACTORS
330
8C5
102
}
330
8C5
100
AcDbXrecord
280
     1
102
RTVSPropertyOp0
 70
     1
102
RTVSPropertyOp1
 70
     1
102
RTVSPropertyOp2
 70
     1
102
RTVSPropertyOp3
 70
     1
102
RTVSPropertyOp4
 70
     1
102
RTVSPropertyOp5
 70
     1
102
RTVSPropertyOp6
 70
     1
102
RTVSPropertyOp7
 70
     1
102
RTVSPropertyOp8
 70
     1
102
RTVSPropertyOp9
 70
     1
102
RTVSPropertyOp10
 70
     1
102
RTVSPropertyOp11
 70
     1
102
RTVSPropertyOp12
 70
     1
102
RTVSPropertyOp13
 70
     1
102
RTVSPropertyOp14
 70
     1
102
RTVSPropertyOp15
 70
     1
102
RTVSPropertyOp16
 70
     1
102
RTVSPropertyOp17
 70
     1
102
RTVSPropertyOp18
 70
     1
102
RTVSPropertyOp19
 70
     1
102
RTVSPropertyOp20
 70
     1
102
RTVSPropertyOp21
 70
     1
102
RTVSPropertyOp22
 70
     1
102
RTVSPropertyOp23
 70
     1
102
RTVSPropertyOp24
 70
     1
102
RTVSPropertyOp25
 70
     1
102
RTVSPropertyOp26
 70
     1
102
RTVSPropertyOp27
 70
     1
102
RTVSPropertyOp28
 70
     1
102
RTVSPropertyOp29
 70
     1
102
RTVSPropertyOp30
 70
     1
102
RTVSPropertyOp31
 70
     1
102
RTVSPropertyOp32
 70
     1
  0
XRECORD
  5
8CE
102
{ACAD_REACTORS
330
8CD
102
}
330
8CD
100
AcDbXrecord
280
     1
102
RTVSPropertyOp0
 70
     1
102
RTVSPropertyOp1
 70
     1
102
RTVSPropertyOp2
 70
     1
102
RTVSPropertyOp3
 70
     1
102
RTVSPropertyOp4
 70
     1
102
RTVSPropertyOp5
 70
     1
102
RTVSPropertyOp6
 70
     1
102
RTVSPropertyOp7
 70
     1
102
RTVSPropertyOp8
 70
     1
102
RTVSPropertyOp9
 70
     1
102
RTVSPropertyOp10
 70
     1
102
RTVSPropertyOp11
 70
     1
102
RTVSPropertyOp12
 70
     1
102
RTVSPropertyOp13
 70
     1
102
RTVSPropertyOp14
 70
     1
102
RTVSPropertyOp15
 70
     1
102
RTVSPropertyOp16
 70
     1
102
RTVSPropertyOp17
 70
     1
102
RTVSPropertyOp18
 70
     1
102
RTVSPropertyOp19
 70
     1
102
RTVSPropertyOp20
 70
     1
102
RTVSPropertyOp21
 70
     1
102
RTVSPropertyOp22
 70
     1
102
RTVSPropertyOp23
 70
     1
102
RTVSPropertyOp24
 70
     1
102
RTVSPropertyOp25
 70
     1
102
RTVSPropertyOp26
 70
     1
102
RTVSPropertyOp27
 70
     1
102
RTVSPropertyOp28
 70
     1
102
RTVSPropertyOp29
 70
     1
102
RTVSPropertyOp30
 70
     1
102
RTVSPropertyOp31
 70
     1
102
RTVSPropertyOp32
 70
     1
  0
XRECORD
  5
8C0
102
{ACAD_REACTORS
330
8BF
102
}
330
8BF
100
AcDbXrecord
280
     1
102
RTVSPropertyOp0
 70
     1
102
RTVSPropertyOp1
 70
     1
102
RTVSPropertyOp2
 70
     1
102
RTVSPropertyOp3
 70
     1
102
RTVSPropertyOp4
 70
     1
102
RTVSPropertyOp5
 70
     1
102
RTVSPropertyOp6
 70
     1
102
RTVSPropertyOp7
 70
     1
102
RTVSPropertyOp8
 70
     1
102
RTVSPropertyOp9
 70
     1
102
RTVSPropertyOp10
 70
     1
102
RTVSPropertyOp11
 70
     1
102
RTVSPropertyOp12
 70
     1
102
RTVSPropertyOp13
 70
     1
102
RTVSPropertyOp14
 70
     1
102
RTVSPropertyOp15
 70
     1
102
RTVSPropertyOp16
 70
     1
102
RTVSPropertyOp17
 70
     1
102
RTVSPropertyOp18
 70
     1
102
RTVSPropertyOp19
 70
     1
102
RTVSPropertyOp20
 70
     1
102
RTVSPropertyOp21
 70
     1
102
RTVSPropertyOp22
 70
     1
102
RTVSPropertyOp23
 70
     1
102
RTVSPropertyOp24
 70
     1
102
RTVSPropertyOp25
 70
     1
102
RTVSPropertyOp26
 70
     1
102
RTVSPropertyOp27
 70
     1
102
RTVSPropertyOp28
 70
     1
102
RTVSPropertyOp29
 70
     1
102
RTVSPropertyOp30
 70
     1
102
RTVSPropertyOp31
 70
     1
102
RTVSPropertyOp32
 70
     1
  0
XRECORD
  5
8C4
102
{ACAD_REACTORS
330
8C3
102
}
330
8C3
100
AcDbXrecord
280
     1
102
RTVSPropertyOp0
 70
     1
102
RTVSPropertyOp1
 70
     1
102
RTVSPropertyOp2
 70
     1
102
RTVSPropertyOp3
 70
     1
102
RTVSPropertyOp4
 70
     1
102
RTVSPropertyOp5
 70
     1
102
RTVSPropertyOp6
 70
     1
102
RTVSPropertyOp7
 70
     1
102
RTVSPropertyOp8
 70
     1
102
RTVSPropertyOp9
 70
     1
102
RTVSPropertyOp10
 70
     1
102
RTVSPropertyOp11
 70
     1
102
RTVSPropertyOp12
 70
     1
102
RTVSPropertyOp13
 70
     1
102
RTVSPropertyOp14
 70
     1
102
RTVSPropertyOp15
 70
     1
102
RTVSPropertyOp16
 70
     1
102
RTVSPropertyOp17
 70
     1
102
RTVSPropertyOp18
 70
     1
102
RTVSPropertyOp19
 70
     1
102
RTVSPropertyOp20
 70
     1
102
RTVSPropertyOp21
 70
     1
102
RTVSPropertyOp22
 70
     1
102
RTVSPropertyOp23
 70
     1
102
RTVSPropertyOp24
 70
     1
102
RTVSPropertyOp25
 70
     1
102
RTVSPropertyOp26
 70
     1
102
RTVSPropertyOp27
 70
     1
102
RTVSPropertyOp28
 70
     1
102
RTVSPropertyOp29
 70
     1
102
RTVSPropertyOp30
 70
     1
102
RTVSPropertyOp31
 70
     1
102
RTVSPropertyOp32
 70
     1
  0
XRECORD
  5
8DE
102
{ACAD_REACTORS
330
8DD
102
}
330
8DD
100
AcDbXrecord
280
     1
102
RTVSPropertyOp0
 70
     0
102
RTVSPropertyOp1
 70
     0
102
RTVSPropertyOp2
 70
     0
102
RTVSPropertyOp3
 70
     0
102
RTVSPropertyOp4
 70
     0
102
RTVSPropertyOp5
 70
     0
102
RTVSPropertyOp6
 70
     0
102
RTVSPropertyOp7
 70
     0
102
RTVSPropertyOp8
 70
     0
102
RTVSPropertyOp9
 70
     0
102
RTVSPropertyOp10
 70
     0
102
RTVSPropertyOp11
 70
     0
102
RTVSPropertyOp12
 70
     0
102
RTVSPropertyOp13
 70
     0
102
RTVSPropertyOp14
 70
     2
102
RTVSPropertyOp15
 70
     0
102
RTVSPropertyOp16
 70
     0
102
RTVSPropertyOp17
 70
     0
102
RTVSPropertyOp18
 70
     0
102
RTVSPropertyOp19
 70
     0
102
RTVSPropertyOp20
 70
     0
102
RTVSPropertyOp21
 70
     0
102
RTVSPropertyOp22
 70
     0
102
RTVSPropertyOp23
 70
     0
102
RTVSPropertyOp24
 70
     0
102
RTVSPropertyOp25
 70
     0
102
RTVSPropertyOp26
 70
     0
102
RTVSPropertyOp27
 70
     0
102
RTVSPropertyOp28
 70
     1
102
RTVSPropertyOp29
 70
     1
102
RTVSPropertyOp30
 70
     1
102
RTVSPropertyOp31
 70
     1
102
RTVSPropertyOp32
 70
     1
  0
XRECORD
  5
8CC
102
{ACAD_REACTORS
330
8CB
102
}
330
8CB
100
AcDbXrecord
280
     1
102
RTVSPropertyOp0
 70
     1
102
RTVSPropertyOp1
 70
     1
102
RTVSPropertyOp2
 70
     1
102
RTVSPropertyOp3
 70
     1
102
RTVSPropertyOp4
 70
     1
102
RTVSPropertyOp5
 70
     1
102
RTVSPropertyOp6
 70
     1
102
RTVSPropertyOp7
 70
     1
102
RTVSPropertyOp8
 70
     1
102
RTVSPropertyOp9
 70
     1
102
RTVSPropertyOp10
 70
     1
102
RTVSPropertyOp11
 70
     1
102
RTVSPropertyOp12
 70
     1
102
RTVSPropertyOp13
 70
     1
102
RTVSPropertyOp14
 70
     1
102
RTVSPropertyOp15
 70
     1
102
RTVSPropertyOp16
 70
     1
102
RTVSPropertyOp17
 70
     1
102
RTVSPropertyOp18
 70
     1
102
RTVSPropertyOp19
 70
     1
102
RTVSPropertyOp20
 70
     1
102
RTVSPropertyOp21
 70
     1
102
RTVSPropertyOp22
 70
     1
102
RTVSPropertyOp23
 70
     1
102
RTVSPropertyOp24
 70
     1
102
RTVSPropertyOp25
 70
     1
102
RTVSPropertyOp26
 70
     1
102
RTVSPropertyOp27
 70
     1
102
RTVSPropertyOp28
 70
     1
102
RTVSPropertyOp29
 70
     1
102
RTVSPropertyOp30
 70
     1
102
RTVSPropertyOp31
 70
     1
102
RTVSPropertyOp32
 70
     1
  0
XRECORD
  5
8B0
102
{ACAD_REACTORS
330
8AF
102
}
330
8AF
100
AcDbXrecord
280
     1
102
RTVSPropertyOp0
 70
     1
102
RTVSPropertyOp1
 70
     1
102
RTVSPropertyOp2
 70
     1
102
RTVSPropertyOp3
 70
     1
102
RTVSPropertyOp4
 70
     1
102
RTVSPropertyOp5
 70
     1
102
RTVSPropertyOp6
 70
     1
102
RTVSPropertyOp7
 70
     1
102
RTVSPropertyOp8
 70
     1
102
RTVSPropertyOp9
 70
     1
102
RTVSPropertyOp10
 70
     1
102
RTVSPropertyOp11
 70
     1
102
RTVSPropertyOp12
 70
     1
102
RTVSPropertyOp13
 70
     1
102
RTVSPropertyOp14
 70
     1
102
RTVSPropertyOp15
 70
     1
102
RTVSPropertyOp16
 70
     1
102
RTVSPropertyOp17
 70
     1
102
RTVSPropertyOp18
 70
     1
102
RTVSPropertyOp19
 70
     1
102
RTVSPropertyOp20
 70
     1
102
RTVSPropertyOp21
 70
     1
102
RTVSPropertyOp22
 70
     1
102
RTVSPropertyOp23
 70
     1
102
RTVSPropertyOp24
 70
     1
102
RTVSPropertyOp25
 70
     1
102
RTVSPropertyOp26
 70
     1
102
RTVSPropertyOp27
 70
     1
102
RTVSPropertyOp28
 70
     1
102
RTVSPropertyOp29
 70
     1
102
RTVSPropertyOp30
 70
     1
102
RTVSPropertyOp31
 70
     1
102
RTVSPropertyOp32
 70
     1
  0
XRECORD
  5
8B2
102
{ACAD_REACTORS
330
8B1
102
}
330
8B1
100
AcDbXrecord
280
     1
102
RTVSPropertyOp0
 70
     1
102
RTVSPropertyOp1
 70
     1
102
RTVSPropertyOp2
 70
     1
102
RTVSPropertyOp3
 70
     1
102
RTVSPropertyOp4
 70
     1
102
RTVSPropertyOp5
 70
     1
102
RTVSPropertyOp6
 70
     1
102
RTVSPropertyOp7
 70
     1
102
RTVSPropertyOp8
 70
     1
102
RTVSPropertyOp9
 70
     1
102
RTVSPropertyOp10
 70
     1
102
RTVSPropertyOp11
 70
     1
102
RTVSPropertyOp12
 70
     1
102
RTVSPropertyOp13
 70
     1
102
RTVSPropertyOp14
 70
     1
102
RTVSPropertyOp15
 70
     1
102
RTVSPropertyOp16
 70
     1
102
RTVSPropertyOp17
 70
     1
102
RTVSPropertyOp18
 70
     1
102
RTVSPropertyOp19
 70
     1
102
RTVSPropertyOp20
 70
     1
102
RTVSPropertyOp21
 70
     1
102
RTVSPropertyOp22
 70
     1
102
RTVSPropertyOp23
 70
     1
102
RTVSPropertyOp24
 70
     1
102
RTVSPropertyOp25
 70
     1
102
RTVSPropertyOp26
 70
     1
102
RTVSPropertyOp27
 70
     1
102
RTVSPropertyOp28
 70
     1
102
RTVSPropertyOp29
 70
     1
102
RTVSPropertyOp30
 70
     1
102
RTVSPropertyOp31
 70
     1
102
RTVSPropertyOp32
 70
     1
  0
XRECORD
  5
8B4
102
{ACAD_REACTORS
330
8B3
102
}
330
8B3
100
AcDbXrecord
280
     1
102
RTVSPropertyOp0
 70
     1
102
RTVSPropertyOp1
 70
     1
102
RTVSPropertyOp2
 70
     1
102
RTVSPropertyOp3
 70
     1
102
RTVSPropertyOp4
 70
     1
102
RTVSPropertyOp5
 70
     1
102
RTVSPropertyOp6
 70
     1
102
RTVSPropertyOp7
 70
     1
102
RTVSPropertyOp8
 70
     1
102
RTVSPropertyOp9
 70
     1
102
RTVSPropertyOp10
 70
     1
102
RTVSPropertyOp11
 70
     1
102
RTVSPropertyOp12
 70
     1
102
RTVSPropertyOp13
 70
     1
102
RTVSPropertyOp14
 70
     1
102
RTVSPropertyOp15
 70
     1
102
RTVSPropertyOp16
 70
     1
102
RTVSPropertyOp17
 70
     1
102
RTVSPropertyOp18
 70
     1
102
RTVSPropertyOp19
 70
     1
102
RTVSPropertyOp20
 70
     1
102
RTVSPropertyOp21
 70
     1
102
RTVSPropertyOp22
 70
     1
102
RTVSPropertyOp23
 70
     1
102
RTVSPropertyOp24
 70
     1
102
RTVSPropertyOp25
 70
     1
102
RTVSPropertyOp26
 70
     1
102
RTVSPropertyOp27
 70
     1
102
RTVSPropertyOp28
 70
     1
102
RTVSPropertyOp29
 70
     1
102
RTVSPropertyOp30
 70
     1
102
RTVSPropertyOp31
 70
     1
102
RTVSPropertyOp32
 70
     1
  0
XRECORD
  5
8B6
102
{ACAD_REACTORS
330
8B5
102
}
330
8B5
100
AcDbXrecord
280
     1
102
RTVSPropertyOp0
 70
     1
102
RTVSPropertyOp1
 70
     1
102
RTVSPropertyOp2
 70
     1
102
RTVSPropertyOp3
 70
     1
102
RTVSPropertyOp4
 70
     1
102
RTVSPropertyOp5
 70
     1
102
RTVSPropertyOp6
 70
     1
102
RTVSPropertyOp7
 70
     1
102
RTVSPropertyOp8
 70
     1
102
RTVSPropertyOp9
 70
     1
102
RTVSPropertyOp10
 70
     1
102
RTVSPropertyOp11
 70
     1
102
RTVSPropertyOp12
 70
     1
102
RTVSPropertyOp13
 70
     1
102
RTVSPropertyOp14
 70
     1
102
RTVSPropertyOp15
 70
     1
102
RTVSPropertyOp16
 70
     1
102
RTVSPropertyOp17
 70
     1
102
RTVSPropertyOp18
 70
     1
102
RTVSPropertyOp19
 70
     1
102
RTVSPropertyOp20
 70
     1
102
RTVSPropertyOp21
 70
     1
102
RTVSPropertyOp22
 70
     1
102
RTVSPropertyOp23
 70
     1
102
RTVSPropertyOp24
 70
     1
102
RTVSPropertyOp25
 70
     1
102
RTVSPropertyOp26
 70
     1
102
RTVSPropertyOp27
 70
     1
102
RTVSPropertyOp28
 70
     1
102
RTVSPropertyOp29
 70
     1
102
RTVSPropertyOp30
 70
     1
102
RTVSPropertyOp31
 70
     1
102
RTVSPropertyOp32
 70
     1
  0
XRECORD
  5
8BE
102
{ACAD_REACTORS
330
8BD
102
}
330
8BD
100
AcDbXrecord
280
     1
102
RTVSPropertyOp0
 70
     1
102
RTVSPropertyOp1
 70
     1
102
RTVSPropertyOp2
 70
     1
102
RTVSPropertyOp3
 70
     1
102
RTVSPropertyOp4
 70
     1
102
RTVSPropertyOp5
 70
     1
102
RTVSPropertyOp6
 70
     1
102
RTVSPropertyOp7
 70
     1
102
RTVSPropertyOp8
 70
     1
102
RTVSPropertyOp9
 70
     1
102
RTVSPropertyOp10
 70
     1
102
RTVSPropertyOp11
 70
     1
102
RTVSPropertyOp12
 70
     1
102
RTVSPropertyOp13
 70
     1
102
RTVSPropertyOp14
 70
     1
102
RTVSPropertyOp15
 70
     1
102
RTVSPropertyOp16
 70
     1
102
RTVSPropertyOp17
 70
     1
102
RTVSPropertyOp18
 70
     1
102
RTVSPropertyOp19
 70
     1
102
RTVSPropertyOp20
 70
     1
102
RTVSPropertyOp21
 70
     1
102
RTVSPropertyOp22
 70
     1
102
RTVSPropertyOp23
 70
     1
102
RTVSPropertyOp24
 70
     1
102
RTVSPropertyOp25
 70
     1
102
RTVSPropertyOp26
 70
     1
102
RTVSPropertyOp27
 70
     1
102
RTVSPropertyOp28
 70
     1
102
RTVSPropertyOp29
 70
     1
102
RTVSPropertyOp30
 70
     1
102
RTVSPropertyOp31
 70
     1
102
RTVSPropertyOp32
 70
     1
  0
XRECORD
  5
8DA
102
{ACAD_REACTORS
330
8D9
102
}
330
8D9
100
AcDbXrecord
280
     1
102
RTVSPropertyOp0
 70
     0
102
RTVSPropertyOp1
 70
     0
102
RTVSPropertyOp2
 70
     0
102
RTVSPropertyOp3
 70
     0
102
RTVSPropertyOp4
 70
     0
102
RTVSPropertyOp5
 70
     0
102
RTVSPropertyOp6
 70
     0
102
RTVSPropertyOp7
 70
     0
102
RTVSPropertyOp8
 70
     0
102
RTVSPropertyOp9
 70
     0
102
RTVSPropertyOp10
 70
     0
102
RTVSPropertyOp11
 70
     0
102
RTVSPropertyOp12
 70
     0
102
RTVSPropertyOp13
 70
     0
102
RTVSPropertyOp14
 70
     2
102
RTVSPropertyOp15
 70
     0
102
RTVSPropertyOp16
 70
     0
102
RTVSPropertyOp17
 70
     0
102
RTVSPropertyOp18
 70
     0
102
RTVSPropertyOp19
 70
     0
102
RTVSPropertyOp20
 70
     0
102
RTVSPropertyOp21
 70
     0
102
RTVSPropertyOp22
 70
     0
102
RTVSPropertyOp23
 70
     0
102
RTVSPropertyOp24
 70
     0
102
RTVSPropertyOp25
 70
     0
102
RTVSPropertyOp26
 70
     0
102
RTVSPropertyOp27
 70
     0
102
RTVSPropertyOp28
 70
     1
102
RTVSPropertyOp29
 70
     1
102
RTVSPropertyOp30
 70
     1
102
RTVSPropertyOp31
 70
     1
102
RTVSPropertyOp32
 70
     1
  0
XRECORD
  5
8CA
102
{ACAD_REACTORS
330
8C9
102
}
330
8C9
100
AcDbXrecord
280
     1
102
RTVSPropertyOp0
 70
     1
102
RTVSPropertyOp1
 70
     1
102
RTVSPropertyOp2
 70
     1
102
RTVSPropertyOp3
 70
     1
102
RTVSPropertyOp4
 70
     1
102
RTVSPropertyOp5
 70
     1
102
RTVSPropertyOp6
 70
     1
102
RTVSPropertyOp7
 70
     1
102
RTVSPropertyOp8
 70
     1
102
RTVSPropertyOp9
 70
     1
102
RTVSPropertyOp10
 70
     1
102
RTVSPropertyOp11
 70
     1
102
RTVSPropertyOp12
 70
     1
102
RTVSPropertyOp13
 70
     1
102
RTVSPropertyOp14
 70
     1
102
RTVSPropertyOp15
 70
     1
102
RTVSPropertyOp16
 70
     1
102
RTVSPropertyOp17
 70
     1
102
RTVSPropertyOp18
 70
     1
102
RTVSPropertyOp19
 70
     1
102
RTVSPropertyOp20
 70
     1
102
RTVSPropertyOp21
 70
     1
102
RTVSPropertyOp22
 70
     1
102
RTVSPropertyOp23
 70
     1
102
RTVSPropertyOp24
 70
     1
102
RTVSPropertyOp25
 70
     1
102
RTVSPropertyOp26
 70
     1
102
RTVSPropertyOp27
 70
     1
102
RTVSPropertyOp28
 70
     1
102
RTVSPropertyOp29
 70
     1
102
RTVSPropertyOp30
 70
     1
102
RTVSPropertyOp31
 70
     1
102
RTVSPropertyOp32
 70
     1
  0
XRECORD
  5
8DC
102
{ACAD_REACTORS
330
8DB
102
}
330
8DB
100
AcDbXrecord
280
     1
102
RTVSPropertyOp0
 70
     0
102
RTVSPropertyOp1
 70
     0
102
RTVSPropertyOp2
 70
     0
102
RTVSPropertyOp3
 70
     0
102
RTVSPropertyOp4
 70
     0
102
RTVSPropertyOp5
 70
     0
102
RTVSPropertyOp6
 70
     0
102
RTVSPropertyOp7
 70
     0
102
RTVSPropertyOp8
 70
     0
102
RTVSPropertyOp9
 70
     0
102
RTVSPropertyOp10
 70
     0
102
RTVSPropertyOp11
 70
     0
102
RTVSPropertyOp12
 70
     0
102
RTVSPropertyOp13
 70
     0
102
RTVSPropertyOp14
 70
     2
102
RTVSPropertyOp15
 70
     0
102
RTVSPropertyOp16
 70
     0
102
RTVSPropertyOp17
 70
     0
102
RTVSPropertyOp18
 70
     0
102
RTVSPropertyOp19
 70
     0
102
RTVSPropertyOp20
 70
     0
102
RTVSPropertyOp21
 70
     0
102
RTVSPropertyOp22
 70
     0
102
RTVSPropertyOp23
 70
     0
102
RTVSPropertyOp24
 70
     0
102
RTVSPropertyOp25
 70
     0
102
RTVSPropertyOp26
 70
     0
102
RTVSPropertyOp27
 70
     0
102
RTVSPropertyOp28
 70
     1
102
RTVSPropertyOp29
 70
     1
102
RTVSPropertyOp30
 70
     1
102
RTVSPropertyOp31
 70
     1
102
RTVSPropertyOp32
 70
     1
  0
XRECORD
  5
8C2
102
{ACAD_REACTORS
330
8C1
102
}
330
8C1
100
AcDbXrecord
280
     1
102
RTVSPropertyOp0
 70
     1
102
RTVSPropertyOp1
 70
     1
102
RTVSPropertyOp2
 70
     1
102
RTVSPropertyOp3
 70
     1
102
RTVSPropertyOp4
 70
     1
102
RTVSPropertyOp5
 70
     1
102
RTVSPropertyOp6
 70
     1
102
RTVSPropertyOp7
 70
     1
102
RTVSPropertyOp8
 70
     1
102
RTVSPropertyOp9
 70
     1
102
RTVSPropertyOp10
 70
     1
102
RTVSPropertyOp11
 70
     1
102
RTVSPropertyOp12
 70
     1
102
RTVSPropertyOp13
 70
     1
102
RTVSPropertyOp14
 70
     1
102
RTVSPropertyOp15
 70
     1
102
RTVSPropertyOp16
 70
     1
102
RTVSPropertyOp17
 70
     1
102
RTVSPropertyOp18
 70
     1
102
RTVSPropertyOp19
 70
     1
102
RTVSPropertyOp20
 70
     1
102
RTVSPropertyOp21
 70
     1
102
RTVSPropertyOp22
 70
     1
102
RTVSPropertyOp23
 70
     1
102
RTVSPropertyOp24
 70
     1
102
RTVSPropertyOp25
 70
     1
102
RTVSPropertyOp26
 70
     1
102
RTVSPropertyOp27
 70
     1
102
RTVSPropertyOp28
 70
     1
102
RTVSPropertyOp29
 70
     1
102
RTVSPropertyOp30
 70
     1
102
RTVSPropertyOp31
 70
     1
102
RTVSPropertyOp32
 70
     1
  0
XRECORD
  5
8D8
102
{ACAD_REACTORS
330
8D7
102
}
330
8D7
100
AcDbXrecord
280
     1
102
RTVSPropertyOp0
 70
     1
102
RTVSPropertyOp1
 70
     1
102
RTVSPropertyOp2
 70
     1
102
RTVSPropertyOp3
 70
     1
102
RTVSPropertyOp4
 70
     1
102
RTVSPropertyOp5
 70
     1
102
RTVSPropertyOp6
 70
     1
102
RTVSPropertyOp7
 70
     1
102
RTVSPropertyOp8
 70
     1
102
RTVSPropertyOp9
 70
     1
102
RTVSPropertyOp10
 70
     1
102
RTVSPropertyOp11
 70
     1
102
RTVSPropertyOp12
 70
     1
102
RTVSPropertyOp13
 70
     1
102
RTVSPropertyOp14
 70
     1
102
RTVSPropertyOp15
 70
     1
102
RTVSPropertyOp16
 70
     1
102
RTVSPropertyOp17
 70
     1
102
RTVSPropertyOp18
 70
     1
102
RTVSPropertyOp19
 70
     1
102
RTVSPropertyOp20
 70
     1
102
RTVSPropertyOp21
 70
     1
102
RTVSPropertyOp22
 70
     1
102
RTVSPropertyOp23
 70
     1
102
RTVSPropertyOp24
 70
     1
102
RTVSPropertyOp25
 70
     1
102
RTVSPropertyOp26
 70
     1
102
RTVSPropertyOp27
 70
     1
102
RTVSPropertyOp28
 70
     1
102
RTVSPropertyOp29
 70
     1
102
RTVSPropertyOp30
 70
     1
102
RTVSPropertyOp31
 70
     1
102
RTVSPropertyOp32
 70
     1
  0
XRECORD
  5
8D6
102
{ACAD_REACTORS
330
8D5
102
}
330
8D5
100
AcDbXrecord
280
     1
102
RTVSPropertyOp0
 70
     1
102
RTVSPropertyOp1
 70
     1
102
RTVSPropertyOp2
 70
     1
102
RTVSPropertyOp3
 70
     1
102
RTVSPropertyOp4
 70
     1
102
RTVSPropertyOp5
 70
     1
102
RTVSPropertyOp6
 70
     1
102
RTVSPropertyOp7
 70
     1
102
RTVSPropertyOp8
 70
     1
102
RTVSPropertyOp9
 70
     1
102
RTVSPropertyOp10
 70
     1
102
RTVSPropertyOp11
 70
     1
102
RTVSPropertyOp12
 70
     1
102
RTVSPropertyOp13
 70
     1
102
RTVSPropertyOp14
 70
     1
102
RTVSPropertyOp15
 70
     1
102
RTVSPropertyOp16
 70
     1
102
RTVSPropertyOp17
 70
     1
102
RTVSPropertyOp18
 70
     1
102
RTVSPropertyOp19
 70
     1
102
RTVSPropertyOp20
 70
     1
102
RTVSPropertyOp21
 70
     1
102
RTVSPropertyOp22
 70
     1
102
RTVSPropertyOp23
 70
     1
102
RTVSPropertyOp24
 70
     1
102
RTVSPropertyOp25
 70
     1
102
RTVSPropertyOp26
 70
     1
102
RTVSPropertyOp27
 70
     1
102
RTVSPropertyOp28
 70
     1
102
RTVSPropertyOp29
 70
     1
102
RTVSPropertyOp30
 70
     1
102
RTVSPropertyOp31
 70
     1
102
RTVSPropertyOp32
 70
     1
  0
XRECORD
  5
8D0
102
{ACAD_REACTORS
330
8CF
102
}
330
8CF
100
AcDbXrecord
280
     1
102
RTVSPropertyOp0
 70
     1
102
RTVSPropertyOp1
 70
     1
102
RTVSPropertyOp2
 70
     1
102
RTVSPropertyOp3
 70
     1
102
RTVSPropertyOp4
 70
     1
102
RTVSPropertyOp5
 70
     1
102
RTVSPropertyOp6
 70
     1
102
RTVSPropertyOp7
 70
     1
102
RTVSPropertyOp8
 70
     1
102
RTVSPropertyOp9
 70
     1
102
RTVSPropertyOp10
 70
     1
102
RTVSPropertyOp11
 70
     1
102
RTVSPropertyOp12
 70
     1
102
RTVSPropertyOp13
 70
     1
102
RTVSPropertyOp14
 70
     1
102
RTVSPropertyOp15
 70
     1
102
RTVSPropertyOp16
 70
     1
102
RTVSPropertyOp17
 70
     1
102
RTVSPropertyOp18
 70
     1
102
RTVSPropertyOp19
 70
     1
102
RTVSPropertyOp20
 70
     1
102
RTVSPropertyOp21
 70
     1
102
RTVSPropertyOp22
 70
     1
102
RTVSPropertyOp23
 70
     1
102
RTVSPropertyOp24
 70
     1
102
RTVSPropertyOp25
 70
     1
102
RTVSPropertyOp26
 70
     1
102
RTVSPropertyOp27
 70
     1
102
RTVSPropertyOp28
 70
     1
102
RTVSPropertyOp29
 70
     1
102
RTVSPropertyOp30
 70
     1
102
RTVSPropertyOp31
 70
     1
102
RTVSPropertyOp32
 70
     1
  0
XRECORD
  5
8D2
102
{ACAD_REACTORS
330
8D1
102
}
330
8D1
100
AcDbXrecord
280
     1
102
RTVSPropertyOp0
 70
     1
102
RTVSPropertyOp1
 70
     1
102
RTVSPropertyOp2
 70
     1
102
RTVSPropertyOp3
 70
     1
102
RTVSPropertyOp4
 70
     1
102
RTVSPropertyOp5
 70
     1
102
RTVSPropertyOp6
 70
     1
102
RTVSPropertyOp7
 70
     1
102
RTVSPropertyOp8
 70
     1
102
RTVSPropertyOp9
 70
     1
102
RTVSPropertyOp10
 70
     1
102
RTVSPropertyOp11
 70
     1
102
RTVSPropertyOp12
 70
     1
102
RTVSPropertyOp13
 70
     1
102
RTVSPropertyOp14
 70
     1
102
RTVSPropertyOp15
 70
     1
102
RTVSPropertyOp16
 70
     1
102
RTVSPropertyOp17
 70
     1
102
RTVSPropertyOp18
 70
     1
102
RTVSPropertyOp19
 70
     1
102
RTVSPropertyOp20
 70
     1
102
RTVSPropertyOp21
 70
     1
102
RTVSPropertyOp22
 70
     1
102
RTVSPropertyOp23
 70
     1
102
RTVSPropertyOp24
 70
     1
102
RTVSPropertyOp25
 70
     1
102
RTVSPropertyOp26
 70
     1
102
RTVSPropertyOp27
 70
     1
102
RTVSPropertyOp28
 70
     1
102
RTVSPropertyOp29
 70
     1
102
RTVSPropertyOp30
 70
     1
102
RTVSPropertyOp31
 70
     1
102
RTVSPropertyOp32
 70
     1
  0
XRECORD
  5
8C8
102
{ACAD_REACTORS
330
8C7
102
}
330
8C7
100
AcDbXrecord
280
     1
102
RTVSPropertyOp0
 70
     1
102
RTVSPropertyOp1
 70
     1
102
RTVSPropertyOp2
 70
     1
102
RTVSPropertyOp3
 70
     1
102
RTVSPropertyOp4
 70
     1
102
RTVSPropertyOp5
 70
     1
102
RTVSPropertyOp6
 70
     1
102
RTVSPropertyOp7
 70
     1
102
RTVSPropertyOp8
 70
     1
102
RTVSPropertyOp9
 70
     1
102
RTVSPropertyOp10
 70
     1
102
RTVSPropertyOp11
 70
     1
102
RTVSPropertyOp12
 70
     1
102
RTVSPropertyOp13
 70
     1
102
RTVSPropertyOp14
 70
     1
102
RTVSPropertyOp15
 70
     1
102
RTVSPropertyOp16
 70
     1
102
RTVSPropertyOp17
 70
     1
102
RTVSPropertyOp18
 70
     1
102
RTVSPropertyOp19
 70
     1
102
RTVSPropertyOp20
 70
     1
102
RTVSPropertyOp21
 70
     1
102
RTVSPropertyOp22
 70
     1
102
RTVSPropertyOp23
 70
     1
102
RTVSPropertyOp24
 70
     1
102
RTVSPropertyOp25
 70
     1
102
RTVSPropertyOp26
 70
     1
102
RTVSPropertyOp27
 70
     1
102
RTVSPropertyOp28
 70
     1
102
RTVSPropertyOp29
 70
     1
102
RTVSPropertyOp30
 70
     1
102
RTVSPropertyOp31
 70
     1
102
RTVSPropertyOp32
 70
     1
  0
XRECORD
  5
8BC
102
{ACAD_REACTORS
330
8BB
102
}
330
8BB
100
AcDbXrecord
280
     1
102
RTVSPropertyOp0
 70
     1
102
RTVSPropertyOp1
 70
     1
102
RTVSPropertyOp2
 70
     1
102
RTVSPropertyOp3
 70
     1
102
RTVSPropertyOp4
 70
     1
102
RTVSPropertyOp5
 70
     1
102
RTVSPropertyOp6
 70
     1
102
RTVSPropertyOp7
 70
     1
102
RTVSPropertyOp8
 70
     1
102
RTVSPropertyOp9
 70
     1
102
RTVSPropertyOp10
 70
     1
102
RTVSPropertyOp11
 70
     1
102
RTVSPropertyOp12
 70
     1
102
RTVSPropertyOp13
 70
     1
102
RTVSPropertyOp14
 70
     1
102
RTVSPropertyOp15
 70
     1
102
RTVSPropertyOp16
 70
     1
102
RTVSPropertyOp17
 70
     1
102
RTVSPropertyOp18
 70
     1
102
RTVSPropertyOp19
 70
     1
102
RTVSPropertyOp20
 70
     1
102
RTVSPropertyOp21
 70
     1
102
RTVSPropertyOp22
 70
     1
102
RTVSPropertyOp23
 70
     1
102
RTVSPropertyOp24
 70
     1
102
RTVSPropertyOp25
 70
     1
102
RTVSPropertyOp26
 70
     1
102
RTVSPropertyOp27
 70
     1
102
RTVSPropertyOp28
 70
     1
102
RTVSPropertyOp29
 70
     1
102
RTVSPropertyOp30
 70
     1
102
RTVSPropertyOp31
 70
     1
102
RTVSPropertyOp32
 70
     1
  0
XRECORD
  5
8D4
102
{ACAD_REACTORS
330
8D3
102
}
330
8D3
100
AcDbXrecord
280
     1
102
RTVSPropertyOp0
 70
     1
102
RTVSPropertyOp1
 70
     1
102
RTVSPropertyOp2
 70
     1
102
RTVSPropertyOp3
 70
     1
102
RTVSPropertyOp4
 70
     1
102
RTVSPropertyOp5
 70
     1
102
RTVSPropertyOp6
 70
     1
102
RTVSPropertyOp7
 70
     1
102
RTVSPropertyOp8
 70
     1
102
RTVSPropertyOp9
 70
     1
102
RTVSPropertyOp10
 70
     1
102
RTVSPropertyOp11
 70
     1
102
RTVSPropertyOp12
 70
     1
102
RTVSPropertyOp13
 70
     1
102
RTVSPropertyOp14
 70
     1
102
RTVSPropertyOp15
 70
     1
102
RTVSPropertyOp16
 70
     1
102
RTVSPropertyOp17
 70
     1
102
RTVSPropertyOp18
 70
     1
102
RTVSPropertyOp19
 70
     1
102
RTVSPropertyOp20
 70
     1
102
RTVSPropertyOp21
 70
     1
102
RTVSPropertyOp22
 70
     1
102
RTVSPropertyOp23
 70
     1
102
RTVSPropertyOp24
 70
     1
102
RTVSPropertyOp25
 70
     1
102
RTVSPropertyOp26
 70
     1
102
RTVSPropertyOp27
 70
     1
102
RTVSPropertyOp28
 70
     1
102
RTVSPropertyOp29
 70
     1
102
RTVSPropertyOp30
 70
     1
102
RTVSPropertyOp31
 70
     1
102
RTVSPropertyOp32
 70
     1
  0
ENDSEC
  0
EOF
