  0
SECTION
  2
HEADER
  9
$ACADVER
  1
AC1015
  9
$ACADMAINTVER
 70
    18
  9
$DWGCODEPAGE
  3
ANSI_1252
  9
$INSBASE
 10
0.0
 20
0.0
 30
0.0
  9
$EXTMIN
 10
0.0
 20
0.0
 30
0.0
  9
$EXTMAX
 10
23.44827586206897
 20
15.17241379310345
 30
0.0
  9
$LIMMIN
 10
0.0
 20
0.0
  9
$LIMMAX
 10
23.44827586206897
 20
15.17241379310345
  9
$ORTHOMODE
 70
     0
  9
$REGENMODE
 70
     1
  9
$FILLMODE
 70
     1
  9
$QTEXTMODE
 70
     0
  9
$MIRRTEXT
 70
     0
  9
$LTSCALE
 40
1.379310344827586
  9
$ATTMODE
 70
     1
  9
$TEXTSIZE
 40
0.2
  9
$TRACEWID
 40
0.05
  9
$TEXTSTYLE
  7
Standard
  9
$CLAYER
  8
0
  9
$CELTYPE
  6
ByLayer
  9
$CECOLOR
 62
   256
  9
$CELTSCALE
 40
1.0
  9
$DISPSILH
 70
     0
  9
$DIMSCALE
 40
1.0
  9
$DIMASZ
 40
0.0708661417322835
  9
$DIMEXO
 40
0.0625
  9
$DIMDLI
 40
0.38
  9
$DIMRND
 40
0.0
  9
$DIMDLE
 40
0.0
  9
$DIMEXE
 40
0.18
  9
$DIMTP
 40
0.0
  9
$DIMTM
 40
0.0
  9
$DIMTXT
 40
0.0708661417322835
  9
$DIMCEN
 40
0.09
  9
$DIMTSZ
 40
0.0
  9
$DIMTOL
 70
     0
  9
$DIMLIM
 70
     0
  9
$DIMTIH
 70
     1
  9
$DIMTOH
 70
     1
  9
$DIMSE1
 70
     0
  9
$DIMSE2
 70
     0
  9
$DIMTAD
 70
     0
  9
$DIMZIN
 70
     0
  9
$DIMBLK
  1

  9
$DIMASO
 70
     1
  9
$DIMSHO
 70
     1
  9
$DIMPOST
  1

  9
$DIMAPOST
  1

  9
$DIMALT
 70
     0
  9
$DIMALTD
 70
     2
  9
$DIMALTF
 40
25.4
  9
$DIMLFAC
 40
1.0
  9
$DIMTOFL
 70
     0
  9
$DIMTVP
 40
0.0
  9
$DIMTIX
 70
     0
  9
$DIMSOXD
 70
     0
  9
$DIMSAH
 70
     0
  9
$DIMBLK1
  1

  9
$DIMBLK2
  1

  9
$DIMSTYLE
  2
STANDARD
  9
$DIMCLRD
 70
     0
  9
$DIMCLRE
 70
     0
  9
$DIMCLRT
 70
     0
  9
$DIMTFAC
 40
1.0
  9
$DIMGAP
 40
0.09
  9
$DIMJUST
 70
     0
  9
$DIMSD1
 70
     0
  9
$DIMSD2
 70
     0
  9
$DIMTOLJ
 70
     1
  9
$DIMTZIN
 70
     0
  9
$DIMALTZ
 70
     0
  9
$DIMALTTZ
 70
     0
  9
$DIMUPT
 70
     0
  9
$DIMDEC
 70
     4
  9
$DIMTDEC
 70
     4
  9
$DIMALTU
 70
     2
  9
$DIMALTTD
 70
     2
  9
$DIMTXSTY
  7
Standard
  9
$DIMAUNIT
 70
     0
  9
$DIMADEC
 70
     0
  9
$DIMALTRND
 40
0.0
  9
$DIMAZIN
 70
     0
  9
$DIMDSEP
 70
    46
  9
$DIMATFIT
 70
     3
  9
$DIMFRAC
 70
     0
  9
$DIMLDRBLK
  1

  9
$DIMLUNIT
 70
     2
  9
$DIMLWD
 70
    -2
  9
$DIMLWE
 70
    -2
  9
$DIMTMOVE
 70
     0
  9
$LUNITS
 70
     2
  9
$LUPREC
 70
     4
  9
$SKETCHINC
 40
0.1
  9
$FILLETRAD
 40
0.0
  9
$AUNITS
 70
     0
  9
$AUPREC
 70
     0
  9
$MENU
  1
.
  9
$ELEVATION
 40
0.0
  9
$PELEVATION
 40
0.0
  9
$THICKNESS
 40
0.0
  9
$LIMCHECK
 70
     0
  9
$CHAMFERA
 40
0.0
  9
$CHAMFERB
 40
0.0
  9
$CHAMFERC
 40
0.0
  9
$CHAMFERD
 40
0.0
  9
$SKPOLY
 70
     0
  9
$TDCREATE
 40
2455950.535479063
  9
$TDUCREATE
 40
2455950.785479063
  9
$TDUPDATE
 40
2455950.535479063
  9
$TDUUPDATE
 40
2455950.785479063
  9
$TDINDWG
 40
0.0000357986
  9
$TDUSRTIMER
 40
0.0000357986
  9
$USRTIMER
 70
     1
  9
$ANGBASE
 50
0.0
  9
$ANGDIR
 70
     0
  9
$PDMODE
 70
     0
  9
$PDSIZE
 40
0.0
  9
$PLINEWID
 40
0.0
  9
$SPLFRAME
 70
     0
  9
$SPLINETYPE
 70
     6
  9
$SPLINESEGS
 70
     8
  9
$HANDSEED
  5
8CF
  9
$SURFTAB1
 70
     6
  9
$SURFTAB2
 70
     6
  9
$SURFTYPE
 70
     6
  9
$SURFU
 70
     6
  9
$SURFV
 70
     6
  9
$UCSBASE
  2

  9
$UCSNAME
  2

  9
$UCSORG
 10
0.0
 20
0.0
 30
0.0
  9
$UCSXDIR
 10
1.0
 20
0.0
 30
0.0
  9
$UCSYDIR
 10
0.0
 20
1.0
 30
0.0
  9
$UCSORTHOREF
  2

  9
$UCSORTHOVIEW
 70
     0
  9
$UCSORGTOP
 10
0.0
 20
0.0
 30
0.0
  9
$UCSORGBOTTOM
 10
0.0
 20
0.0
 30
0.0
  9
$UCSORGLEFT
 10
0.0
 20
0.0
 30
0.0
  9
$UCSORGRIGHT
 10
0.0
 20
0.0
 30
0.0
  9
$UCSORGFRONT
 10
0.0
 20
0.0
 30
0.0
  9
$UCSORGBACK
 10
0.0
 20
0.0
 30
0.0
  9
$PUCSBASE
  2

  9
$PUCSNAME
  2

  9
$PUCSORG
 10
0.0
 20
0.0
 30
0.0
  9
$PUCSXDIR
 10
1.0
 20
0.0
 30
0.0
  9
$PUCSYDIR
 10
0.0
 20
1.0
 30
0.0
  9
$PUCSORTHOREF
  2

  9
$PUCSORTHOVIEW
 70
     0
  9
$PUCSORGTOP
 10
0.0
 20
0.0
 30
0.0
  9
$PUCSORGBOTTOM
 10
0.0
 20
0.0
 30
0.0
  9
$PUCSORGLEFT
 10
0.0
 20
0.0
 30
0.0
  9
$PUCSORGRIGHT
 10
0.0
 20
0.0
 30
0.0
  9
$PUCSORGFRONT
 10
0.0
 20
0.0
 30
0.0
  9
$PUCSORGBACK
 10
0.0
 20
0.0
 30
0.0
  9
$USERI1
 70
     0
  9
$USERI2
 70
     0
  9
$USERI3
 70
     0
  9
$USERI4
 70
     0
  9
$USERI5
 70
     0
  9
$USERR1
 40
0.0
  9
$USERR2
 40
0.0
  9
$USERR3
 40
0.0
  9
$USERR4
 40
0.0
  9
$USERR5
 40
0.0
  9
$WORLDVIEW
 70
     1
  9
$SHADEDGE
 70
     3
  9
$SHADEDIF
 70
    70
  9
$TILEMODE
 70
     1
  9
$MAXACTVP
 70
    64
  9
$PINSBASE
 10
0.0
 20
0.0
 30
0.0
  9
$PLIMCHECK
 70
     0
  9
$PEXTMIN
 10
0.0
 20
0.0
 30
0.0
  9
$PEXTMAX
 10
23.44827586206897
 20
15.17241379310345
 30
0.0
  9
$PLIMMIN
 10
0.0
 20
0.0
  9
$PLIMMAX
 10
23.44827586206897
 20
15.17241379310345
  9
$UNITMODE
 70
     0
  9
$VISRETAIN
 70
     1
  9
$PLINEGEN
 70
     0
  9
$PSLTSCALE
 70
     1
  9
$TREEDEPTH
 70
  3020
  9
$CMLSTYLE
  2
Standard
  9
$CMLJUST
 70
     0
  9
$CMLSCALE
 40
1.0
  9
$PROXYGRAPHICS
 70
     1
  9
$MEASUREMENT
 70
     0
  9
$CELWEIGHT
370
    -1
  9
$ENDCAPS
280
     0
  9
$JOINSTYLE
280
     0
  9
$LWDISPLAY
290
     0
  9
$INSUNITS
 70
     1
  9
$HYPERLINKBASE
  1

  9
$STYLESHEET
  1

  9
$XEDIT
290
     1
  9
$CEPSNTYPE
380
     0
  9
$PSTYLEMODE
290
     1
  9
$FINGERPRINTGUID
  2
{0F7262AF-04F6-481A-B4DC-766D44D4FFD9}
  9
$VERSIONGUID
  2
{8589EC41-EA4E-4524-9BDF-0E4DE02BC174}
  9
$EXTNAMES
290
     1
  9
$PSVPSCALE
 40
0.0
  9
$OLESTARTUP
290
     0
  0
ENDSEC
  0
SECTION
  2
CLASSES
  0
CLASS
  1
ACDBDICTIONARYWDFLT
  2
AcDbDictionaryWithDefault
  3
ObjectDBX Classes
 90
        0
280
     0
281
     0
  0
CLASS
  1
MATERIAL
  2
AcDbMaterial
  3
ObjectDBX Classes
 90
     1153
280
     0
281
     0
  0
CLASS
  1
VISUALSTYLE
  2
AcDbVisualStyle
  3
ObjectDBX Classes
 90
     4095
280
     0
281
     0
  0
CLASS
  1
SCALE
  2
AcDbScale
  3
ObjectDBX Classes
 90
     1153
280
     0
281
     0
  0
CLASS
  1
TABLESTYLE
  2
AcDbTableStyle
  3
ObjectDBX Classes
 90
     4095
280
     0
281
     0
  0
CLASS
  1
MLEADERSTYLE
  2
AcDbMLeaderStyle
  3
ACDB_MLEADERSTYLE_CLASS
 90
     4095
280
     0
281
     0
  0
CLASS
  1
DICTIONARYVAR
  2
AcDbDictionaryVar
  3
ObjectDBX Classes
 90
        0
280
     0
281
     0
  0
CLASS
  1
CELLSTYLEMAP
  2
AcDbCellStyleMap
  3
ObjectDBX Classes
 90
     1152
280
     0
281
     0
  0
CLASS
  1
ACDBPLACEHOLDER
  2
AcDbPlaceHolder
  3
ObjectDBX Classes
 90
        0
280
     0
281
     0
  0
CLASS
  1
LAYOUT
  2
AcDbLayout
  3
ObjectDBX Classes
 90
        0
280
     0
281
     0
  0
ENDSEC
  0
SECTION
  2
TABLES
  0
TABLE
  2
VPORT
  5
8
330
0
100
AcDbSymbolTable
 70
     1
  0
VPORT
  5
57
330
8
100
AcDbSymbolTableRecord
100
AcDbViewportTableRecord
  2
*Active
 70
     0
 10
0.0
 20
0.0
 11
1.0
 21
1.0
 12
11.72413793103448
 22
7.586206896551724
 13
0.0
 23
0.0
 14
1.0
 24
1.0
 15
0.0
 25
0.0
 16
0.0
 26
0.0
 36
1.0
 17
0.0
 27
0.0
 37
0.0
 40
15.17241379310345
 41
1.545454545454545
 42
50.0
 43
0.0
 44
0.0
 50
0.0
 51
0.0
 71
     0
 72
   100
 73
     1
 74
     1
 75
     0
 76
     0
 77
     0
 78
     0
281
     0
 65
     1
110
0.0
120
0.0
130
0.0
111
1.0
121
0.0
131
0.0
112
0.0
122
1.0
132
0.0
 79
     0
146
0.0
  0
ENDTAB
  0
TABLE
  2
LTYPE
  5
5
330
0
100
AcDbSymbolTable
 70
    59
  0
LTYPE
  5
5B
330
5
100
AcDbSymbolTableRecord
100
AcDbLinetypeTableRecord
  2
ByBlock
 70
     0
  3

 72
    65
 73
     0
 40
0.0
  0
LTYPE
  5
5C
330
5
100
AcDbSymbolTableRecord
100
AcDbLinetypeTableRecord
  2
ByLayer
 70
     0
  3

 72
    65
 73
     0
 40
0.0
  0
LTYPE
  5
5D
330
5
100
AcDbSymbolTableRecord
100
AcDbLinetypeTableRecord
  2
Continuous
 70
     0
  3
Solid line
 72
    65
 73
     0
 40
0.0
  0
LTYPE
  5
7C
330
5
100
AcDbSymbolTableRecord
100
AcDbLinetypeTableRecord
  2
BY_STANDARD
 70
     0
  3
By Standard ____________    ____    ____   _
 72
    65
 73
     6
 40
1.240299999999999
 49
0.6614
 74
     0
 49
-0.0827
 74
     0
 49
0.1654
 74
     0
 49
-0.0827
 74
     0
 49
0.1654
 74
     0
 49
-0.0827
 74
     0
  0
LTYPE
  5
7D
330
5
100
AcDbSymbolTableRecord
100
AcDbLinetypeTableRecord
  2
CHAIN
 70
     0
  3
Chain ____ _ ____ _ ____ _ ____ _ ____ _ ____
 72
    65
 73
     4
 40
0.7087
 49
0.4724000000000001
 74
     0
 49
-0.0591
 74
     0
 49
0.1181
 74
     0
 49
-0.0591
 74
     0
  0
LTYPE
  5
7E
330
5
100
AcDbSymbolTableRecord
100
AcDbLinetypeTableRecord
  2
DASH_DOT
 70
     0
  3
Dash dot __ . __ . __ . __ . __ . __ . __ . __
 72
    65
 73
     4
 40
0.37
 49
0.24
 74
     0
 49
-0.06
 74
     0
 49
0.01
 74
     0
 49
-0.06
 74
     0
  0
LTYPE
  5
7F
330
5
100
AcDbSymbolTableRecord
100
AcDbLinetypeTableRecord
  2
DOUBLE_DASH_DOT
 70
     0
  3
Double-Dash Dot __ __ . __ __ . __ __ . __ _
 72
    65
 73
     6
 40
0.4398
 49
0.24
 74
     0
 49
-0.06
 74
     0
 49
0.0098
 74
     0
 49
-0.06
 74
     0
 49
0.01
 74
     0
 49
-0.06
 74
     0
  0
LTYPE
  5
80
330
5
100
AcDbSymbolTableRecord
100
AcDbLinetypeTableRecord
  2
DASH_TRIPLE_DOT
 70
     0
  3
Dash Triple-Dot _ . . . _ . . . _ . . . _
 72
    65
 73
     8
 40
0.51
 49
0.24
 74
     0
 49
-0.06
 74
     0
 49
0.01
 74
     0
 49
-0.06
 74
     0
 49
0.01
 74
     0
 49
-0.06
 74
     0
 49
0.01
 74
     0
 49
-0.06
 74
     0
  0
LTYPE
  5
81
330
5
100
AcDbSymbolTableRecord
100
AcDbLinetypeTableRecord
  2
DASHED
 70
     0
  3
Dashed __ __ __ __ __ __ __ __ __ __ __ __ __ _
 72
    65
 73
     2
 40
0.2067
 49
0.1654
 74
     0
 49
-0.0413
 74
     0
  0
LTYPE
  5
82
330
5
100
AcDbSymbolTableRecord
100
AcDbLinetypeTableRecord
  2
DASH_DOUBLE_DOT
 70
     0
  3
Dash Double-Dot __ . . __ . . __ . . __ . .
 72
    65
 73
     6
 40
0.4398
 49
0.24
 74
     0
 49
-0.06
 74
     0
 49
0.0098
 74
     0
 49
-0.06
 74
     0
 49
0.01
 74
     0
 49
-0.06
 74
     0
  0
LTYPE
  5
83
330
5
100
AcDbSymbolTableRecord
100
AcDbLinetypeTableRecord
  2
DASHED_SPACE
 70
     0
  3
Dashed Space __ __ __ __ __ __ __ __ __ __ __ _
 72
    65
 73
     2
 40
0.2067
 49
0.1654
 74
     0
 49
-0.0413
 74
     0
  0
LTYPE
  5
84
330
5
100
AcDbSymbolTableRecord
100
AcDbLinetypeTableRecord
  2
DOTTED
 70
     0
  3
Dotted . . . . . . . . . . . . . . . . . . . . 
 72
    65
 73
     2
 40
0.0482
 49
0.0069
 74
     0
 49
-0.0413
 74
     0
  0
LTYPE
  5
85
330
5
100
AcDbSymbolTableRecord
100
AcDbLinetypeTableRecord
  2
DOUBLE_DASH_CHAIN
 70
     0
  3
Double-Dash Chain ______  __  __  ______  __  _
 72
    65
 73
     6
 40
1.240299999999999
 49
0.6614
 74
     0
 49
-0.0827
 74
     0
 49
0.1654
 74
     0
 49
-0.0827
 74
     0
 49
0.1654
 74
     0
 49
-0.0827
 74
     0
  0
LTYPE
  5
87
330
5
100
AcDbSymbolTableRecord
100
AcDbLinetypeTableRecord
  2
DOUBLE_DASH_DOUBLE_DOT
 70
     0
  3
Double-Dash Double-dot _ _ . . _ _ . . _
 72
    65
 73
     8
 40
0.7400000000000001
 49
0.24
 74
     0
 49
-0.06
 74
     0
 49
0.24
 74
     0
 49
-0.06
 74
     0
 49
0.01
 74
     0
 49
-0.06
 74
     0
 49
0.01
 74
     0
 49
-0.06
 74
     0
  0
LTYPE
  5
88
330
5
100
AcDbSymbolTableRecord
100
AcDbLinetypeTableRecord
  2
DOUBLE_DASH_TRIPLE_DOT
 70
     0
  3
Double Dash Triple Dot __ __ . . . __ __ . .
 72
    65
 73
    10
 40
0.8100000000000001
 49
0.24
 74
     0
 49
-0.06
 74
     0
 49
0.24
 74
     0
 49
-0.06
 74
     0
 49
0.01
 74
     0
 49
-0.06
 74
     0
 49
0.01
 74
     0
 49
-0.06
 74
     0
 49
0.01
 74
     0
 49
-0.06
 74
     0
  0
LTYPE
  5
89
330
5
100
AcDbSymbolTableRecord
100
AcDbLinetypeTableRecord
  2
LONG_DASH_DOTTED
 70
     0
  3
Long Dash Dotted ____ . ____ . ____ . ____ . _
 72
    65
 73
     4
 40
0.3543
 49
0.2362
 74
     0
 49
-0.0295
 74
     0
 49
0.0591
 74
     0
 49
-0.0295
 74
     0
  0
LTYPE
  5
8A
330
5
100
AcDbSymbolTableRecord
100
AcDbLinetypeTableRecord
  2
LONG_DASH_DOUBLE_DOT
 70
     0
  3
Long Dash Double Dot ________  .  .  ________  
 72
    65
 73
     6
 40
0.6799999999999999
 49
0.48
 74
     0
 49
-0.06
 74
     0
 49
0.01
 74
     0
 49
-0.06
 74
     0
 49
0.01
 74
     0
 49
-0.06
 74
     0
  0
LTYPE
  5
8B
330
5
100
AcDbSymbolTableRecord
100
AcDbLinetypeTableRecord
  2
LONG_DASH_TRIPLE_DOT
 70
     0
  3
Long Dash Triple Dot ____ ... ____ ... ____
 72
    65
 73
     8
 40
0.3689
 49
0.2362
 74
     0
 49
-0.0295
 74
     0
 49
0.0049
 74
     0
 49
-0.0295
 74
     0
 49
0.0049
 74
     0
 49
-0.0295
 74
     0
 49
0.0049
 74
     0
 49
-0.0295
 74
     0
  0
LTYPE
  5
8C
330
5
100
AcDbSymbolTableRecord
100
AcDbLinetypeTableRecord
  2
BORDER
 70
     0
  3
Border __ __ . __ __ . __ __ . __ __ . __ __ .
 72
    65
 73
     6
 40
1.75
 49
0.5
 74
     0
 49
-0.25
 74
     0
 49
0.5
 74
     0
 49
-0.25
 74
     0
 49
0.0
 74
     0
 49
-0.25
 74
     0
  0
LTYPE
  5
8D
330
5
100
AcDbSymbolTableRecord
100
AcDbLinetypeTableRecord
  2
BORDER2
 70
     0
  3
Border (.5x) __.__.__.__.__.__.__.__.__.__.__.
 72
    65
 73
     6
 40
0.875
 49
0.25
 74
     0
 49
-0.125
 74
     0
 49
0.25
 74
     0
 49
-0.125
 74
     0
 49
0.0
 74
     0
 49
-0.125
 74
     0
  0
LTYPE
  5
8E
330
5
100
AcDbSymbolTableRecord
100
AcDbLinetypeTableRecord
  2
BORDERX2
 70
     0
  3
Border (2x) ____  ____  .  ____  ____  .  ___
 72
    65
 73
     6
 40
3.5
 49
1.0
 74
     0
 49
-0.5
 74
     0
 49
1.0
 74
     0
 49
-0.5
 74
     0
 49
0.0
 74
     0
 49
-0.5
 74
     0
  0
LTYPE
  5
8F
330
5
100
AcDbSymbolTableRecord
100
AcDbLinetypeTableRecord
  2
CENTER
 70
     0
  3
Center ____ _ ____ _ ____ _ ____ _ ____ _ ____
 72
    65
 73
     4
 40
2.0
 49
1.25
 74
     0
 49
-0.25
 74
     0
 49
0.25
 74
     0
 49
-0.25
 74
     0
  0
LTYPE
  5
90
330
5
100
AcDbSymbolTableRecord
100
AcDbLinetypeTableRecord
  2
CENTER2
 70
     0
  3
Center (.5x) ___ _ ___ _ ___ _ ___ _ ___ _ ___
 72
    65
 73
     4
 40
1.125
 49
0.75
 74
     0
 49
-0.125
 74
     0
 49
0.125
 74
     0
 49
-0.125
 74
     0
  0
LTYPE
  5
91
330
5
100
AcDbSymbolTableRecord
100
AcDbLinetypeTableRecord
  2
CENTERX2
 70
     0
  3
Center (2x) ________  __  ________  __  _____
 72
    65
 73
     4
 40
4.0
 49
2.5
 74
     0
 49
-0.5
 74
     0
 49
0.5
 74
     0
 49
-0.5
 74
     0
  0
LTYPE
  5
92
330
5
100
AcDbSymbolTableRecord
100
AcDbLinetypeTableRecord
  2
DASHDOT2
 70
     0
  3
Dash dot (.5x) _._._._._._._._._._._._._._._.
 72
    65
 73
     4
 40
0.5
 49
0.25
 74
     0
 49
-0.125
 74
     0
 49
0.0
 74
     0
 49
-0.125
 74
     0
  0
LTYPE
  5
93
330
5
100
AcDbSymbolTableRecord
100
AcDbLinetypeTableRecord
  2
DASHDOTX2
 70
     0
  3
Dash dot (2x) ____  .  ____  .  ____  .  ___
 72
    65
 73
     4
 40
2.0
 49
1.0
 74
     0
 49
-0.5
 74
     0
 49
0.0
 74
     0
 49
-0.5
 74
     0
  0
LTYPE
  5
95
330
5
100
AcDbSymbolTableRecord
100
AcDbLinetypeTableRecord
  2
DASHED2
 70
     0
  3
Dashed (.5x) _ _ _ _ _ _ _ _ _ _ _ _ _ _ _ _ _
 72
    65
 73
     2
 40
0.375
 49
0.25
 74
     0
 49
-0.125
 74
     0
  0
LTYPE
  5
96
330
5
100
AcDbSymbolTableRecord
100
AcDbLinetypeTableRecord
  2
DASHEDX2
 70
     0
  3
Dashed (2x) ____  ____  ____  ____  ____  ___
 72
    65
 73
     2
 40
1.5
 49
1.0
 74
     0
 49
-0.5
 74
     0
  0
LTYPE
  5
97
330
5
100
AcDbSymbolTableRecord
100
AcDbLinetypeTableRecord
  2
DIVIDE
 70
     0
  3
Divide ____ . . ____ . . ____ . . ____ . . ____
 72
    65
 73
     6
 40
1.25
 49
0.5
 74
     0
 49
-0.25
 74
     0
 49
0.0
 74
     0
 49
-0.25
 74
     0
 49
0.0
 74
     0
 49
-0.25
 74
     0
  0
LTYPE
  5
98
330
5
100
AcDbSymbolTableRecord
100
AcDbLinetypeTableRecord
  2
DIVIDE2
 70
     0
  3
Divide (.5x) __..__..__..__..__..__..__..__.._
 72
    65
 73
     6
 40
0.625
 49
0.25
 74
     0
 49
-0.125
 74
     0
 49
0.0
 74
     0
 49
-0.125
 74
     0
 49
0.0
 74
     0
 49
-0.125
 74
     0
  0
LTYPE
  5
99
330
5
100
AcDbSymbolTableRecord
100
AcDbLinetypeTableRecord
  2
DIVIDEX2
 70
     0
  3
Divide (2x) ________  .  .  ________  .  .  _
 72
    65
 73
     6
 40
2.5
 49
1.0
 74
     0
 49
-0.5
 74
     0
 49
0.0
 74
     0
 49
-0.5
 74
     0
 49
0.0
 74
     0
 49
-0.5
 74
     0
  0
LTYPE
  5
9A
330
5
100
AcDbSymbolTableRecord
100
AcDbLinetypeTableRecord
  2
DOT
 70
     0
  3
Dot . . . . . . . . . . . . . . . . . . . . . .
 72
    65
 73
     2
 40
0.25
 49
0.0
 74
     0
 49
-0.25
 74
     0
  0
LTYPE
  5
9B
330
5
100
AcDbSymbolTableRecord
100
AcDbLinetypeTableRecord
  2
DOT2
 70
     0
  3
Dot (.5x) .....................................
 72
    65
 73
     2
 40
0.125
 49
0.0
 74
     0
 49
-0.125
 74
     0
  0
LTYPE
  5
9C
330
5
100
AcDbSymbolTableRecord
100
AcDbLinetypeTableRecord
  2
DOTX2
 70
     0
  3
Dot (2x) .  .  .  .  .  .  .  .  .  .  .  .  . 
 72
    65
 73
     2
 40
0.5
 49
0.0
 74
     0
 49
-0.5
 74
     0
  0
LTYPE
  5
9D
330
5
100
AcDbSymbolTableRecord
100
AcDbLinetypeTableRecord
  2
HIDDEN
 70
     0
  3
Hidden __ __ __ __ __ __ __ __ __ __ __ __ __ _
 72
    65
 73
     2
 40
0.375
 49
0.25
 74
     0
 49
-0.125
 74
     0
  0
LTYPE
  5
9E
330
5
100
AcDbSymbolTableRecord
100
AcDbLinetypeTableRecord
  2
HIDDEN2
 70
     0
  3
Hidden (.5x) _ _ _ _ _ _ _ _ _ _ _ _ _ _ _ _ _
 72
    65
 73
     2
 40
0.1875
 49
0.125
 74
     0
 49
-0.0625
 74
     0
  0
LTYPE
  5
9F
330
5
100
AcDbSymbolTableRecord
100
AcDbLinetypeTableRecord
  2
HIDDENX2
 70
     0
  3
Hidden (2x) ____ ____ ____ ____ ____ ____ ____
 72
    65
 73
     2
 40
0.75
 49
0.5
 74
     0
 49
-0.25
 74
     0
  0
LTYPE
  5
A0
330
5
100
AcDbSymbolTableRecord
100
AcDbLinetypeTableRecord
  2
PHANTOM
 70
     0
  3
Phantom ______  __  __  ______  __  __  ______
 72
    65
 73
     6
 40
2.5
 49
1.25
 74
     0
 49
-0.25
 74
     0
 49
0.25
 74
     0
 49
-0.25
 74
     0
 49
0.25
 74
     0
 49
-0.25
 74
     0
  0
LTYPE
  5
A1
330
5
100
AcDbSymbolTableRecord
100
AcDbLinetypeTableRecord
  2
PHANTOM2
 70
     0
  3
Phantom (.5x) ___ _ _ ___ _ _ ___ _ _ ___ _ _
 72
    65
 73
     6
 40
1.25
 49
0.625
 74
     0
 49
-0.125
 74
     0
 49
0.125
 74
     0
 49
-0.125
 74
     0
 49
0.125
 74
     0
 49
-0.125
 74
     0
  0
LTYPE
  5
A2
330
5
100
AcDbSymbolTableRecord
100
AcDbLinetypeTableRecord
  2
PHANTOMX2
 70
     0
  3
Phantom (2x) ____________    ____    ____   _
 72
    65
 73
     6
 40
5.0
 49
2.5
 74
     0
 49
-0.5
 74
     0
 49
0.5
 74
     0
 49
-0.5
 74
     0
 49
0.5
 74
     0
 49
-0.5
 74
     0
  0
LTYPE
  5
A3
330
5
100
AcDbSymbolTableRecord
100
AcDbLinetypeTableRecord
  2
ACAD_ISO02W100
 70
     0
  3
ISO dash __ __ __ __ __ __ __ __ __ __ __ __ __
 72
    65
 73
     2
 40
0.59
 49
0.47
 74
     0
 49
-0.12
 74
     0
  0
LTYPE
  5
A4
330
5
100
AcDbSymbolTableRecord
100
AcDbLinetypeTableRecord
  2
ACAD_ISO03W100
 70
     0
  3
ISO dash space __    __    __    __    __    __
 72
    65
 73
     2
 40
1.179999999999999
 49
0.47
 74
     0
 49
-0.71
 74
     0
  0
LTYPE
  5
A5
330
5
100
AcDbSymbolTableRecord
100
AcDbLinetypeTableRecord
  2
ACAD_ISO04W100
 70
     0
  3
ISO long-dash dot ____ . ____ . ____ . ____ . _
 72
    65
 73
     4
 40
1.179999999999999
 49
0.9399999999999998
 74
     0
 49
-0.12
 74
     0
 49
0.0
 74
     0
 49
-0.12
 74
     0
  0
LTYPE
  5
A6
330
5
100
AcDbSymbolTableRecord
100
AcDbLinetypeTableRecord
  2
ACAD_ISO05W100
 70
     0
  3
ISO long-dash double-dot ____ .. ____ .. ____ .
 72
    65
 73
     6
 40
1.299999999999999
 49
0.9399999999999998
 74
     0
 49
-0.12
 74
     0
 49
0.0
 74
     0
 49
-0.12
 74
     0
 49
0.0
 74
     0
 49
-0.12
 74
     0
  0
LTYPE
  5
A7
330
5
100
AcDbSymbolTableRecord
100
AcDbLinetypeTableRecord
  2
ACAD_ISO06W100
 70
     0
  3
ISO long-dash triple-dot ____ ... ____ ... ____
 72
    65
 73
     8
 40
1.419999999999999
 49
0.9399999999999998
 74
     0
 49
-0.12
 74
     0
 49
0.0
 74
     0
 49
-0.12
 74
     0
 49
0.0
 74
     0
 49
-0.12
 74
     0
 49
0.0
 74
     0
 49
-0.12
 74
     0
  0
LTYPE
  5
A8
330
5
100
AcDbSymbolTableRecord
100
AcDbLinetypeTableRecord
  2
ACAD_ISO07W100
 70
     0
  3
ISO dot . . . . . . . . . . . . . . . . . . . .
 72
    65
 73
     2
 40
0.12
 49
0.0
 74
     0
 49
-0.12
 74
     0
  0
LTYPE
  5
A9
330
5
100
AcDbSymbolTableRecord
100
AcDbLinetypeTableRecord
  2
ACAD_ISO08W100
 70
     0
  3
ISO long-dash short-dash ____ __ ____ __ ____ _
 72
    65
 73
     4
 40
0.95
 49
0.47
 74
     0
 49
-0.12
 74
     0
 49
0.24
 74
     0
 49
-0.12
 74
     0
  0
LTYPE
  5
AA
330
5
100
AcDbSymbolTableRecord
100
AcDbLinetypeTableRecord
  2
ACAD_ISO09W100
 70
     0
  3
ISO long-dash double-short-dash ____ __ __ ____
 72
    65
 73
     6
 40
1.31
 49
0.47
 74
     0
 49
-0.12
 74
     0
 49
0.24
 74
     0
 49
-0.12
 74
     0
 49
0.24
 74
     0
 49
-0.12
 74
     0
  0
LTYPE
  5
AB
330
5
100
AcDbSymbolTableRecord
100
AcDbLinetypeTableRecord
  2
ACAD_ISO10W100
 70
     0
  3
ISO dash dot __ . __ . __ . __ . __ . __ . __ .
 72
    65
 73
     4
 40
0.71
 49
0.47
 74
     0
 49
-0.12
 74
     0
 49
0.0
 74
     0
 49
-0.12
 74
     0
  0
LTYPE
  5
AC
330
5
100
AcDbSymbolTableRecord
100
AcDbLinetypeTableRecord
  2
ACAD_ISO11W100
 70
     0
  3
ISO double-dash dot __ __ . __ __ . __ __ . __ 
 72
    65
 73
     6
 40
1.299999999999999
 49
0.47
 74
     0
 49
-0.12
 74
     0
 49
0.47
 74
     0
 49
-0.12
 74
     0
 49
0.0
 74
     0
 49
-0.12
 74
     0
  0
LTYPE
  5
AD
330
5
100
AcDbSymbolTableRecord
100
AcDbLinetypeTableRecord
  2
ACAD_ISO12W100
 70
     0
  3
ISO dash double-dot __ . . __ . . __ . . __ . .
 72
    65
 73
     6
 40
0.8299999999999998
 49
0.47
 74
     0
 49
-0.12
 74
     0
 49
0.0
 74
     0
 49
-0.12
 74
     0
 49
0.0
 74
     0
 49
-0.12
 74
     0
  0
LTYPE
  5
AE
330
5
100
AcDbSymbolTableRecord
100
AcDbLinetypeTableRecord
  2
ACAD_ISO13W100
 70
     0
  3
ISO double-dash double-dot __ __ . . __ __ . . 
 72
    65
 73
     8
 40
1.419999999999999
 49
0.47
 74
     0
 49
-0.12
 74
     0
 49
0.47
 74
     0
 49
-0.12
 74
     0
 49
0.0
 74
     0
 49
-0.12
 74
     0
 49
0.0
 74
     0
 49
-0.12
 74
     0
  0
LTYPE
  5
AF
330
5
100
AcDbSymbolTableRecord
100
AcDbLinetypeTableRecord
  2
ACAD_ISO14W100
 70
     0
  3
ISO dash triple-dot __ . . . __ . . . __ . . . 
 72
    65
 73
     8
 40
0.95
 49
0.47
 74
     0
 49
-0.12
 74
     0
 49
0.0
 74
     0
 49
-0.12
 74
     0
 49
0.0
 74
     0
 49
-0.12
 74
     0
 49
0.0
 74
     0
 49
-0.12
 74
     0
  0
LTYPE
  5
B0
330
5
100
AcDbSymbolTableRecord
100
AcDbLinetypeTableRecord
  2
ACAD_ISO15W100
 70
     0
  3
ISO double-dash triple-dot __ __ . . . __ __ . 
 72
    65
 73
    10
 40
1.539999999999999
 49
0.47
 74
     0
 49
-0.12
 74
     0
 49
0.47
 74
     0
 49
-0.12
 74
     0
 49
0.0
 74
     0
 49
-0.12
 74
     0
 49
0.0
 74
     0
 49
-0.12
 74
     0
 49
0.0
 74
     0
 49
-0.12
 74
     0
  0
LTYPE
  5
B3
330
5
100
AcDbSymbolTableRecord
100
AcDbLinetypeTableRecord
  2
FENCELINE1
 70
     0
  3
Fenceline circle ----0-----0----0-----0----0---
 72
    65
 73
     4
 40
1.45
 49
0.25
 74
     0
 49
-0.1
 74
     4
 75
   133
340
B2
 46
0.1
 50
0.0
 44
-0.1
 45
0.0
 49
-0.1
 74
     0
 49
1.0
 74
     0
  0
LTYPE
  5
B4
330
5
100
AcDbSymbolTableRecord
100
AcDbLinetypeTableRecord
  2
FENCELINE2
 70
     0
  3
Fenceline square ----[]-----[]----[]-----[]----
 72
    65
 73
     4
 40
1.45
 49
0.25
 74
     0
 49
-0.1
 74
     4
 75
   132
340
B2
 46
0.1
 50
0.0
 44
-0.1
 45
0.0
 49
-0.1
 74
     0
 49
1.0
 74
     0
  0
LTYPE
  5
B5
330
5
100
AcDbSymbolTableRecord
100
AcDbLinetypeTableRecord
  2
TRACKS
 70
     0
  3
Tracks -|-|-|-|-|-|-|-|-|-|-|-|-|-|-|-|-|-|-|-|
 72
    65
 73
     2
 40
0.3
 49
0.15
 74
     4
 75
   130
340
B2
 46
0.25
 50
0.0
 44
0.0
 45
0.0
 49
0.15
 74
     0
  0
LTYPE
  5
B6
330
5
100
AcDbSymbolTableRecord
100
AcDbLinetypeTableRecord
  2
BATTING
 70
     0
  3
Batting SSSSSSSSSSSSSSSSSSSSSSSSSSSSSSSSSSSSSSS
 72
    65
 73
     4
 40
0.4001000000000001
 49
0.0001
 74
     0
 49
-0.1
 74
     4
 75
   134
340
B2
 46
0.1
 50
0.0
 44
-0.1
 45
0.0
 49
-0.2
 74
     4
 75
   134
340
B2
 46
0.1
 50
180.0
 44
0.1
 45
0.0
 49
-0.1
 74
     0
  0
LTYPE
  5
B7
330
5
100
AcDbSymbolTableRecord
100
AcDbLinetypeTableRecord
  2
HOT_WATER_SUPPLY
 70
     0
  3
Hot water supply ---- HW ---- HW ---- HW ----
 72
    65
 73
     3
 40
0.9
 49
0.5
 74
     0
 49
-0.2
 74
     2
 75
     0
340
55
 46
0.1
 50
0.0
 44
-0.1
 45
-0.05
  9
HW
 49
-0.2
 74
     0
  0
LTYPE
  5
B8
330
5
100
AcDbSymbolTableRecord
100
AcDbLinetypeTableRecord
  2
GAS_LINE
 70
     0
  3
Gas line ----GAS----GAS----GAS----GAS----GAS---
 72
    65
 73
     3
 40
0.95
 49
0.5
 74
     0
 49
-0.2
 74
     2
 75
     0
340
55
 46
0.1
 50
0.0
 44
-0.1
 45
-0.05
  9
GAS
 49
-0.25
 74
     0
  0
LTYPE
  5
B9
330
5
100
AcDbSymbolTableRecord
100
AcDbLinetypeTableRecord
  2
ZIGZAG
 70
     0
  3
Zig zag /\/\/\/\/\/\/\/\/\/\/\/\/\/\/\/\/\/\/\/
 72
    65
 73
     4
 40
0.8001000000000001
 49
0.0001
 74
     0
 49
-0.2
 74
     4
 75
   131
340
B2
 46
0.2
 50
0.0
 44
-0.2
 45
0.0
 49
-0.4
 74
     4
 75
   131
340
B2
 46
0.2
 50
180.0
 44
0.2
 45
0.0
 49
-0.2
 74
     0
  0
ENDTAB
  0
TABLE
  2
LAYER
  5
2
330
0
100
AcDbSymbolTable
 70
    27
  0
LAYER
  5
54
330
2
100
AcDbSymbolTableRecord
100
AcDbLayerTableRecord
  2
0
 70
     0
 62
     7
  6
Continuous
370
    18
390
F
  0
LAYER
  5
C3
330
2
100
AcDbSymbolTableRecord
100
AcDbLayerTableRecord
  2
Dimension (ANSI)
 70
     0
 62
     7
  6
Continuous
370
    13
390
F
  0
LAYER
  5
C5
330
2
100
AcDbSymbolTableRecord
100
AcDbLayerTableRecord
  2
Hidden (ANSI)
 70
     0
 62
     7
  6
DASHED
370
    15
390
F
  0
LAYER
  5
CC
330
2
100
AcDbSymbolTableRecord
100
AcDbLayerTableRecord
  2
Symbol (ANSI)
 70
     0
 62
     7
  6
Continuous
370
    18
390
F
  0
LAYER
  5
CF
330
2
100
AcDbSymbolTableRecord
100
AcDbLayerTableRecord
  2
Visible (ANSI)
 70
     0
 62
     7
  6
Continuous
370
    13
390
F
  0
LAYER
  5
D0
330
2
100
AcDbSymbolTableRecord
100
AcDbLayerTableRecord
  2
Visible Narrow (ANSI)
 70
     0
 62
     7
  6
Continuous
370
    18
390
F
  0
LAYER
  5
145
330
2
100
AcDbSymbolTableRecord
100
AcDbLayerTableRecord
  2
Defpoints
 70
     0
 62
     7
  6
Continuous
290
     0
370
    -3
390
F
  0
ENDTAB
  0
TABLE
  2
STYLE
  5
3
330
0
100
AcDbSymbolTable
 70
    18
  0
STYLE
  5
55
330
3
100
AcDbSymbolTableRecord
100
AcDbTextStyleTableRecord
  2
Standard
 70
     0
 40
0.0
 41
1.0
 50
0.0
 71
     0
 42
0.2
  3
txt
  4

  0
STYLE
  5
5A
330
3
100
AcDbSymbolTableRecord
100
AcDbTextStyleTableRecord
  2
Annotative
 70
     0
 40
0.0
 41
1.0
 50
0.0
 71
     0
 42
0.2
  3
txt
  4

1001
AcadAnnotative
1000
AnnotativeData
1002
{
1070
     1
1070
     1
1002
}
  0
STYLE
  5
B2
330
3
100
AcDbSymbolTableRecord
100
AcDbTextStyleTableRecord
  2

 70
     1
 40
0.0
 41
1.0
 50
0.0
 71
     0
 42
0.2
  3
ltypeshp.shx
  4

  0
STYLE
  5
D4
330
3
100
AcDbSymbolTableRecord
100
AcDbTextStyleTableRecord
  2
ITALICC_120
 70
     0
 40
0.0
 41
1.0
 50
0.0
 71
     0
 42
0.2
  3
italicc.shx
  4

  0
STYLE
  5
D5
330
3
100
AcDbSymbolTableRecord
100
AcDbTextStyleTableRecord
  2
Label Text (ANSI)
 70
     0
 40
0.0
 41
1.0
 50
0.0
 71
     0
 42
0.2
  3
TAHOMA.TTF
  4

1001
ACAD
1000
Tahoma
1071
      256
  0
STYLE
  5
D6
330
3
100
AcDbSymbolTableRecord
100
AcDbTextStyleTableRecord
  2
Note Text (ANSI)
 70
     0
 40
0.0
 41
1.0
 50
0.0
 71
     0
 42
0.2
  3
TAHOMA.TTF
  4

1001
ACAD
1000
Tahoma
1071
      256
  0
STYLE
  5
D7
330
3
100
AcDbSymbolTableRecord
100
AcDbTextStyleTableRecord
  2
ROMANS
 70
     0
 40
0.0
 41
1.0
 50
0.0
 71
     0
 42
0.2
  3
romans.shx
  4

  0
STYLE
  5
D8
330
3
100
AcDbSymbolTableRecord
100
AcDbTextStyleTableRecord
  2
SANSSERIF_114
 70
     0
 40
0.0
 41
1.0
 50
0.0
 71
     0
 42
0.2
  3
TAHOMA.TTF
  4

1001
ACAD
1000
Tahoma
1071
      256
  0
STYLE
  5
D9
330
3
100
AcDbSymbolTableRecord
100
AcDbTextStyleTableRecord
  2
SANSSERIF_117
 70
     0
 40
0.0
 41
1.0
 50
0.0
 71
     0
 42
0.2
  3
TAHOMA.TTF
  4

1001
ACAD
1000
Tahoma
1071
      256
  0
STYLE
  5
DA
330
3
100
AcDbSymbolTableRecord
100
AcDbTextStyleTableRecord
  2
STANDARDAM_ANSI
 70
     0
 40
0.0
 41
1.0
 50
0.0
 71
     0
 42
0.2
  3
txt.shx
  4

  0
STYLE
  5
DB
330
3
100
AcDbSymbolTableRecord
100
AcDbTextStyleTableRecord
  2
StandardAM_ANSI$0
 70
     0
 40
0.0
 41
1.0
 50
0.0
 71
     0
 42
0.2
  3
txt.shx
  4

  0
STYLE
  5
DC
330
3
100
AcDbSymbolTableRecord
100
AcDbTextStyleTableRecord
  2
STANDARDAM_ANSI$3
 70
     0
 40
0.0
 41
1.0
 50
0.0
 71
     0
 42
0.2
  3
txt.shx
  4

  0
STYLE
  5
DD
330
3
100
AcDbSymbolTableRecord
100
AcDbTextStyleTableRecord
  2
STANDARDAM_ANSI$4
 70
     0
 40
0.0
 41
1.0
 50
0.0
 71
     0
 42
0.2
  3
txt.shx
  4

  0
STYLE
  5
DE
330
3
100
AcDbSymbolTableRecord
100
AcDbTextStyleTableRecord
  2
STANDARDAM_ANSI$7
 70
     0
 40
0.0
 41
1.0
 50
0.0
 71
     0
 42
0.2
  3
txt.shx
  4

  0
STYLE
  5
DF
330
3
100
AcDbSymbolTableRecord
100
AcDbTextStyleTableRecord
  2
STANDARDAM_ANSI$SF
 70
     0
 40
0.0
 41
1.0
 50
0.0
 71
     0
 42
0.2
  3
txt.shx
  4

  0
STYLE
  5
E0
330
3
100
AcDbSymbolTableRecord
100
AcDbTextStyleTableRecord
  2
STANDARDAM_ANSI$SH
 70
     0
 40
0.0
 41
1.0
 50
0.0
 71
     0
 42
0.2
  3
txt.shx
  4

  0
STYLE
  5
E1
330
3
100
AcDbSymbolTableRecord
100
AcDbTextStyleTableRecord
  2
STANDARDSTANDARD
 70
     0
 40
0.0
 41
1.0
 50
0.0
 71
     0
 42
0.2
  3
txt.shx
  4

  0
STYLE
  5
132
330
3
100
AcDbSymbolTableRecord
100
AcDbTextStyleTableRecord
  2
Text Style150
 70
     0
 40
0.0
 41
1.0
 50
0.0
 71
     0
 42
0.2
  3
TAHOMA.TTF
  4

1001
ACAD
1000
Tahoma
1071
      256
  0
ENDTAB
  0
TABLE
  2
VIEW
  5
6
330
0
100
AcDbSymbolTable
 70
     0
  0
ENDTAB
  0
TABLE
  2
UCS
  5
7
330
0
100
AcDbSymbolTable
 70
     0
  0
ENDTAB
  0
TABLE
  2
APPID
  5
9
330
0
100
AcDbSymbolTable
 70
     4
  0
APPID
  5
56
330
9
100
AcDbSymbolTableRecord
100
AcDbRegAppTableRecord
  2
ACAD
 70
     0
  0
APPID
  5
5E
330
9
100
AcDbSymbolTableRecord
100
AcDbRegAppTableRecord
  2
AcadAnnotative
 70
     0
  0
APPID
  5
78D
330
9
100
AcDbSymbolTableRecord
100
AcDbRegAppTableRecord
  2
ACAD_DSTYLE_DIMRADIAL_EXTENSION
 70
     0
  0
APPID
  5
8C6
330
9
100
AcDbSymbolTableRecord
100
AcDbRegAppTableRecord
  2
ACAD_MLEADERVER
 70
     0
  0
ENDTAB
  0
TABLE
  2
DIMSTYLE
  5
A
330
0
100
AcDbSymbolTable
 70
    29
100
AcDbDimStyleTable
 71
     3
340
F6
340
58
340
F8
  0
DIMSTYLE
105
58
330
A
100
AcDbSymbolTableRecord
100
AcDbDimStyleTableRecord
  2
STANDARD
 70
     0
 41
0.1800000071525573
 42
0.0625
140
0.1800000071525574
144
1.0
147
0.0900000035762787
176
   256
177
   256
178
   256
274
     3
340
55
371
    -1
372
    -1
  0
DIMSTYLE
105
59
330
A
100
AcDbSymbolTableRecord
100
AcDbDimStyleTableRecord
  2
Annotative
 70
     0
340
55
1001
AcadAnnotative
1000
AnnotativeData
1002
{
1070
     1
1070
     1
1002
}
  0
DIMSTYLE
105
E2
330
A
100
AcDbSymbolTableRecord
100
AcDbDimStyleTableRecord
  2
AM_ANSI
 70
     0
  4
 mm
 40
1.379310344827586
 41
0.119999997317791
 42
0.05
 43
0.5
 44
0.1
 45
0.00000001
 78
     4
 79
     2
140
0.1200000047683716
146
0.7099999453624112
147
0.0599999986588955
176
   256
177
   256
178
     2
284
     4
340
DA
371
    -1
372
    -1
  0
DIMSTYLE
105
E3
330
A
100
AcDbSymbolTableRecord
100
AcDbDimStyleTableRecord
  2
AM_ANSI$7
 70
     0
  4
 mm
 40
1.379310344827586
 41
0.119999997317791
 42
0.05
 43
0.5
 44
0.1
 45
0.00000001
 78
     4
 79
     2
140
0.1200000047683716
146
0.7099999453624112
147
0.0599999986588955
176
   256
177
   256
178
     2
284
     4
340
DA
371
    -1
372
    -1
  0
DIMSTYLE
105
E4
330
A
100
AcDbSymbolTableRecord
100
AcDbDimStyleTableRecord
  2
AM_ANSI$0
 70
     0
  4
 mm
 40
1.379310344827586
 41
0.119999997317791
 42
0.05
 43
0.5
 44
0.1
 45
0.00000001
 78
     4
 79
     2
140
0.1200000047683716
146
0.7099999453624112
147
0.0599999986588955
176
   256
177
   256
178
     2
284
     4
340
DB
371
    -1
372
    -1
  0
DIMSTYLE
105
E5
330
A
100
AcDbSymbolTableRecord
100
AcDbDimStyleTableRecord
  2
AM_ANSI$0$7
 70
     0
  4
 mm
 40
1.379310344827586
 41
0.119999997317791
 42
0.05
 43
0.5
 44
0.1
 45
0.00000001
 78
     4
 79
     2
140
0.1200000047683716
146
0.7099999453624112
147
0.0599999986588955
176
   256
177
   256
178
     2
284
     4
340
DB
371
    -1
372
    -1
  0
DIMSTYLE
105
E6
330
A
100
AcDbSymbolTableRecord
100
AcDbDimStyleTableRecord
  2
AM_ANSI$3
 70
     0
  4
 mm
 40
1.379310344827586
 41
0.119999997317791
 42
0.05
 43
0.5
 44
0.1
 45
0.00000001
 78
     4
 79
     2
140
0.1200000047683716
146
0.7099999453624112
147
0.0599999986588955
176
   256
177
   256
178
     2
284
     4
340
DC
371
    -1
372
    -1
  0
DIMSTYLE
105
E7
330
A
100
AcDbSymbolTableRecord
100
AcDbDimStyleTableRecord
  2
AM_ANSI$3$7
 70
     0
  4
 mm
 40
1.379310344827586
 41
0.119999997317791
 42
0.05
 43
0.5
 44
0.1
 45
0.00000001
 78
     4
 79
     2
140
0.1200000047683716
146
0.7099999453624112
147
0.0599999986588955
176
   256
177
   256
178
     2
284
     4
340
DC
371
    -1
372
    -1
  0
DIMSTYLE
105
E8
330
A
100
AcDbSymbolTableRecord
100
AcDbDimStyleTableRecord
  2
AM_ANSI$4
 70
     0
  4
 mm
 40
1.379310344827586
 41
0.119999997317791
 42
0.05
 43
0.5
 44
0.1
 45
0.00000001
 78
     4
 79
     2
140
0.1200000047683716
146
0.7099999453624112
147
0.0599999986588955
176
   256
177
   256
178
     2
284
     4
340
DD
371
    -1
372
    -1
  0
DIMSTYLE
105
E9
330
A
100
AcDbSymbolTableRecord
100
AcDbDimStyleTableRecord
  2
AM_ANSI$4$7
 70
     0
  4
 mm
 40
1.379310344827586
 41
0.119999997317791
 42
0.05
 43
0.5
 44
0.1
 45
0.00000001
 78
     4
 79
     2
140
0.1200000047683716
146
0.7099999453624112
147
0.0599999986588955
176
   256
177
   256
178
     2
284
     4
340
DD
371
    -1
372
    -1
  0
DIMSTYLE
105
EA
330
A
100
AcDbSymbolTableRecord
100
AcDbDimStyleTableRecord
  2
AM_ANSI$SF
 70
     0
  4
 mm
 40
1.379310344827586
 41
0.119999997317791
 42
0.05
 43
0.5
 44
0.1
 45
0.00000001
 75
     1
 76
     1
 78
     4
 79
     2
140
0.1200000047683716
146
0.7099999453624112
147
0.0599999986588955
176
   256
177
   256
178
     2
284
     4
340
DF
371
    -1
372
    -1
  0
DIMSTYLE
105
EB
330
A
100
AcDbSymbolTableRecord
100
AcDbDimStyleTableRecord
  2
AM_ANSI$SF$7
 70
     0
  4
 mm
 40
1.379310344827586
 41
0.119999997317791
 42
0.05
 43
0.5
 44
0.1
 45
0.00000001
 75
     1
 76
     1
 78
     4
 79
     2
140
0.1200000047683716
146
0.7099999453624112
147
0.0599999986588955
176
   256
177
   256
178
     2
284
     4
340
DF
371
    -1
372
    -1
  0
DIMSTYLE
105
EC
330
A
100
AcDbSymbolTableRecord
100
AcDbDimStyleTableRecord
  2
AM_ANSI$SH
 70
     0
  4
 mm
 40
1.379310344827586
 41
0.119999997317791
 42
0.05
 43
0.5
 44
0.1
 45
0.00000001
 75
     1
 76
     1
 78
     4
 79
     2
140
0.1200000047683716
146
0.7099999453624112
147
0.0599999986588955
176
   256
177
   256
178
     2
284
     4
340
E0
371
    -1
372
    -1
  0
DIMSTYLE
105
ED
330
A
100
AcDbSymbolTableRecord
100
AcDbDimStyleTableRecord
  2
AM_ANSI$SH$7
 70
     0
  4
 mm
 40
1.379310344827586
 41
0.119999997317791
 42
0.05
 43
0.5
 44
0.1
 45
0.00000001
 75
     1
 76
     1
 78
     4
 79
     2
140
0.1200000047683716
146
0.7099999453624112
147
0.0599999986588955
176
   256
177
   256
178
     2
284
     4
340
E0
371
    -1
372
    -1
  0
DIMSTYLE
105
EE
330
A
100
AcDbSymbolTableRecord
100
AcDbDimStyleTableRecord
  2
Architectural (ANSI)
 70
     0
 40
1.379310344827586
 41
0.0984251946210861
 43
0.2362204724409449
 44
0.125
 45
0.00000001
 46
0.3937007874015748
 78
     3
 79
     3
140
0.1200000047683716
147
0.031496062992126
171
     1
176
   256
177
   256
178
   256
272
     2
274
     1
276
     2
277
     4
284
    12
285
     4
286
    12
340
D6
371
    -1
372
    -1
  0
DIMSTYLE
105
EF
330
A
100
AcDbSymbolTableRecord
100
AcDbDimStyleTableRecord
  2
Architectural (ANSI)$7
 70
     0
 40
1.379310344827586
 41
0.0984251946210861
 43
0.2362204724409449
 44
0.125
 45
0.00000001
 46
0.3937007874015748
 78
     3
 79
     3
140
0.1200000047683716
147
0.031496062992126
171
     1
176
   256
177
   256
178
   256
272
     2
274
     1
276
     2
277
     4
284
    12
285
     4
286
    12
340
D6
371
    -1
372
    -1
  0
DIMSTYLE
105
F0
330
A
100
AcDbSymbolTableRecord
100
AcDbDimStyleTableRecord
  2
Default - Fraction (ANSI)
 70
     0
 40
1.379310344827586
 41
0.0984251946210861
 43
0.2362204724409449
 44
0.125
 45
0.00000001
 46
0.3937007874015748
 79
     3
140
0.1200000047683716
147
0.031496062992126
171
     1
176
   256
177
   256
178
   256
272
     2
274
     1
276
     2
277
     5
284
    12
285
     4
286
    12
340
D6
371
    -1
372
    -1
  0
DIMSTYLE
105
F1
330
A
100
AcDbSymbolTableRecord
100
AcDbDimStyleTableRecord
  2
Default - Fraction (ANSI)$7
 70
     0
 40
1.379310344827586
 41
0.0984251946210861
 43
0.2362204724409449
 44
0.125
 45
0.00000001
 46
0.3937007874015748
 79
     3
140
0.1200000047683716
147
0.031496062992126
171
     1
176
   256
177
   256
178
   256
272
     2
274
     1
276
     2
277
     5
284
    12
285
     4
286
    12
340
D6
371
    -1
372
    -1
  0
DIMSTYLE
105
F2
330
A
100
AcDbSymbolTableRecord
100
AcDbDimStyleTableRecord
  2
Default - mm (ANSI)
 70
     0
 40
1.379310344827586
 41
0.0984251946210861
 42
0.063
 43
0.2362204724409449
 44
0.125
 45
0.00000001
 46
0.3937007874015748
 73
     0
 78
     4
 79
     1
140
0.1200000047683716
143
1.0
144
25.4
147
0.031496062992126
171
     1
176
   256
177
   256
178
   256
179
     1
271
     2
272
     2
274
     1
284
     4
285
     4
340
D6
371
    -1
372
    -1
  0
DIMSTYLE
105
F3
330
A
100
AcDbSymbolTableRecord
100
AcDbDimStyleTableRecord
  2
Default - mm (ANSI)$7
 70
     0
 40
1.379310344827586
 41
0.0984251946210861
 42
0.063
 43
0.2362204724409449
 44
0.125
 45
0.00000001
 46
0.3937007874015748
 73
     0
 78
     4
 79
     1
140
0.1200000047683716
143
1.0
144
25.4
147
0.031496062992126
171
     1
176
   256
177
   256
178
   256
179
     1
271
     2
272
     2
274
     1
284
     4
285
     4
340
D6
371
    -1
372
    -1
  0
DIMSTYLE
105
F4
330
A
100
AcDbSymbolTableRecord
100
AcDbDimStyleTableRecord
  2
Default - mm [in] (ANSI)
 70
     0
  4
 in
 40
1.379310344827586
 41
0.0984251946210861
 42
0.063
 43
0.25
 44
0.125
 45
0.00000001
 46
0.3937007874015748
 73
     0
 78
     4
 79
     1
140
0.1200000047683716
143
0.03937
144
25.4
147
0.031496062992126
170
     1
171
     3
176
   256
177
   256
178
   256
179
     1
271
     2
272
     2
274
     3
284
     4
285
     4
286
     4
340
D6
371
    -1
372
    -1
  0
DIMSTYLE
105
F5
330
A
100
AcDbSymbolTableRecord
100
AcDbDimStyleTableRecord
  2
Default - mm [in] (ANSI)$7
 70
     0
  4
 in
 40
1.379310344827586
 41
0.0984251946210861
 42
0.063
 43
0.25
 44
0.125
 45
0.00000001
 46
0.3937007874015748
 73
     0
 78
     4
 79
     1
140
0.1200000047683716
143
0.03937
144
25.4
147
0.031496062992126
170
     1
171
     3
176
   256
177
   256
178
   256
179
     1
271
     2
272
     2
274
     3
284
     4
285
     4
286
     4
340
D6
371
    -1
372
    -1
  0
DIMSTYLE
105
F6
102
{ACAD_REACTORS
330
52B
330
615
330
6F4
330
7AE
102
}
330
A
100
AcDbSymbolTableRecord
100
AcDbDimStyleTableRecord
  2
Default (ANSI)
 70
     0
 40
1.379310344827586
 41
0.0984251946210861
 43
0.2362204724409449
 44
0.125
 45
0.00000001
 46
0.3937007874015748
 79
     1
140
0.1200000047683716
147
0.031496062992126
171
     1
176
   256
177
   256
178
   256
271
     3
272
     2
274
     1
284
     4
285
     4
340
D6
371
    -1
372
    -1
  0
DIMSTYLE
105
F7
330
A
100
AcDbSymbolTableRecord
100
AcDbDimStyleTableRecord
  2
Default (ANSI)$7
 70
     0
 40
1.379310344827586
 41
0.0984251946210861
 43
0.2362204724409449
 44
0.125
 45
0.00000001
 46
0.3937007874015748
 79
     1
140
0.1200000047683716
147
0.031496062992126
171
     1
176
   256
177
   256
178
   256
271
     3
272
     2
274
     1
284
     4
285
     4
340
D6
371
    -1
372
    -1
  0
DIMSTYLE
105
F8
102
{ACAD_REACTORS
330
143
330
22F
330
319
330
42D
102
}
330
A
100
AcDbSymbolTableRecord
100
AcDbDimStyleTableRecord
  2
Default (ANSI)-01
 70
     0
 40
1.379310344827586
 41
0.0984251946210861
 43
0.2362204724409449
 44
0.125
 45
0.00000001
 46
0.3937007874015748
 79
     1
140
0.1200000047683716
147
0.031496062992126
171
     1
176
   256
177
   256
178
   256
271
     2
272
     2
274
     1
284
     4
285
     4
340
D6
371
    -1
372
    -1
  0
DIMSTYLE
105
F9
330
A
100
AcDbSymbolTableRecord
100
AcDbDimStyleTableRecord
  2
Default (ANSI)-01$7
 70
     0
 40
1.379310344827586
 41
0.0984251946210861
 43
0.2362204724409449
 44
0.125
 45
0.00000001
 46
0.3937007874015748
 79
     1
140
0.1200000047683716
147
0.031496062992126
171
     1
176
   256
177
   256
178
   256
271
     2
272
     2
274
     1
284
     4
285
     4
340
D6
371
    -1
372
    -1
  0
DIMSTYLE
105
FA
330
A
100
AcDbSymbolTableRecord
100
AcDbDimStyleTableRecord
  2
Alternate (ANSI)
 70
     0
 40
1.379310344827586
 41
0.0979999974370003
340
55
342
FB
  0
DIMSTYLE
105
10D
330
A
100
AcDbSymbolTableRecord
100
AcDbDimStyleTableRecord
  2
Datum (ANSI)
 70
     0
 40
1.379310344827586
 41
0.0979999974370003
340
55
342
FB
  0
DIMSTYLE
105
11C
330
A
100
AcDbSymbolTableRecord
100
AcDbDimStyleTableRecord
  2
Large (ANSI)
 70
     0
 40
1.379310344827586
 41
0.1959999948740005
340
55
342
FB
  0
ENDTAB
  0
TABLE
  2
BLOCK_RECORD
  5
1
330
0
100
AcDbSymbolTable
 70
    12
  0
BLOCK_RECORD
  5
6C
330
1
100
AcDbSymbolTableRecord
100
AcDbBlockTableRecord
  2
*Model_Space
340
6F
  0
BLOCK_RECORD
  5
68
330
1
100
AcDbSymbolTableRecord
100
AcDbBlockTableRecord
  2
*Paper_Space
340
6B
  0
BLOCK_RECORD
  5
70
330
1
100
AcDbSymbolTableRecord
100
AcDbBlockTableRecord
  2
*Paper_Space0
340
73
  0
BLOCK_RECORD
  5
FB
330
1
100
AcDbSymbolTableRecord
100
AcDbBlockTableRecord
  2
_Closed
340
0
  0
BLOCK_RECORD
  5
102
330
1
100
AcDbSymbolTableRecord
100
AcDbBlockTableRecord
  2
DatumFilled45
340
0
  0
BLOCK_RECORD
  5
10E
330
1
100
AcDbSymbolTableRecord
100
AcDbBlockTableRecord
  2
Filled-1
340
0
  0
BLOCK_RECORD
  5
146
330
1
100
AcDbSymbolTableRecord
100
AcDbBlockTableRecord
  2
*D4
340
0
  0
BLOCK_RECORD
  5
230
330
1
100
AcDbSymbolTableRecord
100
AcDbBlockTableRecord
  2
*D5
340
0
  0
BLOCK_RECORD
  5
31A
330
1
100
AcDbSymbolTableRecord
100
AcDbBlockTableRecord
  2
*D6
340
0
  0
BLOCK_RECORD
  5
42E
330
1
100
AcDbSymbolTableRecord
100
AcDbBlockTableRecord
  2
*D7
340
0
  0
BLOCK_RECORD
  5
52C
330
1
100
AcDbSymbolTableRecord
100
AcDbBlockTableRecord
  2
*D8
340
0
  0
BLOCK_RECORD
  5
616
330
1
100
AcDbSymbolTableRecord
100
AcDbBlockTableRecord
  2
*D9
340
0
  0
BLOCK_RECORD
  5
6F5
330
1
100
AcDbSymbolTableRecord
100
AcDbBlockTableRecord
  2
*D10
340
0
  0
BLOCK_RECORD
  5
7AF
330
1
100
AcDbSymbolTableRecord
100
AcDbBlockTableRecord
  2
*D11
340
0
  0
ENDTAB
  0
ENDSEC
  0
SECTION
  2
BLOCKS
  0
BLOCK
  5
6D
330
6C
100
AcDbEntity
  8
0
100
AcDbBlockBegin
  2
*Model_Space
 70
     0
 10
0.0
 20
0.0
 30
0.0
  3
*Model_Space
  1

  0
ENDBLK
  5
6E
330
6C
100
AcDbEntity
  8
0
100
AcDbBlockEnd
  0
BLOCK
  5
69
330
68
100
AcDbEntity
 67
     1
  8
0
100
AcDbBlockBegin
  2
*Paper_Space
 70
     0
 10
0.0
 20
0.0
 30
0.0
  3
*Paper_Space
  1

  0
ENDBLK
  5
6A
330
68
100
AcDbEntity
 67
     1
  8
0
100
AcDbBlockEnd
  0
BLOCK
  5
71
330
70
100
AcDbEntity
 67
     1
  8
0
100
AcDbBlockBegin
  2
*Paper_Space0
 70
     0
 10
0.0
 20
0.0
 30
0.0
  3
*Paper_Space0
  1

  0
ENDBLK
  5
72
330
70
100
AcDbEntity
 67
     1
  8
0
100
AcDbBlockEnd
  0
BLOCK
  5
100
330
FB
100
AcDbEntity
  8
0
100
AcDbBlockBegin
  2
_Closed
 70
     0
 10
0.0
 20
0.0
 30
0.0
  3
_Closed
  1

  0
LINE
  5
FC
330
FB
100
AcDbEntity
  8
0
  6
ByBlock
 62
     0
370
    -2
100
AcDbLine
 10
-1.0
 20
0.1666666666666666
 30
0.0
 11
0.0
 21
0.0
 31
0.0
  0
LINE
  5
FD
330
FB
100
AcDbEntity
  8
0
  6
ByBlock
 62
     0
370
    -2
100
AcDbLine
 10
0.0
 20
0.0
 30
0.0
 11
-1.0
 21
-0.1666666666666666
 31
0.0
  0
LINE
  5
FE
330
FB
100
AcDbEntity
  8
0
  6
ByBlock
 62
     0
370
    -2
100
AcDbLine
 10
-1.0
 20
0.1666666666666666
 30
0.0
 11
-1.0
 21
-0.1666666666666666
 31
0.0
  0
LINE
  5
FF
330
FB
100
AcDbEntity
  8
0
  6
ByBlock
 62
     0
370
    -2
100
AcDbLine
 10
0.0
 20
0.0
 30
0.0
 11
-1.0
 21
0.0
 31
0.0
  0
ENDBLK
  5
101
330
FB
100
AcDbEntity
  8
0
100
AcDbBlockEnd
  0
BLOCK
  5
103
330
102
100
AcDbEntity
  8
0
100
AcDbBlockBegin
  2
DatumFilled45
 70
     0
 10
0.0
 20
0.0
 30
0.0
  3
DatumFilled45
  1

  0
POLYLINE
  5
105
330
102
100
AcDbEntity
  8
0
 62
     0
100
AcDb2dPolyline
 66
     1
 10
0.0
 20
0.0
 30
0.0
 70
   128
  0
VERTEX
  5
106
330
105
100
AcDbEntity
  8
0
 62
     0
100
AcDbVertex
100
AcDb2dVertex
 10
0.0
 20
0.9999999999999998
 30
0.0
  0
VERTEX
  5
107
330
105
100
AcDbEntity
  8
0
 62
     0
100
AcDbVertex
100
AcDb2dVertex
 10
0.0
 20
-0.9999999999999998
 30
0.0
  0
VERTEX
  5
109
330
105
100
AcDbEntity
  8
0
 62
     0
100
AcDbVertex
100
AcDb2dVertex
 10
-0.9999999999999998
 20
0.0
 30
0.0
  0
VERTEX
  5
10A
330
105
100
AcDbEntity
  8
0
 62
     0
100
AcDbVertex
100
AcDb2dVertex
 10
0.0
 20
0.9999999999999998
 30
0.0
  0
SEQEND
  5
108
330
105
100
AcDbEntity
  8
0
 62
     0
  0
SOLID
  5
10C
330
102
100
AcDbEntity
  8
0
 62
     0
100
AcDbTrace
 10
0.0
 20
0.9999999999999998
 30
0.0
 11
0.0
 21
-0.9999999999999998
 31
0.0
 12
-0.9999999999999998
 22
0.0
 32
0.0
 13
0.0
 23
0.9999999999999998
 33
0.0
  0
ENDBLK
  5
104
330
102
100
AcDbEntity
  8
0
100
AcDbBlockEnd
  0
BLOCK
  5
10F
330
10E
100
AcDbEntity
  8
0
100
AcDbBlockBegin
  2
Filled-1
 70
     0
 10
0.0
 20
0.0
 30
0.0
  3
Filled-1
  1

  0
LINE
  5
111
330
10E
100
AcDbEntity
  8
0
 62
     0
100
AcDbLine
 10
-0.9999999999999998
 20
0.0
 30
0.0
 11
0.0
 21
0.0
 31
0.0
  0
POLYLINE
  5
112
330
10E
100
AcDbEntity
  8
0
 62
     0
100
AcDb2dPolyline
 66
     1
 10
0.0
 20
0.0
 30
0.0
 70
   128
  0
VERTEX
  5
113
330
112
100
AcDbEntity
  8
0
 62
     0
100
AcDbVertex
100
AcDb2dVertex
 10
-0.9999999999999998
 20
-0.0994897959183674
 30
0.0
  0
VERTEX
  5
114
330
112
100
AcDbEntity
  8
0
 62
     0
100
AcDbVertex
100
AcDb2dVertex
 10
0.0
 20
0.0
 30
0.0
  0
VERTEX
  5
116
330
112
100
AcDbEntity
  8
0
 62
     0
100
AcDbVertex
100
AcDb2dVertex
 10
-0.9999999999999998
 20
0.0994897959183674
 30
0.0
  0
VERTEX
  5
117
330
112
100
AcDbEntity
  8
0
 62
     0
100
AcDbVertex
100
AcDb2dVertex
 10
-0.9999999999999998
 20
-0.0994897959183674
 30
0.0
  0
SEQEND
  5
115
330
112
100
AcDbEntity
  8
0
 62
     0
  0
SOLID
  5
118
330
10E
100
AcDbEntity
  8
0
 62
     0
100
AcDbTrace
 10
-0.9999999999999998
 20
-0.0994897959183674
 30
0.0
 11
0.0
 21
0.0
 31
0.0
 12
-0.9999999999999998
 22
0.0994897959183674
 32
0.0
 13
-0.9999999999999998
 23
-0.0994897959183674
 33
0.0
  0
LINE
  5
119
330
10E
100
AcDbEntity
  8
0
 62
     0
100
AcDbLine
 10
-0.9999999999999998
 20
-0.0994897959183674
 30
0.0
 11
0.0
 21
0.0
 31
0.0
  0
LINE
  5
11A
330
10E
100
AcDbEntity
  8
0
 62
     0
100
AcDbLine
 10
0.0
 20
0.0
 30
0.0
 11
-0.9999999999999998
 21
0.0994897959183674
 31
0.0
  0
LINE
  5
11B
330
10E
100
AcDbEntity
  8
0
 62
     0
100
AcDbLine
 10
-0.9999999999999998
 20
0.0994897959183674
 30
0.0
 11
-0.9999999999999998
 21
-0.0994897959183674
 31
0.0
  0
ENDBLK
  5
110
330
10E
100
AcDbEntity
  8
0
100
AcDbBlockEnd
  0
BLOCK
  5
147
330
146
100
AcDbEntity
  8
0
100
AcDbBlockBegin
  2
*D4
 70
     1
 10
0.0
 20
0.0
 30
0.0
  3
*D4
  1

  0
LINE
  5
225
330
146
100
AcDbEntity
  8
Dimension (ANSI)
100
AcDbLine
 10
9.955254271167696
 20
4.734910687265412
 30
0.0
 11
9.955254271167696
 21
2.863926887826549
 31
0.0
  0
LINE
  5
226
330
146
100
AcDbEntity
  8
Dimension (ANSI)
100
AcDbLine
 10
3.075254271167696
 20
4.734910687265412
 30
0.0
 11
3.075254271167696
 21
2.863926887826549
 31
0.0
  0
LINE
  5
227
330
146
100
AcDbEntity
  8
Dimension (ANSI)
100
AcDbLine
 10
9.819495382035164
 20
3.036340680929997
 30
0.0
 11
6.77073482686668
 21
3.036340680929997
 31
0.0
  0
LINE
  5
228
330
146
100
AcDbEntity
  8
Dimension (ANSI)
100
AcDbLine
 10
3.211013160300229
 20
3.036340680929997
 30
0.0
 11
6.259773715468714
 21
3.036340680929997
 31
0.0
  0
SOLID
  5
229
330
146
100
AcDbEntity
  8
Dimension (ANSI)
100
AcDbTrace
 10
9.819495382035164
 20
3.058967162452086
 30
0.0
 11
9.819495382035164
 21
3.013714199407909
 31
0.0
 12
9.955254271167696
 22
3.036340680929997
 32
0.0
 13
9.955254271167696
 23
3.036340680929997
 33
0.0
  0
SOLID
  5
22A
330
146
100
AcDbEntity
  8
Dimension (ANSI)
100
AcDbTrace
 10
3.211013160300229
 20
3.058967162452086
 30
0.0
 11
3.211013160300229
 21
3.013714199407909
 31
0.0
 12
3.075254271167696
 22
3.036340680929997
 32
0.0
 13
3.075254271167696
 23
3.036340680929997
 33
0.0
  0
MTEXT
  5
22B
330
146
100
AcDbEntity
  8
Dimension (ANSI)
100
AcDbMText
 10
6.303216560975095
 20
3.122878745089861
 30
0.0
 40
0.1655172479563746
 41
0.0
 71
     1
 72
     1
  1
\A1;6.88
  7
Note Text (ANSI)
 73
     1
 44
1.0
1001
ACAD
1000
MTEXTBEGIN
1070
    73
1070
     1
1070
    44
1040
1.0
1070
    74
1070
     0
1000
MTEXTEND
  0
POINT
  5
22C
330
146
100
AcDbEntity
  8
Defpoints
 62
     0
100
AcDbPoint
 10
9.955254271167696
 20
4.821117583817136
 30
0.0
  0
POINT
  5
22D
330
146
100
AcDbEntity
  8
Defpoints
 62
     0
100
AcDbPoint
 10
3.075254271167696
 20
4.821117583817136
 30
0.0
  0
POINT
  5
22E
330
146
100
AcDbEntity
  8
Defpoints
 62
     0
100
AcDbPoint
 10
3.075254271167696
 20
3.036340680929997
 30
0.0
  0
ENDBLK
  5
148
330
146
100
AcDbEntity
  8
0
100
AcDbBlockEnd
  0
BLOCK
  5
231
330
230
100
AcDbEntity
  8
0
100
AcDbBlockBegin
  2
*D5
 70
     1
 10
0.0
 20
0.0
 30
0.0
  3
*D5
  1

  0
LINE
  5
30F
330
230
100
AcDbEntity
  8
Dimension (ANSI)
100
AcDbLine
 10
2.989047374615972
 20
4.821117583817136
 30
0.0
 11
1.515510466057311
 21
4.821117583817137
 31
0.0
  0
LINE
  5
310
330
230
100
AcDbEntity
  8
Dimension (ANSI)
100
AcDbLine
 10
2.989047374615969
 20
13.70111758381713
 30
0.0
 11
1.515510466057313
 21
13.70111758381713
 31
0.0
  0
LINE
  5
311
330
230
100
AcDbEntity
  8
Dimension (ANSI)
100
AcDbLine
 10
1.687924259160759
 20
4.95687647294967
 30
0.0
 11
1.68792425916076
 21
9.131136674150893
 31
0.0
  0
LINE
  5
312
330
230
100
AcDbEntity
  8
Dimension (ANSI)
100
AcDbLine
 10
1.687924259160761
 20
13.5653586946846
 30
0.0
 11
1.68792425916076
 21
9.391098493483381
 31
0.0
  0
SOLID
  5
313
330
230
100
AcDbEntity
  8
Dimension (ANSI)
100
AcDbTrace
 10
1.66529777763867
 20
4.95687647294967
 30
0.0
 11
1.710550740682848
 21
4.95687647294967
 31
0.0
 12
1.687924259160759
 22
4.821117583817137
 32
0.0
 13
1.687924259160759
 23
4.821117583817137
 33
0.0
  0
SOLID
  5
314
330
230
100
AcDbEntity
  8
Dimension (ANSI)
100
AcDbTrace
 10
1.665297777638672
 20
13.5653586946846
 30
0.0
 11
1.71055074068285
 21
13.5653586946846
 31
0.0
 12
1.687924259160761
 22
13.70111758381713
 32
0.0
 13
1.687924259160761
 23
13.70111758381713
 33
0.0
  0
MTEXT
  5
315
330
230
100
AcDbEntity
  8
Dimension (ANSI)
100
AcDbMText
 10
1.475275168938767
 20
9.347655647977001
 30
0.0
 40
0.1655172479563746
 41
0.0
 71
     1
 72
     1
  1
\A1;8.88
  7
Note Text (ANSI)
 73
     1
 44
1.0
1001
ACAD
1000
MTEXTBEGIN
1070
    73
1070
     1
1070
    44
1040
1.0
1070
    74
1070
     0
1000
MTEXTEND
  0
POINT
  5
316
330
230
100
AcDbEntity
  8
Defpoints
 62
     0
100
AcDbPoint
 10
3.075254271167696
 20
4.821117583817136
 30
0.0
  0
POINT
  5
317
330
230
100
AcDbEntity
  8
Defpoints
 62
     0
100
AcDbPoint
 10
3.075254271167693
 20
13.70111758381713
 30
0.0
  0
POINT
  5
318
330
230
100
AcDbEntity
  8
Defpoints
 62
     0
100
AcDbPoint
 10
1.687924259160761
 20
13.70111758381713
 30
0.0
  0
ENDBLK
  5
232
330
230
100
AcDbEntity
  8
0
100
AcDbBlockEnd
  0
BLOCK
  5
31B
330
31A
100
AcDbEntity
  8
0
100
AcDbBlockBegin
  2
*D6
 70
     1
 10
0.0
 20
0.0
 30
0.0
  3
*D6
  1

  0
LINE
  5
422
330
31A
100
AcDbEntity
  8
Dimension (ANSI)
100
AcDbLine
 10
2.989047374615972
 20
4.821117583817136
 30
0.0
 11
2.670772683371178
 21
4.821117583817136
 31
0.0
  0
LINE
  5
423
330
31A
100
AcDbEntity
  8
Dimension (ANSI)
100
AcDbLine
 10
3.161547374615972
 20
5.134117583817137
 30
0.0
 11
2.670772683371179
 21
5.134117583817137
 31
0.0
  0
LINE
  5
424
330
31A
100
AcDbEntity
  8
Dimension (ANSI)
100
AcDbLine
 10
2.843186476474627
 20
5.26987647294967
 30
0.0
 11
2.843186476474627
 21
5.405635362082202
 31
0.0
  0
LINE
  5
425
330
31A
100
AcDbEntity
  8
Dimension (ANSI)
100
AcDbLine
 10
2.843186476474627
 20
4.685358694684603
 30
0.0
 11
2.843186476474627
 21
4.332673801292752
 31
0.0
  0
LINE
  5
426
330
31A
100
AcDbEntity
  8
Dimension (ANSI)
100
AcDbLine
 10
2.843186476474627
 20
4.332673801292752
 30
0.0
 11
2.707427587342094
 21
4.332673801292752
 31
0.0
  0
SOLID
  5
427
330
31A
100
AcDbEntity
  8
Dimension (ANSI)
100
AcDbTrace
 10
2.820559994952538
 20
5.26987647294967
 30
0.0
 11
2.865812957996716
 21
5.26987647294967
 31
0.0
 12
2.843186476474627
 22
5.134117583817137
 32
0.0
 13
2.843186476474627
 23
5.134117583817137
 33
0.0
  0
SOLID
  5
428
330
31A
100
AcDbEntity
  8
Dimension (ANSI)
100
AcDbTrace
 10
2.820559994952538
 20
4.685358694684603
 30
0.0
 11
2.865812957996715
 21
4.685358694684603
 31
0.0
 12
2.843186476474627
 22
4.821117583817136
 32
0.0
 13
2.843186476474627
 23
4.821117583817136
 33
0.0
  0
MTEXT
  5
429
330
31A
100
AcDbEntity
  8
Dimension (ANSI)
100
AcDbMText
 10
2.445333011325176
 20
4.332673801292753
 30
0.0
 40
0.1655172479563746
 41
0.0
 71
     5
 72
     1
  1
\A1;0.31{\PTYP.}
  7
Note Text (ANSI)
 73
     1
 44
1.0
1001
ACAD
1000
MTEXTBEGIN
1070
    73
1070
     1
1070
    44
1040
1.0
1070
    74
1070
     0
1000
MTEXTEND
  0
POINT
  5
42A
330
31A
100
AcDbEntity
  8
Defpoints
 62
     0
100
AcDbPoint
 10
3.075254271167696
 20
4.821117583817136
 30
0.0
  0
POINT
  5
42B
330
31A
100
AcDbEntity
  8
Defpoints
 62
     0
100
AcDbPoint
 10
3.247754271167696
 20
5.134117583817137
 30
0.0
  0
POINT
  5
42C
330
31A
100
AcDbEntity
  8
Defpoints
 62
     0
100
AcDbPoint
 10
2.843186476474627
 20
5.134117583817137
 30
0.0
  0
ENDBLK
  5
31C
330
31A
100
AcDbEntity
  8
0
100
AcDbBlockEnd
  0
BLOCK
  5
42F
330
42E
100
AcDbEntity
  8
0
100
AcDbBlockBegin
  2
*D7
 70
     1
 10
0.0
 20
0.0
 30
0.0
  3
*D7
  1

  0
LINE
  5
521
330
42E
100
AcDbEntity
  8
Dimension (ANSI)
100
AcDbLine
 10
3.075254271167696
 20
4.734910687265412
 30
0.0
 11
3.075254271167696
 21
3.493848147669069
 31
0.0
  0
LINE
  5
522
330
42E
100
AcDbEntity
  8
Dimension (ANSI)
100
AcDbLine
 10
3.388254271167696
 20
4.938910687265413
 30
0.0
 11
3.388254271167696
 21
3.493848147669069
 31
0.0
  0
LINE
  5
523
330
42E
100
AcDbEntity
  8
Dimension (ANSI)
100
AcDbLine
 10
3.524013160300229
 20
3.666261940772517
 30
0.0
 11
3.659772049432761
 21
3.666261940772517
 31
0.0
  0
LINE
  5
524
330
42E
100
AcDbEntity
  8
Dimension (ANSI)
100
AcDbLine
 10
2.939495382035164
 20
3.666261940772517
 30
0.0
 11
2.755457642762012
 21
3.666261940772517
 31
0.0
  0
SOLID
  5
525
330
42E
100
AcDbEntity
  8
Dimension (ANSI)
100
AcDbTrace
 10
3.524013160300229
 20
3.688888422294606
 30
0.0
 11
3.524013160300229
 21
3.643635459250428
 31
0.0
 12
3.388254271167696
 22
3.666261940772517
 32
0.0
 13
3.388254271167696
 23
3.666261940772517
 33
0.0
  0
SOLID
  5
526
330
42E
100
AcDbEntity
  8
Dimension (ANSI)
100
AcDbTrace
 10
2.939495382035164
 20
3.688888422294606
 30
0.0
 11
2.939495382035164
 21
3.643635459250428
 31
0.0
 12
3.075254271167696
 22
3.666261940772517
 32
0.0
 13
3.075254271167696
 23
3.666261940772517
 33
0.0
  0
MTEXT
  5
527
330
42E
100
AcDbEntity
  8
Dimension (ANSI)
100
AcDbMText
 10
2.493363066745095
 20
3.666261940772517
 30
0.0
 40
0.1655172479563746
 41
0.0
 71
     5
 72
     1
  1
\A1;0.31{\PTYP.}
  7
Note Text (ANSI)
 73
     1
 44
1.0
1001
ACAD
1000
MTEXTBEGIN
1070
    73
1070
     1
1070
    44
1040
1.0
1070
    74
1070
     0
1000
MTEXTEND
  0
POINT
  5
528
330
42E
100
AcDbEntity
  8
Defpoints
 62
     0
100
AcDbPoint
 10
3.075254271167696
 20
4.821117583817136
 30
0.0
  0
POINT
  5
529
330
42E
100
AcDbEntity
  8
Defpoints
 62
     0
100
AcDbPoint
 10
3.388254271167696
 20
5.025117583817137
 30
0.0
  0
POINT
  5
52A
330
42E
100
AcDbEntity
  8
Defpoints
 62
     0
100
AcDbPoint
 10
3.388254271167696
 20
3.666261940772517
 30
0.0
  0
ENDBLK
  5
430
330
42E
100
AcDbEntity
  8
0
100
AcDbBlockEnd
  0
BLOCK
  5
52D
330
52C
100
AcDbEntity
  8
0
100
AcDbBlockBegin
  2
*D8
 70
     1
 10
0.0
 20
0.0
 30
0.0
  3
*D8
  1

  0
LINE
  5
60B
330
52C
100
AcDbEntity
  8
Dimension (ANSI)
100
AcDbLine
 10
3.388254271167697
 20
4.938910687265413
 30
0.0
 11
3.388254271167697
 21
3.493848147669069
 31
0.0
  0
LINE
  5
60C
330
52C
100
AcDbEntity
  8
Dimension (ANSI)
100
AcDbLine
 10
4.388254271167696
 20
4.922910687265412
 30
0.0
 11
4.388254271167696
 21
3.493848147669069
 31
0.0
  0
LINE
  5
60D
330
52C
100
AcDbEntity
  8
Dimension (ANSI)
100
AcDbLine
 10
3.524013160300229
 20
3.666261940772517
 30
0.0
 11
4.252495382035163
 21
3.666261940772517
 31
0.0
  0
LINE
  5
60E
330
52C
100
AcDbEntity
  8
Dimension (ANSI)
100
AcDbLine
 10
4.388254271167696
 20
3.666261940772517
 30
0.0
 11
4.63362316828319
 21
3.666261940772517
 31
0.0
  0
SOLID
  5
60F
330
52C
100
AcDbEntity
  8
Dimension (ANSI)
100
AcDbTrace
 10
3.524013160300229
 20
3.688888422294606
 30
0.0
 11
3.524013160300229
 21
3.643635459250428
 31
0.0
 12
3.388254271167697
 22
3.666261940772517
 32
0.0
 13
3.388254271167697
 23
3.666261940772517
 33
0.0
  0
SOLID
  5
610
330
52C
100
AcDbEntity
  8
Dimension (ANSI)
100
AcDbTrace
 10
4.252495382035163
 20
3.688888422294606
 30
0.0
 11
4.252495382035163
 21
3.643635459250428
 31
0.0
 12
4.388254271167696
 22
3.666261940772517
 32
0.0
 13
4.388254271167696
 23
3.666261940772517
 33
0.0
  0
MTEXT
  5
611
330
52C
100
AcDbEntity
  8
Dimension (ANSI)
100
AcDbMText
 10
4.67706601378957
 20
3.752410944913679
 30
0.0
 40
0.1655172479563746
 41
0.0
 71
     1
 72
     1
  1
\A1;1.000
  7
Note Text (ANSI)
 73
     1
 44
1.0
1001
ACAD
1000
MTEXTBEGIN
1070
    73
1070
     1
1070
    44
1040
1.0
1070
    74
1070
     0
1000
MTEXTEND
  0
POINT
  5
612
330
52C
100
AcDbEntity
  8
Defpoints
 62
     0
100
AcDbPoint
 10
3.388254271167697
 20
5.025117583817137
 30
0.0
  0
POINT
  5
613
330
52C
100
AcDbEntity
  8
Defpoints
 62
     0
100
AcDbPoint
 10
4.388254271167696
 20
5.009117583817136
 30
0.0
  0
POINT
  5
614
330
52C
100
AcDbEntity
  8
Defpoints
 62
     0
100
AcDbPoint
 10
4.388254271167696
 20
3.666261940772517
 30
0.0
  0
ENDBLK
  5
52E
330
52C
100
AcDbEntity
  8
0
100
AcDbBlockEnd
  0
BLOCK
  5
617
330
616
100
AcDbEntity
  8
0
100
AcDbBlockBegin
  2
*D9
 70
     1
 10
0.0
 20
0.0
 30
0.0
  3
*D9
  1

  0
LINE
  5
6EC
330
616
100
AcDbEntity
  8
Dimension (ANSI)
100
AcDbLine
 10
13.64970150115526
 20
10.90311595471043
 30
0.0
 11
13.51394261202273
 21
10.90311595471043
 31
0.0
  0
LINE
  5
6ED
330
616
100
AcDbEntity
  8
Dimension (ANSI)
100
AcDbLine
 10
13.99521927942033
 20
10.90311595471043
 30
0.0
 11
14.45294338453539
 21
10.90311595471043
 31
0.0
  0
SOLID
  5
6EE
330
616
100
AcDbEntity
  8
Dimension (ANSI)
100
AcDbTrace
 10
13.64970150115526
 20
10.92574243623252
 30
0.0
 11
13.64970150115526
 21
10.88048947318834
 31
0.0
 12
13.78546039028779
 22
10.90311595471043
 32
0.0
 13
13.78546039028779
 23
10.90311595471043
 33
0.0
  0
SOLID
  5
6EF
330
616
100
AcDbEntity
  8
Dimension (ANSI)
100
AcDbTrace
 10
13.99521927942033
 20
10.92574243623252
 30
0.0
 11
13.99521927942033
 21
10.88048947318834
 31
0.0
 12
13.8594603902878
 22
10.90311595471043
 32
0.0
 13
13.8594603902878
 23
10.90311595471043
 33
0.0
  0
MTEXT
  5
6F0
330
616
100
AcDbEntity
  8
Dimension (ANSI)
100
AcDbMText
 10
14.49638623004178
 20
10.98898705883823
 30
0.0
 40
0.1655172479563746
 41
0.0
 71
     1
 72
     1
  1
\A1; 14 GA.
  7
Note Text (ANSI)
 73
     1
 44
1.0
1001
ACAD
1000
MTEXTBEGIN
1070
    73
1070
     1
1070
    44
1040
1.0
1070
    74
1070
     0
1000
MTEXTEND
  0
POINT
  5
6F1
330
616
100
AcDbEntity
  8
Defpoints
 62
     0
100
AcDbPoint
 10
14.13176940864796
 20
4.821117583817136
 30
0.0
  0
POINT
  5
6F2
330
616
100
AcDbEntity
  8
Defpoints
 62
     0
100
AcDbPoint
 10
14.05776940864796
 20
4.821117583817136
 30
0.0
  0
POINT
  5
6F3
330
616
100
AcDbEntity
  8
Defpoints
 62
     0
100
AcDbPoint
 10
13.78546039028779
 20
10.90311595471043
 30
0.0
  0
ENDBLK
  5
618
330
616
100
AcDbEntity
  8
0
100
AcDbBlockEnd
  0
BLOCK
  5
6F6
330
6F5
100
AcDbEntity
  8
0
100
AcDbBlockBegin
  2
*D10
 70
     1
 10
0.0
 20
0.0
 30
0.0
  3
*D10
  1

  0
LINE
  5
7A6
330
6F5
100
AcDbEntity
  8
Dimension (ANSI)
100
AcDbLine
 10
5.846989420080701
 20
4.390140691806951
 30
0.0
 11
5.676860047786813
 21
4.390140691806951
 31
0.0
  0
LINE
  5
7A7
330
6F5
100
AcDbEntity
  8
Dimension (ANSI)
100
AcDbLine
 10
5.676860047786813
 20
4.390140691806951
 30
0.0
 11
4.614078093419092
 21
5.003738139250892
 31
0.0
  0
MTEXT
  5
7A8
102
{ACAD_XDICTIONARY
360
8CD
102
}
330
6F5
100
AcDbEntity
  8
Dimension (ANSI)
100
AcDbMText
 10
5.890432265587082
 20
4.5131083599402
 30
0.0
 40
0.1655172479563746
 41
0.0
 71
     1
 72
     1
  1
\A1;\U+22050.250{\PGROUND\P HOLE}
  7
Note Text (ANSI)
 73
     1
 44
1.0
1001
ACAD
1000
MTEXTBEGIN
1070
    73
1070
     1
1070
    44
1040
1.0
1070
    74
1070
     0
1000
MTEXTEND
  0
SOLID
  5
7A9
330
6F5
100
AcDbEntity
  8
Dimension (ANSI)
100
AcDbTrace
 10
4.625391334180134
 20
5.023333247047282
 30
0.0
 11
4.602764852658049
 21
4.984143031454503
 31
0.0
 12
4.496507446640757
 22
5.071617583817147
 32
0.0
 13
4.496507446640757
 23
5.071617583817147
 33
0.0
  0
LINE
  5
7AA
330
6F5
100
AcDbEntity
  8
Dimension (ANSI)
100
AcDbLine
 10
4.264116340133212
 20
5.134117583817135
 30
0.0
 11
4.512392202202178
 21
5.134117583817136
 31
0.0
  0
LINE
  5
7AB
330
6F5
100
AcDbEntity
  8
Dimension (ANSI)
100
AcDbLine
 10
4.388254271167696
 20
5.009979652782655
 30
0.0
 11
4.388254271167696
 21
5.258255514851619
 31
0.0
  0
POINT
  5
7AC
330
6F5
100
AcDbEntity
  8
Defpoints
 62
     0
100
AcDbPoint
 10
4.496507446640757
 20
5.071617583817147
 30
0.0
  0
POINT
  5
7AD
330
6F5
100
AcDbEntity
  8
Defpoints
 62
     0
100
AcDbPoint
 10
4.280001095694635
 20
5.196617583817126
 30
0.0
  0
ENDBLK
  5
6F7
330
6F5
100
AcDbEntity
  8
0
100
AcDbBlockEnd
  0
BLOCK
  5
7B0
330
7AF
100
AcDbEntity
  8
0
100
AcDbBlockBegin
  2
*D11
 70
     1
 10
0.0
 20
0.0
 30
0.0
  3
*D11
  1

  0
LINE
  5
84B
330
7AF
100
AcDbEntity
  8
Dimension (ANSI)
100
AcDbLine
 10
10.30095056212082
 20
5.979927176603142
 30
0.0
 11
10.16472682066325
 21
5.97992717660314
 31
0.0
  0
LINE
  5
84C
330
7AF
100
AcDbEntity
  8
Dimension (ANSI)
100
AcDbLine
 10
10.16472682066325
 20
5.97992717660314
 30
0.0
 11
9.796629693349851
 21
5.345797872065594
 31
0.0
  0
MTEXT
  5
84D
330
7AF
100
AcDbEntity
  8
Dimension (ANSI)
100
AcDbMText
 10
10.34439340762721
 20
6.109545918389438
 30
0.0
 40
0.1655172479563746
 41
0.0
 71
     1
 72
     1
  1
\A1; 0.218 X 0.281\POBROUND\PTYP. (4 PL.)
  7
Note Text (ANSI)
 73
     1
 44
1.0
1001
ACAD
1000
MTEXTBEGIN
1070
    73
1070
     1
1070
    44
1040
1.0
1070
    74
1070
     0
1000
MTEXTEND
  0
SOLID
  5
84E
330
7AF
100
AcDbEntity
  8
Dimension (ANSI)
100
AcDbTrace
 10
9.777061128761168
 20
5.357156962962669
 30
0.0
 11
9.816198257938534
 21
5.33443878116852
 31
0.0
 12
9.728475147967404
 22
5.228386484533501
 32
0.0
 13
9.728475147967404
 23
5.228386484533501
 33
0.0
  0
POINT
  5
84F
330
7AF
100
AcDbEntity
  8
Defpoints
 62
     0
100
AcDbPoint
 10
9.728475147967404
 20
5.228386484533501
 30
0.0
  0
POINT
  5
850
330
7AF
100
AcDbEntity
  8
Defpoints
 62
     0
100
AcDbPoint
 10
9.673754271167698
 20
5.134117583817145
 30
0.0
  0
ENDBLK
  5
7B1
330
7AF
100
AcDbEntity
  8
0
100
AcDbBlockEnd
  0
ENDSEC
  0
SECTION
  2
ENTITIES
  0
CIRCLE
  5
11D
330
6C
100
AcDbEntity
  8
Visible (ANSI)
100
AcDbCircle
 10
4.388254271167696
 20
5.134117583817136
 30
0.0
 40
0.125
  0
LINE
  5
11E
330
6C
100
AcDbEntity
  8
Visible (ANSI)
100
AcDbLine
 10
3.356754271167696
 20
5.243117583817137
 30
0.0
 11
3.419754271167696
 21
5.243117583817137
 31
0.0
  0
ARC
  5
11F
330
6C
100
AcDbEntity
  8
Visible (ANSI)
100
AcDbCircle
 10
3.356754271167696
 20
5.134117583817137
 30
0.0
 40
0.109
100
AcDbArc
 50
90.0
 51
270.0
  0
LINE
  5
120
330
6C
100
AcDbEntity
  8
Visible (ANSI)
100
AcDbLine
 10
3.419754271167696
 20
5.025117583817137
 30
0.0
 11
3.356754271167696
 21
5.025117583817137
 31
0.0
  0
ARC
  5
121
330
6C
100
AcDbEntity
  8
Visible (ANSI)
100
AcDbCircle
 10
3.419754271167696
 20
5.134117583817137
 30
0.0
 40
0.1090000000000001
100
AcDbArc
 50
270.0
 51
90.0
  0
LINE
  5
122
330
6C
100
AcDbEntity
  8
Visible (ANSI)
100
AcDbLine
 10
9.610754271167694
 20
13.49711758381713
 30
0.0
 11
9.673754271167693
 21
13.49711758381713
 31
0.0
  0
ARC
  5
123
330
6C
100
AcDbEntity
  8
Visible (ANSI)
100
AcDbCircle
 10
9.610754271167694
 20
13.38811758381714
 30
0.0
 40
0.1089999999999997
100
AcDbArc
 50
90.0
 51
270.0
  0
LINE
  5
124
330
6C
100
AcDbEntity
  8
Visible (ANSI)
100
AcDbLine
 10
9.673754271167693
 20
13.27911758381713
 30
0.0
 11
9.610754271167694
 21
13.27911758381713
 31
0.0
  0
ARC
  5
125
330
6C
100
AcDbEntity
  8
Visible (ANSI)
100
AcDbCircle
 10
9.673754271167693
 20
13.38811758381714
 30
0.0
 40
0.1089999999999997
100
AcDbArc
 50
270.0
 51
90.0
  0
LINE
  5
126
330
6C
100
AcDbEntity
  8
Visible (ANSI)
100
AcDbLine
 10
9.610754271167698
 20
5.243117583817137
 30
0.0
 11
9.673754271167698
 21
5.243117583817137
 31
0.0
  0
ARC
  5
127
330
6C
100
AcDbEntity
  8
Visible (ANSI)
100
AcDbCircle
 10
9.610754271167698
 20
5.134117583817137
 30
0.0
 40
0.109
100
AcDbArc
 50
90.0
 51
270.0
  0
LINE
  5
128
330
6C
100
AcDbEntity
  8
Visible (ANSI)
100
AcDbLine
 10
9.673754271167698
 20
5.025117583817137
 30
0.0
 11
9.610754271167698
 21
5.025117583817137
 31
0.0
  0
ARC
  5
129
330
6C
100
AcDbEntity
  8
Visible (ANSI)
100
AcDbCircle
 10
9.673754271167698
 20
5.134117583817137
 30
0.0
 40
0.109
100
AcDbArc
 50
270.0
 51
90.0
  0
LINE
  5
12A
330
6C
100
AcDbEntity
  8
Visible (ANSI)
100
AcDbLine
 10
3.356754271167694
 20
13.49711758381713
 30
0.0
 11
3.419754271167694
 21
13.49711758381713
 31
0.0
  0
ARC
  5
12B
330
6C
100
AcDbEntity
  8
Visible (ANSI)
100
AcDbCircle
 10
3.356754271167693
 20
13.38811758381714
 30
0.0
 40
0.1089999999999997
100
AcDbArc
 50
90.00000000000024
 51
270.0000000000002
  0
LINE
  5
12C
330
6C
100
AcDbEntity
  8
Visible (ANSI)
100
AcDbLine
 10
3.419754271167694
 20
13.27911758381713
 30
0.0
 11
3.356754271167694
 21
13.27911758381713
 31
0.0
  0
ARC
  5
12D
330
6C
100
AcDbEntity
  8
Visible (ANSI)
100
AcDbCircle
 10
3.419754271167694
 20
13.38811758381714
 30
0.0
 40
0.1089999999999997
100
AcDbArc
 50
270.0000000000002
 51
90.00000000000021
  0
LINE
  5
12E
330
6C
100
AcDbEntity
  8
Visible (ANSI)
100
AcDbLine
 10
3.075254271167696
 20
4.821117583817136
 30
0.0
 11
3.075254271167693
 21
13.70111758381713
 31
0.0
  0
LINE
  5
12F
330
6C
100
AcDbEntity
  8
Visible (ANSI)
100
AcDbLine
 10
3.075254271167693
 20
13.70111758381713
 30
0.0
 11
9.955254271167694
 21
13.70111758381713
 31
0.0
  0
LINE
  5
130
330
6C
100
AcDbEntity
  8
Visible (ANSI)
100
AcDbLine
 10
9.955254271167694
 20
13.70111758381713
 30
0.0
 11
9.955254271167696
 21
4.821117583817136
 31
0.0
  0
LINE
  5
131
330
6C
100
AcDbEntity
  8
Visible (ANSI)
100
AcDbLine
 10
9.955254271167696
 20
4.821117583817136
 30
0.0
 11
3.075254271167696
 21
4.821117583817136
 31
0.0
  0
MTEXT
  5
133
330
6C
100
AcDbEntity
  8
Symbol (ANSI)
100
AcDbMText
 10
5.927000705568865
 20
2.46972551638455
 30
0.0
 40
0.1655172434249327
 41
0.0
 71
     7
 72
     1
  1
FRONT VIEW
  7
Text Style150
 73
     1
 44
1.0
1001
ACAD
1000
MTEXTBEGIN
1070
    73
1070
     1
1070
    44
1040
1.0
1070
    74
1070
     0
1000
MTEXTEND
  0
LINE
  5
135
330
6C
100
AcDbEntity
  8
Symbol (ANSI)
370
    30
100
AcDbLine
 10
5.910448938853848
 20
2.435971533798495
 30
0.0
 11
7.241159289592713
 21
2.435971533798495
 31
0.0
  0
MTEXT
  5
136
330
6C
100
AcDbEntity
  8
Symbol (ANSI)
100
AcDbMText
 10
6.522487176857735
 20
2.096369368415137
 30
0.0
 40
0.2482758570455385
 41
0.0
 71
     7
 72
     1
  1
 
  7
Label Text (ANSI)
 73
     1
 44
1.0
1001
ACAD
1000
MTEXTBEGIN
1070
    73
1070
     1
1070
    44
1040
1.0
1070
    74
1070
     0
1000
MTEXTEND
  0
LINE
  5
137
330
6C
100
AcDbEntity
  8
Hidden (ANSI)
 48
0.1020869761705399
100
AcDbLine
 10
14.05776940864787
 20
13.49711758381713
 30
0.0
 11
14.13176940864787
 21
13.49711758381713
 31
0.0
  0
LINE
  5
138
330
6C
100
AcDbEntity
  8
Hidden (ANSI)
 48
0.1020869761705399
100
AcDbLine
 10
14.05776940864787
 20
13.27911758381713
 30
0.0
 11
14.13176940864787
 21
13.27911758381713
 31
0.0
  0
LINE
  5
139
330
6C
100
AcDbEntity
  8
Hidden (ANSI)
 48
0.1020869761705399
100
AcDbLine
 10
14.05776940864787
 20
5.243117583817137
 30
0.0
 11
14.13176940864787
 21
5.243117583817137
 31
0.0
  0
LINE
  5
13A
330
6C
100
AcDbEntity
  8
Hidden (ANSI)
 48
0.1020869761705399
100
AcDbLine
 10
14.05776940864787
 20
5.025117583817137
 30
0.0
 11
14.13176940864787
 21
5.025117583817137
 31
0.0
  0
LINE
  5
13B
330
6C
100
AcDbEntity
  8
Visible (ANSI)
100
AcDbLine
 10
14.13176940864796
 20
13.70111758381713
 30
0.0
 11
14.05776940864796
 21
13.70111758381713
 31
0.0
  0
LINE
  5
13C
330
6C
100
AcDbEntity
  8
Visible (ANSI)
100
AcDbLine
 10
14.05776940864796
 20
13.70111758381713
 30
0.0
 11
14.05776940864796
 21
4.821117583817136
 31
0.0
  0
LINE
  5
13D
330
6C
100
AcDbEntity
  8
Visible (ANSI)
100
AcDbLine
 10
14.13176940864796
 20
4.821117583817136
 30
0.0
 11
14.05776940864796
 21
4.821117583817136
 31
0.0
  0
LINE
  5
13E
330
6C
100
AcDbEntity
  8
Visible (ANSI)
100
AcDbLine
 10
14.13176940864796
 20
4.821117583817136
 30
0.0
 11
14.13176940864796
 21
13.70111758381713
 31
0.0
  0
LINE
  5
13F
330
6C
100
AcDbEntity
  8
Hidden (ANSI)
 48
0.1020869761705399
100
AcDbLine
 10
14.1317694086463
 20
5.009117583817136
 30
0.0
 11
14.05776940864631
 21
5.009117583817136
 31
0.0
  0
LINE
  5
140
330
6C
100
AcDbEntity
  8
Hidden (ANSI)
 48
0.1020869761705399
100
AcDbLine
 10
14.1317694086463
 20
5.259117583817136
 30
0.0
 11
14.05776940864631
 21
5.259117583817136
 31
0.0
  0
MTEXT
  5
141
330
6C
100
AcDbEntity
  8
Symbol (ANSI)
100
AcDbMText
 10
13.62934142116192
 20
2.513259605282605
 30
0.0
 40
0.1655172434249327
 41
0.0
 71
     7
 72
     1
  1
RIGHT VIEW
  7
Text Style150
 73
     1
 44
1.0
1001
ACAD
1000
MTEXTBEGIN
1070
    73
1070
     1
1070
    44
1040
1.0
1070
    74
1070
     0
1000
MTEXTEND
  0
LINE
  5
142
330
6C
100
AcDbEntity
  8
Symbol (ANSI)
370
    30
100
AcDbLine
 10
13.61278965444691
 20
2.479237361335758
 30
0.0
 11
14.9023218863042
 21
2.479237361335758
 31
0.0
  0
DIMENSION
  5
143
330
6C
100
AcDbEntity
  8
Dimension (ANSI)
100
AcDbDimension
  2
*D4
 10
3.075254271167696
 20
3.036340680929997
 30
0.0
 11
6.515254271167697
 21
3.036340680929997
 31
0.0
 70
   160
  1
<>
 42
6.879999999999999
  3
Default (ANSI)-01
100
AcDbAlignedDimension
 13
9.955254271167696
 23
4.821117583817136
 33
0.0
 14
3.075254271167696
 24
4.821117583817136
 34
0.0
 50
180.0
100
AcDbRotatedDimension
1001
ACAD
1000
DSTYLE
1002
{
1070
   289
1070
     1
1070
    73
1070
     0
1070
    74
1070
     0
1070
   271
1070
     2
1070
   272
1070
     2
1070
    48
1040
0.0
1070
    47
1040
0.0
1002
}
  0
DIMENSION
  5
22F
330
6C
100
AcDbEntity
  8
Dimension (ANSI)
100
AcDbDimension
  2
*D5
 10
1.687924259160761
 20
13.70111758381713
 30
0.0
 11
1.687924259160759
 21
9.261117583817137
 31
0.0
 70
   160
  1
<>
 42
8.879999999999999
  3
Default (ANSI)-01
100
AcDbAlignedDimension
 13
3.075254271167696
 23
4.821117583817136
 33
0.0
 14
3.075254271167693
 24
13.70111758381713
 34
0.0
 50
90.0
100
AcDbRotatedDimension
1001
ACAD
1000
DSTYLE
1002
{
1070
   289
1070
     1
1070
   271
1070
     2
1070
   272
1070
     2
1070
    48
1040
0.0
1070
    47
1040
0.0
1002
}
  0
DIMENSION
  5
319
330
6C
100
AcDbEntity
  8
Dimension (ANSI)
100
AcDbDimension
  2
*D6
 10
2.843186476474627
 20
5.134117583817137
 30
0.0
 11
2.445333011325176
 21
4.332673801292753
 31
0.0
 70
   160
  1
<>{\PTYP.}
 71
     5
 42
0.3130000000000006
  3
Default (ANSI)-01
100
AcDbAlignedDimension
 13
3.075254271167696
 23
4.821117583817136
 33
0.0
 14
3.247754271167696
 24
5.134117583817137
 34
0.0
 50
90.0
100
AcDbRotatedDimension
1001
ACAD
1000
DSTYLE
1002
{
1070
   289
1070
     1
1070
   271
1070
     2
1070
   272
1070
     2
1070
    48
1040
0.0
1070
    47
1040
0.0
1002
}
  0
DIMENSION
  5
42D
330
6C
100
AcDbEntity
  8
Dimension (ANSI)
100
AcDbDimension
  2
*D7
 10
3.388254271167696
 20
3.666261940772517
 30
0.0
 11
2.493363066745095
 21
3.666261940772517
 31
0.0
 70
   160
  1
<>{\PTYP.}
 71
     5
 42
0.3129999999999997
  3
Default (ANSI)-01
100
AcDbAlignedDimension
 13
3.075254271167696
 23
4.821117583817136
 33
0.0
 14
3.388254271167696
 24
5.025117583817137
 34
0.0
 50
180.0
100
AcDbRotatedDimension
1001
ACAD
1000
DSTYLE
1002
{
1070
   289
1070
     1
1070
    73
1070
     0
1070
    74
1070
     0
1070
   271
1070
     2
1070
   272
1070
     2
1070
    48
1040
0.0
1070
    47
1040
0.0
1002
}
  0
DIMENSION
  5
52B
330
6C
100
AcDbEntity
  8
Dimension (ANSI)
100
AcDbDimension
  2
*D8
 10
4.388254271167696
 20
3.666261940772517
 30
0.0
 11
4.942905166568395
 21
3.666261940772517
 31
0.0
 70
   160
  1
<>
 42
0.9999999999999991
  3
Default (ANSI)
100
AcDbAlignedDimension
 13
3.388254271167697
 23
5.025117583817137
 33
0.0
 14
4.388254271167696
 24
5.009117583817136
 34
0.0
 50
180.0
100
AcDbRotatedDimension
1001
ACAD
1000
DSTYLE
1002
{
1070
   289
1070
     2
1070
    73
1070
     0
1070
    74
1070
     0
1070
   271
1070
     3
1070
   272
1070
     2
1070
    48
1040
0.0
1070
    47
1040
0.0
1002
}
  0
DIMENSION
  5
615
330
6C
100
AcDbEntity
  8
Dimension (ANSI)
100
AcDbDimension
  2
*D9
 10
13.78546039028779
 20
10.90311595471043
 30
0.0
 11
14.85987944751481
 21
10.90311595471043
 31
0.0
 70
   160
  1
 14 GA.
 42
0.0740000000000016
  3
Default (ANSI)
100
AcDbAlignedDimension
 13
14.13176940864796
 23
4.821117583817136
 33
0.0
 14
14.05776940864796
 24
4.821117583817136
 34
0.0
100
AcDbRotatedDimension
1001
ACAD
1000
DSTYLE
1002
{
1070
   289
1070
     1
1070
    73
1070
     0
1070
    74
1070
     0
1070
   271
1070
     3
1070
    76
1070
     1
1070
    75
1070
     1
1070
   272
1070
     2
1070
    48
1040
0.0
1070
    47
1040
0.0
1002
}
  0
DIMENSION
  5
6F4
330
6C
100
AcDbEntity
  8
Dimension (ANSI)
100
AcDbDimension
  2
*D10
 10
4.280001095694635
 20
5.196617583817126
 30
0.0
 11
6.338184767110438
 21
4.390140691806951
 31
0.0
 70
   163
  1
<>{\PGROUND\P HOLE}
 42
0.25
  3
Default (ANSI)
100
AcDbDiametricDimension
 15
4.496507446640757
 25
5.071617583817147
 35
0.0
 40
0.0
1001
ACAD_DSTYLE_DIMRADIAL_EXTENSION
1070
   387
1070
     1
1070
   388
1040
0.0
1070
   390
1040
0.0
1001
ACAD
1000
DSTYLE
1002
{
1070
   145
1040
-0.3333333333333334
1070
   144
1040
1.0
1070
   271
1070
     3
1070
   272
1070
     2
1070
    48
1040
0.0
1070
    47
1040
0.0
1002
}
  0
DIMENSION
  5
7AE
330
6C
100
AcDbEntity
  8
Dimension (ANSI)
100
AcDbDimension
  2
*D11
 10
9.673754271167698
 20
5.134117583817145
 30
0.0
 11
11.07399210269884
 21
5.97992717660314
 31
0.0
 70
   164
  1
 0.218 X 0.281\POBROUND\PTYP. (4 PL.)
 42
0.1089999999999947
  3
Default (ANSI)
100
AcDbRadialDimension
 15
9.728475147967404
 25
5.228386484533501
 35
0.0
 40
0.0
1001
ACAD_DSTYLE_DIMRADIAL_EXTENSION
1070
   387
1070
     1
1070
   388
1040
0.0
1070
   390
1040
0.0
1001
ACAD
1000
DSTYLE
1002
{
1070
   145
1040
-0.3333333333333334
1070
   271
1070
     3
1070
   141
1040
0.0
1070
   272
1070
     2
1070
    48
1040
0.0
1070
    47
1040
0.0
1002
}
  0
MTEXT
  5
851
330
6C
100
AcDbEntity
  8
Symbol (ANSI)
100
AcDbMText
 10
16.28302363661912
 20
3.443967032405763
 30
0.0
 40
0.1655172434249327
 41
6.48610536898156
 71
     1
 72
     1
  1
{\fRomanS|b0|i0;\H0.1655;PART#: P1008\P(DATA SUBJECT TO CHANGE WITHOUT NOTICE)\PTHIS DRAWING AND COMPONENTS OF ARE\PPROPERTY OF HUBBELL INC. WIEGMANN}
  7
Note Text (ANSI)
 73
     2
 44
1.093904256820678
1001
ACAD
1000
MTEXTBEGIN
1070
    73
1070
     2
1070
    44
1040
1.093904256820678
1070
    74
1070
     0
1000
MTEXTEND
  0
ELLIPSE
  5
853
330
6C
100
AcDbEntity
  8
Visible (ANSI)
100
AcDbEllipse
 10
18.67058311951738
 20
7.532069754114293
 30
0.0
 11
0.0537750228000493
 21
-0.0933818357915028
 31
0.0
210
0.0
220
0.0
230
1.0
 40
0.5780931159158105
 41
3.572615253427343
 42
5.852162707341202
  0
ELLIPSE
  5
854
330
6C
100
AcDbEntity
  8
Visible (ANSI)
100
AcDbEllipse
 10
18.62547458347618
 20
7.50609347582064
 30
0.0
 11
-0.0537750228000436
 21
0.0933818357915059
 31
0.0
210
0.0
220
0.0
230
1.0
 40
0.5780931159158104
 41
0.0
 42
6.283185307179586
  0
LINE
  5
855
330
6C
100
AcDbEntity
  8
Visible (ANSI)
100
AcDbLine
 10
17.99669816555029
 20
7.94500297184182
 30
0.0
 11
18.03510137866646
 21
7.922888032213445
 31
0.0
  0
ELLIPSE
  5
856
330
6C
100
AcDbEntity
  8
Visible (ANSI)
100
AcDbEllipse
 10
18.04180670159149
 20
7.894158011680441
 30
0.0
 11
0.0468918198816429
 21
-0.0814289608101904
 31
0.0
210
0.0
220
0.0
230
1.0
 40
0.5780931159158105
 41
3.641254264141327
 42
5.499720852204733
  0
ELLIPSE
  5
857
330
6C
100
AcDbEntity
  8
Visible (ANSI)
100
AcDbEllipse
 10
17.99669816555029
 20
7.868181733386788
 30
0.0
 11
-0.0468918198816332
 21
0.081428960810196
 31
0.0
210
0.0
220
0.0
230
1.0
 40
0.5780931159158104
 41
5.499720852205252
 42
8.641313505795046
  0
LINE
  5
858
330
6C
100
AcDbEntity
  8
Visible Narrow (ANSI)
100
AcDbLine
 10
17.99669816555029
 20
7.791360494931756
 30
0.0
 11
18.04180670159149
 21
7.817336773225409
 31
0.0
  0
LINE
  5
859
330
6C
100
AcDbEntity
  8
Visible (ANSI)
100
AcDbLine
 10
18.04180670159149
 20
7.817336773225409
 30
0.0
 11
18.08020991470766
 21
7.795221833597036
 31
0.0
  0
LINE
  5
85A
330
6C
100
AcDbEntity
  8
Visible (ANSI)
100
AcDbLine
 10
18.03510137866646
 20
7.769245555303383
 30
0.0
 11
17.99669816555029
 21
7.791360494931756
 31
0.0
  0
LINE
  5
85B
330
6C
100
AcDbEntity
  8
Visible Narrow (ANSI)
100
AcDbLine
 10
18.03510137866646
 20
7.769245555303383
 30
0.0
 11
18.08020991470766
 21
7.795221833597036
 31
0.0
  0
ELLIPSE
  5
85C
330
6C
100
AcDbEntity
  8
Visible (ANSI)
100
AcDbEllipse
 10
18.08020991470766
 20
7.872043072052067
 30
0.0
 11
0.0468918198816381
 21
-0.0814289608101933
 31
0.0
210
0.0
220
0.0
230
0.9999999999999998
 40
0.5780931159158104
 41
5.499720852205022
 42
5.78352369662768
  0
ELLIPSE
  5
85D
330
6C
100
AcDbEntity
  8
Visible (ANSI)
100
AcDbEllipse
 10
18.03510137866646
 20
7.846066793758414
 30
0.0
 11
0.0468918198816332
 21
-0.081428960810196
 31
0.0
210
0.0
220
0.0
230
1.0
 40
0.5780931159158103
 41
5.499720852205252
 42
8.641313505795103
  0
LINE
  5
85E
330
6C
100
AcDbEntity
  8
Visible (ANSI)
100
AcDbLine
 10
21.80897903584454
 20
11.56692708769823
 30
0.0
 11
21.8473822489607
 21
11.54481214806986
 31
0.0
  0
ELLIPSE
  5
85F
330
6C
100
AcDbEntity
  8
Visible (ANSI)
100
AcDbEllipse
 10
21.85408757188574
 20
11.51608212753685
 30
0.0
 11
0.0468918198816429
 21
-0.0814289608101902
 31
0.0
210
0.0
220
0.0
230
1.0
 40
0.5780931159158105
 41
3.641254264141316
 42
5.499720852204734
  0
ELLIPSE
  5
860
330
6C
100
AcDbEntity
  8
Visible (ANSI)
100
AcDbEllipse
 10
21.80897903584454
 20
11.4901058492432
 30
0.0
 11
-0.046891819881633
 21
0.0814289608101957
 31
0.0
210
0.0
220
0.0
230
1.0
 40
0.5780931159158105
 41
5.499720852205252
 42
8.641313505795046
  0
LINE
  5
861
330
6C
100
AcDbEntity
  8
Visible Narrow (ANSI)
100
AcDbLine
 10
21.80897903584454
 20
11.41328461078817
 30
0.0
 11
21.85408757188574
 21
11.43926088908182
 31
0.0
  0
LINE
  5
862
330
6C
100
AcDbEntity
  8
Visible (ANSI)
100
AcDbLine
 10
21.85408757188574
 20
11.43926088908182
 30
0.0
 11
21.89249078500191
 21
11.41714594945345
 31
0.0
  0
LINE
  5
863
330
6C
100
AcDbEntity
  8
Visible (ANSI)
100
AcDbLine
 10
21.8473822489607
 20
11.39116967115979
 30
0.0
 11
21.80897903584454
 21
11.41328461078817
 31
0.0
  0
LINE
  5
864
330
6C
100
AcDbEntity
  8
Visible Narrow (ANSI)
100
AcDbLine
 10
21.8473822489607
 20
11.39116967115979
 30
0.0
 11
21.89249078500191
 21
11.41714594945345
 31
0.0
  0
ELLIPSE
  5
865
330
6C
100
AcDbEntity
  8
Visible (ANSI)
100
AcDbEllipse
 10
21.89249078500191
 20
11.49396718790847
 30
0.0
 11
0.0468918198816331
 21
-0.0814289608101845
 31
0.0
210
0.0
220
0.0
230
1.0
 40
0.5780931159158104
 41
5.499720852205022
 42
5.783523696627715
  0
ELLIPSE
  5
866
330
6C
100
AcDbEntity
  8
Visible (ANSI)
100
AcDbEllipse
 10
21.8473822489607
 20
11.46799090961483
 30
0.0
 11
0.046891819881633
 21
-0.0814289608101957
 31
0.0
210
0.0
220
0.0
230
1.0
 40
0.5780931159158105
 41
5.499720852205252
 42
8.641313505795046
  0
LINE
  5
867
330
6C
100
AcDbEntity
  8
Visible (ANSI)
100
AcDbLine
 10
21.80897903584454
 20
5.74965642524106
 30
0.0
 11
21.84738224896071
 21
5.727541485612687
 31
0.0
  0
ELLIPSE
  5
868
330
6C
100
AcDbEntity
  8
Visible (ANSI)
100
AcDbEllipse
 10
21.85408757188574
 20
5.698811465079682
 30
0.0
 11
0.0468918198816435
 21
-0.0814289608101913
 31
0.0
210
0.0
220
0.0
230
1.0
 40
0.5780931159158103
 41
3.641254264141316
 42
5.499720852204734
  0
ELLIPSE
  5
869
330
6C
100
AcDbEntity
  8
Visible (ANSI)
100
AcDbEllipse
 10
21.80897903584454
 20
5.672835186786029
 30
0.0
 11
-0.0468918198816332
 21
0.081428960810196
 31
0.0
210
0.0
220
0.0
230
1.0
 40
0.5780931159158104
 41
5.499720852205252
 42
8.641313505795103
  0
LINE
  5
86A
330
6C
100
AcDbEntity
  8
Visible Narrow (ANSI)
100
AcDbLine
 10
21.80897903584454
 20
5.596013948330997
 30
0.0
 11
21.85408757188574
 21
5.62199022662465
 31
0.0
  0
LINE
  5
86B
330
6C
100
AcDbEntity
  8
Visible (ANSI)
100
AcDbLine
 10
21.85408757188574
 20
5.62199022662465
 30
0.0
 11
21.89249078500191
 21
5.599875286996276
 31
0.0
  0
LINE
  5
86C
330
6C
100
AcDbEntity
  8
Visible (ANSI)
100
AcDbLine
 10
21.84738224896071
 20
5.573899008702624
 30
0.0
 11
21.80897903584454
 21
5.596013948330997
 31
0.0
  0
LINE
  5
86D
330
6C
100
AcDbEntity
  8
Visible Narrow (ANSI)
100
AcDbLine
 10
21.84738224896071
 20
5.573899008702624
 30
0.0
 11
21.89249078500191
 21
5.599875286996276
 31
0.0
  0
ELLIPSE
  5
86E
330
6C
100
AcDbEntity
  8
Visible (ANSI)
100
AcDbEllipse
 10
21.89249078500191
 20
5.676696525451304
 30
0.0
 11
0.0468918198816355
 21
-0.0814289608101887
 31
0.0
210
0.0
220
0.0
230
1.0
 40
0.5780931159158104
 41
5.499720852205022
 42
5.783523696627634
  0
ELLIPSE
  5
86F
330
6C
100
AcDbEntity
  8
Visible (ANSI)
100
AcDbEllipse
 10
21.84738224896071
 20
5.650720247157655
 30
0.0
 11
0.0468918198816332
 21
-0.081428960810196
 31
0.0
210
0.0
220
0.0
230
1.0
 40
0.5780931159158104
 41
5.499720852205252
 42
8.641313505795103
  0
LINE
  5
870
330
6C
100
AcDbEntity
  8
Visible (ANSI)
100
AcDbLine
 10
17.99669816555029
 20
13.76227363429899
 30
0.0
 11
18.03510137866646
 21
13.74015869467062
 31
0.0
  0
ELLIPSE
  5
871
330
6C
100
AcDbEntity
  8
Visible (ANSI)
100
AcDbEllipse
 10
18.04180670159149
 20
13.71142867413761
 30
0.0
 11
0.0468918198816428
 21
-0.0814289608101902
 31
0.0
210
0.0
220
0.0
230
1.0
 40
0.5780931159158103
 41
3.641254264141316
 42
5.499720852204733
  0
ELLIPSE
  5
872
330
6C
100
AcDbEntity
  8
Visible (ANSI)
100
AcDbEllipse
 10
17.99669816555029
 20
13.68545239584396
 30
0.0
 11
-0.0468918198816331
 21
0.0814289608101957
 31
0.0
210
0.0
220
0.0
230
1.0
 40
0.5780931159158104
 41
5.499720852205252
 42
8.641313505795046
  0
LINE
  5
873
330
6C
100
AcDbEntity
  8
Visible Narrow (ANSI)
100
AcDbLine
 10
17.99669816555029
 20
13.60863115738893
 30
0.0
 11
18.04180670159149
 21
13.63460743568258
 31
0.0
  0
LINE
  5
874
330
6C
100
AcDbEntity
  8
Visible (ANSI)
100
AcDbLine
 10
18.04180670159149
 20
13.63460743568258
 30
0.0
 11
18.08020991470766
 21
13.61249249605421
 31
0.0
  0
LINE
  5
875
330
6C
100
AcDbEntity
  8
Visible (ANSI)
100
AcDbLine
 10
18.03510137866646
 20
13.58651621776055
 30
0.0
 11
17.99669816555029
 21
13.60863115738893
 31
0.0
  0
LINE
  5
876
330
6C
100
AcDbEntity
  8
Visible Narrow (ANSI)
100
AcDbLine
 10
18.03510137866646
 20
13.58651621776055
 30
0.0
 11
18.08020991470766
 21
13.61249249605421
 31
0.0
  0
ELLIPSE
  5
877
330
6C
100
AcDbEntity
  8
Visible (ANSI)
100
AcDbEllipse
 10
18.08020991470766
 20
13.68931373450924
 30
0.0
 11
0.0468918198816391
 21
-0.081428960810195
 31
0.0
210
0.0
220
0.0
230
1.0
 40
0.5780931159158104
 41
5.499720852205022
 42
5.783523696627673
  0
ELLIPSE
  5
878
330
6C
100
AcDbEntity
  8
Visible (ANSI)
100
AcDbEllipse
 10
18.03510137866646
 20
13.66333745621558
 30
0.0
 11
0.046891819881633
 21
-0.0814289608101957
 31
0.0
210
0.0
220
0.0
230
1.0
 40
0.5780931159158105
 41
5.499720852205252
 42
8.641313505795046
  0
LINE
  5
879
330
6C
100
AcDbEntity
  8
Visible (ANSI)
100
AcDbLine
 10
17.82510285615025
 20
7.746400132832313
 30
0.0
 11
17.82510285615025
 21
14.00486432990279
 31
0.0
  0
LINE
  5
87A
330
6C
100
AcDbEntity
  8
Visible (ANSI)
100
AcDbLine
 10
17.87021139219145
 20
14.03084060819644
 30
0.0
 11
17.82510285615025
 21
14.00486432990279
 31
0.0
  0
LINE
  5
87B
330
6C
100
AcDbEntity
  8
Visible (ANSI)
100
AcDbLine
 10
17.82510285615025
 20
14.00486432990279
 30
0.0
 11
22.01897755836075
 21
11.5897725101693
 31
0.0
  0
LINE
  5
87C
330
6C
100
AcDbEntity
  8
Visible (ANSI)
100
AcDbLine
 10
22.06408609440195
 20
11.61574878846295
 30
0.0
 11
22.01897755836075
 21
11.5897725101693
 31
0.0
  0
LINE
  5
87D
330
6C
100
AcDbEntity
  8
Visible (ANSI)
100
AcDbLine
 10
22.06408609440195
 20
11.61574878846295
 30
0.0
 11
17.87021139219145
 21
14.03084060819644
 31
0.0
  0
LINE
  5
87E
330
6C
100
AcDbEntity
  8
Visible (ANSI)
100
AcDbLine
 10
22.01897755836075
 20
11.5897725101693
 30
0.0
 11
22.01897755836075
 21
5.331308313098828
 31
0.0
  0
LINE
  5
87F
330
6C
100
AcDbEntity
  8
Visible (ANSI)
100
AcDbLine
 10
22.06408609440195
 20
5.357284591392481
 30
0.0
 11
22.01897755836075
 21
5.331308313098828
 31
0.0
  0
LINE
  5
880
330
6C
100
AcDbEntity
  8
Visible (ANSI)
100
AcDbLine
 10
22.06408609440195
 20
5.357284591392481
 30
0.0
 11
22.06408609440195
 21
11.61574878846295
 31
0.0
  0
LINE
  5
881
330
6C
100
AcDbEntity
  8
Visible (ANSI)
100
AcDbLine
 10
22.01897755836075
 20
5.331308313098828
 30
0.0
 11
17.82510285615025
 21
7.746400132832313
 31
0.0
  0
ENDSEC
  0
SECTION
  2
OBJECTS
  0
DICTIONARY
  5
C
330
0
100
AcDbDictionary
281
     1
  3
ACAD_CIP_PREVIOUS_PRODUCT_INFO
350
882
  3
ACAD_COLOR
350
63
  3
ACAD_GROUP
350
D
  3
ACAD_LAYOUT
350
62
  3
ACAD_MATERIAL
350
10
  3
ACAD_MLEADERSTYLE
350
66
  3
ACAD_MLINESTYLE
350
5F
  3
ACAD_PLOTSETTINGS
350
61
  3
ACAD_PLOTSTYLENAME
350
E
  3
ACAD_SCALELIST
350
42
  3
ACAD_TABLESTYLE
350
64
  3
ACAD_VISUALSTYLE
350
29
  3
ACDB_RECOMPOSE_DATA
350
890
  3
AcDbVariableDictionary
350
76
  3
DWGPROPS
350
891
  0
DICTIONARY
  5
8CD
330
7A8
100
AcDbDictionary
280
     1
281
     1
  3
ACAD_MTEXT_RT
360
8CE
  0
XRECORD
  5
882
102
{ACAD_REACTORS
330
C
102
}
330
C
100
AcDbXrecord
280
     1
300
INVNTOR
300
2012
300
85795PDSP_2012_0F
  0
DICTIONARY
  5
63
102
{ACAD_REACTORS
330
C
102
}
330
C
100
AcDbDictionary
281
     1
  0
DICTIONARY
  5
D
102
{ACAD_REACTORS
330
C
102
}
330
C
100
AcDbDictionary
281
     1
  0
DICTIONARY
  5
62
102
{ACAD_REACTORS
330
C
102
}
330
C
100
AcDbDictionary
281
     1
  3
Layout1
350
6B
  3
Layout2
350
73
  3
Model
350
6F
  0
DICTIONARY
  5
10
102
{ACAD_REACTORS
330
C
102
}
330
C
100
AcDbDictionary
281
     1
  3
ByBlock
350
19
  3
ByLayer
350
11
  3
Global
350
21
  0
DICTIONARY
  5
66
102
{ACAD_REACTORS
330
C
102
}
330
C
100
AcDbDictionary
281
     1
  3
Standard
350
67
  0
DICTIONARY
  5
5F
102
{ACAD_REACTORS
330
C
102
}
330
C
100
AcDbDictionary
281
     1
  3
Standard
350
60
  0
DICTIONARY
  5
61
102
{ACAD_REACTORS
330
C
102
}
330
C
100
AcDbDictionary
281
     1
  0
ACDBDICTIONARYWDFLT
  5
E
102
{ACAD_REACTORS
330
C
102
}
330
C
100
AcDbDictionary
281
     1
  3
Normal
350
F
100
AcDbDictionaryWithDefault
340
F
  0
DICTIONARY
  5
42
102
{ACAD_REACTORS
330
C
102
}
330
C
100
AcDbDictionary
281
     1
  3
A0
350
43
  3
A1
350
44
  3
A2
350
45
  3
A3
350
46
  3
A4
350
47
  3
A5
350
48
  3
A6
350
49
  3
A7
350
4A
  3
A8
350
4B
  3
A9
350
4C
  3
B0
350
4D
  3
B1
350
4E
  3
B2
350
4F
  3
B3
350
50
  3
B4
350
51
  3
B5
350
52
  3
B6
350
53
  0
DICTIONARY
  5
64
102
{ACAD_REACTORS
330
C
102
}
330
C
100
AcDbDictionary
281
     1
  3
Standard
350
65
  0
DICTIONARY
  5
29
102
{ACAD_REACTORS
330
C
102
}
330
C
100
AcDbDictionary
281
     1
  3
2dWireframe
350
2F
  3
Basic
350
2E
  3
Brighten
350
35
  3
ColorChange
350
39
  3
Conceptual
350
32
  3
Dim
350
34
  3
EdgeColorOff
350
41
  3
Facepattern
350
38
  3
Flat
350
2A
  3
FlatWithEdges
350
2B
  3
Gouraud
350
2C
  3
GouraudWithEdges
350
2D
  3
Hidden
350
31
  3
JitterOff
350
3F
  3
Linepattern
350
37
  3
OverhangOff
350
40
  3
Realistic
350
33
  3
Shaded
350
3E
  3
Shaded with edges
350
3D
  3
Shades of Gray
350
3A
  3
Sketchy
350
3B
  3
Thicken
350
36
  3
Wireframe
350
30
  3
X-Ray
350
3C
  0
XRECORD
  5
890
102
{ACAD_REACTORS
330
C
102
}
330
C
100
AcDbXrecord
280
     1
 90
        1
330
65
330
52B
  0
DICTIONARY
  5
76
102
{ACAD_REACTORS
330
C
102
}
330
C
100
AcDbDictionary
281
     1
  3
CANNOSCALE
350
79
  3
CMLEADERSTYLE
350
78
  3
CTABLESTYLE
350
77
  3
DIMASSOC
350
88A
  3
HIDETEXT
350
889
  3
INDEXCTL
350
888
  3
LAYEREVAL
350
885
  3
LAYERNOTIFY
350
886
  3
LIGHTINGUNITS
350
884
  3
MSLTSCALE
350
883
  3
SORTENTS
350
887
  3
XCLIPFRAME
350
88B
  0
XRECORD
  5
891
102
{ACAD_REACTORS
330
C
102
}
330
C
100
AcDbXrecord
280
     1
  1
DWGPROPS COOKIE
  2

  3

  4
KRA
  6

  7

  8

  9
-
300
Manager=
301
Company=
302
Category=
303
Part Number=P1008-S
304
Description=P SERIES BACK PANEL MASTER VIEW
305
Project=
306
Designer=KRA
307
Engineer=
308
Authority=
309
Cost Center=
 40
0.000035625
 41
2455950.535479063
 42
2455950.535479063
  1

 90
       20
300
Vendor=
300
User Status=
300
Design Status=WorkInProgress
300
Checked by=JMG
300
Date Checked=02/12/2009
300
Engr Approved by=
300
Mfg Approved by=
300
DWG. NO=
300
NUMBER OF SHEETS=1
300
DRAWING #=1
  0
XRECORD
  5
8CE
102
{ACAD_REACTORS
330
8CD
102
}
330
8CD
100
AcDbXrecord
280
     1
 40
41495.0
  1
\A1;\U+22050.250{\PGROUND\P HOLE}
  0
LAYOUT
  5
6B
102
{ACAD_XDICTIONARY
360
8C7
102
}
102
{ACAD_REACTORS
330
62
102
}
330
62
100
AcDbPlotSettings
  1

  2

  4

  6

 40
0.0
 41
0.0
 42
0.0
 43
0.0
 44
0.0
 45
0.0
 46
0.0
 47
0.0
 48
0.0
 49
0.0
140
0.0
141
0.0
142
1.0
143
1.0
 70
   688
 72
     0
 73
     0
 74
     5
  7

 75
    16
147
1.0
148
0.0
149
0.0
100
AcDbLayout
  1
Layout1
 70
     1
 71
     1
 10
0.0
 20
0.0
 11
12.0
 21
9.0
 12
0.0
 22
0.0
 32
0.0
 14
0.0
 24
0.0
 34
0.0
 15
0.0
 25
0.0
 35
0.0
146
0.0
 13
0.0
 23
0.0
 33
0.0
 16
1.0
 26
0.0
 36
0.0
 17
0.0
 27
1.0
 37
0.0
 76
     0
330
68
  0
LAYOUT
  5
73
102
{ACAD_XDICTIONARY
360
8CB
102
}
102
{ACAD_REACTORS
330
62
102
}
330
62
100
AcDbPlotSettings
  1

  2

  4

  6

 40
0.0
 41
0.0
 42
0.0
 43
0.0
 44
0.0
 45
0.0
 46
0.0
 47
0.0
 48
0.0
 49
0.0
140
0.0
141
0.0
142
1.0
143
1.0
 70
   688
 72
     0
 73
     0
 74
     5
  7

 75
    16
147
1.0
148
0.0
149
0.0
100
AcDbLayout
  1
Layout2
 70
     1
 71
     2
 10
0.0
 20
0.0
 11
12.0
 21
9.0
 12
0.0
 22
0.0
 32
0.0
 14
0.0
 24
0.0
 34
0.0
 15
0.0
 25
0.0
 35
0.0
146
0.0
 13
0.0
 23
0.0
 33
0.0
 16
1.0
 26
0.0
 36
0.0
 17
0.0
 27
1.0
 37
0.0
 76
     0
330
70
  0
LAYOUT
  5
6F
102
{ACAD_XDICTIONARY
360
8C9
102
}
102
{ACAD_REACTORS
330
62
102
}
330
62
100
AcDbPlotSettings
  1

  2

  4

  6

 40
0.0
 41
0.0
 42
0.0
 43
0.0
 44
0.0
 45
0.0
 46
0.0
 47
0.0
 48
0.0
 49
0.0
140
0.0
141
0.0
142
1.0
143
1.0
 70
  1712
 72
     0
 73
     0
 74
     0
  7

 75
     0
147
1.0
148
0.0
149
0.0
100
AcDbLayout
  1
Model
 70
     1
 71
     0
 10
0.0
 20
0.0
 11
12.0
 21
9.0
 12
0.0
 22
0.0
 32
0.0
 14
0.0
 24
0.0
 34
0.0
 15
0.0
 25
0.0
 35
0.0
146
0.0
 13
0.0
 23
0.0
 33
0.0
 16
1.0
 26
0.0
 36
0.0
 17
0.0
 27
1.0
 37
0.0
 76
     0
330
6C
  0
MATERIAL
  5
19
102
{ACAD_XDICTIONARY
360
1A
102
}
102
{ACAD_REACTORS
330
10
102
}
330
10
100
AcDbMaterial
  1
ByBlock
 72
     0
 43
0.0208333333333333
 43
0.0
 43
0.0
 43
0.0
 43
0.0
 43
0.0208333333333333
 43
0.0
 43
0.0
 43
0.0
 43
0.0
 43
1.0
 43
0.0
 43
0.0
 43
0.0
 43
0.0
 43
1.0
 77
     0
 47
0.0208333333333333
 47
0.0
 47
0.0
 47
0.0
 47
0.0
 47
0.0208333333333333
 47
0.0
 47
0.0
 47
0.0
 47
0.0
 47
1.0
 47
0.0
 47
0.0
 47
0.0
 47
0.0
 47
1.0
171
     0
 49
0.0208333333333333
 49
0.0
 49
0.0
 49
0.0
 49
0.0
 49
0.0208333333333333
 49
0.0
 49
0.0
 49
0.0
 49
0.0
 49
1.0
 49
0.0
 49
0.0
 49
0.0
 49
0.0
 49
1.0
175
     0
142
0.0208333333333333
142
0.0
142
0.0
142
0.0
142
0.0
142
0.0208333333333333
142
0.0
142
0.0
142
0.0
142
0.0
142
1.0
142
0.0
142
0.0
142
0.0
142
0.0
142
1.0
179
     0
144
0.0208333333333333
144
0.0
144
0.0
144
0.0
144
0.0
144
0.0208333333333333
144
0.0
144
0.0
144
0.0
144
0.0
144
1.0
144
0.0
144
0.0
144
0.0
144
0.0
144
1.0
147
0.0208333333333333
147
0.0
147
0.0
147
0.0
147
0.0
147
0.0208333333333333
147
0.0
147
0.0
147
0.0
147
0.0
147
1.0
147
0.0
147
0.0
147
0.0
147
0.0
147
1.0
  0
MATERIAL
  5
11
102
{ACAD_XDICTIONARY
360
12
102
}
102
{ACAD_REACTORS
330
10
102
}
330
10
100
AcDbMaterial
  1
ByLayer
 72
     0
 43
0.0208333333333333
 43
0.0
 43
0.0
 43
0.0
 43
0.0
 43
0.0208333333333333
 43
0.0
 43
0.0
 43
0.0
 43
0.0
 43
1.0
 43
0.0
 43
0.0
 43
0.0
 43
0.0
 43
1.0
 77
     0
 47
0.0208333333333333
 47
0.0
 47
0.0
 47
0.0
 47
0.0
 47
0.0208333333333333
 47
0.0
 47
0.0
 47
0.0
 47
0.0
 47
1.0
 47
0.0
 47
0.0
 47
0.0
 47
0.0
 47
1.0
171
     0
 49
0.0208333333333333
 49
0.0
 49
0.0
 49
0.0
 49
0.0
 49
0.0208333333333333
 49
0.0
 49
0.0
 49
0.0
 49
0.0
 49
1.0
 49
0.0
 49
0.0
 49
0.0
 49
0.0
 49
1.0
175
     0
142
0.0208333333333333
142
0.0
142
0.0
142
0.0
142
0.0
142
0.0208333333333333
142
0.0
142
0.0
142
0.0
142
0.0
142
1.0
142
0.0
142
0.0
142
0.0
142
0.0
142
1.0
179
     0
144
0.0208333333333333
144
0.0
144
0.0
144
0.0
144
0.0
144
0.0208333333333333
144
0.0
144
0.0
144
0.0
144
0.0
144
1.0
144
0.0
144
0.0
144
0.0
144
0.0
144
1.0
147
0.0208333333333333
147
0.0
147
0.0
147
0.0
147
0.0
147
0.0208333333333333
147
0.0
147
0.0
147
0.0
147
0.0
147
1.0
147
0.0
147
0.0
147
0.0
147
0.0
147
1.0
  0
MATERIAL
  5
21
102
{ACAD_XDICTIONARY
360
22
102
}
102
{ACAD_REACTORS
330
10
102
}
330
10
100
AcDbMaterial
  1
Global
 72
     0
 43
0.0208333333333333
 43
0.0
 43
0.0
 43
0.0
 43
0.0
 43
0.0208333333333333
 43
0.0
 43
0.0
 43
0.0
 43
0.0
 43
1.0
 43
0.0
 43
0.0
 43
0.0
 43
0.0
 43
1.0
 77
     0
 47
0.0208333333333333
 47
0.0
 47
0.0
 47
0.0
 47
0.0
 47
0.0208333333333333
 47
0.0
 47
0.0
 47
0.0
 47
0.0
 47
1.0
 47
0.0
 47
0.0
 47
0.0
 47
0.0
 47
1.0
171
     0
 49
0.0208333333333333
 49
0.0
 49
0.0
 49
0.0
 49
0.0
 49
0.0208333333333333
 49
0.0
 49
0.0
 49
0.0
 49
0.0
 49
1.0
 49
0.0
 49
0.0
 49
0.0
 49
0.0
 49
1.0
175
     0
142
0.0208333333333333
142
0.0
142
0.0
142
0.0
142
0.0
142
0.0208333333333333
142
0.0
142
0.0
142
0.0
142
0.0
142
1.0
142
0.0
142
0.0
142
0.0
142
0.0
142
1.0
179
     0
144
0.0208333333333333
144
0.0
144
0.0
144
0.0
144
0.0
144
0.0208333333333333
144
0.0
144
0.0
144
0.0
144
0.0
144
1.0
144
0.0
144
0.0
144
0.0
144
0.0
144
1.0
147
0.0208333333333333
147
0.0
147
0.0
147
0.0
147
0.0
147
0.0208333333333333
147
0.0
147
0.0
147
0.0
147
0.0
147
1.0
147
0.0
147
0.0
147
0.0
147
0.0
147
1.0
  0
MLEADERSTYLE
  5
67
102
{ACAD_XDICTIONARY
360
88E
102
}
102
{ACAD_REACTORS
330
66
102
}
330
66
100
AcDbMLeaderStyle
170
     2
171
     1
172
     0
 90
        2
 40
0.0
 41
0.0
173
     1
 91
-1056964608
340
5B
 92
       -2
290
     1
 42
0.09
291
     1
 43
0.36
  3
Standard
 44
0.18
300

342
55
174
     1
178
     6
175
     1
176
     0
 93
-1056964608
 45
0.18
292
     0
297
     0
 46
0.18
 94
-1056964608
 47
1.0
 49
1.0
140
1.0
293
     1
141
0.0
294
     1
177
     0
142
1.0
295
     0
296
     0
143
0.125
1001
ACAD_MLEADERVER
1070
     2
  0
MLINESTYLE
  5
60
102
{ACAD_REACTORS
330
5F
102
}
330
5F
100
AcDbMlineStyle
  2
STANDARD
 70
     0
  3

 62
   256
 51
90.0
 52
90.0
 71
     2
 49
0.5
 62
   256
  6
BYLAYER
 49
-0.5
 62
   256
  6
BYLAYER
  0
ACDBPLACEHOLDER
  5
F
102
{ACAD_REACTORS
330
E
102
}
330
E
  0
SCALE
  5
43
102
{ACAD_REACTORS
330
42
102
}
330
42
100
AcDbScale
 70
     0
300
1:1
140
1.0
141
1.0
290
     1
  0
SCALE
  5
44
102
{ACAD_REACTORS
330
42
102
}
330
42
100
AcDbScale
 70
     0
300
1/128" = 1'-0"
140
0.0078125
141
12.0
290
     0
  0
SCALE
  5
45
102
{ACAD_REACTORS
330
42
102
}
330
42
100
AcDbScale
 70
     0
300
1/64" = 1'-0"
140
0.015625
141
12.0
290
     0
  0
SCALE
  5
46
102
{ACAD_REACTORS
330
42
102
}
330
42
100
AcDbScale
 70
     0
300
1/32" = 1'-0"
140
0.03125
141
12.0
290
     0
  0
SCALE
  5
47
102
{ACAD_REACTORS
330
42
102
}
330
42
100
AcDbScale
 70
     0
300
1/16" = 1'-0"
140
0.0625
141
12.0
290
     0
  0
SCALE
  5
48
102
{ACAD_REACTORS
330
42
102
}
330
42
100
AcDbScale
 70
     0
300
3/32" = 1'-0"
140
0.09375
141
12.0
290
     0
  0
SCALE
  5
49
102
{ACAD_REACTORS
330
42
102
}
330
42
100
AcDbScale
 70
     0
300
1/8" = 1'-0"
140
0.125
141
12.0
290
     0
  0
SCALE
  5
4A
102
{ACAD_REACTORS
330
42
102
}
330
42
100
AcDbScale
 70
     0
300
3/16" = 1'-0"
140
0.1875
141
12.0
290
     0
  0
SCALE
  5
4B
102
{ACAD_REACTORS
330
42
102
}
330
42
100
AcDbScale
 70
     0
300
1/4" = 1'-0"
140
0.25
141
12.0
290
     0
  0
SCALE
  5
4C
102
{ACAD_REACTORS
330
42
102
}
330
42
100
AcDbScale
 70
     0
300
3/8" = 1'-0"
140
0.375
141
12.0
290
     0
  0
SCALE
  5
4D
102
{ACAD_REACTORS
330
42
102
}
330
42
100
AcDbScale
 70
     0
300
1/2" = 1'-0"
140
0.5
141
12.0
290
     0
  0
SCALE
  5
4E
102
{ACAD_REACTORS
330
42
102
}
330
42
100
AcDbScale
 70
     0
300
3/4" = 1'-0"
140
0.75
141
12.0
290
     0
  0
SCALE
  5
4F
102
{ACAD_REACTORS
330
42
102
}
330
42
100
AcDbScale
 70
     0
300
1" = 1'-0"
140
1.0
141
12.0
290
     0
  0
SCALE
  5
50
102
{ACAD_REACTORS
330
42
102
}
330
42
100
AcDbScale
 70
     0
300
1-1/2" = 1'-0"
140
1.5
141
12.0
290
     0
  0
SCALE
  5
51
102
{ACAD_REACTORS
330
42
102
}
330
42
100
AcDbScale
 70
     0
300
3" = 1'-0"
140
3.0
141
12.0
290
     0
  0
SCALE
  5
52
102
{ACAD_REACTORS
330
42
102
}
330
42
100
AcDbScale
 70
     0
300
6" = 1'-0"
140
6.0
141
12.0
290
     0
  0
SCALE
  5
53
102
{ACAD_REACTORS
330
42
102
}
330
42
100
AcDbScale
 70
     0
300
1'-0" = 1'-0"
140
12.0
141
12.0
290
     0
  0
TABLESTYLE
  5
65
102
{ACAD_XDICTIONARY
360
88C
102
}
102
{ACAD_REACTORS
330
64
102
}
330
64
100
AcDbTableStyle
  3
Standard
 70
     0
 71
     0
 40
0.06
 41
0.06
280
     0
281
     0
  7
Standard
140
0.18
170
     2
 62
     0
 63
     7
283
     0
274
    -2
284
     1
 64
     0
275
    -2
285
     1
 65
     0
276
    -2
286
     1
 66
     0
277
    -2
287
     1
 67
     0
278
    -2
288
     1
 68
     0
279
    -2
289
     1
 69
     0
  7
Standard
140
0.25
170
     5
 62
     0
 63
     7
283
     0
274
    -2
284
     1
 64
     0
275
    -2
285
     1
 65
     0
276
    -2
286
     1
 66
     0
277
    -2
287
     1
 67
     0
278
    -2
288
     1
 68
     0
279
    -2
289
     1
 69
     0
  7
Standard
140
0.18
170
     5
 62
     0
 63
     7
283
     0
274
    -2
284
     1
 64
     0
275
    -2
285
     1
 65
     0
276
    -2
286
     1
 66
     0
277
    -2
287
     1
 67
     0
278
    -2
288
     1
 68
     0
279
    -2
289
     1
 69
     0
  0
VISUALSTYLE
  5
2F
102
{ACAD_XDICTIONARY
360
89F
102
}
102
{ACAD_REACTORS
330
29
102
}
330
29
100
AcDbVisualStyle
  2
2dWireframe
 70
     4
 71
     0
 72
     2
 73
     0
 90
        0
 40
-0.6
 41
-30.0
 62
     5
 63
     7
 74
     1
 91
        4
 64
     7
 65
   257
 75
     1
175
     1
 42
1.0
 92
        0
 66
   257
 43
1.0
 76
     1
 77
     6
 78
     2
 67
     7
 79
     5
170
     0
171
     0
290
     0
174
     0
 93
        1
 44
0.0
173
     0
291
     0
 45
0.0
1001
ACAD
1000
AcDbSavedByObjectVersion
1070
     0
  0
VISUALSTYLE
  5
2E
102
{ACAD_XDICTIONARY
360
89D
102
}
102
{ACAD_REACTORS
330
29
102
}
330
29
100
AcDbVisualStyle
  2
Basic
 70
     7
 71
     1
 72
     0
 73
     1
 90
        0
 40
-0.6
 41
-30.0
 62
     5
 63
     7
 74
     0
 91
        4
 64
     7
 65
   257
 75
     1
175
     1
 42
1.0
 92
        8
 66
     7
 43
1.0
 76
     1
 77
     6
 78
     2
 67
     7
 79
     5
170
     0
171
     0
290
     0
174
     0
 93
        1
 44
0.0
173
     0
291
     1
 45
0.0
1001
ACAD
1000
AcDbSavedByObjectVersion
1070
     0
  0
VISUALSTYLE
  5
35
102
{ACAD_XDICTIONARY
360
8AB
102
}
102
{ACAD_REACTORS
330
29
102
}
330
29
100
AcDbVisualStyle
  2
Brighten
 70
    12
 71
     2
 72
     2
 73
     0
 90
        0
 40
-0.6
 41
-30.0
 62
     5
 63
     7
 74
     1
 91
        4
 64
     7
 65
   257
 75
     1
175
     1
 42
1.0
 92
        8
 66
     7
 43
1.0
 76
     1
 77
     6
 78
     2
 67
     7
 79
     5
170
     0
171
     0
290
     0
174
     0
 93
        1
 44
50.0
173
     0
291
     1
 45
0.0
1001
ACAD
1000
AcDbSavedByObjectVersion
1070
     0
  0
VISUALSTYLE
  5
39
102
{ACAD_XDICTIONARY
360
8B3
102
}
102
{ACAD_REACTORS
330
29
102
}
330
29
100
AcDbVisualStyle
  2
ColorChange
 70
    16
 71
     2
 72
     2
 73
     3
 90
        0
 40
-0.6
 41
-30.0
 62
     5
 63
     8
 74
     1
 91
        4
 64
     7
 65
   257
 75
     1
175
     1
 42
1.0
 92
        8
 66
     8
 43
1.0
 76
     1
 77
     6
 78
     2
 67
     7
 79
     5
170
     0
171
     0
290
     0
174
     0
 93
        1
 44
0.0
173
     0
291
     1
 45
0.0
1001
ACAD
1000
AcDbSavedByObjectVersion
1070
     0
  0
VISUALSTYLE
  5
32
102
{ACAD_XDICTIONARY
360
8A5
102
}
102
{ACAD_REACTORS
330
29
102
}
330
29
100
AcDbVisualStyle
  2
Conceptual
 70
     9
 71
     3
 72
     2
 73
     0
 90
        0
 40
-0.6
 41
-30.0
 62
     5
 63
     7
 74
     2
 91
        2
 64
     7
 65
   257
 75
     1
175
     1
 42
179.0
 92
        8
 66
     7
 43
1.0
 76
     1
 77
     6
 78
     2
 67
     7
 79
     3
170
     0
171
     0
290
     0
174
     0
 93
        1
 44
0.0
173
     0
291
     0
 45
0.0
1001
ACAD
1000
AcDbSavedByObjectVersion
1070
     0
  0
VISUALSTYLE
  5
34
102
{ACAD_XDICTIONARY
360
8A9
102
}
102
{ACAD_REACTORS
330
29
102
}
330
29
100
AcDbVisualStyle
  2
Dim
 70
    11
 71
     2
 72
     2
 73
     0
 90
        0
 40
-0.6
 41
-30.0
 62
     5
 63
     7
 74
     1
 91
        4
 64
     7
 65
   257
 75
     1
175
     1
 42
1.0
 92
        8
 66
     7
 43
1.0
 76
     1
 77
     6
 78
     2
 67
     7
 79
     5
170
     0
171
     0
290
     0
174
     0
 93
        1
 44
-50.0
173
     0
291
     1
 45
0.0
1001
ACAD
1000
AcDbSavedByObjectVersion
1070
     0
  0
VISUALSTYLE
  5
41
102
{ACAD_XDICTIONARY
360
8C3
102
}
102
{ACAD_REACTORS
330
29
102
}
330
29
100
AcDbVisualStyle
  2
EdgeColorOff
 70
    22
 71
     2
 72
     2
 73
     0
 90
        0
 40
-0.6
 41
-30.0
 62
     5
 63
     7
 74
     1
 91
        4
 64
     7
 65
   257
 75
     1
175
     1
 42
1.0
 92
        8
 66
     7
 43
1.0
 76
     1
 77
     6
 78
     2
 67
     7
 79
     5
170
     0
171
     0
290
     0
174
     0
 93
        1
 44
0.0
173
     0
291
     1
 45
0.0
1001
ACAD
1000
AcDbSavedByObjectVersion
1070
     0
  0
VISUALSTYLE
  5
38
102
{ACAD_XDICTIONARY
360
8B1
102
}
102
{ACAD_REACTORS
330
29
102
}
330
29
100
AcDbVisualStyle
  2
Facepattern
 70
    15
 71
     2
 72
     2
 73
     0
 90
        0
 40
-0.6
 41
-30.0
 62
     5
 63
     7
 74
     1
 91
        4
 64
     7
 65
   257
 75
     1
175
     1
 42
1.0
 92
        8
 66
     7
 43
1.0
 76
     1
 77
     6
 78
     2
 67
     7
 79
     5
170
     0
171
     0
290
     0
174
     0
 93
        1
 44
0.0
173
     0
291
     1
 45
0.0
1001
ACAD
1000
AcDbSavedByObjectVersion
1070
     0
  0
VISUALSTYLE
  5
2A
102
{ACAD_XDICTIONARY
360
895
102
}
102
{ACAD_REACTORS
330
29
102
}
330
29
100
AcDbVisualStyle
  2
Flat
 70
     0
 71
     2
 72
     1
 73
     1
 90
        2
 40
-0.6
 41
30.0
 62
     5
 63
     7
 74
     0
 91
        0
 64
     7
 65
   257
 75
     1
175
     1
 42
1.0
 92
        8
 66
     7
 43
1.0
 76
     1
 77
     6
 78
     2
 67
     7
 79
     5
170
     0
171
     0
290
     0
174
     0
 93
       13
 44
0.0
173
     0
291
     1
 45
0.0
1001
ACAD
1000
AcDbSavedByObjectVersion
1070
     0
  0
VISUALSTYLE
  5
2B
102
{ACAD_XDICTIONARY
360
897
102
}
102
{ACAD_REACTORS
330
29
102
}
330
29
100
AcDbVisualStyle
  2
FlatWithEdges
 70
     1
 71
     2
 72
     1
 73
     1
 90
        2
 40
-0.6
 41
30.0
 62
     5
 63
     7
 74
     1
 91
        0
 64
     7
 65
   257
 75
     1
175
     1
 42
1.0
 92
        0
 66
   257
 43
1.0
 76
     1
 77
     6
 78
     2
 67
     7
 79
     5
170
     0
171
     0
290
     0
174
     0
 93
       13
 44
0.0
173
     0
291
     1
 45
0.0
1001
ACAD
1000
AcDbSavedByObjectVersion
1070
     0
  0
VISUALSTYLE
  5
2C
102
{ACAD_XDICTIONARY
360
899
102
}
102
{ACAD_REACTORS
330
29
102
}
330
29
100
AcDbVisualStyle
  2
Gouraud
 70
     2
 71
     2
 72
     2
 73
     1
 90
        2
 40
-0.6
 41
30.0
 62
     5
 63
     7
 74
     0
 91
        0
 64
     7
 65
   257
 75
     1
175
     1
 42
1.0
 92
        0
 66
     7
 43
1.0
 76
     1
 77
     6
 78
     2
 67
     7
 79
     5
170
     0
171
     0
290
     0
174
     0
 93
       13
 44
0.0
173
     0
291
     1
 45
0.0
1001
ACAD
1000
AcDbSavedByObjectVersion
1070
     0
  0
VISUALSTYLE
  5
2D
102
{ACAD_XDICTIONARY
360
89B
102
}
102
{ACAD_REACTORS
330
29
102
}
330
29
100
AcDbVisualStyle
  2
GouraudWithEdges
 70
     3
 71
     2
 72
     2
 73
     1
 90
        2
 40
-0.6
 41
30.0
 62
     5
 63
     7
 74
     1
 91
        0
 64
     7
 65
   257
 75
     1
175
     1
 42
1.0
 92
        0
 66
   257
 43
1.0
 76
     1
 77
     6
 78
     2
 67
     7
 79
     5
170
     0
171
     0
290
     0
174
     0
 93
       13
 44
0.0
173
     0
291
     1
 45
0.0
1001
ACAD
1000
AcDbSavedByObjectVersion
1070
     0
  0
VISUALSTYLE
  5
31
102
{ACAD_XDICTIONARY
360
8A3
102
}
102
{ACAD_REACTORS
330
29
102
}
330
29
100
AcDbVisualStyle
  2
Hidden
 70
     6
 71
     1
 72
     2
 73
     2
 90
        0
 40
-0.6
 41
-30.0
 62
     5
 63
     7
 74
     2
 91
        2
 64
     7
 65
   257
 75
     2
175
     1
 42
40.0
 92
        0
 66
   257
 43
1.0
 76
     1
 77
     6
 78
     2
 67
     7
 79
     3
170
     0
171
     0
290
     0
174
     0
 93
        1
 44
0.0
173
     0
291
     0
 45
0.0
1001
ACAD
1000
AcDbSavedByObjectVersion
1070
     0
  0
VISUALSTYLE
  5
3F
102
{ACAD_XDICTIONARY
360
8BF
102
}
102
{ACAD_REACTORS
330
29
102
}
330
29
100
AcDbVisualStyle
  2
JitterOff
 70
    20
 71
     2
 72
     2
 73
     0
 90
        0
 40
-0.6
 41
-30.0
 62
     5
 63
     7
 74
     1
 91
        4
 64
     7
 65
   257
 75
     1
175
     1
 42
1.0
 92
       10
 66
     7
 43
1.0
 76
     1
 77
     6
 78
     2
 67
     7
 79
     5
170
     0
171
     0
290
     0
174
     0
 93
        1
 44
0.0
173
     0
291
     1
 45
0.0
1001
ACAD
1000
AcDbSavedByObjectVersion
1070
     0
  0
VISUALSTYLE
  5
37
102
{ACAD_XDICTIONARY
360
8AF
102
}
102
{ACAD_REACTORS
330
29
102
}
330
29
100
AcDbVisualStyle
  2
Linepattern
 70
    14
 71
     2
 72
     2
 73
     0
 90
        0
 40
-0.6
 41
-30.0
 62
     5
 63
     7
 74
     1
 91
        4
 64
     7
 65
   257
 75
     7
175
     7
 42
1.0
 92
        8
 66
     7
 43
1.0
 76
     1
 77
     6
 78
     2
 67
     7
 79
     5
170
     0
171
     0
290
     0
174
     0
 93
        1
 44
0.0
173
     0
291
     1
 45
0.0
1001
ACAD
1000
AcDbSavedByObjectVersion
1070
     0
  0
VISUALSTYLE
  5
40
102
{ACAD_XDICTIONARY
360
8C1
102
}
102
{ACAD_REACTORS
330
29
102
}
330
29
100
AcDbVisualStyle
  2
OverhangOff
 70
    21
 71
     2
 72
     2
 73
     0
 90
        0
 40
-0.6
 41
-30.0
 62
     5
 63
     7
 74
     1
 91
        4
 64
     7
 65
   257
 75
     1
175
     1
 42
1.0
 92
        9
 66
     7
 43
1.0
 76
     1
 77
     6
 78
     2
 67
     7
 79
     5
170
     0
171
     0
290
     0
174
     0
 93
        1
 44
0.0
173
     0
291
     1
 45
0.0
1001
ACAD
1000
AcDbSavedByObjectVersion
1070
     0
  0
VISUALSTYLE
  5
33
102
{ACAD_XDICTIONARY
360
8A7
102
}
102
{ACAD_REACTORS
330
29
102
}
330
29
100
AcDbVisualStyle
  2
Realistic
 70
     8
 71
     2
 72
     3
 73
     0
 90
        2
 40
-0.6
 41
30.0
 62
     5
 63
     7
 74
     0
 91
        0
 64
     7
 65
   257
 75
     1
175
     1
 42
1.0
 92
        8
 66
   257
 43
1.0
 76
     1
 77
     6
 78
     2
 67
     7
 79
     3
170
     0
171
     0
290
     0
174
     0
 93
       13
 44
0.0
173
     0
291
     0
 45
0.0
1001
ACAD
1000
AcDbSavedByObjectVersion
1070
     0
  0
VISUALSTYLE
  5
3E
102
{ACAD_XDICTIONARY
360
8BD
102
}
102
{ACAD_REACTORS
330
29
102
}
330
29
100
AcDbVisualStyle
  2
Shaded
 70
    27
 71
     2
 72
     2
 73
     1
 90
        2
 40
-0.6
 41
30.0
 62
     5
 63
     7
 74
     0
 91
        4
 64
     7
 65
   257
 75
     1
175
     1
 42
1.0
 92
        8
 66
   257
 43
1.0
 76
     1
 77
     6
 78
     2
 67
     8
 79
     3
170
     0
171
     0
290
     0
174
     0
 93
        5
 44
0.0
173
     0
291
     0
 45
0.0
1001
ACAD
1000
AcDbSavedByObjectVersion
1070
     0
  0
VISUALSTYLE
  5
3D
102
{ACAD_XDICTIONARY
360
8BB
102
}
102
{ACAD_REACTORS
330
29
102
}
330
29
100
AcDbVisualStyle
  2
Shaded with edges
 70
    26
 71
     2
 72
     2
 73
     1
 90
        2
 40
-0.6
 41
30.0
 62
     5
 63
     7
 74
     1
 91
       10
 64
     7
 65
   257
 75
     2
175
     1
 42
1.0
 92
        8
 66
   257
 43
1.0
 76
     1
 77
     6
 78
     2
 67
     7
 79
     3
170
     0
171
     0
290
     0
174
     0
 93
        5
 44
0.0
173
     0
291
     0
 45
0.0
1001
ACAD
1000
AcDbSavedByObjectVersion
1070
     0
  0
VISUALSTYLE
  5
3A
102
{ACAD_XDICTIONARY
360
8B5
102
}
102
{ACAD_REACTORS
330
29
102
}
330
29
100
AcDbVisualStyle
  2
Shades of Gray
 70
    23
 71
     2
 72
     2
 73
     3
 90
        0
 40
-0.6
 41
-30.0
 62
     5
 63
     7
 74
     2
 91
        2
 64
     7
 65
     7
 75
     1
175
     1
 42
40.0
 92
        8
 66
     7
 43
1.0
 76
     1
 77
     6
 78
     2
 67
     7
 79
     3
170
     0
171
     0
290
     0
174
     0
 93
        1
 44
0.0
173
     0
291
     0
 45
0.0
1001
ACAD
1000
AcDbSavedByObjectVersion
1070
     0
  0
VISUALSTYLE
  5
3B
102
{ACAD_XDICTIONARY
360
8B7
102
}
102
{ACAD_REACTORS
330
29
102
}
330
29
100
AcDbVisualStyle
  2
Sketchy
 70
    24
 71
     1
 72
     2
 73
     2
 90
        0
 40
-0.6
 41
-30.0
 62
     5
 63
     7
 74
     2
 91
        2
 64
     7
 65
     7
 75
     1
175
     1
 42
40.0
 92
       11
 66
     7
 43
1.0
 76
     1
 77
     6
 78
     2
 67
     7
 79
     6
170
     0
171
     0
290
     0
174
     0
 93
        1
 44
0.0
173
     0
291
     0
 45
0.0
1001
ACAD
1000
AcDbSavedByObjectVersion
1070
     0
  0
VISUALSTYLE
  5
36
102
{ACAD_XDICTIONARY
360
8AD
102
}
102
{ACAD_REACTORS
330
29
102
}
330
29
100
AcDbVisualStyle
  2
Thicken
 70
    13
 71
     2
 72
     2
 73
     0
 90
        0
 40
-0.6
 41
-30.0
 62
     5
 63
     7
 74
     1
 91
        4
 64
     7
 65
   257
 75
     1
175
     1
 42
1.0
 92
       12
 66
     7
 43
1.0
 76
     1
 77
     6
 78
     2
 67
     7
 79
     5
170
     0
171
     0
290
     0
174
     0
 93
        1
 44
0.0
173
     0
291
     1
 45
0.0
1001
ACAD
1000
AcDbSavedByObjectVersion
1070
     0
  0
VISUALSTYLE
  5
30
102
{ACAD_XDICTIONARY
360
8A1
102
}
102
{ACAD_REACTORS
330
29
102
}
330
29
100
AcDbVisualStyle
  2
Wireframe
 70
     5
 71
     0
 72
     2
 73
     0
 90
        0
 40
-0.6
 41
-30.0
 62
     5
 63
     7
 74
     1
 91
        4
 64
     7
 65
   257
 75
     1
175
     1
 42
1.0
 92
        0
 66
   257
 43
1.0
 76
     1
 77
     6
 78
     2
 67
     7
 79
     3
170
     0
171
     0
290
     0
174
     0
 93
        1
 44
0.0
173
     0
291
     0
 45
0.0
1001
ACAD
1000
AcDbSavedByObjectVersion
1070
     0
  0
VISUALSTYLE
  5
3C
102
{ACAD_XDICTIONARY
360
8B9
102
}
102
{ACAD_REACTORS
330
29
102
}
330
29
100
AcDbVisualStyle
  2
X-Ray
 70
    25
 71
     2
 72
     2
 73
     1
 90
        1
 40
0.5
 41
-30.0
 62
     5
 63
     7
 74
     1
 91
        0
 64
     7
 65
   257
 75
     1
175
     1
 42
1.0
 92
        8
 66
     7
 43
1.0
 76
     1
 77
     6
 78
     2
 67
     7
 79
     3
170
     0
171
     0
290
     0
174
     0
 93
       13
 44
0.0
173
     0
291
     0
 45
0.0
1001
ACAD
1000
AcDbSavedByObjectVersion
1070
     0
  0
DICTIONARYVAR
  5
79
102
{ACAD_REACTORS
330
76
102
}
330
76
100
DictionaryVariables
280
     0
  1
1:1
  0
DICTIONARYVAR
  5
78
102
{ACAD_REACTORS
330
76
102
}
330
76
100
DictionaryVariables
280
     0
  1
STANDARD
  0
DICTIONARYVAR
  5
77
102
{ACAD_REACTORS
330
76
102
}
330
76
100
DictionaryVariables
280
     0
  1
STANDARD
  0
DICTIONARYVAR
  5
88A
102
{ACAD_REACTORS
330
76
102
}
330
76
100
DictionaryVariables
280
     0
  1
1
  0
DICTIONARYVAR
  5
889
102
{ACAD_REACTORS
330
76
102
}
330
76
100
DictionaryVariables
280
     0
  1
1
  0
DICTIONARYVAR
  5
888
102
{ACAD_REACTORS
330
76
102
}
330
76
100
DictionaryVariables
280
     0
  1
0
  0
DICTIONARYVAR
  5
885
102
{ACAD_REACTORS
330
76
102
}
330
76
100
DictionaryVariables
280
     0
  1
0
  0
DICTIONARYVAR
  5
886
102
{ACAD_REACTORS
330
76
102
}
330
76
100
DictionaryVariables
280
     0
  1
0
  0
DICTIONARYVAR
  5
884
102
{ACAD_REACTORS
330
76
102
}
330
76
100
DictionaryVariables
280
     0
  1
2
  0
DICTIONARYVAR
  5
883
102
{ACAD_REACTORS
330
76
102
}
330
76
100
DictionaryVariables
280
     0
  1
1
  0
DICTIONARYVAR
  5
887
102
{ACAD_REACTORS
330
76
102
}
330
76
100
DictionaryVariables
280
     0
  1
127
  0
DICTIONARYVAR
  5
88B
102
{ACAD_REACTORS
330
76
102
}
330
76
100
DictionaryVariables
280
     0
  1
2
  0
DICTIONARY
  5
8C7
330
6B
100
AcDbDictionary
280
     1
281
     1
  3
ACAD_XREC_ROUNDTRIP
360
8C8
  0
DICTIONARY
  5
8CB
330
73
100
AcDbDictionary
280
     1
281
     1
  3
ACAD_XREC_ROUNDTRIP
360
8CC
  0
DICTIONARY
  5
8C9
330
6F
100
AcDbDictionary
280
     1
281
     1
  3
ACAD_XREC_ROUNDTRIP
360
8CA
  0
DICTIONARY
  5
1A
330
19
100
AcDbDictionary
280
     1
281
     1
  3
ACAD_XREC_ROUNDTRIP
360
893
  3
BUMPTILE
360
1C
  3
DIFFUSETILE
360
1B
  3
OPACITYTILE
360
1F
  3
REFLECTIONTILE
360
1E
  3
REFRACTIONTILE
360
20
  3
SPECULARTILE
360
1D
  0
DICTIONARY
  5
12
330
11
100
AcDbDictionary
280
     1
281
     1
  3
ACAD_XREC_ROUNDTRIP
360
892
  3
BUMPTILE
360
14
  3
DIFFUSETILE
360
13
  3
FBXASSET
360
10B
  3
OPACITYTILE
360
17
  3
REFLECTIONTILE
360
16
  3
REFRACTIONTILE
360
18
  3
SPECULARTILE
360
15
  0
DICTIONARY
  5
22
330
21
100
AcDbDictionary
280
     1
281
     1
  3
ACAD_XREC_ROUNDTRIP
360
894
  3
BUMPTILE
360
24
  3
DIFFUSETILE
360
23
  3
FBXASSET
360
BA
  3
OPACITYTILE
360
27
  3
REFLECTIONTILE
360
26
  3
REFRACTIONTILE
360
28
  3
SPECULARTILE
360
25
  0
DICTIONARY
  5
88E
330
67
100
AcDbDictionary
280
     1
281
     1
  3
ACAD_XREC_ROUNDTRIP
360
88F
  0
DICTIONARY
  5
88C
330
65
100
AcDbDictionary
280
     1
281
     1
  3
ACAD_ROUNDTRIP_2008_TABLESTYLE_CELLSTYLEMAP
360
88D
  3
ACAD_XREC_ROUNDTRIP
360
8C5
  0
DICTIONARY
  5
89F
330
2F
100
AcDbDictionary
280
     1
281
     1
  3
ACAD_XREC_ROUNDTRIP
360
8A0
  0
DICTIONARY
  5
89D
330
2E
100
AcDbDictionary
280
     1
281
     1
  3
ACAD_XREC_ROUNDTRIP
360
89E
  0
DICTIONARY
  5
8AB
330
35
100
AcDbDictionary
280
     1
281
     1
  3
ACAD_XREC_ROUNDTRIP
360
8AC
  0
DICTIONARY
  5
8B3
330
39
100
AcDbDictionary
280
     1
281
     1
  3
ACAD_XREC_ROUNDTRIP
360
8B4
  0
DICTIONARY
  5
8A5
330
32
100
AcDbDictionary
280
     1
281
     1
  3
ACAD_XREC_ROUNDTRIP
360
8A6
  0
DICTIONARY
  5
8A9
330
34
100
AcDbDictionary
280
     1
281
     1
  3
ACAD_XREC_ROUNDTRIP
360
8AA
  0
DICTIONARY
  5
8C3
330
41
100
AcDbDictionary
280
     1
281
     1
  3
ACAD_XREC_ROUNDTRIP
360
8C4
  0
DICTIONARY
  5
8B1
330
38
100
AcDbDictionary
280
     1
281
     1
  3
ACAD_XREC_ROUNDTRIP
360
8B2
  0
DICTIONARY
  5
895
330
2A
100
AcDbDictionary
280
     1
281
     1
  3
ACAD_XREC_ROUNDTRIP
360
896
  0
DICTIONARY
  5
897
330
2B
100
AcDbDictionary
280
     1
281
     1
  3
ACAD_XREC_ROUNDTRIP
360
898
  0
DICTIONARY
  5
899
330
2C
100
AcDbDictionary
280
     1
281
     1
  3
ACAD_XREC_ROUNDTRIP
360
89A
  0
DICTIONARY
  5
89B
330
2D
100
AcDbDictionary
280
     1
281
     1
  3
ACAD_XREC_ROUNDTRIP
360
89C
  0
DICTIONARY
  5
8A3
330
31
100
AcDbDictionary
280
     1
281
     1
  3
ACAD_XREC_ROUNDTRIP
360
8A4
  0
DICTIONARY
  5
8BF
330
3F
100
AcDbDictionary
280
     1
281
     1
  3
ACAD_XREC_ROUNDTRIP
360
8C0
  0
DICTIONARY
  5
8AF
330
37
100
AcDbDictionary
280
     1
281
     1
  3
ACAD_XREC_ROUNDTRIP
360
8B0
  0
DICTIONARY
  5
8C1
330
40
100
AcDbDictionary
280
     1
281
     1
  3
ACAD_XREC_ROUNDTRIP
360
8C2
  0
DICTIONARY
  5
8A7
330
33
100
AcDbDictionary
280
     1
281
     1
  3
ACAD_XREC_ROUNDTRIP
360
8A8
  0
DICTIONARY
  5
8BD
330
3E
100
AcDbDictionary
280
     1
281
     1
  3
ACAD_XREC_ROUNDTRIP
360
8BE
  0
DICTIONARY
  5
8BB
330
3D
100
AcDbDictionary
280
     1
281
     1
  3
ACAD_XREC_ROUNDTRIP
360
8BC
  0
DICTIONARY
  5
8B5
330
3A
100
AcDbDictionary
280
     1
281
     1
  3
ACAD_XREC_ROUNDTRIP
360
8B6
  0
DICTIONARY
  5
8B7
330
3B
100
AcDbDictionary
280
     1
281
     1
  3
ACAD_XREC_ROUNDTRIP
360
8B8
  0
DICTIONARY
  5
8AD
330
36
100
AcDbDictionary
280
     1
281
     1
  3
ACAD_XREC_ROUNDTRIP
360
8AE
  0
DICTIONARY
  5
8A1
330
30
100
AcDbDictionary
280
     1
281
     1
  3
ACAD_XREC_ROUNDTRIP
360
8A2
  0
DICTIONARY
  5
8B9
330
3C
100
AcDbDictionary
280
     1
281
     1
  3
ACAD_XREC_ROUNDTRIP
360
8BA
  0
XRECORD
  5
8C8
102
{ACAD_REACTORS
330
8C7
102
}
330
8C7
100
AcDbXrecord
280
     1
102
SHADEPLOT
 70
     0
102
SHADEPLOTRESLEVEL
 70
     2
102
SHADEPLOTCUSTOMDPI
 70
   300
  0
XRECORD
  5
8CC
102
{ACAD_REACTORS
330
8CB
102
}
330
8CB
100
AcDbXrecord
280
     1
102
SHADEPLOT
 70
     0
102
SHADEPLOTRESLEVEL
 70
     2
102
SHADEPLOTCUSTOMDPI
 70
   300
  0
XRECORD
  5
8CA
102
{ACAD_REACTORS
330
8C9
102
}
330
8C9
100
AcDbXrecord
280
     1
102
SHADEPLOT
 70
     0
102
SHADEPLOTRESLEVEL
 70
     2
102
SHADEPLOTCUSTOMDPI
 70
   300
  0
XRECORD
  5
893
102
{ACAD_REACTORS
330
1A
102
}
330
1A
100
AcDbXrecord
280
     1
102
MATERIAL
148
0.0
149
0.0
149
0.0
 93
        0
 94
      127
282
     0
 72
     0
 77
     0
171
     0
175
     0
179
     0
273
     0
  0
XRECORD
  5
1C
102
{ACAD_REACTORS
330
1A
102
}
330
1A
100
AcDbXrecord
280
     1
270
     1
271
     1
  0
XRECORD
  5
1B
102
{ACAD_REACTORS
330
1A
102
}
330
1A
100
AcDbXrecord
280
     1
270
     1
271
     1
  0
XRECORD
  5
1F
102
{ACAD_REACTORS
330
1A
102
}
330
1A
100
AcDbXrecord
280
     1
270
     1
271
     1
  0
XRECORD
  5
1E
102
{ACAD_REACTORS
330
1A
102
}
330
1A
100
AcDbXrecord
280
     1
270
     1
271
     1
  0
XRECORD
  5
20
102
{ACAD_REACTORS
330
1A
102
}
330
1A
100
AcDbXrecord
280
     1
270
     1
271
     1
  0
XRECORD
  5
1D
102
{ACAD_REACTORS
330
1A
102
}
330
1A
100
AcDbXrecord
280
     1
270
     1
271
     1
  0
XRECORD
  5
892
102
{ACAD_REACTORS
330
12
102
}
330
12
100
AcDbXrecord
280
     1
102
MATERIAL
148
0.0
149
0.0
149
0.0
 93
        0
 94
      127
282
     0
 72
     0
 77
     0
171
     0
175
     0
179
     0
273
     0
  0
XRECORD
  5
14
102
{ACAD_REACTORS
330
12
102
}
330
12
100
AcDbXrecord
280
     1
270
     1
271
     1
  0
XRECORD
  5
13
102
{ACAD_REACTORS
330
12
102
}
330
12
100
AcDbXrecord
280
     1
270
     1
271
     1
  0
XRECORD
  5
10B
102
{ACAD_REACTORS
330
12
102
}
330
12
100
AcDbXrecord
280
     1
 70
     1
 90
1959938040
 71
     1
  1
FE95024D-F3D4-4F96-81E6-3FA368833C3C
311
504B03040A0000080000646637403DEE336E79000000790000001B0000006175746F6465736B2D64657369676E2D7061636B6167652E786D6C3C3F786D6C2076657273696F6E3D22312E302220656E636F64696E673D227574662D3822203F3E3C666F726D6174733E3C666F726D61743E687474703A2F2F736368656D612E
311
6175746F6465736B2E636F6D2F64657369676E2D7061636B6167652F323030393C2F666F726D61743E3C2F666F726D6174733E504B030414000608080064663740D486FD9CA0000000F4000000130000005B436F6E74656E745F54797065735D2E786D6C7D8EC10E82300C865F65E91D8A1E8C310C0EEA1BF002731658846E
311
D98AC1B77784ABF1D8FE5FBFBF75BBCE937A534CCEB38643598122B6FEE978D0B0485F9C41B54DDD7D022595594E1A469170414C76A4D9A4D207E29CF43ECE46F218070CC6BECC4078ACAA135ACF422C856C0E68EA1BF5669944DDD7BCDE7B1F8E415D77AECB980613C2E4AC91FC167A2B244592486606FC29C8FD7F045B9A
311
EF7053A7E60B504B03041400060808006466374049257F47E90000007C01000008000000636F72652E786D6C8D904D6EC3201085AF82668F0D76DCB81626223F37E8051010172506CB40D5E31712476A775DCDE8CDFB66468F1DBEE73BFA326BB0DE8D402B02C838E5B575D308295E710FE8C0D9EA7DFC6503E4E46C462832
311
7036AD3E2D9BA4BC8BC6C5AC3AAFCD26CA104C04A4EEB91921A84F33CB4AA6981DE1562D52DDE4642AFAEA329C92D5E879C4EABCCF5EAD5981EF48B7DF9F84C097F6F48E777BD1E19ED20B3EF6DDF97CEC84A082B2BAC09C453BBFEEABD5C86834F086D006138A9BF68336434707D263F23610C2EA62FF03A545FF134AD6C5
311
B6D9DE7D62017879E431E0AC2E59E4F2082AD7921BFF01504B03041400060808006466374055019EA25F0000007C00000007000000636E782E786D6C4DCB3B0E80201045D1AD90E915ED2CF8AC45050C11660C8261F98AB1B07AC9C97D42D718D865D3E909258CFD00CCE24AC6E326A164D74DC0B4128928FF326038472BA1
311
3128B1252AC747C6BAB984FC68F0B87FE8960A5C09FE86CFB69FBA01504B0304140006080800646637400CFCBEC465010000020300000C0000006662782F636F72652E786D6C8D52ED8E8320107C15C27F046CBDF61AA4B11F6F702F40957AA60A06C1F4F16FFD68BC5E9AE66282646667777654ECEF4D8D7AEDBACA9A14F3
311
8861A44D6E8BCA94290EFE4AB618EDA570D6FA5F651819D5E8140F3096A27436B433945BE3B5F1801A5BE819545DA73D46790D971477F9B76E54A482878AEE16B52ABFA952473C021AEAA4E8BC0303681A329C585E2F7741275C8A10AA6266AB02A655D74A3B2CD72CD96C8E5946CEABE327596FB2846C393F93C336399D0E
311
4996F18C0B3A88A5F055F370973BADBC2EB08C198F09E3245E7DF17897F01DDB12F6B1634CD0A1FC4914DAE29FA25019BF8A67BB93ACC3723032127FB685883CEA540F7EA8147408115E63C2CF41432010B25797FAB1C70DA05EE7DEBA3530850D0BD5AB3A6898CAD0F8083AB1D0796C009BBDEC13BFE9F3BE077C40654AB0
311
A63C5C2FC10FD3C534758EA2D58EF4FE8E8C758DAA177393C5E55C06BD94E7B6B6EE3F6A3AAF4AE730E9F0F7CA1F504B030414000608080064663740C901D7277E0000009D0000000B0000006662782F636E782E786D6C4DCCD10A83201886E15B91FFDCB5FEAC3950630BBB8F581692E9703A76F9ABD1C18E3E78F87845FB
311
591D799BF8B2C14B284F6720C63FC268FD2C21A7897220AD123184F47703E287D548D819949863C8CF8346330DD9A54D9DF5CB81A5D63DD31A29F2A6A7AC46A4FC86775A754DC5B0EE18BB5EA050A2F895B6DDC3EA0B504B030414000608080064663740DF6506CA2A01000014020000310000006662782F31454546344545
311
322D323836462D343532322D384132422D3343363334323543343439372F636F72652E786D6C8D51CB6EC32010FC15C4293D6003C6AE1361A23672BEA03FE01892A0C460F1A8F2F985DA91DA5B2E2C9A9D991DEDF2FD63BA836FE5BCB6A683A4C01028335AA9CDA583319C510BC15E70676DF84383C00C93EA6086A1E01767
311
E3BC42A3354199905063A55AC1C17B152018EFE9D3413F5ED53414430C89E16FC53C8CB7E1A20A52A476E209EE834B01C03224BF5090BE3FB2BEA788B6CD11B19A52D47ED04F541D9A8AD1FAC0D8F69D978B50F018B55CE55AA638FAAC957BD5248B050F7A7AC61F9D1A829250504C28C204D1EA8BD05D4D76B845B8D961CC
311
CB4CFF278AB37C5114B509155DE32E329FB2F27269082E6D3CDD9F61D463B62E803C6FE3D5F806052E30C535215BC6CB859A16903C1BB67AFA605D5AF0E6764A6C522FC60D13BCCC374AE5F780A9E67B8A1F504B0304140006080800646637406F58EA874D01000033030000300000006662782F31454546344545322D3238
311
36462D343532322D384132422D3343363334323543343439372F636E782E786D6CD593CD6E022114855F85B09F1F466B8C6130E9A24FD045B70857A53230E1A7A96FDF8BA275E3A2CB6EC8E4DCC339375F18BEFD9E2CF982108D7723656D4F0938E5B5718791E6B46FD6946C050FDEA7071B254E4E30D22253C10FC1E7B94A
311
1AF632DB84AA35EE54C500D1E7A020A25C6E12EB95B41800AEC928C2B403AD4193BB11BFF6107015147767928E40DE5E3F88DF7D824A91772545F0AE74085ECEDAF460A2445919E348A33AC2245B9993D7104FAD9649B6ACBD753DD9E93789940BB7CA1C0C29E5232D271575A31639F20E8782C714905E35A5F30C54C879B6
311
46C98490BB8BF1EA113C1B9756CBEA35083EA09BAD16CB25865D668227334175A8003281A662E8D9D0F4AC1916EF6CD8BCB04DBF6EFAD5A6EF7957EC82EFBCB7F512C640F03351DE2570890AC6BB327E86AFFA88360159FB70FE034804505BAF74EE19FF994F7779DF882BE05F207E00504B03041400060808006466374066
311
E2121C9C0500007B100000340000006662782F31454546344545322D323836462D343532322D384132422D3343363334323543343439372F6F626A656374732E786D6CAD575D739B3814FD2B0CFB0C18E364931D4227B1E38EA79BB6534F3BFB90198F0C8268233E4612A9B3BF7E8F406070EDD4BBD3174042BABAF7DC733F
311
14BEDBE5DC7AA142B2B2B8B17D77625BB488CB8415D98D5DABD4B9B2AD775128CA520D96D95641727A63EB693B0A3351D695994A684A6AAE0E6697777F5932A605B5AD9813296F6C193FD19CB8A4566542E5B39B1045DC2CDDB9BEDB2E1C8BCD04A99E0E845644D0424153CC179062B54AF9E3E1C4F6A2D0D3FFA3503FCDAA
311
E0F42AAFB1677C3E2BA42245FCC3610762027FB6B89F5E5C3B17B359E0CC2EA7BE73B7BC5B38FEEFC1647E399F5FDFDE5FE360A90424194D044DEDE83DB0112C0EBDF65714D6AC50C1D42C310EF2047D61DA537634B5FCD06BD7F4D619238FA91F974541E3062BA0D1D8674427B4A245029F332AA1D900A1C978E86B1C07BF
311
033D36470EA7CF4360B86320A8D3BD7B0F352DB77FC304790E8384A49A812D96C6D096AB933DC2DBB2E4E61F93564E14158C708BB3AD20E2D58EB0542F89C29118CD64A1A3415B6047F042FB7B4C1784D1CF797E4CCBB4E65CD3D88E9A28D82056A8928D66EC1F2AF6DA0F91814EF09566C3953148BD56D48EAE5B8A5C1DB0
311
A905D24A39C9E07298A97706D30343E73A4E570B3BFAB0DCEED63A768F1F5E89B2A24269FA805A9DE3BAB746C9E8E49FE539BDC13E50650FCA1720FF11A1BE57057E136C37DBCDCC294A9042A6A5C8E11B6B6239133C2696DF3CF5F7E02BF4FACD63EF9DC213CED650FD023CC7360C7D3980330A5F40F85204C6B4754C38D2
311
C6032B00902689C54B4C210FA7DB9D1DAD90E59095B18BF0C887C950F7059FA167C4205134270DDE05B03C488B672468C0D630126AB4E4370AEEFDF4433A6B0E36CB4EC17BF14BE87ABB587F58D72225317D3031BDA0292B984289DBF366A8D008F39145CFF4F57B291218FA23DEEB21DEB9394A026D8DB9063EEB72BA1EEC
311
4F1E1D10635F56EA7413FEE40418A10BEB40FE039331E59C14B4ACBB73DFAC1F281B2DC43AD83593FB02B32F2C204DFBE7200651A463C12A0D625FADFAA4E99EB0EEEBEA2318694777AF7F92D761F6DAEE736F5CF2526CB6AF9B362D1D85FADB98DB06034F4B01DD9B20E9E2DF80BE49589AD61249F008AEDF56F3A1EF745A
311
408AE8A4B6D13283FD082E220C693BB9A8D682A09296C586A16E22EE8E1E30940F480D031A81A7349694A71BC6799D6F52C6518D3639A94EC0F1FFF5DFD679B521795917EA84EC91EAA80E63DD47EC95DF898A9FEC68DDBC9D3BE4DE842627C8A06BC911AC46AE5DDE5F5F4CA6B385B30C163367B6BCBE74AEFCFB4B2758DE
311
0697575741300F60BAD1A869A2A2B02B35C388869750DAC25A30E3BEAF2BC48F490276F440947C7CDF8667F7FEBA72D10B871EF6A05EF61B6F9317F47D34F9B980FDCAA3825679C5694E0B45740C3DE80FFE85A0CF1829D3CEAF7292D133A47C7ABF3E30063367ECFBACE39D7E3FD86B66E73A208F0A514F75BE2D08E3071B
311
B31649B72A32835FE793FEDD169A6EA847C631E84C65C959823C9858192D73AA900DCF284222A712D41BF6F489B97B9CB1FBA5ED1015D972DA69F244D0247389B000C9EB588DE7ADDFD0D4E9BEEAC646B9759FF13099C2B6C0991B1B4DBA623195EE16055AB7428D707069D8C983B3A4C8387AED76533FEE77696C4625B95F
311
724EFF64EC6A53B8310069A442DF808608DE699489C24637F33FFE4F8677EA5844E1735BABDE96FD446F4C730C42B435CADC16D0C43C9BA37708D4B7CDF2DD66CD0891B36E596F92A095EA2822B2E6A6A0F5332ADD2E3E7BE850ACD527ABE275065F9E2FC9111464AE75808345608591591105AACEFF78FC2C4ADC64736BC9
311
4081C77999E7656106B7E6266CAD9F70AF4D1E9116A8BE90C8C7E9C49F3E3617017337D96C89A42E49E43326E053C17A88478E0723DBDB222A50FBA35FE769271C7073B5B04C499B41A821CA30AB6A58D07214D442F4E8CBA48E95E182EACDBB80D72C850A025D7CF42F504B03041400060800006466374000000000000000
311
0000000000350000006662782F31454546344545322D323836462D343532322D384132422D3343363334323543343439372F76657274696365732E62696E504B030414000608080064663740F270F1330600000004000000360000006662782F31454546344545322D323836462D343532322D384132422D33433633343235
311
43343439372F747269616E676C65732E62696E636660600000504B030414000608000064663740000000000000000000000000370000006662782F31454546344545322D323836462D343532322D384132422D3343363334323543343439372F617474726962757465732E62696E504B030414000608080064663740D5987D
311
FC8F00000041010000360000006662782F31454546344545322D323836462D343532322D384132422D3343363334323543343439372F6469726563746F72792E786D6C858F410EC2201045AF4266AF15DDB800BA74E7C21B903225242D6328188F2FA5C4183471359997F9FF81E89FF3C41E1816475E02DF1F80A11FC8386F
311
25A438EECEC07A250251FC3803E6F58C12560C4AD840E95E91C151A72936F496F35732D860FE635F62C8F2DA16B505C545B74125BAA2FA9E05D7CC053D063734D5C7665FD55B6B8D15D5E9BFEAFD8490FFA45E504B030414000608080064663740F4EC1C86FB000000A00100003B0000006662782F31454546344545322D32
311
3836462D343532322D384132422D3343363334323543343439372F7265736F75726365732F636F72652E786D6C8D50596E833010BD0A9A7F830DA190C83822CB0D7A01CB4C522BC1465EAA1EBF76A052FBD79F99D15B344F8F1FBFE667F189CE6B6B06602585028DB29336F70162B8911E8AA3E0CEDAF04B068591330E9061
311
10FCEE6C5C36485913D084841A3BE1064AEF3140A19EE918C0AB0F9C652963480AFF2817A91EF28E252B139D7482FBE05280627D92270887DE46A7D0F36A65058F514F9B464FE9A7BE69742076B4EDBAF3B827D7E6BC27BB6E6C49CFD8959CFAF67239B5E3C846C6AB6C163CE8F927A37228034E206ACA6A4219A99B77561F
311
5A76A03DA16F074A7995E57F4C7199FE698ADA84A6DEE2AE360F220779118257B9AFB45E65A69DBB15DF504B010214000A0000080000646637403DEE336E79000000790000001B00000000000000000000000000000000006175746F6465736B2D64657369676E2D7061636B6167652E786D6C504B01021400140006080800
311
64663740D486FD9CA0000000F40000001300000000000000000000000000B20000005B436F6E74656E745F54797065735D2E786D6C504B010214001400060808006466374049257F47E90000007C010000080000000000000000000000000083010000636F72652E786D6C504B010214001400060808006466374055019EA2
311
5F0000007C000000070000000000000000000000000092020000636E782E786D6C504B01021400140006080800646637400CFCBEC465010000020300000C00000000000000000000000000160300006662782F636F72652E786D6C504B0102140014000608080064663740C901D7277E0000009D0000000B00000000000000
311
000000000000A50400006662782F636E782E786D6C504B0102140014000608080064663740DF6506CA2A0100001402000031000000000000000000000000004C0500006662782F31454546344545322D323836462D343532322D384132422D3343363334323543343439372F636F72652E786D6C504B010214001400060808
311
00646637406F58EA874D010000330300003000000000000000000000000000C50600006662782F31454546344545322D323836462D343532322D384132422D3343363334323543343439372F636E782E786D6C504B010214001400060808006466374066E2121C9C0500007B10000034000000000000000000000000006008
311
00006662782F31454546344545322D323836462D343532322D384132422D3343363334323543343439372F6F626A656374732E786D6C504B010214001400060800006466374000000000000000000000000035000000000000000000000000004E0E00006662782F31454546344545322D323836462D343532322D38413242
311
2D3343363334323543343439372F76657274696365732E62696E504B0102140014000608080064663740F270F13306000000040000003600000000000000000000000000A10E00006662782F31454546344545322D323836462D343532322D384132422D3343363334323543343439372F747269616E676C65732E62696E50
311
4B01021400140006080000646637400000000000000000000000003700000000000000000000000000FB0E00006662782F31454546344545322D323836462D343532322D384132422D3343363334323543343439372F617474726962757465732E62696E504B0102140014000608080064663740D5987DFC8F000000410100
311
003600000000000000000000000000500F00006662782F31454546344545322D323836462D343532322D384132422D3343363334323543343439372F6469726563746F72792E786D6C504B0102140014000608080064663740F4EC1C86FB000000A00100003B00000000000000000000000000331000006662782F31454546
311
344545322D323836462D343532322D384132422D3343363334323543343439372F7265736F75726365732F636F72652E786D6C504B0506000000000E000E0080040000871100000000
310
504B03040A0000080000636637403DEE336E79000000790000001B0000006175746F6465736B2D64657369676E2D7061636B6167652E786D6C3C3F786D6C2076657273696F6E3D22312E302220656E636F64696E673D227574662D3822203F3E3C666F726D6174733E3C666F726D61743E687474703A2F2F736368656D612E
310
6175746F6465736B2E636F6D2F64657369676E2D7061636B6167652F323030393C2F666F726D61743E3C2F666F726D6174733E504B030414000608080063663740D486FD9CA0000000F4000000130000005B436F6E74656E745F54797065735D2E786D6C7D8EC10E82300C865F65E91D8A1E8C310C0EEA1BF002731658846E
310
D98AC1B77784ABF1D8FE5FBFBF75BBCE937A534CCEB38643598122B6FEE978D0B0485F9C41B54DDD7D022595594E1A469170414C76A4D9A4D207E29CF43ECE46F218070CC6BECC4078ACAA135ACF422C856C0E68EA1BF5669944DDD7BCDE7B1F8E415D77AECB980613C2E4AC91FC167A2B244592486606FC29C8FD7F045B9A
310
EF7053A7E60B504B030414000608080063663740032C71B9E90000007C01000008000000636F72652E786D6C8D90D16EC3200C457F25F23B0926CDBA46842A8DDA2FD80F20A0196A035180699F3FD2A6D2F6B6275BD7F7D8D6E5C7EFE95E7C992558EF3AC09242619CF2DABAB18314AFE41D8AA3E08BF7F1970D0A2727D3C1
310
2A83E0E3E2D3BC49CABB685CCCAAF3DA6CA20CC14428D43D371D04F5692659CA14B323DCCA59AA9B1C4D89AF2EC329595D3C8F589DF7D9AB350B88BA39D013E24086E1D4931D6243FAFD9911DC9FF140F1325CFA1DAF5658F068A7D77DB518198D06C128324291B0FA0359DB604BF784BEB594F26AB5FF81D2ACFF0925EB62
310
CDB6779F580081F991C740F06ACD22974750B9AEB9891F504B03041400060808006366374055019EA25F0000007C00000007000000636E782E786D6C4DCB3B0E80201045D1AD90E915ED2CF8AC45050C11660C8261F98AB1B07AC9C97D42D718D865D3E909258CFD00CCE24AC6E326A164D74DC0B4128928FF326038472BA1
310
3128B1252AC747C6BAB984FC68F0B87FE8960A5C09FE86CFB69FBA01504B030414000608080063663740DD9E72D265010000020300000C0000006662782F636F72652E786D6C8D52ED8EC220107C15C27F0A543DEF0CC568A34F702F802DF6882D34141A1FFFB61FC6F3628C6942C9CCCEEEECB4627B6D6AD46BDF196733CC
310
138691B6852B8DAD321CC3997C62B495C23B17FE94616455A3333CC0588ACABBD8CE50E16CD036006A5DA96750759D0E1815355C32DC153FBA51898A012ABA4BD2AAE2A22A9DF00468A893A20B1E0CA069C87062793E5D059D70296234E5CC9A12A699B3D11ECBC5EA8BED39CF499EEF7764C9F98AECD68794F0F5817F317E
310
CC8FBBA5A083588A609A9BBBC26B15748965CA784A1827E9E29BA79B15DFB035611F1BC6041DCA1F44B12DDF144563C3229DED4EB20E4B0E4646E2DFB61051409DEAC10F95820E21C26B4CF831680804420EEA54DFF6B800D4EB2238BF04A674F14EF5AA8E1AA632343E824E2C741E1BC0664FFBA42FFABCEE011F50D90AAC
310
A900D7530CC374314D9DA368B5277DB822EB7CA3EABBB9C9E2FDBC0F7A2A2F5CEDFC3B6A3AAF4AE730E9F0F7CA5F504B0304140006080800636637404D1A155C7E0000009D0000000B0000006662782F636E782E786D6C4DCCDF0A83201C86E15B91DFB9CB32FC036AB4DA85C4B290990EA76397BF1A1DECE883878F57759F
310
CDA3B74D2F178386FA4200D9708FB30BAB8692172C007546A518F3DF0D509836ABE160306A4DB13C4F9AED32159F77F52E3C4E6CD9781B07CA3127BCC6AD6CAE585042715FD35E0E94492618544655BFD2BE47D87C01504B030414000608080063663740D61C31952901000014020000310000006662782F34364445444333
310
372D373037312D343932422D383330332D4131334139433336393638362F636F72652E786D6C8D51CB6EC32010FC15C4293D608371B11361A234E91FF40728901425068B4795CF2FAE1DA9BDE5C2A2D999D9D12EDFDFC71BF836215AEF06482A0C8171CA6BEB2E03CCE98C7A08F68207EFD31F1A044E8E6680330C05BF049F
310
A71552DE25E352419DD76605658C2641A06EE533C0A8BECC282B995361C46B35497595175391AAB40B4FF0984209009621F30B45CB4EEFA723ED50873B82DA6DF3867A8A293A107AD81E29DBB29EF17A110A9EB3D5ABDCEA12C79EAD09CF9ACC62C1931D1FF1553032190D4583498330410DFD20CDEE95EC708730DB61CCEB
310
99FE4F9427FDA4285B9768B3C65D64110AC2EBA521B8F6F9F3F60863EE930F09CCF336D1A8172870851BD2D28EF6BC5EA86501C593B5AB674C3E94056FAE9F854D5763D60A5ECF372AE5F780A5CEF7143F504B030414000608080063663740C5360A255401000033030000300000006662782F34364445444333372D373037
310
312D343932422D383330332D4131334139433336393638362F636E782E786D6CBD93CD6E022114855F85B09F5FEDD41806932EFA045D748B70552A03137E9AFAF6BD285A372E9A34DD90C9B987736EBE306CF33519F2093E686747DAD52D2560A553DAEE479AE2AE5A51B2E1CC3B17EF6C945831C148B34C39DB7B97E62229
310
D8896422AA46DB63113D0497BC848072BE498C93C26000D82AA108D3169402456E46FCDA81C75550DC9E483C00797D79276EFB013206D6E414CE9ADCC1593E4BD39D8912694408230DF20093A8458A4E4138D64A445177F5B5EBC14E3F49245FB85626AF492E1F693E292F1BD5C8913538E42C448FF48A299E66A05CCCB3D1
310
524484DC9C8D170F6749DB382C8B5723788FEE453FAC5618769E7116F504C5213D88088AF2BEEDFAAAEDAA7EF1D6F5EBA76EDD3E57EDB06E5BD6643B675BE74CB98431E0DD4CA4B3116CA4BC634D1E3FC2577C44698FAC9D3FFD02240228AD173AB78CBFE4D30D8BE5F21FF934E7F78DB83CFE05FC1B504B03041400060808
310
0063663740B3A4004C5A070000941B0000340000006662782F34364445444333372D373037312D343932422D383330332D4131334139433336393638362F6F626A656374732E786D6CED59DD739B3810FF5718EED9D8042797DC103A89DD743C77693BF5B5730F99616490892E42309248E3FBEB6FF5010662127CCDBDF5C1
310
0684B4DAFDEDA796F0DD534E9D47CC0529D8A5EB7B33D7C12C2952C2B24BB792DBC9B9EBBC8B425E14B235CD7518CAF1A5AB86DD28CC7851957628C55B5451D91BBDB9FECB110966D875128A84B87445728F73E4A14A1629160F5E8A24F2B2ED93E77B6662976CC65179DF235A228E99044E619C0115C730E5771F67EE340A
310
A7EA7D14AA7F3B2B18356B3E3C6BAAA5EE724998908825CF58EA910946B114F8F3E5FB93D38BC9E97C1E4CE66727FEE4FAE67A39F17F0D668BB3C5E2E2EAFD05B0B7290A6A654A7189590AFADBB9911F4ED59B46748BC021AE9382319C6820012A2D569F20C102B66AC137EB3EFA4AA2D66B2D61EB79AEDE5B165AC34197CA
310
D0AC714074E8822076BB5AE2FADA96AFD8FC0D828B3146C90596C0AD901CB46BE1E1E0156E340BA766340A377B5D10E1E448624E107528D970C4412930554D8942B3C09251CEC18194A324D09A33AFBBB6059EF9BAEB1CE2725B51AA3CC38DB463C5E07E580ACD19F907F33DF76D64802790B6224C9E5B2EE5AEC46E74114E
310
F56014AA4B70625F1A209D2D4599D08898B73D4117CAF5574B37FAFD66F3B456E1E0F0E6252F4ACCA5323AA547CD1718B2BD2A94ECB6FE28CDA905208C01D5AEDC83F20590FF08D163CF0AE88D93A7F9D3DCCE951C31B12D780EBA7166CE64067F33C7D7FFEABE75174E9BC55DED0DE1096EAAA03AFF713CBB3268AC2CFF2D
310
38A3F0110CBEE0817DB54E10057BBE250C005246E2D0028620B46F374F6EB482C009811E56211AF92032B0FB08B7E1D492D96BA5762FEB750C10B57B04639404B0698B043606F4F401B20727C95E4D6D1187E03D7D1373BD5AAE7F5F577C8B127C6B7D7A89B784110959F330431DCC3B123DE0DDF782A720E873BCD76DBC73
310
BB9500B415E60AF8AC06413DEC77EE6C90C0BAAC50E1267C65071042E5EA16FD5B22124C2962B8A8EA7D9BE8A60CB5F1785B33B8D189813838E99930C78F445515E034FB191D4621EF279C940A4437FA60246B82A63720DDD7D547B0C866FEC0AC1583D0CB10FD5307AD0338742CBB46DA02D108BCD987F3A4A0058F37BBD8
310
443A176A0960A3EB2DDF3A4421D61B25292AE041DAEFEA90921969E3946CB79580B87A80C56FAB45DB1C665EE09F3AEDFF9E33CE21DA82EF226EFDAEB7474C7294E1788BD2A1EDDABB35B4852639409AE32D05B9C82391BB18C97896E2EC18688E227EF1A6D4335A0841181690AF0E82DF4663E6412031DAAC59565AED014D
310
449C6389E83108283203E0EAB4A36BDC044A87D7796CACF7258DB589FE4F16C111D492058B0994A290435E65DCF74E218674D13528F7F0056BAB696B3168052544B28BBF6392DDCB635037E407704FE04852C9B8285102663D82EC335F514AEDF1BE41C983CA1F7152D1B7321081E936269456790C3FC2E0E431C6B59BC0F4
310
220A2DE226F6499C43518664C5C76C72763A7BB68FA919FA21B0B5D1965008DB718ECA01D43B0151D7234E03BEA53EA0D44D959731CA8B8A8D32142FE87B9325DF57AB223B925F552A42D95813B604A39030D964D53A6683A9EBC00A6EA403D52E16282FA93985BD9278FCC69B34E5C10DB8F5D3B7DD2087C26F407BED883A
310
AF61B03C760A03F11DC9E4DE8DD6FA3AB986FA3BC5E93ED5D7B566BB0204C45424AF38B12AFABA82F2C6D6686E748BA4B8FB60B26E7DFDBAF2A0FB114E610DD42ECDC295023AC74C225599DCAA1BFA054108EED030E32B95538FA17295A6BA6A44F4860CA9B353467436CD8957DE6356E4F063778425B44AF11D4AC5437C2B
310
69BC268A752BA597931AE31705FCF461DD8307464688F4591578F87B6FAD1D5DA872E92011795FE51B860804C18E6899D18D57B2CC6AA4D6727355670AA8BBC0C0AC8AE73F4F16ED76C4CF9345660DE3874E16D7BB3FD0AEDD1769A5F344D9F551C780263F292A6F710CD06D87866A93454C32B7F25B678A2128D6517E7435
310
56070D437088E3FF9CB587B2A0D9AEC7FF7159DB7F56711C95553A935597EA40E5BA6AE7B09BF717A7B393F97272132CE793F9CDC5D9E4DC7F7F36096EAE82B3F3F32058048B064DEDA851D804339DBBE0D904B57A583D590CA02B2B0A4A5238CDA74E8621E64B38D38F689FF31C0B489EED66776A9BF223563F9A3EA7441B
310
8A6B4EEE113488A980B40E185589EC8E3BBF406B52C241FBD285A691F7007FD62A5D0732CFA50BAD0249122CBC0DB49954434F138794AB73BF2506F82096A994681635CFCD2A854D27FC3753C6A4012B57A78701855B09DDAF4E8742F366794A8E12BC66C741126E3795846ACDC8B21F6884D1DBECD56F64A3843DD8AD9FC0
310
755F16CBF7F49C0E22A33E19BC680486EA44229EE97EB762CCB274B5FC3C853E9BB3FAE494B4CA4097E3294D380663AE5441055604566169964882A92E7EBBFBCC0BF8C4933BBA2ABA5B14795E30FB7005E7B1143E1139EB7BF8E093DE41D980555B5DDC9DCCFC933BDDCEB61DF6788304F6543D04037519A144E8191B58E4
310
B3D6946D5C4E95127AD3574BC7864F6803180B7AD6DD359FB71CF01EF52145F98AF6F05ACE173BDA533D15AC81432F3AFA17504B030414000608000063663740000000000000000000000000350000006662782F34364445444333372D373037312D343932422D383330332D4131334139433336393638362F766572746963
310
65732E62696E504B030414000608080063663740F270F1330600000004000000360000006662782F34364445444333372D373037312D343932422D383330332D4131334139433336393638362F747269616E676C65732E62696E636660600000504B0304140006080000636637400000000000000000000000003700000066
310
62782F34364445444333372D373037312D343932422D383330332D4131334139433336393638362F617474726962757465732E62696E504B030414000608080063663740D5987DFC8F00000041010000360000006662782F34364445444333372D373037312D343932422D383330332D4131334139433336393638362F6469
310
726563746F72792E786D6C858F410EC2201045AF4266AF15DDB800BA74E7C21B903225242D6328188F2FA5C4183471359997F9FF81E89FF3C41E1816475E02DF1F80A11FC8386F25A438EECEC07A250251FC3803E6F58C12560C4AD840E95E91C151A72936F496F35732D860FE635F62C8F2DA16B505C545B74125BAA2FA9E
310
05D7CC053D063734D5C7665FD55B6B8D15D5E9BFEAFD8490FFA45E504B03041400060808006366374010875F21FC000000A00100003B0000006662782F34364445444333372D373037312D343932422D383330332D4131334139433336393638362F7265736F75726365732F636F72652E786D6C8D504B6EC23010BD4A347B
310
279E849412394604C1097A01CB198205B1913F558F5F0752A9DD7533337A1FCDD313FBAFF95E7C920FC6D91EB0E45090D56E3476EA21C50B7B87622F85772EFE924161D54C3D2C30483179971E2BA49D8D646346AD1B6905550814A1D0F77CF410F4956655AA14B322DCCA87D23735518965A6B34E8A107D0E50BC9E2C13A4
310
A7E092D71444F562A548C98CABC68CF9A7B918F2209B76C707C4811D8FC3816D105B76D89E6A86DB13EE389E8FE7C346548B598A68E69F8CDA938A3482AC39D68C23AB9B0FACBB163BBE65FCADE35C548BFC8F293DC67F9A92B1B1A9D7B82F5B008939C89390A25AFACAEB5966DE4BB7F21B504B010214000A000008000063
310
6637403DEE336E79000000790000001B00000000000000000000000000000000006175746F6465736B2D64657369676E2D7061636B6167652E786D6C504B0102140014000608080063663740D486FD9CA0000000F40000001300000000000000000000000000B20000005B436F6E74656E745F54797065735D2E786D6C504B
310
0102140014000608080063663740032C71B9E90000007C010000080000000000000000000000000083010000636F72652E786D6C504B010214001400060808006366374055019EA25F0000007C000000070000000000000000000000000092020000636E782E786D6C504B0102140014000608080063663740DD9E72D26501
310
0000020300000C00000000000000000000000000160300006662782F636F72652E786D6C504B01021400140006080800636637404D1A155C7E0000009D0000000B00000000000000000000000000A50400006662782F636E782E786D6C504B0102140014000608080063663740D61C31952901000014020000310000000000
310
00000000000000004C0500006662782F34364445444333372D373037312D343932422D383330332D4131334139433336393638362F636F72652E786D6C504B0102140014000608080063663740C5360A2554010000330300003000000000000000000000000000C40600006662782F34364445444333372D373037312D3439
310
32422D383330332D4131334139433336393638362F636E782E786D6C504B0102140014000608080063663740B3A4004C5A070000941B00003400000000000000000000000000660800006662782F34364445444333372D373037312D343932422D383330332D4131334139433336393638362F6F626A656374732E786D6C50
310
4B01021400140006080000636637400000000000000000000000003500000000000000000000000000121000006662782F34364445444333372D373037312D343932422D383330332D4131334139433336393638362F76657274696365732E62696E504B0102140014000608080063663740F270F133060000000400000036
310
00000000000000000000000000651000006662782F34364445444333372D373037312D343932422D383330332D4131334139433336393638362F747269616E676C65732E62696E504B01021400140006080000636637400000000000000000000000003700000000000000000000000000BF1000006662782F343644454443
310
33372D373037312D343932422D383330332D4131334139433336393638362F617474726962757465732E62696E504B0102140014000608080063663740D5987DFC8F000000410100003600000000000000000000000000141100006662782F34364445444333372D373037312D343932422D383330332D4131334139433336
310
393638362F6469726563746F72792E786D6C504B010214001400060808006366374010875F21FC000000A00100003B00000000000000000000000000F71100006662782F34364445444333372D373037312D343932422D383330332D4131334139433336393638362F7265736F75726365732F636F72652E786D6C504B0506
310
000000000E000E00800400004C1300000000
  0
XRECORD
  5
17
102
{ACAD_REACTORS
330
12
102
}
330
12
100
AcDbXrecord
280
     1
270
     1
271
     1
  0
XRECORD
  5
16
102
{ACAD_REACTORS
330
12
102
}
330
12
100
AcDbXrecord
280
     1
270
     1
271
     1
  0
XRECORD
  5
18
102
{ACAD_REACTORS
330
12
102
}
330
12
100
AcDbXrecord
280
     1
270
     1
271
     1
  0
XRECORD
  5
15
102
{ACAD_REACTORS
330
12
102
}
330
12
100
AcDbXrecord
280
     1
270
     1
271
     1
  0
XRECORD
  5
894
102
{ACAD_REACTORS
330
22
102
}
330
22
100
AcDbXrecord
280
     1
102
MATERIAL
148
0.0
149
0.0
149
0.0
 93
        0
 94
      127
282
     0
 72
     0
 77
     0
171
     0
175
     0
179
     0
273
     0
  0
XRECORD
  5
24
102
{ACAD_REACTORS
330
22
102
}
330
22
100
AcDbXrecord
280
     1
270
     1
271
     1
  0
XRECORD
  5
23
102
{ACAD_REACTORS
330
22
102
}
330
22
100
AcDbXrecord
280
     1
270
     1
271
     1
  0
XRECORD
  5
BA
102
{ACAD_REACTORS
330
22
102
}
330
22
100
AcDbXrecord
280
     1
 70
     1
 90
1959938040
 71
     1
  1
6A8C7611-70AA-4E19-8505-BA162962F229
311
504B03040A0000080000636637403DEE336E79000000790000001B0000006175746F6465736B2D64657369676E2D7061636B6167652E786D6C3C3F786D6C2076657273696F6E3D22312E302220656E636F64696E673D227574662D3822203F3E3C666F726D6174733E3C666F726D61743E687474703A2F2F736368656D612E
311
6175746F6465736B2E636F6D2F64657369676E2D7061636B6167652F323030393C2F666F726D61743E3C2F666F726D6174733E504B030414000608080063663740D486FD9CA0000000F4000000130000005B436F6E74656E745F54797065735D2E786D6C7D8EC10E82300C865F65E91D8A1E8C310C0EEA1BF002731658846E
311
D98AC1B77784ABF1D8FE5FBFBF75BBCE937A534CCEB38643598122B6FEE978D0B0485F9C41B54DDD7D022595594E1A469170414C76A4D9A4D207E29CF43ECE46F218070CC6BECC4078ACAA135ACF422C856C0E68EA1BF5669944DDD7BCDE7B1F8E415D77AECB980613C2E4AC91FC167A2B244592486606FC29C8FD7F045B9A
311
EF7053A7E60B504B0304140006080800636637406248E43BEA0000007C01000008000000636F72652E786D6C8D90D18E832010457F85CC3B0A68B5354853E3FA05FB0304A925AD600436FBF98BAD4D76DFF6692677EE99995C7EFE9E1FE84BAFDE38DB02CD08206D951B8D9D5A88E18A8F80CE82AFCE855F364056CEBA854D
311
06C1A7D5C5659794B341DB9054EB46BD8BD27B1D00A9476A5AF0EAA66799C91892C3DFB345AABB9C7446DF5D826334237A1D3163DA67AE46AF202AD20F7D397CE0AA63275C9EC8051F0F25C34571A4755775977EA879BEC1820733BFEFAB55CBA047108C508609C5ACF8A4AC39D086D498540D213CDFEC7FA0B88CFF84A2B1
311
A160FBBB2FCC83A0E991E740F07CCB22956750A96EB9891F504B03041400060808006366374055019EA25F0000007C00000007000000636E782E786D6C4DCB3B0E80201045D1AD90E915ED2CF8AC45050C11660C8261F98AB1B07AC9C97D42D718D865D3E909258CFD00CCE24AC6E326A164D74DC0B4128928FF326038472B
311
A13128B1252AC747C6BAB984FC68F0B87FE8960A5C09FE86CFB69FBA01504B030414000608080063663740A2A3EBB267010000020300000C0000006662782F636F72652E786D6C8D52ED8E8320107C15C27F043F6A3F82346D7A7D827B01AAD433553008A68F7FEB47E3F5D2348D0992999DDDD951BEBF3735EA95ED2AA333
311
1C060C23A5735354BACCB07757B2C1682FB835C6FD29C348CB46657880B1E0A535BE9DA1DC68A7B403549B42CDA0EC3AE530CA6BB864B8CB7F542303E91D5474B7A095F94D962A0803A0A14EF0CE593080A621C389C5F572E774C205F7BE2A66B62A605A75AD94C52265A7F329397F91F4186D49B26507B259251189E34DB8
311
3EA6C7C3E9BCE674100BEEAAE6E12EB74A3A556011B130222C2451FC1D46BB55B8636BC2D21D639C0EE54F22DF161F8A7CA55D1CCD7627598745084646E2DFB61091439DECC10F159C0E21C26B4CF8396808044276F2523FF6B801D4ABDC199B005318BF50BDACBD82A90C8D0FA7130B9DC706B0D9CB3ED19B3EEF7BC00794
311
BA046BD2C1F5E2DD309D4F53E7285A6549EFEE481BDBC87A3137595CCE65D04B796E6A633F51D379553A874987BF57FC02504B030414000608080063663740C82243597E0000009D0000000B0000006662782F636E782E786D6C4DCCD10AC2201886E15B91FFDCE61F2B0DD4D15ADEC7686EC89C866974F96DB1838E3E78F8
311
7865F3593C79DBF4723128C0030362C3230E2E4C0A4A1EA900D2689962CC7F3720A15FAC828D41CB29C5F2DC69B0635F7C5ED5BB30EF28448DAC331D15678EB436FC4EAF1C8F1499E18C5F6E276C5BA8B4AC7EA575B7B0FE02504B030414000608080063663740AC811E092B01000014020000310000006662782F38383431
311
304446442D383637312D344637452D413731322D3130463730373943353142422F636F72652E786D6C8D51CB6E833010FC15E4537A006C07308D8CA3A669BEA03FE018875A0936F2A3CAE77729446A6FB978ADD999D9D12EDFDFC75BF6AD7D30CE7688141865DA2AD71B3B7428C54BDEA26C2FB8772EFEA1A1CCCA51776886
311
91E08377695A21E56CD436026A5DAF575086A023CAD40D3E1D0AEA4B8FB2902902235C8B49AAAB1C74410A68034FF0103D04C89621F38B44DB56041F4FC7BC6D18C9AB13FBC8DF18A139C12786D9EB7B4D0E075E2E42C15332FD2A373DC43117A3FDB326B358F068C6477CE5B58CBA4782629888494EB79F84EE6AB2C32CC7
311
CD0E635ECEF47FA234F54F8A92B1714BD7B88B2C204178B93404EF5D3ADF1E61F47D723E66F3BC4DD0EA05095C608A598D29E5E5428505806753AD9E213A0F0BDE5CCFC026F562DC548297F38DA0FC1E10EA7C4FF103504B030414000608080063663740A391C5324D01000033030000300000006662782F38383431304446
311
442D383637312D344637452D413731322D3130463730373943353142422F636E782E786D6CD593CD6E022114855F85B09F1F466B1BC360D2459FA08B6E11AE4A6560C24F53DFBE1745EBC64597DD90C9B987736EBE307CF33D59F205211AEF46CADA9E1270CA6BE3F623CD69D7BC50B2113C789FEE6C943839C1488B4C05DF
311
079FE72A69D8C96C13AAD6B8631503449F83828872B949AC57D26200B826A308D316B4064D6E46FCDA41C05550DC9E483A00797BFD207EFB092A45DE9514C1BBD22178396BD39D891265658C238DEA00936C654E5E433CB65A26D9B2F6DAF560A7DF24522E5C2B7330A4948FB49C54D48D5AE4C83B1C0A1E53407AD5944E33
311
5021E7D91A251342EECEC68B47F06C5C5A2DABD720F8806EB65A2C9718769E099ECC04D5A102C8049A8AA16743D3B36658BCB361FDC4D6FD73D3AFD67DCFBB62177CEBBDAD973006829F89F22E814B5430DE95F1237CD547B409C8DA87D31F402280DA7AA173CBF8CF7CBAF3FB465C01FF02F103504B030414000608080063
311
66374042F41BCA9B0500007A100000340000006662782F38383431304446442D383637312D344637452D413731322D3130463730373943353142422F6F626A656374732E786D6CAD575D6FA33814FD2B887DCE0749DA695694519AB4A368D4996AA219ED43A5C880A1DE1A8C6CD349F7D7EF31180299A4CDAEE62504737D7D
311
EFB9E77ED8FFB8CBB8F342A56222BF76BDE1D875681E8998E5E9B55BEA6470E53A1F035F0AA13B62AE93938C5EBB66D90DFC548AB2B04B314D48C9F5C1EADDCD5F8E8A684E5D27E244A96B57454F342343526A1153F53C8C8926C334D90DBD612DD8579B4A523C1D282D88A4B986A558CFA1C5A98DF2FAAF637714F823F33D
311
F0CDAF959A9E961A55FEF4CF67B9D2248F7E39EC40CDD49BAD6E2717F3C1C56C361DCC2E27DEE0E6EE6635F03E4CC7CBCBE572BEB89DE360A52534594B244DDCE013B0912CF247F5A7C02F59AEA7132B62033492F4859948B9C1C4F1FC512DD37A679D3C667E24F29C46155640A3F2CFAA8E6941F318316754C1B20E42E3FE
311
AB6770EC7C9E9A777B6477F93C04BA3B3A8A1ADB9B67D75211FE0D17D4390C928A1A06D6585A476BAE8EF708874270FB8D2927239A4A46B8C35928897C7503881A91C0EFA9314C96261B8C076E8028D49FFB74411ABDCFF363562625E786C66E5065C116B942B5AA2C63FF50B9B7BE8B0C6C42AC0C1BAEAC43FAB5A06E30AF
311
297275C0A61A4827E12445C8E1A6D9399D1C38BA3479BA5EB9C1E7BB70B731B97BFCF0428A824A6DE8036A35816B9E06256B937756E4CC06F7C0943D28DF80FC17A4FADE14C44DB2DD6C37B3A76849729508992136CED8198CF13376BCEAD7FCEFFCF347EDE67EF44EE189601BA87E039E7D1FBAB1ECC019F82F20BC9053EB
311
DA26221C65E39EE500C890C4E1024BA8C349B8738335AA1CAA3276111E787019E6BEE0AF3FB26A5028AA933ACF1C581E94C5330A3460AB1809336AF25B03F771FAA59C55075BB153F05EFC16BA2E569BCF9B522624A2F736A757346139D368717BDE740DEA61DEF3E899BEFE143286A3BFE2BDE9E29DD9A314D036981BE0D3
311
A6A69B97FDC9BD0322EC4B852937FE3B27C009D3583BFAEF998A28E724A7A26CCE7DB37FA06DD4109B64374C6E1BCCBEB18034F597831C44938E242B0C886DB76A8BE6F08477DFD75FC048C8731112BE170AF7A537125CC86DF8BAADABD251A47FF4A96D2118192D607B95234DFA5BCCB7314B9252A1061E81F5C77AD90D9D
311
A90AA8108DD63A5966701FB945A4E56CA317CD5A123452916F19DA26D2EEE8015DFD40D412A05278CA624579B2659C97D936611CCD689B91E2041CFFDFFEB0CC8A2DC94499EB13BA7BA6A339F46DEF9157FD243A7A72834DF51CDCA0F4C634DE87B9276C5AC911AC7AA1BD5C5C2D3F5C7ADEE0C378B118CC6EBDF9E0EA627C
311
31B859789793F9E5E46E32993771AA95077ED369BA098D28A1B3F9A564367CDFD7481F5B03DCE09E68F5F8A9CECEE6F97D3DC428EC8FB007EDB2DDB8885F30F6D1F87D057BC9A38AD659C16946734D4C0ADD9B3FFC1BC198D133A65E5F6724A56768F9FA6973E00C56CED8F760D29DFE3CD86B579726218F2AD14F6516E684
311
F1838D698DE4B0C8538B5F1393F659F799E6D5BCD9C060305582B318653076522A32AA510CCFE84132A30AD4EB8EF4B1BD7A9CB1FBA51E103509396D2C79229891B9425A805A65A4FBEBCE1F98E9CC5875EDA2DB0E9FF1632B85EB8033D72E6674CD22AA8621FAB399842AE5E0527790C7DC4FF29463D4AE37B5EFED2E834D
311
AF23B722E78C4FD6AFBA825B0750460A8C0D9887109DCA98C0AF6CB3DFA3FFE478638E4334FE86A56E7DD92FB4CE54C720456BA7EC650133CCB33D7A87447DDB2D6F58C9F41039EB92F526096AAD034D645A5D148C7DD6A4C5EA618401C5597F750A5EA688E5F99A069282CCA54970B008ACB03A0BA241D5E59F8F0F52E022
311
9B39770C14785C8A2C13B97D59D88BB0B379C2B5367E4459A0E63EA21E27636FF258DD03ECD5641B1245872456CF58404C256B21EE051E8CAC2F8BE840F587566E648270C0CDF5CAB12D6D06A59628DDAA6A60C1C4915307D963EE922657BA02C59B578151250A132486F8E05F504B03041400060800006366374000000000
311
0000000000000000350000006662782F38383431304446442D383637312D344637452D413731322D3130463730373943353142422F76657274696365732E62696E504B030414000608080063663740F270F1330600000004000000360000006662782F38383431304446442D383637312D344637452D413731322D31304637
311
30373943353142422F747269616E676C65732E62696E636660600000504B030414000608000063663740000000000000000000000000370000006662782F38383431304446442D383637312D344637452D413731322D3130463730373943353142422F617474726962757465732E62696E504B030414000608080063663740
311
D5987DFC8F00000041010000360000006662782F38383431304446442D383637312D344637452D413731322D3130463730373943353142422F6469726563746F72792E786D6C858F410EC2201045AF4266AF15DDB800BA74E7C21B903225242D6328188F2FA5C4183471359997F9FF81E89FF3C41E1816475E02DF1F80A11F
311
C8386F25A438EECEC07A250251FC3803E6F58C12560C4AD840E95E91C151A72936F496F35732D860FE635F62C8F2DA16B505C545B74125BAA2FA9E05D7CC053D063734D5C7665FD55B6B8D15D5E9BFEAFD8490FFA45E504B03041400060808006366374071E3CAA3FD000000A00100003B0000006662782F38383431304446
311
442D383637312D344637452D413731322D3130463730373943353142422F7265736F75726365732F636F72652E786D6C8D504B6E833010BD0A9ABDC1360910641C254239412F6099496225D8C89FAAC7AF49A8D4EEBA9919BD8FE6E989E3D7FC2C3ED107E3EC00ACA450A0D56E32F636408A57D2417194C23B177FC9A0B06A
311
C6015618A4B87997960DD2CE46B431A3D64DB8812A048C50E8673E0608FA8EB32A558A59111EE5A2F443DDB06465A6B34E8A107D0E50BC9FAC13A4C7E092D71844F566A548C94C9BC64CF9A7B91AF4201B3A5EC6DD6524CD991FC8EE404FA4DBEF38A9EB8EB5E7E67C1A2FADA856B314D1CC3F19B547157102C929E38432C2
311
EB0FC6FB3DEB694B68D3532AAA55FEC79496E99FA6646CACF916F76D0B20590EF222A4A8D6BEF27A9599F7DAADFC06504B010214000A0000080000636637403DEE336E79000000790000001B00000000000000000000000000000000006175746F6465736B2D64657369676E2D7061636B6167652E786D6C504B0102140014
311
000608080063663740D486FD9CA0000000F40000001300000000000000000000000000B20000005B436F6E74656E745F54797065735D2E786D6C504B01021400140006080800636637406248E43BEA0000007C010000080000000000000000000000000083010000636F72652E786D6C504B01021400140006080800636637
311
4055019EA25F0000007C000000070000000000000000000000000093020000636E782E786D6C504B0102140014000608080063663740A2A3EBB267010000020300000C00000000000000000000000000170300006662782F636F72652E786D6C504B0102140014000608080063663740C82243597E0000009D0000000B0000
311
0000000000000000000000A80400006662782F636E782E786D6C504B0102140014000608080063663740AC811E092B0100001402000031000000000000000000000000004F0500006662782F38383431304446442D383637312D344637452D413731322D3130463730373943353142422F636F72652E786D6C504B01021400
311
14000608080063663740A391C5324D010000330300003000000000000000000000000000C90600006662782F38383431304446442D383637312D344637452D413731322D3130463730373943353142422F636E782E786D6C504B010214001400060808006366374042F41BCA9B0500007A1000003400000000000000000000
311
000000640800006662782F38383431304446442D383637312D344637452D413731322D3130463730373943353142422F6F626A656374732E786D6C504B01021400140006080000636637400000000000000000000000003500000000000000000000000000510E00006662782F38383431304446442D383637312D34463745
311
2D413731322D3130463730373943353142422F76657274696365732E62696E504B0102140014000608080063663740F270F13306000000040000003600000000000000000000000000A40E00006662782F38383431304446442D383637312D344637452D413731322D3130463730373943353142422F747269616E676C6573
311
2E62696E504B01021400140006080000636637400000000000000000000000003700000000000000000000000000FE0E00006662782F38383431304446442D383637312D344637452D413731322D3130463730373943353142422F617474726962757465732E62696E504B0102140014000608080063663740D5987DFC8F00
311
0000410100003600000000000000000000000000530F00006662782F38383431304446442D383637312D344637452D413731322D3130463730373943353142422F6469726563746F72792E786D6C504B010214001400060808006366374071E3CAA3FD000000A00100003B0000000000000000000000000036100000666278
311
2F38383431304446442D383637312D344637452D413731322D3130463730373943353142422F7265736F75726365732F636F72652E786D6C504B0506000000000E000E00800400008C1100000000
310
504B03040A0000080000636637403DEE336E79000000790000001B0000006175746F6465736B2D64657369676E2D7061636B6167652E786D6C3C3F786D6C2076657273696F6E3D22312E302220656E636F64696E673D227574662D3822203F3E3C666F726D6174733E3C666F726D61743E687474703A2F2F736368656D612E
310
6175746F6465736B2E636F6D2F64657369676E2D7061636B6167652F323030393C2F666F726D61743E3C2F666F726D6174733E504B030414000608080063663740D486FD9CA0000000F4000000130000005B436F6E74656E745F54797065735D2E786D6C7D8EC10E82300C865F65E91D8A1E8C310C0EEA1BF002731658846E
310
D98AC1B77784ABF1D8FE5FBFBF75BBCE937A534CCEB38643598122B6FEE978D0B0485F9C41B54DDD7D022595594E1A469170414C76A4D9A4D207E29CF43ECE46F218070CC6BECC4078ACAA135ACF422C856C0E68EA1BF5669944DDD7BCDE7B1F8E415D77AECB980613C2E4AC91FC167A2B244592486606FC29C8FD7F045B9A
310
EF7053A7E60B504B030414000608080063663740082BD4E2E90000007C01000008000000636F72652E786D6C8D904D6EC3201085AF82668F0DD86D5A0B13C97F27E8051010172506CB40D5E317278ED4EEBA9AD19BF7CD8C1E3F7F2F37F465B660BD6B8116049071CA6BEBE61652BCE0374067C137EFE32F1B202717D3C22E
310
83E0F3E6D37A48CABB685CCCAAF3DA1CA20CC14440EA969B1682FA348B2C648AD911AEC52AD555CEA6A0CF2EC329598D1E47ACCEFBECC59A0D44DD8F7418498FD930BDE3BA1A4EB8A313C1553D755D3F9C8691525EEEB0E0D12ECFFB6A33321A0D8211CA30A198551F94352FB421274C5E1B4278B9DBFF4069D5FF849275B1
310
62C7BB0F2C80D81FB90F042FF72C72B90795EB9E9BF801504B03041400060808006366374055019EA25F0000007C00000007000000636E782E786D6C4DCB3B0E80201045D1AD90E915ED2CF8AC45050C11660C8261F98AB1B07AC9C97D42D718D865D3E909258CFD00CCE24AC6E326A164D74DC0B4128928FF326038472BA1
310
3128B1252AC747C6BAB984FC68F0B87FE8960A5C09FE86CFB69FBA01504B03041400060808006366374080E3EB0366010000020300000C0000006662782F636F72652E786D6C8D52ED8E8320107C15C27F04D4BBDE354893D6F609EE05A852CF54C120983EFEAD1F8DD74BD35C4C90CCECECCE8E8ADDAD6DD0A05D5F5B9361
310
1E318CB4296C599B2AC3C15FC807463B299CB5FE57194646B53AC3238CA5A89C0DDD0215D6786D3CA0C6967A0155DF6B8F51D1C025C37DF1AD5B15A9E0A1A2BF469D2AAEAAD2118F80863A297AEFC0009A878C279697F34DD019972284BA5CD8BA8469F5A5D60ECBF470E4F9911D489C9F3E499AE41BB2E7274692F4B4DF1F
310
F24D7EE45CD0512C85AFDBBBBBC269E5758965CC784C182771F2C5E3ED1BDFB20D61EF5BC6041DCB1F44A12BFF290AB5F149BCD89D653D96A39189F8B32D44E451AF06F043A5A06388F09A127E0C1A028190BD3A37F73DAE000DBAF0D6A5C09436ACD4A09AA0612A43D323E8CC42E7A9016CF6B44FFCA2CFEB1EF00195A9C0
310
9AF2703D073F4E17F3D4258A4E3B32F81B32D6B5AA59CDCD16D7731DF4545ED8C6BAFFA8E9B22A5DC2A4E3DF2B7F00504B030414000608080063663740BF96DFF17E0000009D0000000B0000006662782F636E782E786D6C4DCC4B0EC2201804E0AB907F8FAD95BE12A041A1F7682C6D88140C82F1F852D385ABC97C990C1D
310
3E9B456F1D5EC63B06E7530948BBBB9F8D5B19A4B8E00ED0C069F03EFECD00B969D30C76064ED7E0D3F3A0592F53B231AB35EE7160D3AA6A2C49875BD1084C64ADF0B5CAF5D6935A12791945AFA0E0B4F83DE5DC8FF917504B030414000608080063663740446BD54A2B01000014020000310000006662782F363745324630
310
34382D374136412D344435452D423234382D4339343544344433464139452F636F72652E786D6C8D514B6EC32014BC0A62952EB0013B761C61A2B4494ED00B1020294A0C169F2AC72FAE1DA9DD65C3836166DEE83DB67B0C77F0AD7D30CEF6901418026DA553C65E7B98E2056D20D871E69D8B7F68105831E81E4E30E4ECEA
310
5D1A17483A1BB58D19B54EE9051421E80881BCE74B0F83FCD28328448A99116EC528E44D5C75418AFC9D799C85E873003037994EC89BF6484FB8DEA076DFEC517D581FD13BCDCF8FAE5E1FEA4375DA774756CE42CE52326A911B95E3988BD1FE559349CC5934C333BEF45A44AD20A798508409A2D527A1DB35D9E216E1668B
310
312B27FA3F511AD58BA2646CACE812779605C8092BE70FCE944BE7FB338C7E8CCE4730F55B052DDF20C705A655875BDAB172A6E60164CFA65E3C43743E0F78753B6776B518373567E5B4A35C7E1798EBB44FFE03504B030414000608080063663740C5360A255401000033030000300000006662782F36374532463034382D
310
374136412D344435452D423234382D4339343544344433464139452F636E782E786D6CBD93CD6E022114855F85B09F5FEDD41806932EFA045D748B70552A03137E9AFAF6BD285A372E9A34DD90C9B987736EBE306CF33519F2093E686747DAD52D2560A553DAEE479AE2AE5A51B2E1CC3B17EF6C945831C148B34C39DB7B97
310
E62229D8896422AA46DB63113D0497BC848072BE498C93C26000D82AA108D3169402456E46FCDA81C75550DC9E483C00797D79276EFB013206D6E414CE9ADCC1593E4BD39D8912694408230DF20093A8458A4E4138D64A445177F5B5EBC14E3F49245FB85626AF492E1F693E292F1BD5C8913538E42C448FF48A299E66A05C
310
CCB3D1524484DC9C8D170F6749DB382C8B5723788FEE453FAC5618769E7116F504C5213D88088AF2BEEDFAAAEDAA7EF1D6F5EBA76EDD3E57EDB06E5BD6643B675BE74CB98431E0DD4CA4B3116CA4BC634D1E3FC2577C44698FAC9D3FFD02240228AD173AB78CBFE4D30D8BE5F21FF934E7F78DB83CFE05FC1B504B03041400
310
0608080063663740D2928C9458070000931B0000340000006662782F36374532463034382D374136412D344435452D423234382D4339343544344433464139452F6F626A656374732E786D6CED595B6FA33814FE2B887D0E0949DA695694519A4EAB68D599D16467B40F9590030EF5D618649B5EF6D7EFF1050234B464A7FB
310
360F0960ECE373BE73F521F8F89451E70173417276EEFADEC475308BF384B0F4DC2DE56E74E63A1FC380E7B96C4C731D86327CEEAA61370C529E97851D4AF00E95547646AF2EFE72448C19769D982221CE5D11DFE10C79A8947982C5BD972089BC74F7E4F99E99D8269B7254DC7588168863268153186740C5314CF9EDC789
310
3B0E83B17A1F06EADFCE9A0D9A35EF9F35D652B7B9244C48C4E2172C75C8CC06B134F3E7979FA6278BD1C97C3E1BCD4FA7FEE8E2EAE272E47F984D56A7ABD562F96901EC6DF39C5A99125C609680FE9EDDD00FC6EA4D2DBA45E010D771CE188E3590009516AB4B9060015B35E09BB41F7D2551E3B596B0F13C57EF2D0B8DE1
310
599B4ADFAC6140B4E8822076BB4AE2EADA942FDFFE0D828B2146C90596C0AD901CB46BE1E1E0156E3809C666340CB67B5D10E16448624E107528D972C4412930554D0903B3C09251CEC18194A324D09A33AFDBB6059EF9B6EB1CE2725752AA3CC30DB56345E07E580ACD19F907F33DF74D64802790B6244C9E592EE57381DD
310
70118CF56018A8CB6C6A5F1A209D1D45A9D08898B71D4157CAF5D7976EF8C7D5F669A3C2C1E1CD0B9E17984B65744A8F9A2F30647B5528D96DFD419A530B401803AA5DB907E51B20FF19A2C79E15D01B274FF3A7B99D2B39626297F30C74E34C9CD104FE268EAFFFD57DE32E18D78BDBDAEBC313DC544175F6F378B665D058
310
59FE1B7086C103187CCE67F6D5264614ECF986300048198943731882D0BEDB3EB9E11A0227047A588568E883C8C0EE03DC06634B66AF95CABDACD73140D4EE311BA224804D5B24B0D1A3A76BC81E9CC47B353545EC83F7E45DCC7579B9F96353F21D8AF18DF5E94BBC238C48C89A87196A61DE92E81E3F3FE63C01415FE2BD
310
69E29DD9AD04A0AD3057C0A71508EA61BF736B8318D6A5B90A37C11B3B80102A5737E8DF1011634A11C37959ED5B473765A8B5C7DB9AC10DA706E2D9B463C21C3F10555580D3EC67B41885BC1F73522810DDF0DA4856074DAF47BAEFEBCF6091F5FC9E596B06A19721FAA70E5A077068597685B405A21678BB0FE7714E731E
310
6D9F2313E95CA825808DB6B7FC681185586F94A4A8800769BFAB424A6AA48D12B2DB9502E2EA01167FAC574D73987833FFC469FE779C710ED1167C1771EB779D3D2292A114473B94F46DD7DCADA62D34C91ED21CEF28C8451E887C8E908C26094E8F81E628E28B77A59ED25C08C2B0807C7510FC261A130F0289D166C5B2D2
310
6A076822A20C4B448F414091E90157A71D5DE3C6503ABCCD636DBDAF69AC49F47FB2088EA096CC5944A014851CF226E3BE770231A48DAE41B9832F585B455B8B414B2821E2E7E81193F44E1E83BA21DF837B0C4792524679816230EB01645FF88A526A87F72D8AEF55FE88E292BE9781084C7711A1B4CC22F81106278F21AE
310
5D07A65751681037B14FE20C8A32244B3E6493D393C98B7D4CCDD00D818D8D768442D88E3254F4A0DE0A88BA1E716AF02DF51EA56ECBAC885096976C90A178B3AE3759F25DB52AB203F955A522948D15614B300C08937556AD623698BA0EACE0463A503D4702650535A7B037128F5F7B93A6DCBB01B77EFABE1B6450F8F568
310
AF1951E7150C96C75661201E918CEFDC70A3AFA30BA8BF139CEC537D556B362B40404C45F29213ABA2EF6B286F6C8DE68637488ADB6B9375ABEBF7B507DD8F600C6BA076A917AE15D0196612A9CAE446DDD06F0842708B86195FAB9C7A0C956592E8AA11D12BD2A7CE5619D1DA34235E7187599EC18FDD1216D332C1B72811
310
F7D18DA4D18628D6AD945E462A8C5F15F0CBF5A6030F8C0C10E9AB2AF0F06367AD1D5DA972E920117957665B860804C19668A9D18D57B0D46AA4D2727D55670AA8BBC0C0AC8AE7BF4E16CD76C4AF93456A0DE3E74E1634DF22BA8F368D6C1E2BB33EEA1450A72745E53D4E01BAEB5053AD9388C9E5567CEB4B11C4C42AC80F
310
2EC6AA986108F671FC9F93765F1234DB75F83F2E69FB2F0A8EA3924A6BB26A521D285CD7CD1476BA3C5B7D38F5FDD187C972399A7FF217A3B393C9C9E862E99F4E17A7D3ABE97451A3A9FD340CEA58A653173C9B98560DAB278B013465454E490287F9C44931847C0947FA01DD739E6101B9B3D9EB4E6C4F7EC0EA07D3E694
310
684B71C5C91D82FE301590D501A33296ED71E737E84C4A38679FBBD033F2EEE1CF5AA5EB40E23977A15320498C85B7852E93EAE769E2907175EAB7C4001FC4529511CDA2FAB95EA5B06945FF7ACA902C60E56AB530A06E2BA0F9D56A5068DE2C4FF1518257EC3848C2EDB69450AC1959F603B5307A9BBDFA8D6C94B07BBBF5
310
13B8EEEB62F99E9ED34264D01783578DC0501D49C453DDEE568C599696975FC7D06673D65F9C829629E87238A511C760CCA5AAA7C08AC02A2CCD024930D5D5EFB75F790E5F7832471745B7AB3CCB72661F96701C4BE00B91B3B983EF3DC92D540D5875D5C5ED74E24F6F7537DB36D8A32D12D853E5100C54558412A1636C60
310
912F3A53B66F39564AE84C5F5F3A367C4217C058D08BE6AEF9BAE580F7A8EF28CA57B4875772BEDAD01EEBA9600D1C5AD1E1BF504B030414000608000063663740000000000000000000000000350000006662782F36374532463034382D374136412D344435452D423234382D4339343544344433464139452F7665727469
310
6365732E62696E504B030414000608080063663740F270F1330600000004000000360000006662782F36374532463034382D374136412D344435452D423234382D4339343544344433464139452F747269616E676C65732E62696E636660600000504B03041400060800006366374000000000000000000000000037000000
310
6662782F36374532463034382D374136412D344435452D423234382D4339343544344433464139452F617474726962757465732E62696E504B030414000608080063663740D5987DFC8F00000041010000360000006662782F36374532463034382D374136412D344435452D423234382D4339343544344433464139452F64
310
69726563746F72792E786D6C858F410EC2201045AF4266AF15DDB800BA74E7C21B903225242D6328188F2FA5C4183471359997F9FF81E89FF3C41E1816475E02DF1F80A11FC8386F25A438EECEC07A250251FC3803E6F58C12560C4AD840E95E91C151A72936F496F35732D860FE635F62C8F2DA16B505C545B74125BAA2FA
310
9E05D7CC053D063734D5C7665FD55B6B8D15D5E9BFEAFD8490FFA45E504B0304140006080800636637401B80FA7AFC000000A00100003B0000006662782F36374532463034382D374136412D344435452D423234382D4339343544344433464139452F7265736F75726365732F636F72652E786D6C8D504B6E833010BD0A9A
310
BDC106DAB4C83812819CA017B0CC84580936F2A7EAF16B27546A77DDCC8CDE47F3F4F8F16BBD179FE8BCB6A607565228D0283B6BB3F410C385BC417114DC591B7EC9A03072C51E320C822FCEC66D879435014D48A8B133EEA0F41E0314EA9E8E1EBCBAE22A4B194352F85BB94975930B96AC4C74D209EE834B018AE7933C41
310
38F4363A859E574F56F018F5BC6BF49C7EEA8B4607A23D4D6C9CE840EAF1FC4EDA663C90819D2969DAF3309CC6C33831C6AB6C163CE8F527A3722803CE206ACA6A4219A99B0F56772FACA307425F3B4A7995E57F4C719BFF698ADA84A6DEE33E6D1E440EF22004AF725F693DCA4C3B772BBE01504B010214000A0000080000
310
636637403DEE336E79000000790000001B00000000000000000000000000000000006175746F6465736B2D64657369676E2D7061636B6167652E786D6C504B0102140014000608080063663740D486FD9CA0000000F40000001300000000000000000000000000B20000005B436F6E74656E745F54797065735D2E786D6C50
310
4B0102140014000608080063663740082BD4E2E90000007C010000080000000000000000000000000083010000636F72652E786D6C504B010214001400060808006366374055019EA25F0000007C000000070000000000000000000000000092020000636E782E786D6C504B010214001400060808006366374080E3EB0366
310
010000020300000C00000000000000000000000000160300006662782F636F72652E786D6C504B0102140014000608080063663740BF96DFF17E0000009D0000000B00000000000000000000000000A60400006662782F636E782E786D6C504B0102140014000608080063663740446BD54A2B010000140200003100000000
310
0000000000000000004D0500006662782F36374532463034382D374136412D344435452D423234382D4339343544344433464139452F636F72652E786D6C504B0102140014000608080063663740C5360A2554010000330300003000000000000000000000000000C70600006662782F36374532463034382D374136412D34
310
4435452D423234382D4339343544344433464139452F636E782E786D6C504B0102140014000608080063663740D2928C9458070000931B00003400000000000000000000000000690800006662782F36374532463034382D374136412D344435452D423234382D4339343544344433464139452F6F626A656374732E786D6C
310
504B01021400140006080000636637400000000000000000000000003500000000000000000000000000131000006662782F36374532463034382D374136412D344435452D423234382D4339343544344433464139452F76657274696365732E62696E504B0102140014000608080063663740F270F1330600000004000000
310
3600000000000000000000000000661000006662782F36374532463034382D374136412D344435452D423234382D4339343544344433464139452F747269616E676C65732E62696E504B01021400140006080000636637400000000000000000000000003700000000000000000000000000C01000006662782F3637453246
310
3034382D374136412D344435452D423234382D4339343544344433464139452F617474726962757465732E62696E504B0102140014000608080063663740D5987DFC8F000000410100003600000000000000000000000000151100006662782F36374532463034382D374136412D344435452D423234382D43393435443444
310
33464139452F6469726563746F72792E786D6C504B01021400140006080800636637401B80FA7AFC000000A00100003B00000000000000000000000000F81100006662782F36374532463034382D374136412D344435452D423234382D4339343544344433464139452F7265736F75726365732F636F72652E786D6C504B05
310
06000000000E000E00800400004D1300000000
  0
XRECORD
  5
27
102
{ACAD_REACTORS
330
22
102
}
330
22
100
AcDbXrecord
280
     1
270
     1
271
     1
  0
XRECORD
  5
26
102
{ACAD_REACTORS
330
22
102
}
330
22
100
AcDbXrecord
280
     1
270
     1
271
     1
  0
XRECORD
  5
28
102
{ACAD_REACTORS
330
22
102
}
330
22
100
AcDbXrecord
280
     1
270
     1
271
     1
  0
XRECORD
  5
25
102
{ACAD_REACTORS
330
22
102
}
330
22
100
AcDbXrecord
280
     1
270
     1
271
     1
  0
XRECORD
  5
88F
102
{ACAD_REACTORS
330
88E
102
}
330
88E
100
AcDbXrecord
280
     1
102
ACAD_ROUNDTRIP_2012_MLEADER_STYLE
298
     1
  0
CELLSTYLEMAP
  5
88D
102
{ACAD_REACTORS
330
88C
102
}
330
88C
100
AcDbCellStyleMap
 90
        3
300
CELLSTYLE
  1
TABLEFORMAT_BEGIN
 90
        5
170
     1
 91
        0
 92
    32768
 62
   257
 93
        1
300
CONTENTFORMAT
  1
CONTENTFORMAT_BEGIN
 90
        0
 91
        0
 92
      512
 93
        0
300

 40
0.0
140
1.0
 94
        5
 62
     0
340
55
144
0.25
309
CONTENTFORMAT_END
171
     0
 94
        0
309
TABLEFORMAT_END
  1
CELLSTYLE_BEGIN
 90
        1
 91
        1
300
_TITLE
309
CELLSTYLE_END
300
CELLSTYLE
  1
TABLEFORMAT_BEGIN
 90
        5
170
     1
 91
        0
 92
        0
 62
   257
 93
        1
300
CONTENTFORMAT
  1
CONTENTFORMAT_BEGIN
 90
        0
 91
        0
 92
      512
 93
        0
300

 40
0.0
140
1.0
 94
        5
 62
     0
340
55
144
0.18
309
CONTENTFORMAT_END
171
     0
 94
        0
309
TABLEFORMAT_END
  1
CELLSTYLE_BEGIN
 90
        2
 91
        1
300
_HEADER
309
CELLSTYLE_END
300
CELLSTYLE
  1
TABLEFORMAT_BEGIN
 90
        5
170
     1
 91
        0
 92
        0
 62
   257
 93
        1
300
CONTENTFORMAT
  1
CONTENTFORMAT_BEGIN
 90
        0
 91
        0
 92
      512
 93
        0
300

 40
0.0
140
1.0
 94
        2
 62
     0
340
55
144
0.18
309
CONTENTFORMAT_END
171
     0
 94
        0
309
TABLEFORMAT_END
  1
CELLSTYLE_BEGIN
 90
        3
 91
        2
300
_DATA
309
CELLSTYLE_END
  0
XRECORD
  5
8C5
102
{ACAD_REACTORS
330
88C
102
}
330
88C
100
AcDbXrecord
280
     1
102
ACAD_ROUNDTRIP_PRE2007_TABLESTYLE
 90
      512
 91
        0
  1

 92
      512
 93
        0
  2

 94
      512
 95
        0
  3

  0
XRECORD
  5
8A0
102
{ACAD_REACTORS
330
89F
102
}
330
89F
100
AcDbXrecord
280
     1
102
RTVSPropertyOp0
 70
     1
102
RTVSPropertyOp1
 70
     1
102
RTVSPropertyOp2
 70
     1
102
RTVSPropertyOp3
 70
     1
102
RTVSPropertyOp4
 70
     1
102
RTVSPropertyOp5
 70
     1
102
RTVSPropertyOp6
 70
     1
102
RTVSPropertyOp7
 70
     1
102
RTVSPropertyOp8
 70
     1
102
RTVSPropertyOp9
 70
     1
102
RTVSPropertyOp10
 70
     1
102
RTVSPropertyOp11
 70
     1
102
RTVSPropertyOp12
 70
     1
102
RTVSPropertyOp13
 70
     1
102
RTVSPropertyOp14
 70
     1
102
RTVSPropertyOp15
 70
     1
102
RTVSPropertyOp16
 70
     1
102
RTVSPropertyOp17
 70
     1
102
RTVSPropertyOp18
 70
     1
102
RTVSPropertyOp19
 70
     1
102
RTVSPropertyOp20
 70
     1
102
RTVSPropertyOp21
 70
     1
102
RTVSPropertyOp22
 70
     1
102
RTVSPropertyOp23
 70
     1
102
RTVSPropertyOp24
 70
     1
102
RTVSPropertyOp25
 70
     1
102
RTVSPropertyOp26
 70
     1
102
RTVSPropertyOp27
 70
     1
102
RTVSPropertyOp28
 70
     1
102
RTVSPropertyOp29
 70
     1
102
RTVSPropertyOp30
 70
     1
102
RTVSPropertyOp31
 70
     1
102
RTVSPropertyOp32
 70
     1
  0
XRECORD
  5
89E
102
{ACAD_REACTORS
330
89D
102
}
330
89D
100
AcDbXrecord
280
     1
102
RTVSPropertyOp0
 70
     1
102
RTVSPropertyOp1
 70
     1
102
RTVSPropertyOp2
 70
     1
102
RTVSPropertyOp3
 70
     1
102
RTVSPropertyOp4
 70
     1
102
RTVSPropertyOp5
 70
     1
102
RTVSPropertyOp6
 70
     1
102
RTVSPropertyOp7
 70
     1
102
RTVSPropertyOp8
 70
     1
102
RTVSPropertyOp9
 70
     1
102
RTVSPropertyOp10
 70
     1
102
RTVSPropertyOp11
 70
     1
102
RTVSPropertyOp12
 70
     1
102
RTVSPropertyOp13
 70
     1
102
RTVSPropertyOp14
 70
     1
102
RTVSPropertyOp15
 70
     1
102
RTVSPropertyOp16
 70
     1
102
RTVSPropertyOp17
 70
     1
102
RTVSPropertyOp18
 70
     1
102
RTVSPropertyOp19
 70
     1
102
RTVSPropertyOp20
 70
     1
102
RTVSPropertyOp21
 70
     1
102
RTVSPropertyOp22
 70
     1
102
RTVSPropertyOp23
 70
     1
102
RTVSPropertyOp24
 70
     1
102
RTVSPropertyOp25
 70
     1
102
RTVSPropertyOp26
 70
     1
102
RTVSPropertyOp27
 70
     1
102
RTVSPropertyOp28
 70
     1
102
RTVSPropertyOp29
 70
     1
102
RTVSPropertyOp30
 70
     1
102
RTVSPropertyOp31
 70
     1
102
RTVSPropertyOp32
 70
     1
  0
XRECORD
  5
8AC
102
{ACAD_REACTORS
330
8AB
102
}
330
8AB
100
AcDbXrecord
280
     1
102
RTVSPropertyOp0
 70
     1
102
RTVSPropertyOp1
 70
     1
102
RTVSPropertyOp2
 70
     1
102
RTVSPropertyOp3
 70
     1
102
RTVSPropertyOp4
 70
     1
102
RTVSPropertyOp5
 70
     1
102
RTVSPropertyOp6
 70
     1
102
RTVSPropertyOp7
 70
     1
102
RTVSPropertyOp8
 70
     1
102
RTVSPropertyOp9
 70
     1
102
RTVSPropertyOp10
 70
     1
102
RTVSPropertyOp11
 70
     1
102
RTVSPropertyOp12
 70
     1
102
RTVSPropertyOp13
 70
     1
102
RTVSPropertyOp14
 70
     1
102
RTVSPropertyOp15
 70
     1
102
RTVSPropertyOp16
 70
     1
102
RTVSPropertyOp17
 70
     1
102
RTVSPropertyOp18
 70
     1
102
RTVSPropertyOp19
 70
     1
102
RTVSPropertyOp20
 70
     1
102
RTVSPropertyOp21
 70
     1
102
RTVSPropertyOp22
 70
     1
102
RTVSPropertyOp23
 70
     1
102
RTVSPropertyOp24
 70
     1
102
RTVSPropertyOp25
 70
     1
102
RTVSPropertyOp26
 70
     1
102
RTVSPropertyOp27
 70
     1
102
RTVSPropertyOp28
 70
     1
102
RTVSPropertyOp29
 70
     1
102
RTVSPropertyOp30
 70
     1
102
RTVSPropertyOp31
 70
     1
102
RTVSPropertyOp32
 70
     1
  0
XRECORD
  5
8B4
102
{ACAD_REACTORS
330
8B3
102
}
330
8B3
100
AcDbXrecord
280
     1
102
RTVSPropertyOp0
 70
     1
102
RTVSPropertyOp1
 70
     1
102
RTVSPropertyOp2
 70
     1
102
RTVSPropertyOp3
 70
     1
102
RTVSPropertyOp4
 70
     1
102
RTVSPropertyOp5
 70
     1
102
RTVSPropertyOp6
 70
     1
102
RTVSPropertyOp7
 70
     1
102
RTVSPropertyOp8
 70
     1
102
RTVSPropertyOp9
 70
     1
102
RTVSPropertyOp10
 70
     1
102
RTVSPropertyOp11
 70
     1
102
RTVSPropertyOp12
 70
     1
102
RTVSPropertyOp13
 70
     1
102
RTVSPropertyOp14
 70
     1
102
RTVSPropertyOp15
 70
     1
102
RTVSPropertyOp16
 70
     1
102
RTVSPropertyOp17
 70
     1
102
RTVSPropertyOp18
 70
     1
102
RTVSPropertyOp19
 70
     1
102
RTVSPropertyOp20
 70
     1
102
RTVSPropertyOp21
 70
     1
102
RTVSPropertyOp22
 70
     1
102
RTVSPropertyOp23
 70
     1
102
RTVSPropertyOp24
 70
     1
102
RTVSPropertyOp25
 70
     1
102
RTVSPropertyOp26
 70
     1
102
RTVSPropertyOp27
 70
     1
102
RTVSPropertyOp28
 70
     1
102
RTVSPropertyOp29
 70
     1
102
RTVSPropertyOp30
 70
     1
102
RTVSPropertyOp31
 70
     1
102
RTVSPropertyOp32
 70
     1
  0
XRECORD
  5
8A6
102
{ACAD_REACTORS
330
8A5
102
}
330
8A5
100
AcDbXrecord
280
     1
102
RTVSPropertyOp0
 70
     1
102
RTVSPropertyOp1
 70
     1
102
RTVSPropertyOp2
 70
     1
102
RTVSPropertyOp3
 70
     1
102
RTVSPropertyOp4
 70
     1
102
RTVSPropertyOp5
 70
     1
102
RTVSPropertyOp6
 70
     1
102
RTVSPropertyOp7
 70
     1
102
RTVSPropertyOp8
 70
     1
102
RTVSPropertyOp9
 70
     1
102
RTVSPropertyOp10
 70
     1
102
RTVSPropertyOp11
 70
     1
102
RTVSPropertyOp12
 70
     1
102
RTVSPropertyOp13
 70
     1
102
RTVSPropertyOp14
 70
     1
102
RTVSPropertyOp15
 70
     1
102
RTVSPropertyOp16
 70
     1
102
RTVSPropertyOp17
 70
     1
102
RTVSPropertyOp18
 70
     1
102
RTVSPropertyOp19
 70
     1
102
RTVSPropertyOp20
 70
     1
102
RTVSPropertyOp21
 70
     1
102
RTVSPropertyOp22
 70
     1
102
RTVSPropertyOp23
 70
     1
102
RTVSPropertyOp24
 70
     1
102
RTVSPropertyOp25
 70
     1
102
RTVSPropertyOp26
 70
     1
102
RTVSPropertyOp27
 70
     1
102
RTVSPropertyOp28
 70
     1
102
RTVSPropertyOp29
 70
     1
102
RTVSPropertyOp30
 70
     1
102
RTVSPropertyOp31
 70
     1
102
RTVSPropertyOp32
 70
     1
  0
XRECORD
  5
8AA
102
{ACAD_REACTORS
330
8A9
102
}
330
8A9
100
AcDbXrecord
280
     1
102
RTVSPropertyOp0
 70
     1
102
RTVSPropertyOp1
 70
     1
102
RTVSPropertyOp2
 70
     1
102
RTVSPropertyOp3
 70
     1
102
RTVSPropertyOp4
 70
     1
102
RTVSPropertyOp5
 70
     1
102
RTVSPropertyOp6
 70
     1
102
RTVSPropertyOp7
 70
     1
102
RTVSPropertyOp8
 70
     1
102
RTVSPropertyOp9
 70
     1
102
RTVSPropertyOp10
 70
     1
102
RTVSPropertyOp11
 70
     1
102
RTVSPropertyOp12
 70
     1
102
RTVSPropertyOp13
 70
     1
102
RTVSPropertyOp14
 70
     1
102
RTVSPropertyOp15
 70
     1
102
RTVSPropertyOp16
 70
     1
102
RTVSPropertyOp17
 70
     1
102
RTVSPropertyOp18
 70
     1
102
RTVSPropertyOp19
 70
     1
102
RTVSPropertyOp20
 70
     1
102
RTVSPropertyOp21
 70
     1
102
RTVSPropertyOp22
 70
     1
102
RTVSPropertyOp23
 70
     1
102
RTVSPropertyOp24
 70
     1
102
RTVSPropertyOp25
 70
     1
102
RTVSPropertyOp26
 70
     1
102
RTVSPropertyOp27
 70
     1
102
RTVSPropertyOp28
 70
     1
102
RTVSPropertyOp29
 70
     1
102
RTVSPropertyOp30
 70
     1
102
RTVSPropertyOp31
 70
     1
102
RTVSPropertyOp32
 70
     1
  0
XRECORD
  5
8C4
102
{ACAD_REACTORS
330
8C3
102
}
330
8C3
100
AcDbXrecord
280
     1
102
RTVSPropertyOp0
 70
     0
102
RTVSPropertyOp1
 70
     0
102
RTVSPropertyOp2
 70
     0
102
RTVSPropertyOp3
 70
     0
102
RTVSPropertyOp4
 70
     0
102
RTVSPropertyOp5
 70
     0
102
RTVSPropertyOp6
 70
     0
102
RTVSPropertyOp7
 70
     0
102
RTVSPropertyOp8
 70
     0
102
RTVSPropertyOp9
 70
     0
102
RTVSPropertyOp10
 70
     0
102
RTVSPropertyOp11
 70
     0
102
RTVSPropertyOp12
 70
     0
102
RTVSPropertyOp13
 70
     0
102
RTVSPropertyOp14
 70
     2
102
RTVSPropertyOp15
 70
     0
102
RTVSPropertyOp16
 70
     0
102
RTVSPropertyOp17
 70
     0
102
RTVSPropertyOp18
 70
     0
102
RTVSPropertyOp19
 70
     0
102
RTVSPropertyOp20
 70
     0
102
RTVSPropertyOp21
 70
     0
102
RTVSPropertyOp22
 70
     0
102
RTVSPropertyOp23
 70
     0
102
RTVSPropertyOp24
 70
     0
102
RTVSPropertyOp25
 70
     0
102
RTVSPropertyOp26
 70
     0
102
RTVSPropertyOp27
 70
     0
102
RTVSPropertyOp28
 70
     1
102
RTVSPropertyOp29
 70
     1
102
RTVSPropertyOp30
 70
     1
102
RTVSPropertyOp31
 70
     1
102
RTVSPropertyOp32
 70
     1
  0
XRECORD
  5
8B2
102
{ACAD_REACTORS
330
8B1
102
}
330
8B1
100
AcDbXrecord
280
     1
102
RTVSPropertyOp0
 70
     1
102
RTVSPropertyOp1
 70
     1
102
RTVSPropertyOp2
 70
     1
102
RTVSPropertyOp3
 70
     1
102
RTVSPropertyOp4
 70
     1
102
RTVSPropertyOp5
 70
     1
102
RTVSPropertyOp6
 70
     1
102
RTVSPropertyOp7
 70
     1
102
RTVSPropertyOp8
 70
     1
102
RTVSPropertyOp9
 70
     1
102
RTVSPropertyOp10
 70
     1
102
RTVSPropertyOp11
 70
     1
102
RTVSPropertyOp12
 70
     1
102
RTVSPropertyOp13
 70
     1
102
RTVSPropertyOp14
 70
     1
102
RTVSPropertyOp15
 70
     1
102
RTVSPropertyOp16
 70
     1
102
RTVSPropertyOp17
 70
     1
102
RTVSPropertyOp18
 70
     1
102
RTVSPropertyOp19
 70
     1
102
RTVSPropertyOp20
 70
     1
102
RTVSPropertyOp21
 70
     1
102
RTVSPropertyOp22
 70
     1
102
RTVSPropertyOp23
 70
     1
102
RTVSPropertyOp24
 70
     1
102
RTVSPropertyOp25
 70
     1
102
RTVSPropertyOp26
 70
     1
102
RTVSPropertyOp27
 70
     1
102
RTVSPropertyOp28
 70
     1
102
RTVSPropertyOp29
 70
     1
102
RTVSPropertyOp30
 70
     1
102
RTVSPropertyOp31
 70
     1
102
RTVSPropertyOp32
 70
     1
  0
XRECORD
  5
896
102
{ACAD_REACTORS
330
895
102
}
330
895
100
AcDbXrecord
280
     1
102
RTVSPropertyOp0
 70
     1
102
RTVSPropertyOp1
 70
     1
102
RTVSPropertyOp2
 70
     1
102
RTVSPropertyOp3
 70
     1
102
RTVSPropertyOp4
 70
     1
102
RTVSPropertyOp5
 70
     1
102
RTVSPropertyOp6
 70
     1
102
RTVSPropertyOp7
 70
     1
102
RTVSPropertyOp8
 70
     1
102
RTVSPropertyOp9
 70
     1
102
RTVSPropertyOp10
 70
     1
102
RTVSPropertyOp11
 70
     1
102
RTVSPropertyOp12
 70
     1
102
RTVSPropertyOp13
 70
     1
102
RTVSPropertyOp14
 70
     1
102
RTVSPropertyOp15
 70
     1
102
RTVSPropertyOp16
 70
     1
102
RTVSPropertyOp17
 70
     1
102
RTVSPropertyOp18
 70
     1
102
RTVSPropertyOp19
 70
     1
102
RTVSPropertyOp20
 70
     1
102
RTVSPropertyOp21
 70
     1
102
RTVSPropertyOp22
 70
     1
102
RTVSPropertyOp23
 70
     1
102
RTVSPropertyOp24
 70
     1
102
RTVSPropertyOp25
 70
     1
102
RTVSPropertyOp26
 70
     1
102
RTVSPropertyOp27
 70
     1
102
RTVSPropertyOp28
 70
     1
102
RTVSPropertyOp29
 70
     1
102
RTVSPropertyOp30
 70
     1
102
RTVSPropertyOp31
 70
     1
102
RTVSPropertyOp32
 70
     1
  0
XRECORD
  5
898
102
{ACAD_REACTORS
330
897
102
}
330
897
100
AcDbXrecord
280
     1
102
RTVSPropertyOp0
 70
     1
102
RTVSPropertyOp1
 70
     1
102
RTVSPropertyOp2
 70
     1
102
RTVSPropertyOp3
 70
     1
102
RTVSPropertyOp4
 70
     1
102
RTVSPropertyOp5
 70
     1
102
RTVSPropertyOp6
 70
     1
102
RTVSPropertyOp7
 70
     1
102
RTVSPropertyOp8
 70
     1
102
RTVSPropertyOp9
 70
     1
102
RTVSPropertyOp10
 70
     1
102
RTVSPropertyOp11
 70
     1
102
RTVSPropertyOp12
 70
     1
102
RTVSPropertyOp13
 70
     1
102
RTVSPropertyOp14
 70
     1
102
RTVSPropertyOp15
 70
     1
102
RTVSPropertyOp16
 70
     1
102
RTVSPropertyOp17
 70
     1
102
RTVSPropertyOp18
 70
     1
102
RTVSPropertyOp19
 70
     1
102
RTVSPropertyOp20
 70
     1
102
RTVSPropertyOp21
 70
     1
102
RTVSPropertyOp22
 70
     1
102
RTVSPropertyOp23
 70
     1
102
RTVSPropertyOp24
 70
     1
102
RTVSPropertyOp25
 70
     1
102
RTVSPropertyOp26
 70
     1
102
RTVSPropertyOp27
 70
     1
102
RTVSPropertyOp28
 70
     1
102
RTVSPropertyOp29
 70
     1
102
RTVSPropertyOp30
 70
     1
102
RTVSPropertyOp31
 70
     1
102
RTVSPropertyOp32
 70
     1
  0
XRECORD
  5
89A
102
{ACAD_REACTORS
330
899
102
}
330
899
100
AcDbXrecord
280
     1
102
RTVSPropertyOp0
 70
     1
102
RTVSPropertyOp1
 70
     1
102
RTVSPropertyOp2
 70
     1
102
RTVSPropertyOp3
 70
     1
102
RTVSPropertyOp4
 70
     1
102
RTVSPropertyOp5
 70
     1
102
RTVSPropertyOp6
 70
     1
102
RTVSPropertyOp7
 70
     1
102
RTVSPropertyOp8
 70
     1
102
RTVSPropertyOp9
 70
     1
102
RTVSPropertyOp10
 70
     1
102
RTVSPropertyOp11
 70
     1
102
RTVSPropertyOp12
 70
     1
102
RTVSPropertyOp13
 70
     1
102
RTVSPropertyOp14
 70
     1
102
RTVSPropertyOp15
 70
     1
102
RTVSPropertyOp16
 70
     1
102
RTVSPropertyOp17
 70
     1
102
RTVSPropertyOp18
 70
     1
102
RTVSPropertyOp19
 70
     1
102
RTVSPropertyOp20
 70
     1
102
RTVSPropertyOp21
 70
     1
102
RTVSPropertyOp22
 70
     1
102
RTVSPropertyOp23
 70
     1
102
RTVSPropertyOp24
 70
     1
102
RTVSPropertyOp25
 70
     1
102
RTVSPropertyOp26
 70
     1
102
RTVSPropertyOp27
 70
     1
102
RTVSPropertyOp28
 70
     1
102
RTVSPropertyOp29
 70
     1
102
RTVSPropertyOp30
 70
     1
102
RTVSPropertyOp31
 70
     1
102
RTVSPropertyOp32
 70
     1
  0
XRECORD
  5
89C
102
{ACAD_REACTORS
330
89B
102
}
330
89B
100
AcDbXrecord
280
     1
102
RTVSPropertyOp0
 70
     1
102
RTVSPropertyOp1
 70
     1
102
RTVSPropertyOp2
 70
     1
102
RTVSPropertyOp3
 70
     1
102
RTVSPropertyOp4
 70
     1
102
RTVSPropertyOp5
 70
     1
102
RTVSPropertyOp6
 70
     1
102
RTVSPropertyOp7
 70
     1
102
RTVSPropertyOp8
 70
     1
102
RTVSPropertyOp9
 70
     1
102
RTVSPropertyOp10
 70
     1
102
RTVSPropertyOp11
 70
     1
102
RTVSPropertyOp12
 70
     1
102
RTVSPropertyOp13
 70
     1
102
RTVSPropertyOp14
 70
     1
102
RTVSPropertyOp15
 70
     1
102
RTVSPropertyOp16
 70
     1
102
RTVSPropertyOp17
 70
     1
102
RTVSPropertyOp18
 70
     1
102
RTVSPropertyOp19
 70
     1
102
RTVSPropertyOp20
 70
     1
102
RTVSPropertyOp21
 70
     1
102
RTVSPropertyOp22
 70
     1
102
RTVSPropertyOp23
 70
     1
102
RTVSPropertyOp24
 70
     1
102
RTVSPropertyOp25
 70
     1
102
RTVSPropertyOp26
 70
     1
102
RTVSPropertyOp27
 70
     1
102
RTVSPropertyOp28
 70
     1
102
RTVSPropertyOp29
 70
     1
102
RTVSPropertyOp30
 70
     1
102
RTVSPropertyOp31
 70
     1
102
RTVSPropertyOp32
 70
     1
  0
XRECORD
  5
8A4
102
{ACAD_REACTORS
330
8A3
102
}
330
8A3
100
AcDbXrecord
280
     1
102
RTVSPropertyOp0
 70
     1
102
RTVSPropertyOp1
 70
     1
102
RTVSPropertyOp2
 70
     1
102
RTVSPropertyOp3
 70
     1
102
RTVSPropertyOp4
 70
     1
102
RTVSPropertyOp5
 70
     1
102
RTVSPropertyOp6
 70
     1
102
RTVSPropertyOp7
 70
     1
102
RTVSPropertyOp8
 70
     1
102
RTVSPropertyOp9
 70
     1
102
RTVSPropertyOp10
 70
     1
102
RTVSPropertyOp11
 70
     1
102
RTVSPropertyOp12
 70
     1
102
RTVSPropertyOp13
 70
     1
102
RTVSPropertyOp14
 70
     1
102
RTVSPropertyOp15
 70
     1
102
RTVSPropertyOp16
 70
     1
102
RTVSPropertyOp17
 70
     1
102
RTVSPropertyOp18
 70
     1
102
RTVSPropertyOp19
 70
     1
102
RTVSPropertyOp20
 70
     1
102
RTVSPropertyOp21
 70
     1
102
RTVSPropertyOp22
 70
     1
102
RTVSPropertyOp23
 70
     1
102
RTVSPropertyOp24
 70
     1
102
RTVSPropertyOp25
 70
     1
102
RTVSPropertyOp26
 70
     1
102
RTVSPropertyOp27
 70
     1
102
RTVSPropertyOp28
 70
     1
102
RTVSPropertyOp29
 70
     1
102
RTVSPropertyOp30
 70
     1
102
RTVSPropertyOp31
 70
     1
102
RTVSPropertyOp32
 70
     1
  0
XRECORD
  5
8C0
102
{ACAD_REACTORS
330
8BF
102
}
330
8BF
100
AcDbXrecord
280
     1
102
RTVSPropertyOp0
 70
     0
102
RTVSPropertyOp1
 70
     0
102
RTVSPropertyOp2
 70
     0
102
RTVSPropertyOp3
 70
     0
102
RTVSPropertyOp4
 70
     0
102
RTVSPropertyOp5
 70
     0
102
RTVSPropertyOp6
 70
     0
102
RTVSPropertyOp7
 70
     0
102
RTVSPropertyOp8
 70
     0
102
RTVSPropertyOp9
 70
     0
102
RTVSPropertyOp10
 70
     0
102
RTVSPropertyOp11
 70
     0
102
RTVSPropertyOp12
 70
     0
102
RTVSPropertyOp13
 70
     0
102
RTVSPropertyOp14
 70
     2
102
RTVSPropertyOp15
 70
     0
102
RTVSPropertyOp16
 70
     0
102
RTVSPropertyOp17
 70
     0
102
RTVSPropertyOp18
 70
     0
102
RTVSPropertyOp19
 70
     0
102
RTVSPropertyOp20
 70
     0
102
RTVSPropertyOp21
 70
     0
102
RTVSPropertyOp22
 70
     0
102
RTVSPropertyOp23
 70
     0
102
RTVSPropertyOp24
 70
     0
102
RTVSPropertyOp25
 70
     0
102
RTVSPropertyOp26
 70
     0
102
RTVSPropertyOp27
 70
     0
102
RTVSPropertyOp28
 70
     1
102
RTVSPropertyOp29
 70
     1
102
RTVSPropertyOp30
 70
     1
102
RTVSPropertyOp31
 70
     1
102
RTVSPropertyOp32
 70
     1
  0
XRECORD
  5
8B0
102
{ACAD_REACTORS
330
8AF
102
}
330
8AF
100
AcDbXrecord
280
     1
102
RTVSPropertyOp0
 70
     1
102
RTVSPropertyOp1
 70
     1
102
RTVSPropertyOp2
 70
     1
102
RTVSPropertyOp3
 70
     1
102
RTVSPropertyOp4
 70
     1
102
RTVSPropertyOp5
 70
     1
102
RTVSPropertyOp6
 70
     1
102
RTVSPropertyOp7
 70
     1
102
RTVSPropertyOp8
 70
     1
102
RTVSPropertyOp9
 70
     1
102
RTVSPropertyOp10
 70
     1
102
RTVSPropertyOp11
 70
     1
102
RTVSPropertyOp12
 70
     1
102
RTVSPropertyOp13
 70
     1
102
RTVSPropertyOp14
 70
     1
102
RTVSPropertyOp15
 70
     1
102
RTVSPropertyOp16
 70
     1
102
RTVSPropertyOp17
 70
     1
102
RTVSPropertyOp18
 70
     1
102
RTVSPropertyOp19
 70
     1
102
RTVSPropertyOp20
 70
     1
102
RTVSPropertyOp21
 70
     1
102
RTVSPropertyOp22
 70
     1
102
RTVSPropertyOp23
 70
     1
102
RTVSPropertyOp24
 70
     1
102
RTVSPropertyOp25
 70
     1
102
RTVSPropertyOp26
 70
     1
102
RTVSPropertyOp27
 70
     1
102
RTVSPropertyOp28
 70
     1
102
RTVSPropertyOp29
 70
     1
102
RTVSPropertyOp30
 70
     1
102
RTVSPropertyOp31
 70
     1
102
RTVSPropertyOp32
 70
     1
  0
XRECORD
  5
8C2
102
{ACAD_REACTORS
330
8C1
102
}
330
8C1
100
AcDbXrecord
280
     1
102
RTVSPropertyOp0
 70
     0
102
RTVSPropertyOp1
 70
     0
102
RTVSPropertyOp2
 70
     0
102
RTVSPropertyOp3
 70
     0
102
RTVSPropertyOp4
 70
     0
102
RTVSPropertyOp5
 70
     0
102
RTVSPropertyOp6
 70
     0
102
RTVSPropertyOp7
 70
     0
102
RTVSPropertyOp8
 70
     0
102
RTVSPropertyOp9
 70
     0
102
RTVSPropertyOp10
 70
     0
102
RTVSPropertyOp11
 70
     0
102
RTVSPropertyOp12
 70
     0
102
RTVSPropertyOp13
 70
     0
102
RTVSPropertyOp14
 70
     2
102
RTVSPropertyOp15
 70
     0
102
RTVSPropertyOp16
 70
     0
102
RTVSPropertyOp17
 70
     0
102
RTVSPropertyOp18
 70
     0
102
RTVSPropertyOp19
 70
     0
102
RTVSPropertyOp20
 70
     0
102
RTVSPropertyOp21
 70
     0
102
RTVSPropertyOp22
 70
     0
102
RTVSPropertyOp23
 70
     0
102
RTVSPropertyOp24
 70
     0
102
RTVSPropertyOp25
 70
     0
102
RTVSPropertyOp26
 70
     0
102
RTVSPropertyOp27
 70
     0
102
RTVSPropertyOp28
 70
     1
102
RTVSPropertyOp29
 70
     1
102
RTVSPropertyOp30
 70
     1
102
RTVSPropertyOp31
 70
     1
102
RTVSPropertyOp32
 70
     1
  0
XRECORD
  5
8A8
102
{ACAD_REACTORS
330
8A7
102
}
330
8A7
100
AcDbXrecord
280
     1
102
RTVSPropertyOp0
 70
     1
102
RTVSPropertyOp1
 70
     1
102
RTVSPropertyOp2
 70
     1
102
RTVSPropertyOp3
 70
     1
102
RTVSPropertyOp4
 70
     1
102
RTVSPropertyOp5
 70
     1
102
RTVSPropertyOp6
 70
     1
102
RTVSPropertyOp7
 70
     1
102
RTVSPropertyOp8
 70
     1
102
RTVSPropertyOp9
 70
     1
102
RTVSPropertyOp10
 70
     1
102
RTVSPropertyOp11
 70
     1
102
RTVSPropertyOp12
 70
     1
102
RTVSPropertyOp13
 70
     1
102
RTVSPropertyOp14
 70
     1
102
RTVSPropertyOp15
 70
     1
102
RTVSPropertyOp16
 70
     1
102
RTVSPropertyOp17
 70
     1
102
RTVSPropertyOp18
 70
     1
102
RTVSPropertyOp19
 70
     1
102
RTVSPropertyOp20
 70
     1
102
RTVSPropertyOp21
 70
     1
102
RTVSPropertyOp22
 70
     1
102
RTVSPropertyOp23
 70
     1
102
RTVSPropertyOp24
 70
     1
102
RTVSPropertyOp25
 70
     1
102
RTVSPropertyOp26
 70
     1
102
RTVSPropertyOp27
 70
     1
102
RTVSPropertyOp28
 70
     1
102
RTVSPropertyOp29
 70
     1
102
RTVSPropertyOp30
 70
     1
102
RTVSPropertyOp31
 70
     1
102
RTVSPropertyOp32
 70
     1
  0
XRECORD
  5
8BE
102
{ACAD_REACTORS
330
8BD
102
}
330
8BD
100
AcDbXrecord
280
     1
102
RTVSPropertyOp0
 70
     1
102
RTVSPropertyOp1
 70
     1
102
RTVSPropertyOp2
 70
     1
102
RTVSPropertyOp3
 70
     1
102
RTVSPropertyOp4
 70
     1
102
RTVSPropertyOp5
 70
     1
102
RTVSPropertyOp6
 70
     1
102
RTVSPropertyOp7
 70
     1
102
RTVSPropertyOp8
 70
     1
102
RTVSPropertyOp9
 70
     1
102
RTVSPropertyOp10
 70
     1
102
RTVSPropertyOp11
 70
     1
102
RTVSPropertyOp12
 70
     1
102
RTVSPropertyOp13
 70
     1
102
RTVSPropertyOp14
 70
     1
102
RTVSPropertyOp15
 70
     1
102
RTVSPropertyOp16
 70
     1
102
RTVSPropertyOp17
 70
     1
102
RTVSPropertyOp18
 70
     1
102
RTVSPropertyOp19
 70
     1
102
RTVSPropertyOp20
 70
     1
102
RTVSPropertyOp21
 70
     1
102
RTVSPropertyOp22
 70
     1
102
RTVSPropertyOp23
 70
     1
102
RTVSPropertyOp24
 70
     1
102
RTVSPropertyOp25
 70
     1
102
RTVSPropertyOp26
 70
     1
102
RTVSPropertyOp27
 70
     1
102
RTVSPropertyOp28
 70
     1
102
RTVSPropertyOp29
 70
     1
102
RTVSPropertyOp30
 70
     1
102
RTVSPropertyOp31
 70
     1
102
RTVSPropertyOp32
 70
     1
  0
XRECORD
  5
8BC
102
{ACAD_REACTORS
330
8BB
102
}
330
8BB
100
AcDbXrecord
280
     1
102
RTVSPropertyOp0
 70
     1
102
RTVSPropertyOp1
 70
     1
102
RTVSPropertyOp2
 70
     1
102
RTVSPropertyOp3
 70
     1
102
RTVSPropertyOp4
 70
     1
102
RTVSPropertyOp5
 70
     1
102
RTVSPropertyOp6
 70
     1
102
RTVSPropertyOp7
 70
     1
102
RTVSPropertyOp8
 70
     1
102
RTVSPropertyOp9
 70
     1
102
RTVSPropertyOp10
 70
     1
102
RTVSPropertyOp11
 70
     1
102
RTVSPropertyOp12
 70
     1
102
RTVSPropertyOp13
 70
     1
102
RTVSPropertyOp14
 70
     1
102
RTVSPropertyOp15
 70
     1
102
RTVSPropertyOp16
 70
     1
102
RTVSPropertyOp17
 70
     1
102
RTVSPropertyOp18
 70
     1
102
RTVSPropertyOp19
 70
     1
102
RTVSPropertyOp20
 70
     1
102
RTVSPropertyOp21
 70
     1
102
RTVSPropertyOp22
 70
     1
102
RTVSPropertyOp23
 70
     1
102
RTVSPropertyOp24
 70
     1
102
RTVSPropertyOp25
 70
     1
102
RTVSPropertyOp26
 70
     1
102
RTVSPropertyOp27
 70
     1
102
RTVSPropertyOp28
 70
     1
102
RTVSPropertyOp29
 70
     1
102
RTVSPropertyOp30
 70
     1
102
RTVSPropertyOp31
 70
     1
102
RTVSPropertyOp32
 70
     1
  0
XRECORD
  5
8B6
102
{ACAD_REACTORS
330
8B5
102
}
330
8B5
100
AcDbXrecord
280
     1
102
RTVSPropertyOp0
 70
     1
102
RTVSPropertyOp1
 70
     1
102
RTVSPropertyOp2
 70
     1
102
RTVSPropertyOp3
 70
     1
102
RTVSPropertyOp4
 70
     1
102
RTVSPropertyOp5
 70
     1
102
RTVSPropertyOp6
 70
     1
102
RTVSPropertyOp7
 70
     1
102
RTVSPropertyOp8
 70
     1
102
RTVSPropertyOp9
 70
     1
102
RTVSPropertyOp10
 70
     1
102
RTVSPropertyOp11
 70
     1
102
RTVSPropertyOp12
 70
     1
102
RTVSPropertyOp13
 70
     1
102
RTVSPropertyOp14
 70
     1
102
RTVSPropertyOp15
 70
     1
102
RTVSPropertyOp16
 70
     1
102
RTVSPropertyOp17
 70
     1
102
RTVSPropertyOp18
 70
     1
102
RTVSPropertyOp19
 70
     1
102
RTVSPropertyOp20
 70
     1
102
RTVSPropertyOp21
 70
     1
102
RTVSPropertyOp22
 70
     1
102
RTVSPropertyOp23
 70
     1
102
RTVSPropertyOp24
 70
     1
102
RTVSPropertyOp25
 70
     1
102
RTVSPropertyOp26
 70
     1
102
RTVSPropertyOp27
 70
     1
102
RTVSPropertyOp28
 70
     1
102
RTVSPropertyOp29
 70
     1
102
RTVSPropertyOp30
 70
     1
102
RTVSPropertyOp31
 70
     1
102
RTVSPropertyOp32
 70
     1
  0
XRECORD
  5
8B8
102
{ACAD_REACTORS
330
8B7
102
}
330
8B7
100
AcDbXrecord
280
     1
102
RTVSPropertyOp0
 70
     1
102
RTVSPropertyOp1
 70
     1
102
RTVSPropertyOp2
 70
     1
102
RTVSPropertyOp3
 70
     1
102
RTVSPropertyOp4
 70
     1
102
RTVSPropertyOp5
 70
     1
102
RTVSPropertyOp6
 70
     1
102
RTVSPropertyOp7
 70
     1
102
RTVSPropertyOp8
 70
     1
102
RTVSPropertyOp9
 70
     1
102
RTVSPropertyOp10
 70
     1
102
RTVSPropertyOp11
 70
     1
102
RTVSPropertyOp12
 70
     1
102
RTVSPropertyOp13
 70
     1
102
RTVSPropertyOp14
 70
     1
102
RTVSPropertyOp15
 70
     1
102
RTVSPropertyOp16
 70
     1
102
RTVSPropertyOp17
 70
     1
102
RTVSPropertyOp18
 70
     1
102
RTVSPropertyOp19
 70
     1
102
RTVSPropertyOp20
 70
     1
102
RTVSPropertyOp21
 70
     1
102
RTVSPropertyOp22
 70
     1
102
RTVSPropertyOp23
 70
     1
102
RTVSPropertyOp24
 70
     1
102
RTVSPropertyOp25
 70
     1
102
RTVSPropertyOp26
 70
     1
102
RTVSPropertyOp27
 70
     1
102
RTVSPropertyOp28
 70
     1
102
RTVSPropertyOp29
 70
     1
102
RTVSPropertyOp30
 70
     1
102
RTVSPropertyOp31
 70
     1
102
RTVSPropertyOp32
 70
     1
  0
XRECORD
  5
8AE
102
{ACAD_REACTORS
330
8AD
102
}
330
8AD
100
AcDbXrecord
280
     1
102
RTVSPropertyOp0
 70
     1
102
RTVSPropertyOp1
 70
     1
102
RTVSPropertyOp2
 70
     1
102
RTVSPropertyOp3
 70
     1
102
RTVSPropertyOp4
 70
     1
102
RTVSPropertyOp5
 70
     1
102
RTVSPropertyOp6
 70
     1
102
RTVSPropertyOp7
 70
     1
102
RTVSPropertyOp8
 70
     1
102
RTVSPropertyOp9
 70
     1
102
RTVSPropertyOp10
 70
     1
102
RTVSPropertyOp11
 70
     1
102
RTVSPropertyOp12
 70
     1
102
RTVSPropertyOp13
 70
     1
102
RTVSPropertyOp14
 70
     1
102
RTVSPropertyOp15
 70
     1
102
RTVSPropertyOp16
 70
     1
102
RTVSPropertyOp17
 70
     1
102
RTVSPropertyOp18
 70
     1
102
RTVSPropertyOp19
 70
     1
102
RTVSPropertyOp20
 70
     1
102
RTVSPropertyOp21
 70
     1
102
RTVSPropertyOp22
 70
     1
102
RTVSPropertyOp23
 70
     1
102
RTVSPropertyOp24
 70
     1
102
RTVSPropertyOp25
 70
     1
102
RTVSPropertyOp26
 70
     1
102
RTVSPropertyOp27
 70
     1
102
RTVSPropertyOp28
 70
     1
102
RTVSPropertyOp29
 70
     1
102
RTVSPropertyOp30
 70
     1
102
RTVSPropertyOp31
 70
     1
102
RTVSPropertyOp32
 70
     1
  0
XRECORD
  5
8A2
102
{ACAD_REACTORS
330
8A1
102
}
330
8A1
100
AcDbXrecord
280
     1
102
RTVSPropertyOp0
 70
     1
102
RTVSPropertyOp1
 70
     1
102
RTVSPropertyOp2
 70
     1
102
RTVSPropertyOp3
 70
     1
102
RTVSPropertyOp4
 70
     1
102
RTVSPropertyOp5
 70
     1
102
RTVSPropertyOp6
 70
     1
102
RTVSPropertyOp7
 70
     1
102
RTVSPropertyOp8
 70
     1
102
RTVSPropertyOp9
 70
     1
102
RTVSPropertyOp10
 70
     1
102
RTVSPropertyOp11
 70
     1
102
RTVSPropertyOp12
 70
     1
102
RTVSPropertyOp13
 70
     1
102
RTVSPropertyOp14
 70
     1
102
RTVSPropertyOp15
 70
     1
102
RTVSPropertyOp16
 70
     1
102
RTVSPropertyOp17
 70
     1
102
RTVSPropertyOp18
 70
     1
102
RTVSPropertyOp19
 70
     1
102
RTVSPropertyOp20
 70
     1
102
RTVSPropertyOp21
 70
     1
102
RTVSPropertyOp22
 70
     1
102
RTVSPropertyOp23
 70
     1
102
RTVSPropertyOp24
 70
     1
102
RTVSPropertyOp25
 70
     1
102
RTVSPropertyOp26
 70
     1
102
RTVSPropertyOp27
 70
     1
102
RTVSPropertyOp28
 70
     1
102
RTVSPropertyOp29
 70
     1
102
RTVSPropertyOp30
 70
     1
102
RTVSPropertyOp31
 70
     1
102
RTVSPropertyOp32
 70
     1
  0
XRECORD
  5
8BA
102
{ACAD_REACTORS
330
8B9
102
}
330
8B9
100
AcDbXrecord
280
     1
102
RTVSPropertyOp0
 70
     1
102
RTVSPropertyOp1
 70
     1
102
RTVSPropertyOp2
 70
     1
102
RTVSPropertyOp3
 70
     1
102
RTVSPropertyOp4
 70
     1
102
RTVSPropertyOp5
 70
     1
102
RTVSPropertyOp6
 70
     1
102
RTVSPropertyOp7
 70
     1
102
RTVSPropertyOp8
 70
     1
102
RTVSPropertyOp9
 70
     1
102
RTVSPropertyOp10
 70
     1
102
RTVSPropertyOp11
 70
     1
102
RTVSPropertyOp12
 70
     1
102
RTVSPropertyOp13
 70
     1
102
RTVSPropertyOp14
 70
     1
102
RTVSPropertyOp15
 70
     1
102
RTVSPropertyOp16
 70
     1
102
RTVSPropertyOp17
 70
     1
102
RTVSPropertyOp18
 70
     1
102
RTVSPropertyOp19
 70
     1
102
RTVSPropertyOp20
 70
     1
102
RTVSPropertyOp21
 70
     1
102
RTVSPropertyOp22
 70
     1
102
RTVSPropertyOp23
 70
     1
102
RTVSPropertyOp24
 70
     1
102
RTVSPropertyOp25
 70
     1
102
RTVSPropertyOp26
 70
     1
102
RTVSPropertyOp27
 70
     1
102
RTVSPropertyOp28
 70
     1
102
RTVSPropertyOp29
 70
     1
102
RTVSPropertyOp30
 70
     1
102
RTVSPropertyOp31
 70
     1
102
RTVSPropertyOp32
 70
     1
  0
ENDSEC
  0
EOF
