  0
SECTION
  2
HEADER
  9
$ACADVER
  1
AC1015
  9
$ACADMAINTVER
 70
    18
  9
$DWGCODEPAGE
  3
ANSI_1252
  9
$INSBASE
 10
0.0
 20
0.0
 30
0.0
  9
$EXTMIN
 10
0.0
 20
0.0
 30
0.0
  9
$EXTMAX
 10
26.15384615384615
 20
16.92307692307692
 30
0.0
  9
$LIMMIN
 10
0.0
 20
0.0
  9
$LIMMAX
 10
26.15384615384615
 20
16.92307692307692
  9
$ORTHOMODE
 70
     0
  9
$REGENMODE
 70
     1
  9
$FILLMODE
 70
     1
  9
$QTEXTMODE
 70
     0
  9
$MIRRTEXT
 70
     0
  9
$LTSCALE
 40
1.538461538461538
  9
$ATTMODE
 70
     1
  9
$TEXTSIZE
 40
0.2
  9
$TRACEWID
 40
0.05
  9
$TEXTSTYLE
  7
Standard
  9
$CLAYER
  8
0
  9
$CELTYPE
  6
ByLayer
  9
$CECOLOR
 62
   256
  9
$CELTSCALE
 40
1.0
  9
$DISPSILH
 70
     0
  9
$DIMSCALE
 40
1.0
  9
$DIMASZ
 40
0.0708661417322835
  9
$DIMEXO
 40
0.0625
  9
$DIMDLI
 40
0.38
  9
$DIMRND
 40
0.0
  9
$DIMDLE
 40
0.0
  9
$DIMEXE
 40
0.18
  9
$DIMTP
 40
0.0
  9
$DIMTM
 40
0.0
  9
$DIMTXT
 40
0.0708661417322835
  9
$DIMCEN
 40
0.09
  9
$DIMTSZ
 40
0.0
  9
$DIMTOL
 70
     0
  9
$DIMLIM
 70
     0
  9
$DIMTIH
 70
     1
  9
$DIMTOH
 70
     1
  9
$DIMSE1
 70
     0
  9
$DIMSE2
 70
     0
  9
$DIMTAD
 70
     0
  9
$DIMZIN
 70
     0
  9
$DIMBLK
  1

  9
$DIMASO
 70
     1
  9
$DIMSHO
 70
     1
  9
$DIMPOST
  1

  9
$DIMAPOST
  1

  9
$DIMALT
 70
     0
  9
$DIMALTD
 70
     2
  9
$DIMALTF
 40
25.4
  9
$DIMLFAC
 40
1.0
  9
$DIMTOFL
 70
     0
  9
$DIMTVP
 40
0.0
  9
$DIMTIX
 70
     0
  9
$DIMSOXD
 70
     0
  9
$DIMSAH
 70
     0
  9
$DIMBLK1
  1

  9
$DIMBLK2
  1

  9
$DIMSTYLE
  2
STANDARD
  9
$DIMCLRD
 70
     0
  9
$DIMCLRE
 70
     0
  9
$DIMCLRT
 70
     0
  9
$DIMTFAC
 40
1.0
  9
$DIMGAP
 40
0.09
  9
$DIMJUST
 70
     0
  9
$DIMSD1
 70
     0
  9
$DIMSD2
 70
     0
  9
$DIMTOLJ
 70
     1
  9
$DIMTZIN
 70
     0
  9
$DIMALTZ
 70
     0
  9
$DIMALTTZ
 70
     0
  9
$DIMUPT
 70
     0
  9
$DIMDEC
 70
     4
  9
$DIMTDEC
 70
     4
  9
$DIMALTU
 70
     2
  9
$DIMALTTD
 70
     2
  9
$DIMTXSTY
  7
Standard
  9
$DIMAUNIT
 70
     0
  9
$DIMADEC
 70
     0
  9
$DIMALTRND
 40
0.0
  9
$DIMAZIN
 70
     0
  9
$DIMDSEP
 70
    46
  9
$DIMATFIT
 70
     3
  9
$DIMFRAC
 70
     0
  9
$DIMLDRBLK
  1

  9
$DIMLUNIT
 70
     2
  9
$DIMLWD
 70
    -2
  9
$DIMLWE
 70
    -2
  9
$DIMTMOVE
 70
     0
  9
$LUNITS
 70
     2
  9
$LUPREC
 70
     4
  9
$SKETCHINC
 40
0.1
  9
$FILLETRAD
 40
0.0
  9
$AUNITS
 70
     0
  9
$AUPREC
 70
     0
  9
$MENU
  1
.
  9
$ELEVATION
 40
0.0
  9
$PELEVATION
 40
0.0
  9
$THICKNESS
 40
0.0
  9
$LIMCHECK
 70
     0
  9
$CHAMFERA
 40
0.0
  9
$CHAMFERB
 40
0.0
  9
$CHAMFERC
 40
0.0
  9
$CHAMFERD
 40
0.0
  9
$SKPOLY
 70
     0
  9
$TDCREATE
 40
2455951.558954595
  9
$TDUCREATE
 40
2455951.808954595
  9
$TDUPDATE
 40
2455951.558954595
  9
$TDUUPDATE
 40
2455951.808954595
  9
$TDINDWG
 40
0.0000589583
  9
$TDUSRTIMER
 40
0.0000589583
  9
$USRTIMER
 70
     1
  9
$ANGBASE
 50
0.0
  9
$ANGDIR
 70
     0
  9
$PDMODE
 70
     0
  9
$PDSIZE
 40
0.0
  9
$PLINEWID
 40
0.0
  9
$SPLFRAME
 70
     0
  9
$SPLINETYPE
 70
     6
  9
$SPLINESEGS
 70
     8
  9
$HANDSEED
  5
8D2
  9
$SURFTAB1
 70
     6
  9
$SURFTAB2
 70
     6
  9
$SURFTYPE
 70
     6
  9
$SURFU
 70
     6
  9
$SURFV
 70
     6
  9
$UCSBASE
  2

  9
$UCSNAME
  2

  9
$UCSORG
 10
0.0
 20
0.0
 30
0.0
  9
$UCSXDIR
 10
1.0
 20
0.0
 30
0.0
  9
$UCSYDIR
 10
0.0
 20
1.0
 30
0.0
  9
$UCSORTHOREF
  2

  9
$UCSORTHOVIEW
 70
     0
  9
$UCSORGTOP
 10
0.0
 20
0.0
 30
0.0
  9
$UCSORGBOTTOM
 10
0.0
 20
0.0
 30
0.0
  9
$UCSORGLEFT
 10
0.0
 20
0.0
 30
0.0
  9
$UCSORGRIGHT
 10
0.0
 20
0.0
 30
0.0
  9
$UCSORGFRONT
 10
0.0
 20
0.0
 30
0.0
  9
$UCSORGBACK
 10
0.0
 20
0.0
 30
0.0
  9
$PUCSBASE
  2

  9
$PUCSNAME
  2

  9
$PUCSORG
 10
0.0
 20
0.0
 30
0.0
  9
$PUCSXDIR
 10
1.0
 20
0.0
 30
0.0
  9
$PUCSYDIR
 10
0.0
 20
1.0
 30
0.0
  9
$PUCSORTHOREF
  2

  9
$PUCSORTHOVIEW
 70
     0
  9
$PUCSORGTOP
 10
0.0
 20
0.0
 30
0.0
  9
$PUCSORGBOTTOM
 10
0.0
 20
0.0
 30
0.0
  9
$PUCSORGLEFT
 10
0.0
 20
0.0
 30
0.0
  9
$PUCSORGRIGHT
 10
0.0
 20
0.0
 30
0.0
  9
$PUCSORGFRONT
 10
0.0
 20
0.0
 30
0.0
  9
$PUCSORGBACK
 10
0.0
 20
0.0
 30
0.0
  9
$USERI1
 70
     0
  9
$USERI2
 70
     0
  9
$USERI3
 70
     0
  9
$USERI4
 70
     0
  9
$USERI5
 70
     0
  9
$USERR1
 40
0.0
  9
$USERR2
 40
0.0
  9
$USERR3
 40
0.0
  9
$USERR4
 40
0.0
  9
$USERR5
 40
0.0
  9
$WORLDVIEW
 70
     1
  9
$SHADEDGE
 70
     3
  9
$SHADEDIF
 70
    70
  9
$TILEMODE
 70
     1
  9
$MAXACTVP
 70
    64
  9
$PINSBASE
 10
0.0
 20
0.0
 30
0.0
  9
$PLIMCHECK
 70
     0
  9
$PEXTMIN
 10
0.0
 20
0.0
 30
0.0
  9
$PEXTMAX
 10
26.15384615384615
 20
16.92307692307692
 30
0.0
  9
$PLIMMIN
 10
0.0
 20
0.0
  9
$PLIMMAX
 10
26.15384615384615
 20
16.92307692307692
  9
$UNITMODE
 70
     0
  9
$VISRETAIN
 70
     1
  9
$PLINEGEN
 70
     0
  9
$PSLTSCALE
 70
     1
  9
$TREEDEPTH
 70
  3020
  9
$CMLSTYLE
  2
Standard
  9
$CMLJUST
 70
     0
  9
$CMLSCALE
 40
1.0
  9
$PROXYGRAPHICS
 70
     1
  9
$MEASUREMENT
 70
     0
  9
$CELWEIGHT
370
    -1
  9
$ENDCAPS
280
     0
  9
$JOINSTYLE
280
     0
  9
$LWDISPLAY
290
     0
  9
$INSUNITS
 70
     1
  9
$HYPERLINKBASE
  1

  9
$STYLESHEET
  1

  9
$XEDIT
290
     1
  9
$CEPSNTYPE
380
     0
  9
$PSTYLEMODE
290
     1
  9
$FINGERPRINTGUID
  2
{DB77A130-228E-4E0D-BE93-4105D22E2F00}
  9
$VERSIONGUID
  2
{E244215A-AF65-42E9-B917-8C30206AED1A}
  9
$EXTNAMES
290
     1
  9
$PSVPSCALE
 40
0.0
  9
$OLESTARTUP
290
     0
  0
ENDSEC
  0
SECTION
  2
CLASSES
  0
CLASS
  1
ACDBDICTIONARYWDFLT
  2
AcDbDictionaryWithDefault
  3
ObjectDBX Classes
 90
        0
280
     0
281
     0
  0
CLASS
  1
MATERIAL
  2
AcDbMaterial
  3
ObjectDBX Classes
 90
     1153
280
     0
281
     0
  0
CLASS
  1
VISUALSTYLE
  2
AcDbVisualStyle
  3
ObjectDBX Classes
 90
     4095
280
     0
281
     0
  0
CLASS
  1
SCALE
  2
AcDbScale
  3
ObjectDBX Classes
 90
     1153
280
     0
281
     0
  0
CLASS
  1
TABLESTYLE
  2
AcDbTableStyle
  3
ObjectDBX Classes
 90
     4095
280
     0
281
     0
  0
CLASS
  1
MLEADERSTYLE
  2
AcDbMLeaderStyle
  3
ACDB_MLEADERSTYLE_CLASS
 90
     4095
280
     0
281
     0
  0
CLASS
  1
DICTIONARYVAR
  2
AcDbDictionaryVar
  3
ObjectDBX Classes
 90
        0
280
     0
281
     0
  0
CLASS
  1
CELLSTYLEMAP
  2
AcDbCellStyleMap
  3
ObjectDBX Classes
 90
     1152
280
     0
281
     0
  0
CLASS
  1
ACDBPLACEHOLDER
  2
AcDbPlaceHolder
  3
ObjectDBX Classes
 90
        0
280
     0
281
     0
  0
CLASS
  1
LAYOUT
  2
AcDbLayout
  3
ObjectDBX Classes
 90
        0
280
     0
281
     0
  0
ENDSEC
  0
SECTION
  2
TABLES
  0
TABLE
  2
VPORT
  5
8
330
0
100
AcDbSymbolTable
 70
     1
  0
VPORT
  5
57
330
8
100
AcDbSymbolTableRecord
100
AcDbViewportTableRecord
  2
*Active
 70
     0
 10
0.0
 20
0.0
 11
1.0
 21
1.0
 12
13.07692307692307
 22
8.461538461538459
 13
0.0
 23
0.0
 14
1.0
 24
1.0
 15
0.0
 25
0.0
 16
0.0
 26
0.0
 36
1.0
 17
0.0
 27
0.0
 37
0.0
 40
16.92307692307692
 41
1.545454545454545
 42
50.0
 43
0.0
 44
0.0
 50
0.0
 51
0.0
 71
     0
 72
   100
 73
     1
 74
     1
 75
     0
 76
     0
 77
     0
 78
     0
281
     0
 65
     1
110
0.0
120
0.0
130
0.0
111
1.0
121
0.0
131
0.0
112
0.0
122
1.0
132
0.0
 79
     0
146
0.0
  0
ENDTAB
  0
TABLE
  2
LTYPE
  5
5
330
0
100
AcDbSymbolTable
 70
    59
  0
LTYPE
  5
5B
330
5
100
AcDbSymbolTableRecord
100
AcDbLinetypeTableRecord
  2
ByBlock
 70
     0
  3

 72
    65
 73
     0
 40
0.0
  0
LTYPE
  5
5C
330
5
100
AcDbSymbolTableRecord
100
AcDbLinetypeTableRecord
  2
ByLayer
 70
     0
  3

 72
    65
 73
     0
 40
0.0
  0
LTYPE
  5
5D
330
5
100
AcDbSymbolTableRecord
100
AcDbLinetypeTableRecord
  2
Continuous
 70
     0
  3
Solid line
 72
    65
 73
     0
 40
0.0
  0
LTYPE
  5
7C
330
5
100
AcDbSymbolTableRecord
100
AcDbLinetypeTableRecord
  2
BY_STANDARD
 70
     0
  3
By Standard ____________    ____    ____   _
 72
    65
 73
     6
 40
1.240299999999999
 49
0.6614
 74
     0
 49
-0.0827
 74
     0
 49
0.1654
 74
     0
 49
-0.0827
 74
     0
 49
0.1654
 74
     0
 49
-0.0827
 74
     0
  0
LTYPE
  5
7D
330
5
100
AcDbSymbolTableRecord
100
AcDbLinetypeTableRecord
  2
CHAIN
 70
     0
  3
Chain ____ _ ____ _ ____ _ ____ _ ____ _ ____
 72
    65
 73
     4
 40
0.7087
 49
0.4724000000000001
 74
     0
 49
-0.0591
 74
     0
 49
0.1181
 74
     0
 49
-0.0591
 74
     0
  0
LTYPE
  5
7E
330
5
100
AcDbSymbolTableRecord
100
AcDbLinetypeTableRecord
  2
DASH_DOT
 70
     0
  3
Dash dot __ . __ . __ . __ . __ . __ . __ . __
 72
    65
 73
     4
 40
0.37
 49
0.24
 74
     0
 49
-0.06
 74
     0
 49
0.01
 74
     0
 49
-0.06
 74
     0
  0
LTYPE
  5
7F
330
5
100
AcDbSymbolTableRecord
100
AcDbLinetypeTableRecord
  2
DOUBLE_DASH_DOT
 70
     0
  3
Double-Dash Dot __ __ . __ __ . __ __ . __ _
 72
    65
 73
     6
 40
0.4398
 49
0.24
 74
     0
 49
-0.06
 74
     0
 49
0.0098
 74
     0
 49
-0.06
 74
     0
 49
0.01
 74
     0
 49
-0.06
 74
     0
  0
LTYPE
  5
80
330
5
100
AcDbSymbolTableRecord
100
AcDbLinetypeTableRecord
  2
DASH_TRIPLE_DOT
 70
     0
  3
Dash Triple-Dot _ . . . _ . . . _ . . . _
 72
    65
 73
     8
 40
0.51
 49
0.24
 74
     0
 49
-0.06
 74
     0
 49
0.01
 74
     0
 49
-0.06
 74
     0
 49
0.01
 74
     0
 49
-0.06
 74
     0
 49
0.01
 74
     0
 49
-0.06
 74
     0
  0
LTYPE
  5
81
330
5
100
AcDbSymbolTableRecord
100
AcDbLinetypeTableRecord
  2
DASHED
 70
     0
  3
Dashed __ __ __ __ __ __ __ __ __ __ __ __ __ _
 72
    65
 73
     2
 40
0.2067
 49
0.1654
 74
     0
 49
-0.0413
 74
     0
  0
LTYPE
  5
82
330
5
100
AcDbSymbolTableRecord
100
AcDbLinetypeTableRecord
  2
DASH_DOUBLE_DOT
 70
     0
  3
Dash Double-Dot __ . . __ . . __ . . __ . .
 72
    65
 73
     6
 40
0.4398
 49
0.24
 74
     0
 49
-0.06
 74
     0
 49
0.0098
 74
     0
 49
-0.06
 74
     0
 49
0.01
 74
     0
 49
-0.06
 74
     0
  0
LTYPE
  5
83
330
5
100
AcDbSymbolTableRecord
100
AcDbLinetypeTableRecord
  2
DASHED_SPACE
 70
     0
  3
Dashed Space __ __ __ __ __ __ __ __ __ __ __ _
 72
    65
 73
     2
 40
0.2067
 49
0.1654
 74
     0
 49
-0.0413
 74
     0
  0
LTYPE
  5
84
330
5
100
AcDbSymbolTableRecord
100
AcDbLinetypeTableRecord
  2
DOTTED
 70
     0
  3
Dotted . . . . . . . . . . . . . . . . . . . . 
 72
    65
 73
     2
 40
0.0482
 49
0.0069
 74
     0
 49
-0.0413
 74
     0
  0
LTYPE
  5
85
330
5
100
AcDbSymbolTableRecord
100
AcDbLinetypeTableRecord
  2
DOUBLE_DASH_CHAIN
 70
     0
  3
Double-Dash Chain ______  __  __  ______  __  _
 72
    65
 73
     6
 40
1.240299999999999
 49
0.6614
 74
     0
 49
-0.0827
 74
     0
 49
0.1654
 74
     0
 49
-0.0827
 74
     0
 49
0.1654
 74
     0
 49
-0.0827
 74
     0
  0
LTYPE
  5
87
330
5
100
AcDbSymbolTableRecord
100
AcDbLinetypeTableRecord
  2
DOUBLE_DASH_DOUBLE_DOT
 70
     0
  3
Double-Dash Double-dot _ _ . . _ _ . . _
 72
    65
 73
     8
 40
0.7400000000000001
 49
0.24
 74
     0
 49
-0.06
 74
     0
 49
0.24
 74
     0
 49
-0.06
 74
     0
 49
0.01
 74
     0
 49
-0.06
 74
     0
 49
0.01
 74
     0
 49
-0.06
 74
     0
  0
LTYPE
  5
88
330
5
100
AcDbSymbolTableRecord
100
AcDbLinetypeTableRecord
  2
DOUBLE_DASH_TRIPLE_DOT
 70
     0
  3
Double Dash Triple Dot __ __ . . . __ __ . .
 72
    65
 73
    10
 40
0.8100000000000001
 49
0.24
 74
     0
 49
-0.06
 74
     0
 49
0.24
 74
     0
 49
-0.06
 74
     0
 49
0.01
 74
     0
 49
-0.06
 74
     0
 49
0.01
 74
     0
 49
-0.06
 74
     0
 49
0.01
 74
     0
 49
-0.06
 74
     0
  0
LTYPE
  5
89
330
5
100
AcDbSymbolTableRecord
100
AcDbLinetypeTableRecord
  2
LONG_DASH_DOTTED
 70
     0
  3
Long Dash Dotted ____ . ____ . ____ . ____ . _
 72
    65
 73
     4
 40
0.3543
 49
0.2362
 74
     0
 49
-0.0295
 74
     0
 49
0.0591
 74
     0
 49
-0.0295
 74
     0
  0
LTYPE
  5
8A
330
5
100
AcDbSymbolTableRecord
100
AcDbLinetypeTableRecord
  2
LONG_DASH_DOUBLE_DOT
 70
     0
  3
Long Dash Double Dot ________  .  .  ________  
 72
    65
 73
     6
 40
0.6799999999999999
 49
0.48
 74
     0
 49
-0.06
 74
     0
 49
0.01
 74
     0
 49
-0.06
 74
     0
 49
0.01
 74
     0
 49
-0.06
 74
     0
  0
LTYPE
  5
8B
330
5
100
AcDbSymbolTableRecord
100
AcDbLinetypeTableRecord
  2
LONG_DASH_TRIPLE_DOT
 70
     0
  3
Long Dash Triple Dot ____ ... ____ ... ____
 72
    65
 73
     8
 40
0.3689
 49
0.2362
 74
     0
 49
-0.0295
 74
     0
 49
0.0049
 74
     0
 49
-0.0295
 74
     0
 49
0.0049
 74
     0
 49
-0.0295
 74
     0
 49
0.0049
 74
     0
 49
-0.0295
 74
     0
  0
LTYPE
  5
8C
330
5
100
AcDbSymbolTableRecord
100
AcDbLinetypeTableRecord
  2
BORDER
 70
     0
  3
Border __ __ . __ __ . __ __ . __ __ . __ __ .
 72
    65
 73
     6
 40
1.75
 49
0.5
 74
     0
 49
-0.25
 74
     0
 49
0.5
 74
     0
 49
-0.25
 74
     0
 49
0.0
 74
     0
 49
-0.25
 74
     0
  0
LTYPE
  5
8D
330
5
100
AcDbSymbolTableRecord
100
AcDbLinetypeTableRecord
  2
BORDER2
 70
     0
  3
Border (.5x) __.__.__.__.__.__.__.__.__.__.__.
 72
    65
 73
     6
 40
0.875
 49
0.25
 74
     0
 49
-0.125
 74
     0
 49
0.25
 74
     0
 49
-0.125
 74
     0
 49
0.0
 74
     0
 49
-0.125
 74
     0
  0
LTYPE
  5
8E
330
5
100
AcDbSymbolTableRecord
100
AcDbLinetypeTableRecord
  2
BORDERX2
 70
     0
  3
Border (2x) ____  ____  .  ____  ____  .  ___
 72
    65
 73
     6
 40
3.5
 49
1.0
 74
     0
 49
-0.5
 74
     0
 49
1.0
 74
     0
 49
-0.5
 74
     0
 49
0.0
 74
     0
 49
-0.5
 74
     0
  0
LTYPE
  5
8F
330
5
100
AcDbSymbolTableRecord
100
AcDbLinetypeTableRecord
  2
CENTER
 70
     0
  3
Center ____ _ ____ _ ____ _ ____ _ ____ _ ____
 72
    65
 73
     4
 40
2.0
 49
1.25
 74
     0
 49
-0.25
 74
     0
 49
0.25
 74
     0
 49
-0.25
 74
     0
  0
LTYPE
  5
90
330
5
100
AcDbSymbolTableRecord
100
AcDbLinetypeTableRecord
  2
CENTER2
 70
     0
  3
Center (.5x) ___ _ ___ _ ___ _ ___ _ ___ _ ___
 72
    65
 73
     4
 40
1.125
 49
0.75
 74
     0
 49
-0.125
 74
     0
 49
0.125
 74
     0
 49
-0.125
 74
     0
  0
LTYPE
  5
91
330
5
100
AcDbSymbolTableRecord
100
AcDbLinetypeTableRecord
  2
CENTERX2
 70
     0
  3
Center (2x) ________  __  ________  __  _____
 72
    65
 73
     4
 40
4.0
 49
2.5
 74
     0
 49
-0.5
 74
     0
 49
0.5
 74
     0
 49
-0.5
 74
     0
  0
LTYPE
  5
92
330
5
100
AcDbSymbolTableRecord
100
AcDbLinetypeTableRecord
  2
DASHDOT2
 70
     0
  3
Dash dot (.5x) _._._._._._._._._._._._._._._.
 72
    65
 73
     4
 40
0.5
 49
0.25
 74
     0
 49
-0.125
 74
     0
 49
0.0
 74
     0
 49
-0.125
 74
     0
  0
LTYPE
  5
93
330
5
100
AcDbSymbolTableRecord
100
AcDbLinetypeTableRecord
  2
DASHDOTX2
 70
     0
  3
Dash dot (2x) ____  .  ____  .  ____  .  ___
 72
    65
 73
     4
 40
2.0
 49
1.0
 74
     0
 49
-0.5
 74
     0
 49
0.0
 74
     0
 49
-0.5
 74
     0
  0
LTYPE
  5
95
330
5
100
AcDbSymbolTableRecord
100
AcDbLinetypeTableRecord
  2
DASHED2
 70
     0
  3
Dashed (.5x) _ _ _ _ _ _ _ _ _ _ _ _ _ _ _ _ _
 72
    65
 73
     2
 40
0.375
 49
0.25
 74
     0
 49
-0.125
 74
     0
  0
LTYPE
  5
96
330
5
100
AcDbSymbolTableRecord
100
AcDbLinetypeTableRecord
  2
DASHEDX2
 70
     0
  3
Dashed (2x) ____  ____  ____  ____  ____  ___
 72
    65
 73
     2
 40
1.5
 49
1.0
 74
     0
 49
-0.5
 74
     0
  0
LTYPE
  5
97
330
5
100
AcDbSymbolTableRecord
100
AcDbLinetypeTableRecord
  2
DIVIDE
 70
     0
  3
Divide ____ . . ____ . . ____ . . ____ . . ____
 72
    65
 73
     6
 40
1.25
 49
0.5
 74
     0
 49
-0.25
 74
     0
 49
0.0
 74
     0
 49
-0.25
 74
     0
 49
0.0
 74
     0
 49
-0.25
 74
     0
  0
LTYPE
  5
98
330
5
100
AcDbSymbolTableRecord
100
AcDbLinetypeTableRecord
  2
DIVIDE2
 70
     0
  3
Divide (.5x) __..__..__..__..__..__..__..__.._
 72
    65
 73
     6
 40
0.625
 49
0.25
 74
     0
 49
-0.125
 74
     0
 49
0.0
 74
     0
 49
-0.125
 74
     0
 49
0.0
 74
     0
 49
-0.125
 74
     0
  0
LTYPE
  5
99
330
5
100
AcDbSymbolTableRecord
100
AcDbLinetypeTableRecord
  2
DIVIDEX2
 70
     0
  3
Divide (2x) ________  .  .  ________  .  .  _
 72
    65
 73
     6
 40
2.5
 49
1.0
 74
     0
 49
-0.5
 74
     0
 49
0.0
 74
     0
 49
-0.5
 74
     0
 49
0.0
 74
     0
 49
-0.5
 74
     0
  0
LTYPE
  5
9A
330
5
100
AcDbSymbolTableRecord
100
AcDbLinetypeTableRecord
  2
DOT
 70
     0
  3
Dot . . . . . . . . . . . . . . . . . . . . . .
 72
    65
 73
     2
 40
0.25
 49
0.0
 74
     0
 49
-0.25
 74
     0
  0
LTYPE
  5
9B
330
5
100
AcDbSymbolTableRecord
100
AcDbLinetypeTableRecord
  2
DOT2
 70
     0
  3
Dot (.5x) .....................................
 72
    65
 73
     2
 40
0.125
 49
0.0
 74
     0
 49
-0.125
 74
     0
  0
LTYPE
  5
9C
330
5
100
AcDbSymbolTableRecord
100
AcDbLinetypeTableRecord
  2
DOTX2
 70
     0
  3
Dot (2x) .  .  .  .  .  .  .  .  .  .  .  .  . 
 72
    65
 73
     2
 40
0.5
 49
0.0
 74
     0
 49
-0.5
 74
     0
  0
LTYPE
  5
9D
330
5
100
AcDbSymbolTableRecord
100
AcDbLinetypeTableRecord
  2
HIDDEN
 70
     0
  3
Hidden __ __ __ __ __ __ __ __ __ __ __ __ __ _
 72
    65
 73
     2
 40
0.375
 49
0.25
 74
     0
 49
-0.125
 74
     0
  0
LTYPE
  5
9E
330
5
100
AcDbSymbolTableRecord
100
AcDbLinetypeTableRecord
  2
HIDDEN2
 70
     0
  3
Hidden (.5x) _ _ _ _ _ _ _ _ _ _ _ _ _ _ _ _ _
 72
    65
 73
     2
 40
0.1875
 49
0.125
 74
     0
 49
-0.0625
 74
     0
  0
LTYPE
  5
9F
330
5
100
AcDbSymbolTableRecord
100
AcDbLinetypeTableRecord
  2
HIDDENX2
 70
     0
  3
Hidden (2x) ____ ____ ____ ____ ____ ____ ____
 72
    65
 73
     2
 40
0.75
 49
0.5
 74
     0
 49
-0.25
 74
     0
  0
LTYPE
  5
A0
330
5
100
AcDbSymbolTableRecord
100
AcDbLinetypeTableRecord
  2
PHANTOM
 70
     0
  3
Phantom ______  __  __  ______  __  __  ______
 72
    65
 73
     6
 40
2.5
 49
1.25
 74
     0
 49
-0.25
 74
     0
 49
0.25
 74
     0
 49
-0.25
 74
     0
 49
0.25
 74
     0
 49
-0.25
 74
     0
  0
LTYPE
  5
A1
330
5
100
AcDbSymbolTableRecord
100
AcDbLinetypeTableRecord
  2
PHANTOM2
 70
     0
  3
Phantom (.5x) ___ _ _ ___ _ _ ___ _ _ ___ _ _
 72
    65
 73
     6
 40
1.25
 49
0.625
 74
     0
 49
-0.125
 74
     0
 49
0.125
 74
     0
 49
-0.125
 74
     0
 49
0.125
 74
     0
 49
-0.125
 74
     0
  0
LTYPE
  5
A2
330
5
100
AcDbSymbolTableRecord
100
AcDbLinetypeTableRecord
  2
PHANTOMX2
 70
     0
  3
Phantom (2x) ____________    ____    ____   _
 72
    65
 73
     6
 40
5.0
 49
2.5
 74
     0
 49
-0.5
 74
     0
 49
0.5
 74
     0
 49
-0.5
 74
     0
 49
0.5
 74
     0
 49
-0.5
 74
     0
  0
LTYPE
  5
A3
330
5
100
AcDbSymbolTableRecord
100
AcDbLinetypeTableRecord
  2
ACAD_ISO02W100
 70
     0
  3
ISO dash __ __ __ __ __ __ __ __ __ __ __ __ __
 72
    65
 73
     2
 40
0.59
 49
0.47
 74
     0
 49
-0.12
 74
     0
  0
LTYPE
  5
A4
330
5
100
AcDbSymbolTableRecord
100
AcDbLinetypeTableRecord
  2
ACAD_ISO03W100
 70
     0
  3
ISO dash space __    __    __    __    __    __
 72
    65
 73
     2
 40
1.179999999999999
 49
0.47
 74
     0
 49
-0.71
 74
     0
  0
LTYPE
  5
A5
330
5
100
AcDbSymbolTableRecord
100
AcDbLinetypeTableRecord
  2
ACAD_ISO04W100
 70
     0
  3
ISO long-dash dot ____ . ____ . ____ . ____ . _
 72
    65
 73
     4
 40
1.179999999999999
 49
0.9399999999999998
 74
     0
 49
-0.12
 74
     0
 49
0.0
 74
     0
 49
-0.12
 74
     0
  0
LTYPE
  5
A6
330
5
100
AcDbSymbolTableRecord
100
AcDbLinetypeTableRecord
  2
ACAD_ISO05W100
 70
     0
  3
ISO long-dash double-dot ____ .. ____ .. ____ .
 72
    65
 73
     6
 40
1.299999999999999
 49
0.9399999999999998
 74
     0
 49
-0.12
 74
     0
 49
0.0
 74
     0
 49
-0.12
 74
     0
 49
0.0
 74
     0
 49
-0.12
 74
     0
  0
LTYPE
  5
A7
330
5
100
AcDbSymbolTableRecord
100
AcDbLinetypeTableRecord
  2
ACAD_ISO06W100
 70
     0
  3
ISO long-dash triple-dot ____ ... ____ ... ____
 72
    65
 73
     8
 40
1.419999999999999
 49
0.9399999999999998
 74
     0
 49
-0.12
 74
     0
 49
0.0
 74
     0
 49
-0.12
 74
     0
 49
0.0
 74
     0
 49
-0.12
 74
     0
 49
0.0
 74
     0
 49
-0.12
 74
     0
  0
LTYPE
  5
A8
330
5
100
AcDbSymbolTableRecord
100
AcDbLinetypeTableRecord
  2
ACAD_ISO07W100
 70
     0
  3
ISO dot . . . . . . . . . . . . . . . . . . . .
 72
    65
 73
     2
 40
0.12
 49
0.0
 74
     0
 49
-0.12
 74
     0
  0
LTYPE
  5
A9
330
5
100
AcDbSymbolTableRecord
100
AcDbLinetypeTableRecord
  2
ACAD_ISO08W100
 70
     0
  3
ISO long-dash short-dash ____ __ ____ __ ____ _
 72
    65
 73
     4
 40
0.95
 49
0.47
 74
     0
 49
-0.12
 74
     0
 49
0.24
 74
     0
 49
-0.12
 74
     0
  0
LTYPE
  5
AA
330
5
100
AcDbSymbolTableRecord
100
AcDbLinetypeTableRecord
  2
ACAD_ISO09W100
 70
     0
  3
ISO long-dash double-short-dash ____ __ __ ____
 72
    65
 73
     6
 40
1.31
 49
0.47
 74
     0
 49
-0.12
 74
     0
 49
0.24
 74
     0
 49
-0.12
 74
     0
 49
0.24
 74
     0
 49
-0.12
 74
     0
  0
LTYPE
  5
AB
330
5
100
AcDbSymbolTableRecord
100
AcDbLinetypeTableRecord
  2
ACAD_ISO10W100
 70
     0
  3
ISO dash dot __ . __ . __ . __ . __ . __ . __ .
 72
    65
 73
     4
 40
0.71
 49
0.47
 74
     0
 49
-0.12
 74
     0
 49
0.0
 74
     0
 49
-0.12
 74
     0
  0
LTYPE
  5
AC
330
5
100
AcDbSymbolTableRecord
100
AcDbLinetypeTableRecord
  2
ACAD_ISO11W100
 70
     0
  3
ISO double-dash dot __ __ . __ __ . __ __ . __ 
 72
    65
 73
     6
 40
1.299999999999999
 49
0.47
 74
     0
 49
-0.12
 74
     0
 49
0.47
 74
     0
 49
-0.12
 74
     0
 49
0.0
 74
     0
 49
-0.12
 74
     0
  0
LTYPE
  5
AD
330
5
100
AcDbSymbolTableRecord
100
AcDbLinetypeTableRecord
  2
ACAD_ISO12W100
 70
     0
  3
ISO dash double-dot __ . . __ . . __ . . __ . .
 72
    65
 73
     6
 40
0.8299999999999998
 49
0.47
 74
     0
 49
-0.12
 74
     0
 49
0.0
 74
     0
 49
-0.12
 74
     0
 49
0.0
 74
     0
 49
-0.12
 74
     0
  0
LTYPE
  5
AE
330
5
100
AcDbSymbolTableRecord
100
AcDbLinetypeTableRecord
  2
ACAD_ISO13W100
 70
     0
  3
ISO double-dash double-dot __ __ . . __ __ . . 
 72
    65
 73
     8
 40
1.419999999999999
 49
0.47
 74
     0
 49
-0.12
 74
     0
 49
0.47
 74
     0
 49
-0.12
 74
     0
 49
0.0
 74
     0
 49
-0.12
 74
     0
 49
0.0
 74
     0
 49
-0.12
 74
     0
  0
LTYPE
  5
AF
330
5
100
AcDbSymbolTableRecord
100
AcDbLinetypeTableRecord
  2
ACAD_ISO14W100
 70
     0
  3
ISO dash triple-dot __ . . . __ . . . __ . . . 
 72
    65
 73
     8
 40
0.95
 49
0.47
 74
     0
 49
-0.12
 74
     0
 49
0.0
 74
     0
 49
-0.12
 74
     0
 49
0.0
 74
     0
 49
-0.12
 74
     0
 49
0.0
 74
     0
 49
-0.12
 74
     0
  0
LTYPE
  5
B0
330
5
100
AcDbSymbolTableRecord
100
AcDbLinetypeTableRecord
  2
ACAD_ISO15W100
 70
     0
  3
ISO double-dash triple-dot __ __ . . . __ __ . 
 72
    65
 73
    10
 40
1.539999999999999
 49
0.47
 74
     0
 49
-0.12
 74
     0
 49
0.47
 74
     0
 49
-0.12
 74
     0
 49
0.0
 74
     0
 49
-0.12
 74
     0
 49
0.0
 74
     0
 49
-0.12
 74
     0
 49
0.0
 74
     0
 49
-0.12
 74
     0
  0
LTYPE
  5
B3
330
5
100
AcDbSymbolTableRecord
100
AcDbLinetypeTableRecord
  2
FENCELINE1
 70
     0
  3
Fenceline circle ----0-----0----0-----0----0---
 72
    65
 73
     4
 40
1.45
 49
0.25
 74
     0
 49
-0.1
 74
     4
 75
   133
340
B2
 46
0.1
 50
0.0
 44
-0.1
 45
0.0
 49
-0.1
 74
     0
 49
1.0
 74
     0
  0
LTYPE
  5
B4
330
5
100
AcDbSymbolTableRecord
100
AcDbLinetypeTableRecord
  2
FENCELINE2
 70
     0
  3
Fenceline square ----[]-----[]----[]-----[]----
 72
    65
 73
     4
 40
1.45
 49
0.25
 74
     0
 49
-0.1
 74
     4
 75
   132
340
B2
 46
0.1
 50
0.0
 44
-0.1
 45
0.0
 49
-0.1
 74
     0
 49
1.0
 74
     0
  0
LTYPE
  5
B5
330
5
100
AcDbSymbolTableRecord
100
AcDbLinetypeTableRecord
  2
TRACKS
 70
     0
  3
Tracks -|-|-|-|-|-|-|-|-|-|-|-|-|-|-|-|-|-|-|-|
 72
    65
 73
     2
 40
0.3
 49
0.15
 74
     4
 75
   130
340
B2
 46
0.25
 50
0.0
 44
0.0
 45
0.0
 49
0.15
 74
     0
  0
LTYPE
  5
B6
330
5
100
AcDbSymbolTableRecord
100
AcDbLinetypeTableRecord
  2
BATTING
 70
     0
  3
Batting SSSSSSSSSSSSSSSSSSSSSSSSSSSSSSSSSSSSSSS
 72
    65
 73
     4
 40
0.4001000000000001
 49
0.0001
 74
     0
 49
-0.1
 74
     4
 75
   134
340
B2
 46
0.1
 50
0.0
 44
-0.1
 45
0.0
 49
-0.2
 74
     4
 75
   134
340
B2
 46
0.1
 50
180.0
 44
0.1
 45
0.0
 49
-0.1
 74
     0
  0
LTYPE
  5
B7
330
5
100
AcDbSymbolTableRecord
100
AcDbLinetypeTableRecord
  2
HOT_WATER_SUPPLY
 70
     0
  3
Hot water supply ---- HW ---- HW ---- HW ----
 72
    65
 73
     3
 40
0.9
 49
0.5
 74
     0
 49
-0.2
 74
     2
 75
     0
340
55
 46
0.1
 50
0.0
 44
-0.1
 45
-0.05
  9
HW
 49
-0.2
 74
     0
  0
LTYPE
  5
B8
330
5
100
AcDbSymbolTableRecord
100
AcDbLinetypeTableRecord
  2
GAS_LINE
 70
     0
  3
Gas line ----GAS----GAS----GAS----GAS----GAS---
 72
    65
 73
     3
 40
0.95
 49
0.5
 74
     0
 49
-0.2
 74
     2
 75
     0
340
55
 46
0.1
 50
0.0
 44
-0.1
 45
-0.05
  9
GAS
 49
-0.25
 74
     0
  0
LTYPE
  5
B9
330
5
100
AcDbSymbolTableRecord
100
AcDbLinetypeTableRecord
  2
ZIGZAG
 70
     0
  3
Zig zag /\/\/\/\/\/\/\/\/\/\/\/\/\/\/\/\/\/\/\/
 72
    65
 73
     4
 40
0.8001000000000001
 49
0.0001
 74
     0
 49
-0.2
 74
     4
 75
   131
340
B2
 46
0.2
 50
0.0
 44
-0.2
 45
0.0
 49
-0.4
 74
     4
 75
   131
340
B2
 46
0.2
 50
180.0
 44
0.2
 45
0.0
 49
-0.2
 74
     0
  0
ENDTAB
  0
TABLE
  2
LAYER
  5
2
330
0
100
AcDbSymbolTable
 70
    27
  0
LAYER
  5
54
330
2
100
AcDbSymbolTableRecord
100
AcDbLayerTableRecord
  2
0
 70
     0
 62
     7
  6
Continuous
370
    18
390
F
  0
LAYER
  5
C3
330
2
100
AcDbSymbolTableRecord
100
AcDbLayerTableRecord
  2
Dimension (ANSI)
 70
     0
 62
     7
  6
Continuous
370
    13
390
F
  0
LAYER
  5
C5
330
2
100
AcDbSymbolTableRecord
100
AcDbLayerTableRecord
  2
Hidden (ANSI)
 70
     0
 62
     7
  6
DASHED
370
    15
390
F
  0
LAYER
  5
CC
330
2
100
AcDbSymbolTableRecord
100
AcDbLayerTableRecord
  2
Symbol (ANSI)
 70
     0
 62
     7
  6
Continuous
370
    18
390
F
  0
LAYER
  5
CF
330
2
100
AcDbSymbolTableRecord
100
AcDbLayerTableRecord
  2
Visible (ANSI)
 70
     0
 62
     7
  6
Continuous
370
    13
390
F
  0
LAYER
  5
D0
330
2
100
AcDbSymbolTableRecord
100
AcDbLayerTableRecord
  2
Visible Narrow (ANSI)
 70
     0
 62
     7
  6
Continuous
370
    18
390
F
  0
LAYER
  5
148
330
2
100
AcDbSymbolTableRecord
100
AcDbLayerTableRecord
  2
Defpoints
 70
     0
 62
     7
  6
Continuous
290
     0
370
    -3
390
F
  0
ENDTAB
  0
TABLE
  2
STYLE
  5
3
330
0
100
AcDbSymbolTable
 70
    18
  0
STYLE
  5
55
330
3
100
AcDbSymbolTableRecord
100
AcDbTextStyleTableRecord
  2
Standard
 70
     0
 40
0.0
 41
1.0
 50
0.0
 71
     0
 42
0.2
  3
txt
  4

  0
STYLE
  5
5A
330
3
100
AcDbSymbolTableRecord
100
AcDbTextStyleTableRecord
  2
Annotative
 70
     0
 40
0.0
 41
1.0
 50
0.0
 71
     0
 42
0.2
  3
txt
  4

1001
AcadAnnotative
1000
AnnotativeData
1002
{
1070
     1
1070
     1
1002
}
  0
STYLE
  5
B2
330
3
100
AcDbSymbolTableRecord
100
AcDbTextStyleTableRecord
  2

 70
     1
 40
0.0
 41
1.0
 50
0.0
 71
     0
 42
0.2
  3
ltypeshp.shx
  4

  0
STYLE
  5
D4
330
3
100
AcDbSymbolTableRecord
100
AcDbTextStyleTableRecord
  2
ITALICC_120
 70
     0
 40
0.0
 41
1.0
 50
0.0
 71
     0
 42
0.2
  3
italicc.shx
  4

  0
STYLE
  5
D5
330
3
100
AcDbSymbolTableRecord
100
AcDbTextStyleTableRecord
  2
Label Text (ANSI)
 70
     0
 40
0.0
 41
1.0
 50
0.0
 71
     0
 42
0.2
  3
TAHOMA.TTF
  4

1001
ACAD
1000
Tahoma
1071
      256
  0
STYLE
  5
D6
330
3
100
AcDbSymbolTableRecord
100
AcDbTextStyleTableRecord
  2
Note Text (ANSI)
 70
     0
 40
0.0
 41
1.0
 50
0.0
 71
     0
 42
0.2
  3
TAHOMA.TTF
  4

1001
ACAD
1000
Tahoma
1071
      256
  0
STYLE
  5
D7
330
3
100
AcDbSymbolTableRecord
100
AcDbTextStyleTableRecord
  2
ROMANS
 70
     0
 40
0.0
 41
1.0
 50
0.0
 71
     0
 42
0.2
  3
romans.shx
  4

  0
STYLE
  5
D8
330
3
100
AcDbSymbolTableRecord
100
AcDbTextStyleTableRecord
  2
SANSSERIF_114
 70
     0
 40
0.0
 41
1.0
 50
0.0
 71
     0
 42
0.2
  3
TAHOMA.TTF
  4

1001
ACAD
1000
Tahoma
1071
      256
  0
STYLE
  5
D9
330
3
100
AcDbSymbolTableRecord
100
AcDbTextStyleTableRecord
  2
SANSSERIF_117
 70
     0
 40
0.0
 41
1.0
 50
0.0
 71
     0
 42
0.2
  3
TAHOMA.TTF
  4

1001
ACAD
1000
Tahoma
1071
      256
  0
STYLE
  5
DA
330
3
100
AcDbSymbolTableRecord
100
AcDbTextStyleTableRecord
  2
STANDARDAM_ANSI
 70
     0
 40
0.0
 41
1.0
 50
0.0
 71
     0
 42
0.2
  3
txt.shx
  4

  0
STYLE
  5
DB
330
3
100
AcDbSymbolTableRecord
100
AcDbTextStyleTableRecord
  2
StandardAM_ANSI$0
 70
     0
 40
0.0
 41
1.0
 50
0.0
 71
     0
 42
0.2
  3
txt.shx
  4

  0
STYLE
  5
DC
330
3
100
AcDbSymbolTableRecord
100
AcDbTextStyleTableRecord
  2
STANDARDAM_ANSI$3
 70
     0
 40
0.0
 41
1.0
 50
0.0
 71
     0
 42
0.2
  3
txt.shx
  4

  0
STYLE
  5
DD
330
3
100
AcDbSymbolTableRecord
100
AcDbTextStyleTableRecord
  2
STANDARDAM_ANSI$4
 70
     0
 40
0.0
 41
1.0
 50
0.0
 71
     0
 42
0.2
  3
txt.shx
  4

  0
STYLE
  5
DE
330
3
100
AcDbSymbolTableRecord
100
AcDbTextStyleTableRecord
  2
STANDARDAM_ANSI$7
 70
     0
 40
0.0
 41
1.0
 50
0.0
 71
     0
 42
0.2
  3
txt.shx
  4

  0
STYLE
  5
DF
330
3
100
AcDbSymbolTableRecord
100
AcDbTextStyleTableRecord
  2
STANDARDAM_ANSI$SF
 70
     0
 40
0.0
 41
1.0
 50
0.0
 71
     0
 42
0.2
  3
txt.shx
  4

  0
STYLE
  5
E0
330
3
100
AcDbSymbolTableRecord
100
AcDbTextStyleTableRecord
  2
STANDARDAM_ANSI$SH
 70
     0
 40
0.0
 41
1.0
 50
0.0
 71
     0
 42
0.2
  3
txt.shx
  4

  0
STYLE
  5
E1
330
3
100
AcDbSymbolTableRecord
100
AcDbTextStyleTableRecord
  2
STANDARDSTANDARD
 70
     0
 40
0.0
 41
1.0
 50
0.0
 71
     0
 42
0.2
  3
txt.shx
  4

  0
STYLE
  5
135
330
3
100
AcDbSymbolTableRecord
100
AcDbTextStyleTableRecord
  2
Text Style150
 70
     0
 40
0.0
 41
1.0
 50
0.0
 71
     0
 42
0.2
  3
TAHOMA.TTF
  4

1001
ACAD
1000
Tahoma
1071
      256
  0
ENDTAB
  0
TABLE
  2
VIEW
  5
6
330
0
100
AcDbSymbolTable
 70
     0
  0
ENDTAB
  0
TABLE
  2
UCS
  5
7
330
0
100
AcDbSymbolTable
 70
     0
  0
ENDTAB
  0
TABLE
  2
APPID
  5
9
330
0
100
AcDbSymbolTable
 70
     4
  0
APPID
  5
56
330
9
100
AcDbSymbolTableRecord
100
AcDbRegAppTableRecord
  2
ACAD
 70
     0
  0
APPID
  5
5E
330
9
100
AcDbSymbolTableRecord
100
AcDbRegAppTableRecord
  2
AcadAnnotative
 70
     0
  0
APPID
  5
7C1
330
9
100
AcDbSymbolTableRecord
100
AcDbRegAppTableRecord
  2
ACAD_DSTYLE_DIMRADIAL_EXTENSION
 70
     0
  0
APPID
  5
8C9
330
9
100
AcDbSymbolTableRecord
100
AcDbRegAppTableRecord
  2
ACAD_MLEADERVER
 70
     0
  0
ENDTAB
  0
TABLE
  2
DIMSTYLE
  5
A
330
0
100
AcDbSymbolTable
 70
    29
100
AcDbDimStyleTable
 71
     2
340
F6
340
58
  0
DIMSTYLE
105
58
330
A
100
AcDbSymbolTableRecord
100
AcDbDimStyleTableRecord
  2
STANDARD
 70
     0
 41
0.1800000071525573
 42
0.0625
140
0.1800000071525574
144
1.0
147
0.0900000035762787
176
   256
177
   256
178
   256
274
     3
340
55
371
    -1
372
    -1
  0
DIMSTYLE
105
59
330
A
100
AcDbSymbolTableRecord
100
AcDbDimStyleTableRecord
  2
Annotative
 70
     0
340
55
1001
AcadAnnotative
1000
AnnotativeData
1002
{
1070
     1
1070
     1
1002
}
  0
DIMSTYLE
105
E2
330
A
100
AcDbSymbolTableRecord
100
AcDbDimStyleTableRecord
  2
AM_ANSI
 70
     0
  4
 mm
 40
1.538461538461538
 41
0.119999997317791
 42
0.05
 43
0.5
 44
0.1
 45
0.00000001
 78
     4
 79
     2
140
0.1200000047683716
146
0.7099999453624112
147
0.0599999986588955
176
   256
177
   256
178
     2
284
     4
340
DA
371
    -1
372
    -1
  0
DIMSTYLE
105
E3
330
A
100
AcDbSymbolTableRecord
100
AcDbDimStyleTableRecord
  2
AM_ANSI$7
 70
     0
  4
 mm
 40
1.538461538461538
 41
0.119999997317791
 42
0.05
 43
0.5
 44
0.1
 45
0.00000001
 78
     4
 79
     2
140
0.1200000047683716
146
0.7099999453624112
147
0.0599999986588955
176
   256
177
   256
178
     2
284
     4
340
DA
371
    -1
372
    -1
  0
DIMSTYLE
105
E4
330
A
100
AcDbSymbolTableRecord
100
AcDbDimStyleTableRecord
  2
AM_ANSI$0
 70
     0
  4
 mm
 40
1.538461538461538
 41
0.119999997317791
 42
0.05
 43
0.5
 44
0.1
 45
0.00000001
 78
     4
 79
     2
140
0.1200000047683716
146
0.7099999453624112
147
0.0599999986588955
176
   256
177
   256
178
     2
284
     4
340
DB
371
    -1
372
    -1
  0
DIMSTYLE
105
E5
330
A
100
AcDbSymbolTableRecord
100
AcDbDimStyleTableRecord
  2
AM_ANSI$0$7
 70
     0
  4
 mm
 40
1.538461538461538
 41
0.119999997317791
 42
0.05
 43
0.5
 44
0.1
 45
0.00000001
 78
     4
 79
     2
140
0.1200000047683716
146
0.7099999453624112
147
0.0599999986588955
176
   256
177
   256
178
     2
284
     4
340
DB
371
    -1
372
    -1
  0
DIMSTYLE
105
E6
330
A
100
AcDbSymbolTableRecord
100
AcDbDimStyleTableRecord
  2
AM_ANSI$3
 70
     0
  4
 mm
 40
1.538461538461538
 41
0.119999997317791
 42
0.05
 43
0.5
 44
0.1
 45
0.00000001
 78
     4
 79
     2
140
0.1200000047683716
146
0.7099999453624112
147
0.0599999986588955
176
   256
177
   256
178
     2
284
     4
340
DC
371
    -1
372
    -1
  0
DIMSTYLE
105
E7
330
A
100
AcDbSymbolTableRecord
100
AcDbDimStyleTableRecord
  2
AM_ANSI$3$7
 70
     0
  4
 mm
 40
1.538461538461538
 41
0.119999997317791
 42
0.05
 43
0.5
 44
0.1
 45
0.00000001
 78
     4
 79
     2
140
0.1200000047683716
146
0.7099999453624112
147
0.0599999986588955
176
   256
177
   256
178
     2
284
     4
340
DC
371
    -1
372
    -1
  0
DIMSTYLE
105
E8
330
A
100
AcDbSymbolTableRecord
100
AcDbDimStyleTableRecord
  2
AM_ANSI$4
 70
     0
  4
 mm
 40
1.538461538461538
 41
0.119999997317791
 42
0.05
 43
0.5
 44
0.1
 45
0.00000001
 78
     4
 79
     2
140
0.1200000047683716
146
0.7099999453624112
147
0.0599999986588955
176
   256
177
   256
178
     2
284
     4
340
DD
371
    -1
372
    -1
  0
DIMSTYLE
105
E9
330
A
100
AcDbSymbolTableRecord
100
AcDbDimStyleTableRecord
  2
AM_ANSI$4$7
 70
     0
  4
 mm
 40
1.538461538461538
 41
0.119999997317791
 42
0.05
 43
0.5
 44
0.1
 45
0.00000001
 78
     4
 79
     2
140
0.1200000047683716
146
0.7099999453624112
147
0.0599999986588955
176
   256
177
   256
178
     2
284
     4
340
DD
371
    -1
372
    -1
  0
DIMSTYLE
105
EA
330
A
100
AcDbSymbolTableRecord
100
AcDbDimStyleTableRecord
  2
AM_ANSI$SF
 70
     0
  4
 mm
 40
1.538461538461538
 41
0.119999997317791
 42
0.05
 43
0.5
 44
0.1
 45
0.00000001
 75
     1
 76
     1
 78
     4
 79
     2
140
0.1200000047683716
146
0.7099999453624112
147
0.0599999986588955
176
   256
177
   256
178
     2
284
     4
340
DF
371
    -1
372
    -1
  0
DIMSTYLE
105
EB
330
A
100
AcDbSymbolTableRecord
100
AcDbDimStyleTableRecord
  2
AM_ANSI$SF$7
 70
     0
  4
 mm
 40
1.538461538461538
 41
0.119999997317791
 42
0.05
 43
0.5
 44
0.1
 45
0.00000001
 75
     1
 76
     1
 78
     4
 79
     2
140
0.1200000047683716
146
0.7099999453624112
147
0.0599999986588955
176
   256
177
   256
178
     2
284
     4
340
DF
371
    -1
372
    -1
  0
DIMSTYLE
105
EC
330
A
100
AcDbSymbolTableRecord
100
AcDbDimStyleTableRecord
  2
AM_ANSI$SH
 70
     0
  4
 mm
 40
1.538461538461538
 41
0.119999997317791
 42
0.05
 43
0.5
 44
0.1
 45
0.00000001
 75
     1
 76
     1
 78
     4
 79
     2
140
0.1200000047683716
146
0.7099999453624112
147
0.0599999986588955
176
   256
177
   256
178
     2
284
     4
340
E0
371
    -1
372
    -1
  0
DIMSTYLE
105
ED
330
A
100
AcDbSymbolTableRecord
100
AcDbDimStyleTableRecord
  2
AM_ANSI$SH$7
 70
     0
  4
 mm
 40
1.538461538461538
 41
0.119999997317791
 42
0.05
 43
0.5
 44
0.1
 45
0.00000001
 75
     1
 76
     1
 78
     4
 79
     2
140
0.1200000047683716
146
0.7099999453624112
147
0.0599999986588955
176
   256
177
   256
178
     2
284
     4
340
E0
371
    -1
372
    -1
  0
DIMSTYLE
105
EE
330
A
100
AcDbSymbolTableRecord
100
AcDbDimStyleTableRecord
  2
Architectural (ANSI)
 70
     0
 40
1.538461538461538
 41
0.0984251946210861
 43
0.2362204724409449
 44
0.125
 45
0.00000001
 46
0.3937007874015748
 78
     3
 79
     3
140
0.1200000047683716
147
0.031496062992126
171
     1
176
   256
177
   256
178
   256
272
     2
274
     1
276
     2
277
     4
284
    12
285
     4
286
    12
340
D6
371
    -1
372
    -1
  0
DIMSTYLE
105
EF
330
A
100
AcDbSymbolTableRecord
100
AcDbDimStyleTableRecord
  2
Architectural (ANSI)$7
 70
     0
 40
1.538461538461538
 41
0.0984251946210861
 43
0.2362204724409449
 44
0.125
 45
0.00000001
 46
0.3937007874015748
 78
     3
 79
     3
140
0.1200000047683716
147
0.031496062992126
171
     1
176
   256
177
   256
178
   256
272
     2
274
     1
276
     2
277
     4
284
    12
285
     4
286
    12
340
D6
371
    -1
372
    -1
  0
DIMSTYLE
105
F0
330
A
100
AcDbSymbolTableRecord
100
AcDbDimStyleTableRecord
  2
Default - Fraction (ANSI)
 70
     0
 40
1.538461538461538
 41
0.0984251946210861
 43
0.2362204724409449
 44
0.125
 45
0.00000001
 46
0.3937007874015748
 79
     3
140
0.1200000047683716
147
0.031496062992126
171
     1
176
   256
177
   256
178
   256
272
     2
274
     1
276
     2
277
     5
284
    12
285
     4
286
    12
340
D6
371
    -1
372
    -1
  0
DIMSTYLE
105
F1
330
A
100
AcDbSymbolTableRecord
100
AcDbDimStyleTableRecord
  2
Default - Fraction (ANSI)$7
 70
     0
 40
1.538461538461538
 41
0.0984251946210861
 43
0.2362204724409449
 44
0.125
 45
0.00000001
 46
0.3937007874015748
 79
     3
140
0.1200000047683716
147
0.031496062992126
171
     1
176
   256
177
   256
178
   256
272
     2
274
     1
276
     2
277
     5
284
    12
285
     4
286
    12
340
D6
371
    -1
372
    -1
  0
DIMSTYLE
105
F2
330
A
100
AcDbSymbolTableRecord
100
AcDbDimStyleTableRecord
  2
Default - mm (ANSI)
 70
     0
 40
1.538461538461538
 41
0.0984251946210861
 42
0.063
 43
0.2362204724409449
 44
0.125
 45
0.00000001
 46
0.3937007874015748
 73
     0
 78
     4
 79
     1
140
0.1200000047683716
143
1.0
144
25.4
147
0.031496062992126
171
     1
176
   256
177
   256
178
   256
179
     1
271
     2
272
     2
274
     1
284
     4
285
     4
340
D6
371
    -1
372
    -1
  0
DIMSTYLE
105
F3
330
A
100
AcDbSymbolTableRecord
100
AcDbDimStyleTableRecord
  2
Default - mm (ANSI)$7
 70
     0
 40
1.538461538461538
 41
0.0984251946210861
 42
0.063
 43
0.2362204724409449
 44
0.125
 45
0.00000001
 46
0.3937007874015748
 73
     0
 78
     4
 79
     1
140
0.1200000047683716
143
1.0
144
25.4
147
0.031496062992126
171
     1
176
   256
177
   256
178
   256
179
     1
271
     2
272
     2
274
     1
284
     4
285
     4
340
D6
371
    -1
372
    -1
  0
DIMSTYLE
105
F4
330
A
100
AcDbSymbolTableRecord
100
AcDbDimStyleTableRecord
  2
Default - mm [in] (ANSI)
 70
     0
  4
 in
 40
1.538461538461538
 41
0.0984251946210861
 42
0.063
 43
0.25
 44
0.125
 45
0.00000001
 46
0.3937007874015748
 73
     0
 78
     4
 79
     1
140
0.1200000047683716
143
0.03937
144
25.4
147
0.031496062992126
170
     1
171
     3
176
   256
177
   256
178
   256
179
     1
271
     2
272
     2
274
     3
284
     4
285
     4
286
     4
340
D6
371
    -1
372
    -1
  0
DIMSTYLE
105
F5
330
A
100
AcDbSymbolTableRecord
100
AcDbDimStyleTableRecord
  2
Default - mm [in] (ANSI)$7
 70
     0
  4
 in
 40
1.538461538461538
 41
0.0984251946210861
 42
0.063
 43
0.25
 44
0.125
 45
0.00000001
 46
0.3937007874015748
 73
     0
 78
     4
 79
     1
140
0.1200000047683716
143
0.03937
144
25.4
147
0.031496062992126
170
     1
171
     3
176
   256
177
   256
178
   256
179
     1
271
     2
272
     2
274
     3
284
     4
285
     4
286
     4
340
D6
371
    -1
372
    -1
  0
DIMSTYLE
105
F6
102
{ACAD_REACTORS
330
146
330
256
330
340
330
42A
330
540
330
63E
330
728
330
7E2
102
}
330
A
100
AcDbSymbolTableRecord
100
AcDbDimStyleTableRecord
  2
Default (ANSI)
 70
     0
 40
1.538461538461538
 41
0.0984251946210861
 43
0.2362204724409449
 44
0.125
 45
0.00000001
 46
0.3937007874015748
 79
     1
140
0.1200000047683716
147
0.031496062992126
171
     1
176
   256
177
   256
178
   256
271
     3
272
     2
274
     1
284
     4
285
     4
340
D6
371
    -1
372
    -1
  0
DIMSTYLE
105
F7
330
A
100
AcDbSymbolTableRecord
100
AcDbDimStyleTableRecord
  2
Default (ANSI)$7
 70
     0
 40
1.538461538461538
 41
0.0984251946210861
 43
0.2362204724409449
 44
0.125
 45
0.00000001
 46
0.3937007874015748
 79
     1
140
0.1200000047683716
147
0.031496062992126
171
     1
176
   256
177
   256
178
   256
271
     3
272
     2
274
     1
284
     4
285
     4
340
D6
371
    -1
372
    -1
  0
DIMSTYLE
105
F8
330
A
100
AcDbSymbolTableRecord
100
AcDbDimStyleTableRecord
  2
Default (ANSI)-01
 70
     0
 40
1.538461538461538
 41
0.0984251946210861
 43
0.2362204724409449
 44
0.125
 45
0.00000001
 46
0.3937007874015748
 79
     1
140
0.1200000047683716
147
0.031496062992126
171
     1
176
   256
177
   256
178
   256
271
     2
272
     2
274
     1
284
     4
285
     4
340
D6
371
    -1
372
    -1
  0
DIMSTYLE
105
F9
330
A
100
AcDbSymbolTableRecord
100
AcDbDimStyleTableRecord
  2
Default (ANSI)-01$7
 70
     0
 40
1.538461538461538
 41
0.0984251946210861
 43
0.2362204724409449
 44
0.125
 45
0.00000001
 46
0.3937007874015748
 79
     1
140
0.1200000047683716
147
0.031496062992126
171
     1
176
   256
177
   256
178
   256
271
     2
272
     2
274
     1
284
     4
285
     4
340
D6
371
    -1
372
    -1
  0
DIMSTYLE
105
FA
330
A
100
AcDbSymbolTableRecord
100
AcDbDimStyleTableRecord
  2
Alternate (ANSI)
 70
     0
 40
1.538461538461538
 41
0.0979999974370003
340
55
342
FB
  0
DIMSTYLE
105
10D
330
A
100
AcDbSymbolTableRecord
100
AcDbDimStyleTableRecord
  2
Datum (ANSI)
 70
     0
 40
1.538461538461538
 41
0.0979999974370003
340
55
342
FB
  0
DIMSTYLE
105
11C
330
A
100
AcDbSymbolTableRecord
100
AcDbDimStyleTableRecord
  2
Large (ANSI)
 70
     0
 40
1.538461538461538
 41
0.1959999948740005
340
55
342
FB
  0
ENDTAB
  0
TABLE
  2
BLOCK_RECORD
  5
1
330
0
100
AcDbSymbolTable
 70
    12
  0
BLOCK_RECORD
  5
6C
330
1
100
AcDbSymbolTableRecord
100
AcDbBlockTableRecord
  2
*Model_Space
340
6F
  0
BLOCK_RECORD
  5
68
330
1
100
AcDbSymbolTableRecord
100
AcDbBlockTableRecord
  2
*Paper_Space
340
6B
  0
BLOCK_RECORD
  5
70
330
1
100
AcDbSymbolTableRecord
100
AcDbBlockTableRecord
  2
*Paper_Space0
340
73
  0
BLOCK_RECORD
  5
FB
330
1
100
AcDbSymbolTableRecord
100
AcDbBlockTableRecord
  2
_Closed
340
0
  0
BLOCK_RECORD
  5
102
330
1
100
AcDbSymbolTableRecord
100
AcDbBlockTableRecord
  2
DatumFilled45
340
0
  0
BLOCK_RECORD
  5
10E
330
1
100
AcDbSymbolTableRecord
100
AcDbBlockTableRecord
  2
Filled-1
340
0
  0
BLOCK_RECORD
  5
149
330
1
100
AcDbSymbolTableRecord
100
AcDbBlockTableRecord
  2
*D4
340
0
  0
BLOCK_RECORD
  5
257
330
1
100
AcDbSymbolTableRecord
100
AcDbBlockTableRecord
  2
*D5
340
0
  0
BLOCK_RECORD
  5
341
330
1
100
AcDbSymbolTableRecord
100
AcDbBlockTableRecord
  2
*D6
340
0
  0
BLOCK_RECORD
  5
42B
330
1
100
AcDbSymbolTableRecord
100
AcDbBlockTableRecord
  2
*D7
340
0
  0
BLOCK_RECORD
  5
541
330
1
100
AcDbSymbolTableRecord
100
AcDbBlockTableRecord
  2
*D8
340
0
  0
BLOCK_RECORD
  5
63F
330
1
100
AcDbSymbolTableRecord
100
AcDbBlockTableRecord
  2
*D9
340
0
  0
BLOCK_RECORD
  5
729
330
1
100
AcDbSymbolTableRecord
100
AcDbBlockTableRecord
  2
*D10
340
0
  0
BLOCK_RECORD
  5
7E3
330
1
100
AcDbSymbolTableRecord
100
AcDbBlockTableRecord
  2
*D11
340
0
  0
ENDTAB
  0
ENDSEC
  0
SECTION
  2
BLOCKS
  0
BLOCK
  5
6D
330
6C
100
AcDbEntity
  8
0
100
AcDbBlockBegin
  2
*Model_Space
 70
     0
 10
0.0
 20
0.0
 30
0.0
  3
*Model_Space
  1

  0
ENDBLK
  5
6E
330
6C
100
AcDbEntity
  8
0
100
AcDbBlockEnd
  0
BLOCK
  5
69
330
68
100
AcDbEntity
 67
     1
  8
0
100
AcDbBlockBegin
  2
*Paper_Space
 70
     0
 10
0.0
 20
0.0
 30
0.0
  3
*Paper_Space
  1

  0
ENDBLK
  5
6A
330
68
100
AcDbEntity
 67
     1
  8
0
100
AcDbBlockEnd
  0
BLOCK
  5
71
330
70
100
AcDbEntity
 67
     1
  8
0
100
AcDbBlockBegin
  2
*Paper_Space0
 70
     0
 10
0.0
 20
0.0
 30
0.0
  3
*Paper_Space0
  1

  0
ENDBLK
  5
72
330
70
100
AcDbEntity
 67
     1
  8
0
100
AcDbBlockEnd
  0
BLOCK
  5
100
330
FB
100
AcDbEntity
  8
0
100
AcDbBlockBegin
  2
_Closed
 70
     0
 10
0.0
 20
0.0
 30
0.0
  3
_Closed
  1

  0
LINE
  5
FC
330
FB
100
AcDbEntity
  8
0
  6
ByBlock
 62
     0
370
    -2
100
AcDbLine
 10
-1.0
 20
0.1666666666666666
 30
0.0
 11
0.0
 21
0.0
 31
0.0
  0
LINE
  5
FD
330
FB
100
AcDbEntity
  8
0
  6
ByBlock
 62
     0
370
    -2
100
AcDbLine
 10
0.0
 20
0.0
 30
0.0
 11
-1.0
 21
-0.1666666666666666
 31
0.0
  0
LINE
  5
FE
330
FB
100
AcDbEntity
  8
0
  6
ByBlock
 62
     0
370
    -2
100
AcDbLine
 10
-1.0
 20
0.1666666666666666
 30
0.0
 11
-1.0
 21
-0.1666666666666666
 31
0.0
  0
LINE
  5
FF
330
FB
100
AcDbEntity
  8
0
  6
ByBlock
 62
     0
370
    -2
100
AcDbLine
 10
0.0
 20
0.0
 30
0.0
 11
-1.0
 21
0.0
 31
0.0
  0
ENDBLK
  5
101
330
FB
100
AcDbEntity
  8
0
100
AcDbBlockEnd
  0
BLOCK
  5
103
330
102
100
AcDbEntity
  8
0
100
AcDbBlockBegin
  2
DatumFilled45
 70
     0
 10
0.0
 20
0.0
 30
0.0
  3
DatumFilled45
  1

  0
POLYLINE
  5
105
330
102
100
AcDbEntity
  8
0
 62
     0
100
AcDb2dPolyline
 66
     1
 10
0.0
 20
0.0
 30
0.0
 70
   128
  0
VERTEX
  5
106
330
105
100
AcDbEntity
  8
0
 62
     0
100
AcDbVertex
100
AcDb2dVertex
 10
0.0
 20
0.9999999999999998
 30
0.0
  0
VERTEX
  5
107
330
105
100
AcDbEntity
  8
0
 62
     0
100
AcDbVertex
100
AcDb2dVertex
 10
0.0
 20
-0.9999999999999998
 30
0.0
  0
VERTEX
  5
109
330
105
100
AcDbEntity
  8
0
 62
     0
100
AcDbVertex
100
AcDb2dVertex
 10
-0.9999999999999998
 20
0.0
 30
0.0
  0
VERTEX
  5
10A
330
105
100
AcDbEntity
  8
0
 62
     0
100
AcDbVertex
100
AcDb2dVertex
 10
0.0
 20
0.9999999999999998
 30
0.0
  0
SEQEND
  5
108
330
105
100
AcDbEntity
  8
0
 62
     0
  0
SOLID
  5
10C
330
102
100
AcDbEntity
  8
0
 62
     0
100
AcDbTrace
 10
0.0
 20
0.9999999999999998
 30
0.0
 11
0.0
 21
-0.9999999999999998
 31
0.0
 12
-0.9999999999999998
 22
0.0
 32
0.0
 13
0.0
 23
0.9999999999999998
 33
0.0
  0
ENDBLK
  5
104
330
102
100
AcDbEntity
  8
0
100
AcDbBlockEnd
  0
BLOCK
  5
10F
330
10E
100
AcDbEntity
  8
0
100
AcDbBlockBegin
  2
Filled-1
 70
     0
 10
0.0
 20
0.0
 30
0.0
  3
Filled-1
  1

  0
LINE
  5
111
330
10E
100
AcDbEntity
  8
0
 62
     0
100
AcDbLine
 10
-0.9999999999999998
 20
0.0
 30
0.0
 11
0.0
 21
0.0
 31
0.0
  0
POLYLINE
  5
112
330
10E
100
AcDbEntity
  8
0
 62
     0
100
AcDb2dPolyline
 66
     1
 10
0.0
 20
0.0
 30
0.0
 70
   128
  0
VERTEX
  5
113
330
112
100
AcDbEntity
  8
0
 62
     0
100
AcDbVertex
100
AcDb2dVertex
 10
-0.9999999999999998
 20
-0.0994897959183674
 30
0.0
  0
VERTEX
  5
114
330
112
100
AcDbEntity
  8
0
 62
     0
100
AcDbVertex
100
AcDb2dVertex
 10
0.0
 20
0.0
 30
0.0
  0
VERTEX
  5
116
330
112
100
AcDbEntity
  8
0
 62
     0
100
AcDbVertex
100
AcDb2dVertex
 10
-0.9999999999999998
 20
0.0994897959183674
 30
0.0
  0
VERTEX
  5
117
330
112
100
AcDbEntity
  8
0
 62
     0
100
AcDbVertex
100
AcDb2dVertex
 10
-0.9999999999999998
 20
-0.0994897959183674
 30
0.0
  0
SEQEND
  5
115
330
112
100
AcDbEntity
  8
0
 62
     0
  0
SOLID
  5
118
330
10E
100
AcDbEntity
  8
0
 62
     0
100
AcDbTrace
 10
-0.9999999999999998
 20
-0.0994897959183674
 30
0.0
 11
0.0
 21
0.0
 31
0.0
 12
-0.9999999999999998
 22
0.0994897959183674
 32
0.0
 13
-0.9999999999999998
 23
-0.0994897959183674
 33
0.0
  0
LINE
  5
119
330
10E
100
AcDbEntity
  8
0
 62
     0
100
AcDbLine
 10
-0.9999999999999998
 20
-0.0994897959183674
 30
0.0
 11
0.0
 21
0.0
 31
0.0
  0
LINE
  5
11A
330
10E
100
AcDbEntity
  8
0
 62
     0
100
AcDbLine
 10
0.0
 20
0.0
 30
0.0
 11
-0.9999999999999998
 21
0.0994897959183674
 31
0.0
  0
LINE
  5
11B
330
10E
100
AcDbEntity
  8
0
 62
     0
100
AcDbLine
 10
-0.9999999999999998
 20
0.0994897959183674
 30
0.0
 11
-0.9999999999999998
 21
-0.0994897959183674
 31
0.0
  0
ENDBLK
  5
110
330
10E
100
AcDbEntity
  8
0
100
AcDbBlockEnd
  0
BLOCK
  5
14A
330
149
100
AcDbEntity
  8
0
100
AcDbBlockBegin
  2
*D4
 70
     1
 10
0.0
 20
0.0
 30
0.0
  3
*D4
  1

  0
LINE
  5
21F
330
149
100
AcDbEntity
  8
Dimension (ANSI)
100
AcDbLine
 10
16.10111649245797
 20
12.48810560548219
 30
0.0
 11
15.94969311611784
 21
12.48810560548219
 31
0.0
  0
LINE
  5
220
330
149
100
AcDbEntity
  8
Dimension (ANSI)
100
AcDbLine
 10
16.48396324513823
 20
12.48810560548219
 30
0.0
 11
16.87547579776699
 21
12.48810560548219
 31
0.0
  0
SOLID
  5
221
330
149
100
AcDbEntity
  8
Dimension (ANSI)
100
AcDbTrace
 10
16.10111649245797
 20
12.51334283487222
 30
0.0
 11
16.10111649245797
 21
12.46286837609217
 31
0.0
 12
16.2525398687981
 22
12.48810560548219
 32
0.0
 13
16.2525398687981
 23
12.48810560548219
 33
0.0
  0
SOLID
  5
222
330
149
100
AcDbEntity
  8
Dimension (ANSI)
100
AcDbTrace
 10
16.48396324513823
 20
12.51334283487222
 30
0.0
 11
16.48396324513823
 21
12.46286837609217
 31
0.0
 12
16.3325398687981
 22
12.48810560548219
 32
0.0
 13
16.3325398687981
 23
12.48810560548219
 33
0.0
  0
MTEXT
  5
223
330
149
100
AcDbEntity
  8
Dimension (ANSI)
100
AcDbMText
 10
16.92393127929334
 20
12.58462883089127
 30
0.0
 40
0.1846153919513409
 41
0.0
 71
     1
 72
     1
  1
\A1;0.080
  7
Note Text (ANSI)
 73
     1
 44
1.0
1001
ACAD
1000
MTEXTBEGIN
1070
    73
1070
     1
1070
    44
1040
1.0
1070
    74
1070
     0
1000
MTEXTEND
  0
POINT
  5
224
330
149
100
AcDbEntity
  8
Defpoints
 62
     0
100
AcDbPoint
 10
16.3325398687981
 20
5.432987495245974
 30
0.0
  0
POINT
  5
225
330
149
100
AcDbEntity
  8
Defpoints
 62
     0
100
AcDbPoint
 10
16.2525398687981
 20
5.432987495245974
 30
0.0
  0
POINT
  5
226
330
149
100
AcDbEntity
  8
Defpoints
 62
     0
100
AcDbPoint
 10
16.2525398687981
 20
12.48810560548219
 30
0.0
  0
ENDBLK
  5
14B
330
149
100
AcDbEntity
  8
0
100
AcDbBlockEnd
  0
BLOCK
  5
258
330
257
100
AcDbEntity
  8
0
100
AcDbBlockBegin
  2
*D5
 70
     1
 10
0.0
 20
0.0
 30
0.0
  3
*D5
  1

  0
LINE
  5
336
330
257
100
AcDbEntity
  8
Dimension (ANSI)
100
AcDbLine
 10
10.96928177863335
 20
5.336833649092128
 30
0.0
 11
10.96928177863335
 21
3.854853031284739
 31
0.0
  0
LINE
  5
337
330
257
100
AcDbEntity
  8
Dimension (ANSI)
100
AcDbLine
 10
4.08928177863335
 20
5.336833649092128
 30
0.0
 11
4.08928177863335
 21
3.854853031284739
 31
0.0
  0
LINE
  5
338
330
257
100
AcDbEntity
  8
Dimension (ANSI)
100
AcDbLine
 10
10.81785840229322
 20
4.047160723592432
 30
0.0
 11
7.794190495014882
 21
4.047160723592432
 31
0.0
  0
LINE
  5
339
330
257
100
AcDbEntity
  8
Dimension (ANSI)
100
AcDbLine
 10
4.240705154973483
 20
4.047160723592432
 30
0.0
 11
7.08677168107676
 21
4.047160723592432
 31
0.0
  0
SOLID
  5
33A
330
257
100
AcDbEntity
  8
Dimension (ANSI)
100
AcDbTrace
 10
10.81785840229322
 20
4.072397952982454
 30
0.0
 11
10.81785840229322
 21
4.021923494202409
 31
0.0
 12
10.96928177863335
 22
4.047160723592432
 32
0.0
 13
10.96928177863335
 23
4.047160723592432
 33
0.0
  0
SOLID
  5
33B
330
257
100
AcDbEntity
  8
Dimension (ANSI)
100
AcDbTrace
 10
4.240705154973483
 20
4.072397952982454
 30
0.0
 11
4.240705154973483
 21
4.021923494202409
 31
0.0
 12
4.08928177863335
 22
4.047160723592432
 32
0.0
 13
4.08928177863335
 23
4.047160723592432
 33
0.0
  0
MTEXT
  5
33C
330
257
100
AcDbEntity
  8
Dimension (ANSI)
100
AcDbMText
 10
7.135227162603107
 20
4.143683949001511
 30
0.0
 40
0.1846153919513409
 41
0.0
 71
     1
 72
     1
  1
\A1;6.880
  7
Note Text (ANSI)
 73
     1
 44
1.0
1001
ACAD
1000
MTEXTBEGIN
1070
    73
1070
     1
1070
    44
1040
1.0
1070
    74
1070
     0
1000
MTEXTEND
  0
POINT
  5
33D
330
257
100
AcDbEntity
  8
Defpoints
 62
     0
100
AcDbPoint
 10
10.96928177863335
 20
5.432987495245974
 30
0.0
  0
POINT
  5
33E
330
257
100
AcDbEntity
  8
Defpoints
 62
     0
100
AcDbPoint
 10
4.08928177863335
 20
5.432987495245974
 30
0.0
  0
POINT
  5
33F
330
257
100
AcDbEntity
  8
Defpoints
 62
     0
100
AcDbPoint
 10
4.08928177863335
 20
4.047160723592432
 30
0.0
  0
ENDBLK
  5
259
330
257
100
AcDbEntity
  8
0
100
AcDbBlockEnd
  0
BLOCK
  5
342
330
341
100
AcDbEntity
  8
0
100
AcDbBlockBegin
  2
*D6
 70
     1
 10
0.0
 20
0.0
 30
0.0
  3
*D6
  1

  0
LINE
  5
420
330
341
100
AcDbEntity
  8
Dimension (ANSI)
100
AcDbLine
 10
3.993127932479504
 20
5.432987495245974
 30
0.0
 11
2.511147314672113
 21
5.432987495245974
 31
0.0
  0
LINE
  5
421
330
341
100
AcDbEntity
  8
Dimension (ANSI)
100
AcDbLine
 10
3.9931279324795
 20
14.31298749524597
 30
0.0
 11
2.511147314672114
 21
14.31298749524597
 31
0.0
  0
LINE
  5
422
330
341
100
AcDbEntity
  8
Dimension (ANSI)
100
AcDbLine
 10
2.703455006979805
 20
5.584410871586107
 30
0.0
 11
2.703455006979806
 21
9.728008788310546
 31
0.0
  0
LINE
  5
423
330
341
100
AcDbEntity
  8
Dimension (ANSI)
100
AcDbLine
 10
2.703455006979807
 20
14.16156411890584
 30
0.0
 11
2.703455006979806
 21
10.0179662021814
 31
0.0
  0
SOLID
  5
424
330
341
100
AcDbEntity
  8
Dimension (ANSI)
100
AcDbTrace
 10
2.678217777589783
 20
5.584410871586107
 30
0.0
 11
2.728692236369827
 21
5.584410871586107
 31
0.0
 12
2.703455006979805
 22
5.432987495245974
 32
0.0
 13
2.703455006979805
 23
5.432987495245974
 33
0.0
  0
SOLID
  5
425
330
341
100
AcDbEntity
  8
Dimension (ANSI)
100
AcDbTrace
 10
2.678217777589785
 20
14.16156411890584
 30
0.0
 11
2.728692236369829
 21
14.16156411890584
 31
0.0
 12
2.703455006979807
 22
14.31298749524597
 32
0.0
 13
2.703455006979807
 23
14.31298749524597
 33
0.0
  0
MTEXT
  5
426
330
341
100
AcDbEntity
  8
Dimension (ANSI)
100
AcDbMText
 10
2.397519157658156
 20
9.969510720655053
 30
0.0
 40
0.1846153919513409
 41
0.0
 71
     1
 72
     1
  1
\A1;8.880
  7
Note Text (ANSI)
 73
     1
 44
1.0
1001
ACAD
1000
MTEXTBEGIN
1070
    73
1070
     1
1070
    44
1040
1.0
1070
    74
1070
     0
1000
MTEXTEND
  0
POINT
  5
427
330
341
100
AcDbEntity
  8
Defpoints
 62
     0
100
AcDbPoint
 10
4.08928177863335
 20
5.432987495245974
 30
0.0
  0
POINT
  5
428
330
341
100
AcDbEntity
  8
Defpoints
 62
     0
100
AcDbPoint
 10
4.089281778633346
 20
14.31298749524597
 30
0.0
  0
POINT
  5
429
330
341
100
AcDbEntity
  8
Defpoints
 62
     0
100
AcDbPoint
 10
2.703455006979807
 20
14.31298749524597
 30
0.0
  0
ENDBLK
  5
343
330
341
100
AcDbEntity
  8
0
100
AcDbBlockEnd
  0
BLOCK
  5
42C
330
42B
100
AcDbEntity
  8
0
100
AcDbBlockBegin
  2
*D7
 70
     1
 10
0.0
 20
0.0
 30
0.0
  3
*D7
  1

  0
LINE
  5
534
330
42B
100
AcDbEntity
  8
Dimension (ANSI)
100
AcDbLine
 10
3.993127932479504
 20
5.432987495245974
 30
0.0
 11
3.604990031137598
 21
5.432987495245974
 31
0.0
  0
LINE
  5
535
330
42B
100
AcDbEntity
  8
Dimension (ANSI)
100
AcDbLine
 10
4.165627932479504
 20
5.745987495245975
 30
0.0
 11
3.604990031137598
 21
5.745987495245975
 31
0.0
  0
LINE
  5
536
330
42B
100
AcDbEntity
  8
Dimension (ANSI)
100
AcDbLine
 10
3.79729772344529
 20
5.281564118905841
 30
0.0
 11
3.79729772344529
 21
5.13014074256571
 31
0.0
  0
LINE
  5
537
330
42B
100
AcDbEntity
  8
Dimension (ANSI)
100
AcDbLine
 10
3.79729772344529
 20
5.897410871586107
 30
0.0
 11
3.79729772344529
 21
6.048834247926239
 31
0.0
  0
LINE
  5
538
330
42B
100
AcDbEntity
  8
Dimension (ANSI)
100
AcDbLine
 10
3.645874347105158
 20
6.437057733402113
 30
0.0
 11
3.79729772344529
 21
6.437057733402113
 31
0.0
  0
LINE
  5
539
330
42B
100
AcDbEntity
  8
Dimension (ANSI)
100
AcDbLine
 10
3.79729772344529
 20
6.437057733402113
 30
0.0
 11
3.79729772344529
 21
6.048834247926239
 31
0.0
  0
MTEXT
  5
53A
330
42B
100
AcDbEntity
  8
Dimension (ANSI)
100
AcDbMText
 10
2.990754585647372
 20
6.561095554108172
 30
0.0
 40
0.1846153919513409
 41
0.0
 71
     1
 72
     1
  1
\A1;0.313{\PTYP.}
  7
Note Text (ANSI)
 73
     1
 44
1.0
1001
ACAD
1000
MTEXTBEGIN
1070
    73
1070
     1
1070
    44
1040
1.0
1070
    74
1070
     0
1000
MTEXTEND
  0
SOLID
  5
53B
330
42B
100
AcDbEntity
  8
Dimension (ANSI)
100
AcDbTrace
 10
3.772060494055268
 20
5.281564118905841
 30
0.0
 11
3.822534952835312
 21
5.281564118905841
 31
0.0
 12
3.79729772344529
 22
5.432987495245974
 32
0.0
 13
3.79729772344529
 23
5.432987495245974
 33
0.0
  0
SOLID
  5
53C
330
42B
100
AcDbEntity
  8
Dimension (ANSI)
100
AcDbTrace
 10
3.772060494055268
 20
5.897410871586107
 30
0.0
 11
3.822534952835312
 21
5.897410871586107
 31
0.0
 12
3.79729772344529
 22
5.745987495245975
 32
0.0
 13
3.79729772344529
 23
5.745987495245975
 33
0.0
  0
POINT
  5
53D
330
42B
100
AcDbEntity
  8
Defpoints
 62
     0
100
AcDbPoint
 10
4.08928177863335
 20
5.432987495245974
 30
0.0
  0
POINT
  5
53E
330
42B
100
AcDbEntity
  8
Defpoints
 62
     0
100
AcDbPoint
 10
4.261781778633349
 20
5.745987495245975
 30
0.0
  0
POINT
  5
53F
330
42B
100
AcDbEntity
  8
Defpoints
 62
     0
100
AcDbPoint
 10
3.79729772344529
 20
5.745987495245975
 30
0.0
  0
ENDBLK
  5
42D
330
42B
100
AcDbEntity
  8
0
100
AcDbBlockEnd
  0
BLOCK
  5
542
330
541
100
AcDbEntity
  8
0
100
AcDbBlockBegin
  2
*D8
 70
     1
 10
0.0
 20
0.0
 30
0.0
  3
*D8
  1

  0
LINE
  5
634
330
541
100
AcDbEntity
  8
Dimension (ANSI)
100
AcDbLine
 10
4.08928177863335
 20
5.336833649092128
 30
0.0
 11
4.08928177863335
 21
4.232805787190251
 31
0.0
  0
LINE
  5
635
330
541
100
AcDbEntity
  8
Dimension (ANSI)
100
AcDbLine
 10
4.402281778633349
 20
5.540833649092129
 30
0.0
 11
4.402281778633349
 21
4.232805787190251
 31
0.0
  0
LINE
  5
636
330
541
100
AcDbEntity
  8
Dimension (ANSI)
100
AcDbLine
 10
4.553705154973481
 20
4.425113479497944
 30
0.0
 11
4.705128531313613
 21
4.425113479497944
 31
0.0
  0
LINE
  5
637
330
541
100
AcDbEntity
  8
Dimension (ANSI)
100
AcDbLine
 10
3.937858402293217
 20
4.425113479497944
 30
0.0
 11
3.712739242847223
 21
4.425113479497944
 31
0.0
  0
SOLID
  5
638
330
541
100
AcDbEntity
  8
Dimension (ANSI)
100
AcDbTrace
 10
4.553705154973481
 20
4.450350708887966
 30
0.0
 11
4.553705154973481
 21
4.399876250107921
 31
0.0
 12
4.402281778633349
 22
4.425113479497944
 32
0.0
 13
4.402281778633349
 23
4.425113479497944
 33
0.0
  0
SOLID
  5
639
330
541
100
AcDbEntity
  8
Dimension (ANSI)
100
AcDbTrace
 10
3.937858402293217
 20
4.450350708887966
 30
0.0
 11
3.937858402293217
 21
4.399876250107921
 31
0.0
 12
4.08928177863335
 22
4.425113479497944
 32
0.0
 13
4.08928177863335
 23
4.425113479497944
 33
0.0
  0
MTEXT
  5
63A
330
541
100
AcDbEntity
  8
Dimension (ANSI)
100
AcDbMText
 10
3.057619481389438
 20
4.549151300204002
 30
0.0
 40
0.1846153919513409
 41
0.0
 71
     1
 72
     1
  1
\A1;0.313{\PTYP.}
  7
Note Text (ANSI)
 73
     1
 44
1.0
1001
ACAD
1000
MTEXTBEGIN
1070
    73
1070
     1
1070
    44
1040
1.0
1070
    74
1070
     0
1000
MTEXTEND
  0
POINT
  5
63B
330
541
100
AcDbEntity
  8
Defpoints
 62
     0
100
AcDbPoint
 10
4.08928177863335
 20
5.432987495245974
 30
0.0
  0
POINT
  5
63C
330
541
100
AcDbEntity
  8
Defpoints
 62
     0
100
AcDbPoint
 10
4.402281778633349
 20
5.636987495245975
 30
0.0
  0
POINT
  5
63D
330
541
100
AcDbEntity
  8
Defpoints
 62
     0
100
AcDbPoint
 10
4.402281778633349
 20
4.425113479497944
 30
0.0
  0
ENDBLK
  5
543
330
541
100
AcDbEntity
  8
0
100
AcDbBlockEnd
  0
BLOCK
  5
640
330
63F
100
AcDbEntity
  8
0
100
AcDbBlockBegin
  2
*D9
 70
     1
 10
0.0
 20
0.0
 30
0.0
  3
*D9
  1

  0
LINE
  5
71E
330
63F
100
AcDbEntity
  8
Dimension (ANSI)
100
AcDbLine
 10
4.402281778633349
 20
5.540833649092129
 30
0.0
 11
4.402281778633349
 21
4.232805787190251
 31
0.0
  0
LINE
  5
71F
330
63F
100
AcDbEntity
  8
Dimension (ANSI)
100
AcDbLine
 10
5.402281778633349
 20
5.524833649092128
 30
0.0
 11
5.402281778633349
 21
4.232805787190251
 31
0.0
  0
LINE
  5
720
330
63F
100
AcDbEntity
  8
Dimension (ANSI)
100
AcDbLine
 10
4.553705154973481
 20
4.425113479497944
 30
0.0
 11
5.250858402293216
 21
4.425113479497944
 31
0.0
  0
LINE
  5
721
330
63F
100
AcDbEntity
  8
Dimension (ANSI)
100
AcDbLine
 10
5.402281778633349
 20
4.425113479497944
 30
0.0
 11
5.587257846174097
 21
4.425113479497944
 31
0.0
  0
SOLID
  5
722
330
63F
100
AcDbEntity
  8
Dimension (ANSI)
100
AcDbTrace
 10
4.553705154973481
 20
4.450350708887966
 30
0.0
 11
4.553705154973481
 21
4.399876250107921
 31
0.0
 12
4.402281778633349
 22
4.425113479497944
 32
0.0
 13
4.402281778633349
 23
4.425113479497944
 33
0.0
  0
SOLID
  5
723
330
63F
100
AcDbEntity
  8
Dimension (ANSI)
100
AcDbTrace
 10
5.250858402293216
 20
4.450350708887966
 30
0.0
 11
5.250858402293216
 21
4.399876250107921
 31
0.0
 12
5.402281778633349
 22
4.425113479497944
 32
0.0
 13
5.402281778633349
 23
4.425113479497944
 33
0.0
  0
MTEXT
  5
724
330
63F
100
AcDbEntity
  8
Dimension (ANSI)
100
AcDbMText
 10
5.635713327700444
 20
4.521202753347702
 30
0.0
 40
0.1846153919513409
 41
0.0
 71
     1
 72
     1
  1
\A1;1.000
  7
Note Text (ANSI)
 73
     1
 44
1.0
1001
ACAD
1000
MTEXTBEGIN
1070
    73
1070
     1
1070
    44
1040
1.0
1070
    74
1070
     0
1000
MTEXTEND
  0
POINT
  5
725
330
63F
100
AcDbEntity
  8
Defpoints
 62
     0
100
AcDbPoint
 10
4.402281778633349
 20
5.636987495245975
 30
0.0
  0
POINT
  5
726
330
63F
100
AcDbEntity
  8
Defpoints
 62
     0
100
AcDbPoint
 10
5.402281778633349
 20
5.620987495245974
 30
0.0
  0
POINT
  5
727
330
63F
100
AcDbEntity
  8
Defpoints
 62
     0
100
AcDbPoint
 10
5.402281778633349
 20
4.425113479497944
 30
0.0
  0
ENDBLK
  5
641
330
63F
100
AcDbEntity
  8
0
100
AcDbBlockEnd
  0
BLOCK
  5
72A
330
729
100
AcDbEntity
  8
0
100
AcDbBlockBegin
  2
*D10
 70
     1
 10
0.0
 20
0.0
 30
0.0
  3
*D10
  1

  0
LINE
  5
7DA
330
729
100
AcDbEntity
  8
Dimension (ANSI)
100
AcDbLine
 10
6.617695246877085
 20
5.153826007095718
 30
0.0
 11
6.42793556239544
 21
5.153826007095718
 31
0.0
  0
LINE
  5
7DB
330
729
100
AcDbEntity
  8
Dimension (ANSI)
100
AcDbLine
 10
6.42793556239544
 20
5.153826007095718
 30
0.0
 11
5.641671444743785
 21
5.607775807075931
 31
0.0
  0
MTEXT
  5
7DC
102
{ACAD_XDICTIONARY
360
8D0
102
}
330
729
100
AcDbEntity
  8
Dimension (ANSI)
100
AcDbMText
 10
6.666150728403433
 20
5.290982252321264
 30
0.0
 40
0.1846153919513409
 41
0.0
 71
     1
 72
     1
  1
\A1;\U+22050.250{\PGROUND\PHOLE}
  7
Note Text (ANSI)
 73
     1
 44
1.0
1001
ACAD
1000
MTEXTBEGIN
1070
    73
1070
     1
1070
    44
1040
1.0
1070
    74
1070
     0
1000
MTEXTEND
  0
SOLID
  5
7DD
330
729
100
AcDbEntity
  8
Dimension (ANSI)
100
AcDbTrace
 10
5.654290059438794
 20
5.629631888848827
 30
0.0
 11
5.629052830048776
 21
5.585919725303035
 31
0.0
 12
5.51053495410641
 22
5.683487495245984
 32
0.0
 13
5.51053495410641
 23
5.683487495245984
 33
0.0
  0
LINE
  5
7DE
330
729
100
AcDbEntity
  8
Dimension (ANSI)
100
AcDbLine
 10
5.26382024017181
 20
5.745987495245973
 30
0.0
 11
5.540743317094887
 21
5.745987495245973
 31
0.0
  0
LINE
  5
7DF
330
729
100
AcDbEntity
  8
Dimension (ANSI)
100
AcDbLine
 10
5.402281778633348
 20
5.607525956784434
 30
0.0
 11
5.402281778633348
 21
5.884449033707512
 31
0.0
  0
POINT
  5
7E0
330
729
100
AcDbEntity
  8
Defpoints
 62
     0
100
AcDbPoint
 10
5.51053495410641
 20
5.683487495245984
 30
0.0
  0
POINT
  5
7E1
330
729
100
AcDbEntity
  8
Defpoints
 62
     0
100
AcDbPoint
 10
5.294028603160285
 20
5.808487495245961
 30
0.0
  0
ENDBLK
  5
72B
330
729
100
AcDbEntity
  8
0
100
AcDbBlockEnd
  0
BLOCK
  5
7E4
330
7E3
100
AcDbEntity
  8
0
100
AcDbBlockBegin
  2
*D11
 70
     1
 10
0.0
 20
0.0
 30
0.0
  3
*D11
  1

  0
LINE
  5
87F
330
7E3
100
AcDbEntity
  8
Dimension (ANSI)
100
AcDbLine
 10
11.57398152159586
 20
6.48024537273633
 30
0.0
 11
11.42203965612393
 21
6.48024537273633
 31
0.0
  0
LINE
  5
880
330
7E3
100
AcDbEntity
  8
Dimension (ANSI)
100
AcDbLine
 10
11.42203965612393
 20
6.48024537273633
 30
0.0
 11
10.87192891402297
 21
5.930134630635549
 31
0.0
  0
MTEXT
  5
881
330
7E3
100
AcDbEntity
  8
Dimension (ANSI)
100
AcDbMText
 10
11.6224370031222
 20
6.624820123190275
 30
0.0
 40
0.1846153919513409
 41
0.0
 71
     1
 72
     1
  1
\A1; 0.218 X 0.281\POBROUND\PTYP. (4 PL.)
  7
Note Text (ANSI)
 73
     1
 44
1.0
1001
ACAD
1000
MTEXTBEGIN
1070
    73
1070
     1
1070
    44
1040
1.0
1070
    74
1070
     0
1000
MTEXTEND
  0
SOLID
  5
882
330
7E3
100
AcDbEntity
  8
Dimension (ANSI)
100
AcDbTrace
 10
10.85408349798293
 20
5.947980046675597
 30
0.0
 11
10.88977433006302
 21
5.912289214595501
 31
0.0
 12
10.76485641778269
 22
5.823062134395296
 32
0.0
 13
10.76485641778269
 23
5.823062134395296
 33
0.0
  0
POINT
  5
883
330
7E3
100
AcDbEntity
  8
Defpoints
 62
     0
100
AcDbPoint
 10
10.76485641778269
 20
5.823062134395296
 30
0.0
  0
POINT
  5
884
330
7E3
100
AcDbEntity
  8
Defpoints
 62
     0
100
AcDbPoint
 10
10.68778177863334
 20
5.745987495245975
 30
0.0
  0
ENDBLK
  5
7E5
330
7E3
100
AcDbEntity
  8
0
100
AcDbBlockEnd
  0
ENDSEC
  0
SECTION
  2
ENTITIES
  0
MTEXT
  5
11D
330
6C
100
AcDbEntity
  8
Symbol (ANSI)
100
AcDbMText
 10
18.95874754555279
 20
4.018187445600557
 30
0.0
 40
0.1846153868970403
 41
7.056485826648367
 71
     1
 72
     1
  1
{\fRomanS|b0|i0;\H0.1846;PART#: P1008AL\P(DATA SUBJECT TO CHANGE WITHOUT \PNOTICE)\PTHIS DRAWING AND COMPONENTS OF ARE\PPROPERTY OF HUBBELL INC. WIEGMANN\P}
  7
Note Text (ANSI)
 73
     2
 44
0.875123381614685
1001
ACAD
1000
MTEXTBEGIN
1070
    73
1070
     2
1070
    44
1040
0.875123381614685
1070
    74
1070
     0
1000
MTEXTEND
  0
CIRCLE
  5
120
330
6C
100
AcDbEntity
  8
Visible (ANSI)
100
AcDbCircle
 10
5.40228177863335
 20
5.745987495245974
 30
0.0
 40
0.125
  0
LINE
  5
121
330
6C
100
AcDbEntity
  8
Visible (ANSI)
100
AcDbLine
 10
4.370781778633349
 20
5.854987495245974
 30
0.0
 11
4.43378177863335
 21
5.854987495245974
 31
0.0
  0
ARC
  5
122
330
6C
100
AcDbEntity
  8
Visible (ANSI)
100
AcDbCircle
 10
4.370781778633349
 20
5.745987495245975
 30
0.0
 40
0.109
100
AcDbArc
 50
90.0
 51
270.0
  0
LINE
  5
123
330
6C
100
AcDbEntity
  8
Visible (ANSI)
100
AcDbLine
 10
4.43378177863335
 20
5.636987495245975
 30
0.0
 11
4.370781778633349
 21
5.636987495245975
 31
0.0
  0
ARC
  5
124
330
6C
100
AcDbEntity
  8
Visible (ANSI)
100
AcDbCircle
 10
4.43378177863335
 20
5.745987495245975
 30
0.0
 40
0.1090000000000001
100
AcDbArc
 50
270.0
 51
90.0
  0
LINE
  5
125
330
6C
100
AcDbEntity
  8
Visible (ANSI)
100
AcDbLine
 10
10.62478177863334
 20
14.10898749524597
 30
0.0
 11
10.68778177863334
 21
14.10898749524597
 31
0.0
  0
ARC
  5
126
330
6C
100
AcDbEntity
  8
Visible (ANSI)
100
AcDbCircle
 10
10.62478177863334
 20
13.99998749524597
 30
0.0
 40
0.1089999999999997
100
AcDbArc
 50
90.0
 51
270.0
  0
LINE
  5
127
330
6C
100
AcDbEntity
  8
Visible (ANSI)
100
AcDbLine
 10
10.68778177863334
 20
13.89098749524597
 30
0.0
 11
10.62478177863334
 21
13.89098749524597
 31
0.0
  0
ARC
  5
128
330
6C
100
AcDbEntity
  8
Visible (ANSI)
100
AcDbCircle
 10
10.68778177863334
 20
13.99998749524597
 30
0.0
 40
0.1089999999999997
100
AcDbArc
 50
270.0
 51
90.0
  0
LINE
  5
129
330
6C
100
AcDbEntity
  8
Visible (ANSI)
100
AcDbLine
 10
10.62478177863335
 20
5.854987495245974
 30
0.0
 11
10.68778177863335
 21
5.854987495245974
 31
0.0
  0
ARC
  5
12A
330
6C
100
AcDbEntity
  8
Visible (ANSI)
100
AcDbCircle
 10
10.62478177863335
 20
5.745987495245975
 30
0.0
 40
0.109
100
AcDbArc
 50
90.0
 51
270.0
  0
LINE
  5
12B
330
6C
100
AcDbEntity
  8
Visible (ANSI)
100
AcDbLine
 10
10.68778177863335
 20
5.636987495245975
 30
0.0
 11
10.62478177863335
 21
5.636987495245975
 31
0.0
  0
ARC
  5
12C
330
6C
100
AcDbEntity
  8
Visible (ANSI)
100
AcDbCircle
 10
10.68778177863335
 20
5.745987495245975
 30
0.0
 40
0.109
100
AcDbArc
 50
270.0
 51
90.0
  0
LINE
  5
12D
330
6C
100
AcDbEntity
  8
Visible (ANSI)
100
AcDbLine
 10
4.370781778633347
 20
14.10898749524597
 30
0.0
 11
4.433781778633347
 21
14.10898749524597
 31
0.0
  0
ARC
  5
12E
330
6C
100
AcDbEntity
  8
Visible (ANSI)
100
AcDbCircle
 10
4.370781778633347
 20
13.99998749524597
 30
0.0
 40
0.1089999999999997
100
AcDbArc
 50
90.0000000000003
 51
270.0000000000003
  0
LINE
  5
12F
330
6C
100
AcDbEntity
  8
Visible (ANSI)
100
AcDbLine
 10
4.433781778633347
 20
13.89098749524597
 30
0.0
 11
4.370781778633347
 21
13.89098749524597
 31
0.0
  0
ARC
  5
130
330
6C
100
AcDbEntity
  8
Visible (ANSI)
100
AcDbCircle
 10
4.433781778633347
 20
13.99998749524597
 30
0.0
 40
0.1089999999999997
100
AcDbArc
 50
270.0000000000003
 51
90.0000000000003
  0
LINE
  5
131
330
6C
100
AcDbEntity
  8
Visible (ANSI)
100
AcDbLine
 10
4.08928177863335
 20
5.432987495245974
 30
0.0
 11
4.089281778633347
 21
14.31298749524597
 31
0.0
  0
LINE
  5
132
330
6C
100
AcDbEntity
  8
Visible (ANSI)
100
AcDbLine
 10
4.089281778633347
 20
14.31298749524597
 30
0.0
 11
10.96928177863335
 21
14.31298749524597
 31
0.0
  0
LINE
  5
133
330
6C
100
AcDbEntity
  8
Visible (ANSI)
100
AcDbLine
 10
10.96928177863335
 20
14.31298749524597
 30
0.0
 11
10.96928177863335
 21
5.432987495245974
 31
0.0
  0
LINE
  5
134
330
6C
100
AcDbEntity
  8
Visible (ANSI)
100
AcDbLine
 10
10.96928177863335
 20
5.432987495245974
 30
0.0
 11
4.08928177863335
 21
5.432987495245974
 31
0.0
  0
MTEXT
  5
136
330
6C
100
AcDbEntity
  8
Symbol (ANSI)
100
AcDbMText
 10
6.77287518742257
 20
3.236282335328537
 30
0.0
 40
0.1846153868970403
 41
0.0
 71
     7
 72
     1
  1
FRONT VIEW
  7
Text Style150
 73
     1
 44
1.0
1001
ACAD
1000
MTEXTBEGIN
1070
    73
1070
     1
1070
    44
1040
1.0
1070
    74
1070
     0
1000
MTEXTEND
  0
LINE
  5
137
330
6C
100
AcDbEntity
  8
Symbol (ANSI)
370
    30
100
AcDbLine
 10
6.754413601471206
 20
3.198633662444091
 30
0.0
 11
8.238667454218401
 21
3.198633662444091
 31
0.0
  0
MTEXT
  5
138
330
6C
100
AcDbEntity
  8
Symbol (ANSI)
100
AcDbMText
 10
7.437071636167848
 20
2.819846631824192
 30
0.0
 40
0.2769230713200236
 41
0.0
 71
     7
 72
     1
  1
 
  7
Label Text (ANSI)
 73
     1
 44
1.0
1001
ACAD
1000
MTEXTBEGIN
1070
    73
1070
     1
1070
    44
1040
1.0
1070
    74
1070
     0
1000
MTEXTEND
  0
LINE
  5
139
330
6C
100
AcDbEntity
  8
Hidden (ANSI)
 48
0.0989442244172096
100
AcDbLine
 10
16.25253986879801
 20
14.10898749524597
 30
0.0
 11
16.33253986879802
 21
14.10898749524597
 31
0.0
  0
LINE
  5
13A
330
6C
100
AcDbEntity
  8
Hidden (ANSI)
 48
0.0989442244172096
100
AcDbLine
 10
16.25253986879801
 20
13.89098749524597
 30
0.0
 11
16.33253986879802
 21
13.89098749524597
 31
0.0
  0
LINE
  5
13B
330
6C
100
AcDbEntity
  8
Hidden (ANSI)
 48
0.0989442244172096
100
AcDbLine
 10
16.25253986879801
 20
5.854987495245974
 30
0.0
 11
16.33253986879802
 21
5.854987495245974
 31
0.0
  0
LINE
  5
13C
330
6C
100
AcDbEntity
  8
Hidden (ANSI)
 48
0.0989442244172096
100
AcDbLine
 10
16.25253986879801
 20
5.636987495245975
 30
0.0
 11
16.33253986879802
 21
5.636987495245975
 31
0.0
  0
LINE
  5
13D
330
6C
100
AcDbEntity
  8
Visible (ANSI)
100
AcDbLine
 10
16.3325398687981
 20
14.31298749524597
 30
0.0
 11
16.2525398687981
 21
14.31298749524597
 31
0.0
  0
LINE
  5
13E
330
6C
100
AcDbEntity
  8
Visible (ANSI)
100
AcDbLine
 10
16.2525398687981
 20
14.31298749524597
 30
0.0
 11
16.2525398687981
 21
5.432987495245974
 31
0.0
  0
LINE
  5
13F
330
6C
100
AcDbEntity
  8
Visible (ANSI)
100
AcDbLine
 10
16.3325398687981
 20
5.432987495245974
 30
0.0
 11
16.2525398687981
 21
5.432987495245974
 31
0.0
  0
LINE
  5
140
330
6C
100
AcDbEntity
  8
Visible (ANSI)
100
AcDbLine
 10
16.3325398687981
 20
5.432987495245974
 30
0.0
 11
16.3325398687981
 21
14.31298749524597
 31
0.0
  0
LINE
  5
141
330
6C
100
AcDbEntity
  8
Hidden (ANSI)
 48
0.0989442244172096
100
AcDbLine
 10
16.33253986879645
 20
5.620987495245974
 30
0.0
 11
16.25253986879645
 21
5.620987495245974
 31
0.0
  0
LINE
  5
142
330
6C
100
AcDbEntity
  8
Hidden (ANSI)
 48
0.0989442244172096
100
AcDbLine
 10
16.33253986879645
 20
5.870987495245974
 30
0.0
 11
16.25253986879645
 21
5.870987495245974
 31
0.0
  0
MTEXT
  5
143
330
6C
100
AcDbEntity
  8
Symbol (ANSI)
100
AcDbMText
 10
15.58920997442974
 20
3.332631310548686
 30
0.0
 40
0.1846153868970403
 41
0.0
 71
     7
 72
     1
  1
RIGHT VIEW
  7
Text Style150
 73
     1
 44
1.0
1001
ACAD
1000
MTEXTBEGIN
1070
    73
1070
     1
1070
    44
1040
1.0
1070
    74
1070
     0
1000
MTEXTEND
  0
LINE
  5
144
330
6C
100
AcDbEntity
  8
Symbol (ANSI)
370
    30
100
AcDbLine
 10
15.57074838847838
 20
3.29468342306951
 30
0.0
 11
17.00907280093459
 21
3.29468342306951
 31
0.0
  0
MTEXT
  5
145
330
6C
100
AcDbEntity
  8
Symbol (ANSI)
100
AcDbMText
 10
16.23044170302953
 20
2.915896392449611
 30
0.0
 40
0.2769230713200236
 41
0.0
 71
     7
 72
     1
  1
 
  7
Label Text (ANSI)
 73
     1
 44
1.0
1001
ACAD
1000
MTEXTBEGIN
1070
    73
1070
     1
1070
    44
1040
1.0
1070
    74
1070
     0
1000
MTEXTEND
  0
DIMENSION
  5
146
330
6C
100
AcDbEntity
  8
Dimension (ANSI)
100
AcDbDimension
  2
*D4
 10
16.2525398687981
 20
12.48810560548219
 30
0.0
 11
17.22930919089586
 21
12.48810560548219
 31
0.0
 70
   160
  1
<>
 42
0.0799999999999983
  3
Default (ANSI)
100
AcDbAlignedDimension
 13
16.3325398687981
 23
5.432987495245974
 33
0.0
 14
16.2525398687981
 24
5.432987495245974
 34
0.0
100
AcDbRotatedDimension
1001
ACAD
1000
DSTYLE
1002
{
1070
   289
1070
     1
1070
    73
1070
     0
1070
    74
1070
     0
1070
   271
1070
     3
1070
    76
1070
     1
1070
    75
1070
     1
1070
   272
1070
     2
1070
    48
1040
0.0
1070
    47
1040
0.0
1002
}
  0
ELLIPSE
  5
227
330
6C
100
AcDbEntity
  8
Visible (ANSI)
100
AcDbEllipse
 10
21.18409764045527
 20
8.124449454141672
 30
0.0
 11
0.0594999944581467
 21
-0.1033234096942287
 31
0.0
210
0.0
220
0.0
230
0.9999999999999998
 40
0.5780931159158106
 41
3.610235390314617
 42
5.814542570453983
  0
ELLIPSE
  5
228
330
6C
100
AcDbEntity
  8
Visible (ANSI)
100
AcDbEllipse
 10
21.13013995376781
 20
8.093377288904591
 30
0.0
 11
-0.0594999944581406
 21
0.1033234096942324
 31
0.0
210
0.0
220
0.0
230
1.0
 40
0.5780931159158105
 41
0.0
 42
6.283185307179586
  0
LINE
  5
229
330
6C
100
AcDbEntity
  8
Visible (ANSI)
100
AcDbLine
 10
20.43442303104119
 20
8.579013765117561
 30
0.0
 11
20.47691470930757
 21
8.554544434993367
 31
0.0
  0
ELLIPSE
  5
22A
330
6C
100
AcDbEntity
  8
Visible (ANSI)
100
AcDbEllipse
 10
20.48838071772865
 20
8.525086184667168
 30
0.0
 11
0.051883995167504
 21
-0.0900980132533676
 31
0.0
210
0.0
220
0.0
230
1.0
 40
0.5780931159158105
 41
3.686076690042462
 42
5.499720852204792
  0
ELLIPSE
  5
22B
330
6C
100
AcDbEntity
  8
Visible (ANSI)
100
AcDbEllipse
 10
20.43442303104119
 20
8.494014019430087
 30
0.0
 11
-0.0518839951674932
 21
0.0900980132533738
 31
0.0
210
0.0
220
0.0
230
1.0
 40
0.5780931159158105
 41
5.499720852205252
 42
8.641313505795046
  0
LINE
  5
22C
330
6C
100
AcDbEntity
  8
Visible Narrow (ANSI)
100
AcDbLine
 10
20.43442303104119
 20
8.409014273742611
 30
0.0
 11
20.48838071772865
 21
8.440086438979694
 31
0.0
  0
LINE
  5
22D
330
6C
100
AcDbEntity
  8
Visible (ANSI)
100
AcDbLine
 10
20.48838071772865
 20
8.440086438979694
 30
0.0
 11
20.53087239599504
 21
8.415617108855498
 31
0.0
  0
LINE
  5
22E
330
6C
100
AcDbEntity
  8
Visible (ANSI)
100
AcDbLine
 10
20.47691470930758
 20
8.384544943618417
 30
0.0
 11
20.43442303104119
 21
8.409014273742611
 31
0.0
  0
LINE
  5
22F
330
6C
100
AcDbEntity
  8
Visible Narrow (ANSI)
100
AcDbLine
 10
20.47691470930758
 20
8.384544943618417
 30
0.0
 11
20.53087239599504
 21
8.415617108855498
 31
0.0
  0
ELLIPSE
  5
230
330
6C
100
AcDbEntity
  8
Visible (ANSI)
100
AcDbEllipse
 10
20.53087239599504
 20
8.500616854542972
 30
0.0
 11
0.051883995167498
 21
-0.0900980132533696
 31
0.0
210
0.0
220
0.0
230
1.0
 40
0.5780931159158105
 41
5.499720852205022
 42
5.738701270726605
  0
ELLIPSE
  5
231
330
6C
100
AcDbEntity
  8
Visible (ANSI)
100
AcDbEllipse
 10
20.47691470930758
 20
8.469544689305893
 30
0.0
 11
0.0518839951674932
 21
-0.0900980132533738
 31
0.0
210
0.0
220
0.0
230
0.9999999999999996
 40
0.5780931159158107
 41
5.499720852205254
 42
8.641313505795046
  0
LINE
  5
232
330
6C
100
AcDbEntity
  8
Visible (ANSI)
100
AcDbLine
 10
24.65256518783445
 20
12.586533494539
 30
0.0
 11
24.69505686610084
 21
12.56206416441481
 31
0.0
  0
ELLIPSE
  5
233
330
6C
100
AcDbEntity
  8
Visible (ANSI)
100
AcDbEllipse
 10
24.70652287452191
 20
12.53260591408861
 30
0.0
 11
0.0518839951675028
 21
-0.0900980132533656
 31
0.0
210
0.0
220
0.0
230
1.0
 40
0.5780931159158104
 41
3.686076690042407
 42
5.499720852204733
  0
ELLIPSE
  5
234
330
6C
100
AcDbEntity
  8
Visible (ANSI)
100
AcDbEllipse
 10
24.65256518783445
 20
12.50153374885152
 30
0.0
 11
-0.0518839951674931
 21
0.0900980132533735
 31
0.0
210
0.0
220
0.0
230
1.0
 40
0.5780931159158107
 41
5.499720852205252
 42
8.641313505795046
  0
LINE
  5
235
330
6C
100
AcDbEntity
  8
Visible Narrow (ANSI)
100
AcDbLine
 10
24.65256518783445
 20
12.41653400316405
 30
0.0
 11
24.70652287452191
 21
12.44760616840113
 31
0.0
  0
LINE
  5
236
330
6C
100
AcDbEntity
  8
Visible (ANSI)
100
AcDbLine
 10
24.70652287452191
 20
12.44760616840113
 30
0.0
 11
24.7490145527883
 21
12.42313683827694
 31
0.0
  0
LINE
  5
237
330
6C
100
AcDbEntity
  8
Visible (ANSI)
100
AcDbLine
 10
24.69505686610084
 20
12.39206467303985
 30
0.0
 11
24.65256518783445
 21
12.41653400316405
 31
0.0
  0
LINE
  5
238
330
6C
100
AcDbEntity
  8
Visible Narrow (ANSI)
100
AcDbLine
 10
24.69505686610084
 20
12.39206467303985
 30
0.0
 11
24.7490145527883
 21
12.42313683827694
 31
0.0
  0
ELLIPSE
  5
239
330
6C
100
AcDbEntity
  8
Visible (ANSI)
100
AcDbEllipse
 10
24.74901455278831
 20
12.50813658396431
 30
0.0
 11
0.0518839951674445
 21
-0.0900980132532767
 31
0.0
210
0.0
220
0.0
230
1.0
 40
0.5780931159158106
 41
5.499720852204905
 42
5.738701270726668
  0
ELLIPSE
  5
23A
330
6C
100
AcDbEntity
  8
Visible (ANSI)
100
AcDbEllipse
 10
24.69505686610084
 20
12.47706441872733
 30
0.0
 11
0.0518839951674931
 21
-0.0900980132533735
 31
0.0
210
0.0
220
0.0
230
1.0
 40
0.5780931159158107
 41
5.499720852205252
 42
8.641313505795046
  0
LINE
  5
23B
330
6C
100
AcDbEntity
  8
Visible (ANSI)
100
AcDbLine
 10
24.65256518783446
 20
6.149947247709461
 30
0.0
 11
24.69505686610084
 21
6.125477917585267
 31
0.0
  0
ELLIPSE
  5
23C
330
6C
100
AcDbEntity
  8
Visible (ANSI)
100
AcDbEllipse
 10
24.70652287452191
 20
6.096019667259067
 30
0.0
 11
0.0518839951675035
 21
-0.0900980132533668
 31
0.0
210
0.0
220
0.0
230
0.9999999999999998
 40
0.5780931159158106
 41
3.686076690042437
 42
5.499720852204674
  0
ELLIPSE
  5
23D
330
6C
100
AcDbEntity
  8
Visible (ANSI)
100
AcDbEllipse
 10
24.65256518783446
 20
6.064947502021986
 30
0.0
 11
-0.0518839951674932
 21
0.0900980132533738
 31
0.0
210
0.0
220
0.0
230
1.0
 40
0.5780931159158105
 41
5.499720852205252
 42
8.641313505795046
  0
LINE
  5
23E
330
6C
100
AcDbEntity
  8
Visible Narrow (ANSI)
100
AcDbLine
 10
24.65256518783446
 20
5.979947756334511
 30
0.0
 11
24.70652287452191
 21
6.011019921571592
 31
0.0
  0
LINE
  5
23F
330
6C
100
AcDbEntity
  8
Visible (ANSI)
100
AcDbLine
 10
24.70652287452191
 20
6.011019921571592
 30
0.0
 11
24.7490145527883
 21
5.986550591447398
 31
0.0
  0
LINE
  5
240
330
6C
100
AcDbEntity
  8
Visible (ANSI)
100
AcDbLine
 10
24.69505686610084
 20
5.955478426210317
 30
0.0
 11
24.65256518783446
 21
5.979947756334511
 31
0.0
  0
LINE
  5
241
330
6C
100
AcDbEntity
  8
Visible Narrow (ANSI)
100
AcDbLine
 10
24.69505686610084
 20
5.955478426210317
 30
0.0
 11
24.7490145527883
 21
5.986550591447398
 31
0.0
  0
ELLIPSE
  5
242
330
6C
100
AcDbEntity
  8
Visible (ANSI)
100
AcDbEllipse
 10
24.7490145527883
 20
6.07155033713487
 30
0.0
 11
0.0518839951674966
 21
-0.0900980132533673
 31
0.0
210
0.0
220
0.0
230
1.0
 40
0.5780931159158105
 41
5.499720852205022
 42
5.738701270726608
  0
ELLIPSE
  5
243
330
6C
100
AcDbEntity
  8
Visible (ANSI)
100
AcDbEllipse
 10
24.69505686610084
 20
6.040478171897793
 30
0.0
 11
0.0518839951674932
 21
-0.0900980132533738
 31
0.0
210
0.0
220
0.0
230
1.0
 40
0.5780931159158105
 41
5.499720852205252
 42
8.641313505795046
  0
LINE
  5
244
330
6C
100
AcDbEntity
  8
Visible (ANSI)
100
AcDbLine
 10
20.43442303104119
 20
15.0156000119471
 30
0.0
 11
20.47691470930757
 21
14.99113068182291
 31
0.0
  0
ELLIPSE
  5
245
330
6C
100
AcDbEntity
  8
Visible (ANSI)
100
AcDbEllipse
 10
20.48838071772864
 20
14.96167243149671
 30
0.0
 11
0.0518839951675036
 21
-0.090098013253367
 31
0.0
210
0.0
220
0.0
230
1.0
 40
0.5780931159158106
 41
3.686076690042424
 42
5.499720852204674
  0
ELLIPSE
  5
246
330
6C
100
AcDbEntity
  8
Visible (ANSI)
100
AcDbEllipse
 10
20.43442303104119
 20
14.93060026625962
 30
0.0
 11
-0.051883995167493
 21
0.0900980132533735
 31
0.0
210
0.0
220
0.0
230
1.0
 40
0.5780931159158105
 41
5.499720852205253
 42
8.641313505795046
  0
LINE
  5
247
330
6C
100
AcDbEntity
  8
Visible Narrow (ANSI)
100
AcDbLine
 10
20.43442303104119
 20
14.84560052057215
 30
0.0
 11
20.48838071772864
 21
14.87667268580923
 31
0.0
  0
LINE
  5
248
330
6C
100
AcDbEntity
  8
Visible (ANSI)
100
AcDbLine
 10
20.48838071772864
 20
14.87667268580923
 30
0.0
 11
20.53087239599503
 21
14.85220335568504
 31
0.0
  0
LINE
  5
249
330
6C
100
AcDbEntity
  8
Visible (ANSI)
100
AcDbLine
 10
20.47691470930757
 20
14.82113119044796
 30
0.0
 11
20.43442303104119
 21
14.84560052057215
 31
0.0
  0
LINE
  5
24A
330
6C
100
AcDbEntity
  8
Visible Narrow (ANSI)
100
AcDbLine
 10
20.47691470930757
 20
14.82113119044796
 30
0.0
 11
20.53087239599503
 21
14.85220335568504
 31
0.0
  0
ELLIPSE
  5
24B
330
6C
100
AcDbEntity
  8
Visible (ANSI)
100
AcDbEllipse
 10
20.53087239599504
 20
14.93720310137242
 30
0.0
 11
0.0518839951674438
 21
-0.0900980132532756
 31
0.0
210
0.0
220
0.0
230
1.0
 40
0.5780931159158105
 41
5.499720852204905
 42
5.738701270726674
  0
ELLIPSE
  5
24C
330
6C
100
AcDbEntity
  8
Visible (ANSI)
100
AcDbEllipse
 10
20.47691470930757
 20
14.90613093613543
 30
0.0
 11
0.051883995167493
 21
-0.0900980132533735
 31
0.0
210
0.0
220
0.0
230
1.0
 40
0.5780931159158107
 41
5.499720852205253
 42
8.641313505795046
  0
LINE
  5
24D
330
6C
100
AcDbEntity
  8
Visible (ANSI)
100
AcDbLine
 10
20.24455942100964
 20
8.359267362324274
 30
0.0
 11
20.24455942100964
 21
15.28401728622133
 31
0.0
  0
LINE
  5
24E
330
6C
100
AcDbEntity
  8
Visible (ANSI)
100
AcDbLine
 10
20.2985171076971
 20
15.31508945145841
 30
0.0
 11
20.24455942100964
 21
15.28401728622133
 31
0.0
  0
LINE
  5
24F
330
6C
100
AcDbEntity
  8
Visible (ANSI)
100
AcDbLine
 10
20.24455942100964
 20
15.28401728622133
 30
0.0
 11
24.88492047613239
 21
12.61181107583314
 31
0.0
  0
LINE
  5
250
330
6C
100
AcDbEntity
  8
Visible (ANSI)
100
AcDbLine
 10
24.93887816281985
 20
12.64288324107022
 30
0.0
 11
24.88492047613239
 21
12.61181107583314
 31
0.0
  0
LINE
  5
251
330
6C
100
AcDbEntity
  8
Visible (ANSI)
100
AcDbLine
 10
24.93887816281985
 20
12.64288324107022
 30
0.0
 11
20.2985171076971
 21
15.31508945145841
 31
0.0
  0
LINE
  5
252
330
6C
100
AcDbEntity
  8
Visible (ANSI)
100
AcDbLine
 10
24.88492047613239
 20
12.61181107583314
 30
0.0
 11
24.88492047613239
 21
5.687061151936085
 31
0.0
  0
LINE
  5
253
330
6C
100
AcDbEntity
  8
Visible (ANSI)
100
AcDbLine
 10
24.93887816281985
 20
5.718133317173167
 30
0.0
 11
24.88492047613239
 21
5.687061151936085
 31
0.0
  0
LINE
  5
254
330
6C
100
AcDbEntity
  8
Visible (ANSI)
100
AcDbLine
 10
24.93887816281985
 20
5.718133317173167
 30
0.0
 11
24.93887816281985
 21
12.64288324107022
 31
0.0
  0
LINE
  5
255
330
6C
100
AcDbEntity
  8
Visible (ANSI)
100
AcDbLine
 10
24.88492047613239
 20
5.687061151936085
 30
0.0
 11
20.24455942100964
 21
8.359267362324274
 31
0.0
  0
DIMENSION
  5
256
330
6C
100
AcDbEntity
  8
Dimension (ANSI)
100
AcDbDimension
  2
*D5
 10
4.08928177863335
 20
4.047160723592432
 30
0.0
 11
7.440481088045821
 21
4.047160723592432
 31
0.0
 70
   160
  1
<>
 42
6.879999999999999
  3
Default (ANSI)
100
AcDbAlignedDimension
 13
10.96928177863335
 23
5.432987495245974
 33
0.0
 14
4.08928177863335
 24
5.432987495245974
 34
0.0
 50
180.0
100
AcDbRotatedDimension
1001
ACAD
1000
DSTYLE
1002
{
1070
   289
1070
     1
1070
    73
1070
     0
1070
    74
1070
     0
1070
   271
1070
     3
1070
   272
1070
     2
1070
    48
1040
0.0
1070
    47
1040
0.0
1002
}
  0
DIMENSION
  5
340
330
6C
100
AcDbEntity
  8
Dimension (ANSI)
100
AcDbDimension
  2
*D6
 10
2.703455006979807
 20
14.31298749524597
 30
0.0
 11
2.703455006979804
 21
9.872987495245974
 31
0.0
 70
   160
  1
<>
 42
8.879999999999999
  3
Default (ANSI)
100
AcDbAlignedDimension
 13
4.08928177863335
 23
5.432987495245974
 33
0.0
 14
4.089281778633346
 24
14.31298749524597
 34
0.0
 50
90.0
100
AcDbRotatedDimension
1001
ACAD
1000
DSTYLE
1002
{
1070
   289
1070
     1
1070
   271
1070
     3
1070
   272
1070
     2
1070
    48
1040
0.0
1070
    47
1040
0.0
1002
}
  0
DIMENSION
  5
42A
330
6C
100
AcDbEntity
  8
Dimension (ANSI)
100
AcDbDimension
  2
*D7
 10
3.79729772344529
 20
5.745987495245975
 30
0.0
 11
3.782504832147553
 21
6.437057733402114
 31
0.0
 70
   160
  1
<>{\PTYP.}
 42
0.3130000000000006
  3
Default (ANSI)
100
AcDbAlignedDimension
 13
4.08928177863335
 23
5.432987495245974
 33
0.0
 14
4.261781778633349
 24
5.745987495245975
 34
0.0
 50
90.0
100
AcDbRotatedDimension
1001
ACAD
1000
DSTYLE
1002
{
1070
   289
1070
     1
1070
   279
1070
     1
1070
   145
1040
-0.25
1070
   271
1070
     3
1070
   272
1070
     2
1070
    48
1040
0.0
1070
    47
1040
0.0
1002
}
  0
DIMENSION
  5
540
330
6C
100
AcDbEntity
  8
Dimension (ANSI)
100
AcDbDimension
  2
*D8
 10
4.402281778633349
 20
4.425113479497944
 30
0.0
 11
3.360951621355157
 21
4.425113479497944
 31
0.0
 70
   160
  1
<>{\PTYP.}
 42
0.3129999999999988
  3
Default (ANSI)
100
AcDbAlignedDimension
 13
4.08928177863335
 23
5.432987495245974
 33
0.0
 14
4.402281778633349
 24
5.636987495245975
 34
0.0
100
AcDbRotatedDimension
1001
ACAD
1000
DSTYLE
1002
{
1070
   289
1070
     1
1070
    73
1070
     0
1070
    74
1070
     0
1070
   145
1040
-0.25
1070
   271
1070
     3
1070
   272
1070
     2
1070
    48
1040
0.0
1070
    47
1040
0.0
1002
}
  0
DIMENSION
  5
63E
330
6C
100
AcDbEntity
  8
Dimension (ANSI)
100
AcDbDimension
  2
*D9
 10
5.402281778633349
 20
4.425113479497944
 30
0.0
 11
5.932226228876825
 21
4.425113479497944
 31
0.0
 70
   160
  1
<>
  3
Default (ANSI)
100
AcDbAlignedDimension
 13
4.402281778633349
 23
5.636987495245975
 33
0.0
 14
5.402281778633349
 24
5.620987495245974
 34
0.0
 50
180.0
100
AcDbRotatedDimension
1001
ACAD
1000
DSTYLE
1002
{
1070
   289
1070
     2
1070
    73
1070
     0
1070
    74
1070
     0
1070
   271
1070
     3
1070
   272
1070
     2
1070
    48
1040
0.0
1070
    47
1040
0.0
1002
}
  0
DIMENSION
  5
728
330
6C
100
AcDbEntity
  8
Dimension (ANSI)
100
AcDbDimension
  2
*D10
 10
5.294028603160285
 20
5.808487495245961
 30
0.0
 11
7.16556698010256
 21
5.153826007095718
 31
0.0
 70
   163
  1
<>{\PGROUND\PHOLE}
 42
0.25
  3
Default (ANSI)
100
AcDbDiametricDimension
 15
5.51053495410641
 25
5.683487495245984
 35
0.0
 40
0.0
1001
ACAD_DSTYLE_DIMRADIAL_EXTENSION
1070
   387
1070
     1
1070
   388
1040
0.0
1070
   390
1040
0.0
1001
ACAD
1000
DSTYLE
1002
{
1070
   145
1040
-0.3333333333333334
1070
   144
1040
0.9999999999999875
1070
   271
1070
     3
1070
   272
1070
     2
1070
    48
1040
0.0
1070
    47
1040
0.0
1002
}
  0
DIMENSION
  5
7E2
330
6C
100
AcDbEntity
  8
Dimension (ANSI)
100
AcDbDimension
  2
*D11
 10
10.68778177863334
 20
5.745987495245975
 30
0.0
 11
12.4362201630098
 21
6.480245372736328
 31
0.0
 70
   164
  1
 0.218 X 0.281\POBROUND\PTYP. (4 PL.)
 42
0.1089999999999982
  3
Default (ANSI)
100
AcDbRadialDimension
 15
10.76485641778269
 25
5.823062134395296
 35
0.0
 40
0.0
1001
ACAD_DSTYLE_DIMRADIAL_EXTENSION
1070
   387
1070
     1
1070
   388
1040
0.0
1070
   390
1040
0.0
1001
ACAD
1000
DSTYLE
1002
{
1070
   145
1040
-0.3333333333333334
1070
   271
1070
     3
1070
   141
1040
0.0
1070
   272
1070
     2
1070
    48
1040
0.0
1070
    47
1040
0.0
1002
}
  0
ENDSEC
  0
SECTION
  2
OBJECTS
  0
DICTIONARY
  5
C
330
0
100
AcDbDictionary
281
     1
  3
ACAD_CIP_PREVIOUS_PRODUCT_INFO
350
885
  3
ACAD_COLOR
350
63
  3
ACAD_GROUP
350
D
  3
ACAD_LAYOUT
350
62
  3
ACAD_MATERIAL
350
10
  3
ACAD_MLEADERSTYLE
350
66
  3
ACAD_MLINESTYLE
350
5F
  3
ACAD_PLOTSETTINGS
350
61
  3
ACAD_PLOTSTYLENAME
350
E
  3
ACAD_SCALELIST
350
42
  3
ACAD_TABLESTYLE
350
64
  3
ACAD_VISUALSTYLE
350
29
  3
ACDB_RECOMPOSE_DATA
350
893
  3
AcDbVariableDictionary
350
76
  3
DWGPROPS
350
894
  0
DICTIONARY
  5
8D0
330
7DC
100
AcDbDictionary
280
     1
281
     1
  3
ACAD_MTEXT_RT
360
8D1
  0
XRECORD
  5
885
102
{ACAD_REACTORS
330
C
102
}
330
C
100
AcDbXrecord
280
     1
300
INVNTOR
300
2012
300
85795PDSP_2012_0F
  0
DICTIONARY
  5
63
102
{ACAD_REACTORS
330
C
102
}
330
C
100
AcDbDictionary
281
     1
  0
DICTIONARY
  5
D
102
{ACAD_REACTORS
330
C
102
}
330
C
100
AcDbDictionary
281
     1
  0
DICTIONARY
  5
62
102
{ACAD_REACTORS
330
C
102
}
330
C
100
AcDbDictionary
281
     1
  3
Layout1
350
6B
  3
Layout2
350
73
  3
Model
350
6F
  0
DICTIONARY
  5
10
102
{ACAD_REACTORS
330
C
102
}
330
C
100
AcDbDictionary
281
     1
  3
ByBlock
350
19
  3
ByLayer
350
11
  3
Global
350
21
  0
DICTIONARY
  5
66
102
{ACAD_REACTORS
330
C
102
}
330
C
100
AcDbDictionary
281
     1
  3
Standard
350
67
  0
DICTIONARY
  5
5F
102
{ACAD_REACTORS
330
C
102
}
330
C
100
AcDbDictionary
281
     1
  3
Standard
350
60
  0
DICTIONARY
  5
61
102
{ACAD_REACTORS
330
C
102
}
330
C
100
AcDbDictionary
281
     1
  0
ACDBDICTIONARYWDFLT
  5
E
102
{ACAD_REACTORS
330
C
102
}
330
C
100
AcDbDictionary
281
     1
  3
Normal
350
F
100
AcDbDictionaryWithDefault
340
F
  0
DICTIONARY
  5
42
102
{ACAD_REACTORS
330
C
102
}
330
C
100
AcDbDictionary
281
     1
  3
A0
350
43
  3
A1
350
44
  3
A2
350
45
  3
A3
350
46
  3
A4
350
47
  3
A5
350
48
  3
A6
350
49
  3
A7
350
4A
  3
A8
350
4B
  3
A9
350
4C
  3
B0
350
4D
  3
B1
350
4E
  3
B2
350
4F
  3
B3
350
50
  3
B4
350
51
  3
B5
350
52
  3
B6
350
53
  0
DICTIONARY
  5
64
102
{ACAD_REACTORS
330
C
102
}
330
C
100
AcDbDictionary
281
     1
  3
Standard
350
65
  0
DICTIONARY
  5
29
102
{ACAD_REACTORS
330
C
102
}
330
C
100
AcDbDictionary
281
     1
  3
2dWireframe
350
2F
  3
Basic
350
2E
  3
Brighten
350
35
  3
ColorChange
350
39
  3
Conceptual
350
32
  3
Dim
350
34
  3
EdgeColorOff
350
41
  3
Facepattern
350
38
  3
Flat
350
2A
  3
FlatWithEdges
350
2B
  3
Gouraud
350
2C
  3
GouraudWithEdges
350
2D
  3
Hidden
350
31
  3
JitterOff
350
3F
  3
Linepattern
350
37
  3
OverhangOff
350
40
  3
Realistic
350
33
  3
Shaded
350
3E
  3
Shaded with edges
350
3D
  3
Shades of Gray
350
3A
  3
Sketchy
350
3B
  3
Thicken
350
36
  3
Wireframe
350
30
  3
X-Ray
350
3C
  0
XRECORD
  5
893
102
{ACAD_REACTORS
330
C
102
}
330
C
100
AcDbXrecord
280
     1
 90
        1
330
65
330
63E
  0
DICTIONARY
  5
76
102
{ACAD_REACTORS
330
C
102
}
330
C
100
AcDbDictionary
281
     1
  3
CANNOSCALE
350
79
  3
CMLEADERSTYLE
350
78
  3
CTABLESTYLE
350
77
  3
DIMASSOC
350
88D
  3
HIDETEXT
350
88C
  3
INDEXCTL
350
88B
  3
LAYEREVAL
350
888
  3
LAYERNOTIFY
350
889
  3
LIGHTINGUNITS
350
887
  3
MSLTSCALE
350
886
  3
SORTENTS
350
88A
  3
XCLIPFRAME
350
88E
  0
XRECORD
  5
894
102
{ACAD_REACTORS
330
C
102
}
330
C
100
AcDbXrecord
280
     1
  1
DWGPROPS COOKIE
  2

  3

  4
KRA
  6

  7

  8

  9
-
300
Manager=
301
Company=
302
Category=
303
Part Number=P1008AL-S
304
Description=P SERIES BACK PANEL MASTER VIEW
305
Project=
306
Designer=KRA
307
Engineer=
308
Authority=
309
Cost Center=
 40
0.000058599537037
 41
2455951.558954595
 42
2455951.558954595
  1

 90
       20
300
Vendor=
300
User Status=
300
Design Status=WorkInProgress
300
Checked by=JMG
300
Date Checked=02/12/2009
300
Engr Approved by=
300
Mfg Approved by=
300
DWG. NO=
300
NUMBER OF SHEETS=1
300
DRAWING #=1
  0
XRECORD
  5
8D1
102
{ACAD_REACTORS
330
8D0
102
}
330
8D0
100
AcDbXrecord
280
     1
 40
40178.0
  1
\A1;\U+22050.250{\PGROUND\PHOLE}
  0
LAYOUT
  5
6B
102
{ACAD_XDICTIONARY
360
8CA
102
}
102
{ACAD_REACTORS
330
62
102
}
330
62
100
AcDbPlotSettings
  1

  2

  4

  6

 40
0.0
 41
0.0
 42
0.0
 43
0.0
 44
0.0
 45
0.0
 46
0.0
 47
0.0
 48
0.0
 49
0.0
140
0.0
141
0.0
142
1.0
143
1.0
 70
   688
 72
     0
 73
     0
 74
     5
  7

 75
    16
147
1.0
148
0.0
149
0.0
100
AcDbLayout
  1
Layout1
 70
     1
 71
     1
 10
0.0
 20
0.0
 11
12.0
 21
9.0
 12
0.0
 22
0.0
 32
0.0
 14
0.0
 24
0.0
 34
0.0
 15
0.0
 25
0.0
 35
0.0
146
0.0
 13
0.0
 23
0.0
 33
0.0
 16
1.0
 26
0.0
 36
0.0
 17
0.0
 27
1.0
 37
0.0
 76
     0
330
68
  0
LAYOUT
  5
73
102
{ACAD_XDICTIONARY
360
8CE
102
}
102
{ACAD_REACTORS
330
62
102
}
330
62
100
AcDbPlotSettings
  1

  2

  4

  6

 40
0.0
 41
0.0
 42
0.0
 43
0.0
 44
0.0
 45
0.0
 46
0.0
 47
0.0
 48
0.0
 49
0.0
140
0.0
141
0.0
142
1.0
143
1.0
 70
   688
 72
     0
 73
     0
 74
     5
  7

 75
    16
147
1.0
148
0.0
149
0.0
100
AcDbLayout
  1
Layout2
 70
     1
 71
     2
 10
0.0
 20
0.0
 11
12.0
 21
9.0
 12
0.0
 22
0.0
 32
0.0
 14
0.0
 24
0.0
 34
0.0
 15
0.0
 25
0.0
 35
0.0
146
0.0
 13
0.0
 23
0.0
 33
0.0
 16
1.0
 26
0.0
 36
0.0
 17
0.0
 27
1.0
 37
0.0
 76
     0
330
70
  0
LAYOUT
  5
6F
102
{ACAD_XDICTIONARY
360
8CC
102
}
102
{ACAD_REACTORS
330
62
102
}
330
62
100
AcDbPlotSettings
  1

  2

  4

  6

 40
0.0
 41
0.0
 42
0.0
 43
0.0
 44
0.0
 45
0.0
 46
0.0
 47
0.0
 48
0.0
 49
0.0
140
0.0
141
0.0
142
1.0
143
1.0
 70
  1712
 72
     0
 73
     0
 74
     0
  7

 75
     0
147
1.0
148
0.0
149
0.0
100
AcDbLayout
  1
Model
 70
     1
 71
     0
 10
0.0
 20
0.0
 11
12.0
 21
9.0
 12
0.0
 22
0.0
 32
0.0
 14
0.0
 24
0.0
 34
0.0
 15
0.0
 25
0.0
 35
0.0
146
0.0
 13
0.0
 23
0.0
 33
0.0
 16
1.0
 26
0.0
 36
0.0
 17
0.0
 27
1.0
 37
0.0
 76
     0
330
6C
  0
MATERIAL
  5
19
102
{ACAD_XDICTIONARY
360
1A
102
}
102
{ACAD_REACTORS
330
10
102
}
330
10
100
AcDbMaterial
  1
ByBlock
 72
     0
 43
0.0208333333333333
 43
0.0
 43
0.0
 43
0.0
 43
0.0
 43
0.0208333333333333
 43
0.0
 43
0.0
 43
0.0
 43
0.0
 43
1.0
 43
0.0
 43
0.0
 43
0.0
 43
0.0
 43
1.0
 77
     0
 47
0.0208333333333333
 47
0.0
 47
0.0
 47
0.0
 47
0.0
 47
0.0208333333333333
 47
0.0
 47
0.0
 47
0.0
 47
0.0
 47
1.0
 47
0.0
 47
0.0
 47
0.0
 47
0.0
 47
1.0
171
     0
 49
0.0208333333333333
 49
0.0
 49
0.0
 49
0.0
 49
0.0
 49
0.0208333333333333
 49
0.0
 49
0.0
 49
0.0
 49
0.0
 49
1.0
 49
0.0
 49
0.0
 49
0.0
 49
0.0
 49
1.0
175
     0
142
0.0208333333333333
142
0.0
142
0.0
142
0.0
142
0.0
142
0.0208333333333333
142
0.0
142
0.0
142
0.0
142
0.0
142
1.0
142
0.0
142
0.0
142
0.0
142
0.0
142
1.0
179
     0
144
0.0208333333333333
144
0.0
144
0.0
144
0.0
144
0.0
144
0.0208333333333333
144
0.0
144
0.0
144
0.0
144
0.0
144
1.0
144
0.0
144
0.0
144
0.0
144
0.0
144
1.0
147
0.0208333333333333
147
0.0
147
0.0
147
0.0
147
0.0
147
0.0208333333333333
147
0.0
147
0.0
147
0.0
147
0.0
147
1.0
147
0.0
147
0.0
147
0.0
147
0.0
147
1.0
  0
MATERIAL
  5
11
102
{ACAD_XDICTIONARY
360
12
102
}
102
{ACAD_REACTORS
330
10
102
}
330
10
100
AcDbMaterial
  1
ByLayer
 72
     0
 43
0.0208333333333333
 43
0.0
 43
0.0
 43
0.0
 43
0.0
 43
0.0208333333333333
 43
0.0
 43
0.0
 43
0.0
 43
0.0
 43
1.0
 43
0.0
 43
0.0
 43
0.0
 43
0.0
 43
1.0
 77
     0
 47
0.0208333333333333
 47
0.0
 47
0.0
 47
0.0
 47
0.0
 47
0.0208333333333333
 47
0.0
 47
0.0
 47
0.0
 47
0.0
 47
1.0
 47
0.0
 47
0.0
 47
0.0
 47
0.0
 47
1.0
171
     0
 49
0.0208333333333333
 49
0.0
 49
0.0
 49
0.0
 49
0.0
 49
0.0208333333333333
 49
0.0
 49
0.0
 49
0.0
 49
0.0
 49
1.0
 49
0.0
 49
0.0
 49
0.0
 49
0.0
 49
1.0
175
     0
142
0.0208333333333333
142
0.0
142
0.0
142
0.0
142
0.0
142
0.0208333333333333
142
0.0
142
0.0
142
0.0
142
0.0
142
1.0
142
0.0
142
0.0
142
0.0
142
0.0
142
1.0
179
     0
144
0.0208333333333333
144
0.0
144
0.0
144
0.0
144
0.0
144
0.0208333333333333
144
0.0
144
0.0
144
0.0
144
0.0
144
1.0
144
0.0
144
0.0
144
0.0
144
0.0
144
1.0
147
0.0208333333333333
147
0.0
147
0.0
147
0.0
147
0.0
147
0.0208333333333333
147
0.0
147
0.0
147
0.0
147
0.0
147
1.0
147
0.0
147
0.0
147
0.0
147
0.0
147
1.0
  0
MATERIAL
  5
21
102
{ACAD_XDICTIONARY
360
22
102
}
102
{ACAD_REACTORS
330
10
102
}
330
10
100
AcDbMaterial
  1
Global
 72
     0
 43
0.0208333333333333
 43
0.0
 43
0.0
 43
0.0
 43
0.0
 43
0.0208333333333333
 43
0.0
 43
0.0
 43
0.0
 43
0.0
 43
1.0
 43
0.0
 43
0.0
 43
0.0
 43
0.0
 43
1.0
 77
     0
 47
0.0208333333333333
 47
0.0
 47
0.0
 47
0.0
 47
0.0
 47
0.0208333333333333
 47
0.0
 47
0.0
 47
0.0
 47
0.0
 47
1.0
 47
0.0
 47
0.0
 47
0.0
 47
0.0
 47
1.0
171
     0
 49
0.0208333333333333
 49
0.0
 49
0.0
 49
0.0
 49
0.0
 49
0.0208333333333333
 49
0.0
 49
0.0
 49
0.0
 49
0.0
 49
1.0
 49
0.0
 49
0.0
 49
0.0
 49
0.0
 49
1.0
175
     0
142
0.0208333333333333
142
0.0
142
0.0
142
0.0
142
0.0
142
0.0208333333333333
142
0.0
142
0.0
142
0.0
142
0.0
142
1.0
142
0.0
142
0.0
142
0.0
142
0.0
142
1.0
179
     0
144
0.0208333333333333
144
0.0
144
0.0
144
0.0
144
0.0
144
0.0208333333333333
144
0.0
144
0.0
144
0.0
144
0.0
144
1.0
144
0.0
144
0.0
144
0.0
144
0.0
144
1.0
147
0.0208333333333333
147
0.0
147
0.0
147
0.0
147
0.0
147
0.0208333333333333
147
0.0
147
0.0
147
0.0
147
0.0
147
1.0
147
0.0
147
0.0
147
0.0
147
0.0
147
1.0
  0
MLEADERSTYLE
  5
67
102
{ACAD_XDICTIONARY
360
891
102
}
102
{ACAD_REACTORS
330
66
102
}
330
66
100
AcDbMLeaderStyle
170
     2
171
     1
172
     0
 90
        2
 40
0.0
 41
0.0
173
     1
 91
-1056964608
340
5B
 92
       -2
290
     1
 42
0.09
291
     1
 43
0.36
  3
Standard
 44
0.18
300

342
55
174
     1
178
     6
175
     1
176
     0
 93
-1056964608
 45
0.18
292
     0
297
     0
 46
0.18
 94
-1056964608
 47
1.0
 49
1.0
140
1.0
293
     1
141
0.0
294
     1
177
     0
142
1.0
295
     0
296
     0
143
0.125
1001
ACAD_MLEADERVER
1070
     2
  0
MLINESTYLE
  5
60
102
{ACAD_REACTORS
330
5F
102
}
330
5F
100
AcDbMlineStyle
  2
STANDARD
 70
     0
  3

 62
   256
 51
90.0
 52
90.0
 71
     2
 49
0.5
 62
   256
  6
BYLAYER
 49
-0.5
 62
   256
  6
BYLAYER
  0
ACDBPLACEHOLDER
  5
F
102
{ACAD_REACTORS
330
E
102
}
330
E
  0
SCALE
  5
43
102
{ACAD_REACTORS
330
42
102
}
330
42
100
AcDbScale
 70
     0
300
1:1
140
1.0
141
1.0
290
     1
  0
SCALE
  5
44
102
{ACAD_REACTORS
330
42
102
}
330
42
100
AcDbScale
 70
     0
300
1/128" = 1'-0"
140
0.0078125
141
12.0
290
     0
  0
SCALE
  5
45
102
{ACAD_REACTORS
330
42
102
}
330
42
100
AcDbScale
 70
     0
300
1/64" = 1'-0"
140
0.015625
141
12.0
290
     0
  0
SCALE
  5
46
102
{ACAD_REACTORS
330
42
102
}
330
42
100
AcDbScale
 70
     0
300
1/32" = 1'-0"
140
0.03125
141
12.0
290
     0
  0
SCALE
  5
47
102
{ACAD_REACTORS
330
42
102
}
330
42
100
AcDbScale
 70
     0
300
1/16" = 1'-0"
140
0.0625
141
12.0
290
     0
  0
SCALE
  5
48
102
{ACAD_REACTORS
330
42
102
}
330
42
100
AcDbScale
 70
     0
300
3/32" = 1'-0"
140
0.09375
141
12.0
290
     0
  0
SCALE
  5
49
102
{ACAD_REACTORS
330
42
102
}
330
42
100
AcDbScale
 70
     0
300
1/8" = 1'-0"
140
0.125
141
12.0
290
     0
  0
SCALE
  5
4A
102
{ACAD_REACTORS
330
42
102
}
330
42
100
AcDbScale
 70
     0
300
3/16" = 1'-0"
140
0.1875
141
12.0
290
     0
  0
SCALE
  5
4B
102
{ACAD_REACTORS
330
42
102
}
330
42
100
AcDbScale
 70
     0
300
1/4" = 1'-0"
140
0.25
141
12.0
290
     0
  0
SCALE
  5
4C
102
{ACAD_REACTORS
330
42
102
}
330
42
100
AcDbScale
 70
     0
300
3/8" = 1'-0"
140
0.375
141
12.0
290
     0
  0
SCALE
  5
4D
102
{ACAD_REACTORS
330
42
102
}
330
42
100
AcDbScale
 70
     0
300
1/2" = 1'-0"
140
0.5
141
12.0
290
     0
  0
SCALE
  5
4E
102
{ACAD_REACTORS
330
42
102
}
330
42
100
AcDbScale
 70
     0
300
3/4" = 1'-0"
140
0.75
141
12.0
290
     0
  0
SCALE
  5
4F
102
{ACAD_REACTORS
330
42
102
}
330
42
100
AcDbScale
 70
     0
300
1" = 1'-0"
140
1.0
141
12.0
290
     0
  0
SCALE
  5
50
102
{ACAD_REACTORS
330
42
102
}
330
42
100
AcDbScale
 70
     0
300
1-1/2" = 1'-0"
140
1.5
141
12.0
290
     0
  0
SCALE
  5
51
102
{ACAD_REACTORS
330
42
102
}
330
42
100
AcDbScale
 70
     0
300
3" = 1'-0"
140
3.0
141
12.0
290
     0
  0
SCALE
  5
52
102
{ACAD_REACTORS
330
42
102
}
330
42
100
AcDbScale
 70
     0
300
6" = 1'-0"
140
6.0
141
12.0
290
     0
  0
SCALE
  5
53
102
{ACAD_REACTORS
330
42
102
}
330
42
100
AcDbScale
 70
     0
300
1'-0" = 1'-0"
140
12.0
141
12.0
290
     0
  0
TABLESTYLE
  5
65
102
{ACAD_XDICTIONARY
360
88F
102
}
102
{ACAD_REACTORS
330
64
102
}
330
64
100
AcDbTableStyle
  3
Standard
 70
     0
 71
     0
 40
0.06
 41
0.06
280
     0
281
     0
  7
Standard
140
0.18
170
     2
 62
     0
 63
     7
283
     0
274
    -2
284
     1
 64
     0
275
    -2
285
     1
 65
     0
276
    -2
286
     1
 66
     0
277
    -2
287
     1
 67
     0
278
    -2
288
     1
 68
     0
279
    -2
289
     1
 69
     0
  7
Standard
140
0.25
170
     5
 62
     0
 63
     7
283
     0
274
    -2
284
     1
 64
     0
275
    -2
285
     1
 65
     0
276
    -2
286
     1
 66
     0
277
    -2
287
     1
 67
     0
278
    -2
288
     1
 68
     0
279
    -2
289
     1
 69
     0
  7
Standard
140
0.18
170
     5
 62
     0
 63
     7
283
     0
274
    -2
284
     1
 64
     0
275
    -2
285
     1
 65
     0
276
    -2
286
     1
 66
     0
277
    -2
287
     1
 67
     0
278
    -2
288
     1
 68
     0
279
    -2
289
     1
 69
     0
  0
VISUALSTYLE
  5
2F
102
{ACAD_XDICTIONARY
360
8A2
102
}
102
{ACAD_REACTORS
330
29
102
}
330
29
100
AcDbVisualStyle
  2
2dWireframe
 70
     4
 71
     0
 72
     2
 73
     0
 90
        0
 40
-0.6
 41
-30.0
 62
     5
 63
     7
 74
     1
 91
        4
 64
     7
 65
   257
 75
     1
175
     1
 42
1.0
 92
        0
 66
   257
 43
1.0
 76
     1
 77
     6
 78
     2
 67
     7
 79
     5
170
     0
171
     0
290
     0
174
     0
 93
        1
 44
0.0
173
     0
291
     0
 45
0.0
1001
ACAD
1000
AcDbSavedByObjectVersion
1070
     0
  0
VISUALSTYLE
  5
2E
102
{ACAD_XDICTIONARY
360
8A0
102
}
102
{ACAD_REACTORS
330
29
102
}
330
29
100
AcDbVisualStyle
  2
Basic
 70
     7
 71
     1
 72
     0
 73
     1
 90
        0
 40
-0.6
 41
-30.0
 62
     5
 63
     7
 74
     0
 91
        4
 64
     7
 65
   257
 75
     1
175
     1
 42
1.0
 92
        8
 66
     7
 43
1.0
 76
     1
 77
     6
 78
     2
 67
     7
 79
     5
170
     0
171
     0
290
     0
174
     0
 93
        1
 44
0.0
173
     0
291
     1
 45
0.0
1001
ACAD
1000
AcDbSavedByObjectVersion
1070
     0
  0
VISUALSTYLE
  5
35
102
{ACAD_XDICTIONARY
360
8AE
102
}
102
{ACAD_REACTORS
330
29
102
}
330
29
100
AcDbVisualStyle
  2
Brighten
 70
    12
 71
     2
 72
     2
 73
     0
 90
        0
 40
-0.6
 41
-30.0
 62
     5
 63
     7
 74
     1
 91
        4
 64
     7
 65
   257
 75
     1
175
     1
 42
1.0
 92
        8
 66
     7
 43
1.0
 76
     1
 77
     6
 78
     2
 67
     7
 79
     5
170
     0
171
     0
290
     0
174
     0
 93
        1
 44
50.0
173
     0
291
     1
 45
0.0
1001
ACAD
1000
AcDbSavedByObjectVersion
1070
     0
  0
VISUALSTYLE
  5
39
102
{ACAD_XDICTIONARY
360
8B6
102
}
102
{ACAD_REACTORS
330
29
102
}
330
29
100
AcDbVisualStyle
  2
ColorChange
 70
    16
 71
     2
 72
     2
 73
     3
 90
        0
 40
-0.6
 41
-30.0
 62
     5
 63
     8
 74
     1
 91
        4
 64
     7
 65
   257
 75
     1
175
     1
 42
1.0
 92
        8
 66
     8
 43
1.0
 76
     1
 77
     6
 78
     2
 67
     7
 79
     5
170
     0
171
     0
290
     0
174
     0
 93
        1
 44
0.0
173
     0
291
     1
 45
0.0
1001
ACAD
1000
AcDbSavedByObjectVersion
1070
     0
  0
VISUALSTYLE
  5
32
102
{ACAD_XDICTIONARY
360
8A8
102
}
102
{ACAD_REACTORS
330
29
102
}
330
29
100
AcDbVisualStyle
  2
Conceptual
 70
     9
 71
     3
 72
     2
 73
     0
 90
        0
 40
-0.6
 41
-30.0
 62
     5
 63
     7
 74
     2
 91
        2
 64
     7
 65
   257
 75
     1
175
     1
 42
179.0
 92
        8
 66
     7
 43
1.0
 76
     1
 77
     6
 78
     2
 67
     7
 79
     3
170
     0
171
     0
290
     0
174
     0
 93
        1
 44
0.0
173
     0
291
     0
 45
0.0
1001
ACAD
1000
AcDbSavedByObjectVersion
1070
     0
  0
VISUALSTYLE
  5
34
102
{ACAD_XDICTIONARY
360
8AC
102
}
102
{ACAD_REACTORS
330
29
102
}
330
29
100
AcDbVisualStyle
  2
Dim
 70
    11
 71
     2
 72
     2
 73
     0
 90
        0
 40
-0.6
 41
-30.0
 62
     5
 63
     7
 74
     1
 91
        4
 64
     7
 65
   257
 75
     1
175
     1
 42
1.0
 92
        8
 66
     7
 43
1.0
 76
     1
 77
     6
 78
     2
 67
     7
 79
     5
170
     0
171
     0
290
     0
174
     0
 93
        1
 44
-50.0
173
     0
291
     1
 45
0.0
1001
ACAD
1000
AcDbSavedByObjectVersion
1070
     0
  0
VISUALSTYLE
  5
41
102
{ACAD_XDICTIONARY
360
8C6
102
}
102
{ACAD_REACTORS
330
29
102
}
330
29
100
AcDbVisualStyle
  2
EdgeColorOff
 70
    22
 71
     2
 72
     2
 73
     0
 90
        0
 40
-0.6
 41
-30.0
 62
     5
 63
     7
 74
     1
 91
        4
 64
     7
 65
   257
 75
     1
175
     1
 42
1.0
 92
        8
 66
     7
 43
1.0
 76
     1
 77
     6
 78
     2
 67
     7
 79
     5
170
     0
171
     0
290
     0
174
     0
 93
        1
 44
0.0
173
     0
291
     1
 45
0.0
1001
ACAD
1000
AcDbSavedByObjectVersion
1070
     0
  0
VISUALSTYLE
  5
38
102
{ACAD_XDICTIONARY
360
8B4
102
}
102
{ACAD_REACTORS
330
29
102
}
330
29
100
AcDbVisualStyle
  2
Facepattern
 70
    15
 71
     2
 72
     2
 73
     0
 90
        0
 40
-0.6
 41
-30.0
 62
     5
 63
     7
 74
     1
 91
        4
 64
     7
 65
   257
 75
     1
175
     1
 42
1.0
 92
        8
 66
     7
 43
1.0
 76
     1
 77
     6
 78
     2
 67
     7
 79
     5
170
     0
171
     0
290
     0
174
     0
 93
        1
 44
0.0
173
     0
291
     1
 45
0.0
1001
ACAD
1000
AcDbSavedByObjectVersion
1070
     0
  0
VISUALSTYLE
  5
2A
102
{ACAD_XDICTIONARY
360
898
102
}
102
{ACAD_REACTORS
330
29
102
}
330
29
100
AcDbVisualStyle
  2
Flat
 70
     0
 71
     2
 72
     1
 73
     1
 90
        2
 40
-0.6
 41
30.0
 62
     5
 63
     7
 74
     0
 91
        0
 64
     7
 65
   257
 75
     1
175
     1
 42
1.0
 92
        8
 66
     7
 43
1.0
 76
     1
 77
     6
 78
     2
 67
     7
 79
     5
170
     0
171
     0
290
     0
174
     0
 93
       13
 44
0.0
173
     0
291
     1
 45
0.0
1001
ACAD
1000
AcDbSavedByObjectVersion
1070
     0
  0
VISUALSTYLE
  5
2B
102
{ACAD_XDICTIONARY
360
89A
102
}
102
{ACAD_REACTORS
330
29
102
}
330
29
100
AcDbVisualStyle
  2
FlatWithEdges
 70
     1
 71
     2
 72
     1
 73
     1
 90
        2
 40
-0.6
 41
30.0
 62
     5
 63
     7
 74
     1
 91
        0
 64
     7
 65
   257
 75
     1
175
     1
 42
1.0
 92
        0
 66
   257
 43
1.0
 76
     1
 77
     6
 78
     2
 67
     7
 79
     5
170
     0
171
     0
290
     0
174
     0
 93
       13
 44
0.0
173
     0
291
     1
 45
0.0
1001
ACAD
1000
AcDbSavedByObjectVersion
1070
     0
  0
VISUALSTYLE
  5
2C
102
{ACAD_XDICTIONARY
360
89C
102
}
102
{ACAD_REACTORS
330
29
102
}
330
29
100
AcDbVisualStyle
  2
Gouraud
 70
     2
 71
     2
 72
     2
 73
     1
 90
        2
 40
-0.6
 41
30.0
 62
     5
 63
     7
 74
     0
 91
        0
 64
     7
 65
   257
 75
     1
175
     1
 42
1.0
 92
        0
 66
     7
 43
1.0
 76
     1
 77
     6
 78
     2
 67
     7
 79
     5
170
     0
171
     0
290
     0
174
     0
 93
       13
 44
0.0
173
     0
291
     1
 45
0.0
1001
ACAD
1000
AcDbSavedByObjectVersion
1070
     0
  0
VISUALSTYLE
  5
2D
102
{ACAD_XDICTIONARY
360
89E
102
}
102
{ACAD_REACTORS
330
29
102
}
330
29
100
AcDbVisualStyle
  2
GouraudWithEdges
 70
     3
 71
     2
 72
     2
 73
     1
 90
        2
 40
-0.6
 41
30.0
 62
     5
 63
     7
 74
     1
 91
        0
 64
     7
 65
   257
 75
     1
175
     1
 42
1.0
 92
        0
 66
   257
 43
1.0
 76
     1
 77
     6
 78
     2
 67
     7
 79
     5
170
     0
171
     0
290
     0
174
     0
 93
       13
 44
0.0
173
     0
291
     1
 45
0.0
1001
ACAD
1000
AcDbSavedByObjectVersion
1070
     0
  0
VISUALSTYLE
  5
31
102
{ACAD_XDICTIONARY
360
8A6
102
}
102
{ACAD_REACTORS
330
29
102
}
330
29
100
AcDbVisualStyle
  2
Hidden
 70
     6
 71
     1
 72
     2
 73
     2
 90
        0
 40
-0.6
 41
-30.0
 62
     5
 63
     7
 74
     2
 91
        2
 64
     7
 65
   257
 75
     2
175
     1
 42
40.0
 92
        0
 66
   257
 43
1.0
 76
     1
 77
     6
 78
     2
 67
     7
 79
     3
170
     0
171
     0
290
     0
174
     0
 93
        1
 44
0.0
173
     0
291
     0
 45
0.0
1001
ACAD
1000
AcDbSavedByObjectVersion
1070
     0
  0
VISUALSTYLE
  5
3F
102
{ACAD_XDICTIONARY
360
8C2
102
}
102
{ACAD_REACTORS
330
29
102
}
330
29
100
AcDbVisualStyle
  2
JitterOff
 70
    20
 71
     2
 72
     2
 73
     0
 90
        0
 40
-0.6
 41
-30.0
 62
     5
 63
     7
 74
     1
 91
        4
 64
     7
 65
   257
 75
     1
175
     1
 42
1.0
 92
       10
 66
     7
 43
1.0
 76
     1
 77
     6
 78
     2
 67
     7
 79
     5
170
     0
171
     0
290
     0
174
     0
 93
        1
 44
0.0
173
     0
291
     1
 45
0.0
1001
ACAD
1000
AcDbSavedByObjectVersion
1070
     0
  0
VISUALSTYLE
  5
37
102
{ACAD_XDICTIONARY
360
8B2
102
}
102
{ACAD_REACTORS
330
29
102
}
330
29
100
AcDbVisualStyle
  2
Linepattern
 70
    14
 71
     2
 72
     2
 73
     0
 90
        0
 40
-0.6
 41
-30.0
 62
     5
 63
     7
 74
     1
 91
        4
 64
     7
 65
   257
 75
     7
175
     7
 42
1.0
 92
        8
 66
     7
 43
1.0
 76
     1
 77
     6
 78
     2
 67
     7
 79
     5
170
     0
171
     0
290
     0
174
     0
 93
        1
 44
0.0
173
     0
291
     1
 45
0.0
1001
ACAD
1000
AcDbSavedByObjectVersion
1070
     0
  0
VISUALSTYLE
  5
40
102
{ACAD_XDICTIONARY
360
8C4
102
}
102
{ACAD_REACTORS
330
29
102
}
330
29
100
AcDbVisualStyle
  2
OverhangOff
 70
    21
 71
     2
 72
     2
 73
     0
 90
        0
 40
-0.6
 41
-30.0
 62
     5
 63
     7
 74
     1
 91
        4
 64
     7
 65
   257
 75
     1
175
     1
 42
1.0
 92
        9
 66
     7
 43
1.0
 76
     1
 77
     6
 78
     2
 67
     7
 79
     5
170
     0
171
     0
290
     0
174
     0
 93
        1
 44
0.0
173
     0
291
     1
 45
0.0
1001
ACAD
1000
AcDbSavedByObjectVersion
1070
     0
  0
VISUALSTYLE
  5
33
102
{ACAD_XDICTIONARY
360
8AA
102
}
102
{ACAD_REACTORS
330
29
102
}
330
29
100
AcDbVisualStyle
  2
Realistic
 70
     8
 71
     2
 72
     3
 73
     0
 90
        2
 40
-0.6
 41
30.0
 62
     5
 63
     7
 74
     0
 91
        0
 64
     7
 65
   257
 75
     1
175
     1
 42
1.0
 92
        8
 66
   257
 43
1.0
 76
     1
 77
     6
 78
     2
 67
     7
 79
     3
170
     0
171
     0
290
     0
174
     0
 93
       13
 44
0.0
173
     0
291
     0
 45
0.0
1001
ACAD
1000
AcDbSavedByObjectVersion
1070
     0
  0
VISUALSTYLE
  5
3E
102
{ACAD_XDICTIONARY
360
8C0
102
}
102
{ACAD_REACTORS
330
29
102
}
330
29
100
AcDbVisualStyle
  2
Shaded
 70
    27
 71
     2
 72
     2
 73
     1
 90
        2
 40
-0.6
 41
30.0
 62
     5
 63
     7
 74
     0
 91
        4
 64
     7
 65
   257
 75
     1
175
     1
 42
1.0
 92
        8
 66
   257
 43
1.0
 76
     1
 77
     6
 78
     2
 67
     8
 79
     3
170
     0
171
     0
290
     0
174
     0
 93
        5
 44
0.0
173
     0
291
     0
 45
0.0
1001
ACAD
1000
AcDbSavedByObjectVersion
1070
     0
  0
VISUALSTYLE
  5
3D
102
{ACAD_XDICTIONARY
360
8BE
102
}
102
{ACAD_REACTORS
330
29
102
}
330
29
100
AcDbVisualStyle
  2
Shaded with edges
 70
    26
 71
     2
 72
     2
 73
     1
 90
        2
 40
-0.6
 41
30.0
 62
     5
 63
     7
 74
     1
 91
       10
 64
     7
 65
   257
 75
     2
175
     1
 42
1.0
 92
        8
 66
   257
 43
1.0
 76
     1
 77
     6
 78
     2
 67
     7
 79
     3
170
     0
171
     0
290
     0
174
     0
 93
        5
 44
0.0
173
     0
291
     0
 45
0.0
1001
ACAD
1000
AcDbSavedByObjectVersion
1070
     0
  0
VISUALSTYLE
  5
3A
102
{ACAD_XDICTIONARY
360
8B8
102
}
102
{ACAD_REACTORS
330
29
102
}
330
29
100
AcDbVisualStyle
  2
Shades of Gray
 70
    23
 71
     2
 72
     2
 73
     3
 90
        0
 40
-0.6
 41
-30.0
 62
     5
 63
     7
 74
     2
 91
        2
 64
     7
 65
     7
 75
     1
175
     1
 42
40.0
 92
        8
 66
     7
 43
1.0
 76
     1
 77
     6
 78
     2
 67
     7
 79
     3
170
     0
171
     0
290
     0
174
     0
 93
        1
 44
0.0
173
     0
291
     0
 45
0.0
1001
ACAD
1000
AcDbSavedByObjectVersion
1070
     0
  0
VISUALSTYLE
  5
3B
102
{ACAD_XDICTIONARY
360
8BA
102
}
102
{ACAD_REACTORS
330
29
102
}
330
29
100
AcDbVisualStyle
  2
Sketchy
 70
    24
 71
     1
 72
     2
 73
     2
 90
        0
 40
-0.6
 41
-30.0
 62
     5
 63
     7
 74
     2
 91
        2
 64
     7
 65
     7
 75
     1
175
     1
 42
40.0
 92
       11
 66
     7
 43
1.0
 76
     1
 77
     6
 78
     2
 67
     7
 79
     6
170
     0
171
     0
290
     0
174
     0
 93
        1
 44
0.0
173
     0
291
     0
 45
0.0
1001
ACAD
1000
AcDbSavedByObjectVersion
1070
     0
  0
VISUALSTYLE
  5
36
102
{ACAD_XDICTIONARY
360
8B0
102
}
102
{ACAD_REACTORS
330
29
102
}
330
29
100
AcDbVisualStyle
  2
Thicken
 70
    13
 71
     2
 72
     2
 73
     0
 90
        0
 40
-0.6
 41
-30.0
 62
     5
 63
     7
 74
     1
 91
        4
 64
     7
 65
   257
 75
     1
175
     1
 42
1.0
 92
       12
 66
     7
 43
1.0
 76
     1
 77
     6
 78
     2
 67
     7
 79
     5
170
     0
171
     0
290
     0
174
     0
 93
        1
 44
0.0
173
     0
291
     1
 45
0.0
1001
ACAD
1000
AcDbSavedByObjectVersion
1070
     0
  0
VISUALSTYLE
  5
30
102
{ACAD_XDICTIONARY
360
8A4
102
}
102
{ACAD_REACTORS
330
29
102
}
330
29
100
AcDbVisualStyle
  2
Wireframe
 70
     5
 71
     0
 72
     2
 73
     0
 90
        0
 40
-0.6
 41
-30.0
 62
     5
 63
     7
 74
     1
 91
        4
 64
     7
 65
   257
 75
     1
175
     1
 42
1.0
 92
        0
 66
   257
 43
1.0
 76
     1
 77
     6
 78
     2
 67
     7
 79
     3
170
     0
171
     0
290
     0
174
     0
 93
        1
 44
0.0
173
     0
291
     0
 45
0.0
1001
ACAD
1000
AcDbSavedByObjectVersion
1070
     0
  0
VISUALSTYLE
  5
3C
102
{ACAD_XDICTIONARY
360
8BC
102
}
102
{ACAD_REACTORS
330
29
102
}
330
29
100
AcDbVisualStyle
  2
X-Ray
 70
    25
 71
     2
 72
     2
 73
     1
 90
        1
 40
0.5
 41
-30.0
 62
     5
 63
     7
 74
     1
 91
        0
 64
     7
 65
   257
 75
     1
175
     1
 42
1.0
 92
        8
 66
     7
 43
1.0
 76
     1
 77
     6
 78
     2
 67
     7
 79
     3
170
     0
171
     0
290
     0
174
     0
 93
       13
 44
0.0
173
     0
291
     0
 45
0.0
1001
ACAD
1000
AcDbSavedByObjectVersion
1070
     0
  0
DICTIONARYVAR
  5
79
102
{ACAD_REACTORS
330
76
102
}
330
76
100
DictionaryVariables
280
     0
  1
1:1
  0
DICTIONARYVAR
  5
78
102
{ACAD_REACTORS
330
76
102
}
330
76
100
DictionaryVariables
280
     0
  1
STANDARD
  0
DICTIONARYVAR
  5
77
102
{ACAD_REACTORS
330
76
102
}
330
76
100
DictionaryVariables
280
     0
  1
STANDARD
  0
DICTIONARYVAR
  5
88D
102
{ACAD_REACTORS
330
76
102
}
330
76
100
DictionaryVariables
280
     0
  1
1
  0
DICTIONARYVAR
  5
88C
102
{ACAD_REACTORS
330
76
102
}
330
76
100
DictionaryVariables
280
     0
  1
1
  0
DICTIONARYVAR
  5
88B
102
{ACAD_REACTORS
330
76
102
}
330
76
100
DictionaryVariables
280
     0
  1
0
  0
DICTIONARYVAR
  5
888
102
{ACAD_REACTORS
330
76
102
}
330
76
100
DictionaryVariables
280
     0
  1
0
  0
DICTIONARYVAR
  5
889
102
{ACAD_REACTORS
330
76
102
}
330
76
100
DictionaryVariables
280
     0
  1
0
  0
DICTIONARYVAR
  5
887
102
{ACAD_REACTORS
330
76
102
}
330
76
100
DictionaryVariables
280
     0
  1
2
  0
DICTIONARYVAR
  5
886
102
{ACAD_REACTORS
330
76
102
}
330
76
100
DictionaryVariables
280
     0
  1
1
  0
DICTIONARYVAR
  5
88A
102
{ACAD_REACTORS
330
76
102
}
330
76
100
DictionaryVariables
280
     0
  1
127
  0
DICTIONARYVAR
  5
88E
102
{ACAD_REACTORS
330
76
102
}
330
76
100
DictionaryVariables
280
     0
  1
2
  0
DICTIONARY
  5
8CA
330
6B
100
AcDbDictionary
280
     1
281
     1
  3
ACAD_XREC_ROUNDTRIP
360
8CB
  0
DICTIONARY
  5
8CE
330
73
100
AcDbDictionary
280
     1
281
     1
  3
ACAD_XREC_ROUNDTRIP
360
8CF
  0
DICTIONARY
  5
8CC
330
6F
100
AcDbDictionary
280
     1
281
     1
  3
ACAD_XREC_ROUNDTRIP
360
8CD
  0
DICTIONARY
  5
1A
330
19
100
AcDbDictionary
280
     1
281
     1
  3
ACAD_XREC_ROUNDTRIP
360
896
  3
BUMPTILE
360
1C
  3
DIFFUSETILE
360
1B
  3
OPACITYTILE
360
1F
  3
REFLECTIONTILE
360
1E
  3
REFRACTIONTILE
360
20
  3
SPECULARTILE
360
1D
  0
DICTIONARY
  5
12
330
11
100
AcDbDictionary
280
     1
281
     1
  3
ACAD_XREC_ROUNDTRIP
360
895
  3
BUMPTILE
360
14
  3
DIFFUSETILE
360
13
  3
FBXASSET
360
10B
  3
OPACITYTILE
360
17
  3
REFLECTIONTILE
360
16
  3
REFRACTIONTILE
360
18
  3
SPECULARTILE
360
15
  0
DICTIONARY
  5
22
330
21
100
AcDbDictionary
280
     1
281
     1
  3
ACAD_XREC_ROUNDTRIP
360
897
  3
BUMPTILE
360
24
  3
DIFFUSETILE
360
23
  3
FBXASSET
360
BA
  3
OPACITYTILE
360
27
  3
REFLECTIONTILE
360
26
  3
REFRACTIONTILE
360
28
  3
SPECULARTILE
360
25
  0
DICTIONARY
  5
891
330
67
100
AcDbDictionary
280
     1
281
     1
  3
ACAD_XREC_ROUNDTRIP
360
892
  0
DICTIONARY
  5
88F
330
65
100
AcDbDictionary
280
     1
281
     1
  3
ACAD_ROUNDTRIP_2008_TABLESTYLE_CELLSTYLEMAP
360
890
  3
ACAD_XREC_ROUNDTRIP
360
8C8
  0
DICTIONARY
  5
8A2
330
2F
100
AcDbDictionary
280
     1
281
     1
  3
ACAD_XREC_ROUNDTRIP
360
8A3
  0
DICTIONARY
  5
8A0
330
2E
100
AcDbDictionary
280
     1
281
     1
  3
ACAD_XREC_ROUNDTRIP
360
8A1
  0
DICTIONARY
  5
8AE
330
35
100
AcDbDictionary
280
     1
281
     1
  3
ACAD_XREC_ROUNDTRIP
360
8AF
  0
DICTIONARY
  5
8B6
330
39
100
AcDbDictionary
280
     1
281
     1
  3
ACAD_XREC_ROUNDTRIP
360
8B7
  0
DICTIONARY
  5
8A8
330
32
100
AcDbDictionary
280
     1
281
     1
  3
ACAD_XREC_ROUNDTRIP
360
8A9
  0
DICTIONARY
  5
8AC
330
34
100
AcDbDictionary
280
     1
281
     1
  3
ACAD_XREC_ROUNDTRIP
360
8AD
  0
DICTIONARY
  5
8C6
330
41
100
AcDbDictionary
280
     1
281
     1
  3
ACAD_XREC_ROUNDTRIP
360
8C7
  0
DICTIONARY
  5
8B4
330
38
100
AcDbDictionary
280
     1
281
     1
  3
ACAD_XREC_ROUNDTRIP
360
8B5
  0
DICTIONARY
  5
898
330
2A
100
AcDbDictionary
280
     1
281
     1
  3
ACAD_XREC_ROUNDTRIP
360
899
  0
DICTIONARY
  5
89A
330
2B
100
AcDbDictionary
280
     1
281
     1
  3
ACAD_XREC_ROUNDTRIP
360
89B
  0
DICTIONARY
  5
89C
330
2C
100
AcDbDictionary
280
     1
281
     1
  3
ACAD_XREC_ROUNDTRIP
360
89D
  0
DICTIONARY
  5
89E
330
2D
100
AcDbDictionary
280
     1
281
     1
  3
ACAD_XREC_ROUNDTRIP
360
89F
  0
DICTIONARY
  5
8A6
330
31
100
AcDbDictionary
280
     1
281
     1
  3
ACAD_XREC_ROUNDTRIP
360
8A7
  0
DICTIONARY
  5
8C2
330
3F
100
AcDbDictionary
280
     1
281
     1
  3
ACAD_XREC_ROUNDTRIP
360
8C3
  0
DICTIONARY
  5
8B2
330
37
100
AcDbDictionary
280
     1
281
     1
  3
ACAD_XREC_ROUNDTRIP
360
8B3
  0
DICTIONARY
  5
8C4
330
40
100
AcDbDictionary
280
     1
281
     1
  3
ACAD_XREC_ROUNDTRIP
360
8C5
  0
DICTIONARY
  5
8AA
330
33
100
AcDbDictionary
280
     1
281
     1
  3
ACAD_XREC_ROUNDTRIP
360
8AB
  0
DICTIONARY
  5
8C0
330
3E
100
AcDbDictionary
280
     1
281
     1
  3
ACAD_XREC_ROUNDTRIP
360
8C1
  0
DICTIONARY
  5
8BE
330
3D
100
AcDbDictionary
280
     1
281
     1
  3
ACAD_XREC_ROUNDTRIP
360
8BF
  0
DICTIONARY
  5
8B8
330
3A
100
AcDbDictionary
280
     1
281
     1
  3
ACAD_XREC_ROUNDTRIP
360
8B9
  0
DICTIONARY
  5
8BA
330
3B
100
AcDbDictionary
280
     1
281
     1
  3
ACAD_XREC_ROUNDTRIP
360
8BB
  0
DICTIONARY
  5
8B0
330
36
100
AcDbDictionary
280
     1
281
     1
  3
ACAD_XREC_ROUNDTRIP
360
8B1
  0
DICTIONARY
  5
8A4
330
30
100
AcDbDictionary
280
     1
281
     1
  3
ACAD_XREC_ROUNDTRIP
360
8A5
  0
DICTIONARY
  5
8BC
330
3C
100
AcDbDictionary
280
     1
281
     1
  3
ACAD_XREC_ROUNDTRIP
360
8BD
  0
XRECORD
  5
8CB
102
{ACAD_REACTORS
330
8CA
102
}
330
8CA
100
AcDbXrecord
280
     1
102
SHADEPLOT
 70
     0
102
SHADEPLOTRESLEVEL
 70
     2
102
SHADEPLOTCUSTOMDPI
 70
   300
  0
XRECORD
  5
8CF
102
{ACAD_REACTORS
330
8CE
102
}
330
8CE
100
AcDbXrecord
280
     1
102
SHADEPLOT
 70
     0
102
SHADEPLOTRESLEVEL
 70
     2
102
SHADEPLOTCUSTOMDPI
 70
   300
  0
XRECORD
  5
8CD
102
{ACAD_REACTORS
330
8CC
102
}
330
8CC
100
AcDbXrecord
280
     1
102
SHADEPLOT
 70
     0
102
SHADEPLOTRESLEVEL
 70
     2
102
SHADEPLOTCUSTOMDPI
 70
   300
  0
XRECORD
  5
896
102
{ACAD_REACTORS
330
1A
102
}
330
1A
100
AcDbXrecord
280
     1
102
MATERIAL
148
0.0
149
0.0
149
0.0
 93
        0
 94
      127
282
     0
 72
     0
 77
     0
171
     0
175
     0
179
     0
273
     0
  0
XRECORD
  5
1C
102
{ACAD_REACTORS
330
1A
102
}
330
1A
100
AcDbXrecord
280
     1
270
     1
271
     1
  0
XRECORD
  5
1B
102
{ACAD_REACTORS
330
1A
102
}
330
1A
100
AcDbXrecord
280
     1
270
     1
271
     1
  0
XRECORD
  5
1F
102
{ACAD_REACTORS
330
1A
102
}
330
1A
100
AcDbXrecord
280
     1
270
     1
271
     1
  0
XRECORD
  5
1E
102
{ACAD_REACTORS
330
1A
102
}
330
1A
100
AcDbXrecord
280
     1
270
     1
271
     1
  0
XRECORD
  5
20
102
{ACAD_REACTORS
330
1A
102
}
330
1A
100
AcDbXrecord
280
     1
270
     1
271
     1
  0
XRECORD
  5
1D
102
{ACAD_REACTORS
330
1A
102
}
330
1A
100
AcDbXrecord
280
     1
270
     1
271
     1
  0
XRECORD
  5
895
102
{ACAD_REACTORS
330
12
102
}
330
12
100
AcDbXrecord
280
     1
102
MATERIAL
148
0.0
149
0.0
149
0.0
 93
        0
 94
      127
282
     0
 72
     0
 77
     0
171
     0
175
     0
179
     0
273
     0
  0
XRECORD
  5
14
102
{ACAD_REACTORS
330
12
102
}
330
12
100
AcDbXrecord
280
     1
270
     1
271
     1
  0
XRECORD
  5
13
102
{ACAD_REACTORS
330
12
102
}
330
12
100
AcDbXrecord
280
     1
270
     1
271
     1
  0
XRECORD
  5
10B
102
{ACAD_REACTORS
330
12
102
}
330
12
100
AcDbXrecord
280
     1
 70
     1
 90
1959938040
 71
     1
  1
016F9B85-12A5-49EE-911D-8C8F26771E8F
311
504B03040A00000800001C6B38403DEE336E79000000790000001B0000006175746F6465736B2D64657369676E2D7061636B6167652E786D6C3C3F786D6C2076657273696F6E3D22312E302220656E636F64696E673D227574662D3822203F3E3C666F726D6174733E3C666F726D61743E687474703A2F2F736368656D612E
311
6175746F6465736B2E636F6D2F64657369676E2D7061636B6167652F323030393C2F666F726D61743E3C2F666F726D6174733E504B03041400060808001C6B3840D486FD9CA0000000F4000000130000005B436F6E74656E745F54797065735D2E786D6C7D8EC10E82300C865F65E91D8A1E8C310C0EEA1BF002731658846E
311
D98AC1B77784ABF1D8FE5FBFBF75BBCE937A534CCEB38643598122B6FEE978D0B0485F9C41B54DDD7D022595594E1A469170414C76A4D9A4D207E29CF43ECE46F218070CC6BECC4078ACAA135ACF422C856C0E68EA1BF5669944DDD7BCDE7B1F8E415D77AECB980613C2E4AC91FC167A2B244592486606FC29C8FD7F045B9A
311
EF7053A7E60B504B03041400060808001C6B38406DAA2F7DE90000007C01000008000000636F72652E786D6C8D90D18E832010457F85F08E0262B50669ECDA3FD81F20402D690523B0D9CF5F6C6DB2FBB64F33B973CFCCE4F2D3F7FC005F660DD6BB1E920243609CF2DABAA987295E510BC149F0D5FBF8CB068193B3E9E126
311
43C1A7D5A765979477D1B89855E7B5D94519828910A8476E7A18D4CDCCB290296647B8178B5477399982BCBB0CA76435781DB13AEFB3576B5628E8A5692E673C203C543562941DD099B11AB5E3888F1F437DACC796971B2C78B4F3FBBE5A8D8C46671E138A3041947D92AAA3ACAB1B840F1DC6BCDCEC7FA0B4E87F42C9BA58
311
D1FDDD1716A020F991E740F072CB22976750B96EB9891F504B03041400060808001C6B384055019EA25F0000007C00000007000000636E782E786D6C4DCB3B0E80201045D1AD90E915ED2CF8AC45050C11660C8261F98AB1B07AC9C97D42D718D865D3E909258CFD00CCE24AC6E326A164D74DC0B4128928FF326038472BA1
311
3128B1252AC747C6BAB984FC68F0B87FE8960A5C09FE86CFB69FBA01504B03041400060808001C6B384050D5AAE365010000020300000C0000006662782F636F72652E786D6C8D52ED8E8320107C15C27F04ADF62B48D35EFB06F70254A947AA60104C1FFFD68FA6D74BD33426486676766747F9EED6D4A857AED3D6E4388E
311
1846CA14B6D4A6CA71F017B2C66827B8B3D6FF29C3C8C846E57880B1E095B3A19DA1C21AAF8C07D4D852CDA0EC3AE5312A6AB8E4B82B7E542323193C5474D7A895C555562A8A23A0A14EF0CE3B3080A621C389C5E57CE374C2050F419733AB4B98A62F5A392C92D36A753AB03D61FB4546D2245D92439A66647D3CB2CDD73E
311
DB64C735A7835870AF9BBBBBC229E955097A162784C52449BFE3C53649B7D98AB0E596314E87F2275168CB0F45411BBF4866BB93ACC322062323F16F5B88C8A34EF6E0870A4E8710E13526FC1C340402217B79AEEF7B5C01EA55E1AD4B81296D7850BDAC8382A90C8D0FA7130B9DC706B0D9CB3EC99B3EEF7BC00794A6026B
311
D2C3F51CFC309D4F53E7285AE548EF6FC858D7C8FA616EB2F8381F835ECA0B5B5BF7899ACEABD2394C3AFCBDE217504B03041400060808001C6B38403EC5FC257D0000009D0000000B0000006662782F636E782E786D6C4DCCDD0A83201C05F05791FFBD65E542418D3ED87BC4B290990EA7B1C79F8D2E7675E0770E47749F
311
DDA24387B7F14E42551040DA3DFC62DC2621C51533409D12C1FBF83703E4E65D4B381994D8824FAF8B16BDCEC9C6ACD6B8E7853D1F593DDE5ACC3969306513C18CDE2B3CF4ED303584E68E40A944F97BCA791EAB2F504B03041400060808001C6B3840F20697B52A01000013020000310000006662782F4139433832433536
311
2D393930332D343844302D383446312D4241364244333034324335302F636F72652E786D6C8D51CB6EC32010FC158B537AC0061B3B4E8489F250BFA03F400C495062B07854F9FCAE6B476A6FB9B06876667660F9EE393CB26FED8371B643342728D3B677CAD86B8752BCE016653BC1BD73F10F0D65560EBA43138C04BF7A97
311
C605EA9D8DDA4640AD537A0165083AA2AC7FC0A543A1BFE941E6324560847B3ECAFE2EAF3AA739B4812778881E0264F390E94462BF39B6E5B16EF066432ACCDA13C12DFBA4F8B06F0EA78A30E8115ECC42C153326A911B0571CCC568FFAEC924163C9AE115BFF75A46AD9028092D31A1B8645FB4DA966C5BAF3169B604264F
311
F47FA234AA3745C9D858954BDC591690A0BC981B822B97CE8F5718FD1C9D8FD9346F1574FF8104C94955B7F5BAE2C5CC84F78365C316CB109D87FF5DDDCF40A6F5ECDB30C18B6945507EF707755AA7F801504B03041400060808001C6B3840CB11D70C4D01000033030000300000006662782F41394338324335362D393930
311
332D343844302D383446312D4241364244333034324335302F636E782E786D6CD593BD6E032110845F05D1DFAF2F4E6471584A912748919683B54DCCC1899F287EFB2C3676DCB84899069D668799D5278E6DBF6743BEC007EDEC48BBBAA504AC744ADBFD4853DC552F946C39F3CEC53B1B2556CC30D22C53CEF6DEA5A5480A
311
76229988AAD1F658440FC1252F21A09C6F12E3A4301800B64A28C23C8152A0C8CD885F3BF0B80A8AD389C40390B7D70FE2A64F9031B026A770D6E40ECEF2599AEE4C944823421869900798452D52740AC2B156228ABAABAF5D0F76FA4D22F9C2B532794D72F948F34979D9A8468EACC12167217AA4574CF1B400E562598C96
311
2222E4E66CBC78384BDAC6F550BC1AC17B7477EBD53060D879C659D4331487F4202228CAFBB6EBABB6ABFAE1BD5B6DFA61F3F45CB5EB4DDBB226DB399B9C33E512C680770B91CE46B091F28E3579FC085FF111A53DB276FEF4079008A0B45EE8DC32FE339FE6FCBE1197C7BF80FF00504B03041400060808001C6B38409E13
311
CE5C9C0500007B100000340000006662782F41394338324335362D393930332D343844302D383446312D4241364244333034324335302F6F626A656374732E786D6CAD575D8F9B3814FD2B887D868424334D560CD54C32A9A2DD69AB46ADF661A4C88061BC633E649B69667FFD1E83219026D3ECAA2F808D7D7DEFB9E77ED8
311
7FBFCFB8F5428564457E637BEED8B6681E1531CBD31BBB528933B7ADF7812F8A42F596D9564E327A63EB693BF0535154A5998A69422AAE8E66D7777F5932A239B5AD8813296F6C193DD18CB8A452454CE5B31B1345DC34D9BB9EDB2C1C8A4D05299F8E849644D05C4153CCE79062354A79C3E1D81E05FE48FF0F7CFD34ABA6
311
E7578D6A7B86E7B35C2A92473F1C762466EACD56F793AB8573359B4D9DD9F5C473EED6772BC77B371D2FAF97CBC5EDFD02074B2520C968226862071F808D60913F6A7E057EC572359D9825C64123415F98F6941D4C2CCF1F356B3AEB8C91A7D48F8A3CA7518D15D0A8ED33A2635AD23C86CF1995D0AC87D07838F4348EBDDF
311
533D3647F6A72F43A0BFA327A8D5BD7DF7352DC2BF6182BC84414252CDC0064B6368C3D5F101E1B028B8F9C7A49511450523DCE22C1444BCDA0196EA25813F10A3992C7434680BEC005E687E0FE98230FA39CF4F6999549C6B1ADB411D053BC40A55B2D68CFD43C541FB3E32D009BED26C981B83D46B49ED60D150647EC4A6
311
06482BE12485CB61A6DE399D1C19BAD471BA59D9C11FEB70BFD5B17BFAF0521425154AD307D46A1DD7BE354A4627EF22CFE90DF6912A0750BE00F98F08F5832AF09B60FBD97E664E5182E432294406DF5863CB19E331B6BCFAA9BF7B5FFEA8DB3CF4DE393CE16C0DD52FC0736843DF973D3803FF05842FC4D498B68D0847DA
311
78603900D224B1788129E4E124DCDBC106590E5919BB080F3C980C755FF0E98F8C18248AFAA4DE3B07964769F182040DD86A46428D86FC46C1839F7E4867F5C166D93978AF7E095D6F57DB3FB6954848441F4C4CAF68C272A650E20EBCE92B34C07C60D1337DFD5E881886FE88F7B68F77668E92405B63AE814FDB9CAE0787
311
93070744D897163ADDF83F390146E8C2DA93FFC064443927392DAAF6DC37EB07CA4603B10E76CDE4AEC01C0A0B48D3FC398A4114E948B05283D855AB2E69BA67ACFBBAF90846DAC1DDEB9FE4B59FBDC243EE8D0A5E885DF8BA6BD2D249A8BF0DB96D30186929A07B1D246DFC1BD077314B924A22099EC0F5DB66D9F79D4E0B
311
4811ADD4265A66B01FC14584216D2B17D55A1054D222DF31D44DC4DDC903FAF201A961402DF09CC692F264C738AFB25DC238AAD12E23E51938FEBFFE6195953B921555AECEC81EA88EEA30D47DC05EF99DA8E8C90EB6F5DBB943EE8D697C860CBA969CC06AE0DAB177BD5EDCCDAF1C6F727BE5CC16F7F7CEC2F356CE7C395F
311
4FAEDFBDF3EEE7EBD64F8D2681DF969A7E44C34B286D7E259871DFD70DE2C724013B78204A3E7E68C2B37D7FDDB8E885FD11F6A05E761B6FE317F47D34FEB980C3CA93823659C969467345740C3DE80FFE85A0CF1828D3CC6F3292D20BA47CFAB03D32063317ECFBACE39D7E3FDA6B66973A204F0A514F5516E684F1A38D69
311
83A45BE6A9C1AFF549F76E0A4D3BD423E31874A6B2E02C461E8CAD94161955C886171421915109EAF57BFAD8DC3D2ED8FDD274888A849CB69A3C1134C95C222C40AD2A52C379EB373475BAAFBAB1516EDD673C4CA6B02D70E6C64693AE5844A51BA240EB56A8160E2EF53B7934FE244F397AED665337EE76696C0625B95B72
311
49FF64EC6A52B8310069A444DF808608DEA99509FC5A37F33FFA4F86B7EA5844E133AC5467CB61A233A63E0621DA18656E0B68629ECDD17B04EADB66796EBD6680C845B7AC3749D048751411697D53D0FA19956E579F47E850ACCD27ABE4550A5F5E2EC9111464AE74808345608591591205AA2E7F7FFC2C0ADC64336BCD40
311
81C7659165456E06B7E6266C6D9F70AF8D1F9116A8BE90C8C7C9D89B3CD617017337D985445297C4F21913F0A9601DC403C78391CD6D1115A8F9D1AD1B69271C7173B3B24C499B41A8214A3FAB6A58D072E4D442F4E8CBA48E95FE82F2CDBBC0A85E0A1504BAF8E05F504B03041400060800001C6B38400000000000000000
311
00000000350000006662782F41394338324335362D393930332D343844302D383446312D4241364244333034324335302F76657274696365732E62696E504B03041400060808001C6B3840F270F1330600000004000000360000006662782F41394338324335362D393930332D343844302D383446312D4241364244333034
311
324335302F747269616E676C65732E62696E636660600000504B03041400060800001C6B3840000000000000000000000000370000006662782F41394338324335362D393930332D343844302D383446312D4241364244333034324335302F617474726962757465732E62696E504B03041400060808001C6B3840D5987DFC
311
8F00000041010000360000006662782F41394338324335362D393930332D343844302D383446312D4241364244333034324335302F6469726563746F72792E786D6C858F410EC2201045AF4266AF15DDB800BA74E7C21B903225242D6328188F2FA5C4183471359997F9FF81E89FF3C41E1816475E02DF1F80A11FC8386F25
311
A438EECEC07A250251FC3803E6F58C12560C4AD840E95E91C151A72936F496F35732D860FE635F62C8F2DA16B505C545B74125BAA2FA9E05D7CC053D063734D5C7665FD55B6B8D15D5E9BFEAFD8490FFA45E504B03041400060808001C6B3840D0634CBCFC000000A00100003B0000006662782F41394338324335362D3939
311
30332D343844302D383446312D4241364244333034324335302F7265736F75726365732F636F72652E786D6C8D50596EC32010BD0AE21F1B6FF1224C94D4B9412F80F0C44589C162A97AFC42EC4AED5F7F66466FD13C3D76FE5A9FE813AC53468FB8C82846A0A599955E461CFC9D74189D39B3C6F85F328CB45861C409C69C
311
2DD684ED80A4D11EB48FA836331CA0700E3C46F2198F113BF901ABC844F051E11ED926E4432C901559A4A38E33E76D0C80F62769626EC19960253896EF2C6721A8F9D0A839FE54770516F3F2D6B6B72BED09BD540DA9CBFA44AE75DD906E9A68FF7669FA66EA589ECC9C79B5FE649416848739FA6951125A90B27E2FAAA1AC
311
87A625F43450CAF224FF630ADBFC4F5350DA57E51177B739CC8B18E4457096A7BEE27A951977EA967F03504B010214000A00000800001C6B38403DEE336E79000000790000001B00000000000000000000000000000000006175746F6465736B2D64657369676E2D7061636B6167652E786D6C504B01021400140006080800
311
1C6B3840D486FD9CA0000000F40000001300000000000000000000000000B20000005B436F6E74656E745F54797065735D2E786D6C504B010214001400060808001C6B38406DAA2F7DE90000007C010000080000000000000000000000000083010000636F72652E786D6C504B010214001400060808001C6B384055019EA2
311
5F0000007C000000070000000000000000000000000092020000636E782E786D6C504B010214001400060808001C6B384050D5AAE365010000020300000C00000000000000000000000000160300006662782F636F72652E786D6C504B010214001400060808001C6B38403EC5FC257D0000009D0000000B00000000000000
311
000000000000A50400006662782F636E782E786D6C504B010214001400060808001C6B3840F20697B52A0100001302000031000000000000000000000000004B0500006662782F41394338324335362D393930332D343844302D383446312D4241364244333034324335302F636F72652E786D6C504B010214001400060808
311
001C6B3840CB11D70C4D010000330300003000000000000000000000000000C40600006662782F41394338324335362D393930332D343844302D383446312D4241364244333034324335302F636E782E786D6C504B010214001400060808001C6B38409E13CE5C9C0500007B10000034000000000000000000000000005F08
311
00006662782F41394338324335362D393930332D343844302D383446312D4241364244333034324335302F6F626A656374732E786D6C504B010214001400060800001C6B384000000000000000000000000035000000000000000000000000004D0E00006662782F41394338324335362D393930332D343844302D38344631
311
2D4241364244333034324335302F76657274696365732E62696E504B010214001400060808001C6B3840F270F13306000000040000003600000000000000000000000000A00E00006662782F41394338324335362D393930332D343844302D383446312D4241364244333034324335302F747269616E676C65732E62696E50
311
4B010214001400060800001C6B38400000000000000000000000003700000000000000000000000000FA0E00006662782F41394338324335362D393930332D343844302D383446312D4241364244333034324335302F617474726962757465732E62696E504B010214001400060808001C6B3840D5987DFC8F000000410100
311
0036000000000000000000000000004F0F00006662782F41394338324335362D393930332D343844302D383446312D4241364244333034324335302F6469726563746F72792E786D6C504B010214001400060808001C6B3840D0634CBCFC000000A00100003B00000000000000000000000000321000006662782F41394338
311
324335362D393930332D343844302D383446312D4241364244333034324335302F7265736F75726365732F636F72652E786D6C504B0506000000000E000E0080040000871100000000
310
504B03040A00000800001C6B38403DEE336E79000000790000001B0000006175746F6465736B2D64657369676E2D7061636B6167652E786D6C3C3F786D6C2076657273696F6E3D22312E302220656E636F64696E673D227574662D3822203F3E3C666F726D6174733E3C666F726D61743E687474703A2F2F736368656D612E
310
6175746F6465736B2E636F6D2F64657369676E2D7061636B6167652F323030393C2F666F726D61743E3C2F666F726D6174733E504B03041400060808001C6B3840D486FD9CA0000000F4000000130000005B436F6E74656E745F54797065735D2E786D6C7D8EC10E82300C865F65E91D8A1E8C310C0EEA1BF002731658846E
310
D98AC1B77784ABF1D8FE5FBFBF75BBCE937A534CCEB38643598122B6FEE978D0B0485F9C41B54DDD7D022595594E1A469170414C76A4D9A4D207E29CF43ECE46F218070CC6BECC4078ACAA135ACF422C856C0E68EA1BF5669944DDD7BCDE7B1F8E415D77AECB980613C2E4AC91FC167A2B244592486606FC29C8FD7F045B9A
310
EF7053A7E60B504B03041400060808001C6B3840F5B2EB60EA0000007C01000008000000636F72652E786D6C8D904D6EC3201085AF82668FC38FE3B816264A63F504BD0002E2A0C46019A87AFCE2C491DA5D57337AF3BE99D113C7EFE98EBEEC125DF03DD08A00B25E07E3FCD8434E17DC023A4AB184907ED9007935D91E56
310
19A4189790E74DD2C127EB53517D307613558C3601D2F7D2F410F5D54EAA52391547BC55B3D23735DA8ABEBA02E7EC0C7A1E71A6EC731767179084D3C3FE3434980FB4C575DBBCE376686A7C66A7F330D46FFC8312B15B6129929B5EF7F56255B206242394614231AB3F29EF58DDED0F98341D29D06AFF03E5D9FC13CACE27
310
CEB6779F580449CB238F8114BB358B521E4195BAE6267F00504B03041400060808001C6B384055019EA25F0000007C00000007000000636E782E786D6C4DCB3B0E80201045D1AD90E915ED2CF8AC45050C11660C8261F98AB1B07AC9C97D42D718D865D3E909258CFD00CCE24AC6E326A164D74DC0B4128928FF326038472B
310
A13128B1252AC747C6BAB984FC68F0B87FE8960A5C09FE86CFB69FBA01504B03041400060808001C6B3840F665BB8466010000020300000C0000006662782F636F72652E786D6C8D52ED8E8320107C15C27F54D4DA5E8334BD9A7B827B018AD433553008A68F7FEB47E3F5D2348D0992999DDDD95176B8B50D1A94ED6BA373
310
4C830823A5A5296B5DE5D8BB0BD96174E0CC1AE3FE9461A445AB723CC298B3CA1ADF2D9034DA29ED00D5A6540B28FA5E398C6403971CF7F247B52210DE41457F0D3A21AFA252010D80863ACE7A67C1009A878C27E697F38D8533CE99F775B9B07509D3EA4BAD2CE65142B79B639191A4A03B92EEB24FB22BB2949CE2E3A928
310
D28FE48B462C1CC59CB9BABDBB935609A74ACCE388C624A2244EBF69B28FD3FD664BA26C1F81682C7F10F9AE7C53E46BED9278B13BCB7ACC291899887FDB42440EF562003F2167E11822BCA6841F838640206427CECD7D8F2B408392CED81498D2F8951A44E3154C8DD0F4B07066A1F3D400367BDA277ED1E7750FF8804257
310
604D38B89EBD1BA7B379EA1245A72C19DC0D69635BD1ACE6668BEBB90E7A2A97A631F61D75B8AC1A2E6186E3DFCB7F01504B03041400060808001C6B38401AC5DD5E7E0000009D0000000B0000006662782F636E782E786D6C4DCCD10A83201886E15B91FFDC95A32C410DCB791FB12C64A6C3E5D8E5AF46073BFAE0E1E3E5
310
DD67F5E86DD3CBC520805C4A4036DCE3E4C222206F336E017592A718B7BF1BA030AE56C0C120F992627E9E34D979CC7EDBD5BBF0389136DA9086694CAFAAC615330CABB6D7B854553FD09BA9C960A090BCF895F63DC2F20B504B03041400060808001C6B38404C6151482D01000014020000310000006662782F3637444631
310
3739442D363241352D343946392D413842442D3041344243364546353143462F636F72652E786D6C8D51CB6EC32010FC15C4293D600376EC24C24479D45FD01F706D92A2C460F1A8F2F95D6A476A6FB9B068766676B42BF68FF18EBE95F3DA9A06B38C62A44C6F076DAE0D8EE1423618EDA570D6863F348C4C37AA0627184B
310
7175364E0BD45B139409801A3BA805ECBC5701A3FE0E9F06FBFE4B8D5DD6C5000C7FCBA6AEBF755795B10CDAC093C2070701D03C24BD5856F5B965F5F64C2A7E589372DB6EC961733C137A288FA7EABD5DB3532BF25928458C7A58E47A8038FAA2957BD52489A5087A7CC6EF9DEA821AB0E494714219E1E5072B76BCDCAD6B
310
42AB1DA5224FF47FA2380D2F8AA236A1E04BDC59E6B164229F1B520C367EDE9F61D463B22EA0346FE555FF8625CD6851D3BAE02099A9B000F0ACCAC5D307EB60C1ABDB27B00B6025E3AA94224F3782F27B40A8E99EF207504B03041400060808001C6B3840ADB6181B5401000033030000300000006662782F363744463137
310
39442D363241352D343946392D413842442D3041344243364546353143462F636E782E786D6CBD93CD6EC32010845F0571F76F5C378A30917AE813F4D02B864D4283C1025C356FDF2521692E3954AA7A41D6EC30B3FA84D9F66B32E4137CD0CE0EB4296B4AC04AA7B4DD0F7489BB624DC99633EF5CBCB35162C504034D32E5
310
6CEFDD326749C14E2C26A26AB43D66D143708B9710504E37897152180C005B2C28C2348252A0C8CD885F3BF0B80A8AE389C40390D79777E2C60F9031B02AA57056A50ECED2999BEE4C944823421868900798442996E8148463A9441465535EBB1EECF49344D2856BE5E23549E5034D27E579A31239B20A879C85E8915E36C5
310
D30C948B79365A8A8890ABB3F1E2E16CD136F65DF66A04EFD1BD6AFBF51AC3CE33CEA29E203BA407114151DED64D5BD44DD1766FCD6AD3769BA7E7A2EE3775CDAA64E76C74CEE44B1803DECD443A1BC146CA1B56A5F1237CD94794F6C8DAF9D32F402280DC7AA173CBF84B3E4DBFEABA7FE4539DDF37E2F2F817F06F504B03
310
041400060808001C6B3840192C3F6A5B070000941B0000340000006662782F36374446313739442D363241352D343946392D413842442D3041344243364546353143462F6F626A656374732E786D6CED595B739B3814FE2B0CFB6C6C6C274D76089DC4B98CA79BB6536F3BFB9019460699682304238924DE5FBF4717301093
310
E06DF6AD0F3620A4A373BE73D521F8F89C51E71173417276E6FADEC475308BF384B0F4CC2DE56674E23A1FC380E7B96C4C731D86327CE6AA61370C529E97851D4AF00695547646AF2FFE72448C19769D982221CE5C11DFE30C79A8947982C583972089BC74F3ECF99E99D8269B7254DC7788168863268153186740C5314CF9
310
EDC7893B0E83B17A1F06EADFCE9A0D9A35EF9F35D652B7B9244C48C4E2172C75C8CC06B134F3E79757D3A3D3D1D17C3E1BCD8FA7FEE8E2FAE272E47F984D16C78BC5E9F9D529B0B7CE736A654A70815902FADBBAA11F8CD59B5A748BC03EAEE39C311C6B20012A2D569720C102B66AC037693FFA4AA2C66B2D61E379AEDE5B
310
161AC3B33695BE59C38068D10541EC7695C4D5B5295FBEFE1B0417438C920B2C815B213968D7C2C3C12BDC70128CCD6818AC77BA20C2C990C49C20EA50B2E688835260AA9A1206668125A39C8303294749A035675EB76D0B3CF36DD7D9C7E5A6A45479861B6AC78AC0FDB0149A33F20FE63BEE9BC8004F206D49983CB15CCA
310
6D81DDF03418EBC1305097D9D4BE34403A1B8A52A111316F3B822E94EB2F2FDDF0D3F5FA79A5C2C1FECD0B9E17984B65744A8F9A2F30647B5528D96DFD419A530B401803AA5DB903E51B20FF19A2C78E15D01B27CFF3E7B99D2B39626293F30C74E34C9CD104FE268EAFFFD57DE32E18D78BDBDAEBC313DC544175F2F378B6
310
65D05859FE1B7086C123187CCE67F6D52A4614ECF996300048198943731882D0BE593FBBE1120227047A588568E883C8C0EE23DC06634B66A795CABDACD73140D4EE311BA224804D5B24B0D1A3A71BC81E9CC43B353545EC83F7E85DCCF5FC72F56955F20D8AF1ADF5E94BBC218C48C89AFB196A61DE92E8016F9F729E80A0
310
2FF15E35F1CEEC5602D056982BE0D30A04F5B0DBB9B5410CEBD25C859BE08D1D400895AB1BF46F898831A588E1BCACF6ADA39B32D4DAE36DCDE0865303F16CDA31618E1F89AA2AC06976335A8C42DE8F392914886E786324AB83A6D723DDF7E567B0C87A7ECFAC2583D0CB10FD5307AD3D38B42CBB42DA02510BBCDE85F338
310
A7398FD6DBC8443A176A0960A3ED2D3F5A4421D61B25292AE041DAEFAA90921A69A3846C36A580B8BA87C51FCB45D31C26DECC3F729AFF1D679C43B405DF45DCFA5D678F886428C5D106257DDB3577AB690B4DB28734C71B0A72914722B71192D124C1E921D01C44FCF45DA9A7341782302C205FED05BF89C6C4834062B459
310
B1ACB4DA019A8828C312D1431050647AC0D56947D7B831940E6FF3585BEF6B1A6B12FD9F2C8223A82573161128452187BCC9B8EF1D410C69A36B50EEE00BD656D1D662D0124A88781B3D6192DECB435037E47B708FE14852CA282F500C663D80EC0B5F514AEDF0BE46F183CA1F515CD2F7321081E92622949659043FC2E0E4
310
31C4B5EBC0F42A0A0DE226F6499C41518664C9876C727C3479B18FA919BA21B0B1D1865008DB51868A1ED45B0151D7234E0DBEA5DEA3D475991511CAF2920D32146FD6F5264BBEAB56457620BFAA5484B2B1226C09860161B2CEAA55CC0653D78115DC4807AA6D24505650730A7B23F1F8B53769CABD1B70EBA7EFBB410685
310
5F8FF69A11755EC160796C1506E209C9F8DE0D57FA3ABA80FA3BC1C92ED557B566B30204C454242F39B12AFABE84F2C6D6686E788BA4B8BB3159B7BA7E5F7AD0FD08C6B0066A977AE152019D612691AA4C6ED50DFD862004B76898F1A5CAA98750394F125D35227A4DFAD4D92A235A9B66C42BEE31CB33F8B13BC2625A26F8
310
0E25E221BA95345A11C5BA95D2CB4885F1AB027EB95975E0819101227D55051E7EEAACB5A30B552EED2522EFCB6CCD108120D8122D35BAF10A965A8D545AAEAFEA4C017517189855F1FCD7C9A2D98EF875B248AD61FCD4C9E262FB07DA36FB228D741E2BBB3EE81850E72745E53D8E01BAED5053ADB38849E6567EEB4C1104
310
C52ACA0FAEC6AAA06108F671FC9FB3765F1634DB75F83F2C6BFB2F2A8E83B24A6BB2EA52EDA95C97CD1C36F18FAF4F2F4E8E46FEF4FC68343FBDBA1A9DFAFEE5E86471723D3DFEF0C1BF3AB9AED1D48E1A067530D3B90B9E4D50AB86D593C500BAB222A72481D37CE2A41862BE8433FD80F639CFB080E4D96C7627B6293F60
310
F5A3E9734AB4A6B8E2E41E4183980A48EB805119CBF6B8F31BB426251CB4CF5C681A790FF067ADD27520F39CB9D02A9024C6C25B439B4935F4347148B93AF75B62800F62A94A896651FD5CAF52D8B4C27F3D65481AB072B57A1850B815D0FD6A7528346F96A7F820C12B761C24E1765D4AA8D68C2CBB815A18BDCD4EFD4636
310
4AD883DDFA195CF775B17C4FCF692132E893C1AB4660A88E24E2A9EE772BC62C4BE7975FC7D06773965F9C829629E87238A511C760CCA52AA8C08AC02A2CCD024930D5C5EF775F790E9F7832475745778B3CCB72661FCEE13C96C0272267750F1F7C923B281BB06AAB8BBBE9C49FDEE976B6EDB0476B24B0A7EA2118A8CA08
310
2542C7D8C0225FB4A66CE372AC94D099BEBC746CF8843680B1A017DD5DF379CB01EF511F5294AF680FAFE47CB5A33DD653C11A38F4A2C37F01504B03041400060800001C6B3840000000000000000000000000350000006662782F36374446313739442D363241352D343946392D413842442D304134424336454635314346
310
2F76657274696365732E62696E504B03041400060808001C6B3840F270F1330600000004000000360000006662782F36374446313739442D363241352D343946392D413842442D3041344243364546353143462F747269616E676C65732E62696E636660600000504B03041400060800001C6B384000000000000000000000
310
0000370000006662782F36374446313739442D363241352D343946392D413842442D3041344243364546353143462F617474726962757465732E62696E504B03041400060808001C6B3840D5987DFC8F00000041010000360000006662782F36374446313739442D363241352D343946392D413842442D3041344243364546
310
353143462F6469726563746F72792E786D6C858F410EC2201045AF4266AF15DDB800BA74E7C21B903225242D6328188F2FA5C4183471359997F9FF81E89FF3C41E1816475E02DF1F80A11FC8386F25A438EECEC07A250251FC3803E6F58C12560C4AD840E95E91C151A72936F496F35732D860FE635F62C8F2DA16B505C545
310
B74125BAA2FA9E05D7CC053D063734D5C7665FD55B6B8D15D5E9BFEAFD8490FFA45E504B03041400060808001C6B38409D58B651FC000000A00100003B0000006662782F36374446313739442D363241352D343946392D413842442D3041344243364546353143462F7265736F75726365732F636F72652E786D6C8D50596E
310
833010BD0A9A7F83CD168A8CA334A827E8052C33A156828DBC543D7E4DA052FBD79F99D15B344F8F9FBF9647F689CE6B6B066039850C8DB29336F30031DC4807D95970676DF82583CCC80507D860107C7636AE07A4AC096842428D9DF000A5F71820538F740CE0D5072E3297312485BFE7AB54773963CEF244279DE03EB814
310
20DB9F6C1384436FA353E879B1B382C7A8A743A3A7F453DF343A10B462A7E63236A41A5947EAAE7D25DDD8D6E45A5EAEE358BF546F8CF262330B1EF4F293513994012710256525A18C94F53BABFAB2EE9B13A16D4F936993FF31C575FAA7296A13AAF288BBDB3C0896823C09C18BADAFB49E65A6BD752BBE01504B01021400
310
0A00000800001C6B38403DEE336E79000000790000001B00000000000000000000000000000000006175746F6465736B2D64657369676E2D7061636B6167652E786D6C504B010214001400060808001C6B3840D486FD9CA0000000F40000001300000000000000000000000000B20000005B436F6E74656E745F5479706573
310
5D2E786D6C504B010214001400060808001C6B3840F5B2EB60EA0000007C010000080000000000000000000000000083010000636F72652E786D6C504B010214001400060808001C6B384055019EA25F0000007C000000070000000000000000000000000093020000636E782E786D6C504B010214001400060808001C6B38
310
40F665BB8466010000020300000C00000000000000000000000000170300006662782F636F72652E786D6C504B010214001400060808001C6B38401AC5DD5E7E0000009D0000000B00000000000000000000000000A70400006662782F636E782E786D6C504B010214001400060808001C6B38404C6151482D010000140200
310
0031000000000000000000000000004E0500006662782F36374446313739442D363241352D343946392D413842442D3041344243364546353143462F636F72652E786D6C504B010214001400060808001C6B3840ADB6181B54010000330300003000000000000000000000000000CA0600006662782F36374446313739442D
310
363241352D343946392D413842442D3041344243364546353143462F636E782E786D6C504B010214001400060808001C6B3840192C3F6A5B070000941B000034000000000000000000000000006C0800006662782F36374446313739442D363241352D343946392D413842442D3041344243364546353143462F6F626A6563
310
74732E786D6C504B010214001400060800001C6B38400000000000000000000000003500000000000000000000000000191000006662782F36374446313739442D363241352D343946392D413842442D3041344243364546353143462F76657274696365732E62696E504B010214001400060808001C6B3840F270F1330600
310
00000400000036000000000000000000000000006C1000006662782F36374446313739442D363241352D343946392D413842442D3041344243364546353143462F747269616E676C65732E62696E504B010214001400060800001C6B38400000000000000000000000003700000000000000000000000000C6100000666278
310
2F36374446313739442D363241352D343946392D413842442D3041344243364546353143462F617474726962757465732E62696E504B010214001400060808001C6B3840D5987DFC8F0000004101000036000000000000000000000000001B1100006662782F36374446313739442D363241352D343946392D413842442D30
310
41344243364546353143462F6469726563746F72792E786D6C504B010214001400060808001C6B38409D58B651FC000000A00100003B00000000000000000000000000FE1100006662782F36374446313739442D363241352D343946392D413842442D3041344243364546353143462F7265736F75726365732F636F72652E
310
786D6C504B0506000000000E000E0080040000531300000000
  0
XRECORD
  5
17
102
{ACAD_REACTORS
330
12
102
}
330
12
100
AcDbXrecord
280
     1
270
     1
271
     1
  0
XRECORD
  5
16
102
{ACAD_REACTORS
330
12
102
}
330
12
100
AcDbXrecord
280
     1
270
     1
271
     1
  0
XRECORD
  5
18
102
{ACAD_REACTORS
330
12
102
}
330
12
100
AcDbXrecord
280
     1
270
     1
271
     1
  0
XRECORD
  5
15
102
{ACAD_REACTORS
330
12
102
}
330
12
100
AcDbXrecord
280
     1
270
     1
271
     1
  0
XRECORD
  5
897
102
{ACAD_REACTORS
330
22
102
}
330
22
100
AcDbXrecord
280
     1
102
MATERIAL
148
0.0
149
0.0
149
0.0
 93
        0
 94
      127
282
     0
 72
     0
 77
     0
171
     0
175
     0
179
     0
273
     0
  0
XRECORD
  5
24
102
{ACAD_REACTORS
330
22
102
}
330
22
100
AcDbXrecord
280
     1
270
     1
271
     1
  0
XRECORD
  5
23
102
{ACAD_REACTORS
330
22
102
}
330
22
100
AcDbXrecord
280
     1
270
     1
271
     1
  0
XRECORD
  5
BA
102
{ACAD_REACTORS
330
22
102
}
330
22
100
AcDbXrecord
280
     1
 70
     1
 90
1959938040
 71
     1
  1
3BEBDECA-13CB-43A8-8A97-3A72BE9DC62E
311
504B03040A00000800001C6B38403DEE336E79000000790000001B0000006175746F6465736B2D64657369676E2D7061636B6167652E786D6C3C3F786D6C2076657273696F6E3D22312E302220656E636F64696E673D227574662D3822203F3E3C666F726D6174733E3C666F726D61743E687474703A2F2F736368656D612E
311
6175746F6465736B2E636F6D2F64657369676E2D7061636B6167652F323030393C2F666F726D61743E3C2F666F726D6174733E504B03041400060808001C6B3840D486FD9CA0000000F4000000130000005B436F6E74656E745F54797065735D2E786D6C7D8EC10E82300C865F65E91D8A1E8C310C0EEA1BF002731658846E
311
D98AC1B77784ABF1D8FE5FBFBF75BBCE937A534CCEB38643598122B6FEE978D0B0485F9C41B54DDD7D022595594E1A469170414C76A4D9A4D207E29CF43ECE46F218070CC6BECC4078ACAA135ACF422C856C0E68EA1BF5669944DDD7BCDE7B1F8E415D77AECB980613C2E4AC91FC167A2B244592486606FC29C8FD7F045B9A
311
EF7053A7E60B504B03041400060808001C6B384031B98FEEE90000007C01000008000000636F72652E786D6C8D904D6E83301085AF62CDDEE01F820019470AE406BD80651C6A25D808DB558F5F9310A9DD7535A337EF9B193D71FE5E1EE8CB6CC17AD7032D0820E3B49FAC9B7B48F1861B40672936EFE32F1B20A716D3C32E
311
8314F3E6D37A48DABB685CCCAAF393394415828980F423373D04FD691655A814B323DC8B55E9BB9A4D41DF5D8653B2137A1DB153DE676FD66C204FD7965FC771C49C5F6A5C1136E0F6D28CB8AE78CDE950B56C6844B9C35244BBBCEFEBCDA86826908C508609C5ACFAA0BC635577AA31A93B4244B9DBFF40699DFE0925EB22
311
67C7BB2F2C80A4F991E7408A72CF22976750B9EEB9C91F504B03041400060808001C6B384055019EA25F0000007C00000007000000636E782E786D6C4DCB3B0E80201045D1AD90E915ED2CF8AC45050C11660C8261F98AB1B07AC9C97D42D718D865D3E909258CFD00CCE24AC6E326A164D74DC0B4128928FF326038472BA1
311
3128B1252AC747C6BAB984FC68F0B87FE8960A5C09FE86CFB69FBA01504B03041400060808001C6B3840348BF1C965010000020300000C0000006662782F636F72652E786D6C8D52ED8E8230107C95A6FF4BF992A82935517C837B815AAA478496F483F8F8B77C18CE8B311792D2CCECECCE0EB0C3A36BD1A0AC6B8C2E7112
311
C518292D4DDDE85B8983BF922D4607CEAC31FE5719465A74AAC4238C39BB5913FA0592467BA53DA0DAD46A018573CA63245BB894D8C96FD58948040F15EE1EF542DEC54D45490434D471E6BC0503681E329E985F2F0F46679CB3109A7A619B1AA635D74659CC37E75D76AEAA8A64D9B120799C9EC8EEB8AD48916745969CF2
311
5D7ADA323A8A39F34DF77427AD125ED598A7719292382169FE9564FB34DF6F0A1217FB3866742C7F1185BEFEA72834DA67E962779639CC133032117FB685883C7262003F94333A8608AF29E1D7A0211008D98B4BFBDCE30ED0A0A4373607A63661A506D106055363343D8CCE2C749E1AC0666FFBA41FFA7CEE011F50E81B58
311
131EAE97E0C7E96C9EBA44D12B4B06FF40DAD84EB4ABB9D9E27AAE83DECAA5698DFD8F9A2EABD2254C3AFEBDFC07504B03041400060808001C6B3840AE019C4A7C0000009D0000000B0000006662782F636E782E786D6C4DCCD10A83201886E15B91FFDCA52E48418DCA2E249685CC349C8E5DFE6A74B0A30F1E3E5ED97E36
311
8FDE36BD5C0C0AE88D00B2E11167175605252F98036AB54C31E6BF1BA0306D56C1C9A0E59A62D92F9AED32159F0FF52E3C2FECC4BD676333603610866B431ACC8561B8AF3B6A381F0935022A2DAB5FE9D833ACBF504B03041400060808001C6B3840F8E346AE2B01000014020000310000006662782F41393342324537432D
311
324330322D344430372D383944322D4234413144383845303144392F636F72652E786D6C8D51CB6EC32010FC158B537AC0064C1C3BC244499C3FE80F10435C94182C1E553EBFB876A4F6960B8B66676647BBECF01C1FD9B7725E5BD3029C239029D35BA9CDD082186EB006D98133676DF843039911A36AC10C03CE0667E3B4
311
42BD354199905063A55A41E1BD0A20EB1FE9D302DF7FA951E42286C4F0F77C12FD5D0C2AC7796A271E673EB814205B86CC2FE0C7A63C91CBEE0CC91911483BB48375D31178A247DCD5F505E1AE61C522E42C462D57B996298EBE69E5DE3599C59C053DBEE2F74E89A024E00461021186847EE2724FE87E5B4154ED1162C54C
311
FF278A937C5314B5092559E32E320F3866C5D2E04CDA787DBCC2A8E7645DC8E6791BAFFA0FC0518ECA8A360DA2AC58A86901C9B3A2ABA70FD6A5056FEED7C4C6DBC5B8A29C15F38D52F93D60AAF33DF90F504B03041400060808001C6B3840CA04537D4C01000033030000300000006662782F41393342324537432D324330
311
322D344430372D383944322D4234413144383845303144392F636E782E786D6CD593CD6EC32010845F0571F76F5CAB8A30917AE813F4D02B864D4A83C1E2A76ADEBE4B42D25C72E8B11764CD0E33AB4F98EDBE1743BEC007EDEC44BBBAA504AC744ADBC34453DC57CF94EC38F3CEC53B1B25562C30D12C53CE0EDEA5B5480A
311
F6229988AAD1F658440FC1252F21A09C6F12E3A4301800B64A28C2328352A0C8CD885F7BF0B80A8AF389C40F20AF2FEFC4CD9F2063604D4EE1ACC91D9CE5B334DD992891468430D1203F6011B548D12908C75A8928EAAEBE763DD8E93789E40BD7CAE435C9E513CD27E565A31A39B206879C85E8915E31C5D30A948B75355A
311
8A88909BB3F1E2E12C691BC7A1783582F7E8EEC6CD3060D879C659D40B1487F4202228CAFBB6EBABB6ABFAE1ADDB6CFB61FB3456EDB86D5BD6643B67B373A65CC218F06E25D2D9083652DEB1268F1FE12B3EA2B447D6CE9FFE00120194D60B9D5BC67FE6D39CDF37E2F2F817F01F504B03041400060808001C6B384092DAFB
311
B49B0500007A100000340000006662782F41393342324537432D324330322D344430372D383944322D4234413144383845303144392F6F626A656374732E786D6CAD575D8F9B3814FD2B887D260949DACEAC18AA7CCC5451356DD5A8D53E8C1419308C770C46B69966F6D7EF3118026932CDAEFA1282B9BEBEF7DC733F1CBC
311
DFE7DC79A6523151DCB8FE68E23AB48845C28AECC6AD74EA5DB9CEFB309042E89E98EB1424A737AE5976C32093A22AED52425352717DB47AB7FCCB51312DA8EBC49C2875E3AAF891E664442A2D12AA9E4609D16494A5FB913F6A04876A3349CAC723A52591B4D0B014EB05B4388D51FEF075E28EC3606CBE8781F9B552B3F3
311
52E3DA9FE1F9AC509A14F14F871DA999F9F3F5EDF4CDB5F7663E9F79F3B753DF5BDE2DD79EFF6E3659BD5DADAE17B7D7385869094DD612495337FC006C248B8371F3290C2A56E8D9D48AD8008D257D6626526E3875FC60DCC874DE59274F991F8BA2A0718D15D0A8FDB3AA135AD22241CC1955B0AC87D064F8EA1B1C7B9F67
311
E6DD1ED95FBE0C81FE8E9EA2D6F6F6D9B754447FC305750983A4A286810D96D6D186AB9303C29110DC7E63CAC989A69211EE701649225FDC10A246240C066A0C93A5C906E3811B220ACDE7215D9046BFE6F9292BD38A73436337ACB360875CA15AD596B17FA83C58DF4706362156860D57D621FD525237BC6E287275C4A606
311
4827E52443C8E1A6D9399B1E39BA3279BA59BBE1C7BB68BF35B97BFAF0528A924A6DE8036AB5816B9F06256B937F51E4CC06F7C89403285F81FC27A4FAC114C44DB2FD7C3FB7A768490A950A992336CEC4F126F899387EFD6BFEF7FE05E36EF3307AE7F044B00D54BF01CFA10FFD58F6E00C8367105EC899756D1B138EB271
311
CF0A006448E2708125D4E134DABBE106550E5519BB080F7DB80C739FF137185B352814F549BD67012C8FCAE205051AB0D58C84190DF9AD818738FD54CEEA83ADD83978DFFC16BA2ED6DB8FDB4AA624A6F736A7D7346505D3687107DEF40D1A603EF0E889BEFC103281A33FE3BDEDE39DDBA314D036981BE0B3B6A69B97C3C9
311
830362ECCB842937C12F4E8013A6B1F6F4DF331553CE494145D59EFB6AFF40DB682036C96E98DC3598436301699A2F473988261D4B561A10BB6ED515CDD119EFBE6D3E819190E72222FC20141D4A6F2CB890BBE865D754A593487F1F52DB4230365AC0F63A47DAF4B798EF1296A695420D3C01EBF7CDAA1F3A531550215AAD
311
4DB2CCE13E728B48CBD9562F9AB52468A4A2D831B44DA4DDC903FAFA81A82540ADF09CC58AF274C738AFF25DCA389AD12E27E51938FEBFFD5195973B928BAAD067740F4C477318DA3E20AFFA4174FCE886DBFAE92D517A139A1CC23C1036ADE4045683D0CE96B7CBF5ED6AE1F9B3D5D29BCF1657DED5E2FA9D375BBC9B2E6F
311
AFD7ABB7D3DB364E8DF230683B4D3FA1112574B6A092CC86EFDB06E9636B801BDE13AD1E3E34D9D93EBF6D4618858331F6A05D761B17C933C63E9AFC5AC141F2A4A24D5E729AD342139342F7E60FFF4A30660C8C69D63739C9E8055A3E7FD81E3983950BF67D31E94E7F1CEDB5AB2B93902795E8C72A8F0AC2F8D1C6AC4172
311
541699C5AF8D49F76CFA4CFB6ADE6C6030982AC15982329838191539D5288617F420995305EAF547FAC45E3D2ED8FDDC0C889A449CB6963C12CCC85C212D40AD2AD6C375E70FCC7466ACBA71D16D474FF8B195C275C0991B1733BA663155A308FDD94C42B57270A93FC863EE2745C6316A379BBAF76E97C166D0913B914BC6
311
27EB5753C1AD03282325C606CC43884E6D4C18D4B6D9EFF17F72BC35C7211A7FA34A77BE1C163A67EA6390A28D53F6B28019E6C91EBD47A2BEEE963FAA6506885C74C97A95048D564F1399D51705639F3569B1FE32C680E26C3E3B25AF32C4F2724D9EA4207365121C2C022BACCE92685075F5E7C317297091CD9D3B060A3C
311
AC449E8BC2BE2CEC45D8D93EE25A9B3CA02C50731F510FD3893F7DA8EF01F66AB28B88A22392A8272C20A69275100F020F4636974574A0E6432737364138E2E666EDD8963687524B947E5535B060E228A883EC317749932B7D81F2D5ABC0B816850912437CF82F504B03041400060800001C6B384000000000000000000000
311
0000350000006662782F41393342324537432D324330322D344430372D383944322D4234413144383845303144392F76657274696365732E62696E504B03041400060808001C6B3840F270F1330600000004000000360000006662782F41393342324537432D324330322D344430372D383944322D42344131443838453031
311
44392F747269616E676C65732E62696E636660600000504B03041400060800001C6B3840000000000000000000000000370000006662782F41393342324537432D324330322D344430372D383944322D4234413144383845303144392F617474726962757465732E62696E504B03041400060808001C6B3840D5987DFC8F00
311
000041010000360000006662782F41393342324537432D324330322D344430372D383944322D4234413144383845303144392F6469726563746F72792E786D6C858F410EC2201045AF4266AF15DDB800BA74E7C21B903225242D6328188F2FA5C4183471359997F9FF81E89FF3C41E1816475E02DF1F80A11FC8386F25A438
311
EECEC07A250251FC3803E6F58C12560C4AD840E95E91C151A72936F496F35732D860FE635F62C8F2DA16B505C545B74125BAA2FA9E05D7CC053D063734D5C7665FD55B6B8D15D5E9BFEAFD8490FFA45E504B03041400060808001C6B3840EED74556FC000000A00100003B0000006662782F41393342324537432D32433032
311
2D344430372D383944322D4234413144383845303144392F7265736F75726365732F636F72652E786D6C8D50596AC33010BD8A997FD95A1CE304598138B9412F20E4492A124B414BE8F12BC72EB47FFD9919DEC23C9E3C7ECD8FEA85215AEF066035850A9DF19375B70172BA921EAAA392C1FBF44B0695D3330EB0C0A0E42D
311
F8FCDC20E35D42970AEAFC841BA863C4049579946380683E71D6B5CEA928E2BD7E6A73D737AC595DE8A25332A6500254EB9365820A187D0E06A36C5656C99CEDB469EC547EDAABC5006A77D98BCBF93C12214E1D69291FC9FED49F49D78A4EB0B1DDF3B197CD625632D9F927A309A8134EA038659C504678FBC1C481B7875D
311
476877A054368BFC8F293FA77F9AB27549F02DEE6A8BA05809F226946C96BECA7A9759F6D2ADFA06504B010214000A00000800001C6B38403DEE336E79000000790000001B00000000000000000000000000000000006175746F6465736B2D64657369676E2D7061636B6167652E786D6C504B010214001400060808001C6B
311
3840D486FD9CA0000000F40000001300000000000000000000000000B20000005B436F6E74656E745F54797065735D2E786D6C504B010214001400060808001C6B384031B98FEEE90000007C010000080000000000000000000000000083010000636F72652E786D6C504B010214001400060808001C6B384055019EA25F00
311
00007C000000070000000000000000000000000092020000636E782E786D6C504B010214001400060808001C6B3840348BF1C965010000020300000C00000000000000000000000000160300006662782F636F72652E786D6C504B010214001400060808001C6B3840AE019C4A7C0000009D0000000B000000000000000000
311
00000000A50400006662782F636E782E786D6C504B010214001400060808001C6B3840F8E346AE2B0100001402000031000000000000000000000000004A0500006662782F41393342324537432D324330322D344430372D383944322D4234413144383845303144392F636F72652E786D6C504B010214001400060808001C
311
6B3840CA04537D4C010000330300003000000000000000000000000000C40600006662782F41393342324537432D324330322D344430372D383944322D4234413144383845303144392F636E782E786D6C504B010214001400060808001C6B384092DAFBB49B0500007A10000034000000000000000000000000005E080000
311
6662782F41393342324537432D324330322D344430372D383944322D4234413144383845303144392F6F626A656374732E786D6C504B010214001400060800001C6B384000000000000000000000000035000000000000000000000000004B0E00006662782F41393342324537432D324330322D344430372D383944322D42
311
34413144383845303144392F76657274696365732E62696E504B010214001400060808001C6B3840F270F133060000000400000036000000000000000000000000009E0E00006662782F41393342324537432D324330322D344430372D383944322D4234413144383845303144392F747269616E676C65732E62696E504B01
311
0214001400060800001C6B38400000000000000000000000003700000000000000000000000000F80E00006662782F41393342324537432D324330322D344430372D383944322D4234413144383845303144392F617474726962757465732E62696E504B010214001400060808001C6B3840D5987DFC8F0000004101000036
311
000000000000000000000000004D0F00006662782F41393342324537432D324330322D344430372D383944322D4234413144383845303144392F6469726563746F72792E786D6C504B010214001400060808001C6B3840EED74556FC000000A00100003B00000000000000000000000000301000006662782F413933423245
311
37432D324330322D344430372D383944322D4234413144383845303144392F7265736F75726365732F636F72652E786D6C504B0506000000000E000E0080040000851100000000
310
504B03040A00000800001C6B38403DEE336E79000000790000001B0000006175746F6465736B2D64657369676E2D7061636B6167652E786D6C3C3F786D6C2076657273696F6E3D22312E302220656E636F64696E673D227574662D3822203F3E3C666F726D6174733E3C666F726D61743E687474703A2F2F736368656D612E
310
6175746F6465736B2E636F6D2F64657369676E2D7061636B6167652F323030393C2F666F726D61743E3C2F666F726D6174733E504B03041400060808001C6B3840D486FD9CA0000000F4000000130000005B436F6E74656E745F54797065735D2E786D6C7D8EC10E82300C865F65E91D8A1E8C310C0EEA1BF002731658846E
310
D98AC1B77784ABF1D8FE5FBFBF75BBCE937A534CCEB38643598122B6FEE978D0B0485F9C41B54DDD7D022595594E1A469170414C76A4D9A4D207E29CF43ECE46F218070CC6BECC4078ACAA135ACF422C856C0E68EA1BF5669944DDD7BCDE7B1F8E415D77AECB980613C2E4AC91FC167A2B244592486606FC29C8FD7F045B9A
310
EF7053A7E60B504B03041400060808001C6B38403AFEBD71EA0000007C01000008000000636F72652E786D6C8D904D6EC3201085AF82D86303C63FB23091ED2827E8051090142506CB40D5E317278ED4EEBA9AD19BF7CD8C1E3F7D2F0FF065B660BD1B20293004C629AFADBB0D30C52BEA203809BE791F7FD92070723103DC
310
6528F86DF3693D24E55D342E66D5796D0E5186602204EA919B0106F5691659C814B323DC8B55AABBBC9982BCBB0CA76435781DB13AEFB3576B3628EA8EB523260D6297962136D6239ADA7A4697E63C77D3345767DAF27287058F7679DF579B91D16828282614618228FB20554F595F3708373DC6BCDCED7FA0B4EA7F42C9BA
310
58D1E3DD1716A020F991E740F072CF22976750B9EEB9891F504B03041400060808001C6B384055019EA25F0000007C00000007000000636E782E786D6C4DCB3B0E80201045D1AD90E915ED2CF8AC45050C11660C8261F98AB1B07AC9C97D42D718D865D3E909258CFD00CCE24AC6E326A164D74DC0B4128928FF326038472B
310
A13128B1252AC747C6BAB984FC68F0B87FE8960A5C09FE86CFB69FBA01504B03041400060808001C6B3840D8F6D3E167010000020300000C0000006662782F636F72652E786D6C8D52ED8E8320107C15C27F44AD1F4D8334FD489FE05E802AF548150C82E9E3DFFAD178BD34CDC504C9CCCEEEEC28DB3FDA060DD2F6CAE802
310
47418891D4A5A994AE0BECDD8D6C31DA73668D71BFCA30D2A295051E61CC596D8DEF16A834DA49ED00D5A6920B28FA5E3A8CCA062E05EECB6FD98A40780715FD3DE8447917B50CA20068A8E3AC77160CA079C878627EBB3E189D71CEBC57D5C2AA0AA6A99B9216F3749BE48730CA4872C913921CD20339E6E9895CB2F3697B
310
3C9E36E73867741473E654FB74575A299CAC308FC328266144E2E42BDAECE264976624CC7661C8E858FE22F25DF54F9157DA6DE2C5EE2CEB318FC0C844FCD9162272A81703F8A19CD13144784D09BF060D8140C84E5C9BE71E778006593A6313602AE3576A108D97303544D3C3E8CC42E7A9016CF6B64FFCA1CFE71EF00185
310
AEC19A7070BD7A374E67F3D4258A4E5A32B807D2C6B6A259CDCD16D7731DF4565E9AC6D8FFA8E9B22A5DC2A4E3DFCB7F00504B03041400060808001C6B38400C5D62DF7E0000009D0000000B0000006662782F636E782E786D6C4DCCD10A83201805E05791FFDEB555D30235D0E57BC4B290990EA7638F3F1B5DECE61CF838
310
1C367C3687DE26BE6CF01C2EA73320E3EF61B67EE590D3823B4083603184F43703E4A7CD70D819045B63C8CF8366B34CD9A5A2CEFAC7818D22B2A17AC45ADD7ADCF692E0FE5A42D794AA8EB4632D5BA804AB7E4FA5F763F105504B03041400060808001C6B38409C6456802C01000014020000310000006662782F33433642
310
333746452D464344392D343942362D393542362D4632373743383634453242342F636F72652E786D6C8D51CB6E833010FC15CBA7F400181B4C888C23254DBEA03F40B1935A0936F2A3CAE77729446A6FB978ADD999D9D1AED83FC63BFAD63E18673B5CE604236D07A78CBD7638C54BB6C5682F85772EFEA16164FB51777886
310
B11457EFD2B44283B351DB08A8754AAF601F828E180D77F874380C5F7AECF33E4560845B3EF5C3ADBFEABCCCA10D3C2942F410002D43E6174B76E407D69C4FD9F9F8DE66557BE0595BC373A64D73DCF2EA440F952816A1142919B5CA8D8238E662B47FD564164B11CDF88C3F78DD47ADB0A4A4A41929335A7D946C47AB5DCD
310
33C277848862A6FF13A549BD284AC64646D7B88B2C60598A626948A15CFABC3FC3E8C7E47C44F3BC4DD0C31B962427AC6D6A466A512C54580078F26AF50CD17958F0E6F6096CB61AF34A8A62BE1194DF03429DEF297F00504B03041400060808001C6B3840ACA39C6A5401000033030000300000006662782F334336423337
310
46452D464344392D343942362D393542362D4632373743383634453242342F636E782E786D6CBD93CD6EC32010845F0571F76F5C2B8A30917AE813F4D02B814D4A83C1E2A76ADEBE4B42D25C72A854F582ACD96166F509B3EDD76CC827F8A09D9D6857B79480954E697B98688AFB6A4DC99633EF5CBCB35162C50C13CD32E5
310
ECE05D5A8AA4602F9289A81A6D8F45F4105CF21202CAF926314E0A830160AB8422CC3B500A14B919F16B0F1E5741717722F11DC8CBF31B71BB0F9031B026A770D6E40ECEF2599AEE4C94482342986890EF308B5AA4E8148463AD441475575FBB1EECF49344F2856B65F29AE4F289E693F2B2518D1C598343CE42F448AF98E2
310
6901CAC5B2182D4544C8CDD978F17096B48DE350BC1AC17B74AFFA71BDC6B0F38CB3A867280EE941445094F76DD7576D57F5C36BB7DAF4C3E669ACDA71D3B6ACC976CE76CE99720963C0BB85486723D84879C79A3C7E84AFF888D21E593B7FFA054804505A2F746E197FC9A71B57C3F08F7C9AF3FB465C1EFF02FE0D504B03
310
041400060808001C6B384055AA573559070000931B0000340000006662782F33433642333746452D464344392D343942362D393542362D4632373743383634453242342F6F626A656374732E786D6CED595B6FA33814FE2B887D0E0949DA695794512EED285A756634D919ED432464C0A1DE1A836CD3CBFEFA3D3686000D2D
310
D9E9BECD430218FBF89CEF5C7DF03E3EA5D47AC05C908C5DD9AE33B12DCCA22C262CB9B20BB91F5DD8D647DFE359261BD36C8BA1145FD96AD8F6BD8467456E8662BC4705959DD19BE55F968830C3B6155124C4952DA23B9C220715328BB1B87762249193EC9F1CD72927B6C9261CE5771DA239E29849E014C61950B14AA6DC
310
F6E3C41EFBDE58BDF73DF56F66CD06CD9AF7CF1A6BA9DB5C12262462D10B963A646683589AB9F3F5F5F4EC7274369FCF46F3F3A93B5ADE2CD723F7C36CB23A5FAD2E17D797C05E9865D4C814E31CB318F4F76CFBAE37566F6AD10D02C7B88E32C670A48104A8B4585D82040BD8AA01DFA4FDE82A891AAFB5848DE7B97A6F58
310
680CCFDA54FA660D03A245170431DB551257D7A67C59F837082E861825175802B74272D0AE81878357D8FEC41B97A3BE171E7441849522893941D4A224E488835260AA9AE27BE5024346390707529692406BAE7CDDB62DF0CCB75DE71897FB8252E519B6AF1D2B00F7C35268CEC83F981FB86F22033C81B40561F2C270299F
310
736CFB97DE580FFA9EBACCA6E66509A4B5A728111A91F26D47D09572FDCDDAF6FFB8099FB62A1C1CDF3CE7598EB95446A7F4A8F9024336578592D9D61DA439B500842941352B0FA07C03E43F43F438B0027AE3E469FE34377325474CEC339E826EAC89359AC0DFC472F5BFBA6FDC79E37A715B7B7D78829B2AA82E7E1ECFB6
310
0C1A2BC37F034EDF7B0083CFF8CCBCDA4688823DDF1206002923B168064310DAF7E193ED6F207042A0875588FA2E880CEC3EC0AD3736640E5AA9DCCB781D0344CD1EB3214A02D8B445021B3D7AFA04D98393E8A0A6A6887DF09EBD8BB92ED6DB3FB605DFA308DF1A9F5EE33D614442D63CCE500BF39644F7F8F931E33108FA
310
12EF6D13EFD46C25006D85B9023EA940500F879D5B1B44B02EC954B8F1DED8018450B9BA41FF968808538A18CE8A6ADF3ABA2943AD3DDED40CB63F2D219E4D3B26CCF10351550538CD61468B51C8FB1127B902D1F63F9592D541D3E991EEFBE63358643DBF67D68641E86588FEA983D6111C5A965D216D80A8050E0FE13CCA
310
68C683F03928239D0DB504B0D1F6961F2DA210EB4B25292AE041DAEFAA909294D20631D9EF0B0171F5088B3F36ABA6394C9C997B6635FF3BCE3887680BBE8BB8F1BBCE1E01495182833D8AFBB66BEE56D3169A640F698EF714E4220F443E074806931827A7407312F1CB77A59ED04C08C2B0807C7514FC261A13070249A9CD
310
8A65A5D50ED044042996889E828022D303AE4E3BBAC68DA074789BC7DA7A5FD35893E8FF64111C412D99B18040290A39E44DC65DE70C62481BDD12E50EBE606D156D2D062DA084889E83474C923B790AEA25F91EDC2338921432C8721481590F20FBC25794523BBC8728BA57F923880AFA5E062230DD0784D2220DE047189C
310
3C86B8761D985E45A141BC8C7D12A750942159F0219B9C9F4D5EEC53D60CDD10D8D8684F2884ED2045790FEAAD80A8EB11AB06DF50EF516A58A47980D2AC60830CC59975BDC990EFAA55911DC8AF2A15A16CAC081B82BE4798ACB36A15B3C1D475600537D281EA391028CD69790A7B23F1B8B53769CABD1B70E3A7EFBB410A
310
855F8FF69A11755EC160786C1506E211C9E8CEF6B7FA3A5A42FD1DE3F890EAAB5AB3590102622A92179C18157DDF4079636A34DBBF4552EC3E9559B7BA7EDF38D0FDF0C6B0066A977AE146019D622691AA4C6ED50DFD862004B76894E31B95534FA1B288635D35227A43FAD4D92A235A9BA6C4C9EF30CB52F8B11D61112D62
310
BC43B1B80F6E250DB644B16EA474525261FCAA805F3E6D3BF0C0C80091BEAA020F3F76D69AD1952A978E129177451A32442008B6444B4ADD38394B8C462A2DD75775A680BA0B0CCCA878FEEB64D16C47FC3A5924C6307EEE6441B310D143B46964F34899F549A7803A3D292AEF710AD05D879A6A9D44CA5C6EC437BE14404C
310
AC82FCE062AC8A1925C13E8EFF73D2EE4B82E5761DFE4F4BDAEE8B82E3A4A4D29AAC9A54470AD74D3385CD96D7CBF5F56A317267ABE5683E5B5C8C2E16971F46B3C587E9F2FA72BD3A9F5ED7686A3FF5BD3A96E9D405CF654CAB86D593C1009AB222A32486C37C6C251842BE8423FD80EE394FB180DCD9EC75C7A6273F60F5
310
43D9E69428A4B8E2E40E417F980AC8EA805111C9F6B8F51B7426259CB3AF6CE81939F7F067ACD2B620F15CD9D0299024C2C209A1CBA4FA799A38645C9DFA0D31C007B14465C47251FD5CAF52D8B4A27F3D6548163072B55A1850B7E5D0FC6A3528346F86A7E824C12B762C24E1362C24146BA52C87815A18BDCD41FDA56C94
310
B07BB3F513B8EEEB62B98E9ED34264D01783578DA0A43A928827BADDAD18332C2DD65FC7D066B3365FAC9C1609E87238A511C760CC85AAA7C08AC02A0CCD1C4930D5D5EFBBAF3C832F3CA9A58BA2DD2A4BD38C9987051CC762F842646DEFE07B4FBC83AA01ABAEBAD84D27EE74A7BBD9A6C11E844860479543305055114A84
310
8EB18145BEE84C99BEE55829A1337DB3B64CF83C03A2DA6A5F3477CBAF5B16788FFA8EA27C457B7825E7AB0DEDB19E0AD6C0A115EDFF0B504B03041400060800001C6B3840000000000000000000000000350000006662782F33433642333746452D464344392D343942362D393542362D4632373743383634453242342F76
310
657274696365732E62696E504B03041400060808001C6B3840F270F1330600000004000000360000006662782F33433642333746452D464344392D343942362D393542362D4632373743383634453242342F747269616E676C65732E62696E636660600000504B03041400060800001C6B3840000000000000000000000000
310
370000006662782F33433642333746452D464344392D343942362D393542362D4632373743383634453242342F617474726962757465732E62696E504B03041400060808001C6B3840D5987DFC8F00000041010000360000006662782F33433642333746452D464344392D343942362D393542362D46323737433836344532
310
42342F6469726563746F72792E786D6C858F410EC2201045AF4266AF15DDB800BA74E7C21B903225242D6328188F2FA5C4183471359997F9FF81E89FF3C41E1816475E02DF1F80A11FC8386F25A438EECEC07A250251FC3803E6F58C12560C4AD840E95E91C151A72936F496F35732D860FE635F62C8F2DA16B505C545B741
310
25BAA2FA9E05D7CC053D063734D5C7665FD55B6B8D15D5E9BFEAFD8490FFA45E504B03041400060808001C6B38405214E040FC000000A00100003B0000006662782F33433642333746452D464344392D343942362D393542362D4632373743383634453242342F7265736F75726365732F636F72652E786D6C8D50596AC330
310
10BD8A997FD9927782AC6027E404BD80902789482C192DA5C7AF9CB8D0FEF56766780BF378FCF8B53CB34F745E5B3300CB296468949DB5B90D10C395F4901D0577D6865F32C88C5C70800D06C16FCEC675879435014D48A8B133EEA0F41E0364EA998E01BCBAE32273194352F847BE4AF59037CC599EE8A413DC07970264EF
310
27DB04E1D0DBE8147A5EBC59C163D4F3AED173FAA9AF1A1D88A6AFBB91B286D497AE26F5D88C64EA9A13B9B4E7533F4DA7EA5C76BCD8CC8207BDFC64540E65C01944495949282365FDC1AA43591F9A96D0F640292F36F91F535CE77F9AA236A12AF7B86F9B07C15290172178B1F595D6ABCCB4B76EC537504B010214000A00
310
000800001C6B38403DEE336E79000000790000001B00000000000000000000000000000000006175746F6465736B2D64657369676E2D7061636B6167652E786D6C504B010214001400060808001C6B3840D486FD9CA0000000F40000001300000000000000000000000000B20000005B436F6E74656E745F54797065735D2E
310
786D6C504B010214001400060808001C6B38403AFEBD71EA0000007C010000080000000000000000000000000083010000636F72652E786D6C504B010214001400060808001C6B384055019EA25F0000007C000000070000000000000000000000000093020000636E782E786D6C504B010214001400060808001C6B3840D8
310
F6D3E167010000020300000C00000000000000000000000000170300006662782F636F72652E786D6C504B010214001400060808001C6B38400C5D62DF7E0000009D0000000B00000000000000000000000000A80400006662782F636E782E786D6C504B010214001400060808001C6B38409C6456802C0100001402000031
310
000000000000000000000000004F0500006662782F33433642333746452D464344392D343942362D393542362D4632373743383634453242342F636F72652E786D6C504B010214001400060808001C6B3840ACA39C6A54010000330300003000000000000000000000000000CA0600006662782F33433642333746452D4643
310
44392D343942362D393542362D4632373743383634453242342F636E782E786D6C504B010214001400060808001C6B384055AA573559070000931B000034000000000000000000000000006C0800006662782F33433642333746452D464344392D343942362D393542362D4632373743383634453242342F6F626A65637473
310
2E786D6C504B010214001400060800001C6B38400000000000000000000000003500000000000000000000000000171000006662782F33433642333746452D464344392D343942362D393542362D4632373743383634453242342F76657274696365732E62696E504B010214001400060808001C6B3840F270F13306000000
310
0400000036000000000000000000000000006A1000006662782F33433642333746452D464344392D343942362D393542362D4632373743383634453242342F747269616E676C65732E62696E504B010214001400060800001C6B38400000000000000000000000003700000000000000000000000000C41000006662782F33
310
433642333746452D464344392D343942362D393542362D4632373743383634453242342F617474726962757465732E62696E504B010214001400060808001C6B3840D5987DFC8F000000410100003600000000000000000000000000191100006662782F33433642333746452D464344392D343942362D393542362D463237
310
3743383634453242342F6469726563746F72792E786D6C504B010214001400060808001C6B38405214E040FC000000A00100003B00000000000000000000000000FC1100006662782F33433642333746452D464344392D343942362D393542362D4632373743383634453242342F7265736F75726365732F636F72652E786D
310
6C504B0506000000000E000E0080040000511300000000
  0
XRECORD
  5
27
102
{ACAD_REACTORS
330
22
102
}
330
22
100
AcDbXrecord
280
     1
270
     1
271
     1
  0
XRECORD
  5
26
102
{ACAD_REACTORS
330
22
102
}
330
22
100
AcDbXrecord
280
     1
270
     1
271
     1
  0
XRECORD
  5
28
102
{ACAD_REACTORS
330
22
102
}
330
22
100
AcDbXrecord
280
     1
270
     1
271
     1
  0
XRECORD
  5
25
102
{ACAD_REACTORS
330
22
102
}
330
22
100
AcDbXrecord
280
     1
270
     1
271
     1
  0
XRECORD
  5
892
102
{ACAD_REACTORS
330
891
102
}
330
891
100
AcDbXrecord
280
     1
102
ACAD_ROUNDTRIP_2012_MLEADER_STYLE
298
     1
  0
CELLSTYLEMAP
  5
890
102
{ACAD_REACTORS
330
88F
102
}
330
88F
100
AcDbCellStyleMap
 90
        3
300
CELLSTYLE
  1
TABLEFORMAT_BEGIN
 90
        5
170
     1
 91
        0
 92
    32768
 62
   257
 93
        1
300
CONTENTFORMAT
  1
CONTENTFORMAT_BEGIN
 90
        0
 91
        0
 92
      512
 93
        0
300

 40
0.0
140
1.0
 94
        5
 62
     0
340
55
144
0.25
309
CONTENTFORMAT_END
171
     0
 94
        0
309
TABLEFORMAT_END
  1
CELLSTYLE_BEGIN
 90
        1
 91
        1
300
_TITLE
309
CELLSTYLE_END
300
CELLSTYLE
  1
TABLEFORMAT_BEGIN
 90
        5
170
     1
 91
        0
 92
        0
 62
   257
 93
        1
300
CONTENTFORMAT
  1
CONTENTFORMAT_BEGIN
 90
        0
 91
        0
 92
      512
 93
        0
300

 40
0.0
140
1.0
 94
        5
 62
     0
340
55
144
0.18
309
CONTENTFORMAT_END
171
     0
 94
        0
309
TABLEFORMAT_END
  1
CELLSTYLE_BEGIN
 90
        2
 91
        1
300
_HEADER
309
CELLSTYLE_END
300
CELLSTYLE
  1
TABLEFORMAT_BEGIN
 90
        5
170
     1
 91
        0
 92
        0
 62
   257
 93
        1
300
CONTENTFORMAT
  1
CONTENTFORMAT_BEGIN
 90
        0
 91
        0
 92
      512
 93
        0
300

 40
0.0
140
1.0
 94
        2
 62
     0
340
55
144
0.18
309
CONTENTFORMAT_END
171
     0
 94
        0
309
TABLEFORMAT_END
  1
CELLSTYLE_BEGIN
 90
        3
 91
        2
300
_DATA
309
CELLSTYLE_END
  0
XRECORD
  5
8C8
102
{ACAD_REACTORS
330
88F
102
}
330
88F
100
AcDbXrecord
280
     1
102
ACAD_ROUNDTRIP_PRE2007_TABLESTYLE
 90
      512
 91
        0
  1

 92
      512
 93
        0
  2

 94
      512
 95
        0
  3

  0
XRECORD
  5
8A3
102
{ACAD_REACTORS
330
8A2
102
}
330
8A2
100
AcDbXrecord
280
     1
102
RTVSPropertyOp0
 70
     1
102
RTVSPropertyOp1
 70
     1
102
RTVSPropertyOp2
 70
     1
102
RTVSPropertyOp3
 70
     1
102
RTVSPropertyOp4
 70
     1
102
RTVSPropertyOp5
 70
     1
102
RTVSPropertyOp6
 70
     1
102
RTVSPropertyOp7
 70
     1
102
RTVSPropertyOp8
 70
     1
102
RTVSPropertyOp9
 70
     1
102
RTVSPropertyOp10
 70
     1
102
RTVSPropertyOp11
 70
     1
102
RTVSPropertyOp12
 70
     1
102
RTVSPropertyOp13
 70
     1
102
RTVSPropertyOp14
 70
     1
102
RTVSPropertyOp15
 70
     1
102
RTVSPropertyOp16
 70
     1
102
RTVSPropertyOp17
 70
     1
102
RTVSPropertyOp18
 70
     1
102
RTVSPropertyOp19
 70
     1
102
RTVSPropertyOp20
 70
     1
102
RTVSPropertyOp21
 70
     1
102
RTVSPropertyOp22
 70
     1
102
RTVSPropertyOp23
 70
     1
102
RTVSPropertyOp24
 70
     1
102
RTVSPropertyOp25
 70
     1
102
RTVSPropertyOp26
 70
     1
102
RTVSPropertyOp27
 70
     1
102
RTVSPropertyOp28
 70
     1
102
RTVSPropertyOp29
 70
     1
102
RTVSPropertyOp30
 70
     1
102
RTVSPropertyOp31
 70
     1
102
RTVSPropertyOp32
 70
     1
  0
XRECORD
  5
8A1
102
{ACAD_REACTORS
330
8A0
102
}
330
8A0
100
AcDbXrecord
280
     1
102
RTVSPropertyOp0
 70
     1
102
RTVSPropertyOp1
 70
     1
102
RTVSPropertyOp2
 70
     1
102
RTVSPropertyOp3
 70
     1
102
RTVSPropertyOp4
 70
     1
102
RTVSPropertyOp5
 70
     1
102
RTVSPropertyOp6
 70
     1
102
RTVSPropertyOp7
 70
     1
102
RTVSPropertyOp8
 70
     1
102
RTVSPropertyOp9
 70
     1
102
RTVSPropertyOp10
 70
     1
102
RTVSPropertyOp11
 70
     1
102
RTVSPropertyOp12
 70
     1
102
RTVSPropertyOp13
 70
     1
102
RTVSPropertyOp14
 70
     1
102
RTVSPropertyOp15
 70
     1
102
RTVSPropertyOp16
 70
     1
102
RTVSPropertyOp17
 70
     1
102
RTVSPropertyOp18
 70
     1
102
RTVSPropertyOp19
 70
     1
102
RTVSPropertyOp20
 70
     1
102
RTVSPropertyOp21
 70
     1
102
RTVSPropertyOp22
 70
     1
102
RTVSPropertyOp23
 70
     1
102
RTVSPropertyOp24
 70
     1
102
RTVSPropertyOp25
 70
     1
102
RTVSPropertyOp26
 70
     1
102
RTVSPropertyOp27
 70
     1
102
RTVSPropertyOp28
 70
     1
102
RTVSPropertyOp29
 70
     1
102
RTVSPropertyOp30
 70
     1
102
RTVSPropertyOp31
 70
     1
102
RTVSPropertyOp32
 70
     1
  0
XRECORD
  5
8AF
102
{ACAD_REACTORS
330
8AE
102
}
330
8AE
100
AcDbXrecord
280
     1
102
RTVSPropertyOp0
 70
     1
102
RTVSPropertyOp1
 70
     1
102
RTVSPropertyOp2
 70
     1
102
RTVSPropertyOp3
 70
     1
102
RTVSPropertyOp4
 70
     1
102
RTVSPropertyOp5
 70
     1
102
RTVSPropertyOp6
 70
     1
102
RTVSPropertyOp7
 70
     1
102
RTVSPropertyOp8
 70
     1
102
RTVSPropertyOp9
 70
     1
102
RTVSPropertyOp10
 70
     1
102
RTVSPropertyOp11
 70
     1
102
RTVSPropertyOp12
 70
     1
102
RTVSPropertyOp13
 70
     1
102
RTVSPropertyOp14
 70
     1
102
RTVSPropertyOp15
 70
     1
102
RTVSPropertyOp16
 70
     1
102
RTVSPropertyOp17
 70
     1
102
RTVSPropertyOp18
 70
     1
102
RTVSPropertyOp19
 70
     1
102
RTVSPropertyOp20
 70
     1
102
RTVSPropertyOp21
 70
     1
102
RTVSPropertyOp22
 70
     1
102
RTVSPropertyOp23
 70
     1
102
RTVSPropertyOp24
 70
     1
102
RTVSPropertyOp25
 70
     1
102
RTVSPropertyOp26
 70
     1
102
RTVSPropertyOp27
 70
     1
102
RTVSPropertyOp28
 70
     1
102
RTVSPropertyOp29
 70
     1
102
RTVSPropertyOp30
 70
     1
102
RTVSPropertyOp31
 70
     1
102
RTVSPropertyOp32
 70
     1
  0
XRECORD
  5
8B7
102
{ACAD_REACTORS
330
8B6
102
}
330
8B6
100
AcDbXrecord
280
     1
102
RTVSPropertyOp0
 70
     1
102
RTVSPropertyOp1
 70
     1
102
RTVSPropertyOp2
 70
     1
102
RTVSPropertyOp3
 70
     1
102
RTVSPropertyOp4
 70
     1
102
RTVSPropertyOp5
 70
     1
102
RTVSPropertyOp6
 70
     1
102
RTVSPropertyOp7
 70
     1
102
RTVSPropertyOp8
 70
     1
102
RTVSPropertyOp9
 70
     1
102
RTVSPropertyOp10
 70
     1
102
RTVSPropertyOp11
 70
     1
102
RTVSPropertyOp12
 70
     1
102
RTVSPropertyOp13
 70
     1
102
RTVSPropertyOp14
 70
     1
102
RTVSPropertyOp15
 70
     1
102
RTVSPropertyOp16
 70
     1
102
RTVSPropertyOp17
 70
     1
102
RTVSPropertyOp18
 70
     1
102
RTVSPropertyOp19
 70
     1
102
RTVSPropertyOp20
 70
     1
102
RTVSPropertyOp21
 70
     1
102
RTVSPropertyOp22
 70
     1
102
RTVSPropertyOp23
 70
     1
102
RTVSPropertyOp24
 70
     1
102
RTVSPropertyOp25
 70
     1
102
RTVSPropertyOp26
 70
     1
102
RTVSPropertyOp27
 70
     1
102
RTVSPropertyOp28
 70
     1
102
RTVSPropertyOp29
 70
     1
102
RTVSPropertyOp30
 70
     1
102
RTVSPropertyOp31
 70
     1
102
RTVSPropertyOp32
 70
     1
  0
XRECORD
  5
8A9
102
{ACAD_REACTORS
330
8A8
102
}
330
8A8
100
AcDbXrecord
280
     1
102
RTVSPropertyOp0
 70
     1
102
RTVSPropertyOp1
 70
     1
102
RTVSPropertyOp2
 70
     1
102
RTVSPropertyOp3
 70
     1
102
RTVSPropertyOp4
 70
     1
102
RTVSPropertyOp5
 70
     1
102
RTVSPropertyOp6
 70
     1
102
RTVSPropertyOp7
 70
     1
102
RTVSPropertyOp8
 70
     1
102
RTVSPropertyOp9
 70
     1
102
RTVSPropertyOp10
 70
     1
102
RTVSPropertyOp11
 70
     1
102
RTVSPropertyOp12
 70
     1
102
RTVSPropertyOp13
 70
     1
102
RTVSPropertyOp14
 70
     1
102
RTVSPropertyOp15
 70
     1
102
RTVSPropertyOp16
 70
     1
102
RTVSPropertyOp17
 70
     1
102
RTVSPropertyOp18
 70
     1
102
RTVSPropertyOp19
 70
     1
102
RTVSPropertyOp20
 70
     1
102
RTVSPropertyOp21
 70
     1
102
RTVSPropertyOp22
 70
     1
102
RTVSPropertyOp23
 70
     1
102
RTVSPropertyOp24
 70
     1
102
RTVSPropertyOp25
 70
     1
102
RTVSPropertyOp26
 70
     1
102
RTVSPropertyOp27
 70
     1
102
RTVSPropertyOp28
 70
     1
102
RTVSPropertyOp29
 70
     1
102
RTVSPropertyOp30
 70
     1
102
RTVSPropertyOp31
 70
     1
102
RTVSPropertyOp32
 70
     1
  0
XRECORD
  5
8AD
102
{ACAD_REACTORS
330
8AC
102
}
330
8AC
100
AcDbXrecord
280
     1
102
RTVSPropertyOp0
 70
     1
102
RTVSPropertyOp1
 70
     1
102
RTVSPropertyOp2
 70
     1
102
RTVSPropertyOp3
 70
     1
102
RTVSPropertyOp4
 70
     1
102
RTVSPropertyOp5
 70
     1
102
RTVSPropertyOp6
 70
     1
102
RTVSPropertyOp7
 70
     1
102
RTVSPropertyOp8
 70
     1
102
RTVSPropertyOp9
 70
     1
102
RTVSPropertyOp10
 70
     1
102
RTVSPropertyOp11
 70
     1
102
RTVSPropertyOp12
 70
     1
102
RTVSPropertyOp13
 70
     1
102
RTVSPropertyOp14
 70
     1
102
RTVSPropertyOp15
 70
     1
102
RTVSPropertyOp16
 70
     1
102
RTVSPropertyOp17
 70
     1
102
RTVSPropertyOp18
 70
     1
102
RTVSPropertyOp19
 70
     1
102
RTVSPropertyOp20
 70
     1
102
RTVSPropertyOp21
 70
     1
102
RTVSPropertyOp22
 70
     1
102
RTVSPropertyOp23
 70
     1
102
RTVSPropertyOp24
 70
     1
102
RTVSPropertyOp25
 70
     1
102
RTVSPropertyOp26
 70
     1
102
RTVSPropertyOp27
 70
     1
102
RTVSPropertyOp28
 70
     1
102
RTVSPropertyOp29
 70
     1
102
RTVSPropertyOp30
 70
     1
102
RTVSPropertyOp31
 70
     1
102
RTVSPropertyOp32
 70
     1
  0
XRECORD
  5
8C7
102
{ACAD_REACTORS
330
8C6
102
}
330
8C6
100
AcDbXrecord
280
     1
102
RTVSPropertyOp0
 70
     0
102
RTVSPropertyOp1
 70
     0
102
RTVSPropertyOp2
 70
     0
102
RTVSPropertyOp3
 70
     0
102
RTVSPropertyOp4
 70
     0
102
RTVSPropertyOp5
 70
     0
102
RTVSPropertyOp6
 70
     0
102
RTVSPropertyOp7
 70
     0
102
RTVSPropertyOp8
 70
     0
102
RTVSPropertyOp9
 70
     0
102
RTVSPropertyOp10
 70
     0
102
RTVSPropertyOp11
 70
     0
102
RTVSPropertyOp12
 70
     0
102
RTVSPropertyOp13
 70
     0
102
RTVSPropertyOp14
 70
     2
102
RTVSPropertyOp15
 70
     0
102
RTVSPropertyOp16
 70
     0
102
RTVSPropertyOp17
 70
     0
102
RTVSPropertyOp18
 70
     0
102
RTVSPropertyOp19
 70
     0
102
RTVSPropertyOp20
 70
     0
102
RTVSPropertyOp21
 70
     0
102
RTVSPropertyOp22
 70
     0
102
RTVSPropertyOp23
 70
     0
102
RTVSPropertyOp24
 70
     0
102
RTVSPropertyOp25
 70
     0
102
RTVSPropertyOp26
 70
     0
102
RTVSPropertyOp27
 70
     0
102
RTVSPropertyOp28
 70
     1
102
RTVSPropertyOp29
 70
     1
102
RTVSPropertyOp30
 70
     1
102
RTVSPropertyOp31
 70
     1
102
RTVSPropertyOp32
 70
     1
  0
XRECORD
  5
8B5
102
{ACAD_REACTORS
330
8B4
102
}
330
8B4
100
AcDbXrecord
280
     1
102
RTVSPropertyOp0
 70
     1
102
RTVSPropertyOp1
 70
     1
102
RTVSPropertyOp2
 70
     1
102
RTVSPropertyOp3
 70
     1
102
RTVSPropertyOp4
 70
     1
102
RTVSPropertyOp5
 70
     1
102
RTVSPropertyOp6
 70
     1
102
RTVSPropertyOp7
 70
     1
102
RTVSPropertyOp8
 70
     1
102
RTVSPropertyOp9
 70
     1
102
RTVSPropertyOp10
 70
     1
102
RTVSPropertyOp11
 70
     1
102
RTVSPropertyOp12
 70
     1
102
RTVSPropertyOp13
 70
     1
102
RTVSPropertyOp14
 70
     1
102
RTVSPropertyOp15
 70
     1
102
RTVSPropertyOp16
 70
     1
102
RTVSPropertyOp17
 70
     1
102
RTVSPropertyOp18
 70
     1
102
RTVSPropertyOp19
 70
     1
102
RTVSPropertyOp20
 70
     1
102
RTVSPropertyOp21
 70
     1
102
RTVSPropertyOp22
 70
     1
102
RTVSPropertyOp23
 70
     1
102
RTVSPropertyOp24
 70
     1
102
RTVSPropertyOp25
 70
     1
102
RTVSPropertyOp26
 70
     1
102
RTVSPropertyOp27
 70
     1
102
RTVSPropertyOp28
 70
     1
102
RTVSPropertyOp29
 70
     1
102
RTVSPropertyOp30
 70
     1
102
RTVSPropertyOp31
 70
     1
102
RTVSPropertyOp32
 70
     1
  0
XRECORD
  5
899
102
{ACAD_REACTORS
330
898
102
}
330
898
100
AcDbXrecord
280
     1
102
RTVSPropertyOp0
 70
     1
102
RTVSPropertyOp1
 70
     1
102
RTVSPropertyOp2
 70
     1
102
RTVSPropertyOp3
 70
     1
102
RTVSPropertyOp4
 70
     1
102
RTVSPropertyOp5
 70
     1
102
RTVSPropertyOp6
 70
     1
102
RTVSPropertyOp7
 70
     1
102
RTVSPropertyOp8
 70
     1
102
RTVSPropertyOp9
 70
     1
102
RTVSPropertyOp10
 70
     1
102
RTVSPropertyOp11
 70
     1
102
RTVSPropertyOp12
 70
     1
102
RTVSPropertyOp13
 70
     1
102
RTVSPropertyOp14
 70
     1
102
RTVSPropertyOp15
 70
     1
102
RTVSPropertyOp16
 70
     1
102
RTVSPropertyOp17
 70
     1
102
RTVSPropertyOp18
 70
     1
102
RTVSPropertyOp19
 70
     1
102
RTVSPropertyOp20
 70
     1
102
RTVSPropertyOp21
 70
     1
102
RTVSPropertyOp22
 70
     1
102
RTVSPropertyOp23
 70
     1
102
RTVSPropertyOp24
 70
     1
102
RTVSPropertyOp25
 70
     1
102
RTVSPropertyOp26
 70
     1
102
RTVSPropertyOp27
 70
     1
102
RTVSPropertyOp28
 70
     1
102
RTVSPropertyOp29
 70
     1
102
RTVSPropertyOp30
 70
     1
102
RTVSPropertyOp31
 70
     1
102
RTVSPropertyOp32
 70
     1
  0
XRECORD
  5
89B
102
{ACAD_REACTORS
330
89A
102
}
330
89A
100
AcDbXrecord
280
     1
102
RTVSPropertyOp0
 70
     1
102
RTVSPropertyOp1
 70
     1
102
RTVSPropertyOp2
 70
     1
102
RTVSPropertyOp3
 70
     1
102
RTVSPropertyOp4
 70
     1
102
RTVSPropertyOp5
 70
     1
102
RTVSPropertyOp6
 70
     1
102
RTVSPropertyOp7
 70
     1
102
RTVSPropertyOp8
 70
     1
102
RTVSPropertyOp9
 70
     1
102
RTVSPropertyOp10
 70
     1
102
RTVSPropertyOp11
 70
     1
102
RTVSPropertyOp12
 70
     1
102
RTVSPropertyOp13
 70
     1
102
RTVSPropertyOp14
 70
     1
102
RTVSPropertyOp15
 70
     1
102
RTVSPropertyOp16
 70
     1
102
RTVSPropertyOp17
 70
     1
102
RTVSPropertyOp18
 70
     1
102
RTVSPropertyOp19
 70
     1
102
RTVSPropertyOp20
 70
     1
102
RTVSPropertyOp21
 70
     1
102
RTVSPropertyOp22
 70
     1
102
RTVSPropertyOp23
 70
     1
102
RTVSPropertyOp24
 70
     1
102
RTVSPropertyOp25
 70
     1
102
RTVSPropertyOp26
 70
     1
102
RTVSPropertyOp27
 70
     1
102
RTVSPropertyOp28
 70
     1
102
RTVSPropertyOp29
 70
     1
102
RTVSPropertyOp30
 70
     1
102
RTVSPropertyOp31
 70
     1
102
RTVSPropertyOp32
 70
     1
  0
XRECORD
  5
89D
102
{ACAD_REACTORS
330
89C
102
}
330
89C
100
AcDbXrecord
280
     1
102
RTVSPropertyOp0
 70
     1
102
RTVSPropertyOp1
 70
     1
102
RTVSPropertyOp2
 70
     1
102
RTVSPropertyOp3
 70
     1
102
RTVSPropertyOp4
 70
     1
102
RTVSPropertyOp5
 70
     1
102
RTVSPropertyOp6
 70
     1
102
RTVSPropertyOp7
 70
     1
102
RTVSPropertyOp8
 70
     1
102
RTVSPropertyOp9
 70
     1
102
RTVSPropertyOp10
 70
     1
102
RTVSPropertyOp11
 70
     1
102
RTVSPropertyOp12
 70
     1
102
RTVSPropertyOp13
 70
     1
102
RTVSPropertyOp14
 70
     1
102
RTVSPropertyOp15
 70
     1
102
RTVSPropertyOp16
 70
     1
102
RTVSPropertyOp17
 70
     1
102
RTVSPropertyOp18
 70
     1
102
RTVSPropertyOp19
 70
     1
102
RTVSPropertyOp20
 70
     1
102
RTVSPropertyOp21
 70
     1
102
RTVSPropertyOp22
 70
     1
102
RTVSPropertyOp23
 70
     1
102
RTVSPropertyOp24
 70
     1
102
RTVSPropertyOp25
 70
     1
102
RTVSPropertyOp26
 70
     1
102
RTVSPropertyOp27
 70
     1
102
RTVSPropertyOp28
 70
     1
102
RTVSPropertyOp29
 70
     1
102
RTVSPropertyOp30
 70
     1
102
RTVSPropertyOp31
 70
     1
102
RTVSPropertyOp32
 70
     1
  0
XRECORD
  5
89F
102
{ACAD_REACTORS
330
89E
102
}
330
89E
100
AcDbXrecord
280
     1
102
RTVSPropertyOp0
 70
     1
102
RTVSPropertyOp1
 70
     1
102
RTVSPropertyOp2
 70
     1
102
RTVSPropertyOp3
 70
     1
102
RTVSPropertyOp4
 70
     1
102
RTVSPropertyOp5
 70
     1
102
RTVSPropertyOp6
 70
     1
102
RTVSPropertyOp7
 70
     1
102
RTVSPropertyOp8
 70
     1
102
RTVSPropertyOp9
 70
     1
102
RTVSPropertyOp10
 70
     1
102
RTVSPropertyOp11
 70
     1
102
RTVSPropertyOp12
 70
     1
102
RTVSPropertyOp13
 70
     1
102
RTVSPropertyOp14
 70
     1
102
RTVSPropertyOp15
 70
     1
102
RTVSPropertyOp16
 70
     1
102
RTVSPropertyOp17
 70
     1
102
RTVSPropertyOp18
 70
     1
102
RTVSPropertyOp19
 70
     1
102
RTVSPropertyOp20
 70
     1
102
RTVSPropertyOp21
 70
     1
102
RTVSPropertyOp22
 70
     1
102
RTVSPropertyOp23
 70
     1
102
RTVSPropertyOp24
 70
     1
102
RTVSPropertyOp25
 70
     1
102
RTVSPropertyOp26
 70
     1
102
RTVSPropertyOp27
 70
     1
102
RTVSPropertyOp28
 70
     1
102
RTVSPropertyOp29
 70
     1
102
RTVSPropertyOp30
 70
     1
102
RTVSPropertyOp31
 70
     1
102
RTVSPropertyOp32
 70
     1
  0
XRECORD
  5
8A7
102
{ACAD_REACTORS
330
8A6
102
}
330
8A6
100
AcDbXrecord
280
     1
102
RTVSPropertyOp0
 70
     1
102
RTVSPropertyOp1
 70
     1
102
RTVSPropertyOp2
 70
     1
102
RTVSPropertyOp3
 70
     1
102
RTVSPropertyOp4
 70
     1
102
RTVSPropertyOp5
 70
     1
102
RTVSPropertyOp6
 70
     1
102
RTVSPropertyOp7
 70
     1
102
RTVSPropertyOp8
 70
     1
102
RTVSPropertyOp9
 70
     1
102
RTVSPropertyOp10
 70
     1
102
RTVSPropertyOp11
 70
     1
102
RTVSPropertyOp12
 70
     1
102
RTVSPropertyOp13
 70
     1
102
RTVSPropertyOp14
 70
     1
102
RTVSPropertyOp15
 70
     1
102
RTVSPropertyOp16
 70
     1
102
RTVSPropertyOp17
 70
     1
102
RTVSPropertyOp18
 70
     1
102
RTVSPropertyOp19
 70
     1
102
RTVSPropertyOp20
 70
     1
102
RTVSPropertyOp21
 70
     1
102
RTVSPropertyOp22
 70
     1
102
RTVSPropertyOp23
 70
     1
102
RTVSPropertyOp24
 70
     1
102
RTVSPropertyOp25
 70
     1
102
RTVSPropertyOp26
 70
     1
102
RTVSPropertyOp27
 70
     1
102
RTVSPropertyOp28
 70
     1
102
RTVSPropertyOp29
 70
     1
102
RTVSPropertyOp30
 70
     1
102
RTVSPropertyOp31
 70
     1
102
RTVSPropertyOp32
 70
     1
  0
XRECORD
  5
8C3
102
{ACAD_REACTORS
330
8C2
102
}
330
8C2
100
AcDbXrecord
280
     1
102
RTVSPropertyOp0
 70
     0
102
RTVSPropertyOp1
 70
     0
102
RTVSPropertyOp2
 70
     0
102
RTVSPropertyOp3
 70
     0
102
RTVSPropertyOp4
 70
     0
102
RTVSPropertyOp5
 70
     0
102
RTVSPropertyOp6
 70
     0
102
RTVSPropertyOp7
 70
     0
102
RTVSPropertyOp8
 70
     0
102
RTVSPropertyOp9
 70
     0
102
RTVSPropertyOp10
 70
     0
102
RTVSPropertyOp11
 70
     0
102
RTVSPropertyOp12
 70
     0
102
RTVSPropertyOp13
 70
     0
102
RTVSPropertyOp14
 70
     2
102
RTVSPropertyOp15
 70
     0
102
RTVSPropertyOp16
 70
     0
102
RTVSPropertyOp17
 70
     0
102
RTVSPropertyOp18
 70
     0
102
RTVSPropertyOp19
 70
     0
102
RTVSPropertyOp20
 70
     0
102
RTVSPropertyOp21
 70
     0
102
RTVSPropertyOp22
 70
     0
102
RTVSPropertyOp23
 70
     0
102
RTVSPropertyOp24
 70
     0
102
RTVSPropertyOp25
 70
     0
102
RTVSPropertyOp26
 70
     0
102
RTVSPropertyOp27
 70
     0
102
RTVSPropertyOp28
 70
     1
102
RTVSPropertyOp29
 70
     1
102
RTVSPropertyOp30
 70
     1
102
RTVSPropertyOp31
 70
     1
102
RTVSPropertyOp32
 70
     1
  0
XRECORD
  5
8B3
102
{ACAD_REACTORS
330
8B2
102
}
330
8B2
100
AcDbXrecord
280
     1
102
RTVSPropertyOp0
 70
     1
102
RTVSPropertyOp1
 70
     1
102
RTVSPropertyOp2
 70
     1
102
RTVSPropertyOp3
 70
     1
102
RTVSPropertyOp4
 70
     1
102
RTVSPropertyOp5
 70
     1
102
RTVSPropertyOp6
 70
     1
102
RTVSPropertyOp7
 70
     1
102
RTVSPropertyOp8
 70
     1
102
RTVSPropertyOp9
 70
     1
102
RTVSPropertyOp10
 70
     1
102
RTVSPropertyOp11
 70
     1
102
RTVSPropertyOp12
 70
     1
102
RTVSPropertyOp13
 70
     1
102
RTVSPropertyOp14
 70
     1
102
RTVSPropertyOp15
 70
     1
102
RTVSPropertyOp16
 70
     1
102
RTVSPropertyOp17
 70
     1
102
RTVSPropertyOp18
 70
     1
102
RTVSPropertyOp19
 70
     1
102
RTVSPropertyOp20
 70
     1
102
RTVSPropertyOp21
 70
     1
102
RTVSPropertyOp22
 70
     1
102
RTVSPropertyOp23
 70
     1
102
RTVSPropertyOp24
 70
     1
102
RTVSPropertyOp25
 70
     1
102
RTVSPropertyOp26
 70
     1
102
RTVSPropertyOp27
 70
     1
102
RTVSPropertyOp28
 70
     1
102
RTVSPropertyOp29
 70
     1
102
RTVSPropertyOp30
 70
     1
102
RTVSPropertyOp31
 70
     1
102
RTVSPropertyOp32
 70
     1
  0
XRECORD
  5
8C5
102
{ACAD_REACTORS
330
8C4
102
}
330
8C4
100
AcDbXrecord
280
     1
102
RTVSPropertyOp0
 70
     0
102
RTVSPropertyOp1
 70
     0
102
RTVSPropertyOp2
 70
     0
102
RTVSPropertyOp3
 70
     0
102
RTVSPropertyOp4
 70
     0
102
RTVSPropertyOp5
 70
     0
102
RTVSPropertyOp6
 70
     0
102
RTVSPropertyOp7
 70
     0
102
RTVSPropertyOp8
 70
     0
102
RTVSPropertyOp9
 70
     0
102
RTVSPropertyOp10
 70
     0
102
RTVSPropertyOp11
 70
     0
102
RTVSPropertyOp12
 70
     0
102
RTVSPropertyOp13
 70
     0
102
RTVSPropertyOp14
 70
     2
102
RTVSPropertyOp15
 70
     0
102
RTVSPropertyOp16
 70
     0
102
RTVSPropertyOp17
 70
     0
102
RTVSPropertyOp18
 70
     0
102
RTVSPropertyOp19
 70
     0
102
RTVSPropertyOp20
 70
     0
102
RTVSPropertyOp21
 70
     0
102
RTVSPropertyOp22
 70
     0
102
RTVSPropertyOp23
 70
     0
102
RTVSPropertyOp24
 70
     0
102
RTVSPropertyOp25
 70
     0
102
RTVSPropertyOp26
 70
     0
102
RTVSPropertyOp27
 70
     0
102
RTVSPropertyOp28
 70
     1
102
RTVSPropertyOp29
 70
     1
102
RTVSPropertyOp30
 70
     1
102
RTVSPropertyOp31
 70
     1
102
RTVSPropertyOp32
 70
     1
  0
XRECORD
  5
8AB
102
{ACAD_REACTORS
330
8AA
102
}
330
8AA
100
AcDbXrecord
280
     1
102
RTVSPropertyOp0
 70
     1
102
RTVSPropertyOp1
 70
     1
102
RTVSPropertyOp2
 70
     1
102
RTVSPropertyOp3
 70
     1
102
RTVSPropertyOp4
 70
     1
102
RTVSPropertyOp5
 70
     1
102
RTVSPropertyOp6
 70
     1
102
RTVSPropertyOp7
 70
     1
102
RTVSPropertyOp8
 70
     1
102
RTVSPropertyOp9
 70
     1
102
RTVSPropertyOp10
 70
     1
102
RTVSPropertyOp11
 70
     1
102
RTVSPropertyOp12
 70
     1
102
RTVSPropertyOp13
 70
     1
102
RTVSPropertyOp14
 70
     1
102
RTVSPropertyOp15
 70
     1
102
RTVSPropertyOp16
 70
     1
102
RTVSPropertyOp17
 70
     1
102
RTVSPropertyOp18
 70
     1
102
RTVSPropertyOp19
 70
     1
102
RTVSPropertyOp20
 70
     1
102
RTVSPropertyOp21
 70
     1
102
RTVSPropertyOp22
 70
     1
102
RTVSPropertyOp23
 70
     1
102
RTVSPropertyOp24
 70
     1
102
RTVSPropertyOp25
 70
     1
102
RTVSPropertyOp26
 70
     1
102
RTVSPropertyOp27
 70
     1
102
RTVSPropertyOp28
 70
     1
102
RTVSPropertyOp29
 70
     1
102
RTVSPropertyOp30
 70
     1
102
RTVSPropertyOp31
 70
     1
102
RTVSPropertyOp32
 70
     1
  0
XRECORD
  5
8C1
102
{ACAD_REACTORS
330
8C0
102
}
330
8C0
100
AcDbXrecord
280
     1
102
RTVSPropertyOp0
 70
     1
102
RTVSPropertyOp1
 70
     1
102
RTVSPropertyOp2
 70
     1
102
RTVSPropertyOp3
 70
     1
102
RTVSPropertyOp4
 70
     1
102
RTVSPropertyOp5
 70
     1
102
RTVSPropertyOp6
 70
     1
102
RTVSPropertyOp7
 70
     1
102
RTVSPropertyOp8
 70
     1
102
RTVSPropertyOp9
 70
     1
102
RTVSPropertyOp10
 70
     1
102
RTVSPropertyOp11
 70
     1
102
RTVSPropertyOp12
 70
     1
102
RTVSPropertyOp13
 70
     1
102
RTVSPropertyOp14
 70
     1
102
RTVSPropertyOp15
 70
     1
102
RTVSPropertyOp16
 70
     1
102
RTVSPropertyOp17
 70
     1
102
RTVSPropertyOp18
 70
     1
102
RTVSPropertyOp19
 70
     1
102
RTVSPropertyOp20
 70
     1
102
RTVSPropertyOp21
 70
     1
102
RTVSPropertyOp22
 70
     1
102
RTVSPropertyOp23
 70
     1
102
RTVSPropertyOp24
 70
     1
102
RTVSPropertyOp25
 70
     1
102
RTVSPropertyOp26
 70
     1
102
RTVSPropertyOp27
 70
     1
102
RTVSPropertyOp28
 70
     1
102
RTVSPropertyOp29
 70
     1
102
RTVSPropertyOp30
 70
     1
102
RTVSPropertyOp31
 70
     1
102
RTVSPropertyOp32
 70
     1
  0
XRECORD
  5
8BF
102
{ACAD_REACTORS
330
8BE
102
}
330
8BE
100
AcDbXrecord
280
     1
102
RTVSPropertyOp0
 70
     1
102
RTVSPropertyOp1
 70
     1
102
RTVSPropertyOp2
 70
     1
102
RTVSPropertyOp3
 70
     1
102
RTVSPropertyOp4
 70
     1
102
RTVSPropertyOp5
 70
     1
102
RTVSPropertyOp6
 70
     1
102
RTVSPropertyOp7
 70
     1
102
RTVSPropertyOp8
 70
     1
102
RTVSPropertyOp9
 70
     1
102
RTVSPropertyOp10
 70
     1
102
RTVSPropertyOp11
 70
     1
102
RTVSPropertyOp12
 70
     1
102
RTVSPropertyOp13
 70
     1
102
RTVSPropertyOp14
 70
     1
102
RTVSPropertyOp15
 70
     1
102
RTVSPropertyOp16
 70
     1
102
RTVSPropertyOp17
 70
     1
102
RTVSPropertyOp18
 70
     1
102
RTVSPropertyOp19
 70
     1
102
RTVSPropertyOp20
 70
     1
102
RTVSPropertyOp21
 70
     1
102
RTVSPropertyOp22
 70
     1
102
RTVSPropertyOp23
 70
     1
102
RTVSPropertyOp24
 70
     1
102
RTVSPropertyOp25
 70
     1
102
RTVSPropertyOp26
 70
     1
102
RTVSPropertyOp27
 70
     1
102
RTVSPropertyOp28
 70
     1
102
RTVSPropertyOp29
 70
     1
102
RTVSPropertyOp30
 70
     1
102
RTVSPropertyOp31
 70
     1
102
RTVSPropertyOp32
 70
     1
  0
XRECORD
  5
8B9
102
{ACAD_REACTORS
330
8B8
102
}
330
8B8
100
AcDbXrecord
280
     1
102
RTVSPropertyOp0
 70
     1
102
RTVSPropertyOp1
 70
     1
102
RTVSPropertyOp2
 70
     1
102
RTVSPropertyOp3
 70
     1
102
RTVSPropertyOp4
 70
     1
102
RTVSPropertyOp5
 70
     1
102
RTVSPropertyOp6
 70
     1
102
RTVSPropertyOp7
 70
     1
102
RTVSPropertyOp8
 70
     1
102
RTVSPropertyOp9
 70
     1
102
RTVSPropertyOp10
 70
     1
102
RTVSPropertyOp11
 70
     1
102
RTVSPropertyOp12
 70
     1
102
RTVSPropertyOp13
 70
     1
102
RTVSPropertyOp14
 70
     1
102
RTVSPropertyOp15
 70
     1
102
RTVSPropertyOp16
 70
     1
102
RTVSPropertyOp17
 70
     1
102
RTVSPropertyOp18
 70
     1
102
RTVSPropertyOp19
 70
     1
102
RTVSPropertyOp20
 70
     1
102
RTVSPropertyOp21
 70
     1
102
RTVSPropertyOp22
 70
     1
102
RTVSPropertyOp23
 70
     1
102
RTVSPropertyOp24
 70
     1
102
RTVSPropertyOp25
 70
     1
102
RTVSPropertyOp26
 70
     1
102
RTVSPropertyOp27
 70
     1
102
RTVSPropertyOp28
 70
     1
102
RTVSPropertyOp29
 70
     1
102
RTVSPropertyOp30
 70
     1
102
RTVSPropertyOp31
 70
     1
102
RTVSPropertyOp32
 70
     1
  0
XRECORD
  5
8BB
102
{ACAD_REACTORS
330
8BA
102
}
330
8BA
100
AcDbXrecord
280
     1
102
RTVSPropertyOp0
 70
     1
102
RTVSPropertyOp1
 70
     1
102
RTVSPropertyOp2
 70
     1
102
RTVSPropertyOp3
 70
     1
102
RTVSPropertyOp4
 70
     1
102
RTVSPropertyOp5
 70
     1
102
RTVSPropertyOp6
 70
     1
102
RTVSPropertyOp7
 70
     1
102
RTVSPropertyOp8
 70
     1
102
RTVSPropertyOp9
 70
     1
102
RTVSPropertyOp10
 70
     1
102
RTVSPropertyOp11
 70
     1
102
RTVSPropertyOp12
 70
     1
102
RTVSPropertyOp13
 70
     1
102
RTVSPropertyOp14
 70
     1
102
RTVSPropertyOp15
 70
     1
102
RTVSPropertyOp16
 70
     1
102
RTVSPropertyOp17
 70
     1
102
RTVSPropertyOp18
 70
     1
102
RTVSPropertyOp19
 70
     1
102
RTVSPropertyOp20
 70
     1
102
RTVSPropertyOp21
 70
     1
102
RTVSPropertyOp22
 70
     1
102
RTVSPropertyOp23
 70
     1
102
RTVSPropertyOp24
 70
     1
102
RTVSPropertyOp25
 70
     1
102
RTVSPropertyOp26
 70
     1
102
RTVSPropertyOp27
 70
     1
102
RTVSPropertyOp28
 70
     1
102
RTVSPropertyOp29
 70
     1
102
RTVSPropertyOp30
 70
     1
102
RTVSPropertyOp31
 70
     1
102
RTVSPropertyOp32
 70
     1
  0
XRECORD
  5
8B1
102
{ACAD_REACTORS
330
8B0
102
}
330
8B0
100
AcDbXrecord
280
     1
102
RTVSPropertyOp0
 70
     1
102
RTVSPropertyOp1
 70
     1
102
RTVSPropertyOp2
 70
     1
102
RTVSPropertyOp3
 70
     1
102
RTVSPropertyOp4
 70
     1
102
RTVSPropertyOp5
 70
     1
102
RTVSPropertyOp6
 70
     1
102
RTVSPropertyOp7
 70
     1
102
RTVSPropertyOp8
 70
     1
102
RTVSPropertyOp9
 70
     1
102
RTVSPropertyOp10
 70
     1
102
RTVSPropertyOp11
 70
     1
102
RTVSPropertyOp12
 70
     1
102
RTVSPropertyOp13
 70
     1
102
RTVSPropertyOp14
 70
     1
102
RTVSPropertyOp15
 70
     1
102
RTVSPropertyOp16
 70
     1
102
RTVSPropertyOp17
 70
     1
102
RTVSPropertyOp18
 70
     1
102
RTVSPropertyOp19
 70
     1
102
RTVSPropertyOp20
 70
     1
102
RTVSPropertyOp21
 70
     1
102
RTVSPropertyOp22
 70
     1
102
RTVSPropertyOp23
 70
     1
102
RTVSPropertyOp24
 70
     1
102
RTVSPropertyOp25
 70
     1
102
RTVSPropertyOp26
 70
     1
102
RTVSPropertyOp27
 70
     1
102
RTVSPropertyOp28
 70
     1
102
RTVSPropertyOp29
 70
     1
102
RTVSPropertyOp30
 70
     1
102
RTVSPropertyOp31
 70
     1
102
RTVSPropertyOp32
 70
     1
  0
XRECORD
  5
8A5
102
{ACAD_REACTORS
330
8A4
102
}
330
8A4
100
AcDbXrecord
280
     1
102
RTVSPropertyOp0
 70
     1
102
RTVSPropertyOp1
 70
     1
102
RTVSPropertyOp2
 70
     1
102
RTVSPropertyOp3
 70
     1
102
RTVSPropertyOp4
 70
     1
102
RTVSPropertyOp5
 70
     1
102
RTVSPropertyOp6
 70
     1
102
RTVSPropertyOp7
 70
     1
102
RTVSPropertyOp8
 70
     1
102
RTVSPropertyOp9
 70
     1
102
RTVSPropertyOp10
 70
     1
102
RTVSPropertyOp11
 70
     1
102
RTVSPropertyOp12
 70
     1
102
RTVSPropertyOp13
 70
     1
102
RTVSPropertyOp14
 70
     1
102
RTVSPropertyOp15
 70
     1
102
RTVSPropertyOp16
 70
     1
102
RTVSPropertyOp17
 70
     1
102
RTVSPropertyOp18
 70
     1
102
RTVSPropertyOp19
 70
     1
102
RTVSPropertyOp20
 70
     1
102
RTVSPropertyOp21
 70
     1
102
RTVSPropertyOp22
 70
     1
102
RTVSPropertyOp23
 70
     1
102
RTVSPropertyOp24
 70
     1
102
RTVSPropertyOp25
 70
     1
102
RTVSPropertyOp26
 70
     1
102
RTVSPropertyOp27
 70
     1
102
RTVSPropertyOp28
 70
     1
102
RTVSPropertyOp29
 70
     1
102
RTVSPropertyOp30
 70
     1
102
RTVSPropertyOp31
 70
     1
102
RTVSPropertyOp32
 70
     1
  0
XRECORD
  5
8BD
102
{ACAD_REACTORS
330
8BC
102
}
330
8BC
100
AcDbXrecord
280
     1
102
RTVSPropertyOp0
 70
     1
102
RTVSPropertyOp1
 70
     1
102
RTVSPropertyOp2
 70
     1
102
RTVSPropertyOp3
 70
     1
102
RTVSPropertyOp4
 70
     1
102
RTVSPropertyOp5
 70
     1
102
RTVSPropertyOp6
 70
     1
102
RTVSPropertyOp7
 70
     1
102
RTVSPropertyOp8
 70
     1
102
RTVSPropertyOp9
 70
     1
102
RTVSPropertyOp10
 70
     1
102
RTVSPropertyOp11
 70
     1
102
RTVSPropertyOp12
 70
     1
102
RTVSPropertyOp13
 70
     1
102
RTVSPropertyOp14
 70
     1
102
RTVSPropertyOp15
 70
     1
102
RTVSPropertyOp16
 70
     1
102
RTVSPropertyOp17
 70
     1
102
RTVSPropertyOp18
 70
     1
102
RTVSPropertyOp19
 70
     1
102
RTVSPropertyOp20
 70
     1
102
RTVSPropertyOp21
 70
     1
102
RTVSPropertyOp22
 70
     1
102
RTVSPropertyOp23
 70
     1
102
RTVSPropertyOp24
 70
     1
102
RTVSPropertyOp25
 70
     1
102
RTVSPropertyOp26
 70
     1
102
RTVSPropertyOp27
 70
     1
102
RTVSPropertyOp28
 70
     1
102
RTVSPropertyOp29
 70
     1
102
RTVSPropertyOp30
 70
     1
102
RTVSPropertyOp31
 70
     1
102
RTVSPropertyOp32
 70
     1
  0
ENDSEC
  0
EOF
