  0
SECTION
  2
HEADER
  9
$ACADVER
  1
AC1015
  9
$ACADMAINTVER
 70
    18
  9
$DWGCODEPAGE
  3
ANSI_1252
  9
$INSBASE
 10
0.0
 20
0.0
 30
0.0
  9
$EXTMIN
 10
0.0
 20
0.0
 30
0.0
  9
$EXTMAX
 10
27.41935483870968
 20
17.74193548387097
 30
0.0
  9
$LIMMIN
 10
0.0
 20
0.0
  9
$LIMMAX
 10
27.41935483870968
 20
17.74193548387097
  9
$ORTHOMODE
 70
     0
  9
$REGENMODE
 70
     1
  9
$FILLMODE
 70
     1
  9
$QTEXTMODE
 70
     0
  9
$MIRRTEXT
 70
     0
  9
$LTSCALE
 40
1.612903225806451
  9
$ATTMODE
 70
     1
  9
$TEXTSIZE
 40
0.2
  9
$TRACEWID
 40
0.05
  9
$TEXTSTYLE
  7
Standard
  9
$CLAYER
  8
0
  9
$CELTYPE
  6
ByLayer
  9
$CECOLOR
 62
   256
  9
$CELTSCALE
 40
1.0
  9
$DISPSILH
 70
     0
  9
$DIMSCALE
 40
1.0
  9
$DIMASZ
 40
0.0708661417322835
  9
$DIMEXO
 40
0.0625
  9
$DIMDLI
 40
0.38
  9
$DIMRND
 40
0.0
  9
$DIMDLE
 40
0.0
  9
$DIMEXE
 40
0.18
  9
$DIMTP
 40
0.0
  9
$DIMTM
 40
0.0
  9
$DIMTXT
 40
0.0708661417322835
  9
$DIMCEN
 40
0.09
  9
$DIMTSZ
 40
0.0
  9
$DIMTOL
 70
     0
  9
$DIMLIM
 70
     0
  9
$DIMTIH
 70
     1
  9
$DIMTOH
 70
     1
  9
$DIMSE1
 70
     0
  9
$DIMSE2
 70
     0
  9
$DIMTAD
 70
     0
  9
$DIMZIN
 70
     0
  9
$DIMBLK
  1

  9
$DIMASO
 70
     1
  9
$DIMSHO
 70
     1
  9
$DIMPOST
  1

  9
$DIMAPOST
  1

  9
$DIMALT
 70
     0
  9
$DIMALTD
 70
     2
  9
$DIMALTF
 40
25.4
  9
$DIMLFAC
 40
1.0
  9
$DIMTOFL
 70
     0
  9
$DIMTVP
 40
0.0
  9
$DIMTIX
 70
     0
  9
$DIMSOXD
 70
     0
  9
$DIMSAH
 70
     0
  9
$DIMBLK1
  1

  9
$DIMBLK2
  1

  9
$DIMSTYLE
  2
STANDARD
  9
$DIMCLRD
 70
     0
  9
$DIMCLRE
 70
     0
  9
$DIMCLRT
 70
     0
  9
$DIMTFAC
 40
1.0
  9
$DIMGAP
 40
0.09
  9
$DIMJUST
 70
     0
  9
$DIMSD1
 70
     0
  9
$DIMSD2
 70
     0
  9
$DIMTOLJ
 70
     1
  9
$DIMTZIN
 70
     0
  9
$DIMALTZ
 70
     0
  9
$DIMALTTZ
 70
     0
  9
$DIMUPT
 70
     0
  9
$DIMDEC
 70
     4
  9
$DIMTDEC
 70
     4
  9
$DIMALTU
 70
     2
  9
$DIMALTTD
 70
     2
  9
$DIMTXSTY
  7
Standard
  9
$DIMAUNIT
 70
     0
  9
$DIMADEC
 70
     0
  9
$DIMALTRND
 40
0.0
  9
$DIMAZIN
 70
     0
  9
$DIMDSEP
 70
    46
  9
$DIMATFIT
 70
     3
  9
$DIMFRAC
 70
     0
  9
$DIMLDRBLK
  1

  9
$DIMLUNIT
 70
     2
  9
$DIMLWD
 70
    -2
  9
$DIMLWE
 70
    -2
  9
$DIMTMOVE
 70
     0
  9
$LUNITS
 70
     2
  9
$LUPREC
 70
     4
  9
$SKETCHINC
 40
0.1
  9
$FILLETRAD
 40
0.0
  9
$AUNITS
 70
     0
  9
$AUPREC
 70
     0
  9
$MENU
  1
.
  9
$ELEVATION
 40
0.0
  9
$PELEVATION
 40
0.0
  9
$THICKNESS
 40
0.0
  9
$LIMCHECK
 70
     0
  9
$CHAMFERA
 40
0.0
  9
$CHAMFERB
 40
0.0
  9
$CHAMFERC
 40
0.0
  9
$CHAMFERD
 40
0.0
  9
$SKPOLY
 70
     0
  9
$TDCREATE
 40
2455952.416136458
  9
$TDUCREATE
 40
2455952.666136459
  9
$TDUPDATE
 40
2455952.416136458
  9
$TDUUPDATE
 40
2455952.666136459
  9
$TDINDWG
 40
0.0000394213
  9
$TDUSRTIMER
 40
0.0000394213
  9
$USRTIMER
 70
     1
  9
$ANGBASE
 50
0.0
  9
$ANGDIR
 70
     0
  9
$PDMODE
 70
     0
  9
$PDSIZE
 40
0.0
  9
$PLINEWID
 40
0.0
  9
$SPLFRAME
 70
     0
  9
$SPLINETYPE
 70
     6
  9
$SPLINESEGS
 70
     8
  9
$HANDSEED
  5
8E9
  9
$SURFTAB1
 70
     6
  9
$SURFTAB2
 70
     6
  9
$SURFTYPE
 70
     6
  9
$SURFU
 70
     6
  9
$SURFV
 70
     6
  9
$UCSBASE
  2

  9
$UCSNAME
  2

  9
$UCSORG
 10
0.0
 20
0.0
 30
0.0
  9
$UCSXDIR
 10
1.0
 20
0.0
 30
0.0
  9
$UCSYDIR
 10
0.0
 20
1.0
 30
0.0
  9
$UCSORTHOREF
  2

  9
$UCSORTHOVIEW
 70
     0
  9
$UCSORGTOP
 10
0.0
 20
0.0
 30
0.0
  9
$UCSORGBOTTOM
 10
0.0
 20
0.0
 30
0.0
  9
$UCSORGLEFT
 10
0.0
 20
0.0
 30
0.0
  9
$UCSORGRIGHT
 10
0.0
 20
0.0
 30
0.0
  9
$UCSORGFRONT
 10
0.0
 20
0.0
 30
0.0
  9
$UCSORGBACK
 10
0.0
 20
0.0
 30
0.0
  9
$PUCSBASE
  2

  9
$PUCSNAME
  2

  9
$PUCSORG
 10
0.0
 20
0.0
 30
0.0
  9
$PUCSXDIR
 10
1.0
 20
0.0
 30
0.0
  9
$PUCSYDIR
 10
0.0
 20
1.0
 30
0.0
  9
$PUCSORTHOREF
  2

  9
$PUCSORTHOVIEW
 70
     0
  9
$PUCSORGTOP
 10
0.0
 20
0.0
 30
0.0
  9
$PUCSORGBOTTOM
 10
0.0
 20
0.0
 30
0.0
  9
$PUCSORGLEFT
 10
0.0
 20
0.0
 30
0.0
  9
$PUCSORGRIGHT
 10
0.0
 20
0.0
 30
0.0
  9
$PUCSORGFRONT
 10
0.0
 20
0.0
 30
0.0
  9
$PUCSORGBACK
 10
0.0
 20
0.0
 30
0.0
  9
$USERI1
 70
     0
  9
$USERI2
 70
     0
  9
$USERI3
 70
     0
  9
$USERI4
 70
     0
  9
$USERI5
 70
     0
  9
$USERR1
 40
0.0
  9
$USERR2
 40
0.0
  9
$USERR3
 40
0.0
  9
$USERR4
 40
0.0
  9
$USERR5
 40
0.0
  9
$WORLDVIEW
 70
     1
  9
$SHADEDGE
 70
     3
  9
$SHADEDIF
 70
    70
  9
$TILEMODE
 70
     1
  9
$MAXACTVP
 70
    64
  9
$PINSBASE
 10
0.0
 20
0.0
 30
0.0
  9
$PLIMCHECK
 70
     0
  9
$PEXTMIN
 10
0.0
 20
0.0
 30
0.0
  9
$PEXTMAX
 10
27.41935483870968
 20
17.74193548387097
 30
0.0
  9
$PLIMMIN
 10
0.0
 20
0.0
  9
$PLIMMAX
 10
27.41935483870968
 20
17.74193548387097
  9
$UNITMODE
 70
     0
  9
$VISRETAIN
 70
     1
  9
$PLINEGEN
 70
     0
  9
$PSLTSCALE
 70
     1
  9
$TREEDEPTH
 70
  3020
  9
$CMLSTYLE
  2
Standard
  9
$CMLJUST
 70
     0
  9
$CMLSCALE
 40
1.0
  9
$PROXYGRAPHICS
 70
     1
  9
$MEASUREMENT
 70
     0
  9
$CELWEIGHT
370
    -1
  9
$ENDCAPS
280
     0
  9
$JOINSTYLE
280
     0
  9
$LWDISPLAY
290
     0
  9
$INSUNITS
 70
     1
  9
$HYPERLINKBASE
  1

  9
$STYLESHEET
  1

  9
$XEDIT
290
     1
  9
$CEPSNTYPE
380
     0
  9
$PSTYLEMODE
290
     1
  9
$FINGERPRINTGUID
  2
{AF25BAF2-8016-4FB8-945C-20D66C94D4B0}
  9
$VERSIONGUID
  2
{27242300-9D11-4A04-B8D2-569616049A2E}
  9
$EXTNAMES
290
     1
  9
$PSVPSCALE
 40
0.0
  9
$OLESTARTUP
290
     0
  0
ENDSEC
  0
SECTION
  2
CLASSES
  0
CLASS
  1
ACDBDICTIONARYWDFLT
  2
AcDbDictionaryWithDefault
  3
ObjectDBX Classes
 90
        0
280
     0
281
     0
  0
CLASS
  1
MATERIAL
  2
AcDbMaterial
  3
ObjectDBX Classes
 90
     1153
280
     0
281
     0
  0
CLASS
  1
VISUALSTYLE
  2
AcDbVisualStyle
  3
ObjectDBX Classes
 90
     4095
280
     0
281
     0
  0
CLASS
  1
SCALE
  2
AcDbScale
  3
ObjectDBX Classes
 90
     1153
280
     0
281
     0
  0
CLASS
  1
TABLESTYLE
  2
AcDbTableStyle
  3
ObjectDBX Classes
 90
     4095
280
     0
281
     0
  0
CLASS
  1
MLEADERSTYLE
  2
AcDbMLeaderStyle
  3
ACDB_MLEADERSTYLE_CLASS
 90
     4095
280
     0
281
     0
  0
CLASS
  1
DICTIONARYVAR
  2
AcDbDictionaryVar
  3
ObjectDBX Classes
 90
        0
280
     0
281
     0
  0
CLASS
  1
CELLSTYLEMAP
  2
AcDbCellStyleMap
  3
ObjectDBX Classes
 90
     1152
280
     0
281
     0
  0
CLASS
  1
ACDBPLACEHOLDER
  2
AcDbPlaceHolder
  3
ObjectDBX Classes
 90
        0
280
     0
281
     0
  0
CLASS
  1
LAYOUT
  2
AcDbLayout
  3
ObjectDBX Classes
 90
        0
280
     0
281
     0
  0
ENDSEC
  0
SECTION
  2
TABLES
  0
TABLE
  2
VPORT
  5
8
330
0
100
AcDbSymbolTable
 70
     1
  0
VPORT
  5
57
330
8
100
AcDbSymbolTableRecord
100
AcDbViewportTableRecord
  2
*Active
 70
     0
 10
0.0
 20
0.0
 11
1.0
 21
1.0
 12
13.70967741935484
 22
8.870967741935483
 13
0.0
 23
0.0
 14
1.0
 24
1.0
 15
0.0
 25
0.0
 16
0.0
 26
0.0
 36
1.0
 17
0.0
 27
0.0
 37
0.0
 40
17.74193548387097
 41
1.545454545454545
 42
50.0
 43
0.0
 44
0.0
 50
0.0
 51
0.0
 71
     0
 72
   100
 73
     1
 74
     1
 75
     0
 76
     0
 77
     0
 78
     0
281
     0
 65
     1
110
0.0
120
0.0
130
0.0
111
1.0
121
0.0
131
0.0
112
0.0
122
1.0
132
0.0
 79
     0
146
0.0
  0
ENDTAB
  0
TABLE
  2
LTYPE
  5
5
330
0
100
AcDbSymbolTable
 70
    59
  0
LTYPE
  5
5B
330
5
100
AcDbSymbolTableRecord
100
AcDbLinetypeTableRecord
  2
ByBlock
 70
     0
  3

 72
    65
 73
     0
 40
0.0
  0
LTYPE
  5
5C
330
5
100
AcDbSymbolTableRecord
100
AcDbLinetypeTableRecord
  2
ByLayer
 70
     0
  3

 72
    65
 73
     0
 40
0.0
  0
LTYPE
  5
5D
330
5
100
AcDbSymbolTableRecord
100
AcDbLinetypeTableRecord
  2
Continuous
 70
     0
  3
Solid line
 72
    65
 73
     0
 40
0.0
  0
LTYPE
  5
7C
330
5
100
AcDbSymbolTableRecord
100
AcDbLinetypeTableRecord
  2
BY_STANDARD
 70
     0
  3
By Standard ____________    ____    ____   _
 72
    65
 73
     6
 40
1.240299999999999
 49
0.6614
 74
     0
 49
-0.0827
 74
     0
 49
0.1654
 74
     0
 49
-0.0827
 74
     0
 49
0.1654
 74
     0
 49
-0.0827
 74
     0
  0
LTYPE
  5
7D
330
5
100
AcDbSymbolTableRecord
100
AcDbLinetypeTableRecord
  2
CHAIN
 70
     0
  3
Chain ____ _ ____ _ ____ _ ____ _ ____ _ ____
 72
    65
 73
     4
 40
0.7087
 49
0.4724000000000001
 74
     0
 49
-0.0591
 74
     0
 49
0.1181
 74
     0
 49
-0.0591
 74
     0
  0
LTYPE
  5
7E
330
5
100
AcDbSymbolTableRecord
100
AcDbLinetypeTableRecord
  2
DASH_DOT
 70
     0
  3
Dash dot __ . __ . __ . __ . __ . __ . __ . __
 72
    65
 73
     4
 40
0.37
 49
0.24
 74
     0
 49
-0.06
 74
     0
 49
0.01
 74
     0
 49
-0.06
 74
     0
  0
LTYPE
  5
7F
330
5
100
AcDbSymbolTableRecord
100
AcDbLinetypeTableRecord
  2
DOUBLE_DASH_DOT
 70
     0
  3
Double-Dash Dot __ __ . __ __ . __ __ . __ _
 72
    65
 73
     6
 40
0.4398
 49
0.24
 74
     0
 49
-0.06
 74
     0
 49
0.0098
 74
     0
 49
-0.06
 74
     0
 49
0.01
 74
     0
 49
-0.06
 74
     0
  0
LTYPE
  5
80
330
5
100
AcDbSymbolTableRecord
100
AcDbLinetypeTableRecord
  2
DASH_TRIPLE_DOT
 70
     0
  3
Dash Triple-Dot _ . . . _ . . . _ . . . _
 72
    65
 73
     8
 40
0.51
 49
0.24
 74
     0
 49
-0.06
 74
     0
 49
0.01
 74
     0
 49
-0.06
 74
     0
 49
0.01
 74
     0
 49
-0.06
 74
     0
 49
0.01
 74
     0
 49
-0.06
 74
     0
  0
LTYPE
  5
81
330
5
100
AcDbSymbolTableRecord
100
AcDbLinetypeTableRecord
  2
DASHED
 70
     0
  3
Dashed __ __ __ __ __ __ __ __ __ __ __ __ __ _
 72
    65
 73
     2
 40
0.2067
 49
0.1654
 74
     0
 49
-0.0413
 74
     0
  0
LTYPE
  5
82
330
5
100
AcDbSymbolTableRecord
100
AcDbLinetypeTableRecord
  2
DASH_DOUBLE_DOT
 70
     0
  3
Dash Double-Dot __ . . __ . . __ . . __ . .
 72
    65
 73
     6
 40
0.4398
 49
0.24
 74
     0
 49
-0.06
 74
     0
 49
0.0098
 74
     0
 49
-0.06
 74
     0
 49
0.01
 74
     0
 49
-0.06
 74
     0
  0
LTYPE
  5
83
330
5
100
AcDbSymbolTableRecord
100
AcDbLinetypeTableRecord
  2
DASHED_SPACE
 70
     0
  3
Dashed Space __ __ __ __ __ __ __ __ __ __ __ _
 72
    65
 73
     2
 40
0.2067
 49
0.1654
 74
     0
 49
-0.0413
 74
     0
  0
LTYPE
  5
84
330
5
100
AcDbSymbolTableRecord
100
AcDbLinetypeTableRecord
  2
DOTTED
 70
     0
  3
Dotted . . . . . . . . . . . . . . . . . . . . 
 72
    65
 73
     2
 40
0.0482
 49
0.0069
 74
     0
 49
-0.0413
 74
     0
  0
LTYPE
  5
85
330
5
100
AcDbSymbolTableRecord
100
AcDbLinetypeTableRecord
  2
DOUBLE_DASH_CHAIN
 70
     0
  3
Double-Dash Chain ______  __  __  ______  __  _
 72
    65
 73
     6
 40
1.240299999999999
 49
0.6614
 74
     0
 49
-0.0827
 74
     0
 49
0.1654
 74
     0
 49
-0.0827
 74
     0
 49
0.1654
 74
     0
 49
-0.0827
 74
     0
  0
LTYPE
  5
87
330
5
100
AcDbSymbolTableRecord
100
AcDbLinetypeTableRecord
  2
DOUBLE_DASH_DOUBLE_DOT
 70
     0
  3
Double-Dash Double-dot _ _ . . _ _ . . _
 72
    65
 73
     8
 40
0.7400000000000001
 49
0.24
 74
     0
 49
-0.06
 74
     0
 49
0.24
 74
     0
 49
-0.06
 74
     0
 49
0.01
 74
     0
 49
-0.06
 74
     0
 49
0.01
 74
     0
 49
-0.06
 74
     0
  0
LTYPE
  5
88
330
5
100
AcDbSymbolTableRecord
100
AcDbLinetypeTableRecord
  2
DOUBLE_DASH_TRIPLE_DOT
 70
     0
  3
Double Dash Triple Dot __ __ . . . __ __ . .
 72
    65
 73
    10
 40
0.8100000000000001
 49
0.24
 74
     0
 49
-0.06
 74
     0
 49
0.24
 74
     0
 49
-0.06
 74
     0
 49
0.01
 74
     0
 49
-0.06
 74
     0
 49
0.01
 74
     0
 49
-0.06
 74
     0
 49
0.01
 74
     0
 49
-0.06
 74
     0
  0
LTYPE
  5
89
330
5
100
AcDbSymbolTableRecord
100
AcDbLinetypeTableRecord
  2
LONG_DASH_DOTTED
 70
     0
  3
Long Dash Dotted ____ . ____ . ____ . ____ . _
 72
    65
 73
     4
 40
0.3543
 49
0.2362
 74
     0
 49
-0.0295
 74
     0
 49
0.0591
 74
     0
 49
-0.0295
 74
     0
  0
LTYPE
  5
8A
330
5
100
AcDbSymbolTableRecord
100
AcDbLinetypeTableRecord
  2
LONG_DASH_DOUBLE_DOT
 70
     0
  3
Long Dash Double Dot ________  .  .  ________  
 72
    65
 73
     6
 40
0.6799999999999999
 49
0.48
 74
     0
 49
-0.06
 74
     0
 49
0.01
 74
     0
 49
-0.06
 74
     0
 49
0.01
 74
     0
 49
-0.06
 74
     0
  0
LTYPE
  5
8B
330
5
100
AcDbSymbolTableRecord
100
AcDbLinetypeTableRecord
  2
LONG_DASH_TRIPLE_DOT
 70
     0
  3
Long Dash Triple Dot ____ ... ____ ... ____
 72
    65
 73
     8
 40
0.3689
 49
0.2362
 74
     0
 49
-0.0295
 74
     0
 49
0.0049
 74
     0
 49
-0.0295
 74
     0
 49
0.0049
 74
     0
 49
-0.0295
 74
     0
 49
0.0049
 74
     0
 49
-0.0295
 74
     0
  0
LTYPE
  5
8C
330
5
100
AcDbSymbolTableRecord
100
AcDbLinetypeTableRecord
  2
BORDER
 70
     0
  3
Border __ __ . __ __ . __ __ . __ __ . __ __ .
 72
    65
 73
     6
 40
1.75
 49
0.5
 74
     0
 49
-0.25
 74
     0
 49
0.5
 74
     0
 49
-0.25
 74
     0
 49
0.0
 74
     0
 49
-0.25
 74
     0
  0
LTYPE
  5
8D
330
5
100
AcDbSymbolTableRecord
100
AcDbLinetypeTableRecord
  2
BORDER2
 70
     0
  3
Border (.5x) __.__.__.__.__.__.__.__.__.__.__.
 72
    65
 73
     6
 40
0.875
 49
0.25
 74
     0
 49
-0.125
 74
     0
 49
0.25
 74
     0
 49
-0.125
 74
     0
 49
0.0
 74
     0
 49
-0.125
 74
     0
  0
LTYPE
  5
8E
330
5
100
AcDbSymbolTableRecord
100
AcDbLinetypeTableRecord
  2
BORDERX2
 70
     0
  3
Border (2x) ____  ____  .  ____  ____  .  ___
 72
    65
 73
     6
 40
3.5
 49
1.0
 74
     0
 49
-0.5
 74
     0
 49
1.0
 74
     0
 49
-0.5
 74
     0
 49
0.0
 74
     0
 49
-0.5
 74
     0
  0
LTYPE
  5
8F
330
5
100
AcDbSymbolTableRecord
100
AcDbLinetypeTableRecord
  2
CENTER
 70
     0
  3
Center ____ _ ____ _ ____ _ ____ _ ____ _ ____
 72
    65
 73
     4
 40
2.0
 49
1.25
 74
     0
 49
-0.25
 74
     0
 49
0.25
 74
     0
 49
-0.25
 74
     0
  0
LTYPE
  5
90
330
5
100
AcDbSymbolTableRecord
100
AcDbLinetypeTableRecord
  2
CENTER2
 70
     0
  3
Center (.5x) ___ _ ___ _ ___ _ ___ _ ___ _ ___
 72
    65
 73
     4
 40
1.125
 49
0.75
 74
     0
 49
-0.125
 74
     0
 49
0.125
 74
     0
 49
-0.125
 74
     0
  0
LTYPE
  5
91
330
5
100
AcDbSymbolTableRecord
100
AcDbLinetypeTableRecord
  2
CENTERX2
 70
     0
  3
Center (2x) ________  __  ________  __  _____
 72
    65
 73
     4
 40
4.0
 49
2.5
 74
     0
 49
-0.5
 74
     0
 49
0.5
 74
     0
 49
-0.5
 74
     0
  0
LTYPE
  5
92
330
5
100
AcDbSymbolTableRecord
100
AcDbLinetypeTableRecord
  2
DASHDOT2
 70
     0
  3
Dash dot (.5x) _._._._._._._._._._._._._._._.
 72
    65
 73
     4
 40
0.5
 49
0.25
 74
     0
 49
-0.125
 74
     0
 49
0.0
 74
     0
 49
-0.125
 74
     0
  0
LTYPE
  5
93
330
5
100
AcDbSymbolTableRecord
100
AcDbLinetypeTableRecord
  2
DASHDOTX2
 70
     0
  3
Dash dot (2x) ____  .  ____  .  ____  .  ___
 72
    65
 73
     4
 40
2.0
 49
1.0
 74
     0
 49
-0.5
 74
     0
 49
0.0
 74
     0
 49
-0.5
 74
     0
  0
LTYPE
  5
95
330
5
100
AcDbSymbolTableRecord
100
AcDbLinetypeTableRecord
  2
DASHED2
 70
     0
  3
Dashed (.5x) _ _ _ _ _ _ _ _ _ _ _ _ _ _ _ _ _
 72
    65
 73
     2
 40
0.375
 49
0.25
 74
     0
 49
-0.125
 74
     0
  0
LTYPE
  5
96
330
5
100
AcDbSymbolTableRecord
100
AcDbLinetypeTableRecord
  2
DASHEDX2
 70
     0
  3
Dashed (2x) ____  ____  ____  ____  ____  ___
 72
    65
 73
     2
 40
1.5
 49
1.0
 74
     0
 49
-0.5
 74
     0
  0
LTYPE
  5
97
330
5
100
AcDbSymbolTableRecord
100
AcDbLinetypeTableRecord
  2
DIVIDE
 70
     0
  3
Divide ____ . . ____ . . ____ . . ____ . . ____
 72
    65
 73
     6
 40
1.25
 49
0.5
 74
     0
 49
-0.25
 74
     0
 49
0.0
 74
     0
 49
-0.25
 74
     0
 49
0.0
 74
     0
 49
-0.25
 74
     0
  0
LTYPE
  5
98
330
5
100
AcDbSymbolTableRecord
100
AcDbLinetypeTableRecord
  2
DIVIDE2
 70
     0
  3
Divide (.5x) __..__..__..__..__..__..__..__.._
 72
    65
 73
     6
 40
0.625
 49
0.25
 74
     0
 49
-0.125
 74
     0
 49
0.0
 74
     0
 49
-0.125
 74
     0
 49
0.0
 74
     0
 49
-0.125
 74
     0
  0
LTYPE
  5
99
330
5
100
AcDbSymbolTableRecord
100
AcDbLinetypeTableRecord
  2
DIVIDEX2
 70
     0
  3
Divide (2x) ________  .  .  ________  .  .  _
 72
    65
 73
     6
 40
2.5
 49
1.0
 74
     0
 49
-0.5
 74
     0
 49
0.0
 74
     0
 49
-0.5
 74
     0
 49
0.0
 74
     0
 49
-0.5
 74
     0
  0
LTYPE
  5
9A
330
5
100
AcDbSymbolTableRecord
100
AcDbLinetypeTableRecord
  2
DOT
 70
     0
  3
Dot . . . . . . . . . . . . . . . . . . . . . .
 72
    65
 73
     2
 40
0.25
 49
0.0
 74
     0
 49
-0.25
 74
     0
  0
LTYPE
  5
9B
330
5
100
AcDbSymbolTableRecord
100
AcDbLinetypeTableRecord
  2
DOT2
 70
     0
  3
Dot (.5x) .....................................
 72
    65
 73
     2
 40
0.125
 49
0.0
 74
     0
 49
-0.125
 74
     0
  0
LTYPE
  5
9C
330
5
100
AcDbSymbolTableRecord
100
AcDbLinetypeTableRecord
  2
DOTX2
 70
     0
  3
Dot (2x) .  .  .  .  .  .  .  .  .  .  .  .  . 
 72
    65
 73
     2
 40
0.5
 49
0.0
 74
     0
 49
-0.5
 74
     0
  0
LTYPE
  5
9D
330
5
100
AcDbSymbolTableRecord
100
AcDbLinetypeTableRecord
  2
HIDDEN
 70
     0
  3
Hidden __ __ __ __ __ __ __ __ __ __ __ __ __ _
 72
    65
 73
     2
 40
0.375
 49
0.25
 74
     0
 49
-0.125
 74
     0
  0
LTYPE
  5
9E
330
5
100
AcDbSymbolTableRecord
100
AcDbLinetypeTableRecord
  2
HIDDEN2
 70
     0
  3
Hidden (.5x) _ _ _ _ _ _ _ _ _ _ _ _ _ _ _ _ _
 72
    65
 73
     2
 40
0.1875
 49
0.125
 74
     0
 49
-0.0625
 74
     0
  0
LTYPE
  5
9F
330
5
100
AcDbSymbolTableRecord
100
AcDbLinetypeTableRecord
  2
HIDDENX2
 70
     0
  3
Hidden (2x) ____ ____ ____ ____ ____ ____ ____
 72
    65
 73
     2
 40
0.75
 49
0.5
 74
     0
 49
-0.25
 74
     0
  0
LTYPE
  5
A0
330
5
100
AcDbSymbolTableRecord
100
AcDbLinetypeTableRecord
  2
PHANTOM
 70
     0
  3
Phantom ______  __  __  ______  __  __  ______
 72
    65
 73
     6
 40
2.5
 49
1.25
 74
     0
 49
-0.25
 74
     0
 49
0.25
 74
     0
 49
-0.25
 74
     0
 49
0.25
 74
     0
 49
-0.25
 74
     0
  0
LTYPE
  5
A1
330
5
100
AcDbSymbolTableRecord
100
AcDbLinetypeTableRecord
  2
PHANTOM2
 70
     0
  3
Phantom (.5x) ___ _ _ ___ _ _ ___ _ _ ___ _ _
 72
    65
 73
     6
 40
1.25
 49
0.625
 74
     0
 49
-0.125
 74
     0
 49
0.125
 74
     0
 49
-0.125
 74
     0
 49
0.125
 74
     0
 49
-0.125
 74
     0
  0
LTYPE
  5
A2
330
5
100
AcDbSymbolTableRecord
100
AcDbLinetypeTableRecord
  2
PHANTOMX2
 70
     0
  3
Phantom (2x) ____________    ____    ____   _
 72
    65
 73
     6
 40
5.0
 49
2.5
 74
     0
 49
-0.5
 74
     0
 49
0.5
 74
     0
 49
-0.5
 74
     0
 49
0.5
 74
     0
 49
-0.5
 74
     0
  0
LTYPE
  5
A3
330
5
100
AcDbSymbolTableRecord
100
AcDbLinetypeTableRecord
  2
ACAD_ISO02W100
 70
     0
  3
ISO dash __ __ __ __ __ __ __ __ __ __ __ __ __
 72
    65
 73
     2
 40
0.59
 49
0.47
 74
     0
 49
-0.12
 74
     0
  0
LTYPE
  5
A4
330
5
100
AcDbSymbolTableRecord
100
AcDbLinetypeTableRecord
  2
ACAD_ISO03W100
 70
     0
  3
ISO dash space __    __    __    __    __    __
 72
    65
 73
     2
 40
1.179999999999999
 49
0.47
 74
     0
 49
-0.71
 74
     0
  0
LTYPE
  5
A5
330
5
100
AcDbSymbolTableRecord
100
AcDbLinetypeTableRecord
  2
ACAD_ISO04W100
 70
     0
  3
ISO long-dash dot ____ . ____ . ____ . ____ . _
 72
    65
 73
     4
 40
1.179999999999999
 49
0.9399999999999998
 74
     0
 49
-0.12
 74
     0
 49
0.0
 74
     0
 49
-0.12
 74
     0
  0
LTYPE
  5
A6
330
5
100
AcDbSymbolTableRecord
100
AcDbLinetypeTableRecord
  2
ACAD_ISO05W100
 70
     0
  3
ISO long-dash double-dot ____ .. ____ .. ____ .
 72
    65
 73
     6
 40
1.299999999999999
 49
0.9399999999999998
 74
     0
 49
-0.12
 74
     0
 49
0.0
 74
     0
 49
-0.12
 74
     0
 49
0.0
 74
     0
 49
-0.12
 74
     0
  0
LTYPE
  5
A7
330
5
100
AcDbSymbolTableRecord
100
AcDbLinetypeTableRecord
  2
ACAD_ISO06W100
 70
     0
  3
ISO long-dash triple-dot ____ ... ____ ... ____
 72
    65
 73
     8
 40
1.419999999999999
 49
0.9399999999999998
 74
     0
 49
-0.12
 74
     0
 49
0.0
 74
     0
 49
-0.12
 74
     0
 49
0.0
 74
     0
 49
-0.12
 74
     0
 49
0.0
 74
     0
 49
-0.12
 74
     0
  0
LTYPE
  5
A8
330
5
100
AcDbSymbolTableRecord
100
AcDbLinetypeTableRecord
  2
ACAD_ISO07W100
 70
     0
  3
ISO dot . . . . . . . . . . . . . . . . . . . .
 72
    65
 73
     2
 40
0.12
 49
0.0
 74
     0
 49
-0.12
 74
     0
  0
LTYPE
  5
A9
330
5
100
AcDbSymbolTableRecord
100
AcDbLinetypeTableRecord
  2
ACAD_ISO08W100
 70
     0
  3
ISO long-dash short-dash ____ __ ____ __ ____ _
 72
    65
 73
     4
 40
0.95
 49
0.47
 74
     0
 49
-0.12
 74
     0
 49
0.24
 74
     0
 49
-0.12
 74
     0
  0
LTYPE
  5
AA
330
5
100
AcDbSymbolTableRecord
100
AcDbLinetypeTableRecord
  2
ACAD_ISO09W100
 70
     0
  3
ISO long-dash double-short-dash ____ __ __ ____
 72
    65
 73
     6
 40
1.31
 49
0.47
 74
     0
 49
-0.12
 74
     0
 49
0.24
 74
     0
 49
-0.12
 74
     0
 49
0.24
 74
     0
 49
-0.12
 74
     0
  0
LTYPE
  5
AB
330
5
100
AcDbSymbolTableRecord
100
AcDbLinetypeTableRecord
  2
ACAD_ISO10W100
 70
     0
  3
ISO dash dot __ . __ . __ . __ . __ . __ . __ .
 72
    65
 73
     4
 40
0.71
 49
0.47
 74
     0
 49
-0.12
 74
     0
 49
0.0
 74
     0
 49
-0.12
 74
     0
  0
LTYPE
  5
AC
330
5
100
AcDbSymbolTableRecord
100
AcDbLinetypeTableRecord
  2
ACAD_ISO11W100
 70
     0
  3
ISO double-dash dot __ __ . __ __ . __ __ . __ 
 72
    65
 73
     6
 40
1.299999999999999
 49
0.47
 74
     0
 49
-0.12
 74
     0
 49
0.47
 74
     0
 49
-0.12
 74
     0
 49
0.0
 74
     0
 49
-0.12
 74
     0
  0
LTYPE
  5
AD
330
5
100
AcDbSymbolTableRecord
100
AcDbLinetypeTableRecord
  2
ACAD_ISO12W100
 70
     0
  3
ISO dash double-dot __ . . __ . . __ . . __ . .
 72
    65
 73
     6
 40
0.8299999999999998
 49
0.47
 74
     0
 49
-0.12
 74
     0
 49
0.0
 74
     0
 49
-0.12
 74
     0
 49
0.0
 74
     0
 49
-0.12
 74
     0
  0
LTYPE
  5
AE
330
5
100
AcDbSymbolTableRecord
100
AcDbLinetypeTableRecord
  2
ACAD_ISO13W100
 70
     0
  3
ISO double-dash double-dot __ __ . . __ __ . . 
 72
    65
 73
     8
 40
1.419999999999999
 49
0.47
 74
     0
 49
-0.12
 74
     0
 49
0.47
 74
     0
 49
-0.12
 74
     0
 49
0.0
 74
     0
 49
-0.12
 74
     0
 49
0.0
 74
     0
 49
-0.12
 74
     0
  0
LTYPE
  5
AF
330
5
100
AcDbSymbolTableRecord
100
AcDbLinetypeTableRecord
  2
ACAD_ISO14W100
 70
     0
  3
ISO dash triple-dot __ . . . __ . . . __ . . . 
 72
    65
 73
     8
 40
0.95
 49
0.47
 74
     0
 49
-0.12
 74
     0
 49
0.0
 74
     0
 49
-0.12
 74
     0
 49
0.0
 74
     0
 49
-0.12
 74
     0
 49
0.0
 74
     0
 49
-0.12
 74
     0
  0
LTYPE
  5
B0
330
5
100
AcDbSymbolTableRecord
100
AcDbLinetypeTableRecord
  2
ACAD_ISO15W100
 70
     0
  3
ISO double-dash triple-dot __ __ . . . __ __ . 
 72
    65
 73
    10
 40
1.539999999999999
 49
0.47
 74
     0
 49
-0.12
 74
     0
 49
0.47
 74
     0
 49
-0.12
 74
     0
 49
0.0
 74
     0
 49
-0.12
 74
     0
 49
0.0
 74
     0
 49
-0.12
 74
     0
 49
0.0
 74
     0
 49
-0.12
 74
     0
  0
LTYPE
  5
B3
330
5
100
AcDbSymbolTableRecord
100
AcDbLinetypeTableRecord
  2
FENCELINE1
 70
     0
  3
Fenceline circle ----0-----0----0-----0----0---
 72
    65
 73
     4
 40
1.45
 49
0.25
 74
     0
 49
-0.1
 74
     4
 75
   133
340
B2
 46
0.1
 50
0.0
 44
-0.1
 45
0.0
 49
-0.1
 74
     0
 49
1.0
 74
     0
  0
LTYPE
  5
B4
330
5
100
AcDbSymbolTableRecord
100
AcDbLinetypeTableRecord
  2
FENCELINE2
 70
     0
  3
Fenceline square ----[]-----[]----[]-----[]----
 72
    65
 73
     4
 40
1.45
 49
0.25
 74
     0
 49
-0.1
 74
     4
 75
   132
340
B2
 46
0.1
 50
0.0
 44
-0.1
 45
0.0
 49
-0.1
 74
     0
 49
1.0
 74
     0
  0
LTYPE
  5
B5
330
5
100
AcDbSymbolTableRecord
100
AcDbLinetypeTableRecord
  2
TRACKS
 70
     0
  3
Tracks -|-|-|-|-|-|-|-|-|-|-|-|-|-|-|-|-|-|-|-|
 72
    65
 73
     2
 40
0.3
 49
0.15
 74
     4
 75
   130
340
B2
 46
0.25
 50
0.0
 44
0.0
 45
0.0
 49
0.15
 74
     0
  0
LTYPE
  5
B6
330
5
100
AcDbSymbolTableRecord
100
AcDbLinetypeTableRecord
  2
BATTING
 70
     0
  3
Batting SSSSSSSSSSSSSSSSSSSSSSSSSSSSSSSSSSSSSSS
 72
    65
 73
     4
 40
0.4001000000000001
 49
0.0001
 74
     0
 49
-0.1
 74
     4
 75
   134
340
B2
 46
0.1
 50
0.0
 44
-0.1
 45
0.0
 49
-0.2
 74
     4
 75
   134
340
B2
 46
0.1
 50
180.0
 44
0.1
 45
0.0
 49
-0.1
 74
     0
  0
LTYPE
  5
B7
330
5
100
AcDbSymbolTableRecord
100
AcDbLinetypeTableRecord
  2
HOT_WATER_SUPPLY
 70
     0
  3
Hot water supply ---- HW ---- HW ---- HW ----
 72
    65
 73
     3
 40
0.9
 49
0.5
 74
     0
 49
-0.2
 74
     2
 75
     0
340
55
 46
0.1
 50
0.0
 44
-0.1
 45
-0.05
  9
HW
 49
-0.2
 74
     0
  0
LTYPE
  5
B8
330
5
100
AcDbSymbolTableRecord
100
AcDbLinetypeTableRecord
  2
GAS_LINE
 70
     0
  3
Gas line ----GAS----GAS----GAS----GAS----GAS---
 72
    65
 73
     3
 40
0.95
 49
0.5
 74
     0
 49
-0.2
 74
     2
 75
     0
340
55
 46
0.1
 50
0.0
 44
-0.1
 45
-0.05
  9
GAS
 49
-0.25
 74
     0
  0
LTYPE
  5
B9
330
5
100
AcDbSymbolTableRecord
100
AcDbLinetypeTableRecord
  2
ZIGZAG
 70
     0
  3
Zig zag /\/\/\/\/\/\/\/\/\/\/\/\/\/\/\/\/\/\/\/
 72
    65
 73
     4
 40
0.8001000000000001
 49
0.0001
 74
     0
 49
-0.2
 74
     4
 75
   131
340
B2
 46
0.2
 50
0.0
 44
-0.2
 45
0.0
 49
-0.4
 74
     4
 75
   131
340
B2
 46
0.2
 50
180.0
 44
0.2
 45
0.0
 49
-0.2
 74
     0
  0
ENDTAB
  0
TABLE
  2
LAYER
  5
2
330
0
100
AcDbSymbolTable
 70
    27
  0
LAYER
  5
54
330
2
100
AcDbSymbolTableRecord
100
AcDbLayerTableRecord
  2
0
 70
     0
 62
     7
  6
Continuous
370
    18
390
F
  0
LAYER
  5
C3
330
2
100
AcDbSymbolTableRecord
100
AcDbLayerTableRecord
  2
Dimension (ANSI)
 70
     0
 62
     7
  6
Continuous
370
    13
390
F
  0
LAYER
  5
C5
330
2
100
AcDbSymbolTableRecord
100
AcDbLayerTableRecord
  2
Hidden (ANSI)
 70
     0
 62
     7
  6
DASHED
370
    15
390
F
  0
LAYER
  5
CC
330
2
100
AcDbSymbolTableRecord
100
AcDbLayerTableRecord
  2
Symbol (ANSI)
 70
     0
 62
     7
  6
Continuous
370
    18
390
F
  0
LAYER
  5
CF
330
2
100
AcDbSymbolTableRecord
100
AcDbLayerTableRecord
  2
Visible (ANSI)
 70
     0
 62
     7
  6
Continuous
370
    13
390
F
  0
LAYER
  5
D0
330
2
100
AcDbSymbolTableRecord
100
AcDbLayerTableRecord
  2
Visible Narrow (ANSI)
 70
     0
 62
     7
  6
Continuous
370
    18
390
F
  0
LAYER
  5
139
330
2
100
AcDbSymbolTableRecord
100
AcDbLayerTableRecord
  2
Defpoints
 70
     0
 62
     7
  6
Continuous
290
     0
370
    -3
390
F
  0
ENDTAB
  0
TABLE
  2
STYLE
  5
3
330
0
100
AcDbSymbolTable
 70
    18
  0
STYLE
  5
55
330
3
100
AcDbSymbolTableRecord
100
AcDbTextStyleTableRecord
  2
Standard
 70
     0
 40
0.0
 41
1.0
 50
0.0
 71
     0
 42
0.2
  3
txt
  4

  0
STYLE
  5
5A
330
3
100
AcDbSymbolTableRecord
100
AcDbTextStyleTableRecord
  2
Annotative
 70
     0
 40
0.0
 41
1.0
 50
0.0
 71
     0
 42
0.2
  3
txt
  4

1001
AcadAnnotative
1000
AnnotativeData
1002
{
1070
     1
1070
     1
1002
}
  0
STYLE
  5
B2
330
3
100
AcDbSymbolTableRecord
100
AcDbTextStyleTableRecord
  2

 70
     1
 40
0.0
 41
1.0
 50
0.0
 71
     0
 42
0.2
  3
ltypeshp.shx
  4

  0
STYLE
  5
D4
330
3
100
AcDbSymbolTableRecord
100
AcDbTextStyleTableRecord
  2
ITALICC_120
 70
     0
 40
0.0
 41
1.0
 50
0.0
 71
     0
 42
0.2
  3
italicc.shx
  4

  0
STYLE
  5
D5
330
3
100
AcDbSymbolTableRecord
100
AcDbTextStyleTableRecord
  2
Label Text (ANSI)
 70
     0
 40
0.0
 41
1.0
 50
0.0
 71
     0
 42
0.2
  3
TAHOMA.TTF
  4

1001
ACAD
1000
Tahoma
1071
      256
  0
STYLE
  5
D6
330
3
100
AcDbSymbolTableRecord
100
AcDbTextStyleTableRecord
  2
Note Text (ANSI)
 70
     0
 40
0.0
 41
1.0
 50
0.0
 71
     0
 42
0.2
  3
TAHOMA.TTF
  4

1001
ACAD
1000
Tahoma
1071
      256
  0
STYLE
  5
D7
330
3
100
AcDbSymbolTableRecord
100
AcDbTextStyleTableRecord
  2
ROMANS
 70
     0
 40
0.0
 41
1.0
 50
0.0
 71
     0
 42
0.2
  3
romans.shx
  4

  0
STYLE
  5
D8
330
3
100
AcDbSymbolTableRecord
100
AcDbTextStyleTableRecord
  2
SANSSERIF_114
 70
     0
 40
0.0
 41
1.0
 50
0.0
 71
     0
 42
0.2
  3
TAHOMA.TTF
  4

1001
ACAD
1000
Tahoma
1071
      256
  0
STYLE
  5
D9
330
3
100
AcDbSymbolTableRecord
100
AcDbTextStyleTableRecord
  2
SANSSERIF_117
 70
     0
 40
0.0
 41
1.0
 50
0.0
 71
     0
 42
0.2
  3
TAHOMA.TTF
  4

1001
ACAD
1000
Tahoma
1071
      256
  0
STYLE
  5
DA
330
3
100
AcDbSymbolTableRecord
100
AcDbTextStyleTableRecord
  2
STANDARDAM_ANSI
 70
     0
 40
0.0
 41
1.0
 50
0.0
 71
     0
 42
0.2
  3
txt.shx
  4

  0
STYLE
  5
DB
330
3
100
AcDbSymbolTableRecord
100
AcDbTextStyleTableRecord
  2
StandardAM_ANSI$0
 70
     0
 40
0.0
 41
1.0
 50
0.0
 71
     0
 42
0.2
  3
txt.shx
  4

  0
STYLE
  5
DC
330
3
100
AcDbSymbolTableRecord
100
AcDbTextStyleTableRecord
  2
STANDARDAM_ANSI$3
 70
     0
 40
0.0
 41
1.0
 50
0.0
 71
     0
 42
0.2
  3
txt.shx
  4

  0
STYLE
  5
DD
330
3
100
AcDbSymbolTableRecord
100
AcDbTextStyleTableRecord
  2
STANDARDAM_ANSI$4
 70
     0
 40
0.0
 41
1.0
 50
0.0
 71
     0
 42
0.2
  3
txt.shx
  4

  0
STYLE
  5
DE
330
3
100
AcDbSymbolTableRecord
100
AcDbTextStyleTableRecord
  2
STANDARDAM_ANSI$7
 70
     0
 40
0.0
 41
1.0
 50
0.0
 71
     0
 42
0.2
  3
txt.shx
  4

  0
STYLE
  5
DF
330
3
100
AcDbSymbolTableRecord
100
AcDbTextStyleTableRecord
  2
STANDARDAM_ANSI$SF
 70
     0
 40
0.0
 41
1.0
 50
0.0
 71
     0
 42
0.2
  3
txt.shx
  4

  0
STYLE
  5
E0
330
3
100
AcDbSymbolTableRecord
100
AcDbTextStyleTableRecord
  2
STANDARDAM_ANSI$SH
 70
     0
 40
0.0
 41
1.0
 50
0.0
 71
     0
 42
0.2
  3
txt.shx
  4

  0
STYLE
  5
E1
330
3
100
AcDbSymbolTableRecord
100
AcDbTextStyleTableRecord
  2
STANDARDSTANDARD
 70
     0
 40
0.0
 41
1.0
 50
0.0
 71
     0
 42
0.2
  3
txt.shx
  4

  0
STYLE
  5
132
330
3
100
AcDbSymbolTableRecord
100
AcDbTextStyleTableRecord
  2
Text Style150
 70
     0
 40
0.0
 41
1.0
 50
0.0
 71
     0
 42
0.2
  3
TAHOMA.TTF
  4

1001
ACAD
1000
Tahoma
1071
      256
  0
ENDTAB
  0
TABLE
  2
VIEW
  5
6
330
0
100
AcDbSymbolTable
 70
     0
  0
ENDTAB
  0
TABLE
  2
UCS
  5
7
330
0
100
AcDbSymbolTable
 70
     0
  0
ENDTAB
  0
TABLE
  2
APPID
  5
9
330
0
100
AcDbSymbolTable
 70
     4
  0
APPID
  5
56
330
9
100
AcDbSymbolTableRecord
100
AcDbRegAppTableRecord
  2
ACAD
 70
     0
  0
APPID
  5
5E
330
9
100
AcDbSymbolTableRecord
100
AcDbRegAppTableRecord
  2
AcadAnnotative
 70
     0
  0
APPID
  5
6A2
330
9
100
AcDbSymbolTableRecord
100
AcDbRegAppTableRecord
  2
ACAD_DSTYLE_DIMRADIAL_EXTENSION
 70
     0
  0
APPID
  5
8E0
330
9
100
AcDbSymbolTableRecord
100
AcDbRegAppTableRecord
  2
ACAD_MLEADERVER
 70
     0
  0
ENDTAB
  0
TABLE
  2
DIMSTYLE
  5
A
330
0
100
AcDbSymbolTable
 70
    29
100
AcDbDimStyleTable
 71
     3
340
F6
340
58
340
F8
  0
DIMSTYLE
105
58
330
A
100
AcDbSymbolTableRecord
100
AcDbDimStyleTableRecord
  2
STANDARD
 70
     0
 41
0.1800000071525573
 42
0.0625
140
0.1800000071525574
144
1.0
147
0.0900000035762787
176
   256
177
   256
178
   256
274
     3
340
55
371
    -1
372
    -1
  0
DIMSTYLE
105
59
330
A
100
AcDbSymbolTableRecord
100
AcDbDimStyleTableRecord
  2
Annotative
 70
     0
340
55
1001
AcadAnnotative
1000
AnnotativeData
1002
{
1070
     1
1070
     1
1002
}
  0
DIMSTYLE
105
E2
330
A
100
AcDbSymbolTableRecord
100
AcDbDimStyleTableRecord
  2
AM_ANSI
 70
     0
  4
 mm
 40
1.612903225806451
 41
0.119999997317791
 42
0.05
 43
0.5
 44
0.1
 45
0.00000001
 78
     4
 79
     2
140
0.1200000047683716
146
0.7099999453624112
147
0.0599999986588955
176
   256
177
   256
178
     2
284
     4
340
DA
371
    -1
372
    -1
  0
DIMSTYLE
105
E3
330
A
100
AcDbSymbolTableRecord
100
AcDbDimStyleTableRecord
  2
AM_ANSI$7
 70
     0
  4
 mm
 40
1.612903225806451
 41
0.119999997317791
 42
0.05
 43
0.5
 44
0.1
 45
0.00000001
 78
     4
 79
     2
140
0.1200000047683716
146
0.7099999453624112
147
0.0599999986588955
176
   256
177
   256
178
     2
284
     4
340
DA
371
    -1
372
    -1
  0
DIMSTYLE
105
E4
330
A
100
AcDbSymbolTableRecord
100
AcDbDimStyleTableRecord
  2
AM_ANSI$0
 70
     0
  4
 mm
 40
1.612903225806451
 41
0.119999997317791
 42
0.05
 43
0.5
 44
0.1
 45
0.00000001
 78
     4
 79
     2
140
0.1200000047683716
146
0.7099999453624112
147
0.0599999986588955
176
   256
177
   256
178
     2
284
     4
340
DB
371
    -1
372
    -1
  0
DIMSTYLE
105
E5
330
A
100
AcDbSymbolTableRecord
100
AcDbDimStyleTableRecord
  2
AM_ANSI$0$7
 70
     0
  4
 mm
 40
1.612903225806451
 41
0.119999997317791
 42
0.05
 43
0.5
 44
0.1
 45
0.00000001
 78
     4
 79
     2
140
0.1200000047683716
146
0.7099999453624112
147
0.0599999986588955
176
   256
177
   256
178
     2
284
     4
340
DB
371
    -1
372
    -1
  0
DIMSTYLE
105
E6
330
A
100
AcDbSymbolTableRecord
100
AcDbDimStyleTableRecord
  2
AM_ANSI$3
 70
     0
  4
 mm
 40
1.612903225806451
 41
0.119999997317791
 42
0.05
 43
0.5
 44
0.1
 45
0.00000001
 78
     4
 79
     2
140
0.1200000047683716
146
0.7099999453624112
147
0.0599999986588955
176
   256
177
   256
178
     2
284
     4
340
DC
371
    -1
372
    -1
  0
DIMSTYLE
105
E7
330
A
100
AcDbSymbolTableRecord
100
AcDbDimStyleTableRecord
  2
AM_ANSI$3$7
 70
     0
  4
 mm
 40
1.612903225806451
 41
0.119999997317791
 42
0.05
 43
0.5
 44
0.1
 45
0.00000001
 78
     4
 79
     2
140
0.1200000047683716
146
0.7099999453624112
147
0.0599999986588955
176
   256
177
   256
178
     2
284
     4
340
DC
371
    -1
372
    -1
  0
DIMSTYLE
105
E8
330
A
100
AcDbSymbolTableRecord
100
AcDbDimStyleTableRecord
  2
AM_ANSI$4
 70
     0
  4
 mm
 40
1.612903225806451
 41
0.119999997317791
 42
0.05
 43
0.5
 44
0.1
 45
0.00000001
 78
     4
 79
     2
140
0.1200000047683716
146
0.7099999453624112
147
0.0599999986588955
176
   256
177
   256
178
     2
284
     4
340
DD
371
    -1
372
    -1
  0
DIMSTYLE
105
E9
330
A
100
AcDbSymbolTableRecord
100
AcDbDimStyleTableRecord
  2
AM_ANSI$4$7
 70
     0
  4
 mm
 40
1.612903225806451
 41
0.119999997317791
 42
0.05
 43
0.5
 44
0.1
 45
0.00000001
 78
     4
 79
     2
140
0.1200000047683716
146
0.7099999453624112
147
0.0599999986588955
176
   256
177
   256
178
     2
284
     4
340
DD
371
    -1
372
    -1
  0
DIMSTYLE
105
EA
330
A
100
AcDbSymbolTableRecord
100
AcDbDimStyleTableRecord
  2
AM_ANSI$SF
 70
     0
  4
 mm
 40
1.612903225806451
 41
0.119999997317791
 42
0.05
 43
0.5
 44
0.1
 45
0.00000001
 75
     1
 76
     1
 78
     4
 79
     2
140
0.1200000047683716
146
0.7099999453624112
147
0.0599999986588955
176
   256
177
   256
178
     2
284
     4
340
DF
371
    -1
372
    -1
  0
DIMSTYLE
105
EB
330
A
100
AcDbSymbolTableRecord
100
AcDbDimStyleTableRecord
  2
AM_ANSI$SF$7
 70
     0
  4
 mm
 40
1.612903225806451
 41
0.119999997317791
 42
0.05
 43
0.5
 44
0.1
 45
0.00000001
 75
     1
 76
     1
 78
     4
 79
     2
140
0.1200000047683716
146
0.7099999453624112
147
0.0599999986588955
176
   256
177
   256
178
     2
284
     4
340
DF
371
    -1
372
    -1
  0
DIMSTYLE
105
EC
330
A
100
AcDbSymbolTableRecord
100
AcDbDimStyleTableRecord
  2
AM_ANSI$SH
 70
     0
  4
 mm
 40
1.612903225806451
 41
0.119999997317791
 42
0.05
 43
0.5
 44
0.1
 45
0.00000001
 75
     1
 76
     1
 78
     4
 79
     2
140
0.1200000047683716
146
0.7099999453624112
147
0.0599999986588955
176
   256
177
   256
178
     2
284
     4
340
E0
371
    -1
372
    -1
  0
DIMSTYLE
105
ED
330
A
100
AcDbSymbolTableRecord
100
AcDbDimStyleTableRecord
  2
AM_ANSI$SH$7
 70
     0
  4
 mm
 40
1.612903225806451
 41
0.119999997317791
 42
0.05
 43
0.5
 44
0.1
 45
0.00000001
 75
     1
 76
     1
 78
     4
 79
     2
140
0.1200000047683716
146
0.7099999453624112
147
0.0599999986588955
176
   256
177
   256
178
     2
284
     4
340
E0
371
    -1
372
    -1
  0
DIMSTYLE
105
EE
330
A
100
AcDbSymbolTableRecord
100
AcDbDimStyleTableRecord
  2
Architectural (ANSI)
 70
     0
 40
1.612903225806451
 41
0.0984251946210861
 43
0.2362204724409449
 44
0.125
 45
0.00000001
 46
0.3937007874015748
 78
     3
 79
     3
140
0.1200000047683716
147
0.031496062992126
171
     1
176
   256
177
   256
178
   256
272
     2
274
     1
276
     2
277
     4
284
    12
285
     4
286
    12
340
D6
371
    -1
372
    -1
  0
DIMSTYLE
105
EF
330
A
100
AcDbSymbolTableRecord
100
AcDbDimStyleTableRecord
  2
Architectural (ANSI)$7
 70
     0
 40
1.612903225806451
 41
0.0984251946210861
 43
0.2362204724409449
 44
0.125
 45
0.00000001
 46
0.3937007874015748
 78
     3
 79
     3
140
0.1200000047683716
147
0.031496062992126
171
     1
176
   256
177
   256
178
   256
272
     2
274
     1
276
     2
277
     4
284
    12
285
     4
286
    12
340
D6
371
    -1
372
    -1
  0
DIMSTYLE
105
F0
330
A
100
AcDbSymbolTableRecord
100
AcDbDimStyleTableRecord
  2
Default - Fraction (ANSI)
 70
     0
 40
1.612903225806451
 41
0.0984251946210861
 43
0.2362204724409449
 44
0.125
 45
0.00000001
 46
0.3937007874015748
 79
     3
140
0.1200000047683716
147
0.031496062992126
171
     1
176
   256
177
   256
178
   256
272
     2
274
     1
276
     2
277
     5
284
    12
285
     4
286
    12
340
D6
371
    -1
372
    -1
  0
DIMSTYLE
105
F1
330
A
100
AcDbSymbolTableRecord
100
AcDbDimStyleTableRecord
  2
Default - Fraction (ANSI)$7
 70
     0
 40
1.612903225806451
 41
0.0984251946210861
 43
0.2362204724409449
 44
0.125
 45
0.00000001
 46
0.3937007874015748
 79
     3
140
0.1200000047683716
147
0.031496062992126
171
     1
176
   256
177
   256
178
   256
272
     2
274
     1
276
     2
277
     5
284
    12
285
     4
286
    12
340
D6
371
    -1
372
    -1
  0
DIMSTYLE
105
F2
330
A
100
AcDbSymbolTableRecord
100
AcDbDimStyleTableRecord
  2
Default - mm (ANSI)
 70
     0
 40
1.612903225806451
 41
0.0984251946210861
 42
0.063
 43
0.2362204724409449
 44
0.125
 45
0.00000001
 46
0.3937007874015748
 73
     0
 78
     4
 79
     1
140
0.1200000047683716
143
1.0
144
25.4
147
0.031496062992126
171
     1
176
   256
177
   256
178
   256
179
     1
271
     2
272
     2
274
     1
284
     4
285
     4
340
D6
371
    -1
372
    -1
  0
DIMSTYLE
105
F3
330
A
100
AcDbSymbolTableRecord
100
AcDbDimStyleTableRecord
  2
Default - mm (ANSI)$7
 70
     0
 40
1.612903225806451
 41
0.0984251946210861
 42
0.063
 43
0.2362204724409449
 44
0.125
 45
0.00000001
 46
0.3937007874015748
 73
     0
 78
     4
 79
     1
140
0.1200000047683716
143
1.0
144
25.4
147
0.031496062992126
171
     1
176
   256
177
   256
178
   256
179
     1
271
     2
272
     2
274
     1
284
     4
285
     4
340
D6
371
    -1
372
    -1
  0
DIMSTYLE
105
F4
330
A
100
AcDbSymbolTableRecord
100
AcDbDimStyleTableRecord
  2
Default - mm [in] (ANSI)
 70
     0
  4
 in
 40
1.612903225806451
 41
0.0984251946210861
 42
0.063
 43
0.25
 44
0.125
 45
0.00000001
 46
0.3937007874015748
 73
     0
 78
     4
 79
     1
140
0.1200000047683716
143
0.03937
144
25.4
147
0.031496062992126
170
     1
171
     3
176
   256
177
   256
178
   256
179
     1
271
     2
272
     2
274
     3
284
     4
285
     4
286
     4
340
D6
371
    -1
372
    -1
  0
DIMSTYLE
105
F5
330
A
100
AcDbSymbolTableRecord
100
AcDbDimStyleTableRecord
  2
Default - mm [in] (ANSI)$7
 70
     0
  4
 in
 40
1.612903225806451
 41
0.0984251946210861
 42
0.063
 43
0.25
 44
0.125
 45
0.00000001
 46
0.3937007874015748
 73
     0
 78
     4
 79
     1
140
0.1200000047683716
143
0.03937
144
25.4
147
0.031496062992126
170
     1
171
     3
176
   256
177
   256
178
   256
179
     1
271
     2
272
     2
274
     3
284
     4
285
     4
286
     4
340
D6
371
    -1
372
    -1
  0
DIMSTYLE
105
F6
102
{ACAD_REACTORS
330
51F
330
609
330
6C3
330
7A3
102
}
330
A
100
AcDbSymbolTableRecord
100
AcDbDimStyleTableRecord
  2
Default (ANSI)
 70
     0
 40
1.612903225806451
 41
0.0984251946210861
 43
0.2362204724409449
 44
0.125
 45
0.00000001
 46
0.3937007874015748
 79
     1
140
0.1200000047683716
147
0.031496062992126
171
     1
176
   256
177
   256
178
   256
271
     3
272
     2
274
     1
284
     4
285
     4
340
D6
371
    -1
372
    -1
  0
DIMSTYLE
105
F7
330
A
100
AcDbSymbolTableRecord
100
AcDbDimStyleTableRecord
  2
Default (ANSI)$7
 70
     0
 40
1.612903225806451
 41
0.0984251946210861
 43
0.2362204724409449
 44
0.125
 45
0.00000001
 46
0.3937007874015748
 79
     1
140
0.1200000047683716
147
0.031496062992126
171
     1
176
   256
177
   256
178
   256
271
     3
272
     2
274
     1
284
     4
285
     4
340
D6
371
    -1
372
    -1
  0
DIMSTYLE
105
F8
102
{ACAD_REACTORS
330
137
330
223
330
30D
330
421
102
}
330
A
100
AcDbSymbolTableRecord
100
AcDbDimStyleTableRecord
  2
Default (ANSI)-01
 70
     0
 40
1.612903225806451
 41
0.0984251946210861
 43
0.2362204724409449
 44
0.125
 45
0.00000001
 46
0.3937007874015748
 79
     1
140
0.1200000047683716
147
0.031496062992126
171
     1
176
   256
177
   256
178
   256
271
     2
272
     2
274
     1
284
     4
285
     4
340
D6
371
    -1
372
    -1
  0
DIMSTYLE
105
F9
330
A
100
AcDbSymbolTableRecord
100
AcDbDimStyleTableRecord
  2
Default (ANSI)-01$7
 70
     0
 40
1.612903225806451
 41
0.0984251946210861
 43
0.2362204724409449
 44
0.125
 45
0.00000001
 46
0.3937007874015748
 79
     1
140
0.1200000047683716
147
0.031496062992126
171
     1
176
   256
177
   256
178
   256
271
     2
272
     2
274
     1
284
     4
285
     4
340
D6
371
    -1
372
    -1
  0
DIMSTYLE
105
FA
330
A
100
AcDbSymbolTableRecord
100
AcDbDimStyleTableRecord
  2
Alternate (ANSI)
 70
     0
 40
1.612903225806451
 41
0.0979999974370003
340
55
342
FB
  0
DIMSTYLE
105
10D
330
A
100
AcDbSymbolTableRecord
100
AcDbDimStyleTableRecord
  2
Datum (ANSI)
 70
     0
 40
1.612903225806451
 41
0.0979999974370003
340
55
342
FB
  0
DIMSTYLE
105
11C
330
A
100
AcDbSymbolTableRecord
100
AcDbDimStyleTableRecord
  2
Large (ANSI)
 70
     0
 40
1.612903225806451
 41
0.1959999948740005
340
55
342
FB
  0
ENDTAB
  0
TABLE
  2
BLOCK_RECORD
  5
1
330
0
100
AcDbSymbolTable
 70
    12
  0
BLOCK_RECORD
  5
6C
330
1
100
AcDbSymbolTableRecord
100
AcDbBlockTableRecord
  2
*Model_Space
340
6F
  0
BLOCK_RECORD
  5
68
330
1
100
AcDbSymbolTableRecord
100
AcDbBlockTableRecord
  2
*Paper_Space
340
6B
  0
BLOCK_RECORD
  5
70
330
1
100
AcDbSymbolTableRecord
100
AcDbBlockTableRecord
  2
*Paper_Space0
340
73
  0
BLOCK_RECORD
  5
FB
330
1
100
AcDbSymbolTableRecord
100
AcDbBlockTableRecord
  2
_Closed
340
0
  0
BLOCK_RECORD
  5
102
330
1
100
AcDbSymbolTableRecord
100
AcDbBlockTableRecord
  2
DatumFilled45
340
0
  0
BLOCK_RECORD
  5
10E
330
1
100
AcDbSymbolTableRecord
100
AcDbBlockTableRecord
  2
Filled-1
340
0
  0
BLOCK_RECORD
  5
13A
330
1
100
AcDbSymbolTableRecord
100
AcDbBlockTableRecord
  2
*D4
340
0
  0
BLOCK_RECORD
  5
224
330
1
100
AcDbSymbolTableRecord
100
AcDbBlockTableRecord
  2
*D5
340
0
  0
BLOCK_RECORD
  5
30E
330
1
100
AcDbSymbolTableRecord
100
AcDbBlockTableRecord
  2
*D6
340
0
  0
BLOCK_RECORD
  5
422
330
1
100
AcDbSymbolTableRecord
100
AcDbBlockTableRecord
  2
*D7
340
0
  0
BLOCK_RECORD
  5
520
330
1
100
AcDbSymbolTableRecord
100
AcDbBlockTableRecord
  2
*D8
340
0
  0
BLOCK_RECORD
  5
60A
330
1
100
AcDbSymbolTableRecord
100
AcDbBlockTableRecord
  2
*D9
340
0
  0
BLOCK_RECORD
  5
6C4
330
1
100
AcDbSymbolTableRecord
100
AcDbBlockTableRecord
  2
*D10
340
0
  0
BLOCK_RECORD
  5
7A4
330
1
100
AcDbSymbolTableRecord
100
AcDbBlockTableRecord
  2
*D11
340
0
  0
ENDTAB
  0
ENDSEC
  0
SECTION
  2
BLOCKS
  0
BLOCK
  5
6D
330
6C
100
AcDbEntity
  8
0
100
AcDbBlockBegin
  2
*Model_Space
 70
     0
 10
0.0
 20
0.0
 30
0.0
  3
*Model_Space
  1

  0
ENDBLK
  5
6E
330
6C
100
AcDbEntity
  8
0
100
AcDbBlockEnd
  0
BLOCK
  5
69
330
68
100
AcDbEntity
 67
     1
  8
0
100
AcDbBlockBegin
  2
*Paper_Space
 70
     0
 10
0.0
 20
0.0
 30
0.0
  3
*Paper_Space
  1

  0
ENDBLK
  5
6A
330
68
100
AcDbEntity
 67
     1
  8
0
100
AcDbBlockEnd
  0
BLOCK
  5
71
330
70
100
AcDbEntity
 67
     1
  8
0
100
AcDbBlockBegin
  2
*Paper_Space0
 70
     0
 10
0.0
 20
0.0
 30
0.0
  3
*Paper_Space0
  1

  0
ENDBLK
  5
72
330
70
100
AcDbEntity
 67
     1
  8
0
100
AcDbBlockEnd
  0
BLOCK
  5
100
330
FB
100
AcDbEntity
  8
0
100
AcDbBlockBegin
  2
_Closed
 70
     0
 10
0.0
 20
0.0
 30
0.0
  3
_Closed
  1

  0
LINE
  5
FC
330
FB
100
AcDbEntity
  8
0
  6
ByBlock
 62
     0
370
    -2
100
AcDbLine
 10
-1.0
 20
0.1666666666666666
 30
0.0
 11
0.0
 21
0.0
 31
0.0
  0
LINE
  5
FD
330
FB
100
AcDbEntity
  8
0
  6
ByBlock
 62
     0
370
    -2
100
AcDbLine
 10
0.0
 20
0.0
 30
0.0
 11
-1.0
 21
-0.1666666666666666
 31
0.0
  0
LINE
  5
FE
330
FB
100
AcDbEntity
  8
0
  6
ByBlock
 62
     0
370
    -2
100
AcDbLine
 10
-1.0
 20
0.1666666666666666
 30
0.0
 11
-1.0
 21
-0.1666666666666666
 31
0.0
  0
LINE
  5
FF
330
FB
100
AcDbEntity
  8
0
  6
ByBlock
 62
     0
370
    -2
100
AcDbLine
 10
0.0
 20
0.0
 30
0.0
 11
-1.0
 21
0.0
 31
0.0
  0
ENDBLK
  5
101
330
FB
100
AcDbEntity
  8
0
100
AcDbBlockEnd
  0
BLOCK
  5
103
330
102
100
AcDbEntity
  8
0
100
AcDbBlockBegin
  2
DatumFilled45
 70
     0
 10
0.0
 20
0.0
 30
0.0
  3
DatumFilled45
  1

  0
POLYLINE
  5
105
330
102
100
AcDbEntity
  8
0
 62
     0
100
AcDb2dPolyline
 66
     1
 10
0.0
 20
0.0
 30
0.0
 70
   128
  0
VERTEX
  5
106
330
105
100
AcDbEntity
  8
0
 62
     0
100
AcDbVertex
100
AcDb2dVertex
 10
0.0
 20
0.9999999999999998
 30
0.0
  0
VERTEX
  5
107
330
105
100
AcDbEntity
  8
0
 62
     0
100
AcDbVertex
100
AcDb2dVertex
 10
0.0
 20
-0.9999999999999998
 30
0.0
  0
VERTEX
  5
109
330
105
100
AcDbEntity
  8
0
 62
     0
100
AcDbVertex
100
AcDb2dVertex
 10
-0.9999999999999998
 20
0.0
 30
0.0
  0
VERTEX
  5
10A
330
105
100
AcDbEntity
  8
0
 62
     0
100
AcDbVertex
100
AcDb2dVertex
 10
0.0
 20
0.9999999999999998
 30
0.0
  0
SEQEND
  5
108
330
105
100
AcDbEntity
  8
0
 62
     0
  0
SOLID
  5
10C
330
102
100
AcDbEntity
  8
0
 62
     0
100
AcDbTrace
 10
0.0
 20
0.9999999999999998
 30
0.0
 11
0.0
 21
-0.9999999999999998
 31
0.0
 12
-0.9999999999999998
 22
0.0
 32
0.0
 13
0.0
 23
0.9999999999999998
 33
0.0
  0
ENDBLK
  5
104
330
102
100
AcDbEntity
  8
0
100
AcDbBlockEnd
  0
BLOCK
  5
10F
330
10E
100
AcDbEntity
  8
0
100
AcDbBlockBegin
  2
Filled-1
 70
     0
 10
0.0
 20
0.0
 30
0.0
  3
Filled-1
  1

  0
LINE
  5
111
330
10E
100
AcDbEntity
  8
0
 62
     0
100
AcDbLine
 10
-0.9999999999999998
 20
0.0
 30
0.0
 11
0.0
 21
0.0
 31
0.0
  0
POLYLINE
  5
112
330
10E
100
AcDbEntity
  8
0
 62
     0
100
AcDb2dPolyline
 66
     1
 10
0.0
 20
0.0
 30
0.0
 70
   128
  0
VERTEX
  5
113
330
112
100
AcDbEntity
  8
0
 62
     0
100
AcDbVertex
100
AcDb2dVertex
 10
-0.9999999999999998
 20
-0.0994897959183674
 30
0.0
  0
VERTEX
  5
114
330
112
100
AcDbEntity
  8
0
 62
     0
100
AcDbVertex
100
AcDb2dVertex
 10
0.0
 20
0.0
 30
0.0
  0
VERTEX
  5
116
330
112
100
AcDbEntity
  8
0
 62
     0
100
AcDbVertex
100
AcDb2dVertex
 10
-0.9999999999999998
 20
0.0994897959183674
 30
0.0
  0
VERTEX
  5
117
330
112
100
AcDbEntity
  8
0
 62
     0
100
AcDbVertex
100
AcDb2dVertex
 10
-0.9999999999999998
 20
-0.0994897959183674
 30
0.0
  0
SEQEND
  5
115
330
112
100
AcDbEntity
  8
0
 62
     0
  0
SOLID
  5
118
330
10E
100
AcDbEntity
  8
0
 62
     0
100
AcDbTrace
 10
-0.9999999999999998
 20
-0.0994897959183674
 30
0.0
 11
0.0
 21
0.0
 31
0.0
 12
-0.9999999999999998
 22
0.0994897959183674
 32
0.0
 13
-0.9999999999999998
 23
-0.0994897959183674
 33
0.0
  0
LINE
  5
119
330
10E
100
AcDbEntity
  8
0
 62
     0
100
AcDbLine
 10
-0.9999999999999998
 20
-0.0994897959183674
 30
0.0
 11
0.0
 21
0.0
 31
0.0
  0
LINE
  5
11A
330
10E
100
AcDbEntity
  8
0
 62
     0
100
AcDbLine
 10
0.0
 20
0.0
 30
0.0
 11
-0.9999999999999998
 21
0.0994897959183674
 31
0.0
  0
LINE
  5
11B
330
10E
100
AcDbEntity
  8
0
 62
     0
100
AcDbLine
 10
-0.9999999999999998
 20
0.0994897959183674
 30
0.0
 11
-0.9999999999999998
 21
-0.0994897959183674
 31
0.0
  0
ENDBLK
  5
110
330
10E
100
AcDbEntity
  8
0
100
AcDbBlockEnd
  0
BLOCK
  5
13B
330
13A
100
AcDbEntity
  8
0
100
AcDbBlockBegin
  2
*D4
 70
     1
 10
0.0
 20
0.0
 30
0.0
  3
*D4
  1

  0
LINE
  5
219
330
13A
100
AcDbEntity
  8
Dimension (ANSI)
100
AcDbLine
 10
11.45063847896412
 20
6.926185650908625
 30
0.0
 11
11.45063847896412
 21
4.200707283285222
 31
0.0
  0
LINE
  5
21A
330
13A
100
AcDbEntity
  8
Dimension (ANSI)
100
AcDbLine
 10
4.57063847896412
 20
6.926185650908625
 30
0.0
 11
4.57063847896412
 21
4.200707283285222
 31
0.0
  0
LINE
  5
21B
330
13A
100
AcDbEntity
  8
Dimension (ANSI)
100
AcDbLine
 10
11.29188816505914
 20
4.402320186511028
 30
0.0
 11
8.309385902966964
 21
4.402320186511028
 31
0.0
  0
LINE
  5
21C
330
13A
100
AcDbEntity
  8
Dimension (ANSI)
100
AcDbLine
 10
4.729388792869098
 20
4.402320186511028
 30
0.0
 11
7.711891054961278
 21
4.402320186511028
 31
0.0
  0
SOLID
  5
21D
330
13A
100
AcDbEntity
  8
Dimension (ANSI)
100
AcDbTrace
 10
11.29188816505914
 20
4.428778572161857
 30
0.0
 11
11.29188816505914
 21
4.375861800860199
 31
0.0
 12
11.45063847896412
 22
4.402320186511028
 32
0.0
 13
11.45063847896412
 23
4.402320186511028
 33
0.0
  0
SOLID
  5
21E
330
13A
100
AcDbEntity
  8
Dimension (ANSI)
100
AcDbTrace
 10
4.729388792869098
 20
4.428778572161857
 30
0.0
 11
4.729388792869098
 21
4.375861800860199
 31
0.0
 12
4.57063847896412
 22
4.402320186511028
 32
0.0
 13
4.57063847896412
 23
4.402320186511028
 33
0.0
  0
MTEXT
  5
21F
330
13A
100
AcDbEntity
  8
Dimension (ANSI)
100
AcDbMText
 10
7.762691156561482
 20
4.503513890568934
 30
0.0
 40
0.1935483947876961
 41
0.0
 71
     1
 72
     1
  1
\A1;6.88
  7
Note Text (ANSI)
 73
     1
 44
1.0
1001
ACAD
1000
MTEXTBEGIN
1070
    73
1070
     1
1070
    44
1040
1.0
1070
    74
1070
     0
1000
MTEXTEND
  0
POINT
  5
220
330
13A
100
AcDbEntity
  8
Defpoints
 62
     0
100
AcDbPoint
 10
11.45063847896412
 20
7.026992102521528
 30
0.0
  0
POINT
  5
221
330
13A
100
AcDbEntity
  8
Defpoints
 62
     0
100
AcDbPoint
 10
4.57063847896412
 20
7.026992102521528
 30
0.0
  0
POINT
  5
222
330
13A
100
AcDbEntity
  8
Defpoints
 62
     0
100
AcDbPoint
 10
4.57063847896412
 20
4.402320186511028
 30
0.0
  0
ENDBLK
  5
13C
330
13A
100
AcDbEntity
  8
0
100
AcDbBlockEnd
  0
BLOCK
  5
225
330
224
100
AcDbEntity
  8
0
100
AcDbBlockBegin
  2
*D5
 70
     1
 10
0.0
 20
0.0
 30
0.0
  3
*D5
  1

  0
LINE
  5
303
330
224
100
AcDbEntity
  8
Dimension (ANSI)
100
AcDbLine
 10
4.469832027351217
 20
7.026992102521528
 30
0.0
 11
2.138054447129388
 21
7.026992102521528
 31
0.0
  0
LINE
  5
304
330
224
100
AcDbEntity
  8
Dimension (ANSI)
100
AcDbLine
 10
4.469832027351214
 20
15.90699210252152
 30
0.0
 11
2.138054447129389
 21
15.90699210252153
 31
0.0
  0
LINE
  5
305
330
224
100
AcDbEntity
  8
Dimension (ANSI)
100
AcDbLine
 10
2.339667350355194
 20
7.185742416426506
 30
0.0
 11
2.339667350355195
 21
11.31499829686341
 31
0.0
  0
LINE
  5
306
330
224
100
AcDbEntity
  8
Dimension (ANSI)
100
AcDbLine
 10
2.339667350355196
 20
15.74824178861655
 30
0.0
 11
2.339667350355195
 21
11.61898590817963
 31
0.0
  0
SOLID
  5
307
330
224
100
AcDbEntity
  8
Dimension (ANSI)
100
AcDbTrace
 10
2.313208964704364
 20
7.185742416426506
 30
0.0
 11
2.366125736006024
 21
7.185742416426506
 31
0.0
 12
2.339667350355194
 22
7.026992102521528
 32
0.0
 13
2.339667350355194
 23
7.026992102521528
 33
0.0
  0
SOLID
  5
308
330
224
100
AcDbEntity
  8
Dimension (ANSI)
100
AcDbTrace
 10
2.313208964704366
 20
15.74824178861655
 30
0.0
 11
2.366125736006026
 21
15.74824178861655
 31
0.0
 12
2.339667350355196
 22
15.90699210252153
 32
0.0
 13
2.339667350355196
 23
15.90699210252153
 33
0.0
  0
MTEXT
  5
309
330
224
100
AcDbEntity
  8
Dimension (ANSI)
100
AcDbMText
 10
2.091005107756897
 20
11.56818580657943
 30
0.0
 40
0.1935483947876961
 41
0.0
 71
     1
 72
     1
  1
\A1;8.88
  7
Note Text (ANSI)
 73
     1
 44
1.0
1001
ACAD
1000
MTEXTBEGIN
1070
    73
1070
     1
1070
    44
1040
1.0
1070
    74
1070
     0
1000
MTEXTEND
  0
POINT
  5
30A
330
224
100
AcDbEntity
  8
Defpoints
 62
     0
100
AcDbPoint
 10
4.57063847896412
 20
7.026992102521528
 30
0.0
  0
POINT
  5
30B
330
224
100
AcDbEntity
  8
Defpoints
 62
     0
100
AcDbPoint
 10
4.570638478964117
 20
15.90699210252152
 30
0.0
  0
POINT
  5
30C
330
224
100
AcDbEntity
  8
Defpoints
 62
     0
100
AcDbPoint
 10
2.339667350355196
 20
15.90699210252153
 30
0.0
  0
ENDBLK
  5
226
330
224
100
AcDbEntity
  8
0
100
AcDbBlockEnd
  0
BLOCK
  5
30F
330
30E
100
AcDbEntity
  8
0
100
AcDbBlockBegin
  2
*D6
 70
     1
 10
0.0
 20
0.0
 30
0.0
  3
*D6
  1

  0
LINE
  5
416
330
30E
100
AcDbEntity
  8
Dimension (ANSI)
100
AcDbLine
 10
4.469832027351217
 20
7.026992102521528
 30
0.0
 11
3.662024650391845
 21
7.026992102521528
 31
0.0
  0
LINE
  5
417
330
30E
100
AcDbEntity
  8
Dimension (ANSI)
100
AcDbLine
 10
4.642332027351217
 20
7.339992102521527
 30
0.0
 11
3.662024650391845
 21
7.339992102521527
 31
0.0
  0
LINE
  5
418
330
30E
100
AcDbEntity
  8
Dimension (ANSI)
100
AcDbLine
 10
3.863637553617651
 20
7.498742416426505
 30
0.0
 11
3.863637553617651
 21
7.657492730331482
 31
0.0
  0
LINE
  5
419
330
30E
100
AcDbEntity
  8
Dimension (ANSI)
100
AcDbLine
 10
3.863637553617651
 20
6.86824178861655
 30
0.0
 11
3.863637553617651
 21
6.082454333251747
 31
0.0
  0
LINE
  5
41A
330
30E
100
AcDbEntity
  8
Dimension (ANSI)
100
AcDbLine
 10
3.863637553617651
 20
6.082454333251747
 30
0.0
 11
3.704887239712673
 21
6.082454333251747
 31
0.0
  0
SOLID
  5
41B
330
30E
100
AcDbEntity
  8
Dimension (ANSI)
100
AcDbTrace
 10
3.837179167966822
 20
7.498742416426505
 30
0.0
 11
3.890095939268481
 21
7.498742416426505
 31
0.0
 12
3.863637553617651
 22
7.339992102521527
 32
0.0
 13
3.863637553617651
 23
7.339992102521527
 33
0.0
  0
SOLID
  5
41C
330
30E
100
AcDbEntity
  8
Dimension (ANSI)
100
AcDbTrace
 10
3.837179167966821
 20
6.86824178861655
 30
0.0
 11
3.890095939268481
 21
6.86824178861655
 31
0.0
 12
3.863637553617651
 22
7.026992102521528
 32
0.0
 13
3.863637553617651
 23
7.026992102521528
 33
0.0
  0
MTEXT
  5
41D
330
30E
100
AcDbEntity
  8
Dimension (ANSI)
100
AcDbMText
 10
3.398405679047729
 20
6.082454333251748
 30
0.0
 40
0.1935483947876961
 41
0.0
 71
     5
 72
     1
  1
\A1;0.31{\PTYP.}
  7
Note Text (ANSI)
 73
     1
 44
1.0
1001
ACAD
1000
MTEXTBEGIN
1070
    73
1070
     1
1070
    44
1040
1.0
1070
    74
1070
     0
1000
MTEXTEND
  0
POINT
  5
41E
330
30E
100
AcDbEntity
  8
Defpoints
 62
     0
100
AcDbPoint
 10
4.57063847896412
 20
7.026992102521528
 30
0.0
  0
POINT
  5
41F
330
30E
100
AcDbEntity
  8
Defpoints
 62
     0
100
AcDbPoint
 10
4.74313847896412
 20
7.339992102521527
 30
0.0
  0
POINT
  5
420
330
30E
100
AcDbEntity
  8
Defpoints
 62
     0
100
AcDbPoint
 10
3.863637553617651
 20
7.339992102521527
 30
0.0
  0
ENDBLK
  5
310
330
30E
100
AcDbEntity
  8
0
100
AcDbBlockEnd
  0
BLOCK
  5
423
330
422
100
AcDbEntity
  8
0
100
AcDbBlockBegin
  2
*D7
 70
     1
 10
0.0
 20
0.0
 30
0.0
  3
*D7
  1

  0
LINE
  5
515
330
422
100
AcDbEntity
  8
Dimension (ANSI)
100
AcDbLine
 10
4.57063847896412
 20
6.926185650908625
 30
0.0
 11
4.57063847896412
 21
4.98810885808837
 31
0.0
  0
LINE
  5
516
330
422
100
AcDbEntity
  8
Dimension (ANSI)
100
AcDbLine
 10
4.883638478964121
 20
7.130185650908624
 30
0.0
 11
4.883638478964121
 21
4.98810885808837
 31
0.0
  0
LINE
  5
517
330
422
100
AcDbEntity
  8
Dimension (ANSI)
100
AcDbLine
 10
5.042388792869099
 20
5.189721761314177
 30
0.0
 11
5.201139106774076
 21
5.189721761314177
 31
0.0
  0
LINE
  5
518
330
422
100
AcDbEntity
  8
Dimension (ANSI)
100
AcDbLine
 10
4.411888165059142
 20
5.189721761314177
 30
0.0
 11
3.748806992317432
 21
5.189721761314177
 31
0.0
  0
SOLID
  5
519
330
422
100
AcDbEntity
  8
Dimension (ANSI)
100
AcDbTrace
 10
5.042388792869099
 20
5.216180146965006
 30
0.0
 11
5.042388792869099
 21
5.163263375663348
 31
0.0
 12
4.883638478964121
 22
5.189721761314177
 32
0.0
 13
4.883638478964121
 23
5.189721761314177
 33
0.0
  0
SOLID
  5
51A
330
422
100
AcDbEntity
  8
Dimension (ANSI)
100
AcDbTrace
 10
4.411888165059142
 20
5.216180146965006
 30
0.0
 11
4.411888165059142
 21
5.163263375663348
 31
0.0
 12
4.57063847896412
 22
5.189721761314177
 32
0.0
 13
4.57063847896412
 23
5.189721761314177
 33
0.0
  0
MTEXT
  5
51B
330
422
100
AcDbEntity
  8
Dimension (ANSI)
100
AcDbMText
 10
3.442325431652489
 20
5.189721761314177
 30
0.0
 40
0.1935483947876961
 41
0.0
 71
     5
 72
     1
  1
\A1;0.31{\PTYP.}
  7
Note Text (ANSI)
 73
     1
 44
1.0
1001
ACAD
1000
MTEXTBEGIN
1070
    73
1070
     1
1070
    44
1040
1.0
1070
    74
1070
     0
1000
MTEXTEND
  0
POINT
  5
51C
330
422
100
AcDbEntity
  8
Defpoints
 62
     0
100
AcDbPoint
 10
4.57063847896412
 20
7.026992102521528
 30
0.0
  0
POINT
  5
51D
330
422
100
AcDbEntity
  8
Defpoints
 62
     0
100
AcDbPoint
 10
4.883638478964121
 20
7.230992102521527
 30
0.0
  0
POINT
  5
51E
330
422
100
AcDbEntity
  8
Defpoints
 62
     0
100
AcDbPoint
 10
4.883638478964121
 20
5.189721761314177
 30
0.0
  0
ENDBLK
  5
424
330
422
100
AcDbEntity
  8
0
100
AcDbBlockEnd
  0
BLOCK
  5
521
330
520
100
AcDbEntity
  8
0
100
AcDbBlockBegin
  2
*D8
 70
     1
 10
0.0
 20
0.0
 30
0.0
  3
*D8
  1

  0
LINE
  5
5FF
330
520
100
AcDbEntity
  8
Dimension (ANSI)
100
AcDbLine
 10
4.883638478964121
 20
7.130185650908624
 30
0.0
 11
4.883638478964121
 21
4.98810885808837
 31
0.0
  0
LINE
  5
600
330
520
100
AcDbEntity
  8
Dimension (ANSI)
100
AcDbLine
 10
5.883638478964121
 20
7.114185650908623
 30
0.0
 11
5.883638478964121
 21
4.98810885808837
 31
0.0
  0
LINE
  5
601
330
520
100
AcDbEntity
  8
Dimension (ANSI)
100
AcDbLine
 10
5.042388792869099
 20
5.189721761314177
 30
0.0
 11
5.724888165059143
 21
5.189721761314177
 31
0.0
  0
LINE
  5
602
330
520
100
AcDbEntity
  8
Dimension (ANSI)
100
AcDbLine
 10
5.883638478964121
 20
5.189721761314177
 30
0.0
 11
6.17056178607498
 21
5.189721761314177
 31
0.0
  0
SOLID
  5
603
330
520
100
AcDbEntity
  8
Dimension (ANSI)
100
AcDbTrace
 10
5.042388792869099
 20
5.216180146965006
 30
0.0
 11
5.042388792869099
 21
5.163263375663348
 31
0.0
 12
4.883638478964121
 22
5.189721761314177
 32
0.0
 13
4.883638478964121
 23
5.189721761314177
 33
0.0
  0
SOLID
  5
604
330
520
100
AcDbEntity
  8
Dimension (ANSI)
100
AcDbTrace
 10
5.724888165059143
 20
5.216180146965006
 30
0.0
 11
5.724888165059143
 21
5.163263375663348
 31
0.0
 12
5.883638478964121
 22
5.189721761314177
 32
0.0
 13
5.883638478964121
 23
5.189721761314177
 33
0.0
  0
MTEXT
  5
605
330
520
100
AcDbEntity
  8
Dimension (ANSI)
100
AcDbMText
 10
6.221361887675183
 20
5.290460516156665
 30
0.0
 40
0.1935483947876961
 41
0.0
 71
     1
 72
     1
  1
\A1;1.000
  7
Note Text (ANSI)
 73
     1
 44
1.0
1001
ACAD
1000
MTEXTBEGIN
1070
    73
1070
     1
1070
    44
1040
1.0
1070
    74
1070
     0
1000
MTEXTEND
  0
POINT
  5
606
330
520
100
AcDbEntity
  8
Defpoints
 62
     0
100
AcDbPoint
 10
4.883638478964121
 20
7.230992102521527
 30
0.0
  0
POINT
  5
607
330
520
100
AcDbEntity
  8
Defpoints
 62
     0
100
AcDbPoint
 10
5.883638478964121
 20
7.214992102521526
 30
0.0
  0
POINT
  5
608
330
520
100
AcDbEntity
  8
Defpoints
 62
     0
100
AcDbPoint
 10
5.883638478964121
 20
5.189721761314177
 30
0.0
  0
ENDBLK
  5
522
330
520
100
AcDbEntity
  8
0
100
AcDbBlockEnd
  0
BLOCK
  5
60B
330
60A
100
AcDbEntity
  8
0
100
AcDbBlockBegin
  2
*D9
 70
     1
 10
0.0
 20
0.0
 30
0.0
  3
*D9
  1

  0
LINE
  5
6BB
330
60A
100
AcDbEntity
  8
Dimension (ANSI)
100
AcDbLine
 10
7.834159488423154
 20
6.328717261676267
 30
0.0
 11
7.635217883724686
 21
6.328717261676267
 31
0.0
  0
LINE
  5
6BC
330
60A
100
AcDbEntity
  8
Dimension (ANSI)
100
AcDbLine
 10
7.635217883724686
 20
6.328717261676267
 30
0.0
 11
6.129373459137656
 21
7.198116945569063
 31
0.0
  0
MTEXT
  5
6BD
102
{ACAD_XDICTIONARY
360
8E7
102
}
330
60A
100
AcDbEntity
  8
Dimension (ANSI)
100
AcDbMText
 10
7.884959590023357
 20
6.472510099412727
 30
0.0
 40
0.1935483947876961
 41
0.0
 71
     1
 72
     1
  1
\A1;\U+22050.250{\PGROUND\P HOLE}
  7
Note Text (ANSI)
 73
     1
 44
1.0
1001
ACAD
1000
MTEXTBEGIN
1070
    73
1070
     1
1070
    44
1040
1.0
1070
    74
1070
     0
1000
MTEXTEND
  0
SOLID
  5
6BE
330
60A
100
AcDbEntity
  8
Dimension (ANSI)
100
AcDbTrace
 10
6.142602651963068
 20
7.221030579685809
 30
0.0
 11
6.116144266312243
 21
7.175203311452317
 31
0.0
 12
5.991891654437182
 22
7.277492102521537
 32
0.0
 13
5.991891654437182
 23
7.277492102521537
 33
0.0
  0
LINE
  5
6BF
330
60A
100
AcDbEntity
  8
Dimension (ANSI)
100
AcDbLine
 10
5.738477188641537
 20
7.339992102521526
 30
0.0
 11
6.0287997692867
 21
7.339992102521525
 31
0.0
  0
LINE
  5
6C0
330
60A
100
AcDbEntity
  8
Dimension (ANSI)
100
AcDbLine
 10
5.883638478964119
 20
7.194830812198944
 30
0.0
 11
5.883638478964119
 21
7.485153392844106
 31
0.0
  0
POINT
  5
6C1
330
60A
100
AcDbEntity
  8
Defpoints
 62
     0
100
AcDbPoint
 10
5.991891654437182
 20
7.277492102521537
 30
0.0
  0
POINT
  5
6C2
330
60A
100
AcDbEntity
  8
Defpoints
 62
     0
100
AcDbPoint
 10
5.775385303491057
 20
7.402492102521514
 30
0.0
  0
ENDBLK
  5
60C
330
60A
100
AcDbEntity
  8
0
100
AcDbBlockEnd
  0
BLOCK
  5
6C5
330
6C4
100
AcDbEntity
  8
0
100
AcDbBlockBegin
  2
*D10
 70
     1
 10
0.0
 20
0.0
 30
0.0
  3
*D10
  1

  0
LINE
  5
760
330
6C4
100
AcDbEntity
  8
Dimension (ANSI)
100
AcDbLine
 10
12.56557419854776
 20
8.5888884146009
 30
0.0
 11
12.40628030732714
 21
8.5888884146009
 31
0.0
  0
LINE
  5
761
330
6C4
100
AcDbEntity
  8
Dimension (ANSI)
100
AcDbLine
 10
12.40628030732714
 20
8.5888884146009
 30
0.0
 11
11.35756925452896
 21
7.530213219688484
 31
0.0
  0
MTEXT
  5
762
330
6C4
100
AcDbEntity
  8
Dimension (ANSI)
100
AcDbMText
 10
12.61637430014796
 20
8.740458717496169
 30
0.0
 40
0.1935483947876961
 41
0.0
 71
     1
 72
     1
  1
\A1; 0.218 X 0.281\POBROUND\PTYP. (4 PL.)
  7
Note Text (ANSI)
 73
     1
 44
1.0
1001
ACAD
1000
MTEXTBEGIN
1070
    73
1070
     1
1070
    44
1040
1.0
1070
    74
1070
     0
1000
MTEXTEND
  0
SOLID
  5
763
330
6C4
100
AcDbEntity
  8
Dimension (ANSI)
100
AcDbTrace
 10
11.33877210130239
 20
7.548833456041032
 30
0.0
 11
11.37636640775554
 21
7.511592983335936
 31
0.0
 12
11.24584783641368
 22
7.417430300329042
 32
0.0
 13
11.24584783641368
 23
7.417430300329042
 33
0.0
  0
POINT
  5
764
330
6C4
100
AcDbEntity
  8
Defpoints
 62
     0
100
AcDbPoint
 10
11.24584783641368
 20
7.417430300329042
 30
0.0
  0
POINT
  5
765
330
6C4
100
AcDbEntity
  8
Defpoints
 62
     0
100
AcDbPoint
 10
11.16913847896412
 20
7.339992102521526
 30
0.0
  0
ENDBLK
  5
6C6
330
6C4
100
AcDbEntity
  8
0
100
AcDbBlockEnd
  0
BLOCK
  5
7A5
330
7A4
100
AcDbEntity
  8
0
100
AcDbBlockBegin
  2
*D11
 70
     1
 10
0.0
 20
0.0
 30
0.0
  3
*D11
  1

  0
LINE
  5
894
330
7A4
100
AcDbEntity
  8
Dimension (ANSI)
100
AcDbLine
 10
16.47123370476279
 20
14.8460612821865
 30
0.0
 11
16.31248339085782
 21
14.8460612821865
 31
0.0
  0
LINE
  5
895
330
7A4
100
AcDbEntity
  8
Dimension (ANSI)
100
AcDbLine
 10
16.86273433257275
 20
14.8460612821865
 30
0.0
 11
17.19462989487211
 21
14.8460612821865
 31
0.0
  0
SOLID
  5
896
330
7A4
100
AcDbEntity
  8
Dimension (ANSI)
100
AcDbTrace
 10
16.47123370476279
 20
14.87251966783733
 30
0.0
 11
16.47123370476279
 21
14.81960289653567
 31
0.0
 12
16.62998401866777
 22
14.8460612821865
 32
0.0
 13
16.62998401866777
 23
14.8460612821865
 33
0.0
  0
SOLID
  5
897
330
7A4
100
AcDbEntity
  8
Dimension (ANSI)
100
AcDbTrace
 10
16.86273433257275
 20
14.87251966783733
 30
0.0
 11
16.86273433257275
 21
14.81960289653567
 31
0.0
 12
16.70398401866777
 22
14.8460612821865
 32
0.0
 13
16.70398401866777
 23
14.8460612821865
 33
0.0
  0
MTEXT
  5
898
330
7A4
100
AcDbEntity
  8
Dimension (ANSI)
100
AcDbMText
 10
17.24542999647232
 20
14.98909587123059
 30
0.0
 40
0.1935483947876961
 41
0.0
 71
     1
 72
     1
  1
\A1;(0.074){\P14 GA.\PGALV}
  7
Note Text (ANSI)
 73
     1
 44
1.0
1001
ACAD
1000
MTEXTBEGIN
1070
    73
1070
     1
1070
    44
1040
1.0
1070
    74
1070
     0
1000
MTEXTEND
  0
POINT
  5
899
330
7A4
100
AcDbEntity
  8
Defpoints
 62
     0
100
AcDbPoint
 10
16.70398401866777
 20
14.8460612821865
 30
0.0
  0
POINT
  5
89A
330
7A4
100
AcDbEntity
  8
Defpoints
 62
     0
100
AcDbPoint
 10
16.62998401866777
 20
14.8460612821865
 30
0.0
  0
POINT
  5
89B
330
7A4
100
AcDbEntity
  8
Defpoints
 62
     0
100
AcDbPoint
 10
16.62998401866777
 20
14.8460612821865
 30
0.0
  0
ENDBLK
  5
7A6
330
7A4
100
AcDbEntity
  8
0
100
AcDbBlockEnd
  0
ENDSEC
  0
SECTION
  2
ENTITIES
  0
CIRCLE
  5
11D
330
6C
100
AcDbEntity
  8
Visible (ANSI)
100
AcDbCircle
 10
5.883638478964121
 20
7.339992102521527
 30
0.0
 40
0.125
  0
LINE
  5
11E
330
6C
100
AcDbEntity
  8
Visible (ANSI)
100
AcDbLine
 10
4.85213847896412
 20
7.448992102521527
 30
0.0
 11
4.91513847896412
 21
7.448992102521527
 31
0.0
  0
ARC
  5
11F
330
6C
100
AcDbEntity
  8
Visible (ANSI)
100
AcDbCircle
 10
4.85213847896412
 20
7.339992102521527
 30
0.0
 40
0.109
100
AcDbArc
 50
90.0
 51
270.0
  0
LINE
  5
120
330
6C
100
AcDbEntity
  8
Visible (ANSI)
100
AcDbLine
 10
4.91513847896412
 20
7.230992102521528
 30
0.0
 11
4.85213847896412
 21
7.230992102521528
 31
0.0
  0
ARC
  5
121
330
6C
100
AcDbEntity
  8
Visible (ANSI)
100
AcDbCircle
 10
4.91513847896412
 20
7.339992102521527
 30
0.0
 40
0.1090000000000001
100
AcDbArc
 50
270.0
 51
90.0
  0
LINE
  5
122
330
6C
100
AcDbEntity
  8
Visible (ANSI)
100
AcDbLine
 10
11.10613847896412
 20
15.70299210252152
 30
0.0
 11
11.16913847896412
 21
15.70299210252152
 31
0.0
  0
ARC
  5
123
330
6C
100
AcDbEntity
  8
Visible (ANSI)
100
AcDbCircle
 10
11.10613847896412
 20
15.59399210252153
 30
0.0
 40
0.1089999999999997
100
AcDbArc
 50
90.0
 51
270.0
  0
LINE
  5
124
330
6C
100
AcDbEntity
  8
Visible (ANSI)
100
AcDbLine
 10
11.16913847896412
 20
15.48499210252153
 30
0.0
 11
11.10613847896412
 21
15.48499210252153
 31
0.0
  0
ARC
  5
125
330
6C
100
AcDbEntity
  8
Visible (ANSI)
100
AcDbCircle
 10
11.16913847896412
 20
15.59399210252153
 30
0.0
 40
0.1089999999999997
100
AcDbArc
 50
270.0
 51
90.0
  0
LINE
  5
126
330
6C
100
AcDbEntity
  8
Visible (ANSI)
100
AcDbLine
 10
11.10613847896412
 20
7.448992102521527
 30
0.0
 11
11.16913847896412
 21
7.448992102521527
 31
0.0
  0
ARC
  5
127
330
6C
100
AcDbEntity
  8
Visible (ANSI)
100
AcDbCircle
 10
11.10613847896412
 20
7.339992102521527
 30
0.0
 40
0.109
100
AcDbArc
 50
90.0
 51
270.0
  0
LINE
  5
128
330
6C
100
AcDbEntity
  8
Visible (ANSI)
100
AcDbLine
 10
11.16913847896412
 20
7.230992102521528
 30
0.0
 11
11.10613847896412
 21
7.230992102521528
 31
0.0
  0
ARC
  5
129
330
6C
100
AcDbEntity
  8
Visible (ANSI)
100
AcDbCircle
 10
11.16913847896412
 20
7.339992102521527
 30
0.0
 40
0.109
100
AcDbArc
 50
270.0
 51
90.0
  0
LINE
  5
12A
330
6C
100
AcDbEntity
  8
Visible (ANSI)
100
AcDbLine
 10
4.852138478964117
 20
15.70299210252152
 30
0.0
 11
4.915138478964118
 21
15.70299210252152
 31
0.0
  0
ARC
  5
12B
330
6C
100
AcDbEntity
  8
Visible (ANSI)
100
AcDbCircle
 10
4.852138478964117
 20
15.59399210252153
 30
0.0
 40
0.1089999999999997
100
AcDbArc
 50
90.0000000000003
 51
270.0000000000003
  0
LINE
  5
12C
330
6C
100
AcDbEntity
  8
Visible (ANSI)
100
AcDbLine
 10
4.915138478964118
 20
15.48499210252153
 30
0.0
 11
4.852138478964118
 21
15.48499210252153
 31
0.0
  0
ARC
  5
12D
330
6C
100
AcDbEntity
  8
Visible (ANSI)
100
AcDbCircle
 10
4.915138478964118
 20
15.59399210252153
 30
0.0
 40
0.1089999999999997
100
AcDbArc
 50
270.0000000000003
 51
90.0000000000003
  0
LINE
  5
12E
330
6C
100
AcDbEntity
  8
Visible (ANSI)
100
AcDbLine
 10
4.57063847896412
 20
7.026992102521528
 30
0.0
 11
4.570638478964117
 21
15.90699210252152
 31
0.0
  0
LINE
  5
12F
330
6C
100
AcDbEntity
  8
Visible (ANSI)
100
AcDbLine
 10
4.570638478964117
 20
15.90699210252152
 30
0.0
 11
11.45063847896412
 21
15.90699210252152
 31
0.0
  0
LINE
  5
130
330
6C
100
AcDbEntity
  8
Visible (ANSI)
100
AcDbLine
 10
11.45063847896412
 20
15.90699210252152
 30
0.0
 11
11.45063847896412
 21
7.026992102521528
 31
0.0
  0
LINE
  5
131
330
6C
100
AcDbEntity
  8
Visible (ANSI)
100
AcDbLine
 10
11.45063847896412
 20
7.026992102521528
 30
0.0
 11
4.57063847896412
 21
7.026992102521528
 31
0.0
  0
MTEXT
  5
133
330
6C
100
AcDbEntity
  8
Symbol (ANSI)
100
AcDbMText
 10
7.338609761524069
 20
3.37390340869227
 30
0.0
 40
0.1935483894888326
 41
0.0
 71
     7
 72
     1
  1
FRONT VIEW
  7
Text Style150
 73
     1
 44
1.0
1001
ACAD
1000
MTEXTBEGIN
1070
    73
1070
     1
1070
    44
1040
1.0
1070
    74
1070
     0
1000
MTEXTEND
  0
LINE
  5
135
330
6C
100
AcDbEntity
  8
Symbol (ANSI)
370
    30
100
AcDbLine
 10
7.319254873026671
 20
3.334433025829544
 30
0.0
 11
8.875327460584214
 21
3.334433025829544
 31
0.0
  0
MTEXT
  5
136
330
6C
100
AcDbEntity
  8
Symbol (ANSI)
100
AcDbMText
 10
8.034944748111861
 20
2.937317590502231
 30
0.0
 40
0.2903225747709926
 41
0.0
 71
     7
 72
     1
  1
 
  7
Label Text (ANSI)
 73
     1
 44
1.0
1001
ACAD
1000
MTEXTBEGIN
1070
    73
1070
     1
1070
    44
1040
1.0
1070
    74
1070
     0
1000
MTEXTEND
  0
DIMENSION
  5
137
330
6C
100
AcDbEntity
  8
Dimension (ANSI)
100
AcDbDimension
  2
*D4
 10
4.57063847896412
 20
4.402320186511028
 30
0.0
 11
8.010638478964121
 21
4.402320186511028
 31
0.0
 70
   160
  1
<>
 42
6.88
  3
Default (ANSI)-01
100
AcDbAlignedDimension
 13
11.45063847896412
 23
7.026992102521528
 33
0.0
 14
4.57063847896412
 24
7.026992102521528
 34
0.0
 50
180.0
100
AcDbRotatedDimension
1001
ACAD
1000
DSTYLE
1002
{
1070
   289
1070
     1
1070
    73
1070
     0
1070
    74
1070
     0
1070
   271
1070
     2
1070
   272
1070
     2
1070
    48
1040
0.0
1070
    47
1040
0.0
1002
}
  0
DIMENSION
  5
223
330
6C
100
AcDbEntity
  8
Dimension (ANSI)
100
AcDbDimension
  2
*D5
 10
2.339667350355196
 20
15.90699210252153
 30
0.0
 11
2.339667350355193
 21
11.46699210252152
 31
0.0
 70
   160
  1
<>
 42
8.879999999999999
  3
Default (ANSI)-01
100
AcDbAlignedDimension
 13
4.57063847896412
 23
7.026992102521528
 33
0.0
 14
4.570638478964117
 24
15.90699210252152
 34
0.0
 50
90.0
100
AcDbRotatedDimension
1001
ACAD
1000
DSTYLE
1002
{
1070
   289
1070
     1
1070
   271
1070
     2
1070
   272
1070
     2
1070
    48
1040
0.0
1070
    47
1040
0.0
1002
}
  0
DIMENSION
  5
30D
330
6C
100
AcDbEntity
  8
Dimension (ANSI)
100
AcDbDimension
  2
*D6
 10
3.863637553617651
 20
7.339992102521527
 30
0.0
 11
3.398405679047729
 21
6.082454333251748
 31
0.0
 70
   160
  1
<>{\PTYP.}
 71
     5
 42
0.3129999999999997
  3
Default (ANSI)-01
100
AcDbAlignedDimension
 13
4.57063847896412
 23
7.026992102521528
 33
0.0
 14
4.74313847896412
 24
7.339992102521527
 34
0.0
 50
90.0
100
AcDbRotatedDimension
1001
ACAD
1000
DSTYLE
1002
{
1070
   289
1070
     1
1070
   271
1070
     2
1070
   272
1070
     2
1070
    48
1040
0.0
1070
    47
1040
0.0
1002
}
  0
DIMENSION
  5
421
330
6C
100
AcDbEntity
  8
Dimension (ANSI)
100
AcDbDimension
  2
*D7
 10
4.883638478964121
 20
5.189721761314177
 30
0.0
 11
3.442325431652489
 21
5.189721761314177
 31
0.0
 70
   160
  1
<>{\PTYP.}
 71
     5
 42
0.3130000000000006
  3
Default (ANSI)-01
100
AcDbAlignedDimension
 13
4.57063847896412
 23
7.026992102521528
 33
0.0
 14
4.883638478964121
 24
7.230992102521527
 34
0.0
 50
180.0
100
AcDbRotatedDimension
1001
ACAD
1000
DSTYLE
1002
{
1070
   289
1070
     1
1070
    73
1070
     0
1070
    74
1070
     0
1070
   271
1070
     2
1070
   272
1070
     2
1070
    48
1040
0.0
1070
    47
1040
0.0
1002
}
  0
DIMENSION
  5
51F
330
6C
100
AcDbEntity
  8
Dimension (ANSI)
100
AcDbDimension
  2
*D8
 10
5.883638478964121
 20
5.189721761314177
 30
0.0
 11
6.532222187295583
 21
5.189721761314177
 31
0.0
 70
   160
  1
<>
  3
Default (ANSI)
100
AcDbAlignedDimension
 13
4.883638478964121
 23
7.230992102521527
 33
0.0
 14
5.883638478964121
 24
7.214992102521526
 34
0.0
 50
180.0
100
AcDbRotatedDimension
1001
ACAD
1000
DSTYLE
1002
{
1070
   289
1070
     2
1070
    73
1070
     0
1070
    74
1070
     0
1070
   271
1070
     3
1070
   272
1070
     2
1070
    48
1040
0.0
1070
    47
1040
0.0
1002
}
  0
DIMENSION
  5
609
330
6C
100
AcDbEntity
  8
Dimension (ANSI)
100
AcDbDimension
  2
*D9
 10
5.775385303491057
 20
7.402492102521514
 30
0.0
 11
8.408541144224056
 21
6.328717261676267
 31
0.0
 70
   163
  1
<>{\PGROUND\P HOLE}
 42
0.25
  3
Default (ANSI)
100
AcDbDiametricDimension
 15
5.991891654437182
 25
7.277492102521537
 35
0.0
 40
0.0
1001
ACAD_DSTYLE_DIMRADIAL_EXTENSION
1070
   387
1070
     1
1070
   388
1040
0.0
1070
   390
1040
0.0
1001
ACAD
1000
DSTYLE
1002
{
1070
   145
1040
-0.3333333333333334
1070
   144
1040
0.9999999999999911
1070
   271
1070
     3
1070
   272
1070
     2
1070
    48
1040
0.0
1070
    47
1040
0.0
1002
}
  0
DIMENSION
  5
6C3
330
6C
100
AcDbEntity
  8
Dimension (ANSI)
100
AcDbDimension
  2
*D10
 10
11.16913847896412
 20
7.339992102521526
 30
0.0
 11
13.46953406454625
 21
8.588888414600901
 31
0.0
 70
   164
  1
 0.218 X 0.281\POBROUND\PTYP. (4 PL.)
 42
0.1089999999999982
  3
Default (ANSI)
100
AcDbRadialDimension
 15
11.24584783641368
 25
7.417430300329042
 35
0.0
 40
0.0
1001
ACAD_DSTYLE_DIMRADIAL_EXTENSION
1070
   387
1070
     1
1070
   388
1040
0.0
1070
   390
1040
0.0
1001
ACAD
1000
DSTYLE
1002
{
1070
   145
1040
-0.3333333333333334
1070
   271
1070
     3
1070
   141
1040
0.0
1070
   272
1070
     2
1070
    48
1040
0.0
1070
    47
1040
0.0
1002
}
  0
MTEXT
  5
766
330
6C
100
AcDbEntity
  8
Symbol (ANSI)
100
AcDbMText
 10
19.32864325265216
 20
4.343935857108746
 30
0.0
 40
0.1935483894888326
 41
6.451035567653322
 71
     1
 72
     1
  1
{\fRomanS|b0|i0;\H0.1935;PART#: P1008G\P(DATA SUBJECT TO CHANGE WITHOUT \PNOTICE)\PTHIS DRAWING AND COMPONENTS OF ARE\PPROPERTY OF HUBBELL INC. WIEGMANN}
  7
Note Text (ANSI)
 73
     2
 44
1.093904256820678
1001
ACAD
1000
MTEXTBEGIN
1070
    73
1070
     2
1070
    44
1040
1.093904256820678
1070
    74
1070
     0
1000
MTEXTEND
  0
ELLIPSE
  5
768
330
6C
100
AcDbEntity
  8
Visible (ANSI)
100
AcDbEllipse
 10
22.41067536570192
 20
9.193438833355827
 30
0.0
 11
0.0452750998413318
 21
-0.0786214811018782
 31
0.0
210
0.0
220
0.0
230
1.0
 40
0.5780931159158107
 41
3.572615253427377
 42
5.852162707341218
  0
ELLIPSE
  5
769
330
6C
100
AcDbEntity
  8
Visible (ANSI)
100
AcDbEllipse
 10
22.37269688858336
 20
9.171568482921493
 30
0.0
 11
-0.045275099841327
 21
0.0786214811018808
 31
0.0
210
0.0
220
0.0
230
1.0
 40
0.5780931159158108
 41
0.0
 42
6.283185307179586
  0
LINE
  5
76A
330
6C
100
AcDbEntity
  8
Visible (ANSI)
100
AcDbLine
 10
21.84330771091027
 20
9.541101961829648
 30
0.0
 11
21.87564073872743
 21
9.522482609432856
 31
0.0
  0
ELLIPSE
  5
76B
330
6C
100
AcDbEntity
  8
Visible (ANSI)
100
AcDbEllipse
 10
21.88128618802883
 20
9.498293785693777
 30
0.0
 11
0.0394798870616413
 21
-0.0685579315208377
 31
0.0
210
0.0
220
0.0
230
1.0
 40
0.5780931159158106
 41
3.641254264141275
 42
5.499720852204688
  0
ELLIPSE
  5
76C
330
6C
100
AcDbEntity
  8
Visible (ANSI)
100
AcDbEllipse
 10
21.84330771091027
 20
9.476423435259443
 30
0.0
 11
-0.0394798870616331
 21
0.0685579315208425
 31
0.0
210
0.0
220
0.0
230
1.0
 40
0.5780931159158106
 41
5.499720852205276
 42
8.64131350579507
  0
LINE
  5
76D
330
6C
100
AcDbEntity
  8
Visible Narrow (ANSI)
100
AcDbLine
 10
21.84330771091027
 20
9.411744908689239
 30
0.0
 11
21.88128618802883
 21
9.433615259123573
 31
0.0
  0
LINE
  5
76E
330
6C
100
AcDbEntity
  8
Visible (ANSI)
100
AcDbLine
 10
21.88128618802883
 20
9.433615259123573
 30
0.0
 11
21.91361921584599
 21
9.41499590672678
 31
0.0
  0
LINE
  5
76F
330
6C
100
AcDbEntity
  8
Visible (ANSI)
100
AcDbLine
 10
21.87564073872743
 20
9.393125556292448
 30
0.0
 11
21.84330771091027
 21
9.411744908689239
 31
0.0
  0
LINE
  5
770
330
6C
100
AcDbEntity
  8
Visible Narrow (ANSI)
100
AcDbLine
 10
21.87564073872743
 20
9.393125556292448
 30
0.0
 11
21.91361921584599
 21
9.41499590672678
 31
0.0
  0
ELLIPSE
  5
771
330
6C
100
AcDbEntity
  8
Visible (ANSI)
100
AcDbEllipse
 10
21.91361921584599
 20
9.479674433296985
 30
0.0
 11
0.039479887061637
 21
-0.0685579315208397
 31
0.0
210
0.0
220
0.0
230
0.9999999999999998
 40
0.5780931159158106
 41
5.499720852205022
 42
5.783523696627618
  0
ELLIPSE
  5
772
330
6C
100
AcDbEntity
  8
Visible (ANSI)
100
AcDbEllipse
 10
21.87564073872743
 20
9.457804082862651
 30
0.0
 11
0.0394798870616331
 21
-0.0685579315208425
 31
0.0
210
0.0
220
0.0
230
1.0
 40
0.5780931159158107
 41
5.499720852205276
 42
8.64131350579507
  0
LINE
  5
773
330
6C
100
AcDbEntity
  8
Visible (ANSI)
100
AcDbLine
 10
25.05300225009349
 20
12.59052839485715
 30
0.0
 11
25.08533527791065
 21
12.57190904246035
 31
0.0
  0
ELLIPSE
  5
774
330
6C
100
AcDbEntity
  8
Visible (ANSI)
100
AcDbEllipse
 10
25.09098072721205
 20
12.54772021872127
 30
0.0
 11
0.0394798870616412
 21
-0.0685579315208376
 31
0.0
210
0.0
220
0.0
230
1.0
 40
0.5780931159158107
 41
3.641254264141258
 42
5.499720852204688
  0
ELLIPSE
  5
775
330
6C
100
AcDbEntity
  8
Visible (ANSI)
100
AcDbEllipse
 10
25.05300225009349
 20
12.52584986828694
 30
0.0
 11
-0.039479887061633
 21
0.0685579315208422
 31
0.0
210
0.0
220
0.0
230
1.0
 40
0.5780931159158108
 41
5.499720852205276
 42
8.64131350579507
  0
LINE
  5
776
330
6C
100
AcDbEntity
  8
Visible Narrow (ANSI)
100
AcDbLine
 10
25.05300225009349
 20
12.46117134171674
 30
0.0
 11
25.09098072721205
 21
12.48304169215107
 31
0.0
  0
LINE
  5
777
330
6C
100
AcDbEntity
  8
Visible (ANSI)
100
AcDbLine
 10
25.09098072721205
 20
12.48304169215107
 30
0.0
 11
25.12331375502922
 21
12.46442233975428
 31
0.0
  0
LINE
  5
778
330
6C
100
AcDbEntity
  8
Visible (ANSI)
100
AcDbLine
 10
25.08533527791065
 20
12.44255198931995
 30
0.0
 11
25.05300225009349
 21
12.46117134171674
 31
0.0
  0
LINE
  5
779
330
6C
100
AcDbEntity
  8
Visible Narrow (ANSI)
100
AcDbLine
 10
25.08533527791065
 20
12.44255198931995
 30
0.0
 11
25.12331375502922
 21
12.46442233975428
 31
0.0
  0
ELLIPSE
  5
77A
330
6C
100
AcDbEntity
  8
Visible (ANSI)
100
AcDbEllipse
 10
25.12331375502922
 20
12.52910086632448
 30
0.0
 11
0.039479887061633
 21
-0.0685579315208328
 31
0.0
210
0.0
220
0.0
230
0.9999999999999998
 40
0.5780931159158105
 41
5.499720852205022
 42
5.783523696627741
  0
ELLIPSE
  5
77B
330
6C
100
AcDbEntity
  8
Visible (ANSI)
100
AcDbEllipse
 10
25.08533527791065
 20
12.50723051589015
 30
0.0
 11
0.039479887061633
 21
-0.0685579315208422
 31
0.0
210
0.0
220
0.0
230
1.0
 40
0.5780931159158108
 41
5.499720852205276
 42
8.64131350579507
  0
LINE
  5
77C
330
6C
100
AcDbEntity
  8
Visible (ANSI)
100
AcDbLine
 10
25.05300225009349
 20
7.692761804852879
 30
0.0
 11
25.08533527791065
 21
7.674142452456088
 31
0.0
  0
ELLIPSE
  5
77D
330
6C
100
AcDbEntity
  8
Visible (ANSI)
100
AcDbEllipse
 10
25.09098072721205
 20
7.649953628717008
 30
0.0
 11
0.0394798870616417
 21
-0.0685579315208385
 31
0.0
210
0.0
220
0.0
230
1.0
 40
0.5780931159158108
 41
3.64125426414132
 42
5.499720852204688
  0
ELLIPSE
  5
77E
330
6C
100
AcDbEntity
  8
Visible (ANSI)
100
AcDbEllipse
 10
25.05300225009349
 20
7.628083278282675
 30
0.0
 11
-0.0394798870616331
 21
0.0685579315208425
 31
0.0
210
0.0
220
0.0
230
1.0
 40
0.5780931159158106
 41
5.499720852205276
 42
8.64131350579507
  0
LINE
  5
77F
330
6C
100
AcDbEntity
  8
Visible Narrow (ANSI)
100
AcDbLine
 10
25.05300225009349
 20
7.563404751712472
 30
0.0
 11
25.09098072721205
 21
7.585275102146805
 31
0.0
  0
LINE
  5
780
330
6C
100
AcDbEntity
  8
Visible (ANSI)
100
AcDbLine
 10
25.09098072721205
 20
7.585275102146805
 30
0.0
 11
25.12331375502922
 21
7.566655749750013
 31
0.0
  0
LINE
  5
781
330
6C
100
AcDbEntity
  8
Visible (ANSI)
100
AcDbLine
 10
25.08533527791065
 20
7.54478539931568
 30
0.0
 11
25.05300225009349
 21
7.563404751712472
 31
0.0
  0
LINE
  5
782
330
6C
100
AcDbEntity
  8
Visible Narrow (ANSI)
100
AcDbLine
 10
25.08533527791065
 20
7.54478539931568
 30
0.0
 11
25.12331375502922
 21
7.566655749750013
 31
0.0
  0
ELLIPSE
  5
783
330
6C
100
AcDbEntity
  8
Visible (ANSI)
100
AcDbEllipse
 10
25.12331375502922
 20
7.631334276320213
 30
0.0
 11
0.039479887061635
 21
-0.0685579315208363
 31
0.0
210
0.0
220
0.0
230
1.0
 40
0.5780931159158106
 41
5.499720852205022
 42
5.783523696627632
  0
ELLIPSE
  5
784
330
6C
100
AcDbEntity
  8
Visible (ANSI)
100
AcDbEllipse
 10
25.08533527791065
 20
7.609463925885883
 30
0.0
 11
0.0394798870616331
 21
-0.0685579315208425
 31
0.0
210
0.0
220
0.0
230
1.0
 40
0.5780931159158106
 41
5.499720852205276
 42
8.64131350579507
  0
LINE
  5
785
330
6C
100
AcDbEntity
  8
Visible (ANSI)
100
AcDbLine
 10
21.84330771091027
 20
14.43886855183391
 30
0.0
 11
21.87564073872743
 21
14.42024919943712
 31
0.0
  0
ELLIPSE
  5
786
330
6C
100
AcDbEntity
  8
Visible (ANSI)
100
AcDbEllipse
 10
21.88128618802883
 20
14.39606037569804
 30
0.0
 11
0.0394798870616412
 21
-0.0685579315208376
 31
0.0
210
0.0
220
0.0
230
1.0
 40
0.5780931159158106
 41
3.641254264141259
 42
5.499720852204688
  0
ELLIPSE
  5
787
330
6C
100
AcDbEntity
  8
Visible (ANSI)
100
AcDbEllipse
 10
21.84330771091027
 20
14.37419002526371
 30
0.0
 11
-0.039479887061633
 21
0.0685579315208422
 31
0.0
210
0.0
220
0.0
230
1.0
 40
0.5780931159158107
 41
5.499720852205276
 42
8.641313505795068
  0
LINE
  5
788
330
6C
100
AcDbEntity
  8
Visible Narrow (ANSI)
100
AcDbLine
 10
21.84330771091027
 20
14.30951149869351
 30
0.0
 11
21.88128618802883
 21
14.33138184912784
 31
0.0
  0
LINE
  5
789
330
6C
100
AcDbEntity
  8
Visible (ANSI)
100
AcDbLine
 10
21.88128618802883
 20
14.33138184912784
 30
0.0
 11
21.91361921584599
 21
14.31276249673105
 31
0.0
  0
LINE
  5
78A
330
6C
100
AcDbEntity
  8
Visible (ANSI)
100
AcDbLine
 10
21.87564073872743
 20
14.29089214629671
 30
0.0
 11
21.84330771091027
 21
14.30951149869351
 31
0.0
  0
LINE
  5
78B
330
6C
100
AcDbEntity
  8
Visible Narrow (ANSI)
100
AcDbLine
 10
21.87564073872743
 20
14.29089214629671
 30
0.0
 11
21.91361921584599
 21
14.31276249673105
 31
0.0
  0
ELLIPSE
  5
78C
330
6C
100
AcDbEntity
  8
Visible (ANSI)
100
AcDbEllipse
 10
21.91361921584599
 20
14.37744102330125
 30
0.0
 11
0.0394798870616381
 21
-0.0685579315208416
 31
0.0
210
0.0
220
0.0
230
1.0
 40
0.5780931159158107
 41
5.499720852205022
 42
5.783523696627613
  0
ELLIPSE
  5
78D
330
6C
100
AcDbEntity
  8
Visible (ANSI)
100
AcDbEllipse
 10
21.87564073872743
 20
14.35557067286692
 30
0.0
 11
0.039479887061633
 21
-0.0685579315208422
 31
0.0
210
0.0
220
0.0
230
1.0
 40
0.5780931159158107
 41
5.499720852205276
 42
8.641313505795068
  0
LINE
  5
78E
330
6C
100
AcDbEntity
  8
Visible (ANSI)
100
AcDbLine
 10
21.69883553106056
 20
9.37389118447003
 30
0.0
 11
21.69883553106056
 21
14.64311426651969
 31
0.0
  0
LINE
  5
78F
330
6C
100
AcDbEntity
  8
Visible (ANSI)
100
AcDbLine
 10
21.73681400817912
 20
14.66498461695402
 30
0.0
 11
21.69883553106056
 21
14.64311426651969
 31
0.0
  0
LINE
  5
790
330
6C
100
AcDbEntity
  8
Visible (ANSI)
100
AcDbLine
 10
21.69883553106056
 20
14.64311426651969
 30
0.0
 11
25.22980745776036
 21
12.60976276667956
 31
0.0
  0
LINE
  5
791
330
6C
100
AcDbEntity
  8
Visible (ANSI)
100
AcDbLine
 10
25.26778593487892
 20
12.63163311711389
 30
0.0
 11
25.22980745776036
 21
12.60976276667956
 31
0.0
  0
LINE
  5
792
330
6C
100
AcDbEntity
  8
Visible (ANSI)
100
AcDbLine
 10
25.26778593487892
 20
12.63163311711389
 30
0.0
 11
21.73681400817912
 21
14.66498461695402
 31
0.0
  0
LINE
  5
793
330
6C
100
AcDbEntity
  8
Visible (ANSI)
100
AcDbLine
 10
25.22980745776036
 20
12.60976276667956
 30
0.0
 11
25.22980745776036
 21
7.340539684629902
 31
0.0
  0
LINE
  5
794
330
6C
100
AcDbEntity
  8
Visible (ANSI)
100
AcDbLine
 10
25.26778593487892
 20
7.362410035064236
 30
0.0
 11
25.22980745776036
 21
7.340539684629902
 31
0.0
  0
LINE
  5
795
330
6C
100
AcDbEntity
  8
Visible (ANSI)
100
AcDbLine
 10
25.26778593487892
 20
7.362410035064236
 30
0.0
 11
25.26778593487892
 21
12.63163311711389
 31
0.0
  0
LINE
  5
796
330
6C
100
AcDbEntity
  8
Visible (ANSI)
100
AcDbLine
 10
25.22980745776036
 20
7.340539684629902
 30
0.0
 11
21.69883553106056
 21
9.37389118447003
 31
0.0
  0
LINE
  5
797
330
6C
100
AcDbEntity
  8
Hidden (ANSI)
 48
0.0872874781489372
100
AcDbLine
 10
16.62998401866769
 20
15.70299210252152
 30
0.0
 11
16.70398401866769
 21
15.70299210252152
 31
0.0
  0
LINE
  5
798
330
6C
100
AcDbEntity
  8
Hidden (ANSI)
 48
0.0872874781489372
100
AcDbLine
 10
16.62998401866769
 20
15.48499210252153
 30
0.0
 11
16.70398401866769
 21
15.48499210252153
 31
0.0
  0
LINE
  5
799
330
6C
100
AcDbEntity
  8
Hidden (ANSI)
 48
0.0872874781489372
100
AcDbLine
 10
16.62998401866769
 20
7.448992102521527
 30
0.0
 11
16.70398401866769
 21
7.448992102521527
 31
0.0
  0
LINE
  5
79A
330
6C
100
AcDbEntity
  8
Hidden (ANSI)
 48
0.0872874781489372
100
AcDbLine
 10
16.62998401866769
 20
7.230992102521528
 30
0.0
 11
16.70398401866769
 21
7.230992102521528
 31
0.0
  0
LINE
  5
79B
330
6C
100
AcDbEntity
  8
Visible (ANSI)
100
AcDbLine
 10
16.70398401866777
 20
15.90699210252152
 30
0.0
 11
16.62998401866777
 21
15.90699210252152
 31
0.0
  0
LINE
  5
79C
330
6C
100
AcDbEntity
  8
Visible (ANSI)
100
AcDbLine
 10
16.62998401866777
 20
15.90699210252152
 30
0.0
 11
16.62998401866777
 21
7.026992102521528
 31
0.0
  0
LINE
  5
79D
330
6C
100
AcDbEntity
  8
Visible (ANSI)
100
AcDbLine
 10
16.70398401866777
 20
7.026992102521528
 30
0.0
 11
16.62998401866777
 21
7.026992102521528
 31
0.0
  0
LINE
  5
79E
330
6C
100
AcDbEntity
  8
Visible (ANSI)
100
AcDbLine
 10
16.70398401866777
 20
7.026992102521528
 30
0.0
 11
16.70398401866777
 21
15.90699210252152
 31
0.0
  0
LINE
  5
79F
330
6C
100
AcDbEntity
  8
Hidden (ANSI)
 48
0.0872874781489372
100
AcDbLine
 10
16.70398401866612
 20
7.214992102521527
 30
0.0
 11
16.62998401866612
 21
7.214992102521527
 31
0.0
  0
LINE
  5
7A0
330
6C
100
AcDbEntity
  8
Hidden (ANSI)
 48
0.0872874781489372
100
AcDbLine
 10
16.70398401866612
 20
7.464992102521526
 30
0.0
 11
16.62998401866612
 21
7.464992102521526
 31
0.0
  0
MTEXT
  5
7A1
330
6C
100
AcDbEntity
  8
Symbol (ANSI)
100
AcDbMText
 10
15.94330802036709
 20
3.446188414942181
 30
0.0
 40
0.1935483894888326
 41
0.0
 71
     7
 72
     1
  1
SIDE VIEW
  7
Text Style150
 73
     1
 44
1.0
1001
ACAD
1000
MTEXTBEGIN
1070
    73
1070
     1
1070
    44
1040
1.0
1070
    74
1070
     0
1000
MTEXTEND
  0
LINE
  5
7A2
330
6C
100
AcDbEntity
  8
Symbol (ANSI)
370
    30
100
AcDbLine
 10
15.93339831745642
 20
3.406090646934589
 30
0.0
 11
17.24133996327173
 21
3.406090646934589
 31
0.0
  0
DIMENSION
  5
7A3
330
6C
100
AcDbEntity
  8
Dimension (ANSI)
100
AcDbDimension
  2
*D11
 10
16.62998401866777
 20
14.8460612821865
 30
0.0
 11
17.66424324563683
 21
14.8460612821865
 31
0.0
 70
   160
  1
(<>){\P14 GA.\PGALV}
 42
0.0739999999999981
  3
Default (ANSI)
100
AcDbAlignedDimension
 13
16.70398401866777
 23
14.8460612821865
 33
0.0
 14
16.62998401866777
 24
14.8460612821865
 34
0.0
100
AcDbRotatedDimension
1001
ACAD
1000
DSTYLE
1002
{
1070
   289
1070
     1
1070
    73
1070
     0
1070
    74
1070
     0
1070
   145
1040
-0.3333333333333334
1070
   271
1070
     3
1070
    76
1070
     1
1070
    75
1070
     1
1070
   147
1040
0.031496062992126
1070
    72
1070
     0
1070
    71
1070
     0
1070
   272
1070
     2
1070
    48
1040
0.0
1070
    47
1040
0.0
1002
}
  0
ENDSEC
  0
SECTION
  2
OBJECTS
  0
DICTIONARY
  5
C
330
0
100
AcDbDictionary
281
     1
  3
ACAD_CIP_PREVIOUS_PRODUCT_INFO
350
89C
  3
ACAD_COLOR
350
63
  3
ACAD_GROUP
350
D
  3
ACAD_LAYOUT
350
62
  3
ACAD_MATERIAL
350
10
  3
ACAD_MLEADERSTYLE
350
66
  3
ACAD_MLINESTYLE
350
5F
  3
ACAD_PLOTSETTINGS
350
61
  3
ACAD_PLOTSTYLENAME
350
E
  3
ACAD_SCALELIST
350
42
  3
ACAD_TABLESTYLE
350
64
  3
ACAD_VISUALSTYLE
350
29
  3
ACDB_RECOMPOSE_DATA
350
8AA
  3
AcDbVariableDictionary
350
76
  3
DWGPROPS
350
8AB
  0
DICTIONARY
  5
8E7
330
6BD
100
AcDbDictionary
280
     1
281
     1
  3
ACAD_MTEXT_RT
360
8E8
  0
XRECORD
  5
89C
102
{ACAD_REACTORS
330
C
102
}
330
C
100
AcDbXrecord
280
     1
300
INVNTOR
300
2012
300
85795PDSP_2012_0F
  0
DICTIONARY
  5
63
102
{ACAD_REACTORS
330
C
102
}
330
C
100
AcDbDictionary
281
     1
  0
DICTIONARY
  5
D
102
{ACAD_REACTORS
330
C
102
}
330
C
100
AcDbDictionary
281
     1
  0
DICTIONARY
  5
62
102
{ACAD_REACTORS
330
C
102
}
330
C
100
AcDbDictionary
281
     1
  3
Layout1
350
6B
  3
Layout2
350
73
  3
Model
350
6F
  0
DICTIONARY
  5
10
102
{ACAD_REACTORS
330
C
102
}
330
C
100
AcDbDictionary
281
     1
  3
ByBlock
350
19
  3
ByLayer
350
11
  3
Global
350
21
  0
DICTIONARY
  5
66
102
{ACAD_REACTORS
330
C
102
}
330
C
100
AcDbDictionary
281
     1
  3
Standard
350
67
  0
DICTIONARY
  5
5F
102
{ACAD_REACTORS
330
C
102
}
330
C
100
AcDbDictionary
281
     1
  3
Standard
350
60
  0
DICTIONARY
  5
61
102
{ACAD_REACTORS
330
C
102
}
330
C
100
AcDbDictionary
281
     1
  0
ACDBDICTIONARYWDFLT
  5
E
102
{ACAD_REACTORS
330
C
102
}
330
C
100
AcDbDictionary
281
     1
  3
Normal
350
F
100
AcDbDictionaryWithDefault
340
F
  0
DICTIONARY
  5
42
102
{ACAD_REACTORS
330
C
102
}
330
C
100
AcDbDictionary
281
     1
  3
A0
350
43
  3
A1
350
44
  3
A2
350
45
  3
A3
350
46
  3
A4
350
47
  3
A5
350
48
  3
A6
350
49
  3
A7
350
4A
  3
A8
350
4B
  3
A9
350
4C
  3
B0
350
4D
  3
B1
350
4E
  3
B2
350
4F
  3
B3
350
50
  3
B4
350
51
  3
B5
350
52
  3
B6
350
53
  0
DICTIONARY
  5
64
102
{ACAD_REACTORS
330
C
102
}
330
C
100
AcDbDictionary
281
     1
  3
Standard
350
65
  0
DICTIONARY
  5
29
102
{ACAD_REACTORS
330
C
102
}
330
C
100
AcDbDictionary
281
     1
  3
2dWireframe
350
2F
  3
Basic
350
2E
  3
Brighten
350
35
  3
ColorChange
350
39
  3
Conceptual
350
32
  3
Dim
350
34
  3
EdgeColorOff
350
41
  3
Facepattern
350
38
  3
Flat
350
2A
  3
FlatWithEdges
350
2B
  3
Gouraud
350
2C
  3
GouraudWithEdges
350
2D
  3
Hidden
350
31
  3
JitterOff
350
3F
  3
Linepattern
350
37
  3
OverhangOff
350
40
  3
Realistic
350
33
  3
Shaded
350
3E
  3
Shaded with edges
350
3D
  3
Shades of Gray
350
3A
  3
Sketchy
350
3B
  3
Thicken
350
36
  3
Wireframe
350
30
  3
X-Ray
350
3C
  0
XRECORD
  5
8AA
102
{ACAD_REACTORS
330
C
102
}
330
C
100
AcDbXrecord
280
     1
 90
        1
330
65
330
51F
  0
DICTIONARY
  5
76
102
{ACAD_REACTORS
330
C
102
}
330
C
100
AcDbDictionary
281
     1
  3
CANNOSCALE
350
79
  3
CMLEADERSTYLE
350
78
  3
CTABLESTYLE
350
77
  3
DIMASSOC
350
8A4
  3
HIDETEXT
350
8A3
  3
INDEXCTL
350
8A2
  3
LAYEREVAL
350
89F
  3
LAYERNOTIFY
350
8A0
  3
LIGHTINGUNITS
350
89E
  3
MSLTSCALE
350
89D
  3
SORTENTS
350
8A1
  3
XCLIPFRAME
350
8A5
  0
XRECORD
  5
8AB
102
{ACAD_REACTORS
330
C
102
}
330
C
100
AcDbXrecord
280
     1
  1
DWGPROPS COOKIE
  2

  3

  4
KRA
  6

  7

  8

  9
-
300
Manager=
301
Company=
302
Category=
303
Part Number=P1008G-S
304
Description=P SERIES BACK PANEL MASTER VIEW
305
Project=
306
Designer=KRA
307
Engineer=
308
Authority=
309
Cost Center=
 40
0.0000390625
 41
2455952.416136458
 42
2455952.416136458
  1

 90
       20
300
Vendor=
300
User Status=
300
Design Status=WorkInProgress
300
Checked by=JMG
300
Date Checked=02/12/2009
300
Engr Approved by=
300
Mfg Approved by=
300
DWG. NO=
300
NUMBER OF SHEETS=1
300
DRAWING #=1
  0
XRECORD
  5
8E8
102
{ACAD_REACTORS
330
8E7
102
}
330
8E7
100
AcDbXrecord
280
     1
 40
41495.0
  1
\A1;\U+22050.250{\PGROUND\P HOLE}
  0
LAYOUT
  5
6B
102
{ACAD_XDICTIONARY
360
8E1
102
}
102
{ACAD_REACTORS
330
62
102
}
330
62
100
AcDbPlotSettings
  1

  2

  4

  6

 40
0.0
 41
0.0
 42
0.0
 43
0.0
 44
0.0
 45
0.0
 46
0.0
 47
0.0
 48
0.0
 49
0.0
140
0.0
141
0.0
142
1.0
143
1.0
 70
   688
 72
     0
 73
     0
 74
     5
  7

 75
    16
147
1.0
148
0.0
149
0.0
100
AcDbLayout
  1
Layout1
 70
     1
 71
     1
 10
0.0
 20
0.0
 11
12.0
 21
9.0
 12
0.0
 22
0.0
 32
0.0
 14
0.0
 24
0.0
 34
0.0
 15
0.0
 25
0.0
 35
0.0
146
0.0
 13
0.0
 23
0.0
 33
0.0
 16
1.0
 26
0.0
 36
0.0
 17
0.0
 27
1.0
 37
0.0
 76
     0
330
68
  0
LAYOUT
  5
73
102
{ACAD_XDICTIONARY
360
8E5
102
}
102
{ACAD_REACTORS
330
62
102
}
330
62
100
AcDbPlotSettings
  1

  2

  4

  6

 40
0.0
 41
0.0
 42
0.0
 43
0.0
 44
0.0
 45
0.0
 46
0.0
 47
0.0
 48
0.0
 49
0.0
140
0.0
141
0.0
142
1.0
143
1.0
 70
   688
 72
     0
 73
     0
 74
     5
  7

 75
    16
147
1.0
148
0.0
149
0.0
100
AcDbLayout
  1
Layout2
 70
     1
 71
     2
 10
0.0
 20
0.0
 11
12.0
 21
9.0
 12
0.0
 22
0.0
 32
0.0
 14
0.0
 24
0.0
 34
0.0
 15
0.0
 25
0.0
 35
0.0
146
0.0
 13
0.0
 23
0.0
 33
0.0
 16
1.0
 26
0.0
 36
0.0
 17
0.0
 27
1.0
 37
0.0
 76
     0
330
70
  0
LAYOUT
  5
6F
102
{ACAD_XDICTIONARY
360
8E3
102
}
102
{ACAD_REACTORS
330
62
102
}
330
62
100
AcDbPlotSettings
  1

  2

  4

  6

 40
0.0
 41
0.0
 42
0.0
 43
0.0
 44
0.0
 45
0.0
 46
0.0
 47
0.0
 48
0.0
 49
0.0
140
0.0
141
0.0
142
1.0
143
1.0
 70
  1712
 72
     0
 73
     0
 74
     0
  7

 75
     0
147
1.0
148
0.0
149
0.0
100
AcDbLayout
  1
Model
 70
     1
 71
     0
 10
0.0
 20
0.0
 11
12.0
 21
9.0
 12
0.0
 22
0.0
 32
0.0
 14
0.0
 24
0.0
 34
0.0
 15
0.0
 25
0.0
 35
0.0
146
0.0
 13
0.0
 23
0.0
 33
0.0
 16
1.0
 26
0.0
 36
0.0
 17
0.0
 27
1.0
 37
0.0
 76
     0
330
6C
  0
MATERIAL
  5
19
102
{ACAD_XDICTIONARY
360
1A
102
}
102
{ACAD_REACTORS
330
10
102
}
330
10
100
AcDbMaterial
  1
ByBlock
 72
     0
 43
0.0208333333333333
 43
0.0
 43
0.0
 43
0.0
 43
0.0
 43
0.0208333333333333
 43
0.0
 43
0.0
 43
0.0
 43
0.0
 43
1.0
 43
0.0
 43
0.0
 43
0.0
 43
0.0
 43
1.0
 77
     0
 47
0.0208333333333333
 47
0.0
 47
0.0
 47
0.0
 47
0.0
 47
0.0208333333333333
 47
0.0
 47
0.0
 47
0.0
 47
0.0
 47
1.0
 47
0.0
 47
0.0
 47
0.0
 47
0.0
 47
1.0
171
     0
 49
0.0208333333333333
 49
0.0
 49
0.0
 49
0.0
 49
0.0
 49
0.0208333333333333
 49
0.0
 49
0.0
 49
0.0
 49
0.0
 49
1.0
 49
0.0
 49
0.0
 49
0.0
 49
0.0
 49
1.0
175
     0
142
0.0208333333333333
142
0.0
142
0.0
142
0.0
142
0.0
142
0.0208333333333333
142
0.0
142
0.0
142
0.0
142
0.0
142
1.0
142
0.0
142
0.0
142
0.0
142
0.0
142
1.0
179
     0
144
0.0208333333333333
144
0.0
144
0.0
144
0.0
144
0.0
144
0.0208333333333333
144
0.0
144
0.0
144
0.0
144
0.0
144
1.0
144
0.0
144
0.0
144
0.0
144
0.0
144
1.0
147
0.0208333333333333
147
0.0
147
0.0
147
0.0
147
0.0
147
0.0208333333333333
147
0.0
147
0.0
147
0.0
147
0.0
147
1.0
147
0.0
147
0.0
147
0.0
147
0.0
147
1.0
  0
MATERIAL
  5
11
102
{ACAD_XDICTIONARY
360
12
102
}
102
{ACAD_REACTORS
330
10
102
}
330
10
100
AcDbMaterial
  1
ByLayer
 72
     0
 43
0.0208333333333333
 43
0.0
 43
0.0
 43
0.0
 43
0.0
 43
0.0208333333333333
 43
0.0
 43
0.0
 43
0.0
 43
0.0
 43
1.0
 43
0.0
 43
0.0
 43
0.0
 43
0.0
 43
1.0
 77
     0
 47
0.0208333333333333
 47
0.0
 47
0.0
 47
0.0
 47
0.0
 47
0.0208333333333333
 47
0.0
 47
0.0
 47
0.0
 47
0.0
 47
1.0
 47
0.0
 47
0.0
 47
0.0
 47
0.0
 47
1.0
171
     0
 49
0.0208333333333333
 49
0.0
 49
0.0
 49
0.0
 49
0.0
 49
0.0208333333333333
 49
0.0
 49
0.0
 49
0.0
 49
0.0
 49
1.0
 49
0.0
 49
0.0
 49
0.0
 49
0.0
 49
1.0
175
     0
142
0.0208333333333333
142
0.0
142
0.0
142
0.0
142
0.0
142
0.0208333333333333
142
0.0
142
0.0
142
0.0
142
0.0
142
1.0
142
0.0
142
0.0
142
0.0
142
0.0
142
1.0
179
     0
144
0.0208333333333333
144
0.0
144
0.0
144
0.0
144
0.0
144
0.0208333333333333
144
0.0
144
0.0
144
0.0
144
0.0
144
1.0
144
0.0
144
0.0
144
0.0
144
0.0
144
1.0
147
0.0208333333333333
147
0.0
147
0.0
147
0.0
147
0.0
147
0.0208333333333333
147
0.0
147
0.0
147
0.0
147
0.0
147
1.0
147
0.0
147
0.0
147
0.0
147
0.0
147
1.0
  0
MATERIAL
  5
21
102
{ACAD_XDICTIONARY
360
22
102
}
102
{ACAD_REACTORS
330
10
102
}
330
10
100
AcDbMaterial
  1
Global
 72
     0
 43
0.0208333333333333
 43
0.0
 43
0.0
 43
0.0
 43
0.0
 43
0.0208333333333333
 43
0.0
 43
0.0
 43
0.0
 43
0.0
 43
1.0
 43
0.0
 43
0.0
 43
0.0
 43
0.0
 43
1.0
 77
     0
 47
0.0208333333333333
 47
0.0
 47
0.0
 47
0.0
 47
0.0
 47
0.0208333333333333
 47
0.0
 47
0.0
 47
0.0
 47
0.0
 47
1.0
 47
0.0
 47
0.0
 47
0.0
 47
0.0
 47
1.0
171
     0
 49
0.0208333333333333
 49
0.0
 49
0.0
 49
0.0
 49
0.0
 49
0.0208333333333333
 49
0.0
 49
0.0
 49
0.0
 49
0.0
 49
1.0
 49
0.0
 49
0.0
 49
0.0
 49
0.0
 49
1.0
175
     0
142
0.0208333333333333
142
0.0
142
0.0
142
0.0
142
0.0
142
0.0208333333333333
142
0.0
142
0.0
142
0.0
142
0.0
142
1.0
142
0.0
142
0.0
142
0.0
142
0.0
142
1.0
179
     0
144
0.0208333333333333
144
0.0
144
0.0
144
0.0
144
0.0
144
0.0208333333333333
144
0.0
144
0.0
144
0.0
144
0.0
144
1.0
144
0.0
144
0.0
144
0.0
144
0.0
144
1.0
147
0.0208333333333333
147
0.0
147
0.0
147
0.0
147
0.0
147
0.0208333333333333
147
0.0
147
0.0
147
0.0
147
0.0
147
1.0
147
0.0
147
0.0
147
0.0
147
0.0
147
1.0
  0
MLEADERSTYLE
  5
67
102
{ACAD_XDICTIONARY
360
8A8
102
}
102
{ACAD_REACTORS
330
66
102
}
330
66
100
AcDbMLeaderStyle
170
     2
171
     1
172
     0
 90
        2
 40
0.0
 41
0.0
173
     1
 91
-1056964608
340
5B
 92
       -2
290
     1
 42
0.09
291
     1
 43
0.36
  3
Standard
 44
0.18
300

342
55
174
     1
178
     6
175
     1
176
     0
 93
-1056964608
 45
0.18
292
     0
297
     0
 46
0.18
 94
-1056964608
 47
1.0
 49
1.0
140
1.0
293
     1
141
0.0
294
     1
177
     0
142
1.0
295
     0
296
     0
143
0.125
1001
ACAD_MLEADERVER
1070
     2
  0
MLINESTYLE
  5
60
102
{ACAD_REACTORS
330
5F
102
}
330
5F
100
AcDbMlineStyle
  2
STANDARD
 70
     0
  3

 62
   256
 51
90.0
 52
90.0
 71
     2
 49
0.5
 62
   256
  6
BYLAYER
 49
-0.5
 62
   256
  6
BYLAYER
  0
ACDBPLACEHOLDER
  5
F
102
{ACAD_REACTORS
330
E
102
}
330
E
  0
SCALE
  5
43
102
{ACAD_REACTORS
330
42
102
}
330
42
100
AcDbScale
 70
     0
300
1:1
140
1.0
141
1.0
290
     1
  0
SCALE
  5
44
102
{ACAD_REACTORS
330
42
102
}
330
42
100
AcDbScale
 70
     0
300
1/128" = 1'-0"
140
0.0078125
141
12.0
290
     0
  0
SCALE
  5
45
102
{ACAD_REACTORS
330
42
102
}
330
42
100
AcDbScale
 70
     0
300
1/64" = 1'-0"
140
0.015625
141
12.0
290
     0
  0
SCALE
  5
46
102
{ACAD_REACTORS
330
42
102
}
330
42
100
AcDbScale
 70
     0
300
1/32" = 1'-0"
140
0.03125
141
12.0
290
     0
  0
SCALE
  5
47
102
{ACAD_REACTORS
330
42
102
}
330
42
100
AcDbScale
 70
     0
300
1/16" = 1'-0"
140
0.0625
141
12.0
290
     0
  0
SCALE
  5
48
102
{ACAD_REACTORS
330
42
102
}
330
42
100
AcDbScale
 70
     0
300
3/32" = 1'-0"
140
0.09375
141
12.0
290
     0
  0
SCALE
  5
49
102
{ACAD_REACTORS
330
42
102
}
330
42
100
AcDbScale
 70
     0
300
1/8" = 1'-0"
140
0.125
141
12.0
290
     0
  0
SCALE
  5
4A
102
{ACAD_REACTORS
330
42
102
}
330
42
100
AcDbScale
 70
     0
300
3/16" = 1'-0"
140
0.1875
141
12.0
290
     0
  0
SCALE
  5
4B
102
{ACAD_REACTORS
330
42
102
}
330
42
100
AcDbScale
 70
     0
300
1/4" = 1'-0"
140
0.25
141
12.0
290
     0
  0
SCALE
  5
4C
102
{ACAD_REACTORS
330
42
102
}
330
42
100
AcDbScale
 70
     0
300
3/8" = 1'-0"
140
0.375
141
12.0
290
     0
  0
SCALE
  5
4D
102
{ACAD_REACTORS
330
42
102
}
330
42
100
AcDbScale
 70
     0
300
1/2" = 1'-0"
140
0.5
141
12.0
290
     0
  0
SCALE
  5
4E
102
{ACAD_REACTORS
330
42
102
}
330
42
100
AcDbScale
 70
     0
300
3/4" = 1'-0"
140
0.75
141
12.0
290
     0
  0
SCALE
  5
4F
102
{ACAD_REACTORS
330
42
102
}
330
42
100
AcDbScale
 70
     0
300
1" = 1'-0"
140
1.0
141
12.0
290
     0
  0
SCALE
  5
50
102
{ACAD_REACTORS
330
42
102
}
330
42
100
AcDbScale
 70
     0
300
1-1/2" = 1'-0"
140
1.5
141
12.0
290
     0
  0
SCALE
  5
51
102
{ACAD_REACTORS
330
42
102
}
330
42
100
AcDbScale
 70
     0
300
3" = 1'-0"
140
3.0
141
12.0
290
     0
  0
SCALE
  5
52
102
{ACAD_REACTORS
330
42
102
}
330
42
100
AcDbScale
 70
     0
300
6" = 1'-0"
140
6.0
141
12.0
290
     0
  0
SCALE
  5
53
102
{ACAD_REACTORS
330
42
102
}
330
42
100
AcDbScale
 70
     0
300
1'-0" = 1'-0"
140
12.0
141
12.0
290
     0
  0
TABLESTYLE
  5
65
102
{ACAD_XDICTIONARY
360
8A6
102
}
102
{ACAD_REACTORS
330
64
102
}
330
64
100
AcDbTableStyle
  3
Standard
 70
     0
 71
     0
 40
0.06
 41
0.06
280
     0
281
     0
  7
Standard
140
0.18
170
     2
 62
     0
 63
     7
283
     0
274
    -2
284
     1
 64
     0
275
    -2
285
     1
 65
     0
276
    -2
286
     1
 66
     0
277
    -2
287
     1
 67
     0
278
    -2
288
     1
 68
     0
279
    -2
289
     1
 69
     0
  7
Standard
140
0.25
170
     5
 62
     0
 63
     7
283
     0
274
    -2
284
     1
 64
     0
275
    -2
285
     1
 65
     0
276
    -2
286
     1
 66
     0
277
    -2
287
     1
 67
     0
278
    -2
288
     1
 68
     0
279
    -2
289
     1
 69
     0
  7
Standard
140
0.18
170
     5
 62
     0
 63
     7
283
     0
274
    -2
284
     1
 64
     0
275
    -2
285
     1
 65
     0
276
    -2
286
     1
 66
     0
277
    -2
287
     1
 67
     0
278
    -2
288
     1
 68
     0
279
    -2
289
     1
 69
     0
  0
VISUALSTYLE
  5
2F
102
{ACAD_XDICTIONARY
360
8B9
102
}
102
{ACAD_REACTORS
330
29
102
}
330
29
100
AcDbVisualStyle
  2
2dWireframe
 70
     4
 71
     0
 72
     2
 73
     0
 90
        0
 40
-0.6
 41
-30.0
 62
     5
 63
     7
 74
     1
 91
        4
 64
     7
 65
   257
 75
     1
175
     1
 42
1.0
 92
        0
 66
   257
 43
1.0
 76
     1
 77
     6
 78
     2
 67
     7
 79
     5
170
     0
171
     0
290
     0
174
     0
 93
        1
 44
0.0
173
     0
291
     0
 45
0.0
1001
ACAD
1000
AcDbSavedByObjectVersion
1070
     0
  0
VISUALSTYLE
  5
2E
102
{ACAD_XDICTIONARY
360
8B7
102
}
102
{ACAD_REACTORS
330
29
102
}
330
29
100
AcDbVisualStyle
  2
Basic
 70
     7
 71
     1
 72
     0
 73
     1
 90
        0
 40
-0.6
 41
-30.0
 62
     5
 63
     7
 74
     0
 91
        4
 64
     7
 65
   257
 75
     1
175
     1
 42
1.0
 92
        8
 66
     7
 43
1.0
 76
     1
 77
     6
 78
     2
 67
     7
 79
     5
170
     0
171
     0
290
     0
174
     0
 93
        1
 44
0.0
173
     0
291
     1
 45
0.0
1001
ACAD
1000
AcDbSavedByObjectVersion
1070
     0
  0
VISUALSTYLE
  5
35
102
{ACAD_XDICTIONARY
360
8C5
102
}
102
{ACAD_REACTORS
330
29
102
}
330
29
100
AcDbVisualStyle
  2
Brighten
 70
    12
 71
     2
 72
     2
 73
     0
 90
        0
 40
-0.6
 41
-30.0
 62
     5
 63
     7
 74
     1
 91
        4
 64
     7
 65
   257
 75
     1
175
     1
 42
1.0
 92
        8
 66
     7
 43
1.0
 76
     1
 77
     6
 78
     2
 67
     7
 79
     5
170
     0
171
     0
290
     0
174
     0
 93
        1
 44
50.0
173
     0
291
     1
 45
0.0
1001
ACAD
1000
AcDbSavedByObjectVersion
1070
     0
  0
VISUALSTYLE
  5
39
102
{ACAD_XDICTIONARY
360
8CD
102
}
102
{ACAD_REACTORS
330
29
102
}
330
29
100
AcDbVisualStyle
  2
ColorChange
 70
    16
 71
     2
 72
     2
 73
     3
 90
        0
 40
-0.6
 41
-30.0
 62
     5
 63
     8
 74
     1
 91
        4
 64
     7
 65
   257
 75
     1
175
     1
 42
1.0
 92
        8
 66
     8
 43
1.0
 76
     1
 77
     6
 78
     2
 67
     7
 79
     5
170
     0
171
     0
290
     0
174
     0
 93
        1
 44
0.0
173
     0
291
     1
 45
0.0
1001
ACAD
1000
AcDbSavedByObjectVersion
1070
     0
  0
VISUALSTYLE
  5
32
102
{ACAD_XDICTIONARY
360
8BF
102
}
102
{ACAD_REACTORS
330
29
102
}
330
29
100
AcDbVisualStyle
  2
Conceptual
 70
     9
 71
     3
 72
     2
 73
     0
 90
        0
 40
-0.6
 41
-30.0
 62
     5
 63
     7
 74
     2
 91
        2
 64
     7
 65
   257
 75
     1
175
     1
 42
179.0
 92
        8
 66
     7
 43
1.0
 76
     1
 77
     6
 78
     2
 67
     7
 79
     3
170
     0
171
     0
290
     0
174
     0
 93
        1
 44
0.0
173
     0
291
     0
 45
0.0
1001
ACAD
1000
AcDbSavedByObjectVersion
1070
     0
  0
VISUALSTYLE
  5
34
102
{ACAD_XDICTIONARY
360
8C3
102
}
102
{ACAD_REACTORS
330
29
102
}
330
29
100
AcDbVisualStyle
  2
Dim
 70
    11
 71
     2
 72
     2
 73
     0
 90
        0
 40
-0.6
 41
-30.0
 62
     5
 63
     7
 74
     1
 91
        4
 64
     7
 65
   257
 75
     1
175
     1
 42
1.0
 92
        8
 66
     7
 43
1.0
 76
     1
 77
     6
 78
     2
 67
     7
 79
     5
170
     0
171
     0
290
     0
174
     0
 93
        1
 44
-50.0
173
     0
291
     1
 45
0.0
1001
ACAD
1000
AcDbSavedByObjectVersion
1070
     0
  0
VISUALSTYLE
  5
41
102
{ACAD_XDICTIONARY
360
8DD
102
}
102
{ACAD_REACTORS
330
29
102
}
330
29
100
AcDbVisualStyle
  2
EdgeColorOff
 70
    22
 71
     2
 72
     2
 73
     0
 90
        0
 40
-0.6
 41
-30.0
 62
     5
 63
     7
 74
     1
 91
        4
 64
     7
 65
   257
 75
     1
175
     1
 42
1.0
 92
        8
 66
     7
 43
1.0
 76
     1
 77
     6
 78
     2
 67
     7
 79
     5
170
     0
171
     0
290
     0
174
     0
 93
        1
 44
0.0
173
     0
291
     1
 45
0.0
1001
ACAD
1000
AcDbSavedByObjectVersion
1070
     0
  0
VISUALSTYLE
  5
38
102
{ACAD_XDICTIONARY
360
8CB
102
}
102
{ACAD_REACTORS
330
29
102
}
330
29
100
AcDbVisualStyle
  2
Facepattern
 70
    15
 71
     2
 72
     2
 73
     0
 90
        0
 40
-0.6
 41
-30.0
 62
     5
 63
     7
 74
     1
 91
        4
 64
     7
 65
   257
 75
     1
175
     1
 42
1.0
 92
        8
 66
     7
 43
1.0
 76
     1
 77
     6
 78
     2
 67
     7
 79
     5
170
     0
171
     0
290
     0
174
     0
 93
        1
 44
0.0
173
     0
291
     1
 45
0.0
1001
ACAD
1000
AcDbSavedByObjectVersion
1070
     0
  0
VISUALSTYLE
  5
2A
102
{ACAD_XDICTIONARY
360
8AF
102
}
102
{ACAD_REACTORS
330
29
102
}
330
29
100
AcDbVisualStyle
  2
Flat
 70
     0
 71
     2
 72
     1
 73
     1
 90
        2
 40
-0.6
 41
30.0
 62
     5
 63
     7
 74
     0
 91
        0
 64
     7
 65
   257
 75
     1
175
     1
 42
1.0
 92
        8
 66
     7
 43
1.0
 76
     1
 77
     6
 78
     2
 67
     7
 79
     5
170
     0
171
     0
290
     0
174
     0
 93
       13
 44
0.0
173
     0
291
     1
 45
0.0
1001
ACAD
1000
AcDbSavedByObjectVersion
1070
     0
  0
VISUALSTYLE
  5
2B
102
{ACAD_XDICTIONARY
360
8B1
102
}
102
{ACAD_REACTORS
330
29
102
}
330
29
100
AcDbVisualStyle
  2
FlatWithEdges
 70
     1
 71
     2
 72
     1
 73
     1
 90
        2
 40
-0.6
 41
30.0
 62
     5
 63
     7
 74
     1
 91
        0
 64
     7
 65
   257
 75
     1
175
     1
 42
1.0
 92
        0
 66
   257
 43
1.0
 76
     1
 77
     6
 78
     2
 67
     7
 79
     5
170
     0
171
     0
290
     0
174
     0
 93
       13
 44
0.0
173
     0
291
     1
 45
0.0
1001
ACAD
1000
AcDbSavedByObjectVersion
1070
     0
  0
VISUALSTYLE
  5
2C
102
{ACAD_XDICTIONARY
360
8B3
102
}
102
{ACAD_REACTORS
330
29
102
}
330
29
100
AcDbVisualStyle
  2
Gouraud
 70
     2
 71
     2
 72
     2
 73
     1
 90
        2
 40
-0.6
 41
30.0
 62
     5
 63
     7
 74
     0
 91
        0
 64
     7
 65
   257
 75
     1
175
     1
 42
1.0
 92
        0
 66
     7
 43
1.0
 76
     1
 77
     6
 78
     2
 67
     7
 79
     5
170
     0
171
     0
290
     0
174
     0
 93
       13
 44
0.0
173
     0
291
     1
 45
0.0
1001
ACAD
1000
AcDbSavedByObjectVersion
1070
     0
  0
VISUALSTYLE
  5
2D
102
{ACAD_XDICTIONARY
360
8B5
102
}
102
{ACAD_REACTORS
330
29
102
}
330
29
100
AcDbVisualStyle
  2
GouraudWithEdges
 70
     3
 71
     2
 72
     2
 73
     1
 90
        2
 40
-0.6
 41
30.0
 62
     5
 63
     7
 74
     1
 91
        0
 64
     7
 65
   257
 75
     1
175
     1
 42
1.0
 92
        0
 66
   257
 43
1.0
 76
     1
 77
     6
 78
     2
 67
     7
 79
     5
170
     0
171
     0
290
     0
174
     0
 93
       13
 44
0.0
173
     0
291
     1
 45
0.0
1001
ACAD
1000
AcDbSavedByObjectVersion
1070
     0
  0
VISUALSTYLE
  5
31
102
{ACAD_XDICTIONARY
360
8BD
102
}
102
{ACAD_REACTORS
330
29
102
}
330
29
100
AcDbVisualStyle
  2
Hidden
 70
     6
 71
     1
 72
     2
 73
     2
 90
        0
 40
-0.6
 41
-30.0
 62
     5
 63
     7
 74
     2
 91
        2
 64
     7
 65
   257
 75
     2
175
     1
 42
40.0
 92
        0
 66
   257
 43
1.0
 76
     1
 77
     6
 78
     2
 67
     7
 79
     3
170
     0
171
     0
290
     0
174
     0
 93
        1
 44
0.0
173
     0
291
     0
 45
0.0
1001
ACAD
1000
AcDbSavedByObjectVersion
1070
     0
  0
VISUALSTYLE
  5
3F
102
{ACAD_XDICTIONARY
360
8D9
102
}
102
{ACAD_REACTORS
330
29
102
}
330
29
100
AcDbVisualStyle
  2
JitterOff
 70
    20
 71
     2
 72
     2
 73
     0
 90
        0
 40
-0.6
 41
-30.0
 62
     5
 63
     7
 74
     1
 91
        4
 64
     7
 65
   257
 75
     1
175
     1
 42
1.0
 92
       10
 66
     7
 43
1.0
 76
     1
 77
     6
 78
     2
 67
     7
 79
     5
170
     0
171
     0
290
     0
174
     0
 93
        1
 44
0.0
173
     0
291
     1
 45
0.0
1001
ACAD
1000
AcDbSavedByObjectVersion
1070
     0
  0
VISUALSTYLE
  5
37
102
{ACAD_XDICTIONARY
360
8C9
102
}
102
{ACAD_REACTORS
330
29
102
}
330
29
100
AcDbVisualStyle
  2
Linepattern
 70
    14
 71
     2
 72
     2
 73
     0
 90
        0
 40
-0.6
 41
-30.0
 62
     5
 63
     7
 74
     1
 91
        4
 64
     7
 65
   257
 75
     7
175
     7
 42
1.0
 92
        8
 66
     7
 43
1.0
 76
     1
 77
     6
 78
     2
 67
     7
 79
     5
170
     0
171
     0
290
     0
174
     0
 93
        1
 44
0.0
173
     0
291
     1
 45
0.0
1001
ACAD
1000
AcDbSavedByObjectVersion
1070
     0
  0
VISUALSTYLE
  5
40
102
{ACAD_XDICTIONARY
360
8DB
102
}
102
{ACAD_REACTORS
330
29
102
}
330
29
100
AcDbVisualStyle
  2
OverhangOff
 70
    21
 71
     2
 72
     2
 73
     0
 90
        0
 40
-0.6
 41
-30.0
 62
     5
 63
     7
 74
     1
 91
        4
 64
     7
 65
   257
 75
     1
175
     1
 42
1.0
 92
        9
 66
     7
 43
1.0
 76
     1
 77
     6
 78
     2
 67
     7
 79
     5
170
     0
171
     0
290
     0
174
     0
 93
        1
 44
0.0
173
     0
291
     1
 45
0.0
1001
ACAD
1000
AcDbSavedByObjectVersion
1070
     0
  0
VISUALSTYLE
  5
33
102
{ACAD_XDICTIONARY
360
8C1
102
}
102
{ACAD_REACTORS
330
29
102
}
330
29
100
AcDbVisualStyle
  2
Realistic
 70
     8
 71
     2
 72
     3
 73
     0
 90
        2
 40
-0.6
 41
30.0
 62
     5
 63
     7
 74
     0
 91
        0
 64
     7
 65
   257
 75
     1
175
     1
 42
1.0
 92
        8
 66
   257
 43
1.0
 76
     1
 77
     6
 78
     2
 67
     7
 79
     3
170
     0
171
     0
290
     0
174
     0
 93
       13
 44
0.0
173
     0
291
     0
 45
0.0
1001
ACAD
1000
AcDbSavedByObjectVersion
1070
     0
  0
VISUALSTYLE
  5
3E
102
{ACAD_XDICTIONARY
360
8D7
102
}
102
{ACAD_REACTORS
330
29
102
}
330
29
100
AcDbVisualStyle
  2
Shaded
 70
    27
 71
     2
 72
     2
 73
     1
 90
        2
 40
-0.6
 41
30.0
 62
     5
 63
     7
 74
     0
 91
        4
 64
     7
 65
   257
 75
     1
175
     1
 42
1.0
 92
        8
 66
   257
 43
1.0
 76
     1
 77
     6
 78
     2
 67
     8
 79
     3
170
     0
171
     0
290
     0
174
     0
 93
        5
 44
0.0
173
     0
291
     0
 45
0.0
1001
ACAD
1000
AcDbSavedByObjectVersion
1070
     0
  0
VISUALSTYLE
  5
3D
102
{ACAD_XDICTIONARY
360
8D5
102
}
102
{ACAD_REACTORS
330
29
102
}
330
29
100
AcDbVisualStyle
  2
Shaded with edges
 70
    26
 71
     2
 72
     2
 73
     1
 90
        2
 40
-0.6
 41
30.0
 62
     5
 63
     7
 74
     1
 91
       10
 64
     7
 65
   257
 75
     2
175
     1
 42
1.0
 92
        8
 66
   257
 43
1.0
 76
     1
 77
     6
 78
     2
 67
     7
 79
     3
170
     0
171
     0
290
     0
174
     0
 93
        5
 44
0.0
173
     0
291
     0
 45
0.0
1001
ACAD
1000
AcDbSavedByObjectVersion
1070
     0
  0
VISUALSTYLE
  5
3A
102
{ACAD_XDICTIONARY
360
8CF
102
}
102
{ACAD_REACTORS
330
29
102
}
330
29
100
AcDbVisualStyle
  2
Shades of Gray
 70
    23
 71
     2
 72
     2
 73
     3
 90
        0
 40
-0.6
 41
-30.0
 62
     5
 63
     7
 74
     2
 91
        2
 64
     7
 65
     7
 75
     1
175
     1
 42
40.0
 92
        8
 66
     7
 43
1.0
 76
     1
 77
     6
 78
     2
 67
     7
 79
     3
170
     0
171
     0
290
     0
174
     0
 93
        1
 44
0.0
173
     0
291
     0
 45
0.0
1001
ACAD
1000
AcDbSavedByObjectVersion
1070
     0
  0
VISUALSTYLE
  5
3B
102
{ACAD_XDICTIONARY
360
8D1
102
}
102
{ACAD_REACTORS
330
29
102
}
330
29
100
AcDbVisualStyle
  2
Sketchy
 70
    24
 71
     1
 72
     2
 73
     2
 90
        0
 40
-0.6
 41
-30.0
 62
     5
 63
     7
 74
     2
 91
        2
 64
     7
 65
     7
 75
     1
175
     1
 42
40.0
 92
       11
 66
     7
 43
1.0
 76
     1
 77
     6
 78
     2
 67
     7
 79
     6
170
     0
171
     0
290
     0
174
     0
 93
        1
 44
0.0
173
     0
291
     0
 45
0.0
1001
ACAD
1000
AcDbSavedByObjectVersion
1070
     0
  0
VISUALSTYLE
  5
36
102
{ACAD_XDICTIONARY
360
8C7
102
}
102
{ACAD_REACTORS
330
29
102
}
330
29
100
AcDbVisualStyle
  2
Thicken
 70
    13
 71
     2
 72
     2
 73
     0
 90
        0
 40
-0.6
 41
-30.0
 62
     5
 63
     7
 74
     1
 91
        4
 64
     7
 65
   257
 75
     1
175
     1
 42
1.0
 92
       12
 66
     7
 43
1.0
 76
     1
 77
     6
 78
     2
 67
     7
 79
     5
170
     0
171
     0
290
     0
174
     0
 93
        1
 44
0.0
173
     0
291
     1
 45
0.0
1001
ACAD
1000
AcDbSavedByObjectVersion
1070
     0
  0
VISUALSTYLE
  5
30
102
{ACAD_XDICTIONARY
360
8BB
102
}
102
{ACAD_REACTORS
330
29
102
}
330
29
100
AcDbVisualStyle
  2
Wireframe
 70
     5
 71
     0
 72
     2
 73
     0
 90
        0
 40
-0.6
 41
-30.0
 62
     5
 63
     7
 74
     1
 91
        4
 64
     7
 65
   257
 75
     1
175
     1
 42
1.0
 92
        0
 66
   257
 43
1.0
 76
     1
 77
     6
 78
     2
 67
     7
 79
     3
170
     0
171
     0
290
     0
174
     0
 93
        1
 44
0.0
173
     0
291
     0
 45
0.0
1001
ACAD
1000
AcDbSavedByObjectVersion
1070
     0
  0
VISUALSTYLE
  5
3C
102
{ACAD_XDICTIONARY
360
8D3
102
}
102
{ACAD_REACTORS
330
29
102
}
330
29
100
AcDbVisualStyle
  2
X-Ray
 70
    25
 71
     2
 72
     2
 73
     1
 90
        1
 40
0.5
 41
-30.0
 62
     5
 63
     7
 74
     1
 91
        0
 64
     7
 65
   257
 75
     1
175
     1
 42
1.0
 92
        8
 66
     7
 43
1.0
 76
     1
 77
     6
 78
     2
 67
     7
 79
     3
170
     0
171
     0
290
     0
174
     0
 93
       13
 44
0.0
173
     0
291
     0
 45
0.0
1001
ACAD
1000
AcDbSavedByObjectVersion
1070
     0
  0
DICTIONARYVAR
  5
79
102
{ACAD_REACTORS
330
76
102
}
330
76
100
DictionaryVariables
280
     0
  1
1:1
  0
DICTIONARYVAR
  5
78
102
{ACAD_REACTORS
330
76
102
}
330
76
100
DictionaryVariables
280
     0
  1
STANDARD
  0
DICTIONARYVAR
  5
77
102
{ACAD_REACTORS
330
76
102
}
330
76
100
DictionaryVariables
280
     0
  1
STANDARD
  0
DICTIONARYVAR
  5
8A4
102
{ACAD_REACTORS
330
76
102
}
330
76
100
DictionaryVariables
280
     0
  1
1
  0
DICTIONARYVAR
  5
8A3
102
{ACAD_REACTORS
330
76
102
}
330
76
100
DictionaryVariables
280
     0
  1
1
  0
DICTIONARYVAR
  5
8A2
102
{ACAD_REACTORS
330
76
102
}
330
76
100
DictionaryVariables
280
     0
  1
0
  0
DICTIONARYVAR
  5
89F
102
{ACAD_REACTORS
330
76
102
}
330
76
100
DictionaryVariables
280
     0
  1
0
  0
DICTIONARYVAR
  5
8A0
102
{ACAD_REACTORS
330
76
102
}
330
76
100
DictionaryVariables
280
     0
  1
0
  0
DICTIONARYVAR
  5
89E
102
{ACAD_REACTORS
330
76
102
}
330
76
100
DictionaryVariables
280
     0
  1
2
  0
DICTIONARYVAR
  5
89D
102
{ACAD_REACTORS
330
76
102
}
330
76
100
DictionaryVariables
280
     0
  1
1
  0
DICTIONARYVAR
  5
8A1
102
{ACAD_REACTORS
330
76
102
}
330
76
100
DictionaryVariables
280
     0
  1
127
  0
DICTIONARYVAR
  5
8A5
102
{ACAD_REACTORS
330
76
102
}
330
76
100
DictionaryVariables
280
     0
  1
2
  0
DICTIONARY
  5
8E1
330
6B
100
AcDbDictionary
280
     1
281
     1
  3
ACAD_XREC_ROUNDTRIP
360
8E2
  0
DICTIONARY
  5
8E5
330
73
100
AcDbDictionary
280
     1
281
     1
  3
ACAD_XREC_ROUNDTRIP
360
8E6
  0
DICTIONARY
  5
8E3
330
6F
100
AcDbDictionary
280
     1
281
     1
  3
ACAD_XREC_ROUNDTRIP
360
8E4
  0
DICTIONARY
  5
1A
330
19
100
AcDbDictionary
280
     1
281
     1
  3
ACAD_XREC_ROUNDTRIP
360
8AD
  3
BUMPTILE
360
1C
  3
DIFFUSETILE
360
1B
  3
OPACITYTILE
360
1F
  3
REFLECTIONTILE
360
1E
  3
REFRACTIONTILE
360
20
  3
SPECULARTILE
360
1D
  0
DICTIONARY
  5
12
330
11
100
AcDbDictionary
280
     1
281
     1
  3
ACAD_XREC_ROUNDTRIP
360
8AC
  3
BUMPTILE
360
14
  3
DIFFUSETILE
360
13
  3
FBXASSET
360
10B
  3
OPACITYTILE
360
17
  3
REFLECTIONTILE
360
16
  3
REFRACTIONTILE
360
18
  3
SPECULARTILE
360
15
  0
DICTIONARY
  5
22
330
21
100
AcDbDictionary
280
     1
281
     1
  3
ACAD_XREC_ROUNDTRIP
360
8AE
  3
BUMPTILE
360
24
  3
DIFFUSETILE
360
23
  3
FBXASSET
360
BA
  3
OPACITYTILE
360
27
  3
REFLECTIONTILE
360
26
  3
REFRACTIONTILE
360
28
  3
SPECULARTILE
360
25
  0
DICTIONARY
  5
8A8
330
67
100
AcDbDictionary
280
     1
281
     1
  3
ACAD_XREC_ROUNDTRIP
360
8A9
  0
DICTIONARY
  5
8A6
330
65
100
AcDbDictionary
280
     1
281
     1
  3
ACAD_ROUNDTRIP_2008_TABLESTYLE_CELLSTYLEMAP
360
8A7
  3
ACAD_XREC_ROUNDTRIP
360
8DF
  0
DICTIONARY
  5
8B9
330
2F
100
AcDbDictionary
280
     1
281
     1
  3
ACAD_XREC_ROUNDTRIP
360
8BA
  0
DICTIONARY
  5
8B7
330
2E
100
AcDbDictionary
280
     1
281
     1
  3
ACAD_XREC_ROUNDTRIP
360
8B8
  0
DICTIONARY
  5
8C5
330
35
100
AcDbDictionary
280
     1
281
     1
  3
ACAD_XREC_ROUNDTRIP
360
8C6
  0
DICTIONARY
  5
8CD
330
39
100
AcDbDictionary
280
     1
281
     1
  3
ACAD_XREC_ROUNDTRIP
360
8CE
  0
DICTIONARY
  5
8BF
330
32
100
AcDbDictionary
280
     1
281
     1
  3
ACAD_XREC_ROUNDTRIP
360
8C0
  0
DICTIONARY
  5
8C3
330
34
100
AcDbDictionary
280
     1
281
     1
  3
ACAD_XREC_ROUNDTRIP
360
8C4
  0
DICTIONARY
  5
8DD
330
41
100
AcDbDictionary
280
     1
281
     1
  3
ACAD_XREC_ROUNDTRIP
360
8DE
  0
DICTIONARY
  5
8CB
330
38
100
AcDbDictionary
280
     1
281
     1
  3
ACAD_XREC_ROUNDTRIP
360
8CC
  0
DICTIONARY
  5
8AF
330
2A
100
AcDbDictionary
280
     1
281
     1
  3
ACAD_XREC_ROUNDTRIP
360
8B0
  0
DICTIONARY
  5
8B1
330
2B
100
AcDbDictionary
280
     1
281
     1
  3
ACAD_XREC_ROUNDTRIP
360
8B2
  0
DICTIONARY
  5
8B3
330
2C
100
AcDbDictionary
280
     1
281
     1
  3
ACAD_XREC_ROUNDTRIP
360
8B4
  0
DICTIONARY
  5
8B5
330
2D
100
AcDbDictionary
280
     1
281
     1
  3
ACAD_XREC_ROUNDTRIP
360
8B6
  0
DICTIONARY
  5
8BD
330
31
100
AcDbDictionary
280
     1
281
     1
  3
ACAD_XREC_ROUNDTRIP
360
8BE
  0
DICTIONARY
  5
8D9
330
3F
100
AcDbDictionary
280
     1
281
     1
  3
ACAD_XREC_ROUNDTRIP
360
8DA
  0
DICTIONARY
  5
8C9
330
37
100
AcDbDictionary
280
     1
281
     1
  3
ACAD_XREC_ROUNDTRIP
360
8CA
  0
DICTIONARY
  5
8DB
330
40
100
AcDbDictionary
280
     1
281
     1
  3
ACAD_XREC_ROUNDTRIP
360
8DC
  0
DICTIONARY
  5
8C1
330
33
100
AcDbDictionary
280
     1
281
     1
  3
ACAD_XREC_ROUNDTRIP
360
8C2
  0
DICTIONARY
  5
8D7
330
3E
100
AcDbDictionary
280
     1
281
     1
  3
ACAD_XREC_ROUNDTRIP
360
8D8
  0
DICTIONARY
  5
8D5
330
3D
100
AcDbDictionary
280
     1
281
     1
  3
ACAD_XREC_ROUNDTRIP
360
8D6
  0
DICTIONARY
  5
8CF
330
3A
100
AcDbDictionary
280
     1
281
     1
  3
ACAD_XREC_ROUNDTRIP
360
8D0
  0
DICTIONARY
  5
8D1
330
3B
100
AcDbDictionary
280
     1
281
     1
  3
ACAD_XREC_ROUNDTRIP
360
8D2
  0
DICTIONARY
  5
8C7
330
36
100
AcDbDictionary
280
     1
281
     1
  3
ACAD_XREC_ROUNDTRIP
360
8C8
  0
DICTIONARY
  5
8BB
330
30
100
AcDbDictionary
280
     1
281
     1
  3
ACAD_XREC_ROUNDTRIP
360
8BC
  0
DICTIONARY
  5
8D3
330
3C
100
AcDbDictionary
280
     1
281
     1
  3
ACAD_XREC_ROUNDTRIP
360
8D4
  0
XRECORD
  5
8E2
102
{ACAD_REACTORS
330
8E1
102
}
330
8E1
100
AcDbXrecord
280
     1
102
SHADEPLOT
 70
     0
102
SHADEPLOTRESLEVEL
 70
     2
102
SHADEPLOTCUSTOMDPI
 70
   300
  0
XRECORD
  5
8E6
102
{ACAD_REACTORS
330
8E5
102
}
330
8E5
100
AcDbXrecord
280
     1
102
SHADEPLOT
 70
     0
102
SHADEPLOTRESLEVEL
 70
     2
102
SHADEPLOTCUSTOMDPI
 70
   300
  0
XRECORD
  5
8E4
102
{ACAD_REACTORS
330
8E3
102
}
330
8E3
100
AcDbXrecord
280
     1
102
SHADEPLOT
 70
     0
102
SHADEPLOTRESLEVEL
 70
     2
102
SHADEPLOTCUSTOMDPI
 70
   300
  0
XRECORD
  5
8AD
102
{ACAD_REACTORS
330
1A
102
}
330
1A
100
AcDbXrecord
280
     1
102
MATERIAL
148
0.0
149
0.0
149
0.0
 93
        0
 94
      127
282
     0
 72
     0
 77
     0
171
     0
175
     0
179
     0
273
     0
  0
XRECORD
  5
1C
102
{ACAD_REACTORS
330
1A
102
}
330
1A
100
AcDbXrecord
280
     1
270
     1
271
     1
  0
XRECORD
  5
1B
102
{ACAD_REACTORS
330
1A
102
}
330
1A
100
AcDbXrecord
280
     1
270
     1
271
     1
  0
XRECORD
  5
1F
102
{ACAD_REACTORS
330
1A
102
}
330
1A
100
AcDbXrecord
280
     1
270
     1
271
     1
  0
XRECORD
  5
1E
102
{ACAD_REACTORS
330
1A
102
}
330
1A
100
AcDbXrecord
280
     1
270
     1
271
     1
  0
XRECORD
  5
20
102
{ACAD_REACTORS
330
1A
102
}
330
1A
100
AcDbXrecord
280
     1
270
     1
271
     1
  0
XRECORD
  5
1D
102
{ACAD_REACTORS
330
1A
102
}
330
1A
100
AcDbXrecord
280
     1
270
     1
271
     1
  0
XRECORD
  5
8AC
102
{ACAD_REACTORS
330
12
102
}
330
12
100
AcDbXrecord
280
     1
102
MATERIAL
148
0.0
149
0.0
149
0.0
 93
        0
 94
      127
282
     0
 72
     0
 77
     0
171
     0
175
     0
179
     0
273
     0
  0
XRECORD
  5
14
102
{ACAD_REACTORS
330
12
102
}
330
12
100
AcDbXrecord
280
     1
270
     1
271
     1
  0
XRECORD
  5
13
102
{ACAD_REACTORS
330
12
102
}
330
12
100
AcDbXrecord
280
     1
270
     1
271
     1
  0
XRECORD
  5
10B
102
{ACAD_REACTORS
330
12
102
}
330
12
100
AcDbXrecord
280
     1
 70
     1
 90
1959938040
 71
     1
  1
B416AFF7-E933-44A5-86FE-3D4766BFCD2E
311
504B03040A0000080000684F39403DEE336E79000000790000001B0000006175746F6465736B2D64657369676E2D7061636B6167652E786D6C3C3F786D6C2076657273696F6E3D22312E302220656E636F64696E673D227574662D3822203F3E3C666F726D6174733E3C666F726D61743E687474703A2F2F736368656D612E
311
6175746F6465736B2E636F6D2F64657369676E2D7061636B6167652F323030393C2F666F726D61743E3C2F666F726D6174733E504B0304140006080800684F3940D486FD9CA0000000F4000000130000005B436F6E74656E745F54797065735D2E786D6C7D8EC10E82300C865F65E91D8A1E8C310C0EEA1BF002731658846E
311
D98AC1B77784ABF1D8FE5FBFBF75BBCE937A534CCEB38643598122B6FEE978D0B0485F9C41B54DDD7D022595594E1A469170414C76A4D9A4D207E29CF43ECE46F218070CC6BECC4078ACAA135ACF422C856C0E68EA1BF5669944DDD7BCDE7B1F8E415D77AECB980613C2E4AC91FC167A2B244592486606FC29C8FD7F045B9A
311
EF7053A7E60B504B0304140006080800684F39403D9383A7E90000007C01000008000000636F72652E786D6C8D90416EC3201045AF82668F0DAEED82858914C539412F8080A428315806AA1EBF3871A476D7D58CFEFC3733FAE2F03DDFD1975DA30B7E045A1140D6EB609CBF8E90D30533400729D610D22F1B20AF663BC226
311
8314D735E4659774F0C9FA54541F8CDD4515A34D80F4BD342344FD696755A99C8A23DEAA45E99BBADA8ABEBA02E7EC0C7A1E71A6EC73176757908C73CA4EBCC39C9F26DCF67CC247D6B598B13339D3F7F638F5BDA837588AE4E6D77DBD5A95AC01D910DA604271D37D103E747CA03D26FD4088A837FB1F282FE69F50763EBD
311
35FBBB4F2C82A4E591C7408A7ACBA2944750A56EB9C91F504B0304140006080800684F394055019EA25F0000007C00000007000000636E782E786D6C4DCB3B0E80201045D1AD90E915ED2CF8AC45050C11660C8261F98AB1B07AC9C97D42D718D865D3E909258CFD00CCE24AC6E326A164D74DC0B4128928FF326038472BA1
311
3128B1252AC747C6BAB984FC68F0B87FE8960A5C09FE86CFB69FBA01504B0304140006080800684F3940F8FED9BC66010000020300000C0000006662782F636F72652E786D6C8D52ED8E8320107C15C27F043DF5B4419A346D9FE05E802AF54C150C82E9E3DFFAD178BD34CDC504C9CCCEEEEC28DFDFBB168DCA0E8DD1050E
311
038691D2A5A91A5D17D8BB2BC930DA0B6E8D71BFCA30D2B253059E602C786D8DEF57A834DA29ED00D5A6522B288741398CCA162E051ECA6FD5C9407A0715C32DE8657993B50AC20068A8137C70160CA065C8746271BDDC395D70C1BD6FAA956D2A98D65C1B65B1C8F23CCC8E7942F2FC7822719A9FC8214B62926567760E3F
311
E3C3294D399DC482BBA67BB82BAD924E5558442C8C080B49947CB17C97E4BB30252CDD31C6E954FE24F27DF54F916FB4FB8856BB8B6CC022042333F1675B88C8A1418EE0870A4EA710E13527FC1C340402213B79691F7BDC001A55E98C8D81A98CDFA851B65EC15486E687D38585CE7303D8EC659FE84D9FF73DE0034A5D83
311
35E9E07AF16E9ACE97A96B14BDB2647477A48DED64BB995B2C6EE736E8A5BC34ADB1FF51D37555BA8649A7BF57FC00504B0304140006080800684F39406237D7887E0000009D0000000B0000006662782F636E782E786D6C4DCCD10AC2201886E15B91FFDC96AEF61BA86361BB8FD1DC909C866974F96DB1838E3E78F87865
311
FB593C79DBF4723128608723101BEE7174615650F244059056CB1463FEBB0109C362156C0C5ACE2996E74EA39D86E2F3AADE85C78E78E35D2F7843F1DC5CE98931A41DD6861A34758F9C5D380AA8B4AC7EA575B7B0FE02504B0304140006080800684F3940AD0C22172B01000014020000310000006662782F374532414638
311
32362D373536422D343131372D413733442D4437443346373231393237382F636F72652E786D6C8D51CB6EC32010FC15C4293D6003898D1361A25469BEA03F400C495162B07854F9FC42ED48ED2D1716CDCECC8E76F9FE31DEC1B7F6C138DB43526108B41D9C32F6DAC3142FA883602FB8772EFEA14160E5A87B586028F8D5
311
BB342DD0E06CD43666D43AA5175086A02304C33D7F7A18862F3DCA4AA69819E1564D72B8C9ABAE4895DB992778883E0700F390F242C13EE8E1D4D116B1A67D471B42183AB0F5111DD9717D62946C29EB783D0B054FC9A8456E548E632E46FB574D8A58F068C667FCC16B19B582826242112688369F78BB6BB63BD222DCEE30
311
E675A1FF13A549BD284AC6C6355DE2CEB20005E1F5DC105CB974BE3FC3E8C7E47C0465DE2AE8E10D0A5CE11C0C37B4E5F54CCD0BC89EED66F10CD1F9BCE0D5ED9CD9A4998DDB8DE075B9512EBF07CCB5DC53FC00504B0304140006080800684F394078D824C24D01000033030000300000006662782F37453241463832362D
311
373536422D343131372D413733442D4437443346373231393237382F636E782E786D6CD593CD6E022114855F85B09F3FAB936A184CBAE81374D12D0357451998F0D3D4B7EF45D1BA71D165376472EEE19C9B2F0CDB7E4F867C810FDAD98176754B0958E994B6FB81A6B8AB5E29D972E69D8B0F364AAC9860A059A69CEDBD4B
311
739114EC44321155A3EDA9881E824B5E424039DF24C6496130006C9550846904A54091BB11BF76E0711514C733890720EF6F9FC48D479031B026A770D6E40ECEF2599A1E4C944823421868900798442D52740AC2A956228ABAAB6F5D4F76FA4D22F9C2AD32794D72F940F34979D9A8468EACC12167217AA4574CF13C03E562
311
9E8D962222E4E662BC7A384BDAC67E59BC1AC17B7477FDCB728961971967514F501CD28388A0285FB4DDA26ABB6AB1FA68D79BD57AD3F555DB6FDA9635D9CED9E89C29973006BC9B897436828D9477ACC9E367F88A8F28ED91B5F3E73F804400A5F54AE79EF19FF93497F78DB83CFE05FC07504B0304140006080800684F39
311
4093A4D5E49C0500007B100000340000006662782F37453241463832362D373536422D343131372D413733442D4437443346373231393237382F6F626A656374732E786D6CAD575B8F9B3814FE2B887D0E8424339D593154B94CAA6877DAAA51AB7D1829326018EF988B6C33CDECAFDFCF6008A4C934BBEA0B60631F9FF39D
311
EF5CECBFDF67DC7AA142B222BFB33D676C5B348F8A98E5E99D5DA96474635BEF035F1485EA2DB3AD9C64F4CED6D376E0A7A2A84A3315D384545C1DCDAE177F5932A239B5AD881329EF6C193DD18C38A452454CE5B31313459C34D93B9ED32C1C8A4D05299F8E849644D05C4153CCE79062354A79C3E1D87603DFD5FF035F3F
311
CDAAE9F9556E6DCFF07C964B45F2E887C38EC44CBDD9EA7E72753BBA9ACDA6A3D9F5C41B2DD68BD5C87B371D2FAF97CBDBF9FD2D0E964A4092D144D0C40E3E001BC122DF6D7E057EC572359D9825C641AEA02F4C7BCA0E2696E7BBCD9ACE3A63E429F5A322CF69546305346AFB8CE89896348FE173462534EB21341E0E3D8D
311
63EFF7548FCD91FDE9CB10E8EFE8096A756FDF7D4D8BF06F98202F6190905433B0C1D218DA70757C40382C0A6EFE3169654451C108B7380B0511AF7680A57A49E00FC468260B1D0DDA023B80179ADF43BA208C7ECEF3535A2615E79AC6765047C10EB14295AC3563FF5071D0BE8F0C7482AF341B6E8C41EAB5A47670DB50E4
311
E6884D0D9056C2490A97C34CBD733A393274A9E374B3B2833FD6E17EAB63F7F4E1A5284A2A94A60FA8D53AAE7D6B948C4EDE459ED31BEC23550EA07C01F21F11EA0755E037C1F6B3FDCC9CA204C96552880CBEB1C6D6688CC7D8F2EAA7FEEE7DF96EB779E8BD7378C2D91AAA5F80E7D086BE2F7B7006FE0B085F88A9316D1B
311
118EB4F1C07200A44962F10253C8C349B8B7830DB21CB23276111E783019EABEE0D3778D18248AFAA4DE3B07964769F182040DD86A46428D86FC46C1839F7E4867F5C166D93978AF7E095DE7ABED1FDB4A2424A20F26A65734613953287107DEF4151A603EB0E899BE7E2F440C437FC47BDBC73B334749A0AD31D7C0A76D4E
311
D783C3C9830322EC4B0B9D6EFC9F9C00237461EDC97F6032A29C939C16557BEE9BF50365A3815807BB667257600E8505A469FE1CC5208A742458A941ECAA5597349D33D67DDD7C0423ED60F1FA2779ED67AFF0907BA382176217BEEE9AB47412EA6F436E1B0C5C2D0574AF83A48D7F03FA2E6649524924C113B87EDB2CFBBE
311
D3690129A295DA44CB0CF623B88830A46DE5A25A0B824A5AE43B86BA89B83B79405F3E20350CA8059ED358529EEC18E755B64B184735DA65A43C03C7FFD73FACB27247B2A2CAD519D903D5511D86BA0FD82BBF13153DD9C1B67E8F16C8BD318DCF9041D79213580D5CBB9879D7F3F5FADDE8FE768AFE6936BF1ADD5CAFEF47
311
D3D5ECDDF5F562BD5C4DEE5B3F359A047E5B6AFA110D2FA1B4F99560C67D5F37881F9304ECE08128F9F8A109CFF6FD75E3A017F65DEC41BDEC36CEE317F47D34FEB980C3CA93823659C969467345740C3DE80FFE85A0CF1828D3CC6F3292D20BA47CFAB03D32063317ECFBACE39D7E3FDA6B66973A204F0A514F5516E684F1
311
A38D6983A453E6A9C1AFF549F76E0A4D3BD423E31874A6B2E02C461E8CAD94161955C886171421915109EAF57BFAD8DC3D2ED8FDD274888A849CB69A3C1134C95C222C40AD2A52C379EB373475BAAFBAB3516E9D673C4CA6B02D70E6CE4693AE5844A513A240EB56A8160E2EF53B7934FE244F397AED665337EE76696C0625
311
B95B7249FF64EC6A52B8310069A444DF808608DEA99509FC5A37F33FFA4F86B7EA5844E133AC5467CB61A233A63E0621DA18656E0B68629ECDD17B04EADB66794EBD6680C845B7AC3749D0481D2922D2FAA6A0F5332ACD579F5D7428D6E69355F22A852F2F9734121464AE74808345608591591205AA2E7F7FFC2C0ADC6433
311
6BCD4081C7659165456E06737313B6B64FB8D7C68F480B545F48E4E364EC4D1EEB8B80B99BEC4222A94362F98C09F854B00EE281E3C1C8E6B6880AD4FCE8D6B9DA0947DCDCAC2C53D266106A88D2CFAA1A16B41C39B5103DFA32A963A5BFA07CF32EE0D64BA18240171FFC0B504B0304140006080000684F39400000000000
311
00000000000000350000006662782F37453241463832362D373536422D343131372D413733442D4437443346373231393237382F76657274696365732E62696E504B0304140006080800684F3940F270F1330600000004000000360000006662782F37453241463832362D373536422D343131372D413733442D4437443346
311
373231393237382F747269616E676C65732E62696E636660600000504B0304140006080000684F3940000000000000000000000000370000006662782F37453241463832362D373536422D343131372D413733442D4437443346373231393237382F617474726962757465732E62696E504B0304140006080800684F3940D5
311
987DFC8F00000041010000360000006662782F37453241463832362D373536422D343131372D413733442D4437443346373231393237382F6469726563746F72792E786D6C858F410EC2201045AF4266AF15DDB800BA74E7C21B903225242D6328188F2FA5C4183471359997F9FF81E89FF3C41E1816475E02DF1F80A11FC8
311
386F25A438EECEC07A250251FC3803E6F58C12560C4AD840E95E91C151A72936F496F35732D860FE635F62C8F2DA16B505C545B74125BAA2FA9E05D7CC053D063734D5C7665FD55B6B8D15D5E9BFEAFD8490FFA45E504B0304140006080800684F39402E38AD3FFC000000A00100003B0000006662782F3745324146383236
311
2D373536422D343131372D413733442D4437443346373231393237382F7265736F75726365732F636F72652E786D6C8D504B6E833010BD0A9ABDC1A64071641C290A39412F609909B112ECC89FAAC7AF09546A77DDCC8CDE47F3F4C4F16B79149FE883717600565228D06A37193B0F90E295F4501CA5F0CEC55F3228AC5A70
311
8015062966EFD27387B4B3116DCCA87513EEA00A012314FA918F0182BEE1A24A956256847BF954FAAE662C5999E9AC9322449F0314DB937582F4185CF21A83A836568A94CCB46BCC947F9AAB410FB2E79CF567DE10CECF23693A3E9253DF36A4EF2FF4C2DE9BD3D875A25ACD5244B3FC64D41E55C409644D594D282375FB41
311
F9A1E507D611DA1D2815D52AFF634ACFE99FA6646C7CABF7B89B2D806439C88B90A25AFBCAEB5566DE6BB7F21B504B010214000A0000080000684F39403DEE336E79000000790000001B00000000000000000000000000000000006175746F6465736B2D64657369676E2D7061636B6167652E786D6C504B01021400140006
311
080800684F3940D486FD9CA0000000F40000001300000000000000000000000000B20000005B436F6E74656E745F54797065735D2E786D6C504B01021400140006080800684F39403D9383A7E90000007C010000080000000000000000000000000083010000636F72652E786D6C504B01021400140006080800684F394055
311
019EA25F0000007C000000070000000000000000000000000092020000636E782E786D6C504B01021400140006080800684F3940F8FED9BC66010000020300000C00000000000000000000000000160300006662782F636F72652E786D6C504B01021400140006080800684F39406237D7887E0000009D0000000B00000000
311
000000000000000000A60400006662782F636E782E786D6C504B01021400140006080800684F3940AD0C22172B0100001402000031000000000000000000000000004D0500006662782F37453241463832362D373536422D343131372D413733442D4437443346373231393237382F636F72652E786D6C504B010214001400
311
06080800684F394078D824C24D010000330300003000000000000000000000000000C70600006662782F37453241463832362D373536422D343131372D413733442D4437443346373231393237382F636E782E786D6C504B01021400140006080800684F394093A4D5E49C0500007B10000034000000000000000000000000
311
00620800006662782F37453241463832362D373536422D343131372D413733442D4437443346373231393237382F6F626A656374732E786D6C504B01021400140006080000684F39400000000000000000000000003500000000000000000000000000500E00006662782F37453241463832362D373536422D343131372D41
311
3733442D4437443346373231393237382F76657274696365732E62696E504B01021400140006080800684F3940F270F13306000000040000003600000000000000000000000000A30E00006662782F37453241463832362D373536422D343131372D413733442D4437443346373231393237382F747269616E676C65732E62
311
696E504B01021400140006080000684F39400000000000000000000000003700000000000000000000000000FD0E00006662782F37453241463832362D373536422D343131372D413733442D4437443346373231393237382F617474726962757465732E62696E504B01021400140006080800684F3940D5987DFC8F000000
311
410100003600000000000000000000000000520F00006662782F37453241463832362D373536422D343131372D413733442D4437443346373231393237382F6469726563746F72792E786D6C504B01021400140006080800684F39402E38AD3FFC000000A00100003B00000000000000000000000000351000006662782F37
311
453241463832362D373536422D343131372D413733442D4437443346373231393237382F7265736F75726365732F636F72652E786D6C504B0506000000000E000E00800400008A1100000000
310
504B03040A0000080000684F39403DEE336E79000000790000001B0000006175746F6465736B2D64657369676E2D7061636B6167652E786D6C3C3F786D6C2076657273696F6E3D22312E302220656E636F64696E673D227574662D3822203F3E3C666F726D6174733E3C666F726D61743E687474703A2F2F736368656D612E
310
6175746F6465736B2E636F6D2F64657369676E2D7061636B6167652F323030393C2F666F726D61743E3C2F666F726D6174733E504B0304140006080800684F3940D486FD9CA0000000F4000000130000005B436F6E74656E745F54797065735D2E786D6C7D8EC10E82300C865F65E91D8A1E8C310C0EEA1BF002731658846E
310
D98AC1B77784ABF1D8FE5FBFBF75BBCE937A534CCEB38643598122B6FEE978D0B0485F9C41B54DDD7D022595594E1A469170414C76A4D9A4D207E29CF43ECE46F218070CC6BECC4078ACAA135ACF422C856C0E68EA1BF5669944DDD7BCDE7B1F8E415D77AECB980613C2E4AC91FC167A2B244592486606FC29C8FD7F045B9A
310
EF7053A7E60B504B0304140006080800684F3940A64E703CEA0000007C01000008000000636F72652E786D6C8D90D18E832010457F85CC3B8A16AD1AA4D936E10BF60708504B5AC1086CF6F3175B9BECBEEDD34CEEDC3333B9ECF43D3FD0975983F56E84AA20808C535E5B378D90E21577804E9CADDEC75F36404ECE66844D
310
06CEA6D5A765979477D1B89855E7B5D94519828980D4233723047533B32C648AD911EEC522D55D4EA6A8DE5D8653B21ABD8E589DF7D9AB352BF0EE4CA9E88E2D3E8B4B87A9680FB8A742E0E38768684B7B41BB0B2B3798B368E7F77DB51A198D065E93AAC6A4C275F349FAA1E987AAC5A41D0861E566FF03A545FF134AD6C5
310
43BDBFFBC202F02A3FF21C70566E59E4F20C2AD72D37FE03504B0304140006080800684F394055019EA25F0000007C00000007000000636E782E786D6C4DCB3B0E80201045D1AD90E915ED2CF8AC45050C11660C8261F98AB1B07AC9C97D42D718D865D3E909258CFD00CCE24AC6E326A164D74DC0B4128928FF326038472B
310
A13128B1252AC747C6BAB984FC68F0B87FE8960A5C09FE86CFB69FBA01504B0304140006080800684F39409433E14B66010000020300000C0000006662782F636F72652E786D6C8D52ED8E8230107C95A6FF4B0111D1949AD38427B817A850B946684969898F7FCB87E1BC1863484A33B3B33B3BC08EF7B64183B4BD323AC7
310
5110622475692AA5EB1C7B7725194647CEAC31EE4F19465AB432C7238C39ABADF1DD0295463BA91DA0DA54720145DF4B8751D9C025C77DF9235B1108EFA0A2BF059D286FA2964114000D759CF5CE8201340F194FCCAF973BA333CE99F7AA5A5855C1347555D2629E9D92A4C876293915E78C2445BA21FBA428C8EEABD82669
310
B22F92ECCCE828E6CCA9F6E1AEB4523859611E87514CC288C4DBEF707FD8EE0F514AC2F410868C8EE54F22DF551F8ABCD26E132F7667598F79044626E2DFB6109143BD18C00FE58C8E21C26B4AF8396808044276E2D23CF6B80134C8D2199B005319BF528368BC84A9219A1E4667163A4F0D60B3977DE2377DDEF7800F2874
310
0DD68483EBC5BB713A9BA72E5174D292C1DD9136B615CD6A6EB6B89EEBA097F2D234C67EA2A6CBAA7409938E7F2FFF05504B0304140006080800684F3940F076C03D7E0000009D0000000B0000006662782F636E782E786D6C4DCCD10A83201886E15B91FFDCA52CCB408DB9CDFB886521990EA76397BF1A1DECE883878F57
310
F49FD5A3B74D2F1783047A22806C78C4D1855942C913E6807A25528CF9EF06280CAB95B0332831A7589E078D761A8ACF9B7A1796032FE6C6F49D33DC70DDE19A6882754B0CEEEA86334A756BCE57A894A87EA56DF7B0FA02504B0304140006080800684F39401BD3BA6E2B01000014020000310000006662782F4146443542
310
4538352D363842392D343042302D423730462D3934363835313142374633432F636F72652E786D6C8D51CB6EC32010FC158B537AC006C738768489EAB6F982FE000192A2C460F1A8F2F985DA91DA5B2E2C9A9D991DEDD2C37DBA15DFCA796DCD00708940A18CB0529BCB006238C30E1407469DB5E10F0D14864F6A0019068C
310
5E9C8DF30A096B823221A1C64AB582DC7B1540216EE933002FBED4C44B1E4362F86B397371E51755E232B5138F511F5C0A502C43F20BD8EBF19D8C1F1D816D37F6B0412382E30E1D61DFB41DC178DC1DB76FB45A848CC6A8E52AD732C5D167ADDCB32659CC68D0D323BE708A072501AB11AE21C2B0269FA8DF937E8F5B88DA
310
3D42B4CAF47FA238CB2745519BB0ADD7B88BCC038669B5341895369E6E8F30EA3E5B178A3C6FE39578010C95A8AE1B42763DAD166A5A40F26C9BD5D307EBD28237D753626F57E3B661B4CA374AE5F780A9E67BB21F504B0304140006080800684F39401E7FEBD55401000033030000300000006662782F4146443542453835
310
2D363842392D343042302D423730462D3934363835313142374633432F636E782E786D6CBD93CD6E022114855F85B09F5F75A286C1A48B3E4117DD3270552A0313609AFAF6BD285A372E9A34DD90C9B987736EBE306CF7351AF2093E68677BDA94352560A553DA1E7A3AC77DB1A664C799772E3ED828B162849E26997276F0
310
6E9EB2A4602F66135135DA9EB2E821B8D94B0828A79BC438290C06802D6614611C402950E46EC4AF3D785C05C5E14CE211C8EBCB3B71C307C81858955238AB520767E9CC4D0F264AA41121F434C8238CA21473740AC2A954228AB2296F5D4F76FA4922E9C2AD72F69AA4F29EA693F2BC51891C598543CE42F4482F9BE27902
310
CAC534192D4544C8D5C578F570366B1BBB65F66A04EFD1BD68BBF51AC32E33CEA21E213BA407114151DED64D5BD44DD1AEDEEACD76B5D9365D5177DBBA6655B273363867F2258C01EF26229D8D6023E50DABD2F819BEEC234A7B64EDFCF9172011406EBDD2B967FC259FA65B2C97FFC8A7BABC6FC4E5F12FE0DF504B030414
310
0006080800684F3940500604B95B070000941B0000340000006662782F41464435424538352D363842392D343042302D423730462D3934363835313142374633432F6F626A656374732E786D6CED59DD739B3810FF5718EED9D8F8234D6E089DC44E329E5EDA4E7DEDDC8367181964AC8B108C2492F8FEFA5B09818198045F
310
736F7DB00121AD767FFBA9C5FBF89C50EB117341527669BBCEC8B6300BD388B0F8D2CEE576706E5B1F7D8FA7A9AC4DB32D86127C69AB61DBF7629EE699198AF016E554B6466FAFFFB2448819B6AD9022212E6D11EE70821C94CB34C2E2C18990444EBC7D765CA798D8241B7394ED5A4433C43193C0298C33A062154CB9CDC7
310
913DF4BDA17AEF7BEADFCC9AF49A35ED9E35D45237B9244C48C4C2172CB5C84C7AB13471A78B9BF1EC62309B4E2783E9D9D81D5CDF5E2F06EE87C9687E369F5F5CDD5C007B9B34A546A608679845A0BFBDEDBBDE50BDA94437081CE33A4C19C3A10612A0D262B509122C60AB1A7CA3E6A3AB24AABDD612D69EA7EABD61A136
310
3C6952E99AD50F88065D10C46C574A5C5EEBF2A59BBF4170D1C728B9C012B8159283760D3C1CBCC2F647DEB018F5BDCD4117445809929813442D4A361C71500A4C55537CAF5860C828E7E040CA521268CD15AF9BB6059EF9B6EB1CE3729B53AA3CC3F6B56305E07E580ACD19F907F303F7756480279036274C9E1B2EE53EC3
310
B67FE10DF5A0EFA9CB646C5E16405A5B8A62A11129DEB6049D2BD75F2E6CFFD3EDE679A5C2C1F1CD339E66984B65744A8F9A2F3064735528996DDD5E9A530B40980254B3F200CA3740FE33448F032BA0374E9EA7CF53335772C4C436E509E8C61A598311FC8D2C57FFABFBDA9D37AC1637B5D78527B8A982EAFCE7F16CCAA0
310
B132FCD7E0F4BD4730F8944FCCAB558828D8F33D61009032128BA63004A17DBB79B6FD25044E08F4B00A51DF059181DD47B8F58686CC412BA57B19AF6380A8D963D24749009BB64860A3434F77903D38090F6AAA8BD805EFEC5DCCF56AB1FAB4CAF91685F8DEF8F4026F092312B2E671861A9837247AC0FBA7944720E84BBC
310
5775BC13B39500B415E60AF8B804413D1C766E6C10C2BA3855E1C67B63071042E5EA1AFD7B22424C296238CDCB7DABE8A60CB5F2785333D8FEB88078326E9930C78F445515E03487190D4621EF879C640A44DBBF2B24AB82A6D321DDF7E567B0C86A7EC7AC2583D0CB10FD5307AD2338342CBB44DA005109BC3984F330A529
310
0F36FBA0887436D412C046D35B7E348842AC2F94A4A8800769BF2B434A5C481B4464BBCD05C4D5232CFE58CEEBE6307226EECCAAFFB79C710AD1167C1771E377AD3D0292A018075B14756D57DFADA22D34C90ED21C6F29C8451E89DC074806A308C7A7407312F18B77A51ED35408C2B0807C7514FC3A1A23070249A1CD9265
310
A5D516D044040996889E828022D301AE4E3BBAC60DA174789BC7CA7A5FD3589DE8FF64111C412D99B28040290A39E44DC65D670631A4896E81720B5FB0B692B61683E6504284FBE0099378274F41BD20DF817B0847925C0669864230EB1E645FF88A526A8BF70D0A1F54FE08C29CBE9781084CB701A1344F02F81106278F3E
310
AE5D05A65751A8112F629FC409146548E6BCCF2667B3D18B7D8A9AA11D026B1B6D0985B01D2428EB40BD1110753D6255E01BEA1D4ADDE44916A024CD592F4371266D6F32E4DB6A55647BF2AB4A45281B4BC286A0EF1126ABAC5AC66C30751D58C18D74A0DA070225192D4E616F241EB7F2264DB973036EFCF47D3748A0F0EB
310
D05E3DA24E4B180C8F8DC2403C2119EE6C7FA5AF836BA8BF231C1D527D596BD62B40404C45F29C13A3A2EF4B286F4C8D66FBF7488AF55D9175CBEBF7A503DD0F6F086BA076A9162E15D0096612A9CAE45EDDD06F084270834631BE5439F5142A5751A4AB46446F49973A1B654463D38438D90EB334811F5B1316D23CC26B14
310
8987E05ED2604514EB464A272125C6AF0AF8E56ED58207467A88F4551578F8A9B5D68CCE55B9749488DCE5C986210241B0215A5CE8C6C9586C34526AB9BAAA3305D45D606046C5D35F278B7A3BE2D7C9223686F153278BEBFD1F685FEF8BD4D279A8ECFAA46340959F1495F73806E8B64345B5CA22453237F21B670A202896
310
51BE773556068D826017C7FF396B7765C162BB16FFA7656DF745C5715256694C565DAA2395EBB29EC3AEA7EED9D5EDED87C1CDC5041AB4D3ABD9E0FCECF66630594C3F9C9D5DDFCE17E39B0A4DEDA8BE5705339DBBE0B9086AE5B07A3218405756A49444709A8FAC1843CC9770A6EFD13EE70916903CEBCDEEC834E57BAC7E
310
2CFA9C126D282E39D92168105301691D30CA43D91CB77E83D6A48483F6A50D4D23E701FE8C55DA16649E4B1B5A05928458381B6833A9869E260E2957E77E430CF0412C5629B158543D57AB14368DF05F4DE993068C5C8D1E06146E1974BF1A1D0ACD9BE1293C49F0921D0B49B8DDE412AAB54296C340258CDEE6A0FE42364A
310
D883D9FA195CF775B15C47CF6920D2EB93C1AB4650501D48C463DDEF568C1996AE165F87D067B3965FAC8CE631E8B23FA501C760CCB92AA8C08AC02A0CCD0C4930D5F9EFEBAF3C854F3C89A5ABA2F53C4D929499872B388F45F089C85AEDE0834FB486B201ABB6BA588F47EE78ADDBD9A6C31E6C90C08EAA8760A02C239408
310
2D63038B7CD19A328DCBA152426BFA726199F03903A2DA6A5F74778BCF5B16788FFA90A27C457B7829E7AB1DEDA19E0AD6C0A117EDFF0B504B0304140006080000684F3940000000000000000000000000350000006662782F41464435424538352D363842392D343042302D423730462D3934363835313142374633432F76
310
657274696365732E62696E504B0304140006080800684F3940F270F1330600000004000000360000006662782F41464435424538352D363842392D343042302D423730462D3934363835313142374633432F747269616E676C65732E62696E636660600000504B0304140006080000684F3940000000000000000000000000
310
370000006662782F41464435424538352D363842392D343042302D423730462D3934363835313142374633432F617474726962757465732E62696E504B0304140006080800684F3940D5987DFC8F00000041010000360000006662782F41464435424538352D363842392D343042302D423730462D39343638353131423746
310
33432F6469726563746F72792E786D6C858F410EC2201045AF4266AF15DDB800BA74E7C21B903225242D6328188F2FA5C4183471359997F9FF81E89FF3C41E1816475E02DF1F80A11FC8386F25A438EECEC07A250251FC3803E6F58C12560C4AD840E95E91C151A72936F496F35732D860FE635F62C8F2DA16B505C545B741
310
25BAA2FA9E05D7CC053D063734D5C7665FD55B6B8D15D5E9BFEAFD8490FFA45E504B0304140006080800684F3940CEA42D0DFD000000A00100003B0000006662782F41464435424538352D363842392D343042302D423730462D3934363835313142374633432F7265736F75726365732F636F72652E786D6C8D504B6E8330
310
10BD0A9ABDC1104320328E9A483E412F609909B512ECC89FAAC7AF09546A77DDCC8CDE47F3F4F8F96B79149FE883717684BAA450A0D56E32761E21C51BE9A1380BEE9D8BBF645058B5E0082B0C82CFDEA5E70E696723DA9851EB26DC4115024628F4231F2304FD818B2A558A5911EEE553E9BB9AB1ACCB4C679DE021FA1CA0
310
D89EAC1384C7E092D71878B5B182A764A65D63A6FCD3DC0C7A10FD8531D91F5B7291D79E30D91DC8C0A424C737D9B28E0D92F5575EAD66C1A3597E326A8F2AE204A2A17543684D9AF69D0EA77638D51DA1DD89525EADF23FA6F49CFE694AC6C643B3C7DD6C01449D83BC08C1ABB5AFBC5E65E6BD762BBE01504B010214000A
310
0000080000684F39403DEE336E79000000790000001B00000000000000000000000000000000006175746F6465736B2D64657369676E2D7061636B6167652E786D6C504B01021400140006080800684F3940D486FD9CA0000000F40000001300000000000000000000000000B20000005B436F6E74656E745F54797065735D
310
2E786D6C504B01021400140006080800684F3940A64E703CEA0000007C010000080000000000000000000000000083010000636F72652E786D6C504B01021400140006080800684F394055019EA25F0000007C000000070000000000000000000000000093020000636E782E786D6C504B01021400140006080800684F3940
310
9433E14B66010000020300000C00000000000000000000000000170300006662782F636F72652E786D6C504B01021400140006080800684F3940F076C03D7E0000009D0000000B00000000000000000000000000A70400006662782F636E782E786D6C504B01021400140006080800684F39401BD3BA6E2B01000014020000
310
31000000000000000000000000004E0500006662782F41464435424538352D363842392D343042302D423730462D3934363835313142374633432F636F72652E786D6C504B01021400140006080800684F39401E7FEBD554010000330300003000000000000000000000000000C80600006662782F41464435424538352D36
310
3842392D343042302D423730462D3934363835313142374633432F636E782E786D6C504B01021400140006080800684F3940500604B95B070000941B000034000000000000000000000000006A0800006662782F41464435424538352D363842392D343042302D423730462D3934363835313142374633432F6F626A656374
310
732E786D6C504B01021400140006080000684F39400000000000000000000000003500000000000000000000000000171000006662782F41464435424538352D363842392D343042302D423730462D3934363835313142374633432F76657274696365732E62696E504B01021400140006080800684F3940F270F133060000
310
000400000036000000000000000000000000006A1000006662782F41464435424538352D363842392D343042302D423730462D3934363835313142374633432F747269616E676C65732E62696E504B01021400140006080000684F39400000000000000000000000003700000000000000000000000000C41000006662782F
310
41464435424538352D363842392D343042302D423730462D3934363835313142374633432F617474726962757465732E62696E504B01021400140006080800684F3940D5987DFC8F000000410100003600000000000000000000000000191100006662782F41464435424538352D363842392D343042302D423730462D3934
310
363835313142374633432F6469726563746F72792E786D6C504B01021400140006080800684F3940CEA42D0DFD000000A00100003B00000000000000000000000000FC1100006662782F41464435424538352D363842392D343042302D423730462D3934363835313142374633432F7265736F75726365732F636F72652E78
310
6D6C504B0506000000000E000E0080040000521300000000
  0
XRECORD
  5
17
102
{ACAD_REACTORS
330
12
102
}
330
12
100
AcDbXrecord
280
     1
270
     1
271
     1
  0
XRECORD
  5
16
102
{ACAD_REACTORS
330
12
102
}
330
12
100
AcDbXrecord
280
     1
270
     1
271
     1
  0
XRECORD
  5
18
102
{ACAD_REACTORS
330
12
102
}
330
12
100
AcDbXrecord
280
     1
270
     1
271
     1
  0
XRECORD
  5
15
102
{ACAD_REACTORS
330
12
102
}
330
12
100
AcDbXrecord
280
     1
270
     1
271
     1
  0
XRECORD
  5
8AE
102
{ACAD_REACTORS
330
22
102
}
330
22
100
AcDbXrecord
280
     1
102
MATERIAL
148
0.0
149
0.0
149
0.0
 93
        0
 94
      127
282
     0
 72
     0
 77
     0
171
     0
175
     0
179
     0
273
     0
  0
XRECORD
  5
24
102
{ACAD_REACTORS
330
22
102
}
330
22
100
AcDbXrecord
280
     1
270
     1
271
     1
  0
XRECORD
  5
23
102
{ACAD_REACTORS
330
22
102
}
330
22
100
AcDbXrecord
280
     1
270
     1
271
     1
  0
XRECORD
  5
BA
102
{ACAD_REACTORS
330
22
102
}
330
22
100
AcDbXrecord
280
     1
 70
     1
 90
1959938040
 71
     1
  1
AEECF5C9-8CD3-416C-B88B-5D0EF2CE957B
311
504B03040A0000080000684F39403DEE336E79000000790000001B0000006175746F6465736B2D64657369676E2D7061636B6167652E786D6C3C3F786D6C2076657273696F6E3D22312E302220656E636F64696E673D227574662D3822203F3E3C666F726D6174733E3C666F726D61743E687474703A2F2F736368656D612E
311
6175746F6465736B2E636F6D2F64657369676E2D7061636B6167652F323030393C2F666F726D61743E3C2F666F726D6174733E504B0304140006080800684F3940D486FD9CA0000000F4000000130000005B436F6E74656E745F54797065735D2E786D6C7D8EC10E82300C865F65E91D8A1E8C310C0EEA1BF002731658846E
311
D98AC1B77784ABF1D8FE5FBFBF75BBCE937A534CCEB38643598122B6FEE978D0B0485F9C41B54DDD7D022595594E1A469170414C76A4D9A4D207E29CF43ECE46F218070CC6BECC4078ACAA135ACF422C856C0E68EA1BF5669944DDD7BCDE7B1F8E415D77AECB980613C2E4AC91FC167A2B244592486606FC29C8FD7F045B9A
311
EF7053A7E60B504B0304140006080800684F3940B42D36F5E80000007C01000008000000636F72652E786D6C8D904D6EC3201085AF82668F8DF1BF85891AE708BD0002E2A0C46019A87AFCE2C491DA5D57337AF3BE99D163A7EFE581BEF4E68DB323141901A4AD74CAD8798418AEB80374E26C732EFCB201B262D123EC3270
311
366F2EAE87249D0DDA86A45AA7F4210AEF7500241FA919C1CB9B5E442662480E7FCF5621EF62D659F1EE121CA351E875C4A8B4CF5C8DDE8093EAA326175A607ABE34B8AADA1EF7D344715FB6535B965DDB9D4B96EF3067C12CEFFB72D32268059C92826292F0FA93F443DD0F4583493310C2F2DDFE078AABFA27148D0D253D
311
DE7D611E78911E790E38CBF72C52790695EA9E1BFF01504B0304140006080800684F394055019EA25F0000007C00000007000000636E782E786D6C4DCB3B0E80201045D1AD90E915ED2CF8AC45050C11660C8261F98AB1B07AC9C97D42D718D865D3E909258CFD00CCE24AC6E326A164D74DC0B4128928FF326038472BA131
311
28B1252AC747C6BAB984FC68F0B87FE8960A5C09FE86CFB69FBA01504B0304140006080800684F394042155AE264010000020300000C0000006662782F636F72652E786D6C8D52ED8E8230107C95A6FFA1E54311536A4E7D847B810A956B84969496F8F8B77C18CE8B3186A434333BBBB303EC706F1B3448DB2BA30B1C8514
311
23A94B53295D17D8BB6BB0C3E8C09935C6FD29C3488B561678843167B535BE5BA0D26827B503549B4A2EA0E87BE9302A1BB814B82F7F642B42E11D54F4B7B013E54DD4328C42A0A18EB3DE593080E621E389F9F5726764C639F35E550BAB2A98A6AE4A5ACC69FAB5A1E7380AE2E3791BA4699607F9E9140779929DB224D965
311
BB63C2C828E6CCA9F6E1AEB4523859611ED3280E28C837DF34DF6FF27DB40DE8764F292363F993C877D58722AFB44BE2C5EE2CEB318FC0C844FCDB162272A81703F8219C913144784D093F070D8140C84E5C9AC71E378006593A6353602AE3576A108D973095A2E9616466A1F3D400367BD9277ED3E77D0FF88042D7604D38
311
B85EBC1BA7B379EA1245276D30B83BD2C6B6A259CDCD16D7731DF4525E9AC6D84FD46459952C6192F1EFE5BF504B0304140006080800684F3940235A46BB7E0000009D0000000B0000006662782F636E782E786D6C4DCCD10A83201886E15B91FFDCA56B390535CAB1FB886521990EA76397BF1A1DECE883878F57B69FD5A3
311
B74D2F1783027A22806C78C4D1855941C913E6805A2D538CF9EF06280CAB55B0336839A7589E078D761A8ACF9B7A17960319A3FD99D41C375741F085DD3BDC89DAE04610DEF4E6662867506959FD4ADBEE61FD05504B0304140006080800684F39408CB87F8E2A01000014020000310000006662782F36363142323033382D
311
353739302D343646412D413933432D3539303835424344433138362F636F72652E786D6C8D51CB6EC32010FC15C4293D608363A81D61A22455BFA03F400D495162B07854F9FC42ED48ED2D1716CDCECC8E76F9FE3EDDC0B7F6C1383B40526108B41D9D32F632C014CFA883602FB8772EFEA14160E5A407586028F8C5BB34AF
311
D0E86CD43666D43AA5575086A02304E32D7F0618C62F3DC94AA69819E15ACD72BCCA8BAE4895DB992778883E0700CB90F242C118393678DB21FADA63D4B2F7033AF4DB13A23DEEE8F1F476221DE3F522143C25A356B951398E391BED9F352962C1A3991EF147AF65D40A8A06930661821AFA81FB1DED778421CC7618F3BAD0
311
FF89D2AC9E142563E3B659E32EB20005E1F5D2105CB9F4797B84D1F7D9F908CABC4DD0E30B14B8C20DA61D6DB364A1E605644FD6AE9E213A9F17BCB97E6636A18B316B05AFCB8D72F93D60AEE59EE207504B0304140006080800684F394078D824C24D01000033030000300000006662782F36363142323033382D35373930
311
2D343646412D413933432D3539303835424344433138362F636E782E786D6CD593CD6E022114855F85B09F3FAB936A184CBAE81374D12D0357451998F0D3D4B7EF45D1BA71D165376472EEE19C9B2F0CDB7E4F867C810FDAD98176754B0958E994B6FB81A6B8AB5E29D972E69D8B0F364AAC9860A059A69CEDBD4B739114EC
311
44321155A3EDA9881E824B5E424039DF24C6496130006C9550846904A54091BB11BF76E0711514C733890720EF6F9FC48D479031B026A770D6E40ECEF2599A1E4C944823421868900798442D52740AC2A956228ABAAB6F5D4F76FA4D22F9C2AD32794D72F940F34979D9A8468EACC12167217AA4574CF13C03E5629E8D9622
311
22E4E662BC7A384BDAC67E59BC1AC17B7477FDCB728961971967514F501CD28388A0285FB4DDA26ABB6AB1FA68D79BD57AD3F555DB6FDA9635D9CED9E89C29973006BC9B897436828D9477ACC9E367F88A8F28ED91B5F3E73F804400A5F54AE79EF19FF93497F78DB83CFE05FC07504B0304140006080800684F3940883BB2
311
2C9B0500007A100000340000006662782F36363142323033382D353739302D343646412D413933432D3539303835424344433138362F6F626A656374732E786D6CAD57DB6EDB3810FD1541FBEC8B6CA74D168A8AD84E0AA3481BD468B10F010C4AA2146E285120A9D4D9AFDF4389BAB976EA5DF4C5B2A8E170E6CC990BFD0F
311
FB8C3B2F542A26F26BD71B4F5D87E69188599E5EBBA54E4697AEF321F0A510BA27E63A39C9E8B56B96DDC04FA5280BBB14D384945C1FACDE2DFF72544473EA3A11274A5DBB2A7AA2191993528B98AAE7714C3419A7C97EEC8D6BC1A1DA5492E2E940694124CD352CC57A0E2D4E6D94377C9DBA93C09F98EF816F7EADD4FCB4
311
D4A4F267783ECB952679F4D361076AE6DE627D3BBBB81A5D2C16F3D1E2DDCC1B2DEF96EB91F77E3E5DBD5BADAE6E6EAF70B0D2129AAC2592266EF011D84816F993FA53E0972CD7F39915B1019A48FAC24CA4DC60E678FEA49669BDB34E1E333F12794EA30A2BA051F96755C7B4A0798C9833AA60590FA1E9F0D53338F63ECF
311
CDBB3DB2BF7C1E02FD1D3D458DEDCDB36FA908FF860BEA1C0649450D036B2CADA33557A71DC2A110DC7E63CAC988A69211EE70164A225FDD00A24624F0076A0C93A5C906E3811B200AF5E7215D9046BFE6F9312B939273436337A8B260875CA15A5596B17FA8ECACEF23039B102BC3864BEB907E2DA81B5CD514B93C60530D
311
A493709222E470D3EC9CCF0E1C5D993CDDACDDE0D35DB8DF9ADC3D7E78214541A536F401B59AC0354F8392B5C93B2B7266837B604A07CA5720FF19A9DE9982B849B65FEC17F6142D49AE122133C4C6993AA3297EA68E57FD9AFFBD7FFEA4DD3C8CDE293C116C03D56FC073E8433F963D3803FF058417726E5DDB4684A36CDC
311
B31C001992385C6009753809F76EB041954355C62EC2030F2EC3DC17FCF527560D0A457552EF9903CB83B2784681066C152361464D7E6B6017A79FCA5975B0153B05EFC56FA1EBCD7AFB695BCA8444F4DEE6F49A262C671A2DAEE34DDFA001E6038F9EE9EB0F216338FA33DEDB3EDE993D4A016D83B9013E6D6ABA79E94E1E
311
1C10615F2A4CB9F17F71029C308DB5A7FF9EA988724E722ACAE6DC37FB07DA460DB14976C3E4B6C1748D05A4A9BF1CE4209A74245961406CBB555B34C727BCFBB6F90C46429E8B90F04E28EC4A6F24B890BBF0755757A5A3487F1F52DB4230315AC0F62A479AF4B798EF629624A5420D3C02EBF7CDAA1F3A531550211AAD75
311
B22CE03E728B48CBD9462F9AB52468A422DF31B44DA4DDD103FAFA81A82540A5F094C58AF264C7382FB35DC2389AD12E23C50938FEBFFD6199153B928932D727740F4C477318DA3E20AFFA4174F4E406DBEA395AA2F4C634EEC23C1036ADE4085683D0DEDCDEAEEE2E5657A3CBD51AE393F76E355A5E5E2E4717EBE9EDDD6C
311
757B75F17ED9C4A9561EF84DA7E92734A284CEE69792D9F07DDB207D6C0D70837BA2D5E3C73A3B9BE7B7CD18A3B03FC11EB4CB76E34DFC82B18FC6BF56D0491E55B4C90A4E339A6B6252E8DEFCE15F09C68C8131F5FA2623293D43CB978FDB0367B072C6BE0793EEF4C7C15EBBBA32097954897E2AB330278C1F6C4C6B24C7
311
459E5AFC9A98B4CFBACF34AFE6CD060683A9129CC52883B1935291518D6278460F921955A05E7FA48FEDD5E38CDD2FF580A849C86963C913C18CCC15D202D42A233D5C77FEC04C67C6AA6B17DD76FC8C1F5B295C079CB97631A36B1651350ED19FCD2454290797FA833CE67E92A71CA376BDA97D6F77196C061DB91539677C
311
B27ED515DC3A803252606CC03C84E854C6047E659BFD1EFD27C71B731CA2F1372C75EB4BB7D03A531D8314AD9DB29705CC30CFF6E83D12F56DB7BC71253340E4AC4BD69B24A8B58E349169755130F659936ED60F130C28CEE68B53F032452CCFD7349214642E4D8283456085D559100DAAAEFE7C7C900217D9CCB963A0C0E3
311
4A6499C8EDCB8DBD083BDB275C6BE34794056AEE23EA7136F5668FD53DC05E4D762151744C62F58C05C454B216E241E0C1C8FAB2880E547F68E526260807DCDCAC1DDBD216506A89D2AFAA06164C1C3975903DE62E6972A52F50BC79159854A2304162880FFE05504B0304140006080000684F394000000000000000000000
311
0000350000006662782F36363142323033382D353739302D343646412D413933432D3539303835424344433138362F76657274696365732E62696E504B0304140006080800684F3940F270F1330600000004000000360000006662782F36363142323033382D353739302D343646412D413933432D35393038354243444331
311
38362F747269616E676C65732E62696E636660600000504B0304140006080000684F3940000000000000000000000000370000006662782F36363142323033382D353739302D343646412D413933432D3539303835424344433138362F617474726962757465732E62696E504B0304140006080800684F3940D5987DFC8F00
311
000041010000360000006662782F36363142323033382D353739302D343646412D413933432D3539303835424344433138362F6469726563746F72792E786D6C858F410EC2201045AF4266AF15DDB800BA74E7C21B903225242D6328188F2FA5C4183471359997F9FF81E89FF3C41E1816475E02DF1F80A11FC8386F25A438
311
EECEC07A250251FC3803E6F58C12560C4AD840E95E91C151A72936F496F35732D860FE635F62C8F2DA16B505C545B74125BAA2FA9E05D7CC053D063734D5C7665FD55B6B8D15D5E9BFEAFD8490FFA45E504B0304140006080800684F3940A786186DFB000000A00100003B0000006662782F36363142323033382D35373930
311
2D343646412D413933432D3539303835424344433138362F7265736F75726365732F636F72652E786D6C8D50596E833010BD0A9A7F83315B40C651438ED00B5866925A0936F252F5F835814AED5F7F66466FD13C3D7EFE5A9ED9273AAFAD19A1CC296468949DB5B98F10C38D9C203B0BEEAC0DBF649019B9E0081B0C82DF9D
311
8DEB01296B029A905063673C40E93D06C8D4331D2378F5818BCC650C49E11FF92AD543DE312FF344279DE03EB81420DB9F6C1384436FA353E879B1B382C7A8E743A3E7F453DF343A10B47E6BE89551C22ED796D475D7937E9A18E9AB6EEAAAEAD49D2E152F36B3E0412F3F199543197006C168C9082D096BDE693F34FD50B6
311
84B603A5BCD8E47F4C719DFF698ADA848A1D71779B0751A6202F42F062EB2BAD5799696FDD8A6F504B010214000A0000080000684F39403DEE336E79000000790000001B00000000000000000000000000000000006175746F6465736B2D64657369676E2D7061636B6167652E786D6C504B01021400140006080800684F39
311
40D486FD9CA0000000F40000001300000000000000000000000000B20000005B436F6E74656E745F54797065735D2E786D6C504B01021400140006080800684F3940B42D36F5E80000007C010000080000000000000000000000000083010000636F72652E786D6C504B01021400140006080800684F394055019EA25F0000
311
007C000000070000000000000000000000000091020000636E782E786D6C504B01021400140006080800684F394042155AE264010000020300000C00000000000000000000000000150300006662782F636F72652E786D6C504B01021400140006080800684F3940235A46BB7E0000009D0000000B00000000000000000000
311
000000A30400006662782F636E782E786D6C504B01021400140006080800684F39408CB87F8E2A0100001402000031000000000000000000000000004A0500006662782F36363142323033382D353739302D343646412D413933432D3539303835424344433138362F636F72652E786D6C504B01021400140006080800684F
311
394078D824C24D010000330300003000000000000000000000000000C30600006662782F36363142323033382D353739302D343646412D413933432D3539303835424344433138362F636E782E786D6C504B01021400140006080800684F3940883BB22C9B0500007A10000034000000000000000000000000005E08000066
311
62782F36363142323033382D353739302D343646412D413933432D3539303835424344433138362F6F626A656374732E786D6C504B01021400140006080000684F394000000000000000000000000035000000000000000000000000004B0E00006662782F36363142323033382D353739302D343646412D413933432D3539
311
303835424344433138362F76657274696365732E62696E504B01021400140006080800684F3940F270F133060000000400000036000000000000000000000000009E0E00006662782F36363142323033382D353739302D343646412D413933432D3539303835424344433138362F747269616E676C65732E62696E504B0102
311
1400140006080000684F39400000000000000000000000003700000000000000000000000000F80E00006662782F36363142323033382D353739302D343646412D413933432D3539303835424344433138362F617474726962757465732E62696E504B01021400140006080800684F3940D5987DFC8F000000410100003600
311
0000000000000000000000004D0F00006662782F36363142323033382D353739302D343646412D413933432D3539303835424344433138362F6469726563746F72792E786D6C504B01021400140006080800684F3940A786186DFB000000A00100003B00000000000000000000000000301000006662782F36363142323033
311
382D353739302D343646412D413933432D3539303835424344433138362F7265736F75726365732F636F72652E786D6C504B0506000000000E000E0080040000841100000000
310
504B03040A0000080000684F39403DEE336E79000000790000001B0000006175746F6465736B2D64657369676E2D7061636B6167652E786D6C3C3F786D6C2076657273696F6E3D22312E302220656E636F64696E673D227574662D3822203F3E3C666F726D6174733E3C666F726D61743E687474703A2F2F736368656D612E
310
6175746F6465736B2E636F6D2F64657369676E2D7061636B6167652F323030393C2F666F726D61743E3C2F666F726D6174733E504B0304140006080800684F3940D486FD9CA0000000F4000000130000005B436F6E74656E745F54797065735D2E786D6C7D8EC10E82300C865F65E91D8A1E8C310C0EEA1BF002731658846E
310
D98AC1B77784ABF1D8FE5FBFBF75BBCE937A534CCEB38643598122B6FEE978D0B0485F9C41B54DDD7D022595594E1A469170414C76A4D9A4D207E29CF43ECE46F218070CC6BECC4078ACAA135ACF422C856C0E68EA1BF5669944DDD7BCDE7B1F8E415D77AECB980613C2E4AC91FC167A2B244592486606FC29C8FD7F045B9A
310
EF7053A7E60B504B0304140006080800684F3940E0B43B19EA0000007C01000008000000636F72652E786D6C8D90D18E832010457F85CC3B0AD66A3148534CF60BF60788504B5AC1086CF6F3175B9BECBEEDD34CEEDC3333B9FCFC3D3FD0975983F5AE075A1040C68D5E5B37F590E2159F009D055FBD8FBF6C809C9A4D0F9B
310
0C824FAB4FCB2E8DDE45E362569DD76617550826021A1FB9E9218C3733AB42A5981DE15E2C6ABCABC914F4DD653825ABD1EB88D5799FBD5AB38290AC6E64CB5ADCB4ACC6753D102C3F688DD9E57421C370909594BCDC60C1A39DDFF7C7D5A86834888AD00A138AABE32761DD9175B4C1A4E908E1E566FF03A545FF134AD6C5
310
43B5BFFBC202089A1F790E042FB72C72790695EB969BF801504B0304140006080800684F394055019EA25F0000007C00000007000000636E782E786D6C4DCB3B0E80201045D1AD90E915ED2CF8AC45050C11660C8261F98AB1B07AC9C97D42D718D865D3E909258CFD00CCE24AC6E326A164D74DC0B4128928FF326038472B
310
A13128B1252AC747C6BAB984FC68F0B87FE8960A5C09FE86CFB69FBA01504B0304140006080800684F39409E275B2365010000020300000C0000006662782F636F72652E786D6C8D52ED8E8230107C95A6FF4B0B228A293562724F702F50A17244684969898F7FCB87E1BC1863484A33B3B33B3BC08FF7B64183B27D6D7486
310
C38061A47461CA5A5719F6EE4AF6181D05B7C6B83F651869D9AA0C8F3016BCB2C6770B5418ED9476806A53AA05947DAF1C464503970CF7C58F6A6520BD838AFE1674B2B8C94A05610034D409DE3B0B06D03C643CB1B85EEE9CCEB8E0DED7E5C2D6254CABAFB5B258E4699CE4BB7447925D1A93383E33927F8531494FFB133B
310
9F377994E79C8E62C15DDD3EDC155649A74A2C221646848524DA7EB3F4B04D0F61425872608CD3B1FC49E4BBF24391AFB5DB448BDD59D66311829189F8B72D44E4502F07F04305A76388F09A127E0E1A0281909DBC348F3D6E000DAA70C6C6C094C6AFD4201BAF602A43D3C3E9CC42E7A9016CF6B24FF4A6CFFB1EF001A5AE
310
C09A7470BD78374EE7F3D4258A4E5932B83BD2C6B6B259CDCD16D7731DF4525E98C6D84FD47459952E61D2F1EF15BF504B0304140006080800684F39406125CEC87C0000009D0000000B0000006662782F636E782E786D6C4DCCD10A83201805E05791FFDEE570A5821A5BE07BC4B290990EA7638F9F4517BB3A878FC391FD
310
6FF5E86BD3C7C5A0E07A21806C78C6C9854541C933E6807A2D538CF96F06288CAB55B03368B9A458DE274D761E8BCF55BD0BAF13593B98BB21040BFA60F846B9C08289DA88E9684BA9E143078D96CDF154733FD61B504B0304140006080800684F39404DACBF0D2A01000014020000310000006662782F3735434641463030
310
2D393342372D343338392D393739372D3430463633353333463843362F636F72652E786D6C8D51CB6EC32010FC15C4293D606313633BC2446D247F417F8000495162B07854F9FCE2DA91DA5B2E2C9A9D991DEDB2E363BA836FED83717680558121D0563A65EC7580295E5007C19133EF5CFC4383C08A490F7081216757EFD2
310
BC41D2D9A86DCCA8754A6FA008414708E43D7F0618E4979E442152CC8C702B66216FE2AA8BAAC8EDCCE32C449F038075C8F242DE36A7F17DC418F5E4A3457BD2F5A86FFBFCC323250D216377A2AC5C859CA564D426372AC73117A3FDAB268B98B368A6677CE9B5885A415EE3AA46B84275F389FB43D31F2A8A303D60CCCA85
310
FE4F9466F5A228191B49BDC55D6501F28A956B8333E5D2F9FE0CA31FB3F3112CF37641CB37C87181EB9A36A46D58B952F302B227DD6F9E213A9F17BCBB9D339B6CC674CF59B9DC2897DF03E6BADC93FF00504B0304140006080800684F39401E7FEBD55401000033030000300000006662782F37354346414630302D393342
310
372D343338392D393739372D3430463633353333463843362F636E782E786D6CBD93CD6E022114855F85B09F5F75A286C1A48B3E4117DD3270552A0313609AFAF6BD285A372E9A34DD90C9B987736EBE306CF7351AF2093E68677BDA94352560A553DA1E7A3AC77DB1A664C799772E3ED828B162849E26997276F06E9EB2A4
310
602F66135135DA9EB2E821B8D94B0828A79BC438290C06802D6614611C402950E46EC4AF3D785C05C5E14CE211C8EBCB3B71C307C81858955238AB520767E9CC4D0F264AA41121F434C8238CA21473740AC2A954228AB2296F5D4F76FA4922E9C2AD72F69AA4F29EA693F2BC51891C598543CE42F4482F9BE27902CAC53419
310
2D4544C8D5C578F570366B1BBB65F66A04EFD1BD68BBF51AC32E33CEA21E213BA407114151DED64D5BD44DD1AEDEEACD76B5D9365D5177DBBA6655B273363867F2258C01EF26229D8D6023E50DABD2F819BEEC234A7B64EDFCF9172011406EBDD2B967FC259FA65B2C97FFC8A7BABC6FC4E5F12FE0DF504B03041400060808
310
00684F3940745796F258070000931B0000340000006662782F37354346414630302D393342372D343338392D393739372D3430463633353333463843362F6F626A656374732E786D6CED595B6FA33814FE2B887D0E09B974DA1565D426ED285A756634D919ED4325E48043BD3506D9A697FDF57B7C81000D2DD9E9BECD4302
310
18FBF89CEF5C7D083E3E65D479C05C909C9DBBBE37711DCCE23C212C3D774BB91B9DBACEC730E0792E1BD35C87A10C9FBB6AD80D8394E765618712BC4325959DD1EBCBBF1C1163865D27A648887357C47738431E2A659E6071EF2548222FDD3D79BE6726B6C9A61C15771DA205E29849E014C61950710C537EFB71E28EC360
310
ACDE8781FAB7B3668366CDFB678DB5D46D2E091312B1F8054B1D32B3412CCDFCF9EA6ABA381B2DE6F3D9687E32F54797D797AB91FF6136599E2C9767175767C0DE36CFA99529C1056609E8EFD90DFD60ACDED4A25B040E711DE78CE15803095069B1BA040916B05503BE49FBD15712355E6B091BCF73F5DEB2D0189EB5A9F4
310
CD1A06448B2E0862B7AB24AEAE4DF9F2EDDF20B81862945C6009DC0AC941BB161E0E5EE18693606C46C360BBD705114E8624E6045187922D471C940253D59430300B2C19E51C1C48394A02AD39F3BA6D5BE0996FBBCE212E7725A5CA33DC503B5604EE87A5D09C917F30DF73DF44067802694BC2E4A9E5523E17D80DCF82B1
310
1E0C0375994DED4B03A4B3A328151A11F3B623E852B9FE7AE5867F5C6F9F362A1C1CDEBCE07981B95446A7F4A8F90243B6578592DDD61FA439B5008431A0DA957B50BE01F29F217AEC5901BD71F2347F9ADBB99223267639CF4037CEC4194DE06FE2F8FA5FDD37EE8271BDB8ADBD3E3CC14D1554A73F8F675B068D95E5BF01
310
67183C80C1E77C665F6D6244C19E6F08038094913834872108EDBBED931BAE217042A0875588863E880CEC3EC06D30B664F65AA9DCCB7A1D0344ED1EB3214A02D8B445021B3D7AFA04D9839378AFA6A6887DF02EDEC55C2F569B3F3625DFA118DF589F5EE11D614442D63CCC500BF39644F7F8F931E70908FA12EF4D13EFCC
310
6E25006D85B9023EAD40500FFB9D5B1BC4B02ECD55B809DED8018450B9BA41FF868818538A18CECB6ADF3ABA2943AD3DDED60C6E383510CFA61D13E6F881A8AA029C663FA3C528E4FD98934281E8869F8C6475D0F47AA4FBBEFE0C1659CFEF99B566107A19A27FEAA0750087966557485B206A81B7FB701EE734E7D1F63932
310
91CE855A02D8687BCB8F165188F546498A0A7890F6BB2AA4A446DA2821BB5D2920AE1E60F1C77AD934878937F3174EF3BFE38C7388B6E0BB885BBFEBEC11910CA538DAA1A46FBBE66E356DA149F690E67847412EF240E47384643449707A0C3447113F7B57EA29CD85200C0BC85707C16FA231F12090186D562C2BAD768026
310
22CAB044F4180414991E7075DAD1356E0CA5C3DB3CD6D6FB9AC69A44FF278BE0086AC99C45044A51C8216F32EE7B0B88216D740DCA1D7CC1DA2ADA5A0C5A4209113F478F98A477F218D40DF91EDC6338929432CA0B1483590F20FBC25794523BBC6F517CAFF2471497F4BD0C4460BA8B08A56516C18F3038790C71ED3A30BD
310
8A4283B8897D126750942159F2219B9C2C262FF631354337043636DA110A613BCA50D1837A2B20EA7AC4A9C1B7D47B94BA2DB32242595EB24186E2CDBADE64C977D5AAC80EE457958A503656842DC130204CD659B58AD960EA3AB0821BE940F51C099415D49CC2DE483C7EED4D9A72EF06DCFAE9FB6E9041E1D7A3BD66449D
310
5730581E5B8581784432BE73C38DBE8E2EA1FE4E70B24FF555ADD9AC00013115C94B4EAC8ABEAFA1BCB1359A1BDE20296E3F99AC5B5DBFAF3DE87E04635803B54BBD70AD80CE309348552637EA867E4310825B34CCF85AE5D463A85C2489AE1A11BD267DEA6C9511AD4D33E2157798E519FCD82D61312D137C8B12711FDD48
310
1A6D8862DD4AE965A4C2F85501BF7CDA74E0819101227D55051E7EECACB5A34B552E1D2422EFCA6CCB108120D8122D35BAF10A965A8D545AAEAFEA4C017517189855F1FCD7C9A2D98EF875B248AD61FCDCC982E65B44F7D1A691CD6365D6479D02EAF4A4A8BCC72940771D6AAA751231B9DC8A6F7D2982985805F9C1C55815
310
330CC13E8EFF73D2EE4B8266BB0EFFC7256DFF45C1715452694D564DAA0385EBBA99C22EAEAE96D78BE5D9E874B982FEAC7FB21C5D9E9E5E8E16ABC9D5F5747975B6F87059A3A9FD340CEA58A653173C9B98560DAB278B013465454E490287F9C44931847C0947FA01DD739E6101B9B3D9EB4E6C4F7EC0EA07D3E694684B71
310
C5C91D82FE301590D501A33296ED71E737E84C4A38679FBBD033F2EEE1CF5AA5EB40E23977A15320498C85B7852E93EAE769E2907175EAB7C4001FC4529511CDA2FAB95EA5B06945FF7ACA902C60E56AB530A06E2BA0F9D56A5068DE2C4FF1518257EC3848C2EDB69450AC1959F603B5307A9BBDFA8D6C94B07BBBF513B8EE
310
EB62F99E9ED34264D01783578DC0501D49C453DDEE568C59962E565FC7D06673D65F9C829629E87238A511C760CCA5AAA7C08AC02A2CCD024930D5E5EFB75F790E5F7832471745B7CB3CCB72661F2EE03896C01722677307DF7B925BA81AB0EAAA8BDBE9C49FDEEA6EB66DB0475B24B0A7CA2118A8AA082542C7D8C0225F74
310
A66CDF72AC94D099BE5E39367C4217C058D08BE6AEF9BAE580F7A8EF28CA57B4875772BEDAD01EEBA9600D1C5AD1E1BF504B0304140006080000684F3940000000000000000000000000350000006662782F37354346414630302D393342372D343338392D393739372D3430463633353333463843362F7665727469636573
310
2E62696E504B0304140006080800684F3940F270F1330600000004000000360000006662782F37354346414630302D393342372D343338392D393739372D3430463633353333463843362F747269616E676C65732E62696E636660600000504B0304140006080000684F394000000000000000000000000037000000666278
310
2F37354346414630302D393342372D343338392D393739372D3430463633353333463843362F617474726962757465732E62696E504B0304140006080800684F3940D5987DFC8F00000041010000360000006662782F37354346414630302D393342372D343338392D393739372D3430463633353333463843362F64697265
310
63746F72792E786D6C858F410EC2201045AF4266AF15DDB800BA74E7C21B903225242D6328188F2FA5C4183471359997F9FF81E89FF3C41E1816475E02DF1F80A11FC8386F25A438EECEC07A250251FC3803E6F58C12560C4AD840E95E91C151A72936F496F35732D860FE635F62C8F2DA16B505C545B74125BAA2FA9E05D7
310
CC053D063734D5C7665FD55B6B8D15D5E9BFEAFD8490FFA45E504B0304140006080800684F3940F31F1581FC000000A00100003B0000006662782F37354346414630302D393342372D343338392D393739372D3430463633353333463843362F7265736F75726365732F636F72652E786D6C8D504B6E833010BD0A9ABDC126
310
8404641CC5483D412F6099496A25D8C89FAAC7AF09546A77DDCC8CDE47F3F4F8E56B7E169FE883717600565228D06A37197B1F20C51B39437111DC3B177FC9A0B06AC601561804BF7B97961DD2CE46B431A3D64DB8832A048C50E8673E0608FA036755AA14B3223CCA45E987BA63C9CA4C679DE021FA1CA0D89EAC1384C7E0
310
92D71878B5B182A764A65D63A6FCD3DC0C7A10B26B5A79EA5AD29EBA8634CD48897C630DE9AEE72B1DC783ACA5E4D56A163C9AF927A3F6A8224E206ACA6A4219A98FEFB4EB8F5DCF5A42DB9E525EADF23FA6B44CFF342563E3A1DEE36EB60082E5202F42F06AED2BAF579979AFDD8A6F504B010214000A0000080000684F39
310
403DEE336E79000000790000001B00000000000000000000000000000000006175746F6465736B2D64657369676E2D7061636B6167652E786D6C504B01021400140006080800684F3940D486FD9CA0000000F40000001300000000000000000000000000B20000005B436F6E74656E745F54797065735D2E786D6C504B0102
310
1400140006080800684F3940E0B43B19EA0000007C010000080000000000000000000000000083010000636F72652E786D6C504B01021400140006080800684F394055019EA25F0000007C000000070000000000000000000000000093020000636E782E786D6C504B01021400140006080800684F39409E275B2365010000
310
020300000C00000000000000000000000000170300006662782F636F72652E786D6C504B01021400140006080800684F39406125CEC87C0000009D0000000B00000000000000000000000000A60400006662782F636E782E786D6C504B01021400140006080800684F39404DACBF0D2A010000140200003100000000000000
310
0000000000004B0500006662782F37354346414630302D393342372D343338392D393739372D3430463633353333463843362F636F72652E786D6C504B01021400140006080800684F39401E7FEBD554010000330300003000000000000000000000000000C40600006662782F37354346414630302D393342372D34333839
310
2D393739372D3430463633353333463843362F636E782E786D6C504B01021400140006080800684F3940745796F258070000931B00003400000000000000000000000000660800006662782F37354346414630302D393342372D343338392D393739372D3430463633353333463843362F6F626A656374732E786D6C504B01
310
021400140006080000684F39400000000000000000000000003500000000000000000000000000101000006662782F37354346414630302D393342372D343338392D393739372D3430463633353333463843362F76657274696365732E62696E504B01021400140006080800684F3940F270F1330600000004000000360000
310
0000000000000000000000631000006662782F37354346414630302D393342372D343338392D393739372D3430463633353333463843362F747269616E676C65732E62696E504B01021400140006080000684F39400000000000000000000000003700000000000000000000000000BD1000006662782F3735434641463030
310
2D393342372D343338392D393739372D3430463633353333463843362F617474726962757465732E62696E504B01021400140006080800684F3940D5987DFC8F000000410100003600000000000000000000000000121100006662782F37354346414630302D393342372D343338392D393739372D34304636333533334638
310
43362F6469726563746F72792E786D6C504B01021400140006080800684F3940F31F1581FC000000A00100003B00000000000000000000000000F51100006662782F37354346414630302D393342372D343338392D393739372D3430463633353333463843362F7265736F75726365732F636F72652E786D6C504B05060000
310
00000E000E00800400004A1300000000
  0
XRECORD
  5
27
102
{ACAD_REACTORS
330
22
102
}
330
22
100
AcDbXrecord
280
     1
270
     1
271
     1
  0
XRECORD
  5
26
102
{ACAD_REACTORS
330
22
102
}
330
22
100
AcDbXrecord
280
     1
270
     1
271
     1
  0
XRECORD
  5
28
102
{ACAD_REACTORS
330
22
102
}
330
22
100
AcDbXrecord
280
     1
270
     1
271
     1
  0
XRECORD
  5
25
102
{ACAD_REACTORS
330
22
102
}
330
22
100
AcDbXrecord
280
     1
270
     1
271
     1
  0
XRECORD
  5
8A9
102
{ACAD_REACTORS
330
8A8
102
}
330
8A8
100
AcDbXrecord
280
     1
102
ACAD_ROUNDTRIP_2012_MLEADER_STYLE
298
     1
  0
CELLSTYLEMAP
  5
8A7
102
{ACAD_REACTORS
330
8A6
102
}
330
8A6
100
AcDbCellStyleMap
 90
        3
300
CELLSTYLE
  1
TABLEFORMAT_BEGIN
 90
        5
170
     1
 91
        0
 92
    32768
 62
   257
 93
        1
300
CONTENTFORMAT
  1
CONTENTFORMAT_BEGIN
 90
        0
 91
        0
 92
      512
 93
        0
300

 40
0.0
140
1.0
 94
        5
 62
     0
340
55
144
0.25
309
CONTENTFORMAT_END
171
     0
 94
        0
309
TABLEFORMAT_END
  1
CELLSTYLE_BEGIN
 90
        1
 91
        1
300
_TITLE
309
CELLSTYLE_END
300
CELLSTYLE
  1
TABLEFORMAT_BEGIN
 90
        5
170
     1
 91
        0
 92
        0
 62
   257
 93
        1
300
CONTENTFORMAT
  1
CONTENTFORMAT_BEGIN
 90
        0
 91
        0
 92
      512
 93
        0
300

 40
0.0
140
1.0
 94
        5
 62
     0
340
55
144
0.18
309
CONTENTFORMAT_END
171
     0
 94
        0
309
TABLEFORMAT_END
  1
CELLSTYLE_BEGIN
 90
        2
 91
        1
300
_HEADER
309
CELLSTYLE_END
300
CELLSTYLE
  1
TABLEFORMAT_BEGIN
 90
        5
170
     1
 91
        0
 92
        0
 62
   257
 93
        1
300
CONTENTFORMAT
  1
CONTENTFORMAT_BEGIN
 90
        0
 91
        0
 92
      512
 93
        0
300

 40
0.0
140
1.0
 94
        2
 62
     0
340
55
144
0.18
309
CONTENTFORMAT_END
171
     0
 94
        0
309
TABLEFORMAT_END
  1
CELLSTYLE_BEGIN
 90
        3
 91
        2
300
_DATA
309
CELLSTYLE_END
  0
XRECORD
  5
8DF
102
{ACAD_REACTORS
330
8A6
102
}
330
8A6
100
AcDbXrecord
280
     1
102
ACAD_ROUNDTRIP_PRE2007_TABLESTYLE
 90
      512
 91
        0
  1

 92
      512
 93
        0
  2

 94
      512
 95
        0
  3

  0
XRECORD
  5
8BA
102
{ACAD_REACTORS
330
8B9
102
}
330
8B9
100
AcDbXrecord
280
     1
102
RTVSPropertyOp0
 70
     1
102
RTVSPropertyOp1
 70
     1
102
RTVSPropertyOp2
 70
     1
102
RTVSPropertyOp3
 70
     1
102
RTVSPropertyOp4
 70
     1
102
RTVSPropertyOp5
 70
     1
102
RTVSPropertyOp6
 70
     1
102
RTVSPropertyOp7
 70
     1
102
RTVSPropertyOp8
 70
     1
102
RTVSPropertyOp9
 70
     1
102
RTVSPropertyOp10
 70
     1
102
RTVSPropertyOp11
 70
     1
102
RTVSPropertyOp12
 70
     1
102
RTVSPropertyOp13
 70
     1
102
RTVSPropertyOp14
 70
     1
102
RTVSPropertyOp15
 70
     1
102
RTVSPropertyOp16
 70
     1
102
RTVSPropertyOp17
 70
     1
102
RTVSPropertyOp18
 70
     1
102
RTVSPropertyOp19
 70
     1
102
RTVSPropertyOp20
 70
     1
102
RTVSPropertyOp21
 70
     1
102
RTVSPropertyOp22
 70
     1
102
RTVSPropertyOp23
 70
     1
102
RTVSPropertyOp24
 70
     1
102
RTVSPropertyOp25
 70
     1
102
RTVSPropertyOp26
 70
     1
102
RTVSPropertyOp27
 70
     1
102
RTVSPropertyOp28
 70
     1
102
RTVSPropertyOp29
 70
     1
102
RTVSPropertyOp30
 70
     1
102
RTVSPropertyOp31
 70
     1
102
RTVSPropertyOp32
 70
     1
  0
XRECORD
  5
8B8
102
{ACAD_REACTORS
330
8B7
102
}
330
8B7
100
AcDbXrecord
280
     1
102
RTVSPropertyOp0
 70
     1
102
RTVSPropertyOp1
 70
     1
102
RTVSPropertyOp2
 70
     1
102
RTVSPropertyOp3
 70
     1
102
RTVSPropertyOp4
 70
     1
102
RTVSPropertyOp5
 70
     1
102
RTVSPropertyOp6
 70
     1
102
RTVSPropertyOp7
 70
     1
102
RTVSPropertyOp8
 70
     1
102
RTVSPropertyOp9
 70
     1
102
RTVSPropertyOp10
 70
     1
102
RTVSPropertyOp11
 70
     1
102
RTVSPropertyOp12
 70
     1
102
RTVSPropertyOp13
 70
     1
102
RTVSPropertyOp14
 70
     1
102
RTVSPropertyOp15
 70
     1
102
RTVSPropertyOp16
 70
     1
102
RTVSPropertyOp17
 70
     1
102
RTVSPropertyOp18
 70
     1
102
RTVSPropertyOp19
 70
     1
102
RTVSPropertyOp20
 70
     1
102
RTVSPropertyOp21
 70
     1
102
RTVSPropertyOp22
 70
     1
102
RTVSPropertyOp23
 70
     1
102
RTVSPropertyOp24
 70
     1
102
RTVSPropertyOp25
 70
     1
102
RTVSPropertyOp26
 70
     1
102
RTVSPropertyOp27
 70
     1
102
RTVSPropertyOp28
 70
     1
102
RTVSPropertyOp29
 70
     1
102
RTVSPropertyOp30
 70
     1
102
RTVSPropertyOp31
 70
     1
102
RTVSPropertyOp32
 70
     1
  0
XRECORD
  5
8C6
102
{ACAD_REACTORS
330
8C5
102
}
330
8C5
100
AcDbXrecord
280
     1
102
RTVSPropertyOp0
 70
     1
102
RTVSPropertyOp1
 70
     1
102
RTVSPropertyOp2
 70
     1
102
RTVSPropertyOp3
 70
     1
102
RTVSPropertyOp4
 70
     1
102
RTVSPropertyOp5
 70
     1
102
RTVSPropertyOp6
 70
     1
102
RTVSPropertyOp7
 70
     1
102
RTVSPropertyOp8
 70
     1
102
RTVSPropertyOp9
 70
     1
102
RTVSPropertyOp10
 70
     1
102
RTVSPropertyOp11
 70
     1
102
RTVSPropertyOp12
 70
     1
102
RTVSPropertyOp13
 70
     1
102
RTVSPropertyOp14
 70
     1
102
RTVSPropertyOp15
 70
     1
102
RTVSPropertyOp16
 70
     1
102
RTVSPropertyOp17
 70
     1
102
RTVSPropertyOp18
 70
     1
102
RTVSPropertyOp19
 70
     1
102
RTVSPropertyOp20
 70
     1
102
RTVSPropertyOp21
 70
     1
102
RTVSPropertyOp22
 70
     1
102
RTVSPropertyOp23
 70
     1
102
RTVSPropertyOp24
 70
     1
102
RTVSPropertyOp25
 70
     1
102
RTVSPropertyOp26
 70
     1
102
RTVSPropertyOp27
 70
     1
102
RTVSPropertyOp28
 70
     1
102
RTVSPropertyOp29
 70
     1
102
RTVSPropertyOp30
 70
     1
102
RTVSPropertyOp31
 70
     1
102
RTVSPropertyOp32
 70
     1
  0
XRECORD
  5
8CE
102
{ACAD_REACTORS
330
8CD
102
}
330
8CD
100
AcDbXrecord
280
     1
102
RTVSPropertyOp0
 70
     1
102
RTVSPropertyOp1
 70
     1
102
RTVSPropertyOp2
 70
     1
102
RTVSPropertyOp3
 70
     1
102
RTVSPropertyOp4
 70
     1
102
RTVSPropertyOp5
 70
     1
102
RTVSPropertyOp6
 70
     1
102
RTVSPropertyOp7
 70
     1
102
RTVSPropertyOp8
 70
     1
102
RTVSPropertyOp9
 70
     1
102
RTVSPropertyOp10
 70
     1
102
RTVSPropertyOp11
 70
     1
102
RTVSPropertyOp12
 70
     1
102
RTVSPropertyOp13
 70
     1
102
RTVSPropertyOp14
 70
     1
102
RTVSPropertyOp15
 70
     1
102
RTVSPropertyOp16
 70
     1
102
RTVSPropertyOp17
 70
     1
102
RTVSPropertyOp18
 70
     1
102
RTVSPropertyOp19
 70
     1
102
RTVSPropertyOp20
 70
     1
102
RTVSPropertyOp21
 70
     1
102
RTVSPropertyOp22
 70
     1
102
RTVSPropertyOp23
 70
     1
102
RTVSPropertyOp24
 70
     1
102
RTVSPropertyOp25
 70
     1
102
RTVSPropertyOp26
 70
     1
102
RTVSPropertyOp27
 70
     1
102
RTVSPropertyOp28
 70
     1
102
RTVSPropertyOp29
 70
     1
102
RTVSPropertyOp30
 70
     1
102
RTVSPropertyOp31
 70
     1
102
RTVSPropertyOp32
 70
     1
  0
XRECORD
  5
8C0
102
{ACAD_REACTORS
330
8BF
102
}
330
8BF
100
AcDbXrecord
280
     1
102
RTVSPropertyOp0
 70
     1
102
RTVSPropertyOp1
 70
     1
102
RTVSPropertyOp2
 70
     1
102
RTVSPropertyOp3
 70
     1
102
RTVSPropertyOp4
 70
     1
102
RTVSPropertyOp5
 70
     1
102
RTVSPropertyOp6
 70
     1
102
RTVSPropertyOp7
 70
     1
102
RTVSPropertyOp8
 70
     1
102
RTVSPropertyOp9
 70
     1
102
RTVSPropertyOp10
 70
     1
102
RTVSPropertyOp11
 70
     1
102
RTVSPropertyOp12
 70
     1
102
RTVSPropertyOp13
 70
     1
102
RTVSPropertyOp14
 70
     1
102
RTVSPropertyOp15
 70
     1
102
RTVSPropertyOp16
 70
     1
102
RTVSPropertyOp17
 70
     1
102
RTVSPropertyOp18
 70
     1
102
RTVSPropertyOp19
 70
     1
102
RTVSPropertyOp20
 70
     1
102
RTVSPropertyOp21
 70
     1
102
RTVSPropertyOp22
 70
     1
102
RTVSPropertyOp23
 70
     1
102
RTVSPropertyOp24
 70
     1
102
RTVSPropertyOp25
 70
     1
102
RTVSPropertyOp26
 70
     1
102
RTVSPropertyOp27
 70
     1
102
RTVSPropertyOp28
 70
     1
102
RTVSPropertyOp29
 70
     1
102
RTVSPropertyOp30
 70
     1
102
RTVSPropertyOp31
 70
     1
102
RTVSPropertyOp32
 70
     1
  0
XRECORD
  5
8C4
102
{ACAD_REACTORS
330
8C3
102
}
330
8C3
100
AcDbXrecord
280
     1
102
RTVSPropertyOp0
 70
     1
102
RTVSPropertyOp1
 70
     1
102
RTVSPropertyOp2
 70
     1
102
RTVSPropertyOp3
 70
     1
102
RTVSPropertyOp4
 70
     1
102
RTVSPropertyOp5
 70
     1
102
RTVSPropertyOp6
 70
     1
102
RTVSPropertyOp7
 70
     1
102
RTVSPropertyOp8
 70
     1
102
RTVSPropertyOp9
 70
     1
102
RTVSPropertyOp10
 70
     1
102
RTVSPropertyOp11
 70
     1
102
RTVSPropertyOp12
 70
     1
102
RTVSPropertyOp13
 70
     1
102
RTVSPropertyOp14
 70
     1
102
RTVSPropertyOp15
 70
     1
102
RTVSPropertyOp16
 70
     1
102
RTVSPropertyOp17
 70
     1
102
RTVSPropertyOp18
 70
     1
102
RTVSPropertyOp19
 70
     1
102
RTVSPropertyOp20
 70
     1
102
RTVSPropertyOp21
 70
     1
102
RTVSPropertyOp22
 70
     1
102
RTVSPropertyOp23
 70
     1
102
RTVSPropertyOp24
 70
     1
102
RTVSPropertyOp25
 70
     1
102
RTVSPropertyOp26
 70
     1
102
RTVSPropertyOp27
 70
     1
102
RTVSPropertyOp28
 70
     1
102
RTVSPropertyOp29
 70
     1
102
RTVSPropertyOp30
 70
     1
102
RTVSPropertyOp31
 70
     1
102
RTVSPropertyOp32
 70
     1
  0
XRECORD
  5
8DE
102
{ACAD_REACTORS
330
8DD
102
}
330
8DD
100
AcDbXrecord
280
     1
102
RTVSPropertyOp0
 70
     0
102
RTVSPropertyOp1
 70
     0
102
RTVSPropertyOp2
 70
     0
102
RTVSPropertyOp3
 70
     0
102
RTVSPropertyOp4
 70
     0
102
RTVSPropertyOp5
 70
     0
102
RTVSPropertyOp6
 70
     0
102
RTVSPropertyOp7
 70
     0
102
RTVSPropertyOp8
 70
     0
102
RTVSPropertyOp9
 70
     0
102
RTVSPropertyOp10
 70
     0
102
RTVSPropertyOp11
 70
     0
102
RTVSPropertyOp12
 70
     0
102
RTVSPropertyOp13
 70
     0
102
RTVSPropertyOp14
 70
     2
102
RTVSPropertyOp15
 70
     0
102
RTVSPropertyOp16
 70
     0
102
RTVSPropertyOp17
 70
     0
102
RTVSPropertyOp18
 70
     0
102
RTVSPropertyOp19
 70
     0
102
RTVSPropertyOp20
 70
     0
102
RTVSPropertyOp21
 70
     0
102
RTVSPropertyOp22
 70
     0
102
RTVSPropertyOp23
 70
     0
102
RTVSPropertyOp24
 70
     0
102
RTVSPropertyOp25
 70
     0
102
RTVSPropertyOp26
 70
     0
102
RTVSPropertyOp27
 70
     0
102
RTVSPropertyOp28
 70
     1
102
RTVSPropertyOp29
 70
     1
102
RTVSPropertyOp30
 70
     1
102
RTVSPropertyOp31
 70
     1
102
RTVSPropertyOp32
 70
     1
  0
XRECORD
  5
8CC
102
{ACAD_REACTORS
330
8CB
102
}
330
8CB
100
AcDbXrecord
280
     1
102
RTVSPropertyOp0
 70
     1
102
RTVSPropertyOp1
 70
     1
102
RTVSPropertyOp2
 70
     1
102
RTVSPropertyOp3
 70
     1
102
RTVSPropertyOp4
 70
     1
102
RTVSPropertyOp5
 70
     1
102
RTVSPropertyOp6
 70
     1
102
RTVSPropertyOp7
 70
     1
102
RTVSPropertyOp8
 70
     1
102
RTVSPropertyOp9
 70
     1
102
RTVSPropertyOp10
 70
     1
102
RTVSPropertyOp11
 70
     1
102
RTVSPropertyOp12
 70
     1
102
RTVSPropertyOp13
 70
     1
102
RTVSPropertyOp14
 70
     1
102
RTVSPropertyOp15
 70
     1
102
RTVSPropertyOp16
 70
     1
102
RTVSPropertyOp17
 70
     1
102
RTVSPropertyOp18
 70
     1
102
RTVSPropertyOp19
 70
     1
102
RTVSPropertyOp20
 70
     1
102
RTVSPropertyOp21
 70
     1
102
RTVSPropertyOp22
 70
     1
102
RTVSPropertyOp23
 70
     1
102
RTVSPropertyOp24
 70
     1
102
RTVSPropertyOp25
 70
     1
102
RTVSPropertyOp26
 70
     1
102
RTVSPropertyOp27
 70
     1
102
RTVSPropertyOp28
 70
     1
102
RTVSPropertyOp29
 70
     1
102
RTVSPropertyOp30
 70
     1
102
RTVSPropertyOp31
 70
     1
102
RTVSPropertyOp32
 70
     1
  0
XRECORD
  5
8B0
102
{ACAD_REACTORS
330
8AF
102
}
330
8AF
100
AcDbXrecord
280
     1
102
RTVSPropertyOp0
 70
     1
102
RTVSPropertyOp1
 70
     1
102
RTVSPropertyOp2
 70
     1
102
RTVSPropertyOp3
 70
     1
102
RTVSPropertyOp4
 70
     1
102
RTVSPropertyOp5
 70
     1
102
RTVSPropertyOp6
 70
     1
102
RTVSPropertyOp7
 70
     1
102
RTVSPropertyOp8
 70
     1
102
RTVSPropertyOp9
 70
     1
102
RTVSPropertyOp10
 70
     1
102
RTVSPropertyOp11
 70
     1
102
RTVSPropertyOp12
 70
     1
102
RTVSPropertyOp13
 70
     1
102
RTVSPropertyOp14
 70
     1
102
RTVSPropertyOp15
 70
     1
102
RTVSPropertyOp16
 70
     1
102
RTVSPropertyOp17
 70
     1
102
RTVSPropertyOp18
 70
     1
102
RTVSPropertyOp19
 70
     1
102
RTVSPropertyOp20
 70
     1
102
RTVSPropertyOp21
 70
     1
102
RTVSPropertyOp22
 70
     1
102
RTVSPropertyOp23
 70
     1
102
RTVSPropertyOp24
 70
     1
102
RTVSPropertyOp25
 70
     1
102
RTVSPropertyOp26
 70
     1
102
RTVSPropertyOp27
 70
     1
102
RTVSPropertyOp28
 70
     1
102
RTVSPropertyOp29
 70
     1
102
RTVSPropertyOp30
 70
     1
102
RTVSPropertyOp31
 70
     1
102
RTVSPropertyOp32
 70
     1
  0
XRECORD
  5
8B2
102
{ACAD_REACTORS
330
8B1
102
}
330
8B1
100
AcDbXrecord
280
     1
102
RTVSPropertyOp0
 70
     1
102
RTVSPropertyOp1
 70
     1
102
RTVSPropertyOp2
 70
     1
102
RTVSPropertyOp3
 70
     1
102
RTVSPropertyOp4
 70
     1
102
RTVSPropertyOp5
 70
     1
102
RTVSPropertyOp6
 70
     1
102
RTVSPropertyOp7
 70
     1
102
RTVSPropertyOp8
 70
     1
102
RTVSPropertyOp9
 70
     1
102
RTVSPropertyOp10
 70
     1
102
RTVSPropertyOp11
 70
     1
102
RTVSPropertyOp12
 70
     1
102
RTVSPropertyOp13
 70
     1
102
RTVSPropertyOp14
 70
     1
102
RTVSPropertyOp15
 70
     1
102
RTVSPropertyOp16
 70
     1
102
RTVSPropertyOp17
 70
     1
102
RTVSPropertyOp18
 70
     1
102
RTVSPropertyOp19
 70
     1
102
RTVSPropertyOp20
 70
     1
102
RTVSPropertyOp21
 70
     1
102
RTVSPropertyOp22
 70
     1
102
RTVSPropertyOp23
 70
     1
102
RTVSPropertyOp24
 70
     1
102
RTVSPropertyOp25
 70
     1
102
RTVSPropertyOp26
 70
     1
102
RTVSPropertyOp27
 70
     1
102
RTVSPropertyOp28
 70
     1
102
RTVSPropertyOp29
 70
     1
102
RTVSPropertyOp30
 70
     1
102
RTVSPropertyOp31
 70
     1
102
RTVSPropertyOp32
 70
     1
  0
XRECORD
  5
8B4
102
{ACAD_REACTORS
330
8B3
102
}
330
8B3
100
AcDbXrecord
280
     1
102
RTVSPropertyOp0
 70
     1
102
RTVSPropertyOp1
 70
     1
102
RTVSPropertyOp2
 70
     1
102
RTVSPropertyOp3
 70
     1
102
RTVSPropertyOp4
 70
     1
102
RTVSPropertyOp5
 70
     1
102
RTVSPropertyOp6
 70
     1
102
RTVSPropertyOp7
 70
     1
102
RTVSPropertyOp8
 70
     1
102
RTVSPropertyOp9
 70
     1
102
RTVSPropertyOp10
 70
     1
102
RTVSPropertyOp11
 70
     1
102
RTVSPropertyOp12
 70
     1
102
RTVSPropertyOp13
 70
     1
102
RTVSPropertyOp14
 70
     1
102
RTVSPropertyOp15
 70
     1
102
RTVSPropertyOp16
 70
     1
102
RTVSPropertyOp17
 70
     1
102
RTVSPropertyOp18
 70
     1
102
RTVSPropertyOp19
 70
     1
102
RTVSPropertyOp20
 70
     1
102
RTVSPropertyOp21
 70
     1
102
RTVSPropertyOp22
 70
     1
102
RTVSPropertyOp23
 70
     1
102
RTVSPropertyOp24
 70
     1
102
RTVSPropertyOp25
 70
     1
102
RTVSPropertyOp26
 70
     1
102
RTVSPropertyOp27
 70
     1
102
RTVSPropertyOp28
 70
     1
102
RTVSPropertyOp29
 70
     1
102
RTVSPropertyOp30
 70
     1
102
RTVSPropertyOp31
 70
     1
102
RTVSPropertyOp32
 70
     1
  0
XRECORD
  5
8B6
102
{ACAD_REACTORS
330
8B5
102
}
330
8B5
100
AcDbXrecord
280
     1
102
RTVSPropertyOp0
 70
     1
102
RTVSPropertyOp1
 70
     1
102
RTVSPropertyOp2
 70
     1
102
RTVSPropertyOp3
 70
     1
102
RTVSPropertyOp4
 70
     1
102
RTVSPropertyOp5
 70
     1
102
RTVSPropertyOp6
 70
     1
102
RTVSPropertyOp7
 70
     1
102
RTVSPropertyOp8
 70
     1
102
RTVSPropertyOp9
 70
     1
102
RTVSPropertyOp10
 70
     1
102
RTVSPropertyOp11
 70
     1
102
RTVSPropertyOp12
 70
     1
102
RTVSPropertyOp13
 70
     1
102
RTVSPropertyOp14
 70
     1
102
RTVSPropertyOp15
 70
     1
102
RTVSPropertyOp16
 70
     1
102
RTVSPropertyOp17
 70
     1
102
RTVSPropertyOp18
 70
     1
102
RTVSPropertyOp19
 70
     1
102
RTVSPropertyOp20
 70
     1
102
RTVSPropertyOp21
 70
     1
102
RTVSPropertyOp22
 70
     1
102
RTVSPropertyOp23
 70
     1
102
RTVSPropertyOp24
 70
     1
102
RTVSPropertyOp25
 70
     1
102
RTVSPropertyOp26
 70
     1
102
RTVSPropertyOp27
 70
     1
102
RTVSPropertyOp28
 70
     1
102
RTVSPropertyOp29
 70
     1
102
RTVSPropertyOp30
 70
     1
102
RTVSPropertyOp31
 70
     1
102
RTVSPropertyOp32
 70
     1
  0
XRECORD
  5
8BE
102
{ACAD_REACTORS
330
8BD
102
}
330
8BD
100
AcDbXrecord
280
     1
102
RTVSPropertyOp0
 70
     1
102
RTVSPropertyOp1
 70
     1
102
RTVSPropertyOp2
 70
     1
102
RTVSPropertyOp3
 70
     1
102
RTVSPropertyOp4
 70
     1
102
RTVSPropertyOp5
 70
     1
102
RTVSPropertyOp6
 70
     1
102
RTVSPropertyOp7
 70
     1
102
RTVSPropertyOp8
 70
     1
102
RTVSPropertyOp9
 70
     1
102
RTVSPropertyOp10
 70
     1
102
RTVSPropertyOp11
 70
     1
102
RTVSPropertyOp12
 70
     1
102
RTVSPropertyOp13
 70
     1
102
RTVSPropertyOp14
 70
     1
102
RTVSPropertyOp15
 70
     1
102
RTVSPropertyOp16
 70
     1
102
RTVSPropertyOp17
 70
     1
102
RTVSPropertyOp18
 70
     1
102
RTVSPropertyOp19
 70
     1
102
RTVSPropertyOp20
 70
     1
102
RTVSPropertyOp21
 70
     1
102
RTVSPropertyOp22
 70
     1
102
RTVSPropertyOp23
 70
     1
102
RTVSPropertyOp24
 70
     1
102
RTVSPropertyOp25
 70
     1
102
RTVSPropertyOp26
 70
     1
102
RTVSPropertyOp27
 70
     1
102
RTVSPropertyOp28
 70
     1
102
RTVSPropertyOp29
 70
     1
102
RTVSPropertyOp30
 70
     1
102
RTVSPropertyOp31
 70
     1
102
RTVSPropertyOp32
 70
     1
  0
XRECORD
  5
8DA
102
{ACAD_REACTORS
330
8D9
102
}
330
8D9
100
AcDbXrecord
280
     1
102
RTVSPropertyOp0
 70
     0
102
RTVSPropertyOp1
 70
     0
102
RTVSPropertyOp2
 70
     0
102
RTVSPropertyOp3
 70
     0
102
RTVSPropertyOp4
 70
     0
102
RTVSPropertyOp5
 70
     0
102
RTVSPropertyOp6
 70
     0
102
RTVSPropertyOp7
 70
     0
102
RTVSPropertyOp8
 70
     0
102
RTVSPropertyOp9
 70
     0
102
RTVSPropertyOp10
 70
     0
102
RTVSPropertyOp11
 70
     0
102
RTVSPropertyOp12
 70
     0
102
RTVSPropertyOp13
 70
     0
102
RTVSPropertyOp14
 70
     2
102
RTVSPropertyOp15
 70
     0
102
RTVSPropertyOp16
 70
     0
102
RTVSPropertyOp17
 70
     0
102
RTVSPropertyOp18
 70
     0
102
RTVSPropertyOp19
 70
     0
102
RTVSPropertyOp20
 70
     0
102
RTVSPropertyOp21
 70
     0
102
RTVSPropertyOp22
 70
     0
102
RTVSPropertyOp23
 70
     0
102
RTVSPropertyOp24
 70
     0
102
RTVSPropertyOp25
 70
     0
102
RTVSPropertyOp26
 70
     0
102
RTVSPropertyOp27
 70
     0
102
RTVSPropertyOp28
 70
     1
102
RTVSPropertyOp29
 70
     1
102
RTVSPropertyOp30
 70
     1
102
RTVSPropertyOp31
 70
     1
102
RTVSPropertyOp32
 70
     1
  0
XRECORD
  5
8CA
102
{ACAD_REACTORS
330
8C9
102
}
330
8C9
100
AcDbXrecord
280
     1
102
RTVSPropertyOp0
 70
     1
102
RTVSPropertyOp1
 70
     1
102
RTVSPropertyOp2
 70
     1
102
RTVSPropertyOp3
 70
     1
102
RTVSPropertyOp4
 70
     1
102
RTVSPropertyOp5
 70
     1
102
RTVSPropertyOp6
 70
     1
102
RTVSPropertyOp7
 70
     1
102
RTVSPropertyOp8
 70
     1
102
RTVSPropertyOp9
 70
     1
102
RTVSPropertyOp10
 70
     1
102
RTVSPropertyOp11
 70
     1
102
RTVSPropertyOp12
 70
     1
102
RTVSPropertyOp13
 70
     1
102
RTVSPropertyOp14
 70
     1
102
RTVSPropertyOp15
 70
     1
102
RTVSPropertyOp16
 70
     1
102
RTVSPropertyOp17
 70
     1
102
RTVSPropertyOp18
 70
     1
102
RTVSPropertyOp19
 70
     1
102
RTVSPropertyOp20
 70
     1
102
RTVSPropertyOp21
 70
     1
102
RTVSPropertyOp22
 70
     1
102
RTVSPropertyOp23
 70
     1
102
RTVSPropertyOp24
 70
     1
102
RTVSPropertyOp25
 70
     1
102
RTVSPropertyOp26
 70
     1
102
RTVSPropertyOp27
 70
     1
102
RTVSPropertyOp28
 70
     1
102
RTVSPropertyOp29
 70
     1
102
RTVSPropertyOp30
 70
     1
102
RTVSPropertyOp31
 70
     1
102
RTVSPropertyOp32
 70
     1
  0
XRECORD
  5
8DC
102
{ACAD_REACTORS
330
8DB
102
}
330
8DB
100
AcDbXrecord
280
     1
102
RTVSPropertyOp0
 70
     0
102
RTVSPropertyOp1
 70
     0
102
RTVSPropertyOp2
 70
     0
102
RTVSPropertyOp3
 70
     0
102
RTVSPropertyOp4
 70
     0
102
RTVSPropertyOp5
 70
     0
102
RTVSPropertyOp6
 70
     0
102
RTVSPropertyOp7
 70
     0
102
RTVSPropertyOp8
 70
     0
102
RTVSPropertyOp9
 70
     0
102
RTVSPropertyOp10
 70
     0
102
RTVSPropertyOp11
 70
     0
102
RTVSPropertyOp12
 70
     0
102
RTVSPropertyOp13
 70
     0
102
RTVSPropertyOp14
 70
     2
102
RTVSPropertyOp15
 70
     0
102
RTVSPropertyOp16
 70
     0
102
RTVSPropertyOp17
 70
     0
102
RTVSPropertyOp18
 70
     0
102
RTVSPropertyOp19
 70
     0
102
RTVSPropertyOp20
 70
     0
102
RTVSPropertyOp21
 70
     0
102
RTVSPropertyOp22
 70
     0
102
RTVSPropertyOp23
 70
     0
102
RTVSPropertyOp24
 70
     0
102
RTVSPropertyOp25
 70
     0
102
RTVSPropertyOp26
 70
     0
102
RTVSPropertyOp27
 70
     0
102
RTVSPropertyOp28
 70
     1
102
RTVSPropertyOp29
 70
     1
102
RTVSPropertyOp30
 70
     1
102
RTVSPropertyOp31
 70
     1
102
RTVSPropertyOp32
 70
     1
  0
XRECORD
  5
8C2
102
{ACAD_REACTORS
330
8C1
102
}
330
8C1
100
AcDbXrecord
280
     1
102
RTVSPropertyOp0
 70
     1
102
RTVSPropertyOp1
 70
     1
102
RTVSPropertyOp2
 70
     1
102
RTVSPropertyOp3
 70
     1
102
RTVSPropertyOp4
 70
     1
102
RTVSPropertyOp5
 70
     1
102
RTVSPropertyOp6
 70
     1
102
RTVSPropertyOp7
 70
     1
102
RTVSPropertyOp8
 70
     1
102
RTVSPropertyOp9
 70
     1
102
RTVSPropertyOp10
 70
     1
102
RTVSPropertyOp11
 70
     1
102
RTVSPropertyOp12
 70
     1
102
RTVSPropertyOp13
 70
     1
102
RTVSPropertyOp14
 70
     1
102
RTVSPropertyOp15
 70
     1
102
RTVSPropertyOp16
 70
     1
102
RTVSPropertyOp17
 70
     1
102
RTVSPropertyOp18
 70
     1
102
RTVSPropertyOp19
 70
     1
102
RTVSPropertyOp20
 70
     1
102
RTVSPropertyOp21
 70
     1
102
RTVSPropertyOp22
 70
     1
102
RTVSPropertyOp23
 70
     1
102
RTVSPropertyOp24
 70
     1
102
RTVSPropertyOp25
 70
     1
102
RTVSPropertyOp26
 70
     1
102
RTVSPropertyOp27
 70
     1
102
RTVSPropertyOp28
 70
     1
102
RTVSPropertyOp29
 70
     1
102
RTVSPropertyOp30
 70
     1
102
RTVSPropertyOp31
 70
     1
102
RTVSPropertyOp32
 70
     1
  0
XRECORD
  5
8D8
102
{ACAD_REACTORS
330
8D7
102
}
330
8D7
100
AcDbXrecord
280
     1
102
RTVSPropertyOp0
 70
     1
102
RTVSPropertyOp1
 70
     1
102
RTVSPropertyOp2
 70
     1
102
RTVSPropertyOp3
 70
     1
102
RTVSPropertyOp4
 70
     1
102
RTVSPropertyOp5
 70
     1
102
RTVSPropertyOp6
 70
     1
102
RTVSPropertyOp7
 70
     1
102
RTVSPropertyOp8
 70
     1
102
RTVSPropertyOp9
 70
     1
102
RTVSPropertyOp10
 70
     1
102
RTVSPropertyOp11
 70
     1
102
RTVSPropertyOp12
 70
     1
102
RTVSPropertyOp13
 70
     1
102
RTVSPropertyOp14
 70
     1
102
RTVSPropertyOp15
 70
     1
102
RTVSPropertyOp16
 70
     1
102
RTVSPropertyOp17
 70
     1
102
RTVSPropertyOp18
 70
     1
102
RTVSPropertyOp19
 70
     1
102
RTVSPropertyOp20
 70
     1
102
RTVSPropertyOp21
 70
     1
102
RTVSPropertyOp22
 70
     1
102
RTVSPropertyOp23
 70
     1
102
RTVSPropertyOp24
 70
     1
102
RTVSPropertyOp25
 70
     1
102
RTVSPropertyOp26
 70
     1
102
RTVSPropertyOp27
 70
     1
102
RTVSPropertyOp28
 70
     1
102
RTVSPropertyOp29
 70
     1
102
RTVSPropertyOp30
 70
     1
102
RTVSPropertyOp31
 70
     1
102
RTVSPropertyOp32
 70
     1
  0
XRECORD
  5
8D6
102
{ACAD_REACTORS
330
8D5
102
}
330
8D5
100
AcDbXrecord
280
     1
102
RTVSPropertyOp0
 70
     1
102
RTVSPropertyOp1
 70
     1
102
RTVSPropertyOp2
 70
     1
102
RTVSPropertyOp3
 70
     1
102
RTVSPropertyOp4
 70
     1
102
RTVSPropertyOp5
 70
     1
102
RTVSPropertyOp6
 70
     1
102
RTVSPropertyOp7
 70
     1
102
RTVSPropertyOp8
 70
     1
102
RTVSPropertyOp9
 70
     1
102
RTVSPropertyOp10
 70
     1
102
RTVSPropertyOp11
 70
     1
102
RTVSPropertyOp12
 70
     1
102
RTVSPropertyOp13
 70
     1
102
RTVSPropertyOp14
 70
     1
102
RTVSPropertyOp15
 70
     1
102
RTVSPropertyOp16
 70
     1
102
RTVSPropertyOp17
 70
     1
102
RTVSPropertyOp18
 70
     1
102
RTVSPropertyOp19
 70
     1
102
RTVSPropertyOp20
 70
     1
102
RTVSPropertyOp21
 70
     1
102
RTVSPropertyOp22
 70
     1
102
RTVSPropertyOp23
 70
     1
102
RTVSPropertyOp24
 70
     1
102
RTVSPropertyOp25
 70
     1
102
RTVSPropertyOp26
 70
     1
102
RTVSPropertyOp27
 70
     1
102
RTVSPropertyOp28
 70
     1
102
RTVSPropertyOp29
 70
     1
102
RTVSPropertyOp30
 70
     1
102
RTVSPropertyOp31
 70
     1
102
RTVSPropertyOp32
 70
     1
  0
XRECORD
  5
8D0
102
{ACAD_REACTORS
330
8CF
102
}
330
8CF
100
AcDbXrecord
280
     1
102
RTVSPropertyOp0
 70
     1
102
RTVSPropertyOp1
 70
     1
102
RTVSPropertyOp2
 70
     1
102
RTVSPropertyOp3
 70
     1
102
RTVSPropertyOp4
 70
     1
102
RTVSPropertyOp5
 70
     1
102
RTVSPropertyOp6
 70
     1
102
RTVSPropertyOp7
 70
     1
102
RTVSPropertyOp8
 70
     1
102
RTVSPropertyOp9
 70
     1
102
RTVSPropertyOp10
 70
     1
102
RTVSPropertyOp11
 70
     1
102
RTVSPropertyOp12
 70
     1
102
RTVSPropertyOp13
 70
     1
102
RTVSPropertyOp14
 70
     1
102
RTVSPropertyOp15
 70
     1
102
RTVSPropertyOp16
 70
     1
102
RTVSPropertyOp17
 70
     1
102
RTVSPropertyOp18
 70
     1
102
RTVSPropertyOp19
 70
     1
102
RTVSPropertyOp20
 70
     1
102
RTVSPropertyOp21
 70
     1
102
RTVSPropertyOp22
 70
     1
102
RTVSPropertyOp23
 70
     1
102
RTVSPropertyOp24
 70
     1
102
RTVSPropertyOp25
 70
     1
102
RTVSPropertyOp26
 70
     1
102
RTVSPropertyOp27
 70
     1
102
RTVSPropertyOp28
 70
     1
102
RTVSPropertyOp29
 70
     1
102
RTVSPropertyOp30
 70
     1
102
RTVSPropertyOp31
 70
     1
102
RTVSPropertyOp32
 70
     1
  0
XRECORD
  5
8D2
102
{ACAD_REACTORS
330
8D1
102
}
330
8D1
100
AcDbXrecord
280
     1
102
RTVSPropertyOp0
 70
     1
102
RTVSPropertyOp1
 70
     1
102
RTVSPropertyOp2
 70
     1
102
RTVSPropertyOp3
 70
     1
102
RTVSPropertyOp4
 70
     1
102
RTVSPropertyOp5
 70
     1
102
RTVSPropertyOp6
 70
     1
102
RTVSPropertyOp7
 70
     1
102
RTVSPropertyOp8
 70
     1
102
RTVSPropertyOp9
 70
     1
102
RTVSPropertyOp10
 70
     1
102
RTVSPropertyOp11
 70
     1
102
RTVSPropertyOp12
 70
     1
102
RTVSPropertyOp13
 70
     1
102
RTVSPropertyOp14
 70
     1
102
RTVSPropertyOp15
 70
     1
102
RTVSPropertyOp16
 70
     1
102
RTVSPropertyOp17
 70
     1
102
RTVSPropertyOp18
 70
     1
102
RTVSPropertyOp19
 70
     1
102
RTVSPropertyOp20
 70
     1
102
RTVSPropertyOp21
 70
     1
102
RTVSPropertyOp22
 70
     1
102
RTVSPropertyOp23
 70
     1
102
RTVSPropertyOp24
 70
     1
102
RTVSPropertyOp25
 70
     1
102
RTVSPropertyOp26
 70
     1
102
RTVSPropertyOp27
 70
     1
102
RTVSPropertyOp28
 70
     1
102
RTVSPropertyOp29
 70
     1
102
RTVSPropertyOp30
 70
     1
102
RTVSPropertyOp31
 70
     1
102
RTVSPropertyOp32
 70
     1
  0
XRECORD
  5
8C8
102
{ACAD_REACTORS
330
8C7
102
}
330
8C7
100
AcDbXrecord
280
     1
102
RTVSPropertyOp0
 70
     1
102
RTVSPropertyOp1
 70
     1
102
RTVSPropertyOp2
 70
     1
102
RTVSPropertyOp3
 70
     1
102
RTVSPropertyOp4
 70
     1
102
RTVSPropertyOp5
 70
     1
102
RTVSPropertyOp6
 70
     1
102
RTVSPropertyOp7
 70
     1
102
RTVSPropertyOp8
 70
     1
102
RTVSPropertyOp9
 70
     1
102
RTVSPropertyOp10
 70
     1
102
RTVSPropertyOp11
 70
     1
102
RTVSPropertyOp12
 70
     1
102
RTVSPropertyOp13
 70
     1
102
RTVSPropertyOp14
 70
     1
102
RTVSPropertyOp15
 70
     1
102
RTVSPropertyOp16
 70
     1
102
RTVSPropertyOp17
 70
     1
102
RTVSPropertyOp18
 70
     1
102
RTVSPropertyOp19
 70
     1
102
RTVSPropertyOp20
 70
     1
102
RTVSPropertyOp21
 70
     1
102
RTVSPropertyOp22
 70
     1
102
RTVSPropertyOp23
 70
     1
102
RTVSPropertyOp24
 70
     1
102
RTVSPropertyOp25
 70
     1
102
RTVSPropertyOp26
 70
     1
102
RTVSPropertyOp27
 70
     1
102
RTVSPropertyOp28
 70
     1
102
RTVSPropertyOp29
 70
     1
102
RTVSPropertyOp30
 70
     1
102
RTVSPropertyOp31
 70
     1
102
RTVSPropertyOp32
 70
     1
  0
XRECORD
  5
8BC
102
{ACAD_REACTORS
330
8BB
102
}
330
8BB
100
AcDbXrecord
280
     1
102
RTVSPropertyOp0
 70
     1
102
RTVSPropertyOp1
 70
     1
102
RTVSPropertyOp2
 70
     1
102
RTVSPropertyOp3
 70
     1
102
RTVSPropertyOp4
 70
     1
102
RTVSPropertyOp5
 70
     1
102
RTVSPropertyOp6
 70
     1
102
RTVSPropertyOp7
 70
     1
102
RTVSPropertyOp8
 70
     1
102
RTVSPropertyOp9
 70
     1
102
RTVSPropertyOp10
 70
     1
102
RTVSPropertyOp11
 70
     1
102
RTVSPropertyOp12
 70
     1
102
RTVSPropertyOp13
 70
     1
102
RTVSPropertyOp14
 70
     1
102
RTVSPropertyOp15
 70
     1
102
RTVSPropertyOp16
 70
     1
102
RTVSPropertyOp17
 70
     1
102
RTVSPropertyOp18
 70
     1
102
RTVSPropertyOp19
 70
     1
102
RTVSPropertyOp20
 70
     1
102
RTVSPropertyOp21
 70
     1
102
RTVSPropertyOp22
 70
     1
102
RTVSPropertyOp23
 70
     1
102
RTVSPropertyOp24
 70
     1
102
RTVSPropertyOp25
 70
     1
102
RTVSPropertyOp26
 70
     1
102
RTVSPropertyOp27
 70
     1
102
RTVSPropertyOp28
 70
     1
102
RTVSPropertyOp29
 70
     1
102
RTVSPropertyOp30
 70
     1
102
RTVSPropertyOp31
 70
     1
102
RTVSPropertyOp32
 70
     1
  0
XRECORD
  5
8D4
102
{ACAD_REACTORS
330
8D3
102
}
330
8D3
100
AcDbXrecord
280
     1
102
RTVSPropertyOp0
 70
     1
102
RTVSPropertyOp1
 70
     1
102
RTVSPropertyOp2
 70
     1
102
RTVSPropertyOp3
 70
     1
102
RTVSPropertyOp4
 70
     1
102
RTVSPropertyOp5
 70
     1
102
RTVSPropertyOp6
 70
     1
102
RTVSPropertyOp7
 70
     1
102
RTVSPropertyOp8
 70
     1
102
RTVSPropertyOp9
 70
     1
102
RTVSPropertyOp10
 70
     1
102
RTVSPropertyOp11
 70
     1
102
RTVSPropertyOp12
 70
     1
102
RTVSPropertyOp13
 70
     1
102
RTVSPropertyOp14
 70
     1
102
RTVSPropertyOp15
 70
     1
102
RTVSPropertyOp16
 70
     1
102
RTVSPropertyOp17
 70
     1
102
RTVSPropertyOp18
 70
     1
102
RTVSPropertyOp19
 70
     1
102
RTVSPropertyOp20
 70
     1
102
RTVSPropertyOp21
 70
     1
102
RTVSPropertyOp22
 70
     1
102
RTVSPropertyOp23
 70
     1
102
RTVSPropertyOp24
 70
     1
102
RTVSPropertyOp25
 70
     1
102
RTVSPropertyOp26
 70
     1
102
RTVSPropertyOp27
 70
     1
102
RTVSPropertyOp28
 70
     1
102
RTVSPropertyOp29
 70
     1
102
RTVSPropertyOp30
 70
     1
102
RTVSPropertyOp31
 70
     1
102
RTVSPropertyOp32
 70
     1
  0
ENDSEC
  0
EOF
