  0
SECTION
  2
HEADER
  9
$ACADVER
  1
AC1015
  9
$ACADMAINTVER
 70
    18
  9
$DWGCODEPAGE
  3
ANSI_1252
  9
$INSBASE
 10
0.0
 20
0.0
 30
0.0
  9
$EXTMIN
 10
0.0
 20
0.0
 30
0.0
  9
$EXTMAX
 10
34.0
 20
22.0
 30
0.0
  9
$LIMMIN
 10
0.0
 20
0.0
  9
$LIMMAX
 10
34.0
 20
22.0
  9
$ORTHOMODE
 70
     0
  9
$REGENMODE
 70
     1
  9
$FILLMODE
 70
     1
  9
$QTEXTMODE
 70
     0
  9
$MIRRTEXT
 70
     0
  9
$LTSCALE
 40
2.0
  9
$ATTMODE
 70
     1
  9
$TEXTSIZE
 40
0.2
  9
$TRACEWID
 40
0.05
  9
$TEXTSTYLE
  7
Standard
  9
$CLAYER
  8
0
  9
$CELTYPE
  6
ByLayer
  9
$CECOLOR
 62
   256
  9
$CELTSCALE
 40
1.0
  9
$DISPSILH
 70
     0
  9
$DIMSCALE
 40
1.0
  9
$DIMASZ
 40
0.0708661417322835
  9
$DIMEXO
 40
0.0625
  9
$DIMDLI
 40
0.38
  9
$DIMRND
 40
0.0
  9
$DIMDLE
 40
0.0
  9
$DIMEXE
 40
0.18
  9
$DIMTP
 40
0.0
  9
$DIMTM
 40
0.0
  9
$DIMTXT
 40
0.0708661417322835
  9
$DIMCEN
 40
0.09
  9
$DIMTSZ
 40
0.0
  9
$DIMTOL
 70
     0
  9
$DIMLIM
 70
     0
  9
$DIMTIH
 70
     1
  9
$DIMTOH
 70
     1
  9
$DIMSE1
 70
     0
  9
$DIMSE2
 70
     0
  9
$DIMTAD
 70
     0
  9
$DIMZIN
 70
     0
  9
$DIMBLK
  1

  9
$DIMASO
 70
     1
  9
$DIMSHO
 70
     1
  9
$DIMPOST
  1

  9
$DIMAPOST
  1

  9
$DIMALT
 70
     0
  9
$DIMALTD
 70
     2
  9
$DIMALTF
 40
25.4
  9
$DIMLFAC
 40
1.0
  9
$DIMTOFL
 70
     0
  9
$DIMTVP
 40
0.0
  9
$DIMTIX
 70
     0
  9
$DIMSOXD
 70
     0
  9
$DIMSAH
 70
     0
  9
$DIMBLK1
  1

  9
$DIMBLK2
  1

  9
$DIMSTYLE
  2
STANDARD
  9
$DIMCLRD
 70
     0
  9
$DIMCLRE
 70
     0
  9
$DIMCLRT
 70
     0
  9
$DIMTFAC
 40
1.0
  9
$DIMGAP
 40
0.09
  9
$DIMJUST
 70
     0
  9
$DIMSD1
 70
     0
  9
$DIMSD2
 70
     0
  9
$DIMTOLJ
 70
     1
  9
$DIMTZIN
 70
     0
  9
$DIMALTZ
 70
     0
  9
$DIMALTTZ
 70
     0
  9
$DIMUPT
 70
     0
  9
$DIMDEC
 70
     4
  9
$DIMTDEC
 70
     4
  9
$DIMALTU
 70
     2
  9
$DIMALTTD
 70
     2
  9
$DIMTXSTY
  7
Standard
  9
$DIMAUNIT
 70
     0
  9
$DIMADEC
 70
     0
  9
$DIMALTRND
 40
0.0
  9
$DIMAZIN
 70
     0
  9
$DIMDSEP
 70
    46
  9
$DIMATFIT
 70
     3
  9
$DIMFRAC
 70
     0
  9
$DIMLDRBLK
  1

  9
$DIMLUNIT
 70
     2
  9
$DIMLWD
 70
    -2
  9
$DIMLWE
 70
    -2
  9
$DIMTMOVE
 70
     0
  9
$LUNITS
 70
     2
  9
$LUPREC
 70
     4
  9
$SKETCHINC
 40
0.1
  9
$FILLETRAD
 40
0.0
  9
$AUNITS
 70
     0
  9
$AUPREC
 70
     0
  9
$MENU
  1
.
  9
$ELEVATION
 40
0.0
  9
$PELEVATION
 40
0.0
  9
$THICKNESS
 40
0.0
  9
$LIMCHECK
 70
     0
  9
$CHAMFERA
 40
0.0
  9
$CHAMFERB
 40
0.0
  9
$CHAMFERC
 40
0.0
  9
$CHAMFERD
 40
0.0
  9
$SKPOLY
 70
     0
  9
$TDCREATE
 40
2455952.401672512
  9
$TDUCREATE
 40
2455952.651672511
  9
$TDUPDATE
 40
2455952.401672697
  9
$TDUUPDATE
 40
2455952.651672697
  9
$TDINDWG
 40
0.0000378009
  9
$TDUSRTIMER
 40
0.0000378009
  9
$USRTIMER
 70
     1
  9
$ANGBASE
 50
0.0
  9
$ANGDIR
 70
     0
  9
$PDMODE
 70
     0
  9
$PDSIZE
 40
0.0
  9
$PLINEWID
 40
0.0
  9
$SPLFRAME
 70
     0
  9
$SPLINETYPE
 70
     6
  9
$SPLINESEGS
 70
     8
  9
$HANDSEED
  5
8E5
  9
$SURFTAB1
 70
     6
  9
$SURFTAB2
 70
     6
  9
$SURFTYPE
 70
     6
  9
$SURFU
 70
     6
  9
$SURFV
 70
     6
  9
$UCSBASE
  2

  9
$UCSNAME
  2

  9
$UCSORG
 10
0.0
 20
0.0
 30
0.0
  9
$UCSXDIR
 10
1.0
 20
0.0
 30
0.0
  9
$UCSYDIR
 10
0.0
 20
1.0
 30
0.0
  9
$UCSORTHOREF
  2

  9
$UCSORTHOVIEW
 70
     0
  9
$UCSORGTOP
 10
0.0
 20
0.0
 30
0.0
  9
$UCSORGBOTTOM
 10
0.0
 20
0.0
 30
0.0
  9
$UCSORGLEFT
 10
0.0
 20
0.0
 30
0.0
  9
$UCSORGRIGHT
 10
0.0
 20
0.0
 30
0.0
  9
$UCSORGFRONT
 10
0.0
 20
0.0
 30
0.0
  9
$UCSORGBACK
 10
0.0
 20
0.0
 30
0.0
  9
$PUCSBASE
  2

  9
$PUCSNAME
  2

  9
$PUCSORG
 10
0.0
 20
0.0
 30
0.0
  9
$PUCSXDIR
 10
1.0
 20
0.0
 30
0.0
  9
$PUCSYDIR
 10
0.0
 20
1.0
 30
0.0
  9
$PUCSORTHOREF
  2

  9
$PUCSORTHOVIEW
 70
     0
  9
$PUCSORGTOP
 10
0.0
 20
0.0
 30
0.0
  9
$PUCSORGBOTTOM
 10
0.0
 20
0.0
 30
0.0
  9
$PUCSORGLEFT
 10
0.0
 20
0.0
 30
0.0
  9
$PUCSORGRIGHT
 10
0.0
 20
0.0
 30
0.0
  9
$PUCSORGFRONT
 10
0.0
 20
0.0
 30
0.0
  9
$PUCSORGBACK
 10
0.0
 20
0.0
 30
0.0
  9
$USERI1
 70
     0
  9
$USERI2
 70
     0
  9
$USERI3
 70
     0
  9
$USERI4
 70
     0
  9
$USERI5
 70
     0
  9
$USERR1
 40
0.0
  9
$USERR2
 40
0.0
  9
$USERR3
 40
0.0
  9
$USERR4
 40
0.0
  9
$USERR5
 40
0.0
  9
$WORLDVIEW
 70
     1
  9
$SHADEDGE
 70
     3
  9
$SHADEDIF
 70
    70
  9
$TILEMODE
 70
     1
  9
$MAXACTVP
 70
    64
  9
$PINSBASE
 10
0.0
 20
0.0
 30
0.0
  9
$PLIMCHECK
 70
     0
  9
$PEXTMIN
 10
0.0
 20
0.0
 30
0.0
  9
$PEXTMAX
 10
34.0
 20
22.0
 30
0.0
  9
$PLIMMIN
 10
0.0
 20
0.0
  9
$PLIMMAX
 10
34.0
 20
22.0
  9
$UNITMODE
 70
     0
  9
$VISRETAIN
 70
     1
  9
$PLINEGEN
 70
     0
  9
$PSLTSCALE
 70
     1
  9
$TREEDEPTH
 70
  3020
  9
$CMLSTYLE
  2
Standard
  9
$CMLJUST
 70
     0
  9
$CMLSCALE
 40
1.0
  9
$PROXYGRAPHICS
 70
     1
  9
$MEASUREMENT
 70
     0
  9
$CELWEIGHT
370
    -1
  9
$ENDCAPS
280
     0
  9
$JOINSTYLE
280
     0
  9
$LWDISPLAY
290
     0
  9
$INSUNITS
 70
     1
  9
$HYPERLINKBASE
  1

  9
$STYLESHEET
  1

  9
$XEDIT
290
     1
  9
$CEPSNTYPE
380
     0
  9
$PSTYLEMODE
290
     1
  9
$FINGERPRINTGUID
  2
{0DC563C1-4E6C-4E80-85B6-96E6D7CFE66E}
  9
$VERSIONGUID
  2
{0394837B-ECB8-4733-8E6F-12CFD723C466}
  9
$EXTNAMES
290
     1
  9
$PSVPSCALE
 40
0.0
  9
$OLESTARTUP
290
     0
  0
ENDSEC
  0
SECTION
  2
CLASSES
  0
CLASS
  1
ACDBDICTIONARYWDFLT
  2
AcDbDictionaryWithDefault
  3
ObjectDBX Classes
 90
        0
280
     0
281
     0
  0
CLASS
  1
MATERIAL
  2
AcDbMaterial
  3
ObjectDBX Classes
 90
     1153
280
     0
281
     0
  0
CLASS
  1
VISUALSTYLE
  2
AcDbVisualStyle
  3
ObjectDBX Classes
 90
     4095
280
     0
281
     0
  0
CLASS
  1
SCALE
  2
AcDbScale
  3
ObjectDBX Classes
 90
     1153
280
     0
281
     0
  0
CLASS
  1
TABLESTYLE
  2
AcDbTableStyle
  3
ObjectDBX Classes
 90
     4095
280
     0
281
     0
  0
CLASS
  1
MLEADERSTYLE
  2
AcDbMLeaderStyle
  3
ACDB_MLEADERSTYLE_CLASS
 90
     4095
280
     0
281
     0
  0
CLASS
  1
DICTIONARYVAR
  2
AcDbDictionaryVar
  3
ObjectDBX Classes
 90
        0
280
     0
281
     0
  0
CLASS
  1
CELLSTYLEMAP
  2
AcDbCellStyleMap
  3
ObjectDBX Classes
 90
     1152
280
     0
281
     0
  0
CLASS
  1
ACDBPLACEHOLDER
  2
AcDbPlaceHolder
  3
ObjectDBX Classes
 90
        0
280
     0
281
     0
  0
CLASS
  1
LAYOUT
  2
AcDbLayout
  3
ObjectDBX Classes
 90
        0
280
     0
281
     0
  0
ENDSEC
  0
SECTION
  2
TABLES
  0
TABLE
  2
VPORT
  5
8
330
0
100
AcDbSymbolTable
 70
     1
  0
VPORT
  5
57
330
8
100
AcDbSymbolTableRecord
100
AcDbViewportTableRecord
  2
*Active
 70
     0
 10
0.0
 20
0.0
 11
1.0
 21
1.0
 12
17.0
 22
11.0
 13
0.0
 23
0.0
 14
1.0
 24
1.0
 15
0.0
 25
0.0
 16
0.0
 26
0.0
 36
1.0
 17
0.0
 27
0.0
 37
0.0
 40
22.0
 41
1.545454545454545
 42
50.0
 43
0.0
 44
0.0
 50
0.0
 51
0.0
 71
     0
 72
   100
 73
     1
 74
     1
 75
     0
 76
     0
 77
     0
 78
     0
281
     0
 65
     1
110
0.0
120
0.0
130
0.0
111
1.0
121
0.0
131
0.0
112
0.0
122
1.0
132
0.0
 79
     0
146
0.0
  0
ENDTAB
  0
TABLE
  2
LTYPE
  5
5
330
0
100
AcDbSymbolTable
 70
    59
  0
LTYPE
  5
5B
330
5
100
AcDbSymbolTableRecord
100
AcDbLinetypeTableRecord
  2
ByBlock
 70
     0
  3

 72
    65
 73
     0
 40
0.0
  0
LTYPE
  5
5C
330
5
100
AcDbSymbolTableRecord
100
AcDbLinetypeTableRecord
  2
ByLayer
 70
     0
  3

 72
    65
 73
     0
 40
0.0
  0
LTYPE
  5
5D
330
5
100
AcDbSymbolTableRecord
100
AcDbLinetypeTableRecord
  2
Continuous
 70
     0
  3
Solid line
 72
    65
 73
     0
 40
0.0
  0
LTYPE
  5
7C
330
5
100
AcDbSymbolTableRecord
100
AcDbLinetypeTableRecord
  2
BY_STANDARD
 70
     0
  3
By Standard ____________    ____    ____   _
 72
    65
 73
     6
 40
1.240299999999999
 49
0.6614
 74
     0
 49
-0.0827
 74
     0
 49
0.1654
 74
     0
 49
-0.0827
 74
     0
 49
0.1654
 74
     0
 49
-0.0827
 74
     0
  0
LTYPE
  5
7D
330
5
100
AcDbSymbolTableRecord
100
AcDbLinetypeTableRecord
  2
CHAIN
 70
     0
  3
Chain ____ _ ____ _ ____ _ ____ _ ____ _ ____
 72
    65
 73
     4
 40
0.7087
 49
0.4724000000000001
 74
     0
 49
-0.0591
 74
     0
 49
0.1181
 74
     0
 49
-0.0591
 74
     0
  0
LTYPE
  5
7E
330
5
100
AcDbSymbolTableRecord
100
AcDbLinetypeTableRecord
  2
DASH_DOT
 70
     0
  3
Dash dot __ . __ . __ . __ . __ . __ . __ . __
 72
    65
 73
     4
 40
0.37
 49
0.24
 74
     0
 49
-0.06
 74
     0
 49
0.01
 74
     0
 49
-0.06
 74
     0
  0
LTYPE
  5
7F
330
5
100
AcDbSymbolTableRecord
100
AcDbLinetypeTableRecord
  2
DOUBLE_DASH_DOT
 70
     0
  3
Double-Dash Dot __ __ . __ __ . __ __ . __ _
 72
    65
 73
     6
 40
0.4398
 49
0.24
 74
     0
 49
-0.06
 74
     0
 49
0.0098
 74
     0
 49
-0.06
 74
     0
 49
0.01
 74
     0
 49
-0.06
 74
     0
  0
LTYPE
  5
80
330
5
100
AcDbSymbolTableRecord
100
AcDbLinetypeTableRecord
  2
DASH_TRIPLE_DOT
 70
     0
  3
Dash Triple-Dot _ . . . _ . . . _ . . . _
 72
    65
 73
     8
 40
0.51
 49
0.24
 74
     0
 49
-0.06
 74
     0
 49
0.01
 74
     0
 49
-0.06
 74
     0
 49
0.01
 74
     0
 49
-0.06
 74
     0
 49
0.01
 74
     0
 49
-0.06
 74
     0
  0
LTYPE
  5
81
330
5
100
AcDbSymbolTableRecord
100
AcDbLinetypeTableRecord
  2
DASHED
 70
     0
  3
Dashed __ __ __ __ __ __ __ __ __ __ __ __ __ _
 72
    65
 73
     2
 40
0.2067
 49
0.1654
 74
     0
 49
-0.0413
 74
     0
  0
LTYPE
  5
82
330
5
100
AcDbSymbolTableRecord
100
AcDbLinetypeTableRecord
  2
DASH_DOUBLE_DOT
 70
     0
  3
Dash Double-Dot __ . . __ . . __ . . __ . .
 72
    65
 73
     6
 40
0.4398
 49
0.24
 74
     0
 49
-0.06
 74
     0
 49
0.0098
 74
     0
 49
-0.06
 74
     0
 49
0.01
 74
     0
 49
-0.06
 74
     0
  0
LTYPE
  5
83
330
5
100
AcDbSymbolTableRecord
100
AcDbLinetypeTableRecord
  2
DASHED_SPACE
 70
     0
  3
Dashed Space __ __ __ __ __ __ __ __ __ __ __ _
 72
    65
 73
     2
 40
0.2067
 49
0.1654
 74
     0
 49
-0.0413
 74
     0
  0
LTYPE
  5
84
330
5
100
AcDbSymbolTableRecord
100
AcDbLinetypeTableRecord
  2
DOTTED
 70
     0
  3
Dotted . . . . . . . . . . . . . . . . . . . . 
 72
    65
 73
     2
 40
0.0482
 49
0.0069
 74
     0
 49
-0.0413
 74
     0
  0
LTYPE
  5
85
330
5
100
AcDbSymbolTableRecord
100
AcDbLinetypeTableRecord
  2
DOUBLE_DASH_CHAIN
 70
     0
  3
Double-Dash Chain ______  __  __  ______  __  _
 72
    65
 73
     6
 40
1.240299999999999
 49
0.6614
 74
     0
 49
-0.0827
 74
     0
 49
0.1654
 74
     0
 49
-0.0827
 74
     0
 49
0.1654
 74
     0
 49
-0.0827
 74
     0
  0
LTYPE
  5
87
330
5
100
AcDbSymbolTableRecord
100
AcDbLinetypeTableRecord
  2
DOUBLE_DASH_DOUBLE_DOT
 70
     0
  3
Double-Dash Double-dot _ _ . . _ _ . . _
 72
    65
 73
     8
 40
0.7400000000000001
 49
0.24
 74
     0
 49
-0.06
 74
     0
 49
0.24
 74
     0
 49
-0.06
 74
     0
 49
0.01
 74
     0
 49
-0.06
 74
     0
 49
0.01
 74
     0
 49
-0.06
 74
     0
  0
LTYPE
  5
88
330
5
100
AcDbSymbolTableRecord
100
AcDbLinetypeTableRecord
  2
DOUBLE_DASH_TRIPLE_DOT
 70
     0
  3
Double Dash Triple Dot __ __ . . . __ __ . .
 72
    65
 73
    10
 40
0.8100000000000001
 49
0.24
 74
     0
 49
-0.06
 74
     0
 49
0.24
 74
     0
 49
-0.06
 74
     0
 49
0.01
 74
     0
 49
-0.06
 74
     0
 49
0.01
 74
     0
 49
-0.06
 74
     0
 49
0.01
 74
     0
 49
-0.06
 74
     0
  0
LTYPE
  5
89
330
5
100
AcDbSymbolTableRecord
100
AcDbLinetypeTableRecord
  2
LONG_DASH_DOTTED
 70
     0
  3
Long Dash Dotted ____ . ____ . ____ . ____ . _
 72
    65
 73
     4
 40
0.3543
 49
0.2362
 74
     0
 49
-0.0295
 74
     0
 49
0.0591
 74
     0
 49
-0.0295
 74
     0
  0
LTYPE
  5
8A
330
5
100
AcDbSymbolTableRecord
100
AcDbLinetypeTableRecord
  2
LONG_DASH_DOUBLE_DOT
 70
     0
  3
Long Dash Double Dot ________  .  .  ________  
 72
    65
 73
     6
 40
0.6799999999999999
 49
0.48
 74
     0
 49
-0.06
 74
     0
 49
0.01
 74
     0
 49
-0.06
 74
     0
 49
0.01
 74
     0
 49
-0.06
 74
     0
  0
LTYPE
  5
8B
330
5
100
AcDbSymbolTableRecord
100
AcDbLinetypeTableRecord
  2
LONG_DASH_TRIPLE_DOT
 70
     0
  3
Long Dash Triple Dot ____ ... ____ ... ____
 72
    65
 73
     8
 40
0.3689
 49
0.2362
 74
     0
 49
-0.0295
 74
     0
 49
0.0049
 74
     0
 49
-0.0295
 74
     0
 49
0.0049
 74
     0
 49
-0.0295
 74
     0
 49
0.0049
 74
     0
 49
-0.0295
 74
     0
  0
LTYPE
  5
8C
330
5
100
AcDbSymbolTableRecord
100
AcDbLinetypeTableRecord
  2
BORDER
 70
     0
  3
Border __ __ . __ __ . __ __ . __ __ . __ __ .
 72
    65
 73
     6
 40
1.75
 49
0.5
 74
     0
 49
-0.25
 74
     0
 49
0.5
 74
     0
 49
-0.25
 74
     0
 49
0.0
 74
     0
 49
-0.25
 74
     0
  0
LTYPE
  5
8D
330
5
100
AcDbSymbolTableRecord
100
AcDbLinetypeTableRecord
  2
BORDER2
 70
     0
  3
Border (.5x) __.__.__.__.__.__.__.__.__.__.__.
 72
    65
 73
     6
 40
0.875
 49
0.25
 74
     0
 49
-0.125
 74
     0
 49
0.25
 74
     0
 49
-0.125
 74
     0
 49
0.0
 74
     0
 49
-0.125
 74
     0
  0
LTYPE
  5
8E
330
5
100
AcDbSymbolTableRecord
100
AcDbLinetypeTableRecord
  2
BORDERX2
 70
     0
  3
Border (2x) ____  ____  .  ____  ____  .  ___
 72
    65
 73
     6
 40
3.5
 49
1.0
 74
     0
 49
-0.5
 74
     0
 49
1.0
 74
     0
 49
-0.5
 74
     0
 49
0.0
 74
     0
 49
-0.5
 74
     0
  0
LTYPE
  5
8F
330
5
100
AcDbSymbolTableRecord
100
AcDbLinetypeTableRecord
  2
CENTER
 70
     0
  3
Center ____ _ ____ _ ____ _ ____ _ ____ _ ____
 72
    65
 73
     4
 40
2.0
 49
1.25
 74
     0
 49
-0.25
 74
     0
 49
0.25
 74
     0
 49
-0.25
 74
     0
  0
LTYPE
  5
90
330
5
100
AcDbSymbolTableRecord
100
AcDbLinetypeTableRecord
  2
CENTER2
 70
     0
  3
Center (.5x) ___ _ ___ _ ___ _ ___ _ ___ _ ___
 72
    65
 73
     4
 40
1.125
 49
0.75
 74
     0
 49
-0.125
 74
     0
 49
0.125
 74
     0
 49
-0.125
 74
     0
  0
LTYPE
  5
91
330
5
100
AcDbSymbolTableRecord
100
AcDbLinetypeTableRecord
  2
CENTERX2
 70
     0
  3
Center (2x) ________  __  ________  __  _____
 72
    65
 73
     4
 40
4.0
 49
2.5
 74
     0
 49
-0.5
 74
     0
 49
0.5
 74
     0
 49
-0.5
 74
     0
  0
LTYPE
  5
92
330
5
100
AcDbSymbolTableRecord
100
AcDbLinetypeTableRecord
  2
DASHDOT2
 70
     0
  3
Dash dot (.5x) _._._._._._._._._._._._._._._.
 72
    65
 73
     4
 40
0.5
 49
0.25
 74
     0
 49
-0.125
 74
     0
 49
0.0
 74
     0
 49
-0.125
 74
     0
  0
LTYPE
  5
93
330
5
100
AcDbSymbolTableRecord
100
AcDbLinetypeTableRecord
  2
DASHDOTX2
 70
     0
  3
Dash dot (2x) ____  .  ____  .  ____  .  ___
 72
    65
 73
     4
 40
2.0
 49
1.0
 74
     0
 49
-0.5
 74
     0
 49
0.0
 74
     0
 49
-0.5
 74
     0
  0
LTYPE
  5
95
330
5
100
AcDbSymbolTableRecord
100
AcDbLinetypeTableRecord
  2
DASHED2
 70
     0
  3
Dashed (.5x) _ _ _ _ _ _ _ _ _ _ _ _ _ _ _ _ _
 72
    65
 73
     2
 40
0.375
 49
0.25
 74
     0
 49
-0.125
 74
     0
  0
LTYPE
  5
96
330
5
100
AcDbSymbolTableRecord
100
AcDbLinetypeTableRecord
  2
DASHEDX2
 70
     0
  3
Dashed (2x) ____  ____  ____  ____  ____  ___
 72
    65
 73
     2
 40
1.5
 49
1.0
 74
     0
 49
-0.5
 74
     0
  0
LTYPE
  5
97
330
5
100
AcDbSymbolTableRecord
100
AcDbLinetypeTableRecord
  2
DIVIDE
 70
     0
  3
Divide ____ . . ____ . . ____ . . ____ . . ____
 72
    65
 73
     6
 40
1.25
 49
0.5
 74
     0
 49
-0.25
 74
     0
 49
0.0
 74
     0
 49
-0.25
 74
     0
 49
0.0
 74
     0
 49
-0.25
 74
     0
  0
LTYPE
  5
98
330
5
100
AcDbSymbolTableRecord
100
AcDbLinetypeTableRecord
  2
DIVIDE2
 70
     0
  3
Divide (.5x) __..__..__..__..__..__..__..__.._
 72
    65
 73
     6
 40
0.625
 49
0.25
 74
     0
 49
-0.125
 74
     0
 49
0.0
 74
     0
 49
-0.125
 74
     0
 49
0.0
 74
     0
 49
-0.125
 74
     0
  0
LTYPE
  5
99
330
5
100
AcDbSymbolTableRecord
100
AcDbLinetypeTableRecord
  2
DIVIDEX2
 70
     0
  3
Divide (2x) ________  .  .  ________  .  .  _
 72
    65
 73
     6
 40
2.5
 49
1.0
 74
     0
 49
-0.5
 74
     0
 49
0.0
 74
     0
 49
-0.5
 74
     0
 49
0.0
 74
     0
 49
-0.5
 74
     0
  0
LTYPE
  5
9A
330
5
100
AcDbSymbolTableRecord
100
AcDbLinetypeTableRecord
  2
DOT
 70
     0
  3
Dot . . . . . . . . . . . . . . . . . . . . . .
 72
    65
 73
     2
 40
0.25
 49
0.0
 74
     0
 49
-0.25
 74
     0
  0
LTYPE
  5
9B
330
5
100
AcDbSymbolTableRecord
100
AcDbLinetypeTableRecord
  2
DOT2
 70
     0
  3
Dot (.5x) .....................................
 72
    65
 73
     2
 40
0.125
 49
0.0
 74
     0
 49
-0.125
 74
     0
  0
LTYPE
  5
9C
330
5
100
AcDbSymbolTableRecord
100
AcDbLinetypeTableRecord
  2
DOTX2
 70
     0
  3
Dot (2x) .  .  .  .  .  .  .  .  .  .  .  .  . 
 72
    65
 73
     2
 40
0.5
 49
0.0
 74
     0
 49
-0.5
 74
     0
  0
LTYPE
  5
9D
330
5
100
AcDbSymbolTableRecord
100
AcDbLinetypeTableRecord
  2
HIDDEN
 70
     0
  3
Hidden __ __ __ __ __ __ __ __ __ __ __ __ __ _
 72
    65
 73
     2
 40
0.375
 49
0.25
 74
     0
 49
-0.125
 74
     0
  0
LTYPE
  5
9E
330
5
100
AcDbSymbolTableRecord
100
AcDbLinetypeTableRecord
  2
HIDDEN2
 70
     0
  3
Hidden (.5x) _ _ _ _ _ _ _ _ _ _ _ _ _ _ _ _ _
 72
    65
 73
     2
 40
0.1875
 49
0.125
 74
     0
 49
-0.0625
 74
     0
  0
LTYPE
  5
9F
330
5
100
AcDbSymbolTableRecord
100
AcDbLinetypeTableRecord
  2
HIDDENX2
 70
     0
  3
Hidden (2x) ____ ____ ____ ____ ____ ____ ____
 72
    65
 73
     2
 40
0.75
 49
0.5
 74
     0
 49
-0.25
 74
     0
  0
LTYPE
  5
A0
330
5
100
AcDbSymbolTableRecord
100
AcDbLinetypeTableRecord
  2
PHANTOM
 70
     0
  3
Phantom ______  __  __  ______  __  __  ______
 72
    65
 73
     6
 40
2.5
 49
1.25
 74
     0
 49
-0.25
 74
     0
 49
0.25
 74
     0
 49
-0.25
 74
     0
 49
0.25
 74
     0
 49
-0.25
 74
     0
  0
LTYPE
  5
A1
330
5
100
AcDbSymbolTableRecord
100
AcDbLinetypeTableRecord
  2
PHANTOM2
 70
     0
  3
Phantom (.5x) ___ _ _ ___ _ _ ___ _ _ ___ _ _
 72
    65
 73
     6
 40
1.25
 49
0.625
 74
     0
 49
-0.125
 74
     0
 49
0.125
 74
     0
 49
-0.125
 74
     0
 49
0.125
 74
     0
 49
-0.125
 74
     0
  0
LTYPE
  5
A2
330
5
100
AcDbSymbolTableRecord
100
AcDbLinetypeTableRecord
  2
PHANTOMX2
 70
     0
  3
Phantom (2x) ____________    ____    ____   _
 72
    65
 73
     6
 40
5.0
 49
2.5
 74
     0
 49
-0.5
 74
     0
 49
0.5
 74
     0
 49
-0.5
 74
     0
 49
0.5
 74
     0
 49
-0.5
 74
     0
  0
LTYPE
  5
A3
330
5
100
AcDbSymbolTableRecord
100
AcDbLinetypeTableRecord
  2
ACAD_ISO02W100
 70
     0
  3
ISO dash __ __ __ __ __ __ __ __ __ __ __ __ __
 72
    65
 73
     2
 40
0.59
 49
0.47
 74
     0
 49
-0.12
 74
     0
  0
LTYPE
  5
A4
330
5
100
AcDbSymbolTableRecord
100
AcDbLinetypeTableRecord
  2
ACAD_ISO03W100
 70
     0
  3
ISO dash space __    __    __    __    __    __
 72
    65
 73
     2
 40
1.179999999999999
 49
0.47
 74
     0
 49
-0.71
 74
     0
  0
LTYPE
  5
A5
330
5
100
AcDbSymbolTableRecord
100
AcDbLinetypeTableRecord
  2
ACAD_ISO04W100
 70
     0
  3
ISO long-dash dot ____ . ____ . ____ . ____ . _
 72
    65
 73
     4
 40
1.179999999999999
 49
0.9399999999999998
 74
     0
 49
-0.12
 74
     0
 49
0.0
 74
     0
 49
-0.12
 74
     0
  0
LTYPE
  5
A6
330
5
100
AcDbSymbolTableRecord
100
AcDbLinetypeTableRecord
  2
ACAD_ISO05W100
 70
     0
  3
ISO long-dash double-dot ____ .. ____ .. ____ .
 72
    65
 73
     6
 40
1.299999999999999
 49
0.9399999999999998
 74
     0
 49
-0.12
 74
     0
 49
0.0
 74
     0
 49
-0.12
 74
     0
 49
0.0
 74
     0
 49
-0.12
 74
     0
  0
LTYPE
  5
A7
330
5
100
AcDbSymbolTableRecord
100
AcDbLinetypeTableRecord
  2
ACAD_ISO06W100
 70
     0
  3
ISO long-dash triple-dot ____ ... ____ ... ____
 72
    65
 73
     8
 40
1.419999999999999
 49
0.9399999999999998
 74
     0
 49
-0.12
 74
     0
 49
0.0
 74
     0
 49
-0.12
 74
     0
 49
0.0
 74
     0
 49
-0.12
 74
     0
 49
0.0
 74
     0
 49
-0.12
 74
     0
  0
LTYPE
  5
A8
330
5
100
AcDbSymbolTableRecord
100
AcDbLinetypeTableRecord
  2
ACAD_ISO07W100
 70
     0
  3
ISO dot . . . . . . . . . . . . . . . . . . . .
 72
    65
 73
     2
 40
0.12
 49
0.0
 74
     0
 49
-0.12
 74
     0
  0
LTYPE
  5
A9
330
5
100
AcDbSymbolTableRecord
100
AcDbLinetypeTableRecord
  2
ACAD_ISO08W100
 70
     0
  3
ISO long-dash short-dash ____ __ ____ __ ____ _
 72
    65
 73
     4
 40
0.95
 49
0.47
 74
     0
 49
-0.12
 74
     0
 49
0.24
 74
     0
 49
-0.12
 74
     0
  0
LTYPE
  5
AA
330
5
100
AcDbSymbolTableRecord
100
AcDbLinetypeTableRecord
  2
ACAD_ISO09W100
 70
     0
  3
ISO long-dash double-short-dash ____ __ __ ____
 72
    65
 73
     6
 40
1.31
 49
0.47
 74
     0
 49
-0.12
 74
     0
 49
0.24
 74
     0
 49
-0.12
 74
     0
 49
0.24
 74
     0
 49
-0.12
 74
     0
  0
LTYPE
  5
AB
330
5
100
AcDbSymbolTableRecord
100
AcDbLinetypeTableRecord
  2
ACAD_ISO10W100
 70
     0
  3
ISO dash dot __ . __ . __ . __ . __ . __ . __ .
 72
    65
 73
     4
 40
0.71
 49
0.47
 74
     0
 49
-0.12
 74
     0
 49
0.0
 74
     0
 49
-0.12
 74
     0
  0
LTYPE
  5
AC
330
5
100
AcDbSymbolTableRecord
100
AcDbLinetypeTableRecord
  2
ACAD_ISO11W100
 70
     0
  3
ISO double-dash dot __ __ . __ __ . __ __ . __ 
 72
    65
 73
     6
 40
1.299999999999999
 49
0.47
 74
     0
 49
-0.12
 74
     0
 49
0.47
 74
     0
 49
-0.12
 74
     0
 49
0.0
 74
     0
 49
-0.12
 74
     0
  0
LTYPE
  5
AD
330
5
100
AcDbSymbolTableRecord
100
AcDbLinetypeTableRecord
  2
ACAD_ISO12W100
 70
     0
  3
ISO dash double-dot __ . . __ . . __ . . __ . .
 72
    65
 73
     6
 40
0.8299999999999998
 49
0.47
 74
     0
 49
-0.12
 74
     0
 49
0.0
 74
     0
 49
-0.12
 74
     0
 49
0.0
 74
     0
 49
-0.12
 74
     0
  0
LTYPE
  5
AE
330
5
100
AcDbSymbolTableRecord
100
AcDbLinetypeTableRecord
  2
ACAD_ISO13W100
 70
     0
  3
ISO double-dash double-dot __ __ . . __ __ . . 
 72
    65
 73
     8
 40
1.419999999999999
 49
0.47
 74
     0
 49
-0.12
 74
     0
 49
0.47
 74
     0
 49
-0.12
 74
     0
 49
0.0
 74
     0
 49
-0.12
 74
     0
 49
0.0
 74
     0
 49
-0.12
 74
     0
  0
LTYPE
  5
AF
330
5
100
AcDbSymbolTableRecord
100
AcDbLinetypeTableRecord
  2
ACAD_ISO14W100
 70
     0
  3
ISO dash triple-dot __ . . . __ . . . __ . . . 
 72
    65
 73
     8
 40
0.95
 49
0.47
 74
     0
 49
-0.12
 74
     0
 49
0.0
 74
     0
 49
-0.12
 74
     0
 49
0.0
 74
     0
 49
-0.12
 74
     0
 49
0.0
 74
     0
 49
-0.12
 74
     0
  0
LTYPE
  5
B0
330
5
100
AcDbSymbolTableRecord
100
AcDbLinetypeTableRecord
  2
ACAD_ISO15W100
 70
     0
  3
ISO double-dash triple-dot __ __ . . . __ __ . 
 72
    65
 73
    10
 40
1.539999999999999
 49
0.47
 74
     0
 49
-0.12
 74
     0
 49
0.47
 74
     0
 49
-0.12
 74
     0
 49
0.0
 74
     0
 49
-0.12
 74
     0
 49
0.0
 74
     0
 49
-0.12
 74
     0
 49
0.0
 74
     0
 49
-0.12
 74
     0
  0
LTYPE
  5
B3
330
5
100
AcDbSymbolTableRecord
100
AcDbLinetypeTableRecord
  2
FENCELINE1
 70
     0
  3
Fenceline circle ----0-----0----0-----0----0---
 72
    65
 73
     4
 40
1.45
 49
0.25
 74
     0
 49
-0.1
 74
     4
 75
   133
340
B2
 46
0.1
 50
0.0
 44
-0.1
 45
0.0
 49
-0.1
 74
     0
 49
1.0
 74
     0
  0
LTYPE
  5
B4
330
5
100
AcDbSymbolTableRecord
100
AcDbLinetypeTableRecord
  2
FENCELINE2
 70
     0
  3
Fenceline square ----[]-----[]----[]-----[]----
 72
    65
 73
     4
 40
1.45
 49
0.25
 74
     0
 49
-0.1
 74
     4
 75
   132
340
B2
 46
0.1
 50
0.0
 44
-0.1
 45
0.0
 49
-0.1
 74
     0
 49
1.0
 74
     0
  0
LTYPE
  5
B5
330
5
100
AcDbSymbolTableRecord
100
AcDbLinetypeTableRecord
  2
TRACKS
 70
     0
  3
Tracks -|-|-|-|-|-|-|-|-|-|-|-|-|-|-|-|-|-|-|-|
 72
    65
 73
     2
 40
0.3
 49
0.15
 74
     4
 75
   130
340
B2
 46
0.25
 50
0.0
 44
0.0
 45
0.0
 49
0.15
 74
     0
  0
LTYPE
  5
B6
330
5
100
AcDbSymbolTableRecord
100
AcDbLinetypeTableRecord
  2
BATTING
 70
     0
  3
Batting SSSSSSSSSSSSSSSSSSSSSSSSSSSSSSSSSSSSSSS
 72
    65
 73
     4
 40
0.4001000000000001
 49
0.0001
 74
     0
 49
-0.1
 74
     4
 75
   134
340
B2
 46
0.1
 50
0.0
 44
-0.1
 45
0.0
 49
-0.2
 74
     4
 75
   134
340
B2
 46
0.1
 50
180.0
 44
0.1
 45
0.0
 49
-0.1
 74
     0
  0
LTYPE
  5
B7
330
5
100
AcDbSymbolTableRecord
100
AcDbLinetypeTableRecord
  2
HOT_WATER_SUPPLY
 70
     0
  3
Hot water supply ---- HW ---- HW ---- HW ----
 72
    65
 73
     3
 40
0.9
 49
0.5
 74
     0
 49
-0.2
 74
     2
 75
     0
340
55
 46
0.1
 50
0.0
 44
-0.1
 45
-0.05
  9
HW
 49
-0.2
 74
     0
  0
LTYPE
  5
B8
330
5
100
AcDbSymbolTableRecord
100
AcDbLinetypeTableRecord
  2
GAS_LINE
 70
     0
  3
Gas line ----GAS----GAS----GAS----GAS----GAS---
 72
    65
 73
     3
 40
0.95
 49
0.5
 74
     0
 49
-0.2
 74
     2
 75
     0
340
55
 46
0.1
 50
0.0
 44
-0.1
 45
-0.05
  9
GAS
 49
-0.25
 74
     0
  0
LTYPE
  5
B9
330
5
100
AcDbSymbolTableRecord
100
AcDbLinetypeTableRecord
  2
ZIGZAG
 70
     0
  3
Zig zag /\/\/\/\/\/\/\/\/\/\/\/\/\/\/\/\/\/\/\/
 72
    65
 73
     4
 40
0.8001000000000001
 49
0.0001
 74
     0
 49
-0.2
 74
     4
 75
   131
340
B2
 46
0.2
 50
0.0
 44
-0.2
 45
0.0
 49
-0.4
 74
     4
 75
   131
340
B2
 46
0.2
 50
180.0
 44
0.2
 45
0.0
 49
-0.2
 74
     0
  0
ENDTAB
  0
TABLE
  2
LAYER
  5
2
330
0
100
AcDbSymbolTable
 70
    27
  0
LAYER
  5
54
330
2
100
AcDbSymbolTableRecord
100
AcDbLayerTableRecord
  2
0
 70
     0
 62
     7
  6
Continuous
370
    18
390
F
  0
LAYER
  5
C3
330
2
100
AcDbSymbolTableRecord
100
AcDbLayerTableRecord
  2
Dimension (ANSI)
 70
     0
 62
     7
  6
Continuous
370
    13
390
F
  0
LAYER
  5
C5
330
2
100
AcDbSymbolTableRecord
100
AcDbLayerTableRecord
  2
Hidden (ANSI)
 70
     0
 62
     7
  6
DASHED
370
    15
390
F
  0
LAYER
  5
CC
330
2
100
AcDbSymbolTableRecord
100
AcDbLayerTableRecord
  2
Symbol (ANSI)
 70
     0
 62
     7
  6
Continuous
370
    18
390
F
  0
LAYER
  5
CF
330
2
100
AcDbSymbolTableRecord
100
AcDbLayerTableRecord
  2
Visible (ANSI)
 70
     0
 62
     7
  6
Continuous
370
    13
390
F
  0
LAYER
  5
D0
330
2
100
AcDbSymbolTableRecord
100
AcDbLayerTableRecord
  2
Visible Narrow (ANSI)
 70
     0
 62
     7
  6
Continuous
370
    18
390
F
  0
LAYER
  5
139
330
2
100
AcDbSymbolTableRecord
100
AcDbLayerTableRecord
  2
Defpoints
 70
     0
 62
     7
  6
Continuous
290
     0
370
    -3
390
F
  0
ENDTAB
  0
TABLE
  2
STYLE
  5
3
330
0
100
AcDbSymbolTable
 70
    18
  0
STYLE
  5
55
330
3
100
AcDbSymbolTableRecord
100
AcDbTextStyleTableRecord
  2
Standard
 70
     0
 40
0.0
 41
1.0
 50
0.0
 71
     0
 42
0.2
  3
txt
  4

  0
STYLE
  5
5A
330
3
100
AcDbSymbolTableRecord
100
AcDbTextStyleTableRecord
  2
Annotative
 70
     0
 40
0.0
 41
1.0
 50
0.0
 71
     0
 42
0.2
  3
txt
  4

1001
AcadAnnotative
1000
AnnotativeData
1002
{
1070
     1
1070
     1
1002
}
  0
STYLE
  5
B2
330
3
100
AcDbSymbolTableRecord
100
AcDbTextStyleTableRecord
  2

 70
     1
 40
0.0
 41
1.0
 50
0.0
 71
     0
 42
0.2
  3
ltypeshp.shx
  4

  0
STYLE
  5
D4
330
3
100
AcDbSymbolTableRecord
100
AcDbTextStyleTableRecord
  2
ITALICC_120
 70
     0
 40
0.0
 41
1.0
 50
0.0
 71
     0
 42
0.2
  3
italicc.shx
  4

  0
STYLE
  5
D5
330
3
100
AcDbSymbolTableRecord
100
AcDbTextStyleTableRecord
  2
Label Text (ANSI)
 70
     0
 40
0.0
 41
1.0
 50
0.0
 71
     0
 42
0.2
  3
TAHOMA.TTF
  4

1001
ACAD
1000
Tahoma
1071
      256
  0
STYLE
  5
D6
330
3
100
AcDbSymbolTableRecord
100
AcDbTextStyleTableRecord
  2
Note Text (ANSI)
 70
     0
 40
0.0
 41
1.0
 50
0.0
 71
     0
 42
0.2
  3
TAHOMA.TTF
  4

1001
ACAD
1000
Tahoma
1071
      256
  0
STYLE
  5
D7
330
3
100
AcDbSymbolTableRecord
100
AcDbTextStyleTableRecord
  2
ROMANS
 70
     0
 40
0.0
 41
1.0
 50
0.0
 71
     0
 42
0.2
  3
romans.shx
  4

  0
STYLE
  5
D8
330
3
100
AcDbSymbolTableRecord
100
AcDbTextStyleTableRecord
  2
SANSSERIF_114
 70
     0
 40
0.0
 41
1.0
 50
0.0
 71
     0
 42
0.2
  3
TAHOMA.TTF
  4

1001
ACAD
1000
Tahoma
1071
      256
  0
STYLE
  5
D9
330
3
100
AcDbSymbolTableRecord
100
AcDbTextStyleTableRecord
  2
SANSSERIF_117
 70
     0
 40
0.0
 41
1.0
 50
0.0
 71
     0
 42
0.2
  3
TAHOMA.TTF
  4

1001
ACAD
1000
Tahoma
1071
      256
  0
STYLE
  5
DA
330
3
100
AcDbSymbolTableRecord
100
AcDbTextStyleTableRecord
  2
STANDARDAM_ANSI
 70
     0
 40
0.0
 41
1.0
 50
0.0
 71
     0
 42
0.2
  3
txt.shx
  4

  0
STYLE
  5
DB
330
3
100
AcDbSymbolTableRecord
100
AcDbTextStyleTableRecord
  2
StandardAM_ANSI$0
 70
     0
 40
0.0
 41
1.0
 50
0.0
 71
     0
 42
0.2
  3
txt.shx
  4

  0
STYLE
  5
DC
330
3
100
AcDbSymbolTableRecord
100
AcDbTextStyleTableRecord
  2
STANDARDAM_ANSI$3
 70
     0
 40
0.0
 41
1.0
 50
0.0
 71
     0
 42
0.2
  3
txt.shx
  4

  0
STYLE
  5
DD
330
3
100
AcDbSymbolTableRecord
100
AcDbTextStyleTableRecord
  2
STANDARDAM_ANSI$4
 70
     0
 40
0.0
 41
1.0
 50
0.0
 71
     0
 42
0.2
  3
txt.shx
  4

  0
STYLE
  5
DE
330
3
100
AcDbSymbolTableRecord
100
AcDbTextStyleTableRecord
  2
STANDARDAM_ANSI$7
 70
     0
 40
0.0
 41
1.0
 50
0.0
 71
     0
 42
0.2
  3
txt.shx
  4

  0
STYLE
  5
DF
330
3
100
AcDbSymbolTableRecord
100
AcDbTextStyleTableRecord
  2
STANDARDAM_ANSI$SF
 70
     0
 40
0.0
 41
1.0
 50
0.0
 71
     0
 42
0.2
  3
txt.shx
  4

  0
STYLE
  5
E0
330
3
100
AcDbSymbolTableRecord
100
AcDbTextStyleTableRecord
  2
STANDARDAM_ANSI$SH
 70
     0
 40
0.0
 41
1.0
 50
0.0
 71
     0
 42
0.2
  3
txt.shx
  4

  0
STYLE
  5
E1
330
3
100
AcDbSymbolTableRecord
100
AcDbTextStyleTableRecord
  2
STANDARDSTANDARD
 70
     0
 40
0.0
 41
1.0
 50
0.0
 71
     0
 42
0.2
  3
txt.shx
  4

  0
STYLE
  5
132
330
3
100
AcDbSymbolTableRecord
100
AcDbTextStyleTableRecord
  2
Text Style150
 70
     0
 40
0.0
 41
1.0
 50
0.0
 71
     0
 42
0.2
  3
TAHOMA.TTF
  4

1001
ACAD
1000
Tahoma
1071
      256
  0
ENDTAB
  0
TABLE
  2
VIEW
  5
6
330
0
100
AcDbSymbolTable
 70
     0
  0
ENDTAB
  0
TABLE
  2
UCS
  5
7
330
0
100
AcDbSymbolTable
 70
     0
  0
ENDTAB
  0
TABLE
  2
APPID
  5
9
330
0
100
AcDbSymbolTable
 70
     4
  0
APPID
  5
56
330
9
100
AcDbSymbolTableRecord
100
AcDbRegAppTableRecord
  2
ACAD
 70
     0
  0
APPID
  5
5E
330
9
100
AcDbSymbolTableRecord
100
AcDbRegAppTableRecord
  2
AcadAnnotative
 70
     0
  0
APPID
  5
69E
330
9
100
AcDbSymbolTableRecord
100
AcDbRegAppTableRecord
  2
ACAD_DSTYLE_DIMRADIAL_EXTENSION
 70
     0
  0
APPID
  5
8DC
330
9
100
AcDbSymbolTableRecord
100
AcDbRegAppTableRecord
  2
ACAD_MLEADERVER
 70
     0
  0
ENDTAB
  0
TABLE
  2
DIMSTYLE
  5
A
330
0
100
AcDbSymbolTable
 70
    29
100
AcDbDimStyleTable
 71
     3
340
F6
340
58
340
F8
  0
DIMSTYLE
105
58
330
A
100
AcDbSymbolTableRecord
100
AcDbDimStyleTableRecord
  2
STANDARD
 70
     0
 41
0.1800000071525573
 42
0.0625
140
0.1800000071525574
144
1.0
147
0.0900000035762787
176
   256
177
   256
178
   256
274
     3
340
55
371
    -1
372
    -1
  0
DIMSTYLE
105
59
330
A
100
AcDbSymbolTableRecord
100
AcDbDimStyleTableRecord
  2
Annotative
 70
     0
340
55
1001
AcadAnnotative
1000
AnnotativeData
1002
{
1070
     1
1070
     1
1002
}
  0
DIMSTYLE
105
E2
330
A
100
AcDbSymbolTableRecord
100
AcDbDimStyleTableRecord
  2
AM_ANSI
 70
     0
  4
 mm
 40
2.0
 41
0.119999997317791
 42
0.05
 43
0.5
 44
0.1
 45
0.00000001
 78
     4
 79
     2
140
0.1200000047683716
146
0.7099999453624112
147
0.0599999986588955
176
   256
177
   256
178
     2
284
     4
340
DA
371
    -1
372
    -1
  0
DIMSTYLE
105
E3
330
A
100
AcDbSymbolTableRecord
100
AcDbDimStyleTableRecord
  2
AM_ANSI$7
 70
     0
  4
 mm
 40
2.0
 41
0.119999997317791
 42
0.05
 43
0.5
 44
0.1
 45
0.00000001
 78
     4
 79
     2
140
0.1200000047683716
146
0.7099999453624112
147
0.0599999986588955
176
   256
177
   256
178
     2
284
     4
340
DA
371
    -1
372
    -1
  0
DIMSTYLE
105
E4
330
A
100
AcDbSymbolTableRecord
100
AcDbDimStyleTableRecord
  2
AM_ANSI$0
 70
     0
  4
 mm
 40
2.0
 41
0.119999997317791
 42
0.05
 43
0.5
 44
0.1
 45
0.00000001
 78
     4
 79
     2
140
0.1200000047683716
146
0.7099999453624112
147
0.0599999986588955
176
   256
177
   256
178
     2
284
     4
340
DB
371
    -1
372
    -1
  0
DIMSTYLE
105
E5
330
A
100
AcDbSymbolTableRecord
100
AcDbDimStyleTableRecord
  2
AM_ANSI$0$7
 70
     0
  4
 mm
 40
2.0
 41
0.119999997317791
 42
0.05
 43
0.5
 44
0.1
 45
0.00000001
 78
     4
 79
     2
140
0.1200000047683716
146
0.7099999453624112
147
0.0599999986588955
176
   256
177
   256
178
     2
284
     4
340
DB
371
    -1
372
    -1
  0
DIMSTYLE
105
E6
330
A
100
AcDbSymbolTableRecord
100
AcDbDimStyleTableRecord
  2
AM_ANSI$3
 70
     0
  4
 mm
 40
2.0
 41
0.119999997317791
 42
0.05
 43
0.5
 44
0.1
 45
0.00000001
 78
     4
 79
     2
140
0.1200000047683716
146
0.7099999453624112
147
0.0599999986588955
176
   256
177
   256
178
     2
284
     4
340
DC
371
    -1
372
    -1
  0
DIMSTYLE
105
E7
330
A
100
AcDbSymbolTableRecord
100
AcDbDimStyleTableRecord
  2
AM_ANSI$3$7
 70
     0
  4
 mm
 40
2.0
 41
0.119999997317791
 42
0.05
 43
0.5
 44
0.1
 45
0.00000001
 78
     4
 79
     2
140
0.1200000047683716
146
0.7099999453624112
147
0.0599999986588955
176
   256
177
   256
178
     2
284
     4
340
DC
371
    -1
372
    -1
  0
DIMSTYLE
105
E8
330
A
100
AcDbSymbolTableRecord
100
AcDbDimStyleTableRecord
  2
AM_ANSI$4
 70
     0
  4
 mm
 40
2.0
 41
0.119999997317791
 42
0.05
 43
0.5
 44
0.1
 45
0.00000001
 78
     4
 79
     2
140
0.1200000047683716
146
0.7099999453624112
147
0.0599999986588955
176
   256
177
   256
178
     2
284
     4
340
DD
371
    -1
372
    -1
  0
DIMSTYLE
105
E9
330
A
100
AcDbSymbolTableRecord
100
AcDbDimStyleTableRecord
  2
AM_ANSI$4$7
 70
     0
  4
 mm
 40
2.0
 41
0.119999997317791
 42
0.05
 43
0.5
 44
0.1
 45
0.00000001
 78
     4
 79
     2
140
0.1200000047683716
146
0.7099999453624112
147
0.0599999986588955
176
   256
177
   256
178
     2
284
     4
340
DD
371
    -1
372
    -1
  0
DIMSTYLE
105
EA
330
A
100
AcDbSymbolTableRecord
100
AcDbDimStyleTableRecord
  2
AM_ANSI$SF
 70
     0
  4
 mm
 40
2.0
 41
0.119999997317791
 42
0.05
 43
0.5
 44
0.1
 45
0.00000001
 75
     1
 76
     1
 78
     4
 79
     2
140
0.1200000047683716
146
0.7099999453624112
147
0.0599999986588955
176
   256
177
   256
178
     2
284
     4
340
DF
371
    -1
372
    -1
  0
DIMSTYLE
105
EB
330
A
100
AcDbSymbolTableRecord
100
AcDbDimStyleTableRecord
  2
AM_ANSI$SF$7
 70
     0
  4
 mm
 40
2.0
 41
0.119999997317791
 42
0.05
 43
0.5
 44
0.1
 45
0.00000001
 75
     1
 76
     1
 78
     4
 79
     2
140
0.1200000047683716
146
0.7099999453624112
147
0.0599999986588955
176
   256
177
   256
178
     2
284
     4
340
DF
371
    -1
372
    -1
  0
DIMSTYLE
105
EC
330
A
100
AcDbSymbolTableRecord
100
AcDbDimStyleTableRecord
  2
AM_ANSI$SH
 70
     0
  4
 mm
 40
2.0
 41
0.119999997317791
 42
0.05
 43
0.5
 44
0.1
 45
0.00000001
 75
     1
 76
     1
 78
     4
 79
     2
140
0.1200000047683716
146
0.7099999453624112
147
0.0599999986588955
176
   256
177
   256
178
     2
284
     4
340
E0
371
    -1
372
    -1
  0
DIMSTYLE
105
ED
330
A
100
AcDbSymbolTableRecord
100
AcDbDimStyleTableRecord
  2
AM_ANSI$SH$7
 70
     0
  4
 mm
 40
2.0
 41
0.119999997317791
 42
0.05
 43
0.5
 44
0.1
 45
0.00000001
 75
     1
 76
     1
 78
     4
 79
     2
140
0.1200000047683716
146
0.7099999453624112
147
0.0599999986588955
176
   256
177
   256
178
     2
284
     4
340
E0
371
    -1
372
    -1
  0
DIMSTYLE
105
EE
330
A
100
AcDbSymbolTableRecord
100
AcDbDimStyleTableRecord
  2
Architectural (ANSI)
 70
     0
 40
2.0
 41
0.0984251946210861
 43
0.2362204724409449
 44
0.125
 45
0.00000001
 46
0.3937007874015748
 78
     3
 79
     3
140
0.1200000047683716
147
0.031496062992126
171
     1
176
   256
177
   256
178
   256
272
     2
274
     1
276
     2
277
     4
284
    12
285
     4
286
    12
340
D6
371
    -1
372
    -1
  0
DIMSTYLE
105
EF
330
A
100
AcDbSymbolTableRecord
100
AcDbDimStyleTableRecord
  2
Architectural (ANSI)$7
 70
     0
 40
2.0
 41
0.0984251946210861
 43
0.2362204724409449
 44
0.125
 45
0.00000001
 46
0.3937007874015748
 78
     3
 79
     3
140
0.1200000047683716
147
0.031496062992126
171
     1
176
   256
177
   256
178
   256
272
     2
274
     1
276
     2
277
     4
284
    12
285
     4
286
    12
340
D6
371
    -1
372
    -1
  0
DIMSTYLE
105
F0
330
A
100
AcDbSymbolTableRecord
100
AcDbDimStyleTableRecord
  2
Default - Fraction (ANSI)
 70
     0
 40
2.0
 41
0.0984251946210861
 43
0.2362204724409449
 44
0.125
 45
0.00000001
 46
0.3937007874015748
 79
     3
140
0.1200000047683716
147
0.031496062992126
171
     1
176
   256
177
   256
178
   256
272
     2
274
     1
276
     2
277
     5
284
    12
285
     4
286
    12
340
D6
371
    -1
372
    -1
  0
DIMSTYLE
105
F1
330
A
100
AcDbSymbolTableRecord
100
AcDbDimStyleTableRecord
  2
Default - Fraction (ANSI)$7
 70
     0
 40
2.0
 41
0.0984251946210861
 43
0.2362204724409449
 44
0.125
 45
0.00000001
 46
0.3937007874015748
 79
     3
140
0.1200000047683716
147
0.031496062992126
171
     1
176
   256
177
   256
178
   256
272
     2
274
     1
276
     2
277
     5
284
    12
285
     4
286
    12
340
D6
371
    -1
372
    -1
  0
DIMSTYLE
105
F2
330
A
100
AcDbSymbolTableRecord
100
AcDbDimStyleTableRecord
  2
Default - mm (ANSI)
 70
     0
 40
2.0
 41
0.0984251946210861
 42
0.063
 43
0.2362204724409449
 44
0.125
 45
0.00000001
 46
0.3937007874015748
 73
     0
 78
     4
 79
     1
140
0.1200000047683716
143
1.0
144
25.4
147
0.031496062992126
171
     1
176
   256
177
   256
178
   256
179
     1
271
     2
272
     2
274
     1
284
     4
285
     4
340
D6
371
    -1
372
    -1
  0
DIMSTYLE
105
F3
330
A
100
AcDbSymbolTableRecord
100
AcDbDimStyleTableRecord
  2
Default - mm (ANSI)$7
 70
     0
 40
2.0
 41
0.0984251946210861
 42
0.063
 43
0.2362204724409449
 44
0.125
 45
0.00000001
 46
0.3937007874015748
 73
     0
 78
     4
 79
     1
140
0.1200000047683716
143
1.0
144
25.4
147
0.031496062992126
171
     1
176
   256
177
   256
178
   256
179
     1
271
     2
272
     2
274
     1
284
     4
285
     4
340
D6
371
    -1
372
    -1
  0
DIMSTYLE
105
F4
330
A
100
AcDbSymbolTableRecord
100
AcDbDimStyleTableRecord
  2
Default - mm [in] (ANSI)
 70
     0
  4
 in
 40
2.0
 41
0.0984251946210861
 42
0.063
 43
0.25
 44
0.125
 45
0.00000001
 46
0.3937007874015748
 73
     0
 78
     4
 79
     1
140
0.1200000047683716
143
0.03937
144
25.4
147
0.031496062992126
170
     1
171
     3
176
   256
177
   256
178
   256
179
     1
271
     2
272
     2
274
     3
284
     4
285
     4
286
     4
340
D6
371
    -1
372
    -1
  0
DIMSTYLE
105
F5
330
A
100
AcDbSymbolTableRecord
100
AcDbDimStyleTableRecord
  2
Default - mm [in] (ANSI)$7
 70
     0
  4
 in
 40
2.0
 41
0.0984251946210861
 42
0.063
 43
0.25
 44
0.125
 45
0.00000001
 46
0.3937007874015748
 73
     0
 78
     4
 79
     1
140
0.1200000047683716
143
0.03937
144
25.4
147
0.031496062992126
170
     1
171
     3
176
   256
177
   256
178
   256
179
     1
271
     2
272
     2
274
     3
284
     4
285
     4
286
     4
340
D6
371
    -1
372
    -1
  0
DIMSTYLE
105
F6
102
{ACAD_REACTORS
330
51B
330
605
330
6BF
330
79F
102
}
330
A
100
AcDbSymbolTableRecord
100
AcDbDimStyleTableRecord
  2
Default (ANSI)
 70
     0
 40
2.0
 41
0.0984251946210861
 43
0.2362204724409449
 44
0.125
 45
0.00000001
 46
0.3937007874015748
 79
     1
140
0.1200000047683716
147
0.031496062992126
171
     1
176
   256
177
   256
178
   256
271
     3
272
     2
274
     1
284
     4
285
     4
340
D6
371
    -1
372
    -1
  0
DIMSTYLE
105
F7
330
A
100
AcDbSymbolTableRecord
100
AcDbDimStyleTableRecord
  2
Default (ANSI)$7
 70
     0
 40
2.0
 41
0.0984251946210861
 43
0.2362204724409449
 44
0.125
 45
0.00000001
 46
0.3937007874015748
 79
     1
140
0.1200000047683716
147
0.031496062992126
171
     1
176
   256
177
   256
178
   256
271
     3
272
     2
274
     1
284
     4
285
     4
340
D6
371
    -1
372
    -1
  0
DIMSTYLE
105
F8
102
{ACAD_REACTORS
330
137
330
223
330
30D
330
41D
102
}
330
A
100
AcDbSymbolTableRecord
100
AcDbDimStyleTableRecord
  2
Default (ANSI)-01
 70
     0
 40
2.0
 41
0.0984251946210861
 43
0.2362204724409449
 44
0.125
 45
0.00000001
 46
0.3937007874015748
 79
     1
140
0.1200000047683716
147
0.031496062992126
171
     1
176
   256
177
   256
178
   256
271
     2
272
     2
274
     1
284
     4
285
     4
340
D6
371
    -1
372
    -1
  0
DIMSTYLE
105
F9
330
A
100
AcDbSymbolTableRecord
100
AcDbDimStyleTableRecord
  2
Default (ANSI)-01$7
 70
     0
 40
2.0
 41
0.0984251946210861
 43
0.2362204724409449
 44
0.125
 45
0.00000001
 46
0.3937007874015748
 79
     1
140
0.1200000047683716
147
0.031496062992126
171
     1
176
   256
177
   256
178
   256
271
     2
272
     2
274
     1
284
     4
285
     4
340
D6
371
    -1
372
    -1
  0
DIMSTYLE
105
FA
330
A
100
AcDbSymbolTableRecord
100
AcDbDimStyleTableRecord
  2
Alternate (ANSI)
 70
     0
 40
2.0
 41
0.0979999974370003
340
55
342
FB
  0
DIMSTYLE
105
10D
330
A
100
AcDbSymbolTableRecord
100
AcDbDimStyleTableRecord
  2
Datum (ANSI)
 70
     0
 40
2.0
 41
0.0979999974370003
340
55
342
FB
  0
DIMSTYLE
105
11C
330
A
100
AcDbSymbolTableRecord
100
AcDbDimStyleTableRecord
  2
Large (ANSI)
 70
     0
 40
2.0
 41
0.1959999948740005
340
55
342
FB
  0
ENDTAB
  0
TABLE
  2
BLOCK_RECORD
  5
1
330
0
100
AcDbSymbolTable
 70
    12
  0
BLOCK_RECORD
  5
6C
330
1
100
AcDbSymbolTableRecord
100
AcDbBlockTableRecord
  2
*Model_Space
340
6F
  0
BLOCK_RECORD
  5
68
330
1
100
AcDbSymbolTableRecord
100
AcDbBlockTableRecord
  2
*Paper_Space
340
6B
  0
BLOCK_RECORD
  5
70
330
1
100
AcDbSymbolTableRecord
100
AcDbBlockTableRecord
  2
*Paper_Space0
340
73
  0
BLOCK_RECORD
  5
FB
330
1
100
AcDbSymbolTableRecord
100
AcDbBlockTableRecord
  2
_Closed
340
0
  0
BLOCK_RECORD
  5
102
330
1
100
AcDbSymbolTableRecord
100
AcDbBlockTableRecord
  2
DatumFilled45
340
0
  0
BLOCK_RECORD
  5
10E
330
1
100
AcDbSymbolTableRecord
100
AcDbBlockTableRecord
  2
Filled-1
340
0
  0
BLOCK_RECORD
  5
13A
330
1
100
AcDbSymbolTableRecord
100
AcDbBlockTableRecord
  2
*D4
340
0
  0
BLOCK_RECORD
  5
224
330
1
100
AcDbSymbolTableRecord
100
AcDbBlockTableRecord
  2
*D5
340
0
  0
BLOCK_RECORD
  5
30E
330
1
100
AcDbSymbolTableRecord
100
AcDbBlockTableRecord
  2
*D6
340
0
  0
BLOCK_RECORD
  5
41E
330
1
100
AcDbSymbolTableRecord
100
AcDbBlockTableRecord
  2
*D7
340
0
  0
BLOCK_RECORD
  5
51C
330
1
100
AcDbSymbolTableRecord
100
AcDbBlockTableRecord
  2
*D8
340
0
  0
BLOCK_RECORD
  5
606
330
1
100
AcDbSymbolTableRecord
100
AcDbBlockTableRecord
  2
*D9
340
0
  0
BLOCK_RECORD
  5
6C0
330
1
100
AcDbSymbolTableRecord
100
AcDbBlockTableRecord
  2
*D10
340
0
  0
BLOCK_RECORD
  5
7A0
330
1
100
AcDbSymbolTableRecord
100
AcDbBlockTableRecord
  2
*D11
340
0
  0
ENDTAB
  0
ENDSEC
  0
SECTION
  2
BLOCKS
  0
BLOCK
  5
6D
330
6C
100
AcDbEntity
  8
0
100
AcDbBlockBegin
  2
*Model_Space
 70
     0
 10
0.0
 20
0.0
 30
0.0
  3
*Model_Space
  1

  0
ENDBLK
  5
6E
330
6C
100
AcDbEntity
  8
0
100
AcDbBlockEnd
  0
BLOCK
  5
69
330
68
100
AcDbEntity
 67
     1
  8
0
100
AcDbBlockBegin
  2
*Paper_Space
 70
     0
 10
0.0
 20
0.0
 30
0.0
  3
*Paper_Space
  1

  0
ENDBLK
  5
6A
330
68
100
AcDbEntity
 67
     1
  8
0
100
AcDbBlockEnd
  0
BLOCK
  5
71
330
70
100
AcDbEntity
 67
     1
  8
0
100
AcDbBlockBegin
  2
*Paper_Space0
 70
     0
 10
0.0
 20
0.0
 30
0.0
  3
*Paper_Space0
  1

  0
ENDBLK
  5
72
330
70
100
AcDbEntity
 67
     1
  8
0
100
AcDbBlockEnd
  0
BLOCK
  5
100
330
FB
100
AcDbEntity
  8
0
100
AcDbBlockBegin
  2
_Closed
 70
     0
 10
0.0
 20
0.0
 30
0.0
  3
_Closed
  1

  0
LINE
  5
FC
330
FB
100
AcDbEntity
  8
0
  6
ByBlock
 62
     0
370
    -2
100
AcDbLine
 10
-1.0
 20
0.1666666666666666
 30
0.0
 11
0.0
 21
0.0
 31
0.0
  0
LINE
  5
FD
330
FB
100
AcDbEntity
  8
0
  6
ByBlock
 62
     0
370
    -2
100
AcDbLine
 10
0.0
 20
0.0
 30
0.0
 11
-1.0
 21
-0.1666666666666666
 31
0.0
  0
LINE
  5
FE
330
FB
100
AcDbEntity
  8
0
  6
ByBlock
 62
     0
370
    -2
100
AcDbLine
 10
-1.0
 20
0.1666666666666666
 30
0.0
 11
-1.0
 21
-0.1666666666666666
 31
0.0
  0
LINE
  5
FF
330
FB
100
AcDbEntity
  8
0
  6
ByBlock
 62
     0
370
    -2
100
AcDbLine
 10
0.0
 20
0.0
 30
0.0
 11
-1.0
 21
0.0
 31
0.0
  0
ENDBLK
  5
101
330
FB
100
AcDbEntity
  8
0
100
AcDbBlockEnd
  0
BLOCK
  5
103
330
102
100
AcDbEntity
  8
0
100
AcDbBlockBegin
  2
DatumFilled45
 70
     0
 10
0.0
 20
0.0
 30
0.0
  3
DatumFilled45
  1

  0
POLYLINE
  5
105
330
102
100
AcDbEntity
  8
0
 62
     0
100
AcDb2dPolyline
 66
     1
 10
0.0
 20
0.0
 30
0.0
 70
   128
  0
VERTEX
  5
106
330
105
100
AcDbEntity
  8
0
 62
     0
100
AcDbVertex
100
AcDb2dVertex
 10
0.0
 20
0.9999999999999998
 30
0.0
  0
VERTEX
  5
107
330
105
100
AcDbEntity
  8
0
 62
     0
100
AcDbVertex
100
AcDb2dVertex
 10
0.0
 20
-0.9999999999999998
 30
0.0
  0
VERTEX
  5
109
330
105
100
AcDbEntity
  8
0
 62
     0
100
AcDbVertex
100
AcDb2dVertex
 10
-0.9999999999999998
 20
0.0
 30
0.0
  0
VERTEX
  5
10A
330
105
100
AcDbEntity
  8
0
 62
     0
100
AcDbVertex
100
AcDb2dVertex
 10
0.0
 20
0.9999999999999998
 30
0.0
  0
SEQEND
  5
108
330
105
100
AcDbEntity
  8
0
 62
     0
  0
SOLID
  5
10C
330
102
100
AcDbEntity
  8
0
 62
     0
100
AcDbTrace
 10
0.0
 20
0.9999999999999998
 30
0.0
 11
0.0
 21
-0.9999999999999998
 31
0.0
 12
-0.9999999999999998
 22
0.0
 32
0.0
 13
0.0
 23
0.9999999999999998
 33
0.0
  0
ENDBLK
  5
104
330
102
100
AcDbEntity
  8
0
100
AcDbBlockEnd
  0
BLOCK
  5
10F
330
10E
100
AcDbEntity
  8
0
100
AcDbBlockBegin
  2
Filled-1
 70
     0
 10
0.0
 20
0.0
 30
0.0
  3
Filled-1
  1

  0
LINE
  5
111
330
10E
100
AcDbEntity
  8
0
 62
     0
100
AcDbLine
 10
-0.9999999999999998
 20
0.0
 30
0.0
 11
0.0
 21
0.0
 31
0.0
  0
POLYLINE
  5
112
330
10E
100
AcDbEntity
  8
0
 62
     0
100
AcDb2dPolyline
 66
     1
 10
0.0
 20
0.0
 30
0.0
 70
   128
  0
VERTEX
  5
113
330
112
100
AcDbEntity
  8
0
 62
     0
100
AcDbVertex
100
AcDb2dVertex
 10
-0.9999999999999998
 20
-0.0994897959183674
 30
0.0
  0
VERTEX
  5
114
330
112
100
AcDbEntity
  8
0
 62
     0
100
AcDbVertex
100
AcDb2dVertex
 10
0.0
 20
0.0
 30
0.0
  0
VERTEX
  5
116
330
112
100
AcDbEntity
  8
0
 62
     0
100
AcDbVertex
100
AcDb2dVertex
 10
-0.9999999999999998
 20
0.0994897959183674
 30
0.0
  0
VERTEX
  5
117
330
112
100
AcDbEntity
  8
0
 62
     0
100
AcDbVertex
100
AcDb2dVertex
 10
-0.9999999999999998
 20
-0.0994897959183674
 30
0.0
  0
SEQEND
  5
115
330
112
100
AcDbEntity
  8
0
 62
     0
  0
SOLID
  5
118
330
10E
100
AcDbEntity
  8
0
 62
     0
100
AcDbTrace
 10
-0.9999999999999998
 20
-0.0994897959183674
 30
0.0
 11
0.0
 21
0.0
 31
0.0
 12
-0.9999999999999998
 22
0.0994897959183674
 32
0.0
 13
-0.9999999999999998
 23
-0.0994897959183674
 33
0.0
  0
LINE
  5
119
330
10E
100
AcDbEntity
  8
0
 62
     0
100
AcDbLine
 10
-0.9999999999999998
 20
-0.0994897959183674
 30
0.0
 11
0.0
 21
0.0
 31
0.0
  0
LINE
  5
11A
330
10E
100
AcDbEntity
  8
0
 62
     0
100
AcDbLine
 10
0.0
 20
0.0
 30
0.0
 11
-0.9999999999999998
 21
0.0994897959183674
 31
0.0
  0
LINE
  5
11B
330
10E
100
AcDbEntity
  8
0
 62
     0
100
AcDbLine
 10
-0.9999999999999998
 20
0.0994897959183674
 30
0.0
 11
-0.9999999999999998
 21
-0.0994897959183674
 31
0.0
  0
ENDBLK
  5
110
330
10E
100
AcDbEntity
  8
0
100
AcDbBlockEnd
  0
BLOCK
  5
13B
330
13A
100
AcDbEntity
  8
0
100
AcDbBlockBegin
  2
*D4
 70
     1
 10
0.0
 20
0.0
 30
0.0
  3
*D4
  1

  0
LINE
  5
219
330
13A
100
AcDbEntity
  8
Dimension (ANSI)
100
AcDbLine
 10
12.23328940380017
 20
8.689045784710506
 30
0.0
 11
12.23328940380017
 21
4.941998540616018
 31
0.0
  0
LINE
  5
21A
330
13A
100
AcDbEntity
  8
Dimension (ANSI)
100
AcDbLine
 10
7.353289403800173
 20
8.689045784710506
 30
0.0
 11
7.353289403800173
 21
4.941998540616018
 31
0.0
  0
LINE
  5
21B
330
13A
100
AcDbEntity
  8
Dimension (ANSI)
100
AcDbLine
 10
12.036439014558
 20
5.191998540616018
 30
0.0
 11
10.16736280473803
 21
5.191998540616018
 31
0.0
  0
LINE
  5
21C
330
13A
100
AcDbEntity
  8
Dimension (ANSI)
100
AcDbLine
 10
7.550139793042346
 20
5.191998540616018
 30
0.0
 11
9.41921600286232
 21
5.191998540616018
 31
0.0
  0
SOLID
  5
21D
330
13A
100
AcDbEntity
  8
Dimension (ANSI)
100
AcDbTrace
 10
12.036439014558
 20
5.224806938823046
 30
0.0
 11
12.036439014558
 21
5.15919014240899
 31
0.0
 12
12.23328940380017
 22
5.191998540616018
 32
0.0
 13
12.23328940380017
 23
5.191998540616018
 33
0.0
  0
SOLID
  5
21E
330
13A
100
AcDbEntity
  8
Dimension (ANSI)
100
AcDbTrace
 10
7.550139793042346
 20
5.224806938823046
 30
0.0
 11
7.550139793042346
 21
5.15919014240899
 31
0.0
 12
7.353289403800173
 22
5.191998540616018
 32
0.0
 13
7.353289403800173
 23
5.191998540616018
 33
0.0
  0
MTEXT
  5
21F
330
13A
100
AcDbEntity
  8
Dimension (ANSI)
100
AcDbMText
 10
9.482208128846572
 20
5.317478733647821
 30
0.0
 40
0.2400000095367432
 41
0.0
 71
     1
 72
     1
  1
\A1;4.88
  7
Note Text (ANSI)
 73
     1
 44
1.0
1001
ACAD
1000
MTEXTBEGIN
1070
    73
1070
     1
1070
    44
1040
1.0
1070
    74
1070
     0
1000
MTEXTEND
  0
POINT
  5
220
330
13A
100
AcDbEntity
  8
Defpoints
 62
     0
100
AcDbPoint
 10
12.23328940380017
 20
8.814045784710506
 30
0.0
  0
POINT
  5
221
330
13A
100
AcDbEntity
  8
Defpoints
 62
     0
100
AcDbPoint
 10
7.353289403800173
 20
8.814045784710506
 30
0.0
  0
POINT
  5
222
330
13A
100
AcDbEntity
  8
Defpoints
 62
     0
100
AcDbPoint
 10
7.353289403800173
 20
5.191998540616018
 30
0.0
  0
ENDBLK
  5
13C
330
13A
100
AcDbEntity
  8
0
100
AcDbBlockEnd
  0
BLOCK
  5
225
330
224
100
AcDbEntity
  8
0
100
AcDbBlockBegin
  2
*D5
 70
     1
 10
0.0
 20
0.0
 30
0.0
  3
*D5
  1

  0
LINE
  5
303
330
224
100
AcDbEntity
  8
Dimension (ANSI)
100
AcDbLine
 10
7.228289403800173
 20
8.814045784710506
 30
0.0
 11
4.426124049469466
 21
8.814045784710506
 31
0.0
  0
LINE
  5
304
330
224
100
AcDbEntity
  8
Dimension (ANSI)
100
AcDbLine
 10
7.228289403800169
 20
19.6940457847105
 30
0.0
 11
4.426124049469469
 21
19.6940457847105
 31
0.0
  0
LINE
  5
305
330
224
100
AcDbEntity
  8
Dimension (ANSI)
100
AcDbLine
 10
4.676124049469466
 20
9.010896173952678
 30
0.0
 11
4.676124049469468
 21
14.06557346569445
 31
0.0
  0
LINE
  5
306
330
224
100
AcDbEntity
  8
Dimension (ANSI)
100
AcDbLine
 10
4.676124049469469
 20
19.49719539546833
 30
0.0
 11
4.676124049469468
 21
14.44251810372656
 31
0.0
  0
SOLID
  5
307
330
224
100
AcDbEntity
  8
Dimension (ANSI)
100
AcDbTrace
 10
4.643315651262438
 20
9.010896173952678
 30
0.0
 11
4.708932447676494
 21
9.010896173952678
 31
0.0
 12
4.676124049469466
 22
8.814045784710506
 32
0.0
 13
4.676124049469466
 23
8.814045784710506
 33
0.0
  0
SOLID
  5
308
330
224
100
AcDbEntity
  8
Dimension (ANSI)
100
AcDbTrace
 10
4.64331565126244
 20
19.49719539546833
 30
0.0
 11
4.708932447676497
 21
19.49719539546833
 31
0.0
 12
4.676124049469469
 22
19.6940457847105
 32
0.0
 13
4.676124049469469
 23
19.6940457847105
 33
0.0
  0
MTEXT
  5
309
330
224
100
AcDbEntity
  8
Dimension (ANSI)
100
AcDbMText
 10
4.289931958905303
 20
14.37952597774231
 30
0.0
 40
0.2400000095367432
 41
0.0
 71
     1
 72
     1
  1
\A1;10.88
  7
Note Text (ANSI)
 73
     1
 44
1.0
1001
ACAD
1000
MTEXTBEGIN
1070
    73
1070
     1
1070
    44
1040
1.0
1070
    74
1070
     0
1000
MTEXTEND
  0
POINT
  5
30A
330
224
100
AcDbEntity
  8
Defpoints
 62
     0
100
AcDbPoint
 10
7.353289403800173
 20
8.814045784710506
 30
0.0
  0
POINT
  5
30B
330
224
100
AcDbEntity
  8
Defpoints
 62
     0
100
AcDbPoint
 10
7.353289403800169
 20
19.6940457847105
 30
0.0
  0
POINT
  5
30C
330
224
100
AcDbEntity
  8
Defpoints
 62
     0
100
AcDbPoint
 10
4.676124049469469
 20
19.6940457847105
 30
0.0
  0
ENDBLK
  5
226
330
224
100
AcDbEntity
  8
0
100
AcDbBlockEnd
  0
BLOCK
  5
30F
330
30E
100
AcDbEntity
  8
0
100
AcDbBlockBegin
  2
*D6
 70
     1
 10
0.0
 20
0.0
 30
0.0
  3
*D6
  1

  0
LINE
  5
412
330
30E
100
AcDbEntity
  8
Dimension (ANSI)
100
AcDbLine
 10
7.228289403800173
 20
8.814045784710506
 30
0.0
 11
6.507944128350486
 21
8.814045784710506
 31
0.0
  0
LINE
  5
413
330
30E
100
AcDbEntity
  8
Dimension (ANSI)
100
AcDbLine
 10
7.400789403800174
 20
9.127045784710503
 30
0.0
 11
6.507944128350486
 21
9.127045784710503
 31
0.0
  0
LINE
  5
414
330
30E
100
AcDbEntity
  8
Dimension (ANSI)
100
AcDbLine
 10
6.757944128350486
 20
9.323896173952675
 30
0.0
 11
6.757944128350486
 21
9.520746563194848
 31
0.0
  0
LINE
  5
415
330
30E
100
AcDbEntity
  8
Dimension (ANSI)
100
AcDbLine
 10
6.757944128350486
 20
8.617195395468334
 30
0.0
 11
6.757944128350486
 21
7.869508015440726
 31
0.0
  0
LINE
  5
416
330
30E
100
AcDbEntity
  8
Dimension (ANSI)
100
AcDbLine
 10
6.757944128350486
 20
7.869508015440726
 30
0.0
 11
6.561093739108314
 21
7.869508015440726
 31
0.0
  0
SOLID
  5
417
330
30E
100
AcDbEntity
  8
Dimension (ANSI)
100
AcDbTrace
 10
6.725135730143458
 20
9.323896173952675
 30
0.0
 11
6.790752526557515
 21
9.323896173952675
 31
0.0
 12
6.757944128350486
 22
9.127045784710503
 32
0.0
 13
6.757944128350486
 23
9.127045784710503
 33
0.0
  0
SOLID
  5
418
330
30E
100
AcDbEntity
  8
Dimension (ANSI)
100
AcDbTrace
 10
6.725135730143458
 20
8.617195395468334
 30
0.0
 11
6.790752526557515
 21
8.617195395468334
 31
0.0
 12
6.757944128350486
 22
8.814045784710506
 32
0.0
 13
6.757944128350486
 23
8.814045784710506
 33
0.0
  0
MTEXT
  5
419
330
30E
100
AcDbEntity
  8
Dimension (ANSI)
100
AcDbMText
 10
6.181056603883783
 20
7.869508015440728
 30
0.0
 40
0.2400000095367432
 41
0.0
 71
     5
 72
     1
  1
\A1;0.31{\PTYP.}
  7
Note Text (ANSI)
 73
     1
 44
1.0
1001
ACAD
1000
MTEXTBEGIN
1070
    73
1070
     1
1070
    44
1040
1.0
1070
    74
1070
     0
1000
MTEXTEND
  0
POINT
  5
41A
330
30E
100
AcDbEntity
  8
Defpoints
 62
     0
100
AcDbPoint
 10
7.353289403800173
 20
8.814045784710506
 30
0.0
  0
POINT
  5
41B
330
30E
100
AcDbEntity
  8
Defpoints
 62
     0
100
AcDbPoint
 10
7.525789403800174
 20
9.127045784710503
 30
0.0
  0
POINT
  5
41C
330
30E
100
AcDbEntity
  8
Defpoints
 62
     0
100
AcDbPoint
 10
6.757944128350486
 20
9.127045784710503
 30
0.0
  0
ENDBLK
  5
310
330
30E
100
AcDbEntity
  8
0
100
AcDbBlockEnd
  0
BLOCK
  5
41F
330
41E
100
AcDbEntity
  8
0
100
AcDbBlockBegin
  2
*D7
 70
     1
 10
0.0
 20
0.0
 30
0.0
  3
*D7
  1

  0
LINE
  5
511
330
41E
100
AcDbEntity
  8
Dimension (ANSI)
100
AcDbLine
 10
7.353289403800173
 20
8.689045784710506
 30
0.0
 11
7.353289403800173
 21
6.398691454001845
 31
0.0
  0
LINE
  5
512
330
41E
100
AcDbEntity
  8
Dimension (ANSI)
100
AcDbLine
 10
7.666289403800174
 20
8.893045784710503
 30
0.0
 11
7.666289403800174
 21
6.398691454001845
 31
0.0
  0
LINE
  5
513
330
41E
100
AcDbEntity
  8
Dimension (ANSI)
100
AcDbLine
 10
7.863139793042346
 20
6.648691454001845
 30
0.0
 11
8.059990182284519
 21
6.648691454001845
 31
0.0
  0
LINE
  5
514
330
41E
100
AcDbEntity
  8
Dimension (ANSI)
100
AcDbLine
 10
7.156439014558001
 20
6.648691454001845
 30
0.0
 11
6.605013491713072
 21
6.648691454001845
 31
0.0
  0
SOLID
  5
515
330
41E
100
AcDbEntity
  8
Dimension (ANSI)
100
AcDbTrace
 10
7.863139793042346
 20
6.681499852208873
 30
0.0
 11
7.863139793042346
 21
6.615883055794816
 31
0.0
 12
7.666289403800174
 22
6.648691454001845
 32
0.0
 13
7.666289403800174
 23
6.648691454001845
 33
0.0
  0
SOLID
  5
516
330
41E
100
AcDbEntity
  8
Dimension (ANSI)
100
AcDbTrace
 10
7.156439014558001
 20
6.681499852208873
 30
0.0
 11
7.156439014558001
 21
6.615883055794816
 31
0.0
 12
7.353289403800173
 22
6.648691454001845
 32
0.0
 13
7.353289403800173
 23
6.648691454001845
 33
0.0
  0
MTEXT
  5
517
330
41E
100
AcDbEntity
  8
Dimension (ANSI)
100
AcDbMText
 10
6.224976356488542
 20
6.648691454001845
 30
0.0
 40
0.2400000095367432
 41
0.0
 71
     5
 72
     1
  1
\A1;0.31{\PTYP.}
  7
Note Text (ANSI)
 73
     1
 44
1.0
1001
ACAD
1000
MTEXTBEGIN
1070
    73
1070
     1
1070
    44
1040
1.0
1070
    74
1070
     0
1000
MTEXTEND
  0
POINT
  5
518
330
41E
100
AcDbEntity
  8
Defpoints
 62
     0
100
AcDbPoint
 10
7.353289403800173
 20
8.814045784710506
 30
0.0
  0
POINT
  5
519
330
41E
100
AcDbEntity
  8
Defpoints
 62
     0
100
AcDbPoint
 10
7.666289403800174
 20
9.018045784710503
 30
0.0
  0
POINT
  5
51A
330
41E
100
AcDbEntity
  8
Defpoints
 62
     0
100
AcDbPoint
 10
7.666289403800174
 20
6.648691454001845
 30
0.0
  0
ENDBLK
  5
420
330
41E
100
AcDbEntity
  8
0
100
AcDbBlockEnd
  0
BLOCK
  5
51D
330
51C
100
AcDbEntity
  8
0
100
AcDbBlockBegin
  2
*D8
 70
     1
 10
0.0
 20
0.0
 30
0.0
  3
*D8
  1

  0
LINE
  5
5FB
330
51C
100
AcDbEntity
  8
Dimension (ANSI)
100
AcDbLine
 10
7.666289403800174
 20
8.893045784710503
 30
0.0
 11
7.666289403800174
 21
6.398691454001842
 31
0.0
  0
LINE
  5
5FC
330
51C
100
AcDbEntity
  8
Dimension (ANSI)
100
AcDbLine
 10
8.666289403800174
 20
8.877045784710505
 30
0.0
 11
8.666289403800174
 21
6.398691454001842
 31
0.0
  0
LINE
  5
5FD
330
51C
100
AcDbEntity
  8
Dimension (ANSI)
100
AcDbLine
 10
7.863139793042346
 20
6.648691454001842
 30
0.0
 11
8.469439014558002
 21
6.648691454001842
 31
0.0
  0
LINE
  5
5FE
330
51C
100
AcDbEntity
  8
Dimension (ANSI)
100
AcDbLine
 10
8.666289403800174
 20
6.648691454001842
 30
0.0
 11
9.022074304617637
 21
6.648691454001842
 31
0.0
  0
SOLID
  5
5FF
330
51C
100
AcDbEntity
  8
Dimension (ANSI)
100
AcDbTrace
 10
7.863139793042346
 20
6.681499852208871
 30
0.0
 11
7.863139793042346
 21
6.615883055794814
 31
0.0
 12
7.666289403800174
 22
6.648691454001842
 32
0.0
 13
7.666289403800174
 23
6.648691454001842
 33
0.0
  0
SOLID
  5
600
330
51C
100
AcDbEntity
  8
Dimension (ANSI)
100
AcDbTrace
 10
8.469439014558002
 20
6.681499852208871
 30
0.0
 11
8.469439014558002
 21
6.615883055794814
 31
0.0
 12
8.666289403800174
 22
6.648691454001842
 32
0.0
 13
8.666289403800174
 23
6.648691454001842
 33
0.0
  0
MTEXT
  5
601
330
51C
100
AcDbEntity
  8
Dimension (ANSI)
100
AcDbMText
 10
9.085066430601889
 20
6.773607510006527
 30
0.0
 40
0.2400000095367432
 41
0.0
 71
     1
 72
     1
  1
\A1;1.000
  7
Note Text (ANSI)
 73
     1
 44
1.0
1001
ACAD
1000
MTEXTBEGIN
1070
    73
1070
     1
1070
    44
1040
1.0
1070
    74
1070
     0
1000
MTEXTEND
  0
POINT
  5
602
330
51C
100
AcDbEntity
  8
Defpoints
 62
     0
100
AcDbPoint
 10
7.666289403800174
 20
9.018045784710503
 30
0.0
  0
POINT
  5
603
330
51C
100
AcDbEntity
  8
Defpoints
 62
     0
100
AcDbPoint
 10
8.666289403800174
 20
9.002045784710505
 30
0.0
  0
POINT
  5
604
330
51C
100
AcDbEntity
  8
Defpoints
 62
     0
100
AcDbPoint
 10
8.666289403800174
 20
6.648691454001842
 30
0.0
  0
ENDBLK
  5
51E
330
51C
100
AcDbEntity
  8
0
100
AcDbBlockEnd
  0
BLOCK
  5
607
330
606
100
AcDbEntity
  8
0
100
AcDbBlockBegin
  2
*D9
 70
     1
 10
0.0
 20
0.0
 30
0.0
  3
*D9
  1

  0
LINE
  5
6B7
330
606
100
AcDbEntity
  8
Dimension (ANSI)
100
AcDbLine
 10
10.66455639838684
 20
8.115770943865246
 30
0.0
 11
10.41786880856071
 21
8.115770943865246
 31
0.0
  0
LINE
  5
6B8
330
606
100
AcDbEntity
  8
Dimension (ANSI)
100
AcDbLine
 10
10.41786880856071
 20
8.115770943865246
 30
0.0
 11
8.945020017101821
 21
8.966120590089445
 31
0.0
  0
MTEXT
  5
6B9
102
{ACAD_XDICTIONARY
360
8E3
102
}
330
606
100
AcDbEntity
  8
Dimension (ANSI)
100
AcDbMText
 10
10.7275485243711
 20
8.294074062658458
 30
0.0
 40
0.2400000095367432
 41
0.0
 71
     1
 72
     1
  1
\A1;\U+22050.250{\PGROUND\P HOLE}
  7
Note Text (ANSI)
 73
     1
 44
1.0
1001
ACAD
1000
MTEXTBEGIN
1070
    73
1070
     1
1070
    44
1040
1.0
1070
    74
1070
     0
1000
MTEXTEND
  0
SOLID
  5
6BA
330
606
100
AcDbEntity
  8
Dimension (ANSI)
100
AcDbTrace
 10
8.961424216205333
 20
8.994533496394211
 30
0.0
 11
8.928615817998309
 21
8.937707683784683
 31
0.0
 12
8.774542579273235
 22
9.064545784710515
 32
0.0
 13
8.774542579273235
 23
9.064545784710515
 33
0.0
  0
LINE
  5
6BB
330
606
100
AcDbEntity
  8
Dimension (ANSI)
100
AcDbLine
 10
8.486289403800171
 20
9.127045784710503
 30
0.0
 11
8.84628940380017
 21
9.127045784710503
 31
0.0
  0
LINE
  5
6BC
330
606
100
AcDbEntity
  8
Dimension (ANSI)
100
AcDbLine
 10
8.666289403800172
 20
8.947045784710503
 30
0.0
 11
8.666289403800172
 21
9.307045784710503
 31
0.0
  0
POINT
  5
6BD
330
606
100
AcDbEntity
  8
Defpoints
 62
     0
100
AcDbPoint
 10
8.774542579273235
 20
9.064545784710515
 30
0.0
  0
POINT
  5
6BE
330
606
100
AcDbEntity
  8
Defpoints
 62
     0
100
AcDbPoint
 10
8.558036228327111
 20
9.189545784710494
 30
0.0
  0
ENDBLK
  5
608
330
606
100
AcDbEntity
  8
0
100
AcDbBlockEnd
  0
BLOCK
  5
6C1
330
6C0
100
AcDbEntity
  8
0
100
AcDbBlockBegin
  2
*D10
 70
     1
 10
0.0
 20
0.0
 30
0.0
  3
*D10
  1

  0
LINE
  5
75C
330
6C0
100
AcDbEntity
  8
Dimension (ANSI)
100
AcDbLine
 10
13.6365923612367
 20
10.61399672738867
 30
0.0
 11
13.4390679361232
 21
10.61399672738867
 31
0.0
  0
LINE
  5
75D
330
6C0
100
AcDbEntity
  8
Dimension (ANSI)
100
AcDbLine
 10
13.4390679361232
 20
10.61399672738867
 30
0.0
 11
12.16808210718728
 21
9.343290847223119
 31
0.0
  0
MTEXT
  5
75E
330
6C0
100
AcDbEntity
  8
Dimension (ANSI)
100
AcDbMText
 10
13.69958448722095
 20
10.8019439029788
 30
0.0
 40
0.2400000095367432
 41
0.0
 71
     1
 72
     1
  1
\A1; 0.218 X 0.281\POBROUND\PTYP. (4 PL.)
  7
Note Text (ANSI)
 73
     1
 44
1.0
1001
ACAD
1000
MTEXTBEGIN
1070
    73
1070
     1
1070
    44
1040
1.0
1070
    74
1070
     0
1000
MTEXTEND
  0
SOLID
  5
75F
330
6C0
100
AcDbEntity
  8
Dimension (ANSI)
100
AcDbTrace
 10
12.14488562168076
 20
9.366492443139284
 30
0.0
 11
12.19127859269379
 21
9.320089251306953
 31
0.0
 12
12.02887253169028
 22
9.204111934184034
 32
0.0
 13
12.02887253169028
 23
9.204111934184034
 33
0.0
  0
POINT
  5
760
330
6C0
100
AcDbEntity
  8
Defpoints
 62
     0
100
AcDbPoint
 10
12.02887253169028
 20
9.204111934184034
 30
0.0
  0
POINT
  5
761
330
6C0
100
AcDbEntity
  8
Defpoints
 62
     0
100
AcDbPoint
 10
11.95178940380017
 20
9.127045784710503
 30
0.0
  0
ENDBLK
  5
6C2
330
6C0
100
AcDbEntity
  8
0
100
AcDbBlockEnd
  0
BLOCK
  5
7A1
330
7A0
100
AcDbEntity
  8
0
100
AcDbBlockBegin
  2
*D11
 70
     1
 10
0.0
 20
0.0
 30
0.0
  3
*D11
  1

  0
LINE
  5
890
330
7A0
100
AcDbEntity
  8
Dimension (ANSI)
100
AcDbLine
 10
19.13911342533843
 20
18.39416658141714
 30
0.0
 11
18.94226303609626
 21
18.39416658141714
 31
0.0
  0
LINE
  5
891
330
7A0
100
AcDbEntity
  8
Dimension (ANSI)
100
AcDbLine
 10
19.60681420382278
 20
18.39416658141714
 30
0.0
 11
20.01836470107399
 21
18.39416658141714
 31
0.0
  0
SOLID
  5
892
330
7A0
100
AcDbEntity
  8
Dimension (ANSI)
100
AcDbTrace
 10
19.13911342533843
 20
18.42697497962416
 30
0.0
 11
19.13911342533843
 21
18.36135818321011
 31
0.0
 12
19.3359638145806
 22
18.39416658141714
 32
0.0
 13
19.3359638145806
 23
18.39416658141714
 33
0.0
  0
SOLID
  5
893
330
7A0
100
AcDbEntity
  8
Dimension (ANSI)
100
AcDbTrace
 10
19.60681420382278
 20
18.42697497962416
 30
0.0
 11
19.60681420382278
 21
18.36135818321011
 31
0.0
 12
19.40996381458061
 22
18.39416658141714
 32
0.0
 13
19.40996381458061
 23
18.39416658141714
 33
0.0
  0
MTEXT
  5
894
330
7A0
100
AcDbEntity
  8
Dimension (ANSI)
100
AcDbMText
 10
20.08135682705824
 20
18.57152947183182
 30
0.0
 40
0.2400000095367432
 41
0.0
 71
     1
 72
     1
  1
\A1;(0.074){\P14 GA.\PGALV}
  7
Note Text (ANSI)
 73
     1
 44
1.0
1001
ACAD
1000
MTEXTBEGIN
1070
    73
1070
     1
1070
    44
1040
1.0
1070
    74
1070
     0
1000
MTEXTEND
  0
POINT
  5
895
330
7A0
100
AcDbEntity
  8
Defpoints
 62
     0
100
AcDbPoint
 10
19.40996381458061
 20
18.39416658141714
 30
0.0
  0
POINT
  5
896
330
7A0
100
AcDbEntity
  8
Defpoints
 62
     0
100
AcDbPoint
 10
19.3359638145806
 20
18.39416658141714
 30
0.0
  0
POINT
  5
897
330
7A0
100
AcDbEntity
  8
Defpoints
 62
     0
100
AcDbPoint
 10
19.3359638145806
 20
18.39416658141714
 30
0.0
  0
ENDBLK
  5
7A2
330
7A0
100
AcDbEntity
  8
0
100
AcDbBlockEnd
  0
ENDSEC
  0
SECTION
  2
ENTITIES
  0
CIRCLE
  5
11D
330
6C
100
AcDbEntity
  8
Visible (ANSI)
100
AcDbCircle
 10
8.666289403800174
 20
9.127045784710507
 30
0.0
 40
0.125
  0
LINE
  5
11E
330
6C
100
AcDbEntity
  8
Visible (ANSI)
100
AcDbLine
 10
7.634789403800174
 20
9.236045784710505
 30
0.0
 11
7.697789403800173
 21
9.236045784710505
 31
0.0
  0
ARC
  5
11F
330
6C
100
AcDbEntity
  8
Visible (ANSI)
100
AcDbCircle
 10
7.634789403800174
 20
9.127045784710505
 30
0.0
 40
0.109
100
AcDbArc
 50
90.0
 51
270.0
  0
LINE
  5
120
330
6C
100
AcDbEntity
  8
Visible (ANSI)
100
AcDbLine
 10
7.697789403800174
 20
9.018045784710505
 30
0.0
 11
7.634789403800174
 21
9.018045784710505
 31
0.0
  0
ARC
  5
121
330
6C
100
AcDbEntity
  8
Visible (ANSI)
100
AcDbCircle
 10
7.697789403800174
 20
9.127045784710505
 30
0.0
 40
0.1090000000000001
100
AcDbArc
 50
270.0
 51
90.0
  0
LINE
  5
122
330
6C
100
AcDbEntity
  8
Visible (ANSI)
100
AcDbLine
 10
11.88878940380017
 20
19.49004578471051
 30
0.0
 11
11.95178940380017
 21
19.49004578471051
 31
0.0
  0
ARC
  5
123
330
6C
100
AcDbEntity
  8
Visible (ANSI)
100
AcDbCircle
 10
11.88878940380017
 20
19.38104578471051
 30
0.0
 40
0.1089999999999997
100
AcDbArc
 50
90.0
 51
270.0
  0
LINE
  5
124
330
6C
100
AcDbEntity
  8
Visible (ANSI)
100
AcDbLine
 10
11.95178940380017
 20
19.27204578471051
 30
0.0
 11
11.88878940380017
 21
19.27204578471051
 31
0.0
  0
ARC
  5
125
330
6C
100
AcDbEntity
  8
Visible (ANSI)
100
AcDbCircle
 10
11.95178940380017
 20
19.38104578471051
 30
0.0
 40
0.1089999999999997
100
AcDbArc
 50
270.0000000000007
 51
90.00000000000072
  0
LINE
  5
126
330
6C
100
AcDbEntity
  8
Visible (ANSI)
100
AcDbLine
 10
11.88878940380017
 20
9.236045784710505
 30
0.0
 11
11.95178940380017
 21
9.236045784710505
 31
0.0
  0
ARC
  5
127
330
6C
100
AcDbEntity
  8
Visible (ANSI)
100
AcDbCircle
 10
11.88878940380017
 20
9.127045784710505
 30
0.0
 40
0.109
100
AcDbArc
 50
90.0
 51
270.0
  0
LINE
  5
128
330
6C
100
AcDbEntity
  8
Visible (ANSI)
100
AcDbLine
 10
11.95178940380017
 20
9.018045784710505
 30
0.0
 11
11.88878940380017
 21
9.018045784710505
 31
0.0
  0
ARC
  5
129
330
6C
100
AcDbEntity
  8
Visible (ANSI)
100
AcDbCircle
 10
11.95178940380017
 20
9.127045784710505
 30
0.0
 40
0.1090000000000002
100
AcDbArc
 50
270.0
 51
90.0
  0
LINE
  5
12A
330
6C
100
AcDbEntity
  8
Visible (ANSI)
100
AcDbLine
 10
7.63478940380017
 20
19.49004578471051
 30
0.0
 11
7.69778940380017
 21
19.49004578471051
 31
0.0
  0
ARC
  5
12B
330
6C
100
AcDbEntity
  8
Visible (ANSI)
100
AcDbCircle
 10
7.634789403800169
 20
19.38104578471051
 30
0.0
 40
0.1089999999999997
100
AcDbArc
 50
90.0
 51
270.0
  0
LINE
  5
12C
330
6C
100
AcDbEntity
  8
Visible (ANSI)
100
AcDbLine
 10
7.69778940380017
 20
19.27204578471051
 30
0.0
 11
7.63478940380017
 21
19.27204578471051
 31
0.0
  0
ARC
  5
12D
330
6C
100
AcDbEntity
  8
Visible (ANSI)
100
AcDbCircle
 10
7.697789403800172
 20
19.38104578471051
 30
0.0
 40
0.1089999999999997
100
AcDbArc
 50
270.0
 51
90.0
  0
LINE
  5
12E
330
6C
100
AcDbEntity
  8
Visible (ANSI)
100
AcDbLine
 10
7.353289403800173
 20
8.814045784710506
 30
0.0
 11
7.353289403800171
 21
19.6940457847105
 31
0.0
  0
LINE
  5
12F
330
6C
100
AcDbEntity
  8
Visible (ANSI)
100
AcDbLine
 10
7.353289403800171
 20
19.6940457847105
 30
0.0
 11
12.23328940380017
 21
19.6940457847105
 31
0.0
  0
LINE
  5
130
330
6C
100
AcDbEntity
  8
Visible (ANSI)
100
AcDbLine
 10
12.23328940380017
 20
19.6940457847105
 30
0.0
 11
12.23328940380017
 21
8.814045784710506
 31
0.0
  0
LINE
  5
131
330
6C
100
AcDbEntity
  8
Visible (ANSI)
100
AcDbLine
 10
12.23328940380017
 20
8.814045784710506
 30
0.0
 11
7.353289403800173
 21
8.814045784710506
 31
0.0
  0
MTEXT
  5
133
330
6C
100
AcDbEntity
  8
Symbol (ANSI)
100
AcDbMText
 10
8.962442485821227
 20
3.609843559007619
 30
0.0
 40
0.2400000029661524
 41
0.0
 71
     7
 72
     1
  1
FRONT VIEW
  7
Text Style150
 73
     1
 44
1.0
1001
ACAD
1000
MTEXTBEGIN
1070
    73
1070
     1
1070
    44
1040
1.0
1070
    74
1070
     0
1000
MTEXTEND
  0
LINE
  5
135
330
6C
100
AcDbEntity
  8
Symbol (ANSI)
370
    30
100
AcDbLine
 10
8.938442424084454
 20
3.56090028425784
 30
0.0
 11
10.86797243265581
 21
3.56090028425784
 31
0.0
  0
MTEXT
  5
136
330
6C
100
AcDbEntity
  8
Symbol (ANSI)
100
AcDbMText
 10
9.82589786919009
 20
3.06847714445197
 30
0.0
 40
0.3599999927160308
 41
0.0
 71
     7
 72
     1
  1
 
  7
Label Text (ANSI)
 73
     1
 44
1.0
1001
ACAD
1000
MTEXTBEGIN
1070
    73
1070
     1
1070
    44
1040
1.0
1070
    74
1070
     0
1000
MTEXTEND
  0
DIMENSION
  5
137
330
6C
100
AcDbEntity
  8
Dimension (ANSI)
100
AcDbDimension
  2
*D4
 10
7.353289403800173
 20
5.191998540616018
 30
0.0
 11
9.793289403800175
 21
5.191998540616018
 31
0.0
 70
   160
  1
<>
 42
4.879999999999999
  3
Default (ANSI)-01
100
AcDbAlignedDimension
 13
12.23328940380017
 23
8.814045784710506
 33
0.0
 14
7.353289403800173
 24
8.814045784710506
 34
0.0
 50
180.0
100
AcDbRotatedDimension
1001
ACAD
1000
DSTYLE
1002
{
1070
   289
1070
     1
1070
    73
1070
     0
1070
    74
1070
     0
1070
   271
1070
     2
1070
   272
1070
     2
1070
    48
1040
0.0
1070
    47
1040
0.0
1002
}
  0
DIMENSION
  5
223
330
6C
100
AcDbEntity
  8
Dimension (ANSI)
100
AcDbDimension
  2
*D5
 10
4.676124049469469
 20
19.6940457847105
 30
0.0
 11
4.676124049469465
 21
14.2540457847105
 31
0.0
 70
   160
  1
<>
 42
10.87999999999999
  3
Default (ANSI)-01
100
AcDbAlignedDimension
 13
7.353289403800173
 23
8.814045784710506
 33
0.0
 14
7.353289403800169
 24
19.6940457847105
 34
0.0
 50
90.0
100
AcDbRotatedDimension
1001
ACAD
1000
DSTYLE
1002
{
1070
   289
1070
     1
1070
   271
1070
     2
1070
   272
1070
     2
1070
    48
1040
0.0
1070
    47
1040
0.0
1002
}
  0
DIMENSION
  5
30D
330
6C
100
AcDbEntity
  8
Dimension (ANSI)
100
AcDbDimension
  2
*D6
 10
6.757944128350486
 20
9.127045784710503
 30
0.0
 11
6.181056603883783
 21
7.869508015440728
 31
0.0
 70
   160
  1
<>{\PTYP.}
 71
     5
 42
0.3129999999999971
  3
Default (ANSI)-01
100
AcDbAlignedDimension
 13
7.353289403800173
 23
8.814045784710506
 33
0.0
 14
7.525789403800174
 24
9.127045784710503
 34
0.0
 50
90.0
100
AcDbRotatedDimension
1001
ACAD
1000
DSTYLE
1002
{
1070
   289
1070
     1
1070
   271
1070
     2
1070
   272
1070
     2
1070
    48
1040
0.0
1070
    47
1040
0.0
1002
}
  0
DIMENSION
  5
41D
330
6C
100
AcDbEntity
  8
Dimension (ANSI)
100
AcDbDimension
  2
*D7
 10
7.666289403800174
 20
6.648691454001845
 30
0.0
 11
6.224976356488542
 21
6.648691454001845
 31
0.0
 70
   160
  1
<>{\PTYP.}
 71
     5
 42
0.3130000000000006
  3
Default (ANSI)-01
100
AcDbAlignedDimension
 13
7.353289403800173
 23
8.814045784710506
 33
0.0
 14
7.666289403800174
 24
9.018045784710503
 34
0.0
 50
180.0
100
AcDbRotatedDimension
1001
ACAD
1000
DSTYLE
1002
{
1070
   289
1070
     1
1070
    73
1070
     0
1070
    74
1070
     0
1070
   271
1070
     2
1070
   272
1070
     2
1070
    48
1040
0.0
1070
    47
1040
0.0
1002
}
  0
DIMENSION
  5
51B
330
6C
100
AcDbEntity
  8
Dimension (ANSI)
100
AcDbDimension
  2
*D8
 10
8.666289403800174
 20
6.648691454001842
 30
0.0
 11
9.470533202131186
 21
6.648691454001842
 31
0.0
 70
   160
  1
<>
  3
Default (ANSI)
100
AcDbAlignedDimension
 13
7.666289403800174
 23
9.018045784710503
 33
0.0
 14
8.666289403800174
 24
9.002045784710505
 34
0.0
 50
180.0
100
AcDbRotatedDimension
1001
ACAD
1000
DSTYLE
1002
{
1070
   289
1070
     2
1070
    73
1070
     0
1070
    74
1070
     0
1070
   271
1070
     3
1070
   272
1070
     2
1070
    48
1040
0.0
1070
    47
1040
0.0
1002
}
  0
DIMENSION
  5
605
330
6C
100
AcDbEntity
  8
Dimension (ANSI)
100
AcDbDimension
  2
*D9
 10
8.558036228327111
 20
9.189545784710494
 30
0.0
 11
11.37678965157996
 21
8.115770943865246
 31
0.0
 70
   163
  1
<>{\PGROUND\P HOLE}
 42
0.25
  3
Default (ANSI)
100
AcDbDiametricDimension
 15
8.774542579273235
 25
9.064545784710515
 35
0.0
 40
0.0
1001
ACAD_DSTYLE_DIMRADIAL_EXTENSION
1070
   387
1070
     1
1070
   388
1040
0.0
1070
   390
1040
0.0
1001
ACAD
1000
DSTYLE
1002
{
1070
   145
1040
-0.3333333333333334
1070
   144
1040
0.9999999999999893
1070
   271
1070
     3
1070
   272
1070
     2
1070
    48
1040
0.0
1070
    47
1040
0.0
1002
}
  0
DIMENSION
  5
6BF
330
6C
100
AcDbEntity
  8
Dimension (ANSI)
100
AcDbDimension
  2
*D10
 10
11.95178940380017
 20
9.127045784710503
 30
0.0
 11
14.75750259507482
 21
10.61399672738867
 31
0.0
 70
   164
  1
 0.218 X 0.281\POBROUND\PTYP. (4 PL.)
 42
0.1089999999999964
  3
Default (ANSI)
100
AcDbRadialDimension
 15
12.02887253169028
 25
9.204111934184034
 35
0.0
 40
0.0
1001
ACAD_DSTYLE_DIMRADIAL_EXTENSION
1070
   387
1070
     1
1070
   388
1040
0.0
1070
   390
1040
0.0
1001
ACAD
1000
DSTYLE
1002
{
1070
   145
1040
-0.3333333333333334
1070
   271
1070
     3
1070
   141
1040
0.0
1070
   272
1070
     2
1070
    48
1040
0.0
1070
    47
1040
0.0
1002
}
  0
MTEXT
  5
762
330
6C
100
AcDbEntity
  8
Symbol (ANSI)
100
AcDbMText
 10
24.3872245636347
 20
5.596333928317742
 30
0.0
 40
0.2400000029661524
 41
7.999284103890119
 71
     1
 72
     1
  1
{\fRomanS|b0|i0;\H0.2400;PART#: P1206G\P(DATA SUBJECT TO CHANGE WITHOUT \PNOTICE)\PTHIS DRAWING AND COMPONENTS OF ARE\PPROPERTY OF HUBBELL INC. WIEGMANN}
  7
Note Text (ANSI)
 73
     2
 44
1.093904256820678
1001
ACAD
1000
MTEXTBEGIN
1070
    73
1070
     2
1070
    44
1040
1.093904256820678
1070
    74
1070
     0
1000
MTEXTEND
  0
ELLIPSE
  5
764
330
6C
100
AcDbEntity
  8
Visible (ANSI)
100
AcDbEllipse
 10
28.50270819568771
 20
10.66935442841124
 30
0.0
 11
0.0499032211584457
 21
-0.0866583436145146
 31
0.0
210
0.0
220
0.0
230
1.0
 40
0.5780931159158106
 41
3.572615253427358
 42
5.852162707341189
  0
ELLIPSE
  5
765
330
6C
100
AcDbEntity
  8
Visible (ANSI)
100
AcDbEllipse
 10
28.46084747424147
 20
10.64524844215473
 30
0.0
 11
-0.0499032211584405
 21
0.0866583436145175
 31
0.0
210
0.0
220
0.0
230
1.0
 40
0.5780931159158106
 41
0.0
 42
6.283185307179586
  0
LINE
  5
766
330
6C
100
AcDbEntity
  8
Visible (ANSI)
100
AcDbLine
 10
27.87734295840625
 20
11.05255645446238
 30
0.0
 11
27.91298114017806
 21
11.03203379048725
 31
0.0
  0
ELLIPSE
  5
767
330
6C
100
AcDbEntity
  8
Visible (ANSI)
100
AcDbEllipse
 10
27.91920367985248
 20
11.00537233143262
 30
0.0
 11
0.0435156088501646
 21
-0.0755660756318566
 31
0.0
210
0.0
220
0.0
230
1.0
 40
0.5780931159158105
 41
3.641254264141313
 42
5.499720852204668
  0
ELLIPSE
  5
768
330
6C
100
AcDbEntity
  8
Visible (ANSI)
100
AcDbEllipse
 10
27.87734295840625
 20
10.98126634517611
 30
0.0
 11
-0.0435156088501556
 21
0.0755660756318619
 31
0.0
210
0.0
220
0.0
230
1.0
 40
0.5780931159158106
 41
5.499720852205195
 42
8.641313505794988
  0
LINE
  5
769
330
6C
100
AcDbEntity
  8
Visible Narrow (ANSI)
100
AcDbLine
 10
27.87734295840625
 20
10.90997623588984
 30
0.0
 11
27.91920367985248
 21
10.93408222214635
 31
0.0
  0
LINE
  5
76A
330
6C
100
AcDbEntity
  8
Visible (ANSI)
100
AcDbLine
 10
27.91920367985248
 20
10.93408222214635
 30
0.0
 11
27.95484186162429
 21
10.91355955817122
 31
0.0
  0
LINE
  5
76B
330
6C
100
AcDbEntity
  8
Visible (ANSI)
100
AcDbLine
 10
27.91298114017806
 20
10.88945357191471
 30
0.0
 11
27.87734295840625
 21
10.90997623588984
 31
0.0
  0
LINE
  5
76C
330
6C
100
AcDbEntity
  8
Visible Narrow (ANSI)
100
AcDbLine
 10
27.91298114017806
 20
10.88945357191471
 30
0.0
 11
27.95484186162429
 21
10.91355955817122
 31
0.0
  0
ELLIPSE
  5
76D
330
6C
100
AcDbEntity
  8
Visible (ANSI)
100
AcDbEllipse
 10
27.95484186162429
 20
10.98484966745749
 30
0.0
 11
0.0435156088501599
 21
-0.0755660756318589
 31
0.0
210
0.0
220
0.0
230
1.0
 40
0.5780931159158105
 41
5.499720852205022
 42
5.783523696627718
  0
ELLIPSE
  5
76E
330
6C
100
AcDbEntity
  8
Visible (ANSI)
100
AcDbEllipse
 10
27.91298114017806
 20
10.96074368120098
 30
0.0
 11
0.0435156088501556
 21
-0.0755660756318619
 31
0.0
210
0.0
220
0.0
230
0.9999999999999998
 40
0.5780931159158106
 41
5.499720852205196
 42
8.64131350579499
  0
LINE
  5
76F
330
6C
100
AcDbEntity
  8
Visible (ANSI)
100
AcDbLine
 10
30.28376875614066
 20
16.37329057579284
 30
0.0
 11
30.31940693791247
 21
16.35276791181771
 31
0.0
  0
ELLIPSE
  5
770
330
6C
100
AcDbEntity
  8
Visible (ANSI)
100
AcDbEllipse
 10
30.3256294775869
 20
16.32610645276308
 30
0.0
 11
0.0435156088501646
 21
-0.0755660756318566
 31
0.0
210
0.0
220
0.0
230
1.0
 40
0.5780931159158106
 41
3.641254264141295
 42
5.499720852204668
  0
ELLIPSE
  5
771
330
6C
100
AcDbEntity
  8
Visible (ANSI)
100
AcDbEllipse
 10
30.28376875614066
 20
16.30200046650657
 30
0.0
 11
-0.0435156088501554
 21
0.0755660756318616
 31
0.0
210
0.0
220
0.0
230
0.9999999999999998
 40
0.5780931159158106
 41
5.499720852205195
 42
8.641313505794988
  0
LINE
  5
772
330
6C
100
AcDbEntity
  8
Visible Narrow (ANSI)
100
AcDbLine
 10
30.28376875614066
 20
16.2307103572203
 30
0.0
 11
30.3256294775869
 21
16.25481634347681
 31
0.0
  0
LINE
  5
773
330
6C
100
AcDbEntity
  8
Visible (ANSI)
100
AcDbLine
 10
30.3256294775869
 20
16.25481634347681
 30
0.0
 11
30.36126765935871
 21
16.23429367950168
 31
0.0
  0
LINE
  5
774
330
6C
100
AcDbEntity
  8
Visible (ANSI)
100
AcDbLine
 10
30.31940693791247
 20
16.21018769324517
 30
0.0
 11
30.28376875614066
 21
16.2307103572203
 31
0.0
  0
LINE
  5
775
330
6C
100
AcDbEntity
  8
Visible Narrow (ANSI)
100
AcDbLine
 10
30.31940693791247
 20
16.21018769324517
 30
0.0
 11
30.36126765935871
 21
16.23429367950168
 31
0.0
  0
ELLIPSE
  5
776
330
6C
100
AcDbEntity
  8
Visible (ANSI)
100
AcDbEllipse
 10
30.36126765935871
 20
16.30558378878796
 30
0.0
 11
0.0435156088501639
 21
-0.0755660756318658
 31
0.0
210
0.0
220
0.0
230
1.0
 40
0.5780931159158106
 41
5.499720852205022
 42
5.783523696627602
  0
ELLIPSE
  5
777
330
6C
100
AcDbEntity
  8
Visible (ANSI)
100
AcDbEllipse
 10
30.31940693791247
 20
16.28147780253144
 30
0.0
 11
0.0435156088501554
 21
-0.0755660756318617
 31
0.0
210
0.0
220
0.0
230
0.9999999999999998
 40
0.5780931159158105
 41
5.499720852205196
 42
8.64131350579499
  0
LINE
  5
778
330
6C
100
AcDbEntity
  8
Visible (ANSI)
100
AcDbLine
 10
30.28376875614066
 20
9.666788001284519
 30
0.0
 11
30.31940693791247
 21
9.646265337309388
 31
0.0
  0
ELLIPSE
  5
779
330
6C
100
AcDbEntity
  8
Visible (ANSI)
100
AcDbEllipse
 10
30.3256294775869
 20
9.619603878254759
 30
0.0
 11
0.0435156088501646
 21
-0.0755660756318567
 31
0.0
210
0.0
220
0.0
230
1.0
 40
0.5780931159158105
 41
3.641254264141313
 42
5.499720852204668
  0
ELLIPSE
  5
77A
330
6C
100
AcDbEntity
  8
Visible (ANSI)
100
AcDbEllipse
 10
30.28376875614066
 20
9.595497891998249
 30
0.0
 11
-0.0435156088501556
 21
0.0755660756318619
 31
0.0
210
0.0
220
0.0
230
1.0
 40
0.5780931159158106
 41
5.499720852205195
 42
8.641313505794988
  0
LINE
  5
77B
330
6C
100
AcDbEntity
  8
Visible Narrow (ANSI)
100
AcDbLine
 10
30.28376875614066
 20
9.524207782711981
 30
0.0
 11
30.3256294775869
 21
9.548313768968489
 31
0.0
  0
LINE
  5
77C
330
6C
100
AcDbEntity
  8
Visible (ANSI)
100
AcDbLine
 10
30.3256294775869
 20
9.548313768968489
 30
0.0
 11
30.36126765935871
 21
9.52779110499336
 31
0.0
  0
LINE
  5
77D
330
6C
100
AcDbEntity
  8
Visible (ANSI)
100
AcDbLine
 10
30.31940693791247
 20
9.50368511873685
 30
0.0
 11
30.28376875614066
 21
9.524207782711981
 31
0.0
  0
LINE
  5
77E
330
6C
100
AcDbEntity
  8
Visible Narrow (ANSI)
100
AcDbLine
 10
30.31940693791247
 20
9.50368511873685
 30
0.0
 11
30.36126765935871
 21
9.52779110499336
 31
0.0
  0
ELLIPSE
  5
77F
330
6C
100
AcDbEntity
  8
Visible (ANSI)
100
AcDbEllipse
 10
30.36126765935871
 20
9.599081214279628
 30
0.0
 11
0.0435156088501605
 21
-0.07556607563186
 31
0.0
210
0.0
220
0.0
230
1.0
 40
0.5780931159158106
 41
5.499720852205022
 42
5.783523696627713
  0
ELLIPSE
  5
780
330
6C
100
AcDbEntity
  8
Visible (ANSI)
100
AcDbEllipse
 10
30.31940693791247
 20
9.574975228023118
 30
0.0
 11
0.0435156088501556
 21
-0.075566075631862
 31
0.0
210
0.0
220
0.0
230
0.9999999999999998
 40
0.5780931159158104
 41
5.499720852205195
 42
8.641313505794988
  0
LINE
  5
781
330
6C
100
AcDbEntity
  8
Visible (ANSI)
100
AcDbLine
 10
27.87734295840625
 20
17.7590590289707
 30
0.0
 11
27.91298114017805
 21
17.73853636499558
 31
0.0
  0
ELLIPSE
  5
782
330
6C
100
AcDbEntity
  8
Visible (ANSI)
100
AcDbEllipse
 10
27.91920367985248
 20
17.71187490594095
 30
0.0
 11
0.0435156088501648
 21
-0.075566075631857
 31
0.0
210
0.0
220
0.0
230
1.0
 40
0.5780931159158105
 41
3.641254264141295
 42
5.499720852204668
  0
ELLIPSE
  5
783
330
6C
100
AcDbEntity
  8
Visible (ANSI)
100
AcDbEllipse
 10
27.87734295840624
 20
17.68776891968444
 30
0.0
 11
-0.0435156088501554
 21
0.0755660756318616
 31
0.0
210
0.0
220
0.0
230
1.0
 40
0.5780931159158105
 41
5.499720852205195
 42
8.641313505794988
  0
LINE
  5
784
330
6C
100
AcDbEntity
  8
Visible Narrow (ANSI)
100
AcDbLine
 10
27.87734295840625
 20
17.61647881039817
 30
0.0
 11
27.91920367985248
 21
17.64058479665468
 31
0.0
  0
LINE
  5
785
330
6C
100
AcDbEntity
  8
Visible (ANSI)
100
AcDbLine
 10
27.91920367985248
 20
17.64058479665468
 30
0.0
 11
27.95484186162429
 21
17.62006213267955
 31
0.0
  0
LINE
  5
786
330
6C
100
AcDbEntity
  8
Visible (ANSI)
100
AcDbLine
 10
27.91298114017805
 20
17.59595614642304
 30
0.0
 11
27.87734295840625
 21
17.61647881039817
 31
0.0
  0
LINE
  5
787
330
6C
100
AcDbEntity
  8
Visible Narrow (ANSI)
100
AcDbLine
 10
27.91298114017805
 20
17.59595614642304
 30
0.0
 11
27.95484186162429
 21
17.62006213267955
 31
0.0
  0
ELLIPSE
  5
788
330
6C
100
AcDbEntity
  8
Visible (ANSI)
100
AcDbEllipse
 10
27.95484186162429
 20
17.69135224196582
 30
0.0
 11
0.0435156088501616
 21
-0.0755660756318619
 31
0.0
210
0.0
220
0.0
230
1.0
 40
0.5780931159158106
 41
5.499720852205022
 42
5.783523696627713
  0
ELLIPSE
  5
789
330
6C
100
AcDbEntity
  8
Visible (ANSI)
100
AcDbEllipse
 10
27.91298114017805
 20
17.6672462557093
 30
0.0
 11
0.0435156088501554
 21
-0.0755660756318616
 31
0.0
210
0.0
220
0.0
230
1.0
 40
0.5780931159158107
 41
5.499720852205195
 42
8.641313505794988
  0
LINE
  5
78A
330
6C
100
AcDbEntity
  8
Visible (ANSI)
100
AcDbLine
 10
27.71810251128301
 20
10.86825301986156
 30
0.0
 11
27.71810251128301
 21
17.98418319449103
 31
0.0
  0
LINE
  5
78B
330
6C
100
AcDbEntity
  8
Visible (ANSI)
100
AcDbLine
 10
27.75996323272925
 20
18.00828918074754
 30
0.0
 11
27.71810251128301
 21
17.98418319449103
 31
0.0
  0
LINE
  5
78C
330
6C
100
AcDbEntity
  8
Visible (ANSI)
100
AcDbLine
 10
27.71810251128301
 20
17.98418319449103
 30
0.0
 11
30.4786473850357
 21
16.39449112784599
 31
0.0
  0
LINE
  5
78D
330
6C
100
AcDbEntity
  8
Visible (ANSI)
100
AcDbLine
 10
30.52050810648194
 20
16.4185971141025
 30
0.0
 11
30.4786473850357
 21
16.39449112784599
 31
0.0
  0
LINE
  5
78E
330
6C
100
AcDbEntity
  8
Visible (ANSI)
100
AcDbLine
 10
30.52050810648194
 20
16.4185971141025
 30
0.0
 11
27.75996323272925
 21
18.00828918074754
 31
0.0
  0
LINE
  5
78F
330
6C
100
AcDbEntity
  8
Visible (ANSI)
100
AcDbLine
 10
30.4786473850357
 20
16.39449112784599
 30
0.0
 11
30.4786473850357
 21
9.278560953216526
 31
0.0
  0
LINE
  5
790
330
6C
100
AcDbEntity
  8
Visible (ANSI)
100
AcDbLine
 10
30.52050810648194
 20
9.302666939473038
 30
0.0
 11
30.4786473850357
 21
9.278560953216526
 31
0.0
  0
LINE
  5
791
330
6C
100
AcDbEntity
  8
Visible (ANSI)
100
AcDbLine
 10
30.52050810648194
 20
9.302666939473038
 30
0.0
 11
30.52050810648194
 21
16.4185971141025
 31
0.0
  0
LINE
  5
792
330
6C
100
AcDbEntity
  8
Visible (ANSI)
100
AcDbLine
 10
30.4786473850357
 20
9.278560953216526
 30
0.0
 11
27.71810251128301
 21
10.86825301986156
 31
0.0
  0
LINE
  5
793
330
6C
100
AcDbEntity
  8
Hidden (ANSI)
 48
0.0703737735748291
100
AcDbLine
 10
19.33596381458052
 20
19.49004578471051
 30
0.0
 11
19.40996381458052
 21
19.49004578471051
 31
0.0
  0
LINE
  5
794
330
6C
100
AcDbEntity
  8
Hidden (ANSI)
 48
0.0703737735748291
100
AcDbLine
 10
19.33596381458052
 20
19.27204578471051
 30
0.0
 11
19.40996381458052
 21
19.27204578471051
 31
0.0
  0
LINE
  5
795
330
6C
100
AcDbEntity
  8
Hidden (ANSI)
 48
0.0703737735748291
100
AcDbLine
 10
19.33596381458052
 20
9.236045784710505
 30
0.0
 11
19.40996381458052
 21
9.236045784710505
 31
0.0
  0
LINE
  5
796
330
6C
100
AcDbEntity
  8
Hidden (ANSI)
 48
0.0703737735748291
100
AcDbLine
 10
19.33596381458052
 20
9.018045784710505
 30
0.0
 11
19.40996381458052
 21
9.018045784710505
 31
0.0
  0
LINE
  5
797
330
6C
100
AcDbEntity
  8
Visible (ANSI)
100
AcDbLine
 10
19.40996381458061
 20
19.6940457847105
 30
0.0
 11
19.3359638145806
 21
19.6940457847105
 31
0.0
  0
LINE
  5
798
330
6C
100
AcDbEntity
  8
Visible (ANSI)
100
AcDbLine
 10
19.3359638145806
 20
19.6940457847105
 30
0.0
 11
19.3359638145806
 21
8.814045784710506
 31
0.0
  0
LINE
  5
799
330
6C
100
AcDbEntity
  8
Visible (ANSI)
100
AcDbLine
 10
19.40996381458061
 20
8.814045784710506
 30
0.0
 11
19.3359638145806
 21
8.814045784710506
 31
0.0
  0
LINE
  5
79A
330
6C
100
AcDbEntity
  8
Visible (ANSI)
100
AcDbLine
 10
19.40996381458061
 20
8.814045784710506
 30
0.0
 11
19.40996381458061
 21
19.6940457847105
 31
0.0
  0
LINE
  5
79B
330
6C
100
AcDbEntity
  8
Hidden (ANSI)
 48
0.0703737735748291
100
AcDbLine
 10
19.40996381457955
 20
9.002045784710505
 30
0.0
 11
19.33596381457955
 21
9.002045784710505
 31
0.0
  0
LINE
  5
79C
330
6C
100
AcDbEntity
  8
Hidden (ANSI)
 48
0.0703737735748291
100
AcDbLine
 10
19.40996381457955
 20
9.252045784710507
 30
0.0
 11
19.33596381457955
 21
9.252045784710507
 31
0.0
  0
MTEXT
  5
79D
330
6C
100
AcDbEntity
  8
Symbol (ANSI)
100
AcDbMText
 10
18.51797848420958
 20
3.682429710198036
 30
0.0
 40
0.2400000029661524
 41
0.0
 71
     7
 72
     1
  1
SIDE VIEW
  7
Text Style150
 73
     1
 44
1.0
1001
ACAD
1000
MTEXTBEGIN
1070
    73
1070
     1
1070
    44
1040
1.0
1070
    74
1070
     0
1000
MTEXTEND
  0
LINE
  5
79E
330
6C
100
AcDbEntity
  8
Symbol (ANSI)
370
    30
100
AcDbLine
 10
18.50569045260035
 20
3.632708477868622
 30
0.0
 11
20.12753809341134
 21
3.632708477868622
 31
0.0
  0
DIMENSION
  5
79F
330
6C
100
AcDbEntity
  8
Dimension (ANSI)
100
AcDbDimension
  2
*D11
 10
19.3359638145806
 20
18.39416658141714
 30
0.0
 11
20.60068525602224
 21
18.39416658141714
 31
0.0
 70
   160
  1
(<>){\P14 GA.\PGALV}
 42
0.0740000000000016
  3
Default (ANSI)
100
AcDbAlignedDimension
 13
19.40996381458061
 23
18.39416658141714
 33
0.0
 14
19.3359638145806
 24
18.39416658141714
 34
0.0
100
AcDbRotatedDimension
1001
ACAD
1000
DSTYLE
1002
{
1070
   289
1070
     1
1070
    73
1070
     0
1070
    74
1070
     0
1070
   145
1040
-0.3333333333333334
1070
   271
1070
     3
1070
    76
1070
     1
1070
    75
1070
     1
1070
   147
1040
0.031496062992126
1070
    72
1070
     0
1070
    71
1070
     0
1070
   272
1070
     2
1070
    48
1040
0.0
1070
    47
1040
0.0
1002
}
  0
ENDSEC
  0
SECTION
  2
OBJECTS
  0
DICTIONARY
  5
C
330
0
100
AcDbDictionary
281
     1
  3
ACAD_CIP_PREVIOUS_PRODUCT_INFO
350
898
  3
ACAD_COLOR
350
63
  3
ACAD_GROUP
350
D
  3
ACAD_LAYOUT
350
62
  3
ACAD_MATERIAL
350
10
  3
ACAD_MLEADERSTYLE
350
66
  3
ACAD_MLINESTYLE
350
5F
  3
ACAD_PLOTSETTINGS
350
61
  3
ACAD_PLOTSTYLENAME
350
E
  3
ACAD_SCALELIST
350
42
  3
ACAD_TABLESTYLE
350
64
  3
ACAD_VISUALSTYLE
350
29
  3
ACDB_RECOMPOSE_DATA
350
8A6
  3
AcDbVariableDictionary
350
76
  3
DWGPROPS
350
8A7
  0
DICTIONARY
  5
8E3
330
6B9
100
AcDbDictionary
280
     1
281
     1
  3
ACAD_MTEXT_RT
360
8E4
  0
XRECORD
  5
898
102
{ACAD_REACTORS
330
C
102
}
330
C
100
AcDbXrecord
280
     1
300
INVNTOR
300
2012
300
85795PDSP_2012_0F
  0
DICTIONARY
  5
63
102
{ACAD_REACTORS
330
C
102
}
330
C
100
AcDbDictionary
281
     1
  0
DICTIONARY
  5
D
102
{ACAD_REACTORS
330
C
102
}
330
C
100
AcDbDictionary
281
     1
  0
DICTIONARY
  5
62
102
{ACAD_REACTORS
330
C
102
}
330
C
100
AcDbDictionary
281
     1
  3
Layout1
350
6B
  3
Layout2
350
73
  3
Model
350
6F
  0
DICTIONARY
  5
10
102
{ACAD_REACTORS
330
C
102
}
330
C
100
AcDbDictionary
281
     1
  3
ByBlock
350
19
  3
ByLayer
350
11
  3
Global
350
21
  0
DICTIONARY
  5
66
102
{ACAD_REACTORS
330
C
102
}
330
C
100
AcDbDictionary
281
     1
  3
Standard
350
67
  0
DICTIONARY
  5
5F
102
{ACAD_REACTORS
330
C
102
}
330
C
100
AcDbDictionary
281
     1
  3
Standard
350
60
  0
DICTIONARY
  5
61
102
{ACAD_REACTORS
330
C
102
}
330
C
100
AcDbDictionary
281
     1
  0
ACDBDICTIONARYWDFLT
  5
E
102
{ACAD_REACTORS
330
C
102
}
330
C
100
AcDbDictionary
281
     1
  3
Normal
350
F
100
AcDbDictionaryWithDefault
340
F
  0
DICTIONARY
  5
42
102
{ACAD_REACTORS
330
C
102
}
330
C
100
AcDbDictionary
281
     1
  3
A0
350
43
  3
A1
350
44
  3
A2
350
45
  3
A3
350
46
  3
A4
350
47
  3
A5
350
48
  3
A6
350
49
  3
A7
350
4A
  3
A8
350
4B
  3
A9
350
4C
  3
B0
350
4D
  3
B1
350
4E
  3
B2
350
4F
  3
B3
350
50
  3
B4
350
51
  3
B5
350
52
  3
B6
350
53
  0
DICTIONARY
  5
64
102
{ACAD_REACTORS
330
C
102
}
330
C
100
AcDbDictionary
281
     1
  3
Standard
350
65
  0
DICTIONARY
  5
29
102
{ACAD_REACTORS
330
C
102
}
330
C
100
AcDbDictionary
281
     1
  3
2dWireframe
350
2F
  3
Basic
350
2E
  3
Brighten
350
35
  3
ColorChange
350
39
  3
Conceptual
350
32
  3
Dim
350
34
  3
EdgeColorOff
350
41
  3
Facepattern
350
38
  3
Flat
350
2A
  3
FlatWithEdges
350
2B
  3
Gouraud
350
2C
  3
GouraudWithEdges
350
2D
  3
Hidden
350
31
  3
JitterOff
350
3F
  3
Linepattern
350
37
  3
OverhangOff
350
40
  3
Realistic
350
33
  3
Shaded
350
3E
  3
Shaded with edges
350
3D
  3
Shades of Gray
350
3A
  3
Sketchy
350
3B
  3
Thicken
350
36
  3
Wireframe
350
30
  3
X-Ray
350
3C
  0
XRECORD
  5
8A6
102
{ACAD_REACTORS
330
C
102
}
330
C
100
AcDbXrecord
280
     1
 90
        1
330
65
330
51B
  0
DICTIONARY
  5
76
102
{ACAD_REACTORS
330
C
102
}
330
C
100
AcDbDictionary
281
     1
  3
CANNOSCALE
350
79
  3
CMLEADERSTYLE
350
78
  3
CTABLESTYLE
350
77
  3
DIMASSOC
350
8A0
  3
HIDETEXT
350
89F
  3
INDEXCTL
350
89E
  3
LAYEREVAL
350
89B
  3
LAYERNOTIFY
350
89C
  3
LIGHTINGUNITS
350
89A
  3
MSLTSCALE
350
899
  3
SORTENTS
350
89D
  3
XCLIPFRAME
350
8A1
  0
XRECORD
  5
8A7
102
{ACAD_REACTORS
330
C
102
}
330
C
100
AcDbXrecord
280
     1
  1
DWGPROPS COOKIE
  2

  3

  4
KRA
  6

  7

  8

  9
-
300
Manager=
301
Company=
302
Category=
303
Part Number=P1206G-S
304
Description=P SERIES BACK PANEL MASTER VIEW
305
Project=
306
Designer=KRA
307
Engineer=
308
Authority=
309
Cost Center=
 40
0.0000376157407407
 41
2455952.401672512
 42
2455952.401672697
  1

 90
       20
300
Vendor=
300
User Status=
300
Design Status=WorkInProgress
300
Checked by=JMG
300
Date Checked=02/12/2009
300
Engr Approved by=
300
Mfg Approved by=
300
DWG. NO=
300
NUMBER OF SHEETS=1
300
DRAWING #=1
  0
XRECORD
  5
8E4
102
{ACAD_REACTORS
330
8E3
102
}
330
8E3
100
AcDbXrecord
280
     1
 40
41495.0
  1
\A1;\U+22050.250{\PGROUND\P HOLE}
  0
LAYOUT
  5
6B
102
{ACAD_XDICTIONARY
360
8DD
102
}
102
{ACAD_REACTORS
330
62
102
}
330
62
100
AcDbPlotSettings
  1

  2

  4

  6

 40
0.0
 41
0.0
 42
0.0
 43
0.0
 44
0.0
 45
0.0
 46
0.0
 47
0.0
 48
0.0
 49
0.0
140
0.0
141
0.0
142
1.0
143
1.0
 70
   688
 72
     0
 73
     0
 74
     5
  7

 75
    16
147
1.0
148
0.0
149
0.0
100
AcDbLayout
  1
Layout1
 70
     1
 71
     1
 10
0.0
 20
0.0
 11
12.0
 21
9.0
 12
0.0
 22
0.0
 32
0.0
 14
0.0
 24
0.0
 34
0.0
 15
0.0
 25
0.0
 35
0.0
146
0.0
 13
0.0
 23
0.0
 33
0.0
 16
1.0
 26
0.0
 36
0.0
 17
0.0
 27
1.0
 37
0.0
 76
     0
330
68
  0
LAYOUT
  5
73
102
{ACAD_XDICTIONARY
360
8E1
102
}
102
{ACAD_REACTORS
330
62
102
}
330
62
100
AcDbPlotSettings
  1

  2

  4

  6

 40
0.0
 41
0.0
 42
0.0
 43
0.0
 44
0.0
 45
0.0
 46
0.0
 47
0.0
 48
0.0
 49
0.0
140
0.0
141
0.0
142
1.0
143
1.0
 70
   688
 72
     0
 73
     0
 74
     5
  7

 75
    16
147
1.0
148
0.0
149
0.0
100
AcDbLayout
  1
Layout2
 70
     1
 71
     2
 10
0.0
 20
0.0
 11
12.0
 21
9.0
 12
0.0
 22
0.0
 32
0.0
 14
0.0
 24
0.0
 34
0.0
 15
0.0
 25
0.0
 35
0.0
146
0.0
 13
0.0
 23
0.0
 33
0.0
 16
1.0
 26
0.0
 36
0.0
 17
0.0
 27
1.0
 37
0.0
 76
     0
330
70
  0
LAYOUT
  5
6F
102
{ACAD_XDICTIONARY
360
8DF
102
}
102
{ACAD_REACTORS
330
62
102
}
330
62
100
AcDbPlotSettings
  1

  2

  4

  6

 40
0.0
 41
0.0
 42
0.0
 43
0.0
 44
0.0
 45
0.0
 46
0.0
 47
0.0
 48
0.0
 49
0.0
140
0.0
141
0.0
142
1.0
143
1.0
 70
  1712
 72
     0
 73
     0
 74
     0
  7

 75
     0
147
1.0
148
0.0
149
0.0
100
AcDbLayout
  1
Model
 70
     1
 71
     0
 10
0.0
 20
0.0
 11
12.0
 21
9.0
 12
0.0
 22
0.0
 32
0.0
 14
0.0
 24
0.0
 34
0.0
 15
0.0
 25
0.0
 35
0.0
146
0.0
 13
0.0
 23
0.0
 33
0.0
 16
1.0
 26
0.0
 36
0.0
 17
0.0
 27
1.0
 37
0.0
 76
     0
330
6C
  0
MATERIAL
  5
19
102
{ACAD_XDICTIONARY
360
1A
102
}
102
{ACAD_REACTORS
330
10
102
}
330
10
100
AcDbMaterial
  1
ByBlock
 72
     0
 43
0.0208333333333333
 43
0.0
 43
0.0
 43
0.0
 43
0.0
 43
0.0208333333333333
 43
0.0
 43
0.0
 43
0.0
 43
0.0
 43
1.0
 43
0.0
 43
0.0
 43
0.0
 43
0.0
 43
1.0
 77
     0
 47
0.0208333333333333
 47
0.0
 47
0.0
 47
0.0
 47
0.0
 47
0.0208333333333333
 47
0.0
 47
0.0
 47
0.0
 47
0.0
 47
1.0
 47
0.0
 47
0.0
 47
0.0
 47
0.0
 47
1.0
171
     0
 49
0.0208333333333333
 49
0.0
 49
0.0
 49
0.0
 49
0.0
 49
0.0208333333333333
 49
0.0
 49
0.0
 49
0.0
 49
0.0
 49
1.0
 49
0.0
 49
0.0
 49
0.0
 49
0.0
 49
1.0
175
     0
142
0.0208333333333333
142
0.0
142
0.0
142
0.0
142
0.0
142
0.0208333333333333
142
0.0
142
0.0
142
0.0
142
0.0
142
1.0
142
0.0
142
0.0
142
0.0
142
0.0
142
1.0
179
     0
144
0.0208333333333333
144
0.0
144
0.0
144
0.0
144
0.0
144
0.0208333333333333
144
0.0
144
0.0
144
0.0
144
0.0
144
1.0
144
0.0
144
0.0
144
0.0
144
0.0
144
1.0
147
0.0208333333333333
147
0.0
147
0.0
147
0.0
147
0.0
147
0.0208333333333333
147
0.0
147
0.0
147
0.0
147
0.0
147
1.0
147
0.0
147
0.0
147
0.0
147
0.0
147
1.0
  0
MATERIAL
  5
11
102
{ACAD_XDICTIONARY
360
12
102
}
102
{ACAD_REACTORS
330
10
102
}
330
10
100
AcDbMaterial
  1
ByLayer
 72
     0
 43
0.0208333333333333
 43
0.0
 43
0.0
 43
0.0
 43
0.0
 43
0.0208333333333333
 43
0.0
 43
0.0
 43
0.0
 43
0.0
 43
1.0
 43
0.0
 43
0.0
 43
0.0
 43
0.0
 43
1.0
 77
     0
 47
0.0208333333333333
 47
0.0
 47
0.0
 47
0.0
 47
0.0
 47
0.0208333333333333
 47
0.0
 47
0.0
 47
0.0
 47
0.0
 47
1.0
 47
0.0
 47
0.0
 47
0.0
 47
0.0
 47
1.0
171
     0
 49
0.0208333333333333
 49
0.0
 49
0.0
 49
0.0
 49
0.0
 49
0.0208333333333333
 49
0.0
 49
0.0
 49
0.0
 49
0.0
 49
1.0
 49
0.0
 49
0.0
 49
0.0
 49
0.0
 49
1.0
175
     0
142
0.0208333333333333
142
0.0
142
0.0
142
0.0
142
0.0
142
0.0208333333333333
142
0.0
142
0.0
142
0.0
142
0.0
142
1.0
142
0.0
142
0.0
142
0.0
142
0.0
142
1.0
179
     0
144
0.0208333333333333
144
0.0
144
0.0
144
0.0
144
0.0
144
0.0208333333333333
144
0.0
144
0.0
144
0.0
144
0.0
144
1.0
144
0.0
144
0.0
144
0.0
144
0.0
144
1.0
147
0.0208333333333333
147
0.0
147
0.0
147
0.0
147
0.0
147
0.0208333333333333
147
0.0
147
0.0
147
0.0
147
0.0
147
1.0
147
0.0
147
0.0
147
0.0
147
0.0
147
1.0
  0
MATERIAL
  5
21
102
{ACAD_XDICTIONARY
360
22
102
}
102
{ACAD_REACTORS
330
10
102
}
330
10
100
AcDbMaterial
  1
Global
 72
     0
 43
0.0208333333333333
 43
0.0
 43
0.0
 43
0.0
 43
0.0
 43
0.0208333333333333
 43
0.0
 43
0.0
 43
0.0
 43
0.0
 43
1.0
 43
0.0
 43
0.0
 43
0.0
 43
0.0
 43
1.0
 77
     0
 47
0.0208333333333333
 47
0.0
 47
0.0
 47
0.0
 47
0.0
 47
0.0208333333333333
 47
0.0
 47
0.0
 47
0.0
 47
0.0
 47
1.0
 47
0.0
 47
0.0
 47
0.0
 47
0.0
 47
1.0
171
     0
 49
0.0208333333333333
 49
0.0
 49
0.0
 49
0.0
 49
0.0
 49
0.0208333333333333
 49
0.0
 49
0.0
 49
0.0
 49
0.0
 49
1.0
 49
0.0
 49
0.0
 49
0.0
 49
0.0
 49
1.0
175
     0
142
0.0208333333333333
142
0.0
142
0.0
142
0.0
142
0.0
142
0.0208333333333333
142
0.0
142
0.0
142
0.0
142
0.0
142
1.0
142
0.0
142
0.0
142
0.0
142
0.0
142
1.0
179
     0
144
0.0208333333333333
144
0.0
144
0.0
144
0.0
144
0.0
144
0.0208333333333333
144
0.0
144
0.0
144
0.0
144
0.0
144
1.0
144
0.0
144
0.0
144
0.0
144
0.0
144
1.0
147
0.0208333333333333
147
0.0
147
0.0
147
0.0
147
0.0
147
0.0208333333333333
147
0.0
147
0.0
147
0.0
147
0.0
147
1.0
147
0.0
147
0.0
147
0.0
147
0.0
147
1.0
  0
MLEADERSTYLE
  5
67
102
{ACAD_XDICTIONARY
360
8A4
102
}
102
{ACAD_REACTORS
330
66
102
}
330
66
100
AcDbMLeaderStyle
170
     2
171
     1
172
     0
 90
        2
 40
0.0
 41
0.0
173
     1
 91
-1056964608
340
5B
 92
       -2
290
     1
 42
0.09
291
     1
 43
0.36
  3
Standard
 44
0.18
300

342
55
174
     1
178
     6
175
     1
176
     0
 93
-1056964608
 45
0.18
292
     0
297
     0
 46
0.18
 94
-1056964608
 47
1.0
 49
1.0
140
1.0
293
     1
141
0.0
294
     1
177
     0
142
1.0
295
     0
296
     0
143
0.125
1001
ACAD_MLEADERVER
1070
     2
  0
MLINESTYLE
  5
60
102
{ACAD_REACTORS
330
5F
102
}
330
5F
100
AcDbMlineStyle
  2
STANDARD
 70
     0
  3

 62
   256
 51
90.0
 52
90.0
 71
     2
 49
0.5
 62
   256
  6
BYLAYER
 49
-0.5
 62
   256
  6
BYLAYER
  0
ACDBPLACEHOLDER
  5
F
102
{ACAD_REACTORS
330
E
102
}
330
E
  0
SCALE
  5
43
102
{ACAD_REACTORS
330
42
102
}
330
42
100
AcDbScale
 70
     0
300
1:1
140
1.0
141
1.0
290
     1
  0
SCALE
  5
44
102
{ACAD_REACTORS
330
42
102
}
330
42
100
AcDbScale
 70
     0
300
1/128" = 1'-0"
140
0.0078125
141
12.0
290
     0
  0
SCALE
  5
45
102
{ACAD_REACTORS
330
42
102
}
330
42
100
AcDbScale
 70
     0
300
1/64" = 1'-0"
140
0.015625
141
12.0
290
     0
  0
SCALE
  5
46
102
{ACAD_REACTORS
330
42
102
}
330
42
100
AcDbScale
 70
     0
300
1/32" = 1'-0"
140
0.03125
141
12.0
290
     0
  0
SCALE
  5
47
102
{ACAD_REACTORS
330
42
102
}
330
42
100
AcDbScale
 70
     0
300
1/16" = 1'-0"
140
0.0625
141
12.0
290
     0
  0
SCALE
  5
48
102
{ACAD_REACTORS
330
42
102
}
330
42
100
AcDbScale
 70
     0
300
3/32" = 1'-0"
140
0.09375
141
12.0
290
     0
  0
SCALE
  5
49
102
{ACAD_REACTORS
330
42
102
}
330
42
100
AcDbScale
 70
     0
300
1/8" = 1'-0"
140
0.125
141
12.0
290
     0
  0
SCALE
  5
4A
102
{ACAD_REACTORS
330
42
102
}
330
42
100
AcDbScale
 70
     0
300
3/16" = 1'-0"
140
0.1875
141
12.0
290
     0
  0
SCALE
  5
4B
102
{ACAD_REACTORS
330
42
102
}
330
42
100
AcDbScale
 70
     0
300
1/4" = 1'-0"
140
0.25
141
12.0
290
     0
  0
SCALE
  5
4C
102
{ACAD_REACTORS
330
42
102
}
330
42
100
AcDbScale
 70
     0
300
3/8" = 1'-0"
140
0.375
141
12.0
290
     0
  0
SCALE
  5
4D
102
{ACAD_REACTORS
330
42
102
}
330
42
100
AcDbScale
 70
     0
300
1/2" = 1'-0"
140
0.5
141
12.0
290
     0
  0
SCALE
  5
4E
102
{ACAD_REACTORS
330
42
102
}
330
42
100
AcDbScale
 70
     0
300
3/4" = 1'-0"
140
0.75
141
12.0
290
     0
  0
SCALE
  5
4F
102
{ACAD_REACTORS
330
42
102
}
330
42
100
AcDbScale
 70
     0
300
1" = 1'-0"
140
1.0
141
12.0
290
     0
  0
SCALE
  5
50
102
{ACAD_REACTORS
330
42
102
}
330
42
100
AcDbScale
 70
     0
300
1-1/2" = 1'-0"
140
1.5
141
12.0
290
     0
  0
SCALE
  5
51
102
{ACAD_REACTORS
330
42
102
}
330
42
100
AcDbScale
 70
     0
300
3" = 1'-0"
140
3.0
141
12.0
290
     0
  0
SCALE
  5
52
102
{ACAD_REACTORS
330
42
102
}
330
42
100
AcDbScale
 70
     0
300
6" = 1'-0"
140
6.0
141
12.0
290
     0
  0
SCALE
  5
53
102
{ACAD_REACTORS
330
42
102
}
330
42
100
AcDbScale
 70
     0
300
1'-0" = 1'-0"
140
12.0
141
12.0
290
     0
  0
TABLESTYLE
  5
65
102
{ACAD_XDICTIONARY
360
8A2
102
}
102
{ACAD_REACTORS
330
64
102
}
330
64
100
AcDbTableStyle
  3
Standard
 70
     0
 71
     0
 40
0.06
 41
0.06
280
     0
281
     0
  7
Standard
140
0.18
170
     2
 62
     0
 63
     7
283
     0
274
    -2
284
     1
 64
     0
275
    -2
285
     1
 65
     0
276
    -2
286
     1
 66
     0
277
    -2
287
     1
 67
     0
278
    -2
288
     1
 68
     0
279
    -2
289
     1
 69
     0
  7
Standard
140
0.25
170
     5
 62
     0
 63
     7
283
     0
274
    -2
284
     1
 64
     0
275
    -2
285
     1
 65
     0
276
    -2
286
     1
 66
     0
277
    -2
287
     1
 67
     0
278
    -2
288
     1
 68
     0
279
    -2
289
     1
 69
     0
  7
Standard
140
0.18
170
     5
 62
     0
 63
     7
283
     0
274
    -2
284
     1
 64
     0
275
    -2
285
     1
 65
     0
276
    -2
286
     1
 66
     0
277
    -2
287
     1
 67
     0
278
    -2
288
     1
 68
     0
279
    -2
289
     1
 69
     0
  0
VISUALSTYLE
  5
2F
102
{ACAD_XDICTIONARY
360
8B5
102
}
102
{ACAD_REACTORS
330
29
102
}
330
29
100
AcDbVisualStyle
  2
2dWireframe
 70
     4
 71
     0
 72
     2
 73
     0
 90
        0
 40
-0.6
 41
-30.0
 62
     5
 63
     7
 74
     1
 91
        4
 64
     7
 65
   257
 75
     1
175
     1
 42
1.0
 92
        0
 66
   257
 43
1.0
 76
     1
 77
     6
 78
     2
 67
     7
 79
     5
170
     0
171
     0
290
     0
174
     0
 93
        1
 44
0.0
173
     0
291
     0
 45
0.0
1001
ACAD
1000
AcDbSavedByObjectVersion
1070
     0
  0
VISUALSTYLE
  5
2E
102
{ACAD_XDICTIONARY
360
8B3
102
}
102
{ACAD_REACTORS
330
29
102
}
330
29
100
AcDbVisualStyle
  2
Basic
 70
     7
 71
     1
 72
     0
 73
     1
 90
        0
 40
-0.6
 41
-30.0
 62
     5
 63
     7
 74
     0
 91
        4
 64
     7
 65
   257
 75
     1
175
     1
 42
1.0
 92
        8
 66
     7
 43
1.0
 76
     1
 77
     6
 78
     2
 67
     7
 79
     5
170
     0
171
     0
290
     0
174
     0
 93
        1
 44
0.0
173
     0
291
     1
 45
0.0
1001
ACAD
1000
AcDbSavedByObjectVersion
1070
     0
  0
VISUALSTYLE
  5
35
102
{ACAD_XDICTIONARY
360
8C1
102
}
102
{ACAD_REACTORS
330
29
102
}
330
29
100
AcDbVisualStyle
  2
Brighten
 70
    12
 71
     2
 72
     2
 73
     0
 90
        0
 40
-0.6
 41
-30.0
 62
     5
 63
     7
 74
     1
 91
        4
 64
     7
 65
   257
 75
     1
175
     1
 42
1.0
 92
        8
 66
     7
 43
1.0
 76
     1
 77
     6
 78
     2
 67
     7
 79
     5
170
     0
171
     0
290
     0
174
     0
 93
        1
 44
50.0
173
     0
291
     1
 45
0.0
1001
ACAD
1000
AcDbSavedByObjectVersion
1070
     0
  0
VISUALSTYLE
  5
39
102
{ACAD_XDICTIONARY
360
8C9
102
}
102
{ACAD_REACTORS
330
29
102
}
330
29
100
AcDbVisualStyle
  2
ColorChange
 70
    16
 71
     2
 72
     2
 73
     3
 90
        0
 40
-0.6
 41
-30.0
 62
     5
 63
     8
 74
     1
 91
        4
 64
     7
 65
   257
 75
     1
175
     1
 42
1.0
 92
        8
 66
     8
 43
1.0
 76
     1
 77
     6
 78
     2
 67
     7
 79
     5
170
     0
171
     0
290
     0
174
     0
 93
        1
 44
0.0
173
     0
291
     1
 45
0.0
1001
ACAD
1000
AcDbSavedByObjectVersion
1070
     0
  0
VISUALSTYLE
  5
32
102
{ACAD_XDICTIONARY
360
8BB
102
}
102
{ACAD_REACTORS
330
29
102
}
330
29
100
AcDbVisualStyle
  2
Conceptual
 70
     9
 71
     3
 72
     2
 73
     0
 90
        0
 40
-0.6
 41
-30.0
 62
     5
 63
     7
 74
     2
 91
        2
 64
     7
 65
   257
 75
     1
175
     1
 42
179.0
 92
        8
 66
     7
 43
1.0
 76
     1
 77
     6
 78
     2
 67
     7
 79
     3
170
     0
171
     0
290
     0
174
     0
 93
        1
 44
0.0
173
     0
291
     0
 45
0.0
1001
ACAD
1000
AcDbSavedByObjectVersion
1070
     0
  0
VISUALSTYLE
  5
34
102
{ACAD_XDICTIONARY
360
8BF
102
}
102
{ACAD_REACTORS
330
29
102
}
330
29
100
AcDbVisualStyle
  2
Dim
 70
    11
 71
     2
 72
     2
 73
     0
 90
        0
 40
-0.6
 41
-30.0
 62
     5
 63
     7
 74
     1
 91
        4
 64
     7
 65
   257
 75
     1
175
     1
 42
1.0
 92
        8
 66
     7
 43
1.0
 76
     1
 77
     6
 78
     2
 67
     7
 79
     5
170
     0
171
     0
290
     0
174
     0
 93
        1
 44
-50.0
173
     0
291
     1
 45
0.0
1001
ACAD
1000
AcDbSavedByObjectVersion
1070
     0
  0
VISUALSTYLE
  5
41
102
{ACAD_XDICTIONARY
360
8D9
102
}
102
{ACAD_REACTORS
330
29
102
}
330
29
100
AcDbVisualStyle
  2
EdgeColorOff
 70
    22
 71
     2
 72
     2
 73
     0
 90
        0
 40
-0.6
 41
-30.0
 62
     5
 63
     7
 74
     1
 91
        4
 64
     7
 65
   257
 75
     1
175
     1
 42
1.0
 92
        8
 66
     7
 43
1.0
 76
     1
 77
     6
 78
     2
 67
     7
 79
     5
170
     0
171
     0
290
     0
174
     0
 93
        1
 44
0.0
173
     0
291
     1
 45
0.0
1001
ACAD
1000
AcDbSavedByObjectVersion
1070
     0
  0
VISUALSTYLE
  5
38
102
{ACAD_XDICTIONARY
360
8C7
102
}
102
{ACAD_REACTORS
330
29
102
}
330
29
100
AcDbVisualStyle
  2
Facepattern
 70
    15
 71
     2
 72
     2
 73
     0
 90
        0
 40
-0.6
 41
-30.0
 62
     5
 63
     7
 74
     1
 91
        4
 64
     7
 65
   257
 75
     1
175
     1
 42
1.0
 92
        8
 66
     7
 43
1.0
 76
     1
 77
     6
 78
     2
 67
     7
 79
     5
170
     0
171
     0
290
     0
174
     0
 93
        1
 44
0.0
173
     0
291
     1
 45
0.0
1001
ACAD
1000
AcDbSavedByObjectVersion
1070
     0
  0
VISUALSTYLE
  5
2A
102
{ACAD_XDICTIONARY
360
8AB
102
}
102
{ACAD_REACTORS
330
29
102
}
330
29
100
AcDbVisualStyle
  2
Flat
 70
     0
 71
     2
 72
     1
 73
     1
 90
        2
 40
-0.6
 41
30.0
 62
     5
 63
     7
 74
     0
 91
        0
 64
     7
 65
   257
 75
     1
175
     1
 42
1.0
 92
        8
 66
     7
 43
1.0
 76
     1
 77
     6
 78
     2
 67
     7
 79
     5
170
     0
171
     0
290
     0
174
     0
 93
       13
 44
0.0
173
     0
291
     1
 45
0.0
1001
ACAD
1000
AcDbSavedByObjectVersion
1070
     0
  0
VISUALSTYLE
  5
2B
102
{ACAD_XDICTIONARY
360
8AD
102
}
102
{ACAD_REACTORS
330
29
102
}
330
29
100
AcDbVisualStyle
  2
FlatWithEdges
 70
     1
 71
     2
 72
     1
 73
     1
 90
        2
 40
-0.6
 41
30.0
 62
     5
 63
     7
 74
     1
 91
        0
 64
     7
 65
   257
 75
     1
175
     1
 42
1.0
 92
        0
 66
   257
 43
1.0
 76
     1
 77
     6
 78
     2
 67
     7
 79
     5
170
     0
171
     0
290
     0
174
     0
 93
       13
 44
0.0
173
     0
291
     1
 45
0.0
1001
ACAD
1000
AcDbSavedByObjectVersion
1070
     0
  0
VISUALSTYLE
  5
2C
102
{ACAD_XDICTIONARY
360
8AF
102
}
102
{ACAD_REACTORS
330
29
102
}
330
29
100
AcDbVisualStyle
  2
Gouraud
 70
     2
 71
     2
 72
     2
 73
     1
 90
        2
 40
-0.6
 41
30.0
 62
     5
 63
     7
 74
     0
 91
        0
 64
     7
 65
   257
 75
     1
175
     1
 42
1.0
 92
        0
 66
     7
 43
1.0
 76
     1
 77
     6
 78
     2
 67
     7
 79
     5
170
     0
171
     0
290
     0
174
     0
 93
       13
 44
0.0
173
     0
291
     1
 45
0.0
1001
ACAD
1000
AcDbSavedByObjectVersion
1070
     0
  0
VISUALSTYLE
  5
2D
102
{ACAD_XDICTIONARY
360
8B1
102
}
102
{ACAD_REACTORS
330
29
102
}
330
29
100
AcDbVisualStyle
  2
GouraudWithEdges
 70
     3
 71
     2
 72
     2
 73
     1
 90
        2
 40
-0.6
 41
30.0
 62
     5
 63
     7
 74
     1
 91
        0
 64
     7
 65
   257
 75
     1
175
     1
 42
1.0
 92
        0
 66
   257
 43
1.0
 76
     1
 77
     6
 78
     2
 67
     7
 79
     5
170
     0
171
     0
290
     0
174
     0
 93
       13
 44
0.0
173
     0
291
     1
 45
0.0
1001
ACAD
1000
AcDbSavedByObjectVersion
1070
     0
  0
VISUALSTYLE
  5
31
102
{ACAD_XDICTIONARY
360
8B9
102
}
102
{ACAD_REACTORS
330
29
102
}
330
29
100
AcDbVisualStyle
  2
Hidden
 70
     6
 71
     1
 72
     2
 73
     2
 90
        0
 40
-0.6
 41
-30.0
 62
     5
 63
     7
 74
     2
 91
        2
 64
     7
 65
   257
 75
     2
175
     1
 42
40.0
 92
        0
 66
   257
 43
1.0
 76
     1
 77
     6
 78
     2
 67
     7
 79
     3
170
     0
171
     0
290
     0
174
     0
 93
        1
 44
0.0
173
     0
291
     0
 45
0.0
1001
ACAD
1000
AcDbSavedByObjectVersion
1070
     0
  0
VISUALSTYLE
  5
3F
102
{ACAD_XDICTIONARY
360
8D5
102
}
102
{ACAD_REACTORS
330
29
102
}
330
29
100
AcDbVisualStyle
  2
JitterOff
 70
    20
 71
     2
 72
     2
 73
     0
 90
        0
 40
-0.6
 41
-30.0
 62
     5
 63
     7
 74
     1
 91
        4
 64
     7
 65
   257
 75
     1
175
     1
 42
1.0
 92
       10
 66
     7
 43
1.0
 76
     1
 77
     6
 78
     2
 67
     7
 79
     5
170
     0
171
     0
290
     0
174
     0
 93
        1
 44
0.0
173
     0
291
     1
 45
0.0
1001
ACAD
1000
AcDbSavedByObjectVersion
1070
     0
  0
VISUALSTYLE
  5
37
102
{ACAD_XDICTIONARY
360
8C5
102
}
102
{ACAD_REACTORS
330
29
102
}
330
29
100
AcDbVisualStyle
  2
Linepattern
 70
    14
 71
     2
 72
     2
 73
     0
 90
        0
 40
-0.6
 41
-30.0
 62
     5
 63
     7
 74
     1
 91
        4
 64
     7
 65
   257
 75
     7
175
     7
 42
1.0
 92
        8
 66
     7
 43
1.0
 76
     1
 77
     6
 78
     2
 67
     7
 79
     5
170
     0
171
     0
290
     0
174
     0
 93
        1
 44
0.0
173
     0
291
     1
 45
0.0
1001
ACAD
1000
AcDbSavedByObjectVersion
1070
     0
  0
VISUALSTYLE
  5
40
102
{ACAD_XDICTIONARY
360
8D7
102
}
102
{ACAD_REACTORS
330
29
102
}
330
29
100
AcDbVisualStyle
  2
OverhangOff
 70
    21
 71
     2
 72
     2
 73
     0
 90
        0
 40
-0.6
 41
-30.0
 62
     5
 63
     7
 74
     1
 91
        4
 64
     7
 65
   257
 75
     1
175
     1
 42
1.0
 92
        9
 66
     7
 43
1.0
 76
     1
 77
     6
 78
     2
 67
     7
 79
     5
170
     0
171
     0
290
     0
174
     0
 93
        1
 44
0.0
173
     0
291
     1
 45
0.0
1001
ACAD
1000
AcDbSavedByObjectVersion
1070
     0
  0
VISUALSTYLE
  5
33
102
{ACAD_XDICTIONARY
360
8BD
102
}
102
{ACAD_REACTORS
330
29
102
}
330
29
100
AcDbVisualStyle
  2
Realistic
 70
     8
 71
     2
 72
     3
 73
     0
 90
        2
 40
-0.6
 41
30.0
 62
     5
 63
     7
 74
     0
 91
        0
 64
     7
 65
   257
 75
     1
175
     1
 42
1.0
 92
        8
 66
   257
 43
1.0
 76
     1
 77
     6
 78
     2
 67
     7
 79
     3
170
     0
171
     0
290
     0
174
     0
 93
       13
 44
0.0
173
     0
291
     0
 45
0.0
1001
ACAD
1000
AcDbSavedByObjectVersion
1070
     0
  0
VISUALSTYLE
  5
3E
102
{ACAD_XDICTIONARY
360
8D3
102
}
102
{ACAD_REACTORS
330
29
102
}
330
29
100
AcDbVisualStyle
  2
Shaded
 70
    27
 71
     2
 72
     2
 73
     1
 90
        2
 40
-0.6
 41
30.0
 62
     5
 63
     7
 74
     0
 91
        4
 64
     7
 65
   257
 75
     1
175
     1
 42
1.0
 92
        8
 66
   257
 43
1.0
 76
     1
 77
     6
 78
     2
 67
     8
 79
     3
170
     0
171
     0
290
     0
174
     0
 93
        5
 44
0.0
173
     0
291
     0
 45
0.0
1001
ACAD
1000
AcDbSavedByObjectVersion
1070
     0
  0
VISUALSTYLE
  5
3D
102
{ACAD_XDICTIONARY
360
8D1
102
}
102
{ACAD_REACTORS
330
29
102
}
330
29
100
AcDbVisualStyle
  2
Shaded with edges
 70
    26
 71
     2
 72
     2
 73
     1
 90
        2
 40
-0.6
 41
30.0
 62
     5
 63
     7
 74
     1
 91
       10
 64
     7
 65
   257
 75
     2
175
     1
 42
1.0
 92
        8
 66
   257
 43
1.0
 76
     1
 77
     6
 78
     2
 67
     7
 79
     3
170
     0
171
     0
290
     0
174
     0
 93
        5
 44
0.0
173
     0
291
     0
 45
0.0
1001
ACAD
1000
AcDbSavedByObjectVersion
1070
     0
  0
VISUALSTYLE
  5
3A
102
{ACAD_XDICTIONARY
360
8CB
102
}
102
{ACAD_REACTORS
330
29
102
}
330
29
100
AcDbVisualStyle
  2
Shades of Gray
 70
    23
 71
     2
 72
     2
 73
     3
 90
        0
 40
-0.6
 41
-30.0
 62
     5
 63
     7
 74
     2
 91
        2
 64
     7
 65
     7
 75
     1
175
     1
 42
40.0
 92
        8
 66
     7
 43
1.0
 76
     1
 77
     6
 78
     2
 67
     7
 79
     3
170
     0
171
     0
290
     0
174
     0
 93
        1
 44
0.0
173
     0
291
     0
 45
0.0
1001
ACAD
1000
AcDbSavedByObjectVersion
1070
     0
  0
VISUALSTYLE
  5
3B
102
{ACAD_XDICTIONARY
360
8CD
102
}
102
{ACAD_REACTORS
330
29
102
}
330
29
100
AcDbVisualStyle
  2
Sketchy
 70
    24
 71
     1
 72
     2
 73
     2
 90
        0
 40
-0.6
 41
-30.0
 62
     5
 63
     7
 74
     2
 91
        2
 64
     7
 65
     7
 75
     1
175
     1
 42
40.0
 92
       11
 66
     7
 43
1.0
 76
     1
 77
     6
 78
     2
 67
     7
 79
     6
170
     0
171
     0
290
     0
174
     0
 93
        1
 44
0.0
173
     0
291
     0
 45
0.0
1001
ACAD
1000
AcDbSavedByObjectVersion
1070
     0
  0
VISUALSTYLE
  5
36
102
{ACAD_XDICTIONARY
360
8C3
102
}
102
{ACAD_REACTORS
330
29
102
}
330
29
100
AcDbVisualStyle
  2
Thicken
 70
    13
 71
     2
 72
     2
 73
     0
 90
        0
 40
-0.6
 41
-30.0
 62
     5
 63
     7
 74
     1
 91
        4
 64
     7
 65
   257
 75
     1
175
     1
 42
1.0
 92
       12
 66
     7
 43
1.0
 76
     1
 77
     6
 78
     2
 67
     7
 79
     5
170
     0
171
     0
290
     0
174
     0
 93
        1
 44
0.0
173
     0
291
     1
 45
0.0
1001
ACAD
1000
AcDbSavedByObjectVersion
1070
     0
  0
VISUALSTYLE
  5
30
102
{ACAD_XDICTIONARY
360
8B7
102
}
102
{ACAD_REACTORS
330
29
102
}
330
29
100
AcDbVisualStyle
  2
Wireframe
 70
     5
 71
     0
 72
     2
 73
     0
 90
        0
 40
-0.6
 41
-30.0
 62
     5
 63
     7
 74
     1
 91
        4
 64
     7
 65
   257
 75
     1
175
     1
 42
1.0
 92
        0
 66
   257
 43
1.0
 76
     1
 77
     6
 78
     2
 67
     7
 79
     3
170
     0
171
     0
290
     0
174
     0
 93
        1
 44
0.0
173
     0
291
     0
 45
0.0
1001
ACAD
1000
AcDbSavedByObjectVersion
1070
     0
  0
VISUALSTYLE
  5
3C
102
{ACAD_XDICTIONARY
360
8CF
102
}
102
{ACAD_REACTORS
330
29
102
}
330
29
100
AcDbVisualStyle
  2
X-Ray
 70
    25
 71
     2
 72
     2
 73
     1
 90
        1
 40
0.5
 41
-30.0
 62
     5
 63
     7
 74
     1
 91
        0
 64
     7
 65
   257
 75
     1
175
     1
 42
1.0
 92
        8
 66
     7
 43
1.0
 76
     1
 77
     6
 78
     2
 67
     7
 79
     3
170
     0
171
     0
290
     0
174
     0
 93
       13
 44
0.0
173
     0
291
     0
 45
0.0
1001
ACAD
1000
AcDbSavedByObjectVersion
1070
     0
  0
DICTIONARYVAR
  5
79
102
{ACAD_REACTORS
330
76
102
}
330
76
100
DictionaryVariables
280
     0
  1
1:1
  0
DICTIONARYVAR
  5
78
102
{ACAD_REACTORS
330
76
102
}
330
76
100
DictionaryVariables
280
     0
  1
STANDARD
  0
DICTIONARYVAR
  5
77
102
{ACAD_REACTORS
330
76
102
}
330
76
100
DictionaryVariables
280
     0
  1
STANDARD
  0
DICTIONARYVAR
  5
8A0
102
{ACAD_REACTORS
330
76
102
}
330
76
100
DictionaryVariables
280
     0
  1
1
  0
DICTIONARYVAR
  5
89F
102
{ACAD_REACTORS
330
76
102
}
330
76
100
DictionaryVariables
280
     0
  1
1
  0
DICTIONARYVAR
  5
89E
102
{ACAD_REACTORS
330
76
102
}
330
76
100
DictionaryVariables
280
     0
  1
0
  0
DICTIONARYVAR
  5
89B
102
{ACAD_REACTORS
330
76
102
}
330
76
100
DictionaryVariables
280
     0
  1
0
  0
DICTIONARYVAR
  5
89C
102
{ACAD_REACTORS
330
76
102
}
330
76
100
DictionaryVariables
280
     0
  1
0
  0
DICTIONARYVAR
  5
89A
102
{ACAD_REACTORS
330
76
102
}
330
76
100
DictionaryVariables
280
     0
  1
2
  0
DICTIONARYVAR
  5
899
102
{ACAD_REACTORS
330
76
102
}
330
76
100
DictionaryVariables
280
     0
  1
1
  0
DICTIONARYVAR
  5
89D
102
{ACAD_REACTORS
330
76
102
}
330
76
100
DictionaryVariables
280
     0
  1
127
  0
DICTIONARYVAR
  5
8A1
102
{ACAD_REACTORS
330
76
102
}
330
76
100
DictionaryVariables
280
     0
  1
2
  0
DICTIONARY
  5
8DD
330
6B
100
AcDbDictionary
280
     1
281
     1
  3
ACAD_XREC_ROUNDTRIP
360
8DE
  0
DICTIONARY
  5
8E1
330
73
100
AcDbDictionary
280
     1
281
     1
  3
ACAD_XREC_ROUNDTRIP
360
8E2
  0
DICTIONARY
  5
8DF
330
6F
100
AcDbDictionary
280
     1
281
     1
  3
ACAD_XREC_ROUNDTRIP
360
8E0
  0
DICTIONARY
  5
1A
330
19
100
AcDbDictionary
280
     1
281
     1
  3
ACAD_XREC_ROUNDTRIP
360
8A9
  3
BUMPTILE
360
1C
  3
DIFFUSETILE
360
1B
  3
OPACITYTILE
360
1F
  3
REFLECTIONTILE
360
1E
  3
REFRACTIONTILE
360
20
  3
SPECULARTILE
360
1D
  0
DICTIONARY
  5
12
330
11
100
AcDbDictionary
280
     1
281
     1
  3
ACAD_XREC_ROUNDTRIP
360
8A8
  3
BUMPTILE
360
14
  3
DIFFUSETILE
360
13
  3
FBXASSET
360
10B
  3
OPACITYTILE
360
17
  3
REFLECTIONTILE
360
16
  3
REFRACTIONTILE
360
18
  3
SPECULARTILE
360
15
  0
DICTIONARY
  5
22
330
21
100
AcDbDictionary
280
     1
281
     1
  3
ACAD_XREC_ROUNDTRIP
360
8AA
  3
BUMPTILE
360
24
  3
DIFFUSETILE
360
23
  3
FBXASSET
360
BA
  3
OPACITYTILE
360
27
  3
REFLECTIONTILE
360
26
  3
REFRACTIONTILE
360
28
  3
SPECULARTILE
360
25
  0
DICTIONARY
  5
8A4
330
67
100
AcDbDictionary
280
     1
281
     1
  3
ACAD_XREC_ROUNDTRIP
360
8A5
  0
DICTIONARY
  5
8A2
330
65
100
AcDbDictionary
280
     1
281
     1
  3
ACAD_ROUNDTRIP_2008_TABLESTYLE_CELLSTYLEMAP
360
8A3
  3
ACAD_XREC_ROUNDTRIP
360
8DB
  0
DICTIONARY
  5
8B5
330
2F
100
AcDbDictionary
280
     1
281
     1
  3
ACAD_XREC_ROUNDTRIP
360
8B6
  0
DICTIONARY
  5
8B3
330
2E
100
AcDbDictionary
280
     1
281
     1
  3
ACAD_XREC_ROUNDTRIP
360
8B4
  0
DICTIONARY
  5
8C1
330
35
100
AcDbDictionary
280
     1
281
     1
  3
ACAD_XREC_ROUNDTRIP
360
8C2
  0
DICTIONARY
  5
8C9
330
39
100
AcDbDictionary
280
     1
281
     1
  3
ACAD_XREC_ROUNDTRIP
360
8CA
  0
DICTIONARY
  5
8BB
330
32
100
AcDbDictionary
280
     1
281
     1
  3
ACAD_XREC_ROUNDTRIP
360
8BC
  0
DICTIONARY
  5
8BF
330
34
100
AcDbDictionary
280
     1
281
     1
  3
ACAD_XREC_ROUNDTRIP
360
8C0
  0
DICTIONARY
  5
8D9
330
41
100
AcDbDictionary
280
     1
281
     1
  3
ACAD_XREC_ROUNDTRIP
360
8DA
  0
DICTIONARY
  5
8C7
330
38
100
AcDbDictionary
280
     1
281
     1
  3
ACAD_XREC_ROUNDTRIP
360
8C8
  0
DICTIONARY
  5
8AB
330
2A
100
AcDbDictionary
280
     1
281
     1
  3
ACAD_XREC_ROUNDTRIP
360
8AC
  0
DICTIONARY
  5
8AD
330
2B
100
AcDbDictionary
280
     1
281
     1
  3
ACAD_XREC_ROUNDTRIP
360
8AE
  0
DICTIONARY
  5
8AF
330
2C
100
AcDbDictionary
280
     1
281
     1
  3
ACAD_XREC_ROUNDTRIP
360
8B0
  0
DICTIONARY
  5
8B1
330
2D
100
AcDbDictionary
280
     1
281
     1
  3
ACAD_XREC_ROUNDTRIP
360
8B2
  0
DICTIONARY
  5
8B9
330
31
100
AcDbDictionary
280
     1
281
     1
  3
ACAD_XREC_ROUNDTRIP
360
8BA
  0
DICTIONARY
  5
8D5
330
3F
100
AcDbDictionary
280
     1
281
     1
  3
ACAD_XREC_ROUNDTRIP
360
8D6
  0
DICTIONARY
  5
8C5
330
37
100
AcDbDictionary
280
     1
281
     1
  3
ACAD_XREC_ROUNDTRIP
360
8C6
  0
DICTIONARY
  5
8D7
330
40
100
AcDbDictionary
280
     1
281
     1
  3
ACAD_XREC_ROUNDTRIP
360
8D8
  0
DICTIONARY
  5
8BD
330
33
100
AcDbDictionary
280
     1
281
     1
  3
ACAD_XREC_ROUNDTRIP
360
8BE
  0
DICTIONARY
  5
8D3
330
3E
100
AcDbDictionary
280
     1
281
     1
  3
ACAD_XREC_ROUNDTRIP
360
8D4
  0
DICTIONARY
  5
8D1
330
3D
100
AcDbDictionary
280
     1
281
     1
  3
ACAD_XREC_ROUNDTRIP
360
8D2
  0
DICTIONARY
  5
8CB
330
3A
100
AcDbDictionary
280
     1
281
     1
  3
ACAD_XREC_ROUNDTRIP
360
8CC
  0
DICTIONARY
  5
8CD
330
3B
100
AcDbDictionary
280
     1
281
     1
  3
ACAD_XREC_ROUNDTRIP
360
8CE
  0
DICTIONARY
  5
8C3
330
36
100
AcDbDictionary
280
     1
281
     1
  3
ACAD_XREC_ROUNDTRIP
360
8C4
  0
DICTIONARY
  5
8B7
330
30
100
AcDbDictionary
280
     1
281
     1
  3
ACAD_XREC_ROUNDTRIP
360
8B8
  0
DICTIONARY
  5
8CF
330
3C
100
AcDbDictionary
280
     1
281
     1
  3
ACAD_XREC_ROUNDTRIP
360
8D0
  0
XRECORD
  5
8DE
102
{ACAD_REACTORS
330
8DD
102
}
330
8DD
100
AcDbXrecord
280
     1
102
SHADEPLOT
 70
     0
102
SHADEPLOTRESLEVEL
 70
     2
102
SHADEPLOTCUSTOMDPI
 70
   300
  0
XRECORD
  5
8E2
102
{ACAD_REACTORS
330
8E1
102
}
330
8E1
100
AcDbXrecord
280
     1
102
SHADEPLOT
 70
     0
102
SHADEPLOTRESLEVEL
 70
     2
102
SHADEPLOTCUSTOMDPI
 70
   300
  0
XRECORD
  5
8E0
102
{ACAD_REACTORS
330
8DF
102
}
330
8DF
100
AcDbXrecord
280
     1
102
SHADEPLOT
 70
     0
102
SHADEPLOTRESLEVEL
 70
     2
102
SHADEPLOTCUSTOMDPI
 70
   300
  0
XRECORD
  5
8A9
102
{ACAD_REACTORS
330
1A
102
}
330
1A
100
AcDbXrecord
280
     1
102
MATERIAL
148
0.0
149
0.0
149
0.0
 93
        0
 94
      127
282
     0
 72
     0
 77
     0
171
     0
175
     0
179
     0
273
     0
  0
XRECORD
  5
1C
102
{ACAD_REACTORS
330
1A
102
}
330
1A
100
AcDbXrecord
280
     1
270
     1
271
     1
  0
XRECORD
  5
1B
102
{ACAD_REACTORS
330
1A
102
}
330
1A
100
AcDbXrecord
280
     1
270
     1
271
     1
  0
XRECORD
  5
1F
102
{ACAD_REACTORS
330
1A
102
}
330
1A
100
AcDbXrecord
280
     1
270
     1
271
     1
  0
XRECORD
  5
1E
102
{ACAD_REACTORS
330
1A
102
}
330
1A
100
AcDbXrecord
280
     1
270
     1
271
     1
  0
XRECORD
  5
20
102
{ACAD_REACTORS
330
1A
102
}
330
1A
100
AcDbXrecord
280
     1
270
     1
271
     1
  0
XRECORD
  5
1D
102
{ACAD_REACTORS
330
1A
102
}
330
1A
100
AcDbXrecord
280
     1
270
     1
271
     1
  0
XRECORD
  5
8A8
102
{ACAD_REACTORS
330
12
102
}
330
12
100
AcDbXrecord
280
     1
102
MATERIAL
148
0.0
149
0.0
149
0.0
 93
        0
 94
      127
282
     0
 72
     0
 77
     0
171
     0
175
     0
179
     0
273
     0
  0
XRECORD
  5
14
102
{ACAD_REACTORS
330
12
102
}
330
12
100
AcDbXrecord
280
     1
270
     1
271
     1
  0
XRECORD
  5
13
102
{ACAD_REACTORS
330
12
102
}
330
12
100
AcDbXrecord
280
     1
270
     1
271
     1
  0
XRECORD
  5
10B
102
{ACAD_REACTORS
330
12
102
}
330
12
100
AcDbXrecord
280
     1
 70
     1
 90
1959938040
 71
     1
  1
3A65FB64-1533-49AF-86B6-5FC32B29A806
311
504B03040A0000080000CD4C39403DEE336E79000000790000001B0000006175746F6465736B2D64657369676E2D7061636B6167652E786D6C3C3F786D6C2076657273696F6E3D22312E302220656E636F64696E673D227574662D3822203F3E3C666F726D6174733E3C666F726D61743E687474703A2F2F736368656D612E
311
6175746F6465736B2E636F6D2F64657369676E2D7061636B6167652F323030393C2F666F726D61743E3C2F666F726D6174733E504B0304140006080800CD4C3940D486FD9CA0000000F4000000130000005B436F6E74656E745F54797065735D2E786D6C7D8EC10E82300C865F65E91D8A1E8C310C0EEA1BF002731658846E
311
D98AC1B77784ABF1D8FE5FBFBF75BBCE937A534CCEB38643598122B6FEE978D0B0485F9C41B54DDD7D022595594E1A469170414C76A4D9A4D207E29CF43ECE46F218070CC6BECC4078ACAA135ACF422C856C0E68EA1BF5669944DDD7BCDE7B1F8E415D77AECB980613C2E4AC91FC167A2B244592486606FC29C8FD7F045B9A
311
EF7053A7E60B504B0304140006080800CD4C3940C02D9775EA0000007C01000008000000636F72652E786D6C8D904D6E83301085AF62CDDE600CA1808CA3942827E8052CDBA156828DFC53F5F8350991DA5D57337AF3BE99D163C7EFE58EBEB40FC6D911AA8200D2563A65EC3C428A57DC013A72E69D8BBF6C80AC58F4089B
311
0C9CCDDEA57597A4B351DB9855EB94DE4511828E80E43D372304F9A917518814B323DC8A55C89B987551BDBA0CA764147A1E312AEF3357A33DF0E932B53D793F607AA23D6E9AAEC7DDA525984E4D5DD3734BCEA79E951BCC5934CBEBBEF45A44AD805352514C2A4C0F1FA41FEA6EA06F98B40321ACDCEC7FA0B4AA7F42C9D8
311
58D3FDDD27168057F991C780B372CB22974750B96EB9F11F504B0304140006080800CD4C394055019EA25F0000007C00000007000000636E782E786D6C4DCB3B0E80201045D1AD90E915ED2CF8AC45050C11660C8261F98AB1B07AC9C97D42D718D865D3E909258CFD00CCE24AC6E326A164D74DC0B4128928FF326038472B
311
A13128B1252AC747C6BAB984FC68F0B87FE8960A5C09FE86CFB69FBA01504B0304140006080800CD4C39407DF4E99666010000020300000C0000006662782F636F72652E786D6C8D52D18E823010FC95A6EFA5A5A827A6D4781ABFE07EA042E51AA125A5257EFE2D82F1BC18732129CDCCCEEEEC80D85EDB060DDAF7C6D902
311
A709C348DBD255C6D6058EE14CD6186DA5F0CE855F651859D5EA028F3096A2F62E7633543A1BB40D805A57E919547DAF034665039702F7E5B76E55A262808AFE9274AABCA85A27690234D449D1070F06D034643CB13C9FAE824EB814319A6A664D05D3CCD9688FE5FEB85FE5EC7349F88EE764B158E7647D5C31C2F78B2CE3
311
87153BEC724147B114C1B47777A5D72AE80A4BCE524E584AF8F28BE59B6CBDE11F84AD368C093A963F896257FD53148D0D199FED4EB21ECB148CDC883FDB424401F56A003F540A3A8608AF5BC2CF414320107250A7E6BEC705A04197C1F90530958B0F6A504DD43095A1DB23E8C442E75B03D8EC651FFEA6CFFB1EF00195AD
311
C19A0A703DC5304E17D3D4398A4E7B32842BB2CEB7AA79989B2C3ECEC7A097F2D235CEFF474DE755E91C261DFF5EF903504B0304140006080800CD4C3940919A58F97E0000009D0000000B0000006662782F636E782E786D6C4DCCD10E82201886E15B61FF3969058A1BE0C0E23E5CA263223483D6E5A7CD838EBEEDD9B797
311
B79FC5A3B75D5F2E0601E75309C886471C5C9804E4346206A8957C8D31FDDD00857EB1027606C9A735E6E741831DFBECD3A6DE85F9407A339DBE5757CCA85698748662A6CD0597554D146954DD300A85E4C5AFB4ED1E965F504B0304140006080800CD4C3940A6C4EA5B2B01000013020000310000006662782F3544464342
311
4536332D383542412D344346352D384246322D3036373441343941373938352F636F72652E786D6C8D51CB6EC32010FC15C4293DD8C66F3BC24449DA7C417FC00192A2C460F1A8F2F95D6A476A6FB9B06876667660E9EE31DDD1B7B44E193DE03C251849CD8D50FA3AE0E02F4987D18E516B8CFF43C3488F931C708431A357
311
6BC2BC42DC682FB507541B215770744E7A8CF81D2E0376FC4B4E633A060F0C774BE791DFC6AB4CF314DAC063D4790B01D032249E98D5EFA7E3E1A32993AE3EEC93EA78AA93EE702A12D2B4D5BEEAF76DDFD5345B848C86A0C42A5702E2A88B92F655932866D4ABE9199F5B397A29302B480E13F3A4A83F49BF2DBB6DD14280
311
2D21348BF47FA2308B174541695F166BDC45E630CB69B6341815269CEFCF30F2311BEB519CB77192BF6146525210D2D625CD1626BC1F2C9B6AB574DE58F8DFCDED0CE41C7E29FA3615A3595C1194DFFD418DEB643F504B0304140006080800CD4C39400E8D82444D01000033030000300000006662782F3544464342453633
311
2D383542412D344346352D384246322D3036373441343941373938352F636E782E786D6CD593CD6E022114855F85B09F5FADB586C1A48B3E4117DD3270552A03137E9AFAF6BD285A372EBAEC864CCE3D9C73F38561DBEFC9902FF0413B3BD0AE6E29012B9DD2763FD01477D59A922D67DEB97867A3C48A09069A65CAD9DEBB
311
341749C14E24135135DA1E8BE821B8E4250494F34D629C140603C05609459846500A14B919F16B071E5741713C917800F2F6FA41DCF8093206D6E414CE9ADCC1593E4BD39D8912694408030DF20093A8458A4E4138D64A445177F5B5EBC14EBF49245FB85626AF492E1F683E292F1BD5C8913538E42C448FF48A299E66A05C
311
CCB3D1524484DC9C8D170F6749DBB85A16AF46F01EDDDD6AB15C62D879C659D4131487F4202228CAFBB6EBABB6ABFAA7F7F665B3586FFAE7AA5D6DDA9635D9CED9E89C29973006BC9B897436828D9477ACC9E347F88A8F28ED91B5F3A73F804400A5F542E796F19FF934E7F78DB83CFE05FC07504B0304140006080800CD4C
311
3940B12057409B0500007B100000340000006662782F35444643424536332D383542412D344346352D384246322D3036373441343941373938352F6F626A656374732E786D6CAD575B6FA33814FE2B887D0E8424CDB62BCA2897C9289AEDCC68A219ED43A5C80143BD3517D9A64DF7D7EF673004D2A4CDAEE605B0B18FCFF9
311
CE772EF63FEC536E3D5121599EDDDA9E33B42D9A8579C4B2E4D62E553CB8B6AD0F812FF25C7596D95646527A6BEB693BF013919785998A684C4AAE8E6657F3BF2C19D28CDA56C88994B7B60C1F684A1C52AA3CA2F2D18988224E12EF1DCFA917F6C52682140F47420B2268A6A029E63348B16AA5BCFE7068BB81EFEAFF81AF
311
9F66D5F8FC2AB7B2A77F3ECBA42259F8EAB02331636FB2FC38BABA195C4D26E3C1643AF206F3D57C39F07E1F0F17D3C5E266F6F106074B2520C96822686C079F808D60A1EFD6BF02BF64991A8FCC12E32057D027A63D650723CBF3DD7A4D6B9D31F294FA619E6534ACB0021A957D4674440B9A45F039A3129A75101AF6879E
311
C6B1F37BACC7E6C8EEF465087477740435BA37EFAEA6F9EE6F98202F6190905433B0C6D2185A737578407897E7DCFC63D24A89A282116E71B61344BCD80196EA2581DF13A3992C7434680BEC005EA87FF7E982307A9FE7A7B48C4BCE358DEDA08A822D62852A5969C6FEA1E2A07D1719E8045F69365C1B83D44B41EDE0A6A6
311
C8F5119B6A20AD9893042E87997AE7787464E842C7E97A69079F57BBFD46C7EEE9C30B911754284D1F50AB715CF3D628199DBC8B3CA737D847AA1C40F90EE4BF20D40FAAC06F82ED27FB8939450992C93817297C630DADC1108FA1E5554FFDDDF9F2DD7673DF7BE7F084B33554BF00CFBE0D5D5F76E00CFC27103E176363DA
311
26241C69E38E65004893C4E239A69087E3DDDE0ED6C872C8CAD84578E0C164A8FB844FDF35629028AA933AEF0C581EA5C50B123460AB1809356AF21B050F7E7A95CEAA83CDB273F05EFD12BACE969BCF9B52C424A47726A69734661953287107DE7415EA61DEB3E891BE3CE72282A1AFF1DE74F14ECD5112686BCC35F04993
311
D3F5E07072EF8010FB925CA71BFF9D1360842EAC1DF9774C86947392D1BC6CCE7DB37EA06CD410EB60D74C6E0BCCA1B08034F59FA31844910E052B34886DB56A93A673C6BA1FEB2F60A41DCC5FFE242FDDECB53BE4DE30E7B9D8EE5EB6755A3A09F5CF3EB70D06AE9602BA5741D2C4BF017D1BB1382E2592E0095C7FAE175D
311
DFE9B48014D148ADA36502FB115C4418D2367251AD054125CDB32D43DD44DC9D3CA02B1F901A065402CF692C298FB78CF332DDC68CA31A6D53529C81E3FFEBBF2BD3624BD2BCCCD419D93DD5511DFABAF7D82B9F890A1FEC6053BD0773E4DE884667C8A06BC909AC7AAE1DCFA657ABF97432F0AEC6E89F6E66ABC1F5743E1D
311
5CAD16E3D17C7433BB1E4E1B3FD59A047E536ABA110D2FA1B4F9A560C67D3FD6881F9304ECE08E2879FFA90ECFE6FD63EDA017F65DEC41BD6C37CEA227F47D347A5FC061E54941EBB4E034A599223A86EEF407FF4ED067F494A9E7D72949E80552BE7EDA1C1983990BF67DD3F14E9F8FF69AD9850EC89342D44399EE32C2F8
311
D1C6A446D229B2C4E0D7F8A47DD785A619EA91710C3A53997316210F465642F3942A64C30B8A9048A904F5BA3D7D64EE1E17EC7EAA3B4445769C369A3C1034C95C222C40AD3254FD79EB373475BAAFBAB5516E9D473C4CA6B02D70E6D64693AE5848A5B34381D6AD50251C5CEA76F268FC499670F4DAF5A676DCEED2D8F44A
311
72BBE492FEC9D855A7706300D24881BE010D11BC532913F8956EE67FF89F0C6FD4B188C2E7AE54AD2D8789D698EA1884686D94B92DA089793447EF11A86F9BE539D59A1E2217DDB2DE24412D75A08848AA9B82D6CFA8345B7E73D1A158EBAF56C1CB04BEBC5CD2405090B9D4010E16811546664114A8BAF8E3FE9BC871934D
311
AD150305EE17799AE69919CCCC4DD8DA3CE05E1BDD232D507D2191F7A3A137BAAF2E02E66EB2DD11491D12C9474CC0A782B510F71C0F46D6B74554A0FA47BBCED54E38E2E67A69999236815043946E56D5B0A0E5C8A885E8D197491D2BDD05C59B7701B75A0A1504BAF8E05F504B0304140006080000CD4C39400000000000
311
00000000000000350000006662782F35444643424536332D383542412D344346352D384246322D3036373441343941373938352F76657274696365732E62696E504B0304140006080800CD4C3940F270F1330600000004000000360000006662782F35444643424536332D383542412D344346352D384246322D3036373441
311
343941373938352F747269616E676C65732E62696E636660600000504B0304140006080000CD4C3940000000000000000000000000370000006662782F35444643424536332D383542412D344346352D384246322D3036373441343941373938352F617474726962757465732E62696E504B0304140006080800CD4C3940D5
311
987DFC8F00000041010000360000006662782F35444643424536332D383542412D344346352D384246322D3036373441343941373938352F6469726563746F72792E786D6C858F410EC2201045AF4266AF15DDB800BA74E7C21B903225242D6328188F2FA5C4183471359997F9FF81E89FF3C41E1816475E02DF1F80A11FC8
311
386F25A438EECEC07A250251FC3803E6F58C12560C4AD840E95E91C151A72936F496F35732D860FE635F62C8F2DA16B505C545B74125BAA2FA9E05D7CC053D063734D5C7665FD55B6B8D15D5E9BFEAFD8490FFA45E504B0304140006080800CD4C3940D386B9EDFC000000A00100003B0000006662782F3544464342453633
311
2D383542412D344346352D384246322D3036373441343941373938352F7265736F75726365732F636F72652E786D6C8D504B6E833010BD0A9ABDC1184A01194729514ED00B586642AD041BF953F5F835814AEDAE9B99D1FB689E1E3F7D2D8FEC139DD7D60C50E6143234CA4EDACC03C470232D6427C19DB5E1970C3223171C
311
608341F0D9D9B81E90B226A009093576C20394DE63804C3DD23180571FB8C85CC69014FE9EAF52DDE58C7999273AE904F7C1A500D9FE649B201C7A1B9D42CF8B9D153C463D1D1A3DA59FFAA6D18118AF63D3D1B79AB033EB485DB71D69AF0D256CACAB8A5D1A7A3977BCD8CC8207BDFC64540E65C00904A32523B424ECE59D
311
767DD5F6EC95D0A6A794179BFC8F29AED33F4D519B50B123EE6EF320CA14E449085E6C7DA5F52C33EDAD5BF10D504B010214000A0000080000CD4C39403DEE336E79000000790000001B00000000000000000000000000000000006175746F6465736B2D64657369676E2D7061636B6167652E786D6C504B01021400140006
311
080800CD4C3940D486FD9CA0000000F40000001300000000000000000000000000B20000005B436F6E74656E745F54797065735D2E786D6C504B01021400140006080800CD4C3940C02D9775EA0000007C010000080000000000000000000000000083010000636F72652E786D6C504B01021400140006080800CD4C394055
311
019EA25F0000007C000000070000000000000000000000000093020000636E782E786D6C504B01021400140006080800CD4C39407DF4E99666010000020300000C00000000000000000000000000170300006662782F636F72652E786D6C504B01021400140006080800CD4C3940919A58F97E0000009D0000000B00000000
311
000000000000000000A70400006662782F636E782E786D6C504B01021400140006080800CD4C3940A6C4EA5B2B0100001302000031000000000000000000000000004E0500006662782F35444643424536332D383542412D344346352D384246322D3036373441343941373938352F636F72652E786D6C504B010214001400
311
06080800CD4C39400E8D82444D010000330300003000000000000000000000000000C80600006662782F35444643424536332D383542412D344346352D384246322D3036373441343941373938352F636E782E786D6C504B01021400140006080800CD4C3940B12057409B0500007B10000034000000000000000000000000
311
00630800006662782F35444643424536332D383542412D344346352D384246322D3036373441343941373938352F6F626A656374732E786D6C504B01021400140006080000CD4C39400000000000000000000000003500000000000000000000000000500E00006662782F35444643424536332D383542412D344346352D38
311
4246322D3036373441343941373938352F76657274696365732E62696E504B01021400140006080800CD4C3940F270F13306000000040000003600000000000000000000000000A30E00006662782F35444643424536332D383542412D344346352D384246322D3036373441343941373938352F747269616E676C65732E62
311
696E504B01021400140006080000CD4C39400000000000000000000000003700000000000000000000000000FD0E00006662782F35444643424536332D383542412D344346352D384246322D3036373441343941373938352F617474726962757465732E62696E504B01021400140006080800CD4C3940D5987DFC8F000000
311
410100003600000000000000000000000000520F00006662782F35444643424536332D383542412D344346352D384246322D3036373441343941373938352F6469726563746F72792E786D6C504B01021400140006080800CD4C3940D386B9EDFC000000A00100003B00000000000000000000000000351000006662782F35
311
444643424536332D383542412D344346352D384246322D3036373441343941373938352F7265736F75726365732F636F72652E786D6C504B0506000000000E000E00800400008A1100000000
310
504B03040A0000080000CD4C39403DEE336E79000000790000001B0000006175746F6465736B2D64657369676E2D7061636B6167652E786D6C3C3F786D6C2076657273696F6E3D22312E302220656E636F64696E673D227574662D3822203F3E3C666F726D6174733E3C666F726D61743E687474703A2F2F736368656D612E
310
6175746F6465736B2E636F6D2F64657369676E2D7061636B6167652F323030393C2F666F726D61743E3C2F666F726D6174733E504B0304140006080800CD4C3940D486FD9CA0000000F4000000130000005B436F6E74656E745F54797065735D2E786D6C7D8EC10E82300C865F65E91D8A1E8C310C0EEA1BF002731658846E
310
D98AC1B77784ABF1D8FE5FBFBF75BBCE937A534CCEB38643598122B6FEE978D0B0485F9C41B54DDD7D022595594E1A469170414C76A4D9A4D207E29CF43ECE46F218070CC6BECC4078ACAA135ACF422C856C0E68EA1BF5669944DDD7BCDE7B1F8E415D77AECB980613C2E4AC91FC167A2B244592486606FC29C8FD7F045B9A
310
EF7053A7E60B504B0304140006080800CD4C3940829231C7E90000007C01000008000000636F72652E786D6C8D904D6EC3201085AF82668FCD4F62BB162692D3DEA01740405C94182C03558E5F9C3852BBEB6A466FDE37337AE2749F6FE8DBAED1053F00AD0820EB7530CE4F03E474C11DA093146B08E9970D9057B31D6093
310
418A690D79D9251D7CB23E15D507637751C56813207D2BCD00517FD959552AA7E288D76A51FAAA265BD15757E09C9D41CF23CE947DEEE2EC0A9250DE36E3C871D31D477C200DC35DCB39269C9DC70FF64EC6E620EA0D9622B9F9755FAF56256B403242192614B3E32779EB79D7B31693A62744D49BFD0F9417F34F283B9F38
310
DBDF7D6211242D8F3C0652D45B16A53C822A75CB4DFE00504B0304140006080800CD4C394055019EA25F0000007C00000007000000636E782E786D6C4DCB3B0E80201045D1AD90E915ED2CF8AC45050C11660C8261F98AB1B07AC9C97D42D718D865D3E909258CFD00CCE24AC6E326A164D74DC0B4128928FF326038472BA1
310
3128B1252AC747C6BAB984FC68F0B87FE8960A5C09FE86CFB69FBA01504B0304140006080800CD4C39404A83333065010000020300000C0000006662782F636F72652E786D6C8D52ED8E8320107C15C27F04B1B55E8334F1EEDEE05E802AF54C150C82E9E3DFFAD178BD34CDC504C9CCCEEEECA838DDBA168DDA0D8D35398E
310
23869136A5AD1A53E738F80BC9303A49E1ACF5BFCA3032AAD3399E602C45ED6CE857A8B4C66BE30135B6D22BA886417B8CCA162E391ECA6FDDA948050F15C335EA557955B58EE20868A89362F00E0CA065C874627939DF045D70294268AA956D2A98D65C1AEDB0647172488B222169B62FC88EA59C648724212CE1EFC527FF
310
6045BA1374124BE19BEEEEAE745A795D61C959CC098B09DF7FB1B763921DF981B0F4C898A053F98328F4D53F45A1313EE1ABDD45366019839199F8B32D44E4D1A046F043A5A05388F09A137E0C1A028190BD3AB7F73DAE008DBAF4D6ED80A96CD8A851B541C35486E647D08585CE7303D8EC691FFEA2CFEB1EF00195A9C19A
310
F2703D073F4D17CBD4358A5E3B32FA1B32D675AADDCC2D16B7731BF4545EDAD6BAFFA8E9BA2A5DC3A4D3DF2B7F00504B0304140006080800CD4C3940DCC263E17F0000009D0000000B0000006662782F636E782E786D6C4DCCDF0E82201C86E15B61BF73120B8336C0F907EEC3253A164223695D7EDA3CE8E8DB9E7D7B45FD
310
593C7ADBF4723148284F04900DF738BA304BC8EB8439A05A8914E3FA77031486C54AD819949853CCCF83463B0DD9AF9B7A171E07B6DC68D230837BD26A4CAF94E3A6EA7ADC5537C34A76A617CDA150A2F895B6DDC3EA0B504B0304140006080800CD4C394082216A042A01000014020000310000006662782F423846453041
310
37462D443042452D343634382D413543442D4335394637313732343345382F636F72652E786D6C8D51CB6EC32010FC15C4293D6063FC4C8489F2FC82FE00C1244589C1E251E5F30BB523B5B75C58343B333BDAA5DBE7F800DFD23A65740F8B0C4320B53083D2B71E067F451D045B46AD31FE0F0D02CD47D9C30443466FD684
310
698184D15E6A1F516D06B980DC39E921108FF8E9A1135F72E4190F3E32DC3D9BB8B8F39BCC8A2CB6238F51E76D0C00E621E9856CDF9D4F78D79ED111EF4FA86AAA0EEDEAC3111DEAF5B92D5A5295A78EE6B390D110D4B0C8D510E3A8AB92F65D932466D4ABF1155F58C9BD1C2023B820081788D49F78BD29BB0D69116E3618
310
D33CD1FF89C234BC290A4AFB922C71679983ACA0F9DC607430E1F2788591CFC9580FD2BC9593E203329C6182BBAE2EE302666A5C40F46CAAC5D37963E38257F74B64978B7153319AA71BC5F27BC058D33DD90F504B0304140006080800CD4C3940682A4D535501000033030000300000006662782F42384645304137462D44
310
3042452D343634382D413543442D4335394637313732343345382F636E782E786D6CBD93CD6EC32010845F0571F76F52D78D30917AE813F4D02B864D4383C1025C356FDF2521692E3954AA7A41D6EC30B3FA84D9F66B32E4137CD0CE0EB4296B4AC04AA7B47D1FE81277454FC99633EF5CBCB15162C504034D32E5ECDDBB65
310
CE92829D584C44D5687BC8A287E0162F21A09C6E12E3A4301800B65850846904A54091AB11BF76E0711514C723897B202FCF6FC48D1F206360554AE1AC4A1D9CA53337DD982891468430D020F73089522CD1290887528928CAA6BC74DDD9E92789A40B97CAC56B92CA079A4ECAF346257264150E390BD123BD6C8AC7192817
310
F36CB41411215727E3D9C3D9A26DECD6D9AB11BC47F7AAEDFA1EC34E33CEA29E203BA407114151DED64D5BD44DD13EBCD64F9B55BF691F8BBADBD435AB929DB3D139932F610C783713E96C041B296F5895C6F7F0651F51DA236BE78FBF00890072EB99CE35E32FF934DD6ABDFE473ED5E97D232E8F7F01FF06504B03041400
310
06080800CD4C3940275E51E15A070000941B0000340000006662782F42384645304137462D443042452D343634382D413543442D4335394637313732343345382F6F626A656374732E786D6CED595B73A33614FE2B0C7D3636BEA44987B093389B8CA7CDEECEBABBD387CC3032C8448D108C2492B8BFBE4717301093E06EFA
310
B60F3620A4A373BE73D521F8F09C51E71173417276EEFADEC475308BF384B0F4DC2DE57674EA3A1FC280E7B96C4C731D86327CEEAA61370C529E97851D4AF01695547646AF2FFF72448C19769D982221CE5D11DFE30C79A8947982C583972089BC74FBECF99E99D8269B7254DC7788168863268153186740C5314CF9EDC789
310
3B0E83B17A1F06EADFCE9A0D9A35EF9F35D652B7B9244C48C4E2172C75C8CC06B134F3E7571FA78BB3D1623E9F8DE627537F74797D7935F27F9D4D9627CBE5D9C5C733606F93E7D4CA94E002B304F4B773433F18AB37B5E81681435CC7396338D64002545AAC2E4182056CD5806FD27EF495448DD75AC2C6F35CBDB72C3486
310
676D2A7DB38601D1A20B82D8ED2A89AB6B53BE7CF337082E861825175802B74272D0AE85878357B8E124189BD130D8EC7541849321893941D4A164C31107A5C05435250CCC024B46390707528E92406BCEBC6EDB1678E6DBAE7388CB6D49A9F20C37D48E1581FB61293467E41FCCF7DC3791019E40DA9230796AB994BB02BB
310
E15930D68361A02EB3A97D698074B614A5422362DE76045D2AD75F5DB9E1EFD79BE7B50A0787372F785E602E95D1293D6ABEC090ED55A164B7F507694E2D00610CA876E51E94AF80FC27881E7B56406F9C3CCF9FE776AEE488896DCE33D08D33714613F89B38BEFE57F78DBB605C2F6E6BAF0F4F705305D5E98FE3D9964163
310
65F96FC019068F60F0399FD957EB1851B0E75BC2002065240ECD610842FB76F3EC862B089C10E86115A2A10F2203BB8F701B8C2D99BD562AF7B25EC70051BBC76C889200366D91C0468F9E6E207B7012EFD5D414B10FDEC5BB98EBC5D5FAF775C9B728C6B7D6A7AFF0963022216B1E66A885794BA207BC7BCA790282BEC47B
310
DDC43BB35B09405B61AE804F2B10D4C37EE7D60631AC4B73156E823776002154AE6ED0BF2522C6942286F3B2DAB78E6ECA506B8FB735831B4E0DC4B369C784397E24AAAA00A7D9CF68310A793FE6A45020BAE18D91AC0E9A5E8F74DF569FC022EBF93DB3560C422F43F44F1DB40EE0D0B2EC0A690B442DF0661FCEE39CE63C
310
DAEC2213E95CA825808DB6B77C6F1185586F94A4A8800769BFAB424A6AA48D12B2DD9602E2EA0116BFAF964D739878337FE134FF3BCE3887680BBE8BB8F5BBCE1E11C9508AA32D4AFAB66BEE56D3169A640F698EB714E4228F44EE2224A34982D363A0398AF8D9BB524F692E04615840BE3A087E138D890781C468B3625969
310
B5033411518625A2C720A0C8F480ABD38EAE7163281DDEE6B1B6DED734D624FA3F590447504BE62C22508A420E799371DF5B400C69A36B50EEE00BD656D1D662D0124A8878173D6192DECB635037E47B708FE14852CA282F500C663D80EC0B5F514AEDF0BE41F183CA1F515CD2F7321081E93622949659043FC2E0E431C4B5
310
EBC0F42A0A0DE226F6499C41518664C9876C72B298BCD8C7D40CDD10D8D8684B2884ED2843450FEAAD80A8EB11A706DF52EF51EAA6CC8A086579C906198A37EB7A9325DF55AB223B905F552A42D95811B604C380305967D52A6683A9EBC00A6EA403D52E12282BA83985BD9178FCDA9B34E5DE0DB8F5D3F7DD2083C2AF477B
310
CD883AAF60B03CB60A03F184647CEF866B7D1D5D42FD9DE0649FEAAB5AB3590102622A92979C58157D5B4179636B3437BC4552DCDD98AC5B5DBFAD3CE87E04635803B54BBD70A580CE3093485526B7EA867E4510825B34CCF84AE5D463A85C2489AE1A11BD267DEA6C9511AD4D33E215F798E519FCD81D61312D137C8712F1
310
10DD4A1AAD8962DD4AE965A4C2F855013FDFAC3BF0C0C80091BEA8020F3F75D6DAD1A52A970E1291F765B6618840106C89961ADD78054BAD462A2DD75775A680BA0B0CCCAA78FEF364D16C47FC3C59A4D6307EE86471B9FB03ED9A7D91463A8F955D1F750CA8F393A2F21EC700DD76A8A9D659C424732BBF75A608826215E5
310
07576355D03004FB38FECF59BB2F0B9AED3AFC1F97B5FD1715C75159A5355975A90E54AEAB660E9B5D9C2CAE2F4FE6237F318306EDD9C5F5E8F4E4F264B4B85ECEA697D3B38BD3C9498DA676D430A88399CE5DF06C825A35AC9E2C06D095153925099CE61327C510F3259CE907B4CF79860524CF66B33BB14DF901AB1F4D9F
310
53A20DC51527F7081AC454405A078CCA58B6C79D5FA03529E1A07DEE42D3C87B803F6B95AE0399E7DC855681243116DE06DA4CAAA1A78943CAD5B9DF12037C104B554A348BEAE77A95C2A615FEEB2943D28095ABD5C380C2AD80EE57AB43A179B33CC547095EB1E32009B79B5242B56664D90FD4C2E86DF6EA37B251C21EEC
310
D6CFE0BAAF8BE57B7A4E0B91419F0C5E3502437524114F75BF5B316659BAB8FA32863E9BB3FAEC14B44C4197C3298D3806632E5541055604566169164882A92E7FBBFBC273F8C49339BA2ABA5BE6599633FB7001E7B1043E1139EB7BF8E093DC41D980555B5DDC4D27FEF44EB7B36D873DDA20813D550FC140554628113AC6
310
0616F9A235651B9763A584CEF4D59563C327B4018C05BDE8EE9ACF5B0E788FFA90A27C457B7825E7AB1DEDB19E0AD6C0A1171DFE0B504B0304140006080000CD4C3940000000000000000000000000350000006662782F42384645304137462D443042452D343634382D413543442D4335394637313732343345382F766572
310
74696365732E62696E504B0304140006080800CD4C3940F270F1330600000004000000360000006662782F42384645304137462D443042452D343634382D413543442D4335394637313732343345382F747269616E676C65732E62696E636660600000504B0304140006080000CD4C39400000000000000000000000003700
310
00006662782F42384645304137462D443042452D343634382D413543442D4335394637313732343345382F617474726962757465732E62696E504B0304140006080800CD4C3940D5987DFC8F00000041010000360000006662782F42384645304137462D443042452D343634382D413543442D433539463731373234334538
310
2F6469726563746F72792E786D6C858F410EC2201045AF4266AF15DDB800BA74E7C21B903225242D6328188F2FA5C4183471359997F9FF81E89FF3C41E1816475E02DF1F80A11FC8386F25A438EECEC07A250251FC3803E6F58C12560C4AD840E95E91C151A72936F496F35732D860FE635F62C8F2DA16B505C545B74125BA
310
A2FA9E05D7CC053D063734D5C7665FD55B6B8D15D5E9BFEAFD8490FFA45E504B0304140006080800CD4C394091391F5FFB000000A00100003B0000006662782F42384645304137462D443042452D343634382D413543442D4335394637313732343345382F7265736F75726365732F636F72652E786D6C8D504B6E833010BD
310
0A9ABDC1D80950641C89B637E8052C332156828DFCA97AFC9A40A576D7CDCCE87D344F4F5CBE9647F1893E186707A84B0A055AED2663E70152BC920E8A8B14DEB9F84B0685550B0EB0C120C5EC5D5A0F483B1BD1C68C5A37E101AA103042A11FF91820E81B2EAA54296645B897ABD2773563599799CE3A2942F43940B13FD9
310
26488FC125AF31886A67A548C94C87C64CF9A7B91AF42069CDDB661C1969BAF3484EB461A46B392794B3D7F19DBDD1B139896A334B11CDF293517B541127908CD68CD09AB0F3077DE979D7B396D0A6A754549BFC8F29ADD33F4DC9D8C8D91177B70590750EF224A4A8B6BEF27A9699F7D6ADFC06504B010214000A00000800
310
00CD4C39403DEE336E79000000790000001B00000000000000000000000000000000006175746F6465736B2D64657369676E2D7061636B6167652E786D6C504B01021400140006080800CD4C3940D486FD9CA0000000F40000001300000000000000000000000000B20000005B436F6E74656E745F54797065735D2E786D6C
310
504B01021400140006080800CD4C3940829231C7E90000007C010000080000000000000000000000000083010000636F72652E786D6C504B01021400140006080800CD4C394055019EA25F0000007C000000070000000000000000000000000092020000636E782E786D6C504B01021400140006080800CD4C39404A833330
310
65010000020300000C00000000000000000000000000160300006662782F636F72652E786D6C504B01021400140006080800CD4C3940DCC263E17F0000009D0000000B00000000000000000000000000A50400006662782F636E782E786D6C504B01021400140006080800CD4C394082216A042A0100001402000031000000
310
000000000000000000004D0500006662782F42384645304137462D443042452D343634382D413543442D4335394637313732343345382F636F72652E786D6C504B01021400140006080800CD4C3940682A4D5355010000330300003000000000000000000000000000C60600006662782F42384645304137462D443042452D
310
343634382D413543442D4335394637313732343345382F636E782E786D6C504B01021400140006080800CD4C3940275E51E15A070000941B00003400000000000000000000000000690800006662782F42384645304137462D443042452D343634382D413543442D4335394637313732343345382F6F626A656374732E786D
310
6C504B01021400140006080000CD4C39400000000000000000000000003500000000000000000000000000151000006662782F42384645304137462D443042452D343634382D413543442D4335394637313732343345382F76657274696365732E62696E504B01021400140006080800CD4C3940F270F13306000000040000
310
003600000000000000000000000000681000006662782F42384645304137462D443042452D343634382D413543442D4335394637313732343345382F747269616E676C65732E62696E504B01021400140006080000CD4C39400000000000000000000000003700000000000000000000000000C21000006662782F42384645
310
304137462D443042452D343634382D413543442D4335394637313732343345382F617474726962757465732E62696E504B01021400140006080800CD4C3940D5987DFC8F000000410100003600000000000000000000000000171100006662782F42384645304137462D443042452D343634382D413543442D433539463731
310
3732343345382F6469726563746F72792E786D6C504B01021400140006080800CD4C394091391F5FFB000000A00100003B00000000000000000000000000FA1100006662782F42384645304137462D443042452D343634382D413543442D4335394637313732343345382F7265736F75726365732F636F72652E786D6C504B
310
0506000000000E000E00800400004E1300000000
  0
XRECORD
  5
17
102
{ACAD_REACTORS
330
12
102
}
330
12
100
AcDbXrecord
280
     1
270
     1
271
     1
  0
XRECORD
  5
16
102
{ACAD_REACTORS
330
12
102
}
330
12
100
AcDbXrecord
280
     1
270
     1
271
     1
  0
XRECORD
  5
18
102
{ACAD_REACTORS
330
12
102
}
330
12
100
AcDbXrecord
280
     1
270
     1
271
     1
  0
XRECORD
  5
15
102
{ACAD_REACTORS
330
12
102
}
330
12
100
AcDbXrecord
280
     1
270
     1
271
     1
  0
XRECORD
  5
8AA
102
{ACAD_REACTORS
330
22
102
}
330
22
100
AcDbXrecord
280
     1
102
MATERIAL
148
0.0
149
0.0
149
0.0
 93
        0
 94
      127
282
     0
 72
     0
 77
     0
171
     0
175
     0
179
     0
273
     0
  0
XRECORD
  5
24
102
{ACAD_REACTORS
330
22
102
}
330
22
100
AcDbXrecord
280
     1
270
     1
271
     1
  0
XRECORD
  5
23
102
{ACAD_REACTORS
330
22
102
}
330
22
100
AcDbXrecord
280
     1
270
     1
271
     1
  0
XRECORD
  5
BA
102
{ACAD_REACTORS
330
22
102
}
330
22
100
AcDbXrecord
280
     1
 70
     1
 90
1959938040
 71
     1
  1
64C5B112-872D-479D-A5E5-4A062E863793
311
504B03040A0000080000CD4C39403DEE336E79000000790000001B0000006175746F6465736B2D64657369676E2D7061636B6167652E786D6C3C3F786D6C2076657273696F6E3D22312E302220656E636F64696E673D227574662D3822203F3E3C666F726D6174733E3C666F726D61743E687474703A2F2F736368656D612E
311
6175746F6465736B2E636F6D2F64657369676E2D7061636B6167652F323030393C2F666F726D61743E3C2F666F726D6174733E504B0304140006080800CD4C3940D486FD9CA0000000F4000000130000005B436F6E74656E745F54797065735D2E786D6C7D8EC10E82300C865F65E91D8A1E8C310C0EEA1BF002731658846E
311
D98AC1B77784ABF1D8FE5FBFBF75BBCE937A534CCEB38643598122B6FEE978D0B0485F9C41B54DDD7D022595594E1A469170414C76A4D9A4D207E29CF43ECE46F218070CC6BECC4078ACAA135ACF422C856C0E68EA1BF5669944DDD7BCDE7B1F8E415D77AECB980613C2E4AC91FC167A2B244592486606FC29C8FD7F045B9A
311
EF7053A7E60B504B0304140006080800CD4C3940E660B780EA0000007C01000008000000636F72652E786D6C8D90416EC3201045AF82668F0D38B5898589ECB437E80510260E4A0C9681AAC72F4E1CA9DD7535A33FFFCD8CBE387DCF77F465D660BDEB8016049071DA8FD64D1DA478C11CD0498AD5FBF8CB06C8A9D974B0C9
311
20C5B4FAB4EC92F62E1A17B3EAFC687651856022207DCF4D07415FCDAC0A956276845BB1287D539329E8ABCB704A7644CF2376CCFBECC59A15E4F1C859DFD0017F9C2B8E0FACAF316F86036E6ACE87F33BEB29E3A2DC6029A29D5FF7F56A543423484628C38462F6F6498E6DC55B566352B7848872B3FF81D232FE134AD6C5
311
8AEDEF3EB10092E6471E0329CA2D8B5C1E41E5BAE5267F00504B0304140006080800CD4C394055019EA25F0000007C00000007000000636E782E786D6C4DCB3B0E80201045D1AD90E915ED2CF8AC45050C11660C8261F98AB1B07AC9C97D42D718D865D3E909258CFD00CCE24AC6E326A164D74DC0B4128928FF326038472B
311
A13128B1252AC747C6BAB984FC68F0B87FE8960A5C09FE86CFB69FBA01504B0304140006080800CD4C3940C354ECDA66010000020300000C0000006662782F636F72652E786D6C8D52ED8E8230107C95A6FF4BA17A88A6D4A8776F702F50A1728DD092D2121FFF960FC37931C69094666667777680EF6F4D8D7AE53A6D4D8E
311
9328C64899C296DA54390EFE42328CF6823B6BFD9F328C8C6C548E07180B5E391BDA192AACF1CA78408D2DD50CCAAE531EA3A2864B8EBBE247353292C14345778D5A595C65A5A224021AEA04EFBC0303681A329C585CCE374E275CF0107439B3BA8469FAA295C362BBCDD861931CC9D7699591353BA424DB1CD7649366D9F1
311
F4C90E09CB381DC4827BDDDCDD154E49AF4A2C589C301227847D7CC7DBDD2ADBB194C4E92E8E391DCA1F44A12DDF14056DFC8ACD7627598745024646E2DFB61091479DECC10F159C0E21C26B4CF83168080442F6F25CDFF7B802D4ABC25BB706A6B461A17A5907055363343E9C4E2C741E1BC0664FFBB0177D5EF7800F284D
311
05D6A487EB39F8613A9FA6CE51B4CA91DEDF90B1AE91F5626EB2B89CCBA0A7F2C2D6D6BDA3A6F3AA740E930E7FAFF805504B0304140006080800CD4C394091A564D77E0000009D0000000B0000006662782F636E782E786D6C4DCC4B0AC3201485E1ADC89D9B471563410DDAC73E426382D468B11ABAFC2625838E0E7C1C7E
311
D17F168F569BDE2E06096DD500B2E11147176609254F9803EA954831E6BF1BA0302C56C2CEA0C49C62791D34DA69283E6FEA5D781EC84EB4BB127AC6ECC23A4CA93158DF09C7BA258C194E9B9B26502B51FF4ADBEE61F505504B0304140006080800CD4C39402D2745C52C01000014020000310000006662782F3632343744
311
3334392D364336372D343442422D414633382D4131333636423834304541332F636F72652E786D6C8D51CB6EC32010FC158B537AC0064C881D61A2A48F2FE80F38405C94182C1E553EBFB876A4F6960B8B66676647BBFC701F6FC5B7F6C138DB015C2250682B9D3276E8408A17D880E220B8772EFEA181C2F6A3EEC00C03C1
311
07EFD2B442D2D9A86DCCA8754AAF601F828EA090B7FCE940905F7AECCB3EC5CC08D772EAE5B51F7489CBDCCE3CC143F43940B10C995F2018A1BBB79AB690BDB21DA4F47482C78FBA81475C33766A287A3FD6BC5A8482A764D42A372AC73117A3FDB326B358F068C6477CE9751FB50282204C20C2906C3F51BBAF9B3D6110B1
311
3D42BC9AE9FF4469524F8A92B1B1266BDC451680C0BC5A1A822B97CEB747187D9F9C8FC53C6F13B47C01029508B72D6AB784570B352F207B32BA7A86E87C5EF0E67ACE6CBC5D8C1915BC9A6F94CBEF01739DEF297E00504B0304140006080800CD4C39400F9806354D01000033030000300000006662782F36323437443334
311
392D364336372D343442422D414633382D4131333636423834304541332F636E782E786D6CD593BD6E032110845F05D1DFAF9D936371584A912748919683B543CCC1899F287EFB2C3676DCB84899069D668799D5278EEDBE6743BEC007EDEC48BBBAA504AC744ADBC34853DC571B4A769C79E7E29D8D122B66186996296707
311
EFD25224057B914C44D5687B2CA287E092971050CE37897152180C005B2514619E402950E466C4AF3D785C05C5E944E20790D79777E2A64F9031B026A770D6E40ECEF2599AEE4C944823421869901F308B5AA4E8148463AD441475575FBB1EECF49B44F2856B65F29AE4F291E693F2B2518D1C598343CE42F448AF98E26901
311
CAC5B2182D4544C8CDD978F17096B48DC3BA783582F7E8EE86D57A8D61E7196751CF501CD28388A028EFDBAEAFDAAEEA9FDEDAE7ED6AB3ED87AA1DB66DCB9A6CE76C72CE944B1803DE2D443A1BC146CA3BD6E4F1237CC54794F6C8DAF9D31F402280D27AA173CBF8CF7C9AF3FB465C1EFF02FE03504B0304140006080800CD
311
4C3940EB03B1D89B0500007A100000340000006662782F36323437443334392D364336372D343442422D414633382D4131333636423834304541332F6F626A656374732E786D6CAD575B6FA33814FE2B887DCE8524BDAD28A33469AB68D4996AA219ED43A5C880A1DE1A8C6CD349F7D7EF67300432499B5DCD4B08E6F8F89C
311
EF7CE762FFD336E3CE2B958A89FCDAF58663D7A179246296A7D76EA993C1A5EB7C0A7C2984EE88B94E4E327AED9A6537F05329CAC22EC5342125D77BAB77377F392AA239759D8813A5AE5D153DD38C0C49A9454CD5CB30269A0CD3643BF486B5605F6D2A49F1BCA7B42092E61A96623D8716A736CAEBBF8EDD51E08FCCF7C0
311
37BF566A7A5C6A54F9D33F9FE54A933CFAE5B03D35536FB6BC9D9C5D0DCE66B3E960763EF106377737CB8177311D2FCE178BABF9ED150E565A4293B544D2C40DEE818D64913FAA3F057EC9723D9D58111BA091A4AFCC44CA0D268EE78F6A99D63BEBE421F32391E734AAB0021A957F56754C0B9AC78839A30A9675101AF75F
311
3D8363E7F3D4BCDB23BBCBA721D0DDD151D4D8DE3CBB968AF06FB8A04E619054D430B0C6D23A5A7375BC43381482DB6F4C3919D15432C21DCE4249E49B1B40D488047E4F8D61B234D9603C700344A1FEDCA70BD2E8639E1FB2322939373476832A0B36C815AA556519FB87CA9DF55D6460136265D870691DD26F057583AB9A
311
22977B6CAA8174124E52841C6E9A9DD3C99EA30B93A7ABA51B7CBE0BB76B93BB870F2FA428A8D4863EA05613B8E66950B236792745CE6C70F74CD981F20DC87F41AAEF4C41DC24DBCEB6337B8A96245789901962E38C9DC1183F63C7AB7ECDFFCE3F7FD46EEE47EF189E08B681EA37E0D9F7A11BCB0E9C81FF0AC20B39B5AE
311
AD23C251361E580E800C491C2EB0843A9C845B3758A1CAA12A6317E181079761EE2BFEFA23AB0685A23AA9F3CC81E55E593CA14003B68A9130A326BF357017A75FCA5975B0153B06EFD96FA1EB7CB9FEBC2E654222FA60737A491396338D16B7E34DD7A01EE63D8F5EE8DB4F216338FA2BDEEB2EDE993D4A016D83B9013E6D
311
6ABA79D99DDC3B20C2BE549872E37F70029C308DB5A3FF81A988724E722ACAE6DC77FB07DA460DB14976C3E4B6C1EC1A0B48537FD9CB4134E948B2C280D876ABB6680E8F78F77DF5058C843C1721E13BA170577A23C185DC846F9BBA2A1D44FA479FDA168291D102B65739D2A4BFC57C13B32429156AE001587FAC16DDD099
311
AA800AD168AD936506F7915B445ACE367AD1AC25412315F986A16D22ED0E1ED0D50F442D012A85C72C5694271BC679996D12C6D18C3619298EC0F1FFED0FCBACD8904C94B93EA2BB673A9A43DFF61E79D54FA2A367375857CFC10D4A6F4CE35D987BC2A6951CC0AA17DAF3D9E2ECC6F32683CB8BC97230BBB85A0EE667B767
311
83D97C7C3EB9BD3C9F5E5C4D9B38D5CA03BFE934DD844694D0D9FC52321BBEEF2BA48FAD016EF040B47ABAAFB3B3797E5F0D310AFB23EC41BB6C37CEE3578C7D34FE58C14EF2A0A25556709AD15C1393420FE60FFF463066F48CA9D7571949E9095ABEDEAFF79CC1CA09FB1E4DBAD39F7B7BEDEAC224E44125FAB9CCC29C30
311
BEB731AD911C16796AF16B62D23EEB3ED3BC9A371B180CA64A7016A30CC64E4A4546358AE1093D486654817ADD913EB6578F1376BFD603A22621A78D25CF04333257480B50AB8C747FDDF903339D19ABAE5D74DBE10B7E6CA5701D70E6DAC58CAE5944D530447F369350A51C5CEA0EF298FB499E728CDAF5A6F6BDDD65B0E9
311
75E456E494F1C9FA555770EB00CA4881B101F310A2531913F8956DF67BF49F1C6FCC7188C6DFB0D4AD2FBB85D699EA18A468ED94BD2C608679B1476F91A8EFBBE50D2B991E22275DB2DE2541AD75A0894CAB8B82B1CF9A345F3E8E30A038ABAF4EC1CB14B13C5DD3405290B934090E16811556674134A8BAF8F3E9510A5C64
311
33E78E81024F0B916522B72F737B1176D6CFB8D6C64F280BD4DC47D4D364EC4D9EAA7B80BD9A6C42A2E890C4EA050B88A9642DC4BDC08391F565111DA8FED0CA8D4C10F6B8B95A3AB6A5CDA0D412A55B550D2C983872EA207BCC5DD2E44A57A078F72A30AA446182C4101FFC0B504B0304140006080000CD4C394000000000
311
0000000000000000350000006662782F36323437443334392D364336372D343442422D414633382D4131333636423834304541332F76657274696365732E62696E504B0304140006080800CD4C3940F270F1330600000004000000360000006662782F36323437443334392D364336372D343442422D414633382D41313336
311
36423834304541332F747269616E676C65732E62696E636660600000504B0304140006080000CD4C3940000000000000000000000000370000006662782F36323437443334392D364336372D343442422D414633382D4131333636423834304541332F617474726962757465732E62696E504B0304140006080800CD4C3940
311
D5987DFC8F00000041010000360000006662782F36323437443334392D364336372D343442422D414633382D4131333636423834304541332F6469726563746F72792E786D6C858F410EC2201045AF4266AF15DDB800BA74E7C21B903225242D6328188F2FA5C4183471359997F9FF81E89FF3C41E1816475E02DF1F80A11F
311
C8386F25A438EECEC07A250251FC3803E6F58C12560C4AD840E95E91C151A72936F496F35732D860FE635F62C8F2DA16B505C545B74125BAA2FA9E05D7CC053D063734D5C7665FD55B6B8D15D5E9BFEAFD8490FFA45E504B0304140006080800CD4C39408E8AEAB1FC000000A00100003B0000006662782F36323437443334
311
392D364336372D343442422D414633382D4131333636423834304541332F7265736F75726365732F636F72652E786D6C8D504B6EC32010BD8A357B6C20A943224CE4A4BD412F80F0C44589C1E253F5F8C5B12BB5BB6E6646EFA3797AF2FC353DAA4F0CD17AD701AB2954E88C1FAC1B3BC8E9460454672583F7E9970C2AA727
311
EC608141C931F83C6F90F12EA14B05757EC00DD4316282CA3CCAD141341F38E95AE75414F15ECFDADCF58835AB0B5D744AC6144A806A7DB24C5001A3CFC16094CDCA2A99B31D368D1DCA4F7BB318401D8F82F707D693B7EB4E903DEF5B220E973D39B4425CAEAFBC675CC866312B99ECF493D104D40907509C324E2823FCE5
311
9D1E4F3B71E22DA1ED8952D92CF23FA63C0FFF3465EBD28E6F71575B04C54A9027A164B3F455D6B3CCB2976ED537504B010214000A0000080000CD4C39403DEE336E79000000790000001B00000000000000000000000000000000006175746F6465736B2D64657369676E2D7061636B6167652E786D6C504B010214001400
311
06080800CD4C3940D486FD9CA0000000F40000001300000000000000000000000000B20000005B436F6E74656E745F54797065735D2E786D6C504B01021400140006080800CD4C3940E660B780EA0000007C010000080000000000000000000000000083010000636F72652E786D6C504B01021400140006080800CD4C3940
311
55019EA25F0000007C000000070000000000000000000000000093020000636E782E786D6C504B01021400140006080800CD4C3940C354ECDA66010000020300000C00000000000000000000000000170300006662782F636F72652E786D6C504B01021400140006080800CD4C394091A564D77E0000009D0000000B000000
311
00000000000000000000A70400006662782F636E782E786D6C504B01021400140006080800CD4C39402D2745C52C0100001402000031000000000000000000000000004E0500006662782F36323437443334392D364336372D343442422D414633382D4131333636423834304541332F636F72652E786D6C504B0102140014
311
0006080800CD4C39400F9806354D010000330300003000000000000000000000000000C90600006662782F36323437443334392D364336372D343442422D414633382D4131333636423834304541332F636E782E786D6C504B01021400140006080800CD4C3940EB03B1D89B0500007A100000340000000000000000000000
311
0000640800006662782F36323437443334392D364336372D343442422D414633382D4131333636423834304541332F6F626A656374732E786D6C504B01021400140006080000CD4C39400000000000000000000000003500000000000000000000000000510E00006662782F36323437443334392D364336372D343442422D
311
414633382D4131333636423834304541332F76657274696365732E62696E504B01021400140006080800CD4C3940F270F13306000000040000003600000000000000000000000000A40E00006662782F36323437443334392D364336372D343442422D414633382D4131333636423834304541332F747269616E676C65732E
311
62696E504B01021400140006080000CD4C39400000000000000000000000003700000000000000000000000000FE0E00006662782F36323437443334392D364336372D343442422D414633382D4131333636423834304541332F617474726962757465732E62696E504B01021400140006080800CD4C3940D5987DFC8F0000
311
00410100003600000000000000000000000000530F00006662782F36323437443334392D364336372D343442422D414633382D4131333636423834304541332F6469726563746F72792E786D6C504B01021400140006080800CD4C39408E8AEAB1FC000000A00100003B00000000000000000000000000361000006662782F
311
36323437443334392D364336372D343442422D414633382D4131333636423834304541332F7265736F75726365732F636F72652E786D6C504B0506000000000E000E00800400008B1100000000
310
504B03040A0000080000CD4C39403DEE336E79000000790000001B0000006175746F6465736B2D64657369676E2D7061636B6167652E786D6C3C3F786D6C2076657273696F6E3D22312E302220656E636F64696E673D227574662D3822203F3E3C666F726D6174733E3C666F726D61743E687474703A2F2F736368656D612E
310
6175746F6465736B2E636F6D2F64657369676E2D7061636B6167652F323030393C2F666F726D61743E3C2F666F726D6174733E504B0304140006080800CD4C3940D486FD9CA0000000F4000000130000005B436F6E74656E745F54797065735D2E786D6C7D8EC10E82300C865F65E91D8A1E8C310C0EEA1BF002731658846E
310
D98AC1B77784ABF1D8FE5FBFBF75BBCE937A534CCEB38643598122B6FEE978D0B0485F9C41B54DDD7D022595594E1A469170414C76A4D9A4D207E29CF43ECE46F218070CC6BECC4078ACAA135ACF422C856C0E68EA1BF5669944DDD7BCDE7B1F8E415D77AECB980613C2E4AC91FC167A2B244592486606FC29C8FD7F045B9A
310
EF7053A7E60B504B0304140006080800CD4C39405149B66BE90000007C01000008000000636F72652E786D6C8D904D6EC3201085AF82668F0DFE2516266A15DFA01740405C94182C03558F5F9C3852BBEB6A466FDE37337AFCFCBDDCD197D982F56E045A1040C629AFAD9B4748F18A19A0B3E09BF7F1970D90938B19619741
310
F079F3693D24E55D342E66D5796D0E518660222075CFCD08417D9A451632C5EC08B76295EA266753D05797E194AC46CF2356E77DF66ACD06A2A1EDD4D2A6C713610437EFFD0933D64CB86797AE9E2E534FDF3A5EEEB0E0D12EAFFB6A33321A0DA222B4C284E2AAFD20A7A16643D561D20D84F072B7FF81D2AAFF0925EB625D
310
1DEF3EB10082E6471E03C1CB3D8B5C1E41E5BAE7267E00504B0304140006080800CD4C394055019EA25F0000007C00000007000000636E782E786D6C4DCB3B0E80201045D1AD90E915ED2CF8AC45050C11660C8261F98AB1B07AC9C97D42D718D865D3E909258CFD00CCE24AC6E326A164D74DC0B4128928FF326038472BA1
310
3128B1252AC747C6BAB984FC68F0B87FE8960A5C09FE86CFB69FBA01504B0304140006080800CD4C394040C8941D65010000020300000C0000006662782F636F72652E786D6C8D52ED8E8320107C15C27F04AD55AF419ABBD437B817A04A3D53058360FAF8B77E345E2F4DD3982099D9D99D1DE5C75BD7A251D9A1313AC761
310
C03052BA3455A3EB1C7B7721194647C1AD31EE4F19465A762AC7138C05AFADF1FD0A95463BA51DA0DA546A05E530288751D9C225C743F9A33A1948EFA062B806BD2CAFB2564118000D75820FCE8201B40C994E2C2EE71BA70B2EB8F74DB5B24D05D39A4BA32C1671B82FF6619C9282658CC45FE907C9B2B82069764A76C5A9
310
48C3CF84D3492CB86BBABBBBD22AE9548545C4C288B09044FB6FF671D8658728212C3930C6E954FE20F27DF5A6C837DAEDA2D5EE221BB008C1C84CFCDB162272689023F8A182D3294478CD093F060D8140C84E9EDBFB1E578046553A6363602AE3376A94AD573095A1F9E17461A1F3DC00367BDA277AD1E7750FF88052D760
310
4D3AB89EBD9BA6F365EA1A45AF2C19DD0D69633BD96EE6168BDBB90D7A2A2F4D6BEC3B6ABAAE4AD730E9F4F78A5F504B0304140006080800CD4C3940D519FD947E0000009D0000000B0000006662782F636E782E786D6C4DCCDF0A83201C86E15B91DFB9FDB3C4408DDAEC3E625948A6C3E9D8E5AF46073BFAE0E1E3E5DD67
310
B7E8ADC3CB7827A0CC0A40DA3DFC6CDC2A20C50533409DE4C1FBF87703E4A65D0B3819245F834FCF8B66BD4CC9C643AD71DB85AC6E28A5F706935B5FE19A2A821919141EDB56F5151D0B424AC825CF7FA563CFB0FC02504B0304140006080800CD4C39403A46DC0C2C01000014020000310000006662782F38343536363644
310
352D334341322D343645332D383342452D4639394541323646303333312F636F72652E786D6C8D514B6EC32014BC0A62952EB031B6A91D61A2B44D4ED00B104C5294182C3E558E5FA81DA9DD650368DECCBCE13DB6BB4F37F0AD9CD7D60CB02A3004CA483B6A7319600C67D441B0E3CC591BFED02030625203CC30E4ECE26C
310
9C57485A139409093576542B28BC570102794B8F017AF9A52651881812C35F8B59C8ABB8A8A22A5239F138F3C1A5006069924FC8BBA6A5947EB4A87EDF13D4D0438DBAFAED808E7D7FD8137AC4755DB172117216A31E57B91E531C7DD6CA3D6B92C59C053D3DE24BA7445023E4045704E10A91F613F7DBBADB128A30DD62CC
310
CA4CFF278AF3F8A4286A136AB2C65D641EF2F49BA5C0D968E3E9F608A3EEB37501E47E1BAFE40BE4B8C084D0FE95B4AC5CA86900C99336ABA70FD6A5016FAEA7C4CE63CAC6B4E1ACCC3B4AD7EF02D39DF7C97F00504B0304140006080800CD4C3940693FC9225401000033030000300000006662782F38343536363644352D
310
334341322D343645332D383342452D4639394541323646303333312F636E782E786D6CBD93CD6EC32010845F0571F76F52CB8D30917AE813F4D02B864D4283C1025C356FDF2521692E3954AA7A41D6EC30B3FA84D9F66B32E4137CD0CE0EB4296B4AC04AA7B4DD0F7489BBA2A764CB99772EDED928B1628281269972B6F76E
310
99B3A4602716135135DA1EB3E821B8C54B0828A79BC438290C06802D1614611A412950E466C4AF1D785C05C5F144E201C8EBCB3B71E307C81858955238AB520767E9CC4D77264AA411210C34C8034CA2144B740AC2B154228AB229AF5D0F76FA4922E9C2B572F19AA4F281A693F2BC51891C598543CE42F4482F9BE26906CA
310
C53C1B2D4544C8D5D978F170B6681BBB75F66A04EFD1BD6ABBBEC7B0F38CB3A827C80EE941445094B775D3167553B44F6FF5F366D56FDAAEA8BB4D5DB32AD9391B9D33F912C680773391CE46B091F2865569FC085FF611A53DB276FEF40B900820B75EE8DC32FE924FD3ADD6EB7FE4539DDF37E2F2F817F06F504B03041400
310
06080800CD4C3940DB83E17758070000931B0000340000006662782F38343536363644352D334341322D343645332D383342452D4639394541323646303333312F6F626A656374732E786D6CED595B6FA33814FE2B887D0E09B974DA1565D426ED285A756634D919ED4325E48043BD3506D9A697FDF57B7C81000D2DD9E9BE
310
CD430218FBF89CEF5C7D083E3E65D479C05C909C9DBBBE37711DCCE23C212C3D774BB91B9DBACEC730E0792E1BD35C87A10C9FBB6AD80D8394E765618712BC4325959DD1EBCBBF1C1163865D27A648887357C47738431E2A659E6071EF2548222FDD3D79BE6726B6C9A61C15771DA205E29849E014C61950710C537EFB71E2
310
8EC360ACDE8781FAB7B3668366CDFB678DB5D46D2E091312B1F8054B1D32B3412CCDFCF9EA6ABA381B2DE6F3D9687E32F54797D797AB91FF6136599E2C9767175767C0DE36CFA99529C1056609E8EFD90DFD60ACDED4A25B040E711DE78CE15803095069B1BA040916B05503BE49FBD15712355E6B091BCF73F5DEB2D0189E
310
B5A9F4CD1A06448B2E0862B7AB24AEAE4DF9F2EDDF20B81862945C6009DC0AC941BB161E0E5EE18693606C46C360BBD705114E8624E6045187922D471C940253D59430300B2C19E51C1C48394A02AD39F3BA6D5BE0996FBBCE212E7725A5CA33DC503B5604EE87A5D09C917F30DF73DF44067802694BC2E4A9E5523E17D80D
310
CF82B11E0C0375994DED4B03A4B3A328151A11F3B623E852B9FE7AE5867F5C6F9F362A1C1CDEBCE07981B95446A7F4A8F90243B6578592DDD61FA439B5008431A0DA957B50BE01F29F217AEC5901BD71F2347F9ADBB99223267639CF4037CEC4194DE06FE2F8FA5FDD37EE8271BDB8ADBD3E3CC14D1554A73F8F675B068D95
310
E5BF0167183C80C1E77C665F6D6244C19E6F08038094913834872108EDBBED931BAE217042A0875588863E880CEC3EC06D30B664F65AA9DCCB7A1D0344ED1EB3214A02D8B445021B3D7AFA04D9839378AFA6A6887DF02EDEC55C2F569B3F3625DFA118DF589F5EE11D614442D63CCC500BF39644F7F8F931E70908FA12EF4D
310
13EFCC6E25006D85B9023EAD40500FFB9D5B1BC4B02ECD55B809DED8018450B9BA41FF868818538A18CECB6ADF3ABA2943AD3DDED60C6E383510CFA61D13E6F881A8AA029C663FA3C528E4FD98934281E8869F8C6475D0F47AA4FBBEFE0C1659CFEF99B566107A19A27FEAA0750087966557485B206A81B7FB701EE734E7D1
310
F6393291CE855A02D8687BCB8F165188F546498A0A7890F6BB2AA4A446DA2821BB5D2920AE1E60F1C77AD934878937F3174EF3BFE38C7388B6E0BB885BBFEBEC11910CA538DAA1A46FBBE66E356DA149F690E67847412EF240E47384643449707A0C3447113F7B57EA29CD85200C0BC85707C16FA231F12090186D562C2BAD
310
76802622CAB044F4180414991E7075DAD1356E0CA5C3DB3CD6D6FB9AC69A44FF278BE0086AC99C45044A51C8216F32EE7B0B88216D740DCA1D7CC1DA2ADA5A0C5A4209113F478F98A477F218D40DF91EDC6338929432CA0B1483590F20FBC25794523BBC6F517CAFF2471497F4BD0C4460BA8B08A56516C18F3038790C71ED
310
3A30BD8A4283B8897D126750942159F2219B9C2C262FF631354337043636DA110A613BCA50D1837A2B20EA7AC4A9C1B7D47B94BA2DB32242595EB24186E2CDBADE64C977D5AAC80EE457958A503656842DC130204CD659B58AD960EA3AB0821BE940F51C099415D49CC2DE483C7EED4D9A72EF06DCFAE9FB6E9041E1D7A3BD
310
66449D5730581E5B8581784432BE73C38DBE8E2EA1FE4E70B24FF555ADD9AC00013115C94B4EAC8ABEAFA1BCB1359A1BDE20296E3F99AC5B5DBFAF3DE87E04635803B54BBD70AD80CE309348552637EA867E4310825B34CCF85AE5D463A85C2489AE1A11BD267DEA6C9511AD4D33E2157798E519FCD82D61312D137C8B1271
310
1FDD481A6D8862DD4AE965A4C2F85501BF7CDA74E0819101227D55051E7EECACB5A34B552E1D2422EFCA6CCB108120D8122D35BAF10A965A8D545AAEAFEA4C017517189855F1FCD7C9A2D98EF875B248AD61FCDCC982E65B44F7D1A691CD6365D6479D02EAF4A4A8BCC72940771D6AAA751231B9DC8A6F7D2982985805F9C1
310
C55815330CC13E8EFF73D2EE4B8266BB0EFFC7256DFF45C1715452694D564DAA0385EBBA99C24EE6CBC5A5EF4F47A71FA6ABD1FCC3D96A74B1B85A8CE6179393E9D5E9C9ECC3D9BE8AD07E1A06752CD3A90B9E4D4CAB86D593C5009AB222A72481C37CE2A41842BE8423FD80EE39CFB080DCD9EC7527B6273F60F58369734A
310
B4A5B8E2E40E417F980AC8EA805119CBF6B8F31B7426259CB3CF5DE81979F7F067ADD27520F19CBBD0299024C6C2DB429749F5F33471C8B83AF55B62800F62A9CA886651FD5CAF52D8B4A27F3D654816B072B55A1850B715D0FC6A3528346F96A7F828C12B761C24E1765B4A28D68C2CFB815A18BDCD5EFD46364AD8BDDDFA
310
095CF775B17C4FCF692132E88BC1AB4660A88E24E2A96E772BC62C4B17ABAF6368B339EB2F4E41CB1474399CD2886330E652D553604560159666812498EAF2F7DBAF3C872F3C99A38BA2DB659E6539B30F17701C4BE00B91B3B983EF3DC92D540D5875D5C5ED74E24F6F7537DB36D8A32D12D853E5100C54558412A1636C60
310
912F3A53B66F39564AE84C5FAF1C1B3EA10B602CE84573D77CDD72C07BD47714E52BDAC32B395F6D688FF554B0060EADE8F05F504B0304140006080000CD4C3940000000000000000000000000350000006662782F38343536363644352D334341322D343645332D383342452D4639394541323646303333312F7665727469
310
6365732E62696E504B0304140006080800CD4C3940F270F1330600000004000000360000006662782F38343536363644352D334341322D343645332D383342452D4639394541323646303333312F747269616E676C65732E62696E636660600000504B0304140006080000CD4C394000000000000000000000000037000000
310
6662782F38343536363644352D334341322D343645332D383342452D4639394541323646303333312F617474726962757465732E62696E504B0304140006080800CD4C3940D5987DFC8F00000041010000360000006662782F38343536363644352D334341322D343645332D383342452D4639394541323646303333312F64
310
69726563746F72792E786D6C858F410EC2201045AF4266AF15DDB800BA74E7C21B903225242D6328188F2FA5C4183471359997F9FF81E89FF3C41E1816475E02DF1F80A11FC8386F25A438EECEC07A250251FC3803E6F58C12560C4AD840E95E91C151A72936F496F35732D860FE635F62C8F2DA16B505C545B74125BAA2FA
310
9E05D7CC053D063734D5C7665FD55B6B8D15D5E9BFEAFD8490FFA45E504B0304140006080800CD4C394042E298F3FB000000A00100003B0000006662782F38343536363644352D334341322D343645332D383342452D4639394541323646303333312F7265736F75726365732F636F72652E786D6C8D50596AC33010BD8A99
310
7FD992F71859A125BE412F20E44922124B464BE9F12BC72EB47FFD9919DEC23C1E3F7F2DCFEC139DD7D68CC0720A191A65676D6E23C470253D6467C19DB5E1970C3223171C618341F09BB3713D20654D4013126AEC8C0728BDC700997AA66304AFEEB8C85CC69014FE91AF523DE40D7396273AE904F7C1A500D9FE649B201C
310
7A1B9D42CF8B9D153C463D1F1A3DA79FFAAAD181A8593335AC6EC9447B4AEAF7EE44FABE9E48D75FDA6ABA4C1D7B6B79B199050F7AF9C9A81CCA80338892B2925046CAE6839E86AA1FCA96D076A094179BFC8F29AEF33F4D519B509547DCDDE641B014E445085E6C7DA5F52A33EDAD5BF10D504B010214000A0000080000CD
310
4C39403DEE336E79000000790000001B00000000000000000000000000000000006175746F6465736B2D64657369676E2D7061636B6167652E786D6C504B01021400140006080800CD4C3940D486FD9CA0000000F40000001300000000000000000000000000B20000005B436F6E74656E745F54797065735D2E786D6C504B
310
01021400140006080800CD4C39405149B66BE90000007C010000080000000000000000000000000083010000636F72652E786D6C504B01021400140006080800CD4C394055019EA25F0000007C000000070000000000000000000000000092020000636E782E786D6C504B01021400140006080800CD4C394040C8941D6501
310
0000020300000C00000000000000000000000000160300006662782F636F72652E786D6C504B01021400140006080800CD4C3940D519FD947E0000009D0000000B00000000000000000000000000A50400006662782F636E782E786D6C504B01021400140006080800CD4C39403A46DC0C2C01000014020000310000000000
310
00000000000000004C0500006662782F38343536363644352D334341322D343645332D383342452D4639394541323646303333312F636F72652E786D6C504B01021400140006080800CD4C3940693FC92254010000330300003000000000000000000000000000C70600006662782F38343536363644352D334341322D3436
310
45332D383342452D4639394541323646303333312F636E782E786D6C504B01021400140006080800CD4C3940DB83E17758070000931B00003400000000000000000000000000690800006662782F38343536363644352D334341322D343645332D383342452D4639394541323646303333312F6F626A656374732E786D6C50
310
4B01021400140006080000CD4C39400000000000000000000000003500000000000000000000000000131000006662782F38343536363644352D334341322D343645332D383342452D4639394541323646303333312F76657274696365732E62696E504B01021400140006080800CD4C3940F270F133060000000400000036
310
00000000000000000000000000661000006662782F38343536363644352D334341322D343645332D383342452D4639394541323646303333312F747269616E676C65732E62696E504B01021400140006080000CD4C39400000000000000000000000003700000000000000000000000000C01000006662782F383435363636
310
44352D334341322D343645332D383342452D4639394541323646303333312F617474726962757465732E62696E504B01021400140006080800CD4C3940D5987DFC8F000000410100003600000000000000000000000000151100006662782F38343536363644352D334341322D343645332D383342452D4639394541323646
310
303333312F6469726563746F72792E786D6C504B01021400140006080800CD4C394042E298F3FB000000A00100003B00000000000000000000000000F81100006662782F38343536363644352D334341322D343645332D383342452D4639394541323646303333312F7265736F75726365732F636F72652E786D6C504B0506
310
000000000E000E00800400004C1300000000
  0
XRECORD
  5
27
102
{ACAD_REACTORS
330
22
102
}
330
22
100
AcDbXrecord
280
     1
270
     1
271
     1
  0
XRECORD
  5
26
102
{ACAD_REACTORS
330
22
102
}
330
22
100
AcDbXrecord
280
     1
270
     1
271
     1
  0
XRECORD
  5
28
102
{ACAD_REACTORS
330
22
102
}
330
22
100
AcDbXrecord
280
     1
270
     1
271
     1
  0
XRECORD
  5
25
102
{ACAD_REACTORS
330
22
102
}
330
22
100
AcDbXrecord
280
     1
270
     1
271
     1
  0
XRECORD
  5
8A5
102
{ACAD_REACTORS
330
8A4
102
}
330
8A4
100
AcDbXrecord
280
     1
102
ACAD_ROUNDTRIP_2012_MLEADER_STYLE
298
     1
  0
CELLSTYLEMAP
  5
8A3
102
{ACAD_REACTORS
330
8A2
102
}
330
8A2
100
AcDbCellStyleMap
 90
        3
300
CELLSTYLE
  1
TABLEFORMAT_BEGIN
 90
        5
170
     1
 91
        0
 92
    32768
 62
   257
 93
        1
300
CONTENTFORMAT
  1
CONTENTFORMAT_BEGIN
 90
        0
 91
        0
 92
      512
 93
        0
300

 40
0.0
140
1.0
 94
        5
 62
     0
340
55
144
0.25
309
CONTENTFORMAT_END
171
     0
 94
        0
309
TABLEFORMAT_END
  1
CELLSTYLE_BEGIN
 90
        1
 91
        1
300
_TITLE
309
CELLSTYLE_END
300
CELLSTYLE
  1
TABLEFORMAT_BEGIN
 90
        5
170
     1
 91
        0
 92
        0
 62
   257
 93
        1
300
CONTENTFORMAT
  1
CONTENTFORMAT_BEGIN
 90
        0
 91
        0
 92
      512
 93
        0
300

 40
0.0
140
1.0
 94
        5
 62
     0
340
55
144
0.18
309
CONTENTFORMAT_END
171
     0
 94
        0
309
TABLEFORMAT_END
  1
CELLSTYLE_BEGIN
 90
        2
 91
        1
300
_HEADER
309
CELLSTYLE_END
300
CELLSTYLE
  1
TABLEFORMAT_BEGIN
 90
        5
170
     1
 91
        0
 92
        0
 62
   257
 93
        1
300
CONTENTFORMAT
  1
CONTENTFORMAT_BEGIN
 90
        0
 91
        0
 92
      512
 93
        0
300

 40
0.0
140
1.0
 94
        2
 62
     0
340
55
144
0.18
309
CONTENTFORMAT_END
171
     0
 94
        0
309
TABLEFORMAT_END
  1
CELLSTYLE_BEGIN
 90
        3
 91
        2
300
_DATA
309
CELLSTYLE_END
  0
XRECORD
  5
8DB
102
{ACAD_REACTORS
330
8A2
102
}
330
8A2
100
AcDbXrecord
280
     1
102
ACAD_ROUNDTRIP_PRE2007_TABLESTYLE
 90
      512
 91
        0
  1

 92
      512
 93
        0
  2

 94
      512
 95
        0
  3

  0
XRECORD
  5
8B6
102
{ACAD_REACTORS
330
8B5
102
}
330
8B5
100
AcDbXrecord
280
     1
102
RTVSPropertyOp0
 70
     1
102
RTVSPropertyOp1
 70
     1
102
RTVSPropertyOp2
 70
     1
102
RTVSPropertyOp3
 70
     1
102
RTVSPropertyOp4
 70
     1
102
RTVSPropertyOp5
 70
     1
102
RTVSPropertyOp6
 70
     1
102
RTVSPropertyOp7
 70
     1
102
RTVSPropertyOp8
 70
     1
102
RTVSPropertyOp9
 70
     1
102
RTVSPropertyOp10
 70
     1
102
RTVSPropertyOp11
 70
     1
102
RTVSPropertyOp12
 70
     1
102
RTVSPropertyOp13
 70
     1
102
RTVSPropertyOp14
 70
     1
102
RTVSPropertyOp15
 70
     1
102
RTVSPropertyOp16
 70
     1
102
RTVSPropertyOp17
 70
     1
102
RTVSPropertyOp18
 70
     1
102
RTVSPropertyOp19
 70
     1
102
RTVSPropertyOp20
 70
     1
102
RTVSPropertyOp21
 70
     1
102
RTVSPropertyOp22
 70
     1
102
RTVSPropertyOp23
 70
     1
102
RTVSPropertyOp24
 70
     1
102
RTVSPropertyOp25
 70
     1
102
RTVSPropertyOp26
 70
     1
102
RTVSPropertyOp27
 70
     1
102
RTVSPropertyOp28
 70
     1
102
RTVSPropertyOp29
 70
     1
102
RTVSPropertyOp30
 70
     1
102
RTVSPropertyOp31
 70
     1
102
RTVSPropertyOp32
 70
     1
  0
XRECORD
  5
8B4
102
{ACAD_REACTORS
330
8B3
102
}
330
8B3
100
AcDbXrecord
280
     1
102
RTVSPropertyOp0
 70
     1
102
RTVSPropertyOp1
 70
     1
102
RTVSPropertyOp2
 70
     1
102
RTVSPropertyOp3
 70
     1
102
RTVSPropertyOp4
 70
     1
102
RTVSPropertyOp5
 70
     1
102
RTVSPropertyOp6
 70
     1
102
RTVSPropertyOp7
 70
     1
102
RTVSPropertyOp8
 70
     1
102
RTVSPropertyOp9
 70
     1
102
RTVSPropertyOp10
 70
     1
102
RTVSPropertyOp11
 70
     1
102
RTVSPropertyOp12
 70
     1
102
RTVSPropertyOp13
 70
     1
102
RTVSPropertyOp14
 70
     1
102
RTVSPropertyOp15
 70
     1
102
RTVSPropertyOp16
 70
     1
102
RTVSPropertyOp17
 70
     1
102
RTVSPropertyOp18
 70
     1
102
RTVSPropertyOp19
 70
     1
102
RTVSPropertyOp20
 70
     1
102
RTVSPropertyOp21
 70
     1
102
RTVSPropertyOp22
 70
     1
102
RTVSPropertyOp23
 70
     1
102
RTVSPropertyOp24
 70
     1
102
RTVSPropertyOp25
 70
     1
102
RTVSPropertyOp26
 70
     1
102
RTVSPropertyOp27
 70
     1
102
RTVSPropertyOp28
 70
     1
102
RTVSPropertyOp29
 70
     1
102
RTVSPropertyOp30
 70
     1
102
RTVSPropertyOp31
 70
     1
102
RTVSPropertyOp32
 70
     1
  0
XRECORD
  5
8C2
102
{ACAD_REACTORS
330
8C1
102
}
330
8C1
100
AcDbXrecord
280
     1
102
RTVSPropertyOp0
 70
     1
102
RTVSPropertyOp1
 70
     1
102
RTVSPropertyOp2
 70
     1
102
RTVSPropertyOp3
 70
     1
102
RTVSPropertyOp4
 70
     1
102
RTVSPropertyOp5
 70
     1
102
RTVSPropertyOp6
 70
     1
102
RTVSPropertyOp7
 70
     1
102
RTVSPropertyOp8
 70
     1
102
RTVSPropertyOp9
 70
     1
102
RTVSPropertyOp10
 70
     1
102
RTVSPropertyOp11
 70
     1
102
RTVSPropertyOp12
 70
     1
102
RTVSPropertyOp13
 70
     1
102
RTVSPropertyOp14
 70
     1
102
RTVSPropertyOp15
 70
     1
102
RTVSPropertyOp16
 70
     1
102
RTVSPropertyOp17
 70
     1
102
RTVSPropertyOp18
 70
     1
102
RTVSPropertyOp19
 70
     1
102
RTVSPropertyOp20
 70
     1
102
RTVSPropertyOp21
 70
     1
102
RTVSPropertyOp22
 70
     1
102
RTVSPropertyOp23
 70
     1
102
RTVSPropertyOp24
 70
     1
102
RTVSPropertyOp25
 70
     1
102
RTVSPropertyOp26
 70
     1
102
RTVSPropertyOp27
 70
     1
102
RTVSPropertyOp28
 70
     1
102
RTVSPropertyOp29
 70
     1
102
RTVSPropertyOp30
 70
     1
102
RTVSPropertyOp31
 70
     1
102
RTVSPropertyOp32
 70
     1
  0
XRECORD
  5
8CA
102
{ACAD_REACTORS
330
8C9
102
}
330
8C9
100
AcDbXrecord
280
     1
102
RTVSPropertyOp0
 70
     1
102
RTVSPropertyOp1
 70
     1
102
RTVSPropertyOp2
 70
     1
102
RTVSPropertyOp3
 70
     1
102
RTVSPropertyOp4
 70
     1
102
RTVSPropertyOp5
 70
     1
102
RTVSPropertyOp6
 70
     1
102
RTVSPropertyOp7
 70
     1
102
RTVSPropertyOp8
 70
     1
102
RTVSPropertyOp9
 70
     1
102
RTVSPropertyOp10
 70
     1
102
RTVSPropertyOp11
 70
     1
102
RTVSPropertyOp12
 70
     1
102
RTVSPropertyOp13
 70
     1
102
RTVSPropertyOp14
 70
     1
102
RTVSPropertyOp15
 70
     1
102
RTVSPropertyOp16
 70
     1
102
RTVSPropertyOp17
 70
     1
102
RTVSPropertyOp18
 70
     1
102
RTVSPropertyOp19
 70
     1
102
RTVSPropertyOp20
 70
     1
102
RTVSPropertyOp21
 70
     1
102
RTVSPropertyOp22
 70
     1
102
RTVSPropertyOp23
 70
     1
102
RTVSPropertyOp24
 70
     1
102
RTVSPropertyOp25
 70
     1
102
RTVSPropertyOp26
 70
     1
102
RTVSPropertyOp27
 70
     1
102
RTVSPropertyOp28
 70
     1
102
RTVSPropertyOp29
 70
     1
102
RTVSPropertyOp30
 70
     1
102
RTVSPropertyOp31
 70
     1
102
RTVSPropertyOp32
 70
     1
  0
XRECORD
  5
8BC
102
{ACAD_REACTORS
330
8BB
102
}
330
8BB
100
AcDbXrecord
280
     1
102
RTVSPropertyOp0
 70
     1
102
RTVSPropertyOp1
 70
     1
102
RTVSPropertyOp2
 70
     1
102
RTVSPropertyOp3
 70
     1
102
RTVSPropertyOp4
 70
     1
102
RTVSPropertyOp5
 70
     1
102
RTVSPropertyOp6
 70
     1
102
RTVSPropertyOp7
 70
     1
102
RTVSPropertyOp8
 70
     1
102
RTVSPropertyOp9
 70
     1
102
RTVSPropertyOp10
 70
     1
102
RTVSPropertyOp11
 70
     1
102
RTVSPropertyOp12
 70
     1
102
RTVSPropertyOp13
 70
     1
102
RTVSPropertyOp14
 70
     1
102
RTVSPropertyOp15
 70
     1
102
RTVSPropertyOp16
 70
     1
102
RTVSPropertyOp17
 70
     1
102
RTVSPropertyOp18
 70
     1
102
RTVSPropertyOp19
 70
     1
102
RTVSPropertyOp20
 70
     1
102
RTVSPropertyOp21
 70
     1
102
RTVSPropertyOp22
 70
     1
102
RTVSPropertyOp23
 70
     1
102
RTVSPropertyOp24
 70
     1
102
RTVSPropertyOp25
 70
     1
102
RTVSPropertyOp26
 70
     1
102
RTVSPropertyOp27
 70
     1
102
RTVSPropertyOp28
 70
     1
102
RTVSPropertyOp29
 70
     1
102
RTVSPropertyOp30
 70
     1
102
RTVSPropertyOp31
 70
     1
102
RTVSPropertyOp32
 70
     1
  0
XRECORD
  5
8C0
102
{ACAD_REACTORS
330
8BF
102
}
330
8BF
100
AcDbXrecord
280
     1
102
RTVSPropertyOp0
 70
     1
102
RTVSPropertyOp1
 70
     1
102
RTVSPropertyOp2
 70
     1
102
RTVSPropertyOp3
 70
     1
102
RTVSPropertyOp4
 70
     1
102
RTVSPropertyOp5
 70
     1
102
RTVSPropertyOp6
 70
     1
102
RTVSPropertyOp7
 70
     1
102
RTVSPropertyOp8
 70
     1
102
RTVSPropertyOp9
 70
     1
102
RTVSPropertyOp10
 70
     1
102
RTVSPropertyOp11
 70
     1
102
RTVSPropertyOp12
 70
     1
102
RTVSPropertyOp13
 70
     1
102
RTVSPropertyOp14
 70
     1
102
RTVSPropertyOp15
 70
     1
102
RTVSPropertyOp16
 70
     1
102
RTVSPropertyOp17
 70
     1
102
RTVSPropertyOp18
 70
     1
102
RTVSPropertyOp19
 70
     1
102
RTVSPropertyOp20
 70
     1
102
RTVSPropertyOp21
 70
     1
102
RTVSPropertyOp22
 70
     1
102
RTVSPropertyOp23
 70
     1
102
RTVSPropertyOp24
 70
     1
102
RTVSPropertyOp25
 70
     1
102
RTVSPropertyOp26
 70
     1
102
RTVSPropertyOp27
 70
     1
102
RTVSPropertyOp28
 70
     1
102
RTVSPropertyOp29
 70
     1
102
RTVSPropertyOp30
 70
     1
102
RTVSPropertyOp31
 70
     1
102
RTVSPropertyOp32
 70
     1
  0
XRECORD
  5
8DA
102
{ACAD_REACTORS
330
8D9
102
}
330
8D9
100
AcDbXrecord
280
     1
102
RTVSPropertyOp0
 70
     0
102
RTVSPropertyOp1
 70
     0
102
RTVSPropertyOp2
 70
     0
102
RTVSPropertyOp3
 70
     0
102
RTVSPropertyOp4
 70
     0
102
RTVSPropertyOp5
 70
     0
102
RTVSPropertyOp6
 70
     0
102
RTVSPropertyOp7
 70
     0
102
RTVSPropertyOp8
 70
     0
102
RTVSPropertyOp9
 70
     0
102
RTVSPropertyOp10
 70
     0
102
RTVSPropertyOp11
 70
     0
102
RTVSPropertyOp12
 70
     0
102
RTVSPropertyOp13
 70
     0
102
RTVSPropertyOp14
 70
     2
102
RTVSPropertyOp15
 70
     0
102
RTVSPropertyOp16
 70
     0
102
RTVSPropertyOp17
 70
     0
102
RTVSPropertyOp18
 70
     0
102
RTVSPropertyOp19
 70
     0
102
RTVSPropertyOp20
 70
     0
102
RTVSPropertyOp21
 70
     0
102
RTVSPropertyOp22
 70
     0
102
RTVSPropertyOp23
 70
     0
102
RTVSPropertyOp24
 70
     0
102
RTVSPropertyOp25
 70
     0
102
RTVSPropertyOp26
 70
     0
102
RTVSPropertyOp27
 70
     0
102
RTVSPropertyOp28
 70
     1
102
RTVSPropertyOp29
 70
     1
102
RTVSPropertyOp30
 70
     1
102
RTVSPropertyOp31
 70
     1
102
RTVSPropertyOp32
 70
     1
  0
XRECORD
  5
8C8
102
{ACAD_REACTORS
330
8C7
102
}
330
8C7
100
AcDbXrecord
280
     1
102
RTVSPropertyOp0
 70
     1
102
RTVSPropertyOp1
 70
     1
102
RTVSPropertyOp2
 70
     1
102
RTVSPropertyOp3
 70
     1
102
RTVSPropertyOp4
 70
     1
102
RTVSPropertyOp5
 70
     1
102
RTVSPropertyOp6
 70
     1
102
RTVSPropertyOp7
 70
     1
102
RTVSPropertyOp8
 70
     1
102
RTVSPropertyOp9
 70
     1
102
RTVSPropertyOp10
 70
     1
102
RTVSPropertyOp11
 70
     1
102
RTVSPropertyOp12
 70
     1
102
RTVSPropertyOp13
 70
     1
102
RTVSPropertyOp14
 70
     1
102
RTVSPropertyOp15
 70
     1
102
RTVSPropertyOp16
 70
     1
102
RTVSPropertyOp17
 70
     1
102
RTVSPropertyOp18
 70
     1
102
RTVSPropertyOp19
 70
     1
102
RTVSPropertyOp20
 70
     1
102
RTVSPropertyOp21
 70
     1
102
RTVSPropertyOp22
 70
     1
102
RTVSPropertyOp23
 70
     1
102
RTVSPropertyOp24
 70
     1
102
RTVSPropertyOp25
 70
     1
102
RTVSPropertyOp26
 70
     1
102
RTVSPropertyOp27
 70
     1
102
RTVSPropertyOp28
 70
     1
102
RTVSPropertyOp29
 70
     1
102
RTVSPropertyOp30
 70
     1
102
RTVSPropertyOp31
 70
     1
102
RTVSPropertyOp32
 70
     1
  0
XRECORD
  5
8AC
102
{ACAD_REACTORS
330
8AB
102
}
330
8AB
100
AcDbXrecord
280
     1
102
RTVSPropertyOp0
 70
     1
102
RTVSPropertyOp1
 70
     1
102
RTVSPropertyOp2
 70
     1
102
RTVSPropertyOp3
 70
     1
102
RTVSPropertyOp4
 70
     1
102
RTVSPropertyOp5
 70
     1
102
RTVSPropertyOp6
 70
     1
102
RTVSPropertyOp7
 70
     1
102
RTVSPropertyOp8
 70
     1
102
RTVSPropertyOp9
 70
     1
102
RTVSPropertyOp10
 70
     1
102
RTVSPropertyOp11
 70
     1
102
RTVSPropertyOp12
 70
     1
102
RTVSPropertyOp13
 70
     1
102
RTVSPropertyOp14
 70
     1
102
RTVSPropertyOp15
 70
     1
102
RTVSPropertyOp16
 70
     1
102
RTVSPropertyOp17
 70
     1
102
RTVSPropertyOp18
 70
     1
102
RTVSPropertyOp19
 70
     1
102
RTVSPropertyOp20
 70
     1
102
RTVSPropertyOp21
 70
     1
102
RTVSPropertyOp22
 70
     1
102
RTVSPropertyOp23
 70
     1
102
RTVSPropertyOp24
 70
     1
102
RTVSPropertyOp25
 70
     1
102
RTVSPropertyOp26
 70
     1
102
RTVSPropertyOp27
 70
     1
102
RTVSPropertyOp28
 70
     1
102
RTVSPropertyOp29
 70
     1
102
RTVSPropertyOp30
 70
     1
102
RTVSPropertyOp31
 70
     1
102
RTVSPropertyOp32
 70
     1
  0
XRECORD
  5
8AE
102
{ACAD_REACTORS
330
8AD
102
}
330
8AD
100
AcDbXrecord
280
     1
102
RTVSPropertyOp0
 70
     1
102
RTVSPropertyOp1
 70
     1
102
RTVSPropertyOp2
 70
     1
102
RTVSPropertyOp3
 70
     1
102
RTVSPropertyOp4
 70
     1
102
RTVSPropertyOp5
 70
     1
102
RTVSPropertyOp6
 70
     1
102
RTVSPropertyOp7
 70
     1
102
RTVSPropertyOp8
 70
     1
102
RTVSPropertyOp9
 70
     1
102
RTVSPropertyOp10
 70
     1
102
RTVSPropertyOp11
 70
     1
102
RTVSPropertyOp12
 70
     1
102
RTVSPropertyOp13
 70
     1
102
RTVSPropertyOp14
 70
     1
102
RTVSPropertyOp15
 70
     1
102
RTVSPropertyOp16
 70
     1
102
RTVSPropertyOp17
 70
     1
102
RTVSPropertyOp18
 70
     1
102
RTVSPropertyOp19
 70
     1
102
RTVSPropertyOp20
 70
     1
102
RTVSPropertyOp21
 70
     1
102
RTVSPropertyOp22
 70
     1
102
RTVSPropertyOp23
 70
     1
102
RTVSPropertyOp24
 70
     1
102
RTVSPropertyOp25
 70
     1
102
RTVSPropertyOp26
 70
     1
102
RTVSPropertyOp27
 70
     1
102
RTVSPropertyOp28
 70
     1
102
RTVSPropertyOp29
 70
     1
102
RTVSPropertyOp30
 70
     1
102
RTVSPropertyOp31
 70
     1
102
RTVSPropertyOp32
 70
     1
  0
XRECORD
  5
8B0
102
{ACAD_REACTORS
330
8AF
102
}
330
8AF
100
AcDbXrecord
280
     1
102
RTVSPropertyOp0
 70
     1
102
RTVSPropertyOp1
 70
     1
102
RTVSPropertyOp2
 70
     1
102
RTVSPropertyOp3
 70
     1
102
RTVSPropertyOp4
 70
     1
102
RTVSPropertyOp5
 70
     1
102
RTVSPropertyOp6
 70
     1
102
RTVSPropertyOp7
 70
     1
102
RTVSPropertyOp8
 70
     1
102
RTVSPropertyOp9
 70
     1
102
RTVSPropertyOp10
 70
     1
102
RTVSPropertyOp11
 70
     1
102
RTVSPropertyOp12
 70
     1
102
RTVSPropertyOp13
 70
     1
102
RTVSPropertyOp14
 70
     1
102
RTVSPropertyOp15
 70
     1
102
RTVSPropertyOp16
 70
     1
102
RTVSPropertyOp17
 70
     1
102
RTVSPropertyOp18
 70
     1
102
RTVSPropertyOp19
 70
     1
102
RTVSPropertyOp20
 70
     1
102
RTVSPropertyOp21
 70
     1
102
RTVSPropertyOp22
 70
     1
102
RTVSPropertyOp23
 70
     1
102
RTVSPropertyOp24
 70
     1
102
RTVSPropertyOp25
 70
     1
102
RTVSPropertyOp26
 70
     1
102
RTVSPropertyOp27
 70
     1
102
RTVSPropertyOp28
 70
     1
102
RTVSPropertyOp29
 70
     1
102
RTVSPropertyOp30
 70
     1
102
RTVSPropertyOp31
 70
     1
102
RTVSPropertyOp32
 70
     1
  0
XRECORD
  5
8B2
102
{ACAD_REACTORS
330
8B1
102
}
330
8B1
100
AcDbXrecord
280
     1
102
RTVSPropertyOp0
 70
     1
102
RTVSPropertyOp1
 70
     1
102
RTVSPropertyOp2
 70
     1
102
RTVSPropertyOp3
 70
     1
102
RTVSPropertyOp4
 70
     1
102
RTVSPropertyOp5
 70
     1
102
RTVSPropertyOp6
 70
     1
102
RTVSPropertyOp7
 70
     1
102
RTVSPropertyOp8
 70
     1
102
RTVSPropertyOp9
 70
     1
102
RTVSPropertyOp10
 70
     1
102
RTVSPropertyOp11
 70
     1
102
RTVSPropertyOp12
 70
     1
102
RTVSPropertyOp13
 70
     1
102
RTVSPropertyOp14
 70
     1
102
RTVSPropertyOp15
 70
     1
102
RTVSPropertyOp16
 70
     1
102
RTVSPropertyOp17
 70
     1
102
RTVSPropertyOp18
 70
     1
102
RTVSPropertyOp19
 70
     1
102
RTVSPropertyOp20
 70
     1
102
RTVSPropertyOp21
 70
     1
102
RTVSPropertyOp22
 70
     1
102
RTVSPropertyOp23
 70
     1
102
RTVSPropertyOp24
 70
     1
102
RTVSPropertyOp25
 70
     1
102
RTVSPropertyOp26
 70
     1
102
RTVSPropertyOp27
 70
     1
102
RTVSPropertyOp28
 70
     1
102
RTVSPropertyOp29
 70
     1
102
RTVSPropertyOp30
 70
     1
102
RTVSPropertyOp31
 70
     1
102
RTVSPropertyOp32
 70
     1
  0
XRECORD
  5
8BA
102
{ACAD_REACTORS
330
8B9
102
}
330
8B9
100
AcDbXrecord
280
     1
102
RTVSPropertyOp0
 70
     1
102
RTVSPropertyOp1
 70
     1
102
RTVSPropertyOp2
 70
     1
102
RTVSPropertyOp3
 70
     1
102
RTVSPropertyOp4
 70
     1
102
RTVSPropertyOp5
 70
     1
102
RTVSPropertyOp6
 70
     1
102
RTVSPropertyOp7
 70
     1
102
RTVSPropertyOp8
 70
     1
102
RTVSPropertyOp9
 70
     1
102
RTVSPropertyOp10
 70
     1
102
RTVSPropertyOp11
 70
     1
102
RTVSPropertyOp12
 70
     1
102
RTVSPropertyOp13
 70
     1
102
RTVSPropertyOp14
 70
     1
102
RTVSPropertyOp15
 70
     1
102
RTVSPropertyOp16
 70
     1
102
RTVSPropertyOp17
 70
     1
102
RTVSPropertyOp18
 70
     1
102
RTVSPropertyOp19
 70
     1
102
RTVSPropertyOp20
 70
     1
102
RTVSPropertyOp21
 70
     1
102
RTVSPropertyOp22
 70
     1
102
RTVSPropertyOp23
 70
     1
102
RTVSPropertyOp24
 70
     1
102
RTVSPropertyOp25
 70
     1
102
RTVSPropertyOp26
 70
     1
102
RTVSPropertyOp27
 70
     1
102
RTVSPropertyOp28
 70
     1
102
RTVSPropertyOp29
 70
     1
102
RTVSPropertyOp30
 70
     1
102
RTVSPropertyOp31
 70
     1
102
RTVSPropertyOp32
 70
     1
  0
XRECORD
  5
8D6
102
{ACAD_REACTORS
330
8D5
102
}
330
8D5
100
AcDbXrecord
280
     1
102
RTVSPropertyOp0
 70
     0
102
RTVSPropertyOp1
 70
     0
102
RTVSPropertyOp2
 70
     0
102
RTVSPropertyOp3
 70
     0
102
RTVSPropertyOp4
 70
     0
102
RTVSPropertyOp5
 70
     0
102
RTVSPropertyOp6
 70
     0
102
RTVSPropertyOp7
 70
     0
102
RTVSPropertyOp8
 70
     0
102
RTVSPropertyOp9
 70
     0
102
RTVSPropertyOp10
 70
     0
102
RTVSPropertyOp11
 70
     0
102
RTVSPropertyOp12
 70
     0
102
RTVSPropertyOp13
 70
     0
102
RTVSPropertyOp14
 70
     2
102
RTVSPropertyOp15
 70
     0
102
RTVSPropertyOp16
 70
     0
102
RTVSPropertyOp17
 70
     0
102
RTVSPropertyOp18
 70
     0
102
RTVSPropertyOp19
 70
     0
102
RTVSPropertyOp20
 70
     0
102
RTVSPropertyOp21
 70
     0
102
RTVSPropertyOp22
 70
     0
102
RTVSPropertyOp23
 70
     0
102
RTVSPropertyOp24
 70
     0
102
RTVSPropertyOp25
 70
     0
102
RTVSPropertyOp26
 70
     0
102
RTVSPropertyOp27
 70
     0
102
RTVSPropertyOp28
 70
     1
102
RTVSPropertyOp29
 70
     1
102
RTVSPropertyOp30
 70
     1
102
RTVSPropertyOp31
 70
     1
102
RTVSPropertyOp32
 70
     1
  0
XRECORD
  5
8C6
102
{ACAD_REACTORS
330
8C5
102
}
330
8C5
100
AcDbXrecord
280
     1
102
RTVSPropertyOp0
 70
     1
102
RTVSPropertyOp1
 70
     1
102
RTVSPropertyOp2
 70
     1
102
RTVSPropertyOp3
 70
     1
102
RTVSPropertyOp4
 70
     1
102
RTVSPropertyOp5
 70
     1
102
RTVSPropertyOp6
 70
     1
102
RTVSPropertyOp7
 70
     1
102
RTVSPropertyOp8
 70
     1
102
RTVSPropertyOp9
 70
     1
102
RTVSPropertyOp10
 70
     1
102
RTVSPropertyOp11
 70
     1
102
RTVSPropertyOp12
 70
     1
102
RTVSPropertyOp13
 70
     1
102
RTVSPropertyOp14
 70
     1
102
RTVSPropertyOp15
 70
     1
102
RTVSPropertyOp16
 70
     1
102
RTVSPropertyOp17
 70
     1
102
RTVSPropertyOp18
 70
     1
102
RTVSPropertyOp19
 70
     1
102
RTVSPropertyOp20
 70
     1
102
RTVSPropertyOp21
 70
     1
102
RTVSPropertyOp22
 70
     1
102
RTVSPropertyOp23
 70
     1
102
RTVSPropertyOp24
 70
     1
102
RTVSPropertyOp25
 70
     1
102
RTVSPropertyOp26
 70
     1
102
RTVSPropertyOp27
 70
     1
102
RTVSPropertyOp28
 70
     1
102
RTVSPropertyOp29
 70
     1
102
RTVSPropertyOp30
 70
     1
102
RTVSPropertyOp31
 70
     1
102
RTVSPropertyOp32
 70
     1
  0
XRECORD
  5
8D8
102
{ACAD_REACTORS
330
8D7
102
}
330
8D7
100
AcDbXrecord
280
     1
102
RTVSPropertyOp0
 70
     0
102
RTVSPropertyOp1
 70
     0
102
RTVSPropertyOp2
 70
     0
102
RTVSPropertyOp3
 70
     0
102
RTVSPropertyOp4
 70
     0
102
RTVSPropertyOp5
 70
     0
102
RTVSPropertyOp6
 70
     0
102
RTVSPropertyOp7
 70
     0
102
RTVSPropertyOp8
 70
     0
102
RTVSPropertyOp9
 70
     0
102
RTVSPropertyOp10
 70
     0
102
RTVSPropertyOp11
 70
     0
102
RTVSPropertyOp12
 70
     0
102
RTVSPropertyOp13
 70
     0
102
RTVSPropertyOp14
 70
     2
102
RTVSPropertyOp15
 70
     0
102
RTVSPropertyOp16
 70
     0
102
RTVSPropertyOp17
 70
     0
102
RTVSPropertyOp18
 70
     0
102
RTVSPropertyOp19
 70
     0
102
RTVSPropertyOp20
 70
     0
102
RTVSPropertyOp21
 70
     0
102
RTVSPropertyOp22
 70
     0
102
RTVSPropertyOp23
 70
     0
102
RTVSPropertyOp24
 70
     0
102
RTVSPropertyOp25
 70
     0
102
RTVSPropertyOp26
 70
     0
102
RTVSPropertyOp27
 70
     0
102
RTVSPropertyOp28
 70
     1
102
RTVSPropertyOp29
 70
     1
102
RTVSPropertyOp30
 70
     1
102
RTVSPropertyOp31
 70
     1
102
RTVSPropertyOp32
 70
     1
  0
XRECORD
  5
8BE
102
{ACAD_REACTORS
330
8BD
102
}
330
8BD
100
AcDbXrecord
280
     1
102
RTVSPropertyOp0
 70
     1
102
RTVSPropertyOp1
 70
     1
102
RTVSPropertyOp2
 70
     1
102
RTVSPropertyOp3
 70
     1
102
RTVSPropertyOp4
 70
     1
102
RTVSPropertyOp5
 70
     1
102
RTVSPropertyOp6
 70
     1
102
RTVSPropertyOp7
 70
     1
102
RTVSPropertyOp8
 70
     1
102
RTVSPropertyOp9
 70
     1
102
RTVSPropertyOp10
 70
     1
102
RTVSPropertyOp11
 70
     1
102
RTVSPropertyOp12
 70
     1
102
RTVSPropertyOp13
 70
     1
102
RTVSPropertyOp14
 70
     1
102
RTVSPropertyOp15
 70
     1
102
RTVSPropertyOp16
 70
     1
102
RTVSPropertyOp17
 70
     1
102
RTVSPropertyOp18
 70
     1
102
RTVSPropertyOp19
 70
     1
102
RTVSPropertyOp20
 70
     1
102
RTVSPropertyOp21
 70
     1
102
RTVSPropertyOp22
 70
     1
102
RTVSPropertyOp23
 70
     1
102
RTVSPropertyOp24
 70
     1
102
RTVSPropertyOp25
 70
     1
102
RTVSPropertyOp26
 70
     1
102
RTVSPropertyOp27
 70
     1
102
RTVSPropertyOp28
 70
     1
102
RTVSPropertyOp29
 70
     1
102
RTVSPropertyOp30
 70
     1
102
RTVSPropertyOp31
 70
     1
102
RTVSPropertyOp32
 70
     1
  0
XRECORD
  5
8D4
102
{ACAD_REACTORS
330
8D3
102
}
330
8D3
100
AcDbXrecord
280
     1
102
RTVSPropertyOp0
 70
     1
102
RTVSPropertyOp1
 70
     1
102
RTVSPropertyOp2
 70
     1
102
RTVSPropertyOp3
 70
     1
102
RTVSPropertyOp4
 70
     1
102
RTVSPropertyOp5
 70
     1
102
RTVSPropertyOp6
 70
     1
102
RTVSPropertyOp7
 70
     1
102
RTVSPropertyOp8
 70
     1
102
RTVSPropertyOp9
 70
     1
102
RTVSPropertyOp10
 70
     1
102
RTVSPropertyOp11
 70
     1
102
RTVSPropertyOp12
 70
     1
102
RTVSPropertyOp13
 70
     1
102
RTVSPropertyOp14
 70
     1
102
RTVSPropertyOp15
 70
     1
102
RTVSPropertyOp16
 70
     1
102
RTVSPropertyOp17
 70
     1
102
RTVSPropertyOp18
 70
     1
102
RTVSPropertyOp19
 70
     1
102
RTVSPropertyOp20
 70
     1
102
RTVSPropertyOp21
 70
     1
102
RTVSPropertyOp22
 70
     1
102
RTVSPropertyOp23
 70
     1
102
RTVSPropertyOp24
 70
     1
102
RTVSPropertyOp25
 70
     1
102
RTVSPropertyOp26
 70
     1
102
RTVSPropertyOp27
 70
     1
102
RTVSPropertyOp28
 70
     1
102
RTVSPropertyOp29
 70
     1
102
RTVSPropertyOp30
 70
     1
102
RTVSPropertyOp31
 70
     1
102
RTVSPropertyOp32
 70
     1
  0
XRECORD
  5
8D2
102
{ACAD_REACTORS
330
8D1
102
}
330
8D1
100
AcDbXrecord
280
     1
102
RTVSPropertyOp0
 70
     1
102
RTVSPropertyOp1
 70
     1
102
RTVSPropertyOp2
 70
     1
102
RTVSPropertyOp3
 70
     1
102
RTVSPropertyOp4
 70
     1
102
RTVSPropertyOp5
 70
     1
102
RTVSPropertyOp6
 70
     1
102
RTVSPropertyOp7
 70
     1
102
RTVSPropertyOp8
 70
     1
102
RTVSPropertyOp9
 70
     1
102
RTVSPropertyOp10
 70
     1
102
RTVSPropertyOp11
 70
     1
102
RTVSPropertyOp12
 70
     1
102
RTVSPropertyOp13
 70
     1
102
RTVSPropertyOp14
 70
     1
102
RTVSPropertyOp15
 70
     1
102
RTVSPropertyOp16
 70
     1
102
RTVSPropertyOp17
 70
     1
102
RTVSPropertyOp18
 70
     1
102
RTVSPropertyOp19
 70
     1
102
RTVSPropertyOp20
 70
     1
102
RTVSPropertyOp21
 70
     1
102
RTVSPropertyOp22
 70
     1
102
RTVSPropertyOp23
 70
     1
102
RTVSPropertyOp24
 70
     1
102
RTVSPropertyOp25
 70
     1
102
RTVSPropertyOp26
 70
     1
102
RTVSPropertyOp27
 70
     1
102
RTVSPropertyOp28
 70
     1
102
RTVSPropertyOp29
 70
     1
102
RTVSPropertyOp30
 70
     1
102
RTVSPropertyOp31
 70
     1
102
RTVSPropertyOp32
 70
     1
  0
XRECORD
  5
8CC
102
{ACAD_REACTORS
330
8CB
102
}
330
8CB
100
AcDbXrecord
280
     1
102
RTVSPropertyOp0
 70
     1
102
RTVSPropertyOp1
 70
     1
102
RTVSPropertyOp2
 70
     1
102
RTVSPropertyOp3
 70
     1
102
RTVSPropertyOp4
 70
     1
102
RTVSPropertyOp5
 70
     1
102
RTVSPropertyOp6
 70
     1
102
RTVSPropertyOp7
 70
     1
102
RTVSPropertyOp8
 70
     1
102
RTVSPropertyOp9
 70
     1
102
RTVSPropertyOp10
 70
     1
102
RTVSPropertyOp11
 70
     1
102
RTVSPropertyOp12
 70
     1
102
RTVSPropertyOp13
 70
     1
102
RTVSPropertyOp14
 70
     1
102
RTVSPropertyOp15
 70
     1
102
RTVSPropertyOp16
 70
     1
102
RTVSPropertyOp17
 70
     1
102
RTVSPropertyOp18
 70
     1
102
RTVSPropertyOp19
 70
     1
102
RTVSPropertyOp20
 70
     1
102
RTVSPropertyOp21
 70
     1
102
RTVSPropertyOp22
 70
     1
102
RTVSPropertyOp23
 70
     1
102
RTVSPropertyOp24
 70
     1
102
RTVSPropertyOp25
 70
     1
102
RTVSPropertyOp26
 70
     1
102
RTVSPropertyOp27
 70
     1
102
RTVSPropertyOp28
 70
     1
102
RTVSPropertyOp29
 70
     1
102
RTVSPropertyOp30
 70
     1
102
RTVSPropertyOp31
 70
     1
102
RTVSPropertyOp32
 70
     1
  0
XRECORD
  5
8CE
102
{ACAD_REACTORS
330
8CD
102
}
330
8CD
100
AcDbXrecord
280
     1
102
RTVSPropertyOp0
 70
     1
102
RTVSPropertyOp1
 70
     1
102
RTVSPropertyOp2
 70
     1
102
RTVSPropertyOp3
 70
     1
102
RTVSPropertyOp4
 70
     1
102
RTVSPropertyOp5
 70
     1
102
RTVSPropertyOp6
 70
     1
102
RTVSPropertyOp7
 70
     1
102
RTVSPropertyOp8
 70
     1
102
RTVSPropertyOp9
 70
     1
102
RTVSPropertyOp10
 70
     1
102
RTVSPropertyOp11
 70
     1
102
RTVSPropertyOp12
 70
     1
102
RTVSPropertyOp13
 70
     1
102
RTVSPropertyOp14
 70
     1
102
RTVSPropertyOp15
 70
     1
102
RTVSPropertyOp16
 70
     1
102
RTVSPropertyOp17
 70
     1
102
RTVSPropertyOp18
 70
     1
102
RTVSPropertyOp19
 70
     1
102
RTVSPropertyOp20
 70
     1
102
RTVSPropertyOp21
 70
     1
102
RTVSPropertyOp22
 70
     1
102
RTVSPropertyOp23
 70
     1
102
RTVSPropertyOp24
 70
     1
102
RTVSPropertyOp25
 70
     1
102
RTVSPropertyOp26
 70
     1
102
RTVSPropertyOp27
 70
     1
102
RTVSPropertyOp28
 70
     1
102
RTVSPropertyOp29
 70
     1
102
RTVSPropertyOp30
 70
     1
102
RTVSPropertyOp31
 70
     1
102
RTVSPropertyOp32
 70
     1
  0
XRECORD
  5
8C4
102
{ACAD_REACTORS
330
8C3
102
}
330
8C3
100
AcDbXrecord
280
     1
102
RTVSPropertyOp0
 70
     1
102
RTVSPropertyOp1
 70
     1
102
RTVSPropertyOp2
 70
     1
102
RTVSPropertyOp3
 70
     1
102
RTVSPropertyOp4
 70
     1
102
RTVSPropertyOp5
 70
     1
102
RTVSPropertyOp6
 70
     1
102
RTVSPropertyOp7
 70
     1
102
RTVSPropertyOp8
 70
     1
102
RTVSPropertyOp9
 70
     1
102
RTVSPropertyOp10
 70
     1
102
RTVSPropertyOp11
 70
     1
102
RTVSPropertyOp12
 70
     1
102
RTVSPropertyOp13
 70
     1
102
RTVSPropertyOp14
 70
     1
102
RTVSPropertyOp15
 70
     1
102
RTVSPropertyOp16
 70
     1
102
RTVSPropertyOp17
 70
     1
102
RTVSPropertyOp18
 70
     1
102
RTVSPropertyOp19
 70
     1
102
RTVSPropertyOp20
 70
     1
102
RTVSPropertyOp21
 70
     1
102
RTVSPropertyOp22
 70
     1
102
RTVSPropertyOp23
 70
     1
102
RTVSPropertyOp24
 70
     1
102
RTVSPropertyOp25
 70
     1
102
RTVSPropertyOp26
 70
     1
102
RTVSPropertyOp27
 70
     1
102
RTVSPropertyOp28
 70
     1
102
RTVSPropertyOp29
 70
     1
102
RTVSPropertyOp30
 70
     1
102
RTVSPropertyOp31
 70
     1
102
RTVSPropertyOp32
 70
     1
  0
XRECORD
  5
8B8
102
{ACAD_REACTORS
330
8B7
102
}
330
8B7
100
AcDbXrecord
280
     1
102
RTVSPropertyOp0
 70
     1
102
RTVSPropertyOp1
 70
     1
102
RTVSPropertyOp2
 70
     1
102
RTVSPropertyOp3
 70
     1
102
RTVSPropertyOp4
 70
     1
102
RTVSPropertyOp5
 70
     1
102
RTVSPropertyOp6
 70
     1
102
RTVSPropertyOp7
 70
     1
102
RTVSPropertyOp8
 70
     1
102
RTVSPropertyOp9
 70
     1
102
RTVSPropertyOp10
 70
     1
102
RTVSPropertyOp11
 70
     1
102
RTVSPropertyOp12
 70
     1
102
RTVSPropertyOp13
 70
     1
102
RTVSPropertyOp14
 70
     1
102
RTVSPropertyOp15
 70
     1
102
RTVSPropertyOp16
 70
     1
102
RTVSPropertyOp17
 70
     1
102
RTVSPropertyOp18
 70
     1
102
RTVSPropertyOp19
 70
     1
102
RTVSPropertyOp20
 70
     1
102
RTVSPropertyOp21
 70
     1
102
RTVSPropertyOp22
 70
     1
102
RTVSPropertyOp23
 70
     1
102
RTVSPropertyOp24
 70
     1
102
RTVSPropertyOp25
 70
     1
102
RTVSPropertyOp26
 70
     1
102
RTVSPropertyOp27
 70
     1
102
RTVSPropertyOp28
 70
     1
102
RTVSPropertyOp29
 70
     1
102
RTVSPropertyOp30
 70
     1
102
RTVSPropertyOp31
 70
     1
102
RTVSPropertyOp32
 70
     1
  0
XRECORD
  5
8D0
102
{ACAD_REACTORS
330
8CF
102
}
330
8CF
100
AcDbXrecord
280
     1
102
RTVSPropertyOp0
 70
     1
102
RTVSPropertyOp1
 70
     1
102
RTVSPropertyOp2
 70
     1
102
RTVSPropertyOp3
 70
     1
102
RTVSPropertyOp4
 70
     1
102
RTVSPropertyOp5
 70
     1
102
RTVSPropertyOp6
 70
     1
102
RTVSPropertyOp7
 70
     1
102
RTVSPropertyOp8
 70
     1
102
RTVSPropertyOp9
 70
     1
102
RTVSPropertyOp10
 70
     1
102
RTVSPropertyOp11
 70
     1
102
RTVSPropertyOp12
 70
     1
102
RTVSPropertyOp13
 70
     1
102
RTVSPropertyOp14
 70
     1
102
RTVSPropertyOp15
 70
     1
102
RTVSPropertyOp16
 70
     1
102
RTVSPropertyOp17
 70
     1
102
RTVSPropertyOp18
 70
     1
102
RTVSPropertyOp19
 70
     1
102
RTVSPropertyOp20
 70
     1
102
RTVSPropertyOp21
 70
     1
102
RTVSPropertyOp22
 70
     1
102
RTVSPropertyOp23
 70
     1
102
RTVSPropertyOp24
 70
     1
102
RTVSPropertyOp25
 70
     1
102
RTVSPropertyOp26
 70
     1
102
RTVSPropertyOp27
 70
     1
102
RTVSPropertyOp28
 70
     1
102
RTVSPropertyOp29
 70
     1
102
RTVSPropertyOp30
 70
     1
102
RTVSPropertyOp31
 70
     1
102
RTVSPropertyOp32
 70
     1
  0
ENDSEC
  0
EOF
