  0
SECTION
  2
HEADER
  9
$ACADVER
  1
AC1015
  9
$ACADMAINTVER
 70
    18
  9
$DWGCODEPAGE
  3
ANSI_1252
  9
$INSBASE
 10
0.0
 20
0.0
 30
0.0
  9
$EXTMIN
 10
0.0
 20
0.0
 30
0.0
  9
$EXTMAX
 10
34.0
 20
22.0
 30
0.0
  9
$LIMMIN
 10
0.0
 20
0.0
  9
$LIMMAX
 10
34.0
 20
22.0
  9
$ORTHOMODE
 70
     0
  9
$REGENMODE
 70
     1
  9
$FILLMODE
 70
     1
  9
$QTEXTMODE
 70
     0
  9
$MIRRTEXT
 70
     0
  9
$LTSCALE
 40
2.0
  9
$ATTMODE
 70
     1
  9
$TEXTSIZE
 40
0.2
  9
$TRACEWID
 40
0.05
  9
$TEXTSTYLE
  7
Standard
  9
$CLAYER
  8
0
  9
$CELTYPE
  6
ByLayer
  9
$CECOLOR
 62
   256
  9
$CELTSCALE
 40
1.0
  9
$DISPSILH
 70
     0
  9
$DIMSCALE
 40
1.0
  9
$DIMASZ
 40
0.0708661417322835
  9
$DIMEXO
 40
0.0625
  9
$DIMDLI
 40
0.38
  9
$DIMRND
 40
0.0
  9
$DIMDLE
 40
0.0
  9
$DIMEXE
 40
0.18
  9
$DIMTP
 40
0.0
  9
$DIMTM
 40
0.0
  9
$DIMTXT
 40
0.0708661417322835
  9
$DIMCEN
 40
0.09
  9
$DIMTSZ
 40
0.0
  9
$DIMTOL
 70
     0
  9
$DIMLIM
 70
     0
  9
$DIMTIH
 70
     1
  9
$DIMTOH
 70
     1
  9
$DIMSE1
 70
     0
  9
$DIMSE2
 70
     0
  9
$DIMTAD
 70
     0
  9
$DIMZIN
 70
     0
  9
$DIMBLK
  1

  9
$DIMASO
 70
     1
  9
$DIMSHO
 70
     1
  9
$DIMPOST
  1

  9
$DIMAPOST
  1

  9
$DIMALT
 70
     0
  9
$DIMALTD
 70
     2
  9
$DIMALTF
 40
25.4
  9
$DIMLFAC
 40
1.0
  9
$DIMTOFL
 70
     0
  9
$DIMTVP
 40
0.0
  9
$DIMTIX
 70
     0
  9
$DIMSOXD
 70
     0
  9
$DIMSAH
 70
     0
  9
$DIMBLK1
  1

  9
$DIMBLK2
  1

  9
$DIMSTYLE
  2
STANDARD
  9
$DIMCLRD
 70
     0
  9
$DIMCLRE
 70
     0
  9
$DIMCLRT
 70
     0
  9
$DIMTFAC
 40
1.0
  9
$DIMGAP
 40
0.09
  9
$DIMJUST
 70
     0
  9
$DIMSD1
 70
     0
  9
$DIMSD2
 70
     0
  9
$DIMTOLJ
 70
     1
  9
$DIMTZIN
 70
     0
  9
$DIMALTZ
 70
     0
  9
$DIMALTTZ
 70
     0
  9
$DIMUPT
 70
     0
  9
$DIMDEC
 70
     4
  9
$DIMTDEC
 70
     4
  9
$DIMALTU
 70
     2
  9
$DIMALTTD
 70
     2
  9
$DIMTXSTY
  7
Standard
  9
$DIMAUNIT
 70
     0
  9
$DIMADEC
 70
     0
  9
$DIMALTRND
 40
0.0
  9
$DIMAZIN
 70
     0
  9
$DIMDSEP
 70
    46
  9
$DIMATFIT
 70
     3
  9
$DIMFRAC
 70
     0
  9
$DIMLDRBLK
  1

  9
$DIMLUNIT
 70
     2
  9
$DIMLWD
 70
    -2
  9
$DIMLWE
 70
    -2
  9
$DIMTMOVE
 70
     0
  9
$LUNITS
 70
     2
  9
$LUPREC
 70
     4
  9
$SKETCHINC
 40
0.1
  9
$FILLETRAD
 40
0.0
  9
$AUNITS
 70
     0
  9
$AUPREC
 70
     0
  9
$MENU
  1
.
  9
$ELEVATION
 40
0.0
  9
$PELEVATION
 40
0.0
  9
$THICKNESS
 40
0.0
  9
$LIMCHECK
 70
     0
  9
$CHAMFERA
 40
0.0
  9
$CHAMFERB
 40
0.0
  9
$CHAMFERC
 40
0.0
  9
$CHAMFERD
 40
0.0
  9
$SKPOLY
 70
     0
  9
$TDCREATE
 40
2455950.557390961
  9
$TDUCREATE
 40
2455950.807390961
  9
$TDUPDATE
 40
2455950.557390961
  9
$TDUUPDATE
 40
2455950.807390961
  9
$TDINDWG
 40
0.0000363542
  9
$TDUSRTIMER
 40
0.0000363542
  9
$USRTIMER
 70
     1
  9
$ANGBASE
 50
0.0
  9
$ANGDIR
 70
     0
  9
$PDMODE
 70
     0
  9
$PDSIZE
 40
0.0
  9
$PLINEWID
 40
0.0
  9
$SPLFRAME
 70
     0
  9
$SPLINETYPE
 70
     6
  9
$SPLINESEGS
 70
     8
  9
$HANDSEED
  5
8CB
  9
$SURFTAB1
 70
     6
  9
$SURFTAB2
 70
     6
  9
$SURFTYPE
 70
     6
  9
$SURFU
 70
     6
  9
$SURFV
 70
     6
  9
$UCSBASE
  2

  9
$UCSNAME
  2

  9
$UCSORG
 10
0.0
 20
0.0
 30
0.0
  9
$UCSXDIR
 10
1.0
 20
0.0
 30
0.0
  9
$UCSYDIR
 10
0.0
 20
1.0
 30
0.0
  9
$UCSORTHOREF
  2

  9
$UCSORTHOVIEW
 70
     0
  9
$UCSORGTOP
 10
0.0
 20
0.0
 30
0.0
  9
$UCSORGBOTTOM
 10
0.0
 20
0.0
 30
0.0
  9
$UCSORGLEFT
 10
0.0
 20
0.0
 30
0.0
  9
$UCSORGRIGHT
 10
0.0
 20
0.0
 30
0.0
  9
$UCSORGFRONT
 10
0.0
 20
0.0
 30
0.0
  9
$UCSORGBACK
 10
0.0
 20
0.0
 30
0.0
  9
$PUCSBASE
  2

  9
$PUCSNAME
  2

  9
$PUCSORG
 10
0.0
 20
0.0
 30
0.0
  9
$PUCSXDIR
 10
1.0
 20
0.0
 30
0.0
  9
$PUCSYDIR
 10
0.0
 20
1.0
 30
0.0
  9
$PUCSORTHOREF
  2

  9
$PUCSORTHOVIEW
 70
     0
  9
$PUCSORGTOP
 10
0.0
 20
0.0
 30
0.0
  9
$PUCSORGBOTTOM
 10
0.0
 20
0.0
 30
0.0
  9
$PUCSORGLEFT
 10
0.0
 20
0.0
 30
0.0
  9
$PUCSORGRIGHT
 10
0.0
 20
0.0
 30
0.0
  9
$PUCSORGFRONT
 10
0.0
 20
0.0
 30
0.0
  9
$PUCSORGBACK
 10
0.0
 20
0.0
 30
0.0
  9
$USERI1
 70
     0
  9
$USERI2
 70
     0
  9
$USERI3
 70
     0
  9
$USERI4
 70
     0
  9
$USERI5
 70
     0
  9
$USERR1
 40
0.0
  9
$USERR2
 40
0.0
  9
$USERR3
 40
0.0
  9
$USERR4
 40
0.0
  9
$USERR5
 40
0.0
  9
$WORLDVIEW
 70
     1
  9
$SHADEDGE
 70
     3
  9
$SHADEDIF
 70
    70
  9
$TILEMODE
 70
     1
  9
$MAXACTVP
 70
    64
  9
$PINSBASE
 10
0.0
 20
0.0
 30
0.0
  9
$PLIMCHECK
 70
     0
  9
$PEXTMIN
 10
0.0
 20
0.0
 30
0.0
  9
$PEXTMAX
 10
34.0
 20
22.0
 30
0.0
  9
$PLIMMIN
 10
0.0
 20
0.0
  9
$PLIMMAX
 10
34.0
 20
22.0
  9
$UNITMODE
 70
     0
  9
$VISRETAIN
 70
     1
  9
$PLINEGEN
 70
     0
  9
$PSLTSCALE
 70
     1
  9
$TREEDEPTH
 70
  3020
  9
$CMLSTYLE
  2
Standard
  9
$CMLJUST
 70
     0
  9
$CMLSCALE
 40
1.0
  9
$PROXYGRAPHICS
 70
     1
  9
$MEASUREMENT
 70
     0
  9
$CELWEIGHT
370
    -1
  9
$ENDCAPS
280
     0
  9
$JOINSTYLE
280
     0
  9
$LWDISPLAY
290
     0
  9
$INSUNITS
 70
     1
  9
$HYPERLINKBASE
  1

  9
$STYLESHEET
  1

  9
$XEDIT
290
     1
  9
$CEPSNTYPE
380
     0
  9
$PSTYLEMODE
290
     1
  9
$FINGERPRINTGUID
  2
{94387A16-4ABB-4A00-964E-C6D6CC8ACBB7}
  9
$VERSIONGUID
  2
{7EF6846C-2345-493E-9685-829AA4DCDCF6}
  9
$EXTNAMES
290
     1
  9
$PSVPSCALE
 40
0.0
  9
$OLESTARTUP
290
     0
  0
ENDSEC
  0
SECTION
  2
CLASSES
  0
CLASS
  1
ACDBDICTIONARYWDFLT
  2
AcDbDictionaryWithDefault
  3
ObjectDBX Classes
 90
        0
280
     0
281
     0
  0
CLASS
  1
MATERIAL
  2
AcDbMaterial
  3
ObjectDBX Classes
 90
     1153
280
     0
281
     0
  0
CLASS
  1
VISUALSTYLE
  2
AcDbVisualStyle
  3
ObjectDBX Classes
 90
     4095
280
     0
281
     0
  0
CLASS
  1
SCALE
  2
AcDbScale
  3
ObjectDBX Classes
 90
     1153
280
     0
281
     0
  0
CLASS
  1
TABLESTYLE
  2
AcDbTableStyle
  3
ObjectDBX Classes
 90
     4095
280
     0
281
     0
  0
CLASS
  1
MLEADERSTYLE
  2
AcDbMLeaderStyle
  3
ACDB_MLEADERSTYLE_CLASS
 90
     4095
280
     0
281
     0
  0
CLASS
  1
DICTIONARYVAR
  2
AcDbDictionaryVar
  3
ObjectDBX Classes
 90
        0
280
     0
281
     0
  0
CLASS
  1
CELLSTYLEMAP
  2
AcDbCellStyleMap
  3
ObjectDBX Classes
 90
     1152
280
     0
281
     0
  0
CLASS
  1
ACDBPLACEHOLDER
  2
AcDbPlaceHolder
  3
ObjectDBX Classes
 90
        0
280
     0
281
     0
  0
CLASS
  1
LAYOUT
  2
AcDbLayout
  3
ObjectDBX Classes
 90
        0
280
     0
281
     0
  0
ENDSEC
  0
SECTION
  2
TABLES
  0
TABLE
  2
VPORT
  5
8
330
0
100
AcDbSymbolTable
 70
     1
  0
VPORT
  5
57
330
8
100
AcDbSymbolTableRecord
100
AcDbViewportTableRecord
  2
*Active
 70
     0
 10
0.0
 20
0.0
 11
1.0
 21
1.0
 12
17.0
 22
11.0
 13
0.0
 23
0.0
 14
1.0
 24
1.0
 15
0.0
 25
0.0
 16
0.0
 26
0.0
 36
1.0
 17
0.0
 27
0.0
 37
0.0
 40
22.0
 41
1.545454545454545
 42
50.0
 43
0.0
 44
0.0
 50
0.0
 51
0.0
 71
     0
 72
   100
 73
     1
 74
     1
 75
     0
 76
     0
 77
     0
 78
     0
281
     0
 65
     1
110
0.0
120
0.0
130
0.0
111
1.0
121
0.0
131
0.0
112
0.0
122
1.0
132
0.0
 79
     0
146
0.0
  0
ENDTAB
  0
TABLE
  2
LTYPE
  5
5
330
0
100
AcDbSymbolTable
 70
    59
  0
LTYPE
  5
5B
330
5
100
AcDbSymbolTableRecord
100
AcDbLinetypeTableRecord
  2
ByBlock
 70
     0
  3

 72
    65
 73
     0
 40
0.0
  0
LTYPE
  5
5C
330
5
100
AcDbSymbolTableRecord
100
AcDbLinetypeTableRecord
  2
ByLayer
 70
     0
  3

 72
    65
 73
     0
 40
0.0
  0
LTYPE
  5
5D
330
5
100
AcDbSymbolTableRecord
100
AcDbLinetypeTableRecord
  2
Continuous
 70
     0
  3
Solid line
 72
    65
 73
     0
 40
0.0
  0
LTYPE
  5
7C
330
5
100
AcDbSymbolTableRecord
100
AcDbLinetypeTableRecord
  2
BY_STANDARD
 70
     0
  3
By Standard ____________    ____    ____   _
 72
    65
 73
     6
 40
1.240299999999999
 49
0.6614
 74
     0
 49
-0.0827
 74
     0
 49
0.1654
 74
     0
 49
-0.0827
 74
     0
 49
0.1654
 74
     0
 49
-0.0827
 74
     0
  0
LTYPE
  5
7D
330
5
100
AcDbSymbolTableRecord
100
AcDbLinetypeTableRecord
  2
CHAIN
 70
     0
  3
Chain ____ _ ____ _ ____ _ ____ _ ____ _ ____
 72
    65
 73
     4
 40
0.7087
 49
0.4724000000000001
 74
     0
 49
-0.0591
 74
     0
 49
0.1181
 74
     0
 49
-0.0591
 74
     0
  0
LTYPE
  5
7E
330
5
100
AcDbSymbolTableRecord
100
AcDbLinetypeTableRecord
  2
DASH_DOT
 70
     0
  3
Dash dot __ . __ . __ . __ . __ . __ . __ . __
 72
    65
 73
     4
 40
0.37
 49
0.24
 74
     0
 49
-0.06
 74
     0
 49
0.01
 74
     0
 49
-0.06
 74
     0
  0
LTYPE
  5
7F
330
5
100
AcDbSymbolTableRecord
100
AcDbLinetypeTableRecord
  2
DOUBLE_DASH_DOT
 70
     0
  3
Double-Dash Dot __ __ . __ __ . __ __ . __ _
 72
    65
 73
     6
 40
0.4398
 49
0.24
 74
     0
 49
-0.06
 74
     0
 49
0.0098
 74
     0
 49
-0.06
 74
     0
 49
0.01
 74
     0
 49
-0.06
 74
     0
  0
LTYPE
  5
80
330
5
100
AcDbSymbolTableRecord
100
AcDbLinetypeTableRecord
  2
DASH_TRIPLE_DOT
 70
     0
  3
Dash Triple-Dot _ . . . _ . . . _ . . . _
 72
    65
 73
     8
 40
0.51
 49
0.24
 74
     0
 49
-0.06
 74
     0
 49
0.01
 74
     0
 49
-0.06
 74
     0
 49
0.01
 74
     0
 49
-0.06
 74
     0
 49
0.01
 74
     0
 49
-0.06
 74
     0
  0
LTYPE
  5
81
330
5
100
AcDbSymbolTableRecord
100
AcDbLinetypeTableRecord
  2
DASHED
 70
     0
  3
Dashed __ __ __ __ __ __ __ __ __ __ __ __ __ _
 72
    65
 73
     2
 40
0.2067
 49
0.1654
 74
     0
 49
-0.0413
 74
     0
  0
LTYPE
  5
82
330
5
100
AcDbSymbolTableRecord
100
AcDbLinetypeTableRecord
  2
DASH_DOUBLE_DOT
 70
     0
  3
Dash Double-Dot __ . . __ . . __ . . __ . .
 72
    65
 73
     6
 40
0.4398
 49
0.24
 74
     0
 49
-0.06
 74
     0
 49
0.0098
 74
     0
 49
-0.06
 74
     0
 49
0.01
 74
     0
 49
-0.06
 74
     0
  0
LTYPE
  5
83
330
5
100
AcDbSymbolTableRecord
100
AcDbLinetypeTableRecord
  2
DASHED_SPACE
 70
     0
  3
Dashed Space __ __ __ __ __ __ __ __ __ __ __ _
 72
    65
 73
     2
 40
0.2067
 49
0.1654
 74
     0
 49
-0.0413
 74
     0
  0
LTYPE
  5
84
330
5
100
AcDbSymbolTableRecord
100
AcDbLinetypeTableRecord
  2
DOTTED
 70
     0
  3
Dotted . . . . . . . . . . . . . . . . . . . . 
 72
    65
 73
     2
 40
0.0482
 49
0.0069
 74
     0
 49
-0.0413
 74
     0
  0
LTYPE
  5
85
330
5
100
AcDbSymbolTableRecord
100
AcDbLinetypeTableRecord
  2
DOUBLE_DASH_CHAIN
 70
     0
  3
Double-Dash Chain ______  __  __  ______  __  _
 72
    65
 73
     6
 40
1.240299999999999
 49
0.6614
 74
     0
 49
-0.0827
 74
     0
 49
0.1654
 74
     0
 49
-0.0827
 74
     0
 49
0.1654
 74
     0
 49
-0.0827
 74
     0
  0
LTYPE
  5
87
330
5
100
AcDbSymbolTableRecord
100
AcDbLinetypeTableRecord
  2
DOUBLE_DASH_DOUBLE_DOT
 70
     0
  3
Double-Dash Double-dot _ _ . . _ _ . . _
 72
    65
 73
     8
 40
0.7400000000000001
 49
0.24
 74
     0
 49
-0.06
 74
     0
 49
0.24
 74
     0
 49
-0.06
 74
     0
 49
0.01
 74
     0
 49
-0.06
 74
     0
 49
0.01
 74
     0
 49
-0.06
 74
     0
  0
LTYPE
  5
88
330
5
100
AcDbSymbolTableRecord
100
AcDbLinetypeTableRecord
  2
DOUBLE_DASH_TRIPLE_DOT
 70
     0
  3
Double Dash Triple Dot __ __ . . . __ __ . .
 72
    65
 73
    10
 40
0.8100000000000001
 49
0.24
 74
     0
 49
-0.06
 74
     0
 49
0.24
 74
     0
 49
-0.06
 74
     0
 49
0.01
 74
     0
 49
-0.06
 74
     0
 49
0.01
 74
     0
 49
-0.06
 74
     0
 49
0.01
 74
     0
 49
-0.06
 74
     0
  0
LTYPE
  5
89
330
5
100
AcDbSymbolTableRecord
100
AcDbLinetypeTableRecord
  2
LONG_DASH_DOTTED
 70
     0
  3
Long Dash Dotted ____ . ____ . ____ . ____ . _
 72
    65
 73
     4
 40
0.3543
 49
0.2362
 74
     0
 49
-0.0295
 74
     0
 49
0.0591
 74
     0
 49
-0.0295
 74
     0
  0
LTYPE
  5
8A
330
5
100
AcDbSymbolTableRecord
100
AcDbLinetypeTableRecord
  2
LONG_DASH_DOUBLE_DOT
 70
     0
  3
Long Dash Double Dot ________  .  .  ________  
 72
    65
 73
     6
 40
0.6799999999999999
 49
0.48
 74
     0
 49
-0.06
 74
     0
 49
0.01
 74
     0
 49
-0.06
 74
     0
 49
0.01
 74
     0
 49
-0.06
 74
     0
  0
LTYPE
  5
8B
330
5
100
AcDbSymbolTableRecord
100
AcDbLinetypeTableRecord
  2
LONG_DASH_TRIPLE_DOT
 70
     0
  3
Long Dash Triple Dot ____ ... ____ ... ____
 72
    65
 73
     8
 40
0.3689
 49
0.2362
 74
     0
 49
-0.0295
 74
     0
 49
0.0049
 74
     0
 49
-0.0295
 74
     0
 49
0.0049
 74
     0
 49
-0.0295
 74
     0
 49
0.0049
 74
     0
 49
-0.0295
 74
     0
  0
LTYPE
  5
8C
330
5
100
AcDbSymbolTableRecord
100
AcDbLinetypeTableRecord
  2
BORDER
 70
     0
  3
Border __ __ . __ __ . __ __ . __ __ . __ __ .
 72
    65
 73
     6
 40
1.75
 49
0.5
 74
     0
 49
-0.25
 74
     0
 49
0.5
 74
     0
 49
-0.25
 74
     0
 49
0.0
 74
     0
 49
-0.25
 74
     0
  0
LTYPE
  5
8D
330
5
100
AcDbSymbolTableRecord
100
AcDbLinetypeTableRecord
  2
BORDER2
 70
     0
  3
Border (.5x) __.__.__.__.__.__.__.__.__.__.__.
 72
    65
 73
     6
 40
0.875
 49
0.25
 74
     0
 49
-0.125
 74
     0
 49
0.25
 74
     0
 49
-0.125
 74
     0
 49
0.0
 74
     0
 49
-0.125
 74
     0
  0
LTYPE
  5
8E
330
5
100
AcDbSymbolTableRecord
100
AcDbLinetypeTableRecord
  2
BORDERX2
 70
     0
  3
Border (2x) ____  ____  .  ____  ____  .  ___
 72
    65
 73
     6
 40
3.5
 49
1.0
 74
     0
 49
-0.5
 74
     0
 49
1.0
 74
     0
 49
-0.5
 74
     0
 49
0.0
 74
     0
 49
-0.5
 74
     0
  0
LTYPE
  5
8F
330
5
100
AcDbSymbolTableRecord
100
AcDbLinetypeTableRecord
  2
CENTER
 70
     0
  3
Center ____ _ ____ _ ____ _ ____ _ ____ _ ____
 72
    65
 73
     4
 40
2.0
 49
1.25
 74
     0
 49
-0.25
 74
     0
 49
0.25
 74
     0
 49
-0.25
 74
     0
  0
LTYPE
  5
90
330
5
100
AcDbSymbolTableRecord
100
AcDbLinetypeTableRecord
  2
CENTER2
 70
     0
  3
Center (.5x) ___ _ ___ _ ___ _ ___ _ ___ _ ___
 72
    65
 73
     4
 40
1.125
 49
0.75
 74
     0
 49
-0.125
 74
     0
 49
0.125
 74
     0
 49
-0.125
 74
     0
  0
LTYPE
  5
91
330
5
100
AcDbSymbolTableRecord
100
AcDbLinetypeTableRecord
  2
CENTERX2
 70
     0
  3
Center (2x) ________  __  ________  __  _____
 72
    65
 73
     4
 40
4.0
 49
2.5
 74
     0
 49
-0.5
 74
     0
 49
0.5
 74
     0
 49
-0.5
 74
     0
  0
LTYPE
  5
92
330
5
100
AcDbSymbolTableRecord
100
AcDbLinetypeTableRecord
  2
DASHDOT2
 70
     0
  3
Dash dot (.5x) _._._._._._._._._._._._._._._.
 72
    65
 73
     4
 40
0.5
 49
0.25
 74
     0
 49
-0.125
 74
     0
 49
0.0
 74
     0
 49
-0.125
 74
     0
  0
LTYPE
  5
93
330
5
100
AcDbSymbolTableRecord
100
AcDbLinetypeTableRecord
  2
DASHDOTX2
 70
     0
  3
Dash dot (2x) ____  .  ____  .  ____  .  ___
 72
    65
 73
     4
 40
2.0
 49
1.0
 74
     0
 49
-0.5
 74
     0
 49
0.0
 74
     0
 49
-0.5
 74
     0
  0
LTYPE
  5
95
330
5
100
AcDbSymbolTableRecord
100
AcDbLinetypeTableRecord
  2
DASHED2
 70
     0
  3
Dashed (.5x) _ _ _ _ _ _ _ _ _ _ _ _ _ _ _ _ _
 72
    65
 73
     2
 40
0.375
 49
0.25
 74
     0
 49
-0.125
 74
     0
  0
LTYPE
  5
96
330
5
100
AcDbSymbolTableRecord
100
AcDbLinetypeTableRecord
  2
DASHEDX2
 70
     0
  3
Dashed (2x) ____  ____  ____  ____  ____  ___
 72
    65
 73
     2
 40
1.5
 49
1.0
 74
     0
 49
-0.5
 74
     0
  0
LTYPE
  5
97
330
5
100
AcDbSymbolTableRecord
100
AcDbLinetypeTableRecord
  2
DIVIDE
 70
     0
  3
Divide ____ . . ____ . . ____ . . ____ . . ____
 72
    65
 73
     6
 40
1.25
 49
0.5
 74
     0
 49
-0.25
 74
     0
 49
0.0
 74
     0
 49
-0.25
 74
     0
 49
0.0
 74
     0
 49
-0.25
 74
     0
  0
LTYPE
  5
98
330
5
100
AcDbSymbolTableRecord
100
AcDbLinetypeTableRecord
  2
DIVIDE2
 70
     0
  3
Divide (.5x) __..__..__..__..__..__..__..__.._
 72
    65
 73
     6
 40
0.625
 49
0.25
 74
     0
 49
-0.125
 74
     0
 49
0.0
 74
     0
 49
-0.125
 74
     0
 49
0.0
 74
     0
 49
-0.125
 74
     0
  0
LTYPE
  5
99
330
5
100
AcDbSymbolTableRecord
100
AcDbLinetypeTableRecord
  2
DIVIDEX2
 70
     0
  3
Divide (2x) ________  .  .  ________  .  .  _
 72
    65
 73
     6
 40
2.5
 49
1.0
 74
     0
 49
-0.5
 74
     0
 49
0.0
 74
     0
 49
-0.5
 74
     0
 49
0.0
 74
     0
 49
-0.5
 74
     0
  0
LTYPE
  5
9A
330
5
100
AcDbSymbolTableRecord
100
AcDbLinetypeTableRecord
  2
DOT
 70
     0
  3
Dot . . . . . . . . . . . . . . . . . . . . . .
 72
    65
 73
     2
 40
0.25
 49
0.0
 74
     0
 49
-0.25
 74
     0
  0
LTYPE
  5
9B
330
5
100
AcDbSymbolTableRecord
100
AcDbLinetypeTableRecord
  2
DOT2
 70
     0
  3
Dot (.5x) .....................................
 72
    65
 73
     2
 40
0.125
 49
0.0
 74
     0
 49
-0.125
 74
     0
  0
LTYPE
  5
9C
330
5
100
AcDbSymbolTableRecord
100
AcDbLinetypeTableRecord
  2
DOTX2
 70
     0
  3
Dot (2x) .  .  .  .  .  .  .  .  .  .  .  .  . 
 72
    65
 73
     2
 40
0.5
 49
0.0
 74
     0
 49
-0.5
 74
     0
  0
LTYPE
  5
9D
330
5
100
AcDbSymbolTableRecord
100
AcDbLinetypeTableRecord
  2
HIDDEN
 70
     0
  3
Hidden __ __ __ __ __ __ __ __ __ __ __ __ __ _
 72
    65
 73
     2
 40
0.375
 49
0.25
 74
     0
 49
-0.125
 74
     0
  0
LTYPE
  5
9E
330
5
100
AcDbSymbolTableRecord
100
AcDbLinetypeTableRecord
  2
HIDDEN2
 70
     0
  3
Hidden (.5x) _ _ _ _ _ _ _ _ _ _ _ _ _ _ _ _ _
 72
    65
 73
     2
 40
0.1875
 49
0.125
 74
     0
 49
-0.0625
 74
     0
  0
LTYPE
  5
9F
330
5
100
AcDbSymbolTableRecord
100
AcDbLinetypeTableRecord
  2
HIDDENX2
 70
     0
  3
Hidden (2x) ____ ____ ____ ____ ____ ____ ____
 72
    65
 73
     2
 40
0.75
 49
0.5
 74
     0
 49
-0.25
 74
     0
  0
LTYPE
  5
A0
330
5
100
AcDbSymbolTableRecord
100
AcDbLinetypeTableRecord
  2
PHANTOM
 70
     0
  3
Phantom ______  __  __  ______  __  __  ______
 72
    65
 73
     6
 40
2.5
 49
1.25
 74
     0
 49
-0.25
 74
     0
 49
0.25
 74
     0
 49
-0.25
 74
     0
 49
0.25
 74
     0
 49
-0.25
 74
     0
  0
LTYPE
  5
A1
330
5
100
AcDbSymbolTableRecord
100
AcDbLinetypeTableRecord
  2
PHANTOM2
 70
     0
  3
Phantom (.5x) ___ _ _ ___ _ _ ___ _ _ ___ _ _
 72
    65
 73
     6
 40
1.25
 49
0.625
 74
     0
 49
-0.125
 74
     0
 49
0.125
 74
     0
 49
-0.125
 74
     0
 49
0.125
 74
     0
 49
-0.125
 74
     0
  0
LTYPE
  5
A2
330
5
100
AcDbSymbolTableRecord
100
AcDbLinetypeTableRecord
  2
PHANTOMX2
 70
     0
  3
Phantom (2x) ____________    ____    ____   _
 72
    65
 73
     6
 40
5.0
 49
2.5
 74
     0
 49
-0.5
 74
     0
 49
0.5
 74
     0
 49
-0.5
 74
     0
 49
0.5
 74
     0
 49
-0.5
 74
     0
  0
LTYPE
  5
A3
330
5
100
AcDbSymbolTableRecord
100
AcDbLinetypeTableRecord
  2
ACAD_ISO02W100
 70
     0
  3
ISO dash __ __ __ __ __ __ __ __ __ __ __ __ __
 72
    65
 73
     2
 40
0.59
 49
0.47
 74
     0
 49
-0.12
 74
     0
  0
LTYPE
  5
A4
330
5
100
AcDbSymbolTableRecord
100
AcDbLinetypeTableRecord
  2
ACAD_ISO03W100
 70
     0
  3
ISO dash space __    __    __    __    __    __
 72
    65
 73
     2
 40
1.179999999999999
 49
0.47
 74
     0
 49
-0.71
 74
     0
  0
LTYPE
  5
A5
330
5
100
AcDbSymbolTableRecord
100
AcDbLinetypeTableRecord
  2
ACAD_ISO04W100
 70
     0
  3
ISO long-dash dot ____ . ____ . ____ . ____ . _
 72
    65
 73
     4
 40
1.179999999999999
 49
0.9399999999999998
 74
     0
 49
-0.12
 74
     0
 49
0.0
 74
     0
 49
-0.12
 74
     0
  0
LTYPE
  5
A6
330
5
100
AcDbSymbolTableRecord
100
AcDbLinetypeTableRecord
  2
ACAD_ISO05W100
 70
     0
  3
ISO long-dash double-dot ____ .. ____ .. ____ .
 72
    65
 73
     6
 40
1.299999999999999
 49
0.9399999999999998
 74
     0
 49
-0.12
 74
     0
 49
0.0
 74
     0
 49
-0.12
 74
     0
 49
0.0
 74
     0
 49
-0.12
 74
     0
  0
LTYPE
  5
A7
330
5
100
AcDbSymbolTableRecord
100
AcDbLinetypeTableRecord
  2
ACAD_ISO06W100
 70
     0
  3
ISO long-dash triple-dot ____ ... ____ ... ____
 72
    65
 73
     8
 40
1.419999999999999
 49
0.9399999999999998
 74
     0
 49
-0.12
 74
     0
 49
0.0
 74
     0
 49
-0.12
 74
     0
 49
0.0
 74
     0
 49
-0.12
 74
     0
 49
0.0
 74
     0
 49
-0.12
 74
     0
  0
LTYPE
  5
A8
330
5
100
AcDbSymbolTableRecord
100
AcDbLinetypeTableRecord
  2
ACAD_ISO07W100
 70
     0
  3
ISO dot . . . . . . . . . . . . . . . . . . . .
 72
    65
 73
     2
 40
0.12
 49
0.0
 74
     0
 49
-0.12
 74
     0
  0
LTYPE
  5
A9
330
5
100
AcDbSymbolTableRecord
100
AcDbLinetypeTableRecord
  2
ACAD_ISO08W100
 70
     0
  3
ISO long-dash short-dash ____ __ ____ __ ____ _
 72
    65
 73
     4
 40
0.95
 49
0.47
 74
     0
 49
-0.12
 74
     0
 49
0.24
 74
     0
 49
-0.12
 74
     0
  0
LTYPE
  5
AA
330
5
100
AcDbSymbolTableRecord
100
AcDbLinetypeTableRecord
  2
ACAD_ISO09W100
 70
     0
  3
ISO long-dash double-short-dash ____ __ __ ____
 72
    65
 73
     6
 40
1.31
 49
0.47
 74
     0
 49
-0.12
 74
     0
 49
0.24
 74
     0
 49
-0.12
 74
     0
 49
0.24
 74
     0
 49
-0.12
 74
     0
  0
LTYPE
  5
AB
330
5
100
AcDbSymbolTableRecord
100
AcDbLinetypeTableRecord
  2
ACAD_ISO10W100
 70
     0
  3
ISO dash dot __ . __ . __ . __ . __ . __ . __ .
 72
    65
 73
     4
 40
0.71
 49
0.47
 74
     0
 49
-0.12
 74
     0
 49
0.0
 74
     0
 49
-0.12
 74
     0
  0
LTYPE
  5
AC
330
5
100
AcDbSymbolTableRecord
100
AcDbLinetypeTableRecord
  2
ACAD_ISO11W100
 70
     0
  3
ISO double-dash dot __ __ . __ __ . __ __ . __ 
 72
    65
 73
     6
 40
1.299999999999999
 49
0.47
 74
     0
 49
-0.12
 74
     0
 49
0.47
 74
     0
 49
-0.12
 74
     0
 49
0.0
 74
     0
 49
-0.12
 74
     0
  0
LTYPE
  5
AD
330
5
100
AcDbSymbolTableRecord
100
AcDbLinetypeTableRecord
  2
ACAD_ISO12W100
 70
     0
  3
ISO dash double-dot __ . . __ . . __ . . __ . .
 72
    65
 73
     6
 40
0.8299999999999998
 49
0.47
 74
     0
 49
-0.12
 74
     0
 49
0.0
 74
     0
 49
-0.12
 74
     0
 49
0.0
 74
     0
 49
-0.12
 74
     0
  0
LTYPE
  5
AE
330
5
100
AcDbSymbolTableRecord
100
AcDbLinetypeTableRecord
  2
ACAD_ISO13W100
 70
     0
  3
ISO double-dash double-dot __ __ . . __ __ . . 
 72
    65
 73
     8
 40
1.419999999999999
 49
0.47
 74
     0
 49
-0.12
 74
     0
 49
0.47
 74
     0
 49
-0.12
 74
     0
 49
0.0
 74
     0
 49
-0.12
 74
     0
 49
0.0
 74
     0
 49
-0.12
 74
     0
  0
LTYPE
  5
AF
330
5
100
AcDbSymbolTableRecord
100
AcDbLinetypeTableRecord
  2
ACAD_ISO14W100
 70
     0
  3
ISO dash triple-dot __ . . . __ . . . __ . . . 
 72
    65
 73
     8
 40
0.95
 49
0.47
 74
     0
 49
-0.12
 74
     0
 49
0.0
 74
     0
 49
-0.12
 74
     0
 49
0.0
 74
     0
 49
-0.12
 74
     0
 49
0.0
 74
     0
 49
-0.12
 74
     0
  0
LTYPE
  5
B0
330
5
100
AcDbSymbolTableRecord
100
AcDbLinetypeTableRecord
  2
ACAD_ISO15W100
 70
     0
  3
ISO double-dash triple-dot __ __ . . . __ __ . 
 72
    65
 73
    10
 40
1.539999999999999
 49
0.47
 74
     0
 49
-0.12
 74
     0
 49
0.47
 74
     0
 49
-0.12
 74
     0
 49
0.0
 74
     0
 49
-0.12
 74
     0
 49
0.0
 74
     0
 49
-0.12
 74
     0
 49
0.0
 74
     0
 49
-0.12
 74
     0
  0
LTYPE
  5
B3
330
5
100
AcDbSymbolTableRecord
100
AcDbLinetypeTableRecord
  2
FENCELINE1
 70
     0
  3
Fenceline circle ----0-----0----0-----0----0---
 72
    65
 73
     4
 40
1.45
 49
0.25
 74
     0
 49
-0.1
 74
     4
 75
   133
340
B2
 46
0.1
 50
0.0
 44
-0.1
 45
0.0
 49
-0.1
 74
     0
 49
1.0
 74
     0
  0
LTYPE
  5
B4
330
5
100
AcDbSymbolTableRecord
100
AcDbLinetypeTableRecord
  2
FENCELINE2
 70
     0
  3
Fenceline square ----[]-----[]----[]-----[]----
 72
    65
 73
     4
 40
1.45
 49
0.25
 74
     0
 49
-0.1
 74
     4
 75
   132
340
B2
 46
0.1
 50
0.0
 44
-0.1
 45
0.0
 49
-0.1
 74
     0
 49
1.0
 74
     0
  0
LTYPE
  5
B5
330
5
100
AcDbSymbolTableRecord
100
AcDbLinetypeTableRecord
  2
TRACKS
 70
     0
  3
Tracks -|-|-|-|-|-|-|-|-|-|-|-|-|-|-|-|-|-|-|-|
 72
    65
 73
     2
 40
0.3
 49
0.15
 74
     4
 75
   130
340
B2
 46
0.25
 50
0.0
 44
0.0
 45
0.0
 49
0.15
 74
     0
  0
LTYPE
  5
B6
330
5
100
AcDbSymbolTableRecord
100
AcDbLinetypeTableRecord
  2
BATTING
 70
     0
  3
Batting SSSSSSSSSSSSSSSSSSSSSSSSSSSSSSSSSSSSSSS
 72
    65
 73
     4
 40
0.4001000000000001
 49
0.0001
 74
     0
 49
-0.1
 74
     4
 75
   134
340
B2
 46
0.1
 50
0.0
 44
-0.1
 45
0.0
 49
-0.2
 74
     4
 75
   134
340
B2
 46
0.1
 50
180.0
 44
0.1
 45
0.0
 49
-0.1
 74
     0
  0
LTYPE
  5
B7
330
5
100
AcDbSymbolTableRecord
100
AcDbLinetypeTableRecord
  2
HOT_WATER_SUPPLY
 70
     0
  3
Hot water supply ---- HW ---- HW ---- HW ----
 72
    65
 73
     3
 40
0.9
 49
0.5
 74
     0
 49
-0.2
 74
     2
 75
     0
340
55
 46
0.1
 50
0.0
 44
-0.1
 45
-0.05
  9
HW
 49
-0.2
 74
     0
  0
LTYPE
  5
B8
330
5
100
AcDbSymbolTableRecord
100
AcDbLinetypeTableRecord
  2
GAS_LINE
 70
     0
  3
Gas line ----GAS----GAS----GAS----GAS----GAS---
 72
    65
 73
     3
 40
0.95
 49
0.5
 74
     0
 49
-0.2
 74
     2
 75
     0
340
55
 46
0.1
 50
0.0
 44
-0.1
 45
-0.05
  9
GAS
 49
-0.25
 74
     0
  0
LTYPE
  5
B9
330
5
100
AcDbSymbolTableRecord
100
AcDbLinetypeTableRecord
  2
ZIGZAG
 70
     0
  3
Zig zag /\/\/\/\/\/\/\/\/\/\/\/\/\/\/\/\/\/\/\/
 72
    65
 73
     4
 40
0.8001000000000001
 49
0.0001
 74
     0
 49
-0.2
 74
     4
 75
   131
340
B2
 46
0.2
 50
0.0
 44
-0.2
 45
0.0
 49
-0.4
 74
     4
 75
   131
340
B2
 46
0.2
 50
180.0
 44
0.2
 45
0.0
 49
-0.2
 74
     0
  0
ENDTAB
  0
TABLE
  2
LAYER
  5
2
330
0
100
AcDbSymbolTable
 70
    27
  0
LAYER
  5
54
330
2
100
AcDbSymbolTableRecord
100
AcDbLayerTableRecord
  2
0
 70
     0
 62
     7
  6
Continuous
370
    18
390
F
  0
LAYER
  5
C3
330
2
100
AcDbSymbolTableRecord
100
AcDbLayerTableRecord
  2
Dimension (ANSI)
 70
     0
 62
     7
  6
Continuous
370
    13
390
F
  0
LAYER
  5
C5
330
2
100
AcDbSymbolTableRecord
100
AcDbLayerTableRecord
  2
Hidden (ANSI)
 70
     0
 62
     7
  6
DASHED
370
    15
390
F
  0
LAYER
  5
CC
330
2
100
AcDbSymbolTableRecord
100
AcDbLayerTableRecord
  2
Symbol (ANSI)
 70
     0
 62
     7
  6
Continuous
370
    18
390
F
  0
LAYER
  5
CF
330
2
100
AcDbSymbolTableRecord
100
AcDbLayerTableRecord
  2
Visible (ANSI)
 70
     0
 62
     7
  6
Continuous
370
    13
390
F
  0
LAYER
  5
D0
330
2
100
AcDbSymbolTableRecord
100
AcDbLayerTableRecord
  2
Visible Narrow (ANSI)
 70
     0
 62
     7
  6
Continuous
370
    18
390
F
  0
LAYER
  5
145
330
2
100
AcDbSymbolTableRecord
100
AcDbLayerTableRecord
  2
Defpoints
 70
     0
 62
     7
  6
Continuous
290
     0
370
    -3
390
F
  0
ENDTAB
  0
TABLE
  2
STYLE
  5
3
330
0
100
AcDbSymbolTable
 70
    18
  0
STYLE
  5
55
330
3
100
AcDbSymbolTableRecord
100
AcDbTextStyleTableRecord
  2
Standard
 70
     0
 40
0.0
 41
1.0
 50
0.0
 71
     0
 42
0.2
  3
txt
  4

  0
STYLE
  5
5A
330
3
100
AcDbSymbolTableRecord
100
AcDbTextStyleTableRecord
  2
Annotative
 70
     0
 40
0.0
 41
1.0
 50
0.0
 71
     0
 42
0.2
  3
txt
  4

1001
AcadAnnotative
1000
AnnotativeData
1002
{
1070
     1
1070
     1
1002
}
  0
STYLE
  5
B2
330
3
100
AcDbSymbolTableRecord
100
AcDbTextStyleTableRecord
  2

 70
     1
 40
0.0
 41
1.0
 50
0.0
 71
     0
 42
0.2
  3
ltypeshp.shx
  4

  0
STYLE
  5
D4
330
3
100
AcDbSymbolTableRecord
100
AcDbTextStyleTableRecord
  2
ITALICC_120
 70
     0
 40
0.0
 41
1.0
 50
0.0
 71
     0
 42
0.2
  3
italicc.shx
  4

  0
STYLE
  5
D5
330
3
100
AcDbSymbolTableRecord
100
AcDbTextStyleTableRecord
  2
Label Text (ANSI)
 70
     0
 40
0.0
 41
1.0
 50
0.0
 71
     0
 42
0.2
  3
TAHOMA.TTF
  4

1001
ACAD
1000
Tahoma
1071
      256
  0
STYLE
  5
D6
330
3
100
AcDbSymbolTableRecord
100
AcDbTextStyleTableRecord
  2
Note Text (ANSI)
 70
     0
 40
0.0
 41
1.0
 50
0.0
 71
     0
 42
0.2
  3
TAHOMA.TTF
  4

1001
ACAD
1000
Tahoma
1071
      256
  0
STYLE
  5
D7
330
3
100
AcDbSymbolTableRecord
100
AcDbTextStyleTableRecord
  2
ROMANS
 70
     0
 40
0.0
 41
1.0
 50
0.0
 71
     0
 42
0.2
  3
romans.shx
  4

  0
STYLE
  5
D8
330
3
100
AcDbSymbolTableRecord
100
AcDbTextStyleTableRecord
  2
SANSSERIF_114
 70
     0
 40
0.0
 41
1.0
 50
0.0
 71
     0
 42
0.2
  3
TAHOMA.TTF
  4

1001
ACAD
1000
Tahoma
1071
      256
  0
STYLE
  5
D9
330
3
100
AcDbSymbolTableRecord
100
AcDbTextStyleTableRecord
  2
SANSSERIF_117
 70
     0
 40
0.0
 41
1.0
 50
0.0
 71
     0
 42
0.2
  3
TAHOMA.TTF
  4

1001
ACAD
1000
Tahoma
1071
      256
  0
STYLE
  5
DA
330
3
100
AcDbSymbolTableRecord
100
AcDbTextStyleTableRecord
  2
STANDARDAM_ANSI
 70
     0
 40
0.0
 41
1.0
 50
0.0
 71
     0
 42
0.2
  3
txt.shx
  4

  0
STYLE
  5
DB
330
3
100
AcDbSymbolTableRecord
100
AcDbTextStyleTableRecord
  2
StandardAM_ANSI$0
 70
     0
 40
0.0
 41
1.0
 50
0.0
 71
     0
 42
0.2
  3
txt.shx
  4

  0
STYLE
  5
DC
330
3
100
AcDbSymbolTableRecord
100
AcDbTextStyleTableRecord
  2
STANDARDAM_ANSI$3
 70
     0
 40
0.0
 41
1.0
 50
0.0
 71
     0
 42
0.2
  3
txt.shx
  4

  0
STYLE
  5
DD
330
3
100
AcDbSymbolTableRecord
100
AcDbTextStyleTableRecord
  2
STANDARDAM_ANSI$4
 70
     0
 40
0.0
 41
1.0
 50
0.0
 71
     0
 42
0.2
  3
txt.shx
  4

  0
STYLE
  5
DE
330
3
100
AcDbSymbolTableRecord
100
AcDbTextStyleTableRecord
  2
STANDARDAM_ANSI$7
 70
     0
 40
0.0
 41
1.0
 50
0.0
 71
     0
 42
0.2
  3
txt.shx
  4

  0
STYLE
  5
DF
330
3
100
AcDbSymbolTableRecord
100
AcDbTextStyleTableRecord
  2
STANDARDAM_ANSI$SF
 70
     0
 40
0.0
 41
1.0
 50
0.0
 71
     0
 42
0.2
  3
txt.shx
  4

  0
STYLE
  5
E0
330
3
100
AcDbSymbolTableRecord
100
AcDbTextStyleTableRecord
  2
STANDARDAM_ANSI$SH
 70
     0
 40
0.0
 41
1.0
 50
0.0
 71
     0
 42
0.2
  3
txt.shx
  4

  0
STYLE
  5
E1
330
3
100
AcDbSymbolTableRecord
100
AcDbTextStyleTableRecord
  2
STANDARDSTANDARD
 70
     0
 40
0.0
 41
1.0
 50
0.0
 71
     0
 42
0.2
  3
txt.shx
  4

  0
STYLE
  5
132
330
3
100
AcDbSymbolTableRecord
100
AcDbTextStyleTableRecord
  2
Text Style150
 70
     0
 40
0.0
 41
1.0
 50
0.0
 71
     0
 42
0.2
  3
TAHOMA.TTF
  4

1001
ACAD
1000
Tahoma
1071
      256
  0
ENDTAB
  0
TABLE
  2
VIEW
  5
6
330
0
100
AcDbSymbolTable
 70
     0
  0
ENDTAB
  0
TABLE
  2
UCS
  5
7
330
0
100
AcDbSymbolTable
 70
     0
  0
ENDTAB
  0
TABLE
  2
APPID
  5
9
330
0
100
AcDbSymbolTable
 70
     4
  0
APPID
  5
56
330
9
100
AcDbSymbolTableRecord
100
AcDbRegAppTableRecord
  2
ACAD
 70
     0
  0
APPID
  5
5E
330
9
100
AcDbSymbolTableRecord
100
AcDbRegAppTableRecord
  2
AcadAnnotative
 70
     0
  0
APPID
  5
789
330
9
100
AcDbSymbolTableRecord
100
AcDbRegAppTableRecord
  2
ACAD_DSTYLE_DIMRADIAL_EXTENSION
 70
     0
  0
APPID
  5
8C2
330
9
100
AcDbSymbolTableRecord
100
AcDbRegAppTableRecord
  2
ACAD_MLEADERVER
 70
     0
  0
ENDTAB
  0
TABLE
  2
DIMSTYLE
  5
A
330
0
100
AcDbSymbolTable
 70
    29
100
AcDbDimStyleTable
 71
     3
340
F6
340
58
340
F8
  0
DIMSTYLE
105
58
330
A
100
AcDbSymbolTableRecord
100
AcDbDimStyleTableRecord
  2
STANDARD
 70
     0
 41
0.1800000071525573
 42
0.0625
140
0.1800000071525574
144
1.0
147
0.0900000035762787
176
   256
177
   256
178
   256
274
     3
340
55
371
    -1
372
    -1
  0
DIMSTYLE
105
59
330
A
100
AcDbSymbolTableRecord
100
AcDbDimStyleTableRecord
  2
Annotative
 70
     0
340
55
1001
AcadAnnotative
1000
AnnotativeData
1002
{
1070
     1
1070
     1
1002
}
  0
DIMSTYLE
105
E2
330
A
100
AcDbSymbolTableRecord
100
AcDbDimStyleTableRecord
  2
AM_ANSI
 70
     0
  4
 mm
 40
2.0
 41
0.119999997317791
 42
0.05
 43
0.5
 44
0.1
 45
0.00000001
 78
     4
 79
     2
140
0.1200000047683716
146
0.7099999453624112
147
0.0599999986588955
176
   256
177
   256
178
     2
284
     4
340
DA
371
    -1
372
    -1
  0
DIMSTYLE
105
E3
330
A
100
AcDbSymbolTableRecord
100
AcDbDimStyleTableRecord
  2
AM_ANSI$7
 70
     0
  4
 mm
 40
2.0
 41
0.119999997317791
 42
0.05
 43
0.5
 44
0.1
 45
0.00000001
 78
     4
 79
     2
140
0.1200000047683716
146
0.7099999453624112
147
0.0599999986588955
176
   256
177
   256
178
     2
284
     4
340
DA
371
    -1
372
    -1
  0
DIMSTYLE
105
E4
330
A
100
AcDbSymbolTableRecord
100
AcDbDimStyleTableRecord
  2
AM_ANSI$0
 70
     0
  4
 mm
 40
2.0
 41
0.119999997317791
 42
0.05
 43
0.5
 44
0.1
 45
0.00000001
 78
     4
 79
     2
140
0.1200000047683716
146
0.7099999453624112
147
0.0599999986588955
176
   256
177
   256
178
     2
284
     4
340
DB
371
    -1
372
    -1
  0
DIMSTYLE
105
E5
330
A
100
AcDbSymbolTableRecord
100
AcDbDimStyleTableRecord
  2
AM_ANSI$0$7
 70
     0
  4
 mm
 40
2.0
 41
0.119999997317791
 42
0.05
 43
0.5
 44
0.1
 45
0.00000001
 78
     4
 79
     2
140
0.1200000047683716
146
0.7099999453624112
147
0.0599999986588955
176
   256
177
   256
178
     2
284
     4
340
DB
371
    -1
372
    -1
  0
DIMSTYLE
105
E6
330
A
100
AcDbSymbolTableRecord
100
AcDbDimStyleTableRecord
  2
AM_ANSI$3
 70
     0
  4
 mm
 40
2.0
 41
0.119999997317791
 42
0.05
 43
0.5
 44
0.1
 45
0.00000001
 78
     4
 79
     2
140
0.1200000047683716
146
0.7099999453624112
147
0.0599999986588955
176
   256
177
   256
178
     2
284
     4
340
DC
371
    -1
372
    -1
  0
DIMSTYLE
105
E7
330
A
100
AcDbSymbolTableRecord
100
AcDbDimStyleTableRecord
  2
AM_ANSI$3$7
 70
     0
  4
 mm
 40
2.0
 41
0.119999997317791
 42
0.05
 43
0.5
 44
0.1
 45
0.00000001
 78
     4
 79
     2
140
0.1200000047683716
146
0.7099999453624112
147
0.0599999986588955
176
   256
177
   256
178
     2
284
     4
340
DC
371
    -1
372
    -1
  0
DIMSTYLE
105
E8
330
A
100
AcDbSymbolTableRecord
100
AcDbDimStyleTableRecord
  2
AM_ANSI$4
 70
     0
  4
 mm
 40
2.0
 41
0.119999997317791
 42
0.05
 43
0.5
 44
0.1
 45
0.00000001
 78
     4
 79
     2
140
0.1200000047683716
146
0.7099999453624112
147
0.0599999986588955
176
   256
177
   256
178
     2
284
     4
340
DD
371
    -1
372
    -1
  0
DIMSTYLE
105
E9
330
A
100
AcDbSymbolTableRecord
100
AcDbDimStyleTableRecord
  2
AM_ANSI$4$7
 70
     0
  4
 mm
 40
2.0
 41
0.119999997317791
 42
0.05
 43
0.5
 44
0.1
 45
0.00000001
 78
     4
 79
     2
140
0.1200000047683716
146
0.7099999453624112
147
0.0599999986588955
176
   256
177
   256
178
     2
284
     4
340
DD
371
    -1
372
    -1
  0
DIMSTYLE
105
EA
330
A
100
AcDbSymbolTableRecord
100
AcDbDimStyleTableRecord
  2
AM_ANSI$SF
 70
     0
  4
 mm
 40
2.0
 41
0.119999997317791
 42
0.05
 43
0.5
 44
0.1
 45
0.00000001
 75
     1
 76
     1
 78
     4
 79
     2
140
0.1200000047683716
146
0.7099999453624112
147
0.0599999986588955
176
   256
177
   256
178
     2
284
     4
340
DF
371
    -1
372
    -1
  0
DIMSTYLE
105
EB
330
A
100
AcDbSymbolTableRecord
100
AcDbDimStyleTableRecord
  2
AM_ANSI$SF$7
 70
     0
  4
 mm
 40
2.0
 41
0.119999997317791
 42
0.05
 43
0.5
 44
0.1
 45
0.00000001
 75
     1
 76
     1
 78
     4
 79
     2
140
0.1200000047683716
146
0.7099999453624112
147
0.0599999986588955
176
   256
177
   256
178
     2
284
     4
340
DF
371
    -1
372
    -1
  0
DIMSTYLE
105
EC
330
A
100
AcDbSymbolTableRecord
100
AcDbDimStyleTableRecord
  2
AM_ANSI$SH
 70
     0
  4
 mm
 40
2.0
 41
0.119999997317791
 42
0.05
 43
0.5
 44
0.1
 45
0.00000001
 75
     1
 76
     1
 78
     4
 79
     2
140
0.1200000047683716
146
0.7099999453624112
147
0.0599999986588955
176
   256
177
   256
178
     2
284
     4
340
E0
371
    -1
372
    -1
  0
DIMSTYLE
105
ED
330
A
100
AcDbSymbolTableRecord
100
AcDbDimStyleTableRecord
  2
AM_ANSI$SH$7
 70
     0
  4
 mm
 40
2.0
 41
0.119999997317791
 42
0.05
 43
0.5
 44
0.1
 45
0.00000001
 75
     1
 76
     1
 78
     4
 79
     2
140
0.1200000047683716
146
0.7099999453624112
147
0.0599999986588955
176
   256
177
   256
178
     2
284
     4
340
E0
371
    -1
372
    -1
  0
DIMSTYLE
105
EE
330
A
100
AcDbSymbolTableRecord
100
AcDbDimStyleTableRecord
  2
Architectural (ANSI)
 70
     0
 40
2.0
 41
0.0984251946210861
 43
0.2362204724409449
 44
0.125
 45
0.00000001
 46
0.3937007874015748
 78
     3
 79
     3
140
0.1200000047683716
147
0.031496062992126
171
     1
176
   256
177
   256
178
   256
272
     2
274
     1
276
     2
277
     4
284
    12
285
     4
286
    12
340
D6
371
    -1
372
    -1
  0
DIMSTYLE
105
EF
330
A
100
AcDbSymbolTableRecord
100
AcDbDimStyleTableRecord
  2
Architectural (ANSI)$7
 70
     0
 40
2.0
 41
0.0984251946210861
 43
0.2362204724409449
 44
0.125
 45
0.00000001
 46
0.3937007874015748
 78
     3
 79
     3
140
0.1200000047683716
147
0.031496062992126
171
     1
176
   256
177
   256
178
   256
272
     2
274
     1
276
     2
277
     4
284
    12
285
     4
286
    12
340
D6
371
    -1
372
    -1
  0
DIMSTYLE
105
F0
330
A
100
AcDbSymbolTableRecord
100
AcDbDimStyleTableRecord
  2
Default - Fraction (ANSI)
 70
     0
 40
2.0
 41
0.0984251946210861
 43
0.2362204724409449
 44
0.125
 45
0.00000001
 46
0.3937007874015748
 79
     3
140
0.1200000047683716
147
0.031496062992126
171
     1
176
   256
177
   256
178
   256
272
     2
274
     1
276
     2
277
     5
284
    12
285
     4
286
    12
340
D6
371
    -1
372
    -1
  0
DIMSTYLE
105
F1
330
A
100
AcDbSymbolTableRecord
100
AcDbDimStyleTableRecord
  2
Default - Fraction (ANSI)$7
 70
     0
 40
2.0
 41
0.0984251946210861
 43
0.2362204724409449
 44
0.125
 45
0.00000001
 46
0.3937007874015748
 79
     3
140
0.1200000047683716
147
0.031496062992126
171
     1
176
   256
177
   256
178
   256
272
     2
274
     1
276
     2
277
     5
284
    12
285
     4
286
    12
340
D6
371
    -1
372
    -1
  0
DIMSTYLE
105
F2
330
A
100
AcDbSymbolTableRecord
100
AcDbDimStyleTableRecord
  2
Default - mm (ANSI)
 70
     0
 40
2.0
 41
0.0984251946210861
 42
0.063
 43
0.2362204724409449
 44
0.125
 45
0.00000001
 46
0.3937007874015748
 73
     0
 78
     4
 79
     1
140
0.1200000047683716
143
1.0
144
25.4
147
0.031496062992126
171
     1
176
   256
177
   256
178
   256
179
     1
271
     2
272
     2
274
     1
284
     4
285
     4
340
D6
371
    -1
372
    -1
  0
DIMSTYLE
105
F3
330
A
100
AcDbSymbolTableRecord
100
AcDbDimStyleTableRecord
  2
Default - mm (ANSI)$7
 70
     0
 40
2.0
 41
0.0984251946210861
 42
0.063
 43
0.2362204724409449
 44
0.125
 45
0.00000001
 46
0.3937007874015748
 73
     0
 78
     4
 79
     1
140
0.1200000047683716
143
1.0
144
25.4
147
0.031496062992126
171
     1
176
   256
177
   256
178
   256
179
     1
271
     2
272
     2
274
     1
284
     4
285
     4
340
D6
371
    -1
372
    -1
  0
DIMSTYLE
105
F4
330
A
100
AcDbSymbolTableRecord
100
AcDbDimStyleTableRecord
  2
Default - mm [in] (ANSI)
 70
     0
  4
 in
 40
2.0
 41
0.0984251946210861
 42
0.063
 43
0.25
 44
0.125
 45
0.00000001
 46
0.3937007874015748
 73
     0
 78
     4
 79
     1
140
0.1200000047683716
143
0.03937
144
25.4
147
0.031496062992126
170
     1
171
     3
176
   256
177
   256
178
   256
179
     1
271
     2
272
     2
274
     3
284
     4
285
     4
286
     4
340
D6
371
    -1
372
    -1
  0
DIMSTYLE
105
F5
330
A
100
AcDbSymbolTableRecord
100
AcDbDimStyleTableRecord
  2
Default - mm [in] (ANSI)$7
 70
     0
  4
 in
 40
2.0
 41
0.0984251946210861
 42
0.063
 43
0.25
 44
0.125
 45
0.00000001
 46
0.3937007874015748
 73
     0
 78
     4
 79
     1
140
0.1200000047683716
143
0.03937
144
25.4
147
0.031496062992126
170
     1
171
     3
176
   256
177
   256
178
   256
179
     1
271
     2
272
     2
274
     3
284
     4
285
     4
286
     4
340
D6
371
    -1
372
    -1
  0
DIMSTYLE
105
F6
102
{ACAD_REACTORS
330
527
330
611
330
6F0
330
7AA
102
}
330
A
100
AcDbSymbolTableRecord
100
AcDbDimStyleTableRecord
  2
Default (ANSI)
 70
     0
 40
2.0
 41
0.0984251946210861
 43
0.2362204724409449
 44
0.125
 45
0.00000001
 46
0.3937007874015748
 79
     1
140
0.1200000047683716
147
0.031496062992126
171
     1
176
   256
177
   256
178
   256
271
     3
272
     2
274
     1
284
     4
285
     4
340
D6
371
    -1
372
    -1
  0
DIMSTYLE
105
F7
330
A
100
AcDbSymbolTableRecord
100
AcDbDimStyleTableRecord
  2
Default (ANSI)$7
 70
     0
 40
2.0
 41
0.0984251946210861
 43
0.2362204724409449
 44
0.125
 45
0.00000001
 46
0.3937007874015748
 79
     1
140
0.1200000047683716
147
0.031496062992126
171
     1
176
   256
177
   256
178
   256
271
     3
272
     2
274
     1
284
     4
285
     4
340
D6
371
    -1
372
    -1
  0
DIMSTYLE
105
F8
102
{ACAD_REACTORS
330
143
330
22F
330
319
330
429
102
}
330
A
100
AcDbSymbolTableRecord
100
AcDbDimStyleTableRecord
  2
Default (ANSI)-01
 70
     0
 40
2.0
 41
0.0984251946210861
 43
0.2362204724409449
 44
0.125
 45
0.00000001
 46
0.3937007874015748
 79
     1
140
0.1200000047683716
147
0.031496062992126
171
     1
176
   256
177
   256
178
   256
271
     2
272
     2
274
     1
284
     4
285
     4
340
D6
371
    -1
372
    -1
  0
DIMSTYLE
105
F9
330
A
100
AcDbSymbolTableRecord
100
AcDbDimStyleTableRecord
  2
Default (ANSI)-01$7
 70
     0
 40
2.0
 41
0.0984251946210861
 43
0.2362204724409449
 44
0.125
 45
0.00000001
 46
0.3937007874015748
 79
     1
140
0.1200000047683716
147
0.031496062992126
171
     1
176
   256
177
   256
178
   256
271
     2
272
     2
274
     1
284
     4
285
     4
340
D6
371
    -1
372
    -1
  0
DIMSTYLE
105
FA
330
A
100
AcDbSymbolTableRecord
100
AcDbDimStyleTableRecord
  2
Alternate (ANSI)
 70
     0
 40
2.0
 41
0.0979999974370003
340
55
342
FB
  0
DIMSTYLE
105
10D
330
A
100
AcDbSymbolTableRecord
100
AcDbDimStyleTableRecord
  2
Datum (ANSI)
 70
     0
 40
2.0
 41
0.0979999974370003
340
55
342
FB
  0
DIMSTYLE
105
11C
330
A
100
AcDbSymbolTableRecord
100
AcDbDimStyleTableRecord
  2
Large (ANSI)
 70
     0
 40
2.0
 41
0.1959999948740005
340
55
342
FB
  0
ENDTAB
  0
TABLE
  2
BLOCK_RECORD
  5
1
330
0
100
AcDbSymbolTable
 70
    12
  0
BLOCK_RECORD
  5
6C
330
1
100
AcDbSymbolTableRecord
100
AcDbBlockTableRecord
  2
*Model_Space
340
6F
  0
BLOCK_RECORD
  5
68
330
1
100
AcDbSymbolTableRecord
100
AcDbBlockTableRecord
  2
*Paper_Space
340
6B
  0
BLOCK_RECORD
  5
70
330
1
100
AcDbSymbolTableRecord
100
AcDbBlockTableRecord
  2
*Paper_Space0
340
73
  0
BLOCK_RECORD
  5
FB
330
1
100
AcDbSymbolTableRecord
100
AcDbBlockTableRecord
  2
_Closed
340
0
  0
BLOCK_RECORD
  5
102
330
1
100
AcDbSymbolTableRecord
100
AcDbBlockTableRecord
  2
DatumFilled45
340
0
  0
BLOCK_RECORD
  5
10E
330
1
100
AcDbSymbolTableRecord
100
AcDbBlockTableRecord
  2
Filled-1
340
0
  0
BLOCK_RECORD
  5
146
330
1
100
AcDbSymbolTableRecord
100
AcDbBlockTableRecord
  2
*D4
340
0
  0
BLOCK_RECORD
  5
230
330
1
100
AcDbSymbolTableRecord
100
AcDbBlockTableRecord
  2
*D5
340
0
  0
BLOCK_RECORD
  5
31A
330
1
100
AcDbSymbolTableRecord
100
AcDbBlockTableRecord
  2
*D6
340
0
  0
BLOCK_RECORD
  5
42A
330
1
100
AcDbSymbolTableRecord
100
AcDbBlockTableRecord
  2
*D7
340
0
  0
BLOCK_RECORD
  5
528
330
1
100
AcDbSymbolTableRecord
100
AcDbBlockTableRecord
  2
*D8
340
0
  0
BLOCK_RECORD
  5
612
330
1
100
AcDbSymbolTableRecord
100
AcDbBlockTableRecord
  2
*D9
340
0
  0
BLOCK_RECORD
  5
6F1
330
1
100
AcDbSymbolTableRecord
100
AcDbBlockTableRecord
  2
*D10
340
0
  0
BLOCK_RECORD
  5
7AB
330
1
100
AcDbSymbolTableRecord
100
AcDbBlockTableRecord
  2
*D11
340
0
  0
ENDTAB
  0
ENDSEC
  0
SECTION
  2
BLOCKS
  0
BLOCK
  5
6D
330
6C
100
AcDbEntity
  8
0
100
AcDbBlockBegin
  2
*Model_Space
 70
     0
 10
0.0
 20
0.0
 30
0.0
  3
*Model_Space
  1

  0
ENDBLK
  5
6E
330
6C
100
AcDbEntity
  8
0
100
AcDbBlockEnd
  0
BLOCK
  5
69
330
68
100
AcDbEntity
 67
     1
  8
0
100
AcDbBlockBegin
  2
*Paper_Space
 70
     0
 10
0.0
 20
0.0
 30
0.0
  3
*Paper_Space
  1

  0
ENDBLK
  5
6A
330
68
100
AcDbEntity
 67
     1
  8
0
100
AcDbBlockEnd
  0
BLOCK
  5
71
330
70
100
AcDbEntity
 67
     1
  8
0
100
AcDbBlockBegin
  2
*Paper_Space0
 70
     0
 10
0.0
 20
0.0
 30
0.0
  3
*Paper_Space0
  1

  0
ENDBLK
  5
72
330
70
100
AcDbEntity
 67
     1
  8
0
100
AcDbBlockEnd
  0
BLOCK
  5
100
330
FB
100
AcDbEntity
  8
0
100
AcDbBlockBegin
  2
_Closed
 70
     0
 10
0.0
 20
0.0
 30
0.0
  3
_Closed
  1

  0
LINE
  5
FC
330
FB
100
AcDbEntity
  8
0
  6
ByBlock
 62
     0
370
    -2
100
AcDbLine
 10
-1.0
 20
0.1666666666666666
 30
0.0
 11
0.0
 21
0.0
 31
0.0
  0
LINE
  5
FD
330
FB
100
AcDbEntity
  8
0
  6
ByBlock
 62
     0
370
    -2
100
AcDbLine
 10
0.0
 20
0.0
 30
0.0
 11
-1.0
 21
-0.1666666666666666
 31
0.0
  0
LINE
  5
FE
330
FB
100
AcDbEntity
  8
0
  6
ByBlock
 62
     0
370
    -2
100
AcDbLine
 10
-1.0
 20
0.1666666666666666
 30
0.0
 11
-1.0
 21
-0.1666666666666666
 31
0.0
  0
LINE
  5
FF
330
FB
100
AcDbEntity
  8
0
  6
ByBlock
 62
     0
370
    -2
100
AcDbLine
 10
0.0
 20
0.0
 30
0.0
 11
-1.0
 21
0.0
 31
0.0
  0
ENDBLK
  5
101
330
FB
100
AcDbEntity
  8
0
100
AcDbBlockEnd
  0
BLOCK
  5
103
330
102
100
AcDbEntity
  8
0
100
AcDbBlockBegin
  2
DatumFilled45
 70
     0
 10
0.0
 20
0.0
 30
0.0
  3
DatumFilled45
  1

  0
POLYLINE
  5
105
330
102
100
AcDbEntity
  8
0
 62
     0
100
AcDb2dPolyline
 66
     1
 10
0.0
 20
0.0
 30
0.0
 70
   128
  0
VERTEX
  5
106
330
105
100
AcDbEntity
  8
0
 62
     0
100
AcDbVertex
100
AcDb2dVertex
 10
0.0
 20
0.9999999999999998
 30
0.0
  0
VERTEX
  5
107
330
105
100
AcDbEntity
  8
0
 62
     0
100
AcDbVertex
100
AcDb2dVertex
 10
0.0
 20
-0.9999999999999998
 30
0.0
  0
VERTEX
  5
109
330
105
100
AcDbEntity
  8
0
 62
     0
100
AcDbVertex
100
AcDb2dVertex
 10
-0.9999999999999998
 20
0.0
 30
0.0
  0
VERTEX
  5
10A
330
105
100
AcDbEntity
  8
0
 62
     0
100
AcDbVertex
100
AcDb2dVertex
 10
0.0
 20
0.9999999999999998
 30
0.0
  0
SEQEND
  5
108
330
105
100
AcDbEntity
  8
0
 62
     0
  0
SOLID
  5
10C
330
102
100
AcDbEntity
  8
0
 62
     0
100
AcDbTrace
 10
0.0
 20
0.9999999999999998
 30
0.0
 11
0.0
 21
-0.9999999999999998
 31
0.0
 12
-0.9999999999999998
 22
0.0
 32
0.0
 13
0.0
 23
0.9999999999999998
 33
0.0
  0
ENDBLK
  5
104
330
102
100
AcDbEntity
  8
0
100
AcDbBlockEnd
  0
BLOCK
  5
10F
330
10E
100
AcDbEntity
  8
0
100
AcDbBlockBegin
  2
Filled-1
 70
     0
 10
0.0
 20
0.0
 30
0.0
  3
Filled-1
  1

  0
LINE
  5
111
330
10E
100
AcDbEntity
  8
0
 62
     0
100
AcDbLine
 10
-0.9999999999999998
 20
0.0
 30
0.0
 11
0.0
 21
0.0
 31
0.0
  0
POLYLINE
  5
112
330
10E
100
AcDbEntity
  8
0
 62
     0
100
AcDb2dPolyline
 66
     1
 10
0.0
 20
0.0
 30
0.0
 70
   128
  0
VERTEX
  5
113
330
112
100
AcDbEntity
  8
0
 62
     0
100
AcDbVertex
100
AcDb2dVertex
 10
-0.9999999999999998
 20
-0.0994897959183674
 30
0.0
  0
VERTEX
  5
114
330
112
100
AcDbEntity
  8
0
 62
     0
100
AcDbVertex
100
AcDb2dVertex
 10
0.0
 20
0.0
 30
0.0
  0
VERTEX
  5
116
330
112
100
AcDbEntity
  8
0
 62
     0
100
AcDbVertex
100
AcDb2dVertex
 10
-0.9999999999999998
 20
0.0994897959183674
 30
0.0
  0
VERTEX
  5
117
330
112
100
AcDbEntity
  8
0
 62
     0
100
AcDbVertex
100
AcDb2dVertex
 10
-0.9999999999999998
 20
-0.0994897959183674
 30
0.0
  0
SEQEND
  5
115
330
112
100
AcDbEntity
  8
0
 62
     0
  0
SOLID
  5
118
330
10E
100
AcDbEntity
  8
0
 62
     0
100
AcDbTrace
 10
-0.9999999999999998
 20
-0.0994897959183674
 30
0.0
 11
0.0
 21
0.0
 31
0.0
 12
-0.9999999999999998
 22
0.0994897959183674
 32
0.0
 13
-0.9999999999999998
 23
-0.0994897959183674
 33
0.0
  0
LINE
  5
119
330
10E
100
AcDbEntity
  8
0
 62
     0
100
AcDbLine
 10
-0.9999999999999998
 20
-0.0994897959183674
 30
0.0
 11
0.0
 21
0.0
 31
0.0
  0
LINE
  5
11A
330
10E
100
AcDbEntity
  8
0
 62
     0
100
AcDbLine
 10
0.0
 20
0.0
 30
0.0
 11
-0.9999999999999998
 21
0.0994897959183674
 31
0.0
  0
LINE
  5
11B
330
10E
100
AcDbEntity
  8
0
 62
     0
100
AcDbLine
 10
-0.9999999999999998
 20
0.0994897959183674
 30
0.0
 11
-0.9999999999999998
 21
-0.0994897959183674
 31
0.0
  0
ENDBLK
  5
110
330
10E
100
AcDbEntity
  8
0
100
AcDbBlockEnd
  0
BLOCK
  5
147
330
146
100
AcDbEntity
  8
0
100
AcDbBlockBegin
  2
*D4
 70
     1
 10
0.0
 20
0.0
 30
0.0
  3
*D4
  1

  0
LINE
  5
225
330
146
100
AcDbEntity
  8
Dimension (ANSI)
100
AcDbLine
 10
14.43652464592519
 20
7.314777921639437
 30
0.0
 11
14.43652464592519
 21
4.512612567308729
 31
0.0
  0
LINE
  5
226
330
146
100
AcDbEntity
  8
Dimension (ANSI)
100
AcDbLine
 10
5.556524645925198
 20
7.314777921639437
 30
0.0
 11
5.556524645925198
 21
4.512612567308729
 31
0.0
  0
LINE
  5
227
330
146
100
AcDbEntity
  8
Dimension (ANSI)
100
AcDbLine
 10
14.23967425668302
 20
4.762612567308729
 30
0.0
 11
10.21370344091876
 21
4.762612567308729
 31
0.0
  0
LINE
  5
228
330
146
100
AcDbEntity
  8
Dimension (ANSI)
100
AcDbLine
 10
5.75337503516737
 20
4.762612567308729
 30
0.0
 11
9.47103682730648
 21
4.762612567308729
 31
0.0
  0
SOLID
  5
229
330
146
100
AcDbEntity
  8
Dimension (ANSI)
100
AcDbTrace
 10
14.23967425668302
 20
4.795420965515758
 30
0.0
 11
14.23967425668302
 21
4.729804169101701
 31
0.0
 12
14.43652464592519
 22
4.762612567308729
 32
0.0
 13
14.43652464592519
 23
4.762612567308729
 33
0.0
  0
SOLID
  5
22A
330
146
100
AcDbEntity
  8
Dimension (ANSI)
100
AcDbTrace
 10
5.75337503516737
 20
4.795420965515758
 30
0.0
 11
5.75337503516737
 21
4.729804169101701
 31
0.0
 12
5.556524645925198
 22
4.762612567308729
 32
0.0
 13
5.556524645925198
 23
4.762612567308729
 33
0.0
  0
MTEXT
  5
22B
330
146
100
AcDbEntity
  8
Dimension (ANSI)
100
AcDbMText
 10
9.534028953290732
 20
4.888092760340532
 30
0.0
 40
0.2400000095367432
 41
0.0
 71
     1
 72
     1
  1
\A1;8.88
  7
Note Text (ANSI)
 73
     1
 44
1.0
1001
ACAD
1000
MTEXTBEGIN
1070
    73
1070
     1
1070
    44
1040
1.0
1070
    74
1070
     0
1000
MTEXTEND
  0
POINT
  5
22C
330
146
100
AcDbEntity
  8
Defpoints
 62
     0
100
AcDbPoint
 10
14.43652464592519
 20
7.439777921639437
 30
0.0
  0
POINT
  5
22D
330
146
100
AcDbEntity
  8
Defpoints
 62
     0
100
AcDbPoint
 10
5.556524645925198
 20
7.439777921639437
 30
0.0
  0
POINT
  5
22E
330
146
100
AcDbEntity
  8
Defpoints
 62
     0
100
AcDbPoint
 10
5.556524645925198
 20
4.762612567308729
 30
0.0
  0
ENDBLK
  5
148
330
146
100
AcDbEntity
  8
0
100
AcDbBlockEnd
  0
BLOCK
  5
231
330
230
100
AcDbEntity
  8
0
100
AcDbBlockBegin
  2
*D5
 70
     1
 10
0.0
 20
0.0
 30
0.0
  3
*D5
  1

  0
LINE
  5
30F
330
230
100
AcDbEntity
  8
Dimension (ANSI)
100
AcDbLine
 10
5.431524645925198
 20
7.439777921639437
 30
0.0
 11
3.783996077177596
 21
7.439777921639437
 31
0.0
  0
LINE
  5
310
330
230
100
AcDbEntity
  8
Dimension (ANSI)
100
AcDbLine
 10
5.431524645925195
 20
18.31977792163944
 30
0.0
 11
3.783996077177598
 21
18.31977792163944
 31
0.0
  0
LINE
  5
311
330
230
100
AcDbEntity
  8
Dimension (ANSI)
100
AcDbLine
 10
4.033996077177596
 20
7.63662831088161
 30
0.0
 11
4.033996077177596
 21
12.69130560262338
 31
0.0
  0
LINE
  5
312
330
230
100
AcDbEntity
  8
Dimension (ANSI)
100
AcDbLine
 10
4.033996077177598
 20
18.12292753239727
 30
0.0
 11
4.033996077177596
 21
13.06825024065549
 31
0.0
  0
SOLID
  5
313
330
230
100
AcDbEntity
  8
Dimension (ANSI)
100
AcDbTrace
 10
4.001187678970567
 20
7.63662831088161
 30
0.0
 11
4.066804475384624
 21
7.63662831088161
 31
0.0
 12
4.033996077177596
 22
7.439777921639437
 32
0.0
 13
4.033996077177596
 23
7.439777921639437
 33
0.0
  0
SOLID
  5
314
330
230
100
AcDbEntity
  8
Dimension (ANSI)
100
AcDbTrace
 10
4.00118767897057
 20
18.12292753239727
 30
0.0
 11
4.066804475384627
 21
18.12292753239727
 31
0.0
 12
4.033996077177598
 22
18.31977792163944
 32
0.0
 13
4.033996077177598
 23
18.31977792163944
 33
0.0
  0
MTEXT
  5
315
330
230
100
AcDbEntity
  8
Dimension (ANSI)
100
AcDbMText
 10
3.647803986613433
 20
13.00525811467124
 30
0.0
 40
0.2400000095367432
 41
0.0
 71
     1
 72
     1
  1
\A1;10.88
  7
Note Text (ANSI)
 73
     1
 44
1.0
1001
ACAD
1000
MTEXTBEGIN
1070
    73
1070
     1
1070
    44
1040
1.0
1070
    74
1070
     0
1000
MTEXTEND
  0
POINT
  5
316
330
230
100
AcDbEntity
  8
Defpoints
 62
     0
100
AcDbPoint
 10
5.556524645925198
 20
7.439777921639437
 30
0.0
  0
POINT
  5
317
330
230
100
AcDbEntity
  8
Defpoints
 62
     0
100
AcDbPoint
 10
5.556524645925195
 20
18.31977792163944
 30
0.0
  0
POINT
  5
318
330
230
100
AcDbEntity
  8
Defpoints
 62
     0
100
AcDbPoint
 10
4.033996077177598
 20
18.31977792163944
 30
0.0
  0
ENDBLK
  5
232
330
230
100
AcDbEntity
  8
0
100
AcDbBlockEnd
  0
BLOCK
  5
31B
330
31A
100
AcDbEntity
  8
0
100
AcDbBlockBegin
  2
*D6
 70
     1
 10
0.0
 20
0.0
 30
0.0
  3
*D6
  1

  0
LINE
  5
41E
330
31A
100
AcDbEntity
  8
Dimension (ANSI)
100
AcDbLine
 10
5.431524645925198
 20
7.439777921639437
 30
0.0
 11
5.096010595588753
 21
7.439777921639437
 31
0.0
  0
LINE
  5
41F
330
31A
100
AcDbEntity
  8
Dimension (ANSI)
100
AcDbLine
 10
5.604024645925198
 20
7.752777921639437
 30
0.0
 11
5.096010595588753
 21
7.752777921639437
 31
0.0
  0
LINE
  5
420
330
31A
100
AcDbEntity
  8
Dimension (ANSI)
100
AcDbLine
 10
5.346010595588753
 20
7.949628310881609
 30
0.0
 11
5.346010595588753
 21
8.146478700123781
 31
0.0
  0
LINE
  5
421
330
31A
100
AcDbEntity
  8
Dimension (ANSI)
100
AcDbLine
 10
5.346010595588753
 20
7.242927532397265
 30
0.0
 11
5.346010595588753
 21
6.702355257062731
 31
0.0
  0
LINE
  5
422
330
31A
100
AcDbEntity
  8
Dimension (ANSI)
100
AcDbLine
 10
5.346010595588753
 20
6.702355257062731
 30
0.0
 11
5.14916020634658
 21
6.702355257062731
 31
0.0
  0
SOLID
  5
423
330
31A
100
AcDbEntity
  8
Dimension (ANSI)
100
AcDbTrace
 10
5.313202197381724
 20
7.949628310881609
 30
0.0
 11
5.378818993795781
 21
7.949628310881609
 31
0.0
 12
5.346010595588753
 22
7.752777921639437
 32
0.0
 13
5.346010595588753
 23
7.752777921639437
 33
0.0
  0
SOLID
  5
424
330
31A
100
AcDbEntity
  8
Dimension (ANSI)
100
AcDbTrace
 10
5.313202197381724
 20
7.242927532397265
 30
0.0
 11
5.378818993795781
 21
7.242927532397265
 31
0.0
 12
5.346010595588753
 22
7.439777921639437
 32
0.0
 13
5.346010595588753
 23
7.439777921639437
 33
0.0
  0
MTEXT
  5
425
330
31A
100
AcDbEntity
  8
Dimension (ANSI)
100
AcDbMText
 10
4.769123071122049
 20
6.702355257062732
 30
0.0
 40
0.2400000095367432
 41
0.0
 71
     5
 72
     1
  1
\A1;0.31{\PTYP.}
  7
Note Text (ANSI)
 73
     1
 44
1.0
1001
ACAD
1000
MTEXTBEGIN
1070
    73
1070
     1
1070
    44
1040
1.0
1070
    74
1070
     0
1000
MTEXTEND
  0
POINT
  5
426
330
31A
100
AcDbEntity
  8
Defpoints
 62
     0
100
AcDbPoint
 10
5.556524645925198
 20
7.439777921639437
 30
0.0
  0
POINT
  5
427
330
31A
100
AcDbEntity
  8
Defpoints
 62
     0
100
AcDbPoint
 10
5.729024645925198
 20
7.752777921639437
 30
0.0
  0
POINT
  5
428
330
31A
100
AcDbEntity
  8
Defpoints
 62
     0
100
AcDbPoint
 10
5.346010595588753
 20
7.752777921639437
 30
0.0
  0
ENDBLK
  5
31C
330
31A
100
AcDbEntity
  8
0
100
AcDbBlockEnd
  0
BLOCK
  5
42B
330
42A
100
AcDbEntity
  8
0
100
AcDbBlockBegin
  2
*D7
 70
     1
 10
0.0
 20
0.0
 30
0.0
  3
*D7
  1

  0
LINE
  5
51D
330
42A
100
AcDbEntity
  8
Dimension (ANSI)
100
AcDbLine
 10
5.556524645925198
 20
7.314777921639437
 30
0.0
 11
5.556524645925198
 21
5.513238290490552
 31
0.0
  0
LINE
  5
51E
330
42A
100
AcDbEntity
  8
Dimension (ANSI)
100
AcDbLine
 10
5.869524645925198
 20
7.518777921639437
 30
0.0
 11
5.869524645925198
 21
5.513238290490552
 31
0.0
  0
LINE
  5
51F
330
42A
100
AcDbEntity
  8
Dimension (ANSI)
100
AcDbLine
 10
6.066375035167371
 20
5.763238290490552
 30
0.0
 11
6.263225424409543
 21
5.763238290490552
 31
0.0
  0
LINE
  5
520
330
42A
100
AcDbEntity
  8
Dimension (ANSI)
100
AcDbLine
 10
5.359674256683025
 20
5.763238290490552
 30
0.0
 11
5.162823867440853
 21
5.763238290490552
 31
0.0
  0
SOLID
  5
521
330
42A
100
AcDbEntity
  8
Dimension (ANSI)
100
AcDbTrace
 10
6.066375035167371
 20
5.796046688697581
 30
0.0
 11
6.066375035167371
 21
5.730429892283524
 31
0.0
 12
5.869524645925198
 22
5.763238290490552
 32
0.0
 13
5.869524645925198
 23
5.763238290490552
 33
0.0
  0
SOLID
  5
522
330
42A
100
AcDbEntity
  8
Dimension (ANSI)
100
AcDbTrace
 10
5.359674256683025
 20
5.796046688697581
 30
0.0
 11
5.359674256683025
 21
5.730429892283524
 31
0.0
 12
5.556524645925198
 22
5.763238290490552
 32
0.0
 13
5.556524645925198
 23
5.763238290490552
 33
0.0
  0
MTEXT
  5
523
330
42A
100
AcDbEntity
  8
Dimension (ANSI)
100
AcDbMText
 10
4.782786732216323
 20
5.763238290490552
 30
0.0
 40
0.2400000095367432
 41
0.0
 71
     5
 72
     1
  1
\A1;0.31{\PTYP.}
  7
Note Text (ANSI)
 73
     1
 44
1.0
1001
ACAD
1000
MTEXTBEGIN
1070
    73
1070
     1
1070
    44
1040
1.0
1070
    74
1070
     0
1000
MTEXTEND
  0
POINT
  5
524
330
42A
100
AcDbEntity
  8
Defpoints
 62
     0
100
AcDbPoint
 10
5.556524645925198
 20
7.439777921639437
 30
0.0
  0
POINT
  5
525
330
42A
100
AcDbEntity
  8
Defpoints
 62
     0
100
AcDbPoint
 10
5.869524645925198
 20
7.643777921639437
 30
0.0
  0
POINT
  5
526
330
42A
100
AcDbEntity
  8
Defpoints
 62
     0
100
AcDbPoint
 10
5.869524645925198
 20
5.763238290490552
 30
0.0
  0
ENDBLK
  5
42C
330
42A
100
AcDbEntity
  8
0
100
AcDbBlockEnd
  0
BLOCK
  5
529
330
528
100
AcDbEntity
  8
0
100
AcDbBlockBegin
  2
*D8
 70
     1
 10
0.0
 20
0.0
 30
0.0
  3
*D8
  1

  0
LINE
  5
607
330
528
100
AcDbEntity
  8
Dimension (ANSI)
100
AcDbLine
 10
5.869524645925198
 20
7.518777921639437
 30
0.0
 11
5.869524645925198
 21
5.513238290490552
 31
0.0
  0
LINE
  5
608
330
528
100
AcDbEntity
  8
Dimension (ANSI)
100
AcDbLine
 10
6.869524645925198
 20
7.502777921639437
 30
0.0
 11
6.869524645925198
 21
5.513238290490552
 31
0.0
  0
LINE
  5
609
330
528
100
AcDbEntity
  8
Dimension (ANSI)
100
AcDbLine
 10
6.066375035167371
 20
5.763238290490552
 30
0.0
 11
6.672674256683026
 21
5.763238290490552
 31
0.0
  0
LINE
  5
60A
330
528
100
AcDbEntity
  8
Dimension (ANSI)
100
AcDbLine
 10
6.869524645925198
 20
5.763238290490552
 30
0.0
 11
7.225309546742663
 21
5.763238290490552
 31
0.0
  0
SOLID
  5
60B
330
528
100
AcDbEntity
  8
Dimension (ANSI)
100
AcDbTrace
 10
6.066375035167371
 20
5.796046688697581
 30
0.0
 11
6.066375035167371
 21
5.730429892283524
 31
0.0
 12
5.869524645925198
 22
5.763238290490552
 32
0.0
 13
5.869524645925198
 23
5.763238290490552
 33
0.0
  0
SOLID
  5
60C
330
528
100
AcDbEntity
  8
Dimension (ANSI)
100
AcDbTrace
 10
6.672674256683026
 20
5.796046688697581
 30
0.0
 11
6.672674256683026
 21
5.730429892283524
 31
0.0
 12
6.869524645925198
 22
5.763238290490552
 32
0.0
 13
6.869524645925198
 23
5.763238290490552
 33
0.0
  0
MTEXT
  5
60D
330
528
100
AcDbEntity
  8
Dimension (ANSI)
100
AcDbMText
 10
7.288301672726915
 20
5.888154346495237
 30
0.0
 40
0.2400000095367432
 41
0.0
 71
     1
 72
     1
  1
\A1;1.000
  7
Note Text (ANSI)
 73
     1
 44
1.0
1001
ACAD
1000
MTEXTBEGIN
1070
    73
1070
     1
1070
    44
1040
1.0
1070
    74
1070
     0
1000
MTEXTEND
  0
POINT
  5
60E
330
528
100
AcDbEntity
  8
Defpoints
 62
     0
100
AcDbPoint
 10
5.869524645925198
 20
7.643777921639437
 30
0.0
  0
POINT
  5
60F
330
528
100
AcDbEntity
  8
Defpoints
 62
     0
100
AcDbPoint
 10
6.869524645925198
 20
7.627777921639437
 30
0.0
  0
POINT
  5
610
330
528
100
AcDbEntity
  8
Defpoints
 62
     0
100
AcDbPoint
 10
6.869524645925198
 20
5.763238290490552
 30
0.0
  0
ENDBLK
  5
52A
330
528
100
AcDbEntity
  8
0
100
AcDbBlockEnd
  0
BLOCK
  5
613
330
612
100
AcDbEntity
  8
0
100
AcDbBlockBegin
  2
*D9
 70
     1
 10
0.0
 20
0.0
 30
0.0
  3
*D9
  1

  0
LINE
  5
6E8
330
612
100
AcDbEntity
  8
Dimension (ANSI)
100
AcDbLine
 10
19.47766272807812
 20
13.42402989014337
 30
0.0
 11
19.28081233883595
 21
13.42402989014337
 31
0.0
  0
LINE
  5
6E9
330
612
100
AcDbEntity
  8
Dimension (ANSI)
100
AcDbLine
 10
19.94536350656246
 20
13.42402989014337
 30
0.0
 11
20.4321342446438
 21
13.42402989014337
 31
0.0
  0
SOLID
  5
6EA
330
612
100
AcDbEntity
  8
Dimension (ANSI)
100
AcDbTrace
 10
19.47766272807812
 20
13.4568382883504
 30
0.0
 11
19.47766272807812
 21
13.39122149193634
 31
0.0
 12
19.67451311732029
 22
13.42402989014337
 32
0.0
 13
19.67451311732029
 23
13.42402989014337
 33
0.0
  0
SOLID
  5
6EB
330
612
100
AcDbEntity
  8
Dimension (ANSI)
100
AcDbTrace
 10
19.94536350656246
 20
13.4568382883504
 30
0.0
 11
19.94536350656246
 21
13.39122149193634
 31
0.0
 12
19.74851311732029
 22
13.42402989014337
 32
0.0
 13
19.74851311732029
 23
13.42402989014337
 33
0.0
  0
MTEXT
  5
6EC
330
612
100
AcDbEntity
  8
Dimension (ANSI)
100
AcDbMText
 10
20.49512637062806
 20
13.54854299112869
 30
0.0
 40
0.2400000095367432
 41
0.0
 71
     1
 72
     1
  1
\A1; 14 GA.
  7
Note Text (ANSI)
 73
     1
 44
1.0
1001
ACAD
1000
MTEXTBEGIN
1070
    73
1070
     1
1070
    44
1040
1.0
1070
    74
1070
     0
1000
MTEXTEND
  0
POINT
  5
6ED
330
612
100
AcDbEntity
  8
Defpoints
 62
     0
100
AcDbPoint
 10
20.01644574074252
 20
7.439777921639437
 30
0.0
  0
POINT
  5
6EE
330
612
100
AcDbEntity
  8
Defpoints
 62
     0
100
AcDbPoint
 10
19.94244574074252
 20
7.439777921639437
 30
0.0
  0
POINT
  5
6EF
330
612
100
AcDbEntity
  8
Defpoints
 62
     0
100
AcDbPoint
 10
19.67451311732029
 20
13.42402989014337
 30
0.0
  0
ENDBLK
  5
614
330
612
100
AcDbEntity
  8
0
100
AcDbBlockEnd
  0
BLOCK
  5
6F2
330
6F1
100
AcDbEntity
  8
0
100
AcDbBlockBegin
  2
*D10
 70
     1
 10
0.0
 20
0.0
 30
0.0
  3
*D10
  1

  0
LINE
  5
7A2
330
6F1
100
AcDbEntity
  8
Dimension (ANSI)
100
AcDbLine
 10
8.404818012370451
 20
7.00880102962926
 30
0.0
 11
8.15813042254431
 21
7.00880102962926
 31
0.0
  0
LINE
  5
7A3
330
6F1
100
AcDbEntity
  8
Dimension (ANSI)
100
AcDbLine
 10
8.15813042254431
 20
7.00880102962926
 30
0.0
 11
7.148255259226846
 21
7.591852727018379
 31
0.0
  0
MTEXT
  5
7A4
102
{ACAD_XDICTIONARY
360
8C9
102
}
330
6F1
100
AcDbEntity
  8
Dimension (ANSI)
100
AcDbMText
 10
8.467810138354705
 20
7.187104148422471
 30
0.0
 40
0.2400000095367432
 41
0.0
 71
     1
 72
     1
  1
\A1;\U+22050.250{\PGROUND\P HOLE}
  7
Note Text (ANSI)
 73
     1
 44
1.0
1001
ACAD
1000
MTEXTBEGIN
1070
    73
1070
     1
1070
    44
1040
1.0
1070
    74
1070
     0
1000
MTEXTEND
  0
SOLID
  5
7A5
330
6F1
100
AcDbEntity
  8
Dimension (ANSI)
100
AcDbTrace
 10
7.164659458330357
 20
7.620265633323143
 30
0.0
 11
7.131851060123334
 21
7.563439820713614
 31
0.0
 12
6.97777782139826
 22
7.690277921639448
 32
0.0
 13
6.97777782139826
 23
7.690277921639448
 33
0.0
  0
LINE
  5
7A6
330
6F1
100
AcDbEntity
  8
Dimension (ANSI)
100
AcDbLine
 10
6.689524645925198
 20
7.752777921639437
 30
0.0
 11
7.049524645925197
 21
7.752777921639438
 31
0.0
  0
LINE
  5
7A7
330
6F1
100
AcDbEntity
  8
Dimension (ANSI)
100
AcDbLine
 10
6.869524645925197
 20
7.572777921639438
 30
0.0
 11
6.869524645925197
 21
7.932777921639438
 31
0.0
  0
POINT
  5
7A8
330
6F1
100
AcDbEntity
  8
Defpoints
 62
     0
100
AcDbPoint
 10
6.97777782139826
 20
7.690277921639448
 30
0.0
  0
POINT
  5
7A9
330
6F1
100
AcDbEntity
  8
Defpoints
 62
     0
100
AcDbPoint
 10
6.761271470452136
 20
7.815277921639427
 30
0.0
  0
ENDBLK
  5
6F3
330
6F1
100
AcDbEntity
  8
0
100
AcDbBlockEnd
  0
BLOCK
  5
7AC
330
7AB
100
AcDbEntity
  8
0
100
AcDbBlockBegin
  2
*D11
 70
     1
 10
0.0
 20
0.0
 30
0.0
  3
*D11
  1

  0
LINE
  5
847
330
7AB
100
AcDbEntity
  8
Dimension (ANSI)
100
AcDbLine
 10
14.84352162053425
 20
8.598587514425439
 30
0.0
 11
14.64599719542071
 21
8.598587514425437
 31
0.0
  0
LINE
  5
848
330
7AB
100
AcDbEntity
  8
Dimension (ANSI)
100
AcDbLine
 10
14.64599719542071
 20
8.598587514425437
 30
0.0
 11
14.30856961352944
 21
8.017293334277336
 31
0.0
  0
MTEXT
  5
849
330
7AB
100
AcDbEntity
  8
Dimension (ANSI)
100
AcDbMText
 10
14.90651374651849
 20
8.786534690015571
 30
0.0
 40
0.2400000095367432
 41
0.0
 71
     1
 72
     1
  1
\A1; 0.218 X 0.281\POBROUND\PTYP. (4 PL.)
  7
Note Text (ANSI)
 73
     1
 44
1.0
1001
ACAD
1000
MTEXTBEGIN
1070
    73
1070
     1
1070
    44
1040
1.0
1070
    74
1070
     0
1000
MTEXTEND
  0
SOLID
  5
84A
330
7AB
100
AcDbEntity
  8
Dimension (ANSI)
100
AcDbTrace
 10
14.28019519487585
 20
8.033764016078094
 30
0.0
 11
14.33694403218303
 21
8.000822652476578
 31
0.0
 12
14.2097455227249
 22
7.847046822355798
 32
0.0
 13
14.2097455227249
 23
7.847046822355798
 33
0.0
  0
POINT
  5
84B
330
7AB
100
AcDbEntity
  8
Defpoints
 62
     0
100
AcDbPoint
 10
14.2097455227249
 20
7.847046822355798
 30
0.0
  0
POINT
  5
84C
330
7AB
100
AcDbEntity
  8
Defpoints
 62
     0
100
AcDbPoint
 10
14.15502464592519
 20
7.752777921639438
 30
0.0
  0
ENDBLK
  5
7AD
330
7AB
100
AcDbEntity
  8
0
100
AcDbBlockEnd
  0
ENDSEC
  0
SECTION
  2
ENTITIES
  0
CIRCLE
  5
11D
330
6C
100
AcDbEntity
  8
Visible (ANSI)
100
AcDbCircle
 10
6.869524645925198
 20
7.752777921639437
 30
0.0
 40
0.125
  0
LINE
  5
11E
330
6C
100
AcDbEntity
  8
Visible (ANSI)
100
AcDbLine
 10
5.838024645925198
 20
7.861777921639436
 30
0.0
 11
5.901024645925199
 21
7.861777921639436
 31
0.0
  0
ARC
  5
11F
330
6C
100
AcDbEntity
  8
Visible (ANSI)
100
AcDbCircle
 10
5.838024645925198
 20
7.752777921639437
 30
0.0
 40
0.109
100
AcDbArc
 50
90.0
 51
270.0
  0
LINE
  5
120
330
6C
100
AcDbEntity
  8
Visible (ANSI)
100
AcDbLine
 10
5.901024645925199
 20
7.643777921639437
 30
0.0
 11
5.838024645925198
 21
7.643777921639437
 31
0.0
  0
ARC
  5
121
330
6C
100
AcDbEntity
  8
Visible (ANSI)
100
AcDbCircle
 10
5.901024645925199
 20
7.752777921639437
 30
0.0
 40
0.1090000000000001
100
AcDbArc
 50
270.0
 51
90.0
  0
LINE
  5
122
330
6C
100
AcDbEntity
  8
Visible (ANSI)
100
AcDbLine
 10
14.09202464592519
 20
18.11577792163944
 30
0.0
 11
14.15502464592519
 21
18.11577792163944
 31
0.0
  0
ARC
  5
123
330
6C
100
AcDbEntity
  8
Visible (ANSI)
100
AcDbCircle
 10
14.09202464592519
 20
18.00677792163943
 30
0.0
 40
0.1089999999999997
100
AcDbArc
 50
90.0
 51
270.0
  0
LINE
  5
124
330
6C
100
AcDbEntity
  8
Visible (ANSI)
100
AcDbLine
 10
14.15502464592519
 20
17.89777792163944
 30
0.0
 11
14.09202464592519
 21
17.89777792163944
 31
0.0
  0
ARC
  5
125
330
6C
100
AcDbEntity
  8
Visible (ANSI)
100
AcDbCircle
 10
14.15502464592519
 20
18.00677792163943
 30
0.0
 40
0.1089999999999997
100
AcDbArc
 50
270.0
 51
90.0
  0
LINE
  5
126
330
6C
100
AcDbEntity
  8
Visible (ANSI)
100
AcDbLine
 10
14.0920246459252
 20
7.861777921639438
 30
0.0
 11
14.1550246459252
 21
7.861777921639438
 31
0.0
  0
ARC
  5
127
330
6C
100
AcDbEntity
  8
Visible (ANSI)
100
AcDbCircle
 10
14.0920246459252
 20
7.752777921639438
 30
0.0
 40
0.109
100
AcDbArc
 50
90.0
 51
270.0
  0
LINE
  5
128
330
6C
100
AcDbEntity
  8
Visible (ANSI)
100
AcDbLine
 10
14.1550246459252
 20
7.643777921639438
 30
0.0
 11
14.0920246459252
 21
7.643777921639438
 31
0.0
  0
ARC
  5
129
330
6C
100
AcDbEntity
  8
Visible (ANSI)
100
AcDbCircle
 10
14.1550246459252
 20
7.752777921639438
 30
0.0
 40
0.109
100
AcDbArc
 50
270.0
 51
90.0
  0
LINE
  5
12A
330
6C
100
AcDbEntity
  8
Visible (ANSI)
100
AcDbLine
 10
5.838024645925194
 20
18.11577792163944
 30
0.0
 11
5.901024645925195
 21
18.11577792163944
 31
0.0
  0
ARC
  5
12B
330
6C
100
AcDbEntity
  8
Visible (ANSI)
100
AcDbCircle
 10
5.838024645925194
 20
18.00677792163943
 30
0.0
 40
0.1089999999999997
100
AcDbArc
 50
90.00000000000033
 51
270.0000000000003
  0
LINE
  5
12C
330
6C
100
AcDbEntity
  8
Visible (ANSI)
100
AcDbLine
 10
5.901024645925195
 20
17.89777792163944
 30
0.0
 11
5.838024645925194
 21
17.89777792163944
 31
0.0
  0
ARC
  5
12D
330
6C
100
AcDbEntity
  8
Visible (ANSI)
100
AcDbCircle
 10
5.901024645925196
 20
18.00677792163943
 30
0.0
 40
0.1089999999999997
100
AcDbArc
 50
270.0000000000003
 51
90.0000000000003
  0
LINE
  5
12E
330
6C
100
AcDbEntity
  8
Visible (ANSI)
100
AcDbLine
 10
5.556524645925198
 20
7.439777921639437
 30
0.0
 11
5.556524645925195
 21
18.31977792163944
 31
0.0
  0
LINE
  5
12F
330
6C
100
AcDbEntity
  8
Visible (ANSI)
100
AcDbLine
 10
5.556524645925195
 20
18.31977792163944
 30
0.0
 11
14.43652464592519
 21
18.31977792163944
 31
0.0
  0
LINE
  5
130
330
6C
100
AcDbEntity
  8
Visible (ANSI)
100
AcDbLine
 10
14.43652464592519
 20
18.31977792163944
 30
0.0
 11
14.43652464592519
 21
7.439777921639437
 31
0.0
  0
LINE
  5
131
330
6C
100
AcDbEntity
  8
Visible (ANSI)
100
AcDbLine
 10
14.43652464592519
 20
7.439777921639437
 30
0.0
 11
5.556524645925198
 21
7.439777921639437
 31
0.0
  0
MTEXT
  5
133
330
6C
100
AcDbEntity
  8
Symbol (ANSI)
100
AcDbMText
 10
9.095293082315869
 20
3.730817836025944
 30
0.0
 40
0.2400000029661524
 41
0.0
 71
     7
 72
     1
  1
FRONT VIEW
  7
Text Style150
 73
     1
 44
1.0
1001
ACAD
1000
MTEXTBEGIN
1070
    73
1070
     1
1070
    44
1040
1.0
1070
    74
1070
     0
1000
MTEXTEND
  0
LINE
  5
135
330
6C
100
AcDbEntity
  8
Symbol (ANSI)
370
    30
100
AcDbLine
 10
9.071293020579096
 20
3.681874561276164
 30
0.0
 11
11.00082302915045
 21
3.681874561276164
 31
0.0
  0
MTEXT
  5
136
330
6C
100
AcDbEntity
  8
Symbol (ANSI)
100
AcDbMText
 10
9.958748465684731
 20
3.189451421470295
 30
0.0
 40
0.3599999927160308
 41
0.0
 71
     7
 72
     1
  1
 
  7
Label Text (ANSI)
 73
     1
 44
1.0
1001
ACAD
1000
MTEXTBEGIN
1070
    73
1070
     1
1070
    44
1040
1.0
1070
    74
1070
     0
1000
MTEXTEND
  0
LINE
  5
137
330
6C
100
AcDbEntity
  8
Hidden (ANSI)
 48
0.0703737735748291
100
AcDbLine
 10
19.94244574074243
 20
18.11577792163944
 30
0.0
 11
20.01644574074244
 21
18.11577792163944
 31
0.0
  0
LINE
  5
138
330
6C
100
AcDbEntity
  8
Hidden (ANSI)
 48
0.0703737735748291
100
AcDbLine
 10
19.94244574074243
 20
17.89777792163944
 30
0.0
 11
20.01644574074244
 21
17.89777792163944
 31
0.0
  0
LINE
  5
139
330
6C
100
AcDbEntity
  8
Hidden (ANSI)
 48
0.0703737735748291
100
AcDbLine
 10
19.94244574074243
 20
7.861777921639438
 30
0.0
 11
20.01644574074244
 21
7.861777921639438
 31
0.0
  0
LINE
  5
13A
330
6C
100
AcDbEntity
  8
Hidden (ANSI)
 48
0.0703737735748291
100
AcDbLine
 10
19.94244574074243
 20
7.643777921639438
 30
0.0
 11
20.01644574074244
 21
7.643777921639438
 31
0.0
  0
LINE
  5
13B
330
6C
100
AcDbEntity
  8
Visible (ANSI)
100
AcDbLine
 10
20.01644574074252
 20
18.31977792163944
 30
0.0
 11
19.94244574074252
 21
18.31977792163944
 31
0.0
  0
LINE
  5
13C
330
6C
100
AcDbEntity
  8
Visible (ANSI)
100
AcDbLine
 10
19.94244574074252
 20
18.31977792163944
 30
0.0
 11
19.94244574074252
 21
7.439777921639437
 31
0.0
  0
LINE
  5
13D
330
6C
100
AcDbEntity
  8
Visible (ANSI)
100
AcDbLine
 10
20.01644574074252
 20
7.439777921639437
 30
0.0
 11
19.94244574074252
 21
7.439777921639437
 31
0.0
  0
LINE
  5
13E
330
6C
100
AcDbEntity
  8
Visible (ANSI)
100
AcDbLine
 10
20.01644574074252
 20
7.439777921639437
 30
0.0
 11
20.01644574074252
 21
18.31977792163944
 31
0.0
  0
LINE
  5
13F
330
6C
100
AcDbEntity
  8
Hidden (ANSI)
 48
0.0703737735748291
100
AcDbLine
 10
20.01644574074028
 20
7.627777921639437
 30
0.0
 11
19.94244574074027
 21
7.627777921639437
 31
0.0
  0
LINE
  5
140
330
6C
100
AcDbEntity
  8
Hidden (ANSI)
 48
0.0703737735748291
100
AcDbLine
 10
20.01644574074028
 20
7.877777921639438
 30
0.0
 11
19.94244574074027
 21
7.877777921639438
 31
0.0
  0
MTEXT
  5
141
330
6C
100
AcDbEntity
  8
Symbol (ANSI)
100
AcDbMText
 10
19.1621596899027
 20
3.809680749092944
 30
0.0
 40
0.2400000029661524
 41
0.0
 71
     7
 72
     1
  1
RIGHT VIEW
  7
Text Style150
 73
     1
 44
1.0
1001
ACAD
1000
MTEXTBEGIN
1070
    73
1070
     1
1070
    44
1040
1.0
1070
    74
1070
     0
1000
MTEXTEND
  0
LINE
  5
142
330
6C
100
AcDbEntity
  8
Symbol (ANSI)
370
    30
100
AcDbLine
 10
19.13815962816593
 20
3.760348495370016
 30
0.0
 11
21.00798136435901
 21
3.760348495370016
 31
0.0
  0
DIMENSION
  5
143
330
6C
100
AcDbEntity
  8
Dimension (ANSI)
100
AcDbDimension
  2
*D4
 10
5.556524645925198
 20
4.762612567308729
 30
0.0
 11
9.84237013411262
 21
4.762612567308729
 31
0.0
 70
   160
  1
<>
 42
8.879999999999999
  3
Default (ANSI)-01
100
AcDbAlignedDimension
 13
14.43652464592519
 23
7.439777921639437
 33
0.0
 14
5.556524645925198
 24
7.439777921639437
 34
0.0
 50
180.0
100
AcDbRotatedDimension
1001
ACAD
1000
DSTYLE
1002
{
1070
   289
1070
     1
1070
    73
1070
     0
1070
    74
1070
     0
1070
   271
1070
     2
1070
   272
1070
     2
1070
    48
1040
0.0
1070
    47
1040
0.0
1002
}
  0
DIMENSION
  5
22F
330
6C
100
AcDbEntity
  8
Dimension (ANSI)
100
AcDbDimension
  2
*D5
 10
4.033996077177598
 20
18.31977792163944
 30
0.0
 11
4.033996077177595
 21
12.87977792163944
 31
0.0
 70
   160
  1
<>
 42
10.88
  3
Default (ANSI)-01
100
AcDbAlignedDimension
 13
5.556524645925198
 23
7.439777921639437
 33
0.0
 14
5.556524645925195
 24
18.31977792163944
 34
0.0
 50
90.0
100
AcDbRotatedDimension
1001
ACAD
1000
DSTYLE
1002
{
1070
   289
1070
     1
1070
   271
1070
     2
1070
   272
1070
     2
1070
    48
1040
0.0
1070
    47
1040
0.0
1002
}
  0
DIMENSION
  5
319
330
6C
100
AcDbEntity
  8
Dimension (ANSI)
100
AcDbDimension
  2
*D6
 10
5.346010595588753
 20
7.752777921639437
 30
0.0
 11
4.769123071122049
 21
6.702355257062732
 31
0.0
 70
   160
  1
<>{\PTYP.}
 71
     5
 42
0.3129999999999997
  3
Default (ANSI)-01
100
AcDbAlignedDimension
 13
5.556524645925198
 23
7.439777921639437
 33
0.0
 14
5.729024645925198
 24
7.752777921639437
 34
0.0
 50
90.0
100
AcDbRotatedDimension
1001
ACAD
1000
DSTYLE
1002
{
1070
   289
1070
     1
1070
   271
1070
     2
1070
   272
1070
     2
1070
    48
1040
0.0
1070
    47
1040
0.0
1002
}
  0
DIMENSION
  5
429
330
6C
100
AcDbEntity
  8
Dimension (ANSI)
100
AcDbDimension
  2
*D7
 10
5.869524645925198
 20
5.763238290490552
 30
0.0
 11
4.782786732216323
 21
5.763238290490552
 31
0.0
 70
   160
  1
<>{\PTYP.}
 71
     5
 42
0.3130000000000006
  3
Default (ANSI)-01
100
AcDbAlignedDimension
 13
5.556524645925198
 23
7.439777921639437
 33
0.0
 14
5.869524645925198
 24
7.643777921639437
 34
0.0
 50
180.0
100
AcDbRotatedDimension
1001
ACAD
1000
DSTYLE
1002
{
1070
   289
1070
     1
1070
    73
1070
     0
1070
    74
1070
     0
1070
   271
1070
     2
1070
   272
1070
     2
1070
    48
1040
0.0
1070
    47
1040
0.0
1002
}
  0
DIMENSION
  5
527
330
6C
100
AcDbEntity
  8
Dimension (ANSI)
100
AcDbDimension
  2
*D8
 10
6.869524645925198
 20
5.763238290490552
 30
0.0
 11
7.673768444256211
 21
5.763238290490552
 31
0.0
 70
   160
  1
<>
  3
Default (ANSI)
100
AcDbAlignedDimension
 13
5.869524645925198
 23
7.643777921639437
 33
0.0
 14
6.869524645925198
 24
7.627777921639437
 34
0.0
 50
180.0
100
AcDbRotatedDimension
1001
ACAD
1000
DSTYLE
1002
{
1070
   289
1070
     2
1070
    73
1070
     0
1070
    74
1070
     0
1070
   271
1070
     3
1070
   272
1070
     2
1070
    48
1040
0.0
1070
    47
1040
0.0
1002
}
  0
DIMENSION
  5
611
330
6C
100
AcDbEntity
  8
Dimension (ANSI)
100
AcDbDimension
  2
*D9
 10
19.67451311732029
 20
13.42402989014337
 30
0.0
 11
21.02219153596395
 21
13.42402989014337
 31
0.0
 70
   160
  1
 14 GA.
 42
0.0740000000000016
  3
Default (ANSI)
100
AcDbAlignedDimension
 13
20.01644574074252
 23
7.439777921639437
 33
0.0
 14
19.94244574074252
 24
7.439777921639437
 34
0.0
100
AcDbRotatedDimension
1001
ACAD
1000
DSTYLE
1002
{
1070
   289
1070
     1
1070
    73
1070
     0
1070
    74
1070
     0
1070
   271
1070
     3
1070
    76
1070
     1
1070
    75
1070
     1
1070
   272
1070
     2
1070
    48
1040
0.0
1070
    47
1040
0.0
1002
}
  0
DIMENSION
  5
6F0
330
6C
100
AcDbEntity
  8
Dimension (ANSI)
100
AcDbDimension
  2
*D10
 10
6.761271470452136
 20
7.815277921639427
 30
0.0
 11
9.117051265563571
 21
7.00880102962926
 31
0.0
 70
   163
  1
<>{\PGROUND\P HOLE}
 42
0.25
  3
Default (ANSI)
100
AcDbDiametricDimension
 15
6.97777782139826
 25
7.690277921639448
 35
0.0
 40
0.0
1001
ACAD_DSTYLE_DIMRADIAL_EXTENSION
1070
   387
1070
     1
1070
   388
1040
0.0
1070
   390
1040
0.0
1001
ACAD
1000
DSTYLE
1002
{
1070
   145
1040
-0.3333333333333334
1070
   144
1040
0.9999999999999946
1070
   271
1070
     3
1070
   272
1070
     2
1070
    48
1040
0.0
1070
    47
1040
0.0
1002
}
  0
DIMENSION
  5
7AA
330
6C
100
AcDbEntity
  8
Dimension (ANSI)
100
AcDbDimension
  2
*D11
 10
14.15502464592519
 20
7.752777921639438
 30
0.0
 11
15.96443185437237
 21
8.598587514425439
 31
0.0
 70
   164
  1
 0.218 X 0.281\POBROUND\PTYP. (4 PL.)
 42
0.1089999999999982
  3
Default (ANSI)
100
AcDbRadialDimension
 15
14.2097455227249
 25
7.847046822355798
 35
0.0
 40
0.0
1001
ACAD_DSTYLE_DIMRADIAL_EXTENSION
1070
   387
1070
     1
1070
   388
1040
0.0
1070
   390
1040
0.0
1001
ACAD
1000
DSTYLE
1002
{
1070
   145
1040
-0.3333333333333334
1070
   271
1070
     3
1070
   141
1040
0.0
1070
   272
1070
     2
1070
    48
1040
0.0
1070
    47
1040
0.0
1002
}
  0
MTEXT
  5
84D
330
6C
100
AcDbEntity
  8
Symbol (ANSI)
100
AcDbMText
 10
24.6723366327301
 20
6.267498622126937
 30
0.0
 40
0.2400000029661524
 41
7.999284103890119
 71
     1
 72
     1
  1
{\fRomanS|b0|i0;\H0.2400;PART#: P1210\P(DATA SUBJECT TO CHANGE WITHOUT NOTICE)\PTHIS DRAWING AND COMPONENTS OF ARE\PPROPERTY OF HUBBELL INC. WIEGMANN}
  7
Note Text (ANSI)
 73
     2
 44
1.093904256820678
1001
ACAD
1000
MTEXTBEGIN
1070
    73
1070
     2
1070
    44
1040
1.093904256820678
1070
    74
1070
     0
1000
MTEXTEND
  0
ELLIPSE
  5
84F
330
6C
100
AcDbEntity
  8
Visible (ANSI)
100
AcDbEllipse
 10
26.8357256623624
 20
11.14537364203822
 30
0.0
 11
0.0623790264480571
 21
-0.1083229295181431
 31
0.0
210
0.0
220
0.0
230
1.0
 40
0.5780931159158104
 41
3.572615253427366
 42
5.85216270734124
  0
ELLIPSE
  5
850
330
6C
100
AcDbEntity
  8
Visible (ANSI)
100
AcDbEllipse
 10
26.7833997605546
 20
11.11524115921758
 30
0.0
 11
-0.0623790264480506
 21
0.1083229295181468
 31
0.0
210
0.0
220
0.0
230
1.0
 40
0.5780931159158105
 41
0.0
 42
6.283185307179586
  0
LINE
  5
851
330
6C
100
AcDbEntity
  8
Visible (ANSI)
100
AcDbLine
 10
26.05401911576056
 20
11.62437617460215
 30
0.0
 11
26.09856684297533
 21
11.59872284463323
 31
0.0
  0
ELLIPSE
  5
852
330
6C
100
AcDbEntity
  8
Visible (ANSI)
100
AcDbEllipse
 10
26.10634501756837
 20
11.56539602081495
 30
0.0
 11
0.0543945110627058
 21
-0.0944575945398208
 31
0.0
210
0.0
220
0.0
230
1.0
 40
0.5780931159158104
 41
3.641254264141361
 42
5.499720852204777
  0
ELLIPSE
  5
853
330
6C
100
AcDbEntity
  8
Visible (ANSI)
100
AcDbEllipse
 10
26.05401911576056
 20
11.53526353799431
 30
0.0
 11
-0.0543945110626945
 21
0.0944575945398273
 31
0.0
210
0.0
220
0.0
230
1.0
 40
0.5780931159158105
 41
5.499720852205268
 42
8.641313505795061
  0
LINE
  5
854
330
6C
100
AcDbEntity
  8
Visible Narrow (ANSI)
100
AcDbLine
 10
26.05401911576056
 20
11.44615090138647
 30
0.0
 11
26.10634501756837
 21
11.47628338420711
 31
0.0
  0
LINE
  5
855
330
6C
100
AcDbEntity
  8
Visible (ANSI)
100
AcDbLine
 10
26.10634501756837
 20
11.47628338420711
 30
0.0
 11
26.15089274478312
 21
11.4506300542382
 31
0.0
  0
LINE
  5
856
330
6C
100
AcDbEntity
  8
Visible (ANSI)
100
AcDbLine
 10
26.09856684297533
 20
11.42049757141756
 30
0.0
 11
26.05401911576056
 21
11.44615090138647
 31
0.0
  0
LINE
  5
857
330
6C
100
AcDbEntity
  8
Visible Narrow (ANSI)
100
AcDbLine
 10
26.09856684297533
 20
11.42049757141756
 30
0.0
 11
26.15089274478312
 21
11.4506300542382
 31
0.0
  0
ELLIPSE
  5
858
330
6C
100
AcDbEntity
  8
Visible (ANSI)
100
AcDbEllipse
 10
26.15089274478312
 20
11.53974269084604
 30
0.0
 11
0.0543945110627014
 21
-0.0944575945398263
 31
0.0
210
0.0
220
0.0
230
1.0
 40
0.5780931159158103
 41
5.499720852205022
 42
5.783523696627608
  0
ELLIPSE
  5
859
330
6C
100
AcDbEntity
  8
Visible (ANSI)
100
AcDbEllipse
 10
26.09856684297533
 20
11.5096102080254
 30
0.0
 11
0.0543945110626945
 21
-0.0944575945398274
 31
0.0
210
0.0
220
0.0
230
0.9999999999999998
 40
0.5780931159158105
 41
5.499720852205268
 42
8.641313505795061
  0
LINE
  5
85A
330
6C
100
AcDbEntity
  8
Visible (ANSI)
100
AcDbLine
 10
31.89047848767519
 20
16.64651097109613
 30
0.0
 11
31.93502621488995
 21
16.62085764112721
 31
0.0
  0
ELLIPSE
  5
85B
330
6C
100
AcDbEntity
  8
Visible (ANSI)
100
AcDbEllipse
 10
31.94280438948299
 20
16.58753081730893
 30
0.0
 11
0.0543945110627057
 21
-0.0944575945398207
 31
0.0
210
0.0
220
0.0
230
1.0
 40
0.5780931159158104
 41
3.641254264141345
 42
5.499720852204777
  0
ELLIPSE
  5
85C
330
6C
100
AcDbEntity
  8
Visible (ANSI)
100
AcDbEllipse
 10
31.89047848767519
 20
16.55739833448829
 30
0.0
 11
-0.0543945110626943
 21
0.0944575945398271
 31
0.0
210
0.0
220
0.0
230
1.0
 40
0.5780931159158104
 41
5.499720852205267
 42
8.641313505795061
  0
LINE
  5
85D
330
6C
100
AcDbEntity
  8
Visible Narrow (ANSI)
100
AcDbLine
 10
31.89047848767519
 20
16.46828569788045
 30
0.0
 11
31.94280438948299
 21
16.49841818070109
 31
0.0
  0
LINE
  5
85E
330
6C
100
AcDbEntity
  8
Visible (ANSI)
100
AcDbLine
 10
31.94280438948299
 20
16.49841818070109
 30
0.0
 11
31.98735211669775
 21
16.47276485073217
 31
0.0
  0
LINE
  5
85F
330
6C
100
AcDbEntity
  8
Visible (ANSI)
100
AcDbLine
 10
31.93502621488995
 20
16.44263236791154
 30
0.0
 11
31.89047848767519
 21
16.46828569788045
 31
0.0
  0
LINE
  5
860
330
6C
100
AcDbEntity
  8
Visible Narrow (ANSI)
100
AcDbLine
 10
31.93502621488995
 20
16.44263236791154
 30
0.0
 11
31.98735211669775
 21
16.47276485073217
 31
0.0
  0
ELLIPSE
  5
861
330
6C
100
AcDbEntity
  8
Visible (ANSI)
100
AcDbEllipse
 10
31.98735211669775
 20
16.56187748734
 30
0.0
 11
0.0543945110626944
 21
-0.0944575945398141
 31
0.0
210
0.0
220
0.0
230
1.0
 40
0.5780931159158105
 41
5.499720852205022
 42
5.783523696627648
  0
ELLIPSE
  5
862
330
6C
100
AcDbEntity
  8
Visible (ANSI)
100
AcDbEllipse
 10
31.93502621488995
 20
16.53174500451937
 30
0.0
 11
0.0543945110626943
 21
-0.0944575945398271
 31
0.0
210
0.0
220
0.0
230
1.0
 40
0.5780931159158104
 41
5.499720852205267
 42
8.641313505795061
  0
LINE
  5
863
330
6C
100
AcDbEntity
  8
Visible (ANSI)
100
AcDbLine
 10
31.89047848767519
 20
8.263382752960721
 30
0.0
 11
31.93502621488995
 21
8.23772942299181
 31
0.0
  0
ELLIPSE
  5
864
330
6C
100
AcDbEntity
  8
Visible (ANSI)
100
AcDbEllipse
 10
31.94280438948299
 20
8.204402599173523
 30
0.0
 11
0.0543945110627064
 21
-0.0944575945398219
 31
0.0
210
0.0
220
0.0
230
1.0
 40
0.5780931159158105
 41
3.641254264141345
 42
5.499720852204704
  0
ELLIPSE
  5
865
330
6C
100
AcDbEntity
  8
Visible (ANSI)
100
AcDbEllipse
 10
31.89047848767519
 20
8.174270116352886
 30
0.0
 11
-0.0543945110626945
 21
0.0944575945398273
 31
0.0
210
0.0
220
0.0
230
1.0
 40
0.5780931159158105
 41
5.499720852205268
 42
8.641313505795061
  0
LINE
  5
866
330
6C
100
AcDbEntity
  8
Visible Narrow (ANSI)
100
AcDbLine
 10
31.89047848767519
 20
8.085157479745049
 30
0.0
 11
31.94280438948299
 21
8.115289962565686
 31
0.0
  0
LINE
  5
867
330
6C
100
AcDbEntity
  8
Visible (ANSI)
100
AcDbLine
 10
31.94280438948299
 20
8.115289962565686
 30
0.0
 11
31.98735211669775
 21
8.089636632596773
 31
0.0
  0
LINE
  5
868
330
6C
100
AcDbEntity
  8
Visible (ANSI)
100
AcDbLine
 10
31.93502621488995
 20
8.059504149776135
 30
0.0
 11
31.89047848767519
 21
8.085157479745049
 31
0.0
  0
LINE
  5
869
330
6C
100
AcDbEntity
  8
Visible Narrow (ANSI)
100
AcDbLine
 10
31.93502621488995
 20
8.059504149776135
 30
0.0
 11
31.98735211669775
 21
8.089636632596773
 31
0.0
  0
ELLIPSE
  5
86A
330
6C
100
AcDbEntity
  8
Visible (ANSI)
100
AcDbEllipse
 10
31.98735211669775
 20
8.178749269204605
 30
0.0
 11
0.0543945110626971
 21
-0.0944575945398189
 31
0.0
210
0.0
220
0.0
230
1.0
 40
0.5780931159158104
 41
5.499720852205022
 42
5.783523696627715
  0
ELLIPSE
  5
86B
330
6C
100
AcDbEntity
  8
Visible (ANSI)
100
AcDbEllipse
 10
31.93502621488995
 20
8.148616786383973
 30
0.0
 11
0.0543945110626945
 21
-0.0944575945398273
 31
0.0
210
0.0
220
0.0
230
1.0
 40
0.5780931159158105
 41
5.499720852205268
 42
8.641313505795061
  0
LINE
  5
86C
330
6C
100
AcDbEntity
  8
Visible (ANSI)
100
AcDbLine
 10
26.05401911576056
 20
20.00750439273756
 30
0.0
 11
26.09856684297532
 21
19.98185106276864
 31
0.0
  0
ELLIPSE
  5
86D
330
6C
100
AcDbEntity
  8
Visible (ANSI)
100
AcDbEllipse
 10
26.10634501756836
 20
19.94852423895035
 30
0.0
 11
0.054394511062706
 21
-0.0944575945398213
 31
0.0
210
0.0
220
0.0
230
1.0
 40
0.5780931159158105
 41
3.641254264141315
 42
5.499720852204704
  0
ELLIPSE
  5
86E
330
6C
100
AcDbEntity
  8
Visible (ANSI)
100
AcDbEllipse
 10
26.05401911576056
 20
19.91839175612971
 30
0.0
 11
-0.0543945110626943
 21
0.0944575945398271
 31
0.0
210
0.0
220
0.0
230
0.9999999999999998
 40
0.5780931159158104
 41
5.499720852205268
 42
8.641313505795061
  0
LINE
  5
86F
330
6C
100
AcDbEntity
  8
Visible Narrow (ANSI)
100
AcDbLine
 10
26.05401911576056
 20
19.82927911952188
 30
0.0
 11
26.10634501756836
 21
19.85941160234252
 31
0.0
  0
LINE
  5
870
330
6C
100
AcDbEntity
  8
Visible (ANSI)
100
AcDbLine
 10
26.10634501756836
 20
19.85941160234252
 30
0.0
 11
26.15089274478312
 21
19.8337582723736
 31
0.0
  0
LINE
  5
871
330
6C
100
AcDbEntity
  8
Visible (ANSI)
100
AcDbLine
 10
26.09856684297532
 20
19.80362578955297
 30
0.0
 11
26.05401911576056
 21
19.82927911952188
 31
0.0
  0
LINE
  5
872
330
6C
100
AcDbEntity
  8
Visible Narrow (ANSI)
100
AcDbLine
 10
26.09856684297532
 20
19.80362578955297
 30
0.0
 11
26.15089274478312
 21
19.8337582723736
 31
0.0
  0
ELLIPSE
  5
873
330
6C
100
AcDbEntity
  8
Visible (ANSI)
100
AcDbEllipse
 10
26.15089274478312
 20
19.92287090898144
 30
0.0
 11
0.0543945110627028
 21
-0.0944575945398286
 31
0.0
210
0.0
220
0.0
230
1.0
 40
0.5780931159158104
 41
5.499720852205022
 42
5.783523696627604
  0
ELLIPSE
  5
874
330
6C
100
AcDbEntity
  8
Visible (ANSI)
100
AcDbEllipse
 10
26.09856684297532
 20
19.8927384261608
 30
0.0
 11
0.0543945110626943
 21
-0.0944575945398271
 31
0.0
210
0.0
220
0.0
230
1.0
 40
0.5780931159158103
 41
5.499720852205267
 42
8.641313505795061
  0
LINE
  5
875
330
6C
100
AcDbEntity
  8
Visible (ANSI)
100
AcDbLine
 10
25.85496855685653
 20
11.39399688135112
 30
0.0
 11
25.85496855685652
 21
20.28890959963796
 31
0.0
  0
LINE
  5
876
330
6C
100
AcDbEntity
  8
Visible (ANSI)
100
AcDbLine
 10
25.90729445866432
 20
20.3190420824586
 30
0.0
 11
25.85496855685652
 21
20.28890959963796
 31
0.0
  0
LINE
  5
877
330
6C
100
AcDbEntity
  8
Visible (ANSI)
100
AcDbLine
 10
25.85496855685652
 20
20.28890959963796
 30
0.0
 11
32.13407677379399
 21
16.67301166116257
 31
0.0
  0
LINE
  5
878
330
6C
100
AcDbEntity
  8
Visible (ANSI)
100
AcDbLine
 10
32.18640267560179
 20
16.7031441439832
 30
0.0
 11
32.13407677379399
 21
16.67301166116257
 31
0.0
  0
LINE
  5
879
330
6C
100
AcDbEntity
  8
Visible (ANSI)
100
AcDbLine
 10
32.18640267560179
 20
16.7031441439832
 30
0.0
 11
25.90729445866432
 21
20.3190420824586
 31
0.0
  0
LINE
  5
87A
330
6C
100
AcDbEntity
  8
Visible (ANSI)
100
AcDbLine
 10
32.13407677379399
 20
16.67301166116257
 30
0.0
 11
32.13407677379399
 21
7.778098942875733
 31
0.0
  0
LINE
  5
87B
330
6C
100
AcDbEntity
  8
Visible (ANSI)
100
AcDbLine
 10
32.18640267560179
 20
7.808231425696368
 30
0.0
 11
32.13407677379399
 21
7.778098942875733
 31
0.0
  0
LINE
  5
87C
330
6C
100
AcDbEntity
  8
Visible (ANSI)
100
AcDbLine
 10
32.18640267560179
 20
7.808231425696368
 30
0.0
 11
32.18640267560179
 21
16.7031441439832
 31
0.0
  0
LINE
  5
87D
330
6C
100
AcDbEntity
  8
Visible (ANSI)
100
AcDbLine
 10
32.13407677379399
 20
7.778098942875733
 30
0.0
 11
25.85496855685653
 21
11.39399688135112
 31
0.0
  0
ENDSEC
  0
SECTION
  2
OBJECTS
  0
DICTIONARY
  5
C
330
0
100
AcDbDictionary
281
     1
  3
ACAD_CIP_PREVIOUS_PRODUCT_INFO
350
87E
  3
ACAD_COLOR
350
63
  3
ACAD_GROUP
350
D
  3
ACAD_LAYOUT
350
62
  3
ACAD_MATERIAL
350
10
  3
ACAD_MLEADERSTYLE
350
66
  3
ACAD_MLINESTYLE
350
5F
  3
ACAD_PLOTSETTINGS
350
61
  3
ACAD_PLOTSTYLENAME
350
E
  3
ACAD_SCALELIST
350
42
  3
ACAD_TABLESTYLE
350
64
  3
ACAD_VISUALSTYLE
350
29
  3
ACDB_RECOMPOSE_DATA
350
88C
  3
AcDbVariableDictionary
350
76
  3
DWGPROPS
350
88D
  0
DICTIONARY
  5
8C9
330
7A4
100
AcDbDictionary
280
     1
281
     1
  3
ACAD_MTEXT_RT
360
8CA
  0
XRECORD
  5
87E
102
{ACAD_REACTORS
330
C
102
}
330
C
100
AcDbXrecord
280
     1
300
INVNTOR
300
2012
300
85795PDSP_2012_0F
  0
DICTIONARY
  5
63
102
{ACAD_REACTORS
330
C
102
}
330
C
100
AcDbDictionary
281
     1
  0
DICTIONARY
  5
D
102
{ACAD_REACTORS
330
C
102
}
330
C
100
AcDbDictionary
281
     1
  0
DICTIONARY
  5
62
102
{ACAD_REACTORS
330
C
102
}
330
C
100
AcDbDictionary
281
     1
  3
Layout1
350
6B
  3
Layout2
350
73
  3
Model
350
6F
  0
DICTIONARY
  5
10
102
{ACAD_REACTORS
330
C
102
}
330
C
100
AcDbDictionary
281
     1
  3
ByBlock
350
19
  3
ByLayer
350
11
  3
Global
350
21
  0
DICTIONARY
  5
66
102
{ACAD_REACTORS
330
C
102
}
330
C
100
AcDbDictionary
281
     1
  3
Standard
350
67
  0
DICTIONARY
  5
5F
102
{ACAD_REACTORS
330
C
102
}
330
C
100
AcDbDictionary
281
     1
  3
Standard
350
60
  0
DICTIONARY
  5
61
102
{ACAD_REACTORS
330
C
102
}
330
C
100
AcDbDictionary
281
     1
  0
ACDBDICTIONARYWDFLT
  5
E
102
{ACAD_REACTORS
330
C
102
}
330
C
100
AcDbDictionary
281
     1
  3
Normal
350
F
100
AcDbDictionaryWithDefault
340
F
  0
DICTIONARY
  5
42
102
{ACAD_REACTORS
330
C
102
}
330
C
100
AcDbDictionary
281
     1
  3
A0
350
43
  3
A1
350
44
  3
A2
350
45
  3
A3
350
46
  3
A4
350
47
  3
A5
350
48
  3
A6
350
49
  3
A7
350
4A
  3
A8
350
4B
  3
A9
350
4C
  3
B0
350
4D
  3
B1
350
4E
  3
B2
350
4F
  3
B3
350
50
  3
B4
350
51
  3
B5
350
52
  3
B6
350
53
  0
DICTIONARY
  5
64
102
{ACAD_REACTORS
330
C
102
}
330
C
100
AcDbDictionary
281
     1
  3
Standard
350
65
  0
DICTIONARY
  5
29
102
{ACAD_REACTORS
330
C
102
}
330
C
100
AcDbDictionary
281
     1
  3
2dWireframe
350
2F
  3
Basic
350
2E
  3
Brighten
350
35
  3
ColorChange
350
39
  3
Conceptual
350
32
  3
Dim
350
34
  3
EdgeColorOff
350
41
  3
Facepattern
350
38
  3
Flat
350
2A
  3
FlatWithEdges
350
2B
  3
Gouraud
350
2C
  3
GouraudWithEdges
350
2D
  3
Hidden
350
31
  3
JitterOff
350
3F
  3
Linepattern
350
37
  3
OverhangOff
350
40
  3
Realistic
350
33
  3
Shaded
350
3E
  3
Shaded with edges
350
3D
  3
Shades of Gray
350
3A
  3
Sketchy
350
3B
  3
Thicken
350
36
  3
Wireframe
350
30
  3
X-Ray
350
3C
  0
XRECORD
  5
88C
102
{ACAD_REACTORS
330
C
102
}
330
C
100
AcDbXrecord
280
     1
 90
        1
330
65
330
527
  0
DICTIONARY
  5
76
102
{ACAD_REACTORS
330
C
102
}
330
C
100
AcDbDictionary
281
     1
  3
CANNOSCALE
350
79
  3
CMLEADERSTYLE
350
78
  3
CTABLESTYLE
350
77
  3
DIMASSOC
350
886
  3
HIDETEXT
350
885
  3
INDEXCTL
350
884
  3
LAYEREVAL
350
881
  3
LAYERNOTIFY
350
882
  3
LIGHTINGUNITS
350
880
  3
MSLTSCALE
350
87F
  3
SORTENTS
350
883
  3
XCLIPFRAME
350
887
  0
XRECORD
  5
88D
102
{ACAD_REACTORS
330
C
102
}
330
C
100
AcDbXrecord
280
     1
  1
DWGPROPS COOKIE
  2

  3

  4
KRA
  6

  7

  8

  9
-
300
Manager=
301
Company=
302
Category=
303
Part Number=P1210-S
304
Description=P SERIES BACK PANEL MASTER VIEW
305
Project=
306
Designer=KRA
307
Engineer=
308
Authority=
309
Cost Center=
 40
0.0000359953703704
 41
2455950.557390961
 42
2455950.557390961
  1

 90
       20
300
Vendor=
300
User Status=
300
Design Status=WorkInProgress
300
Checked by=JMG
300
Date Checked=02/12/2009
300
Engr Approved by=
300
Mfg Approved by=
300
DWG. NO=
300
NUMBER OF SHEETS=1
300
DRAWING #=1
  0
XRECORD
  5
8CA
102
{ACAD_REACTORS
330
8C9
102
}
330
8C9
100
AcDbXrecord
280
     1
 40
41495.0
  1
\A1;\U+22050.250{\PGROUND\P HOLE}
  0
LAYOUT
  5
6B
102
{ACAD_XDICTIONARY
360
8C3
102
}
102
{ACAD_REACTORS
330
62
102
}
330
62
100
AcDbPlotSettings
  1

  2

  4

  6

 40
0.0
 41
0.0
 42
0.0
 43
0.0
 44
0.0
 45
0.0
 46
0.0
 47
0.0
 48
0.0
 49
0.0
140
0.0
141
0.0
142
1.0
143
1.0
 70
   688
 72
     0
 73
     0
 74
     5
  7

 75
    16
147
1.0
148
0.0
149
0.0
100
AcDbLayout
  1
Layout1
 70
     1
 71
     1
 10
0.0
 20
0.0
 11
12.0
 21
9.0
 12
0.0
 22
0.0
 32
0.0
 14
0.0
 24
0.0
 34
0.0
 15
0.0
 25
0.0
 35
0.0
146
0.0
 13
0.0
 23
0.0
 33
0.0
 16
1.0
 26
0.0
 36
0.0
 17
0.0
 27
1.0
 37
0.0
 76
     0
330
68
  0
LAYOUT
  5
73
102
{ACAD_XDICTIONARY
360
8C7
102
}
102
{ACAD_REACTORS
330
62
102
}
330
62
100
AcDbPlotSettings
  1

  2

  4

  6

 40
0.0
 41
0.0
 42
0.0
 43
0.0
 44
0.0
 45
0.0
 46
0.0
 47
0.0
 48
0.0
 49
0.0
140
0.0
141
0.0
142
1.0
143
1.0
 70
   688
 72
     0
 73
     0
 74
     5
  7

 75
    16
147
1.0
148
0.0
149
0.0
100
AcDbLayout
  1
Layout2
 70
     1
 71
     2
 10
0.0
 20
0.0
 11
12.0
 21
9.0
 12
0.0
 22
0.0
 32
0.0
 14
0.0
 24
0.0
 34
0.0
 15
0.0
 25
0.0
 35
0.0
146
0.0
 13
0.0
 23
0.0
 33
0.0
 16
1.0
 26
0.0
 36
0.0
 17
0.0
 27
1.0
 37
0.0
 76
     0
330
70
  0
LAYOUT
  5
6F
102
{ACAD_XDICTIONARY
360
8C5
102
}
102
{ACAD_REACTORS
330
62
102
}
330
62
100
AcDbPlotSettings
  1

  2

  4

  6

 40
0.0
 41
0.0
 42
0.0
 43
0.0
 44
0.0
 45
0.0
 46
0.0
 47
0.0
 48
0.0
 49
0.0
140
0.0
141
0.0
142
1.0
143
1.0
 70
  1712
 72
     0
 73
     0
 74
     0
  7

 75
     0
147
1.0
148
0.0
149
0.0
100
AcDbLayout
  1
Model
 70
     1
 71
     0
 10
0.0
 20
0.0
 11
12.0
 21
9.0
 12
0.0
 22
0.0
 32
0.0
 14
0.0
 24
0.0
 34
0.0
 15
0.0
 25
0.0
 35
0.0
146
0.0
 13
0.0
 23
0.0
 33
0.0
 16
1.0
 26
0.0
 36
0.0
 17
0.0
 27
1.0
 37
0.0
 76
     0
330
6C
  0
MATERIAL
  5
19
102
{ACAD_XDICTIONARY
360
1A
102
}
102
{ACAD_REACTORS
330
10
102
}
330
10
100
AcDbMaterial
  1
ByBlock
 72
     0
 43
0.0208333333333333
 43
0.0
 43
0.0
 43
0.0
 43
0.0
 43
0.0208333333333333
 43
0.0
 43
0.0
 43
0.0
 43
0.0
 43
1.0
 43
0.0
 43
0.0
 43
0.0
 43
0.0
 43
1.0
 77
     0
 47
0.0208333333333333
 47
0.0
 47
0.0
 47
0.0
 47
0.0
 47
0.0208333333333333
 47
0.0
 47
0.0
 47
0.0
 47
0.0
 47
1.0
 47
0.0
 47
0.0
 47
0.0
 47
0.0
 47
1.0
171
     0
 49
0.0208333333333333
 49
0.0
 49
0.0
 49
0.0
 49
0.0
 49
0.0208333333333333
 49
0.0
 49
0.0
 49
0.0
 49
0.0
 49
1.0
 49
0.0
 49
0.0
 49
0.0
 49
0.0
 49
1.0
175
     0
142
0.0208333333333333
142
0.0
142
0.0
142
0.0
142
0.0
142
0.0208333333333333
142
0.0
142
0.0
142
0.0
142
0.0
142
1.0
142
0.0
142
0.0
142
0.0
142
0.0
142
1.0
179
     0
144
0.0208333333333333
144
0.0
144
0.0
144
0.0
144
0.0
144
0.0208333333333333
144
0.0
144
0.0
144
0.0
144
0.0
144
1.0
144
0.0
144
0.0
144
0.0
144
0.0
144
1.0
147
0.0208333333333333
147
0.0
147
0.0
147
0.0
147
0.0
147
0.0208333333333333
147
0.0
147
0.0
147
0.0
147
0.0
147
1.0
147
0.0
147
0.0
147
0.0
147
0.0
147
1.0
  0
MATERIAL
  5
11
102
{ACAD_XDICTIONARY
360
12
102
}
102
{ACAD_REACTORS
330
10
102
}
330
10
100
AcDbMaterial
  1
ByLayer
 72
     0
 43
0.0208333333333333
 43
0.0
 43
0.0
 43
0.0
 43
0.0
 43
0.0208333333333333
 43
0.0
 43
0.0
 43
0.0
 43
0.0
 43
1.0
 43
0.0
 43
0.0
 43
0.0
 43
0.0
 43
1.0
 77
     0
 47
0.0208333333333333
 47
0.0
 47
0.0
 47
0.0
 47
0.0
 47
0.0208333333333333
 47
0.0
 47
0.0
 47
0.0
 47
0.0
 47
1.0
 47
0.0
 47
0.0
 47
0.0
 47
0.0
 47
1.0
171
     0
 49
0.0208333333333333
 49
0.0
 49
0.0
 49
0.0
 49
0.0
 49
0.0208333333333333
 49
0.0
 49
0.0
 49
0.0
 49
0.0
 49
1.0
 49
0.0
 49
0.0
 49
0.0
 49
0.0
 49
1.0
175
     0
142
0.0208333333333333
142
0.0
142
0.0
142
0.0
142
0.0
142
0.0208333333333333
142
0.0
142
0.0
142
0.0
142
0.0
142
1.0
142
0.0
142
0.0
142
0.0
142
0.0
142
1.0
179
     0
144
0.0208333333333333
144
0.0
144
0.0
144
0.0
144
0.0
144
0.0208333333333333
144
0.0
144
0.0
144
0.0
144
0.0
144
1.0
144
0.0
144
0.0
144
0.0
144
0.0
144
1.0
147
0.0208333333333333
147
0.0
147
0.0
147
0.0
147
0.0
147
0.0208333333333333
147
0.0
147
0.0
147
0.0
147
0.0
147
1.0
147
0.0
147
0.0
147
0.0
147
0.0
147
1.0
  0
MATERIAL
  5
21
102
{ACAD_XDICTIONARY
360
22
102
}
102
{ACAD_REACTORS
330
10
102
}
330
10
100
AcDbMaterial
  1
Global
 72
     0
 43
0.0208333333333333
 43
0.0
 43
0.0
 43
0.0
 43
0.0
 43
0.0208333333333333
 43
0.0
 43
0.0
 43
0.0
 43
0.0
 43
1.0
 43
0.0
 43
0.0
 43
0.0
 43
0.0
 43
1.0
 77
     0
 47
0.0208333333333333
 47
0.0
 47
0.0
 47
0.0
 47
0.0
 47
0.0208333333333333
 47
0.0
 47
0.0
 47
0.0
 47
0.0
 47
1.0
 47
0.0
 47
0.0
 47
0.0
 47
0.0
 47
1.0
171
     0
 49
0.0208333333333333
 49
0.0
 49
0.0
 49
0.0
 49
0.0
 49
0.0208333333333333
 49
0.0
 49
0.0
 49
0.0
 49
0.0
 49
1.0
 49
0.0
 49
0.0
 49
0.0
 49
0.0
 49
1.0
175
     0
142
0.0208333333333333
142
0.0
142
0.0
142
0.0
142
0.0
142
0.0208333333333333
142
0.0
142
0.0
142
0.0
142
0.0
142
1.0
142
0.0
142
0.0
142
0.0
142
0.0
142
1.0
179
     0
144
0.0208333333333333
144
0.0
144
0.0
144
0.0
144
0.0
144
0.0208333333333333
144
0.0
144
0.0
144
0.0
144
0.0
144
1.0
144
0.0
144
0.0
144
0.0
144
0.0
144
1.0
147
0.0208333333333333
147
0.0
147
0.0
147
0.0
147
0.0
147
0.0208333333333333
147
0.0
147
0.0
147
0.0
147
0.0
147
1.0
147
0.0
147
0.0
147
0.0
147
0.0
147
1.0
  0
MLEADERSTYLE
  5
67
102
{ACAD_XDICTIONARY
360
88A
102
}
102
{ACAD_REACTORS
330
66
102
}
330
66
100
AcDbMLeaderStyle
170
     2
171
     1
172
     0
 90
        2
 40
0.0
 41
0.0
173
     1
 91
-1056964608
340
5B
 92
       -2
290
     1
 42
0.09
291
     1
 43
0.36
  3
Standard
 44
0.18
300

342
55
174
     1
178
     6
175
     1
176
     0
 93
-1056964608
 45
0.18
292
     0
297
     0
 46
0.18
 94
-1056964608
 47
1.0
 49
1.0
140
1.0
293
     1
141
0.0
294
     1
177
     0
142
1.0
295
     0
296
     0
143
0.125
1001
ACAD_MLEADERVER
1070
     2
  0
MLINESTYLE
  5
60
102
{ACAD_REACTORS
330
5F
102
}
330
5F
100
AcDbMlineStyle
  2
STANDARD
 70
     0
  3

 62
   256
 51
90.0
 52
90.0
 71
     2
 49
0.5
 62
   256
  6
BYLAYER
 49
-0.5
 62
   256
  6
BYLAYER
  0
ACDBPLACEHOLDER
  5
F
102
{ACAD_REACTORS
330
E
102
}
330
E
  0
SCALE
  5
43
102
{ACAD_REACTORS
330
42
102
}
330
42
100
AcDbScale
 70
     0
300
1:1
140
1.0
141
1.0
290
     1
  0
SCALE
  5
44
102
{ACAD_REACTORS
330
42
102
}
330
42
100
AcDbScale
 70
     0
300
1/128" = 1'-0"
140
0.0078125
141
12.0
290
     0
  0
SCALE
  5
45
102
{ACAD_REACTORS
330
42
102
}
330
42
100
AcDbScale
 70
     0
300
1/64" = 1'-0"
140
0.015625
141
12.0
290
     0
  0
SCALE
  5
46
102
{ACAD_REACTORS
330
42
102
}
330
42
100
AcDbScale
 70
     0
300
1/32" = 1'-0"
140
0.03125
141
12.0
290
     0
  0
SCALE
  5
47
102
{ACAD_REACTORS
330
42
102
}
330
42
100
AcDbScale
 70
     0
300
1/16" = 1'-0"
140
0.0625
141
12.0
290
     0
  0
SCALE
  5
48
102
{ACAD_REACTORS
330
42
102
}
330
42
100
AcDbScale
 70
     0
300
3/32" = 1'-0"
140
0.09375
141
12.0
290
     0
  0
SCALE
  5
49
102
{ACAD_REACTORS
330
42
102
}
330
42
100
AcDbScale
 70
     0
300
1/8" = 1'-0"
140
0.125
141
12.0
290
     0
  0
SCALE
  5
4A
102
{ACAD_REACTORS
330
42
102
}
330
42
100
AcDbScale
 70
     0
300
3/16" = 1'-0"
140
0.1875
141
12.0
290
     0
  0
SCALE
  5
4B
102
{ACAD_REACTORS
330
42
102
}
330
42
100
AcDbScale
 70
     0
300
1/4" = 1'-0"
140
0.25
141
12.0
290
     0
  0
SCALE
  5
4C
102
{ACAD_REACTORS
330
42
102
}
330
42
100
AcDbScale
 70
     0
300
3/8" = 1'-0"
140
0.375
141
12.0
290
     0
  0
SCALE
  5
4D
102
{ACAD_REACTORS
330
42
102
}
330
42
100
AcDbScale
 70
     0
300
1/2" = 1'-0"
140
0.5
141
12.0
290
     0
  0
SCALE
  5
4E
102
{ACAD_REACTORS
330
42
102
}
330
42
100
AcDbScale
 70
     0
300
3/4" = 1'-0"
140
0.75
141
12.0
290
     0
  0
SCALE
  5
4F
102
{ACAD_REACTORS
330
42
102
}
330
42
100
AcDbScale
 70
     0
300
1" = 1'-0"
140
1.0
141
12.0
290
     0
  0
SCALE
  5
50
102
{ACAD_REACTORS
330
42
102
}
330
42
100
AcDbScale
 70
     0
300
1-1/2" = 1'-0"
140
1.5
141
12.0
290
     0
  0
SCALE
  5
51
102
{ACAD_REACTORS
330
42
102
}
330
42
100
AcDbScale
 70
     0
300
3" = 1'-0"
140
3.0
141
12.0
290
     0
  0
SCALE
  5
52
102
{ACAD_REACTORS
330
42
102
}
330
42
100
AcDbScale
 70
     0
300
6" = 1'-0"
140
6.0
141
12.0
290
     0
  0
SCALE
  5
53
102
{ACAD_REACTORS
330
42
102
}
330
42
100
AcDbScale
 70
     0
300
1'-0" = 1'-0"
140
12.0
141
12.0
290
     0
  0
TABLESTYLE
  5
65
102
{ACAD_XDICTIONARY
360
888
102
}
102
{ACAD_REACTORS
330
64
102
}
330
64
100
AcDbTableStyle
  3
Standard
 70
     0
 71
     0
 40
0.06
 41
0.06
280
     0
281
     0
  7
Standard
140
0.18
170
     2
 62
     0
 63
     7
283
     0
274
    -2
284
     1
 64
     0
275
    -2
285
     1
 65
     0
276
    -2
286
     1
 66
     0
277
    -2
287
     1
 67
     0
278
    -2
288
     1
 68
     0
279
    -2
289
     1
 69
     0
  7
Standard
140
0.25
170
     5
 62
     0
 63
     7
283
     0
274
    -2
284
     1
 64
     0
275
    -2
285
     1
 65
     0
276
    -2
286
     1
 66
     0
277
    -2
287
     1
 67
     0
278
    -2
288
     1
 68
     0
279
    -2
289
     1
 69
     0
  7
Standard
140
0.18
170
     5
 62
     0
 63
     7
283
     0
274
    -2
284
     1
 64
     0
275
    -2
285
     1
 65
     0
276
    -2
286
     1
 66
     0
277
    -2
287
     1
 67
     0
278
    -2
288
     1
 68
     0
279
    -2
289
     1
 69
     0
  0
VISUALSTYLE
  5
2F
102
{ACAD_XDICTIONARY
360
89B
102
}
102
{ACAD_REACTORS
330
29
102
}
330
29
100
AcDbVisualStyle
  2
2dWireframe
 70
     4
 71
     0
 72
     2
 73
     0
 90
        0
 40
-0.6
 41
-30.0
 62
     5
 63
     7
 74
     1
 91
        4
 64
     7
 65
   257
 75
     1
175
     1
 42
1.0
 92
        0
 66
   257
 43
1.0
 76
     1
 77
     6
 78
     2
 67
     7
 79
     5
170
     0
171
     0
290
     0
174
     0
 93
        1
 44
0.0
173
     0
291
     0
 45
0.0
1001
ACAD
1000
AcDbSavedByObjectVersion
1070
     0
  0
VISUALSTYLE
  5
2E
102
{ACAD_XDICTIONARY
360
899
102
}
102
{ACAD_REACTORS
330
29
102
}
330
29
100
AcDbVisualStyle
  2
Basic
 70
     7
 71
     1
 72
     0
 73
     1
 90
        0
 40
-0.6
 41
-30.0
 62
     5
 63
     7
 74
     0
 91
        4
 64
     7
 65
   257
 75
     1
175
     1
 42
1.0
 92
        8
 66
     7
 43
1.0
 76
     1
 77
     6
 78
     2
 67
     7
 79
     5
170
     0
171
     0
290
     0
174
     0
 93
        1
 44
0.0
173
     0
291
     1
 45
0.0
1001
ACAD
1000
AcDbSavedByObjectVersion
1070
     0
  0
VISUALSTYLE
  5
35
102
{ACAD_XDICTIONARY
360
8A7
102
}
102
{ACAD_REACTORS
330
29
102
}
330
29
100
AcDbVisualStyle
  2
Brighten
 70
    12
 71
     2
 72
     2
 73
     0
 90
        0
 40
-0.6
 41
-30.0
 62
     5
 63
     7
 74
     1
 91
        4
 64
     7
 65
   257
 75
     1
175
     1
 42
1.0
 92
        8
 66
     7
 43
1.0
 76
     1
 77
     6
 78
     2
 67
     7
 79
     5
170
     0
171
     0
290
     0
174
     0
 93
        1
 44
50.0
173
     0
291
     1
 45
0.0
1001
ACAD
1000
AcDbSavedByObjectVersion
1070
     0
  0
VISUALSTYLE
  5
39
102
{ACAD_XDICTIONARY
360
8AF
102
}
102
{ACAD_REACTORS
330
29
102
}
330
29
100
AcDbVisualStyle
  2
ColorChange
 70
    16
 71
     2
 72
     2
 73
     3
 90
        0
 40
-0.6
 41
-30.0
 62
     5
 63
     8
 74
     1
 91
        4
 64
     7
 65
   257
 75
     1
175
     1
 42
1.0
 92
        8
 66
     8
 43
1.0
 76
     1
 77
     6
 78
     2
 67
     7
 79
     5
170
     0
171
     0
290
     0
174
     0
 93
        1
 44
0.0
173
     0
291
     1
 45
0.0
1001
ACAD
1000
AcDbSavedByObjectVersion
1070
     0
  0
VISUALSTYLE
  5
32
102
{ACAD_XDICTIONARY
360
8A1
102
}
102
{ACAD_REACTORS
330
29
102
}
330
29
100
AcDbVisualStyle
  2
Conceptual
 70
     9
 71
     3
 72
     2
 73
     0
 90
        0
 40
-0.6
 41
-30.0
 62
     5
 63
     7
 74
     2
 91
        2
 64
     7
 65
   257
 75
     1
175
     1
 42
179.0
 92
        8
 66
     7
 43
1.0
 76
     1
 77
     6
 78
     2
 67
     7
 79
     3
170
     0
171
     0
290
     0
174
     0
 93
        1
 44
0.0
173
     0
291
     0
 45
0.0
1001
ACAD
1000
AcDbSavedByObjectVersion
1070
     0
  0
VISUALSTYLE
  5
34
102
{ACAD_XDICTIONARY
360
8A5
102
}
102
{ACAD_REACTORS
330
29
102
}
330
29
100
AcDbVisualStyle
  2
Dim
 70
    11
 71
     2
 72
     2
 73
     0
 90
        0
 40
-0.6
 41
-30.0
 62
     5
 63
     7
 74
     1
 91
        4
 64
     7
 65
   257
 75
     1
175
     1
 42
1.0
 92
        8
 66
     7
 43
1.0
 76
     1
 77
     6
 78
     2
 67
     7
 79
     5
170
     0
171
     0
290
     0
174
     0
 93
        1
 44
-50.0
173
     0
291
     1
 45
0.0
1001
ACAD
1000
AcDbSavedByObjectVersion
1070
     0
  0
VISUALSTYLE
  5
41
102
{ACAD_XDICTIONARY
360
8BF
102
}
102
{ACAD_REACTORS
330
29
102
}
330
29
100
AcDbVisualStyle
  2
EdgeColorOff
 70
    22
 71
     2
 72
     2
 73
     0
 90
        0
 40
-0.6
 41
-30.0
 62
     5
 63
     7
 74
     1
 91
        4
 64
     7
 65
   257
 75
     1
175
     1
 42
1.0
 92
        8
 66
     7
 43
1.0
 76
     1
 77
     6
 78
     2
 67
     7
 79
     5
170
     0
171
     0
290
     0
174
     0
 93
        1
 44
0.0
173
     0
291
     1
 45
0.0
1001
ACAD
1000
AcDbSavedByObjectVersion
1070
     0
  0
VISUALSTYLE
  5
38
102
{ACAD_XDICTIONARY
360
8AD
102
}
102
{ACAD_REACTORS
330
29
102
}
330
29
100
AcDbVisualStyle
  2
Facepattern
 70
    15
 71
     2
 72
     2
 73
     0
 90
        0
 40
-0.6
 41
-30.0
 62
     5
 63
     7
 74
     1
 91
        4
 64
     7
 65
   257
 75
     1
175
     1
 42
1.0
 92
        8
 66
     7
 43
1.0
 76
     1
 77
     6
 78
     2
 67
     7
 79
     5
170
     0
171
     0
290
     0
174
     0
 93
        1
 44
0.0
173
     0
291
     1
 45
0.0
1001
ACAD
1000
AcDbSavedByObjectVersion
1070
     0
  0
VISUALSTYLE
  5
2A
102
{ACAD_XDICTIONARY
360
891
102
}
102
{ACAD_REACTORS
330
29
102
}
330
29
100
AcDbVisualStyle
  2
Flat
 70
     0
 71
     2
 72
     1
 73
     1
 90
        2
 40
-0.6
 41
30.0
 62
     5
 63
     7
 74
     0
 91
        0
 64
     7
 65
   257
 75
     1
175
     1
 42
1.0
 92
        8
 66
     7
 43
1.0
 76
     1
 77
     6
 78
     2
 67
     7
 79
     5
170
     0
171
     0
290
     0
174
     0
 93
       13
 44
0.0
173
     0
291
     1
 45
0.0
1001
ACAD
1000
AcDbSavedByObjectVersion
1070
     0
  0
VISUALSTYLE
  5
2B
102
{ACAD_XDICTIONARY
360
893
102
}
102
{ACAD_REACTORS
330
29
102
}
330
29
100
AcDbVisualStyle
  2
FlatWithEdges
 70
     1
 71
     2
 72
     1
 73
     1
 90
        2
 40
-0.6
 41
30.0
 62
     5
 63
     7
 74
     1
 91
        0
 64
     7
 65
   257
 75
     1
175
     1
 42
1.0
 92
        0
 66
   257
 43
1.0
 76
     1
 77
     6
 78
     2
 67
     7
 79
     5
170
     0
171
     0
290
     0
174
     0
 93
       13
 44
0.0
173
     0
291
     1
 45
0.0
1001
ACAD
1000
AcDbSavedByObjectVersion
1070
     0
  0
VISUALSTYLE
  5
2C
102
{ACAD_XDICTIONARY
360
895
102
}
102
{ACAD_REACTORS
330
29
102
}
330
29
100
AcDbVisualStyle
  2
Gouraud
 70
     2
 71
     2
 72
     2
 73
     1
 90
        2
 40
-0.6
 41
30.0
 62
     5
 63
     7
 74
     0
 91
        0
 64
     7
 65
   257
 75
     1
175
     1
 42
1.0
 92
        0
 66
     7
 43
1.0
 76
     1
 77
     6
 78
     2
 67
     7
 79
     5
170
     0
171
     0
290
     0
174
     0
 93
       13
 44
0.0
173
     0
291
     1
 45
0.0
1001
ACAD
1000
AcDbSavedByObjectVersion
1070
     0
  0
VISUALSTYLE
  5
2D
102
{ACAD_XDICTIONARY
360
897
102
}
102
{ACAD_REACTORS
330
29
102
}
330
29
100
AcDbVisualStyle
  2
GouraudWithEdges
 70
     3
 71
     2
 72
     2
 73
     1
 90
        2
 40
-0.6
 41
30.0
 62
     5
 63
     7
 74
     1
 91
        0
 64
     7
 65
   257
 75
     1
175
     1
 42
1.0
 92
        0
 66
   257
 43
1.0
 76
     1
 77
     6
 78
     2
 67
     7
 79
     5
170
     0
171
     0
290
     0
174
     0
 93
       13
 44
0.0
173
     0
291
     1
 45
0.0
1001
ACAD
1000
AcDbSavedByObjectVersion
1070
     0
  0
VISUALSTYLE
  5
31
102
{ACAD_XDICTIONARY
360
89F
102
}
102
{ACAD_REACTORS
330
29
102
}
330
29
100
AcDbVisualStyle
  2
Hidden
 70
     6
 71
     1
 72
     2
 73
     2
 90
        0
 40
-0.6
 41
-30.0
 62
     5
 63
     7
 74
     2
 91
        2
 64
     7
 65
   257
 75
     2
175
     1
 42
40.0
 92
        0
 66
   257
 43
1.0
 76
     1
 77
     6
 78
     2
 67
     7
 79
     3
170
     0
171
     0
290
     0
174
     0
 93
        1
 44
0.0
173
     0
291
     0
 45
0.0
1001
ACAD
1000
AcDbSavedByObjectVersion
1070
     0
  0
VISUALSTYLE
  5
3F
102
{ACAD_XDICTIONARY
360
8BB
102
}
102
{ACAD_REACTORS
330
29
102
}
330
29
100
AcDbVisualStyle
  2
JitterOff
 70
    20
 71
     2
 72
     2
 73
     0
 90
        0
 40
-0.6
 41
-30.0
 62
     5
 63
     7
 74
     1
 91
        4
 64
     7
 65
   257
 75
     1
175
     1
 42
1.0
 92
       10
 66
     7
 43
1.0
 76
     1
 77
     6
 78
     2
 67
     7
 79
     5
170
     0
171
     0
290
     0
174
     0
 93
        1
 44
0.0
173
     0
291
     1
 45
0.0
1001
ACAD
1000
AcDbSavedByObjectVersion
1070
     0
  0
VISUALSTYLE
  5
37
102
{ACAD_XDICTIONARY
360
8AB
102
}
102
{ACAD_REACTORS
330
29
102
}
330
29
100
AcDbVisualStyle
  2
Linepattern
 70
    14
 71
     2
 72
     2
 73
     0
 90
        0
 40
-0.6
 41
-30.0
 62
     5
 63
     7
 74
     1
 91
        4
 64
     7
 65
   257
 75
     7
175
     7
 42
1.0
 92
        8
 66
     7
 43
1.0
 76
     1
 77
     6
 78
     2
 67
     7
 79
     5
170
     0
171
     0
290
     0
174
     0
 93
        1
 44
0.0
173
     0
291
     1
 45
0.0
1001
ACAD
1000
AcDbSavedByObjectVersion
1070
     0
  0
VISUALSTYLE
  5
40
102
{ACAD_XDICTIONARY
360
8BD
102
}
102
{ACAD_REACTORS
330
29
102
}
330
29
100
AcDbVisualStyle
  2
OverhangOff
 70
    21
 71
     2
 72
     2
 73
     0
 90
        0
 40
-0.6
 41
-30.0
 62
     5
 63
     7
 74
     1
 91
        4
 64
     7
 65
   257
 75
     1
175
     1
 42
1.0
 92
        9
 66
     7
 43
1.0
 76
     1
 77
     6
 78
     2
 67
     7
 79
     5
170
     0
171
     0
290
     0
174
     0
 93
        1
 44
0.0
173
     0
291
     1
 45
0.0
1001
ACAD
1000
AcDbSavedByObjectVersion
1070
     0
  0
VISUALSTYLE
  5
33
102
{ACAD_XDICTIONARY
360
8A3
102
}
102
{ACAD_REACTORS
330
29
102
}
330
29
100
AcDbVisualStyle
  2
Realistic
 70
     8
 71
     2
 72
     3
 73
     0
 90
        2
 40
-0.6
 41
30.0
 62
     5
 63
     7
 74
     0
 91
        0
 64
     7
 65
   257
 75
     1
175
     1
 42
1.0
 92
        8
 66
   257
 43
1.0
 76
     1
 77
     6
 78
     2
 67
     7
 79
     3
170
     0
171
     0
290
     0
174
     0
 93
       13
 44
0.0
173
     0
291
     0
 45
0.0
1001
ACAD
1000
AcDbSavedByObjectVersion
1070
     0
  0
VISUALSTYLE
  5
3E
102
{ACAD_XDICTIONARY
360
8B9
102
}
102
{ACAD_REACTORS
330
29
102
}
330
29
100
AcDbVisualStyle
  2
Shaded
 70
    27
 71
     2
 72
     2
 73
     1
 90
        2
 40
-0.6
 41
30.0
 62
     5
 63
     7
 74
     0
 91
        4
 64
     7
 65
   257
 75
     1
175
     1
 42
1.0
 92
        8
 66
   257
 43
1.0
 76
     1
 77
     6
 78
     2
 67
     8
 79
     3
170
     0
171
     0
290
     0
174
     0
 93
        5
 44
0.0
173
     0
291
     0
 45
0.0
1001
ACAD
1000
AcDbSavedByObjectVersion
1070
     0
  0
VISUALSTYLE
  5
3D
102
{ACAD_XDICTIONARY
360
8B7
102
}
102
{ACAD_REACTORS
330
29
102
}
330
29
100
AcDbVisualStyle
  2
Shaded with edges
 70
    26
 71
     2
 72
     2
 73
     1
 90
        2
 40
-0.6
 41
30.0
 62
     5
 63
     7
 74
     1
 91
       10
 64
     7
 65
   257
 75
     2
175
     1
 42
1.0
 92
        8
 66
   257
 43
1.0
 76
     1
 77
     6
 78
     2
 67
     7
 79
     3
170
     0
171
     0
290
     0
174
     0
 93
        5
 44
0.0
173
     0
291
     0
 45
0.0
1001
ACAD
1000
AcDbSavedByObjectVersion
1070
     0
  0
VISUALSTYLE
  5
3A
102
{ACAD_XDICTIONARY
360
8B1
102
}
102
{ACAD_REACTORS
330
29
102
}
330
29
100
AcDbVisualStyle
  2
Shades of Gray
 70
    23
 71
     2
 72
     2
 73
     3
 90
        0
 40
-0.6
 41
-30.0
 62
     5
 63
     7
 74
     2
 91
        2
 64
     7
 65
     7
 75
     1
175
     1
 42
40.0
 92
        8
 66
     7
 43
1.0
 76
     1
 77
     6
 78
     2
 67
     7
 79
     3
170
     0
171
     0
290
     0
174
     0
 93
        1
 44
0.0
173
     0
291
     0
 45
0.0
1001
ACAD
1000
AcDbSavedByObjectVersion
1070
     0
  0
VISUALSTYLE
  5
3B
102
{ACAD_XDICTIONARY
360
8B3
102
}
102
{ACAD_REACTORS
330
29
102
}
330
29
100
AcDbVisualStyle
  2
Sketchy
 70
    24
 71
     1
 72
     2
 73
     2
 90
        0
 40
-0.6
 41
-30.0
 62
     5
 63
     7
 74
     2
 91
        2
 64
     7
 65
     7
 75
     1
175
     1
 42
40.0
 92
       11
 66
     7
 43
1.0
 76
     1
 77
     6
 78
     2
 67
     7
 79
     6
170
     0
171
     0
290
     0
174
     0
 93
        1
 44
0.0
173
     0
291
     0
 45
0.0
1001
ACAD
1000
AcDbSavedByObjectVersion
1070
     0
  0
VISUALSTYLE
  5
36
102
{ACAD_XDICTIONARY
360
8A9
102
}
102
{ACAD_REACTORS
330
29
102
}
330
29
100
AcDbVisualStyle
  2
Thicken
 70
    13
 71
     2
 72
     2
 73
     0
 90
        0
 40
-0.6
 41
-30.0
 62
     5
 63
     7
 74
     1
 91
        4
 64
     7
 65
   257
 75
     1
175
     1
 42
1.0
 92
       12
 66
     7
 43
1.0
 76
     1
 77
     6
 78
     2
 67
     7
 79
     5
170
     0
171
     0
290
     0
174
     0
 93
        1
 44
0.0
173
     0
291
     1
 45
0.0
1001
ACAD
1000
AcDbSavedByObjectVersion
1070
     0
  0
VISUALSTYLE
  5
30
102
{ACAD_XDICTIONARY
360
89D
102
}
102
{ACAD_REACTORS
330
29
102
}
330
29
100
AcDbVisualStyle
  2
Wireframe
 70
     5
 71
     0
 72
     2
 73
     0
 90
        0
 40
-0.6
 41
-30.0
 62
     5
 63
     7
 74
     1
 91
        4
 64
     7
 65
   257
 75
     1
175
     1
 42
1.0
 92
        0
 66
   257
 43
1.0
 76
     1
 77
     6
 78
     2
 67
     7
 79
     3
170
     0
171
     0
290
     0
174
     0
 93
        1
 44
0.0
173
     0
291
     0
 45
0.0
1001
ACAD
1000
AcDbSavedByObjectVersion
1070
     0
  0
VISUALSTYLE
  5
3C
102
{ACAD_XDICTIONARY
360
8B5
102
}
102
{ACAD_REACTORS
330
29
102
}
330
29
100
AcDbVisualStyle
  2
X-Ray
 70
    25
 71
     2
 72
     2
 73
     1
 90
        1
 40
0.5
 41
-30.0
 62
     5
 63
     7
 74
     1
 91
        0
 64
     7
 65
   257
 75
     1
175
     1
 42
1.0
 92
        8
 66
     7
 43
1.0
 76
     1
 77
     6
 78
     2
 67
     7
 79
     3
170
     0
171
     0
290
     0
174
     0
 93
       13
 44
0.0
173
     0
291
     0
 45
0.0
1001
ACAD
1000
AcDbSavedByObjectVersion
1070
     0
  0
DICTIONARYVAR
  5
79
102
{ACAD_REACTORS
330
76
102
}
330
76
100
DictionaryVariables
280
     0
  1
1:1
  0
DICTIONARYVAR
  5
78
102
{ACAD_REACTORS
330
76
102
}
330
76
100
DictionaryVariables
280
     0
  1
STANDARD
  0
DICTIONARYVAR
  5
77
102
{ACAD_REACTORS
330
76
102
}
330
76
100
DictionaryVariables
280
     0
  1
STANDARD
  0
DICTIONARYVAR
  5
886
102
{ACAD_REACTORS
330
76
102
}
330
76
100
DictionaryVariables
280
     0
  1
1
  0
DICTIONARYVAR
  5
885
102
{ACAD_REACTORS
330
76
102
}
330
76
100
DictionaryVariables
280
     0
  1
1
  0
DICTIONARYVAR
  5
884
102
{ACAD_REACTORS
330
76
102
}
330
76
100
DictionaryVariables
280
     0
  1
0
  0
DICTIONARYVAR
  5
881
102
{ACAD_REACTORS
330
76
102
}
330
76
100
DictionaryVariables
280
     0
  1
0
  0
DICTIONARYVAR
  5
882
102
{ACAD_REACTORS
330
76
102
}
330
76
100
DictionaryVariables
280
     0
  1
0
  0
DICTIONARYVAR
  5
880
102
{ACAD_REACTORS
330
76
102
}
330
76
100
DictionaryVariables
280
     0
  1
2
  0
DICTIONARYVAR
  5
87F
102
{ACAD_REACTORS
330
76
102
}
330
76
100
DictionaryVariables
280
     0
  1
1
  0
DICTIONARYVAR
  5
883
102
{ACAD_REACTORS
330
76
102
}
330
76
100
DictionaryVariables
280
     0
  1
127
  0
DICTIONARYVAR
  5
887
102
{ACAD_REACTORS
330
76
102
}
330
76
100
DictionaryVariables
280
     0
  1
2
  0
DICTIONARY
  5
8C3
330
6B
100
AcDbDictionary
280
     1
281
     1
  3
ACAD_XREC_ROUNDTRIP
360
8C4
  0
DICTIONARY
  5
8C7
330
73
100
AcDbDictionary
280
     1
281
     1
  3
ACAD_XREC_ROUNDTRIP
360
8C8
  0
DICTIONARY
  5
8C5
330
6F
100
AcDbDictionary
280
     1
281
     1
  3
ACAD_XREC_ROUNDTRIP
360
8C6
  0
DICTIONARY
  5
1A
330
19
100
AcDbDictionary
280
     1
281
     1
  3
ACAD_XREC_ROUNDTRIP
360
88F
  3
BUMPTILE
360
1C
  3
DIFFUSETILE
360
1B
  3
OPACITYTILE
360
1F
  3
REFLECTIONTILE
360
1E
  3
REFRACTIONTILE
360
20
  3
SPECULARTILE
360
1D
  0
DICTIONARY
  5
12
330
11
100
AcDbDictionary
280
     1
281
     1
  3
ACAD_XREC_ROUNDTRIP
360
88E
  3
BUMPTILE
360
14
  3
DIFFUSETILE
360
13
  3
FBXASSET
360
10B
  3
OPACITYTILE
360
17
  3
REFLECTIONTILE
360
16
  3
REFRACTIONTILE
360
18
  3
SPECULARTILE
360
15
  0
DICTIONARY
  5
22
330
21
100
AcDbDictionary
280
     1
281
     1
  3
ACAD_XREC_ROUNDTRIP
360
890
  3
BUMPTILE
360
24
  3
DIFFUSETILE
360
23
  3
FBXASSET
360
BA
  3
OPACITYTILE
360
27
  3
REFLECTIONTILE
360
26
  3
REFRACTIONTILE
360
28
  3
SPECULARTILE
360
25
  0
DICTIONARY
  5
88A
330
67
100
AcDbDictionary
280
     1
281
     1
  3
ACAD_XREC_ROUNDTRIP
360
88B
  0
DICTIONARY
  5
888
330
65
100
AcDbDictionary
280
     1
281
     1
  3
ACAD_ROUNDTRIP_2008_TABLESTYLE_CELLSTYLEMAP
360
889
  3
ACAD_XREC_ROUNDTRIP
360
8C1
  0
DICTIONARY
  5
89B
330
2F
100
AcDbDictionary
280
     1
281
     1
  3
ACAD_XREC_ROUNDTRIP
360
89C
  0
DICTIONARY
  5
899
330
2E
100
AcDbDictionary
280
     1
281
     1
  3
ACAD_XREC_ROUNDTRIP
360
89A
  0
DICTIONARY
  5
8A7
330
35
100
AcDbDictionary
280
     1
281
     1
  3
ACAD_XREC_ROUNDTRIP
360
8A8
  0
DICTIONARY
  5
8AF
330
39
100
AcDbDictionary
280
     1
281
     1
  3
ACAD_XREC_ROUNDTRIP
360
8B0
  0
DICTIONARY
  5
8A1
330
32
100
AcDbDictionary
280
     1
281
     1
  3
ACAD_XREC_ROUNDTRIP
360
8A2
  0
DICTIONARY
  5
8A5
330
34
100
AcDbDictionary
280
     1
281
     1
  3
ACAD_XREC_ROUNDTRIP
360
8A6
  0
DICTIONARY
  5
8BF
330
41
100
AcDbDictionary
280
     1
281
     1
  3
ACAD_XREC_ROUNDTRIP
360
8C0
  0
DICTIONARY
  5
8AD
330
38
100
AcDbDictionary
280
     1
281
     1
  3
ACAD_XREC_ROUNDTRIP
360
8AE
  0
DICTIONARY
  5
891
330
2A
100
AcDbDictionary
280
     1
281
     1
  3
ACAD_XREC_ROUNDTRIP
360
892
  0
DICTIONARY
  5
893
330
2B
100
AcDbDictionary
280
     1
281
     1
  3
ACAD_XREC_ROUNDTRIP
360
894
  0
DICTIONARY
  5
895
330
2C
100
AcDbDictionary
280
     1
281
     1
  3
ACAD_XREC_ROUNDTRIP
360
896
  0
DICTIONARY
  5
897
330
2D
100
AcDbDictionary
280
     1
281
     1
  3
ACAD_XREC_ROUNDTRIP
360
898
  0
DICTIONARY
  5
89F
330
31
100
AcDbDictionary
280
     1
281
     1
  3
ACAD_XREC_ROUNDTRIP
360
8A0
  0
DICTIONARY
  5
8BB
330
3F
100
AcDbDictionary
280
     1
281
     1
  3
ACAD_XREC_ROUNDTRIP
360
8BC
  0
DICTIONARY
  5
8AB
330
37
100
AcDbDictionary
280
     1
281
     1
  3
ACAD_XREC_ROUNDTRIP
360
8AC
  0
DICTIONARY
  5
8BD
330
40
100
AcDbDictionary
280
     1
281
     1
  3
ACAD_XREC_ROUNDTRIP
360
8BE
  0
DICTIONARY
  5
8A3
330
33
100
AcDbDictionary
280
     1
281
     1
  3
ACAD_XREC_ROUNDTRIP
360
8A4
  0
DICTIONARY
  5
8B9
330
3E
100
AcDbDictionary
280
     1
281
     1
  3
ACAD_XREC_ROUNDTRIP
360
8BA
  0
DICTIONARY
  5
8B7
330
3D
100
AcDbDictionary
280
     1
281
     1
  3
ACAD_XREC_ROUNDTRIP
360
8B8
  0
DICTIONARY
  5
8B1
330
3A
100
AcDbDictionary
280
     1
281
     1
  3
ACAD_XREC_ROUNDTRIP
360
8B2
  0
DICTIONARY
  5
8B3
330
3B
100
AcDbDictionary
280
     1
281
     1
  3
ACAD_XREC_ROUNDTRIP
360
8B4
  0
DICTIONARY
  5
8A9
330
36
100
AcDbDictionary
280
     1
281
     1
  3
ACAD_XREC_ROUNDTRIP
360
8AA
  0
DICTIONARY
  5
89D
330
30
100
AcDbDictionary
280
     1
281
     1
  3
ACAD_XREC_ROUNDTRIP
360
89E
  0
DICTIONARY
  5
8B5
330
3C
100
AcDbDictionary
280
     1
281
     1
  3
ACAD_XREC_ROUNDTRIP
360
8B6
  0
XRECORD
  5
8C4
102
{ACAD_REACTORS
330
8C3
102
}
330
8C3
100
AcDbXrecord
280
     1
102
SHADEPLOT
 70
     0
102
SHADEPLOTRESLEVEL
 70
     2
102
SHADEPLOTCUSTOMDPI
 70
   300
  0
XRECORD
  5
8C8
102
{ACAD_REACTORS
330
8C7
102
}
330
8C7
100
AcDbXrecord
280
     1
102
SHADEPLOT
 70
     0
102
SHADEPLOTRESLEVEL
 70
     2
102
SHADEPLOTCUSTOMDPI
 70
   300
  0
XRECORD
  5
8C6
102
{ACAD_REACTORS
330
8C5
102
}
330
8C5
100
AcDbXrecord
280
     1
102
SHADEPLOT
 70
     0
102
SHADEPLOTRESLEVEL
 70
     2
102
SHADEPLOTCUSTOMDPI
 70
   300
  0
XRECORD
  5
88F
102
{ACAD_REACTORS
330
1A
102
}
330
1A
100
AcDbXrecord
280
     1
102
MATERIAL
148
0.0
149
0.0
149
0.0
 93
        0
 94
      127
282
     0
 72
     0
 77
     0
171
     0
175
     0
179
     0
273
     0
  0
XRECORD
  5
1C
102
{ACAD_REACTORS
330
1A
102
}
330
1A
100
AcDbXrecord
280
     1
270
     1
271
     1
  0
XRECORD
  5
1B
102
{ACAD_REACTORS
330
1A
102
}
330
1A
100
AcDbXrecord
280
     1
270
     1
271
     1
  0
XRECORD
  5
1F
102
{ACAD_REACTORS
330
1A
102
}
330
1A
100
AcDbXrecord
280
     1
270
     1
271
     1
  0
XRECORD
  5
1E
102
{ACAD_REACTORS
330
1A
102
}
330
1A
100
AcDbXrecord
280
     1
270
     1
271
     1
  0
XRECORD
  5
20
102
{ACAD_REACTORS
330
1A
102
}
330
1A
100
AcDbXrecord
280
     1
270
     1
271
     1
  0
XRECORD
  5
1D
102
{ACAD_REACTORS
330
1A
102
}
330
1A
100
AcDbXrecord
280
     1
270
     1
271
     1
  0
XRECORD
  5
88E
102
{ACAD_REACTORS
330
12
102
}
330
12
100
AcDbXrecord
280
     1
102
MATERIAL
148
0.0
149
0.0
149
0.0
 93
        0
 94
      127
282
     0
 72
     0
 77
     0
171
     0
175
     0
179
     0
273
     0
  0
XRECORD
  5
14
102
{ACAD_REACTORS
330
12
102
}
330
12
100
AcDbXrecord
280
     1
270
     1
271
     1
  0
XRECORD
  5
13
102
{ACAD_REACTORS
330
12
102
}
330
12
100
AcDbXrecord
280
     1
270
     1
271
     1
  0
XRECORD
  5
10B
102
{ACAD_REACTORS
330
12
102
}
330
12
100
AcDbXrecord
280
     1
 70
     1
 90
1959938040
 71
     1
  1
ABD33C23-B691-45C2-AB22-8D84BAFAA1DF
311
504B03040A0000080000D46A37403DEE336E79000000790000001B0000006175746F6465736B2D64657369676E2D7061636B6167652E786D6C3C3F786D6C2076657273696F6E3D22312E302220656E636F64696E673D227574662D3822203F3E3C666F726D6174733E3C666F726D61743E687474703A2F2F736368656D612E
311
6175746F6465736B2E636F6D2F64657369676E2D7061636B6167652F323030393C2F666F726D61743E3C2F666F726D6174733E504B0304140006080800D46A3740D486FD9CA0000000F4000000130000005B436F6E74656E745F54797065735D2E786D6C7D8EC10E82300C865F65E91D8A1E8C310C0EEA1BF002731658846E
311
D98AC1B77784ABF1D8FE5FBFBF75BBCE937A534CCEB38643598122B6FEE978D0B0485F9C41B54DDD7D022595594E1A469170414C76A4D9A4D207E29CF43ECE46F218070CC6BECC4078ACAA135ACF422C856C0E68EA1BF5669944DDD7BCDE7B1F8E415D77AECB980613C2E4AC91FC167A2B244592486606FC29C8FD7F045B9A
311
EF7053A7E60B504B0304140006080800D46A3740AA8B7A14EA0000007C01000008000000636F72652E786D6C8D904D6EC3201085AF82668FCD4F9AA61626AADDF804BD0002E2A0C46019A87AFCE2C491DA5D57337AF3BE99D113C7EFE986BEEC125DF02DD08A00B25E07E3FCD8424E677C007494620921FDB201F26AB22DAC
311
3248312E21CF9BA4834FD6A7A2FA60EC26AA186D02A46FA56921EA8B9D54A5722A8E78AD66A5AF6AB4157D7605CED919F438E24CD9E7CECE2E20878E777B7E3A60FADA71BC63F403BFF313C7FD30746FFDCBBEEB3913F50A4B91DCF4BCAF17AB92352019A10C138A19FFA4BC61ACD9514CF60D21A25EED7FA03C9B7F42D9F9
311
C4D9F6EE038B206979E43E90A25EB328E51E54A96B6EF207504B0304140006080800D46A374055019EA25F0000007C00000007000000636E782E786D6C4DCB3B0E80201045D1AD90E915ED2CF8AC45050C11660C8261F98AB1B07AC9C97D42D718D865D3E909258CFD00CCE24AC6E326A164D74DC0B4128928FF326038472B
311
A13128B1252AC747C6BAB984FC68F0B87FE8960A5C09FE86CFB69FBA01504B0304140006080800D46A374092EA2E0F66010000020300000C0000006662782F636F72652E786D6C8D52ED8EC220107C15C27F4A01CFF30C62AE9E3EC1BD00B6D86B6CC150687CFCDB7E989E17634C134A66767667A795DB6B53A3CEF8B67276
311
83599262646CEE8ACA961B1CC389AC30DA2AE99D0B7FCA30B2BA311BDCC358C9D2BB7899A0DCD9606C00D4BAC24CA06E5B1330CA6BB86C709BFF9846273A06A868CFC945E7675D9A842540439D926DF060008D43FA13ABD3F12AE9882B1963554C6C55C0B4EA54198FD52113D952EC5784BD67822C38FB229F622FC8EE70C8
311
3E766FCB6C27B8A4BD58C950353777B9373A98022B9E324E5246B8F86662CDF97AC148BA5CA7A9A47DF99D285E8A1745B1B241F0C9EE286BB162606420FE6D0B1105D4EA0EFC5025691F22BC8684EF83864020E4A08FF56D8F33409DC983F30B600A1767AAD37534303545C323E9C842E7A1016CF6B00F7FD2E7790FF880DA
311
96604D07B81E63E8A7CB71EA14C5C578D2852BB2CE37BA9ECD8D16E7731EF4509EBBDAF957D4745A954E61D2FEEF55BF504B0304140006080800D46A37409C8097107E0000009D0000000B0000006662782F636E782E786D6C4DCCD10A83201886E15B91FFDC65F91B0DD4C06DDD472C0B99E9703A76F9ABD1C18E3E78F878
311
65FF593D79DBF4723128A84F0C880DF738B9B0282879A61D905ECB1463FEBB0109E36A15EC0C5A2E2996E741939DC7E2F3A6DE85C781D85CD899B32BE5060545C10C35031ACABBB61D6EA2310C6BA8B4AC7EA56DF7B0FE02504B0304140006080800D46A374037CC1A4E2B01000014020000310000006662782F3432433039
311
3330442D334234352D343530422D424634422D3338363646453532423034312F636F72652E786D6C8D51CB6EC32010FC158B537AC0068CDD24C24472DB7C417FC031244589C1E251E5F3BBD48ED4DE7261D1ECCCECC08AC37DBA15DFDA07E36C87684950A1EDE894B1970EA578C65B541CA4F0CEC53F3454D861D21DCA3092
311
E2E25D9A576874366A1B01B54EE9151C42D01115E30D2E1D0AE3979E8672481118E15ACEC3781D2EBAA425B4812745881E0214CB907C22C9D91BD9D5E41DD73D6F306F488FFB23EF71BD6DDBE347C37AC2A9A816A1142919B5CA8D8238E66CB47FD6248BA588667AC41FBD1EA256483242192614B3FA93D67BC6F69C62D2EE
311
091155A6FF13A5593D294AC6C69AAD71175940125EB334A4502E9D6E8F30FA3E3B1F8B3C6F13F4F88224290904DBD25726AA850A1F009E2D5F3D43741E3E78733D019B36A2CAC62D97A2CA3B82F2BB40A8799FF207504B0304140006080800D46A37408BC262484C01000033030000300000006662782F3432433039333044
311
2D334234352D343530422D424634422D3338363646453532423034312F636E782E786D6CD593BD6E032110845F05D1DF0FE79315591C9652E40952A4C5B0B6893938F113C56F9FC5C68E1B1729D3A0D3EC30B3FAC4F1EDF76CC9178468BC9B286B7B4AC029AF8D3B4C34A77DF342C956F0E07D7AB051E2E40C132D3215FC10
311
7C5EAAA4612FB34DA85AE34E550C107D0E0A22CAE526B15E498B01E09A8C22CC3BD01A34B91BF16B0F015741717726E908E4EDF583F8DD27A81479575204EF4A87E0E5AC4D0F264A9495314E34AA23CCB29539790DF1D46A9964CBDA5BD7939D7E9348B970ABCCC190523ED1725251376A9123EF7028784C01E955533A2F40
311
855C166B944C08B9BB18AF1EC1B371693D56AF41F001DD6CBD1A470CBBCC044F6686EA500164024DC5D0B3A1E95933ACDED96A330C9B9135FD7AD3F7BC2B76C177DEDB7A096320F88528EF12B84405E35D193FC3577D449B80AC7D38FF012402A8AD573AF78CFFCCA7BBBC6FC415F02F103F504B0304140006080800D46A37
311
40E3BCDDF39B0500007B100000340000006662782F34324330393330442D334234352D343530422D424634422D3338363646453532423034312F6F626A656374732E786D6CAD575B8F9B3814FE2B887D064292E9CEAC18AA5C3A55D49DB66AD46A1F468A0C18C63BE622DB4C33FBEBF73318026932CDAEFA02D8D8C7E77CE7
311
3B17076FF739B79EA990AC2C6E6DDF9DD8162DE2326145766BD72A75AE6DEB6D1888B2548365B655909CDEDA7ADA0E834C947565A6129A929AABA3D9BBE55F968C69416D2BE644CA5B5BC68F34272EA9559950F9E4264411374BF7AEEFB60BC7623341AAC723A11511B450D014F305A458AD52FE7838B1BD30F0F4FF30D04F
311
B36A767E95D7D8333E9F15529122FEE1B02331337FBE7E37BDBA71AEE6F399337F33F59DE5DD72EDF8BFCF26AB37ABD5CDE2DD0D0E964A4092D144D0D40EDF031BC1E2C06B7F8541CD0A359B9A25C6419EA0CF4C7BCA0EA7961F78ED9ADE3A63E429F5E3B22868DC6005341AFB8CE88456B448E0734625341B2034190F7D8D
311
E3E0F74C8FCD91C3E9CB1018EE1808EA74EFDE434DCBE86F98202F6190905433B0C5D218DA72757240382A4B6EFE3169E54451C108B7388B04112F7688A57A49188CC468260B1D0DDA023B8417DADF63BA208C7ECEF3535AA635E79AC676D844C10EB142956C3463FF5071D07E880C7482AF341BAE8D41EAA5A27678D352E4
311
FA884D2D9056CA490697C34CBD73363D3274A5E374B3B6C30F77D17EAB63F7F4E195282B2A94A60FA8D539AE7B6B948C4EFE459ED31BEC23550EA07C01F21F11EA0755E037C1F6F3FDDC9CA20429645A8A1CBEB1269633C16362F9CD537F0FBE02AFDF3CF6DE393CE16C0DD52FC0736CC3D0970338C3E019842FC5CC98B68D
311
0947DAB8670500D224B1788929E4E134DADBE106590E5919BB080F7D980C759FF11978460C124573D2E05D00CBA3B4784182066C0D23A1464B7EA3E0C14F3FA4B3E660B3EC1CBC57BF84AE8BF5F6C3B6162989E9BD89E9354D59C1144ADC8137438546988F2C7AA22FDF4B91C0D01FF1DE0EF1CECD5112686BCC35F05997D3
311
F5E070F2E88018FBB252A79BE02727C0085D5807F2EF998C29E7A4A065DD9DFB6AFD40D96821D6C1AE99DC179843610169DA3F473188221D0B566910FB6AD5274DF78C755F371FC1483B5CBEFC495E86D92B3AE4DEB8E4A5D8452FBB362D9D84FADB98DB06034F4B01DD9B20E9E2DF80BE4B589AD61249F004AEDF36ABA1EF
311
745A408AE8A4B6D13287FD082E220C693BB9A8D682A09296C58EA16E22EE4E1E30940F480D031A81E7349694A73BC6799DEF52C6518D7639A9CEC0F1FFF58FEABCDA91BCAC0B7546F648755487B1EE23F6CAEF44C58F76B86DDECE12B937A1C91932E85A7202AB916B17CBF56CB69ACE9CE59B1BDF995FADA6CE62399D3AD7
311
EBEBF97271B758F8EBBBCE4FAD2661D0959A6144C34B286D412D9871DFD70DE2C724013BBC274A3EBC6FC3B37B7FDDB8E885030F7B502FFB8D8BE4197D1F4D7E2EE0B0F2A4A04D5E719AD342111D43F7FA837F21E83346CAB4F39B9C64F402299FDE6F8F8CC1CC05FB3EEB78A7DF8FF69AD9950EC89342D4639D470561FC68
311
63D622E9564566F0EB7CD2BFDB42D30DF5C838069DA92C394B9007132BA3654E15B2E1054548E454827AC39E3E31778F0B763FB71DA22211A79D268F044D3297080B50AB8ED578DEFA0D4D9DEEAB6E6D945BF7090F93296C0B9CB9B5D1A42B1653E94628D0BA156A84834BC34E1E8D3F29328E5EBBDDD48FFB5D1A9B5149EE
311
975CD23F19BBDA146E0C401AA9D037A02182771A65C2A0D1CDFC8FFF93E19D3A1651F88C6AD5DB7298E88D698E4188B64699DB029A982773F41E81FABA59BEDBAC192172D12DEB5512B4521D4544D6DC14B47E46A5C5FAB3870EC5DA7CB22A5E67F0E5E5921C4141E65A073858045618991551A0EAEA8F87CFA2C44D36B7EE
311
1828F0B02AF3BC2CCC60616EC2D6F611F7DAE4016981EA0B897C984EFCE94373113077935D44247549229F30019F0AD6433C723C18D9DE165181DA1FFD3A4F3BE1889B9BB5654ADA1C420D51865955C38296A3A016A2475F2675AC0C1754AFDE05BC66295410E8E2C37F01504B0304140006080000D46A3740000000000000
311
000000000000350000006662782F34324330393330442D334234352D343530422D424634422D3338363646453532423034312F76657274696365732E62696E504B0304140006080800D46A3740F270F1330600000004000000360000006662782F34324330393330442D334234352D343530422D424634422D333836364645
311
3532423034312F747269616E676C65732E62696E636660600000504B0304140006080000D46A3740000000000000000000000000370000006662782F34324330393330442D334234352D343530422D424634422D3338363646453532423034312F617474726962757465732E62696E504B0304140006080800D46A3740D598
311
7DFC8F00000041010000360000006662782F34324330393330442D334234352D343530422D424634422D3338363646453532423034312F6469726563746F72792E786D6C858F410EC2201045AF4266AF15DDB800BA74E7C21B903225242D6328188F2FA5C4183471359997F9FF81E89FF3C41E1816475E02DF1F80A11FC838
311
6F25A438EECEC07A250251FC3803E6F58C12560C4AD840E95E91C151A72936F496F35732D860FE635F62C8F2DA16B505C545B74125BAA2FA9E05D7CC053D063734D5C7665FD55B6B8D15D5E9BFEAFD8490FFA45E504B0304140006080800D46A37405AEAEE64FC000000A00100003B0000006662782F34324330393330442D
311
334234352D343530422D424634422D3338363646453532423034312F7265736F75726365732F636F72652E786D6C8D504B6E833010BD0A9ABD01DB29699171546872825EC032136A25D8C89FAAC7AF09546A77DDCC8CDE47F3F4C4E96BBE179FE88371B6035AD650A0D56E3476EA20C52B7986E22485772EFE924161D58C1D
311
AC3048317997961DD2CE46B431A3D68DB8832A048C50E87B3E3A08FA036755AA14B322DCCA45E99B9AB0A465A6B34E8A107D0E506C4FD609D26370C96B0CA2DA58295232E3AE3163FE69AE063DC84BCFFB869F8F841E7B4E0E8CBE91577EE664B85CFA97E1A9E907CE44B59AA58866FEC9A83DAA8823485653466A4A187FA7
311
BC65AC3D5052376D5D8B6A95FF31A565FCA729191B39DBE36EB60092E6200F428A6AED2BAF479979AFDDCA6F504B010214000A0000080000D46A37403DEE336E79000000790000001B00000000000000000000000000000000006175746F6465736B2D64657369676E2D7061636B6167652E786D6C504B0102140014000608
311
0800D46A3740D486FD9CA0000000F40000001300000000000000000000000000B20000005B436F6E74656E745F54797065735D2E786D6C504B01021400140006080800D46A3740AA8B7A14EA0000007C010000080000000000000000000000000083010000636F72652E786D6C504B01021400140006080800D46A37405501
311
9EA25F0000007C000000070000000000000000000000000093020000636E782E786D6C504B01021400140006080800D46A374092EA2E0F66010000020300000C00000000000000000000000000170300006662782F636F72652E786D6C504B01021400140006080800D46A37409C8097107E0000009D0000000B0000000000
311
0000000000000000A70400006662782F636E782E786D6C504B01021400140006080800D46A374037CC1A4E2B0100001402000031000000000000000000000000004E0500006662782F34324330393330442D334234352D343530422D424634422D3338363646453532423034312F636F72652E786D6C504B01021400140006
311
080800D46A37408BC262484C010000330300003000000000000000000000000000C80600006662782F34324330393330442D334234352D343530422D424634422D3338363646453532423034312F636E782E786D6C504B01021400140006080800D46A3740E3BCDDF39B0500007B1000003400000000000000000000000000
311
620800006662782F34324330393330442D334234352D343530422D424634422D3338363646453532423034312F6F626A656374732E786D6C504B01021400140006080000D46A374000000000000000000000000035000000000000000000000000004F0E00006662782F34324330393330442D334234352D343530422D4246
311
34422D3338363646453532423034312F76657274696365732E62696E504B01021400140006080800D46A3740F270F13306000000040000003600000000000000000000000000A20E00006662782F34324330393330442D334234352D343530422D424634422D3338363646453532423034312F747269616E676C65732E6269
311
6E504B01021400140006080000D46A37400000000000000000000000003700000000000000000000000000FC0E00006662782F34324330393330442D334234352D343530422D424634422D3338363646453532423034312F617474726962757465732E62696E504B01021400140006080800D46A3740D5987DFC8F00000041
311
0100003600000000000000000000000000510F00006662782F34324330393330442D334234352D343530422D424634422D3338363646453532423034312F6469726563746F72792E786D6C504B01021400140006080800D46A37405AEAEE64FC000000A00100003B00000000000000000000000000341000006662782F3432
311
4330393330442D334234352D343530422D424634422D3338363646453532423034312F7265736F75726365732F636F72652E786D6C504B0506000000000E000E0080040000891100000000
310
504B03040A0000080000D46A37403DEE336E79000000790000001B0000006175746F6465736B2D64657369676E2D7061636B6167652E786D6C3C3F786D6C2076657273696F6E3D22312E302220656E636F64696E673D227574662D3822203F3E3C666F726D6174733E3C666F726D61743E687474703A2F2F736368656D612E
310
6175746F6465736B2E636F6D2F64657369676E2D7061636B6167652F323030393C2F666F726D61743E3C2F666F726D6174733E504B0304140006080800D46A3740D486FD9CA0000000F4000000130000005B436F6E74656E745F54797065735D2E786D6C7D8EC10E82300C865F65E91D8A1E8C310C0EEA1BF002731658846E
310
D98AC1B77784ABF1D8FE5FBFBF75BBCE937A534CCEB38643598122B6FEE978D0B0485F9C41B54DDD7D022595594E1A469170414C76A4D9A4D207E29CF43ECE46F218070CC6BECC4078ACAA135ACF422C856C0E68EA1BF5669944DDD7BCDE7B1F8E415D77AECB980613C2E4AC91FC167A2B244592486606FC29C8FD7F045B9A
310
EF7053A7E60B504B0304140006080800D46A3740348F4DABEB0000007C01000008000000636F72652E786D6C8D90416E83301045AF82666FB00DA10419472D8113F40296ED102BC146D8AE7AFC9A8448EDAEAB19FDF96F66F4D9E97BBE675F7AF5C6D90E488E21D3563A65ECD4410C17D44076E26C752EFCB24166C5AC3BD8
310
64E06C5A5D5C76493A1BB40D49B54EE95D14DEEB0099BCA7A6032FAF7A16B9882139FC2D5F84BC8949E7E4D5253846A3B2E711A3D23E73317A053ED4C348AB66404379EE5175184B743C1F8EE8A3AAFBF77E1C8E6FB861C5067316CCFCBA2F572D8256C0292614618268F949CA96D2B62208D72DC6ACD8EC7FA0B8A87F42D1
310
D850D2FDDD27E68193F4C863C059B16591CA23A854B7DCF80F504B0304140006080800D46A374055019EA25F0000007C00000007000000636E782E786D6C4DCB3B0E80201045D1AD90E915ED2CF8AC45050C11660C8261F98AB1B07AC9C97D42D718D865D3E909258CFD00CCE24AC6E326A164D74DC0B4128928FF32603847
310
2BA13128B1252AC747C6BAB984FC68F0B87FE8960A5C09FE86CFB69FBA01504B0304140006080800D46A37407095DA5167010000020300000C0000006662782F636F72652E786D6C8D52ED8E8230107C95A6FF4BA1A0A7A6D4DC293EC1BD4085CA11A125A5253EFE2D1F86F3628C2129CDCCCEEEEC00DFDF9A1AF5CA7695D1
310
298E821023A5735354BA4CB17717B2C1682FB835C6FD29C348CB46A57880B1E0A535BE9DA1DC68A7B403549B42CDA0EC3AE530CA6BB8A4B8CB7F542303E91D5474D7A095F955962A8802A0A14EF0CE593080A621C389C5E57CE374C205F7BE2A66B62A605A75A994C5225B6727966C3292C5C7034956A7986C8FAB2DF94AD6
310
87CFC329DB7E841B4E07B1E0AE6AEEEE72ABA45305162C8C180923C2E2EF28DE31B64B2212AE7761C8E950FE20F26DF1A6C857DAC56CB63BC93A2C22303212FFB685881CEA640F7EA8E07408115E63C28F41432010B293E7FABEC715A05EE5CED80498C2F885EA65ED154C0DD1F8703AB1D0796C009B3DEDC35EF479DD033E
310
A0D42558930EAE67EF86E97C9A3A47D12A4B7A7743DAD846D68BB9C9E2722E839ECA73531BFB8E9ACEABD2394C3AFCBDE217504B0304140006080800D46A3740C26A6ED77C0000009D0000000B0000006662782F636E782E786D6C4DCCD10A83201886E15B91FFDCA5C33505355CDE482C0B99E9701A5DFE6A74B0A30F1E3E
310
5ED96D4B40ABCB1F9FA2027A21805C7CA6D1C759412D13E6803A2D734AE5EF06280E8B5370306839E754DF278D6E1A6A28BB061F5F27B6E2C60CB1776C487FC54C0883051704B38765BDE594F09642A365F32BED7B84F517504B0304140006080800D46A3740D79B708E2901000014020000310000006662782F3639353441
310
3044372D413043322D343939412D393839302D3442443443443831303836312F636F72652E786D6C8D51CB6EC32010FC158B537AC006ECFA1161A234F984FE8003C44589C1E251E5F3BBAE1DA9BDE5C2A2D999D981E587C774CFBEB50FC6D91ED19CA04C5BE994B1638F52BCE2166507C1BD73F10F0D657698748F1618093E
310
7A97E60D92CE466D23A0D629BD8143083AA24CDEE1D2A320BFF434E4438AC008B77C1EE46D18754E7368034FF0103D04C8D621CB8944DDBD5747726EF0919C18AEBAEE88BBB623B8FA3857A7734B495B535EAC42C153326A931B0571CCD568FFAAC922163C9AE9195F7A3D44AD906084324C2866E5272DF78CED2B8A49BD27
310
84170BFD9F28CDEA45513236966C8BBBCA0212F09AB521B872E9727F86D18FD9F9982DF37641CB3724484E186D48D734BC58A9F001E059579B6788CEC307EF6E1760979B715D095E2C3B82F2BB40A8CB3EC50F504B0304140006080800D46A3740ED65AD5F5301000033030000300000006662782F36393534413044372D41
310
3043322D343939412D393839302D3442443443443831303836312F636E782E786D6CBD93CD6EC32010845F0571F7BF65451126520F7D821E7AC5B04968305880ABE6EDBB2424CD25874A552FC89A1D66569F30DB7DCD867C820FDAD99136654D0958E994B68791AE715F6C28D971E69D8B0F364AAC9861A449A69C1DBC5B97
310
2C29D88BD544548DB6A72C7A086EF51202CAE926314E0A8301608B15459827500A14B91BF16B0F1E5741713A937804F2FAF24EDCF401320656A514CEAAD4C1593A73D3838912694408230DF208B328C51A9D82702A9588A26CCA5BD7939D7E9248BA70AB5CBD26A97CA4E9A43C6F54224756E190B3103DD2CBA6785E8072B1
310
2C464B11117275315E3D9CADDAC6A1CF5E8DE03DBABB76D86C30EC32E32CEA19B2437A101114E56DDDB445DD146DF7D674DBB6DDF64D510FDBBA6655B273363967F2258C01EF16229D8D6023E50DABD2F819BEEC234A7B64EDFCF9172011406EBDD2B967FC259F66E8FAFE1FF95497F78DB83CFE05FC1B504B030414000608
310
0800D46A37401383250F59070000941B0000340000006662782F36393534413044372D413043322D343939412D393839302D3442443443443831303836312F6F626A656374732E786D6CED595B73A33614FE2B0C7D3636B6B34D3A841D5F363B9E36EDCEBABBD387CC3032C8448D108C24B2717F7D8F2E602026C1DDF46D1F
310
6C404847E77CE7AA43F0FE29A3CE23E682E4ECDAF5BD89EB6016E70961E9B55BCAFDE8D275DE8701CF73D998E63A0C65F8DA55C36E18A43C2F0B3B94E03D2AA9EC8CDE2CFF72448C19769D982221AE5D11DFE30C79A8947982C583972089BC74FFE4F99E99D8269B7254DC7788168863268153186740C5314CF9EDC7893B0E
310
83B17A1F06EADFCE9A0D9A35EF9F35D652B7B9244C48C4E2672C75C8CC06B134F3E7EB0FD38BABD1C57C3E1BCDDF4DFDD1F266B91EF93FCF26AB77ABD5D5E2C315B0B7CB736A654A70815902FA3BB8A11F8CD59B5A748BC029AEE39C311C6B20012A2D569720C102B66AC037693FFA4AA2C66B2D61E379AEDE5B161AC3B336
310
95BE59C38068D10541EC7695C4D5B5295FBEFB1B0417438C920B2C815B213968D7C2C3C12BDC70128CCD6818EC8EBA20C2C990C49C20EA50B2E388835260AA9A1206668125A39C8303294749A035675EB76D0B3CF375D739C5E5BEA45479861B6AC78AC0FDB0149A33F20FE647EE9BC8004F206D4998BCB45CCA4381DDF02A
310
18EBC1305097D9D4BE34403A7B8A52A111316F3B82AE94EB6FD66EF8EBCDEE69ABC2C1E9CD0B9E17984B65744A8F9A2F30647B5528D96DFD419A530B401803AA5D7904E53320FF3B448F232BA0374E9EE64F733B5772C4C43EE719E8C69938A309FC4D1C5FFFABFBC65D30AE17B7B5D78727B8A982EAF2FBF16CCBA0B1B2FC
310
37E00C834730F89CCFECAB6D8C28D8F32D610090321287E63004A17DBF7B72C30D044E08F4B00AD1D0079181DD47B80DC696CC512B957B59AF6380A8DD63364449009BB64860A3474F1F217B70121FD5D414B10FDE8B3731D7C57AFBEBB6E47B14E35BEBD36BBC278C48C89AA7196A61DE92E8011FBEE53C01419FE3BD6DE2
310
9DD9AD04A0AD3057C0A71508EAE1B8736B8318D6A5B90A37C12B3B80102A5737E8DF1211634A11C37959ED5B473765A8B5C7DB9AC10DA706E2D9B463C21C3F12555580D31C67B41885BC1F73522810DDF0A391AC0E9A5E8F745F36BF8345D6F37B666D18845E86E89F3A689DC0A165D915D216885AE0DD319CC739CD79B43B
310
4426D2B9504B001B6D6FF9DA220AB1DE284951010FD27E578594D4481B2564BF2F05C4D5132C7EDDAC9AE630F166FE85D3FCEF38E31CA22DF82EE2D6EF3A7B442443298EF628E9DBAEB95B4D5B68923DA439DE53908B3C127988908C26094ECF81E62CE2576F4A3DA5B910846101F9EA24F84D34261E0412A3CD8A65A5D50E
310
D044441996889E838022D303AE4E3BBAC68DA174789DC7DA7A5FD25893E8FF64111C412D99B38840290A39E455C67DEF0262481B5D8372075FB0B68AB61683965042C487E81B26E9BD3C077543BE07F7188E24A58CF202C560D603C83EF315A5D40EEF3B143FA8FC11C5257D2B031198EE2342699945F0230C4E1E435CBB0E
310
4C2FA2D0206E629FC419146548967CC826EF2E26CFF631354337043636DA130A613BCA50D1837A2B20EA7AC4A9C1B7D47B94BA2BB32242595EB24186E2CDBADE64C977D5AAC80EE457958A503656842DC130204CD659B58AD960EA3AB0821BE940758804CA0A6A4E61AF241EBFF6264DB977036EFDF46D37C8A0F0EBD15E33
310
A2CE2B182C8FADC2407C4332BE77C3ADBE8E96507F273839A6FAAAD66C568080988AE4252756455F3650DED81ACD0D6F9114771F4DD6ADAE5F361E743F8231AC81DAA55EB85140679849A42A935B75433F2308C12D1A667CA372EA39541649A2AB46446F489F3A5B65446BD38C78C53D6679063F7647584CCB04DFA1443C44
310
B792465BA258B7527A19A9307E51C03F3E6E3BF0C0C800913EA9020F7FEBACB5A32B552E9D2422EFCB6CC7108120D8122D35BAF10A965A8D545AAEAFEA4C017517189855F1FCC7C9A2D98EF871B248AD617CD7C96279F80D1D9A7D91463A8F955D9F750CA8F393A2F216C700DD76A8A9D659C424732BBF75A608826215E507
310
576355D03004FB38FECF59BB2F0B9AED3AFC9F97B5FD6715C75959A5355975A94E54AE9B660E5B2CD7B3D96A3A1B2DDF5DF9A3F9C56A3A5A2CA7D3D1E5FA72BE5CDC2C16FEFAA646533B6A18D4C14CE72E783641AD1A564F1603E8CA8A9C92044EF389936288F912CEF403DAE73CC3029267B3D99DD8A6FC80D58FA6CF29D1
310
8EE28A937B040D622A20AD0346652CDBE3CE4FD09A9470D0BE76A169E43DC09FB54AD781CC73ED42AB4092180B6F076D26D5D0D3C421E5EADC6F89013E88A52A259A45F573BD4A61D30AFFF5942169C0CAD5EA6140E15640F7ABD5A1D0BC599EE2B304AFD8719084DB5D29A15A33B21C076A61F43647F51BD928610F76EB27
310
70DD97C5F23D3DA785C8A04F062F1A81A13A9288A7BADFAD18B32C2DD69FC6D06773367F38052D53D0E5704A238EC1984B555081158155589A059260AAAB5FEE3EF11C3EF1648EAE8AEE567996E5CC3E2CE03C96C02722677B0F1F7C923B281BB06AAB8BBBE9C49FDEE976B6EDB0473B24B0A7EA2118A8CA082542C7D8C022
310
9FB5A66CE372AC94D099BE593B367C421BC058D0B3EEAEF9BCE580F7A80F29CA57B4875772BED8D11EEBA9600D1C7AD1E1BF504B0304140006080000D46A3740000000000000000000000000350000006662782F36393534413044372D413043322D343939412D393839302D3442443443443831303836312F766572746963
310
65732E62696E504B0304140006080800D46A3740F270F1330600000004000000360000006662782F36393534413044372D413043322D343939412D393839302D3442443443443831303836312F747269616E676C65732E62696E636660600000504B0304140006080000D46A37400000000000000000000000003700000066
310
62782F36393534413044372D413043322D343939412D393839302D3442443443443831303836312F617474726962757465732E62696E504B0304140006080800D46A3740D5987DFC8F00000041010000360000006662782F36393534413044372D413043322D343939412D393839302D3442443443443831303836312F6469
310
726563746F72792E786D6C858F410EC2201045AF4266AF15DDB800BA74E7C21B903225242D6328188F2FA5C4183471359997F9FF81E89FF3C41E1816475E02DF1F80A11FC8386F25A438EECEC07A250251FC3803E6F58C12560C4AD840E95E91C151A72936F496F35732D860FE635F62C8F2DA16B505C545B74125BAA2FA9E
310
05D7CC053D063734D5C7665FD55B6B8D15D5E9BFEAFD8490FFA45E504B0304140006080800D46A374027246333FE000000A00100003B0000006662782F36393534413044372D413043322D343939412D393839302D3442443443443831303836312F7265736F75726365732F636F72652E786D6C8D504B6E833010BD0A9ABD
310
C1362485C8386A039CA017B0CC24B512ECC89FAAC7AF49A8D4EEBA9919BD8FE6E989E3D7722B3ED107E36C0FACA450A0D56E36F6D2438A67D2427194C23B177FC9A0B06AC11E5618A4B87897EE1BA49D8D686346AD9B7103550818A1D0B77CF410F4072EAA54296645B89677A5AFEA82252B339D755284E87380E2F9649D20
310
3D0697BCC620AA272B454A66DE3466CE3FCDD9A00739EEC78937ED40C67A38916637D5A41B761D796BF6A7D7D334762FB415D56A96229AE527A3F6A822CE2039659C504678FDCEEA03E7878611BA3F502AAA55FEC794EEF33F4DC9D858F32DEED31640B21CE4414851AD7DE5F52833EFB55BF90D504B010214000A00000800
310
00D46A37403DEE336E79000000790000001B00000000000000000000000000000000006175746F6465736B2D64657369676E2D7061636B6167652E786D6C504B01021400140006080800D46A3740D486FD9CA0000000F40000001300000000000000000000000000B20000005B436F6E74656E745F54797065735D2E786D6C
310
504B01021400140006080800D46A3740348F4DABEB0000007C010000080000000000000000000000000083010000636F72652E786D6C504B01021400140006080800D46A374055019EA25F0000007C000000070000000000000000000000000094020000636E782E786D6C504B01021400140006080800D46A37407095DA51
310
67010000020300000C00000000000000000000000000180300006662782F636F72652E786D6C504B01021400140006080800D46A3740C26A6ED77C0000009D0000000B00000000000000000000000000A90400006662782F636E782E786D6C504B01021400140006080800D46A3740D79B708E290100001402000031000000
310
000000000000000000004E0500006662782F36393534413044372D413043322D343939412D393839302D3442443443443831303836312F636F72652E786D6C504B01021400140006080800D46A3740ED65AD5F53010000330300003000000000000000000000000000C60600006662782F36393534413044372D413043322D
310
343939412D393839302D3442443443443831303836312F636E782E786D6C504B01021400140006080800D46A37401383250F59070000941B00003400000000000000000000000000670800006662782F36393534413044372D413043322D343939412D393839302D3442443443443831303836312F6F626A656374732E786D
310
6C504B01021400140006080000D46A37400000000000000000000000003500000000000000000000000000121000006662782F36393534413044372D413043322D343939412D393839302D3442443443443831303836312F76657274696365732E62696E504B01021400140006080800D46A3740F270F13306000000040000
310
003600000000000000000000000000651000006662782F36393534413044372D413043322D343939412D393839302D3442443443443831303836312F747269616E676C65732E62696E504B01021400140006080000D46A37400000000000000000000000003700000000000000000000000000BF1000006662782F36393534
310
413044372D413043322D343939412D393839302D3442443443443831303836312F617474726962757465732E62696E504B01021400140006080800D46A3740D5987DFC8F000000410100003600000000000000000000000000141100006662782F36393534413044372D413043322D343939412D393839302D344244344344
310
3831303836312F6469726563746F72792E786D6C504B01021400140006080800D46A374027246333FE000000A00100003B00000000000000000000000000F71100006662782F36393534413044372D413043322D343939412D393839302D3442443443443831303836312F7265736F75726365732F636F72652E786D6C504B
310
0506000000000E000E00800400004E1300000000
  0
XRECORD
  5
17
102
{ACAD_REACTORS
330
12
102
}
330
12
100
AcDbXrecord
280
     1
270
     1
271
     1
  0
XRECORD
  5
16
102
{ACAD_REACTORS
330
12
102
}
330
12
100
AcDbXrecord
280
     1
270
     1
271
     1
  0
XRECORD
  5
18
102
{ACAD_REACTORS
330
12
102
}
330
12
100
AcDbXrecord
280
     1
270
     1
271
     1
  0
XRECORD
  5
15
102
{ACAD_REACTORS
330
12
102
}
330
12
100
AcDbXrecord
280
     1
270
     1
271
     1
  0
XRECORD
  5
890
102
{ACAD_REACTORS
330
22
102
}
330
22
100
AcDbXrecord
280
     1
102
MATERIAL
148
0.0
149
0.0
149
0.0
 93
        0
 94
      127
282
     0
 72
     0
 77
     0
171
     0
175
     0
179
     0
273
     0
  0
XRECORD
  5
24
102
{ACAD_REACTORS
330
22
102
}
330
22
100
AcDbXrecord
280
     1
270
     1
271
     1
  0
XRECORD
  5
23
102
{ACAD_REACTORS
330
22
102
}
330
22
100
AcDbXrecord
280
     1
270
     1
271
     1
  0
XRECORD
  5
BA
102
{ACAD_REACTORS
330
22
102
}
330
22
100
AcDbXrecord
280
     1
 70
     1
 90
1959938040
 71
     1
  1
BE772417-E351-4714-BDBB-3B06F087A380
311
504B03040A0000080000D46A37403DEE336E79000000790000001B0000006175746F6465736B2D64657369676E2D7061636B6167652E786D6C3C3F786D6C2076657273696F6E3D22312E302220656E636F64696E673D227574662D3822203F3E3C666F726D6174733E3C666F726D61743E687474703A2F2F736368656D612E
311
6175746F6465736B2E636F6D2F64657369676E2D7061636B6167652F323030393C2F666F726D61743E3C2F666F726D6174733E504B0304140006080800D46A3740D486FD9CA0000000F4000000130000005B436F6E74656E745F54797065735D2E786D6C7D8EC10E82300C865F65E91D8A1E8C310C0EEA1BF002731658846E
311
D98AC1B77784ABF1D8FE5FBFBF75BBCE937A534CCEB38643598122B6FEE978D0B0485F9C41B54DDD7D022595594E1A469170414C76A4D9A4D207E29CF43ECE46F218070CC6BECC4078ACAA135ACF422C856C0E68EA1BF5669944DDD7BCDE7B1F8E415D77AECB980613C2E4AC91FC167A2B244592486606FC29C8FD7F045B9A
311
EF7053A7E60B504B0304140006080800D46A374031559583E90000007C01000008000000636F72652E786D6C8D90416EC3201045AF62CD1E1BB09DA41626B21BDFA01740405C94182C03558F5F481CA9DD7535A33FFFCD8C3E3B7F2FF7E24B6FDE38DB03293114DA4AA78C9D7B88E18A4E509C39DB9C0BBF6C5058B1E81EB2
311
0C9CCD9B8BEB2E496783B621A9D629BD8BC27B1DA090F7D4F4E0E5A75E442962480E7F2B57216F62D6257975098ED1A8E279C4A8B4CF5C8DDE800F473C3697A146CD380DA8A11345637BC0A8998E6D3BBED76F9713615586390B6679DD979B16412BE014138A3041B4FE20754769D760840F1DC6ACCAF63F505CD53FA1686C
311
A8E9FEEE13F3C0F3238F016755CE22954750A9E6DCF80F504B0304140006080800D46A374055019EA25F0000007C00000007000000636E782E786D6C4DCB3B0E80201045D1AD90E915ED2CF8AC45050C11660C8261F98AB1B07AC9C97D42D718D865D3E909258CFD00CCE24AC6E326A164D74DC0B4128928FF326038472BA1
311
3128B1252AC747C6BAB984FC68F0B87FE8960A5C09FE86CFB69FBA01504B0304140006080800D46A3740C55178B665010000020300000C0000006662782F636F72652E786D6C8D52ED8E8320107C15C27F04D17E5C8334F5DA37B817A04A3D53058360FAF8B77E34BD5E9AE66282646667777654EC6F6D8306EDFADA9A0CC7
311
11C3489BC296B5A9321CFC856C31DA4BE1ACF5BFCA3032AAD5191E612C45E56CE816A8B0C66BE30135B6D40BA8FA5E7B8C8A062E19EE8B6FDDAA48050F15FD35EA547155958EE20868A893A2F70E0CA079C878627939DF049D712942A8CB85AD4B98565F6AEDB03C6C589E1E0F0949F3D381A4FCC449BE5A33929E36AB55FE
311
997C1CB7B1A0A3580A5FB7777785D3CAEB124BCE624E584C78F215273BCE7729236CBD634CD0B1FC4914BAF29FA2501B9FF0C5EE2CEBB11C8D4CC49F6D21228F7A35801F2A051D4384D794F073D0100884ECD5B9B9EF710568D085B72E05A6B4E1410DAA091AA632343D82CE2C749E1AC0662FFBF0377DDEF7800FA84C05D6
311
9487EB39F871BA98A72E5174DA91C1DF90B1AE55CDC3DC6CF1713E06BD9417B6B1EE3F6ABAAC4A9730E9F8F7CA1F504B0304140006080800D46A374085C80EC17C0000009D0000000B0000006662782F636E782E786D6C4DCCD10AC2201886E15B91FFDC96A9E0401D9A741FA3B921390DD3E8F2DB62071D7DF0F0F1CAE1B3
311
46F4F6E5157252404E67403EDDF314D2A2A0D5190B40839625E7FA770394C6D52BD819B45C4A6ECF83263F8F2DD64D63488F031977D470CB30A7BDC5CC70870D25045B73BD09672F42D01E3A2DBB5F69DB3DACBF504B0304140006080800D46A37409A9BB7AA2C01000014020000310000006662782F34354433413542342D
311
353339422D344135442D413331312D4241434638444232383833392F636F72652E786D6C8D51CB6EC32010FC15C4293D60F3B02D27C24476A37E417F80D8244589C1E251E5F30BB523B5B75C58343B333BDAE5C7C77C07DFCA796D4D074981215066B49336D70EC670412D0447C19DB5E10F0D022367D5C10C43C1AFCEC665
311
83466B823221A1C64E6A03A5F72A4030DED3A7837EFC52B32C640C89E16FC522C79BBCAA8214A99D7882FBE05200B00EC92F14557D627D3D54A866FB01557D7D423D23040DFDFB477B1A68DBB23D2F57A1E031EA6993EB29C5D117ADDCAB26592C78D0F333FEE8940C6A82826242112688B24FC20E941E2A8C7073C0989799
311
FE4F1497E94551D42630BAC55D651E0AC2CBB521F864E3F9FE0CA31E8B7501E4793BAFC63728708129C10D6E6B5EAED4B480E4D9549BA70FD6A505EF6EE7C42689958D9B4AF032DF2895DF03A69AEF297E00504B0304140006080800D46A37408AD7E6394C01000033030000300000006662782F34354433413542342D3533
311
39422D344135442D413331312D4241434638444232383833392F636E782E786D6CD593CD6EC32010845F0571F76FACA8B230917AE813F4D02B864D4283C1E2A76ADEBE4B42D25C72E8B11764CD0E33AB4F98EDBE1743BEC007EDEC44BBBAA504AC744ADBC34453DC572F94EC38F3CEC5071B25562C30D12C53CE0EDEA5B548
311
0AF6229988AAD1F654440FC1252F21A09C6F12E3A4301800B64A28C2328352A0C8DD885F7BF0B80A8AF399C42390B7D70FE2E64F9031B026A770D6E40ECEF2599A1E4C944823429868904758442D52740AC2A956228ABAAB6F5D4F76FA4D22F9C2AD32794D72F944F34979D9A8468EACC12167217AA4574CF1BC02E5625D8D
311
962222E4E662BC7A384BDAC6ED50BC1AC17B7477DBCD3060D865C659D40B1487F4202228CAFBB6EBABB6ABFACD7BB719FB7E1CDAAADD8E6DCB9A6CE76C76CE944B1803DEAD443A1BC146CA3BD6E4F1337CC54794F6C8DAF9F31F402280D27AA573CFF8CF7C9ACBFB465C1EFF02FE03504B0304140006080800D46A3740704D
311
197F9A0500007A100000340000006662782F34354433413542342D353339422D344135442D413331312D4241434638444232383833392F6F626A656374732E786D6CAD57DB6EDB3810FD1541FBEC8B6CA749168A8AD84E0AA3485BD468B10F010C4AA2146E285120A9D4D9AFDF4389BAB976EA5DF4C5B2A8E170E6CC990BFD
311
F7FB8C3B2F542A26F21BD71B4F5D87E69188599EDEB8A54E4657AEF33EF0A510BA27E63A39C9E88D6B96DDC04FA5280BBB14D384945C1FACDE2FFF72544473EA3A11274ADDB82A7AA2191993528B98AAE7714C3419A7C97EEC8D6BC1A1DA5492E2E940694124CD352CC57A0E2D4E6D94377C9DBA93C09F98EF816F7EADD4FC
311
B4D4A4F267783ECB952679F4D361076AE6DE627D37BBB81E5D2C16F3D1E2DDCC1B2DEF97EB9177399FAEDEAD56D7B777D7385869094DD612491337F8006C248BFC49FD29F04B96EBF9CC8AD8004D247D6126526E30733C7F52CBB4DE59278F991F893CA7518515D0A8FCB3AA635AD03C46CC1955B0AC87D074F8EA191C7B9F
311
E7E6DD1ED95F3E0F81FE8E9EA2C6F6E6D9B754847FC305750E83A4A286813596D6D19AABD30EE150086EBF31E5644453C90877380B2591AF6E00512312F8033586C9D26483F1C00D1085FAF3902E48A35FF3FC989549C9B9A1B11B5459B043AE50AD2ACBD83F5476D6F791814D889561C3957548BF16D40DAE6B8A5C1DB0A9
311
06D24938491172B86976CE67078EAE4C9E6ED66EF0F13EDC6F4DEE1E3FBC90A2A0521BFA805A4DE09AA741C9DAE49D1539B3C13D30A503E52B90FF8454EF4C41DC24DB2FF60B7B8A96245789901962E34C9DD1143F53C7AB7ECDFFDE3F7FD26E1E46EF149E08B681EA37E039F4A11FCB1E9C81FF02C20B39B7AE6D23C25136
311
1E580E800C491C2EB0843A9C847B37D8A0CAA12A6317E181079761EE0BFEFA13AB0685A23AA9F7CC81E541593CA34003B68A9130A326BF35B08BD34FE5AC3AD88A9D82F7E2B7D0F576BDFDB82D654222FA60737A4D1396338D16D7F1A66FD000F38147CFF4F58790311CFD19EF6D1FEFCC1EA580B6C1DC009F3635DDBC7427
311
0F0E88B02F15A6DCF8BF38014E98C6DAD3FFC05444392739156573EE9BFD036DA386D824BB6172DB60BAC602D2D45F0E72104D3A92AC3020B6DDAA2D9AE313DE7DDB7C022321CF454878271476A537125CC85DF8BAABABD251A4BF0FA96D2198182D607B95234DFA5BCC77314B9252A1061E81F5FB66D50F9DA90AA8108DD6
311
3A5916701FB945A4E56CA317CD5A12345291EF18DA26D2EEE8017DFD40D412A05278CA624579B2639C97D92E611CCD689791E2041CFFDFFEB0CC8A1DC94499EB13BA07A6A3390C6D1F9057FD203A7A72836DF51C2D517A631A77611E089B567204AB416897779797B3857739BA9B5F78A3C5A5B7182DD7CBE568BE9CBEBB9F
311
5E5DDECEAF3A8BAA192AF09B4ED34F6844099DCD2F25B3E1FBB641FAD81AE0060F44ABC70F757636CF6F9B3146617F823D6897EDC6DBF805631F8D7FADA0933CAA6893159C6634D7C4A4D083F9C3BF128C190363EAF54D46527A8696CF1FB607CE60E58C7D5F4CBAD31F077BEDEACA24E45125FAA9CCC29C307EB031AD911C
311
17796AF16B62D23EEB3ED3BC9A371B180CA64A7016A30CC64E4A4546358AE1193D486654817AFD913EB6578F3376BFD403A22621A78D254F04333257480BF0B68CF470DDF903339D19AB6E5C74DBF1337E6CA5701D70E6C6C58CAE5944D538447F369350A51C5CEA0FF2E02CC9538E51BBDED4BEB7BB0C36838EDC8A9C333E
311
59BFEA0A6E1D4019293036601E42742A6302BFB2CD7E8FFE93E38D390ED1F81B96BAF5A55B689DA98E418AD64ED9CB026698677BF41E89FAB65BDEB892192072D625EB4D12D45A479AC8B4BA2818FBAC49B7EB2F130C28CEE6B353F032452CCFD7349214642E4D8283456085D559100DAAAEFE7CFC22052EB29973CF4081C7
311
95C83291DB975B7B1176B64FB8D6C68F280BD4DC47D4E36CEACD1EAB7B80BD9AEC42A2E898C4EA190B88A9642DC483C08391F565111DA8FED0CA4D4C100EB8B9593BB6A52DA0D412A55F550D2C983872EA207BCC5DD2E44A5FA078F32A30A9446182C4101FFC0B504B0304140006080000D46A374000000000000000000000
311
0000350000006662782F34354433413542342D353339422D344135442D413331312D4241434638444232383833392F76657274696365732E62696E504B0304140006080800D46A3740F270F1330600000004000000360000006662782F34354433413542342D353339422D344135442D413331312D42414346384442323838
311
33392F747269616E676C65732E62696E636660600000504B0304140006080000D46A3740000000000000000000000000370000006662782F34354433413542342D353339422D344135442D413331312D4241434638444232383833392F617474726962757465732E62696E504B0304140006080800D46A3740D5987DFC8F00
311
000041010000360000006662782F34354433413542342D353339422D344135442D413331312D4241434638444232383833392F6469726563746F72792E786D6C858F410EC2201045AF4266AF15DDB800BA74E7C21B903225242D6328188F2FA5C4183471359997F9FF81E89FF3C41E1816475E02DF1F80A11FC8386F25A438
311
EECEC07A250251FC3803E6F58C12560C4AD840E95E91C151A72936F496F35732D860FE635F62C8F2DA16B505C545B74125BAA2FA9E05D7CC053D063734D5C7665FD55B6B8D15D5E9BFEAFD8490FFA45E504B0304140006080800D46A374022FEBB1BFC000000A00100003B0000006662782F34354433413542342D35333942
311
2D344135442D413331312D4241434638444232383833392F7265736F75726365732F636F72652E786D6C8D50596EC32010BD8A35FFD8183B4B2D4C1437B9412F8060E2A0C410B1543D7E2171A5F6AF3F33A3B7689E1E3F7C2DF7EA137D30CE8ED0D6142AB4CA6963E71152BC903D5407C1BD73F1970C2A2B171CA1C020F8EC
311
5D7AAC907236A28D19B54EE30ACA103042A5EEF91821A82B2EB296296645B8D50FA96E72C6BAAD339D758287E87380EAF5A44C101E834B5E61E0CD8B153C25A3578DD1F9A7B918F4208E3B3AF5A72323FD743E929E9D1999365B4AFAF36EB399DEBBB7D3BEE54D310B1ECDF293517994113508465B46684B58F7D176036343
311
4F09DD0E94F2A6C8FF98D243FFD3948C8D1D5BE3BE6C014409F224046F4A5F793DCBCCBB742BBE01504B010214000A0000080000D46A37403DEE336E79000000790000001B00000000000000000000000000000000006175746F6465736B2D64657369676E2D7061636B6167652E786D6C504B01021400140006080800D46A
311
3740D486FD9CA0000000F40000001300000000000000000000000000B20000005B436F6E74656E745F54797065735D2E786D6C504B01021400140006080800D46A374031559583E90000007C010000080000000000000000000000000083010000636F72652E786D6C504B01021400140006080800D46A374055019EA25F00
311
00007C000000070000000000000000000000000092020000636E782E786D6C504B01021400140006080800D46A3740C55178B665010000020300000C00000000000000000000000000160300006662782F636F72652E786D6C504B01021400140006080800D46A374085C80EC17C0000009D0000000B000000000000000000
311
00000000A50400006662782F636E782E786D6C504B01021400140006080800D46A37409A9BB7AA2C0100001402000031000000000000000000000000004A0500006662782F34354433413542342D353339422D344135442D413331312D4241434638444232383833392F636F72652E786D6C504B01021400140006080800D4
311
6A37408AD7E6394C010000330300003000000000000000000000000000C50600006662782F34354433413542342D353339422D344135442D413331312D4241434638444232383833392F636E782E786D6C504B01021400140006080800D46A3740704D197F9A0500007A10000034000000000000000000000000005F080000
311
6662782F34354433413542342D353339422D344135442D413331312D4241434638444232383833392F6F626A656374732E786D6C504B01021400140006080000D46A374000000000000000000000000035000000000000000000000000004B0E00006662782F34354433413542342D353339422D344135442D413331312D42
311
41434638444232383833392F76657274696365732E62696E504B01021400140006080800D46A3740F270F133060000000400000036000000000000000000000000009E0E00006662782F34354433413542342D353339422D344135442D413331312D4241434638444232383833392F747269616E676C65732E62696E504B01
311
021400140006080000D46A37400000000000000000000000003700000000000000000000000000F80E00006662782F34354433413542342D353339422D344135442D413331312D4241434638444232383833392F617474726962757465732E62696E504B01021400140006080800D46A3740D5987DFC8F0000004101000036
311
000000000000000000000000004D0F00006662782F34354433413542342D353339422D344135442D413331312D4241434638444232383833392F6469726563746F72792E786D6C504B01021400140006080800D46A374022FEBB1BFC000000A00100003B00000000000000000000000000301000006662782F343544334135
311
42342D353339422D344135442D413331312D4241434638444232383833392F7265736F75726365732F636F72652E786D6C504B0506000000000E000E0080040000851100000000
310
504B03040A0000080000D46A37403DEE336E79000000790000001B0000006175746F6465736B2D64657369676E2D7061636B6167652E786D6C3C3F786D6C2076657273696F6E3D22312E302220656E636F64696E673D227574662D3822203F3E3C666F726D6174733E3C666F726D61743E687474703A2F2F736368656D612E
310
6175746F6465736B2E636F6D2F64657369676E2D7061636B6167652F323030393C2F666F726D61743E3C2F666F726D6174733E504B0304140006080800D46A3740D486FD9CA0000000F4000000130000005B436F6E74656E745F54797065735D2E786D6C7D8EC10E82300C865F65E91D8A1E8C310C0EEA1BF002731658846E
310
D98AC1B77784ABF1D8FE5FBFBF75BBCE937A534CCEB38643598122B6FEE978D0B0485F9C41B54DDD7D022595594E1A469170414C76A4D9A4D207E29CF43ECE46F218070CC6BECC4078ACAA135ACF422C856C0E68EA1BF5669944DDD7BCDE7B1F8E415D77AECB980613C2E4AC91FC167A2B244592486606FC29C8FD7F045B9A
310
EF7053A7E60B504B0304140006080800D46A37403A9F872EEA0000007C01000008000000636F72652E786D6C8D90D18EC22010457F85CC3B2DD0DA6A4331EAEA17EC0F10C04AB4D014D8ECE72FD59AECBEEDD34CEEDC3333B97CFF3D3ED0979983F5AE075A1040C629AFAD1B7A48F18AB780F682CFDEC75F36404E8EA68745
310
06C187D9A769959477D1B89855E7B5594519828980D423373D047533A32C648AD911EEC524D55D0EA6A0EF2EC329598D5E47ACCEFBECD59A19C4A1399EDB2D39E2E6402FB8DE902DDE7DD417CC76153D9DC8B96DD986970B2C78B4E3FBBE9A8D8C46836084324C2866D527AD3AC6BA9A60D27484F072B1FF81D2A4FF0925EB
310
62C5D6775F580041F323CF81E0E592452ECFA0725D72133F504B0304140006080800D46A374055019EA25F0000007C00000007000000636E782E786D6C4DCB3B0E80201045D1AD90E915ED2CF8AC45050C11660C8261F98AB1B07AC9C97D42D718D865D3E909258CFD00CCE24AC6E326A164D74DC0B4128928FF326038472B
310
A13128B1252AC747C6BAB984FC68F0B87FE8960A5C09FE86CFB69FBA01504B0304140006080800D46A3740E05EE89065010000020300000C0000006662782F636F72652E786D6C8D52ED8EC220107C15C27F0AC56F8318F5F409EE059062AFB10543A1F1F16FFB617A5E8C314D2899D9D99D9D566CEF55891AE3EBC2D90D4E
310
138691B1DA6585CD3738860B5962B495C23B17FE946164556536B885B114B977F13640DAD9606C00D4BACC0CA0AA6B1330D2255C36B8D63FA652898A012AEA6B7253FAAA7293A409D05027451D3C1840FD90F6C4F272BE0BDAE352C45864035B6430ADB814C663B99BEF8F8B25DB93F92E3D91E98C2DC9EA6B7A227C35490F
310
07765C2CF84CD0562C4528AA873BED8D0A26C392B3941396123EF94E276BCED75346D87CCD98A06DF99328DEB20F45B1B061C207BBBDACC63205231DF16F5B8828A05A35E0874A41DB10E1D525FC1C3404022107752E1F7B5C016A8C0ECE4F81C95C1CA94695D1C05486BA47D09E85CE5D03D8EC651FFEA6CFFB1EF00195CD
310
C19A0A703DC7D04E17FDD4218A9BF1A40977649DAF54399AEB2D8EE738E8A55CBBD2F94FD47458950E61D2F6EF95BF504B0304140006080800D46A3740F5065A367D0000009D0000000B0000006662782F636E782E786D6C4DCCD10AC2201886E15B91FFDC662BD1813A94E67D8CE686E4344CA3CB6F8B1D74F4C1C3C72BFA
310
CF1AD0DBE5974F51C2F94400B9784F938F8B845A66CC01F54AE494CADF0D501C572761675062C9A93E0F9ADC3CD650360D3E3E0EE49C5362A8C696DB1BBE52C3B0B9688B5B4258375836745643A344F32B6DBB87D517504B0304140006080800D46A3740D4D1D4622C01000014020000310000006662782F38383835304235
310
412D463846442D343542372D423341462D3230303739454637453946412F636F72652E786D6C8D51CB6EC23010FC95C8277A70623B8104E418814ABEA03F10620316C48EFCA8F8FCAE9B20B5372E5E6B766676B4CBF7CFF1917D2BE7B5352DA2394199328395DA5C5B14C3053728DB0BEEAC0D7F682833FDA85A946024F8D5
310
D9382DD0604D5026006AAC540BD87BAF02CA86077C5AE4879B1AFBBC8F0118FE9E4FFD70EFAF2AA739B48127B80F0E0264F390F422D134CD9A1CD707DC35DD27AED6C71A1FCB43871921F5F6D4D5A76D77E0C52C143C462D17B99610475FB472EF9A24B1E0418FAFF883537D5012094628C38462567ED172C7D8AE22986C76
310
84F022D1FF89E224DF14456D42C996B8B3CC23417931370497369E1FAF30EA395917B2346FE5D5F08104C909AB18AD1B90CC545800786EAAC5D307EB60C1ABFB19D825B092F1A612BC483782F27B40A8E99EE207504B0304140006080800D46A3740EC70292E5301000033030000300000006662782F38383835304235412D
310
463846442D343542372D423341462D3230303739454637453946412F636E782E786D6CBD93CD6EC32010845F0571F7BF65451126520F7D821E7AC5B04968305880ABE6EDBB2424CD25874A552FC89A1D66569F30DB7DCD867C820FDAD99136654D0958E994B68791AE715F6C28D971E69D8B0F364AAC9861A449A69C1DBC5B
310
972C29D88BD544548DB6A72C7A086EF51202CAE926314E0A8301608B15459827500A14B91BF16B0F1E5741713A937804F2FAF24EDCF401320656A514CEAAD4C1593A73D3838912694408230DF208B328C51A9D82702A9588A26CCA5BD7939D7E9248BA70AB5CBD26A97CA4E9A43C6F54224756E190B3103DD2CBA6785E8072
310
B12C464B11117275315E3D9CADDAC6A1CF5E8DE03DBABB76D86C30EC32E32CEA19B2437A101114E56DDDB445DD146DF7D674DBB6DDF675510FDBBA6655B273363967F2258C01EF16229D8D6023E50DABD2F819BEEC234A7B64EDFCF9172011406EBDD2B967FC259F66E8FAFE1FF95497F78DB83CFE05FC1B504B0304140006
310
080800D46A37400CFD267057070000931B0000340000006662782F38383835304235412D463846442D343542372D423341462D3230303739454637453946412F6F626A656374732E786D6CED595B6FA33814FE2B887D0E094D7A5B51464D7A51B4EACC68B233DA874AC80187786B0CB24D2FFBEBF7F802011A5AB2D37D9B87
310
0430F6F139DFB9FA107C7ACEA8F388B92039BB707D6FE23A98C57942587AE19672333A739D4F61C0F35C36A6B90E4319BE70D5B01B0629CFCBC20E2578834A2A3BA337F3BF1C1163865D27A648880B57C45B9C210F95324FB078F0122491976E9E3DDF3313DB64538E8A6D87688138661238857106541CC394DF7E9CB8E330
310
18ABF761A0FEEDACE9A059B3FE59632D759B4BC284442C7EC55287CC74104B537F76757D747C3E3A9ECDA6A3D9C9913F9ADFCCAF46FEE974B238592CCE2FAFCF81BD759E532B53820BCC12D0DF8B1BFAC158BDA945B708ECE33ACE19C3B10612A0D2627509122C60AB067C93F6A3AF246ABCD612369E67EABD65A1313C6D53
310
E99B350C88165D10C46E57495C5D9BF2E5EBBF417031C428B9C012B8159283762D3C1CBCC20D27C1D88C86C17AA70B229C0C49CC09A20E256B8E382805A6AA296160165832CA3938907294045A73E675DBB6C033DF779D7D5C6E4A4A9567B8A176AC08DC0F4BA13923FF60BEE3BE890CF004D29684C933CBA57C29B01B9E07
310
633D1806EA323DB22F0D90CE86A2546844CCDB8EA00BE5FACB2B37FCE366FDBC52E160FFE605CF0BCCA5323AA547CD1718B2BD2A94ECB6FE20CDA905208C01D5AEDC81F20D90FF0CD163C70AE88D93E7D9F3CCCE951C31B1C97906BA7126CE68027F13C7D7FFEABE71178CEBC56DEDF5E1096EAAA03AFB793CDB3268AC2CFF
310
0D38C3E0110C3EE753FB6A15230AF67C471800A48CC4A1390C4168DFAC9FDD70098113023DAC4234F4416460F7116E83B125B3D34AE55ED6EB18206AF7980E5112C0A62D12D8E8D1D32D640F4EE29D9A9A22F6C17BFC21E67A79B5FA6355F20D8AF19DF5E92BBC218C48C89AFB196A61DE92E801BF3CE53C01415FE3BD6AE2
310
9DD9AD04A0AD3057C0A71508EA61B7736B8318D6A5B90A37C13B3B80102A5737E8DF1111634A11C37959ED5B473765A8B5C7DB9AC10D8F0CC4D3A38E0973FC485455014EB39BD16214F27ECC49A14074C35B23591D34BD1EE9BE2F3F8345D6F37B662D19845E86E89F3A68EDC1A165D915D216885AE0F52E9CC739CD79B47E
310
894CA473A1960036DADEF2A3451462BD5192A2021EA4FDAE0A29A991364AC866530A88AB7B58FCB15C34CD61E24DFD63A7F9DF71C619445BF05DC4ADDF75F6884886521C6D50D2B75D73B79AB6D0247B4873BCA120177924F22542329A24383D049A83889F7F28F594E642108605E4ABBDE037D1987810488C362B9695563B
310
4013116558227A08028A4C0FB83AEDE81A3786D2E17D1E6BEB7D4B634DA2FF93457004B564CE2202A528E4907719F7BD6388216D740DCA1D7CC1DA2ADA5A0C5A420911BF444F98A45B7908EA867C0FEE311C494A19E5058AC1AC07907DE52B4AA91DDED7287E50F9238A4BFA51062230DD4484D2328BE047189C3C86B8761D
310
98DE44A141DCC43E893328CA902CF9904D4E8E27AFF631354337043636DA100A613BCA50D1837A2B20EA7AC4A9C1B7D47B94BA2EB32242595EB24186E24DBBDE64C977D5AAC80EE457958A503656842DC130204CD659B58AD960EA3AB0821BE940F512099415D49CC2DE493C7EED4D9A72EF06DCFAE9C76E9041E1D7A3BD66
310
449D5530581E5B8581784232DEBAE14A5F4773A8BF139CEC527D556B362B40404C45F29213ABA2EF4B286F6C8DE68677488AFB5B9375ABEBF7A507DD8F600C6BA076A9172E15D0196612A9CAE44EDDD06F0842708B86195FAA9C7A0895CB24D15523A237A44F9DAD32A2B56946BC628B599EC18FDD1316D332C1F728110FD1
310
9DA4D18A28D6AD945E462A8CDF14F0CBEDAA030F8C0C10E9AB2AF0F05367AD1D5DA872692F11B92DB335430482604BB4D4E8C62B586A355269B9BEAA3305D45D606056C5B35F278B663BE2D7C922B586F173270B9AAF11DD459B46368F95591F740AA8D393A2F211A700DD75A8A9D649C4E4722BBEF5A508626215E4071763
310
55CC3004FB38FECF49BB2F099AED3AFC1F96B4FD5705C74149A5355935A9F614AECB660A9B5F9F9E1ECDFCD3D1F5F4D81FCD4EFDD9687E359F8FA6F3C9C9CDE4ECF4727AB6E348FB6918D4B14CA72E783631AD1A564F160368CA8A9C92040EF389936208F9128EF403BAE73CC3027267B3D79DD89EFC80D58FA6CD29D19AE2
310
8A932D82FE301590D501A33296ED71E737E84C4A38675FB8D033F21EE0CF5AA5EB40E2B970A15320498C85B7862E93EAE769E2907175EAB7C4001FC4529511CDA2FAB95EA5B06945FF7ACA902C60E56AB530A06E2BA0F9D56A5068DE2C4FF1418257EC3848C2EDBA9450AC19597603B5307A9B9DFA8D6C94B007BBF533B8EE
310
DB62F99E9ED34264D01783378DC0501D49C453DDEE568C59962EAFBE8EA1CDE62CBF38052D53D0E5704A238EC1984B554F81158155589A059260AA8BDFEFBFF21CBEF0648E2E8AEE177996E5CC3E5CC2712C812F44CE6A0BDF7B927BA81AB0EAAA8BFBA3897F74AFBBD9B6C11EAD91C09E2A8760A0AA2294081D63038B7CD5
310
99B27DCBB1524267FAF2CAB1E113BA00C6825E3577CDD72D07BC477D4751BEA23DBC92F3CD86F6584F056BE0D08A0EFF05504B0304140006080000D46A3740000000000000000000000000350000006662782F38383835304235412D463846442D343542372D423341462D3230303739454637453946412F76657274696365
310
732E62696E504B0304140006080800D46A3740F270F1330600000004000000360000006662782F38383835304235412D463846442D343542372D423341462D3230303739454637453946412F747269616E676C65732E62696E636660600000504B0304140006080000D46A3740000000000000000000000000370000006662
310
782F38383835304235412D463846442D343542372D423341462D3230303739454637453946412F617474726962757465732E62696E504B0304140006080800D46A3740D5987DFC8F00000041010000360000006662782F38383835304235412D463846442D343542372D423341462D3230303739454637453946412F646972
310
6563746F72792E786D6C858F410EC2201045AF4266AF15DDB800BA74E7C21B903225242D6328188F2FA5C4183471359997F9FF81E89FF3C41E1816475E02DF1F80A11FC8386F25A438EECEC07A250251FC3803E6F58C12560C4AD840E95E91C151A72936F496F35732D860FE635F62C8F2DA16B505C545B74125BAA2FA9E05
310
D7CC053D063734D5C7665FD55B6B8D15D5E9BFEAFD8490FFA45E504B0304140006080800D46A37405275DA1FFD000000A00100003B0000006662782F38383835304235412D463846442D343542372D423341462D3230303739454637453946412F7265736F75726365732F636F72652E786D6C8D504B6EC23010BD4A347B27
310
B60324448E11A570825EC072866041ECC89FAAC7AF03A9D4EEBA9919BD8FE6E989C3D7F4283ED107E36C0FACA450A0D56E3076EC21C52B69A13848E19D8BBF64505835610F0B0C528CDEA57985B4B3116DCCA87503AEA00A012314FA918F1E82BEE1A44A956256847B392B7D572396ACCC74D64911A2CF018AD7936582F418
310
5CF21A83A85EAC14299961D59821FF3457831EE471F7766E5A7A24BB23BB90CD96B664FFBEB910BEAFD9E944CF4DC3B7A25ACC524433FD64D41E55C40124A78C13CA08AF3F58DD71DE6D28A1BB8E52512DF23FA6340FFF34256363CDD7B82F5B00C97290272145B5F495D7B3CCBC976EE537504B010214000A0000080000D4
310
6A37403DEE336E79000000790000001B00000000000000000000000000000000006175746F6465736B2D64657369676E2D7061636B6167652E786D6C504B01021400140006080800D46A3740D486FD9CA0000000F40000001300000000000000000000000000B20000005B436F6E74656E745F54797065735D2E786D6C504B
310
01021400140006080800D46A37403A9F872EEA0000007C010000080000000000000000000000000083010000636F72652E786D6C504B01021400140006080800D46A374055019EA25F0000007C000000070000000000000000000000000093020000636E782E786D6C504B01021400140006080800D46A3740E05EE8906501
310
0000020300000C00000000000000000000000000170300006662782F636F72652E786D6C504B01021400140006080800D46A3740F5065A367D0000009D0000000B00000000000000000000000000A60400006662782F636E782E786D6C504B01021400140006080800D46A3740D4D1D4622C01000014020000310000000000
310
00000000000000004C0500006662782F38383835304235412D463846442D343542372D423341462D3230303739454637453946412F636F72652E786D6C504B01021400140006080800D46A3740EC70292E53010000330300003000000000000000000000000000C70600006662782F38383835304235412D463846442D3435
310
42372D423341462D3230303739454637453946412F636E782E786D6C504B01021400140006080800D46A37400CFD267057070000931B00003400000000000000000000000000680800006662782F38383835304235412D463846442D343542372D423341462D3230303739454637453946412F6F626A656374732E786D6C50
310
4B01021400140006080000D46A37400000000000000000000000003500000000000000000000000000111000006662782F38383835304235412D463846442D343542372D423341462D3230303739454637453946412F76657274696365732E62696E504B01021400140006080800D46A3740F270F133060000000400000036
310
00000000000000000000000000641000006662782F38383835304235412D463846442D343542372D423341462D3230303739454637453946412F747269616E676C65732E62696E504B01021400140006080000D46A37400000000000000000000000003700000000000000000000000000BE1000006662782F383838353042
310
35412D463846442D343542372D423341462D3230303739454637453946412F617474726962757465732E62696E504B01021400140006080800D46A3740D5987DFC8F000000410100003600000000000000000000000000131100006662782F38383835304235412D463846442D343542372D423341462D3230303739454637
310
453946412F6469726563746F72792E786D6C504B01021400140006080800D46A37405275DA1FFD000000A00100003B00000000000000000000000000F61100006662782F38383835304235412D463846442D343542372D423341462D3230303739454637453946412F7265736F75726365732F636F72652E786D6C504B0506
310
000000000E000E00800400004C1300000000
  0
XRECORD
  5
27
102
{ACAD_REACTORS
330
22
102
}
330
22
100
AcDbXrecord
280
     1
270
     1
271
     1
  0
XRECORD
  5
26
102
{ACAD_REACTORS
330
22
102
}
330
22
100
AcDbXrecord
280
     1
270
     1
271
     1
  0
XRECORD
  5
28
102
{ACAD_REACTORS
330
22
102
}
330
22
100
AcDbXrecord
280
     1
270
     1
271
     1
  0
XRECORD
  5
25
102
{ACAD_REACTORS
330
22
102
}
330
22
100
AcDbXrecord
280
     1
270
     1
271
     1
  0
XRECORD
  5
88B
102
{ACAD_REACTORS
330
88A
102
}
330
88A
100
AcDbXrecord
280
     1
102
ACAD_ROUNDTRIP_2012_MLEADER_STYLE
298
     1
  0
CELLSTYLEMAP
  5
889
102
{ACAD_REACTORS
330
888
102
}
330
888
100
AcDbCellStyleMap
 90
        3
300
CELLSTYLE
  1
TABLEFORMAT_BEGIN
 90
        5
170
     1
 91
        0
 92
    32768
 62
   257
 93
        1
300
CONTENTFORMAT
  1
CONTENTFORMAT_BEGIN
 90
        0
 91
        0
 92
      512
 93
        0
300

 40
0.0
140
1.0
 94
        5
 62
     0
340
55
144
0.25
309
CONTENTFORMAT_END
171
     0
 94
        0
309
TABLEFORMAT_END
  1
CELLSTYLE_BEGIN
 90
        1
 91
        1
300
_TITLE
309
CELLSTYLE_END
300
CELLSTYLE
  1
TABLEFORMAT_BEGIN
 90
        5
170
     1
 91
        0
 92
        0
 62
   257
 93
        1
300
CONTENTFORMAT
  1
CONTENTFORMAT_BEGIN
 90
        0
 91
        0
 92
      512
 93
        0
300

 40
0.0
140
1.0
 94
        5
 62
     0
340
55
144
0.18
309
CONTENTFORMAT_END
171
     0
 94
        0
309
TABLEFORMAT_END
  1
CELLSTYLE_BEGIN
 90
        2
 91
        1
300
_HEADER
309
CELLSTYLE_END
300
CELLSTYLE
  1
TABLEFORMAT_BEGIN
 90
        5
170
     1
 91
        0
 92
        0
 62
   257
 93
        1
300
CONTENTFORMAT
  1
CONTENTFORMAT_BEGIN
 90
        0
 91
        0
 92
      512
 93
        0
300

 40
0.0
140
1.0
 94
        2
 62
     0
340
55
144
0.18
309
CONTENTFORMAT_END
171
     0
 94
        0
309
TABLEFORMAT_END
  1
CELLSTYLE_BEGIN
 90
        3
 91
        2
300
_DATA
309
CELLSTYLE_END
  0
XRECORD
  5
8C1
102
{ACAD_REACTORS
330
888
102
}
330
888
100
AcDbXrecord
280
     1
102
ACAD_ROUNDTRIP_PRE2007_TABLESTYLE
 90
      512
 91
        0
  1

 92
      512
 93
        0
  2

 94
      512
 95
        0
  3

  0
XRECORD
  5
89C
102
{ACAD_REACTORS
330
89B
102
}
330
89B
100
AcDbXrecord
280
     1
102
RTVSPropertyOp0
 70
     1
102
RTVSPropertyOp1
 70
     1
102
RTVSPropertyOp2
 70
     1
102
RTVSPropertyOp3
 70
     1
102
RTVSPropertyOp4
 70
     1
102
RTVSPropertyOp5
 70
     1
102
RTVSPropertyOp6
 70
     1
102
RTVSPropertyOp7
 70
     1
102
RTVSPropertyOp8
 70
     1
102
RTVSPropertyOp9
 70
     1
102
RTVSPropertyOp10
 70
     1
102
RTVSPropertyOp11
 70
     1
102
RTVSPropertyOp12
 70
     1
102
RTVSPropertyOp13
 70
     1
102
RTVSPropertyOp14
 70
     1
102
RTVSPropertyOp15
 70
     1
102
RTVSPropertyOp16
 70
     1
102
RTVSPropertyOp17
 70
     1
102
RTVSPropertyOp18
 70
     1
102
RTVSPropertyOp19
 70
     1
102
RTVSPropertyOp20
 70
     1
102
RTVSPropertyOp21
 70
     1
102
RTVSPropertyOp22
 70
     1
102
RTVSPropertyOp23
 70
     1
102
RTVSPropertyOp24
 70
     1
102
RTVSPropertyOp25
 70
     1
102
RTVSPropertyOp26
 70
     1
102
RTVSPropertyOp27
 70
     1
102
RTVSPropertyOp28
 70
     1
102
RTVSPropertyOp29
 70
     1
102
RTVSPropertyOp30
 70
     1
102
RTVSPropertyOp31
 70
     1
102
RTVSPropertyOp32
 70
     1
  0
XRECORD
  5
89A
102
{ACAD_REACTORS
330
899
102
}
330
899
100
AcDbXrecord
280
     1
102
RTVSPropertyOp0
 70
     1
102
RTVSPropertyOp1
 70
     1
102
RTVSPropertyOp2
 70
     1
102
RTVSPropertyOp3
 70
     1
102
RTVSPropertyOp4
 70
     1
102
RTVSPropertyOp5
 70
     1
102
RTVSPropertyOp6
 70
     1
102
RTVSPropertyOp7
 70
     1
102
RTVSPropertyOp8
 70
     1
102
RTVSPropertyOp9
 70
     1
102
RTVSPropertyOp10
 70
     1
102
RTVSPropertyOp11
 70
     1
102
RTVSPropertyOp12
 70
     1
102
RTVSPropertyOp13
 70
     1
102
RTVSPropertyOp14
 70
     1
102
RTVSPropertyOp15
 70
     1
102
RTVSPropertyOp16
 70
     1
102
RTVSPropertyOp17
 70
     1
102
RTVSPropertyOp18
 70
     1
102
RTVSPropertyOp19
 70
     1
102
RTVSPropertyOp20
 70
     1
102
RTVSPropertyOp21
 70
     1
102
RTVSPropertyOp22
 70
     1
102
RTVSPropertyOp23
 70
     1
102
RTVSPropertyOp24
 70
     1
102
RTVSPropertyOp25
 70
     1
102
RTVSPropertyOp26
 70
     1
102
RTVSPropertyOp27
 70
     1
102
RTVSPropertyOp28
 70
     1
102
RTVSPropertyOp29
 70
     1
102
RTVSPropertyOp30
 70
     1
102
RTVSPropertyOp31
 70
     1
102
RTVSPropertyOp32
 70
     1
  0
XRECORD
  5
8A8
102
{ACAD_REACTORS
330
8A7
102
}
330
8A7
100
AcDbXrecord
280
     1
102
RTVSPropertyOp0
 70
     1
102
RTVSPropertyOp1
 70
     1
102
RTVSPropertyOp2
 70
     1
102
RTVSPropertyOp3
 70
     1
102
RTVSPropertyOp4
 70
     1
102
RTVSPropertyOp5
 70
     1
102
RTVSPropertyOp6
 70
     1
102
RTVSPropertyOp7
 70
     1
102
RTVSPropertyOp8
 70
     1
102
RTVSPropertyOp9
 70
     1
102
RTVSPropertyOp10
 70
     1
102
RTVSPropertyOp11
 70
     1
102
RTVSPropertyOp12
 70
     1
102
RTVSPropertyOp13
 70
     1
102
RTVSPropertyOp14
 70
     1
102
RTVSPropertyOp15
 70
     1
102
RTVSPropertyOp16
 70
     1
102
RTVSPropertyOp17
 70
     1
102
RTVSPropertyOp18
 70
     1
102
RTVSPropertyOp19
 70
     1
102
RTVSPropertyOp20
 70
     1
102
RTVSPropertyOp21
 70
     1
102
RTVSPropertyOp22
 70
     1
102
RTVSPropertyOp23
 70
     1
102
RTVSPropertyOp24
 70
     1
102
RTVSPropertyOp25
 70
     1
102
RTVSPropertyOp26
 70
     1
102
RTVSPropertyOp27
 70
     1
102
RTVSPropertyOp28
 70
     1
102
RTVSPropertyOp29
 70
     1
102
RTVSPropertyOp30
 70
     1
102
RTVSPropertyOp31
 70
     1
102
RTVSPropertyOp32
 70
     1
  0
XRECORD
  5
8B0
102
{ACAD_REACTORS
330
8AF
102
}
330
8AF
100
AcDbXrecord
280
     1
102
RTVSPropertyOp0
 70
     1
102
RTVSPropertyOp1
 70
     1
102
RTVSPropertyOp2
 70
     1
102
RTVSPropertyOp3
 70
     1
102
RTVSPropertyOp4
 70
     1
102
RTVSPropertyOp5
 70
     1
102
RTVSPropertyOp6
 70
     1
102
RTVSPropertyOp7
 70
     1
102
RTVSPropertyOp8
 70
     1
102
RTVSPropertyOp9
 70
     1
102
RTVSPropertyOp10
 70
     1
102
RTVSPropertyOp11
 70
     1
102
RTVSPropertyOp12
 70
     1
102
RTVSPropertyOp13
 70
     1
102
RTVSPropertyOp14
 70
     1
102
RTVSPropertyOp15
 70
     1
102
RTVSPropertyOp16
 70
     1
102
RTVSPropertyOp17
 70
     1
102
RTVSPropertyOp18
 70
     1
102
RTVSPropertyOp19
 70
     1
102
RTVSPropertyOp20
 70
     1
102
RTVSPropertyOp21
 70
     1
102
RTVSPropertyOp22
 70
     1
102
RTVSPropertyOp23
 70
     1
102
RTVSPropertyOp24
 70
     1
102
RTVSPropertyOp25
 70
     1
102
RTVSPropertyOp26
 70
     1
102
RTVSPropertyOp27
 70
     1
102
RTVSPropertyOp28
 70
     1
102
RTVSPropertyOp29
 70
     1
102
RTVSPropertyOp30
 70
     1
102
RTVSPropertyOp31
 70
     1
102
RTVSPropertyOp32
 70
     1
  0
XRECORD
  5
8A2
102
{ACAD_REACTORS
330
8A1
102
}
330
8A1
100
AcDbXrecord
280
     1
102
RTVSPropertyOp0
 70
     1
102
RTVSPropertyOp1
 70
     1
102
RTVSPropertyOp2
 70
     1
102
RTVSPropertyOp3
 70
     1
102
RTVSPropertyOp4
 70
     1
102
RTVSPropertyOp5
 70
     1
102
RTVSPropertyOp6
 70
     1
102
RTVSPropertyOp7
 70
     1
102
RTVSPropertyOp8
 70
     1
102
RTVSPropertyOp9
 70
     1
102
RTVSPropertyOp10
 70
     1
102
RTVSPropertyOp11
 70
     1
102
RTVSPropertyOp12
 70
     1
102
RTVSPropertyOp13
 70
     1
102
RTVSPropertyOp14
 70
     1
102
RTVSPropertyOp15
 70
     1
102
RTVSPropertyOp16
 70
     1
102
RTVSPropertyOp17
 70
     1
102
RTVSPropertyOp18
 70
     1
102
RTVSPropertyOp19
 70
     1
102
RTVSPropertyOp20
 70
     1
102
RTVSPropertyOp21
 70
     1
102
RTVSPropertyOp22
 70
     1
102
RTVSPropertyOp23
 70
     1
102
RTVSPropertyOp24
 70
     1
102
RTVSPropertyOp25
 70
     1
102
RTVSPropertyOp26
 70
     1
102
RTVSPropertyOp27
 70
     1
102
RTVSPropertyOp28
 70
     1
102
RTVSPropertyOp29
 70
     1
102
RTVSPropertyOp30
 70
     1
102
RTVSPropertyOp31
 70
     1
102
RTVSPropertyOp32
 70
     1
  0
XRECORD
  5
8A6
102
{ACAD_REACTORS
330
8A5
102
}
330
8A5
100
AcDbXrecord
280
     1
102
RTVSPropertyOp0
 70
     1
102
RTVSPropertyOp1
 70
     1
102
RTVSPropertyOp2
 70
     1
102
RTVSPropertyOp3
 70
     1
102
RTVSPropertyOp4
 70
     1
102
RTVSPropertyOp5
 70
     1
102
RTVSPropertyOp6
 70
     1
102
RTVSPropertyOp7
 70
     1
102
RTVSPropertyOp8
 70
     1
102
RTVSPropertyOp9
 70
     1
102
RTVSPropertyOp10
 70
     1
102
RTVSPropertyOp11
 70
     1
102
RTVSPropertyOp12
 70
     1
102
RTVSPropertyOp13
 70
     1
102
RTVSPropertyOp14
 70
     1
102
RTVSPropertyOp15
 70
     1
102
RTVSPropertyOp16
 70
     1
102
RTVSPropertyOp17
 70
     1
102
RTVSPropertyOp18
 70
     1
102
RTVSPropertyOp19
 70
     1
102
RTVSPropertyOp20
 70
     1
102
RTVSPropertyOp21
 70
     1
102
RTVSPropertyOp22
 70
     1
102
RTVSPropertyOp23
 70
     1
102
RTVSPropertyOp24
 70
     1
102
RTVSPropertyOp25
 70
     1
102
RTVSPropertyOp26
 70
     1
102
RTVSPropertyOp27
 70
     1
102
RTVSPropertyOp28
 70
     1
102
RTVSPropertyOp29
 70
     1
102
RTVSPropertyOp30
 70
     1
102
RTVSPropertyOp31
 70
     1
102
RTVSPropertyOp32
 70
     1
  0
XRECORD
  5
8C0
102
{ACAD_REACTORS
330
8BF
102
}
330
8BF
100
AcDbXrecord
280
     1
102
RTVSPropertyOp0
 70
     0
102
RTVSPropertyOp1
 70
     0
102
RTVSPropertyOp2
 70
     0
102
RTVSPropertyOp3
 70
     0
102
RTVSPropertyOp4
 70
     0
102
RTVSPropertyOp5
 70
     0
102
RTVSPropertyOp6
 70
     0
102
RTVSPropertyOp7
 70
     0
102
RTVSPropertyOp8
 70
     0
102
RTVSPropertyOp9
 70
     0
102
RTVSPropertyOp10
 70
     0
102
RTVSPropertyOp11
 70
     0
102
RTVSPropertyOp12
 70
     0
102
RTVSPropertyOp13
 70
     0
102
RTVSPropertyOp14
 70
     2
102
RTVSPropertyOp15
 70
     0
102
RTVSPropertyOp16
 70
     0
102
RTVSPropertyOp17
 70
     0
102
RTVSPropertyOp18
 70
     0
102
RTVSPropertyOp19
 70
     0
102
RTVSPropertyOp20
 70
     0
102
RTVSPropertyOp21
 70
     0
102
RTVSPropertyOp22
 70
     0
102
RTVSPropertyOp23
 70
     0
102
RTVSPropertyOp24
 70
     0
102
RTVSPropertyOp25
 70
     0
102
RTVSPropertyOp26
 70
     0
102
RTVSPropertyOp27
 70
     0
102
RTVSPropertyOp28
 70
     1
102
RTVSPropertyOp29
 70
     1
102
RTVSPropertyOp30
 70
     1
102
RTVSPropertyOp31
 70
     1
102
RTVSPropertyOp32
 70
     1
  0
XRECORD
  5
8AE
102
{ACAD_REACTORS
330
8AD
102
}
330
8AD
100
AcDbXrecord
280
     1
102
RTVSPropertyOp0
 70
     1
102
RTVSPropertyOp1
 70
     1
102
RTVSPropertyOp2
 70
     1
102
RTVSPropertyOp3
 70
     1
102
RTVSPropertyOp4
 70
     1
102
RTVSPropertyOp5
 70
     1
102
RTVSPropertyOp6
 70
     1
102
RTVSPropertyOp7
 70
     1
102
RTVSPropertyOp8
 70
     1
102
RTVSPropertyOp9
 70
     1
102
RTVSPropertyOp10
 70
     1
102
RTVSPropertyOp11
 70
     1
102
RTVSPropertyOp12
 70
     1
102
RTVSPropertyOp13
 70
     1
102
RTVSPropertyOp14
 70
     1
102
RTVSPropertyOp15
 70
     1
102
RTVSPropertyOp16
 70
     1
102
RTVSPropertyOp17
 70
     1
102
RTVSPropertyOp18
 70
     1
102
RTVSPropertyOp19
 70
     1
102
RTVSPropertyOp20
 70
     1
102
RTVSPropertyOp21
 70
     1
102
RTVSPropertyOp22
 70
     1
102
RTVSPropertyOp23
 70
     1
102
RTVSPropertyOp24
 70
     1
102
RTVSPropertyOp25
 70
     1
102
RTVSPropertyOp26
 70
     1
102
RTVSPropertyOp27
 70
     1
102
RTVSPropertyOp28
 70
     1
102
RTVSPropertyOp29
 70
     1
102
RTVSPropertyOp30
 70
     1
102
RTVSPropertyOp31
 70
     1
102
RTVSPropertyOp32
 70
     1
  0
XRECORD
  5
892
102
{ACAD_REACTORS
330
891
102
}
330
891
100
AcDbXrecord
280
     1
102
RTVSPropertyOp0
 70
     1
102
RTVSPropertyOp1
 70
     1
102
RTVSPropertyOp2
 70
     1
102
RTVSPropertyOp3
 70
     1
102
RTVSPropertyOp4
 70
     1
102
RTVSPropertyOp5
 70
     1
102
RTVSPropertyOp6
 70
     1
102
RTVSPropertyOp7
 70
     1
102
RTVSPropertyOp8
 70
     1
102
RTVSPropertyOp9
 70
     1
102
RTVSPropertyOp10
 70
     1
102
RTVSPropertyOp11
 70
     1
102
RTVSPropertyOp12
 70
     1
102
RTVSPropertyOp13
 70
     1
102
RTVSPropertyOp14
 70
     1
102
RTVSPropertyOp15
 70
     1
102
RTVSPropertyOp16
 70
     1
102
RTVSPropertyOp17
 70
     1
102
RTVSPropertyOp18
 70
     1
102
RTVSPropertyOp19
 70
     1
102
RTVSPropertyOp20
 70
     1
102
RTVSPropertyOp21
 70
     1
102
RTVSPropertyOp22
 70
     1
102
RTVSPropertyOp23
 70
     1
102
RTVSPropertyOp24
 70
     1
102
RTVSPropertyOp25
 70
     1
102
RTVSPropertyOp26
 70
     1
102
RTVSPropertyOp27
 70
     1
102
RTVSPropertyOp28
 70
     1
102
RTVSPropertyOp29
 70
     1
102
RTVSPropertyOp30
 70
     1
102
RTVSPropertyOp31
 70
     1
102
RTVSPropertyOp32
 70
     1
  0
XRECORD
  5
894
102
{ACAD_REACTORS
330
893
102
}
330
893
100
AcDbXrecord
280
     1
102
RTVSPropertyOp0
 70
     1
102
RTVSPropertyOp1
 70
     1
102
RTVSPropertyOp2
 70
     1
102
RTVSPropertyOp3
 70
     1
102
RTVSPropertyOp4
 70
     1
102
RTVSPropertyOp5
 70
     1
102
RTVSPropertyOp6
 70
     1
102
RTVSPropertyOp7
 70
     1
102
RTVSPropertyOp8
 70
     1
102
RTVSPropertyOp9
 70
     1
102
RTVSPropertyOp10
 70
     1
102
RTVSPropertyOp11
 70
     1
102
RTVSPropertyOp12
 70
     1
102
RTVSPropertyOp13
 70
     1
102
RTVSPropertyOp14
 70
     1
102
RTVSPropertyOp15
 70
     1
102
RTVSPropertyOp16
 70
     1
102
RTVSPropertyOp17
 70
     1
102
RTVSPropertyOp18
 70
     1
102
RTVSPropertyOp19
 70
     1
102
RTVSPropertyOp20
 70
     1
102
RTVSPropertyOp21
 70
     1
102
RTVSPropertyOp22
 70
     1
102
RTVSPropertyOp23
 70
     1
102
RTVSPropertyOp24
 70
     1
102
RTVSPropertyOp25
 70
     1
102
RTVSPropertyOp26
 70
     1
102
RTVSPropertyOp27
 70
     1
102
RTVSPropertyOp28
 70
     1
102
RTVSPropertyOp29
 70
     1
102
RTVSPropertyOp30
 70
     1
102
RTVSPropertyOp31
 70
     1
102
RTVSPropertyOp32
 70
     1
  0
XRECORD
  5
896
102
{ACAD_REACTORS
330
895
102
}
330
895
100
AcDbXrecord
280
     1
102
RTVSPropertyOp0
 70
     1
102
RTVSPropertyOp1
 70
     1
102
RTVSPropertyOp2
 70
     1
102
RTVSPropertyOp3
 70
     1
102
RTVSPropertyOp4
 70
     1
102
RTVSPropertyOp5
 70
     1
102
RTVSPropertyOp6
 70
     1
102
RTVSPropertyOp7
 70
     1
102
RTVSPropertyOp8
 70
     1
102
RTVSPropertyOp9
 70
     1
102
RTVSPropertyOp10
 70
     1
102
RTVSPropertyOp11
 70
     1
102
RTVSPropertyOp12
 70
     1
102
RTVSPropertyOp13
 70
     1
102
RTVSPropertyOp14
 70
     1
102
RTVSPropertyOp15
 70
     1
102
RTVSPropertyOp16
 70
     1
102
RTVSPropertyOp17
 70
     1
102
RTVSPropertyOp18
 70
     1
102
RTVSPropertyOp19
 70
     1
102
RTVSPropertyOp20
 70
     1
102
RTVSPropertyOp21
 70
     1
102
RTVSPropertyOp22
 70
     1
102
RTVSPropertyOp23
 70
     1
102
RTVSPropertyOp24
 70
     1
102
RTVSPropertyOp25
 70
     1
102
RTVSPropertyOp26
 70
     1
102
RTVSPropertyOp27
 70
     1
102
RTVSPropertyOp28
 70
     1
102
RTVSPropertyOp29
 70
     1
102
RTVSPropertyOp30
 70
     1
102
RTVSPropertyOp31
 70
     1
102
RTVSPropertyOp32
 70
     1
  0
XRECORD
  5
898
102
{ACAD_REACTORS
330
897
102
}
330
897
100
AcDbXrecord
280
     1
102
RTVSPropertyOp0
 70
     1
102
RTVSPropertyOp1
 70
     1
102
RTVSPropertyOp2
 70
     1
102
RTVSPropertyOp3
 70
     1
102
RTVSPropertyOp4
 70
     1
102
RTVSPropertyOp5
 70
     1
102
RTVSPropertyOp6
 70
     1
102
RTVSPropertyOp7
 70
     1
102
RTVSPropertyOp8
 70
     1
102
RTVSPropertyOp9
 70
     1
102
RTVSPropertyOp10
 70
     1
102
RTVSPropertyOp11
 70
     1
102
RTVSPropertyOp12
 70
     1
102
RTVSPropertyOp13
 70
     1
102
RTVSPropertyOp14
 70
     1
102
RTVSPropertyOp15
 70
     1
102
RTVSPropertyOp16
 70
     1
102
RTVSPropertyOp17
 70
     1
102
RTVSPropertyOp18
 70
     1
102
RTVSPropertyOp19
 70
     1
102
RTVSPropertyOp20
 70
     1
102
RTVSPropertyOp21
 70
     1
102
RTVSPropertyOp22
 70
     1
102
RTVSPropertyOp23
 70
     1
102
RTVSPropertyOp24
 70
     1
102
RTVSPropertyOp25
 70
     1
102
RTVSPropertyOp26
 70
     1
102
RTVSPropertyOp27
 70
     1
102
RTVSPropertyOp28
 70
     1
102
RTVSPropertyOp29
 70
     1
102
RTVSPropertyOp30
 70
     1
102
RTVSPropertyOp31
 70
     1
102
RTVSPropertyOp32
 70
     1
  0
XRECORD
  5
8A0
102
{ACAD_REACTORS
330
89F
102
}
330
89F
100
AcDbXrecord
280
     1
102
RTVSPropertyOp0
 70
     1
102
RTVSPropertyOp1
 70
     1
102
RTVSPropertyOp2
 70
     1
102
RTVSPropertyOp3
 70
     1
102
RTVSPropertyOp4
 70
     1
102
RTVSPropertyOp5
 70
     1
102
RTVSPropertyOp6
 70
     1
102
RTVSPropertyOp7
 70
     1
102
RTVSPropertyOp8
 70
     1
102
RTVSPropertyOp9
 70
     1
102
RTVSPropertyOp10
 70
     1
102
RTVSPropertyOp11
 70
     1
102
RTVSPropertyOp12
 70
     1
102
RTVSPropertyOp13
 70
     1
102
RTVSPropertyOp14
 70
     1
102
RTVSPropertyOp15
 70
     1
102
RTVSPropertyOp16
 70
     1
102
RTVSPropertyOp17
 70
     1
102
RTVSPropertyOp18
 70
     1
102
RTVSPropertyOp19
 70
     1
102
RTVSPropertyOp20
 70
     1
102
RTVSPropertyOp21
 70
     1
102
RTVSPropertyOp22
 70
     1
102
RTVSPropertyOp23
 70
     1
102
RTVSPropertyOp24
 70
     1
102
RTVSPropertyOp25
 70
     1
102
RTVSPropertyOp26
 70
     1
102
RTVSPropertyOp27
 70
     1
102
RTVSPropertyOp28
 70
     1
102
RTVSPropertyOp29
 70
     1
102
RTVSPropertyOp30
 70
     1
102
RTVSPropertyOp31
 70
     1
102
RTVSPropertyOp32
 70
     1
  0
XRECORD
  5
8BC
102
{ACAD_REACTORS
330
8BB
102
}
330
8BB
100
AcDbXrecord
280
     1
102
RTVSPropertyOp0
 70
     0
102
RTVSPropertyOp1
 70
     0
102
RTVSPropertyOp2
 70
     0
102
RTVSPropertyOp3
 70
     0
102
RTVSPropertyOp4
 70
     0
102
RTVSPropertyOp5
 70
     0
102
RTVSPropertyOp6
 70
     0
102
RTVSPropertyOp7
 70
     0
102
RTVSPropertyOp8
 70
     0
102
RTVSPropertyOp9
 70
     0
102
RTVSPropertyOp10
 70
     0
102
RTVSPropertyOp11
 70
     0
102
RTVSPropertyOp12
 70
     0
102
RTVSPropertyOp13
 70
     0
102
RTVSPropertyOp14
 70
     2
102
RTVSPropertyOp15
 70
     0
102
RTVSPropertyOp16
 70
     0
102
RTVSPropertyOp17
 70
     0
102
RTVSPropertyOp18
 70
     0
102
RTVSPropertyOp19
 70
     0
102
RTVSPropertyOp20
 70
     0
102
RTVSPropertyOp21
 70
     0
102
RTVSPropertyOp22
 70
     0
102
RTVSPropertyOp23
 70
     0
102
RTVSPropertyOp24
 70
     0
102
RTVSPropertyOp25
 70
     0
102
RTVSPropertyOp26
 70
     0
102
RTVSPropertyOp27
 70
     0
102
RTVSPropertyOp28
 70
     1
102
RTVSPropertyOp29
 70
     1
102
RTVSPropertyOp30
 70
     1
102
RTVSPropertyOp31
 70
     1
102
RTVSPropertyOp32
 70
     1
  0
XRECORD
  5
8AC
102
{ACAD_REACTORS
330
8AB
102
}
330
8AB
100
AcDbXrecord
280
     1
102
RTVSPropertyOp0
 70
     1
102
RTVSPropertyOp1
 70
     1
102
RTVSPropertyOp2
 70
     1
102
RTVSPropertyOp3
 70
     1
102
RTVSPropertyOp4
 70
     1
102
RTVSPropertyOp5
 70
     1
102
RTVSPropertyOp6
 70
     1
102
RTVSPropertyOp7
 70
     1
102
RTVSPropertyOp8
 70
     1
102
RTVSPropertyOp9
 70
     1
102
RTVSPropertyOp10
 70
     1
102
RTVSPropertyOp11
 70
     1
102
RTVSPropertyOp12
 70
     1
102
RTVSPropertyOp13
 70
     1
102
RTVSPropertyOp14
 70
     1
102
RTVSPropertyOp15
 70
     1
102
RTVSPropertyOp16
 70
     1
102
RTVSPropertyOp17
 70
     1
102
RTVSPropertyOp18
 70
     1
102
RTVSPropertyOp19
 70
     1
102
RTVSPropertyOp20
 70
     1
102
RTVSPropertyOp21
 70
     1
102
RTVSPropertyOp22
 70
     1
102
RTVSPropertyOp23
 70
     1
102
RTVSPropertyOp24
 70
     1
102
RTVSPropertyOp25
 70
     1
102
RTVSPropertyOp26
 70
     1
102
RTVSPropertyOp27
 70
     1
102
RTVSPropertyOp28
 70
     1
102
RTVSPropertyOp29
 70
     1
102
RTVSPropertyOp30
 70
     1
102
RTVSPropertyOp31
 70
     1
102
RTVSPropertyOp32
 70
     1
  0
XRECORD
  5
8BE
102
{ACAD_REACTORS
330
8BD
102
}
330
8BD
100
AcDbXrecord
280
     1
102
RTVSPropertyOp0
 70
     0
102
RTVSPropertyOp1
 70
     0
102
RTVSPropertyOp2
 70
     0
102
RTVSPropertyOp3
 70
     0
102
RTVSPropertyOp4
 70
     0
102
RTVSPropertyOp5
 70
     0
102
RTVSPropertyOp6
 70
     0
102
RTVSPropertyOp7
 70
     0
102
RTVSPropertyOp8
 70
     0
102
RTVSPropertyOp9
 70
     0
102
RTVSPropertyOp10
 70
     0
102
RTVSPropertyOp11
 70
     0
102
RTVSPropertyOp12
 70
     0
102
RTVSPropertyOp13
 70
     0
102
RTVSPropertyOp14
 70
     2
102
RTVSPropertyOp15
 70
     0
102
RTVSPropertyOp16
 70
     0
102
RTVSPropertyOp17
 70
     0
102
RTVSPropertyOp18
 70
     0
102
RTVSPropertyOp19
 70
     0
102
RTVSPropertyOp20
 70
     0
102
RTVSPropertyOp21
 70
     0
102
RTVSPropertyOp22
 70
     0
102
RTVSPropertyOp23
 70
     0
102
RTVSPropertyOp24
 70
     0
102
RTVSPropertyOp25
 70
     0
102
RTVSPropertyOp26
 70
     0
102
RTVSPropertyOp27
 70
     0
102
RTVSPropertyOp28
 70
     1
102
RTVSPropertyOp29
 70
     1
102
RTVSPropertyOp30
 70
     1
102
RTVSPropertyOp31
 70
     1
102
RTVSPropertyOp32
 70
     1
  0
XRECORD
  5
8A4
102
{ACAD_REACTORS
330
8A3
102
}
330
8A3
100
AcDbXrecord
280
     1
102
RTVSPropertyOp0
 70
     1
102
RTVSPropertyOp1
 70
     1
102
RTVSPropertyOp2
 70
     1
102
RTVSPropertyOp3
 70
     1
102
RTVSPropertyOp4
 70
     1
102
RTVSPropertyOp5
 70
     1
102
RTVSPropertyOp6
 70
     1
102
RTVSPropertyOp7
 70
     1
102
RTVSPropertyOp8
 70
     1
102
RTVSPropertyOp9
 70
     1
102
RTVSPropertyOp10
 70
     1
102
RTVSPropertyOp11
 70
     1
102
RTVSPropertyOp12
 70
     1
102
RTVSPropertyOp13
 70
     1
102
RTVSPropertyOp14
 70
     1
102
RTVSPropertyOp15
 70
     1
102
RTVSPropertyOp16
 70
     1
102
RTVSPropertyOp17
 70
     1
102
RTVSPropertyOp18
 70
     1
102
RTVSPropertyOp19
 70
     1
102
RTVSPropertyOp20
 70
     1
102
RTVSPropertyOp21
 70
     1
102
RTVSPropertyOp22
 70
     1
102
RTVSPropertyOp23
 70
     1
102
RTVSPropertyOp24
 70
     1
102
RTVSPropertyOp25
 70
     1
102
RTVSPropertyOp26
 70
     1
102
RTVSPropertyOp27
 70
     1
102
RTVSPropertyOp28
 70
     1
102
RTVSPropertyOp29
 70
     1
102
RTVSPropertyOp30
 70
     1
102
RTVSPropertyOp31
 70
     1
102
RTVSPropertyOp32
 70
     1
  0
XRECORD
  5
8BA
102
{ACAD_REACTORS
330
8B9
102
}
330
8B9
100
AcDbXrecord
280
     1
102
RTVSPropertyOp0
 70
     1
102
RTVSPropertyOp1
 70
     1
102
RTVSPropertyOp2
 70
     1
102
RTVSPropertyOp3
 70
     1
102
RTVSPropertyOp4
 70
     1
102
RTVSPropertyOp5
 70
     1
102
RTVSPropertyOp6
 70
     1
102
RTVSPropertyOp7
 70
     1
102
RTVSPropertyOp8
 70
     1
102
RTVSPropertyOp9
 70
     1
102
RTVSPropertyOp10
 70
     1
102
RTVSPropertyOp11
 70
     1
102
RTVSPropertyOp12
 70
     1
102
RTVSPropertyOp13
 70
     1
102
RTVSPropertyOp14
 70
     1
102
RTVSPropertyOp15
 70
     1
102
RTVSPropertyOp16
 70
     1
102
RTVSPropertyOp17
 70
     1
102
RTVSPropertyOp18
 70
     1
102
RTVSPropertyOp19
 70
     1
102
RTVSPropertyOp20
 70
     1
102
RTVSPropertyOp21
 70
     1
102
RTVSPropertyOp22
 70
     1
102
RTVSPropertyOp23
 70
     1
102
RTVSPropertyOp24
 70
     1
102
RTVSPropertyOp25
 70
     1
102
RTVSPropertyOp26
 70
     1
102
RTVSPropertyOp27
 70
     1
102
RTVSPropertyOp28
 70
     1
102
RTVSPropertyOp29
 70
     1
102
RTVSPropertyOp30
 70
     1
102
RTVSPropertyOp31
 70
     1
102
RTVSPropertyOp32
 70
     1
  0
XRECORD
  5
8B8
102
{ACAD_REACTORS
330
8B7
102
}
330
8B7
100
AcDbXrecord
280
     1
102
RTVSPropertyOp0
 70
     1
102
RTVSPropertyOp1
 70
     1
102
RTVSPropertyOp2
 70
     1
102
RTVSPropertyOp3
 70
     1
102
RTVSPropertyOp4
 70
     1
102
RTVSPropertyOp5
 70
     1
102
RTVSPropertyOp6
 70
     1
102
RTVSPropertyOp7
 70
     1
102
RTVSPropertyOp8
 70
     1
102
RTVSPropertyOp9
 70
     1
102
RTVSPropertyOp10
 70
     1
102
RTVSPropertyOp11
 70
     1
102
RTVSPropertyOp12
 70
     1
102
RTVSPropertyOp13
 70
     1
102
RTVSPropertyOp14
 70
     1
102
RTVSPropertyOp15
 70
     1
102
RTVSPropertyOp16
 70
     1
102
RTVSPropertyOp17
 70
     1
102
RTVSPropertyOp18
 70
     1
102
RTVSPropertyOp19
 70
     1
102
RTVSPropertyOp20
 70
     1
102
RTVSPropertyOp21
 70
     1
102
RTVSPropertyOp22
 70
     1
102
RTVSPropertyOp23
 70
     1
102
RTVSPropertyOp24
 70
     1
102
RTVSPropertyOp25
 70
     1
102
RTVSPropertyOp26
 70
     1
102
RTVSPropertyOp27
 70
     1
102
RTVSPropertyOp28
 70
     1
102
RTVSPropertyOp29
 70
     1
102
RTVSPropertyOp30
 70
     1
102
RTVSPropertyOp31
 70
     1
102
RTVSPropertyOp32
 70
     1
  0
XRECORD
  5
8B2
102
{ACAD_REACTORS
330
8B1
102
}
330
8B1
100
AcDbXrecord
280
     1
102
RTVSPropertyOp0
 70
     1
102
RTVSPropertyOp1
 70
     1
102
RTVSPropertyOp2
 70
     1
102
RTVSPropertyOp3
 70
     1
102
RTVSPropertyOp4
 70
     1
102
RTVSPropertyOp5
 70
     1
102
RTVSPropertyOp6
 70
     1
102
RTVSPropertyOp7
 70
     1
102
RTVSPropertyOp8
 70
     1
102
RTVSPropertyOp9
 70
     1
102
RTVSPropertyOp10
 70
     1
102
RTVSPropertyOp11
 70
     1
102
RTVSPropertyOp12
 70
     1
102
RTVSPropertyOp13
 70
     1
102
RTVSPropertyOp14
 70
     1
102
RTVSPropertyOp15
 70
     1
102
RTVSPropertyOp16
 70
     1
102
RTVSPropertyOp17
 70
     1
102
RTVSPropertyOp18
 70
     1
102
RTVSPropertyOp19
 70
     1
102
RTVSPropertyOp20
 70
     1
102
RTVSPropertyOp21
 70
     1
102
RTVSPropertyOp22
 70
     1
102
RTVSPropertyOp23
 70
     1
102
RTVSPropertyOp24
 70
     1
102
RTVSPropertyOp25
 70
     1
102
RTVSPropertyOp26
 70
     1
102
RTVSPropertyOp27
 70
     1
102
RTVSPropertyOp28
 70
     1
102
RTVSPropertyOp29
 70
     1
102
RTVSPropertyOp30
 70
     1
102
RTVSPropertyOp31
 70
     1
102
RTVSPropertyOp32
 70
     1
  0
XRECORD
  5
8B4
102
{ACAD_REACTORS
330
8B3
102
}
330
8B3
100
AcDbXrecord
280
     1
102
RTVSPropertyOp0
 70
     1
102
RTVSPropertyOp1
 70
     1
102
RTVSPropertyOp2
 70
     1
102
RTVSPropertyOp3
 70
     1
102
RTVSPropertyOp4
 70
     1
102
RTVSPropertyOp5
 70
     1
102
RTVSPropertyOp6
 70
     1
102
RTVSPropertyOp7
 70
     1
102
RTVSPropertyOp8
 70
     1
102
RTVSPropertyOp9
 70
     1
102
RTVSPropertyOp10
 70
     1
102
RTVSPropertyOp11
 70
     1
102
RTVSPropertyOp12
 70
     1
102
RTVSPropertyOp13
 70
     1
102
RTVSPropertyOp14
 70
     1
102
RTVSPropertyOp15
 70
     1
102
RTVSPropertyOp16
 70
     1
102
RTVSPropertyOp17
 70
     1
102
RTVSPropertyOp18
 70
     1
102
RTVSPropertyOp19
 70
     1
102
RTVSPropertyOp20
 70
     1
102
RTVSPropertyOp21
 70
     1
102
RTVSPropertyOp22
 70
     1
102
RTVSPropertyOp23
 70
     1
102
RTVSPropertyOp24
 70
     1
102
RTVSPropertyOp25
 70
     1
102
RTVSPropertyOp26
 70
     1
102
RTVSPropertyOp27
 70
     1
102
RTVSPropertyOp28
 70
     1
102
RTVSPropertyOp29
 70
     1
102
RTVSPropertyOp30
 70
     1
102
RTVSPropertyOp31
 70
     1
102
RTVSPropertyOp32
 70
     1
  0
XRECORD
  5
8AA
102
{ACAD_REACTORS
330
8A9
102
}
330
8A9
100
AcDbXrecord
280
     1
102
RTVSPropertyOp0
 70
     1
102
RTVSPropertyOp1
 70
     1
102
RTVSPropertyOp2
 70
     1
102
RTVSPropertyOp3
 70
     1
102
RTVSPropertyOp4
 70
     1
102
RTVSPropertyOp5
 70
     1
102
RTVSPropertyOp6
 70
     1
102
RTVSPropertyOp7
 70
     1
102
RTVSPropertyOp8
 70
     1
102
RTVSPropertyOp9
 70
     1
102
RTVSPropertyOp10
 70
     1
102
RTVSPropertyOp11
 70
     1
102
RTVSPropertyOp12
 70
     1
102
RTVSPropertyOp13
 70
     1
102
RTVSPropertyOp14
 70
     1
102
RTVSPropertyOp15
 70
     1
102
RTVSPropertyOp16
 70
     1
102
RTVSPropertyOp17
 70
     1
102
RTVSPropertyOp18
 70
     1
102
RTVSPropertyOp19
 70
     1
102
RTVSPropertyOp20
 70
     1
102
RTVSPropertyOp21
 70
     1
102
RTVSPropertyOp22
 70
     1
102
RTVSPropertyOp23
 70
     1
102
RTVSPropertyOp24
 70
     1
102
RTVSPropertyOp25
 70
     1
102
RTVSPropertyOp26
 70
     1
102
RTVSPropertyOp27
 70
     1
102
RTVSPropertyOp28
 70
     1
102
RTVSPropertyOp29
 70
     1
102
RTVSPropertyOp30
 70
     1
102
RTVSPropertyOp31
 70
     1
102
RTVSPropertyOp32
 70
     1
  0
XRECORD
  5
89E
102
{ACAD_REACTORS
330
89D
102
}
330
89D
100
AcDbXrecord
280
     1
102
RTVSPropertyOp0
 70
     1
102
RTVSPropertyOp1
 70
     1
102
RTVSPropertyOp2
 70
     1
102
RTVSPropertyOp3
 70
     1
102
RTVSPropertyOp4
 70
     1
102
RTVSPropertyOp5
 70
     1
102
RTVSPropertyOp6
 70
     1
102
RTVSPropertyOp7
 70
     1
102
RTVSPropertyOp8
 70
     1
102
RTVSPropertyOp9
 70
     1
102
RTVSPropertyOp10
 70
     1
102
RTVSPropertyOp11
 70
     1
102
RTVSPropertyOp12
 70
     1
102
RTVSPropertyOp13
 70
     1
102
RTVSPropertyOp14
 70
     1
102
RTVSPropertyOp15
 70
     1
102
RTVSPropertyOp16
 70
     1
102
RTVSPropertyOp17
 70
     1
102
RTVSPropertyOp18
 70
     1
102
RTVSPropertyOp19
 70
     1
102
RTVSPropertyOp20
 70
     1
102
RTVSPropertyOp21
 70
     1
102
RTVSPropertyOp22
 70
     1
102
RTVSPropertyOp23
 70
     1
102
RTVSPropertyOp24
 70
     1
102
RTVSPropertyOp25
 70
     1
102
RTVSPropertyOp26
 70
     1
102
RTVSPropertyOp27
 70
     1
102
RTVSPropertyOp28
 70
     1
102
RTVSPropertyOp29
 70
     1
102
RTVSPropertyOp30
 70
     1
102
RTVSPropertyOp31
 70
     1
102
RTVSPropertyOp32
 70
     1
  0
XRECORD
  5
8B6
102
{ACAD_REACTORS
330
8B5
102
}
330
8B5
100
AcDbXrecord
280
     1
102
RTVSPropertyOp0
 70
     1
102
RTVSPropertyOp1
 70
     1
102
RTVSPropertyOp2
 70
     1
102
RTVSPropertyOp3
 70
     1
102
RTVSPropertyOp4
 70
     1
102
RTVSPropertyOp5
 70
     1
102
RTVSPropertyOp6
 70
     1
102
RTVSPropertyOp7
 70
     1
102
RTVSPropertyOp8
 70
     1
102
RTVSPropertyOp9
 70
     1
102
RTVSPropertyOp10
 70
     1
102
RTVSPropertyOp11
 70
     1
102
RTVSPropertyOp12
 70
     1
102
RTVSPropertyOp13
 70
     1
102
RTVSPropertyOp14
 70
     1
102
RTVSPropertyOp15
 70
     1
102
RTVSPropertyOp16
 70
     1
102
RTVSPropertyOp17
 70
     1
102
RTVSPropertyOp18
 70
     1
102
RTVSPropertyOp19
 70
     1
102
RTVSPropertyOp20
 70
     1
102
RTVSPropertyOp21
 70
     1
102
RTVSPropertyOp22
 70
     1
102
RTVSPropertyOp23
 70
     1
102
RTVSPropertyOp24
 70
     1
102
RTVSPropertyOp25
 70
     1
102
RTVSPropertyOp26
 70
     1
102
RTVSPropertyOp27
 70
     1
102
RTVSPropertyOp28
 70
     1
102
RTVSPropertyOp29
 70
     1
102
RTVSPropertyOp30
 70
     1
102
RTVSPropertyOp31
 70
     1
102
RTVSPropertyOp32
 70
     1
  0
ENDSEC
  0
EOF
