  0
SECTION
  2
HEADER
  9
$ACADVER
  1
AC1015
  9
$ACADMAINTVER
 70
    18
  9
$DWGCODEPAGE
  3
ANSI_1252
  9
$INSBASE
 10
0.0
 20
0.0
 30
0.0
  9
$EXTMIN
 10
0.0
 20
0.0
 30
0.0
  9
$EXTMAX
 10
30.90909090909091
 20
20.0
 30
0.0
  9
$LIMMIN
 10
0.0
 20
0.0
  9
$LIMMAX
 10
30.90909090909091
 20
20.0
  9
$ORTHOMODE
 70
     0
  9
$REGENMODE
 70
     1
  9
$FILLMODE
 70
     1
  9
$QTEXTMODE
 70
     0
  9
$MIRRTEXT
 70
     0
  9
$LTSCALE
 40
1.818181818181818
  9
$ATTMODE
 70
     1
  9
$TEXTSIZE
 40
0.2
  9
$TRACEWID
 40
0.05
  9
$TEXTSTYLE
  7
Standard
  9
$CLAYER
  8
0
  9
$CELTYPE
  6
ByLayer
  9
$CECOLOR
 62
   256
  9
$CELTSCALE
 40
1.0
  9
$DISPSILH
 70
     0
  9
$DIMSCALE
 40
1.0
  9
$DIMASZ
 40
0.0708661417322835
  9
$DIMEXO
 40
0.0625
  9
$DIMDLI
 40
0.38
  9
$DIMRND
 40
0.0
  9
$DIMDLE
 40
0.0
  9
$DIMEXE
 40
0.18
  9
$DIMTP
 40
0.0
  9
$DIMTM
 40
0.0
  9
$DIMTXT
 40
0.0708661417322835
  9
$DIMCEN
 40
0.09
  9
$DIMTSZ
 40
0.0
  9
$DIMTOL
 70
     0
  9
$DIMLIM
 70
     0
  9
$DIMTIH
 70
     1
  9
$DIMTOH
 70
     1
  9
$DIMSE1
 70
     0
  9
$DIMSE2
 70
     0
  9
$DIMTAD
 70
     0
  9
$DIMZIN
 70
     0
  9
$DIMBLK
  1

  9
$DIMASO
 70
     1
  9
$DIMSHO
 70
     1
  9
$DIMPOST
  1

  9
$DIMAPOST
  1

  9
$DIMALT
 70
     0
  9
$DIMALTD
 70
     2
  9
$DIMALTF
 40
25.4
  9
$DIMLFAC
 40
1.0
  9
$DIMTOFL
 70
     0
  9
$DIMTVP
 40
0.0
  9
$DIMTIX
 70
     0
  9
$DIMSOXD
 70
     0
  9
$DIMSAH
 70
     0
  9
$DIMBLK1
  1

  9
$DIMBLK2
  1

  9
$DIMSTYLE
  2
STANDARD
  9
$DIMCLRD
 70
     0
  9
$DIMCLRE
 70
     0
  9
$DIMCLRT
 70
     0
  9
$DIMTFAC
 40
1.0
  9
$DIMGAP
 40
0.09
  9
$DIMJUST
 70
     0
  9
$DIMSD1
 70
     0
  9
$DIMSD2
 70
     0
  9
$DIMTOLJ
 70
     1
  9
$DIMTZIN
 70
     0
  9
$DIMALTZ
 70
     0
  9
$DIMALTTZ
 70
     0
  9
$DIMUPT
 70
     0
  9
$DIMDEC
 70
     4
  9
$DIMTDEC
 70
     4
  9
$DIMALTU
 70
     2
  9
$DIMALTTD
 70
     2
  9
$DIMTXSTY
  7
Standard
  9
$DIMAUNIT
 70
     0
  9
$DIMADEC
 70
     0
  9
$DIMALTRND
 40
0.0
  9
$DIMAZIN
 70
     0
  9
$DIMDSEP
 70
    46
  9
$DIMATFIT
 70
     3
  9
$DIMFRAC
 70
     0
  9
$DIMLDRBLK
  1

  9
$DIMLUNIT
 70
     2
  9
$DIMLWD
 70
    -2
  9
$DIMLWE
 70
    -2
  9
$DIMTMOVE
 70
     0
  9
$LUNITS
 70
     2
  9
$LUPREC
 70
     4
  9
$SKETCHINC
 40
0.1
  9
$FILLETRAD
 40
0.0
  9
$AUNITS
 70
     0
  9
$AUPREC
 70
     0
  9
$MENU
  1
.
  9
$ELEVATION
 40
0.0
  9
$PELEVATION
 40
0.0
  9
$THICKNESS
 40
0.0
  9
$LIMCHECK
 70
     0
  9
$CHAMFERA
 40
0.0
  9
$CHAMFERB
 40
0.0
  9
$CHAMFERC
 40
0.0
  9
$CHAMFERD
 40
0.0
  9
$SKPOLY
 70
     0
  9
$TDCREATE
 40
2455951.563037789
  9
$TDUCREATE
 40
2455951.813037790
  9
$TDUPDATE
 40
2455951.563037789
  9
$TDUUPDATE
 40
2455951.813037790
  9
$TDINDWG
 40
0.0000576852
  9
$TDUSRTIMER
 40
0.0000576852
  9
$USRTIMER
 70
     1
  9
$ANGBASE
 50
0.0
  9
$ANGDIR
 70
     0
  9
$PDMODE
 70
     0
  9
$PDSIZE
 40
0.0
  9
$PLINEWID
 40
0.0
  9
$SPLFRAME
 70
     0
  9
$SPLINETYPE
 70
     6
  9
$SPLINESEGS
 70
     8
  9
$HANDSEED
  5
8CE
  9
$SURFTAB1
 70
     6
  9
$SURFTAB2
 70
     6
  9
$SURFTYPE
 70
     6
  9
$SURFU
 70
     6
  9
$SURFV
 70
     6
  9
$UCSBASE
  2

  9
$UCSNAME
  2

  9
$UCSORG
 10
0.0
 20
0.0
 30
0.0
  9
$UCSXDIR
 10
1.0
 20
0.0
 30
0.0
  9
$UCSYDIR
 10
0.0
 20
1.0
 30
0.0
  9
$UCSORTHOREF
  2

  9
$UCSORTHOVIEW
 70
     0
  9
$UCSORGTOP
 10
0.0
 20
0.0
 30
0.0
  9
$UCSORGBOTTOM
 10
0.0
 20
0.0
 30
0.0
  9
$UCSORGLEFT
 10
0.0
 20
0.0
 30
0.0
  9
$UCSORGRIGHT
 10
0.0
 20
0.0
 30
0.0
  9
$UCSORGFRONT
 10
0.0
 20
0.0
 30
0.0
  9
$UCSORGBACK
 10
0.0
 20
0.0
 30
0.0
  9
$PUCSBASE
  2

  9
$PUCSNAME
  2

  9
$PUCSORG
 10
0.0
 20
0.0
 30
0.0
  9
$PUCSXDIR
 10
1.0
 20
0.0
 30
0.0
  9
$PUCSYDIR
 10
0.0
 20
1.0
 30
0.0
  9
$PUCSORTHOREF
  2

  9
$PUCSORTHOVIEW
 70
     0
  9
$PUCSORGTOP
 10
0.0
 20
0.0
 30
0.0
  9
$PUCSORGBOTTOM
 10
0.0
 20
0.0
 30
0.0
  9
$PUCSORGLEFT
 10
0.0
 20
0.0
 30
0.0
  9
$PUCSORGRIGHT
 10
0.0
 20
0.0
 30
0.0
  9
$PUCSORGFRONT
 10
0.0
 20
0.0
 30
0.0
  9
$PUCSORGBACK
 10
0.0
 20
0.0
 30
0.0
  9
$USERI1
 70
     0
  9
$USERI2
 70
     0
  9
$USERI3
 70
     0
  9
$USERI4
 70
     0
  9
$USERI5
 70
     0
  9
$USERR1
 40
0.0
  9
$USERR2
 40
0.0
  9
$USERR3
 40
0.0
  9
$USERR4
 40
0.0
  9
$USERR5
 40
0.0
  9
$WORLDVIEW
 70
     1
  9
$SHADEDGE
 70
     3
  9
$SHADEDIF
 70
    70
  9
$TILEMODE
 70
     1
  9
$MAXACTVP
 70
    64
  9
$PINSBASE
 10
0.0
 20
0.0
 30
0.0
  9
$PLIMCHECK
 70
     0
  9
$PEXTMIN
 10
0.0
 20
0.0
 30
0.0
  9
$PEXTMAX
 10
30.90909090909091
 20
20.0
 30
0.0
  9
$PLIMMIN
 10
0.0
 20
0.0
  9
$PLIMMAX
 10
30.90909090909091
 20
20.0
  9
$UNITMODE
 70
     0
  9
$VISRETAIN
 70
     1
  9
$PLINEGEN
 70
     0
  9
$PSLTSCALE
 70
     1
  9
$TREEDEPTH
 70
  3020
  9
$CMLSTYLE
  2
Standard
  9
$CMLJUST
 70
     0
  9
$CMLSCALE
 40
1.0
  9
$PROXYGRAPHICS
 70
     1
  9
$MEASUREMENT
 70
     0
  9
$CELWEIGHT
370
    -1
  9
$ENDCAPS
280
     0
  9
$JOINSTYLE
280
     0
  9
$LWDISPLAY
290
     0
  9
$INSUNITS
 70
     1
  9
$HYPERLINKBASE
  1

  9
$STYLESHEET
  1

  9
$XEDIT
290
     1
  9
$CEPSNTYPE
380
     0
  9
$PSTYLEMODE
290
     1
  9
$FINGERPRINTGUID
  2
{11C2EB8E-959B-4599-A11E-B5161785FB1C}
  9
$VERSIONGUID
  2
{CA1F4414-B270-46DB-A633-AFC7600D2D25}
  9
$EXTNAMES
290
     1
  9
$PSVPSCALE
 40
0.0
  9
$OLESTARTUP
290
     0
  0
ENDSEC
  0
SECTION
  2
CLASSES
  0
CLASS
  1
ACDBDICTIONARYWDFLT
  2
AcDbDictionaryWithDefault
  3
ObjectDBX Classes
 90
        0
280
     0
281
     0
  0
CLASS
  1
MATERIAL
  2
AcDbMaterial
  3
ObjectDBX Classes
 90
     1153
280
     0
281
     0
  0
CLASS
  1
VISUALSTYLE
  2
AcDbVisualStyle
  3
ObjectDBX Classes
 90
     4095
280
     0
281
     0
  0
CLASS
  1
SCALE
  2
AcDbScale
  3
ObjectDBX Classes
 90
     1153
280
     0
281
     0
  0
CLASS
  1
TABLESTYLE
  2
AcDbTableStyle
  3
ObjectDBX Classes
 90
     4095
280
     0
281
     0
  0
CLASS
  1
MLEADERSTYLE
  2
AcDbMLeaderStyle
  3
ACDB_MLEADERSTYLE_CLASS
 90
     4095
280
     0
281
     0
  0
CLASS
  1
DICTIONARYVAR
  2
AcDbDictionaryVar
  3
ObjectDBX Classes
 90
        0
280
     0
281
     0
  0
CLASS
  1
CELLSTYLEMAP
  2
AcDbCellStyleMap
  3
ObjectDBX Classes
 90
     1152
280
     0
281
     0
  0
CLASS
  1
ACDBPLACEHOLDER
  2
AcDbPlaceHolder
  3
ObjectDBX Classes
 90
        0
280
     0
281
     0
  0
CLASS
  1
LAYOUT
  2
AcDbLayout
  3
ObjectDBX Classes
 90
        0
280
     0
281
     0
  0
ENDSEC
  0
SECTION
  2
TABLES
  0
TABLE
  2
VPORT
  5
8
330
0
100
AcDbSymbolTable
 70
     1
  0
VPORT
  5
57
330
8
100
AcDbSymbolTableRecord
100
AcDbViewportTableRecord
  2
*Active
 70
     0
 10
0.0
 20
0.0
 11
1.0
 21
1.0
 12
15.45454545454545
 22
10.0
 13
0.0
 23
0.0
 14
1.0
 24
1.0
 15
0.0
 25
0.0
 16
0.0
 26
0.0
 36
1.0
 17
0.0
 27
0.0
 37
0.0
 40
20.0
 41
1.545454545454545
 42
50.0
 43
0.0
 44
0.0
 50
0.0
 51
0.0
 71
     0
 72
   100
 73
     1
 74
     1
 75
     0
 76
     0
 77
     0
 78
     0
281
     0
 65
     1
110
0.0
120
0.0
130
0.0
111
1.0
121
0.0
131
0.0
112
0.0
122
1.0
132
0.0
 79
     0
146
0.0
  0
ENDTAB
  0
TABLE
  2
LTYPE
  5
5
330
0
100
AcDbSymbolTable
 70
    59
  0
LTYPE
  5
5B
330
5
100
AcDbSymbolTableRecord
100
AcDbLinetypeTableRecord
  2
ByBlock
 70
     0
  3

 72
    65
 73
     0
 40
0.0
  0
LTYPE
  5
5C
330
5
100
AcDbSymbolTableRecord
100
AcDbLinetypeTableRecord
  2
ByLayer
 70
     0
  3

 72
    65
 73
     0
 40
0.0
  0
LTYPE
  5
5D
330
5
100
AcDbSymbolTableRecord
100
AcDbLinetypeTableRecord
  2
Continuous
 70
     0
  3
Solid line
 72
    65
 73
     0
 40
0.0
  0
LTYPE
  5
7C
330
5
100
AcDbSymbolTableRecord
100
AcDbLinetypeTableRecord
  2
BY_STANDARD
 70
     0
  3
By Standard ____________    ____    ____   _
 72
    65
 73
     6
 40
1.240299999999999
 49
0.6614
 74
     0
 49
-0.0827
 74
     0
 49
0.1654
 74
     0
 49
-0.0827
 74
     0
 49
0.1654
 74
     0
 49
-0.0827
 74
     0
  0
LTYPE
  5
7D
330
5
100
AcDbSymbolTableRecord
100
AcDbLinetypeTableRecord
  2
CHAIN
 70
     0
  3
Chain ____ _ ____ _ ____ _ ____ _ ____ _ ____
 72
    65
 73
     4
 40
0.7087
 49
0.4724000000000001
 74
     0
 49
-0.0591
 74
     0
 49
0.1181
 74
     0
 49
-0.0591
 74
     0
  0
LTYPE
  5
7E
330
5
100
AcDbSymbolTableRecord
100
AcDbLinetypeTableRecord
  2
DASH_DOT
 70
     0
  3
Dash dot __ . __ . __ . __ . __ . __ . __ . __
 72
    65
 73
     4
 40
0.37
 49
0.24
 74
     0
 49
-0.06
 74
     0
 49
0.01
 74
     0
 49
-0.06
 74
     0
  0
LTYPE
  5
7F
330
5
100
AcDbSymbolTableRecord
100
AcDbLinetypeTableRecord
  2
DOUBLE_DASH_DOT
 70
     0
  3
Double-Dash Dot __ __ . __ __ . __ __ . __ _
 72
    65
 73
     6
 40
0.4398
 49
0.24
 74
     0
 49
-0.06
 74
     0
 49
0.0098
 74
     0
 49
-0.06
 74
     0
 49
0.01
 74
     0
 49
-0.06
 74
     0
  0
LTYPE
  5
80
330
5
100
AcDbSymbolTableRecord
100
AcDbLinetypeTableRecord
  2
DASH_TRIPLE_DOT
 70
     0
  3
Dash Triple-Dot _ . . . _ . . . _ . . . _
 72
    65
 73
     8
 40
0.51
 49
0.24
 74
     0
 49
-0.06
 74
     0
 49
0.01
 74
     0
 49
-0.06
 74
     0
 49
0.01
 74
     0
 49
-0.06
 74
     0
 49
0.01
 74
     0
 49
-0.06
 74
     0
  0
LTYPE
  5
81
330
5
100
AcDbSymbolTableRecord
100
AcDbLinetypeTableRecord
  2
DASHED
 70
     0
  3
Dashed __ __ __ __ __ __ __ __ __ __ __ __ __ _
 72
    65
 73
     2
 40
0.2067
 49
0.1654
 74
     0
 49
-0.0413
 74
     0
  0
LTYPE
  5
82
330
5
100
AcDbSymbolTableRecord
100
AcDbLinetypeTableRecord
  2
DASH_DOUBLE_DOT
 70
     0
  3
Dash Double-Dot __ . . __ . . __ . . __ . .
 72
    65
 73
     6
 40
0.4398
 49
0.24
 74
     0
 49
-0.06
 74
     0
 49
0.0098
 74
     0
 49
-0.06
 74
     0
 49
0.01
 74
     0
 49
-0.06
 74
     0
  0
LTYPE
  5
83
330
5
100
AcDbSymbolTableRecord
100
AcDbLinetypeTableRecord
  2
DASHED_SPACE
 70
     0
  3
Dashed Space __ __ __ __ __ __ __ __ __ __ __ _
 72
    65
 73
     2
 40
0.2067
 49
0.1654
 74
     0
 49
-0.0413
 74
     0
  0
LTYPE
  5
84
330
5
100
AcDbSymbolTableRecord
100
AcDbLinetypeTableRecord
  2
DOTTED
 70
     0
  3
Dotted . . . . . . . . . . . . . . . . . . . . 
 72
    65
 73
     2
 40
0.0482
 49
0.0069
 74
     0
 49
-0.0413
 74
     0
  0
LTYPE
  5
85
330
5
100
AcDbSymbolTableRecord
100
AcDbLinetypeTableRecord
  2
DOUBLE_DASH_CHAIN
 70
     0
  3
Double-Dash Chain ______  __  __  ______  __  _
 72
    65
 73
     6
 40
1.240299999999999
 49
0.6614
 74
     0
 49
-0.0827
 74
     0
 49
0.1654
 74
     0
 49
-0.0827
 74
     0
 49
0.1654
 74
     0
 49
-0.0827
 74
     0
  0
LTYPE
  5
87
330
5
100
AcDbSymbolTableRecord
100
AcDbLinetypeTableRecord
  2
DOUBLE_DASH_DOUBLE_DOT
 70
     0
  3
Double-Dash Double-dot _ _ . . _ _ . . _
 72
    65
 73
     8
 40
0.7400000000000001
 49
0.24
 74
     0
 49
-0.06
 74
     0
 49
0.24
 74
     0
 49
-0.06
 74
     0
 49
0.01
 74
     0
 49
-0.06
 74
     0
 49
0.01
 74
     0
 49
-0.06
 74
     0
  0
LTYPE
  5
88
330
5
100
AcDbSymbolTableRecord
100
AcDbLinetypeTableRecord
  2
DOUBLE_DASH_TRIPLE_DOT
 70
     0
  3
Double Dash Triple Dot __ __ . . . __ __ . .
 72
    65
 73
    10
 40
0.8100000000000001
 49
0.24
 74
     0
 49
-0.06
 74
     0
 49
0.24
 74
     0
 49
-0.06
 74
     0
 49
0.01
 74
     0
 49
-0.06
 74
     0
 49
0.01
 74
     0
 49
-0.06
 74
     0
 49
0.01
 74
     0
 49
-0.06
 74
     0
  0
LTYPE
  5
89
330
5
100
AcDbSymbolTableRecord
100
AcDbLinetypeTableRecord
  2
LONG_DASH_DOTTED
 70
     0
  3
Long Dash Dotted ____ . ____ . ____ . ____ . _
 72
    65
 73
     4
 40
0.3543
 49
0.2362
 74
     0
 49
-0.0295
 74
     0
 49
0.0591
 74
     0
 49
-0.0295
 74
     0
  0
LTYPE
  5
8A
330
5
100
AcDbSymbolTableRecord
100
AcDbLinetypeTableRecord
  2
LONG_DASH_DOUBLE_DOT
 70
     0
  3
Long Dash Double Dot ________  .  .  ________  
 72
    65
 73
     6
 40
0.6799999999999999
 49
0.48
 74
     0
 49
-0.06
 74
     0
 49
0.01
 74
     0
 49
-0.06
 74
     0
 49
0.01
 74
     0
 49
-0.06
 74
     0
  0
LTYPE
  5
8B
330
5
100
AcDbSymbolTableRecord
100
AcDbLinetypeTableRecord
  2
LONG_DASH_TRIPLE_DOT
 70
     0
  3
Long Dash Triple Dot ____ ... ____ ... ____
 72
    65
 73
     8
 40
0.3689
 49
0.2362
 74
     0
 49
-0.0295
 74
     0
 49
0.0049
 74
     0
 49
-0.0295
 74
     0
 49
0.0049
 74
     0
 49
-0.0295
 74
     0
 49
0.0049
 74
     0
 49
-0.0295
 74
     0
  0
LTYPE
  5
8C
330
5
100
AcDbSymbolTableRecord
100
AcDbLinetypeTableRecord
  2
BORDER
 70
     0
  3
Border __ __ . __ __ . __ __ . __ __ . __ __ .
 72
    65
 73
     6
 40
1.75
 49
0.5
 74
     0
 49
-0.25
 74
     0
 49
0.5
 74
     0
 49
-0.25
 74
     0
 49
0.0
 74
     0
 49
-0.25
 74
     0
  0
LTYPE
  5
8D
330
5
100
AcDbSymbolTableRecord
100
AcDbLinetypeTableRecord
  2
BORDER2
 70
     0
  3
Border (.5x) __.__.__.__.__.__.__.__.__.__.__.
 72
    65
 73
     6
 40
0.875
 49
0.25
 74
     0
 49
-0.125
 74
     0
 49
0.25
 74
     0
 49
-0.125
 74
     0
 49
0.0
 74
     0
 49
-0.125
 74
     0
  0
LTYPE
  5
8E
330
5
100
AcDbSymbolTableRecord
100
AcDbLinetypeTableRecord
  2
BORDERX2
 70
     0
  3
Border (2x) ____  ____  .  ____  ____  .  ___
 72
    65
 73
     6
 40
3.5
 49
1.0
 74
     0
 49
-0.5
 74
     0
 49
1.0
 74
     0
 49
-0.5
 74
     0
 49
0.0
 74
     0
 49
-0.5
 74
     0
  0
LTYPE
  5
8F
330
5
100
AcDbSymbolTableRecord
100
AcDbLinetypeTableRecord
  2
CENTER
 70
     0
  3
Center ____ _ ____ _ ____ _ ____ _ ____ _ ____
 72
    65
 73
     4
 40
2.0
 49
1.25
 74
     0
 49
-0.25
 74
     0
 49
0.25
 74
     0
 49
-0.25
 74
     0
  0
LTYPE
  5
90
330
5
100
AcDbSymbolTableRecord
100
AcDbLinetypeTableRecord
  2
CENTER2
 70
     0
  3
Center (.5x) ___ _ ___ _ ___ _ ___ _ ___ _ ___
 72
    65
 73
     4
 40
1.125
 49
0.75
 74
     0
 49
-0.125
 74
     0
 49
0.125
 74
     0
 49
-0.125
 74
     0
  0
LTYPE
  5
91
330
5
100
AcDbSymbolTableRecord
100
AcDbLinetypeTableRecord
  2
CENTERX2
 70
     0
  3
Center (2x) ________  __  ________  __  _____
 72
    65
 73
     4
 40
4.0
 49
2.5
 74
     0
 49
-0.5
 74
     0
 49
0.5
 74
     0
 49
-0.5
 74
     0
  0
LTYPE
  5
92
330
5
100
AcDbSymbolTableRecord
100
AcDbLinetypeTableRecord
  2
DASHDOT2
 70
     0
  3
Dash dot (.5x) _._._._._._._._._._._._._._._.
 72
    65
 73
     4
 40
0.5
 49
0.25
 74
     0
 49
-0.125
 74
     0
 49
0.0
 74
     0
 49
-0.125
 74
     0
  0
LTYPE
  5
93
330
5
100
AcDbSymbolTableRecord
100
AcDbLinetypeTableRecord
  2
DASHDOTX2
 70
     0
  3
Dash dot (2x) ____  .  ____  .  ____  .  ___
 72
    65
 73
     4
 40
2.0
 49
1.0
 74
     0
 49
-0.5
 74
     0
 49
0.0
 74
     0
 49
-0.5
 74
     0
  0
LTYPE
  5
95
330
5
100
AcDbSymbolTableRecord
100
AcDbLinetypeTableRecord
  2
DASHED2
 70
     0
  3
Dashed (.5x) _ _ _ _ _ _ _ _ _ _ _ _ _ _ _ _ _
 72
    65
 73
     2
 40
0.375
 49
0.25
 74
     0
 49
-0.125
 74
     0
  0
LTYPE
  5
96
330
5
100
AcDbSymbolTableRecord
100
AcDbLinetypeTableRecord
  2
DASHEDX2
 70
     0
  3
Dashed (2x) ____  ____  ____  ____  ____  ___
 72
    65
 73
     2
 40
1.5
 49
1.0
 74
     0
 49
-0.5
 74
     0
  0
LTYPE
  5
97
330
5
100
AcDbSymbolTableRecord
100
AcDbLinetypeTableRecord
  2
DIVIDE
 70
     0
  3
Divide ____ . . ____ . . ____ . . ____ . . ____
 72
    65
 73
     6
 40
1.25
 49
0.5
 74
     0
 49
-0.25
 74
     0
 49
0.0
 74
     0
 49
-0.25
 74
     0
 49
0.0
 74
     0
 49
-0.25
 74
     0
  0
LTYPE
  5
98
330
5
100
AcDbSymbolTableRecord
100
AcDbLinetypeTableRecord
  2
DIVIDE2
 70
     0
  3
Divide (.5x) __..__..__..__..__..__..__..__.._
 72
    65
 73
     6
 40
0.625
 49
0.25
 74
     0
 49
-0.125
 74
     0
 49
0.0
 74
     0
 49
-0.125
 74
     0
 49
0.0
 74
     0
 49
-0.125
 74
     0
  0
LTYPE
  5
99
330
5
100
AcDbSymbolTableRecord
100
AcDbLinetypeTableRecord
  2
DIVIDEX2
 70
     0
  3
Divide (2x) ________  .  .  ________  .  .  _
 72
    65
 73
     6
 40
2.5
 49
1.0
 74
     0
 49
-0.5
 74
     0
 49
0.0
 74
     0
 49
-0.5
 74
     0
 49
0.0
 74
     0
 49
-0.5
 74
     0
  0
LTYPE
  5
9A
330
5
100
AcDbSymbolTableRecord
100
AcDbLinetypeTableRecord
  2
DOT
 70
     0
  3
Dot . . . . . . . . . . . . . . . . . . . . . .
 72
    65
 73
     2
 40
0.25
 49
0.0
 74
     0
 49
-0.25
 74
     0
  0
LTYPE
  5
9B
330
5
100
AcDbSymbolTableRecord
100
AcDbLinetypeTableRecord
  2
DOT2
 70
     0
  3
Dot (.5x) .....................................
 72
    65
 73
     2
 40
0.125
 49
0.0
 74
     0
 49
-0.125
 74
     0
  0
LTYPE
  5
9C
330
5
100
AcDbSymbolTableRecord
100
AcDbLinetypeTableRecord
  2
DOTX2
 70
     0
  3
Dot (2x) .  .  .  .  .  .  .  .  .  .  .  .  . 
 72
    65
 73
     2
 40
0.5
 49
0.0
 74
     0
 49
-0.5
 74
     0
  0
LTYPE
  5
9D
330
5
100
AcDbSymbolTableRecord
100
AcDbLinetypeTableRecord
  2
HIDDEN
 70
     0
  3
Hidden __ __ __ __ __ __ __ __ __ __ __ __ __ _
 72
    65
 73
     2
 40
0.375
 49
0.25
 74
     0
 49
-0.125
 74
     0
  0
LTYPE
  5
9E
330
5
100
AcDbSymbolTableRecord
100
AcDbLinetypeTableRecord
  2
HIDDEN2
 70
     0
  3
Hidden (.5x) _ _ _ _ _ _ _ _ _ _ _ _ _ _ _ _ _
 72
    65
 73
     2
 40
0.1875
 49
0.125
 74
     0
 49
-0.0625
 74
     0
  0
LTYPE
  5
9F
330
5
100
AcDbSymbolTableRecord
100
AcDbLinetypeTableRecord
  2
HIDDENX2
 70
     0
  3
Hidden (2x) ____ ____ ____ ____ ____ ____ ____
 72
    65
 73
     2
 40
0.75
 49
0.5
 74
     0
 49
-0.25
 74
     0
  0
LTYPE
  5
A0
330
5
100
AcDbSymbolTableRecord
100
AcDbLinetypeTableRecord
  2
PHANTOM
 70
     0
  3
Phantom ______  __  __  ______  __  __  ______
 72
    65
 73
     6
 40
2.5
 49
1.25
 74
     0
 49
-0.25
 74
     0
 49
0.25
 74
     0
 49
-0.25
 74
     0
 49
0.25
 74
     0
 49
-0.25
 74
     0
  0
LTYPE
  5
A1
330
5
100
AcDbSymbolTableRecord
100
AcDbLinetypeTableRecord
  2
PHANTOM2
 70
     0
  3
Phantom (.5x) ___ _ _ ___ _ _ ___ _ _ ___ _ _
 72
    65
 73
     6
 40
1.25
 49
0.625
 74
     0
 49
-0.125
 74
     0
 49
0.125
 74
     0
 49
-0.125
 74
     0
 49
0.125
 74
     0
 49
-0.125
 74
     0
  0
LTYPE
  5
A2
330
5
100
AcDbSymbolTableRecord
100
AcDbLinetypeTableRecord
  2
PHANTOMX2
 70
     0
  3
Phantom (2x) ____________    ____    ____   _
 72
    65
 73
     6
 40
5.0
 49
2.5
 74
     0
 49
-0.5
 74
     0
 49
0.5
 74
     0
 49
-0.5
 74
     0
 49
0.5
 74
     0
 49
-0.5
 74
     0
  0
LTYPE
  5
A3
330
5
100
AcDbSymbolTableRecord
100
AcDbLinetypeTableRecord
  2
ACAD_ISO02W100
 70
     0
  3
ISO dash __ __ __ __ __ __ __ __ __ __ __ __ __
 72
    65
 73
     2
 40
0.59
 49
0.47
 74
     0
 49
-0.12
 74
     0
  0
LTYPE
  5
A4
330
5
100
AcDbSymbolTableRecord
100
AcDbLinetypeTableRecord
  2
ACAD_ISO03W100
 70
     0
  3
ISO dash space __    __    __    __    __    __
 72
    65
 73
     2
 40
1.179999999999999
 49
0.47
 74
     0
 49
-0.71
 74
     0
  0
LTYPE
  5
A5
330
5
100
AcDbSymbolTableRecord
100
AcDbLinetypeTableRecord
  2
ACAD_ISO04W100
 70
     0
  3
ISO long-dash dot ____ . ____ . ____ . ____ . _
 72
    65
 73
     4
 40
1.179999999999999
 49
0.9399999999999998
 74
     0
 49
-0.12
 74
     0
 49
0.0
 74
     0
 49
-0.12
 74
     0
  0
LTYPE
  5
A6
330
5
100
AcDbSymbolTableRecord
100
AcDbLinetypeTableRecord
  2
ACAD_ISO05W100
 70
     0
  3
ISO long-dash double-dot ____ .. ____ .. ____ .
 72
    65
 73
     6
 40
1.299999999999999
 49
0.9399999999999998
 74
     0
 49
-0.12
 74
     0
 49
0.0
 74
     0
 49
-0.12
 74
     0
 49
0.0
 74
     0
 49
-0.12
 74
     0
  0
LTYPE
  5
A7
330
5
100
AcDbSymbolTableRecord
100
AcDbLinetypeTableRecord
  2
ACAD_ISO06W100
 70
     0
  3
ISO long-dash triple-dot ____ ... ____ ... ____
 72
    65
 73
     8
 40
1.419999999999999
 49
0.9399999999999998
 74
     0
 49
-0.12
 74
     0
 49
0.0
 74
     0
 49
-0.12
 74
     0
 49
0.0
 74
     0
 49
-0.12
 74
     0
 49
0.0
 74
     0
 49
-0.12
 74
     0
  0
LTYPE
  5
A8
330
5
100
AcDbSymbolTableRecord
100
AcDbLinetypeTableRecord
  2
ACAD_ISO07W100
 70
     0
  3
ISO dot . . . . . . . . . . . . . . . . . . . .
 72
    65
 73
     2
 40
0.12
 49
0.0
 74
     0
 49
-0.12
 74
     0
  0
LTYPE
  5
A9
330
5
100
AcDbSymbolTableRecord
100
AcDbLinetypeTableRecord
  2
ACAD_ISO08W100
 70
     0
  3
ISO long-dash short-dash ____ __ ____ __ ____ _
 72
    65
 73
     4
 40
0.95
 49
0.47
 74
     0
 49
-0.12
 74
     0
 49
0.24
 74
     0
 49
-0.12
 74
     0
  0
LTYPE
  5
AA
330
5
100
AcDbSymbolTableRecord
100
AcDbLinetypeTableRecord
  2
ACAD_ISO09W100
 70
     0
  3
ISO long-dash double-short-dash ____ __ __ ____
 72
    65
 73
     6
 40
1.31
 49
0.47
 74
     0
 49
-0.12
 74
     0
 49
0.24
 74
     0
 49
-0.12
 74
     0
 49
0.24
 74
     0
 49
-0.12
 74
     0
  0
LTYPE
  5
AB
330
5
100
AcDbSymbolTableRecord
100
AcDbLinetypeTableRecord
  2
ACAD_ISO10W100
 70
     0
  3
ISO dash dot __ . __ . __ . __ . __ . __ . __ .
 72
    65
 73
     4
 40
0.71
 49
0.47
 74
     0
 49
-0.12
 74
     0
 49
0.0
 74
     0
 49
-0.12
 74
     0
  0
LTYPE
  5
AC
330
5
100
AcDbSymbolTableRecord
100
AcDbLinetypeTableRecord
  2
ACAD_ISO11W100
 70
     0
  3
ISO double-dash dot __ __ . __ __ . __ __ . __ 
 72
    65
 73
     6
 40
1.299999999999999
 49
0.47
 74
     0
 49
-0.12
 74
     0
 49
0.47
 74
     0
 49
-0.12
 74
     0
 49
0.0
 74
     0
 49
-0.12
 74
     0
  0
LTYPE
  5
AD
330
5
100
AcDbSymbolTableRecord
100
AcDbLinetypeTableRecord
  2
ACAD_ISO12W100
 70
     0
  3
ISO dash double-dot __ . . __ . . __ . . __ . .
 72
    65
 73
     6
 40
0.8299999999999998
 49
0.47
 74
     0
 49
-0.12
 74
     0
 49
0.0
 74
     0
 49
-0.12
 74
     0
 49
0.0
 74
     0
 49
-0.12
 74
     0
  0
LTYPE
  5
AE
330
5
100
AcDbSymbolTableRecord
100
AcDbLinetypeTableRecord
  2
ACAD_ISO13W100
 70
     0
  3
ISO double-dash double-dot __ __ . . __ __ . . 
 72
    65
 73
     8
 40
1.419999999999999
 49
0.47
 74
     0
 49
-0.12
 74
     0
 49
0.47
 74
     0
 49
-0.12
 74
     0
 49
0.0
 74
     0
 49
-0.12
 74
     0
 49
0.0
 74
     0
 49
-0.12
 74
     0
  0
LTYPE
  5
AF
330
5
100
AcDbSymbolTableRecord
100
AcDbLinetypeTableRecord
  2
ACAD_ISO14W100
 70
     0
  3
ISO dash triple-dot __ . . . __ . . . __ . . . 
 72
    65
 73
     8
 40
0.95
 49
0.47
 74
     0
 49
-0.12
 74
     0
 49
0.0
 74
     0
 49
-0.12
 74
     0
 49
0.0
 74
     0
 49
-0.12
 74
     0
 49
0.0
 74
     0
 49
-0.12
 74
     0
  0
LTYPE
  5
B0
330
5
100
AcDbSymbolTableRecord
100
AcDbLinetypeTableRecord
  2
ACAD_ISO15W100
 70
     0
  3
ISO double-dash triple-dot __ __ . . . __ __ . 
 72
    65
 73
    10
 40
1.539999999999999
 49
0.47
 74
     0
 49
-0.12
 74
     0
 49
0.47
 74
     0
 49
-0.12
 74
     0
 49
0.0
 74
     0
 49
-0.12
 74
     0
 49
0.0
 74
     0
 49
-0.12
 74
     0
 49
0.0
 74
     0
 49
-0.12
 74
     0
  0
LTYPE
  5
B3
330
5
100
AcDbSymbolTableRecord
100
AcDbLinetypeTableRecord
  2
FENCELINE1
 70
     0
  3
Fenceline circle ----0-----0----0-----0----0---
 72
    65
 73
     4
 40
1.45
 49
0.25
 74
     0
 49
-0.1
 74
     4
 75
   133
340
B2
 46
0.1
 50
0.0
 44
-0.1
 45
0.0
 49
-0.1
 74
     0
 49
1.0
 74
     0
  0
LTYPE
  5
B4
330
5
100
AcDbSymbolTableRecord
100
AcDbLinetypeTableRecord
  2
FENCELINE2
 70
     0
  3
Fenceline square ----[]-----[]----[]-----[]----
 72
    65
 73
     4
 40
1.45
 49
0.25
 74
     0
 49
-0.1
 74
     4
 75
   132
340
B2
 46
0.1
 50
0.0
 44
-0.1
 45
0.0
 49
-0.1
 74
     0
 49
1.0
 74
     0
  0
LTYPE
  5
B5
330
5
100
AcDbSymbolTableRecord
100
AcDbLinetypeTableRecord
  2
TRACKS
 70
     0
  3
Tracks -|-|-|-|-|-|-|-|-|-|-|-|-|-|-|-|-|-|-|-|
 72
    65
 73
     2
 40
0.3
 49
0.15
 74
     4
 75
   130
340
B2
 46
0.25
 50
0.0
 44
0.0
 45
0.0
 49
0.15
 74
     0
  0
LTYPE
  5
B6
330
5
100
AcDbSymbolTableRecord
100
AcDbLinetypeTableRecord
  2
BATTING
 70
     0
  3
Batting SSSSSSSSSSSSSSSSSSSSSSSSSSSSSSSSSSSSSSS
 72
    65
 73
     4
 40
0.4001000000000001
 49
0.0001
 74
     0
 49
-0.1
 74
     4
 75
   134
340
B2
 46
0.1
 50
0.0
 44
-0.1
 45
0.0
 49
-0.2
 74
     4
 75
   134
340
B2
 46
0.1
 50
180.0
 44
0.1
 45
0.0
 49
-0.1
 74
     0
  0
LTYPE
  5
B7
330
5
100
AcDbSymbolTableRecord
100
AcDbLinetypeTableRecord
  2
HOT_WATER_SUPPLY
 70
     0
  3
Hot water supply ---- HW ---- HW ---- HW ----
 72
    65
 73
     3
 40
0.9
 49
0.5
 74
     0
 49
-0.2
 74
     2
 75
     0
340
55
 46
0.1
 50
0.0
 44
-0.1
 45
-0.05
  9
HW
 49
-0.2
 74
     0
  0
LTYPE
  5
B8
330
5
100
AcDbSymbolTableRecord
100
AcDbLinetypeTableRecord
  2
GAS_LINE
 70
     0
  3
Gas line ----GAS----GAS----GAS----GAS----GAS---
 72
    65
 73
     3
 40
0.95
 49
0.5
 74
     0
 49
-0.2
 74
     2
 75
     0
340
55
 46
0.1
 50
0.0
 44
-0.1
 45
-0.05
  9
GAS
 49
-0.25
 74
     0
  0
LTYPE
  5
B9
330
5
100
AcDbSymbolTableRecord
100
AcDbLinetypeTableRecord
  2
ZIGZAG
 70
     0
  3
Zig zag /\/\/\/\/\/\/\/\/\/\/\/\/\/\/\/\/\/\/\/
 72
    65
 73
     4
 40
0.8001000000000001
 49
0.0001
 74
     0
 49
-0.2
 74
     4
 75
   131
340
B2
 46
0.2
 50
0.0
 44
-0.2
 45
0.0
 49
-0.4
 74
     4
 75
   131
340
B2
 46
0.2
 50
180.0
 44
0.2
 45
0.0
 49
-0.2
 74
     0
  0
ENDTAB
  0
TABLE
  2
LAYER
  5
2
330
0
100
AcDbSymbolTable
 70
    27
  0
LAYER
  5
54
330
2
100
AcDbSymbolTableRecord
100
AcDbLayerTableRecord
  2
0
 70
     0
 62
     7
  6
Continuous
370
    18
390
F
  0
LAYER
  5
C3
330
2
100
AcDbSymbolTableRecord
100
AcDbLayerTableRecord
  2
Dimension (ANSI)
 70
     0
 62
     7
  6
Continuous
370
    13
390
F
  0
LAYER
  5
C5
330
2
100
AcDbSymbolTableRecord
100
AcDbLayerTableRecord
  2
Hidden (ANSI)
 70
     0
 62
     7
  6
DASHED
370
    15
390
F
  0
LAYER
  5
CC
330
2
100
AcDbSymbolTableRecord
100
AcDbLayerTableRecord
  2
Symbol (ANSI)
 70
     0
 62
     7
  6
Continuous
370
    18
390
F
  0
LAYER
  5
CF
330
2
100
AcDbSymbolTableRecord
100
AcDbLayerTableRecord
  2
Visible (ANSI)
 70
     0
 62
     7
  6
Continuous
370
    13
390
F
  0
LAYER
  5
D0
330
2
100
AcDbSymbolTableRecord
100
AcDbLayerTableRecord
  2
Visible Narrow (ANSI)
 70
     0
 62
     7
  6
Continuous
370
    18
390
F
  0
LAYER
  5
148
330
2
100
AcDbSymbolTableRecord
100
AcDbLayerTableRecord
  2
Defpoints
 70
     0
 62
     7
  6
Continuous
290
     0
370
    -3
390
F
  0
ENDTAB
  0
TABLE
  2
STYLE
  5
3
330
0
100
AcDbSymbolTable
 70
    18
  0
STYLE
  5
55
330
3
100
AcDbSymbolTableRecord
100
AcDbTextStyleTableRecord
  2
Standard
 70
     0
 40
0.0
 41
1.0
 50
0.0
 71
     0
 42
0.2
  3
txt
  4

  0
STYLE
  5
5A
330
3
100
AcDbSymbolTableRecord
100
AcDbTextStyleTableRecord
  2
Annotative
 70
     0
 40
0.0
 41
1.0
 50
0.0
 71
     0
 42
0.2
  3
txt
  4

1001
AcadAnnotative
1000
AnnotativeData
1002
{
1070
     1
1070
     1
1002
}
  0
STYLE
  5
B2
330
3
100
AcDbSymbolTableRecord
100
AcDbTextStyleTableRecord
  2

 70
     1
 40
0.0
 41
1.0
 50
0.0
 71
     0
 42
0.2
  3
ltypeshp.shx
  4

  0
STYLE
  5
D4
330
3
100
AcDbSymbolTableRecord
100
AcDbTextStyleTableRecord
  2
ITALICC_120
 70
     0
 40
0.0
 41
1.0
 50
0.0
 71
     0
 42
0.2
  3
italicc.shx
  4

  0
STYLE
  5
D5
330
3
100
AcDbSymbolTableRecord
100
AcDbTextStyleTableRecord
  2
Label Text (ANSI)
 70
     0
 40
0.0
 41
1.0
 50
0.0
 71
     0
 42
0.2
  3
TAHOMA.TTF
  4

1001
ACAD
1000
Tahoma
1071
      256
  0
STYLE
  5
D6
330
3
100
AcDbSymbolTableRecord
100
AcDbTextStyleTableRecord
  2
Note Text (ANSI)
 70
     0
 40
0.0
 41
1.0
 50
0.0
 71
     0
 42
0.2
  3
TAHOMA.TTF
  4

1001
ACAD
1000
Tahoma
1071
      256
  0
STYLE
  5
D7
330
3
100
AcDbSymbolTableRecord
100
AcDbTextStyleTableRecord
  2
ROMANS
 70
     0
 40
0.0
 41
1.0
 50
0.0
 71
     0
 42
0.2
  3
romans.shx
  4

  0
STYLE
  5
D8
330
3
100
AcDbSymbolTableRecord
100
AcDbTextStyleTableRecord
  2
SANSSERIF_114
 70
     0
 40
0.0
 41
1.0
 50
0.0
 71
     0
 42
0.2
  3
TAHOMA.TTF
  4

1001
ACAD
1000
Tahoma
1071
      256
  0
STYLE
  5
D9
330
3
100
AcDbSymbolTableRecord
100
AcDbTextStyleTableRecord
  2
SANSSERIF_117
 70
     0
 40
0.0
 41
1.0
 50
0.0
 71
     0
 42
0.2
  3
TAHOMA.TTF
  4

1001
ACAD
1000
Tahoma
1071
      256
  0
STYLE
  5
DA
330
3
100
AcDbSymbolTableRecord
100
AcDbTextStyleTableRecord
  2
STANDARDAM_ANSI
 70
     0
 40
0.0
 41
1.0
 50
0.0
 71
     0
 42
0.2
  3
txt.shx
  4

  0
STYLE
  5
DB
330
3
100
AcDbSymbolTableRecord
100
AcDbTextStyleTableRecord
  2
StandardAM_ANSI$0
 70
     0
 40
0.0
 41
1.0
 50
0.0
 71
     0
 42
0.2
  3
txt.shx
  4

  0
STYLE
  5
DC
330
3
100
AcDbSymbolTableRecord
100
AcDbTextStyleTableRecord
  2
STANDARDAM_ANSI$3
 70
     0
 40
0.0
 41
1.0
 50
0.0
 71
     0
 42
0.2
  3
txt.shx
  4

  0
STYLE
  5
DD
330
3
100
AcDbSymbolTableRecord
100
AcDbTextStyleTableRecord
  2
STANDARDAM_ANSI$4
 70
     0
 40
0.0
 41
1.0
 50
0.0
 71
     0
 42
0.2
  3
txt.shx
  4

  0
STYLE
  5
DE
330
3
100
AcDbSymbolTableRecord
100
AcDbTextStyleTableRecord
  2
STANDARDAM_ANSI$7
 70
     0
 40
0.0
 41
1.0
 50
0.0
 71
     0
 42
0.2
  3
txt.shx
  4

  0
STYLE
  5
DF
330
3
100
AcDbSymbolTableRecord
100
AcDbTextStyleTableRecord
  2
STANDARDAM_ANSI$SF
 70
     0
 40
0.0
 41
1.0
 50
0.0
 71
     0
 42
0.2
  3
txt.shx
  4

  0
STYLE
  5
E0
330
3
100
AcDbSymbolTableRecord
100
AcDbTextStyleTableRecord
  2
STANDARDAM_ANSI$SH
 70
     0
 40
0.0
 41
1.0
 50
0.0
 71
     0
 42
0.2
  3
txt.shx
  4

  0
STYLE
  5
E1
330
3
100
AcDbSymbolTableRecord
100
AcDbTextStyleTableRecord
  2
STANDARDSTANDARD
 70
     0
 40
0.0
 41
1.0
 50
0.0
 71
     0
 42
0.2
  3
txt.shx
  4

  0
STYLE
  5
135
330
3
100
AcDbSymbolTableRecord
100
AcDbTextStyleTableRecord
  2
Text Style150
 70
     0
 40
0.0
 41
1.0
 50
0.0
 71
     0
 42
0.2
  3
TAHOMA.TTF
  4

1001
ACAD
1000
Tahoma
1071
      256
  0
ENDTAB
  0
TABLE
  2
VIEW
  5
6
330
0
100
AcDbSymbolTable
 70
     0
  0
ENDTAB
  0
TABLE
  2
UCS
  5
7
330
0
100
AcDbSymbolTable
 70
     0
  0
ENDTAB
  0
TABLE
  2
APPID
  5
9
330
0
100
AcDbSymbolTable
 70
     4
  0
APPID
  5
56
330
9
100
AcDbSymbolTableRecord
100
AcDbRegAppTableRecord
  2
ACAD
 70
     0
  0
APPID
  5
5E
330
9
100
AcDbSymbolTableRecord
100
AcDbRegAppTableRecord
  2
AcadAnnotative
 70
     0
  0
APPID
  5
7BD
330
9
100
AcDbSymbolTableRecord
100
AcDbRegAppTableRecord
  2
ACAD_DSTYLE_DIMRADIAL_EXTENSION
 70
     0
  0
APPID
  5
8C5
330
9
100
AcDbSymbolTableRecord
100
AcDbRegAppTableRecord
  2
ACAD_MLEADERVER
 70
     0
  0
ENDTAB
  0
TABLE
  2
DIMSTYLE
  5
A
330
0
100
AcDbSymbolTable
 70
    29
100
AcDbDimStyleTable
 71
     2
340
F6
340
58
  0
DIMSTYLE
105
58
330
A
100
AcDbSymbolTableRecord
100
AcDbDimStyleTableRecord
  2
STANDARD
 70
     0
 41
0.1800000071525573
 42
0.0625
140
0.1800000071525574
144
1.0
147
0.0900000035762787
176
   256
177
   256
178
   256
274
     3
340
55
371
    -1
372
    -1
  0
DIMSTYLE
105
59
330
A
100
AcDbSymbolTableRecord
100
AcDbDimStyleTableRecord
  2
Annotative
 70
     0
340
55
1001
AcadAnnotative
1000
AnnotativeData
1002
{
1070
     1
1070
     1
1002
}
  0
DIMSTYLE
105
E2
330
A
100
AcDbSymbolTableRecord
100
AcDbDimStyleTableRecord
  2
AM_ANSI
 70
     0
  4
 mm
 40
1.818181818181818
 41
0.119999997317791
 42
0.05
 43
0.5
 44
0.1
 45
0.00000001
 78
     4
 79
     2
140
0.1200000047683716
146
0.7099999453624112
147
0.0599999986588955
176
   256
177
   256
178
     2
284
     4
340
DA
371
    -1
372
    -1
  0
DIMSTYLE
105
E3
330
A
100
AcDbSymbolTableRecord
100
AcDbDimStyleTableRecord
  2
AM_ANSI$7
 70
     0
  4
 mm
 40
1.818181818181818
 41
0.119999997317791
 42
0.05
 43
0.5
 44
0.1
 45
0.00000001
 78
     4
 79
     2
140
0.1200000047683716
146
0.7099999453624112
147
0.0599999986588955
176
   256
177
   256
178
     2
284
     4
340
DA
371
    -1
372
    -1
  0
DIMSTYLE
105
E4
330
A
100
AcDbSymbolTableRecord
100
AcDbDimStyleTableRecord
  2
AM_ANSI$0
 70
     0
  4
 mm
 40
1.818181818181818
 41
0.119999997317791
 42
0.05
 43
0.5
 44
0.1
 45
0.00000001
 78
     4
 79
     2
140
0.1200000047683716
146
0.7099999453624112
147
0.0599999986588955
176
   256
177
   256
178
     2
284
     4
340
DB
371
    -1
372
    -1
  0
DIMSTYLE
105
E5
330
A
100
AcDbSymbolTableRecord
100
AcDbDimStyleTableRecord
  2
AM_ANSI$0$7
 70
     0
  4
 mm
 40
1.818181818181818
 41
0.119999997317791
 42
0.05
 43
0.5
 44
0.1
 45
0.00000001
 78
     4
 79
     2
140
0.1200000047683716
146
0.7099999453624112
147
0.0599999986588955
176
   256
177
   256
178
     2
284
     4
340
DB
371
    -1
372
    -1
  0
DIMSTYLE
105
E6
330
A
100
AcDbSymbolTableRecord
100
AcDbDimStyleTableRecord
  2
AM_ANSI$3
 70
     0
  4
 mm
 40
1.818181818181818
 41
0.119999997317791
 42
0.05
 43
0.5
 44
0.1
 45
0.00000001
 78
     4
 79
     2
140
0.1200000047683716
146
0.7099999453624112
147
0.0599999986588955
176
   256
177
   256
178
     2
284
     4
340
DC
371
    -1
372
    -1
  0
DIMSTYLE
105
E7
330
A
100
AcDbSymbolTableRecord
100
AcDbDimStyleTableRecord
  2
AM_ANSI$3$7
 70
     0
  4
 mm
 40
1.818181818181818
 41
0.119999997317791
 42
0.05
 43
0.5
 44
0.1
 45
0.00000001
 78
     4
 79
     2
140
0.1200000047683716
146
0.7099999453624112
147
0.0599999986588955
176
   256
177
   256
178
     2
284
     4
340
DC
371
    -1
372
    -1
  0
DIMSTYLE
105
E8
330
A
100
AcDbSymbolTableRecord
100
AcDbDimStyleTableRecord
  2
AM_ANSI$4
 70
     0
  4
 mm
 40
1.818181818181818
 41
0.119999997317791
 42
0.05
 43
0.5
 44
0.1
 45
0.00000001
 78
     4
 79
     2
140
0.1200000047683716
146
0.7099999453624112
147
0.0599999986588955
176
   256
177
   256
178
     2
284
     4
340
DD
371
    -1
372
    -1
  0
DIMSTYLE
105
E9
330
A
100
AcDbSymbolTableRecord
100
AcDbDimStyleTableRecord
  2
AM_ANSI$4$7
 70
     0
  4
 mm
 40
1.818181818181818
 41
0.119999997317791
 42
0.05
 43
0.5
 44
0.1
 45
0.00000001
 78
     4
 79
     2
140
0.1200000047683716
146
0.7099999453624112
147
0.0599999986588955
176
   256
177
   256
178
     2
284
     4
340
DD
371
    -1
372
    -1
  0
DIMSTYLE
105
EA
330
A
100
AcDbSymbolTableRecord
100
AcDbDimStyleTableRecord
  2
AM_ANSI$SF
 70
     0
  4
 mm
 40
1.818181818181818
 41
0.119999997317791
 42
0.05
 43
0.5
 44
0.1
 45
0.00000001
 75
     1
 76
     1
 78
     4
 79
     2
140
0.1200000047683716
146
0.7099999453624112
147
0.0599999986588955
176
   256
177
   256
178
     2
284
     4
340
DF
371
    -1
372
    -1
  0
DIMSTYLE
105
EB
330
A
100
AcDbSymbolTableRecord
100
AcDbDimStyleTableRecord
  2
AM_ANSI$SF$7
 70
     0
  4
 mm
 40
1.818181818181818
 41
0.119999997317791
 42
0.05
 43
0.5
 44
0.1
 45
0.00000001
 75
     1
 76
     1
 78
     4
 79
     2
140
0.1200000047683716
146
0.7099999453624112
147
0.0599999986588955
176
   256
177
   256
178
     2
284
     4
340
DF
371
    -1
372
    -1
  0
DIMSTYLE
105
EC
330
A
100
AcDbSymbolTableRecord
100
AcDbDimStyleTableRecord
  2
AM_ANSI$SH
 70
     0
  4
 mm
 40
1.818181818181818
 41
0.119999997317791
 42
0.05
 43
0.5
 44
0.1
 45
0.00000001
 75
     1
 76
     1
 78
     4
 79
     2
140
0.1200000047683716
146
0.7099999453624112
147
0.0599999986588955
176
   256
177
   256
178
     2
284
     4
340
E0
371
    -1
372
    -1
  0
DIMSTYLE
105
ED
330
A
100
AcDbSymbolTableRecord
100
AcDbDimStyleTableRecord
  2
AM_ANSI$SH$7
 70
     0
  4
 mm
 40
1.818181818181818
 41
0.119999997317791
 42
0.05
 43
0.5
 44
0.1
 45
0.00000001
 75
     1
 76
     1
 78
     4
 79
     2
140
0.1200000047683716
146
0.7099999453624112
147
0.0599999986588955
176
   256
177
   256
178
     2
284
     4
340
E0
371
    -1
372
    -1
  0
DIMSTYLE
105
EE
330
A
100
AcDbSymbolTableRecord
100
AcDbDimStyleTableRecord
  2
Architectural (ANSI)
 70
     0
 40
1.818181818181818
 41
0.0984251946210861
 43
0.2362204724409449
 44
0.125
 45
0.00000001
 46
0.3937007874015748
 78
     3
 79
     3
140
0.1200000047683716
147
0.031496062992126
171
     1
176
   256
177
   256
178
   256
272
     2
274
     1
276
     2
277
     4
284
    12
285
     4
286
    12
340
D6
371
    -1
372
    -1
  0
DIMSTYLE
105
EF
330
A
100
AcDbSymbolTableRecord
100
AcDbDimStyleTableRecord
  2
Architectural (ANSI)$7
 70
     0
 40
1.818181818181818
 41
0.0984251946210861
 43
0.2362204724409449
 44
0.125
 45
0.00000001
 46
0.3937007874015748
 78
     3
 79
     3
140
0.1200000047683716
147
0.031496062992126
171
     1
176
   256
177
   256
178
   256
272
     2
274
     1
276
     2
277
     4
284
    12
285
     4
286
    12
340
D6
371
    -1
372
    -1
  0
DIMSTYLE
105
F0
330
A
100
AcDbSymbolTableRecord
100
AcDbDimStyleTableRecord
  2
Default - Fraction (ANSI)
 70
     0
 40
1.818181818181818
 41
0.0984251946210861
 43
0.2362204724409449
 44
0.125
 45
0.00000001
 46
0.3937007874015748
 79
     3
140
0.1200000047683716
147
0.031496062992126
171
     1
176
   256
177
   256
178
   256
272
     2
274
     1
276
     2
277
     5
284
    12
285
     4
286
    12
340
D6
371
    -1
372
    -1
  0
DIMSTYLE
105
F1
330
A
100
AcDbSymbolTableRecord
100
AcDbDimStyleTableRecord
  2
Default - Fraction (ANSI)$7
 70
     0
 40
1.818181818181818
 41
0.0984251946210861
 43
0.2362204724409449
 44
0.125
 45
0.00000001
 46
0.3937007874015748
 79
     3
140
0.1200000047683716
147
0.031496062992126
171
     1
176
   256
177
   256
178
   256
272
     2
274
     1
276
     2
277
     5
284
    12
285
     4
286
    12
340
D6
371
    -1
372
    -1
  0
DIMSTYLE
105
F2
330
A
100
AcDbSymbolTableRecord
100
AcDbDimStyleTableRecord
  2
Default - mm (ANSI)
 70
     0
 40
1.818181818181818
 41
0.0984251946210861
 42
0.063
 43
0.2362204724409449
 44
0.125
 45
0.00000001
 46
0.3937007874015748
 73
     0
 78
     4
 79
     1
140
0.1200000047683716
143
1.0
144
25.4
147
0.031496062992126
171
     1
176
   256
177
   256
178
   256
179
     1
271
     2
272
     2
274
     1
284
     4
285
     4
340
D6
371
    -1
372
    -1
  0
DIMSTYLE
105
F3
330
A
100
AcDbSymbolTableRecord
100
AcDbDimStyleTableRecord
  2
Default - mm (ANSI)$7
 70
     0
 40
1.818181818181818
 41
0.0984251946210861
 42
0.063
 43
0.2362204724409449
 44
0.125
 45
0.00000001
 46
0.3937007874015748
 73
     0
 78
     4
 79
     1
140
0.1200000047683716
143
1.0
144
25.4
147
0.031496062992126
171
     1
176
   256
177
   256
178
   256
179
     1
271
     2
272
     2
274
     1
284
     4
285
     4
340
D6
371
    -1
372
    -1
  0
DIMSTYLE
105
F4
330
A
100
AcDbSymbolTableRecord
100
AcDbDimStyleTableRecord
  2
Default - mm [in] (ANSI)
 70
     0
  4
 in
 40
1.818181818181818
 41
0.0984251946210861
 42
0.063
 43
0.25
 44
0.125
 45
0.00000001
 46
0.3937007874015748
 73
     0
 78
     4
 79
     1
140
0.1200000047683716
143
0.03937
144
25.4
147
0.031496062992126
170
     1
171
     3
176
   256
177
   256
178
   256
179
     1
271
     2
272
     2
274
     3
284
     4
285
     4
286
     4
340
D6
371
    -1
372
    -1
  0
DIMSTYLE
105
F5
330
A
100
AcDbSymbolTableRecord
100
AcDbDimStyleTableRecord
  2
Default - mm [in] (ANSI)$7
 70
     0
  4
 in
 40
1.818181818181818
 41
0.0984251946210861
 42
0.063
 43
0.25
 44
0.125
 45
0.00000001
 46
0.3937007874015748
 73
     0
 78
     4
 79
     1
140
0.1200000047683716
143
0.03937
144
25.4
147
0.031496062992126
170
     1
171
     3
176
   256
177
   256
178
   256
179
     1
271
     2
272
     2
274
     3
284
     4
285
     4
286
     4
340
D6
371
    -1
372
    -1
  0
DIMSTYLE
105
F6
102
{ACAD_REACTORS
330
146
330
256
330
340
330
42A
330
53C
330
63A
330
724
330
7DE
102
}
330
A
100
AcDbSymbolTableRecord
100
AcDbDimStyleTableRecord
  2
Default (ANSI)
 70
     0
 40
1.818181818181818
 41
0.0984251946210861
 43
0.2362204724409449
 44
0.125
 45
0.00000001
 46
0.3937007874015748
 79
     1
140
0.1200000047683716
147
0.031496062992126
171
     1
176
   256
177
   256
178
   256
271
     3
272
     2
274
     1
284
     4
285
     4
340
D6
371
    -1
372
    -1
  0
DIMSTYLE
105
F7
330
A
100
AcDbSymbolTableRecord
100
AcDbDimStyleTableRecord
  2
Default (ANSI)$7
 70
     0
 40
1.818181818181818
 41
0.0984251946210861
 43
0.2362204724409449
 44
0.125
 45
0.00000001
 46
0.3937007874015748
 79
     1
140
0.1200000047683716
147
0.031496062992126
171
     1
176
   256
177
   256
178
   256
271
     3
272
     2
274
     1
284
     4
285
     4
340
D6
371
    -1
372
    -1
  0
DIMSTYLE
105
F8
330
A
100
AcDbSymbolTableRecord
100
AcDbDimStyleTableRecord
  2
Default (ANSI)-01
 70
     0
 40
1.818181818181818
 41
0.0984251946210861
 43
0.2362204724409449
 44
0.125
 45
0.00000001
 46
0.3937007874015748
 79
     1
140
0.1200000047683716
147
0.031496062992126
171
     1
176
   256
177
   256
178
   256
271
     2
272
     2
274
     1
284
     4
285
     4
340
D6
371
    -1
372
    -1
  0
DIMSTYLE
105
F9
330
A
100
AcDbSymbolTableRecord
100
AcDbDimStyleTableRecord
  2
Default (ANSI)-01$7
 70
     0
 40
1.818181818181818
 41
0.0984251946210861
 43
0.2362204724409449
 44
0.125
 45
0.00000001
 46
0.3937007874015748
 79
     1
140
0.1200000047683716
147
0.031496062992126
171
     1
176
   256
177
   256
178
   256
271
     2
272
     2
274
     1
284
     4
285
     4
340
D6
371
    -1
372
    -1
  0
DIMSTYLE
105
FA
330
A
100
AcDbSymbolTableRecord
100
AcDbDimStyleTableRecord
  2
Alternate (ANSI)
 70
     0
 40
1.818181818181818
 41
0.0979999974370003
340
55
342
FB
  0
DIMSTYLE
105
10D
330
A
100
AcDbSymbolTableRecord
100
AcDbDimStyleTableRecord
  2
Datum (ANSI)
 70
     0
 40
1.818181818181818
 41
0.0979999974370003
340
55
342
FB
  0
DIMSTYLE
105
11C
330
A
100
AcDbSymbolTableRecord
100
AcDbDimStyleTableRecord
  2
Large (ANSI)
 70
     0
 40
1.818181818181818
 41
0.1959999948740005
340
55
342
FB
  0
ENDTAB
  0
TABLE
  2
BLOCK_RECORD
  5
1
330
0
100
AcDbSymbolTable
 70
    12
  0
BLOCK_RECORD
  5
6C
330
1
100
AcDbSymbolTableRecord
100
AcDbBlockTableRecord
  2
*Model_Space
340
6F
  0
BLOCK_RECORD
  5
68
330
1
100
AcDbSymbolTableRecord
100
AcDbBlockTableRecord
  2
*Paper_Space
340
6B
  0
BLOCK_RECORD
  5
70
330
1
100
AcDbSymbolTableRecord
100
AcDbBlockTableRecord
  2
*Paper_Space0
340
73
  0
BLOCK_RECORD
  5
FB
330
1
100
AcDbSymbolTableRecord
100
AcDbBlockTableRecord
  2
_Closed
340
0
  0
BLOCK_RECORD
  5
102
330
1
100
AcDbSymbolTableRecord
100
AcDbBlockTableRecord
  2
DatumFilled45
340
0
  0
BLOCK_RECORD
  5
10E
330
1
100
AcDbSymbolTableRecord
100
AcDbBlockTableRecord
  2
Filled-1
340
0
  0
BLOCK_RECORD
  5
149
330
1
100
AcDbSymbolTableRecord
100
AcDbBlockTableRecord
  2
*D4
340
0
  0
BLOCK_RECORD
  5
257
330
1
100
AcDbSymbolTableRecord
100
AcDbBlockTableRecord
  2
*D5
340
0
  0
BLOCK_RECORD
  5
341
330
1
100
AcDbSymbolTableRecord
100
AcDbBlockTableRecord
  2
*D6
340
0
  0
BLOCK_RECORD
  5
42B
330
1
100
AcDbSymbolTableRecord
100
AcDbBlockTableRecord
  2
*D7
340
0
  0
BLOCK_RECORD
  5
53D
330
1
100
AcDbSymbolTableRecord
100
AcDbBlockTableRecord
  2
*D8
340
0
  0
BLOCK_RECORD
  5
63B
330
1
100
AcDbSymbolTableRecord
100
AcDbBlockTableRecord
  2
*D9
340
0
  0
BLOCK_RECORD
  5
725
330
1
100
AcDbSymbolTableRecord
100
AcDbBlockTableRecord
  2
*D10
340
0
  0
BLOCK_RECORD
  5
7DF
330
1
100
AcDbSymbolTableRecord
100
AcDbBlockTableRecord
  2
*D11
340
0
  0
ENDTAB
  0
ENDSEC
  0
SECTION
  2
BLOCKS
  0
BLOCK
  5
6D
330
6C
100
AcDbEntity
  8
0
100
AcDbBlockBegin
  2
*Model_Space
 70
     0
 10
0.0
 20
0.0
 30
0.0
  3
*Model_Space
  1

  0
ENDBLK
  5
6E
330
6C
100
AcDbEntity
  8
0
100
AcDbBlockEnd
  0
BLOCK
  5
69
330
68
100
AcDbEntity
 67
     1
  8
0
100
AcDbBlockBegin
  2
*Paper_Space
 70
     0
 10
0.0
 20
0.0
 30
0.0
  3
*Paper_Space
  1

  0
ENDBLK
  5
6A
330
68
100
AcDbEntity
 67
     1
  8
0
100
AcDbBlockEnd
  0
BLOCK
  5
71
330
70
100
AcDbEntity
 67
     1
  8
0
100
AcDbBlockBegin
  2
*Paper_Space0
 70
     0
 10
0.0
 20
0.0
 30
0.0
  3
*Paper_Space0
  1

  0
ENDBLK
  5
72
330
70
100
AcDbEntity
 67
     1
  8
0
100
AcDbBlockEnd
  0
BLOCK
  5
100
330
FB
100
AcDbEntity
  8
0
100
AcDbBlockBegin
  2
_Closed
 70
     0
 10
0.0
 20
0.0
 30
0.0
  3
_Closed
  1

  0
LINE
  5
FC
330
FB
100
AcDbEntity
  8
0
  6
ByBlock
 62
     0
370
    -2
100
AcDbLine
 10
-1.0
 20
0.1666666666666666
 30
0.0
 11
0.0
 21
0.0
 31
0.0
  0
LINE
  5
FD
330
FB
100
AcDbEntity
  8
0
  6
ByBlock
 62
     0
370
    -2
100
AcDbLine
 10
0.0
 20
0.0
 30
0.0
 11
-1.0
 21
-0.1666666666666666
 31
0.0
  0
LINE
  5
FE
330
FB
100
AcDbEntity
  8
0
  6
ByBlock
 62
     0
370
    -2
100
AcDbLine
 10
-1.0
 20
0.1666666666666666
 30
0.0
 11
-1.0
 21
-0.1666666666666666
 31
0.0
  0
LINE
  5
FF
330
FB
100
AcDbEntity
  8
0
  6
ByBlock
 62
     0
370
    -2
100
AcDbLine
 10
0.0
 20
0.0
 30
0.0
 11
-1.0
 21
0.0
 31
0.0
  0
ENDBLK
  5
101
330
FB
100
AcDbEntity
  8
0
100
AcDbBlockEnd
  0
BLOCK
  5
103
330
102
100
AcDbEntity
  8
0
100
AcDbBlockBegin
  2
DatumFilled45
 70
     0
 10
0.0
 20
0.0
 30
0.0
  3
DatumFilled45
  1

  0
POLYLINE
  5
105
330
102
100
AcDbEntity
  8
0
 62
     0
100
AcDb2dPolyline
 66
     1
 10
0.0
 20
0.0
 30
0.0
 70
   128
  0
VERTEX
  5
106
330
105
100
AcDbEntity
  8
0
 62
     0
100
AcDbVertex
100
AcDb2dVertex
 10
0.0
 20
0.9999999999999998
 30
0.0
  0
VERTEX
  5
107
330
105
100
AcDbEntity
  8
0
 62
     0
100
AcDbVertex
100
AcDb2dVertex
 10
0.0
 20
-0.9999999999999998
 30
0.0
  0
VERTEX
  5
109
330
105
100
AcDbEntity
  8
0
 62
     0
100
AcDbVertex
100
AcDb2dVertex
 10
-0.9999999999999998
 20
0.0
 30
0.0
  0
VERTEX
  5
10A
330
105
100
AcDbEntity
  8
0
 62
     0
100
AcDbVertex
100
AcDb2dVertex
 10
0.0
 20
0.9999999999999998
 30
0.0
  0
SEQEND
  5
108
330
105
100
AcDbEntity
  8
0
 62
     0
  0
SOLID
  5
10C
330
102
100
AcDbEntity
  8
0
 62
     0
100
AcDbTrace
 10
0.0
 20
0.9999999999999998
 30
0.0
 11
0.0
 21
-0.9999999999999998
 31
0.0
 12
-0.9999999999999998
 22
0.0
 32
0.0
 13
0.0
 23
0.9999999999999998
 33
0.0
  0
ENDBLK
  5
104
330
102
100
AcDbEntity
  8
0
100
AcDbBlockEnd
  0
BLOCK
  5
10F
330
10E
100
AcDbEntity
  8
0
100
AcDbBlockBegin
  2
Filled-1
 70
     0
 10
0.0
 20
0.0
 30
0.0
  3
Filled-1
  1

  0
LINE
  5
111
330
10E
100
AcDbEntity
  8
0
 62
     0
100
AcDbLine
 10
-0.9999999999999998
 20
0.0
 30
0.0
 11
0.0
 21
0.0
 31
0.0
  0
POLYLINE
  5
112
330
10E
100
AcDbEntity
  8
0
 62
     0
100
AcDb2dPolyline
 66
     1
 10
0.0
 20
0.0
 30
0.0
 70
   128
  0
VERTEX
  5
113
330
112
100
AcDbEntity
  8
0
 62
     0
100
AcDbVertex
100
AcDb2dVertex
 10
-0.9999999999999998
 20
-0.0994897959183674
 30
0.0
  0
VERTEX
  5
114
330
112
100
AcDbEntity
  8
0
 62
     0
100
AcDbVertex
100
AcDb2dVertex
 10
0.0
 20
0.0
 30
0.0
  0
VERTEX
  5
116
330
112
100
AcDbEntity
  8
0
 62
     0
100
AcDbVertex
100
AcDb2dVertex
 10
-0.9999999999999998
 20
0.0994897959183674
 30
0.0
  0
VERTEX
  5
117
330
112
100
AcDbEntity
  8
0
 62
     0
100
AcDbVertex
100
AcDb2dVertex
 10
-0.9999999999999998
 20
-0.0994897959183674
 30
0.0
  0
SEQEND
  5
115
330
112
100
AcDbEntity
  8
0
 62
     0
  0
SOLID
  5
118
330
10E
100
AcDbEntity
  8
0
 62
     0
100
AcDbTrace
 10
-0.9999999999999998
 20
-0.0994897959183674
 30
0.0
 11
0.0
 21
0.0
 31
0.0
 12
-0.9999999999999998
 22
0.0994897959183674
 32
0.0
 13
-0.9999999999999998
 23
-0.0994897959183674
 33
0.0
  0
LINE
  5
119
330
10E
100
AcDbEntity
  8
0
 62
     0
100
AcDbLine
 10
-0.9999999999999998
 20
-0.0994897959183674
 30
0.0
 11
0.0
 21
0.0
 31
0.0
  0
LINE
  5
11A
330
10E
100
AcDbEntity
  8
0
 62
     0
100
AcDbLine
 10
0.0
 20
0.0
 30
0.0
 11
-0.9999999999999998
 21
0.0994897959183674
 31
0.0
  0
LINE
  5
11B
330
10E
100
AcDbEntity
  8
0
 62
     0
100
AcDbLine
 10
-0.9999999999999998
 20
0.0994897959183674
 30
0.0
 11
-0.9999999999999998
 21
-0.0994897959183674
 31
0.0
  0
ENDBLK
  5
110
330
10E
100
AcDbEntity
  8
0
100
AcDbBlockEnd
  0
BLOCK
  5
14A
330
149
100
AcDbEntity
  8
0
100
AcDbBlockBegin
  2
*D4
 70
     1
 10
0.0
 20
0.0
 30
0.0
  3
*D4
  1

  0
LINE
  5
21F
330
149
100
AcDbEntity
  8
Dimension (ANSI)
100
AcDbLine
 10
19.03586494563226
 20
14.07029589772135
 30
0.0
 11
18.85691004632119
 21
14.07029589772135
 31
0.0
  0
LINE
  5
220
330
149
100
AcDbEntity
  8
Dimension (ANSI)
100
AcDbLine
 10
19.47377474425439
 20
14.07029589772135
 30
0.0
 11
20.00761476023136
 21
14.07029589772135
 31
0.0
  0
SOLID
  5
221
330
149
100
AcDbEntity
  8
Dimension (ANSI)
100
AcDbTrace
 10
19.03586494563226
 20
14.10012171427319
 30
0.0
 11
19.03586494563226
 21
14.0404700811695
 31
0.0
 12
19.21481984494332
 22
14.07029589772135
 32
0.0
 13
19.21481984494332
 23
14.07029589772135
 33
0.0
  0
SOLID
  5
222
330
149
100
AcDbEntity
  8
Dimension (ANSI)
100
AcDbTrace
 10
19.47377474425439
 20
14.10012171427319
 30
0.0
 11
19.47377474425439
 21
14.0404700811695
 31
0.0
 12
19.29481984494332
 22
14.07029589772135
 32
0.0
 13
19.29481984494332
 23
14.07029589772135
 33
0.0
  0
MTEXT
  5
223
330
149
100
AcDbEntity
  8
Dimension (ANSI)
100
AcDbMText
 10
20.06488032930795
 20
14.18436880047753
 30
0.0
 40
0.2181818268515847
 41
0.0
 71
     1
 72
     1
  1
\A1;0.080
  7
Note Text (ANSI)
 73
     1
 44
1.0
1001
ACAD
1000
MTEXTBEGIN
1070
    73
1070
     1
1070
    44
1040
1.0
1070
    74
1070
     0
1000
MTEXTEND
  0
POINT
  5
224
330
149
100
AcDbEntity
  8
Defpoints
 62
     0
100
AcDbPoint
 10
19.29481984494332
 20
6.196280149689854
 30
0.0
  0
POINT
  5
225
330
149
100
AcDbEntity
  8
Defpoints
 62
     0
100
AcDbPoint
 10
19.21481984494332
 20
6.196280149689854
 30
0.0
  0
POINT
  5
226
330
149
100
AcDbEntity
  8
Defpoints
 62
     0
100
AcDbPoint
 10
19.21481984494332
 20
14.07029589772135
 30
0.0
  0
ENDBLK
  5
14B
330
149
100
AcDbEntity
  8
0
100
AcDbBlockEnd
  0
BLOCK
  5
258
330
257
100
AcDbEntity
  8
0
100
AcDbBlockBegin
  2
*D5
 70
     1
 10
0.0
 20
0.0
 30
0.0
  3
*D5
  1

  0
LINE
  5
336
330
257
100
AcDbEntity
  8
Dimension (ANSI)
100
AcDbLine
 10
14.15184068348677
 20
6.08264378605349
 30
0.0
 11
14.15184068348677
 21
4.197336343502403
 31
0.0
  0
LINE
  5
337
330
257
100
AcDbEntity
  8
Dimension (ANSI)
100
AcDbLine
 10
5.271840683486776
 20
6.08264378605349
 30
0.0
 11
5.271840683486776
 21
4.197336343502403
 31
0.0
  0
LINE
  5
338
330
257
100
AcDbEntity
  8
Dimension (ANSI)
100
AcDbLine
 10
13.97288578417571
 20
4.42460907077513
 30
0.0
 11
10.13066680176168
 21
4.42460907077513
 31
0.0
  0
LINE
  5
339
330
257
100
AcDbEntity
  8
Dimension (ANSI)
100
AcDbLine
 10
5.450795582797842
 20
4.42460907077513
 30
0.0
 11
9.293014565211873
 21
4.42460907077513
 31
0.0
  0
SOLID
  5
33A
330
257
100
AcDbEntity
  8
Dimension (ANSI)
100
AcDbTrace
 10
13.97288578417571
 20
4.454434887326975
 30
0.0
 11
13.97288578417571
 21
4.394783254223286
 31
0.0
 12
14.15184068348677
 22
4.42460907077513
 32
0.0
 13
14.15184068348677
 23
4.42460907077513
 33
0.0
  0
SOLID
  5
33B
330
257
100
AcDbEntity
  8
Dimension (ANSI)
100
AcDbTrace
 10
5.450795582797842
 20
4.454434887326975
 30
0.0
 11
5.450795582797842
 21
4.394783254223286
 31
0.0
 12
5.271840683486776
 22
4.42460907077513
 32
0.0
 13
5.271840683486776
 23
4.42460907077513
 33
0.0
  0
MTEXT
  5
33C
330
257
100
AcDbEntity
  8
Dimension (ANSI)
100
AcDbMText
 10
9.350280134288466
 20
4.538681973531315
 30
0.0
 40
0.2181818268515847
 41
0.0
 71
     1
 72
     1
  1
\A1;8.880
  7
Note Text (ANSI)
 73
     1
 44
1.0
1001
ACAD
1000
MTEXTBEGIN
1070
    73
1070
     1
1070
    44
1040
1.0
1070
    74
1070
     0
1000
MTEXTEND
  0
POINT
  5
33D
330
257
100
AcDbEntity
  8
Defpoints
 62
     0
100
AcDbPoint
 10
14.15184068348677
 20
6.196280149689854
 30
0.0
  0
POINT
  5
33E
330
257
100
AcDbEntity
  8
Defpoints
 62
     0
100
AcDbPoint
 10
5.271840683486776
 20
6.196280149689854
 30
0.0
  0
POINT
  5
33F
330
257
100
AcDbEntity
  8
Defpoints
 62
     0
100
AcDbPoint
 10
5.271840683486776
 20
4.42460907077513
 30
0.0
  0
ENDBLK
  5
259
330
257
100
AcDbEntity
  8
0
100
AcDbBlockEnd
  0
BLOCK
  5
342
330
341
100
AcDbEntity
  8
0
100
AcDbBlockBegin
  2
*D6
 70
     1
 10
0.0
 20
0.0
 30
0.0
  3
*D6
  1

  0
LINE
  5
420
330
341
100
AcDbEntity
  8
Dimension (ANSI)
100
AcDbLine
 10
5.158204319850412
 20
6.196280149689854
 30
0.0
 11
3.312284491647119
 21
6.196280149689854
 31
0.0
  0
LINE
  5
421
330
341
100
AcDbEntity
  8
Dimension (ANSI)
100
AcDbLine
 10
5.158204319850408
 20
17.07628014968985
 30
0.0
 11
3.312284491647122
 21
17.07628014968985
 31
0.0
  0
LINE
  5
422
330
341
100
AcDbEntity
  8
Dimension (ANSI)
100
AcDbLine
 10
3.539557218919846
 20
6.375235049000919
 30
0.0
 11
3.539557218919848
 21
11.46494167785707
 31
0.0
  0
LINE
  5
423
330
341
100
AcDbEntity
  8
Dimension (ANSI)
100
AcDbLine
 10
3.539557218919849
 20
16.89732525037879
 30
0.0
 11
3.539557218919848
 21
11.80761862152263
 31
0.0
  0
SOLID
  5
424
330
341
100
AcDbEntity
  8
Dimension (ANSI)
100
AcDbTrace
 10
3.509731402368002
 20
6.375235049000919
 30
0.0
 11
3.569383035471691
 21
6.375235049000919
 31
0.0
 12
3.539557218919846
 22
6.196280149689854
 32
0.0
 13
3.539557218919846
 23
6.196280149689854
 33
0.0
  0
SOLID
  5
425
330
341
100
AcDbEntity
  8
Dimension (ANSI)
100
AcDbTrace
 10
3.509731402368005
 20
16.89732525037879
 30
0.0
 11
3.569383035471693
 21
16.89732525037879
 31
0.0
 12
3.539557218919849
 22
17.07628014968985
 32
0.0
 13
3.539557218919849
 23
17.07628014968985
 33
0.0
  0
MTEXT
  5
426
330
341
100
AcDbEntity
  8
Dimension (ANSI)
100
AcDbMText
 10
3.107223115410376
 20
11.75035305244604
 30
0.0
 40
0.2181818268515847
 41
0.0
 71
     1
 72
     1
  1
\A1;10.880
  7
Note Text (ANSI)
 73
     1
 44
1.0
1001
ACAD
1000
MTEXTBEGIN
1070
    73
1070
     1
1070
    44
1040
1.0
1070
    74
1070
     0
1000
MTEXTEND
  0
POINT
  5
427
330
341
100
AcDbEntity
  8
Defpoints
 62
     0
100
AcDbPoint
 10
5.271840683486775
 20
6.196280149689854
 30
0.0
  0
POINT
  5
428
330
341
100
AcDbEntity
  8
Defpoints
 62
     0
100
AcDbPoint
 10
5.271840683486772
 20
17.07628014968985
 30
0.0
  0
POINT
  5
429
330
341
100
AcDbEntity
  8
Defpoints
 62
     0
100
AcDbPoint
 10
3.539557218919849
 20
17.07628014968985
 30
0.0
  0
ENDBLK
  5
343
330
341
100
AcDbEntity
  8
0
100
AcDbBlockEnd
  0
BLOCK
  5
42C
330
42B
100
AcDbEntity
  8
0
100
AcDbBlockBegin
  2
*D7
 70
     1
 10
0.0
 20
0.0
 30
0.0
  3
*D7
  1

  0
LINE
  5
530
330
42B
100
AcDbEntity
  8
Dimension (ANSI)
100
AcDbLine
 10
5.158204319850413
 20
6.196280149689854
 30
0.0
 11
4.752583901025988
 21
6.196280149689854
 31
0.0
  0
LINE
  5
531
330
42B
100
AcDbEntity
  8
Dimension (ANSI)
100
AcDbLine
 10
5.330704319850411
 20
6.509280149689853
 30
0.0
 11
4.752583901025988
 21
6.509280149689853
 31
0.0
  0
LINE
  5
532
330
42B
100
AcDbEntity
  8
Dimension (ANSI)
100
AcDbLine
 10
4.979856628298716
 20
6.017325250378788
 30
0.0
 11
4.979856628298715
 21
5.838370351067722
 31
0.0
  0
LINE
  5
533
330
42B
100
AcDbEntity
  8
Dimension (ANSI)
100
AcDbLine
 10
4.979856628298716
 20
6.688235049000919
 30
0.0
 11
4.979856628298716
 21
6.867189948311985
 31
0.0
  0
LINE
  5
534
330
42B
100
AcDbEntity
  8
Dimension (ANSI)
100
AcDbLine
 10
4.80090172898765
 20
7.200350387845992
 30
0.0
 11
4.979856628298716
 21
7.200350387845992
 31
0.0
  0
LINE
  5
535
330
42B
100
AcDbEntity
  8
Dimension (ANSI)
100
AcDbLine
 10
4.979856628298716
 20
7.200350387845992
 30
0.0
 11
4.979856628298716
 21
6.867189948311985
 31
0.0
  0
MTEXT
  5
536
330
42B
100
AcDbEntity
  8
Dimension (ANSI)
100
AcDbMText
 10
4.026669283628447
 20
7.346940539589517
 30
0.0
 40
0.2181818268515847
 41
0.0
 71
     1
 72
     1
  1
\A1;0.313{\PTYP.}
  7
Note Text (ANSI)
 73
     1
 44
1.0
1001
ACAD
1000
MTEXTBEGIN
1070
    73
1070
     1
1070
    44
1040
1.0
1070
    74
1070
     0
1000
MTEXTEND
  0
SOLID
  5
537
330
42B
100
AcDbEntity
  8
Dimension (ANSI)
100
AcDbTrace
 10
4.950030811746871
 20
6.017325250378788
 30
0.0
 11
5.00968244485056
 21
6.017325250378788
 31
0.0
 12
4.979856628298716
 22
6.196280149689854
 32
0.0
 13
4.979856628298716
 23
6.196280149689854
 33
0.0
  0
SOLID
  5
538
330
42B
100
AcDbEntity
  8
Dimension (ANSI)
100
AcDbTrace
 10
4.950030811746871
 20
6.688235049000919
 30
0.0
 11
5.00968244485056
 21
6.688235049000919
 31
0.0
 12
4.979856628298716
 22
6.509280149689853
 32
0.0
 13
4.979856628298716
 23
6.509280149689853
 33
0.0
  0
POINT
  5
539
330
42B
100
AcDbEntity
  8
Defpoints
 62
     0
100
AcDbPoint
 10
5.271840683486776
 20
6.196280149689854
 30
0.0
  0
POINT
  5
53A
330
42B
100
AcDbEntity
  8
Defpoints
 62
     0
100
AcDbPoint
 10
5.444340683486775
 20
6.509280149689853
 30
0.0
  0
POINT
  5
53B
330
42B
100
AcDbEntity
  8
Defpoints
 62
     0
100
AcDbPoint
 10
4.979856628298716
 20
6.509280149689853
 30
0.0
  0
ENDBLK
  5
42D
330
42B
100
AcDbEntity
  8
0
100
AcDbBlockEnd
  0
BLOCK
  5
53E
330
53D
100
AcDbEntity
  8
0
100
AcDbBlockBegin
  2
*D8
 70
     1
 10
0.0
 20
0.0
 30
0.0
  3
*D8
  1

  0
LINE
  5
630
330
53D
100
AcDbEntity
  8
Dimension (ANSI)
100
AcDbLine
 10
5.271840683486775
 20
6.08264378605349
 30
0.0
 11
5.271840683486775
 21
4.961133406669095
 31
0.0
  0
LINE
  5
631
330
53D
100
AcDbEntity
  8
Dimension (ANSI)
100
AcDbLine
 10
5.584840683486776
 20
6.286643786053491
 30
0.0
 11
5.584840683486776
 21
4.961133406669095
 31
0.0
  0
LINE
  5
632
330
53D
100
AcDbEntity
  8
Dimension (ANSI)
100
AcDbLine
 10
5.763795582797841
 20
5.188406133941823
 30
0.0
 11
5.942750482108907
 21
5.188406133941823
 31
0.0
  0
LINE
  5
633
330
53D
100
AcDbEntity
  8
Dimension (ANSI)
100
AcDbLine
 10
5.09288578417571
 20
5.188406133941823
 30
0.0
 11
4.913930884864644
 21
5.188406133941823
 31
0.0
  0
SOLID
  5
634
330
53D
100
AcDbEntity
  8
Dimension (ANSI)
100
AcDbTrace
 10
5.763795582797841
 20
5.218231950493668
 30
0.0
 11
5.763795582797841
 21
5.158580317389978
 31
0.0
 12
5.584840683486776
 22
5.188406133941823
 32
0.0
 13
5.584840683486776
 23
5.188406133941823
 33
0.0
  0
SOLID
  5
635
330
53D
100
AcDbEntity
  8
Dimension (ANSI)
100
AcDbTrace
 10
5.09288578417571
 20
5.218231950493668
 30
0.0
 11
5.09288578417571
 21
5.158580317389978
 31
0.0
 12
5.271840683486775
 22
5.188406133941823
 32
0.0
 13
5.271840683486775
 23
5.188406133941823
 33
0.0
  0
MTEXT
  5
636
330
53D
100
AcDbEntity
  8
Dimension (ANSI)
100
AcDbMText
 10
4.139698439505442
 20
5.334996285685346
 30
0.0
 40
0.2181818268515847
 41
0.0
 71
     1
 72
     1
  1
\A1;0.313{\PTYP.}
  7
Note Text (ANSI)
 73
     1
 44
1.0
1001
ACAD
1000
MTEXTBEGIN
1070
    73
1070
     1
1070
    44
1040
1.0
1070
    74
1070
     0
1000
MTEXTEND
  0
POINT
  5
637
330
53D
100
AcDbEntity
  8
Defpoints
 62
     0
100
AcDbPoint
 10
5.271840683486775
 20
6.196280149689854
 30
0.0
  0
POINT
  5
638
330
53D
100
AcDbEntity
  8
Defpoints
 62
     0
100
AcDbPoint
 10
5.584840683486776
 20
6.400280149689854
 30
0.0
  0
POINT
  5
639
330
53D
100
AcDbEntity
  8
Defpoints
 62
     0
100
AcDbPoint
 10
5.584840683486776
 20
5.188406133941823
 30
0.0
  0
ENDBLK
  5
53F
330
53D
100
AcDbEntity
  8
0
100
AcDbBlockEnd
  0
BLOCK
  5
63C
330
63B
100
AcDbEntity
  8
0
100
AcDbBlockBegin
  2
*D9
 70
     1
 10
0.0
 20
0.0
 30
0.0
  3
*D9
  1

  0
LINE
  5
71A
330
63B
100
AcDbEntity
  8
Dimension (ANSI)
100
AcDbLine
 10
5.584840683486776
 20
6.286643786053491
 30
0.0
 11
5.584840683486776
 21
4.961133406669095
 31
0.0
  0
LINE
  5
71B
330
63B
100
AcDbEntity
  8
Dimension (ANSI)
100
AcDbLine
 10
6.584840683486774
 20
6.27064378605349
 30
0.0
 11
6.584840683486774
 21
4.961133406669095
 31
0.0
  0
LINE
  5
71C
330
63B
100
AcDbEntity
  8
Dimension (ANSI)
100
AcDbLine
 10
5.763795582797841
 20
5.188406133941822
 30
0.0
 11
6.405885784175708
 21
5.188406133941822
 31
0.0
  0
LINE
  5
71D
330
63B
100
AcDbEntity
  8
Dimension (ANSI)
100
AcDbLine
 10
6.584840683486774
 20
5.188406133941822
 30
0.0
 11
6.76379558279784
 21
5.188406133941822
 31
0.0
  0
SOLID
  5
71E
330
63B
100
AcDbEntity
  8
Dimension (ANSI)
100
AcDbTrace
 10
5.763795582797841
 20
5.218231950493667
 30
0.0
 11
5.763795582797841
 21
5.158580317389978
 31
0.0
 12
5.584840683486776
 22
5.188406133941822
 32
0.0
 13
5.584840683486776
 23
5.188406133941822
 33
0.0
  0
SOLID
  5
71F
330
63B
100
AcDbEntity
  8
Dimension (ANSI)
100
AcDbTrace
 10
6.405885784175708
 20
5.218231950493667
 30
0.0
 11
6.405885784175708
 21
5.158580317389978
 31
0.0
 12
6.584840683486774
 22
5.188406133941822
 32
0.0
 13
6.584840683486774
 23
5.188406133941822
 33
0.0
  0
MTEXT
  5
720
330
63B
100
AcDbEntity
  8
Dimension (ANSI)
100
AcDbMText
 10
6.821061151874433
 20
5.301966184855172
 30
0.0
 40
0.2181818268515847
 41
0.0
 71
     1
 72
     1
  1
\A1;1.000
  7
Note Text (ANSI)
 73
     1
 44
1.0
1001
ACAD
1000
MTEXTBEGIN
1070
    73
1070
     1
1070
    44
1040
1.0
1070
    74
1070
     0
1000
MTEXTEND
  0
POINT
  5
721
330
63B
100
AcDbEntity
  8
Defpoints
 62
     0
100
AcDbPoint
 10
5.584840683486776
 20
6.400280149689854
 30
0.0
  0
POINT
  5
722
330
63B
100
AcDbEntity
  8
Defpoints
 62
     0
100
AcDbPoint
 10
6.584840683486774
 20
6.384280149689853
 30
0.0
  0
POINT
  5
723
330
63B
100
AcDbEntity
  8
Defpoints
 62
     0
100
AcDbPoint
 10
6.584840683486774
 20
5.188406133941822
 30
0.0
  0
ENDBLK
  5
63D
330
63B
100
AcDbEntity
  8
0
100
AcDbBlockEnd
  0
BLOCK
  5
726
330
725
100
AcDbEntity
  8
0
100
AcDbBlockBegin
  2
*D10
 70
     1
 10
0.0
 20
0.0
 30
0.0
  3
*D10
  1

  0
LINE
  5
7D6
330
725
100
AcDbEntity
  8
Dimension (ANSI)
100
AcDbLine
 10
7.834755912545353
 20
5.917118661539594
 30
0.0
 11
7.610494467248855
 21
5.917118661539594
 31
0.0
  0
LINE
  5
7D7
330
725
100
AcDbEntity
  8
Dimension (ANSI)
100
AcDbLine
 10
7.610494467248855
 20
5.917118661539594
 30
0.0
 11
6.848073347894915
 21
6.357302700034347
 31
0.0
  0
MTEXT
  5
7D8
102
{ACAD_XDICTIONARY
360
8CC
102
}
330
725
100
AcDbEntity
  8
Dimension (ANSI)
100
AcDbMText
 10
7.892021481621945
 20
6.079212405897059
 30
0.0
 40
0.2181818268515847
 41
0.0
 71
     1
 72
     1
  1
\A1;\U+22050.250{\PGROUND\PHOLE}
  7
Note Text (ANSI)
 73
     1
 44
1.0
1001
ACAD
1000
MTEXTBEGIN
1070
    73
1070
     1
1070
    44
1040
1.0
1070
    74
1070
     0
1000
MTEXTEND
  0
SOLID
  5
7D9
330
725
100
AcDbEntity
  8
Dimension (ANSI)
100
AcDbTrace
 10
6.862986256170835
 20
6.38313261485686
 30
0.0
 11
6.833160439618996
 21
6.331472785211834
 31
0.0
 12
6.693093858959837
 22
6.446780149689865
 32
0.0
 13
6.693093858959837
 23
6.446780149689865
 33
0.0
  0
LINE
  5
7DA
330
725
100
AcDbEntity
  8
Dimension (ANSI)
100
AcDbLine
 10
6.421204319850412
 20
6.509280149689855
 30
0.0
 11
6.74847704712314
 21
6.509280149689854
 31
0.0
  0
LINE
  5
7DB
330
725
100
AcDbEntity
  8
Dimension (ANSI)
100
AcDbLine
 10
6.584840683486775
 20
6.345643786053489
 30
0.0
 11
6.584840683486776
 21
6.672916513326217
 31
0.0
  0
POINT
  5
7DC
330
725
100
AcDbEntity
  8
Defpoints
 62
     0
100
AcDbPoint
 10
6.693093858959837
 20
6.446780149689865
 30
0.0
  0
POINT
  5
7DD
330
725
100
AcDbEntity
  8
Defpoints
 62
     0
100
AcDbPoint
 10
6.476587508013714
 20
6.571780149689844
 30
0.0
  0
ENDBLK
  5
727
330
725
100
AcDbEntity
  8
0
100
AcDbBlockEnd
  0
BLOCK
  5
7E0
330
7DF
100
AcDbEntity
  8
0
100
AcDbBlockBegin
  2
*D11
 70
     1
 10
0.0
 20
0.0
 30
0.0
  3
*D11
  1

  0
LINE
  5
87B
330
7DF
100
AcDbEntity
  8
Dimension (ANSI)
100
AcDbLine
 10
14.78416622017145
 20
7.243538027180207
 30
0.0
 11
14.60459856097737
 21
7.243538027180207
 31
0.0
  0
LINE
  5
87C
330
7DF
100
AcDbEntity
  8
Dimension (ANSI)
100
AcDbLine
 10
14.60459856097737
 20
7.243538027180207
 30
0.0
 11
14.07395554546554
 21
6.712895011668559
 31
0.0
  0
MTEXT
  5
87D
330
7DF
100
AcDbEntity
  8
Dimension (ANSI)
100
AcDbMText
 10
14.84143178924805
 20
7.414399095898508
 30
0.0
 40
0.2181818268515847
 41
0.0
 71
     1
 72
     1
  1
\A1; 0.218 X 0.281\POBROUND\PTYP. (4 PL.)
  7
Note Text (ANSI)
 73
     1
 44
1.0
1001
ACAD
1000
MTEXTBEGIN
1070
    73
1070
     1
1070
    44
1040
1.0
1070
    74
1070
     0
1000
MTEXTEND
  0
SOLID
  5
87E
330
7DF
100
AcDbEntity
  8
Dimension (ANSI)
100
AcDbTrace
 10
14.05286550832731
 20
6.733985048806799
 30
0.0
 11
14.09504558260377
 21
6.69180497453032
 31
0.0
 12
13.94741532263611
 22
6.586354788839171
 32
0.0
 13
13.94741532263611
 23
6.586354788839171
 33
0.0
  0
POINT
  5
87F
330
7DF
100
AcDbEntity
  8
Defpoints
 62
     0
100
AcDbPoint
 10
13.94741532263611
 20
6.586354788839171
 30
0.0
  0
POINT
  5
880
330
7DF
100
AcDbEntity
  8
Defpoints
 62
     0
100
AcDbPoint
 10
13.87034068348675
 20
6.509280149689843
 30
0.0
  0
ENDBLK
  5
7E1
330
7DF
100
AcDbEntity
  8
0
100
AcDbBlockEnd
  0
ENDSEC
  0
SECTION
  2
ENTITIES
  0
MTEXT
  5
11D
330
6C
100
AcDbEntity
  8
Symbol (ANSI)
100
AcDbMText
 10
22.31040461512011
 20
4.653379037998147
 30
0.0
 40
0.2181818208783203
 41
8.339483249675341
 71
     1
 72
     1
  1
{\fRomanS|b0|i0;\H0.2182;PART#: P1210AL\P(DATA SUBJECT TO CHANGE WITHOUT \PNOTICE)\PTHIS DRAWING AND COMPONENTS OF ARE\PPROPERTY OF HUBBELL INC. WIEGMANN\P}
  7
Note Text (ANSI)
 73
     2
 44
0.875123381614685
1001
ACAD
1000
MTEXTBEGIN
1070
    73
1070
     2
1070
    44
1040
0.875123381614685
1070
    74
1070
     0
1000
MTEXTEND
  0
CIRCLE
  5
120
330
6C
100
AcDbEntity
  8
Visible (ANSI)
100
AcDbCircle
 10
6.584840683486776
 20
6.509280149689853
 30
0.0
 40
0.125
  0
LINE
  5
121
330
6C
100
AcDbEntity
  8
Visible (ANSI)
100
AcDbLine
 10
5.553340683486775
 20
6.618280149689853
 30
0.0
 11
5.616340683486775
 21
6.618280149689853
 31
0.0
  0
ARC
  5
122
330
6C
100
AcDbEntity
  8
Visible (ANSI)
100
AcDbCircle
 10
5.553340683486775
 20
6.509280149689853
 30
0.0
 40
0.109
100
AcDbArc
 50
90.0
 51
270.0
  0
LINE
  5
123
330
6C
100
AcDbEntity
  8
Visible (ANSI)
100
AcDbLine
 10
5.616340683486775
 20
6.400280149689852
 30
0.0
 11
5.553340683486775
 21
6.400280149689852
 31
0.0
  0
ARC
  5
124
330
6C
100
AcDbEntity
  8
Visible (ANSI)
100
AcDbCircle
 10
5.616340683486775
 20
6.509280149689853
 30
0.0
 40
0.1090000000000001
100
AcDbArc
 50
270.0
 51
90.0
  0
LINE
  5
125
330
6C
100
AcDbEntity
  8
Visible (ANSI)
100
AcDbLine
 10
13.80734068348677
 20
16.87228014968986
 30
0.0
 11
13.87034068348677
 21
16.87228014968986
 31
0.0
  0
ARC
  5
126
330
6C
100
AcDbEntity
  8
Visible (ANSI)
100
AcDbCircle
 10
13.80734068348677
 20
16.76328014968985
 30
0.0
 40
0.1089999999999997
100
AcDbArc
 50
90.0
 51
270.0
  0
LINE
  5
127
330
6C
100
AcDbEntity
  8
Visible (ANSI)
100
AcDbLine
 10
13.87034068348677
 20
16.65428014968985
 30
0.0
 11
13.80734068348677
 21
16.65428014968985
 31
0.0
  0
ARC
  5
128
330
6C
100
AcDbEntity
  8
Visible (ANSI)
100
AcDbCircle
 10
13.87034068348677
 20
16.76328014968985
 30
0.0
 40
0.1089999999999997
100
AcDbArc
 50
270.0
 51
90.0
  0
LINE
  5
129
330
6C
100
AcDbEntity
  8
Visible (ANSI)
100
AcDbLine
 10
13.80734068348677
 20
6.618280149689854
 30
0.0
 11
13.87034068348677
 21
6.618280149689854
 31
0.0
  0
ARC
  5
12A
330
6C
100
AcDbEntity
  8
Visible (ANSI)
100
AcDbCircle
 10
13.80734068348677
 20
6.509280149689855
 30
0.0
 40
0.109
100
AcDbArc
 50
90.0
 51
270.0
  0
LINE
  5
12B
330
6C
100
AcDbEntity
  8
Visible (ANSI)
100
AcDbLine
 10
13.87034068348677
 20
6.400280149689854
 30
0.0
 11
13.80734068348677
 21
6.400280149689854
 31
0.0
  0
ARC
  5
12C
330
6C
100
AcDbEntity
  8
Visible (ANSI)
100
AcDbCircle
 10
13.87034068348677
 20
6.509280149689855
 30
0.0
 40
0.109
100
AcDbArc
 50
270.0
 51
90.0
  0
LINE
  5
12D
330
6C
100
AcDbEntity
  8
Visible (ANSI)
100
AcDbLine
 10
5.553340683486772
 20
16.87228014968985
 30
0.0
 11
5.616340683486773
 21
16.87228014968985
 31
0.0
  0
ARC
  5
12E
330
6C
100
AcDbEntity
  8
Visible (ANSI)
100
AcDbCircle
 10
5.553340683486771
 20
16.76328014968985
 30
0.0
 40
0.1089999999999997
100
AcDbArc
 50
90.00000000000033
 51
270.0000000000003
  0
LINE
  5
12F
330
6C
100
AcDbEntity
  8
Visible (ANSI)
100
AcDbLine
 10
5.616340683486773
 20
16.65428014968985
 30
0.0
 11
5.553340683486772
 21
16.65428014968985
 31
0.0
  0
ARC
  5
130
330
6C
100
AcDbEntity
  8
Visible (ANSI)
100
AcDbCircle
 10
5.616340683486773
 20
16.76328014968985
 30
0.0
 40
0.1089999999999997
100
AcDbArc
 50
270.0000000000003
 51
90.0000000000003
  0
LINE
  5
131
330
6C
100
AcDbEntity
  8
Visible (ANSI)
100
AcDbLine
 10
5.271840683486775
 20
6.196280149689854
 30
0.0
 11
5.271840683486773
 21
17.07628014968985
 31
0.0
  0
LINE
  5
132
330
6C
100
AcDbEntity
  8
Visible (ANSI)
100
AcDbLine
 10
5.271840683486773
 20
17.07628014968985
 30
0.0
 11
14.15184068348677
 21
17.07628014968985
 31
0.0
  0
LINE
  5
133
330
6C
100
AcDbEntity
  8
Visible (ANSI)
100
AcDbLine
 10
14.15184068348677
 20
17.07628014968985
 30
0.0
 11
14.15184068348677
 21
6.196280149689854
 31
0.0
  0
LINE
  5
134
330
6C
100
AcDbEntity
  8
Visible (ANSI)
100
AcDbLine
 10
14.15184068348677
 20
6.196280149689854
 30
0.0
 11
5.271840683486776
 21
6.196280149689854
 31
0.0
  0
MTEXT
  5
136
330
6C
100
AcDbEntity
  8
Symbol (ANSI)
100
AcDbMText
 10
8.82385857583559
 20
3.456293613061275
 30
0.0
 40
0.2181818208783203
 41
0.0
 71
     7
 72
     1
  1
FRONT VIEW
  7
Text Style150
 73
     1
 44
1.0
1001
ACAD
1000
MTEXTBEGIN
1070
    73
1070
     1
1070
    44
1040
1.0
1070
    74
1070
     0
1000
MTEXTEND
  0
LINE
  5
137
330
6C
100
AcDbEntity
  8
Symbol (ANSI)
370
    30
100
AcDbLine
 10
8.802040337893068
 20
3.411799726925111
 30
0.0
 11
10.55615852750339
 21
3.411799726925111
 31
0.0
  0
MTEXT
  5
138
330
6C
100
AcDbEntity
  8
Symbol (ANSI)
100
AcDbMText
 10
9.608818015261828
 20
2.964142327101594
 30
0.0
 40
0.327272720650937
 41
0.0
 71
     7
 72
     1
  1
 
  7
Label Text (ANSI)
 73
     1
 44
1.0
1001
ACAD
1000
MTEXTBEGIN
1070
    73
1070
     1
1070
    44
1040
1.0
1070
    74
1070
     0
1000
MTEXTEND
  0
LINE
  5
139
330
6C
100
AcDbEntity
  8
Hidden (ANSI)
 48
0.0837066471576691
100
AcDbLine
 10
19.21481984494324
 20
16.87228014968986
 30
0.0
 11
19.29481984494324
 21
16.87228014968986
 31
0.0
  0
LINE
  5
13A
330
6C
100
AcDbEntity
  8
Hidden (ANSI)
 48
0.0837066471576691
100
AcDbLine
 10
19.21481984494324
 20
16.65428014968985
 30
0.0
 11
19.29481984494324
 21
16.65428014968985
 31
0.0
  0
LINE
  5
13B
330
6C
100
AcDbEntity
  8
Hidden (ANSI)
 48
0.0837066471576691
100
AcDbLine
 10
19.21481984494324
 20
6.618280149689854
 30
0.0
 11
19.29481984494324
 21
6.618280149689854
 31
0.0
  0
LINE
  5
13C
330
6C
100
AcDbEntity
  8
Hidden (ANSI)
 48
0.0837066471576691
100
AcDbLine
 10
19.21481984494324
 20
6.400280149689854
 30
0.0
 11
19.29481984494324
 21
6.400280149689854
 31
0.0
  0
LINE
  5
13D
330
6C
100
AcDbEntity
  8
Visible (ANSI)
100
AcDbLine
 10
19.29481984494332
 20
17.07628014968985
 30
0.0
 11
19.21481984494332
 21
17.07628014968985
 31
0.0
  0
LINE
  5
13E
330
6C
100
AcDbEntity
  8
Visible (ANSI)
100
AcDbLine
 10
19.21481984494332
 20
17.07628014968985
 30
0.0
 11
19.21481984494332
 21
6.196280149689854
 31
0.0
  0
LINE
  5
13F
330
6C
100
AcDbEntity
  8
Visible (ANSI)
100
AcDbLine
 10
19.29481984494332
 20
6.196280149689854
 30
0.0
 11
19.21481984494332
 21
6.196280149689854
 31
0.0
  0
LINE
  5
140
330
6C
100
AcDbEntity
  8
Visible (ANSI)
100
AcDbLine
 10
19.29481984494332
 20
6.196280149689854
 30
0.0
 11
19.29481984494332
 21
17.07628014968985
 31
0.0
  0
LINE
  5
141
330
6C
100
AcDbEntity
  8
Hidden (ANSI)
 48
0.0837066471576691
100
AcDbLine
 10
19.29481984494108
 20
6.384280149689853
 30
0.0
 11
19.21481984494108
 21
6.384280149689853
 31
0.0
  0
LINE
  5
142
330
6C
100
AcDbEntity
  8
Hidden (ANSI)
 48
0.0837066471576691
100
AcDbLine
 10
19.29481984494108
 20
6.634280149689854
 30
0.0
 11
19.21481984494108
 21
6.634280149689854
 31
0.0
  0
MTEXT
  5
143
330
6C
100
AcDbEntity
  8
Symbol (ANSI)
100
AcDbMText
 10
18.45916659396312
 20
3.482652285831063
 30
0.0
 40
0.2181818208783203
 41
0.0
 71
     7
 72
     1
  1
RIGHT VIEW
  7
Text Style150
 73
     1
 44
1.0
1001
ACAD
1000
MTEXTBEGIN
1070
    73
1070
     1
1070
    44
1040
1.0
1070
    74
1070
     0
1000
MTEXTEND
  0
LINE
  5
144
330
6C
100
AcDbEntity
  8
Symbol (ANSI)
370
    30
100
AcDbLine
 10
18.43734835602059
 20
3.437804782446583
 30
0.0
 11
20.1371862980143
 21
3.437804782446583
 31
0.0
  0
MTEXT
  5
145
330
6C
100
AcDbEntity
  8
Symbol (ANSI)
100
AcDbMText
 10
19.21698590958104
 20
2.990147382623066
 30
0.0
 40
0.327272720650937
 41
0.0
 71
     7
 72
     1
  1
 
  7
Label Text (ANSI)
 73
     1
 44
1.0
1001
ACAD
1000
MTEXTBEGIN
1070
    73
1070
     1
1070
    44
1040
1.0
1070
    74
1070
     0
1000
MTEXTEND
  0
DIMENSION
  5
146
330
6C
100
AcDbEntity
  8
Dimension (ANSI)
100
AcDbDimension
  2
*D4
 10
19.21481984494332
 20
14.07029589772135
 30
0.0
 11
20.42578149756547
 21
14.07029589772135
 31
0.0
 70
   160
  1
<>
 42
0.0800000000000019
  3
Default (ANSI)
100
AcDbAlignedDimension
 13
19.29481984494332
 23
6.196280149689854
 33
0.0
 14
19.21481984494332
 24
6.196280149689854
 34
0.0
100
AcDbRotatedDimension
1001
ACAD
1000
DSTYLE
1002
{
1070
   289
1070
     1
1070
    73
1070
     0
1070
    74
1070
     0
1070
   271
1070
     3
1070
    76
1070
     1
1070
    75
1070
     1
1070
   272
1070
     2
1070
    48
1040
0.0
1070
    47
1040
0.0
1002
}
  0
ELLIPSE
  5
227
330
6C
100
AcDbEntity
  8
Visible (ANSI)
100
AcDbEllipse
 10
24.85362690709794
 20
10.36446861867349
 30
0.0
 11
0.051037385275683
 21
-0.0886278514239353
 31
0.0
210
0.0
220
0.0
230
1.0
 40
0.5780931159158106
 41
3.610235390314588
 42
5.814542570453967
  0
ELLIPSE
  5
228
330
6C
100
AcDbEntity
  8
Visible (ANSI)
100
AcDbEllipse
 10
24.80734355414755
 20
10.33781580831617
 30
0.0
 11
-0.0510373852756778
 21
0.0886278514239384
 31
0.0
210
0.0
220
0.0
230
0.9999999999999998
 40
0.5780931159158105
 41
0.0
 42
6.283185307179586
  0
LINE
  5
229
330
6C
100
AcDbEntity
  8
Visible (ANSI)
100
AcDbLine
 10
24.21057757204334
 20
10.75438082090355
 30
0.0
 11
24.24702571249178
 21
10.73339173274716
 31
0.0
  0
ELLIPSE
  5
22A
330
6C
100
AcDbEntity
  8
Visible (ANSI)
100
AcDbEllipse
 10
24.25686092499373
 20
10.70812329221809
 30
0.0
 11
0.0445045999603956
 21
-0.0772834864416716
 31
0.0
210
0.0
220
0.0
230
1.0
 40
0.5780931159158104
 41
3.686076690042488
 42
5.499720852204688
  0
ELLIPSE
  5
22B
330
6C
100
AcDbEntity
  8
Visible (ANSI)
100
AcDbEllipse
 10
24.21057757204334
 20
10.68147048186077
 30
0.0
 11
-0.0445045999603864
 21
0.0772834864416769
 31
0.0
210
0.0
220
0.0
230
1.0
 40
0.5780931159158105
 41
5.499720852205276
 42
8.641313505795068
  0
LINE
  5
22C
330
6C
100
AcDbEntity
  8
Visible Narrow (ANSI)
100
AcDbLine
 10
24.21057757204334
 20
10.608560142818
 30
0.0
 11
24.25686092499373
 21
10.63521295317532
 31
0.0
  0
LINE
  5
22D
330
6C
100
AcDbEntity
  8
Visible (ANSI)
100
AcDbLine
 10
24.25686092499373
 20
10.63521295317532
 30
0.0
 11
24.29330906544217
 21
10.61422386501893
 31
0.0
  0
LINE
  5
22E
330
6C
100
AcDbEntity
  8
Visible (ANSI)
100
AcDbLine
 10
24.24702571249178
 20
10.58757105466161
 30
0.0
 11
24.21057757204334
 21
10.608560142818
 31
0.0
  0
LINE
  5
22F
330
6C
100
AcDbEntity
  8
Visible Narrow (ANSI)
100
AcDbLine
 10
24.24702571249178
 20
10.58757105466161
 30
0.0
 11
24.29330906544217
 21
10.61422386501893
 31
0.0
  0
ELLIPSE
  5
230
330
6C
100
AcDbEntity
  8
Visible (ANSI)
100
AcDbEllipse
 10
24.29330906544217
 20
10.68713420406171
 30
0.0
 11
0.0445045999603905
 21
-0.0772834864416734
 31
0.0
210
0.0
220
0.0
230
1.0
 40
0.5780931159158106
 41
5.499720852205022
 42
5.738701270726574
  0
ELLIPSE
  5
231
330
6C
100
AcDbEntity
  8
Visible (ANSI)
100
AcDbEllipse
 10
24.24702571249178
 20
10.66048139370439
 30
0.0
 11
0.0445045999603864
 21
-0.077283486441677
 31
0.0
210
0.0
220
0.0
230
1.0
 40
0.5780931159158105
 41
5.499720852205276
 42
8.641313505795068
  0
LINE
  5
232
330
6C
100
AcDbEntity
  8
Visible (ANSI)
100
AcDbLine
 10
28.98586251270076
 20
14.86340019985317
 30
0.0
 11
29.0223106531492
 21
14.84241111169678
 31
0.0
  0
ELLIPSE
  5
233
330
6C
100
AcDbEntity
  8
Visible (ANSI)
100
AcDbEllipse
 10
29.03214586565115
 20
14.81714267116772
 30
0.0
 11
0.0445045999603957
 21
-0.0772834864416718
 31
0.0
210
0.0
220
0.0
230
1.0
 40
0.5780931159158105
 41
3.686076690042488
 42
5.499720852204688
  0
ELLIPSE
  5
234
330
6C
100
AcDbEntity
  8
Visible (ANSI)
100
AcDbEllipse
 10
28.98586251270076
 20
14.79048986081039
 30
0.0
 11
-0.0445045999603863
 21
0.0772834864416767
 31
0.0
210
0.0
220
0.0
230
0.9999999999999998
 40
0.5780931159158105
 41
5.499720852205276
 42
8.64131350579507
  0
LINE
  5
235
330
6C
100
AcDbEntity
  8
Visible Narrow (ANSI)
100
AcDbLine
 10
28.98586251270076
 20
14.71757952176762
 30
0.0
 11
29.03214586565115
 21
14.74423233212494
 31
0.0
  0
LINE
  5
236
330
6C
100
AcDbEntity
  8
Visible (ANSI)
100
AcDbLine
 10
29.03214586565115
 20
14.74423233212494
 30
0.0
 11
29.06859400609958
 21
14.72324324396855
 31
0.0
  0
LINE
  5
237
330
6C
100
AcDbEntity
  8
Visible (ANSI)
100
AcDbLine
 10
29.0223106531492
 20
14.69659043361123
 30
0.0
 11
28.98586251270076
 21
14.71757952176762
 31
0.0
  0
LINE
  5
238
330
6C
100
AcDbEntity
  8
Visible Narrow (ANSI)
100
AcDbLine
 10
29.0223106531492
 20
14.69659043361123
 30
0.0
 11
29.06859400609958
 21
14.72324324396855
 31
0.0
  0
ELLIPSE
  5
239
330
6C
100
AcDbEntity
  8
Visible (ANSI)
100
AcDbEllipse
 10
29.0685940060996
 20
14.79615358301125
 30
0.0
 11
0.0445045999603446
 21
-0.0772834864415937
 31
0.0
210
0.0
220
0.0
230
0.9999999999999998
 40
0.5780931159158106
 41
5.499720852204861
 42
5.738701270726654
  0
ELLIPSE
  5
23A
330
6C
100
AcDbEntity
  8
Visible (ANSI)
100
AcDbEllipse
 10
29.0223106531492
 20
14.76950077265401
 30
0.0
 11
0.0445045999603863
 21
-0.0772834864416767
 31
0.0
210
0.0
220
0.0
230
0.9999999999999998
 40
0.5780931159158105
 41
5.499720852205276
 42
8.64131350579507
  0
LINE
  5
23B
330
6C
100
AcDbEntity
  8
Visible (ANSI)
100
AcDbLine
 10
28.98586251270076
 20
8.004477112287839
 30
0.0
 11
29.02231065314921
 21
7.983488024131454
 31
0.0
  0
ELLIPSE
  5
23C
330
6C
100
AcDbEntity
  8
Visible (ANSI)
100
AcDbEllipse
 10
29.03214586565115
 20
7.958219583602383
 30
0.0
 11
0.0445045999603957
 21
-0.0772834864416717
 31
0.0
210
0.0
220
0.0
230
1.0
 40
0.5780931159158106
 41
3.686076690042488
 42
5.499720852204688
  0
ELLIPSE
  5
23D
330
6C
100
AcDbEntity
  8
Visible (ANSI)
100
AcDbEllipse
 10
28.98586251270076
 20
7.931566773245063
 30
0.0
 11
-0.0445045999603864
 21
0.0772834864416769
 31
0.0
210
0.0
220
0.0
230
1.0
 40
0.5780931159158105
 41
5.499720852205276
 42
8.641313505795068
  0
LINE
  5
23E
330
6C
100
AcDbEntity
  8
Visible Narrow (ANSI)
100
AcDbLine
 10
28.98586251270076
 20
7.858656434202288
 30
0.0
 11
29.03214586565115
 21
7.885309244559608
 31
0.0
  0
LINE
  5
23F
330
6C
100
AcDbEntity
  8
Visible (ANSI)
100
AcDbLine
 10
29.03214586565115
 20
7.885309244559608
 30
0.0
 11
29.06859400609959
 21
7.864320156403224
 31
0.0
  0
LINE
  5
240
330
6C
100
AcDbEntity
  8
Visible (ANSI)
100
AcDbLine
 10
29.02231065314921
 20
7.837667346045904
 30
0.0
 11
28.98586251270076
 21
7.858656434202288
 31
0.0
  0
LINE
  5
241
330
6C
100
AcDbEntity
  8
Visible Narrow (ANSI)
100
AcDbLine
 10
29.02231065314921
 20
7.837667346045904
 30
0.0
 11
29.06859400609959
 21
7.864320156403224
 31
0.0
  0
ELLIPSE
  5
242
330
6C
100
AcDbEntity
  8
Visible (ANSI)
100
AcDbEllipse
 10
29.06859400609959
 20
7.937230495445996
 30
0.0
 11
0.0445045999603893
 21
-0.0772834864416713
 31
0.0
210
0.0
220
0.0
230
1.0
 40
0.5780931159158105
 41
5.499720852205022
 42
5.738701270726578
  0
ELLIPSE
  5
243
330
6C
100
AcDbEntity
  8
Visible (ANSI)
100
AcDbEllipse
 10
29.02231065314921
 20
7.910577685088679
 30
0.0
 11
0.0445045999603864
 21
-0.0772834864416769
 31
0.0
210
0.0
220
0.0
230
1.0
 40
0.5780931159158105
 41
5.499720852205276
 42
8.641313505795068
  0
LINE
  5
244
330
6C
100
AcDbEntity
  8
Visible (ANSI)
100
AcDbLine
 10
24.21057757204334
 20
17.61330390846888
 30
0.0
 11
24.24702571249178
 21
17.5923148203125
 31
0.0
  0
ELLIPSE
  5
245
330
6C
100
AcDbEntity
  8
Visible (ANSI)
100
AcDbEllipse
 10
24.25686092499372
 20
17.56704637978342
 30
0.0
 11
0.0445045999603951
 21
-0.0772834864416708
 31
0.0
210
0.0
220
0.0
230
0.9999999999999998
 40
0.5780931159158106
 41
3.686076690042488
 42
5.499720852204769
  0
ELLIPSE
  5
246
330
6C
100
AcDbEntity
  8
Visible (ANSI)
100
AcDbEllipse
 10
24.21057757204334
 20
17.5403935694261
 30
0.0
 11
-0.0445045999603863
 21
0.0772834864416767
 31
0.0
210
0.0
220
0.0
230
1.0
 40
0.5780931159158106
 41
5.499720852205275
 42
8.641313505795068
  0
LINE
  5
247
330
6C
100
AcDbEntity
  8
Visible Narrow (ANSI)
100
AcDbLine
 10
24.21057757204334
 20
17.46748323038333
 30
0.0
 11
24.25686092499373
 21
17.49413604074065
 31
0.0
  0
LINE
  5
248
330
6C
100
AcDbEntity
  8
Visible (ANSI)
100
AcDbLine
 10
24.25686092499373
 20
17.49413604074065
 30
0.0
 11
24.29330906544217
 21
17.47314695258426
 31
0.0
  0
LINE
  5
249
330
6C
100
AcDbEntity
  8
Visible (ANSI)
100
AcDbLine
 10
24.24702571249178
 20
17.44649414222694
 30
0.0
 11
24.21057757204334
 21
17.46748323038333
 31
0.0
  0
LINE
  5
24A
330
6C
100
AcDbEntity
  8
Visible Narrow (ANSI)
100
AcDbLine
 10
24.24702571249178
 20
17.44649414222694
 30
0.0
 11
24.29330906544217
 21
17.47314695258426
 31
0.0
  0
ELLIPSE
  5
24B
330
6C
100
AcDbEntity
  8
Visible (ANSI)
100
AcDbEllipse
 10
24.29330906544218
 20
17.54605729162696
 30
0.0
 11
0.0445045999603446
 21
-0.0772834864415937
 31
0.0
210
0.0
220
0.0
230
1.0
 40
0.5780931159158106
 41
5.499720852204861
 42
5.738701270726654
  0
ELLIPSE
  5
24C
330
6C
100
AcDbEntity
  8
Visible (ANSI)
100
AcDbEllipse
 10
24.24702571249178
 20
17.51940448126972
 30
0.0
 11
0.0445045999603863
 21
-0.0772834864416767
 31
0.0
210
0.0
220
0.0
230
1.0
 40
0.5780931159158106
 41
5.499720852205276
 42
8.64131350579507
  0
LINE
  5
24D
330
6C
100
AcDbEntity
  8
Visible (ANSI)
100
AcDbLine
 10
24.04771802384912
 20
10.56588867187998
 30
0.0
 11
24.04771802384912
 21
17.84354453229648
 31
0.0
  0
LINE
  5
24E
330
6C
100
AcDbEntity
  8
Visible (ANSI)
100
AcDbLine
 10
24.09400137679951
 20
17.8701973426538
 30
0.0
 11
24.04771802384912
 21
17.84354453229648
 31
0.0
  0
LINE
  5
24F
330
6C
100
AcDbEntity
  8
Visible (ANSI)
100
AcDbLine
 10
24.04771802384912
 20
17.84354453229648
 30
0.0
 11
29.18517020134342
 21
14.8850825826348
 31
0.0
  0
LINE
  5
250
330
6C
100
AcDbEntity
  8
Visible (ANSI)
100
AcDbLine
 10
29.2314535542938
 20
14.91173539299212
 30
0.0
 11
29.18517020134342
 21
14.8850825826348
 31
0.0
  0
LINE
  5
251
330
6C
100
AcDbEntity
  8
Visible (ANSI)
100
AcDbLine
 10
29.2314535542938
 20
14.91173539299212
 30
0.0
 11
24.09400137679951
 21
17.8701973426538
 31
0.0
  0
LINE
  5
252
330
6C
100
AcDbEntity
  8
Visible (ANSI)
100
AcDbLine
 10
29.18517020134342
 20
14.8850825826348
 30
0.0
 11
29.18517020134342
 21
7.607426722218301
 31
0.0
  0
LINE
  5
253
330
6C
100
AcDbEntity
  8
Visible (ANSI)
100
AcDbLine
 10
29.23145355429381
 20
7.634079532575621
 30
0.0
 11
29.18517020134342
 21
7.607426722218301
 31
0.0
  0
LINE
  5
254
330
6C
100
AcDbEntity
  8
Visible (ANSI)
100
AcDbLine
 10
29.23145355429381
 20
7.634079532575621
 30
0.0
 11
29.2314535542938
 21
14.91173539299212
 31
0.0
  0
LINE
  5
255
330
6C
100
AcDbEntity
  8
Visible (ANSI)
100
AcDbLine
 10
29.18517020134342
 20
7.607426722218301
 30
0.0
 11
24.04771802384912
 21
10.56588867187998
 31
0.0
  0
DIMENSION
  5
256
330
6C
100
AcDbEntity
  8
Dimension (ANSI)
100
AcDbDimension
  2
*D5
 10
5.271840683486776
 20
4.42460907077513
 30
0.0
 11
9.711840683486776
 21
4.42460907077513
 31
0.0
 70
   160
  1
<>
 42
8.879999999999999
  3
Default (ANSI)
100
AcDbAlignedDimension
 13
14.15184068348677
 23
6.196280149689854
 33
0.0
 14
5.271840683486776
 24
6.196280149689854
 34
0.0
 50
180.0
100
AcDbRotatedDimension
1001
ACAD
1000
DSTYLE
1002
{
1070
   289
1070
     1
1070
    73
1070
     0
1070
    74
1070
     0
1070
   271
1070
     3
1070
   272
1070
     2
1070
    48
1040
0.0
1070
    47
1040
0.0
1002
}
  0
DIMENSION
  5
340
330
6C
100
AcDbEntity
  8
Dimension (ANSI)
100
AcDbDimension
  2
*D6
 10
3.539557218919849
 20
17.07628014968985
 30
0.0
 11
3.539557218919846
 21
11.63628014968985
 31
0.0
 70
   160
  1
<>
 42
10.88
  3
Default (ANSI)
100
AcDbAlignedDimension
 13
5.271840683486775
 23
6.196280149689854
 33
0.0
 14
5.271840683486772
 24
17.07628014968985
 34
0.0
 50
90.0
100
AcDbRotatedDimension
1001
ACAD
1000
DSTYLE
1002
{
1070
   289
1070
     1
1070
   271
1070
     3
1070
   272
1070
     2
1070
    48
1040
0.0
1070
    47
1040
0.0
1002
}
  0
DIMENSION
  5
42A
330
6C
100
AcDbEntity
  8
Dimension (ANSI)
100
AcDbDimension
  2
*D7
 10
4.979856628298716
 20
6.509280149689853
 30
0.0
 11
4.965063737000979
 21
7.200350387845993
 31
0.0
 70
   160
  1
<>{\PTYP.}
 42
0.3129999999999997
  3
Default (ANSI)
100
AcDbAlignedDimension
 13
5.271840683486776
 23
6.196280149689854
 33
0.0
 14
5.444340683486775
 24
6.509280149689853
 34
0.0
 50
90.0
100
AcDbRotatedDimension
1001
ACAD
1000
DSTYLE
1002
{
1070
   289
1070
     1
1070
   279
1070
     1
1070
   145
1040
-0.25
1070
   271
1070
     3
1070
   272
1070
     2
1070
    48
1040
0.0
1070
    47
1040
0.0
1002
}
  0
DIMENSION
  5
53C
330
6C
100
AcDbEntity
  8
Dimension (ANSI)
100
AcDbDimension
  2
*D8
 10
5.584840683486776
 20
5.188406133941823
 30
0.0
 11
4.498181877646747
 21
5.188406133941823
 31
0.0
 70
   160
  1
<>{\PTYP.}
 42
0.3130000000000006
  3
Default (ANSI)
100
AcDbAlignedDimension
 13
5.271840683486775
 23
6.196280149689854
 33
0.0
 14
5.584840683486776
 24
6.400280149689854
 34
0.0
100
AcDbRotatedDimension
1001
ACAD
1000
DSTYLE
1002
{
1070
   289
1070
     1
1070
    73
1070
     0
1070
    74
1070
     0
1070
   145
1040
-0.25
1070
   271
1070
     3
1070
   272
1070
     2
1070
    48
1040
0.0
1070
    47
1040
0.0
1002
}
  0
DIMENSION
  5
63A
330
6C
100
AcDbEntity
  8
Dimension (ANSI)
100
AcDbDimension
  2
*D9
 10
6.584840683486774
 20
5.188406133941822
 30
0.0
 11
7.171485489628338
 21
5.188406133941822
 31
0.0
 70
   160
  1
<>
 42
0.9999999999999982
  3
Default (ANSI)
100
AcDbAlignedDimension
 13
5.584840683486776
 23
6.400280149689854
 33
0.0
 14
6.584840683486774
 24
6.384280149689853
 34
0.0
 50
180.0
100
AcDbRotatedDimension
1001
ACAD
1000
DSTYLE
1002
{
1070
   289
1070
     2
1070
    73
1070
     0
1070
    74
1070
     0
1070
   271
1070
     3
1070
   272
1070
     2
1070
    48
1040
0.0
1070
    47
1040
0.0
1002
}
  0
DIMENSION
  5
724
330
6C
100
AcDbEntity
  8
Dimension (ANSI)
100
AcDbDimension
  2
*D10
 10
6.476587508013714
 20
6.571780149689844
 30
0.0
 11
8.48224068817546
 21
5.917118661539594
 31
0.0
 70
   163
  1
<>{\PGROUND\PHOLE}
 42
0.25
  3
Default (ANSI)
100
AcDbDiametricDimension
 15
6.693093858959837
 25
6.446780149689865
 35
0.0
 40
0.0
1001
ACAD_DSTYLE_DIMRADIAL_EXTENSION
1070
   387
1070
     1
1070
   388
1040
0.0
1070
   390
1040
0.0
1001
ACAD
1000
DSTYLE
1002
{
1070
   145
1040
-0.3333333333333334
1070
   144
1040
0.9999999999999946
1070
   271
1070
     3
1070
   272
1070
     2
1070
    48
1040
0.0
1070
    47
1040
0.0
1002
}
  0
DIMENSION
  5
7DE
330
6C
100
AcDbEntity
  8
Dimension (ANSI)
100
AcDbDimension
  2
*D11
 10
13.87034068348675
 20
6.509280149689843
 30
0.0
 11
15.80317552366066
 21
7.243538027180206
 31
0.0
 70
   164
  1
 0.218 X 0.281\POBROUND\PTYP. (4 PL.)
 42
0.1090000000000124
  3
Default (ANSI)
100
AcDbRadialDimension
 15
13.94741532263611
 25
6.586354788839171
 35
0.0
 40
0.0
1001
ACAD_DSTYLE_DIMRADIAL_EXTENSION
1070
   387
1070
     1
1070
   388
1040
0.0
1070
   390
1040
0.0
1001
ACAD
1000
DSTYLE
1002
{
1070
   145
1040
-0.3333333333333334
1070
   271
1070
     3
1070
   141
1040
0.0
1070
   272
1070
     2
1070
    48
1040
0.0
1070
    47
1040
0.0
1002
}
  0
ENDSEC
  0
SECTION
  2
OBJECTS
  0
DICTIONARY
  5
C
330
0
100
AcDbDictionary
281
     1
  3
ACAD_CIP_PREVIOUS_PRODUCT_INFO
350
881
  3
ACAD_COLOR
350
63
  3
ACAD_GROUP
350
D
  3
ACAD_LAYOUT
350
62
  3
ACAD_MATERIAL
350
10
  3
ACAD_MLEADERSTYLE
350
66
  3
ACAD_MLINESTYLE
350
5F
  3
ACAD_PLOTSETTINGS
350
61
  3
ACAD_PLOTSTYLENAME
350
E
  3
ACAD_SCALELIST
350
42
  3
ACAD_TABLESTYLE
350
64
  3
ACAD_VISUALSTYLE
350
29
  3
ACDB_RECOMPOSE_DATA
350
88F
  3
AcDbVariableDictionary
350
76
  3
DWGPROPS
350
890
  0
DICTIONARY
  5
8CC
330
7D8
100
AcDbDictionary
280
     1
281
     1
  3
ACAD_MTEXT_RT
360
8CD
  0
XRECORD
  5
881
102
{ACAD_REACTORS
330
C
102
}
330
C
100
AcDbXrecord
280
     1
300
INVNTOR
300
2012
300
85795PDSP_2012_0F
  0
DICTIONARY
  5
63
102
{ACAD_REACTORS
330
C
102
}
330
C
100
AcDbDictionary
281
     1
  0
DICTIONARY
  5
D
102
{ACAD_REACTORS
330
C
102
}
330
C
100
AcDbDictionary
281
     1
  0
DICTIONARY
  5
62
102
{ACAD_REACTORS
330
C
102
}
330
C
100
AcDbDictionary
281
     1
  3
Layout1
350
6B
  3
Layout2
350
73
  3
Model
350
6F
  0
DICTIONARY
  5
10
102
{ACAD_REACTORS
330
C
102
}
330
C
100
AcDbDictionary
281
     1
  3
ByBlock
350
19
  3
ByLayer
350
11
  3
Global
350
21
  0
DICTIONARY
  5
66
102
{ACAD_REACTORS
330
C
102
}
330
C
100
AcDbDictionary
281
     1
  3
Standard
350
67
  0
DICTIONARY
  5
5F
102
{ACAD_REACTORS
330
C
102
}
330
C
100
AcDbDictionary
281
     1
  3
Standard
350
60
  0
DICTIONARY
  5
61
102
{ACAD_REACTORS
330
C
102
}
330
C
100
AcDbDictionary
281
     1
  0
ACDBDICTIONARYWDFLT
  5
E
102
{ACAD_REACTORS
330
C
102
}
330
C
100
AcDbDictionary
281
     1
  3
Normal
350
F
100
AcDbDictionaryWithDefault
340
F
  0
DICTIONARY
  5
42
102
{ACAD_REACTORS
330
C
102
}
330
C
100
AcDbDictionary
281
     1
  3
A0
350
43
  3
A1
350
44
  3
A2
350
45
  3
A3
350
46
  3
A4
350
47
  3
A5
350
48
  3
A6
350
49
  3
A7
350
4A
  3
A8
350
4B
  3
A9
350
4C
  3
B0
350
4D
  3
B1
350
4E
  3
B2
350
4F
  3
B3
350
50
  3
B4
350
51
  3
B5
350
52
  3
B6
350
53
  0
DICTIONARY
  5
64
102
{ACAD_REACTORS
330
C
102
}
330
C
100
AcDbDictionary
281
     1
  3
Standard
350
65
  0
DICTIONARY
  5
29
102
{ACAD_REACTORS
330
C
102
}
330
C
100
AcDbDictionary
281
     1
  3
2dWireframe
350
2F
  3
Basic
350
2E
  3
Brighten
350
35
  3
ColorChange
350
39
  3
Conceptual
350
32
  3
Dim
350
34
  3
EdgeColorOff
350
41
  3
Facepattern
350
38
  3
Flat
350
2A
  3
FlatWithEdges
350
2B
  3
Gouraud
350
2C
  3
GouraudWithEdges
350
2D
  3
Hidden
350
31
  3
JitterOff
350
3F
  3
Linepattern
350
37
  3
OverhangOff
350
40
  3
Realistic
350
33
  3
Shaded
350
3E
  3
Shaded with edges
350
3D
  3
Shades of Gray
350
3A
  3
Sketchy
350
3B
  3
Thicken
350
36
  3
Wireframe
350
30
  3
X-Ray
350
3C
  0
XRECORD
  5
88F
102
{ACAD_REACTORS
330
C
102
}
330
C
100
AcDbXrecord
280
     1
 90
        1
330
65
330
63A
  0
DICTIONARY
  5
76
102
{ACAD_REACTORS
330
C
102
}
330
C
100
AcDbDictionary
281
     1
  3
CANNOSCALE
350
79
  3
CMLEADERSTYLE
350
78
  3
CTABLESTYLE
350
77
  3
DIMASSOC
350
889
  3
HIDETEXT
350
888
  3
INDEXCTL
350
887
  3
LAYEREVAL
350
884
  3
LAYERNOTIFY
350
885
  3
LIGHTINGUNITS
350
883
  3
MSLTSCALE
350
882
  3
SORTENTS
350
886
  3
XCLIPFRAME
350
88A
  0
XRECORD
  5
890
102
{ACAD_REACTORS
330
C
102
}
330
C
100
AcDbXrecord
280
     1
  1
DWGPROPS COOKIE
  2

  3

  4
KRA
  6

  7

  8

  9
-
300
Manager=
301
Company=
302
Category=
303
Part Number=P1210AL-S
304
Description=P SERIES BACK PANEL MASTER VIEW
305
Project=
306
Designer=KRA
307
Engineer=
308
Authority=
309
Cost Center=
 40
0.0000573263888889
 41
2455951.563037789
 42
2455951.563037789
  1

 90
       20
300
Vendor=
300
User Status=
300
Design Status=WorkInProgress
300
Checked by=JMG
300
Date Checked=02/12/2009
300
Engr Approved by=
300
Mfg Approved by=
300
DWG. NO=
300
NUMBER OF SHEETS=1
300
DRAWING #=1
  0
XRECORD
  5
8CD
102
{ACAD_REACTORS
330
8CC
102
}
330
8CC
100
AcDbXrecord
280
     1
 40
40178.0
  1
\A1;\U+22050.250{\PGROUND\PHOLE}
  0
LAYOUT
  5
6B
102
{ACAD_XDICTIONARY
360
8C6
102
}
102
{ACAD_REACTORS
330
62
102
}
330
62
100
AcDbPlotSettings
  1

  2

  4

  6

 40
0.0
 41
0.0
 42
0.0
 43
0.0
 44
0.0
 45
0.0
 46
0.0
 47
0.0
 48
0.0
 49
0.0
140
0.0
141
0.0
142
1.0
143
1.0
 70
   688
 72
     0
 73
     0
 74
     5
  7

 75
    16
147
1.0
148
0.0
149
0.0
100
AcDbLayout
  1
Layout1
 70
     1
 71
     1
 10
0.0
 20
0.0
 11
12.0
 21
9.0
 12
0.0
 22
0.0
 32
0.0
 14
0.0
 24
0.0
 34
0.0
 15
0.0
 25
0.0
 35
0.0
146
0.0
 13
0.0
 23
0.0
 33
0.0
 16
1.0
 26
0.0
 36
0.0
 17
0.0
 27
1.0
 37
0.0
 76
     0
330
68
  0
LAYOUT
  5
73
102
{ACAD_XDICTIONARY
360
8CA
102
}
102
{ACAD_REACTORS
330
62
102
}
330
62
100
AcDbPlotSettings
  1

  2

  4

  6

 40
0.0
 41
0.0
 42
0.0
 43
0.0
 44
0.0
 45
0.0
 46
0.0
 47
0.0
 48
0.0
 49
0.0
140
0.0
141
0.0
142
1.0
143
1.0
 70
   688
 72
     0
 73
     0
 74
     5
  7

 75
    16
147
1.0
148
0.0
149
0.0
100
AcDbLayout
  1
Layout2
 70
     1
 71
     2
 10
0.0
 20
0.0
 11
12.0
 21
9.0
 12
0.0
 22
0.0
 32
0.0
 14
0.0
 24
0.0
 34
0.0
 15
0.0
 25
0.0
 35
0.0
146
0.0
 13
0.0
 23
0.0
 33
0.0
 16
1.0
 26
0.0
 36
0.0
 17
0.0
 27
1.0
 37
0.0
 76
     0
330
70
  0
LAYOUT
  5
6F
102
{ACAD_XDICTIONARY
360
8C8
102
}
102
{ACAD_REACTORS
330
62
102
}
330
62
100
AcDbPlotSettings
  1

  2

  4

  6

 40
0.0
 41
0.0
 42
0.0
 43
0.0
 44
0.0
 45
0.0
 46
0.0
 47
0.0
 48
0.0
 49
0.0
140
0.0
141
0.0
142
1.0
143
1.0
 70
  1712
 72
     0
 73
     0
 74
     0
  7

 75
     0
147
1.0
148
0.0
149
0.0
100
AcDbLayout
  1
Model
 70
     1
 71
     0
 10
0.0
 20
0.0
 11
12.0
 21
9.0
 12
0.0
 22
0.0
 32
0.0
 14
0.0
 24
0.0
 34
0.0
 15
0.0
 25
0.0
 35
0.0
146
0.0
 13
0.0
 23
0.0
 33
0.0
 16
1.0
 26
0.0
 36
0.0
 17
0.0
 27
1.0
 37
0.0
 76
     0
330
6C
  0
MATERIAL
  5
19
102
{ACAD_XDICTIONARY
360
1A
102
}
102
{ACAD_REACTORS
330
10
102
}
330
10
100
AcDbMaterial
  1
ByBlock
 72
     0
 43
0.0208333333333333
 43
0.0
 43
0.0
 43
0.0
 43
0.0
 43
0.0208333333333333
 43
0.0
 43
0.0
 43
0.0
 43
0.0
 43
1.0
 43
0.0
 43
0.0
 43
0.0
 43
0.0
 43
1.0
 77
     0
 47
0.0208333333333333
 47
0.0
 47
0.0
 47
0.0
 47
0.0
 47
0.0208333333333333
 47
0.0
 47
0.0
 47
0.0
 47
0.0
 47
1.0
 47
0.0
 47
0.0
 47
0.0
 47
0.0
 47
1.0
171
     0
 49
0.0208333333333333
 49
0.0
 49
0.0
 49
0.0
 49
0.0
 49
0.0208333333333333
 49
0.0
 49
0.0
 49
0.0
 49
0.0
 49
1.0
 49
0.0
 49
0.0
 49
0.0
 49
0.0
 49
1.0
175
     0
142
0.0208333333333333
142
0.0
142
0.0
142
0.0
142
0.0
142
0.0208333333333333
142
0.0
142
0.0
142
0.0
142
0.0
142
1.0
142
0.0
142
0.0
142
0.0
142
0.0
142
1.0
179
     0
144
0.0208333333333333
144
0.0
144
0.0
144
0.0
144
0.0
144
0.0208333333333333
144
0.0
144
0.0
144
0.0
144
0.0
144
1.0
144
0.0
144
0.0
144
0.0
144
0.0
144
1.0
147
0.0208333333333333
147
0.0
147
0.0
147
0.0
147
0.0
147
0.0208333333333333
147
0.0
147
0.0
147
0.0
147
0.0
147
1.0
147
0.0
147
0.0
147
0.0
147
0.0
147
1.0
  0
MATERIAL
  5
11
102
{ACAD_XDICTIONARY
360
12
102
}
102
{ACAD_REACTORS
330
10
102
}
330
10
100
AcDbMaterial
  1
ByLayer
 72
     0
 43
0.0208333333333333
 43
0.0
 43
0.0
 43
0.0
 43
0.0
 43
0.0208333333333333
 43
0.0
 43
0.0
 43
0.0
 43
0.0
 43
1.0
 43
0.0
 43
0.0
 43
0.0
 43
0.0
 43
1.0
 77
     0
 47
0.0208333333333333
 47
0.0
 47
0.0
 47
0.0
 47
0.0
 47
0.0208333333333333
 47
0.0
 47
0.0
 47
0.0
 47
0.0
 47
1.0
 47
0.0
 47
0.0
 47
0.0
 47
0.0
 47
1.0
171
     0
 49
0.0208333333333333
 49
0.0
 49
0.0
 49
0.0
 49
0.0
 49
0.0208333333333333
 49
0.0
 49
0.0
 49
0.0
 49
0.0
 49
1.0
 49
0.0
 49
0.0
 49
0.0
 49
0.0
 49
1.0
175
     0
142
0.0208333333333333
142
0.0
142
0.0
142
0.0
142
0.0
142
0.0208333333333333
142
0.0
142
0.0
142
0.0
142
0.0
142
1.0
142
0.0
142
0.0
142
0.0
142
0.0
142
1.0
179
     0
144
0.0208333333333333
144
0.0
144
0.0
144
0.0
144
0.0
144
0.0208333333333333
144
0.0
144
0.0
144
0.0
144
0.0
144
1.0
144
0.0
144
0.0
144
0.0
144
0.0
144
1.0
147
0.0208333333333333
147
0.0
147
0.0
147
0.0
147
0.0
147
0.0208333333333333
147
0.0
147
0.0
147
0.0
147
0.0
147
1.0
147
0.0
147
0.0
147
0.0
147
0.0
147
1.0
  0
MATERIAL
  5
21
102
{ACAD_XDICTIONARY
360
22
102
}
102
{ACAD_REACTORS
330
10
102
}
330
10
100
AcDbMaterial
  1
Global
 72
     0
 43
0.0208333333333333
 43
0.0
 43
0.0
 43
0.0
 43
0.0
 43
0.0208333333333333
 43
0.0
 43
0.0
 43
0.0
 43
0.0
 43
1.0
 43
0.0
 43
0.0
 43
0.0
 43
0.0
 43
1.0
 77
     0
 47
0.0208333333333333
 47
0.0
 47
0.0
 47
0.0
 47
0.0
 47
0.0208333333333333
 47
0.0
 47
0.0
 47
0.0
 47
0.0
 47
1.0
 47
0.0
 47
0.0
 47
0.0
 47
0.0
 47
1.0
171
     0
 49
0.0208333333333333
 49
0.0
 49
0.0
 49
0.0
 49
0.0
 49
0.0208333333333333
 49
0.0
 49
0.0
 49
0.0
 49
0.0
 49
1.0
 49
0.0
 49
0.0
 49
0.0
 49
0.0
 49
1.0
175
     0
142
0.0208333333333333
142
0.0
142
0.0
142
0.0
142
0.0
142
0.0208333333333333
142
0.0
142
0.0
142
0.0
142
0.0
142
1.0
142
0.0
142
0.0
142
0.0
142
0.0
142
1.0
179
     0
144
0.0208333333333333
144
0.0
144
0.0
144
0.0
144
0.0
144
0.0208333333333333
144
0.0
144
0.0
144
0.0
144
0.0
144
1.0
144
0.0
144
0.0
144
0.0
144
0.0
144
1.0
147
0.0208333333333333
147
0.0
147
0.0
147
0.0
147
0.0
147
0.0208333333333333
147
0.0
147
0.0
147
0.0
147
0.0
147
1.0
147
0.0
147
0.0
147
0.0
147
0.0
147
1.0
  0
MLEADERSTYLE
  5
67
102
{ACAD_XDICTIONARY
360
88D
102
}
102
{ACAD_REACTORS
330
66
102
}
330
66
100
AcDbMLeaderStyle
170
     2
171
     1
172
     0
 90
        2
 40
0.0
 41
0.0
173
     1
 91
-1056964608
340
5B
 92
       -2
290
     1
 42
0.09
291
     1
 43
0.36
  3
Standard
 44
0.18
300

342
55
174
     1
178
     6
175
     1
176
     0
 93
-1056964608
 45
0.18
292
     0
297
     0
 46
0.18
 94
-1056964608
 47
1.0
 49
1.0
140
1.0
293
     1
141
0.0
294
     1
177
     0
142
1.0
295
     0
296
     0
143
0.125
1001
ACAD_MLEADERVER
1070
     2
  0
MLINESTYLE
  5
60
102
{ACAD_REACTORS
330
5F
102
}
330
5F
100
AcDbMlineStyle
  2
STANDARD
 70
     0
  3

 62
   256
 51
90.0
 52
90.0
 71
     2
 49
0.5
 62
   256
  6
BYLAYER
 49
-0.5
 62
   256
  6
BYLAYER
  0
ACDBPLACEHOLDER
  5
F
102
{ACAD_REACTORS
330
E
102
}
330
E
  0
SCALE
  5
43
102
{ACAD_REACTORS
330
42
102
}
330
42
100
AcDbScale
 70
     0
300
1:1
140
1.0
141
1.0
290
     1
  0
SCALE
  5
44
102
{ACAD_REACTORS
330
42
102
}
330
42
100
AcDbScale
 70
     0
300
1/128" = 1'-0"
140
0.0078125
141
12.0
290
     0
  0
SCALE
  5
45
102
{ACAD_REACTORS
330
42
102
}
330
42
100
AcDbScale
 70
     0
300
1/64" = 1'-0"
140
0.015625
141
12.0
290
     0
  0
SCALE
  5
46
102
{ACAD_REACTORS
330
42
102
}
330
42
100
AcDbScale
 70
     0
300
1/32" = 1'-0"
140
0.03125
141
12.0
290
     0
  0
SCALE
  5
47
102
{ACAD_REACTORS
330
42
102
}
330
42
100
AcDbScale
 70
     0
300
1/16" = 1'-0"
140
0.0625
141
12.0
290
     0
  0
SCALE
  5
48
102
{ACAD_REACTORS
330
42
102
}
330
42
100
AcDbScale
 70
     0
300
3/32" = 1'-0"
140
0.09375
141
12.0
290
     0
  0
SCALE
  5
49
102
{ACAD_REACTORS
330
42
102
}
330
42
100
AcDbScale
 70
     0
300
1/8" = 1'-0"
140
0.125
141
12.0
290
     0
  0
SCALE
  5
4A
102
{ACAD_REACTORS
330
42
102
}
330
42
100
AcDbScale
 70
     0
300
3/16" = 1'-0"
140
0.1875
141
12.0
290
     0
  0
SCALE
  5
4B
102
{ACAD_REACTORS
330
42
102
}
330
42
100
AcDbScale
 70
     0
300
1/4" = 1'-0"
140
0.25
141
12.0
290
     0
  0
SCALE
  5
4C
102
{ACAD_REACTORS
330
42
102
}
330
42
100
AcDbScale
 70
     0
300
3/8" = 1'-0"
140
0.375
141
12.0
290
     0
  0
SCALE
  5
4D
102
{ACAD_REACTORS
330
42
102
}
330
42
100
AcDbScale
 70
     0
300
1/2" = 1'-0"
140
0.5
141
12.0
290
     0
  0
SCALE
  5
4E
102
{ACAD_REACTORS
330
42
102
}
330
42
100
AcDbScale
 70
     0
300
3/4" = 1'-0"
140
0.75
141
12.0
290
     0
  0
SCALE
  5
4F
102
{ACAD_REACTORS
330
42
102
}
330
42
100
AcDbScale
 70
     0
300
1" = 1'-0"
140
1.0
141
12.0
290
     0
  0
SCALE
  5
50
102
{ACAD_REACTORS
330
42
102
}
330
42
100
AcDbScale
 70
     0
300
1-1/2" = 1'-0"
140
1.5
141
12.0
290
     0
  0
SCALE
  5
51
102
{ACAD_REACTORS
330
42
102
}
330
42
100
AcDbScale
 70
     0
300
3" = 1'-0"
140
3.0
141
12.0
290
     0
  0
SCALE
  5
52
102
{ACAD_REACTORS
330
42
102
}
330
42
100
AcDbScale
 70
     0
300
6" = 1'-0"
140
6.0
141
12.0
290
     0
  0
SCALE
  5
53
102
{ACAD_REACTORS
330
42
102
}
330
42
100
AcDbScale
 70
     0
300
1'-0" = 1'-0"
140
12.0
141
12.0
290
     0
  0
TABLESTYLE
  5
65
102
{ACAD_XDICTIONARY
360
88B
102
}
102
{ACAD_REACTORS
330
64
102
}
330
64
100
AcDbTableStyle
  3
Standard
 70
     0
 71
     0
 40
0.06
 41
0.06
280
     0
281
     0
  7
Standard
140
0.18
170
     2
 62
     0
 63
     7
283
     0
274
    -2
284
     1
 64
     0
275
    -2
285
     1
 65
     0
276
    -2
286
     1
 66
     0
277
    -2
287
     1
 67
     0
278
    -2
288
     1
 68
     0
279
    -2
289
     1
 69
     0
  7
Standard
140
0.25
170
     5
 62
     0
 63
     7
283
     0
274
    -2
284
     1
 64
     0
275
    -2
285
     1
 65
     0
276
    -2
286
     1
 66
     0
277
    -2
287
     1
 67
     0
278
    -2
288
     1
 68
     0
279
    -2
289
     1
 69
     0
  7
Standard
140
0.18
170
     5
 62
     0
 63
     7
283
     0
274
    -2
284
     1
 64
     0
275
    -2
285
     1
 65
     0
276
    -2
286
     1
 66
     0
277
    -2
287
     1
 67
     0
278
    -2
288
     1
 68
     0
279
    -2
289
     1
 69
     0
  0
VISUALSTYLE
  5
2F
102
{ACAD_XDICTIONARY
360
89E
102
}
102
{ACAD_REACTORS
330
29
102
}
330
29
100
AcDbVisualStyle
  2
2dWireframe
 70
     4
 71
     0
 72
     2
 73
     0
 90
        0
 40
-0.6
 41
-30.0
 62
     5
 63
     7
 74
     1
 91
        4
 64
     7
 65
   257
 75
     1
175
     1
 42
1.0
 92
        0
 66
   257
 43
1.0
 76
     1
 77
     6
 78
     2
 67
     7
 79
     5
170
     0
171
     0
290
     0
174
     0
 93
        1
 44
0.0
173
     0
291
     0
 45
0.0
1001
ACAD
1000
AcDbSavedByObjectVersion
1070
     0
  0
VISUALSTYLE
  5
2E
102
{ACAD_XDICTIONARY
360
89C
102
}
102
{ACAD_REACTORS
330
29
102
}
330
29
100
AcDbVisualStyle
  2
Basic
 70
     7
 71
     1
 72
     0
 73
     1
 90
        0
 40
-0.6
 41
-30.0
 62
     5
 63
     7
 74
     0
 91
        4
 64
     7
 65
   257
 75
     1
175
     1
 42
1.0
 92
        8
 66
     7
 43
1.0
 76
     1
 77
     6
 78
     2
 67
     7
 79
     5
170
     0
171
     0
290
     0
174
     0
 93
        1
 44
0.0
173
     0
291
     1
 45
0.0
1001
ACAD
1000
AcDbSavedByObjectVersion
1070
     0
  0
VISUALSTYLE
  5
35
102
{ACAD_XDICTIONARY
360
8AA
102
}
102
{ACAD_REACTORS
330
29
102
}
330
29
100
AcDbVisualStyle
  2
Brighten
 70
    12
 71
     2
 72
     2
 73
     0
 90
        0
 40
-0.6
 41
-30.0
 62
     5
 63
     7
 74
     1
 91
        4
 64
     7
 65
   257
 75
     1
175
     1
 42
1.0
 92
        8
 66
     7
 43
1.0
 76
     1
 77
     6
 78
     2
 67
     7
 79
     5
170
     0
171
     0
290
     0
174
     0
 93
        1
 44
50.0
173
     0
291
     1
 45
0.0
1001
ACAD
1000
AcDbSavedByObjectVersion
1070
     0
  0
VISUALSTYLE
  5
39
102
{ACAD_XDICTIONARY
360
8B2
102
}
102
{ACAD_REACTORS
330
29
102
}
330
29
100
AcDbVisualStyle
  2
ColorChange
 70
    16
 71
     2
 72
     2
 73
     3
 90
        0
 40
-0.6
 41
-30.0
 62
     5
 63
     8
 74
     1
 91
        4
 64
     7
 65
   257
 75
     1
175
     1
 42
1.0
 92
        8
 66
     8
 43
1.0
 76
     1
 77
     6
 78
     2
 67
     7
 79
     5
170
     0
171
     0
290
     0
174
     0
 93
        1
 44
0.0
173
     0
291
     1
 45
0.0
1001
ACAD
1000
AcDbSavedByObjectVersion
1070
     0
  0
VISUALSTYLE
  5
32
102
{ACAD_XDICTIONARY
360
8A4
102
}
102
{ACAD_REACTORS
330
29
102
}
330
29
100
AcDbVisualStyle
  2
Conceptual
 70
     9
 71
     3
 72
     2
 73
     0
 90
        0
 40
-0.6
 41
-30.0
 62
     5
 63
     7
 74
     2
 91
        2
 64
     7
 65
   257
 75
     1
175
     1
 42
179.0
 92
        8
 66
     7
 43
1.0
 76
     1
 77
     6
 78
     2
 67
     7
 79
     3
170
     0
171
     0
290
     0
174
     0
 93
        1
 44
0.0
173
     0
291
     0
 45
0.0
1001
ACAD
1000
AcDbSavedByObjectVersion
1070
     0
  0
VISUALSTYLE
  5
34
102
{ACAD_XDICTIONARY
360
8A8
102
}
102
{ACAD_REACTORS
330
29
102
}
330
29
100
AcDbVisualStyle
  2
Dim
 70
    11
 71
     2
 72
     2
 73
     0
 90
        0
 40
-0.6
 41
-30.0
 62
     5
 63
     7
 74
     1
 91
        4
 64
     7
 65
   257
 75
     1
175
     1
 42
1.0
 92
        8
 66
     7
 43
1.0
 76
     1
 77
     6
 78
     2
 67
     7
 79
     5
170
     0
171
     0
290
     0
174
     0
 93
        1
 44
-50.0
173
     0
291
     1
 45
0.0
1001
ACAD
1000
AcDbSavedByObjectVersion
1070
     0
  0
VISUALSTYLE
  5
41
102
{ACAD_XDICTIONARY
360
8C2
102
}
102
{ACAD_REACTORS
330
29
102
}
330
29
100
AcDbVisualStyle
  2
EdgeColorOff
 70
    22
 71
     2
 72
     2
 73
     0
 90
        0
 40
-0.6
 41
-30.0
 62
     5
 63
     7
 74
     1
 91
        4
 64
     7
 65
   257
 75
     1
175
     1
 42
1.0
 92
        8
 66
     7
 43
1.0
 76
     1
 77
     6
 78
     2
 67
     7
 79
     5
170
     0
171
     0
290
     0
174
     0
 93
        1
 44
0.0
173
     0
291
     1
 45
0.0
1001
ACAD
1000
AcDbSavedByObjectVersion
1070
     0
  0
VISUALSTYLE
  5
38
102
{ACAD_XDICTIONARY
360
8B0
102
}
102
{ACAD_REACTORS
330
29
102
}
330
29
100
AcDbVisualStyle
  2
Facepattern
 70
    15
 71
     2
 72
     2
 73
     0
 90
        0
 40
-0.6
 41
-30.0
 62
     5
 63
     7
 74
     1
 91
        4
 64
     7
 65
   257
 75
     1
175
     1
 42
1.0
 92
        8
 66
     7
 43
1.0
 76
     1
 77
     6
 78
     2
 67
     7
 79
     5
170
     0
171
     0
290
     0
174
     0
 93
        1
 44
0.0
173
     0
291
     1
 45
0.0
1001
ACAD
1000
AcDbSavedByObjectVersion
1070
     0
  0
VISUALSTYLE
  5
2A
102
{ACAD_XDICTIONARY
360
894
102
}
102
{ACAD_REACTORS
330
29
102
}
330
29
100
AcDbVisualStyle
  2
Flat
 70
     0
 71
     2
 72
     1
 73
     1
 90
        2
 40
-0.6
 41
30.0
 62
     5
 63
     7
 74
     0
 91
        0
 64
     7
 65
   257
 75
     1
175
     1
 42
1.0
 92
        8
 66
     7
 43
1.0
 76
     1
 77
     6
 78
     2
 67
     7
 79
     5
170
     0
171
     0
290
     0
174
     0
 93
       13
 44
0.0
173
     0
291
     1
 45
0.0
1001
ACAD
1000
AcDbSavedByObjectVersion
1070
     0
  0
VISUALSTYLE
  5
2B
102
{ACAD_XDICTIONARY
360
896
102
}
102
{ACAD_REACTORS
330
29
102
}
330
29
100
AcDbVisualStyle
  2
FlatWithEdges
 70
     1
 71
     2
 72
     1
 73
     1
 90
        2
 40
-0.6
 41
30.0
 62
     5
 63
     7
 74
     1
 91
        0
 64
     7
 65
   257
 75
     1
175
     1
 42
1.0
 92
        0
 66
   257
 43
1.0
 76
     1
 77
     6
 78
     2
 67
     7
 79
     5
170
     0
171
     0
290
     0
174
     0
 93
       13
 44
0.0
173
     0
291
     1
 45
0.0
1001
ACAD
1000
AcDbSavedByObjectVersion
1070
     0
  0
VISUALSTYLE
  5
2C
102
{ACAD_XDICTIONARY
360
898
102
}
102
{ACAD_REACTORS
330
29
102
}
330
29
100
AcDbVisualStyle
  2
Gouraud
 70
     2
 71
     2
 72
     2
 73
     1
 90
        2
 40
-0.6
 41
30.0
 62
     5
 63
     7
 74
     0
 91
        0
 64
     7
 65
   257
 75
     1
175
     1
 42
1.0
 92
        0
 66
     7
 43
1.0
 76
     1
 77
     6
 78
     2
 67
     7
 79
     5
170
     0
171
     0
290
     0
174
     0
 93
       13
 44
0.0
173
     0
291
     1
 45
0.0
1001
ACAD
1000
AcDbSavedByObjectVersion
1070
     0
  0
VISUALSTYLE
  5
2D
102
{ACAD_XDICTIONARY
360
89A
102
}
102
{ACAD_REACTORS
330
29
102
}
330
29
100
AcDbVisualStyle
  2
GouraudWithEdges
 70
     3
 71
     2
 72
     2
 73
     1
 90
        2
 40
-0.6
 41
30.0
 62
     5
 63
     7
 74
     1
 91
        0
 64
     7
 65
   257
 75
     1
175
     1
 42
1.0
 92
        0
 66
   257
 43
1.0
 76
     1
 77
     6
 78
     2
 67
     7
 79
     5
170
     0
171
     0
290
     0
174
     0
 93
       13
 44
0.0
173
     0
291
     1
 45
0.0
1001
ACAD
1000
AcDbSavedByObjectVersion
1070
     0
  0
VISUALSTYLE
  5
31
102
{ACAD_XDICTIONARY
360
8A2
102
}
102
{ACAD_REACTORS
330
29
102
}
330
29
100
AcDbVisualStyle
  2
Hidden
 70
     6
 71
     1
 72
     2
 73
     2
 90
        0
 40
-0.6
 41
-30.0
 62
     5
 63
     7
 74
     2
 91
        2
 64
     7
 65
   257
 75
     2
175
     1
 42
40.0
 92
        0
 66
   257
 43
1.0
 76
     1
 77
     6
 78
     2
 67
     7
 79
     3
170
     0
171
     0
290
     0
174
     0
 93
        1
 44
0.0
173
     0
291
     0
 45
0.0
1001
ACAD
1000
AcDbSavedByObjectVersion
1070
     0
  0
VISUALSTYLE
  5
3F
102
{ACAD_XDICTIONARY
360
8BE
102
}
102
{ACAD_REACTORS
330
29
102
}
330
29
100
AcDbVisualStyle
  2
JitterOff
 70
    20
 71
     2
 72
     2
 73
     0
 90
        0
 40
-0.6
 41
-30.0
 62
     5
 63
     7
 74
     1
 91
        4
 64
     7
 65
   257
 75
     1
175
     1
 42
1.0
 92
       10
 66
     7
 43
1.0
 76
     1
 77
     6
 78
     2
 67
     7
 79
     5
170
     0
171
     0
290
     0
174
     0
 93
        1
 44
0.0
173
     0
291
     1
 45
0.0
1001
ACAD
1000
AcDbSavedByObjectVersion
1070
     0
  0
VISUALSTYLE
  5
37
102
{ACAD_XDICTIONARY
360
8AE
102
}
102
{ACAD_REACTORS
330
29
102
}
330
29
100
AcDbVisualStyle
  2
Linepattern
 70
    14
 71
     2
 72
     2
 73
     0
 90
        0
 40
-0.6
 41
-30.0
 62
     5
 63
     7
 74
     1
 91
        4
 64
     7
 65
   257
 75
     7
175
     7
 42
1.0
 92
        8
 66
     7
 43
1.0
 76
     1
 77
     6
 78
     2
 67
     7
 79
     5
170
     0
171
     0
290
     0
174
     0
 93
        1
 44
0.0
173
     0
291
     1
 45
0.0
1001
ACAD
1000
AcDbSavedByObjectVersion
1070
     0
  0
VISUALSTYLE
  5
40
102
{ACAD_XDICTIONARY
360
8C0
102
}
102
{ACAD_REACTORS
330
29
102
}
330
29
100
AcDbVisualStyle
  2
OverhangOff
 70
    21
 71
     2
 72
     2
 73
     0
 90
        0
 40
-0.6
 41
-30.0
 62
     5
 63
     7
 74
     1
 91
        4
 64
     7
 65
   257
 75
     1
175
     1
 42
1.0
 92
        9
 66
     7
 43
1.0
 76
     1
 77
     6
 78
     2
 67
     7
 79
     5
170
     0
171
     0
290
     0
174
     0
 93
        1
 44
0.0
173
     0
291
     1
 45
0.0
1001
ACAD
1000
AcDbSavedByObjectVersion
1070
     0
  0
VISUALSTYLE
  5
33
102
{ACAD_XDICTIONARY
360
8A6
102
}
102
{ACAD_REACTORS
330
29
102
}
330
29
100
AcDbVisualStyle
  2
Realistic
 70
     8
 71
     2
 72
     3
 73
     0
 90
        2
 40
-0.6
 41
30.0
 62
     5
 63
     7
 74
     0
 91
        0
 64
     7
 65
   257
 75
     1
175
     1
 42
1.0
 92
        8
 66
   257
 43
1.0
 76
     1
 77
     6
 78
     2
 67
     7
 79
     3
170
     0
171
     0
290
     0
174
     0
 93
       13
 44
0.0
173
     0
291
     0
 45
0.0
1001
ACAD
1000
AcDbSavedByObjectVersion
1070
     0
  0
VISUALSTYLE
  5
3E
102
{ACAD_XDICTIONARY
360
8BC
102
}
102
{ACAD_REACTORS
330
29
102
}
330
29
100
AcDbVisualStyle
  2
Shaded
 70
    27
 71
     2
 72
     2
 73
     1
 90
        2
 40
-0.6
 41
30.0
 62
     5
 63
     7
 74
     0
 91
        4
 64
     7
 65
   257
 75
     1
175
     1
 42
1.0
 92
        8
 66
   257
 43
1.0
 76
     1
 77
     6
 78
     2
 67
     8
 79
     3
170
     0
171
     0
290
     0
174
     0
 93
        5
 44
0.0
173
     0
291
     0
 45
0.0
1001
ACAD
1000
AcDbSavedByObjectVersion
1070
     0
  0
VISUALSTYLE
  5
3D
102
{ACAD_XDICTIONARY
360
8BA
102
}
102
{ACAD_REACTORS
330
29
102
}
330
29
100
AcDbVisualStyle
  2
Shaded with edges
 70
    26
 71
     2
 72
     2
 73
     1
 90
        2
 40
-0.6
 41
30.0
 62
     5
 63
     7
 74
     1
 91
       10
 64
     7
 65
   257
 75
     2
175
     1
 42
1.0
 92
        8
 66
   257
 43
1.0
 76
     1
 77
     6
 78
     2
 67
     7
 79
     3
170
     0
171
     0
290
     0
174
     0
 93
        5
 44
0.0
173
     0
291
     0
 45
0.0
1001
ACAD
1000
AcDbSavedByObjectVersion
1070
     0
  0
VISUALSTYLE
  5
3A
102
{ACAD_XDICTIONARY
360
8B4
102
}
102
{ACAD_REACTORS
330
29
102
}
330
29
100
AcDbVisualStyle
  2
Shades of Gray
 70
    23
 71
     2
 72
     2
 73
     3
 90
        0
 40
-0.6
 41
-30.0
 62
     5
 63
     7
 74
     2
 91
        2
 64
     7
 65
     7
 75
     1
175
     1
 42
40.0
 92
        8
 66
     7
 43
1.0
 76
     1
 77
     6
 78
     2
 67
     7
 79
     3
170
     0
171
     0
290
     0
174
     0
 93
        1
 44
0.0
173
     0
291
     0
 45
0.0
1001
ACAD
1000
AcDbSavedByObjectVersion
1070
     0
  0
VISUALSTYLE
  5
3B
102
{ACAD_XDICTIONARY
360
8B6
102
}
102
{ACAD_REACTORS
330
29
102
}
330
29
100
AcDbVisualStyle
  2
Sketchy
 70
    24
 71
     1
 72
     2
 73
     2
 90
        0
 40
-0.6
 41
-30.0
 62
     5
 63
     7
 74
     2
 91
        2
 64
     7
 65
     7
 75
     1
175
     1
 42
40.0
 92
       11
 66
     7
 43
1.0
 76
     1
 77
     6
 78
     2
 67
     7
 79
     6
170
     0
171
     0
290
     0
174
     0
 93
        1
 44
0.0
173
     0
291
     0
 45
0.0
1001
ACAD
1000
AcDbSavedByObjectVersion
1070
     0
  0
VISUALSTYLE
  5
36
102
{ACAD_XDICTIONARY
360
8AC
102
}
102
{ACAD_REACTORS
330
29
102
}
330
29
100
AcDbVisualStyle
  2
Thicken
 70
    13
 71
     2
 72
     2
 73
     0
 90
        0
 40
-0.6
 41
-30.0
 62
     5
 63
     7
 74
     1
 91
        4
 64
     7
 65
   257
 75
     1
175
     1
 42
1.0
 92
       12
 66
     7
 43
1.0
 76
     1
 77
     6
 78
     2
 67
     7
 79
     5
170
     0
171
     0
290
     0
174
     0
 93
        1
 44
0.0
173
     0
291
     1
 45
0.0
1001
ACAD
1000
AcDbSavedByObjectVersion
1070
     0
  0
VISUALSTYLE
  5
30
102
{ACAD_XDICTIONARY
360
8A0
102
}
102
{ACAD_REACTORS
330
29
102
}
330
29
100
AcDbVisualStyle
  2
Wireframe
 70
     5
 71
     0
 72
     2
 73
     0
 90
        0
 40
-0.6
 41
-30.0
 62
     5
 63
     7
 74
     1
 91
        4
 64
     7
 65
   257
 75
     1
175
     1
 42
1.0
 92
        0
 66
   257
 43
1.0
 76
     1
 77
     6
 78
     2
 67
     7
 79
     3
170
     0
171
     0
290
     0
174
     0
 93
        1
 44
0.0
173
     0
291
     0
 45
0.0
1001
ACAD
1000
AcDbSavedByObjectVersion
1070
     0
  0
VISUALSTYLE
  5
3C
102
{ACAD_XDICTIONARY
360
8B8
102
}
102
{ACAD_REACTORS
330
29
102
}
330
29
100
AcDbVisualStyle
  2
X-Ray
 70
    25
 71
     2
 72
     2
 73
     1
 90
        1
 40
0.5
 41
-30.0
 62
     5
 63
     7
 74
     1
 91
        0
 64
     7
 65
   257
 75
     1
175
     1
 42
1.0
 92
        8
 66
     7
 43
1.0
 76
     1
 77
     6
 78
     2
 67
     7
 79
     3
170
     0
171
     0
290
     0
174
     0
 93
       13
 44
0.0
173
     0
291
     0
 45
0.0
1001
ACAD
1000
AcDbSavedByObjectVersion
1070
     0
  0
DICTIONARYVAR
  5
79
102
{ACAD_REACTORS
330
76
102
}
330
76
100
DictionaryVariables
280
     0
  1
1:1
  0
DICTIONARYVAR
  5
78
102
{ACAD_REACTORS
330
76
102
}
330
76
100
DictionaryVariables
280
     0
  1
STANDARD
  0
DICTIONARYVAR
  5
77
102
{ACAD_REACTORS
330
76
102
}
330
76
100
DictionaryVariables
280
     0
  1
STANDARD
  0
DICTIONARYVAR
  5
889
102
{ACAD_REACTORS
330
76
102
}
330
76
100
DictionaryVariables
280
     0
  1
1
  0
DICTIONARYVAR
  5
888
102
{ACAD_REACTORS
330
76
102
}
330
76
100
DictionaryVariables
280
     0
  1
1
  0
DICTIONARYVAR
  5
887
102
{ACAD_REACTORS
330
76
102
}
330
76
100
DictionaryVariables
280
     0
  1
0
  0
DICTIONARYVAR
  5
884
102
{ACAD_REACTORS
330
76
102
}
330
76
100
DictionaryVariables
280
     0
  1
0
  0
DICTIONARYVAR
  5
885
102
{ACAD_REACTORS
330
76
102
}
330
76
100
DictionaryVariables
280
     0
  1
0
  0
DICTIONARYVAR
  5
883
102
{ACAD_REACTORS
330
76
102
}
330
76
100
DictionaryVariables
280
     0
  1
2
  0
DICTIONARYVAR
  5
882
102
{ACAD_REACTORS
330
76
102
}
330
76
100
DictionaryVariables
280
     0
  1
1
  0
DICTIONARYVAR
  5
886
102
{ACAD_REACTORS
330
76
102
}
330
76
100
DictionaryVariables
280
     0
  1
127
  0
DICTIONARYVAR
  5
88A
102
{ACAD_REACTORS
330
76
102
}
330
76
100
DictionaryVariables
280
     0
  1
2
  0
DICTIONARY
  5
8C6
330
6B
100
AcDbDictionary
280
     1
281
     1
  3
ACAD_XREC_ROUNDTRIP
360
8C7
  0
DICTIONARY
  5
8CA
330
73
100
AcDbDictionary
280
     1
281
     1
  3
ACAD_XREC_ROUNDTRIP
360
8CB
  0
DICTIONARY
  5
8C8
330
6F
100
AcDbDictionary
280
     1
281
     1
  3
ACAD_XREC_ROUNDTRIP
360
8C9
  0
DICTIONARY
  5
1A
330
19
100
AcDbDictionary
280
     1
281
     1
  3
ACAD_XREC_ROUNDTRIP
360
892
  3
BUMPTILE
360
1C
  3
DIFFUSETILE
360
1B
  3
OPACITYTILE
360
1F
  3
REFLECTIONTILE
360
1E
  3
REFRACTIONTILE
360
20
  3
SPECULARTILE
360
1D
  0
DICTIONARY
  5
12
330
11
100
AcDbDictionary
280
     1
281
     1
  3
ACAD_XREC_ROUNDTRIP
360
891
  3
BUMPTILE
360
14
  3
DIFFUSETILE
360
13
  3
FBXASSET
360
10B
  3
OPACITYTILE
360
17
  3
REFLECTIONTILE
360
16
  3
REFRACTIONTILE
360
18
  3
SPECULARTILE
360
15
  0
DICTIONARY
  5
22
330
21
100
AcDbDictionary
280
     1
281
     1
  3
ACAD_XREC_ROUNDTRIP
360
893
  3
BUMPTILE
360
24
  3
DIFFUSETILE
360
23
  3
FBXASSET
360
BA
  3
OPACITYTILE
360
27
  3
REFLECTIONTILE
360
26
  3
REFRACTIONTILE
360
28
  3
SPECULARTILE
360
25
  0
DICTIONARY
  5
88D
330
67
100
AcDbDictionary
280
     1
281
     1
  3
ACAD_XREC_ROUNDTRIP
360
88E
  0
DICTIONARY
  5
88B
330
65
100
AcDbDictionary
280
     1
281
     1
  3
ACAD_ROUNDTRIP_2008_TABLESTYLE_CELLSTYLEMAP
360
88C
  3
ACAD_XREC_ROUNDTRIP
360
8C4
  0
DICTIONARY
  5
89E
330
2F
100
AcDbDictionary
280
     1
281
     1
  3
ACAD_XREC_ROUNDTRIP
360
89F
  0
DICTIONARY
  5
89C
330
2E
100
AcDbDictionary
280
     1
281
     1
  3
ACAD_XREC_ROUNDTRIP
360
89D
  0
DICTIONARY
  5
8AA
330
35
100
AcDbDictionary
280
     1
281
     1
  3
ACAD_XREC_ROUNDTRIP
360
8AB
  0
DICTIONARY
  5
8B2
330
39
100
AcDbDictionary
280
     1
281
     1
  3
ACAD_XREC_ROUNDTRIP
360
8B3
  0
DICTIONARY
  5
8A4
330
32
100
AcDbDictionary
280
     1
281
     1
  3
ACAD_XREC_ROUNDTRIP
360
8A5
  0
DICTIONARY
  5
8A8
330
34
100
AcDbDictionary
280
     1
281
     1
  3
ACAD_XREC_ROUNDTRIP
360
8A9
  0
DICTIONARY
  5
8C2
330
41
100
AcDbDictionary
280
     1
281
     1
  3
ACAD_XREC_ROUNDTRIP
360
8C3
  0
DICTIONARY
  5
8B0
330
38
100
AcDbDictionary
280
     1
281
     1
  3
ACAD_XREC_ROUNDTRIP
360
8B1
  0
DICTIONARY
  5
894
330
2A
100
AcDbDictionary
280
     1
281
     1
  3
ACAD_XREC_ROUNDTRIP
360
895
  0
DICTIONARY
  5
896
330
2B
100
AcDbDictionary
280
     1
281
     1
  3
ACAD_XREC_ROUNDTRIP
360
897
  0
DICTIONARY
  5
898
330
2C
100
AcDbDictionary
280
     1
281
     1
  3
ACAD_XREC_ROUNDTRIP
360
899
  0
DICTIONARY
  5
89A
330
2D
100
AcDbDictionary
280
     1
281
     1
  3
ACAD_XREC_ROUNDTRIP
360
89B
  0
DICTIONARY
  5
8A2
330
31
100
AcDbDictionary
280
     1
281
     1
  3
ACAD_XREC_ROUNDTRIP
360
8A3
  0
DICTIONARY
  5
8BE
330
3F
100
AcDbDictionary
280
     1
281
     1
  3
ACAD_XREC_ROUNDTRIP
360
8BF
  0
DICTIONARY
  5
8AE
330
37
100
AcDbDictionary
280
     1
281
     1
  3
ACAD_XREC_ROUNDTRIP
360
8AF
  0
DICTIONARY
  5
8C0
330
40
100
AcDbDictionary
280
     1
281
     1
  3
ACAD_XREC_ROUNDTRIP
360
8C1
  0
DICTIONARY
  5
8A6
330
33
100
AcDbDictionary
280
     1
281
     1
  3
ACAD_XREC_ROUNDTRIP
360
8A7
  0
DICTIONARY
  5
8BC
330
3E
100
AcDbDictionary
280
     1
281
     1
  3
ACAD_XREC_ROUNDTRIP
360
8BD
  0
DICTIONARY
  5
8BA
330
3D
100
AcDbDictionary
280
     1
281
     1
  3
ACAD_XREC_ROUNDTRIP
360
8BB
  0
DICTIONARY
  5
8B4
330
3A
100
AcDbDictionary
280
     1
281
     1
  3
ACAD_XREC_ROUNDTRIP
360
8B5
  0
DICTIONARY
  5
8B6
330
3B
100
AcDbDictionary
280
     1
281
     1
  3
ACAD_XREC_ROUNDTRIP
360
8B7
  0
DICTIONARY
  5
8AC
330
36
100
AcDbDictionary
280
     1
281
     1
  3
ACAD_XREC_ROUNDTRIP
360
8AD
  0
DICTIONARY
  5
8A0
330
30
100
AcDbDictionary
280
     1
281
     1
  3
ACAD_XREC_ROUNDTRIP
360
8A1
  0
DICTIONARY
  5
8B8
330
3C
100
AcDbDictionary
280
     1
281
     1
  3
ACAD_XREC_ROUNDTRIP
360
8B9
  0
XRECORD
  5
8C7
102
{ACAD_REACTORS
330
8C6
102
}
330
8C6
100
AcDbXrecord
280
     1
102
SHADEPLOT
 70
     0
102
SHADEPLOTRESLEVEL
 70
     2
102
SHADEPLOTCUSTOMDPI
 70
   300
  0
XRECORD
  5
8CB
102
{ACAD_REACTORS
330
8CA
102
}
330
8CA
100
AcDbXrecord
280
     1
102
SHADEPLOT
 70
     0
102
SHADEPLOTRESLEVEL
 70
     2
102
SHADEPLOTCUSTOMDPI
 70
   300
  0
XRECORD
  5
8C9
102
{ACAD_REACTORS
330
8C8
102
}
330
8C8
100
AcDbXrecord
280
     1
102
SHADEPLOT
 70
     0
102
SHADEPLOTRESLEVEL
 70
     2
102
SHADEPLOTCUSTOMDPI
 70
   300
  0
XRECORD
  5
892
102
{ACAD_REACTORS
330
1A
102
}
330
1A
100
AcDbXrecord
280
     1
102
MATERIAL
148
0.0
149
0.0
149
0.0
 93
        0
 94
      127
282
     0
 72
     0
 77
     0
171
     0
175
     0
179
     0
273
     0
  0
XRECORD
  5
1C
102
{ACAD_REACTORS
330
1A
102
}
330
1A
100
AcDbXrecord
280
     1
270
     1
271
     1
  0
XRECORD
  5
1B
102
{ACAD_REACTORS
330
1A
102
}
330
1A
100
AcDbXrecord
280
     1
270
     1
271
     1
  0
XRECORD
  5
1F
102
{ACAD_REACTORS
330
1A
102
}
330
1A
100
AcDbXrecord
280
     1
270
     1
271
     1
  0
XRECORD
  5
1E
102
{ACAD_REACTORS
330
1A
102
}
330
1A
100
AcDbXrecord
280
     1
270
     1
271
     1
  0
XRECORD
  5
20
102
{ACAD_REACTORS
330
1A
102
}
330
1A
100
AcDbXrecord
280
     1
270
     1
271
     1
  0
XRECORD
  5
1D
102
{ACAD_REACTORS
330
1A
102
}
330
1A
100
AcDbXrecord
280
     1
270
     1
271
     1
  0
XRECORD
  5
891
102
{ACAD_REACTORS
330
12
102
}
330
12
100
AcDbXrecord
280
     1
102
MATERIAL
148
0.0
149
0.0
149
0.0
 93
        0
 94
      127
282
     0
 72
     0
 77
     0
171
     0
175
     0
179
     0
273
     0
  0
XRECORD
  5
14
102
{ACAD_REACTORS
330
12
102
}
330
12
100
AcDbXrecord
280
     1
270
     1
271
     1
  0
XRECORD
  5
13
102
{ACAD_REACTORS
330
12
102
}
330
12
100
AcDbXrecord
280
     1
270
     1
271
     1
  0
XRECORD
  5
10B
102
{ACAD_REACTORS
330
12
102
}
330
12
100
AcDbXrecord
280
     1
 70
     1
 90
1959938040
 71
     1
  1
9F021720-A061-4E50-99BE-EA069447FDA2
311
504B03040A0000080000D96B38403DEE336E79000000790000001B0000006175746F6465736B2D64657369676E2D7061636B6167652E786D6C3C3F786D6C2076657273696F6E3D22312E302220656E636F64696E673D227574662D3822203F3E3C666F726D6174733E3C666F726D61743E687474703A2F2F736368656D612E
311
6175746F6465736B2E636F6D2F64657369676E2D7061636B6167652F323030393C2F666F726D61743E3C2F666F726D6174733E504B0304140006080800D96B3840D486FD9CA0000000F4000000130000005B436F6E74656E745F54797065735D2E786D6C7D8EC10E82300C865F65E91D8A1E8C310C0EEA1BF002731658846E
311
D98AC1B77784ABF1D8FE5FBFBF75BBCE937A534CCEB38643598122B6FEE978D0B0485F9C41B54DDD7D022595594E1A469170414C76A4D9A4D207E29CF43ECE46F218070CC6BECC4078ACAA135ACF422C856C0E68EA1BF5669944DDD7BCDE7B1F8E415D77AECB980613C2E4AC91FC167A2B244592486606FC29C8FD7F045B9A
311
EF7053A7E60B504B0304140006080800D96B384031CCB6BAE80000007C01000008000000636F72652E786D6C8D90D18E832010457F85CC3B0A4A8D1AA4314DFC82FD0102D425AD600436FBF98BAD4DDAB77D9AC99D7B6626979F7F973BFA315BB0DE0D400B02C838E5B575F300295E710BE82CF8E67D7CB30172723103EC32
311
083E6F3EAD87A4BC8BC6C5AC3AAFCD21CA104C04A4EEB91920A86FB3C842A6981DE156AC52DDE46C0AFAEA329C92D5E879C4EABCCF5EADD9405CAA5337B191E2A9630D66AC6D70C7E884C7CBD8B0A91DDBAE61BCDC61C1A35D5EF7D56664341A4445688509C515FBA2755F93FE4430697A4278B9DB3FA0B4EA7F42C9BA5857
311
C7BB4F2C80A0F991C740F072CF22974750B9EEB9893F504B0304140006080800D96B384055019EA25F0000007C00000007000000636E782E786D6C4DCB3B0E80201045D1AD90E915ED2CF8AC45050C11660C8261F98AB1B07AC9C97D42D718D865D3E909258CFD00CCE24AC6E326A164D74DC0B4128928FF326038472BA131
311
28B1252AC747C6BAB984FC68F0B87FE8960A5C09FE86CFB69FBA01504B0304140006080800D96B3840B70AA31665010000020300000C0000006662782F636F72652E786D6C8D52ED8A8330107C9590FF31D1A6524B4C91824F702F906AEA49359198481FFFD68FD2EB51CA21C430B3B33B3B2A4EF7BE439376636B4D8EE388
311
61A44D65EBD634390EFE4A0E189DA470D6FA5F651819D5EB1CCF3096A271360C1B5459E3B5F1801A5BEB0D54E3A83D465507971C8FD5B7EE55A482878AF1160DAABAA94647710434D449317A0706D03A643EB1BC5EEE82AEB81421B4F5C6B6354C6BAFAD76589E937D56F2222665C653C2F92125198F4B529C8B949787E290
311
A55CD0592C856FFB87BBCA69E5758D65C2E284B09824FC2BDE1D77ECB86784A547C6049DCB5F4461A8FF290AADF1BB64B3BBCA462C6330B2107FB685883C1AD5047EA814740E115E4BC2AF41432010B25797EEB1C70DA04957DE3A0E4C6DC3939A5417344C656879045D59E8BC3480CDDEF6493EF4F9DC033EA0320D58531E
311
AE97E0E7E9629DBA45316847267F47C6BA5E754F73ABC5E7F91CF4565ED9CEBAFFA8E9B62ADDC2A4F3DF2B7F00504B0304140006080800D96B3840686D5D607E0000009D0000000B0000006662782F636E782E786D6C4DCCDF0A83201C86E15B91DFB9CBB07F821AD5E67D4459C84C87D3B1CB5F8D0E3AFAE0E1E3E5ED77B3
311
E8A3C3DB782720BF1140DA4D7E366E1590E2821B40ADE4C1FB78B90172E3A6051C0C92AFC1A7D749B35EC664E3AED6B8E789B4EBD970EF2AAC1861B878940AF78A35B860B92203ADEA92D690499EFD4BFB1E61F903504B0304140006080800D96B384099525FAF2C01000014020000310000006662782F3341423943444136
311
2D463930392D344535462D424639382D3439314630433336373533372F636F72652E786D6C8D51CB6EC32010FC15C4293D6083B1891D61A224ADBFA03FE06092A2C460F1A8F2F9C5B523B5B75C58343B333BDAE5FBC77807DFCA796D4D0B4986215046DA419B6B0B63B8A01A82BDE0CEDAF0870681E947D5C21986825F9D8D
311
D30A496B823221A1C60E6A057BEF558040DED3A7855E7EA9B1CFFA1812C3DFB2A997B7FEAA3292A576E209EE834B01C032647EA1A08763737A3F30D435B841E547D5A163D7D4A86C48874F946D2BBAE5F922143C463DAC723DA438FAA2957BD564160B1EF4F88C2F9DEA831AA02830291026A8283F09DD51BCAB30C26C8731
311
CF67FA3F519C861745519B408B35EE22F350109E2F0DC1071BCFF76718F598AC0B609EB7F14ABE4181334C1966354D92859A16903C59B97AFA605D5AF0E6764E6C522DC6AC143C9F6F94CAEF01539DEF297E00504B0304140006080800D96B3840B847EF9D4D01000033030000300000006662782F33414239434441362D46
311
3930392D344535462D424639382D3439314630433336373533372F636E782E786D6CD593CD6EC32010845F0571B78D1337AA224CA41EFA043DF48A6193D260B0F8A99AB7EF929034971C7AEC0559B3C3CCEA13E6BBEFD9922F08D17837D2BE659480535E1B7718694EFBE699929DE0C1FB7467A3C4C919465A642AF821F8BC
311
5449C35E669B50B5C61DAB1820FA1C144494CB4D62BD921603C03519459827D01A34B919F16B0F015741713A91F401E4F5E59DF8E913548ABC2B298277A543F072D6A63B1325CACA18471AD507CCB29539790DF1D86A9964DBB7D7AE073BFD269172E15A998321A57CA4E5A4A26ED42247DEE150F09802D2ABA6745A800AB9
311
2CD62899107277365E3C8267E3D266A85E83E003BAFBCD7A1830EC3C133C9919AA4305900934152BD6AF1AD637ABE1AD5F6FD76CFBC41AB6D932C6BB62177CF2DED64B1803C12F447997C0252A7ADE95F1237CD547B409C8DA87D31F402280DA7AA173CBF8CF7CBAF3FB465C01FF02F103504B0304140006080800D96B3840
311
352CF75F9A0500007B100000340000006662782F33414239434441362D463930392D344535462D424639382D3439314630433336373533372F6F626A656374732E786D6CAD575D8F9B3814FD2B887D064292699B1543954966AA6877DAAA51AB7D1829326018EF980FD9669AD95FBFC76008A4C934BBEA0B60635FDF7BEEB9
311
1F0EDEEF736E3D532159595CDBBE3BB12D5AC465C28AECDAAE55EABCB3ADF76120CA520D96D95641727A6DEB693B0C3251D695994A684A6AAE8E66EF6EFEB2644C0B6A5B3127525EDB327EA4397149ADCA84CA2737218AB859BA777DB75D38169B09523D1E09AD88A08582A6982F20C56A95F2C7C389ED8581A7FF87817E9A
311
55B3F3ABBCC69EF1F9AC908A14F10F871D8999F9F3F5EDF46AE15CCDE73367FE66EA3B3777376BC77F3B9BACDEAC568BE5ED02074B2520C96822686A871F808D6071E0B5BFC2A066859A4DCD12E3204FD067A63D658753CB0FBC764D6F9D31F294FA715914346EB0021A8D7D4674422B5A24F039A3129A0D109A8C87BEC671
311
F07BA6C7E6C8E1F465080C770C0475BA77EFA1A665F4374C9097304848AA19D862690C6DB93A39201C952537FF98B472A2A860845B9C458288173BC452BD240C46623493858E066D811DC20BEDEF315D10463FE7F9292DD39A734D633B6CA2608758A14A369AB17FA838683F44063AC1579A0DEF8C41EAA5A276B86829F2EE
311
884D2D9056CA490697C34CBD73363D3274A5E374B3B6C33FEEA2FD56C7EEE9C32B515654284D1F50AB735CF7D628199DFC8B3CA737D847AA1C40F902E43F22D40FAAC06F82EDE7FBB939450952C8B414397C634D2C6782C7C4F29BA7FE1E7C055EBF79ECBD7378C2D91AAA5F80E7D886A12F077086C133085F8A99316D1B13
311
8EB471CF0A00A44962F11253C8C369B4B7C30DB21CB23276111EFA3019EA3EE333F08C18248AE6A4C1BB00964769F182040DD81A46428D96FC46C1839F7E4867CDC166D93978AF7E095D97EBED1FDB5AA424A6F726A6D734650553287107DE0C151A613EB2E889BE7C2F4502437FC47B3BC43B374749A0AD31D7C0675D4ED7
311
83C3C9A30362ECCB4A9D6E829F9C002374611DC8BF6732A69C9382967577EEABF50365A3855807BB66725F600E8505A469FF1CC5208A742C58A541ECAB559F34DD33D67DDD7C0423EDF0E6E54FF232CC5ED121F7C6252FC52E7AD9B569E924D4DFC6DC3618785A0AE8DE044917FF06F45DC2D2B49648822770FDB6590D7DA7
311
D302524427B58D9639EC4770116148DBC945B5160495B42C760C75137177F280A17C406A18D0083CA7B1A43CDD31CEEB7C97328E6AB4CB4975068EFFAF7F54E7D58EE4655DA833B247AAA33A8C751FB1577E272A7EB4C36DF3766E907B139A9C2183AE2527B01AB976713799FA6FA713673979E33BF3DBAB89B358DCDC3AB7
311
182FE6F3B777EBE5B4F353AB491874A56618D1F0124A5B500B66DCF77583F83149C00EEF89920F1FDAF0ECDE5F372E7AE1C0C31ED4CB7EE3327946DF47939F0B38AC3C296893579CE6B45044C7D0BDFEE05F08FA8C9132EDFC262719BD40CAA70FDB23633073C1BECF3ADEE9F7A3BD6676A503F2A410F558E75141183FDA98
311
B548BA559119FC3A9FF4EFB6D074433D328E41672A4BCE12E4C1C4CA689953856C784111123995A0DEB0A74FCCDDE382DDCF6D87A848C469A7C9234193CC25C202D4AA63359EB77E4353A7FBAA6B1BE5D67DC2C3640ADB0267AE6D34E98AC554BA110AB46E851AE1E0D2B09347E34F8A8CA3D76E37F5E37E97C6665492FB25
311
97F44FC6AE36851B0390462AF40D6888E09D469930687433FFE3FF6478A78E45143EA35AF5B61C267A639A6310A2AD51E6B68026E6C91CBD47A0BE6E96EF366B46885C74CB7A9504AD54471191353705AD9F5169B9FEECA143B1369FAC8AD7197C79B924475090B9D6010E16811546664514A8BAFAFDE1B3287193CDAD3B06
311
0A3CACCA3C2F0B33589A9BB0B57DC4BD3679405AA0FA42221FA6137FFAD05C04CCDD641711495D92C8274CC0A782F5108F1C0F46B6B74554A0F647BFCED34E38E2E6666D999236875043946156D5B0A0E528A885E8D197491D2BC305D5AB7701AF590A1504BAF8F05F504B0304140006080000D96B38400000000000000000
311
00000000350000006662782F33414239434441362D463930392D344535462D424639382D3439314630433336373533372F76657274696365732E62696E504B0304140006080800D96B3840F270F1330600000004000000360000006662782F33414239434441362D463930392D344535462D424639382D3439314630433336
311
373533372F747269616E676C65732E62696E636660600000504B0304140006080000D96B3840000000000000000000000000370000006662782F33414239434441362D463930392D344535462D424639382D3439314630433336373533372F617474726962757465732E62696E504B0304140006080800D96B3840D5987DFC
311
8F00000041010000360000006662782F33414239434441362D463930392D344535462D424639382D3439314630433336373533372F6469726563746F72792E786D6C858F410EC2201045AF4266AF15DDB800BA74E7C21B903225242D6328188F2FA5C4183471359997F9FF81E89FF3C41E1816475E02DF1F80A11FC8386F25
311
A438EECEC07A250251FC3803E6F58C12560C4AD840E95E91C151A72936F496F35732D860FE635F62C8F2DA16B505C545B74125BAA2FA9E05D7CC053D063734D5C7665FD55B6B8D15D5E9BFEAFD8490FFA45E504B0304140006080800D96B384022679822FB000000A00100003B0000006662782F33414239434441362D4639
311
30392D344535462D424639382D3439314630433336373533372F7265736F75726365732F636F72652E786D6C8D50DB8A833010FD1599F768A2A968892952F00BF607429C76436B22B994FDFC8DD585DDB77D9919CE85391C71F95A9EC50B7D30CE0EC04A0A055AED6663EF03A478231D141729BC73F1970C0AAB161C608341
311
8ABB77693D20ED6C441B336ADD8C07A842C008857EE66380A03F7151A54A312BC2A35C957EA83B96ACCC74D64911A2CF018AFDC936417A0C2E798D41543B2B454A663E3466CE3FCDCDA00779AD4FFDC4474AA69EB784F3AE253D671319AF63CBA76EECFA968B6A334B11CDF293517B54116790356535A18CD4FC8335E7869E
311
4F94D0F64CA9A836F91F535AE77F9A92B1B1A98FB8BB2D806439C89B90A2DAFACAEB5D66DE5BB7F21B504B010214000A0000080000D96B38403DEE336E79000000790000001B00000000000000000000000000000000006175746F6465736B2D64657369676E2D7061636B6167652E786D6C504B01021400140006080800D9
311
6B3840D486FD9CA0000000F40000001300000000000000000000000000B20000005B436F6E74656E745F54797065735D2E786D6C504B01021400140006080800D96B384031CCB6BAE80000007C010000080000000000000000000000000083010000636F72652E786D6C504B01021400140006080800D96B384055019EA25F
311
0000007C000000070000000000000000000000000091020000636E782E786D6C504B01021400140006080800D96B3840B70AA31665010000020300000C00000000000000000000000000150300006662782F636F72652E786D6C504B01021400140006080800D96B3840686D5D607E0000009D0000000B0000000000000000
311
0000000000A40400006662782F636E782E786D6C504B01021400140006080800D96B384099525FAF2C0100001402000031000000000000000000000000004B0500006662782F33414239434441362D463930392D344535462D424639382D3439314630433336373533372F636F72652E786D6C504B01021400140006080800
311
D96B3840B847EF9D4D010000330300003000000000000000000000000000C60600006662782F33414239434441362D463930392D344535462D424639382D3439314630433336373533372F636E782E786D6C504B01021400140006080800D96B3840352CF75F9A0500007B1000003400000000000000000000000000610800
311
006662782F33414239434441362D463930392D344535462D424639382D3439314630433336373533372F6F626A656374732E786D6C504B01021400140006080000D96B384000000000000000000000000035000000000000000000000000004D0E00006662782F33414239434441362D463930392D344535462D424639382D
311
3439314630433336373533372F76657274696365732E62696E504B01021400140006080800D96B3840F270F13306000000040000003600000000000000000000000000A00E00006662782F33414239434441362D463930392D344535462D424639382D3439314630433336373533372F747269616E676C65732E62696E504B
311
01021400140006080000D96B38400000000000000000000000003700000000000000000000000000FA0E00006662782F33414239434441362D463930392D344535462D424639382D3439314630433336373533372F617474726962757465732E62696E504B01021400140006080800D96B3840D5987DFC8F00000041010000
311
36000000000000000000000000004F0F00006662782F33414239434441362D463930392D344535462D424639382D3439314630433336373533372F6469726563746F72792E786D6C504B01021400140006080800D96B384022679822FB000000A00100003B00000000000000000000000000321000006662782F3341423943
311
4441362D463930392D344535462D424639382D3439314630433336373533372F7265736F75726365732F636F72652E786D6C504B0506000000000E000E0080040000861100000000
310
504B03040A0000080000D96B38403DEE336E79000000790000001B0000006175746F6465736B2D64657369676E2D7061636B6167652E786D6C3C3F786D6C2076657273696F6E3D22312E302220656E636F64696E673D227574662D3822203F3E3C666F726D6174733E3C666F726D61743E687474703A2F2F736368656D612E
310
6175746F6465736B2E636F6D2F64657369676E2D7061636B6167652F323030393C2F666F726D61743E3C2F666F726D6174733E504B0304140006080800D96B3840D486FD9CA0000000F4000000130000005B436F6E74656E745F54797065735D2E786D6C7D8EC10E82300C865F65E91D8A1E8C310C0EEA1BF002731658846E
310
D98AC1B77784ABF1D8FE5FBFBF75BBCE937A534CCEB38643598122B6FEE978D0B0485F9C41B54DDD7D022595594E1A469170414C76A4D9A4D207E29CF43ECE46F218070CC6BECC4078ACAA135ACF422C856C0E68EA1BF5669944DDD7BCDE7B1F8E415D77AECB980613C2E4AC91FC167A2B244592486606FC29C8FD7F045B9A
310
EF7053A7E60B504B0304140006080800D96B384041FADA03E90000007C01000008000000636F72652E786D6C8D905D6EC3201084AF82F61D1BECFCD816268A436ED00B20202E4A0C9681AAC72F4E1CA97DEBD3AE86F9D8D1B0D3F7F4405F6609D6BB1E68410019A7BCB66EEC21C51B6E009D385BBC8FBF6C809C9C4C0FAB0C
310
9C8D8B4FF32629EFA27131ABCE6BB38932041301A9475E7A08EAD34CB290296647B817B35477399A82BEB70CA764357A1DB13AFF676FD62CC0E9D09EC57015B8A18DC0BBE1D2E2E1DA122C06B13F1F0F17229A232B5798B368A7F77DB518198D065E115A614271B5FBA07557936E4F30397484B072B5FF81D2ACFF0925EB62
310
5D6D715F58C8597390E70367E5DA451ECFA2F25C7BE33F504B0304140006080800D96B384055019EA25F0000007C00000007000000636E782E786D6C4DCB3B0E80201045D1AD90E915ED2CF8AC45050C11660C8261F98AB1B07AC9C97D42D718D865D3E909258CFD00CCE24AC6E326A164D74DC0B4128928FF326038472BA1
310
3128B1252AC747C6BAB984FC68F0B87FE8960A5C09FE86CFB69FBA01504B0304140006080800D96B38405412242F65010000020300000C0000006662782F636F72652E786D6C8D52ED8E8320107C15C27F04ED976D90A6D6BEC1BD0055EA992A1804D3C7BFF5A3F17A699A8B0992999DDDD9517E7C3435EA95ED2AA3131C06
310
0C23A5735354BA4CB0773712637414DC1AE37E9561A465A3123CC058F0D21ADFCE506EB453DA01AA4DA16650769D7218E5355C12DCE5DFAA9181F40E2ABA7BD0CAFC2E4B158401D0502778E72C1840D390E1C4E2767D703AE1827B5F15335B1530ADBA55CA6211A6FB53965E3212877146D6E9794FD2CB9E912CCD36A7DDF6
310
CCB278C7E92016DC55CDD35D6E9574AAC0226261445848A2F557B83AACD861C308DB1E18E374287F11F9B6F8A7C857DAADA2D9EE24EBC02B1819893FDB42440E75B2073F54703A8408AF31E1D7A0211008D9C96BFDDCE30E50AF7267EC1A98C2F885EA65ED154C65687C389D58E83C3680CDDEF6893EF4F9DC033EA0D42558
310
930EAE57EF86E97C9A3A47D12A4B7AF740DAD846D68BB9C9E2722E83DECA73531BFB1F359D57A5739874F87BC50F504B0304140006080800D96B3840468AA88C7D0000009D0000000B0000006662782F636E782E786D6C4DCCD10A83201886E15B91FFDC6568B9811AD8EC3E6259C84CC3E9D8E5AF46073BFAE0E1E315DD67
310
F5E86DD3CBC520A1BE1040363CE2E4C222A1E4195F01754AA418F3DF0D5018572BE160506249B16C274D761E8BCFBB7A179E27B25B43091F5ADC379A636618C79A1A8EC99D5046755B9BA1874A89EA57DAF708AB2F504B0304140006080800D96B38405BF1993D2A01000014020000310000006662782F3439353330374636
310
2D433542372D344534372D423345372D3044303334334236314546432F636F72652E786D6C8D51CB6EC32010FC158B537AC00683ED3AC2444A9A7C417F801892A2C460F1A8F2F985DA91DA5B2E2C9A9D991DEDB2DD63BA17DFCA796DCD00708940A1CC68A536D701C47081EFA0D871E6AC0D7F68A030625203C830E0ECEA6C
310
9C5768B4262813126AAC542B28BC570114E33D7D06E0C72F358952C49018FE56CE62BC89AB2A7199DA89C7990F2E05289621F9059CF60D41DDA9858766DF417AA41DDC936307D1072294EC5B7C3C1D58B508398B51CB55AE658AA32F5AB9574DB298B3A0A767FCD129119404BC46B88608C39A7E62B22568DB2088DA2D42AC
310
CAF47FA238CB1745519B40EA35EE22F38063562D0DCEA48DE7FB338C7ACCD68522CFDB7835BE018E4A443ADCF70D65D5424D0B489E2D5D3D7DB02E2D78733B2736598D5BCA59956F94CAEF0153CDF7E43F504B0304140006080800D96B3840DEE0208A5401000033030000300000006662782F34393533303746362D433542
310
372D344534372D423345372D3044303334334236314546432F636E782E786D6CBD93CD6EC32010845F0571F7BF6B451126520F7D821E7AC5B04969305880ABE6EDBB2424CD25874A552FC89A1D66569F30DB7DCD867C820FDAD99136654D0958E994B68791AE715F6C28D971E69D8B77364AAC9861A449A69C1DBC5B972C29
310
D88BD544548DB6C72C7A086EF51202CAE926314E0A8301608B15459827500A14B919F16B0F1E5741713A91F80EE4E5F98DB8E903640CAC4A299C55A983B374E6A63B1325D28810461AE43BCCA2146B740AC2B154228AB229AF5D0F76FA4922E9C2B572F59AA4F291A693F2BC51891C598543CE42F4482F9BE26901CAC5B218
310
2D4544C8D5D978F170B66A1B873E7B3582F7E8EEDA61B3C1B0F38CB3A867C80EE941445094B775D3167553B4FD6BD36DBB7AFB5417F5B0AD6B56253B679373265FC218F06E21D2D9083652DEB02A8D1FE1CB3EA2B447D6CE9F7E011201E4D60B9D5BC65FF26986AEEFFF914F757EDF88CBE35FC0BF01504B03041400060808
310
00D96B3840D43478EB57070000941B0000340000006662782F34393533303746362D433542372D344534372D423345372D3044303334334236314546432F6F626A656374732E786D6CED595B739B3814FE2B0CFB6C0CB6D3D63B844EAE1D4F376DA7DE76F621338C0C32D14608461269BCBF7E8F2E602026C1DBEC5B1F6C40
310
4847E77CE7AA43F8FE31A7CE03E68214ECD40D3CDF75304B8A94B0ECD4ADE476F2CE75DE47212F0AD99AE63A0CE5F8D455C36E1466BCA84A3B94E22DAAA8EC8D5E9FFFE5880433EC3A0945429CBA22B9C339F250258B148B7B2F451279D9F6D10B3C33B14B36E3A8BCEB112D11C74C02A730CE808A63980ABA8FBE3B8DC2A9
310
7A1F85EADFCE9A8F9AB5189E35D55277B9244C48C492272CF5C8CC47B1340F169757B393E5E464B1984F166F66C1E4FCFAFC7212BC9DFB176F2E2E9667574B606F5314D4CA94E212B314F4B773A3209CAA378DE81681435C27056338D14002545AAC3E4182056CD582CFEF3E064AA2D66B2D61EB79A1DE5B165AC3F32E95A1
310
59E380E8D00541EC76B5C4F5B52D5FB1F91B0417638C920B2C815B213968D7C2C3C12BDCC80FA766340A377B5D10E1E448624E107528D970C4412930554D8942B3C09251CEC18194A324D09A33AFBBB6059EF9B2EB1CE2725B51AA3CC38DB463C5E07E580ACD19F907F33DF76D64802790B6224CBEB35CCA5D89DD68194EF5
310
6014AACB7C665F1A209D2D4599D08898B73D412F94EBAF2EDDE8E3F5E671ADC2C1E1CD4B5E94984B65744A8F9A2F30647B5528D96D83519A530B401803AA5DB907E52B20FF09A2C79E15D01B278F8BC7859D2B3962625BF01C74E3F8CEC4873FDF09F4BFBA6FDD85D36671577B4378829B2AA8DEFD3C9E5D19345696FF169C
310
51F800065FF0B97DB54E10057BBE210C005246E2D0028620B46F378F6EB482C009811E56211A052032B0FB00B7E1D492D96BA5762FEB750C10B57BCCC7280960D316096C0CE8E903640F4E92BD9ADA220EC17BF22AE67A76B9FEB8AEF81625F8C6FAF425DE12462464CDC30C7530EF48748F773F0A9E82A04FF15EB7F1CEED
310
5602D056982BE0B31A04F5B0DFB9B34102EBB242859BF0851D400895AB5BF46F884830A588E1A2AAF76DA29B32D4C6E36DCDE0463303F17CD633618E1F88AA2AC069F6333A8C42DE4F382915886EF4C148D6044D6F40BA6FAB4F6091CDFC81592B06A19721FAA70E5A0770E858768DB405A21178B30FE749410B1E6F76B189
310
742ED412C046D75BBE778842AC374A5254C083B4DFD5212533D2C629D96E2B0171F5008BDF57176D73F0BD7970E2B4FF7BCEB880680BBE8BB8F5BBDE1E31C95186E32D4A87B66BEFD6D0169AE400698EB714E4220F44EE6224633FC5D931D01C457CF9AAD4335A0841181690AF0E82DF46C3F72090186DD62C2BADF6802622
310
CEB144F418041499017075DAD1356E02A5C3CB3C36D6FB9CC6DA44FF278BE0086AC982C5044A51C8212F321E78271043BAE81A947BF882B5D5B4B518B4821222D9C53F30C9EEE431A81BF203B8277024A9645C942801B31E41F689AF28A5F678DFA0E45EE58F38A9E86B1988C0741B134AAB3C861F6170F218E3DA4D607A16
310
85167113FB24CEA12843B2E263367973E23FD9C7D40CFD10D8DA684B2884ED3847E500EA9D80A8EB11A701DF521F50EAA6CACB18E545C546198A37EF7B9325DF57AB223B925F552A42D95813B604A39030D964D53A6683A9EBC00A6EA403D52E16282FA93985BD907882C69B34E5C10DB8F5D3D7DD2087C26F407BED88BAA8
310
61B03C760A03F103C9E4CE8DD6FA3A3987FA3BC5E93ED5D7B566BB0204C45424AF38B12AFAB682F2C6D6686E7483A4B8FD60B26E7DFDB6F2A0FB114E610DD42ECDC295023AC74C225599DCA81BFA154108EED030E32B95538FA17296A6BA6A44F49A0CA9B353467436CD8957DE6156E4F063B78425B44AF12D4AC57D7C2369
310
BC268A752BA597931AE36705FCFC61DD8307464688F4451578F8476FAD1DBD50E5D24122F2AECA370C1108821DD132A31BAF6499D548ADE5E6AACE145077818159152F7E9D2CDAED885F278BCC1AC64F9D2CCE777FA05DBB2FD24AE789B2EBA38E014D7E52545EE318A0DB0E0DD5268B98646EE5B7CE144350ACA3FCE86AAC
310
0E1A86E010C7FF396B0F6541B35D8FFFE3B276F0A4E2382AAB7426AB2ED581CA75D5CE61CB6B7F16BC9DF99333FF4D30595C9DF893E5F2FC6A7205CFCBC5E2EDF5E559938A0DF1286C8299CE5DF06C825A3DAC9E2C06D095150525299CE65327C310F3259CE947B4CF798E0524CF76B33BB54DF911AB1F4C9F53A20DC53527
310
77081AC454405A0731AA4476C79DDFA03529E1A07DEA42D3C8BB873F6B95AE0399E7D4855681240916DE06DA4CAAA1A78943CAD5B9DF1283408658A652A259D43C37AB14369DF0DF4C199306AC5C9D1E06146E2574BF3A1D0ACD9BE529394AF09A1D0749B8DD5412AA3523CB7EA011466FB357BF918D12766FB77E04D77D5E
310
ACC0D3733A888CFA64F0AC1118AA138978A6FBDD8A31CBD2D9E59729F4D99CD567A7A45506BA1C4F69C2311873A50A2AB022B00A4BB344124CF5E2F7DB2FBC804F3CB9A3ABA2DB8B22CF0B661FCEE03C96C22722677D071F7CD25B281BB06AAB8BDB991FCC6E753BDB76D8E30D12D853F5100CD4658412A1676C60914F5A53
310
B67139554AE84D5F5D3A367C421BC058D093EEAEF9BCE580F7A80F29CA57B487D7723EDBD19EEAA9600D1C7AD1D1BF504B0304140006080000D96B3840000000000000000000000000350000006662782F34393533303746362D433542372D344534372D423345372D3044303334334236314546432F76657274696365732E
310
62696E504B0304140006080800D96B3840F270F1330600000004000000360000006662782F34393533303746362D433542372D344534372D423345372D3044303334334236314546432F747269616E676C65732E62696E636660600000504B0304140006080000D96B3840000000000000000000000000370000006662782F
310
34393533303746362D433542372D344534372D423345372D3044303334334236314546432F617474726962757465732E62696E504B0304140006080800D96B3840D5987DFC8F00000041010000360000006662782F34393533303746362D433542372D344534372D423345372D3044303334334236314546432F6469726563
310
746F72792E786D6C858F410EC2201045AF4266AF15DDB800BA74E7C21B903225242D6328188F2FA5C4183471359997F9FF81E89FF3C41E1816475E02DF1F80A11FC8386F25A438EECEC07A250251FC3803E6F58C12560C4AD840E95E91C151A72936F496F35732D860FE635F62C8F2DA16B505C545B74125BAA2FA9E05D7CC
310
053D063734D5C7665FD55B6B8D15D5E9BFEAFD8490FFA45E504B0304140006080800D96B38409E9410BBFC000000A00100003B0000006662782F34393533303746362D433542372D344534372D423345372D3044303334334236314546432F7265736F75726365732F636F72652E786D6C8D50596E833010BD8AE57F830D59
310
0019470172835EC032136225D8C84BD5E3D7042AB57FFD9919BD45F3F4F8E56B7EA14F705E5BD36296518CC0283B6A33B538863BA930BA08EEAC0DBF64181939438B57180B3E391B971D52D6043021A1C68EB083D27B0818A9573A5AECD5036699C91892C23FB345AAA79C206359A2934E701F5C0A80B627EBC4C281B7D129
310
F03CDF58C163D4E3AED163FAA9EF1A1C16ACABAF4377EB49C5AA811CBABE26DDADA664E886E3F57CEAE9509D79BE9A050F7AFEC9A81CC8002316056505A18C14870F5636256D8E94D0534329CF57F91F535CC67F9AA236A12CF6B89BCDA7AC29C89B103C5FFB4AEB5D66DA6BB7E21B504B010214000A0000080000D96B3840
310
3DEE336E79000000790000001B00000000000000000000000000000000006175746F6465736B2D64657369676E2D7061636B6167652E786D6C504B01021400140006080800D96B3840D486FD9CA0000000F40000001300000000000000000000000000B20000005B436F6E74656E745F54797065735D2E786D6C504B010214
310
00140006080800D96B384041FADA03E90000007C010000080000000000000000000000000083010000636F72652E786D6C504B01021400140006080800D96B384055019EA25F0000007C000000070000000000000000000000000092020000636E782E786D6C504B01021400140006080800D96B38405412242F6501000002
310
0300000C00000000000000000000000000160300006662782F636F72652E786D6C504B01021400140006080800D96B3840468AA88C7D0000009D0000000B00000000000000000000000000A50400006662782F636E782E786D6C504B01021400140006080800D96B38405BF1993D2A01000014020000310000000000000000
310
00000000004B0500006662782F34393533303746362D433542372D344534372D423345372D3044303334334236314546432F636F72652E786D6C504B01021400140006080800D96B3840DEE0208A54010000330300003000000000000000000000000000C40600006662782F34393533303746362D433542372D344534372D
310
423345372D3044303334334236314546432F636E782E786D6C504B01021400140006080800D96B3840D43478EB57070000941B00003400000000000000000000000000660800006662782F34393533303746362D433542372D344534372D423345372D3044303334334236314546432F6F626A656374732E786D6C504B0102
310
1400140006080000D96B384000000000000000000000000035000000000000000000000000000F1000006662782F34393533303746362D433542372D344534372D423345372D3044303334334236314546432F76657274696365732E62696E504B01021400140006080800D96B3840F270F133060000000400000036000000
310
00000000000000000000621000006662782F34393533303746362D433542372D344534372D423345372D3044303334334236314546432F747269616E676C65732E62696E504B01021400140006080000D96B38400000000000000000000000003700000000000000000000000000BC1000006662782F34393533303746362D
310
433542372D344534372D423345372D3044303334334236314546432F617474726962757465732E62696E504B01021400140006080800D96B3840D5987DFC8F000000410100003600000000000000000000000000111100006662782F34393533303746362D433542372D344534372D423345372D3044303334334236314546
310
432F6469726563746F72792E786D6C504B01021400140006080800D96B38409E9410BBFC000000A00100003B00000000000000000000000000F41100006662782F34393533303746362D433542372D344534372D423345372D3044303334334236314546432F7265736F75726365732F636F72652E786D6C504B0506000000
310
000E000E0080040000491300000000
  0
XRECORD
  5
17
102
{ACAD_REACTORS
330
12
102
}
330
12
100
AcDbXrecord
280
     1
270
     1
271
     1
  0
XRECORD
  5
16
102
{ACAD_REACTORS
330
12
102
}
330
12
100
AcDbXrecord
280
     1
270
     1
271
     1
  0
XRECORD
  5
18
102
{ACAD_REACTORS
330
12
102
}
330
12
100
AcDbXrecord
280
     1
270
     1
271
     1
  0
XRECORD
  5
15
102
{ACAD_REACTORS
330
12
102
}
330
12
100
AcDbXrecord
280
     1
270
     1
271
     1
  0
XRECORD
  5
893
102
{ACAD_REACTORS
330
22
102
}
330
22
100
AcDbXrecord
280
     1
102
MATERIAL
148
0.0
149
0.0
149
0.0
 93
        0
 94
      127
282
     0
 72
     0
 77
     0
171
     0
175
     0
179
     0
273
     0
  0
XRECORD
  5
24
102
{ACAD_REACTORS
330
22
102
}
330
22
100
AcDbXrecord
280
     1
270
     1
271
     1
  0
XRECORD
  5
23
102
{ACAD_REACTORS
330
22
102
}
330
22
100
AcDbXrecord
280
     1
270
     1
271
     1
  0
XRECORD
  5
BA
102
{ACAD_REACTORS
330
22
102
}
330
22
100
AcDbXrecord
280
     1
 70
     1
 90
1959938040
 71
     1
  1
DCB3F8B7-81CE-4C7F-91E6-256ABE3F743A
311
504B03040A0000080000D86B38403DEE336E79000000790000001B0000006175746F6465736B2D64657369676E2D7061636B6167652E786D6C3C3F786D6C2076657273696F6E3D22312E302220656E636F64696E673D227574662D3822203F3E3C666F726D6174733E3C666F726D61743E687474703A2F2F736368656D612E
311
6175746F6465736B2E636F6D2F64657369676E2D7061636B6167652F323030393C2F666F726D61743E3C2F666F726D6174733E504B0304140006080800D86B3840D486FD9CA0000000F4000000130000005B436F6E74656E745F54797065735D2E786D6C7D8EC10E82300C865F65E91D8A1E8C310C0EEA1BF002731658846E
311
D98AC1B77784ABF1D8FE5FBFBF75BBCE937A534CCEB38643598122B6FEE978D0B0485F9C41B54DDD7D022595594E1A469170414C76A4D9A4D207E29CF43ECE46F218070CC6BECC4078ACAA135ACF422C856C0E68EA1BF5669944DDD7BCDE7B1F8E415D77AECB980613C2E4AC91FC167A2B244592486606FC29C8FD7F045B9A
311
EF7053A7E60B504B0304140006080800D86B384062F5D27CE80000007C01000008000000636F72652E786D6C8D90D16EC3200C457F05F99DC421D9944484AA74FB83FD0002DAA136100598F6F9236D2A6D6F7BB2757D8F6D5D7EF89E6FE4CBAED1053F41532110EB7530CE5F26C8E94C7B2007C1D710D22F1B10AF663BC126
311
83E09735E4659774F0C9FA54541F8CDD4515A34D40F4AD341344FD696755A99C8A235EAB45E9ABBAD8AA797605CED919F238E24CD9E7CECEAE20A444791C8681B2D3206977C2172AFB37A4D82332F62E8F8892D71B2C7872F3F3BE5EAD4AD68060D8308A0D65DD47D38E2D8EDD40F17544E4F566FF03E5C5FC13CACEA796ED
311
EF3EB008A2298FDC0782D75B16A5DC832A75CB4DFC00504B0304140006080800D86B384055019EA25F0000007C00000007000000636E782E786D6C4DCB3B0E80201045D1AD90E915ED2CF8AC45050C11660C8261F98AB1B07AC9C97D42D718D865D3E909258CFD00CCE24AC6E326A164D74DC0B4128928FF326038472BA131
311
28B1252AC747C6BAB984FC68F0B87FE8960A5C09FE86CFB69FBA01504B0304140006080800D86B3840DCE8F9C464010000020300000C0000006662782F636F72652E786D6C8D525B6E833010BC8AE57F6343681522E328A4BD412FE01887A2808DFC40397E974794A68AA20AC958333BBBB3037C7FED3B346AE75B6B4A9C26
311
0C236D94AD5BD394388633D962B417DC591B7E95616464AF4B3CC158F0C6D938AC90B22668130035B6D62B28BDD70123D5C1A5C45E7DEB5E263206A8F0976490EA221B9DA409D05027B80F0E0CA065C87462713E5D395D70C1636CEB956D6B98D69E5BEDB0A82A561D8AA220D9B1A8487E646FA4DA7E30C2B68C65D9677560
311
ACE274120B1EDAFEE64E392D83AEB1C8589A1196922CFF4A37BB0DDBE50561EF3BC6389DCA1F4471A8FF298AAD099B6CB5BBC83C16291899893FDB4244017939821F2A389D4284D79CF063D01008841CE4A9BBED710168D42A58970353DB78A746D9450D53199A1F4E17163ACF0D60B3A77DB2177D5EF7800F284D03D66480
311
EB2986693A5FA6AE510CDA91315C91B1AE97DDDDDC62F17EDE073D952BDB59F71F355D57A56B9874FA7BC50F504B0304140006080800D86B3840F82684197E0000009D0000000B0000006662782F636E782E786D6C4DCCD10A83201886E15B91FFDCB26566A0C6B6DA7DC4B2904C87E9D8E5AF46073BFAE0E1E315ED67B5E8
311
ADC366BC9350640490764F3F1A374B4871C21C50AB44F03EFEDD00B961D5120E0625E6E0D3EBA4514F43B271576BDC7222E92B42AFACC4F78A5D30659C63DEF5052675F3E00DEDEA92DC205722FF95F63DC2EA0B504B0304140006080800D86B38407F14E2DD2B01000014020000310000006662782F30453530344136332D
311
433536322D343638382D384445312D3037394638393444373330422F636F72652E786D6C8D514B6EC32014BC8AC52A5D608321C48E3051DBA427E8051C202E4A0C169F2AC72FAE1DA9DD65C343F366E60D3C7EB88FB7E25BFB609CED002E1128B4954E193B7420C50B6C407110DC3B17FFD04061FB5177608681E08377695A
311
21E96CD43666D43AA557B00F414750C85BBE7420C82F3DF6659F6266846B39F5F2DA0FBAC4656E679EE021FA1CA05886CC2710E8B445F49511F8BE6535A4AC6960733C618876ED47D3D2E38EA0375E2D42C153326A951B95E3988BD1FE5993592C7834E323BEF4BA8F5A0151235C4384614D3F31D913B4A72D446C8F10AF66
311
FA3F519AD493A2646C24F51A7791052030AF9686E0CAA5F3ED1146DF27E76331CFDB042D5FF2AB4A4418A2A46D79B550F307644F4657CF109DCF1FBCB99E331B6F17634605AFE61DE5F2BBC05CE77D8A1F504B0304140006080800D86B3840B042DFA14D01000033030000300000006662782F30453530344136332D433536
311
322D343638382D384445312D3037394638393444373330422F636E782E786D6CD593CD6EC32010845F0571B78D132B6A234CA41EFA043DF48A6193D260B0F8A99AB7EF929034971C7AEC0559B3C3CCEA13E6BBEFD9922F08D17837D2BE659480535E1B7718694EFBE689929DE0C1FB7467A3C4C919465A642AF821F8BC5449
311
C35E669B50B5C61DAB1820FA1C144494CB4D62BD921603C03519459827D01A34B919F16B0F015741713A91F401E4F5E59DF8E913548ABC2B298277A543F072D6A63B1325CACA18471AD507CCB29539790DF1D86A9964DBB7D7AE073BFD269172E15A998321A57CA4E5A4A26ED42247DEE150F09802D2ABA6745A800AB92CD6
311
2899107277365E3C8267E3D266A85E83E003BAFBCD7A1830EC3C133C9919AA4305900934152BD6AF1AD637ABE1AD5F6FD76C3B3C376CB3658C77C52EF8E4BDAD973006825F88F22E814B54F4BC2BE347F8AA8F681390B50FA73F804400B5F542E796F19FF974E7F78DB802FE05E207504B0304140006080800D86B3840F9A8
311
EA729A0500007A100000340000006662782F30453530344136332D433536322D343638382D384445312D3037394638393444373330422F6F626A656374732E786D6CAD57DB6EDB3810FD1541FBEC8B6CE7B65054F89214469136A8D1621F0218944429DC50A24052A9B35FBF87126549AE9D7A177DB12C6A389C3973E642FF
311
C32EE3CE2B958A89FCD6F58663D7A179246296A7B76EA993C1B5EB7C087C2984EE88B94E4E327AEB9A6537F05329CAC22EC5342125D707ABF78BBF1C15D19CBA4EC48952B7AE8A9E694686A4D422A6EA6518134D8669B21B7AC35AB0AF3695A4783E505A1049730D4BB19E438B531BE5F55FC7EE28F047E67BE09B5F2B353D
311
2D35AAFCE99FCF72A5491EFD74D8819AA9375BDD4D2E6E0617B3D97430BB9C7883C5FD6235F0AEA6E3E5E5727933BFBBC1C14A4B68B296489AB8C147602359E48FEA4F815FB25C4F2756C4066824E92B3391728389E3F9A35A66EF9D75F298F991C8731A5558018DCA3FAB3AA605CD63C49C5105CB3A088DFBAF9EC1B1F379
311
6ADEED91DDE5F310E8EEE8286A6C6F9E5D4B45F8375C50E730482A6A185863691DADB93A6E110E85E0F61B534E4634958C7087B35012F9E60610352281DF5363982C4D36180FDC0051A83FF7E98234FA35CF8F5999949C1B1ABB4195055BE40AD5AAB28CFD43656B7D1719D8845819365C5B87F45B41DDE0A6A6C8F5019B6A
311
209D84931421879B66E77472E0E8D2E4E97AE5069FEEC3DDC6E4EEF1C30B290A2AB5A10FA8D504AE791A94AC4DDE5991331BDC03535A50BE02F9CF48F5D614C44DB2DD6C37B3A76849729508992136CED8198CF13376BCEAD7FCEFFCF347FBCDFDE89DC213C13650FD063CFB3E7463D98133F05F417821A7D6B54D4438CAC6
311
03CB01902189C3059650879370E7066B54395465EC223CF0E032CC7DC55F7F64D5A0505427759E39B03C288B671468C056311266D4E4B706B671FAA99C55075BB153F05EFC16BACE579B4F9B522624A20F36A757346139D368712D6FBA06F530EF79F442DF7E0819C3D19FF1DE74F1CEEC510A681BCC0DF06953D3CD4B7B72
311
EF8008FB5261CA8DFF8B13E08469AC1DFD0F4C45947392535136E7BEDB3FD0366A884DB21B26EF1B4CDB58409AFACB410EA24947921506C47DB7DA17CDE109EFBEAD3F839190E72224BC150ADBD21B092EE4367CDBD655E928D2DFFBD4B6108C8C16B0BDCA9126FD2DE6DB982549A950038FC0FA7DBDEC86CE54055488466B
311
9D2C33B88FDC22D272B6D18B662D091AA9C8B70C6D136977F480AE7E206A0950293C65B1A23CD932CECB6C9B308E66B4CD4871028EFF6F7F5866C59664A2CCF509DD3DD3D11CFAB6F7C8AB7E101D3DBBC1A67A0E1628BD318DDB30F7844D2B3982552FB4ABE5627A7FBDB81A5C7BCBBBC16C79753FB8F1EE2E07938BCBF9E2
311
6E7A7F359BCE9B38D5CA03BFE934DD844694D0D9FC52321BBE6F6BA48FAD016EF040B47AFA586767F3FCB61E6214F647D88376B9DF388F5F31F6D1F8D70A5AC9A38AD659C16946734D4C0A3D983FFC2BC198D133A65E5F6724A56768F9F27173E00C56CED8F768D29DFE38D86B579726218F2AD1CF6516E684F1838D698DE4
311
B0C8538B5F1393FDB3EE33CDAB79B381C160AA046731CA60ECA4546454A3189ED183644615A8D71DE9637BF53863F76B3D206A1272DA58F24C30237385B400B5CA48F7D79D3F30D399B1EAD645B71DBEE0C7560AD701676E5DCCE89A45540D43F467330955CAC1A5EE208FB99FE429C7A85D6FDABFEF77196C7A1D792F72CE
311
F864FDAA2BB8750065A4C0D8807908D1A98C09FCCA36FB3DFA4F8E37E63844E36F58EABD2FEDC2DE99EA18A468ED94BD2C608679B147EF90A8EFBBE50D2B991E22675DB2DE2541AD75A0894CAB8B82B1CF9A345F3D8E30A038EB2F4EC1CB14B13C5FD3405290B934090E16811556674134A8BAFCF3E9510A5C6433E79E8102
311
4F4B916522B72F737B117636CFB8D6C64F280BD4DC47D4D364EC4D9EAA7B80BD9A6C43A2E890C4EA050B88A9647B887B810723EBCBA207211B781B839109C20137D72BC7B6B4592BDFADAA06164C1C3975903DE62E6972A52B50BC7B151855A2305562880FFE05504B0304140006080000D86B384000000000000000000000
311
0000350000006662782F30453530344136332D433536322D343638382D384445312D3037394638393444373330422F76657274696365732E62696E504B0304140006080800D86B3840F270F1330600000004000000360000006662782F30453530344136332D433536322D343638382D384445312D30373946383934443733
311
30422F747269616E676C65732E62696E636660600000504B0304140006080000D86B3840000000000000000000000000370000006662782F30453530344136332D433536322D343638382D384445312D3037394638393444373330422F617474726962757465732E62696E504B0304140006080800D86B3840D5987DFC8F00
311
000041010000360000006662782F30453530344136332D433536322D343638382D384445312D3037394638393444373330422F6469726563746F72792E786D6C858F410EC2201045AF4266AF15DDB800BA74E7C21B903225242D6328188F2FA5C4183471359997F9FF81E89FF3C41E1816475E02DF1F80A11FC8386F25A438
311
EECEC07A250251FC3803E6F58C12560C4AD840E95E91C151A72936F496F35732D860FE635F62C8F2DA16B505C545B74125BAA2FA9E05D7CC053D063734D5C7665FD55B6B8D15D5E9BFEAFD8490FFA45E504B0304140006080800D86B3840715EFCE4FB000000A00100003B0000006662782F30453530344136332D43353632
311
2D343638382D384445312D3037394638393444373330422F7265736F75726365732F636F72652E786D6C8D504B6AC33010BD8A99BDECB1E2163BC80A51DA1BF402429E2422B114F4293D7EE5D88576D7CDCCF03ECCE389C3D77CAF3E2944EBDD086D8D5091337EB2EE32424E67D643759022789F7EC9A0727AA6111618A4B8
311
049F1F1B64BC4BE452419D9F6803758C94A032F7728C10CD95665DEB9C8A22DEEA8736377DA1BAAD0B5D7452C4144A806A7DB24C9081A2CFC15014CDCA4A91B39D368D9DCA4F7BB614402A85EA380C3DE3A741B1EE842F4CF56FC8B047E4FC5D1D11956816B314C9CE3F194D209D6802C9B1E50C5BC6BB8F76B7DFE1BE1B18
311
BEEE1145B3C8FF98F263FAA7295B97767C8BBBDA22C8B604791252344B5F653DCB2C7BE9567E03504B010214000A0000080000D86B38403DEE336E79000000790000001B00000000000000000000000000000000006175746F6465736B2D64657369676E2D7061636B6167652E786D6C504B01021400140006080800D86B38
311
40D486FD9CA0000000F40000001300000000000000000000000000B20000005B436F6E74656E745F54797065735D2E786D6C504B01021400140006080800D86B384062F5D27CE80000007C010000080000000000000000000000000083010000636F72652E786D6C504B01021400140006080800D86B384055019EA25F0000
311
007C000000070000000000000000000000000091020000636E782E786D6C504B01021400140006080800D86B3840DCE8F9C464010000020300000C00000000000000000000000000150300006662782F636F72652E786D6C504B01021400140006080800D86B3840F82684197E0000009D0000000B00000000000000000000
311
000000A30400006662782F636E782E786D6C504B01021400140006080800D86B38407F14E2DD2B0100001402000031000000000000000000000000004A0500006662782F30453530344136332D433536322D343638382D384445312D3037394638393444373330422F636F72652E786D6C504B01021400140006080800D86B
311
3840B042DFA14D010000330300003000000000000000000000000000C40600006662782F30453530344136332D433536322D343638382D384445312D3037394638393444373330422F636E782E786D6C504B01021400140006080800D86B3840F9A8EA729A0500007A10000034000000000000000000000000005F08000066
311
62782F30453530344136332D433536322D343638382D384445312D3037394638393444373330422F6F626A656374732E786D6C504B01021400140006080000D86B384000000000000000000000000035000000000000000000000000004B0E00006662782F30453530344136332D433536322D343638382D384445312D3037
311
394638393444373330422F76657274696365732E62696E504B01021400140006080800D86B3840F270F133060000000400000036000000000000000000000000009E0E00006662782F30453530344136332D433536322D343638382D384445312D3037394638393444373330422F747269616E676C65732E62696E504B0102
311
1400140006080000D86B38400000000000000000000000003700000000000000000000000000F80E00006662782F30453530344136332D433536322D343638382D384445312D3037394638393444373330422F617474726962757465732E62696E504B01021400140006080800D86B3840D5987DFC8F000000410100003600
311
0000000000000000000000004D0F00006662782F30453530344136332D433536322D343638382D384445312D3037394638393444373330422F6469726563746F72792E786D6C504B01021400140006080800D86B3840715EFCE4FB000000A00100003B00000000000000000000000000301000006662782F30453530344136
311
332D433536322D343638382D384445312D3037394638393444373330422F7265736F75726365732F636F72652E786D6C504B0506000000000E000E0080040000841100000000
310
504B03040A0000080000D86B38403DEE336E79000000790000001B0000006175746F6465736B2D64657369676E2D7061636B6167652E786D6C3C3F786D6C2076657273696F6E3D22312E302220656E636F64696E673D227574662D3822203F3E3C666F726D6174733E3C666F726D61743E687474703A2F2F736368656D612E
310
6175746F6465736B2E636F6D2F64657369676E2D7061636B6167652F323030393C2F666F726D61743E3C2F666F726D6174733E504B0304140006080800D86B3840D486FD9CA0000000F4000000130000005B436F6E74656E745F54797065735D2E786D6C7D8EC10E82300C865F65E91D8A1E8C310C0EEA1BF002731658846E
310
D98AC1B77784ABF1D8FE5FBFBF75BBCE937A534CCEB38643598122B6FEE978D0B0485F9C41B54DDD7D022595594E1A469170414C76A4D9A4D207E29CF43ECE46F218070CC6BECC4078ACAA135ACF422C856C0E68EA1BF5669944DDD7BCDE7B1F8E415D77AECB980613C2E4AC91FC167A2B244592486606FC29C8FD7F045B9A
310
EF7053A7E60B504B0304140006080800D86B38406D849105EA0000007C01000008000000636F72652E786D6C8D90416EC3201045AF82668F0D36715C0B1339957B825E0001715162B00C54397E71E248EDAEAB19FDF96F66F4F9E93EDFD0B75983F5AE075A1040C629AFAD9B7A48F1825B4027C157EFE32F1B202767D3C326
310
83E0D3EAD3B24BCABB685CCCAAF3DAECA20CC14440EA969B1E82FA32B32C648AD911AEC522D5554EA6A0AF2EC329598D9E47ACCEFBECC59A1544CB8661FC60474CABE68CD9D8123CB0C388DFE9810CF5D81C6BD2F27283058F767EDD57AB91D1681015A115261457EC93D65D4D3AF68649D311C2CBCDFE074A8BFE2794AC8B
310
75B5BFFBC402089A1F790C042FB72C72790495EB969BF801504B0304140006080800D86B384055019EA25F0000007C00000007000000636E782E786D6C4DCB3B0E80201045D1AD90E915ED2CF8AC45050C11660C8261F98AB1B07AC9C97D42D718D865D3E909258CFD00CCE24AC6E326A164D74DC0B4128928FF326038472B
310
A13128B1252AC747C6BAB984FC68F0B87FE8960A5C09FE86CFB69FBA01504B0304140006080800D86B3840155A57F366010000020300000C0000006662782F636F72652E786D6C8D525B6E833010BC8AE57F63F3484223E38856F404BD80030E45011B191BE5F85D1E114D15451592B16676766707F8E9D6B5685476688CCE
310
7018308C942E4DD5E83AC3DE5D488AD149706B8CFB558691969DCAF00463C16B6B7CBF42A5D14E6907A836955A41390CCA6154B670C9F0507EAB4E06D23BA818AE412FCBABAC55100640439DE083B360002D43A6138BCBF9C6E9820BEE7D53AD6C53C1B4E6D2288B459AE479F1991C4818EDDF4952A48CE4C9AE201FE18EE5
310
71B13FC42CE574120BEE9AEEEEAEB44A3A556111B130222C2451F215C6C7981D9337C2F647C6389DCA1F44BEAFFE29F28D7671B4DA5D640316211899893FDB42440E0D72043F54703A8508AF39E1C7A0211008D9C9737BDFE30AD0A84A676C024C65FC468DB2F50AA632343F9C2E2C749E1BC0664FFB442FFABCEE011F50EA
310
1AAC4907D7B377D374BE4C5DA3E89525A3BB216D6C27DBCDDC62713BB7414FE5A5698DFD8F9AAEABD2354C3AFDBDE207504B0304140006080800D86B3840760C0AB57D0000009D0000000B0000006662782F636E782E786D6C4DCCD10A83201886E15B91FFDCA5B166033532BD90581632D3703A76F9ABD1C18E3E78F87879
310
F7593D7ADBF4723108A01702C886479C5C5804943CE3165027798A31FFDD008571B5020E06C99714CB76D264E7B1F8BCAB77E179626F98324CDFF0A06B8AAFC434B86F548B09D364D08AD6CCDCA192BCFA95F63DC2F20B504B0304140006080800D86B384085524B112B01000014020000310000006662782F414537424537
310
44362D434432312D343045352D413542382D3037443043444231323745392F636F72652E786D6C8D51CB6EC32010FC15C4293D600376EC38C24449EC3FE80F3898A42831583CAA7C7EA176A4F6960B8B66676647BBECF09C1EE05B5AA78C6E21C93004520B332A7D6B61F057B483E0C09935C6FFA141A08749B630C190B39B
310
35615E2161B497DA47549B51AEE0E09CF4108847FCB4D0892F390DD9107C64B87B360FE23EDC6446B2D88E3CCE9CB731005886A417F2635F9FFABAABD0B9A30495B8DFA2E3F6B443B8EEF0B93B115AF70DCB17216721A87195AB31C6515725EDBB2649CC9957D32BBEB072F072849C6242112688969FA4D817785F3608577B
310
8C599EE8FF44611EDF1405A57D41D7B88BCC414E58BE34381B4DB83C5E61E47336D683346FE3A4F8801C67B8681A827794E50B352E207A56E5EAE9BCB171C19BFB25B28BD5B82A39CBD38D62F93D60ACE99EFC07504B0304140006080800D86B3840D6E510B65401000033030000300000006662782F41453742453744362D
310
434432312D343045352D413542382D3037443043444231323745392F636E782E786D6CBD93CD6EC32010845F0571F7BF65A51126520F7D821E7AC5B049696CB0F8A99AB7EF929034971C2A55BD206B7698597DC26CF7B5CCE4139CD7D68CB4296B4AC048ABB4398C34867DB1A164C799B336DCD92831628191269972767036
310
AE5952B017710EA8CEDA1CB3E8C0DBE8247894D34D325B29660C005344146199402950E466C4AF3D385C05C5E944C23B9097E73762A70F90C1B32AA57056A50ECED2999BEE4C94C859783F522FDF6111A588C12AF0C7528920CAA6BC763DD8E92789A40BD7CAE83449E5234D27E579A31239B20A879CF9E0905E3685D30A94
310
8B759DB51401215767E3C5C359D4260C7DF66A04EFD0DDB5C3668361E71967412F901DD28108A0286FEBA62DEAA668FBD7A6DB76F5B67F2AEA615BD7AC4A76CE266BE77C0963C0D995486B02984079C3AA347E842FFB88D20E595B77FA054804905B2F746E197FC9A719BABEFF473ED5F97D232E877F01FF06504B03041400
310
06080800D86B38408BE52E7F58070000931B0000340000006662782F41453742453744362D434432312D343045352D413542382D3037443043444231323745392F6F626A656374732E786D6CED595B6FA33814FE2B887D0E09497A5B51466D7A51B4EACC68B233DA8748C801877A6B0CB24D2FFBEBF7F802011A5AB2D37D9B
310
870430F6F139DFB9FA107C7ACEA8F388B920393B777D6FE23A98C57942587AEE96723B3A759D4F61C0F35C36A6B90E43193E77D5B01B0629CFCBC20E25788B4A2A3BA337977F3922C60CBB4E4C9110E7AE88EF71863C54CA3CC1E2C14B90445EBA7DF67CCF4C6C934D392AEE3B440BC43193C0298C33A0E218A6FCF6E3C41D
310
87C158BD0F03F56F67CD06CD9AF7CF1A6BA9DB5C12262462F12B963A646683589AF9F3ABEBE9D1D9E8683E9F8DE6C7537F7479737935F24F6693C5F1627176717D06EC6DF29C5A99125C609680FE5EDCD00FC6EA4D2DBA45601FD771CE188E3590009516AB4B9060015B35E09BB41F7D2551E3B596B0F13C57EF2D0B8DE159
310
9B4ADFAC6140B4E8822076BB4AE2EADA942FDFFC0D828B2146C90596C0AD901CB46BE1E1E0156E3809C666340C363B5D10E16448624E107528D970C4412930554D0903B3C09251CEC18194A324D09A33AFDBB6059EF9BEEBECE3725B52AA3CC30DB56345E07E580ACD19F907F31DF74D64802790B6244C9E5A2EE54B81DDF0
310
2C18EBC1305097D9D4BE34403A5B8A52A111316F3B822E94EB2FAFDCF08F9BCDF34A8583FD9B173C2F3097CAE8941E355F60C8F6AA50B2DBFA8334A71680300654BB7207CA3740FE33448F1D2BA0374E9EE7CF733B5772C4C436E719E8C69938A309FC4D1C5FFFABFBC65D30AE17B7B5D78727B8A982EAF4E7F16CCBA0B1B2
310
FC37E00C834730F89CCFECAB558C28D8F31D610090321287E63004A17DBB7976C325044E08F4B00AD1D0079181DD47B80DC696CC4E2B957B59AF6380A8DD63364449009BB64860A3474FB7903D3889776A6A8AD807EFD18798EBC5D5EA8F55C9B728C677D6A7AFF0963022216BEE67A885794BA207FCF294F304047D8DF7AA
310
897766B71280B6C25C019F5620A887DDCEAD0D625897E62ADC04EFEC0042A85CDDA07F47448C29450CE765B56F1DDD94A1D61E6F6B06379C1A8867D38E0973FC485455014EB39BD16214F27ECC49A14074C35B23591D34BD1EE9BE2F3F8345D6F37B662D19845E86E89F3A68EDC1A165D915D216885AE0CD2E9CC739CD79B4
310
79894CA473A1960036DADEF2A3451462BD5192A2021EA4FDAE0A29A991364AC8765B0A88AB7B58FCB15C34CD61E2CDFC23A7F9DF71C639445BF05DC4ADDF75F6884886521C6D51D2B75D73B79AB6D0247B4873BCA520177924F22542329A24383D049A83889F7D28F594E642108605E4ABBDE037D1987810488C362B969556
310
3B4013116558227A08028A4C0FB83AEDE81A3786D2E17D1E6BEB7D4B634DA2FF93457004B564CE2202A528E4907719F7BD2388216D740DCA1D7CC1DA2ADA5A0C5A420911BF444F98A4F7F210D40DF91EDC6338929432CA0B1483590F20FBCA5794523BBC6F50FCA0F2471497F4A30C4460BA8D08A56516C18F3038790C71ED
310
3A30BD894283B8897D126750942159F2219B1C1F4D5EED636A866E086C6CB42514C27694A1A207F55640D4F58853836FA9F7287553664584B2BC64830CC59B75BDC992EFAA55911DC8AF2A15A16CAC085B82614098ACB36A15B3C1D475600537D281EA2512282BA83985BD9378FCDA9B34E5DE0DB8F5D38FDD2083C2AF477B
310
CD883AAF60B03CB60A03F184647CEF862B7D1D5D42FD9DE06497EAAB5AB3590102622A92979C58157D5F4279636B3437BC4352AC6F4DD6ADAEDF971E743F8231AC81DAA55EB85440679849A42A933B7543BF2108C12D1A667CA972EA21542E9244578D88DE903E75B6CA88D6A619F18A7BCCF20C7E6C4D584CCB04AF51221E
310
A23B49A31551AC5B29BD8C5418BF29E097DB55071E181920D25755E0E1A7CE5A3BBA50E5D25E22F2BECC360C1108822DD152A31BAF60A9D548A5E5FAAACE14507781815915CF7F9D2C9AED885F278BD41AC6CF9D2C68BE4174176D1AD93C56667DD029A04E4F8ACA479C0274D7A1A65A271193CBADF8D69722888955901F5C
310
8C5531C310ECE3F83F27EDBE2468B6EBF07F58D2F65F151C072595D664D5A4DA53B82E9B29EC6A7139BB39BD3C199DFA8BEBD17C7172333AF3AF8F47D3A3E38BCBEBD9CDC97C7651A3A9FD340CEA58A653173C9B98560DAB278B013465454E490287F9C44931847C0947FA01DD739E6101B9B3D9EB4E6C4F7EC0EA47D3E694
310
684371C5C93D82FE301590D501A33296ED71E737E84C4A38679FBBD033F21EE0CF5AA5EB40E23977A15320498C85B7812E93EAE769E2907175EAB7C4001FC4529511CDA2FAB95EA5B06945FF7ACA902C60E56AB530A06E2BA0F9D56A5068DE2C4FF1418257EC3848C2EDA69450AC19597603B5307A9B9DFA8D6C94B007BBF5
310
33B8EEDB62F99E9ED34264D01783378DC0501D49C453DDEE568C59962EAEBE8EA1CDE62CBF38052D53D0E5704A238EC1984B554F81158155589A059260AA8BDFD75F790E5F7832471745EB459E6539B30F17701C4BE00B91B3BA87EF3DC91AAA06ACBAEA623D9DF8D3B5EE66DB067BB441027BAA1C8281AA8A5022748C0D2C
310
F25567CAF62DC74A099DE9CB2BC7864FE802180B7AD5DC355FB71CF01EF51D45F98AF6F04ACE371BDA633D15AC81432B3AFC17504B0304140006080000D86B3840000000000000000000000000350000006662782F41453742453744362D434432312D343045352D413542382D3037443043444231323745392F7665727469
310
6365732E62696E504B0304140006080800D86B3840F270F1330600000004000000360000006662782F41453742453744362D434432312D343045352D413542382D3037443043444231323745392F747269616E676C65732E62696E636660600000504B0304140006080000D86B384000000000000000000000000037000000
310
6662782F41453742453744362D434432312D343045352D413542382D3037443043444231323745392F617474726962757465732E62696E504B0304140006080800D86B3840D5987DFC8F00000041010000360000006662782F41453742453744362D434432312D343045352D413542382D3037443043444231323745392F64
310
69726563746F72792E786D6C858F410EC2201045AF4266AF15DDB800BA74E7C21B903225242D6328188F2FA5C4183471359997F9FF81E89FF3C41E1816475E02DF1F80A11FC8386F25A438EECEC07A250251FC3803E6F58C12560C4AD840E95E91C151A72936F496F35732D860FE635F62C8F2DA16B505C545B74125BAA2FA
310
9E05D7CC053D063734D5C7665FD55B6B8D15D5E9BFEAFD8490FFA45E504B0304140006080800D86B38407E2FBF9DFC000000A00100003B0000006662782F41453742453744362D434432312D343045352D413542382D3037443043444231323745392F7265736F75726365732F636F72652E786D6C8D504B6E833010BD0A9A
310
BDC1068752641CD18A9EA017B0CC845A0936F2A7EAF16B122AB5BB6E6646EFA3797AE2FCB5DE8A4FF4C1383B002B291468B59B8D5D0648F1423A28CE5278E7E22F191456AD38C00E83148B77693B20ED6C441B336ADD8C07A842C00885BEE56380A03F7055A54A312BC2B5DC94BEAA054B56663AEBA408D1E700C5E3C93E41
310
7A0C2E798D41540F568A94CC7C68CC9C7F9A8B410FB2E3E338BDF196B0BA7D217CEA2819F96922AFEC44C7666A9F1ADA896A374B11CDFA93517B54116790356535A18CD4FC9D357D437BFE4C68DB532AAA5DFEC794B6F99FA6646C6CEA23EEC31640B21CE44E4851ED7DE5752F33EFBD5BF90D504B010214000A0000080000
310
D86B38403DEE336E79000000790000001B00000000000000000000000000000000006175746F6465736B2D64657369676E2D7061636B6167652E786D6C504B01021400140006080800D86B3840D486FD9CA0000000F40000001300000000000000000000000000B20000005B436F6E74656E745F54797065735D2E786D6C50
310
4B01021400140006080800D86B38406D849105EA0000007C010000080000000000000000000000000083010000636F72652E786D6C504B01021400140006080800D86B384055019EA25F0000007C000000070000000000000000000000000093020000636E782E786D6C504B01021400140006080800D86B3840155A57F366
310
010000020300000C00000000000000000000000000170300006662782F636F72652E786D6C504B01021400140006080800D86B3840760C0AB57D0000009D0000000B00000000000000000000000000A70400006662782F636E782E786D6C504B01021400140006080800D86B384085524B112B010000140200003100000000
310
0000000000000000004D0500006662782F41453742453744362D434432312D343045352D413542382D3037443043444231323745392F636F72652E786D6C504B01021400140006080800D86B3840D6E510B654010000330300003000000000000000000000000000C70600006662782F41453742453744362D434432312D34
310
3045352D413542382D3037443043444231323745392F636E782E786D6C504B01021400140006080800D86B38408BE52E7F58070000931B00003400000000000000000000000000690800006662782F41453742453744362D434432312D343045352D413542382D3037443043444231323745392F6F626A656374732E786D6C
310
504B01021400140006080000D86B38400000000000000000000000003500000000000000000000000000131000006662782F41453742453744362D434432312D343045352D413542382D3037443043444231323745392F76657274696365732E62696E504B01021400140006080800D86B3840F270F1330600000004000000
310
3600000000000000000000000000661000006662782F41453742453744362D434432312D343045352D413542382D3037443043444231323745392F747269616E676C65732E62696E504B01021400140006080000D86B38400000000000000000000000003700000000000000000000000000C01000006662782F4145374245
310
3744362D434432312D343045352D413542382D3037443043444231323745392F617474726962757465732E62696E504B01021400140006080800D86B3840D5987DFC8F000000410100003600000000000000000000000000151100006662782F41453742453744362D434432312D343045352D413542382D30374430434442
310
31323745392F6469726563746F72792E786D6C504B01021400140006080800D86B38407E2FBF9DFC000000A00100003B00000000000000000000000000F81100006662782F41453742453744362D434432312D343045352D413542382D3037443043444231323745392F7265736F75726365732F636F72652E786D6C504B05
310
06000000000E000E00800400004D1300000000
  0
XRECORD
  5
27
102
{ACAD_REACTORS
330
22
102
}
330
22
100
AcDbXrecord
280
     1
270
     1
271
     1
  0
XRECORD
  5
26
102
{ACAD_REACTORS
330
22
102
}
330
22
100
AcDbXrecord
280
     1
270
     1
271
     1
  0
XRECORD
  5
28
102
{ACAD_REACTORS
330
22
102
}
330
22
100
AcDbXrecord
280
     1
270
     1
271
     1
  0
XRECORD
  5
25
102
{ACAD_REACTORS
330
22
102
}
330
22
100
AcDbXrecord
280
     1
270
     1
271
     1
  0
XRECORD
  5
88E
102
{ACAD_REACTORS
330
88D
102
}
330
88D
100
AcDbXrecord
280
     1
102
ACAD_ROUNDTRIP_2012_MLEADER_STYLE
298
     1
  0
CELLSTYLEMAP
  5
88C
102
{ACAD_REACTORS
330
88B
102
}
330
88B
100
AcDbCellStyleMap
 90
        3
300
CELLSTYLE
  1
TABLEFORMAT_BEGIN
 90
        5
170
     1
 91
        0
 92
    32768
 62
   257
 93
        1
300
CONTENTFORMAT
  1
CONTENTFORMAT_BEGIN
 90
        0
 91
        0
 92
      512
 93
        0
300

 40
0.0
140
1.0
 94
        5
 62
     0
340
55
144
0.25
309
CONTENTFORMAT_END
171
     0
 94
        0
309
TABLEFORMAT_END
  1
CELLSTYLE_BEGIN
 90
        1
 91
        1
300
_TITLE
309
CELLSTYLE_END
300
CELLSTYLE
  1
TABLEFORMAT_BEGIN
 90
        5
170
     1
 91
        0
 92
        0
 62
   257
 93
        1
300
CONTENTFORMAT
  1
CONTENTFORMAT_BEGIN
 90
        0
 91
        0
 92
      512
 93
        0
300

 40
0.0
140
1.0
 94
        5
 62
     0
340
55
144
0.18
309
CONTENTFORMAT_END
171
     0
 94
        0
309
TABLEFORMAT_END
  1
CELLSTYLE_BEGIN
 90
        2
 91
        1
300
_HEADER
309
CELLSTYLE_END
300
CELLSTYLE
  1
TABLEFORMAT_BEGIN
 90
        5
170
     1
 91
        0
 92
        0
 62
   257
 93
        1
300
CONTENTFORMAT
  1
CONTENTFORMAT_BEGIN
 90
        0
 91
        0
 92
      512
 93
        0
300

 40
0.0
140
1.0
 94
        2
 62
     0
340
55
144
0.18
309
CONTENTFORMAT_END
171
     0
 94
        0
309
TABLEFORMAT_END
  1
CELLSTYLE_BEGIN
 90
        3
 91
        2
300
_DATA
309
CELLSTYLE_END
  0
XRECORD
  5
8C4
102
{ACAD_REACTORS
330
88B
102
}
330
88B
100
AcDbXrecord
280
     1
102
ACAD_ROUNDTRIP_PRE2007_TABLESTYLE
 90
      512
 91
        0
  1

 92
      512
 93
        0
  2

 94
      512
 95
        0
  3

  0
XRECORD
  5
89F
102
{ACAD_REACTORS
330
89E
102
}
330
89E
100
AcDbXrecord
280
     1
102
RTVSPropertyOp0
 70
     1
102
RTVSPropertyOp1
 70
     1
102
RTVSPropertyOp2
 70
     1
102
RTVSPropertyOp3
 70
     1
102
RTVSPropertyOp4
 70
     1
102
RTVSPropertyOp5
 70
     1
102
RTVSPropertyOp6
 70
     1
102
RTVSPropertyOp7
 70
     1
102
RTVSPropertyOp8
 70
     1
102
RTVSPropertyOp9
 70
     1
102
RTVSPropertyOp10
 70
     1
102
RTVSPropertyOp11
 70
     1
102
RTVSPropertyOp12
 70
     1
102
RTVSPropertyOp13
 70
     1
102
RTVSPropertyOp14
 70
     1
102
RTVSPropertyOp15
 70
     1
102
RTVSPropertyOp16
 70
     1
102
RTVSPropertyOp17
 70
     1
102
RTVSPropertyOp18
 70
     1
102
RTVSPropertyOp19
 70
     1
102
RTVSPropertyOp20
 70
     1
102
RTVSPropertyOp21
 70
     1
102
RTVSPropertyOp22
 70
     1
102
RTVSPropertyOp23
 70
     1
102
RTVSPropertyOp24
 70
     1
102
RTVSPropertyOp25
 70
     1
102
RTVSPropertyOp26
 70
     1
102
RTVSPropertyOp27
 70
     1
102
RTVSPropertyOp28
 70
     1
102
RTVSPropertyOp29
 70
     1
102
RTVSPropertyOp30
 70
     1
102
RTVSPropertyOp31
 70
     1
102
RTVSPropertyOp32
 70
     1
  0
XRECORD
  5
89D
102
{ACAD_REACTORS
330
89C
102
}
330
89C
100
AcDbXrecord
280
     1
102
RTVSPropertyOp0
 70
     1
102
RTVSPropertyOp1
 70
     1
102
RTVSPropertyOp2
 70
     1
102
RTVSPropertyOp3
 70
     1
102
RTVSPropertyOp4
 70
     1
102
RTVSPropertyOp5
 70
     1
102
RTVSPropertyOp6
 70
     1
102
RTVSPropertyOp7
 70
     1
102
RTVSPropertyOp8
 70
     1
102
RTVSPropertyOp9
 70
     1
102
RTVSPropertyOp10
 70
     1
102
RTVSPropertyOp11
 70
     1
102
RTVSPropertyOp12
 70
     1
102
RTVSPropertyOp13
 70
     1
102
RTVSPropertyOp14
 70
     1
102
RTVSPropertyOp15
 70
     1
102
RTVSPropertyOp16
 70
     1
102
RTVSPropertyOp17
 70
     1
102
RTVSPropertyOp18
 70
     1
102
RTVSPropertyOp19
 70
     1
102
RTVSPropertyOp20
 70
     1
102
RTVSPropertyOp21
 70
     1
102
RTVSPropertyOp22
 70
     1
102
RTVSPropertyOp23
 70
     1
102
RTVSPropertyOp24
 70
     1
102
RTVSPropertyOp25
 70
     1
102
RTVSPropertyOp26
 70
     1
102
RTVSPropertyOp27
 70
     1
102
RTVSPropertyOp28
 70
     1
102
RTVSPropertyOp29
 70
     1
102
RTVSPropertyOp30
 70
     1
102
RTVSPropertyOp31
 70
     1
102
RTVSPropertyOp32
 70
     1
  0
XRECORD
  5
8AB
102
{ACAD_REACTORS
330
8AA
102
}
330
8AA
100
AcDbXrecord
280
     1
102
RTVSPropertyOp0
 70
     1
102
RTVSPropertyOp1
 70
     1
102
RTVSPropertyOp2
 70
     1
102
RTVSPropertyOp3
 70
     1
102
RTVSPropertyOp4
 70
     1
102
RTVSPropertyOp5
 70
     1
102
RTVSPropertyOp6
 70
     1
102
RTVSPropertyOp7
 70
     1
102
RTVSPropertyOp8
 70
     1
102
RTVSPropertyOp9
 70
     1
102
RTVSPropertyOp10
 70
     1
102
RTVSPropertyOp11
 70
     1
102
RTVSPropertyOp12
 70
     1
102
RTVSPropertyOp13
 70
     1
102
RTVSPropertyOp14
 70
     1
102
RTVSPropertyOp15
 70
     1
102
RTVSPropertyOp16
 70
     1
102
RTVSPropertyOp17
 70
     1
102
RTVSPropertyOp18
 70
     1
102
RTVSPropertyOp19
 70
     1
102
RTVSPropertyOp20
 70
     1
102
RTVSPropertyOp21
 70
     1
102
RTVSPropertyOp22
 70
     1
102
RTVSPropertyOp23
 70
     1
102
RTVSPropertyOp24
 70
     1
102
RTVSPropertyOp25
 70
     1
102
RTVSPropertyOp26
 70
     1
102
RTVSPropertyOp27
 70
     1
102
RTVSPropertyOp28
 70
     1
102
RTVSPropertyOp29
 70
     1
102
RTVSPropertyOp30
 70
     1
102
RTVSPropertyOp31
 70
     1
102
RTVSPropertyOp32
 70
     1
  0
XRECORD
  5
8B3
102
{ACAD_REACTORS
330
8B2
102
}
330
8B2
100
AcDbXrecord
280
     1
102
RTVSPropertyOp0
 70
     1
102
RTVSPropertyOp1
 70
     1
102
RTVSPropertyOp2
 70
     1
102
RTVSPropertyOp3
 70
     1
102
RTVSPropertyOp4
 70
     1
102
RTVSPropertyOp5
 70
     1
102
RTVSPropertyOp6
 70
     1
102
RTVSPropertyOp7
 70
     1
102
RTVSPropertyOp8
 70
     1
102
RTVSPropertyOp9
 70
     1
102
RTVSPropertyOp10
 70
     1
102
RTVSPropertyOp11
 70
     1
102
RTVSPropertyOp12
 70
     1
102
RTVSPropertyOp13
 70
     1
102
RTVSPropertyOp14
 70
     1
102
RTVSPropertyOp15
 70
     1
102
RTVSPropertyOp16
 70
     1
102
RTVSPropertyOp17
 70
     1
102
RTVSPropertyOp18
 70
     1
102
RTVSPropertyOp19
 70
     1
102
RTVSPropertyOp20
 70
     1
102
RTVSPropertyOp21
 70
     1
102
RTVSPropertyOp22
 70
     1
102
RTVSPropertyOp23
 70
     1
102
RTVSPropertyOp24
 70
     1
102
RTVSPropertyOp25
 70
     1
102
RTVSPropertyOp26
 70
     1
102
RTVSPropertyOp27
 70
     1
102
RTVSPropertyOp28
 70
     1
102
RTVSPropertyOp29
 70
     1
102
RTVSPropertyOp30
 70
     1
102
RTVSPropertyOp31
 70
     1
102
RTVSPropertyOp32
 70
     1
  0
XRECORD
  5
8A5
102
{ACAD_REACTORS
330
8A4
102
}
330
8A4
100
AcDbXrecord
280
     1
102
RTVSPropertyOp0
 70
     1
102
RTVSPropertyOp1
 70
     1
102
RTVSPropertyOp2
 70
     1
102
RTVSPropertyOp3
 70
     1
102
RTVSPropertyOp4
 70
     1
102
RTVSPropertyOp5
 70
     1
102
RTVSPropertyOp6
 70
     1
102
RTVSPropertyOp7
 70
     1
102
RTVSPropertyOp8
 70
     1
102
RTVSPropertyOp9
 70
     1
102
RTVSPropertyOp10
 70
     1
102
RTVSPropertyOp11
 70
     1
102
RTVSPropertyOp12
 70
     1
102
RTVSPropertyOp13
 70
     1
102
RTVSPropertyOp14
 70
     1
102
RTVSPropertyOp15
 70
     1
102
RTVSPropertyOp16
 70
     1
102
RTVSPropertyOp17
 70
     1
102
RTVSPropertyOp18
 70
     1
102
RTVSPropertyOp19
 70
     1
102
RTVSPropertyOp20
 70
     1
102
RTVSPropertyOp21
 70
     1
102
RTVSPropertyOp22
 70
     1
102
RTVSPropertyOp23
 70
     1
102
RTVSPropertyOp24
 70
     1
102
RTVSPropertyOp25
 70
     1
102
RTVSPropertyOp26
 70
     1
102
RTVSPropertyOp27
 70
     1
102
RTVSPropertyOp28
 70
     1
102
RTVSPropertyOp29
 70
     1
102
RTVSPropertyOp30
 70
     1
102
RTVSPropertyOp31
 70
     1
102
RTVSPropertyOp32
 70
     1
  0
XRECORD
  5
8A9
102
{ACAD_REACTORS
330
8A8
102
}
330
8A8
100
AcDbXrecord
280
     1
102
RTVSPropertyOp0
 70
     1
102
RTVSPropertyOp1
 70
     1
102
RTVSPropertyOp2
 70
     1
102
RTVSPropertyOp3
 70
     1
102
RTVSPropertyOp4
 70
     1
102
RTVSPropertyOp5
 70
     1
102
RTVSPropertyOp6
 70
     1
102
RTVSPropertyOp7
 70
     1
102
RTVSPropertyOp8
 70
     1
102
RTVSPropertyOp9
 70
     1
102
RTVSPropertyOp10
 70
     1
102
RTVSPropertyOp11
 70
     1
102
RTVSPropertyOp12
 70
     1
102
RTVSPropertyOp13
 70
     1
102
RTVSPropertyOp14
 70
     1
102
RTVSPropertyOp15
 70
     1
102
RTVSPropertyOp16
 70
     1
102
RTVSPropertyOp17
 70
     1
102
RTVSPropertyOp18
 70
     1
102
RTVSPropertyOp19
 70
     1
102
RTVSPropertyOp20
 70
     1
102
RTVSPropertyOp21
 70
     1
102
RTVSPropertyOp22
 70
     1
102
RTVSPropertyOp23
 70
     1
102
RTVSPropertyOp24
 70
     1
102
RTVSPropertyOp25
 70
     1
102
RTVSPropertyOp26
 70
     1
102
RTVSPropertyOp27
 70
     1
102
RTVSPropertyOp28
 70
     1
102
RTVSPropertyOp29
 70
     1
102
RTVSPropertyOp30
 70
     1
102
RTVSPropertyOp31
 70
     1
102
RTVSPropertyOp32
 70
     1
  0
XRECORD
  5
8C3
102
{ACAD_REACTORS
330
8C2
102
}
330
8C2
100
AcDbXrecord
280
     1
102
RTVSPropertyOp0
 70
     0
102
RTVSPropertyOp1
 70
     0
102
RTVSPropertyOp2
 70
     0
102
RTVSPropertyOp3
 70
     0
102
RTVSPropertyOp4
 70
     0
102
RTVSPropertyOp5
 70
     0
102
RTVSPropertyOp6
 70
     0
102
RTVSPropertyOp7
 70
     0
102
RTVSPropertyOp8
 70
     0
102
RTVSPropertyOp9
 70
     0
102
RTVSPropertyOp10
 70
     0
102
RTVSPropertyOp11
 70
     0
102
RTVSPropertyOp12
 70
     0
102
RTVSPropertyOp13
 70
     0
102
RTVSPropertyOp14
 70
     2
102
RTVSPropertyOp15
 70
     0
102
RTVSPropertyOp16
 70
     0
102
RTVSPropertyOp17
 70
     0
102
RTVSPropertyOp18
 70
     0
102
RTVSPropertyOp19
 70
     0
102
RTVSPropertyOp20
 70
     0
102
RTVSPropertyOp21
 70
     0
102
RTVSPropertyOp22
 70
     0
102
RTVSPropertyOp23
 70
     0
102
RTVSPropertyOp24
 70
     0
102
RTVSPropertyOp25
 70
     0
102
RTVSPropertyOp26
 70
     0
102
RTVSPropertyOp27
 70
     0
102
RTVSPropertyOp28
 70
     1
102
RTVSPropertyOp29
 70
     1
102
RTVSPropertyOp30
 70
     1
102
RTVSPropertyOp31
 70
     1
102
RTVSPropertyOp32
 70
     1
  0
XRECORD
  5
8B1
102
{ACAD_REACTORS
330
8B0
102
}
330
8B0
100
AcDbXrecord
280
     1
102
RTVSPropertyOp0
 70
     1
102
RTVSPropertyOp1
 70
     1
102
RTVSPropertyOp2
 70
     1
102
RTVSPropertyOp3
 70
     1
102
RTVSPropertyOp4
 70
     1
102
RTVSPropertyOp5
 70
     1
102
RTVSPropertyOp6
 70
     1
102
RTVSPropertyOp7
 70
     1
102
RTVSPropertyOp8
 70
     1
102
RTVSPropertyOp9
 70
     1
102
RTVSPropertyOp10
 70
     1
102
RTVSPropertyOp11
 70
     1
102
RTVSPropertyOp12
 70
     1
102
RTVSPropertyOp13
 70
     1
102
RTVSPropertyOp14
 70
     1
102
RTVSPropertyOp15
 70
     1
102
RTVSPropertyOp16
 70
     1
102
RTVSPropertyOp17
 70
     1
102
RTVSPropertyOp18
 70
     1
102
RTVSPropertyOp19
 70
     1
102
RTVSPropertyOp20
 70
     1
102
RTVSPropertyOp21
 70
     1
102
RTVSPropertyOp22
 70
     1
102
RTVSPropertyOp23
 70
     1
102
RTVSPropertyOp24
 70
     1
102
RTVSPropertyOp25
 70
     1
102
RTVSPropertyOp26
 70
     1
102
RTVSPropertyOp27
 70
     1
102
RTVSPropertyOp28
 70
     1
102
RTVSPropertyOp29
 70
     1
102
RTVSPropertyOp30
 70
     1
102
RTVSPropertyOp31
 70
     1
102
RTVSPropertyOp32
 70
     1
  0
XRECORD
  5
895
102
{ACAD_REACTORS
330
894
102
}
330
894
100
AcDbXrecord
280
     1
102
RTVSPropertyOp0
 70
     1
102
RTVSPropertyOp1
 70
     1
102
RTVSPropertyOp2
 70
     1
102
RTVSPropertyOp3
 70
     1
102
RTVSPropertyOp4
 70
     1
102
RTVSPropertyOp5
 70
     1
102
RTVSPropertyOp6
 70
     1
102
RTVSPropertyOp7
 70
     1
102
RTVSPropertyOp8
 70
     1
102
RTVSPropertyOp9
 70
     1
102
RTVSPropertyOp10
 70
     1
102
RTVSPropertyOp11
 70
     1
102
RTVSPropertyOp12
 70
     1
102
RTVSPropertyOp13
 70
     1
102
RTVSPropertyOp14
 70
     1
102
RTVSPropertyOp15
 70
     1
102
RTVSPropertyOp16
 70
     1
102
RTVSPropertyOp17
 70
     1
102
RTVSPropertyOp18
 70
     1
102
RTVSPropertyOp19
 70
     1
102
RTVSPropertyOp20
 70
     1
102
RTVSPropertyOp21
 70
     1
102
RTVSPropertyOp22
 70
     1
102
RTVSPropertyOp23
 70
     1
102
RTVSPropertyOp24
 70
     1
102
RTVSPropertyOp25
 70
     1
102
RTVSPropertyOp26
 70
     1
102
RTVSPropertyOp27
 70
     1
102
RTVSPropertyOp28
 70
     1
102
RTVSPropertyOp29
 70
     1
102
RTVSPropertyOp30
 70
     1
102
RTVSPropertyOp31
 70
     1
102
RTVSPropertyOp32
 70
     1
  0
XRECORD
  5
897
102
{ACAD_REACTORS
330
896
102
}
330
896
100
AcDbXrecord
280
     1
102
RTVSPropertyOp0
 70
     1
102
RTVSPropertyOp1
 70
     1
102
RTVSPropertyOp2
 70
     1
102
RTVSPropertyOp3
 70
     1
102
RTVSPropertyOp4
 70
     1
102
RTVSPropertyOp5
 70
     1
102
RTVSPropertyOp6
 70
     1
102
RTVSPropertyOp7
 70
     1
102
RTVSPropertyOp8
 70
     1
102
RTVSPropertyOp9
 70
     1
102
RTVSPropertyOp10
 70
     1
102
RTVSPropertyOp11
 70
     1
102
RTVSPropertyOp12
 70
     1
102
RTVSPropertyOp13
 70
     1
102
RTVSPropertyOp14
 70
     1
102
RTVSPropertyOp15
 70
     1
102
RTVSPropertyOp16
 70
     1
102
RTVSPropertyOp17
 70
     1
102
RTVSPropertyOp18
 70
     1
102
RTVSPropertyOp19
 70
     1
102
RTVSPropertyOp20
 70
     1
102
RTVSPropertyOp21
 70
     1
102
RTVSPropertyOp22
 70
     1
102
RTVSPropertyOp23
 70
     1
102
RTVSPropertyOp24
 70
     1
102
RTVSPropertyOp25
 70
     1
102
RTVSPropertyOp26
 70
     1
102
RTVSPropertyOp27
 70
     1
102
RTVSPropertyOp28
 70
     1
102
RTVSPropertyOp29
 70
     1
102
RTVSPropertyOp30
 70
     1
102
RTVSPropertyOp31
 70
     1
102
RTVSPropertyOp32
 70
     1
  0
XRECORD
  5
899
102
{ACAD_REACTORS
330
898
102
}
330
898
100
AcDbXrecord
280
     1
102
RTVSPropertyOp0
 70
     1
102
RTVSPropertyOp1
 70
     1
102
RTVSPropertyOp2
 70
     1
102
RTVSPropertyOp3
 70
     1
102
RTVSPropertyOp4
 70
     1
102
RTVSPropertyOp5
 70
     1
102
RTVSPropertyOp6
 70
     1
102
RTVSPropertyOp7
 70
     1
102
RTVSPropertyOp8
 70
     1
102
RTVSPropertyOp9
 70
     1
102
RTVSPropertyOp10
 70
     1
102
RTVSPropertyOp11
 70
     1
102
RTVSPropertyOp12
 70
     1
102
RTVSPropertyOp13
 70
     1
102
RTVSPropertyOp14
 70
     1
102
RTVSPropertyOp15
 70
     1
102
RTVSPropertyOp16
 70
     1
102
RTVSPropertyOp17
 70
     1
102
RTVSPropertyOp18
 70
     1
102
RTVSPropertyOp19
 70
     1
102
RTVSPropertyOp20
 70
     1
102
RTVSPropertyOp21
 70
     1
102
RTVSPropertyOp22
 70
     1
102
RTVSPropertyOp23
 70
     1
102
RTVSPropertyOp24
 70
     1
102
RTVSPropertyOp25
 70
     1
102
RTVSPropertyOp26
 70
     1
102
RTVSPropertyOp27
 70
     1
102
RTVSPropertyOp28
 70
     1
102
RTVSPropertyOp29
 70
     1
102
RTVSPropertyOp30
 70
     1
102
RTVSPropertyOp31
 70
     1
102
RTVSPropertyOp32
 70
     1
  0
XRECORD
  5
89B
102
{ACAD_REACTORS
330
89A
102
}
330
89A
100
AcDbXrecord
280
     1
102
RTVSPropertyOp0
 70
     1
102
RTVSPropertyOp1
 70
     1
102
RTVSPropertyOp2
 70
     1
102
RTVSPropertyOp3
 70
     1
102
RTVSPropertyOp4
 70
     1
102
RTVSPropertyOp5
 70
     1
102
RTVSPropertyOp6
 70
     1
102
RTVSPropertyOp7
 70
     1
102
RTVSPropertyOp8
 70
     1
102
RTVSPropertyOp9
 70
     1
102
RTVSPropertyOp10
 70
     1
102
RTVSPropertyOp11
 70
     1
102
RTVSPropertyOp12
 70
     1
102
RTVSPropertyOp13
 70
     1
102
RTVSPropertyOp14
 70
     1
102
RTVSPropertyOp15
 70
     1
102
RTVSPropertyOp16
 70
     1
102
RTVSPropertyOp17
 70
     1
102
RTVSPropertyOp18
 70
     1
102
RTVSPropertyOp19
 70
     1
102
RTVSPropertyOp20
 70
     1
102
RTVSPropertyOp21
 70
     1
102
RTVSPropertyOp22
 70
     1
102
RTVSPropertyOp23
 70
     1
102
RTVSPropertyOp24
 70
     1
102
RTVSPropertyOp25
 70
     1
102
RTVSPropertyOp26
 70
     1
102
RTVSPropertyOp27
 70
     1
102
RTVSPropertyOp28
 70
     1
102
RTVSPropertyOp29
 70
     1
102
RTVSPropertyOp30
 70
     1
102
RTVSPropertyOp31
 70
     1
102
RTVSPropertyOp32
 70
     1
  0
XRECORD
  5
8A3
102
{ACAD_REACTORS
330
8A2
102
}
330
8A2
100
AcDbXrecord
280
     1
102
RTVSPropertyOp0
 70
     1
102
RTVSPropertyOp1
 70
     1
102
RTVSPropertyOp2
 70
     1
102
RTVSPropertyOp3
 70
     1
102
RTVSPropertyOp4
 70
     1
102
RTVSPropertyOp5
 70
     1
102
RTVSPropertyOp6
 70
     1
102
RTVSPropertyOp7
 70
     1
102
RTVSPropertyOp8
 70
     1
102
RTVSPropertyOp9
 70
     1
102
RTVSPropertyOp10
 70
     1
102
RTVSPropertyOp11
 70
     1
102
RTVSPropertyOp12
 70
     1
102
RTVSPropertyOp13
 70
     1
102
RTVSPropertyOp14
 70
     1
102
RTVSPropertyOp15
 70
     1
102
RTVSPropertyOp16
 70
     1
102
RTVSPropertyOp17
 70
     1
102
RTVSPropertyOp18
 70
     1
102
RTVSPropertyOp19
 70
     1
102
RTVSPropertyOp20
 70
     1
102
RTVSPropertyOp21
 70
     1
102
RTVSPropertyOp22
 70
     1
102
RTVSPropertyOp23
 70
     1
102
RTVSPropertyOp24
 70
     1
102
RTVSPropertyOp25
 70
     1
102
RTVSPropertyOp26
 70
     1
102
RTVSPropertyOp27
 70
     1
102
RTVSPropertyOp28
 70
     1
102
RTVSPropertyOp29
 70
     1
102
RTVSPropertyOp30
 70
     1
102
RTVSPropertyOp31
 70
     1
102
RTVSPropertyOp32
 70
     1
  0
XRECORD
  5
8BF
102
{ACAD_REACTORS
330
8BE
102
}
330
8BE
100
AcDbXrecord
280
     1
102
RTVSPropertyOp0
 70
     0
102
RTVSPropertyOp1
 70
     0
102
RTVSPropertyOp2
 70
     0
102
RTVSPropertyOp3
 70
     0
102
RTVSPropertyOp4
 70
     0
102
RTVSPropertyOp5
 70
     0
102
RTVSPropertyOp6
 70
     0
102
RTVSPropertyOp7
 70
     0
102
RTVSPropertyOp8
 70
     0
102
RTVSPropertyOp9
 70
     0
102
RTVSPropertyOp10
 70
     0
102
RTVSPropertyOp11
 70
     0
102
RTVSPropertyOp12
 70
     0
102
RTVSPropertyOp13
 70
     0
102
RTVSPropertyOp14
 70
     2
102
RTVSPropertyOp15
 70
     0
102
RTVSPropertyOp16
 70
     0
102
RTVSPropertyOp17
 70
     0
102
RTVSPropertyOp18
 70
     0
102
RTVSPropertyOp19
 70
     0
102
RTVSPropertyOp20
 70
     0
102
RTVSPropertyOp21
 70
     0
102
RTVSPropertyOp22
 70
     0
102
RTVSPropertyOp23
 70
     0
102
RTVSPropertyOp24
 70
     0
102
RTVSPropertyOp25
 70
     0
102
RTVSPropertyOp26
 70
     0
102
RTVSPropertyOp27
 70
     0
102
RTVSPropertyOp28
 70
     1
102
RTVSPropertyOp29
 70
     1
102
RTVSPropertyOp30
 70
     1
102
RTVSPropertyOp31
 70
     1
102
RTVSPropertyOp32
 70
     1
  0
XRECORD
  5
8AF
102
{ACAD_REACTORS
330
8AE
102
}
330
8AE
100
AcDbXrecord
280
     1
102
RTVSPropertyOp0
 70
     1
102
RTVSPropertyOp1
 70
     1
102
RTVSPropertyOp2
 70
     1
102
RTVSPropertyOp3
 70
     1
102
RTVSPropertyOp4
 70
     1
102
RTVSPropertyOp5
 70
     1
102
RTVSPropertyOp6
 70
     1
102
RTVSPropertyOp7
 70
     1
102
RTVSPropertyOp8
 70
     1
102
RTVSPropertyOp9
 70
     1
102
RTVSPropertyOp10
 70
     1
102
RTVSPropertyOp11
 70
     1
102
RTVSPropertyOp12
 70
     1
102
RTVSPropertyOp13
 70
     1
102
RTVSPropertyOp14
 70
     1
102
RTVSPropertyOp15
 70
     1
102
RTVSPropertyOp16
 70
     1
102
RTVSPropertyOp17
 70
     1
102
RTVSPropertyOp18
 70
     1
102
RTVSPropertyOp19
 70
     1
102
RTVSPropertyOp20
 70
     1
102
RTVSPropertyOp21
 70
     1
102
RTVSPropertyOp22
 70
     1
102
RTVSPropertyOp23
 70
     1
102
RTVSPropertyOp24
 70
     1
102
RTVSPropertyOp25
 70
     1
102
RTVSPropertyOp26
 70
     1
102
RTVSPropertyOp27
 70
     1
102
RTVSPropertyOp28
 70
     1
102
RTVSPropertyOp29
 70
     1
102
RTVSPropertyOp30
 70
     1
102
RTVSPropertyOp31
 70
     1
102
RTVSPropertyOp32
 70
     1
  0
XRECORD
  5
8C1
102
{ACAD_REACTORS
330
8C0
102
}
330
8C0
100
AcDbXrecord
280
     1
102
RTVSPropertyOp0
 70
     0
102
RTVSPropertyOp1
 70
     0
102
RTVSPropertyOp2
 70
     0
102
RTVSPropertyOp3
 70
     0
102
RTVSPropertyOp4
 70
     0
102
RTVSPropertyOp5
 70
     0
102
RTVSPropertyOp6
 70
     0
102
RTVSPropertyOp7
 70
     0
102
RTVSPropertyOp8
 70
     0
102
RTVSPropertyOp9
 70
     0
102
RTVSPropertyOp10
 70
     0
102
RTVSPropertyOp11
 70
     0
102
RTVSPropertyOp12
 70
     0
102
RTVSPropertyOp13
 70
     0
102
RTVSPropertyOp14
 70
     2
102
RTVSPropertyOp15
 70
     0
102
RTVSPropertyOp16
 70
     0
102
RTVSPropertyOp17
 70
     0
102
RTVSPropertyOp18
 70
     0
102
RTVSPropertyOp19
 70
     0
102
RTVSPropertyOp20
 70
     0
102
RTVSPropertyOp21
 70
     0
102
RTVSPropertyOp22
 70
     0
102
RTVSPropertyOp23
 70
     0
102
RTVSPropertyOp24
 70
     0
102
RTVSPropertyOp25
 70
     0
102
RTVSPropertyOp26
 70
     0
102
RTVSPropertyOp27
 70
     0
102
RTVSPropertyOp28
 70
     1
102
RTVSPropertyOp29
 70
     1
102
RTVSPropertyOp30
 70
     1
102
RTVSPropertyOp31
 70
     1
102
RTVSPropertyOp32
 70
     1
  0
XRECORD
  5
8A7
102
{ACAD_REACTORS
330
8A6
102
}
330
8A6
100
AcDbXrecord
280
     1
102
RTVSPropertyOp0
 70
     1
102
RTVSPropertyOp1
 70
     1
102
RTVSPropertyOp2
 70
     1
102
RTVSPropertyOp3
 70
     1
102
RTVSPropertyOp4
 70
     1
102
RTVSPropertyOp5
 70
     1
102
RTVSPropertyOp6
 70
     1
102
RTVSPropertyOp7
 70
     1
102
RTVSPropertyOp8
 70
     1
102
RTVSPropertyOp9
 70
     1
102
RTVSPropertyOp10
 70
     1
102
RTVSPropertyOp11
 70
     1
102
RTVSPropertyOp12
 70
     1
102
RTVSPropertyOp13
 70
     1
102
RTVSPropertyOp14
 70
     1
102
RTVSPropertyOp15
 70
     1
102
RTVSPropertyOp16
 70
     1
102
RTVSPropertyOp17
 70
     1
102
RTVSPropertyOp18
 70
     1
102
RTVSPropertyOp19
 70
     1
102
RTVSPropertyOp20
 70
     1
102
RTVSPropertyOp21
 70
     1
102
RTVSPropertyOp22
 70
     1
102
RTVSPropertyOp23
 70
     1
102
RTVSPropertyOp24
 70
     1
102
RTVSPropertyOp25
 70
     1
102
RTVSPropertyOp26
 70
     1
102
RTVSPropertyOp27
 70
     1
102
RTVSPropertyOp28
 70
     1
102
RTVSPropertyOp29
 70
     1
102
RTVSPropertyOp30
 70
     1
102
RTVSPropertyOp31
 70
     1
102
RTVSPropertyOp32
 70
     1
  0
XRECORD
  5
8BD
102
{ACAD_REACTORS
330
8BC
102
}
330
8BC
100
AcDbXrecord
280
     1
102
RTVSPropertyOp0
 70
     1
102
RTVSPropertyOp1
 70
     1
102
RTVSPropertyOp2
 70
     1
102
RTVSPropertyOp3
 70
     1
102
RTVSPropertyOp4
 70
     1
102
RTVSPropertyOp5
 70
     1
102
RTVSPropertyOp6
 70
     1
102
RTVSPropertyOp7
 70
     1
102
RTVSPropertyOp8
 70
     1
102
RTVSPropertyOp9
 70
     1
102
RTVSPropertyOp10
 70
     1
102
RTVSPropertyOp11
 70
     1
102
RTVSPropertyOp12
 70
     1
102
RTVSPropertyOp13
 70
     1
102
RTVSPropertyOp14
 70
     1
102
RTVSPropertyOp15
 70
     1
102
RTVSPropertyOp16
 70
     1
102
RTVSPropertyOp17
 70
     1
102
RTVSPropertyOp18
 70
     1
102
RTVSPropertyOp19
 70
     1
102
RTVSPropertyOp20
 70
     1
102
RTVSPropertyOp21
 70
     1
102
RTVSPropertyOp22
 70
     1
102
RTVSPropertyOp23
 70
     1
102
RTVSPropertyOp24
 70
     1
102
RTVSPropertyOp25
 70
     1
102
RTVSPropertyOp26
 70
     1
102
RTVSPropertyOp27
 70
     1
102
RTVSPropertyOp28
 70
     1
102
RTVSPropertyOp29
 70
     1
102
RTVSPropertyOp30
 70
     1
102
RTVSPropertyOp31
 70
     1
102
RTVSPropertyOp32
 70
     1
  0
XRECORD
  5
8BB
102
{ACAD_REACTORS
330
8BA
102
}
330
8BA
100
AcDbXrecord
280
     1
102
RTVSPropertyOp0
 70
     1
102
RTVSPropertyOp1
 70
     1
102
RTVSPropertyOp2
 70
     1
102
RTVSPropertyOp3
 70
     1
102
RTVSPropertyOp4
 70
     1
102
RTVSPropertyOp5
 70
     1
102
RTVSPropertyOp6
 70
     1
102
RTVSPropertyOp7
 70
     1
102
RTVSPropertyOp8
 70
     1
102
RTVSPropertyOp9
 70
     1
102
RTVSPropertyOp10
 70
     1
102
RTVSPropertyOp11
 70
     1
102
RTVSPropertyOp12
 70
     1
102
RTVSPropertyOp13
 70
     1
102
RTVSPropertyOp14
 70
     1
102
RTVSPropertyOp15
 70
     1
102
RTVSPropertyOp16
 70
     1
102
RTVSPropertyOp17
 70
     1
102
RTVSPropertyOp18
 70
     1
102
RTVSPropertyOp19
 70
     1
102
RTVSPropertyOp20
 70
     1
102
RTVSPropertyOp21
 70
     1
102
RTVSPropertyOp22
 70
     1
102
RTVSPropertyOp23
 70
     1
102
RTVSPropertyOp24
 70
     1
102
RTVSPropertyOp25
 70
     1
102
RTVSPropertyOp26
 70
     1
102
RTVSPropertyOp27
 70
     1
102
RTVSPropertyOp28
 70
     1
102
RTVSPropertyOp29
 70
     1
102
RTVSPropertyOp30
 70
     1
102
RTVSPropertyOp31
 70
     1
102
RTVSPropertyOp32
 70
     1
  0
XRECORD
  5
8B5
102
{ACAD_REACTORS
330
8B4
102
}
330
8B4
100
AcDbXrecord
280
     1
102
RTVSPropertyOp0
 70
     1
102
RTVSPropertyOp1
 70
     1
102
RTVSPropertyOp2
 70
     1
102
RTVSPropertyOp3
 70
     1
102
RTVSPropertyOp4
 70
     1
102
RTVSPropertyOp5
 70
     1
102
RTVSPropertyOp6
 70
     1
102
RTVSPropertyOp7
 70
     1
102
RTVSPropertyOp8
 70
     1
102
RTVSPropertyOp9
 70
     1
102
RTVSPropertyOp10
 70
     1
102
RTVSPropertyOp11
 70
     1
102
RTVSPropertyOp12
 70
     1
102
RTVSPropertyOp13
 70
     1
102
RTVSPropertyOp14
 70
     1
102
RTVSPropertyOp15
 70
     1
102
RTVSPropertyOp16
 70
     1
102
RTVSPropertyOp17
 70
     1
102
RTVSPropertyOp18
 70
     1
102
RTVSPropertyOp19
 70
     1
102
RTVSPropertyOp20
 70
     1
102
RTVSPropertyOp21
 70
     1
102
RTVSPropertyOp22
 70
     1
102
RTVSPropertyOp23
 70
     1
102
RTVSPropertyOp24
 70
     1
102
RTVSPropertyOp25
 70
     1
102
RTVSPropertyOp26
 70
     1
102
RTVSPropertyOp27
 70
     1
102
RTVSPropertyOp28
 70
     1
102
RTVSPropertyOp29
 70
     1
102
RTVSPropertyOp30
 70
     1
102
RTVSPropertyOp31
 70
     1
102
RTVSPropertyOp32
 70
     1
  0
XRECORD
  5
8B7
102
{ACAD_REACTORS
330
8B6
102
}
330
8B6
100
AcDbXrecord
280
     1
102
RTVSPropertyOp0
 70
     1
102
RTVSPropertyOp1
 70
     1
102
RTVSPropertyOp2
 70
     1
102
RTVSPropertyOp3
 70
     1
102
RTVSPropertyOp4
 70
     1
102
RTVSPropertyOp5
 70
     1
102
RTVSPropertyOp6
 70
     1
102
RTVSPropertyOp7
 70
     1
102
RTVSPropertyOp8
 70
     1
102
RTVSPropertyOp9
 70
     1
102
RTVSPropertyOp10
 70
     1
102
RTVSPropertyOp11
 70
     1
102
RTVSPropertyOp12
 70
     1
102
RTVSPropertyOp13
 70
     1
102
RTVSPropertyOp14
 70
     1
102
RTVSPropertyOp15
 70
     1
102
RTVSPropertyOp16
 70
     1
102
RTVSPropertyOp17
 70
     1
102
RTVSPropertyOp18
 70
     1
102
RTVSPropertyOp19
 70
     1
102
RTVSPropertyOp20
 70
     1
102
RTVSPropertyOp21
 70
     1
102
RTVSPropertyOp22
 70
     1
102
RTVSPropertyOp23
 70
     1
102
RTVSPropertyOp24
 70
     1
102
RTVSPropertyOp25
 70
     1
102
RTVSPropertyOp26
 70
     1
102
RTVSPropertyOp27
 70
     1
102
RTVSPropertyOp28
 70
     1
102
RTVSPropertyOp29
 70
     1
102
RTVSPropertyOp30
 70
     1
102
RTVSPropertyOp31
 70
     1
102
RTVSPropertyOp32
 70
     1
  0
XRECORD
  5
8AD
102
{ACAD_REACTORS
330
8AC
102
}
330
8AC
100
AcDbXrecord
280
     1
102
RTVSPropertyOp0
 70
     1
102
RTVSPropertyOp1
 70
     1
102
RTVSPropertyOp2
 70
     1
102
RTVSPropertyOp3
 70
     1
102
RTVSPropertyOp4
 70
     1
102
RTVSPropertyOp5
 70
     1
102
RTVSPropertyOp6
 70
     1
102
RTVSPropertyOp7
 70
     1
102
RTVSPropertyOp8
 70
     1
102
RTVSPropertyOp9
 70
     1
102
RTVSPropertyOp10
 70
     1
102
RTVSPropertyOp11
 70
     1
102
RTVSPropertyOp12
 70
     1
102
RTVSPropertyOp13
 70
     1
102
RTVSPropertyOp14
 70
     1
102
RTVSPropertyOp15
 70
     1
102
RTVSPropertyOp16
 70
     1
102
RTVSPropertyOp17
 70
     1
102
RTVSPropertyOp18
 70
     1
102
RTVSPropertyOp19
 70
     1
102
RTVSPropertyOp20
 70
     1
102
RTVSPropertyOp21
 70
     1
102
RTVSPropertyOp22
 70
     1
102
RTVSPropertyOp23
 70
     1
102
RTVSPropertyOp24
 70
     1
102
RTVSPropertyOp25
 70
     1
102
RTVSPropertyOp26
 70
     1
102
RTVSPropertyOp27
 70
     1
102
RTVSPropertyOp28
 70
     1
102
RTVSPropertyOp29
 70
     1
102
RTVSPropertyOp30
 70
     1
102
RTVSPropertyOp31
 70
     1
102
RTVSPropertyOp32
 70
     1
  0
XRECORD
  5
8A1
102
{ACAD_REACTORS
330
8A0
102
}
330
8A0
100
AcDbXrecord
280
     1
102
RTVSPropertyOp0
 70
     1
102
RTVSPropertyOp1
 70
     1
102
RTVSPropertyOp2
 70
     1
102
RTVSPropertyOp3
 70
     1
102
RTVSPropertyOp4
 70
     1
102
RTVSPropertyOp5
 70
     1
102
RTVSPropertyOp6
 70
     1
102
RTVSPropertyOp7
 70
     1
102
RTVSPropertyOp8
 70
     1
102
RTVSPropertyOp9
 70
     1
102
RTVSPropertyOp10
 70
     1
102
RTVSPropertyOp11
 70
     1
102
RTVSPropertyOp12
 70
     1
102
RTVSPropertyOp13
 70
     1
102
RTVSPropertyOp14
 70
     1
102
RTVSPropertyOp15
 70
     1
102
RTVSPropertyOp16
 70
     1
102
RTVSPropertyOp17
 70
     1
102
RTVSPropertyOp18
 70
     1
102
RTVSPropertyOp19
 70
     1
102
RTVSPropertyOp20
 70
     1
102
RTVSPropertyOp21
 70
     1
102
RTVSPropertyOp22
 70
     1
102
RTVSPropertyOp23
 70
     1
102
RTVSPropertyOp24
 70
     1
102
RTVSPropertyOp25
 70
     1
102
RTVSPropertyOp26
 70
     1
102
RTVSPropertyOp27
 70
     1
102
RTVSPropertyOp28
 70
     1
102
RTVSPropertyOp29
 70
     1
102
RTVSPropertyOp30
 70
     1
102
RTVSPropertyOp31
 70
     1
102
RTVSPropertyOp32
 70
     1
  0
XRECORD
  5
8B9
102
{ACAD_REACTORS
330
8B8
102
}
330
8B8
100
AcDbXrecord
280
     1
102
RTVSPropertyOp0
 70
     1
102
RTVSPropertyOp1
 70
     1
102
RTVSPropertyOp2
 70
     1
102
RTVSPropertyOp3
 70
     1
102
RTVSPropertyOp4
 70
     1
102
RTVSPropertyOp5
 70
     1
102
RTVSPropertyOp6
 70
     1
102
RTVSPropertyOp7
 70
     1
102
RTVSPropertyOp8
 70
     1
102
RTVSPropertyOp9
 70
     1
102
RTVSPropertyOp10
 70
     1
102
RTVSPropertyOp11
 70
     1
102
RTVSPropertyOp12
 70
     1
102
RTVSPropertyOp13
 70
     1
102
RTVSPropertyOp14
 70
     1
102
RTVSPropertyOp15
 70
     1
102
RTVSPropertyOp16
 70
     1
102
RTVSPropertyOp17
 70
     1
102
RTVSPropertyOp18
 70
     1
102
RTVSPropertyOp19
 70
     1
102
RTVSPropertyOp20
 70
     1
102
RTVSPropertyOp21
 70
     1
102
RTVSPropertyOp22
 70
     1
102
RTVSPropertyOp23
 70
     1
102
RTVSPropertyOp24
 70
     1
102
RTVSPropertyOp25
 70
     1
102
RTVSPropertyOp26
 70
     1
102
RTVSPropertyOp27
 70
     1
102
RTVSPropertyOp28
 70
     1
102
RTVSPropertyOp29
 70
     1
102
RTVSPropertyOp30
 70
     1
102
RTVSPropertyOp31
 70
     1
102
RTVSPropertyOp32
 70
     1
  0
ENDSEC
  0
EOF
