  0
SECTION
  2
HEADER
  9
$ACADVER
  1
AC1015
  9
$ACADMAINTVER
 70
    18
  9
$DWGCODEPAGE
  3
ANSI_1252
  9
$INSBASE
 10
0.0
 20
0.0
 30
0.0
  9
$EXTMIN
 10
0.0
 20
0.0
 30
0.0
  9
$EXTMAX
 10
35.78947368421053
 20
23.1578947368421
 30
0.0
  9
$LIMMIN
 10
0.0
 20
0.0
  9
$LIMMAX
 10
35.78947368421053
 20
23.1578947368421
  9
$ORTHOMODE
 70
     0
  9
$REGENMODE
 70
     1
  9
$FILLMODE
 70
     1
  9
$QTEXTMODE
 70
     0
  9
$MIRRTEXT
 70
     0
  9
$LTSCALE
 40
2.105263157894736
  9
$ATTMODE
 70
     1
  9
$TEXTSIZE
 40
0.2
  9
$TRACEWID
 40
0.05
  9
$TEXTSTYLE
  7
Standard
  9
$CLAYER
  8
0
  9
$CELTYPE
  6
ByLayer
  9
$CECOLOR
 62
   256
  9
$CELTSCALE
 40
1.0
  9
$DISPSILH
 70
     0
  9
$DIMSCALE
 40
1.0
  9
$DIMASZ
 40
0.0708661417322835
  9
$DIMEXO
 40
0.0625
  9
$DIMDLI
 40
0.38
  9
$DIMRND
 40
0.0
  9
$DIMDLE
 40
0.0
  9
$DIMEXE
 40
0.18
  9
$DIMTP
 40
0.0
  9
$DIMTM
 40
0.0
  9
$DIMTXT
 40
0.0708661417322835
  9
$DIMCEN
 40
0.09
  9
$DIMTSZ
 40
0.0
  9
$DIMTOL
 70
     0
  9
$DIMLIM
 70
     0
  9
$DIMTIH
 70
     1
  9
$DIMTOH
 70
     1
  9
$DIMSE1
 70
     0
  9
$DIMSE2
 70
     0
  9
$DIMTAD
 70
     0
  9
$DIMZIN
 70
     0
  9
$DIMBLK
  1

  9
$DIMASO
 70
     1
  9
$DIMSHO
 70
     1
  9
$DIMPOST
  1

  9
$DIMAPOST
  1

  9
$DIMALT
 70
     0
  9
$DIMALTD
 70
     2
  9
$DIMALTF
 40
25.4
  9
$DIMLFAC
 40
1.0
  9
$DIMTOFL
 70
     0
  9
$DIMTVP
 40
0.0
  9
$DIMTIX
 70
     0
  9
$DIMSOXD
 70
     0
  9
$DIMSAH
 70
     0
  9
$DIMBLK1
  1

  9
$DIMBLK2
  1

  9
$DIMSTYLE
  2
STANDARD
  9
$DIMCLRD
 70
     0
  9
$DIMCLRE
 70
     0
  9
$DIMCLRT
 70
     0
  9
$DIMTFAC
 40
1.0
  9
$DIMGAP
 40
0.09
  9
$DIMJUST
 70
     0
  9
$DIMSD1
 70
     0
  9
$DIMSD2
 70
     0
  9
$DIMTOLJ
 70
     1
  9
$DIMTZIN
 70
     0
  9
$DIMALTZ
 70
     0
  9
$DIMALTTZ
 70
     0
  9
$DIMUPT
 70
     0
  9
$DIMDEC
 70
     4
  9
$DIMTDEC
 70
     4
  9
$DIMALTU
 70
     2
  9
$DIMALTTD
 70
     2
  9
$DIMTXSTY
  7
Standard
  9
$DIMAUNIT
 70
     0
  9
$DIMADEC
 70
     0
  9
$DIMALTRND
 40
0.0
  9
$DIMAZIN
 70
     0
  9
$DIMDSEP
 70
    46
  9
$DIMATFIT
 70
     3
  9
$DIMFRAC
 70
     0
  9
$DIMLDRBLK
  1

  9
$DIMLUNIT
 70
     2
  9
$DIMLWD
 70
    -2
  9
$DIMLWE
 70
    -2
  9
$DIMTMOVE
 70
     0
  9
$LUNITS
 70
     2
  9
$LUPREC
 70
     4
  9
$SKETCHINC
 40
0.1
  9
$FILLETRAD
 40
0.0
  9
$AUNITS
 70
     0
  9
$AUPREC
 70
     0
  9
$MENU
  1
.
  9
$ELEVATION
 40
0.0
  9
$PELEVATION
 40
0.0
  9
$THICKNESS
 40
0.0
  9
$LIMCHECK
 70
     0
  9
$CHAMFERA
 40
0.0
  9
$CHAMFERB
 40
0.0
  9
$CHAMFERC
 40
0.0
  9
$CHAMFERD
 40
0.0
  9
$SKPOLY
 70
     0
  9
$TDCREATE
 40
2455952.395563472
  9
$TDUCREATE
 40
2455952.645563472
  9
$TDUPDATE
 40
2455952.395563472
  9
$TDUUPDATE
 40
2455952.645563472
  9
$TDINDWG
 40
0.0000354514
  9
$TDUSRTIMER
 40
0.0000354514
  9
$USRTIMER
 70
     1
  9
$ANGBASE
 50
0.0
  9
$ANGDIR
 70
     0
  9
$PDMODE
 70
     0
  9
$PDSIZE
 40
0.0
  9
$PLINEWID
 40
0.0
  9
$SPLFRAME
 70
     0
  9
$SPLINETYPE
 70
     6
  9
$SPLINESEGS
 70
     8
  9
$HANDSEED
  5
8E9
  9
$SURFTAB1
 70
     6
  9
$SURFTAB2
 70
     6
  9
$SURFTYPE
 70
     6
  9
$SURFU
 70
     6
  9
$SURFV
 70
     6
  9
$UCSBASE
  2

  9
$UCSNAME
  2

  9
$UCSORG
 10
0.0
 20
0.0
 30
0.0
  9
$UCSXDIR
 10
1.0
 20
0.0
 30
0.0
  9
$UCSYDIR
 10
0.0
 20
1.0
 30
0.0
  9
$UCSORTHOREF
  2

  9
$UCSORTHOVIEW
 70
     0
  9
$UCSORGTOP
 10
0.0
 20
0.0
 30
0.0
  9
$UCSORGBOTTOM
 10
0.0
 20
0.0
 30
0.0
  9
$UCSORGLEFT
 10
0.0
 20
0.0
 30
0.0
  9
$UCSORGRIGHT
 10
0.0
 20
0.0
 30
0.0
  9
$UCSORGFRONT
 10
0.0
 20
0.0
 30
0.0
  9
$UCSORGBACK
 10
0.0
 20
0.0
 30
0.0
  9
$PUCSBASE
  2

  9
$PUCSNAME
  2

  9
$PUCSORG
 10
0.0
 20
0.0
 30
0.0
  9
$PUCSXDIR
 10
1.0
 20
0.0
 30
0.0
  9
$PUCSYDIR
 10
0.0
 20
1.0
 30
0.0
  9
$PUCSORTHOREF
  2

  9
$PUCSORTHOVIEW
 70
     0
  9
$PUCSORGTOP
 10
0.0
 20
0.0
 30
0.0
  9
$PUCSORGBOTTOM
 10
0.0
 20
0.0
 30
0.0
  9
$PUCSORGLEFT
 10
0.0
 20
0.0
 30
0.0
  9
$PUCSORGRIGHT
 10
0.0
 20
0.0
 30
0.0
  9
$PUCSORGFRONT
 10
0.0
 20
0.0
 30
0.0
  9
$PUCSORGBACK
 10
0.0
 20
0.0
 30
0.0
  9
$USERI1
 70
     0
  9
$USERI2
 70
     0
  9
$USERI3
 70
     0
  9
$USERI4
 70
     0
  9
$USERI5
 70
     0
  9
$USERR1
 40
0.0
  9
$USERR2
 40
0.0
  9
$USERR3
 40
0.0
  9
$USERR4
 40
0.0
  9
$USERR5
 40
0.0
  9
$WORLDVIEW
 70
     1
  9
$SHADEDGE
 70
     3
  9
$SHADEDIF
 70
    70
  9
$TILEMODE
 70
     1
  9
$MAXACTVP
 70
    64
  9
$PINSBASE
 10
0.0
 20
0.0
 30
0.0
  9
$PLIMCHECK
 70
     0
  9
$PEXTMIN
 10
0.0
 20
0.0
 30
0.0
  9
$PEXTMAX
 10
35.78947368421053
 20
23.1578947368421
 30
0.0
  9
$PLIMMIN
 10
0.0
 20
0.0
  9
$PLIMMAX
 10
35.78947368421053
 20
23.1578947368421
  9
$UNITMODE
 70
     0
  9
$VISRETAIN
 70
     1
  9
$PLINEGEN
 70
     0
  9
$PSLTSCALE
 70
     1
  9
$TREEDEPTH
 70
  3020
  9
$CMLSTYLE
  2
Standard
  9
$CMLJUST
 70
     0
  9
$CMLSCALE
 40
1.0
  9
$PROXYGRAPHICS
 70
     1
  9
$MEASUREMENT
 70
     0
  9
$CELWEIGHT
370
    -1
  9
$ENDCAPS
280
     0
  9
$JOINSTYLE
280
     0
  9
$LWDISPLAY
290
     0
  9
$INSUNITS
 70
     1
  9
$HYPERLINKBASE
  1

  9
$STYLESHEET
  1

  9
$XEDIT
290
     1
  9
$CEPSNTYPE
380
     0
  9
$PSTYLEMODE
290
     1
  9
$FINGERPRINTGUID
  2
{B1928634-05CE-44BB-A785-EA4C3B1A4E57}
  9
$VERSIONGUID
  2
{C0DF118D-E709-4CF9-A58C-51AEE634A1D3}
  9
$EXTNAMES
290
     1
  9
$PSVPSCALE
 40
0.0
  9
$OLESTARTUP
290
     0
  0
ENDSEC
  0
SECTION
  2
CLASSES
  0
CLASS
  1
ACDBDICTIONARYWDFLT
  2
AcDbDictionaryWithDefault
  3
ObjectDBX Classes
 90
        0
280
     0
281
     0
  0
CLASS
  1
MATERIAL
  2
AcDbMaterial
  3
ObjectDBX Classes
 90
     1153
280
     0
281
     0
  0
CLASS
  1
VISUALSTYLE
  2
AcDbVisualStyle
  3
ObjectDBX Classes
 90
     4095
280
     0
281
     0
  0
CLASS
  1
SCALE
  2
AcDbScale
  3
ObjectDBX Classes
 90
     1153
280
     0
281
     0
  0
CLASS
  1
TABLESTYLE
  2
AcDbTableStyle
  3
ObjectDBX Classes
 90
     4095
280
     0
281
     0
  0
CLASS
  1
MLEADERSTYLE
  2
AcDbMLeaderStyle
  3
ACDB_MLEADERSTYLE_CLASS
 90
     4095
280
     0
281
     0
  0
CLASS
  1
DICTIONARYVAR
  2
AcDbDictionaryVar
  3
ObjectDBX Classes
 90
        0
280
     0
281
     0
  0
CLASS
  1
CELLSTYLEMAP
  2
AcDbCellStyleMap
  3
ObjectDBX Classes
 90
     1152
280
     0
281
     0
  0
CLASS
  1
ACDBPLACEHOLDER
  2
AcDbPlaceHolder
  3
ObjectDBX Classes
 90
        0
280
     0
281
     0
  0
CLASS
  1
LAYOUT
  2
AcDbLayout
  3
ObjectDBX Classes
 90
        0
280
     0
281
     0
  0
ENDSEC
  0
SECTION
  2
TABLES
  0
TABLE
  2
VPORT
  5
8
330
0
100
AcDbSymbolTable
 70
     1
  0
VPORT
  5
57
330
8
100
AcDbSymbolTableRecord
100
AcDbViewportTableRecord
  2
*Active
 70
     0
 10
0.0
 20
0.0
 11
1.0
 21
1.0
 12
17.89473684210526
 22
11.57894736842105
 13
0.0
 23
0.0
 14
1.0
 24
1.0
 15
0.0
 25
0.0
 16
0.0
 26
0.0
 36
1.0
 17
0.0
 27
0.0
 37
0.0
 40
23.1578947368421
 41
1.545454545454545
 42
50.0
 43
0.0
 44
0.0
 50
0.0
 51
0.0
 71
     0
 72
   100
 73
     1
 74
     1
 75
     0
 76
     0
 77
     0
 78
     0
281
     0
 65
     1
110
0.0
120
0.0
130
0.0
111
1.0
121
0.0
131
0.0
112
0.0
122
1.0
132
0.0
 79
     0
146
0.0
  0
ENDTAB
  0
TABLE
  2
LTYPE
  5
5
330
0
100
AcDbSymbolTable
 70
    59
  0
LTYPE
  5
5B
330
5
100
AcDbSymbolTableRecord
100
AcDbLinetypeTableRecord
  2
ByBlock
 70
     0
  3

 72
    65
 73
     0
 40
0.0
  0
LTYPE
  5
5C
330
5
100
AcDbSymbolTableRecord
100
AcDbLinetypeTableRecord
  2
ByLayer
 70
     0
  3

 72
    65
 73
     0
 40
0.0
  0
LTYPE
  5
5D
330
5
100
AcDbSymbolTableRecord
100
AcDbLinetypeTableRecord
  2
Continuous
 70
     0
  3
Solid line
 72
    65
 73
     0
 40
0.0
  0
LTYPE
  5
7C
330
5
100
AcDbSymbolTableRecord
100
AcDbLinetypeTableRecord
  2
BY_STANDARD
 70
     0
  3
By Standard ____________    ____    ____   _
 72
    65
 73
     6
 40
1.240299999999999
 49
0.6614
 74
     0
 49
-0.0827
 74
     0
 49
0.1654
 74
     0
 49
-0.0827
 74
     0
 49
0.1654
 74
     0
 49
-0.0827
 74
     0
  0
LTYPE
  5
7D
330
5
100
AcDbSymbolTableRecord
100
AcDbLinetypeTableRecord
  2
CHAIN
 70
     0
  3
Chain ____ _ ____ _ ____ _ ____ _ ____ _ ____
 72
    65
 73
     4
 40
0.7087
 49
0.4724000000000001
 74
     0
 49
-0.0591
 74
     0
 49
0.1181
 74
     0
 49
-0.0591
 74
     0
  0
LTYPE
  5
7E
330
5
100
AcDbSymbolTableRecord
100
AcDbLinetypeTableRecord
  2
DASH_DOT
 70
     0
  3
Dash dot __ . __ . __ . __ . __ . __ . __ . __
 72
    65
 73
     4
 40
0.37
 49
0.24
 74
     0
 49
-0.06
 74
     0
 49
0.01
 74
     0
 49
-0.06
 74
     0
  0
LTYPE
  5
7F
330
5
100
AcDbSymbolTableRecord
100
AcDbLinetypeTableRecord
  2
DOUBLE_DASH_DOT
 70
     0
  3
Double-Dash Dot __ __ . __ __ . __ __ . __ _
 72
    65
 73
     6
 40
0.4398
 49
0.24
 74
     0
 49
-0.06
 74
     0
 49
0.0098
 74
     0
 49
-0.06
 74
     0
 49
0.01
 74
     0
 49
-0.06
 74
     0
  0
LTYPE
  5
80
330
5
100
AcDbSymbolTableRecord
100
AcDbLinetypeTableRecord
  2
DASH_TRIPLE_DOT
 70
     0
  3
Dash Triple-Dot _ . . . _ . . . _ . . . _
 72
    65
 73
     8
 40
0.51
 49
0.24
 74
     0
 49
-0.06
 74
     0
 49
0.01
 74
     0
 49
-0.06
 74
     0
 49
0.01
 74
     0
 49
-0.06
 74
     0
 49
0.01
 74
     0
 49
-0.06
 74
     0
  0
LTYPE
  5
81
330
5
100
AcDbSymbolTableRecord
100
AcDbLinetypeTableRecord
  2
DASHED
 70
     0
  3
Dashed __ __ __ __ __ __ __ __ __ __ __ __ __ _
 72
    65
 73
     2
 40
0.2067
 49
0.1654
 74
     0
 49
-0.0413
 74
     0
  0
LTYPE
  5
82
330
5
100
AcDbSymbolTableRecord
100
AcDbLinetypeTableRecord
  2
DASH_DOUBLE_DOT
 70
     0
  3
Dash Double-Dot __ . . __ . . __ . . __ . .
 72
    65
 73
     6
 40
0.4398
 49
0.24
 74
     0
 49
-0.06
 74
     0
 49
0.0098
 74
     0
 49
-0.06
 74
     0
 49
0.01
 74
     0
 49
-0.06
 74
     0
  0
LTYPE
  5
83
330
5
100
AcDbSymbolTableRecord
100
AcDbLinetypeTableRecord
  2
DASHED_SPACE
 70
     0
  3
Dashed Space __ __ __ __ __ __ __ __ __ __ __ _
 72
    65
 73
     2
 40
0.2067
 49
0.1654
 74
     0
 49
-0.0413
 74
     0
  0
LTYPE
  5
84
330
5
100
AcDbSymbolTableRecord
100
AcDbLinetypeTableRecord
  2
DOTTED
 70
     0
  3
Dotted . . . . . . . . . . . . . . . . . . . . 
 72
    65
 73
     2
 40
0.0482
 49
0.0069
 74
     0
 49
-0.0413
 74
     0
  0
LTYPE
  5
85
330
5
100
AcDbSymbolTableRecord
100
AcDbLinetypeTableRecord
  2
DOUBLE_DASH_CHAIN
 70
     0
  3
Double-Dash Chain ______  __  __  ______  __  _
 72
    65
 73
     6
 40
1.240299999999999
 49
0.6614
 74
     0
 49
-0.0827
 74
     0
 49
0.1654
 74
     0
 49
-0.0827
 74
     0
 49
0.1654
 74
     0
 49
-0.0827
 74
     0
  0
LTYPE
  5
87
330
5
100
AcDbSymbolTableRecord
100
AcDbLinetypeTableRecord
  2
DOUBLE_DASH_DOUBLE_DOT
 70
     0
  3
Double-Dash Double-dot _ _ . . _ _ . . _
 72
    65
 73
     8
 40
0.7400000000000001
 49
0.24
 74
     0
 49
-0.06
 74
     0
 49
0.24
 74
     0
 49
-0.06
 74
     0
 49
0.01
 74
     0
 49
-0.06
 74
     0
 49
0.01
 74
     0
 49
-0.06
 74
     0
  0
LTYPE
  5
88
330
5
100
AcDbSymbolTableRecord
100
AcDbLinetypeTableRecord
  2
DOUBLE_DASH_TRIPLE_DOT
 70
     0
  3
Double Dash Triple Dot __ __ . . . __ __ . .
 72
    65
 73
    10
 40
0.8100000000000001
 49
0.24
 74
     0
 49
-0.06
 74
     0
 49
0.24
 74
     0
 49
-0.06
 74
     0
 49
0.01
 74
     0
 49
-0.06
 74
     0
 49
0.01
 74
     0
 49
-0.06
 74
     0
 49
0.01
 74
     0
 49
-0.06
 74
     0
  0
LTYPE
  5
89
330
5
100
AcDbSymbolTableRecord
100
AcDbLinetypeTableRecord
  2
LONG_DASH_DOTTED
 70
     0
  3
Long Dash Dotted ____ . ____ . ____ . ____ . _
 72
    65
 73
     4
 40
0.3543
 49
0.2362
 74
     0
 49
-0.0295
 74
     0
 49
0.0591
 74
     0
 49
-0.0295
 74
     0
  0
LTYPE
  5
8A
330
5
100
AcDbSymbolTableRecord
100
AcDbLinetypeTableRecord
  2
LONG_DASH_DOUBLE_DOT
 70
     0
  3
Long Dash Double Dot ________  .  .  ________  
 72
    65
 73
     6
 40
0.6799999999999999
 49
0.48
 74
     0
 49
-0.06
 74
     0
 49
0.01
 74
     0
 49
-0.06
 74
     0
 49
0.01
 74
     0
 49
-0.06
 74
     0
  0
LTYPE
  5
8B
330
5
100
AcDbSymbolTableRecord
100
AcDbLinetypeTableRecord
  2
LONG_DASH_TRIPLE_DOT
 70
     0
  3
Long Dash Triple Dot ____ ... ____ ... ____
 72
    65
 73
     8
 40
0.3689
 49
0.2362
 74
     0
 49
-0.0295
 74
     0
 49
0.0049
 74
     0
 49
-0.0295
 74
     0
 49
0.0049
 74
     0
 49
-0.0295
 74
     0
 49
0.0049
 74
     0
 49
-0.0295
 74
     0
  0
LTYPE
  5
8C
330
5
100
AcDbSymbolTableRecord
100
AcDbLinetypeTableRecord
  2
BORDER
 70
     0
  3
Border __ __ . __ __ . __ __ . __ __ . __ __ .
 72
    65
 73
     6
 40
1.75
 49
0.5
 74
     0
 49
-0.25
 74
     0
 49
0.5
 74
     0
 49
-0.25
 74
     0
 49
0.0
 74
     0
 49
-0.25
 74
     0
  0
LTYPE
  5
8D
330
5
100
AcDbSymbolTableRecord
100
AcDbLinetypeTableRecord
  2
BORDER2
 70
     0
  3
Border (.5x) __.__.__.__.__.__.__.__.__.__.__.
 72
    65
 73
     6
 40
0.875
 49
0.25
 74
     0
 49
-0.125
 74
     0
 49
0.25
 74
     0
 49
-0.125
 74
     0
 49
0.0
 74
     0
 49
-0.125
 74
     0
  0
LTYPE
  5
8E
330
5
100
AcDbSymbolTableRecord
100
AcDbLinetypeTableRecord
  2
BORDERX2
 70
     0
  3
Border (2x) ____  ____  .  ____  ____  .  ___
 72
    65
 73
     6
 40
3.5
 49
1.0
 74
     0
 49
-0.5
 74
     0
 49
1.0
 74
     0
 49
-0.5
 74
     0
 49
0.0
 74
     0
 49
-0.5
 74
     0
  0
LTYPE
  5
8F
330
5
100
AcDbSymbolTableRecord
100
AcDbLinetypeTableRecord
  2
CENTER
 70
     0
  3
Center ____ _ ____ _ ____ _ ____ _ ____ _ ____
 72
    65
 73
     4
 40
2.0
 49
1.25
 74
     0
 49
-0.25
 74
     0
 49
0.25
 74
     0
 49
-0.25
 74
     0
  0
LTYPE
  5
90
330
5
100
AcDbSymbolTableRecord
100
AcDbLinetypeTableRecord
  2
CENTER2
 70
     0
  3
Center (.5x) ___ _ ___ _ ___ _ ___ _ ___ _ ___
 72
    65
 73
     4
 40
1.125
 49
0.75
 74
     0
 49
-0.125
 74
     0
 49
0.125
 74
     0
 49
-0.125
 74
     0
  0
LTYPE
  5
91
330
5
100
AcDbSymbolTableRecord
100
AcDbLinetypeTableRecord
  2
CENTERX2
 70
     0
  3
Center (2x) ________  __  ________  __  _____
 72
    65
 73
     4
 40
4.0
 49
2.5
 74
     0
 49
-0.5
 74
     0
 49
0.5
 74
     0
 49
-0.5
 74
     0
  0
LTYPE
  5
92
330
5
100
AcDbSymbolTableRecord
100
AcDbLinetypeTableRecord
  2
DASHDOT2
 70
     0
  3
Dash dot (.5x) _._._._._._._._._._._._._._._.
 72
    65
 73
     4
 40
0.5
 49
0.25
 74
     0
 49
-0.125
 74
     0
 49
0.0
 74
     0
 49
-0.125
 74
     0
  0
LTYPE
  5
93
330
5
100
AcDbSymbolTableRecord
100
AcDbLinetypeTableRecord
  2
DASHDOTX2
 70
     0
  3
Dash dot (2x) ____  .  ____  .  ____  .  ___
 72
    65
 73
     4
 40
2.0
 49
1.0
 74
     0
 49
-0.5
 74
     0
 49
0.0
 74
     0
 49
-0.5
 74
     0
  0
LTYPE
  5
95
330
5
100
AcDbSymbolTableRecord
100
AcDbLinetypeTableRecord
  2
DASHED2
 70
     0
  3
Dashed (.5x) _ _ _ _ _ _ _ _ _ _ _ _ _ _ _ _ _
 72
    65
 73
     2
 40
0.375
 49
0.25
 74
     0
 49
-0.125
 74
     0
  0
LTYPE
  5
96
330
5
100
AcDbSymbolTableRecord
100
AcDbLinetypeTableRecord
  2
DASHEDX2
 70
     0
  3
Dashed (2x) ____  ____  ____  ____  ____  ___
 72
    65
 73
     2
 40
1.5
 49
1.0
 74
     0
 49
-0.5
 74
     0
  0
LTYPE
  5
97
330
5
100
AcDbSymbolTableRecord
100
AcDbLinetypeTableRecord
  2
DIVIDE
 70
     0
  3
Divide ____ . . ____ . . ____ . . ____ . . ____
 72
    65
 73
     6
 40
1.25
 49
0.5
 74
     0
 49
-0.25
 74
     0
 49
0.0
 74
     0
 49
-0.25
 74
     0
 49
0.0
 74
     0
 49
-0.25
 74
     0
  0
LTYPE
  5
98
330
5
100
AcDbSymbolTableRecord
100
AcDbLinetypeTableRecord
  2
DIVIDE2
 70
     0
  3
Divide (.5x) __..__..__..__..__..__..__..__.._
 72
    65
 73
     6
 40
0.625
 49
0.25
 74
     0
 49
-0.125
 74
     0
 49
0.0
 74
     0
 49
-0.125
 74
     0
 49
0.0
 74
     0
 49
-0.125
 74
     0
  0
LTYPE
  5
99
330
5
100
AcDbSymbolTableRecord
100
AcDbLinetypeTableRecord
  2
DIVIDEX2
 70
     0
  3
Divide (2x) ________  .  .  ________  .  .  _
 72
    65
 73
     6
 40
2.5
 49
1.0
 74
     0
 49
-0.5
 74
     0
 49
0.0
 74
     0
 49
-0.5
 74
     0
 49
0.0
 74
     0
 49
-0.5
 74
     0
  0
LTYPE
  5
9A
330
5
100
AcDbSymbolTableRecord
100
AcDbLinetypeTableRecord
  2
DOT
 70
     0
  3
Dot . . . . . . . . . . . . . . . . . . . . . .
 72
    65
 73
     2
 40
0.25
 49
0.0
 74
     0
 49
-0.25
 74
     0
  0
LTYPE
  5
9B
330
5
100
AcDbSymbolTableRecord
100
AcDbLinetypeTableRecord
  2
DOT2
 70
     0
  3
Dot (.5x) .....................................
 72
    65
 73
     2
 40
0.125
 49
0.0
 74
     0
 49
-0.125
 74
     0
  0
LTYPE
  5
9C
330
5
100
AcDbSymbolTableRecord
100
AcDbLinetypeTableRecord
  2
DOTX2
 70
     0
  3
Dot (2x) .  .  .  .  .  .  .  .  .  .  .  .  . 
 72
    65
 73
     2
 40
0.5
 49
0.0
 74
     0
 49
-0.5
 74
     0
  0
LTYPE
  5
9D
330
5
100
AcDbSymbolTableRecord
100
AcDbLinetypeTableRecord
  2
HIDDEN
 70
     0
  3
Hidden __ __ __ __ __ __ __ __ __ __ __ __ __ _
 72
    65
 73
     2
 40
0.375
 49
0.25
 74
     0
 49
-0.125
 74
     0
  0
LTYPE
  5
9E
330
5
100
AcDbSymbolTableRecord
100
AcDbLinetypeTableRecord
  2
HIDDEN2
 70
     0
  3
Hidden (.5x) _ _ _ _ _ _ _ _ _ _ _ _ _ _ _ _ _
 72
    65
 73
     2
 40
0.1875
 49
0.125
 74
     0
 49
-0.0625
 74
     0
  0
LTYPE
  5
9F
330
5
100
AcDbSymbolTableRecord
100
AcDbLinetypeTableRecord
  2
HIDDENX2
 70
     0
  3
Hidden (2x) ____ ____ ____ ____ ____ ____ ____
 72
    65
 73
     2
 40
0.75
 49
0.5
 74
     0
 49
-0.25
 74
     0
  0
LTYPE
  5
A0
330
5
100
AcDbSymbolTableRecord
100
AcDbLinetypeTableRecord
  2
PHANTOM
 70
     0
  3
Phantom ______  __  __  ______  __  __  ______
 72
    65
 73
     6
 40
2.5
 49
1.25
 74
     0
 49
-0.25
 74
     0
 49
0.25
 74
     0
 49
-0.25
 74
     0
 49
0.25
 74
     0
 49
-0.25
 74
     0
  0
LTYPE
  5
A1
330
5
100
AcDbSymbolTableRecord
100
AcDbLinetypeTableRecord
  2
PHANTOM2
 70
     0
  3
Phantom (.5x) ___ _ _ ___ _ _ ___ _ _ ___ _ _
 72
    65
 73
     6
 40
1.25
 49
0.625
 74
     0
 49
-0.125
 74
     0
 49
0.125
 74
     0
 49
-0.125
 74
     0
 49
0.125
 74
     0
 49
-0.125
 74
     0
  0
LTYPE
  5
A2
330
5
100
AcDbSymbolTableRecord
100
AcDbLinetypeTableRecord
  2
PHANTOMX2
 70
     0
  3
Phantom (2x) ____________    ____    ____   _
 72
    65
 73
     6
 40
5.0
 49
2.5
 74
     0
 49
-0.5
 74
     0
 49
0.5
 74
     0
 49
-0.5
 74
     0
 49
0.5
 74
     0
 49
-0.5
 74
     0
  0
LTYPE
  5
A3
330
5
100
AcDbSymbolTableRecord
100
AcDbLinetypeTableRecord
  2
ACAD_ISO02W100
 70
     0
  3
ISO dash __ __ __ __ __ __ __ __ __ __ __ __ __
 72
    65
 73
     2
 40
0.59
 49
0.47
 74
     0
 49
-0.12
 74
     0
  0
LTYPE
  5
A4
330
5
100
AcDbSymbolTableRecord
100
AcDbLinetypeTableRecord
  2
ACAD_ISO03W100
 70
     0
  3
ISO dash space __    __    __    __    __    __
 72
    65
 73
     2
 40
1.179999999999999
 49
0.47
 74
     0
 49
-0.71
 74
     0
  0
LTYPE
  5
A5
330
5
100
AcDbSymbolTableRecord
100
AcDbLinetypeTableRecord
  2
ACAD_ISO04W100
 70
     0
  3
ISO long-dash dot ____ . ____ . ____ . ____ . _
 72
    65
 73
     4
 40
1.179999999999999
 49
0.9399999999999998
 74
     0
 49
-0.12
 74
     0
 49
0.0
 74
     0
 49
-0.12
 74
     0
  0
LTYPE
  5
A6
330
5
100
AcDbSymbolTableRecord
100
AcDbLinetypeTableRecord
  2
ACAD_ISO05W100
 70
     0
  3
ISO long-dash double-dot ____ .. ____ .. ____ .
 72
    65
 73
     6
 40
1.299999999999999
 49
0.9399999999999998
 74
     0
 49
-0.12
 74
     0
 49
0.0
 74
     0
 49
-0.12
 74
     0
 49
0.0
 74
     0
 49
-0.12
 74
     0
  0
LTYPE
  5
A7
330
5
100
AcDbSymbolTableRecord
100
AcDbLinetypeTableRecord
  2
ACAD_ISO06W100
 70
     0
  3
ISO long-dash triple-dot ____ ... ____ ... ____
 72
    65
 73
     8
 40
1.419999999999999
 49
0.9399999999999998
 74
     0
 49
-0.12
 74
     0
 49
0.0
 74
     0
 49
-0.12
 74
     0
 49
0.0
 74
     0
 49
-0.12
 74
     0
 49
0.0
 74
     0
 49
-0.12
 74
     0
  0
LTYPE
  5
A8
330
5
100
AcDbSymbolTableRecord
100
AcDbLinetypeTableRecord
  2
ACAD_ISO07W100
 70
     0
  3
ISO dot . . . . . . . . . . . . . . . . . . . .
 72
    65
 73
     2
 40
0.12
 49
0.0
 74
     0
 49
-0.12
 74
     0
  0
LTYPE
  5
A9
330
5
100
AcDbSymbolTableRecord
100
AcDbLinetypeTableRecord
  2
ACAD_ISO08W100
 70
     0
  3
ISO long-dash short-dash ____ __ ____ __ ____ _
 72
    65
 73
     4
 40
0.95
 49
0.47
 74
     0
 49
-0.12
 74
     0
 49
0.24
 74
     0
 49
-0.12
 74
     0
  0
LTYPE
  5
AA
330
5
100
AcDbSymbolTableRecord
100
AcDbLinetypeTableRecord
  2
ACAD_ISO09W100
 70
     0
  3
ISO long-dash double-short-dash ____ __ __ ____
 72
    65
 73
     6
 40
1.31
 49
0.47
 74
     0
 49
-0.12
 74
     0
 49
0.24
 74
     0
 49
-0.12
 74
     0
 49
0.24
 74
     0
 49
-0.12
 74
     0
  0
LTYPE
  5
AB
330
5
100
AcDbSymbolTableRecord
100
AcDbLinetypeTableRecord
  2
ACAD_ISO10W100
 70
     0
  3
ISO dash dot __ . __ . __ . __ . __ . __ . __ .
 72
    65
 73
     4
 40
0.71
 49
0.47
 74
     0
 49
-0.12
 74
     0
 49
0.0
 74
     0
 49
-0.12
 74
     0
  0
LTYPE
  5
AC
330
5
100
AcDbSymbolTableRecord
100
AcDbLinetypeTableRecord
  2
ACAD_ISO11W100
 70
     0
  3
ISO double-dash dot __ __ . __ __ . __ __ . __ 
 72
    65
 73
     6
 40
1.299999999999999
 49
0.47
 74
     0
 49
-0.12
 74
     0
 49
0.47
 74
     0
 49
-0.12
 74
     0
 49
0.0
 74
     0
 49
-0.12
 74
     0
  0
LTYPE
  5
AD
330
5
100
AcDbSymbolTableRecord
100
AcDbLinetypeTableRecord
  2
ACAD_ISO12W100
 70
     0
  3
ISO dash double-dot __ . . __ . . __ . . __ . .
 72
    65
 73
     6
 40
0.8299999999999998
 49
0.47
 74
     0
 49
-0.12
 74
     0
 49
0.0
 74
     0
 49
-0.12
 74
     0
 49
0.0
 74
     0
 49
-0.12
 74
     0
  0
LTYPE
  5
AE
330
5
100
AcDbSymbolTableRecord
100
AcDbLinetypeTableRecord
  2
ACAD_ISO13W100
 70
     0
  3
ISO double-dash double-dot __ __ . . __ __ . . 
 72
    65
 73
     8
 40
1.419999999999999
 49
0.47
 74
     0
 49
-0.12
 74
     0
 49
0.47
 74
     0
 49
-0.12
 74
     0
 49
0.0
 74
     0
 49
-0.12
 74
     0
 49
0.0
 74
     0
 49
-0.12
 74
     0
  0
LTYPE
  5
AF
330
5
100
AcDbSymbolTableRecord
100
AcDbLinetypeTableRecord
  2
ACAD_ISO14W100
 70
     0
  3
ISO dash triple-dot __ . . . __ . . . __ . . . 
 72
    65
 73
     8
 40
0.95
 49
0.47
 74
     0
 49
-0.12
 74
     0
 49
0.0
 74
     0
 49
-0.12
 74
     0
 49
0.0
 74
     0
 49
-0.12
 74
     0
 49
0.0
 74
     0
 49
-0.12
 74
     0
  0
LTYPE
  5
B0
330
5
100
AcDbSymbolTableRecord
100
AcDbLinetypeTableRecord
  2
ACAD_ISO15W100
 70
     0
  3
ISO double-dash triple-dot __ __ . . . __ __ . 
 72
    65
 73
    10
 40
1.539999999999999
 49
0.47
 74
     0
 49
-0.12
 74
     0
 49
0.47
 74
     0
 49
-0.12
 74
     0
 49
0.0
 74
     0
 49
-0.12
 74
     0
 49
0.0
 74
     0
 49
-0.12
 74
     0
 49
0.0
 74
     0
 49
-0.12
 74
     0
  0
LTYPE
  5
B3
330
5
100
AcDbSymbolTableRecord
100
AcDbLinetypeTableRecord
  2
FENCELINE1
 70
     0
  3
Fenceline circle ----0-----0----0-----0----0---
 72
    65
 73
     4
 40
1.45
 49
0.25
 74
     0
 49
-0.1
 74
     4
 75
   133
340
B2
 46
0.1
 50
0.0
 44
-0.1
 45
0.0
 49
-0.1
 74
     0
 49
1.0
 74
     0
  0
LTYPE
  5
B4
330
5
100
AcDbSymbolTableRecord
100
AcDbLinetypeTableRecord
  2
FENCELINE2
 70
     0
  3
Fenceline square ----[]-----[]----[]-----[]----
 72
    65
 73
     4
 40
1.45
 49
0.25
 74
     0
 49
-0.1
 74
     4
 75
   132
340
B2
 46
0.1
 50
0.0
 44
-0.1
 45
0.0
 49
-0.1
 74
     0
 49
1.0
 74
     0
  0
LTYPE
  5
B5
330
5
100
AcDbSymbolTableRecord
100
AcDbLinetypeTableRecord
  2
TRACKS
 70
     0
  3
Tracks -|-|-|-|-|-|-|-|-|-|-|-|-|-|-|-|-|-|-|-|
 72
    65
 73
     2
 40
0.3
 49
0.15
 74
     4
 75
   130
340
B2
 46
0.25
 50
0.0
 44
0.0
 45
0.0
 49
0.15
 74
     0
  0
LTYPE
  5
B6
330
5
100
AcDbSymbolTableRecord
100
AcDbLinetypeTableRecord
  2
BATTING
 70
     0
  3
Batting SSSSSSSSSSSSSSSSSSSSSSSSSSSSSSSSSSSSSSS
 72
    65
 73
     4
 40
0.4001000000000001
 49
0.0001
 74
     0
 49
-0.1
 74
     4
 75
   134
340
B2
 46
0.1
 50
0.0
 44
-0.1
 45
0.0
 49
-0.2
 74
     4
 75
   134
340
B2
 46
0.1
 50
180.0
 44
0.1
 45
0.0
 49
-0.1
 74
     0
  0
LTYPE
  5
B7
330
5
100
AcDbSymbolTableRecord
100
AcDbLinetypeTableRecord
  2
HOT_WATER_SUPPLY
 70
     0
  3
Hot water supply ---- HW ---- HW ---- HW ----
 72
    65
 73
     3
 40
0.9
 49
0.5
 74
     0
 49
-0.2
 74
     2
 75
     0
340
55
 46
0.1
 50
0.0
 44
-0.1
 45
-0.05
  9
HW
 49
-0.2
 74
     0
  0
LTYPE
  5
B8
330
5
100
AcDbSymbolTableRecord
100
AcDbLinetypeTableRecord
  2
GAS_LINE
 70
     0
  3
Gas line ----GAS----GAS----GAS----GAS----GAS---
 72
    65
 73
     3
 40
0.95
 49
0.5
 74
     0
 49
-0.2
 74
     2
 75
     0
340
55
 46
0.1
 50
0.0
 44
-0.1
 45
-0.05
  9
GAS
 49
-0.25
 74
     0
  0
LTYPE
  5
B9
330
5
100
AcDbSymbolTableRecord
100
AcDbLinetypeTableRecord
  2
ZIGZAG
 70
     0
  3
Zig zag /\/\/\/\/\/\/\/\/\/\/\/\/\/\/\/\/\/\/\/
 72
    65
 73
     4
 40
0.8001000000000001
 49
0.0001
 74
     0
 49
-0.2
 74
     4
 75
   131
340
B2
 46
0.2
 50
0.0
 44
-0.2
 45
0.0
 49
-0.4
 74
     4
 75
   131
340
B2
 46
0.2
 50
180.0
 44
0.2
 45
0.0
 49
-0.2
 74
     0
  0
ENDTAB
  0
TABLE
  2
LAYER
  5
2
330
0
100
AcDbSymbolTable
 70
    27
  0
LAYER
  5
54
330
2
100
AcDbSymbolTableRecord
100
AcDbLayerTableRecord
  2
0
 70
     0
 62
     7
  6
Continuous
370
    18
390
F
  0
LAYER
  5
C3
330
2
100
AcDbSymbolTableRecord
100
AcDbLayerTableRecord
  2
Dimension (ANSI)
 70
     0
 62
     7
  6
Continuous
370
    13
390
F
  0
LAYER
  5
C5
330
2
100
AcDbSymbolTableRecord
100
AcDbLayerTableRecord
  2
Hidden (ANSI)
 70
     0
 62
     7
  6
DASHED
370
    15
390
F
  0
LAYER
  5
CC
330
2
100
AcDbSymbolTableRecord
100
AcDbLayerTableRecord
  2
Symbol (ANSI)
 70
     0
 62
     7
  6
Continuous
370
    18
390
F
  0
LAYER
  5
CF
330
2
100
AcDbSymbolTableRecord
100
AcDbLayerTableRecord
  2
Visible (ANSI)
 70
     0
 62
     7
  6
Continuous
370
    13
390
F
  0
LAYER
  5
D0
330
2
100
AcDbSymbolTableRecord
100
AcDbLayerTableRecord
  2
Visible Narrow (ANSI)
 70
     0
 62
     7
  6
Continuous
370
    18
390
F
  0
LAYER
  5
139
330
2
100
AcDbSymbolTableRecord
100
AcDbLayerTableRecord
  2
Defpoints
 70
     0
 62
     7
  6
Continuous
290
     0
370
    -3
390
F
  0
ENDTAB
  0
TABLE
  2
STYLE
  5
3
330
0
100
AcDbSymbolTable
 70
    18
  0
STYLE
  5
55
330
3
100
AcDbSymbolTableRecord
100
AcDbTextStyleTableRecord
  2
Standard
 70
     0
 40
0.0
 41
1.0
 50
0.0
 71
     0
 42
0.2
  3
txt
  4

  0
STYLE
  5
5A
330
3
100
AcDbSymbolTableRecord
100
AcDbTextStyleTableRecord
  2
Annotative
 70
     0
 40
0.0
 41
1.0
 50
0.0
 71
     0
 42
0.2
  3
txt
  4

1001
AcadAnnotative
1000
AnnotativeData
1002
{
1070
     1
1070
     1
1002
}
  0
STYLE
  5
B2
330
3
100
AcDbSymbolTableRecord
100
AcDbTextStyleTableRecord
  2

 70
     1
 40
0.0
 41
1.0
 50
0.0
 71
     0
 42
0.2
  3
ltypeshp.shx
  4

  0
STYLE
  5
D4
330
3
100
AcDbSymbolTableRecord
100
AcDbTextStyleTableRecord
  2
ITALICC_120
 70
     0
 40
0.0
 41
1.0
 50
0.0
 71
     0
 42
0.2
  3
italicc.shx
  4

  0
STYLE
  5
D5
330
3
100
AcDbSymbolTableRecord
100
AcDbTextStyleTableRecord
  2
Label Text (ANSI)
 70
     0
 40
0.0
 41
1.0
 50
0.0
 71
     0
 42
0.2
  3
TAHOMA.TTF
  4

1001
ACAD
1000
Tahoma
1071
      256
  0
STYLE
  5
D6
330
3
100
AcDbSymbolTableRecord
100
AcDbTextStyleTableRecord
  2
Note Text (ANSI)
 70
     0
 40
0.0
 41
1.0
 50
0.0
 71
     0
 42
0.2
  3
TAHOMA.TTF
  4

1001
ACAD
1000
Tahoma
1071
      256
  0
STYLE
  5
D7
330
3
100
AcDbSymbolTableRecord
100
AcDbTextStyleTableRecord
  2
ROMANS
 70
     0
 40
0.0
 41
1.0
 50
0.0
 71
     0
 42
0.2
  3
romans.shx
  4

  0
STYLE
  5
D8
330
3
100
AcDbSymbolTableRecord
100
AcDbTextStyleTableRecord
  2
SANSSERIF_114
 70
     0
 40
0.0
 41
1.0
 50
0.0
 71
     0
 42
0.2
  3
TAHOMA.TTF
  4

1001
ACAD
1000
Tahoma
1071
      256
  0
STYLE
  5
D9
330
3
100
AcDbSymbolTableRecord
100
AcDbTextStyleTableRecord
  2
SANSSERIF_117
 70
     0
 40
0.0
 41
1.0
 50
0.0
 71
     0
 42
0.2
  3
TAHOMA.TTF
  4

1001
ACAD
1000
Tahoma
1071
      256
  0
STYLE
  5
DA
330
3
100
AcDbSymbolTableRecord
100
AcDbTextStyleTableRecord
  2
STANDARDAM_ANSI
 70
     0
 40
0.0
 41
1.0
 50
0.0
 71
     0
 42
0.2
  3
txt.shx
  4

  0
STYLE
  5
DB
330
3
100
AcDbSymbolTableRecord
100
AcDbTextStyleTableRecord
  2
StandardAM_ANSI$0
 70
     0
 40
0.0
 41
1.0
 50
0.0
 71
     0
 42
0.2
  3
txt.shx
  4

  0
STYLE
  5
DC
330
3
100
AcDbSymbolTableRecord
100
AcDbTextStyleTableRecord
  2
STANDARDAM_ANSI$3
 70
     0
 40
0.0
 41
1.0
 50
0.0
 71
     0
 42
0.2
  3
txt.shx
  4

  0
STYLE
  5
DD
330
3
100
AcDbSymbolTableRecord
100
AcDbTextStyleTableRecord
  2
STANDARDAM_ANSI$4
 70
     0
 40
0.0
 41
1.0
 50
0.0
 71
     0
 42
0.2
  3
txt.shx
  4

  0
STYLE
  5
DE
330
3
100
AcDbSymbolTableRecord
100
AcDbTextStyleTableRecord
  2
STANDARDAM_ANSI$7
 70
     0
 40
0.0
 41
1.0
 50
0.0
 71
     0
 42
0.2
  3
txt.shx
  4

  0
STYLE
  5
DF
330
3
100
AcDbSymbolTableRecord
100
AcDbTextStyleTableRecord
  2
STANDARDAM_ANSI$SF
 70
     0
 40
0.0
 41
1.0
 50
0.0
 71
     0
 42
0.2
  3
txt.shx
  4

  0
STYLE
  5
E0
330
3
100
AcDbSymbolTableRecord
100
AcDbTextStyleTableRecord
  2
STANDARDAM_ANSI$SH
 70
     0
 40
0.0
 41
1.0
 50
0.0
 71
     0
 42
0.2
  3
txt.shx
  4

  0
STYLE
  5
E1
330
3
100
AcDbSymbolTableRecord
100
AcDbTextStyleTableRecord
  2
STANDARDSTANDARD
 70
     0
 40
0.0
 41
1.0
 50
0.0
 71
     0
 42
0.2
  3
txt.shx
  4

  0
STYLE
  5
132
330
3
100
AcDbSymbolTableRecord
100
AcDbTextStyleTableRecord
  2
Text Style150
 70
     0
 40
0.0
 41
1.0
 50
0.0
 71
     0
 42
0.2
  3
TAHOMA.TTF
  4

1001
ACAD
1000
Tahoma
1071
      256
  0
ENDTAB
  0
TABLE
  2
VIEW
  5
6
330
0
100
AcDbSymbolTable
 70
     0
  0
ENDTAB
  0
TABLE
  2
UCS
  5
7
330
0
100
AcDbSymbolTable
 70
     0
  0
ENDTAB
  0
TABLE
  2
APPID
  5
9
330
0
100
AcDbSymbolTable
 70
     4
  0
APPID
  5
56
330
9
100
AcDbSymbolTableRecord
100
AcDbRegAppTableRecord
  2
ACAD
 70
     0
  0
APPID
  5
5E
330
9
100
AcDbSymbolTableRecord
100
AcDbRegAppTableRecord
  2
AcadAnnotative
 70
     0
  0
APPID
  5
6A2
330
9
100
AcDbSymbolTableRecord
100
AcDbRegAppTableRecord
  2
ACAD_DSTYLE_DIMRADIAL_EXTENSION
 70
     0
  0
APPID
  5
8E0
330
9
100
AcDbSymbolTableRecord
100
AcDbRegAppTableRecord
  2
ACAD_MLEADERVER
 70
     0
  0
ENDTAB
  0
TABLE
  2
DIMSTYLE
  5
A
330
0
100
AcDbSymbolTable
 70
    29
100
AcDbDimStyleTable
 71
     3
340
F6
340
58
340
F8
  0
DIMSTYLE
105
58
330
A
100
AcDbSymbolTableRecord
100
AcDbDimStyleTableRecord
  2
STANDARD
 70
     0
 41
0.1800000071525573
 42
0.0625
140
0.1800000071525574
144
1.0
147
0.0900000035762787
176
   256
177
   256
178
   256
274
     3
340
55
371
    -1
372
    -1
  0
DIMSTYLE
105
59
330
A
100
AcDbSymbolTableRecord
100
AcDbDimStyleTableRecord
  2
Annotative
 70
     0
340
55
1001
AcadAnnotative
1000
AnnotativeData
1002
{
1070
     1
1070
     1
1002
}
  0
DIMSTYLE
105
E2
330
A
100
AcDbSymbolTableRecord
100
AcDbDimStyleTableRecord
  2
AM_ANSI
 70
     0
  4
 mm
 40
2.105263157894736
 41
0.119999997317791
 42
0.05
 43
0.5
 44
0.1
 45
0.00000001
 78
     4
 79
     2
140
0.1200000047683716
146
0.7099999453624112
147
0.0599999986588955
176
   256
177
   256
178
     2
284
     4
340
DA
371
    -1
372
    -1
  0
DIMSTYLE
105
E3
330
A
100
AcDbSymbolTableRecord
100
AcDbDimStyleTableRecord
  2
AM_ANSI$7
 70
     0
  4
 mm
 40
2.105263157894736
 41
0.119999997317791
 42
0.05
 43
0.5
 44
0.1
 45
0.00000001
 78
     4
 79
     2
140
0.1200000047683716
146
0.7099999453624112
147
0.0599999986588955
176
   256
177
   256
178
     2
284
     4
340
DA
371
    -1
372
    -1
  0
DIMSTYLE
105
E4
330
A
100
AcDbSymbolTableRecord
100
AcDbDimStyleTableRecord
  2
AM_ANSI$0
 70
     0
  4
 mm
 40
2.105263157894736
 41
0.119999997317791
 42
0.05
 43
0.5
 44
0.1
 45
0.00000001
 78
     4
 79
     2
140
0.1200000047683716
146
0.7099999453624112
147
0.0599999986588955
176
   256
177
   256
178
     2
284
     4
340
DB
371
    -1
372
    -1
  0
DIMSTYLE
105
E5
330
A
100
AcDbSymbolTableRecord
100
AcDbDimStyleTableRecord
  2
AM_ANSI$0$7
 70
     0
  4
 mm
 40
2.105263157894736
 41
0.119999997317791
 42
0.05
 43
0.5
 44
0.1
 45
0.00000001
 78
     4
 79
     2
140
0.1200000047683716
146
0.7099999453624112
147
0.0599999986588955
176
   256
177
   256
178
     2
284
     4
340
DB
371
    -1
372
    -1
  0
DIMSTYLE
105
E6
330
A
100
AcDbSymbolTableRecord
100
AcDbDimStyleTableRecord
  2
AM_ANSI$3
 70
     0
  4
 mm
 40
2.105263157894736
 41
0.119999997317791
 42
0.05
 43
0.5
 44
0.1
 45
0.00000001
 78
     4
 79
     2
140
0.1200000047683716
146
0.7099999453624112
147
0.0599999986588955
176
   256
177
   256
178
     2
284
     4
340
DC
371
    -1
372
    -1
  0
DIMSTYLE
105
E7
330
A
100
AcDbSymbolTableRecord
100
AcDbDimStyleTableRecord
  2
AM_ANSI$3$7
 70
     0
  4
 mm
 40
2.105263157894736
 41
0.119999997317791
 42
0.05
 43
0.5
 44
0.1
 45
0.00000001
 78
     4
 79
     2
140
0.1200000047683716
146
0.7099999453624112
147
0.0599999986588955
176
   256
177
   256
178
     2
284
     4
340
DC
371
    -1
372
    -1
  0
DIMSTYLE
105
E8
330
A
100
AcDbSymbolTableRecord
100
AcDbDimStyleTableRecord
  2
AM_ANSI$4
 70
     0
  4
 mm
 40
2.105263157894736
 41
0.119999997317791
 42
0.05
 43
0.5
 44
0.1
 45
0.00000001
 78
     4
 79
     2
140
0.1200000047683716
146
0.7099999453624112
147
0.0599999986588955
176
   256
177
   256
178
     2
284
     4
340
DD
371
    -1
372
    -1
  0
DIMSTYLE
105
E9
330
A
100
AcDbSymbolTableRecord
100
AcDbDimStyleTableRecord
  2
AM_ANSI$4$7
 70
     0
  4
 mm
 40
2.105263157894736
 41
0.119999997317791
 42
0.05
 43
0.5
 44
0.1
 45
0.00000001
 78
     4
 79
     2
140
0.1200000047683716
146
0.7099999453624112
147
0.0599999986588955
176
   256
177
   256
178
     2
284
     4
340
DD
371
    -1
372
    -1
  0
DIMSTYLE
105
EA
330
A
100
AcDbSymbolTableRecord
100
AcDbDimStyleTableRecord
  2
AM_ANSI$SF
 70
     0
  4
 mm
 40
2.105263157894736
 41
0.119999997317791
 42
0.05
 43
0.5
 44
0.1
 45
0.00000001
 75
     1
 76
     1
 78
     4
 79
     2
140
0.1200000047683716
146
0.7099999453624112
147
0.0599999986588955
176
   256
177
   256
178
     2
284
     4
340
DF
371
    -1
372
    -1
  0
DIMSTYLE
105
EB
330
A
100
AcDbSymbolTableRecord
100
AcDbDimStyleTableRecord
  2
AM_ANSI$SF$7
 70
     0
  4
 mm
 40
2.105263157894736
 41
0.119999997317791
 42
0.05
 43
0.5
 44
0.1
 45
0.00000001
 75
     1
 76
     1
 78
     4
 79
     2
140
0.1200000047683716
146
0.7099999453624112
147
0.0599999986588955
176
   256
177
   256
178
     2
284
     4
340
DF
371
    -1
372
    -1
  0
DIMSTYLE
105
EC
330
A
100
AcDbSymbolTableRecord
100
AcDbDimStyleTableRecord
  2
AM_ANSI$SH
 70
     0
  4
 mm
 40
2.105263157894736
 41
0.119999997317791
 42
0.05
 43
0.5
 44
0.1
 45
0.00000001
 75
     1
 76
     1
 78
     4
 79
     2
140
0.1200000047683716
146
0.7099999453624112
147
0.0599999986588955
176
   256
177
   256
178
     2
284
     4
340
E0
371
    -1
372
    -1
  0
DIMSTYLE
105
ED
330
A
100
AcDbSymbolTableRecord
100
AcDbDimStyleTableRecord
  2
AM_ANSI$SH$7
 70
     0
  4
 mm
 40
2.105263157894736
 41
0.119999997317791
 42
0.05
 43
0.5
 44
0.1
 45
0.00000001
 75
     1
 76
     1
 78
     4
 79
     2
140
0.1200000047683716
146
0.7099999453624112
147
0.0599999986588955
176
   256
177
   256
178
     2
284
     4
340
E0
371
    -1
372
    -1
  0
DIMSTYLE
105
EE
330
A
100
AcDbSymbolTableRecord
100
AcDbDimStyleTableRecord
  2
Architectural (ANSI)
 70
     0
 40
2.105263157894736
 41
0.0984251946210861
 43
0.2362204724409449
 44
0.125
 45
0.00000001
 46
0.3937007874015748
 78
     3
 79
     3
140
0.1200000047683716
147
0.031496062992126
171
     1
176
   256
177
   256
178
   256
272
     2
274
     1
276
     2
277
     4
284
    12
285
     4
286
    12
340
D6
371
    -1
372
    -1
  0
DIMSTYLE
105
EF
330
A
100
AcDbSymbolTableRecord
100
AcDbDimStyleTableRecord
  2
Architectural (ANSI)$7
 70
     0
 40
2.105263157894736
 41
0.0984251946210861
 43
0.2362204724409449
 44
0.125
 45
0.00000001
 46
0.3937007874015748
 78
     3
 79
     3
140
0.1200000047683716
147
0.031496062992126
171
     1
176
   256
177
   256
178
   256
272
     2
274
     1
276
     2
277
     4
284
    12
285
     4
286
    12
340
D6
371
    -1
372
    -1
  0
DIMSTYLE
105
F0
330
A
100
AcDbSymbolTableRecord
100
AcDbDimStyleTableRecord
  2
Default - Fraction (ANSI)
 70
     0
 40
2.105263157894736
 41
0.0984251946210861
 43
0.2362204724409449
 44
0.125
 45
0.00000001
 46
0.3937007874015748
 79
     3
140
0.1200000047683716
147
0.031496062992126
171
     1
176
   256
177
   256
178
   256
272
     2
274
     1
276
     2
277
     5
284
    12
285
     4
286
    12
340
D6
371
    -1
372
    -1
  0
DIMSTYLE
105
F1
330
A
100
AcDbSymbolTableRecord
100
AcDbDimStyleTableRecord
  2
Default - Fraction (ANSI)$7
 70
     0
 40
2.105263157894736
 41
0.0984251946210861
 43
0.2362204724409449
 44
0.125
 45
0.00000001
 46
0.3937007874015748
 79
     3
140
0.1200000047683716
147
0.031496062992126
171
     1
176
   256
177
   256
178
   256
272
     2
274
     1
276
     2
277
     5
284
    12
285
     4
286
    12
340
D6
371
    -1
372
    -1
  0
DIMSTYLE
105
F2
330
A
100
AcDbSymbolTableRecord
100
AcDbDimStyleTableRecord
  2
Default - mm (ANSI)
 70
     0
 40
2.105263157894736
 41
0.0984251946210861
 42
0.063
 43
0.2362204724409449
 44
0.125
 45
0.00000001
 46
0.3937007874015748
 73
     0
 78
     4
 79
     1
140
0.1200000047683716
143
1.0
144
25.4
147
0.031496062992126
171
     1
176
   256
177
   256
178
   256
179
     1
271
     2
272
     2
274
     1
284
     4
285
     4
340
D6
371
    -1
372
    -1
  0
DIMSTYLE
105
F3
330
A
100
AcDbSymbolTableRecord
100
AcDbDimStyleTableRecord
  2
Default - mm (ANSI)$7
 70
     0
 40
2.105263157894736
 41
0.0984251946210861
 42
0.063
 43
0.2362204724409449
 44
0.125
 45
0.00000001
 46
0.3937007874015748
 73
     0
 78
     4
 79
     1
140
0.1200000047683716
143
1.0
144
25.4
147
0.031496062992126
171
     1
176
   256
177
   256
178
   256
179
     1
271
     2
272
     2
274
     1
284
     4
285
     4
340
D6
371
    -1
372
    -1
  0
DIMSTYLE
105
F4
330
A
100
AcDbSymbolTableRecord
100
AcDbDimStyleTableRecord
  2
Default - mm [in] (ANSI)
 70
     0
  4
 in
 40
2.105263157894736
 41
0.0984251946210861
 42
0.063
 43
0.25
 44
0.125
 45
0.00000001
 46
0.3937007874015748
 73
     0
 78
     4
 79
     1
140
0.1200000047683716
143
0.03937
144
25.4
147
0.031496062992126
170
     1
171
     3
176
   256
177
   256
178
   256
179
     1
271
     2
272
     2
274
     3
284
     4
285
     4
286
     4
340
D6
371
    -1
372
    -1
  0
DIMSTYLE
105
F5
330
A
100
AcDbSymbolTableRecord
100
AcDbDimStyleTableRecord
  2
Default - mm [in] (ANSI)$7
 70
     0
  4
 in
 40
2.105263157894736
 41
0.0984251946210861
 42
0.063
 43
0.25
 44
0.125
 45
0.00000001
 46
0.3937007874015748
 73
     0
 78
     4
 79
     1
140
0.1200000047683716
143
0.03937
144
25.4
147
0.031496062992126
170
     1
171
     3
176
   256
177
   256
178
   256
179
     1
271
     2
272
     2
274
     3
284
     4
285
     4
286
     4
340
D6
371
    -1
372
    -1
  0
DIMSTYLE
105
F6
102
{ACAD_REACTORS
330
51F
330
609
330
6C3
330
7A3
102
}
330
A
100
AcDbSymbolTableRecord
100
AcDbDimStyleTableRecord
  2
Default (ANSI)
 70
     0
 40
2.105263157894736
 41
0.0984251946210861
 43
0.2362204724409449
 44
0.125
 45
0.00000001
 46
0.3937007874015748
 79
     1
140
0.1200000047683716
147
0.031496062992126
171
     1
176
   256
177
   256
178
   256
271
     3
272
     2
274
     1
284
     4
285
     4
340
D6
371
    -1
372
    -1
  0
DIMSTYLE
105
F7
330
A
100
AcDbSymbolTableRecord
100
AcDbDimStyleTableRecord
  2
Default (ANSI)$7
 70
     0
 40
2.105263157894736
 41
0.0984251946210861
 43
0.2362204724409449
 44
0.125
 45
0.00000001
 46
0.3937007874015748
 79
     1
140
0.1200000047683716
147
0.031496062992126
171
     1
176
   256
177
   256
178
   256
271
     3
272
     2
274
     1
284
     4
285
     4
340
D6
371
    -1
372
    -1
  0
DIMSTYLE
105
F8
102
{ACAD_REACTORS
330
137
330
223
330
30D
330
421
102
}
330
A
100
AcDbSymbolTableRecord
100
AcDbDimStyleTableRecord
  2
Default (ANSI)-01
 70
     0
 40
2.105263157894736
 41
0.0984251946210861
 43
0.2362204724409449
 44
0.125
 45
0.00000001
 46
0.3937007874015748
 79
     1
140
0.1200000047683716
147
0.031496062992126
171
     1
176
   256
177
   256
178
   256
271
     2
272
     2
274
     1
284
     4
285
     4
340
D6
371
    -1
372
    -1
  0
DIMSTYLE
105
F9
330
A
100
AcDbSymbolTableRecord
100
AcDbDimStyleTableRecord
  2
Default (ANSI)-01$7
 70
     0
 40
2.105263157894736
 41
0.0984251946210861
 43
0.2362204724409449
 44
0.125
 45
0.00000001
 46
0.3937007874015748
 79
     1
140
0.1200000047683716
147
0.031496062992126
171
     1
176
   256
177
   256
178
   256
271
     2
272
     2
274
     1
284
     4
285
     4
340
D6
371
    -1
372
    -1
  0
DIMSTYLE
105
FA
330
A
100
AcDbSymbolTableRecord
100
AcDbDimStyleTableRecord
  2
Alternate (ANSI)
 70
     0
 40
2.105263157894736
 41
0.0979999974370003
340
55
342
FB
  0
DIMSTYLE
105
10D
330
A
100
AcDbSymbolTableRecord
100
AcDbDimStyleTableRecord
  2
Datum (ANSI)
 70
     0
 40
2.105263157894736
 41
0.0979999974370003
340
55
342
FB
  0
DIMSTYLE
105
11C
330
A
100
AcDbSymbolTableRecord
100
AcDbDimStyleTableRecord
  2
Large (ANSI)
 70
     0
 40
2.105263157894736
 41
0.1959999948740005
340
55
342
FB
  0
ENDTAB
  0
TABLE
  2
BLOCK_RECORD
  5
1
330
0
100
AcDbSymbolTable
 70
    12
  0
BLOCK_RECORD
  5
6C
330
1
100
AcDbSymbolTableRecord
100
AcDbBlockTableRecord
  2
*Model_Space
340
6F
  0
BLOCK_RECORD
  5
68
330
1
100
AcDbSymbolTableRecord
100
AcDbBlockTableRecord
  2
*Paper_Space
340
6B
  0
BLOCK_RECORD
  5
70
330
1
100
AcDbSymbolTableRecord
100
AcDbBlockTableRecord
  2
*Paper_Space0
340
73
  0
BLOCK_RECORD
  5
FB
330
1
100
AcDbSymbolTableRecord
100
AcDbBlockTableRecord
  2
_Closed
340
0
  0
BLOCK_RECORD
  5
102
330
1
100
AcDbSymbolTableRecord
100
AcDbBlockTableRecord
  2
DatumFilled45
340
0
  0
BLOCK_RECORD
  5
10E
330
1
100
AcDbSymbolTableRecord
100
AcDbBlockTableRecord
  2
Filled-1
340
0
  0
BLOCK_RECORD
  5
13A
330
1
100
AcDbSymbolTableRecord
100
AcDbBlockTableRecord
  2
*D4
340
0
  0
BLOCK_RECORD
  5
224
330
1
100
AcDbSymbolTableRecord
100
AcDbBlockTableRecord
  2
*D5
340
0
  0
BLOCK_RECORD
  5
30E
330
1
100
AcDbSymbolTableRecord
100
AcDbBlockTableRecord
  2
*D6
340
0
  0
BLOCK_RECORD
  5
422
330
1
100
AcDbSymbolTableRecord
100
AcDbBlockTableRecord
  2
*D7
340
0
  0
BLOCK_RECORD
  5
520
330
1
100
AcDbSymbolTableRecord
100
AcDbBlockTableRecord
  2
*D8
340
0
  0
BLOCK_RECORD
  5
60A
330
1
100
AcDbSymbolTableRecord
100
AcDbBlockTableRecord
  2
*D9
340
0
  0
BLOCK_RECORD
  5
6C4
330
1
100
AcDbSymbolTableRecord
100
AcDbBlockTableRecord
  2
*D10
340
0
  0
BLOCK_RECORD
  5
7A4
330
1
100
AcDbSymbolTableRecord
100
AcDbBlockTableRecord
  2
*D11
340
0
  0
ENDTAB
  0
ENDSEC
  0
SECTION
  2
BLOCKS
  0
BLOCK
  5
6D
330
6C
100
AcDbEntity
  8
0
100
AcDbBlockBegin
  2
*Model_Space
 70
     0
 10
0.0
 20
0.0
 30
0.0
  3
*Model_Space
  1

  0
ENDBLK
  5
6E
330
6C
100
AcDbEntity
  8
0
100
AcDbBlockEnd
  0
BLOCK
  5
69
330
68
100
AcDbEntity
 67
     1
  8
0
100
AcDbBlockBegin
  2
*Paper_Space
 70
     0
 10
0.0
 20
0.0
 30
0.0
  3
*Paper_Space
  1

  0
ENDBLK
  5
6A
330
68
100
AcDbEntity
 67
     1
  8
0
100
AcDbBlockEnd
  0
BLOCK
  5
71
330
70
100
AcDbEntity
 67
     1
  8
0
100
AcDbBlockBegin
  2
*Paper_Space0
 70
     0
 10
0.0
 20
0.0
 30
0.0
  3
*Paper_Space0
  1

  0
ENDBLK
  5
72
330
70
100
AcDbEntity
 67
     1
  8
0
100
AcDbBlockEnd
  0
BLOCK
  5
100
330
FB
100
AcDbEntity
  8
0
100
AcDbBlockBegin
  2
_Closed
 70
     0
 10
0.0
 20
0.0
 30
0.0
  3
_Closed
  1

  0
LINE
  5
FC
330
FB
100
AcDbEntity
  8
0
  6
ByBlock
 62
     0
370
    -2
100
AcDbLine
 10
-1.0
 20
0.1666666666666666
 30
0.0
 11
0.0
 21
0.0
 31
0.0
  0
LINE
  5
FD
330
FB
100
AcDbEntity
  8
0
  6
ByBlock
 62
     0
370
    -2
100
AcDbLine
 10
0.0
 20
0.0
 30
0.0
 11
-1.0
 21
-0.1666666666666666
 31
0.0
  0
LINE
  5
FE
330
FB
100
AcDbEntity
  8
0
  6
ByBlock
 62
     0
370
    -2
100
AcDbLine
 10
-1.0
 20
0.1666666666666666
 30
0.0
 11
-1.0
 21
-0.1666666666666666
 31
0.0
  0
LINE
  5
FF
330
FB
100
AcDbEntity
  8
0
  6
ByBlock
 62
     0
370
    -2
100
AcDbLine
 10
0.0
 20
0.0
 30
0.0
 11
-1.0
 21
0.0
 31
0.0
  0
ENDBLK
  5
101
330
FB
100
AcDbEntity
  8
0
100
AcDbBlockEnd
  0
BLOCK
  5
103
330
102
100
AcDbEntity
  8
0
100
AcDbBlockBegin
  2
DatumFilled45
 70
     0
 10
0.0
 20
0.0
 30
0.0
  3
DatumFilled45
  1

  0
POLYLINE
  5
105
330
102
100
AcDbEntity
  8
0
 62
     0
100
AcDb2dPolyline
 66
     1
 10
0.0
 20
0.0
 30
0.0
 70
   128
  0
VERTEX
  5
106
330
105
100
AcDbEntity
  8
0
 62
     0
100
AcDbVertex
100
AcDb2dVertex
 10
0.0
 20
0.9999999999999998
 30
0.0
  0
VERTEX
  5
107
330
105
100
AcDbEntity
  8
0
 62
     0
100
AcDbVertex
100
AcDb2dVertex
 10
0.0
 20
-0.9999999999999998
 30
0.0
  0
VERTEX
  5
109
330
105
100
AcDbEntity
  8
0
 62
     0
100
AcDbVertex
100
AcDb2dVertex
 10
-0.9999999999999998
 20
0.0
 30
0.0
  0
VERTEX
  5
10A
330
105
100
AcDbEntity
  8
0
 62
     0
100
AcDbVertex
100
AcDb2dVertex
 10
0.0
 20
0.9999999999999998
 30
0.0
  0
SEQEND
  5
108
330
105
100
AcDbEntity
  8
0
 62
     0
  0
SOLID
  5
10C
330
102
100
AcDbEntity
  8
0
 62
     0
100
AcDbTrace
 10
0.0
 20
0.9999999999999998
 30
0.0
 11
0.0
 21
-0.9999999999999998
 31
0.0
 12
-0.9999999999999998
 22
0.0
 32
0.0
 13
0.0
 23
0.9999999999999998
 33
0.0
  0
ENDBLK
  5
104
330
102
100
AcDbEntity
  8
0
100
AcDbBlockEnd
  0
BLOCK
  5
10F
330
10E
100
AcDbEntity
  8
0
100
AcDbBlockBegin
  2
Filled-1
 70
     0
 10
0.0
 20
0.0
 30
0.0
  3
Filled-1
  1

  0
LINE
  5
111
330
10E
100
AcDbEntity
  8
0
 62
     0
100
AcDbLine
 10
-0.9999999999999998
 20
0.0
 30
0.0
 11
0.0
 21
0.0
 31
0.0
  0
POLYLINE
  5
112
330
10E
100
AcDbEntity
  8
0
 62
     0
100
AcDb2dPolyline
 66
     1
 10
0.0
 20
0.0
 30
0.0
 70
   128
  0
VERTEX
  5
113
330
112
100
AcDbEntity
  8
0
 62
     0
100
AcDbVertex
100
AcDb2dVertex
 10
-0.9999999999999998
 20
-0.0994897959183674
 30
0.0
  0
VERTEX
  5
114
330
112
100
AcDbEntity
  8
0
 62
     0
100
AcDbVertex
100
AcDb2dVertex
 10
0.0
 20
0.0
 30
0.0
  0
VERTEX
  5
116
330
112
100
AcDbEntity
  8
0
 62
     0
100
AcDbVertex
100
AcDb2dVertex
 10
-0.9999999999999998
 20
0.0994897959183674
 30
0.0
  0
VERTEX
  5
117
330
112
100
AcDbEntity
  8
0
 62
     0
100
AcDbVertex
100
AcDb2dVertex
 10
-0.9999999999999998
 20
-0.0994897959183674
 30
0.0
  0
SEQEND
  5
115
330
112
100
AcDbEntity
  8
0
 62
     0
  0
SOLID
  5
118
330
10E
100
AcDbEntity
  8
0
 62
     0
100
AcDbTrace
 10
-0.9999999999999998
 20
-0.0994897959183674
 30
0.0
 11
0.0
 21
0.0
 31
0.0
 12
-0.9999999999999998
 22
0.0994897959183674
 32
0.0
 13
-0.9999999999999998
 23
-0.0994897959183674
 33
0.0
  0
LINE
  5
119
330
10E
100
AcDbEntity
  8
0
 62
     0
100
AcDbLine
 10
-0.9999999999999998
 20
-0.0994897959183674
 30
0.0
 11
0.0
 21
0.0
 31
0.0
  0
LINE
  5
11A
330
10E
100
AcDbEntity
  8
0
 62
     0
100
AcDbLine
 10
0.0
 20
0.0
 30
0.0
 11
-0.9999999999999998
 21
0.0994897959183674
 31
0.0
  0
LINE
  5
11B
330
10E
100
AcDbEntity
  8
0
 62
     0
100
AcDbLine
 10
-0.9999999999999998
 20
0.0994897959183674
 30
0.0
 11
-0.9999999999999998
 21
-0.0994897959183674
 31
0.0
  0
ENDBLK
  5
110
330
10E
100
AcDbEntity
  8
0
100
AcDbBlockEnd
  0
BLOCK
  5
13B
330
13A
100
AcDbEntity
  8
0
100
AcDbBlockBegin
  2
*D4
 70
     1
 10
0.0
 20
0.0
 30
0.0
  3
*D4
  1

  0
LINE
  5
219
330
13A
100
AcDbEntity
  8
Dimension (ANSI)
100
AcDbLine
 10
14.7487256882107
 20
9.506312568292775
 30
0.0
 11
14.7487256882107
 21
6.05935856912162
 31
0.0
  0
LINE
  5
21A
330
13A
100
AcDbEntity
  8
Dimension (ANSI)
100
AcDbLine
 10
5.868725688210703
 20
9.506312568292775
 30
0.0
 11
5.868725688210703
 21
6.05935856912162
 31
0.0
  0
LINE
  5
21B
330
13A
100
AcDbEntity
  8
Dimension (ANSI)
100
AcDbLine
 10
14.54151475216631
 20
6.322516463858462
 30
0.0
 11
10.69960285326979
 21
6.322516463858462
 31
0.0
  0
LINE
  5
21C
330
13A
100
AcDbEntity
  8
Dimension (ANSI)
100
AcDbLine
 10
6.075936624255096
 20
6.322516463858462
 30
0.0
 11
9.91784852315161
 21
6.322516463858462
 31
0.0
  0
SOLID
  5
21D
330
13A
100
AcDbEntity
  8
Dimension (ANSI)
100
AcDbTrace
 10
14.54151475216631
 20
6.357051619865861
 30
0.0
 11
14.54151475216631
 21
6.287981307851063
 31
0.0
 12
14.7487256882107
 22
6.322516463858462
 32
0.0
 13
14.7487256882107
 23
6.322516463858462
 33
0.0
  0
SOLID
  5
21E
330
13A
100
AcDbEntity
  8
Dimension (ANSI)
100
AcDbTrace
 10
6.075936624255096
 20
6.357051619865861
 30
0.0
 11
6.075936624255096
 21
6.287981307851063
 31
0.0
 12
5.868725688210703
 22
6.322516463858462
 32
0.0
 13
5.868725688210703
 23
6.322516463858462
 33
0.0
  0
MTEXT
  5
21F
330
13A
100
AcDbEntity
  8
Dimension (ANSI)
100
AcDbMText
 10
9.984156024187663
 20
6.454600877576149
 30
0.0
 40
0.2526315889860454
 41
0.0
 71
     1
 72
     1
  1
\A1;8.88
  7
Note Text (ANSI)
 73
     1
 44
1.0
1001
ACAD
1000
MTEXTBEGIN
1070
    73
1070
     1
1070
    44
1040
1.0
1070
    74
1070
     0
1000
MTEXTEND
  0
POINT
  5
220
330
13A
100
AcDbEntity
  8
Defpoints
 62
     0
100
AcDbPoint
 10
14.7487256882107
 20
9.637891515661197
 30
0.0
  0
POINT
  5
221
330
13A
100
AcDbEntity
  8
Defpoints
 62
     0
100
AcDbPoint
 10
5.868725688210703
 20
9.637891515661197
 30
0.0
  0
POINT
  5
222
330
13A
100
AcDbEntity
  8
Defpoints
 62
     0
100
AcDbPoint
 10
5.868725688210703
 20
6.322516463858462
 30
0.0
  0
ENDBLK
  5
13C
330
13A
100
AcDbEntity
  8
0
100
AcDbBlockEnd
  0
BLOCK
  5
225
330
224
100
AcDbEntity
  8
0
100
AcDbBlockBegin
  2
*D5
 70
     1
 10
0.0
 20
0.0
 30
0.0
  3
*D5
  1

  0
LINE
  5
303
330
224
100
AcDbEntity
  8
Dimension (ANSI)
100
AcDbLine
 10
5.737146740842282
 20
9.637891515661197
 30
0.0
 11
3.155874005197395
 21
9.637891515661198
 31
0.0
  0
LINE
  5
304
330
224
100
AcDbEntity
  8
Dimension (ANSI)
100
AcDbLine
 10
5.737146740842279
 20
20.51789151566119
 30
0.0
 11
3.155874005197397
 21
20.51789151566119
 31
0.0
  0
LINE
  5
305
330
224
100
AcDbEntity
  8
Dimension (ANSI)
100
AcDbLine
 10
3.419031899934237
 20
9.84510245170559
 30
0.0
 11
3.419031899934238
 21
14.87949960090745
 31
0.0
  0
LINE
  5
306
330
224
100
AcDbEntity
  8
Dimension (ANSI)
100
AcDbLine
 10
3.419031899934239
 20
20.31068057961681
 30
0.0
 11
3.419031899934239
 21
15.27628343041494
 31
0.0
  0
SOLID
  5
307
330
224
100
AcDbEntity
  8
Dimension (ANSI)
100
AcDbTrace
 10
3.384496743926839
 20
9.84510245170559
 30
0.0
 11
3.453567055941636
 21
9.84510245170559
 31
0.0
 12
3.419031899934237
 22
9.637891515661198
 32
0.0
 13
3.419031899934237
 23
9.637891515661198
 33
0.0
  0
SOLID
  5
308
330
224
100
AcDbEntity
  8
Dimension (ANSI)
100
AcDbTrace
 10
3.384496743926841
 20
20.31068057961681
 30
0.0
 11
3.453567055941638
 21
20.31068057961681
 31
0.0
 12
3.419031899934239
 22
20.51789151566119
 32
0.0
 13
3.419031899934239
 23
20.51789151566119
 33
0.0
  0
MTEXT
  5
309
330
224
100
AcDbEntity
  8
Dimension (ANSI)
100
AcDbMText
 10
3.012513909866697
 20
15.20997592937888
 30
0.0
 40
0.2526315889860454
 41
0.0
 71
     1
 72
     1
  1
\A1;10.88
  7
Note Text (ANSI)
 73
     1
 44
1.0
1001
ACAD
1000
MTEXTBEGIN
1070
    73
1070
     1
1070
    44
1040
1.0
1070
    74
1070
     0
1000
MTEXTEND
  0
POINT
  5
30A
330
224
100
AcDbEntity
  8
Defpoints
 62
     0
100
AcDbPoint
 10
5.868725688210703
 20
9.637891515661197
 30
0.0
  0
POINT
  5
30B
330
224
100
AcDbEntity
  8
Defpoints
 62
     0
100
AcDbPoint
 10
5.8687256882107
 20
20.51789151566119
 30
0.0
  0
POINT
  5
30C
330
224
100
AcDbEntity
  8
Defpoints
 62
     0
100
AcDbPoint
 10
3.419031899934239
 20
20.51789151566119
 30
0.0
  0
ENDBLK
  5
226
330
224
100
AcDbEntity
  8
0
100
AcDbBlockEnd
  0
BLOCK
  5
30F
330
30E
100
AcDbEntity
  8
0
100
AcDbBlockBegin
  2
*D6
 70
     1
 10
0.0
 20
0.0
 30
0.0
  3
*D6
  1

  0
LINE
  5
416
330
30E
100
AcDbEntity
  8
Dimension (ANSI)
100
AcDbLine
 10
5.737146740842282
 20
9.637891515661197
 30
0.0
 11
5.040585019311897
 21
9.637891515661197
 31
0.0
  0
LINE
  5
417
330
30E
100
AcDbEntity
  8
Dimension (ANSI)
100
AcDbLine
 10
5.909646740842283
 20
9.950891515661195
 30
0.0
 11
5.040585019311897
 21
9.950891515661195
 31
0.0
  0
LINE
  5
418
330
30E
100
AcDbEntity
  8
Dimension (ANSI)
100
AcDbLine
 10
5.30374291404874
 20
10.15810245170559
 30
0.0
 11
5.30374291404874
 21
10.36531338774998
 31
0.0
  0
LINE
  5
419
330
30E
100
AcDbEntity
  8
Dimension (ANSI)
100
AcDbLine
 10
5.303742914048739
 20
9.430680579616804
 30
0.0
 11
5.303742914048739
 21
8.693353746391416
 31
0.0
  0
LINE
  5
41A
330
30E
100
AcDbEntity
  8
Dimension (ANSI)
100
AcDbLine
 10
5.303742914048739
 20
8.693353746391416
 30
0.0
 11
5.096531978004347
 21
8.693353746391416
 31
0.0
  0
SOLID
  5
41B
330
30E
100
AcDbEntity
  8
Dimension (ANSI)
100
AcDbTrace
 10
5.269207758041341
 20
10.15810245170559
 30
0.0
 11
5.338278070056139
 21
10.15810245170559
 31
0.0
 12
5.303742914048739
 22
9.950891515661195
 32
0.0
 13
5.303742914048739
 23
9.950891515661195
 33
0.0
  0
SOLID
  5
41C
330
30E
100
AcDbEntity
  8
Dimension (ANSI)
100
AcDbTrace
 10
5.26920775804134
 20
9.430680579616804
 30
0.0
 11
5.338278070056138
 21
9.430680579616804
 31
0.0
 12
5.303742914048739
 22
9.637891515661197
 32
0.0
 13
5.303742914048739
 23
9.637891515661197
 33
0.0
  0
MTEXT
  5
41D
330
30E
100
AcDbEntity
  8
Dimension (ANSI)
100
AcDbMText
 10
4.696492888294315
 20
8.693353746391418
 30
0.0
 40
0.2526315889860454
 41
0.0
 71
     5
 72
     1
  1
\A1;0.31{\PTYP.}
  7
Note Text (ANSI)
 73
     1
 44
1.0
1001
ACAD
1000
MTEXTBEGIN
1070
    73
1070
     1
1070
    44
1040
1.0
1070
    74
1070
     0
1000
MTEXTEND
  0
POINT
  5
41E
330
30E
100
AcDbEntity
  8
Defpoints
 62
     0
100
AcDbPoint
 10
5.868725688210703
 20
9.637891515661197
 30
0.0
  0
POINT
  5
41F
330
30E
100
AcDbEntity
  8
Defpoints
 62
     0
100
AcDbPoint
 10
6.041225688210704
 20
9.950891515661195
 30
0.0
  0
POINT
  5
420
330
30E
100
AcDbEntity
  8
Defpoints
 62
     0
100
AcDbPoint
 10
5.303742914048739
 20
9.950891515661195
 30
0.0
  0
ENDBLK
  5
310
330
30E
100
AcDbEntity
  8
0
100
AcDbBlockEnd
  0
BLOCK
  5
423
330
422
100
AcDbEntity
  8
0
100
AcDbBlockBegin
  2
*D7
 70
     1
 10
0.0
 20
0.0
 30
0.0
  3
*D7
  1

  0
LINE
  5
515
330
422
100
AcDbEntity
  8
Dimension (ANSI)
100
AcDbLine
 10
5.868725688210703
 20
9.506312568292775
 30
0.0
 11
5.868725688210703
 21
7.209379290215693
 31
0.0
  0
LINE
  5
516
330
422
100
AcDbEntity
  8
Dimension (ANSI)
100
AcDbLine
 10
6.181725688210703
 20
9.710312568292774
 30
0.0
 11
6.181725688210703
 21
7.209379290215693
 31
0.0
  0
LINE
  5
517
330
422
100
AcDbEntity
  8
Dimension (ANSI)
100
AcDbLine
 10
6.388936624255095
 20
7.472537184952535
 30
0.0
 11
6.596147560299487
 21
7.472537184952535
 31
0.0
  0
LINE
  5
518
330
422
100
AcDbEntity
  8
Dimension (ANSI)
100
AcDbLine
 10
5.661514752166311
 20
7.472537184952535
 30
0.0
 11
5.140451730609104
 21
7.472537184952535
 31
0.0
  0
SOLID
  5
519
330
422
100
AcDbEntity
  8
Dimension (ANSI)
100
AcDbTrace
 10
6.388936624255095
 20
7.507072340959934
 30
0.0
 11
6.388936624255095
 21
7.438002028945136
 31
0.0
 12
6.181725688210703
 22
7.472537184952535
 32
0.0
 13
6.181725688210703
 23
7.472537184952535
 33
0.0
  0
SOLID
  5
51A
330
422
100
AcDbEntity
  8
Dimension (ANSI)
100
AcDbTrace
 10
5.661514752166311
 20
7.507072340959934
 30
0.0
 11
5.661514752166311
 21
7.438002028945136
 31
0.0
 12
5.868725688210703
 22
7.472537184952535
 32
0.0
 13
5.868725688210703
 23
7.472537184952535
 33
0.0
  0
MTEXT
  5
51B
330
422
100
AcDbEntity
  8
Dimension (ANSI)
100
AcDbMText
 10
4.740412640899072
 20
7.472537184952535
 30
0.0
 40
0.2526315889860454
 41
0.0
 71
     5
 72
     1
  1
\A1;0.31{\PTYP.}
  7
Note Text (ANSI)
 73
     1
 44
1.0
1001
ACAD
1000
MTEXTBEGIN
1070
    73
1070
     1
1070
    44
1040
1.0
1070
    74
1070
     0
1000
MTEXTEND
  0
POINT
  5
51C
330
422
100
AcDbEntity
  8
Defpoints
 62
     0
100
AcDbPoint
 10
5.868725688210703
 20
9.637891515661197
 30
0.0
  0
POINT
  5
51D
330
422
100
AcDbEntity
  8
Defpoints
 62
     0
100
AcDbPoint
 10
6.181725688210703
 20
9.841891515661195
 30
0.0
  0
POINT
  5
51E
330
422
100
AcDbEntity
  8
Defpoints
 62
     0
100
AcDbPoint
 10
6.181725688210703
 20
7.472537184952535
 30
0.0
  0
ENDBLK
  5
424
330
422
100
AcDbEntity
  8
0
100
AcDbBlockEnd
  0
BLOCK
  5
521
330
520
100
AcDbEntity
  8
0
100
AcDbBlockBegin
  2
*D8
 70
     1
 10
0.0
 20
0.0
 30
0.0
  3
*D8
  1

  0
LINE
  5
5FF
330
520
100
AcDbEntity
  8
Dimension (ANSI)
100
AcDbLine
 10
6.181725688210704
 20
9.710312568292774
 30
0.0
 11
6.181725688210704
 21
7.209379290215691
 31
0.0
  0
LINE
  5
600
330
520
100
AcDbEntity
  8
Dimension (ANSI)
100
AcDbLine
 10
7.181725688210703
 20
9.694312568292774
 30
0.0
 11
7.181725688210703
 21
7.209379290215691
 31
0.0
  0
LINE
  5
601
330
520
100
AcDbEntity
  8
Dimension (ANSI)
100
AcDbLine
 10
6.388936624255096
 20
7.472537184952533
 30
0.0
 11
6.974514752166311
 21
7.472537184952533
 31
0.0
  0
LINE
  5
602
330
520
100
AcDbEntity
  8
Dimension (ANSI)
100
AcDbLine
 10
7.181725688210703
 20
7.472537184952533
 30
0.0
 11
7.556236110123824
 21
7.472537184952533
 31
0.0
  0
SOLID
  5
603
330
520
100
AcDbEntity
  8
Dimension (ANSI)
100
AcDbTrace
 10
6.388936624255096
 20
7.507072340959932
 30
0.0
 11
6.388936624255096
 21
7.438002028945134
 31
0.0
 12
6.181725688210704
 22
7.472537184952533
 32
0.0
 13
6.181725688210704
 23
7.472537184952533
 33
0.0
  0
SOLID
  5
604
330
520
100
AcDbEntity
  8
Dimension (ANSI)
100
AcDbTrace
 10
6.974514752166311
 20
7.507072340959932
 30
0.0
 11
6.974514752166311
 21
7.438002028945134
 31
0.0
 12
7.181725688210703
 22
7.472537184952533
 32
0.0
 13
7.181725688210703
 23
7.472537184952533
 33
0.0
  0
MTEXT
  5
605
330
520
100
AcDbEntity
  8
Dimension (ANSI)
100
AcDbMText
 10
7.622543611159879
 20
7.604027770220622
 30
0.0
 40
0.2526315889860454
 41
0.0
 71
     1
 72
     1
  1
\A1;1.000
  7
Note Text (ANSI)
 73
     1
 44
1.0
1001
ACAD
1000
MTEXTBEGIN
1070
    73
1070
     1
1070
    44
1040
1.0
1070
    74
1070
     0
1000
MTEXTEND
  0
POINT
  5
606
330
520
100
AcDbEntity
  8
Defpoints
 62
     0
100
AcDbPoint
 10
6.181725688210704
 20
9.841891515661195
 30
0.0
  0
POINT
  5
607
330
520
100
AcDbEntity
  8
Defpoints
 62
     0
100
AcDbPoint
 10
7.181725688210703
 20
9.825891515661195
 30
0.0
  0
POINT
  5
608
330
520
100
AcDbEntity
  8
Defpoints
 62
     0
100
AcDbPoint
 10
7.181725688210703
 20
7.472537184952533
 30
0.0
  0
ENDBLK
  5
522
330
520
100
AcDbEntity
  8
0
100
AcDbBlockEnd
  0
BLOCK
  5
60B
330
60A
100
AcDbEntity
  8
0
100
AcDbBlockBegin
  2
*D9
 70
     1
 10
0.0
 20
0.0
 30
0.0
  3
*D9
  1

  0
LINE
  5
6BB
330
60A
100
AcDbEntity
  8
Dimension (ANSI)
100
AcDbLine
 10
9.192976240156649
 20
8.939616674815953
 30
0.0
 11
8.933305092971252
 21
8.939616674815953
 31
0.0
  0
LINE
  5
6BC
330
60A
100
AcDbEntity
  8
Dimension (ANSI)
100
AcDbLine
 10
8.933305092971252
 20
8.939616674815953
 30
0.0
 11
7.469428798240175
 21
9.784786047639036
 31
0.0
  0
MTEXT
  5
6BD
102
{ACAD_XDICTIONARY
360
8E7
102
}
330
60A
100
AcDbEntity
  8
Dimension (ANSI)
100
AcDbMText
 10
9.259283741192703
 20
9.127304168282492
 30
0.0
 40
0.2526315889860454
 41
0.0
 71
     1
 72
     1
  1
\A1;\U+22050.250{\PGROUND\P HOLE}
  7
Note Text (ANSI)
 73
     1
 44
1.0
1001
ACAD
1000
MTEXTBEGIN
1070
    73
1070
     1
1070
    44
1040
1.0
1070
    74
1070
     0
1000
MTEXTEND
  0
SOLID
  5
6BE
330
60A
100
AcDbEntity
  8
Dimension (ANSI)
100
AcDbTrace
 10
7.486696376243872
 20
9.814694370065105
 30
0.0
 11
7.452161220236479
 21
9.754877725212967
 31
0.0
 12
7.289978863683768
 22
9.888391515661211
 32
0.0
 13
7.289978863683768
 23
9.888391515661211
 33
0.0
  0
LINE
  5
6BF
330
60A
100
AcDbEntity
  8
Dimension (ANSI)
100
AcDbLine
 10
6.992252004000179
 20
9.950891515661201
 30
0.0
 11
7.37119937242123
 21
9.950891515661199
 31
0.0
  0
LINE
  5
6C0
330
60A
100
AcDbEntity
  8
Dimension (ANSI)
100
AcDbLine
 10
7.181725688210704
 20
9.761417831450675
 30
0.0
 11
7.181725688210704
 21
10.14036519987173
 31
0.0
  0
POINT
  5
6C1
330
60A
100
AcDbEntity
  8
Defpoints
 62
     0
100
AcDbPoint
 10
7.289978863683768
 20
9.888391515661211
 30
0.0
  0
POINT
  5
6C2
330
60A
100
AcDbEntity
  8
Defpoints
 62
     0
100
AcDbPoint
 10
7.073472512737643
 20
10.01339151566119
 30
0.0
  0
ENDBLK
  5
60C
330
60A
100
AcDbEntity
  8
0
100
AcDbBlockEnd
  0
BLOCK
  5
6C5
330
6C4
100
AcDbEntity
  8
0
100
AcDbBlockBegin
  2
*D10
 70
     1
 10
0.0
 20
0.0
 30
0.0
  3
*D10
  1

  0
LINE
  5
760
330
6C4
100
AcDbEntity
  8
Dimension (ANSI)
100
AcDbLine
 10
16.08862422484917
 20
11.32714179360979
 30
0.0
 11
15.8807037773612
 21
11.32714179360979
 31
0.0
  0
LINE
  5
761
330
6C4
100
AcDbEntity
  8
Dimension (ANSI)
100
AcDbLine
 10
15.8807037773612
 20
11.32714179360979
 30
0.0
 11
14.69378419831383
 21
10.17148298778542
 31
0.0
  0
MTEXT
  5
762
330
6C4
100
AcDbEntity
  8
Dimension (ANSI)
100
AcDbMText
 10
16.15493172588523
 20
11.52498092580993
 30
0.0
 40
0.2526315889860454
 41
0.0
 71
     1
 72
     1
  1
\A1; 0.218 X 0.281\POBROUND\PTYP. (4 PL.)
  7
Note Text (ANSI)
 73
     1
 44
1.0
1001
ACAD
1000
MTEXTBEGIN
1070
    73
1070
     1
1070
    44
1040
1.0
1070
    74
1070
     0
1000
MTEXTEND
  0
SOLID
  5
763
330
6C4
100
AcDbEntity
  8
Dimension (ANSI)
100
AcDbTrace
 10
14.66969217607383
 20
10.19622670344905
 30
0.0
 11
14.71787622055382
 21
10.14673927212178
 31
0.0
 12
14.54532190433201
 22
10.02693085434544
 32
0.0
 13
14.54532190433201
 23
10.02693085434544
 33
0.0
  0
POINT
  5
764
330
6C4
100
AcDbEntity
  8
Defpoints
 62
     0
100
AcDbPoint
 10
14.54532190433201
 20
10.02693085434544
 30
0.0
  0
POINT
  5
765
330
6C4
100
AcDbEntity
  8
Defpoints
 62
     0
100
AcDbPoint
 10
14.46722568821071
 20
9.950891515661204
 30
0.0
  0
ENDBLK
  5
6C6
330
6C4
100
AcDbEntity
  8
0
100
AcDbBlockEnd
  0
BLOCK
  5
7A5
330
7A4
100
AcDbEntity
  8
0
100
AcDbBlockBegin
  2
*D11
 70
     1
 10
0.0
 20
0.0
 30
0.0
  3
*D11
  1

  0
LINE
  5
894
330
7A4
100
AcDbEntity
  8
Dimension (ANSI)
100
AcDbLine
 10
21.510589256743
 20
19.21801231236782
 30
0.0
 11
21.3033783206986
 21
19.21801231236782
 31
0.0
  0
LINE
  5
895
330
7A4
100
AcDbEntity
  8
Dimension (ANSI)
100
AcDbLine
 10
21.99901112883178
 20
19.21801231236782
 30
0.0
 11
22.4322221785699
 21
19.21801231236782
 31
0.0
  0
SOLID
  5
896
330
7A4
100
AcDbEntity
  8
Dimension (ANSI)
100
AcDbTrace
 10
21.510589256743
 20
19.25254746837522
 30
0.0
 11
21.510589256743
 21
19.18347715636043
 31
0.0
 12
21.71780019278739
 22
19.21801231236782
 32
0.0
 13
21.71780019278739
 23
19.21801231236782
 33
0.0
  0
SOLID
  5
897
330
7A4
100
AcDbEntity
  8
Dimension (ANSI)
100
AcDbTrace
 10
21.99901112883178
 20
19.25254746837522
 30
0.0
 11
21.99901112883178
 21
19.18347715636043
 31
0.0
 12
21.79180019278739
 22
19.21801231236782
 32
0.0
 13
21.79180019278739
 23
19.21801231236782
 33
0.0
  0
MTEXT
  5
898
330
7A4
100
AcDbEntity
  8
Dimension (ANSI)
100
AcDbMText
 10
22.49852967960596
 20
19.4047100917517
 30
0.0
 40
0.2526315889860454
 41
0.0
 71
     1
 72
     1
  1
\A1;(0.074){\P14 GA.\PGALV}
  7
Note Text (ANSI)
 73
     1
 44
1.0
1001
ACAD
1000
MTEXTBEGIN
1070
    73
1070
     1
1070
    44
1040
1.0
1070
    74
1070
     0
1000
MTEXTEND
  0
POINT
  5
899
330
7A4
100
AcDbEntity
  8
Defpoints
 62
     0
100
AcDbPoint
 10
21.79180019278739
 20
19.21801231236782
 30
0.0
  0
POINT
  5
89A
330
7A4
100
AcDbEntity
  8
Defpoints
 62
     0
100
AcDbPoint
 10
21.71780019278739
 20
19.21801231236782
 30
0.0
  0
POINT
  5
89B
330
7A4
100
AcDbEntity
  8
Defpoints
 62
     0
100
AcDbPoint
 10
21.71780019278739
 20
19.21801231236782
 30
0.0
  0
ENDBLK
  5
7A6
330
7A4
100
AcDbEntity
  8
0
100
AcDbBlockEnd
  0
ENDSEC
  0
SECTION
  2
ENTITIES
  0
CIRCLE
  5
11D
330
6C
100
AcDbEntity
  8
Visible (ANSI)
100
AcDbCircle
 10
7.181725688210703
 20
9.950891515661195
 30
0.0
 40
0.125
  0
LINE
  5
11E
330
6C
100
AcDbEntity
  8
Visible (ANSI)
100
AcDbLine
 10
6.150225688210703
 20
10.05989151566119
 30
0.0
 11
6.213225688210703
 21
10.05989151566119
 31
0.0
  0
ARC
  5
11F
330
6C
100
AcDbEntity
  8
Visible (ANSI)
100
AcDbCircle
 10
6.150225688210703
 20
9.950891515661195
 30
0.0
 40
0.109
100
AcDbArc
 50
90.0
 51
270.0
  0
LINE
  5
120
330
6C
100
AcDbEntity
  8
Visible (ANSI)
100
AcDbLine
 10
6.213225688210703
 20
9.841891515661195
 30
0.0
 11
6.150225688210703
 21
9.841891515661195
 31
0.0
  0
ARC
  5
121
330
6C
100
AcDbEntity
  8
Visible (ANSI)
100
AcDbCircle
 10
6.213225688210703
 20
9.950891515661195
 30
0.0
 40
0.109
100
AcDbArc
 50
270.0
 51
90.0
  0
LINE
  5
122
330
6C
100
AcDbEntity
  8
Visible (ANSI)
100
AcDbLine
 10
14.4042256882107
 20
20.31389151566119
 30
0.0
 11
14.4672256882107
 21
20.31389151566119
 31
0.0
  0
ARC
  5
123
330
6C
100
AcDbEntity
  8
Visible (ANSI)
100
AcDbCircle
 10
14.4042256882107
 20
20.2048915156612
 30
0.0
 40
0.1089999999999996
100
AcDbArc
 50
90.0
 51
270.0
  0
LINE
  5
124
330
6C
100
AcDbEntity
  8
Visible (ANSI)
100
AcDbLine
 10
14.4672256882107
 20
20.0958915156612
 30
0.0
 11
14.4042256882107
 21
20.0958915156612
 31
0.0
  0
ARC
  5
125
330
6C
100
AcDbEntity
  8
Visible (ANSI)
100
AcDbCircle
 10
14.4672256882107
 20
20.2048915156612
 30
0.0
 40
0.1089999999999996
100
AcDbArc
 50
270.0
 51
90.0
  0
LINE
  5
126
330
6C
100
AcDbEntity
  8
Visible (ANSI)
100
AcDbLine
 10
14.4042256882107
 20
10.05989151566119
 30
0.0
 11
14.4672256882107
 21
10.05989151566119
 31
0.0
  0
ARC
  5
127
330
6C
100
AcDbEntity
  8
Visible (ANSI)
100
AcDbCircle
 10
14.4042256882107
 20
9.950891515661197
 30
0.0
 40
0.109
100
AcDbArc
 50
90.0
 51
270.0
  0
LINE
  5
128
330
6C
100
AcDbEntity
  8
Visible (ANSI)
100
AcDbLine
 10
14.4672256882107
 20
9.841891515661195
 30
0.0
 11
14.4042256882107
 21
9.841891515661195
 31
0.0
  0
ARC
  5
129
330
6C
100
AcDbEntity
  8
Visible (ANSI)
100
AcDbCircle
 10
14.4672256882107
 20
9.950891515661197
 30
0.0
 40
0.109
100
AcDbArc
 50
270.0
 51
90.0
  0
LINE
  5
12A
330
6C
100
AcDbEntity
  8
Visible (ANSI)
100
AcDbLine
 10
6.1502256882107
 20
20.31389151566119
 30
0.0
 11
6.213225688210701
 21
20.31389151566119
 31
0.0
  0
ARC
  5
12B
330
6C
100
AcDbEntity
  8
Visible (ANSI)
100
AcDbCircle
 10
6.150225688210699
 20
20.20489151566119
 30
0.0
 40
0.1089999999999996
100
AcDbArc
 50
89.99999999999962
 51
270.0
  0
LINE
  5
12C
330
6C
100
AcDbEntity
  8
Visible (ANSI)
100
AcDbLine
 10
6.213225688210701
 20
20.0958915156612
 30
0.0
 11
6.1502256882107
 21
20.0958915156612
 31
0.0
  0
ARC
  5
12D
330
6C
100
AcDbEntity
  8
Visible (ANSI)
100
AcDbCircle
 10
6.213225688210702
 20
20.20489151566119
 30
0.0
 40
0.1089999999999996
100
AcDbArc
 50
270.0000000000007
 51
90.00000000000078
  0
LINE
  5
12E
330
6C
100
AcDbEntity
  8
Visible (ANSI)
100
AcDbLine
 10
5.868725688210703
 20
9.637891515661197
 30
0.0
 11
5.8687256882107
 21
20.51789151566119
 31
0.0
  0
LINE
  5
12F
330
6C
100
AcDbEntity
  8
Visible (ANSI)
100
AcDbLine
 10
5.8687256882107
 20
20.51789151566119
 30
0.0
 11
14.7487256882107
 21
20.5178915156612
 31
0.0
  0
LINE
  5
130
330
6C
100
AcDbEntity
  8
Visible (ANSI)
100
AcDbLine
 10
14.7487256882107
 20
20.5178915156612
 30
0.0
 11
14.7487256882107
 21
9.637891515661197
 31
0.0
  0
LINE
  5
131
330
6C
100
AcDbEntity
  8
Visible (ANSI)
100
AcDbLine
 10
14.7487256882107
 20
9.637891515661197
 30
0.0
 11
5.868725688210703
 21
9.637891515661197
 31
0.0
  0
MTEXT
  5
133
330
6C
100
AcDbEntity
  8
Symbol (ANSI)
100
AcDbMText
 10
9.358413670829408
 20
3.860916182536478
 30
0.0
 40
0.252631582069634
 41
0.0
 71
     7
 72
     1
  1
FRONT VIEW
  7
Text Style150
 73
     1
 44
1.0
1001
ACAD
1000
MTEXTBEGIN
1070
    73
1070
     1
1070
    44
1040
1.0
1070
    74
1070
     0
1000
MTEXTEND
  0
LINE
  5
135
330
6C
100
AcDbEntity
  8
Symbol (ANSI)
370
    30
100
AcDbLine
 10
9.333150447948595
 20
3.809396945957762
 30
0.0
 11
11.36423466749739
 21
3.809396945957762
 31
0.0
  0
MTEXT
  5
136
330
6C
100
AcDbEntity
  8
Symbol (ANSI)
100
AcDbMText
 10
10.26731407437558
 20
3.291056798793689
 30
0.0
 40
0.3789473607537166
 41
0.0
 71
     7
 72
     1
  1
 
  7
Label Text (ANSI)
 73
     1
 44
1.0
1001
ACAD
1000
MTEXTBEGIN
1070
    73
1070
     1
1070
    44
1040
1.0
1070
    74
1070
     0
1000
MTEXTEND
  0
DIMENSION
  5
137
330
6C
100
AcDbEntity
  8
Dimension (ANSI)
100
AcDbDimension
  2
*D4
 10
5.868725688210703
 20
6.322516463858462
 30
0.0
 11
10.3087256882107
 21
6.322516463858462
 31
0.0
 70
   160
  1
<>
 42
8.879999999999995
  3
Default (ANSI)-01
100
AcDbAlignedDimension
 13
14.7487256882107
 23
9.637891515661197
 33
0.0
 14
5.868725688210703
 24
9.637891515661197
 34
0.0
 50
180.0
100
AcDbRotatedDimension
1001
ACAD
1000
DSTYLE
1002
{
1070
   289
1070
     1
1070
    73
1070
     0
1070
    74
1070
     0
1070
   271
1070
     2
1070
   272
1070
     2
1070
    48
1040
0.0
1070
    47
1040
0.0
1002
}
  0
DIMENSION
  5
223
330
6C
100
AcDbEntity
  8
Dimension (ANSI)
100
AcDbDimension
  2
*D5
 10
3.419031899934239
 20
20.51789151566119
 30
0.0
 11
3.419031899934236
 21
15.07789151566119
 31
0.0
 70
   160
  1
<>
 42
10.87999999999999
  3
Default (ANSI)-01
100
AcDbAlignedDimension
 13
5.868725688210703
 23
9.637891515661197
 33
0.0
 14
5.8687256882107
 24
20.51789151566119
 34
0.0
 50
90.0
100
AcDbRotatedDimension
1001
ACAD
1000
DSTYLE
1002
{
1070
   289
1070
     1
1070
   271
1070
     2
1070
   272
1070
     2
1070
    48
1040
0.0
1070
    47
1040
0.0
1002
}
  0
DIMENSION
  5
30D
330
6C
100
AcDbEntity
  8
Dimension (ANSI)
100
AcDbDimension
  2
*D6
 10
5.303742914048739
 20
9.950891515661195
 30
0.0
 11
4.696492888294315
 21
8.693353746391418
 31
0.0
 70
   160
  1
<>{\PTYP.}
 71
     5
 42
0.3129999999999988
  3
Default (ANSI)-01
100
AcDbAlignedDimension
 13
5.868725688210703
 23
9.637891515661197
 33
0.0
 14
6.041225688210704
 24
9.950891515661195
 34
0.0
 50
90.0
100
AcDbRotatedDimension
1001
ACAD
1000
DSTYLE
1002
{
1070
   289
1070
     1
1070
   271
1070
     2
1070
   272
1070
     2
1070
    48
1040
0.0
1070
    47
1040
0.0
1002
}
  0
DIMENSION
  5
421
330
6C
100
AcDbEntity
  8
Dimension (ANSI)
100
AcDbDimension
  2
*D7
 10
6.181725688210703
 20
7.472537184952535
 30
0.0
 11
4.740412640899072
 21
7.472537184952535
 31
0.0
 70
   160
  1
<>{\PTYP.}
 71
     5
 42
0.3129999999999997
  3
Default (ANSI)-01
100
AcDbAlignedDimension
 13
5.868725688210703
 23
9.637891515661197
 33
0.0
 14
6.181725688210703
 24
9.841891515661195
 34
0.0
 50
180.0
100
AcDbRotatedDimension
1001
ACAD
1000
DSTYLE
1002
{
1070
   289
1070
     1
1070
    73
1070
     0
1070
    74
1070
     0
1070
   271
1070
     2
1070
   272
1070
     2
1070
    48
1040
0.0
1070
    47
1040
0.0
1002
}
  0
DIMENSION
  5
51F
330
6C
100
AcDbEntity
  8
Dimension (ANSI)
100
AcDbDimension
  2
*D8
 10
7.181725688210703
 20
7.472537184952533
 30
0.0
 11
8.028298107506506
 21
7.472537184952533
 31
0.0
 70
   160
  1
<>
 42
0.9999999999999991
  3
Default (ANSI)
100
AcDbAlignedDimension
 13
6.181725688210704
 23
9.841891515661195
 33
0.0
 14
7.181725688210703
 24
9.825891515661195
 34
0.0
 50
180.0
100
AcDbRotatedDimension
1001
ACAD
1000
DSTYLE
1002
{
1070
   289
1070
     2
1070
    73
1070
     0
1070
    74
1070
     0
1070
   271
1070
     3
1070
   272
1070
     2
1070
    48
1040
0.0
1070
    47
1040
0.0
1002
}
  0
DIMENSION
  5
609
330
6C
100
AcDbEntity
  8
Dimension (ANSI)
100
AcDbDimension
  2
*D9
 10
7.073472512737643
 20
10.01339151566119
 30
0.0
 11
9.942695454044141
 21
8.939616674815955
 31
0.0
 70
   163
  1
<>{\PGROUND\P HOLE}
 42
0.25
  3
Default (ANSI)
100
AcDbDiametricDimension
 15
7.289978863683768
 25
9.888391515661211
 35
0.0
 40
0.0
1001
ACAD_DSTYLE_DIMRADIAL_EXTENSION
1070
   387
1070
     1
1070
   388
1040
0.0
1070
   390
1040
0.0
1001
ACAD
1000
DSTYLE
1002
{
1070
   145
1040
-0.3333333333333334
1070
   144
1040
0.9999999999999928
1070
   271
1070
     3
1070
   272
1070
     2
1070
    48
1040
0.0
1070
    47
1040
0.0
1002
}
  0
DIMENSION
  5
6C3
330
6C
100
AcDbEntity
  8
Dimension (ANSI)
100
AcDbDimension
  2
*D10
 10
14.46722568821071
 20
9.950891515661204
 30
0.0
 11
17.26852973415246
 21
11.32714179360979
 31
0.0
 70
   164
  1
 0.218 X 0.281\POBROUND\PTYP. (4 PL.)
 42
0.1090000000000018
  3
Default (ANSI)
100
AcDbRadialDimension
 15
14.54532190433201
 25
10.02693085434544
 35
0.0
 40
0.0
1001
ACAD_DSTYLE_DIMRADIAL_EXTENSION
1070
   387
1070
     1
1070
   388
1040
0.0
1070
   390
1040
0.0
1001
ACAD
1000
DSTYLE
1002
{
1070
   145
1040
-0.3333333333333334
1070
   271
1070
     3
1070
   141
1040
0.0
1070
   272
1070
     2
1070
    48
1040
0.0
1070
    47
1040
0.0
1002
}
  0
MTEXT
  5
766
330
6C
100
AcDbEntity
  8
Symbol (ANSI)
100
AcDbMText
 10
26.25982505694321
 20
5.96451061419513
 30
0.0
 40
0.252631582069634
 41
8.42029905672644
 71
     1
 72
     1
  1
{\fRomanS|b0|i0;\H0.2526;PART#: P1210G\P(DATA SUBJECT TO CHANGE WITHOUT \PNOTICE)\PTHIS DRAWING AND COMPONENTS OF ARE\PPROPERTY OF HUBBELL INC. WIEGMANN}
  7
Note Text (ANSI)
 73
     2
 44
1.093904256820678
1001
ACAD
1000
MTEXTBEGIN
1070
    73
1070
     2
1070
    44
1040
1.093904256820678
1070
    74
1070
     0
1000
MTEXTEND
  0
ELLIPSE
  5
768
330
6C
100
AcDbEntity
  8
Visible (ANSI)
100
AcDbEllipse
 10
28.60468176414374
 20
13.111430160789
 30
0.0
 11
0.0426803865170916
 21
-0.0741156886176769
 31
0.0
210
0.0
220
0.0
230
0.9999999999999998
 40
0.5780931159158105
 41
3.572615253427306
 42
5.852162707341185
  0
ELLIPSE
  5
769
330
6C
100
AcDbEntity
  8
Visible (ANSI)
100
AcDbEllipse
 10
28.56887983132787
 20
13.09081319885909
 30
0.0
 11
-0.0426803865170872
 21
0.0741156886176794
 31
0.0
210
0.0
220
0.0
230
0.9999999999999998
 40
0.5780931159158105
 41
0.0
 42
6.283185307179586
  0
LINE
  5
76A
330
6C
100
AcDbEntity
  8
Visible (ANSI)
100
AcDbLine
 10
28.0698299164688
 20
13.43916873570116
 30
0.0
 11
28.10030994035258
 21
13.42161645730137
 31
0.0
  0
ELLIPSE
  5
76B
330
6C
100
AcDbEntity
  8
Visible (ANSI)
100
AcDbEllipse
 10
28.10563184928465
 20
13.39881389363623
 30
0.0
 11
0.0372172970429039
 21
-0.0646288804746142
 31
0.0
210
0.0
220
0.0
230
1.0
 40
0.5780931159158107
 41
3.641254264141412
 42
5.499720852204738
  0
ELLIPSE
  5
76C
330
6C
100
AcDbEntity
  8
Visible (ANSI)
100
AcDbEllipse
 10
28.0698299164688
 20
13.37819693170632
 30
0.0
 11
-0.0372172970428962
 21
0.0646288804746187
 31
0.0
210
0.0
220
0.0
230
1.0
 40
0.5780931159158106
 41
5.499720852205308
 42
8.6413135057951
  0
LINE
  5
76D
330
6C
100
AcDbEntity
  8
Visible Narrow (ANSI)
100
AcDbLine
 10
28.0698299164688
 20
13.31722512771149
 30
0.0
 11
28.10563184928465
 21
13.3378420896414
 31
0.0
  0
LINE
  5
76E
330
6C
100
AcDbEntity
  8
Visible (ANSI)
100
AcDbLine
 10
28.10563184928465
 20
13.3378420896414
 30
0.0
 11
28.13611187316844
 21
13.32028981124161
 31
0.0
  0
LINE
  5
76F
330
6C
100
AcDbEntity
  8
Visible (ANSI)
100
AcDbLine
 10
28.10030994035258
 20
13.2996728493117
 30
0.0
 11
28.0698299164688
 21
13.31722512771149
 31
0.0
  0
LINE
  5
770
330
6C
100
AcDbEntity
  8
Visible Narrow (ANSI)
100
AcDbLine
 10
28.10030994035258
 20
13.2996728493117
 30
0.0
 11
28.13611187316844
 21
13.32028981124161
 31
0.0
  0
ELLIPSE
  5
771
330
6C
100
AcDbEntity
  8
Visible (ANSI)
100
AcDbEllipse
 10
28.13611187316844
 20
13.38126161523645
 30
0.0
 11
0.0372172970428999
 21
-0.0646288804746161
 31
0.0
210
0.0
220
0.0
230
1.0
 40
0.5780931159158107
 41
5.499720852205022
 42
5.783523696627742
  0
ELLIPSE
  5
772
330
6C
100
AcDbEntity
  8
Visible (ANSI)
100
AcDbEllipse
 10
28.10030994035258
 20
13.36064465330654
 30
0.0
 11
0.0372172970428962
 21
-0.0646288804746187
 31
0.0
210
0.0
220
0.0
230
0.9999999999999998
 40
0.5780931159158106
 41
5.499720852205307
 42
8.6413135057951
  0
LINE
  5
773
330
6C
100
AcDbEntity
  8
Visible (ANSI)
100
AcDbLine
 10
32.06319685514722
 20
16.87536622803914
 30
0.0
 11
32.09367687903101
 21
16.85781394963936
 31
0.0
  0
ELLIPSE
  5
774
330
6C
100
AcDbEntity
  8
Visible (ANSI)
100
AcDbEllipse
 10
32.09899878796309
 20
16.83501138597422
 30
0.0
 11
0.0372172970429039
 21
-0.0646288804746142
 31
0.0
210
0.0
220
0.0
230
0.9999999999999998
 40
0.5780931159158105
 41
3.641254264141412
 42
5.499720852204738
  0
ELLIPSE
  5
775
330
6C
100
AcDbEntity
  8
Visible (ANSI)
100
AcDbEllipse
 10
32.06319685514722
 20
16.81439442404431
 30
0.0
 11
-0.0372172970428961
 21
0.0646288804746185
 31
0.0
210
0.0
220
0.0
230
0.9999999999999998
 40
0.5780931159158105
 41
5.499720852205307
 42
8.6413135057951
  0
LINE
  5
776
330
6C
100
AcDbEntity
  8
Visible Narrow (ANSI)
100
AcDbLine
 10
32.06319685514722
 20
16.75342262004947
 30
0.0
 11
32.09899878796309
 21
16.77403958197938
 31
0.0
  0
LINE
  5
777
330
6C
100
AcDbEntity
  8
Visible (ANSI)
100
AcDbLine
 10
32.09899878796309
 20
16.77403958197938
 30
0.0
 11
32.12947881184688
 21
16.7564873035796
 31
0.0
  0
LINE
  5
778
330
6C
100
AcDbEntity
  8
Visible (ANSI)
100
AcDbLine
 10
32.09367687903101
 20
16.73587034164969
 30
0.0
 11
32.06319685514722
 21
16.75342262004947
 31
0.0
  0
LINE
  5
779
330
6C
100
AcDbEntity
  8
Visible Narrow (ANSI)
100
AcDbLine
 10
32.09367687903101
 20
16.73587034164969
 30
0.0
 11
32.12947881184688
 21
16.7564873035796
 31
0.0
  0
ELLIPSE
  5
77A
330
6C
100
AcDbEntity
  8
Visible (ANSI)
100
AcDbEllipse
 10
32.12947881184688
 20
16.81745910757443
 30
0.0
 11
0.0372172970428961
 21
-0.0646288804746096
 31
0.0
210
0.0
220
0.0
230
1.0
 40
0.5780931159158107
 41
5.499720852205022
 42
5.783523696627647
  0
ELLIPSE
  5
77B
330
6C
100
AcDbEntity
  8
Visible (ANSI)
100
AcDbEllipse
 10
32.09367687903101
 20
16.79684214564452
 30
0.0
 11
0.0372172970428961
 21
-0.0646288804746185
 31
0.0
210
0.0
220
0.0
230
0.9999999999999998
 40
0.5780931159158105
 41
5.499720852205307
 42
8.6413135057951
  0
LINE
  5
77C
330
6C
100
AcDbEntity
  8
Visible (ANSI)
100
AcDbLine
 10
32.06319685514723
 20
11.13954165773597
 30
0.0
 11
32.09367687903101
 21
11.12198937933619
 31
0.0
  0
ELLIPSE
  5
77D
330
6C
100
AcDbEntity
  8
Visible (ANSI)
100
AcDbEllipse
 10
32.09899878796309
 20
11.09918681567105
 30
0.0
 11
0.0372172970429044
 21
-0.064628880474615
 31
0.0
210
0.0
220
0.0
230
1.0
 40
0.5780931159158106
 41
3.641254264141366
 42
5.499720852204738
  0
ELLIPSE
  5
77E
330
6C
100
AcDbEntity
  8
Visible (ANSI)
100
AcDbEllipse
 10
32.06319685514723
 20
11.07856985374114
 30
0.0
 11
-0.0372172970428962
 21
0.0646288804746187
 31
0.0
210
0.0
220
0.0
230
1.0
 40
0.5780931159158106
 41
5.499720852205308
 42
8.6413135057951
  0
LINE
  5
77F
330
6C
100
AcDbEntity
  8
Visible Narrow (ANSI)
100
AcDbLine
 10
32.06319685514723
 20
11.0175980497463
 30
0.0
 11
32.09899878796309
 21
11.03821501167621
 31
0.0
  0
LINE
  5
780
330
6C
100
AcDbEntity
  8
Visible (ANSI)
100
AcDbLine
 10
32.09899878796309
 20
11.03821501167621
 30
0.0
 11
32.12947881184688
 21
11.02066273327643
 31
0.0
  0
LINE
  5
781
330
6C
100
AcDbEntity
  8
Visible (ANSI)
100
AcDbLine
 10
32.09367687903101
 20
11.00004577134652
 30
0.0
 11
32.06319685514723
 21
11.0175980497463
 31
0.0
  0
LINE
  5
782
330
6C
100
AcDbEntity
  8
Visible Narrow (ANSI)
100
AcDbLine
 10
32.09367687903101
 20
11.00004577134652
 30
0.0
 11
32.12947881184688
 21
11.02066273327643
 31
0.0
  0
ELLIPSE
  5
783
330
6C
100
AcDbEntity
  8
Visible (ANSI)
100
AcDbEllipse
 10
32.12947881184688
 20
11.08163453727126
 30
0.0
 11
0.037217297042898
 21
-0.0646288804746129
 31
0.0
210
0.0
220
0.0
230
0.9999999999999998
 40
0.5780931159158106
 41
5.499720852205022
 42
5.783523696627633
  0
ELLIPSE
  5
784
330
6C
100
AcDbEntity
  8
Visible (ANSI)
100
AcDbEllipse
 10
32.09367687903101
 20
11.06101757534135
 30
0.0
 11
0.0372172970428962
 21
-0.0646288804746187
 31
0.0
210
0.0
220
0.0
230
1.0
 40
0.5780931159158106
 41
5.499720852205308
 42
8.6413135057951
  0
LINE
  5
785
330
6C
100
AcDbEntity
  8
Visible (ANSI)
100
AcDbLine
 10
28.0698299164688
 20
19.17499330600433
 30
0.0
 11
28.10030994035258
 21
19.15744102760455
 31
0.0
  0
ELLIPSE
  5
786
330
6C
100
AcDbEntity
  8
Visible (ANSI)
100
AcDbEllipse
 10
28.10563184928465
 20
19.1346384639394
 30
0.0
 11
0.0372172970429041
 21
-0.0646288804746146
 31
0.0
210
0.0
220
0.0
230
1.0
 40
0.5780931159158104
 41
3.641254264141366
 42
5.499720852204738
  0
ELLIPSE
  5
787
330
6C
100
AcDbEntity
  8
Visible (ANSI)
100
AcDbEllipse
 10
28.0698299164688
 20
19.11402150200949
 30
0.0
 11
-0.0372172970428961
 21
0.0646288804746185
 31
0.0
210
0.0
220
0.0
230
0.9999999999999998
 40
0.5780931159158105
 41
5.499720852205307
 42
8.6413135057951
  0
LINE
  5
788
330
6C
100
AcDbEntity
  8
Visible Narrow (ANSI)
100
AcDbLine
 10
28.0698299164688
 20
19.05304969801466
 30
0.0
 11
28.10563184928465
 21
19.07366665994457
 31
0.0
  0
LINE
  5
789
330
6C
100
AcDbEntity
  8
Visible (ANSI)
100
AcDbLine
 10
28.10563184928465
 20
19.07366665994457
 30
0.0
 11
28.13611187316844
 21
19.05611438154479
 31
0.0
  0
LINE
  5
78A
330
6C
100
AcDbEntity
  8
Visible (ANSI)
100
AcDbLine
 10
28.10030994035258
 20
19.03549741961487
 30
0.0
 11
28.0698299164688
 21
19.05304969801466
 31
0.0
  0
LINE
  5
78B
330
6C
100
AcDbEntity
  8
Visible Narrow (ANSI)
100
AcDbLine
 10
28.10030994035258
 20
19.03549741961487
 30
0.0
 11
28.13611187316844
 21
19.05611438154479
 31
0.0
  0
ELLIPSE
  5
78C
330
6C
100
AcDbEntity
  8
Visible (ANSI)
100
AcDbEllipse
 10
28.13611187316844
 20
19.11708618553962
 30
0.0
 11
0.0372172970429014
 21
-0.0646288804746187
 31
0.0
210
0.0
220
0.0
230
1.0
 40
0.5780931159158105
 41
5.499720852205022
 42
5.783523696627729
  0
ELLIPSE
  5
78D
330
6C
100
AcDbEntity
  8
Visible (ANSI)
100
AcDbEllipse
 10
28.10030994035258
 20
19.09646922360971
 30
0.0
 11
0.0372172970428961
 21
-0.0646288804746185
 31
0.0
210
0.0
220
0.0
230
0.9999999999999998
 40
0.5780931159158105
 41
5.499720852205307
 42
8.6413135057951
  0
LINE
  5
78E
330
6C
100
AcDbEntity
  8
Visible (ANSI)
100
AcDbLine
 10
27.93363742879761
 20
13.28154079821361
 30
0.0
 11
27.93363742879761
 21
19.36753371072566
 31
0.0
  0
LINE
  5
78F
330
6C
100
AcDbEntity
  8
Visible (ANSI)
100
AcDbLine
 10
27.96943936161347
 20
19.38815067265557
 30
0.0
 11
27.93363742879761
 21
19.36753371072566
 31
0.0
  0
LINE
  5
790
330
6C
100
AcDbEntity
  8
Visible (ANSI)
100
AcDbLine
 10
27.93363742879761
 20
19.36753371072566
 30
0.0
 11
32.2298693667022
 21
16.89349827913723
 31
0.0
  0
LINE
  5
791
330
6C
100
AcDbEntity
  8
Visible (ANSI)
100
AcDbLine
 10
32.26567129951805
 20
16.91411524106715
 30
0.0
 11
32.2298693667022
 21
16.89349827913723
 31
0.0
  0
LINE
  5
792
330
6C
100
AcDbEntity
  8
Visible (ANSI)
100
AcDbLine
 10
32.26567129951805
 20
16.91411524106715
 30
0.0
 11
27.96943936161347
 21
19.38815067265557
 31
0.0
  0
LINE
  5
793
330
6C
100
AcDbEntity
  8
Visible (ANSI)
100
AcDbLine
 10
32.2298693667022
 20
16.89349827913723
 30
0.0
 11
32.22986936670219
 21
10.80750536662519
 31
0.0
  0
LINE
  5
794
330
6C
100
AcDbEntity
  8
Visible (ANSI)
100
AcDbLine
 10
32.26567129951805
 20
10.8281223285551
 30
0.0
 11
32.22986936670219
 21
10.80750536662519
 31
0.0
  0
LINE
  5
795
330
6C
100
AcDbEntity
  8
Visible (ANSI)
100
AcDbLine
 10
32.26567129951805
 20
10.8281223285551
 30
0.0
 11
32.26567129951805
 21
16.91411524106715
 31
0.0
  0
LINE
  5
796
330
6C
100
AcDbEntity
  8
Visible (ANSI)
100
AcDbLine
 10
32.22986936670219
 20
10.80750536662519
 30
0.0
 11
27.93363742879761
 21
13.28154079821361
 31
0.0
  0
LINE
  5
797
330
6C
100
AcDbEntity
  8
Hidden (ANSI)
 48
0.0668500885367394
100
AcDbLine
 10
21.71780019278731
 20
20.31389151566119
 30
0.0
 11
21.79180019278731
 21
20.31389151566119
 31
0.0
  0
LINE
  5
798
330
6C
100
AcDbEntity
  8
Hidden (ANSI)
 48
0.0668500885367394
100
AcDbLine
 10
21.71780019278731
 20
20.09589151566119
 30
0.0
 11
21.79180019278731
 21
20.09589151566119
 31
0.0
  0
LINE
  5
799
330
6C
100
AcDbEntity
  8
Hidden (ANSI)
 48
0.0668500885367394
100
AcDbLine
 10
21.71780019278731
 20
10.05989151566119
 30
0.0
 11
21.79180019278731
 21
10.05989151566119
 31
0.0
  0
LINE
  5
79A
330
6C
100
AcDbEntity
  8
Hidden (ANSI)
 48
0.0668500885367394
100
AcDbLine
 10
21.71780019278731
 20
9.841891515661194
 30
0.0
 11
21.79180019278731
 21
9.841891515661194
 31
0.0
  0
LINE
  5
79B
330
6C
100
AcDbEntity
  8
Visible (ANSI)
100
AcDbLine
 10
21.79180019278739
 20
20.51789151566119
 30
0.0
 11
21.71780019278739
 21
20.51789151566119
 31
0.0
  0
LINE
  5
79C
330
6C
100
AcDbEntity
  8
Visible (ANSI)
100
AcDbLine
 10
21.71780019278739
 20
20.51789151566119
 30
0.0
 11
21.71780019278739
 21
9.637891515661193
 31
0.0
  0
LINE
  5
79D
330
6C
100
AcDbEntity
  8
Visible (ANSI)
100
AcDbLine
 10
21.79180019278739
 20
9.637891515661193
 30
0.0
 11
21.71780019278739
 21
9.637891515661193
 31
0.0
  0
LINE
  5
79E
330
6C
100
AcDbEntity
  8
Visible (ANSI)
100
AcDbLine
 10
21.79180019278739
 20
9.637891515661193
 30
0.0
 11
21.79180019278739
 21
20.51789151566119
 31
0.0
  0
LINE
  5
79F
330
6C
100
AcDbEntity
  8
Hidden (ANSI)
 48
0.0668500885367394
100
AcDbLine
 10
21.79180019278514
 20
9.825891515661194
 30
0.0
 11
21.71780019278514
 21
9.825891515661194
 31
0.0
  0
LINE
  5
7A0
330
6C
100
AcDbEntity
  8
Hidden (ANSI)
 48
0.0668500885367394
100
AcDbLine
 10
21.79180019278514
 20
10.07589151566119
 30
0.0
 11
21.71780019278514
 21
10.07589151566119
 31
0.0
  0
MTEXT
  5
7A1
330
6C
100
AcDbEntity
  8
Symbol (ANSI)
100
AcDbMText
 10
20.78783024478987
 20
3.933584224017726
 30
0.0
 40
0.252631582069634
 41
0.0
 71
     7
 72
     1
  1
SIDE VIEW
  7
Text Style150
 73
     1
 44
1.0
1001
ACAD
1000
MTEXTBEGIN
1070
    73
1070
     1
1070
    44
1040
1.0
1070
    74
1070
     0
1000
MTEXTEND
  0
LINE
  5
7A2
330
6C
100
AcDbEntity
  8
Symbol (ANSI)
370
    30
100
AcDbLine
 10
20.77489547467489
 20
3.881246084723605
 30
0.0
 11
22.48210351763383
 21
3.881246084723605
 31
0.0
  0
DIMENSION
  5
7A3
330
6C
100
AcDbEntity
  8
Dimension (ANSI)
100
AcDbDimension
  2
*D11
 10
21.71780019278739
 20
19.21801231236782
 30
0.0
 11
23.04519118377859
 21
19.21801231236782
 31
0.0
 70
   160
  1
(<>){\P14 GA.\PGALV}
 42
0.0740000000000016
  3
Default (ANSI)
100
AcDbAlignedDimension
 13
21.79180019278739
 23
19.21801231236782
 33
0.0
 14
21.71780019278739
 24
19.21801231236782
 34
0.0
100
AcDbRotatedDimension
1001
ACAD
1000
DSTYLE
1002
{
1070
   289
1070
     1
1070
    73
1070
     0
1070
    74
1070
     0
1070
   145
1040
-0.3333333333333334
1070
   271
1070
     3
1070
    76
1070
     1
1070
    75
1070
     1
1070
   147
1040
0.031496062992126
1070
    72
1070
     0
1070
    71
1070
     0
1070
   272
1070
     2
1070
    48
1040
0.0
1070
    47
1040
0.0
1002
}
  0
ENDSEC
  0
SECTION
  2
OBJECTS
  0
DICTIONARY
  5
C
330
0
100
AcDbDictionary
281
     1
  3
ACAD_CIP_PREVIOUS_PRODUCT_INFO
350
89C
  3
ACAD_COLOR
350
63
  3
ACAD_GROUP
350
D
  3
ACAD_LAYOUT
350
62
  3
ACAD_MATERIAL
350
10
  3
ACAD_MLEADERSTYLE
350
66
  3
ACAD_MLINESTYLE
350
5F
  3
ACAD_PLOTSETTINGS
350
61
  3
ACAD_PLOTSTYLENAME
350
E
  3
ACAD_SCALELIST
350
42
  3
ACAD_TABLESTYLE
350
64
  3
ACAD_VISUALSTYLE
350
29
  3
ACDB_RECOMPOSE_DATA
350
8AA
  3
AcDbVariableDictionary
350
76
  3
DWGPROPS
350
8AB
  0
DICTIONARY
  5
8E7
330
6BD
100
AcDbDictionary
280
     1
281
     1
  3
ACAD_MTEXT_RT
360
8E8
  0
XRECORD
  5
89C
102
{ACAD_REACTORS
330
C
102
}
330
C
100
AcDbXrecord
280
     1
300
INVNTOR
300
2012
300
85795PDSP_2012_0F
  0
DICTIONARY
  5
63
102
{ACAD_REACTORS
330
C
102
}
330
C
100
AcDbDictionary
281
     1
  0
DICTIONARY
  5
D
102
{ACAD_REACTORS
330
C
102
}
330
C
100
AcDbDictionary
281
     1
  0
DICTIONARY
  5
62
102
{ACAD_REACTORS
330
C
102
}
330
C
100
AcDbDictionary
281
     1
  3
Layout1
350
6B
  3
Layout2
350
73
  3
Model
350
6F
  0
DICTIONARY
  5
10
102
{ACAD_REACTORS
330
C
102
}
330
C
100
AcDbDictionary
281
     1
  3
ByBlock
350
19
  3
ByLayer
350
11
  3
Global
350
21
  0
DICTIONARY
  5
66
102
{ACAD_REACTORS
330
C
102
}
330
C
100
AcDbDictionary
281
     1
  3
Standard
350
67
  0
DICTIONARY
  5
5F
102
{ACAD_REACTORS
330
C
102
}
330
C
100
AcDbDictionary
281
     1
  3
Standard
350
60
  0
DICTIONARY
  5
61
102
{ACAD_REACTORS
330
C
102
}
330
C
100
AcDbDictionary
281
     1
  0
ACDBDICTIONARYWDFLT
  5
E
102
{ACAD_REACTORS
330
C
102
}
330
C
100
AcDbDictionary
281
     1
  3
Normal
350
F
100
AcDbDictionaryWithDefault
340
F
  0
DICTIONARY
  5
42
102
{ACAD_REACTORS
330
C
102
}
330
C
100
AcDbDictionary
281
     1
  3
A0
350
43
  3
A1
350
44
  3
A2
350
45
  3
A3
350
46
  3
A4
350
47
  3
A5
350
48
  3
A6
350
49
  3
A7
350
4A
  3
A8
350
4B
  3
A9
350
4C
  3
B0
350
4D
  3
B1
350
4E
  3
B2
350
4F
  3
B3
350
50
  3
B4
350
51
  3
B5
350
52
  3
B6
350
53
  0
DICTIONARY
  5
64
102
{ACAD_REACTORS
330
C
102
}
330
C
100
AcDbDictionary
281
     1
  3
Standard
350
65
  0
DICTIONARY
  5
29
102
{ACAD_REACTORS
330
C
102
}
330
C
100
AcDbDictionary
281
     1
  3
2dWireframe
350
2F
  3
Basic
350
2E
  3
Brighten
350
35
  3
ColorChange
350
39
  3
Conceptual
350
32
  3
Dim
350
34
  3
EdgeColorOff
350
41
  3
Facepattern
350
38
  3
Flat
350
2A
  3
FlatWithEdges
350
2B
  3
Gouraud
350
2C
  3
GouraudWithEdges
350
2D
  3
Hidden
350
31
  3
JitterOff
350
3F
  3
Linepattern
350
37
  3
OverhangOff
350
40
  3
Realistic
350
33
  3
Shaded
350
3E
  3
Shaded with edges
350
3D
  3
Shades of Gray
350
3A
  3
Sketchy
350
3B
  3
Thicken
350
36
  3
Wireframe
350
30
  3
X-Ray
350
3C
  0
XRECORD
  5
8AA
102
{ACAD_REACTORS
330
C
102
}
330
C
100
AcDbXrecord
280
     1
 90
        1
330
65
330
51F
  0
DICTIONARY
  5
76
102
{ACAD_REACTORS
330
C
102
}
330
C
100
AcDbDictionary
281
     1
  3
CANNOSCALE
350
79
  3
CMLEADERSTYLE
350
78
  3
CTABLESTYLE
350
77
  3
DIMASSOC
350
8A4
  3
HIDETEXT
350
8A3
  3
INDEXCTL
350
8A2
  3
LAYEREVAL
350
89F
  3
LAYERNOTIFY
350
8A0
  3
LIGHTINGUNITS
350
89E
  3
MSLTSCALE
350
89D
  3
SORTENTS
350
8A1
  3
XCLIPFRAME
350
8A5
  0
XRECORD
  5
8AB
102
{ACAD_REACTORS
330
C
102
}
330
C
100
AcDbXrecord
280
     1
  1
DWGPROPS COOKIE
  2

  3

  4
KRA
  6

  7

  8

  9
-
300
Manager=
301
Company=
302
Category=
303
Part Number=P1210G-S
304
Description=P SERIES BACK PANEL MASTER VIEW
305
Project=
306
Designer=KRA
307
Engineer=
308
Authority=
309
Cost Center=
 40
0.0000350925925926
 41
2455952.395563472
 42
2455952.395563472
  1

 90
       20
300
Vendor=
300
User Status=
300
Design Status=WorkInProgress
300
Checked by=JMG
300
Date Checked=02/12/2009
300
Engr Approved by=
300
Mfg Approved by=
300
DWG. NO=
300
NUMBER OF SHEETS=1
300
DRAWING #=1
  0
XRECORD
  5
8E8
102
{ACAD_REACTORS
330
8E7
102
}
330
8E7
100
AcDbXrecord
280
     1
 40
41495.0
  1
\A1;\U+22050.250{\PGROUND\P HOLE}
  0
LAYOUT
  5
6B
102
{ACAD_XDICTIONARY
360
8E1
102
}
102
{ACAD_REACTORS
330
62
102
}
330
62
100
AcDbPlotSettings
  1

  2

  4

  6

 40
0.0
 41
0.0
 42
0.0
 43
0.0
 44
0.0
 45
0.0
 46
0.0
 47
0.0
 48
0.0
 49
0.0
140
0.0
141
0.0
142
1.0
143
1.0
 70
   688
 72
     0
 73
     0
 74
     5
  7

 75
    16
147
1.0
148
0.0
149
0.0
100
AcDbLayout
  1
Layout1
 70
     1
 71
     1
 10
0.0
 20
0.0
 11
12.0
 21
9.0
 12
0.0
 22
0.0
 32
0.0
 14
0.0
 24
0.0
 34
0.0
 15
0.0
 25
0.0
 35
0.0
146
0.0
 13
0.0
 23
0.0
 33
0.0
 16
1.0
 26
0.0
 36
0.0
 17
0.0
 27
1.0
 37
0.0
 76
     0
330
68
  0
LAYOUT
  5
73
102
{ACAD_XDICTIONARY
360
8E5
102
}
102
{ACAD_REACTORS
330
62
102
}
330
62
100
AcDbPlotSettings
  1

  2

  4

  6

 40
0.0
 41
0.0
 42
0.0
 43
0.0
 44
0.0
 45
0.0
 46
0.0
 47
0.0
 48
0.0
 49
0.0
140
0.0
141
0.0
142
1.0
143
1.0
 70
   688
 72
     0
 73
     0
 74
     5
  7

 75
    16
147
1.0
148
0.0
149
0.0
100
AcDbLayout
  1
Layout2
 70
     1
 71
     2
 10
0.0
 20
0.0
 11
12.0
 21
9.0
 12
0.0
 22
0.0
 32
0.0
 14
0.0
 24
0.0
 34
0.0
 15
0.0
 25
0.0
 35
0.0
146
0.0
 13
0.0
 23
0.0
 33
0.0
 16
1.0
 26
0.0
 36
0.0
 17
0.0
 27
1.0
 37
0.0
 76
     0
330
70
  0
LAYOUT
  5
6F
102
{ACAD_XDICTIONARY
360
8E3
102
}
102
{ACAD_REACTORS
330
62
102
}
330
62
100
AcDbPlotSettings
  1

  2

  4

  6

 40
0.0
 41
0.0
 42
0.0
 43
0.0
 44
0.0
 45
0.0
 46
0.0
 47
0.0
 48
0.0
 49
0.0
140
0.0
141
0.0
142
1.0
143
1.0
 70
  1712
 72
     0
 73
     0
 74
     0
  7

 75
     0
147
1.0
148
0.0
149
0.0
100
AcDbLayout
  1
Model
 70
     1
 71
     0
 10
0.0
 20
0.0
 11
12.0
 21
9.0
 12
0.0
 22
0.0
 32
0.0
 14
0.0
 24
0.0
 34
0.0
 15
0.0
 25
0.0
 35
0.0
146
0.0
 13
0.0
 23
0.0
 33
0.0
 16
1.0
 26
0.0
 36
0.0
 17
0.0
 27
1.0
 37
0.0
 76
     0
330
6C
  0
MATERIAL
  5
19
102
{ACAD_XDICTIONARY
360
1A
102
}
102
{ACAD_REACTORS
330
10
102
}
330
10
100
AcDbMaterial
  1
ByBlock
 72
     0
 43
0.0208333333333333
 43
0.0
 43
0.0
 43
0.0
 43
0.0
 43
0.0208333333333333
 43
0.0
 43
0.0
 43
0.0
 43
0.0
 43
1.0
 43
0.0
 43
0.0
 43
0.0
 43
0.0
 43
1.0
 77
     0
 47
0.0208333333333333
 47
0.0
 47
0.0
 47
0.0
 47
0.0
 47
0.0208333333333333
 47
0.0
 47
0.0
 47
0.0
 47
0.0
 47
1.0
 47
0.0
 47
0.0
 47
0.0
 47
0.0
 47
1.0
171
     0
 49
0.0208333333333333
 49
0.0
 49
0.0
 49
0.0
 49
0.0
 49
0.0208333333333333
 49
0.0
 49
0.0
 49
0.0
 49
0.0
 49
1.0
 49
0.0
 49
0.0
 49
0.0
 49
0.0
 49
1.0
175
     0
142
0.0208333333333333
142
0.0
142
0.0
142
0.0
142
0.0
142
0.0208333333333333
142
0.0
142
0.0
142
0.0
142
0.0
142
1.0
142
0.0
142
0.0
142
0.0
142
0.0
142
1.0
179
     0
144
0.0208333333333333
144
0.0
144
0.0
144
0.0
144
0.0
144
0.0208333333333333
144
0.0
144
0.0
144
0.0
144
0.0
144
1.0
144
0.0
144
0.0
144
0.0
144
0.0
144
1.0
147
0.0208333333333333
147
0.0
147
0.0
147
0.0
147
0.0
147
0.0208333333333333
147
0.0
147
0.0
147
0.0
147
0.0
147
1.0
147
0.0
147
0.0
147
0.0
147
0.0
147
1.0
  0
MATERIAL
  5
11
102
{ACAD_XDICTIONARY
360
12
102
}
102
{ACAD_REACTORS
330
10
102
}
330
10
100
AcDbMaterial
  1
ByLayer
 72
     0
 43
0.0208333333333333
 43
0.0
 43
0.0
 43
0.0
 43
0.0
 43
0.0208333333333333
 43
0.0
 43
0.0
 43
0.0
 43
0.0
 43
1.0
 43
0.0
 43
0.0
 43
0.0
 43
0.0
 43
1.0
 77
     0
 47
0.0208333333333333
 47
0.0
 47
0.0
 47
0.0
 47
0.0
 47
0.0208333333333333
 47
0.0
 47
0.0
 47
0.0
 47
0.0
 47
1.0
 47
0.0
 47
0.0
 47
0.0
 47
0.0
 47
1.0
171
     0
 49
0.0208333333333333
 49
0.0
 49
0.0
 49
0.0
 49
0.0
 49
0.0208333333333333
 49
0.0
 49
0.0
 49
0.0
 49
0.0
 49
1.0
 49
0.0
 49
0.0
 49
0.0
 49
0.0
 49
1.0
175
     0
142
0.0208333333333333
142
0.0
142
0.0
142
0.0
142
0.0
142
0.0208333333333333
142
0.0
142
0.0
142
0.0
142
0.0
142
1.0
142
0.0
142
0.0
142
0.0
142
0.0
142
1.0
179
     0
144
0.0208333333333333
144
0.0
144
0.0
144
0.0
144
0.0
144
0.0208333333333333
144
0.0
144
0.0
144
0.0
144
0.0
144
1.0
144
0.0
144
0.0
144
0.0
144
0.0
144
1.0
147
0.0208333333333333
147
0.0
147
0.0
147
0.0
147
0.0
147
0.0208333333333333
147
0.0
147
0.0
147
0.0
147
0.0
147
1.0
147
0.0
147
0.0
147
0.0
147
0.0
147
1.0
  0
MATERIAL
  5
21
102
{ACAD_XDICTIONARY
360
22
102
}
102
{ACAD_REACTORS
330
10
102
}
330
10
100
AcDbMaterial
  1
Global
 72
     0
 43
0.0208333333333333
 43
0.0
 43
0.0
 43
0.0
 43
0.0
 43
0.0208333333333333
 43
0.0
 43
0.0
 43
0.0
 43
0.0
 43
1.0
 43
0.0
 43
0.0
 43
0.0
 43
0.0
 43
1.0
 77
     0
 47
0.0208333333333333
 47
0.0
 47
0.0
 47
0.0
 47
0.0
 47
0.0208333333333333
 47
0.0
 47
0.0
 47
0.0
 47
0.0
 47
1.0
 47
0.0
 47
0.0
 47
0.0
 47
0.0
 47
1.0
171
     0
 49
0.0208333333333333
 49
0.0
 49
0.0
 49
0.0
 49
0.0
 49
0.0208333333333333
 49
0.0
 49
0.0
 49
0.0
 49
0.0
 49
1.0
 49
0.0
 49
0.0
 49
0.0
 49
0.0
 49
1.0
175
     0
142
0.0208333333333333
142
0.0
142
0.0
142
0.0
142
0.0
142
0.0208333333333333
142
0.0
142
0.0
142
0.0
142
0.0
142
1.0
142
0.0
142
0.0
142
0.0
142
0.0
142
1.0
179
     0
144
0.0208333333333333
144
0.0
144
0.0
144
0.0
144
0.0
144
0.0208333333333333
144
0.0
144
0.0
144
0.0
144
0.0
144
1.0
144
0.0
144
0.0
144
0.0
144
0.0
144
1.0
147
0.0208333333333333
147
0.0
147
0.0
147
0.0
147
0.0
147
0.0208333333333333
147
0.0
147
0.0
147
0.0
147
0.0
147
1.0
147
0.0
147
0.0
147
0.0
147
0.0
147
1.0
  0
MLEADERSTYLE
  5
67
102
{ACAD_XDICTIONARY
360
8A8
102
}
102
{ACAD_REACTORS
330
66
102
}
330
66
100
AcDbMLeaderStyle
170
     2
171
     1
172
     0
 90
        2
 40
0.0
 41
0.0
173
     1
 91
-1056964608
340
5B
 92
       -2
290
     1
 42
0.09
291
     1
 43
0.36
  3
Standard
 44
0.18
300

342
55
174
     1
178
     6
175
     1
176
     0
 93
-1056964608
 45
0.18
292
     0
297
     0
 46
0.18
 94
-1056964608
 47
1.0
 49
1.0
140
1.0
293
     1
141
0.0
294
     1
177
     0
142
1.0
295
     0
296
     0
143
0.125
1001
ACAD_MLEADERVER
1070
     2
  0
MLINESTYLE
  5
60
102
{ACAD_REACTORS
330
5F
102
}
330
5F
100
AcDbMlineStyle
  2
STANDARD
 70
     0
  3

 62
   256
 51
90.0
 52
90.0
 71
     2
 49
0.5
 62
   256
  6
BYLAYER
 49
-0.5
 62
   256
  6
BYLAYER
  0
ACDBPLACEHOLDER
  5
F
102
{ACAD_REACTORS
330
E
102
}
330
E
  0
SCALE
  5
43
102
{ACAD_REACTORS
330
42
102
}
330
42
100
AcDbScale
 70
     0
300
1:1
140
1.0
141
1.0
290
     1
  0
SCALE
  5
44
102
{ACAD_REACTORS
330
42
102
}
330
42
100
AcDbScale
 70
     0
300
1/128" = 1'-0"
140
0.0078125
141
12.0
290
     0
  0
SCALE
  5
45
102
{ACAD_REACTORS
330
42
102
}
330
42
100
AcDbScale
 70
     0
300
1/64" = 1'-0"
140
0.015625
141
12.0
290
     0
  0
SCALE
  5
46
102
{ACAD_REACTORS
330
42
102
}
330
42
100
AcDbScale
 70
     0
300
1/32" = 1'-0"
140
0.03125
141
12.0
290
     0
  0
SCALE
  5
47
102
{ACAD_REACTORS
330
42
102
}
330
42
100
AcDbScale
 70
     0
300
1/16" = 1'-0"
140
0.0625
141
12.0
290
     0
  0
SCALE
  5
48
102
{ACAD_REACTORS
330
42
102
}
330
42
100
AcDbScale
 70
     0
300
3/32" = 1'-0"
140
0.09375
141
12.0
290
     0
  0
SCALE
  5
49
102
{ACAD_REACTORS
330
42
102
}
330
42
100
AcDbScale
 70
     0
300
1/8" = 1'-0"
140
0.125
141
12.0
290
     0
  0
SCALE
  5
4A
102
{ACAD_REACTORS
330
42
102
}
330
42
100
AcDbScale
 70
     0
300
3/16" = 1'-0"
140
0.1875
141
12.0
290
     0
  0
SCALE
  5
4B
102
{ACAD_REACTORS
330
42
102
}
330
42
100
AcDbScale
 70
     0
300
1/4" = 1'-0"
140
0.25
141
12.0
290
     0
  0
SCALE
  5
4C
102
{ACAD_REACTORS
330
42
102
}
330
42
100
AcDbScale
 70
     0
300
3/8" = 1'-0"
140
0.375
141
12.0
290
     0
  0
SCALE
  5
4D
102
{ACAD_REACTORS
330
42
102
}
330
42
100
AcDbScale
 70
     0
300
1/2" = 1'-0"
140
0.5
141
12.0
290
     0
  0
SCALE
  5
4E
102
{ACAD_REACTORS
330
42
102
}
330
42
100
AcDbScale
 70
     0
300
3/4" = 1'-0"
140
0.75
141
12.0
290
     0
  0
SCALE
  5
4F
102
{ACAD_REACTORS
330
42
102
}
330
42
100
AcDbScale
 70
     0
300
1" = 1'-0"
140
1.0
141
12.0
290
     0
  0
SCALE
  5
50
102
{ACAD_REACTORS
330
42
102
}
330
42
100
AcDbScale
 70
     0
300
1-1/2" = 1'-0"
140
1.5
141
12.0
290
     0
  0
SCALE
  5
51
102
{ACAD_REACTORS
330
42
102
}
330
42
100
AcDbScale
 70
     0
300
3" = 1'-0"
140
3.0
141
12.0
290
     0
  0
SCALE
  5
52
102
{ACAD_REACTORS
330
42
102
}
330
42
100
AcDbScale
 70
     0
300
6" = 1'-0"
140
6.0
141
12.0
290
     0
  0
SCALE
  5
53
102
{ACAD_REACTORS
330
42
102
}
330
42
100
AcDbScale
 70
     0
300
1'-0" = 1'-0"
140
12.0
141
12.0
290
     0
  0
TABLESTYLE
  5
65
102
{ACAD_XDICTIONARY
360
8A6
102
}
102
{ACAD_REACTORS
330
64
102
}
330
64
100
AcDbTableStyle
  3
Standard
 70
     0
 71
     0
 40
0.06
 41
0.06
280
     0
281
     0
  7
Standard
140
0.18
170
     2
 62
     0
 63
     7
283
     0
274
    -2
284
     1
 64
     0
275
    -2
285
     1
 65
     0
276
    -2
286
     1
 66
     0
277
    -2
287
     1
 67
     0
278
    -2
288
     1
 68
     0
279
    -2
289
     1
 69
     0
  7
Standard
140
0.25
170
     5
 62
     0
 63
     7
283
     0
274
    -2
284
     1
 64
     0
275
    -2
285
     1
 65
     0
276
    -2
286
     1
 66
     0
277
    -2
287
     1
 67
     0
278
    -2
288
     1
 68
     0
279
    -2
289
     1
 69
     0
  7
Standard
140
0.18
170
     5
 62
     0
 63
     7
283
     0
274
    -2
284
     1
 64
     0
275
    -2
285
     1
 65
     0
276
    -2
286
     1
 66
     0
277
    -2
287
     1
 67
     0
278
    -2
288
     1
 68
     0
279
    -2
289
     1
 69
     0
  0
VISUALSTYLE
  5
2F
102
{ACAD_XDICTIONARY
360
8B9
102
}
102
{ACAD_REACTORS
330
29
102
}
330
29
100
AcDbVisualStyle
  2
2dWireframe
 70
     4
 71
     0
 72
     2
 73
     0
 90
        0
 40
-0.6
 41
-30.0
 62
     5
 63
     7
 74
     1
 91
        4
 64
     7
 65
   257
 75
     1
175
     1
 42
1.0
 92
        0
 66
   257
 43
1.0
 76
     1
 77
     6
 78
     2
 67
     7
 79
     5
170
     0
171
     0
290
     0
174
     0
 93
        1
 44
0.0
173
     0
291
     0
 45
0.0
1001
ACAD
1000
AcDbSavedByObjectVersion
1070
     0
  0
VISUALSTYLE
  5
2E
102
{ACAD_XDICTIONARY
360
8B7
102
}
102
{ACAD_REACTORS
330
29
102
}
330
29
100
AcDbVisualStyle
  2
Basic
 70
     7
 71
     1
 72
     0
 73
     1
 90
        0
 40
-0.6
 41
-30.0
 62
     5
 63
     7
 74
     0
 91
        4
 64
     7
 65
   257
 75
     1
175
     1
 42
1.0
 92
        8
 66
     7
 43
1.0
 76
     1
 77
     6
 78
     2
 67
     7
 79
     5
170
     0
171
     0
290
     0
174
     0
 93
        1
 44
0.0
173
     0
291
     1
 45
0.0
1001
ACAD
1000
AcDbSavedByObjectVersion
1070
     0
  0
VISUALSTYLE
  5
35
102
{ACAD_XDICTIONARY
360
8C5
102
}
102
{ACAD_REACTORS
330
29
102
}
330
29
100
AcDbVisualStyle
  2
Brighten
 70
    12
 71
     2
 72
     2
 73
     0
 90
        0
 40
-0.6
 41
-30.0
 62
     5
 63
     7
 74
     1
 91
        4
 64
     7
 65
   257
 75
     1
175
     1
 42
1.0
 92
        8
 66
     7
 43
1.0
 76
     1
 77
     6
 78
     2
 67
     7
 79
     5
170
     0
171
     0
290
     0
174
     0
 93
        1
 44
50.0
173
     0
291
     1
 45
0.0
1001
ACAD
1000
AcDbSavedByObjectVersion
1070
     0
  0
VISUALSTYLE
  5
39
102
{ACAD_XDICTIONARY
360
8CD
102
}
102
{ACAD_REACTORS
330
29
102
}
330
29
100
AcDbVisualStyle
  2
ColorChange
 70
    16
 71
     2
 72
     2
 73
     3
 90
        0
 40
-0.6
 41
-30.0
 62
     5
 63
     8
 74
     1
 91
        4
 64
     7
 65
   257
 75
     1
175
     1
 42
1.0
 92
        8
 66
     8
 43
1.0
 76
     1
 77
     6
 78
     2
 67
     7
 79
     5
170
     0
171
     0
290
     0
174
     0
 93
        1
 44
0.0
173
     0
291
     1
 45
0.0
1001
ACAD
1000
AcDbSavedByObjectVersion
1070
     0
  0
VISUALSTYLE
  5
32
102
{ACAD_XDICTIONARY
360
8BF
102
}
102
{ACAD_REACTORS
330
29
102
}
330
29
100
AcDbVisualStyle
  2
Conceptual
 70
     9
 71
     3
 72
     2
 73
     0
 90
        0
 40
-0.6
 41
-30.0
 62
     5
 63
     7
 74
     2
 91
        2
 64
     7
 65
   257
 75
     1
175
     1
 42
179.0
 92
        8
 66
     7
 43
1.0
 76
     1
 77
     6
 78
     2
 67
     7
 79
     3
170
     0
171
     0
290
     0
174
     0
 93
        1
 44
0.0
173
     0
291
     0
 45
0.0
1001
ACAD
1000
AcDbSavedByObjectVersion
1070
     0
  0
VISUALSTYLE
  5
34
102
{ACAD_XDICTIONARY
360
8C3
102
}
102
{ACAD_REACTORS
330
29
102
}
330
29
100
AcDbVisualStyle
  2
Dim
 70
    11
 71
     2
 72
     2
 73
     0
 90
        0
 40
-0.6
 41
-30.0
 62
     5
 63
     7
 74
     1
 91
        4
 64
     7
 65
   257
 75
     1
175
     1
 42
1.0
 92
        8
 66
     7
 43
1.0
 76
     1
 77
     6
 78
     2
 67
     7
 79
     5
170
     0
171
     0
290
     0
174
     0
 93
        1
 44
-50.0
173
     0
291
     1
 45
0.0
1001
ACAD
1000
AcDbSavedByObjectVersion
1070
     0
  0
VISUALSTYLE
  5
41
102
{ACAD_XDICTIONARY
360
8DD
102
}
102
{ACAD_REACTORS
330
29
102
}
330
29
100
AcDbVisualStyle
  2
EdgeColorOff
 70
    22
 71
     2
 72
     2
 73
     0
 90
        0
 40
-0.6
 41
-30.0
 62
     5
 63
     7
 74
     1
 91
        4
 64
     7
 65
   257
 75
     1
175
     1
 42
1.0
 92
        8
 66
     7
 43
1.0
 76
     1
 77
     6
 78
     2
 67
     7
 79
     5
170
     0
171
     0
290
     0
174
     0
 93
        1
 44
0.0
173
     0
291
     1
 45
0.0
1001
ACAD
1000
AcDbSavedByObjectVersion
1070
     0
  0
VISUALSTYLE
  5
38
102
{ACAD_XDICTIONARY
360
8CB
102
}
102
{ACAD_REACTORS
330
29
102
}
330
29
100
AcDbVisualStyle
  2
Facepattern
 70
    15
 71
     2
 72
     2
 73
     0
 90
        0
 40
-0.6
 41
-30.0
 62
     5
 63
     7
 74
     1
 91
        4
 64
     7
 65
   257
 75
     1
175
     1
 42
1.0
 92
        8
 66
     7
 43
1.0
 76
     1
 77
     6
 78
     2
 67
     7
 79
     5
170
     0
171
     0
290
     0
174
     0
 93
        1
 44
0.0
173
     0
291
     1
 45
0.0
1001
ACAD
1000
AcDbSavedByObjectVersion
1070
     0
  0
VISUALSTYLE
  5
2A
102
{ACAD_XDICTIONARY
360
8AF
102
}
102
{ACAD_REACTORS
330
29
102
}
330
29
100
AcDbVisualStyle
  2
Flat
 70
     0
 71
     2
 72
     1
 73
     1
 90
        2
 40
-0.6
 41
30.0
 62
     5
 63
     7
 74
     0
 91
        0
 64
     7
 65
   257
 75
     1
175
     1
 42
1.0
 92
        8
 66
     7
 43
1.0
 76
     1
 77
     6
 78
     2
 67
     7
 79
     5
170
     0
171
     0
290
     0
174
     0
 93
       13
 44
0.0
173
     0
291
     1
 45
0.0
1001
ACAD
1000
AcDbSavedByObjectVersion
1070
     0
  0
VISUALSTYLE
  5
2B
102
{ACAD_XDICTIONARY
360
8B1
102
}
102
{ACAD_REACTORS
330
29
102
}
330
29
100
AcDbVisualStyle
  2
FlatWithEdges
 70
     1
 71
     2
 72
     1
 73
     1
 90
        2
 40
-0.6
 41
30.0
 62
     5
 63
     7
 74
     1
 91
        0
 64
     7
 65
   257
 75
     1
175
     1
 42
1.0
 92
        0
 66
   257
 43
1.0
 76
     1
 77
     6
 78
     2
 67
     7
 79
     5
170
     0
171
     0
290
     0
174
     0
 93
       13
 44
0.0
173
     0
291
     1
 45
0.0
1001
ACAD
1000
AcDbSavedByObjectVersion
1070
     0
  0
VISUALSTYLE
  5
2C
102
{ACAD_XDICTIONARY
360
8B3
102
}
102
{ACAD_REACTORS
330
29
102
}
330
29
100
AcDbVisualStyle
  2
Gouraud
 70
     2
 71
     2
 72
     2
 73
     1
 90
        2
 40
-0.6
 41
30.0
 62
     5
 63
     7
 74
     0
 91
        0
 64
     7
 65
   257
 75
     1
175
     1
 42
1.0
 92
        0
 66
     7
 43
1.0
 76
     1
 77
     6
 78
     2
 67
     7
 79
     5
170
     0
171
     0
290
     0
174
     0
 93
       13
 44
0.0
173
     0
291
     1
 45
0.0
1001
ACAD
1000
AcDbSavedByObjectVersion
1070
     0
  0
VISUALSTYLE
  5
2D
102
{ACAD_XDICTIONARY
360
8B5
102
}
102
{ACAD_REACTORS
330
29
102
}
330
29
100
AcDbVisualStyle
  2
GouraudWithEdges
 70
     3
 71
     2
 72
     2
 73
     1
 90
        2
 40
-0.6
 41
30.0
 62
     5
 63
     7
 74
     1
 91
        0
 64
     7
 65
   257
 75
     1
175
     1
 42
1.0
 92
        0
 66
   257
 43
1.0
 76
     1
 77
     6
 78
     2
 67
     7
 79
     5
170
     0
171
     0
290
     0
174
     0
 93
       13
 44
0.0
173
     0
291
     1
 45
0.0
1001
ACAD
1000
AcDbSavedByObjectVersion
1070
     0
  0
VISUALSTYLE
  5
31
102
{ACAD_XDICTIONARY
360
8BD
102
}
102
{ACAD_REACTORS
330
29
102
}
330
29
100
AcDbVisualStyle
  2
Hidden
 70
     6
 71
     1
 72
     2
 73
     2
 90
        0
 40
-0.6
 41
-30.0
 62
     5
 63
     7
 74
     2
 91
        2
 64
     7
 65
   257
 75
     2
175
     1
 42
40.0
 92
        0
 66
   257
 43
1.0
 76
     1
 77
     6
 78
     2
 67
     7
 79
     3
170
     0
171
     0
290
     0
174
     0
 93
        1
 44
0.0
173
     0
291
     0
 45
0.0
1001
ACAD
1000
AcDbSavedByObjectVersion
1070
     0
  0
VISUALSTYLE
  5
3F
102
{ACAD_XDICTIONARY
360
8D9
102
}
102
{ACAD_REACTORS
330
29
102
}
330
29
100
AcDbVisualStyle
  2
JitterOff
 70
    20
 71
     2
 72
     2
 73
     0
 90
        0
 40
-0.6
 41
-30.0
 62
     5
 63
     7
 74
     1
 91
        4
 64
     7
 65
   257
 75
     1
175
     1
 42
1.0
 92
       10
 66
     7
 43
1.0
 76
     1
 77
     6
 78
     2
 67
     7
 79
     5
170
     0
171
     0
290
     0
174
     0
 93
        1
 44
0.0
173
     0
291
     1
 45
0.0
1001
ACAD
1000
AcDbSavedByObjectVersion
1070
     0
  0
VISUALSTYLE
  5
37
102
{ACAD_XDICTIONARY
360
8C9
102
}
102
{ACAD_REACTORS
330
29
102
}
330
29
100
AcDbVisualStyle
  2
Linepattern
 70
    14
 71
     2
 72
     2
 73
     0
 90
        0
 40
-0.6
 41
-30.0
 62
     5
 63
     7
 74
     1
 91
        4
 64
     7
 65
   257
 75
     7
175
     7
 42
1.0
 92
        8
 66
     7
 43
1.0
 76
     1
 77
     6
 78
     2
 67
     7
 79
     5
170
     0
171
     0
290
     0
174
     0
 93
        1
 44
0.0
173
     0
291
     1
 45
0.0
1001
ACAD
1000
AcDbSavedByObjectVersion
1070
     0
  0
VISUALSTYLE
  5
40
102
{ACAD_XDICTIONARY
360
8DB
102
}
102
{ACAD_REACTORS
330
29
102
}
330
29
100
AcDbVisualStyle
  2
OverhangOff
 70
    21
 71
     2
 72
     2
 73
     0
 90
        0
 40
-0.6
 41
-30.0
 62
     5
 63
     7
 74
     1
 91
        4
 64
     7
 65
   257
 75
     1
175
     1
 42
1.0
 92
        9
 66
     7
 43
1.0
 76
     1
 77
     6
 78
     2
 67
     7
 79
     5
170
     0
171
     0
290
     0
174
     0
 93
        1
 44
0.0
173
     0
291
     1
 45
0.0
1001
ACAD
1000
AcDbSavedByObjectVersion
1070
     0
  0
VISUALSTYLE
  5
33
102
{ACAD_XDICTIONARY
360
8C1
102
}
102
{ACAD_REACTORS
330
29
102
}
330
29
100
AcDbVisualStyle
  2
Realistic
 70
     8
 71
     2
 72
     3
 73
     0
 90
        2
 40
-0.6
 41
30.0
 62
     5
 63
     7
 74
     0
 91
        0
 64
     7
 65
   257
 75
     1
175
     1
 42
1.0
 92
        8
 66
   257
 43
1.0
 76
     1
 77
     6
 78
     2
 67
     7
 79
     3
170
     0
171
     0
290
     0
174
     0
 93
       13
 44
0.0
173
     0
291
     0
 45
0.0
1001
ACAD
1000
AcDbSavedByObjectVersion
1070
     0
  0
VISUALSTYLE
  5
3E
102
{ACAD_XDICTIONARY
360
8D7
102
}
102
{ACAD_REACTORS
330
29
102
}
330
29
100
AcDbVisualStyle
  2
Shaded
 70
    27
 71
     2
 72
     2
 73
     1
 90
        2
 40
-0.6
 41
30.0
 62
     5
 63
     7
 74
     0
 91
        4
 64
     7
 65
   257
 75
     1
175
     1
 42
1.0
 92
        8
 66
   257
 43
1.0
 76
     1
 77
     6
 78
     2
 67
     8
 79
     3
170
     0
171
     0
290
     0
174
     0
 93
        5
 44
0.0
173
     0
291
     0
 45
0.0
1001
ACAD
1000
AcDbSavedByObjectVersion
1070
     0
  0
VISUALSTYLE
  5
3D
102
{ACAD_XDICTIONARY
360
8D5
102
}
102
{ACAD_REACTORS
330
29
102
}
330
29
100
AcDbVisualStyle
  2
Shaded with edges
 70
    26
 71
     2
 72
     2
 73
     1
 90
        2
 40
-0.6
 41
30.0
 62
     5
 63
     7
 74
     1
 91
       10
 64
     7
 65
   257
 75
     2
175
     1
 42
1.0
 92
        8
 66
   257
 43
1.0
 76
     1
 77
     6
 78
     2
 67
     7
 79
     3
170
     0
171
     0
290
     0
174
     0
 93
        5
 44
0.0
173
     0
291
     0
 45
0.0
1001
ACAD
1000
AcDbSavedByObjectVersion
1070
     0
  0
VISUALSTYLE
  5
3A
102
{ACAD_XDICTIONARY
360
8CF
102
}
102
{ACAD_REACTORS
330
29
102
}
330
29
100
AcDbVisualStyle
  2
Shades of Gray
 70
    23
 71
     2
 72
     2
 73
     3
 90
        0
 40
-0.6
 41
-30.0
 62
     5
 63
     7
 74
     2
 91
        2
 64
     7
 65
     7
 75
     1
175
     1
 42
40.0
 92
        8
 66
     7
 43
1.0
 76
     1
 77
     6
 78
     2
 67
     7
 79
     3
170
     0
171
     0
290
     0
174
     0
 93
        1
 44
0.0
173
     0
291
     0
 45
0.0
1001
ACAD
1000
AcDbSavedByObjectVersion
1070
     0
  0
VISUALSTYLE
  5
3B
102
{ACAD_XDICTIONARY
360
8D1
102
}
102
{ACAD_REACTORS
330
29
102
}
330
29
100
AcDbVisualStyle
  2
Sketchy
 70
    24
 71
     1
 72
     2
 73
     2
 90
        0
 40
-0.6
 41
-30.0
 62
     5
 63
     7
 74
     2
 91
        2
 64
     7
 65
     7
 75
     1
175
     1
 42
40.0
 92
       11
 66
     7
 43
1.0
 76
     1
 77
     6
 78
     2
 67
     7
 79
     6
170
     0
171
     0
290
     0
174
     0
 93
        1
 44
0.0
173
     0
291
     0
 45
0.0
1001
ACAD
1000
AcDbSavedByObjectVersion
1070
     0
  0
VISUALSTYLE
  5
36
102
{ACAD_XDICTIONARY
360
8C7
102
}
102
{ACAD_REACTORS
330
29
102
}
330
29
100
AcDbVisualStyle
  2
Thicken
 70
    13
 71
     2
 72
     2
 73
     0
 90
        0
 40
-0.6
 41
-30.0
 62
     5
 63
     7
 74
     1
 91
        4
 64
     7
 65
   257
 75
     1
175
     1
 42
1.0
 92
       12
 66
     7
 43
1.0
 76
     1
 77
     6
 78
     2
 67
     7
 79
     5
170
     0
171
     0
290
     0
174
     0
 93
        1
 44
0.0
173
     0
291
     1
 45
0.0
1001
ACAD
1000
AcDbSavedByObjectVersion
1070
     0
  0
VISUALSTYLE
  5
30
102
{ACAD_XDICTIONARY
360
8BB
102
}
102
{ACAD_REACTORS
330
29
102
}
330
29
100
AcDbVisualStyle
  2
Wireframe
 70
     5
 71
     0
 72
     2
 73
     0
 90
        0
 40
-0.6
 41
-30.0
 62
     5
 63
     7
 74
     1
 91
        4
 64
     7
 65
   257
 75
     1
175
     1
 42
1.0
 92
        0
 66
   257
 43
1.0
 76
     1
 77
     6
 78
     2
 67
     7
 79
     3
170
     0
171
     0
290
     0
174
     0
 93
        1
 44
0.0
173
     0
291
     0
 45
0.0
1001
ACAD
1000
AcDbSavedByObjectVersion
1070
     0
  0
VISUALSTYLE
  5
3C
102
{ACAD_XDICTIONARY
360
8D3
102
}
102
{ACAD_REACTORS
330
29
102
}
330
29
100
AcDbVisualStyle
  2
X-Ray
 70
    25
 71
     2
 72
     2
 73
     1
 90
        1
 40
0.5
 41
-30.0
 62
     5
 63
     7
 74
     1
 91
        0
 64
     7
 65
   257
 75
     1
175
     1
 42
1.0
 92
        8
 66
     7
 43
1.0
 76
     1
 77
     6
 78
     2
 67
     7
 79
     3
170
     0
171
     0
290
     0
174
     0
 93
       13
 44
0.0
173
     0
291
     0
 45
0.0
1001
ACAD
1000
AcDbSavedByObjectVersion
1070
     0
  0
DICTIONARYVAR
  5
79
102
{ACAD_REACTORS
330
76
102
}
330
76
100
DictionaryVariables
280
     0
  1
1:1
  0
DICTIONARYVAR
  5
78
102
{ACAD_REACTORS
330
76
102
}
330
76
100
DictionaryVariables
280
     0
  1
STANDARD
  0
DICTIONARYVAR
  5
77
102
{ACAD_REACTORS
330
76
102
}
330
76
100
DictionaryVariables
280
     0
  1
STANDARD
  0
DICTIONARYVAR
  5
8A4
102
{ACAD_REACTORS
330
76
102
}
330
76
100
DictionaryVariables
280
     0
  1
1
  0
DICTIONARYVAR
  5
8A3
102
{ACAD_REACTORS
330
76
102
}
330
76
100
DictionaryVariables
280
     0
  1
1
  0
DICTIONARYVAR
  5
8A2
102
{ACAD_REACTORS
330
76
102
}
330
76
100
DictionaryVariables
280
     0
  1
0
  0
DICTIONARYVAR
  5
89F
102
{ACAD_REACTORS
330
76
102
}
330
76
100
DictionaryVariables
280
     0
  1
0
  0
DICTIONARYVAR
  5
8A0
102
{ACAD_REACTORS
330
76
102
}
330
76
100
DictionaryVariables
280
     0
  1
0
  0
DICTIONARYVAR
  5
89E
102
{ACAD_REACTORS
330
76
102
}
330
76
100
DictionaryVariables
280
     0
  1
2
  0
DICTIONARYVAR
  5
89D
102
{ACAD_REACTORS
330
76
102
}
330
76
100
DictionaryVariables
280
     0
  1
1
  0
DICTIONARYVAR
  5
8A1
102
{ACAD_REACTORS
330
76
102
}
330
76
100
DictionaryVariables
280
     0
  1
127
  0
DICTIONARYVAR
  5
8A5
102
{ACAD_REACTORS
330
76
102
}
330
76
100
DictionaryVariables
280
     0
  1
2
  0
DICTIONARY
  5
8E1
330
6B
100
AcDbDictionary
280
     1
281
     1
  3
ACAD_XREC_ROUNDTRIP
360
8E2
  0
DICTIONARY
  5
8E5
330
73
100
AcDbDictionary
280
     1
281
     1
  3
ACAD_XREC_ROUNDTRIP
360
8E6
  0
DICTIONARY
  5
8E3
330
6F
100
AcDbDictionary
280
     1
281
     1
  3
ACAD_XREC_ROUNDTRIP
360
8E4
  0
DICTIONARY
  5
1A
330
19
100
AcDbDictionary
280
     1
281
     1
  3
ACAD_XREC_ROUNDTRIP
360
8AD
  3
BUMPTILE
360
1C
  3
DIFFUSETILE
360
1B
  3
OPACITYTILE
360
1F
  3
REFLECTIONTILE
360
1E
  3
REFRACTIONTILE
360
20
  3
SPECULARTILE
360
1D
  0
DICTIONARY
  5
12
330
11
100
AcDbDictionary
280
     1
281
     1
  3
ACAD_XREC_ROUNDTRIP
360
8AC
  3
BUMPTILE
360
14
  3
DIFFUSETILE
360
13
  3
FBXASSET
360
10B
  3
OPACITYTILE
360
17
  3
REFLECTIONTILE
360
16
  3
REFRACTIONTILE
360
18
  3
SPECULARTILE
360
15
  0
DICTIONARY
  5
22
330
21
100
AcDbDictionary
280
     1
281
     1
  3
ACAD_XREC_ROUNDTRIP
360
8AE
  3
BUMPTILE
360
24
  3
DIFFUSETILE
360
23
  3
FBXASSET
360
BA
  3
OPACITYTILE
360
27
  3
REFLECTIONTILE
360
26
  3
REFRACTIONTILE
360
28
  3
SPECULARTILE
360
25
  0
DICTIONARY
  5
8A8
330
67
100
AcDbDictionary
280
     1
281
     1
  3
ACAD_XREC_ROUNDTRIP
360
8A9
  0
DICTIONARY
  5
8A6
330
65
100
AcDbDictionary
280
     1
281
     1
  3
ACAD_ROUNDTRIP_2008_TABLESTYLE_CELLSTYLEMAP
360
8A7
  3
ACAD_XREC_ROUNDTRIP
360
8DF
  0
DICTIONARY
  5
8B9
330
2F
100
AcDbDictionary
280
     1
281
     1
  3
ACAD_XREC_ROUNDTRIP
360
8BA
  0
DICTIONARY
  5
8B7
330
2E
100
AcDbDictionary
280
     1
281
     1
  3
ACAD_XREC_ROUNDTRIP
360
8B8
  0
DICTIONARY
  5
8C5
330
35
100
AcDbDictionary
280
     1
281
     1
  3
ACAD_XREC_ROUNDTRIP
360
8C6
  0
DICTIONARY
  5
8CD
330
39
100
AcDbDictionary
280
     1
281
     1
  3
ACAD_XREC_ROUNDTRIP
360
8CE
  0
DICTIONARY
  5
8BF
330
32
100
AcDbDictionary
280
     1
281
     1
  3
ACAD_XREC_ROUNDTRIP
360
8C0
  0
DICTIONARY
  5
8C3
330
34
100
AcDbDictionary
280
     1
281
     1
  3
ACAD_XREC_ROUNDTRIP
360
8C4
  0
DICTIONARY
  5
8DD
330
41
100
AcDbDictionary
280
     1
281
     1
  3
ACAD_XREC_ROUNDTRIP
360
8DE
  0
DICTIONARY
  5
8CB
330
38
100
AcDbDictionary
280
     1
281
     1
  3
ACAD_XREC_ROUNDTRIP
360
8CC
  0
DICTIONARY
  5
8AF
330
2A
100
AcDbDictionary
280
     1
281
     1
  3
ACAD_XREC_ROUNDTRIP
360
8B0
  0
DICTIONARY
  5
8B1
330
2B
100
AcDbDictionary
280
     1
281
     1
  3
ACAD_XREC_ROUNDTRIP
360
8B2
  0
DICTIONARY
  5
8B3
330
2C
100
AcDbDictionary
280
     1
281
     1
  3
ACAD_XREC_ROUNDTRIP
360
8B4
  0
DICTIONARY
  5
8B5
330
2D
100
AcDbDictionary
280
     1
281
     1
  3
ACAD_XREC_ROUNDTRIP
360
8B6
  0
DICTIONARY
  5
8BD
330
31
100
AcDbDictionary
280
     1
281
     1
  3
ACAD_XREC_ROUNDTRIP
360
8BE
  0
DICTIONARY
  5
8D9
330
3F
100
AcDbDictionary
280
     1
281
     1
  3
ACAD_XREC_ROUNDTRIP
360
8DA
  0
DICTIONARY
  5
8C9
330
37
100
AcDbDictionary
280
     1
281
     1
  3
ACAD_XREC_ROUNDTRIP
360
8CA
  0
DICTIONARY
  5
8DB
330
40
100
AcDbDictionary
280
     1
281
     1
  3
ACAD_XREC_ROUNDTRIP
360
8DC
  0
DICTIONARY
  5
8C1
330
33
100
AcDbDictionary
280
     1
281
     1
  3
ACAD_XREC_ROUNDTRIP
360
8C2
  0
DICTIONARY
  5
8D7
330
3E
100
AcDbDictionary
280
     1
281
     1
  3
ACAD_XREC_ROUNDTRIP
360
8D8
  0
DICTIONARY
  5
8D5
330
3D
100
AcDbDictionary
280
     1
281
     1
  3
ACAD_XREC_ROUNDTRIP
360
8D6
  0
DICTIONARY
  5
8CF
330
3A
100
AcDbDictionary
280
     1
281
     1
  3
ACAD_XREC_ROUNDTRIP
360
8D0
  0
DICTIONARY
  5
8D1
330
3B
100
AcDbDictionary
280
     1
281
     1
  3
ACAD_XREC_ROUNDTRIP
360
8D2
  0
DICTIONARY
  5
8C7
330
36
100
AcDbDictionary
280
     1
281
     1
  3
ACAD_XREC_ROUNDTRIP
360
8C8
  0
DICTIONARY
  5
8BB
330
30
100
AcDbDictionary
280
     1
281
     1
  3
ACAD_XREC_ROUNDTRIP
360
8BC
  0
DICTIONARY
  5
8D3
330
3C
100
AcDbDictionary
280
     1
281
     1
  3
ACAD_XREC_ROUNDTRIP
360
8D4
  0
XRECORD
  5
8E2
102
{ACAD_REACTORS
330
8E1
102
}
330
8E1
100
AcDbXrecord
280
     1
102
SHADEPLOT
 70
     0
102
SHADEPLOTRESLEVEL
 70
     2
102
SHADEPLOTCUSTOMDPI
 70
   300
  0
XRECORD
  5
8E6
102
{ACAD_REACTORS
330
8E5
102
}
330
8E5
100
AcDbXrecord
280
     1
102
SHADEPLOT
 70
     0
102
SHADEPLOTRESLEVEL
 70
     2
102
SHADEPLOTCUSTOMDPI
 70
   300
  0
XRECORD
  5
8E4
102
{ACAD_REACTORS
330
8E3
102
}
330
8E3
100
AcDbXrecord
280
     1
102
SHADEPLOT
 70
     0
102
SHADEPLOTRESLEVEL
 70
     2
102
SHADEPLOTCUSTOMDPI
 70
   300
  0
XRECORD
  5
8AD
102
{ACAD_REACTORS
330
1A
102
}
330
1A
100
AcDbXrecord
280
     1
102
MATERIAL
148
0.0
149
0.0
149
0.0
 93
        0
 94
      127
282
     0
 72
     0
 77
     0
171
     0
175
     0
179
     0
273
     0
  0
XRECORD
  5
1C
102
{ACAD_REACTORS
330
1A
102
}
330
1A
100
AcDbXrecord
280
     1
270
     1
271
     1
  0
XRECORD
  5
1B
102
{ACAD_REACTORS
330
1A
102
}
330
1A
100
AcDbXrecord
280
     1
270
     1
271
     1
  0
XRECORD
  5
1F
102
{ACAD_REACTORS
330
1A
102
}
330
1A
100
AcDbXrecord
280
     1
270
     1
271
     1
  0
XRECORD
  5
1E
102
{ACAD_REACTORS
330
1A
102
}
330
1A
100
AcDbXrecord
280
     1
270
     1
271
     1
  0
XRECORD
  5
20
102
{ACAD_REACTORS
330
1A
102
}
330
1A
100
AcDbXrecord
280
     1
270
     1
271
     1
  0
XRECORD
  5
1D
102
{ACAD_REACTORS
330
1A
102
}
330
1A
100
AcDbXrecord
280
     1
270
     1
271
     1
  0
XRECORD
  5
8AC
102
{ACAD_REACTORS
330
12
102
}
330
12
100
AcDbXrecord
280
     1
102
MATERIAL
148
0.0
149
0.0
149
0.0
 93
        0
 94
      127
282
     0
 72
     0
 77
     0
171
     0
175
     0
179
     0
273
     0
  0
XRECORD
  5
14
102
{ACAD_REACTORS
330
12
102
}
330
12
100
AcDbXrecord
280
     1
270
     1
271
     1
  0
XRECORD
  5
13
102
{ACAD_REACTORS
330
12
102
}
330
12
100
AcDbXrecord
280
     1
270
     1
271
     1
  0
XRECORD
  5
10B
102
{ACAD_REACTORS
330
12
102
}
330
12
100
AcDbXrecord
280
     1
 70
     1
 90
1959938040
 71
     1
  1
9DECD363-1B38-4F52-90D0-0108D7FDC5AE
311
504B03040A0000080000B34B39403DEE336E79000000790000001B0000006175746F6465736B2D64657369676E2D7061636B6167652E786D6C3C3F786D6C2076657273696F6E3D22312E302220656E636F64696E673D227574662D3822203F3E3C666F726D6174733E3C666F726D61743E687474703A2F2F736368656D612E
311
6175746F6465736B2E636F6D2F64657369676E2D7061636B6167652F323030393C2F666F726D61743E3C2F666F726D6174733E504B0304140006080800B34B3940D486FD9CA0000000F4000000130000005B436F6E74656E745F54797065735D2E786D6C7D8EC10E82300C865F65E91D8A1E8C310C0EEA1BF002731658846E
311
D98AC1B77784ABF1D8FE5FBFBF75BBCE937A534CCEB38643598122B6FEE978D0B0485F9C41B54DDD7D022595594E1A469170414C76A4D9A4D207E29CF43ECE46F218070CC6BECC4078ACAA135ACF422C856C0E68EA1BF5669944DDD7BCDE7B1F8E415D77AECB980613C2E4AC91FC167A2B244592486606FC29C8FD7F045B9A
311
EF7053A7E60B504B0304140006080800B34B39406C08D061E90000007C01000008000000636F72652E786D6C8D90416EC3201045AF82668F8DC1AE8D858952A537E8051090042506CB40D5E317278ED4EEBA9AD19FFF66465F1CBEE73BFAB26B74C14FD0540490F53A18E72F13E474C603A083146B08E9970D9057B39D6093
311
418ACB1AF2B24B3AF8647D2AAA0FC6EEA28AD12640FA5E9A09A2BEDA59552AA7E288B76A51FAA62EB66A5E5D817376063D8F3853F6B9B3B32B48D65242BA13C5C37BCF717B243DE6A78163D6F3961DDBAEFF6083A837588AE4E6D77DBD5A95AC01494943316930ED3E091F291F19C7E46D2444D49BFD0F9417F34F283B9F18
311
DDDF7D621164531E790CA4A8B72C4A790455EA969BFC01504B0304140006080800B34B394055019EA25F0000007C00000007000000636E782E786D6C4DCB3B0E80201045D1AD90E915ED2CF8AC45050C11660C8261F98AB1B07AC9C97D42D718D865D3E909258CFD00CCE24AC6E326A164D74DC0B4128928FF326038472BA1
311
3128B1252AC747C6BAB984FC68F0B87FE8960A5C09FE86CFB69FBA01504B0304140006080800B34B394011CFBE0D65010000020300000C0000006662782F636F72652E786D6C8D52ED8E8320107C15C27F043F7A6A8334BDF4DEE05E802AF54C150C82E9E3DFFAD178BD344D63826466677776941F6E5D8B466587C6E80287
311
01C348E9D2548DAE0BECDD8564181D04B7C6B83F651869D9A9024F3016BCB6C6F72B541AED9476806A53A91594C3A01C46650B97020FE58FEA6420BD838AE11AF4B2BCCA5A05610034D4093E380B06D032643AB1B89C6F9C2EB8E0DE37D5CA36154C6B2E8DB258C449C4D8EE1491EC33CD49726429C94F594EE2344FE263B2
311
4BBFE28CD3492CB86BBABBBBD22AE9548545C4C288B09044BB6F96EFA37C1FE7847DEC19E3742A7F10F9BE7A53E41BEDE268B5BBC8062C42303213FFB685881C1AE4087EA8E0740A115E73C28F41432010B293E7F6BEC715A05195CED80498CAF88D1A65EB154C65687E385D58E83C3780CD9EF6895EF479DD033EA0D43558
311
930EAE67EFA6E97C99BA46D12B4B467743DAD84EB69BB9C5E2766E839ECA4BD31AFB8E9AAEABD2354C3AFDBDE217504B0304140006080800B34B3940EC9983C57C0000009D0000000B0000006662782F636E782E786D6C4DCCD10A83201886E15B91FFDC5536CD400D912E249685CC349C8E5DFE6A74B0A30F1E3E5E317C36
311
8FDE36BD5C0C129A5B0DC886479C5D582594BC600E685022C598FF6E80C2B459092783126B8A65BF68B6CB547C3ED4BBF0BC906B6E1A6A083674ECF19D6A8D7B5273CC46D611DE32CEDA0E2A25AA5FE9D833ACBE504B0304140006080800B34B3940681763F92A01000014020000310000006662782F38413843313543322D
311
433545392D343541412D393230382D3645363732383336383633372F636F72652E786D6C8D51CB6EC32010FC15C4293D60038E891D61A228CA1FF4071C20294A0C168F2A9F5FA81DA9BDE5C2A2D999D9D12E3F3CA707F8D63E186707482A0C81B6D229636F034CF18A3A080E827BE7E21F1A04769CF4000B0C05BF7997E615
311
92CE466D6346AD537A05C7107484403EF26780417EE969ACC6143323DCAB7994F7F1A62B52E576E6091EA2CF01C032A4BC5074C7EE44DA1345A7F6DCA36D7B3CA29EE20EB133DBD1AE611D6B76BC5E8482A764D42A372AC73157A3FDBB26452C7834D32BBEF47A8C5A414131A1081344DB4FDCEF69BF6F7A84D91E635E17FA
311
3F519AD59BA2646C6CE81A7791052808AF9786E0CAA5CBE315463F67E72328F33641CB0F28708549DFB31D66BC5EA87901D9936D57CF109DCF0BDEDC2F994DDAC5986D05AFCB8D72F93D60AEE59EE207504B0304140006080800B34B3940303441F14D01000033030000300000006662782F38413843313543322D43354539
311
2D343541412D393230382D3645363732383336383633372F636E782E786D6CD593CD6E022114855F85B09F5FADA986C1A48B3E4117DD3270559481093F4D7DFB5E14AD1B175D764326E71ECEB9F9C2B0EDF764C817F8A09D1D6857B79480954E69BB1F688ABBEA95922D67DEB9F860A3C48A09069A65CAD9DEBB341749C14E
311
24135135DA9E8AE821B8E4250494F34D629C140603C05609459846500A14B91BF16B071E5741713C937800F2FEF649DC780419036B720A674DEEE02C9FA5E9C144893422848106798049D42245A7209C6A25A2A8BBFAD6F564A7DF24922FDC2A93D724970F349F94978D6AE4C81A1C7216A2477AC514CF33502EE6D9682922
311
426E2EC6AB87B3A46D5C2D8B5723788FEE6EB5582E31EC32E32CEA098A437A101114E57DDBF555DB55FDCB47BBDEF4EBCD625DB5AB4DDBB226DB391B9D33E512C680773391CE46B091F28E3579FC0C5FF111A53DB276FEFC079008A0B45EE9DC33FE339FE6F2BE1197C7BF80FF00504B0304140006080800B34B39404C7E87
311
869C0500007B100000340000006662782F38413843313543322D433545392D343541412D393230382D3645363732383336383633372F6F626A656374732E786D6CAD575D739B3814FD2B0CFB0C18DB49931D4227B1938EA79BB6534F3BFB90198F0041B4111F2389D4E9AFDF2310185C3BF1EEF4059090AEEE3DF7DC0F05EF
311
B739B79EA990AC2CAE6CDF9DD8162DE23261457665D72A752E6CEB7D1888B2548365B655909C5ED97ADA0E834C947565A6129A929AABBDD9BB9BBF2D19D382DA56CC899457B68C1F694E5C52AB32A1F2C94D88226E966E5DDF6D178EC56682548F7B422B2268A1A029E60B48B15AA5FCF170627B61E0E9FF61A09F66D5ECF8
311
2AAFB1677C3E2BA42245FCCB617B6266FE7C793B3DBB74CEE6F399333F9FFACECDDDCDD2F1DFCD268BF3C5E2F2FAF612074B2520C96822686A871F808D6071E0B5BFC2A066859A4DCD12E3204FD067A63D658753CB0FBC764D6F9D31F290FA715914346EB0021A8D7D4674422B5A24F039A3129A0D109A8C87BEC671F07BA6
311
C7E6C8E1F469080C770C0475BA77EFA1A665F40F4C90A7304848AA19D862690C6DB93AD9211C952537FF98B472A2A860845B9C458288173BC452BD240C46623493858E066D811DC20BEDEF315D10466FF3FC909669CDB9A6B11D3651B041AC50251BCDD84F2A76DA0F91814EF09566C3853148BD54D40E2F5B8A5CECB1A905
311
D24A39C9E07298A977CEA67B862E749CAE9676F8F12EDAAE75EC1E3EBC12654585D2F401B53AC7756F8D92D1C93FC9737A83BDA7CA0E94AF40FE13427DA70AFC26D876BE9D9B539420854C4B91C337D6C47226784C2CBF79EAEFC157E0F59BC7DE3B86279CADA1FA0D788E6D18FA720067183C83F0A59819D3D631E1481BF7
311
AC00409A24162F31853C9C465B3B5C21CB212B6317E1A10F93A1EE333E03CF8841A2684E1ABC0B60B997164F48D080AD6124D468C96F14DCF9E99774D61C6C961D83F7ECB7D0F57AB9FEB8AE454A627A6F627A495356308512B7E3CD50A111E6238B9EE8CB8F522430F457BCD743BC73739404DA1A730D7CD6E5743DD89D3C
311
3A20C6BEACD4E92678E30418A10BEB40FE3D9331E59C14B4ACBB735FAD1F281B2DC43AD83593FB02B32B2C204DFB672F0651A463C12A0D625FADFAA4E91EB1EEDBEA13186987372F7F919761F68A76B9372E792936D1CBA64D4B07A1FE3EE6B6C1C0D35240F72648BAF837A06F1296A6B544123C80EBF7D562E83B9D169022
311
3AA96DB4CC613F828B0843DA4E2EAAB520A8A465B161A89B88BB83070CE50352C38046E0318D25E5E986715EE79B947154A34D4EAA2370FC7FFDA33AAF36242FEB421D913D521DD561ACFB88BDF20751F1A31DAE9BB77383DC9BD0E40819742D3980D5C8B597CBDBC572763E73FC9BD98533BF3B9B3A9793E5C499F8938BE5
311
BBBBE5E2ECFAB6F353AB491874A56618D1F0124A5B500B66DCF76D85F83149C00EEF89920F1FDAF0ECDEDF562E7AE1C0C31ED4CB7EE375F28CBE8F266F0BD8AD3C286895579CE6B45044C7D0BDFEE05F09FA8C9132EDFC2A27193D41CAE70FEB3D633073C2BE2F3ADEE98FBDBD6676A103F2A010F558E7514118DFDB98B548
311
BA559119FC3A9FF4EFB6D074433D328E41672A4BCE12E4C1C4CA689953856C784211123995A0DEB0A74FCCDDE384DDCF6D87A848C469A7C9234193CC25C202D4AA63359EB7FE4053A7FBAA2B1BE5D67DC2C3640ADB0267AE6C34E98AC554BA110AB46E851AE1E0D2B09347E34F8A8CA3D76E37F5E37E97C6665492FB25A7F4
311
4FC6AE36851B0390462AF40D6888E09D469930687433FFE3FF6478A78E45143EA35AF5B6EC267A639A6310A2AD51E6B68026E6C91CBD45A0BE6E96EF366B46889C74CB7A9504AD54471191353705AD9F51E97AF9C5438762AD3E5B15AF33F8F274498EA02073AD031C2C022B8CCC8A285075F1E7C31751E2269B5B770C1478
311
5894795E1666706D6EC2D6FA11F7DAE4016981EA0B897C984EFCE94373113077934D44247549229F30019F0AD6433C723C18D9DE165181DA1FFD3A4F3B618F9BABA5654ADA1C420D51865955C38296A3A016A2475F2675AC0C1754AFDE05BC66295410E8E2C37F01504B0304140006080000B34B3940000000000000000000
311
000000350000006662782F38413843313543322D433545392D343541412D393230382D3645363732383336383633372F76657274696365732E62696E504B0304140006080800B34B3940F270F1330600000004000000360000006662782F38413843313543322D433545392D343541412D393230382D364536373238333638
311
3633372F747269616E676C65732E62696E636660600000504B0304140006080000B34B3940000000000000000000000000370000006662782F38413843313543322D433545392D343541412D393230382D3645363732383336383633372F617474726962757465732E62696E504B0304140006080800B34B3940D5987DFC8F
311
00000041010000360000006662782F38413843313543322D433545392D343541412D393230382D3645363732383336383633372F6469726563746F72792E786D6C858F410EC2201045AF4266AF15DDB800BA74E7C21B903225242D6328188F2FA5C4183471359997F9FF81E89FF3C41E1816475E02DF1F80A11FC8386F25A4
311
38EECEC07A250251FC3803E6F58C12560C4AD840E95E91C151A72936F496F35732D860FE635F62C8F2DA16B505C545B74125BAA2FA9E05D7CC053D063734D5C7665FD55B6B8D15D5E9BFEAFD8490FFA45E504B0304140006080800B34B394004E28D50FB000000A00100003B0000006662782F38413843313543322D433545
311
392D343541412D393230382D3645363732383336383633372F7265736F75726365732F636F72652E786D6C8D504B6E833010BD0A9ABDC11828181947A9D21BF4029699A456828DFCA97AFC9A40A576D7CDCCE87D344F4F9CBE9647F1893E186727A84B0A055AED66636F13A4782503142729BC73F1970C0AAB169C6083418A
311
9B77693D20ED6C441B336ADD8C07A842C008857EE46382A03F7051A54A312BC2BD5C95BEAB1B967599E9AC9322449F0314FB936D82F4185CF21A83A876568A94CC7C68CC9C7F9AAB410FB26919A5DDA526C36BCF497BA63DE1978193A6E76D736EBBFEAD1944B599A58866F9C9A83DAA883348466B46684D58F74EF9C8F8D8
311
70425F464A45B5C9FF98D23AFFD3948C8D0D3BE2EEB600B2CE419E8414D5D6575ECF32F3DEBA95DF504B010214000A0000080000B34B39403DEE336E79000000790000001B00000000000000000000000000000000006175746F6465736B2D64657369676E2D7061636B6167652E786D6C504B01021400140006080800B34B
311
3940D486FD9CA0000000F40000001300000000000000000000000000B20000005B436F6E74656E745F54797065735D2E786D6C504B01021400140006080800B34B39406C08D061E90000007C010000080000000000000000000000000083010000636F72652E786D6C504B01021400140006080800B34B394055019EA25F00
311
00007C000000070000000000000000000000000092020000636E782E786D6C504B01021400140006080800B34B394011CFBE0D65010000020300000C00000000000000000000000000160300006662782F636F72652E786D6C504B01021400140006080800B34B3940EC9983C57C0000009D0000000B000000000000000000
311
00000000A50400006662782F636E782E786D6C504B01021400140006080800B34B3940681763F92A0100001402000031000000000000000000000000004A0500006662782F38413843313543322D433545392D343541412D393230382D3645363732383336383633372F636F72652E786D6C504B01021400140006080800B3
311
4B3940303441F14D010000330300003000000000000000000000000000C30600006662782F38413843313543322D433545392D343541412D393230382D3645363732383336383633372F636E782E786D6C504B01021400140006080800B34B39404C7E87869C0500007B10000034000000000000000000000000005E080000
311
6662782F38413843313543322D433545392D343541412D393230382D3645363732383336383633372F6F626A656374732E786D6C504B01021400140006080000B34B394000000000000000000000000035000000000000000000000000004C0E00006662782F38413843313543322D433545392D343541412D393230382D36
311
45363732383336383633372F76657274696365732E62696E504B01021400140006080800B34B3940F270F133060000000400000036000000000000000000000000009F0E00006662782F38413843313543322D433545392D343541412D393230382D3645363732383336383633372F747269616E676C65732E62696E504B01
311
021400140006080000B34B39400000000000000000000000003700000000000000000000000000F90E00006662782F38413843313543322D433545392D343541412D393230382D3645363732383336383633372F617474726962757465732E62696E504B01021400140006080800B34B3940D5987DFC8F0000004101000036
311
000000000000000000000000004E0F00006662782F38413843313543322D433545392D343541412D393230382D3645363732383336383633372F6469726563746F72792E786D6C504B01021400140006080800B34B394004E28D50FB000000A00100003B00000000000000000000000000311000006662782F384138433135
311
43322D433545392D343541412D393230382D3645363732383336383633372F7265736F75726365732F636F72652E786D6C504B0506000000000E000E0080040000851100000000
310
504B03040A0000080000B34B39403DEE336E79000000790000001B0000006175746F6465736B2D64657369676E2D7061636B6167652E786D6C3C3F786D6C2076657273696F6E3D22312E302220656E636F64696E673D227574662D3822203F3E3C666F726D6174733E3C666F726D61743E687474703A2F2F736368656D612E
310
6175746F6465736B2E636F6D2F64657369676E2D7061636B6167652F323030393C2F666F726D61743E3C2F666F726D6174733E504B0304140006080800B34B3940D486FD9CA0000000F4000000130000005B436F6E74656E745F54797065735D2E786D6C7D8EC10E82300C865F65E91D8A1E8C310C0EEA1BF002731658846E
310
D98AC1B77784ABF1D8FE5FBFBF75BBCE937A534CCEB38643598122B6FEE978D0B0485F9C41B54DDD7D022595594E1A469170414C76A4D9A4D207E29CF43ECE46F218070CC6BECC4078ACAA135ACF422C856C0E68EA1BF5669944DDD7BCDE7B1F8E415D77AECB980613C2E4AC91FC167A2B244592486606FC29C8FD7F045B9A
310
EF7053A7E60B504B0304140006080800B34B39403E53F7DCEB0000007C01000008000000636F72652E786D6C8D90416EC3201045AF82668F8DB11D850813D97573825E0001715162B00C543D7E71E248EDAEAB19FDF96F66F4F9F97BBEA32FB306EB5D0755410019A7BCB66EEA20C52B3E023A0BBE7A1F7FD90039399B0E36
310
19049F569F965D52DE45E362569DD766176508260252F7DC7410D4A799652153CC8E702B16A96E723245F5EA329C92D5E879C4EABCCF5EAD5941344DCDDEC67EC4EC72E97143DA033E524671DDD7633FF4C350BDB7BCDC60C1A39D5FF7D56A64341A042515C5A4C2B4FD20EC44D9A966981C4E84F072B3FF81D2A2FF0925EB
310
624DF7779F580051E5471E03C1CB2D8B5C1E41E5BAE5267E00504B0304140006080800B34B394055019EA25F0000007C00000007000000636E782E786D6C4DCB3B0E80201045D1AD90E915ED2CF8AC45050C11660C8261F98AB1B07AC9C97D42D718D865D3E909258CFD00CCE24AC6E326A164D74DC0B4128928FF32603847
310
2BA13128B1252AC747C6BAB984FC68F0B87FE8960A5C09FE86CFB69FBA01504B0304140006080800B34B39402126C2E767010000020300000C0000006662782F636F72652E786D6C8D52ED8E8320107C15C27F043FDAD40669ECF5FA04F70254A967AA60104C1FFFD68FC6EBA5692E26486676766747F9E1DE366850B6AF8D
310
CE7018308C942E4C59EB2AC3DE5DC90EA383E0D618F7AB0C232D5B95E111C68257D6F86E810AA39DD20E506D4AB580B2EF95C3A868E092E1BEF856AD0CA47750D1DF824E163759A9200C80863AC17B67C1009A878C2716D7CB9DD31917DCFBBA5CD8BA8469F5B556168B2489D38F537E22E9F99C93846DB66417A51189F3F8
310
941FF3E331FCDC703A8A057775FB705758259D2AB188581811169268F3C5D27D94EEE394B0ED9E314EC7F22791EFCA7F8A7CAD5D1C2D7667598F45084626E2CFB6109143BD1CC00F159C8E21C26B4AF8396808044276F2D23CF6B80134A8C2199B00531ABF52836CBC82A90C4D0FA7330B9DA706B0D9CB3ED19B3EEF7BC007
310
94BA026BD2C1F5E2DD389DCF5397283A65C9E0EE481BDBCA6635375B5CCF75D04B79611A63FFA3A6CBAA7409938E7FAFF801504B0304140006080800B34B3940B9C82B387D0000009D0000000B0000006662782F636E782E786D6C4DCCD10A83201886E15B91FFDCE5D6CC02356CE47DC4B2904C87E9D8E5AF46073BFAE0E1
310
E3E5ED6775E86DE266831770BD1040C63FC368FD2C20A709D7805AC96308E9EF06C80FAB117030483EC7905F278D661AB24BBB3AEB97139926ECA61E0CF7BAA7F84E94C61DD1156E6853953553AC23140AC98B5F69DF232CBF504B0304140006080800B34B394023D8201F2A01000013020000310000006662782F37463037
310
324143372D454645352D343041462D423046362D3935393633383741374230352F636F72652E786D6C8D514B6EC32014BC0A62952EB031FEC511264AAAF804BD0031244189C1E253E5F885DA91DA5D363C346F66DEC0A3FBE7F400DFD23A65740F8B0C4320F56884D2D71E067F415B08F68C5A63FC1F1A049A4FB28709868C
310
5EAD09F30A8D467BA97D44B5117205B973D243303EE2A5876EBCC989673CF8C870F76CE6E39D5F655664B11D798C3A6F6300B00C492764ED805B72F86CD16938D5A8C287011DF1D0A0AEEE9A72DB1EDA23AE69BE08190D418955AE448CA32E4ADA774D929851AFA657FCD14AEEA5808CE082205C20527FE16E47BA5DD921DC
310
EC30A679A2FF138559BC290A4AFB92AC71179983ACA0F9D2605498707EBCC2C8E76CAC0769DEC6C9F103329C6182ABF811345F98F1FDD1B2A9564BE78D8DFFBBB99F23B95C7D9B8AD13CAD2896DFFDC59AD6C97E00504B0304140006080800B34B394056938EE65401000033030000300000006662782F3746303732414337
310
2D454645352D343041462D423046362D3935393633383741374230352F636E782E786D6CBD93CD6E022114855F85B09F5FED440D8349177D822EBA45B85A2A03137E9AFAF6BD285A372E9A34DD90C9B987736EBE306CFB3519F2093E686747DAD52D2560A553DA1E469AE2BE5A51B2E5CC3B17EF6C945831C148B34C393B78
310
97E62229D88B6422AA46DB63113D0497BC848072BE498C93C26000D82AA108D30E9402456E46FCDA83C75550DC9D487C07F2F2FC46DCEE03640CACC9299C35B983B37C96A63B1325D28810461AE43B4CA216293A05E1582B1145DDD5D7AE073BFD24917CE15A99BC26B97CA4F9A4BC6C542347D6E090B3103DD22BA6789A81
310
7231CF464B11117273365E3C9C256DE3B02C5E8DE03DBA17FDB05A61D879C659D4131487F4202228CAFBB6EBABB6ABFAA7D776BDE9D79BC5BA6A874DDBB226DB39DB3967CA258C01EF66229D8D6023E51D6BF2F811BEE2234A7B64EDFCE91720114069BDD0B965FC259F6E582C97FFC8A739BF6FC4E5F12FE0DF504B030414
310
0006080800B34B3940C10DB5975A070000941B0000340000006662782F37463037324143372D454645352D343041462D423046362D3935393633383741374230352F6F626A656374732E786D6CED595F739B3810FF2A0CF76C0CB19D2637844E6227194F2F6DA7BE76EEC1338C0C32D145084612497C9FFE5642602026C1D7
310
DC5B1F6C4048ABDDDFFED5E27F7C4EA9F588B92019BBB03DC7B52DCCA22C262CB9B00BB91D9DD9D6C7C0E759261BD36C8BA1145FD86AD80EFC8467456E8662BC4505959DD19BABBF2C1161866D2BA248880B5B44F738450E2A641663F1E0C4482227D93E3B9E534E6C934D38CAEF3B4473C43193C0298C33A062954C79ED47
310
D71E07FE58BD0F7CF56F664D06CD9AF6CF1A6BA9DB5C12262462D10B963A642683589A78D3C5F5C9EC7C349B4E27A3E9E98937BABAB95A8CBC0F13777E3A9F9F5F5E9F037B9B2CA346A618E798C5A0BF9D1D78FE58BDA94537081CE23ACA18C3910612A0D2627509122C60AB067C6EFBD15312355E6B091BCF53F5DEB0D018
310
9EB4A9F4CD1A06448B2E0862B6AB24AEAE4DF9B2CDDF20B81862945C6009DC0AC941BB061E0E5E6107AE3F2E47037FB3D70511568A24E604518B920D471C940253D594C02F171832CA393890B294045A73E5EBB66D8167BEED3A87B8DC16942ACFB003ED5821B81F96427346FEC17CCF7D1319E009A42D089367864BB9CBB1
310
1D9CFB633D18F8EA3239312F4B20AD2D4589D088946F3B82CE95EB2F1776F0E966F3BC52E1E0F0E639CF72CCA5323AA547CD1718B2B92A94CCB6DE20CDA905204C09AA59B907E51B20FF19A2C79E15D01B27CFD3E7A9992B3962629BF1147463B9D6C8853FD7F2F4BFBA6FDCF9E37A715B7B7D78829B2AA8CE7E1ECFB60C1A
310
2BC37F03CEC07F0483CFF8C4BC5A4588823DDF1106002923B168064310DAB79B673B5842E084400FAB100D3C1019D87D845B7F6CC8ECB552B997F13A06889A3D26439404B0698B04367AF4740BD9839368AFA6A6887DF0CEDEC55C2F17AB4FAB826F5184EF8C4F2FF0963022216B1E66A885794BA207BC7BCA780C82BEC47B
310
D5C43B355B09405B61AE804F2A10D4C37EE7D60611AC4B32156EFC3776002154AE6ED0BF2322C2942286B3A2DAB78E6ECA506B8F3735831D9C94104F4E3A26CCF12351550538CD7E468B51C8FB1127B902D10E6E4BC9EAA0E9F448F77DF9192CB29EDF336BC920F43244FFD441EB000E2DCBAE903640D4026FF6E13CCA68C6
310
C3CD2E2C239D0DB504B0D1F6961F2DA210EB4B25292AE041DAEFAA909294D28631D96E0B0171F5008B3F96F3A639B8CEC49B59CDFF8E334E21DA82EF226EFCAEB347485294E0708BE2BEED9ABBD5B48526D9439AE32D05B9C82391BB10C9D08D71720C3447113F7F57EA09CD84200C0BC85707C16FA2E13A10484A6D562C2B
310
AD768026224CB144F4180414991E7075DAD1356E04A5C3DB3CD6D6FB9AC69A44FF278BE0086AC98C85044A51C8216F32EE393388216D744B943BF882B555B4B518B4801222DA854F9824F7F218D44BF23DB8477024296498E52802B31E40F685AF28A57678DFA0E841E58F302AE87B1988C0741B124A8B34841F6170F218E2
310
DA75607A158506F132F6499C42518664C1876C723A735FEC53D60CDD10D8D8684B2884ED3045790FEAAD80A8EB11AB06DF50EF51EAA648F310A559C106198A33E97A9321DF55AB223B905F552A42D958113604039F305967D52A6683A9EBC00A6EA403D52E1428CD69790A7B23F178B53769CABD1B70E3A7EFBB410A855F8F
310
F69A11755AC160786C1506E209C9E8DE0E56FA3ABA82FA3BC6F13ED557B566B30204C454242F38312AFABE84F2C6D468767087A458DF9659B7BA7E5F3AD0FDF0C7B0066A977AE152019D622691AA4CEED40DFD862004B76894E34B95538FA17219C7BA6A44F486F4A9B35546B4364D8993DF6396A5F0636BC2225AC4788D62
310
F110DE491AAE8862DD48E9A4A4C2F85501BFDCAE3AF0C0C80091BEAA020F3F75D69AD1B92A970E1291F745BA618840106C899694BA717296188D545AAEAFEA4C017517189851F1F4D7C9A2D98EF875B2488C61FCD4C9E26AF707DA35FB228D741E29BB3EEA1850E72745E53D8E01BAED5053ADB34899CC8DFCC69942088A55
310
941F5C8D5541A324D8C7F17FCEDA7D59B0DCAEC3FF7159DB7B51711C95555A935597EA40E5BA6CE6B0F3C5F57C31399D8CBCABC9D9687A333B199DBB0B77E47AEED9E2C3CD623EBBBCAED1D48E1AF87530D3B90B9ECBA0560DAB27830174654546490CA7F9D84A30C47C0967FA01ED739E6201C9B3D9EC8E4D537EC0EAC7B2
310
CF29D186E28A937B040D622A20AD03464524DBE3D66FD09A9470D0BEB0A169E43CC09FB14ADB82CC736143AB4092080B67036D26D5D0D3C421E5EADC6F88013E88252A25968BEAE77A95C2A615FEEB2943D28091ABD5C380C22D87EE57AB43A179333C4547095EB1632109B79B4242B556CAB21FA885D1DBECD55FCA46097B
310
305B3F83EBBE2E96E7E8392D44067D3278D5084AAA238978A2FBDD8A31C3D2E5E2EB18FA6CD6F28B95D322015D0EA734E2188CB950051558115885A1992309A63AFF7DFD9567F08927B57455B49E67699A31F37009E7B1183E1159AB7BF8E013AFA16CC0AAAD2ED627AE77B2D6ED6CD3610F37486047D543305095114A848E
310
B18145BE684D99C6E55829A1337DB9B04CF89C01516DB52FBABBE5E72D0BBC477D4851BEA23DBC92F3D58EF6584F056BE0D08B0EFE05504B0304140006080000B34B3940000000000000000000000000350000006662782F37463037324143372D454645352D343041462D423046362D3935393633383741374230352F7665
310
7274696365732E62696E504B0304140006080800B34B3940F270F1330600000004000000360000006662782F37463037324143372D454645352D343041462D423046362D3935393633383741374230352F747269616E676C65732E62696E636660600000504B0304140006080000B34B394000000000000000000000000037
310
0000006662782F37463037324143372D454645352D343041462D423046362D3935393633383741374230352F617474726962757465732E62696E504B0304140006080800B34B3940D5987DFC8F00000041010000360000006662782F37463037324143372D454645352D343041462D423046362D3935393633383741374230
310
352F6469726563746F72792E786D6C858F410EC2201045AF4266AF15DDB800BA74E7C21B903225242D6328188F2FA5C4183471359997F9FF81E89FF3C41E1816475E02DF1F80A11FC8386F25A438EECEC07A250251FC3803E6F58C12560C4AD840E95E91C151A72936F496F35732D860FE635F62C8F2DA16B505C545B74125
310
BAA2FA9E05D7CC053D063734D5C7665FD55B6B8D15D5E9BFEAFD8490FFA45E504B0304140006080800B34B3940E13D3D64FD000000A00100003B0000006662782F37463037324143372D454645352D343041462D423046362D3935393633383741374230352F7265736F75726365732F636F72652E786D6C8D504B6E833010
310
BD0A9ABDC1188842641C41D29CA017B0CC845A0936F2A7EAF16B0295DA5D3733A3F7D13C3D7EFE9A9FD9273AAFADE9A0CC296468941DB5993A88E14E8E909D0577D6865F32C88C9CB1831506C12767E3B243CA9A802624D4D81177507A8F0132F54C47075E7DE02C73194352F847BE48F59013E6659EE8A413DC07970264DB
310
93758270E86D740A3D2F3656F018F5B86BF4987EEABB4607A2AEABF672ED2FA4BDDD7A52D3E6408EAC65A4EAAB6B3FF4C350BE35BC58CD82073DFF64540E65C01104A32523B424AC79A7ED89B5A7AA25F470A29417ABFC8F292EE33F4D519B50B13DEE66F320CA14E445085EAC7DA5F52A33EDB55BF10D504B010214000A00
310
00080000B34B39403DEE336E79000000790000001B00000000000000000000000000000000006175746F6465736B2D64657369676E2D7061636B6167652E786D6C504B01021400140006080800B34B3940D486FD9CA0000000F40000001300000000000000000000000000B20000005B436F6E74656E745F54797065735D2E
310
786D6C504B01021400140006080800B34B39403E53F7DCEB0000007C010000080000000000000000000000000083010000636F72652E786D6C504B01021400140006080800B34B394055019EA25F0000007C000000070000000000000000000000000094020000636E782E786D6C504B01021400140006080800B34B394021
310
26C2E767010000020300000C00000000000000000000000000180300006662782F636F72652E786D6C504B01021400140006080800B34B3940B9C82B387D0000009D0000000B00000000000000000000000000A90400006662782F636E782E786D6C504B01021400140006080800B34B394023D8201F2A0100001302000031
310
000000000000000000000000004F0500006662782F37463037324143372D454645352D343041462D423046362D3935393633383741374230352F636F72652E786D6C504B01021400140006080800B34B394056938EE654010000330300003000000000000000000000000000C80600006662782F37463037324143372D4546
310
45352D343041462D423046362D3935393633383741374230352F636E782E786D6C504B01021400140006080800B34B3940C10DB5975A070000941B000034000000000000000000000000006A0800006662782F37463037324143372D454645352D343041462D423046362D3935393633383741374230352F6F626A65637473
310
2E786D6C504B01021400140006080000B34B39400000000000000000000000003500000000000000000000000000161000006662782F37463037324143372D454645352D343041462D423046362D3935393633383741374230352F76657274696365732E62696E504B01021400140006080800B34B3940F270F13306000000
310
040000003600000000000000000000000000691000006662782F37463037324143372D454645352D343041462D423046362D3935393633383741374230352F747269616E676C65732E62696E504B01021400140006080000B34B39400000000000000000000000003700000000000000000000000000C31000006662782F37
310
463037324143372D454645352D343041462D423046362D3935393633383741374230352F617474726962757465732E62696E504B01021400140006080800B34B3940D5987DFC8F000000410100003600000000000000000000000000181100006662782F37463037324143372D454645352D343041462D423046362D393539
310
3633383741374230352F6469726563746F72792E786D6C504B01021400140006080800B34B3940E13D3D64FD000000A00100003B00000000000000000000000000FB1100006662782F37463037324143372D454645352D343041462D423046362D3935393633383741374230352F7265736F75726365732F636F72652E786D
310
6C504B0506000000000E000E0080040000511300000000
  0
XRECORD
  5
17
102
{ACAD_REACTORS
330
12
102
}
330
12
100
AcDbXrecord
280
     1
270
     1
271
     1
  0
XRECORD
  5
16
102
{ACAD_REACTORS
330
12
102
}
330
12
100
AcDbXrecord
280
     1
270
     1
271
     1
  0
XRECORD
  5
18
102
{ACAD_REACTORS
330
12
102
}
330
12
100
AcDbXrecord
280
     1
270
     1
271
     1
  0
XRECORD
  5
15
102
{ACAD_REACTORS
330
12
102
}
330
12
100
AcDbXrecord
280
     1
270
     1
271
     1
  0
XRECORD
  5
8AE
102
{ACAD_REACTORS
330
22
102
}
330
22
100
AcDbXrecord
280
     1
102
MATERIAL
148
0.0
149
0.0
149
0.0
 93
        0
 94
      127
282
     0
 72
     0
 77
     0
171
     0
175
     0
179
     0
273
     0
  0
XRECORD
  5
24
102
{ACAD_REACTORS
330
22
102
}
330
22
100
AcDbXrecord
280
     1
270
     1
271
     1
  0
XRECORD
  5
23
102
{ACAD_REACTORS
330
22
102
}
330
22
100
AcDbXrecord
280
     1
270
     1
271
     1
  0
XRECORD
  5
BA
102
{ACAD_REACTORS
330
22
102
}
330
22
100
AcDbXrecord
280
     1
 70
     1
 90
1959938040
 71
     1
  1
A7F755D5-21C4-47AF-9221-05D6BF0E3ADD
311
504B03040A0000080000B34B39403DEE336E79000000790000001B0000006175746F6465736B2D64657369676E2D7061636B6167652E786D6C3C3F786D6C2076657273696F6E3D22312E302220656E636F64696E673D227574662D3822203F3E3C666F726D6174733E3C666F726D61743E687474703A2F2F736368656D612E
311
6175746F6465736B2E636F6D2F64657369676E2D7061636B6167652F323030393C2F666F726D61743E3C2F666F726D6174733E504B0304140006080800B34B3940D486FD9CA0000000F4000000130000005B436F6E74656E745F54797065735D2E786D6C7D8EC10E82300C865F65E91D8A1E8C310C0EEA1BF002731658846E
311
D98AC1B77784ABF1D8FE5FBFBF75BBCE937A534CCEB38643598122B6FEE978D0B0485F9C41B54DDD7D022595594E1A469170414C76A4D9A4D207E29CF43ECE46F218070CC6BECC4078ACAA135ACF422C856C0E68EA1BF5669944DDD7BCDE7B1F8E415D77AECB980613C2E4AC91FC167A2B244592486606FC29C8FD7F045B9A
311
EF7053A7E60B504B0304140006080800B34B394039AD93B1EA0000007C01000008000000636F72652E786D6C8D905B6EC3201045B782E61F9B871D3F8489AA365941378030715062B00C545D7E71E248ED5FBF6674E79E99D115C7EFF98EBECC1AAC7703D08200324EFBD1BA6980142FB805749462F53EFEB201726A36036C
311
324831AD3E2DBBA4BD8BC6C5AC3A3F9A5D5421980848DF733340D05733AB42A5981DE1562C4ADFD4640AFAEA329C921DD1F3881DF33E7BB1660559B1B6A9393FE1F39977B87AAF1BDCD51DC56FFCC49A03A949F5C145B9C152443BBFEEEBD5A86846908C508609C5ACFE245DCFBA9EB7981C7A4244B9D9FF406919FF0925EB
311
2267FBBB4F2C80A4F991C7408A72CB22974750B96EB9C91F504B0304140006080800B34B394055019EA25F0000007C00000007000000636E782E786D6C4DCB3B0E80201045D1AD90E915ED2CF8AC45050C11660C8261F98AB1B07AC9C97D42D718D865D3E909258CFD00CCE24AC6E326A164D74DC0B4128928FF326038472B
311
A13128B1252AC747C6BAB984FC68F0B87FE8960A5C09FE86CFB69FBA01504B0304140006080800B34B39404117C86966010000020300000C0000006662782F636F72652E786D6C8D52ED8E8320107C15C27F04BFDADA20CDE5AE7D827B01AAD433553008A68F7FEB47E3F5D2348D0992999DDDD9517EB8B50D1A94ED6BA373
311
1C060C23A50B53D6BACAB17717B2C3E820B835C6FD29C348CB56E57884B1E09535BE5BA0C268A7B403549B522DA0EC7BE5302A1AB8E4B82F7E542B03E91D54F4D7A093C555562A0803A0A14EF0DE593080E621E389C5E57CE374C605F7BE2E17B62E615A7DA995C5228976DB348E8FE4748A33927CA65B92A559483EE263B4
311
DDB094255F31A7A3587057B777778555D2A9128B888511612189D26F96EDA36C1FEF08DBEC19E3742C7F10F9AE7C53E46BEDE268B13BCB7A2C42303211FFB685881CEAE5007EA8E0740C115E53C28F41432010B293E7E6BEC715A04115CED80498D2F8951A64E3154C65687A389D59E83C3580CD9EF6895EF479DD033EA0D4
311
1558930EAE67EFC6E97C9EBA44D1294B067743DAD85636ABB9D9E27AAE839ECA0BD318FB8E9A2EABD2254C3AFEBDE217504B0304140006080800B34B394008A9DE127D0000009D0000000B0000006662782F636E782E786D6C4DCCD10A83201886E15B91FFDCE5E46F395063B2BA8F581632D3703A76F9ABD1C18E3E78F878
311
65FB593C79DBF4723128389F18101B1E7174615650F244059056CB1463FEBB0109C36215EC0C5ACE2996F5A0D14E43F17953EFC2F340D6980BE757A41D72439175484D2D04E5758FB746E0BD67062A2DAB5F69DB3DACBF504B0304140006080800B34B394038A3EC2A2B01000014020000310000006662782F303742363232
311
39342D453432422D343045342D423538382D3235463441373834444630422F636F72652E786D6C8D51CB6EC32010FC15C4293DD806421C3BC244B59A7C417FC0C1C44589C1E251E5F3BBAE1DA9BDE5C2A2D999D98115C7C77847DFDA07E36C83694E30D256B9DED8A1C1295EB30AA3A314DEB9F8878691ED46DDE019C6520C
311
DEA5698594B351DB08A875BD5EC12E041D315277B83438A82F3D7679972230C22D9F3A75EB069DD31CDAC09322440F01D032643EB124FBB664ACE6D989B336E3E4C4B376575519DB9DF9FBBEE21F67D28A62114A9192E957B9E9218EB91AED5F3599C55244333EE32BAFBBA87B2C19A12C2314867E92FAC0EAC3B6CA487920
311
441433FD9F284DFD8BA2646CDCB235EE220B5852512C0D297A972EF76718FD989C8F689EB7095ABDC1AB72C228658CD4A258A8F001E059F2D53344E7E18337B70BB0E96E312EB914C5BC2328BF0B843AEF53FE00504B0304140006080800B34B39403121C5804D01000033030000300000006662782F30374236323239342D
311
453432422D343045342D423538382D3235463441373834444630422F636E782E786D6CD593CD6E022114855F85B09F5FAD51C360D2459FA08B6E19B82A9581093F4D7DFB5E14AD1B175D764326E71ECEB9F9C2B0DDF764C817F8A09D1D6857B79480954E697B18688AFB6A4DC98E33EF5C7CB05162C50403CD32E5ECE05D9A
311
8BA4602F9289A81A6D4F45F4105CF21202CAF926314E0A830160AB84224C2328058ADC8DF8B5078FABA0389E493C02797BFD206EFC0419036B720A674DEEE02C9FA5E9C144893422848106798449D42245A7209C6A25A2A8BBFAD6F564A7DF24922FDC2A93D724970F349F94978D6AE4C81A1C7216A2477AC514CF33502EE6
311
D9682922426E2EC6AB87B3A46D5C2D8B5723788FEE6EB5582E31EC32E32CEA098A437A101114E57DDBF555DB55FDCB7BBBD9F69BED625DB5AB6DDBB226DB391B9D33E512C680773391CE46B091F28E3579FC0C5FF111A53DB276FEFC079008A0B45EE9DC33FE339FE6F2BE1197C7BF80FF00504B0304140006080800B34B39
311
40DA8493229B0500007A100000340000006662782F30374236323239342D453432422D343045342D423538382D3235463441373834444630422F6F626A656374732E786D6CAD57DB6EDB3810FD1541FBEC8B7C699A85A2C2B1EBC228D216355AEC4300839228851B4A14482A75F6EBF750A264C9B113EFA22F96450D873367
311
CE5CE87FD867DC79A2523191DFB8DE70EC3A348F44CCF2F4C62D753278EF3A1F025F0AA13B62AE93938CDEB866D90DFC548AB2B04B314D48C9F5D1EAFAF62F474534A7AE1371A2D48DABA2079A912129B588A97A1CC64493619AEC87DEB016ECAB4D25291E8E941644D25CC352ACE7D0E2D44679FDD7B13B0AFC91F91EF8E6
311
D74A4DCF4B8D2A7FFAE7B35C6992472F0E3B5233F566AB8F93F9F5603E9B4D07B377136F70BBBE5D0DBCABE978F96EB9BC5E7CBCC6C14A4B68B296489AB8C127602359E48FEA4F815FB25C4F2756C4066824E9133391728389E3F9A35AA6F5CE3A79CAFC48E4398D2AAC8046E59F551DD382E63162CEA882651D84C6FD57CF
311
E0D8F93C35EFF6C8EEF265087477741435B637CFAEA522FC1B2EA84B182415350CACB1B48ED65C1D1F100E85E0F61B534E4634958C7087B35012F9EC0610352281DF5363982C4D36180FDC0051A83FF7E982347A9BE7A7AC4C4ACE0D8DDDA0CA821D72856A5559C6FEA1F2607D1719D884581936BCB70EE9E782BAC1754D91
311
F7476CAA8174124E52841C6E9A9DD3C991A34B93A79B951B7C5E87FBADC9DDD387175214546A431F50AB095CF33428599BBC8B226736B847A61C40F90EE4BF20D50FA6206E92ED67FB993D454B92AB44C80CB171C6CE608C9FB1E355BFE67FE79F3F6A37F7A3770E4F04DB40F51BF0ECFBD08D6507CEC07F02E1859C5AD7B6
311
11E1281B772C074086240E1758421D4EC2BD1B6C50E55095B18BF0C083CB30F7097FFD91558342519DD479E6C0F2A82C5E50A0015BC548985193DF1A7888D38B72561D6CC5CEC13BFF2D745DACB69FB7A54C4844EF6C4EAF68C272A6D1E20EBCE91AD4C3BCE7D1237DFE25640C475FE2BDEDE29DD9A314D036981BE0D3A6A6
311
9B97C3C9BD0322EC4B852937FE1B27C009D3583BFAEF988A28E724A7A26CCE7DB57FA06DD4109B64374C6E1BCCA1B18034F597A31C44938E242B0C886DB76A8BE6F08C773F365FC048C87311127E100A0FA537125CC85DF8BCABABD249A47FF6A96D2118192D607B95234DFA5BCC77314B9252A1069E80F5E766D90D9DA90A
311
A8108DD63A5966701FB945A4E56CA317CD5A12345291EF18DA26D2EEE4015DFD40D412A05278CE624579B2639C97D92E611CCD689791E20C1CFFDFFEB0CC8A1DC94499EB33BA7BA6A339F46DEF9157FD223A7A70836DF51CDCA2F4C6343E84B9276C5AC909AC7AA15D5CADAFE6F3D57C30F196B3C1EC6AB11E5C4F30438DE7
311
AB77B7EBF1C7E962B56AE2542B0FFCA6D374131A514267F34BC96CF87E6C903EB606B8C11DD1EAFE539D9DCDF3C7668851D81F610FDA65BB71113F61ECA3F1DB0A0E9227156DB282D38CE69A9814BA337FF8778231A3674CBDBEC9484A2FD0F2F5D3F6C819AC5CB0EF9B4977FAEB68AF5D5D9A843CA9443F94599813C68F36
311
A63592C3224F2D7E4D4CDA67DD679A57F3660383C15409CE6294C1D849A9C8A84631BCA007C98C2A50AF3BD2C7F6EA71C1EEA77A40D424E4B4B1E4816046E60A69016A9591EEAF3B7F60A63363D58D8B6E3B7CC48FAD14AE03CEDCB898D1358BA81A86E8CF6612AA94834BDD411E733FC9538E51BBDED4BEB7BB0C36BD8EDC
311
8A5C323E59BFEA0A6E1D4019293036601E42742A6302BFB2CD7E8FFE93E38D390ED1F81B96BAF5E5B0D03A531D8314AD9DB29705CC308FF6E83D12F575B7BC6125D343E4A24BD6AB24A8B50E349169755130F6599316AB6F230C28CEE6AB53F032452C2FD7349014642E4D8283456085D559100DAA2EFFBCFF26052EB299B3
311
66A0C0FD526499C8EDCBC25E849DED03AEB5F13DCA0235F711753F197B93FBEA1E60AF26BB90283A24B17AC402622A590B712FF060647D594407AA3FB472231384236E6E568E6D693328B544E95655030B268E9C3AC81E739734B9D215285EBD0A8C2A51982031C407FF02504B0304140006080000B34B3940000000000000
311
000000000000350000006662782F30374236323239342D453432422D343045342D423538382D3235463441373834444630422F76657274696365732E62696E504B0304140006080800B34B3940F270F1330600000004000000360000006662782F30374236323239342D453432422D343045342D423538382D323546344137
311
3834444630422F747269616E676C65732E62696E636660600000504B0304140006080000B34B3940000000000000000000000000370000006662782F30374236323239342D453432422D343045342D423538382D3235463441373834444630422F617474726962757465732E62696E504B0304140006080800B34B3940D598
311
7DFC8F00000041010000360000006662782F30374236323239342D453432422D343045342D423538382D3235463441373834444630422F6469726563746F72792E786D6C858F410EC2201045AF4266AF15DDB800BA74E7C21B903225242D6328188F2FA5C4183471359997F9FF81E89FF3C41E1816475E02DF1F80A11FC838
311
6F25A438EECEC07A250251FC3803E6F58C12560C4AD840E95E91C151A72936F496F35732D860FE635F62C8F2DA16B505C545B74125BAA2FA9E05D7CC053D063734D5C7665FD55B6B8D15D5E9BFEAFD8490FFA45E504B0304140006080800B34B39402A06BD29FD000000A00100003B0000006662782F30374236323239342D
311
453432422D343045342D423538382D3235463441373834444630422F7265736F75726365732F636F72652E786D6C8D504B6EC32010BD0A9A3D368638892D4C5435CD097A0184272E4A0C169FAAC72F4E5CA9DD7533337A1FCDD393A7AFF94E3E3144EBDD004DC580A0337EB46E1A20A72B3D02392919BC4FBF64409C9E7180
311
150625A7E0F3B241C6BB842E15D4F9113750C7880988B9976380683E70D695CEA928E2AD5AB4B9E909ABA62A74D12919532801C8F3C93A41058C3E078351D64F56C99CEDB869EC587EDAABC5006AC78F87568833BD5C444777AFED81766DD7D017F1C60F7BD6B2DD59C87A352B99ECFC93D104D40947509C359CB286F2F69D
311
753DEF7A71A46CDF3326EB55FEC79497F19FA66C5D127C8BFBB445504D09F22094ACD7BECA7A9459F6DAADFA06504B010214000A0000080000B34B39403DEE336E79000000790000001B00000000000000000000000000000000006175746F6465736B2D64657369676E2D7061636B6167652E786D6C504B01021400140006
311
080800B34B3940D486FD9CA0000000F40000001300000000000000000000000000B20000005B436F6E74656E745F54797065735D2E786D6C504B01021400140006080800B34B394039AD93B1EA0000007C010000080000000000000000000000000083010000636F72652E786D6C504B01021400140006080800B34B394055
311
019EA25F0000007C000000070000000000000000000000000093020000636E782E786D6C504B01021400140006080800B34B39404117C86966010000020300000C00000000000000000000000000170300006662782F636F72652E786D6C504B01021400140006080800B34B394008A9DE127D0000009D0000000B00000000
311
000000000000000000A70400006662782F636E782E786D6C504B01021400140006080800B34B394038A3EC2A2B0100001402000031000000000000000000000000004D0500006662782F30374236323239342D453432422D343045342D423538382D3235463441373834444630422F636F72652E786D6C504B010214001400
311
06080800B34B39403121C5804D010000330300003000000000000000000000000000C70600006662782F30374236323239342D453432422D343045342D423538382D3235463441373834444630422F636E782E786D6C504B01021400140006080800B34B3940DA8493229B0500007A10000034000000000000000000000000
311
00620800006662782F30374236323239342D453432422D343045342D423538382D3235463441373834444630422F6F626A656374732E786D6C504B01021400140006080000B34B394000000000000000000000000035000000000000000000000000004F0E00006662782F30374236323239342D453432422D343045342D42
311
3538382D3235463441373834444630422F76657274696365732E62696E504B01021400140006080800B34B3940F270F13306000000040000003600000000000000000000000000A20E00006662782F30374236323239342D453432422D343045342D423538382D3235463441373834444630422F747269616E676C65732E62
311
696E504B01021400140006080000B34B39400000000000000000000000003700000000000000000000000000FC0E00006662782F30374236323239342D453432422D343045342D423538382D3235463441373834444630422F617474726962757465732E62696E504B01021400140006080800B34B3940D5987DFC8F000000
311
410100003600000000000000000000000000510F00006662782F30374236323239342D453432422D343045342D423538382D3235463441373834444630422F6469726563746F72792E786D6C504B01021400140006080800B34B39402A06BD29FD000000A00100003B00000000000000000000000000341000006662782F30
311
374236323239342D453432422D343045342D423538382D3235463441373834444630422F7265736F75726365732F636F72652E786D6C504B0506000000000E000E00800400008A1100000000
310
504B03040A0000080000B34B39403DEE336E79000000790000001B0000006175746F6465736B2D64657369676E2D7061636B6167652E786D6C3C3F786D6C2076657273696F6E3D22312E302220656E636F64696E673D227574662D3822203F3E3C666F726D6174733E3C666F726D61743E687474703A2F2F736368656D612E
310
6175746F6465736B2E636F6D2F64657369676E2D7061636B6167652F323030393C2F666F726D61743E3C2F666F726D6174733E504B0304140006080800B34B3940D486FD9CA0000000F4000000130000005B436F6E74656E745F54797065735D2E786D6C7D8EC10E82300C865F65E91D8A1E8C310C0EEA1BF002731658846E
310
D98AC1B77784ABF1D8FE5FBFBF75BBCE937A534CCEB38643598122B6FEE978D0B0485F9C41B54DDD7D022595594E1A469170414C76A4D9A4D207E29CF43ECE46F218070CC6BECC4078ACAA135ACF422C856C0E68EA1BF5669944DDD7BCDE7B1F8E415D77AECB980613C2E4AC91FC167A2B244592486606FC29C8FD7F045B9A
310
EF7053A7E60B504B0304140006080800B34B394077112819E80000007C01000008000000636F72652E786D6C8D90416EC3201045AF82D86303B62B6C61A2DA4A4FD00B20200E4A0C9681AAC72F248ED4EEBA9AD19FFF66469F9FBED73BF8327BB0DE8D90541802E394D7D62D234CF182180427C177EFE32F1B044EAE668445
310
86822FBB4FDB2129EFA27131ABCE6B73883204132150F7DC8C30A8AB59652553CC8E70AB36A96E7231157975194EC96AF03C6275DE672FD6EC50341F6C6EA77642AC6B296ACFE706B1994EE87D6684F53DEE684F785D60C1A35D5FF7D56E64341A0A8A09459820DA7DE27EA0FDD03084DF068C795DEC7FA0B4E97F42C9BAD8
310
D0E3DD2716A0288F3C0682D7258B5C1E41E55A72133F504B0304140006080800B34B394055019EA25F0000007C00000007000000636E782E786D6C4DCB3B0E80201045D1AD90E915ED2CF8AC45050C11660C8261F98AB1B07AC9C97D42D718D865D3E909258CFD00CCE24AC6E326A164D74DC0B4128928FF326038472BA131
310
28B1252AC747C6BAB984FC68F0B87FE8960A5C09FE86CFB69FBA01504B0304140006080800B34B394027964ECC65010000020300000C0000006662782F636F72652E786D6C8D52ED8E8320107C15C27F04D15EB4419A6BD37B827B01AAD433553008A68F7FEB47D3EBA5691A1324333BBBB3A36277ED5A346A3734D614388E
310
1846DA94B66A4C5DE0E0CF24C3682785B3D6FF29C3C8A84E177882B114B5B3A15FA1D21AAF8D07D4D84AAFA01A06ED312A5BB81478287F74A722153C540C97A857E545D53A8A23A0A14E8AC13B30809621D389E5F9741574C1A508A1A956B6A9605A736EB4C332F9CA0EE93EDD936C9372921E8F09C90E7C4F3E0F599CE539
310
DBF03C1674124BE19BEEE6AE745A795D61C959CC098B09DF7CB37CCBF36D9211F6B1654CD0A9FC4114FAEA4D51688C4FF86A77910D584E4666E2DFB6109147831AC10F95824E21C26B4EF83168080442F6EAD4DEF6B80034EAD25B970253D970A746D5060D53199A1F4117163ACF0D60B3A77DF88B3EAF7BC00754A6066BCA
310
C3F514FC345D2C53D7287AEDC8E8AFC858D7A9F66E6EB1783FEF839ECA4BDB5AF78E9AAEABD2354C3AFDBDF217504B0304140006080800B34B39405DC498327F0000009D0000000B0000006662782F636E782E786D6C4DCCD10E82201886E15B61FF39A9F897B4012E13EFC3253A2642236C5D7EDA3CE8E8DB9E7D7B45FD59
310
1C799BF8B2C14B284E3910E31F61B07E92B0A6917220B5123184F47703E2FBC548D819949862589F070D66EC57973675D6CF07167846DD764819CB1945CE35BDDD2F1DBD5665D9A0E64D8B15644A64BFD2B67B587D01504B0304140006080800B34B394068123C942C01000014020000310000006662782F31343534454446
310
342D323230322D343838452D414336462D3937333342344538424434372F636F72652E786D6C8D51CB6EC23010FC95C8277A70E2384E08C8312A05BEA03F106C432D881DF951F1F9DD34416A6F5CBCD6ECCCEC6897EF1EC33DFBD63E18673B54E60465DA4AA78CBD7628C50B6E51B613DC3B17FFD05066FB4177688291E057
310
EFD2B840D2D9A86D04D43AA517B00F414794C93B7C3A14E4971EFABC4F1118E1968FBDBCF5579D9739B4812778881E0264F390E945A264353B1E4E0C534A28666D7BC4EF1FCD096FD655B567C7767F606B5ECC42C153326A911B0571CCC568FFAAC924163C9AE1195F7ADD47AD90A0A4A4989498D69F64B3A59B6DD562D26C
310
09E1C544FF274AA37A51948C8D155DE2CEB2005979313704572E9DEFCF30FA313A1FB369DE2A68F98604C909ADCABAAD192F662A2C003C1BB67886E83C2C78753B03BB2A67E386095E4C3782F27B40A8D33DC50F504B0304140006080800B34B394057860A975501000033030000300000006662782F31343534454446342D
310
323230322D343838452D414336462D3937333342344538424434372F636E782E786D6CBD93CD6EC32010845F0571F76F52CB8930917AE813F4D02B864D4A83C1025C356FDF2521692E3954AA7A41D6EC30B3FA84D9EE6B32E4137CD0CE0EB4296B4AC04AA7B43D0C7489FBA2A764C799772EDED928B162828126997276F06E
310
99B3A4602F16135135DA1EB3E821B8C54B0828A79BC438290C06802D1614611A412950E466C4AF3D785C05C5F144E23B9097E737E2C60F9031B02AA57056A50ECED2999BEE4C94482342186890EF3089522CD12908C7528928CAA6BC763DD8E92789A40BD7CAC56B92CA079A4ECAF346257264150E390BD123BD6C8AA71928
310
17F36CB41411215767E3C5C3D9A26DECD6D9AB11BC47F7AAEDFA1EC3CE33CEA29E203BA407114151DED64D5BD44DD13EBDD69B6DBBD9AEFAA2EEB675CDAA64E76C74CEE44B1803DECD443A1BC146CA1B56A5F1237CD94794F6C8DAF9D32F402280DC7AA173CBF84B3E4DB75AAFFF914F757EDF88CBE35FC0BF01504B030414
310
0006080800B34B3940CFFFD46658070000931B0000340000006662782F31343534454446342D323230322D343838452D414336462D3937333342344538424434372F6F626A656374732E786D6CED595B6FA33814FE2B887D0E09B9B4D31565D426D32A5A756634D919ED4325E48043BD3506D9A697FDF57B7C81000D2DD9E9
310
BECD430218FBF89CEF5C7D083E3E65D479C05C909C9DBBBE37711DCCE23C212C3D774BB91B7D709D8F61C0F35C36A6B90E43193E77D5B01B0629CFCBC20E2578874A2A3BA357977F3922C60CBB4E4C9110E7AE88EF70863C54CA3CC1E2DE4B90445EBA7BF27CCF4C6C934D392AEE3A440BC43193C0298C33A0E218A6FCF6E3
310
C41D87C158BD0F03F56F67CD06CD9AF7CF1A6BA9DB5C12262462F10B963A646683589AF9F3D5A7E9E26CB498CF67A3F9C9D41F5D5E5DAE46FEE96CB23C592ECF2E3E9D017BDB3CA756A604179825A0BF6737F483B17A538B6E1138C4759C3386630D2440A5C5EA122458C0560DF826ED475F49D478AD256C3CCFD57BCB4263
310
78D6A6D2376B18102DBA2088DDAE92B8BA36E5CBB77F83E0628851728125702B2407ED5A783878851B4E82B1190D83ED5E17443819929813441D4AB61C71500A4C5553C2C02CB06494737020E52809B4E6CCEBB66D8167BEED3A87B8DC95942ACF7043ED5811B81F96427346FEC17CCF7D1319E009A42D09931F2C97F2B9C0
310
6E78168CF56018A8CB6C6A5F1A209D1D45A9D08898B71D4197CAF5D72B37FCE36AFBB451E1E0F0E605CF0BCCA5323AA547CD1718B2BD2A94ECB6FE20CDA905208C01D5AEDC83F20D90FF0CD163CF0AE88D93A7F9D3DCCE951C31B1CB7906BA7126CE68027F13C7D7FFEABE71178CEBC56DEDF5E1096EAAA0FAF0F378B665D0
310
5859FE1B7086C103187CCE67F6D5264614ECF986300048198943731882D0BEDB3EB9E11A0227047A588568E883C8C0EE03DC06634B66AF95CABDACD73140D4EE311BA224804D5B24B0D1A3A76BC81E9CC47B353545EC8377F12EE67AB1DAFCB129F90EC5F8C6FAF40AEF082312B2E661865A98B724BAC7CF8F394F40D09778
310
6F9A7867762B01682BCC15F06905827AD8EFDCDA20867569AEC24DF0C60E2084CAD50DFA3744C49852C4705E56FBD6D14D196AEDF1B66670C3A9817836ED9830C70F445515E034FB192D4621EFC79C140A4437BC3692D541D3EB91EEFBFA3358643DBF67D69A41E86588FEA983D6011C5A965D216D81A805DEEEC3799CD39C
310
47DBE7C8443A176A0960A3ED2D3F5A4421D61B25292AE041DAEFAA90921A69A384EC76A580B87A80C51FEB65D31C26DECC5F38CDFF8E33CE21DA82EF226EFDAEB347443294E2688792BEED9ABBD5B48526D9439AE31D05B9C80391CF1192D124C1E931D01C45FCEC5DA9A7341782302C205F1D04BF89C6C4834062B459B1AC
310
B4DA019A8828C312D1631050647AC0D56947D7B831940E6FF3585BEF6B1A6B12FD9F2C8223A82573161128452187BCC9B8EF2D2086B4D1352877F0056BAB686B3168092544FC1C3D6292DEC9635037E47B708FE14852CA282F500C663D80EC0B5F514AEDF0BE45F1BDCA1F515CD2F7321081E92E22949659043FC2E0E431C4
310
B5EBC0F42A0A0DE226F6499C41518664C9876C72B298BCD8C7D40CDD10D8D868472884ED2843450FEAAD80A8EB11A706DF52EF51EAB6CC8A086579C906198A37EB7A9325DF55AB223B905F552A42D95811B604C380305967D52A6683A9EBC00A6EA403D57324505650730A7B23F1F8B53769CABD1B70EBA7EFBB4106855F8F
310
F69A11755EC160796C1506E211C9F8CE0D37FA3ABA84FA3BC1C93ED557B566B30204C454242F39B12AFABE86F2C6D6686E7883A4B8BD3659B7BA7E5F7BD0FD08C6B0066A977AE15A019D612691AA4C6ED40DFD862004B76898F1B5CAA9C750B948125D35227A45FAD4D92A235A9B66C42BEE30CB33F8B15BC2625A26F81625
310
E23EBA9134DA10C5BA95D2CB4885F1AB027EB9DE74E0819101227D55051E7EECACB5A34B552E1D2422EFCA6CCB108120D8122D35BAF10A965A8D545AAEAFEA4C017517189855F1FCD7C9A2D98EF875B248AD61FCDCC982E65B44F7D1A691CD6365D6479D02EAF4A4A8BCC72940771D6AAA751231B9DC8A6F7D2982985805F9
310
C1C55815330CC13E8EFF73D2EE4B8266BB0EFFC7256DFF45C1715452694D564DAA0385EBBA99C22E4EAF4E178BD56234F597F3D1FCF4E26A74368526ED64B13AB9BC9A7C9A5DAC56359ADA4FC3A08E653A75C1B38969D5B07AB218405356E4942470984F9C1443C89770A41FD03DE71916903B9BBDEEC4F6E407AC7E306D4E
310
89B614579CDC21E80F5301591D302A63D91E777E83CEA48473F6B90B3D23EF1EFEAC55BA0E249E73173A0592C458785BE832A97E9E260E1957A77E4B0CF0412C5519D12CAA9FEB550A9B56F4AFA70CC90256AE560B03EAB6029A5FAD0685E6CDF2141F2578C58E8324DC6E4B09C59A91653F500BA3B7D9ABDFC84609BBB75B
310
3F81EBBE2E96EFE9392D44067D3178D5080CD591443CD5ED6EC59865E962F5750C6D3667FDC5296899822E87531A710CC65CAA7A0AAC08ACC2D22C9004535DFE7EFB95E7F0852773745174BBCCB32C67F6E1028E63097C21723677F0BD27B985AA01ABAEBAB89D4EFCE9ADEE66DB067BB445027BAA1C8281AA8A5022748C0D
310
2CF24567CAF62DC74A099DE9EB9563C32774018C05BD68EE9AAF5B0E788FFA8EA27C457B7825E7AB0DEDB19E0AD6C0A1151DFE0B504B0304140006080000B34B3940000000000000000000000000350000006662782F31343534454446342D323230322D343838452D414336462D3937333342344538424434372F76657274
310
696365732E62696E504B0304140006080800B34B3940F270F1330600000004000000360000006662782F31343534454446342D323230322D343838452D414336462D3937333342344538424434372F747269616E676C65732E62696E636660600000504B0304140006080000B34B3940000000000000000000000000370000
310
006662782F31343534454446342D323230322D343838452D414336462D3937333342344538424434372F617474726962757465732E62696E504B0304140006080800B34B3940D5987DFC8F00000041010000360000006662782F31343534454446342D323230322D343838452D414336462D3937333342344538424434372F
310
6469726563746F72792E786D6C858F410EC2201045AF4266AF15DDB800BA74E7C21B903225242D6328188F2FA5C4183471359997F9FF81E89FF3C41E1816475E02DF1F80A11FC8386F25A438EECEC07A250251FC3803E6F58C12560C4AD840E95E91C151A72936F496F35732D860FE635F62C8F2DA16B505C545B74125BAA2
310
FA9E05D7CC053D063734D5C7665FD55B6B8D15D5E9BFEAFD8490FFA45E504B0304140006080800B34B39401FFB7528FC000000A00100003B0000006662782F31343534454446342D323230322D343838452D414336462D3937333342344538424434372F7265736F75726365732F636F72652E786D6C8D504B6AC33010BD8A
310
99BD6C59B68B1C648524A427E805843C49446229E8537AFC4AB10BEDAE9B99E17D98C713FBAFE5517DA20FC6D909DA9A428556BBD9D8EB04295E08876A2F85772EFE924165D582131418A4B87A979E1BA49D8D686346AD9B7103550818A1D28F7C4C10F40D1755AB14B322DCEBA7D27775C5BAAD339D755284E873806A7D52
310
26488FC125AF31886665A548C9CC9BC6CCF9A7B918F420BB777EEA8FFD81F0A167A43F9F3BC24FEC480E27DEF271A4031B5BD114B314D12C3F19B547157106C968CB086D091B3EE8B863E3AEE384BEED28154D91FF31A5E7FC4F533236766C8BBBDA02C812E44548D194BEF27A959977E9567E03504B010214000A00000800
310
00B34B39403DEE336E79000000790000001B00000000000000000000000000000000006175746F6465736B2D64657369676E2D7061636B6167652E786D6C504B01021400140006080800B34B3940D486FD9CA0000000F40000001300000000000000000000000000B20000005B436F6E74656E745F54797065735D2E786D6C
310
504B01021400140006080800B34B394077112819E80000007C010000080000000000000000000000000083010000636F72652E786D6C504B01021400140006080800B34B394055019EA25F0000007C000000070000000000000000000000000091020000636E782E786D6C504B01021400140006080800B34B394027964ECC
310
65010000020300000C00000000000000000000000000150300006662782F636F72652E786D6C504B01021400140006080800B34B39405DC498327F0000009D0000000B00000000000000000000000000A40400006662782F636E782E786D6C504B01021400140006080800B34B394068123C942C0100001402000031000000
310
000000000000000000004C0500006662782F31343534454446342D323230322D343838452D414336462D3937333342344538424434372F636F72652E786D6C504B01021400140006080800B34B394057860A9755010000330300003000000000000000000000000000C70600006662782F31343534454446342D323230322D
310
343838452D414336462D3937333342344538424434372F636E782E786D6C504B01021400140006080800B34B3940CFFFD46658070000931B000034000000000000000000000000006A0800006662782F31343534454446342D323230322D343838452D414336462D3937333342344538424434372F6F626A656374732E786D
310
6C504B01021400140006080000B34B39400000000000000000000000003500000000000000000000000000141000006662782F31343534454446342D323230322D343838452D414336462D3937333342344538424434372F76657274696365732E62696E504B01021400140006080800B34B3940F270F13306000000040000
310
003600000000000000000000000000671000006662782F31343534454446342D323230322D343838452D414336462D3937333342344538424434372F747269616E676C65732E62696E504B01021400140006080000B34B39400000000000000000000000003700000000000000000000000000C11000006662782F31343534
310
454446342D323230322D343838452D414336462D3937333342344538424434372F617474726962757465732E62696E504B01021400140006080800B34B3940D5987DFC8F000000410100003600000000000000000000000000161100006662782F31343534454446342D323230322D343838452D414336462D393733334234
310
4538424434372F6469726563746F72792E786D6C504B01021400140006080800B34B39401FFB7528FC000000A00100003B00000000000000000000000000F91100006662782F31343534454446342D323230322D343838452D414336462D3937333342344538424434372F7265736F75726365732F636F72652E786D6C504B
310
0506000000000E000E00800400004E1300000000
  0
XRECORD
  5
27
102
{ACAD_REACTORS
330
22
102
}
330
22
100
AcDbXrecord
280
     1
270
     1
271
     1
  0
XRECORD
  5
26
102
{ACAD_REACTORS
330
22
102
}
330
22
100
AcDbXrecord
280
     1
270
     1
271
     1
  0
XRECORD
  5
28
102
{ACAD_REACTORS
330
22
102
}
330
22
100
AcDbXrecord
280
     1
270
     1
271
     1
  0
XRECORD
  5
25
102
{ACAD_REACTORS
330
22
102
}
330
22
100
AcDbXrecord
280
     1
270
     1
271
     1
  0
XRECORD
  5
8A9
102
{ACAD_REACTORS
330
8A8
102
}
330
8A8
100
AcDbXrecord
280
     1
102
ACAD_ROUNDTRIP_2012_MLEADER_STYLE
298
     1
  0
CELLSTYLEMAP
  5
8A7
102
{ACAD_REACTORS
330
8A6
102
}
330
8A6
100
AcDbCellStyleMap
 90
        3
300
CELLSTYLE
  1
TABLEFORMAT_BEGIN
 90
        5
170
     1
 91
        0
 92
    32768
 62
   257
 93
        1
300
CONTENTFORMAT
  1
CONTENTFORMAT_BEGIN
 90
        0
 91
        0
 92
      512
 93
        0
300

 40
0.0
140
1.0
 94
        5
 62
     0
340
55
144
0.25
309
CONTENTFORMAT_END
171
     0
 94
        0
309
TABLEFORMAT_END
  1
CELLSTYLE_BEGIN
 90
        1
 91
        1
300
_TITLE
309
CELLSTYLE_END
300
CELLSTYLE
  1
TABLEFORMAT_BEGIN
 90
        5
170
     1
 91
        0
 92
        0
 62
   257
 93
        1
300
CONTENTFORMAT
  1
CONTENTFORMAT_BEGIN
 90
        0
 91
        0
 92
      512
 93
        0
300

 40
0.0
140
1.0
 94
        5
 62
     0
340
55
144
0.18
309
CONTENTFORMAT_END
171
     0
 94
        0
309
TABLEFORMAT_END
  1
CELLSTYLE_BEGIN
 90
        2
 91
        1
300
_HEADER
309
CELLSTYLE_END
300
CELLSTYLE
  1
TABLEFORMAT_BEGIN
 90
        5
170
     1
 91
        0
 92
        0
 62
   257
 93
        1
300
CONTENTFORMAT
  1
CONTENTFORMAT_BEGIN
 90
        0
 91
        0
 92
      512
 93
        0
300

 40
0.0
140
1.0
 94
        2
 62
     0
340
55
144
0.18
309
CONTENTFORMAT_END
171
     0
 94
        0
309
TABLEFORMAT_END
  1
CELLSTYLE_BEGIN
 90
        3
 91
        2
300
_DATA
309
CELLSTYLE_END
  0
XRECORD
  5
8DF
102
{ACAD_REACTORS
330
8A6
102
}
330
8A6
100
AcDbXrecord
280
     1
102
ACAD_ROUNDTRIP_PRE2007_TABLESTYLE
 90
      512
 91
        0
  1

 92
      512
 93
        0
  2

 94
      512
 95
        0
  3

  0
XRECORD
  5
8BA
102
{ACAD_REACTORS
330
8B9
102
}
330
8B9
100
AcDbXrecord
280
     1
102
RTVSPropertyOp0
 70
     1
102
RTVSPropertyOp1
 70
     1
102
RTVSPropertyOp2
 70
     1
102
RTVSPropertyOp3
 70
     1
102
RTVSPropertyOp4
 70
     1
102
RTVSPropertyOp5
 70
     1
102
RTVSPropertyOp6
 70
     1
102
RTVSPropertyOp7
 70
     1
102
RTVSPropertyOp8
 70
     1
102
RTVSPropertyOp9
 70
     1
102
RTVSPropertyOp10
 70
     1
102
RTVSPropertyOp11
 70
     1
102
RTVSPropertyOp12
 70
     1
102
RTVSPropertyOp13
 70
     1
102
RTVSPropertyOp14
 70
     1
102
RTVSPropertyOp15
 70
     1
102
RTVSPropertyOp16
 70
     1
102
RTVSPropertyOp17
 70
     1
102
RTVSPropertyOp18
 70
     1
102
RTVSPropertyOp19
 70
     1
102
RTVSPropertyOp20
 70
     1
102
RTVSPropertyOp21
 70
     1
102
RTVSPropertyOp22
 70
     1
102
RTVSPropertyOp23
 70
     1
102
RTVSPropertyOp24
 70
     1
102
RTVSPropertyOp25
 70
     1
102
RTVSPropertyOp26
 70
     1
102
RTVSPropertyOp27
 70
     1
102
RTVSPropertyOp28
 70
     1
102
RTVSPropertyOp29
 70
     1
102
RTVSPropertyOp30
 70
     1
102
RTVSPropertyOp31
 70
     1
102
RTVSPropertyOp32
 70
     1
  0
XRECORD
  5
8B8
102
{ACAD_REACTORS
330
8B7
102
}
330
8B7
100
AcDbXrecord
280
     1
102
RTVSPropertyOp0
 70
     1
102
RTVSPropertyOp1
 70
     1
102
RTVSPropertyOp2
 70
     1
102
RTVSPropertyOp3
 70
     1
102
RTVSPropertyOp4
 70
     1
102
RTVSPropertyOp5
 70
     1
102
RTVSPropertyOp6
 70
     1
102
RTVSPropertyOp7
 70
     1
102
RTVSPropertyOp8
 70
     1
102
RTVSPropertyOp9
 70
     1
102
RTVSPropertyOp10
 70
     1
102
RTVSPropertyOp11
 70
     1
102
RTVSPropertyOp12
 70
     1
102
RTVSPropertyOp13
 70
     1
102
RTVSPropertyOp14
 70
     1
102
RTVSPropertyOp15
 70
     1
102
RTVSPropertyOp16
 70
     1
102
RTVSPropertyOp17
 70
     1
102
RTVSPropertyOp18
 70
     1
102
RTVSPropertyOp19
 70
     1
102
RTVSPropertyOp20
 70
     1
102
RTVSPropertyOp21
 70
     1
102
RTVSPropertyOp22
 70
     1
102
RTVSPropertyOp23
 70
     1
102
RTVSPropertyOp24
 70
     1
102
RTVSPropertyOp25
 70
     1
102
RTVSPropertyOp26
 70
     1
102
RTVSPropertyOp27
 70
     1
102
RTVSPropertyOp28
 70
     1
102
RTVSPropertyOp29
 70
     1
102
RTVSPropertyOp30
 70
     1
102
RTVSPropertyOp31
 70
     1
102
RTVSPropertyOp32
 70
     1
  0
XRECORD
  5
8C6
102
{ACAD_REACTORS
330
8C5
102
}
330
8C5
100
AcDbXrecord
280
     1
102
RTVSPropertyOp0
 70
     1
102
RTVSPropertyOp1
 70
     1
102
RTVSPropertyOp2
 70
     1
102
RTVSPropertyOp3
 70
     1
102
RTVSPropertyOp4
 70
     1
102
RTVSPropertyOp5
 70
     1
102
RTVSPropertyOp6
 70
     1
102
RTVSPropertyOp7
 70
     1
102
RTVSPropertyOp8
 70
     1
102
RTVSPropertyOp9
 70
     1
102
RTVSPropertyOp10
 70
     1
102
RTVSPropertyOp11
 70
     1
102
RTVSPropertyOp12
 70
     1
102
RTVSPropertyOp13
 70
     1
102
RTVSPropertyOp14
 70
     1
102
RTVSPropertyOp15
 70
     1
102
RTVSPropertyOp16
 70
     1
102
RTVSPropertyOp17
 70
     1
102
RTVSPropertyOp18
 70
     1
102
RTVSPropertyOp19
 70
     1
102
RTVSPropertyOp20
 70
     1
102
RTVSPropertyOp21
 70
     1
102
RTVSPropertyOp22
 70
     1
102
RTVSPropertyOp23
 70
     1
102
RTVSPropertyOp24
 70
     1
102
RTVSPropertyOp25
 70
     1
102
RTVSPropertyOp26
 70
     1
102
RTVSPropertyOp27
 70
     1
102
RTVSPropertyOp28
 70
     1
102
RTVSPropertyOp29
 70
     1
102
RTVSPropertyOp30
 70
     1
102
RTVSPropertyOp31
 70
     1
102
RTVSPropertyOp32
 70
     1
  0
XRECORD
  5
8CE
102
{ACAD_REACTORS
330
8CD
102
}
330
8CD
100
AcDbXrecord
280
     1
102
RTVSPropertyOp0
 70
     1
102
RTVSPropertyOp1
 70
     1
102
RTVSPropertyOp2
 70
     1
102
RTVSPropertyOp3
 70
     1
102
RTVSPropertyOp4
 70
     1
102
RTVSPropertyOp5
 70
     1
102
RTVSPropertyOp6
 70
     1
102
RTVSPropertyOp7
 70
     1
102
RTVSPropertyOp8
 70
     1
102
RTVSPropertyOp9
 70
     1
102
RTVSPropertyOp10
 70
     1
102
RTVSPropertyOp11
 70
     1
102
RTVSPropertyOp12
 70
     1
102
RTVSPropertyOp13
 70
     1
102
RTVSPropertyOp14
 70
     1
102
RTVSPropertyOp15
 70
     1
102
RTVSPropertyOp16
 70
     1
102
RTVSPropertyOp17
 70
     1
102
RTVSPropertyOp18
 70
     1
102
RTVSPropertyOp19
 70
     1
102
RTVSPropertyOp20
 70
     1
102
RTVSPropertyOp21
 70
     1
102
RTVSPropertyOp22
 70
     1
102
RTVSPropertyOp23
 70
     1
102
RTVSPropertyOp24
 70
     1
102
RTVSPropertyOp25
 70
     1
102
RTVSPropertyOp26
 70
     1
102
RTVSPropertyOp27
 70
     1
102
RTVSPropertyOp28
 70
     1
102
RTVSPropertyOp29
 70
     1
102
RTVSPropertyOp30
 70
     1
102
RTVSPropertyOp31
 70
     1
102
RTVSPropertyOp32
 70
     1
  0
XRECORD
  5
8C0
102
{ACAD_REACTORS
330
8BF
102
}
330
8BF
100
AcDbXrecord
280
     1
102
RTVSPropertyOp0
 70
     1
102
RTVSPropertyOp1
 70
     1
102
RTVSPropertyOp2
 70
     1
102
RTVSPropertyOp3
 70
     1
102
RTVSPropertyOp4
 70
     1
102
RTVSPropertyOp5
 70
     1
102
RTVSPropertyOp6
 70
     1
102
RTVSPropertyOp7
 70
     1
102
RTVSPropertyOp8
 70
     1
102
RTVSPropertyOp9
 70
     1
102
RTVSPropertyOp10
 70
     1
102
RTVSPropertyOp11
 70
     1
102
RTVSPropertyOp12
 70
     1
102
RTVSPropertyOp13
 70
     1
102
RTVSPropertyOp14
 70
     1
102
RTVSPropertyOp15
 70
     1
102
RTVSPropertyOp16
 70
     1
102
RTVSPropertyOp17
 70
     1
102
RTVSPropertyOp18
 70
     1
102
RTVSPropertyOp19
 70
     1
102
RTVSPropertyOp20
 70
     1
102
RTVSPropertyOp21
 70
     1
102
RTVSPropertyOp22
 70
     1
102
RTVSPropertyOp23
 70
     1
102
RTVSPropertyOp24
 70
     1
102
RTVSPropertyOp25
 70
     1
102
RTVSPropertyOp26
 70
     1
102
RTVSPropertyOp27
 70
     1
102
RTVSPropertyOp28
 70
     1
102
RTVSPropertyOp29
 70
     1
102
RTVSPropertyOp30
 70
     1
102
RTVSPropertyOp31
 70
     1
102
RTVSPropertyOp32
 70
     1
  0
XRECORD
  5
8C4
102
{ACAD_REACTORS
330
8C3
102
}
330
8C3
100
AcDbXrecord
280
     1
102
RTVSPropertyOp0
 70
     1
102
RTVSPropertyOp1
 70
     1
102
RTVSPropertyOp2
 70
     1
102
RTVSPropertyOp3
 70
     1
102
RTVSPropertyOp4
 70
     1
102
RTVSPropertyOp5
 70
     1
102
RTVSPropertyOp6
 70
     1
102
RTVSPropertyOp7
 70
     1
102
RTVSPropertyOp8
 70
     1
102
RTVSPropertyOp9
 70
     1
102
RTVSPropertyOp10
 70
     1
102
RTVSPropertyOp11
 70
     1
102
RTVSPropertyOp12
 70
     1
102
RTVSPropertyOp13
 70
     1
102
RTVSPropertyOp14
 70
     1
102
RTVSPropertyOp15
 70
     1
102
RTVSPropertyOp16
 70
     1
102
RTVSPropertyOp17
 70
     1
102
RTVSPropertyOp18
 70
     1
102
RTVSPropertyOp19
 70
     1
102
RTVSPropertyOp20
 70
     1
102
RTVSPropertyOp21
 70
     1
102
RTVSPropertyOp22
 70
     1
102
RTVSPropertyOp23
 70
     1
102
RTVSPropertyOp24
 70
     1
102
RTVSPropertyOp25
 70
     1
102
RTVSPropertyOp26
 70
     1
102
RTVSPropertyOp27
 70
     1
102
RTVSPropertyOp28
 70
     1
102
RTVSPropertyOp29
 70
     1
102
RTVSPropertyOp30
 70
     1
102
RTVSPropertyOp31
 70
     1
102
RTVSPropertyOp32
 70
     1
  0
XRECORD
  5
8DE
102
{ACAD_REACTORS
330
8DD
102
}
330
8DD
100
AcDbXrecord
280
     1
102
RTVSPropertyOp0
 70
     0
102
RTVSPropertyOp1
 70
     0
102
RTVSPropertyOp2
 70
     0
102
RTVSPropertyOp3
 70
     0
102
RTVSPropertyOp4
 70
     0
102
RTVSPropertyOp5
 70
     0
102
RTVSPropertyOp6
 70
     0
102
RTVSPropertyOp7
 70
     0
102
RTVSPropertyOp8
 70
     0
102
RTVSPropertyOp9
 70
     0
102
RTVSPropertyOp10
 70
     0
102
RTVSPropertyOp11
 70
     0
102
RTVSPropertyOp12
 70
     0
102
RTVSPropertyOp13
 70
     0
102
RTVSPropertyOp14
 70
     2
102
RTVSPropertyOp15
 70
     0
102
RTVSPropertyOp16
 70
     0
102
RTVSPropertyOp17
 70
     0
102
RTVSPropertyOp18
 70
     0
102
RTVSPropertyOp19
 70
     0
102
RTVSPropertyOp20
 70
     0
102
RTVSPropertyOp21
 70
     0
102
RTVSPropertyOp22
 70
     0
102
RTVSPropertyOp23
 70
     0
102
RTVSPropertyOp24
 70
     0
102
RTVSPropertyOp25
 70
     0
102
RTVSPropertyOp26
 70
     0
102
RTVSPropertyOp27
 70
     0
102
RTVSPropertyOp28
 70
     1
102
RTVSPropertyOp29
 70
     1
102
RTVSPropertyOp30
 70
     1
102
RTVSPropertyOp31
 70
     1
102
RTVSPropertyOp32
 70
     1
  0
XRECORD
  5
8CC
102
{ACAD_REACTORS
330
8CB
102
}
330
8CB
100
AcDbXrecord
280
     1
102
RTVSPropertyOp0
 70
     1
102
RTVSPropertyOp1
 70
     1
102
RTVSPropertyOp2
 70
     1
102
RTVSPropertyOp3
 70
     1
102
RTVSPropertyOp4
 70
     1
102
RTVSPropertyOp5
 70
     1
102
RTVSPropertyOp6
 70
     1
102
RTVSPropertyOp7
 70
     1
102
RTVSPropertyOp8
 70
     1
102
RTVSPropertyOp9
 70
     1
102
RTVSPropertyOp10
 70
     1
102
RTVSPropertyOp11
 70
     1
102
RTVSPropertyOp12
 70
     1
102
RTVSPropertyOp13
 70
     1
102
RTVSPropertyOp14
 70
     1
102
RTVSPropertyOp15
 70
     1
102
RTVSPropertyOp16
 70
     1
102
RTVSPropertyOp17
 70
     1
102
RTVSPropertyOp18
 70
     1
102
RTVSPropertyOp19
 70
     1
102
RTVSPropertyOp20
 70
     1
102
RTVSPropertyOp21
 70
     1
102
RTVSPropertyOp22
 70
     1
102
RTVSPropertyOp23
 70
     1
102
RTVSPropertyOp24
 70
     1
102
RTVSPropertyOp25
 70
     1
102
RTVSPropertyOp26
 70
     1
102
RTVSPropertyOp27
 70
     1
102
RTVSPropertyOp28
 70
     1
102
RTVSPropertyOp29
 70
     1
102
RTVSPropertyOp30
 70
     1
102
RTVSPropertyOp31
 70
     1
102
RTVSPropertyOp32
 70
     1
  0
XRECORD
  5
8B0
102
{ACAD_REACTORS
330
8AF
102
}
330
8AF
100
AcDbXrecord
280
     1
102
RTVSPropertyOp0
 70
     1
102
RTVSPropertyOp1
 70
     1
102
RTVSPropertyOp2
 70
     1
102
RTVSPropertyOp3
 70
     1
102
RTVSPropertyOp4
 70
     1
102
RTVSPropertyOp5
 70
     1
102
RTVSPropertyOp6
 70
     1
102
RTVSPropertyOp7
 70
     1
102
RTVSPropertyOp8
 70
     1
102
RTVSPropertyOp9
 70
     1
102
RTVSPropertyOp10
 70
     1
102
RTVSPropertyOp11
 70
     1
102
RTVSPropertyOp12
 70
     1
102
RTVSPropertyOp13
 70
     1
102
RTVSPropertyOp14
 70
     1
102
RTVSPropertyOp15
 70
     1
102
RTVSPropertyOp16
 70
     1
102
RTVSPropertyOp17
 70
     1
102
RTVSPropertyOp18
 70
     1
102
RTVSPropertyOp19
 70
     1
102
RTVSPropertyOp20
 70
     1
102
RTVSPropertyOp21
 70
     1
102
RTVSPropertyOp22
 70
     1
102
RTVSPropertyOp23
 70
     1
102
RTVSPropertyOp24
 70
     1
102
RTVSPropertyOp25
 70
     1
102
RTVSPropertyOp26
 70
     1
102
RTVSPropertyOp27
 70
     1
102
RTVSPropertyOp28
 70
     1
102
RTVSPropertyOp29
 70
     1
102
RTVSPropertyOp30
 70
     1
102
RTVSPropertyOp31
 70
     1
102
RTVSPropertyOp32
 70
     1
  0
XRECORD
  5
8B2
102
{ACAD_REACTORS
330
8B1
102
}
330
8B1
100
AcDbXrecord
280
     1
102
RTVSPropertyOp0
 70
     1
102
RTVSPropertyOp1
 70
     1
102
RTVSPropertyOp2
 70
     1
102
RTVSPropertyOp3
 70
     1
102
RTVSPropertyOp4
 70
     1
102
RTVSPropertyOp5
 70
     1
102
RTVSPropertyOp6
 70
     1
102
RTVSPropertyOp7
 70
     1
102
RTVSPropertyOp8
 70
     1
102
RTVSPropertyOp9
 70
     1
102
RTVSPropertyOp10
 70
     1
102
RTVSPropertyOp11
 70
     1
102
RTVSPropertyOp12
 70
     1
102
RTVSPropertyOp13
 70
     1
102
RTVSPropertyOp14
 70
     1
102
RTVSPropertyOp15
 70
     1
102
RTVSPropertyOp16
 70
     1
102
RTVSPropertyOp17
 70
     1
102
RTVSPropertyOp18
 70
     1
102
RTVSPropertyOp19
 70
     1
102
RTVSPropertyOp20
 70
     1
102
RTVSPropertyOp21
 70
     1
102
RTVSPropertyOp22
 70
     1
102
RTVSPropertyOp23
 70
     1
102
RTVSPropertyOp24
 70
     1
102
RTVSPropertyOp25
 70
     1
102
RTVSPropertyOp26
 70
     1
102
RTVSPropertyOp27
 70
     1
102
RTVSPropertyOp28
 70
     1
102
RTVSPropertyOp29
 70
     1
102
RTVSPropertyOp30
 70
     1
102
RTVSPropertyOp31
 70
     1
102
RTVSPropertyOp32
 70
     1
  0
XRECORD
  5
8B4
102
{ACAD_REACTORS
330
8B3
102
}
330
8B3
100
AcDbXrecord
280
     1
102
RTVSPropertyOp0
 70
     1
102
RTVSPropertyOp1
 70
     1
102
RTVSPropertyOp2
 70
     1
102
RTVSPropertyOp3
 70
     1
102
RTVSPropertyOp4
 70
     1
102
RTVSPropertyOp5
 70
     1
102
RTVSPropertyOp6
 70
     1
102
RTVSPropertyOp7
 70
     1
102
RTVSPropertyOp8
 70
     1
102
RTVSPropertyOp9
 70
     1
102
RTVSPropertyOp10
 70
     1
102
RTVSPropertyOp11
 70
     1
102
RTVSPropertyOp12
 70
     1
102
RTVSPropertyOp13
 70
     1
102
RTVSPropertyOp14
 70
     1
102
RTVSPropertyOp15
 70
     1
102
RTVSPropertyOp16
 70
     1
102
RTVSPropertyOp17
 70
     1
102
RTVSPropertyOp18
 70
     1
102
RTVSPropertyOp19
 70
     1
102
RTVSPropertyOp20
 70
     1
102
RTVSPropertyOp21
 70
     1
102
RTVSPropertyOp22
 70
     1
102
RTVSPropertyOp23
 70
     1
102
RTVSPropertyOp24
 70
     1
102
RTVSPropertyOp25
 70
     1
102
RTVSPropertyOp26
 70
     1
102
RTVSPropertyOp27
 70
     1
102
RTVSPropertyOp28
 70
     1
102
RTVSPropertyOp29
 70
     1
102
RTVSPropertyOp30
 70
     1
102
RTVSPropertyOp31
 70
     1
102
RTVSPropertyOp32
 70
     1
  0
XRECORD
  5
8B6
102
{ACAD_REACTORS
330
8B5
102
}
330
8B5
100
AcDbXrecord
280
     1
102
RTVSPropertyOp0
 70
     1
102
RTVSPropertyOp1
 70
     1
102
RTVSPropertyOp2
 70
     1
102
RTVSPropertyOp3
 70
     1
102
RTVSPropertyOp4
 70
     1
102
RTVSPropertyOp5
 70
     1
102
RTVSPropertyOp6
 70
     1
102
RTVSPropertyOp7
 70
     1
102
RTVSPropertyOp8
 70
     1
102
RTVSPropertyOp9
 70
     1
102
RTVSPropertyOp10
 70
     1
102
RTVSPropertyOp11
 70
     1
102
RTVSPropertyOp12
 70
     1
102
RTVSPropertyOp13
 70
     1
102
RTVSPropertyOp14
 70
     1
102
RTVSPropertyOp15
 70
     1
102
RTVSPropertyOp16
 70
     1
102
RTVSPropertyOp17
 70
     1
102
RTVSPropertyOp18
 70
     1
102
RTVSPropertyOp19
 70
     1
102
RTVSPropertyOp20
 70
     1
102
RTVSPropertyOp21
 70
     1
102
RTVSPropertyOp22
 70
     1
102
RTVSPropertyOp23
 70
     1
102
RTVSPropertyOp24
 70
     1
102
RTVSPropertyOp25
 70
     1
102
RTVSPropertyOp26
 70
     1
102
RTVSPropertyOp27
 70
     1
102
RTVSPropertyOp28
 70
     1
102
RTVSPropertyOp29
 70
     1
102
RTVSPropertyOp30
 70
     1
102
RTVSPropertyOp31
 70
     1
102
RTVSPropertyOp32
 70
     1
  0
XRECORD
  5
8BE
102
{ACAD_REACTORS
330
8BD
102
}
330
8BD
100
AcDbXrecord
280
     1
102
RTVSPropertyOp0
 70
     1
102
RTVSPropertyOp1
 70
     1
102
RTVSPropertyOp2
 70
     1
102
RTVSPropertyOp3
 70
     1
102
RTVSPropertyOp4
 70
     1
102
RTVSPropertyOp5
 70
     1
102
RTVSPropertyOp6
 70
     1
102
RTVSPropertyOp7
 70
     1
102
RTVSPropertyOp8
 70
     1
102
RTVSPropertyOp9
 70
     1
102
RTVSPropertyOp10
 70
     1
102
RTVSPropertyOp11
 70
     1
102
RTVSPropertyOp12
 70
     1
102
RTVSPropertyOp13
 70
     1
102
RTVSPropertyOp14
 70
     1
102
RTVSPropertyOp15
 70
     1
102
RTVSPropertyOp16
 70
     1
102
RTVSPropertyOp17
 70
     1
102
RTVSPropertyOp18
 70
     1
102
RTVSPropertyOp19
 70
     1
102
RTVSPropertyOp20
 70
     1
102
RTVSPropertyOp21
 70
     1
102
RTVSPropertyOp22
 70
     1
102
RTVSPropertyOp23
 70
     1
102
RTVSPropertyOp24
 70
     1
102
RTVSPropertyOp25
 70
     1
102
RTVSPropertyOp26
 70
     1
102
RTVSPropertyOp27
 70
     1
102
RTVSPropertyOp28
 70
     1
102
RTVSPropertyOp29
 70
     1
102
RTVSPropertyOp30
 70
     1
102
RTVSPropertyOp31
 70
     1
102
RTVSPropertyOp32
 70
     1
  0
XRECORD
  5
8DA
102
{ACAD_REACTORS
330
8D9
102
}
330
8D9
100
AcDbXrecord
280
     1
102
RTVSPropertyOp0
 70
     0
102
RTVSPropertyOp1
 70
     0
102
RTVSPropertyOp2
 70
     0
102
RTVSPropertyOp3
 70
     0
102
RTVSPropertyOp4
 70
     0
102
RTVSPropertyOp5
 70
     0
102
RTVSPropertyOp6
 70
     0
102
RTVSPropertyOp7
 70
     0
102
RTVSPropertyOp8
 70
     0
102
RTVSPropertyOp9
 70
     0
102
RTVSPropertyOp10
 70
     0
102
RTVSPropertyOp11
 70
     0
102
RTVSPropertyOp12
 70
     0
102
RTVSPropertyOp13
 70
     0
102
RTVSPropertyOp14
 70
     2
102
RTVSPropertyOp15
 70
     0
102
RTVSPropertyOp16
 70
     0
102
RTVSPropertyOp17
 70
     0
102
RTVSPropertyOp18
 70
     0
102
RTVSPropertyOp19
 70
     0
102
RTVSPropertyOp20
 70
     0
102
RTVSPropertyOp21
 70
     0
102
RTVSPropertyOp22
 70
     0
102
RTVSPropertyOp23
 70
     0
102
RTVSPropertyOp24
 70
     0
102
RTVSPropertyOp25
 70
     0
102
RTVSPropertyOp26
 70
     0
102
RTVSPropertyOp27
 70
     0
102
RTVSPropertyOp28
 70
     1
102
RTVSPropertyOp29
 70
     1
102
RTVSPropertyOp30
 70
     1
102
RTVSPropertyOp31
 70
     1
102
RTVSPropertyOp32
 70
     1
  0
XRECORD
  5
8CA
102
{ACAD_REACTORS
330
8C9
102
}
330
8C9
100
AcDbXrecord
280
     1
102
RTVSPropertyOp0
 70
     1
102
RTVSPropertyOp1
 70
     1
102
RTVSPropertyOp2
 70
     1
102
RTVSPropertyOp3
 70
     1
102
RTVSPropertyOp4
 70
     1
102
RTVSPropertyOp5
 70
     1
102
RTVSPropertyOp6
 70
     1
102
RTVSPropertyOp7
 70
     1
102
RTVSPropertyOp8
 70
     1
102
RTVSPropertyOp9
 70
     1
102
RTVSPropertyOp10
 70
     1
102
RTVSPropertyOp11
 70
     1
102
RTVSPropertyOp12
 70
     1
102
RTVSPropertyOp13
 70
     1
102
RTVSPropertyOp14
 70
     1
102
RTVSPropertyOp15
 70
     1
102
RTVSPropertyOp16
 70
     1
102
RTVSPropertyOp17
 70
     1
102
RTVSPropertyOp18
 70
     1
102
RTVSPropertyOp19
 70
     1
102
RTVSPropertyOp20
 70
     1
102
RTVSPropertyOp21
 70
     1
102
RTVSPropertyOp22
 70
     1
102
RTVSPropertyOp23
 70
     1
102
RTVSPropertyOp24
 70
     1
102
RTVSPropertyOp25
 70
     1
102
RTVSPropertyOp26
 70
     1
102
RTVSPropertyOp27
 70
     1
102
RTVSPropertyOp28
 70
     1
102
RTVSPropertyOp29
 70
     1
102
RTVSPropertyOp30
 70
     1
102
RTVSPropertyOp31
 70
     1
102
RTVSPropertyOp32
 70
     1
  0
XRECORD
  5
8DC
102
{ACAD_REACTORS
330
8DB
102
}
330
8DB
100
AcDbXrecord
280
     1
102
RTVSPropertyOp0
 70
     0
102
RTVSPropertyOp1
 70
     0
102
RTVSPropertyOp2
 70
     0
102
RTVSPropertyOp3
 70
     0
102
RTVSPropertyOp4
 70
     0
102
RTVSPropertyOp5
 70
     0
102
RTVSPropertyOp6
 70
     0
102
RTVSPropertyOp7
 70
     0
102
RTVSPropertyOp8
 70
     0
102
RTVSPropertyOp9
 70
     0
102
RTVSPropertyOp10
 70
     0
102
RTVSPropertyOp11
 70
     0
102
RTVSPropertyOp12
 70
     0
102
RTVSPropertyOp13
 70
     0
102
RTVSPropertyOp14
 70
     2
102
RTVSPropertyOp15
 70
     0
102
RTVSPropertyOp16
 70
     0
102
RTVSPropertyOp17
 70
     0
102
RTVSPropertyOp18
 70
     0
102
RTVSPropertyOp19
 70
     0
102
RTVSPropertyOp20
 70
     0
102
RTVSPropertyOp21
 70
     0
102
RTVSPropertyOp22
 70
     0
102
RTVSPropertyOp23
 70
     0
102
RTVSPropertyOp24
 70
     0
102
RTVSPropertyOp25
 70
     0
102
RTVSPropertyOp26
 70
     0
102
RTVSPropertyOp27
 70
     0
102
RTVSPropertyOp28
 70
     1
102
RTVSPropertyOp29
 70
     1
102
RTVSPropertyOp30
 70
     1
102
RTVSPropertyOp31
 70
     1
102
RTVSPropertyOp32
 70
     1
  0
XRECORD
  5
8C2
102
{ACAD_REACTORS
330
8C1
102
}
330
8C1
100
AcDbXrecord
280
     1
102
RTVSPropertyOp0
 70
     1
102
RTVSPropertyOp1
 70
     1
102
RTVSPropertyOp2
 70
     1
102
RTVSPropertyOp3
 70
     1
102
RTVSPropertyOp4
 70
     1
102
RTVSPropertyOp5
 70
     1
102
RTVSPropertyOp6
 70
     1
102
RTVSPropertyOp7
 70
     1
102
RTVSPropertyOp8
 70
     1
102
RTVSPropertyOp9
 70
     1
102
RTVSPropertyOp10
 70
     1
102
RTVSPropertyOp11
 70
     1
102
RTVSPropertyOp12
 70
     1
102
RTVSPropertyOp13
 70
     1
102
RTVSPropertyOp14
 70
     1
102
RTVSPropertyOp15
 70
     1
102
RTVSPropertyOp16
 70
     1
102
RTVSPropertyOp17
 70
     1
102
RTVSPropertyOp18
 70
     1
102
RTVSPropertyOp19
 70
     1
102
RTVSPropertyOp20
 70
     1
102
RTVSPropertyOp21
 70
     1
102
RTVSPropertyOp22
 70
     1
102
RTVSPropertyOp23
 70
     1
102
RTVSPropertyOp24
 70
     1
102
RTVSPropertyOp25
 70
     1
102
RTVSPropertyOp26
 70
     1
102
RTVSPropertyOp27
 70
     1
102
RTVSPropertyOp28
 70
     1
102
RTVSPropertyOp29
 70
     1
102
RTVSPropertyOp30
 70
     1
102
RTVSPropertyOp31
 70
     1
102
RTVSPropertyOp32
 70
     1
  0
XRECORD
  5
8D8
102
{ACAD_REACTORS
330
8D7
102
}
330
8D7
100
AcDbXrecord
280
     1
102
RTVSPropertyOp0
 70
     1
102
RTVSPropertyOp1
 70
     1
102
RTVSPropertyOp2
 70
     1
102
RTVSPropertyOp3
 70
     1
102
RTVSPropertyOp4
 70
     1
102
RTVSPropertyOp5
 70
     1
102
RTVSPropertyOp6
 70
     1
102
RTVSPropertyOp7
 70
     1
102
RTVSPropertyOp8
 70
     1
102
RTVSPropertyOp9
 70
     1
102
RTVSPropertyOp10
 70
     1
102
RTVSPropertyOp11
 70
     1
102
RTVSPropertyOp12
 70
     1
102
RTVSPropertyOp13
 70
     1
102
RTVSPropertyOp14
 70
     1
102
RTVSPropertyOp15
 70
     1
102
RTVSPropertyOp16
 70
     1
102
RTVSPropertyOp17
 70
     1
102
RTVSPropertyOp18
 70
     1
102
RTVSPropertyOp19
 70
     1
102
RTVSPropertyOp20
 70
     1
102
RTVSPropertyOp21
 70
     1
102
RTVSPropertyOp22
 70
     1
102
RTVSPropertyOp23
 70
     1
102
RTVSPropertyOp24
 70
     1
102
RTVSPropertyOp25
 70
     1
102
RTVSPropertyOp26
 70
     1
102
RTVSPropertyOp27
 70
     1
102
RTVSPropertyOp28
 70
     1
102
RTVSPropertyOp29
 70
     1
102
RTVSPropertyOp30
 70
     1
102
RTVSPropertyOp31
 70
     1
102
RTVSPropertyOp32
 70
     1
  0
XRECORD
  5
8D6
102
{ACAD_REACTORS
330
8D5
102
}
330
8D5
100
AcDbXrecord
280
     1
102
RTVSPropertyOp0
 70
     1
102
RTVSPropertyOp1
 70
     1
102
RTVSPropertyOp2
 70
     1
102
RTVSPropertyOp3
 70
     1
102
RTVSPropertyOp4
 70
     1
102
RTVSPropertyOp5
 70
     1
102
RTVSPropertyOp6
 70
     1
102
RTVSPropertyOp7
 70
     1
102
RTVSPropertyOp8
 70
     1
102
RTVSPropertyOp9
 70
     1
102
RTVSPropertyOp10
 70
     1
102
RTVSPropertyOp11
 70
     1
102
RTVSPropertyOp12
 70
     1
102
RTVSPropertyOp13
 70
     1
102
RTVSPropertyOp14
 70
     1
102
RTVSPropertyOp15
 70
     1
102
RTVSPropertyOp16
 70
     1
102
RTVSPropertyOp17
 70
     1
102
RTVSPropertyOp18
 70
     1
102
RTVSPropertyOp19
 70
     1
102
RTVSPropertyOp20
 70
     1
102
RTVSPropertyOp21
 70
     1
102
RTVSPropertyOp22
 70
     1
102
RTVSPropertyOp23
 70
     1
102
RTVSPropertyOp24
 70
     1
102
RTVSPropertyOp25
 70
     1
102
RTVSPropertyOp26
 70
     1
102
RTVSPropertyOp27
 70
     1
102
RTVSPropertyOp28
 70
     1
102
RTVSPropertyOp29
 70
     1
102
RTVSPropertyOp30
 70
     1
102
RTVSPropertyOp31
 70
     1
102
RTVSPropertyOp32
 70
     1
  0
XRECORD
  5
8D0
102
{ACAD_REACTORS
330
8CF
102
}
330
8CF
100
AcDbXrecord
280
     1
102
RTVSPropertyOp0
 70
     1
102
RTVSPropertyOp1
 70
     1
102
RTVSPropertyOp2
 70
     1
102
RTVSPropertyOp3
 70
     1
102
RTVSPropertyOp4
 70
     1
102
RTVSPropertyOp5
 70
     1
102
RTVSPropertyOp6
 70
     1
102
RTVSPropertyOp7
 70
     1
102
RTVSPropertyOp8
 70
     1
102
RTVSPropertyOp9
 70
     1
102
RTVSPropertyOp10
 70
     1
102
RTVSPropertyOp11
 70
     1
102
RTVSPropertyOp12
 70
     1
102
RTVSPropertyOp13
 70
     1
102
RTVSPropertyOp14
 70
     1
102
RTVSPropertyOp15
 70
     1
102
RTVSPropertyOp16
 70
     1
102
RTVSPropertyOp17
 70
     1
102
RTVSPropertyOp18
 70
     1
102
RTVSPropertyOp19
 70
     1
102
RTVSPropertyOp20
 70
     1
102
RTVSPropertyOp21
 70
     1
102
RTVSPropertyOp22
 70
     1
102
RTVSPropertyOp23
 70
     1
102
RTVSPropertyOp24
 70
     1
102
RTVSPropertyOp25
 70
     1
102
RTVSPropertyOp26
 70
     1
102
RTVSPropertyOp27
 70
     1
102
RTVSPropertyOp28
 70
     1
102
RTVSPropertyOp29
 70
     1
102
RTVSPropertyOp30
 70
     1
102
RTVSPropertyOp31
 70
     1
102
RTVSPropertyOp32
 70
     1
  0
XRECORD
  5
8D2
102
{ACAD_REACTORS
330
8D1
102
}
330
8D1
100
AcDbXrecord
280
     1
102
RTVSPropertyOp0
 70
     1
102
RTVSPropertyOp1
 70
     1
102
RTVSPropertyOp2
 70
     1
102
RTVSPropertyOp3
 70
     1
102
RTVSPropertyOp4
 70
     1
102
RTVSPropertyOp5
 70
     1
102
RTVSPropertyOp6
 70
     1
102
RTVSPropertyOp7
 70
     1
102
RTVSPropertyOp8
 70
     1
102
RTVSPropertyOp9
 70
     1
102
RTVSPropertyOp10
 70
     1
102
RTVSPropertyOp11
 70
     1
102
RTVSPropertyOp12
 70
     1
102
RTVSPropertyOp13
 70
     1
102
RTVSPropertyOp14
 70
     1
102
RTVSPropertyOp15
 70
     1
102
RTVSPropertyOp16
 70
     1
102
RTVSPropertyOp17
 70
     1
102
RTVSPropertyOp18
 70
     1
102
RTVSPropertyOp19
 70
     1
102
RTVSPropertyOp20
 70
     1
102
RTVSPropertyOp21
 70
     1
102
RTVSPropertyOp22
 70
     1
102
RTVSPropertyOp23
 70
     1
102
RTVSPropertyOp24
 70
     1
102
RTVSPropertyOp25
 70
     1
102
RTVSPropertyOp26
 70
     1
102
RTVSPropertyOp27
 70
     1
102
RTVSPropertyOp28
 70
     1
102
RTVSPropertyOp29
 70
     1
102
RTVSPropertyOp30
 70
     1
102
RTVSPropertyOp31
 70
     1
102
RTVSPropertyOp32
 70
     1
  0
XRECORD
  5
8C8
102
{ACAD_REACTORS
330
8C7
102
}
330
8C7
100
AcDbXrecord
280
     1
102
RTVSPropertyOp0
 70
     1
102
RTVSPropertyOp1
 70
     1
102
RTVSPropertyOp2
 70
     1
102
RTVSPropertyOp3
 70
     1
102
RTVSPropertyOp4
 70
     1
102
RTVSPropertyOp5
 70
     1
102
RTVSPropertyOp6
 70
     1
102
RTVSPropertyOp7
 70
     1
102
RTVSPropertyOp8
 70
     1
102
RTVSPropertyOp9
 70
     1
102
RTVSPropertyOp10
 70
     1
102
RTVSPropertyOp11
 70
     1
102
RTVSPropertyOp12
 70
     1
102
RTVSPropertyOp13
 70
     1
102
RTVSPropertyOp14
 70
     1
102
RTVSPropertyOp15
 70
     1
102
RTVSPropertyOp16
 70
     1
102
RTVSPropertyOp17
 70
     1
102
RTVSPropertyOp18
 70
     1
102
RTVSPropertyOp19
 70
     1
102
RTVSPropertyOp20
 70
     1
102
RTVSPropertyOp21
 70
     1
102
RTVSPropertyOp22
 70
     1
102
RTVSPropertyOp23
 70
     1
102
RTVSPropertyOp24
 70
     1
102
RTVSPropertyOp25
 70
     1
102
RTVSPropertyOp26
 70
     1
102
RTVSPropertyOp27
 70
     1
102
RTVSPropertyOp28
 70
     1
102
RTVSPropertyOp29
 70
     1
102
RTVSPropertyOp30
 70
     1
102
RTVSPropertyOp31
 70
     1
102
RTVSPropertyOp32
 70
     1
  0
XRECORD
  5
8BC
102
{ACAD_REACTORS
330
8BB
102
}
330
8BB
100
AcDbXrecord
280
     1
102
RTVSPropertyOp0
 70
     1
102
RTVSPropertyOp1
 70
     1
102
RTVSPropertyOp2
 70
     1
102
RTVSPropertyOp3
 70
     1
102
RTVSPropertyOp4
 70
     1
102
RTVSPropertyOp5
 70
     1
102
RTVSPropertyOp6
 70
     1
102
RTVSPropertyOp7
 70
     1
102
RTVSPropertyOp8
 70
     1
102
RTVSPropertyOp9
 70
     1
102
RTVSPropertyOp10
 70
     1
102
RTVSPropertyOp11
 70
     1
102
RTVSPropertyOp12
 70
     1
102
RTVSPropertyOp13
 70
     1
102
RTVSPropertyOp14
 70
     1
102
RTVSPropertyOp15
 70
     1
102
RTVSPropertyOp16
 70
     1
102
RTVSPropertyOp17
 70
     1
102
RTVSPropertyOp18
 70
     1
102
RTVSPropertyOp19
 70
     1
102
RTVSPropertyOp20
 70
     1
102
RTVSPropertyOp21
 70
     1
102
RTVSPropertyOp22
 70
     1
102
RTVSPropertyOp23
 70
     1
102
RTVSPropertyOp24
 70
     1
102
RTVSPropertyOp25
 70
     1
102
RTVSPropertyOp26
 70
     1
102
RTVSPropertyOp27
 70
     1
102
RTVSPropertyOp28
 70
     1
102
RTVSPropertyOp29
 70
     1
102
RTVSPropertyOp30
 70
     1
102
RTVSPropertyOp31
 70
     1
102
RTVSPropertyOp32
 70
     1
  0
XRECORD
  5
8D4
102
{ACAD_REACTORS
330
8D3
102
}
330
8D3
100
AcDbXrecord
280
     1
102
RTVSPropertyOp0
 70
     1
102
RTVSPropertyOp1
 70
     1
102
RTVSPropertyOp2
 70
     1
102
RTVSPropertyOp3
 70
     1
102
RTVSPropertyOp4
 70
     1
102
RTVSPropertyOp5
 70
     1
102
RTVSPropertyOp6
 70
     1
102
RTVSPropertyOp7
 70
     1
102
RTVSPropertyOp8
 70
     1
102
RTVSPropertyOp9
 70
     1
102
RTVSPropertyOp10
 70
     1
102
RTVSPropertyOp11
 70
     1
102
RTVSPropertyOp12
 70
     1
102
RTVSPropertyOp13
 70
     1
102
RTVSPropertyOp14
 70
     1
102
RTVSPropertyOp15
 70
     1
102
RTVSPropertyOp16
 70
     1
102
RTVSPropertyOp17
 70
     1
102
RTVSPropertyOp18
 70
     1
102
RTVSPropertyOp19
 70
     1
102
RTVSPropertyOp20
 70
     1
102
RTVSPropertyOp21
 70
     1
102
RTVSPropertyOp22
 70
     1
102
RTVSPropertyOp23
 70
     1
102
RTVSPropertyOp24
 70
     1
102
RTVSPropertyOp25
 70
     1
102
RTVSPropertyOp26
 70
     1
102
RTVSPropertyOp27
 70
     1
102
RTVSPropertyOp28
 70
     1
102
RTVSPropertyOp29
 70
     1
102
RTVSPropertyOp30
 70
     1
102
RTVSPropertyOp31
 70
     1
102
RTVSPropertyOp32
 70
     1
  0
ENDSEC
  0
EOF
