  0
SECTION
  2
HEADER
  9
$ACADVER
  1
AC1024
  9
$ACADMAINTVER
 70
    63
  9
$DWGCODEPAGE
  3
ANSI_1252
  9
$AUTHOR
  1
KRA
  9
$REVISIONNUMBER
  1
-
  9
$CUSTOMPROPERTYTAG
  1
Manager
  9
$CUSTOMPROPERTY
  1

  9
$CUSTOMPROPERTYTAG
  1
Company
  9
$CUSTOMPROPERTY
  1

  9
$CUSTOMPROPERTYTAG
  1
Category
  9
$CUSTOMPROPERTY
  1

  9
$CUSTOMPROPERTYTAG
  1
Part Number
  9
$CUSTOMPROPERTY
  1
HWDP1210SS-S
  9
$CUSTOMPROPERTYTAG
  1
Description
  9
$CUSTOMPROPERTY
  1
P SERIES BACK PANEL MASTER VIEW
  9
$CUSTOMPROPERTYTAG
  1
Project
  9
$CUSTOMPROPERTY
  1

  9
$CUSTOMPROPERTYTAG
  1
Designer
  9
$CUSTOMPROPERTY
  1
KRA
  9
$CUSTOMPROPERTYTAG
  1
Engineer
  9
$CUSTOMPROPERTY
  1

  9
$CUSTOMPROPERTYTAG
  1
Authority
  9
$CUSTOMPROPERTY
  1

  9
$CUSTOMPROPERTYTAG
  1
Cost Center
  9
$CUSTOMPROPERTY
  1

  9
$CUSTOMPROPERTYTAG
  1
Vendor
  9
$CUSTOMPROPERTY
  1

  9
$CUSTOMPROPERTYTAG
  1
User Status
  9
$CUSTOMPROPERTY
  1

  9
$CUSTOMPROPERTYTAG
  1
Design Status
  9
$CUSTOMPROPERTY
  1
WorkInProgress
  9
$CUSTOMPROPERTYTAG
  1
Checked by
  9
$CUSTOMPROPERTY
  1
JMG
  9
$CUSTOMPROPERTYTAG
  1
Date Checked
  9
$CUSTOMPROPERTY
  1
02/12/2009
  9
$CUSTOMPROPERTYTAG
  1
Engr Approved by
  9
$CUSTOMPROPERTY
  1

  9
$CUSTOMPROPERTYTAG
  1
Mfg Approved by
  9
$CUSTOMPROPERTY
  1

  9
$CUSTOMPROPERTYTAG
  1
DWG. NO
  9
$CUSTOMPROPERTY
  1

  9
$CUSTOMPROPERTYTAG
  1
NUMBER OF SHEETS
  9
$CUSTOMPROPERTY
  1
1
  9
$CUSTOMPROPERTYTAG
  1
DRAWING #
  9
$CUSTOMPROPERTY
  1
1
  9
$INSBASE
 10
0.0
 20
0.0
 30
0.0
  9
$EXTMIN
 10
0.0
 20
0.0
 30
0.0
  9
$EXTMAX
 10
30.90909090909091
 20
20.0
 30
0.0
  9
$LIMMIN
 10
0.0
 20
0.0
  9
$LIMMAX
 10
30.90909090909091
 20
20.0
  9
$ORTHOMODE
 70
     0
  9
$REGENMODE
 70
     1
  9
$FILLMODE
 70
     1
  9
$QTEXTMODE
 70
     0
  9
$MIRRTEXT
 70
     0
  9
$LTSCALE
 40
1.818181818181818
  9
$ATTMODE
 70
     1
  9
$TEXTSIZE
 40
0.2
  9
$TRACEWID
 40
0.05
  9
$TEXTSTYLE
  7
Standard
  9
$CLAYER
  8
0
  9
$CELTYPE
  6
ByLayer
  9
$CECOLOR
 62
   256
  9
$CELTSCALE
 40
1.0
  9
$DISPSILH
 70
     0
  9
$DIMSCALE
 40
1.0
  9
$DIMASZ
 40
0.0708661417322835
  9
$DIMEXO
 40
0.0625
  9
$DIMDLI
 40
0.38
  9
$DIMRND
 40
0.0
  9
$DIMDLE
 40
0.0
  9
$DIMEXE
 40
0.18
  9
$DIMTP
 40
0.0
  9
$DIMTM
 40
0.0
  9
$DIMTXT
 40
0.0708661417322835
  9
$DIMCEN
 40
0.09
  9
$DIMTSZ
 40
0.0
  9
$DIMTOL
 70
     0
  9
$DIMLIM
 70
     0
  9
$DIMTIH
 70
     1
  9
$DIMTOH
 70
     1
  9
$DIMSE1
 70
     0
  9
$DIMSE2
 70
     0
  9
$DIMTAD
 70
     0
  9
$DIMZIN
 70
     0
  9
$DIMBLK
  1

  9
$DIMASO
 70
     1
  9
$DIMSHO
 70
     1
  9
$DIMPOST
  1

  9
$DIMAPOST
  1

  9
$DIMALT
 70
     0
  9
$DIMALTD
 70
     2
  9
$DIMALTF
 40
25.4
  9
$DIMLFAC
 40
1.0
  9
$DIMTOFL
 70
     0
  9
$DIMTVP
 40
0.0
  9
$DIMTIX
 70
     0
  9
$DIMSOXD
 70
     0
  9
$DIMSAH
 70
     0
  9
$DIMBLK1
  1

  9
$DIMBLK2
  1

  9
$DIMSTYLE
  2
STANDARD
  9
$DIMCLRD
 70
     0
  9
$DIMCLRE
 70
     0
  9
$DIMCLRT
 70
     0
  9
$DIMTFAC
 40
1.0
  9
$DIMGAP
 40
0.09
  9
$DIMJUST
 70
     0
  9
$DIMSD1
 70
     0
  9
$DIMSD2
 70
     0
  9
$DIMTOLJ
 70
     1
  9
$DIMTZIN
 70
     0
  9
$DIMALTZ
 70
     0
  9
$DIMALTTZ
 70
     0
  9
$DIMUPT
 70
     0
  9
$DIMDEC
 70
     4
  9
$DIMTDEC
 70
     4
  9
$DIMALTU
 70
     2
  9
$DIMALTTD
 70
     2
  9
$DIMTXSTY
  7
Standard
  9
$DIMAUNIT
 70
     0
  9
$DIMADEC
 70
     0
  9
$DIMALTRND
 40
0.0
  9
$DIMAZIN
 70
     0
  9
$DIMDSEP
 70
    46
  9
$DIMATFIT
 70
     3
  9
$DIMFRAC
 70
     0
  9
$DIMLDRBLK
  1

  9
$DIMLUNIT
 70
     2
  9
$DIMLWD
 70
    -2
  9
$DIMLWE
 70
    -2
  9
$DIMTMOVE
 70
     0
  9
$DIMFXL
 40
1.0
  9
$DIMFXLON
 70
     0
  9
$DIMJOGANG
 40
0.7853981633974483
  9
$DIMTFILL
 70
     0
  9
$DIMTFILLCLR
 70
     0
  9
$DIMARCSYM
 70
     0
  9
$DIMLTYPE
  6

  9
$DIMLTEX1
  6

  9
$DIMLTEX2
  6

  9
$DIMTXTDIRECTION
 70
     0
  9
$LUNITS
 70
     2
  9
$LUPREC
 70
     4
  9
$SKETCHINC
 40
0.1
  9
$FILLETRAD
 40
0.0
  9
$AUNITS
 70
     0
  9
$AUPREC
 70
     0
  9
$MENU
  1
.
  9
$ELEVATION
 40
0.0
  9
$PELEVATION
 40
0.0
  9
$THICKNESS
 40
0.0
  9
$LIMCHECK
 70
     0
  9
$CHAMFERA
 40
0.0
  9
$CHAMFERB
 40
0.0
  9
$CHAMFERC
 40
0.0
  9
$CHAMFERD
 40
0.0
  9
$SKPOLY
 70
     0
  9
$TDCREATE
 40
2456107.470564016
  9
$TDUCREATE
 40
2456107.678897350
  9
$TDUPDATE
 40
2456107.470564028
  9
$TDUUPDATE
 40
2456107.678897361
  9
$TDINDWG
 40
0.0000239120
  9
$TDUSRTIMER
 40
0.0000239120
  9
$USRTIMER
 70
     1
  9
$ANGBASE
 50
0.0
  9
$ANGDIR
 70
     0
  9
$PDMODE
 70
     0
  9
$PDSIZE
 40
0.0
  9
$PLINEWID
 40
0.0
  9
$SPLFRAME
 70
     0
  9
$SPLINETYPE
 70
     6
  9
$SPLINESEGS
 70
     8
  9
$HANDSEED
  5
885
  9
$SURFTAB1
 70
     6
  9
$SURFTAB2
 70
     6
  9
$SURFTYPE
 70
     6
  9
$SURFU
 70
     6
  9
$SURFV
 70
     6
  9
$UCSBASE
  2

  9
$UCSNAME
  2

  9
$UCSORG
 10
0.0
 20
0.0
 30
0.0
  9
$UCSXDIR
 10
1.0
 20
0.0
 30
0.0
  9
$UCSYDIR
 10
0.0
 20
1.0
 30
0.0
  9
$UCSORTHOREF
  2

  9
$UCSORTHOVIEW
 70
     0
  9
$UCSORGTOP
 10
0.0
 20
0.0
 30
0.0
  9
$UCSORGBOTTOM
 10
0.0
 20
0.0
 30
0.0
  9
$UCSORGLEFT
 10
0.0
 20
0.0
 30
0.0
  9
$UCSORGRIGHT
 10
0.0
 20
0.0
 30
0.0
  9
$UCSORGFRONT
 10
0.0
 20
0.0
 30
0.0
  9
$UCSORGBACK
 10
0.0
 20
0.0
 30
0.0
  9
$PUCSBASE
  2

  9
$PUCSNAME
  2

  9
$PUCSORG
 10
0.0
 20
0.0
 30
0.0
  9
$PUCSXDIR
 10
1.0
 20
0.0
 30
0.0
  9
$PUCSYDIR
 10
0.0
 20
1.0
 30
0.0
  9
$PUCSORTHOREF
  2

  9
$PUCSORTHOVIEW
 70
     0
  9
$PUCSORGTOP
 10
0.0
 20
0.0
 30
0.0
  9
$PUCSORGBOTTOM
 10
0.0
 20
0.0
 30
0.0
  9
$PUCSORGLEFT
 10
0.0
 20
0.0
 30
0.0
  9
$PUCSORGRIGHT
 10
0.0
 20
0.0
 30
0.0
  9
$PUCSORGFRONT
 10
0.0
 20
0.0
 30
0.0
  9
$PUCSORGBACK
 10
0.0
 20
0.0
 30
0.0
  9
$USERI1
 70
     0
  9
$USERI2
 70
     0
  9
$USERI3
 70
     0
  9
$USERI4
 70
     0
  9
$USERI5
 70
     0
  9
$USERR1
 40
0.0
  9
$USERR2
 40
0.0
  9
$USERR3
 40
0.0
  9
$USERR4
 40
0.0
  9
$USERR5
 40
0.0
  9
$WORLDVIEW
 70
     1
  9
$SHADEDGE
 70
     3
  9
$SHADEDIF
 70
    70
  9
$TILEMODE
 70
     1
  9
$MAXACTVP
 70
    64
  9
$PINSBASE
 10
0.0
 20
0.0
 30
0.0
  9
$PLIMCHECK
 70
     0
  9
$PEXTMIN
 10
0.0
 20
0.0
 30
0.0
  9
$PEXTMAX
 10
30.90909090909091
 20
20.0
 30
0.0
  9
$PLIMMIN
 10
0.0
 20
0.0
  9
$PLIMMAX
 10
30.90909090909091
 20
20.0
  9
$UNITMODE
 70
     0
  9
$VISRETAIN
 70
     1
  9
$PLINEGEN
 70
     0
  9
$PSLTSCALE
 70
     1
  9
$TREEDEPTH
 70
  3020
  9
$CMLSTYLE
  2
Standard
  9
$CMLJUST
 70
     0
  9
$CMLSCALE
 40
1.0
  9
$PROXYGRAPHICS
 70
     1
  9
$MEASUREMENT
 70
     0
  9
$CELWEIGHT
370
    -1
  9
$ENDCAPS
280
     0
  9
$JOINSTYLE
280
     0
  9
$LWDISPLAY
290
     0
  9
$INSUNITS
 70
     1
  9
$HYPERLINKBASE
  1

  9
$STYLESHEET
  1

  9
$XEDIT
290
     1
  9
$CEPSNTYPE
380
     0
  9
$PSTYLEMODE
290
     1
  9
$FINGERPRINTGUID
  2
{0AAA21D9-9410-4724-B337-27CFB82FDD28}
  9
$VERSIONGUID
  2
{C2762DF5-7890-4BF2-A251-D1E8C0CD8BDF}
  9
$EXTNAMES
290
     1
  9
$PSVPSCALE
 40
0.0
  9
$OLESTARTUP
290
     0
  9
$SORTENTS
280
   127
  9
$INDEXCTL
280
     0
  9
$HIDETEXT
280
     1
  9
$XCLIPFRAME
280
     2
  9
$HALOGAP
280
     0
  9
$OBSCOLOR
 70
   257
  9
$OBSLTYPE
280
     0
  9
$INTERSECTIONDISPLAY
280
     0
  9
$INTERSECTIONCOLOR
 70
   257
  9
$DIMASSOC
280
     1
  9
$PROJECTNAME
  1

  9
$CAMERADISPLAY
290
     0
  9
$LENSLENGTH
 40
50.0
  9
$CAMERAHEIGHT
 40
0.0
  9
$STEPSPERSEC
 40
2.0
  9
$STEPSIZE
 40
6.0
  9
$3DDWFPREC
 40
2.0
  9
$PSOLWIDTH
 40
0.25
  9
$PSOLHEIGHT
 40
4.0
  9
$LOFTANG1
 40
1.570796326794896
  9
$LOFTANG2
 40
1.570796326794896
  9
$LOFTMAG1
 40
0.0
  9
$LOFTMAG2
 40
0.0
  9
$LOFTPARAM
 70
     7
  9
$LOFTNORMALS
280
     1
  9
$LATITUDE
 40
37.795
  9
$LONGITUDE
 40
-122.394
  9
$NORTHDIRECTION
 40
0.0
  9
$TIMEZONE
 70
 -8000
  9
$LIGHTGLYPHDISPLAY
280
     1
  9
$TILEMODELIGHTSYNCH
280
     1
  9
$CMATERIAL
347
11
  9
$SOLIDHIST
280
     0
  9
$SHOWHIST
280
     1
  9
$DWFFRAME
280
     2
  9
$DGNFRAME
280
     0
  9
$REALWORLDSCALE
290
     1
  9
$INTERFERECOLOR
 62
     1
  9
$INTERFEREOBJVS
345
33
  9
$INTERFEREVPVS
346
30
  9
$CSHADOW
280
     0
  9
$SHADOWPLANELOCATION
 40
0.0
  0
ENDSEC
  0
SECTION
  2
CLASSES
  0
CLASS
  1
ACDBDICTIONARYWDFLT
  2
AcDbDictionaryWithDefault
  3
ObjectDBX Classes
 90
        0
 91
        1
280
     0
281
     0
  0
CLASS
  1
MATERIAL
  2
AcDbMaterial
  3
ObjectDBX Classes
 90
     1153
 91
        3
280
     0
281
     0
  0
CLASS
  1
VISUALSTYLE
  2
AcDbVisualStyle
  3
ObjectDBX Classes
 90
     4095
 91
       24
280
     0
281
     0
  0
CLASS
  1
SCALE
  2
AcDbScale
  3
ObjectDBX Classes
 90
     1153
 91
       17
280
     0
281
     0
  0
CLASS
  1
TABLESTYLE
  2
AcDbTableStyle
  3
ObjectDBX Classes
 90
     4095
 91
        1
280
     0
281
     0
  0
CLASS
  1
MLEADERSTYLE
  2
AcDbMLeaderStyle
  3
ACDB_MLEADERSTYLE_CLASS
 90
     4095
 91
        1
280
     0
281
     0
  0
CLASS
  1
DICTIONARYVAR
  2
AcDbDictionaryVar
  3
ObjectDBX Classes
 90
        0
 91
        3
280
     0
281
     0
  0
CLASS
  1
CELLSTYLEMAP
  2
AcDbCellStyleMap
  3
ObjectDBX Classes
 90
     1152
 91
        1
280
     0
281
     0
  0
ENDSEC
  0
SECTION
  2
TABLES
  0
TABLE
  2
VPORT
  5
8
330
0
100
AcDbSymbolTable
 70
     1
  0
VPORT
  5
57
330
8
100
AcDbSymbolTableRecord
100
AcDbViewportTableRecord
  2
*Active
 70
     0
 10
0.0
 20
0.0
 11
1.0
 21
1.0
 12
15.45454545454545
 22
10.0
 13
0.0
 23
0.0
 14
1.0
 24
1.0
 15
0.0
 25
0.0
 16
0.0
 26
0.0
 36
1.0
 17
0.0
 27
0.0
 37
0.0
 40
20.0
 41
1.545454545454545
 42
50.0
 43
0.0
 44
0.0
 50
0.0
 51
0.0
 71
     0
 72
   100
 73
     1
 74
     1
 75
     0
 76
     0
 77
     0
 78
     0
281
     0
 65
     1
110
0.0
120
0.0
130
0.0
111
1.0
121
0.0
131
0.0
112
0.0
122
1.0
132
0.0
 79
     0
146
0.0
 60
     3
 61
     5
292
     1
282
     1
141
0.0
142
0.0
 63
   250
421
  3355443
  0
ENDTAB
  0
TABLE
  2
LTYPE
  5
5
330
0
100
AcDbSymbolTable
 70
    59
  0
LTYPE
  5
5B
330
5
100
AcDbSymbolTableRecord
100
AcDbLinetypeTableRecord
  2
ByBlock
 70
     0
  3

 72
    65
 73
     0
 40
0.0
  0
LTYPE
  5
5C
330
5
100
AcDbSymbolTableRecord
100
AcDbLinetypeTableRecord
  2
ByLayer
 70
     0
  3

 72
    65
 73
     0
 40
0.0
  0
LTYPE
  5
5D
330
5
100
AcDbSymbolTableRecord
100
AcDbLinetypeTableRecord
  2
Continuous
 70
     0
  3
Solid line
 72
    65
 73
     0
 40
0.0
  0
LTYPE
  5
7C
330
5
100
AcDbSymbolTableRecord
100
AcDbLinetypeTableRecord
  2
BY_STANDARD
 70
     0
  3
By Standard ____________    ____    ____   _
 72
    65
 73
     6
 40
1.240299999999999
 49
0.6614
 74
     0
 49
-0.0827
 74
     0
 49
0.1654
 74
     0
 49
-0.0827
 74
     0
 49
0.1654
 74
     0
 49
-0.0827
 74
     0
  0
LTYPE
  5
7D
330
5
100
AcDbSymbolTableRecord
100
AcDbLinetypeTableRecord
  2
CHAIN
 70
     0
  3
Chain ____ _ ____ _ ____ _ ____ _ ____ _ ____
 72
    65
 73
     4
 40
0.7087
 49
0.4724000000000001
 74
     0
 49
-0.0591
 74
     0
 49
0.1181
 74
     0
 49
-0.0591
 74
     0
  0
LTYPE
  5
7E
330
5
100
AcDbSymbolTableRecord
100
AcDbLinetypeTableRecord
  2
DASH_DOT
 70
     0
  3
Dash dot __ . __ . __ . __ . __ . __ . __ . __
 72
    65
 73
     4
 40
0.37
 49
0.24
 74
     0
 49
-0.06
 74
     0
 49
0.01
 74
     0
 49
-0.06
 74
     0
  0
LTYPE
  5
7F
330
5
100
AcDbSymbolTableRecord
100
AcDbLinetypeTableRecord
  2
DOUBLE_DASH_DOT
 70
     0
  3
Double-Dash Dot __ __ . __ __ . __ __ . __ _
 72
    65
 73
     6
 40
0.4398
 49
0.24
 74
     0
 49
-0.06
 74
     0
 49
0.0098
 74
     0
 49
-0.06
 74
     0
 49
0.01
 74
     0
 49
-0.06
 74
     0
  0
LTYPE
  5
80
330
5
100
AcDbSymbolTableRecord
100
AcDbLinetypeTableRecord
  2
DASH_TRIPLE_DOT
 70
     0
  3
Dash Triple-Dot _ . . . _ . . . _ . . . _
 72
    65
 73
     8
 40
0.51
 49
0.24
 74
     0
 49
-0.06
 74
     0
 49
0.01
 74
     0
 49
-0.06
 74
     0
 49
0.01
 74
     0
 49
-0.06
 74
     0
 49
0.01
 74
     0
 49
-0.06
 74
     0
  0
LTYPE
  5
81
330
5
100
AcDbSymbolTableRecord
100
AcDbLinetypeTableRecord
  2
DASHED
 70
     0
  3
Dashed __ __ __ __ __ __ __ __ __ __ __ __ __ _
 72
    65
 73
     2
 40
0.2067
 49
0.1654
 74
     0
 49
-0.0413
 74
     0
  0
LTYPE
  5
82
330
5
100
AcDbSymbolTableRecord
100
AcDbLinetypeTableRecord
  2
DASH_DOUBLE_DOT
 70
     0
  3
Dash Double-Dot __ . . __ . . __ . . __ . .
 72
    65
 73
     6
 40
0.4398
 49
0.24
 74
     0
 49
-0.06
 74
     0
 49
0.0098
 74
     0
 49
-0.06
 74
     0
 49
0.01
 74
     0
 49
-0.06
 74
     0
  0
LTYPE
  5
83
330
5
100
AcDbSymbolTableRecord
100
AcDbLinetypeTableRecord
  2
DASHED_SPACE
 70
     0
  3
Dashed Space __ __ __ __ __ __ __ __ __ __ __ _
 72
    65
 73
     2
 40
0.2067
 49
0.1654
 74
     0
 49
-0.0413
 74
     0
  0
LTYPE
  5
84
330
5
100
AcDbSymbolTableRecord
100
AcDbLinetypeTableRecord
  2
DOTTED
 70
     0
  3
Dotted . . . . . . . . . . . . . . . . . . . . 
 72
    65
 73
     2
 40
0.0482
 49
0.0069
 74
     0
 49
-0.0413
 74
     0
  0
LTYPE
  5
85
330
5
100
AcDbSymbolTableRecord
100
AcDbLinetypeTableRecord
  2
DOUBLE_DASH_CHAIN
 70
     0
  3
Double-Dash Chain ______  __  __  ______  __  _
 72
    65
 73
     6
 40
1.240299999999999
 49
0.6614
 74
     0
 49
-0.0827
 74
     0
 49
0.1654
 74
     0
 49
-0.0827
 74
     0
 49
0.1654
 74
     0
 49
-0.0827
 74
     0
  0
LTYPE
  5
87
330
5
100
AcDbSymbolTableRecord
100
AcDbLinetypeTableRecord
  2
DOUBLE_DASH_DOUBLE_DOT
 70
     0
  3
Double-Dash Double-dot _ _ . . _ _ . . _
 72
    65
 73
     8
 40
0.7400000000000001
 49
0.24
 74
     0
 49
-0.06
 74
     0
 49
0.24
 74
     0
 49
-0.06
 74
     0
 49
0.01
 74
     0
 49
-0.06
 74
     0
 49
0.01
 74
     0
 49
-0.06
 74
     0
  0
LTYPE
  5
88
330
5
100
AcDbSymbolTableRecord
100
AcDbLinetypeTableRecord
  2
DOUBLE_DASH_TRIPLE_DOT
 70
     0
  3
Double Dash Triple Dot __ __ . . . __ __ . .
 72
    65
 73
    10
 40
0.8100000000000001
 49
0.24
 74
     0
 49
-0.06
 74
     0
 49
0.24
 74
     0
 49
-0.06
 74
     0
 49
0.01
 74
     0
 49
-0.06
 74
     0
 49
0.01
 74
     0
 49
-0.06
 74
     0
 49
0.01
 74
     0
 49
-0.06
 74
     0
  0
LTYPE
  5
89
330
5
100
AcDbSymbolTableRecord
100
AcDbLinetypeTableRecord
  2
LONG_DASH_DOTTED
 70
     0
  3
Long Dash Dotted ____ . ____ . ____ . ____ . _
 72
    65
 73
     4
 40
0.3543
 49
0.2362
 74
     0
 49
-0.0295
 74
     0
 49
0.0591
 74
     0
 49
-0.0295
 74
     0
  0
LTYPE
  5
8A
330
5
100
AcDbSymbolTableRecord
100
AcDbLinetypeTableRecord
  2
LONG_DASH_DOUBLE_DOT
 70
     0
  3
Long Dash Double Dot ________  .  .  ________  
 72
    65
 73
     6
 40
0.6799999999999999
 49
0.48
 74
     0
 49
-0.06
 74
     0
 49
0.01
 74
     0
 49
-0.06
 74
     0
 49
0.01
 74
     0
 49
-0.06
 74
     0
  0
LTYPE
  5
8B
330
5
100
AcDbSymbolTableRecord
100
AcDbLinetypeTableRecord
  2
LONG_DASH_TRIPLE_DOT
 70
     0
  3
Long Dash Triple Dot ____ ... ____ ... ____
 72
    65
 73
     8
 40
0.3689
 49
0.2362
 74
     0
 49
-0.0295
 74
     0
 49
0.0049
 74
     0
 49
-0.0295
 74
     0
 49
0.0049
 74
     0
 49
-0.0295
 74
     0
 49
0.0049
 74
     0
 49
-0.0295
 74
     0
  0
LTYPE
  5
8C
330
5
100
AcDbSymbolTableRecord
100
AcDbLinetypeTableRecord
  2
BORDER
 70
     0
  3
Border __ __ . __ __ . __ __ . __ __ . __ __ .
 72
    65
 73
     6
 40
1.75
 49
0.5
 74
     0
 49
-0.25
 74
     0
 49
0.5
 74
     0
 49
-0.25
 74
     0
 49
0.0
 74
     0
 49
-0.25
 74
     0
  0
LTYPE
  5
8D
330
5
100
AcDbSymbolTableRecord
100
AcDbLinetypeTableRecord
  2
BORDER2
 70
     0
  3
Border (.5x) __.__.__.__.__.__.__.__.__.__.__.
 72
    65
 73
     6
 40
0.875
 49
0.25
 74
     0
 49
-0.125
 74
     0
 49
0.25
 74
     0
 49
-0.125
 74
     0
 49
0.0
 74
     0
 49
-0.125
 74
     0
  0
LTYPE
  5
8E
330
5
100
AcDbSymbolTableRecord
100
AcDbLinetypeTableRecord
  2
BORDERX2
 70
     0
  3
Border (2x) ____  ____  .  ____  ____  .  ___
 72
    65
 73
     6
 40
3.5
 49
1.0
 74
     0
 49
-0.5
 74
     0
 49
1.0
 74
     0
 49
-0.5
 74
     0
 49
0.0
 74
     0
 49
-0.5
 74
     0
  0
LTYPE
  5
8F
330
5
100
AcDbSymbolTableRecord
100
AcDbLinetypeTableRecord
  2
CENTER
 70
     0
  3
Center ____ _ ____ _ ____ _ ____ _ ____ _ ____
 72
    65
 73
     4
 40
2.0
 49
1.25
 74
     0
 49
-0.25
 74
     0
 49
0.25
 74
     0
 49
-0.25
 74
     0
  0
LTYPE
  5
90
330
5
100
AcDbSymbolTableRecord
100
AcDbLinetypeTableRecord
  2
CENTER2
 70
     0
  3
Center (.5x) ___ _ ___ _ ___ _ ___ _ ___ _ ___
 72
    65
 73
     4
 40
1.125
 49
0.75
 74
     0
 49
-0.125
 74
     0
 49
0.125
 74
     0
 49
-0.125
 74
     0
  0
LTYPE
  5
91
330
5
100
AcDbSymbolTableRecord
100
AcDbLinetypeTableRecord
  2
CENTERX2
 70
     0
  3
Center (2x) ________  __  ________  __  _____
 72
    65
 73
     4
 40
4.0
 49
2.5
 74
     0
 49
-0.5
 74
     0
 49
0.5
 74
     0
 49
-0.5
 74
     0
  0
LTYPE
  5
92
330
5
100
AcDbSymbolTableRecord
100
AcDbLinetypeTableRecord
  2
DASHDOT2
 70
     0
  3
Dash dot (.5x) _._._._._._._._._._._._._._._.
 72
    65
 73
     4
 40
0.5
 49
0.25
 74
     0
 49
-0.125
 74
     0
 49
0.0
 74
     0
 49
-0.125
 74
     0
  0
LTYPE
  5
93
330
5
100
AcDbSymbolTableRecord
100
AcDbLinetypeTableRecord
  2
DASHDOTX2
 70
     0
  3
Dash dot (2x) ____  .  ____  .  ____  .  ___
 72
    65
 73
     4
 40
2.0
 49
1.0
 74
     0
 49
-0.5
 74
     0
 49
0.0
 74
     0
 49
-0.5
 74
     0
  0
LTYPE
  5
95
330
5
100
AcDbSymbolTableRecord
100
AcDbLinetypeTableRecord
  2
DASHED2
 70
     0
  3
Dashed (.5x) _ _ _ _ _ _ _ _ _ _ _ _ _ _ _ _ _
 72
    65
 73
     2
 40
0.375
 49
0.25
 74
     0
 49
-0.125
 74
     0
  0
LTYPE
  5
96
330
5
100
AcDbSymbolTableRecord
100
AcDbLinetypeTableRecord
  2
DASHEDX2
 70
     0
  3
Dashed (2x) ____  ____  ____  ____  ____  ___
 72
    65
 73
     2
 40
1.5
 49
1.0
 74
     0
 49
-0.5
 74
     0
  0
LTYPE
  5
97
330
5
100
AcDbSymbolTableRecord
100
AcDbLinetypeTableRecord
  2
DIVIDE
 70
     0
  3
Divide ____ . . ____ . . ____ . . ____ . . ____
 72
    65
 73
     6
 40
1.25
 49
0.5
 74
     0
 49
-0.25
 74
     0
 49
0.0
 74
     0
 49
-0.25
 74
     0
 49
0.0
 74
     0
 49
-0.25
 74
     0
  0
LTYPE
  5
98
330
5
100
AcDbSymbolTableRecord
100
AcDbLinetypeTableRecord
  2
DIVIDE2
 70
     0
  3
Divide (.5x) __..__..__..__..__..__..__..__.._
 72
    65
 73
     6
 40
0.625
 49
0.25
 74
     0
 49
-0.125
 74
     0
 49
0.0
 74
     0
 49
-0.125
 74
     0
 49
0.0
 74
     0
 49
-0.125
 74
     0
  0
LTYPE
  5
99
330
5
100
AcDbSymbolTableRecord
100
AcDbLinetypeTableRecord
  2
DIVIDEX2
 70
     0
  3
Divide (2x) ________  .  .  ________  .  .  _
 72
    65
 73
     6
 40
2.5
 49
1.0
 74
     0
 49
-0.5
 74
     0
 49
0.0
 74
     0
 49
-0.5
 74
     0
 49
0.0
 74
     0
 49
-0.5
 74
     0
  0
LTYPE
  5
9A
330
5
100
AcDbSymbolTableRecord
100
AcDbLinetypeTableRecord
  2
DOT
 70
     0
  3
Dot . . . . . . . . . . . . . . . . . . . . . .
 72
    65
 73
     2
 40
0.25
 49
0.0
 74
     0
 49
-0.25
 74
     0
  0
LTYPE
  5
9B
330
5
100
AcDbSymbolTableRecord
100
AcDbLinetypeTableRecord
  2
DOT2
 70
     0
  3
Dot (.5x) .....................................
 72
    65
 73
     2
 40
0.125
 49
0.0
 74
     0
 49
-0.125
 74
     0
  0
LTYPE
  5
9C
330
5
100
AcDbSymbolTableRecord
100
AcDbLinetypeTableRecord
  2
DOTX2
 70
     0
  3
Dot (2x) .  .  .  .  .  .  .  .  .  .  .  .  . 
 72
    65
 73
     2
 40
0.5
 49
0.0
 74
     0
 49
-0.5
 74
     0
  0
LTYPE
  5
9D
330
5
100
AcDbSymbolTableRecord
100
AcDbLinetypeTableRecord
  2
HIDDEN
 70
     0
  3
Hidden __ __ __ __ __ __ __ __ __ __ __ __ __ _
 72
    65
 73
     2
 40
0.375
 49
0.25
 74
     0
 49
-0.125
 74
     0
  0
LTYPE
  5
9E
330
5
100
AcDbSymbolTableRecord
100
AcDbLinetypeTableRecord
  2
HIDDEN2
 70
     0
  3
Hidden (.5x) _ _ _ _ _ _ _ _ _ _ _ _ _ _ _ _ _
 72
    65
 73
     2
 40
0.1875
 49
0.125
 74
     0
 49
-0.0625
 74
     0
  0
LTYPE
  5
9F
330
5
100
AcDbSymbolTableRecord
100
AcDbLinetypeTableRecord
  2
HIDDENX2
 70
     0
  3
Hidden (2x) ____ ____ ____ ____ ____ ____ ____
 72
    65
 73
     2
 40
0.75
 49
0.5
 74
     0
 49
-0.25
 74
     0
  0
LTYPE
  5
A0
330
5
100
AcDbSymbolTableRecord
100
AcDbLinetypeTableRecord
  2
PHANTOM
 70
     0
  3
Phantom ______  __  __  ______  __  __  ______
 72
    65
 73
     6
 40
2.5
 49
1.25
 74
     0
 49
-0.25
 74
     0
 49
0.25
 74
     0
 49
-0.25
 74
     0
 49
0.25
 74
     0
 49
-0.25
 74
     0
  0
LTYPE
  5
A1
330
5
100
AcDbSymbolTableRecord
100
AcDbLinetypeTableRecord
  2
PHANTOM2
 70
     0
  3
Phantom (.5x) ___ _ _ ___ _ _ ___ _ _ ___ _ _
 72
    65
 73
     6
 40
1.25
 49
0.625
 74
     0
 49
-0.125
 74
     0
 49
0.125
 74
     0
 49
-0.125
 74
     0
 49
0.125
 74
     0
 49
-0.125
 74
     0
  0
LTYPE
  5
A2
330
5
100
AcDbSymbolTableRecord
100
AcDbLinetypeTableRecord
  2
PHANTOMX2
 70
     0
  3
Phantom (2x) ____________    ____    ____   _
 72
    65
 73
     6
 40
5.0
 49
2.5
 74
     0
 49
-0.5
 74
     0
 49
0.5
 74
     0
 49
-0.5
 74
     0
 49
0.5
 74
     0
 49
-0.5
 74
     0
  0
LTYPE
  5
A3
330
5
100
AcDbSymbolTableRecord
100
AcDbLinetypeTableRecord
  2
ACAD_ISO02W100
 70
     0
  3
ISO dash __ __ __ __ __ __ __ __ __ __ __ __ __
 72
    65
 73
     2
 40
0.59
 49
0.47
 74
     0
 49
-0.12
 74
     0
  0
LTYPE
  5
A4
330
5
100
AcDbSymbolTableRecord
100
AcDbLinetypeTableRecord
  2
ACAD_ISO03W100
 70
     0
  3
ISO dash space __    __    __    __    __    __
 72
    65
 73
     2
 40
1.179999999999999
 49
0.47
 74
     0
 49
-0.71
 74
     0
  0
LTYPE
  5
A5
330
5
100
AcDbSymbolTableRecord
100
AcDbLinetypeTableRecord
  2
ACAD_ISO04W100
 70
     0
  3
ISO long-dash dot ____ . ____ . ____ . ____ . _
 72
    65
 73
     4
 40
1.179999999999999
 49
0.9399999999999998
 74
     0
 49
-0.12
 74
     0
 49
0.0
 74
     0
 49
-0.12
 74
     0
  0
LTYPE
  5
A6
330
5
100
AcDbSymbolTableRecord
100
AcDbLinetypeTableRecord
  2
ACAD_ISO05W100
 70
     0
  3
ISO long-dash double-dot ____ .. ____ .. ____ .
 72
    65
 73
     6
 40
1.299999999999999
 49
0.9399999999999998
 74
     0
 49
-0.12
 74
     0
 49
0.0
 74
     0
 49
-0.12
 74
     0
 49
0.0
 74
     0
 49
-0.12
 74
     0
  0
LTYPE
  5
A7
330
5
100
AcDbSymbolTableRecord
100
AcDbLinetypeTableRecord
  2
ACAD_ISO06W100
 70
     0
  3
ISO long-dash triple-dot ____ ... ____ ... ____
 72
    65
 73
     8
 40
1.419999999999999
 49
0.9399999999999998
 74
     0
 49
-0.12
 74
     0
 49
0.0
 74
     0
 49
-0.12
 74
     0
 49
0.0
 74
     0
 49
-0.12
 74
     0
 49
0.0
 74
     0
 49
-0.12
 74
     0
  0
LTYPE
  5
A8
330
5
100
AcDbSymbolTableRecord
100
AcDbLinetypeTableRecord
  2
ACAD_ISO07W100
 70
     0
  3
ISO dot . . . . . . . . . . . . . . . . . . . .
 72
    65
 73
     2
 40
0.12
 49
0.0
 74
     0
 49
-0.12
 74
     0
  0
LTYPE
  5
A9
330
5
100
AcDbSymbolTableRecord
100
AcDbLinetypeTableRecord
  2
ACAD_ISO08W100
 70
     0
  3
ISO long-dash short-dash ____ __ ____ __ ____ _
 72
    65
 73
     4
 40
0.95
 49
0.47
 74
     0
 49
-0.12
 74
     0
 49
0.24
 74
     0
 49
-0.12
 74
     0
  0
LTYPE
  5
AA
330
5
100
AcDbSymbolTableRecord
100
AcDbLinetypeTableRecord
  2
ACAD_ISO09W100
 70
     0
  3
ISO long-dash double-short-dash ____ __ __ ____
 72
    65
 73
     6
 40
1.31
 49
0.47
 74
     0
 49
-0.12
 74
     0
 49
0.24
 74
     0
 49
-0.12
 74
     0
 49
0.24
 74
     0
 49
-0.12
 74
     0
  0
LTYPE
  5
AB
330
5
100
AcDbSymbolTableRecord
100
AcDbLinetypeTableRecord
  2
ACAD_ISO10W100
 70
     0
  3
ISO dash dot __ . __ . __ . __ . __ . __ . __ .
 72
    65
 73
     4
 40
0.71
 49
0.47
 74
     0
 49
-0.12
 74
     0
 49
0.0
 74
     0
 49
-0.12
 74
     0
  0
LTYPE
  5
AC
330
5
100
AcDbSymbolTableRecord
100
AcDbLinetypeTableRecord
  2
ACAD_ISO11W100
 70
     0
  3
ISO double-dash dot __ __ . __ __ . __ __ . __ 
 72
    65
 73
     6
 40
1.299999999999999
 49
0.47
 74
     0
 49
-0.12
 74
     0
 49
0.47
 74
     0
 49
-0.12
 74
     0
 49
0.0
 74
     0
 49
-0.12
 74
     0
  0
LTYPE
  5
AD
330
5
100
AcDbSymbolTableRecord
100
AcDbLinetypeTableRecord
  2
ACAD_ISO12W100
 70
     0
  3
ISO dash double-dot __ . . __ . . __ . . __ . .
 72
    65
 73
     6
 40
0.8299999999999998
 49
0.47
 74
     0
 49
-0.12
 74
     0
 49
0.0
 74
     0
 49
-0.12
 74
     0
 49
0.0
 74
     0
 49
-0.12
 74
     0
  0
LTYPE
  5
AE
330
5
100
AcDbSymbolTableRecord
100
AcDbLinetypeTableRecord
  2
ACAD_ISO13W100
 70
     0
  3
ISO double-dash double-dot __ __ . . __ __ . . 
 72
    65
 73
     8
 40
1.419999999999999
 49
0.47
 74
     0
 49
-0.12
 74
     0
 49
0.47
 74
     0
 49
-0.12
 74
     0
 49
0.0
 74
     0
 49
-0.12
 74
     0
 49
0.0
 74
     0
 49
-0.12
 74
     0
  0
LTYPE
  5
AF
330
5
100
AcDbSymbolTableRecord
100
AcDbLinetypeTableRecord
  2
ACAD_ISO14W100
 70
     0
  3
ISO dash triple-dot __ . . . __ . . . __ . . . 
 72
    65
 73
     8
 40
0.95
 49
0.47
 74
     0
 49
-0.12
 74
     0
 49
0.0
 74
     0
 49
-0.12
 74
     0
 49
0.0
 74
     0
 49
-0.12
 74
     0
 49
0.0
 74
     0
 49
-0.12
 74
     0
  0
LTYPE
  5
B0
330
5
100
AcDbSymbolTableRecord
100
AcDbLinetypeTableRecord
  2
ACAD_ISO15W100
 70
     0
  3
ISO double-dash triple-dot __ __ . . . __ __ . 
 72
    65
 73
    10
 40
1.539999999999999
 49
0.47
 74
     0
 49
-0.12
 74
     0
 49
0.47
 74
     0
 49
-0.12
 74
     0
 49
0.0
 74
     0
 49
-0.12
 74
     0
 49
0.0
 74
     0
 49
-0.12
 74
     0
 49
0.0
 74
     0
 49
-0.12
 74
     0
  0
LTYPE
  5
B3
330
5
100
AcDbSymbolTableRecord
100
AcDbLinetypeTableRecord
  2
FENCELINE1
 70
     0
  3
Fenceline circle ----0-----0----0-----0----0---
 72
    65
 73
     4
 40
1.45
 49
0.25
 74
     0
 49
-0.1
 74
     4
 75
   133
340
B2
 46
0.1
 50
0.0
 44
-0.1
 45
0.0
 49
-0.1
 74
     0
 49
1.0
 74
     0
  0
LTYPE
  5
B4
330
5
100
AcDbSymbolTableRecord
100
AcDbLinetypeTableRecord
  2
FENCELINE2
 70
     0
  3
Fenceline square ----[]-----[]----[]-----[]----
 72
    65
 73
     4
 40
1.45
 49
0.25
 74
     0
 49
-0.1
 74
     4
 75
   132
340
B2
 46
0.1
 50
0.0
 44
-0.1
 45
0.0
 49
-0.1
 74
     0
 49
1.0
 74
     0
  0
LTYPE
  5
B5
330
5
100
AcDbSymbolTableRecord
100
AcDbLinetypeTableRecord
  2
TRACKS
 70
     0
  3
Tracks -|-|-|-|-|-|-|-|-|-|-|-|-|-|-|-|-|-|-|-|
 72
    65
 73
     2
 40
0.3
 49
0.15
 74
     4
 75
   130
340
B2
 46
0.25
 50
0.0
 44
0.0
 45
0.0
 49
0.15
 74
     0
  0
LTYPE
  5
B6
330
5
100
AcDbSymbolTableRecord
100
AcDbLinetypeTableRecord
  2
BATTING
 70
     0
  3
Batting SSSSSSSSSSSSSSSSSSSSSSSSSSSSSSSSSSSSSSS
 72
    65
 73
     4
 40
0.4001000000000001
 49
0.0001
 74
     0
 49
-0.1
 74
     4
 75
   134
340
B2
 46
0.1
 50
0.0
 44
-0.1
 45
0.0
 49
-0.2
 74
     4
 75
   134
340
B2
 46
0.1
 50
180.0
 44
0.1
 45
0.0
 49
-0.1
 74
     0
  0
LTYPE
  5
B7
330
5
100
AcDbSymbolTableRecord
100
AcDbLinetypeTableRecord
  2
HOT_WATER_SUPPLY
 70
     0
  3
Hot water supply ---- HW ---- HW ---- HW ----
 72
    65
 73
     3
 40
0.9
 49
0.5
 74
     0
 49
-0.2
 74
     2
 75
     0
340
55
 46
0.1
 50
0.0
 44
-0.1
 45
-0.05
  9
HW
 49
-0.2
 74
     0
  0
LTYPE
  5
B8
330
5
100
AcDbSymbolTableRecord
100
AcDbLinetypeTableRecord
  2
GAS_LINE
 70
     0
  3
Gas line ----GAS----GAS----GAS----GAS----GAS---
 72
    65
 73
     3
 40
0.95
 49
0.5
 74
     0
 49
-0.2
 74
     2
 75
     0
340
55
 46
0.1
 50
0.0
 44
-0.1
 45
-0.05
  9
GAS
 49
-0.25
 74
     0
  0
LTYPE
  5
B9
330
5
100
AcDbSymbolTableRecord
100
AcDbLinetypeTableRecord
  2
ZIGZAG
 70
     0
  3
Zig zag /\/\/\/\/\/\/\/\/\/\/\/\/\/\/\/\/\/\/\/
 72
    65
 73
     4
 40
0.8001000000000001
 49
0.0001
 74
     0
 49
-0.2
 74
     4
 75
   131
340
B2
 46
0.2
 50
0.0
 44
-0.2
 45
0.0
 49
-0.4
 74
     4
 75
   131
340
B2
 46
0.2
 50
180.0
 44
0.2
 45
0.0
 49
-0.2
 74
     0
  0
ENDTAB
  0
TABLE
  2
LAYER
  5
2
330
0
100
AcDbSymbolTable
 70
    27
  0
LAYER
  5
54
330
2
100
AcDbSymbolTableRecord
100
AcDbLayerTableRecord
  2
0
 70
     0
 62
     7
  6
Continuous
370
    18
390
F
347
21
  0
LAYER
  5
C3
330
2
100
AcDbSymbolTableRecord
100
AcDbLayerTableRecord
  2
Dimension (ANSI)
 70
     0
 62
     7
  6
Continuous
370
    13
390
F
347
21
  0
LAYER
  5
C5
330
2
100
AcDbSymbolTableRecord
100
AcDbLayerTableRecord
  2
Hidden (ANSI)
 70
     0
 62
     7
  6
DASHED
370
    15
390
F
347
21
  0
LAYER
  5
CC
330
2
100
AcDbSymbolTableRecord
100
AcDbLayerTableRecord
  2
Symbol (ANSI)
 70
     0
 62
     7
  6
Continuous
370
    18
390
F
347
21
  0
LAYER
  5
CF
330
2
100
AcDbSymbolTableRecord
100
AcDbLayerTableRecord
  2
Visible (ANSI)
 70
     0
 62
     7
  6
Continuous
370
    13
390
F
347
21
  0
LAYER
  5
D0
330
2
100
AcDbSymbolTableRecord
100
AcDbLayerTableRecord
  2
Visible Narrow (ANSI)
 70
     0
 62
     7
  6
Continuous
370
    18
390
F
347
21
  0
LAYER
  5
143
330
2
100
AcDbSymbolTableRecord
100
AcDbLayerTableRecord
  2
Defpoints
 70
     0
 62
     7
  6
Continuous
290
     0
370
    -3
390
F
347
21
  0
ENDTAB
  0
TABLE
  2
STYLE
  5
3
330
0
100
AcDbSymbolTable
 70
    18
  0
STYLE
  5
55
330
3
100
AcDbSymbolTableRecord
100
AcDbTextStyleTableRecord
  2
Standard
 70
     0
 40
0.0
 41
1.0
 50
0.0
 71
     0
 42
0.2
  3
txt
  4

  0
STYLE
  5
5A
330
3
100
AcDbSymbolTableRecord
100
AcDbTextStyleTableRecord
  2
Annotative
 70
     0
 40
0.0
 41
1.0
 50
0.0
 71
     0
 42
0.2
  3
txt
  4

1001
AcadAnnotative
1000
AnnotativeData
1002
{
1070
     1
1070
     1
1002
}
  0
STYLE
  5
B2
330
3
100
AcDbSymbolTableRecord
100
AcDbTextStyleTableRecord
  2

 70
     1
 40
0.0
 41
1.0
 50
0.0
 71
     0
 42
0.2
  3
ltypeshp.shx
  4

  0
STYLE
  5
D4
330
3
100
AcDbSymbolTableRecord
100
AcDbTextStyleTableRecord
  2
ITALICC_120
 70
     0
 40
0.0
 41
1.0
 50
0.0
 71
     0
 42
0.2
  3
italicc.shx
  4

  0
STYLE
  5
D5
330
3
100
AcDbSymbolTableRecord
100
AcDbTextStyleTableRecord
  2
Label Text (ANSI)
 70
     0
 40
0.0
 41
1.0
 50
0.0
 71
     0
 42
0.2
  3
tahoma.ttf
  4

1001
ACAD
1000
Tahoma
1071
      256
  0
STYLE
  5
D6
330
3
100
AcDbSymbolTableRecord
100
AcDbTextStyleTableRecord
  2
Note Text (ANSI)
 70
     0
 40
0.0
 41
1.0
 50
0.0
 71
     0
 42
0.2
  3
tahoma.ttf
  4

1001
ACAD
1000
Tahoma
1071
      256
  0
STYLE
  5
D7
330
3
100
AcDbSymbolTableRecord
100
AcDbTextStyleTableRecord
  2
ROMANS
 70
     0
 40
0.0
 41
1.0
 50
0.0
 71
     0
 42
0.2
  3
romans.shx
  4

  0
STYLE
  5
D8
330
3
100
AcDbSymbolTableRecord
100
AcDbTextStyleTableRecord
  2
SANSSERIF_114
 70
     0
 40
0.0
 41
1.0
 50
0.0
 71
     0
 42
0.2
  3
tahoma.ttf
  4

1001
ACAD
1000
Tahoma
1071
      256
  0
STYLE
  5
D9
330
3
100
AcDbSymbolTableRecord
100
AcDbTextStyleTableRecord
  2
SANSSERIF_117
 70
     0
 40
0.0
 41
1.0
 50
0.0
 71
     0
 42
0.2
  3
tahoma.ttf
  4

1001
ACAD
1000
Tahoma
1071
      256
  0
STYLE
  5
DA
330
3
100
AcDbSymbolTableRecord
100
AcDbTextStyleTableRecord
  2
STANDARDAM_ANSI
 70
     0
 40
0.0
 41
1.0
 50
0.0
 71
     0
 42
0.2
  3
txt.shx
  4

  0
STYLE
  5
DB
330
3
100
AcDbSymbolTableRecord
100
AcDbTextStyleTableRecord
  2
StandardAM_ANSI$0
 70
     0
 40
0.0
 41
1.0
 50
0.0
 71
     0
 42
0.2
  3
txt.shx
  4

  0
STYLE
  5
DC
330
3
100
AcDbSymbolTableRecord
100
AcDbTextStyleTableRecord
  2
STANDARDAM_ANSI$3
 70
     0
 40
0.0
 41
1.0
 50
0.0
 71
     0
 42
0.2
  3
txt.shx
  4

  0
STYLE
  5
DD
330
3
100
AcDbSymbolTableRecord
100
AcDbTextStyleTableRecord
  2
STANDARDAM_ANSI$4
 70
     0
 40
0.0
 41
1.0
 50
0.0
 71
     0
 42
0.2
  3
txt.shx
  4

  0
STYLE
  5
DE
330
3
100
AcDbSymbolTableRecord
100
AcDbTextStyleTableRecord
  2
STANDARDAM_ANSI$7
 70
     0
 40
0.0
 41
1.0
 50
0.0
 71
     0
 42
0.2
  3
txt.shx
  4

  0
STYLE
  5
DF
330
3
100
AcDbSymbolTableRecord
100
AcDbTextStyleTableRecord
  2
STANDARDAM_ANSI$SF
 70
     0
 40
0.0
 41
1.0
 50
0.0
 71
     0
 42
0.2
  3
txt.shx
  4

  0
STYLE
  5
E0
330
3
100
AcDbSymbolTableRecord
100
AcDbTextStyleTableRecord
  2
STANDARDAM_ANSI$SH
 70
     0
 40
0.0
 41
1.0
 50
0.0
 71
     0
 42
0.2
  3
txt.shx
  4

  0
STYLE
  5
E1
330
3
100
AcDbSymbolTableRecord
100
AcDbTextStyleTableRecord
  2
STANDARDSTANDARD
 70
     0
 40
0.0
 41
1.0
 50
0.0
 71
     0
 42
0.2
  3
txt.shx
  4

  0
STYLE
  5
132
330
3
100
AcDbSymbolTableRecord
100
AcDbTextStyleTableRecord
  2
Text Style150
 70
     0
 40
0.0
 41
1.0
 50
0.0
 71
     0
 42
0.2
  3
tahoma.ttf
  4

1001
ACAD
1000
Tahoma
1071
      256
  0
ENDTAB
  0
TABLE
  2
VIEW
  5
6
330
0
100
AcDbSymbolTable
 70
     0
  0
ENDTAB
  0
TABLE
  2
UCS
  5
7
330
0
100
AcDbSymbolTable
 70
     0
  0
ENDTAB
  0
TABLE
  2
APPID
  5
9
330
0
100
AcDbSymbolTable
 70
     3
  0
APPID
  5
56
330
9
100
AcDbSymbolTableRecord
100
AcDbRegAppTableRecord
  2
ACAD
 70
     0
  0
APPID
  5
5E
330
9
100
AcDbSymbolTableRecord
100
AcDbRegAppTableRecord
  2
AcadAnnotative
 70
     0
  0
APPID
  5
78A
330
9
100
AcDbSymbolTableRecord
100
AcDbRegAppTableRecord
  2
ACAD_DSTYLE_DIMRADIAL_EXTENSION
 70
     0
  0
ENDTAB
  0
TABLE
  2
DIMSTYLE
  5
A
330
0
100
AcDbSymbolTable
 70
    29
100
AcDbDimStyleTable
 71
     3
340
F6
340
58
340
F8
  0
DIMSTYLE
105
58
330
A
100
AcDbSymbolTableRecord
100
AcDbDimStyleTableRecord
  2
STANDARD
 70
     0
 41
0.1800000071525573
 42
0.0625
140
0.1800000071525574
144
1.0
147
0.0900000035762787
176
   256
177
   256
178
   256
274
     3
340
55
371
    -1
372
    -1
  0
DIMSTYLE
105
59
330
A
100
AcDbSymbolTableRecord
100
AcDbDimStyleTableRecord
  2
Annotative
 70
     0
340
55
1001
AcadAnnotative
1000
AnnotativeData
1002
{
1070
     1
1070
     1
1002
}
  0
DIMSTYLE
105
E2
330
A
100
AcDbSymbolTableRecord
100
AcDbDimStyleTableRecord
  2
AM_ANSI
 70
     0
  4
 mm
 40
1.818181818181818
 41
0.119999997317791
 42
0.05
 43
0.5
 44
0.1
 45
0.00000001
 78
     4
 79
     2
140
0.1200000047683716
146
0.7099999189376831
147
0.0599999986588955
176
   256
177
   256
178
     2
284
     4
340
DA
371
    -1
372
    -1
  0
DIMSTYLE
105
E3
330
A
100
AcDbSymbolTableRecord
100
AcDbDimStyleTableRecord
  2
AM_ANSI$7
 70
     0
  4
 mm
 40
1.818181818181818
 41
0.119999997317791
 42
0.05
 43
0.5
 44
0.1
 45
0.00000001
 78
     4
 79
     2
140
0.1200000047683716
146
0.7099999189376831
147
0.0599999986588955
176
   256
177
   256
178
     2
284
     4
340
DA
371
    -1
372
    -1
  0
DIMSTYLE
105
E4
330
A
100
AcDbSymbolTableRecord
100
AcDbDimStyleTableRecord
  2
AM_ANSI$0
 70
     0
  4
 mm
 40
1.818181818181818
 41
0.119999997317791
 42
0.05
 43
0.5
 44
0.1
 45
0.00000001
 78
     4
 79
     2
140
0.1200000047683716
146
0.7099999189376831
147
0.0599999986588955
176
   256
177
   256
178
     2
284
     4
340
DB
371
    -1
372
    -1
  0
DIMSTYLE
105
E5
330
A
100
AcDbSymbolTableRecord
100
AcDbDimStyleTableRecord
  2
AM_ANSI$0$7
 70
     0
  4
 mm
 40
1.818181818181818
 41
0.119999997317791
 42
0.05
 43
0.5
 44
0.1
 45
0.00000001
 78
     4
 79
     2
140
0.1200000047683716
146
0.7099999189376831
147
0.0599999986588955
176
   256
177
   256
178
     2
284
     4
340
DB
371
    -1
372
    -1
  0
DIMSTYLE
105
E6
330
A
100
AcDbSymbolTableRecord
100
AcDbDimStyleTableRecord
  2
AM_ANSI$3
 70
     0
  4
 mm
 40
1.818181818181818
 41
0.119999997317791
 42
0.05
 43
0.5
 44
0.1
 45
0.00000001
 78
     4
 79
     2
140
0.1200000047683716
146
0.7099999189376831
147
0.0599999986588955
176
   256
177
   256
178
     2
284
     4
340
DC
371
    -1
372
    -1
  0
DIMSTYLE
105
E7
330
A
100
AcDbSymbolTableRecord
100
AcDbDimStyleTableRecord
  2
AM_ANSI$3$7
 70
     0
  4
 mm
 40
1.818181818181818
 41
0.119999997317791
 42
0.05
 43
0.5
 44
0.1
 45
0.00000001
 78
     4
 79
     2
140
0.1200000047683716
146
0.7099999189376831
147
0.0599999986588955
176
   256
177
   256
178
     2
284
     4
340
DC
371
    -1
372
    -1
  0
DIMSTYLE
105
E8
330
A
100
AcDbSymbolTableRecord
100
AcDbDimStyleTableRecord
  2
AM_ANSI$4
 70
     0
  4
 mm
 40
1.818181818181818
 41
0.119999997317791
 42
0.05
 43
0.5
 44
0.1
 45
0.00000001
 78
     4
 79
     2
140
0.1200000047683716
146
0.7099999189376831
147
0.0599999986588955
176
   256
177
   256
178
     2
284
     4
340
DD
371
    -1
372
    -1
  0
DIMSTYLE
105
E9
330
A
100
AcDbSymbolTableRecord
100
AcDbDimStyleTableRecord
  2
AM_ANSI$4$7
 70
     0
  4
 mm
 40
1.818181818181818
 41
0.119999997317791
 42
0.05
 43
0.5
 44
0.1
 45
0.00000001
 78
     4
 79
     2
140
0.1200000047683716
146
0.7099999189376831
147
0.0599999986588955
176
   256
177
   256
178
     2
284
     4
340
DD
371
    -1
372
    -1
  0
DIMSTYLE
105
EA
330
A
100
AcDbSymbolTableRecord
100
AcDbDimStyleTableRecord
  2
AM_ANSI$SF
 70
     0
  4
 mm
 40
1.818181818181818
 41
0.119999997317791
 42
0.05
 43
0.5
 44
0.1
 45
0.00000001
 75
     1
 76
     1
 78
     4
 79
     2
140
0.1200000047683716
146
0.7099999189376831
147
0.0599999986588955
176
   256
177
   256
178
     2
284
     4
340
DF
371
    -1
372
    -1
  0
DIMSTYLE
105
EB
330
A
100
AcDbSymbolTableRecord
100
AcDbDimStyleTableRecord
  2
AM_ANSI$SF$7
 70
     0
  4
 mm
 40
1.818181818181818
 41
0.119999997317791
 42
0.05
 43
0.5
 44
0.1
 45
0.00000001
 75
     1
 76
     1
 78
     4
 79
     2
140
0.1200000047683716
146
0.7099999189376831
147
0.0599999986588955
176
   256
177
   256
178
     2
284
     4
340
DF
371
    -1
372
    -1
  0
DIMSTYLE
105
EC
330
A
100
AcDbSymbolTableRecord
100
AcDbDimStyleTableRecord
  2
AM_ANSI$SH
 70
     0
  4
 mm
 40
1.818181818181818
 41
0.119999997317791
 42
0.05
 43
0.5
 44
0.1
 45
0.00000001
 75
     1
 76
     1
 78
     4
 79
     2
140
0.1200000047683716
146
0.7099999189376831
147
0.0599999986588955
176
   256
177
   256
178
     2
284
     4
340
E0
371
    -1
372
    -1
  0
DIMSTYLE
105
ED
330
A
100
AcDbSymbolTableRecord
100
AcDbDimStyleTableRecord
  2
AM_ANSI$SH$7
 70
     0
  4
 mm
 40
1.818181818181818
 41
0.119999997317791
 42
0.05
 43
0.5
 44
0.1
 45
0.00000001
 75
     1
 76
     1
 78
     4
 79
     2
140
0.1200000047683716
146
0.7099999189376831
147
0.0599999986588955
176
   256
177
   256
178
     2
284
     4
340
E0
371
    -1
372
    -1
  0
DIMSTYLE
105
EE
330
A
100
AcDbSymbolTableRecord
100
AcDbDimStyleTableRecord
  2
Architectural (ANSI)
 70
     0
 40
1.818181818181818
 41
0.0984251946210861
 43
0.2362204724409449
 44
0.125
 45
0.00000001
 46
0.3937007874015748
 78
     3
 79
     3
140
0.1200000047683716
147
0.031496062992126
171
     1
176
   256
177
   256
178
   256
272
     2
274
     1
276
     2
277
     4
284
    12
285
     4
286
    12
340
D6
371
    -1
372
    -1
  0
DIMSTYLE
105
EF
330
A
100
AcDbSymbolTableRecord
100
AcDbDimStyleTableRecord
  2
Architectural (ANSI)$7
 70
     0
 40
1.818181818181818
 41
0.0984251946210861
 43
0.2362204724409449
 44
0.125
 45
0.00000001
 46
0.3937007874015748
 78
     3
 79
     3
140
0.1200000047683716
147
0.031496062992126
171
     1
176
   256
177
   256
178
   256
272
     2
274
     1
276
     2
277
     4
284
    12
285
     4
286
    12
340
D6
371
    -1
372
    -1
  0
DIMSTYLE
105
F0
330
A
100
AcDbSymbolTableRecord
100
AcDbDimStyleTableRecord
  2
Default - Fraction (ANSI)
 70
     0
 40
1.818181818181818
 41
0.0984251946210861
 43
0.2362204724409449
 44
0.125
 45
0.00000001
 46
0.3937007874015748
 79
     3
140
0.1200000047683716
147
0.031496062992126
171
     1
176
   256
177
   256
178
   256
272
     2
274
     1
276
     2
277
     5
284
    12
285
     4
286
    12
340
D6
371
    -1
372
    -1
  0
DIMSTYLE
105
F1
330
A
100
AcDbSymbolTableRecord
100
AcDbDimStyleTableRecord
  2
Default - Fraction (ANSI)$7
 70
     0
 40
1.818181818181818
 41
0.0984251946210861
 43
0.2362204724409449
 44
0.125
 45
0.00000001
 46
0.3937007874015748
 79
     3
140
0.1200000047683716
147
0.031496062992126
171
     1
176
   256
177
   256
178
   256
272
     2
274
     1
276
     2
277
     5
284
    12
285
     4
286
    12
340
D6
371
    -1
372
    -1
  0
DIMSTYLE
105
F2
330
A
100
AcDbSymbolTableRecord
100
AcDbDimStyleTableRecord
  2
Default - mm (ANSI)
 70
     0
 40
1.818181818181818
 41
0.0984251946210861
 42
0.063
 43
0.2362204724409449
 44
0.125
 45
0.00000001
 46
0.3937007874015748
 73
     0
 78
     4
 79
     1
140
0.1200000047683716
143
1.0
144
25.4
147
0.031496062992126
171
     1
176
   256
177
   256
178
   256
179
     1
271
     2
272
     2
274
     1
284
     4
285
     4
340
D6
371
    -1
372
    -1
  0
DIMSTYLE
105
F3
330
A
100
AcDbSymbolTableRecord
100
AcDbDimStyleTableRecord
  2
Default - mm (ANSI)$7
 70
     0
 40
1.818181818181818
 41
0.0984251946210861
 42
0.063
 43
0.2362204724409449
 44
0.125
 45
0.00000001
 46
0.3937007874015748
 73
     0
 78
     4
 79
     1
140
0.1200000047683716
143
1.0
144
25.4
147
0.031496062992126
171
     1
176
   256
177
   256
178
   256
179
     1
271
     2
272
     2
274
     1
284
     4
285
     4
340
D6
371
    -1
372
    -1
  0
DIMSTYLE
105
F4
330
A
100
AcDbSymbolTableRecord
100
AcDbDimStyleTableRecord
  2
Default - mm [in] (ANSI)
 70
     0
  4
 in
 40
1.818181818181818
 41
0.0984251946210861
 42
0.063
 43
0.25
 44
0.125
 45
0.00000001
 46
0.3937007874015748
 73
     0
 78
     4
 79
     1
140
0.1200000047683716
143
0.03937
144
25.4
147
0.031496062992126
170
     1
171
     3
176
   256
177
   256
178
   256
179
     1
271
     2
272
     2
274
     3
284
     4
285
     4
286
     4
340
D6
371
    -1
372
    -1
  0
DIMSTYLE
105
F5
330
A
100
AcDbSymbolTableRecord
100
AcDbDimStyleTableRecord
  2
Default - mm [in] (ANSI)$7
 70
     0
  4
 in
 40
1.818181818181818
 41
0.0984251946210861
 42
0.063
 43
0.25
 44
0.125
 45
0.00000001
 46
0.3937007874015748
 73
     0
 78
     4
 79
     1
140
0.1200000047683716
143
0.03937
144
25.4
147
0.031496062992126
170
     1
171
     3
176
   256
177
   256
178
   256
179
     1
271
     2
272
     2
274
     3
284
     4
285
     4
286
     4
340
D6
371
    -1
372
    -1
  0
DIMSTYLE
105
F6
102
{ACAD_REACTORS
330
527
330
611
330
6F0
330
7AB
102
}
330
A
100
AcDbSymbolTableRecord
100
AcDbDimStyleTableRecord
  2
Default (ANSI)
 70
     0
 40
1.818181818181818
 41
0.0984251946210861
 43
0.2362204724409449
 44
0.125
 45
0.00000001
 46
0.3937007874015748
 79
     1
140
0.1200000047683716
147
0.031496062992126
171
     1
176
   256
177
   256
178
   256
271
     3
272
     2
274
     1
284
     4
285
     4
340
D6
371
    -1
372
    -1
  0
DIMSTYLE
105
F7
330
A
100
AcDbSymbolTableRecord
100
AcDbDimStyleTableRecord
  2
Default (ANSI)$7
 70
     0
 40
1.818181818181818
 41
0.0984251946210861
 43
0.2362204724409449
 44
0.125
 45
0.00000001
 46
0.3937007874015748
 79
     1
140
0.1200000047683716
147
0.031496062992126
171
     1
176
   256
177
   256
178
   256
271
     3
272
     2
274
     1
284
     4
285
     4
340
D6
371
    -1
372
    -1
  0
DIMSTYLE
105
F8
102
{ACAD_REACTORS
330
141
330
22D
330
317
330
429
102
}
330
A
100
AcDbSymbolTableRecord
100
AcDbDimStyleTableRecord
  2
Default (ANSI)-01
 70
     0
 40
1.818181818181818
 41
0.0984251946210861
 43
0.2362204724409449
 44
0.125
 45
0.00000001
 46
0.3937007874015748
 79
     1
140
0.1200000047683716
147
0.031496062992126
171
     1
176
   256
177
   256
178
   256
271
     2
272
     2
274
     1
284
     4
285
     4
340
D6
371
    -1
372
    -1
  0
DIMSTYLE
105
F9
330
A
100
AcDbSymbolTableRecord
100
AcDbDimStyleTableRecord
  2
Default (ANSI)-01$7
 70
     0
 40
1.818181818181818
 41
0.0984251946210861
 43
0.2362204724409449
 44
0.125
 45
0.00000001
 46
0.3937007874015748
 79
     1
140
0.1200000047683716
147
0.031496062992126
171
     1
176
   256
177
   256
178
   256
271
     2
272
     2
274
     1
284
     4
285
     4
340
D6
371
    -1
372
    -1
  0
DIMSTYLE
105
FA
330
A
100
AcDbSymbolTableRecord
100
AcDbDimStyleTableRecord
  2
Alternate (ANSI)
 70
     0
 40
1.818181818181818
 41
0.0979999974370003
340
55
342
FB
  0
DIMSTYLE
105
10D
330
A
100
AcDbSymbolTableRecord
100
AcDbDimStyleTableRecord
  2
Datum (ANSI)
 70
     0
 40
1.818181818181818
 41
0.0979999974370003
340
55
342
FB
  0
DIMSTYLE
105
11C
330
A
100
AcDbSymbolTableRecord
100
AcDbDimStyleTableRecord
  2
Large (ANSI)
 70
     0
 40
1.818181818181818
 41
0.1959999948740005
340
55
342
FB
  0
ENDTAB
  0
TABLE
  2
BLOCK_RECORD
  5
1
330
0
100
AcDbSymbolTable
 70
    12
  0
BLOCK_RECORD
  5
6C
330
1
100
AcDbSymbolTableRecord
100
AcDbBlockTableRecord
  2
*Model_Space
340
6F
 70
     0
280
     1
281
     0
  0
BLOCK_RECORD
  5
68
330
1
100
AcDbSymbolTableRecord
100
AcDbBlockTableRecord
  2
*Paper_Space
340
6B
 70
     0
280
     1
281
     0
  0
BLOCK_RECORD
  5
70
330
1
100
AcDbSymbolTableRecord
100
AcDbBlockTableRecord
  2
*Paper_Space0
340
73
 70
     0
280
     1
281
     0
  0
BLOCK_RECORD
  5
FB
330
1
100
AcDbSymbolTableRecord
100
AcDbBlockTableRecord
  2
_Closed
340
0
 70
     0
280
     1
281
     0
  0
BLOCK_RECORD
  5
102
330
1
100
AcDbSymbolTableRecord
100
AcDbBlockTableRecord
  2
DatumFilled45
340
0
 70
     0
280
     1
281
     0
  0
BLOCK_RECORD
  5
10E
330
1
100
AcDbSymbolTableRecord
100
AcDbBlockTableRecord
  2
Filled-1
340
0
 70
     0
280
     1
281
     0
  0
BLOCK_RECORD
  5
144
330
1
100
AcDbSymbolTableRecord
100
AcDbBlockTableRecord
  2
*D4
340
0
 70
     0
280
     1
281
     0
  0
BLOCK_RECORD
  5
22E
330
1
100
AcDbSymbolTableRecord
100
AcDbBlockTableRecord
  2
*D5
340
0
 70
     0
280
     1
281
     0
  0
BLOCK_RECORD
  5
318
330
1
100
AcDbSymbolTableRecord
100
AcDbBlockTableRecord
  2
*D6
340
0
 70
     0
280
     1
281
     0
  0
BLOCK_RECORD
  5
42A
330
1
100
AcDbSymbolTableRecord
100
AcDbBlockTableRecord
  2
*D7
340
0
 70
     0
280
     1
281
     0
  0
BLOCK_RECORD
  5
528
330
1
100
AcDbSymbolTableRecord
100
AcDbBlockTableRecord
  2
*D8
340
0
 70
     0
280
     1
281
     0
  0
BLOCK_RECORD
  5
612
330
1
100
AcDbSymbolTableRecord
100
AcDbBlockTableRecord
  2
*D9
340
0
 70
     0
280
     1
281
     0
  0
BLOCK_RECORD
  5
6F1
330
1
100
AcDbSymbolTableRecord
100
AcDbBlockTableRecord
  2
*D10
340
0
 70
     0
280
     1
281
     0
  0
BLOCK_RECORD
  5
7AC
330
1
100
AcDbSymbolTableRecord
100
AcDbBlockTableRecord
  2
*D11
340
0
 70
     0
280
     1
281
     0
  0
ENDTAB
  0
ENDSEC
  0
SECTION
  2
BLOCKS
  0
BLOCK
  5
6D
330
6C
100
AcDbEntity
  8
0
100
AcDbBlockBegin
  2
*Model_Space
 70
     0
 10
0.0
 20
0.0
 30
0.0
  3
*Model_Space
  1

  0
ENDBLK
  5
6E
330
6C
100
AcDbEntity
  8
0
100
AcDbBlockEnd
  0
BLOCK
  5
69
330
68
100
AcDbEntity
 67
     1
  8
0
100
AcDbBlockBegin
  2
*Paper_Space
 70
     0
 10
0.0
 20
0.0
 30
0.0
  3
*Paper_Space
  1

  0
ENDBLK
  5
6A
330
68
100
AcDbEntity
 67
     1
  8
0
100
AcDbBlockEnd
  0
BLOCK
  5
71
330
70
100
AcDbEntity
 67
     1
  8
0
100
AcDbBlockBegin
  2
*Paper_Space0
 70
     0
 10
0.0
 20
0.0
 30
0.0
  3
*Paper_Space0
  1

  0
ENDBLK
  5
72
330
70
100
AcDbEntity
 67
     1
  8
0
100
AcDbBlockEnd
  0
BLOCK
  5
100
330
FB
100
AcDbEntity
  8
0
100
AcDbBlockBegin
  2
_Closed
 70
     0
 10
0.0
 20
0.0
 30
0.0
  3
_Closed
  1

  0
LINE
  5
FC
330
FB
100
AcDbEntity
  8
0
  6
ByBlock
 62
     0
370
    -2
100
AcDbLine
 10
-1.0
 20
0.1666666666666666
 30
0.0
 11
0.0
 21
0.0
 31
0.0
  0
LINE
  5
FD
330
FB
100
AcDbEntity
  8
0
  6
ByBlock
 62
     0
370
    -2
100
AcDbLine
 10
0.0
 20
0.0
 30
0.0
 11
-1.0
 21
-0.1666666666666666
 31
0.0
  0
LINE
  5
FE
330
FB
100
AcDbEntity
  8
0
  6
ByBlock
 62
     0
370
    -2
100
AcDbLine
 10
-1.0
 20
0.1666666666666666
 30
0.0
 11
-1.0
 21
-0.1666666666666666
 31
0.0
  0
LINE
  5
FF
330
FB
100
AcDbEntity
  8
0
  6
ByBlock
 62
     0
370
    -2
100
AcDbLine
 10
0.0
 20
0.0
 30
0.0
 11
-1.0
 21
0.0
 31
0.0
  0
ENDBLK
  5
101
330
FB
100
AcDbEntity
  8
0
100
AcDbBlockEnd
  0
BLOCK
  5
103
330
102
100
AcDbEntity
  8
0
100
AcDbBlockBegin
  2
DatumFilled45
 70
     0
 10
0.0
 20
0.0
 30
0.0
  3
DatumFilled45
  1

  0
POLYLINE
  5
105
330
102
100
AcDbEntity
  8
0
 62
     0
100
AcDb2dPolyline
 66
     1
 10
0.0
 20
0.0
 30
0.0
 70
   128
  0
VERTEX
  5
106
330
105
100
AcDbEntity
  8
0
 62
     0
100
AcDbVertex
100
AcDb2dVertex
 10
0.0
 20
0.9999999999999998
 30
0.0
  0
VERTEX
  5
107
330
105
100
AcDbEntity
  8
0
 62
     0
100
AcDbVertex
100
AcDb2dVertex
 10
0.0
 20
-0.9999999999999998
 30
0.0
  0
VERTEX
  5
109
330
105
100
AcDbEntity
  8
0
 62
     0
100
AcDbVertex
100
AcDb2dVertex
 10
-0.9999999999999998
 20
0.0
 30
0.0
  0
VERTEX
  5
10A
330
105
100
AcDbEntity
  8
0
 62
     0
100
AcDbVertex
100
AcDb2dVertex
 10
0.0
 20
0.9999999999999998
 30
0.0
  0
SEQEND
  5
108
330
105
100
AcDbEntity
  8
0
 62
     0
  0
SOLID
  5
10C
330
102
100
AcDbEntity
  8
0
 62
     0
100
AcDbTrace
 10
0.0
 20
0.9999999999999998
 30
0.0
 11
0.0
 21
-0.9999999999999998
 31
0.0
 12
-0.9999999999999998
 22
0.0
 32
0.0
 13
0.0
 23
0.9999999999999998
 33
0.0
  0
ENDBLK
  5
104
330
102
100
AcDbEntity
  8
0
100
AcDbBlockEnd
  0
BLOCK
  5
10F
330
10E
100
AcDbEntity
  8
0
100
AcDbBlockBegin
  2
Filled-1
 70
     0
 10
0.0
 20
0.0
 30
0.0
  3
Filled-1
  1

  0
LINE
  5
111
330
10E
100
AcDbEntity
  8
0
 62
     0
100
AcDbLine
 10
-0.9999999999999998
 20
0.0
 30
0.0
 11
0.0
 21
0.0
 31
0.0
  0
POLYLINE
  5
112
330
10E
100
AcDbEntity
  8
0
 62
     0
100
AcDb2dPolyline
 66
     1
 10
0.0
 20
0.0
 30
0.0
 70
   128
  0
VERTEX
  5
113
330
112
100
AcDbEntity
  8
0
 62
     0
100
AcDbVertex
100
AcDb2dVertex
 10
-0.9999999999999998
 20
-0.0994897959183674
 30
0.0
  0
VERTEX
  5
114
330
112
100
AcDbEntity
  8
0
 62
     0
100
AcDbVertex
100
AcDb2dVertex
 10
0.0
 20
0.0
 30
0.0
  0
VERTEX
  5
116
330
112
100
AcDbEntity
  8
0
 62
     0
100
AcDbVertex
100
AcDb2dVertex
 10
-0.9999999999999998
 20
0.0994897959183674
 30
0.0
  0
VERTEX
  5
117
330
112
100
AcDbEntity
  8
0
 62
     0
100
AcDbVertex
100
AcDb2dVertex
 10
-0.9999999999999998
 20
-0.0994897959183674
 30
0.0
  0
SEQEND
  5
115
330
112
100
AcDbEntity
  8
0
 62
     0
  0
SOLID
  5
118
330
10E
100
AcDbEntity
  8
0
 62
     0
100
AcDbTrace
 10
-0.9999999999999998
 20
-0.0994897959183674
 30
0.0
 11
0.0
 21
0.0
 31
0.0
 12
-0.9999999999999998
 22
0.0994897959183674
 32
0.0
 13
-0.9999999999999998
 23
-0.0994897959183674
 33
0.0
  0
LINE
  5
119
330
10E
100
AcDbEntity
  8
0
 62
     0
100
AcDbLine
 10
-0.9999999999999998
 20
-0.0994897959183674
 30
0.0
 11
0.0
 21
0.0
 31
0.0
  0
LINE
  5
11A
330
10E
100
AcDbEntity
  8
0
 62
     0
100
AcDbLine
 10
0.0
 20
0.0
 30
0.0
 11
-0.9999999999999998
 21
0.0994897959183674
 31
0.0
  0
LINE
  5
11B
330
10E
100
AcDbEntity
  8
0
 62
     0
100
AcDbLine
 10
-0.9999999999999998
 20
0.0994897959183674
 30
0.0
 11
-0.9999999999999998
 21
-0.0994897959183674
 31
0.0
  0
ENDBLK
  5
110
330
10E
100
AcDbEntity
  8
0
100
AcDbBlockEnd
  0
BLOCK
  5
145
330
144
100
AcDbEntity
  8
0
100
AcDbBlockBegin
  2
*D4
 70
     1
 10
0.0
 20
0.0
 30
0.0
  3
*D4
  1

  0
LINE
  5
223
330
144
100
AcDbEntity
  8
Dimension (ANSI)
440
 16777216
100
AcDbLine
 10
13.9410974125455
 20
6.250640609238111
 30
0.0
 11
13.9410974125455
 21
4.493462912648846
 31
0.0
  0
LINE
  5
224
330
144
100
AcDbEntity
  8
Dimension (ANSI)
440
 16777216
100
AcDbLine
 10
5.0610974125455
 20
6.250640609238111
 30
0.0
 11
5.0610974125455
 21
4.493462912648846
 31
0.0
  0
LINE
  5
225
330
144
100
AcDbEntity
  8
Dimension (ANSI)
440
 16777216
100
AcDbLine
 10
13.76214251323443
 20
4.720735639921573
 30
0.0
 11
9.684518632381951
 21
4.720735639921573
 31
0.0
  0
LINE
  5
226
330
144
100
AcDbEntity
  8
Dimension (ANSI)
440
 16777216
100
AcDbLine
 10
5.240052311856565
 20
4.720735639921573
 30
0.0
 11
9.009367169083894
 21
4.720735639921573
 31
0.0
  0
SOLID
  5
227
330
144
100
AcDbEntity
  8
Dimension (ANSI)
440
 16777216
100
AcDbTrace
 10
13.76214251323443
 20
4.750561456473418
 30
0.0
 11
13.76214251323443
 21
4.690909823369729
 31
0.0
 12
13.9410974125455
 22
4.720735639921573
 32
0.0
 13
13.9410974125455
 23
4.720735639921573
 33
0.0
  0
SOLID
  5
228
330
144
100
AcDbEntity
  8
Dimension (ANSI)
440
 16777216
100
AcDbTrace
 10
5.240052311856565
 20
4.750561456473418
 30
0.0
 11
5.240052311856565
 21
4.690909823369729
 31
0.0
 12
5.0610974125455
 22
4.720735639921573
 32
0.0
 13
5.0610974125455
 23
4.720735639921573
 33
0.0
  0
MTEXT
  5
229
330
144
100
AcDbEntity
  8
Dimension (ANSI)
440
 16777216
100
AcDbMText
 10
9.066632738160487
 20
4.834808541940727
 30
0.0
 40
0.2181818268515847
 41
0.0
 46
0.0
 71
     1
 72
     1
  1
\A1;8.88
  7
Note Text (ANSI)
 73
     1
 44
1.0
  0
POINT
  5
22A
330
144
100
AcDbEntity
  8
Defpoints
 62
     0
440
 16777216
100
AcDbPoint
 10
13.9410974125455
 20
6.364276972874474
 30
0.0
  0
POINT
  5
22B
330
144
100
AcDbEntity
  8
Defpoints
 62
     0
440
 16777216
100
AcDbPoint
 10
5.0610974125455
 20
6.364276972874474
 30
0.0
  0
POINT
  5
22C
330
144
100
AcDbEntity
  8
Defpoints
 62
     0
440
 16777216
100
AcDbPoint
 10
5.0610974125455
 20
4.720735639921573
 30
0.0
  0
ENDBLK
  5
146
330
144
100
AcDbEntity
  8
0
100
AcDbBlockEnd
  0
BLOCK
  5
22F
330
22E
100
AcDbEntity
  8
0
100
AcDbBlockBegin
  2
*D5
 70
     1
 10
0.0
 20
0.0
 30
0.0
  3
*D5
  1

  0
LINE
  5
30D
330
22E
100
AcDbEntity
  8
Dimension (ANSI)
440
 16777216
100
AcDbLine
 10
4.947461048909137
 20
6.364276972874474
 30
0.0
 11
3.31129611652517
 21
6.364276972874474
 31
0.0
  0
LINE
  5
30E
330
22E
100
AcDbEntity
  8
Dimension (ANSI)
440
 16777216
100
AcDbLine
 10
4.947461048909134
 20
17.24427697287447
 30
0.0
 11
3.311296116525173
 21
17.24427697287447
 31
0.0
  0
LINE
  5
30F
330
22E
100
AcDbEntity
  8
Dimension (ANSI)
440
 16777216
100
AcDbLine
 10
3.538568843797897
 20
6.54323187218554
 30
0.0
 11
3.538568843797899
 21
11.63293850177872
 31
0.0
  0
LINE
  5
310
330
22E
100
AcDbEntity
  8
Dimension (ANSI)
440
 16777216
100
AcDbLine
 10
3.5385688437979
 20
17.06532207356341
 30
0.0
 11
3.538568843797899
 21
11.97561544397022
 31
0.0
  0
SOLID
  5
311
330
22E
100
AcDbEntity
  8
Dimension (ANSI)
440
 16777216
100
AcDbTrace
 10
3.508743027246053
 20
6.54323187218554
 30
0.0
 11
3.568394660349742
 21
6.54323187218554
 31
0.0
 12
3.538568843797897
 22
6.364276972874474
 32
0.0
 13
3.538568843797897
 23
6.364276972874474
 33
0.0
  0
SOLID
  5
312
330
22E
100
AcDbEntity
  8
Dimension (ANSI)
440
 16777216
100
AcDbTrace
 10
3.508743027246056
 20
17.06532207356341
 30
0.0
 11
3.568394660349744
 21
17.06532207356341
 31
0.0
 12
3.5385688437979
 22
17.24427697287447
 32
0.0
 13
3.5385688437979
 23
17.24427697287447
 33
0.0
  0
MTEXT
  5
313
330
22E
100
AcDbEntity
  8
Dimension (ANSI)
440
 16777216
100
AcDbMText
 10
3.187485127371574
 20
11.91834987489362
 30
0.0
 40
0.2181818268515847
 41
0.0
 46
0.0
 71
     1
 72
     1
  1
\A1;10.88
  7
Note Text (ANSI)
 73
     1
 44
1.0
  0
POINT
  5
314
330
22E
100
AcDbEntity
  8
Defpoints
 62
     0
440
 16777216
100
AcDbPoint
 10
5.061097412545501
 20
6.364276972874474
 30
0.0
  0
POINT
  5
315
330
22E
100
AcDbEntity
  8
Defpoints
 62
     0
440
 16777216
100
AcDbPoint
 10
5.061097412545497
 20
17.24427697287447
 30
0.0
  0
POINT
  5
316
330
22E
100
AcDbEntity
  8
Defpoints
 62
     0
440
 16777216
100
AcDbPoint
 10
3.5385688437979
 20
17.24427697287447
 30
0.0
  0
ENDBLK
  5
230
330
22E
100
AcDbEntity
  8
0
100
AcDbBlockEnd
  0
BLOCK
  5
319
330
318
100
AcDbEntity
  8
0
100
AcDbBlockBegin
  2
*D6
 70
     1
 10
0.0
 20
0.0
 30
0.0
  3
*D6
  1

  0
LINE
  5
41D
330
318
100
AcDbEntity
  8
Dimension (ANSI)
440
 16777216
100
AcDbLine
 10
4.947461048909136
 20
6.364276972874474
 30
0.0
 11
4.495799214333877
 21
6.364276972874474
 31
0.0
  0
LINE
  5
41E
330
318
100
AcDbEntity
  8
Dimension (ANSI)
440
 16777216
100
AcDbLine
 10
5.104461048909137
 20
6.677276972874472
 30
0.0
 11
4.495799214333877
 21
6.677276972874472
 31
0.0
  0
LINE
  5
41F
330
318
100
AcDbEntity
  8
Dimension (ANSI)
440
 16777216
100
AcDbLine
 10
4.723071941606605
 20
6.185322073563408
 30
0.0
 11
4.723071941606605
 21
6.006367174252343
 31
0.0
  0
LINE
  5
420
330
318
100
AcDbEntity
  8
Dimension (ANSI)
440
 16777216
100
AcDbLine
 10
4.723071941606605
 20
6.856231872185538
 30
0.0
 11
4.723071941606605
 21
7.035186771496603
 31
0.0
  0
LINE
  5
421
330
318
100
AcDbEntity
  8
Dimension (ANSI)
440
 16777216
100
AcDbLine
 10
4.544117042295539
 20
7.189079596469253
 30
0.0
 11
4.723071941606605
 21
7.189079596469253
 31
0.0
  0
LINE
  5
422
330
318
100
AcDbEntity
  8
Dimension (ANSI)
440
 16777216
100
AcDbLine
 10
4.723071941606605
 20
7.189079596469253
 30
0.0
 11
4.723071941606605
 21
7.035186771496603
 31
0.0
  0
MTEXT
  5
423
330
318
100
AcDbEntity
  8
Dimension (ANSI)
440
 16777216
100
AcDbMText
 10
3.910406005597428
 20
7.335669747853019
 30
0.0
 40
0.2181818268515847
 41
0.0
 46
0.0
 71
     1
 72
     1
  1
\A1;0.31{\PTYP.}
  7
Note Text (ANSI)
 73
     1
 44
1.0
  0
SOLID
  5
424
330
318
100
AcDbEntity
  8
Dimension (ANSI)
440
 16777216
100
AcDbTrace
 10
4.69324612505476
 20
6.185322073563408
 30
0.0
 11
4.752897758158449
 21
6.185322073563408
 31
0.0
 12
4.723071941606605
 22
6.364276972874474
 32
0.0
 13
4.723071941606605
 23
6.364276972874474
 33
0.0
  0
SOLID
  5
425
330
318
100
AcDbEntity
  8
Dimension (ANSI)
440
 16777216
100
AcDbTrace
 10
4.69324612505476
 20
6.856231872185538
 30
0.0
 11
4.752897758158449
 21
6.856231872185538
 31
0.0
 12
4.723071941606605
 22
6.677276972874472
 32
0.0
 13
4.723071941606605
 23
6.677276972874472
 33
0.0
  0
POINT
  5
426
330
318
100
AcDbEntity
  8
Defpoints
 62
     0
440
 16777216
100
AcDbPoint
 10
5.0610974125455
 20
6.364276972874474
 30
0.0
  0
POINT
  5
427
330
318
100
AcDbEntity
  8
Defpoints
 62
     0
440
 16777216
100
AcDbPoint
 10
5.218097412545501
 20
6.677276972874472
 30
0.0
  0
POINT
  5
428
330
318
100
AcDbEntity
  8
Defpoints
 62
     0
440
 16777216
100
AcDbPoint
 10
4.723071941606605
 20
6.677276972874472
 30
0.0
  0
ENDBLK
  5
31A
330
318
100
AcDbEntity
  8
0
100
AcDbBlockEnd
  0
BLOCK
  5
42B
330
42A
100
AcDbEntity
  8
0
100
AcDbBlockBegin
  2
*D7
 70
     1
 10
0.0
 20
0.0
 30
0.0
  3
*D7
  1

  0
LINE
  5
51D
330
42A
100
AcDbEntity
  8
Dimension (ANSI)
440
 16777216
100
AcDbLine
 10
5.061097412545501
 20
6.250640609238111
 30
0.0
 11
5.061097412545501
 21
5.501109232478389
 31
0.0
  0
LINE
  5
51E
330
42A
100
AcDbEntity
  8
Dimension (ANSI)
440
 16777216
100
AcDbLine
 10
5.374097412545501
 20
6.43864060923811
 30
0.0
 11
5.374097412545501
 21
5.501109232478389
 31
0.0
  0
LINE
  5
51F
330
42A
100
AcDbEntity
  8
Dimension (ANSI)
440
 16777216
100
AcDbLine
 10
5.553052311856567
 20
5.728381959751117
 30
0.0
 11
5.732007211167633
 21
5.728381959751117
 31
0.0
  0
LINE
  5
520
330
42A
100
AcDbEntity
  8
Dimension (ANSI)
440
 16777216
100
AcDbLine
 10
4.882142513234435
 20
5.728381959751117
 30
0.0
 11
4.647660492697776
 21
5.728381959751117
 31
0.0
  0
SOLID
  5
521
330
42A
100
AcDbEntity
  8
Dimension (ANSI)
440
 16777216
100
AcDbTrace
 10
5.553052311856567
 20
5.758207776302961
 30
0.0
 11
5.553052311856567
 21
5.698556143199272
 31
0.0
 12
5.374097412545501
 22
5.728381959751117
 32
0.0
 13
5.374097412545501
 23
5.728381959751117
 33
0.0
  0
SOLID
  5
522
330
42A
100
AcDbEntity
  8
Dimension (ANSI)
440
 16777216
100
AcDbTrace
 10
4.882142513234435
 20
5.758207776302961
 30
0.0
 11
4.882142513234435
 21
5.698556143199272
 31
0.0
 12
5.061097412545501
 22
5.728381959751117
 32
0.0
 13
5.061097412545501
 23
5.728381959751117
 33
0.0
  0
MTEXT
  5
523
330
42A
100
AcDbEntity
  8
Dimension (ANSI)
440
 16777216
100
AcDbMText
 10
4.013949455999666
 20
5.874972111134883
 30
0.0
 40
0.2181818268515847
 41
0.0
 46
0.0
 71
     1
 72
     1
  1
\A1;0.31{\PTYP.}
  7
Note Text (ANSI)
 73
     1
 44
1.0
  0
POINT
  5
524
330
42A
100
AcDbEntity
  8
Defpoints
 62
     0
440
 16777216
100
AcDbPoint
 10
5.061097412545501
 20
6.364276972874474
 30
0.0
  0
POINT
  5
525
330
42A
100
AcDbEntity
  8
Defpoints
 62
     0
440
 16777216
100
AcDbPoint
 10
5.374097412545501
 20
6.552276972874474
 30
0.0
  0
POINT
  5
526
330
42A
100
AcDbEntity
  8
Defpoints
 62
     0
440
 16777216
100
AcDbPoint
 10
5.374097412545501
 20
5.728381959751117
 30
0.0
  0
ENDBLK
  5
42C
330
42A
100
AcDbEntity
  8
0
100
AcDbBlockEnd
  0
BLOCK
  5
529
330
528
100
AcDbEntity
  8
0
100
AcDbBlockBegin
  2
*D8
 70
     1
 10
0.0
 20
0.0
 30
0.0
  3
*D8
  1

  0
LINE
  5
607
330
528
100
AcDbEntity
  8
Dimension (ANSI)
440
 16777216
100
AcDbLine
 10
5.374097412545501
 20
6.43864060923811
 30
0.0
 11
5.374097412545501
 21
5.485109232478387
 31
0.0
  0
LINE
  5
608
330
528
100
AcDbEntity
  8
Dimension (ANSI)
440
 16777216
100
AcDbLine
 10
6.374097412545501
 20
6.43864060923811
 30
0.0
 11
6.374097412545501
 21
5.485109232478387
 31
0.0
  0
LINE
  5
609
330
528
100
AcDbEntity
  8
Dimension (ANSI)
440
 16777216
100
AcDbLine
 10
5.553052311856567
 20
5.712381959751114
 30
0.0
 11
6.195142513234435
 21
5.712381959751114
 31
0.0
  0
LINE
  5
60A
330
528
100
AcDbEntity
  8
Dimension (ANSI)
440
 16777216
100
AcDbLine
 10
6.374097412545501
 20
5.712381959751114
 30
0.0
 11
6.69753823373458
 21
5.712381959751114
 31
0.0
  0
SOLID
  5
60B
330
528
100
AcDbEntity
  8
Dimension (ANSI)
440
 16777216
100
AcDbTrace
 10
5.553052311856567
 20
5.742207776302959
 30
0.0
 11
5.553052311856567
 21
5.68255614319927
 31
0.0
 12
5.374097412545501
 22
5.712381959751114
 32
0.0
 13
5.374097412545501
 23
5.712381959751114
 33
0.0
  0
SOLID
  5
60C
330
528
100
AcDbEntity
  8
Dimension (ANSI)
440
 16777216
100
AcDbTrace
 10
6.195142513234435
 20
5.742207776302959
 30
0.0
 11
6.195142513234435
 21
5.68255614319927
 31
0.0
 12
6.374097412545501
 22
5.712381959751114
 32
0.0
 13
6.374097412545501
 23
5.712381959751114
 33
0.0
  0
MTEXT
  5
60D
330
528
100
AcDbEntity
  8
Dimension (ANSI)
440
 16777216
100
AcDbMText
 10
6.754803802811172
 20
5.825942009930747
 30
0.0
 40
0.2181818268515847
 41
0.0
 46
0.0
 71
     1
 72
     1
  1
\A1;1.000
  7
Note Text (ANSI)
 73
     1
 44
1.0
  0
POINT
  5
60E
330
528
100
AcDbEntity
  8
Defpoints
 62
     0
440
 16777216
100
AcDbPoint
 10
5.374097412545501
 20
6.552276972874474
 30
0.0
  0
POINT
  5
60F
330
528
100
AcDbEntity
  8
Defpoints
 62
     0
440
 16777216
100
AcDbPoint
 10
6.374097412545501
 20
6.552276972874473
 30
0.0
  0
POINT
  5
610
330
528
100
AcDbEntity
  8
Defpoints
 62
     0
440
 16777216
100
AcDbPoint
 10
6.374097412545501
 20
5.712381959751114
 30
0.0
  0
ENDBLK
  5
52A
330
528
100
AcDbEntity
  8
0
100
AcDbBlockEnd
  0
BLOCK
  5
613
330
612
100
AcDbEntity
  8
0
100
AcDbBlockBegin
  2
*D9
 70
     1
 10
0.0
 20
0.0
 30
0.0
  3
*D9
  1

  0
LINE
  5
6E8
330
612
100
AcDbEntity
  8
Dimension (ANSI)
440
 16777216
100
AcDbLine
 10
18.09400606185474
 20
15.65561555555163
 30
0.0
 11
17.91505116254368
 21
15.65561555555163
 31
0.0
  0
LINE
  5
6E9
330
612
100
AcDbEntity
  8
Dimension (ANSI)
440
 16777216
100
AcDbLine
 10
18.52591586047688
 20
15.65561555555163
 30
0.0
 11
19.24274005386483
 21
15.65561555555163
 31
0.0
  0
SOLID
  5
6EA
330
612
100
AcDbEntity
  8
Dimension (ANSI)
440
 16777216
100
AcDbTrace
 10
18.09400606185474
 20
15.68544137210348
 30
0.0
 11
18.09400606185474
 21
15.62578973899979
 31
0.0
 12
18.27296096116581
 22
15.65561555555163
 32
0.0
 13
18.27296096116581
 23
15.65561555555163
 33
0.0
  0
SOLID
  5
6EB
330
612
100
AcDbEntity
  8
Dimension (ANSI)
440
 16777216
100
AcDbTrace
 10
18.52591586047688
 20
15.68544137210348
 30
0.0
 11
18.52591586047688
 21
15.62578973899979
 31
0.0
 12
18.34696096116581
 22
15.65561555555163
 32
0.0
 13
18.34696096116581
 23
15.65561555555163
 33
0.0
  0
MTEXT
  5
6EC
330
612
100
AcDbEntity
  8
Dimension (ANSI)
440
 16777216
100
AcDbMText
 10
19.30000562294142
 20
15.76880928298875
 30
0.0
 40
0.2181818268515847
 41
0.0
 46
0.0
 71
     1
 72
     1
  1
\A1; 14 GA.
  7
Note Text (ANSI)
 73
     1
 44
1.0
  0
POINT
  5
6ED
330
612
100
AcDbEntity
  8
Defpoints
 62
     0
440
 16777216
100
AcDbPoint
 10
18.76296161332138
 20
6.364276972874471
 30
0.0
  0
POINT
  5
6EE
330
612
100
AcDbEntity
  8
Defpoints
 62
     0
440
 16777216
100
AcDbPoint
 10
18.68896161332138
 20
6.364276972874471
 30
0.0
  0
POINT
  5
6EF
330
612
100
AcDbEntity
  8
Defpoints
 62
     0
440
 16777216
100
AcDbPoint
 10
18.27296096116581
 20
15.65561555555163
 30
0.0
  0
ENDBLK
  5
614
330
612
100
AcDbEntity
  8
0
100
AcDbBlockEnd
  0
BLOCK
  5
6F2
330
6F1
100
AcDbEntity
  8
0
100
AcDbBlockBegin
  2
*D10
 70
     1
 10
0.0
 20
0.0
 30
0.0
  3
*D10
  1

  0
LINE
  5
7A3
330
6F1
100
AcDbEntity
  8
Dimension (ANSI)
440
 16777216
100
AcDbLine
 10
7.886964638274545
 20
5.933300080864295
 30
0.0
 11
7.662703189164618
 21
5.933300080864294
 31
0.0
  0
LINE
  5
7A4
330
6F1
100
AcDbEntity
  8
Dimension (ANSI)
440
 16777216
100
AcDbLine
 10
7.662703189164618
 20
5.933300080864294
 30
0.0
 11
6.637330076953642
 21
6.525299523218969
 31
0.0
  0
MTEXT
  5
7A5
330
6F1
100
AcDbEntity
  8
Dimension (ANSI)
440
 16777216
100
AcDbMText
 10
7.944230207351138
 20
6.094486497324877
 30
0.0
 40
0.2181818268515847
 41
0.0
 46
0.0
 71
     1
 72
     1
  1
\A1;∅0.250{\PGROUND\P HOLE}
  7
Note Text (ANSI)
 73
     1
 44
1.0
  0
SOLID
  5
7A6
330
6F1
100
AcDbEntity
  8
Dimension (ANSI)
440
 16777216
100
AcDbTrace
 10
6.652242985229562
 20
6.551129438041481
 30
0.0
 11
6.622417168677723
 21
6.499469608396456
 31
0.0
 12
6.482350588018564
 22
6.614776972874486
 32
0.0
 13
6.482350588018564
 23
6.614776972874486
 33
0.0
  0
LINE
  5
7A7
330
6F1
100
AcDbEntity
  8
Dimension (ANSI)
440
 16777216
100
AcDbLine
 10
6.210461048909138
 20
6.677276972874475
 30
0.0
 11
6.537733776181867
 21
6.677276972874476
 31
0.0
  0
LINE
  5
7A8
330
6F1
100
AcDbEntity
  8
Dimension (ANSI)
440
 16777216
100
AcDbLine
 10
6.374097412545503
 20
6.513640609238111
 30
0.0
 11
6.374097412545502
 21
6.840913336510839
 31
0.0
  0
POINT
  5
7A9
330
6F1
100
AcDbEntity
  8
Defpoints
 62
     0
440
 16777216
100
AcDbPoint
 10
6.482350588018564
 20
6.614776972874486
 30
0.0
  0
POINT
  5
7AA
330
6F1
100
AcDbEntity
  8
Defpoints
 62
     0
440
 16777216
100
AcDbPoint
 10
6.265844237072442
 20
6.739776972874465
 30
0.0
  0
ENDBLK
  5
6F3
330
6F1
100
AcDbEntity
  8
0
100
AcDbBlockEnd
  0
BLOCK
  5
7AD
330
7AC
100
AcDbEntity
  8
0
100
AcDbBlockBegin
  2
*D11
 70
     1
 10
0.0
 20
0.0
 30
0.0
  3
*D11
  1

  0
LINE
  5
849
330
7AC
100
AcDbEntity
  8
Dimension (ANSI)
440
 16777216
100
AcDbLine
 10
14.34713226882928
 20
7.523086565660473
 30
0.0
 11
14.15006996204106
 21
7.523086565660472
 31
0.0
  0
LINE
  5
84A
330
7AC
100
AcDbEntity
  8
Dimension (ANSI)
440
 16777216
100
AcDbLine
 10
14.15006996204106
 20
7.523086565660472
 30
0.0
 11
13.81169079417733
 21
6.940153066685546
 31
0.0
  0
MTEXT
  5
84B
330
7AC
100
AcDbEntity
  8
Dimension (ANSI)
440
 16777216
100
AcDbMText
 10
14.40439783790588
 20
7.699669163202733
 30
0.0
 40
0.2181818268515847
 41
0.0
 46
0.0
 71
     1
 72
     1
  1
\A1; \fromans|b0|i0;\H0.2182;0.250 X 0.312\POBROUND\PTYP. (4 PL.)
  7
Note Text (ANSI)
 73
     1
 44
1.0
  0
SOLID
  5
84C
330
7AC
100
AcDbEntity
  8
Dimension (ANSI)
440
 16777216
100
AcDbTrace
 10
13.78589586812861
 20
6.955126413777144
 30
0.0
 11
13.83748572022605
 21
6.925179719593948
 31
0.0
 12
13.72185071162774
 22
6.785383510393241
 32
0.0
 13
13.72185071162774
 23
6.785383510393241
 33
0.0
  0
POINT
  5
84D
330
7AC
100
AcDbEntity
  8
Defpoints
 62
     0
440
 16777216
100
AcDbPoint
 10
13.72185071162774
 20
6.785383510393241
 30
0.0
  0
POINT
  5
84E
330
7AC
100
AcDbEntity
  8
Defpoints
 62
     0
440
 16777216
100
AcDbPoint
 10
13.65909741254551
 20
6.67727697287448
 30
0.0
  0
ENDBLK
  5
7AE
330
7AC
100
AcDbEntity
  8
0
100
AcDbBlockEnd
  0
ENDSEC
  0
SECTION
  2
ENTITIES
  0
CIRCLE
  5
11D
330
6C
100
AcDbEntity
  8
Visible (ANSI)
100
AcDbCircle
 10
6.374097412545501
 20
6.677276972874473
 30
0.0
 40
0.125
  0
LINE
  5
11E
330
6C
100
AcDbEntity
  8
Visible (ANSI)
100
AcDbLine
 10
5.343097412545501
 20
6.802276972874473
 30
0.0
 11
5.405097412545501
 21
6.802276972874473
 31
0.0
  0
ARC
  5
11F
330
6C
100
AcDbEntity
  8
Visible (ANSI)
100
AcDbCircle
 10
5.343097412545501
 20
6.677276972874471
 30
0.0
 40
0.125
100
AcDbArc
 50
90.0
 51
270.0
  0
LINE
  5
120
330
6C
100
AcDbEntity
  8
Visible (ANSI)
100
AcDbLine
 10
5.405097412545501
 20
6.552276972874473
 30
0.0
 11
5.343097412545501
 21
6.552276972874473
 31
0.0
  0
ARC
  5
121
330
6C
100
AcDbEntity
  8
Visible (ANSI)
100
AcDbCircle
 10
5.405097412545501
 20
6.677276972874471
 30
0.0
 40
0.125
100
AcDbArc
 50
270.0
 51
90.0
  0
LINE
  5
122
330
6C
100
AcDbEntity
  8
Visible (ANSI)
100
AcDbLine
 10
13.5970974125455
 20
17.05627697287447
 30
0.0
 11
13.65909741254549
 21
17.05627697287447
 31
0.0
  0
ARC
  5
123
330
6C
100
AcDbEntity
  8
Visible (ANSI)
100
AcDbCircle
 10
13.5970974125455
 20
16.93127697287447
 30
0.0
 40
0.1249999999999996
100
AcDbArc
 50
89.99999999999884
 51
269.9999999999988
  0
LINE
  5
124
330
6C
100
AcDbEntity
  8
Visible (ANSI)
100
AcDbLine
 10
13.65909741254549
 20
16.80627697287447
 30
0.0
 11
13.5970974125455
 21
16.80627697287447
 31
0.0
  0
ARC
  5
125
330
6C
100
AcDbEntity
  8
Visible (ANSI)
100
AcDbCircle
 10
13.65909741254549
 20
16.93127697287447
 30
0.0
 40
0.1249999999999996
100
AcDbArc
 50
269.9999999999988
 51
89.9999999999988
  0
LINE
  5
126
330
6C
100
AcDbEntity
  8
Visible (ANSI)
100
AcDbLine
 10
13.5970974125455
 20
6.802276972874474
 30
0.0
 11
13.6590974125455
 21
6.802276972874474
 31
0.0
  0
ARC
  5
127
330
6C
100
AcDbEntity
  8
Visible (ANSI)
100
AcDbCircle
 10
13.5970974125455
 20
6.677276972874473
 30
0.0
 40
0.125
100
AcDbArc
 50
89.99999999999884
 51
269.9999999999988
  0
LINE
  5
128
330
6C
100
AcDbEntity
  8
Visible (ANSI)
100
AcDbLine
 10
13.6590974125455
 20
6.552276972874474
 30
0.0
 11
13.5970974125455
 21
6.552276972874474
 31
0.0
  0
ARC
  5
129
330
6C
100
AcDbEntity
  8
Visible (ANSI)
100
AcDbCircle
 10
13.6590974125455
 20
6.677276972874473
 30
0.0
 40
0.125
100
AcDbArc
 50
269.9999999999988
 51
89.9999999999988
  0
LINE
  5
12A
330
6C
100
AcDbEntity
  8
Visible (ANSI)
100
AcDbLine
 10
5.343097412545497
 20
17.05627697287447
 30
0.0
 11
5.405097412545497
 21
17.05627697287447
 31
0.0
  0
ARC
  5
12B
330
6C
100
AcDbEntity
  8
Visible (ANSI)
100
AcDbCircle
 10
5.343097412545496
 20
16.93127697287447
 30
0.0
 40
0.1249999999999996
100
AcDbArc
 50
90.00000000000058
 51
270.0000000000006
  0
LINE
  5
12C
330
6C
100
AcDbEntity
  8
Visible (ANSI)
100
AcDbLine
 10
5.405097412545497
 20
16.80627697287447
 30
0.0
 11
5.343097412545497
 21
16.80627697287447
 31
0.0
  0
ARC
  5
12D
330
6C
100
AcDbEntity
  8
Visible (ANSI)
100
AcDbCircle
 10
5.405097412545498
 20
16.93127697287447
 30
0.0
 40
0.1249999999999996
100
AcDbArc
 50
270.0000000000006
 51
90.00000000000062
  0
LINE
  5
12E
330
6C
100
AcDbEntity
  8
Visible (ANSI)
100
AcDbLine
 10
5.061097412545501
 20
6.364276972874474
 30
0.0
 11
5.061097412545498
 21
17.24427697287447
 31
0.0
  0
LINE
  5
12F
330
6C
100
AcDbEntity
  8
Visible (ANSI)
100
AcDbLine
 10
5.061097412545498
 20
17.24427697287447
 30
0.0
 11
13.9410974125455
 21
17.24427697287447
 31
0.0
  0
LINE
  5
130
330
6C
100
AcDbEntity
  8
Visible (ANSI)
100
AcDbLine
 10
13.9410974125455
 20
17.24427697287447
 30
0.0
 11
13.9410974125455
 21
6.364276972874474
 31
0.0
  0
LINE
  5
131
330
6C
100
AcDbEntity
  8
Visible (ANSI)
100
AcDbLine
 10
13.9410974125455
 20
6.364276972874474
 30
0.0
 11
5.0610974125455
 21
6.364276972874474
 31
0.0
  0
MTEXT
  5
133
330
6C
100
AcDbEntity
  8
Symbol (ANSI)
100
AcDbMText
 10
8.622893139650553
 20
3.927990450345871
 30
0.0
 40
0.2181818208783203
 41
0.0
 46
0.0
 71
     7
 72
     1
  1
FRONT VIEW
  7
Text Style150
 73
     1
 44
1.0
  0
LINE
  5
135
330
6C
100
AcDbEntity
  8
Symbol (ANSI)
370
    30
100
AcDbLine
 10
8.601074901708031
 20
3.883496564209707
 30
0.0
 11
10.35519309131835
 21
3.883496564209707
 31
0.0
  0
MTEXT
  5
136
330
6C
100
AcDbEntity
  8
Symbol (ANSI)
100
AcDbMText
 10
9.407852579076791
 20
3.43583916438619
 30
0.0
 40
0.327272720650937
 41
0.0
 46
0.0
 71
     7
 72
     1
  1
 
  7
Label Text (ANSI)
 73
     1
 44
1.0
  0
LINE
  5
137
330
6C
100
AcDbEntity
  8
Hidden (ANSI)
 48
0.0774211511015892
100
AcDbLine
 10
18.6889616133213
 20
17.05627697287447
 30
0.0
 11
18.76296161332129
 21
17.05627697287447
 31
0.0
  0
LINE
  5
138
330
6C
100
AcDbEntity
  8
Hidden (ANSI)
 48
0.0774211511015892
100
AcDbLine
 10
18.6889616133213
 20
16.80627697287447
 30
0.0
 11
18.76296161332129
 21
16.80627697287447
 31
0.0
  0
LINE
  5
139
330
6C
100
AcDbEntity
  8
Hidden (ANSI)
 48
0.0774211511015892
100
AcDbLine
 10
18.6889616133213
 20
6.802276972874471
 30
0.0
 11
18.76296161332129
 21
6.802276972874471
 31
0.0
  0
LINE
  5
13A
330
6C
100
AcDbEntity
  8
Hidden (ANSI)
 48
0.0774211511015892
100
AcDbLine
 10
18.6889616133213
 20
6.552276972874471
 30
0.0
 11
18.76296161332129
 21
6.552276972874471
 31
0.0
  0
LINE
  5
13B
330
6C
100
AcDbEntity
  8
Visible (ANSI)
100
AcDbLine
 10
18.76296161332138
 20
17.24427697287447
 30
0.0
 11
18.68896161332138
 21
17.24427697287447
 31
0.0
  0
LINE
  5
13C
330
6C
100
AcDbEntity
  8
Visible (ANSI)
100
AcDbLine
 10
18.68896161332138
 20
17.24427697287447
 30
0.0
 11
18.68896161332138
 21
6.364276972874471
 31
0.0
  0
LINE
  5
13D
330
6C
100
AcDbEntity
  8
Visible (ANSI)
100
AcDbLine
 10
18.76296161332138
 20
6.364276972874471
 30
0.0
 11
18.68896161332138
 21
6.364276972874471
 31
0.0
  0
LINE
  5
13E
330
6C
100
AcDbEntity
  8
Visible (ANSI)
100
AcDbLine
 10
18.76296161332138
 20
6.364276972874471
 30
0.0
 11
18.76296161332138
 21
17.24427697287447
 31
0.0
  0
MTEXT
  5
13F
330
6C
100
AcDbEntity
  8
Symbol (ANSI)
100
AcDbMText
 10
17.99148563578699
 20
4.069244077049276
 30
0.0
 40
0.2181818208783203
 41
0.0
 46
0.0
 71
     7
 72
     1
  1
RIGHT VIEW
  7
Text Style150
 73
     1
 44
1.0
  0
LINE
  5
140
330
6C
100
AcDbEntity
  8
Symbol (ANSI)
370
    30
100
AcDbLine
 10
17.96966739784447
 20
4.024396573664795
 30
0.0
 11
19.66950533983818
 21
4.024396573664795
 31
0.0
  0
DIMENSION
  5
141
330
6C
100
AcDbEntity
  8
Dimension (ANSI)
100
AcDbDimension
280
     0
  2
*D4
 10
5.0610974125455
 20
4.720735639921573
 30
0.0
 11
9.346942900732923
 21
4.720735639921573
 31
0.0
 70
   160
  1
<>
 42
8.88
 73
     0
 74
     0
 75
     0
  3
Default (ANSI)-01
100
AcDbAlignedDimension
 13
13.9410974125455
 23
6.364276972874474
 33
0.0
 14
5.0610974125455
 24
6.364276972874474
 34
0.0
 50
180.0
100
AcDbRotatedDimension
1001
ACAD
1000
DSTYLE
1002
{
1070
   289
1070
     1
1070
    73
1070
     0
1070
    74
1070
     0
1070
   271
1070
     2
1070
   272
1070
     2
1070
    48
1040
0.0
1070
    47
1040
0.0
1002
}
  0
DIMENSION
  5
22D
330
6C
100
AcDbEntity
  8
Dimension (ANSI)
100
AcDbDimension
280
     0
  2
*D5
 10
3.5385688437979
 20
17.24427697287447
 30
0.0
 11
3.538568843797897
 21
11.80427697287447
 31
0.0
 70
   160
  1
<>
 42
10.88
 73
     0
 74
     0
 75
     0
  3
Default (ANSI)-01
100
AcDbAlignedDimension
 13
5.061097412545501
 23
6.364276972874474
 33
0.0
 14
5.061097412545497
 24
17.24427697287447
 34
0.0
 50
90.0
100
AcDbRotatedDimension
1001
ACAD
1000
DSTYLE
1002
{
1070
   289
1070
     1
1070
   271
1070
     2
1070
   272
1070
     2
1070
    48
1040
0.0
1070
    47
1040
0.0
1002
}
  0
DIMENSION
  5
317
330
6C
100
AcDbEntity
  8
Dimension (ANSI)
100
AcDbDimension
280
     0
  2
*D6
 10
4.723071941606605
 20
6.677276972874472
 30
0.0
 11
4.711407860425159
 21
7.189079596469253
 31
0.0
 70
   160
  1
<>{\PTYP.}
 42
0.3129999999999979
 73
     0
 74
     0
 75
     0
  3
Default (ANSI)-01
100
AcDbAlignedDimension
 13
5.0610974125455
 23
6.364276972874474
 33
0.0
 14
5.218097412545501
 24
6.677276972874472
 34
0.0
 50
90.0
100
AcDbRotatedDimension
1001
ACAD
1000
DSTYLE
1002
{
1070
   289
1070
     1
1070
   279
1070
     1
1070
   145
1040
-0.25
1070
   271
1070
     2
1070
   272
1070
     2
1070
    48
1040
0.0
1070
    47
1040
0.0
1002
}
  0
DIMENSION
  5
429
330
6C
100
AcDbEntity
  8
Dimension (ANSI)
100
AcDbDimension
280
     0
  2
*D7
 10
5.374097412545501
 20
5.728381959751117
 30
0.0
 11
4.302172189810424
 21
5.728381959751117
 31
0.0
 70
   160
  1
<>{\PTYP.}
 42
0.3130000000000006
 73
     0
 74
     0
 75
     0
  3
Default (ANSI)-01
100
AcDbAlignedDimension
 13
5.061097412545501
 23
6.364276972874474
 33
0.0
 14
5.374097412545501
 24
6.552276972874474
 34
0.0
 50
180.0
100
AcDbRotatedDimension
1001
ACAD
1000
DSTYLE
1002
{
1070
   289
1070
     1
1070
    73
1070
     0
1070
    74
1070
     0
1070
   145
1040
-0.25
1070
   271
1070
     2
1070
   272
1070
     2
1070
    48
1040
0.0
1070
    47
1040
0.0
1002
}
  0
DIMENSION
  5
527
330
6C
100
AcDbEntity
  8
Dimension (ANSI)
100
AcDbDimension
280
     0
  2
*D8
 10
6.374097412545501
 20
5.712381959751114
 30
0.0
 11
7.105228138300969
 21
5.712381959751114
 31
0.0
 70
   160
  1
<>
 73
     0
 74
     0
 75
     0
  3
Default (ANSI)
100
AcDbAlignedDimension
 13
5.374097412545501
 23
6.552276972874474
 33
0.0
 14
6.374097412545501
 24
6.552276972874473
 34
0.0
 50
180.0
100
AcDbRotatedDimension
1001
ACAD
1000
DSTYLE
1002
{
1070
   289
1070
     2
1070
    73
1070
     0
1070
    74
1070
     0
1070
   271
1070
     3
1070
   272
1070
     2
1070
    48
1040
0.0
1070
    47
1040
0.0
1002
}
  0
DIMENSION
  5
611
330
6C
100
AcDbEntity
  8
Dimension (ANSI)
100
AcDbDimension
280
     0
  2
*D9
 10
18.27296096116581
 20
15.65561555555163
 30
0.0
 11
19.77915577015097
 21
15.65561555555163
 31
0.0
 70
   160
  1
 14 GA.
 42
0.0740000000000016
 73
     0
 74
     0
 75
     0
  3
Default (ANSI)
100
AcDbAlignedDimension
 13
18.76296161332138
 23
6.364276972874471
 33
0.0
 14
18.68896161332138
 24
6.364276972874471
 34
0.0
100
AcDbRotatedDimension
1001
ACAD
1000
DSTYLE
1002
{
1070
   289
1070
     1
1070
    73
1070
     0
1070
    74
1070
     0
1070
   271
1070
     3
1070
    76
1070
     1
1070
    75
1070
     1
1070
   272
1070
     2
1070
    48
1040
0.0
1070
    47
1040
0.0
1002
}
  0
DIMENSION
  5
6F0
330
6C
100
AcDbEntity
  8
Dimension (ANSI)
100
AcDbDimension
280
     0
  2
*D10
 10
6.265844237072442
 20
6.739776972874465
 30
0.0
 11
8.534449410091216
 21
5.933300080864295
 31
0.0
 70
   163
  1
<>{\PGROUND\P HOLE}
 42
0.25
 73
     0
 74
     0
 75
     0
  3
Default (ANSI)
100
AcDbDiametricDimension
 15
6.482350588018564
 25
6.614776972874486
 35
0.0
 40
0.0
1001
ACAD_DSTYLE_DIMRADIAL_EXTENSION
1070
   387
1070
     1
1070
   388
1040
0.0
1070
   390
1040
0.0
1001
ACAD
1000
DSTYLE
1002
{
1070
   145
1040
-0.3333333333333334
1070
   144
1040
0.9999999999999964
1070
   271
1070
     3
1070
   272
1070
     2
1070
    48
1040
0.0
1070
    47
1040
0.0
1002
}
  0
DIMENSION
  5
7AB
330
6C
100
AcDbEntity
  8
Dimension (ANSI)
100
AcDbDimension
280
     0
  2
*D11
 10
13.65909741254551
 20
6.67727697287448
 30
0.0
 11
15.70851766880014
 21
7.52308656566047
 31
0.0
 70
   164
  1
 \fromans|b0|i0;\H0.2182;0.250 X 0.312\POBROUND\PTYP. (4 PL.)
 42
0.125
 73
     0
 74
     0
 75
     0
  3
Default (ANSI)
100
AcDbRadialDimension
 15
13.72185071162774
 25
6.785383510393241
 35
0.0
 40
0.0
1001
ACAD_DSTYLE_DIMRADIAL_EXTENSION
1070
   387
1070
     1
1070
   388
1040
0.0
1070
   390
1040
0.0
1001
ACAD
1000
DSTYLE
1002
{
1070
   145
1040
-0.3333333333333334
1070
   271
1070
     3
1070
   141
1040
0.0
1070
   272
1070
     2
1070
    48
1040
0.0
1070
    47
1040
0.0
1002
}
  0
MTEXT
  5
84F
330
6C
100
AcDbEntity
  8
Symbol (ANSI)
100
AcDbMText
 10
22.15146268779687
 20
5.353021746847913
 30
0.0
 40
0.2181818208783203
 41
9.154387473111734
 46
0.0
 71
     1
 72
     1
  1
{\fRomanS|b0|i0;\H0.2182;PART#: P1210SS\P(DATA SUBJECT TO CHANGE WITHOUT \PNOTICE)\PTHIS DRAWING AND COMPONENTS OF ARE\PPROPERTY OF HUBBELL INC. WIEGMANN\P}
  7
Note Text (ANSI)
 73
     2
 44
0.8751232028007507
  0
ELLIPSE
  5
850
330
6C
100
AcDbEntity
  8
Visible (ANSI)
100
AcDbEllipse
 10
24.94950461197041
 20
11.60584855691254
 30
0.0
 11
0.0425311543964025
 21
-0.0738565428532794
 31
0.0
210
0.0
220
0.0
230
1.0
 40
0.5780931159158104
 41
3.572615253427269
 42
5.852162707341125
  0
ELLIPSE
  5
851
330
6C
100
AcDbEntity
  8
Visible (ANSI)
100
AcDbEllipse
 10
24.91382786073782
 20
11.5853036822621
 30
0.0
 11
-0.0425311543963981
 21
0.0738565428532819
 31
0.0
210
0.0
220
0.0
230
1.0
 40
0.5780931159158104
 41
0.0
 42
6.283185307179586
  0
LINE
  5
852
330
6C
100
AcDbEntity
  8
Visible (ANSI)
100
AcDbLine
 10
24.41676393478093
 20
11.94122107193834
 30
0.0
 11
24.44665526689473
 21
11.92400779858258
 31
0.0
  0
ELLIPSE
  5
853
330
6C
100
AcDbEntity
  8
Visible (ANSI)
100
AcDbEllipse
 10
24.45244068601351
 20
11.89208863481242
 30
0.0
 11
0.0425311543964026
 21
-0.0738565428532794
 31
0.0
210
0.0
220
0.0
230
1.0
 40
0.5780931159158105
 41
3.572615253427267
 42
5.49972085220468
  0
ELLIPSE
  5
854
330
6C
100
AcDbEntity
  8
Visible (ANSI)
100
AcDbEllipse
 10
24.41676393478093
 20
11.87154376016199
 30
0.0
 11
-0.0425311543963937
 21
0.0738565428532845
 31
0.0
210
0.0
220
0.0
230
1.0
 40
0.5780931159158104
 41
5.499720852205195
 42
8.641313505794988
  0
LINE
  5
855
330
6C
100
AcDbEntity
  8
Visible Narrow (ANSI)
100
AcDbLine
 10
24.41676393478093
 20
11.80186644838564
 30
0.0
 11
24.45244068601351
 21
11.82241132303607
 31
0.0
  0
LINE
  5
856
330
6C
100
AcDbEntity
  8
Visible (ANSI)
100
AcDbLine
 10
24.45244068601351
 20
11.82241132303607
 30
0.0
 11
24.48233201812732
 21
11.80519804968031
 31
0.0
  0
LINE
  5
857
330
6C
100
AcDbEntity
  8
Visible (ANSI)
100
AcDbLine
 10
24.44665526689473
 20
11.78465317502987
 30
0.0
 11
24.41676393478093
 21
11.80186644838564
 31
0.0
  0
LINE
  5
858
330
6C
100
AcDbEntity
  8
Visible Narrow (ANSI)
100
AcDbLine
 10
24.44665526689473
 20
11.78465317502987
 30
0.0
 11
24.48233201812732
 21
11.80519804968031
 31
0.0
  0
ELLIPSE
  5
859
330
6C
100
AcDbEntity
  8
Visible (ANSI)
100
AcDbEllipse
 10
24.48233201812732
 20
11.87487536145666
 30
0.0
 11
0.0425311543963977
 21
-0.0738565428532812
 31
0.0
210
0.0
220
0.0
230
0.9999999999999998
 40
0.5780931159158103
 41
5.499720852205022
 42
5.852162707341575
  0
ELLIPSE
  5
85A
330
6C
100
AcDbEntity
  8
Visible (ANSI)
100
AcDbEllipse
 10
24.44665526689473
 20
11.85433048680622
 30
0.0
 11
0.0425311543963937
 21
-0.0738565428532845
 31
0.0
210
0.0
220
0.0
230
1.0
 40
0.5780931159158105
 41
5.499720852205195
 42
8.641313505794988
  0
LINE
  5
85B
330
6C
100
AcDbEntity
  8
Visible (ANSI)
100
AcDbLine
 10
28.39616805199545
 20
15.36540388772969
 30
0.0
 11
28.42605938410925
 21
15.34819061437393
 31
0.0
  0
ELLIPSE
  5
85C
330
6C
100
AcDbEntity
  8
Visible (ANSI)
100
AcDbEllipse
 10
28.43184480322804
 20
15.31627145060377
 30
0.0
 11
0.0425311543964026
 21
-0.0738565428532795
 31
0.0
210
0.0
220
0.0
230
1.0
 40
0.5780931159158104
 41
3.572615253427269
 42
5.49972085220468
  0
ELLIPSE
  5
85D
330
6C
100
AcDbEntity
  8
Visible (ANSI)
100
AcDbEllipse
 10
28.39616805199545
 20
15.29572657595334
 30
0.0
 11
-0.0425311543963936
 21
0.0738565428532843
 31
0.0
210
0.0
220
0.0
230
0.9999999999999998
 40
0.5780931159158104
 41
5.499720852205195
 42
8.641313505794988
  0
LINE
  5
85E
330
6C
100
AcDbEntity
  8
Visible Narrow (ANSI)
100
AcDbLine
 10
28.39616805199545
 20
15.22604926417699
 30
0.0
 11
28.43184480322804
 21
15.24659413882742
 31
0.0
  0
LINE
  5
85F
330
6C
100
AcDbEntity
  8
Visible (ANSI)
100
AcDbLine
 10
28.43184480322804
 20
15.24659413882742
 30
0.0
 11
28.46173613534184
 21
15.22938086547166
 31
0.0
  0
LINE
  5
860
330
6C
100
AcDbEntity
  8
Visible (ANSI)
100
AcDbLine
 10
28.42605938410925
 20
15.20883599082122
 30
0.0
 11
28.39616805199545
 21
15.22604926417699
 31
0.0
  0
LINE
  5
861
330
6C
100
AcDbEntity
  8
Visible Narrow (ANSI)
100
AcDbLine
 10
28.42605938410925
 20
15.20883599082122
 30
0.0
 11
28.46173613534184
 21
15.22938086547166
 31
0.0
  0
ELLIPSE
  5
862
330
6C
100
AcDbEntity
  8
Visible (ANSI)
100
AcDbEllipse
 10
28.46173613534184
 20
15.29905817724799
 30
0.0
 11
0.0425311543963894
 21
-0.0738565428532668
 31
0.0
210
0.0
220
0.0
230
1.0
 40
0.5780931159158105
 41
5.499720852204937
 42
5.85216270734165
  0
ELLIPSE
  5
863
330
6C
100
AcDbEntity
  8
Visible (ANSI)
100
AcDbEllipse
 10
28.42605938410925
 20
15.27851330259758
 30
0.0
 11
0.0425311543963936
 21
-0.0738565428532843
 31
0.0
210
0.0
220
0.0
230
0.9999999999999998
 40
0.5780931159158104
 41
5.499720852205195
 42
8.641313505794988
  0
LINE
  5
864
330
6C
100
AcDbEntity
  8
Visible (ANSI)
100
AcDbLine
 10
28.39616805199545
 20
9.649634648091918
 30
0.0
 11
28.42605938410925
 21
9.632421374736154
 31
0.0
  0
ELLIPSE
  5
865
330
6C
100
AcDbEntity
  8
Visible (ANSI)
100
AcDbEllipse
 10
28.43184480322804
 20
9.600502210966
 30
0.0
 11
0.0425311543964026
 21
-0.0738565428532794
 31
0.0
210
0.0
220
0.0
230
1.0
 40
0.5780931159158104
 41
3.572615253427285
 42
5.49972085220468
  0
ELLIPSE
  5
866
330
6C
100
AcDbEntity
  8
Visible (ANSI)
100
AcDbEllipse
 10
28.39616805199545
 20
9.579957336315565
 30
0.0
 11
-0.0425311543963937
 21
0.0738565428532845
 31
0.0
210
0.0
220
0.0
230
1.0
 40
0.5780931159158104
 41
5.499720852205195
 42
8.641313505794988
  0
LINE
  5
867
330
6C
100
AcDbEntity
  8
Visible Narrow (ANSI)
100
AcDbLine
 10
28.39616805199545
 20
9.510280024539213
 30
0.0
 11
28.43184480322804
 21
9.530824899189648
 31
0.0
  0
LINE
  5
868
330
6C
100
AcDbEntity
  8
Visible (ANSI)
100
AcDbLine
 10
28.43184480322804
 20
9.530824899189648
 30
0.0
 11
28.46173613534184
 21
9.513611625833883
 31
0.0
  0
LINE
  5
869
330
6C
100
AcDbEntity
  8
Visible (ANSI)
100
AcDbLine
 10
28.42605938410925
 20
9.49306675118345
 30
0.0
 11
28.39616805199545
 21
9.510280024539213
 31
0.0
  0
LINE
  5
86A
330
6C
100
AcDbEntity
  8
Visible Narrow (ANSI)
100
AcDbLine
 10
28.42605938410925
 20
9.49306675118345
 30
0.0
 11
28.46173613534184
 21
9.513611625833883
 31
0.0
  0
ELLIPSE
  5
86B
330
6C
100
AcDbEntity
  8
Visible (ANSI)
100
AcDbEllipse
 10
28.46173613534184
 20
9.583288937610239
 30
0.0
 11
0.0425311543963996
 21
-0.0738565428532844
 31
0.0
210
0.0
220
0.0
230
0.9999999999999998
 40
0.5780931159158104
 41
5.499720852205022
 42
5.852162707341656
  0
ELLIPSE
  5
86C
330
6C
100
AcDbEntity
  8
Visible (ANSI)
100
AcDbEllipse
 10
28.42605938410925
 20
9.562744062959801
 30
0.0
 11
0.0425311543963937
 21
-0.0738565428532845
 31
0.0
210
0.0
220
0.0
230
1.0
 40
0.5780931159158103
 41
5.499720852205195
 42
8.641313505794988
  0
LINE
  5
86D
330
6C
100
AcDbEntity
  8
Visible (ANSI)
100
AcDbLine
 10
24.41676393478092
 20
17.65699031157612
 30
0.0
 11
24.44665526689473
 21
17.63977703822035
 31
0.0
  0
ELLIPSE
  5
86E
330
6C
100
AcDbEntity
  8
Visible (ANSI)
100
AcDbEllipse
 10
24.45244068601351
 20
17.6078578744502
 30
0.0
 11
0.0425311543964024
 21
-0.0738565428532791
 31
0.0
210
0.0
220
0.0
230
1.0
 40
0.5780931159158104
 41
3.572615253427372
 42
5.49972085220468
  0
ELLIPSE
  5
86F
330
6C
100
AcDbEntity
  8
Visible (ANSI)
100
AcDbEllipse
 10
24.41676393478092
 20
17.58731299979977
 30
0.0
 11
-0.0425311543963936
 21
0.0738565428532843
 31
0.0
210
0.0
220
0.0
230
0.9999999999999998
 40
0.5780931159158105
 41
5.499720852205196
 42
8.641313505794988
  0
LINE
  5
870
330
6C
100
AcDbEntity
  8
Visible Narrow (ANSI)
100
AcDbLine
 10
24.41676393478092
 20
17.51763568802341
 30
0.0
 11
24.45244068601351
 21
17.53818056267385
 31
0.0
  0
LINE
  5
871
330
6C
100
AcDbEntity
  8
Visible (ANSI)
100
AcDbLine
 10
24.45244068601351
 20
17.53818056267385
 30
0.0
 11
24.48233201812732
 21
17.52096728931809
 31
0.0
  0
LINE
  5
872
330
6C
100
AcDbEntity
  8
Visible (ANSI)
100
AcDbLine
 10
24.44665526689473
 20
17.50042241466765
 30
0.0
 11
24.41676393478092
 21
17.51763568802341
 31
0.0
  0
LINE
  5
873
330
6C
100
AcDbEntity
  8
Visible Narrow (ANSI)
100
AcDbLine
 10
24.44665526689473
 20
17.50042241466765
 30
0.0
 11
24.48233201812732
 21
17.52096728931809
 31
0.0
  0
ELLIPSE
  5
874
330
6C
100
AcDbEntity
  8
Visible (ANSI)
100
AcDbEllipse
 10
24.48233201812732
 20
17.5906446010944
 30
0.0
 11
0.0425311543963742
 21
-0.0738565428532404
 31
0.0
210
0.0
220
0.0
230
0.9999999999999998
 40
0.5780931159158104
 41
5.499720852204937
 42
5.852162707341682
  0
ELLIPSE
  5
875
330
6C
100
AcDbEntity
  8
Visible (ANSI)
100
AcDbEllipse
 10
24.44665526689473
 20
17.570099726444
 30
0.0
 11
0.0425311543963936
 21
-0.0738565428532843
 31
0.0
210
0.0
220
0.0
230
0.9999999999999998
 40
0.5780931159158105
 41
5.499720852205196
 42
8.641313505794988
  0
LINE
  5
876
330
6C
100
AcDbEntity
  8
Visible (ANSI)
100
AcDbLine
 10
24.28080658548913
 20
11.77536440189861
 30
0.0
 11
24.28080658548913
 21
17.84007761891236
 31
0.0
  0
LINE
  5
877
330
6C
100
AcDbEntity
  8
Visible (ANSI)
100
AcDbLine
 10
24.31648333672172
 20
17.8606224935628
 30
0.0
 11
24.28080658548913
 21
17.84007761891236
 31
0.0
  0
LINE
  5
878
330
6C
100
AcDbEntity
  8
Visible (ANSI)
100
AcDbLine
 10
24.28080658548913
 20
17.84007761891236
 30
0.0
 11
28.56201673340104
 21
15.37469266086096
 31
0.0
  0
LINE
  5
879
330
6C
100
AcDbEntity
  8
Visible (ANSI)
100
AcDbLine
 10
28.59769348463363
 20
15.39523753551139
 30
0.0
 11
28.56201673340104
 21
15.37469266086096
 31
0.0
  0
LINE
  5
87A
330
6C
100
AcDbEntity
  8
Visible (ANSI)
100
AcDbLine
 10
28.59769348463363
 20
15.39523753551139
 30
0.0
 11
24.31648333672172
 21
17.8606224935628
 31
0.0
  0
LINE
  5
87B
330
6C
100
AcDbEntity
  8
Visible (ANSI)
100
AcDbLine
 10
28.56201673340104
 20
15.37469266086096
 30
0.0
 11
28.56201673340104
 21
9.309979443847209
 31
0.0
  0
LINE
  5
87C
330
6C
100
AcDbEntity
  8
Visible (ANSI)
100
AcDbLine
 10
28.59769348463363
 20
9.330524318497642
 30
0.0
 11
28.56201673340104
 21
9.309979443847209
 31
0.0
  0
LINE
  5
87D
330
6C
100
AcDbEntity
  8
Visible (ANSI)
100
AcDbLine
 10
28.59769348463363
 20
9.330524318497642
 30
0.0
 11
28.59769348463363
 21
15.39523753551139
 31
0.0
  0
LINE
  5
87E
330
6C
100
AcDbEntity
  8
Visible (ANSI)
100
AcDbLine
 10
28.56201673340104
 20
9.309979443847209
 30
0.0
 11
24.28080658548913
 21
11.77536440189861
 31
0.0
  0
ENDSEC
  0
SECTION
  2
OBJECTS
  0
DICTIONARY
  5
C
330
0
100
AcDbDictionary
281
     1
  3
ACAD_CIP_PREVIOUS_PRODUCT_INFO
350
87F
  3
ACAD_COLOR
350
63
  3
ACAD_GROUP
350
D
  3
ACAD_LAYOUT
350
62
  3
ACAD_MATERIAL
350
10
  3
ACAD_MLEADERSTYLE
350
66
  3
ACAD_MLINESTYLE
350
5F
  3
ACAD_PLOTSETTINGS
350
61
  3
ACAD_PLOTSTYLENAME
350
E
  3
ACAD_SCALELIST
350
42
  3
ACAD_TABLESTYLE
350
64
  3
ACAD_VISUALSTYLE
350
29
  3
ACDB_RECOMPOSE_DATA
350
884
  3
AcDbVariableDictionary
350
76
  0
XRECORD
  5
87F
102
{ACAD_REACTORS
330
C
102
}
330
C
100
AcDbXrecord
280
     1
300
INVNTOR
300
2012
300
85795PDSP_2012_0F
  0
DICTIONARY
  5
63
102
{ACAD_REACTORS
330
C
102
}
330
C
100
AcDbDictionary
281
     1
  0
DICTIONARY
  5
D
102
{ACAD_REACTORS
330
C
102
}
330
C
100
AcDbDictionary
281
     1
  0
DICTIONARY
  5
62
102
{ACAD_REACTORS
330
C
102
}
330
C
100
AcDbDictionary
281
     1
  3
Layout1
350
6B
  3
Layout2
350
73
  3
Model
350
6F
  0
DICTIONARY
  5
10
102
{ACAD_REACTORS
330
C
102
}
330
C
100
AcDbDictionary
281
     1
  3
ByBlock
350
19
  3
ByLayer
350
11
  3
Global
350
21
  0
DICTIONARY
  5
66
102
{ACAD_REACTORS
330
C
102
}
330
C
100
AcDbDictionary
281
     1
  3
Standard
350
67
  0
DICTIONARY
  5
5F
102
{ACAD_REACTORS
330
C
102
}
330
C
100
AcDbDictionary
281
     1
  3
Standard
350
60
  0
DICTIONARY
  5
61
102
{ACAD_REACTORS
330
C
102
}
330
C
100
AcDbDictionary
281
     1
  0
ACDBDICTIONARYWDFLT
  5
E
102
{ACAD_REACTORS
330
C
102
}
330
C
100
AcDbDictionary
281
     1
  3
Normal
350
F
100
AcDbDictionaryWithDefault
340
F
  0
DICTIONARY
  5
42
102
{ACAD_REACTORS
330
C
102
}
330
C
100
AcDbDictionary
281
     1
  3
A0
350
43
  3
A1
350
44
  3
A2
350
45
  3
A3
350
46
  3
A4
350
47
  3
A5
350
48
  3
A6
350
49
  3
A7
350
4A
  3
A8
350
4B
  3
A9
350
4C
  3
B0
350
4D
  3
B1
350
4E
  3
B2
350
4F
  3
B3
350
50
  3
B4
350
51
  3
B5
350
52
  3
B6
350
53
  0
DICTIONARY
  5
64
102
{ACAD_REACTORS
330
C
102
}
330
C
100
AcDbDictionary
281
     1
  3
Standard
350
65
  0
DICTIONARY
  5
29
102
{ACAD_REACTORS
330
C
102
}
330
C
100
AcDbDictionary
281
     1
  3
2dWireframe
350
2F
  3
Basic
350
2E
  3
Brighten
350
35
  3
ColorChange
350
39
  3
Conceptual
350
32
  3
Dim
350
34
  3
EdgeColorOff
350
41
  3
Facepattern
350
38
  3
Flat
350
2A
  3
FlatWithEdges
350
2B
  3
Gouraud
350
2C
  3
GouraudWithEdges
350
2D
  3
Hidden
350
31
  3
JitterOff
350
3F
  3
Linepattern
350
37
  3
OverhangOff
350
40
  3
Realistic
350
33
  3
Shaded
350
3E
  3
Shaded with edges
350
3D
  3
Shades of Gray
350
3A
  3
Sketchy
350
3B
  3
Thicken
350
36
  3
Wireframe
350
30
  3
X-Ray
350
3C
  0
XRECORD
  5
884
102
{ACAD_REACTORS
330
C
102
}
330
C
100
AcDbXrecord
280
     1
 90
        1
330
65
330
527
  0
DICTIONARY
  5
76
102
{ACAD_REACTORS
330
C
102
}
330
C
100
AcDbDictionary
281
     1
  3
CANNOSCALE
350
79
  3
CMLEADERSTYLE
350
78
  3
CTABLESTYLE
350
77
  0
LAYOUT
  5
6B
102
{ACAD_REACTORS
330
62
102
}
330
62
100
AcDbPlotSettings
  1

  2

  4

  6

 40
0.0
 41
0.0
 42
0.0
 43
0.0
 44
0.0
 45
0.0
 46
0.0
 47
0.0
 48
0.0
 49
0.0
140
0.0
141
0.0
142
1.0
143
1.0
 70
   688
 72
     0
 73
     0
 74
     5
  7

 75
    16
147
1.0
 76
     0
 77
     2
 78
   300
148
0.0
149
0.0
100
AcDbLayout
  1
Layout1
 70
     1
 71
     1
 10
0.0
 20
0.0
 11
12.0
 21
9.0
 12
0.0
 22
0.0
 32
0.0
 14
0.0
 24
0.0
 34
0.0
 15
0.0
 25
0.0
 35
0.0
146
0.0
 13
0.0
 23
0.0
 33
0.0
 16
1.0
 26
0.0
 36
0.0
 17
0.0
 27
1.0
 37
0.0
 76
     0
330
68
  0
LAYOUT
  5
73
102
{ACAD_REACTORS
330
62
102
}
330
62
100
AcDbPlotSettings
  1

  2

  4

  6

 40
0.0
 41
0.0
 42
0.0
 43
0.0
 44
0.0
 45
0.0
 46
0.0
 47
0.0
 48
0.0
 49
0.0
140
0.0
141
0.0
142
1.0
143
1.0
 70
   688
 72
     0
 73
     0
 74
     5
  7

 75
    16
147
1.0
 76
     0
 77
     2
 78
   300
148
0.0
149
0.0
100
AcDbLayout
  1
Layout2
 70
     1
 71
     2
 10
0.0
 20
0.0
 11
12.0
 21
9.0
 12
0.0
 22
0.0
 32
0.0
 14
0.0
 24
0.0
 34
0.0
 15
0.0
 25
0.0
 35
0.0
146
0.0
 13
0.0
 23
0.0
 33
0.0
 16
1.0
 26
0.0
 36
0.0
 17
0.0
 27
1.0
 37
0.0
 76
     0
330
70
  0
LAYOUT
  5
6F
102
{ACAD_REACTORS
330
62
102
}
330
62
100
AcDbPlotSettings
  1

  2

  4

  6

 40
0.0
 41
0.0
 42
0.0
 43
0.0
 44
0.0
 45
0.0
 46
0.0
 47
0.0
 48
0.0
 49
0.0
140
0.0
141
0.0
142
1.0
143
1.0
 70
  1712
 72
     0
 73
     0
 74
     0
  7

 75
     0
147
1.0
 76
     0
 77
     2
 78
   300
148
0.0
149
0.0
100
AcDbLayout
  1
Model
 70
     1
 71
     0
 10
0.0
 20
0.0
 11
12.0
 21
9.0
 12
0.0
 22
0.0
 32
0.0
 14
0.0
 24
0.0
 34
0.0
 15
0.0
 25
0.0
 35
0.0
146
0.0
 13
0.0
 23
0.0
 33
0.0
 16
1.0
 26
0.0
 36
0.0
 17
0.0
 27
1.0
 37
0.0
 76
     0
330
6C
  0
MATERIAL
  5
19
102
{ACAD_XDICTIONARY
360
1A
102
}
102
{ACAD_REACTORS
330
10
102
}
330
10
100
AcDbMaterial
  1
ByBlock
 72
     0
 43
0.0208333333333333
 43
0.0
 43
0.0
 43
0.0
 43
0.0
 43
0.0208333333333333
 43
0.0
 43
0.0
 43
0.0
 43
0.0
 43
1.0
 43
0.0
 43
0.0
 43
0.0
 43
0.0
 43
1.0
 77
     0
 47
0.0208333333333333
 47
0.0
 47
0.0
 47
0.0
 47
0.0
 47
0.0208333333333333
 47
0.0
 47
0.0
 47
0.0
 47
0.0
 47
1.0
 47
0.0
 47
0.0
 47
0.0
 47
0.0
 47
1.0
171
     0
 49
0.0208333333333333
 49
0.0
 49
0.0
 49
0.0
 49
0.0
 49
0.0208333333333333
 49
0.0
 49
0.0
 49
0.0
 49
0.0
 49
1.0
 49
0.0
 49
0.0
 49
0.0
 49
0.0
 49
1.0
175
     0
142
0.0208333333333333
142
0.0
142
0.0
142
0.0
142
0.0
142
0.0208333333333333
142
0.0
142
0.0
142
0.0
142
0.0
142
1.0
142
0.0
142
0.0
142
0.0
142
0.0
142
1.0
179
     0
144
0.0208333333333333
144
0.0
144
0.0
144
0.0
144
0.0
144
0.0208333333333333
144
0.0
144
0.0
144
0.0
144
0.0
144
1.0
144
0.0
144
0.0
144
0.0
144
0.0
144
1.0
147
0.0208333333333333
147
0.0
147
0.0
147
0.0
147
0.0
147
0.0208333333333333
147
0.0
147
0.0
147
0.0
147
0.0
147
1.0
147
0.0
147
0.0
147
0.0
147
0.0
147
1.0
  0
MATERIAL
  5
11
102
{ACAD_XDICTIONARY
360
12
102
}
102
{ACAD_REACTORS
330
10
102
}
330
10
100
AcDbMaterial
  1
ByLayer
 72
     0
 43
0.0208333333333333
 43
0.0
 43
0.0
 43
0.0
 43
0.0
 43
0.0208333333333333
 43
0.0
 43
0.0
 43
0.0
 43
0.0
 43
1.0
 43
0.0
 43
0.0
 43
0.0
 43
0.0
 43
1.0
 77
     0
 47
0.0208333333333333
 47
0.0
 47
0.0
 47
0.0
 47
0.0
 47
0.0208333333333333
 47
0.0
 47
0.0
 47
0.0
 47
0.0
 47
1.0
 47
0.0
 47
0.0
 47
0.0
 47
0.0
 47
1.0
171
     0
 49
0.0208333333333333
 49
0.0
 49
0.0
 49
0.0
 49
0.0
 49
0.0208333333333333
 49
0.0
 49
0.0
 49
0.0
 49
0.0
 49
1.0
 49
0.0
 49
0.0
 49
0.0
 49
0.0
 49
1.0
175
     0
142
0.0208333333333333
142
0.0
142
0.0
142
0.0
142
0.0
142
0.0208333333333333
142
0.0
142
0.0
142
0.0
142
0.0
142
1.0
142
0.0
142
0.0
142
0.0
142
0.0
142
1.0
179
     0
144
0.0208333333333333
144
0.0
144
0.0
144
0.0
144
0.0
144
0.0208333333333333
144
0.0
144
0.0
144
0.0
144
0.0
144
1.0
144
0.0
144
0.0
144
0.0
144
0.0
144
1.0
147
0.0208333333333333
147
0.0
147
0.0
147
0.0
147
0.0
147
0.0208333333333333
147
0.0
147
0.0
147
0.0
147
0.0
147
1.0
147
0.0
147
0.0
147
0.0
147
0.0
147
1.0
  0
MATERIAL
  5
21
102
{ACAD_XDICTIONARY
360
22
102
}
102
{ACAD_REACTORS
330
10
102
}
330
10
100
AcDbMaterial
  1
Global
 72
     0
 43
0.0208333333333333
 43
0.0
 43
0.0
 43
0.0
 43
0.0
 43
0.0208333333333333
 43
0.0
 43
0.0
 43
0.0
 43
0.0
 43
1.0
 43
0.0
 43
0.0
 43
0.0
 43
0.0
 43
1.0
 77
     0
 47
0.0208333333333333
 47
0.0
 47
0.0
 47
0.0
 47
0.0
 47
0.0208333333333333
 47
0.0
 47
0.0
 47
0.0
 47
0.0
 47
1.0
 47
0.0
 47
0.0
 47
0.0
 47
0.0
 47
1.0
171
     0
 49
0.0208333333333333
 49
0.0
 49
0.0
 49
0.0
 49
0.0
 49
0.0208333333333333
 49
0.0
 49
0.0
 49
0.0
 49
0.0
 49
1.0
 49
0.0
 49
0.0
 49
0.0
 49
0.0
 49
1.0
175
     0
142
0.0208333333333333
142
0.0
142
0.0
142
0.0
142
0.0
142
0.0208333333333333
142
0.0
142
0.0
142
0.0
142
0.0
142
1.0
142
0.0
142
0.0
142
0.0
142
0.0
142
1.0
179
     0
144
0.0208333333333333
144
0.0
144
0.0
144
0.0
144
0.0
144
0.0208333333333333
144
0.0
144
0.0
144
0.0
144
0.0
144
1.0
144
0.0
144
0.0
144
0.0
144
0.0
144
1.0
147
0.0208333333333333
147
0.0
147
0.0
147
0.0
147
0.0
147
0.0208333333333333
147
0.0
147
0.0
147
0.0
147
0.0
147
1.0
147
0.0
147
0.0
147
0.0
147
0.0
147
1.0
  0
MLEADERSTYLE
  5
67
102
{ACAD_XDICTIONARY
360
882
102
}
102
{ACAD_REACTORS
330
66
102
}
330
66
100
AcDbMLeaderStyle
179
     2
170
     2
171
     1
172
     0
 90
        2
 40
0.0
 41
0.0
173
     1
 91
-1056964608
340
5B
 92
       -2
290
     1
 42
0.09
291
     1
 43
0.36
  3
Standard
 44
0.18
300

342
55
174
     1
178
     6
175
     1
176
     0
 93
-1056964608
 45
0.18
292
     0
297
     0
 46
0.18
 94
-1056964608
 47
1.0
 49
1.0
140
1.0
293
     1
141
0.0
294
     1
177
     0
142
1.0
295
     0
296
     0
143
0.125
271
     0
272
     9
273
     9
  0
MLINESTYLE
  5
60
102
{ACAD_REACTORS
330
5F
102
}
330
5F
100
AcDbMlineStyle
  2
STANDARD
 70
     0
  3

 62
   256
 51
90.0
 52
90.0
 71
     2
 49
0.5
 62
   256
  6
BYLAYER
 49
-0.5
 62
   256
  6
BYLAYER
  0
ACDBPLACEHOLDER
  5
F
102
{ACAD_REACTORS
330
E
102
}
330
E
  0
SCALE
  5
43
102
{ACAD_REACTORS
330
42
102
}
330
42
100
AcDbScale
 70
     0
300
1:1
140
1.0
141
1.0
290
     1
  0
SCALE
  5
44
102
{ACAD_REACTORS
330
42
102
}
330
42
100
AcDbScale
 70
     0
300
1/128" = 1'-0"
140
0.0078125
141
12.0
290
     0
  0
SCALE
  5
45
102
{ACAD_REACTORS
330
42
102
}
330
42
100
AcDbScale
 70
     0
300
1/64" = 1'-0"
140
0.015625
141
12.0
290
     0
  0
SCALE
  5
46
102
{ACAD_REACTORS
330
42
102
}
330
42
100
AcDbScale
 70
     0
300
1/32" = 1'-0"
140
0.03125
141
12.0
290
     0
  0
SCALE
  5
47
102
{ACAD_REACTORS
330
42
102
}
330
42
100
AcDbScale
 70
     0
300
1/16" = 1'-0"
140
0.0625
141
12.0
290
     0
  0
SCALE
  5
48
102
{ACAD_REACTORS
330
42
102
}
330
42
100
AcDbScale
 70
     0
300
3/32" = 1'-0"
140
0.09375
141
12.0
290
     0
  0
SCALE
  5
49
102
{ACAD_REACTORS
330
42
102
}
330
42
100
AcDbScale
 70
     0
300
1/8" = 1'-0"
140
0.125
141
12.0
290
     0
  0
SCALE
  5
4A
102
{ACAD_REACTORS
330
42
102
}
330
42
100
AcDbScale
 70
     0
300
3/16" = 1'-0"
140
0.1875
141
12.0
290
     0
  0
SCALE
  5
4B
102
{ACAD_REACTORS
330
42
102
}
330
42
100
AcDbScale
 70
     0
300
1/4" = 1'-0"
140
0.25
141
12.0
290
     0
  0
SCALE
  5
4C
102
{ACAD_REACTORS
330
42
102
}
330
42
100
AcDbScale
 70
     0
300
3/8" = 1'-0"
140
0.375
141
12.0
290
     0
  0
SCALE
  5
4D
102
{ACAD_REACTORS
330
42
102
}
330
42
100
AcDbScale
 70
     0
300
1/2" = 1'-0"
140
0.5
141
12.0
290
     0
  0
SCALE
  5
4E
102
{ACAD_REACTORS
330
42
102
}
330
42
100
AcDbScale
 70
     0
300
3/4" = 1'-0"
140
0.75
141
12.0
290
     0
  0
SCALE
  5
4F
102
{ACAD_REACTORS
330
42
102
}
330
42
100
AcDbScale
 70
     0
300
1" = 1'-0"
140
1.0
141
12.0
290
     0
  0
SCALE
  5
50
102
{ACAD_REACTORS
330
42
102
}
330
42
100
AcDbScale
 70
     0
300
1-1/2" = 1'-0"
140
1.5
141
12.0
290
     0
  0
SCALE
  5
51
102
{ACAD_REACTORS
330
42
102
}
330
42
100
AcDbScale
 70
     0
300
3" = 1'-0"
140
3.0
141
12.0
290
     0
  0
SCALE
  5
52
102
{ACAD_REACTORS
330
42
102
}
330
42
100
AcDbScale
 70
     0
300
6" = 1'-0"
140
6.0
141
12.0
290
     0
  0
SCALE
  5
53
102
{ACAD_REACTORS
330
42
102
}
330
42
100
AcDbScale
 70
     0
300
1'-0" = 1'-0"
140
12.0
141
12.0
290
     0
  0
TABLESTYLE
  5
65
102
{ACAD_XDICTIONARY
360
880
102
}
102
{ACAD_REACTORS
330
64
102
}
330
64
100
AcDbTableStyle
280
     0
  3
Standard
 70
     0
 71
     0
 40
0.06
 41
0.06
280
     0
281
     0
  7
Standard
140
0.18
170
     2
 62
     0
 63
     7
283
     0
 90
      512
 91
        0
  1

274
    -2
284
     1
 64
     0
275
    -2
285
     1
 65
     0
276
    -2
286
     1
 66
     0
277
    -2
287
     1
 67
     0
278
    -2
288
     1
 68
     0
279
    -2
289
     1
 69
     0
  7
Standard
140
0.25
170
     5
 62
     0
 63
     7
283
     0
 90
      512
 91
        0
  1

274
    -2
284
     1
 64
     0
275
    -2
285
     1
 65
     0
276
    -2
286
     1
 66
     0
277
    -2
287
     1
 67
     0
278
    -2
288
     1
 68
     0
279
    -2
289
     1
 69
     0
  7
Standard
140
0.18
170
     5
 62
     0
 63
     7
283
     0
 90
      512
 91
        0
  1

274
    -2
284
     1
 64
     0
275
    -2
285
     1
 65
     0
276
    -2
286
     1
 66
     0
277
    -2
287
     1
 67
     0
278
    -2
288
     1
 68
     0
279
    -2
289
     1
 69
     0
  0
VISUALSTYLE
  5
2F
102
{ACAD_REACTORS
330
29
102
}
330
29
100
AcDbVisualStyle
  2
2dWireframe
 70
     4
177
     2
291
     0
 71
     0
176
     1
 72
     2
176
     1
 73
     0
176
     1
 90
        0
176
     1
 40
0.6
176
     1
 41
30.0
176
     1
 63
     7
421
 16777215
176
     1
 74
     1
176
     1
 91
        4
176
     1
 64
     7
176
     1
 65
   257
176
     1
 75
     1
176
     1
175
     1
176
     1
 42
1.0
176
     1
 92
        0
176
     1
 66
   257
176
     1
 43
1.0
176
     1
 76
     1
176
     1
 77
     6
176
     1
 78
     2
176
     1
 67
     7
176
     1
 79
     5
176
     1
170
     0
176
     1
171
     0
176
     1
290
     0
176
     1
 93
        1
176
     1
 44
0.0
176
     1
173
     0
176
     1
  0
VISUALSTYLE
  5
2E
102
{ACAD_REACTORS
330
29
102
}
330
29
100
AcDbVisualStyle
  2
Basic
 70
     7
177
     2
291
     1
 71
     1
176
     1
 72
     0
176
     1
 73
     1
176
     1
 90
        0
176
     1
 40
0.6
176
     1
 41
30.0
176
     1
 63
     7
421
 16777215
176
     1
 74
     0
176
     1
 91
        4
176
     1
 64
     7
176
     1
 65
   257
176
     1
 75
     1
176
     1
175
     1
176
     1
 42
1.0
176
     1
 92
        8
176
     1
 66
     7
176
     1
 43
1.0
176
     1
 76
     1
176
     1
 77
     6
176
     1
 78
     2
176
     1
 67
     7
176
     1
 79
     5
176
     1
170
     0
176
     1
171
     0
176
     1
290
     0
176
     1
 93
        1
176
     1
 44
0.0
176
     1
173
     0
176
     1
  0
VISUALSTYLE
  5
35
102
{ACAD_REACTORS
330
29
102
}
330
29
100
AcDbVisualStyle
  2
Brighten
 70
    12
177
     2
291
     1
 71
     2
176
     1
 72
     2
176
     1
 73
     0
176
     1
 90
        0
176
     1
 40
0.6
176
     1
 41
30.0
176
     1
 63
     7
421
 16777215
176
     1
 74
     1
176
     1
 91
        4
176
     1
 64
     7
176
     1
 65
   257
176
     1
 75
     1
176
     1
175
     1
176
     1
 42
1.0
176
     1
 92
        8
176
     1
 66
     7
176
     1
 43
1.0
176
     1
 76
     1
176
     1
 77
     6
176
     1
 78
     2
176
     1
 67
     7
176
     1
 79
     5
176
     1
170
     0
176
     1
171
     0
176
     1
290
     0
176
     1
 93
        1
176
     1
 44
50.0
176
     1
173
     0
176
     1
  0
VISUALSTYLE
  5
39
102
{ACAD_REACTORS
330
29
102
}
330
29
100
AcDbVisualStyle
  2
ColorChange
 70
    16
177
     2
291
     1
 71
     2
176
     1
 72
     2
176
     1
 73
     3
176
     1
 90
        0
176
     1
 40
0.6
176
     1
 41
30.0
176
     1
 63
     8
421
  8421504
176
     1
 74
     1
176
     1
 91
        4
176
     1
 64
     7
176
     1
 65
   257
176
     1
 75
     1
176
     1
175
     1
176
     1
 42
1.0
176
     1
 92
        8
176
     1
 66
     8
424
  8421504
176
     1
 43
1.0
176
     1
 76
     1
176
     1
 77
     6
176
     1
 78
     2
176
     1
 67
     7
176
     1
 79
     5
176
     1
170
     0
176
     1
171
     0
176
     1
290
     0
176
     1
 93
        1
176
     1
 44
0.0
176
     1
173
     0
176
     1
  0
VISUALSTYLE
  5
32
102
{ACAD_REACTORS
330
29
102
}
330
29
100
AcDbVisualStyle
  2
Conceptual
 70
     9
177
     2
291
     0
 71
     3
176
     1
 72
     2
176
     1
 73
     0
176
     1
 90
        0
176
     1
 40
0.6
176
     1
 41
30.0
176
     1
 63
     7
421
 16777215
176
     1
 74
     2
176
     1
 91
        2
176
     1
 64
     7
176
     1
 65
   257
176
     1
 75
     1
176
     1
175
     1
176
     1
 42
179.0
176
     1
 92
        8
176
     1
 66
     7
176
     1
 43
1.0
176
     1
 76
     1
176
     1
 77
     6
176
     1
 78
     2
176
     1
 67
     7
176
     1
 79
     3
176
     1
170
     0
176
     1
171
     0
176
     1
290
     0
176
     1
 93
        1
176
     1
 44
0.0
176
     1
173
     0
176
     1
  0
VISUALSTYLE
  5
34
102
{ACAD_REACTORS
330
29
102
}
330
29
100
AcDbVisualStyle
  2
Dim
 70
    11
177
     2
291
     1
 71
     2
176
     1
 72
     2
176
     1
 73
     0
176
     1
 90
        0
176
     1
 40
0.6
176
     1
 41
30.0
176
     1
 63
     7
421
 16777215
176
     1
 74
     1
176
     1
 91
        4
176
     1
 64
     7
176
     1
 65
   257
176
     1
 75
     1
176
     1
175
     1
176
     1
 42
1.0
176
     1
 92
        8
176
     1
 66
     7
176
     1
 43
1.0
176
     1
 76
     1
176
     1
 77
     6
176
     1
 78
     2
176
     1
 67
     7
176
     1
 79
     5
176
     1
170
     0
176
     1
171
     0
176
     1
290
     0
176
     1
 93
        1
176
     1
 44
-50.0
176
     1
173
     0
176
     1
  0
VISUALSTYLE
  5
41
102
{ACAD_REACTORS
330
29
102
}
330
29
100
AcDbVisualStyle
  2
EdgeColorOff
 70
    22
177
     2
291
     1
 71
     2
176
     0
 72
     2
176
     0
 73
     0
176
     0
 90
        0
176
     0
 40
0.6
176
     0
 41
30.0
176
     0
 63
     7
421
 16777215
176
     0
 74
     1
176
     0
 91
        4
176
     0
 64
     7
176
     0
 65
   257
176
     0
 75
     1
176
     0
175
     1
176
     0
 42
1.0
176
     0
 92
        8
176
     2
 66
     7
176
     0
 43
1.0
176
     0
 76
     1
176
     0
 77
     6
176
     0
 78
     2
176
     0
 67
     7
176
     0
 79
     5
176
     0
170
     0
176
     0
171
     0
176
     0
290
     0
176
     0
 93
        1
176
     0
 44
0.0
176
     0
173
     0
176
     0
  0
VISUALSTYLE
  5
38
102
{ACAD_REACTORS
330
29
102
}
330
29
100
AcDbVisualStyle
  2
Facepattern
 70
    15
177
     2
291
     1
 71
     2
176
     1
 72
     2
176
     1
 73
     0
176
     1
 90
        0
176
     1
 40
0.6
176
     1
 41
30.0
176
     1
 63
     7
421
 16777215
176
     1
 74
     1
176
     1
 91
        4
176
     1
 64
     7
176
     1
 65
   257
176
     1
 75
     1
176
     1
175
     1
176
     1
 42
1.0
176
     1
 92
        8
176
     1
 66
     7
176
     1
 43
1.0
176
     1
 76
     1
176
     1
 77
     6
176
     1
 78
     2
176
     1
 67
     7
176
     1
 79
     5
176
     1
170
     0
176
     1
171
     0
176
     1
290
     0
176
     1
 93
        1
176
     1
 44
0.0
176
     1
173
     0
176
     1
  0
VISUALSTYLE
  5
2A
102
{ACAD_REACTORS
330
29
102
}
330
29
100
AcDbVisualStyle
  2
Flat
 70
     0
177
     2
291
     1
 71
     2
176
     1
 72
     1
176
     1
 73
     1
176
     1
 90
        2
176
     1
 40
0.6
176
     1
 41
30.0
176
     1
 63
     7
421
 16777215
176
     1
 74
     0
176
     1
 91
        0
176
     1
 64
     7
176
     1
 65
   257
176
     1
 75
     1
176
     1
175
     1
176
     1
 42
1.0
176
     1
 92
        8
176
     1
 66
     7
176
     1
 43
1.0
176
     1
 76
     1
176
     1
 77
     6
176
     1
 78
     2
176
     1
 67
     7
176
     1
 79
     5
176
     1
170
     0
176
     1
171
     0
176
     1
290
     0
176
     1
 93
       13
176
     1
 44
0.0
176
     1
173
     0
176
     1
  0
VISUALSTYLE
  5
2B
102
{ACAD_REACTORS
330
29
102
}
330
29
100
AcDbVisualStyle
  2
FlatWithEdges
 70
     1
177
     2
291
     1
 71
     2
176
     1
 72
     1
176
     1
 73
     1
176
     1
 90
        2
176
     1
 40
0.6
176
     1
 41
30.0
176
     1
 63
     7
421
 16777215
176
     1
 74
     1
176
     1
 91
        0
176
     1
 64
     7
176
     1
 65
   257
176
     1
 75
     1
176
     1
175
     1
176
     1
 42
1.0
176
     1
 92
        0
176
     1
 66
   257
176
     1
 43
1.0
176
     1
 76
     1
176
     1
 77
     6
176
     1
 78
     2
176
     1
 67
     7
176
     1
 79
     5
176
     1
170
     0
176
     1
171
     0
176
     1
290
     0
176
     1
 93
       13
176
     1
 44
0.0
176
     1
173
     0
176
     1
  0
VISUALSTYLE
  5
2C
102
{ACAD_REACTORS
330
29
102
}
330
29
100
AcDbVisualStyle
  2
Gouraud
 70
     2
177
     2
291
     1
 71
     2
176
     1
 72
     2
176
     1
 73
     1
176
     1
 90
        2
176
     1
 40
0.6
176
     1
 41
30.0
176
     1
 63
     7
421
 16777215
176
     1
 74
     0
176
     1
 91
        0
176
     1
 64
     7
176
     1
 65
   257
176
     1
 75
     1
176
     1
175
     1
176
     1
 42
1.0
176
     1
 92
        0
176
     1
 66
     7
176
     1
 43
1.0
176
     1
 76
     1
176
     1
 77
     6
176
     1
 78
     2
176
     1
 67
     7
176
     1
 79
     5
176
     1
170
     0
176
     1
171
     0
176
     1
290
     0
176
     1
 93
       13
176
     1
 44
0.0
176
     1
173
     0
176
     1
  0
VISUALSTYLE
  5
2D
102
{ACAD_REACTORS
330
29
102
}
330
29
100
AcDbVisualStyle
  2
GouraudWithEdges
 70
     3
177
     2
291
     1
 71
     2
176
     1
 72
     2
176
     1
 73
     1
176
     1
 90
        2
176
     1
 40
0.6
176
     1
 41
30.0
176
     1
 63
     7
421
 16777215
176
     1
 74
     1
176
     1
 91
        0
176
     1
 64
     7
176
     1
 65
   257
176
     1
 75
     1
176
     1
175
     1
176
     1
 42
1.0
176
     1
 92
        0
176
     1
 66
   257
176
     1
 43
1.0
176
     1
 76
     1
176
     1
 77
     6
176
     1
 78
     2
176
     1
 67
     7
176
     1
 79
     5
176
     1
170
     0
176
     1
171
     0
176
     1
290
     0
176
     1
 93
       13
176
     1
 44
0.0
176
     1
173
     0
176
     1
  0
VISUALSTYLE
  5
31
102
{ACAD_REACTORS
330
29
102
}
330
29
100
AcDbVisualStyle
  2
Hidden
 70
     6
177
     2
291
     0
 71
     1
176
     1
 72
     2
176
     1
 73
     2
176
     1
 90
        0
176
     1
 40
0.6
176
     1
 41
30.0
176
     1
 63
     7
421
 16777215
176
     1
 74
     2
176
     1
 91
        2
176
     1
 64
     7
176
     1
 65
   257
176
     1
 75
     2
176
     1
175
     1
176
     1
 42
40.0
176
     1
 92
        0
176
     1
 66
   257
176
     1
 43
1.0
176
     1
 76
     1
176
     1
 77
     6
176
     1
 78
     2
176
     1
 67
     7
176
     1
 79
     3
176
     1
170
     0
176
     1
171
     0
176
     1
290
     0
176
     1
 93
        1
176
     1
 44
0.0
176
     1
173
     0
176
     1
  0
VISUALSTYLE
  5
3F
102
{ACAD_REACTORS
330
29
102
}
330
29
100
AcDbVisualStyle
  2
JitterOff
 70
    20
177
     2
291
     1
 71
     2
176
     0
 72
     2
176
     0
 73
     0
176
     0
 90
        0
176
     0
 40
0.6
176
     0
 41
30.0
176
     0
 63
     7
421
 16777215
176
     0
 74
     1
176
     0
 91
        4
176
     0
 64
     7
176
     0
 65
   257
176
     0
 75
     1
176
     0
175
     1
176
     0
 42
1.0
176
     0
 92
       10
176
     2
 66
     7
176
     0
 43
1.0
176
     0
 76
     1
176
     0
 77
     6
176
     0
 78
     2
176
     0
 67
     7
176
     0
 79
     5
176
     0
170
     0
176
     0
171
     0
176
     0
290
     0
176
     0
 93
        1
176
     0
 44
0.0
176
     0
173
     0
176
     0
  0
VISUALSTYLE
  5
37
102
{ACAD_REACTORS
330
29
102
}
330
29
100
AcDbVisualStyle
  2
Linepattern
 70
    14
177
     2
291
     1
 71
     2
176
     1
 72
     2
176
     1
 73
     0
176
     1
 90
        0
176
     1
 40
0.6
176
     1
 41
30.0
176
     1
 63
     7
421
 16777215
176
     1
 74
     1
176
     1
 91
        4
176
     1
 64
     7
176
     1
 65
   257
176
     1
 75
     7
176
     1
175
     7
176
     1
 42
1.0
176
     1
 92
        8
176
     1
 66
     7
176
     1
 43
1.0
176
     1
 76
     1
176
     1
 77
     6
176
     1
 78
     2
176
     1
 67
     7
176
     1
 79
     5
176
     1
170
     0
176
     1
171
     0
176
     1
290
     0
176
     1
 93
        1
176
     1
 44
0.0
176
     1
173
     0
176
     1
  0
VISUALSTYLE
  5
40
102
{ACAD_REACTORS
330
29
102
}
330
29
100
AcDbVisualStyle
  2
OverhangOff
 70
    21
177
     2
291
     1
 71
     2
176
     0
 72
     2
176
     0
 73
     0
176
     0
 90
        0
176
     0
 40
0.6
176
     0
 41
30.0
176
     0
 63
     7
421
 16777215
176
     0
 74
     1
176
     0
 91
        4
176
     0
 64
     7
176
     0
 65
   257
176
     0
 75
     1
176
     0
175
     1
176
     0
 42
1.0
176
     0
 92
        9
176
     2
 66
     7
176
     0
 43
1.0
176
     0
 76
     1
176
     0
 77
     6
176
     0
 78
     2
176
     0
 67
     7
176
     0
 79
     5
176
     0
170
     0
176
     0
171
     0
176
     0
290
     0
176
     0
 93
        1
176
     0
 44
0.0
176
     0
173
     0
176
     0
  0
VISUALSTYLE
  5
33
102
{ACAD_REACTORS
330
29
102
}
330
29
100
AcDbVisualStyle
  2
Realistic
 70
     8
177
     2
291
     0
 71
     2
176
     1
 72
     3
176
     1
 73
     0
176
     1
 90
        2
176
     1
 40
0.6
176
     1
 41
30.0
176
     1
 63
     7
421
 16777215
176
     1
 74
     0
176
     1
 91
        0
176
     1
 64
     7
176
     1
 65
   257
176
     1
 75
     1
176
     1
175
     1
176
     1
 42
1.0
176
     1
 92
        8
176
     1
 66
   257
176
     1
 43
1.0
176
     1
 76
     1
176
     1
 77
     6
176
     1
 78
     2
176
     1
 67
     7
176
     1
 79
     3
176
     1
170
     0
176
     1
171
     0
176
     1
290
     0
176
     1
 93
       13
176
     1
 44
0.0
176
     1
173
     0
176
     1
  0
VISUALSTYLE
  5
3E
102
{ACAD_REACTORS
330
29
102
}
330
29
100
AcDbVisualStyle
  2
Shaded
 70
    27
177
     2
291
     0
 71
     2
176
     1
 72
     2
176
     1
 73
     1
176
     1
 90
        2
176
     1
 40
0.6
176
     1
 41
30.0
176
     1
 63
     7
421
 16777215
176
     1
 74
     0
176
     1
 91
        4
176
     1
 64
     7
176
     1
 65
   257
176
     1
 75
     1
176
     1
175
     1
176
     1
 42
1.0
176
     1
 92
        8
176
     1
 66
   257
176
     1
 43
1.0
176
     1
 76
     1
176
     1
 77
     6
176
     1
 78
     2
176
     1
 67
     8
425
  7895160
176
     1
 79
     3
176
     1
170
     0
176
     1
171
     0
176
     1
290
     0
176
     1
 93
        5
176
     1
 44
0.0
176
     1
173
     0
176
     1
  0
VISUALSTYLE
  5
3D
102
{ACAD_REACTORS
330
29
102
}
330
29
100
AcDbVisualStyle
  2
Shaded with edges
 70
    26
177
     2
291
     0
 71
     2
176
     1
 72
     2
176
     1
 73
     1
176
     1
 90
        2
176
     1
 40
0.6
176
     1
 41
30.0
176
     1
 63
     7
421
 16777215
176
     1
 74
     1
176
     1
 91
       10
176
     1
 64
     7
176
     1
 65
   257
176
     1
 75
     2
176
     1
175
     1
176
     1
 42
1.0
176
     1
 92
        8
176
     1
 66
   257
176
     1
 43
1.0
176
     1
 76
     1
176
     1
 77
     6
176
     1
 78
     2
176
     1
 67
     7
176
     1
 79
     3
176
     1
170
     0
176
     1
171
     0
176
     1
290
     0
176
     1
 93
        5
176
     1
 44
0.0
176
     1
173
     0
176
     1
  0
VISUALSTYLE
  5
3A
102
{ACAD_REACTORS
330
29
102
}
330
29
100
AcDbVisualStyle
  2
Shades of Gray
 70
    23
177
     2
291
     0
 71
     2
176
     1
 72
     2
176
     1
 73
     3
176
     1
 90
        0
176
     1
 40
0.6
176
     1
 41
30.0
176
     1
 63
     7
421
 16777215
176
     1
 74
     2
176
     1
 91
        2
176
     1
 64
     7
176
     1
 65
     7
176
     1
 75
     1
176
     1
175
     1
176
     1
 42
40.0
176
     1
 92
        8
176
     1
 66
     7
176
     1
 43
1.0
176
     1
 76
     1
176
     1
 77
     6
176
     1
 78
     2
176
     1
 67
     7
176
     1
 79
     3
176
     1
170
     0
176
     1
171
     0
176
     1
290
     0
176
     1
 93
        1
176
     1
 44
0.0
176
     1
173
     0
176
     1
  0
VISUALSTYLE
  5
3B
102
{ACAD_REACTORS
330
29
102
}
330
29
100
AcDbVisualStyle
  2
Sketchy
 70
    24
177
     2
291
     0
 71
     1
176
     1
 72
     2
176
     1
 73
     2
176
     1
 90
        0
176
     1
 40
0.6
176
     1
 41
30.0
176
     1
 63
     7
421
 16777215
176
     1
 74
     2
176
     1
 91
        2
176
     1
 64
     7
176
     1
 65
     7
176
     1
 75
     1
176
     1
175
     1
176
     1
 42
40.0
176
     1
 92
       11
176
     1
 66
     7
176
     1
 43
1.0
176
     1
 76
     1
176
     1
 77
     6
176
     1
 78
     2
176
     1
 67
     7
176
     1
 79
     6
176
     1
170
     0
176
     1
171
     0
176
     1
290
     0
176
     1
 93
        1
176
     1
 44
0.0
176
     1
173
     0
176
     1
  0
VISUALSTYLE
  5
36
102
{ACAD_REACTORS
330
29
102
}
330
29
100
AcDbVisualStyle
  2
Thicken
 70
    13
177
     2
291
     1
 71
     2
176
     1
 72
     2
176
     1
 73
     0
176
     1
 90
        0
176
     1
 40
0.6
176
     1
 41
30.0
176
     1
 63
     7
421
 16777215
176
     1
 74
     1
176
     1
 91
        4
176
     1
 64
     7
176
     1
 65
   257
176
     1
 75
     1
176
     1
175
     1
176
     1
 42
1.0
176
     1
 92
       12
176
     1
 66
     7
176
     1
 43
1.0
176
     1
 76
     1
176
     1
 77
     6
176
     1
 78
     2
176
     1
 67
     7
176
     1
 79
     5
176
     1
170
     0
176
     1
171
     0
176
     1
290
     0
176
     1
 93
        1
176
     1
 44
0.0
176
     1
173
     0
176
     1
  0
VISUALSTYLE
  5
30
102
{ACAD_REACTORS
330
29
102
}
330
29
100
AcDbVisualStyle
  2
Wireframe
 70
     5
177
     2
291
     0
 71
     0
176
     1
 72
     2
176
     1
 73
     0
176
     1
 90
        0
176
     1
 40
0.6
176
     1
 41
30.0
176
     1
 63
     7
421
 16777215
176
     1
 74
     1
176
     1
 91
        4
176
     1
 64
     7
176
     1
 65
   257
176
     1
 75
     1
176
     1
175
     1
176
     1
 42
1.0
176
     1
 92
        0
176
     1
 66
   257
176
     1
 43
1.0
176
     1
 76
     1
176
     1
 77
     6
176
     1
 78
     2
176
     1
 67
     7
176
     1
 79
     3
176
     1
170
     0
176
     1
171
     0
176
     1
290
     0
176
     1
 93
        1
176
     1
 44
0.0
176
     1
173
     0
176
     1
  0
VISUALSTYLE
  5
3C
102
{ACAD_REACTORS
330
29
102
}
330
29
100
AcDbVisualStyle
  2
X-Ray
 70
    25
177
     2
291
     0
 71
     2
176
     1
 72
     2
176
     1
 73
     1
176
     1
 90
        1
176
     1
 40
0.5
176
     1
 41
30.0
176
     1
 63
     7
421
 16777215
176
     1
 74
     1
176
     1
 91
        0
176
     1
 64
     7
176
     1
 65
   257
176
     1
 75
     1
176
     1
175
     1
176
     1
 42
1.0
176
     1
 92
        8
176
     1
 66
     7
176
     1
 43
1.0
176
     1
 76
     1
176
     1
 77
     6
176
     1
 78
     2
176
     1
 67
     7
176
     1
 79
     3
176
     1
170
     0
176
     1
171
     0
176
     1
290
     0
176
     1
 93
       13
176
     1
 44
0.0
176
     1
173
     0
176
     1
  0
DICTIONARYVAR
  5
79
102
{ACAD_REACTORS
330
76
102
}
330
76
100
DictionaryVariables
280
     0
  1
1:1
  0
DICTIONARYVAR
  5
78
102
{ACAD_REACTORS
330
76
102
}
330
76
100
DictionaryVariables
280
     0
  1
STANDARD
  0
DICTIONARYVAR
  5
77
102
{ACAD_REACTORS
330
76
102
}
330
76
100
DictionaryVariables
280
     0
  1
STANDARD
  0
DICTIONARY
  5
1A
330
19
100
AcDbDictionary
280
     1
281
     1
  3
BUMPTILE
360
1C
  3
DIFFUSETILE
360
1B
  3
OPACITYTILE
360
1F
  3
REFLECTIONTILE
360
1E
  3
REFRACTIONTILE
360
20
  3
SPECULARTILE
360
1D
  0
DICTIONARY
  5
12
330
11
100
AcDbDictionary
280
     1
281
     1
  3
BUMPTILE
360
14
  3
DIFFUSETILE
360
13
  3
FBXASSET
360
10B
  3
OPACITYTILE
360
17
  3
REFLECTIONTILE
360
16
  3
REFRACTIONTILE
360
18
  3
SPECULARTILE
360
15
  0
DICTIONARY
  5
22
330
21
100
AcDbDictionary
280
     1
281
     1
  3
BUMPTILE
360
24
  3
DIFFUSETILE
360
23
  3
FBXASSET
360
BA
  3
OPACITYTILE
360
27
  3
REFLECTIONTILE
360
26
  3
REFRACTIONTILE
360
28
  3
SPECULARTILE
360
25
  0
DICTIONARY
  5
882
330
67
100
AcDbDictionary
280
     1
281
     1
  3
ACAD_XREC_ROUNDTRIP
360
883
  0
DICTIONARY
  5
880
330
65
100
AcDbDictionary
280
     1
281
     1
  3
ACAD_ROUNDTRIP_2008_TABLESTYLE_CELLSTYLEMAP
360
881
  0
XRECORD
  5
1C
102
{ACAD_REACTORS
330
1A
102
}
330
1A
100
AcDbXrecord
280
     1
270
     1
271
     1
  0
XRECORD
  5
1B
102
{ACAD_REACTORS
330
1A
102
}
330
1A
100
AcDbXrecord
280
     1
270
     1
271
     1
  0
XRECORD
  5
1F
102
{ACAD_REACTORS
330
1A
102
}
330
1A
100
AcDbXrecord
280
     1
270
     1
271
     1
  0
XRECORD
  5
1E
102
{ACAD_REACTORS
330
1A
102
}
330
1A
100
AcDbXrecord
280
     1
270
     1
271
     1
  0
XRECORD
  5
20
102
{ACAD_REACTORS
330
1A
102
}
330
1A
100
AcDbXrecord
280
     1
270
     1
271
     1
  0
XRECORD
  5
1D
102
{ACAD_REACTORS
330
1A
102
}
330
1A
100
AcDbXrecord
280
     1
270
     1
271
     1
  0
XRECORD
  5
14
102
{ACAD_REACTORS
330
12
102
}
330
12
100
AcDbXrecord
280
     1
270
     1
271
     1
  0
XRECORD
  5
13
102
{ACAD_REACTORS
330
12
102
}
330
12
100
AcDbXrecord
280
     1
270
     1
271
     1
  0
XRECORD
  5
10B
102
{ACAD_REACTORS
330
12
102
}
330
12
100
AcDbXrecord
280
     1
 70
     1
 90
1959938040
 71
     1
  1
7F14AA72-1016-42AF-A3D8-C6F7E9E63F3B
311
504B03040A0000080000335ADC403DEE336E79000000790000001B0000006175746F6465736B2D64657369676E2D7061636B6167652E786D6C3C3F786D6C2076657273696F6E3D22312E302220656E636F64696E673D227574662D3822203F3E3C666F726D6174733E3C666F726D61743E687474703A2F2F736368656D612E
311
6175746F6465736B2E636F6D2F64657369676E2D7061636B6167652F323030393C2F666F726D61743E3C2F666F726D6174733E504B0304140006080800335ADC40D486FD9CA0000000F4000000130000005B436F6E74656E745F54797065735D2E786D6C7D8EC10E82300C865F65E91D8A1E8C310C0EEA1BF002731658846E
311
D98AC1B77784ABF1D8FE5FBFBF75BBCE937A534CCEB38643598122B6FEE978D0B0485F9C41B54DDD7D022595594E1A469170414C76A4D9A4D207E29CF43ECE46F218070CC6BECC4078ACAA135ACF422C856C0E68EA1BF5669944DDD7BCDE7B1F8E415D77AECB980613C2E4AC91FC167A2B244592486606FC29C8FD7F045B9A
311
EF7053A7E60B504B0304140006080800335ADC40F30717E1E90000007C01000008000000636F72652E786D6C8D90416EC3201045AF82668F0D36891D0B13D5567B825E0001715062B00C543D7E71E248EDAEAB193EFFCD8C3E3F7FCF77F465D660BDEB8116049071CA6BEBA61E52BCE016D059F0D5FBF8CB06C8C9D9F4B0C9
311
20F8B4FAB4EC92F22E1A17B3EABC36BB2843301190BAE7A687A0AE6696854C313BC2AD58A4BAC9C914F4D5653825ABD17389D5799EBD58B38238B0919CC6EA0DB3F6836146DF1B3C1C488DD9C0E8713C0DB4A90FBCDC60C1A39D5FFBD56A64341A44456885C91157ED27A51D6DBABACDCF8E105E6EF63F505AF43FA1645DAC
311
ABFDDC271640D07CC8E343F072CB22974750B96EB9891F504B0304140006080800335ADC4055019EA25F0000007C00000007000000636E782E786D6C4DCB3B0E80201045D1AD90E915ED2CF8AC45050C11660C8261F98AB1B07AC9C97D42D718D865D3E909258CFD00CCE24AC6E326A164D74DC0B4128928FF326038472BA1
311
3128B1252AC747C6BAB984FC68F0B87FE8960A5C09FE86CFB69FBA01504B0304140006080800335ADC4064EA520965010000020300000C0000006662782F636F72652E786D6C8D52ED8E8320107C15C27F05D47E0669AECDDD13DC0B50A49EA98241307DFC5B3F1AAF97A6694C147776766647F9E1D6D4A8D7AEABACC9318B
311
2946DA285B54A6CC71F097688BD1417067ADFFD38691918DCEF150C68297CE86762E296BBC361EAAC6167A2ECAAED31E2355C321C79DFAD18D8C65F0D0D15DE356AAAB2C75CC6280A14FF0CE3B30802691E18EC5E57CE364AA0B1E4255CC6855805A75A9B4C362959DE8EE947C44D9F62B8B32F6B9898E2B9A46D93163EBD3
311
EEC836E98A93812CB8AF9ABB3BE5B4F4BAC022A12C89E83A4AB6DF8CEDD9669F6EE1754F292743FB0329B4C59BA450199F26B3DD89D661C1C0C808FCDB1622F2A8933DF82182932144788C093F060D8140C85E9EEBFB1E5728F55A79EB32400A1B16A89775D0A04AD1787132A130791C009B3D9D93BC98F37A067C40694AB0
311
263D1CCFC10FEA7C529DA368B58B7A7F43C6BA46D68BB9C9E2725F849ED295ADAD7B874DE655C91C2619FE5EF10B504B0304140006080800335ADC40E2E253797D0000009D0000000B0000006662782F636E782E786D6C4DCCD10A83201886E15B91FFDCFA959613D4685B1712CB42663A9C8E5DFE6A74B0A30F1E3E5ED57D
311
564FDE36BD5C0C1A5885406CB8C7C9854543C9333D03E98C4A31E6BF1B9030AE56C3CE60D49262791E34D9792C3E6FEA5D781CD8E355C8167B8A7290B4B9314E251B38BDB428507081C84E501B55FF4ADBEE61F305504B0304140006080800335ADC40CD97854F2A01000014020000310000006662782F4130433739363041
311
2D303945392D344431322D393145322D4236303730373237303031352F636F72652E786D6C8D51CB6EC32010FC15C4293D602FB66BC711264ADBFC417F806092A2C460F1A8F2F985DA91DA5B2E2C9A9D991DEDB2FD7DBAA16FE5BCB666C0B4008C949176D4E632E018CE648BD19E33676DF843C3C888490D38C398B38BB371
311
5E21694D502624D4D851ADA0F05E058CE42D7D06ECE5979A442162480C7F2D6621AFE2A20A5AA476E271E6834B01D03224BF981FE0BDEB5B3810E88F3D693E68457A7AACC85B0B1D745507405F59B908398B518FAB5C8F298E3E6BE59E35C962CE829E1EF1A55322A811F30AD2586849B5FDA47447BB5DBD25D0EE005899E9
311
FF44711E9F14456D425DAD711799C79CB272697036DA78BA3DC2A8FB6C5D4079DEC62BF982391440EBBEEE9B9E950B352D2079B6CDEAE9837569C19BEB29B1F39AB271DB7056E61BA5F27BC054F33DF90F504B0304140006080800335ADC403D6B4AFE4C01000033030000300000006662782F41304337393630412D303945
311
392D344431322D393145322D4236303730373237303031352F636E782E786D6CD593CD6EC23010845FC5F23D3F064411728CD4439FA0875E1D7B0117C78EFC5395B7EF1A0CE5C2A1C75EAC64F6F3CC6A94F0DDF764C9178468BC1B286B7B4AC029AF8D3B0C34A77DB3A1642778F03E3D60943839C1408B4C053F049FE72A69
311
D8CB6C13AAD6B8531503449F83828872B949AC57D2A201B826A308D3085A832677109FF610701514C7334947206FAF1FC48F9FA052E45D7111BC2B198297B3263D4094282B631C68544798642B73F21AE2A9D532C996B5B7AC273BFD3A9172E116998321257CA0E5A4A26ED4628FBCC3A1E031056CAF42E93C0315729EAD51
311
3261C9DD05BC328267E3D27A555983C507A4D97AB95AA1D96526783213544205900934158B9E2D9A7EDD2C36EF8C6DD9CB76B9C1D76DDFF3AEE0828FDEDB7A096D20F89928EF12B84405E35D193FABAF72449B805DFB70FE439158404DBDB673F7F8CFFD7497EF1BEB0AF817881F504B0304140006080800335ADC4030B037
311
2BA405000081100000340000006662782F41304337393630412D303945392D344431322D393145322D4236303730373237303031352F6F626A656374732E786D6CAD57D96EDB3814FD1541F332F3E045B69B65A0A870ECB830DAB4458D14F360C0A0254AE1845A4052A9335F3F8722254B8E9D7A067DD1C2E5F2DE73CF5DE8
311
BFDFA5DC79A642B23CBB71BDFED0756816E611CB921BB75471EFCA75DE07BEC873D55AE63A1949E98DAB87DDC04F445E167628A23129B93A185DDCFEE5C89066D475424EA4BC7165F84853D227A5CA232A9FFA1151A49FC4BBBED7370BBB6213418AC703A105113453D014E319A4384629AFFB3B7407813FD0F381AF9F76D5
311
F8F4AA41654FF77C964945B2F0D5610762C6DE647E377A77DD7B37998C7B938B91D7BB5DDCCE7BDEE57838BB98CDAEA777D738582A01495613416337F8006C040BFD81990AFC92656A3CB24BAC8306823E33ED293718399E3F306B1AEBAC91C7D40FF32CA3618515D0A8ECB3A2235AD02C82CF1995D0AC85D0B0FBEB691C5B
311
D363FD6F8F6C0F9F87407B474B50AD7BFD6E6B9A6FFF8609F21C06094935030D96D650C3D5E11EE16D9E733BC7A49312450523DCE16C2B887871032CD54B02BF23463359E868D016B801BC60A6BB744118FD9CE7C7B48C4BCE358DDDA08A820D62852A5969C6FEA162AF7D1B19E8045F69365C5983D44B41DDE0DA50E4EA80
311
4D064827E62481CB61A6DE391E1D183AD371BA9CBBC1C7C576B7D2B17BFCF042E405154AD307D4AA1D57BF354A5627EF2CCFE90DEE812A7B50BE01F9CF08F5BD2AF09B60BBC96E624F51826432CE450ADF3843A737C463E878D5537FB7BEFC41B3B9EBBD5378C2D91AAA5F8067D786B62F5B7006FE33089F8BB1356D15128E
311
B471CF3200A449E2F01C43C8C3F176E7064B64396465EC223CF06032D47DC6A73FB0629028AA935AEF0C581EA4C533123460AB1809350CF9AD827B3FBD4A67D5C176D92978DFFD12BA4EE7AB8FAB52C424A4F736A6E73466195328717BDEB415EA60DEB1E889BEFCC84504435FE3BD6AE39DDAA324D0D6986BE0933AA7EB9F
311
FDC99D0342EC4B729D6EFC9F9C002374616DC9BF6732A49C938CE6657DEE9BF50365C340AC835D33B92930FBC202D29899831844910E052B34884DB56A9266FF84750FCBCF60A41BDCBE7C222FEDECB5DDE7DE30E7B9D86C5F36262D1D85FA7B97DB1683819602BA574152C7BF057D13B1382E2592E0115CBF2F676DDFE9B4
311
8014514B35D13281FD082E222C696BB9A8D682A092E6D986A16E22EE8E1ED0960F482D032A81A7349694C71BC679996E62C6518D3629294EC0F1FFF5DF9669B121695E66EA84EC8EEAA80E5DDD3BEC953F880A1FDD6055BD7BB7C8BD118D4E9041D7922358755C7BB9F026D3E9E5A8E70DBD8BDE64345DF4A6E3F9556F76B1
311
B8BCBBBEBB182FC6B7B59F8C26815F979A7644C34B286D7E299875DFC312F16393801BDC1325D71F4C78D6EF87651FBDB03FC01ED4CB66E3347A46DF47A39F0BD8AF3C2A6899169CA6345344C7D0BDFEE0DF08FA8C8E32667C9992849E21E5CB87D58131183963DF571DEFF4C7C15E3B3AD3017954887A2CD36D46183FD898
311
1824FB459658FC6A9F346F5368EA5FFD671D83CE54E69C45C8839193D03CA50AD9F08C2224522A41BD764F1FD9BBC719BB9F4D87A8C896D35A93478226994B8405A85586AA3BEEFC86A64EF755372ECA6DFF090F9B295C079CB971D1A42B1652D9DFA240EB56A8120E2EB53B7934FE244B387A6DB3A9F96F76696C3A25B959
311
724EFF64ED3229DC1A803452A06F404304EF54CA047EA59B9D0FFF93E1B53A0E51F8DC96AAB1653FD018531D83103546D9DB029A98277BF40E81FAB6595EBF5AD341E4AC5BD69B2430527B8A88A4BA2968FDAC4AD3F9D7013A1467F9C5297899C097E74BEA090A32973AC0C122B0C2CA2C880255677FAEBF8A1C37D9D45930
311
50C0F97D7775F1C77A96A7699E99A1F5D4DE879DD5236EB7D11AC981EA6B895C8F86DE685D5D07EC0D65B32592F649249F3000CF0AD600DD713F7869EE8CA84366A25937D0AE3860E872EED8C23681504B97766ED5E0A0F1C8A88318D2574A1D31ED05C59B378241B5142A08F4F2C1BF504B0304140006080000335ADC4000
311
0000000000000000000000350000006662782F41304337393630412D303945392D344431322D393145322D4236303730373237303031352F76657274696365732E62696E504B0304140006080800335ADC40F270F1330600000004000000360000006662782F41304337393630412D303945392D344431322D393145322D42
311
36303730373237303031352F747269616E676C65732E62696E636660600000504B0304140006080000335ADC40000000000000000000000000370000006662782F41304337393630412D303945392D344431322D393145322D4236303730373237303031352F617474726962757465732E62696E504B030414000608080033
311
5ADC40D5987DFC8F00000041010000360000006662782F41304337393630412D303945392D344431322D393145322D4236303730373237303031352F6469726563746F72792E786D6C858F410EC2201045AF4266AF15DDB800BA74E7C21B903225242D6328188F2FA5C4183471359997F9FF81E89FF3C41E1816475E02DF1F
311
80A11FC8386F25A438EECEC07A250251FC3803E6F58C12560C4AD840E95E91C151A72936F496F35732D860FE635F62C8F2DA16B505C545B74125BAA2FA9E05D7CC053D063734D5C7665FD55B6B8D15D5E9BFEAFD8490FFA45E504B0304140006080800335ADC404ECE7420FC000000A00100003B0000006662782F41304337
311
393630412D303945392D344431322D393145322D4236303730373237303031352F7265736F75726365732F636F72652E786D6C8D50596E833010BD0A9A7F83CD1208328E046A4FD00B586692580936F252F5F835814AED5F7F3C9EB7689E1EBF7C2DCFEC139DD7D60CC0720A191A65676D6E03C470251D6417C19DB5E1970C
311
3223171C608341F09BB3713D20654D4013126AEC8C0728BDC700997AA6CF005EDD7191B98C2129FC235FA57AC81BE62C4F74D209EE834B01B2FDC8F68270E86D740A3D2F7656F018F57C68F49C6EEAAB4607A2A9277A9ECA33A9BBF79AD4ECAD2563432B528F353B4DE791B555C38BCD2C78D0CB4F46E550069C4194949584
311
9E48D97D30D6B3B6AFBAB4F694F26293FF31C575FEA7296A13AAF288BBDB3C089682BC08C18BADAF345E65A6B9752BBE01504B010214000A0000080000335ADC403DEE336E79000000790000001B00000000000000000000000000000000006175746F6465736B2D64657369676E2D7061636B6167652E786D6C504B010214
311
00140006080800335ADC40D486FD9CA0000000F40000001300000000000000000000000000B20000005B436F6E74656E745F54797065735D2E786D6C504B01021400140006080800335ADC40F30717E1E90000007C010000080000000000000000000000000083010000636F72652E786D6C504B0102140014000608080033
311
5ADC4055019EA25F0000007C000000070000000000000000000000000092020000636E782E786D6C504B01021400140006080800335ADC4064EA520965010000020300000C00000000000000000000000000160300006662782F636F72652E786D6C504B01021400140006080800335ADC40E2E253797D0000009D0000000B
311
00000000000000000000000000A50400006662782F636E782E786D6C504B01021400140006080800335ADC40CD97854F2A0100001402000031000000000000000000000000004B0500006662782F41304337393630412D303945392D344431322D393145322D4236303730373237303031352F636F72652E786D6C504B0102
311
1400140006080800335ADC403D6B4AFE4C010000330300003000000000000000000000000000C40600006662782F41304337393630412D303945392D344431322D393145322D4236303730373237303031352F636E782E786D6C504B01021400140006080800335ADC4030B0372BA405000081100000340000000000000000
311
00000000005E0800006662782F41304337393630412D303945392D344431322D393145322D4236303730373237303031352F6F626A656374732E786D6C504B01021400140006080000335ADC400000000000000000000000003500000000000000000000000000540E00006662782F41304337393630412D303945392D3444
311
31322D393145322D4236303730373237303031352F76657274696365732E62696E504B01021400140006080800335ADC40F270F13306000000040000003600000000000000000000000000A70E00006662782F41304337393630412D303945392D344431322D393145322D4236303730373237303031352F747269616E676C
311
65732E62696E504B01021400140006080000335ADC400000000000000000000000003700000000000000000000000000010F00006662782F41304337393630412D303945392D344431322D393145322D4236303730373237303031352F617474726962757465732E62696E504B01021400140006080800335ADC40D5987DFC
311
8F000000410100003600000000000000000000000000560F00006662782F41304337393630412D303945392D344431322D393145322D4236303730373237303031352F6469726563746F72792E786D6C504B01021400140006080800335ADC404ECE7420FC000000A00100003B000000000000000000000000003910000066
311
62782F41304337393630412D303945392D344431322D393145322D4236303730373237303031352F7265736F75726365732F636F72652E786D6C504B0506000000000E000E00800400008E1100000000
310
504B03040A0000080000335ADC403DEE336E79000000790000001B0000006175746F6465736B2D64657369676E2D7061636B6167652E786D6C3C3F786D6C2076657273696F6E3D22312E302220656E636F64696E673D227574662D3822203F3E3C666F726D6174733E3C666F726D61743E687474703A2F2F736368656D612E
310
6175746F6465736B2E636F6D2F64657369676E2D7061636B6167652F323030393C2F666F726D61743E3C2F666F726D6174733E504B0304140006080800335ADC40D486FD9CA0000000F4000000130000005B436F6E74656E745F54797065735D2E786D6C7D8EC10E82300C865F65E91D8A1E8C310C0EEA1BF002731658846E
310
D98AC1B77784ABF1D8FE5FBFBF75BBCE937A534CCEB38643598122B6FEE978D0B0485F9C41B54DDD7D022595594E1A469170414C76A4D9A4D207E29CF43ECE46F218070CC6BECC4078ACAA135ACF422C856C0E68EA1BF5669944DDD7BCDE7B1F8E415D77AECB980613C2E4AC91FC167A2B244592486606FC29C8FD7F045B9A
310
EF7053A7E60B504B0304140006080800335ADC400B71CC20E90000007C01000008000000636F72652E786D6C8D904D6EC3201085AF82668FCD4F6A3B1626AA23F504BD0002E2A0C46019A87AFCE2C491DA5D57333CDE37337AE2F43DDFD1975DA30B7E005A1140D6EB609C9F06C8E9823B402729D610D22F1B20AF663BC026
310
8314D31AF2B24B3AF8647D2AAA0FC6EEA28AD12640FA5E9A01A2BEDA59552AA7E288B76A51FAA6265BD15757E09C9D41CF25CE9479EEE2EC0AF2C0BAAE39360C37633BE2437B3EE3911082297F6B296BDE3FF8918B7A83A5486E7EEDD7AB55C91A908C5086498359F749694FDB9E77E5D91322EACDFE07CA8BF927949D4F9C
310
EDE73EB1089296431E1F52D45B16A53C822A75CB4DFE00504B0304140006080800335ADC4055019EA25F0000007C00000007000000636E782E786D6C4DCB3B0E80201045D1AD90E915ED2CF8AC45050C11660C8261F98AB1B07AC9C97D42D718D865D3E909258CFD00CCE24AC6E326A164D74DC0B4128928FF326038472BA1
310
3128B1252AC747C6BAB984FC68F0B87FE8960A5C09FE86CFB69FBA01504B0304140006080800335ADC4087FC394E65010000020300000C0000006662782F636F72652E786D6C8D52ED8E8230107C95A6FFA11F7888A6D49C26F704F702152A4784969496F8F8B77C18CE8B318604CACECECEEC8038DCDA060DDAF5B5353966
310
31C5489BC296B5A9721CFC25CA303A48E1ACF57FDA3032AAD5391ECB588ACAD9D02DA5C21AAF8D87AAB1A55E8AAAEFB5C7A868E090E3BEF8D1AD8A55F0D0D15FE34E155755E998C500439F14BD776000CD22E31DCBCBF926C85C972284BA5CD0BA04B5FA526B87E5866759BA4B79941EB7C768B33D9DA223A53462C9C796F1
310
F4F32BD925828C64297CDDDEDD154E2BAF4B2C39653CA269C4B36FC6F66CBB4F3278DD532AC8D8FE400A5DF92629D4C6277CB13BD37A2C191899807FDB42441EF56A003F440A3286088F29E1C7A0211008D9AB7373DFE30AA54117DEBA0D20A50D2B34A8266850A568BA049951983C0D80CD9ECEE12FE6BC9E011F50990AAC
310
290FC773F0A3BA985597283AEDA2C1DF90B1AE55CD6A6EB6B8DE57A1A7F4C236D6BDC326CBAA6409938C7FAFFC05504B0304140006080800335ADC4017BA1F337F0000009D0000000B0000006662782F636E782E786D6C4DCCDD0A832018C6F15B91F7DCE53E6A066AF8E6761FB12CA4D2E174ECF257A3831D3DF0E3E12F9A
310
CF3293B78D2F17BC84E38101B1FE117AE74709390D940369948821A4BF1B10DF2D56C2C6A0C418437EEED4DBA1CB735A75767EDA112B76D27763687D2E35BD949A51E41CA9C11691553756B7572894287EA575B7B0FA02504B0304140006080800335ADC407F385E382B01000014020000310000006662782F423630324146
310
44442D393335412D343541302D423838422D4442434242303645303943372F636F72652E786D6C8D514B6EC32014BC8AC52A5D60831D3B768489E2A43D412F4080B82831587CAA1CBF503B52BBCB8607C3CCBCD17BE4F098EED9B7B44E19DD039C239049CD8D507AEC41F057D882EC408935C6FFA1814CB349F620C18092D1
310
9A30AF1037DA4BED23AA8D902BC89C931E64FC1E2F3D70FC4B4E2C67C14786BBE533E33736CA1CE7F13BF22871DEC600D9D2249D800E0D2A8F1FE733ECAAFA08B7F511C1A16D07781E4EC3809A77D49D76A458849484A0C42A5722C6515725EDAB26494C8957D3333EB7927929002D112E216A60D97E62BCC7BB7DD5C6E71E
310
215224FA3F5198C58BA2A0B4AFCA35EE22738062522C1F9408132EF76718F9988DF559EAB77192BF018A7284ABAEAEBB8E140B350E207A36DBD5D37963E38037B74B6457AB71B3A5A4483B8AE57781B1A67DD21F504B0304140006080800335ADC405BCC85E95301000033030000300000006662782F42363032414644442D
310
393335412D343541302D423838422D4442434242303645303943372F636E782E786D6CBD93CD6EC32010845F0571F76F22D78A30917AE813F4D02B814D4A83C1E2A76ADEBE4B42D25C72A854F582ECD96166F5C966DBAFD9904FF0413B3BD1AE6E29012B9DD2F630D114F7D548C99633EF5CBCB35162C50C13CD32E5ECE05D
310
5A8AA4602F9289A81A6D8F45F4105CF21202CAF926314E0A830160AB8422CC3B500A14B919F1690F1E5741717722F11DC8CBF31B71BB0F9031B026A770D6E40ECEF2599AEE4C94482342986890EF308B5AA4E8148463AD441475575FBB1EECF49344F2856B65F29AE4F289E693F2B2518D1C598343CE42F448AF98E26901CA
310
C5B2182D4544C8CDD978F17096B48DC3BA783582F7E85EF5C33862D879C659D4331487F4202228CAFBB6EBAB76A8FAF1B5EB36DDD36635E2EBA66D5993ED9CED9C33E512C680770B91CE46B091F28E3579FC085FF111A53DB276FEF40B9008A0B45EE8DC32FE924F37ACD6EB7FE4D39CBF6FC4E5F12FE0DF504B0304140006
310
080800335ADC40CCD187C1640700009A1B0000340000006662782F42363032414644442D393335412D343541302D423838422D4442434242303645303943372F6F626A656374732E786D6CED59DD73A33610FF5718FAD23E181BDBC9251D42C7712E379E36BD9B73EFA60F9E616490891A211849E4E2FEF55D7D80819804F7
310
D2B73ED8809056BBBFFDD412FCF29451E71173417276E5FADEC475308BF384B0F4CA2DE56E74E13ABF8401CF73D998E63A0C65F8CA55C36E18A43C2F0B3B94E01D2AA9EC8CDE5EFFE9881833EC3A3145425CB922BEC719F25029F3048B072F411279E9EEC9F33D33B14D36E5A8B8EF102D10C74C02A730CE808A6398F2DB8F
310
13771C0663F53E0CD4BF9D351B346BDE3F6BACA56E7349989088C5CF58EA90990D6269E6CF6FDE4FCF2E4767F3F96C343F9FFAA3EBDBEB9B91FF6E36599E2F97978BF797C0DE36CFA99529C1056609E86FEF867E30566F6AD12D02C7B88E73C670AC8104A8B4585D82040BD8AA01DFA4FDE82B891AAFB5848DE7B97A6F5968
310
0CCFDA54FA660D03A2451704B1DB551257D7A67CF9F62F105C0C314A2EB0046E85E4A05D0B0F07AF70C3493036A361B03DE882082743127382A843C996230E4A81A96A4A189805968C720E0EA41C2581D69C79DDB62DF0CCD75DE71897BB9252E5196EA81D2B02F7C35268CEC8DF981FB86F22033C81B42561F2C27229F705
310
76C3CB60AC07C3405D6653FBD200E9EC284A8546C4BCED08BA54AEBFBA71C35F6FB74F6B150E8E6F5EF0BCC05C2AA3537AD47C8121DBAB42C96EEB0FD29C5A00C21850EDCA03289F01F9DF217A1C5801BD71F2347F9ADBB99223267639CF4037CEC4194DE06FE2F8FA5FDD37EE8271BDB8ADBD3E3CC14D155417DF8F675B06
310
8D95E5BF0167183C82C1E77C665FAD6344C19EEF08038094913834872108EDBBED931BAE207042A0875588863E880CEC3EC26D30B6640E5AA9DCCB7A1D0344ED1EB3214A02D8B445021B3D7AFA00D98393F8A0A6A6887DF09EBD89B92E6ED6BFAE4BBE4331BEB33E7D837784110959F338432DCC5B123DE0FDB79C2720E873
310
BCD74DBC33BB9500B415E60AF8B402413D1C766E6D10C3BA3457E1267865071042E5EA06FD3B22624C2962382FAB7DEBE8A60CB5F6785B33B8E1D4403C9B764C98E347A2AA0A709AC38C16A390F7634E0A05A21B7E3092D541D3EB91EECBEA77B0C87A7ECFAC1583D0CB10FD4307AD2338B42CBB42DA02510BBC3D84F338A7
310
398FB6FBC8443A176A0960A3ED2D5F5B4421D61B25292AE041DAEFAA90921A69A384EC76A580B87A84C5AFAB65D31C26DECC3F739AFF1D679C43B405DF45DCFA5D678F886428C5D10E257DDB3577AB690B4DB28734C73B0A72914722F71192D124C1E929D09C44FCF24DA9A7341782302C205F1D05BF89C6C4834062B459B1
310
ACB4DA019A8828C312D1531050647AC0D56947D7B831940EAFF3585BEF4B1A6B12FD8F2C8223A82573161128452187BCCAB8EF9D410C69A36B50EEE00BD656D1D662D0124A88781F7DC324BD97A7A06EC8F7E01EC391A494515EA018CC7A00D967BEA294DAE17D8BE207953FA2B8A46F652002D35D44282DB3087E84C1C963
310
886BD781E945141AC44DEC933883A20CC9920FD9E4FC6CF26C1F533374436063A31DA110B6A30C153DA8B702A2AE479C1A7C4BBD47A9DB322B2294E5251B6428DEACEB4D967C57AD8AEC407E55A908656345D8120C03C2649D55AB980DA6AE032BB8910E54FB48A0ACA0E614F64AE2F16B6FD2947B37E0D64FDF76830C0ABF
310
1EED3523EABC82C1F2D82A0CC43724E37B375CEBEBE81AEAEF042787545FD59ACD0A10105391BCE4C4AAE8CB0ACA1B5BA3B9E11D9262F3C164DDEAFA65E541F72318C31AA85DEA852B0574869944AA32B95337F4338210DCA261C6572AA79E42659124BA6A44F496F4A9B35546B436CD8857DC639667F0631BC2625A267883
310
12F110DD491AAD8962DD4AE965A4C2F845013F7E5877E0819101227D52051EFED6596B4797AA5C3A4A44DE97D996210241B0255A6A74E3152CB51AA9B45C5FD59902EA2E3030ABE2F9FF278B663BE2FF93456A0DE3BB4E16D7FBDFD0BED91769A4F358D9F549C7803A3F292A6F710CD06D879A6A9D454C32B7F25B678A2028
310
56517E703556050D43B08FE37F9DB5FBB2A0D9AEC3FF6959DB7F56719C94555A935597EA48E5BA6AE6B077B7FE7CB178371DF913FF7C349F2E6E478BD9CDC568797EFBEEFDE5FBF3D9EDECBA46533B6A18D4C14CE72E783641AD1A564F1603E8CA8A9C92044EF389936288F912CEF403DAE73CC3029267B3D99DD8A6FC80D5
310
8FA6CF29D196E28A937B040D622A20AD0346652CDBE3CE0FD09A9470D0BE72A169E43DC09FB54AD781CC73E542AB4092180B6F0B6D26D5D0D3C421E5EADC6F89013E88A52A259A45F573BD4A61D30AFFF5942169C0CAD5EA6140E15640F7ABD5A1D0BC599EE29304AFD8719084DB6D29A15A33B21C066A61F43607F51BD928
310
610F76EB2770DD97C5F23D3DA785C8A04F062F1A81A13A9288A7BADFAD18B32C2D6E3E8DA1CFE6AC3E3A052D53D0E5704A238EC1984B555081158155589A059260AACB9F379F780E9F7832475745CE8F4F17E73F6D967996E5CC0C6D16702A4BE04391B3BE87CF3EC9068A07AC9AEB62339DF8D38D6E6ADB3E7BB445027BAA
310
2A8281AA985082744C0EECF25983CAB62FC74A159DE9AB1BC706516806183B7AD6E3351FB91CF021F53945798CF6F34ADA17FBDA633D156C8243473AFC07504B0304140006080000335ADC40000000000000000000000000350000006662782F42363032414644442D393335412D343541302D423838422D44424342423036
310
45303943372F76657274696365732E62696E504B0304140006080800335ADC40F270F1330600000004000000360000006662782F42363032414644442D393335412D343541302D423838422D4442434242303645303943372F747269616E676C65732E62696E636660600000504B0304140006080000335ADC400000000000
310
00000000000000370000006662782F42363032414644442D393335412D343541302D423838422D4442434242303645303943372F617474726962757465732E62696E504B0304140006080800335ADC40D5987DFC8F00000041010000360000006662782F42363032414644442D393335412D343541302D423838422D444243
310
4242303645303943372F6469726563746F72792E786D6C858F410EC2201045AF4266AF15DDB800BA74E7C21B903225242D6328188F2FA5C4183471359997F9FF81E89FF3C41E1816475E02DF1F80A11FC8386F25A438EECEC07A250251FC3803E6F58C12560C4AD840E95E91C151A72936F496F35732D860FE635F62C8F2DA
310
16B505C545B74125BAA2FA9E05D7CC053D063734D5C7665FD55B6B8D15D5E9BFEAFD8490FFA45E504B0304140006080800335ADC40639B9111FB000000A00100003B0000006662782F42363032414644442D393335412D343541302D423838422D4442434242303645303943372F7265736F75726365732F636F72652E786D
310
6C8D504B6E833010BD0A9ABDC1362910641C95483D412F609909B5126CE44FD5E3D7042AB5BB6E3C9EF7D13C3D71F95A1EC527FA609C1D8095140AB4DA4DC6CE03A478231D141729BC73F1970C0AAB161C6083418AD9BBB41E907636A28D19B56EC20354216084423FF26780A03F7051A54A312BC2BD5C95BEAB194B56663A
310
EBA408D1E700C57E647B417A0C2E798D41543B2B454A663A3466CA37CDCDA00779E25DD79C1B469AB11DC9A9BD5EC9482925AC7E69196F5EDFEA732DAACD2C4534CB4F46ED51459C4072CA38A10DE1DD3B633D6BFBBACB6B4FA9A836F91F535AA77F9A92B1B1E647DCDD1640B21CE44948516D7DE5F12C33CFAD5BF90D504B
310
010214000A0000080000335ADC403DEE336E79000000790000001B00000000000000000000000000000000006175746F6465736B2D64657369676E2D7061636B6167652E786D6C504B01021400140006080800335ADC40D486FD9CA0000000F40000001300000000000000000000000000B20000005B436F6E74656E745F54
310
797065735D2E786D6C504B01021400140006080800335ADC400B71CC20E90000007C010000080000000000000000000000000083010000636F72652E786D6C504B01021400140006080800335ADC4055019EA25F0000007C000000070000000000000000000000000092020000636E782E786D6C504B010214001400060808
310
00335ADC4087FC394E65010000020300000C00000000000000000000000000160300006662782F636F72652E786D6C504B01021400140006080800335ADC4017BA1F337F0000009D0000000B00000000000000000000000000A50400006662782F636E782E786D6C504B01021400140006080800335ADC407F385E382B0100
310
001402000031000000000000000000000000004D0500006662782F42363032414644442D393335412D343541302D423838422D4442434242303645303943372F636F72652E786D6C504B01021400140006080800335ADC405BCC85E953010000330300003000000000000000000000000000C70600006662782F4236303241
310
4644442D393335412D343541302D423838422D4442434242303645303943372F636E782E786D6C504B01021400140006080800335ADC40CCD187C1640700009A1B00003400000000000000000000000000680800006662782F42363032414644442D393335412D343541302D423838422D4442434242303645303943372F6F
310
626A656374732E786D6C504B01021400140006080000335ADC4000000000000000000000000035000000000000000000000000001E1000006662782F42363032414644442D393335412D343541302D423838422D4442434242303645303943372F76657274696365732E62696E504B01021400140006080800335ADC40F270
310
F13306000000040000003600000000000000000000000000711000006662782F42363032414644442D393335412D343541302D423838422D4442434242303645303943372F747269616E676C65732E62696E504B01021400140006080000335ADC400000000000000000000000003700000000000000000000000000CB1000
310
006662782F42363032414644442D393335412D343541302D423838422D4442434242303645303943372F617474726962757465732E62696E504B01021400140006080800335ADC40D5987DFC8F000000410100003600000000000000000000000000201100006662782F42363032414644442D393335412D343541302D4238
310
38422D4442434242303645303943372F6469726563746F72792E786D6C504B01021400140006080800335ADC40639B9111FB000000A00100003B00000000000000000000000000031200006662782F42363032414644442D393335412D343541302D423838422D4442434242303645303943372F7265736F75726365732F63
310
6F72652E786D6C504B0506000000000E000E0080040000571300000000
  0
XRECORD
  5
17
102
{ACAD_REACTORS
330
12
102
}
330
12
100
AcDbXrecord
280
     1
270
     1
271
     1
  0
XRECORD
  5
16
102
{ACAD_REACTORS
330
12
102
}
330
12
100
AcDbXrecord
280
     1
270
     1
271
     1
  0
XRECORD
  5
18
102
{ACAD_REACTORS
330
12
102
}
330
12
100
AcDbXrecord
280
     1
270
     1
271
     1
  0
XRECORD
  5
15
102
{ACAD_REACTORS
330
12
102
}
330
12
100
AcDbXrecord
280
     1
270
     1
271
     1
  0
XRECORD
  5
24
102
{ACAD_REACTORS
330
22
102
}
330
22
100
AcDbXrecord
280
     1
270
     1
271
     1
  0
XRECORD
  5
23
102
{ACAD_REACTORS
330
22
102
}
330
22
100
AcDbXrecord
280
     1
270
     1
271
     1
  0
XRECORD
  5
BA
102
{ACAD_REACTORS
330
22
102
}
330
22
100
AcDbXrecord
280
     1
 70
     1
 90
1959938040
 71
     1
  1
73310564-71B5-4282-8811-ED2F41A5C236
311
504B03040A0000080000325ADC403DEE336E79000000790000001B0000006175746F6465736B2D64657369676E2D7061636B6167652E786D6C3C3F786D6C2076657273696F6E3D22312E302220656E636F64696E673D227574662D3822203F3E3C666F726D6174733E3C666F726D61743E687474703A2F2F736368656D612E
311
6175746F6465736B2E636F6D2F64657369676E2D7061636B6167652F323030393C2F666F726D61743E3C2F666F726D6174733E504B0304140006080800325ADC40D486FD9CA0000000F4000000130000005B436F6E74656E745F54797065735D2E786D6C7D8EC10E82300C865F65E91D8A1E8C310C0EEA1BF002731658846E
311
D98AC1B77784ABF1D8FE5FBFBF75BBCE937A534CCEB38643598122B6FEE978D0B0485F9C41B54DDD7D022595594E1A469170414C76A4D9A4D207E29CF43ECE46F218070CC6BECC4078ACAA135ACF422C856C0E68EA1BF5669944DDD7BCDE7B1F8E415D77AECB980613C2E4AC91FC167A2B244592486606FC29C8FD7F045B9A
311
EF7053A7E60B504B0304140006080800325ADC40AE15DDB6EA0000007C01000008000000636F72652E786D6C8D904D6EC3201085AF82668F6DF06F2D4C64D7C9097A0184898B128365A0EAF18B13476A775DCDF078DFCCE8B1D3F772475F6A73DA9A0E4892015246DA499BB983E0AFB80174E26CB3D6FFB2013262511DEC32
311
70366F36AC8724ADF1CAF8A81A3BA94314CE290F48DE63D381939F6A1189083E3ADC2D5985BC895925E4D54538043DA1E7123DC579FAAAD5067CEC2F437D2E4B7CE9FB12170D1D714F870AE7E579A8DEDFC6A22E0B96EE30675E2FAFFD7253C2AB0938CD08C5598569F341484BEA36AFE3B3CD3296EEF63F5058A77F42411B
311
9FD3E3DC27E6809378C8E383B374CF22964750B1EEB9F11F504B0304140006080800325ADC4055019EA25F0000007C00000007000000636E782E786D6C4DCB3B0E80201045D1AD90E915ED2CF8AC45050C11660C8261F98AB1B07AC9C97D42D718D865D3E909258CFD00CCE24AC6E326A164D74DC0B4128928FF326038472B
311
A13128B1252AC747C6BAB984FC68F0B87FE8960A5C09FE86CFB69FBA01504B0304140006080800325ADC408865787867010000020300000C0000006662782F636F72652E786D6C8D52ED8E8230107C95A6FF4B01413C536AF0D427B817A8A57244684969898F7FCB87F1BC18732181B2B3B3333BC076B7B64183B27D6D748E
311
A320C4486969CA5A5739F6EE423618ED38B3C6B85F6D1869D1AA1C8F65CC59658DEF969234DA29EDA0AA4DA996A2E87BE530920D1C72DCCB6FD58A4078071DFD35E884BC8A4A05510030F471D63B0B06D02C32DE31BF9C6F8CCE75CEBCAFCB05AD4B50AB2FB5B2981F8AD33E3BA6293915454A924D7C2045BC5F93557ADCAF
311
3F3F0E4996268C8E64CE5CDDDEDD49AB845325E67118C5245C9378F31545DB28DBAE3278DD8621A363FB13C977E53F49BED66E152F76675A8F79044626E0CFB6109143BD18C00FE58C8E21C2634AF8396808044276E2DCDCF7B8426950D2199B00521AFF8006D17805AA219A2E466714264F0360B39773E23773DECF800F28
311
7405D68483E3D9BB519DCDAA4B149DB2647037A48D6D45F330375B7CDC1F422FE9D234C6FE874D9755E912261DFF5EFE03504B0304140006080800325ADC40E1BAFF517D0000009D0000000B0000006662782F636E782E786D6C4DCCD10A83201886E15B91FFDC95E8B2408D44BA8F581632D3703A76F9ABD1C18E3E78F878
311
45FFD93C7ADBF472314820B71A900D8F38BBB04A2879C12DA05E891463FEBB010AD366259C0C4AAC2996FDA2D92E53F1F950EFC2F342ADEF7CD07AC4A6610C33436BAC79DBE18136C65042BA9153A894A87EA563CFB0FA02504B0304140006080800325ADC402E9C49982B01000014020000310000006662782F4242353741
311
4242462D443634342D344433302D423738392D4133364444333131394637332F636F72652E786D6C8D51CB6E833010FC15E4537A3060204022E32808E50BFA03C476A89560233FAA7C7ED78548ED2D17AF3D9E991DEDD2D3737E24DFD23A657487489AA3446A6E84D2538782BFE116252746AD31FE0F0D257A9C6587228C18
311
9DAC09CB0671A3BDD41E506D84DCC0D139E951C21F70E990E35F721ED3317860B87BBA8CFC3E4E3225297C038F51E72D0448D626F144ACEFF7CDB9EF2F78A8AB0A574399E3BE690FF85CD6C3501272B83425CD5621A32128B1C9958038EAA6A47DD7248A19F56A7EC5E7568E5E0AC48A9C1438AF71D17E127224CDB16CE079
311
CC739A45FA3F5158C49BA2A0B42F8B2DEE2A7388119AAD1F8C0A13AE8F5718F95C8CF549ECB773927F2096A710AB6ACB434DB3950A0300CFBADA3C9D371606BCBB5F814DF6AB715D319AC51D41F95D20D4B84FF603504B0304140006080800325ADC40F1A2654B4C01000033030000300000006662782F4242353741424246
311
2D443634342D344433302D423738392D4133364444333131394637332F636E782E786D6CD593CD6EC23010845FC5F23D3F0604083946EAA14FD043AF8EBD5017C78EFC5395B7EF1A0CE5C2A1C75EAC64F6F3CC6A94F0FDF764C9178468BC1B286B7B4AC029AF8D3B0E34A743B3A5642F78F03E3D60943839C1408B4C053F06
311
9FE72A6938C86C13AAD6B8531503449F83828872B949AC57D2A201B826A308D3085A832677109F0E10701514C733491F405E5FDE891F3F41A5C8BBE222785732042F674D7A80285156C638D0A83E6092ADCCC96B88A756CB245BD6DEB29EECF4EB44CA855B640E8694F08196938ABA518B3DF20E8782C714B0BD0AA5F30C54
311
C879B646C984257717F0CA089E8D4BEB55650D161F9066EBE56A85669799E0C94C5009154026D0542C7AB668FA75B3D8BE31B6639BDD7283AFBBBEE75DC1051FBDB7F512DA40F03351DE2570890AC6BB327E565FE5883601BBF6E1FC8722B1809A7A6DE7EEF19FFBE92EDF37D615F02F103F504B0304140006080800325ADC
311
408128C369A405000080100000340000006662782F42423537414242462D443634342D344433302D423738392D4133364444333131394637332F6F626A656374732E786D6CAD57DB6EDB3810FD1541FBB2FBE08B6C2775168A8AC46E0AA3485BD468B10F060C4AA2146D285120A9D4D9AFDF43919225C74EBC8BBE5816351C
311
CE9C3973A1FF7E9733E7890A99F1E2DAF58663D7A145C4E3AC48AFDD4A2583B9EBBC0F7CC1B9EA88B94E41727AEDEA6537F053C1ABD22EC53421155307AB77B77F3932A205759D881129AF5D193DD09C0C49A5784CE5E330268A0CD36437F48646B0AF3615A47C38505A12410B054BB15E408B638CF2FAAF637714F823FD3D
311
F0F5AF959A9E961AD5FEF4CFCF0AA94811BD38EC40CDD49B2D3F4C2EAE0617B3D97430BB9C7883DBBBDBE5C07B371D2F2E178BAB9B0F5738582A014DD612411337F8086C4416F923F329F0ABAC50D38915B1011A09FA94E948B9C1C4F1FC919169BDB34E1E333FE24541A31A2BA051FB6755C7B4A4458C986754C2B20E42E3
311
FEABA771EC7C9EEA777B6477F93C04BA3B3A8A1ADB9B67D7521EFE0D17E4390C12926A061A2CADA386ABE33DC221E7CC7ECBA4931345454698C3B25010F1EC0610D52281DF53A3992C7436680FDC0051309FFB74411ABDCDF363562615639AC66E5067C116B94295AC2DCBFEA1626F7D1719D884586936CCAD43EAB9A46E70
311
6528323F609301D24918491172B8A9774E27078E2E749EAE966EF0E92EDCAD75EE1E3FBC14BCA44269FA805A4DE09AA746C9DAE49D1539BDC13D30650FCA3720FF19A9BE37057113D96EB69BD9539420854CB8C8111B67EC0CC6F8193B5EFDABFF77FEF9A376733F7AA7F044B03554BF00CFBE0FDD5876E00CFC27109E8BA9
311
756D1D1186B2719F15004893C4611C4BA8C349B8738315AA1CAA32761116787019E63EE1AF3FB26A5028EA933ACF02581E94C5330A3460AB1909330CF9AD81FB38BD2867F5C156EC14BC17BF84AE37CBF5A775251212D17B9BD34B9A6445A6D0E2F6BCE91AD4C3BCE7D1237DFEC9450C475FE2BDEEE29DDBA324D0D6986BE0
311
D3A6A6EB97FDC9BD0322EC4BB92E37FE1B27C009DD583BFAEF331951C6484179D59CFB6AFF40DB3010EB64D74C6E1BCCBEB18034E6CB410EA24947222B35886DB76A8BE6F08477DF579FC148C8331E12B6170AF7A537E28C8B6DF8BC3555E928D23FFAD4B6108CB416B0BDCE9126FD2DE6DB384B924AA2061E81F5C76AD10D
311
9DAE0AA8108D56932C33B88FDC22C272B6D18B662D081A292FB619DA26D2EEE8015DFD40D412A05678CA624959B2CD18ABF26D923134A36D4ECA1370FC7FFBC32A2FB724E755A14EE8EE998EE6D0B7BD475EF993A8E8C10DD6F573708BD21BD3781FE69EB06E2547B0EA85F6DD74EA8D2F2E678377DEEDC56036994F06F3B9
311
E70D3E2C277733EFE66231995E367132CA03BFE934DD844694D0D9FC4A64367CDF57481F5B03DCE09E28B9F968B2B3797E5F0D310AFB23EC41BB6C37DEC44F18FB68FCB682BDE45145ABBC6434A785223A85EEF51FF68D60CCE81963D6573949E9195ABE7C5C1F38839533F67DD5E94E7F1EECB5AB0B9D904795A8872A0F0B
311
92B1838DA941725816A9C5AF8949FB347DA679D56F3630184C2567598C32183B29E53955288667F420915309EA7547FAD85E3DCED8FD6406444542461B4B1E086664269116A05615A9FEBAF31B663A3D565DBBE8B6C347FCD84AE13AE0CCB58B195D651195C310FD594F42B57270A93BC863EE2745CA306A9B4DED7BBB4B63
311
D3EBC8ADC839E393F5CB5470EB00CA4889B101F310A2531B13F8B56DF67BF49F1C6FCC7188C2DFB052AD2FFB85D699FA18A4A871CA5E1630C33CDAA37748D4D7DDF286B54C0F91B32E59AF92C0681D2822D2FAA2A0EDB326DD2CBF8E30A038AB2F4EC9AA14B13C5FD3405090B9D2090E16811556674914A8BAF873F355705C
311
6473E72E03059CDF77F3CB3F360B9EE7BC304B9B1B7B1D76D60FB8DCC61B1407AA6F257233197B934D7D1BB017946D48241D92583E62019115590B742FFCE0A5B932A20F990FADDC4887E280A1ABA5631BDB0C4A2D5DBAB5558383B9A3A00E7248DF2875C67405CA572F04A35A1426088CF2C1BF504B030414000608000032
311
5ADC40000000000000000000000000350000006662782F42423537414242462D443634342D344433302D423738392D4133364444333131394637332F76657274696365732E62696E504B0304140006080800325ADC40F270F1330600000004000000360000006662782F42423537414242462D443634342D344433302D4237
311
38392D4133364444333131394637332F747269616E676C65732E62696E636660600000504B0304140006080000325ADC40000000000000000000000000370000006662782F42423537414242462D443634342D344433302D423738392D4133364444333131394637332F617474726962757465732E62696E504B0304140006
311
080800325ADC40D5987DFC8F00000041010000360000006662782F42423537414242462D443634342D344433302D423738392D4133364444333131394637332F6469726563746F72792E786D6C858F410EC2201045AF4266AF15DDB800BA74E7C21B903225242D6328188F2FA5C4183471359997F9FF81E89FF3C41E181647
311
5E02DF1F80A11FC8386F25A438EECEC07A250251FC3803E6F58C12560C4AD840E95E91C151A72936F496F35732D860FE635F62C8F2DA16B505C545B74125BAA2FA9E05D7CC053D063734D5C7665FD55B6B8D15D5E9BFEAFD8490FFA45E504B0304140006080800325ADC40BDBEF32EFD000000A00100003B0000006662782F
311
42423537414242462D443634342D344433302D423738392D4133364444333131394637332F7265736F75726365732F636F72652E786D6C8D50596E833010BD0A9A7F03664D23E3084A72825EC03293C44AB09197AAC7AF09546AFFFAE3F1BC45F3F4D8E96B7E269F689D32BA039AE690A0966652FAD641F0577280E4C49935
311
C6FF9241A2C58C1DAC307076B3262C3B248DF6A87D44B59970078573E82191CFF8E9C0C93BCE2215C147857BA48B900F71C394A6918E3ACE9CB73140B21D595FE0169D0956A263D9C67216829A768D9AE24D755568818FFD6568CF75452E7D5F93EA508CA42F868694F57968DEDFC6AAAD2B96AD66CEBC9A7F324A8BC2E304
311
BCC86941F28614870F4A8FB43D966D5C8F79CEB255FEC71496E99FA6A0B42F8B3DEE6673C0690CF22238CBD6BEE2789519E7DA2DFF06504B010214000A0000080000325ADC403DEE336E79000000790000001B00000000000000000000000000000000006175746F6465736B2D64657369676E2D7061636B6167652E786D6C
311
504B01021400140006080800325ADC40D486FD9CA0000000F40000001300000000000000000000000000B20000005B436F6E74656E745F54797065735D2E786D6C504B01021400140006080800325ADC40AE15DDB6EA0000007C010000080000000000000000000000000083010000636F72652E786D6C504B010214001400
311
06080800325ADC4055019EA25F0000007C000000070000000000000000000000000093020000636E782E786D6C504B01021400140006080800325ADC408865787867010000020300000C00000000000000000000000000170300006662782F636F72652E786D6C504B01021400140006080800325ADC40E1BAFF517D000000
311
9D0000000B00000000000000000000000000A80400006662782F636E782E786D6C504B01021400140006080800325ADC402E9C49982B0100001402000031000000000000000000000000004E0500006662782F42423537414242462D443634342D344433302D423738392D4133364444333131394637332F636F72652E786D
311
6C504B01021400140006080800325ADC40F1A2654B4C010000330300003000000000000000000000000000C80600006662782F42423537414242462D443634342D344433302D423738392D4133364444333131394637332F636E782E786D6C504B01021400140006080800325ADC408128C369A40500008010000034000000
311
00000000000000000000620800006662782F42423537414242462D443634342D344433302D423738392D4133364444333131394637332F6F626A656374732E786D6C504B01021400140006080000325ADC400000000000000000000000003500000000000000000000000000580E00006662782F42423537414242462D4436
311
34342D344433302D423738392D4133364444333131394637332F76657274696365732E62696E504B01021400140006080800325ADC40F270F13306000000040000003600000000000000000000000000AB0E00006662782F42423537414242462D443634342D344433302D423738392D4133364444333131394637332F7472
311
69616E676C65732E62696E504B01021400140006080000325ADC400000000000000000000000003700000000000000000000000000050F00006662782F42423537414242462D443634342D344433302D423738392D4133364444333131394637332F617474726962757465732E62696E504B01021400140006080800325ADC
311
40D5987DFC8F0000004101000036000000000000000000000000005A0F00006662782F42423537414242462D443634342D344433302D423738392D4133364444333131394637332F6469726563746F72792E786D6C504B01021400140006080800325ADC40BDBEF32EFD000000A00100003B00000000000000000000000000
311
3D1000006662782F42423537414242462D443634342D344433302D423738392D4133364444333131394637332F7265736F75726365732F636F72652E786D6C504B0506000000000E000E0080040000931100000000
310
504B03040A0000080000325ADC403DEE336E79000000790000001B0000006175746F6465736B2D64657369676E2D7061636B6167652E786D6C3C3F786D6C2076657273696F6E3D22312E302220656E636F64696E673D227574662D3822203F3E3C666F726D6174733E3C666F726D61743E687474703A2F2F736368656D612E
310
6175746F6465736B2E636F6D2F64657369676E2D7061636B6167652F323030393C2F666F726D61743E3C2F666F726D6174733E504B0304140006080800325ADC40D486FD9CA0000000F4000000130000005B436F6E74656E745F54797065735D2E786D6C7D8EC10E82300C865F65E91D8A1E8C310C0EEA1BF002731658846E
310
D98AC1B77784ABF1D8FE5FBFBF75BBCE937A534CCEB38643598122B6FEE978D0B0485F9C41B54DDD7D022595594E1A469170414C76A4D9A4D207E29CF43ECE46F218070CC6BECC4078ACAA135ACF422C856C0E68EA1BF5669944DDD7BCDE7B1F8E415D77AECB980613C2E4AC91FC167A2B244592486606FC29C8FD7F045B9A
310
EF7053A7E60B504B0304140006080800325ADC40A39A53B1E80000007C01000008000000636F72652E786D6C8D50416EC32010FC0ADA3B36E0D4712C4C14D7CD0BFA0104C44189C13250F5F9C58923B5B79E767676667735FCF83DDDD1975982F5AE035A1040C629AFAD1B3B48F1821B4047C117EFE32F19202727D3C14A83
310
E0E3E2D3BC51CABB685CCCACF3DA6CA40CC14440EA9E4107415DCD240B996256845B314B7593A329E80B65734A56A3E711ABF33E7BB1660131EC9AD3A91FDE717FA829DEBD9DCFB86F6846D507A3A46ED8611878B99A058F767ADD578B91D168108C5086498D59F349694BF76DB5CF6D4B082F57F91F539AF53F4DC9BA58B1
310
EDDDA72D80A0F991C740F072CD22974750B9AEB9891F504B0304140006080800325ADC4055019EA25F0000007C00000007000000636E782E786D6C4DCB3B0E80201045D1AD90E915ED2CF8AC45050C11660C8261F98AB1B07AC9C97D42D718D865D3E909258CFD00CCE24AC6E326A164D74DC0B4128928FF326038472BA131
310
28B1252AC747C6BAB984FC68F0B87FE8960A5C09FE86CFB69FBA01504B0304140006080800325ADC401B456AF665010000020300000C0000006662782F636F72652E786D6C8D52ED8E8230107C95A6FFA1143D45536AF4389FE05EA042E51AA125FD203EFE2D1FC6F3628C2129CBCECEEEEC50B6BBB60DEAA575CAE81CD338
310
C148EAD2544AD7390EFE1C6518ED38B3C6F83F651869D1CA1C0F69CC596D4DE8E65469B497DA43569B4ACE49E19CF418950D043976E58F6C452C82870A77893B515E442D631A030C759C396F41009A860C27E6E7D3959129CF5908AA9A5155C1347556D2625E2CB3FDFE507C4687CD8A46CB8FE3313A6414A2C5574A935596
310
6E8A829181CC9957ED4D5D69A5F0B2C23C4D681A25AB28CDBE29DDD2F576B186CF6D923032943F904257BD490A4AFB453ACB9D680E730A4246E0DFB66091474EF4A08770460613E1353AFC68341802267B716A6E7B5C20D5CBD21BBB04A432E10EF5A20912A626687C189950E83C3680CD9EF6495FF479DD037EA0D0354813
310
1EC253F0C374364D9DADE8A48D7A7F45DAD85634777193C4FB791FF4945E9AC6D877D8645E95CC6692E1F6F25F504B0304140006080800325ADC402960CE747D0000009D0000000B0000006662782F636E782E786D6C4DCCD10A83201805E05791FFDEA56D840333D4EA3D6259C84CC3E9D8E3CF4617BB39073E0E87779FCD
310
A1B7892F1B7C0BF4420019FF08B3F56B0B392D9801EA048F21A4BF19203F6DA6858341F03586BC9F349B65CA2E1575D63F4F1CA51EB46C7ADCABFB806F57C63023A42E215543A9AA474DA112BCFA3D953E8EC517504B0304140006080800325ADC40DD47E8C22901000014020000310000006662782F46414345434136442D
310
444239452D343338382D383030322D3830414236313142324643312F636F72652E786D6C8D51CB6EC32010FC158B537AB00DD872EC0813E5F905FD0162488A1283C5A3CAE777A91DA9BDE5C2C2EECCECB0CBB6CFF1917D2BE7B5353D22054699328395DADC7A14C3356F51B6E5CC591BFEC05066C4A87A94D288B39BB3715A
310
5283354199005963A55A92C27B1550363CE0D2233F7CA95114220640F87B3189E12E6EAA20059401C7990F0E0C64739374227EDE1D4E875D73CC8FFBEE94D755DBE62DC6148EDDBE21644FCF07C2CA99C8598C5A2E742DC18EBE6AE5DE154964CE821E5FF607A7445012718A09CD7193D3F693900D596FAA353C3718B332C1
310
FF91E224DF24456D424517BB33CD230EBF990B9C491B2F8F9719F59CAC0B59EAB7F26AF8401C17985475D7D08E95331406009A4DBD68FA601D0C7875BF00BA5A849B9AB332ED08C2EF0221A67DF21F504B0304140006080800325ADC409705AA5C5401000033030000300000006662782F46414345434136442D444239452D
310
343338382D383030322D3830414236313142324643312F636E782E786D6CBD93CD6EC32010845F0571F76F22C78A30917AE813F4D02B864D4283C1025C356FDF2521692E3954AA7A41F6EC30B3FA64B3DDD764C827F8A09D1D6853D69480954E697B18E812F7454FC98E33EF5C7CB05162C504034D32E5ECE0DD326749C15E
310
2C26A26AB43D65D143708B9710504E37897152180C005B2C28C2348252A0C8DD884F7BF0B80A8AE399C42390D79777E2C60F9031B02AA57056A50ECED2999B1E4C944823421868904798442996E8148453A944146553DEBA9EECF49344D2855BE5E23549E5034D27E579A31239B20A879C85E8915E36C5F30C948B79365A8A
310
8890AB8BF1EAE16CD13676EBECD508DEA37BD5767D8F61971967514F901DD28388A0286FEBA62DEAAE68FBB7A6D9369BED6A83AFDBBA6655B273363A67F2258C01EF66229D8D6023E50DABD2F819BEEC234A7B64EDFCF9172011406EBDD2B967FC259FA65BADD7FFC8A7BA7CDF88CBE35FC0BF01504B030414000608080032
310
5ADC40EC7C0FD961070000991B0000340000006662782F46414345434136442D444239452D343338382D383030322D3830414236313142324643312F6F626A656374732E786D6CED595B739B3814FE2B0CFBB2FB606C7C49931DC24EE2341D4F276DA7DE76F6C1338C0C32D146084612B9ECAFDFA30B188849F036FBD6071B
310
10D2D139DFB9EA10FCF19851E71E73417276EEFADEC475308BF384B0F4DC2DE56E74EA3A7F8401CF73D998E63A0C65F8DC55C36E18A43C2F0B3B94E01D2AA9EC8C5E5FFEE5881833EC3A3145429CBB22BEC519F25029F3048B3B2F411279E9EED1F33D33B14D36E5A8B8ED102D10C74C02A730CE808A6398F2DB8F13771C06
310
63F53E0CD4BF9D351B346BDE3F6BACA56E7349989088C5CF58EA90990D6269E6CFAFDE4F1767A3C57C3E1BCD4FA6FEE8F2FAF26AE4BF9B4D9627CBE5D9C5FB33606F9BE7D4CA94E002B304F4F7E4867E30566F6AD12D0287B88E73C670AC8104A8B4585D82040BD8AA01DFA4FDE82B891AAFB5848DE7B97A6F59680CCFDA54
310
FA660D03A2451704B1DB551257D7A67CF9F66F105C0C314A2EB0046E85E4A05D0B0F07AF70C3493036A361B0DDEB82082743127382A843C996230E4A81A96A4A189805968C720E0EA41C2581D69C79DDB62DF0CCD75DE71097BB9252E5196EA81D2B02F7C35268CEC83F98EFB96F22033C81B42561F2D472299F0AEC8667C1
310
580F8681BACCA6F6A501D2D951940A8D8879DB1174A95C7F75E5861FAFB78F6B150E0E6F5EF0BCC05C2AA3537AD47C8121DBAB42C96EEB0FD29C5A00C21850EDCA3D285F01F94F103DF6AC80DE38799C3FCEED5CC91113BB9C67A01B67E28C26F037717CFDAFEE1B77C1B85EDCD65E1F9EE0A60AAAD31FC7B32D83C6CAF2DF
310
80330CEEC1E0733EB3AFD631A260CF37840140CA481C9AC31084F6DDF6D10D57103821D0C32A44431F440676EFE136185B327BAD54EE65BD8E01A2768FD91025016CDA22818D1E3D7D80ECC149BC575353C43E78176F62AE1757EB8FEB92EF508C6FAC4F5FE11D614442D63CCC500BF3964477F8E921E70908FA1CEF7513EF
310
CC6E25006D85B9023EAD40500FFB9D5B1BC4B02ECD55B8095ED9018450B9BA41FF868818538A18CECB6ADF3ABA2943AD3DDED60C6E383510CFA61D13E6F89EA8AA029C663FA3C528E4FD98934281E8861F8C6475D0F47AA4FBB6FA041659CFEF99B562107A19A27FEAA0750087966557485B206A81B7FB701EE734E7D1F629
310
3291CE855A02D8687BCBF7165188F546498A0A7890F6BB2AA4A446DA2821BB5D2920AE1E60F1FB6AD934878937F3174EF3BFE38C7388B6E0BB885BBFEBEC11910CA538DAA1A46FBBE66E356DA149F690E67847412E724FE45384643449707A0C3447113F7B53EA29CD85200C0BC85707C16FA231F12090186D562C2BAD7680
310
2622CAB044F4180414991E7075DAD1356E0CA5C3EB3CD6D6FB92C69A44FF278BE0086AC99C45044A51C821AF32EE7B0B88216D740DCA1D7CC1DA2ADA5A0C5A4209113F450F98A4B7F218D40DF91EDC6338929432CA0B1483590F20FBCC5794523BBC6F517CA7F2471497F4AD0C4460BA8B08A56516C18F3038790C71ED3A30
310
BD884283B8897D126750942159F2219B9C2C26CFF631354337043636DA110A613BCA50D1837A2B20EA7AC4A9C1B7D47B94BA2DB32242595EB24186E2CDBADE64C977D5AAC80EE457958A503656842DC130204CD659B58AD960EA3AB0821BE940F514099415D49CC25E493C7EED4D9A72EF06DCFAE9DB6E9041E1D7A3BD6644
310
9D5730581E5B8581784032BE75C3B5BE8E2EA1FE4E70B24FF555ADD9AC00013115C94B4EAC8ABEADA0BCB1359A1BDE2029361F4CD6ADAEDF561E743F8231AC81DAA55EB85240679849A42A931B7543BF2208C12D1A667CA572EA31542E9244578D885E933E75B6CA88D6A619F18A5BCCF20C7E6C43584CCB046F5022EEA21B
310
49A33551AC5B29BD8C5418BF28E0E70FEB0E3C303240A42FAAC0C30F9DB57674A9CAA58344E46D996D192210045BA2A546375EC152AB914ACBF5559D29A0EE0203B32A9EFF3C5934DB113F4F16A9358C1F3B59D07C8BE83EDA34B279ACCCFAA853409D9E1495B73805E8AE434DB54E2226975BF1AD2F451013AB203FB818AB
310
628621D8C7F17F4EDA7D49D06CD7E1FFB8A4ED3F2B388E4A2AADC9AA4975A0705D3553D8BBD9CC9F2C4EE6A377FEE562349F9E4E47A7A7BE3F7A7F35BD9EFB178BE5747652A3A9FD340CEA58A653173C9B98560DAB278B013465454E490287F9C44931847C0947FA01DD739E6101B9B3D9EB4E6C4F7EC0EA7BD3E694684B71
310
C5C92D82FE301590D501A33296ED71E717E84C4A38679FBBD033F2EEE0CF5AA5EB40E23977A15320498C85B7852E93EAE769E2907175EAB7C4001FC4529511CDA2FAB95EA5B06945FF7ACA902C60E56AB530A06E2BA0F9D56A5068DE2C4FF1518257EC3848C2EDB69450AC1959F603B5307A9BBDFA8D6C94B03BBBF523B8EE
310
CB62F99E9ED34264D01783178DC0501D49C453DDEE568C59962EAEBE8CA1CDE6AC3E3B052D53D0E5704A238EC1984B554F81158155589A059260AACBDF375F780E5F7832471745CEAF8FA727BF6D967996E5CC0C6D2EE05096C07722677D0B5F7D920DD40E58F5D6C5663AF1A71BDDD3B66DF6688B04F654510403552DA104
310
E9981CD8E5B3FE94ED5E8E952A3AD357578E0DA2D00B3076F4ACC56BBE7139E043EA6B8AF218EDE795B42FB6B5C77A2AD804878674F82F504B0304140006080000325ADC40000000000000000000000000350000006662782F46414345434136442D444239452D343338382D383030322D3830414236313142324643312F76
310
657274696365732E62696E504B0304140006080800325ADC40F270F1330600000004000000360000006662782F46414345434136442D444239452D343338382D383030322D3830414236313142324643312F747269616E676C65732E62696E636660600000504B0304140006080000325ADC40000000000000000000000000
310
370000006662782F46414345434136442D444239452D343338382D383030322D3830414236313142324643312F617474726962757465732E62696E504B0304140006080800325ADC40D5987DFC8F00000041010000360000006662782F46414345434136442D444239452D343338382D383030322D38304142363131423246
310
43312F6469726563746F72792E786D6C858F410EC2201045AF4266AF15DDB800BA74E7C21B903225242D6328188F2FA5C4183471359997F9FF81E89FF3C41E1816475E02DF1F80A11FC8386F25A438EECEC07A250251FC3803E6F58C12560C4AD840E95E91C151A72936F496F35732D860FE635F62C8F2DA16B505C545B741
310
25BAA2FA9E05D7CC053D063734D5C7665FD55B6B8D15D5E9BFEAFD8490FFA45E504B0304140006080800325ADC40B0317D29FB000000A00100003B0000006662782F46414345434136442D444239452D343338382D383030322D3830414236313142324643312F7265736F75726365732F636F72652E786D6C8D50596E8330
310
10BD8A35FF2C869410641C05D19CA017B0EC09B1126CE4A5EAF16B0295DABFFE78C66FD13C3D76FE9A9FE4139DD7D6F440F312081A699536530F31DCB216C89933676DF8250362C48C3DAC307036391B971D92D6043421A1C62ADC41E13D0620F299961EBCBCE32C72114352F847BE08F91013E6344F74D271E6834B01C876
310
647D813BF4363A899E151BCB598C5AED1AADD24D7DD3E8808F87F67219C6211B4E0DCD0E6FD76B36B4346DF57B45CBA6AD4EE3C88AD5CC59D0F34F46E9500454C0AB925659D96455FB4169478F5D7D4CDFAE2C59B1CAFF98E2A2FE698ADA84BADAE36E360F9CA6202F82B362ED2B8D579969AEDDF26F504B010214000A0000
310
080000325ADC403DEE336E79000000790000001B00000000000000000000000000000000006175746F6465736B2D64657369676E2D7061636B6167652E786D6C504B01021400140006080800325ADC40D486FD9CA0000000F40000001300000000000000000000000000B20000005B436F6E74656E745F54797065735D2E78
310
6D6C504B01021400140006080800325ADC40A39A53B1E80000007C010000080000000000000000000000000083010000636F72652E786D6C504B01021400140006080800325ADC4055019EA25F0000007C000000070000000000000000000000000091020000636E782E786D6C504B01021400140006080800325ADC401B45
310
6AF665010000020300000C00000000000000000000000000150300006662782F636F72652E786D6C504B01021400140006080800325ADC402960CE747D0000009D0000000B00000000000000000000000000A40400006662782F636E782E786D6C504B01021400140006080800325ADC40DD47E8C229010000140200003100
310
0000000000000000000000004A0500006662782F46414345434136442D444239452D343338382D383030322D3830414236313142324643312F636F72652E786D6C504B01021400140006080800325ADC409705AA5C54010000330300003000000000000000000000000000C20600006662782F46414345434136442D444239
310
452D343338382D383030322D3830414236313142324643312F636E782E786D6C504B01021400140006080800325ADC40EC7C0FD961070000991B00003400000000000000000000000000640800006662782F46414345434136442D444239452D343338382D383030322D3830414236313142324643312F6F626A656374732E
310
786D6C504B01021400140006080000325ADC400000000000000000000000003500000000000000000000000000171000006662782F46414345434136442D444239452D343338382D383030322D3830414236313142324643312F76657274696365732E62696E504B01021400140006080800325ADC40F270F1330600000004
310
00000036000000000000000000000000006A1000006662782F46414345434136442D444239452D343338382D383030322D3830414236313142324643312F747269616E676C65732E62696E504B01021400140006080000325ADC400000000000000000000000003700000000000000000000000000C41000006662782F4641
310
4345434136442D444239452D343338382D383030322D3830414236313142324643312F617474726962757465732E62696E504B01021400140006080800325ADC40D5987DFC8F000000410100003600000000000000000000000000191100006662782F46414345434136442D444239452D343338382D383030322D38304142
310
36313142324643312F6469726563746F72792E786D6C504B01021400140006080800325ADC40B0317D29FB000000A00100003B00000000000000000000000000FC1100006662782F46414345434136442D444239452D343338382D383030322D3830414236313142324643312F7265736F75726365732F636F72652E786D6C
310
504B0506000000000E000E0080040000501300000000
  0
XRECORD
  5
27
102
{ACAD_REACTORS
330
22
102
}
330
22
100
AcDbXrecord
280
     1
270
     1
271
     1
  0
XRECORD
  5
26
102
{ACAD_REACTORS
330
22
102
}
330
22
100
AcDbXrecord
280
     1
270
     1
271
     1
  0
XRECORD
  5
28
102
{ACAD_REACTORS
330
22
102
}
330
22
100
AcDbXrecord
280
     1
270
     1
271
     1
  0
XRECORD
  5
25
102
{ACAD_REACTORS
330
22
102
}
330
22
100
AcDbXrecord
280
     1
270
     1
271
     1
  0
XRECORD
  5
883
102
{ACAD_REACTORS
330
882
102
}
330
882
100
AcDbXrecord
280
     1
102
ACAD_ROUNDTRIP_2012_MLEADER_STYLE
298
     1
  0
CELLSTYLEMAP
  5
881
102
{ACAD_REACTORS
330
880
102
}
330
880
100
AcDbCellStyleMap
 90
        3
300
CELLSTYLE
  1
TABLEFORMAT_BEGIN
 90
        5
170
     1
 91
        0
 92
    32768
 62
   257
 93
        1
300
CONTENTFORMAT
  1
CONTENTFORMAT_BEGIN
 90
        0
 91
        0
 92
      512
 93
        0
300

 40
0.0
140
1.0
 94
        5
 62
     0
340
55
144
0.25
309
CONTENTFORMAT_END
171
     0
 94
        0
309
TABLEFORMAT_END
  1
CELLSTYLE_BEGIN
 90
        1
 91
        1
300
_TITLE
309
CELLSTYLE_END
300
CELLSTYLE
  1
TABLEFORMAT_BEGIN
 90
        5
170
     1
 91
        0
 92
        0
 62
   257
 93
        1
300
CONTENTFORMAT
  1
CONTENTFORMAT_BEGIN
 90
        0
 91
        0
 92
      512
 93
        0
300

 40
0.0
140
1.0
 94
        5
 62
     0
340
55
144
0.18
309
CONTENTFORMAT_END
171
     0
 94
        0
309
TABLEFORMAT_END
  1
CELLSTYLE_BEGIN
 90
        2
 91
        1
300
_HEADER
309
CELLSTYLE_END
300
CELLSTYLE
  1
TABLEFORMAT_BEGIN
 90
        5
170
     1
 91
        0
 92
        0
 62
   257
 93
        1
300
CONTENTFORMAT
  1
CONTENTFORMAT_BEGIN
 90
        0
 91
        0
 92
      512
 93
        0
300

 40
0.0
140
1.0
 94
        2
 62
     0
340
55
144
0.18
309
CONTENTFORMAT_END
171
     0
 94
        0
309
TABLEFORMAT_END
  1
CELLSTYLE_BEGIN
 90
        3
 91
        2
300
_DATA
309
CELLSTYLE_END
  0
ENDSEC
  0
EOF
