  0
SECTION
  2
HEADER
  9
$ACADVER
  1
AC1024
  9
$ACADMAINTVER
 70
    63
  9
$DWGCODEPAGE
  3
ANSI_1252
  9
$AUTHOR
  1
KRA
  9
$REVISIONNUMBER
  1
-
  9
$CUSTOMPROPERTYTAG
  1
Manager
  9
$CUSTOMPROPERTY
  1

  9
$CUSTOMPROPERTYTAG
  1
Company
  9
$CUSTOMPROPERTY
  1

  9
$CUSTOMPROPERTYTAG
  1
Category
  9
$CUSTOMPROPERTY
  1

  9
$CUSTOMPROPERTYTAG
  1
Part Number
  9
$CUSTOMPROPERTY
  1
HWDP1212SS-S
  9
$CUSTOMPROPERTYTAG
  1
Description
  9
$CUSTOMPROPERTY
  1
P SERIES BACK PANEL MASTER VIEW
  9
$CUSTOMPROPERTYTAG
  1
Project
  9
$CUSTOMPROPERTY
  1

  9
$CUSTOMPROPERTYTAG
  1
Designer
  9
$CUSTOMPROPERTY
  1
KRA
  9
$CUSTOMPROPERTYTAG
  1
Engineer
  9
$CUSTOMPROPERTY
  1

  9
$CUSTOMPROPERTYTAG
  1
Authority
  9
$CUSTOMPROPERTY
  1

  9
$CUSTOMPROPERTYTAG
  1
Cost Center
  9
$CUSTOMPROPERTY
  1

  9
$CUSTOMPROPERTYTAG
  1
Vendor
  9
$CUSTOMPROPERTY
  1

  9
$CUSTOMPROPERTYTAG
  1
User Status
  9
$CUSTOMPROPERTY
  1

  9
$CUSTOMPROPERTYTAG
  1
Design Status
  9
$CUSTOMPROPERTY
  1
WorkInProgress
  9
$CUSTOMPROPERTYTAG
  1
Checked by
  9
$CUSTOMPROPERTY
  1
JMG
  9
$CUSTOMPROPERTYTAG
  1
Date Checked
  9
$CUSTOMPROPERTY
  1
02/12/2009
  9
$CUSTOMPROPERTYTAG
  1
Engr Approved by
  9
$CUSTOMPROPERTY
  1

  9
$CUSTOMPROPERTYTAG
  1
Mfg Approved by
  9
$CUSTOMPROPERTY
  1

  9
$CUSTOMPROPERTYTAG
  1
DWG. NO
  9
$CUSTOMPROPERTY
  1

  9
$CUSTOMPROPERTYTAG
  1
NUMBER OF SHEETS
  9
$CUSTOMPROPERTY
  1
1
  9
$CUSTOMPROPERTYTAG
  1
DRAWING #
  9
$CUSTOMPROPERTY
  1
1
  9
$INSBASE
 10
0.0
 20
0.0
 30
0.0
  9
$EXTMIN
 10
0.0
 20
0.0
 30
0.0
  9
$EXTMAX
 10
34.0
 20
22.0
 30
0.0
  9
$LIMMIN
 10
0.0
 20
0.0
  9
$LIMMAX
 10
34.0
 20
22.0
  9
$ORTHOMODE
 70
     0
  9
$REGENMODE
 70
     1
  9
$FILLMODE
 70
     1
  9
$QTEXTMODE
 70
     0
  9
$MIRRTEXT
 70
     0
  9
$LTSCALE
 40
2.0
  9
$ATTMODE
 70
     1
  9
$TEXTSIZE
 40
0.2
  9
$TRACEWID
 40
0.05
  9
$TEXTSTYLE
  7
Standard
  9
$CLAYER
  8
0
  9
$CELTYPE
  6
ByLayer
  9
$CECOLOR
 62
   256
  9
$CELTSCALE
 40
1.0
  9
$DISPSILH
 70
     0
  9
$DIMSCALE
 40
1.0
  9
$DIMASZ
 40
0.0708661417322835
  9
$DIMEXO
 40
0.0625
  9
$DIMDLI
 40
0.38
  9
$DIMRND
 40
0.0
  9
$DIMDLE
 40
0.0
  9
$DIMEXE
 40
0.18
  9
$DIMTP
 40
0.0
  9
$DIMTM
 40
0.0
  9
$DIMTXT
 40
0.0708661417322835
  9
$DIMCEN
 40
0.09
  9
$DIMTSZ
 40
0.0
  9
$DIMTOL
 70
     0
  9
$DIMLIM
 70
     0
  9
$DIMTIH
 70
     1
  9
$DIMTOH
 70
     1
  9
$DIMSE1
 70
     0
  9
$DIMSE2
 70
     0
  9
$DIMTAD
 70
     0
  9
$DIMZIN
 70
     0
  9
$DIMBLK
  1

  9
$DIMASO
 70
     1
  9
$DIMSHO
 70
     1
  9
$DIMPOST
  1

  9
$DIMAPOST
  1

  9
$DIMALT
 70
     0
  9
$DIMALTD
 70
     2
  9
$DIMALTF
 40
25.4
  9
$DIMLFAC
 40
1.0
  9
$DIMTOFL
 70
     0
  9
$DIMTVP
 40
0.0
  9
$DIMTIX
 70
     0
  9
$DIMSOXD
 70
     0
  9
$DIMSAH
 70
     0
  9
$DIMBLK1
  1

  9
$DIMBLK2
  1

  9
$DIMSTYLE
  2
STANDARD
  9
$DIMCLRD
 70
     0
  9
$DIMCLRE
 70
     0
  9
$DIMCLRT
 70
     0
  9
$DIMTFAC
 40
1.0
  9
$DIMGAP
 40
0.09
  9
$DIMJUST
 70
     0
  9
$DIMSD1
 70
     0
  9
$DIMSD2
 70
     0
  9
$DIMTOLJ
 70
     1
  9
$DIMTZIN
 70
     0
  9
$DIMALTZ
 70
     0
  9
$DIMALTTZ
 70
     0
  9
$DIMUPT
 70
     0
  9
$DIMDEC
 70
     4
  9
$DIMTDEC
 70
     4
  9
$DIMALTU
 70
     2
  9
$DIMALTTD
 70
     2
  9
$DIMTXSTY
  7
Standard
  9
$DIMAUNIT
 70
     0
  9
$DIMADEC
 70
     0
  9
$DIMALTRND
 40
0.0
  9
$DIMAZIN
 70
     0
  9
$DIMDSEP
 70
    46
  9
$DIMATFIT
 70
     3
  9
$DIMFRAC
 70
     0
  9
$DIMLDRBLK
  1

  9
$DIMLUNIT
 70
     2
  9
$DIMLWD
 70
    -2
  9
$DIMLWE
 70
    -2
  9
$DIMTMOVE
 70
     0
  9
$DIMFXL
 40
1.0
  9
$DIMFXLON
 70
     0
  9
$DIMJOGANG
 40
0.7853981633974483
  9
$DIMTFILL
 70
     0
  9
$DIMTFILLCLR
 70
     0
  9
$DIMARCSYM
 70
     0
  9
$DIMLTYPE
  6

  9
$DIMLTEX1
  6

  9
$DIMLTEX2
  6

  9
$DIMTXTDIRECTION
 70
     0
  9
$LUNITS
 70
     2
  9
$LUPREC
 70
     4
  9
$SKETCHINC
 40
0.1
  9
$FILLETRAD
 40
0.0
  9
$AUNITS
 70
     0
  9
$AUPREC
 70
     0
  9
$MENU
  1
.
  9
$ELEVATION
 40
0.0
  9
$PELEVATION
 40
0.0
  9
$THICKNESS
 40
0.0
  9
$LIMCHECK
 70
     0
  9
$CHAMFERA
 40
0.0
  9
$CHAMFERB
 40
0.0
  9
$CHAMFERC
 40
0.0
  9
$CHAMFERD
 40
0.0
  9
$SKPOLY
 70
     0
  9
$TDCREATE
 40
2456107.470335139
  9
$TDUCREATE
 40
2456107.678668473
  9
$TDUPDATE
 40
2456107.470335151
  9
$TDUUPDATE
 40
2456107.678668484
  9
$TDINDWG
 40
0.0000245602
  9
$TDUSRTIMER
 40
0.0000245602
  9
$USRTIMER
 70
     1
  9
$ANGBASE
 50
0.0
  9
$ANGDIR
 70
     0
  9
$PDMODE
 70
     0
  9
$PDSIZE
 40
0.0
  9
$PLINEWID
 40
0.0
  9
$SPLFRAME
 70
     0
  9
$SPLINETYPE
 70
     6
  9
$SPLINESEGS
 70
     8
  9
$HANDSEED
  5
885
  9
$SURFTAB1
 70
     6
  9
$SURFTAB2
 70
     6
  9
$SURFTYPE
 70
     6
  9
$SURFU
 70
     6
  9
$SURFV
 70
     6
  9
$UCSBASE
  2

  9
$UCSNAME
  2

  9
$UCSORG
 10
0.0
 20
0.0
 30
0.0
  9
$UCSXDIR
 10
1.0
 20
0.0
 30
0.0
  9
$UCSYDIR
 10
0.0
 20
1.0
 30
0.0
  9
$UCSORTHOREF
  2

  9
$UCSORTHOVIEW
 70
     0
  9
$UCSORGTOP
 10
0.0
 20
0.0
 30
0.0
  9
$UCSORGBOTTOM
 10
0.0
 20
0.0
 30
0.0
  9
$UCSORGLEFT
 10
0.0
 20
0.0
 30
0.0
  9
$UCSORGRIGHT
 10
0.0
 20
0.0
 30
0.0
  9
$UCSORGFRONT
 10
0.0
 20
0.0
 30
0.0
  9
$UCSORGBACK
 10
0.0
 20
0.0
 30
0.0
  9
$PUCSBASE
  2

  9
$PUCSNAME
  2

  9
$PUCSORG
 10
0.0
 20
0.0
 30
0.0
  9
$PUCSXDIR
 10
1.0
 20
0.0
 30
0.0
  9
$PUCSYDIR
 10
0.0
 20
1.0
 30
0.0
  9
$PUCSORTHOREF
  2

  9
$PUCSORTHOVIEW
 70
     0
  9
$PUCSORGTOP
 10
0.0
 20
0.0
 30
0.0
  9
$PUCSORGBOTTOM
 10
0.0
 20
0.0
 30
0.0
  9
$PUCSORGLEFT
 10
0.0
 20
0.0
 30
0.0
  9
$PUCSORGRIGHT
 10
0.0
 20
0.0
 30
0.0
  9
$PUCSORGFRONT
 10
0.0
 20
0.0
 30
0.0
  9
$PUCSORGBACK
 10
0.0
 20
0.0
 30
0.0
  9
$USERI1
 70
     0
  9
$USERI2
 70
     0
  9
$USERI3
 70
     0
  9
$USERI4
 70
     0
  9
$USERI5
 70
     0
  9
$USERR1
 40
0.0
  9
$USERR2
 40
0.0
  9
$USERR3
 40
0.0
  9
$USERR4
 40
0.0
  9
$USERR5
 40
0.0
  9
$WORLDVIEW
 70
     1
  9
$SHADEDGE
 70
     3
  9
$SHADEDIF
 70
    70
  9
$TILEMODE
 70
     1
  9
$MAXACTVP
 70
    64
  9
$PINSBASE
 10
0.0
 20
0.0
 30
0.0
  9
$PLIMCHECK
 70
     0
  9
$PEXTMIN
 10
0.0
 20
0.0
 30
0.0
  9
$PEXTMAX
 10
34.0
 20
22.0
 30
0.0
  9
$PLIMMIN
 10
0.0
 20
0.0
  9
$PLIMMAX
 10
34.0
 20
22.0
  9
$UNITMODE
 70
     0
  9
$VISRETAIN
 70
     1
  9
$PLINEGEN
 70
     0
  9
$PSLTSCALE
 70
     1
  9
$TREEDEPTH
 70
  3020
  9
$CMLSTYLE
  2
Standard
  9
$CMLJUST
 70
     0
  9
$CMLSCALE
 40
1.0
  9
$PROXYGRAPHICS
 70
     1
  9
$MEASUREMENT
 70
     0
  9
$CELWEIGHT
370
    -1
  9
$ENDCAPS
280
     0
  9
$JOINSTYLE
280
     0
  9
$LWDISPLAY
290
     0
  9
$INSUNITS
 70
     1
  9
$HYPERLINKBASE
  1

  9
$STYLESHEET
  1

  9
$XEDIT
290
     1
  9
$CEPSNTYPE
380
     0
  9
$PSTYLEMODE
290
     1
  9
$FINGERPRINTGUID
  2
{B6BA0D22-C26F-4AF4-A744-FBD2FFAFA9D3}
  9
$VERSIONGUID
  2
{6FF14F70-BC7D-4F0A-8FB5-CF879E53AFEE}
  9
$EXTNAMES
290
     1
  9
$PSVPSCALE
 40
0.0
  9
$OLESTARTUP
290
     0
  9
$SORTENTS
280
   127
  9
$INDEXCTL
280
     0
  9
$HIDETEXT
280
     1
  9
$XCLIPFRAME
280
     2
  9
$HALOGAP
280
     0
  9
$OBSCOLOR
 70
   257
  9
$OBSLTYPE
280
     0
  9
$INTERSECTIONDISPLAY
280
     0
  9
$INTERSECTIONCOLOR
 70
   257
  9
$DIMASSOC
280
     1
  9
$PROJECTNAME
  1

  9
$CAMERADISPLAY
290
     0
  9
$LENSLENGTH
 40
50.0
  9
$CAMERAHEIGHT
 40
0.0
  9
$STEPSPERSEC
 40
2.0
  9
$STEPSIZE
 40
6.0
  9
$3DDWFPREC
 40
2.0
  9
$PSOLWIDTH
 40
0.25
  9
$PSOLHEIGHT
 40
4.0
  9
$LOFTANG1
 40
1.570796326794896
  9
$LOFTANG2
 40
1.570796326794896
  9
$LOFTMAG1
 40
0.0
  9
$LOFTMAG2
 40
0.0
  9
$LOFTPARAM
 70
     7
  9
$LOFTNORMALS
280
     1
  9
$LATITUDE
 40
37.795
  9
$LONGITUDE
 40
-122.394
  9
$NORTHDIRECTION
 40
0.0
  9
$TIMEZONE
 70
 -8000
  9
$LIGHTGLYPHDISPLAY
280
     1
  9
$TILEMODELIGHTSYNCH
280
     1
  9
$CMATERIAL
347
11
  9
$SOLIDHIST
280
     0
  9
$SHOWHIST
280
     1
  9
$DWFFRAME
280
     2
  9
$DGNFRAME
280
     0
  9
$REALWORLDSCALE
290
     1
  9
$INTERFERECOLOR
 62
     1
  9
$INTERFEREOBJVS
345
33
  9
$INTERFEREVPVS
346
30
  9
$CSHADOW
280
     0
  9
$SHADOWPLANELOCATION
 40
0.0
  0
ENDSEC
  0
SECTION
  2
CLASSES
  0
CLASS
  1
ACDBDICTIONARYWDFLT
  2
AcDbDictionaryWithDefault
  3
ObjectDBX Classes
 90
        0
 91
        1
280
     0
281
     0
  0
CLASS
  1
MATERIAL
  2
AcDbMaterial
  3
ObjectDBX Classes
 90
     1153
 91
        3
280
     0
281
     0
  0
CLASS
  1
VISUALSTYLE
  2
AcDbVisualStyle
  3
ObjectDBX Classes
 90
     4095
 91
       24
280
     0
281
     0
  0
CLASS
  1
SCALE
  2
AcDbScale
  3
ObjectDBX Classes
 90
     1153
 91
       17
280
     0
281
     0
  0
CLASS
  1
TABLESTYLE
  2
AcDbTableStyle
  3
ObjectDBX Classes
 90
     4095
 91
        1
280
     0
281
     0
  0
CLASS
  1
MLEADERSTYLE
  2
AcDbMLeaderStyle
  3
ACDB_MLEADERSTYLE_CLASS
 90
     4095
 91
        1
280
     0
281
     0
  0
CLASS
  1
DICTIONARYVAR
  2
AcDbDictionaryVar
  3
ObjectDBX Classes
 90
        0
 91
        3
280
     0
281
     0
  0
CLASS
  1
CELLSTYLEMAP
  2
AcDbCellStyleMap
  3
ObjectDBX Classes
 90
     1152
 91
        1
280
     0
281
     0
  0
ENDSEC
  0
SECTION
  2
TABLES
  0
TABLE
  2
VPORT
  5
8
330
0
100
AcDbSymbolTable
 70
     1
  0
VPORT
  5
57
330
8
100
AcDbSymbolTableRecord
100
AcDbViewportTableRecord
  2
*Active
 70
     0
 10
0.0
 20
0.0
 11
1.0
 21
1.0
 12
17.0
 22
11.0
 13
0.0
 23
0.0
 14
1.0
 24
1.0
 15
0.0
 25
0.0
 16
0.0
 26
0.0
 36
1.0
 17
0.0
 27
0.0
 37
0.0
 40
22.0
 41
1.545454545454545
 42
50.0
 43
0.0
 44
0.0
 50
0.0
 51
0.0
 71
     0
 72
   100
 73
     1
 74
     1
 75
     0
 76
     0
 77
     0
 78
     0
281
     0
 65
     1
110
0.0
120
0.0
130
0.0
111
1.0
121
0.0
131
0.0
112
0.0
122
1.0
132
0.0
 79
     0
146
0.0
 60
     3
 61
     5
292
     1
282
     1
141
0.0
142
0.0
 63
   250
421
  3355443
  0
ENDTAB
  0
TABLE
  2
LTYPE
  5
5
330
0
100
AcDbSymbolTable
 70
    59
  0
LTYPE
  5
5B
330
5
100
AcDbSymbolTableRecord
100
AcDbLinetypeTableRecord
  2
ByBlock
 70
     0
  3

 72
    65
 73
     0
 40
0.0
  0
LTYPE
  5
5C
330
5
100
AcDbSymbolTableRecord
100
AcDbLinetypeTableRecord
  2
ByLayer
 70
     0
  3

 72
    65
 73
     0
 40
0.0
  0
LTYPE
  5
5D
330
5
100
AcDbSymbolTableRecord
100
AcDbLinetypeTableRecord
  2
Continuous
 70
     0
  3
Solid line
 72
    65
 73
     0
 40
0.0
  0
LTYPE
  5
7C
330
5
100
AcDbSymbolTableRecord
100
AcDbLinetypeTableRecord
  2
BY_STANDARD
 70
     0
  3
By Standard ____________    ____    ____   _
 72
    65
 73
     6
 40
1.240299999999999
 49
0.6614
 74
     0
 49
-0.0827
 74
     0
 49
0.1654
 74
     0
 49
-0.0827
 74
     0
 49
0.1654
 74
     0
 49
-0.0827
 74
     0
  0
LTYPE
  5
7D
330
5
100
AcDbSymbolTableRecord
100
AcDbLinetypeTableRecord
  2
CHAIN
 70
     0
  3
Chain ____ _ ____ _ ____ _ ____ _ ____ _ ____
 72
    65
 73
     4
 40
0.7087
 49
0.4724000000000001
 74
     0
 49
-0.0591
 74
     0
 49
0.1181
 74
     0
 49
-0.0591
 74
     0
  0
LTYPE
  5
7E
330
5
100
AcDbSymbolTableRecord
100
AcDbLinetypeTableRecord
  2
DASH_DOT
 70
     0
  3
Dash dot __ . __ . __ . __ . __ . __ . __ . __
 72
    65
 73
     4
 40
0.37
 49
0.24
 74
     0
 49
-0.06
 74
     0
 49
0.01
 74
     0
 49
-0.06
 74
     0
  0
LTYPE
  5
7F
330
5
100
AcDbSymbolTableRecord
100
AcDbLinetypeTableRecord
  2
DOUBLE_DASH_DOT
 70
     0
  3
Double-Dash Dot __ __ . __ __ . __ __ . __ _
 72
    65
 73
     6
 40
0.4398
 49
0.24
 74
     0
 49
-0.06
 74
     0
 49
0.0098
 74
     0
 49
-0.06
 74
     0
 49
0.01
 74
     0
 49
-0.06
 74
     0
  0
LTYPE
  5
80
330
5
100
AcDbSymbolTableRecord
100
AcDbLinetypeTableRecord
  2
DASH_TRIPLE_DOT
 70
     0
  3
Dash Triple-Dot _ . . . _ . . . _ . . . _
 72
    65
 73
     8
 40
0.51
 49
0.24
 74
     0
 49
-0.06
 74
     0
 49
0.01
 74
     0
 49
-0.06
 74
     0
 49
0.01
 74
     0
 49
-0.06
 74
     0
 49
0.01
 74
     0
 49
-0.06
 74
     0
  0
LTYPE
  5
81
330
5
100
AcDbSymbolTableRecord
100
AcDbLinetypeTableRecord
  2
DASHED
 70
     0
  3
Dashed __ __ __ __ __ __ __ __ __ __ __ __ __ _
 72
    65
 73
     2
 40
0.2067
 49
0.1654
 74
     0
 49
-0.0413
 74
     0
  0
LTYPE
  5
82
330
5
100
AcDbSymbolTableRecord
100
AcDbLinetypeTableRecord
  2
DASH_DOUBLE_DOT
 70
     0
  3
Dash Double-Dot __ . . __ . . __ . . __ . .
 72
    65
 73
     6
 40
0.4398
 49
0.24
 74
     0
 49
-0.06
 74
     0
 49
0.0098
 74
     0
 49
-0.06
 74
     0
 49
0.01
 74
     0
 49
-0.06
 74
     0
  0
LTYPE
  5
83
330
5
100
AcDbSymbolTableRecord
100
AcDbLinetypeTableRecord
  2
DASHED_SPACE
 70
     0
  3
Dashed Space __ __ __ __ __ __ __ __ __ __ __ _
 72
    65
 73
     2
 40
0.2067
 49
0.1654
 74
     0
 49
-0.0413
 74
     0
  0
LTYPE
  5
84
330
5
100
AcDbSymbolTableRecord
100
AcDbLinetypeTableRecord
  2
DOTTED
 70
     0
  3
Dotted . . . . . . . . . . . . . . . . . . . . 
 72
    65
 73
     2
 40
0.0482
 49
0.0069
 74
     0
 49
-0.0413
 74
     0
  0
LTYPE
  5
85
330
5
100
AcDbSymbolTableRecord
100
AcDbLinetypeTableRecord
  2
DOUBLE_DASH_CHAIN
 70
     0
  3
Double-Dash Chain ______  __  __  ______  __  _
 72
    65
 73
     6
 40
1.240299999999999
 49
0.6614
 74
     0
 49
-0.0827
 74
     0
 49
0.1654
 74
     0
 49
-0.0827
 74
     0
 49
0.1654
 74
     0
 49
-0.0827
 74
     0
  0
LTYPE
  5
87
330
5
100
AcDbSymbolTableRecord
100
AcDbLinetypeTableRecord
  2
DOUBLE_DASH_DOUBLE_DOT
 70
     0
  3
Double-Dash Double-dot _ _ . . _ _ . . _
 72
    65
 73
     8
 40
0.7400000000000001
 49
0.24
 74
     0
 49
-0.06
 74
     0
 49
0.24
 74
     0
 49
-0.06
 74
     0
 49
0.01
 74
     0
 49
-0.06
 74
     0
 49
0.01
 74
     0
 49
-0.06
 74
     0
  0
LTYPE
  5
88
330
5
100
AcDbSymbolTableRecord
100
AcDbLinetypeTableRecord
  2
DOUBLE_DASH_TRIPLE_DOT
 70
     0
  3
Double Dash Triple Dot __ __ . . . __ __ . .
 72
    65
 73
    10
 40
0.8100000000000001
 49
0.24
 74
     0
 49
-0.06
 74
     0
 49
0.24
 74
     0
 49
-0.06
 74
     0
 49
0.01
 74
     0
 49
-0.06
 74
     0
 49
0.01
 74
     0
 49
-0.06
 74
     0
 49
0.01
 74
     0
 49
-0.06
 74
     0
  0
LTYPE
  5
89
330
5
100
AcDbSymbolTableRecord
100
AcDbLinetypeTableRecord
  2
LONG_DASH_DOTTED
 70
     0
  3
Long Dash Dotted ____ . ____ . ____ . ____ . _
 72
    65
 73
     4
 40
0.3543
 49
0.2362
 74
     0
 49
-0.0295
 74
     0
 49
0.0591
 74
     0
 49
-0.0295
 74
     0
  0
LTYPE
  5
8A
330
5
100
AcDbSymbolTableRecord
100
AcDbLinetypeTableRecord
  2
LONG_DASH_DOUBLE_DOT
 70
     0
  3
Long Dash Double Dot ________  .  .  ________  
 72
    65
 73
     6
 40
0.6799999999999999
 49
0.48
 74
     0
 49
-0.06
 74
     0
 49
0.01
 74
     0
 49
-0.06
 74
     0
 49
0.01
 74
     0
 49
-0.06
 74
     0
  0
LTYPE
  5
8B
330
5
100
AcDbSymbolTableRecord
100
AcDbLinetypeTableRecord
  2
LONG_DASH_TRIPLE_DOT
 70
     0
  3
Long Dash Triple Dot ____ ... ____ ... ____
 72
    65
 73
     8
 40
0.3689
 49
0.2362
 74
     0
 49
-0.0295
 74
     0
 49
0.0049
 74
     0
 49
-0.0295
 74
     0
 49
0.0049
 74
     0
 49
-0.0295
 74
     0
 49
0.0049
 74
     0
 49
-0.0295
 74
     0
  0
LTYPE
  5
8C
330
5
100
AcDbSymbolTableRecord
100
AcDbLinetypeTableRecord
  2
BORDER
 70
     0
  3
Border __ __ . __ __ . __ __ . __ __ . __ __ .
 72
    65
 73
     6
 40
1.75
 49
0.5
 74
     0
 49
-0.25
 74
     0
 49
0.5
 74
     0
 49
-0.25
 74
     0
 49
0.0
 74
     0
 49
-0.25
 74
     0
  0
LTYPE
  5
8D
330
5
100
AcDbSymbolTableRecord
100
AcDbLinetypeTableRecord
  2
BORDER2
 70
     0
  3
Border (.5x) __.__.__.__.__.__.__.__.__.__.__.
 72
    65
 73
     6
 40
0.875
 49
0.25
 74
     0
 49
-0.125
 74
     0
 49
0.25
 74
     0
 49
-0.125
 74
     0
 49
0.0
 74
     0
 49
-0.125
 74
     0
  0
LTYPE
  5
8E
330
5
100
AcDbSymbolTableRecord
100
AcDbLinetypeTableRecord
  2
BORDERX2
 70
     0
  3
Border (2x) ____  ____  .  ____  ____  .  ___
 72
    65
 73
     6
 40
3.5
 49
1.0
 74
     0
 49
-0.5
 74
     0
 49
1.0
 74
     0
 49
-0.5
 74
     0
 49
0.0
 74
     0
 49
-0.5
 74
     0
  0
LTYPE
  5
8F
330
5
100
AcDbSymbolTableRecord
100
AcDbLinetypeTableRecord
  2
CENTER
 70
     0
  3
Center ____ _ ____ _ ____ _ ____ _ ____ _ ____
 72
    65
 73
     4
 40
2.0
 49
1.25
 74
     0
 49
-0.25
 74
     0
 49
0.25
 74
     0
 49
-0.25
 74
     0
  0
LTYPE
  5
90
330
5
100
AcDbSymbolTableRecord
100
AcDbLinetypeTableRecord
  2
CENTER2
 70
     0
  3
Center (.5x) ___ _ ___ _ ___ _ ___ _ ___ _ ___
 72
    65
 73
     4
 40
1.125
 49
0.75
 74
     0
 49
-0.125
 74
     0
 49
0.125
 74
     0
 49
-0.125
 74
     0
  0
LTYPE
  5
91
330
5
100
AcDbSymbolTableRecord
100
AcDbLinetypeTableRecord
  2
CENTERX2
 70
     0
  3
Center (2x) ________  __  ________  __  _____
 72
    65
 73
     4
 40
4.0
 49
2.5
 74
     0
 49
-0.5
 74
     0
 49
0.5
 74
     0
 49
-0.5
 74
     0
  0
LTYPE
  5
92
330
5
100
AcDbSymbolTableRecord
100
AcDbLinetypeTableRecord
  2
DASHDOT2
 70
     0
  3
Dash dot (.5x) _._._._._._._._._._._._._._._.
 72
    65
 73
     4
 40
0.5
 49
0.25
 74
     0
 49
-0.125
 74
     0
 49
0.0
 74
     0
 49
-0.125
 74
     0
  0
LTYPE
  5
93
330
5
100
AcDbSymbolTableRecord
100
AcDbLinetypeTableRecord
  2
DASHDOTX2
 70
     0
  3
Dash dot (2x) ____  .  ____  .  ____  .  ___
 72
    65
 73
     4
 40
2.0
 49
1.0
 74
     0
 49
-0.5
 74
     0
 49
0.0
 74
     0
 49
-0.5
 74
     0
  0
LTYPE
  5
95
330
5
100
AcDbSymbolTableRecord
100
AcDbLinetypeTableRecord
  2
DASHED2
 70
     0
  3
Dashed (.5x) _ _ _ _ _ _ _ _ _ _ _ _ _ _ _ _ _
 72
    65
 73
     2
 40
0.375
 49
0.25
 74
     0
 49
-0.125
 74
     0
  0
LTYPE
  5
96
330
5
100
AcDbSymbolTableRecord
100
AcDbLinetypeTableRecord
  2
DASHEDX2
 70
     0
  3
Dashed (2x) ____  ____  ____  ____  ____  ___
 72
    65
 73
     2
 40
1.5
 49
1.0
 74
     0
 49
-0.5
 74
     0
  0
LTYPE
  5
97
330
5
100
AcDbSymbolTableRecord
100
AcDbLinetypeTableRecord
  2
DIVIDE
 70
     0
  3
Divide ____ . . ____ . . ____ . . ____ . . ____
 72
    65
 73
     6
 40
1.25
 49
0.5
 74
     0
 49
-0.25
 74
     0
 49
0.0
 74
     0
 49
-0.25
 74
     0
 49
0.0
 74
     0
 49
-0.25
 74
     0
  0
LTYPE
  5
98
330
5
100
AcDbSymbolTableRecord
100
AcDbLinetypeTableRecord
  2
DIVIDE2
 70
     0
  3
Divide (.5x) __..__..__..__..__..__..__..__.._
 72
    65
 73
     6
 40
0.625
 49
0.25
 74
     0
 49
-0.125
 74
     0
 49
0.0
 74
     0
 49
-0.125
 74
     0
 49
0.0
 74
     0
 49
-0.125
 74
     0
  0
LTYPE
  5
99
330
5
100
AcDbSymbolTableRecord
100
AcDbLinetypeTableRecord
  2
DIVIDEX2
 70
     0
  3
Divide (2x) ________  .  .  ________  .  .  _
 72
    65
 73
     6
 40
2.5
 49
1.0
 74
     0
 49
-0.5
 74
     0
 49
0.0
 74
     0
 49
-0.5
 74
     0
 49
0.0
 74
     0
 49
-0.5
 74
     0
  0
LTYPE
  5
9A
330
5
100
AcDbSymbolTableRecord
100
AcDbLinetypeTableRecord
  2
DOT
 70
     0
  3
Dot . . . . . . . . . . . . . . . . . . . . . .
 72
    65
 73
     2
 40
0.25
 49
0.0
 74
     0
 49
-0.25
 74
     0
  0
LTYPE
  5
9B
330
5
100
AcDbSymbolTableRecord
100
AcDbLinetypeTableRecord
  2
DOT2
 70
     0
  3
Dot (.5x) .....................................
 72
    65
 73
     2
 40
0.125
 49
0.0
 74
     0
 49
-0.125
 74
     0
  0
LTYPE
  5
9C
330
5
100
AcDbSymbolTableRecord
100
AcDbLinetypeTableRecord
  2
DOTX2
 70
     0
  3
Dot (2x) .  .  .  .  .  .  .  .  .  .  .  .  . 
 72
    65
 73
     2
 40
0.5
 49
0.0
 74
     0
 49
-0.5
 74
     0
  0
LTYPE
  5
9D
330
5
100
AcDbSymbolTableRecord
100
AcDbLinetypeTableRecord
  2
HIDDEN
 70
     0
  3
Hidden __ __ __ __ __ __ __ __ __ __ __ __ __ _
 72
    65
 73
     2
 40
0.375
 49
0.25
 74
     0
 49
-0.125
 74
     0
  0
LTYPE
  5
9E
330
5
100
AcDbSymbolTableRecord
100
AcDbLinetypeTableRecord
  2
HIDDEN2
 70
     0
  3
Hidden (.5x) _ _ _ _ _ _ _ _ _ _ _ _ _ _ _ _ _
 72
    65
 73
     2
 40
0.1875
 49
0.125
 74
     0
 49
-0.0625
 74
     0
  0
LTYPE
  5
9F
330
5
100
AcDbSymbolTableRecord
100
AcDbLinetypeTableRecord
  2
HIDDENX2
 70
     0
  3
Hidden (2x) ____ ____ ____ ____ ____ ____ ____
 72
    65
 73
     2
 40
0.75
 49
0.5
 74
     0
 49
-0.25
 74
     0
  0
LTYPE
  5
A0
330
5
100
AcDbSymbolTableRecord
100
AcDbLinetypeTableRecord
  2
PHANTOM
 70
     0
  3
Phantom ______  __  __  ______  __  __  ______
 72
    65
 73
     6
 40
2.5
 49
1.25
 74
     0
 49
-0.25
 74
     0
 49
0.25
 74
     0
 49
-0.25
 74
     0
 49
0.25
 74
     0
 49
-0.25
 74
     0
  0
LTYPE
  5
A1
330
5
100
AcDbSymbolTableRecord
100
AcDbLinetypeTableRecord
  2
PHANTOM2
 70
     0
  3
Phantom (.5x) ___ _ _ ___ _ _ ___ _ _ ___ _ _
 72
    65
 73
     6
 40
1.25
 49
0.625
 74
     0
 49
-0.125
 74
     0
 49
0.125
 74
     0
 49
-0.125
 74
     0
 49
0.125
 74
     0
 49
-0.125
 74
     0
  0
LTYPE
  5
A2
330
5
100
AcDbSymbolTableRecord
100
AcDbLinetypeTableRecord
  2
PHANTOMX2
 70
     0
  3
Phantom (2x) ____________    ____    ____   _
 72
    65
 73
     6
 40
5.0
 49
2.5
 74
     0
 49
-0.5
 74
     0
 49
0.5
 74
     0
 49
-0.5
 74
     0
 49
0.5
 74
     0
 49
-0.5
 74
     0
  0
LTYPE
  5
A3
330
5
100
AcDbSymbolTableRecord
100
AcDbLinetypeTableRecord
  2
ACAD_ISO02W100
 70
     0
  3
ISO dash __ __ __ __ __ __ __ __ __ __ __ __ __
 72
    65
 73
     2
 40
0.59
 49
0.47
 74
     0
 49
-0.12
 74
     0
  0
LTYPE
  5
A4
330
5
100
AcDbSymbolTableRecord
100
AcDbLinetypeTableRecord
  2
ACAD_ISO03W100
 70
     0
  3
ISO dash space __    __    __    __    __    __
 72
    65
 73
     2
 40
1.179999999999999
 49
0.47
 74
     0
 49
-0.71
 74
     0
  0
LTYPE
  5
A5
330
5
100
AcDbSymbolTableRecord
100
AcDbLinetypeTableRecord
  2
ACAD_ISO04W100
 70
     0
  3
ISO long-dash dot ____ . ____ . ____ . ____ . _
 72
    65
 73
     4
 40
1.179999999999999
 49
0.9399999999999998
 74
     0
 49
-0.12
 74
     0
 49
0.0
 74
     0
 49
-0.12
 74
     0
  0
LTYPE
  5
A6
330
5
100
AcDbSymbolTableRecord
100
AcDbLinetypeTableRecord
  2
ACAD_ISO05W100
 70
     0
  3
ISO long-dash double-dot ____ .. ____ .. ____ .
 72
    65
 73
     6
 40
1.299999999999999
 49
0.9399999999999998
 74
     0
 49
-0.12
 74
     0
 49
0.0
 74
     0
 49
-0.12
 74
     0
 49
0.0
 74
     0
 49
-0.12
 74
     0
  0
LTYPE
  5
A7
330
5
100
AcDbSymbolTableRecord
100
AcDbLinetypeTableRecord
  2
ACAD_ISO06W100
 70
     0
  3
ISO long-dash triple-dot ____ ... ____ ... ____
 72
    65
 73
     8
 40
1.419999999999999
 49
0.9399999999999998
 74
     0
 49
-0.12
 74
     0
 49
0.0
 74
     0
 49
-0.12
 74
     0
 49
0.0
 74
     0
 49
-0.12
 74
     0
 49
0.0
 74
     0
 49
-0.12
 74
     0
  0
LTYPE
  5
A8
330
5
100
AcDbSymbolTableRecord
100
AcDbLinetypeTableRecord
  2
ACAD_ISO07W100
 70
     0
  3
ISO dot . . . . . . . . . . . . . . . . . . . .
 72
    65
 73
     2
 40
0.12
 49
0.0
 74
     0
 49
-0.12
 74
     0
  0
LTYPE
  5
A9
330
5
100
AcDbSymbolTableRecord
100
AcDbLinetypeTableRecord
  2
ACAD_ISO08W100
 70
     0
  3
ISO long-dash short-dash ____ __ ____ __ ____ _
 72
    65
 73
     4
 40
0.95
 49
0.47
 74
     0
 49
-0.12
 74
     0
 49
0.24
 74
     0
 49
-0.12
 74
     0
  0
LTYPE
  5
AA
330
5
100
AcDbSymbolTableRecord
100
AcDbLinetypeTableRecord
  2
ACAD_ISO09W100
 70
     0
  3
ISO long-dash double-short-dash ____ __ __ ____
 72
    65
 73
     6
 40
1.31
 49
0.47
 74
     0
 49
-0.12
 74
     0
 49
0.24
 74
     0
 49
-0.12
 74
     0
 49
0.24
 74
     0
 49
-0.12
 74
     0
  0
LTYPE
  5
AB
330
5
100
AcDbSymbolTableRecord
100
AcDbLinetypeTableRecord
  2
ACAD_ISO10W100
 70
     0
  3
ISO dash dot __ . __ . __ . __ . __ . __ . __ .
 72
    65
 73
     4
 40
0.71
 49
0.47
 74
     0
 49
-0.12
 74
     0
 49
0.0
 74
     0
 49
-0.12
 74
     0
  0
LTYPE
  5
AC
330
5
100
AcDbSymbolTableRecord
100
AcDbLinetypeTableRecord
  2
ACAD_ISO11W100
 70
     0
  3
ISO double-dash dot __ __ . __ __ . __ __ . __ 
 72
    65
 73
     6
 40
1.299999999999999
 49
0.47
 74
     0
 49
-0.12
 74
     0
 49
0.47
 74
     0
 49
-0.12
 74
     0
 49
0.0
 74
     0
 49
-0.12
 74
     0
  0
LTYPE
  5
AD
330
5
100
AcDbSymbolTableRecord
100
AcDbLinetypeTableRecord
  2
ACAD_ISO12W100
 70
     0
  3
ISO dash double-dot __ . . __ . . __ . . __ . .
 72
    65
 73
     6
 40
0.8299999999999998
 49
0.47
 74
     0
 49
-0.12
 74
     0
 49
0.0
 74
     0
 49
-0.12
 74
     0
 49
0.0
 74
     0
 49
-0.12
 74
     0
  0
LTYPE
  5
AE
330
5
100
AcDbSymbolTableRecord
100
AcDbLinetypeTableRecord
  2
ACAD_ISO13W100
 70
     0
  3
ISO double-dash double-dot __ __ . . __ __ . . 
 72
    65
 73
     8
 40
1.419999999999999
 49
0.47
 74
     0
 49
-0.12
 74
     0
 49
0.47
 74
     0
 49
-0.12
 74
     0
 49
0.0
 74
     0
 49
-0.12
 74
     0
 49
0.0
 74
     0
 49
-0.12
 74
     0
  0
LTYPE
  5
AF
330
5
100
AcDbSymbolTableRecord
100
AcDbLinetypeTableRecord
  2
ACAD_ISO14W100
 70
     0
  3
ISO dash triple-dot __ . . . __ . . . __ . . . 
 72
    65
 73
     8
 40
0.95
 49
0.47
 74
     0
 49
-0.12
 74
     0
 49
0.0
 74
     0
 49
-0.12
 74
     0
 49
0.0
 74
     0
 49
-0.12
 74
     0
 49
0.0
 74
     0
 49
-0.12
 74
     0
  0
LTYPE
  5
B0
330
5
100
AcDbSymbolTableRecord
100
AcDbLinetypeTableRecord
  2
ACAD_ISO15W100
 70
     0
  3
ISO double-dash triple-dot __ __ . . . __ __ . 
 72
    65
 73
    10
 40
1.539999999999999
 49
0.47
 74
     0
 49
-0.12
 74
     0
 49
0.47
 74
     0
 49
-0.12
 74
     0
 49
0.0
 74
     0
 49
-0.12
 74
     0
 49
0.0
 74
     0
 49
-0.12
 74
     0
 49
0.0
 74
     0
 49
-0.12
 74
     0
  0
LTYPE
  5
B3
330
5
100
AcDbSymbolTableRecord
100
AcDbLinetypeTableRecord
  2
FENCELINE1
 70
     0
  3
Fenceline circle ----0-----0----0-----0----0---
 72
    65
 73
     4
 40
1.45
 49
0.25
 74
     0
 49
-0.1
 74
     4
 75
   133
340
B2
 46
0.1
 50
0.0
 44
-0.1
 45
0.0
 49
-0.1
 74
     0
 49
1.0
 74
     0
  0
LTYPE
  5
B4
330
5
100
AcDbSymbolTableRecord
100
AcDbLinetypeTableRecord
  2
FENCELINE2
 70
     0
  3
Fenceline square ----[]-----[]----[]-----[]----
 72
    65
 73
     4
 40
1.45
 49
0.25
 74
     0
 49
-0.1
 74
     4
 75
   132
340
B2
 46
0.1
 50
0.0
 44
-0.1
 45
0.0
 49
-0.1
 74
     0
 49
1.0
 74
     0
  0
LTYPE
  5
B5
330
5
100
AcDbSymbolTableRecord
100
AcDbLinetypeTableRecord
  2
TRACKS
 70
     0
  3
Tracks -|-|-|-|-|-|-|-|-|-|-|-|-|-|-|-|-|-|-|-|
 72
    65
 73
     2
 40
0.3
 49
0.15
 74
     4
 75
   130
340
B2
 46
0.25
 50
0.0
 44
0.0
 45
0.0
 49
0.15
 74
     0
  0
LTYPE
  5
B6
330
5
100
AcDbSymbolTableRecord
100
AcDbLinetypeTableRecord
  2
BATTING
 70
     0
  3
Batting SSSSSSSSSSSSSSSSSSSSSSSSSSSSSSSSSSSSSSS
 72
    65
 73
     4
 40
0.4001000000000001
 49
0.0001
 74
     0
 49
-0.1
 74
     4
 75
   134
340
B2
 46
0.1
 50
0.0
 44
-0.1
 45
0.0
 49
-0.2
 74
     4
 75
   134
340
B2
 46
0.1
 50
180.0
 44
0.1
 45
0.0
 49
-0.1
 74
     0
  0
LTYPE
  5
B7
330
5
100
AcDbSymbolTableRecord
100
AcDbLinetypeTableRecord
  2
HOT_WATER_SUPPLY
 70
     0
  3
Hot water supply ---- HW ---- HW ---- HW ----
 72
    65
 73
     3
 40
0.9
 49
0.5
 74
     0
 49
-0.2
 74
     2
 75
     0
340
55
 46
0.1
 50
0.0
 44
-0.1
 45
-0.05
  9
HW
 49
-0.2
 74
     0
  0
LTYPE
  5
B8
330
5
100
AcDbSymbolTableRecord
100
AcDbLinetypeTableRecord
  2
GAS_LINE
 70
     0
  3
Gas line ----GAS----GAS----GAS----GAS----GAS---
 72
    65
 73
     3
 40
0.95
 49
0.5
 74
     0
 49
-0.2
 74
     2
 75
     0
340
55
 46
0.1
 50
0.0
 44
-0.1
 45
-0.05
  9
GAS
 49
-0.25
 74
     0
  0
LTYPE
  5
B9
330
5
100
AcDbSymbolTableRecord
100
AcDbLinetypeTableRecord
  2
ZIGZAG
 70
     0
  3
Zig zag /\/\/\/\/\/\/\/\/\/\/\/\/\/\/\/\/\/\/\/
 72
    65
 73
     4
 40
0.8001000000000001
 49
0.0001
 74
     0
 49
-0.2
 74
     4
 75
   131
340
B2
 46
0.2
 50
0.0
 44
-0.2
 45
0.0
 49
-0.4
 74
     4
 75
   131
340
B2
 46
0.2
 50
180.0
 44
0.2
 45
0.0
 49
-0.2
 74
     0
  0
ENDTAB
  0
TABLE
  2
LAYER
  5
2
330
0
100
AcDbSymbolTable
 70
    27
  0
LAYER
  5
54
330
2
100
AcDbSymbolTableRecord
100
AcDbLayerTableRecord
  2
0
 70
     0
 62
     7
  6
Continuous
370
    18
390
F
347
21
  0
LAYER
  5
C3
330
2
100
AcDbSymbolTableRecord
100
AcDbLayerTableRecord
  2
Dimension (ANSI)
 70
     0
 62
     7
  6
Continuous
370
    13
390
F
347
21
  0
LAYER
  5
C5
330
2
100
AcDbSymbolTableRecord
100
AcDbLayerTableRecord
  2
Hidden (ANSI)
 70
     0
 62
     7
  6
DASHED
370
    15
390
F
347
21
  0
LAYER
  5
CC
330
2
100
AcDbSymbolTableRecord
100
AcDbLayerTableRecord
  2
Symbol (ANSI)
 70
     0
 62
     7
  6
Continuous
370
    18
390
F
347
21
  0
LAYER
  5
CF
330
2
100
AcDbSymbolTableRecord
100
AcDbLayerTableRecord
  2
Visible (ANSI)
 70
     0
 62
     7
  6
Continuous
370
    13
390
F
347
21
  0
LAYER
  5
D0
330
2
100
AcDbSymbolTableRecord
100
AcDbLayerTableRecord
  2
Visible Narrow (ANSI)
 70
     0
 62
     7
  6
Continuous
370
    18
390
F
347
21
  0
LAYER
  5
143
330
2
100
AcDbSymbolTableRecord
100
AcDbLayerTableRecord
  2
Defpoints
 70
     0
 62
     7
  6
Continuous
290
     0
370
    -3
390
F
347
21
  0
ENDTAB
  0
TABLE
  2
STYLE
  5
3
330
0
100
AcDbSymbolTable
 70
    18
  0
STYLE
  5
55
330
3
100
AcDbSymbolTableRecord
100
AcDbTextStyleTableRecord
  2
Standard
 70
     0
 40
0.0
 41
1.0
 50
0.0
 71
     0
 42
0.2
  3
txt
  4

  0
STYLE
  5
5A
330
3
100
AcDbSymbolTableRecord
100
AcDbTextStyleTableRecord
  2
Annotative
 70
     0
 40
0.0
 41
1.0
 50
0.0
 71
     0
 42
0.2
  3
txt
  4

1001
AcadAnnotative
1000
AnnotativeData
1002
{
1070
     1
1070
     1
1002
}
  0
STYLE
  5
B2
330
3
100
AcDbSymbolTableRecord
100
AcDbTextStyleTableRecord
  2

 70
     1
 40
0.0
 41
1.0
 50
0.0
 71
     0
 42
0.2
  3
ltypeshp.shx
  4

  0
STYLE
  5
D4
330
3
100
AcDbSymbolTableRecord
100
AcDbTextStyleTableRecord
  2
ITALICC_120
 70
     0
 40
0.0
 41
1.0
 50
0.0
 71
     0
 42
0.2
  3
italicc.shx
  4

  0
STYLE
  5
D5
330
3
100
AcDbSymbolTableRecord
100
AcDbTextStyleTableRecord
  2
Label Text (ANSI)
 70
     0
 40
0.0
 41
1.0
 50
0.0
 71
     0
 42
0.2
  3
tahoma.ttf
  4

1001
ACAD
1000
Tahoma
1071
      256
  0
STYLE
  5
D6
330
3
100
AcDbSymbolTableRecord
100
AcDbTextStyleTableRecord
  2
Note Text (ANSI)
 70
     0
 40
0.0
 41
1.0
 50
0.0
 71
     0
 42
0.2
  3
tahoma.ttf
  4

1001
ACAD
1000
Tahoma
1071
      256
  0
STYLE
  5
D7
330
3
100
AcDbSymbolTableRecord
100
AcDbTextStyleTableRecord
  2
ROMANS
 70
     0
 40
0.0
 41
1.0
 50
0.0
 71
     0
 42
0.2
  3
romans.shx
  4

  0
STYLE
  5
D8
330
3
100
AcDbSymbolTableRecord
100
AcDbTextStyleTableRecord
  2
SANSSERIF_114
 70
     0
 40
0.0
 41
1.0
 50
0.0
 71
     0
 42
0.2
  3
tahoma.ttf
  4

1001
ACAD
1000
Tahoma
1071
      256
  0
STYLE
  5
D9
330
3
100
AcDbSymbolTableRecord
100
AcDbTextStyleTableRecord
  2
SANSSERIF_117
 70
     0
 40
0.0
 41
1.0
 50
0.0
 71
     0
 42
0.2
  3
tahoma.ttf
  4

1001
ACAD
1000
Tahoma
1071
      256
  0
STYLE
  5
DA
330
3
100
AcDbSymbolTableRecord
100
AcDbTextStyleTableRecord
  2
STANDARDAM_ANSI
 70
     0
 40
0.0
 41
1.0
 50
0.0
 71
     0
 42
0.2
  3
txt.shx
  4

  0
STYLE
  5
DB
330
3
100
AcDbSymbolTableRecord
100
AcDbTextStyleTableRecord
  2
StandardAM_ANSI$0
 70
     0
 40
0.0
 41
1.0
 50
0.0
 71
     0
 42
0.2
  3
txt.shx
  4

  0
STYLE
  5
DC
330
3
100
AcDbSymbolTableRecord
100
AcDbTextStyleTableRecord
  2
STANDARDAM_ANSI$3
 70
     0
 40
0.0
 41
1.0
 50
0.0
 71
     0
 42
0.2
  3
txt.shx
  4

  0
STYLE
  5
DD
330
3
100
AcDbSymbolTableRecord
100
AcDbTextStyleTableRecord
  2
STANDARDAM_ANSI$4
 70
     0
 40
0.0
 41
1.0
 50
0.0
 71
     0
 42
0.2
  3
txt.shx
  4

  0
STYLE
  5
DE
330
3
100
AcDbSymbolTableRecord
100
AcDbTextStyleTableRecord
  2
STANDARDAM_ANSI$7
 70
     0
 40
0.0
 41
1.0
 50
0.0
 71
     0
 42
0.2
  3
txt.shx
  4

  0
STYLE
  5
DF
330
3
100
AcDbSymbolTableRecord
100
AcDbTextStyleTableRecord
  2
STANDARDAM_ANSI$SF
 70
     0
 40
0.0
 41
1.0
 50
0.0
 71
     0
 42
0.2
  3
txt.shx
  4

  0
STYLE
  5
E0
330
3
100
AcDbSymbolTableRecord
100
AcDbTextStyleTableRecord
  2
STANDARDAM_ANSI$SH
 70
     0
 40
0.0
 41
1.0
 50
0.0
 71
     0
 42
0.2
  3
txt.shx
  4

  0
STYLE
  5
E1
330
3
100
AcDbSymbolTableRecord
100
AcDbTextStyleTableRecord
  2
STANDARDSTANDARD
 70
     0
 40
0.0
 41
1.0
 50
0.0
 71
     0
 42
0.2
  3
txt.shx
  4

  0
STYLE
  5
132
330
3
100
AcDbSymbolTableRecord
100
AcDbTextStyleTableRecord
  2
Text Style150
 70
     0
 40
0.0
 41
1.0
 50
0.0
 71
     0
 42
0.2
  3
tahoma.ttf
  4

1001
ACAD
1000
Tahoma
1071
      256
  0
ENDTAB
  0
TABLE
  2
VIEW
  5
6
330
0
100
AcDbSymbolTable
 70
     0
  0
ENDTAB
  0
TABLE
  2
UCS
  5
7
330
0
100
AcDbSymbolTable
 70
     0
  0
ENDTAB
  0
TABLE
  2
APPID
  5
9
330
0
100
AcDbSymbolTable
 70
     3
  0
APPID
  5
56
330
9
100
AcDbSymbolTableRecord
100
AcDbRegAppTableRecord
  2
ACAD
 70
     0
  0
APPID
  5
5E
330
9
100
AcDbSymbolTableRecord
100
AcDbRegAppTableRecord
  2
AcadAnnotative
 70
     0
  0
APPID
  5
78A
330
9
100
AcDbSymbolTableRecord
100
AcDbRegAppTableRecord
  2
ACAD_DSTYLE_DIMRADIAL_EXTENSION
 70
     0
  0
ENDTAB
  0
TABLE
  2
DIMSTYLE
  5
A
330
0
100
AcDbSymbolTable
 70
    29
100
AcDbDimStyleTable
 71
     3
340
F6
340
58
340
F8
  0
DIMSTYLE
105
58
330
A
100
AcDbSymbolTableRecord
100
AcDbDimStyleTableRecord
  2
STANDARD
 70
     0
 41
0.1800000071525573
 42
0.0625
140
0.1800000071525574
144
1.0
147
0.0900000035762787
176
   256
177
   256
178
   256
274
     3
340
55
371
    -1
372
    -1
  0
DIMSTYLE
105
59
330
A
100
AcDbSymbolTableRecord
100
AcDbDimStyleTableRecord
  2
Annotative
 70
     0
340
55
1001
AcadAnnotative
1000
AnnotativeData
1002
{
1070
     1
1070
     1
1002
}
  0
DIMSTYLE
105
E2
330
A
100
AcDbSymbolTableRecord
100
AcDbDimStyleTableRecord
  2
AM_ANSI
 70
     0
  4
 mm
 40
2.0
 41
0.119999997317791
 42
0.05
 43
0.5
 44
0.1
 45
0.00000001
 78
     4
 79
     2
140
0.1200000047683716
146
0.7099999189376831
147
0.0599999986588955
176
   256
177
   256
178
     2
284
     4
340
DA
371
    -1
372
    -1
  0
DIMSTYLE
105
E3
330
A
100
AcDbSymbolTableRecord
100
AcDbDimStyleTableRecord
  2
AM_ANSI$7
 70
     0
  4
 mm
 40
2.0
 41
0.119999997317791
 42
0.05
 43
0.5
 44
0.1
 45
0.00000001
 78
     4
 79
     2
140
0.1200000047683716
146
0.7099999189376831
147
0.0599999986588955
176
   256
177
   256
178
     2
284
     4
340
DA
371
    -1
372
    -1
  0
DIMSTYLE
105
E4
330
A
100
AcDbSymbolTableRecord
100
AcDbDimStyleTableRecord
  2
AM_ANSI$0
 70
     0
  4
 mm
 40
2.0
 41
0.119999997317791
 42
0.05
 43
0.5
 44
0.1
 45
0.00000001
 78
     4
 79
     2
140
0.1200000047683716
146
0.7099999189376831
147
0.0599999986588955
176
   256
177
   256
178
     2
284
     4
340
DB
371
    -1
372
    -1
  0
DIMSTYLE
105
E5
330
A
100
AcDbSymbolTableRecord
100
AcDbDimStyleTableRecord
  2
AM_ANSI$0$7
 70
     0
  4
 mm
 40
2.0
 41
0.119999997317791
 42
0.05
 43
0.5
 44
0.1
 45
0.00000001
 78
     4
 79
     2
140
0.1200000047683716
146
0.7099999189376831
147
0.0599999986588955
176
   256
177
   256
178
     2
284
     4
340
DB
371
    -1
372
    -1
  0
DIMSTYLE
105
E6
330
A
100
AcDbSymbolTableRecord
100
AcDbDimStyleTableRecord
  2
AM_ANSI$3
 70
     0
  4
 mm
 40
2.0
 41
0.119999997317791
 42
0.05
 43
0.5
 44
0.1
 45
0.00000001
 78
     4
 79
     2
140
0.1200000047683716
146
0.7099999189376831
147
0.0599999986588955
176
   256
177
   256
178
     2
284
     4
340
DC
371
    -1
372
    -1
  0
DIMSTYLE
105
E7
330
A
100
AcDbSymbolTableRecord
100
AcDbDimStyleTableRecord
  2
AM_ANSI$3$7
 70
     0
  4
 mm
 40
2.0
 41
0.119999997317791
 42
0.05
 43
0.5
 44
0.1
 45
0.00000001
 78
     4
 79
     2
140
0.1200000047683716
146
0.7099999189376831
147
0.0599999986588955
176
   256
177
   256
178
     2
284
     4
340
DC
371
    -1
372
    -1
  0
DIMSTYLE
105
E8
330
A
100
AcDbSymbolTableRecord
100
AcDbDimStyleTableRecord
  2
AM_ANSI$4
 70
     0
  4
 mm
 40
2.0
 41
0.119999997317791
 42
0.05
 43
0.5
 44
0.1
 45
0.00000001
 78
     4
 79
     2
140
0.1200000047683716
146
0.7099999189376831
147
0.0599999986588955
176
   256
177
   256
178
     2
284
     4
340
DD
371
    -1
372
    -1
  0
DIMSTYLE
105
E9
330
A
100
AcDbSymbolTableRecord
100
AcDbDimStyleTableRecord
  2
AM_ANSI$4$7
 70
     0
  4
 mm
 40
2.0
 41
0.119999997317791
 42
0.05
 43
0.5
 44
0.1
 45
0.00000001
 78
     4
 79
     2
140
0.1200000047683716
146
0.7099999189376831
147
0.0599999986588955
176
   256
177
   256
178
     2
284
     4
340
DD
371
    -1
372
    -1
  0
DIMSTYLE
105
EA
330
A
100
AcDbSymbolTableRecord
100
AcDbDimStyleTableRecord
  2
AM_ANSI$SF
 70
     0
  4
 mm
 40
2.0
 41
0.119999997317791
 42
0.05
 43
0.5
 44
0.1
 45
0.00000001
 75
     1
 76
     1
 78
     4
 79
     2
140
0.1200000047683716
146
0.7099999189376831
147
0.0599999986588955
176
   256
177
   256
178
     2
284
     4
340
DF
371
    -1
372
    -1
  0
DIMSTYLE
105
EB
330
A
100
AcDbSymbolTableRecord
100
AcDbDimStyleTableRecord
  2
AM_ANSI$SF$7
 70
     0
  4
 mm
 40
2.0
 41
0.119999997317791
 42
0.05
 43
0.5
 44
0.1
 45
0.00000001
 75
     1
 76
     1
 78
     4
 79
     2
140
0.1200000047683716
146
0.7099999189376831
147
0.0599999986588955
176
   256
177
   256
178
     2
284
     4
340
DF
371
    -1
372
    -1
  0
DIMSTYLE
105
EC
330
A
100
AcDbSymbolTableRecord
100
AcDbDimStyleTableRecord
  2
AM_ANSI$SH
 70
     0
  4
 mm
 40
2.0
 41
0.119999997317791
 42
0.05
 43
0.5
 44
0.1
 45
0.00000001
 75
     1
 76
     1
 78
     4
 79
     2
140
0.1200000047683716
146
0.7099999189376831
147
0.0599999986588955
176
   256
177
   256
178
     2
284
     4
340
E0
371
    -1
372
    -1
  0
DIMSTYLE
105
ED
330
A
100
AcDbSymbolTableRecord
100
AcDbDimStyleTableRecord
  2
AM_ANSI$SH$7
 70
     0
  4
 mm
 40
2.0
 41
0.119999997317791
 42
0.05
 43
0.5
 44
0.1
 45
0.00000001
 75
     1
 76
     1
 78
     4
 79
     2
140
0.1200000047683716
146
0.7099999189376831
147
0.0599999986588955
176
   256
177
   256
178
     2
284
     4
340
E0
371
    -1
372
    -1
  0
DIMSTYLE
105
EE
330
A
100
AcDbSymbolTableRecord
100
AcDbDimStyleTableRecord
  2
Architectural (ANSI)
 70
     0
 40
2.0
 41
0.0984251946210861
 43
0.2362204724409449
 44
0.125
 45
0.00000001
 46
0.3937007874015748
 78
     3
 79
     3
140
0.1200000047683716
147
0.031496062992126
171
     1
176
   256
177
   256
178
   256
272
     2
274
     1
276
     2
277
     4
284
    12
285
     4
286
    12
340
D6
371
    -1
372
    -1
  0
DIMSTYLE
105
EF
330
A
100
AcDbSymbolTableRecord
100
AcDbDimStyleTableRecord
  2
Architectural (ANSI)$7
 70
     0
 40
2.0
 41
0.0984251946210861
 43
0.2362204724409449
 44
0.125
 45
0.00000001
 46
0.3937007874015748
 78
     3
 79
     3
140
0.1200000047683716
147
0.031496062992126
171
     1
176
   256
177
   256
178
   256
272
     2
274
     1
276
     2
277
     4
284
    12
285
     4
286
    12
340
D6
371
    -1
372
    -1
  0
DIMSTYLE
105
F0
330
A
100
AcDbSymbolTableRecord
100
AcDbDimStyleTableRecord
  2
Default - Fraction (ANSI)
 70
     0
 40
2.0
 41
0.0984251946210861
 43
0.2362204724409449
 44
0.125
 45
0.00000001
 46
0.3937007874015748
 79
     3
140
0.1200000047683716
147
0.031496062992126
171
     1
176
   256
177
   256
178
   256
272
     2
274
     1
276
     2
277
     5
284
    12
285
     4
286
    12
340
D6
371
    -1
372
    -1
  0
DIMSTYLE
105
F1
330
A
100
AcDbSymbolTableRecord
100
AcDbDimStyleTableRecord
  2
Default - Fraction (ANSI)$7
 70
     0
 40
2.0
 41
0.0984251946210861
 43
0.2362204724409449
 44
0.125
 45
0.00000001
 46
0.3937007874015748
 79
     3
140
0.1200000047683716
147
0.031496062992126
171
     1
176
   256
177
   256
178
   256
272
     2
274
     1
276
     2
277
     5
284
    12
285
     4
286
    12
340
D6
371
    -1
372
    -1
  0
DIMSTYLE
105
F2
330
A
100
AcDbSymbolTableRecord
100
AcDbDimStyleTableRecord
  2
Default - mm (ANSI)
 70
     0
 40
2.0
 41
0.0984251946210861
 42
0.063
 43
0.2362204724409449
 44
0.125
 45
0.00000001
 46
0.3937007874015748
 73
     0
 78
     4
 79
     1
140
0.1200000047683716
143
1.0
144
25.4
147
0.031496062992126
171
     1
176
   256
177
   256
178
   256
179
     1
271
     2
272
     2
274
     1
284
     4
285
     4
340
D6
371
    -1
372
    -1
  0
DIMSTYLE
105
F3
330
A
100
AcDbSymbolTableRecord
100
AcDbDimStyleTableRecord
  2
Default - mm (ANSI)$7
 70
     0
 40
2.0
 41
0.0984251946210861
 42
0.063
 43
0.2362204724409449
 44
0.125
 45
0.00000001
 46
0.3937007874015748
 73
     0
 78
     4
 79
     1
140
0.1200000047683716
143
1.0
144
25.4
147
0.031496062992126
171
     1
176
   256
177
   256
178
   256
179
     1
271
     2
272
     2
274
     1
284
     4
285
     4
340
D6
371
    -1
372
    -1
  0
DIMSTYLE
105
F4
330
A
100
AcDbSymbolTableRecord
100
AcDbDimStyleTableRecord
  2
Default - mm [in] (ANSI)
 70
     0
  4
 in
 40
2.0
 41
0.0984251946210861
 42
0.063
 43
0.25
 44
0.125
 45
0.00000001
 46
0.3937007874015748
 73
     0
 78
     4
 79
     1
140
0.1200000047683716
143
0.03937
144
25.4
147
0.031496062992126
170
     1
171
     3
176
   256
177
   256
178
   256
179
     1
271
     2
272
     2
274
     3
284
     4
285
     4
286
     4
340
D6
371
    -1
372
    -1
  0
DIMSTYLE
105
F5
330
A
100
AcDbSymbolTableRecord
100
AcDbDimStyleTableRecord
  2
Default - mm [in] (ANSI)$7
 70
     0
  4
 in
 40
2.0
 41
0.0984251946210861
 42
0.063
 43
0.25
 44
0.125
 45
0.00000001
 46
0.3937007874015748
 73
     0
 78
     4
 79
     1
140
0.1200000047683716
143
0.03937
144
25.4
147
0.031496062992126
170
     1
171
     3
176
   256
177
   256
178
   256
179
     1
271
     2
272
     2
274
     3
284
     4
285
     4
286
     4
340
D6
371
    -1
372
    -1
  0
DIMSTYLE
105
F6
102
{ACAD_REACTORS
330
527
330
611
330
6F0
330
7AB
102
}
330
A
100
AcDbSymbolTableRecord
100
AcDbDimStyleTableRecord
  2
Default (ANSI)
 70
     0
 40
2.0
 41
0.0984251946210861
 43
0.2362204724409449
 44
0.125
 45
0.00000001
 46
0.3937007874015748
 79
     1
140
0.1200000047683716
147
0.031496062992126
171
     1
176
   256
177
   256
178
   256
271
     3
272
     2
274
     1
284
     4
285
     4
340
D6
371
    -1
372
    -1
  0
DIMSTYLE
105
F7
330
A
100
AcDbSymbolTableRecord
100
AcDbDimStyleTableRecord
  2
Default (ANSI)$7
 70
     0
 40
2.0
 41
0.0984251946210861
 43
0.2362204724409449
 44
0.125
 45
0.00000001
 46
0.3937007874015748
 79
     1
140
0.1200000047683716
147
0.031496062992126
171
     1
176
   256
177
   256
178
   256
271
     3
272
     2
274
     1
284
     4
285
     4
340
D6
371
    -1
372
    -1
  0
DIMSTYLE
105
F8
102
{ACAD_REACTORS
330
141
330
22D
330
317
330
429
102
}
330
A
100
AcDbSymbolTableRecord
100
AcDbDimStyleTableRecord
  2
Default (ANSI)-01
 70
     0
 40
2.0
 41
0.0984251946210861
 43
0.2362204724409449
 44
0.125
 45
0.00000001
 46
0.3937007874015748
 79
     1
140
0.1200000047683716
147
0.031496062992126
171
     1
176
   256
177
   256
178
   256
271
     2
272
     2
274
     1
284
     4
285
     4
340
D6
371
    -1
372
    -1
  0
DIMSTYLE
105
F9
330
A
100
AcDbSymbolTableRecord
100
AcDbDimStyleTableRecord
  2
Default (ANSI)-01$7
 70
     0
 40
2.0
 41
0.0984251946210861
 43
0.2362204724409449
 44
0.125
 45
0.00000001
 46
0.3937007874015748
 79
     1
140
0.1200000047683716
147
0.031496062992126
171
     1
176
   256
177
   256
178
   256
271
     2
272
     2
274
     1
284
     4
285
     4
340
D6
371
    -1
372
    -1
  0
DIMSTYLE
105
FA
330
A
100
AcDbSymbolTableRecord
100
AcDbDimStyleTableRecord
  2
Alternate (ANSI)
 70
     0
 40
2.0
 41
0.0979999974370003
340
55
342
FB
  0
DIMSTYLE
105
10D
330
A
100
AcDbSymbolTableRecord
100
AcDbDimStyleTableRecord
  2
Datum (ANSI)
 70
     0
 40
2.0
 41
0.0979999974370003
340
55
342
FB
  0
DIMSTYLE
105
11C
330
A
100
AcDbSymbolTableRecord
100
AcDbDimStyleTableRecord
  2
Large (ANSI)
 70
     0
 40
2.0
 41
0.1959999948740005
340
55
342
FB
  0
ENDTAB
  0
TABLE
  2
BLOCK_RECORD
  5
1
330
0
100
AcDbSymbolTable
 70
    12
  0
BLOCK_RECORD
  5
6C
330
1
100
AcDbSymbolTableRecord
100
AcDbBlockTableRecord
  2
*Model_Space
340
6F
 70
     0
280
     1
281
     0
  0
BLOCK_RECORD
  5
68
330
1
100
AcDbSymbolTableRecord
100
AcDbBlockTableRecord
  2
*Paper_Space
340
6B
 70
     0
280
     1
281
     0
  0
BLOCK_RECORD
  5
70
330
1
100
AcDbSymbolTableRecord
100
AcDbBlockTableRecord
  2
*Paper_Space0
340
73
 70
     0
280
     1
281
     0
  0
BLOCK_RECORD
  5
FB
330
1
100
AcDbSymbolTableRecord
100
AcDbBlockTableRecord
  2
_Closed
340
0
 70
     0
280
     1
281
     0
  0
BLOCK_RECORD
  5
102
330
1
100
AcDbSymbolTableRecord
100
AcDbBlockTableRecord
  2
DatumFilled45
340
0
 70
     0
280
     1
281
     0
  0
BLOCK_RECORD
  5
10E
330
1
100
AcDbSymbolTableRecord
100
AcDbBlockTableRecord
  2
Filled-1
340
0
 70
     0
280
     1
281
     0
  0
BLOCK_RECORD
  5
144
330
1
100
AcDbSymbolTableRecord
100
AcDbBlockTableRecord
  2
*D4
340
0
 70
     0
280
     1
281
     0
  0
BLOCK_RECORD
  5
22E
330
1
100
AcDbSymbolTableRecord
100
AcDbBlockTableRecord
  2
*D5
340
0
 70
     0
280
     1
281
     0
  0
BLOCK_RECORD
  5
318
330
1
100
AcDbSymbolTableRecord
100
AcDbBlockTableRecord
  2
*D6
340
0
 70
     0
280
     1
281
     0
  0
BLOCK_RECORD
  5
42A
330
1
100
AcDbSymbolTableRecord
100
AcDbBlockTableRecord
  2
*D7
340
0
 70
     0
280
     1
281
     0
  0
BLOCK_RECORD
  5
528
330
1
100
AcDbSymbolTableRecord
100
AcDbBlockTableRecord
  2
*D8
340
0
 70
     0
280
     1
281
     0
  0
BLOCK_RECORD
  5
612
330
1
100
AcDbSymbolTableRecord
100
AcDbBlockTableRecord
  2
*D9
340
0
 70
     0
280
     1
281
     0
  0
BLOCK_RECORD
  5
6F1
330
1
100
AcDbSymbolTableRecord
100
AcDbBlockTableRecord
  2
*D10
340
0
 70
     0
280
     1
281
     0
  0
BLOCK_RECORD
  5
7AC
330
1
100
AcDbSymbolTableRecord
100
AcDbBlockTableRecord
  2
*D11
340
0
 70
     0
280
     1
281
     0
  0
ENDTAB
  0
ENDSEC
  0
SECTION
  2
BLOCKS
  0
BLOCK
  5
6D
330
6C
100
AcDbEntity
  8
0
100
AcDbBlockBegin
  2
*Model_Space
 70
     0
 10
0.0
 20
0.0
 30
0.0
  3
*Model_Space
  1

  0
ENDBLK
  5
6E
330
6C
100
AcDbEntity
  8
0
100
AcDbBlockEnd
  0
BLOCK
  5
69
330
68
100
AcDbEntity
 67
     1
  8
0
100
AcDbBlockBegin
  2
*Paper_Space
 70
     0
 10
0.0
 20
0.0
 30
0.0
  3
*Paper_Space
  1

  0
ENDBLK
  5
6A
330
68
100
AcDbEntity
 67
     1
  8
0
100
AcDbBlockEnd
  0
BLOCK
  5
71
330
70
100
AcDbEntity
 67
     1
  8
0
100
AcDbBlockBegin
  2
*Paper_Space0
 70
     0
 10
0.0
 20
0.0
 30
0.0
  3
*Paper_Space0
  1

  0
ENDBLK
  5
72
330
70
100
AcDbEntity
 67
     1
  8
0
100
AcDbBlockEnd
  0
BLOCK
  5
100
330
FB
100
AcDbEntity
  8
0
100
AcDbBlockBegin
  2
_Closed
 70
     0
 10
0.0
 20
0.0
 30
0.0
  3
_Closed
  1

  0
LINE
  5
FC
330
FB
100
AcDbEntity
  8
0
  6
ByBlock
 62
     0
370
    -2
100
AcDbLine
 10
-1.0
 20
0.1666666666666666
 30
0.0
 11
0.0
 21
0.0
 31
0.0
  0
LINE
  5
FD
330
FB
100
AcDbEntity
  8
0
  6
ByBlock
 62
     0
370
    -2
100
AcDbLine
 10
0.0
 20
0.0
 30
0.0
 11
-1.0
 21
-0.1666666666666666
 31
0.0
  0
LINE
  5
FE
330
FB
100
AcDbEntity
  8
0
  6
ByBlock
 62
     0
370
    -2
100
AcDbLine
 10
-1.0
 20
0.1666666666666666
 30
0.0
 11
-1.0
 21
-0.1666666666666666
 31
0.0
  0
LINE
  5
FF
330
FB
100
AcDbEntity
  8
0
  6
ByBlock
 62
     0
370
    -2
100
AcDbLine
 10
0.0
 20
0.0
 30
0.0
 11
-1.0
 21
0.0
 31
0.0
  0
ENDBLK
  5
101
330
FB
100
AcDbEntity
  8
0
100
AcDbBlockEnd
  0
BLOCK
  5
103
330
102
100
AcDbEntity
  8
0
100
AcDbBlockBegin
  2
DatumFilled45
 70
     0
 10
0.0
 20
0.0
 30
0.0
  3
DatumFilled45
  1

  0
POLYLINE
  5
105
330
102
100
AcDbEntity
  8
0
 62
     0
100
AcDb2dPolyline
 66
     1
 10
0.0
 20
0.0
 30
0.0
 70
   128
  0
VERTEX
  5
106
330
105
100
AcDbEntity
  8
0
 62
     0
100
AcDbVertex
100
AcDb2dVertex
 10
0.0
 20
0.9999999999999998
 30
0.0
  0
VERTEX
  5
107
330
105
100
AcDbEntity
  8
0
 62
     0
100
AcDbVertex
100
AcDb2dVertex
 10
0.0
 20
-0.9999999999999998
 30
0.0
  0
VERTEX
  5
109
330
105
100
AcDbEntity
  8
0
 62
     0
100
AcDbVertex
100
AcDb2dVertex
 10
-0.9999999999999998
 20
0.0
 30
0.0
  0
VERTEX
  5
10A
330
105
100
AcDbEntity
  8
0
 62
     0
100
AcDbVertex
100
AcDb2dVertex
 10
0.0
 20
0.9999999999999998
 30
0.0
  0
SEQEND
  5
108
330
105
100
AcDbEntity
  8
0
 62
     0
  0
SOLID
  5
10C
330
102
100
AcDbEntity
  8
0
 62
     0
100
AcDbTrace
 10
0.0
 20
0.9999999999999998
 30
0.0
 11
0.0
 21
-0.9999999999999998
 31
0.0
 12
-0.9999999999999998
 22
0.0
 32
0.0
 13
0.0
 23
0.9999999999999998
 33
0.0
  0
ENDBLK
  5
104
330
102
100
AcDbEntity
  8
0
100
AcDbBlockEnd
  0
BLOCK
  5
10F
330
10E
100
AcDbEntity
  8
0
100
AcDbBlockBegin
  2
Filled-1
 70
     0
 10
0.0
 20
0.0
 30
0.0
  3
Filled-1
  1

  0
LINE
  5
111
330
10E
100
AcDbEntity
  8
0
 62
     0
100
AcDbLine
 10
-0.9999999999999998
 20
0.0
 30
0.0
 11
0.0
 21
0.0
 31
0.0
  0
POLYLINE
  5
112
330
10E
100
AcDbEntity
  8
0
 62
     0
100
AcDb2dPolyline
 66
     1
 10
0.0
 20
0.0
 30
0.0
 70
   128
  0
VERTEX
  5
113
330
112
100
AcDbEntity
  8
0
 62
     0
100
AcDbVertex
100
AcDb2dVertex
 10
-0.9999999999999998
 20
-0.0994897959183674
 30
0.0
  0
VERTEX
  5
114
330
112
100
AcDbEntity
  8
0
 62
     0
100
AcDbVertex
100
AcDb2dVertex
 10
0.0
 20
0.0
 30
0.0
  0
VERTEX
  5
116
330
112
100
AcDbEntity
  8
0
 62
     0
100
AcDbVertex
100
AcDb2dVertex
 10
-0.9999999999999998
 20
0.0994897959183674
 30
0.0
  0
VERTEX
  5
117
330
112
100
AcDbEntity
  8
0
 62
     0
100
AcDbVertex
100
AcDb2dVertex
 10
-0.9999999999999998
 20
-0.0994897959183674
 30
0.0
  0
SEQEND
  5
115
330
112
100
AcDbEntity
  8
0
 62
     0
  0
SOLID
  5
118
330
10E
100
AcDbEntity
  8
0
 62
     0
100
AcDbTrace
 10
-0.9999999999999998
 20
-0.0994897959183674
 30
0.0
 11
0.0
 21
0.0
 31
0.0
 12
-0.9999999999999998
 22
0.0994897959183674
 32
0.0
 13
-0.9999999999999998
 23
-0.0994897959183674
 33
0.0
  0
LINE
  5
119
330
10E
100
AcDbEntity
  8
0
 62
     0
100
AcDbLine
 10
-0.9999999999999998
 20
-0.0994897959183674
 30
0.0
 11
0.0
 21
0.0
 31
0.0
  0
LINE
  5
11A
330
10E
100
AcDbEntity
  8
0
 62
     0
100
AcDbLine
 10
0.0
 20
0.0
 30
0.0
 11
-0.9999999999999998
 21
0.0994897959183674
 31
0.0
  0
LINE
  5
11B
330
10E
100
AcDbEntity
  8
0
 62
     0
100
AcDbLine
 10
-0.9999999999999998
 20
0.0994897959183674
 30
0.0
 11
-0.9999999999999998
 21
-0.0994897959183674
 31
0.0
  0
ENDBLK
  5
110
330
10E
100
AcDbEntity
  8
0
100
AcDbBlockEnd
  0
BLOCK
  5
145
330
144
100
AcDbEntity
  8
0
100
AcDbBlockBegin
  2
*D4
 70
     1
 10
0.0
 20
0.0
 30
0.0
  3
*D4
  1

  0
LINE
  5
223
330
144
100
AcDbEntity
  8
Dimension (ANSI)
440
 16777216
100
AcDbLine
 10
16.33857742089607
 20
6.702397436098299
 30
0.0
 11
16.33857742089607
 21
4.933856103145399
 31
0.0
  0
LINE
  5
224
330
144
100
AcDbEntity
  8
Dimension (ANSI)
440
 16777216
100
AcDbLine
 10
5.458577420896074
 20
6.702397436098299
 30
0.0
 11
5.458577420896074
 21
4.933856103145399
 31
0.0
  0
LINE
  5
225
330
144
100
AcDbEntity
  8
Dimension (ANSI)
440
 16777216
100
AcDbLine
 10
16.1417270316539
 20
5.183856103145399
 30
0.0
 11
11.20889643041275
 21
5.183856103145399
 31
0.0
  0
LINE
  5
226
330
144
100
AcDbEntity
  8
Dimension (ANSI)
440
 16777216
100
AcDbLine
 10
5.655427810138246
 20
5.183856103145399
 30
0.0
 11
10.31052800230633
 21
5.183856103145399
 31
0.0
  0
SOLID
  5
227
330
144
100
AcDbEntity
  8
Dimension (ANSI)
440
 16777216
100
AcDbTrace
 10
16.1417270316539
 20
5.216664501352427
 30
0.0
 11
16.1417270316539
 21
5.15104770493837
 31
0.0
 12
16.33857742089607
 22
5.183856103145399
 32
0.0
 13
16.33857742089607
 23
5.183856103145399
 33
0.0
  0
SOLID
  5
228
330
144
100
AcDbEntity
  8
Dimension (ANSI)
440
 16777216
100
AcDbTrace
 10
5.655427810138246
 20
5.216664501352427
 30
0.0
 11
5.655427810138246
 21
5.15104770493837
 31
0.0
 12
5.458577420896074
 22
5.183856103145399
 32
0.0
 13
5.458577420896074
 23
5.183856103145399
 33
0.0
  0
MTEXT
  5
229
330
144
100
AcDbEntity
  8
Dimension (ANSI)
440
 16777216
100
AcDbMText
 10
10.37352012829058
 20
5.309336295366468
 30
0.0
 40
0.2400000095367432
 41
0.0
 46
0.0
 71
     1
 72
     1
  1
\A1;10.88
  7
Note Text (ANSI)
 73
     1
 44
1.0
  0
POINT
  5
22A
330
144
100
AcDbEntity
  8
Defpoints
 62
     0
440
 16777216
100
AcDbPoint
 10
16.33857742089607
 20
6.827397436098299
 30
0.0
  0
POINT
  5
22B
330
144
100
AcDbEntity
  8
Defpoints
 62
     0
440
 16777216
100
AcDbPoint
 10
5.458577420896074
 20
6.827397436098299
 30
0.0
  0
POINT
  5
22C
330
144
100
AcDbEntity
  8
Defpoints
 62
     0
440
 16777216
100
AcDbPoint
 10
5.458577420896074
 20
5.183856103145399
 30
0.0
  0
ENDBLK
  5
146
330
144
100
AcDbEntity
  8
0
100
AcDbBlockEnd
  0
BLOCK
  5
22F
330
22E
100
AcDbEntity
  8
0
100
AcDbBlockBegin
  2
*D5
 70
     1
 10
0.0
 20
0.0
 30
0.0
  3
*D5
  1

  0
LINE
  5
30D
330
22E
100
AcDbEntity
  8
Dimension (ANSI)
440
 16777216
100
AcDbLine
 10
5.333577420896073
 20
6.827397436098299
 30
0.0
 11
3.68604885214847
 21
6.827397436098299
 31
0.0
  0
LINE
  5
30E
330
22E
100
AcDbEntity
  8
Dimension (ANSI)
440
 16777216
100
AcDbLine
 10
5.33357742089607
 20
17.7073974360983
 30
0.0
 11
3.686048852148473
 21
17.7073974360983
 31
0.0
  0
LINE
  5
30F
330
22E
100
AcDbEntity
  8
Dimension (ANSI)
440
 16777216
100
AcDbLine
 10
3.936048852148471
 20
7.024247825340471
 30
0.0
 11
3.936048852148472
 21
12.07892511789298
 31
0.0
  0
LINE
  5
310
330
22E
100
AcDbEntity
  8
Dimension (ANSI)
440
 16777216
100
AcDbLine
 10
3.936048852148473
 20
17.51054704685613
 30
0.0
 11
3.936048852148472
 21
12.45586975430362
 31
0.0
  0
SOLID
  5
311
330
22E
100
AcDbEntity
  8
Dimension (ANSI)
440
 16777216
100
AcDbTrace
 10
3.903240453941442
 20
7.024247825340471
 30
0.0
 11
3.9688572503555
 21
7.024247825340471
 31
0.0
 12
3.93604885214847
 22
6.827397436098299
 32
0.0
 13
3.93604885214847
 23
6.827397436098299
 33
0.0
  0
SOLID
  5
312
330
22E
100
AcDbEntity
  8
Dimension (ANSI)
440
 16777216
100
AcDbTrace
 10
3.903240453941444
 20
17.51054704685613
 30
0.0
 11
3.968857250355502
 21
17.51054704685613
 31
0.0
 12
3.936048852148473
 22
17.7073974360983
 32
0.0
 13
3.936048852148473
 23
17.7073974360983
 33
0.0
  0
MTEXT
  5
313
330
22E
100
AcDbEntity
  8
Dimension (ANSI)
440
 16777216
100
AcDbMText
 10
3.549856764079515
 20
12.39287762831937
 30
0.0
 40
0.2400000095367432
 41
0.0
 46
0.0
 71
     1
 72
     1
  1
\A1;10.88
  7
Note Text (ANSI)
 73
     1
 44
1.0
  0
POINT
  5
314
330
22E
100
AcDbEntity
  8
Defpoints
 62
     0
440
 16777216
100
AcDbPoint
 10
5.458577420896073
 20
6.827397436098299
 30
0.0
  0
POINT
  5
315
330
22E
100
AcDbEntity
  8
Defpoints
 62
     0
440
 16777216
100
AcDbPoint
 10
5.45857742089607
 20
17.7073974360983
 30
0.0
  0
POINT
  5
316
330
22E
100
AcDbEntity
  8
Defpoints
 62
     0
440
 16777216
100
AcDbPoint
 10
3.936048852148473
 20
17.7073974360983
 30
0.0
  0
ENDBLK
  5
230
330
22E
100
AcDbEntity
  8
0
100
AcDbBlockEnd
  0
BLOCK
  5
319
330
318
100
AcDbEntity
  8
0
100
AcDbBlockBegin
  2
*D6
 70
     1
 10
0.0
 20
0.0
 30
0.0
  3
*D6
  1

  0
LINE
  5
41D
330
318
100
AcDbEntity
  8
Dimension (ANSI)
440
 16777216
100
AcDbLine
 10
5.333577420896074
 20
6.827397436098299
 30
0.0
 11
4.870551949957178
 21
6.827397436098299
 31
0.0
  0
LINE
  5
41E
330
318
100
AcDbEntity
  8
Dimension (ANSI)
440
 16777216
100
AcDbLine
 10
5.490577420896073
 20
7.140397436098297
 30
0.0
 11
4.870551949957178
 21
7.140397436098297
 31
0.0
  0
LINE
  5
41F
330
318
100
AcDbEntity
  8
Dimension (ANSI)
440
 16777216
100
AcDbLine
 10
5.120551949957178
 20
6.630547046856126
 30
0.0
 11
5.120551949957178
 21
6.433696657613954
 31
0.0
  0
LINE
  5
420
330
318
100
AcDbEntity
  8
Dimension (ANSI)
440
 16777216
100
AcDbLine
 10
5.120551949957178
 20
7.337247825340469
 30
0.0
 11
5.120551949957178
 21
7.534098214582641
 31
0.0
  0
LINE
  5
421
330
318
100
AcDbEntity
  8
Dimension (ANSI)
440
 16777216
100
AcDbLine
 10
4.923701560715006
 20
7.652200059693078
 30
0.0
 11
5.120551949957178
 21
7.652200059693078
 31
0.0
  0
LINE
  5
422
330
318
100
AcDbEntity
  8
Dimension (ANSI)
440
 16777216
100
AcDbLine
 10
5.120551949957178
 20
7.652200059693078
 30
0.0
 11
5.120551949957178
 21
7.534098214582641
 31
0.0
  0
MTEXT
  5
423
330
318
100
AcDbEntity
  8
Dimension (ANSI)
440
 16777216
100
AcDbMText
 10
4.226619420347085
 20
7.813449226215221
 30
0.0
 40
0.2400000095367432
 41
0.0
 46
0.0
 71
     1
 72
     1
  1
\A1;0.31{\PTYP.}
  7
Note Text (ANSI)
 73
     1
 44
1.0
  0
SOLID
  5
424
330
318
100
AcDbEntity
  8
Dimension (ANSI)
440
 16777216
100
AcDbTrace
 10
5.08774355175015
 20
6.630547046856126
 30
0.0
 11
5.153360348164206
 21
6.630547046856126
 31
0.0
 12
5.120551949957178
 22
6.827397436098299
 32
0.0
 13
5.120551949957178
 23
6.827397436098299
 33
0.0
  0
SOLID
  5
425
330
318
100
AcDbEntity
  8
Dimension (ANSI)
440
 16777216
100
AcDbTrace
 10
5.08774355175015
 20
7.337247825340469
 30
0.0
 11
5.153360348164206
 21
7.337247825340469
 31
0.0
 12
5.120551949957178
 22
7.140397436098297
 32
0.0
 13
5.120551949957178
 23
7.140397436098297
 33
0.0
  0
POINT
  5
426
330
318
100
AcDbEntity
  8
Defpoints
 62
     0
440
 16777216
100
AcDbPoint
 10
5.458577420896074
 20
6.827397436098299
 30
0.0
  0
POINT
  5
427
330
318
100
AcDbEntity
  8
Defpoints
 62
     0
440
 16777216
100
AcDbPoint
 10
5.615577420896073
 20
7.140397436098297
 30
0.0
  0
POINT
  5
428
330
318
100
AcDbEntity
  8
Defpoints
 62
     0
440
 16777216
100
AcDbPoint
 10
5.120551949957178
 20
7.140397436098297
 30
0.0
  0
ENDBLK
  5
31A
330
318
100
AcDbEntity
  8
0
100
AcDbBlockEnd
  0
BLOCK
  5
42B
330
42A
100
AcDbEntity
  8
0
100
AcDbBlockBegin
  2
*D7
 70
     1
 10
0.0
 20
0.0
 30
0.0
  3
*D7
  1

  0
LINE
  5
51D
330
42A
100
AcDbEntity
  8
Dimension (ANSI)
440
 16777216
100
AcDbLine
 10
5.458577420896073
 20
6.702397436098299
 30
0.0
 11
5.458577420896073
 21
5.652847058201408
 31
0.0
  0
LINE
  5
51E
330
42A
100
AcDbEntity
  8
Dimension (ANSI)
440
 16777216
100
AcDbLine
 10
5.771577420896073
 20
6.890397436098298
 30
0.0
 11
5.771577420896073
 21
5.652847058201408
 31
0.0
  0
LINE
  5
51F
330
42A
100
AcDbEntity
  8
Dimension (ANSI)
440
 16777216
100
AcDbLine
 10
5.968427810138245
 20
5.902847058201408
 30
0.0
 11
6.165278199380417
 21
5.902847058201408
 31
0.0
  0
LINE
  5
520
330
42A
100
AcDbEntity
  8
Dimension (ANSI)
440
 16777216
100
AcDbLine
 10
5.261727031653901
 20
5.902847058201408
 30
0.0
 11
5.064876642411729
 21
5.902847058201408
 31
0.0
  0
SOLID
  5
521
330
42A
100
AcDbEntity
  8
Dimension (ANSI)
440
 16777216
100
AcDbTrace
 10
5.968427810138245
 20
5.935655456408436
 30
0.0
 11
5.968427810138245
 21
5.87003865999438
 31
0.0
 12
5.771577420896073
 22
5.902847058201408
 32
0.0
 13
5.771577420896073
 23
5.902847058201408
 33
0.0
  0
SOLID
  5
522
330
42A
100
AcDbEntity
  8
Dimension (ANSI)
440
 16777216
100
AcDbTrace
 10
5.261727031653901
 20
5.935655456408436
 30
0.0
 11
5.261727031653901
 21
5.87003865999438
 31
0.0
 12
5.458577420896073
 22
5.902847058201408
 32
0.0
 13
5.458577420896073
 23
5.902847058201408
 33
0.0
  0
MTEXT
  5
523
330
42A
100
AcDbEntity
  8
Dimension (ANSI)
440
 16777216
100
AcDbMText
 10
4.367794502043809
 20
6.06409622472355
 30
0.0
 40
0.2400000095367432
 41
0.0
 46
0.0
 71
     1
 72
     1
  1
\A1;0.31{\PTYP.}
  7
Note Text (ANSI)
 73
     1
 44
1.0
  0
POINT
  5
524
330
42A
100
AcDbEntity
  8
Defpoints
 62
     0
440
 16777216
100
AcDbPoint
 10
5.458577420896073
 20
6.827397436098299
 30
0.0
  0
POINT
  5
525
330
42A
100
AcDbEntity
  8
Defpoints
 62
     0
440
 16777216
100
AcDbPoint
 10
5.771577420896073
 20
7.015397436098298
 30
0.0
  0
POINT
  5
526
330
42A
100
AcDbEntity
  8
Defpoints
 62
     0
440
 16777216
100
AcDbPoint
 10
5.771577420896073
 20
5.902847058201408
 30
0.0
  0
ENDBLK
  5
42C
330
42A
100
AcDbEntity
  8
0
100
AcDbBlockEnd
  0
BLOCK
  5
529
330
528
100
AcDbEntity
  8
0
100
AcDbBlockBegin
  2
*D8
 70
     1
 10
0.0
 20
0.0
 30
0.0
  3
*D8
  1

  0
LINE
  5
607
330
528
100
AcDbEntity
  8
Dimension (ANSI)
440
 16777216
100
AcDbLine
 10
5.771577420896073
 20
6.890397436098298
 30
0.0
 11
5.771577420896073
 21
5.636847058201408
 31
0.0
  0
LINE
  5
608
330
528
100
AcDbEntity
  8
Dimension (ANSI)
440
 16777216
100
AcDbLine
 10
6.771577420896074
 20
6.890397436098299
 30
0.0
 11
6.771577420896074
 21
5.636847058201408
 31
0.0
  0
LINE
  5
609
330
528
100
AcDbEntity
  8
Dimension (ANSI)
440
 16777216
100
AcDbLine
 10
5.968427810138245
 20
5.886847058201408
 30
0.0
 11
6.574727031653901
 21
5.886847058201408
 31
0.0
  0
LINE
  5
60A
330
528
100
AcDbEntity
  8
Dimension (ANSI)
440
 16777216
100
AcDbLine
 10
6.771577420896074
 20
5.886847058201408
 30
0.0
 11
7.127362324204059
 21
5.886847058201408
 31
0.0
  0
SOLID
  5
60B
330
528
100
AcDbEntity
  8
Dimension (ANSI)
440
 16777216
100
AcDbTrace
 10
5.968427810138245
 20
5.919655456408436
 30
0.0
 11
5.968427810138245
 21
5.85403865999438
 31
0.0
 12
5.771577420896073
 22
5.886847058201408
 32
0.0
 13
5.771577420896073
 23
5.886847058201408
 33
0.0
  0
SOLID
  5
60C
330
528
100
AcDbEntity
  8
Dimension (ANSI)
440
 16777216
100
AcDbTrace
 10
6.574727031653901
 20
5.919655456408436
 30
0.0
 11
6.574727031653901
 21
5.85403865999438
 31
0.0
 12
6.771577420896074
 22
5.886847058201408
 32
0.0
 13
6.771577420896074
 23
5.886847058201408
 33
0.0
  0
MTEXT
  5
60D
330
528
100
AcDbEntity
  8
Dimension (ANSI)
440
 16777216
100
AcDbMText
 10
7.190354450188311
 20
6.011763113399004
 30
0.0
 40
0.2400000095367432
 41
0.0
 46
0.0
 71
     1
 72
     1
  1
\A1;1.000
  7
Note Text (ANSI)
 73
     1
 44
1.0
  0
POINT
  5
60E
330
528
100
AcDbEntity
  8
Defpoints
 62
     0
440
 16777216
100
AcDbPoint
 10
5.771577420896073
 20
7.015397436098298
 30
0.0
  0
POINT
  5
60F
330
528
100
AcDbEntity
  8
Defpoints
 62
     0
440
 16777216
100
AcDbPoint
 10
6.771577420896074
 20
7.015397436098299
 30
0.0
  0
POINT
  5
610
330
528
100
AcDbEntity
  8
Defpoints
 62
     0
440
 16777216
100
AcDbPoint
 10
6.771577420896074
 20
5.886847058201408
 30
0.0
  0
ENDBLK
  5
52A
330
528
100
AcDbEntity
  8
0
100
AcDbBlockEnd
  0
BLOCK
  5
613
330
612
100
AcDbEntity
  8
0
100
AcDbBlockBegin
  2
*D9
 70
     1
 10
0.0
 20
0.0
 30
0.0
  3
*D9
  1

  0
LINE
  5
6E8
330
612
100
AcDbEntity
  8
Dimension (ANSI)
440
 16777216
100
AcDbLine
 10
21.10601715508729
 20
14.95224065544284
 30
0.0
 11
20.90916676584512
 21
14.95224065544284
 31
0.0
  0
LINE
  5
6E9
330
612
100
AcDbEntity
  8
Dimension (ANSI)
440
 16777216
100
AcDbLine
 10
21.57371793357164
 20
14.95224065544284
 30
0.0
 11
22.07598639190443
 21
14.95224065544284
 31
0.0
  0
SOLID
  5
6EA
330
612
100
AcDbEntity
  8
Dimension (ANSI)
440
 16777216
100
AcDbTrace
 10
21.10601715508729
 20
14.98504905364987
 30
0.0
 11
21.10601715508729
 21
14.91943225723581
 31
0.0
 12
21.30286754432946
 22
14.95224065544284
 32
0.0
 13
21.30286754432946
 23
14.95224065544284
 33
0.0
  0
SOLID
  5
6EB
330
612
100
AcDbEntity
  8
Dimension (ANSI)
440
 16777216
100
AcDbTrace
 10
21.57371793357164
 20
14.98504905364987
 30
0.0
 11
21.57371793357164
 21
14.91943225723581
 31
0.0
 12
21.37686754432946
 22
14.95224065544284
 32
0.0
 13
21.37686754432946
 23
14.95224065544284
 33
0.0
  0
MTEXT
  5
6EC
330
612
100
AcDbEntity
  8
Dimension (ANSI)
440
 16777216
100
AcDbMText
 10
22.13897851788868
 20
15.07675375562367
 30
0.0
 40
0.2400000095367432
 41
0.0
 46
0.0
 71
     1
 72
     1
  1
\A1; 14 GA.
  7
Note Text (ANSI)
 73
     1
 44
1.0
  0
POINT
  5
6ED
330
612
100
AcDbEntity
  8
Defpoints
 62
     0
440
 16777216
100
AcDbPoint
 10
21.74064075610442
 20
6.827397436098299
 30
0.0
  0
POINT
  5
6EE
330
612
100
AcDbEntity
  8
Defpoints
 62
     0
440
 16777216
100
AcDbPoint
 10
21.66664075610442
 20
6.827397436098299
 30
0.0
  0
POINT
  5
6EF
330
612
100
AcDbEntity
  8
Defpoints
 62
     0
440
 16777216
100
AcDbPoint
 10
21.30286754432946
 20
14.95224065544284
 30
0.0
  0
ENDBLK
  5
614
330
612
100
AcDbEntity
  8
0
100
AcDbBlockEnd
  0
BLOCK
  5
6F2
330
6F1
100
AcDbEntity
  8
0
100
AcDbBlockBegin
  2
*D10
 70
     1
 10
0.0
 20
0.0
 30
0.0
  3
*D10
  1

  0
LINE
  5
7A3
330
6F1
100
AcDbEntity
  8
Dimension (ANSI)
440
 16777216
100
AcDbLine
 10
8.306870791536109
 20
6.396420544088122
 30
0.0
 11
8.060183197515186
 21
6.396420544088123
 31
0.0
  0
LINE
  5
7A4
330
6F1
100
AcDbEntity
  8
Dimension (ANSI)
440
 16777216
100
AcDbLine
 10
8.060183197515186
 20
6.396420544088123
 30
0.0
 11
7.050308034197722
 21
6.979472241477241
 31
0.0
  0
MTEXT
  5
7A5
330
6F1
100
AcDbEntity
  8
Dimension (ANSI)
440
 16777216
100
AcDbMText
 10
8.369862917520363
 20
6.573725602194762
 30
0.0
 40
0.2400000095367432
 41
0.0
 46
0.0
 71
     1
 72
     1
  1
\A1;∅0.250{\PGROUND\P HOLE}
  7
Note Text (ANSI)
 73
     1
 44
1.0
  0
SOLID
  5
7A6
330
6F1
100
AcDbEntity
  8
Dimension (ANSI)
440
 16777216
100
AcDbTrace
 10
7.066712233301233
 20
7.007885147782005
 30
0.0
 11
7.03390383509421
 21
6.951059335172475
 31
0.0
 12
6.879830596369136
 22
7.07789743609831
 32
0.0
 13
6.879830596369136
 23
7.07789743609831
 33
0.0
  0
LINE
  5
7A7
330
6F1
100
AcDbEntity
  8
Dimension (ANSI)
440
 16777216
100
AcDbLine
 10
6.591577420896074
 20
7.140397436098299
 30
0.0
 11
6.951577420896073
 21
7.140397436098298
 31
0.0
  0
LINE
  5
7A8
330
6F1
100
AcDbEntity
  8
Dimension (ANSI)
440
 16777216
100
AcDbLine
 10
6.771577420896074
 20
6.9603974360983
 30
0.0
 11
6.771577420896074
 21
7.320397436098297
 31
0.0
  0
POINT
  5
7A9
330
6F1
100
AcDbEntity
  8
Defpoints
 62
     0
440
 16777216
100
AcDbPoint
 10
6.879830596369136
 20
7.07789743609831
 30
0.0
  0
POINT
  5
7AA
330
6F1
100
AcDbEntity
  8
Defpoints
 62
     0
440
 16777216
100
AcDbPoint
 10
6.663324245423012
 20
7.202897436098289
 30
0.0
  0
ENDBLK
  5
6F3
330
6F1
100
AcDbEntity
  8
0
100
AcDbBlockEnd
  0
BLOCK
  5
7AD
330
7AC
100
AcDbEntity
  8
0
100
AcDbBlockBegin
  2
*D11
 70
     1
 10
0.0
 20
0.0
 30
0.0
  3
*D11
  1

  0
LINE
  5
849
330
7AC
100
AcDbEntity
  8
Dimension (ANSI)
440
 16777216
100
AcDbLine
 10
16.76443374438661
 20
7.986207028884294
 30
0.0
 11
16.5475499703916
 21
7.986207028884294
 31
0.0
  0
LINE
  5
84A
330
7AC
100
AcDbEntity
  8
Dimension (ANSI)
440
 16777216
100
AcDbLine
 10
16.5475499703916
 20
7.986207028884294
 30
0.0
 11
16.21815481078285
 21
7.418750485538595
 31
0.0
  0
MTEXT
  5
84B
330
7AC
100
AcDbEntity
  8
Dimension (ANSI)
440
 16777216
100
AcDbMText
 10
16.82742587037086
 20
8.180433924947879
 30
0.0
 40
0.2400000095367432
 41
0.0
 46
0.0
 71
     1
 72
     1
  1
\A1; \fromans|b0|i0;\H0.2400;0.250 X 0.312\POBROUND\PTYP. (4 PL.)
  7
Note Text (ANSI)
 73
     1
 44
1.0
  0
SOLID
  5
84C
330
7AC
100
AcDbEntity
  8
Dimension (ANSI)
440
 16777216
100
AcDbTrace
 10
16.18978039212926
 20
7.435221167339353
 30
0.0
 11
16.24652922943644
 21
7.402279803737838
 31
0.0
 12
16.11933071997831
 22
7.248503973617058
 32
0.0
 13
16.11933071997831
 23
7.248503973617058
 33
0.0
  0
POINT
  5
84D
330
7AC
100
AcDbEntity
  8
Defpoints
 62
     0
440
 16777216
100
AcDbPoint
 10
16.11933071997831
 20
7.248503973617058
 30
0.0
  0
POINT
  5
84E
330
7AC
100
AcDbEntity
  8
Defpoints
 62
     0
440
 16777216
100
AcDbPoint
 10
16.05657742089607
 20
7.140397436098295
 30
0.0
  0
ENDBLK
  5
7AE
330
7AC
100
AcDbEntity
  8
0
100
AcDbBlockEnd
  0
ENDSEC
  0
SECTION
  2
ENTITIES
  0
CIRCLE
  5
11D
330
6C
100
AcDbEntity
  8
Visible (ANSI)
100
AcDbCircle
 10
6.771577420896074
 20
7.140397436098299
 30
0.0
 40
0.125
  0
LINE
  5
11E
330
6C
100
AcDbEntity
  8
Visible (ANSI)
100
AcDbLine
 10
5.740577420896073
 20
7.265397436098298
 30
0.0
 11
5.802577420896073
 21
7.265397436098298
 31
0.0
  0
ARC
  5
11F
330
6C
100
AcDbEntity
  8
Visible (ANSI)
100
AcDbCircle
 10
5.740577420896073
 20
7.140397436098297
 30
0.0
 40
0.125
100
AcDbArc
 50
90.0
 51
270.0
  0
LINE
  5
120
330
6C
100
AcDbEntity
  8
Visible (ANSI)
100
AcDbLine
 10
5.802577420896073
 20
7.015397436098298
 30
0.0
 11
5.740577420896073
 21
7.015397436098298
 31
0.0
  0
ARC
  5
121
330
6C
100
AcDbEntity
  8
Visible (ANSI)
100
AcDbCircle
 10
5.802577420896073
 20
7.140397436098297
 30
0.0
 40
0.125
100
AcDbArc
 50
270.0
 51
90.0
  0
LINE
  5
122
330
6C
100
AcDbEntity
  8
Visible (ANSI)
100
AcDbLine
 10
15.99457742089607
 20
17.5193974360983
 30
0.0
 11
16.05657742089607
 21
17.5193974360983
 31
0.0
  0
ARC
  5
123
330
6C
100
AcDbEntity
  8
Visible (ANSI)
100
AcDbCircle
 10
15.99457742089607
 20
17.3943974360983
 30
0.0
 40
0.1249999999999996
100
AcDbArc
 50
89.99999999999872
 51
269.9999999999988
  0
LINE
  5
124
330
6C
100
AcDbEntity
  8
Visible (ANSI)
100
AcDbLine
 10
16.05657742089607
 20
17.2693974360983
 30
0.0
 11
15.99457742089607
 21
17.2693974360983
 31
0.0
  0
ARC
  5
125
330
6C
100
AcDbEntity
  8
Visible (ANSI)
100
AcDbCircle
 10
16.05657742089607
 20
17.3943974360983
 30
0.0
 40
0.1249999999999996
100
AcDbArc
 50
269.9999999999988
 51
89.99999999999872
  0
LINE
  5
126
330
6C
100
AcDbEntity
  8
Visible (ANSI)
100
AcDbLine
 10
15.99457742089607
 20
7.265397436098298
 30
0.0
 11
16.05657742089607
 21
7.265397436098298
 31
0.0
  0
ARC
  5
127
330
6C
100
AcDbEntity
  8
Visible (ANSI)
100
AcDbCircle
 10
15.99457742089607
 20
7.140397436098298
 30
0.0
 40
0.125
100
AcDbArc
 50
90.0
 51
270.0
  0
LINE
  5
128
330
6C
100
AcDbEntity
  8
Visible (ANSI)
100
AcDbLine
 10
16.05657742089607
 20
7.015397436098299
 30
0.0
 11
15.99457742089607
 21
7.015397436098299
 31
0.0
  0
ARC
  5
129
330
6C
100
AcDbEntity
  8
Visible (ANSI)
100
AcDbCircle
 10
16.05657742089607
 20
7.140397436098298
 30
0.0
 40
0.125
100
AcDbArc
 50
270.0
 51
90.0
  0
LINE
  5
12A
330
6C
100
AcDbEntity
  8
Visible (ANSI)
100
AcDbLine
 10
5.74057742089607
 20
17.5193974360983
 30
0.0
 11
5.80257742089607
 21
17.5193974360983
 31
0.0
  0
ARC
  5
12B
330
6C
100
AcDbEntity
  8
Visible (ANSI)
100
AcDbCircle
 10
5.740577420896069
 20
17.3943974360983
 30
0.0
 40
0.1249999999999996
100
AcDbArc
 50
90.00000000000062
 51
270.0000000000006
  0
LINE
  5
12C
330
6C
100
AcDbEntity
  8
Visible (ANSI)
100
AcDbLine
 10
5.80257742089607
 20
17.2693974360983
 30
0.0
 11
5.74057742089607
 21
17.2693974360983
 31
0.0
  0
ARC
  5
12D
330
6C
100
AcDbEntity
  8
Visible (ANSI)
100
AcDbCircle
 10
5.802577420896072
 20
17.3943974360983
 30
0.0
 40
0.1249999999999996
100
AcDbArc
 50
270.0000000000006
 51
90.00000000000062
  0
LINE
  5
12E
330
6C
100
AcDbEntity
  8
Visible (ANSI)
100
AcDbLine
 10
5.458577420896073
 20
6.827397436098299
 30
0.0
 11
5.45857742089607
 21
17.7073974360983
 31
0.0
  0
LINE
  5
12F
330
6C
100
AcDbEntity
  8
Visible (ANSI)
100
AcDbLine
 10
5.45857742089607
 20
17.7073974360983
 30
0.0
 11
16.33857742089607
 21
17.7073974360983
 31
0.0
  0
LINE
  5
130
330
6C
100
AcDbEntity
  8
Visible (ANSI)
100
AcDbLine
 10
16.33857742089607
 20
17.7073974360983
 30
0.0
 11
16.33857742089607
 21
6.827397436098299
 31
0.0
  0
LINE
  5
131
330
6C
100
AcDbEntity
  8
Visible (ANSI)
100
AcDbLine
 10
16.33857742089607
 20
6.827397436098299
 30
0.0
 11
5.458577420896074
 21
6.827397436098299
 31
0.0
  0
MTEXT
  5
133
330
6C
100
AcDbEntity
  8
Symbol (ANSI)
100
AcDbMText
 10
9.934849062314862
 20
4.368373326702906
 30
0.0
 40
0.2400000029661524
 41
0.0
 46
0.0
 71
     7
 72
     1
  1
FRONT VIEW
  7
Text Style150
 73
     1
 44
1.0
  0
LINE
  5
135
330
6C
100
AcDbEntity
  8
Symbol (ANSI)
370
    30
100
AcDbLine
 10
9.910849000578089
 20
4.319430051953125
 30
0.0
 11
11.84037900914944
 21
4.319430051953125
 31
0.0
  0
MTEXT
  5
136
330
6C
100
AcDbEntity
  8
Symbol (ANSI)
100
AcDbMText
 10
10.79830444568372
 20
3.827006912147257
 30
0.0
 40
0.3599999927160308
 41
0.0
 46
0.0
 71
     7
 72
     1
  1
 
  7
Label Text (ANSI)
 73
     1
 44
1.0
  0
LINE
  5
137
330
6C
100
AcDbEntity
  8
Hidden (ANSI)
 48
0.0703737735748291
100
AcDbLine
 10
21.66664075610434
 20
17.5193974360983
 30
0.0
 11
21.74064075610434
 21
17.5193974360983
 31
0.0
  0
LINE
  5
138
330
6C
100
AcDbEntity
  8
Hidden (ANSI)
 48
0.0703737735748291
100
AcDbLine
 10
21.66664075610434
 20
17.2693974360983
 30
0.0
 11
21.74064075610434
 21
17.2693974360983
 31
0.0
  0
LINE
  5
139
330
6C
100
AcDbEntity
  8
Hidden (ANSI)
 48
0.0703737735748291
100
AcDbLine
 10
21.66664075610434
 20
7.265397436098298
 30
0.0
 11
21.74064075610434
 21
7.265397436098298
 31
0.0
  0
LINE
  5
13A
330
6C
100
AcDbEntity
  8
Hidden (ANSI)
 48
0.0703737735748291
100
AcDbLine
 10
21.66664075610434
 20
7.015397436098299
 30
0.0
 11
21.74064075610434
 21
7.015397436098299
 31
0.0
  0
LINE
  5
13B
330
6C
100
AcDbEntity
  8
Visible (ANSI)
100
AcDbLine
 10
21.74064075610442
 20
17.7073974360983
 30
0.0
 11
21.66664075610442
 21
17.7073974360983
 31
0.0
  0
LINE
  5
13C
330
6C
100
AcDbEntity
  8
Visible (ANSI)
100
AcDbLine
 10
21.66664075610442
 20
17.7073974360983
 30
0.0
 11
21.66664075610442
 21
6.827397436098299
 31
0.0
  0
LINE
  5
13D
330
6C
100
AcDbEntity
  8
Visible (ANSI)
100
AcDbLine
 10
21.74064075610442
 20
6.827397436098299
 30
0.0
 11
21.66664075610442
 21
6.827397436098299
 31
0.0
  0
LINE
  5
13E
330
6C
100
AcDbEntity
  8
Visible (ANSI)
100
AcDbLine
 10
21.74064075610442
 20
6.827397436098299
 30
0.0
 11
21.74064075610442
 21
17.7073974360983
 31
0.0
  0
MTEXT
  5
13F
330
6C
100
AcDbEntity
  8
Symbol (ANSI)
100
AcDbMText
 10
20.88635470526431
 20
4.509733038580808
 30
0.0
 40
0.2400000029661524
 41
0.0
 46
0.0
 71
     7
 72
     1
  1
RIGHT VIEW
  7
Text Style150
 73
     1
 44
1.0
  0
LINE
  5
140
330
6C
100
AcDbEntity
  8
Symbol (ANSI)
370
    30
100
AcDbLine
 10
20.86235464352753
 20
4.460400784857879
 30
0.0
 11
22.73217637972061
 21
4.460400784857879
 31
0.0
  0
DIMENSION
  5
141
330
6C
100
AcDbEntity
  8
Dimension (ANSI)
100
AcDbDimension
280
     0
  2
*D4
 10
5.458577420896074
 20
5.183856103145399
 30
0.0
 11
10.75971221635954
 21
5.183856103145399
 31
0.0
 70
   160
  1
<>
 42
10.88
 73
     0
 74
     0
 75
     0
  3
Default (ANSI)-01
100
AcDbAlignedDimension
 13
16.33857742089607
 23
6.827397436098299
 33
0.0
 14
5.458577420896074
 24
6.827397436098299
 34
0.0
 50
180.0
100
AcDbRotatedDimension
1001
ACAD
1000
DSTYLE
1002
{
1070
   289
1070
     1
1070
    73
1070
     0
1070
    74
1070
     0
1070
   271
1070
     2
1070
   272
1070
     2
1070
    48
1040
0.0
1070
    47
1040
0.0
1002
}
  0
DIMENSION
  5
22D
330
6C
100
AcDbEntity
  8
Dimension (ANSI)
100
AcDbDimension
280
     0
  2
*D5
 10
3.936048852148473
 20
17.7073974360983
 30
0.0
 11
3.93604885214847
 21
12.2673974360983
 31
0.0
 70
   160
  1
<>
 42
10.88
 73
     0
 74
     0
 75
     0
  3
Default (ANSI)-01
100
AcDbAlignedDimension
 13
5.458577420896073
 23
6.827397436098299
 33
0.0
 14
5.45857742089607
 24
17.7073974360983
 34
0.0
 50
90.0
100
AcDbRotatedDimension
1001
ACAD
1000
DSTYLE
1002
{
1070
   289
1070
     1
1070
   271
1070
     2
1070
   272
1070
     2
1070
    48
1040
0.0
1070
    47
1040
0.0
1002
}
  0
DIMENSION
  5
317
330
6C
100
AcDbEntity
  8
Dimension (ANSI)
100
AcDbDimension
280
     0
  2
*D6
 10
5.120551949957178
 20
7.140397436098297
 30
0.0
 11
5.108887868775734
 21
7.652200059693079
 31
0.0
 70
   160
  1
<>{\PTYP.}
 42
0.3129999999999979
 73
     0
 74
     0
 75
     0
  3
Default (ANSI)-01
100
AcDbAlignedDimension
 13
5.458577420896074
 23
6.827397436098299
 33
0.0
 14
5.615577420896073
 24
7.140397436098297
 34
0.0
 50
90.0
100
AcDbRotatedDimension
1001
ACAD
1000
DSTYLE
1002
{
1070
   289
1070
     1
1070
   279
1070
     1
1070
   145
1040
-0.25
1070
   271
1070
     2
1070
   272
1070
     2
1070
    48
1040
0.0
1070
    47
1040
0.0
1002
}
  0
DIMENSION
  5
429
330
6C
100
AcDbEntity
  8
Dimension (ANSI)
100
AcDbDimension
280
     0
  2
*D7
 10
5.771577420896073
 20
5.902847058201408
 30
0.0
 11
4.684839509235643
 21
5.902847058201408
 31
0.0
 70
   160
  1
<>{\PTYP.}
 42
0.3129999999999997
 73
     0
 74
     0
 75
     0
  3
Default (ANSI)-01
100
AcDbAlignedDimension
 13
5.458577420896073
 23
6.827397436098299
 33
0.0
 14
5.771577420896073
 24
7.015397436098298
 34
0.0
 50
180.0
100
AcDbRotatedDimension
1001
ACAD
1000
DSTYLE
1002
{
1070
   289
1070
     1
1070
    73
1070
     0
1070
    74
1070
     0
1070
   145
1040
-0.25
1070
   271
1070
     2
1070
   272
1070
     2
1070
    48
1040
0.0
1070
    47
1040
0.0
1002
}
  0
DIMENSION
  5
527
330
6C
100
AcDbEntity
  8
Dimension (ANSI)
100
AcDbDimension
280
     0
  2
*D8
 10
6.771577420896074
 20
5.886847058201408
 30
0.0
 11
7.575821219227087
 21
5.886847058201408
 31
0.0
 70
   160
  1
<>
 42
1.0
 73
     0
 74
     0
 75
     0
  3
Default (ANSI)
100
AcDbAlignedDimension
 13
5.771577420896073
 23
7.015397436098298
 33
0.0
 14
6.771577420896074
 24
7.015397436098299
 34
0.0
 50
180.0
100
AcDbRotatedDimension
1001
ACAD
1000
DSTYLE
1002
{
1070
   289
1070
     2
1070
    73
1070
     0
1070
    74
1070
     0
1070
   271
1070
     3
1070
   272
1070
     2
1070
    48
1040
0.0
1070
    47
1040
0.0
1002
}
  0
DIMENSION
  5
611
330
6C
100
AcDbEntity
  8
Dimension (ANSI)
100
AcDbDimension
280
     0
  2
*D9
 10
21.30286754432946
 20
14.95224065544284
 30
0.0
 11
22.66604367981919
 21
14.95224065544284
 31
0.0
 70
   160
  1
 14 GA.
 42
0.0740000000000016
 73
     0
 74
     0
 75
     0
  3
Default (ANSI)
100
AcDbAlignedDimension
 13
21.74064075610442
 23
6.827397436098299
 33
0.0
 14
21.66664075610442
 24
6.827397436098299
 34
0.0
100
AcDbRotatedDimension
1001
ACAD
1000
DSTYLE
1002
{
1070
   289
1070
     1
1070
    73
1070
     0
1070
    74
1070
     0
1070
   271
1070
     3
1070
    76
1070
     1
1070
    75
1070
     1
1070
   272
1070
     2
1070
    48
1040
0.0
1070
    47
1040
0.0
1002
}
  0
DIMENSION
  5
6F0
330
6C
100
AcDbEntity
  8
Dimension (ANSI)
100
AcDbDimension
280
     0
  2
*D10
 10
6.663324245423012
 20
7.202897436098289
 30
0.0
 11
9.019104040534449
 21
6.396420544088123
 31
0.0
 70
   163
  1
<>{\PGROUND\P HOLE}
 42
0.25
 73
     0
 74
     0
 75
     0
  3
Default (ANSI)
100
AcDbDiametricDimension
 15
6.879830596369136
 25
7.07789743609831
 35
0.0
 40
0.0
1001
ACAD_DSTYLE_DIMRADIAL_EXTENSION
1070
   387
1070
     1
1070
   388
1040
0.0
1070
   390
1040
0.0
1001
ACAD
1000
DSTYLE
1002
{
1070
   145
1040
-0.3333333333333334
1070
   144
1040
0.9999999999999946
1070
   271
1070
     3
1070
   272
1070
     2
1070
    48
1040
0.0
1070
    47
1040
0.0
1002
}
  0
DIMENSION
  5
7AB
330
6C
100
AcDbEntity
  8
Dimension (ANSI)
100
AcDbDimension
280
     0
  2
*D11
 10
16.05657742089607
 20
7.140397436098295
 30
0.0
 11
18.26184244782661
 21
7.986207028884298
 31
0.0
 70
   164
  1
 \fromans|b0|i0;\H0.2400;0.250 X 0.312\POBROUND\PTYP. (4 PL.)
 42
0.1249999999999982
 73
     0
 74
     0
 75
     0
  3
Default (ANSI)
100
AcDbRadialDimension
 15
16.11933071997831
 25
7.248503973617058
 35
0.0
 40
0.0
1001
ACAD_DSTYLE_DIMRADIAL_EXTENSION
1070
   387
1070
     1
1070
   388
1040
0.0
1070
   390
1040
0.0
1001
ACAD
1000
DSTYLE
1002
{
1070
   145
1040
-0.3333333333333334
1070
   271
1070
     3
1070
   141
1040
0.0
1070
   272
1070
     2
1070
    48
1040
0.0
1070
    47
1040
0.0
1002
}
  0
MTEXT
  5
84F
330
6C
100
AcDbEntity
  8
Symbol (ANSI)
100
AcDbMText
 10
24.55051298201758
 20
5.761632241381396
 30
0.0
 40
0.2400000029661524
 41
12.66188168014323
 46
0.0
 71
     1
 72
     1
  1
{\fRomanS|b0|i0;\H0.2400;PART#: P1212SS\P(DATA SUBJECT TO CHANGE WITHOUT \PNOTICE)\PTHIS DRAWING AND COMPONENTS OF ARE\PPROPERTY OF HUBBELL INC. WIEGMANN\P}
  7
Note Text (ANSI)
 73
     2
 44
0.8751232028007507
  0
ELLIPSE
  5
850
330
6C
100
AcDbEntity
  8
Visible (ANSI)
100
AcDbEllipse
 10
27.01571171683843
 20
13.28688526072872
 30
0.0
 11
0.0467842698360428
 21
-0.0812421971386073
 31
0.0
210
0.0
220
0.0
230
1.0
 40
0.5780931159158106
 41
3.572615253427267
 42
5.852162707341125
  0
ELLIPSE
  5
851
330
6C
100
AcDbEntity
  8
Visible (ANSI)
100
AcDbEllipse
 10
26.97646729048258
 20
13.26428589861324
 30
0.0
 11
-0.0467842698360379
 21
0.0812421971386101
 31
0.0
210
0.0
220
0.0
230
1.0
 40
0.5780931159158106
 41
0.0
 42
6.283185307179586
  0
LINE
  5
852
330
6C
100
AcDbEntity
  8
Visible (ANSI)
100
AcDbLine
 10
26.42969697193001
 20
13.65579502725711
 30
0.0
 11
26.46257743725518
 21
13.63686042656577
 31
0.0
  0
ELLIPSE
  5
853
330
6C
100
AcDbEntity
  8
Visible (ANSI)
100
AcDbEllipse
 10
26.46894139828585
 20
13.6017493464186
 30
0.0
 11
0.0467842698360427
 21
-0.0812421971386073
 31
0.0
210
0.0
220
0.0
230
0.9999999999999998
 40
0.5780931159158105
 41
3.572615253427269
 42
5.499720852204681
  0
ELLIPSE
  5
854
330
6C
100
AcDbEntity
  8
Visible (ANSI)
100
AcDbEllipse
 10
26.42969697193001
 20
13.57914998430312
 30
0.0
 11
-0.0467842698360331
 21
0.0812421971386129
 31
0.0
210
0.0
220
0.0
230
0.9999999999999998
 40
0.5780931159158107
 41
5.499720852205195
 42
8.641313505794988
  0
LINE
  5
855
330
6C
100
AcDbEntity
  8
Visible Narrow (ANSI)
100
AcDbLine
 10
26.42969697193001
 20
13.50250494134913
 30
0.0
 11
26.46894139828585
 21
13.52510430346461
 31
0.0
  0
LINE
  5
856
330
6C
100
AcDbEntity
  8
Visible (ANSI)
100
AcDbLine
 10
26.46894139828585
 20
13.52510430346461
 30
0.0
 11
26.50182186361103
 21
13.50616970277327
 31
0.0
  0
LINE
  5
857
330
6C
100
AcDbEntity
  8
Visible (ANSI)
100
AcDbLine
 10
26.46257743725518
 20
13.48357034065779
 30
0.0
 11
26.42969697193001
 21
13.50250494134913
 31
0.0
  0
LINE
  5
858
330
6C
100
AcDbEntity
  8
Visible Narrow (ANSI)
100
AcDbLine
 10
26.46257743725518
 20
13.48357034065779
 30
0.0
 11
26.50182186361103
 21
13.50616970277327
 31
0.0
  0
ELLIPSE
  5
859
330
6C
100
AcDbEntity
  8
Visible (ANSI)
100
AcDbEllipse
 10
26.50182186361103
 20
13.58281474572726
 30
0.0
 11
0.0467842698360375
 21
-0.0812421971386094
 31
0.0
210
0.0
220
0.0
230
1.0
 40
0.5780931159158106
 41
5.499720852205022
 42
5.852162707341575
  0
ELLIPSE
  5
85A
330
6C
100
AcDbEntity
  8
Visible (ANSI)
100
AcDbEllipse
 10
26.46257743725518
 20
13.56021538361178
 30
0.0
 11
0.0467842698360331
 21
-0.0812421971386129
 31
0.0
210
0.0
220
0.0
230
0.9999999999999998
 40
0.5780931159158106
 41
5.499720852205195
 42
8.641313505794988
  0
LINE
  5
85B
330
6C
100
AcDbEntity
  8
Visible (ANSI)
100
AcDbLine
 10
31.86770167264595
 20
16.81160255393918
 30
0.0
 11
31.90058213797113
 21
16.79266795324784
 31
0.0
  0
ELLIPSE
  5
85C
330
6C
100
AcDbEntity
  8
Visible (ANSI)
100
AcDbEllipse
 10
31.9069460990018
 20
16.75755687310067
 30
0.0
 11
0.0467842698360428
 21
-0.0812421971386074
 31
0.0
210
0.0
220
0.0
230
1.0
 40
0.5780931159158107
 41
3.572615253427372
 42
5.499720852204681
  0
ELLIPSE
  5
85D
330
6C
100
AcDbEntity
  8
Visible (ANSI)
100
AcDbEllipse
 10
31.86770167264595
 20
16.7349575109852
 30
0.0
 11
-0.0467842698360329
 21
0.0812421971386127
 31
0.0
210
0.0
220
0.0
230
0.9999999999999998
 40
0.5780931159158107
 41
5.499720852205195
 42
8.641313505794988
  0
LINE
  5
85E
330
6C
100
AcDbEntity
  8
Visible Narrow (ANSI)
100
AcDbLine
 10
31.86770167264595
 20
16.65831246803121
 30
0.0
 11
31.9069460990018
 21
16.68091183014668
 31
0.0
  0
LINE
  5
85F
330
6C
100
AcDbEntity
  8
Visible (ANSI)
100
AcDbLine
 10
31.9069460990018
 20
16.68091183014668
 30
0.0
 11
31.93982656432698
 21
16.66197722945534
 31
0.0
  0
LINE
  5
860
330
6C
100
AcDbEntity
  8
Visible (ANSI)
100
AcDbLine
 10
31.90058213797113
 20
16.63937786733987
 30
0.0
 11
31.86770167264595
 21
16.65831246803121
 31
0.0
  0
LINE
  5
861
330
6C
100
AcDbEntity
  8
Visible Narrow (ANSI)
100
AcDbLine
 10
31.90058213797113
 20
16.63937786733987
 30
0.0
 11
31.93982656432698
 21
16.66197722945534
 31
0.0
  0
ELLIPSE
  5
862
330
6C
100
AcDbEntity
  8
Visible (ANSI)
100
AcDbEllipse
 10
31.93982656432698
 20
16.73862227240931
 30
0.0
 11
0.0467842698360284
 21
-0.0812421971385935
 31
0.0
210
0.0
220
0.0
230
0.9999999999999998
 40
0.5780931159158105
 41
5.499720852204938
 42
5.85216270734165
  0
ELLIPSE
  5
863
330
6C
100
AcDbEntity
  8
Visible (ANSI)
100
AcDbEllipse
 10
31.90058213797113
 20
16.71602291029386
 30
0.0
 11
0.0467842698360329
 21
-0.0812421971386127
 31
0.0
210
0.0
220
0.0
230
0.9999999999999998
 40
0.5780931159158107
 41
5.499720852205195
 42
8.641313505794988
  0
LINE
  5
864
330
6C
100
AcDbEntity
  8
Visible (ANSI)
100
AcDbLine
 10
31.86770167264596
 20
10.52425639033763
 30
0.0
 11
31.90058213797113
 21
10.50532178964629
 31
0.0
  0
ELLIPSE
  5
865
330
6C
100
AcDbEntity
  8
Visible (ANSI)
100
AcDbEllipse
 10
31.9069460990018
 20
10.47021070949912
 30
0.0
 11
0.0467842698360428
 21
-0.0812421971386073
 31
0.0
210
0.0
220
0.0
230
1.0
 40
0.5780931159158107
 41
3.572615253427285
 42
5.499720852204681
  0
ELLIPSE
  5
866
330
6C
100
AcDbEntity
  8
Visible (ANSI)
100
AcDbEllipse
 10
31.86770167264596
 20
10.44761134738364
 30
0.0
 11
-0.0467842698360331
 21
0.0812421971386129
 31
0.0
210
0.0
220
0.0
230
1.0
 40
0.5780931159158107
 41
5.499720852205195
 42
8.641313505794988
  0
LINE
  5
867
330
6C
100
AcDbEntity
  8
Visible Narrow (ANSI)
100
AcDbLine
 10
31.86770167264596
 20
10.37096630442965
 30
0.0
 11
31.9069460990018
 21
10.39356566654513
 31
0.0
  0
LINE
  5
868
330
6C
100
AcDbEntity
  8
Visible (ANSI)
100
AcDbLine
 10
31.9069460990018
 20
10.39356566654513
 30
0.0
 11
31.93982656432698
 21
10.37463106585379
 31
0.0
  0
LINE
  5
869
330
6C
100
AcDbEntity
  8
Visible (ANSI)
100
AcDbLine
 10
31.90058213797113
 20
10.35203170373831
 30
0.0
 11
31.86770167264596
 21
10.37096630442965
 31
0.0
  0
LINE
  5
86A
330
6C
100
AcDbEntity
  8
Visible Narrow (ANSI)
100
AcDbLine
 10
31.90058213797113
 20
10.35203170373831
 30
0.0
 11
31.93982656432698
 21
10.37463106585379
 31
0.0
  0
ELLIPSE
  5
86B
330
6C
100
AcDbEntity
  8
Visible (ANSI)
100
AcDbEllipse
 10
31.93982656432698
 20
10.45127610880778
 30
0.0
 11
0.0467842698360395
 21
-0.0812421971386129
 31
0.0
210
0.0
220
0.0
230
1.0
 40
0.5780931159158104
 41
5.499720852205022
 42
5.852162707341656
  0
ELLIPSE
  5
86C
330
6C
100
AcDbEntity
  8
Visible (ANSI)
100
AcDbEllipse
 10
31.90058213797113
 20
10.4286767466923
 30
0.0
 11
0.0467842698360331
 21
-0.0812421971386129
 31
0.0
210
0.0
220
0.0
230
1.0
 40
0.5780931159158106
 41
5.499720852205195
 42
8.641313505794988
  0
LINE
  5
86D
330
6C
100
AcDbEntity
  8
Visible (ANSI)
100
AcDbLine
 10
26.42969697193
 20
19.94314119085866
 30
0.0
 11
26.46257743725518
 21
19.92420659016732
 31
0.0
  0
ELLIPSE
  5
86E
330
6C
100
AcDbEntity
  8
Visible (ANSI)
100
AcDbEllipse
 10
26.46894139828585
 20
19.88909551002015
 30
0.0
 11
0.0467842698360426
 21
-0.081242197138607
 31
0.0
210
0.0
220
0.0
230
1.0
 40
0.5780931159158105
 41
3.572615253427372
 42
5.499720852204681
  0
ELLIPSE
  5
86F
330
6C
100
AcDbEntity
  8
Visible (ANSI)
100
AcDbEllipse
 10
26.42969697193
 20
19.86649614790467
 30
0.0
 11
-0.0467842698360329
 21
0.0812421971386127
 31
0.0
210
0.0
220
0.0
230
0.9999999999999998
 40
0.5780931159158105
 41
5.499720852205195
 42
8.641313505794988
  0
LINE
  5
870
330
6C
100
AcDbEntity
  8
Visible Narrow (ANSI)
100
AcDbLine
 10
26.42969697193
 20
19.78985110495068
 30
0.0
 11
26.46894139828585
 21
19.81245046706616
 31
0.0
  0
LINE
  5
871
330
6C
100
AcDbEntity
  8
Visible (ANSI)
100
AcDbLine
 10
26.46894139828585
 20
19.81245046706616
 30
0.0
 11
26.50182186361103
 21
19.79351586637482
 31
0.0
  0
LINE
  5
872
330
6C
100
AcDbEntity
  8
Visible (ANSI)
100
AcDbLine
 10
26.46257743725518
 20
19.77091650425935
 30
0.0
 11
26.42969697193
 21
19.78985110495068
 31
0.0
  0
LINE
  5
873
330
6C
100
AcDbEntity
  8
Visible Narrow (ANSI)
100
AcDbLine
 10
26.46257743725518
 20
19.77091650425935
 30
0.0
 11
26.50182186361103
 21
19.79351586637482
 31
0.0
  0
ELLIPSE
  5
874
330
6C
100
AcDbEntity
  8
Visible (ANSI)
100
AcDbEllipse
 10
26.50182186361103
 20
19.87016090932877
 30
0.0
 11
0.0467842698360121
 21
-0.0812421971385653
 31
0.0
210
0.0
220
0.0
230
1.0
 40
0.5780931159158107
 41
5.499720852204938
 42
5.852162707341777
  0
ELLIPSE
  5
875
330
6C
100
AcDbEntity
  8
Visible (ANSI)
100
AcDbEllipse
 10
26.46257743725518
 20
19.84756154721333
 30
0.0
 11
0.0467842698360329
 21
-0.0812421971386127
 31
0.0
210
0.0
220
0.0
230
0.9999999999999998
 40
0.5780931159158105
 41
5.499720852205195
 42
8.641313505794988
  0
LINE
  5
876
330
6C
100
AcDbEntity
  8
Visible (ANSI)
100
AcDbLine
 10
26.28014388770903
 20
13.4733526902134
 30
0.0
 11
26.28014388770903
 21
20.14453722892853
 31
0.0
  0
LINE
  5
877
330
6C
100
AcDbEntity
  8
Visible (ANSI)
100
AcDbLine
 10
26.31938831406487
 20
20.16713659104401
 30
0.0
 11
26.28014388770903
 21
20.14453722892853
 31
0.0
  0
LINE
  5
878
330
6C
100
AcDbEntity
  8
Visible (ANSI)
100
AcDbLine
 10
26.28014388770903
 20
20.14453722892853
 30
0.0
 11
32.05013522219211
 21
16.82182020438357
 31
0.0
  0
LINE
  5
879
330
6C
100
AcDbEntity
  8
Visible (ANSI)
100
AcDbLine
 10
32.08937964854796
 20
16.84441956649905
 30
0.0
 11
32.05013522219211
 21
16.82182020438357
 31
0.0
  0
LINE
  5
87A
330
6C
100
AcDbEntity
  8
Visible (ANSI)
100
AcDbLine
 10
32.08937964854796
 20
16.84441956649905
 30
0.0
 11
26.31938831406487
 21
20.16713659104401
 31
0.0
  0
LINE
  5
87B
330
6C
100
AcDbEntity
  8
Visible (ANSI)
100
AcDbLine
 10
32.05013522219211
 20
16.82182020438357
 30
0.0
 11
32.05013522219211
 21
10.15063566566845
 31
0.0
  0
LINE
  5
87C
330
6C
100
AcDbEntity
  8
Visible (ANSI)
100
AcDbLine
 10
32.08937964854796
 20
10.17323502778393
 30
0.0
 11
32.05013522219211
 21
10.15063566566845
 31
0.0
  0
LINE
  5
87D
330
6C
100
AcDbEntity
  8
Visible (ANSI)
100
AcDbLine
 10
32.08937964854796
 20
10.17323502778393
 30
0.0
 11
32.08937964854796
 21
16.84441956649905
 31
0.0
  0
LINE
  5
87E
330
6C
100
AcDbEntity
  8
Visible (ANSI)
100
AcDbLine
 10
32.05013522219211
 20
10.15063566566845
 30
0.0
 11
26.28014388770903
 21
13.4733526902134
 31
0.0
  0
ENDSEC
  0
SECTION
  2
OBJECTS
  0
DICTIONARY
  5
C
330
0
100
AcDbDictionary
281
     1
  3
ACAD_CIP_PREVIOUS_PRODUCT_INFO
350
87F
  3
ACAD_COLOR
350
63
  3
ACAD_GROUP
350
D
  3
ACAD_LAYOUT
350
62
  3
ACAD_MATERIAL
350
10
  3
ACAD_MLEADERSTYLE
350
66
  3
ACAD_MLINESTYLE
350
5F
  3
ACAD_PLOTSETTINGS
350
61
  3
ACAD_PLOTSTYLENAME
350
E
  3
ACAD_SCALELIST
350
42
  3
ACAD_TABLESTYLE
350
64
  3
ACAD_VISUALSTYLE
350
29
  3
ACDB_RECOMPOSE_DATA
350
884
  3
AcDbVariableDictionary
350
76
  0
XRECORD
  5
87F
102
{ACAD_REACTORS
330
C
102
}
330
C
100
AcDbXrecord
280
     1
300
INVNTOR
300
2012
300
85795PDSP_2012_0F
  0
DICTIONARY
  5
63
102
{ACAD_REACTORS
330
C
102
}
330
C
100
AcDbDictionary
281
     1
  0
DICTIONARY
  5
D
102
{ACAD_REACTORS
330
C
102
}
330
C
100
AcDbDictionary
281
     1
  0
DICTIONARY
  5
62
102
{ACAD_REACTORS
330
C
102
}
330
C
100
AcDbDictionary
281
     1
  3
Layout1
350
6B
  3
Layout2
350
73
  3
Model
350
6F
  0
DICTIONARY
  5
10
102
{ACAD_REACTORS
330
C
102
}
330
C
100
AcDbDictionary
281
     1
  3
ByBlock
350
19
  3
ByLayer
350
11
  3
Global
350
21
  0
DICTIONARY
  5
66
102
{ACAD_REACTORS
330
C
102
}
330
C
100
AcDbDictionary
281
     1
  3
Standard
350
67
  0
DICTIONARY
  5
5F
102
{ACAD_REACTORS
330
C
102
}
330
C
100
AcDbDictionary
281
     1
  3
Standard
350
60
  0
DICTIONARY
  5
61
102
{ACAD_REACTORS
330
C
102
}
330
C
100
AcDbDictionary
281
     1
  0
ACDBDICTIONARYWDFLT
  5
E
102
{ACAD_REACTORS
330
C
102
}
330
C
100
AcDbDictionary
281
     1
  3
Normal
350
F
100
AcDbDictionaryWithDefault
340
F
  0
DICTIONARY
  5
42
102
{ACAD_REACTORS
330
C
102
}
330
C
100
AcDbDictionary
281
     1
  3
A0
350
43
  3
A1
350
44
  3
A2
350
45
  3
A3
350
46
  3
A4
350
47
  3
A5
350
48
  3
A6
350
49
  3
A7
350
4A
  3
A8
350
4B
  3
A9
350
4C
  3
B0
350
4D
  3
B1
350
4E
  3
B2
350
4F
  3
B3
350
50
  3
B4
350
51
  3
B5
350
52
  3
B6
350
53
  0
DICTIONARY
  5
64
102
{ACAD_REACTORS
330
C
102
}
330
C
100
AcDbDictionary
281
     1
  3
Standard
350
65
  0
DICTIONARY
  5
29
102
{ACAD_REACTORS
330
C
102
}
330
C
100
AcDbDictionary
281
     1
  3
2dWireframe
350
2F
  3
Basic
350
2E
  3
Brighten
350
35
  3
ColorChange
350
39
  3
Conceptual
350
32
  3
Dim
350
34
  3
EdgeColorOff
350
41
  3
Facepattern
350
38
  3
Flat
350
2A
  3
FlatWithEdges
350
2B
  3
Gouraud
350
2C
  3
GouraudWithEdges
350
2D
  3
Hidden
350
31
  3
JitterOff
350
3F
  3
Linepattern
350
37
  3
OverhangOff
350
40
  3
Realistic
350
33
  3
Shaded
350
3E
  3
Shaded with edges
350
3D
  3
Shades of Gray
350
3A
  3
Sketchy
350
3B
  3
Thicken
350
36
  3
Wireframe
350
30
  3
X-Ray
350
3C
  0
XRECORD
  5
884
102
{ACAD_REACTORS
330
C
102
}
330
C
100
AcDbXrecord
280
     1
 90
        1
330
65
330
527
  0
DICTIONARY
  5
76
102
{ACAD_REACTORS
330
C
102
}
330
C
100
AcDbDictionary
281
     1
  3
CANNOSCALE
350
79
  3
CMLEADERSTYLE
350
78
  3
CTABLESTYLE
350
77
  0
LAYOUT
  5
6B
102
{ACAD_REACTORS
330
62
102
}
330
62
100
AcDbPlotSettings
  1

  2

  4

  6

 40
0.0
 41
0.0
 42
0.0
 43
0.0
 44
0.0
 45
0.0
 46
0.0
 47
0.0
 48
0.0
 49
0.0
140
0.0
141
0.0
142
1.0
143
1.0
 70
   688
 72
     0
 73
     0
 74
     5
  7

 75
    16
147
1.0
 76
     0
 77
     2
 78
   300
148
0.0
149
0.0
100
AcDbLayout
  1
Layout1
 70
     1
 71
     1
 10
0.0
 20
0.0
 11
12.0
 21
9.0
 12
0.0
 22
0.0
 32
0.0
 14
0.0
 24
0.0
 34
0.0
 15
0.0
 25
0.0
 35
0.0
146
0.0
 13
0.0
 23
0.0
 33
0.0
 16
1.0
 26
0.0
 36
0.0
 17
0.0
 27
1.0
 37
0.0
 76
     0
330
68
  0
LAYOUT
  5
73
102
{ACAD_REACTORS
330
62
102
}
330
62
100
AcDbPlotSettings
  1

  2

  4

  6

 40
0.0
 41
0.0
 42
0.0
 43
0.0
 44
0.0
 45
0.0
 46
0.0
 47
0.0
 48
0.0
 49
0.0
140
0.0
141
0.0
142
1.0
143
1.0
 70
   688
 72
     0
 73
     0
 74
     5
  7

 75
    16
147
1.0
 76
     0
 77
     2
 78
   300
148
0.0
149
0.0
100
AcDbLayout
  1
Layout2
 70
     1
 71
     2
 10
0.0
 20
0.0
 11
12.0
 21
9.0
 12
0.0
 22
0.0
 32
0.0
 14
0.0
 24
0.0
 34
0.0
 15
0.0
 25
0.0
 35
0.0
146
0.0
 13
0.0
 23
0.0
 33
0.0
 16
1.0
 26
0.0
 36
0.0
 17
0.0
 27
1.0
 37
0.0
 76
     0
330
70
  0
LAYOUT
  5
6F
102
{ACAD_REACTORS
330
62
102
}
330
62
100
AcDbPlotSettings
  1

  2

  4

  6

 40
0.0
 41
0.0
 42
0.0
 43
0.0
 44
0.0
 45
0.0
 46
0.0
 47
0.0
 48
0.0
 49
0.0
140
0.0
141
0.0
142
1.0
143
1.0
 70
  1712
 72
     0
 73
     0
 74
     0
  7

 75
     0
147
1.0
 76
     0
 77
     2
 78
   300
148
0.0
149
0.0
100
AcDbLayout
  1
Model
 70
     1
 71
     0
 10
0.0
 20
0.0
 11
12.0
 21
9.0
 12
0.0
 22
0.0
 32
0.0
 14
0.0
 24
0.0
 34
0.0
 15
0.0
 25
0.0
 35
0.0
146
0.0
 13
0.0
 23
0.0
 33
0.0
 16
1.0
 26
0.0
 36
0.0
 17
0.0
 27
1.0
 37
0.0
 76
     0
330
6C
  0
MATERIAL
  5
19
102
{ACAD_XDICTIONARY
360
1A
102
}
102
{ACAD_REACTORS
330
10
102
}
330
10
100
AcDbMaterial
  1
ByBlock
 72
     0
 43
0.0208333333333333
 43
0.0
 43
0.0
 43
0.0
 43
0.0
 43
0.0208333333333333
 43
0.0
 43
0.0
 43
0.0
 43
0.0
 43
1.0
 43
0.0
 43
0.0
 43
0.0
 43
0.0
 43
1.0
 77
     0
 47
0.0208333333333333
 47
0.0
 47
0.0
 47
0.0
 47
0.0
 47
0.0208333333333333
 47
0.0
 47
0.0
 47
0.0
 47
0.0
 47
1.0
 47
0.0
 47
0.0
 47
0.0
 47
0.0
 47
1.0
171
     0
 49
0.0208333333333333
 49
0.0
 49
0.0
 49
0.0
 49
0.0
 49
0.0208333333333333
 49
0.0
 49
0.0
 49
0.0
 49
0.0
 49
1.0
 49
0.0
 49
0.0
 49
0.0
 49
0.0
 49
1.0
175
     0
142
0.0208333333333333
142
0.0
142
0.0
142
0.0
142
0.0
142
0.0208333333333333
142
0.0
142
0.0
142
0.0
142
0.0
142
1.0
142
0.0
142
0.0
142
0.0
142
0.0
142
1.0
179
     0
144
0.0208333333333333
144
0.0
144
0.0
144
0.0
144
0.0
144
0.0208333333333333
144
0.0
144
0.0
144
0.0
144
0.0
144
1.0
144
0.0
144
0.0
144
0.0
144
0.0
144
1.0
147
0.0208333333333333
147
0.0
147
0.0
147
0.0
147
0.0
147
0.0208333333333333
147
0.0
147
0.0
147
0.0
147
0.0
147
1.0
147
0.0
147
0.0
147
0.0
147
0.0
147
1.0
  0
MATERIAL
  5
11
102
{ACAD_XDICTIONARY
360
12
102
}
102
{ACAD_REACTORS
330
10
102
}
330
10
100
AcDbMaterial
  1
ByLayer
 72
     0
 43
0.0208333333333333
 43
0.0
 43
0.0
 43
0.0
 43
0.0
 43
0.0208333333333333
 43
0.0
 43
0.0
 43
0.0
 43
0.0
 43
1.0
 43
0.0
 43
0.0
 43
0.0
 43
0.0
 43
1.0
 77
     0
 47
0.0208333333333333
 47
0.0
 47
0.0
 47
0.0
 47
0.0
 47
0.0208333333333333
 47
0.0
 47
0.0
 47
0.0
 47
0.0
 47
1.0
 47
0.0
 47
0.0
 47
0.0
 47
0.0
 47
1.0
171
     0
 49
0.0208333333333333
 49
0.0
 49
0.0
 49
0.0
 49
0.0
 49
0.0208333333333333
 49
0.0
 49
0.0
 49
0.0
 49
0.0
 49
1.0
 49
0.0
 49
0.0
 49
0.0
 49
0.0
 49
1.0
175
     0
142
0.0208333333333333
142
0.0
142
0.0
142
0.0
142
0.0
142
0.0208333333333333
142
0.0
142
0.0
142
0.0
142
0.0
142
1.0
142
0.0
142
0.0
142
0.0
142
0.0
142
1.0
179
     0
144
0.0208333333333333
144
0.0
144
0.0
144
0.0
144
0.0
144
0.0208333333333333
144
0.0
144
0.0
144
0.0
144
0.0
144
1.0
144
0.0
144
0.0
144
0.0
144
0.0
144
1.0
147
0.0208333333333333
147
0.0
147
0.0
147
0.0
147
0.0
147
0.0208333333333333
147
0.0
147
0.0
147
0.0
147
0.0
147
1.0
147
0.0
147
0.0
147
0.0
147
0.0
147
1.0
  0
MATERIAL
  5
21
102
{ACAD_XDICTIONARY
360
22
102
}
102
{ACAD_REACTORS
330
10
102
}
330
10
100
AcDbMaterial
  1
Global
 72
     0
 43
0.0208333333333333
 43
0.0
 43
0.0
 43
0.0
 43
0.0
 43
0.0208333333333333
 43
0.0
 43
0.0
 43
0.0
 43
0.0
 43
1.0
 43
0.0
 43
0.0
 43
0.0
 43
0.0
 43
1.0
 77
     0
 47
0.0208333333333333
 47
0.0
 47
0.0
 47
0.0
 47
0.0
 47
0.0208333333333333
 47
0.0
 47
0.0
 47
0.0
 47
0.0
 47
1.0
 47
0.0
 47
0.0
 47
0.0
 47
0.0
 47
1.0
171
     0
 49
0.0208333333333333
 49
0.0
 49
0.0
 49
0.0
 49
0.0
 49
0.0208333333333333
 49
0.0
 49
0.0
 49
0.0
 49
0.0
 49
1.0
 49
0.0
 49
0.0
 49
0.0
 49
0.0
 49
1.0
175
     0
142
0.0208333333333333
142
0.0
142
0.0
142
0.0
142
0.0
142
0.0208333333333333
142
0.0
142
0.0
142
0.0
142
0.0
142
1.0
142
0.0
142
0.0
142
0.0
142
0.0
142
1.0
179
     0
144
0.0208333333333333
144
0.0
144
0.0
144
0.0
144
0.0
144
0.0208333333333333
144
0.0
144
0.0
144
0.0
144
0.0
144
1.0
144
0.0
144
0.0
144
0.0
144
0.0
144
1.0
147
0.0208333333333333
147
0.0
147
0.0
147
0.0
147
0.0
147
0.0208333333333333
147
0.0
147
0.0
147
0.0
147
0.0
147
1.0
147
0.0
147
0.0
147
0.0
147
0.0
147
1.0
  0
MLEADERSTYLE
  5
67
102
{ACAD_XDICTIONARY
360
882
102
}
102
{ACAD_REACTORS
330
66
102
}
330
66
100
AcDbMLeaderStyle
179
     2
170
     2
171
     1
172
     0
 90
        2
 40
0.0
 41
0.0
173
     1
 91
-1056964608
340
5B
 92
       -2
290
     1
 42
0.09
291
     1
 43
0.36
  3
Standard
 44
0.18
300

342
55
174
     1
178
     6
175
     1
176
     0
 93
-1056964608
 45
0.18
292
     0
297
     0
 46
0.18
 94
-1056964608
 47
1.0
 49
1.0
140
1.0
293
     1
141
0.0
294
     1
177
     0
142
1.0
295
     0
296
     0
143
0.125
271
     0
272
     9
273
     9
  0
MLINESTYLE
  5
60
102
{ACAD_REACTORS
330
5F
102
}
330
5F
100
AcDbMlineStyle
  2
STANDARD
 70
     0
  3

 62
   256
 51
90.0
 52
90.0
 71
     2
 49
0.5
 62
   256
  6
BYLAYER
 49
-0.5
 62
   256
  6
BYLAYER
  0
ACDBPLACEHOLDER
  5
F
102
{ACAD_REACTORS
330
E
102
}
330
E
  0
SCALE
  5
43
102
{ACAD_REACTORS
330
42
102
}
330
42
100
AcDbScale
 70
     0
300
1:1
140
1.0
141
1.0
290
     1
  0
SCALE
  5
44
102
{ACAD_REACTORS
330
42
102
}
330
42
100
AcDbScale
 70
     0
300
1/128" = 1'-0"
140
0.0078125
141
12.0
290
     0
  0
SCALE
  5
45
102
{ACAD_REACTORS
330
42
102
}
330
42
100
AcDbScale
 70
     0
300
1/64" = 1'-0"
140
0.015625
141
12.0
290
     0
  0
SCALE
  5
46
102
{ACAD_REACTORS
330
42
102
}
330
42
100
AcDbScale
 70
     0
300
1/32" = 1'-0"
140
0.03125
141
12.0
290
     0
  0
SCALE
  5
47
102
{ACAD_REACTORS
330
42
102
}
330
42
100
AcDbScale
 70
     0
300
1/16" = 1'-0"
140
0.0625
141
12.0
290
     0
  0
SCALE
  5
48
102
{ACAD_REACTORS
330
42
102
}
330
42
100
AcDbScale
 70
     0
300
3/32" = 1'-0"
140
0.09375
141
12.0
290
     0
  0
SCALE
  5
49
102
{ACAD_REACTORS
330
42
102
}
330
42
100
AcDbScale
 70
     0
300
1/8" = 1'-0"
140
0.125
141
12.0
290
     0
  0
SCALE
  5
4A
102
{ACAD_REACTORS
330
42
102
}
330
42
100
AcDbScale
 70
     0
300
3/16" = 1'-0"
140
0.1875
141
12.0
290
     0
  0
SCALE
  5
4B
102
{ACAD_REACTORS
330
42
102
}
330
42
100
AcDbScale
 70
     0
300
1/4" = 1'-0"
140
0.25
141
12.0
290
     0
  0
SCALE
  5
4C
102
{ACAD_REACTORS
330
42
102
}
330
42
100
AcDbScale
 70
     0
300
3/8" = 1'-0"
140
0.375
141
12.0
290
     0
  0
SCALE
  5
4D
102
{ACAD_REACTORS
330
42
102
}
330
42
100
AcDbScale
 70
     0
300
1/2" = 1'-0"
140
0.5
141
12.0
290
     0
  0
SCALE
  5
4E
102
{ACAD_REACTORS
330
42
102
}
330
42
100
AcDbScale
 70
     0
300
3/4" = 1'-0"
140
0.75
141
12.0
290
     0
  0
SCALE
  5
4F
102
{ACAD_REACTORS
330
42
102
}
330
42
100
AcDbScale
 70
     0
300
1" = 1'-0"
140
1.0
141
12.0
290
     0
  0
SCALE
  5
50
102
{ACAD_REACTORS
330
42
102
}
330
42
100
AcDbScale
 70
     0
300
1-1/2" = 1'-0"
140
1.5
141
12.0
290
     0
  0
SCALE
  5
51
102
{ACAD_REACTORS
330
42
102
}
330
42
100
AcDbScale
 70
     0
300
3" = 1'-0"
140
3.0
141
12.0
290
     0
  0
SCALE
  5
52
102
{ACAD_REACTORS
330
42
102
}
330
42
100
AcDbScale
 70
     0
300
6" = 1'-0"
140
6.0
141
12.0
290
     0
  0
SCALE
  5
53
102
{ACAD_REACTORS
330
42
102
}
330
42
100
AcDbScale
 70
     0
300
1'-0" = 1'-0"
140
12.0
141
12.0
290
     0
  0
TABLESTYLE
  5
65
102
{ACAD_XDICTIONARY
360
880
102
}
102
{ACAD_REACTORS
330
64
102
}
330
64
100
AcDbTableStyle
280
     0
  3
Standard
 70
     0
 71
     0
 40
0.06
 41
0.06
280
     0
281
     0
  7
Standard
140
0.18
170
     2
 62
     0
 63
     7
283
     0
 90
      512
 91
        0
  1

274
    -2
284
     1
 64
     0
275
    -2
285
     1
 65
     0
276
    -2
286
     1
 66
     0
277
    -2
287
     1
 67
     0
278
    -2
288
     1
 68
     0
279
    -2
289
     1
 69
     0
  7
Standard
140
0.25
170
     5
 62
     0
 63
     7
283
     0
 90
      512
 91
        0
  1

274
    -2
284
     1
 64
     0
275
    -2
285
     1
 65
     0
276
    -2
286
     1
 66
     0
277
    -2
287
     1
 67
     0
278
    -2
288
     1
 68
     0
279
    -2
289
     1
 69
     0
  7
Standard
140
0.18
170
     5
 62
     0
 63
     7
283
     0
 90
      512
 91
        0
  1

274
    -2
284
     1
 64
     0
275
    -2
285
     1
 65
     0
276
    -2
286
     1
 66
     0
277
    -2
287
     1
 67
     0
278
    -2
288
     1
 68
     0
279
    -2
289
     1
 69
     0
  0
VISUALSTYLE
  5
2F
102
{ACAD_REACTORS
330
29
102
}
330
29
100
AcDbVisualStyle
  2
2dWireframe
 70
     4
177
     2
291
     0
 71
     0
176
     1
 72
     2
176
     1
 73
     0
176
     1
 90
        0
176
     1
 40
0.6
176
     1
 41
30.0
176
     1
 63
     7
421
 16777215
176
     1
 74
     1
176
     1
 91
        4
176
     1
 64
     7
176
     1
 65
   257
176
     1
 75
     1
176
     1
175
     1
176
     1
 42
1.0
176
     1
 92
        0
176
     1
 66
   257
176
     1
 43
1.0
176
     1
 76
     1
176
     1
 77
     6
176
     1
 78
     2
176
     1
 67
     7
176
     1
 79
     5
176
     1
170
     0
176
     1
171
     0
176
     1
290
     0
176
     1
 93
        1
176
     1
 44
0.0
176
     1
173
     0
176
     1
  0
VISUALSTYLE
  5
2E
102
{ACAD_REACTORS
330
29
102
}
330
29
100
AcDbVisualStyle
  2
Basic
 70
     7
177
     2
291
     1
 71
     1
176
     1
 72
     0
176
     1
 73
     1
176
     1
 90
        0
176
     1
 40
0.6
176
     1
 41
30.0
176
     1
 63
     7
421
 16777215
176
     1
 74
     0
176
     1
 91
        4
176
     1
 64
     7
176
     1
 65
   257
176
     1
 75
     1
176
     1
175
     1
176
     1
 42
1.0
176
     1
 92
        8
176
     1
 66
     7
176
     1
 43
1.0
176
     1
 76
     1
176
     1
 77
     6
176
     1
 78
     2
176
     1
 67
     7
176
     1
 79
     5
176
     1
170
     0
176
     1
171
     0
176
     1
290
     0
176
     1
 93
        1
176
     1
 44
0.0
176
     1
173
     0
176
     1
  0
VISUALSTYLE
  5
35
102
{ACAD_REACTORS
330
29
102
}
330
29
100
AcDbVisualStyle
  2
Brighten
 70
    12
177
     2
291
     1
 71
     2
176
     1
 72
     2
176
     1
 73
     0
176
     1
 90
        0
176
     1
 40
0.6
176
     1
 41
30.0
176
     1
 63
     7
421
 16777215
176
     1
 74
     1
176
     1
 91
        4
176
     1
 64
     7
176
     1
 65
   257
176
     1
 75
     1
176
     1
175
     1
176
     1
 42
1.0
176
     1
 92
        8
176
     1
 66
     7
176
     1
 43
1.0
176
     1
 76
     1
176
     1
 77
     6
176
     1
 78
     2
176
     1
 67
     7
176
     1
 79
     5
176
     1
170
     0
176
     1
171
     0
176
     1
290
     0
176
     1
 93
        1
176
     1
 44
50.0
176
     1
173
     0
176
     1
  0
VISUALSTYLE
  5
39
102
{ACAD_REACTORS
330
29
102
}
330
29
100
AcDbVisualStyle
  2
ColorChange
 70
    16
177
     2
291
     1
 71
     2
176
     1
 72
     2
176
     1
 73
     3
176
     1
 90
        0
176
     1
 40
0.6
176
     1
 41
30.0
176
     1
 63
     8
421
  8421504
176
     1
 74
     1
176
     1
 91
        4
176
     1
 64
     7
176
     1
 65
   257
176
     1
 75
     1
176
     1
175
     1
176
     1
 42
1.0
176
     1
 92
        8
176
     1
 66
     8
424
  8421504
176
     1
 43
1.0
176
     1
 76
     1
176
     1
 77
     6
176
     1
 78
     2
176
     1
 67
     7
176
     1
 79
     5
176
     1
170
     0
176
     1
171
     0
176
     1
290
     0
176
     1
 93
        1
176
     1
 44
0.0
176
     1
173
     0
176
     1
  0
VISUALSTYLE
  5
32
102
{ACAD_REACTORS
330
29
102
}
330
29
100
AcDbVisualStyle
  2
Conceptual
 70
     9
177
     2
291
     0
 71
     3
176
     1
 72
     2
176
     1
 73
     0
176
     1
 90
        0
176
     1
 40
0.6
176
     1
 41
30.0
176
     1
 63
     7
421
 16777215
176
     1
 74
     2
176
     1
 91
        2
176
     1
 64
     7
176
     1
 65
   257
176
     1
 75
     1
176
     1
175
     1
176
     1
 42
179.0
176
     1
 92
        8
176
     1
 66
     7
176
     1
 43
1.0
176
     1
 76
     1
176
     1
 77
     6
176
     1
 78
     2
176
     1
 67
     7
176
     1
 79
     3
176
     1
170
     0
176
     1
171
     0
176
     1
290
     0
176
     1
 93
        1
176
     1
 44
0.0
176
     1
173
     0
176
     1
  0
VISUALSTYLE
  5
34
102
{ACAD_REACTORS
330
29
102
}
330
29
100
AcDbVisualStyle
  2
Dim
 70
    11
177
     2
291
     1
 71
     2
176
     1
 72
     2
176
     1
 73
     0
176
     1
 90
        0
176
     1
 40
0.6
176
     1
 41
30.0
176
     1
 63
     7
421
 16777215
176
     1
 74
     1
176
     1
 91
        4
176
     1
 64
     7
176
     1
 65
   257
176
     1
 75
     1
176
     1
175
     1
176
     1
 42
1.0
176
     1
 92
        8
176
     1
 66
     7
176
     1
 43
1.0
176
     1
 76
     1
176
     1
 77
     6
176
     1
 78
     2
176
     1
 67
     7
176
     1
 79
     5
176
     1
170
     0
176
     1
171
     0
176
     1
290
     0
176
     1
 93
        1
176
     1
 44
-50.0
176
     1
173
     0
176
     1
  0
VISUALSTYLE
  5
41
102
{ACAD_REACTORS
330
29
102
}
330
29
100
AcDbVisualStyle
  2
EdgeColorOff
 70
    22
177
     2
291
     1
 71
     2
176
     0
 72
     2
176
     0
 73
     0
176
     0
 90
        0
176
     0
 40
0.6
176
     0
 41
30.0
176
     0
 63
     7
421
 16777215
176
     0
 74
     1
176
     0
 91
        4
176
     0
 64
     7
176
     0
 65
   257
176
     0
 75
     1
176
     0
175
     1
176
     0
 42
1.0
176
     0
 92
        8
176
     2
 66
     7
176
     0
 43
1.0
176
     0
 76
     1
176
     0
 77
     6
176
     0
 78
     2
176
     0
 67
     7
176
     0
 79
     5
176
     0
170
     0
176
     0
171
     0
176
     0
290
     0
176
     0
 93
        1
176
     0
 44
0.0
176
     0
173
     0
176
     0
  0
VISUALSTYLE
  5
38
102
{ACAD_REACTORS
330
29
102
}
330
29
100
AcDbVisualStyle
  2
Facepattern
 70
    15
177
     2
291
     1
 71
     2
176
     1
 72
     2
176
     1
 73
     0
176
     1
 90
        0
176
     1
 40
0.6
176
     1
 41
30.0
176
     1
 63
     7
421
 16777215
176
     1
 74
     1
176
     1
 91
        4
176
     1
 64
     7
176
     1
 65
   257
176
     1
 75
     1
176
     1
175
     1
176
     1
 42
1.0
176
     1
 92
        8
176
     1
 66
     7
176
     1
 43
1.0
176
     1
 76
     1
176
     1
 77
     6
176
     1
 78
     2
176
     1
 67
     7
176
     1
 79
     5
176
     1
170
     0
176
     1
171
     0
176
     1
290
     0
176
     1
 93
        1
176
     1
 44
0.0
176
     1
173
     0
176
     1
  0
VISUALSTYLE
  5
2A
102
{ACAD_REACTORS
330
29
102
}
330
29
100
AcDbVisualStyle
  2
Flat
 70
     0
177
     2
291
     1
 71
     2
176
     1
 72
     1
176
     1
 73
     1
176
     1
 90
        2
176
     1
 40
0.6
176
     1
 41
30.0
176
     1
 63
     7
421
 16777215
176
     1
 74
     0
176
     1
 91
        0
176
     1
 64
     7
176
     1
 65
   257
176
     1
 75
     1
176
     1
175
     1
176
     1
 42
1.0
176
     1
 92
        8
176
     1
 66
     7
176
     1
 43
1.0
176
     1
 76
     1
176
     1
 77
     6
176
     1
 78
     2
176
     1
 67
     7
176
     1
 79
     5
176
     1
170
     0
176
     1
171
     0
176
     1
290
     0
176
     1
 93
       13
176
     1
 44
0.0
176
     1
173
     0
176
     1
  0
VISUALSTYLE
  5
2B
102
{ACAD_REACTORS
330
29
102
}
330
29
100
AcDbVisualStyle
  2
FlatWithEdges
 70
     1
177
     2
291
     1
 71
     2
176
     1
 72
     1
176
     1
 73
     1
176
     1
 90
        2
176
     1
 40
0.6
176
     1
 41
30.0
176
     1
 63
     7
421
 16777215
176
     1
 74
     1
176
     1
 91
        0
176
     1
 64
     7
176
     1
 65
   257
176
     1
 75
     1
176
     1
175
     1
176
     1
 42
1.0
176
     1
 92
        0
176
     1
 66
   257
176
     1
 43
1.0
176
     1
 76
     1
176
     1
 77
     6
176
     1
 78
     2
176
     1
 67
     7
176
     1
 79
     5
176
     1
170
     0
176
     1
171
     0
176
     1
290
     0
176
     1
 93
       13
176
     1
 44
0.0
176
     1
173
     0
176
     1
  0
VISUALSTYLE
  5
2C
102
{ACAD_REACTORS
330
29
102
}
330
29
100
AcDbVisualStyle
  2
Gouraud
 70
     2
177
     2
291
     1
 71
     2
176
     1
 72
     2
176
     1
 73
     1
176
     1
 90
        2
176
     1
 40
0.6
176
     1
 41
30.0
176
     1
 63
     7
421
 16777215
176
     1
 74
     0
176
     1
 91
        0
176
     1
 64
     7
176
     1
 65
   257
176
     1
 75
     1
176
     1
175
     1
176
     1
 42
1.0
176
     1
 92
        0
176
     1
 66
     7
176
     1
 43
1.0
176
     1
 76
     1
176
     1
 77
     6
176
     1
 78
     2
176
     1
 67
     7
176
     1
 79
     5
176
     1
170
     0
176
     1
171
     0
176
     1
290
     0
176
     1
 93
       13
176
     1
 44
0.0
176
     1
173
     0
176
     1
  0
VISUALSTYLE
  5
2D
102
{ACAD_REACTORS
330
29
102
}
330
29
100
AcDbVisualStyle
  2
GouraudWithEdges
 70
     3
177
     2
291
     1
 71
     2
176
     1
 72
     2
176
     1
 73
     1
176
     1
 90
        2
176
     1
 40
0.6
176
     1
 41
30.0
176
     1
 63
     7
421
 16777215
176
     1
 74
     1
176
     1
 91
        0
176
     1
 64
     7
176
     1
 65
   257
176
     1
 75
     1
176
     1
175
     1
176
     1
 42
1.0
176
     1
 92
        0
176
     1
 66
   257
176
     1
 43
1.0
176
     1
 76
     1
176
     1
 77
     6
176
     1
 78
     2
176
     1
 67
     7
176
     1
 79
     5
176
     1
170
     0
176
     1
171
     0
176
     1
290
     0
176
     1
 93
       13
176
     1
 44
0.0
176
     1
173
     0
176
     1
  0
VISUALSTYLE
  5
31
102
{ACAD_REACTORS
330
29
102
}
330
29
100
AcDbVisualStyle
  2
Hidden
 70
     6
177
     2
291
     0
 71
     1
176
     1
 72
     2
176
     1
 73
     2
176
     1
 90
        0
176
     1
 40
0.6
176
     1
 41
30.0
176
     1
 63
     7
421
 16777215
176
     1
 74
     2
176
     1
 91
        2
176
     1
 64
     7
176
     1
 65
   257
176
     1
 75
     2
176
     1
175
     1
176
     1
 42
40.0
176
     1
 92
        0
176
     1
 66
   257
176
     1
 43
1.0
176
     1
 76
     1
176
     1
 77
     6
176
     1
 78
     2
176
     1
 67
     7
176
     1
 79
     3
176
     1
170
     0
176
     1
171
     0
176
     1
290
     0
176
     1
 93
        1
176
     1
 44
0.0
176
     1
173
     0
176
     1
  0
VISUALSTYLE
  5
3F
102
{ACAD_REACTORS
330
29
102
}
330
29
100
AcDbVisualStyle
  2
JitterOff
 70
    20
177
     2
291
     1
 71
     2
176
     0
 72
     2
176
     0
 73
     0
176
     0
 90
        0
176
     0
 40
0.6
176
     0
 41
30.0
176
     0
 63
     7
421
 16777215
176
     0
 74
     1
176
     0
 91
        4
176
     0
 64
     7
176
     0
 65
   257
176
     0
 75
     1
176
     0
175
     1
176
     0
 42
1.0
176
     0
 92
       10
176
     2
 66
     7
176
     0
 43
1.0
176
     0
 76
     1
176
     0
 77
     6
176
     0
 78
     2
176
     0
 67
     7
176
     0
 79
     5
176
     0
170
     0
176
     0
171
     0
176
     0
290
     0
176
     0
 93
        1
176
     0
 44
0.0
176
     0
173
     0
176
     0
  0
VISUALSTYLE
  5
37
102
{ACAD_REACTORS
330
29
102
}
330
29
100
AcDbVisualStyle
  2
Linepattern
 70
    14
177
     2
291
     1
 71
     2
176
     1
 72
     2
176
     1
 73
     0
176
     1
 90
        0
176
     1
 40
0.6
176
     1
 41
30.0
176
     1
 63
     7
421
 16777215
176
     1
 74
     1
176
     1
 91
        4
176
     1
 64
     7
176
     1
 65
   257
176
     1
 75
     7
176
     1
175
     7
176
     1
 42
1.0
176
     1
 92
        8
176
     1
 66
     7
176
     1
 43
1.0
176
     1
 76
     1
176
     1
 77
     6
176
     1
 78
     2
176
     1
 67
     7
176
     1
 79
     5
176
     1
170
     0
176
     1
171
     0
176
     1
290
     0
176
     1
 93
        1
176
     1
 44
0.0
176
     1
173
     0
176
     1
  0
VISUALSTYLE
  5
40
102
{ACAD_REACTORS
330
29
102
}
330
29
100
AcDbVisualStyle
  2
OverhangOff
 70
    21
177
     2
291
     1
 71
     2
176
     0
 72
     2
176
     0
 73
     0
176
     0
 90
        0
176
     0
 40
0.6
176
     0
 41
30.0
176
     0
 63
     7
421
 16777215
176
     0
 74
     1
176
     0
 91
        4
176
     0
 64
     7
176
     0
 65
   257
176
     0
 75
     1
176
     0
175
     1
176
     0
 42
1.0
176
     0
 92
        9
176
     2
 66
     7
176
     0
 43
1.0
176
     0
 76
     1
176
     0
 77
     6
176
     0
 78
     2
176
     0
 67
     7
176
     0
 79
     5
176
     0
170
     0
176
     0
171
     0
176
     0
290
     0
176
     0
 93
        1
176
     0
 44
0.0
176
     0
173
     0
176
     0
  0
VISUALSTYLE
  5
33
102
{ACAD_REACTORS
330
29
102
}
330
29
100
AcDbVisualStyle
  2
Realistic
 70
     8
177
     2
291
     0
 71
     2
176
     1
 72
     3
176
     1
 73
     0
176
     1
 90
        2
176
     1
 40
0.6
176
     1
 41
30.0
176
     1
 63
     7
421
 16777215
176
     1
 74
     0
176
     1
 91
        0
176
     1
 64
     7
176
     1
 65
   257
176
     1
 75
     1
176
     1
175
     1
176
     1
 42
1.0
176
     1
 92
        8
176
     1
 66
   257
176
     1
 43
1.0
176
     1
 76
     1
176
     1
 77
     6
176
     1
 78
     2
176
     1
 67
     7
176
     1
 79
     3
176
     1
170
     0
176
     1
171
     0
176
     1
290
     0
176
     1
 93
       13
176
     1
 44
0.0
176
     1
173
     0
176
     1
  0
VISUALSTYLE
  5
3E
102
{ACAD_REACTORS
330
29
102
}
330
29
100
AcDbVisualStyle
  2
Shaded
 70
    27
177
     2
291
     0
 71
     2
176
     1
 72
     2
176
     1
 73
     1
176
     1
 90
        2
176
     1
 40
0.6
176
     1
 41
30.0
176
     1
 63
     7
421
 16777215
176
     1
 74
     0
176
     1
 91
        4
176
     1
 64
     7
176
     1
 65
   257
176
     1
 75
     1
176
     1
175
     1
176
     1
 42
1.0
176
     1
 92
        8
176
     1
 66
   257
176
     1
 43
1.0
176
     1
 76
     1
176
     1
 77
     6
176
     1
 78
     2
176
     1
 67
     8
425
  7895160
176
     1
 79
     3
176
     1
170
     0
176
     1
171
     0
176
     1
290
     0
176
     1
 93
        5
176
     1
 44
0.0
176
     1
173
     0
176
     1
  0
VISUALSTYLE
  5
3D
102
{ACAD_REACTORS
330
29
102
}
330
29
100
AcDbVisualStyle
  2
Shaded with edges
 70
    26
177
     2
291
     0
 71
     2
176
     1
 72
     2
176
     1
 73
     1
176
     1
 90
        2
176
     1
 40
0.6
176
     1
 41
30.0
176
     1
 63
     7
421
 16777215
176
     1
 74
     1
176
     1
 91
       10
176
     1
 64
     7
176
     1
 65
   257
176
     1
 75
     2
176
     1
175
     1
176
     1
 42
1.0
176
     1
 92
        8
176
     1
 66
   257
176
     1
 43
1.0
176
     1
 76
     1
176
     1
 77
     6
176
     1
 78
     2
176
     1
 67
     7
176
     1
 79
     3
176
     1
170
     0
176
     1
171
     0
176
     1
290
     0
176
     1
 93
        5
176
     1
 44
0.0
176
     1
173
     0
176
     1
  0
VISUALSTYLE
  5
3A
102
{ACAD_REACTORS
330
29
102
}
330
29
100
AcDbVisualStyle
  2
Shades of Gray
 70
    23
177
     2
291
     0
 71
     2
176
     1
 72
     2
176
     1
 73
     3
176
     1
 90
        0
176
     1
 40
0.6
176
     1
 41
30.0
176
     1
 63
     7
421
 16777215
176
     1
 74
     2
176
     1
 91
        2
176
     1
 64
     7
176
     1
 65
     7
176
     1
 75
     1
176
     1
175
     1
176
     1
 42
40.0
176
     1
 92
        8
176
     1
 66
     7
176
     1
 43
1.0
176
     1
 76
     1
176
     1
 77
     6
176
     1
 78
     2
176
     1
 67
     7
176
     1
 79
     3
176
     1
170
     0
176
     1
171
     0
176
     1
290
     0
176
     1
 93
        1
176
     1
 44
0.0
176
     1
173
     0
176
     1
  0
VISUALSTYLE
  5
3B
102
{ACAD_REACTORS
330
29
102
}
330
29
100
AcDbVisualStyle
  2
Sketchy
 70
    24
177
     2
291
     0
 71
     1
176
     1
 72
     2
176
     1
 73
     2
176
     1
 90
        0
176
     1
 40
0.6
176
     1
 41
30.0
176
     1
 63
     7
421
 16777215
176
     1
 74
     2
176
     1
 91
        2
176
     1
 64
     7
176
     1
 65
     7
176
     1
 75
     1
176
     1
175
     1
176
     1
 42
40.0
176
     1
 92
       11
176
     1
 66
     7
176
     1
 43
1.0
176
     1
 76
     1
176
     1
 77
     6
176
     1
 78
     2
176
     1
 67
     7
176
     1
 79
     6
176
     1
170
     0
176
     1
171
     0
176
     1
290
     0
176
     1
 93
        1
176
     1
 44
0.0
176
     1
173
     0
176
     1
  0
VISUALSTYLE
  5
36
102
{ACAD_REACTORS
330
29
102
}
330
29
100
AcDbVisualStyle
  2
Thicken
 70
    13
177
     2
291
     1
 71
     2
176
     1
 72
     2
176
     1
 73
     0
176
     1
 90
        0
176
     1
 40
0.6
176
     1
 41
30.0
176
     1
 63
     7
421
 16777215
176
     1
 74
     1
176
     1
 91
        4
176
     1
 64
     7
176
     1
 65
   257
176
     1
 75
     1
176
     1
175
     1
176
     1
 42
1.0
176
     1
 92
       12
176
     1
 66
     7
176
     1
 43
1.0
176
     1
 76
     1
176
     1
 77
     6
176
     1
 78
     2
176
     1
 67
     7
176
     1
 79
     5
176
     1
170
     0
176
     1
171
     0
176
     1
290
     0
176
     1
 93
        1
176
     1
 44
0.0
176
     1
173
     0
176
     1
  0
VISUALSTYLE
  5
30
102
{ACAD_REACTORS
330
29
102
}
330
29
100
AcDbVisualStyle
  2
Wireframe
 70
     5
177
     2
291
     0
 71
     0
176
     1
 72
     2
176
     1
 73
     0
176
     1
 90
        0
176
     1
 40
0.6
176
     1
 41
30.0
176
     1
 63
     7
421
 16777215
176
     1
 74
     1
176
     1
 91
        4
176
     1
 64
     7
176
     1
 65
   257
176
     1
 75
     1
176
     1
175
     1
176
     1
 42
1.0
176
     1
 92
        0
176
     1
 66
   257
176
     1
 43
1.0
176
     1
 76
     1
176
     1
 77
     6
176
     1
 78
     2
176
     1
 67
     7
176
     1
 79
     3
176
     1
170
     0
176
     1
171
     0
176
     1
290
     0
176
     1
 93
        1
176
     1
 44
0.0
176
     1
173
     0
176
     1
  0
VISUALSTYLE
  5
3C
102
{ACAD_REACTORS
330
29
102
}
330
29
100
AcDbVisualStyle
  2
X-Ray
 70
    25
177
     2
291
     0
 71
     2
176
     1
 72
     2
176
     1
 73
     1
176
     1
 90
        1
176
     1
 40
0.5
176
     1
 41
30.0
176
     1
 63
     7
421
 16777215
176
     1
 74
     1
176
     1
 91
        0
176
     1
 64
     7
176
     1
 65
   257
176
     1
 75
     1
176
     1
175
     1
176
     1
 42
1.0
176
     1
 92
        8
176
     1
 66
     7
176
     1
 43
1.0
176
     1
 76
     1
176
     1
 77
     6
176
     1
 78
     2
176
     1
 67
     7
176
     1
 79
     3
176
     1
170
     0
176
     1
171
     0
176
     1
290
     0
176
     1
 93
       13
176
     1
 44
0.0
176
     1
173
     0
176
     1
  0
DICTIONARYVAR
  5
79
102
{ACAD_REACTORS
330
76
102
}
330
76
100
DictionaryVariables
280
     0
  1
1:1
  0
DICTIONARYVAR
  5
78
102
{ACAD_REACTORS
330
76
102
}
330
76
100
DictionaryVariables
280
     0
  1
STANDARD
  0
DICTIONARYVAR
  5
77
102
{ACAD_REACTORS
330
76
102
}
330
76
100
DictionaryVariables
280
     0
  1
STANDARD
  0
DICTIONARY
  5
1A
330
19
100
AcDbDictionary
280
     1
281
     1
  3
BUMPTILE
360
1C
  3
DIFFUSETILE
360
1B
  3
OPACITYTILE
360
1F
  3
REFLECTIONTILE
360
1E
  3
REFRACTIONTILE
360
20
  3
SPECULARTILE
360
1D
  0
DICTIONARY
  5
12
330
11
100
AcDbDictionary
280
     1
281
     1
  3
BUMPTILE
360
14
  3
DIFFUSETILE
360
13
  3
FBXASSET
360
10B
  3
OPACITYTILE
360
17
  3
REFLECTIONTILE
360
16
  3
REFRACTIONTILE
360
18
  3
SPECULARTILE
360
15
  0
DICTIONARY
  5
22
330
21
100
AcDbDictionary
280
     1
281
     1
  3
BUMPTILE
360
24
  3
DIFFUSETILE
360
23
  3
FBXASSET
360
BA
  3
OPACITYTILE
360
27
  3
REFLECTIONTILE
360
26
  3
REFRACTIONTILE
360
28
  3
SPECULARTILE
360
25
  0
DICTIONARY
  5
882
330
67
100
AcDbDictionary
280
     1
281
     1
  3
ACAD_XREC_ROUNDTRIP
360
883
  0
DICTIONARY
  5
880
330
65
100
AcDbDictionary
280
     1
281
     1
  3
ACAD_ROUNDTRIP_2008_TABLESTYLE_CELLSTYLEMAP
360
881
  0
XRECORD
  5
1C
102
{ACAD_REACTORS
330
1A
102
}
330
1A
100
AcDbXrecord
280
     1
270
     1
271
     1
  0
XRECORD
  5
1B
102
{ACAD_REACTORS
330
1A
102
}
330
1A
100
AcDbXrecord
280
     1
270
     1
271
     1
  0
XRECORD
  5
1F
102
{ACAD_REACTORS
330
1A
102
}
330
1A
100
AcDbXrecord
280
     1
270
     1
271
     1
  0
XRECORD
  5
1E
102
{ACAD_REACTORS
330
1A
102
}
330
1A
100
AcDbXrecord
280
     1
270
     1
271
     1
  0
XRECORD
  5
20
102
{ACAD_REACTORS
330
1A
102
}
330
1A
100
AcDbXrecord
280
     1
270
     1
271
     1
  0
XRECORD
  5
1D
102
{ACAD_REACTORS
330
1A
102
}
330
1A
100
AcDbXrecord
280
     1
270
     1
271
     1
  0
XRECORD
  5
14
102
{ACAD_REACTORS
330
12
102
}
330
12
100
AcDbXrecord
280
     1
270
     1
271
     1
  0
XRECORD
  5
13
102
{ACAD_REACTORS
330
12
102
}
330
12
100
AcDbXrecord
280
     1
270
     1
271
     1
  0
XRECORD
  5
10B
102
{ACAD_REACTORS
330
12
102
}
330
12
100
AcDbXrecord
280
     1
 70
     1
 90
1959938040
 71
     1
  1
95D6C0BC-9207-40AE-81A3-516D97FA484D
311
504B03040A0000080000295ADC403DEE336E79000000790000001B0000006175746F6465736B2D64657369676E2D7061636B6167652E786D6C3C3F786D6C2076657273696F6E3D22312E302220656E636F64696E673D227574662D3822203F3E3C666F726D6174733E3C666F726D61743E687474703A2F2F736368656D612E
311
6175746F6465736B2E636F6D2F64657369676E2D7061636B6167652F323030393C2F666F726D61743E3C2F666F726D6174733E504B0304140006080800295ADC40D486FD9CA0000000F4000000130000005B436F6E74656E745F54797065735D2E786D6C7D8EC10E82300C865F65E91D8A1E8C310C0EEA1BF002731658846E
311
D98AC1B77784ABF1D8FE5FBFBF75BBCE937A534CCEB38643598122B6FEE978D0B0485F9C41B54DDD7D022595594E1A469170414C76A4D9A4D207E29CF43ECE46F218070CC6BECC4078ACAA135ACF422C856C0E68EA1BF5669944DDD7BCDE7B1F8E415D77AECB980613C2E4AC91FC167A2B244592486606FC29C8FD7F045B9A
311
EF7053A7E60B504B0304140006080800295ADC4020DEB25EE90000007C01000008000000636F72652E786D6C8D90D16E842010457F85CC3B0A68D51864D39AF50BFA03045897EC0A46A0E9E71777DDA47DEBD30C977B6626979FBE973BFA325BB0DE0D400B02C838E5B575F300295E7007E824F8E67DFC6503E4E46206D865
311
107CDE7C5A0F4979178D8B59755E9B439421980848DD7333405057B3C842A6981DE156AC52DDE46C0AFAEA329C92D5E8B9C4EA3CCF5EACD940D4D307636FED841BD6BCE37A221DEEAA66C4E7F14CA7769C2A528FBCDC61C1A35D5EFBD56664341A04239461D260D67D52DAD3B6A75D7EF684F072B7FF81D2AAFF0925EB62C5
311
8E739F580041F3218F0FC1CB3D8B5C1E41E5BAE7267E00504B0304140006080800295ADC4055019EA25F0000007C00000007000000636E782E786D6C4DCB3B0E80201045D1AD90E915ED2CF8AC45050C11660C8261F98AB1B07AC9C97D42D718D865D3E909258CFD00CCE24AC6E326A164D74DC0B4128928FF326038472BA1
311
3128B1252AC747C6BAB984FC68F0B87FE8960A5C09FE86CFB69FBA01504B0304140006080800295ADC402A61AAFA65010000020300000C0000006662782F636F72652E786D6C8D52ED8E8320107C15C27F45A8674D833477A63EC1BD0055EA992A1804D3C7BFF5A3F17A699AC6447167676776941F6F5D8B466587C6E80CD3
311
30C248E9D2548DAE33ECDD2548313A0A6E8D717FDA30D2B253199ECA58F0DA1ADFAFA5D268A7B483AA36955A8B721894C3A86CE190E1A1FC519D0CA577D0315CC35E965759AB908600439FE083B360002D22D31D8BCBF9C6C95217DCFBA65AD1A602B5E6D2288B455C7C31F6B12F8284259F415C446990EE923C38E5275AEC
311
F36217C53927135970D7747777A555D2A90A0B1651164449C0D26F4A0F747FA029BC1EA28893A9FD81E4FBEA4D926FB4DBB1D5EE421BB0A0606406FE6D0B113934C811FC10C1C914223CE6841F838640206427CFED7D8F2B9446553A6363402AE3376894AD57A01AA1F9E2644161F23C00367B3A87BD98F37A067C40A96BB0
311
261D1CCFDE4DEA7C515DA3E8950D467743DAD84EB69BB9C5E276DF849ED24BD31AFB0E9BACAB92354C32FDBDE217504B0304140006080800295ADC407B43858A7E0000009D0000000B0000006662782F636E782E786D6C4DCCDF0A83201C86E15B91DFB9ABFC130DD47023EF239685CC349C8E5DFE6A74B0A30F1E3E5ED17F
311
568FDE36BD5C0C129A4B0DC886479C5C5824943CE30E50AF448A31FFDD008571B5120E06259614CB76D264E7B1F8BCAB77E17922319DA975C33169CD1DB3A1E55893DB8019D386524A0CBF6AA894A87EA57D8FB0FA02504B0304140006080800295ADC40691889C82A01000014020000310000006662782F32463846304131
311
352D323646432D344536352D413242452D3434414633333332463539412F636F72652E786D6C8D51CB6EC32010FC15C4293DD806FCA81B6122B78ABFA03FE01892A2C460F1A8F2F95D6A476A6FB9B030CCCC8E76F9E13EDFD0B7725E5BD3619A138C9499ACD4E6D2E118CE598BD14170676DF843C3C88CB3EA7082B1E01767
311
E3B2419335419900A8B1526DE0E8BD0A184D37B874D84F5F6A1EF3310660F86BBE8CD375BCA89CE6F00D3CC17D701000AD4DD289051BDA81F4B4CE58337C64D5B1A9B39EBD1FB3AAEA87B22CD950BFF5BC588582C7A8E526D712E2E8B356EE599324163CE8F9117F726A0C4A829E5096912663ED27A57BFABAA72D3CF784F0
311
22D1FF89E2229F14456D42C9B6B8ABCC634179B17E082E6D3CDD1E61D47DB12EA0D46FE7D5F48205C9098511342DE3C54A85018067536D9E3E580703DE5D4FC0A6F56ADC5482176947507E170835ED53FC00504B0304140006080800295ADC403B02A7104C01000033030000300000006662782F32463846304131352D3236
311
46432D344536352D413242452D3434414633333332463539412F636E782E786D6CD593CD6EC23010845FC5F23D3FA68822E418A9873E410FBD3AF60206C78EFC5395B7EF1A0CE5C2A1C75EAC64F6F3CC6A94F0EDF764C9178468BC1B286B7B4AC029AF8DDB0F34A75DB3A6642B78F03E3D60943839C1408B4C05DF079FE72A
311
69D8C96C13AAD6B8531503449F83828872B949AC57D2A201B826A308D3085A832677109F7610701514C733490720EF6F9FC48F475029F2AEB808DE950CC1CB59931E204A9495310E34AA034CB29539790DF1D46A9964CBDA5BD6939D7E9D48B9708BCCC190123ED0725251376AB147DEE150F09802B657A1749E810A39CFD6
311
2899B0E4EE025E19C1B37169B5ACACC1E203D26CF5B25CA2D96526783213544205900934158B9E2D9A7ED52CD61F8C6DD8EB86ADF175D3F7BC2BB8E0A3F7B65E421B087E26CABB042E51C17857C6CFEAAB1CD12660D73E9CFF5024165053AFEDDC3DFE733FDDE5FBC6BA02FE05E207504B0304140006080800295ADC40371F
311
DB36A505000081100000340000006662782F32463846304131352D323646432D344536352D413242452D3434414633333332463539412F6F626A656374732E786D6CAD575B6FDB3614FE2B82F6B23DF822DB49E341D1E0D84D6174698B1A2DF660C0A0244AE1425D4052A9B35FBF8F22254BAE9D7A435F74E1E5F09CEF7CE7
311
42FF8F7DC69D672A242BF25BD71B8E5D87E65111B33CBD752B950C6E5CE78FC01745A13ACB5C272719BD75F5B01BF8A928AAD20EC53421155747A3F7777F3932A239759D8813296F5D193DD28C0C49A58A98CAA7614C1419A6C97EE80DCDC2BED85490F2F148684904CD1534C5780E298E51CAEBFF8EDD51E08FF47CE0EBA7
311
5D353DBF6A54DBD33F9FE552913CFAEEB02331536FB67A3BB99A0FAE66B3E960763DF10677F777AB81F7663A5E5E2F97F3C5DB390E964A4092D544D0C40DDE011BC1227F64A602BF62B99A4EEC12EBA091A0CF4C7BCA0D268EE78FCC9AD63A6BE429F5A322CF69546305346AFBACE89896348FE173462534EB2034EEFF7A1A
311
C7CEF454FFDB23BBC39721D0DDD111D4E8DEBCBB9A16E1DF30415EC22021A966A0C1D21A6AB83A3E201C1605B7734C3A19515430C21DCE4241C48B1B60A95E12F83D319AC9424783B6C00DE00533DDA70BC2E8C73C3FA5655271AE69EC067514EC102B54C95A33F60F1507EDBBC84027F84AB3E1C61AA45E4AEA067343919B
311
233619209D8493142E87997AE7747264E852C7E97AE506EFEFC3FD46C7EEE9C34B519454284D1F50AB715CF3D628599DBC8B3CA737B847AA1C40F90CE43F20D40FAAC06F82ED67FB993D450992CBA410197CE38C9DC1188FB1E3D54FFDDDF9F247EDE6BEF7CEE109676BA87E029E7D1BBABEECC019F8CF207C21A6D6B44D44
311
38D2C603CB01902689C30B0C210F27E1DE0DD6C872C8CAD84578E0C164A8FB8C4F7F64C52051D42775DE39B03C4A8B172468C05633126A18F25B050F7EFA2E9DD507DB65E7E0BDFA29745DAC36EF37954848441F6C4CAF68C272A650E20EBCE92AD4C3BC67D1137DF9568818867E8FF7A68B77668F92405B63AE814F9B9CAE
311
7F0E27F70E88B02F2D74BAF17F70028CD085B523FF81C988724E725A54CDB9AFD60F940D03B10E76CDE4B6C01C0A0B4863668E6210453A12ACD420B6D5AA4D9AC333D67D597F0023DDE0EEE54FF2D2CD5EE121F746052FC42E7CD999B47412EAAF7D6E5B0C465A0AE85E074913FF16F45DCC92A49248822770FDBA5E767DA7
311
D302524423D544CB0CF623B888B0A46DE4A25A0B824A5AE43B86BA89B83B7940573E20B50CA8059ED358529EEC18E755B64B184735DA65A43C03C7FFD73FACB27247B2A2CAD519D93DD5511DFABAF7D82BBF11153DBAC1A67E0FEE907B631A9F2183AE2527B0EAB9767EB5BA5E8EEF9683F964FC66301B2FDE0E6EBCC57470
311
E55DAFE66FEE17B39BD9AAF193D124F09B52D38D687809A5CDAF04B3EEFBB246FCD824E0060F44C9ED3B139ECDFBCB7A885ED81F610FEA65BB71113FA3EFA3F18F051C569E14B4CE4A4E339A2BA263E8417FF0CF047D464F1933BECE484A2F90F2F1DDE6C8188C5CB0EF938E77FAED68AF1D5DEA803C29443D56599813C68F
311
36A606C96199A716BFC627EDDB149AE657FF59C7A03395056731F260ECA4B4C8A84236BCA008898C4A50AFDBD3C7F6EE71C1EE67D3212A1272DA68F248D0247389B000B5AA48F5C79D5FD0D4E9BEEAD645B91D3EE1613385EB8033B72E9A74C5222A87210AB46E856AE1E052B79347E34FF294A3D7369BDAFF7697C6A65792
311
DB2597F44FD62E93C2AD01482325FA063444F04EAD4CE0D7BAD9F9E83F19DEA8E31085CFB052AD2D8781D698FA1884A831CADE16D0C43CD9A3F708D4D7CDF286F59A1E2217DDB25E2581913A5044A4F54D41EB67555AAC3E8DD0A138EB8F4EC9AB14BEBC5CD2405090B9D2010E16811556664914A8BAFC7DFB4914B8C966CE
311
3D03059C5FF737D7BF6D97459615B919DA2EEC7DD8D93CE2761B6F911CA8BE96C8ED64EC4DB6F575C0DE50762191744862F984017856B016E89EFBC14B7367441D3213EDBA9176C51143D72BC716B619845ABA7473AB06078D474E1DC490BE52EA88E92E285FBD118CEAA55041A0970FFE05504B0304140006080000295ADC
311
40000000000000000000000000350000006662782F32463846304131352D323646432D344536352D413242452D3434414633333332463539412F76657274696365732E62696E504B0304140006080800295ADC40F270F1330600000004000000360000006662782F32463846304131352D323646432D344536352D41324245
311
2D3434414633333332463539412F747269616E676C65732E62696E636660600000504B0304140006080000295ADC40000000000000000000000000370000006662782F32463846304131352D323646432D344536352D413242452D3434414633333332463539412F617474726962757465732E62696E504B03041400060808
311
00295ADC40D5987DFC8F00000041010000360000006662782F32463846304131352D323646432D344536352D413242452D3434414633333332463539412F6469726563746F72792E786D6C858F410EC2201045AF4266AF15DDB800BA74E7C21B903225242D6328188F2FA5C4183471359997F9FF81E89FF3C41E1816475E02
311
DF1F80A11FC8386F25A438EECEC07A250251FC3803E6F58C12560C4AD840E95E91C151A72936F496F35732D860FE635F62C8F2DA16B505C545B74125BAA2FA9E05D7CC053D063734D5C7665FD55B6B8D15D5E9BFEAFD8490FFA45E504B0304140006080800295ADC404834EF6FFC000000A00100003B0000006662782F3246
311
3846304131352D323646432D344536352D413242452D3434414633333332463539412F7265736F75726365732F636F72652E786D6C8D504B6EC32010BD8A357B6C20A96D5998A8B5E213F402084F5294182C3E558F5F485CA9DD75C330EFA3797AE2F4B5DEAB4FF4C1383B02AB295468B55B8CBD8E90E285F4509DA4F0CEC5
311
5F32A8AC5A718402831457EFD2B643DAD9883666D4BA0577508580112A7DCF9F1182FEC055D52AC5AC08B77A53FAA6AE58B33AD3592745883E07A89E47CA0BD26370C96B0CA279B252A464965D63967CD35C0C7A90C7F98DF397EE4C5ADEBE92E34C7BD21FDA899CA7339BBB693ED0E3249A6296229AF527A3F6A8222E2039
311
659CD096F0FE9DB1817503EBF33A502A9A22FF634ADBF24F5332361EF81EF7690B20590EF220A4684A5F793CCACCB3742BBF01504B010214000A0000080000295ADC403DEE336E79000000790000001B00000000000000000000000000000000006175746F6465736B2D64657369676E2D7061636B6167652E786D6C504B01
311
021400140006080800295ADC40D486FD9CA0000000F40000001300000000000000000000000000B20000005B436F6E74656E745F54797065735D2E786D6C504B01021400140006080800295ADC4020DEB25EE90000007C010000080000000000000000000000000083010000636F72652E786D6C504B010214001400060808
311
00295ADC4055019EA25F0000007C000000070000000000000000000000000092020000636E782E786D6C504B01021400140006080800295ADC402A61AAFA65010000020300000C00000000000000000000000000160300006662782F636F72652E786D6C504B01021400140006080800295ADC407B43858A7E0000009D0000
311
000B00000000000000000000000000A50400006662782F636E782E786D6C504B01021400140006080800295ADC40691889C82A0100001402000031000000000000000000000000004C0500006662782F32463846304131352D323646432D344536352D413242452D3434414633333332463539412F636F72652E786D6C504B
311
01021400140006080800295ADC403B02A7104C010000330300003000000000000000000000000000C50600006662782F32463846304131352D323646432D344536352D413242452D3434414633333332463539412F636E782E786D6C504B01021400140006080800295ADC40371FDB36A50500008110000034000000000000
311
000000000000005F0800006662782F32463846304131352D323646432D344536352D413242452D3434414633333332463539412F6F626A656374732E786D6C504B01021400140006080000295ADC400000000000000000000000003500000000000000000000000000560E00006662782F32463846304131352D323646432D
311
344536352D413242452D3434414633333332463539412F76657274696365732E62696E504B01021400140006080800295ADC40F270F13306000000040000003600000000000000000000000000A90E00006662782F32463846304131352D323646432D344536352D413242452D3434414633333332463539412F747269616E
311
676C65732E62696E504B01021400140006080000295ADC400000000000000000000000003700000000000000000000000000030F00006662782F32463846304131352D323646432D344536352D413242452D3434414633333332463539412F617474726962757465732E62696E504B01021400140006080800295ADC40D598
311
7DFC8F000000410100003600000000000000000000000000580F00006662782F32463846304131352D323646432D344536352D413242452D3434414633333332463539412F6469726563746F72792E786D6C504B01021400140006080800295ADC404834EF6FFC000000A00100003B000000000000000000000000003B1000
311
006662782F32463846304131352D323646432D344536352D413242452D3434414633333332463539412F7265736F75726365732F636F72652E786D6C504B0506000000000E000E0080040000901100000000
310
504B03040A0000080000295ADC403DEE336E79000000790000001B0000006175746F6465736B2D64657369676E2D7061636B6167652E786D6C3C3F786D6C2076657273696F6E3D22312E302220656E636F64696E673D227574662D3822203F3E3C666F726D6174733E3C666F726D61743E687474703A2F2F736368656D612E
310
6175746F6465736B2E636F6D2F64657369676E2D7061636B6167652F323030393C2F666F726D61743E3C2F666F726D6174733E504B0304140006080800295ADC40D486FD9CA0000000F4000000130000005B436F6E74656E745F54797065735D2E786D6C7D8EC10E82300C865F65E91D8A1E8C310C0EEA1BF002731658846E
310
D98AC1B77784ABF1D8FE5FBFBF75BBCE937A534CCEB38643598122B6FEE978D0B0485F9C41B54DDD7D022595594E1A469170414C76A4D9A4D207E29CF43ECE46F218070CC6BECC4078ACAA135ACF422C856C0E68EA1BF5669944DDD7BCDE7B1F8E415D77AECB980613C2E4AC91FC167A2B244592486606FC29C8FD7F045B9A
310
EF7053A7E60B504B0304140006080800295ADC40E78CF639E80000007C01000008000000636F72652E786D6C8D90D18E832010457F85CC3B0AE8B6D6204DD4FD83FD0102D425AD600436FDFC626B93DDB77D9AE172CFCCE4F2F37DBEA11FB306EB5D07B420808C535E5B377590E2053780CE82AFDEC75F36404ECEA6834D06
310
C1A7D5A765979477D1B89855E7B5D94519828980D42D371D04F56D6659C814B3235C8B45AAAB9C4C41DF5D8653B21ABD96589DE7D98B352B88AA67A43A35351E07F289EB433DE07E6423AE87BE194EFD477F64152F3758F068E7F77EB51A198D06C10865981C306BBE286DE9B1A54D7EB684F072B3FF81D2A2FF0925EB62C5
310
F6735F580041F321CF0FC1CB2D8B5C9E41E5BAE5261E504B0304140006080800295ADC4055019EA25F0000007C00000007000000636E782E786D6C4DCB3B0E80201045D1AD90E915ED2CF8AC45050C11660C8261F98AB1B07AC9C97D42D718D865D3E909258CFD00CCE24AC6E326A164D74DC0B4128928FF326038472BA131
310
28B1252AC747C6BAB984FC68F0B87FE8960A5C09FE86CFB69FBA01504B0304140006080800295ADC40244754D165010000020300000C0000006662782F636F72652E786D6C8D525B6E833010BC8AE57F30AF2634328E04E90D7A01071C6A056CE407CAF1BB3C229A2A8A2224303B3B3BB303F478EB3B340A63A556058EC308
310
23A16ADD48D516D8BB4B90637464D468EDFEB461A4782F0A3C9531A3ADD17E584BB5564E280755A51BB116B9B5C26154777028B0AD7F44CF43EE1D74D86B38F0FACA5B11C621C0D0C7A875060CA04564BA637639DF2859EA8C7A2F9B15950DA8C98B1406B3B44CA2F433CF8253157D05D92EAB82F2949C82AC2AF3EAB3FC28
310
F7494AC94466D4C9FEEEAE36823BD1609644711244BB20C9BFE3F810EF0F710EAF8728A2646A7F20F9A17993E4A57269B2DA5D6816B3188CCCC0BF6D2122872C1FC10F61944C21C2634EF8316808044276FCDCDDF7B8426914B5D32603A4D17E8346DE7901AA119A2F4A161426CF0360B3A7739217735ECF800FC8550BD6B8
310
83E3D9BB499D2EAA6B148330C1E86E4869D3F36E33B758DCEE9BD0537AAD3B6DDE61937555B28649A6BF97FD02504B0304140006080800295ADC40A96E87927D0000009D0000000B0000006662782F636E782E786D6C4DCCD10A83201886E15B91FFDC9516E6408D32BA8F581632D3703A76F9ABD1C18E3E78F87845FBD91C
310
7A9BF8B2C14B20B71290F18F305BBF4AC869C11C50AB440C21FDDD00F96933124E0625D618F27ED16C9629BB74A8B3FE7921A7947423659854DD80EB9130CC99D6B8247DC5EF4D5F3783864289E2573AF60CAB2F504B0304140006080800295ADC40A55C7A0C2901000014020000310000006662782F38323231414632362D
310
313341442D344631362D383643432D3031423338393742343744432F636F72652E786D6C8D514B6EC32014BC0A62952EB001BBC48930513ECA097A016A488A1283C5A7CAF10BB523B5BB6C7830CCCC1BBDC7778FF10EBEB50FC6D91E920A43A0EDE094B1D71EA678411D043BC1BD73F10F0D022B47DDC30243C1AFDEA56981
310
0667A3B631A3D629BD8032041D2118EEF9D2C3307CE9515632C5CC08B76A92C34D5E7545AAFC9D798287E8730030372927141DA5647FA60C91667F42ED9930D4B1E311617268BACDFAD0AE4F475ECF42C153326A911B95E3988BD1FE559322163C9AF1197FF05A46ADA0A098508419A2DD07215BB2DE922E3FB718F3BAD0FF
310
89D2A45E142563634397B8B32C4041783D7F08AE5CFABC3FC3E8C7E47C04A5DF2AE8E10D0A5C61BAA1986DDE793D53F300B2276B17CF109DCF035EDD3E33BB598C592B785D7694CBEF02732DFB143F504B0304140006080800295ADC405DA568075401000033030000300000006662782F38323231414632362D313341442D
310
344631362D383643432D3031423338393742343744432F636E782E786D6CBD93CD6EC32010845F0571F70F4EE45A1126520F7D821E7A25B04969305880ABE6EDBB2424CD25874A552FC89E1D66569F6CBEFD9A2CF984108D772365754B0938E5B57187912E695F0D946C050FDEA73B1B254E4E30D22C53C10FC12F739134EC
310
E56213AAD6B863110344BF040511E57C9358AFA4C50070D582224C3BD01A34B919F1690F015741717722E91DC8CBF31BF1BB0F5029F226A708DEE40EC1F3599AEE4C94282B631C6954EF30C95A2EC96B88C75ACB246B565FBB1EECF49344F2856BE5120CC9E523CD271565A31A39F2068782C714905E31A5D30C54C879B646
310
C984909BB3F1E2117C312EF5EBE235083EA07BD5F5C38061E799E0C94C501C2A804CA0A9E85AD6556D5F75C32B631BF6B46103BE6EDA9637D92EF8CE7B5B2E610C043F13E55D0297A860BCC9E347F88A8F681390B50FA75F804400A5F542E796F1977C58BF5AAFFF914F73FEBE1157C0BF407C03504B030414000608080029
310
5ADC40F15E8CE3640700009A1B0000340000006662782F38323231414632362D313341442D344631362D383643432D3031423338393742343744432F6F626A656374732E786D6CED59DD739B3810FF5718EEE5EEC1D8C44E9ADC103A89DD743CBDB49DFADAB907CF3032C84417211849A4F1FDF5B7FA00033109BEE6DEFA60
310
03425AEDFEF6534BF0F631A3CE03E682E4ECD2F5BD89EB6016E70961E9A55BCAEDE8DC75DE8601CF73D998E63A0C65F8D255C36E18A43C2F0B3B94E02D2AA9EC8CDE5CFFE5881833EC3A3145425CBA22BEC319F25029F3048B7B2F411279E9F6D1F33D33B14D36E5A8B8EB102D10C74C02A730CE808A6398F2DB8F13771C06
310
63F53E0CD4BF9D351D346BD63F6BACA56E7349989088C54F58EA90990E6269EACF16EF4E4E2F46A7B3D974343B3BF147D737D78B91FF663A999FCDE71757EF2E80BD4D9E532B53820BCC12D0DFCE0DFD60ACDED4A25B040E711DE78CE15803095069B1BA040916B05503BE49FBD15712355E6B091BCF33F5DEB2D0189EB6A9
310
F4CD1A06448B2E0862B7AB24AEAE4DF9F2CDDF20B81862945C6009DC0AC941BB161E0E5EE18693606C46C360B3D705114E8624E6045187920D471C940253D59430300B2C19E51C1C48394A02AD39F3BA6D5BE0992FBBCE212EB725A5CA33DC503B5604EE87A5D09C917F30DF73DF44067802694BC2E4B9E552EE0AEC8617C1
310
580F8681BA4C4FEC4B03A4B3A528151A11F3B623E85CB9FE72E1861F6E368F2B150E0E6F5EF0BCC05C2AA3537AD47C8121DBAB42C96EEB0FD29C5A00C21850EDCA3D285F00F98F103DF6AC80DE38799C3DCEEC5CC91113DB9C67A01B67E28C26F037717CFDAFEE1B77C1B85EDCD65E1F9EE0A60AAAF31FC7B32D83C6CAF2DF
310
80330C1EC0E0733EB5AF5631A260CFB7840140CA481C9AC31084F6EDE6D10D97103821D0C32A44431F4406761FE036185B327BAD54EE65BD8E01A2768FE91025016CDA22818D1E3DBD87ECC149BC575353C43E784F5FC55CAF16AB0FAB926F518C6FAD4F2FF0963022216B1E66A885794BA27BBCFB9EF304047D8AF7AA8977
310
66B71280B6C25C019F5620A887FDCEAD0D625897E62ADC042FEC0042A85CDDA07F4B448C29450CE765B56F1DDD94A1D61E6F6B06373C31104F4F3A26CCF10351550538CD7E468B51C8FB31278502D10DDF1BC9EAA0E9F548F775F9112CB29EDF336BC920F43244FFD441EB000E2DCBAE90B640D4026FF6E13CCE69CEA3CD2E
310
3291CE855A02D8687BCBB7165188F546498A0A7890F6BB2AA4A446DA2821DB6D2920AE1E60F1DB72DE34878937F54F9DE67FC71967106DC17711B77ED7D92322194A71B44549DF76CDDD6ADA4293EC21CDF196825CE481C85D84643449707A0C344711BF7855EA29CD85200C0BC85707C16FA231F12090186D562C2BAD7680
310
2622CAB044F4180414991E7075DAD1356E0CA5C3CB3CD6D6FB9CC69A44FF278BE0086AC99C45044A51C8212F32EE7BA71043DAE81A943BF882B555B4B518B4841222DE45DF3149EFE431A81BF23DB8C77024296594172806B31E40F689AF28A57678DFA0F85EE58F282EE96B1988C0741B114ACB2C821F6170F218E2DA7560
310
7A1685067113FB24CEA02843B2E44336393B9D3CD9C7D40CDD10D8D8684B2884ED2843450FEAAD80A8EB11A706DF52EF51EAA6CC8A086579C906198A37ED7A9325DF55AB223B905F552A42D95811B604C380305967D52A6683A9EBC00A6EA403D52E12282BA83985BD9078FCDA9B34E5DE0DB8F5D3D7DD2083C2AF477BCD88
310
3AAB60B03CB60A03F11DC9F8CE0D57FA3ABA86FA3BC1C93ED557B566B30204C454242F39B12AFABA84F2C6D6686E788BA458BF3759B7BA7E5D7AD0FD08C6B0066A977AE152019D612691AA4C6ED50DFD822004B76898F1A5CAA9C750B94A125D35227A43FAD4D92A235A9B66C42BEE30CB33F8B13561312D13BC4689B88F6E
310
258D5644B16EA5F4325261FCAC809FDEAF3AF0C0C800913EAB020F7FEFACB5A373552E1D2422EFCA6CC3108120D8122D35BAF10A965A8D545AAEAFEA4C017517189855F1ECE7C9A2D98EF879B248AD61FCD0C9E27AF707DA35FB228D741E2BBB3EEA1850E72745E5358E01BAED5053ADB38849E6567EEB4C1104C52ACA0FAE
310
C6AAA06108F671FC9FB3765F1634DB75F83F2E6BFB4F2A8EA3B24A6BB2EA521DA85C97CD1C7671BA389B4FAEE7A38B93C99BD16C72F56E74EE5F4D47A7FED9E2E2CDCDD5EC7CB6A8D1D48E1A067530D3B90B9E4D50AB86D593C500BAB222A72481D37CE2A41862BE8433FD80F639CFB080E4D96C7627B6293F60F583E9734A
310
B4A1B8E2E40E4183980A48EB805119CBF6B8F30BB426251CB42F5D681A79F7F067ADD27520F35CBAD02A9024C6C2DB409B4935F4347148B93AF75B62800F62A94A896651FD5CAF52D8B4C27F3D65481AB072B57A1850B815D0FD6A7528346F96A7F828C12B761C24E176534AA8D68C2CFB815A18BDCD5EFD46364AD8BDDDFA
310
115CF779B17C4FCF692132E893C1B34660A88E24E2A9EE772BC62C4B578BCF63E8B339CB4F4E41CB1474399CD2886330E6521554604560159666812498EAFCF7F5679EC3279ECCD15591F3EBE3F9D96FEB799E65393343EB2B389525F0A1C859DDC1679F640DC50356CD75B13E99F8276BDDD4B67DF6688304F65455040355
310
31A104E9981CD8E59306956D5F8E952A3AD3970BC706516806183B7AD2E3351FB91CF021F53945798CF6F34ADA67FBDA633D156C8243473AFC17504B0304140006080000295ADC40000000000000000000000000350000006662782F38323231414632362D313341442D344631362D383643432D3031423338393742343744
310
432F76657274696365732E62696E504B0304140006080800295ADC40F270F1330600000004000000360000006662782F38323231414632362D313341442D344631362D383643432D3031423338393742343744432F747269616E676C65732E62696E636660600000504B0304140006080000295ADC40000000000000000000
310
000000370000006662782F38323231414632362D313341442D344631362D383643432D3031423338393742343744432F617474726962757465732E62696E504B0304140006080800295ADC40D5987DFC8F00000041010000360000006662782F38323231414632362D313341442D344631362D383643432D30314233383937
310
42343744432F6469726563746F72792E786D6C858F410EC2201045AF4266AF15DDB800BA74E7C21B903225242D6328188F2FA5C4183471359997F9FF81E89FF3C41E1816475E02DF1F80A11FC8386F25A438EECEC07A250251FC3803E6F58C12560C4AD840E95E91C151A72936F496F35732D860FE635F62C8F2DA16B505C5
310
45B74125BAA2FA9E05D7CC053D063734D5C7665FD55B6B8D15D5E9BFEAFD8490FFA45E504B0304140006080800295ADC4038E23C81FB000000A00100003B0000006662782F38323231414632362D313341442D344631362D383643432D3031423338393742343744432F7265736F75726365732F636F72652E786D6C8D504B
310
6EC32010BD8A357B6CC069E2589848767A835E00E149821283C5A7EAF10B892BB5BB6E18E67D344F4F9CBE9647F5893E1867076035850AAD76B3B1D70152BC900EAA9314DEB9F84B0695550B0E506090E2EA5D5A37483B1BD1C68C5A37E306AA103042A51FF93340D0375C54AD52CC8A70AF57A5EFEA8A35AB339D755284E8
310
7380EA75A4BC203D0697BCC6209A172B454A66DE3466CE37CDC5A007D98E9CB6C7AE25E789BE93DD7E3791F1CCCF64378DDD741CDFC6036F4553CC5244B3FC64D41E55C41924A78C13BA27BCFB60AC67879E7579ED29154D91FF31A575FEA729191B5BBEC57DD9024896833C09299AD2571ECF32F32CDDCA6F504B01021400
310
0A0000080000295ADC403DEE336E79000000790000001B00000000000000000000000000000000006175746F6465736B2D64657369676E2D7061636B6167652E786D6C504B01021400140006080800295ADC40D486FD9CA0000000F40000001300000000000000000000000000B20000005B436F6E74656E745F5479706573
310
5D2E786D6C504B01021400140006080800295ADC40E78CF639E80000007C010000080000000000000000000000000083010000636F72652E786D6C504B01021400140006080800295ADC4055019EA25F0000007C000000070000000000000000000000000091020000636E782E786D6C504B01021400140006080800295ADC
310
40244754D165010000020300000C00000000000000000000000000150300006662782F636F72652E786D6C504B01021400140006080800295ADC40A96E87927D0000009D0000000B00000000000000000000000000A40400006662782F636E782E786D6C504B01021400140006080800295ADC40A55C7A0C29010000140200
310
0031000000000000000000000000004A0500006662782F38323231414632362D313341442D344631362D383643432D3031423338393742343744432F636F72652E786D6C504B01021400140006080800295ADC405DA5680754010000330300003000000000000000000000000000C20600006662782F38323231414632362D
310
313341442D344631362D383643432D3031423338393742343744432F636E782E786D6C504B01021400140006080800295ADC40F15E8CE3640700009A1B00003400000000000000000000000000640800006662782F38323231414632362D313341442D344631362D383643432D3031423338393742343744432F6F626A6563
310
74732E786D6C504B01021400140006080000295ADC4000000000000000000000000035000000000000000000000000001A1000006662782F38323231414632362D313341442D344631362D383643432D3031423338393742343744432F76657274696365732E62696E504B01021400140006080800295ADC40F270F1330600
310
00000400000036000000000000000000000000006D1000006662782F38323231414632362D313341442D344631362D383643432D3031423338393742343744432F747269616E676C65732E62696E504B01021400140006080000295ADC400000000000000000000000003700000000000000000000000000C7100000666278
310
2F38323231414632362D313341442D344631362D383643432D3031423338393742343744432F617474726962757465732E62696E504B01021400140006080800295ADC40D5987DFC8F0000004101000036000000000000000000000000001C1100006662782F38323231414632362D313341442D344631362D383643432D30
310
31423338393742343744432F6469726563746F72792E786D6C504B01021400140006080800295ADC4038E23C81FB000000A00100003B00000000000000000000000000FF1100006662782F38323231414632362D313341442D344631362D383643432D3031423338393742343744432F7265736F75726365732F636F72652E
310
786D6C504B0506000000000E000E0080040000531300000000
  0
XRECORD
  5
17
102
{ACAD_REACTORS
330
12
102
}
330
12
100
AcDbXrecord
280
     1
270
     1
271
     1
  0
XRECORD
  5
16
102
{ACAD_REACTORS
330
12
102
}
330
12
100
AcDbXrecord
280
     1
270
     1
271
     1
  0
XRECORD
  5
18
102
{ACAD_REACTORS
330
12
102
}
330
12
100
AcDbXrecord
280
     1
270
     1
271
     1
  0
XRECORD
  5
15
102
{ACAD_REACTORS
330
12
102
}
330
12
100
AcDbXrecord
280
     1
270
     1
271
     1
  0
XRECORD
  5
24
102
{ACAD_REACTORS
330
22
102
}
330
22
100
AcDbXrecord
280
     1
270
     1
271
     1
  0
XRECORD
  5
23
102
{ACAD_REACTORS
330
22
102
}
330
22
100
AcDbXrecord
280
     1
270
     1
271
     1
  0
XRECORD
  5
BA
102
{ACAD_REACTORS
330
22
102
}
330
22
100
AcDbXrecord
280
     1
 70
     1
 90
1959938040
 71
     1
  1
3F226B89-5532-4DE1-A3C9-56E47D926CBC
311
504B03040A0000080000285ADC403DEE336E79000000790000001B0000006175746F6465736B2D64657369676E2D7061636B6167652E786D6C3C3F786D6C2076657273696F6E3D22312E302220656E636F64696E673D227574662D3822203F3E3C666F726D6174733E3C666F726D61743E687474703A2F2F736368656D612E
311
6175746F6465736B2E636F6D2F64657369676E2D7061636B6167652F323030393C2F666F726D61743E3C2F666F726D6174733E504B0304140006080800285ADC40D486FD9CA0000000F4000000130000005B436F6E74656E745F54797065735D2E786D6C7D8EC10E82300C865F65E91D8A1E8C310C0EEA1BF002731658846E
311
D98AC1B77784ABF1D8FE5FBFBF75BBCE937A534CCEB38643598122B6FEE978D0B0485F9C41B54DDD7D022595594E1A469170414C76A4D9A4D207E29CF43ECE46F218070CC6BECC4078ACAA135ACF422C856C0E68EA1BF5669944DDD7BCDE7B1F8E415D77AECB980613C2E4AC91FC167A2B244592486606FC29C8FD7F045B9A
311
EF7053A7E60B504B0304140006080800285ADC400F2066B6EA0000007C01000008000000636F72652E786D6C8D905D6EC3201084AF82F61D1B1CC73F11268AE3E604BD0002E2A0C46019A87AFCE2C491DAB74A48BB0CF3B1AB61C7EFE981BEF4E28DB31DD08C00D2563A65ECD8410C57DC003A72B638177ED9005931E90E56
311
19381B1717E74D92CE066D4352AD537A1385F73A00928FD474E0E54D4F2213312487BF67B3907731EA8CBEBB04C768147A0D312AFD67AE462FC0CB0BDD5F08AD715F0D675C0EFD80DB5DDFE2535915ED477D6EF6A79EE52BCC5930D37BBE5CB4085A012F082D30A970D17C527AA0753AE97A2084E5ABFD0F1467F54F281A1B
311
76C5B6EE0BF3C0695AE4F9C059BE6691CA33A854D7DCF80F504B0304140006080800285ADC4055019EA25F0000007C00000007000000636E782E786D6C4DCB3B0E80201045D1AD90E915ED2CF8AC45050C11660C8261F98AB1B07AC9C97D42D718D865D3E909258CFD00CCE24AC6E326A164D74DC0B4128928FF326038472B
311
A13128B1252AC747C6BAB984FC68F0B87FE8960A5C09FE86CFB69FBA01504B0304140006080800285ADC40268300BD65010000020300000C0000006662782F636F72652E786D6C8D52ED8E8320107C15C27F44ACFD0CD2D4F6FA04F70254A967AA60104C1FFFD68FC6EBA5691A0CC2CEEECEEC28DFDFEB0A75CAB6A5D10966
311
418891D299C94B5D24D8BB2BD960B417DC1AE3FEA461A465AD12DC87B1E08535BE994299D14E6907516D72350565DB2A875156C121C16DF6A36A1948EF20A3BD058DCC6EB250010B00863CC15B6741001A49FA1D8BEBE5CEE91817DCFB329FD03207B6F25A2A8B457C66CB73C8D6245D9D8E243EA527B25DA45B728857D1F6
311
6B7DDC2C0F29A77DB1E0AEAC1FEA32ABA453391651C82212AE48B4F9666CC7D6F0C07517869CF6E94F45BEC93F2CF2A5768B68923B96B55830103200FFA6058B1C6A65077AA8E0B437115E83C3CF46832160B29397EA31C70D429DCA9CB13120B9F133D4C9CA2B600DD1B0381D51E83C3480C95EF689DEF479DF033EA0D405
311
48930E8E17EF7A763EB24E5634CA92CEDD9136B696D52C6E9438EF33D1CBF2CC54C67E524DA751E96426EDFF5EF10B504B0304140006080800285ADC40431CEA5F7E0000009D0000000B0000006662782F636E782E786D6C4DCCD10A83201886E15B91FFDCA551CB811AD6EC3E6259C84C87E9D8E5AF46073BFAE0E1E3E5ED
311
6775E86DE2668317402F0490F18F3059BF08C869C60C502B790C21FDDD00F97135020E06C99718F2EBA4C9CC6376695767FDF3C4F25E13DD288A49CD3A5CE94E6136D012AB5BAF1ACDAE3D5103149217BFD2BE47587E01504B0304140006080800285ADC4033FDD9D42A01000014020000310000006662782F324435304537
311
41312D303538422D344542412D384631322D4139434137453836433041462F636F72652E786D6C8D515B6EC32010BC0AE22BFDB00D8E5F8D3091932627E8051C4C5C94182C1E558EDFA576A4F62F1262D1ECCCEC8865FBC77447DFD23A65748B694A30925A9841E9B1C5C15F9306A33D67D618FF878691EE27D9E20863CE46
311
6BC2BC42C2682FB507549B41AE60EF9CF418893B3C5AECC4979CFAB40F1E18EE96CEBDB8F5A34C690A6DE071E6BC85006819126FCCF38F929CEA8E26A46C0E49713A744973A679D2BD1FBBFAD45447D29D59B608390B410DAB5C0D10475D95B4AF9A4431675E4DCFF8C2CADECB01F40426922AC99B4F4A77B48693906A4708
311
CB22FD9F28CCC38BA2A0B4DFE66BDC45E630A72C5B1A9C0D265CEECF30F2311BEB519CB77152BC614E5288556CCBB266D942850F00CFAA583D9D37163E7873BB009B968B71557096C51D41F95D20D4B84FFE03504B0304140006080800285ADC40F7CB88A54C01000033030000300000006662782F32443530453741312D30
311
3538422D344542412D384631322D4139434137453836433041462F636E782E786D6CD593CB6EC23010457FC5F23E0F534411728CD445BFA08B6E1D7B008363477E54E5EF3B0643D9B0E8B25264C577EEDC191D257CFB3D59F205211AEF06CADA9E1270CA6BE3F603CD69D7AC29D90A1EBC4F0F364A9C9C60A045A682EF83CF
311
739534EC64B609556BDCA98A01A2CF414144B97412EB95B41800AEC928C23482D6A0C9DD886F3B08B80A8AE399A40390F7B74FE2C723A81479575204EFCA0CC1CB59273D98285156C638D0A80E30C956E6E435C453AB65922D6B6FB39EECF49B444AC36D640E8694E1032D271575A31639F20E8B82C714905E35A5F30C54C8
311
79B646C98490BB8BF1EA113C1B9756CBEA35083EA09BAD5E964B0CBBD4044F6682EA500164024DC5A2678BA65F358BF507631BF68A0F5E377DCFBB62177CF4DED6268C81E067A2BC4BE012158C77A5FC0C5FF5116D02B2F6E1FC079008A04EBDD2B967FC673EDDE5FB465C01FF02F103504B0304140006080800285ADC4018
311
E384C6A205000080100000340000006662782F32443530453741312D303538422D344542412D384631322D4139434137453836433041462F6F626A656374732E786D6CAD57DB6EDB3810FD1541FBB2FBE08B6C274D168A8AC46E0AA3485BD468B10F060C4AA2146E285120A9D4D9AFDF4389BAB976EA5DF4C5B2A8E170E6CC
311
990BFDB7FB8C3BCF542A26F21BD71B4F5D87E69188599EDEB8A54E4657AEF336F0A510BA27E63A39C9E88D6B96DDC04FA5280BBB14D384945C1FACDEDFFDE5A888E6D475224E94BA7155F448333226A51631554FE39868324E93FDD81BD78243B5A924C5E381D282489A6B588AF51C5A9CDA286FF83A7527813F31DF03DFFC
311
5AA9F969A949E5CFF07C962B4DF2E887C30ED4CCBDC5EADDECE27A74B158CC478BCB9937BABBBF5B8DBC37F3E9F272B9BCBE7D778D839596D0642D91347183F7C046B2C89FD49F02BF64B99ECFAC880DD044D2676622E50633C7F327B54CEB9D75F298F991C8731A5558018DCA3FAB3AA605CD63C49C5105CB7A084D87AF9E
311
C1B1F7796EDEED91FDE5F310E8EFE8296A6C6F9E7D4B45F8375C50E730482A6A185863691DADB93AED100E85E0F61B534E4634958C7087B35012F9E206103522813F5063982C4D36180FDC0051A83F0FE98234FA39CF8F5999949C1B1ABB4195053BE40AD5AAB28CFD4365677D1F19D8845819365C5987F44B41DDE0BAA6C8
311
D5019B6A209D84931421879B66E77C76E0E8D2E4E97AE5061FEEC3FDC6E4EEF1C30B290A2AB5A10FA8D504AE791A94AC4DDE5991331BDC03533A50BE00F98F48F5CE14C44DB2FD62BFB0A76849729508992136CED4194DF13375BCEAD7FCEFFDF327EDE661F44EE189601BA87E019E431FFAB1ECC119F8CF20BC9073EBDA26
311
221C65E381E500C890C4E1024BA8C349B8778335AA1CAA3276111E787019E63EE3AF3FB16A5028AA937ACF1C581E94C5330A3460AB1809336AF25B03BB38FD50CEAA83ADD829782F7E095D6F579B0F9B522624A20F36A757346139D368711D6FFA060D301F78F4445FBE0B19C3D11FF1DEF4F1CEEC510A681BCC0DF06953D3
311
CD4B77F2E08008FB5261CA8DFF9313E08469AC3DFD0F4C45947392535136E7BEDA3FD0366A884DB21B26B70DA66B2C204DFDE52007D1A423C90A0362DBADDAA2393EE1DDD7F5473012F25C8484774261577A23C185DC852FBBBA2A1D45FADB90DA168289D102B65739D2A4BFC57C17B32429156AE01158BFAD97FDD099AA80
311
0AD168AD936501F7915B445ACE367AD1AC25412315F98EA16D22ED8E1ED0D70F442D012A85A72C5694273BC67999ED12C6D18C7619294EC0F1FFED0FCBACD8914C94B93EA17B603A9AC3D0F60179D577A2A34737D854CFD11D4A6F4CE32ECC0361D34A8E603508EDFC7E36BBBCBBC2F874319F8D304A79A3DBF912AF97EF16
311
6F56D7B3CBE51D5CB716553354E0379DA69FD088123A9B5F4A66C3F7758DF4B135C00D1E8856DBF7757636CFAFEB3146617F823D6897EDC6DBF819631F8D7FAEA0933CAA689D159C6634D7C4A4D083F9C3BF108C190363EAF57546527A86964FEF3707CE60E58C7D9F4DBAD3EF077BEDEAD224E45125FAB1CCC29C307EB031
311
AD911C17796AF16B62D23EEB3ED3BC9A371B180CA64A7016A30CC64E4A4546358AE1193D486654817AFD913EB6578F33763FD703A22621A78D258F04333257480BF0B68CF470DDF90D339D19AB6E5C74DBF1137E6CA5701D70E6C6C58CAE5944D538447F369350A51C5CEA0FF2E02CC9538E51BBDED4BEB7BB0C36838EDC8A
311
9C333E59BFEA0A6E1D4019293036601E42742A6302BFB2CD7E8FFE93E38D390ED1F81B96BAF5A55B689DA98E418AD64ED9CB026698277BF41E89FABA5BDEB892192072D625EB5512D45A479AC8B4BA2818FBAC49B7ABCF130C28CEFA9353F032452CCFD7349214642E4D8283456085D559100DAA2EFFDC7E960217D9CCB967
311
A080F3FBFEEAF28FED526499C8EBA5EDADBD0E3B9B475C6EE32D8A0335B712B59D4DBDD9B6BA0DD80BCA2E248A8E49AC9EB080C84AD6023D083F78595F19D187EA0FADDCC484E280A1EB95631BDB024A2D5DFAB5D58083B923A70E72C8DC284DC6F4058A572F04934A1426488CF2C1BF504B0304140006080000285ADC4000
311
0000000000000000000000350000006662782F32443530453741312D303538422D344542412D384631322D4139434137453836433041462F76657274696365732E62696E504B0304140006080800285ADC40F270F1330600000004000000360000006662782F32443530453741312D303538422D344542412D384631322D41
311
39434137453836433041462F747269616E676C65732E62696E636660600000504B0304140006080000285ADC40000000000000000000000000370000006662782F32443530453741312D303538422D344542412D384631322D4139434137453836433041462F617474726962757465732E62696E504B030414000608080028
311
5ADC40D5987DFC8F00000041010000360000006662782F32443530453741312D303538422D344542412D384631322D4139434137453836433041462F6469726563746F72792E786D6C858F410EC2201045AF4266AF15DDB800BA74E7C21B903225242D6328188F2FA5C4183471359997F9FF81E89FF3C41E1816475E02DF1F
311
80A11FC8386F25A438EECEC07A250251FC3803E6F58C12560C4AD840E95E91C151A72936F496F35732D860FE635F62C8F2DA16B505C545B74125BAA2FA9E05D7CC053D063734D5C7665FD55B6B8D15D5E9BFEAFD8490FFA45E504B0304140006080800285ADC401C8B482EFC000000A00100003B0000006662782F32443530
311
453741312D303538422D344542412D384631322D4139434137453836433041462F7265736F75726365732F636F72652E786D6C8D50ED6E8320147D1573FFA360ADB50DD2D4BA3EC15E80E0AD23AD60F858F6F8C3EA92EDDF12C285F3917B72F8F96B7A669FE8BCB6A6059653C8D0283B6833B610C39D34909D0577D6865F32
311
C88C9CB0850506C14767E3BC41CA9A802624D4D80137507A8F0132F54C8F16BCFAC049E63286A4F08F7C96EA2147CC599EE8A413DC07970264EB92E506E1D0DBE8147A5EACACE031EA61D3E821EDD4778D0E447563FB1B6535E9EAFE4AAABEEBC971D71DC9A5AACBE3DBE1DAEC2F1D2F16B3E0414F3F199543197000515256
311
125A93B27967ECC40EE9A4EF89525E2CF23FA6380FFF34456DC2AEDCE2AE360F82A5202F42F062E92B8D5799692EDD8A6F504B010214000A0000080000285ADC403DEE336E79000000790000001B00000000000000000000000000000000006175746F6465736B2D64657369676E2D7061636B6167652E786D6C504B010214
311
00140006080800285ADC40D486FD9CA0000000F40000001300000000000000000000000000B20000005B436F6E74656E745F54797065735D2E786D6C504B01021400140006080800285ADC400F2066B6EA0000007C010000080000000000000000000000000083010000636F72652E786D6C504B0102140014000608080028
311
5ADC4055019EA25F0000007C000000070000000000000000000000000093020000636E782E786D6C504B01021400140006080800285ADC40268300BD65010000020300000C00000000000000000000000000170300006662782F636F72652E786D6C504B01021400140006080800285ADC40431CEA5F7E0000009D0000000B
311
00000000000000000000000000A60400006662782F636E782E786D6C504B01021400140006080800285ADC4033FDD9D42A0100001402000031000000000000000000000000004D0500006662782F32443530453741312D303538422D344542412D384631322D4139434137453836433041462F636F72652E786D6C504B0102
311
1400140006080800285ADC40F7CB88A54C010000330300003000000000000000000000000000C60600006662782F32443530453741312D303538422D344542412D384631322D4139434137453836433041462F636E782E786D6C504B01021400140006080800285ADC4018E384C6A205000080100000340000000000000000
311
0000000000600800006662782F32443530453741312D303538422D344542412D384631322D4139434137453836433041462F6F626A656374732E786D6C504B01021400140006080000285ADC400000000000000000000000003500000000000000000000000000540E00006662782F32443530453741312D303538422D3445
311
42412D384631322D4139434137453836433041462F76657274696365732E62696E504B01021400140006080800285ADC40F270F13306000000040000003600000000000000000000000000A70E00006662782F32443530453741312D303538422D344542412D384631322D4139434137453836433041462F747269616E676C
311
65732E62696E504B01021400140006080000285ADC400000000000000000000000003700000000000000000000000000010F00006662782F32443530453741312D303538422D344542412D384631322D4139434137453836433041462F617474726962757465732E62696E504B01021400140006080800285ADC40D5987DFC
311
8F000000410100003600000000000000000000000000560F00006662782F32443530453741312D303538422D344542412D384631322D4139434137453836433041462F6469726563746F72792E786D6C504B01021400140006080800285ADC401C8B482EFC000000A00100003B000000000000000000000000003910000066
311
62782F32443530453741312D303538422D344542412D384631322D4139434137453836433041462F7265736F75726365732F636F72652E786D6C504B0506000000000E000E00800400008E1100000000
310
504B03040A0000080000285ADC403DEE336E79000000790000001B0000006175746F6465736B2D64657369676E2D7061636B6167652E786D6C3C3F786D6C2076657273696F6E3D22312E302220656E636F64696E673D227574662D3822203F3E3C666F726D6174733E3C666F726D61743E687474703A2F2F736368656D612E
310
6175746F6465736B2E636F6D2F64657369676E2D7061636B6167652F323030393C2F666F726D61743E3C2F666F726D6174733E504B0304140006080800285ADC40D486FD9CA0000000F4000000130000005B436F6E74656E745F54797065735D2E786D6C7D8EC10E82300C865F65E91D8A1E8C310C0EEA1BF002731658846E
310
D98AC1B77784ABF1D8FE5FBFBF75BBCE937A534CCEB38643598122B6FEE978D0B0485F9C41B54DDD7D022595594E1A469170414C76A4D9A4D207E29CF43ECE46F218070CC6BECC4078ACAA135ACF422C856C0E68EA1BF5669944DDD7BCDE7B1F8E415D77AECB980613C2E4AC91FC167A2B244592486606FC29C8FD7F045B9A
310
EF7053A7E60B504B0304140006080800285ADC408B850359E90000007C01000008000000636F72652E786D6C8D905D6EC3201084AF82F61D1B6812BB1126B212E704BD00828D8B128365A0EAF18BF323B56F95907619E66357230FDFD38D7CE1125DF01DF08A01416F82757EEC20A70B6D811C945C4248BF6C40BC9EB08355
310
0625C725E4F92999E013FA54541F2C3E451D232620E6569A0EA2F9C449573AA7E288D76AD6E6AA47ACF8AB2B70CECE92C71067CB7FEEE27001751643736CF996F66C3BD04DD3F7B43DEF06CA8FA7F761101BDEB42759AFB092C94DAFF966419DD082128C0BCA7654B41F9CEF79534EB9EE1993F56AFF03E5D9FE13CACEA737
310
F15CF7814550BC2C727F50B25EB328E51E54A96B6EEA07504B0304140006080800285ADC4055019EA25F0000007C00000007000000636E782E786D6C4DCB3B0E80201045D1AD90E915ED2CF8AC45050C11660C8261F98AB1B07AC9C97D42D718D865D3E909258CFD00CCE24AC6E326A164D74DC0B4128928FF326038472BA1
310
3128B1252AC747C6BAB984FC68F0B87FE8960A5C09FE86CFB69FBA01504B0304140006080800285ADC407706191065010000020300000C0000006662782F636F72652E786D6C8D52ED8E8230107C95A6FF4B29A7C2995263149FE05EA042E588D0927E101FFF960FE37931E65252DA9DDD9DD901BEBB752D1A94758DD13966
310
518C91D2A5A91A5DE738F80BC930DA096E8DF1BFD230D2B253391EC358F0DA9AD02FA1D268AFB487A836955A82D239E5312A5B38E4D895DFAA93910C1E32DC35EA657995B58A580430E409EEBC0501682619772C2EE71BA7735CF0109A6A419B0AD89A4BA32C16A7A4480F195B937DBC2EC82ADDEF4976DA14841D8E9F4591
310
AC589A1D391D8B05F74D7757575A25BDAAB048629690784392EC8BB12D4BE181EB368E391DD39F8A425FFDB32834DA7F248BDCB9CC61C140C804FC99162CF2C8C901F450C1E96822BC26879F8D0643C0642FCFED7D8E2B8406557A63578054263CA041B641016B8CA6C5E98C42E7A9014CF6B24FF2A6CFFB1EF001A5AE419A
310
F4703C073FB2F39975B1A257960CFE86B4B19D6C1FE266898FFD41F4B2BC34ADB1FFA9A6CBA87431938E7FAFF801504B0304140006080800285ADC405996E7D17E0000009D0000000B0000006662782F636E782E786D6C4DCCD10A83201886E15B91FFDC72A9CC811A2DB7FB886521331DA66397BF1A1DECE883878F57B69F
310
C5A3B74DAB8B41C1A922806C78C4D1855941C91316805A2D538CF9EF06280C8B55B0336839A7585E078D761A8ACF9B7A179E078A5B7F699821B8EFAE1D6686522C88683067FCCC0C2794F03BD45AD6BFD2B67B587F01504B0304140006080800285ADC40A2D9D8622A01000014020000310000006662782F38454339323444
310
302D434142412D344433332D383038322D3534353734443530333035462F636F72652E786D6C8D515B6EC32010BC0AE22BFDC0063F5227C24469D29EA0172086A42831583CAA1CBF4BED48ED5F24C4C2ECCCEE6897EFEEE30D7D6B1F8CB33D6605C548DBC129632F3D4EF14C3A8C76827BE7E21F1A46568EBAC719C6825FBC
310
4BD3020DCE466D23A0D629BD8032041D311A6EF0E87118BEF4280B992230C2B598E47095175DB002D2C0133C440F06D0DC24DF5874EF874DD51C2939ECDFF6A439D635E9685791B6695F9B634B6BDA7EF072160A9E92518BDC28B063CE46FB678B64B1E0D18C0FFB83D7326A8545455945E89A54DD27635BF60A07BE5B4A79
310
99E9FF4469524F8A92B1B1AE16BBB32C60C178392704572E9D6E0F33FA3E391F51EEB70A7A78C1821694D574C3DA8E973315060035D7CD523344E761C0ABEB09D8F55278DD085EE61D41F85D20C4BC4FF103504B0304140006080800285ADC40916C47B25301000033030000300000006662782F38454339323444302D4341
310
42412D344433332D383038322D3534353734443530333035462F636E782E786D6CBD93CB6AC33010457F4568EF67821B82AC4017FD822EBA95A549AA46968C1EA5F9FB8E1225CD268B42291861DDB9736738D86CF7351BF2093E686747DAD52D2560A553DA1E469AE2BEDA50B2E3CC3B17EF6C945831C348B34C393B789796
310
2229D88B6422AA46DB63113D0497BC848072EE24C6496130006C9550847902A540919B11DFF6E0711514A71389EF405E9EDF889B3E40C6C09A9CC25993677096CF32E9CE44893422849106F90EB3A8458A4E4138D64A445177F575D6839D7E92486EB88E4C5E933C7CA4F9A4BC6C542347D66091B3103DD22BA6785A8072B1
310
2C464B11117273365E3C9C256DE3B02E5E8DE03DBA57FDB0D960D8B9C659D4331487F4202228CAFBB6EBAB76A8FACD6BD76DBB277CF0BA6D5BD6643B679373A634610C78B710E96C041B29EF5893CB8FF0151F51DA236BE74FBF008900CAD40B9D5BC65FF2E986D57AFD8F7C9AF3F78DB83CFE05FC1B504B03041400060808
310
00285ADC407A714E7E60070000991B0000340000006662782F38454339323444302D434142412D344433332D383038322D3534353734443530333035462F6F626A656374732E786D6CED59DD739B3810FF5718EEE5EEC1D8D84E9ADC106E12A7E9783A693BF5B5730F9E616490892E423092489CFBEB6FF5010662127CCDBD
310
F5C10684B4DAFDEDA796E08F5D469D07CC05C9D985EB7B13D7C12CCE13C2D20BB794DBD199EBFC11063CCF65639AEB3094E10B570DBB6190F2BC2CEC5082B7A8A4B2337A73F5972362CCB0EBC4140971E18AF80E67C843A5CC132CEEBD0449E4A5DB9DE77B66629B6CCA5171D7215A208E99044E619C0115C730E5B71F27EE
310
380CC6EA7D18A87F3B6B3668D6BC7FD6584BDDE6923021118B9FB1D421331BC4D2CC9F5FBF9F9E9C8F4EE6F3D9687E3AF547573757D723FFDD6CB2385D2CCE2FDF9F037B9B3CA756A604179825A0BF2737F483B17A538B6E1138C4759C3386630D2440A5C5EA122458C0560DF826ED475F49D478AD256C3CCFD57BCB426378
310
D6A6D2376B18102DBA2088DDAE92B8BA36E5CB377F83E0628851728125702B2407ED5A783878851B4E82B1190D83CD5E17443819929813441D4A361C71500A4C5553C2C02CB06494737020E52809B4E6CCEBB66D8167BEEE3A87B8DC96942ACF7043ED5811B81F96427346FEC17CCF7D1319E009A42D099367964BF9546037
310
3C0FC67A300CD46536B52F0D90CE96A2546844CCDB8EA00BE5FACB6B37FC78B3D9AD543838BC79C1F30273A98C4EE951F305866CAF0A25BBAD3F48736A01086340B52BF7A07C05E43F41F4D8B3027AE36437DFCDED5CC91113DB9C67A01B67E28C26F037717CFDAFEE1B77C1B85EDCD65E1F9EE0A60AAAB31FC7B32D83C6CA
310
F2DF80330C1EC0E0733EB3AF5631A260CFB7840140CA481C9AC31084F6ED66E7864B089C10E86115A2A10F2203BB0F701B8C2D99BD562AF7B25EC70051BBC76C889200366D91C0468F9E3E40F6E024DEABA929621FBC276F62AE97D7AB8FAB926F518C6FAD4F5FE32D614442D63CCC500BF39644F7F8E931E70908FA1CEF55
310
13EFCC6E25006D85B9023EAD40500FFB9D5B1BC4B02ECD55B8095ED9018450B9BA41FF968818538A18CECB6ADF3ABA2943AD3DDED60C6E383510CFA61D13E6F881A8AA029C663FA3C528E4FD98934281E8861F8C6475D0F47AA4FBB6FC041659CFEF99B564107A19A27FEAA0750087966557485B206A8137FB701EE734E7D1
310
E6293291CE855A02D8687BCBF7165188F546498A0A7890F6BB2AA4A446DA2821DB6D2920AE1E60F1FB72D134878937F34F9CE67FC719E7106DC17711B77ED7D92322194A71B44549DF76CDDD6ADA4293EC21CDF196825CE481C8A708C96892E0F418688E227EFEA6D4539A0B41181690AF0E82DF4463E2412031DAAC58565A
310
ED004D44946189E8310828323DE0EAB4A36BDC184A87D779ACADF7258D3589FE4F16C111D492398B0894A290435E65DCF74E2086B4D1352877F0056BAB686B3168092544FC143D6292DEC9635037E47B708FE14852CA282F500C663D80EC335F514AEDF0BE41F1BDCA1F515CD2B7321081E93622949659043FC2E0E431C4B5
310
EBC0F4220A0DE226F6499C41518664C9876C727A3279B68FA919BA21B0B1D1965008DB51868A1ED45B0151D7234E0DBEA5DEA3D44D991511CAF2920D32146FD6F5264BBEAB56457620BFAA5484B2B1226C09860161B2CEAA55CC0653D78115DC4807AAA748A0ACA0E614F64AE2F16B6FD2947B37E0D64FDF76830C0ABF1EED
310
3523EABC82C1F2D82A0CC42392F19D1BAEF4757405F57782937DAAAF6ACD66050888A9485E726255F46D09E58DADD1DCF01649B1FE60B26E75FDB6F4A0FB118C610DD42EF5C2A5023AC34C225599DCAA1BFA1541086ED130E34B95538FA1729924BA6A44F486F4A9B35546B436CD8857DC619667F0636BC2625A26788D1271
310
1FDD4A1AAD8862DD4AE965A4C2F845013F7F5875E0819101227D51051E7EECACB5A30B552E1D2422EFCA6CC3108120D8122D35BAF10A965A8D545AAEAFEA4C017517189855F1FCE7C9A2D98EF879B248AD61FCD8C982E61B44F7D1A691CD6365D6479D02EAF4A4A8BCC52940771D6AAA751231B9DC8A6F7D2982985805F9C1
310
C55815330CC13E8EFF73D2EE4B8266BB0EFFC7256DFF59C1715452694D564DAA0385EBB299C26637D3E9E9D519F4674F66D311F46AFDD1E56C018FA7EFE7EFAECFA7A78BAB458DA6F6D330A863994E5DF06C625A35AC9E2C06D094153925091CE61327C510F2251CE90774CF798605E4CE66AF3BB13DF901AB1F4C9B53A20D
310
C515277708FAC3544056078CCA58B6C79D5FA03329E19C7DE142CFC8BB873F6B95AE0389E7C2854E81243116DE06BA4CAA9FA78943C6D5A9DF12037C104B5546348BEAE77A95C2A615FDEB2943B28095ABD5C280BAAD80E657AB41A179B33CC547095EB1E32009B79B5242B16664D90FD4C2E86DF6EA37B251C2EEEDD63B70
310
DD97C5F23D3DA785C8A02F062F1A81A13A9288A7BADDAD18B32C5D5E7F19439BCD597E760A5AA6A0CBE194461C833197AA9E022B02ABB0340B24C15417BFAFBFF01CBEF0648E2E8A9C5F7767A7BFAD177996E5CC0CAD2FE15096C077226775075F7D9235D40E58F5D6C57A3AF1A76BDDD3B66DF6688304F654510403552DA1
310
04E9981CD8E5B3FE94ED5E8E952A3AD397D78E0DA2D00B3076F4ACC56BBE7139E043EA6B8AF218EDE795B42FB6B5C77A2AD804878674F82F504B0304140006080000285ADC40000000000000000000000000350000006662782F38454339323444302D434142412D344433332D383038322D3534353734443530333035462F
310
76657274696365732E62696E504B0304140006080800285ADC40F270F1330600000004000000360000006662782F38454339323444302D434142412D344433332D383038322D3534353734443530333035462F747269616E676C65732E62696E636660600000504B0304140006080000285ADC400000000000000000000000
310
00370000006662782F38454339323444302D434142412D344433332D383038322D3534353734443530333035462F617474726962757465732E62696E504B0304140006080800285ADC40D5987DFC8F00000041010000360000006662782F38454339323444302D434142412D344433332D383038322D353435373444353033
310
3035462F6469726563746F72792E786D6C858F410EC2201045AF4266AF15DDB800BA74E7C21B903225242D6328188F2FA5C4183471359997F9FF81E89FF3C41E1816475E02DF1F80A11FC8386F25A438EECEC07A250251FC3803E6F58C12560C4AD840E95E91C151A72936F496F35732D860FE635F62C8F2DA16B505C545B7
310
4125BAA2FA9E05D7CC053D063734D5C7665FD55B6B8D15D5E9BFEAFD8490FFA45E504B0304140006080800285ADC40982E2DC1FB000000A00100003B0000006662782F38454339323444302D434142412D344433332D383038322D3534353734443530333035462F7265736F75726365732F636F72652E786D6C8D50ED6E83
310
20147D1573FFA3C25C750DD298D63EC15E80E0AD23AD60F858F6F883EA92EDDF12C285F3917B72F8E96B79149FE8BCB6A6075AD650A05176D266EE21861BE9A03809EEAC0DBF645018B9600F1906C16767E3BA43CA9A802624D4D80977507A8F010AF5488F1EBCFAC045963286A4F0F77295EA2E672C6999E8A413DC079702
310
14DB927C8370E86D740A3DAF3656F018F5B46BF49476EA9B4607E2CAC6F6DCD1860CF5EB489A761848773D8C849E2F6FE3C81ADA76175E65B3E0412F3F199543197002C16ACA487D20AC7BA7F448DB74D2F758D7BCCAF23FA6B84EFF34456DC20BDBE36E360F82A6204F42F02AF795C6B3CC3473B7E21B504B010214000A00
310
00080000285ADC403DEE336E79000000790000001B00000000000000000000000000000000006175746F6465736B2D64657369676E2D7061636B6167652E786D6C504B01021400140006080800285ADC40D486FD9CA0000000F40000001300000000000000000000000000B20000005B436F6E74656E745F54797065735D2E
310
786D6C504B01021400140006080800285ADC408B850359E90000007C010000080000000000000000000000000083010000636F72652E786D6C504B01021400140006080800285ADC4055019EA25F0000007C000000070000000000000000000000000092020000636E782E786D6C504B01021400140006080800285ADC4077
310
06191065010000020300000C00000000000000000000000000160300006662782F636F72652E786D6C504B01021400140006080800285ADC405996E7D17E0000009D0000000B00000000000000000000000000A50400006662782F636E782E786D6C504B01021400140006080800285ADC40A2D9D8622A0100001402000031
310
000000000000000000000000004C0500006662782F38454339323444302D434142412D344433332D383038322D3534353734443530333035462F636F72652E786D6C504B01021400140006080800285ADC40916C47B253010000330300003000000000000000000000000000C50600006662782F38454339323444302D4341
310
42412D344433332D383038322D3534353734443530333035462F636E782E786D6C504B01021400140006080800285ADC407A714E7E60070000991B00003400000000000000000000000000660800006662782F38454339323444302D434142412D344433332D383038322D3534353734443530333035462F6F626A65637473
310
2E786D6C504B01021400140006080000285ADC400000000000000000000000003500000000000000000000000000181000006662782F38454339323444302D434142412D344433332D383038322D3534353734443530333035462F76657274696365732E62696E504B01021400140006080800285ADC40F270F13306000000
310
0400000036000000000000000000000000006B1000006662782F38454339323444302D434142412D344433332D383038322D3534353734443530333035462F747269616E676C65732E62696E504B01021400140006080000285ADC400000000000000000000000003700000000000000000000000000C51000006662782F38
310
454339323444302D434142412D344433332D383038322D3534353734443530333035462F617474726962757465732E62696E504B01021400140006080800285ADC40D5987DFC8F0000004101000036000000000000000000000000001A1100006662782F38454339323444302D434142412D344433332D383038322D353435
310
3734443530333035462F6469726563746F72792E786D6C504B01021400140006080800285ADC40982E2DC1FB000000A00100003B00000000000000000000000000FD1100006662782F38454339323444302D434142412D344433332D383038322D3534353734443530333035462F7265736F75726365732F636F72652E786D
310
6C504B0506000000000E000E0080040000511300000000
  0
XRECORD
  5
27
102
{ACAD_REACTORS
330
22
102
}
330
22
100
AcDbXrecord
280
     1
270
     1
271
     1
  0
XRECORD
  5
26
102
{ACAD_REACTORS
330
22
102
}
330
22
100
AcDbXrecord
280
     1
270
     1
271
     1
  0
XRECORD
  5
28
102
{ACAD_REACTORS
330
22
102
}
330
22
100
AcDbXrecord
280
     1
270
     1
271
     1
  0
XRECORD
  5
25
102
{ACAD_REACTORS
330
22
102
}
330
22
100
AcDbXrecord
280
     1
270
     1
271
     1
  0
XRECORD
  5
883
102
{ACAD_REACTORS
330
882
102
}
330
882
100
AcDbXrecord
280
     1
102
ACAD_ROUNDTRIP_2012_MLEADER_STYLE
298
     1
  0
CELLSTYLEMAP
  5
881
102
{ACAD_REACTORS
330
880
102
}
330
880
100
AcDbCellStyleMap
 90
        3
300
CELLSTYLE
  1
TABLEFORMAT_BEGIN
 90
        5
170
     1
 91
        0
 92
    32768
 62
   257
 93
        1
300
CONTENTFORMAT
  1
CONTENTFORMAT_BEGIN
 90
        0
 91
        0
 92
      512
 93
        0
300

 40
0.0
140
1.0
 94
        5
 62
     0
340
55
144
0.25
309
CONTENTFORMAT_END
171
     0
 94
        0
309
TABLEFORMAT_END
  1
CELLSTYLE_BEGIN
 90
        1
 91
        1
300
_TITLE
309
CELLSTYLE_END
300
CELLSTYLE
  1
TABLEFORMAT_BEGIN
 90
        5
170
     1
 91
        0
 92
        0
 62
   257
 93
        1
300
CONTENTFORMAT
  1
CONTENTFORMAT_BEGIN
 90
        0
 91
        0
 92
      512
 93
        0
300

 40
0.0
140
1.0
 94
        5
 62
     0
340
55
144
0.18
309
CONTENTFORMAT_END
171
     0
 94
        0
309
TABLEFORMAT_END
  1
CELLSTYLE_BEGIN
 90
        2
 91
        1
300
_HEADER
309
CELLSTYLE_END
300
CELLSTYLE
  1
TABLEFORMAT_BEGIN
 90
        5
170
     1
 91
        0
 92
        0
 62
   257
 93
        1
300
CONTENTFORMAT
  1
CONTENTFORMAT_BEGIN
 90
        0
 91
        0
 92
      512
 93
        0
300

 40
0.0
140
1.0
 94
        2
 62
     0
340
55
144
0.18
309
CONTENTFORMAT_END
171
     0
 94
        0
309
TABLEFORMAT_END
  1
CELLSTYLE_BEGIN
 90
        3
 91
        2
300
_DATA
309
CELLSTYLE_END
  0
ENDSEC
  0
EOF
