  0
SECTION
  2
HEADER
  9
$ACADVER
  1
AC1015
  9
$ACADMAINTVER
 70
    18
  9
$DWGCODEPAGE
  3
ANSI_1252
  9
$INSBASE
 10
0.0
 20
0.0
 30
0.0
  9
$EXTMIN
 10
0.0
 20
0.0
 30
0.0
  9
$EXTMAX
 10
34.0
 20
22.0
 30
0.0
  9
$LIMMIN
 10
0.0
 20
0.0
  9
$LIMMAX
 10
34.0
 20
22.0
  9
$ORTHOMODE
 70
     0
  9
$REGENMODE
 70
     1
  9
$FILLMODE
 70
     1
  9
$QTEXTMODE
 70
     0
  9
$MIRRTEXT
 70
     0
  9
$LTSCALE
 40
2.0
  9
$ATTMODE
 70
     1
  9
$TEXTSIZE
 40
0.2
  9
$TRACEWID
 40
0.05
  9
$TEXTSTYLE
  7
Standard
  9
$CLAYER
  8
0
  9
$CELTYPE
  6
ByLayer
  9
$CECOLOR
 62
   256
  9
$CELTSCALE
 40
1.0
  9
$DISPSILH
 70
     0
  9
$DIMSCALE
 40
1.0
  9
$DIMASZ
 40
0.0708661417322835
  9
$DIMEXO
 40
0.0625
  9
$DIMDLI
 40
0.38
  9
$DIMRND
 40
0.0
  9
$DIMDLE
 40
0.0
  9
$DIMEXE
 40
0.18
  9
$DIMTP
 40
0.0
  9
$DIMTM
 40
0.0
  9
$DIMTXT
 40
0.0708661417322835
  9
$DIMCEN
 40
0.09
  9
$DIMTSZ
 40
0.0
  9
$DIMTOL
 70
     0
  9
$DIMLIM
 70
     0
  9
$DIMTIH
 70
     1
  9
$DIMTOH
 70
     1
  9
$DIMSE1
 70
     0
  9
$DIMSE2
 70
     0
  9
$DIMTAD
 70
     0
  9
$DIMZIN
 70
     0
  9
$DIMBLK
  1

  9
$DIMASO
 70
     1
  9
$DIMSHO
 70
     1
  9
$DIMPOST
  1

  9
$DIMAPOST
  1

  9
$DIMALT
 70
     0
  9
$DIMALTD
 70
     2
  9
$DIMALTF
 40
25.4
  9
$DIMLFAC
 40
1.0
  9
$DIMTOFL
 70
     0
  9
$DIMTVP
 40
0.0
  9
$DIMTIX
 70
     0
  9
$DIMSOXD
 70
     0
  9
$DIMSAH
 70
     0
  9
$DIMBLK1
  1

  9
$DIMBLK2
  1

  9
$DIMSTYLE
  2
STANDARD
  9
$DIMCLRD
 70
     0
  9
$DIMCLRE
 70
     0
  9
$DIMCLRT
 70
     0
  9
$DIMTFAC
 40
1.0
  9
$DIMGAP
 40
0.09
  9
$DIMJUST
 70
     0
  9
$DIMSD1
 70
     0
  9
$DIMSD2
 70
     0
  9
$DIMTOLJ
 70
     1
  9
$DIMTZIN
 70
     0
  9
$DIMALTZ
 70
     0
  9
$DIMALTTZ
 70
     0
  9
$DIMUPT
 70
     0
  9
$DIMDEC
 70
     4
  9
$DIMTDEC
 70
     4
  9
$DIMALTU
 70
     2
  9
$DIMALTTD
 70
     2
  9
$DIMTXSTY
  7
Standard
  9
$DIMAUNIT
 70
     0
  9
$DIMADEC
 70
     0
  9
$DIMALTRND
 40
0.0
  9
$DIMAZIN
 70
     0
  9
$DIMDSEP
 70
    46
  9
$DIMATFIT
 70
     3
  9
$DIMFRAC
 70
     0
  9
$DIMLDRBLK
  1

  9
$DIMLUNIT
 70
     2
  9
$DIMLWD
 70
    -2
  9
$DIMLWE
 70
    -2
  9
$DIMTMOVE
 70
     0
  9
$LUNITS
 70
     2
  9
$LUPREC
 70
     4
  9
$SKETCHINC
 40
0.1
  9
$FILLETRAD
 40
0.0
  9
$AUNITS
 70
     0
  9
$AUPREC
 70
     0
  9
$MENU
  1
.
  9
$ELEVATION
 40
0.0
  9
$PELEVATION
 40
0.0
  9
$THICKNESS
 40
0.0
  9
$LIMCHECK
 70
     0
  9
$CHAMFERA
 40
0.0
  9
$CHAMFERB
 40
0.0
  9
$CHAMFERC
 40
0.0
  9
$CHAMFERD
 40
0.0
  9
$SKPOLY
 70
     0
  9
$TDCREATE
 40
2455950.573091065
  9
$TDUCREATE
 40
2455950.823091065
  9
$TDUPDATE
 40
2455950.573091250
  9
$TDUUPDATE
 40
2455950.823091250
  9
$TDINDWG
 40
0.0000370833
  9
$TDUSRTIMER
 40
0.0000370833
  9
$USRTIMER
 70
     1
  9
$ANGBASE
 50
0.0
  9
$ANGDIR
 70
     0
  9
$PDMODE
 70
     0
  9
$PDSIZE
 40
0.0
  9
$PLINEWID
 40
0.0
  9
$SPLFRAME
 70
     0
  9
$SPLINETYPE
 70
     6
  9
$SPLINESEGS
 70
     8
  9
$HANDSEED
  5
8CB
  9
$SURFTAB1
 70
     6
  9
$SURFTAB2
 70
     6
  9
$SURFTYPE
 70
     6
  9
$SURFU
 70
     6
  9
$SURFV
 70
     6
  9
$UCSBASE
  2

  9
$UCSNAME
  2

  9
$UCSORG
 10
0.0
 20
0.0
 30
0.0
  9
$UCSXDIR
 10
1.0
 20
0.0
 30
0.0
  9
$UCSYDIR
 10
0.0
 20
1.0
 30
0.0
  9
$UCSORTHOREF
  2

  9
$UCSORTHOVIEW
 70
     0
  9
$UCSORGTOP
 10
0.0
 20
0.0
 30
0.0
  9
$UCSORGBOTTOM
 10
0.0
 20
0.0
 30
0.0
  9
$UCSORGLEFT
 10
0.0
 20
0.0
 30
0.0
  9
$UCSORGRIGHT
 10
0.0
 20
0.0
 30
0.0
  9
$UCSORGFRONT
 10
0.0
 20
0.0
 30
0.0
  9
$UCSORGBACK
 10
0.0
 20
0.0
 30
0.0
  9
$PUCSBASE
  2

  9
$PUCSNAME
  2

  9
$PUCSORG
 10
0.0
 20
0.0
 30
0.0
  9
$PUCSXDIR
 10
1.0
 20
0.0
 30
0.0
  9
$PUCSYDIR
 10
0.0
 20
1.0
 30
0.0
  9
$PUCSORTHOREF
  2

  9
$PUCSORTHOVIEW
 70
     0
  9
$PUCSORGTOP
 10
0.0
 20
0.0
 30
0.0
  9
$PUCSORGBOTTOM
 10
0.0
 20
0.0
 30
0.0
  9
$PUCSORGLEFT
 10
0.0
 20
0.0
 30
0.0
  9
$PUCSORGRIGHT
 10
0.0
 20
0.0
 30
0.0
  9
$PUCSORGFRONT
 10
0.0
 20
0.0
 30
0.0
  9
$PUCSORGBACK
 10
0.0
 20
0.0
 30
0.0
  9
$USERI1
 70
     0
  9
$USERI2
 70
     0
  9
$USERI3
 70
     0
  9
$USERI4
 70
     0
  9
$USERI5
 70
     0
  9
$USERR1
 40
0.0
  9
$USERR2
 40
0.0
  9
$USERR3
 40
0.0
  9
$USERR4
 40
0.0
  9
$USERR5
 40
0.0
  9
$WORLDVIEW
 70
     1
  9
$SHADEDGE
 70
     3
  9
$SHADEDIF
 70
    70
  9
$TILEMODE
 70
     1
  9
$MAXACTVP
 70
    64
  9
$PINSBASE
 10
0.0
 20
0.0
 30
0.0
  9
$PLIMCHECK
 70
     0
  9
$PEXTMIN
 10
0.0
 20
0.0
 30
0.0
  9
$PEXTMAX
 10
34.0
 20
22.0
 30
0.0
  9
$PLIMMIN
 10
0.0
 20
0.0
  9
$PLIMMAX
 10
34.0
 20
22.0
  9
$UNITMODE
 70
     0
  9
$VISRETAIN
 70
     1
  9
$PLINEGEN
 70
     0
  9
$PSLTSCALE
 70
     1
  9
$TREEDEPTH
 70
  3020
  9
$CMLSTYLE
  2
Standard
  9
$CMLJUST
 70
     0
  9
$CMLSCALE
 40
1.0
  9
$PROXYGRAPHICS
 70
     1
  9
$MEASUREMENT
 70
     0
  9
$CELWEIGHT
370
    -1
  9
$ENDCAPS
280
     0
  9
$JOINSTYLE
280
     0
  9
$LWDISPLAY
290
     0
  9
$INSUNITS
 70
     1
  9
$HYPERLINKBASE
  1

  9
$STYLESHEET
  1

  9
$XEDIT
290
     1
  9
$CEPSNTYPE
380
     0
  9
$PSTYLEMODE
290
     1
  9
$FINGERPRINTGUID
  2
{7D2EFD38-68E5-4C0F-875B-8BF3DE387A8B}
  9
$VERSIONGUID
  2
{D873AAAF-7D29-4286-9DC2-3F45A54D48B7}
  9
$EXTNAMES
290
     1
  9
$PSVPSCALE
 40
0.0
  9
$OLESTARTUP
290
     0
  0
ENDSEC
  0
SECTION
  2
CLASSES
  0
CLASS
  1
ACDBDICTIONARYWDFLT
  2
AcDbDictionaryWithDefault
  3
ObjectDBX Classes
 90
        0
280
     0
281
     0
  0
CLASS
  1
MATERIAL
  2
AcDbMaterial
  3
ObjectDBX Classes
 90
     1153
280
     0
281
     0
  0
CLASS
  1
VISUALSTYLE
  2
AcDbVisualStyle
  3
ObjectDBX Classes
 90
     4095
280
     0
281
     0
  0
CLASS
  1
SCALE
  2
AcDbScale
  3
ObjectDBX Classes
 90
     1153
280
     0
281
     0
  0
CLASS
  1
TABLESTYLE
  2
AcDbTableStyle
  3
ObjectDBX Classes
 90
     4095
280
     0
281
     0
  0
CLASS
  1
MLEADERSTYLE
  2
AcDbMLeaderStyle
  3
ACDB_MLEADERSTYLE_CLASS
 90
     4095
280
     0
281
     0
  0
CLASS
  1
DICTIONARYVAR
  2
AcDbDictionaryVar
  3
ObjectDBX Classes
 90
        0
280
     0
281
     0
  0
CLASS
  1
CELLSTYLEMAP
  2
AcDbCellStyleMap
  3
ObjectDBX Classes
 90
     1152
280
     0
281
     0
  0
CLASS
  1
ACDBPLACEHOLDER
  2
AcDbPlaceHolder
  3
ObjectDBX Classes
 90
        0
280
     0
281
     0
  0
CLASS
  1
LAYOUT
  2
AcDbLayout
  3
ObjectDBX Classes
 90
        0
280
     0
281
     0
  0
ENDSEC
  0
SECTION
  2
TABLES
  0
TABLE
  2
VPORT
  5
8
330
0
100
AcDbSymbolTable
 70
     1
  0
VPORT
  5
57
330
8
100
AcDbSymbolTableRecord
100
AcDbViewportTableRecord
  2
*Active
 70
     0
 10
0.0
 20
0.0
 11
1.0
 21
1.0
 12
17.0
 22
11.0
 13
0.0
 23
0.0
 14
1.0
 24
1.0
 15
0.0
 25
0.0
 16
0.0
 26
0.0
 36
1.0
 17
0.0
 27
0.0
 37
0.0
 40
22.0
 41
1.545454545454545
 42
50.0
 43
0.0
 44
0.0
 50
0.0
 51
0.0
 71
     0
 72
   100
 73
     1
 74
     1
 75
     0
 76
     0
 77
     0
 78
     0
281
     0
 65
     1
110
0.0
120
0.0
130
0.0
111
1.0
121
0.0
131
0.0
112
0.0
122
1.0
132
0.0
 79
     0
146
0.0
  0
ENDTAB
  0
TABLE
  2
LTYPE
  5
5
330
0
100
AcDbSymbolTable
 70
    59
  0
LTYPE
  5
5B
330
5
100
AcDbSymbolTableRecord
100
AcDbLinetypeTableRecord
  2
ByBlock
 70
     0
  3

 72
    65
 73
     0
 40
0.0
  0
LTYPE
  5
5C
330
5
100
AcDbSymbolTableRecord
100
AcDbLinetypeTableRecord
  2
ByLayer
 70
     0
  3

 72
    65
 73
     0
 40
0.0
  0
LTYPE
  5
5D
330
5
100
AcDbSymbolTableRecord
100
AcDbLinetypeTableRecord
  2
Continuous
 70
     0
  3
Solid line
 72
    65
 73
     0
 40
0.0
  0
LTYPE
  5
7C
330
5
100
AcDbSymbolTableRecord
100
AcDbLinetypeTableRecord
  2
BY_STANDARD
 70
     0
  3
By Standard ____________    ____    ____   _
 72
    65
 73
     6
 40
1.240299999999999
 49
0.6614
 74
     0
 49
-0.0827
 74
     0
 49
0.1654
 74
     0
 49
-0.0827
 74
     0
 49
0.1654
 74
     0
 49
-0.0827
 74
     0
  0
LTYPE
  5
7D
330
5
100
AcDbSymbolTableRecord
100
AcDbLinetypeTableRecord
  2
CHAIN
 70
     0
  3
Chain ____ _ ____ _ ____ _ ____ _ ____ _ ____
 72
    65
 73
     4
 40
0.7087
 49
0.4724000000000001
 74
     0
 49
-0.0591
 74
     0
 49
0.1181
 74
     0
 49
-0.0591
 74
     0
  0
LTYPE
  5
7E
330
5
100
AcDbSymbolTableRecord
100
AcDbLinetypeTableRecord
  2
DASH_DOT
 70
     0
  3
Dash dot __ . __ . __ . __ . __ . __ . __ . __
 72
    65
 73
     4
 40
0.37
 49
0.24
 74
     0
 49
-0.06
 74
     0
 49
0.01
 74
     0
 49
-0.06
 74
     0
  0
LTYPE
  5
7F
330
5
100
AcDbSymbolTableRecord
100
AcDbLinetypeTableRecord
  2
DOUBLE_DASH_DOT
 70
     0
  3
Double-Dash Dot __ __ . __ __ . __ __ . __ _
 72
    65
 73
     6
 40
0.4398
 49
0.24
 74
     0
 49
-0.06
 74
     0
 49
0.0098
 74
     0
 49
-0.06
 74
     0
 49
0.01
 74
     0
 49
-0.06
 74
     0
  0
LTYPE
  5
80
330
5
100
AcDbSymbolTableRecord
100
AcDbLinetypeTableRecord
  2
DASH_TRIPLE_DOT
 70
     0
  3
Dash Triple-Dot _ . . . _ . . . _ . . . _
 72
    65
 73
     8
 40
0.51
 49
0.24
 74
     0
 49
-0.06
 74
     0
 49
0.01
 74
     0
 49
-0.06
 74
     0
 49
0.01
 74
     0
 49
-0.06
 74
     0
 49
0.01
 74
     0
 49
-0.06
 74
     0
  0
LTYPE
  5
81
330
5
100
AcDbSymbolTableRecord
100
AcDbLinetypeTableRecord
  2
DASHED
 70
     0
  3
Dashed __ __ __ __ __ __ __ __ __ __ __ __ __ _
 72
    65
 73
     2
 40
0.2067
 49
0.1654
 74
     0
 49
-0.0413
 74
     0
  0
LTYPE
  5
82
330
5
100
AcDbSymbolTableRecord
100
AcDbLinetypeTableRecord
  2
DASH_DOUBLE_DOT
 70
     0
  3
Dash Double-Dot __ . . __ . . __ . . __ . .
 72
    65
 73
     6
 40
0.4398
 49
0.24
 74
     0
 49
-0.06
 74
     0
 49
0.0098
 74
     0
 49
-0.06
 74
     0
 49
0.01
 74
     0
 49
-0.06
 74
     0
  0
LTYPE
  5
83
330
5
100
AcDbSymbolTableRecord
100
AcDbLinetypeTableRecord
  2
DASHED_SPACE
 70
     0
  3
Dashed Space __ __ __ __ __ __ __ __ __ __ __ _
 72
    65
 73
     2
 40
0.2067
 49
0.1654
 74
     0
 49
-0.0413
 74
     0
  0
LTYPE
  5
84
330
5
100
AcDbSymbolTableRecord
100
AcDbLinetypeTableRecord
  2
DOTTED
 70
     0
  3
Dotted . . . . . . . . . . . . . . . . . . . . 
 72
    65
 73
     2
 40
0.0482
 49
0.0069
 74
     0
 49
-0.0413
 74
     0
  0
LTYPE
  5
85
330
5
100
AcDbSymbolTableRecord
100
AcDbLinetypeTableRecord
  2
DOUBLE_DASH_CHAIN
 70
     0
  3
Double-Dash Chain ______  __  __  ______  __  _
 72
    65
 73
     6
 40
1.240299999999999
 49
0.6614
 74
     0
 49
-0.0827
 74
     0
 49
0.1654
 74
     0
 49
-0.0827
 74
     0
 49
0.1654
 74
     0
 49
-0.0827
 74
     0
  0
LTYPE
  5
87
330
5
100
AcDbSymbolTableRecord
100
AcDbLinetypeTableRecord
  2
DOUBLE_DASH_DOUBLE_DOT
 70
     0
  3
Double-Dash Double-dot _ _ . . _ _ . . _
 72
    65
 73
     8
 40
0.7400000000000001
 49
0.24
 74
     0
 49
-0.06
 74
     0
 49
0.24
 74
     0
 49
-0.06
 74
     0
 49
0.01
 74
     0
 49
-0.06
 74
     0
 49
0.01
 74
     0
 49
-0.06
 74
     0
  0
LTYPE
  5
88
330
5
100
AcDbSymbolTableRecord
100
AcDbLinetypeTableRecord
  2
DOUBLE_DASH_TRIPLE_DOT
 70
     0
  3
Double Dash Triple Dot __ __ . . . __ __ . .
 72
    65
 73
    10
 40
0.8100000000000001
 49
0.24
 74
     0
 49
-0.06
 74
     0
 49
0.24
 74
     0
 49
-0.06
 74
     0
 49
0.01
 74
     0
 49
-0.06
 74
     0
 49
0.01
 74
     0
 49
-0.06
 74
     0
 49
0.01
 74
     0
 49
-0.06
 74
     0
  0
LTYPE
  5
89
330
5
100
AcDbSymbolTableRecord
100
AcDbLinetypeTableRecord
  2
LONG_DASH_DOTTED
 70
     0
  3
Long Dash Dotted ____ . ____ . ____ . ____ . _
 72
    65
 73
     4
 40
0.3543
 49
0.2362
 74
     0
 49
-0.0295
 74
     0
 49
0.0591
 74
     0
 49
-0.0295
 74
     0
  0
LTYPE
  5
8A
330
5
100
AcDbSymbolTableRecord
100
AcDbLinetypeTableRecord
  2
LONG_DASH_DOUBLE_DOT
 70
     0
  3
Long Dash Double Dot ________  .  .  ________  
 72
    65
 73
     6
 40
0.6799999999999999
 49
0.48
 74
     0
 49
-0.06
 74
     0
 49
0.01
 74
     0
 49
-0.06
 74
     0
 49
0.01
 74
     0
 49
-0.06
 74
     0
  0
LTYPE
  5
8B
330
5
100
AcDbSymbolTableRecord
100
AcDbLinetypeTableRecord
  2
LONG_DASH_TRIPLE_DOT
 70
     0
  3
Long Dash Triple Dot ____ ... ____ ... ____
 72
    65
 73
     8
 40
0.3689
 49
0.2362
 74
     0
 49
-0.0295
 74
     0
 49
0.0049
 74
     0
 49
-0.0295
 74
     0
 49
0.0049
 74
     0
 49
-0.0295
 74
     0
 49
0.0049
 74
     0
 49
-0.0295
 74
     0
  0
LTYPE
  5
8C
330
5
100
AcDbSymbolTableRecord
100
AcDbLinetypeTableRecord
  2
BORDER
 70
     0
  3
Border __ __ . __ __ . __ __ . __ __ . __ __ .
 72
    65
 73
     6
 40
1.75
 49
0.5
 74
     0
 49
-0.25
 74
     0
 49
0.5
 74
     0
 49
-0.25
 74
     0
 49
0.0
 74
     0
 49
-0.25
 74
     0
  0
LTYPE
  5
8D
330
5
100
AcDbSymbolTableRecord
100
AcDbLinetypeTableRecord
  2
BORDER2
 70
     0
  3
Border (.5x) __.__.__.__.__.__.__.__.__.__.__.
 72
    65
 73
     6
 40
0.875
 49
0.25
 74
     0
 49
-0.125
 74
     0
 49
0.25
 74
     0
 49
-0.125
 74
     0
 49
0.0
 74
     0
 49
-0.125
 74
     0
  0
LTYPE
  5
8E
330
5
100
AcDbSymbolTableRecord
100
AcDbLinetypeTableRecord
  2
BORDERX2
 70
     0
  3
Border (2x) ____  ____  .  ____  ____  .  ___
 72
    65
 73
     6
 40
3.5
 49
1.0
 74
     0
 49
-0.5
 74
     0
 49
1.0
 74
     0
 49
-0.5
 74
     0
 49
0.0
 74
     0
 49
-0.5
 74
     0
  0
LTYPE
  5
8F
330
5
100
AcDbSymbolTableRecord
100
AcDbLinetypeTableRecord
  2
CENTER
 70
     0
  3
Center ____ _ ____ _ ____ _ ____ _ ____ _ ____
 72
    65
 73
     4
 40
2.0
 49
1.25
 74
     0
 49
-0.25
 74
     0
 49
0.25
 74
     0
 49
-0.25
 74
     0
  0
LTYPE
  5
90
330
5
100
AcDbSymbolTableRecord
100
AcDbLinetypeTableRecord
  2
CENTER2
 70
     0
  3
Center (.5x) ___ _ ___ _ ___ _ ___ _ ___ _ ___
 72
    65
 73
     4
 40
1.125
 49
0.75
 74
     0
 49
-0.125
 74
     0
 49
0.125
 74
     0
 49
-0.125
 74
     0
  0
LTYPE
  5
91
330
5
100
AcDbSymbolTableRecord
100
AcDbLinetypeTableRecord
  2
CENTERX2
 70
     0
  3
Center (2x) ________  __  ________  __  _____
 72
    65
 73
     4
 40
4.0
 49
2.5
 74
     0
 49
-0.5
 74
     0
 49
0.5
 74
     0
 49
-0.5
 74
     0
  0
LTYPE
  5
92
330
5
100
AcDbSymbolTableRecord
100
AcDbLinetypeTableRecord
  2
DASHDOT2
 70
     0
  3
Dash dot (.5x) _._._._._._._._._._._._._._._.
 72
    65
 73
     4
 40
0.5
 49
0.25
 74
     0
 49
-0.125
 74
     0
 49
0.0
 74
     0
 49
-0.125
 74
     0
  0
LTYPE
  5
93
330
5
100
AcDbSymbolTableRecord
100
AcDbLinetypeTableRecord
  2
DASHDOTX2
 70
     0
  3
Dash dot (2x) ____  .  ____  .  ____  .  ___
 72
    65
 73
     4
 40
2.0
 49
1.0
 74
     0
 49
-0.5
 74
     0
 49
0.0
 74
     0
 49
-0.5
 74
     0
  0
LTYPE
  5
95
330
5
100
AcDbSymbolTableRecord
100
AcDbLinetypeTableRecord
  2
DASHED2
 70
     0
  3
Dashed (.5x) _ _ _ _ _ _ _ _ _ _ _ _ _ _ _ _ _
 72
    65
 73
     2
 40
0.375
 49
0.25
 74
     0
 49
-0.125
 74
     0
  0
LTYPE
  5
96
330
5
100
AcDbSymbolTableRecord
100
AcDbLinetypeTableRecord
  2
DASHEDX2
 70
     0
  3
Dashed (2x) ____  ____  ____  ____  ____  ___
 72
    65
 73
     2
 40
1.5
 49
1.0
 74
     0
 49
-0.5
 74
     0
  0
LTYPE
  5
97
330
5
100
AcDbSymbolTableRecord
100
AcDbLinetypeTableRecord
  2
DIVIDE
 70
     0
  3
Divide ____ . . ____ . . ____ . . ____ . . ____
 72
    65
 73
     6
 40
1.25
 49
0.5
 74
     0
 49
-0.25
 74
     0
 49
0.0
 74
     0
 49
-0.25
 74
     0
 49
0.0
 74
     0
 49
-0.25
 74
     0
  0
LTYPE
  5
98
330
5
100
AcDbSymbolTableRecord
100
AcDbLinetypeTableRecord
  2
DIVIDE2
 70
     0
  3
Divide (.5x) __..__..__..__..__..__..__..__.._
 72
    65
 73
     6
 40
0.625
 49
0.25
 74
     0
 49
-0.125
 74
     0
 49
0.0
 74
     0
 49
-0.125
 74
     0
 49
0.0
 74
     0
 49
-0.125
 74
     0
  0
LTYPE
  5
99
330
5
100
AcDbSymbolTableRecord
100
AcDbLinetypeTableRecord
  2
DIVIDEX2
 70
     0
  3
Divide (2x) ________  .  .  ________  .  .  _
 72
    65
 73
     6
 40
2.5
 49
1.0
 74
     0
 49
-0.5
 74
     0
 49
0.0
 74
     0
 49
-0.5
 74
     0
 49
0.0
 74
     0
 49
-0.5
 74
     0
  0
LTYPE
  5
9A
330
5
100
AcDbSymbolTableRecord
100
AcDbLinetypeTableRecord
  2
DOT
 70
     0
  3
Dot . . . . . . . . . . . . . . . . . . . . . .
 72
    65
 73
     2
 40
0.25
 49
0.0
 74
     0
 49
-0.25
 74
     0
  0
LTYPE
  5
9B
330
5
100
AcDbSymbolTableRecord
100
AcDbLinetypeTableRecord
  2
DOT2
 70
     0
  3
Dot (.5x) .....................................
 72
    65
 73
     2
 40
0.125
 49
0.0
 74
     0
 49
-0.125
 74
     0
  0
LTYPE
  5
9C
330
5
100
AcDbSymbolTableRecord
100
AcDbLinetypeTableRecord
  2
DOTX2
 70
     0
  3
Dot (2x) .  .  .  .  .  .  .  .  .  .  .  .  . 
 72
    65
 73
     2
 40
0.5
 49
0.0
 74
     0
 49
-0.5
 74
     0
  0
LTYPE
  5
9D
330
5
100
AcDbSymbolTableRecord
100
AcDbLinetypeTableRecord
  2
HIDDEN
 70
     0
  3
Hidden __ __ __ __ __ __ __ __ __ __ __ __ __ _
 72
    65
 73
     2
 40
0.375
 49
0.25
 74
     0
 49
-0.125
 74
     0
  0
LTYPE
  5
9E
330
5
100
AcDbSymbolTableRecord
100
AcDbLinetypeTableRecord
  2
HIDDEN2
 70
     0
  3
Hidden (.5x) _ _ _ _ _ _ _ _ _ _ _ _ _ _ _ _ _
 72
    65
 73
     2
 40
0.1875
 49
0.125
 74
     0
 49
-0.0625
 74
     0
  0
LTYPE
  5
9F
330
5
100
AcDbSymbolTableRecord
100
AcDbLinetypeTableRecord
  2
HIDDENX2
 70
     0
  3
Hidden (2x) ____ ____ ____ ____ ____ ____ ____
 72
    65
 73
     2
 40
0.75
 49
0.5
 74
     0
 49
-0.25
 74
     0
  0
LTYPE
  5
A0
330
5
100
AcDbSymbolTableRecord
100
AcDbLinetypeTableRecord
  2
PHANTOM
 70
     0
  3
Phantom ______  __  __  ______  __  __  ______
 72
    65
 73
     6
 40
2.5
 49
1.25
 74
     0
 49
-0.25
 74
     0
 49
0.25
 74
     0
 49
-0.25
 74
     0
 49
0.25
 74
     0
 49
-0.25
 74
     0
  0
LTYPE
  5
A1
330
5
100
AcDbSymbolTableRecord
100
AcDbLinetypeTableRecord
  2
PHANTOM2
 70
     0
  3
Phantom (.5x) ___ _ _ ___ _ _ ___ _ _ ___ _ _
 72
    65
 73
     6
 40
1.25
 49
0.625
 74
     0
 49
-0.125
 74
     0
 49
0.125
 74
     0
 49
-0.125
 74
     0
 49
0.125
 74
     0
 49
-0.125
 74
     0
  0
LTYPE
  5
A2
330
5
100
AcDbSymbolTableRecord
100
AcDbLinetypeTableRecord
  2
PHANTOMX2
 70
     0
  3
Phantom (2x) ____________    ____    ____   _
 72
    65
 73
     6
 40
5.0
 49
2.5
 74
     0
 49
-0.5
 74
     0
 49
0.5
 74
     0
 49
-0.5
 74
     0
 49
0.5
 74
     0
 49
-0.5
 74
     0
  0
LTYPE
  5
A3
330
5
100
AcDbSymbolTableRecord
100
AcDbLinetypeTableRecord
  2
ACAD_ISO02W100
 70
     0
  3
ISO dash __ __ __ __ __ __ __ __ __ __ __ __ __
 72
    65
 73
     2
 40
0.59
 49
0.47
 74
     0
 49
-0.12
 74
     0
  0
LTYPE
  5
A4
330
5
100
AcDbSymbolTableRecord
100
AcDbLinetypeTableRecord
  2
ACAD_ISO03W100
 70
     0
  3
ISO dash space __    __    __    __    __    __
 72
    65
 73
     2
 40
1.179999999999999
 49
0.47
 74
     0
 49
-0.71
 74
     0
  0
LTYPE
  5
A5
330
5
100
AcDbSymbolTableRecord
100
AcDbLinetypeTableRecord
  2
ACAD_ISO04W100
 70
     0
  3
ISO long-dash dot ____ . ____ . ____ . ____ . _
 72
    65
 73
     4
 40
1.179999999999999
 49
0.9399999999999998
 74
     0
 49
-0.12
 74
     0
 49
0.0
 74
     0
 49
-0.12
 74
     0
  0
LTYPE
  5
A6
330
5
100
AcDbSymbolTableRecord
100
AcDbLinetypeTableRecord
  2
ACAD_ISO05W100
 70
     0
  3
ISO long-dash double-dot ____ .. ____ .. ____ .
 72
    65
 73
     6
 40
1.299999999999999
 49
0.9399999999999998
 74
     0
 49
-0.12
 74
     0
 49
0.0
 74
     0
 49
-0.12
 74
     0
 49
0.0
 74
     0
 49
-0.12
 74
     0
  0
LTYPE
  5
A7
330
5
100
AcDbSymbolTableRecord
100
AcDbLinetypeTableRecord
  2
ACAD_ISO06W100
 70
     0
  3
ISO long-dash triple-dot ____ ... ____ ... ____
 72
    65
 73
     8
 40
1.419999999999999
 49
0.9399999999999998
 74
     0
 49
-0.12
 74
     0
 49
0.0
 74
     0
 49
-0.12
 74
     0
 49
0.0
 74
     0
 49
-0.12
 74
     0
 49
0.0
 74
     0
 49
-0.12
 74
     0
  0
LTYPE
  5
A8
330
5
100
AcDbSymbolTableRecord
100
AcDbLinetypeTableRecord
  2
ACAD_ISO07W100
 70
     0
  3
ISO dot . . . . . . . . . . . . . . . . . . . .
 72
    65
 73
     2
 40
0.12
 49
0.0
 74
     0
 49
-0.12
 74
     0
  0
LTYPE
  5
A9
330
5
100
AcDbSymbolTableRecord
100
AcDbLinetypeTableRecord
  2
ACAD_ISO08W100
 70
     0
  3
ISO long-dash short-dash ____ __ ____ __ ____ _
 72
    65
 73
     4
 40
0.95
 49
0.47
 74
     0
 49
-0.12
 74
     0
 49
0.24
 74
     0
 49
-0.12
 74
     0
  0
LTYPE
  5
AA
330
5
100
AcDbSymbolTableRecord
100
AcDbLinetypeTableRecord
  2
ACAD_ISO09W100
 70
     0
  3
ISO long-dash double-short-dash ____ __ __ ____
 72
    65
 73
     6
 40
1.31
 49
0.47
 74
     0
 49
-0.12
 74
     0
 49
0.24
 74
     0
 49
-0.12
 74
     0
 49
0.24
 74
     0
 49
-0.12
 74
     0
  0
LTYPE
  5
AB
330
5
100
AcDbSymbolTableRecord
100
AcDbLinetypeTableRecord
  2
ACAD_ISO10W100
 70
     0
  3
ISO dash dot __ . __ . __ . __ . __ . __ . __ .
 72
    65
 73
     4
 40
0.71
 49
0.47
 74
     0
 49
-0.12
 74
     0
 49
0.0
 74
     0
 49
-0.12
 74
     0
  0
LTYPE
  5
AC
330
5
100
AcDbSymbolTableRecord
100
AcDbLinetypeTableRecord
  2
ACAD_ISO11W100
 70
     0
  3
ISO double-dash dot __ __ . __ __ . __ __ . __ 
 72
    65
 73
     6
 40
1.299999999999999
 49
0.47
 74
     0
 49
-0.12
 74
     0
 49
0.47
 74
     0
 49
-0.12
 74
     0
 49
0.0
 74
     0
 49
-0.12
 74
     0
  0
LTYPE
  5
AD
330
5
100
AcDbSymbolTableRecord
100
AcDbLinetypeTableRecord
  2
ACAD_ISO12W100
 70
     0
  3
ISO dash double-dot __ . . __ . . __ . . __ . .
 72
    65
 73
     6
 40
0.8299999999999998
 49
0.47
 74
     0
 49
-0.12
 74
     0
 49
0.0
 74
     0
 49
-0.12
 74
     0
 49
0.0
 74
     0
 49
-0.12
 74
     0
  0
LTYPE
  5
AE
330
5
100
AcDbSymbolTableRecord
100
AcDbLinetypeTableRecord
  2
ACAD_ISO13W100
 70
     0
  3
ISO double-dash double-dot __ __ . . __ __ . . 
 72
    65
 73
     8
 40
1.419999999999999
 49
0.47
 74
     0
 49
-0.12
 74
     0
 49
0.47
 74
     0
 49
-0.12
 74
     0
 49
0.0
 74
     0
 49
-0.12
 74
     0
 49
0.0
 74
     0
 49
-0.12
 74
     0
  0
LTYPE
  5
AF
330
5
100
AcDbSymbolTableRecord
100
AcDbLinetypeTableRecord
  2
ACAD_ISO14W100
 70
     0
  3
ISO dash triple-dot __ . . . __ . . . __ . . . 
 72
    65
 73
     8
 40
0.95
 49
0.47
 74
     0
 49
-0.12
 74
     0
 49
0.0
 74
     0
 49
-0.12
 74
     0
 49
0.0
 74
     0
 49
-0.12
 74
     0
 49
0.0
 74
     0
 49
-0.12
 74
     0
  0
LTYPE
  5
B0
330
5
100
AcDbSymbolTableRecord
100
AcDbLinetypeTableRecord
  2
ACAD_ISO15W100
 70
     0
  3
ISO double-dash triple-dot __ __ . . . __ __ . 
 72
    65
 73
    10
 40
1.539999999999999
 49
0.47
 74
     0
 49
-0.12
 74
     0
 49
0.47
 74
     0
 49
-0.12
 74
     0
 49
0.0
 74
     0
 49
-0.12
 74
     0
 49
0.0
 74
     0
 49
-0.12
 74
     0
 49
0.0
 74
     0
 49
-0.12
 74
     0
  0
LTYPE
  5
B3
330
5
100
AcDbSymbolTableRecord
100
AcDbLinetypeTableRecord
  2
FENCELINE1
 70
     0
  3
Fenceline circle ----0-----0----0-----0----0---
 72
    65
 73
     4
 40
1.45
 49
0.25
 74
     0
 49
-0.1
 74
     4
 75
   133
340
B2
 46
0.1
 50
0.0
 44
-0.1
 45
0.0
 49
-0.1
 74
     0
 49
1.0
 74
     0
  0
LTYPE
  5
B4
330
5
100
AcDbSymbolTableRecord
100
AcDbLinetypeTableRecord
  2
FENCELINE2
 70
     0
  3
Fenceline square ----[]-----[]----[]-----[]----
 72
    65
 73
     4
 40
1.45
 49
0.25
 74
     0
 49
-0.1
 74
     4
 75
   132
340
B2
 46
0.1
 50
0.0
 44
-0.1
 45
0.0
 49
-0.1
 74
     0
 49
1.0
 74
     0
  0
LTYPE
  5
B5
330
5
100
AcDbSymbolTableRecord
100
AcDbLinetypeTableRecord
  2
TRACKS
 70
     0
  3
Tracks -|-|-|-|-|-|-|-|-|-|-|-|-|-|-|-|-|-|-|-|
 72
    65
 73
     2
 40
0.3
 49
0.15
 74
     4
 75
   130
340
B2
 46
0.25
 50
0.0
 44
0.0
 45
0.0
 49
0.15
 74
     0
  0
LTYPE
  5
B6
330
5
100
AcDbSymbolTableRecord
100
AcDbLinetypeTableRecord
  2
BATTING
 70
     0
  3
Batting SSSSSSSSSSSSSSSSSSSSSSSSSSSSSSSSSSSSSSS
 72
    65
 73
     4
 40
0.4001000000000001
 49
0.0001
 74
     0
 49
-0.1
 74
     4
 75
   134
340
B2
 46
0.1
 50
0.0
 44
-0.1
 45
0.0
 49
-0.2
 74
     4
 75
   134
340
B2
 46
0.1
 50
180.0
 44
0.1
 45
0.0
 49
-0.1
 74
     0
  0
LTYPE
  5
B7
330
5
100
AcDbSymbolTableRecord
100
AcDbLinetypeTableRecord
  2
HOT_WATER_SUPPLY
 70
     0
  3
Hot water supply ---- HW ---- HW ---- HW ----
 72
    65
 73
     3
 40
0.9
 49
0.5
 74
     0
 49
-0.2
 74
     2
 75
     0
340
55
 46
0.1
 50
0.0
 44
-0.1
 45
-0.05
  9
HW
 49
-0.2
 74
     0
  0
LTYPE
  5
B8
330
5
100
AcDbSymbolTableRecord
100
AcDbLinetypeTableRecord
  2
GAS_LINE
 70
     0
  3
Gas line ----GAS----GAS----GAS----GAS----GAS---
 72
    65
 73
     3
 40
0.95
 49
0.5
 74
     0
 49
-0.2
 74
     2
 75
     0
340
55
 46
0.1
 50
0.0
 44
-0.1
 45
-0.05
  9
GAS
 49
-0.25
 74
     0
  0
LTYPE
  5
B9
330
5
100
AcDbSymbolTableRecord
100
AcDbLinetypeTableRecord
  2
ZIGZAG
 70
     0
  3
Zig zag /\/\/\/\/\/\/\/\/\/\/\/\/\/\/\/\/\/\/\/
 72
    65
 73
     4
 40
0.8001000000000001
 49
0.0001
 74
     0
 49
-0.2
 74
     4
 75
   131
340
B2
 46
0.2
 50
0.0
 44
-0.2
 45
0.0
 49
-0.4
 74
     4
 75
   131
340
B2
 46
0.2
 50
180.0
 44
0.2
 45
0.0
 49
-0.2
 74
     0
  0
ENDTAB
  0
TABLE
  2
LAYER
  5
2
330
0
100
AcDbSymbolTable
 70
    27
  0
LAYER
  5
54
330
2
100
AcDbSymbolTableRecord
100
AcDbLayerTableRecord
  2
0
 70
     0
 62
     7
  6
Continuous
370
    18
390
F
  0
LAYER
  5
C3
330
2
100
AcDbSymbolTableRecord
100
AcDbLayerTableRecord
  2
Dimension (ANSI)
 70
     0
 62
     7
  6
Continuous
370
    13
390
F
  0
LAYER
  5
C5
330
2
100
AcDbSymbolTableRecord
100
AcDbLayerTableRecord
  2
Hidden (ANSI)
 70
     0
 62
     7
  6
DASHED
370
    15
390
F
  0
LAYER
  5
CC
330
2
100
AcDbSymbolTableRecord
100
AcDbLayerTableRecord
  2
Symbol (ANSI)
 70
     0
 62
     7
  6
Continuous
370
    18
390
F
  0
LAYER
  5
CF
330
2
100
AcDbSymbolTableRecord
100
AcDbLayerTableRecord
  2
Visible (ANSI)
 70
     0
 62
     7
  6
Continuous
370
    13
390
F
  0
LAYER
  5
D0
330
2
100
AcDbSymbolTableRecord
100
AcDbLayerTableRecord
  2
Visible Narrow (ANSI)
 70
     0
 62
     7
  6
Continuous
370
    18
390
F
  0
LAYER
  5
145
330
2
100
AcDbSymbolTableRecord
100
AcDbLayerTableRecord
  2
Defpoints
 70
     0
 62
     7
  6
Continuous
290
     0
370
    -3
390
F
  0
ENDTAB
  0
TABLE
  2
STYLE
  5
3
330
0
100
AcDbSymbolTable
 70
    18
  0
STYLE
  5
55
330
3
100
AcDbSymbolTableRecord
100
AcDbTextStyleTableRecord
  2
Standard
 70
     0
 40
0.0
 41
1.0
 50
0.0
 71
     0
 42
0.2
  3
txt
  4

  0
STYLE
  5
5A
330
3
100
AcDbSymbolTableRecord
100
AcDbTextStyleTableRecord
  2
Annotative
 70
     0
 40
0.0
 41
1.0
 50
0.0
 71
     0
 42
0.2
  3
txt
  4

1001
AcadAnnotative
1000
AnnotativeData
1002
{
1070
     1
1070
     1
1002
}
  0
STYLE
  5
B2
330
3
100
AcDbSymbolTableRecord
100
AcDbTextStyleTableRecord
  2

 70
     1
 40
0.0
 41
1.0
 50
0.0
 71
     0
 42
0.2
  3
ltypeshp.shx
  4

  0
STYLE
  5
D4
330
3
100
AcDbSymbolTableRecord
100
AcDbTextStyleTableRecord
  2
ITALICC_120
 70
     0
 40
0.0
 41
1.0
 50
0.0
 71
     0
 42
0.2
  3
italicc.shx
  4

  0
STYLE
  5
D5
330
3
100
AcDbSymbolTableRecord
100
AcDbTextStyleTableRecord
  2
Label Text (ANSI)
 70
     0
 40
0.0
 41
1.0
 50
0.0
 71
     0
 42
0.2
  3
TAHOMA.TTF
  4

1001
ACAD
1000
Tahoma
1071
      256
  0
STYLE
  5
D6
330
3
100
AcDbSymbolTableRecord
100
AcDbTextStyleTableRecord
  2
Note Text (ANSI)
 70
     0
 40
0.0
 41
1.0
 50
0.0
 71
     0
 42
0.2
  3
TAHOMA.TTF
  4

1001
ACAD
1000
Tahoma
1071
      256
  0
STYLE
  5
D7
330
3
100
AcDbSymbolTableRecord
100
AcDbTextStyleTableRecord
  2
ROMANS
 70
     0
 40
0.0
 41
1.0
 50
0.0
 71
     0
 42
0.2
  3
romans.shx
  4

  0
STYLE
  5
D8
330
3
100
AcDbSymbolTableRecord
100
AcDbTextStyleTableRecord
  2
SANSSERIF_114
 70
     0
 40
0.0
 41
1.0
 50
0.0
 71
     0
 42
0.2
  3
TAHOMA.TTF
  4

1001
ACAD
1000
Tahoma
1071
      256
  0
STYLE
  5
D9
330
3
100
AcDbSymbolTableRecord
100
AcDbTextStyleTableRecord
  2
SANSSERIF_117
 70
     0
 40
0.0
 41
1.0
 50
0.0
 71
     0
 42
0.2
  3
TAHOMA.TTF
  4

1001
ACAD
1000
Tahoma
1071
      256
  0
STYLE
  5
DA
330
3
100
AcDbSymbolTableRecord
100
AcDbTextStyleTableRecord
  2
STANDARDAM_ANSI
 70
     0
 40
0.0
 41
1.0
 50
0.0
 71
     0
 42
0.2
  3
txt.shx
  4

  0
STYLE
  5
DB
330
3
100
AcDbSymbolTableRecord
100
AcDbTextStyleTableRecord
  2
StandardAM_ANSI$0
 70
     0
 40
0.0
 41
1.0
 50
0.0
 71
     0
 42
0.2
  3
txt.shx
  4

  0
STYLE
  5
DC
330
3
100
AcDbSymbolTableRecord
100
AcDbTextStyleTableRecord
  2
STANDARDAM_ANSI$3
 70
     0
 40
0.0
 41
1.0
 50
0.0
 71
     0
 42
0.2
  3
txt.shx
  4

  0
STYLE
  5
DD
330
3
100
AcDbSymbolTableRecord
100
AcDbTextStyleTableRecord
  2
STANDARDAM_ANSI$4
 70
     0
 40
0.0
 41
1.0
 50
0.0
 71
     0
 42
0.2
  3
txt.shx
  4

  0
STYLE
  5
DE
330
3
100
AcDbSymbolTableRecord
100
AcDbTextStyleTableRecord
  2
STANDARDAM_ANSI$7
 70
     0
 40
0.0
 41
1.0
 50
0.0
 71
     0
 42
0.2
  3
txt.shx
  4

  0
STYLE
  5
DF
330
3
100
AcDbSymbolTableRecord
100
AcDbTextStyleTableRecord
  2
STANDARDAM_ANSI$SF
 70
     0
 40
0.0
 41
1.0
 50
0.0
 71
     0
 42
0.2
  3
txt.shx
  4

  0
STYLE
  5
E0
330
3
100
AcDbSymbolTableRecord
100
AcDbTextStyleTableRecord
  2
STANDARDAM_ANSI$SH
 70
     0
 40
0.0
 41
1.0
 50
0.0
 71
     0
 42
0.2
  3
txt.shx
  4

  0
STYLE
  5
E1
330
3
100
AcDbSymbolTableRecord
100
AcDbTextStyleTableRecord
  2
STANDARDSTANDARD
 70
     0
 40
0.0
 41
1.0
 50
0.0
 71
     0
 42
0.2
  3
txt.shx
  4

  0
STYLE
  5
132
330
3
100
AcDbSymbolTableRecord
100
AcDbTextStyleTableRecord
  2
Text Style150
 70
     0
 40
0.0
 41
1.0
 50
0.0
 71
     0
 42
0.2
  3
TAHOMA.TTF
  4

1001
ACAD
1000
Tahoma
1071
      256
  0
ENDTAB
  0
TABLE
  2
VIEW
  5
6
330
0
100
AcDbSymbolTable
 70
     0
  0
ENDTAB
  0
TABLE
  2
UCS
  5
7
330
0
100
AcDbSymbolTable
 70
     0
  0
ENDTAB
  0
TABLE
  2
APPID
  5
9
330
0
100
AcDbSymbolTable
 70
     4
  0
APPID
  5
56
330
9
100
AcDbSymbolTableRecord
100
AcDbRegAppTableRecord
  2
ACAD
 70
     0
  0
APPID
  5
5E
330
9
100
AcDbSymbolTableRecord
100
AcDbRegAppTableRecord
  2
AcadAnnotative
 70
     0
  0
APPID
  5
789
330
9
100
AcDbSymbolTableRecord
100
AcDbRegAppTableRecord
  2
ACAD_DSTYLE_DIMRADIAL_EXTENSION
 70
     0
  0
APPID
  5
8C2
330
9
100
AcDbSymbolTableRecord
100
AcDbRegAppTableRecord
  2
ACAD_MLEADERVER
 70
     0
  0
ENDTAB
  0
TABLE
  2
DIMSTYLE
  5
A
330
0
100
AcDbSymbolTable
 70
    29
100
AcDbDimStyleTable
 71
     3
340
F6
340
58
340
F8
  0
DIMSTYLE
105
58
330
A
100
AcDbSymbolTableRecord
100
AcDbDimStyleTableRecord
  2
STANDARD
 70
     0
 41
0.1800000071525573
 42
0.0625
140
0.1800000071525574
144
1.0
147
0.0900000035762787
176
   256
177
   256
178
   256
274
     3
340
55
371
    -1
372
    -1
  0
DIMSTYLE
105
59
330
A
100
AcDbSymbolTableRecord
100
AcDbDimStyleTableRecord
  2
Annotative
 70
     0
340
55
1001
AcadAnnotative
1000
AnnotativeData
1002
{
1070
     1
1070
     1
1002
}
  0
DIMSTYLE
105
E2
330
A
100
AcDbSymbolTableRecord
100
AcDbDimStyleTableRecord
  2
AM_ANSI
 70
     0
  4
 mm
 40
2.0
 41
0.119999997317791
 42
0.05
 43
0.5
 44
0.1
 45
0.00000001
 78
     4
 79
     2
140
0.1200000047683716
146
0.7099999453624112
147
0.0599999986588955
176
   256
177
   256
178
     2
284
     4
340
DA
371
    -1
372
    -1
  0
DIMSTYLE
105
E3
330
A
100
AcDbSymbolTableRecord
100
AcDbDimStyleTableRecord
  2
AM_ANSI$7
 70
     0
  4
 mm
 40
2.0
 41
0.119999997317791
 42
0.05
 43
0.5
 44
0.1
 45
0.00000001
 78
     4
 79
     2
140
0.1200000047683716
146
0.7099999453624112
147
0.0599999986588955
176
   256
177
   256
178
     2
284
     4
340
DA
371
    -1
372
    -1
  0
DIMSTYLE
105
E4
330
A
100
AcDbSymbolTableRecord
100
AcDbDimStyleTableRecord
  2
AM_ANSI$0
 70
     0
  4
 mm
 40
2.0
 41
0.119999997317791
 42
0.05
 43
0.5
 44
0.1
 45
0.00000001
 78
     4
 79
     2
140
0.1200000047683716
146
0.7099999453624112
147
0.0599999986588955
176
   256
177
   256
178
     2
284
     4
340
DB
371
    -1
372
    -1
  0
DIMSTYLE
105
E5
330
A
100
AcDbSymbolTableRecord
100
AcDbDimStyleTableRecord
  2
AM_ANSI$0$7
 70
     0
  4
 mm
 40
2.0
 41
0.119999997317791
 42
0.05
 43
0.5
 44
0.1
 45
0.00000001
 78
     4
 79
     2
140
0.1200000047683716
146
0.7099999453624112
147
0.0599999986588955
176
   256
177
   256
178
     2
284
     4
340
DB
371
    -1
372
    -1
  0
DIMSTYLE
105
E6
330
A
100
AcDbSymbolTableRecord
100
AcDbDimStyleTableRecord
  2
AM_ANSI$3
 70
     0
  4
 mm
 40
2.0
 41
0.119999997317791
 42
0.05
 43
0.5
 44
0.1
 45
0.00000001
 78
     4
 79
     2
140
0.1200000047683716
146
0.7099999453624112
147
0.0599999986588955
176
   256
177
   256
178
     2
284
     4
340
DC
371
    -1
372
    -1
  0
DIMSTYLE
105
E7
330
A
100
AcDbSymbolTableRecord
100
AcDbDimStyleTableRecord
  2
AM_ANSI$3$7
 70
     0
  4
 mm
 40
2.0
 41
0.119999997317791
 42
0.05
 43
0.5
 44
0.1
 45
0.00000001
 78
     4
 79
     2
140
0.1200000047683716
146
0.7099999453624112
147
0.0599999986588955
176
   256
177
   256
178
     2
284
     4
340
DC
371
    -1
372
    -1
  0
DIMSTYLE
105
E8
330
A
100
AcDbSymbolTableRecord
100
AcDbDimStyleTableRecord
  2
AM_ANSI$4
 70
     0
  4
 mm
 40
2.0
 41
0.119999997317791
 42
0.05
 43
0.5
 44
0.1
 45
0.00000001
 78
     4
 79
     2
140
0.1200000047683716
146
0.7099999453624112
147
0.0599999986588955
176
   256
177
   256
178
     2
284
     4
340
DD
371
    -1
372
    -1
  0
DIMSTYLE
105
E9
330
A
100
AcDbSymbolTableRecord
100
AcDbDimStyleTableRecord
  2
AM_ANSI$4$7
 70
     0
  4
 mm
 40
2.0
 41
0.119999997317791
 42
0.05
 43
0.5
 44
0.1
 45
0.00000001
 78
     4
 79
     2
140
0.1200000047683716
146
0.7099999453624112
147
0.0599999986588955
176
   256
177
   256
178
     2
284
     4
340
DD
371
    -1
372
    -1
  0
DIMSTYLE
105
EA
330
A
100
AcDbSymbolTableRecord
100
AcDbDimStyleTableRecord
  2
AM_ANSI$SF
 70
     0
  4
 mm
 40
2.0
 41
0.119999997317791
 42
0.05
 43
0.5
 44
0.1
 45
0.00000001
 75
     1
 76
     1
 78
     4
 79
     2
140
0.1200000047683716
146
0.7099999453624112
147
0.0599999986588955
176
   256
177
   256
178
     2
284
     4
340
DF
371
    -1
372
    -1
  0
DIMSTYLE
105
EB
330
A
100
AcDbSymbolTableRecord
100
AcDbDimStyleTableRecord
  2
AM_ANSI$SF$7
 70
     0
  4
 mm
 40
2.0
 41
0.119999997317791
 42
0.05
 43
0.5
 44
0.1
 45
0.00000001
 75
     1
 76
     1
 78
     4
 79
     2
140
0.1200000047683716
146
0.7099999453624112
147
0.0599999986588955
176
   256
177
   256
178
     2
284
     4
340
DF
371
    -1
372
    -1
  0
DIMSTYLE
105
EC
330
A
100
AcDbSymbolTableRecord
100
AcDbDimStyleTableRecord
  2
AM_ANSI$SH
 70
     0
  4
 mm
 40
2.0
 41
0.119999997317791
 42
0.05
 43
0.5
 44
0.1
 45
0.00000001
 75
     1
 76
     1
 78
     4
 79
     2
140
0.1200000047683716
146
0.7099999453624112
147
0.0599999986588955
176
   256
177
   256
178
     2
284
     4
340
E0
371
    -1
372
    -1
  0
DIMSTYLE
105
ED
330
A
100
AcDbSymbolTableRecord
100
AcDbDimStyleTableRecord
  2
AM_ANSI$SH$7
 70
     0
  4
 mm
 40
2.0
 41
0.119999997317791
 42
0.05
 43
0.5
 44
0.1
 45
0.00000001
 75
     1
 76
     1
 78
     4
 79
     2
140
0.1200000047683716
146
0.7099999453624112
147
0.0599999986588955
176
   256
177
   256
178
     2
284
     4
340
E0
371
    -1
372
    -1
  0
DIMSTYLE
105
EE
330
A
100
AcDbSymbolTableRecord
100
AcDbDimStyleTableRecord
  2
Architectural (ANSI)
 70
     0
 40
2.0
 41
0.0984251946210861
 43
0.2362204724409449
 44
0.125
 45
0.00000001
 46
0.3937007874015748
 78
     3
 79
     3
140
0.1200000047683716
147
0.031496062992126
171
     1
176
   256
177
   256
178
   256
272
     2
274
     1
276
     2
277
     4
284
    12
285
     4
286
    12
340
D6
371
    -1
372
    -1
  0
DIMSTYLE
105
EF
330
A
100
AcDbSymbolTableRecord
100
AcDbDimStyleTableRecord
  2
Architectural (ANSI)$7
 70
     0
 40
2.0
 41
0.0984251946210861
 43
0.2362204724409449
 44
0.125
 45
0.00000001
 46
0.3937007874015748
 78
     3
 79
     3
140
0.1200000047683716
147
0.031496062992126
171
     1
176
   256
177
   256
178
   256
272
     2
274
     1
276
     2
277
     4
284
    12
285
     4
286
    12
340
D6
371
    -1
372
    -1
  0
DIMSTYLE
105
F0
330
A
100
AcDbSymbolTableRecord
100
AcDbDimStyleTableRecord
  2
Default - Fraction (ANSI)
 70
     0
 40
2.0
 41
0.0984251946210861
 43
0.2362204724409449
 44
0.125
 45
0.00000001
 46
0.3937007874015748
 79
     3
140
0.1200000047683716
147
0.031496062992126
171
     1
176
   256
177
   256
178
   256
272
     2
274
     1
276
     2
277
     5
284
    12
285
     4
286
    12
340
D6
371
    -1
372
    -1
  0
DIMSTYLE
105
F1
330
A
100
AcDbSymbolTableRecord
100
AcDbDimStyleTableRecord
  2
Default - Fraction (ANSI)$7
 70
     0
 40
2.0
 41
0.0984251946210861
 43
0.2362204724409449
 44
0.125
 45
0.00000001
 46
0.3937007874015748
 79
     3
140
0.1200000047683716
147
0.031496062992126
171
     1
176
   256
177
   256
178
   256
272
     2
274
     1
276
     2
277
     5
284
    12
285
     4
286
    12
340
D6
371
    -1
372
    -1
  0
DIMSTYLE
105
F2
330
A
100
AcDbSymbolTableRecord
100
AcDbDimStyleTableRecord
  2
Default - mm (ANSI)
 70
     0
 40
2.0
 41
0.0984251946210861
 42
0.063
 43
0.2362204724409449
 44
0.125
 45
0.00000001
 46
0.3937007874015748
 73
     0
 78
     4
 79
     1
140
0.1200000047683716
143
1.0
144
25.4
147
0.031496062992126
171
     1
176
   256
177
   256
178
   256
179
     1
271
     2
272
     2
274
     1
284
     4
285
     4
340
D6
371
    -1
372
    -1
  0
DIMSTYLE
105
F3
330
A
100
AcDbSymbolTableRecord
100
AcDbDimStyleTableRecord
  2
Default - mm (ANSI)$7
 70
     0
 40
2.0
 41
0.0984251946210861
 42
0.063
 43
0.2362204724409449
 44
0.125
 45
0.00000001
 46
0.3937007874015748
 73
     0
 78
     4
 79
     1
140
0.1200000047683716
143
1.0
144
25.4
147
0.031496062992126
171
     1
176
   256
177
   256
178
   256
179
     1
271
     2
272
     2
274
     1
284
     4
285
     4
340
D6
371
    -1
372
    -1
  0
DIMSTYLE
105
F4
330
A
100
AcDbSymbolTableRecord
100
AcDbDimStyleTableRecord
  2
Default - mm [in] (ANSI)
 70
     0
  4
 in
 40
2.0
 41
0.0984251946210861
 42
0.063
 43
0.25
 44
0.125
 45
0.00000001
 46
0.3937007874015748
 73
     0
 78
     4
 79
     1
140
0.1200000047683716
143
0.03937
144
25.4
147
0.031496062992126
170
     1
171
     3
176
   256
177
   256
178
   256
179
     1
271
     2
272
     2
274
     3
284
     4
285
     4
286
     4
340
D6
371
    -1
372
    -1
  0
DIMSTYLE
105
F5
330
A
100
AcDbSymbolTableRecord
100
AcDbDimStyleTableRecord
  2
Default - mm [in] (ANSI)$7
 70
     0
  4
 in
 40
2.0
 41
0.0984251946210861
 42
0.063
 43
0.25
 44
0.125
 45
0.00000001
 46
0.3937007874015748
 73
     0
 78
     4
 79
     1
140
0.1200000047683716
143
0.03937
144
25.4
147
0.031496062992126
170
     1
171
     3
176
   256
177
   256
178
   256
179
     1
271
     2
272
     2
274
     3
284
     4
285
     4
286
     4
340
D6
371
    -1
372
    -1
  0
DIMSTYLE
105
F6
102
{ACAD_REACTORS
330
527
330
611
330
6F0
330
7AA
102
}
330
A
100
AcDbSymbolTableRecord
100
AcDbDimStyleTableRecord
  2
Default (ANSI)
 70
     0
 40
2.0
 41
0.0984251946210861
 43
0.2362204724409449
 44
0.125
 45
0.00000001
 46
0.3937007874015748
 79
     1
140
0.1200000047683716
147
0.031496062992126
171
     1
176
   256
177
   256
178
   256
271
     3
272
     2
274
     1
284
     4
285
     4
340
D6
371
    -1
372
    -1
  0
DIMSTYLE
105
F7
330
A
100
AcDbSymbolTableRecord
100
AcDbDimStyleTableRecord
  2
Default (ANSI)$7
 70
     0
 40
2.0
 41
0.0984251946210861
 43
0.2362204724409449
 44
0.125
 45
0.00000001
 46
0.3937007874015748
 79
     1
140
0.1200000047683716
147
0.031496062992126
171
     1
176
   256
177
   256
178
   256
271
     3
272
     2
274
     1
284
     4
285
     4
340
D6
371
    -1
372
    -1
  0
DIMSTYLE
105
F8
102
{ACAD_REACTORS
330
143
330
22F
330
319
330
429
102
}
330
A
100
AcDbSymbolTableRecord
100
AcDbDimStyleTableRecord
  2
Default (ANSI)-01
 70
     0
 40
2.0
 41
0.0984251946210861
 43
0.2362204724409449
 44
0.125
 45
0.00000001
 46
0.3937007874015748
 79
     1
140
0.1200000047683716
147
0.031496062992126
171
     1
176
   256
177
   256
178
   256
271
     2
272
     2
274
     1
284
     4
285
     4
340
D6
371
    -1
372
    -1
  0
DIMSTYLE
105
F9
330
A
100
AcDbSymbolTableRecord
100
AcDbDimStyleTableRecord
  2
Default (ANSI)-01$7
 70
     0
 40
2.0
 41
0.0984251946210861
 43
0.2362204724409449
 44
0.125
 45
0.00000001
 46
0.3937007874015748
 79
     1
140
0.1200000047683716
147
0.031496062992126
171
     1
176
   256
177
   256
178
   256
271
     2
272
     2
274
     1
284
     4
285
     4
340
D6
371
    -1
372
    -1
  0
DIMSTYLE
105
FA
330
A
100
AcDbSymbolTableRecord
100
AcDbDimStyleTableRecord
  2
Alternate (ANSI)
 70
     0
 40
2.0
 41
0.0979999974370003
340
55
342
FB
  0
DIMSTYLE
105
10D
330
A
100
AcDbSymbolTableRecord
100
AcDbDimStyleTableRecord
  2
Datum (ANSI)
 70
     0
 40
2.0
 41
0.0979999974370003
340
55
342
FB
  0
DIMSTYLE
105
11C
330
A
100
AcDbSymbolTableRecord
100
AcDbDimStyleTableRecord
  2
Large (ANSI)
 70
     0
 40
2.0
 41
0.1959999948740005
340
55
342
FB
  0
ENDTAB
  0
TABLE
  2
BLOCK_RECORD
  5
1
330
0
100
AcDbSymbolTable
 70
    12
  0
BLOCK_RECORD
  5
6C
330
1
100
AcDbSymbolTableRecord
100
AcDbBlockTableRecord
  2
*Model_Space
340
6F
  0
BLOCK_RECORD
  5
68
330
1
100
AcDbSymbolTableRecord
100
AcDbBlockTableRecord
  2
*Paper_Space
340
6B
  0
BLOCK_RECORD
  5
70
330
1
100
AcDbSymbolTableRecord
100
AcDbBlockTableRecord
  2
*Paper_Space0
340
73
  0
BLOCK_RECORD
  5
FB
330
1
100
AcDbSymbolTableRecord
100
AcDbBlockTableRecord
  2
_Closed
340
0
  0
BLOCK_RECORD
  5
102
330
1
100
AcDbSymbolTableRecord
100
AcDbBlockTableRecord
  2
DatumFilled45
340
0
  0
BLOCK_RECORD
  5
10E
330
1
100
AcDbSymbolTableRecord
100
AcDbBlockTableRecord
  2
Filled-1
340
0
  0
BLOCK_RECORD
  5
146
330
1
100
AcDbSymbolTableRecord
100
AcDbBlockTableRecord
  2
*D4
340
0
  0
BLOCK_RECORD
  5
230
330
1
100
AcDbSymbolTableRecord
100
AcDbBlockTableRecord
  2
*D5
340
0
  0
BLOCK_RECORD
  5
31A
330
1
100
AcDbSymbolTableRecord
100
AcDbBlockTableRecord
  2
*D6
340
0
  0
BLOCK_RECORD
  5
42A
330
1
100
AcDbSymbolTableRecord
100
AcDbBlockTableRecord
  2
*D7
340
0
  0
BLOCK_RECORD
  5
528
330
1
100
AcDbSymbolTableRecord
100
AcDbBlockTableRecord
  2
*D8
340
0
  0
BLOCK_RECORD
  5
612
330
1
100
AcDbSymbolTableRecord
100
AcDbBlockTableRecord
  2
*D9
340
0
  0
BLOCK_RECORD
  5
6F1
330
1
100
AcDbSymbolTableRecord
100
AcDbBlockTableRecord
  2
*D10
340
0
  0
BLOCK_RECORD
  5
7AB
330
1
100
AcDbSymbolTableRecord
100
AcDbBlockTableRecord
  2
*D11
340
0
  0
ENDTAB
  0
ENDSEC
  0
SECTION
  2
BLOCKS
  0
BLOCK
  5
6D
330
6C
100
AcDbEntity
  8
0
100
AcDbBlockBegin
  2
*Model_Space
 70
     0
 10
0.0
 20
0.0
 30
0.0
  3
*Model_Space
  1

  0
ENDBLK
  5
6E
330
6C
100
AcDbEntity
  8
0
100
AcDbBlockEnd
  0
BLOCK
  5
69
330
68
100
AcDbEntity
 67
     1
  8
0
100
AcDbBlockBegin
  2
*Paper_Space
 70
     0
 10
0.0
 20
0.0
 30
0.0
  3
*Paper_Space
  1

  0
ENDBLK
  5
6A
330
68
100
AcDbEntity
 67
     1
  8
0
100
AcDbBlockEnd
  0
BLOCK
  5
71
330
70
100
AcDbEntity
 67
     1
  8
0
100
AcDbBlockBegin
  2
*Paper_Space0
 70
     0
 10
0.0
 20
0.0
 30
0.0
  3
*Paper_Space0
  1

  0
ENDBLK
  5
72
330
70
100
AcDbEntity
 67
     1
  8
0
100
AcDbBlockEnd
  0
BLOCK
  5
100
330
FB
100
AcDbEntity
  8
0
100
AcDbBlockBegin
  2
_Closed
 70
     0
 10
0.0
 20
0.0
 30
0.0
  3
_Closed
  1

  0
LINE
  5
FC
330
FB
100
AcDbEntity
  8
0
  6
ByBlock
 62
     0
370
    -2
100
AcDbLine
 10
-1.0
 20
0.1666666666666666
 30
0.0
 11
0.0
 21
0.0
 31
0.0
  0
LINE
  5
FD
330
FB
100
AcDbEntity
  8
0
  6
ByBlock
 62
     0
370
    -2
100
AcDbLine
 10
0.0
 20
0.0
 30
0.0
 11
-1.0
 21
-0.1666666666666666
 31
0.0
  0
LINE
  5
FE
330
FB
100
AcDbEntity
  8
0
  6
ByBlock
 62
     0
370
    -2
100
AcDbLine
 10
-1.0
 20
0.1666666666666666
 30
0.0
 11
-1.0
 21
-0.1666666666666666
 31
0.0
  0
LINE
  5
FF
330
FB
100
AcDbEntity
  8
0
  6
ByBlock
 62
     0
370
    -2
100
AcDbLine
 10
0.0
 20
0.0
 30
0.0
 11
-1.0
 21
0.0
 31
0.0
  0
ENDBLK
  5
101
330
FB
100
AcDbEntity
  8
0
100
AcDbBlockEnd
  0
BLOCK
  5
103
330
102
100
AcDbEntity
  8
0
100
AcDbBlockBegin
  2
DatumFilled45
 70
     0
 10
0.0
 20
0.0
 30
0.0
  3
DatumFilled45
  1

  0
POLYLINE
  5
105
330
102
100
AcDbEntity
  8
0
 62
     0
100
AcDb2dPolyline
 66
     1
 10
0.0
 20
0.0
 30
0.0
 70
   128
  0
VERTEX
  5
106
330
105
100
AcDbEntity
  8
0
 62
     0
100
AcDbVertex
100
AcDb2dVertex
 10
0.0
 20
0.9999999999999998
 30
0.0
  0
VERTEX
  5
107
330
105
100
AcDbEntity
  8
0
 62
     0
100
AcDbVertex
100
AcDb2dVertex
 10
0.0
 20
-0.9999999999999998
 30
0.0
  0
VERTEX
  5
109
330
105
100
AcDbEntity
  8
0
 62
     0
100
AcDbVertex
100
AcDb2dVertex
 10
-0.9999999999999998
 20
0.0
 30
0.0
  0
VERTEX
  5
10A
330
105
100
AcDbEntity
  8
0
 62
     0
100
AcDbVertex
100
AcDb2dVertex
 10
0.0
 20
0.9999999999999998
 30
0.0
  0
SEQEND
  5
108
330
105
100
AcDbEntity
  8
0
 62
     0
  0
SOLID
  5
10C
330
102
100
AcDbEntity
  8
0
 62
     0
100
AcDbTrace
 10
0.0
 20
0.9999999999999998
 30
0.0
 11
0.0
 21
-0.9999999999999998
 31
0.0
 12
-0.9999999999999998
 22
0.0
 32
0.0
 13
0.0
 23
0.9999999999999998
 33
0.0
  0
ENDBLK
  5
104
330
102
100
AcDbEntity
  8
0
100
AcDbBlockEnd
  0
BLOCK
  5
10F
330
10E
100
AcDbEntity
  8
0
100
AcDbBlockBegin
  2
Filled-1
 70
     0
 10
0.0
 20
0.0
 30
0.0
  3
Filled-1
  1

  0
LINE
  5
111
330
10E
100
AcDbEntity
  8
0
 62
     0
100
AcDbLine
 10
-0.9999999999999998
 20
0.0
 30
0.0
 11
0.0
 21
0.0
 31
0.0
  0
POLYLINE
  5
112
330
10E
100
AcDbEntity
  8
0
 62
     0
100
AcDb2dPolyline
 66
     1
 10
0.0
 20
0.0
 30
0.0
 70
   128
  0
VERTEX
  5
113
330
112
100
AcDbEntity
  8
0
 62
     0
100
AcDbVertex
100
AcDb2dVertex
 10
-0.9999999999999998
 20
-0.0994897959183674
 30
0.0
  0
VERTEX
  5
114
330
112
100
AcDbEntity
  8
0
 62
     0
100
AcDbVertex
100
AcDb2dVertex
 10
0.0
 20
0.0
 30
0.0
  0
VERTEX
  5
116
330
112
100
AcDbEntity
  8
0
 62
     0
100
AcDbVertex
100
AcDb2dVertex
 10
-0.9999999999999998
 20
0.0994897959183674
 30
0.0
  0
VERTEX
  5
117
330
112
100
AcDbEntity
  8
0
 62
     0
100
AcDbVertex
100
AcDb2dVertex
 10
-0.9999999999999998
 20
-0.0994897959183674
 30
0.0
  0
SEQEND
  5
115
330
112
100
AcDbEntity
  8
0
 62
     0
  0
SOLID
  5
118
330
10E
100
AcDbEntity
  8
0
 62
     0
100
AcDbTrace
 10
-0.9999999999999998
 20
-0.0994897959183674
 30
0.0
 11
0.0
 21
0.0
 31
0.0
 12
-0.9999999999999998
 22
0.0994897959183674
 32
0.0
 13
-0.9999999999999998
 23
-0.0994897959183674
 33
0.0
  0
LINE
  5
119
330
10E
100
AcDbEntity
  8
0
 62
     0
100
AcDbLine
 10
-0.9999999999999998
 20
-0.0994897959183674
 30
0.0
 11
0.0
 21
0.0
 31
0.0
  0
LINE
  5
11A
330
10E
100
AcDbEntity
  8
0
 62
     0
100
AcDbLine
 10
0.0
 20
0.0
 30
0.0
 11
-0.9999999999999998
 21
0.0994897959183674
 31
0.0
  0
LINE
  5
11B
330
10E
100
AcDbEntity
  8
0
 62
     0
100
AcDbLine
 10
-0.9999999999999998
 20
0.0994897959183674
 30
0.0
 11
-0.9999999999999998
 21
-0.0994897959183674
 31
0.0
  0
ENDBLK
  5
110
330
10E
100
AcDbEntity
  8
0
100
AcDbBlockEnd
  0
BLOCK
  5
147
330
146
100
AcDbEntity
  8
0
100
AcDbBlockBegin
  2
*D4
 70
     1
 10
0.0
 20
0.0
 30
0.0
  3
*D4
  1

  0
LINE
  5
225
330
146
100
AcDbEntity
  8
Dimension (ANSI)
100
AcDbLine
 10
12.06330065014928
 20
6.991898755833052
 30
0.0
 11
12.06330065014928
 21
4.396955275956936
 31
0.0
  0
LINE
  5
226
330
146
100
AcDbEntity
  8
Dimension (ANSI)
100
AcDbLine
 10
5.183300650149277
 20
6.991898755833052
 30
0.0
 11
5.183300650149277
 21
4.396955275956936
 31
0.0
  0
LINE
  5
227
330
146
100
AcDbEntity
  8
Dimension (ANSI)
100
AcDbLine
 10
11.8664502609071
 20
4.646955275956936
 30
0.0
 11
8.993747455912801
 21
4.646955275956936
 31
0.0
  0
LINE
  5
228
330
146
100
AcDbEntity
  8
Dimension (ANSI)
100
AcDbLine
 10
5.380151039391449
 20
4.646955275956936
 30
0.0
 11
8.252853844385752
 21
4.646955275956936
 31
0.0
  0
SOLID
  5
229
330
146
100
AcDbEntity
  8
Dimension (ANSI)
100
AcDbTrace
 10
11.8664502609071
 20
4.679763674163964
 30
0.0
 11
11.8664502609071
 21
4.614146877749908
 31
0.0
 12
12.06330065014928
 22
4.646955275956936
 32
0.0
 13
12.06330065014928
 23
4.646955275956936
 33
0.0
  0
SOLID
  5
22A
330
146
100
AcDbEntity
  8
Dimension (ANSI)
100
AcDbTrace
 10
5.380151039391449
 20
4.679763674163964
 30
0.0
 11
5.380151039391449
 21
4.614146877749908
 31
0.0
 12
5.183300650149277
 22
4.646955275956936
 32
0.0
 13
5.183300650149277
 23
4.646955275956936
 33
0.0
  0
MTEXT
  5
22B
330
146
100
AcDbEntity
  8
Dimension (ANSI)
100
AcDbMText
 10
8.315845970370004
 20
4.772435468988739
 30
0.0
 40
0.2400000095367432
 41
0.0
 71
     1
 72
     1
  1
\A1;6.88
  7
Note Text (ANSI)
 73
     1
 44
1.0
1001
ACAD
1000
MTEXTBEGIN
1070
    73
1070
     1
1070
    44
1040
1.0
1070
    74
1070
     0
1000
MTEXTEND
  0
POINT
  5
22C
330
146
100
AcDbEntity
  8
Defpoints
 62
     0
100
AcDbPoint
 10
12.06330065014928
 20
7.116898755833052
 30
0.0
  0
POINT
  5
22D
330
146
100
AcDbEntity
  8
Defpoints
 62
     0
100
AcDbPoint
 10
5.183300650149277
 20
7.116898755833052
 30
0.0
  0
POINT
  5
22E
330
146
100
AcDbEntity
  8
Defpoints
 62
     0
100
AcDbPoint
 10
5.183300650149277
 20
4.646955275956936
 30
0.0
  0
ENDBLK
  5
148
330
146
100
AcDbEntity
  8
0
100
AcDbBlockEnd
  0
BLOCK
  5
231
330
230
100
AcDbEntity
  8
0
100
AcDbBlockBegin
  2
*D5
 70
     1
 10
0.0
 20
0.0
 30
0.0
  3
*D5
  1

  0
LINE
  5
30F
330
230
100
AcDbEntity
  8
Dimension (ANSI)
100
AcDbLine
 10
5.058300650149278
 20
7.116898755833052
 30
0.0
 11
3.409244923869489
 21
7.116898755833052
 31
0.0
  0
LINE
  5
310
330
230
100
AcDbEntity
  8
Dimension (ANSI)
100
AcDbLine
 10
5.058300650149273
 20
19.99689875583305
 30
0.0
 11
3.409244923869492
 21
19.99689875583305
 31
0.0
  0
LINE
  5
311
330
230
100
AcDbEntity
  8
Dimension (ANSI)
100
AcDbLine
 10
3.659244923869489
 20
7.313749145075224
 30
0.0
 11
3.65924492386949
 21
13.368426436817
 31
0.0
  0
LINE
  5
312
330
230
100
AcDbEntity
  8
Dimension (ANSI)
100
AcDbLine
 10
3.659244923869492
 20
19.80004836659088
 30
0.0
 11
3.65924492386949
 21
13.74537107484911
 31
0.0
  0
SOLID
  5
313
330
230
100
AcDbEntity
  8
Dimension (ANSI)
100
AcDbTrace
 10
3.62643652566246
 20
7.313749145075224
 30
0.0
 11
3.692053322076518
 21
7.313749145075224
 31
0.0
 12
3.659244923869489
 22
7.116898755833052
 32
0.0
 13
3.659244923869489
 23
7.116898755833052
 33
0.0
  0
SOLID
  5
314
330
230
100
AcDbEntity
  8
Dimension (ANSI)
100
AcDbTrace
 10
3.626436525662463
 20
19.80004836659088
 30
0.0
 11
3.692053322076521
 21
19.80004836659088
 31
0.0
 12
3.659244923869492
 22
19.99689875583305
 32
0.0
 13
3.659244923869492
 23
19.99689875583305
 33
0.0
  0
MTEXT
  5
315
330
230
100
AcDbEntity
  8
Dimension (ANSI)
100
AcDbMText
 10
3.273052833305326
 20
13.68237894886485
 30
0.0
 40
0.2400000095367432
 41
0.0
 71
     1
 72
     1
  1
\A1;12.88
  7
Note Text (ANSI)
 73
     1
 44
1.0
1001
ACAD
1000
MTEXTBEGIN
1070
    73
1070
     1
1070
    44
1040
1.0
1070
    74
1070
     0
1000
MTEXTEND
  0
POINT
  5
316
330
230
100
AcDbEntity
  8
Defpoints
 62
     0
100
AcDbPoint
 10
5.183300650149278
 20
7.116898755833052
 30
0.0
  0
POINT
  5
317
330
230
100
AcDbEntity
  8
Defpoints
 62
     0
100
AcDbPoint
 10
5.183300650149273
 20
19.99689875583305
 30
0.0
  0
POINT
  5
318
330
230
100
AcDbEntity
  8
Defpoints
 62
     0
100
AcDbPoint
 10
3.659244923869492
 20
19.99689875583305
 30
0.0
  0
ENDBLK
  5
232
330
230
100
AcDbEntity
  8
0
100
AcDbBlockEnd
  0
BLOCK
  5
31B
330
31A
100
AcDbEntity
  8
0
100
AcDbBlockBegin
  2
*D6
 70
     1
 10
0.0
 20
0.0
 30
0.0
  3
*D6
  1

  0
LINE
  5
41E
330
31A
100
AcDbEntity
  8
Dimension (ANSI)
100
AcDbLine
 10
5.058300650149277
 20
7.116898755833052
 30
0.0
 11
4.722786599812831
 21
7.116898755833052
 31
0.0
  0
LINE
  5
41F
330
31A
100
AcDbEntity
  8
Dimension (ANSI)
100
AcDbLine
 10
5.230800650149276
 20
7.429898755833051
 30
0.0
 11
4.722786599812831
 21
7.429898755833051
 31
0.0
  0
LINE
  5
420
330
31A
100
AcDbEntity
  8
Dimension (ANSI)
100
AcDbLine
 10
4.972786599812831
 20
7.626749145075224
 30
0.0
 11
4.972786599812831
 21
7.823599534317396
 31
0.0
  0
LINE
  5
421
330
31A
100
AcDbEntity
  8
Dimension (ANSI)
100
AcDbLine
 10
4.972786599812831
 20
6.920048366590879
 30
0.0
 11
4.972786599812831
 21
6.340724442098729
 31
0.0
  0
LINE
  5
422
330
31A
100
AcDbEntity
  8
Dimension (ANSI)
100
AcDbLine
 10
4.972786599812831
 20
6.340724442098729
 30
0.0
 11
4.775936210570659
 21
6.340724442098729
 31
0.0
  0
SOLID
  5
423
330
31A
100
AcDbEntity
  8
Dimension (ANSI)
100
AcDbTrace
 10
4.939978201605803
 20
7.626749145075224
 30
0.0
 11
5.005594998019859
 21
7.626749145075224
 31
0.0
 12
4.972786599812831
 22
7.429898755833051
 32
0.0
 13
4.972786599812831
 23
7.429898755833051
 33
0.0
  0
SOLID
  5
424
330
31A
100
AcDbEntity
  8
Dimension (ANSI)
100
AcDbTrace
 10
4.939978201605803
 20
6.920048366590879
 30
0.0
 11
5.005594998019859
 21
6.920048366590879
 31
0.0
 12
4.972786599812831
 22
7.116898755833052
 32
0.0
 13
4.972786599812831
 23
7.116898755833052
 33
0.0
  0
MTEXT
  5
425
330
31A
100
AcDbEntity
  8
Dimension (ANSI)
100
AcDbMText
 10
4.395899075346127
 20
6.34072444209873
 30
0.0
 40
0.2400000095367432
 41
0.0
 71
     5
 72
     1
  1
\A1;0.31{\PTYP.}
  7
Note Text (ANSI)
 73
     1
 44
1.0
1001
ACAD
1000
MTEXTBEGIN
1070
    73
1070
     1
1070
    44
1040
1.0
1070
    74
1070
     0
1000
MTEXTEND
  0
POINT
  5
426
330
31A
100
AcDbEntity
  8
Defpoints
 62
     0
100
AcDbPoint
 10
5.183300650149277
 20
7.116898755833052
 30
0.0
  0
POINT
  5
427
330
31A
100
AcDbEntity
  8
Defpoints
 62
     0
100
AcDbPoint
 10
5.355800650149276
 20
7.429898755833051
 30
0.0
  0
POINT
  5
428
330
31A
100
AcDbEntity
  8
Defpoints
 62
     0
100
AcDbPoint
 10
4.972786599812831
 20
7.429898755833051
 30
0.0
  0
ENDBLK
  5
31C
330
31A
100
AcDbEntity
  8
0
100
AcDbBlockEnd
  0
BLOCK
  5
42B
330
42A
100
AcDbEntity
  8
0
100
AcDbBlockBegin
  2
*D7
 70
     1
 10
0.0
 20
0.0
 30
0.0
  3
*D7
  1

  0
LINE
  5
51D
330
42A
100
AcDbEntity
  8
Dimension (ANSI)
100
AcDbLine
 10
5.183300650149278
 20
6.991898755833052
 30
0.0
 11
5.183300650149278
 21
5.134615291266122
 31
0.0
  0
LINE
  5
51E
330
42A
100
AcDbEntity
  8
Dimension (ANSI)
100
AcDbLine
 10
5.496300650149277
 20
7.195898755833052
 30
0.0
 11
5.496300650149277
 21
5.134615291266122
 31
0.0
  0
LINE
  5
51F
330
42A
100
AcDbEntity
  8
Dimension (ANSI)
100
AcDbLine
 10
5.693151039391449
 20
5.384615291266122
 30
0.0
 11
5.890001428633621
 21
5.384615291266122
 31
0.0
  0
LINE
  5
520
330
42A
100
AcDbEntity
  8
Dimension (ANSI)
100
AcDbLine
 10
4.986450260907106
 20
5.384615291266122
 30
0.0
 11
4.789599871664933
 21
5.384615291266122
 31
0.0
  0
SOLID
  5
521
330
42A
100
AcDbEntity
  8
Dimension (ANSI)
100
AcDbTrace
 10
5.693151039391449
 20
5.41742368947315
 30
0.0
 11
5.693151039391449
 21
5.351806893059094
 31
0.0
 12
5.496300650149277
 22
5.384615291266122
 32
0.0
 13
5.496300650149277
 23
5.384615291266122
 33
0.0
  0
SOLID
  5
522
330
42A
100
AcDbEntity
  8
Dimension (ANSI)
100
AcDbTrace
 10
4.986450260907106
 20
5.41742368947315
 30
0.0
 11
4.986450260907106
 21
5.351806893059094
 31
0.0
 12
5.183300650149278
 22
5.384615291266122
 32
0.0
 13
5.183300650149278
 23
5.384615291266122
 33
0.0
  0
MTEXT
  5
523
330
42A
100
AcDbEntity
  8
Dimension (ANSI)
100
AcDbMText
 10
4.409562736440403
 20
5.384615291266122
 30
0.0
 40
0.2400000095367432
 41
0.0
 71
     5
 72
     1
  1
\A1;0.31{\PTYP.}
  7
Note Text (ANSI)
 73
     1
 44
1.0
1001
ACAD
1000
MTEXTBEGIN
1070
    73
1070
     1
1070
    44
1040
1.0
1070
    74
1070
     0
1000
MTEXTEND
  0
POINT
  5
524
330
42A
100
AcDbEntity
  8
Defpoints
 62
     0
100
AcDbPoint
 10
5.183300650149278
 20
7.116898755833052
 30
0.0
  0
POINT
  5
525
330
42A
100
AcDbEntity
  8
Defpoints
 62
     0
100
AcDbPoint
 10
5.496300650149277
 20
7.320898755833052
 30
0.0
  0
POINT
  5
526
330
42A
100
AcDbEntity
  8
Defpoints
 62
     0
100
AcDbPoint
 10
5.496300650149277
 20
5.384615291266122
 30
0.0
  0
ENDBLK
  5
42C
330
42A
100
AcDbEntity
  8
0
100
AcDbBlockEnd
  0
BLOCK
  5
529
330
528
100
AcDbEntity
  8
0
100
AcDbBlockBegin
  2
*D8
 70
     1
 10
0.0
 20
0.0
 30
0.0
  3
*D8
  1

  0
LINE
  5
607
330
528
100
AcDbEntity
  8
Dimension (ANSI)
100
AcDbLine
 10
5.496300650149278
 20
7.195898755833052
 30
0.0
 11
5.496300650149278
 21
5.134615291266122
 31
0.0
  0
LINE
  5
608
330
528
100
AcDbEntity
  8
Dimension (ANSI)
100
AcDbLine
 10
6.496300650149277
 20
7.17989875583305
 30
0.0
 11
6.496300650149277
 21
5.134615291266122
 31
0.0
  0
LINE
  5
609
330
528
100
AcDbEntity
  8
Dimension (ANSI)
100
AcDbLine
 10
5.69315103939145
 20
5.384615291266122
 30
0.0
 11
6.299450260907105
 21
5.384615291266122
 31
0.0
  0
LINE
  5
60A
330
528
100
AcDbEntity
  8
Dimension (ANSI)
100
AcDbLine
 10
6.496300650149277
 20
5.384615291266122
 30
0.0
 11
6.852085550966743
 21
5.384615291266122
 31
0.0
  0
SOLID
  5
60B
330
528
100
AcDbEntity
  8
Dimension (ANSI)
100
AcDbTrace
 10
5.69315103939145
 20
5.41742368947315
 30
0.0
 11
5.69315103939145
 21
5.351806893059094
 31
0.0
 12
5.496300650149278
 22
5.384615291266122
 32
0.0
 13
5.496300650149278
 23
5.384615291266122
 33
0.0
  0
SOLID
  5
60C
330
528
100
AcDbEntity
  8
Dimension (ANSI)
100
AcDbTrace
 10
6.299450260907105
 20
5.41742368947315
 30
0.0
 11
6.299450260907105
 21
5.351806893059094
 31
0.0
 12
6.496300650149277
 22
5.384615291266122
 32
0.0
 13
6.496300650149277
 23
5.384615291266122
 33
0.0
  0
MTEXT
  5
60D
330
528
100
AcDbEntity
  8
Dimension (ANSI)
100
AcDbMText
 10
6.915077676950994
 20
5.509531347270807
 30
0.0
 40
0.2400000095367432
 41
0.0
 71
     1
 72
     1
  1
\A1;1.000
  7
Note Text (ANSI)
 73
     1
 44
1.0
1001
ACAD
1000
MTEXTBEGIN
1070
    73
1070
     1
1070
    44
1040
1.0
1070
    74
1070
     0
1000
MTEXTEND
  0
POINT
  5
60E
330
528
100
AcDbEntity
  8
Defpoints
 62
     0
100
AcDbPoint
 10
5.496300650149278
 20
7.320898755833052
 30
0.0
  0
POINT
  5
60F
330
528
100
AcDbEntity
  8
Defpoints
 62
     0
100
AcDbPoint
 10
6.496300650149277
 20
7.30489875583305
 30
0.0
  0
POINT
  5
610
330
528
100
AcDbEntity
  8
Defpoints
 62
     0
100
AcDbPoint
 10
6.496300650149277
 20
5.384615291266122
 30
0.0
  0
ENDBLK
  5
52A
330
528
100
AcDbEntity
  8
0
100
AcDbBlockEnd
  0
BLOCK
  5
613
330
612
100
AcDbEntity
  8
0
100
AcDbBlockBegin
  2
*D9
 70
     1
 10
0.0
 20
0.0
 30
0.0
  3
*D9
  1

  0
LINE
  5
6E8
330
612
100
AcDbEntity
  8
Dimension (ANSI)
100
AcDbLine
 10
19.25885184318616
 20
15.46335544874644
 30
0.0
 11
19.06200145394399
 21
15.46335544874644
 31
0.0
  0
LINE
  5
6E9
330
612
100
AcDbEntity
  8
Dimension (ANSI)
100
AcDbLine
 10
19.72655262167051
 20
15.46335544874644
 30
0.0
 11
20.46710982217264
 21
15.46335544874644
 31
0.0
  0
SOLID
  5
6EA
330
612
100
AcDbEntity
  8
Dimension (ANSI)
100
AcDbTrace
 10
19.25885184318616
 20
15.49616384695347
 30
0.0
 11
19.25885184318616
 21
15.43054705053941
 31
0.0
 12
19.45570223242833
 22
15.46335544874644
 32
0.0
 13
19.45570223242833
 23
15.46335544874644
 33
0.0
  0
SOLID
  5
6EB
330
612
100
AcDbEntity
  8
Dimension (ANSI)
100
AcDbTrace
 10
19.72655262167051
 20
15.49616384695347
 30
0.0
 11
19.72655262167051
 21
15.43054705053941
 31
0.0
 12
19.52970223242833
 22
15.46335544874644
 32
0.0
 13
19.52970223242833
 23
15.46335544874644
 33
0.0
  0
MTEXT
  5
6EC
330
612
100
AcDbEntity
  8
Dimension (ANSI)
100
AcDbMText
 10
20.53010194815689
 20
15.58786854973175
 30
0.0
 40
0.2400000095367432
 41
0.0
 71
     1
 72
     1
  1
\A1; 14 GA.
  7
Note Text (ANSI)
 73
     1
 44
1.0
1001
ACAD
1000
MTEXTBEGIN
1070
    73
1070
     1
1070
    44
1040
1.0
1070
    74
1070
     0
1000
MTEXTEND
  0
POINT
  5
6ED
330
612
100
AcDbEntity
  8
Defpoints
 62
     0
100
AcDbPoint
 10
19.90339773351723
 20
7.116898755833052
 30
0.0
  0
POINT
  5
6EE
330
612
100
AcDbEntity
  8
Defpoints
 62
     0
100
AcDbPoint
 10
19.82939773351723
 20
7.11689875583305
 30
0.0
  0
POINT
  5
6EF
330
612
100
AcDbEntity
  8
Defpoints
 62
     0
100
AcDbPoint
 10
19.45570223242833
 20
15.46335544874644
 30
0.0
  0
ENDBLK
  5
614
330
612
100
AcDbEntity
  8
0
100
AcDbBlockEnd
  0
BLOCK
  5
6F2
330
6F1
100
AcDbEntity
  8
0
100
AcDbBlockBegin
  2
*D10
 70
     1
 10
0.0
 20
0.0
 30
0.0
  3
*D10
  1

  0
LINE
  5
7A2
330
6F1
100
AcDbEntity
  8
Dimension (ANSI)
100
AcDbLine
 10
8.618598085777215
 20
6.738991967811224
 30
0.0
 11
8.421747696535042
 21
6.738991967811225
 31
0.0
  0
LINE
  5
7A3
330
6F1
100
AcDbEntity
  8
Dimension (ANSI)
100
AcDbLine
 10
8.421747696535042
 20
6.738991967811225
 30
0.0
 11
6.799238494168427
 21
7.321195785697153
 31
0.0
  0
MTEXT
  5
7A4
102
{ACAD_XDICTIONARY
360
8C9
102
}
330
6F1
100
AcDbEntity
  8
Dimension (ANSI)
100
AcDbMText
 10
8.681590211761465
 20
6.917295086604434
 30
0.0
 40
0.2400000095367432
 41
0.0
 71
     1
 72
     1
  1
\A1;\U+22050.250{\PGROUND\P HOLE}
  7
Note Text (ANSI)
 73
     1
 44
1.0
1001
ACAD
1000
MTEXTBEGIN
1070
    73
1070
     1
1070
    44
1040
1.0
1070
    74
1070
     0
1000
MTEXTEND
  0
SOLID
  5
7A5
330
6F1
100
AcDbEntity
  8
Dimension (ANSI)
100
AcDbTrace
 10
6.810319326908455
 20
7.352076299596673
 30
0.0
 11
6.7881576614284
 21
7.290315271797631
 31
0.0
 12
6.613955410771303
 22
7.387680782137319
 32
0.0
 13
6.613955410771303
 23
7.387680782137319
 33
0.0
  0
LINE
  5
7A6
330
6F1
100
AcDbEntity
  8
Dimension (ANSI)
100
AcDbLine
 10
6.316300650149278
 20
7.429898755833052
 30
0.0
 11
6.676300650149277
 21
7.429898755833053
 31
0.0
  0
LINE
  5
7A7
330
6F1
100
AcDbEntity
  8
Dimension (ANSI)
100
AcDbLine
 10
6.496300650149278
 20
7.249898755833051
 30
0.0
 11
6.496300650149278
 21
7.609898755833052
 31
0.0
  0
POINT
  5
7A8
330
6F1
100
AcDbEntity
  8
Defpoints
 62
     0
100
AcDbPoint
 10
6.613955410771303
 20
7.387680782137319
 30
0.0
  0
POINT
  5
7A9
330
6F1
100
AcDbEntity
  8
Defpoints
 62
     0
100
AcDbPoint
 10
6.378645889527252
 20
7.472116729528785
 30
0.0
  0
ENDBLK
  5
6F3
330
6F1
100
AcDbEntity
  8
0
100
AcDbBlockEnd
  0
BLOCK
  5
7AC
330
7AB
100
AcDbEntity
  8
0
100
AcDbBlockBegin
  2
*D11
 70
     1
 10
0.0
 20
0.0
 30
0.0
  3
*D11
  1

  0
LINE
  5
847
330
7AB
100
AcDbEntity
  8
Dimension (ANSI)
100
AcDbLine
 10
12.47029762475832
 20
8.275708348619049
 30
0.0
 11
12.2727731996448
 21
8.275708348619051
 31
0.0
  0
LINE
  5
848
330
7AB
100
AcDbEntity
  8
Dimension (ANSI)
100
AcDbLine
 10
12.2727731996448
 20
8.275708348619051
 30
0.0
 11
11.93534561775353
 21
7.694414168470951
 31
0.0
  0
MTEXT
  5
849
330
7AB
100
AcDbEntity
  8
Dimension (ANSI)
100
AcDbMText
 10
12.53328975074257
 20
8.463655524209181
 30
0.0
 40
0.2400000095367432
 41
0.0
 71
     1
 72
     1
  1
\A1; 0.218 X 0.281\POBROUND\PTYP. (4 PL.)
  7
Note Text (ANSI)
 73
     1
 44
1.0
1001
ACAD
1000
MTEXTBEGIN
1070
    73
1070
     1
1070
    44
1040
1.0
1070
    74
1070
     0
1000
MTEXTEND
  0
SOLID
  5
84A
330
7AB
100
AcDbEntity
  8
Dimension (ANSI)
100
AcDbTrace
 10
11.90697119909994
 20
7.710884850271707
 30
0.0
 11
11.96372003640711
 21
7.677943486670192
 31
0.0
 12
11.83652152694898
 22
7.524167656549414
 32
0.0
 13
11.83652152694898
 23
7.524167656549414
 33
0.0
  0
POINT
  5
84B
330
7AB
100
AcDbEntity
  8
Defpoints
 62
     0
100
AcDbPoint
 10
11.83652152694898
 20
7.524167656549414
 30
0.0
  0
POINT
  5
84C
330
7AB
100
AcDbEntity
  8
Defpoints
 62
     0
100
AcDbPoint
 10
11.78180065014928
 20
7.429898755833052
 30
0.0
  0
ENDBLK
  5
7AD
330
7AB
100
AcDbEntity
  8
0
100
AcDbBlockEnd
  0
ENDSEC
  0
SECTION
  2
ENTITIES
  0
CIRCLE
  5
11D
330
6C
100
AcDbEntity
  8
Visible (ANSI)
100
AcDbCircle
 10
6.496300650149277
 20
7.42989875583305
 30
0.0
 40
0.125
  0
LINE
  5
11E
330
6C
100
AcDbEntity
  8
Visible (ANSI)
100
AcDbLine
 10
5.464800650149277
 20
7.538898755833051
 30
0.0
 11
5.527800650149278
 21
7.538898755833051
 31
0.0
  0
ARC
  5
11F
330
6C
100
AcDbEntity
  8
Visible (ANSI)
100
AcDbCircle
 10
5.464800650149277
 20
7.429898755833051
 30
0.0
 40
0.109
100
AcDbArc
 50
90.0
 51
270.0
  0
LINE
  5
120
330
6C
100
AcDbEntity
  8
Visible (ANSI)
100
AcDbLine
 10
5.527800650149278
 20
7.320898755833052
 30
0.0
 11
5.464800650149277
 21
7.320898755833052
 31
0.0
  0
ARC
  5
121
330
6C
100
AcDbEntity
  8
Visible (ANSI)
100
AcDbCircle
 10
5.527800650149278
 20
7.429898755833051
 30
0.0
 40
0.1090000000000001
100
AcDbArc
 50
270.0
 51
90.0
  0
LINE
  5
122
330
6C
100
AcDbEntity
  8
Visible (ANSI)
100
AcDbLine
 10
11.71880065014927
 20
19.79289875583305
 30
0.0
 11
11.78180065014927
 21
19.79289875583305
 31
0.0
  0
ARC
  5
123
330
6C
100
AcDbEntity
  8
Visible (ANSI)
100
AcDbCircle
 10
11.71880065014927
 20
19.68389875583305
 30
0.0
 40
0.1089999999999997
100
AcDbArc
 50
90.0
 51
270.0
  0
LINE
  5
124
330
6C
100
AcDbEntity
  8
Visible (ANSI)
100
AcDbLine
 10
11.78180065014927
 20
19.57489875583305
 30
0.0
 11
11.71880065014927
 21
19.57489875583305
 31
0.0
  0
ARC
  5
125
330
6C
100
AcDbEntity
  8
Visible (ANSI)
100
AcDbCircle
 10
11.78180065014927
 20
19.68389875583305
 30
0.0
 40
0.1089999999999997
100
AcDbArc
 50
270.0
 51
90.0
  0
LINE
  5
126
330
6C
100
AcDbEntity
  8
Visible (ANSI)
100
AcDbLine
 10
11.71880065014927
 20
7.538898755833051
 30
0.0
 11
11.78180065014927
 21
7.538898755833051
 31
0.0
  0
ARC
  5
127
330
6C
100
AcDbEntity
  8
Visible (ANSI)
100
AcDbCircle
 10
11.71880065014927
 20
7.429898755833051
 30
0.0
 40
0.109
100
AcDbArc
 50
90.0
 51
270.0
  0
LINE
  5
128
330
6C
100
AcDbEntity
  8
Visible (ANSI)
100
AcDbLine
 10
11.78180065014927
 20
7.320898755833052
 30
0.0
 11
11.71880065014927
 21
7.320898755833052
 31
0.0
  0
ARC
  5
129
330
6C
100
AcDbEntity
  8
Visible (ANSI)
100
AcDbCircle
 10
11.78180065014927
 20
7.429898755833051
 30
0.0
 40
0.109
100
AcDbArc
 50
270.0
 51
90.0
  0
LINE
  5
12A
330
6C
100
AcDbEntity
  8
Visible (ANSI)
100
AcDbLine
 10
5.464800650149273
 20
19.79289875583305
 30
0.0
 11
5.527800650149274
 21
19.79289875583305
 31
0.0
  0
ARC
  5
12B
330
6C
100
AcDbEntity
  8
Visible (ANSI)
100
AcDbCircle
 10
5.464800650149273
 20
19.68389875583305
 30
0.0
 40
0.1089999999999997
100
AcDbArc
 50
90.00000000000033
 51
270.0000000000003
  0
LINE
  5
12C
330
6C
100
AcDbEntity
  8
Visible (ANSI)
100
AcDbLine
 10
5.527800650149274
 20
19.57489875583305
 30
0.0
 11
5.464800650149273
 21
19.57489875583305
 31
0.0
  0
ARC
  5
12D
330
6C
100
AcDbEntity
  8
Visible (ANSI)
100
AcDbCircle
 10
5.527800650149274
 20
19.68389875583305
 30
0.0
 40
0.1089999999999997
100
AcDbArc
 50
270.0000000000003
 51
90.0000000000003
  0
LINE
  5
12E
330
6C
100
AcDbEntity
  8
Visible (ANSI)
100
AcDbLine
 10
5.183300650149278
 20
7.116898755833052
 30
0.0
 11
5.183300650149273
 21
19.99689875583305
 31
0.0
  0
LINE
  5
12F
330
6C
100
AcDbEntity
  8
Visible (ANSI)
100
AcDbLine
 10
5.183300650149273
 20
19.99689875583305
 30
0.0
 11
12.06330065014927
 21
19.99689875583305
 31
0.0
  0
LINE
  5
130
330
6C
100
AcDbEntity
  8
Visible (ANSI)
100
AcDbLine
 10
12.06330065014927
 20
19.99689875583305
 30
0.0
 11
12.06330065014928
 21
7.11689875583305
 31
0.0
  0
LINE
  5
131
330
6C
100
AcDbEntity
  8
Visible (ANSI)
100
AcDbLine
 10
12.06330065014928
 20
7.116898755833052
 30
0.0
 11
5.183300650149277
 21
7.116898755833052
 31
0.0
  0
MTEXT
  5
133
330
6C
100
AcDbEntity
  8
Symbol (ANSI)
100
AcDbMText
 10
7.752620435540271
 20
3.63589182344687
 30
0.0
 40
0.2400000029661524
 41
0.0
 71
     7
 72
     1
  1
FRONT VIEW
  7
Text Style150
 73
     1
 44
1.0
1001
ACAD
1000
MTEXTBEGIN
1070
    73
1070
     1
1070
    44
1040
1.0
1070
    74
1070
     0
1000
MTEXTEND
  0
LINE
  5
135
330
6C
100
AcDbEntity
  8
Symbol (ANSI)
370
    30
100
AcDbLine
 10
7.728620373803498
 20
3.58694854869709
 30
0.0
 11
9.658150382374852
 21
3.58694854869709
 31
0.0
  0
MTEXT
  5
136
330
6C
100
AcDbEntity
  8
Symbol (ANSI)
100
AcDbMText
 10
8.616075818909132
 20
3.094525408891221
 30
0.0
 40
0.3599999927160308
 41
0.0
 71
     7
 72
     1
  1
 
  7
Label Text (ANSI)
 73
     1
 44
1.0
1001
ACAD
1000
MTEXTBEGIN
1070
    73
1070
     1
1070
    44
1040
1.0
1070
    74
1070
     0
1000
MTEXTEND
  0
LINE
  5
137
330
6C
100
AcDbEntity
  8
Hidden (ANSI)
 48
0.0703737735748291
100
AcDbLine
 10
19.82939773351715
 20
19.79289875583305
 30
0.0
 11
19.90339773351715
 21
19.79289875583305
 31
0.0
  0
LINE
  5
138
330
6C
100
AcDbEntity
  8
Hidden (ANSI)
 48
0.0703737735748291
100
AcDbLine
 10
19.82939773351715
 20
19.57489875583305
 30
0.0
 11
19.90339773351715
 21
19.57489875583305
 31
0.0
  0
LINE
  5
139
330
6C
100
AcDbEntity
  8
Hidden (ANSI)
 48
0.0703737735748291
100
AcDbLine
 10
19.82939773351715
 20
7.538898755833051
 30
0.0
 11
19.90339773351715
 21
7.538898755833051
 31
0.0
  0
LINE
  5
13A
330
6C
100
AcDbEntity
  8
Hidden (ANSI)
 48
0.0703737735748291
100
AcDbLine
 10
19.82939773351715
 20
7.320898755833052
 30
0.0
 11
19.90339773351715
 21
7.320898755833052
 31
0.0
  0
LINE
  5
13B
330
6C
100
AcDbEntity
  8
Visible (ANSI)
100
AcDbLine
 10
19.90339773351723
 20
19.99689875583305
 30
0.0
 11
19.82939773351723
 21
19.99689875583305
 31
0.0
  0
LINE
  5
13C
330
6C
100
AcDbEntity
  8
Visible (ANSI)
100
AcDbLine
 10
19.82939773351723
 20
19.99689875583305
 30
0.0
 11
19.82939773351723
 21
7.11689875583305
 31
0.0
  0
LINE
  5
13D
330
6C
100
AcDbEntity
  8
Visible (ANSI)
100
AcDbLine
 10
19.90339773351723
 20
7.116898755833052
 30
0.0
 11
19.82939773351723
 21
7.116898755833052
 31
0.0
  0
LINE
  5
13E
330
6C
100
AcDbEntity
  8
Visible (ANSI)
100
AcDbLine
 10
19.90339773351723
 20
7.116898755833052
 30
0.0
 11
19.90339773351723
 21
19.99689875583305
 31
0.0
  0
LINE
  5
13F
330
6C
100
AcDbEntity
  8
Hidden (ANSI)
 48
0.0703737735748291
100
AcDbLine
 10
19.90339773351558
 20
7.30489875583305
 30
0.0
 11
19.82939773351558
 21
7.30489875583305
 31
0.0
  0
LINE
  5
140
330
6C
100
AcDbEntity
  8
Hidden (ANSI)
 48
0.0703737735748291
100
AcDbLine
 10
19.90339773351558
 20
7.554898755833051
 30
0.0
 11
19.82939773351558
 21
7.554898755833051
 31
0.0
  0
MTEXT
  5
141
330
6C
100
AcDbEntity
  8
Symbol (ANSI)
100
AcDbMText
 10
18.7656666253233
 20
3.635494847045427
 30
0.0
 40
0.2400000029661524
 41
0.0
 71
     7
 72
     1
  1
RIGHT VIEW
  7
Text Style150
 73
     1
 44
1.0
1001
ACAD
1000
MTEXTBEGIN
1070
    73
1070
     1
1070
    44
1040
1.0
1070
    74
1070
     0
1000
MTEXTEND
  0
LINE
  5
142
330
6C
100
AcDbEntity
  8
Symbol (ANSI)
370
    30
100
AcDbLine
 10
18.74166656358653
 20
3.586162593322498
 30
0.0
 11
20.61148829977961
 21
3.586162593322498
 31
0.0
  0
DIMENSION
  5
143
330
6C
100
AcDbEntity
  8
Dimension (ANSI)
100
AcDbDimension
  2
*D4
 10
5.183300650149277
 20
4.646955275956936
 30
0.0
 11
8.623300650149277
 21
4.646955275956936
 31
0.0
 70
   160
  1
<>
 42
6.879999999999999
  3
Default (ANSI)-01
100
AcDbAlignedDimension
 13
12.06330065014928
 23
7.116898755833052
 33
0.0
 14
5.183300650149277
 24
7.116898755833052
 34
0.0
 50
180.0
100
AcDbRotatedDimension
1001
ACAD
1000
DSTYLE
1002
{
1070
   289
1070
     1
1070
    73
1070
     0
1070
    74
1070
     0
1070
   271
1070
     2
1070
   272
1070
     2
1070
    48
1040
0.0
1070
    47
1040
0.0
1002
}
  0
DIMENSION
  5
22F
330
6C
100
AcDbEntity
  8
Dimension (ANSI)
100
AcDbDimension
  2
*D5
 10
3.659244923869492
 20
19.99689875583305
 30
0.0
 11
3.659244923869488
 21
13.55689875583305
 31
0.0
 70
   160
  1
<>
 42
12.88
  3
Default (ANSI)-01
100
AcDbAlignedDimension
 13
5.183300650149278
 23
7.116898755833052
 33
0.0
 14
5.183300650149273
 24
19.99689875583305
 34
0.0
 50
90.0
100
AcDbRotatedDimension
1001
ACAD
1000
DSTYLE
1002
{
1070
   289
1070
     1
1070
   271
1070
     2
1070
   272
1070
     2
1070
    48
1040
0.0
1070
    47
1040
0.0
1002
}
  0
DIMENSION
  5
319
330
6C
100
AcDbEntity
  8
Dimension (ANSI)
100
AcDbDimension
  2
*D6
 10
4.972786599812831
 20
7.429898755833051
 30
0.0
 11
4.395899075346127
 21
6.34072444209873
 31
0.0
 70
   160
  1
<>{\PTYP.}
 71
     5
 42
0.3129999999999997
  3
Default (ANSI)-01
100
AcDbAlignedDimension
 13
5.183300650149277
 23
7.116898755833052
 33
0.0
 14
5.355800650149276
 24
7.429898755833051
 34
0.0
 50
90.0
100
AcDbRotatedDimension
1001
ACAD
1000
DSTYLE
1002
{
1070
   289
1070
     1
1070
   271
1070
     2
1070
   272
1070
     2
1070
    48
1040
0.0
1070
    47
1040
0.0
1002
}
  0
DIMENSION
  5
429
330
6C
100
AcDbEntity
  8
Dimension (ANSI)
100
AcDbDimension
  2
*D7
 10
5.496300650149277
 20
5.384615291266122
 30
0.0
 11
4.409562736440403
 21
5.384615291266122
 31
0.0
 70
   160
  1
<>{\PTYP.}
 71
     5
 42
0.3129999999999988
  3
Default (ANSI)-01
100
AcDbAlignedDimension
 13
5.183300650149278
 23
7.116898755833052
 33
0.0
 14
5.496300650149277
 24
7.320898755833052
 34
0.0
 50
180.0
100
AcDbRotatedDimension
1001
ACAD
1000
DSTYLE
1002
{
1070
   289
1070
     1
1070
    73
1070
     0
1070
    74
1070
     0
1070
   271
1070
     2
1070
   272
1070
     2
1070
    48
1040
0.0
1070
    47
1040
0.0
1002
}
  0
DIMENSION
  5
527
330
6C
100
AcDbEntity
  8
Dimension (ANSI)
100
AcDbDimension
  2
*D8
 10
6.496300650149277
 20
5.384615291266122
 30
0.0
 11
7.30054444848029
 21
5.384615291266122
 31
0.0
 70
   160
  1
<>
 42
0.9999999999999991
  3
Default (ANSI)
100
AcDbAlignedDimension
 13
5.496300650149278
 23
7.320898755833052
 33
0.0
 14
6.496300650149277
 24
7.30489875583305
 34
0.0
 50
180.0
100
AcDbRotatedDimension
1001
ACAD
1000
DSTYLE
1002
{
1070
   289
1070
     2
1070
    73
1070
     0
1070
    74
1070
     0
1070
   271
1070
     3
1070
   272
1070
     2
1070
    48
1040
0.0
1070
    47
1040
0.0
1002
}
  0
DIMENSION
  5
611
330
6C
100
AcDbEntity
  8
Dimension (ANSI)
100
AcDbDimension
  2
*D9
 10
19.45570223242833
 20
15.46335544874644
 30
0.0
 11
21.05716711349279
 21
15.46335544874644
 31
0.0
 70
   160
  1
 14 GA.
 42
0.0740000000000016
  3
Default (ANSI)
100
AcDbAlignedDimension
 13
19.90339773351723
 23
7.116898755833052
 33
0.0
 14
19.82939773351723
 24
7.11689875583305
 34
0.0
100
AcDbRotatedDimension
1001
ACAD
1000
DSTYLE
1002
{
1070
   289
1070
     1
1070
    73
1070
     0
1070
    74
1070
     0
1070
   271
1070
     3
1070
    76
1070
     1
1070
    75
1070
     1
1070
   272
1070
     2
1070
    48
1040
0.0
1070
    47
1040
0.0
1002
}
  0
DIMENSION
  5
6F0
330
6C
100
AcDbEntity
  8
Dimension (ANSI)
100
AcDbDimension
  2
*D10
 10
6.378645889527252
 20
7.472116729528785
 30
0.0
 11
9.33083133897033
 21
6.738991967811223
 31
0.0
 70
   163
  1
<>{\PGROUND\P HOLE}
 42
0.25
  3
Default (ANSI)
100
AcDbDiametricDimension
 15
6.613955410771303
 25
7.387680782137319
 35
0.0
 40
0.0
1001
ACAD_DSTYLE_DIMRADIAL_EXTENSION
1070
   387
1070
     1
1070
   388
1040
0.0
1070
   390
1040
0.0
1001
ACAD
1000
DSTYLE
1002
{
1070
   145
1040
-0.3333333333333334
1070
   144
1040
1.000000000000007
1070
   271
1070
     3
1070
   272
1070
     2
1070
    48
1040
0.0
1070
    47
1040
0.0
1002
}
  0
DIMENSION
  5
7AA
330
6C
100
AcDbEntity
  8
Dimension (ANSI)
100
AcDbDimension
  2
*D11
 10
11.78180065014928
 20
7.429898755833052
 30
0.0
 11
13.59120785859645
 21
8.275708348619051
 31
0.0
 70
   164
  1
 0.218 X 0.281\POBROUND\PTYP. (4 PL.)
 42
0.1089999999999982
  3
Default (ANSI)
100
AcDbRadialDimension
 15
11.83652152694898
 25
7.524167656549414
 35
0.0
 40
0.0
1001
ACAD_DSTYLE_DIMRADIAL_EXTENSION
1070
   387
1070
     1
1070
   388
1040
0.0
1070
   390
1040
0.0
1001
ACAD
1000
DSTYLE
1002
{
1070
   145
1040
-0.3333333333333334
1070
   271
1070
     3
1070
   141
1040
0.0
1070
   272
1070
     2
1070
    48
1040
0.0
1070
    47
1040
0.0
1002
}
  0
MTEXT
  5
84D
330
6C
100
AcDbEntity
  8
Symbol (ANSI)
100
AcDbMText
 10
23.96014004838608
 20
5.341640631467363
 30
0.0
 40
0.2400000029661524
 41
9.018179149021236
 71
     1
 72
     1
  1
{\fRomanS|b0|i0;\H0.2400;PART#: P1408\P(DATA SUBJECT TO CHANGE WITHOUT NOTICE)\PTHIS DRAWING AND COMPONENTS OF ARE\PPROPERTY OF HUBBELL INC. WIEGMANN}
  7
Note Text (ANSI)
 73
     2
 44
1.093904256820678
1001
ACAD
1000
MTEXTBEGIN
1070
    73
1070
     2
1070
    44
1040
1.093904256820678
1070
    74
1070
     0
1000
MTEXTEND
  0
ELLIPSE
  5
84F
330
6C
100
AcDbEntity
  8
Visible (ANSI)
100
AcDbEllipse
 10
27.79739462468794
 20
9.882222386561087
 30
0.0
 11
0.0561411238032511
 21
-0.0974906365663291
 31
0.0
210
0.0
220
0.0
230
1.0
 40
0.5780931159158116
 41
3.572615253427352
 42
5.852162707341144
  0
ELLIPSE
  5
850
330
6C
100
AcDbEntity
  8
Visible (ANSI)
100
AcDbEllipse
 10
27.75030131306092
 20
9.855103152022515
 30
0.0
 11
-0.0561411238032453
 21
0.0974906365663323
 31
0.0
210
0.0
220
0.0
230
1.0
 40
0.5780931159158117
 41
0.0
 42
6.283185307179586
  0
LINE
  5
851
330
6C
100
AcDbEntity
  8
Visible (ANSI)
100
AcDbLine
 10
27.09385873274629
 20
10.31332466586862
 30
0.0
 11
27.13395168723957
 21
10.2902366688966
 31
0.0
  0
ELLIPSE
  5
852
330
6C
100
AcDbEntity
  8
Visible (ANSI)
100
AcDbEllipse
 10
27.1409520443733
 20
10.26024252746014
 30
0.0
 11
0.048955059956435
 21
-0.0850118350858389
 31
0.0
210
0.0
220
0.0
230
0.9999999999999998
 40
0.5780931159158116
 41
3.641254264141279
 42
5.499720852204693
  0
ELLIPSE
  5
853
330
6C
100
AcDbEntity
  8
Visible (ANSI)
100
AcDbEllipse
 10
27.09385873274629
 20
10.23312329292157
 30
0.0
 11
-0.0489550599564248
 21
0.0850118350858448
 31
0.0
210
0.0
220
0.0
230
1.0
 40
0.5780931159158117
 41
5.499720852205279
 42
8.641313505795071
  0
LINE
  5
854
330
6C
100
AcDbEntity
  8
Visible Narrow (ANSI)
100
AcDbLine
 10
27.09385873274629
 20
10.15292191997452
 30
0.0
 11
27.1409520443733
 21
10.18004115451309
 31
0.0
  0
LINE
  5
855
330
6C
100
AcDbEntity
  8
Visible (ANSI)
100
AcDbLine
 10
27.1409520443733
 20
10.18004115451309
 30
0.0
 11
27.18104499886659
 21
10.15695315754107
 31
0.0
  0
LINE
  5
856
330
6C
100
AcDbEntity
  8
Visible (ANSI)
100
AcDbLine
 10
27.13395168723957
 20
10.12983392300249
 30
0.0
 11
27.09385873274629
 21
10.15292191997452
 31
0.0
  0
LINE
  5
857
330
6C
100
AcDbEntity
  8
Visible Narrow (ANSI)
100
AcDbLine
 10
27.13395168723957
 20
10.12983392300249
 30
0.0
 11
27.18104499886659
 21
10.15695315754107
 31
0.0
  0
ELLIPSE
  5
858
330
6C
100
AcDbEntity
  8
Visible (ANSI)
100
AcDbEllipse
 10
27.18104499886659
 20
10.23715453048812
 30
0.0
 11
0.0489550599564301
 21
-0.0850118350858422
 31
0.0
210
0.0
220
0.0
230
0.9999999999999998
 40
0.5780931159158119
 41
5.499720852205026
 42
5.783523696627618
  0
ELLIPSE
  5
859
330
6C
100
AcDbEntity
  8
Visible (ANSI)
100
AcDbEllipse
 10
27.13395168723957
 20
10.21003529594954
 30
0.0
 11
0.0489550599564248
 21
-0.0850118350858448
 31
0.0
210
0.0
220
0.0
230
1.0
 40
0.5780931159158119
 41
5.49972085220528
 42
8.641313505795073
  0
LINE
  5
85A
330
6C
100
AcDbEntity
  8
Visible (ANSI)
100
AcDbLine
 10
31.07387996133347
 20
17.0377830922559
 30
0.0
 11
31.11397291582675
 21
17.01469509528388
 31
0.0
  0
ELLIPSE
  5
85B
330
6C
100
AcDbEntity
  8
Visible (ANSI)
100
AcDbEllipse
 10
31.12097327296049
 20
16.98470095384742
 30
0.0
 11
0.0489550599564347
 21
-0.0850118350858384
 31
0.0
210
0.0
220
0.0
230
0.9999999999999998
 40
0.5780931159158116
 41
3.641254264141261
 42
5.499720852204692
  0
ELLIPSE
  5
85C
330
6C
100
AcDbEntity
  8
Visible (ANSI)
100
AcDbEllipse
 10
31.07387996133347
 20
16.95758171930885
 30
0.0
 11
-0.0489550599564247
 21
0.0850118350858445
 31
0.0
210
0.0
220
0.0
230
0.9999999999999998
 40
0.5780931159158117
 41
5.499720852205279
 42
8.641313505795071
  0
LINE
  5
85D
330
6C
100
AcDbEntity
  8
Visible Narrow (ANSI)
100
AcDbLine
 10
31.07387996133347
 20
16.87738034636179
 30
0.0
 11
31.12097327296049
 21
16.90449958090037
 31
0.0
  0
LINE
  5
85E
330
6C
100
AcDbEntity
  8
Visible (ANSI)
100
AcDbLine
 10
31.12097327296049
 20
16.90449958090037
 30
0.0
 11
31.16106622745377
 21
16.88141158392834
 31
0.0
  0
LINE
  5
85F
330
6C
100
AcDbEntity
  8
Visible (ANSI)
100
AcDbLine
 10
31.11397291582675
 20
16.85429234938977
 30
0.0
 11
31.07387996133347
 21
16.87738034636179
 31
0.0
  0
LINE
  5
860
330
6C
100
AcDbEntity
  8
Visible Narrow (ANSI)
100
AcDbLine
 10
31.11397291582675
 20
16.85429234938977
 30
0.0
 11
31.16106622745377
 21
16.88141158392834
 31
0.0
  0
ELLIPSE
  5
861
330
6C
100
AcDbEntity
  8
Visible (ANSI)
100
AcDbEllipse
 10
31.16106622745377
 20
16.96161295687539
 30
0.0
 11
0.0489550599564247
 21
-0.0850118350858328
 31
0.0
210
0.0
220
0.0
230
0.9999999999999998
 40
0.5780931159158115
 41
5.499720852205026
 42
5.783523696627745
  0
ELLIPSE
  5
862
330
6C
100
AcDbEntity
  8
Visible (ANSI)
100
AcDbEllipse
 10
31.11397291582675
 20
16.93449372233682
 30
0.0
 11
0.0489550599564247
 21
-0.0850118350858445
 31
0.0
210
0.0
220
0.0
230
0.9999999999999998
 40
0.5780931159158117
 41
5.499720852205279
 42
8.641313505795071
  0
LINE
  5
863
330
6C
100
AcDbEntity
  8
Visible (ANSI)
100
AcDbLine
 10
31.07387996133348
 20
8.021382871217443
 30
0.0
 11
31.11397291582676
 21
7.998294874245421
 31
0.0
  0
ELLIPSE
  5
864
330
6C
100
AcDbEntity
  8
Visible (ANSI)
100
AcDbEllipse
 10
31.1209732729605
 20
7.968300732808963
 30
0.0
 11
0.0489550599564351
 21
-0.0850118350858392
 31
0.0
210
0.0
220
0.0
230
0.9999999999999998
 40
0.5780931159158117
 41
3.641254264141261
 42
5.499720852204692
  0
ELLIPSE
  5
865
330
6C
100
AcDbEntity
  8
Visible (ANSI)
100
AcDbEllipse
 10
31.07387996133348
 20
7.941181498270389
 30
0.0
 11
-0.0489550599564248
 21
0.0850118350858448
 31
0.0
210
0.0
220
0.0
230
1.0
 40
0.5780931159158117
 41
5.499720852205279
 42
8.641313505795071
  0
LINE
  5
866
330
6C
100
AcDbEntity
  8
Visible Narrow (ANSI)
100
AcDbLine
 10
31.07387996133348
 20
7.860980125323337
 30
0.0
 11
31.1209732729605
 21
7.888099359861909
 31
0.0
  0
LINE
  5
867
330
6C
100
AcDbEntity
  8
Visible (ANSI)
100
AcDbLine
 10
31.1209732729605
 20
7.888099359861909
 30
0.0
 11
31.16106622745378
 21
7.865011362889888
 31
0.0
  0
LINE
  5
868
330
6C
100
AcDbEntity
  8
Visible (ANSI)
100
AcDbLine
 10
31.11397291582676
 20
7.837892128351314
 30
0.0
 11
31.07387996133348
 21
7.860980125323337
 31
0.0
  0
LINE
  5
869
330
6C
100
AcDbEntity
  8
Visible Narrow (ANSI)
100
AcDbLine
 10
31.11397291582676
 20
7.837892128351314
 30
0.0
 11
31.16106622745378
 21
7.865011362889888
 31
0.0
  0
ELLIPSE
  5
86A
330
6C
100
AcDbEntity
  8
Visible (ANSI)
100
AcDbEllipse
 10
31.16106622745378
 20
7.945212735836936
 30
0.0
 11
0.0489550599564272
 21
-0.0850118350858371
 31
0.0
210
0.0
220
0.0
230
1.0
 40
0.5780931159158116
 41
5.499720852205026
 42
5.783523696627637
  0
ELLIPSE
  5
86B
330
6C
100
AcDbEntity
  8
Visible (ANSI)
100
AcDbEllipse
 10
31.11397291582676
 20
7.918093501298368
 30
0.0
 11
0.0489550599564248
 21
-0.0850118350858448
 31
0.0
210
0.0
220
0.0
230
1.0
 40
0.5780931159158117
 41
5.499720852205279
 42
8.641313505795071
  0
LINE
  5
86C
330
6C
100
AcDbEntity
  8
Visible (ANSI)
100
AcDbLine
 10
27.09385873274628
 20
19.32972488690708
 30
0.0
 11
27.13395168723956
 21
19.30663688993506
 31
0.0
  0
ELLIPSE
  5
86D
330
6C
100
AcDbEntity
  8
Visible (ANSI)
100
AcDbEllipse
 10
27.1409520443733
 20
19.2766427484986
 30
0.0
 11
0.0489550599564346
 21
-0.0850118350858383
 31
0.0
210
0.0
220
0.0
230
1.0
 40
0.5780931159158116
 41
3.641254264141263
 42
5.499720852204693
  0
ELLIPSE
  5
86E
330
6C
100
AcDbEntity
  8
Visible (ANSI)
100
AcDbEllipse
 10
27.09385873274628
 20
19.24952351396003
 30
0.0
 11
-0.0489550599564247
 21
0.0850118350858445
 31
0.0
210
0.0
220
0.0
230
1.0
 40
0.5780931159158117
 41
5.49972085220528
 42
8.641313505795073
  0
LINE
  5
86F
330
6C
100
AcDbEntity
  8
Visible Narrow (ANSI)
100
AcDbLine
 10
27.09385873274628
 20
19.16932214101297
 30
0.0
 11
27.1409520443733
 21
19.19644137555155
 31
0.0
  0
LINE
  5
870
330
6C
100
AcDbEntity
  8
Visible (ANSI)
100
AcDbLine
 10
27.1409520443733
 20
19.19644137555155
 30
0.0
 11
27.18104499886659
 21
19.17335337857952
 31
0.0
  0
LINE
  5
871
330
6C
100
AcDbEntity
  8
Visible (ANSI)
100
AcDbLine
 10
27.13395168723956
 20
19.14623414404095
 30
0.0
 11
27.09385873274628
 21
19.16932214101297
 31
0.0
  0
LINE
  5
872
330
6C
100
AcDbEntity
  8
Visible Narrow (ANSI)
100
AcDbLine
 10
27.13395168723956
 20
19.14623414404095
 30
0.0
 11
27.18104499886659
 21
19.17335337857952
 31
0.0
  0
ELLIPSE
  5
873
330
6C
100
AcDbEntity
  8
Visible (ANSI)
100
AcDbEllipse
 10
27.18104499886659
 20
19.25355475152658
 30
0.0
 11
0.048955059956431
 21
-0.0850118350858437
 31
0.0
210
0.0
220
0.0
230
0.9999999999999998
 40
0.5780931159158117
 41
5.499720852205026
 42
5.783523696627618
  0
ELLIPSE
  5
874
330
6C
100
AcDbEntity
  8
Visible (ANSI)
100
AcDbEllipse
 10
27.13395168723956
 20
19.22643551698801
 30
0.0
 11
0.0489550599564247
 21
-0.0850118350858445
 31
0.0
210
0.0
220
0.0
230
0.9999999999999998
 40
0.5780931159158117
 41
5.499720852205279
 42
8.641313505795071
  0
LINE
  5
875
330
6C
100
AcDbEntity
  8
Visible (ANSI)
100
AcDbLine
 10
26.91471322973265
 20
10.1059833019427
 30
0.0
 11
26.91471322973264
 21
19.58298957311744
 31
0.0
  0
LINE
  5
876
330
6C
100
AcDbEntity
  8
Visible (ANSI)
100
AcDbLine
 10
26.96180654135966
 20
19.61010880765602
 30
0.0
 11
26.91471322973264
 21
19.58298957311744
 31
0.0
  0
LINE
  5
877
330
6C
100
AcDbEntity
  8
Visible (ANSI)
100
AcDbLine
 10
26.91471322973264
 20
19.58298957311744
 30
0.0
 11
31.29311841884039
 21
17.0616337133157
 31
0.0
  0
LINE
  5
878
330
6C
100
AcDbEntity
  8
Visible (ANSI)
100
AcDbLine
 10
31.34021173046741
 20
17.08875294785427
 30
0.0
 11
31.29311841884039
 21
17.0616337133157
 31
0.0
  0
LINE
  5
879
330
6C
100
AcDbEntity
  8
Visible (ANSI)
100
AcDbLine
 10
31.34021173046741
 20
17.08875294785427
 30
0.0
 11
26.96180654135966
 21
19.61010880765602
 31
0.0
  0
LINE
  5
87A
330
6C
100
AcDbEntity
  8
Visible (ANSI)
100
AcDbLine
 10
31.29311841884039
 20
17.0616337133157
 30
0.0
 11
31.2931184188404
 21
7.58462744214095
 31
0.0
  0
LINE
  5
87B
330
6C
100
AcDbEntity
  8
Visible (ANSI)
100
AcDbLine
 10
31.34021173046742
 20
7.611746676679524
 30
0.0
 11
31.2931184188404
 21
7.58462744214095
 31
0.0
  0
LINE
  5
87C
330
6C
100
AcDbEntity
  8
Visible (ANSI)
100
AcDbLine
 10
31.34021173046742
 20
7.611746676679524
 30
0.0
 11
31.34021173046741
 21
17.08875294785427
 31
0.0
  0
LINE
  5
87D
330
6C
100
AcDbEntity
  8
Visible (ANSI)
100
AcDbLine
 10
31.2931184188404
 20
7.58462744214095
 30
0.0
 11
26.91471322973265
 21
10.1059833019427
 31
0.0
  0
ENDSEC
  0
SECTION
  2
OBJECTS
  0
DICTIONARY
  5
C
330
0
100
AcDbDictionary
281
     1
  3
ACAD_CIP_PREVIOUS_PRODUCT_INFO
350
87E
  3
ACAD_COLOR
350
63
  3
ACAD_GROUP
350
D
  3
ACAD_LAYOUT
350
62
  3
ACAD_MATERIAL
350
10
  3
ACAD_MLEADERSTYLE
350
66
  3
ACAD_MLINESTYLE
350
5F
  3
ACAD_PLOTSETTINGS
350
61
  3
ACAD_PLOTSTYLENAME
350
E
  3
ACAD_SCALELIST
350
42
  3
ACAD_TABLESTYLE
350
64
  3
ACAD_VISUALSTYLE
350
29
  3
ACDB_RECOMPOSE_DATA
350
88C
  3
AcDbVariableDictionary
350
76
  3
DWGPROPS
350
88D
  0
DICTIONARY
  5
8C9
330
7A4
100
AcDbDictionary
280
     1
281
     1
  3
ACAD_MTEXT_RT
360
8CA
  0
XRECORD
  5
87E
102
{ACAD_REACTORS
330
C
102
}
330
C
100
AcDbXrecord
280
     1
300
INVNTOR
300
2012
300
85795PDSP_2012_0F
  0
DICTIONARY
  5
63
102
{ACAD_REACTORS
330
C
102
}
330
C
100
AcDbDictionary
281
     1
  0
DICTIONARY
  5
D
102
{ACAD_REACTORS
330
C
102
}
330
C
100
AcDbDictionary
281
     1
  0
DICTIONARY
  5
62
102
{ACAD_REACTORS
330
C
102
}
330
C
100
AcDbDictionary
281
     1
  3
Layout1
350
6B
  3
Layout2
350
73
  3
Model
350
6F
  0
DICTIONARY
  5
10
102
{ACAD_REACTORS
330
C
102
}
330
C
100
AcDbDictionary
281
     1
  3
ByBlock
350
19
  3
ByLayer
350
11
  3
Global
350
21
  0
DICTIONARY
  5
66
102
{ACAD_REACTORS
330
C
102
}
330
C
100
AcDbDictionary
281
     1
  3
Standard
350
67
  0
DICTIONARY
  5
5F
102
{ACAD_REACTORS
330
C
102
}
330
C
100
AcDbDictionary
281
     1
  3
Standard
350
60
  0
DICTIONARY
  5
61
102
{ACAD_REACTORS
330
C
102
}
330
C
100
AcDbDictionary
281
     1
  0
ACDBDICTIONARYWDFLT
  5
E
102
{ACAD_REACTORS
330
C
102
}
330
C
100
AcDbDictionary
281
     1
  3
Normal
350
F
100
AcDbDictionaryWithDefault
340
F
  0
DICTIONARY
  5
42
102
{ACAD_REACTORS
330
C
102
}
330
C
100
AcDbDictionary
281
     1
  3
A0
350
43
  3
A1
350
44
  3
A2
350
45
  3
A3
350
46
  3
A4
350
47
  3
A5
350
48
  3
A6
350
49
  3
A7
350
4A
  3
A8
350
4B
  3
A9
350
4C
  3
B0
350
4D
  3
B1
350
4E
  3
B2
350
4F
  3
B3
350
50
  3
B4
350
51
  3
B5
350
52
  3
B6
350
53
  0
DICTIONARY
  5
64
102
{ACAD_REACTORS
330
C
102
}
330
C
100
AcDbDictionary
281
     1
  3
Standard
350
65
  0
DICTIONARY
  5
29
102
{ACAD_REACTORS
330
C
102
}
330
C
100
AcDbDictionary
281
     1
  3
2dWireframe
350
2F
  3
Basic
350
2E
  3
Brighten
350
35
  3
ColorChange
350
39
  3
Conceptual
350
32
  3
Dim
350
34
  3
EdgeColorOff
350
41
  3
Facepattern
350
38
  3
Flat
350
2A
  3
FlatWithEdges
350
2B
  3
Gouraud
350
2C
  3
GouraudWithEdges
350
2D
  3
Hidden
350
31
  3
JitterOff
350
3F
  3
Linepattern
350
37
  3
OverhangOff
350
40
  3
Realistic
350
33
  3
Shaded
350
3E
  3
Shaded with edges
350
3D
  3
Shades of Gray
350
3A
  3
Sketchy
350
3B
  3
Thicken
350
36
  3
Wireframe
350
30
  3
X-Ray
350
3C
  0
XRECORD
  5
88C
102
{ACAD_REACTORS
330
C
102
}
330
C
100
AcDbXrecord
280
     1
 90
        1
330
65
330
527
  0
DICTIONARY
  5
76
102
{ACAD_REACTORS
330
C
102
}
330
C
100
AcDbDictionary
281
     1
  3
CANNOSCALE
350
79
  3
CMLEADERSTYLE
350
78
  3
CTABLESTYLE
350
77
  3
DIMASSOC
350
886
  3
HIDETEXT
350
885
  3
INDEXCTL
350
884
  3
LAYEREVAL
350
881
  3
LAYERNOTIFY
350
882
  3
LIGHTINGUNITS
350
880
  3
MSLTSCALE
350
87F
  3
SORTENTS
350
883
  3
XCLIPFRAME
350
887
  0
XRECORD
  5
88D
102
{ACAD_REACTORS
330
C
102
}
330
C
100
AcDbXrecord
280
     1
  1
DWGPROPS COOKIE
  2

  3

  4
KRA
  6

  7

  8

  9
-
300
Manager=
301
Company=
302
Category=
303
Part Number=P1408-S
304
Description=P SERIES BACK PANEL MASTER VIEW
305
Project=
306
Designer=KRA
307
Engineer=
308
Authority=
309
Cost Center=
 40
0.0000368981481481
 41
2455950.573091065
 42
2455950.57309125
  1

 90
       20
300
Vendor=
300
User Status=
300
Design Status=WorkInProgress
300
Checked by=JMG
300
Date Checked=02/12/2009
300
Engr Approved by=
300
Mfg Approved by=
300
DWG. NO=
300
NUMBER OF SHEETS=1
300
DRAWING #=1
  0
XRECORD
  5
8CA
102
{ACAD_REACTORS
330
8C9
102
}
330
8C9
100
AcDbXrecord
280
     1
 40
41495.0
  1
\A1;\U+22050.250{\PGROUND\P HOLE}
  0
LAYOUT
  5
6B
102
{ACAD_XDICTIONARY
360
8C3
102
}
102
{ACAD_REACTORS
330
62
102
}
330
62
100
AcDbPlotSettings
  1

  2

  4

  6

 40
0.0
 41
0.0
 42
0.0
 43
0.0
 44
0.0
 45
0.0
 46
0.0
 47
0.0
 48
0.0
 49
0.0
140
0.0
141
0.0
142
1.0
143
1.0
 70
   688
 72
     0
 73
     0
 74
     5
  7

 75
    16
147
1.0
148
0.0
149
0.0
100
AcDbLayout
  1
Layout1
 70
     1
 71
     1
 10
0.0
 20
0.0
 11
12.0
 21
9.0
 12
0.0
 22
0.0
 32
0.0
 14
0.0
 24
0.0
 34
0.0
 15
0.0
 25
0.0
 35
0.0
146
0.0
 13
0.0
 23
0.0
 33
0.0
 16
1.0
 26
0.0
 36
0.0
 17
0.0
 27
1.0
 37
0.0
 76
     0
330
68
  0
LAYOUT
  5
73
102
{ACAD_XDICTIONARY
360
8C7
102
}
102
{ACAD_REACTORS
330
62
102
}
330
62
100
AcDbPlotSettings
  1

  2

  4

  6

 40
0.0
 41
0.0
 42
0.0
 43
0.0
 44
0.0
 45
0.0
 46
0.0
 47
0.0
 48
0.0
 49
0.0
140
0.0
141
0.0
142
1.0
143
1.0
 70
   688
 72
     0
 73
     0
 74
     5
  7

 75
    16
147
1.0
148
0.0
149
0.0
100
AcDbLayout
  1
Layout2
 70
     1
 71
     2
 10
0.0
 20
0.0
 11
12.0
 21
9.0
 12
0.0
 22
0.0
 32
0.0
 14
0.0
 24
0.0
 34
0.0
 15
0.0
 25
0.0
 35
0.0
146
0.0
 13
0.0
 23
0.0
 33
0.0
 16
1.0
 26
0.0
 36
0.0
 17
0.0
 27
1.0
 37
0.0
 76
     0
330
70
  0
LAYOUT
  5
6F
102
{ACAD_XDICTIONARY
360
8C5
102
}
102
{ACAD_REACTORS
330
62
102
}
330
62
100
AcDbPlotSettings
  1

  2

  4

  6

 40
0.0
 41
0.0
 42
0.0
 43
0.0
 44
0.0
 45
0.0
 46
0.0
 47
0.0
 48
0.0
 49
0.0
140
0.0
141
0.0
142
1.0
143
1.0
 70
  1712
 72
     0
 73
     0
 74
     0
  7

 75
     0
147
1.0
148
0.0
149
0.0
100
AcDbLayout
  1
Model
 70
     1
 71
     0
 10
0.0
 20
0.0
 11
12.0
 21
9.0
 12
0.0
 22
0.0
 32
0.0
 14
0.0
 24
0.0
 34
0.0
 15
0.0
 25
0.0
 35
0.0
146
0.0
 13
0.0
 23
0.0
 33
0.0
 16
1.0
 26
0.0
 36
0.0
 17
0.0
 27
1.0
 37
0.0
 76
     0
330
6C
  0
MATERIAL
  5
19
102
{ACAD_XDICTIONARY
360
1A
102
}
102
{ACAD_REACTORS
330
10
102
}
330
10
100
AcDbMaterial
  1
ByBlock
 72
     0
 43
0.0208333333333333
 43
0.0
 43
0.0
 43
0.0
 43
0.0
 43
0.0208333333333333
 43
0.0
 43
0.0
 43
0.0
 43
0.0
 43
1.0
 43
0.0
 43
0.0
 43
0.0
 43
0.0
 43
1.0
 77
     0
 47
0.0208333333333333
 47
0.0
 47
0.0
 47
0.0
 47
0.0
 47
0.0208333333333333
 47
0.0
 47
0.0
 47
0.0
 47
0.0
 47
1.0
 47
0.0
 47
0.0
 47
0.0
 47
0.0
 47
1.0
171
     0
 49
0.0208333333333333
 49
0.0
 49
0.0
 49
0.0
 49
0.0
 49
0.0208333333333333
 49
0.0
 49
0.0
 49
0.0
 49
0.0
 49
1.0
 49
0.0
 49
0.0
 49
0.0
 49
0.0
 49
1.0
175
     0
142
0.0208333333333333
142
0.0
142
0.0
142
0.0
142
0.0
142
0.0208333333333333
142
0.0
142
0.0
142
0.0
142
0.0
142
1.0
142
0.0
142
0.0
142
0.0
142
0.0
142
1.0
179
     0
144
0.0208333333333333
144
0.0
144
0.0
144
0.0
144
0.0
144
0.0208333333333333
144
0.0
144
0.0
144
0.0
144
0.0
144
1.0
144
0.0
144
0.0
144
0.0
144
0.0
144
1.0
147
0.0208333333333333
147
0.0
147
0.0
147
0.0
147
0.0
147
0.0208333333333333
147
0.0
147
0.0
147
0.0
147
0.0
147
1.0
147
0.0
147
0.0
147
0.0
147
0.0
147
1.0
  0
MATERIAL
  5
11
102
{ACAD_XDICTIONARY
360
12
102
}
102
{ACAD_REACTORS
330
10
102
}
330
10
100
AcDbMaterial
  1
ByLayer
 72
     0
 43
0.0208333333333333
 43
0.0
 43
0.0
 43
0.0
 43
0.0
 43
0.0208333333333333
 43
0.0
 43
0.0
 43
0.0
 43
0.0
 43
1.0
 43
0.0
 43
0.0
 43
0.0
 43
0.0
 43
1.0
 77
     0
 47
0.0208333333333333
 47
0.0
 47
0.0
 47
0.0
 47
0.0
 47
0.0208333333333333
 47
0.0
 47
0.0
 47
0.0
 47
0.0
 47
1.0
 47
0.0
 47
0.0
 47
0.0
 47
0.0
 47
1.0
171
     0
 49
0.0208333333333333
 49
0.0
 49
0.0
 49
0.0
 49
0.0
 49
0.0208333333333333
 49
0.0
 49
0.0
 49
0.0
 49
0.0
 49
1.0
 49
0.0
 49
0.0
 49
0.0
 49
0.0
 49
1.0
175
     0
142
0.0208333333333333
142
0.0
142
0.0
142
0.0
142
0.0
142
0.0208333333333333
142
0.0
142
0.0
142
0.0
142
0.0
142
1.0
142
0.0
142
0.0
142
0.0
142
0.0
142
1.0
179
     0
144
0.0208333333333333
144
0.0
144
0.0
144
0.0
144
0.0
144
0.0208333333333333
144
0.0
144
0.0
144
0.0
144
0.0
144
1.0
144
0.0
144
0.0
144
0.0
144
0.0
144
1.0
147
0.0208333333333333
147
0.0
147
0.0
147
0.0
147
0.0
147
0.0208333333333333
147
0.0
147
0.0
147
0.0
147
0.0
147
1.0
147
0.0
147
0.0
147
0.0
147
0.0
147
1.0
  0
MATERIAL
  5
21
102
{ACAD_XDICTIONARY
360
22
102
}
102
{ACAD_REACTORS
330
10
102
}
330
10
100
AcDbMaterial
  1
Global
 72
     0
 43
0.0208333333333333
 43
0.0
 43
0.0
 43
0.0
 43
0.0
 43
0.0208333333333333
 43
0.0
 43
0.0
 43
0.0
 43
0.0
 43
1.0
 43
0.0
 43
0.0
 43
0.0
 43
0.0
 43
1.0
 77
     0
 47
0.0208333333333333
 47
0.0
 47
0.0
 47
0.0
 47
0.0
 47
0.0208333333333333
 47
0.0
 47
0.0
 47
0.0
 47
0.0
 47
1.0
 47
0.0
 47
0.0
 47
0.0
 47
0.0
 47
1.0
171
     0
 49
0.0208333333333333
 49
0.0
 49
0.0
 49
0.0
 49
0.0
 49
0.0208333333333333
 49
0.0
 49
0.0
 49
0.0
 49
0.0
 49
1.0
 49
0.0
 49
0.0
 49
0.0
 49
0.0
 49
1.0
175
     0
142
0.0208333333333333
142
0.0
142
0.0
142
0.0
142
0.0
142
0.0208333333333333
142
0.0
142
0.0
142
0.0
142
0.0
142
1.0
142
0.0
142
0.0
142
0.0
142
0.0
142
1.0
179
     0
144
0.0208333333333333
144
0.0
144
0.0
144
0.0
144
0.0
144
0.0208333333333333
144
0.0
144
0.0
144
0.0
144
0.0
144
1.0
144
0.0
144
0.0
144
0.0
144
0.0
144
1.0
147
0.0208333333333333
147
0.0
147
0.0
147
0.0
147
0.0
147
0.0208333333333333
147
0.0
147
0.0
147
0.0
147
0.0
147
1.0
147
0.0
147
0.0
147
0.0
147
0.0
147
1.0
  0
MLEADERSTYLE
  5
67
102
{ACAD_XDICTIONARY
360
88A
102
}
102
{ACAD_REACTORS
330
66
102
}
330
66
100
AcDbMLeaderStyle
170
     2
171
     1
172
     0
 90
        2
 40
0.0
 41
0.0
173
     1
 91
-1056964608
340
5B
 92
       -2
290
     1
 42
0.09
291
     1
 43
0.36
  3
Standard
 44
0.18
300

342
55
174
     1
178
     6
175
     1
176
     0
 93
-1056964608
 45
0.18
292
     0
297
     0
 46
0.18
 94
-1056964608
 47
1.0
 49
1.0
140
1.0
293
     1
141
0.0
294
     1
177
     0
142
1.0
295
     0
296
     0
143
0.125
1001
ACAD_MLEADERVER
1070
     2
  0
MLINESTYLE
  5
60
102
{ACAD_REACTORS
330
5F
102
}
330
5F
100
AcDbMlineStyle
  2
STANDARD
 70
     0
  3

 62
   256
 51
90.0
 52
90.0
 71
     2
 49
0.5
 62
   256
  6
BYLAYER
 49
-0.5
 62
   256
  6
BYLAYER
  0
ACDBPLACEHOLDER
  5
F
102
{ACAD_REACTORS
330
E
102
}
330
E
  0
SCALE
  5
43
102
{ACAD_REACTORS
330
42
102
}
330
42
100
AcDbScale
 70
     0
300
1:1
140
1.0
141
1.0
290
     1
  0
SCALE
  5
44
102
{ACAD_REACTORS
330
42
102
}
330
42
100
AcDbScale
 70
     0
300
1/128" = 1'-0"
140
0.0078125
141
12.0
290
     0
  0
SCALE
  5
45
102
{ACAD_REACTORS
330
42
102
}
330
42
100
AcDbScale
 70
     0
300
1/64" = 1'-0"
140
0.015625
141
12.0
290
     0
  0
SCALE
  5
46
102
{ACAD_REACTORS
330
42
102
}
330
42
100
AcDbScale
 70
     0
300
1/32" = 1'-0"
140
0.03125
141
12.0
290
     0
  0
SCALE
  5
47
102
{ACAD_REACTORS
330
42
102
}
330
42
100
AcDbScale
 70
     0
300
1/16" = 1'-0"
140
0.0625
141
12.0
290
     0
  0
SCALE
  5
48
102
{ACAD_REACTORS
330
42
102
}
330
42
100
AcDbScale
 70
     0
300
3/32" = 1'-0"
140
0.09375
141
12.0
290
     0
  0
SCALE
  5
49
102
{ACAD_REACTORS
330
42
102
}
330
42
100
AcDbScale
 70
     0
300
1/8" = 1'-0"
140
0.125
141
12.0
290
     0
  0
SCALE
  5
4A
102
{ACAD_REACTORS
330
42
102
}
330
42
100
AcDbScale
 70
     0
300
3/16" = 1'-0"
140
0.1875
141
12.0
290
     0
  0
SCALE
  5
4B
102
{ACAD_REACTORS
330
42
102
}
330
42
100
AcDbScale
 70
     0
300
1/4" = 1'-0"
140
0.25
141
12.0
290
     0
  0
SCALE
  5
4C
102
{ACAD_REACTORS
330
42
102
}
330
42
100
AcDbScale
 70
     0
300
3/8" = 1'-0"
140
0.375
141
12.0
290
     0
  0
SCALE
  5
4D
102
{ACAD_REACTORS
330
42
102
}
330
42
100
AcDbScale
 70
     0
300
1/2" = 1'-0"
140
0.5
141
12.0
290
     0
  0
SCALE
  5
4E
102
{ACAD_REACTORS
330
42
102
}
330
42
100
AcDbScale
 70
     0
300
3/4" = 1'-0"
140
0.75
141
12.0
290
     0
  0
SCALE
  5
4F
102
{ACAD_REACTORS
330
42
102
}
330
42
100
AcDbScale
 70
     0
300
1" = 1'-0"
140
1.0
141
12.0
290
     0
  0
SCALE
  5
50
102
{ACAD_REACTORS
330
42
102
}
330
42
100
AcDbScale
 70
     0
300
1-1/2" = 1'-0"
140
1.5
141
12.0
290
     0
  0
SCALE
  5
51
102
{ACAD_REACTORS
330
42
102
}
330
42
100
AcDbScale
 70
     0
300
3" = 1'-0"
140
3.0
141
12.0
290
     0
  0
SCALE
  5
52
102
{ACAD_REACTORS
330
42
102
}
330
42
100
AcDbScale
 70
     0
300
6" = 1'-0"
140
6.0
141
12.0
290
     0
  0
SCALE
  5
53
102
{ACAD_REACTORS
330
42
102
}
330
42
100
AcDbScale
 70
     0
300
1'-0" = 1'-0"
140
12.0
141
12.0
290
     0
  0
TABLESTYLE
  5
65
102
{ACAD_XDICTIONARY
360
888
102
}
102
{ACAD_REACTORS
330
64
102
}
330
64
100
AcDbTableStyle
  3
Standard
 70
     0
 71
     0
 40
0.06
 41
0.06
280
     0
281
     0
  7
Standard
140
0.18
170
     2
 62
     0
 63
     7
283
     0
274
    -2
284
     1
 64
     0
275
    -2
285
     1
 65
     0
276
    -2
286
     1
 66
     0
277
    -2
287
     1
 67
     0
278
    -2
288
     1
 68
     0
279
    -2
289
     1
 69
     0
  7
Standard
140
0.25
170
     5
 62
     0
 63
     7
283
     0
274
    -2
284
     1
 64
     0
275
    -2
285
     1
 65
     0
276
    -2
286
     1
 66
     0
277
    -2
287
     1
 67
     0
278
    -2
288
     1
 68
     0
279
    -2
289
     1
 69
     0
  7
Standard
140
0.18
170
     5
 62
     0
 63
     7
283
     0
274
    -2
284
     1
 64
     0
275
    -2
285
     1
 65
     0
276
    -2
286
     1
 66
     0
277
    -2
287
     1
 67
     0
278
    -2
288
     1
 68
     0
279
    -2
289
     1
 69
     0
  0
VISUALSTYLE
  5
2F
102
{ACAD_XDICTIONARY
360
89B
102
}
102
{ACAD_REACTORS
330
29
102
}
330
29
100
AcDbVisualStyle
  2
2dWireframe
 70
     4
 71
     0
 72
     2
 73
     0
 90
        0
 40
-0.6
 41
-30.0
 62
     5
 63
     7
 74
     1
 91
        4
 64
     7
 65
   257
 75
     1
175
     1
 42
1.0
 92
        0
 66
   257
 43
1.0
 76
     1
 77
     6
 78
     2
 67
     7
 79
     5
170
     0
171
     0
290
     0
174
     0
 93
        1
 44
0.0
173
     0
291
     0
 45
0.0
1001
ACAD
1000
AcDbSavedByObjectVersion
1070
     0
  0
VISUALSTYLE
  5
2E
102
{ACAD_XDICTIONARY
360
899
102
}
102
{ACAD_REACTORS
330
29
102
}
330
29
100
AcDbVisualStyle
  2
Basic
 70
     7
 71
     1
 72
     0
 73
     1
 90
        0
 40
-0.6
 41
-30.0
 62
     5
 63
     7
 74
     0
 91
        4
 64
     7
 65
   257
 75
     1
175
     1
 42
1.0
 92
        8
 66
     7
 43
1.0
 76
     1
 77
     6
 78
     2
 67
     7
 79
     5
170
     0
171
     0
290
     0
174
     0
 93
        1
 44
0.0
173
     0
291
     1
 45
0.0
1001
ACAD
1000
AcDbSavedByObjectVersion
1070
     0
  0
VISUALSTYLE
  5
35
102
{ACAD_XDICTIONARY
360
8A7
102
}
102
{ACAD_REACTORS
330
29
102
}
330
29
100
AcDbVisualStyle
  2
Brighten
 70
    12
 71
     2
 72
     2
 73
     0
 90
        0
 40
-0.6
 41
-30.0
 62
     5
 63
     7
 74
     1
 91
        4
 64
     7
 65
   257
 75
     1
175
     1
 42
1.0
 92
        8
 66
     7
 43
1.0
 76
     1
 77
     6
 78
     2
 67
     7
 79
     5
170
     0
171
     0
290
     0
174
     0
 93
        1
 44
50.0
173
     0
291
     1
 45
0.0
1001
ACAD
1000
AcDbSavedByObjectVersion
1070
     0
  0
VISUALSTYLE
  5
39
102
{ACAD_XDICTIONARY
360
8AF
102
}
102
{ACAD_REACTORS
330
29
102
}
330
29
100
AcDbVisualStyle
  2
ColorChange
 70
    16
 71
     2
 72
     2
 73
     3
 90
        0
 40
-0.6
 41
-30.0
 62
     5
 63
     8
 74
     1
 91
        4
 64
     7
 65
   257
 75
     1
175
     1
 42
1.0
 92
        8
 66
     8
 43
1.0
 76
     1
 77
     6
 78
     2
 67
     7
 79
     5
170
     0
171
     0
290
     0
174
     0
 93
        1
 44
0.0
173
     0
291
     1
 45
0.0
1001
ACAD
1000
AcDbSavedByObjectVersion
1070
     0
  0
VISUALSTYLE
  5
32
102
{ACAD_XDICTIONARY
360
8A1
102
}
102
{ACAD_REACTORS
330
29
102
}
330
29
100
AcDbVisualStyle
  2
Conceptual
 70
     9
 71
     3
 72
     2
 73
     0
 90
        0
 40
-0.6
 41
-30.0
 62
     5
 63
     7
 74
     2
 91
        2
 64
     7
 65
   257
 75
     1
175
     1
 42
179.0
 92
        8
 66
     7
 43
1.0
 76
     1
 77
     6
 78
     2
 67
     7
 79
     3
170
     0
171
     0
290
     0
174
     0
 93
        1
 44
0.0
173
     0
291
     0
 45
0.0
1001
ACAD
1000
AcDbSavedByObjectVersion
1070
     0
  0
VISUALSTYLE
  5
34
102
{ACAD_XDICTIONARY
360
8A5
102
}
102
{ACAD_REACTORS
330
29
102
}
330
29
100
AcDbVisualStyle
  2
Dim
 70
    11
 71
     2
 72
     2
 73
     0
 90
        0
 40
-0.6
 41
-30.0
 62
     5
 63
     7
 74
     1
 91
        4
 64
     7
 65
   257
 75
     1
175
     1
 42
1.0
 92
        8
 66
     7
 43
1.0
 76
     1
 77
     6
 78
     2
 67
     7
 79
     5
170
     0
171
     0
290
     0
174
     0
 93
        1
 44
-50.0
173
     0
291
     1
 45
0.0
1001
ACAD
1000
AcDbSavedByObjectVersion
1070
     0
  0
VISUALSTYLE
  5
41
102
{ACAD_XDICTIONARY
360
8BF
102
}
102
{ACAD_REACTORS
330
29
102
}
330
29
100
AcDbVisualStyle
  2
EdgeColorOff
 70
    22
 71
     2
 72
     2
 73
     0
 90
        0
 40
-0.6
 41
-30.0
 62
     5
 63
     7
 74
     1
 91
        4
 64
     7
 65
   257
 75
     1
175
     1
 42
1.0
 92
        8
 66
     7
 43
1.0
 76
     1
 77
     6
 78
     2
 67
     7
 79
     5
170
     0
171
     0
290
     0
174
     0
 93
        1
 44
0.0
173
     0
291
     1
 45
0.0
1001
ACAD
1000
AcDbSavedByObjectVersion
1070
     0
  0
VISUALSTYLE
  5
38
102
{ACAD_XDICTIONARY
360
8AD
102
}
102
{ACAD_REACTORS
330
29
102
}
330
29
100
AcDbVisualStyle
  2
Facepattern
 70
    15
 71
     2
 72
     2
 73
     0
 90
        0
 40
-0.6
 41
-30.0
 62
     5
 63
     7
 74
     1
 91
        4
 64
     7
 65
   257
 75
     1
175
     1
 42
1.0
 92
        8
 66
     7
 43
1.0
 76
     1
 77
     6
 78
     2
 67
     7
 79
     5
170
     0
171
     0
290
     0
174
     0
 93
        1
 44
0.0
173
     0
291
     1
 45
0.0
1001
ACAD
1000
AcDbSavedByObjectVersion
1070
     0
  0
VISUALSTYLE
  5
2A
102
{ACAD_XDICTIONARY
360
891
102
}
102
{ACAD_REACTORS
330
29
102
}
330
29
100
AcDbVisualStyle
  2
Flat
 70
     0
 71
     2
 72
     1
 73
     1
 90
        2
 40
-0.6
 41
30.0
 62
     5
 63
     7
 74
     0
 91
        0
 64
     7
 65
   257
 75
     1
175
     1
 42
1.0
 92
        8
 66
     7
 43
1.0
 76
     1
 77
     6
 78
     2
 67
     7
 79
     5
170
     0
171
     0
290
     0
174
     0
 93
       13
 44
0.0
173
     0
291
     1
 45
0.0
1001
ACAD
1000
AcDbSavedByObjectVersion
1070
     0
  0
VISUALSTYLE
  5
2B
102
{ACAD_XDICTIONARY
360
893
102
}
102
{ACAD_REACTORS
330
29
102
}
330
29
100
AcDbVisualStyle
  2
FlatWithEdges
 70
     1
 71
     2
 72
     1
 73
     1
 90
        2
 40
-0.6
 41
30.0
 62
     5
 63
     7
 74
     1
 91
        0
 64
     7
 65
   257
 75
     1
175
     1
 42
1.0
 92
        0
 66
   257
 43
1.0
 76
     1
 77
     6
 78
     2
 67
     7
 79
     5
170
     0
171
     0
290
     0
174
     0
 93
       13
 44
0.0
173
     0
291
     1
 45
0.0
1001
ACAD
1000
AcDbSavedByObjectVersion
1070
     0
  0
VISUALSTYLE
  5
2C
102
{ACAD_XDICTIONARY
360
895
102
}
102
{ACAD_REACTORS
330
29
102
}
330
29
100
AcDbVisualStyle
  2
Gouraud
 70
     2
 71
     2
 72
     2
 73
     1
 90
        2
 40
-0.6
 41
30.0
 62
     5
 63
     7
 74
     0
 91
        0
 64
     7
 65
   257
 75
     1
175
     1
 42
1.0
 92
        0
 66
     7
 43
1.0
 76
     1
 77
     6
 78
     2
 67
     7
 79
     5
170
     0
171
     0
290
     0
174
     0
 93
       13
 44
0.0
173
     0
291
     1
 45
0.0
1001
ACAD
1000
AcDbSavedByObjectVersion
1070
     0
  0
VISUALSTYLE
  5
2D
102
{ACAD_XDICTIONARY
360
897
102
}
102
{ACAD_REACTORS
330
29
102
}
330
29
100
AcDbVisualStyle
  2
GouraudWithEdges
 70
     3
 71
     2
 72
     2
 73
     1
 90
        2
 40
-0.6
 41
30.0
 62
     5
 63
     7
 74
     1
 91
        0
 64
     7
 65
   257
 75
     1
175
     1
 42
1.0
 92
        0
 66
   257
 43
1.0
 76
     1
 77
     6
 78
     2
 67
     7
 79
     5
170
     0
171
     0
290
     0
174
     0
 93
       13
 44
0.0
173
     0
291
     1
 45
0.0
1001
ACAD
1000
AcDbSavedByObjectVersion
1070
     0
  0
VISUALSTYLE
  5
31
102
{ACAD_XDICTIONARY
360
89F
102
}
102
{ACAD_REACTORS
330
29
102
}
330
29
100
AcDbVisualStyle
  2
Hidden
 70
     6
 71
     1
 72
     2
 73
     2
 90
        0
 40
-0.6
 41
-30.0
 62
     5
 63
     7
 74
     2
 91
        2
 64
     7
 65
   257
 75
     2
175
     1
 42
40.0
 92
        0
 66
   257
 43
1.0
 76
     1
 77
     6
 78
     2
 67
     7
 79
     3
170
     0
171
     0
290
     0
174
     0
 93
        1
 44
0.0
173
     0
291
     0
 45
0.0
1001
ACAD
1000
AcDbSavedByObjectVersion
1070
     0
  0
VISUALSTYLE
  5
3F
102
{ACAD_XDICTIONARY
360
8BB
102
}
102
{ACAD_REACTORS
330
29
102
}
330
29
100
AcDbVisualStyle
  2
JitterOff
 70
    20
 71
     2
 72
     2
 73
     0
 90
        0
 40
-0.6
 41
-30.0
 62
     5
 63
     7
 74
     1
 91
        4
 64
     7
 65
   257
 75
     1
175
     1
 42
1.0
 92
       10
 66
     7
 43
1.0
 76
     1
 77
     6
 78
     2
 67
     7
 79
     5
170
     0
171
     0
290
     0
174
     0
 93
        1
 44
0.0
173
     0
291
     1
 45
0.0
1001
ACAD
1000
AcDbSavedByObjectVersion
1070
     0
  0
VISUALSTYLE
  5
37
102
{ACAD_XDICTIONARY
360
8AB
102
}
102
{ACAD_REACTORS
330
29
102
}
330
29
100
AcDbVisualStyle
  2
Linepattern
 70
    14
 71
     2
 72
     2
 73
     0
 90
        0
 40
-0.6
 41
-30.0
 62
     5
 63
     7
 74
     1
 91
        4
 64
     7
 65
   257
 75
     7
175
     7
 42
1.0
 92
        8
 66
     7
 43
1.0
 76
     1
 77
     6
 78
     2
 67
     7
 79
     5
170
     0
171
     0
290
     0
174
     0
 93
        1
 44
0.0
173
     0
291
     1
 45
0.0
1001
ACAD
1000
AcDbSavedByObjectVersion
1070
     0
  0
VISUALSTYLE
  5
40
102
{ACAD_XDICTIONARY
360
8BD
102
}
102
{ACAD_REACTORS
330
29
102
}
330
29
100
AcDbVisualStyle
  2
OverhangOff
 70
    21
 71
     2
 72
     2
 73
     0
 90
        0
 40
-0.6
 41
-30.0
 62
     5
 63
     7
 74
     1
 91
        4
 64
     7
 65
   257
 75
     1
175
     1
 42
1.0
 92
        9
 66
     7
 43
1.0
 76
     1
 77
     6
 78
     2
 67
     7
 79
     5
170
     0
171
     0
290
     0
174
     0
 93
        1
 44
0.0
173
     0
291
     1
 45
0.0
1001
ACAD
1000
AcDbSavedByObjectVersion
1070
     0
  0
VISUALSTYLE
  5
33
102
{ACAD_XDICTIONARY
360
8A3
102
}
102
{ACAD_REACTORS
330
29
102
}
330
29
100
AcDbVisualStyle
  2
Realistic
 70
     8
 71
     2
 72
     3
 73
     0
 90
        2
 40
-0.6
 41
30.0
 62
     5
 63
     7
 74
     0
 91
        0
 64
     7
 65
   257
 75
     1
175
     1
 42
1.0
 92
        8
 66
   257
 43
1.0
 76
     1
 77
     6
 78
     2
 67
     7
 79
     3
170
     0
171
     0
290
     0
174
     0
 93
       13
 44
0.0
173
     0
291
     0
 45
0.0
1001
ACAD
1000
AcDbSavedByObjectVersion
1070
     0
  0
VISUALSTYLE
  5
3E
102
{ACAD_XDICTIONARY
360
8B9
102
}
102
{ACAD_REACTORS
330
29
102
}
330
29
100
AcDbVisualStyle
  2
Shaded
 70
    27
 71
     2
 72
     2
 73
     1
 90
        2
 40
-0.6
 41
30.0
 62
     5
 63
     7
 74
     0
 91
        4
 64
     7
 65
   257
 75
     1
175
     1
 42
1.0
 92
        8
 66
   257
 43
1.0
 76
     1
 77
     6
 78
     2
 67
     8
 79
     3
170
     0
171
     0
290
     0
174
     0
 93
        5
 44
0.0
173
     0
291
     0
 45
0.0
1001
ACAD
1000
AcDbSavedByObjectVersion
1070
     0
  0
VISUALSTYLE
  5
3D
102
{ACAD_XDICTIONARY
360
8B7
102
}
102
{ACAD_REACTORS
330
29
102
}
330
29
100
AcDbVisualStyle
  2
Shaded with edges
 70
    26
 71
     2
 72
     2
 73
     1
 90
        2
 40
-0.6
 41
30.0
 62
     5
 63
     7
 74
     1
 91
       10
 64
     7
 65
   257
 75
     2
175
     1
 42
1.0
 92
        8
 66
   257
 43
1.0
 76
     1
 77
     6
 78
     2
 67
     7
 79
     3
170
     0
171
     0
290
     0
174
     0
 93
        5
 44
0.0
173
     0
291
     0
 45
0.0
1001
ACAD
1000
AcDbSavedByObjectVersion
1070
     0
  0
VISUALSTYLE
  5
3A
102
{ACAD_XDICTIONARY
360
8B1
102
}
102
{ACAD_REACTORS
330
29
102
}
330
29
100
AcDbVisualStyle
  2
Shades of Gray
 70
    23
 71
     2
 72
     2
 73
     3
 90
        0
 40
-0.6
 41
-30.0
 62
     5
 63
     7
 74
     2
 91
        2
 64
     7
 65
     7
 75
     1
175
     1
 42
40.0
 92
        8
 66
     7
 43
1.0
 76
     1
 77
     6
 78
     2
 67
     7
 79
     3
170
     0
171
     0
290
     0
174
     0
 93
        1
 44
0.0
173
     0
291
     0
 45
0.0
1001
ACAD
1000
AcDbSavedByObjectVersion
1070
     0
  0
VISUALSTYLE
  5
3B
102
{ACAD_XDICTIONARY
360
8B3
102
}
102
{ACAD_REACTORS
330
29
102
}
330
29
100
AcDbVisualStyle
  2
Sketchy
 70
    24
 71
     1
 72
     2
 73
     2
 90
        0
 40
-0.6
 41
-30.0
 62
     5
 63
     7
 74
     2
 91
        2
 64
     7
 65
     7
 75
     1
175
     1
 42
40.0
 92
       11
 66
     7
 43
1.0
 76
     1
 77
     6
 78
     2
 67
     7
 79
     6
170
     0
171
     0
290
     0
174
     0
 93
        1
 44
0.0
173
     0
291
     0
 45
0.0
1001
ACAD
1000
AcDbSavedByObjectVersion
1070
     0
  0
VISUALSTYLE
  5
36
102
{ACAD_XDICTIONARY
360
8A9
102
}
102
{ACAD_REACTORS
330
29
102
}
330
29
100
AcDbVisualStyle
  2
Thicken
 70
    13
 71
     2
 72
     2
 73
     0
 90
        0
 40
-0.6
 41
-30.0
 62
     5
 63
     7
 74
     1
 91
        4
 64
     7
 65
   257
 75
     1
175
     1
 42
1.0
 92
       12
 66
     7
 43
1.0
 76
     1
 77
     6
 78
     2
 67
     7
 79
     5
170
     0
171
     0
290
     0
174
     0
 93
        1
 44
0.0
173
     0
291
     1
 45
0.0
1001
ACAD
1000
AcDbSavedByObjectVersion
1070
     0
  0
VISUALSTYLE
  5
30
102
{ACAD_XDICTIONARY
360
89D
102
}
102
{ACAD_REACTORS
330
29
102
}
330
29
100
AcDbVisualStyle
  2
Wireframe
 70
     5
 71
     0
 72
     2
 73
     0
 90
        0
 40
-0.6
 41
-30.0
 62
     5
 63
     7
 74
     1
 91
        4
 64
     7
 65
   257
 75
     1
175
     1
 42
1.0
 92
        0
 66
   257
 43
1.0
 76
     1
 77
     6
 78
     2
 67
     7
 79
     3
170
     0
171
     0
290
     0
174
     0
 93
        1
 44
0.0
173
     0
291
     0
 45
0.0
1001
ACAD
1000
AcDbSavedByObjectVersion
1070
     0
  0
VISUALSTYLE
  5
3C
102
{ACAD_XDICTIONARY
360
8B5
102
}
102
{ACAD_REACTORS
330
29
102
}
330
29
100
AcDbVisualStyle
  2
X-Ray
 70
    25
 71
     2
 72
     2
 73
     1
 90
        1
 40
0.5
 41
-30.0
 62
     5
 63
     7
 74
     1
 91
        0
 64
     7
 65
   257
 75
     1
175
     1
 42
1.0
 92
        8
 66
     7
 43
1.0
 76
     1
 77
     6
 78
     2
 67
     7
 79
     3
170
     0
171
     0
290
     0
174
     0
 93
       13
 44
0.0
173
     0
291
     0
 45
0.0
1001
ACAD
1000
AcDbSavedByObjectVersion
1070
     0
  0
DICTIONARYVAR
  5
79
102
{ACAD_REACTORS
330
76
102
}
330
76
100
DictionaryVariables
280
     0
  1
1:1
  0
DICTIONARYVAR
  5
78
102
{ACAD_REACTORS
330
76
102
}
330
76
100
DictionaryVariables
280
     0
  1
STANDARD
  0
DICTIONARYVAR
  5
77
102
{ACAD_REACTORS
330
76
102
}
330
76
100
DictionaryVariables
280
     0
  1
STANDARD
  0
DICTIONARYVAR
  5
886
102
{ACAD_REACTORS
330
76
102
}
330
76
100
DictionaryVariables
280
     0
  1
1
  0
DICTIONARYVAR
  5
885
102
{ACAD_REACTORS
330
76
102
}
330
76
100
DictionaryVariables
280
     0
  1
1
  0
DICTIONARYVAR
  5
884
102
{ACAD_REACTORS
330
76
102
}
330
76
100
DictionaryVariables
280
     0
  1
0
  0
DICTIONARYVAR
  5
881
102
{ACAD_REACTORS
330
76
102
}
330
76
100
DictionaryVariables
280
     0
  1
0
  0
DICTIONARYVAR
  5
882
102
{ACAD_REACTORS
330
76
102
}
330
76
100
DictionaryVariables
280
     0
  1
0
  0
DICTIONARYVAR
  5
880
102
{ACAD_REACTORS
330
76
102
}
330
76
100
DictionaryVariables
280
     0
  1
2
  0
DICTIONARYVAR
  5
87F
102
{ACAD_REACTORS
330
76
102
}
330
76
100
DictionaryVariables
280
     0
  1
1
  0
DICTIONARYVAR
  5
883
102
{ACAD_REACTORS
330
76
102
}
330
76
100
DictionaryVariables
280
     0
  1
127
  0
DICTIONARYVAR
  5
887
102
{ACAD_REACTORS
330
76
102
}
330
76
100
DictionaryVariables
280
     0
  1
2
  0
DICTIONARY
  5
8C3
330
6B
100
AcDbDictionary
280
     1
281
     1
  3
ACAD_XREC_ROUNDTRIP
360
8C4
  0
DICTIONARY
  5
8C7
330
73
100
AcDbDictionary
280
     1
281
     1
  3
ACAD_XREC_ROUNDTRIP
360
8C8
  0
DICTIONARY
  5
8C5
330
6F
100
AcDbDictionary
280
     1
281
     1
  3
ACAD_XREC_ROUNDTRIP
360
8C6
  0
DICTIONARY
  5
1A
330
19
100
AcDbDictionary
280
     1
281
     1
  3
ACAD_XREC_ROUNDTRIP
360
88F
  3
BUMPTILE
360
1C
  3
DIFFUSETILE
360
1B
  3
OPACITYTILE
360
1F
  3
REFLECTIONTILE
360
1E
  3
REFRACTIONTILE
360
20
  3
SPECULARTILE
360
1D
  0
DICTIONARY
  5
12
330
11
100
AcDbDictionary
280
     1
281
     1
  3
ACAD_XREC_ROUNDTRIP
360
88E
  3
BUMPTILE
360
14
  3
DIFFUSETILE
360
13
  3
FBXASSET
360
10B
  3
OPACITYTILE
360
17
  3
REFLECTIONTILE
360
16
  3
REFRACTIONTILE
360
18
  3
SPECULARTILE
360
15
  0
DICTIONARY
  5
22
330
21
100
AcDbDictionary
280
     1
281
     1
  3
ACAD_XREC_ROUNDTRIP
360
890
  3
BUMPTILE
360
24
  3
DIFFUSETILE
360
23
  3
FBXASSET
360
BA
  3
OPACITYTILE
360
27
  3
REFLECTIONTILE
360
26
  3
REFRACTIONTILE
360
28
  3
SPECULARTILE
360
25
  0
DICTIONARY
  5
88A
330
67
100
AcDbDictionary
280
     1
281
     1
  3
ACAD_XREC_ROUNDTRIP
360
88B
  0
DICTIONARY
  5
888
330
65
100
AcDbDictionary
280
     1
281
     1
  3
ACAD_ROUNDTRIP_2008_TABLESTYLE_CELLSTYLEMAP
360
889
  3
ACAD_XREC_ROUNDTRIP
360
8C1
  0
DICTIONARY
  5
89B
330
2F
100
AcDbDictionary
280
     1
281
     1
  3
ACAD_XREC_ROUNDTRIP
360
89C
  0
DICTIONARY
  5
899
330
2E
100
AcDbDictionary
280
     1
281
     1
  3
ACAD_XREC_ROUNDTRIP
360
89A
  0
DICTIONARY
  5
8A7
330
35
100
AcDbDictionary
280
     1
281
     1
  3
ACAD_XREC_ROUNDTRIP
360
8A8
  0
DICTIONARY
  5
8AF
330
39
100
AcDbDictionary
280
     1
281
     1
  3
ACAD_XREC_ROUNDTRIP
360
8B0
  0
DICTIONARY
  5
8A1
330
32
100
AcDbDictionary
280
     1
281
     1
  3
ACAD_XREC_ROUNDTRIP
360
8A2
  0
DICTIONARY
  5
8A5
330
34
100
AcDbDictionary
280
     1
281
     1
  3
ACAD_XREC_ROUNDTRIP
360
8A6
  0
DICTIONARY
  5
8BF
330
41
100
AcDbDictionary
280
     1
281
     1
  3
ACAD_XREC_ROUNDTRIP
360
8C0
  0
DICTIONARY
  5
8AD
330
38
100
AcDbDictionary
280
     1
281
     1
  3
ACAD_XREC_ROUNDTRIP
360
8AE
  0
DICTIONARY
  5
891
330
2A
100
AcDbDictionary
280
     1
281
     1
  3
ACAD_XREC_ROUNDTRIP
360
892
  0
DICTIONARY
  5
893
330
2B
100
AcDbDictionary
280
     1
281
     1
  3
ACAD_XREC_ROUNDTRIP
360
894
  0
DICTIONARY
  5
895
330
2C
100
AcDbDictionary
280
     1
281
     1
  3
ACAD_XREC_ROUNDTRIP
360
896
  0
DICTIONARY
  5
897
330
2D
100
AcDbDictionary
280
     1
281
     1
  3
ACAD_XREC_ROUNDTRIP
360
898
  0
DICTIONARY
  5
89F
330
31
100
AcDbDictionary
280
     1
281
     1
  3
ACAD_XREC_ROUNDTRIP
360
8A0
  0
DICTIONARY
  5
8BB
330
3F
100
AcDbDictionary
280
     1
281
     1
  3
ACAD_XREC_ROUNDTRIP
360
8BC
  0
DICTIONARY
  5
8AB
330
37
100
AcDbDictionary
280
     1
281
     1
  3
ACAD_XREC_ROUNDTRIP
360
8AC
  0
DICTIONARY
  5
8BD
330
40
100
AcDbDictionary
280
     1
281
     1
  3
ACAD_XREC_ROUNDTRIP
360
8BE
  0
DICTIONARY
  5
8A3
330
33
100
AcDbDictionary
280
     1
281
     1
  3
ACAD_XREC_ROUNDTRIP
360
8A4
  0
DICTIONARY
  5
8B9
330
3E
100
AcDbDictionary
280
     1
281
     1
  3
ACAD_XREC_ROUNDTRIP
360
8BA
  0
DICTIONARY
  5
8B7
330
3D
100
AcDbDictionary
280
     1
281
     1
  3
ACAD_XREC_ROUNDTRIP
360
8B8
  0
DICTIONARY
  5
8B1
330
3A
100
AcDbDictionary
280
     1
281
     1
  3
ACAD_XREC_ROUNDTRIP
360
8B2
  0
DICTIONARY
  5
8B3
330
3B
100
AcDbDictionary
280
     1
281
     1
  3
ACAD_XREC_ROUNDTRIP
360
8B4
  0
DICTIONARY
  5
8A9
330
36
100
AcDbDictionary
280
     1
281
     1
  3
ACAD_XREC_ROUNDTRIP
360
8AA
  0
DICTIONARY
  5
89D
330
30
100
AcDbDictionary
280
     1
281
     1
  3
ACAD_XREC_ROUNDTRIP
360
89E
  0
DICTIONARY
  5
8B5
330
3C
100
AcDbDictionary
280
     1
281
     1
  3
ACAD_XREC_ROUNDTRIP
360
8B6
  0
XRECORD
  5
8C4
102
{ACAD_REACTORS
330
8C3
102
}
330
8C3
100
AcDbXrecord
280
     1
102
SHADEPLOT
 70
     0
102
SHADEPLOTRESLEVEL
 70
     2
102
SHADEPLOTCUSTOMDPI
 70
   300
  0
XRECORD
  5
8C8
102
{ACAD_REACTORS
330
8C7
102
}
330
8C7
100
AcDbXrecord
280
     1
102
SHADEPLOT
 70
     0
102
SHADEPLOTRESLEVEL
 70
     2
102
SHADEPLOTCUSTOMDPI
 70
   300
  0
XRECORD
  5
8C6
102
{ACAD_REACTORS
330
8C5
102
}
330
8C5
100
AcDbXrecord
280
     1
102
SHADEPLOT
 70
     0
102
SHADEPLOTRESLEVEL
 70
     2
102
SHADEPLOTCUSTOMDPI
 70
   300
  0
XRECORD
  5
88F
102
{ACAD_REACTORS
330
1A
102
}
330
1A
100
AcDbXrecord
280
     1
102
MATERIAL
148
0.0
149
0.0
149
0.0
 93
        0
 94
      127
282
     0
 72
     0
 77
     0
171
     0
175
     0
179
     0
273
     0
  0
XRECORD
  5
1C
102
{ACAD_REACTORS
330
1A
102
}
330
1A
100
AcDbXrecord
280
     1
270
     1
271
     1
  0
XRECORD
  5
1B
102
{ACAD_REACTORS
330
1A
102
}
330
1A
100
AcDbXrecord
280
     1
270
     1
271
     1
  0
XRECORD
  5
1F
102
{ACAD_REACTORS
330
1A
102
}
330
1A
100
AcDbXrecord
280
     1
270
     1
271
     1
  0
XRECORD
  5
1E
102
{ACAD_REACTORS
330
1A
102
}
330
1A
100
AcDbXrecord
280
     1
270
     1
271
     1
  0
XRECORD
  5
20
102
{ACAD_REACTORS
330
1A
102
}
330
1A
100
AcDbXrecord
280
     1
270
     1
271
     1
  0
XRECORD
  5
1D
102
{ACAD_REACTORS
330
1A
102
}
330
1A
100
AcDbXrecord
280
     1
270
     1
271
     1
  0
XRECORD
  5
88E
102
{ACAD_REACTORS
330
12
102
}
330
12
100
AcDbXrecord
280
     1
102
MATERIAL
148
0.0
149
0.0
149
0.0
 93
        0
 94
      127
282
     0
 72
     0
 77
     0
171
     0
175
     0
179
     0
273
     0
  0
XRECORD
  5
14
102
{ACAD_REACTORS
330
12
102
}
330
12
100
AcDbXrecord
280
     1
270
     1
271
     1
  0
XRECORD
  5
13
102
{ACAD_REACTORS
330
12
102
}
330
12
100
AcDbXrecord
280
     1
270
     1
271
     1
  0
XRECORD
  5
10B
102
{ACAD_REACTORS
330
12
102
}
330
12
100
AcDbXrecord
280
     1
 70
     1
 90
1959938040
 71
     1
  1
F18AB44A-377A-4839-AEA6-4C6FE67FA7E4
311
504B03040A0000080000A86D37403DEE336E79000000790000001B0000006175746F6465736B2D64657369676E2D7061636B6167652E786D6C3C3F786D6C2076657273696F6E3D22312E302220656E636F64696E673D227574662D3822203F3E3C666F726D6174733E3C666F726D61743E687474703A2F2F736368656D612E
311
6175746F6465736B2E636F6D2F64657369676E2D7061636B6167652F323030393C2F666F726D61743E3C2F666F726D6174733E504B0304140006080800A86D3740D486FD9CA0000000F4000000130000005B436F6E74656E745F54797065735D2E786D6C7D8EC10E82300C865F65E91D8A1E8C310C0EEA1BF002731658846E
311
D98AC1B77784ABF1D8FE5FBFBF75BBCE937A534CCEB38643598122B6FEE978D0B0485F9C41B54DDD7D022595594E1A469170414C76A4D9A4D207E29CF43ECE46F218070CC6BECC4078ACAA135ACF422C856C0E68EA1BF5669944DDD7BCDE7B1F8E415D77AECB980613C2E4AC91FC167A2B244592486606FC29C8FD7F045B9A
311
EF7053A7E60B504B0304140006080800A86D374076D376D8EA0000007C01000008000000636F72652E786D6C8D904D6EC3201085AF82668F0DC67FB53051D33827E80510260E4A0C9681AAC72F4E1CA9DD7535A337EF9B193D7EF89EEFE84BAFDE38DB03CD08206D951B8D9D7A88E1825B4007C157E7C22F1B202B67DDC326
311
83E0D3EAE2B24BCAD9A06D48AA75A3DE45E9BD0E80D43D353D7875D5B3CC640CC9E16FD922D54D4E3AA3AF2EC1319A113D8F9831ED3317A357100D63C77618282E4EC70A97E5FB19B764A8F0C75BDD34ACA4A7BA3AF37C83050F667EDD57AB96418F200A420B4C12CE3E29EBCAAAA30D26754708CF37FB1F282EE33FA1686C
311
60C5FEEE13F320687AE431103CDFB248E51154AA5B6EE207504B0304140006080800A86D374055019EA25F0000007C00000007000000636E782E786D6C4DCB3B0E80201045D1AD90E915ED2CF8AC45050C11660C8261F98AB1B07AC9C97D42D718D865D3E909258CFD00CCE24AC6E326A164D74DC0B4128928FF326038472B
311
A13128B1252AC747C6BAB984FC68F0B87FE8960A5C09FE86CFB69FBA01504B0304140006080800A86D3740F0E643B366010000020300000C0000006662782F636F72652E786D6C8D52ED8E8230107C95A6FF4BCB9778A6D49CA73EC1BD4085CA11A125A5253EFE2D1FC6F3628C2129CDCCCEEEEC00DF5EDB060DCAF6B5D139
311
0E038691D285296B5DE5D8BB335963B415DC1AE3FE9461A465AB723CC258F0CA1ADF2D5061B453DA01AA4DA91650F6BD7218150D5C72DC173FAA9581F40E2AFA4BD0C9E2222B158401D0502778EF2C1840F390F1C4E27CBA723AE3827B5F970B5B9730AD3ED7CA6291C5F16E7D388424DAEF5292249F47B26687947C7DACB2
311
2C4EC2FD2A3D723A8A0577757B735758259D2AB18858181106F2F83B8C3749BA0933C2561BC6381DCB1F44BE2BDF14F95ABB385AECCEB21E8B108C4CC4BF6D2122877A39801F2A381D4384D794F063D0100884ECE4A9B9ED7101685085333601A634FE4E0DB2F10AA632343D9CCE2C749E1AC0664FFB442FFABCEE011F50EA
311
0AAC4907D79377E3743E4F5DA2E8942583BB226D6C2B9BBBB9D9E2FDBC0F7A2A2F4C63EC3B6ABAAC4A9730E9F8F78A5F504B0304140006080800A86D3740B06E0AA87E0000009D0000000B0000006662782F636E782E786D6C4DCCDD0A832018C6F15B91F7DCF5312B5F5083721712CB42663A9C8E5DFE6A74B0A3077E3CFC
311
45FFD91C799BF8B2C14BA82E2510E3EF61B67E9590D34239905E891842FABB01F1D366241C0C4AAC31E4E749B359A6ECD2AECEFAC7896D3BDE065E328A7AD49475BCA203BBD69461835D5D3588A8A150A2F895F63DC2EA0B504B0304140006080800A86D37404C67DAB72B01000014020000310000006662782F3636434542
311
3830342D394443442D343738312D423433322D3439353937323135393939442F636F72652E786D6C8D51CB6EC32010FC158B537AC0068C1D3BC2444AD23FE80F1020094A0C168F2A9F5F5C3B527BCB8545B333B3A35DB67F8E8FE25BFB609C1D002E1128B4954E197B1D408A17D88162CF99772EFEA181C28A510F60860167
311
57EFD2B442D2D9A86DCCA8754AAFA008414750C847FE0C20C89B1E452952CC8C702F2721EFE2AA4B5CE676E67116A2CF018A65C8FC02DEB6C7CF438728EC4FC713A4DB0EC303AD09A47DD36F096EFABE3FB16A1172969251ABDCA81CC75C8CF6EF9ACC62CEA2195FF1A5D7226A05384198408421A9BF70BDA3CD0E6F216A77
311
08B16AA6FF13A549BD294AC6C69AAC711759001CB36A6970A65C3A3F5E61F473723E16F3BC4DD0F203705422821A4251C7AA859A17903D5BBA7A86E87C5EF0E67ECE6CDC2CC62DE5AC9A6F94CBEF01739DEFC97F00504B0304140006080800A86D374049F6320F4D01000033030000300000006662782F3636434542383034
311
2D394443442D343738312D423433322D3439353937323135393939442F636E782E786D6CD593CD6E022114855F85B09F1F746A1BC360D2459FA08B6E11AE4A6560C24F53DFBE1745EBC64597DD90C9B987736EBE307CF33D59F205211AEF46CADA9E1270CA6BE3F623CD69D7BC50B2113C789FEE6C943839C1488B4C05DF07
311
9FE72A69D8C96C13AAD6B8631503449F83828872B949AC57D26200B826A308D316B4064D6E46FCDA41C05550DC9E483A00797BFD207EFB092A45DE9514C1BBD22178396BD39D891265658C238DEA00936C654E5E433CB65A26D9B2F6DAF560A7DF24522E5C2B7330A4948FB49C54D48D5AE4C83B1C0A1E53407AD5944E3350
311
21E7D91A251342EECEC68B47F06C5C5A0DD56B107C40375B2D8701C3CE33C19399A03A5400994053B1E8D9A2E959B358BEB3E57A785AB3E7A65FADFB9E77C52EF8D67B5B2F610C043F13E55D0297A860BC2BE347F8AA8F681390B50FA73F804400B5F542E796F19FF974E7F78DB802FE05E207504B0304140006080800A86D
311
37402A60C0F49C0500007B100000340000006662782F36364345423830342D394443442D343738312D423433322D3439353937323135393939442F6F626A656374732E786D6CAD575B8F9B3814FE2B887D8684249DCB8AA1CA24932AEA4E5B356AB50F2345060CE31D73916D6632FDF5FB190C81349966577D016CECE373BE
311
F39D8BFDF7BB8C5BCF544856E437B6E78E6D8BE65111B33CBDB12B953857B6F53EF04551A8DE32DBCA49466F6C3D6D077E2A8AAA3453314D48C5D5C1ECEAF66F4B4634A7B6157122E58D2DA3479A119754AA88A97C7263A2889B263BD7739B8543B1A920E5E381D092089A2B688AF91C52AC46296F381CDBA3C01FE9FF81AF
311
9F66D5F4F4AA516DCFF07C964B45F2E8A7C30EC44CBDD9F26EF2EEDA79379B4D9DD9C5C4736E57B74BC7BB9C8E17178BC5F5FCEE1A074B2520C968226862071F808D60913F6A7E057EC572359D9825C64123419F99F6941D4C2CCF1F356B3AEB8C91C7D48F8A3CA7518D15D0A8ED33A2635AD23C86CF1995D0AC87D07838F4
311
348EBDDF533D3647F6A7CF43A0BFA327A8D5BD7DF7352DC27F60823C87414252CDC0064B6368C3D5F11EE1B028B8F9C7A49511450523DCE22C1444BCDA0196EA25813F10A3992C7434680BEC005E687E0FE98230FA35CF8F6999549C6B1ADB411D055BC40A55B2D68CFDA062AF7D1F19E8045F69365C1983D46B49EDE0BAA1
311
C8D5019B1A20AD8493142E87997AE7747260E842C7E97A69071F57E16EA363F7F8E1A5284A2A94A60FA8D53AAE7D6B948C4EDE599ED31BEC0355F6A07C05F29F10EA7B55E037C176B3DDCC9CA204C96552880CBEB1C69633C6636C79F5537FF7BEFC51B779E8BD5378C2D91AAADF80E7D086BE2F7B7006FE33085F88A9316D
311
13118EB471CF7200A44962F10253C8C349B8B38335B21CB23276111E783019EA3EE3D31F19314814F549BD770E2C0FD2E219091AB0D58C841A0DF98D827B3FFD94CEEA83CDB253F0BEFB2D749D2F371F3795484844EF4D4C2F69C272A650E2F6BCE92B34C07C60D1137D7D29440C437FC67BD3C73B334749A0AD31D7C0A76D
311
4ED783FDC9830322EC4B0B9D6EFC5F9C00237461EDC9BF6732A29C939C16557BEE9BF50365A3815807BB66725760F68505A469FE1CC4208A742458A941ECAA559734DD13D67D5B7F0223EDE0F6F52FF2DACF5EE13EF746052FC4367CDD3669E928D4DF87DC36188CB414D0BD0E9236FE0DE8DB9825492591048FE0FA7DBDE8
311
FB4EA705A488566A132D33D88FE022C290B6958B6A2D082A69916F19EA26E2EEE8017DF980D430A016784A634979B2659C57D936611CD5689B91F2041CFF5FFFB0CACA2DC98A2A5727640F54477518EA3E60AF7C212A7AB4834DFD766E917B631A9F2083AE2547B01AB876E55DCD6F67B3B933BDBC9C3BB3ABE9B533BF9B5F
311
38B3C5C5EAEEE27235BFBC9BB57E6A3409FCB6D4F4231A5E4269F32BC18CFBBEAD113F2609D8C13D51F2E143139EEDFBDBDA452FEC8FB007F5B2DB388F9FD1F7D1F8D702F62B8F0A5A6725A719CD15D13174AF3FF857823E63A04C33BFCE484ACF90F2F9C3E6C018CC9CB1EF8B8E77FA72B0D7CC2E74401E15A21EAB2CCC09
311
E3071BD30649B7CC53835FEB93EEDD149A76A847C631E84C65C1598C3C185B292D32AA900DCF284222A312D4EBF7F4B1B97B9CB1FBB9E9101509396D3579246892B94458805A55A486F3D61F68EA745F7563A3DCBA4F78984C615BE0CC8D8D265DB1884A374481D6AD502D1C5CEA77F268FC499E72F4DACDA66EDCEDD2D80C
311
4A72B7E49CFEC9D8D5A4706300D24889BE010D11BC532B13F8B56EE67FF49F0C6FD5B188C26758A9CE96FD44674C7D0C42B431CADC16D0C43C99A37708D4B7CDF2DC7ACD0091B36E596F92A091EA2822D2FAA6A0F5332ACD975F46E850ACF567ABE4550A5F9E2FC9111464AE74808345608591591205AA2EFE7CF8220ADC64
311
336BC5408187459165456E06737313B6368FB8D7C60F480B545F48E4C364EC4D1EEA8B80B99B6C4322A94B62F98409F854B00EE281E3C1C8E6B6880AD4FCE8D68DB4130EB8B95E5AA6A421C7B6EBFB5955C3829623A716A2475F2675ACF417946FDE0546F552A820D0C507FF02504B0304140006080000A86D374000000000
311
0000000000000000350000006662782F36364345423830342D394443442D343738312D423433322D3439353937323135393939442F76657274696365732E62696E504B0304140006080800A86D3740F270F1330600000004000000360000006662782F36364345423830342D394443442D343738312D423433322D34393539
311
37323135393939442F747269616E676C65732E62696E636660600000504B0304140006080000A86D3740000000000000000000000000370000006662782F36364345423830342D394443442D343738312D423433322D3439353937323135393939442F617474726962757465732E62696E504B0304140006080800A86D3740
311
D5987DFC8F00000041010000360000006662782F36364345423830342D394443442D343738312D423433322D3439353937323135393939442F6469726563746F72792E786D6C858F410EC2201045AF4266AF15DDB800BA74E7C21B903225242D6328188F2FA5C4183471359997F9FF81E89FF3C41E1816475E02DF1F80A11F
311
C8386F25A438EECEC07A250251FC3803E6F58C12560C4AD840E95E91C151A72936F496F35732D860FE635F62C8F2DA16B505C545B74125BAA2FA9E05D7CC053D063734D5C7665FD55B6B8D15D5E9BFEAFD8490FFA45E504B0304140006080800A86D374065785840FE000000A00100003B0000006662782F36364345423830
311
342D394443442D343738312D423433322D3439353937323135393939442F7265736F75726365732F636F72652E786D6C8D504B6E833010BD0A9ABDC1C61028328E9A869CA017B0CC24B512ECC89FAAC7AF49A8D4EEBA9919BD8FE6E989FDD7722B3ED107E3EC08ACA450A0D56E36F632428A67D243B197C23B177FC9A0B06A
311
C1115618A4B87897EE1BA49D8D686346AD9B7103550818A1D0B77C8C10F4072EAA54296645B89677A5AFEA82252B339D755284E87380E2F9649D203D0697BCC620AA272B454A66DE3466CE3FCDD9A007D9717EE8A78992FA786849D3BC9E484FA796BCBDECBA8E37ECB86B4FA25ACD5244B3FC64D41E55C419644D594D2823
311
357F677C68DA817584EE064A45B5CAFF98D27DFEA729191B79BDC57DDA024896833C0829AAB5AFBC1E65E6BD762BBF01504B010214000A0000080000A86D37403DEE336E79000000790000001B00000000000000000000000000000000006175746F6465736B2D64657369676E2D7061636B6167652E786D6C504B01021400
311
140006080800A86D3740D486FD9CA0000000F40000001300000000000000000000000000B20000005B436F6E74656E745F54797065735D2E786D6C504B01021400140006080800A86D374076D376D8EA0000007C010000080000000000000000000000000083010000636F72652E786D6C504B01021400140006080800A86D
311
374055019EA25F0000007C000000070000000000000000000000000093020000636E782E786D6C504B01021400140006080800A86D3740F0E643B366010000020300000C00000000000000000000000000170300006662782F636F72652E786D6C504B01021400140006080800A86D3740B06E0AA87E0000009D0000000B00
311
000000000000000000000000A70400006662782F636E782E786D6C504B01021400140006080800A86D37404C67DAB72B0100001402000031000000000000000000000000004E0500006662782F36364345423830342D394443442D343738312D423433322D3439353937323135393939442F636F72652E786D6C504B010214
311
00140006080800A86D374049F6320F4D010000330300003000000000000000000000000000C80600006662782F36364345423830342D394443442D343738312D423433322D3439353937323135393939442F636E782E786D6C504B01021400140006080800A86D37402A60C0F49C0500007B10000034000000000000000000
311
00000000630800006662782F36364345423830342D394443442D343738312D423433322D3439353937323135393939442F6F626A656374732E786D6C504B01021400140006080000A86D37400000000000000000000000003500000000000000000000000000510E00006662782F36364345423830342D394443442D343738
311
312D423433322D3439353937323135393939442F76657274696365732E62696E504B01021400140006080800A86D3740F270F13306000000040000003600000000000000000000000000A40E00006662782F36364345423830342D394443442D343738312D423433322D3439353937323135393939442F747269616E676C65
311
732E62696E504B01021400140006080000A86D37400000000000000000000000003700000000000000000000000000FE0E00006662782F36364345423830342D394443442D343738312D423433322D3439353937323135393939442F617474726962757465732E62696E504B01021400140006080800A86D3740D5987DFC8F
311
000000410100003600000000000000000000000000530F00006662782F36364345423830342D394443442D343738312D423433322D3439353937323135393939442F6469726563746F72792E786D6C504B01021400140006080800A86D374065785840FE000000A00100003B00000000000000000000000000361000006662
311
782F36364345423830342D394443442D343738312D423433322D3439353937323135393939442F7265736F75726365732F636F72652E786D6C504B0506000000000E000E00800400008D1100000000
310
504B03040A0000080000A86D37403DEE336E79000000790000001B0000006175746F6465736B2D64657369676E2D7061636B6167652E786D6C3C3F786D6C2076657273696F6E3D22312E302220656E636F64696E673D227574662D3822203F3E3C666F726D6174733E3C666F726D61743E687474703A2F2F736368656D612E
310
6175746F6465736B2E636F6D2F64657369676E2D7061636B6167652F323030393C2F666F726D61743E3C2F666F726D6174733E504B0304140006080800A86D3740D486FD9CA0000000F4000000130000005B436F6E74656E745F54797065735D2E786D6C7D8EC10E82300C865F65E91D8A1E8C310C0EEA1BF002731658846E
310
D98AC1B77784ABF1D8FE5FBFBF75BBCE937A534CCEB38643598122B6FEE978D0B0485F9C41B54DDD7D022595594E1A469170414C76A4D9A4D207E29CF43ECE46F218070CC6BECC4078ACAA135ACF422C856C0E68EA1BF5669944DDD7BCDE7B1F8E415D77AECB980613C2E4AC91FC167A2B244592486606FC29C8FD7F045B9A
310
EF7053A7E60B504B0304140006080800A86D374053D1CFDEE90000007C01000008000000636F72652E786D6C8D90416EC3201045AF82D8630FD8318E8589D22A37E8051010172506CB40D5E317278ED4EEBA9AD19FFF66465F9CBEE73BFAB26B74C18F98568091F53A18E7A711E774253D462729D610D22F1B465ECD76C49B
310
8CA598D690975DD2C127EB53517D307617558C3661A4EFA51971D49F765695CAA938E2AD5A94BEA9C956F4D515386767D0F38833659FBB3ABB62F97678E7C0F8999C3B06A4ED8F407AB81C09EF9B0EF805286F1B516FB014C9CDAFFB7AB52A59832503CA0850C29A0FDA0CED61A09C403700887AB3FF81F262FE0965E753C3
310
F6779F58C49296471E0329EA2D8B521E4195BAE5267F00504B0304140006080800A86D374055019EA25F0000007C00000007000000636E782E786D6C4DCB3B0E80201045D1AD90E915ED2CF8AC45050C11660C8261F98AB1B07AC9C97D42D718D865D3E909258CFD00CCE24AC6E326A164D74DC0B4128928FF326038472BA1
310
3128B1252AC747C6BAB984FC68F0B87FE8960A5C09FE86CFB69FBA01504B0304140006080800A86D3740959E33F065010000020300000C0000006662782F636F72652E786D6C8D52ED8E8320107C15C27F04D4D65E8334BD4BDFE05E802AF54C150C82E9E3DFFAD178BD344D63826466677776541C6E6D8306EDFADA9A1CF3
310
8861A44D61CBDA54390EFE4276181DA470D6FA3F651819D5EA1C8F3096A27236740B5458E3B5F1801A5BEA05547DAF3D464503971CF7C58F6E55A482878AFE1A75AAB8AA4A473C021AEAA4E8BD0303681E329E585ECE3741675C8A10EA7261EB12A6D5975A3B2C3F375F198BB323396E6346D2DD07233B76FA20D92ED9B2EC
310
C4789626828E62297CDDDEDD154E2BAF4B2C63C663C23889936F9EECD3CD9E67846DF78C093A963F884257BE290AB5F149BCD89D653D961C8C4CC4BF6D21228F7A35801F2A051D4384D794F063D0100884ECD5B9B9EF710568D085B72E05A6B461A506D5040D53199A1E4167163A4F0D60B3A77DE2177D5EF7800FA84C05D6
310
9487EB39F871BA98A72E5174DA91C1DF90B1AE55CD6A6EB6B89EEBA0A7F2C236D6BDA3A6CBAA7409938E7FAFFC05504B0304140006080800A86D3740F9D81D617E0000009D0000000B0000006662782F636E782E786D6C4DCCD10AC2201886E15B91FFDC96CBA6813A32B6FB18CD0DC9F9876974F96DB1838E3E78F87855FB
310
590279BBF4F21835B0C311888B771C7D9C35943C5109A4352A21E6BF1B90382C4EC3C660D49CB03C771ADD349490570D3E3E76AC4FCC727E95F4626543796D7B2A3B26A86864DF597113E2CCA032AAFA95D6DDC2E60B504B0304140006080800A86D374016CD11742A01000014020000310000006662782F32333142343441
310
382D394238362D343242462D384531372D3736384645423743373735312F636F72652E786D6C8D51CB6EC32010FC158B537AC001DB316E8489EA2AF982FE0035244589C1E251E5F3BBD48ED4DE7261D1ECCCECC0F2C37DBA15DFDA07E36C8F684950A1EDE894B1971EA578C61D2A0E827BE7E21F1A2AAC9C748F328C04BF78
310
97E6151A9D8DDA4640AD537A0565083AA262BCC1A54761FCD2932C658AC008D77296E3555E74494B68034FF0103D04289621F944A2AAE9D0346F1D7E1DBA1637D570C2DD9132CCDAEE741CD83B633BCAB78B50F0948C5AE546411C7336DA3F6B92C58247333DE28F5ECBA815E809AD30A1B8AA3F68BD6F767B0840DA3D217C
310
9BE9FF4469564F8A92B1B1AED6B88B2C2001AF591A822B973E6F8F30FA3E3B1F8B3C6F13F4F8820429494559CB6A902C54F800F06C9BD53344E7E18337D74F606756366E1BC1B77947507E170835EF53FC00504B0304140006080800A86D37402F51FD185401000033030000300000006662782F32333142343441382D3942
310
38362D343242462D384531372D3736384645423743373735312F636E782E786D6CBD93CD6EC32010845F0571F7BFEB461126520F7D821E7A25B04968305880ABE6EDBB2424CD25874A552FC89A1D66569F30DB7C4D867C820FDAD99136654D0958E994B6FB912E7157AC28D970E69D8B77364AAC9860A449A69CEDBD5BE62C
310
29D889C544548DB6C72C7A086EF11202CAE926314E0A8301608B054598B6A014287233E2D70E3CAE82E2F644E201C8EBCB3B71DB0F9031B02AA57056A50ECED2999BEE4C944823421869900798442996E8148463A9441465535EBB1EECF49344D2856BE5E23549E5234D27E579A31239B20A879C85E8915E36C5D30C948B79
310
365A8A8890ABB3F1E2E16CD1360E7DF66A04EFD1DDB5C36A8561E71967514F901DD28388A0286FEBA62DEAA668BBB7A65BF74FEBE6B9A887755DB32AD939DB3A67F2258C01EF66229D8D6023E50DABD2F811BEEC234A7B64EDFCE9172011406EBDD0B965FC259F66E8FAFE1FF954E7F78DB83CFE05FC1B504B030414000608
310
0800A86D37408CAE86975A070000941B0000340000006662782F32333142343441382D394238362D343242462D384531372D3736384645423743373735312F6F626A656374732E786D6CED595B739B3814FE2B0CFB6C6C62E7B643E8384ED2F174D376EA6D671F32C3C820136D84602491C4FBEBF7E802066212BCCDBEF5C1
310
06847474CE77AE3A041F9E33EA3C622E48CE2E5CDF9BB80E66719E10965EB8A5DC8CCE5CE74318F03C978D69AEC350862F5C35EC8641CAF3B2B04309DEA092CACEE8CDE55F8E8831C3AE135324C4852BE27B9C210F95324FB078F0122491976E9E3DDF3313DB64538E8AFB0ED10271CC24700AE30CA8388629BFFD3871C761
310
3056EFC340FDDB59D341B366FDB3C65AEA369784098958FC82A50E99E92096A6FEECEAFAE8F87C743C9B4D47B393237F7479737935F24FA793C5C962713EBF3E07F6D6794EAD4C092E304B407F5B37F483B17A538B6E11D8C7759C3386630D2440A5C5EA122458C0560DF826ED475F49D478AD256C3CCFD47BCB426378DAA6
310
D2376B18102DBA2088DDAE92B8BA36E5CBD77F83E0628851728125702B2407ED5A783878851B4E82B1190D83F54E17443819929813441D4AD61C71500A4C5553C2C02CB06494737020E52809B4E6CCEBB66D8167BEED3AFBB8DC94942ACF7043ED5811B81F96427346FEC17CC77D1319E009A42D099367964BB92DB01B9E07
310
633D1806EA323DB22F0D90CE86A2546844CCDB8EA00BE5FACB2B37FC74B37E5EA970B07FF382E705E652199DD2A3E60B0CD95E154A765B7F90E6D40210C6806A57EE40F906C87F86E8B16305F4C6C9F3EC7966E74A8E98D8E43C03DD3813673481BF89E3EB7F75DFB80BC6F5E2B6F6FAF0043755509DFD3C9E6D19345696FF
310
069C61F008069FF3A97DB58A11057BBE250C005246E2D01C8620B46FD6CF6EB884C009811E56211AFA2032B0FB08B7C1D892D969A5722FEB750C10B57B4C87280960D316096CF4E8E923640F4EE29D9A9A22F6C17BFC2EE63ABF5A7D5A957C83627C6B7DFA0A6F082312B2E67E865A98B7247AC0DBA79C2720E84BBC574DBC
310
33BB9500B415E60AF8B402413DEC766E6D10C3BA3457E1267863071042E5EA06FD5B22624C2962382FAB7DEBE8A60CB5F6785B33B8E19181787AD431618E1F89AA2AC06976335A8C42DE8F392914886EF8D14856074DAF47BAEFCBCF6091F5FC9E594B06A19721FAA70E5A7B7068597685B405A21678BD0BE7714E731EADB7
310
9189742ED412C046DB5B7EB48842AC374A5254C083B4DF55212535D24609D96C4A0171750F8B3F968BA6394CBCA97FEC34FF3BCE3883680BBE8BB8F5BBCE1E11C9508AA30D4AFAB66BEE56D3169A640F698E3714E4228F446E2324A34982D343A03988F8F9BB524F692E04615840BEDA0B7E138D890781C468B3625969B503
310
3411518625A28720A0C8F480ABD38EAE7163281DDEE6B1B6DED734D624FA3F590447504BE62C22508A420E799371DF3B8618D246D7A0DCC117ACADA2ADC5A0259410F1367AC224BD9787A06EC8F7E01EC391A494515EA018CC7A00D917BEA294DAE17D8DE207953FA2B8A4EF652002D34D44282DB3087E84C1C963886BD781
310
E955141AC44DEC933883A20CC9920FD9E4E478F2621F533374436063A30DA110B6A30C153DA8B702A2AE479C1A7C4BBD47A9EB322B2294E5251B6428DEB4EB4D967C57AD8AEC407E55A908656345D8120C03C2649D55AB980DA6AE032BB8910E54DB48A0ACA0E614F646E2F16B6FD2947B37E0D64FDF77830C0ABF1EED3523
310
EAAC82C1F2D82A0CC41392F1BD1BAEF4757409F57782935DAAAF6ACD66050888A9485E726255F47D09E58DADD1DCF0164971F7D164DDEAFA7DE941F72318C31AA85DEA854B0574869944AA32B95537F41B8210DCA261C6972AA71E42659E24BA6A44F486F4A9B35546B436CD8857DC639667F0637784C5B44CF01D4AC44374
310
2B69B4228A752BA597910AE35705FCF271D58107460688F4551578F8A9B3D68E2E54B9B49788BC2FB335430482604BB4D4E8C62B586A355269B9BEAA3305D45D606056C5B35F278B663BE2D7C922B586F153278BCBED1F68DBEC8B34D279ACECFAA063409D9F1495F73806E8B6434DB5CE2226995BF9AD33451014AB283FB8
310
1AAB828621D8C7F17FCEDA7D59D06CD7E1FFB0ACEDBFA8380ECA2AADC9AA4BB5A7725D3673D88D7F36BF9CCDE6A3E9E9E97C343B9B9E8FE6D7F393D16C7172737D727A333FBD9ED5686A470D833A98E9DC05CF26A855C3EAC962005D59915392C0693E71520C315FC2997E40FB9C675840F26C36BB13DB941FB0FAD1F43925
310
5A535C71728FA0414C05A475C0A88C657BDCF90D5A93120EDA172E348DBC07F8B356E93A90792E5C6815481263E1ADA1CDA41A7A9A38A45C9DFB2D31C007B154A544B3A87EAE57296C5AE1BF9E32240D58B95A3D0C28DC0AE87EB53A149A37CB537C90E0153B0E9270BB2E25546B4696DD402D8CDE66A77E231B25ECC16EFD
310
0CAEFBBA58BEA7E7B41019F4C9E0552330544712F154F7BB156396A5F9D5D731F4D99CE517A7A0650ABA1C4E69C4311873A90A2AB022B00A4BB340124C75F1FBDD579EC3279ECCD155D1DD22CFB29CD987399CC712F844E4ACEEE1834F72076503566D75717734F18FEE743BDB76D8A33512D853F5100C54658412A1636C60
310
912F5A53B67139564AE84C5F5E39367C421BC058D08BEEAEF9BCE580F7A80F29CA57B4875772BEDAD11EEBA9600D1C7AD1E1BF504B0304140006080000A86D3740000000000000000000000000350000006662782F32333142343441382D394238362D343242462D384531372D3736384645423743373735312F7665727469
310
6365732E62696E504B0304140006080800A86D3740F270F1330600000004000000360000006662782F32333142343441382D394238362D343242462D384531372D3736384645423743373735312F747269616E676C65732E62696E636660600000504B0304140006080000A86D374000000000000000000000000037000000
310
6662782F32333142343441382D394238362D343242462D384531372D3736384645423743373735312F617474726962757465732E62696E504B0304140006080800A86D3740D5987DFC8F00000041010000360000006662782F32333142343441382D394238362D343242462D384531372D3736384645423743373735312F64
310
69726563746F72792E786D6C858F410EC2201045AF4266AF15DDB800BA74E7C21B903225242D6328188F2FA5C4183471359997F9FF81E89FF3C41E1816475E02DF1F80A11FC8386F25A438EECEC07A250251FC3803E6F58C12560C4AD840E95E91C151A72936F496F35732D860FE635F62C8F2DA16B505C545B74125BAA2FA
310
9E05D7CC053D063734D5C7665FD55B6B8D15D5E9BFEAFD8490FFA45E504B0304140006080800A86D3740EE18AC1FFB000000A00100003B0000006662782F32333142343441382D394238362D343242462D384531372D3736384645423743373735312F7265736F75726365732F636F72652E786D6C8D50596E833010BD0A9A
310
7F836D089B8CA3B6CA0D7A01CB4C522BC1465EAA1EBF2650A9FDEBCFCCE82D9AA727CE5FCBA3F8441F8CB313B092428156BBD9D8DB04295E490FC5590AEF5CFC2583C2AA0527D86090E2E65D5A0F483B1BD1C68C5A37E301AA103042A11FF99820E80F5C54A952CC8A702F57A5EFEA86252B339D755284E87380627FB24D90
310
1E834B5E6310D5CE4A9192990F8D99F34F7335E841BE9EDE3ACABB81BCB49C92A61F28E9E965205D5FB7B4BB50D635B5A836B314D12C3F19B547157106C929E38432C2EB77568FCD69641DA1ED48A9A836F91F535AE77F9A92B1B1E647DCDD1640B21CE44948516D7DE5F52C33EFAD5BF90D504B010214000A0000080000A8
310
6D37403DEE336E79000000790000001B00000000000000000000000000000000006175746F6465736B2D64657369676E2D7061636B6167652E786D6C504B01021400140006080800A86D3740D486FD9CA0000000F40000001300000000000000000000000000B20000005B436F6E74656E745F54797065735D2E786D6C504B
310
01021400140006080800A86D374053D1CFDEE90000007C010000080000000000000000000000000083010000636F72652E786D6C504B01021400140006080800A86D374055019EA25F0000007C000000070000000000000000000000000092020000636E782E786D6C504B01021400140006080800A86D3740959E33F06501
310
0000020300000C00000000000000000000000000160300006662782F636F72652E786D6C504B01021400140006080800A86D3740F9D81D617E0000009D0000000B00000000000000000000000000A50400006662782F636E782E786D6C504B01021400140006080800A86D374016CD11742A01000014020000310000000000
310
00000000000000004C0500006662782F32333142343441382D394238362D343242462D384531372D3736384645423743373735312F636F72652E786D6C504B01021400140006080800A86D37402F51FD1854010000330300003000000000000000000000000000C50600006662782F32333142343441382D394238362D3432
310
42462D384531372D3736384645423743373735312F636E782E786D6C504B01021400140006080800A86D37408CAE86975A070000941B00003400000000000000000000000000670800006662782F32333142343441382D394238362D343242462D384531372D3736384645423743373735312F6F626A656374732E786D6C50
310
4B01021400140006080000A86D37400000000000000000000000003500000000000000000000000000131000006662782F32333142343441382D394238362D343242462D384531372D3736384645423743373735312F76657274696365732E62696E504B01021400140006080800A86D3740F270F133060000000400000036
310
00000000000000000000000000661000006662782F32333142343441382D394238362D343242462D384531372D3736384645423743373735312F747269616E676C65732E62696E504B01021400140006080000A86D37400000000000000000000000003700000000000000000000000000C01000006662782F323331423434
310
41382D394238362D343242462D384531372D3736384645423743373735312F617474726962757465732E62696E504B01021400140006080800A86D3740D5987DFC8F000000410100003600000000000000000000000000151100006662782F32333142343441382D394238362D343242462D384531372D3736384645423743
310
373735312F6469726563746F72792E786D6C504B01021400140006080800A86D3740EE18AC1FFB000000A00100003B00000000000000000000000000F81100006662782F32333142343441382D394238362D343242462D384531372D3736384645423743373735312F7265736F75726365732F636F72652E786D6C504B0506
310
000000000E000E00800400004C1300000000
  0
XRECORD
  5
17
102
{ACAD_REACTORS
330
12
102
}
330
12
100
AcDbXrecord
280
     1
270
     1
271
     1
  0
XRECORD
  5
16
102
{ACAD_REACTORS
330
12
102
}
330
12
100
AcDbXrecord
280
     1
270
     1
271
     1
  0
XRECORD
  5
18
102
{ACAD_REACTORS
330
12
102
}
330
12
100
AcDbXrecord
280
     1
270
     1
271
     1
  0
XRECORD
  5
15
102
{ACAD_REACTORS
330
12
102
}
330
12
100
AcDbXrecord
280
     1
270
     1
271
     1
  0
XRECORD
  5
890
102
{ACAD_REACTORS
330
22
102
}
330
22
100
AcDbXrecord
280
     1
102
MATERIAL
148
0.0
149
0.0
149
0.0
 93
        0
 94
      127
282
     0
 72
     0
 77
     0
171
     0
175
     0
179
     0
273
     0
  0
XRECORD
  5
24
102
{ACAD_REACTORS
330
22
102
}
330
22
100
AcDbXrecord
280
     1
270
     1
271
     1
  0
XRECORD
  5
23
102
{ACAD_REACTORS
330
22
102
}
330
22
100
AcDbXrecord
280
     1
270
     1
271
     1
  0
XRECORD
  5
BA
102
{ACAD_REACTORS
330
22
102
}
330
22
100
AcDbXrecord
280
     1
 70
     1
 90
1959938040
 71
     1
  1
9F80FBA8-04FD-403B-A7E7-EF7581C3C4C5
311
504B03040A0000080000A86D37403DEE336E79000000790000001B0000006175746F6465736B2D64657369676E2D7061636B6167652E786D6C3C3F786D6C2076657273696F6E3D22312E302220656E636F64696E673D227574662D3822203F3E3C666F726D6174733E3C666F726D61743E687474703A2F2F736368656D612E
311
6175746F6465736B2E636F6D2F64657369676E2D7061636B6167652F323030393C2F666F726D61743E3C2F666F726D6174733E504B0304140006080800A86D3740D486FD9CA0000000F4000000130000005B436F6E74656E745F54797065735D2E786D6C7D8EC10E82300C865F65E91D8A1E8C310C0EEA1BF002731658846E
311
D98AC1B77784ABF1D8FE5FBFBF75BBCE937A534CCEB38643598122B6FEE978D0B0485F9C41B54DDD7D022595594E1A469170414C76A4D9A4D207E29CF43ECE46F218070CC6BECC4078ACAA135ACF422C856C0E68EA1BF5669944DDD7BCDE7B1F8E415D77AECB980613C2E4AC91FC167A2B244592486606FC29C8FD7F045B9A
311
EF7053A7E60B504B0304140006080800A86D3740248A821AE90000007C01000008000000636F72652E786D6C8D90416EC3201444AF82D86303B6716361A2A6B427E8051010072506CB40D5E317278ED4EEBAFA5FC33CFE68F8F17BBE812FBB4617FC08498521B05E07E3FC34C29CCEE80582A3E06B08E9970D02AF663BC24D
311
86824F6BC8CB2EE9E093F5A9A83E18BB8B2A469B20D0B7B28C30EA8B9D55A5722A8E78AD16A5AF6AB215796E05CED919F038E24CF9CF9D9D5DA12084BD1FE4EB094929196A31A3E8F0F176427DDF31D975B4616DCBEB0D163CB9F9795FAF56256BA0A098508409A2CD276986B61B488F301B30E6F566FF03E5C5FC13CACEA7
311
86EE711F582C594B90FB83E0F5D64519F7A2CADC7A133F504B0304140006080800A86D374055019EA25F0000007C00000007000000636E782E786D6C4DCB3B0E80201045D1AD90E915ED2CF8AC45050C11660C8261F98AB1B07AC9C97D42D718D865D3E909258CFD00CCE24AC6E326A164D74DC0B4128928FF326038472BA1
311
3128B1252AC747C6BAB984FC68F0B87FE8960A5C09FE86CFB69FBA01504B0304140006080800A86D37409D77A19766010000020300000C0000006662782F636F72652E786D6C8D525B6E833010BC8AE57F63DE6922E3A829ED097A01071C6A056C646C94E377794469AA288A908C35B3B33B3BC0F697AE45A3B48332BAC051
311
10622475656AA59B027B77226F18ED39B3C6B83F651869D1C9024F30E6ACB1C6F72B5419EDA476806A53CB1514C3201D46550B97020FD58FEC4420BC838AE11CF4A23A8B4606510034D47136380B06D032643A313F1D2F8C2E3867DEAB7A65550DD3D449498B7914E59FDBF2FD40CAB2CC491AE631D97E7D1CC86693E56596
311
C5499EA68C4E62CE9CEAAEEE2A2B859335E67118C5248C489C7C47C92ECD76D18684F92E0C199DCAEF44BEAF5F1479A55D12AF7617D9005EC1C84CFCDB162272681023F8A19CD1294478CD09DF070D8140C84E1CDBEB1E67804659396353606AE36FD4285A2F616A88E687D18585CE7303D8EC619FF8499FE73DE0030ADD80
311
35E1E07AF46E9ACE96A96B14BDB4647417A48DED447B33B758BC9DB7410FE595698D7D454DD755E91A269DFE5EFE0B504B0304140006080800A86D37400FEB17E97E0000009D0000000B0000006662782F636E782E786D6C4DCCDD0A832018C6F15B91F7DCBEA67D801AAED57DC4B2904C87E9D8E5AF46073B7AE0C7C39FB5
311
9FCDA0B7F2BB7696439E6480947DBA49DB85430C33AE01B58279E7C2DF0D901D37C5E164106CF12EBE2E9AD43C46130E35DAAE17925C92B22712CBA6A3983472C0F75B4F713D7455513E0A5AD10C52C1D25FE9D8332CBE504B0304140006080800A86D3740AFAF35E52B01000014020000310000006662782F343141343645
311
34412D413943352D343941462D423345352D3846433732364432353735302F636F72652E786D6C8D51CB6EC32010FC158B537AC001FCC84398C84D932FE80F109BB82831583CAA7C7E97DA91DA5B2E2C9A9D991DEDF2C363BC67DFCA796D4D83684E50A64C677B6D8606C570C55B941D0477D6863F34941939AA062518093E
311
381BA705EAAC09CA04408DEDD5024AEF55405977874F837CF7A54699CB1880E16FF924BB9B1C544E7368034F701F1C04C8E621E945A2A46D599FCA16B7BB6385CB5D7BC6EFC5A9C2DBF371C3EA0F566D2AC2D7B350F01875BFC8750F71F4552BF7AA49120B1EF4F88CDF392583EA916084324C2866C5272DF665B5A71B4CEA
311
3D81C989FE4F14A7FE4551D426146C893BCB3C1294AFE786E0BD8D97FB338C7A4CD6852CCD5B79D5BD214172C2484D1803C94C850580675D2E9E3E58070B5EDD2EC0A6D56C5C9782AFD38DA0FC1E106ABAA7F801504B0304140006080800A86D374049F6320F4D01000033030000300000006662782F34314134364534412D
311
413943352D343941462D423345352D3846433732364432353735302F636E782E786D6CD593CD6E022114855F85B09F1F746A1BC360D2459FA08B6E11AE4A6560C24F53DFBE1745EBC64597DD90C9B987736EBE307CF33D59F205211AEF46CADA9E1270CA6BE3F623CD69D7BC50B2113C789FEE6C943839C1488B4C05DF079F
311
E72A69D8C96C13AAD6B8631503449F83828872B949AC57D26200B826A308D316B4064D6E46FCDA41C05550DC9E483A00797BFD207EFB092A45DE9514C1BBD22178396BD39D891265658C238DEA00936C654E5E433CB65A26D9B2F6DAF560A7DF24522E5C2B7330A4948FB49C54D48D5AE4C83B1C0A1E53407AD5944E335021
311
E7D91A251342EECEC68B47F06C5C5A0DD56B107C40375B2D8701C3CE33C19399A03A5400994053B1E8D9A2E959B358BEB3E57A785AB3E7A65FADFB9E77C52EF8D67B5B2F610C043F13E55D0297A860BC2BE347F8AA8F681390B50FA73F804400B5F542E796F19FF974E7F78DB802FE05E207504B0304140006080800A86D37
311
40549180939D0500007A100000340000006662782F34314134364534412D413943352D343941462D423345352D3846433732364432353735302F6F626A656374732E786D6CAD575D6FA33814FD2B887DCE07493A6D5794519A34A368D499D14433DA874A910143BD3518D9A693EEAFDF633004D2A4CDAEE62504737D7DEFB9
311
E77ED8FFB8CBB8F34CA56222BF71BDE1D875681E8998E5E98D5BEA6470E53A1F035F0AA13B62AE93938CDEB866D90DFC548AB2B04B314D48C9F5C1EAEAF62F474534A7AE1371A2D48DABA2479A912129B588A97A1AC64493619AEC86DEB016ECAB4D25291E0F941644D25CC352ACE7D0E2D44679FDD7B13B0AFC91F91EF8E6
311
D74A4D4F4B8D2A7FFAE7B35C699247AF0E3B5033F566CBBBC9C5F5E062369B0E661F26DEE07675BB1C7897D3F1E2C362713DBFBBC6C14A4B68B296489AB8C127602359E48FEA4F815FB25C4F2756C4066824E9333391728389E3F9A35AA6F5CE3A79CCFC48E4398D2AAC8046E59F551DD382E63162CEA882651D84C6FD57CF
311
E0D8F93C35EFF6C8EEF279087477741435B637CFAEA522FC1B2EA873182415350CACB1B48ED65C1DEF110E85E0F61B534E4634958C7087B35012F9E20610352281DF5363982C4D36180FDC0051A83FF7E982347A9FE7C7AC4C4ACE0D8DDDA0CA822D72856A5559C6FEA1726F7D1719D8845819365C5987F44B41DDE0BAA6C8
311
D5019B6A209D84931421879B66E77472E0E8C2E4E97AE9069F57E16E6372F7F8E185140595DAD007D46A02D73C0D4AD626EFACC8990DEE81297B50BE03F92F48F5BD29889B64BBD96E664FD192E42A1132436C9CB13318E367EC78D5AFF9DFF9E78FDACDFDE89DC213C13650FD063CFB3E7463D98133F09F417821A7D6B54D
311
4438CAC63DCB01902189C3059650879370E7066B54395465EC223CF0E032CC7DC65F7F64D5A0505427759E39B03C288B671468C056311266D4E4B706EEE3F4AA9C55075BB153F05EFC16BACE979BCF9B522624A2F736A797346139D368717BDE740DEA61DEF3E889BEFC123286A3AFF1DE74F1CEEC510A681BCC0DF06953D3
311
CDCBFEE4DE0111F6A5C2941BFF9D13E08469AC1DFDF74C45947392535136E7BED93FD0366A884DB21B26B70D66DF58409AFACB410EA24947921506C4B65BB5457378C2BB1FEB2F6024E4B90809DF0B85FBD21B092EE4367CD9D655E928D23FFBD4B6108C8C16B0BDCA9126FD2DE6DB982549A950038FC0FA73BDE886CE5405
311
5488466B9D2C33B88FDC22D272B6D18B662D091AA9C8B70C6D136977F480AE7E206A0950293C65B1A23CD932CECB6C9B308E66B4CD4871028EFF6F7F5866C59664A2CCF509DD3DD3D11CFAB6F7C8AB7E111D3DBAC1A67A0E6E517A631AEFC3DC1336ADE40856BDD05EAFAEC6ABDBF9D5603C5B2D07B3F1F47630BFBCBB1CDC
311
AD2E2FAEBCC574315BA048588BAA192AF09B4ED34D6844099DCD2F25B3E1FBB146FAD81AE006F744AB874F757636CF1FEB2146617F843D6897EDC679FC8CB18FC6EF2BD84B1E55B4CE0A4E339A6B6252E8DEFCE1DF09C68C9E31F5FA3A23293D43CBD74F9B0367B072C6BE6F26DDE9AF83BD76756112F2A812FD5866614E18
311
3FD898D6480E8B3CB5F83531699F759F695ECD9B0D0C065325388B51066327A522A31AC5F08C1E2433AA40BDEE481FDBABC719BB9FEB01519390D3C692478219992BA405785B46BABFEEFC8199CE8C55372EBAEDF0093FB652B80E3873E36246D72CA26A18A23F9B49A8520E2E7507797096E429C7A85D6F6ADFDB5D069B5E
311
476E45CE199FAC5F7505B70EA08C14181B300F213A9531815FD966BF47FFC9F1C61C8768FC0D4BDDFAB25F689DA98E418AD64ED9CB026698277BF40E89FAB65BDEB092E92172D625EB4D12D45A079AC8B4BA2818FBAC49F3E5B711061467FDD52978992296E76B1A480A329726C1C122B0C2EA2C880655177F3E7C930217D9
311
CC593150E06121B24CE4F6656E2FC2CEE611D7DAF80165819AFB887A988CBDC943750FB057936D48141D92583D61013195AC85B8177830B2BE2CA203D51F5AB99109C20137D74BC7B6B419945AA274ABAA810513474E1D648FB94B9A5CE90A146F5E054695284C9018E2837F01504B0304140006080000A86D374000000000
311
0000000000000000350000006662782F34314134364534412D413943352D343941462D423345352D3846433732364432353735302F76657274696365732E62696E504B0304140006080800A86D3740F270F1330600000004000000360000006662782F34314134364534412D413943352D343941462D423345352D38464337
311
32364432353735302F747269616E676C65732E62696E636660600000504B0304140006080000A86D3740000000000000000000000000370000006662782F34314134364534412D413943352D343941462D423345352D3846433732364432353735302F617474726962757465732E62696E504B0304140006080800A86D3740
311
D5987DFC8F00000041010000360000006662782F34314134364534412D413943352D343941462D423345352D3846433732364432353735302F6469726563746F72792E786D6C858F410EC2201045AF4266AF15DDB800BA74E7C21B903225242D6328188F2FA5C4183471359997F9FF81E89FF3C41E1816475E02DF1F80A11F
311
C8386F25A438EECEC07A250251FC3803E6F58C12560C4AD840E95E91C151A72936F496F35732D860FE635F62C8F2DA16B505C545B74125BAA2FA9E05D7CC053D063734D5C7665FD55B6B8D15D5E9BFEAFD8490FFA45E504B0304140006080800A86D37404C60DF2BFD000000A00100003B0000006662782F34314134364534
311
412D413943352D343941462D423345352D3846433732364432353735302F7265736F75726365732F636F72652E786D6C8D50DB6E842010FD15C33B0AA8D835C8665BDB2FE80F109CB56457305C9A7E7E71B549FBD69799C9B9644E8E387F2DF7E2137C30CE0E8896041560B59B8C9D0794E2153FA1E22C85772EFE92A1C2AA
311
0506B4C1488AD9BBB41E907636828D19B56E82035421404485BEE76340417FC0A24A956256845BB92A7D533394B4CC74D64911A2CF018AFDC93691F4105CF21A82A876568A94CC7468CC947F9AAB018F24A5FCF5345E2E781C478E1BC2193EBDBD3CE3AE6BF9D8B6ACE64D23AACD2C4534CB4F46ED414598906484324C2866
311
F53BADFBA6ED698709EF0911D526FF634AEBF44F533236D6EC88BBDB42CE9A833C0829AAADAFBC1E65E6BD752BBF01504B010214000A0000080000A86D37403DEE336E79000000790000001B00000000000000000000000000000000006175746F6465736B2D64657369676E2D7061636B6167652E786D6C504B0102140014
311
0006080800A86D3740D486FD9CA0000000F40000001300000000000000000000000000B20000005B436F6E74656E745F54797065735D2E786D6C504B01021400140006080800A86D3740248A821AE90000007C010000080000000000000000000000000083010000636F72652E786D6C504B01021400140006080800A86D37
311
4055019EA25F0000007C000000070000000000000000000000000092020000636E782E786D6C504B01021400140006080800A86D37409D77A19766010000020300000C00000000000000000000000000160300006662782F636F72652E786D6C504B01021400140006080800A86D37400FEB17E97E0000009D0000000B0000
311
0000000000000000000000A60400006662782F636E782E786D6C504B01021400140006080800A86D3740AFAF35E52B0100001402000031000000000000000000000000004D0500006662782F34314134364534412D413943352D343941462D423345352D3846433732364432353735302F636F72652E786D6C504B01021400
311
140006080800A86D374049F6320F4D010000330300003000000000000000000000000000C70600006662782F34314134364534412D413943352D343941462D423345352D3846433732364432353735302F636E782E786D6C504B01021400140006080800A86D3740549180939D0500007A1000003400000000000000000000
311
000000620800006662782F34314134364534412D413943352D343941462D423345352D3846433732364432353735302F6F626A656374732E786D6C504B01021400140006080000A86D37400000000000000000000000003500000000000000000000000000510E00006662782F34314134364534412D413943352D34394146
311
2D423345352D3846433732364432353735302F76657274696365732E62696E504B01021400140006080800A86D3740F270F13306000000040000003600000000000000000000000000A40E00006662782F34314134364534412D413943352D343941462D423345352D3846433732364432353735302F747269616E676C6573
311
2E62696E504B01021400140006080000A86D37400000000000000000000000003700000000000000000000000000FE0E00006662782F34314134364534412D413943352D343941462D423345352D3846433732364432353735302F617474726962757465732E62696E504B01021400140006080800A86D3740D5987DFC8F00
311
0000410100003600000000000000000000000000530F00006662782F34314134364534412D413943352D343941462D423345352D3846433732364432353735302F6469726563746F72792E786D6C504B01021400140006080800A86D37404C60DF2BFD000000A00100003B0000000000000000000000000036100000666278
311
2F34314134364534412D413943352D343941462D423345352D3846433732364432353735302F7265736F75726365732F636F72652E786D6C504B0506000000000E000E00800400008C1100000000
310
504B03040A0000080000A86D37403DEE336E79000000790000001B0000006175746F6465736B2D64657369676E2D7061636B6167652E786D6C3C3F786D6C2076657273696F6E3D22312E302220656E636F64696E673D227574662D3822203F3E3C666F726D6174733E3C666F726D61743E687474703A2F2F736368656D612E
310
6175746F6465736B2E636F6D2F64657369676E2D7061636B6167652F323030393C2F666F726D61743E3C2F666F726D6174733E504B0304140006080800A86D3740D486FD9CA0000000F4000000130000005B436F6E74656E745F54797065735D2E786D6C7D8EC10E82300C865F65E91D8A1E8C310C0EEA1BF002731658846E
310
D98AC1B77784ABF1D8FE5FBFBF75BBCE937A534CCEB38643598122B6FEE978D0B0485F9C41B54DDD7D022595594E1A469170414C76A4D9A4D207E29CF43ECE46F218070CC6BECC4078ACAA135ACF422C856C0E68EA1BF5669944DDD7BCDE7B1F8E415D77AECB980613C2E4AC91FC167A2B244592486606FC29C8FD7F045B9A
310
EF7053A7E60B504B0304140006080800A86D3740428E312FE80000007C01000008000000636F72652E786D6C8D904D6EC3201085AF82668F0DF857162692DBFA04BD000292A0C46019A87AFCE2C491DA5D57337AF3BE99D1E3A7EFE58EBECC16AC7723D08200324E796DDD658414CFB80774127CF33EFEB20172723123EC32
310
087ED97C5A0F4979178D8B59755E9B439421980848DD7333425057B3C842A6981DE156AC52DDE4C514F4D5653825ABD1F388D5799F3D5BB381603D9B9A37D2E1E9A367B8A6A4C2FD5CBF63469B799ABB9675D5C4CB1D163CDAE5755F6D4646A3334F28C38462567DD26AA89B81B698B40321BCDCED7FA0B4EA7F42C9BA58B1
310
E3DD271640D0FCC8632078B96791CB23A85CF7DCC40F504B0304140006080800A86D374055019EA25F0000007C00000007000000636E782E786D6C4DCB3B0E80201045D1AD90E915ED2CF8AC45050C11660C8261F98AB1B07AC9C97D42D718D865D3E909258CFD00CCE24AC6E326A164D74DC0B4128928FF326038472BA131
310
28B1252AC747C6BAB984FC68F0B87FE8960A5C09FE86CFB69FBA01504B0304140006080800A86D37403F466A6D65010000020300000C0000006662782F636F72652E786D6C8D525B6EC32010BC0AE21FF3705E8A0891D23627E805884D5C141B220C568EDFF523725345516409A3999DDDD9B1E5FED6D4A833A1B5DEED30CF
310
1846C615BEB4AEDAE114CF6483D15EC9E07DFC538691D38DD9E11EC64A56C1A7EB0415DE45E322A0CE97660275DB9A885151C36587DBE2C7343AD32942457BC9AEBAB8E8CA643C031AEA946C630003681CD29F589D4F3749475CC9946C39B1B68469F66C4DC04A6CC461F9C1D6E4F0B51164C1594E36C7C527117C793C1CD7
310
2BB1CE0F92F66225A36DEEEE8A60743425E81917847122F26F9E6F17CB2D5F11B6DA3226695FFE204AD7F24D51B22EE662B23BCA5AAC381819887FDB424411B5BA033F5449DA8708AF21E1C7A021100839EA537DDFE30250678AE8C30298D2A799EA749D0C4C656878241D59E83C3480CD9EF6112FFABCEE011F50BB0AACE9
310
08D7538AFD74394E9DA2B89A40BA7843CE8746D7B3B9D1E27CCE839ECA0B5FFBF08E9A4EABD2294CDAFFBDEA17504B0304140006080800A86D37403A4425B87E0000009D0000000B0000006662782F636E782E786D6C4DCCDD0AC22018C6F15B91F7DCF6F5DA14D4D1A8EE633437644EC334BAFCB6D841470FFC78F8CBEEB3
310
3AF236F1658357509D4A20C63FC268FDAC20A78972209D963184F47703E287D528D819B49C63C8CF8346330DD9A54D9DF5CB816781F75E70A4AC6A1A8A352BE985B782D62D6778457EE33D42A165F12B6DBB87F517504B0304140006080800A86D3740CB23446B2A01000014020000310000006662782F3639344642393834
310
2D353133332D343235302D413837392D3237383534443438453842342F636F72652E786D6C8D51CB6EC32010FC158B537AC0068C1D3BC2448DDA7E417F8018E2A2C460F1A8F2F985DA91DA5B2E2C9A9D991DEDB2E37DBE15DFCA796DCD00708940A1CC68A536D30062B8C00E1447CE9CB5E10F0D1446CC6A0019069C4DCEC6
310
6583466B823221A1C64AB581C27B154031DED267007EFC52B328450C89E1AFE522C6AB985489CBD44E3CCE7C702940B10EC92FE06D4F3F4E7D476183EB1A52D220F8DAED7B48F65D43DF68F7DE9D28AB562167316AB9C9B54C71F4452BF7AC49167316F4FC883F3A25829280138409441892FA13D707DA1C700B517B408855
310
99FE4F1417F9A4286A136AB2C55D651E70CCAAB5C199B4F17C7B8451F7C5BA50E4793BAFC617C05189484D3B427A56ADD4B480E4D9D2CDD307EBD28277D77362D79B714B39ABF28D52F93D60AAF99EFC07504B0304140006080800A86D37402E4479695401000033030000300000006662782F36393446423938342D353133
310
332D343235302D413837392D3237383534443438453842342F636E782E786D6CBD93CD6EC32010845F0571F7BF6B451126520F7D821E7AC5B04969305880ABE6EDBB2424CD25874A552FC89A1D66569F30DB7DCD867C820FDAD99136654D0958E994B68791AE715F6C28D971E69D8B77364AAC9861A449A69C1DBC5B972C29
310
D88BD544548DB6C72C7A086EF51202CAE926314E0A8301608B15459827500A14B919F16B0F1E5741713A91F80EE4E5F98DB8E903640CAC4A299C55A983B374E6A63B1325D28810461AE43BCCA2146B740AC2B154228AB229AF5D0F76FA4922E9C2B572F59AA4F291A693F2BC51891C598543CE42F4482F9BE26901CAC5B218
310
2D4544C8D5D978F170B66A1B873E7B3582F7E8EEDA61B3C1B0F38CB3A867C80EE941445094B775D3167553B4DD6BD36DFBA76D3314F5B0AD6B56253B679373265FC218F06E21D2D9083652DEB02A8D1FE1CB3EA2B447D6CE9F7E011201E4D60B9D5BC65FF26986AEEFFF914F757EDF88CBE35FC0BF01504B03041400060808
310
00A86D374038A4F21258070000931B0000340000006662782F36393446423938342D353133332D343235302D413837392D3237383534443438453842342F6F626A656374732E786D6CED595B6FA33814FE2B887D0E094D3AD3AE28A33669AB68D599D16467B40F9190030EF1D618649B5EF6D7EFF1050234B464A7FB360F09
310
60ECE373BE73F521F8F49451E70173417276E1FADEC475308BF384B0F4C22DE57674E63A9FC280E7B96C4C731D86327CE1AA61370C529E97851D4AF016955476466FAEFE72448C19769D9822212E5C11EF70863C54CA3CC1E2DE4B90445EBA7DF27CCF4C6C934D392A761DA205E29849E014C61950710C537EFB71E28EC360
310
ACDE8781FAB7B3A68366CDFA678DB5D46D2E091312B1F8054B1D32D3412C4DFDD9E2FAE4F47C743A9B4D47B30F27FEE8EAE66A31F23F4E27F30FF3F9F9E5F539B0B7C9736A654A70815902FA7B76433F18AB37B5E81681435CC7396338D64002545AAC2E4182056CD5806FD27EF495448DD75AC2C6F34CBDB72C3486A76D2A
310
7DB38601D1A20B82D8ED2A89AB6B53BE7CF337082E861825175802B74272D0AE85878357B8E124189BD130D8EC7541849321893941D4A164C31107A5C05435250CCC024B46390707528E92406BCEBC6EDB1678E6DBAE7388CB6D49A9F20C37D48E1581FB61293467E41FCCF7DC3791019E40DA92307966B994CF0576C3F360
310
AC07C3405DA627F6A501D2D952940A8D8879DB1174AE5C7FB970C33F6E364F2B150E0E6F5EF0BCC05C2AA3537AD47C8121DBAB42C96EEB0FD29C5A00C21850EDCA3D28DF00F9CF103DF6AC80DE38799A3DCDEC5CC91113DB9C67A01B67E28C26F037717CFDAFEE1B77C1B85EDCD65E1F9EE0A60AAAB39FC7B32D83C6CAF2DF
310
80330C1EC0E0733EB5AF5631A260CF77840140CA481C9AC31084F6EDE6C90D97103821D0C32A44431F4406761FE036185B327BAD54EE65BD8E01A2768FE91025016CDA22818D1E3DDD42F6E024DEABA929621FBCA7EF62AE978BD51FAB926F518CEFAC4F2FF0963022216B1E66A885794BA27BFCFC98F304047D89F7AA8977
310
66B71280B6C25C019F5620A887FDCEAD0D625897E62ADC046FEC0042A85CDDA07F47448C29450CE765B56F1DDD94A1D61E6F6B06373C31104F4F3A26CCF10351550538CD7E468B51C8FB31278502D10D6F8D6475D0F47AA4FBBEFC0C1659CFEF99B564107A19A27FEAA0750087966557485B206A8137FB701EE734E7D1E639
310
3291CE855A02D8687BCB8F165188F546498A0A7890F6BB2AA4A446DA2821DB6D2920AE1E60F1C772DE34878937F54F9DE67FC71967106DC17711B77ED7D92322194A71B44549DF76CDDD6ADA4293EC21CDF196825CE481C8E708C96892E0F418688E227EFEAED4539A0B41181690AF0E82DF4463E2412031DAAC58565AED00
310
4D44946189E8310828323DE0EAB4A36BDC184A87B779ACADF7358D3589FE4F16C111D492398B0894A29043DE64DCF74E2186B4D1352877F0056BAB686B3168092544FC1C3D6292EEE431A81BF23DB8C77024296594172806B31E40F685AF28A57678DFA0F85EE58F282EE97B1988C0741B114ACB2C821F6170F218E2DA7560
310
7A1585067113FB24CEA02843B2E44336F9703A79B18FA919BA21B0B1D1965008DB51868A1ED45B0151D7234E0DBEA5DEA3D44D991511CAF2920D32146FDAF5264BBEAB56457620BFAA5484B2B1226C09860161B2CEAA55CC0653D78115DC4807AAE748A0ACA0E614F646E2F16B6FD2947B37E0D64FDF77830C0ABF1EED3523
310
EAAC82C1F2D82A0CC42392F1CE0D57FA3ABA82FA3BC1C93ED557B566B30204C454242F39B12AFABE84F2C6D6686E7887A458DF9AAC5B5DBF2F3DE87E04635803B54BBD70A980CE309348552677EA867E4310825B34CCF852E5D463A85C2689AE1A11BD217DEA6C9511AD4D33E2153BCCF20C7E6C4D584CCB04AF5122EEA33B
310
49A31551AC5B29BD8C5418BF2AE097DB55071E181920D25755E0E1C7CE5A3B3A57E5D241227257661B860804C19668A9D18D57B0D46AA4D2727D55670AA8BBC0C0AC8A67BF4E16CD76C4AF93456A0DE3E74E1634DF20BA8F368D6C1E2BB33EEA1450A72745E53D4E01BAEB5053AD9388C9E5567CEB4B11C4C42AC80F2EC6AA
310
986108F671FC9F93765F1234DB75F83F2E69FB2F0A8EA3924A6BB26A521D285C97CD14767E7336B9B9BA3C1B4D66378BD16C32BD1A5D7EBCFE38BABEF9787AE6CFA7F3D97C7F6AD07E1A06752CD3A90B9E4D4CAB86D593C5009AB222A72481C37CE2A41842BE8423FD80EE39CFB080DCD9EC7527B6273F60F58369734AB4A1
310
B8E26487A03F4C056475C0A88C657BDCF90D3A9312CED9172EF48CBC7BF8B356E93A90782E5CE814481263E16DA0CBA4FA799A38645C9DFA2D31C007B1546544B3A87EAE57296C5AD1BF9E32240B58B95A2D0CA8DB0A687EB51A149A37CB537C94E0153B0E9270BB2925146B4696FD402D8CDE66AF7E231B25ECDE6EFD04AE
310
FBBA58BEA7E7B41019F4C5E0552330544712F154B7BB156396A5CBC5D731B4D99CE517A7A0650ABA1C4E69C4311873A9EA29B022B00A4BB340124C75FEFBFA2BCFE10B4FE6E8A2683DCFB32C67F6E1128E63097C2172563BF8DE93ACA16AC0AAAB2ED62713FF64ADBBD9B6C11E6D90C09E2A8760A0AA2294081D63038B7CD1
310
99B27DCBB1524267FA72E1D8F009FE6C2CE84573D77CDD72C07BD47714E52BDAC32B395F6D688FF554B0060EADE8F05F504B0304140006080000A86D3740000000000000000000000000350000006662782F36393446423938342D353133332D343235302D413837392D3237383534443438453842342F7665727469636573
310
2E62696E504B0304140006080800A86D3740F270F1330600000004000000360000006662782F36393446423938342D353133332D343235302D413837392D3237383534443438453842342F747269616E676C65732E62696E636660600000504B0304140006080000A86D374000000000000000000000000037000000666278
310
2F36393446423938342D353133332D343235302D413837392D3237383534443438453842342F617474726962757465732E62696E504B0304140006080800A86D3740D5987DFC8F00000041010000360000006662782F36393446423938342D353133332D343235302D413837392D3237383534443438453842342F64697265
310
63746F72792E786D6C858F410EC2201045AF4266AF15DDB800BA74E7C21B903225242D6328188F2FA5C4183471359997F9FF81E89FF3C41E1816475E02DF1F80A11FC8386F25A438EECEC07A250251FC3803E6F58C12560C4AD840E95E91C151A72936F496F35732D860FE635F62C8F2DA16B505C545B74125BAA2FA9E05D7
310
CC053D063734D5C7665FD55B6B8D15D5E9BFEAFD8490FFA45E504B0304140006080800A86D374051251FB7FB000000A00100003B0000006662782F36393446423938342D353133332D343235302D413837392D3237383534443438453842342F7265736F75726365732F636F72652E786D6C8D50DB6E842010FD15C33B0A78
310
5963904D6CEB17F40708CE5AB22B182E4D3FBFB0DAA47DEBCBCCE45C3227875FBFB647F109CE6B6B46444B820A30CA2EDAAC238AE1867B545C0577D6865F325418B9C188328C045F9D8DFB09296B0298905063173841E93D0454A8473A46E4D5076CB294312485BF97BB5477B94249CB44279DE03EB814A0389EE48984036F
310
A353E07975B082C7A89753A397F453DF34382458CFA6F68574787AEB196E28A9713F37AF98D1769EE64BC72EF5C4AB6C163CE8ED27A37220032CC94F28C3846256BFD37A68DA817698740321BCCAF23FA6B82FFF34456D42CDCEB887CD2341539027217895FB4AEB5966DAB95BF10D504B010214000A0000080000A86D3740
310
3DEE336E79000000790000001B00000000000000000000000000000000006175746F6465736B2D64657369676E2D7061636B6167652E786D6C504B01021400140006080800A86D3740D486FD9CA0000000F40000001300000000000000000000000000B20000005B436F6E74656E745F54797065735D2E786D6C504B010214
310
00140006080800A86D3740428E312FE80000007C010000080000000000000000000000000083010000636F72652E786D6C504B01021400140006080800A86D374055019EA25F0000007C000000070000000000000000000000000091020000636E782E786D6C504B01021400140006080800A86D37403F466A6D6501000002
310
0300000C00000000000000000000000000150300006662782F636F72652E786D6C504B01021400140006080800A86D37403A4425B87E0000009D0000000B00000000000000000000000000A40400006662782F636E782E786D6C504B01021400140006080800A86D3740CB23446B2A01000014020000310000000000000000
310
00000000004B0500006662782F36393446423938342D353133332D343235302D413837392D3237383534443438453842342F636F72652E786D6C504B01021400140006080800A86D37402E44796954010000330300003000000000000000000000000000C40600006662782F36393446423938342D353133332D343235302D
310
413837392D3237383534443438453842342F636E782E786D6C504B01021400140006080800A86D374038A4F21258070000931B00003400000000000000000000000000660800006662782F36393446423938342D353133332D343235302D413837392D3237383534443438453842342F6F626A656374732E786D6C504B0102
310
1400140006080000A86D37400000000000000000000000003500000000000000000000000000101000006662782F36393446423938342D353133332D343235302D413837392D3237383534443438453842342F76657274696365732E62696E504B01021400140006080800A86D3740F270F133060000000400000036000000
310
00000000000000000000631000006662782F36393446423938342D353133332D343235302D413837392D3237383534443438453842342F747269616E676C65732E62696E504B01021400140006080000A86D37400000000000000000000000003700000000000000000000000000BD1000006662782F36393446423938342D
310
353133332D343235302D413837392D3237383534443438453842342F617474726962757465732E62696E504B01021400140006080800A86D3740D5987DFC8F000000410100003600000000000000000000000000121100006662782F36393446423938342D353133332D343235302D413837392D3237383534443438453842
310
342F6469726563746F72792E786D6C504B01021400140006080800A86D374051251FB7FB000000A00100003B00000000000000000000000000F51100006662782F36393446423938342D353133332D343235302D413837392D3237383534443438453842342F7265736F75726365732F636F72652E786D6C504B0506000000
310
000E000E0080040000491300000000
  0
XRECORD
  5
27
102
{ACAD_REACTORS
330
22
102
}
330
22
100
AcDbXrecord
280
     1
270
     1
271
     1
  0
XRECORD
  5
26
102
{ACAD_REACTORS
330
22
102
}
330
22
100
AcDbXrecord
280
     1
270
     1
271
     1
  0
XRECORD
  5
28
102
{ACAD_REACTORS
330
22
102
}
330
22
100
AcDbXrecord
280
     1
270
     1
271
     1
  0
XRECORD
  5
25
102
{ACAD_REACTORS
330
22
102
}
330
22
100
AcDbXrecord
280
     1
270
     1
271
     1
  0
XRECORD
  5
88B
102
{ACAD_REACTORS
330
88A
102
}
330
88A
100
AcDbXrecord
280
     1
102
ACAD_ROUNDTRIP_2012_MLEADER_STYLE
298
     1
  0
CELLSTYLEMAP
  5
889
102
{ACAD_REACTORS
330
888
102
}
330
888
100
AcDbCellStyleMap
 90
        3
300
CELLSTYLE
  1
TABLEFORMAT_BEGIN
 90
        5
170
     1
 91
        0
 92
    32768
 62
   257
 93
        1
300
CONTENTFORMAT
  1
CONTENTFORMAT_BEGIN
 90
        0
 91
        0
 92
      512
 93
        0
300

 40
0.0
140
1.0
 94
        5
 62
     0
340
55
144
0.25
309
CONTENTFORMAT_END
171
     0
 94
        0
309
TABLEFORMAT_END
  1
CELLSTYLE_BEGIN
 90
        1
 91
        1
300
_TITLE
309
CELLSTYLE_END
300
CELLSTYLE
  1
TABLEFORMAT_BEGIN
 90
        5
170
     1
 91
        0
 92
        0
 62
   257
 93
        1
300
CONTENTFORMAT
  1
CONTENTFORMAT_BEGIN
 90
        0
 91
        0
 92
      512
 93
        0
300

 40
0.0
140
1.0
 94
        5
 62
     0
340
55
144
0.18
309
CONTENTFORMAT_END
171
     0
 94
        0
309
TABLEFORMAT_END
  1
CELLSTYLE_BEGIN
 90
        2
 91
        1
300
_HEADER
309
CELLSTYLE_END
300
CELLSTYLE
  1
TABLEFORMAT_BEGIN
 90
        5
170
     1
 91
        0
 92
        0
 62
   257
 93
        1
300
CONTENTFORMAT
  1
CONTENTFORMAT_BEGIN
 90
        0
 91
        0
 92
      512
 93
        0
300

 40
0.0
140
1.0
 94
        2
 62
     0
340
55
144
0.18
309
CONTENTFORMAT_END
171
     0
 94
        0
309
TABLEFORMAT_END
  1
CELLSTYLE_BEGIN
 90
        3
 91
        2
300
_DATA
309
CELLSTYLE_END
  0
XRECORD
  5
8C1
102
{ACAD_REACTORS
330
888
102
}
330
888
100
AcDbXrecord
280
     1
102
ACAD_ROUNDTRIP_PRE2007_TABLESTYLE
 90
      512
 91
        0
  1

 92
      512
 93
        0
  2

 94
      512
 95
        0
  3

  0
XRECORD
  5
89C
102
{ACAD_REACTORS
330
89B
102
}
330
89B
100
AcDbXrecord
280
     1
102
RTVSPropertyOp0
 70
     1
102
RTVSPropertyOp1
 70
     1
102
RTVSPropertyOp2
 70
     1
102
RTVSPropertyOp3
 70
     1
102
RTVSPropertyOp4
 70
     1
102
RTVSPropertyOp5
 70
     1
102
RTVSPropertyOp6
 70
     1
102
RTVSPropertyOp7
 70
     1
102
RTVSPropertyOp8
 70
     1
102
RTVSPropertyOp9
 70
     1
102
RTVSPropertyOp10
 70
     1
102
RTVSPropertyOp11
 70
     1
102
RTVSPropertyOp12
 70
     1
102
RTVSPropertyOp13
 70
     1
102
RTVSPropertyOp14
 70
     1
102
RTVSPropertyOp15
 70
     1
102
RTVSPropertyOp16
 70
     1
102
RTVSPropertyOp17
 70
     1
102
RTVSPropertyOp18
 70
     1
102
RTVSPropertyOp19
 70
     1
102
RTVSPropertyOp20
 70
     1
102
RTVSPropertyOp21
 70
     1
102
RTVSPropertyOp22
 70
     1
102
RTVSPropertyOp23
 70
     1
102
RTVSPropertyOp24
 70
     1
102
RTVSPropertyOp25
 70
     1
102
RTVSPropertyOp26
 70
     1
102
RTVSPropertyOp27
 70
     1
102
RTVSPropertyOp28
 70
     1
102
RTVSPropertyOp29
 70
     1
102
RTVSPropertyOp30
 70
     1
102
RTVSPropertyOp31
 70
     1
102
RTVSPropertyOp32
 70
     1
  0
XRECORD
  5
89A
102
{ACAD_REACTORS
330
899
102
}
330
899
100
AcDbXrecord
280
     1
102
RTVSPropertyOp0
 70
     1
102
RTVSPropertyOp1
 70
     1
102
RTVSPropertyOp2
 70
     1
102
RTVSPropertyOp3
 70
     1
102
RTVSPropertyOp4
 70
     1
102
RTVSPropertyOp5
 70
     1
102
RTVSPropertyOp6
 70
     1
102
RTVSPropertyOp7
 70
     1
102
RTVSPropertyOp8
 70
     1
102
RTVSPropertyOp9
 70
     1
102
RTVSPropertyOp10
 70
     1
102
RTVSPropertyOp11
 70
     1
102
RTVSPropertyOp12
 70
     1
102
RTVSPropertyOp13
 70
     1
102
RTVSPropertyOp14
 70
     1
102
RTVSPropertyOp15
 70
     1
102
RTVSPropertyOp16
 70
     1
102
RTVSPropertyOp17
 70
     1
102
RTVSPropertyOp18
 70
     1
102
RTVSPropertyOp19
 70
     1
102
RTVSPropertyOp20
 70
     1
102
RTVSPropertyOp21
 70
     1
102
RTVSPropertyOp22
 70
     1
102
RTVSPropertyOp23
 70
     1
102
RTVSPropertyOp24
 70
     1
102
RTVSPropertyOp25
 70
     1
102
RTVSPropertyOp26
 70
     1
102
RTVSPropertyOp27
 70
     1
102
RTVSPropertyOp28
 70
     1
102
RTVSPropertyOp29
 70
     1
102
RTVSPropertyOp30
 70
     1
102
RTVSPropertyOp31
 70
     1
102
RTVSPropertyOp32
 70
     1
  0
XRECORD
  5
8A8
102
{ACAD_REACTORS
330
8A7
102
}
330
8A7
100
AcDbXrecord
280
     1
102
RTVSPropertyOp0
 70
     1
102
RTVSPropertyOp1
 70
     1
102
RTVSPropertyOp2
 70
     1
102
RTVSPropertyOp3
 70
     1
102
RTVSPropertyOp4
 70
     1
102
RTVSPropertyOp5
 70
     1
102
RTVSPropertyOp6
 70
     1
102
RTVSPropertyOp7
 70
     1
102
RTVSPropertyOp8
 70
     1
102
RTVSPropertyOp9
 70
     1
102
RTVSPropertyOp10
 70
     1
102
RTVSPropertyOp11
 70
     1
102
RTVSPropertyOp12
 70
     1
102
RTVSPropertyOp13
 70
     1
102
RTVSPropertyOp14
 70
     1
102
RTVSPropertyOp15
 70
     1
102
RTVSPropertyOp16
 70
     1
102
RTVSPropertyOp17
 70
     1
102
RTVSPropertyOp18
 70
     1
102
RTVSPropertyOp19
 70
     1
102
RTVSPropertyOp20
 70
     1
102
RTVSPropertyOp21
 70
     1
102
RTVSPropertyOp22
 70
     1
102
RTVSPropertyOp23
 70
     1
102
RTVSPropertyOp24
 70
     1
102
RTVSPropertyOp25
 70
     1
102
RTVSPropertyOp26
 70
     1
102
RTVSPropertyOp27
 70
     1
102
RTVSPropertyOp28
 70
     1
102
RTVSPropertyOp29
 70
     1
102
RTVSPropertyOp30
 70
     1
102
RTVSPropertyOp31
 70
     1
102
RTVSPropertyOp32
 70
     1
  0
XRECORD
  5
8B0
102
{ACAD_REACTORS
330
8AF
102
}
330
8AF
100
AcDbXrecord
280
     1
102
RTVSPropertyOp0
 70
     1
102
RTVSPropertyOp1
 70
     1
102
RTVSPropertyOp2
 70
     1
102
RTVSPropertyOp3
 70
     1
102
RTVSPropertyOp4
 70
     1
102
RTVSPropertyOp5
 70
     1
102
RTVSPropertyOp6
 70
     1
102
RTVSPropertyOp7
 70
     1
102
RTVSPropertyOp8
 70
     1
102
RTVSPropertyOp9
 70
     1
102
RTVSPropertyOp10
 70
     1
102
RTVSPropertyOp11
 70
     1
102
RTVSPropertyOp12
 70
     1
102
RTVSPropertyOp13
 70
     1
102
RTVSPropertyOp14
 70
     1
102
RTVSPropertyOp15
 70
     1
102
RTVSPropertyOp16
 70
     1
102
RTVSPropertyOp17
 70
     1
102
RTVSPropertyOp18
 70
     1
102
RTVSPropertyOp19
 70
     1
102
RTVSPropertyOp20
 70
     1
102
RTVSPropertyOp21
 70
     1
102
RTVSPropertyOp22
 70
     1
102
RTVSPropertyOp23
 70
     1
102
RTVSPropertyOp24
 70
     1
102
RTVSPropertyOp25
 70
     1
102
RTVSPropertyOp26
 70
     1
102
RTVSPropertyOp27
 70
     1
102
RTVSPropertyOp28
 70
     1
102
RTVSPropertyOp29
 70
     1
102
RTVSPropertyOp30
 70
     1
102
RTVSPropertyOp31
 70
     1
102
RTVSPropertyOp32
 70
     1
  0
XRECORD
  5
8A2
102
{ACAD_REACTORS
330
8A1
102
}
330
8A1
100
AcDbXrecord
280
     1
102
RTVSPropertyOp0
 70
     1
102
RTVSPropertyOp1
 70
     1
102
RTVSPropertyOp2
 70
     1
102
RTVSPropertyOp3
 70
     1
102
RTVSPropertyOp4
 70
     1
102
RTVSPropertyOp5
 70
     1
102
RTVSPropertyOp6
 70
     1
102
RTVSPropertyOp7
 70
     1
102
RTVSPropertyOp8
 70
     1
102
RTVSPropertyOp9
 70
     1
102
RTVSPropertyOp10
 70
     1
102
RTVSPropertyOp11
 70
     1
102
RTVSPropertyOp12
 70
     1
102
RTVSPropertyOp13
 70
     1
102
RTVSPropertyOp14
 70
     1
102
RTVSPropertyOp15
 70
     1
102
RTVSPropertyOp16
 70
     1
102
RTVSPropertyOp17
 70
     1
102
RTVSPropertyOp18
 70
     1
102
RTVSPropertyOp19
 70
     1
102
RTVSPropertyOp20
 70
     1
102
RTVSPropertyOp21
 70
     1
102
RTVSPropertyOp22
 70
     1
102
RTVSPropertyOp23
 70
     1
102
RTVSPropertyOp24
 70
     1
102
RTVSPropertyOp25
 70
     1
102
RTVSPropertyOp26
 70
     1
102
RTVSPropertyOp27
 70
     1
102
RTVSPropertyOp28
 70
     1
102
RTVSPropertyOp29
 70
     1
102
RTVSPropertyOp30
 70
     1
102
RTVSPropertyOp31
 70
     1
102
RTVSPropertyOp32
 70
     1
  0
XRECORD
  5
8A6
102
{ACAD_REACTORS
330
8A5
102
}
330
8A5
100
AcDbXrecord
280
     1
102
RTVSPropertyOp0
 70
     1
102
RTVSPropertyOp1
 70
     1
102
RTVSPropertyOp2
 70
     1
102
RTVSPropertyOp3
 70
     1
102
RTVSPropertyOp4
 70
     1
102
RTVSPropertyOp5
 70
     1
102
RTVSPropertyOp6
 70
     1
102
RTVSPropertyOp7
 70
     1
102
RTVSPropertyOp8
 70
     1
102
RTVSPropertyOp9
 70
     1
102
RTVSPropertyOp10
 70
     1
102
RTVSPropertyOp11
 70
     1
102
RTVSPropertyOp12
 70
     1
102
RTVSPropertyOp13
 70
     1
102
RTVSPropertyOp14
 70
     1
102
RTVSPropertyOp15
 70
     1
102
RTVSPropertyOp16
 70
     1
102
RTVSPropertyOp17
 70
     1
102
RTVSPropertyOp18
 70
     1
102
RTVSPropertyOp19
 70
     1
102
RTVSPropertyOp20
 70
     1
102
RTVSPropertyOp21
 70
     1
102
RTVSPropertyOp22
 70
     1
102
RTVSPropertyOp23
 70
     1
102
RTVSPropertyOp24
 70
     1
102
RTVSPropertyOp25
 70
     1
102
RTVSPropertyOp26
 70
     1
102
RTVSPropertyOp27
 70
     1
102
RTVSPropertyOp28
 70
     1
102
RTVSPropertyOp29
 70
     1
102
RTVSPropertyOp30
 70
     1
102
RTVSPropertyOp31
 70
     1
102
RTVSPropertyOp32
 70
     1
  0
XRECORD
  5
8C0
102
{ACAD_REACTORS
330
8BF
102
}
330
8BF
100
AcDbXrecord
280
     1
102
RTVSPropertyOp0
 70
     0
102
RTVSPropertyOp1
 70
     0
102
RTVSPropertyOp2
 70
     0
102
RTVSPropertyOp3
 70
     0
102
RTVSPropertyOp4
 70
     0
102
RTVSPropertyOp5
 70
     0
102
RTVSPropertyOp6
 70
     0
102
RTVSPropertyOp7
 70
     0
102
RTVSPropertyOp8
 70
     0
102
RTVSPropertyOp9
 70
     0
102
RTVSPropertyOp10
 70
     0
102
RTVSPropertyOp11
 70
     0
102
RTVSPropertyOp12
 70
     0
102
RTVSPropertyOp13
 70
     0
102
RTVSPropertyOp14
 70
     2
102
RTVSPropertyOp15
 70
     0
102
RTVSPropertyOp16
 70
     0
102
RTVSPropertyOp17
 70
     0
102
RTVSPropertyOp18
 70
     0
102
RTVSPropertyOp19
 70
     0
102
RTVSPropertyOp20
 70
     0
102
RTVSPropertyOp21
 70
     0
102
RTVSPropertyOp22
 70
     0
102
RTVSPropertyOp23
 70
     0
102
RTVSPropertyOp24
 70
     0
102
RTVSPropertyOp25
 70
     0
102
RTVSPropertyOp26
 70
     0
102
RTVSPropertyOp27
 70
     0
102
RTVSPropertyOp28
 70
     1
102
RTVSPropertyOp29
 70
     1
102
RTVSPropertyOp30
 70
     1
102
RTVSPropertyOp31
 70
     1
102
RTVSPropertyOp32
 70
     1
  0
XRECORD
  5
8AE
102
{ACAD_REACTORS
330
8AD
102
}
330
8AD
100
AcDbXrecord
280
     1
102
RTVSPropertyOp0
 70
     1
102
RTVSPropertyOp1
 70
     1
102
RTVSPropertyOp2
 70
     1
102
RTVSPropertyOp3
 70
     1
102
RTVSPropertyOp4
 70
     1
102
RTVSPropertyOp5
 70
     1
102
RTVSPropertyOp6
 70
     1
102
RTVSPropertyOp7
 70
     1
102
RTVSPropertyOp8
 70
     1
102
RTVSPropertyOp9
 70
     1
102
RTVSPropertyOp10
 70
     1
102
RTVSPropertyOp11
 70
     1
102
RTVSPropertyOp12
 70
     1
102
RTVSPropertyOp13
 70
     1
102
RTVSPropertyOp14
 70
     1
102
RTVSPropertyOp15
 70
     1
102
RTVSPropertyOp16
 70
     1
102
RTVSPropertyOp17
 70
     1
102
RTVSPropertyOp18
 70
     1
102
RTVSPropertyOp19
 70
     1
102
RTVSPropertyOp20
 70
     1
102
RTVSPropertyOp21
 70
     1
102
RTVSPropertyOp22
 70
     1
102
RTVSPropertyOp23
 70
     1
102
RTVSPropertyOp24
 70
     1
102
RTVSPropertyOp25
 70
     1
102
RTVSPropertyOp26
 70
     1
102
RTVSPropertyOp27
 70
     1
102
RTVSPropertyOp28
 70
     1
102
RTVSPropertyOp29
 70
     1
102
RTVSPropertyOp30
 70
     1
102
RTVSPropertyOp31
 70
     1
102
RTVSPropertyOp32
 70
     1
  0
XRECORD
  5
892
102
{ACAD_REACTORS
330
891
102
}
330
891
100
AcDbXrecord
280
     1
102
RTVSPropertyOp0
 70
     1
102
RTVSPropertyOp1
 70
     1
102
RTVSPropertyOp2
 70
     1
102
RTVSPropertyOp3
 70
     1
102
RTVSPropertyOp4
 70
     1
102
RTVSPropertyOp5
 70
     1
102
RTVSPropertyOp6
 70
     1
102
RTVSPropertyOp7
 70
     1
102
RTVSPropertyOp8
 70
     1
102
RTVSPropertyOp9
 70
     1
102
RTVSPropertyOp10
 70
     1
102
RTVSPropertyOp11
 70
     1
102
RTVSPropertyOp12
 70
     1
102
RTVSPropertyOp13
 70
     1
102
RTVSPropertyOp14
 70
     1
102
RTVSPropertyOp15
 70
     1
102
RTVSPropertyOp16
 70
     1
102
RTVSPropertyOp17
 70
     1
102
RTVSPropertyOp18
 70
     1
102
RTVSPropertyOp19
 70
     1
102
RTVSPropertyOp20
 70
     1
102
RTVSPropertyOp21
 70
     1
102
RTVSPropertyOp22
 70
     1
102
RTVSPropertyOp23
 70
     1
102
RTVSPropertyOp24
 70
     1
102
RTVSPropertyOp25
 70
     1
102
RTVSPropertyOp26
 70
     1
102
RTVSPropertyOp27
 70
     1
102
RTVSPropertyOp28
 70
     1
102
RTVSPropertyOp29
 70
     1
102
RTVSPropertyOp30
 70
     1
102
RTVSPropertyOp31
 70
     1
102
RTVSPropertyOp32
 70
     1
  0
XRECORD
  5
894
102
{ACAD_REACTORS
330
893
102
}
330
893
100
AcDbXrecord
280
     1
102
RTVSPropertyOp0
 70
     1
102
RTVSPropertyOp1
 70
     1
102
RTVSPropertyOp2
 70
     1
102
RTVSPropertyOp3
 70
     1
102
RTVSPropertyOp4
 70
     1
102
RTVSPropertyOp5
 70
     1
102
RTVSPropertyOp6
 70
     1
102
RTVSPropertyOp7
 70
     1
102
RTVSPropertyOp8
 70
     1
102
RTVSPropertyOp9
 70
     1
102
RTVSPropertyOp10
 70
     1
102
RTVSPropertyOp11
 70
     1
102
RTVSPropertyOp12
 70
     1
102
RTVSPropertyOp13
 70
     1
102
RTVSPropertyOp14
 70
     1
102
RTVSPropertyOp15
 70
     1
102
RTVSPropertyOp16
 70
     1
102
RTVSPropertyOp17
 70
     1
102
RTVSPropertyOp18
 70
     1
102
RTVSPropertyOp19
 70
     1
102
RTVSPropertyOp20
 70
     1
102
RTVSPropertyOp21
 70
     1
102
RTVSPropertyOp22
 70
     1
102
RTVSPropertyOp23
 70
     1
102
RTVSPropertyOp24
 70
     1
102
RTVSPropertyOp25
 70
     1
102
RTVSPropertyOp26
 70
     1
102
RTVSPropertyOp27
 70
     1
102
RTVSPropertyOp28
 70
     1
102
RTVSPropertyOp29
 70
     1
102
RTVSPropertyOp30
 70
     1
102
RTVSPropertyOp31
 70
     1
102
RTVSPropertyOp32
 70
     1
  0
XRECORD
  5
896
102
{ACAD_REACTORS
330
895
102
}
330
895
100
AcDbXrecord
280
     1
102
RTVSPropertyOp0
 70
     1
102
RTVSPropertyOp1
 70
     1
102
RTVSPropertyOp2
 70
     1
102
RTVSPropertyOp3
 70
     1
102
RTVSPropertyOp4
 70
     1
102
RTVSPropertyOp5
 70
     1
102
RTVSPropertyOp6
 70
     1
102
RTVSPropertyOp7
 70
     1
102
RTVSPropertyOp8
 70
     1
102
RTVSPropertyOp9
 70
     1
102
RTVSPropertyOp10
 70
     1
102
RTVSPropertyOp11
 70
     1
102
RTVSPropertyOp12
 70
     1
102
RTVSPropertyOp13
 70
     1
102
RTVSPropertyOp14
 70
     1
102
RTVSPropertyOp15
 70
     1
102
RTVSPropertyOp16
 70
     1
102
RTVSPropertyOp17
 70
     1
102
RTVSPropertyOp18
 70
     1
102
RTVSPropertyOp19
 70
     1
102
RTVSPropertyOp20
 70
     1
102
RTVSPropertyOp21
 70
     1
102
RTVSPropertyOp22
 70
     1
102
RTVSPropertyOp23
 70
     1
102
RTVSPropertyOp24
 70
     1
102
RTVSPropertyOp25
 70
     1
102
RTVSPropertyOp26
 70
     1
102
RTVSPropertyOp27
 70
     1
102
RTVSPropertyOp28
 70
     1
102
RTVSPropertyOp29
 70
     1
102
RTVSPropertyOp30
 70
     1
102
RTVSPropertyOp31
 70
     1
102
RTVSPropertyOp32
 70
     1
  0
XRECORD
  5
898
102
{ACAD_REACTORS
330
897
102
}
330
897
100
AcDbXrecord
280
     1
102
RTVSPropertyOp0
 70
     1
102
RTVSPropertyOp1
 70
     1
102
RTVSPropertyOp2
 70
     1
102
RTVSPropertyOp3
 70
     1
102
RTVSPropertyOp4
 70
     1
102
RTVSPropertyOp5
 70
     1
102
RTVSPropertyOp6
 70
     1
102
RTVSPropertyOp7
 70
     1
102
RTVSPropertyOp8
 70
     1
102
RTVSPropertyOp9
 70
     1
102
RTVSPropertyOp10
 70
     1
102
RTVSPropertyOp11
 70
     1
102
RTVSPropertyOp12
 70
     1
102
RTVSPropertyOp13
 70
     1
102
RTVSPropertyOp14
 70
     1
102
RTVSPropertyOp15
 70
     1
102
RTVSPropertyOp16
 70
     1
102
RTVSPropertyOp17
 70
     1
102
RTVSPropertyOp18
 70
     1
102
RTVSPropertyOp19
 70
     1
102
RTVSPropertyOp20
 70
     1
102
RTVSPropertyOp21
 70
     1
102
RTVSPropertyOp22
 70
     1
102
RTVSPropertyOp23
 70
     1
102
RTVSPropertyOp24
 70
     1
102
RTVSPropertyOp25
 70
     1
102
RTVSPropertyOp26
 70
     1
102
RTVSPropertyOp27
 70
     1
102
RTVSPropertyOp28
 70
     1
102
RTVSPropertyOp29
 70
     1
102
RTVSPropertyOp30
 70
     1
102
RTVSPropertyOp31
 70
     1
102
RTVSPropertyOp32
 70
     1
  0
XRECORD
  5
8A0
102
{ACAD_REACTORS
330
89F
102
}
330
89F
100
AcDbXrecord
280
     1
102
RTVSPropertyOp0
 70
     1
102
RTVSPropertyOp1
 70
     1
102
RTVSPropertyOp2
 70
     1
102
RTVSPropertyOp3
 70
     1
102
RTVSPropertyOp4
 70
     1
102
RTVSPropertyOp5
 70
     1
102
RTVSPropertyOp6
 70
     1
102
RTVSPropertyOp7
 70
     1
102
RTVSPropertyOp8
 70
     1
102
RTVSPropertyOp9
 70
     1
102
RTVSPropertyOp10
 70
     1
102
RTVSPropertyOp11
 70
     1
102
RTVSPropertyOp12
 70
     1
102
RTVSPropertyOp13
 70
     1
102
RTVSPropertyOp14
 70
     1
102
RTVSPropertyOp15
 70
     1
102
RTVSPropertyOp16
 70
     1
102
RTVSPropertyOp17
 70
     1
102
RTVSPropertyOp18
 70
     1
102
RTVSPropertyOp19
 70
     1
102
RTVSPropertyOp20
 70
     1
102
RTVSPropertyOp21
 70
     1
102
RTVSPropertyOp22
 70
     1
102
RTVSPropertyOp23
 70
     1
102
RTVSPropertyOp24
 70
     1
102
RTVSPropertyOp25
 70
     1
102
RTVSPropertyOp26
 70
     1
102
RTVSPropertyOp27
 70
     1
102
RTVSPropertyOp28
 70
     1
102
RTVSPropertyOp29
 70
     1
102
RTVSPropertyOp30
 70
     1
102
RTVSPropertyOp31
 70
     1
102
RTVSPropertyOp32
 70
     1
  0
XRECORD
  5
8BC
102
{ACAD_REACTORS
330
8BB
102
}
330
8BB
100
AcDbXrecord
280
     1
102
RTVSPropertyOp0
 70
     0
102
RTVSPropertyOp1
 70
     0
102
RTVSPropertyOp2
 70
     0
102
RTVSPropertyOp3
 70
     0
102
RTVSPropertyOp4
 70
     0
102
RTVSPropertyOp5
 70
     0
102
RTVSPropertyOp6
 70
     0
102
RTVSPropertyOp7
 70
     0
102
RTVSPropertyOp8
 70
     0
102
RTVSPropertyOp9
 70
     0
102
RTVSPropertyOp10
 70
     0
102
RTVSPropertyOp11
 70
     0
102
RTVSPropertyOp12
 70
     0
102
RTVSPropertyOp13
 70
     0
102
RTVSPropertyOp14
 70
     2
102
RTVSPropertyOp15
 70
     0
102
RTVSPropertyOp16
 70
     0
102
RTVSPropertyOp17
 70
     0
102
RTVSPropertyOp18
 70
     0
102
RTVSPropertyOp19
 70
     0
102
RTVSPropertyOp20
 70
     0
102
RTVSPropertyOp21
 70
     0
102
RTVSPropertyOp22
 70
     0
102
RTVSPropertyOp23
 70
     0
102
RTVSPropertyOp24
 70
     0
102
RTVSPropertyOp25
 70
     0
102
RTVSPropertyOp26
 70
     0
102
RTVSPropertyOp27
 70
     0
102
RTVSPropertyOp28
 70
     1
102
RTVSPropertyOp29
 70
     1
102
RTVSPropertyOp30
 70
     1
102
RTVSPropertyOp31
 70
     1
102
RTVSPropertyOp32
 70
     1
  0
XRECORD
  5
8AC
102
{ACAD_REACTORS
330
8AB
102
}
330
8AB
100
AcDbXrecord
280
     1
102
RTVSPropertyOp0
 70
     1
102
RTVSPropertyOp1
 70
     1
102
RTVSPropertyOp2
 70
     1
102
RTVSPropertyOp3
 70
     1
102
RTVSPropertyOp4
 70
     1
102
RTVSPropertyOp5
 70
     1
102
RTVSPropertyOp6
 70
     1
102
RTVSPropertyOp7
 70
     1
102
RTVSPropertyOp8
 70
     1
102
RTVSPropertyOp9
 70
     1
102
RTVSPropertyOp10
 70
     1
102
RTVSPropertyOp11
 70
     1
102
RTVSPropertyOp12
 70
     1
102
RTVSPropertyOp13
 70
     1
102
RTVSPropertyOp14
 70
     1
102
RTVSPropertyOp15
 70
     1
102
RTVSPropertyOp16
 70
     1
102
RTVSPropertyOp17
 70
     1
102
RTVSPropertyOp18
 70
     1
102
RTVSPropertyOp19
 70
     1
102
RTVSPropertyOp20
 70
     1
102
RTVSPropertyOp21
 70
     1
102
RTVSPropertyOp22
 70
     1
102
RTVSPropertyOp23
 70
     1
102
RTVSPropertyOp24
 70
     1
102
RTVSPropertyOp25
 70
     1
102
RTVSPropertyOp26
 70
     1
102
RTVSPropertyOp27
 70
     1
102
RTVSPropertyOp28
 70
     1
102
RTVSPropertyOp29
 70
     1
102
RTVSPropertyOp30
 70
     1
102
RTVSPropertyOp31
 70
     1
102
RTVSPropertyOp32
 70
     1
  0
XRECORD
  5
8BE
102
{ACAD_REACTORS
330
8BD
102
}
330
8BD
100
AcDbXrecord
280
     1
102
RTVSPropertyOp0
 70
     0
102
RTVSPropertyOp1
 70
     0
102
RTVSPropertyOp2
 70
     0
102
RTVSPropertyOp3
 70
     0
102
RTVSPropertyOp4
 70
     0
102
RTVSPropertyOp5
 70
     0
102
RTVSPropertyOp6
 70
     0
102
RTVSPropertyOp7
 70
     0
102
RTVSPropertyOp8
 70
     0
102
RTVSPropertyOp9
 70
     0
102
RTVSPropertyOp10
 70
     0
102
RTVSPropertyOp11
 70
     0
102
RTVSPropertyOp12
 70
     0
102
RTVSPropertyOp13
 70
     0
102
RTVSPropertyOp14
 70
     2
102
RTVSPropertyOp15
 70
     0
102
RTVSPropertyOp16
 70
     0
102
RTVSPropertyOp17
 70
     0
102
RTVSPropertyOp18
 70
     0
102
RTVSPropertyOp19
 70
     0
102
RTVSPropertyOp20
 70
     0
102
RTVSPropertyOp21
 70
     0
102
RTVSPropertyOp22
 70
     0
102
RTVSPropertyOp23
 70
     0
102
RTVSPropertyOp24
 70
     0
102
RTVSPropertyOp25
 70
     0
102
RTVSPropertyOp26
 70
     0
102
RTVSPropertyOp27
 70
     0
102
RTVSPropertyOp28
 70
     1
102
RTVSPropertyOp29
 70
     1
102
RTVSPropertyOp30
 70
     1
102
RTVSPropertyOp31
 70
     1
102
RTVSPropertyOp32
 70
     1
  0
XRECORD
  5
8A4
102
{ACAD_REACTORS
330
8A3
102
}
330
8A3
100
AcDbXrecord
280
     1
102
RTVSPropertyOp0
 70
     1
102
RTVSPropertyOp1
 70
     1
102
RTVSPropertyOp2
 70
     1
102
RTVSPropertyOp3
 70
     1
102
RTVSPropertyOp4
 70
     1
102
RTVSPropertyOp5
 70
     1
102
RTVSPropertyOp6
 70
     1
102
RTVSPropertyOp7
 70
     1
102
RTVSPropertyOp8
 70
     1
102
RTVSPropertyOp9
 70
     1
102
RTVSPropertyOp10
 70
     1
102
RTVSPropertyOp11
 70
     1
102
RTVSPropertyOp12
 70
     1
102
RTVSPropertyOp13
 70
     1
102
RTVSPropertyOp14
 70
     1
102
RTVSPropertyOp15
 70
     1
102
RTVSPropertyOp16
 70
     1
102
RTVSPropertyOp17
 70
     1
102
RTVSPropertyOp18
 70
     1
102
RTVSPropertyOp19
 70
     1
102
RTVSPropertyOp20
 70
     1
102
RTVSPropertyOp21
 70
     1
102
RTVSPropertyOp22
 70
     1
102
RTVSPropertyOp23
 70
     1
102
RTVSPropertyOp24
 70
     1
102
RTVSPropertyOp25
 70
     1
102
RTVSPropertyOp26
 70
     1
102
RTVSPropertyOp27
 70
     1
102
RTVSPropertyOp28
 70
     1
102
RTVSPropertyOp29
 70
     1
102
RTVSPropertyOp30
 70
     1
102
RTVSPropertyOp31
 70
     1
102
RTVSPropertyOp32
 70
     1
  0
XRECORD
  5
8BA
102
{ACAD_REACTORS
330
8B9
102
}
330
8B9
100
AcDbXrecord
280
     1
102
RTVSPropertyOp0
 70
     1
102
RTVSPropertyOp1
 70
     1
102
RTVSPropertyOp2
 70
     1
102
RTVSPropertyOp3
 70
     1
102
RTVSPropertyOp4
 70
     1
102
RTVSPropertyOp5
 70
     1
102
RTVSPropertyOp6
 70
     1
102
RTVSPropertyOp7
 70
     1
102
RTVSPropertyOp8
 70
     1
102
RTVSPropertyOp9
 70
     1
102
RTVSPropertyOp10
 70
     1
102
RTVSPropertyOp11
 70
     1
102
RTVSPropertyOp12
 70
     1
102
RTVSPropertyOp13
 70
     1
102
RTVSPropertyOp14
 70
     1
102
RTVSPropertyOp15
 70
     1
102
RTVSPropertyOp16
 70
     1
102
RTVSPropertyOp17
 70
     1
102
RTVSPropertyOp18
 70
     1
102
RTVSPropertyOp19
 70
     1
102
RTVSPropertyOp20
 70
     1
102
RTVSPropertyOp21
 70
     1
102
RTVSPropertyOp22
 70
     1
102
RTVSPropertyOp23
 70
     1
102
RTVSPropertyOp24
 70
     1
102
RTVSPropertyOp25
 70
     1
102
RTVSPropertyOp26
 70
     1
102
RTVSPropertyOp27
 70
     1
102
RTVSPropertyOp28
 70
     1
102
RTVSPropertyOp29
 70
     1
102
RTVSPropertyOp30
 70
     1
102
RTVSPropertyOp31
 70
     1
102
RTVSPropertyOp32
 70
     1
  0
XRECORD
  5
8B8
102
{ACAD_REACTORS
330
8B7
102
}
330
8B7
100
AcDbXrecord
280
     1
102
RTVSPropertyOp0
 70
     1
102
RTVSPropertyOp1
 70
     1
102
RTVSPropertyOp2
 70
     1
102
RTVSPropertyOp3
 70
     1
102
RTVSPropertyOp4
 70
     1
102
RTVSPropertyOp5
 70
     1
102
RTVSPropertyOp6
 70
     1
102
RTVSPropertyOp7
 70
     1
102
RTVSPropertyOp8
 70
     1
102
RTVSPropertyOp9
 70
     1
102
RTVSPropertyOp10
 70
     1
102
RTVSPropertyOp11
 70
     1
102
RTVSPropertyOp12
 70
     1
102
RTVSPropertyOp13
 70
     1
102
RTVSPropertyOp14
 70
     1
102
RTVSPropertyOp15
 70
     1
102
RTVSPropertyOp16
 70
     1
102
RTVSPropertyOp17
 70
     1
102
RTVSPropertyOp18
 70
     1
102
RTVSPropertyOp19
 70
     1
102
RTVSPropertyOp20
 70
     1
102
RTVSPropertyOp21
 70
     1
102
RTVSPropertyOp22
 70
     1
102
RTVSPropertyOp23
 70
     1
102
RTVSPropertyOp24
 70
     1
102
RTVSPropertyOp25
 70
     1
102
RTVSPropertyOp26
 70
     1
102
RTVSPropertyOp27
 70
     1
102
RTVSPropertyOp28
 70
     1
102
RTVSPropertyOp29
 70
     1
102
RTVSPropertyOp30
 70
     1
102
RTVSPropertyOp31
 70
     1
102
RTVSPropertyOp32
 70
     1
  0
XRECORD
  5
8B2
102
{ACAD_REACTORS
330
8B1
102
}
330
8B1
100
AcDbXrecord
280
     1
102
RTVSPropertyOp0
 70
     1
102
RTVSPropertyOp1
 70
     1
102
RTVSPropertyOp2
 70
     1
102
RTVSPropertyOp3
 70
     1
102
RTVSPropertyOp4
 70
     1
102
RTVSPropertyOp5
 70
     1
102
RTVSPropertyOp6
 70
     1
102
RTVSPropertyOp7
 70
     1
102
RTVSPropertyOp8
 70
     1
102
RTVSPropertyOp9
 70
     1
102
RTVSPropertyOp10
 70
     1
102
RTVSPropertyOp11
 70
     1
102
RTVSPropertyOp12
 70
     1
102
RTVSPropertyOp13
 70
     1
102
RTVSPropertyOp14
 70
     1
102
RTVSPropertyOp15
 70
     1
102
RTVSPropertyOp16
 70
     1
102
RTVSPropertyOp17
 70
     1
102
RTVSPropertyOp18
 70
     1
102
RTVSPropertyOp19
 70
     1
102
RTVSPropertyOp20
 70
     1
102
RTVSPropertyOp21
 70
     1
102
RTVSPropertyOp22
 70
     1
102
RTVSPropertyOp23
 70
     1
102
RTVSPropertyOp24
 70
     1
102
RTVSPropertyOp25
 70
     1
102
RTVSPropertyOp26
 70
     1
102
RTVSPropertyOp27
 70
     1
102
RTVSPropertyOp28
 70
     1
102
RTVSPropertyOp29
 70
     1
102
RTVSPropertyOp30
 70
     1
102
RTVSPropertyOp31
 70
     1
102
RTVSPropertyOp32
 70
     1
  0
XRECORD
  5
8B4
102
{ACAD_REACTORS
330
8B3
102
}
330
8B3
100
AcDbXrecord
280
     1
102
RTVSPropertyOp0
 70
     1
102
RTVSPropertyOp1
 70
     1
102
RTVSPropertyOp2
 70
     1
102
RTVSPropertyOp3
 70
     1
102
RTVSPropertyOp4
 70
     1
102
RTVSPropertyOp5
 70
     1
102
RTVSPropertyOp6
 70
     1
102
RTVSPropertyOp7
 70
     1
102
RTVSPropertyOp8
 70
     1
102
RTVSPropertyOp9
 70
     1
102
RTVSPropertyOp10
 70
     1
102
RTVSPropertyOp11
 70
     1
102
RTVSPropertyOp12
 70
     1
102
RTVSPropertyOp13
 70
     1
102
RTVSPropertyOp14
 70
     1
102
RTVSPropertyOp15
 70
     1
102
RTVSPropertyOp16
 70
     1
102
RTVSPropertyOp17
 70
     1
102
RTVSPropertyOp18
 70
     1
102
RTVSPropertyOp19
 70
     1
102
RTVSPropertyOp20
 70
     1
102
RTVSPropertyOp21
 70
     1
102
RTVSPropertyOp22
 70
     1
102
RTVSPropertyOp23
 70
     1
102
RTVSPropertyOp24
 70
     1
102
RTVSPropertyOp25
 70
     1
102
RTVSPropertyOp26
 70
     1
102
RTVSPropertyOp27
 70
     1
102
RTVSPropertyOp28
 70
     1
102
RTVSPropertyOp29
 70
     1
102
RTVSPropertyOp30
 70
     1
102
RTVSPropertyOp31
 70
     1
102
RTVSPropertyOp32
 70
     1
  0
XRECORD
  5
8AA
102
{ACAD_REACTORS
330
8A9
102
}
330
8A9
100
AcDbXrecord
280
     1
102
RTVSPropertyOp0
 70
     1
102
RTVSPropertyOp1
 70
     1
102
RTVSPropertyOp2
 70
     1
102
RTVSPropertyOp3
 70
     1
102
RTVSPropertyOp4
 70
     1
102
RTVSPropertyOp5
 70
     1
102
RTVSPropertyOp6
 70
     1
102
RTVSPropertyOp7
 70
     1
102
RTVSPropertyOp8
 70
     1
102
RTVSPropertyOp9
 70
     1
102
RTVSPropertyOp10
 70
     1
102
RTVSPropertyOp11
 70
     1
102
RTVSPropertyOp12
 70
     1
102
RTVSPropertyOp13
 70
     1
102
RTVSPropertyOp14
 70
     1
102
RTVSPropertyOp15
 70
     1
102
RTVSPropertyOp16
 70
     1
102
RTVSPropertyOp17
 70
     1
102
RTVSPropertyOp18
 70
     1
102
RTVSPropertyOp19
 70
     1
102
RTVSPropertyOp20
 70
     1
102
RTVSPropertyOp21
 70
     1
102
RTVSPropertyOp22
 70
     1
102
RTVSPropertyOp23
 70
     1
102
RTVSPropertyOp24
 70
     1
102
RTVSPropertyOp25
 70
     1
102
RTVSPropertyOp26
 70
     1
102
RTVSPropertyOp27
 70
     1
102
RTVSPropertyOp28
 70
     1
102
RTVSPropertyOp29
 70
     1
102
RTVSPropertyOp30
 70
     1
102
RTVSPropertyOp31
 70
     1
102
RTVSPropertyOp32
 70
     1
  0
XRECORD
  5
89E
102
{ACAD_REACTORS
330
89D
102
}
330
89D
100
AcDbXrecord
280
     1
102
RTVSPropertyOp0
 70
     1
102
RTVSPropertyOp1
 70
     1
102
RTVSPropertyOp2
 70
     1
102
RTVSPropertyOp3
 70
     1
102
RTVSPropertyOp4
 70
     1
102
RTVSPropertyOp5
 70
     1
102
RTVSPropertyOp6
 70
     1
102
RTVSPropertyOp7
 70
     1
102
RTVSPropertyOp8
 70
     1
102
RTVSPropertyOp9
 70
     1
102
RTVSPropertyOp10
 70
     1
102
RTVSPropertyOp11
 70
     1
102
RTVSPropertyOp12
 70
     1
102
RTVSPropertyOp13
 70
     1
102
RTVSPropertyOp14
 70
     1
102
RTVSPropertyOp15
 70
     1
102
RTVSPropertyOp16
 70
     1
102
RTVSPropertyOp17
 70
     1
102
RTVSPropertyOp18
 70
     1
102
RTVSPropertyOp19
 70
     1
102
RTVSPropertyOp20
 70
     1
102
RTVSPropertyOp21
 70
     1
102
RTVSPropertyOp22
 70
     1
102
RTVSPropertyOp23
 70
     1
102
RTVSPropertyOp24
 70
     1
102
RTVSPropertyOp25
 70
     1
102
RTVSPropertyOp26
 70
     1
102
RTVSPropertyOp27
 70
     1
102
RTVSPropertyOp28
 70
     1
102
RTVSPropertyOp29
 70
     1
102
RTVSPropertyOp30
 70
     1
102
RTVSPropertyOp31
 70
     1
102
RTVSPropertyOp32
 70
     1
  0
XRECORD
  5
8B6
102
{ACAD_REACTORS
330
8B5
102
}
330
8B5
100
AcDbXrecord
280
     1
102
RTVSPropertyOp0
 70
     1
102
RTVSPropertyOp1
 70
     1
102
RTVSPropertyOp2
 70
     1
102
RTVSPropertyOp3
 70
     1
102
RTVSPropertyOp4
 70
     1
102
RTVSPropertyOp5
 70
     1
102
RTVSPropertyOp6
 70
     1
102
RTVSPropertyOp7
 70
     1
102
RTVSPropertyOp8
 70
     1
102
RTVSPropertyOp9
 70
     1
102
RTVSPropertyOp10
 70
     1
102
RTVSPropertyOp11
 70
     1
102
RTVSPropertyOp12
 70
     1
102
RTVSPropertyOp13
 70
     1
102
RTVSPropertyOp14
 70
     1
102
RTVSPropertyOp15
 70
     1
102
RTVSPropertyOp16
 70
     1
102
RTVSPropertyOp17
 70
     1
102
RTVSPropertyOp18
 70
     1
102
RTVSPropertyOp19
 70
     1
102
RTVSPropertyOp20
 70
     1
102
RTVSPropertyOp21
 70
     1
102
RTVSPropertyOp22
 70
     1
102
RTVSPropertyOp23
 70
     1
102
RTVSPropertyOp24
 70
     1
102
RTVSPropertyOp25
 70
     1
102
RTVSPropertyOp26
 70
     1
102
RTVSPropertyOp27
 70
     1
102
RTVSPropertyOp28
 70
     1
102
RTVSPropertyOp29
 70
     1
102
RTVSPropertyOp30
 70
     1
102
RTVSPropertyOp31
 70
     1
102
RTVSPropertyOp32
 70
     1
  0
ENDSEC
  0
EOF
